  0
SECTION
  2
HEADER
  9
$ACADVER
  1
AC1014
  9
$ACADMAINTVER
 70
     9
  9
$DWGCODEPAGE
  3
ANSI_1252
  9
$INSBASE
 10
0.0
 20
0.0
 30
0.0
  9
$EXTMIN
 10
0.2512516046213063
 20
0.267073170731706
 30
-0.00000001
  9
$EXTMAX
 10
25.0012516046213
 20
16.01707317073169
 30
0.00000001
  9
$LIMMIN
 10
0.0
 20
0.0
  9
$LIMMAX
 10
25.5
 20
16.5
  9
$ORTHOMODE
 70
     1
  9
$REGENMODE
 70
     1
  9
$FILLMODE
 70
     1
  9
$QTEXTMODE
 70
     0
  9
$MIRRTEXT
 70
     1
  9
$DRAGMODE
 70
     2
  9
$LTSCALE
 40
1.0
  9
$OSMODE
 70
   229
  9
$ATTMODE
 70
     1
  9
$TEXTSIZE
 40
0.2
  9
$TRACEWID
 40
0.05
  9
$TEXTSTYLE
  7
STANDARD
  9
$CLAYER
  8
0
  9
$CELTYPE
  6
BYLAYER
  9
$CECOLOR
 62
   256
  9
$CELTSCALE
 40
1.0
  9
$DELOBJ
 70
     1
  9
$DISPSILH
 70
     0
  9
$DIMSCALE
 40
1.0
  9
$DIMASZ
 40
0.13
  9
$DIMEXO
 40
0.05
  9
$DIMDLI
 40
0.38
  9
$DIMRND
 40
0.0
  9
$DIMDLE
 40
0.0
  9
$DIMEXE
 40
0.125
  9
$DIMTP
 40
0.0
  9
$DIMTM
 40
0.0
  9
$DIMTXT
 40
0.125
  9
$DIMCEN
 40
0.09
  9
$DIMTSZ
 40
0.0
  9
$DIMTOL
 70
     0
  9
$DIMLIM
 70
     0
  9
$DIMTIH
 70
     1
  9
$DIMTOH
 70
     1
  9
$DIMSE1
 70
     0
  9
$DIMSE2
 70
     0
  9
$DIMTAD
 70
     0
  9
$DIMZIN
 70
     0
  9
$DIMBLK
  1

  9
$DIMASO
 70
     1
  9
$DIMSHO
 70
     1
  9
$DIMPOST
  1

  9
$DIMAPOST
  1

  9
$DIMALT
 70
     0
  9
$DIMALTD
 70
     2
  9
$DIMALTF
 40
25.4
  9
$DIMLFAC
 40
1.0
  9
$DIMTOFL
 70
     0
  9
$DIMTVP
 40
0.0
  9
$DIMTIX
 70
     0
  9
$DIMSOXD
 70
     0
  9
$DIMSAH
 70
     0
  9
$DIMBLK1
  1

  9
$DIMBLK2
  1

  9
$DIMSTYLE
  2
STANDARD
  9
$DIMCLRD
 70
     0
  9
$DIMCLRE
 70
     0
  9
$DIMCLRT
 70
     0
  9
$DIMTFAC
 40
1.0
  9
$DIMGAP
 40
0.06
  9
$DIMJUST
 70
     0
  9
$DIMSD1
 70
     0
  9
$DIMSD2
 70
     0
  9
$DIMTOLJ
 70
     1
  9
$DIMTZIN
 70
     0
  9
$DIMALTZ
 70
     0
  9
$DIMALTTZ
 70
     0
  9
$DIMFIT
 70
     3
  9
$DIMUPT
 70
     0
  9
$DIMUNIT
 70
     2
  9
$DIMDEC
 70
     4
  9
$DIMTDEC
 70
     4
  9
$DIMALTU
 70
     2
  9
$DIMALTTD
 70
     2
  9
$DIMTXSTY
  7
STANDARD
  9
$DIMAUNIT
 70
     0
  9
$LUNITS
 70
     2
  9
$LUPREC
 70
     3
  9
$SKETCHINC
 40
0.1
  9
$FILLETRAD
 40
0.5
  9
$AUNITS
 70
     0
  9
$AUPREC
 70
     0
  9
$MENU
  1
.
  9
$ELEVATION
 40
0.0
  9
$PELEVATION
 40
0.0
  9
$THICKNESS
 40
0.0
  9
$LIMCHECK
 70
     0
  9
$BLIPMODE
 70
     0
  9
$CHAMFERA
 40
0.5
  9
$CHAMFERB
 40
0.5
  9
$CHAMFERC
 40
1.0
  9
$CHAMFERD
 40
0.0
  9
$SKPOLY
 70
     0
  9
$TDCREATE
 40
2454874.696592697
  9
$TDUPDATE
 40
2455363.349523680
  9
$TDINDWG
 40
0.0254921528
  9
$TDUSRTIMER
 40
0.0254914236
  9
$USRTIMER
 70
     1
  9
$ANGBASE
 50
0.0
  9
$ANGDIR
 70
     0
  9
$PDMODE
 70
     0
  9
$PDSIZE
 40
-1.0
  9
$PLINEWID
 40
0.0
  9
$COORDS
 70
     2
  9
$SPLFRAME
 70
     0
  9
$SPLINETYPE
 70
     6
  9
$SPLINESEGS
 70
     8
  9
$ATTDIA
 70
     0
  9
$ATTREQ
 70
     1
  9
$HANDLING
 70
  4097
  9
$HANDSEED
  5
71B
  9
$SURFTAB1
 70
     6
  9
$SURFTAB2
 70
     6
  9
$SURFTYPE
 70
     6
  9
$SURFU
 70
     6
  9
$SURFV
 70
     6
  9
$UCSNAME
  2

  9
$UCSORG
 10
0.0
 20
0.0
 30
0.0
  9
$UCSXDIR
 10
1.0
 20
0.0
 30
0.0
  9
$UCSYDIR
 10
0.0
 20
1.0
 30
0.0
  9
$PUCSNAME
  2

  9
$PUCSORG
 10
0.0
 20
0.0
 30
0.0
  9
$PUCSXDIR
 10
1.0
 20
0.0
 30
0.0
  9
$PUCSYDIR
 10
0.0
 20
1.0
 30
0.0
  9
$USERI1
 70
     0
  9
$USERI2
 70
     0
  9
$USERI3
 70
     0
  9
$USERI4
 70
     0
  9
$USERI5
 70
     0
  9
$USERR1
 40
0.0
  9
$USERR2
 40
0.0
  9
$USERR3
 40
0.0
  9
$USERR4
 40
0.0
  9
$USERR5
 40
0.0
  9
$WORLDVIEW
 70
     1
  9
$SHADEDGE
 70
     3
  9
$SHADEDIF
 70
    70
  9
$TILEMODE
 70
     1
  9
$MAXACTVP
 70
    64
  9
$PINSBASE
 10
0.0
 20
0.0
 30
0.0
  9
$PLIMCHECK
 70
     0
  9
$PEXTMIN
 10
1.000000000000000E+20
 20
1.000000000000000E+20
 30
1.000000000000000E+20
  9
$PEXTMAX
 10
-1.000000000000000E+20
 20
-1.000000000000000E+20
 30
-1.000000000000000E+20
  9
$PLIMMIN
 10
0.0
 20
0.0
  9
$PLIMMAX
 10
12.0
 20
9.0
  9
$UNITMODE
 70
     0
  9
$VISRETAIN
 70
     1
  9
$PLINEGEN
 70
     0
  9
$PSLTSCALE
 70
     1
  9
$TREEDEPTH
 70
  3020
  9
$PICKSTYLE
 70
     1
  9
$CMLSTYLE
  2
STANDARD
  9
$CMLJUST
 70
     0
  9
$CMLSCALE
 40
1.0
  9
$PROXYGRAPHICS
 70
     1
  9
$MEASUREMENT
 70
     0
  0
ENDSEC
  0
SECTION
  2
CLASSES
  0
CLASS
  1
ACDBDICTIONARYWDFLT
  2
AcDbDictionaryWithDefault
  3
AutoCAD 2000
 90
        0
280
     0
281
     0
  0
CLASS
  1
VISUALSTYLE
  2
AcDbVisualStyle
  3
ObjectDBX Classes
 90
     4095
280
     0
281
     0
  0
CLASS
  1
SCALE
  2
AcDbScale
  3
ObjectDBX Classes
 90
     1153
280
     0
281
     0
  0
CLASS
  1
DICTIONARYVAR
  2
AcDbDictionaryVar
  3
AutoCAD 2000
 90
        0
280
     0
281
     0
  0
CLASS
  1
ACDBPLACEHOLDER
  2
AcDbPlaceHolder
  3
AutoCAD 2000
 90
        0
280
     0
281
     0
  0
CLASS
  1
LAYOUT
  2
AcDbLayout
  3
AutoCAD 2000
 90
        0
280
     0
281
     0
  0
CLASS
  1
ACAD_PROXY_OBJECT_WRAPPER
  2
AcDbProxyObjectWrapper
  3
AutoCAD 2000
 90
        0
280
     0
281
     0
  0
CLASS
  1
LONG_TRANSACTION
  2
AcDbLongTransaction
  3
AutoCAD 2000
 90
        0
280
     0
281
     0
  0
CLASS
  1
LWPOLYLINE
  2
AcDbPolyline
  3
AutoCAD 2000
 90
        0
280
     0
281
     1
  0
CLASS
  1
HATCH
  2
AcDbHatch
  3
AutoCAD 2000
 90
        0
280
     0
281
     1
  0
CLASS
  1
XRECORD
  2
AcDbXrecord
  3
AutoCAD 2000
 90
        0
280
     0
281
     0
  0
ENDSEC
  0
SECTION
  2
TABLES
  0
TABLE
  2
VPORT
  5
8
330
0
100
AcDbSymbolTable
 70
     2
  0
VPORT
  5
6F4
330
8
100
AcDbSymbolTableRecord
100
AcDbViewportTableRecord
  2
*ACTIVE
 70
     0
 10
0.0
 20
0.0
 11
1.0
 21
1.0
 12
12.62646108828072
 22
8.141738929892589
 13
0.0
 23
0.0
 14
0.5
 24
0.5
 15
0.5
 25
0.5
 16
0.0
 26
0.0
 36
1.0
 17
0.0
 27
0.0
 37
0.0
 40
15.9092968413484
 41
1.836974789915966
 42
50.0
 43
0.0
 44
0.0
 50
0.0
 51
0.0
 71
     0
 72
  2000
 73
     1
 74
     3
 75
     0
 76
     0
 77
     0
 78
     0
  0
ENDTAB
  0
TABLE
  2
LTYPE
  5
5
330
0
100
AcDbSymbolTable
 70
     6
  0
LTYPE
  5
14
330
5
100
AcDbSymbolTableRecord
100
AcDbLinetypeTableRecord
  2
BYBLOCK
 70
     0
  3

 72
    65
 73
     0
 40
0.0
  0
LTYPE
  5
15
330
5
100
AcDbSymbolTableRecord
100
AcDbLinetypeTableRecord
  2
BYLAYER
 70
     0
  3

 72
    65
 73
     0
 40
0.0
  0
LTYPE
  5
16
330
5
100
AcDbSymbolTableRecord
100
AcDbLinetypeTableRecord
  2
CONTINUOUS
 70
     0
  3
Solid line
 72
    65
 73
     0
 40
0.0
  0
LTYPE
  5
5D
330
5
100
AcDbSymbolTableRecord
100
AcDbLinetypeTableRecord
  2
HIDDEN
 70
     0
  3
Hidden __ __ __ __ __ __ __ __ __ __ __ __ __ __
 72
    65
 73
     2
 40
0.075
 49
0.05
 74
     0
 49
-0.025
 74
     0
  0
LTYPE
  5
5E
330
5
100
AcDbSymbolTableRecord
100
AcDbLinetypeTableRecord
  2
PHANTOM
 70
     0
  3
Phantom ______  __  __  ______  __  __  ______
 72
    65
 73
     6
 40
0.5
 49
0.25
 74
     0
 49
-0.05
 74
     0
 49
0.05
 74
     0
 49
-0.05
 74
     0
 49
0.05
 74
     0
 49
-0.05
 74
     0
  0
LTYPE
  5
5F
330
5
100
AcDbSymbolTableRecord
100
AcDbLinetypeTableRecord
  2
CENTER
 70
     0
  3
Center ____ _ ____ _ ____ _ ____ _ ____ _ ____
 72
    65
 73
     4
 40
0.4
 49
0.25
 74
     0
 49
-0.05
 74
     0
 49
0.05
 74
     0
 49
-0.05
 74
     0
  0
LTYPE
  5
60
330
5
100
AcDbSymbolTableRecord
100
AcDbLinetypeTableRecord
  2
CENTERX2
 70
     0
  3
Center (2x) ________  __  ________  __  _____
 72
    65
 73
     4
 40
0.8
 49
0.5
 74
     0
 49
-0.1
 74
     0
 49
0.1
 74
     0
 49
-0.1
 74
     0
  0
LTYPE
  5
61
330
5
100
AcDbSymbolTableRecord
100
AcDbLinetypeTableRecord
  2
DOT2
 70
     0
  3
Dot (.5x) ........................................
 72
    65
 73
     2
 40
0.025
 49
0.0
 74
     0
 49
-0.025
 74
     0
  0
ENDTAB
  0
TABLE
  2
LAYER
  5
2
330
0
100
AcDbSymbolTable
 70
     2
  0
LAYER
  5
10
330
2
100
AcDbSymbolTableRecord
100
AcDbLayerTableRecord
  2
0
 70
     0
 62
     7
  6
CONTINUOUS
  0
LAYER
  5
5A2
330
2
100
AcDbSymbolTableRecord
100
AcDbLayerTableRecord
  2
DEFPOINTS
 70
     0
 62
     7
  6
CONTINUOUS
  0
ENDTAB
  0
TABLE
  2
STYLE
  5
3
330
0
100
AcDbSymbolTable
 70
     2
  0
STYLE
  5
11
330
3
100
AcDbSymbolTableRecord
100
AcDbTextStyleTableRecord
  2
STANDARD
 70
     0
 40
0.0
 41
1.0
 50
0.0
 71
     0
 42
0.2
  3
txt
  4

  0
STYLE
  5
72
330
3
100
AcDbSymbolTableRecord
100
AcDbTextStyleTableRecord
  2
SLDTEXTSTYLE0
 70
     0
 40
0.0
 41
0.75
 50
0.0
 71
     0
 42
0.2
  3
TXT
  4

  0
ENDTAB
  0
TABLE
  2
VIEW
  5
6
330
0
100
AcDbSymbolTable
 70
     0
  0
ENDTAB
  0
TABLE
  2
UCS
  5
7
330
0
100
AcDbSymbolTable
 70
     0
  0
ENDTAB
  0
TABLE
  2
APPID
  5
9
330
0
100
AcDbSymbolTable
 70
     1
  0
APPID
  5
12
330
9
100
AcDbSymbolTableRecord
100
AcDbRegAppTableRecord
  2
ACAD
 70
     0
  0
ENDTAB
  0
TABLE
  2
DIMSTYLE
  5
A
330
0
100
AcDbSymbolTable
 70
     7
  0
DIMSTYLE
105
27
330
A
100
AcDbSymbolTableRecord
100
AcDbDimStyleTableRecord
  2
STANDARD
 70
     0
  3

  4

  5

  6

  7

 40
1.0
 41
0.18
 42
0.0625
 43
0.38
 44
0.18
 45
0.0
 46
0.0
 47
0.0
 48
0.0
140
0.18
141
0.09
142
0.0
143
25.4
144
1.0
145
0.0
146
1.0
147
0.09
 71
     0
 72
     0
 73
     1
 74
     1
 75
     0
 76
     0
 77
     0
 78
     0
170
     0
171
     2
172
     0
173
     0
174
     0
175
     0
176
     0
177
     0
178
     0
270
     2
271
     4
272
     4
273
     2
274
     2
340
11
275
     0
280
     0
281
     0
282
     0
283
     1
284
     0
285
     0
286
     0
287
     3
288
     0
  0
DIMSTYLE
105
177
102
{ACAD_REACTORS
330
176
330
3C4
330
3E9
102
}
330
A
100
AcDbSymbolTableRecord
100
AcDbDimStyleTableRecord
  2
SLDDIMSTYLE0
 70
     0
  3

  4

  5

  6

  7

 40
1.0
 41
0.13
 42
0.0625
 43
0.38
 44
0.0
 45
0.000000001
 46
0.0
 47
0.0
 48
0.0
140
0.125
141
0.09
142
0.0
143
25.4
144
1.0
145
0.0
146
1.0
147
0.03125
 71
     0
 72
     0
 73
     1
 74
     1
 75
     0
 76
     0
 77
     0
 78
     4
170
     1
171
     2
172
     0
173
     1
174
     0
175
     0
176
     0
177
     0
178
     0
270
     2
271
     3
272
     3
273
     2
274
     2
340
72
275
     0
280
     0
281
     0
282
     0
283
     1
284
    12
285
     0
286
     0
287
     3
288
     0
  0
DIMSTYLE
105
190
330
A
100
AcDbSymbolTableRecord
100
AcDbDimStyleTableRecord
  2
SLDDIMSTYLE1
 70
     0
  3

  4

  5

  6

  7

 40
1.0
 41
0.13
 42
0.0625
 43
0.38
 44
0.0
 45
0.000000001
 46
0.0
 47
0.0
 48
0.0
140
0.13
141
0.09
142
0.0
143
25.4
144
1.0
145
0.0
146
1.0
147
0.0325
 71
     0
 72
     0
 73
     1
 74
     1
 75
     0
 76
     0
 77
     0
 78
     0
170
     0
171
     2
172
     0
173
     1
174
     0
175
     0
176
     0
177
     0
178
     0
270
     2
271
     0
272
     0
273
     2
274
     2
340
11
275
     0
280
     0
281
     0
282
     0
283
     1
284
     0
285
     0
286
     0
287
     3
288
     0
  0
DIMSTYLE
105
1AE
102
{ACAD_REACTORS
330
1AD
330
1C0
330
1D2
330
1F7
330
209
330
22F
330
241
330
254
330
2B7
330
2C9
330
3D7
330
3FB
330
4D4
330
4E6
330
576
102
}
330
A
100
AcDbSymbolTableRecord
100
AcDbDimStyleTableRecord
  2
SLDDIMSTYLE2
 70
     0
  3

  4

  5

  6

  7

 40
1.0
 41
0.13
 42
0.0625
 43
0.38
 44
0.0
 45
0.000000001
 46
0.0
 47
0.0
 48
0.0
140
0.125
141
0.09
142
0.0
143
25.4
144
1.0
145
0.0
146
1.0
147
0.03125
 71
     0
 72
     0
 73
     1
 74
     1
 75
     0
 76
     0
 77
     0
 78
    12
170
     1
171
     2
172
     0
173
     1
174
     0
175
     0
176
     0
177
     0
178
     0
270
     2
271
     3
272
     3
273
     2
274
     2
340
72
275
     0
280
     0
281
     0
282
     0
283
     1
284
    12
285
     0
286
     0
287
     3
288
     0
  0
DIMSTYLE
105
1E6
102
{ACAD_REACTORS
330
1E5
102
}
330
A
100
AcDbSymbolTableRecord
100
AcDbDimStyleTableRecord
  2
SLDDIMSTYLE3
 70
     0
  3

  4

  5

  6

  7

 40
1.0
 41
0.13
 42
0.0625
 43
0.38
 44
0.0
 45
0.000000001
 46
0.0
 47
0.0
 48
0.0
140
0.125
141
0.09
142
0.0
143
25.4
144
1.0
145
0.0
146
1.0
147
0.03125
 71
     0
 72
     0
 73
     1
 74
     1
 75
     0
 76
     0
 77
     0
 78
    12
170
     1
171
     2
172
     1
173
     1
174
     0
175
     0
176
     0
177
     0
178
     0
270
     2
271
     3
272
     3
273
     2
274
     2
340
72
275
     0
280
     0
281
     0
282
     0
283
     1
284
    12
285
     0
286
     0
287
     3
288
     0
  0
DIMSTYLE
105
21C
102
{ACAD_REACTORS
330
21B
330
4C2
330
588
330
6AB
102
}
330
A
100
AcDbSymbolTableRecord
100
AcDbDimStyleTableRecord
  2
SLDDIMSTYLE4
 70
     0
  3

  4

  5

  6

  7

 40
1.0
 41
0.13
 42
0.0625
 43
0.38
 44
0.0
 45
0.000000001
 46
0.0
 47
0.0
 48
0.0
140
0.125
141
0.09
142
0.0
143
25.4
144
1.0
145
0.0
146
1.0
147
0.03125
 71
     0
 72
     0
 73
     1
 74
     1
 75
     0
 76
     0
 77
     0
 78
    12
170
     1
171
     2
172
     0
173
     1
174
     0
175
     0
176
     0
177
     0
178
     0
270
     2
271
     3
272
     3
273
     2
274
     2
340
72
275
     0
280
     0
281
     0
282
     0
283
     1
284
    12
285
     0
286
     0
287
     3
288
     0
  0
DIMSTYLE
105
2E1
330
A
100
AcDbSymbolTableRecord
100
AcDbDimStyleTableRecord
  2
SLDDIMSTYLE5
 70
     0
  3

  4

  5

  6
DOT
  7
DOT
 40
1.0
 41
0.04
 42
0.0625
 43
0.38
 44
0.0
 45
0.000000001
 46
0.0
 47
0.0
 48
0.0
140
0.04
141
0.09
142
0.0
143
25.4
144
1.0
145
0.0
146
1.0
147
0.01
 71
     0
 72
     0
 73
     1
 74
     1
 75
     0
 76
     0
 77
     0
 78
     0
170
     0
171
     2
172
     0
173
     1
174
     0
175
     0
176
     0
177
     0
178
     0
270
     2
271
     0
272
     0
273
     2
274
     2
340
11
275
     0
280
     0
281
     0
282
     0
283
     1
284
     0
285
     0
286
     0
287
     3
288
     0
  0
ENDTAB
  0
TABLE
  2
BLOCK_RECORD
  5
1
330
0
100
AcDbSymbolTable
 70
    43
  0
BLOCK_RECORD
  5
1F
102
{ACAD_XDICTIONARY
360
717
102
}
330
1
100
AcDbSymbolTableRecord
100
AcDbBlockTableRecord
  2
*MODEL_SPACE
  0
BLOCK_RECORD
  5
1B
102
{ACAD_XDICTIONARY
360
715
102
}
330
1
100
AcDbSymbolTableRecord
100
AcDbBlockTableRecord
  2
*PAPER_SPACE
  0
BLOCK_RECORD
  5
74
330
1
100
AcDbSymbolTableRecord
100
AcDbBlockTableRecord
  2
SW_NOTE_0
  0
BLOCK_RECORD
  5
7B
330
1
100
AcDbSymbolTableRecord
100
AcDbBlockTableRecord
  2
SW_NOTE_1
  0
BLOCK_RECORD
  5
85
330
1
100
AcDbSymbolTableRecord
100
AcDbBlockTableRecord
  2
SW_NOTE_2
  0
BLOCK_RECORD
  5
8B
330
1
100
AcDbSymbolTableRecord
100
AcDbBlockTableRecord
  2
SW_NOTE_3
  0
BLOCK_RECORD
  5
91
330
1
100
AcDbSymbolTableRecord
100
AcDbBlockTableRecord
  2
SW_NOTE_4
  0
BLOCK_RECORD
  5
178
330
1
100
AcDbSymbolTableRecord
100
AcDbBlockTableRecord
  2
*D6
  0
BLOCK_RECORD
  5
189
330
1
100
AcDbSymbolTableRecord
100
AcDbBlockTableRecord
  2
SW_NOTE_5
  0
BLOCK_RECORD
  5
192
330
1
100
AcDbSymbolTableRecord
100
AcDbBlockTableRecord
  2
SW_NOTE_6
  0
BLOCK_RECORD
  5
1AF
330
1
100
AcDbSymbolTableRecord
100
AcDbBlockTableRecord
  2
*D9
  0
BLOCK_RECORD
  5
1C1
330
1
100
AcDbSymbolTableRecord
100
AcDbBlockTableRecord
  2
*D10
  0
BLOCK_RECORD
  5
1D3
330
1
100
AcDbSymbolTableRecord
100
AcDbBlockTableRecord
  2
*D11
  0
BLOCK_RECORD
  5
1E7
330
1
100
AcDbSymbolTableRecord
100
AcDbBlockTableRecord
  2
*D12
  0
BLOCK_RECORD
  5
1F8
330
1
100
AcDbSymbolTableRecord
100
AcDbBlockTableRecord
  2
*D13
  0
BLOCK_RECORD
  5
20A
330
1
100
AcDbSymbolTableRecord
100
AcDbBlockTableRecord
  2
*D14
  0
BLOCK_RECORD
  5
21D
330
1
100
AcDbSymbolTableRecord
100
AcDbBlockTableRecord
  2
*D15
  0
BLOCK_RECORD
  5
230
330
1
100
AcDbSymbolTableRecord
100
AcDbBlockTableRecord
  2
*D16
  0
BLOCK_RECORD
  5
242
330
1
100
AcDbSymbolTableRecord
100
AcDbBlockTableRecord
  2
*D17
  0
BLOCK_RECORD
  5
255
330
1
100
AcDbSymbolTableRecord
100
AcDbBlockTableRecord
  2
*D18
  0
BLOCK_RECORD
  5
267
330
1
100
AcDbSymbolTableRecord
100
AcDbBlockTableRecord
  2
SW_CENTERMARKSYMBOL_0
  0
BLOCK_RECORD
  5
273
330
1
100
AcDbSymbolTableRecord
100
AcDbBlockTableRecord
  2
SW_CENTERMARKSYMBOL_1
  0
BLOCK_RECORD
  5
27F
330
1
100
AcDbSymbolTableRecord
100
AcDbBlockTableRecord
  2
SW_CENTERMARKSYMBOL_2
  0
BLOCK_RECORD
  5
28B
330
1
100
AcDbSymbolTableRecord
100
AcDbBlockTableRecord
  2
SW_CENTERMARKSYMBOL_3
  0
BLOCK_RECORD
  5
297
330
1
100
AcDbSymbolTableRecord
100
AcDbBlockTableRecord
  2
SW_CENTERMARKSYMBOL_4
  0
BLOCK_RECORD
  5
2A3
330
1
100
AcDbSymbolTableRecord
100
AcDbBlockTableRecord
  2
SW_CENTERMARKSYMBOL_5
  0
BLOCK_RECORD
  5
2B8
330
1
100
AcDbSymbolTableRecord
100
AcDbBlockTableRecord
  2
*D25
  0
BLOCK_RECORD
  5
2CA
330
1
100
AcDbSymbolTableRecord
100
AcDbBlockTableRecord
  2
*D26
  0
BLOCK_RECORD
  5
2DB
330
1
100
AcDbSymbolTableRecord
100
AcDbBlockTableRecord
  2
SW_NOTE_7
  0
BLOCK_RECORD
  5
2E2
330
1
100
AcDbSymbolTableRecord
100
AcDbBlockTableRecord
  2
_DOT
  0
BLOCK_RECORD
  5
3C5
330
1
100
AcDbSymbolTableRecord
100
AcDbBlockTableRecord
  2
*D29
  0
BLOCK_RECORD
  5
3D8
330
1
100
AcDbSymbolTableRecord
100
AcDbBlockTableRecord
  2
*D30
  0
BLOCK_RECORD
  5
3EA
330
1
100
AcDbSymbolTableRecord
100
AcDbBlockTableRecord
  2
*D31
  0
BLOCK_RECORD
  5
3FC
330
1
100
AcDbSymbolTableRecord
100
AcDbBlockTableRecord
  2
*D32
  0
BLOCK_RECORD
  5
4C3
330
1
100
AcDbSymbolTableRecord
100
AcDbBlockTableRecord
  2
*D33
  0
BLOCK_RECORD
  5
4D5
330
1
100
AcDbSymbolTableRecord
100
AcDbBlockTableRecord
  2
*D34
  0
BLOCK_RECORD
  5
4E7
330
1
100
AcDbSymbolTableRecord
100
AcDbBlockTableRecord
  2
*D35
  0
BLOCK_RECORD
  5
4F9
330
1
100
AcDbSymbolTableRecord
100
AcDbBlockTableRecord
  2
SW_NOTE_8
  0
BLOCK_RECORD
  5
4FF
330
1
100
AcDbSymbolTableRecord
100
AcDbBlockTableRecord
  2
SW_NOTE_9
  0
BLOCK_RECORD
  5
505
330
1
100
AcDbSymbolTableRecord
100
AcDbBlockTableRecord
  2
SW_NOTE_10
  0
BLOCK_RECORD
  5
50D
330
1
100
AcDbSymbolTableRecord
100
AcDbBlockTableRecord
  2
SW_NOTE_11
  0
BLOCK_RECORD
  5
577
330
1
100
AcDbSymbolTableRecord
100
AcDbBlockTableRecord
  2
*D40
  0
BLOCK_RECORD
  5
589
330
1
100
AcDbSymbolTableRecord
100
AcDbBlockTableRecord
  2
*D41
  0
BLOCK_RECORD
  5
6AC
330
1
100
AcDbSymbolTableRecord
100
AcDbBlockTableRecord
  2
*D42
  0
ENDTAB
  0
ENDSEC
  0
SECTION
  2
BLOCKS
  0
BLOCK
  5
20
330
1F
100
AcDbEntity
  8
0
100
AcDbBlockBegin
  2
*MODEL_SPACE
 70
     0
 10
0.0
 20
0.0
 30
0.0
  3
*MODEL_SPACE
  1

  0
ENDBLK
  5
21
330
1F
100
AcDbEntity
  8
0
100
AcDbBlockEnd
  0
BLOCK
  5
1C
330
1B
100
AcDbEntity
 67
     1
  8
0
100
AcDbBlockBegin
  2
*PAPER_SPACE
 70
     0
 10
0.0
 20
0.0
 30
0.0
  3
*PAPER_SPACE
  1

  0
ENDBLK
  5
1D
330
1B
100
AcDbEntity
 67
     1
  8
0
100
AcDbBlockEnd
  0
BLOCK
  5
75
330
74
100
AcDbEntity
  8
0
100
AcDbBlockBegin
  2
SW_NOTE_0
 70
     0
 10
0.0
 20
0.0
 30
0.0
  3
SW_NOTE_0
  1

  0
MTEXT
  5
77
330
74
100
AcDbEntity
  8
0
  6
CONTINUOUS
 62
     0
100
AcDbMText
 10
0.0
 20
0.161133467471496
 30
0.0
 40
0.125
 41
0.0
 71
     1
 72
     1
  1
MAXIMUM PC BOARD SIZE
  7
SLDTEXTSTYLE0
1001
ACAD
1000
MTEXTBEGIN
1070
    73
1070
     1
1070
    44
1040
1.0
1070
    74
1070
     0
1000
MTEXTEND
  0
MTEXT
  5
78
330
74
100
AcDbEntity
  8
0
  6
CONTINUOUS
 62
     0
100
AcDbMText
 10
0.0
 20
-0.0032366070447103
 30
0.0
 40
0.125
 41
0.0
 71
     1
 72
     1
  1
CUSTOMER SUPPLIED
  7
SLDTEXTSTYLE0
1001
ACAD
1000
MTEXTBEGIN
1070
    73
1070
     1
1070
    44
1040
1.0
1070
    74
1070
     0
1000
MTEXTEND
  0
ENDBLK
  5
76
330
74
100
AcDbEntity
  8
0
100
AcDbBlockEnd
  0
BLOCK
  5
7C
330
7B
100
AcDbEntity
  8
0
100
AcDbBlockBegin
  2
SW_NOTE_1
 70
     0
 10
0.0
 20
0.0
 30
0.0
  3
SW_NOTE_1
  1

  0
MTEXT
  5
7E
330
7B
100
AcDbEntity
  8
0
  6
CONTINUOUS
 62
     0
100
AcDbMText
 10
0.0
 20
0.1611334674714955
 30
0.0
 40
0.125
 41
0.0
 71
     1
 72
     1
  1
MATERIAL AND FINISH:
  7
SLDTEXTSTYLE0
1001
ACAD
1000
MTEXTBEGIN
1070
    73
1070
     1
1070
    44
1040
1.0
1070
    74
1070
     0
1000
MTEXTEND
  0
MTEXT
  5
7F
330
7B
100
AcDbEntity
  8
0
  6
CONTINUOUS
 62
     0
100
AcDbMText
 10
0.0
 20
-0.1676066815609171
 30
0.0
 40
0.125
 41
0.0
 71
     1
 72
     1
  1
BLACK HIGH-IMPACT ABS (UL94-HB) - TOP, BOTTOM, AND END PANEL
  7
SLDTEXTSTYLE0
1001
ACAD
1000
MTEXTBEGIN
1070
    73
1070
     1
1070
    44
1040
1.0
1070
    74
1070
     0
1000
MTEXTEND
  0
MTEXT
  5
80
330
7B
100
AcDbEntity
  8
0
  6
CONTINUOUS
 62
     0
100
AcDbMText
 10
0.0
 20
-0.4963468305933298
 30
0.0
 40
0.125
 41
0.0
 71
     1
 72
     1
  1
TW0 (2) M3 X .63 [16] LG SCREWS SUPPLIED FOR ASSEMBLY
  7
SLDTEXTSTYLE0
1001
ACAD
1000
MTEXTBEGIN
1070
    73
1070
     1
1070
    44
1040
1.0
1070
    74
1070
     0
1000
MTEXTEND
  0
MTEXT
  5
81
330
7B
100
AcDbEntity
  8
0
  6
CONTINUOUS
 62
     0
100
AcDbMText
 10
0.0
 20
-0.8250869796257422
 30
0.0
 40
0.125
 41
0.0
 71
     1
 72
     1
  1
OPTIONAL ACCESSORIES:
  7
SLDTEXTSTYLE0
1001
ACAD
1000
MTEXTBEGIN
1070
    73
1070
     1
1070
    44
1040
1.0
1070
    74
1070
     0
1000
MTEXTEND
  0
MTEXT
  5
82
330
7B
100
AcDbEntity
  8
0
  6
CONTINUOUS
 62
     0
100
AcDbMText
 10
0.0
 20
-0.9894570541419483
 30
0.0
 40
0.125
 41
0.0
 71
     1
 72
     1
  1
INFRARED PANELS P/N HP-3647
  7
SLDTEXTSTYLE0
1001
ACAD
1000
MTEXTBEGIN
1070
    73
1070
     1
1070
    44
1040
1.0
1070
    74
1070
     0
1000
MTEXTEND
  0
MTEXT
  5
83
330
7B
100
AcDbEntity
  8
0
  6
CONTINUOUS
 62
     0
100
AcDbMText
 10
0.0
 20
-1.153827128658154
 30
0.0
 40
0.125
 41
0.0
 71
     1
 72
     1
  1
BELT CLIP (BLACK) P/N HH-3595-BCB
  7
SLDTEXTSTYLE0
1001
ACAD
1000
MTEXTBEGIN
1070
    73
1070
     1
1070
    44
1040
1.0
1070
    74
1070
     0
1000
MTEXTEND
  0
ENDBLK
  5
7D
330
7B
100
AcDbEntity
  8
0
100
AcDbBlockEnd
  0
BLOCK
  5
86
330
85
100
AcDbEntity
  8
0
100
AcDbBlockBegin
  2
SW_NOTE_2
 70
     0
 10
0.0
 20
0.0
 30
0.0
  3
SW_NOTE_2
  1

  0
MTEXT
  5
88
330
85
100
AcDbEntity
  8
0
  6
CONTINUOUS
 62
     0
100
AcDbMText
 10
0.0
 20
0.2417002012072429
 30
0.0
 40
0.1875
 41
0.0
 71
     1
 72
     1
  1
PART
  7
SLDTEXTSTYLE0
1001
ACAD
1000
MTEXTBEGIN
1070
    73
1070
     1
1070
    44
1040
1.0
1070
    74
1070
     0
1000
MTEXTEND
  0
MTEXT
  5
89
330
85
100
AcDbEntity
  8
0
  6
CONTINUOUS
 62
     0
100
AcDbMText
 10
-0.0700303976695369
 20
-0.0082997957714587
 30
0.0
 40
0.1875
 41
0.0
 71
     1
 72
     1
  1
NAME
  7
SLDTEXTSTYLE0
1001
ACAD
1000
MTEXTBEGIN
1070
    73
1070
     1
1070
    44
1040
1.0
1070
    74
1070
     0
1000
MTEXTEND
  0
ENDBLK
  5
87
330
85
100
AcDbEntity
  8
0
100
AcDbBlockEnd
  0
BLOCK
  5
8C
330
8B
100
AcDbEntity
  8
0
100
AcDbBlockBegin
  2
SW_NOTE_3
 70
     0
 10
0.0
 20
0.0
 30
0.0
  3
SW_NOTE_3
  1

  0
MTEXT
  5
8E
330
8B
100
AcDbEntity
  8
0
  6
CONTINUOUS
 62
     0
100
AcDbMText
 10
0.0
 20
0.2417002012072429
 30
0.0
 40
0.1875
 41
0.0
 71
     1
 72
     1
  1
PART
  7
SLDTEXTSTYLE0
1001
ACAD
1000
MTEXTBEGIN
1070
    73
1070
     1
1070
    44
1040
1.0
1070
    74
1070
     0
1000
MTEXTEND
  0
MTEXT
  5
8F
330
8B
100
AcDbEntity
  8
0
  6
CONTINUOUS
 62
     0
100
AcDbMText
 10
0.0610242883755466
 20
-0.0082997957714587
 30
0.0
 40
0.1875
 41
0.0
 71
     1
 72
     1
  1
NO.
  7
SLDTEXTSTYLE0
1001
ACAD
1000
MTEXTBEGIN
1070
    73
1070
     1
1070
    44
1040
1.0
1070
    74
1070
     0
1000
MTEXTEND
  0
ENDBLK
  5
8D
330
8B
100
AcDbEntity
  8
0
100
AcDbBlockEnd
  0
BLOCK
  5
92
330
91
100
AcDbEntity
  8
0
100
AcDbBlockBegin
  2
SW_NOTE_4
 70
     0
 10
0.0
 20
0.0
 30
0.0
  3
SW_NOTE_4
  1

  0
MTEXT
  5
94
330
91
100
AcDbEntity
  8
0
  6
CONTINUOUS
 62
     0
100
AcDbMText
 10
0.0
 20
0.2417002012072429
 30
0.0
 40
0.1875
 41
0.0
 71
     1
 72
     1
  1
REVISION
  7
SLDTEXTSTYLE0
1001
ACAD
1000
MTEXTBEGIN
1070
    73
1070
     1
1070
    44
1040
1.0
1070
    74
1070
     0
1000
MTEXTEND
  0
MTEXT
  5
95
330
91
100
AcDbEntity
  8
0
  6
CONTINUOUS
 62
     0
100
AcDbMText
 10
0.2345486038078473
 20
-0.0082997957714587
 30
0.0
 40
0.1875
 41
0.0
 71
     1
 72
     1
  1
DATE
  7
SLDTEXTSTYLE0
1001
ACAD
1000
MTEXTBEGIN
1070
    73
1070
     1
1070
    44
1040
1.0
1070
    74
1070
     0
1000
MTEXTEND
  0
ENDBLK
  5
93
330
91
100
AcDbEntity
  8
0
100
AcDbBlockEnd
  0
BLOCK
  5
179
330
178
100
AcDbEntity
  8
0
100
AcDbBlockBegin
  2
*D6
 70
     1
 10
0.0
 20
0.0
 30
0.0
  3
*D6
  1

  0
LINE
  5
637
330
178
100
AcDbEntity
  8
0
  6
CONTINUOUS
 62
     0
100
AcDbLine
 10
14.21203163862909
 20
9.849225398715706
 30
0.0
 11
14.21203163862909
 21
11.00330504394892
 31
0.0
  0
LINE
  5
638
330
178
100
AcDbEntity
  8
0
  6
CONTINUOUS
 62
     0
100
AcDbLine
 10
16.8322227741906
 20
9.849225398715725
 30
0.0
 11
16.8322227741906
 21
11.00330504394892
 31
0.0
  0
LINE
  5
639
330
178
100
AcDbEntity
  8
0
  6
CONTINUOUS
 62
     0
100
AcDbLine
 10
14.34203163862909
 20
11.00330504394892
 30
0.0
 11
15.07265794030066
 21
11.00330504394892
 31
0.0
  0
LINE
  5
63A
330
178
100
AcDbEntity
  8
0
  6
CONTINUOUS
 62
     0
100
AcDbLine
 10
16.7022227741906
 20
11.00330504394892
 30
0.0
 11
16.11953294030066
 21
11.00330504394892
 31
0.0
  0
SOLID
  5
63B
330
178
100
AcDbEntity
  8
0
  6
CONTINUOUS
 62
     0
100
AcDbTrace
 10
14.34203163862909
 20
11.02497171061558
 30
0.0
 11
14.34203163862909
 21
10.98163837728225
 31
0.0
 12
14.21203163862909
 22
11.00330504394892
 32
0.0
 13
14.21203163862909
 23
11.00330504394892
 33
0.0
  0
SOLID
  5
63C
330
178
100
AcDbEntity
  8
0
  6
CONTINUOUS
 62
     0
100
AcDbTrace
 10
16.7022227741906
 20
11.02497171061558
 30
0.0
 11
16.7022227741906
 21
10.98163837728225
 31
0.0
 12
16.8322227741906
 22
11.00330504394892
 32
0.0
 13
16.8322227741906
 23
11.00330504394892
 33
0.0
  0
MTEXT
  5
63D
330
178
100
AcDbEntity
  8
0
  6
CONTINUOUS
 62
     0
100
AcDbMText
 10
15.59609544030066
 20
11.06580504394892
 30
0.0
 40
0.125
 41
0.0
 71
     2
 72
     1
  1
\A1;2.620 [66.55]
  7
SLDTEXTSTYLE0
1001
ACAD
1000
MTEXTBEGIN
1070
    73
1070
     1
1070
    44
1040
1.0
1070
    74
1070
     0
1000
MTEXTEND
  0
POINT
  5
63E
330
178
100
AcDbEntity
  8
DEFPOINTS
  6
CONTINUOUS
 62
     0
100
AcDbPoint
 10
14.21203163862909
 20
9.786725398715706
 30
0.0
  0
POINT
  5
63F
330
178
100
AcDbEntity
  8
DEFPOINTS
  6
CONTINUOUS
 62
     0
100
AcDbPoint
 10
16.8322227741906
 20
9.786725398715725
 30
0.0
  0
POINT
  5
640
330
178
100
AcDbEntity
  8
DEFPOINTS
  6
CONTINUOUS
 62
     0
100
AcDbPoint
 10
16.8322227741906
 20
11.00330504394892
 30
0.0
  0
ENDBLK
  5
17A
330
178
100
AcDbEntity
  8
0
100
AcDbBlockEnd
  0
BLOCK
  5
18A
330
189
100
AcDbEntity
  8
0
100
AcDbBlockBegin
  2
SW_NOTE_5
 70
     0
 10
0.0
 20
0.0
 30
0.0
  3
SW_NOTE_5
  1

  0
MTEXT
  5
18C
330
189
100
AcDbEntity
  8
0
  6
CONTINUOUS
 62
     0
100
AcDbMText
 10
-1.0136176413613
 20
0.3895767093428932
 30
0.0
 40
0.125
 41
0.0
 71
     1
 72
     1
  1
MOUNTING BOSS
  7
SLDTEXTSTYLE0
1001
ACAD
1000
MTEXTBEGIN
1070
    73
1070
     1
1070
    44
1040
1.0
1070
    74
1070
     0
1000
MTEXTEND
  0
MTEXT
  5
18D
330
189
100
AcDbEntity
  8
0
  6
CONTINUOUS
 62
     0
100
AcDbMText
 10
-1.0136176413613
 20
0.225206634826687
 30
0.0
 40
0.125
 41
0.0
 71
     1
 72
     1
  1
FOR BELT CLIP
  7
SLDTEXTSTYLE0
1001
ACAD
1000
MTEXTBEGIN
1070
    73
1070
     1
1070
    44
1040
1.0
1070
    74
1070
     0
1000
MTEXTEND
  0
MTEXT
  5
18E
330
189
100
AcDbEntity
  8
0
  6
CONTINUOUS
 62
     0
100
AcDbMText
 10
-1.0136176413613
 20
0.0608365603104807
 30
0.0
 40
0.125
 41
0.0
 71
     1
 72
     1
  1
ACCESSORY
  7
SLDTEXTSTYLE0
1001
ACAD
1000
MTEXTBEGIN
1070
    73
1070
     1
1070
    44
1040
1.0
1070
    74
1070
     0
1000
MTEXTEND
  0
ENDBLK
  5
18B
330
189
100
AcDbEntity
  8
0
100
AcDbBlockEnd
  0
BLOCK
  5
193
330
192
100
AcDbEntity
  8
0
100
AcDbBlockBegin
  2
SW_NOTE_6
 70
     0
 10
0.0
 20
0.0
 30
0.0
  3
SW_NOTE_6
  1

  0
MTEXT
  5
195
330
192
100
AcDbEntity
  8
0
  6
CONTINUOUS
 62
     0
100
AcDbMText
 10
-2.379941461205528
 20
0.5538693880774109
 30
0.0
 40
0.125
 41
0.0
 71
     1
 72
     1
  1
.098 [2.50]DIA
  7
SLDTEXTSTYLE0
1001
ACAD
1000
MTEXTBEGIN
1070
    73
1070
     1
1070
    44
1040
1.0
1070
    74
1070
     0
1000
MTEXTEND
  0
MTEXT
  5
196
330
192
100
AcDbEntity
  8
0
  6
CONTINUOUS
 62
     0
100
AcDbMText
 10
-2.379941461205528
 20
0.3894993135612046
 30
0.0
 40
0.125
 41
0.0
 71
     1
 72
     1
  1
MOUNTING HOLE TYP
  7
SLDTEXTSTYLE0
1001
ACAD
1000
MTEXTBEGIN
1070
    73
1070
     1
1070
    44
1040
1.0
1070
    74
1070
     0
1000
MTEXTEND
  0
MTEXT
  5
197
330
192
100
AcDbEntity
  8
0
  6
CONTINUOUS
 62
     0
100
AcDbMText
 10
-2.379941461205528
 20
0.2251292390449983
 30
0.0
 40
0.125
 41
0.0
 71
     1
 72
     1
  1
FOR M2.5 OR #4 SHEET METAL
  7
SLDTEXTSTYLE0
1001
ACAD
1000
MTEXTBEGIN
1070
    73
1070
     1
1070
    44
1040
1.0
1070
    74
1070
     0
1000
MTEXTEND
  0
MTEXT
  5
198
330
192
100
AcDbEntity
  8
0
  6
CONTINUOUS
 62
     0
100
AcDbMText
 10
-2.379941461205528
 20
0.0607591645287921
 30
0.0
 40
0.125
 41
0.0
 71
     1
 72
     1
  1
SCREW
  7
SLDTEXTSTYLE0
1001
ACAD
1000
MTEXTBEGIN
1070
    73
1070
     1
1070
    44
1040
1.0
1070
    74
1070
     0
1000
MTEXTEND
  0
ENDBLK
  5
194
330
192
100
AcDbEntity
  8
0
100
AcDbBlockEnd
  0
BLOCK
  5
1B0
330
1AF
100
AcDbEntity
  8
0
100
AcDbBlockBegin
  2
*D9
 70
     1
 10
0.0
 20
0.0
 30
0.0
  3
*D9
  1

  0
LINE
  5
64D
330
1AF
100
AcDbEntity
  8
0
  6
CONTINUOUS
 62
     0
100
AcDbLine
 10
20.0675531421877
 20
5.825111225487375
 30
0.0
 11
18.31902952014042
 21
5.825111225487375
 31
0.0
  0
LINE
  5
64E
330
1AF
100
AcDbEntity
  8
0
  6
CONTINUOUS
 62
     0
100
AcDbLine
 10
20.06755314218767
 20
9.827079729424385
 30
0.0
 11
18.31902952014042
 21
9.827079729424387
 31
0.0
  0
LINE
  5
64F
330
1AF
100
AcDbEntity
  8
0
  6
CONTINUOUS
 62
     0
100
AcDbLine
 10
18.31902952014042
 20
5.955111225487375
 30
0.0
 11
18.31902952014042
 21
8.082131141091233
 31
0.0
  0
LINE
  5
650
330
1AF
100
AcDbEntity
  8
0
  6
CONTINUOUS
 62
     0
100
AcDbLine
 10
18.31902952014042
 20
9.697079729424386
 30
0.0
 11
18.31902952014042
 21
8.269631141091233
 31
0.0
  0
SOLID
  5
651
330
1AF
100
AcDbEntity
  8
0
  6
CONTINUOUS
 62
     0
100
AcDbTrace
 10
18.29736285347375
 20
5.955111225487375
 30
0.0
 11
18.34069618680709
 21
5.955111225487375
 31
0.0
 12
18.31902952014042
 22
5.825111225487375
 32
0.0
 13
18.31902952014042
 23
5.825111225487375
 33
0.0
  0
SOLID
  5
652
330
1AF
100
AcDbEntity
  8
0
  6
CONTINUOUS
 62
     0
100
AcDbTrace
 10
18.29736285347375
 20
9.697079729424386
 30
0.0
 11
18.34069618680709
 21
9.697079729424386
 31
0.0
 12
18.31902952014042
 22
9.827079729424387
 32
0.0
 13
18.31902952014042
 23
9.827079729424387
 33
0.0
  0
MTEXT
  5
653
330
1AF
100
AcDbEntity
  8
0
  6
CONTINUOUS
 62
     0
100
AcDbMText
 10
18.31902952014042
 20
8.238381141091235
 30
0.0
 40
0.125
 41
0.0
 71
     2
 72
     1
  1
\A1;4.002 [101.65]
  7
SLDTEXTSTYLE0
1001
ACAD
1000
MTEXTBEGIN
1070
    73
1070
     1
1070
    44
1040
1.0
1070
    74
1070
     0
1000
MTEXTEND
  0
POINT
  5
654
330
1AF
100
AcDbEntity
  8
DEFPOINTS
  6
CONTINUOUS
 62
     0
100
AcDbPoint
 10
20.1300531421877
 20
5.825111225487375
 30
0.0
  0
POINT
  5
655
330
1AF
100
AcDbEntity
  8
DEFPOINTS
  6
CONTINUOUS
 62
     0
100
AcDbPoint
 10
20.13005314218767
 20
9.827079729424385
 30
0.0
  0
POINT
  5
656
330
1AF
100
AcDbEntity
  8
DEFPOINTS
  6
CONTINUOUS
 62
     0
100
AcDbPoint
 10
18.31902952014042
 20
9.827079729424387
 30
0.0
  0
ENDBLK
  5
1B1
330
1AF
100
AcDbEntity
  8
0
100
AcDbBlockEnd
  0
BLOCK
  5
1C2
330
1C1
100
AcDbEntity
  8
0
100
AcDbBlockBegin
  2
*D10
 70
     1
 10
0.0
 20
0.0
 30
0.0
  3
*D10
  1

  0
LINE
  5
6A0
330
1C1
100
AcDbEntity
  8
0
  6
CONTINUOUS
 62
     0
100
AcDbLine
 10
22.5679468429751
 20
6.250308075881091
 30
0.0
 11
23.36391140990423
 21
6.250308075881091
 31
0.0
  0
LINE
  5
6A1
330
1C1
100
AcDbEntity
  8
0
  6
CONTINUOUS
 62
     0
100
AcDbLine
 10
22.56794684297508
 20
7.825111225487392
 30
0.0
 11
23.36391140990423
 21
7.825111225487392
 31
0.0
  0
LINE
  5
6A2
330
1C1
100
AcDbEntity
  8
0
  6
CONTINUOUS
 62
     0
100
AcDbLine
 10
23.36391140990423
 20
6.380308075881091
 30
0.0
 11
23.36391140990423
 21
7.106877351158819
 31
0.0
  0
LINE
  5
6A3
330
1C1
100
AcDbEntity
  8
0
  6
CONTINUOUS
 62
     0
100
AcDbLine
 10
23.36391140990423
 20
7.695111225487392
 30
0.0
 11
23.36391140990423
 21
7.294377351158819
 31
0.0
  0
SOLID
  5
6A4
330
1C1
100
AcDbEntity
  8
0
  6
CONTINUOUS
 62
     0
100
AcDbTrace
 10
23.34224474323757
 20
6.380308075881091
 30
0.0
 11
23.3855780765709
 21
6.380308075881091
 31
0.0
 12
23.36391140990423
 22
6.250308075881091
 32
0.0
 13
23.36391140990423
 23
6.250308075881091
 33
0.0
  0
SOLID
  5
6A5
330
1C1
100
AcDbEntity
  8
0
  6
CONTINUOUS
 62
     0
100
AcDbTrace
 10
23.34224474323757
 20
7.695111225487392
 30
0.0
 11
23.3855780765709
 21
7.695111225487392
 31
0.0
 12
23.36391140990423
 22
7.825111225487392
 32
0.0
 13
23.36391140990423
 23
7.825111225487392
 33
0.0
  0
MTEXT
  5
6A6
330
1C1
100
AcDbEntity
  8
0
  6
CONTINUOUS
 62
     0
100
AcDbMText
 10
23.36391140990423
 20
7.263127351158822
 30
0.0
 40
0.125
 41
0.0
 71
     2
 72
     1
  1
\A1;1.575 [40.00]
  7
SLDTEXTSTYLE0
1001
ACAD
1000
MTEXTBEGIN
1070
    73
1070
     1
1070
    44
1040
1.0
1070
    74
1070
     0
1000
MTEXTEND
  0
POINT
  5
6A7
330
1C1
100
AcDbEntity
  8
DEFPOINTS
  6
CONTINUOUS
 62
     0
100
AcDbPoint
 10
22.5054468429751
 20
6.250308075881091
 30
0.0
  0
POINT
  5
6A8
330
1C1
100
AcDbEntity
  8
DEFPOINTS
  6
CONTINUOUS
 62
     0
100
AcDbPoint
 10
22.50544684297508
 20
7.825111225487392
 30
0.0
  0
POINT
  5
6A9
330
1C1
100
AcDbEntity
  8
DEFPOINTS
  6
CONTINUOUS
 62
     0
100
AcDbPoint
 10
23.36391140990423
 20
7.825111225487392
 30
0.0
  0
ENDBLK
  5
1C3
330
1C1
100
AcDbEntity
  8
0
100
AcDbBlockEnd
  0
BLOCK
  5
1D4
330
1D3
100
AcDbEntity
  8
0
100
AcDbBlockBegin
  2
*D11
 70
     1
 10
0.0
 20
0.0
 30
0.0
  3
*D11
  1

  0
LINE
  5
695
330
1D3
100
AcDbEntity
  8
0
  6
CONTINUOUS
 62
     0
100
AcDbLine
 10
22.5679468429751
 20
6.250308075881091
 30
0.0
 11
23.94703640990423
 21
6.250308075881091
 31
0.0
  0
LINE
  5
696
330
1D3
100
AcDbEntity
  8
0
  6
CONTINUOUS
 62
     0
100
AcDbLine
 10
22.79649015006171
 20
5.825111225487394
 30
0.0
 11
23.94703640990423
 21
5.825111225487394
 31
0.0
  0
LINE
  5
697
330
1D3
100
AcDbEntity
  8
0
  6
CONTINUOUS
 62
     0
100
AcDbLine
 10
23.94703640990423
 20
6.120308075881091
 30
0.0
 11
23.94703640990423
 21
5.955111225487394
 31
0.0
  0
LINE
  5
698
330
1D3
100
AcDbEntity
  8
0
  6
CONTINUOUS
 62
     0
100
AcDbLine
 10
23.94703640990423
 20
5.825111225487394
 30
0.0
 11
23.94703640990423
 21
5.195189965644852
 31
0.0
  0
LINE
  5
699
330
1D3
100
AcDbEntity
  8
0
  6
CONTINUOUS
 62
     0
100
AcDbLine
 10
23.94703640990423
 20
5.195189965644852
 30
0.0
 11
23.81703640990423
 21
5.195189965644852
 31
0.0
  0
SOLID
  5
69A
330
1D3
100
AcDbEntity
  8
0
  6
CONTINUOUS
 62
     0
100
AcDbTrace
 10
23.92536974323757
 20
6.120308075881091
 30
0.0
 11
23.9687030765709
 21
6.120308075881091
 31
0.0
 12
23.94703640990423
 22
6.250308075881091
 32
0.0
 13
23.94703640990423
 23
6.250308075881091
 33
0.0
  0
SOLID
  5
69B
330
1D3
100
AcDbEntity
  8
0
  6
CONTINUOUS
 62
     0
100
AcDbTrace
 10
23.92536974323757
 20
5.955111225487394
 30
0.0
 11
23.9687030765709
 21
5.955111225487394
 31
0.0
 12
23.94703640990423
 22
5.825111225487394
 32
0.0
 13
23.94703640990423
 23
5.825111225487394
 33
0.0
  0
MTEXT
  5
69C
330
1D3
100
AcDbEntity
  8
0
  6
CONTINUOUS
 62
     0
100
AcDbMText
 10
23.36391140990423
 20
5.257689965644855
 30
0.0
 40
0.125
 41
0.0
 71
     2
 72
     1
  1
\A1;.425 [10.80]
  7
SLDTEXTSTYLE0
1001
ACAD
1000
MTEXTBEGIN
1070
    73
1070
     1
1070
    44
1040
1.0
1070
    74
1070
     0
1000
MTEXTEND
  0
POINT
  5
69D
330
1D3
100
AcDbEntity
  8
DEFPOINTS
  6
CONTINUOUS
 62
     0
100
AcDbPoint
 10
22.5054468429751
 20
6.250308075881091
 30
0.0
  0
POINT
  5
69E
330
1D3
100
AcDbEntity
  8
DEFPOINTS
  6
CONTINUOUS
 62
     0
100
AcDbPoint
 10
22.73399015006171
 20
5.825111225487394
 30
0.0
  0
POINT
  5
69F
330
1D3
100
AcDbEntity
  8
DEFPOINTS
  6
CONTINUOUS
 62
     0
100
AcDbPoint
 10
23.94703640990423
 20
5.825111225487394
 30
0.0
  0
ENDBLK
  5
1D5
330
1D3
100
AcDbEntity
  8
0
100
AcDbBlockEnd
  0
BLOCK
  5
1E8
330
1E7
100
AcDbEntity
  8
0
100
AcDbBlockBegin
  2
*D12
 70
     1
 10
0.0
 20
0.0
 30
0.0
  3
*D12
  1

  0
LINE
  5
66D
330
1E7
100
AcDbEntity
  8
0
  6
CONTINUOUS
 62
     0
100
AcDbLine
 10
23.74861859494359
 20
8.661619150777584
 30
0.0
 11
23.42516057612509
 21
8.661619150777584
 31
0.0
  0
LINE
  5
66E
330
1E7
100
AcDbEntity
  8
0
  6
CONTINUOUS
 62
     0
100
AcDbLine
 10
23.42516057612509
 20
8.661619150777584
 30
0.0
 11
22.49517525546436
 21
7.943104436394959
 31
0.0
  0
LINE
  5
66F
330
1E7
100
AcDbEntity
  8
0
  6
CONTINUOUS
 62
     0
100
AcDbLine
 10
22.18973417851731
 20
7.70711801457982
 30
0.0
 11
22.08686122502086
 21
7.627637479611073
 31
0.0
  0
MTEXT
  5
670
330
1E7
100
AcDbEntity
  8
0
  6
CONTINUOUS
 62
     0
100
AcDbMText
 10
24.25643109494359
 20
8.661619150777584
 30
0.0
 40
0.125
 41
0.0
 71
     5
 72
     1
  1
\A1;\U+2205.126 [\U+22053.20]\P6 HOLES
  7
SLDTEXTSTYLE0
1001
ACAD
1000
MTEXTBEGIN
1070
    73
1070
     1
1070
    44
1040
1.0
1070
    74
1070
     0
1000
MTEXTEND
  0
LINE
  5
671
330
1E7
100
AcDbEntity
  8
0
  6
CONTINUOUS
 62
     0
100
AcDbLine
 10
22.29260713201375
 20
7.786598549548565
 30
0.0
 11
22.39230230196791
 21
7.863623901426214
 31
0.0
  0
SOLID
  5
672
330
1E7
100
AcDbEntity
  8
0
  6
CONTINUOUS
 62
     0
100
AcDbTrace
 10
22.17648742268918
 20
7.724263506829228
 30
0.0
 11
22.20298093434543
 21
7.689972522330412
 31
0.0
 12
22.29260713201375
 22
7.786598549548565
 32
0.0
 13
22.29260713201375
 23
7.786598549548565
 33
0.0
  0
SOLID
  5
673
330
1E7
100
AcDbEntity
  8
0
  6
CONTINUOUS
 62
     0
100
AcDbTrace
 10
22.48192849963623
 20
7.960249928644366
 30
0.0
 11
22.50842201129248
 21
7.925958944145551
 31
0.0
 12
22.39230230196791
 22
7.863623901426214
 32
0.0
 13
22.39230230196791
 23
7.863623901426214
 33
0.0
  0
POINT
  5
674
330
1E7
100
AcDbEntity
  8
DEFPOINTS
  6
CONTINUOUS
 62
     0
100
AcDbPoint
 10
22.39230230196791
 20
7.863623901426214
 30
0.0
  0
POINT
  5
675
330
1E7
100
AcDbEntity
  8
DEFPOINTS
  6
CONTINUOUS
 62
     0
100
AcDbPoint
 10
22.29260713201375
 20
7.786598549548565
 30
0.0
  0
ENDBLK
  5
1E9
330
1E7
100
AcDbEntity
  8
0
100
AcDbBlockEnd
  0
BLOCK
  5
1F9
330
1F8
100
AcDbEntity
  8
0
100
AcDbBlockBegin
  2
*D13
 70
     1
 10
0.0
 20
0.0
 30
0.0
  3
*D13
  1

  0
LINE
  5
676
330
1F8
100
AcDbEntity
  8
0
  6
CONTINUOUS
 62
     0
100
AcDbLine
 10
22.34245471699084
 20
6.024815949896838
 30
0.0
 11
22.34245471699084
 21
5.53863814455575
 31
0.0
  0
LINE
  5
677
330
1F8
100
AcDbEntity
  8
0
  6
CONTINUOUS
 62
     0
100
AcDbLine
 10
20.52158857525856
 20
6.024815949896826
 30
0.0
 11
20.52158857525856
 21
5.53863814455575
 31
0.0
  0
LINE
  5
678
330
1F8
100
AcDbEntity
  8
0
  6
CONTINUOUS
 62
     0
100
AcDbLine
 10
22.21245471699084
 20
5.53863814455575
 30
0.0
 11
21.92616673608655
 21
5.53863814455575
 31
0.0
  0
LINE
  5
679
330
1F8
100
AcDbEntity
  8
0
  6
CONTINUOUS
 62
     0
100
AcDbLine
 10
20.65158857525856
 20
5.53863814455575
 30
0.0
 11
20.92616673608655
 21
5.53863814455575
 31
0.0
  0
SOLID
  5
67A
330
1F8
100
AcDbEntity
  8
0
  6
CONTINUOUS
 62
     0
100
AcDbTrace
 10
22.21245471699084
 20
5.560304811222416
 30
0.0
 11
22.21245471699084
 21
5.516971477889083
 31
0.0
 12
22.34245471699084
 22
5.53863814455575
 32
0.0
 13
22.34245471699084
 23
5.53863814455575
 33
0.0
  0
SOLID
  5
67B
330
1F8
100
AcDbEntity
  8
0
  6
CONTINUOUS
 62
     0
100
AcDbTrace
 10
20.65158857525856
 20
5.560304811222416
 30
0.0
 11
20.65158857525856
 21
5.516971477889083
 31
0.0
 12
20.52158857525856
 22
5.53863814455575
 32
0.0
 13
20.52158857525856
 23
5.53863814455575
 33
0.0
  0
MTEXT
  5
67C
330
1F8
100
AcDbEntity
  8
0
  6
CONTINUOUS
 62
     0
100
AcDbMText
 10
21.42616673608655
 20
5.60113814455575
 30
0.0
 40
0.125
 41
0.0
 71
     2
 72
     1
  1
\A1;1.821 [46.25]
  7
SLDTEXTSTYLE0
1001
ACAD
1000
MTEXTBEGIN
1070
    73
1070
     1
1070
    44
1040
1.0
1070
    74
1070
     0
1000
MTEXTEND
  0
POINT
  5
67D
330
1F8
100
AcDbEntity
  8
DEFPOINTS
  6
CONTINUOUS
 62
     0
100
AcDbPoint
 10
22.34245471699084
 20
6.087315949896838
 30
0.0
  0
POINT
  5
67E
330
1F8
100
AcDbEntity
  8
DEFPOINTS
  6
CONTINUOUS
 62
     0
100
AcDbPoint
 10
20.52158857525856
 20
6.087315949896826
 30
0.0
  0
POINT
  5
67F
330
1F8
100
AcDbEntity
  8
DEFPOINTS
  6
CONTINUOUS
 62
     0
100
AcDbPoint
 10
20.52158857525856
 20
5.53863814455575
 30
0.0
  0
ENDBLK
  5
1FA
330
1F8
100
AcDbEntity
  8
0
100
AcDbBlockEnd
  0
BLOCK
  5
20B
330
20A
100
AcDbEntity
  8
0
100
AcDbBlockBegin
  2
*D14
 70
     1
 10
0.0
 20
0.0
 30
0.0
  3
*D14
  1

  0
LINE
  5
680
330
20A
100
AcDbEntity
  8
0
  6
CONTINUOUS
 62
     0
100
AcDbLine
 10
20.1300531421877
 20
5.762611225487375
 30
0.0
 11
20.1300531421877
 21
5.195189965644855
 31
0.0
  0
LINE
  5
681
330
20A
100
AcDbEntity
  8
0
  6
CONTINUOUS
 62
     0
100
AcDbLine
 10
22.73399015006171
 20
5.762611225487394
 30
0.0
 11
22.73399015006171
 21
5.195189965644855
 31
0.0
  0
LINE
  5
682
330
20A
100
AcDbEntity
  8
0
  6
CONTINUOUS
 62
     0
100
AcDbLine
 10
20.2600531421877
 20
5.195189965644855
 30
0.0
 11
20.91835423608656
 21
5.195189965644855
 31
0.0
  0
LINE
  5
683
330
20A
100
AcDbEntity
  8
0
  6
CONTINUOUS
 62
     0
100
AcDbLine
 10
22.60399015006171
 20
5.195189965644855
 30
0.0
 11
21.93397923608656
 21
5.195189965644855
 31
0.0
  0
SOLID
  5
684
330
20A
100
AcDbEntity
  8
0
  6
CONTINUOUS
 62
     0
100
AcDbTrace
 10
20.2600531421877
 20
5.216856632311522
 30
0.0
 11
20.2600531421877
 21
5.173523298978189
 31
0.0
 12
20.1300531421877
 22
5.195189965644855
 32
0.0
 13
20.1300531421877
 23
5.195189965644855
 33
0.0
  0
SOLID
  5
685
330
20A
100
AcDbEntity
  8
0
  6
CONTINUOUS
 62
     0
100
AcDbTrace
 10
22.60399015006171
 20
5.216856632311522
 30
0.0
 11
22.60399015006171
 21
5.173523298978189
 31
0.0
 12
22.73399015006171
 22
5.195189965644855
 32
0.0
 13
22.73399015006171
 23
5.195189965644855
 33
0.0
  0
MTEXT
  5
686
330
20A
100
AcDbEntity
  8
0
  6
CONTINUOUS
 62
     0
100
AcDbMText
 10
21.42616673608656
 20
5.257689965644855
 30
0.0
 40
0.125
 41
0.0
 71
     2
 72
     1
  1
\A1;2.604 [66.14]
  7
SLDTEXTSTYLE0
1001
ACAD
1000
MTEXTBEGIN
1070
    73
1070
     1
1070
    44
1040
1.0
1070
    74
1070
     0
1000
MTEXTEND
  0
POINT
  5
687
330
20A
100
AcDbEntity
  8
DEFPOINTS
  6
CONTINUOUS
 62
     0
100
AcDbPoint
 10
20.1300531421877
 20
5.825111225487375
 30
0.0
  0
POINT
  5
688
330
20A
100
AcDbEntity
  8
DEFPOINTS
  6
CONTINUOUS
 62
     0
100
AcDbPoint
 10
22.73399015006171
 20
5.825111225487394
 30
0.0
  0
POINT
  5
689
330
20A
100
AcDbEntity
  8
DEFPOINTS
  6
CONTINUOUS
 62
     0
100
AcDbPoint
 10
22.73399015006171
 20
5.195189965644855
 30
0.0
  0
ENDBLK
  5
20C
330
20A
100
AcDbEntity
  8
0
100
AcDbBlockEnd
  0
BLOCK
  5
21E
330
21D
100
AcDbEntity
  8
0
100
AcDbBlockBegin
  2
*D15
 70
     1
 10
0.0
 20
0.0
 30
0.0
  3
*D15
  1

  0
LINE
  5
657
330
21D
100
AcDbEntity
  8
0
  6
CONTINUOUS
 62
     0
100
AcDbLine
 10
20.19255314218768
 20
7.936922249109423
 30
0.0
 11
20.17449617628804
 21
7.936922249109423
 31
0.0
  0
LINE
  5
658
330
21D
100
AcDbEntity
  8
0
  6
CONTINUOUS
 62
     0
100
AcDbLine
 10
20.19255314218768
 20
8.19361516249525
 30
0.0
 11
20.17449617628804
 21
8.19361516249525
 31
0.0
  0
LINE
  5
659
330
21D
100
AcDbEntity
  8
0
  6
CONTINUOUS
 62
     0
100
AcDbLine
 10
20.17449617628804
 20
8.323615162495251
 30
0.0
 11
20.17449617628804
 21
8.45361516249525
 31
0.0
  0
LINE
  5
65A
330
21D
100
AcDbEntity
  8
0
  6
CONTINUOUS
 62
     0
100
AcDbLine
 10
20.17449617628804
 20
7.806922249109423
 30
0.0
 11
20.17449617628804
 21
6.756524152961741
 31
0.0
  0
LINE
  5
65B
330
21D
100
AcDbEntity
  8
0
  6
CONTINUOUS
 62
     0
100
AcDbLine
 10
20.17449617628804
 20
6.756524152961741
 30
0.0
 11
20.04449617628804
 21
6.756524152961741
 31
0.0
  0
SOLID
  5
65C
330
21D
100
AcDbEntity
  8
0
  6
CONTINUOUS
 62
     0
100
AcDbTrace
 10
20.15282950962137
 20
8.323615162495251
 30
0.0
 11
20.19616284295471
 21
8.323615162495251
 31
0.0
 12
20.17449617628804
 22
8.19361516249525
 32
0.0
 13
20.17449617628804
 23
8.19361516249525
 33
0.0
  0
SOLID
  5
65D
330
21D
100
AcDbEntity
  8
0
  6
CONTINUOUS
 62
     0
100
AcDbTrace
 10
20.15282950962137
 20
7.806922249109423
 30
0.0
 11
20.19616284295471
 21
7.806922249109423
 31
0.0
 12
20.17449617628804
 22
7.936922249109423
 32
0.0
 13
20.17449617628804
 23
7.936922249109423
 33
0.0
  0
MTEXT
  5
65E
330
21D
100
AcDbEntity
  8
0
  6
CONTINUOUS
 62
     0
100
AcDbMText
 10
19.60699617628804
 20
6.819024152961745
 30
0.0
 40
0.125
 41
0.0
 71
     2
 72
     1
  1
\A1;.257 [6.52]
  7
SLDTEXTSTYLE0
1001
ACAD
1000
MTEXTBEGIN
1070
    73
1070
     1
1070
    44
1040
1.0
1070
    74
1070
     0
1000
MTEXTEND
  0
POINT
  5
65F
330
21D
100
AcDbEntity
  8
DEFPOINTS
  6
CONTINUOUS
 62
     0
100
AcDbPoint
 10
20.13005314218768
 20
7.936922249109423
 30
0.0
  0
POINT
  5
660
330
21D
100
AcDbEntity
  8
DEFPOINTS
  6
CONTINUOUS
 62
     0
100
AcDbPoint
 10
20.13005314218768
 20
8.19361516249525
 30
0.0
  0
POINT
  5
661
330
21D
100
AcDbEntity
  8
DEFPOINTS
  6
CONTINUOUS
 62
     0
100
AcDbPoint
 10
20.17449617628804
 20
8.19361516249525
 30
0.0
  0
ENDBLK
  5
21F
330
21D
100
AcDbEntity
  8
0
100
AcDbBlockEnd
  0
BLOCK
  5
231
330
230
100
AcDbEntity
  8
0
100
AcDbBlockBegin
  2
*D16
 70
     1
 10
0.0
 20
0.0
 30
0.0
  3
*D16
  1

  0
LINE
  5
643
330
230
100
AcDbEntity
  8
0
  6
CONTINUOUS
 62
     0
100
AcDbLine
 10
20.46115550439241
 20
8.127768705802338
 30
0.0
 11
20.46115550439241
 21
8.661619150777584
 31
0.0
  0
LINE
  5
644
330
230
100
AcDbEntity
  8
0
  6
CONTINUOUS
 62
     0
100
AcDbLine
 10
20.13005314218768
 20
7.999422249109423
 30
0.0
 11
20.13005314218768
 21
8.661619150777584
 31
0.0
  0
LINE
  5
645
330
230
100
AcDbEntity
  8
0
  6
CONTINUOUS
 62
     0
100
AcDbLine
 10
20.33115550439241
 20
8.661619150777584
 30
0.0
 11
20.26005314218768
 21
8.661619150777584
 31
0.0
  0
LINE
  5
646
330
230
100
AcDbEntity
  8
0
  6
CONTINUOUS
 62
     0
100
AcDbLine
 10
20.13005314218768
 20
8.661619150777584
 30
0.0
 11
19.754112552319
 21
8.661619150777584
 31
0.0
  0
SOLID
  5
647
330
230
100
AcDbEntity
  8
0
  6
CONTINUOUS
 62
     0
100
AcDbTrace
 10
20.33115550439241
 20
8.68328581744425
 30
0.0
 11
20.33115550439241
 21
8.639952484110917
 31
0.0
 12
20.46115550439241
 22
8.661619150777584
 32
0.0
 13
20.46115550439241
 23
8.661619150777584
 33
0.0
  0
SOLID
  5
648
330
230
100
AcDbEntity
  8
0
  6
CONTINUOUS
 62
     0
100
AcDbTrace
 10
20.26005314218768
 20
8.68328581744425
 30
0.0
 11
20.26005314218768
 21
8.639952484110917
 31
0.0
 12
20.13005314218768
 22
8.661619150777584
 32
0.0
 13
20.13005314218768
 23
8.661619150777584
 33
0.0
  0
MTEXT
  5
649
330
230
100
AcDbEntity
  8
0
  6
CONTINUOUS
 62
     0
100
AcDbMText
 10
19.347862552319
 20
8.724119150777584
 30
0.0
 40
0.125
 41
0.0
 71
     2
 72
     1
  1
\A1;.331 [8.41]
  7
SLDTEXTSTYLE0
1001
ACAD
1000
MTEXTBEGIN
1070
    73
1070
     1
1070
    44
1040
1.0
1070
    74
1070
     0
1000
MTEXTEND
  0
POINT
  5
64A
330
230
100
AcDbEntity
  8
DEFPOINTS
  6
CONTINUOUS
 62
     0
100
AcDbPoint
 10
20.46115550439241
 20
8.065268705802338
 30
0.0
  0
POINT
  5
64B
330
230
100
AcDbEntity
  8
DEFPOINTS
  6
CONTINUOUS
 62
     0
100
AcDbPoint
 10
20.13005314218768
 20
7.936922249109423
 30
0.0
  0
POINT
  5
64C
330
230
100
AcDbEntity
  8
DEFPOINTS
  6
CONTINUOUS
 62
     0
100
AcDbPoint
 10
20.13005314218768
 20
8.661619150777584
 30
0.0
  0
ENDBLK
  5
232
330
230
100
AcDbEntity
  8
0
100
AcDbBlockEnd
  0
BLOCK
  5
243
330
242
100
AcDbEntity
  8
0
100
AcDbBlockBegin
  2
*D17
 70
     1
 10
0.0
 20
0.0
 30
0.0
  3
*D17
  1

  0
LINE
  5
68A
330
242
100
AcDbEntity
  8
0
  6
CONTINUOUS
 62
     0
100
AcDbLine
 10
20.19255314218768
 20
7.936922249109423
 30
0.0
 11
20.36635235478609
 21
7.936922249109423
 31
0.0
  0
LINE
  5
68B
330
242
100
AcDbEntity
  8
0
  6
CONTINUOUS
 62
     0
100
AcDbLine
 10
20.1925531421877
 20
5.825111225487375
 30
0.0
 11
20.36635235478609
 21
5.825111225487375
 31
0.0
  0
LINE
  5
68C
330
242
100
AcDbEntity
  8
0
  6
CONTINUOUS
 62
     0
100
AcDbLine
 10
20.36635235478609
 20
7.806922249109423
 30
0.0
 11
20.36635235478609
 21
5.955111225487375
 31
0.0
  0
LINE
  5
68D
330
242
100
AcDbEntity
  8
0
  6
CONTINUOUS
 62
     0
100
AcDbLine
 10
20.36635235478609
 20
5.825111225487375
 30
0.0
 11
20.36635235478609
 21
4.958969493203908
 31
0.0
  0
LINE
  5
68E
330
242
100
AcDbEntity
  8
0
  6
CONTINUOUS
 62
     0
100
AcDbLine
 10
20.36635235478609
 20
4.958969493203908
 30
0.0
 11
20.23635235478609
 21
4.958969493203908
 31
0.0
  0
SOLID
  5
68F
330
242
100
AcDbEntity
  8
0
  6
CONTINUOUS
 62
     0
100
AcDbTrace
 10
20.34468568811942
 20
7.806922249109423
 30
0.0
 11
20.38801902145276
 21
7.806922249109423
 31
0.0
 12
20.36635235478609
 22
7.936922249109423
 32
0.0
 13
20.36635235478609
 23
7.936922249109423
 33
0.0
  0
SOLID
  5
690
330
242
100
AcDbEntity
  8
0
  6
CONTINUOUS
 62
     0
100
AcDbTrace
 10
20.34468568811942
 20
5.955111225487375
 30
0.0
 11
20.38801902145276
 21
5.955111225487375
 31
0.0
 12
20.36635235478609
 22
5.825111225487375
 32
0.0
 13
20.36635235478609
 23
5.825111225487375
 33
0.0
  0
MTEXT
  5
691
330
242
100
AcDbEntity
  8
0
  6
CONTINUOUS
 62
     0
100
AcDbMText
 10
19.73635235478609
 20
5.021469493203912
 30
0.0
 40
0.125
 41
0.0
 71
     2
 72
     1
  1
\A1;2.112 [53.64]
  7
SLDTEXTSTYLE0
1001
ACAD
1000
MTEXTBEGIN
1070
    73
1070
     1
1070
    44
1040
1.0
1070
    74
1070
     0
1000
MTEXTEND
  0
POINT
  5
692
330
242
100
AcDbEntity
  8
DEFPOINTS
  6
CONTINUOUS
 62
     0
100
AcDbPoint
 10
20.13005314218768
 20
7.936922249109423
 30
0.0
  0
POINT
  5
693
330
242
100
AcDbEntity
  8
DEFPOINTS
  6
CONTINUOUS
 62
     0
100
AcDbPoint
 10
20.1300531421877
 20
5.825111225487375
 30
0.0
  0
POINT
  5
694
330
242
100
AcDbEntity
  8
DEFPOINTS
  6
CONTINUOUS
 62
     0
100
AcDbPoint
 10
20.36635235478609
 20
5.825111225487375
 30
0.0
  0
ENDBLK
  5
244
330
242
100
AcDbEntity
  8
0
100
AcDbBlockEnd
  0
BLOCK
  5
256
330
255
100
AcDbEntity
  8
0
100
AcDbBlockBegin
  2
*D18
 70
     1
 10
0.0
 20
0.0
 30
0.0
  3
*D18
  1

  0
LINE
  5
662
330
255
100
AcDbEntity
  8
0
  6
CONTINUOUS
 62
     0
100
AcDbLine
 10
22.56794684297508
 20
9.006213587692112
 30
0.0
 11
22.77297390990424
 21
9.006213587692112
 31
0.0
  0
LINE
  5
663
330
255
100
AcDbEntity
  8
0
  6
CONTINUOUS
 62
     0
100
AcDbLine
 10
22.56794684297508
 20
7.825111225487392
 30
0.0
 11
22.77297390990423
 21
7.825111225487392
 31
0.0
  0
LINE
  5
664
330
255
100
AcDbEntity
  8
0
  6
CONTINUOUS
 62
     0
100
AcDbLine
 10
22.77297390990423
 20
7.955111225487391
 30
0.0
 11
22.77297390990424
 21
8.876213587692111
 31
0.0
  0
LINE
  5
665
330
255
100
AcDbEntity
  8
0
  6
CONTINUOUS
 62
     0
100
AcDbLine
 10
22.77297390990424
 20
9.006213587692112
 30
0.0
 11
22.77297390990424
 21
9.465559172446413
 31
0.0
  0
LINE
  5
666
330
255
100
AcDbEntity
  8
0
  6
CONTINUOUS
 62
     0
100
AcDbLine
 10
22.77297390990424
 20
9.465559172446413
 30
0.0
 11
22.90297390990424
 21
9.465559172446413
 31
0.0
  0
SOLID
  5
667
330
255
100
AcDbEntity
  8
0
  6
CONTINUOUS
 62
     0
100
AcDbTrace
 10
22.75130724323756
 20
7.955111225487391
 30
0.0
 11
22.7946405765709
 21
7.955111225487391
 31
0.0
 12
22.77297390990423
 22
7.825111225487392
 32
0.0
 13
22.77297390990423
 23
7.825111225487392
 33
0.0
  0
SOLID
  5
668
330
255
100
AcDbEntity
  8
0
  6
CONTINUOUS
 62
     0
100
AcDbTrace
 10
22.75130724323757
 20
8.876213587692111
 30
0.0
 11
22.79464057657091
 21
8.876213587692111
 31
0.0
 12
22.77297390990424
 22
9.006213587692112
 32
0.0
 13
22.77297390990424
 23
9.006213587692112
 33
0.0
  0
MTEXT
  5
669
330
255
100
AcDbEntity
  8
0
  6
CONTINUOUS
 62
     0
100
AcDbMText
 10
23.36391140990423
 20
9.528059172446416
 30
0.0
 40
0.125
 41
0.0
 71
     2
 72
     1
  1
\A1;1.181 [30.00]
  7
SLDTEXTSTYLE0
1001
ACAD
1000
MTEXTBEGIN
1070
    73
1070
     1
1070
    44
1040
1.0
1070
    74
1070
     0
1000
MTEXTEND
  0
POINT
  5
66A
330
255
100
AcDbEntity
  8
DEFPOINTS
  6
CONTINUOUS
 62
     0
100
AcDbPoint
 10
22.50544684297508
 20
9.006213587692112
 30
0.0
  0
POINT
  5
66B
330
255
100
AcDbEntity
  8
DEFPOINTS
  6
CONTINUOUS
 62
     0
100
AcDbPoint
 10
22.50544684297508
 20
7.825111225487392
 30
0.0
  0
POINT
  5
66C
330
255
100
AcDbEntity
  8
DEFPOINTS
  6
CONTINUOUS
 62
     0
100
AcDbPoint
 10
22.77297390990423
 20
7.825111225487392
 30
0.0
  0
ENDBLK
  5
257
330
255
100
AcDbEntity
  8
0
100
AcDbBlockEnd
  0
BLOCK
  5
268
330
267
100
AcDbEntity
  8
0
100
AcDbBlockBegin
  2
SW_CENTERMARKSYMBOL_0
 70
     0
 10
0.0
 20
0.0
 30
0.0
  3
SW_CENTERMARKSYMBOL_0
  1

  0
LINE
  5
26A
330
267
100
AcDbEntity
  8
0
  6
CONTINUOUS
 62
     0
100
AcDbLine
 10
0.0
 20
0.0
 30
0.0
 11
0.0
 21
-0.1000000000000006
 31
0.0
  0
LINE
  5
26B
330
267
100
AcDbEntity
  8
0
  6
CONTINUOUS
 62
     0
100
AcDbLine
 10
0.0
 20
0.0
 30
0.0
 11
0.0999999999999995
 21
0.0
 31
0.0
  0
LINE
  5
26C
330
267
100
AcDbEntity
  8
0
  6
CONTINUOUS
 62
     0
100
AcDbLine
 10
0.0
 20
0.0
 30
0.0
 11
0.0
 21
0.0999999999999995
 31
0.0
  0
LINE
  5
26D
330
267
100
AcDbEntity
  8
0
  6
CONTINUOUS
 62
     0
100
AcDbLine
 10
0.0
 20
0.0
 30
0.0
 11
-0.0999999999999995
 21
-0.0000000000000011
 31
0.0
  0
LINE
  5
26E
330
267
100
AcDbEntity
  8
0
  6
CONTINUOUS
 62
     0
100
AcDbLine
 10
0.0
 20
-0.1000000000000006
 30
0.0
 11
0.0
 21
-0.1629921259842522
 31
0.0
  0
LINE
  5
26F
330
267
100
AcDbEntity
  8
0
  6
CONTINUOUS
 62
     0
100
AcDbLine
 10
0.0999999999999995
 20
0.0
 30
0.0
 11
0.1629921259842532
 21
0.0000000000000011
 31
0.0
  0
LINE
  5
270
330
267
100
AcDbEntity
  8
0
  6
CONTINUOUS
 62
     0
100
AcDbLine
 10
0.0
 20
0.0999999999999995
 30
0.0
 11
0.0
 21
0.1629921259842522
 31
0.0
  0
LINE
  5
271
330
267
100
AcDbEntity
  8
0
  6
CONTINUOUS
 62
     0
100
AcDbLine
 10
-0.0999999999999995
 20
-0.0000000000000011
 30
0.0
 11
-0.1629921259842532
 21
-0.0000000000000011
 31
0.0
  0
ENDBLK
  5
269
330
267
100
AcDbEntity
  8
0
100
AcDbBlockEnd
  0
BLOCK
  5
274
330
273
100
AcDbEntity
  8
0
100
AcDbBlockBegin
  2
SW_CENTERMARKSYMBOL_1
 70
     0
 10
0.0
 20
0.0
 30
0.0
  3
SW_CENTERMARKSYMBOL_1
  1

  0
LINE
  5
276
330
273
100
AcDbEntity
  8
0
  6
CONTINUOUS
 62
     0
100
AcDbLine
 10
0.0
 20
0.0
 30
0.0
 11
0.0000000000000044
 21
-0.0999999999999995
 31
0.0
  0
LINE
  5
277
330
273
100
AcDbEntity
  8
0
  6
CONTINUOUS
 62
     0
100
AcDbLine
 10
0.0
 20
0.0
 30
0.0
 11
0.1000000000000038
 21
0.0000000000000011
 31
0.0
  0
LINE
  5
278
330
273
100
AcDbEntity
  8
0
  6
CONTINUOUS
 62
     0
100
AcDbLine
 10
0.0
 20
0.0
 30
0.0
 11
0.0
 21
0.1000000000000006
 31
0.0
  0
LINE
  5
279
330
273
100
AcDbEntity
  8
0
  6
CONTINUOUS
 62
     0
100
AcDbLine
 10
0.0
 20
0.0
 30
0.0
 11
-0.0999999999999995
 21
0.0
 31
0.0
  0
LINE
  5
27A
330
273
100
AcDbEntity
  8
0
  6
CONTINUOUS
 62
     0
100
AcDbLine
 10
0.0000000000000044
 20
-0.0999999999999995
 30
0.0
 11
0.0000000000000044
 21
-0.1629921259842511
 31
0.0
  0
LINE
  5
27B
330
273
100
AcDbEntity
  8
0
  6
CONTINUOUS
 62
     0
100
AcDbLine
 10
0.1000000000000038
 20
0.0000000000000011
 30
0.0
 11
0.1629921259842532
 21
0.0000000000000011
 31
0.0
  0
LINE
  5
27C
330
273
100
AcDbEntity
  8
0
  6
CONTINUOUS
 62
     0
100
AcDbLine
 10
0.0
 20
0.1000000000000006
 30
0.0
 11
0.0
 21
0.1629921259842522
 31
0.0
  0
LINE
  5
27D
330
273
100
AcDbEntity
  8
0
  6
CONTINUOUS
 62
     0
100
AcDbLine
 10
-0.0999999999999995
 20
0.0
 30
0.0
 11
-0.1629921259842489
 21
-0.0000000000000011
 31
0.0
  0
ENDBLK
  5
275
330
273
100
AcDbEntity
  8
0
100
AcDbBlockEnd
  0
BLOCK
  5
280
330
27F
100
AcDbEntity
  8
0
100
AcDbBlockBegin
  2
SW_CENTERMARKSYMBOL_2
 70
     0
 10
0.0
 20
0.0
 30
0.0
  3
SW_CENTERMARKSYMBOL_2
  1

  0
LINE
  5
282
330
27F
100
AcDbEntity
  8
0
  6
CONTINUOUS
 62
     0
100
AcDbLine
 10
0.0
 20
0.0
 30
0.0
 11
0.0
 21
-0.0999999999999995
 31
0.0
  0
LINE
  5
283
330
27F
100
AcDbEntity
  8
0
  6
CONTINUOUS
 62
     0
100
AcDbLine
 10
0.0
 20
0.0
 30
0.0
 11
0.0999999999999995
 21
0.0000000000000011
 31
0.0
  0
LINE
  5
284
330
27F
100
AcDbEntity
  8
0
  6
CONTINUOUS
 62
     0
100
AcDbLine
 10
0.0
 20
0.0
 30
0.0
 11
0.0
 21
0.1000000000000006
 31
0.0
  0
LINE
  5
285
330
27F
100
AcDbEntity
  8
0
  6
CONTINUOUS
 62
     0
100
AcDbLine
 10
0.0
 20
0.0
 30
0.0
 11
-0.0999999999999995
 21
-0.0000000000000011
 31
0.0
  0
LINE
  5
286
330
27F
100
AcDbEntity
  8
0
  6
CONTINUOUS
 62
     0
100
AcDbLine
 10
0.0
 20
-0.0999999999999995
 30
0.0
 11
0.0000000000000044
 21
-0.1629921259842522
 31
0.0
  0
LINE
  5
287
330
27F
100
AcDbEntity
  8
0
  6
CONTINUOUS
 62
     0
100
AcDbLine
 10
0.0999999999999995
 20
0.0000000000000011
 30
0.0
 11
0.1629921259842532
 21
0.0000000000000011
 31
0.0
  0
LINE
  5
288
330
27F
100
AcDbEntity
  8
0
  6
CONTINUOUS
 62
     0
100
AcDbLine
 10
0.0
 20
0.1000000000000006
 30
0.0
 11
0.0
 21
0.1629921259842522
 31
0.0
  0
LINE
  5
289
330
27F
100
AcDbEntity
  8
0
  6
CONTINUOUS
 62
     0
100
AcDbLine
 10
-0.0999999999999995
 20
-0.0000000000000011
 30
0.0
 11
-0.1629921259842489
 21
-0.0000000000000011
 31
0.0
  0
ENDBLK
  5
281
330
27F
100
AcDbEntity
  8
0
100
AcDbBlockEnd
  0
BLOCK
  5
28C
330
28B
100
AcDbEntity
  8
0
100
AcDbBlockBegin
  2
SW_CENTERMARKSYMBOL_3
 70
     0
 10
0.0
 20
0.0
 30
0.0
  3
SW_CENTERMARKSYMBOL_3
  1

  0
LINE
  5
28E
330
28B
100
AcDbEntity
  8
0
  6
CONTINUOUS
 62
     0
100
AcDbLine
 10
0.0
 20
0.0
 30
0.0
 11
0.0
 21
-0.0999999999999995
 31
0.0
  0
LINE
  5
28F
330
28B
100
AcDbEntity
  8
0
  6
CONTINUOUS
 62
     0
100
AcDbLine
 10
0.0
 20
0.0
 30
0.0
 11
0.0999999999999995
 21
0.0000000000000011
 31
0.0
  0
LINE
  5
290
330
28B
100
AcDbEntity
  8
0
  6
CONTINUOUS
 62
     0
100
AcDbLine
 10
0.0
 20
0.0
 30
0.0
 11
0.0
 21
0.1000000000000006
 31
0.0
  0
LINE
  5
291
330
28B
100
AcDbEntity
  8
0
  6
CONTINUOUS
 62
     0
100
AcDbLine
 10
0.0
 20
0.0
 30
0.0
 11
-0.0999999999999995
 21
0.0
 31
0.0
  0
LINE
  5
292
330
28B
100
AcDbEntity
  8
0
  6
CONTINUOUS
 62
     0
100
AcDbLine
 10
0.0
 20
-0.0999999999999995
 30
0.0
 11
0.0
 21
-0.1629921259842522
 31
0.0
  0
LINE
  5
293
330
28B
100
AcDbEntity
  8
0
  6
CONTINUOUS
 62
     0
100
AcDbLine
 10
0.0999999999999995
 20
0.0000000000000011
 30
0.0
 11
0.1629921259842532
 21
0.0000000000000011
 31
0.0
  0
LINE
  5
294
330
28B
100
AcDbEntity
  8
0
  6
CONTINUOUS
 62
     0
100
AcDbLine
 10
0.0
 20
0.1000000000000006
 30
0.0
 11
0.0
 21
0.1629921259842522
 31
0.0
  0
LINE
  5
295
330
28B
100
AcDbEntity
  8
0
  6
CONTINUOUS
 62
     0
100
AcDbLine
 10
-0.0999999999999995
 20
0.0
 30
0.0
 11
-0.1629921259842532
 21
-0.0000000000000011
 31
0.0
  0
ENDBLK
  5
28D
330
28B
100
AcDbEntity
  8
0
100
AcDbBlockEnd
  0
BLOCK
  5
298
330
297
100
AcDbEntity
  8
0
100
AcDbBlockBegin
  2
SW_CENTERMARKSYMBOL_4
 70
     0
 10
0.0
 20
0.0
 30
0.0
  3
SW_CENTERMARKSYMBOL_4
  1

  0
LINE
  5
29A
330
297
100
AcDbEntity
  8
0
  6
CONTINUOUS
 62
     0
100
AcDbLine
 10
0.0
 20
0.0
 30
0.0
 11
0.0
 21
-0.1000000000000006
 31
0.0
  0
LINE
  5
29B
330
297
100
AcDbEntity
  8
0
  6
CONTINUOUS
 62
     0
100
AcDbLine
 10
0.0
 20
0.0
 30
0.0
 11
0.0999999999999995
 21
0.0
 31
0.0
  0
LINE
  5
29C
330
297
100
AcDbEntity
  8
0
  6
CONTINUOUS
 62
     0
100
AcDbLine
 10
0.0
 20
0.0
 30
0.0
 11
-0.0000000000000044
 21
0.0999999999999995
 31
0.0
  0
LINE
  5
29D
330
297
100
AcDbEntity
  8
0
  6
CONTINUOUS
 62
     0
100
AcDbLine
 10
0.0
 20
0.0
 30
0.0
 11
-0.1000000000000038
 21
-0.0000000000000011
 31
0.0
  0
LINE
  5
29E
330
297
100
AcDbEntity
  8
0
  6
CONTINUOUS
 62
     0
100
AcDbLine
 10
0.0
 20
-0.1000000000000006
 30
0.0
 11
0.0
 21
-0.1629921259842522
 31
0.0
  0
LINE
  5
29F
330
297
100
AcDbEntity
  8
0
  6
CONTINUOUS
 62
     0
100
AcDbLine
 10
0.0999999999999995
 20
0.0
 30
0.0
 11
0.1629921259842489
 21
0.0000000000000011
 31
0.0
  0
LINE
  5
2A0
330
297
100
AcDbEntity
  8
0
  6
CONTINUOUS
 62
     0
100
AcDbLine
 10
-0.0000000000000044
 20
0.0999999999999995
 30
0.0
 11
-0.0000000000000044
 21
0.1629921259842522
 31
0.0
  0
LINE
  5
2A1
330
297
100
AcDbEntity
  8
0
  6
CONTINUOUS
 62
     0
100
AcDbLine
 10
-0.1000000000000038
 20
-0.0000000000000011
 30
0.0
 11
-0.1629921259842532
 21
-0.0000000000000011
 31
0.0
  0
ENDBLK
  5
299
330
297
100
AcDbEntity
  8
0
100
AcDbBlockEnd
  0
BLOCK
  5
2A4
330
2A3
100
AcDbEntity
  8
0
100
AcDbBlockBegin
  2
SW_CENTERMARKSYMBOL_5
 70
     0
 10
0.0
 20
0.0
 30
0.0
  3
SW_CENTERMARKSYMBOL_5
  1

  0
LINE
  5
2A6
330
2A3
100
AcDbEntity
  8
0
  6
CONTINUOUS
 62
     0
100
AcDbLine
 10
0.0
 20
0.0
 30
0.0
 11
0.0000000000000044
 21
-0.0999999999999995
 31
0.0
  0
LINE
  5
2A7
330
2A3
100
AcDbEntity
  8
0
  6
CONTINUOUS
 62
     0
100
AcDbLine
 10
0.0
 20
0.0
 30
0.0
 11
0.1000000000000038
 21
0.0000000000000011
 31
0.0
  0
LINE
  5
2A8
330
2A3
100
AcDbEntity
  8
0
  6
CONTINUOUS
 62
     0
100
AcDbLine
 10
0.0
 20
0.0
 30
0.0
 11
0.0
 21
0.1000000000000006
 31
0.0
  0
LINE
  5
2A9
330
2A3
100
AcDbEntity
  8
0
  6
CONTINUOUS
 62
     0
100
AcDbLine
 10
0.0
 20
0.0
 30
0.0
 11
-0.0999999999999995
 21
0.0
 31
0.0
  0
LINE
  5
2AA
330
2A3
100
AcDbEntity
  8
0
  6
CONTINUOUS
 62
     0
100
AcDbLine
 10
0.0000000000000044
 20
-0.0999999999999995
 30
0.0
 11
0.0000000000000044
 21
-0.1629921259842522
 31
0.0
  0
LINE
  5
2AB
330
2A3
100
AcDbEntity
  8
0
  6
CONTINUOUS
 62
     0
100
AcDbLine
 10
0.1000000000000038
 20
0.0000000000000011
 30
0.0
 11
0.1629921259842532
 21
0.0000000000000011
 31
0.0
  0
LINE
  5
2AC
330
2A3
100
AcDbEntity
  8
0
  6
CONTINUOUS
 62
     0
100
AcDbLine
 10
0.0
 20
0.1000000000000006
 30
0.0
 11
0.0
 21
0.1629921259842522
 31
0.0
  0
LINE
  5
2AD
330
2A3
100
AcDbEntity
  8
0
  6
CONTINUOUS
 62
     0
100
AcDbLine
 10
-0.0999999999999995
 20
0.0
 30
0.0
 11
-0.1629921259842489
 21
-0.0000000000000011
 31
0.0
  0
ENDBLK
  5
2A5
330
2A3
100
AcDbEntity
  8
0
100
AcDbBlockEnd
  0
BLOCK
  5
2B9
330
2B8
100
AcDbEntity
  8
0
100
AcDbBlockBegin
  2
*D25
 70
     1
 10
0.0
 20
0.0
 30
0.0
  3
*D25
  1

  0
LINE
  5
5A3
330
2B8
100
AcDbEntity
  8
0
  6
CONTINUOUS
 62
     0
100
AcDbLine
 10
12.46451203988034
 20
3.14723233507485
 30
0.0
 11
12.46451203988034
 21
3.990244146098472
 31
0.0
  0
LINE
  5
5A4
330
2B8
100
AcDbEntity
  8
0
  6
CONTINUOUS
 62
     0
100
AcDbLine
 10
15.17120495326618
 20
3.14723233507485
 30
0.0
 11
15.17120495326618
 21
3.990244146098472
 31
0.0
  0
LINE
  5
5A5
330
2B8
100
AcDbEntity
  8
0
  6
CONTINUOUS
 62
     0
100
AcDbLine
 10
12.59451203988035
 20
3.990244146098472
 30
0.0
 11
13.42045379683977
 21
3.990244146098472
 31
0.0
  0
LINE
  5
5A6
330
2B8
100
AcDbEntity
  8
0
  6
CONTINUOUS
 62
     0
100
AcDbLine
 10
15.04120495326618
 20
3.990244146098472
 30
0.0
 11
14.29545379683977
 21
3.990244146098472
 31
0.0
  0
SOLID
  5
5A7
330
2B8
100
AcDbEntity
  8
0
  6
CONTINUOUS
 62
     0
100
AcDbTrace
 10
12.59451203988035
 20
4.011910812765139
 30
0.0
 11
12.59451203988035
 21
3.968577479431806
 31
0.0
 12
12.46451203988034
 22
3.990244146098472
 32
0.0
 13
12.46451203988034
 23
3.990244146098472
 33
0.0
  0
SOLID
  5
5A8
330
2B8
100
AcDbEntity
  8
0
  6
CONTINUOUS
 62
     0
100
AcDbTrace
 10
15.04120495326618
 20
4.011910812765139
 30
0.0
 11
15.04120495326618
 21
3.968577479431806
 31
0.0
 12
15.17120495326618
 22
3.990244146098472
 32
0.0
 13
15.17120495326618
 23
3.990244146098472
 33
0.0
  0
MTEXT
  5
5A9
330
2B8
100
AcDbEntity
  8
0
  6
CONTINUOUS
 62
     0
100
AcDbMText
 10
13.85795379683977
 20
4.052744146098473
 30
0.0
 40
0.125
 41
0.0
 71
     2
 72
     1
  1
\A1;2.74 [69.6]
  7
SLDTEXTSTYLE0
1001
ACAD
1000
MTEXTBEGIN
1070
    73
1070
     1
1070
    44
1040
1.0
1070
    74
1070
     0
1000
MTEXTEND
  0
POINT
  5
5AA
330
2B8
100
AcDbEntity
  8
DEFPOINTS
  6
CONTINUOUS
 62
     0
100
AcDbPoint
 10
12.46451203988034
 20
3.08473233507485
 30
0.0
  0
POINT
  5
5AB
330
2B8
100
AcDbEntity
  8
DEFPOINTS
  6
CONTINUOUS
 62
     0
100
AcDbPoint
 10
15.17120495326618
 20
3.08473233507485
 30
0.0
  0
POINT
  5
5AC
330
2B8
100
AcDbEntity
  8
DEFPOINTS
  6
CONTINUOUS
 62
     0
100
AcDbPoint
 10
15.17120495326618
 20
3.990244146098472
 30
0.0
  0
ENDBLK
  5
2BA
330
2B8
100
AcDbEntity
  8
0
100
AcDbBlockEnd
  0
BLOCK
  5
2CB
330
2CA
100
AcDbEntity
  8
0
100
AcDbBlockBegin
  2
*D26
 70
     1
 10
0.0
 20
0.0
 30
0.0
  3
*D26
  1

  0
SOLID
  5
2CD
330
2CA
100
AcDbEntity
  8
0
  6
CONTINUOUS
 62
     7
100
AcDbTrace
 10
16.03734668554964
 20
3.124102413815008
 30
0.0
 11
16.01734668554964
 21
2.994102413815008
 31
0.0
 12
16.05734668554964
 22
2.994102413815008
 32
0.0
 13
16.05734668554964
 23
2.994102413815008
 33
0.0
  0
SOLID
  5
2CE
330
2CA
100
AcDbEntity
  8
0
  6
CONTINUOUS
 62
     7
100
AcDbTrace
 10
16.03734668554964
 20
2.342606350822881
 30
0.0
 11
16.05734668554964
 21
2.472606350822881
 31
0.0
 12
16.01734668554964
 22
2.472606350822881
 32
0.0
 13
16.01734668554964
 23
2.472606350822881
 33
0.0
  0
LINE
  5
2CF
330
2CA
100
AcDbEntity
  8
0
  6
CONTINUOUS
 62
     7
100
AcDbLine
 10
15.94051395881701
 20
2.851666751802068
 30
0.0
 11
15.94051395881701
 21
2.683091290074423
 31
0.0
  0
LINE
  5
2D0
330
2CA
100
AcDbEntity
  8
0
  6
CONTINUOUS
 62
     7
100
AcDbLine
 10
15.94051395881701
 20
2.683091290074423
 30
0.0
 11
15.96585906541313
 21
2.683091290074423
 31
0.0
  0
LINE
  5
2D1
330
2CA
100
AcDbEntity
  8
0
  6
CONTINUOUS
 62
     7
100
AcDbLine
 10
15.94051395881701
 20
2.851666751802068
 30
0.0
 11
15.96585906541313
 21
2.851666751802068
 31
0.0
  0
LINE
  5
2D2
330
2CA
100
AcDbEntity
  8
0
  6
CONTINUOUS
 62
     7
100
AcDbLine
 10
16.45739884607247
 20
2.851666751802068
 30
0.0
 11
16.45739884607247
 21
2.683091290074423
 31
0.0
  0
LINE
  5
2D3
330
2CA
100
AcDbEntity
  8
0
  6
CONTINUOUS
 62
     7
100
AcDbLine
 10
16.45739884607247
 20
2.683091290074423
 30
0.0
 11
16.43205373947635
 21
2.683091290074423
 31
0.0
  0
LINE
  5
2D4
330
2CA
100
AcDbEntity
  8
0
  6
CONTINUOUS
 62
     7
100
AcDbLine
 10
16.45739884607247
 20
2.851666751802068
 30
0.0
 11
16.43205373947635
 21
2.851666751802068
 31
0.0
  0
LINE
  5
2D5
330
2CA
100
AcDbEntity
  8
0
  6
CONTINUOUS
 62
     7
100
AcDbLine
 10
15.18183487452602
 20
3.124102413815008
 30
0.0
 11
16.16234668554963
 21
3.124102413815008
 31
0.0
  0
LINE
  5
2D6
330
2CA
100
AcDbEntity
  8
0
  6
CONTINUOUS
 62
     7
100
AcDbLine
 10
15.18183487452602
 20
2.342606350822881
 30
0.0
 11
16.16234668554963
 21
2.342606350822881
 31
0.0
  0
LINE
  5
2D7
330
2CA
100
AcDbEntity
  8
0
  6
CONTINUOUS
 62
     7
100
AcDbLine
 10
16.03734668554964
 20
3.124102413815008
 30
0.0
 11
16.03734668554964
 21
2.866541057248625
 31
0.0
  0
LINE
  5
2D8
330
2CA
100
AcDbEntity
  8
0
  6
CONTINUOUS
 62
     7
100
AcDbLine
 10
16.03734668554964
 20
2.342606350822881
 30
0.0
 11
16.03734668554964
 21
2.668216984627866
 31
0.0
  0
MTEXT
  5
2D9
330
2CA
100
AcDbEntity
  8
0
  6
CONTINUOUS
 62
     7
100
AcDbMText
 10
15.5666043118346
 20
2.829350465849202
 30
-0.0000000000000286
 40
0.125
 41
0.0
 71
     1
 72
     1
  1
.781
  7
SLDTEXTSTYLE0
1001
ACAD
1000
MTEXTBEGIN
1070
    73
1070
     1
1070
    44
1040
1.0
1070
    74
1070
     0
1000
MTEXTEND
  0
MTEXT
  5
2DA
330
2CA
100
AcDbEntity
  8
0
  6
CONTINUOUS
 62
     7
100
AcDbMText
 10
15.99120417200923
 20
2.829350465849202
 30
-0.0000000000000286
 40
0.125
 41
0.0
 71
     1
 72
     1
  1
19.85
  7
SLDTEXTSTYLE0
1001
ACAD
1000
MTEXTBEGIN
1070
    73
1070
     1
1070
    44
1040
1.0
1070
    74
1070
     0
1000
MTEXTEND
  0
ENDBLK
  5
2CC
330
2CA
100
AcDbEntity
  8
0
100
AcDbBlockEnd
  0
BLOCK
  5
2DC
330
2DB
100
AcDbEntity
  8
0
100
AcDbBlockBegin
  2
SW_NOTE_7
 70
     0
 10
0.0
 20
0.0
 30
0.0
  3
SW_NOTE_7
  1

  0
MTEXT
  5
2DE
330
2DB
100
AcDbEntity
  8
0
  6
CONTINUOUS
 62
     0
100
AcDbMText
 10
-1.983747114898852
 20
0.2250546645178846
 30
0.0
 40
0.125
 41
0.0
 71
     1
 72
     1
  1
VIEWING AREA
  7
SLDTEXTSTYLE0
1001
ACAD
1000
MTEXTBEGIN
1070
    73
1070
     1
1070
    44
1040
1.0
1070
    74
1070
     0
1000
MTEXTEND
  0
MTEXT
  5
2DF
330
2DB
100
AcDbEntity
  8
0
  6
CONTINUOUS
 62
     0
100
AcDbMText
 10
-1.983747114898852
 20
0.0606845900016783
 30
0.0
 40
0.125
 41
0.0
 71
     1
 72
     1
  1
2.63 [66.79] X .724 [18.4]]
  7
SLDTEXTSTYLE0
1001
ACAD
1000
MTEXTBEGIN
1070
    73
1070
     1
1070
    44
1040
1.0
1070
    74
1070
     0
1000
MTEXTEND
  0
ENDBLK
  5
2DD
330
2DB
100
AcDbEntity
  8
0
100
AcDbBlockEnd
  0
BLOCK
  5
2E3
330
2E2
100
AcDbEntity
  8
0
100
AcDbBlockBegin
  2
_DOT
 70
     0
 10
0.0
 20
0.0
 30
0.0
  3
_DOT
  1

  0
POLYLINE
  5
2E5
330
2E2
100
AcDbEntity
  8
0
  6
BYBLOCK
 62
     0
100
AcDb2dPolyline
 66
     1
 10
0.0
 20
0.0
 30
0.0
 70
     1
 40
0.5
 41
0.5
  0
VERTEX
  5
2E8
330
2E5
100
AcDbEntity
  8
0
  6
BYBLOCK
 62
     0
100
AcDbVertex
100
AcDb2dVertex
 10
-0.25
 20
0.0
 30
0.0
 42
1.0
  0
VERTEX
  5
2E9
330
2E5
100
AcDbEntity
  8
0
  6
BYBLOCK
 62
     0
100
AcDbVertex
100
AcDb2dVertex
 10
0.25
 20
0.0
 30
0.0
 42
1.0
  0
SEQEND
  5
2E7
330
2E5
100
AcDbEntity
  8
0
  6
BYBLOCK
 62
     0
  0
LINE
  5
2E6
330
2E2
100
AcDbEntity
  8
0
  6
BYBLOCK
 62
     0
100
AcDbLine
 10
-0.5
 20
0.0
 30
0.0
 11
-1.0
 21
0.0
 31
0.0
  0
ENDBLK
  5
2E4
330
2E2
100
AcDbEntity
  8
0
100
AcDbBlockEnd
  0
BLOCK
  5
3C6
330
3C5
100
AcDbEntity
  8
0
100
AcDbBlockBegin
  2
*D29
 70
     1
 10
0.0
 20
0.0
 30
0.0
  3
*D29
  1

  0
SOLID
  5
3C8
330
3C5
100
AcDbEntity
  8
0
  6
CONTINUOUS
 62
     7
100
AcDbTrace
 10
9.015990133300187
 20
4.295704403487766
 30
0.0
 11
8.885990133300188
 21
4.315704403487766
 31
0.0
 12
8.885990133300188
 22
4.275704403487766
 32
0.0
 13
8.885990133300188
 23
4.275704403487766
 33
0.0
  0
SOLID
  5
3C9
330
3C5
100
AcDbEntity
  8
0
  6
CONTINUOUS
 62
     7
100
AcDbTrace
 10
6.496305093930108
 20
4.295704403487766
 30
0.0
 11
6.626305093930108
 21
4.275704403487766
 31
0.0
 12
6.626305093930108
 22
4.315704403487766
 32
0.0
 13
6.626305093930108
 23
4.315704403487766
 33
0.0
  0
LINE
  5
3CA
330
3C5
100
AcDbEntity
  8
0
  6
CONTINUOUS
 62
     7
100
AcDbLine
 10
7.654173617515446
 20
4.479154170661968
 30
0.0
 11
7.654173617515446
 21
4.310578708934323
 31
0.0
  0
LINE
  5
3CB
330
3C5
100
AcDbEntity
  8
0
  6
CONTINUOUS
 62
     7
100
AcDbLine
 10
7.654173617515446
 20
4.310578708934323
 30
0.0
 11
7.679518724111558
 21
4.310578708934323
 31
0.0
  0
LINE
  5
3CC
330
3C5
100
AcDbEntity
  8
0
  6
CONTINUOUS
 62
     7
100
AcDbLine
 10
7.654173617515446
 20
4.479154170661968
 30
0.0
 11
7.679518724111558
 21
4.479154170661968
 31
0.0
  0
LINE
  5
3CD
330
3C5
100
AcDbEntity
  8
0
  6
CONTINUOUS
 62
     7
100
AcDbLine
 10
7.940124098061486
 20
4.479154170661968
 30
0.0
 11
7.940124098061486
 21
4.310578708934323
 31
0.0
  0
LINE
  5
3CE
330
3C5
100
AcDbEntity
  8
0
  6
CONTINUOUS
 62
     7
100
AcDbLine
 10
7.940124098061486
 20
4.310578708934323
 30
0.0
 11
7.914778991465375
 21
4.310578708934323
 31
0.0
  0
LINE
  5
3CF
330
3C5
100
AcDbEntity
  8
0
  6
CONTINUOUS
 62
     7
100
AcDbLine
 10
7.940124098061486
 20
4.479154170661968
 30
0.0
 11
7.914778991465375
 21
4.479154170661968
 31
0.0
  0
LINE
  5
3D0
330
3C5
100
AcDbEntity
  8
0
  6
CONTINUOUS
 62
     7
100
AcDbLine
 10
9.015990133300187
 20
5.821495863237405
 30
0.0
 11
9.015990133300187
 21
4.170704403487766
 31
0.0
  0
LINE
  5
3D1
330
3C5
100
AcDbEntity
  8
0
  6
CONTINUOUS
 62
     7
100
AcDbLine
 10
6.496305093930108
 20
5.821495863237405
 30
0.0
 11
6.496305093930108
 21
4.170704403487766
 31
0.0
  0
LINE
  5
3D2
330
3C5
100
AcDbEntity
  8
0
  6
CONTINUOUS
 62
     7
100
AcDbLine
 10
9.015990133300187
 20
4.295704403487766
 30
0.0
 11
8.078659417849815
 21
4.295704403487766
 31
0.0
  0
LINE
  5
3D3
330
3C5
100
AcDbEntity
  8
0
  6
CONTINUOUS
 62
     7
100
AcDbLine
 10
6.496305093930108
 20
4.295704403487766
 30
0.0
 11
7.100133836856116
 21
4.295704403487766
 31
0.0
  0
MTEXT
  5
3D4
330
3C5
100
AcDbEntity
  8
0
  6
CONTINUOUS
 62
     7
100
AcDbMText
 10
7.187978943452223
 20
4.456837884709103
 30
-0.0000000000000399
 40
0.125
 41
0.0
 71
     1
 72
     1
  1
2.520
  7
SLDTEXTSTYLE0
1001
ACAD
1000
MTEXTBEGIN
1070
    73
1070
     1
1070
    44
1040
1.0
1070
    74
1070
     0
1000
MTEXTEND
  0
MTEXT
  5
3D5
330
3C5
100
AcDbEntity
  8
0
  6
CONTINUOUS
 62
     7
100
AcDbMText
 10
7.704863830707668
 20
4.456837884709103
 30
-0.0000000000000399
 40
0.125
 41
0.0
 71
     1
 72
     1
  1
64
  7
SLDTEXTSTYLE0
1001
ACAD
1000
MTEXTBEGIN
1070
    73
1070
     1
1070
    44
1040
1.0
1070
    74
1070
     0
1000
MTEXTEND
  0
MTEXT
  5
3D6
330
3C5
100
AcDbEntity
  8
0
  6
CONTINUOUS
 62
     7
100
AcDbMText
 10
7.314412527651406
 20
4.258513812088343
 30
-0.0000000000000385
 40
0.125
 41
0.0
 71
     1
 72
     1
  1
RECESS
  7
SLDTEXTSTYLE0
1001
ACAD
1000
MTEXTBEGIN
1070
    73
1070
     1
1070
    44
1040
1.0
1070
    74
1070
     0
1000
MTEXTEND
  0
ENDBLK
  5
3C7
330
3C5
100
AcDbEntity
  8
0
100
AcDbBlockEnd
  0
BLOCK
  5
3D9
330
3D8
100
AcDbEntity
  8
0
100
AcDbBlockBegin
  2
*D30
 70
     1
 10
0.0
 20
0.0
 30
0.0
  3
*D30
  1

  0
SOLID
  5
3DB
330
3D8
100
AcDbEntity
  8
0
  6
CONTINUOUS
 62
     7
100
AcDbTrace
 10
9.232525566371057
 20
11.82524007889255
 30
0.0
 11
9.102525566371054
 21
11.84524007889254
 31
0.0
 12
9.102525566371054
 22
11.80524007889255
 32
0.0
 13
9.102525566371054
 23
11.80524007889255
 33
0.0
  0
SOLID
  5
3DC
330
3D8
100
AcDbEntity
  8
0
  6
CONTINUOUS
 62
     7
100
AcDbTrace
 10
6.279769660859242
 20
11.82524007889255
 30
0.0
 11
6.409769660859242
 21
11.80524007889255
 31
0.0
 12
6.409769660859242
 22
11.84524007889254
 32
0.0
 13
6.409769660859242
 23
11.84524007889254
 33
0.0
  0
LINE
  5
3DD
330
3D8
100
AcDbEntity
  8
0
  6
CONTINUOUS
 62
     7
100
AcDbLine
 10
7.654173617515446
 20
11.90952780975637
 30
0.0
 11
7.654173617515446
 21
11.74095234802873
 31
0.0
  0
LINE
  5
3DE
330
3D8
100
AcDbEntity
  8
0
  6
CONTINUOUS
 62
     7
100
AcDbLine
 10
7.654173617515446
 20
11.74095234802873
 30
0.0
 11
7.679518724111558
 21
11.74095234802873
 31
0.0
  0
LINE
  5
3DF
330
3D8
100
AcDbEntity
  8
0
  6
CONTINUOUS
 62
     7
100
AcDbLine
 10
7.654173617515446
 20
11.90952780975637
 30
0.0
 11
7.679518724111558
 21
11.90952780975637
 31
0.0
  0
LINE
  5
3E0
330
3D8
100
AcDbEntity
  8
0
  6
CONTINUOUS
 62
     7
100
AcDbLine
 10
7.940124098061483
 20
11.90952780975637
 30
0.0
 11
7.940124098061483
 21
11.74095234802873
 31
0.0
  0
LINE
  5
3E1
330
3D8
100
AcDbEntity
  8
0
  6
CONTINUOUS
 62
     7
100
AcDbLine
 10
7.940124098061483
 20
11.74095234802873
 30
0.0
 11
7.914778991465375
 21
11.74095234802873
 31
0.0
  0
LINE
  5
3E2
330
3D8
100
AcDbEntity
  8
0
  6
CONTINUOUS
 62
     7
100
AcDbLine
 10
7.940124098061483
 20
11.90952780975637
 30
0.0
 11
7.914778991465375
 21
11.90952780975637
 31
0.0
  0
LINE
  5
3E3
330
3D8
100
AcDbEntity
  8
0
  6
CONTINUOUS
 62
     7
100
AcDbLine
 10
9.232525566371057
 20
9.958014359368467
 30
0.0
 11
9.232525566371057
 21
11.95024007889255
 31
0.0
  0
LINE
  5
3E4
330
3D8
100
AcDbEntity
  8
0
  6
CONTINUOUS
 62
     7
100
AcDbLine
 10
6.279769660859242
 20
9.958014359368467
 30
0.0
 11
6.279769660859242
 21
11.95024007889255
 31
0.0
  0
LINE
  5
3E5
330
3D8
100
AcDbEntity
  8
0
  6
CONTINUOUS
 62
     7
100
AcDbLine
 10
9.232525566371057
 20
11.82524007889255
 30
0.0
 11
8.078659417849811
 21
11.82524007889255
 31
0.0
  0
LINE
  5
3E6
330
3D8
100
AcDbEntity
  8
0
  6
CONTINUOUS
 62
     7
100
AcDbLine
 10
6.279769660859242
 20
11.82524007889255
 30
0.0
 11
7.100133836856111
 21
11.82524007889255
 31
0.0
  0
MTEXT
  5
3E7
330
3D8
100
AcDbEntity
  8
0
  6
CONTINUOUS
 62
     7
100
AcDbMText
 10
7.187978943452221
 20
11.88721152380351
 30
-0.0000000000000918
 40
0.125
 41
0.0
 71
     1
 72
     1
  1
2.953
  7
SLDTEXTSTYLE0
1001
ACAD
1000
MTEXTBEGIN
1070
    73
1070
     1
1070
    44
1040
1.0
1070
    74
1070
     0
1000
MTEXTEND
  0
MTEXT
  5
3E8
330
3D8
100
AcDbEntity
  8
0
  6
CONTINUOUS
 62
     7
100
AcDbMText
 10
7.704863830707664
 20
11.88721152380351
 30
-0.0000000000000918
 40
0.125
 41
0.0
 71
     1
 72
     1
  1
75
  7
SLDTEXTSTYLE0
1001
ACAD
1000
MTEXTBEGIN
1070
    73
1070
     1
1070
    44
1040
1.0
1070
    74
1070
     0
1000
MTEXTEND
  0
ENDBLK
  5
3DA
330
3D8
100
AcDbEntity
  8
0
100
AcDbBlockEnd
  0
BLOCK
  5
3EB
330
3EA
100
AcDbEntity
  8
0
100
AcDbBlockBegin
  2
*D31
 70
     1
 10
0.0
 20
0.0
 30
0.0
  3
*D31
  1

  0
SOLID
  5
3ED
330
3EA
100
AcDbEntity
  8
0
  6
CONTINUOUS
 62
     7
100
AcDbTrace
 10
4.819150052211766
 20
5.634291138827957
 30
0.0
 11
4.839150052211766
 21
5.764291138827957
 31
0.0
 12
4.799150052211766
 22
5.764291138827957
 32
0.0
 13
4.799150052211766
 23
5.764291138827957
 33
0.0
  0
SOLID
  5
3EE
330
3EA
100
AcDbEntity
  8
0
  6
CONTINUOUS
 62
     7
100
AcDbTrace
 10
4.819150052211766
 20
10.01421239867047
 30
0.0
 11
4.799150052211766
 21
9.884212398670475
 31
0.0
 12
4.839150052211766
 22
9.884212398670475
 32
0.0
 13
4.839150052211766
 23
9.884212398670475
 33
0.0
  0
LINE
  5
3EF
330
3EA
100
AcDbEntity
  8
0
  6
CONTINUOUS
 62
     7
100
AcDbLine
 10
4.722317325479148
 20
8.236969888175954
 30
0.0
 11
4.722317325479148
 21
8.068394426448312
 31
0.0
  0
LINE
  5
3F0
330
3EA
100
AcDbEntity
  8
0
  6
CONTINUOUS
 62
     7
100
AcDbLine
 10
4.722317325479148
 20
8.068394426448312
 30
0.0
 11
4.747662432075256
 21
8.068394426448312
 31
0.0
  0
LINE
  5
3F1
330
3EA
100
AcDbEntity
  8
0
  6
CONTINUOUS
 62
     7
100
AcDbLine
 10
4.722317325479148
 20
8.236969888175954
 30
0.0
 11
4.747662432075256
 21
8.236969888175954
 31
0.0
  0
LINE
  5
3F2
330
3EA
100
AcDbEntity
  8
0
  6
CONTINUOUS
 62
     7
100
AcDbLine
 10
5.331487239815391
 20
8.236969888175957
 30
0.0
 11
5.331487239815391
 21
8.068394426448316
 31
0.0
  0
LINE
  5
3F3
330
3EA
100
AcDbEntity
  8
0
  6
CONTINUOUS
 62
     7
100
AcDbLine
 10
5.331487239815391
 20
8.068394426448316
 30
0.0
 11
5.306142133219283
 21
8.068394426448316
 31
0.0
  0
LINE
  5
3F4
330
3EA
100
AcDbEntity
  8
0
  6
CONTINUOUS
 62
     7
100
AcDbLine
 10
5.331487239815391
 20
8.236969888175957
 30
0.0
 11
5.306142133219283
 21
8.236969888175957
 31
0.0
  0
LINE
  5
3F5
330
3EA
100
AcDbEntity
  8
0
  6
CONTINUOUS
 62
     7
100
AcDbLine
 10
6.335967700161253
 20
5.634291138827957
 30
0.0
 11
4.694150052211766
 21
5.634291138827957
 31
0.0
  0
LINE
  5
3F6
330
3EA
100
AcDbEntity
  8
0
  6
CONTINUOUS
 62
     7
100
AcDbLine
 10
6.33596770016125
 20
10.01421239867047
 30
0.0
 11
4.694150052211766
 21
10.01421239867047
 31
0.0
  0
LINE
  5
3F7
330
3EA
100
AcDbEntity
  8
0
  6
CONTINUOUS
 62
     7
100
AcDbLine
 10
4.819150052211766
 20
5.634291138827957
 30
0.0
 11
4.819150052211766
 21
8.053520121001755
 31
0.0
  0
LINE
  5
3F8
330
3EA
100
AcDbEntity
  8
0
  6
CONTINUOUS
 62
     7
100
AcDbLine
 10
4.819150052211766
 20
10.01421239867047
 30
0.0
 11
4.819150052211766
 21
8.251844193622511
 31
0.0
  0
MTEXT
  5
3F9
330
3EA
100
AcDbEntity
  8
0
  6
CONTINUOUS
 62
     7
100
AcDbMText
 10
4.256122651415921
 20
8.214653602223092
 30
-0.0000000000000662
 40
0.125
 41
0.0
 71
     1
 72
     1
  1
4.380
  7
SLDTEXTSTYLE0
1001
ACAD
1000
MTEXTBEGIN
1070
    73
1070
     1
1070
    44
1040
1.0
1070
    74
1070
     0
1000
MTEXTEND
  0
MTEXT
  5
3FA
330
3EA
100
AcDbEntity
  8
0
  6
CONTINUOUS
 62
     7
100
AcDbMText
 10
4.773007538671365
 20
8.214653602223092
 30
-0.0000000000000662
 40
0.125
 41
0.0
 71
     1
 72
     1
  1
111.25
  7
SLDTEXTSTYLE0
1001
ACAD
1000
MTEXTBEGIN
1070
    73
1070
     1
1070
    44
1040
1.0
1070
    74
1070
     0
1000
MTEXTEND
  0
ENDBLK
  5
3EC
330
3EA
100
AcDbEntity
  8
0
100
AcDbBlockEnd
  0
BLOCK
  5
3FD
330
3FC
100
AcDbEntity
  8
0
100
AcDbBlockBegin
  2
*D32
 70
     1
 10
0.0
 20
0.0
 30
0.0
  3
*D32
  1

  0
SOLID
  5
3FF
330
3FC
100
AcDbEntity
  8
0
  6
CONTINUOUS
 62
     7
100
AcDbTrace
 10
10.33488875534743
 20
9.777007674261026
 30
0.0
 11
10.31488875534742
 21
9.647007674261027
 31
0.0
 12
10.35488875534743
 22
9.647007674261027
 32
0.0
 13
10.35488875534743
 23
9.647007674261027
 33
0.0
  0
SOLID
  5
400
330
3FC
100
AcDbEntity
  8
0
  6
CONTINUOUS
 62
     7
100
AcDbTrace
 10
10.33488875534743
 20
5.871495863237406
 30
0.0
 11
10.35488875534743
 21
6.001495863237406
 31
0.0
 12
10.31488875534742
 22
6.001495863237406
 32
0.0
 13
10.31488875534742
 23
6.001495863237406
 33
0.0
  0
LINE
  5
401
330
3FC
100
AcDbEntity
  8
0
  6
CONTINUOUS
 62
     7
100
AcDbLine
 10
10.28419854215519
 20
7.679271147360502
 30
0.0
 11
10.28419854215519
 21
7.510695685632857
 31
0.0
  0
LINE
  5
402
330
3FC
100
AcDbEntity
  8
0
  6
CONTINUOUS
 62
     7
100
AcDbLine
 10
10.28419854215519
 20
7.510695685632857
 30
0.0
 11
10.30954364875132
 21
7.510695685632857
 31
0.0
  0
LINE
  5
403
330
3FC
100
AcDbEntity
  8
0
  6
CONTINUOUS
 62
     7
100
AcDbLine
 10
10.28419854215519
 20
7.679271147360502
 30
0.0
 11
10.30954364875132
 21
7.679271147360502
 31
0.0
  0
LINE
  5
404
330
3FC
100
AcDbEntity
  8
0
  6
CONTINUOUS
 62
     7
100
AcDbLine
 10
10.80108342941065
 20
7.679271147360496
 30
0.0
 11
10.80108342941065
 21
7.510695685632851
 31
0.0
  0
LINE
  5
405
330
3FC
100
AcDbEntity
  8
0
  6
CONTINUOUS
 62
     7
100
AcDbLine
 10
10.80108342941065
 20
7.510695685632851
 30
0.0
 11
10.77573832281453
 21
7.510695685632851
 31
0.0
  0
LINE
  5
406
330
3FC
100
AcDbEntity
  8
0
  6
CONTINUOUS
 62
     7
100
AcDbLine
 10
10.80108342941065
 20
7.679271147360496
 30
0.0
 11
10.77573832281453
 21
7.679271147360496
 31
0.0
  0
LINE
  5
407
330
3FC
100
AcDbEntity
  8
0
  6
CONTINUOUS
 62
     7
100
AcDbLine
 10
9.065990133300187
 20
9.777007674261026
 30
0.0
 11
10.45988875534743
 21
9.777007674261026
 31
0.0
  0
LINE
  5
408
330
3FC
100
AcDbEntity
  8
0
  6
CONTINUOUS
 62
     7
100
AcDbLine
 10
9.065990133300187
 20
5.871495863237406
 30
0.0
 11
10.45988875534743
 21
5.871495863237406
 31
0.0
  0
LINE
  5
409
330
3FC
100
AcDbEntity
  8
0
  6
CONTINUOUS
 62
     7
100
AcDbLine
 10
10.33488875534743
 20
9.777007674261026
 30
0.0
 11
10.33488875534743
 21
7.694145452807059
 31
0.0
  0
LINE
  5
40A
330
3FC
100
AcDbEntity
  8
0
  6
CONTINUOUS
 62
     7
100
AcDbLine
 10
10.33488875534743
 20
5.871495863237406
 30
0.0
 11
10.33488875534743
 21
7.297497307565542
 31
0.0
  0
MTEXT
  5
40B
330
3FC
100
AcDbEntity
  8
0
  6
CONTINUOUS
 62
     7
100
AcDbMText
 10
9.818003868091983
 20
7.656954861407636
 30
-0.0000000000000623
 40
0.125
 41
0.0
 71
     1
 72
     1
  1
3.906
  7
SLDTEXTSTYLE0
1001
ACAD
1000
MTEXTBEGIN
1070
    73
1070
     1
1070
    44
1040
1.0
1070
    74
1070
     0
1000
MTEXTEND
  0
MTEXT
  5
40C
330
3FC
100
AcDbEntity
  8
0
  6
CONTINUOUS
 62
     7
100
AcDbMText
 10
10.33488875534742
 20
7.656954861407636
 30
-0.0000000000000623
 40
0.125
 41
0.0
 71
     1
 72
     1
  1
99.20
  7
SLDTEXTSTYLE0
1001
ACAD
1000
MTEXTBEGIN
1070
    73
1070
     1
1070
    44
1040
1.0
1070
    74
1070
     0
1000
MTEXTEND
  0
MTEXT
  5
40D
330
3FC
100
AcDbEntity
  8
0
  6
CONTINUOUS
 62
     7
100
AcDbMText
 10
10.05990465564587
 20
7.458630788786877
 30
-0.0000000000000609
 40
0.125
 41
0.0
 71
     1
 72
     1
  1
RECESS
  7
SLDTEXTSTYLE0
1001
ACAD
1000
MTEXTBEGIN
1070
    73
1070
     1
1070
    44
1040
1.0
1070
    74
1070
     0
1000
MTEXTEND
  0
ENDBLK
  5
3FE
330
3FC
100
AcDbEntity
  8
0
100
AcDbBlockEnd
  0
BLOCK
  5
4C4
330
4C3
100
AcDbEntity
  8
0
100
AcDbBlockBegin
  2
*D33
 70
     1
 10
0.0
 20
0.0
 30
0.0
  3
*D33
  1

  0
SOLID
  5
4C6
330
4C3
100
AcDbEntity
  8
0
  6
CONTINUOUS
 62
     7
100
AcDbTrace
 10
2.923793103661509
 20
11.01889241541227
 30
0.0
 11
3.053793103661509
 21
10.99889241541227
 31
0.0
 12
3.053793103661509
 22
11.03889241541227
 32
0.0
 13
3.053793103661509
 23
11.03889241541227
 33
0.0
  0
SOLID
  5
4C7
330
4C3
100
AcDbEntity
  8
0
  6
CONTINUOUS
 62
     7
100
AcDbTrace
 10
2.746627749330802
 20
11.01889241541227
 30
0.0
 11
2.616627749330801
 21
11.03889241541227
 31
0.0
 12
2.616627749330801
 22
10.99889241541227
 32
0.0
 13
2.616627749330801
 23
10.99889241541227
 33
0.0
  0
LINE
  5
4C8
330
4C3
100
AcDbEntity
  8
0
  6
CONTINUOUS
 62
     7
100
AcDbLine
 10
1.96753213313001
 20
11.10318014627609
 30
0.0
 11
1.96753213313001
 21
10.93460468454845
 31
0.0
  0
LINE
  5
4C9
330
4C3
100
AcDbEntity
  8
0
  6
CONTINUOUS
 62
     7
100
AcDbLine
 10
1.96753213313001
 20
10.93460468454845
 30
0.0
 11
1.99287723972612
 21
10.93460468454845
 31
0.0
  0
LINE
  5
4CA
330
4C3
100
AcDbEntity
  8
0
  6
CONTINUOUS
 62
     7
100
AcDbLine
 10
1.96753213313001
 20
11.10318014627609
 30
0.0
 11
1.99287723972612
 21
11.10318014627609
 31
0.0
  0
LINE
  5
4CB
330
4C3
100
AcDbEntity
  8
0
  6
CONTINUOUS
 62
     7
100
AcDbLine
 10
2.392131993304654
 20
11.10318014627609
 30
0.0
 11
2.392131993304654
 21
10.93460468454845
 31
0.0
  0
LINE
  5
4CC
330
4C3
100
AcDbEntity
  8
0
  6
CONTINUOUS
 62
     7
100
AcDbLine
 10
2.392131993304654
 20
10.93460468454845
 30
0.0
 11
2.366786886708544
 21
10.93460468454845
 31
0.0
  0
LINE
  5
4CD
330
4C3
100
AcDbEntity
  8
0
  6
CONTINUOUS
 62
     7
100
AcDbLine
 10
2.392131993304654
 20
11.10318014627609
 30
0.0
 11
2.366786886708544
 21
11.10318014627609
 31
0.0
  0
LINE
  5
4CE
330
4C3
100
AcDbEntity
  8
0
  6
CONTINUOUS
 62
     7
100
AcDbLine
 10
2.923793103661509
 20
9.876220272686225
 30
0.0
 11
2.923793103661509
 21
11.14389241541226
 31
0.0
  0
LINE
  5
4CF
330
4C3
100
AcDbEntity
  8
0
  6
CONTINUOUS
 62
     7
100
AcDbLine
 10
2.746627749330802
 20
9.835865941977562
 30
0.0
 11
2.746627749330802
 21
11.14389241541226
 31
0.0
  0
LINE
  5
4D0
330
4C3
100
AcDbEntity
  8
0
  6
CONTINUOUS
 62
     7
100
AcDbLine
 10
2.923793103661509
 20
11.01889241541227
 30
0.0
 11
3.173793103661509
 21
11.01889241541227
 31
0.0
  0
LINE
  5
4D1
330
4C3
100
AcDbEntity
  8
0
  6
CONTINUOUS
 62
     7
100
AcDbLine
 10
2.746627749330802
 20
11.01889241541227
 30
0.0
 11
2.530667313092981
 21
11.01889241541227
 31
0.0
  0
MTEXT
  5
4D2
330
4C3
100
AcDbEntity
  8
0
  6
CONTINUOUS
 62
     7
100
AcDbMText
 10
1.593622486147584
 20
11.08086386032323
 30
-0.0000000000000862
 40
0.125
 41
0.0
 71
     1
 72
     1
  1
.177
  7
SLDTEXTSTYLE0
1001
ACAD
1000
MTEXTBEGIN
1070
    73
1070
     1
1070
    44
1040
1.0
1070
    74
1070
     0
1000
MTEXTEND
  0
MTEXT
  5
4D3
330
4C3
100
AcDbEntity
  8
0
  6
CONTINUOUS
 62
     7
100
AcDbMText
 10
2.018222346322227
 20
11.08086386032323
 30
-0.0000000000000862
 40
0.125
 41
0.0
 71
     1
 72
     1
  1
4.50
  7
SLDTEXTSTYLE0
1001
ACAD
1000
MTEXTBEGIN
1070
    73
1070
     1
1070
    44
1040
1.0
1070
    74
1070
     0
1000
MTEXTEND
  0
ENDBLK
  5
4C5
330
4C3
100
AcDbEntity
  8
0
100
AcDbBlockEnd
  0
BLOCK
  5
4D6
330
4D5
100
AcDbEntity
  8
0
100
AcDbBlockBegin
  2
*D34
 70
     1
 10
0.0
 20
0.0
 30
0.0
  3
*D34
  1

  0
SOLID
  5
4D8
330
4D5
100
AcDbEntity
  8
0
  6
CONTINUOUS
 62
     7
100
AcDbTrace
 10
2.746627749330802
 20
11.9741800752638
 30
0.0
 11
2.876627749330801
 21
11.9541800752638
 31
0.0
 12
2.876627749330801
 22
11.9941800752638
 32
0.0
 13
2.876627749330801
 23
11.9941800752638
 33
0.0
  0
SOLID
  5
4D9
330
4D5
100
AcDbEntity
  8
0
  6
CONTINUOUS
 62
     7
100
AcDbTrace
 10
3.514344284763873
 20
11.9741800752638
 30
0.0
 11
3.384344284763873
 21
11.9941800752638
 31
0.0
 12
3.384344284763873
 22
11.9541800752638
 32
0.0
 13
3.384344284763873
 23
11.9541800752638
 33
0.0
  0
LINE
  5
4DA
330
4D5
100
AcDbEntity
  8
0
  6
CONTINUOUS
 62
     7
100
AcDbLine
 10
1.990778314368883
 20
12.05846780612762
 30
0.0
 11
1.990778314368883
 21
11.88989234439998
 31
0.0
  0
LINE
  5
4DB
330
4D5
100
AcDbEntity
  8
0
  6
CONTINUOUS
 62
     7
100
AcDbLine
 10
1.990778314368883
 20
11.88989234439998
 30
0.0
 11
2.016123420964992
 21
11.88989234439998
 31
0.0
  0
LINE
  5
4DC
330
4D5
100
AcDbEntity
  8
0
  6
CONTINUOUS
 62
     7
100
AcDbLine
 10
1.990778314368883
 20
12.05846780612762
 30
0.0
 11
2.016123420964992
 21
12.05846780612762
 31
0.0
  0
LINE
  5
4DD
330
4D5
100
AcDbEntity
  8
0
  6
CONTINUOUS
 62
     7
100
AcDbLine
 10
2.507663201624326
 20
12.05846780612762
 30
0.0
 11
2.507663201624326
 21
11.88989234439998
 31
0.0
  0
LINE
  5
4DE
330
4D5
100
AcDbEntity
  8
0
  6
CONTINUOUS
 62
     7
100
AcDbLine
 10
2.507663201624326
 20
11.88989234439998
 30
0.0
 11
2.482318095028216
 21
11.88989234439998
 31
0.0
  0
LINE
  5
4DF
330
4D5
100
AcDbEntity
  8
0
  6
CONTINUOUS
 62
     7
100
AcDbLine
 10
2.507663201624326
 20
12.05846780612762
 30
0.0
 11
2.482318095028216
 21
12.05846780612762
 31
0.0
  0
LINE
  5
4E0
330
4D5
100
AcDbEntity
  8
0
  6
CONTINUOUS
 62
     7
100
AcDbLine
 10
2.746627749330802
 20
9.835865941977562
 30
0.0
 11
2.746627749330802
 21
12.0991800752638
 31
0.0
  0
LINE
  5
4E1
330
4D5
100
AcDbEntity
  8
0
  6
CONTINUOUS
 62
     7
100
AcDbLine
 10
3.514344284763873
 20
9.835865941977562
 30
0.0
 11
3.514344284763873
 21
12.0991800752638
 31
0.0
  0
LINE
  5
4E2
330
4D5
100
AcDbEntity
  8
0
  6
CONTINUOUS
 62
     7
100
AcDbLine
 10
2.746627749330802
 20
11.9741800752638
 30
0.0
 11
2.646198521412654
 21
11.9741800752638
 31
0.0
  0
LINE
  5
4E3
330
4D5
100
AcDbEntity
  8
0
  6
CONTINUOUS
 62
     7
100
AcDbLine
 10
3.514344284763873
 20
11.9741800752638
 30
0.0
 11
2.746627749330802
 21
11.9741800752638
 31
0.0
  0
MTEXT
  5
4E4
330
4D5
100
AcDbEntity
  8
0
  6
CONTINUOUS
 62
     7
100
AcDbMText
 10
1.616868667386456
 20
12.03615152017476
 30
-0.0000000000000929
 40
0.125
 41
0.0
 71
     1
 72
     1
  1
.768
  7
SLDTEXTSTYLE0
1001
ACAD
1000
MTEXTBEGIN
1070
    73
1070
     1
1070
    44
1040
1.0
1070
    74
1070
     0
1000
MTEXTEND
  0
MTEXT
  5
4E5
330
4D5
100
AcDbEntity
  8
0
  6
CONTINUOUS
 62
     7
100
AcDbMText
 10
2.0414685275611
 20
12.03615152017476
 30
-0.0000000000000929
 40
0.125
 41
0.0
 71
     1
 72
     1
  1
19.50
  7
SLDTEXTSTYLE0
1001
ACAD
1000
MTEXTBEGIN
1070
    73
1070
     1
1070
    44
1040
1.0
1070
    74
1070
     0
1000
MTEXTEND
  0
ENDBLK
  5
4D7
330
4D5
100
AcDbEntity
  8
0
100
AcDbBlockEnd
  0
BLOCK
  5
4E8
330
4E7
100
AcDbEntity
  8
0
100
AcDbBlockBegin
  2
*D35
 70
     1
 10
0.0
 20
0.0
 30
0.0
  3
*D35
  1

  0
SOLID
  5
4EA
330
4E7
100
AcDbEntity
  8
0
  6
CONTINUOUS
 62
     7
100
AcDbTrace
 10
2.923793103661509
 20
11.5890196064516
 30
0.0
 11
3.053793103661509
 21
11.5690196064516
 31
0.0
 12
3.053793103661509
 22
11.6090196064516
 32
0.0
 13
3.053793103661509
 23
11.6090196064516
 33
0.0
  0
SOLID
  5
4EB
330
4E7
100
AcDbEntity
  8
0
  6
CONTINUOUS
 62
     7
100
AcDbTrace
 10
3.337178930434231
 20
11.5890196064516
 30
0.0
 11
3.207178930434231
 21
11.6090196064516
 31
0.0
 12
3.207178930434231
 22
11.5690196064516
 32
0.0
 13
3.207178930434231
 23
11.5690196064516
 33
0.0
  0
LINE
  5
4EC
330
4E7
100
AcDbEntity
  8
0
  6
CONTINUOUS
 62
     7
100
AcDbLine
 10
1.507967051329324
 20
11.67330733731542
 30
0.0
 11
1.507967051329324
 21
11.50473187558777
 31
0.0
  0
LINE
  5
4ED
330
4E7
100
AcDbEntity
  8
0
  6
CONTINUOUS
 62
     7
100
AcDbLine
 10
1.507967051329324
 20
11.50473187558777
 30
0.0
 11
1.533312157925434
 21
11.50473187558777
 31
0.0
  0
LINE
  5
4EE
330
4E7
100
AcDbEntity
  8
0
  6
CONTINUOUS
 62
     7
100
AcDbLine
 10
1.507967051329324
 20
11.67330733731542
 30
0.0
 11
1.533312157925434
 21
11.67330733731542
 31
0.0
  0
LINE
  5
4EF
330
4E7
100
AcDbEntity
  8
0
  6
CONTINUOUS
 62
     7
100
AcDbLine
 10
2.024851938584768
 20
11.67330733731542
 30
0.0
 11
2.024851938584768
 21
11.50473187558777
 31
0.0
  0
LINE
  5
4F0
330
4E7
100
AcDbEntity
  8
0
  6
CONTINUOUS
 62
     7
100
AcDbLine
 10
2.024851938584768
 20
11.50473187558777
 30
0.0
 11
1.999506831988659
 21
11.50473187558777
 31
0.0
  0
LINE
  5
4F1
330
4E7
100
AcDbEntity
  8
0
  6
CONTINUOUS
 62
     7
100
AcDbLine
 10
2.024851938584768
 20
11.67330733731542
 30
0.0
 11
1.999506831988659
 21
11.67330733731542
 31
0.0
  0
LINE
  5
4F2
330
4E7
100
AcDbEntity
  8
0
  6
CONTINUOUS
 62
     7
100
AcDbLine
 10
2.923793103661509
 20
9.876220272686225
 30
0.0
 11
2.923793103661509
 21
11.7140196064516
 31
0.0
  0
LINE
  5
4F3
330
4E7
100
AcDbEntity
  8
0
  6
CONTINUOUS
 62
     7
100
AcDbLine
 10
3.337178930434231
 20
9.150264725244754
 30
0.0
 11
3.337178930434231
 21
11.7140196064516
 31
0.0
  0
LINE
  5
4F4
330
4E7
100
AcDbEntity
  8
0
  6
CONTINUOUS
 62
     7
100
AcDbLine
 10
2.923793103661509
 20
11.5890196064516
 30
0.0
 11
2.163387258373096
 21
11.5890196064516
 31
0.0
  0
LINE
  5
4F5
330
4E7
100
AcDbEntity
  8
0
  6
CONTINUOUS
 62
     7
100
AcDbLine
 10
3.337178930434231
 20
11.5890196064516
 30
0.0
 11
2.923793103661509
 21
11.5890196064516
 31
0.0
  0
MTEXT
  5
4F6
330
4E7
100
AcDbEntity
  8
0
  6
CONTINUOUS
 62
     7
100
AcDbMText
 10
1.134057404346899
 20
11.65099105136256
 30
-0.0000000000000902
 40
0.125
 41
0.0
 71
     1
 72
     1
  1
.413
  7
SLDTEXTSTYLE0
1001
ACAD
1000
MTEXTBEGIN
1070
    73
1070
     1
1070
    44
1040
1.0
1070
    74
1070
     0
1000
MTEXTEND
  0
MTEXT
  5
4F7
330
4E7
100
AcDbEntity
  8
0
  6
CONTINUOUS
 62
     7
100
AcDbMText
 10
1.558657264521543
 20
11.65099105136256
 30
-0.0000000000000902
 40
0.125
 41
0.0
 71
     1
 72
     1
  1
10.50
  7
SLDTEXTSTYLE0
1001
ACAD
1000
MTEXTBEGIN
1070
    73
1070
     1
1070
    44
1040
1.0
1070
    74
1070
     0
1000
MTEXTEND
  0
ENDBLK
  5
4E9
330
4E7
100
AcDbEntity
  8
0
100
AcDbBlockEnd
  0
BLOCK
  5
4FA
330
4F9
100
AcDbEntity
  8
0
100
AcDbBlockBegin
  2
SW_NOTE_8
 70
     0
 10
0.0
 20
0.0
 30
0.0
  3
SW_NOTE_8
  1

  0
MTEXT
  5
4FC
330
4F9
100
AcDbEntity
  8
0
  6
CONTINUOUS
 62
     0
100
AcDbMText
 10
0.0197997338394365
 20
0.0605785158833445
 30
0.0
 40
0.125
 41
0.0
 71
     1
 72
     1
  1
TOP
  7
SLDTEXTSTYLE0
1001
ACAD
1000
MTEXTBEGIN
1070
    73
1070
     1
1070
    44
1040
1.0
1070
    74
1070
     0
1000
MTEXTEND
  0
ENDBLK
  5
4FB
330
4F9
100
AcDbEntity
  8
0
100
AcDbBlockEnd
  0
BLOCK
  5
500
330
4FF
100
AcDbEntity
  8
0
100
AcDbBlockBegin
  2
SW_NOTE_9
 70
     0
 10
0.0
 20
0.0
 30
0.0
  3
SW_NOTE_9
  1

  0
MTEXT
  5
502
330
4FF
100
AcDbEntity
  8
0
  6
CONTINUOUS
 62
     0
100
AcDbMText
 10
-0.6999023873009894
 20
0.060725955920713
 30
0.0
 40
0.125
 41
0.0
 71
     1
 72
     1
  1
BOTTOM
  7
SLDTEXTSTYLE0
1001
ACAD
1000
MTEXTBEGIN
1070
    73
1070
     1
1070
    44
1040
1.0
1070
    74
1070
     0
1000
MTEXTEND
  0
ENDBLK
  5
501
330
4FF
100
AcDbEntity
  8
0
100
AcDbBlockEnd
  0
BLOCK
  5
506
330
505
100
AcDbEntity
  8
0
100
AcDbBlockBegin
  2
SW_NOTE_10
 70
     0
 10
0.0
 20
0.0
 30
0.0
  3
SW_NOTE_10
  1

  0
MTEXT
  5
508
330
505
100
AcDbEntity
  8
0
  6
CONTINUOUS
 62
     0
100
AcDbMText
 10
-0.9066584668733622
 20
0.3895525308659856
 30
0.0
 40
0.125
 41
0.0
 71
     1
 72
     1
  1
PC BOARD
  7
SLDTEXTSTYLE0
1001
ACAD
1000
MTEXTBEGIN
1070
    73
1070
     1
1070
    44
1040
1.0
1070
    74
1070
     0
1000
MTEXTEND
  0
MTEXT
  5
509
330
505
100
AcDbEntity
  8
0
  6
CONTINUOUS
 62
     0
100
AcDbMText
 10
-0.9066584668733622
 20
0.2251824563497793
 30
0.0
 40
0.125
 41
0.0
 71
     1
 72
     1
  1
CUSTOMER
  7
SLDTEXTSTYLE0
1001
ACAD
1000
MTEXTBEGIN
1070
    73
1070
     1
1070
    44
1040
1.0
1070
    74
1070
     0
1000
MTEXTEND
  0
MTEXT
  5
50A
330
505
100
AcDbEntity
  8
0
  6
CONTINUOUS
 62
     0
100
AcDbMText
 10
-0.9066584668733622
 20
0.0608123818335731
 30
0.0
 40
0.125
 41
0.0
 71
     1
 72
     1
  1
SUPPLIED
  7
SLDTEXTSTYLE0
1001
ACAD
1000
MTEXTBEGIN
1070
    73
1070
     1
1070
    44
1040
1.0
1070
    74
1070
     0
1000
MTEXTEND
  0
ENDBLK
  5
507
330
505
100
AcDbEntity
  8
0
100
AcDbBlockEnd
  0
BLOCK
  5
50E
330
50D
100
AcDbEntity
  8
0
100
AcDbBlockBegin
  2
SW_NOTE_11
 70
     0
 10
0.0
 20
0.0
 30
0.0
  3
SW_NOTE_11
  1

  0
MTEXT
  5
510
330
50D
100
AcDbEntity
  8
0
  6
CONTINUOUS
 62
     0
100
AcDbMText
 10
0.0197998122579003
 20
0.0604518100236709
 30
0.0
 40
0.125
 41
0.0
 71
     1
 72
     1
  1
END PANEL
  7
SLDTEXTSTYLE0
1001
ACAD
1000
MTEXTBEGIN
1070
    73
1070
     1
1070
    44
1040
1.0
1070
    74
1070
     0
1000
MTEXTEND
  0
ENDBLK
  5
50F
330
50D
100
AcDbEntity
  8
0
100
AcDbBlockEnd
  0
BLOCK
  5
578
330
577
100
AcDbEntity
  8
0
100
AcDbBlockBegin
  2
*D40
 70
     1
 10
0.0
 20
0.0
 30
0.0
  3
*D40
  1

  0
SOLID
  5
57A
330
577
100
AcDbEntity
  8
0
  6
CONTINUOUS
 62
     7
100
AcDbTrace
 10
4.704965527000971
 20
3.312510517771169
 30
0.0
 11
4.684965527000971
 21
3.182510517771168
 31
0.0
 12
4.724965527000971
 22
3.182510517771168
 32
0.0
 13
4.724965527000971
 23
3.182510517771168
 33
0.0
  0
SOLID
  5
57B
330
577
100
AcDbEntity
  8
0
  6
CONTINUOUS
 62
     7
100
AcDbTrace
 10
4.704965527000971
 20
2.328258549267246
 30
0.0
 11
4.724965527000971
 21
2.458258549267246
 31
0.0
 12
4.684965527000971
 22
2.458258549267246
 32
0.0
 13
4.684965527000971
 23
2.458258549267246
 33
0.0
  0
LINE
  5
57C
330
577
100
AcDbEntity
  8
0
  6
CONTINUOUS
 62
     7
100
AcDbLine
 10
4.723600003623056
 20
2.865188717649071
 30
0.0
 11
4.723600003623056
 21
2.696613255921424
 31
0.0
  0
LINE
  5
57D
330
577
100
AcDbEntity
  8
0
  6
CONTINUOUS
 62
     7
100
AcDbLine
 10
4.723600003623056
 20
2.696613255921424
 30
0.0
 11
4.748945110219166
 21
2.696613255921424
 31
0.0
  0
LINE
  5
57E
330
577
100
AcDbEntity
  8
0
  6
CONTINUOUS
 62
     7
100
AcDbLine
 10
4.723600003623056
 20
2.865188717649071
 30
0.0
 11
4.748945110219166
 21
2.865188717649071
 31
0.0
  0
LINE
  5
57F
330
577
100
AcDbEntity
  8
0
  6
CONTINUOUS
 62
     7
100
AcDbLine
 10
5.009550484169094
 20
2.865188717649071
 30
0.0
 11
5.009550484169094
 21
2.696613255921424
 31
0.0
  0
LINE
  5
580
330
577
100
AcDbEntity
  8
0
  6
CONTINUOUS
 62
     7
100
AcDbLine
 10
5.009550484169094
 20
2.696613255921424
 30
0.0
 11
4.984205377572985
 21
2.696613255921424
 31
0.0
  0
LINE
  5
581
330
577
100
AcDbEntity
  8
0
  6
CONTINUOUS
 62
     7
100
AcDbLine
 10
5.009550484169094
 20
2.865188717649071
 30
0.0
 11
4.984205377572985
 21
2.865188717649071
 31
0.0
  0
LINE
  5
582
330
577
100
AcDbEntity
  8
0
  6
CONTINUOUS
 62
     7
100
AcDbLine
 10
6.430449332369383
 20
3.312510517771169
 30
0.0
 11
4.579965527000971
 21
3.312510517771169
 31
0.0
  0
LINE
  5
583
330
577
100
AcDbEntity
  8
0
  6
CONTINUOUS
 62
     7
100
AcDbLine
 10
6.430449332369383
 20
2.328258549267246
 30
0.0
 11
4.579965527000971
 21
2.328258549267246
 31
0.0
  0
LINE
  5
584
330
577
100
AcDbEntity
  8
0
  6
CONTINUOUS
 62
     7
100
AcDbLine
 10
4.704965527000971
 20
3.312510517771169
 30
0.0
 11
4.704965527000971
 21
2.880063023095626
 31
0.0
  0
LINE
  5
585
330
577
100
AcDbEntity
  8
0
  6
CONTINUOUS
 62
     7
100
AcDbLine
 10
4.704965527000971
 20
2.328258549267246
 30
0.0
 11
4.704965527000971
 21
2.681738950474869
 31
0.0
  0
MTEXT
  5
586
330
577
100
AcDbEntity
  8
0
  6
CONTINUOUS
 62
     7
100
AcDbMText
 10
4.349690356640631
 20
2.842872431696206
 30
-0.0000000000000287
 40
0.125
 41
0.0
 71
     1
 72
     1
  1
.984
  7
SLDTEXTSTYLE0
1001
ACAD
1000
MTEXTBEGIN
1070
    73
1070
     1
1070
    44
1040
1.0
1070
    74
1070
     0
1000
MTEXTEND
  0
MTEXT
  5
587
330
577
100
AcDbEntity
  8
0
  6
CONTINUOUS
 62
     7
100
AcDbMText
 10
4.774290216815275
 20
2.842872431696206
 30
-0.0000000000000287
 40
0.125
 41
0.0
 71
     1
 72
     1
  1
25
  7
SLDTEXTSTYLE0
1001
ACAD
1000
MTEXTBEGIN
1070
    73
1070
     1
1070
    44
1040
1.0
1070
    74
1070
     0
1000
MTEXTEND
  0
ENDBLK
  5
579
330
577
100
AcDbEntity
  8
0
100
AcDbBlockEnd
  0
BLOCK
  5
58A
330
589
100
AcDbEntity
  8
0
100
AcDbBlockBegin
  2
*D41
 70
     1
 10
0.0
 20
0.0
 30
0.0
  3
*D41
  1

  0
SOLID
  5
58C
330
589
100
AcDbEntity
  8
0
  6
CONTINUOUS
 62
     7
100
AcDbTrace
 10
5.594010761114342
 20
3.312510517771169
 30
0.0
 11
5.614010761114342
 21
3.442510517771169
 31
0.0
 12
5.574010761114343
 22
3.442510517771169
 32
0.0
 13
5.574010761114343
 23
3.442510517771169
 33
0.0
  0
SOLID
  5
58D
330
589
100
AcDbEntity
  8
0
  6
CONTINUOUS
 62
     7
100
AcDbTrace
 10
5.594010761114342
 20
2.816447525645183
 30
0.0
 11
5.574010761114343
 21
2.686447525645184
 31
0.0
 12
5.614010761114342
 22
2.686447525645184
 32
0.0
 13
5.614010761114342
 23
2.686447525645184
 33
0.0
  0
LINE
  5
58E
330
589
100
AcDbEntity
  8
0
  6
CONTINUOUS
 62
     7
100
AcDbLine
 10
5.497178034381723
 20
3.09409002270643
 30
0.0
 11
5.497178034381723
 21
2.925514560978786
 31
0.0
  0
LINE
  5
58F
330
589
100
AcDbEntity
  8
0
  6
CONTINUOUS
 62
     7
100
AcDbLine
 10
5.497178034381723
 20
2.925514560978786
 30
0.0
 11
5.522523140977834
 21
2.925514560978786
 31
0.0
  0
LINE
  5
590
330
589
100
AcDbEntity
  8
0
  6
CONTINUOUS
 62
     7
100
AcDbLine
 10
5.497178034381723
 20
3.09409002270643
 30
0.0
 11
5.522523140977834
 21
3.09409002270643
 31
0.0
  0
LINE
  5
591
330
589
100
AcDbEntity
  8
0
  6
CONTINUOUS
 62
     7
100
AcDbLine
 10
6.014062921637167
 20
3.094090022706432
 30
0.0
 11
6.014062921637167
 21
2.925514560978788
 31
0.0
  0
LINE
  5
592
330
589
100
AcDbEntity
  8
0
  6
CONTINUOUS
 62
     7
100
AcDbLine
 10
6.014062921637167
 20
2.925514560978788
 30
0.0
 11
5.988717815041058
 21
2.925514560978788
 31
0.0
  0
LINE
  5
593
330
589
100
AcDbEntity
  8
0
  6
CONTINUOUS
 62
     7
100
AcDbLine
 10
6.014062921637167
 20
3.094090022706432
 30
0.0
 11
5.988717815041058
 21
3.094090022706432
 31
0.0
  0
LINE
  5
594
330
589
100
AcDbEntity
  8
0
  6
CONTINUOUS
 62
     7
100
AcDbLine
 10
6.430449332369383
 20
3.312510517771169
 30
0.0
 11
5.469010761114342
 21
3.312510517771169
 31
0.0
  0
LINE
  5
595
330
589
100
AcDbEntity
  8
0
  6
CONTINUOUS
 62
     7
100
AcDbLine
 10
9.182525566371054
 20
2.816447525645183
 30
0.0
 11
5.469010761114342
 21
2.816447525645183
 31
0.0
  0
LINE
  5
596
330
589
100
AcDbEntity
  8
0
  6
CONTINUOUS
 62
     7
100
AcDbLine
 10
5.594010761114342
 20
3.312510517771169
 30
0.0
 11
5.594010761114342
 21
3.562510517771169
 31
0.0
  0
LINE
  5
597
330
589
100
AcDbEntity
  8
0
  6
CONTINUOUS
 62
     7
100
AcDbLine
 10
5.594010761114342
 20
2.816447525645183
 30
0.0
 11
5.594010761114342
 21
2.566447525645185
 31
0.0
  0
MTEXT
  5
598
330
589
100
AcDbEntity
  8
0
  6
CONTINUOUS
 62
     7
100
AcDbMText
 10
5.123268387399298
 20
3.071773736753566
 30
-0.0000000000000303
 40
0.125
 41
0.0
 71
     1
 72
     1
  1
.496
  7
SLDTEXTSTYLE0
1001
ACAD
1000
MTEXTBEGIN
1070
    73
1070
     1
1070
    44
1040
1.0
1070
    74
1070
     0
1000
MTEXTEND
  0
MTEXT
  5
599
330
589
100
AcDbEntity
  8
0
  6
CONTINUOUS
 62
     7
100
AcDbMText
 10
5.547868247573942
 20
3.071773736753566
 30
-0.0000000000000303
 40
0.125
 41
0.0
 71
     1
 72
     1
  1
12.60
  7
SLDTEXTSTYLE0
1001
ACAD
1000
MTEXTBEGIN
1070
    73
1070
     1
1070
    44
1040
1.0
1070
    74
1070
     0
1000
MTEXTEND
  0
ENDBLK
  5
58B
330
589
100
AcDbEntity
  8
0
100
AcDbBlockEnd
  0
BLOCK
  5
6B7
330
6AC
100
AcDbEntity
  8
0
100
AcDbBlockBegin
  2
*D42
 70
     1
 10
0.0
 20
0.0
 30
0.0
  3
*D42
  1

  0
LINE
  5
6CD
330
6AC
100
AcDbEntity
  8
0
  6
CONTINUOUS
 62
     0
100
AcDbLine
 10
2.785997813345794
 20
9.390555543346355
 30
0.0
 11
2.785997813345794
 21
10.51676517199389
 31
0.0
  0
LINE
  5
6CE
330
6AC
100
AcDbEntity
  8
0
  6
CONTINUOUS
 62
     0
100
AcDbLine
 10
2.746627764818623
 20
9.848366001347542
 30
0.0
 11
2.746627764818623
 21
10.51676517199389
 31
0.0
  0
LINE
  5
6CF
330
6AC
100
AcDbEntity
  8
0
  6
CONTINUOUS
 62
     0
100
AcDbLine
 10
2.915997813345794
 20
10.51676517199389
 30
0.0
 11
3.045997813345795
 21
10.51676517199389
 31
0.0
  0
LINE
  5
6D0
330
6AC
100
AcDbEntity
  8
0
  6
CONTINUOUS
 62
     0
100
AcDbLine
 10
2.616627764818623
 20
10.51676517199389
 30
0.0
 11
2.486627764818623
 21
10.51676517199389
 31
0.0
  0
SOLID
  5
6D1
330
6AC
100
AcDbEntity
  8
0
  6
CONTINUOUS
 62
     0
100
AcDbTrace
 10
2.915997813345794
 20
10.53843183866056
 30
0.0
 11
2.915997813345794
 21
10.49509850532722
 31
0.0
 12
2.785997813345794
 22
10.51676517199389
 32
0.0
 13
2.785997813345794
 23
10.51676517199389
 33
0.0
  0
SOLID
  5
6D2
330
6AC
100
AcDbEntity
  8
0
  6
CONTINUOUS
 62
     0
100
AcDbTrace
 10
2.616627764818623
 20
10.53843183866056
 30
0.0
 11
2.616627764818623
 21
10.49509850532722
 31
0.0
 12
2.746627764818623
 22
10.51676517199389
 32
0.0
 13
2.746627764818623
 23
10.51676517199389
 33
0.0
  0
MTEXT
  5
6D3
330
6AC
100
AcDbEntity
  8
0
  6
CONTINUOUS
 62
     0
100
AcDbMText
 10
2.088190264818623
 20
10.51676517199389
 30
0.0
 40
0.125
 41
0.0
 71
     5
 72
     1
  1
\A1;.039 [1.00]
  7
SLDTEXTSTYLE0
1001
ACAD
1000
MTEXTBEGIN
1070
    73
1070
     1
1070
    44
1040
1.0
1070
    74
1070
     0
1000
MTEXTEND
  0
POINT
  5
6D4
330
6AC
100
AcDbEntity
  8
DEFPOINTS
  6
CONTINUOUS
 62
     0
100
AcDbPoint
 10
2.785997813345794
 20
9.328055543346355
 30
0.0
  0
POINT
  5
6D5
330
6AC
100
AcDbEntity
  8
DEFPOINTS
  6
CONTINUOUS
 62
     0
100
AcDbPoint
 10
2.746627764818623
 20
9.785866001347542
 30
0.0
  0
POINT
  5
6D6
330
6AC
100
AcDbEntity
  8
DEFPOINTS
  6
CONTINUOUS
 62
     0
100
AcDbPoint
 10
2.746627764818623
 20
10.51676517199389
 30
0.0
  0
ENDBLK
  5
6B8
330
6AC
100
AcDbEntity
  8
0
100
AcDbBlockEnd
  0
ENDSEC
  0
SECTION
  2
ENTITIES
  0
LINE
  5
62
330
1F
100
AcDbEntity
  8
0
  6
CONTINUOUS
 62
     7
100
AcDbLine
 10
0.3442516046213063
 20
15.9240731707317
 30
0.0
 11
24.9082516046213
 21
15.9240731707317
 31
0.0
  0
LINE
  5
63
330
1F
100
AcDbEntity
  8
0
  6
CONTINUOUS
 62
     7
100
AcDbLine
 10
24.9082516046213
 20
0.3600731707317071
 30
0.0
 11
24.9082516046213
 21
15.9240731707317
 31
0.0
  0
LINE
  5
64
330
1F
100
AcDbEntity
  8
0
  6
CONTINUOUS
 62
     7
100
AcDbLine
 10
24.9082516046213
 20
0.3600731707317071
 30
0.0
 11
0.3442516046213067
 21
0.3600731707317071
 31
0.0
  0
LINE
  5
65
330
1F
100
AcDbEntity
  8
0
  6
CONTINUOUS
 62
     7
100
AcDbLine
 10
0.3442516046213063
 20
15.9240731707317
 30
0.0
 11
0.3442516046213067
 21
0.3600731707317071
 31
0.0
  0
LINE
  5
66
330
1F
100
AcDbEntity
  8
0
  6
CONTINUOUS
 62
     7
100
AcDbLine
 10
0.2512516046213063
 20
16.01707317073169
 30
0.0
 11
25.0012516046213
 21
16.01707317073169
 31
0.0
  0
LINE
  5
67
330
1F
100
AcDbEntity
  8
0
  6
CONTINUOUS
 62
     7
100
AcDbLine
 10
25.0012516046213
 20
0.267073170731706
 30
0.0
 11
0.2512516046213063
 21
0.267073170731707
 31
0.0
  0
LINE
  5
68
330
1F
100
AcDbEntity
  8
0
  6
CONTINUOUS
 62
     7
100
AcDbLine
 10
0.2512516046213063
 20
16.01707317073169
 30
0.0
 11
0.2512516046213063
 21
0.267073170731707
 31
0.0
  0
LINE
  5
69
330
1F
100
AcDbEntity
  8
0
  6
CONTINUOUS
 62
     7
100
AcDbLine
 10
25.0012516046213
 20
0.267073170731706
 30
0.0
 11
25.0012516046213
 21
16.01707317073169
 31
0.0
  0
LINE
  5
6A
330
1F
100
AcDbEntity
  8
0
  6
CONTINUOUS
 62
     7
100
AcDbLine
 10
0.3442516046213063
 20
15.31507317073169
 30
0.0
 11
24.9082516046213
 21
15.31507317073169
 31
0.0
  0
LINE
  5
6B
330
1F
100
AcDbEntity
  8
0
  6
CONTINUOUS
 62
     7
100
AcDbLine
 10
1.469251604621303
 20
15.9240731707317
 30
0.0
 11
1.469251604621303
 21
15.31507317073169
 31
0.0
  0
LINE
  5
6C
330
1F
100
AcDbEntity
  8
0
  6
CONTINUOUS
 62
     7
100
AcDbLine
 10
11.0332516046213
 20
15.31507317073169
 30
0.0
 11
11.0332516046213
 21
15.9240731707317
 31
0.0
  0
LINE
  5
6D
330
1F
100
AcDbEntity
  8
0
  6
CONTINUOUS
 62
     7
100
AcDbLine
 10
11.1262516046213
 20
15.31507317073169
 30
0.0
 11
11.1262516046213
 21
15.9240731707317
 31
0.0
  0
LINE
  5
6E
330
1F
100
AcDbEntity
  8
0
  6
CONTINUOUS
 62
     7
100
AcDbLine
 10
12.2512516046213
 20
15.31507317073169
 30
0.0
 11
12.2512516046213
 21
15.9240731707317
 31
0.0
  0
LINE
  5
6F
330
1F
100
AcDbEntity
  8
0
  6
CONTINUOUS
 62
     7
100
AcDbLine
 10
21.8152516046213
 20
15.31507317073169
 30
0.0
 11
21.8152516046213
 21
15.9240731707317
 31
0.0
  0
LINE
  5
70
330
1F
100
AcDbEntity
  8
0
  6
CONTINUOUS
 62
     7
100
AcDbLine
 10
21.9082516046213
 20
15.31507317073169
 30
0.0
 11
21.9082516046213
 21
15.9240731707317
 31
0.0
  0
LINE
  5
71
330
1F
100
AcDbEntity
  8
0
  6
CONTINUOUS
 62
     7
100
AcDbLine
 10
23.0332516046213
 20
15.31507317073169
 30
0.0
 11
23.0332516046213
 21
15.9240731707317
 31
0.0
  0
MTEXT
  5
73
330
1F
100
AcDbEntity
  8
0
  6
CONTINUOUS
 62
     7
100
AcDbMText
 10
14.78664045581045
 20
5.205123003910631
 30
0.0
 40
0.125
 41
0.0
 71
     1
 72
     1
  1
VIEW OF BOTTOM HALF
  7
SLDTEXTSTYLE0
1001
ACAD
1000
MTEXTBEGIN
1070
    73
1070
     1
1070
    44
1040
1.0
1070
    74
1070
     0
1000
MTEXTEND
  0
INSERT
  5
79
330
1F
100
AcDbEntity
  8
0
  6
CONTINUOUS
 62
     7
100
AcDbBlockReference
  2
SW_NOTE_0
 10
20.58705923773068
 20
4.63987431856722
 30
0.0
  0
MTEXT
  5
7A
330
1F
100
AcDbEntity
  8
0
  6
CONTINUOUS
 62
     7
100
AcDbMText
 10
13.9182096148662
 20
1.773555386033699
 30
0.0
 40
0.125
 41
0.0
 71
     1
 72
     1
  1
END PANEL
  7
SLDTEXTSTYLE0
1001
ACAD
1000
MTEXTBEGIN
1070
    73
1070
     1
1070
    44
1040
1.0
1070
    74
1070
     0
1000
MTEXTEND
  0
INSERT
  5
84
330
1F
100
AcDbEntity
  8
0
  6
CONTINUOUS
 62
     7
100
AcDbBlockReference
  2
SW_NOTE_1
 10
17.68348763648044
 20
3.420492738240477
 30
0.0
  0
INSERT
  5
8A
330
1F
100
AcDbEntity
  8
0
  6
CONTINUOUS
 62
     7
100
AcDbBlockReference
  2
SW_NOTE_2
 10
0.60333369952084
 20
15.60171867431539
 30
0.0
  0
INSERT
  5
90
330
1F
100
AcDbEntity
  8
0
  6
CONTINUOUS
 62
     7
100
AcDbBlockReference
  2
SW_NOTE_3
 10
11.38611183856012
 20
15.59763966192093
 30
0.0
  0
INSERT
  5
96
330
1F
100
AcDbEntity
  8
0
  6
CONTINUOUS
 62
     7
100
AcDbBlockReference
  2
SW_NOTE_4
 10
21.93553751554239
 20
15.57691558996247
 30
0.0
  0
MTEXT
  5
97
330
1F
100
AcDbEntity
  8
0
  6
CONTINUOUS
 62
     7
100
AcDbMText
 10
15.91113291146688
 20
15.77343774965945
 30
0.0
 40
0.2916666666666666
 41
0.0
 71
     1
 72
     1
  1
HP-3652-B
  7
SLDTEXTSTYLE0
1001
ACAD
1000
MTEXTBEGIN
1070
    73
1070
     1
1070
    44
1040
1.0
1070
    74
1070
     0
1000
MTEXTEND
  0
MTEXT
  5
98
330
1F
100
AcDbEntity
  8
0
  6
CONTINUOUS
 62
     7
100
AcDbMText
 10
23.40832234336914
 20
15.77337372561754
 30
0.0
 40
0.2916666666666666
 41
0.0
 71
     1
 72
     1
  1
6-5-10
  7
SLDTEXTSTYLE0
1001
ACAD
1000
MTEXTBEGIN
1070
    73
1070
     1
1070
    44
1040
1.0
1070
    74
1070
     0
1000
MTEXTEND
  0
MTEXT
  5
99
330
1F
100
AcDbEntity
  8
0
  6
CONTINUOUS
 62
     7
100
AcDbMText
 10
1.765251525200667
 20
15.77544314185062
 30
0.0
 40
0.2083333333333333
 41
0.0
 71
     1
 72
     1
  1
HAND-HELD PLASTIC BOX, STYLE 2
  7
SLDTEXTSTYLE0
1001
ACAD
1000
MTEXTBEGIN
1070
    73
1070
     1
1070
    44
1040
1.0
1070
    74
1070
     0
1000
MTEXTEND
  0
LWPOLYLINE
  5
9A
330
1F
100
AcDbEntity
  8
0
  6
CONTINUOUS
 62
     7
100
AcDbPolyline
 90
        9
 70
   128
 43
0.0
 10
16.99442286587095
 20
5.878260875668753
 10
16.99672711925202
 20
5.875956622287685
 10
16.99894278698977
 20
5.873740954549934
 10
17.00098465673525
 20
5.871698938139482
 10
17.00277455605818
 20
5.869909185481525
 10
17.00424340575657
 20
5.868440335783136
 10
17.00533488648102
 20
5.867348855058681
 10
17.00600690538447
 20
5.866676689490261
 10
17.00623394276172
 20
5.866449798777989
  0
LINE
  5
9B
330
1F
100
AcDbEntity
  8
0
  6
CONTINUOUS
 62
     7
100
AcDbLine
 10
16.99442286587093
 20
9.77196157530601
 30
0.0
 11
16.99442286587095
 21
5.878260875668753
 31
0.0
  0
LWPOLYLINE
  5
9C
330
1F
100
AcDbEntity
  8
0
  6
CONTINUOUS
 62
     7
100
AcDbPolyline
 90
        9
 70
   128
 43
0.0
 10
17.00623394276169
 20
9.783772652196773
 10
17.00600690538445
 20
9.783545761484502
 10
17.005334886481
 20
9.782873595916083
 10
17.00424340575654
 20
9.781782115191624
 10
17.00277455605816
 20
9.780313265493237
 10
17.00098465673522
 20
9.778523512835278
 10
16.99894278698975
 20
9.776481496424827
 10
16.996727119252
 20
9.774265828687076
 10
16.99442286587093
 20
9.77196157530601
  0
LINE
  5
9D
330
1F
100
AcDbEntity
  8
0
  6
CONTINUOUS
 62
     7
100
AcDbLine
 10
17.00623394276169
 20
9.783772652196773
 30
0.0
 11
17.00623394276172
 21
5.866449798777989
 31
0.0
  0
LWPOLYLINE
  5
9E
330
1F
100
AcDbEntity
  8
0
  6
CONTINUOUS
 62
     7
100
AcDbPolyline
 90
       10
 70
   128
 43
0.0
 10
16.97080085875437
 20
9.783772652196773
 10
16.97098023001559
 20
9.783593134270583
 10
16.97151306386025
 20
9.783060300425923
 10
16.97238322714138
 20
9.782190283809761
 10
16.97356402683401
 20
9.781009337452156
 10
16.97501982334986
 20
9.779553540936305
 10
16.97670632386726
 20
9.777867187083876
 10
16.97857219564589
 20
9.776001168640283
 10
16.98056082600639
 20
9.774012538279777
 10
16.98261178898016
 20
9.77196157530601
  0
LINE
  5
9F
330
1F
100
AcDbEntity
  8
0
  6
CONTINUOUS
 62
     7
100
AcDbLine
 10
16.98261178898016
 20
9.77196157530601
 30
0.0
 11
16.98261178898019
 21
5.878260875668753
 31
0.0
  0
LWPOLYLINE
  5
A0
330
1F
100
AcDbEntity
  8
0
  6
CONTINUOUS
 62
     7
100
AcDbPolyline
 90
        9
 70
   128
 43
0.0
 10
16.98261178898019
 20
5.878260875668753
 10
16.98030768226409
 20
5.875956622287685
 10
16.97809201452634
 20
5.873740954549934
 10
16.97604999811589
 20
5.871698938139482
 10
16.97426024545793
 20
5.869909185481525
 10
16.97279124909457
 20
5.868440335783136
 10
16.97169991503509
 20
5.867348855058681
 10
16.97102774946667
 20
5.866676689490261
 10
16.97080085875439
 20
5.866449798777989
  0
LINE
  5
A1
330
1F
100
AcDbEntity
  8
0
  6
CONTINUOUS
 62
     7
100
AcDbLine
 10
16.97080085875439
 20
5.866449798777989
 30
0.0
 11
16.97080085875437
 21
9.783772652196773
 31
0.0
  0
LINE
  5
A2
330
1F
100
AcDbEntity
  8
0
  6
CONTINUOUS
 62
     7
100
AcDbLine
 10
16.98261178898016
 20
9.77196157530601
 30
0.0
 11
16.99442286587093
 21
9.77196157530601
 31
0.0
  0
LINE
  5
A3
330
1F
100
AcDbEntity
  8
0
  6
CONTINUOUS
 62
     7
100
AcDbLine
 10
16.99442286587095
 20
5.878260875668753
 30
0.0
 11
16.98261178898019
 21
5.878260875668753
 31
0.0
  0
LWPOLYLINE
  5
A4
330
1F
100
AcDbEntity
  8
0
  6
CONTINUOUS
 62
     7
100
AcDbPolyline
 90
        9
 70
   128
 43
0.0
 10
14.13832991303377
 20
9.77196157530599
 10
14.1360256596527
 20
9.77426582868706
 10
14.13380999191495
 20
9.776481496424809
 10
14.13176812216947
 20
9.778523512835258
 10
14.12997822284654
 20
9.780313265493219
 10
14.12850937314815
 20
9.781782115191608
 10
14.1274178924237
 20
9.782873595916063
 10
14.12674587352025
 20
9.783545761484484
 10
14.126518836143
 20
9.783772652196754
  0
LINE
  5
A5
330
1F
100
AcDbEntity
  8
0
  6
CONTINUOUS
 62
     7
100
AcDbLine
 10
14.1383299130338
 20
5.878260875668734
 30
0.0
 11
14.13832991303377
 21
9.77196157530599
 31
0.0
  0
LWPOLYLINE
  5
A6
330
1F
100
AcDbEntity
  8
0
  6
CONTINUOUS
 62
     7
100
AcDbPolyline
 90
       10
 70
   128
 43
0.0
 10
14.12651883614303
 20
5.866449798777969
 10
14.12669835406922
 20
5.866629316704162
 10
14.12723118791388
 20
5.86716215054882
 10
14.12810135119501
 20
5.868032167164979
 10
14.12928215088765
 20
5.869213113522588
 10
14.1307379474035
 20
5.870668910038435
 10
14.1324244479209
 20
5.872355263890865
 10
14.13429031969953
 20
5.87422128233446
 10
14.13627895006003
 20
5.876209912694966
 10
14.1383299130338
 20
5.878260875668734
  0
LINE
  5
A7
330
1F
100
AcDbEntity
  8
0
  6
CONTINUOUS
 62
     7
100
AcDbLine
 10
14.12651883614303
 20
5.866449798777969
 30
0.0
 11
14.126518836143
 21
9.783772652196754
 31
0.0
  0
LINE
  5
A8
330
1F
100
AcDbEntity
  8
0
  6
CONTINUOUS
 62
     7
100
AcDbLine
 10
16.97080085875437
 20
9.783772652196773
 30
0.0
 11
17.00623394276169
 21
9.783772652196773
 31
0.0
  0
LWPOLYLINE
  5
A9
330
1F
100
AcDbEntity
  8
0
  6
CONTINUOUS
 62
     7
100
AcDbPolyline
 90
        9
 70
   128
 43
0.0
 10
14.16195192015036
 20
5.866449798777969
 10
14.16172502943808
 20
5.86667668949024
 10
14.16105286386966
 20
5.86734885505866
 10
14.15996152981018
 20
5.868440335783115
 10
14.15849253344682
 20
5.869909185481504
 10
14.15670278078886
 20
5.871698938139462
 10
14.15466076437841
 20
5.873740954549914
 10
14.15244509664066
 20
5.875956622287664
 10
14.15014098992456
 20
5.878260875668734
  0
LINE
  5
AA
330
1F
100
AcDbEntity
  8
0
  6
CONTINUOUS
 62
     7
100
AcDbLine
 10
14.15014098992456
 20
5.878260875668734
 30
0.0
 11
14.15014098992454
 21
9.77196157530599
 31
0.0
  0
LWPOLYLINE
  5
AB
330
1F
100
AcDbEntity
  8
0
  6
CONTINUOUS
 62
     7
100
AcDbPolyline
 90
        9
 70
   128
 43
0.0
 10
14.15014098992454
 20
9.77196157530599
 10
14.15244509664063
 20
9.77426582868706
 10
14.15466076437838
 20
9.776481496424809
 10
14.15670278078883
 20
9.778523512835258
 10
14.15849253344679
 20
9.780313265493219
 10
14.15996152981015
 20
9.781782115191608
 10
14.16105286386964
 20
9.782873595916063
 10
14.16172502943806
 20
9.783545761484484
 10
14.16195192015033
 20
9.783772652196754
  0
LINE
  5
AC
330
1F
100
AcDbEntity
  8
0
  6
CONTINUOUS
 62
     7
100
AcDbLine
 10
14.16195192015033
 20
9.783772652196754
 30
0.0
 11
14.16195192015036
 21
5.866449798777969
 31
0.0
  0
LINE
  5
AD
330
1F
100
AcDbEntity
  8
0
  6
CONTINUOUS
 62
     7
100
AcDbLine
 10
14.15014098992456
 20
5.878260875668734
 30
0.0
 11
14.1383299130338
 21
5.878260875668734
 31
0.0
  0
LINE
  5
AE
330
1F
100
AcDbEntity
  8
0
  6
CONTINUOUS
 62
     7
100
AcDbLine
 10
14.13832991303377
 20
9.77196157530599
 30
0.0
 11
14.15014098992454
 21
9.77196157530599
 31
0.0
  0
LINE
  5
AF
330
1F
100
AcDbEntity
  8
0
  6
CONTINUOUS
 62
     7
100
AcDbLine
 10
14.126518836143
 20
9.783772652196754
 30
0.0
 11
14.16195192015033
 21
9.783772652196754
 31
0.0
  0
LINE
  5
B0
330
1F
100
AcDbEntity
  8
0
  6
CONTINUOUS
 62
     7
100
AcDbLine
 10
14.16195192015036
 20
5.866449798777969
 30
0.0
 11
14.12651883614303
 21
5.866449798777969
 31
0.0
  0
LINE
  5
B1
330
1F
100
AcDbEntity
  8
0
  6
CONTINUOUS
 62
     7
100
AcDbLine
 10
17.00623394276172
 20
5.866449798777989
 30
0.0
 11
16.97080085875439
 21
5.866449798777989
 31
0.0
  0
ARC
  5
B2
330
1F
100
AcDbEntity
  8
0
  6
CONTINUOUS
 62
     7
100
AcDbCircle
 10
16.88514011097435
 20
5.708378730869619
 30
0.0
 40
0.0075801816146526
100
AcDbArc
 50
121.0189496303583
 51
132.451496558481
  0
LINE
  5
B3
330
1F
100
AcDbEntity
  8
0
  6
CONTINUOUS
 62
     7
100
AcDbLine
 10
16.88123373344147
 20
5.714875069782191
 30
0.0
 11
16.89763806393725
 21
5.690268647371016
 31
0.0
  0
LINE
  5
B4
330
1F
100
AcDbEntity
  8
0
  6
CONTINUOUS
 62
     7
100
AcDbLine
 10
16.89747130586365
 20
5.690268647371016
 30
0.0
 11
16.89763806393725
 21
5.690268647371016
 31
0.0
  0
LINE
  5
B5
330
1F
100
AcDbEntity
  8
0
  6
CONTINUOUS
 62
     7
100
AcDbLine
 10
16.89747130586365
 20
5.690268647371016
 30
0.0
 11
16.93352404937928
 21
5.636010087503863
 31
0.0
  0
LINE
  5
B6
330
1F
100
AcDbEntity
  8
0
  6
CONTINUOUS
 62
     7
100
AcDbLine
 10
16.93352404937928
 20
5.636010087503863
 30
0.0
 11
16.91972683543254
 21
5.649807301450604
 31
0.0
  0
ARC
  5
B7
330
1F
100
AcDbEntity
  8
0
  6
CONTINUOUS
 62
     7
100
AcDbCircle
 10
16.93526528503226
 20
5.665353395691053
 30
0.0
 40
0.0219800924041708
100
AcDbArc
 50
224.6948220544604
 51
225.014090785547
  0
LINE
  5
B8
330
1F
100
AcDbEntity
  8
0
  6
CONTINUOUS
 62
     7
100
AcDbLine
 10
16.91964044976381
 20
5.649894127114254
 30
0.0
 11
16.87958404583214
 21
5.714597286324504
 31
0.0
  0
ARC
  5
B9
330
1F
100
AcDbEntity
  8
0
  6
CONTINUOUS
 62
     7
100
AcDbCircle
 10
16.8841953740812
 20
5.717369266250254
 30
0.0
 40
0.005380103739703
100
AcDbArc
 50
211.1458244229957
 51
219.1604718416369
  0
LINE
  5
BA
330
1F
100
AcDbEntity
  8
0
  6
CONTINUOUS
 62
     7
100
AcDbLine
 10
16.88123388010645
 20
5.729638805896919
 30
0.0
 11
16.88002374741933
 21
5.729638805896919
 31
0.0
  0
LINE
  5
BB
330
1F
100
AcDbEntity
  8
0
  6
CONTINUOUS
 62
     7
100
AcDbLine
 10
16.88123388010645
 20
5.729638805896919
 30
0.0
 11
16.88123388010645
 21
5.714875069782191
 31
0.0
  0
LINE
  5
BC
330
1F
100
AcDbEntity
  8
0
  6
CONTINUOUS
 62
     7
100
AcDbLine
 10
16.88002374741933
 20
5.729638805896919
 30
0.0
 11
16.88002374741933
 21
5.7139717602173
 31
0.0
  0
LINE
  5
BD
330
1F
100
AcDbEntity
  8
0
  6
CONTINUOUS
 62
     7
100
AcDbLine
 10
16.93438350611743
 20
5.804441901765172
 30
0.0
 11
16.89501334759153
 21
5.804441901765172
 31
0.0
  0
LINE
  5
BE
330
1F
100
AcDbEntity
  8
0
  6
CONTINUOUS
 62
     7
100
AcDbLine
 10
16.89501334759153
 20
5.804441901765172
 30
0.0
 11
16.89501334759153
 21
5.863496992889054
 31
0.0
  0
LINE
  5
BF
330
1F
100
AcDbEntity
  8
0
  6
CONTINUOUS
 62
     7
100
AcDbLine
 10
16.93438350611743
 20
5.863496992889054
 30
0.0
 11
16.89501334759153
 21
5.863496992889054
 31
0.0
  0
LINE
  5
C0
330
1F
100
AcDbEntity
  8
0
  6
CONTINUOUS
 62
     7
100
AcDbLine
 10
16.9343835061174
 20
9.786725458085706
 30
0.0
 11
16.93438350611743
 21
5.863496992889054
 31
0.0
  0
LINE
  5
C1
330
1F
100
AcDbEntity
  8
0
  6
CONTINUOUS
 62
     7
100
AcDbLine
 10
16.8950133475915
 20
9.786725458085706
 30
0.0
 11
16.9343835061174
 21
9.786725458085706
 31
0.0
  0
LINE
  5
C2
330
1F
100
AcDbEntity
  8
0
  6
CONTINUOUS
 62
     7
100
AcDbLine
 10
16.8950133475915
 20
9.786725458085706
 30
0.0
 11
16.8950133475915
 21
9.845780549209591
 31
0.0
  0
LINE
  5
C3
330
1F
100
AcDbEntity
  8
0
  6
CONTINUOUS
 62
     7
100
AcDbLine
 10
16.8950133475915
 20
9.845780549209591
 30
0.0
 11
16.9343835061174
 21
9.845780549209591
 31
0.0
  0
LINE
  5
C4
330
1F
100
AcDbEntity
  8
0
  6
CONTINUOUS
 62
     7
100
AcDbLine
 10
16.9343835061174
 20
9.920583645077842
 30
0.0
 11
16.9343835061174
 21
9.845780549209591
 31
0.0
  0
LINE
  5
C5
330
1F
100
AcDbEntity
  8
0
  6
CONTINUOUS
 62
     7
100
AcDbLine
 10
16.88123388010641
 20
9.920583645077842
 30
0.0
 11
16.9343835061174
 21
9.920583645077842
 31
0.0
  0
LINE
  5
C6
330
1F
100
AcDbEntity
  8
0
  6
CONTINUOUS
 62
     7
100
AcDbLine
 10
16.88123388010641
 20
9.935347381192569
 30
0.0
 11
16.88123388010641
 21
9.920583645077842
 31
0.0
  0
LINE
  5
C7
330
1F
100
AcDbEntity
  8
0
  6
CONTINUOUS
 62
     7
100
AcDbLine
 10
16.89763806393721
 20
9.959953803603744
 30
0.0
 11
16.88123373344144
 21
9.935347381192569
 31
0.0
  0
LINE
  5
C8
330
1F
100
AcDbEntity
  8
0
  6
CONTINUOUS
 62
     7
100
AcDbLine
 10
16.92749377237486
 20
9.959953803603744
 30
0.0
 11
16.89763806393721
 21
9.959953803603744
 31
0.0
  0
ARC
  5
C9
330
1F
100
AcDbEntity
  8
0
  6
CONTINUOUS
 62
     7
100
AcDbCircle
 10
16.92749371684608
 20
9.881213587692117
 30
0.0
 40
0.0787401574803148
100
AcDbArc
 50
0.0
 51
90.00000000001033
  0
ARC
  5
CA
330
1F
100
AcDbEntity
  8
0
  6
CONTINUOUS
 62
     7
100
AcDbCircle
 10
16.92749371684611
 20
5.769008863282644
 30
0.0
 40
0.0787401574803148
100
AcDbArc
 50
269.9999999999981
 51
0.0
  0
LINE
  5
CB
330
1F
100
AcDbEntity
  8
0
  6
CONTINUOUS
 62
     7
100
AcDbLine
 10
16.89763806393725
 20
5.690268647371016
 30
0.0
 11
16.92749377237489
 21
5.690268647371016
 31
0.0
  0
LINE
  5
CC
330
1F
100
AcDbEntity
  8
0
  6
CONTINUOUS
 62
     7
100
AcDbLine
 10
16.93438350611743
 20
5.729638805896919
 30
0.0
 11
16.88123388010645
 21
5.729638805896919
 31
0.0
  0
LINE
  5
CD
330
1F
100
AcDbEntity
  8
0
  6
CONTINUOUS
 62
     7
100
AcDbLine
 10
16.93438350611743
 20
5.804441901765172
 30
0.0
 11
16.93438350611743
 21
5.729638805896919
 31
0.0
  0
LINE
  5
CE
330
1F
100
AcDbEntity
  8
0
  6
CONTINUOUS
 62
     7
100
AcDbLine
 10
17.00623394276172
 20
5.866449798777989
 30
0.0
 11
17.00623394276172
 21
5.769008817757851
 31
0.0
  0
LINE
  5
CF
330
1F
100
AcDbEntity
  8
0
  6
CONTINUOUS
 62
     7
100
AcDbLine
 10
17.00623394276169
 20
9.881213633216916
 30
0.0
 11
17.00623394276169
 21
9.783772652196773
 31
0.0
  0
ARC
  5
D0
330
1F
100
AcDbEntity
  8
0
  6
CONTINUOUS
 62
     7
100
AcDbCircle
 10
16.88414517874396
 20
9.932888532204326
 30
0.0
 40
0.0053188632526411
100
AcDbArc
 50
140.7933118217584
 51
148.9003919134271
  0
LINE
  5
D1
330
1F
100
AcDbEntity
  8
0
  6
CONTINUOUS
 62
     7
100
AcDbLine
 10
16.87958404583211
 20
9.935625164650259
 30
0.0
 11
16.91964044976378
 21
10.0003283238605
 31
0.0
  0
ARC
  5
D2
330
1F
100
AcDbEntity
  8
0
  6
CONTINUOUS
 62
     7
100
AcDbCircle
 10
16.93526528481709
 20
9.984869055498107
 30
0.0
 40
0.0219800921004478
100
AcDbArc
 50
134.9859092129082
 51
135.3051779484
  0
LINE
  5
D3
330
1F
100
AcDbEntity
  8
0
  6
CONTINUOUS
 62
     7
100
AcDbLine
 10
16.91972683543251
 20
10.00041514952415
 30
0.0
 11
16.93352404937925
 21
10.01421236347089
 31
0.0
  0
LINE
  5
D4
330
1F
100
AcDbEntity
  8
0
  6
CONTINUOUS
 62
     7
100
AcDbLine
 10
16.93352404937925
 20
10.01421236347089
 30
0.0
 11
16.89747130586362
 21
9.959953803603744
 31
0.0
  0
LINE
  5
D5
330
1F
100
AcDbEntity
  8
0
  6
CONTINUOUS
 62
     7
100
AcDbLine
 10
16.89763806393721
 20
9.959953803603744
 30
0.0
 11
16.89747130586362
 21
9.959953803603744
 31
0.0
  0
ARC
  5
D6
330
1F
100
AcDbEntity
  8
0
  6
CONTINUOUS
 62
     7
100
AcDbCircle
 10
16.88517441285088
 20
9.94188968060909
 30
0.0
 40
0.0076372482567219
100
AcDbArc
 50
227.5913569593098
 51
238.9381968515582
  0
LINE
  5
D7
330
1F
100
AcDbEntity
  8
0
  6
CONTINUOUS
 62
     7
100
AcDbLine
 10
16.8800237474193
 20
9.920583645077842
 30
0.0
 11
16.88123388010641
 21
9.920583645077842
 31
0.0
  0
LINE
  5
D8
330
1F
100
AcDbEntity
  8
0
  6
CONTINUOUS
 62
     7
100
AcDbLine
 10
16.8800237474193
 20
9.936250690757459
 30
0.0
 11
16.8800237474193
 21
9.920583645077842
 31
0.0
  0
LINE
  5
D9
330
1F
100
AcDbEntity
  8
0
  6
CONTINUOUS
 62
     7
100
AcDbLine
 10
16.92082931602989
 20
9.845780549209591
 30
0.0
 11
16.92082931602989
 21
9.920583645077842
 31
0.0
  0
LINE
  5
DA
330
1F
100
AcDbEntity
  8
0
  6
CONTINUOUS
 62
     7
100
AcDbLine
 10
16.92072107728028
 20
9.786725458085706
 30
0.0
 11
16.9207210772803
 21
5.863496992889054
 31
0.0
  0
ARC
  5
DB
330
1F
100
AcDbEntity
  8
0
  6
CONTINUOUS
 62
     7
100
AcDbCircle
 10
14.20525906205864
 20
5.769008863282624
 30
0.0
 40
0.0787401574803157
100
AcDbArc
 50
180.0
 51
270.0000000000008
  0
ARC
  5
DC
330
1F
100
AcDbEntity
  8
0
  6
CONTINUOUS
 62
     7
100
AcDbCircle
 10
14.20525906205861
 20
9.881213587692098
 30
0.0
 40
0.0787401574803166
100
AcDbArc
 50
90.00000000000129
 51
180.0
  0
LINE
  5
DD
330
1F
100
AcDbEntity
  8
0
  6
CONTINUOUS
 62
     7
100
AcDbLine
 10
14.23511471496748
 20
9.959953803603726
 30
0.0
 11
14.20525900652984
 21
9.959953803603726
 31
0.0
  0
LINE
  5
DE
330
1F
100
AcDbEntity
  8
0
  6
CONTINUOUS
 62
     7
100
AcDbLine
 10
14.25151889879828
 20
9.935347381192549
 30
0.0
 11
14.23511471496748
 21
9.959953803603726
 31
0.0
  0
LINE
  5
DF
330
1F
100
AcDbEntity
  8
0
  6
CONTINUOUS
 62
     7
100
AcDbLine
 10
14.25151889879828
 20
9.920583645077822
 30
0.0
 11
14.25151889879828
 21
9.935347381192549
 31
0.0
  0
LINE
  5
E0
330
1F
100
AcDbEntity
  8
0
  6
CONTINUOUS
 62
     7
100
AcDbLine
 10
14.19836927278729
 20
9.920583645077822
 30
0.0
 11
14.25151889879828
 21
9.920583645077822
 31
0.0
  0
LINE
  5
E1
330
1F
100
AcDbEntity
  8
0
  6
CONTINUOUS
 62
     7
100
AcDbLine
 10
14.19836927278729
 20
9.845780549209569
 30
0.0
 11
14.19836927278729
 21
9.920583645077822
 31
0.0
  0
LINE
  5
E2
330
1F
100
AcDbEntity
  8
0
  6
CONTINUOUS
 62
     7
100
AcDbLine
 10
14.2377394313132
 20
9.845780549209569
 30
0.0
 11
14.2377394313132
 21
9.786725458085689
 31
0.0
  0
LINE
  5
E3
330
1F
100
AcDbEntity
  8
0
  6
CONTINUOUS
 62
     7
100
AcDbLine
 10
14.19836927278732
 20
5.863496992889033
 30
0.0
 11
14.1983692727873
 21
9.786725458085689
 31
0.0
  0
LINE
  5
E4
330
1F
100
AcDbEntity
  8
0
  6
CONTINUOUS
 62
     7
100
AcDbLine
 10
14.23773943131323
 20
5.863496992889033
 30
0.0
 11
14.19836927278732
 21
5.863496992889033
 31
0.0
  0
LINE
  5
E5
330
1F
100
AcDbEntity
  8
0
  6
CONTINUOUS
 62
     7
100
AcDbLine
 10
14.23773943131323
 20
5.863496992889033
 30
0.0
 11
14.23773943131323
 21
5.804441901765154
 31
0.0
  0
LINE
  5
E6
330
1F
100
AcDbEntity
  8
0
  6
CONTINUOUS
 62
     7
100
AcDbLine
 10
14.23773943131323
 20
5.804441901765154
 30
0.0
 11
14.19836927278732
 21
5.804441901765154
 31
0.0
  0
LINE
  5
E7
330
1F
100
AcDbEntity
  8
0
  6
CONTINUOUS
 62
     7
100
AcDbLine
 10
14.19836927278733
 20
5.729638805896899
 30
0.0
 11
14.19836927278732
 21
5.804441901765154
 31
0.0
  0
LINE
  5
E8
330
1F
100
AcDbEntity
  8
0
  6
CONTINUOUS
 62
     7
100
AcDbLine
 10
14.25151889879831
 20
5.729638805896899
 30
0.0
 11
14.19836927278733
 21
5.729638805896899
 31
0.0
  0
LINE
  5
E9
330
1F
100
AcDbEntity
  8
0
  6
CONTINUOUS
 62
     7
100
AcDbLine
 10
14.25151889879831
 20
5.714875069782173
 30
0.0
 11
14.25151889879831
 21
5.729638805896899
 31
0.0
  0
LINE
  5
EA
330
1F
100
AcDbEntity
  8
0
  6
CONTINUOUS
 62
     7
100
AcDbLine
 10
14.23511471496751
 20
5.690268647370996
 30
0.0
 11
14.25151889879831
 21
5.714875069782173
 31
0.0
  0
LINE
  5
EB
330
1F
100
AcDbEntity
  8
0
  6
CONTINUOUS
 62
     7
100
AcDbLine
 10
14.20525900652987
 20
5.690268647370996
 30
0.0
 11
14.23511471496751
 21
5.690268647370996
 31
0.0
  0
LINE
  5
EC
330
1F
100
AcDbEntity
  8
0
  6
CONTINUOUS
 62
     7
100
AcDbLine
 10
14.1983692727873
 20
9.786725458085689
 30
0.0
 11
14.2377394313132
 21
9.786725458085689
 31
0.0
  0
LINE
  5
ED
330
1F
100
AcDbEntity
  8
0
  6
CONTINUOUS
 62
     7
100
AcDbLine
 10
14.19836927278729
 20
9.845780549209569
 30
0.0
 11
14.2377394313132
 21
9.845780549209569
 31
0.0
  0
LINE
  5
EE
330
1F
100
AcDbEntity
  8
0
  6
CONTINUOUS
 62
     7
100
AcDbLine
 10
14.126518836143
 20
9.783772652196754
 30
0.0
 11
14.126518836143
 21
9.881213633216894
 31
0.0
  0
LINE
  5
EF
330
1F
100
AcDbEntity
  8
0
  6
CONTINUOUS
 62
     7
100
AcDbLine
 10
14.12651883614303
 20
5.769008817757829
 30
0.0
 11
14.12651883614303
 21
5.866449798777969
 31
0.0
  0
LINE
  5
F0
330
1F
100
AcDbEntity
  8
0
  6
CONTINUOUS
 62
     7
100
AcDbLine
 10
16.92082931602992
 20
5.729638805896919
 30
0.0
 11
16.92082931602992
 21
5.804441901765172
 31
0.0
  0
LINE
  5
F1
330
1F
100
AcDbEntity
  8
0
  6
CONTINUOUS
 62
     7
100
AcDbLine
 10
16.88570877507871
 20
9.845780549209591
 30
0.0
 11
16.88570877507871
 21
9.786725458085706
 31
0.0
  0
LINE
  5
F2
330
1F
100
AcDbEntity
  8
0
  6
CONTINUOUS
 62
     7
100
AcDbLine
 10
16.8950133475915
 20
9.786725458085706
 30
0.0
 11
16.88570877507871
 21
9.786725458085706
 31
0.0
  0
LINE
  5
F3
330
1F
100
AcDbEntity
  8
0
  6
CONTINUOUS
 62
     7
100
AcDbLine
 10
16.8950133475915
 20
9.845780549209591
 30
0.0
 11
16.88570877507871
 21
9.845780549209591
 31
0.0
  0
LINE
  5
F4
330
1F
100
AcDbEntity
  8
0
  6
CONTINUOUS
 62
     7
100
AcDbLine
 10
14.23773943131323
 20
5.863496992889033
 30
0.0
 11
14.24704400382601
 21
5.863496992889033
 31
0.0
  0
LINE
  5
F5
330
1F
100
AcDbEntity
  8
0
  6
CONTINUOUS
 62
     7
100
AcDbLine
 10
14.24704400382601
 20
5.804441901765154
 30
0.0
 11
14.24704400382601
 21
5.863496992889033
 31
0.0
  0
LINE
  5
F6
330
1F
100
AcDbEntity
  8
0
  6
CONTINUOUS
 62
     7
100
AcDbLine
 10
14.23773943131323
 20
5.804441901765154
 30
0.0
 11
14.24704400382601
 21
5.804441901765154
 31
0.0
  0
LINE
  5
F7
330
1F
100
AcDbEntity
  8
0
  6
CONTINUOUS
 62
     7
100
AcDbLine
 10
14.21192346287483
 20
5.804441901765154
 30
0.0
 11
14.21192346287483
 21
5.729638805896899
 31
0.0
  0
LINE
  5
F8
330
1F
100
AcDbEntity
  8
0
  6
CONTINUOUS
 62
     7
100
AcDbLine
 10
14.2119234628748
 20
9.920583645077822
 30
0.0
 11
14.2119234628748
 21
9.845780549209569
 31
0.0
  0
LINE
  5
F9
330
1F
100
AcDbEntity
  8
0
  6
CONTINUOUS
 62
     7
100
AcDbLine
 10
14.24704400382598
 20
9.786725458085689
 30
0.0
 11
14.24704400382598
 21
9.845780549209569
 31
0.0
  0
LINE
  5
FA
330
1F
100
AcDbEntity
  8
0
  6
CONTINUOUS
 62
     7
100
AcDbLine
 10
14.24704400382598
 20
9.786725458085689
 30
0.0
 11
14.2377394313132
 21
9.786725458085689
 31
0.0
  0
LINE
  5
FB
330
1F
100
AcDbEntity
  8
0
  6
CONTINUOUS
 62
     7
100
AcDbLine
 10
14.24704400382598
 20
9.845780549209569
 30
0.0
 11
14.2377394313132
 21
9.845780549209569
 31
0.0
  0
LINE
  5
FC
330
1F
100
AcDbEntity
  8
0
  6
CONTINUOUS
 62
     7
100
AcDbLine
 10
16.88570877507874
 20
5.863496992889054
 30
0.0
 11
16.88570877507874
 21
5.804441901765172
 31
0.0
  0
LINE
  5
FD
330
1F
100
AcDbEntity
  8
0
  6
CONTINUOUS
 62
     7
100
AcDbLine
 10
16.88570877507874
 20
5.863496992889054
 30
0.0
 11
16.89501334759153
 21
5.863496992889054
 31
0.0
  0
LINE
  5
FE
330
1F
100
AcDbEntity
  8
0
  6
CONTINUOUS
 62
     7
100
AcDbLine
 10
16.88570877507874
 20
5.804441901765172
 30
0.0
 11
16.89501334759153
 21
5.804441901765172
 31
0.0
  0
LINE
  5
FF
330
1F
100
AcDbEntity
  8
0
  6
CONTINUOUS
 62
     7
100
AcDbLine
 10
14.21203170162445
 20
5.863496992889033
 30
0.0
 11
14.21203170162442
 21
9.786725458085689
 31
0.0
  0
ARC
  5
100
330
1F
100
AcDbEntity
  8
0
  6
CONTINUOUS
 62
     7
100
AcDbCircle
 10
14.24760412449142
 20
9.941854110695992
 30
0.0
 40
0.0075936148641214
100
AcDbArc
 50
301.0332224350516
 51
312.4461430024171
  0
LINE
  5
101
330
1F
100
AcDbEntity
  8
0
  6
CONTINUOUS
 62
     7
100
AcDbLine
 10
14.25272903148539
 20
9.920583645077822
 30
0.0
 11
14.25272903148539
 21
9.936250690757439
 31
0.0
  0
LINE
  5
102
330
1F
100
AcDbEntity
  8
0
  6
CONTINUOUS
 62
     7
100
AcDbLine
 10
14.25151889879828
 20
9.920583645077822
 30
0.0
 11
14.25272903148539
 21
9.920583645077822
 31
0.0
  0
LINE
  5
103
330
1F
100
AcDbEntity
  8
0
  6
CONTINUOUS
 62
     7
100
AcDbLine
 10
14.25272903148542
 20
5.713971760217281
 30
0.0
 11
14.25272903148542
 21
5.729638805896899
 31
0.0
  0
ARC
  5
104
330
1F
100
AcDbEntity
  8
0
  6
CONTINUOUS
 62
     7
100
AcDbCircle
 10
14.247561397701
 20
5.708311100670361
 30
0.0
 40
0.0076646921292416
100
AcDbArc
 50
47.60694814008302
 51
58.91368642234538
  0
LINE
  5
105
330
1F
100
AcDbEntity
  8
0
  6
CONTINUOUS
 62
     7
100
AcDbLine
 10
14.25272903148542
 20
5.729638805896899
 30
0.0
 11
14.25151889879831
 21
5.729638805896899
 31
0.0
  0
ARC
  5
106
330
1F
100
AcDbEntity
  8
0
  6
CONTINUOUS
 62
     7
100
AcDbCircle
 10
14.24836674018415
 20
9.93271768043786
 30
0.0
 40
0.0056135325166172
100
AcDbArc
 50
31.19255537079985
 51
39.00393810213309
  0
LINE
  5
107
330
1F
100
AcDbEntity
  8
0
  6
CONTINUOUS
 62
     7
100
AcDbLine
 10
14.23528147304107
 20
9.959953803603726
 30
0.0
 11
14.19922872952544
 21
10.01421236347088
 31
0.0
  0
LINE
  5
108
330
1F
100
AcDbEntity
  8
0
  6
CONTINUOUS
 62
     7
100
AcDbLine
 10
14.19922872952544
 20
10.01421236347088
 30
0.0
 11
14.21302594347218
 21
10.00041514952414
 31
0.0
  0
ARC
  5
109
330
1F
100
AcDbEntity
  8
0
  6
CONTINUOUS
 62
     7
100
AcDbCircle
 10
14.19748749365711
 20
9.984869055069781
 30
0.0
 40
0.0219800927077052
100
AcDbArc
 50
44.69482205600399
 51
45.01409078267836
  0
LINE
  5
10A
330
1F
100
AcDbEntity
  8
0
  6
CONTINUOUS
 62
     7
100
AcDbLine
 10
14.21311232914092
 20
10.00032832386049
 30
0.0
 11
14.25316873307259
 21
9.935625164650238
 31
0.0
  0
LINE
  5
10B
330
1F
100
AcDbEntity
  8
0
  6
CONTINUOUS
 62
     7
100
AcDbLine
 10
14.23528147304107
 20
9.959953803603726
 30
0.0
 11
14.23511471496748
 21
9.959953803603726
 31
0.0
  0
ARC
  5
10C
330
1F
100
AcDbEntity
  8
0
  6
CONTINUOUS
 62
     7
100
AcDbCircle
 10
14.2484167565376
 20
5.717469620741368
 30
0.0
 40
0.0055525438738965
100
AcDbArc
 50
320.9530944590202
 51
328.850412068159
  0
LINE
  5
10D
330
1F
100
AcDbEntity
  8
0
  6
CONTINUOUS
 62
     7
100
AcDbLine
 10
14.25316873307262
 20
5.714597286324484
 30
0.0
 11
14.21311232914095
 21
5.649894127114234
 31
0.0
  0
ARC
  5
10E
330
1F
100
AcDbEntity
  8
0
  6
CONTINUOUS
 62
     7
100
AcDbCircle
 10
14.1974874938909
 20
5.665353395672316
 30
0.0
 40
0.021980092377924
100
AcDbArc
 50
314.9859092150203
 51
315.305177946485
  0
LINE
  5
10F
330
1F
100
AcDbEntity
  8
0
  6
CONTINUOUS
 62
     7
100
AcDbLine
 10
14.21302594347222
 20
5.649807301450585
 30
0.0
 11
14.19922872952547
 21
5.636010087503843
 31
0.0
  0
LINE
  5
110
330
1F
100
AcDbEntity
  8
0
  6
CONTINUOUS
 62
     7
100
AcDbLine
 10
14.19922872952547
 20
5.636010087503843
 30
0.0
 11
14.2352814730411
 21
5.690268647370996
 31
0.0
  0
LINE
  5
111
330
1F
100
AcDbEntity
  8
0
  6
CONTINUOUS
 62
     7
100
AcDbLine
 10
14.23511471496751
 20
5.690268647370996
 30
0.0
 11
14.2352814730411
 21
5.690268647370996
 31
0.0
  0
CIRCLE
  5
112
330
1F
100
AcDbEntity
  8
0
  6
CONTINUOUS
 62
     7
100
AcDbCircle
 10
16.66578583827126
 20
8.069441934148796
 30
0.0
 40
0.1068090351884718
  0
CIRCLE
  5
113
330
1F
100
AcDbEntity
  8
0
  6
CONTINUOUS
 62
     7
100
AcDbCircle
 10
16.66578583827126
 20
8.069441934148796
 30
0.0
 40
0.0590551181102352
  0
CIRCLE
  5
114
330
1F
100
AcDbEntity
  8
0
  6
CONTINUOUS
 62
     7
100
AcDbCircle
 10
16.66578583827126
 20
8.069441934148796
 30
0.0
 40
0.1102362204724407
  0
CIRCLE
  5
115
330
1F
100
AcDbEntity
  8
0
  6
CONTINUOUS
 62
     7
100
AcDbCircle
 10
14.46696694063346
 20
8.06944193414878
 30
0.0
 40
0.1068090351923772
  0
CIRCLE
  5
116
330
1F
100
AcDbEntity
  8
0
  6
CONTINUOUS
 62
     7
100
AcDbCircle
 10
14.46696694063346
 20
8.06944193414878
 30
0.0
 40
0.059055118110237
  0
CIRCLE
  5
117
330
1F
100
AcDbEntity
  8
0
  6
CONTINUOUS
 62
     7
100
AcDbCircle
 10
14.46696694063346
 20
8.06944193414878
 30
0.0
 40
0.1102362204724434
  0
LINE
  5
118
330
1F
100
AcDbEntity
  8
0
  6
CONTINUOUS
 62
     7
100
AcDbLine
 10
14.19705588795966
 20
5.636010087503843
 30
0.0
 11
14.19922872952547
 21
5.636010087503843
 31
0.0
  0
ELLIPSE
  5
119
330
1F
100
AcDbEntity
  8
0
  6
CONTINUOUS
 62
     7
100
AcDbEllipse
 10
14.1972583863577
 20
5.742410545227329
 30
0.0
 11
0.0753080429312618
 21
0.0753080429312609
 31
0.0
210
0.0
220
0.0
230
1.0
 40
0.9980991556472242
 41
2.357145816243412
 42
3.926039490936215
  0
LINE
  5
11A
330
1F
100
AcDbEntity
  8
0
  6
CONTINUOUS
 62
     7
100
AcDbLine
 10
14.09085783476863
 20
5.742208140694869
 30
0.0
 11
14.0908578347686
 21
9.908014310279853
 31
0.0
  0
ELLIPSE
  5
11B
330
1F
100
AcDbEntity
  8
0
  6
CONTINUOUS
 62
     7
100
AcDbEllipse
 10
14.19725838635767
 20
9.90781190574739
 30
0.0
 11
0.0753080429312618
 21
-0.07530804293126
 31
0.0
210
0.0
220
0.0
230
1.0
 40
0.9980991556472242
 41
2.357145816243394
 42
3.926039490936213
  0
LINE
  5
11C
330
1F
100
AcDbEntity
  8
0
  6
CONTINUOUS
 62
     7
100
AcDbLine
 10
14.19922872952544
 20
10.01421236347088
 30
0.0
 11
14.19705588795963
 21
10.01421236347088
 31
0.0
  0
LINE
  5
11D
330
1F
100
AcDbEntity
  8
0
  6
CONTINUOUS
 62
     7
100
AcDbLine
 10
16.93569689094507
 20
10.01421236347089
 30
0.0
 11
16.93352404937925
 21
10.01421236347089
 31
0.0
  0
ELLIPSE
  5
11E
330
1F
100
AcDbEntity
  8
0
  6
CONTINUOUS
 62
     7
100
AcDbEllipse
 10
16.93549439254702
 20
9.907811905747411
 30
0.0
 11
-0.0753080429312618
 21
-0.0753080429312618
 31
0.0
210
0.0
220
0.0
230
0.9999999999999998
 40
0.9980991556472119
 41
2.3571458162434
 42
3.926039490936232
  0
LINE
  5
11F
330
1F
100
AcDbEntity
  8
0
  6
CONTINUOUS
 62
     7
100
AcDbLine
 10
17.04189494413609
 20
9.90801431027987
 30
0.0
 11
17.04189494413612
 21
5.742208140694891
 31
0.0
  0
ELLIPSE
  5
120
330
1F
100
AcDbEntity
  8
0
  6
CONTINUOUS
 62
     7
100
AcDbEllipse
 10
16.93549439254705
 20
5.742410545227349
 30
0.0
 11
-0.0753080429312618
 21
0.0753080429312592
 31
0.0
210
0.0
220
0.0
230
1.0
 40
0.9980991556472298
 41
2.357145816243392
 42
3.926039490936196
  0
LINE
  5
121
330
1F
100
AcDbEntity
  8
0
  6
CONTINUOUS
 62
     7
100
AcDbLine
 10
16.93352404937928
 20
5.636010087503863
 30
0.0
 11
16.93569689094509
 21
5.636010087503863
 31
0.0
  0
CIRCLE
  5
122
330
1F
100
AcDbEntity
  8
0
  6
CONTINUOUS
 62
     7
100
AcDbCircle
 10
14.65594331858621
 20
9.006213587692089
 30
0.0
 40
0.0949105942908162
  0
CIRCLE
  5
123
330
1F
100
AcDbEntity
  8
0
  6
CONTINUOUS
 62
     7
100
AcDbCircle
 10
14.65594331009996
 20
9.006213635042811
 30
0.0
 40
0.0665354442922671
  0
CIRCLE
  5
124
330
1F
100
AcDbEntity
  8
0
  6
CONTINUOUS
 62
     7
100
AcDbCircle
 10
14.65594331858622
 20
7.825111225487364
 30
0.0
 40
0.0949105942908268
  0
CIRCLE
  5
125
330
1F
100
AcDbEntity
  8
0
  6
CONTINUOUS
 62
     7
100
AcDbCircle
 10
14.65594333471127
 20
7.825111219794277
 30
0.0
 40
0.0665354366534499
  0
CIRCLE
  5
126
330
1F
100
AcDbEntity
  8
0
  6
CONTINUOUS
 62
     7
100
AcDbCircle
 10
14.65594331858623
 20
6.250308075881065
 30
0.0
 40
0.0949105942907922
  0
CIRCLE
  5
127
330
1F
100
AcDbEntity
  8
0
  6
CONTINUOUS
 62
     7
100
AcDbCircle
 10
14.65594331009999
 20
6.25030811149862
 30
0.0
 40
0.066535444292236
  0
CIRCLE
  5
128
330
1F
100
AcDbEntity
  8
0
  6
CONTINUOUS
 62
     7
100
AcDbCircle
 10
16.4768094603185
 20
7.825111225487376
 30
0.0
 40
0.0949105942890389
  0
CIRCLE
  5
129
330
1F
100
AcDbEntity
  8
0
  6
CONTINUOUS
 62
     7
100
AcDbCircle
 10
16.47680945506425
 20
7.825111213915516
 30
0.0
 40
0.0665354425322211
  0
CIRCLE
  5
12A
330
1F
100
AcDbEntity
  8
0
  6
CONTINUOUS
 62
     7
100
AcDbCircle
 10
16.47680946031849
 20
9.006213587692101
 30
0.0
 40
0.0949105942890398
  0
CIRCLE
  5
12B
330
1F
100
AcDbEntity
  8
0
  6
CONTINUOUS
 62
     7
100
AcDbCircle
 10
16.47680927224985
 20
9.006213607775027
 30
0.0
 40
0.0665354715603639
  0
CIRCLE
  5
12C
330
1F
100
AcDbEntity
  8
0
  6
CONTINUOUS
 62
     7
100
AcDbCircle
 10
16.47680946031852
 20
6.250308075881078
 30
0.0
 40
0.0949105942890398
  0
CIRCLE
  5
12D
330
1F
100
AcDbEntity
  8
0
  6
CONTINUOUS
 62
     7
100
AcDbCircle
 10
16.47680927224987
 20
6.250308084230775
 30
0.0
 40
0.0665354715603932
  0
CIRCLE
  5
12E
330
1F
100
AcDbEntity
  8
0
  6
CONTINUOUS
 62
     7
100
AcDbCircle
 10
14.65594331858621
 20
9.006213587692089
 30
0.0
 40
0.0468503937007867
  0
CIRCLE
  5
12F
330
1F
100
AcDbEntity
  8
0
  6
CONTINUOUS
 62
     7
100
AcDbCircle
 10
14.65594331858622
 20
7.825111225487364
 30
0.0
 40
0.0468503937007876
  0
CIRCLE
  5
130
330
1F
100
AcDbEntity
  8
0
  6
CONTINUOUS
 62
     7
100
AcDbCircle
 10
14.65594331858623
 20
6.250308075881065
 30
0.0
 40
0.0468503937007876
  0
CIRCLE
  5
131
330
1F
100
AcDbEntity
  8
0
  6
CONTINUOUS
 62
     7
100
AcDbCircle
 10
16.4768094603185
 20
7.825111225487376
 30
0.0
 40
0.0468503937007876
  0
CIRCLE
  5
132
330
1F
100
AcDbEntity
  8
0
  6
CONTINUOUS
 62
     7
100
AcDbCircle
 10
16.47680946031849
 20
9.006213587692101
 30
0.0
 40
0.0468503937007867
  0
CIRCLE
  5
133
330
1F
100
AcDbEntity
  8
0
  6
CONTINUOUS
 62
     7
100
AcDbCircle
 10
16.47680946031852
 20
6.250308075881078
 30
0.0
 40
0.0468503937007876
  0
CIRCLE
  5
134
330
1F
100
AcDbEntity
  8
0
  6
CONTINUOUS
 62
     7
100
AcDbCircle
 10
16.47680946031849
 20
9.006213587692101
 30
0.0
 40
0.096456692913387
  0
CIRCLE
  5
135
330
1F
100
AcDbEntity
  8
0
  6
CONTINUOUS
 62
     7
100
AcDbCircle
 10
16.47680946031852
 20
6.250308075881078
 30
0.0
 40
0.0964566929133861
  0
CIRCLE
  5
136
330
1F
100
AcDbEntity
  8
0
  6
CONTINUOUS
 62
     7
100
AcDbCircle
 10
16.4768094603185
 20
7.825111225487376
 30
0.0
 40
0.0964566929133852
  0
CIRCLE
  5
137
330
1F
100
AcDbEntity
  8
0
  6
CONTINUOUS
 62
     7
100
AcDbCircle
 10
14.65594331858622
 20
7.825111225487364
 30
0.0
 40
0.0964566929133755
  0
CIRCLE
  5
138
330
1F
100
AcDbEntity
  8
0
  6
CONTINUOUS
 62
     7
100
AcDbCircle
 10
14.65594331858621
 20
9.006213587692089
 30
0.0
 40
0.0964566929133994
  0
CIRCLE
  5
139
330
1F
100
AcDbEntity
  8
0
  6
CONTINUOUS
 62
     7
100
AcDbCircle
 10
14.65594331858623
 20
6.250308075881065
 30
0.0
 40
0.0964566929133746
  0
ARC
  5
13A
330
1F
100
AcDbEntity
  8
0
  6
CONTINUOUS
 62
     7
100
AcDbCircle
 10
16.85939503983345
 20
5.628956839094461
 30
0.0
 40
0.0879790936115216
100
AcDbArc
 50
76.7293187078128
 51
110.7460697318346
  0
ARC
  5
13B
330
1F
100
AcDbEntity
  8
0
  6
CONTINUOUS
 62
     7
100
AcDbCircle
 10
16.81671205548904
 20
5.747768761304725
 30
0.0
 40
0.0383100289526491
100
AcDbArc
 50
270.0001345694303
 51
287.4974528517981
  0
LINE
  5
13C
330
1F
100
AcDbEntity
  8
0
  6
CONTINUOUS
 62
     7
100
AcDbLine
 10
16.81671214546703
 20
5.729638805896917
 30
0.0
 11
16.81671214546703
 21
5.709458732352183
 31
0.0
  0
LINE
  5
13D
330
1F
100
AcDbEntity
  8
0
  6
CONTINUOUS
 62
     7
100
AcDbLine
 10
16.81671214546703
 20
5.729638805896917
 30
0.0
 11
16.88002374741933
 21
5.729638805896919
 31
0.0
  0
LINE
  5
13E
330
1F
100
AcDbEntity
  8
0
  6
CONTINUOUS
 62
     7
100
AcDbLine
 10
16.816712145467
 20
9.920583645077842
 30
0.0
 11
16.816712145467
 21
9.940763718622577
 31
0.0
  0
ARC
  5
13F
330
1F
100
AcDbEntity
  8
0
  6
CONTINUOUS
 62
     7
100
AcDbCircle
 10
16.81671240280017
 20
9.90245594650287
 30
0.0
 40
0.0383077721205703
100
AcDbArc
 50
72.50202769330951
 51
90.00038488546714
  0
ARC
  5
140
330
1F
100
AcDbEntity
  8
0
  6
CONTINUOUS
 62
     7
100
AcDbCircle
 10
16.85873677298197
 20
10.0111892403204
 30
0.0
 40
0.0783785794284536
100
AcDbArc
 50
247.0941978024073
 51
285.4304137579522
  0
LINE
  5
141
330
1F
100
AcDbEntity
  8
0
  6
CONTINUOUS
 62
     7
100
AcDbLine
 10
16.816712145467
 20
9.920583645077842
 30
0.0
 11
16.8800237474193
 21
9.920583645077842
 31
0.0
  0
LINE
  5
142
330
1F
100
AcDbEntity
  8
0
  6
CONTINUOUS
 62
     7
100
AcDbLine
 10
14.31604063343773
 20
5.709458732352166
 30
0.0
 11
14.31604063343773
 21
5.729638805896899
 31
0.0
  0
ARC
  5
143
330
1F
100
AcDbEntity
  8
0
  6
CONTINUOUS
 62
     7
100
AcDbCircle
 10
14.3160322639486
 20
5.74772682261125
 30
0.0
 40
0.0382680911743169
100
AcDbArc
 50
252.4958023610161
 51
270.0125309727419
  0
ARC
  5
144
330
1F
100
AcDbEntity
  8
0
  6
CONTINUOUS
 62
     7
100
AcDbCircle
 10
14.2739976532911
 20
5.63896897671264
 30
0.0
 40
0.0784442943513575
100
AcDbArc
 50
67.10004266410814
 51
105.3981499219639
  0
LINE
  5
145
330
1F
100
AcDbEntity
  8
0
  6
CONTINUOUS
 62
     7
100
AcDbLine
 10
14.25272903148542
 20
5.729638805896899
 30
0.0
 11
14.31604063343773
 21
5.729638805896899
 31
0.0
  0
ARC
  5
146
330
1F
100
AcDbEntity
  8
0
  6
CONTINUOUS
 62
     7
100
AcDbCircle
 10
14.3160303025518
 20
9.902508377929514
 30
0.0
 40
0.0382553420879769
100
AcDbArc
 50
89.98452722847941
 51
107.5071394377724
  0
LINE
  5
147
330
1F
100
AcDbEntity
  8
0
  6
CONTINUOUS
 62
     7
100
AcDbLine
 10
14.31604063343769
 20
9.940763718622559
 30
0.0
 11
14.31604063343769
 21
9.920583645077822
 31
0.0
  0
ARC
  5
148
330
1F
100
AcDbEntity
  8
0
  6
CONTINUOUS
 62
     7
100
AcDbCircle
 10
14.27333572912298
 20
10.02135004538555
 30
0.0
 40
0.0880652488356058
100
AcDbArc
 50
256.7617591382508
 51
290.7400482756816
  0
LINE
  5
149
330
1F
100
AcDbEntity
  8
0
  6
CONTINUOUS
 62
     7
100
AcDbLine
 10
14.25272903148539
 20
9.920583645077822
 30
0.0
 11
14.31604063343769
 21
9.920583645077822
 31
0.0
  0
LINE
  5
14A
330
1F
100
AcDbEntity
  8
0
  6
CONTINUOUS
 62
     7
100
AcDbLine
 10
16.82668184362956
 20
5.80444190176517
 30
0.0
 11
16.82668184362956
 21
5.863496992889053
 31
0.0
  0
LINE
  5
14B
330
1F
100
AcDbEntity
  8
0
  6
CONTINUOUS
 62
     7
100
AcDbLine
 10
16.82668184362956
 20
5.863496992889053
 30
0.0
 11
16.88570877507874
 21
5.863496992889054
 31
0.0
  0
LINE
  5
14C
330
1F
100
AcDbEntity
  8
0
  6
CONTINUOUS
 62
     7
100
AcDbLine
 10
16.88570877507874
 20
5.804441901765172
 30
0.0
 11
16.82668184362956
 21
5.80444190176517
 31
0.0
  0
LINE
  5
14D
330
1F
100
AcDbEntity
  8
0
  6
CONTINUOUS
 62
     7
100
AcDbLine
 10
14.30607093527519
 20
5.863496992889034
 30
0.0
 11
14.30607093527519
 21
5.804441901765154
 31
0.0
  0
LINE
  5
14E
330
1F
100
AcDbEntity
  8
0
  6
CONTINUOUS
 62
     7
100
AcDbLine
 10
14.24704400382601
 20
5.863496992889033
 30
0.0
 11
14.30607093527519
 21
5.863496992889034
 31
0.0
  0
LINE
  5
14F
330
1F
100
AcDbEntity
  8
0
  6
CONTINUOUS
 62
     7
100
AcDbLine
 10
14.30607093527519
 20
5.804441901765154
 30
0.0
 11
14.24704400382601
 21
5.804441901765154
 31
0.0
  0
LINE
  5
150
330
1F
100
AcDbEntity
  8
0
  6
CONTINUOUS
 62
     7
100
AcDbLine
 10
14.30607093527517
 20
9.845780549209569
 30
0.0
 11
14.30607093527517
 21
9.78672545808569
 31
0.0
  0
LINE
  5
151
330
1F
100
AcDbEntity
  8
0
  6
CONTINUOUS
 62
     7
100
AcDbLine
 10
14.30607093527517
 20
9.78672545808569
 30
0.0
 11
14.24704400382598
 21
9.786725458085689
 31
0.0
  0
LINE
  5
152
330
1F
100
AcDbEntity
  8
0
  6
CONTINUOUS
 62
     7
100
AcDbLine
 10
14.24704400382598
 20
9.845780549209569
 30
0.0
 11
14.30607093527517
 21
9.845780549209569
 31
0.0
  0
LINE
  5
153
330
1F
100
AcDbEntity
  8
0
  6
CONTINUOUS
 62
     7
100
AcDbLine
 10
16.82668184362953
 20
9.786725458085706
 30
0.0
 11
16.82668184362953
 21
9.845780549209589
 31
0.0
  0
LINE
  5
154
330
1F
100
AcDbEntity
  8
0
  6
CONTINUOUS
 62
     7
100
AcDbLine
 10
16.88570877507871
 20
9.786725458085706
 30
0.0
 11
16.82668184362953
 21
9.786725458085706
 31
0.0
  0
LINE
  5
155
330
1F
100
AcDbEntity
  8
0
  6
CONTINUOUS
 62
     7
100
AcDbLine
 10
16.82668184362953
 20
9.845780549209589
 30
0.0
 11
16.88570877507871
 21
9.845780549209591
 31
0.0
  0
ARC
  5
156
330
1F
100
AcDbEntity
  8
0
  6
CONTINUOUS
 62
     7
100
AcDbCircle
 10
16.86523713674218
 20
4.196619067656076
 30
0.0
 40
1.455397039305604
100
AcDbArc
 50
89.37139711992506
 51
90.01183087832064
  0
LINE
  5
157
330
1F
100
AcDbEntity
  8
0
  6
CONTINUOUS
 62
     7
100
AcDbLine
 10
16.86493661504051
 20
5.652016075934651
 30
0.0
 11
16.82823106573281
 21
5.711229711893675
 31
0.0
  0
ARC
  5
158
330
1F
100
AcDbEntity
  8
0
  6
CONTINUOUS
 62
     7
100
AcDbCircle
 10
16.89068040849276
 20
5.466854542306721
 30
0.0
 40
0.1853164148070396
100
AcDbArc
 50
81.00933854686404
 51
92.93109795011213
  0
ARC
  5
159
330
1F
100
AcDbEntity
  8
0
  6
CONTINUOUS
 62
     7
100
AcDbCircle
 10
16.88944785940437
 20
10.2066547426736
 30
0.0
 40
0.2085238202528668
100
AcDbArc
 50
267.7343263405337
 51
278.3252371624839
  0
LINE
  5
15A
330
1F
100
AcDbEntity
  8
0
  6
CONTINUOUS
 62
     7
100
AcDbLine
 10
16.82823106573278
 20
9.938992739081085
 30
0.0
 11
16.86493661504048
 21
9.99820637504011
 31
0.0
  0
ARC
  5
15B
330
1F
100
AcDbEntity
  8
0
  6
CONTINUOUS
 62
     7
100
AcDbCircle
 10
16.86521254449635
 20
11.4581723918672
 30
0.0
 40
1.459966042902043
100
AcDbArc
 50
269.9891712595405
 51
270.6276007422319
  0
ARC
  5
15C
330
1F
100
AcDbEntity
  8
0
  6
CONTINUOUS
 62
     7
100
AcDbCircle
 10
14.26749859551993
 20
11.45051642919587
 30
0.0
 40
1.452310088876211
100
AcDbArc
 50
269.3707161387976
 51
270.0125285406473
  0
LINE
  5
15D
330
1F
100
AcDbEntity
  8
0
  6
CONTINUOUS
 62
     7
100
AcDbLine
 10
14.26781616386422
 20
9.998206375040091
 30
0.0
 11
14.30452171317191
 21
9.938992739081067
 31
0.0
  0
ARC
  5
15E
330
1F
100
AcDbEntity
  8
0
  6
CONTINUOUS
 62
     7
100
AcDbCircle
 10
14.24207245018625
 20
10.18337146528628
 30
0.0
 40
0.1853199401952917
100
AcDbArc
 50
261.0094860254084
 51
272.9308812337101
  0
ARC
  5
15F
330
1F
100
AcDbEntity
  8
0
  6
CONTINUOUS
 62
     7
100
AcDbCircle
 10
14.24330861874864
 20
5.443497817550927
 30
0.0
 40
0.208593510223651
100
AcDbArc
 50
87.73610057593122
 51
98.32346292708919
  0
LINE
  5
160
330
1F
100
AcDbEntity
  8
0
  6
CONTINUOUS
 62
     7
100
AcDbLine
 10
14.30452171317194
 20
5.711229711893659
 30
0.0
 11
14.26781616386425
 21
5.652016075934634
 31
0.0
  0
ARC
  5
161
330
1F
100
AcDbEntity
  8
0
  6
CONTINUOUS
 62
     7
100
AcDbCircle
 10
14.26754023440931
 20
4.192050058951627
 30
0.0
 40
1.459966043057949
100
AcDbArc
 50
89.98917125957806
 51
90.62760074220111
  0
LINE
  5
162
330
1F
100
AcDbEntity
  8
0
  6
CONTINUOUS
 62
     7
100
AcDbLine
 10
16.83222284628608
 20
5.863496992889053
 30
0.0
 11
16.83222284628606
 21
9.786725458085706
 31
0.0
  0
LINE
  5
163
330
1F
100
AcDbEntity
  8
0
  6
CONTINUOUS
 62
     7
100
AcDbLine
 10
14.30052993261864
 20
9.78672545808569
 30
0.0
 11
14.30052993261866
 21
5.863496992889034
 31
0.0
  0
LINE
  5
164
330
1F
100
AcDbEntity
  8
0
  6
CONTINUOUS
 62
     7
100
AcDbLine
 10
14.26781616386422
 20
9.998206375040091
 30
0.0
 11
16.86493661504048
 21
9.99820637504011
 31
0.0
  0
LINE
  5
165
330
1F
100
AcDbEntity
  8
0
  6
CONTINUOUS
 62
     7
100
AcDbLine
 10
14.31604063343769
 20
9.940763718622559
 30
0.0
 11
16.816712145467
 21
9.940763718622577
 31
0.0
  0
LINE
  5
166
330
1F
100
AcDbEntity
  8
0
  6
CONTINUOUS
 62
     7
100
AcDbLine
 10
16.81671214546703
 20
5.709458732352183
 30
0.0
 11
14.31604063343773
 21
5.709458732352166
 31
0.0
  0
LINE
  5
167
330
1F
100
AcDbEntity
  8
0
  6
CONTINUOUS
 62
     7
100
AcDbLine
 10
16.86493661504051
 20
5.652016075934651
 30
0.0
 11
14.26781616386425
 21
5.652016075934634
 31
0.0
  0
LINE
  5
168
330
1F
100
AcDbEntity
  8
0
  6
CONTINUOUS
 62
     7
100
AcDbLine
 10
16.816712145467
 20
9.920583645077842
 30
0.0
 11
14.31604063343769
 21
9.920583645077822
 31
0.0
  0
LINE
  5
169
330
1F
100
AcDbEntity
  8
0
  6
CONTINUOUS
 62
     7
100
AcDbLine
 10
14.31604063343773
 20
5.729638805896899
 30
0.0
 11
16.81671214546703
 21
5.729638805896917
 31
0.0
  0
LINE
  5
16A
330
1F
100
AcDbEntity
  8
0
  6
CONTINUOUS
 62
     7
100
AcDbLine
 10
14.30607093527519
 20
5.863496992889034
 30
0.0
 11
16.82668184362956
 21
5.863496992889053
 31
0.0
  0
LINE
  5
16B
330
1F
100
AcDbEntity
  8
0
  6
CONTINUOUS
 62
     7
100
AcDbLine
 10
14.30607093527519
 20
5.804441901765154
 30
0.0
 11
16.82668184362956
 21
5.80444190176517
 31
0.0
  0
LINE
  5
16C
330
1F
100
AcDbEntity
  8
0
  6
CONTINUOUS
 62
     7
100
AcDbLine
 10
16.82668184362953
 20
9.786725458085706
 30
0.0
 11
14.30607093527517
 21
9.78672545808569
 31
0.0
  0
LINE
  5
16D
330
1F
100
AcDbEntity
  8
0
  6
CONTINUOUS
 62
     7
100
AcDbLine
 10
16.82668184362953
 20
9.845780549209589
 30
0.0
 11
14.30607093527517
 21
9.845780549209569
 31
0.0
  0
CIRCLE
  5
16E
330
1F
100
AcDbEntity
  8
0
  6
CONTINUOUS
 62
     7
100
AcDbCircle
 10
15.19236064142086
 20
9.21080474304467
 30
0.0
 40
0.1181102362204722
  0
CIRCLE
  5
16F
330
1F
100
AcDbEntity
  8
0
  6
CONTINUOUS
 62
     7
100
AcDbCircle
 10
15.19236064142086
 20
9.21080474304467
 30
0.0
 40
0.0590551181102352
  0
CIRCLE
  5
170
330
1F
100
AcDbEntity
  8
0
  6
CONTINUOUS
 62
     7
100
AcDbCircle
 10
15.94039213748385
 20
9.210804743044677
 30
0.0
 40
0.1181102362204722
  0
CIRCLE
  5
171
330
1F
100
AcDbEntity
  8
0
  6
CONTINUOUS
 62
     7
100
AcDbCircle
 10
15.94039213748385
 20
9.210804743044677
 30
0.0
 40
0.059055118110237
  0
LINE
  5
172
330
1F
100
AcDbEntity
  8
0
  6
CONTINUOUS
 62
     7
100
AcDbLine
 10
14.22175998924244
 20
5.804441901765154
 30
0.0
 11
14.22175998924244
 21
5.729638805896899
 31
0.0
  0
LINE
  5
173
330
1F
100
AcDbEntity
  8
0
  6
CONTINUOUS
 62
     7
100
AcDbLine
 10
14.22175998924241
 20
9.920583645077822
 30
0.0
 11
14.22175998924241
 21
9.845780549209569
 31
0.0
  0
LINE
  5
174
330
1F
100
AcDbEntity
  8
0
  6
CONTINUOUS
 62
     7
100
AcDbLine
 10
16.91099278966228
 20
9.845780549209591
 30
0.0
 11
16.91099278966228
 21
9.920583645077842
 31
0.0
  0
LINE
  5
175
330
1F
100
AcDbEntity
  8
0
  6
CONTINUOUS
 62
     7
100
AcDbLine
 10
16.91099278966232
 20
5.729638805896919
 30
0.0
 11
16.91099278966231
 21
5.804441901765172
 31
0.0
  0
DIMENSION
  5
176
330
1F
100
AcDbEntity
  8
0
  6
CONTINUOUS
 62
     7
100
AcDbDimension
  2
*D6
 10
16.8322227741906
 20
11.00330504394892
 30
0.0
 11
15.59609544030066
 21
11.00330504394892
 31
0.0
 70
   160
  3
SLDDIMSTYLE0
100
AcDbAlignedDimension
 13
14.21203163862909
 23
9.786725398715706
 33
0.0
 14
16.8322227741906
 24
9.786725398715725
 34
0.0
 50
0.000000000000427
100
AcDbRotatedDimension
  0
INSERT
  5
18F
330
1F
100
AcDbEntity
  8
0
  6
CONTINUOUS
 62
     7
100
AcDbBlockReference
  2
SW_NOTE_5
 10
13.33586253321163
 20
10.49788641562232
 30
0.0
  0
LEADER
  5
191
330
1F
100
AcDbEntity
  8
0
  6
CONTINUOUS
 62
     7
100
AcDbLeader
  3
SLDDIMSTYLE1
 76
     2
 10
15.09171441360355
 20
9.272613842101382
 30
0.0
 10
13.33586253321163
 20
10.49788641562232
 30
0.0
1001
ACAD
1000
DSTYLE
1002
{
1070
     6
1000

1002
}
  0
INSERT
  5
199
330
1F
100
AcDbEntity
  8
0
  6
CONTINUOUS
 62
     7
100
AcDbBlockReference
  2
SW_NOTE_6
 10
13.61145821424706
 20
6.558025644095857
 30
0.0
  0
LEADER
  5
19A
330
1F
100
AcDbEntity
  8
0
  6
CONTINUOUS
 62
     7
100
AcDbLeader
  3
SLDDIMSTYLE1
 76
     2
 10
14.62795154685946
 20
7.78754235399093
 30
0.0
 10
13.61145821424706
 20
6.558025644095857
 30
0.0
1001
ACAD
1000
DSTYLE
1002
{
1070
     6
1000

1002
}
  0
CIRCLE
  5
19B
330
1F
100
AcDbEntity
  8
0
  6
CONTINUOUS
 62
     7
100
AcDbCircle
 10
22.34245471699082
 20
9.006213587692112
 30
0.0
 40
0.0629921259842483
  0
CIRCLE
  5
19C
330
1F
100
AcDbEntity
  8
0
  6
CONTINUOUS
 62
     7
100
AcDbCircle
 10
22.34245471699083
 20
7.82511122548739
 30
0.0
 40
0.0629921259842483
  0
CIRCLE
  5
19D
330
1F
100
AcDbEntity
  8
0
  6
CONTINUOUS
 62
     7
100
AcDbCircle
 10
20.52158857525856
 20
7.825111225487377
 30
0.0
 40
0.0629921259842519
  0
CIRCLE
  5
19E
330
1F
100
AcDbEntity
  8
0
  6
CONTINUOUS
 62
     7
100
AcDbCircle
 10
20.52158857525856
 20
6.250308075881077
 30
0.0
 40
0.0629921259842554
  0
CIRCLE
  5
19F
330
1F
100
AcDbEntity
  8
0
  6
CONTINUOUS
 62
     7
100
AcDbCircle
 10
20.52158857525854
 20
9.006213587692101
 30
0.0
 40
0.0629921259842519
  0
CIRCLE
  5
1A0
330
1F
100
AcDbEntity
  8
0
  6
CONTINUOUS
 62
     7
100
AcDbCircle
 10
22.34245471699084
 20
6.250308075881091
 30
0.0
 40
0.0629921259842519
  0
ARC
  5
1A1
330
1F
100
AcDbEntity
  8
0
  6
CONTINUOUS
 62
     7
100
AcDbCircle
 10
22.5312342445499
 20
8.065268705802351
 30
0.0
 40
0.1283464566929133
100
AcDbArc
 50
90.0
 51
270.0000000000008
  0
LINE
  5
1A2
330
1F
100
AcDbEntity
  8
0
  6
CONTINUOUS
 62
     7
100
AcDbLine
 10
22.53123425459351
 20
7.936922258636794
 30
0.0
 11
22.73399021900597
 21
7.936922258636798
 31
0.0
  0
LINE
  5
1A3
330
1F
100
AcDbEntity
  8
0
  6
CONTINUOUS
 62
     7
100
AcDbLine
 10
22.73399021900598
 20
5.825111214458186
 30
0.0
 11
22.73399021900597
 21
7.936922258636798
 31
0.0
  0
LINE
  5
1A4
330
1F
100
AcDbEntity
  8
0
  6
CONTINUOUS
 62
     7
100
AcDbLine
 10
20.13005307324343
 20
5.825111214458168
 30
0.0
 11
22.73399021900598
 21
5.825111214458186
 31
0.0
  0
LINE
  5
1A5
330
1F
100
AcDbEntity
  8
0
  6
CONTINUOUS
 62
     7
100
AcDbLine
 10
20.13005307324341
 20
7.936922258636776
 30
0.0
 11
20.33280903765588
 21
7.93692225863678
 31
0.0
  0
ARC
  5
1A6
330
1F
100
AcDbEntity
  8
0
  6
CONTINUOUS
 62
     7
100
AcDbCircle
 10
20.33280904769949
 20
8.065268705802337
 30
0.0
 40
0.1283464566929133
100
AcDbArc
 50
270.0000000000008
 51
90.0
  0
LINE
  5
1A7
330
1F
100
AcDbEntity
  8
0
  6
CONTINUOUS
 62
     7
100
AcDbLine
 10
20.33280903765587
 20
8.193615146631966
 30
0.0
 11
20.13005307324341
 21
8.193615146631966
 31
0.0
  0
LINE
  5
1A8
330
1F
100
AcDbEntity
  8
0
  6
CONTINUOUS
 62
     7
100
AcDbLine
 10
20.1300530732434
 20
9.827079850041654
 30
0.0
 11
20.13005307324341
 21
8.193615146631966
 31
0.0
  0
LINE
  5
1A9
330
1F
100
AcDbEntity
  8
0
  6
CONTINUOUS
 62
     7
100
AcDbLine
 10
22.73399021900595
 20
9.827079850041673
 30
0.0
 11
20.1300530732434
 21
9.827079850041654
 31
0.0
  0
LINE
  5
1AA
330
1F
100
AcDbEntity
  8
0
  6
CONTINUOUS
 62
     7
100
AcDbLine
 10
22.73399021900597
 20
8.193615146631984
 30
0.0
 11
22.5312342545935
 21
8.19361514663198
 31
0.0
  0
LINE
  5
1AB
330
1F
100
AcDbEntity
  8
0
  6
CONTINUOUS
 62
     7
100
AcDbLine
 10
20.13005307324341
 20
7.936922258636776
 30
0.0
 11
20.13005307324343
 21
5.825111214458168
 31
0.0
  0
LINE
  5
1AC
330
1F
100
AcDbEntity
  8
0
  6
CONTINUOUS
 62
     7
100
AcDbLine
 10
22.73399021900597
 20
8.193615146631984
 30
0.0
 11
22.73399021900595
 21
9.827079850041673
 31
0.0
  0
DIMENSION
  5
1AD
330
1F
100
AcDbEntity
  8
0
  6
CONTINUOUS
 62
     7
100
AcDbDimension
  2
*D9
 10
18.31902952014042
 20
9.827079729424387
 30
0.0
 11
18.31902952014042
 21
8.175881141091235
 31
0.0
 70
   160
  3
SLDDIMSTYLE2
100
AcDbAlignedDimension
 13
20.1300531421877
 23
5.825111225487375
 33
0.0
 14
20.13005314218767
 24
9.827079729424385
 34
0.0
 50
90.00000000000017
100
AcDbRotatedDimension
  0
DIMENSION
  5
1C0
330
1F
100
AcDbEntity
  8
0
  6
CONTINUOUS
 62
     7
100
AcDbDimension
  2
*D10
 10
23.36391140990423
 20
7.825111225487392
 30
0.0
 11
23.36391140990423
 21
7.200627351158822
 31
0.0
 70
   160
  3
SLDDIMSTYLE2
100
AcDbAlignedDimension
 13
22.5054468429751
 23
6.250308075881091
 33
0.0
 14
22.50544684297508
 24
7.825111225487392
 34
0.0
 50
90.00000000000017
100
AcDbRotatedDimension
  0
DIMENSION
  5
1D2
330
1F
100
AcDbEntity
  8
0
  6
CONTINUOUS
 62
     7
100
AcDbDimension
  2
*D11
 10
23.94703640990423
 20
5.825111225487394
 30
0.0
 11
23.36391140990423
 21
5.195189965644855
 31
0.0
 70
   160
  3
SLDDIMSTYLE2
100
AcDbAlignedDimension
 13
22.5054468429751
 23
6.250308075881091
 33
0.0
 14
22.73399015006171
 24
5.825111225487394
 34
0.0
 50
90.00000000000017
100
AcDbRotatedDimension
  0
DIMENSION
  5
1E5
330
1F
100
AcDbEntity
  8
0
  6
CONTINUOUS
 62
     7
100
AcDbDimension
  2
*D12
 10
22.29260713201375
 20
7.786598549548565
 30
0.0
 11
24.25643109494359
 21
8.661619150777584
 31
0.0
 70
   163
  1
<>\P6 HOLES
  3
SLDDIMSTYLE3
100
AcDbDiametricDimension
 15
22.39230230196791
 25
7.863623901426214
 35
0.0
 40
0.0
  0
DIMENSION
  5
1F7
330
1F
100
AcDbEntity
  8
0
  6
CONTINUOUS
 62
     7
100
AcDbDimension
  2
*D13
 10
20.52158857525856
 20
5.53863814455575
 30
0.0
 11
21.42616673608655
 21
5.53863814455575
 31
0.0
 70
   160
  3
SLDDIMSTYLE2
100
AcDbAlignedDimension
 13
22.34245471699084
 23
6.087315949896838
 33
0.0
 14
20.52158857525856
 24
6.087315949896826
 34
0.0
 50
0.0000000000003912
100
AcDbRotatedDimension
  0
DIMENSION
  5
209
330
1F
100
AcDbEntity
  8
0
  6
CONTINUOUS
 62
     7
100
AcDbDimension
  2
*D14
 10
22.73399015006171
 20
5.195189965644855
 30
0.0
 11
21.42616673608656
 21
5.195189965644855
 31
0.0
 70
   160
  3
SLDDIMSTYLE2
100
AcDbAlignedDimension
 13
20.1300531421877
 23
5.825111225487375
 33
0.0
 14
22.73399015006171
 24
5.825111225487394
 34
0.0
 50
0.0000000000003912
100
AcDbRotatedDimension
  0
DIMENSION
  5
21B
330
1F
100
AcDbEntity
  8
0
  6
CONTINUOUS
 62
     7
100
AcDbDimension
  2
*D15
 10
20.17449617628804
 20
8.19361516249525
 30
0.0
 11
19.60699617628804
 21
6.756524152961745
 31
0.0
 70
   160
  3
SLDDIMSTYLE4
100
AcDbAlignedDimension
 13
20.13005314218768
 23
7.936922249109423
 33
0.0
 14
20.13005314218768
 24
8.19361516249525
 34
0.0
 50
90.00000000000017
100
AcDbRotatedDimension
  0
DIMENSION
  5
22F
330
1F
100
AcDbEntity
  8
0
  6
CONTINUOUS
 62
     7
100
AcDbDimension
  2
*D16
 10
20.13005314218768
 20
8.661619150777584
 30
0.0
 11
19.347862552319
 21
8.661619150777584
 31
0.0
 70
   160
  3
SLDDIMSTYLE2
100
AcDbAlignedDimension
 13
20.46115550439241
 23
8.065268705802338
 33
0.0
 14
20.13005314218768
 24
7.936922249109423
 34
0.0
 50
0.0000000000003085
100
AcDbRotatedDimension
  0
DIMENSION
  5
241
330
1F
100
AcDbEntity
  8
0
  6
CONTINUOUS
 62
     7
100
AcDbDimension
  2
*D17
 10
20.36635235478609
 20
5.825111225487375
 30
0.0
 11
19.73635235478609
 21
4.958969493203912
 31
0.0
 70
   160
  3
SLDDIMSTYLE2
100
AcDbAlignedDimension
 13
20.13005314218768
 23
7.936922249109423
 33
0.0
 14
20.1300531421877
 24
5.825111225487375
 34
0.0
 50
90.00000000000017
100
AcDbRotatedDimension
  0
DIMENSION
  5
254
330
1F
100
AcDbEntity
  8
0
  6
CONTINUOUS
 62
     7
100
AcDbDimension
  2
*D18
 10
22.77297390990423
 20
7.825111225487392
 30
0.0
 11
23.36391140990423
 21
9.465559172446416
 31
0.0
 70
   160
  3
SLDDIMSTYLE2
100
AcDbAlignedDimension
 13
22.50544684297508
 23
9.006213587692112
 33
0.0
 14
22.50544684297508
 24
7.825111225487392
 34
0.0
 50
90.00000000000017
100
AcDbRotatedDimension
  0
INSERT
  5
272
330
1F
100
AcDbEntity
  8
0
  6
CONTINUOUS
 62
     7
100
AcDbBlockReference
  2
SW_CENTERMARKSYMBOL_0
 10
20.52158857525856
 20
6.25030807588108
 30
0.0
  0
INSERT
  5
27E
330
1F
100
AcDbEntity
  8
0
  6
CONTINUOUS
 62
     7
100
AcDbBlockReference
  2
SW_CENTERMARKSYMBOL_1
 10
20.52158857525856
 20
7.825111225487377
 30
0.0
  0
INSERT
  5
28A
330
1F
100
AcDbEntity
  8
0
  6
CONTINUOUS
 62
     7
100
AcDbBlockReference
  2
SW_CENTERMARKSYMBOL_2
 10
22.34245471699083
 20
7.825111225487392
 30
0.0
  0
INSERT
  5
296
330
1F
100
AcDbEntity
  8
0
  6
CONTINUOUS
 62
     7
100
AcDbBlockReference
  2
SW_CENTERMARKSYMBOL_3
 10
22.34245471699084
 20
6.250308075881091
 30
0.0
  0
INSERT
  5
2A2
330
1F
100
AcDbEntity
  8
0
  6
CONTINUOUS
 62
     7
100
AcDbBlockReference
  2
SW_CENTERMARKSYMBOL_4
 10
20.52158857525854
 20
9.006213587692101
 30
0.0
  0
INSERT
  5
2AE
330
1F
100
AcDbEntity
  8
0
  6
CONTINUOUS
 62
     7
100
AcDbBlockReference
  2
SW_CENTERMARKSYMBOL_5
 10
22.34245471699082
 20
9.006213587692112
 30
0.0
  0
LINE
  5
2AF
330
1F
100
AcDbEntity
  8
0
  6
CONTINUOUS
 62
     7
100
AcDbLine
 10
12.46451201054735
 20
2.381976421467133
 30
0.0
 11
12.46451201054735
 21
3.084732343170756
 31
0.0
  0
LINE
  5
2B0
330
1F
100
AcDbEntity
  8
0
  6
CONTINUOUS
 62
     7
100
AcDbLine
 10
15.13183482407327
 20
2.342606336273716
 30
0.0
 11
12.50388216907325
 21
2.342606336273716
 31
0.0
  0
ARC
  5
2B1
330
1F
100
AcDbEntity
  8
0
  6
CONTINUOUS
 62
     7
100
AcDbCircle
 10
12.50388211862051
 20
2.38197642956304
 30
0.0
 40
0.0393700787401592
100
AcDbArc
 50
180.0
 51
270.0000000000008
  0
LINE
  5
2B2
330
1F
100
AcDbEntity
  8
0
  6
CONTINUOUS
 62
     7
100
AcDbLine
 10
15.17120498259917
 20
3.084732343170756
 30
0.0
 11
15.17120498259917
 21
2.381976421467133
 31
0.0
  0
ARC
  5
2B3
330
1F
100
AcDbEntity
  8
0
  6
CONTINUOUS
 62
     7
100
AcDbCircle
 10
15.13183487452602
 20
3.08473233507485
 30
0.0
 40
0.0393700787401592
100
AcDbArc
 50
0.0
 51
90.0
  0
LINE
  5
2B4
330
1F
100
AcDbEntity
  8
0
  6
CONTINUOUS
 62
     7
100
AcDbLine
 10
12.50388216907325
 20
3.124102428364173
 30
0.0
 11
15.13183482407327
 21
3.124102428364173
 31
0.0
  0
ARC
  5
2B5
330
1F
100
AcDbEntity
  8
0
  6
CONTINUOUS
 62
     7
100
AcDbCircle
 10
12.50388211862051
 20
3.08473233507485
 30
0.0
 40
0.0393700787401592
100
AcDbArc
 50
90.0
 51
180.0
  0
ARC
  5
2B6
330
1F
100
AcDbEntity
  8
0
  6
CONTINUOUS
 62
     7
100
AcDbCircle
 10
15.13183487452602
 20
2.38197642956304
 30
0.0
 40
0.0393700787401592
100
AcDbArc
 50
270.0000000000008
 51
0.0
  0
DIMENSION
  5
2B7
330
1F
100
AcDbEntity
  8
0
  6
CONTINUOUS
 62
     7
100
AcDbDimension
  2
*D25
 10
15.17120495326618
 20
3.990244146098472
 30
0.0
 11
13.85795379683977
 21
3.990244146098472
 31
0.0
 70
   160
  1
2.74 [69.6]
  3
SLDDIMSTYLE2
100
AcDbAlignedDimension
 13
12.46451203988034
 23
3.08473233507485
 33
0.0
 14
15.17120495326618
 24
3.08473233507485
 34
0.0
100
AcDbRotatedDimension
  0
DIMENSION
  5
2C9
330
1F
100
AcDbEntity
  8
0
  6
CONTINUOUS
 62
     7
100
AcDbDimension
  2
*D26
 10
16.03734668554965
 20
2.342606350822881
 30
0.0
 11
16.03734668554965
 21
2.767379020938246
 31
0.0
 70
   160
  3
SLDDIMSTYLE2
100
AcDbAlignedDimension
 13
15.13183487452602
 23
3.124102413815008
 33
0.0
 14
15.13183487452602
 24
2.342606350822881
 34
0.0
 50
90.00000000000019
100
AcDbRotatedDimension
  0
INSERT
  5
2E0
330
1F
100
AcDbEntity
  8
0
  6
CONTINUOUS
 62
     7
100
AcDbBlockReference
  2
SW_NOTE_7
 10
12.86612372387875
 20
1.584403344478831
 30
0.0
  0
LEADER
  5
2EA
330
1F
100
AcDbEntity
  8
0
  6
CONTINUOUS
 62
     7
100
AcDbLeader
  3
SLDDIMSTYLE5
 76
     2
 10
13.42526300083076
 20
2.572109721277862
 30
0.0
 10
12.86612372387875
 20
1.584403344478831
 30
0.0
1001
ACAD
1000
DSTYLE
1002
{
1070
     6
1000
DOT
1002
}
  0
LINE
  5
2EB
330
1F
100
AcDbEntity
  8
0
  6
CONTINUOUS
 62
     7
100
AcDbLine
 10
21.41192827351214
 20
13.01295494298117
 30
0.0
 11
20.79314167093638
 21
13.29179882705662
 31
0.0
  0
LINE
  5
2EC
330
1F
100
AcDbEntity
  8
0
  6
CONTINUOUS
 62
     7
100
AcDbLine
 10
23.07786558670448
 20
13.66393930162933
 30
0.0
 11
21.41160919110171
 21
13.01283027091775
 31
0.0
  0
ARC
  5
2ED
330
1F
100
AcDbEntity
  8
0
  6
CONTINUOUS
 62
     7
100
AcDbCircle
 10
23.0972834651909
 20
13.57526641561173
 30
0.0
 40
0.1217600076191356
100
AcDbArc
 50
13.08324756358421
 51
60.11633239435793
  0
LINE
  5
2EE
330
1F
100
AcDbEntity
  8
0
  6
CONTINUOUS
 62
     7
100
AcDbLine
 10
23.25559913109096
 20
13.45729278375407
 30
0.0
 11
23.21593945519893
 21
13.60263431105232
 31
0.0
  0
LINE
  5
2EF
330
1F
100
AcDbEntity
  8
0
  6
CONTINUOUS
 62
     7
100
AcDbLine
 10
23.15798734120368
 20
13.68081995998165
 30
0.0
 11
22.53273654500953
 21
13.96257680443544
 31
0.0
  0
ARC
  5
2F0
330
1F
100
AcDbEntity
  8
0
  6
CONTINUOUS
 62
     7
100
AcDbCircle
 10
20.76095329823745
 20
13.20919303234094
 30
0.0
 40
0.0762153653370616
100
AcDbArc
 50
116.7057635065111
 51
192.8428869007191
  0
LINE
  5
2F1
330
1F
100
AcDbEntity
  8
0
  6
CONTINUOUS
 62
     7
100
AcDbLine
 10
22.48470054991853
 20
13.96424013269564
 30
0.0
 11
20.72657240552008
 21
13.27723114957218
 31
0.0
  0
LINE
  5
2F2
330
1F
100
AcDbEntity
  8
0
  6
CONTINUOUS
 62
     7
100
AcDbLine
 10
20.68658227276062
 20
13.19262131408005
 30
0.0
 11
20.70759139192908
 21
13.04568421457322
 31
0.0
  0
ARC
  5
2F3
330
1F
100
AcDbEntity
  8
0
  6
CONTINUOUS
 62
     7
100
AcDbCircle
 10
22.50674006348778
 20
13.90608417420779
 30
0.0
 40
0.0621872071334206
100
AcDbArc
 50
65.26921302720544
 51
110.641802253076
  0
ARC
  5
2F4
330
1F
100
AcDbEntity
  8
0
  6
CONTINUOUS
 62
     7
100
AcDbCircle
 10
21.45587136735371
 20
12.59963063072927
 30
0.0
 40
0.0621204713426629
100
AcDbArc
 50
245.2280362684279
 51
290.6461291317518
  0
LINE
  5
2F5
330
1F
100
AcDbEntity
  8
0
  6
CONTINUOUS
 62
     7
100
AcDbLine
 10
21.47790413274676
 20
12.54155004128159
 30
0.0
 11
23.2360322771452
 21
13.22855902440503
 31
0.0
  0
LINE
  5
2F6
330
1F
100
AcDbEntity
  8
0
  6
CONTINUOUS
 62
     7
100
AcDbLine
 10
20.80462812627844
 20
12.82496652395874
 30
0.0
 11
21.42984815890986
 21
12.54322354249306
 31
0.0
  0
LINE
  5
2F7
330
1F
100
AcDbEntity
  8
0
  6
CONTINUOUS
 62
     7
100
AcDbLine
 10
23.27602378226067
 20
13.31316939616121
 30
0.0
 11
23.25631189107079
 21
13.45103378428091
 31
0.0
  0
ARC
  5
2F8
330
1F
100
AcDbEntity
  8
0
  6
CONTINUOUS
 62
     7
100
AcDbCircle
 10
23.20166245885541
 20
13.29659190842432
 30
0.0
 40
0.0762071891428406
100
AcDbArc
 50
296.6891044466893
 51
12.84875041868341
  0
LINE
  5
2F9
330
1F
100
AcDbEntity
  8
0
  6
CONTINUOUS
 62
     7
100
AcDbLine
 10
20.70945644542983
 20
13.03952109124699
 30
0.0
 11
20.74666659982236
 21
12.90315639918895
 31
0.0
  0
ARC
  5
2FA
330
1F
100
AcDbEntity
  8
0
  6
CONTINUOUS
 62
     7
100
AcDbCircle
 10
20.86530636754792
 20
12.93051373504779
 30
0.0
 40
0.1217418304632487
100
AcDbArc
 50
193.0804735897124
 51
240.1245303217537
  0
LINE
  5
2FB
330
1F
100
AcDbEntity
  8
0
  6
CONTINUOUS
 62
     7
100
AcDbLine
 10
21.33463938590224
 20
12.92885062649149
 30
0.0
 11
21.33262620290421
 21
12.92993305566941
 31
0.0
  0
ARC
  5
2FC
330
1F
100
AcDbEntity
  8
0
  6
CONTINUOUS
 62
     7
100
AcDbCircle
 10
21.39186258917353
 20
12.93914504885526
 30
0.0
 40
0.0599483967817764
100
AcDbArc
 50
113.3320013826881
 51
188.8394008881555
  0
ARC
  5
2FD
330
1F
100
AcDbEntity
  8
0
  6
CONTINUOUS
 62
     7
100
AcDbCircle
 10
21.27791900150698
 20
12.87070406912938
 30
0.0
 40
0.1529222073163794
100
AcDbArc
 50
7.628792679160626
 51
53.85393417053464
  0
ARC
  5
2FE
330
1F
100
AcDbEntity
  8
0
  6
CONTINUOUS
 62
     7
100
AcDbCircle
 10
21.38356939485949
 20
13.01210803737393
 30
0.0
 40
0.1295159915572186
100
AcDbArc
 50
258.7475264614967
 51
290.7651092588811
  0
LINE
  5
2FF
330
1F
100
AcDbEntity
  8
0
  6
CONTINUOUS
 62
     7
100
AcDbLine
 10
21.3582965944353
 20
12.88508175022136
 30
0.0
 11
21.35615095892024
 21
12.89401731056488
 31
0.0
  0
LINE
  5
300
330
1F
100
AcDbEntity
  8
0
  6
CONTINUOUS
 62
     7
100
AcDbLine
 10
21.35533042740584
 20
12.89849867724699
 30
0.0
 11
21.35615095892024
 21
12.89401731056488
 31
0.0
  0
ARC
  5
301
330
1F
100
AcDbEntity
  8
0
  6
CONTINUOUS
 62
     7
100
AcDbCircle
 10
21.31441998823937
 20
12.89360603614991
 30
0.0
 40
0.0412019656047842
100
AcDbArc
 50
6.819837732189641
 51
54.73861245337782
  0
LINE
  5
302
330
1F
100
AcDbEntity
  8
0
  6
CONTINUOUS
 62
     7
100
AcDbLine
 10
21.33463938590224
 20
12.92885062649149
 30
0.0
 11
21.3382061914331
 21
12.9272485465694
 31
0.0
  0
LINE
  5
303
330
1F
100
AcDbEntity
  8
0
  6
CONTINUOUS
 62
     7
100
AcDbLine
 10
23.12601112197616
 20
13.68110773503352
 30
0.0
 11
21.36811952184872
 21
12.99419118433009
 31
0.0
  0
ARC
  5
304
330
1F
100
AcDbEntity
  8
0
  6
CONTINUOUS
 62
     7
100
AcDbCircle
 10
23.02979815671144
 20
13.54931036581701
 30
0.0
 40
0.1631792916317009
100
AcDbArc
 50
10.49803806980069
 51
53.87030466505079
  0
LINE
  5
305
330
1F
100
AcDbEntity
  8
0
  6
CONTINUOUS
 62
     7
100
AcDbLine
 10
21.42948768713057
 20
12.89100517818408
 30
0.0
 11
23.19024601418782
 21
13.57904193571611
 31
0.0
  0
LINE
  5
306
330
1F
100
AcDbEntity
  8
0
  6
CONTINUOUS
 62
     7
100
AcDbLine
 10
21.42948768713057
 20
12.89100517818408
 30
0.0
 11
21.45717918138986
 21
12.74174519376082
 31
0.0
  0
ELLIPSE
  5
307
330
1F
100
AcDbEntity
  8
0
  6
CONTINUOUS
 62
     7
100
AcDbEllipse
 10
21.43119290683226
 20
12.7535278209727
 30
0.0
 11
0.0520458484990911
 21
0.0108294810540137
 31
0.0
210
0.0
220
0.0
230
1.0
 40
0.3512847318306819
 41
3.591783688292121
 42
5.160677362984684
  0
LINE
  5
308
330
1F
100
AcDbEntity
  8
0
  6
CONTINUOUS
 62
     7
100
AcDbLine
 10
21.3582965944353
 20
12.88508175022136
 30
0.0
 11
21.38598808869458
 21
12.73582176579809
 31
0.0
  0
LINE
  5
309
330
1F
100
AcDbEntity
  8
0
  6
CONTINUOUS
 62
     7
100
AcDbLine
 10
23.22971868569085
 20
13.43438558307251
 30
0.0
 11
23.19024601418782
 21
13.57904193571611
 31
0.0
  0
LINE
  5
30A
330
1F
100
AcDbEntity
  8
0
  6
CONTINUOUS
 62
     7
100
AcDbLine
 10
21.45717918138986
 20
12.74174519376082
 30
0.0
 11
23.22971868569085
 21
13.43438558307251
 31
0.0
  0
LINE
  5
30B
330
1F
100
AcDbEntity
  8
0
  6
CONTINUOUS
 62
     7
100
AcDbLine
 10
21.38598808869458
 20
12.73582176579809
 30
0.0
 11
21.38545565623918
 21
12.73606169590204
 31
0.0
  0
LINE
  5
30C
330
1F
100
AcDbEntity
  8
0
  6
CONTINUOUS
 62
     7
100
AcDbLine
 10
21.35615095892024
 20
12.89401731056488
 30
0.0
 11
21.38545565623918
 21
12.73606169590204
 31
0.0
  0
LINE
  5
30D
330
1F
100
AcDbEntity
  8
0
  6
CONTINUOUS
 62
     7
100
AcDbLine
 10
21.36811952184872
 20
12.99419118433009
 30
0.0
 11
20.74292608388601
 21
13.27592218143688
 31
0.0
  0
LINE
  5
30E
330
1F
100
AcDbEntity
  8
0
  6
CONTINUOUS
 62
     7
100
AcDbLine
 10
20.7074327649415
 20
13.21166405277619
 30
0.0
 11
21.33262620290421
 21
12.92993305566941
 31
0.0
  0
ARC
  5
30F
330
1F
100
AcDbEntity
  8
0
  6
CONTINUOUS
 62
     7
100
AcDbCircle
 10
20.76666915121082
 20
13.22087604596204
 30
0.0
 40
0.0599483967817793
100
AcDbArc
 50
113.3320013826899
 51
188.8394008881517
  0
LINE
  5
310
330
1F
100
AcDbEntity
  8
0
  6
CONTINUOUS
 62
     7
100
AcDbLine
 10
20.70548183287399
 20
13.21236797326584
 30
0.0
 11
20.7074327649415
 21
13.21166405277619
 31
0.0
  0
LINE
  5
311
330
1F
100
AcDbEntity
  8
0
  6
CONTINUOUS
 62
     7
100
AcDbLine
 10
20.70548183287399
 20
13.21236797326584
 30
0.0
 11
21.33463938590224
 21
12.92885062649149
 31
0.0
  0
LINE
  5
312
330
1F
100
AcDbEntity
  8
0
  6
CONTINUOUS
 62
     7
100
AcDbLine
 10
22.50081768401346
 20
13.96283873214032
 30
0.0
 11
23.12601112197616
 21
13.68110773503352
 31
0.0
  0
LINE
  5
313
330
1F
100
AcDbEntity
  8
0
  6
CONTINUOUS
 62
     7
100
AcDbLine
 10
20.74292608388601
 20
13.27592218143688
 30
0.0
 11
22.50081768401346
 21
13.96283873214032
 31
0.0
  0
LINE
  5
314
330
1F
100
AcDbEntity
  8
0
  6
CONTINUOUS
 62
     7
100
AcDbLine
 10
20.78860939711321
 20
13.29253368547145
 30
0.0
 11
21.41085585827246
 21
13.01213068489001
 31
0.0
  0
LINE
  5
315
330
1F
100
AcDbEntity
  8
0
  6
CONTINUOUS
 62
     7
100
AcDbLine
 10
21.41085585827246
 20
13.01213068489001
 30
0.0
 11
23.08032780874896
 21
13.66449623099896
 31
0.0
  0
LINE
  5
316
330
1F
100
AcDbEntity
  8
0
  6
CONTINUOUS
 62
     7
100
AcDbLine
 10
23.08032780874896
 20
13.66449623099896
 30
0.0
 11
22.45808134758971
 21
13.94489923158039
 31
0.0
  0
LINE
  5
317
330
1F
100
AcDbEntity
  8
0
  6
CONTINUOUS
 62
     7
100
AcDbLine
 10
22.45808134758971
 20
13.94489923158039
 30
0.0
 11
20.78860939711321
 21
13.29253368547145
 31
0.0
  0
ELLIPSE
  5
318
330
1F
100
AcDbEntity
  8
0
  6
CONTINUOUS
 62
     7
100
AcDbEllipse
 10
20.78954604046012
 20
13.28802128286201
 30
0.0
 11
0.0066632017430486
 21
-0.0001694845888167
 31
0.0
210
0.0
220
0.0
230
1.0
 40
0.6817299246703264
 41
1.01823783226953
 42
1.729157167341498
  0
ELLIPSE
  5
319
330
1F
100
AcDbEntity
  8
0
  6
CONTINUOUS
 62
     7
100
AcDbEllipse
 10
21.41179253439549
 20
13.00761826751066
 30
0.0
 11
0.0001340449103786
 21
0.0052699085309786
 31
0.0
210
0.0
220
0.0
230
1.0
 40
0.3798935591134425
 41
0.1583608405455874
 42
0.5525584945246616
  0
ELLIPSE
  5
31A
330
1F
100
AcDbEntity
  8
0
  6
CONTINUOUS
 62
     7
100
AcDbEllipse
 10
23.08126454495625
 20
13.65998383709823
 30
0.0
 11
0.0066632017430486
 21
-0.0001694845888185
 31
0.0
210
0.0
220
0.0
230
0.9999999999999998
 40
0.6817299246703222
 41
1.729157167341738
 42
2.12335482132073
  0
LINE
  5
31B
330
1F
100
AcDbEntity
  8
0
  6
CONTINUOUS
 62
     7
100
AcDbLine
 10
20.80996927498478
 20
13.28421580381971
 30
0.0
 11
22.45911700734175
 21
13.92863942574776
 31
0.0
  0
LINE
  5
31C
330
1F
100
AcDbEntity
  8
0
  6
CONTINUOUS
 62
     7
100
AcDbLine
 10
22.45911700734175
 20
13.92863942574776
 30
0.0
 11
23.06107599501298
 21
13.65737857188045
 31
0.0
  0
ELLIPSE
  5
31D
330
1F
100
AcDbEntity
  8
0
  6
CONTINUOUS
 62
     7
100
AcDbEllipse
 10
23.20356024604282
 20
13.44610093477658
 30
0.0
 11
0.0521337129219752
 21
0.0107963140362362
 31
0.0
210
0.0
220
0.0
230
1.0
 40
0.3502391859891268
 41
5.164094588794228
 42
6.304989391840956
  0
ELLIPSE
  5
31E
330
1F
100
AcDbEntity
  8
0
  6
CONTINUOUS
 62
     7
100
AcDbEllipse
 10
22.45901805102087
 20
13.94038685244956
 30
0.0
 11
0.0001340449103751
 21
0.0052699085309804
 31
0.0
210
0.0
220
0.0
230
0.9999999999999998
 40
0.3798935591126475
 41
0.5525584945254272
 42
2.123354821318728
  0
LINE
  5
31F
330
1F
100
AcDbEntity
  8
0
  6
CONTINUOUS
 62
     7
100
AcDbLine
 10
22.45911700734175
 20
13.92863942574776
 30
0.0
 11
22.45724363014919
 21
13.93766421088095
 31
0.0
  0
LINE
  5
320
330
1F
100
AcDbEntity
  8
0
  6
CONTINUOUS
 62
     7
100
AcDbLine
 10
20.69290177194484
 20
13.19289737460676
 30
0.0
 11
20.69358714451503
 21
13.18461985273661
 31
0.0
  0
LWPOLYLINE
  5
321
330
1F
100
AcDbEntity
  8
0
  6
CONTINUOUS
 62
     7
100
AcDbPolyline
 90
        6
 70
   128
 43
0.0
 10
20.69229493218743
 20
13.19728244534569
 10
20.69198874800907
 20
13.20461524489684
 10
20.69312929623485
 20
13.21037089325561
 10
20.69544368647068
 20
13.21376191419822
 10
20.69878002327105
 20
13.21480381649847
 10
20.70194685906284
 20
13.21396615381892
  0
LINE
  5
322
330
1F
100
AcDbEntity
  8
0
  6
CONTINUOUS
 62
     7
100
AcDbLine
 10
20.69290177194484
 20
13.19289737460676
 30
0.0
 11
20.69229493218743
 21
13.19728244534569
 31
0.0
  0
LINE
  5
323
330
1F
100
AcDbEntity
  8
0
  6
CONTINUOUS
 62
     7
100
AcDbLine
 10
20.70548183287399
 20
13.21236797326584
 30
0.0
 11
20.70194685906284
 21
13.21396615381892
 31
0.0
  0
LWPOLYLINE
  5
324
330
1F
100
AcDbEntity
  8
0
  6
CONTINUOUS
 62
     7
100
AcDbPolyline
 90
        3
 70
   128
 43
0.0
 10
20.73218029632185
 20
13.18904986306232
 10
20.73267628327752
 20
13.19754675497296
 10
20.73319910285202
 20
13.19987769840961
  0
LINE
  5
325
330
1F
100
AcDbEntity
  8
0
  6
CONTINUOUS
 62
     7
100
AcDbLine
 10
20.69229483386887
 20
13.19728243716514
 30
0.0
 11
20.73218258219762
 21
13.18904980905343
 31
0.0
  0
LINE
  5
326
330
1F
100
AcDbEntity
  8
0
  6
CONTINUOUS
 62
     7
100
AcDbLine
 10
20.73927485130311
 20
13.18817948234181
 30
0.0
 11
20.73251537419213
 21
13.18553813818766
 31
0.0
  0
LINE
  5
327
330
1F
100
AcDbEntity
  8
0
  6
CONTINUOUS
 62
     7
100
AcDbLine
 10
20.73218029632185
 20
13.18904986306232
 30
0.0
 11
20.73251537419213
 21
13.18553813818766
 31
0.0
  0
LWPOLYLINE
  5
328
330
1F
100
AcDbEntity
  8
0
  6
CONTINUOUS
 62
     7
100
AcDbPolyline
 90
        3
 70
   128
 43
0.0
 10
20.73830959065489
 20
13.19757478501783
 10
20.73823152393426
 20
13.1954731604819
 10
20.73927485130311
 20
13.18817948234181
  0
LWPOLYLINE
  5
329
330
1F
100
AcDbEntity
  8
0
  6
CONTINUOUS
 62
     7
100
AcDbPolyline
 90
        3
 70
   128
 43
0.0
 10
20.73251537419213
 20
13.18553813818766
 10
20.74347128980551
 20
13.13358059938986
 10
20.76195585180181
 20
13.04555986137883
  0
LINE
  5
32A
330
1F
100
AcDbEntity
  8
0
  6
CONTINUOUS
 62
     7
100
AcDbLine
 10
20.76195585180181
 20
13.04555986137883
 30
0.0
 11
20.71502353675402
 21
13.03817860571874
 31
0.0
  0
LINE
  5
32B
330
1F
100
AcDbEntity
  8
0
  6
CONTINUOUS
 62
     7
100
AcDbLine
 10
20.71502353675402
 20
13.03817860571874
 30
0.0
 11
20.69290177194484
 21
13.19289737460676
 31
0.0
  0
LINE
  5
32C
330
1F
100
AcDbEntity
  8
0
  6
CONTINUOUS
 62
     7
100
AcDbLine
 10
20.71502353675402
 20
13.03817860571874
 30
0.0
 11
20.71449110429862
 21
13.03841853582268
 31
0.0
  0
LINE
  5
32D
330
1F
100
AcDbEntity
  8
0
  6
CONTINUOUS
 62
     7
100
AcDbLine
 10
20.71449110429862
 20
13.03841853582268
 30
0.0
 11
20.69358714451503
 21
13.18461985273661
 31
0.0
  0
ELLIPSE
  5
32E
330
1F
100
AcDbEntity
  8
0
  6
CONTINUOUS
 62
     7
100
AcDbEllipse
 10
20.75979515751617
 20
13.05607987268083
 30
0.0
 11
0.0521337129219717
 21
0.0107963140362362
 31
0.0
210
0.0
220
0.0
230
1.0
 40
0.3502391859891498
 41
3.119788568928578
 42
3.591395609897257
  0
LINE
  5
32F
330
1F
100
AcDbEntity
  8
0
  6
CONTINUOUS
 62
     7
100
AcDbLine
 10
20.73927485130311
 20
13.18817948234181
 30
0.0
 11
20.76773538882989
 21
13.05043262886053
 31
0.0
  0
ELLIPSE
  5
330
330
1F
100
AcDbEntity
  8
0
  6
CONTINUOUS
 62
     7
100
AcDbEllipse
 10
23.2041081182797
 20
13.44063812591719
 30
0.0
 11
0.0521337129219717
 21
0.0107963140362362
 31
0.0
210
0.0
220
0.0
230
1.0
 40
0.3502391859891824
 41
5.164094588794281
 42
6.39360329965833
  0
LINE
  5
331
330
1F
100
AcDbEntity
  8
0
  6
CONTINUOUS
 62
     7
100
AcDbLine
 10
23.23026656516959
 20
13.42892277428685
 30
0.0
 11
21.45845815233907
 21
12.73656806745474
 31
0.0
  0
ELLIPSE
  5
332
330
1F
100
AcDbEntity
  8
0
  6
CONTINUOUS
 62
     7
100
AcDbEllipse
 10
21.4324718795921
 20
12.74835069813025
 30
0.0
 11
0.0520458484990947
 21
0.0108294810540155
 31
0.0
210
0.0
220
0.0
230
1.0
 40
0.3512847318307028
 41
3.591783688292116
 42
5.160677362984777
  0
LINE
  5
333
330
1F
100
AcDbEntity
  8
0
  6
CONTINUOUS
 62
     7
100
AcDbLine
 10
21.38673462718839
 20
12.73088456959596
 30
0.0
 11
21.38726705964379
 21
12.73064463949202
 31
0.0
  0
LINE
  5
334
330
1F
100
AcDbEntity
  8
0
  6
CONTINUOUS
 62
     7
100
AcDbLine
 10
21.39042765893182
 20
12.73425497972499
 30
0.0
 11
21.38673462718839
 21
12.73088456959596
 31
0.0
  0
LINE
  5
335
330
1F
100
AcDbEntity
  8
0
  6
CONTINUOUS
 62
     7
100
AcDbLine
 10
21.38726705964379
 20
12.73064463949202
 30
0.0
 11
21.41792387373264
 21
12.59783400007524
 31
0.0
  0
LINE
  5
336
330
1F
100
AcDbEntity
  8
0
  6
CONTINUOUS
 62
     7
100
AcDbLine
 10
21.45845815233907
 20
12.73656806745474
 30
0.0
 11
21.4891149664279
 21
12.60375742803796
 31
0.0
  0
ARC
  5
337
330
1F
100
AcDbEntity
  8
0
  6
CONTINUOUS
 62
     7
100
AcDbCircle
 10
21.44607306192863
 20
12.69029023931333
 30
0.0
 40
0.096646432785406
100
AcDbArc
 50
253.0666266645365
 51
296.4460090558403
  0
LINE
  5
338
330
1F
100
AcDbEntity
  8
0
  6
CONTINUOUS
 62
     7
100
AcDbLine
 10
23.24987329348515
 20
13.29179418557002
 30
0.0
 11
23.23026656516959
 21
13.42892277428685
 31
0.0
  0
LINE
  5
339
330
1F
100
AcDbEntity
  8
0
  6
CONTINUOUS
 62
     7
100
AcDbLine
 10
23.24987329348515
 20
13.29179418557002
 30
0.0
 11
21.4891149664279
 21
12.60375742803796
 31
0.0
  0
LINE
  5
33A
330
1F
100
AcDbEntity
  8
0
  6
CONTINUOUS
 62
     7
100
AcDbLine
 10
21.41929567382342
 20
12.58982470772775
 30
0.0
 11
21.41792387373264
 21
12.59783400007524
 31
0.0
  0
LINE
  5
33B
330
1F
100
AcDbEntity
  8
0
  6
CONTINUOUS
 62
     7
100
AcDbLine
 10
21.38673462718839
 20
12.73088456959596
 30
0.0
 11
21.41929567382342
 21
12.58982470772775
 31
0.0
  0
LWPOLYLINE
  5
33C
330
1F
100
AcDbEntity
  8
0
  6
CONTINUOUS
 62
     7
100
AcDbPolyline
 90
        3
 70
   128
 43
0.0
 10
21.41466534685337
 20
12.57167709545715
 10
21.41114634127601
 20
12.5708378034375
 10
21.4069451049956
 20
12.57191005561556
  0
LINE
  5
33D
330
1F
100
AcDbEntity
  8
0
  6
CONTINUOUS
 62
     7
100
AcDbLine
 10
21.4153825134857
 20
12.57215553531175
 30
0.0
 11
21.41466534685337
 21
12.57167709545715
 31
0.0
  0
LWPOLYLINE
  5
33E
330
1F
100
AcDbEntity
  8
0
  6
CONTINUOUS
 62
     7
100
AcDbPolyline
 90
        5
 70
   128
 43
0.0
 10
21.41538227105586
 20
12.57215606443533
 10
21.41854891842766
 20
12.57354163174557
 10
21.42033852629802
 20
12.57756044050728
 10
21.42044677741787
 20
12.58339438158085
 10
21.41949835688448
 20
12.58894820056148
  0
LINE
  5
33F
330
1F
100
AcDbEntity
  8
0
  6
CONTINUOUS
 62
     7
100
AcDbLine
 10
21.41929567382342
 20
12.58982470772775
 30
0.0
 11
21.41949835688448
 21
12.58894820056148
 31
0.0
  0
LINE
  5
340
330
1F
100
AcDbEntity
  8
0
  6
CONTINUOUS
 62
     7
100
AcDbLine
 10
21.41162403085345
 20
12.5730476040664
 30
0.0
 11
21.41538227105586
 21
12.57215606443533
 31
0.0
  0
LINE
  5
341
330
1F
100
AcDbEntity
  8
0
  6
CONTINUOUS
 62
     7
100
AcDbLine
 10
20.77101209117814
 20
12.86252825927125
 30
0.0
 11
20.77218508671655
 21
12.86119805540135
 31
0.0
  0
LINE
  5
342
330
1F
100
AcDbEntity
  8
0
  6
CONTINUOUS
 62
     7
100
AcDbLine
 10
20.77101189793219
 20
12.8625296500075
 30
0.0
 11
20.77522640271646
 21
12.85982754679211
 31
0.0
  0
LINE
  5
343
330
1F
100
AcDbEntity
  8
0
  6
CONTINUOUS
 62
     7
100
AcDbLine
 10
21.41162403085345
 20
12.5730476040664
 30
0.0
 11
20.77522640271646
 21
12.85982754679211
 31
0.0
  0
LINE
  5
344
330
1F
100
AcDbEntity
  8
0
  6
CONTINUOUS
 62
     7
100
AcDbLine
 10
21.4069451049956
 20
12.57191005561556
 30
0.0
 11
20.78175166703289
 21
12.85364105272233
 31
0.0
  0
LWPOLYLINE
  5
345
330
1F
100
AcDbEntity
  8
0
  6
CONTINUOUS
 62
     7
100
AcDbPolyline
 90
        3
 70
   128
 43
0.0
 10
20.77218508671655
 20
12.86119805540135
 10
20.77708336566471
 20
12.85656568140369
 10
20.78175166703289
 20
12.85364105272233
  0
LINE
  5
346
330
1F
100
AcDbEntity
  8
0
  6
CONTINUOUS
 62
     7
100
AcDbLine
 10
20.80665709774485
 20
12.87885618385816
 30
0.0
 11
20.77522640271646
 21
12.85982754679211
 31
0.0
  0
LINE
  5
347
330
1F
100
AcDbEntity
  8
0
  6
CONTINUOUS
 62
     7
100
AcDbLine
 10
20.80880865142107
 20
12.87689392703065
 30
0.0
 11
20.80665785091021
 21
12.87885675702919
 31
0.0
  0
LINE
  5
348
330
1F
100
AcDbEntity
  8
0
  6
CONTINUOUS
 62
     7
100
AcDbLine
 10
21.41621296938902
 20
12.60317924329098
 30
0.0
 11
20.80880865142107
 21
12.87689392703065
 31
0.0
  0
LINE
  5
349
330
1F
100
AcDbEntity
  8
0
  6
CONTINUOUS
 62
     7
100
AcDbLine
 10
20.81739167776041
 20
12.88024784421597
 30
0.0
 11
20.80880865142107
 21
12.87689392703065
 31
0.0
  0
LINE
  5
34A
330
1F
100
AcDbEntity
  8
0
  6
CONTINUOUS
 62
     7
100
AcDbLine
 10
20.81739167776041
 20
12.88024784421597
 30
0.0
 11
21.41435250292614
 21
12.61123931294334
 31
0.0
  0
LINE
  5
34B
330
1F
100
AcDbEntity
  8
0
  6
CONTINUOUS
 62
     7
100
AcDbLine
 10
20.7895059278285
 20
12.91213437103326
 30
0.0
 11
20.79057706582065
 21
12.90879946935398
 31
0.0
  0
LINE
  5
34C
330
1F
100
AcDbEntity
  8
0
  6
CONTINUOUS
 62
     7
100
AcDbLine
 10
20.79058302149007
 20
12.90880171411971
 30
0.0
 11
20.75629150574657
 21
12.8878091867996
 31
0.0
  0
LINE
  5
34D
330
1F
100
AcDbEntity
  8
0
  6
CONTINUOUS
 62
     7
100
AcDbLine
 10
20.75629150574657
 20
12.8878091867996
 30
0.0
 11
20.75604648684801
 21
12.88870477176961
 31
0.0
  0
LINE
  5
34E
330
1F
100
AcDbEntity
  8
0
  6
CONTINUOUS
 62
     7
100
AcDbLine
 10
20.75604648684801
 20
12.88870477176961
 30
0.0
 11
20.71672370975369
 21
13.03281167308002
 31
0.0
  0
LINE
  5
34F
330
1F
100
AcDbEntity
  8
0
  6
CONTINUOUS
 62
     7
100
AcDbLine
 10
20.71672370975369
 20
13.03281167308002
 30
0.0
 11
20.74863541477457
 21
13.03784839017587
 31
0.0
  0
LINE
  5
350
330
1F
100
AcDbEntity
  8
0
  6
CONTINUOUS
 62
     7
100
AcDbLine
 10
20.74707467176076
 20
13.04522145870159
 30
0.0
 11
20.74863541477457
 21
13.03784839017587
 31
0.0
  0
LWPOLYLINE
  5
351
330
1F
100
AcDbEntity
  8
0
  6
CONTINUOUS
 62
     7
100
AcDbPolyline
 90
        3
 70
   128
 43
0.0
 10
20.76145311719261
 20
13.04797775899517
 10
20.77199953111346
 20
12.99700199087272
 10
20.7895059278285
 20
12.91213437103326
  0
LINE
  5
352
330
1F
100
AcDbEntity
  8
0
  6
CONTINUOUS
 62
     7
100
AcDbLine
 10
20.74127871844964
 20
13.04116353916046
 30
0.0
 11
20.73960411301109
 21
13.04204450029205
 31
0.0
  0
LINE
  5
353
330
1F
100
AcDbEntity
  8
0
  6
CONTINUOUS
 62
     7
100
AcDbLine
 10
20.74863541477457
 20
13.03784839017587
 30
0.0
 11
20.74127871844964
 21
13.04116353916046
 31
0.0
  0
LINE
  5
354
330
1F
100
AcDbEntity
  8
0
  6
CONTINUOUS
 62
     7
100
AcDbLine
 10
20.71619127729828
 20
13.03305160318394
 30
0.0
 11
20.71672370975369
 21
13.03281167308002
 31
0.0
  0
ELLIPSE
  5
355
330
1F
100
AcDbEntity
  8
0
  6
CONTINUOUS
 62
     7
100
AcDbEllipse
 10
20.76149533754186
 20
13.05071294115552
 30
0.0
 11
0.0521337129219717
 21
0.0107963140362362
 31
0.0
210
0.0
220
0.0
230
1.0
 40
0.3502391859892015
 41
3.026797809370254
 42
3.5913956098972
  0
LINE
  5
356
330
1F
100
AcDbEntity
  8
0
  6
CONTINUOUS
 62
     7
100
AcDbLine
 10
20.7895059278285
 20
12.91213437103326
 30
0.0
 11
20.79616946477892
 21
12.91473822545587
 31
0.0
  0
LINE
  5
357
330
1F
100
AcDbEntity
  8
0
  6
CONTINUOUS
 62
     7
100
AcDbLine
 10
20.79616946477892
 20
12.91473822545587
 30
0.0
 11
20.76773538882989
 21
13.05043262886053
 31
0.0
  0
LINE
  5
358
330
1F
100
AcDbEntity
  8
0
  6
CONTINUOUS
 62
     7
100
AcDbLine
 10
20.75321442381238
 20
12.89737210259051
 30
0.0
 11
20.71619127729828
 21
13.03305160318394
 31
0.0
  0
LINE
  5
359
330
1F
100
AcDbEntity
  8
0
  6
CONTINUOUS
 62
     7
100
AcDbLine
 10
20.75321442381238
 20
12.89737210259051
 30
0.0
 11
20.75604648684801
 21
12.88870477176961
 31
0.0
  0
ARC
  5
35A
330
1F
100
AcDbEntity
  8
0
  6
CONTINUOUS
 62
     7
100
AcDbCircle
 10
20.80708703041405
 20
12.90046201282839
 30
0.0
 40
0.0523476774342512
100
AcDbArc
 50
193.9873400867931
 51
226.4375453439882
  0
ARC
  5
35B
330
1F
100
AcDbEntity
  8
0
  6
CONTINUOUS
 62
     7
100
AcDbCircle
 10
20.97193025320329
 20
12.98690604737568
 30
0.0
 40
0.197457884380701
100
AcDbArc
 50
203.3009477723151
 51
213.1752490084307
  0
ARC
  5
35C
330
1F
100
AcDbEntity
  8
0
  6
CONTINUOUS
 62
     7
100
AcDbCircle
 10
20.84754187691832
 20
12.92257379877014
 30
0.0
 40
0.0519665367153105
100
AcDbArc
 50
188.6721970945046
 51
234.536452444259
  0
LWPOLYLINE
  5
35D
330
1F
100
AcDbEntity
  8
0
  6
CONTINUOUS
 62
     7
100
AcDbPolyline
 90
        4
 70
   128
 43
0.0
 10
23.19024601418782
 20
13.57904193571611
 10
23.20538146937987
 20
13.58733718439662
 10
23.21433300084489
 20
13.59583073395536
 10
23.21565476943124
 20
13.60277969803759
  0
LWPOLYLINE
  5
35E
330
1F
100
AcDbEntity
  8
0
  6
CONTINUOUS
 62
     7
100
AcDbPolyline
 90
        3
 70
   128
 43
0.0
 10
23.12601112197616
 20
13.68110773503352
 10
23.14358448718814
 20
13.68418121177185
 10
23.15784563737746
 20
13.68038947694635
  0
LINE
  5
35F
330
1F
100
AcDbEntity
  8
0
  6
CONTINUOUS
 62
     7
100
AcDbLine
 10
22.45724363014919
 20
13.93766421088095
 30
0.0
 11
23.07079870200146
 21
13.66117781214946
 31
0.0
  0
LWPOLYLINE
  5
360
330
1F
100
AcDbEntity
  8
0
  6
CONTINUOUS
 62
     7
100
AcDbPolyline
 90
        3
 70
   128
 43
0.0
 10
22.53263200561649
 20
13.96212581340534
 10
22.51839104922543
 20
13.96591220887863
 10
22.50081768401346
 20
13.96283873214032
  0
LWPOLYLINE
  5
361
330
1F
100
AcDbEntity
  8
0
  6
CONTINUOUS
 62
     7
100
AcDbPolyline
 90
        3
 70
   128
 43
0.0
 10
20.68716878974148
 20
13.19230549361851
 10
20.68696814357174
 20
13.19110503011595
 10
20.69358714451503
 20
13.18461985273661
  0
ARC
  5
362
330
1F
100
AcDbEntity
  8
0
  6
CONTINUOUS
 62
     7
100
AcDbCircle
 10
20.73375507163019
 20
13.2620661959099
 30
0.0
 40
0.0166161307385332
100
AcDbArc
 50
56.50018546558802
 51
114.9526393878901
  0
LINE
  5
363
330
1F
100
AcDbEntity
  8
0
  6
CONTINUOUS
 62
     7
100
AcDbLine
 10
20.70607637390077
 20
13.2131365343369
 30
0.0
 11
20.70194672034546
 21
13.21396617230752
 31
0.0
  0
ARC
  5
364
330
1F
100
AcDbEntity
  8
0
  6
CONTINUOUS
 62
     7
100
AcDbCircle
 10
22.49145658243576
 20
13.94757654772755
 30
0.0
 40
0.0179043150049772
100
AcDbArc
 50
58.47701764815948
 51
112.0699729971013
  0
LINE
  5
365
330
1F
100
AcDbEntity
  8
0
  6
CONTINUOUS
 62
     7
100
AcDbLine
 10
20.79837325455239
 20
13.28944135323349
 30
0.0
 11
22.45724363014919
 21
13.93766421088095
 31
0.0
  0
LWPOLYLINE
  5
366
330
1F
100
AcDbEntity
  8
0
  6
CONTINUOUS
 62
     7
100
AcDbPolyline
 90
        9
 70
   128
 43
0.0
 10
21.4891149664279
 20
12.60375742803796
 10
21.49183261396276
 20
12.58509410038009
 10
21.49204578807457
 20
12.57049169752066
 10
21.49146675223914
 20
12.56466678702497
 10
21.49056085137304
 20
12.55974895173337
 10
21.48941773880042
 20
12.55565999701445
 10
21.48811934117542
 20
12.55231302347903
 10
21.48333234770841
 20
12.54513712848468
 10
21.47770065063875
 20
12.54162982075291
  0
ARC
  5
367
330
1F
100
AcDbEntity
  8
0
  6
CONTINUOUS
 62
     7
100
AcDbCircle
 10
21.44124573681482
 20
12.57643012147149
 30
0.0
 40
0.0345971724067208
100
AcDbArc
 50
187.5070635303988
 51
252.5039560756294
  0
LWPOLYLINE
  5
368
330
1F
100
AcDbEntity
  8
0
  6
CONTINUOUS
 62
     7
100
AcDbPolyline
 90
        9
 70
   128
 43
0.0
 10
23.23600358420847
 20
13.22863023783734
 10
23.23860039266088
 20
13.22983588851514
 10
23.24169196260223
 20
13.23223652489254
 10
23.2444531242298
 20
13.23547660956781
 10
23.24684308807899
 20
13.23955474519591
 10
23.24962427027127
 20
13.24712318599159
 10
23.25156161682004
 20
13.2580425526173
 10
23.25191340877304
 20
13.27286575291585
 10
23.24987329348515
 20
13.29179418557002
  0
LINE
  5
369
330
1F
100
AcDbEntity
  8
0
  6
CONTINUOUS
 62
     7
100
AcDbLine
 10
21.41162403085345
 20
12.5730476040664
 30
0.0
 11
21.41949897498862
 21
12.58894438482057
 31
0.0
  0
ARC
  5
36A
330
1F
100
AcDbEntity
  8
0
  6
CONTINUOUS
 62
     7
100
AcDbCircle
 10
20.81600209863735
 20
12.85805563749557
 30
0.0
 40
0.0345337606381234
100
AcDbArc
 50
187.3444386639791
 51
251.0379074023931
  0
LWPOLYLINE
  5
36B
330
1F
100
AcDbEntity
  8
0
  6
CONTINUOUS
 62
     7
100
AcDbPolyline
 90
        4
 70
   128
 43
0.0
 10
23.27537375827557
 20
13.31310499889925
 10
23.27432464708782
 20
13.30682768679451
 10
23.26527842976692
 20
13.29879027575803
 10
23.24987329348515
 20
13.29179418557002
  0
LINE
  5
36C
330
1F
100
AcDbEntity
  8
0
  6
CONTINUOUS
 62
     7
100
AcDbLine
 10
20.74127871844964
 20
13.04116353916046
 30
0.0
 11
20.74104868640778
 21
13.04227169279861
 31
0.0
  0
LWPOLYLINE
  5
36D
330
1F
100
AcDbEntity
  8
0
  6
CONTINUOUS
 62
     7
100
AcDbPolyline
 90
        3
 70
   128
 43
0.0
 10
20.75321442381238
 20
12.89737210259051
 10
20.74686510395881
 20
12.90255812147735
 10
20.74699227048929
 20
12.90322681987196
  0
LINE
  5
36E
330
1F
100
AcDbEntity
  8
0
  6
CONTINUOUS
 62
     7
100
AcDbLine
 10
9.218675758365217
 20
5.754338947225431
 30
0.0
 11
9.218675758365217
 21
9.894164590273003
 31
0.0
  0
ARC
  5
36F
330
1F
100
AcDbEntity
  8
0
  6
CONTINUOUS
 62
     7
100
AcDbCircle
 10
9.072209595281119
 20
2.814969594358968
 30
0.0
 40
2.943016229907538
100
AcDbArc
 50
87.14736163263658
 51
90.78584166062093
  0
LINE
  5
370
330
1F
100
AcDbEntity
  8
0
  6
CONTINUOUS
 62
     7
100
AcDbLine
 10
9.031845849973594
 20
9.890794522537648
 30
0.0
 11
9.031845849973594
 21
5.757709014960787
 31
0.0
  0
ARC
  5
371
330
1F
100
AcDbEntity
  8
0
  6
CONTINUOUS
 62
     7
100
AcDbCircle
 10
9.075884129428391
 20
12.62982501737828
 30
0.0
 40
2.739384496875944
100
AcDbArc
 50
269.0788747446755
 51
272.9879219620674
  0
LINE
  5
372
330
1F
100
AcDbEntity
  8
0
  6
CONTINUOUS
 62
     7
100
AcDbLine
 10
9.031845849973594
 20
5.757709014960787
 30
0.0
 11
6.4804493772567
 21
5.757709014960787
 31
0.0
  0
LINE
  5
373
330
1F
100
AcDbEntity
  8
0
  6
CONTINUOUS
 62
     7
100
AcDbLine
 10
9.031845849973594
 20
5.651511108434731
 30
0.0
 11
9.031845849973594
 21
5.757709014960787
 31
0.0
  0
LINE
  5
374
330
1F
100
AcDbEntity
  8
0
  6
CONTINUOUS
 62
     7
100
AcDbLine
 10
6.4804493772567
 20
5.651511108434731
 30
0.0
 11
9.031845849973594
 21
5.651511108434731
 31
0.0
  0
LINE
  5
375
330
1F
100
AcDbEntity
  8
0
  6
CONTINUOUS
 62
     7
100
AcDbLine
 10
6.4804493772567
 20
5.757709014960787
 30
0.0
 11
6.4804493772567
 21
5.651511108434731
 31
0.0
  0
LINE
  5
376
330
1F
100
AcDbEntity
  8
0
  6
CONTINUOUS
 62
     7
100
AcDbLine
 10
6.4804493772567
 20
5.757709014960787
 30
0.0
 11
6.4804493772567
 21
9.890794522537648
 31
0.0
  0
LINE
  5
377
330
1F
100
AcDbEntity
  8
0
  6
CONTINUOUS
 62
     7
100
AcDbLine
 10
6.4804493772567
 20
9.890794522537648
 30
0.0
 11
9.031845849973594
 21
9.890794522537648
 31
0.0
  0
LINE
  5
378
330
1F
100
AcDbEntity
  8
0
  6
CONTINUOUS
 62
     7
100
AcDbLine
 10
9.025832586106
 20
9.786850123312216
 30
0.0
 11
6.486462641124297
 21
9.786850123312216
 31
0.0
  0
LINE
  5
379
330
1F
100
AcDbEntity
  8
0
  6
CONTINUOUS
 62
     7
100
AcDbLine
 10
6.486462641124297
 20
9.786850123312216
 30
0.0
 11
6.486462641124297
 21
5.861653414186218
 31
0.0
  0
LINE
  5
37A
330
1F
100
AcDbEntity
  8
0
  6
CONTINUOUS
 62
     7
100
AcDbLine
 10
6.486462641124297
 20
5.861653414186218
 30
0.0
 11
9.025832586106
 21
5.861653414186218
 31
0.0
  0
LINE
  5
37B
330
1F
100
AcDbEntity
  8
0
  6
CONTINUOUS
 62
     7
100
AcDbLine
 10
9.025832586106
 20
5.861653414186218
 30
0.0
 11
9.025832586106
 21
9.786850123312216
 31
0.0
  0
LINE
  5
37C
330
1F
100
AcDbEntity
  8
0
  6
CONTINUOUS
 62
     7
100
AcDbLine
 10
6.4804493772567
 20
9.996992429063702
 30
0.0
 11
6.4804493772567
 21
9.890794522537648
 31
0.0
  0
LINE
  5
37D
330
1F
100
AcDbEntity
  8
0
  6
CONTINUOUS
 62
     7
100
AcDbLine
 10
9.031845849973594
 20
9.996992429063702
 30
0.0
 11
6.4804493772567
 21
9.996992429063702
 31
0.0
  0
LINE
  5
37E
330
1F
100
AcDbEntity
  8
0
  6
CONTINUOUS
 62
     7
100
AcDbLine
 10
9.031845849973594
 20
9.890794522537648
 30
0.0
 11
9.031845849973594
 21
9.996992429063702
 31
0.0
  0
ARC
  5
37F
330
1F
100
AcDbEntity
  8
0
  6
CONTINUOUS
 62
     7
100
AcDbCircle
 10
6.436411229330456
 20
3.018671228437381
 30
0.0
 40
2.739391785501996
100
AcDbArc
 50
89.07887994704148
 51
92.98791675970042
  0
LINE
  5
380
330
1F
100
AcDbEntity
  8
0
  6
CONTINUOUS
 62
     7
100
AcDbLine
 10
6.293619468865078
 20
9.894164590273003
 30
0.0
 11
6.293619468865078
 21
5.754338947225431
 31
0.0
  0
ARC
  5
381
330
1F
100
AcDbEntity
  8
0
  6
CONTINUOUS
 62
     7
100
AcDbCircle
 10
6.440085771243753
 20
12.83354166535759
 30
0.0
 40
2.943023949488923
100
AcDbArc
 50
267.147366406127
 51
270.7858368871331
  0
LINE
  5
382
330
1F
100
AcDbEntity
  8
0
  6
CONTINUOUS
 62
     7
100
AcDbLine
 10
9.039934569865346
 20
5.651493361973074
 30
0.0
 11
9.031845849973594
 21
5.651511108434731
 31
0.0
  0
ARC
  5
383
330
1F
100
AcDbEntity
  8
0
  6
CONTINUOUS
 62
     7
100
AcDbCircle
 10
9.112240654269104
 20
5.754575998130513
 30
0.0
 40
0.1064353680741617
100
AcDbArc
 50
270.1276082176971
 51
359.8723917823062
  0
LINE
  5
384
330
1F
100
AcDbEntity
  8
0
  6
CONTINUOUS
 62
     7
100
AcDbLine
 10
9.112477705174192
 20
5.648140894034402
 30
0.0
 11
9.10949805959531
 21
5.648947844712441
 31
0.0
  0
LINE
  5
385
330
1F
100
AcDbEntity
  8
0
  6
CONTINUOUS
 62
     7
100
AcDbLine
 10
9.109061877967452
 20
5.649397226187812
 30
0.0
 11
9.10949805959531
 21
5.648947844712441
 31
0.0
  0
ARC
  5
386
330
1F
100
AcDbEntity
  8
0
  6
CONTINUOUS
 62
     7
100
AcDbCircle
 10
9.073781590730096
 20
5.446227453964146
 30
0.0
 40
0.2062102204377056
100
AcDbArc
 50
80.14886186876941
 51
95.38600070397318
  0
LINE
  5
387
330
1F
100
AcDbEntity
  8
0
  6
CONTINUOUS
 62
     7
100
AcDbLine
 10
9.039934569865346
 20
5.651493361973074
 30
0.0
 11
9.05442565579642
 21
5.651527241581693
 31
0.0
  0
LINE
  5
388
330
1F
100
AcDbEntity
  8
0
  6
CONTINUOUS
 62
     7
100
AcDbLine
 10
9.10949805959531
 20
9.999555692785992
 30
0.0
 11
9.112477705174192
 21
10.00036264346402
 31
0.0
  0
ARC
  5
389
330
1F
100
AcDbEntity
  8
0
  6
CONTINUOUS
 62
     7
100
AcDbCircle
 10
9.112240654269104
 20
9.893927539367917
 30
0.0
 40
0.1064353680741617
100
AcDbArc
 50
0.1276082176964704
 51
89.87239178230352
  0
LINE
  5
38A
330
1F
100
AcDbEntity
  8
0
  6
CONTINUOUS
 62
     7
100
AcDbLine
 10
9.039934569865346
 20
9.997010175525359
 30
0.0
 11
9.031845849973594
 21
9.996992429063702
 31
0.0
  0
LINE
  5
38B
330
1F
100
AcDbEntity
  8
0
  6
CONTINUOUS
 62
     7
100
AcDbLine
 10
9.039934569865346
 20
9.997010175525359
 30
0.0
 11
9.05442565579642
 21
9.996976442581713
 31
0.0
  0
ARC
  5
38C
330
1F
100
AcDbEntity
  8
0
  6
CONTINUOUS
 62
     7
100
AcDbCircle
 10
9.070047704908652
 20
10.29805541466505
 30
0.0
 40
0.3014839893746016
100
AcDbArc
 50
267.0297642730464
 51
277.435361180196
  0
LINE
  5
38D
330
1F
100
AcDbEntity
  8
0
  6
CONTINUOUS
 62
     7
100
AcDbLine
 10
9.10949805959531
 20
9.999555692785992
 30
0.0
 11
9.109062024632423
 21
9.999106457975591
 31
0.0
  0
LINE
  5
38E
330
1F
100
AcDbEntity
  8
0
  6
CONTINUOUS
 62
     7
100
AcDbLine
 10
6.402797167634988
 20
5.648947844712441
 30
0.0
 11
6.399817522056106
 21
5.648140894034402
 31
0.0
  0
ARC
  5
38F
330
1F
100
AcDbEntity
  8
0
  6
CONTINUOUS
 62
     7
100
AcDbCircle
 10
6.400054572961191
 20
5.754575998130513
 30
0.0
 40
0.1064353680741581
100
AcDbArc
 50
180.1276082176953
 51
269.8723917823056
  0
LINE
  5
390
330
1F
100
AcDbEntity
  8
0
  6
CONTINUOUS
 62
     7
100
AcDbLine
 10
6.4804493772567
 20
5.651511108434731
 30
0.0
 11
6.472360657364951
 21
5.651493361973074
 31
0.0
  0
LINE
  5
391
330
1F
100
AcDbEntity
  8
0
  6
CONTINUOUS
 62
     7
100
AcDbLine
 10
6.457869571433877
 20
5.651527094916723
 30
0.0
 11
6.472360657364951
 21
5.651493361973074
 31
0.0
  0
ARC
  5
392
330
1F
100
AcDbEntity
  8
0
  6
CONTINUOUS
 62
     7
100
AcDbCircle
 10
6.442247522321655
 20
5.350448122833197
 30
0.0
 40
0.3014839893747873
100
AcDbArc
 50
87.0297642730493
 51
97.43536118019278
  0
LINE
  5
393
330
1F
100
AcDbEntity
  8
0
  6
CONTINUOUS
 62
     7
100
AcDbLine
 10
6.402797167634988
 20
5.648947844712441
 30
0.0
 11
6.403233202597871
 21
5.649397079522842
 31
0.0
  0
LINE
  5
394
330
1F
100
AcDbEntity
  8
0
  6
CONTINUOUS
 62
     7
100
AcDbLine
 10
6.472360657364951
 20
9.997010175525359
 30
0.0
 11
6.4804493772567
 21
9.996992429063702
 31
0.0
  0
ARC
  5
395
330
1F
100
AcDbEntity
  8
0
  6
CONTINUOUS
 62
     7
100
AcDbCircle
 10
6.400054572961191
 20
9.893927539367917
 30
0.0
 40
0.1064353680741617
100
AcDbArc
 50
90.12760821769505
 51
179.8723917823035
  0
LINE
  5
396
330
1F
100
AcDbEntity
  8
0
  6
CONTINUOUS
 62
     7
100
AcDbLine
 10
6.399817522056106
 20
10.00036264346402
 30
0.0
 11
6.402797167634988
 21
9.999555692785992
 31
0.0
  0
LINE
  5
397
330
1F
100
AcDbEntity
  8
0
  6
CONTINUOUS
 62
     7
100
AcDbLine
 10
6.403233202597871
 20
9.999106457975591
 30
0.0
 11
6.402797167634988
 21
9.999555692785992
 31
0.0
  0
ARC
  5
398
330
1F
100
AcDbEntity
  8
0
  6
CONTINUOUS
 62
     7
100
AcDbCircle
 10
6.438523065979325
 20
10.20252053213916
 30
0.0
 40
0.2064525611982335
100
AcDbArc
 50
260.1578432515945
 51
275.3770312951662
  0
LINE
  5
399
330
1F
100
AcDbEntity
  8
0
  6
CONTINUOUS
 62
     7
100
AcDbLine
 10
6.472360657364951
 20
9.997010175525359
 30
0.0
 11
6.457869571433877
 21
9.996976442581713
 31
0.0
  0
LWPOLYLINE
  5
39A
330
1F
100
AcDbEntity
  8
0
  6
CONTINUOUS
 62
     7
100
AcDbPolyline
 90
        9
 70
   128
 43
0.0
 10
9.015990193139495
 20
9.777007730345712
 10
9.016179244288895
 20
9.777196781495113
 10
9.016739357818416
 20
9.777756895024634
 10
9.017648827312148
 20
9.778666511183335
 10
9.018872893171632
 20
9.779890430377848
 10
9.020364475940739
 20
9.781382013146961
 10
9.022066082950301
 20
9.783083620156515
 10
9.023912448287594
 20
9.784929985493812
 10
9.025832586106
 20
9.786850123312216
  0
LINE
  5
39B
330
1F
100
AcDbEntity
  8
0
  6
CONTINUOUS
 62
     7
100
AcDbLine
 10
6.496305034090799
 20
9.777007730345712
 30
0.0
 11
9.015990193139495
 21
9.777007730345712
 31
0.0
  0
LWPOLYLINE
  5
39C
330
1F
100
AcDbEntity
  8
0
  6
CONTINUOUS
 62
     7
100
AcDbPolyline
 90
        9
 70
   128
 43
0.0
 10
6.486462641124297
 20
9.786850123312216
 10
6.4883827789427
 20
9.784929985493812
 10
6.490229144279997
 20
9.783083620156515
 10
6.491930751289554
 20
9.781382013146961
 10
6.493422334058664
 20
9.779890430377848
 10
6.49464639991815
 20
9.778666511183335
 10
6.49555586941188
 20
9.777756895024634
 10
6.496115982941402
 20
9.777196781495113
 10
6.496305034090799
 20
9.777007730345712
  0
LWPOLYLINE
  5
39D
330
1F
100
AcDbEntity
  8
0
  6
CONTINUOUS
 62
     7
100
AcDbPolyline
 90
        9
 70
   128
 43
0.0
 10
9.025832586106
 20
5.861653414186218
 10
9.023912448287594
 20
5.863573552004622
 10
9.022066082950301
 20
5.865419917341918
 10
9.020364475940739
 20
5.867121524351476
 10
9.018872893171632
 20
5.868613107120584
 10
9.017648827312148
 20
5.869837026315098
 10
9.016739357818416
 20
5.870746642473801
 10
9.016179244288895
 20
5.871306756003322
 10
9.015990193139495
 20
5.871495807152721
  0
LINE
  5
39E
330
1F
100
AcDbEntity
  8
0
  6
CONTINUOUS
 62
     7
100
AcDbLine
 10
9.015990193139495
 20
9.777007730345712
 30
0.0
 11
9.015990193139495
 21
5.871495807152721
 31
0.0
  0
LINE
  5
39F
330
1F
100
AcDbEntity
  8
0
  6
CONTINUOUS
 62
     7
100
AcDbLine
 10
6.496305034090799
 20
5.871495807152721
 30
0.0
 11
6.496305034090799
 21
9.777007730345712
 31
0.0
  0
LWPOLYLINE
  5
3A0
330
1F
100
AcDbEntity
  8
0
  6
CONTINUOUS
 62
     7
100
AcDbPolyline
 90
        9
 70
   128
 43
0.0
 10
6.486462641124297
 20
5.861653414186218
 10
6.4883827789427
 20
5.863573552004622
 10
6.490229144279997
 20
5.865419917341918
 10
6.491930751289554
 20
5.867121524351476
 10
6.493422334058664
 20
5.868613107120584
 10
6.49464639991815
 20
5.869837026315098
 10
6.49555586941188
 20
5.870746642473801
 10
6.496115982941402
 20
5.871306756003322
 10
6.496305034090799
 20
5.871495807152721
  0
LINE
  5
3A1
330
1F
100
AcDbEntity
  8
0
  6
CONTINUOUS
 62
     7
100
AcDbLine
 10
9.015990193139495
 20
5.871495807152721
 30
0.0
 11
6.496305034090799
 21
5.871495807152721
 31
0.0
  0
LINE
  5
3A2
330
1F
100
AcDbEntity
  8
0
  6
CONTINUOUS
 62
     7
100
AcDbLine
 10
6.472360657364951
 20
5.651493361973074
 30
0.0
 11
9.039934569865346
 21
5.651493361973074
 31
0.0
  0
LINE
  5
3A3
330
1F
100
AcDbEntity
  8
0
  6
CONTINUOUS
 62
     7
100
AcDbLine
 10
9.039934569865346
 20
9.997010175525359
 30
0.0
 11
6.472360657364951
 21
9.997010175525359
 31
0.0
  0
LINE
  5
3A4
330
1F
100
AcDbEntity
  8
0
  6
CONTINUOUS
 62
     7
100
AcDbLine
 10
6.388140496950097
 20
5.634291174027549
 30
0.0
 11
6.385967655384281
 21
5.634291174027549
 31
0.0
  0
LINE
  5
3A5
330
1F
100
AcDbEntity
  8
0
  6
CONTINUOUS
 62
     7
100
AcDbLine
 10
6.385967655384281
 20
5.634291174027549
 30
0.0
 11
6.399817522056106
 21
5.648140894034402
 31
0.0
  0
LINE
  5
3A6
330
1F
100
AcDbEntity
  8
0
  6
CONTINUOUS
 62
     7
100
AcDbLine
 10
6.388140496950097
 20
5.634291174027549
 30
0.0
 11
6.402797167634988
 21
5.648947844712441
 31
0.0
  0
LINE
  5
3A7
330
1F
100
AcDbEntity
  8
0
  6
CONTINUOUS
 62
     7
100
AcDbLine
 10
9.124154730280199
 20
10.01421236347088
 30
0.0
 11
9.126327571846015
 21
10.01421236347088
 31
0.0
  0
LINE
  5
3A8
330
1F
100
AcDbEntity
  8
0
  6
CONTINUOUS
 62
     7
100
AcDbLine
 10
9.126327571846015
 20
10.01421236347088
 30
0.0
 11
9.112477705174192
 21
10.00036264346402
 31
0.0
  0
LINE
  5
3A9
330
1F
100
AcDbEntity
  8
0
  6
CONTINUOUS
 62
     7
100
AcDbLine
 10
9.124154730280199
 20
10.01421236347088
 30
0.0
 11
9.10949805959531
 21
9.999555692785992
 31
0.0
  0
LINE
  5
3AA
330
1F
100
AcDbEntity
  8
0
  6
CONTINUOUS
 62
     7
100
AcDbLine
 10
6.399817522056106
 20
10.00036264346402
 30
0.0
 11
6.385967655384281
 21
10.01421236347088
 31
0.0
  0
LINE
  5
3AB
330
1F
100
AcDbEntity
  8
0
  6
CONTINUOUS
 62
     7
100
AcDbLine
 10
6.385967655384281
 20
10.01421236347088
 30
0.0
 11
6.388140496950097
 21
10.01421236347088
 31
0.0
  0
LINE
  5
3AC
330
1F
100
AcDbEntity
  8
0
  6
CONTINUOUS
 62
     7
100
AcDbLine
 10
6.402797167634988
 20
9.999555692785992
 30
0.0
 11
6.388140496950097
 21
10.01421236347088
 31
0.0
  0
LINE
  5
3AD
330
1F
100
AcDbEntity
  8
0
  6
CONTINUOUS
 62
     7
100
AcDbLine
 10
9.112477705174192
 20
5.648140894034402
 30
0.0
 11
9.126327571846015
 21
5.634291174027549
 31
0.0
  0
LINE
  5
3AE
330
1F
100
AcDbEntity
  8
0
  6
CONTINUOUS
 62
     7
100
AcDbLine
 10
9.126327571846015
 20
5.634291174027549
 30
0.0
 11
9.124154730280199
 21
5.634291174027549
 31
0.0
  0
LINE
  5
3AF
330
1F
100
AcDbEntity
  8
0
  6
CONTINUOUS
 62
     7
100
AcDbLine
 10
9.10949805959531
 20
5.648947844712441
 30
0.0
 11
9.124154730280199
 21
5.634291174027549
 31
0.0
  0
LINE
  5
3B0
330
1F
100
AcDbEntity
  8
0
  6
CONTINUOUS
 62
     7
100
AcDbLine
 10
6.293619468865078
 20
9.894164590273003
 30
0.0
 11
6.279769602193254
 21
9.908014310279856
 31
0.0
  0
ELLIPSE
  5
3B1
330
1F
100
AcDbEntity
  8
0
  6
CONTINUOUS
 62
     7
100
AcDbEllipse
 10
6.386170143140383
 20
9.907811916389338
 30
0.0
 11
0.0753080429312609
 21
-0.0753080429312618
 31
0.0
210
0.0
220
0.0
230
1.0
 40
0.9980991556472297
 41
2.35714581624339
 42
3.926039490936211
  0
LINE
  5
3B2
330
1F
100
AcDbEntity
  8
0
  6
CONTINUOUS
 62
     7
100
AcDbLine
 10
9.218675758365217
 20
5.754338947225431
 30
0.0
 11
9.232525625037043
 21
5.740489227218576
 31
0.0
  0
ELLIPSE
  5
3B3
330
1F
100
AcDbEntity
  8
0
  6
CONTINUOUS
 62
     7
100
AcDbEllipse
 10
9.126125084089911
 20
5.740691621109098
 30
0.0
 11
-0.07530804293126
 21
0.0753080429312618
 31
0.0
210
0.0
220
0.0
230
1.0
 40
0.9980991556472297
 41
2.357145816243404
 42
3.92603949093621
  0
ELLIPSE
  5
3B4
330
1F
100
AcDbEntity
  8
0
  6
CONTINUOUS
 62
     7
100
AcDbEllipse
 10
9.126125084089911
 20
9.907811916389338
 30
0.0
 11
-0.07530804293126
 21
-0.0753080429312618
 31
0.0
210
0.0
220
0.0
230
1.0
 40
0.9980991556472355
 41
2.357145816243368
 42
3.926039490936191
  0
LINE
  5
3B5
330
1F
100
AcDbEntity
  8
0
  6
CONTINUOUS
 62
     7
100
AcDbLine
 10
9.232525625037043
 20
9.908014310279856
 30
0.0
 11
9.218675758365217
 21
9.894164590273003
 31
0.0
  0
ELLIPSE
  5
3B6
330
1F
100
AcDbEntity
  8
0
  6
CONTINUOUS
 62
     7
100
AcDbEllipse
 10
6.386170143140383
 20
5.740691621109098
 30
0.0
 11
0.0753080429312609
 21
0.0753080429312609
 31
0.0
210
0.0
220
0.0
230
1.0
 40
0.9980991556472298
 41
2.357145816243384
 42
3.926039490936206
  0
LINE
  5
3B7
330
1F
100
AcDbEntity
  8
0
  6
CONTINUOUS
 62
     7
100
AcDbLine
 10
6.279769602193254
 20
5.740489227218576
 30
0.0
 11
6.293619468865078
 21
5.754338947225431
 31
0.0
  0
LINE
  5
3B8
330
1F
100
AcDbEntity
  8
0
  6
CONTINUOUS
 62
     7
100
AcDbLine
 10
9.232525625037043
 20
5.740489227218576
 30
0.0
 11
9.232525625037043
 21
9.908014310279856
 31
0.0
  0
LINE
  5
3B9
330
1F
100
AcDbEntity
  8
0
  6
CONTINUOUS
 62
     7
100
AcDbLine
 10
6.279769602193254
 20
9.908014310279856
 30
0.0
 11
6.279769602193254
 21
5.740489227218576
 31
0.0
  0
LINE
  5
3BA
330
1F
100
AcDbEntity
  8
0
  6
CONTINUOUS
 62
     7
100
AcDbLine
 10
9.054707839203279
 20
5.651156619196489
 30
0.0
 11
9.070975477944797
 21
5.651069060207976
 31
0.0
  0
ARC
  5
3BB
330
1F
100
AcDbEntity
  8
0
  6
CONTINUOUS
 62
     7
100
AcDbCircle
 10
9.080451632655538
 20
5.465995085568696
 30
0.0
 40
0.1853164148069008
100
AcDbArc
 50
81.00933854686116
 51
92.93109795011821
  0
ARC
  5
3BC
330
1F
100
AcDbEntity
  8
0
  6
CONTINUOUS
 62
     7
100
AcDbCircle
 10
9.079219083567142
 20
10.20579528593563
 30
0.0
 40
0.2085238202530539
100
AcDbArc
 50
267.7343263405436
 51
278.3252371624841
  0
LINE
  5
3BD
330
1F
100
AcDbEntity
  8
0
  6
CONTINUOUS
 62
     7
100
AcDbLine
 10
9.070975477944797
 20
9.997434477290457
 30
0.0
 11
9.054707839203279
 21
9.997346918301943
 31
0.0
  0
LINE
  5
3BE
330
1F
100
AcDbEntity
  8
0
  6
CONTINUOUS
 62
     7
100
AcDbLine
 10
6.457587388027016
 20
9.997346918301943
 30
0.0
 11
6.441319309290585
 21
9.997434477290457
 31
0.0
  0
ARC
  5
3BF
330
1F
100
AcDbEntity
  8
0
  6
CONTINUOUS
 62
     7
100
AcDbCircle
 10
6.431843674349068
 20
10.18251200854837
 30
0.0
 40
0.1853199401955142
100
AcDbArc
 50
261.0094860254125
 51
272.9308812337001
  0
ARC
  5
3C0
330
1F
100
AcDbEntity
  8
0
  6
CONTINUOUS
 62
     7
100
AcDbCircle
 10
6.433079842911389
 20
5.442638360813092
 30
0.0
 40
0.2085935102233401
100
AcDbArc
 50
87.73610057592319
 51
98.32346292709695
  0
LINE
  5
3C1
330
1F
100
AcDbEntity
  8
0
  6
CONTINUOUS
 62
     7
100
AcDbLine
 10
6.441319749285502
 20
5.651069060207976
 30
0.0
 11
6.457587388027016
 21
5.651156619196489
 31
0.0
  0
LINE
  5
3C2
330
1F
100
AcDbEntity
  8
0
  6
CONTINUOUS
 62
     7
100
AcDbLine
 10
6.457587388027016
 20
9.997346918301943
 30
0.0
 11
9.054707839203279
 21
9.997346918301943
 31
0.0
  0
LINE
  5
3C3
330
1F
100
AcDbEntity
  8
0
  6
CONTINUOUS
 62
     7
100
AcDbLine
 10
9.054707839203279
 20
5.651156619196489
 30
0.0
 11
6.457587388027016
 21
5.651156619196489
 31
0.0
  0
DIMENSION
  5
3C4
330
1F
100
AcDbEntity
  8
0
  6
CONTINUOUS
 62
     7
100
AcDbDimension
  2
*D29
 10
6.496305093930108
 20
4.295704403487766
 30
0.0
 11
7.589396627352964
 21
4.295704403487766
 31
0.0
 70
   160
  1
<>\PRECESS
  3
SLDDIMSTYLE0
100
AcDbAlignedDimension
 13
9.015990133300187
 23
5.871495863237406
 33
0.0
 14
6.496305093930108
 24
5.871495863237406
 34
0.0
100
AcDbRotatedDimension
  0
DIMENSION
  5
3D7
330
1F
100
AcDbEntity
  8
0
  6
CONTINUOUS
 62
     7
100
AcDbDimension
  2
*D30
 10
6.279769660859242
 20
11.82524007889255
 30
0.0
 11
7.589396627352964
 21
11.82524007889255
 31
0.0
 70
   160
  3
SLDDIMSTYLE2
100
AcDbAlignedDimension
 13
9.232525566371057
 23
9.908014359368467
 33
0.0
 14
6.279769660859242
 24
9.90801435936847
 34
0.0
100
AcDbRotatedDimension
  0
DIMENSION
  5
3E9
330
1F
100
AcDbEntity
  8
0
  6
CONTINUOUS
 62
     7
100
AcDbDimension
  2
*D31
 10
4.819150052211766
 20
10.01421239867047
 30
0.0
 11
4.819150052211766
 21
8.152682157312133
 31
0.0
 70
   160
  3
SLDDIMSTYLE0
100
AcDbAlignedDimension
 13
6.385967700161253
 23
5.634291138827957
 33
0.0
 14
6.38596770016125
 24
10.01421239867047
 34
0.0
 50
90.00000000000019
100
AcDbRotatedDimension
  0
DIMENSION
  5
3FB
330
1F
100
AcDbEntity
  8
0
  6
CONTINUOUS
 62
     7
100
AcDbDimension
  2
*D32
 10
10.33488875534743
 20
5.871495863237406
 30
0.0
 11
10.33488875534743
 21
7.4958213801863
 31
0.0
 70
   160
  1
<>\PRECESS
  3
SLDDIMSTYLE2
100
AcDbAlignedDimension
 13
9.015990133300187
 23
9.777007674261026
 33
0.0
 14
9.015990133300187
 24
5.871495863237406
 34
0.0
 50
90.00000000000019
100
AcDbRotatedDimension
  0
LINE
  5
40E
330
1F
100
AcDbEntity
  8
0
  6
CENTER
 62
     7
100
AcDbLine
 10
7.756147613615148
 20
11.4395826349186
 30
0.0
 11
7.756147613615148
 21
4.731893292025715
 31
0.0
  0
LINE
  5
40F
330
1F
100
AcDbEntity
  8
0
  6
CONTINUOUS
 62
     7
100
AcDbLine
 10
7.756147613615148
 20
11.4395826349186
 30
0.0
 11
8.256147613615146
 21
11.4395826349186
 31
0.0
  0
SOLID
  5
410
330
1F
100
AcDbEntity
  8
0
  6
CONTINUOUS
 62
     7
100
AcDbTrace
 10
8.256147613615146
 20
11.4395826349186
 30
0.0
 11
8.006147613615146
 21
11.47958263491861
 31
0.0
 12
8.006147613615146
 22
11.39958263491861
 32
0.0
 13
8.006147613615146
 23
11.39958263491861
 33
0.0
  0
LINE
  5
411
330
1F
100
AcDbEntity
  8
0
  6
CONTINUOUS
 62
     7
100
AcDbLine
 10
7.756147613615148
 20
4.731893292025715
 30
0.0
 11
8.256147613615146
 21
4.731893292025715
 31
0.0
  0
SOLID
  5
412
330
1F
100
AcDbEntity
  8
0
  6
CONTINUOUS
 62
     7
100
AcDbTrace
 10
8.256147613615146
 20
4.731893292025715
 30
0.0
 11
8.006147613615146
 21
4.771893292025715
 31
0.0
 12
8.006147613615146
 22
4.691893292025715
 32
0.0
 13
8.006147613615146
 23
4.691893292025715
 33
0.0
  0
MTEXT
  5
413
330
1F
100
AcDbEntity
  8
0
  6
CONTINUOUS
 62
     7
100
AcDbMText
 10
8.282657375000137
 20
11.53874467122899
 30
-0.0000000000000826
 40
0.125
 41
0.0
 71
     1
 72
     1
  1
G
  7
SLDTEXTSTYLE0
1001
ACAD
1000
MTEXTBEGIN
1070
    73
1070
     1
1070
    44
1040
1.0
1070
    74
1070
     0
1000
MTEXTEND
  0
MTEXT
  5
414
330
1F
100
AcDbEntity
  8
0
  6
CONTINUOUS
 62
     7
100
AcDbMText
 10
8.282657375000137
 20
4.831055328336094
 30
-0.0000000000000826
 40
0.125
 41
0.0
 71
     1
 72
     1
  1
G
  7
SLDTEXTSTYLE0
1001
ACAD
1000
MTEXTBEGIN
1070
    73
1070
     1
1070
    44
1040
1.0
1070
    74
1070
     0
1000
MTEXTEND
  0
LINE
  5
415
330
1F
100
AcDbEntity
  8
0
  6
CONTINUOUS
 62
     7
100
AcDbLine
 10
3.514344279425265
 20
7.920708462806588
 30
0.0
 11
3.337178932721133
 21
7.919162366500557
 31
0.0
  0
LINE
  5
416
330
1F
100
AcDbEntity
  8
0
  6
CONTINUOUS
 62
     7
100
AcDbLine
 10
3.337178932721133
 20
7.729341170997873
 30
0.0
 11
3.514344279425265
 21
7.727795074691844
 31
0.0
  0
LINE
  5
417
330
1F
100
AcDbEntity
  8
0
  6
CONTINUOUS
 62
     7
100
AcDbLine
 10
3.514344279425265
 20
9.101810890277226
 30
0.0
 11
3.337178932721133
 21
9.100264748138393
 31
0.0
  0
LINE
  5
418
330
1F
100
AcDbEntity
  8
0
  6
CONTINUOUS
 62
     7
100
AcDbLine
 10
3.337178932721133
 20
8.910443534302586
 30
0.0
 11
3.514344279425265
 21
8.908897465496238
 31
0.0
  0
LINE
  5
419
330
1F
100
AcDbEntity
  8
0
  6
CONTINUOUS
 62
     7
100
AcDbLine
 10
3.514344279425265
 20
6.345905366733004
 30
0.0
 11
3.337178932721133
 21
6.34435922459417
 31
0.0
  0
LINE
  5
41A
330
1F
100
AcDbEntity
  8
0
  6
CONTINUOUS
 62
     7
100
AcDbLine
 10
3.337178932721133
 20
6.154538084090851
 30
0.0
 11
3.514344279425265
 21
6.152991941952017
 31
0.0
  0
LINE
  5
41B
330
1F
100
AcDbEntity
  8
0
  6
CONTINUOUS
 62
     7
100
AcDbLine
 10
3.514344279425263
 20
8.178812982827816
 30
0.0
 11
3.141312788560627
 21
8.175557607100861
 31
0.0
  0
LINE
  5
41C
330
1F
100
AcDbEntity
  8
0
  6
CONTINUOUS
 62
     7
100
AcDbLine
 10
3.141312788560627
 20
7.961595943804253
 30
0.0
 11
3.514344279425263
 21
7.958340549744175
 31
0.0
  0
LINE
  5
41D
330
1F
100
AcDbEntity
  8
0
  6
CONTINUOUS
 62
     7
100
AcDbLine
 10
2.746627764818621
 20
9.091835032185855
 30
0.0
 11
2.785997813345794
 21
9.091835032185855
 31
0.0
  0
LINE
  5
41E
330
1F
100
AcDbEntity
  8
0
  6
CONTINUOUS
 62
     7
100
AcDbLine
 10
2.785997813345794
 20
9.328055543346355
 30
0.0
 11
2.746627764818621
 21
9.328055543346355
 31
0.0
  0
LINE
  5
41F
330
1F
100
AcDbEntity
  8
0
  6
CONTINUOUS
 62
     7
100
AcDbLine
 10
2.74662776481862
 20
8.908897465496238
 30
0.0
 11
2.92379311152275
 21
8.910443534302586
 31
0.0
  0
LINE
  5
420
330
1F
100
AcDbEntity
  8
0
  6
CONTINUOUS
 62
     7
100
AcDbLine
 10
2.92379311152275
 20
9.100264748138393
 30
0.0
 11
2.785997813345792
 21
9.101467254246939
 31
0.0
  0
LINE
  5
421
330
1F
100
AcDbEntity
  8
0
  6
CONTINUOUS
 62
     7
100
AcDbLine
 10
2.74662776481862
 20
7.727795074691845
 30
0.0
 11
2.92379311152275
 21
7.729341170997873
 31
0.0
  0
LINE
  5
422
330
1F
100
AcDbEntity
  8
0
  6
CONTINUOUS
 62
     7
100
AcDbLine
 10
2.92379311152275
 20
7.919162366500557
 30
0.0
 11
2.74662776481862
 21
7.920708462806588
 31
0.0
  0
LINE
  5
423
330
1F
100
AcDbEntity
  8
0
  6
CONTINUOUS
 62
     7
100
AcDbLine
 10
2.74662776481862
 20
6.152991941952017
 30
0.0
 11
2.92379311152275
 21
6.154538084090851
 31
0.0
  0
LINE
  5
424
330
1F
100
AcDbEntity
  8
0
  6
CONTINUOUS
 62
     7
100
AcDbLine
 10
2.92379311152275
 20
6.34435922459417
 30
0.0
 11
2.74662776481862
 21
6.345905366733004
 31
0.0
  0
LINE
  5
425
330
1F
100
AcDbEntity
  8
0
  6
CONTINUOUS
 62
     7
100
AcDbLine
 10
2.746627764818618
 20
7.958346260511536
 30
0.0
 11
2.923793111522748
 21
7.959892356817567
 31
0.0
  0
LINE
  5
426
330
1F
100
AcDbEntity
  8
0
  6
CONTINUOUS
 62
     7
100
AcDbLine
 10
2.985793106960178
 20
7.9604334222338
 30
0.0
 11
3.139344284530122
 21
7.961773445087076
 31
0.0
  0
LINE
  5
427
330
1F
100
AcDbEntity
  8
0
  6
CONTINUOUS
 62
     7
100
AcDbLine
 10
3.139344284530122
 20
8.17539150901964
 30
0.0
 11
2.985793106960178
 21
8.176731550206037
 31
0.0
  0
LINE
  5
428
330
1F
100
AcDbEntity
  8
0
  6
CONTINUOUS
 62
     7
100
AcDbLine
 10
2.923793111522748
 20
8.177272597289148
 30
0.0
 11
2.746627764818618
 21
8.17881870276174
 31
0.0
  0
LINE
  5
429
330
1F
100
AcDbEntity
  8
0
  6
CONTINUOUS
 62
     7
100
AcDbLine
 10
2.923793111522752
 20
9.826220281838118
 30
0.0
 11
2.985793106960181
 21
9.826220281838118
 31
0.0
  0
LINE
  5
42A
330
1F
100
AcDbEntity
  8
0
  6
CONTINUOUS
 62
     7
100
AcDbLine
 10
2.985793106960181
 20
5.824251792919603
 30
0.0
 11
2.985793106960181
 21
9.826220281838118
 31
0.0
  0
LINE
  5
42B
330
1F
100
AcDbEntity
  8
0
  6
CONTINUOUS
 62
     7
100
AcDbLine
 10
2.923793111522752
 20
5.824251792919603
 30
0.0
 11
2.923793111522752
 21
9.826220281838118
 31
0.0
  0
LINE
  5
42C
330
1F
100
AcDbEntity
  8
0
  6
CONTINUOUS
 62
     7
100
AcDbLine
 10
2.985793106960181
 20
5.824251792919603
 30
0.0
 11
2.923793111522752
 21
5.824251792919603
 31
0.0
  0
LINE
  5
42D
330
1F
100
AcDbEntity
  8
0
  6
CONTINUOUS
 62
     7
100
AcDbLine
 10
2.746627764818623
 20
9.919724188339678
 30
0.0
 11
2.746627764818623
 21
9.860669097215795
 31
0.0
  0
LINE
  5
42E
330
1F
100
AcDbEntity
  8
0
  6
CONTINUOUS
 62
     7
100
AcDbLine
 10
3.528123820242837
 20
9.919724188339678
 30
0.0
 11
2.746627764818623
 21
9.919724188339678
 31
0.0
  0
LINE
  5
42F
330
1F
100
AcDbEntity
  8
0
  6
CONTINUOUS
 62
     7
100
AcDbLine
 10
3.528123820242837
 20
9.860669097215795
 30
0.0
 11
3.528123820242837
 21
9.919724188339678
 31
0.0
  0
LINE
  5
430
330
1F
100
AcDbEntity
  8
0
  6
CONTINUOUS
 62
     7
100
AcDbLine
 10
3.528123820242837
 20
9.860669097215795
 30
0.0
 11
2.746627764818623
 21
9.860669097215795
 31
0.0
  0
LINE
  5
431
330
1F
100
AcDbEntity
  8
0
  6
CONTINUOUS
 62
     7
100
AcDbLine
 10
2.746627764818623
 20
5.803582445027007
 30
0.0
 11
2.746627764818623
 21
5.744527353903127
 31
0.0
  0
LINE
  5
432
330
1F
100
AcDbEntity
  8
0
  6
CONTINUOUS
 62
     7
100
AcDbLine
 10
3.528123820242837
 20
5.803582445027007
 30
0.0
 11
2.746627764818623
 21
5.803582445027007
 31
0.0
  0
LINE
  5
433
330
1F
100
AcDbEntity
  8
0
  6
CONTINUOUS
 62
     7
100
AcDbLine
 10
3.528123820242837
 20
5.744527353903127
 30
0.0
 11
3.528123820242837
 21
5.803582445027007
 31
0.0
  0
LINE
  5
434
330
1F
100
AcDbEntity
  8
0
  6
CONTINUOUS
 62
     7
100
AcDbLine
 10
3.528123820242837
 20
5.744527353903127
 30
0.0
 11
2.746627764818623
 21
5.744527353903127
 31
0.0
  0
LINE
  5
435
330
1F
100
AcDbEntity
  8
0
  6
CONTINUOUS
 62
     7
100
AcDbLine
 10
3.49465923682856
 20
9.844921092471423
 30
0.0
 11
3.49465923682856
 21
9.785866001347542
 31
0.0
  0
LINE
  5
436
330
1F
100
AcDbEntity
  8
0
  6
CONTINUOUS
 62
     7
100
AcDbLine
 10
3.541903324394162
 20
9.919724188339678
 30
0.0
 11
3.541903324394162
 21
9.844921092471423
 31
0.0
  0
LINE
  5
437
330
1F
100
AcDbEntity
  8
0
  6
CONTINUOUS
 62
     7
100
AcDbLine
 10
3.502533239200745
 20
9.919724188339678
 30
0.0
 11
3.502533239200745
 21
9.939904261884413
 31
0.0
  0
ARC
  5
438
330
1F
100
AcDbEntity
  8
0
  6
CONTINUOUS
 62
     7
100
AcDbCircle
 10
3.622612001299306
 20
9.786850193946067
 30
0.0
 40
0.0098425196850394
100
AcDbArc
 50
270.0000000000008
 51
0.0
  0
ARC
  5
439
330
1F
100
AcDbEntity
  8
0
  6
CONTINUOUS
 62
     7
100
AcDbCircle
 10
3.622612001299306
 20
5.861653343552365
 30
0.0
 40
0.0098425196850398
100
AcDbArc
 50
0.0
 51
90.0
  0
LINE
  5
43A
330
1F
100
AcDbEntity
  8
0
  6
CONTINUOUS
 62
     7
100
AcDbLine
 10
3.502533239200745
 20
5.70859927561402
 30
0.0
 11
3.502533239200745
 21
5.728779349158754
 31
0.0
  0
LINE
  5
43B
330
1F
100
AcDbEntity
  8
0
  6
CONTINUOUS
 62
     7
100
AcDbLine
 10
3.541903324394162
 20
5.803582445027007
 30
0.0
 11
3.541903324394162
 21
5.728779349158754
 31
0.0
  0
LINE
  5
43C
330
1F
100
AcDbEntity
  8
0
  6
CONTINUOUS
 62
     7
100
AcDbLine
 10
3.49465923682856
 20
5.862637536150889
 30
0.0
 11
3.49465923682856
 21
5.803582445027007
 31
0.0
  0
LINE
  5
43D
330
1F
100
AcDbEntity
  8
0
  6
CONTINUOUS
 62
     7
100
AcDbLine
 10
3.514344279425268
 20
9.785866001347542
 30
0.0
 11
3.514344279425268
 21
5.862637536150889
 31
0.0
  0
LINE
  5
43E
330
1F
100
AcDbEntity
  8
0
  6
CONTINUOUS
 62
     7
100
AcDbLine
 10
3.541903324394162
 20
9.919724188339678
 30
0.0
 11
3.502533239200745
 21
9.919724188339678
 31
0.0
  0
LINE
  5
43F
330
1F
100
AcDbEntity
  8
0
  6
CONTINUOUS
 62
     7
100
AcDbLine
 10
3.541903324394162
 20
9.844921092471423
 30
0.0
 11
3.49465923682856
 21
9.844921092471423
 31
0.0
  0
LINE
  5
440
330
1F
100
AcDbEntity
  8
0
  6
CONTINUOUS
 62
     7
100
AcDbLine
 10
3.49465923682856
 20
9.785866001347542
 30
0.0
 11
3.514344279425268
 21
9.785866001347542
 31
0.0
  0
LINE
  5
441
330
1F
100
AcDbEntity
  8
0
  6
CONTINUOUS
 62
     7
100
AcDbLine
 10
3.514344279425268
 20
5.862637536150889
 30
0.0
 11
3.49465923682856
 21
5.862637536150889
 31
0.0
  0
LINE
  5
442
330
1F
100
AcDbEntity
  8
0
  6
CONTINUOUS
 62
     7
100
AcDbLine
 10
3.49465923682856
 20
5.803582445027007
 30
0.0
 11
3.541903324394162
 21
5.803582445027007
 31
0.0
  0
LINE
  5
443
330
1F
100
AcDbEntity
  8
0
  6
CONTINUOUS
 62
     7
100
AcDbLine
 10
3.502533239200745
 20
5.728779349158754
 30
0.0
 11
3.541903324394162
 21
5.728779349158754
 31
0.0
  0
LINE
  5
444
330
1F
100
AcDbEntity
  8
0
  6
CONTINUOUS
 62
     7
100
AcDbLine
 10
3.62261199537404
 20
9.777007730345712
 30
0.0
 11
3.602926952777333
 21
9.777007730345712
 31
0.0
  0
LINE
  5
445
330
1F
100
AcDbEntity
  8
0
  6
CONTINUOUS
 62
     7
100
AcDbLine
 10
3.632454535005516
 20
5.861653414186218
 30
0.0
 11
3.632454535005516
 21
5.757709014960787
 31
0.0
  0
LINE
  5
446
330
1F
100
AcDbEntity
  8
0
  6
CONTINUOUS
 62
     7
100
AcDbLine
 10
3.632454535005516
 20
9.890794522537648
 30
0.0
 11
3.632454535005516
 21
9.786850123312216
 31
0.0
  0
LINE
  5
447
330
1F
100
AcDbEntity
  8
0
  6
CONTINUOUS
 62
     7
100
AcDbLine
 10
3.602926952777333
 20
5.871495807152721
 30
0.0
 11
3.62261199537404
 21
5.871495807152721
 31
0.0
  0
LINE
  5
448
330
1F
100
AcDbEntity
  8
0
  6
CONTINUOUS
 62
     7
100
AcDbLine
 10
3.602926952777333
 20
9.777007730345712
 30
0.0
 11
3.602926952777333
 21
5.871495807152721
 31
0.0
  0
LINE
  5
449
330
1F
100
AcDbEntity
  8
0
  6
CONTINUOUS
 62
     7
100
AcDbLine
 10
3.530792022752866
 20
9.996992429063702
 30
0.0
 11
3.530385650780643
 21
9.997010175525359
 31
0.0
  0
ARC
  5
44A
330
1F
100
AcDbEntity
  8
0
  6
CONTINUOUS
 62
     7
100
AcDbCircle
 10
3.52615530838592
 20
9.890794462263578
 30
0.0
 40
0.106299212598425
100
AcDbArc
 50
359.9999999999998
 51
87.49999999999998
  0
LINE
  5
44B
330
1F
100
AcDbEntity
  8
0
  6
CONTINUOUS
 62
     7
100
AcDbLine
 10
3.530385650780643
 20
9.997010175525359
 30
0.0
 11
3.502533239200745
 21
9.939904261884413
 31
0.0
  0
ARC
  5
44C
330
1F
100
AcDbEntity
  8
0
  6
CONTINUOUS
 62
     7
100
AcDbCircle
 10
3.52615530838592
 20
5.757709075234854
 30
0.0
 40
0.1062992125984255
100
AcDbArc
 50
272.5000000000008
 51
0.0000000000002394
  0
LINE
  5
44D
330
1F
100
AcDbEntity
  8
0
  6
CONTINUOUS
 62
     7
100
AcDbLine
 10
3.530385650780643
 20
5.651493361973074
 30
0.0
 11
3.530792022752866
 21
5.651511108434731
 31
0.0
  0
LINE
  5
44E
330
1F
100
AcDbEntity
  8
0
  6
CONTINUOUS
 62
     7
100
AcDbLine
 10
3.502533239200745
 20
5.70859927561402
 30
0.0
 11
3.530385650780643
 21
5.651493361973074
 31
0.0
  0
LINE
  5
44F
330
1F
100
AcDbEntity
  8
0
  6
CONTINUOUS
 62
     7
100
AcDbLine
 10
3.337178932721133
 20
7.919162366500557
 30
0.0
 11
3.337178932721133
 21
7.729341170997873
 31
0.0
  0
LINE
  5
450
330
1F
100
AcDbEntity
  8
0
  6
CONTINUOUS
 62
     7
100
AcDbLine
 10
3.337178932721133
 20
9.100264748138393
 30
0.0
 11
3.337178932721133
 21
8.910443534302586
 31
0.0
  0
LINE
  5
451
330
1F
100
AcDbEntity
  8
0
  6
CONTINUOUS
 62
     7
100
AcDbLine
 10
3.337178932721133
 20
6.34435922459417
 30
0.0
 11
3.337178932721133
 21
6.154538084090851
 31
0.0
  0
LINE
  5
452
330
1F
100
AcDbEntity
  8
0
  6
CONTINUOUS
 62
     7
100
AcDbLine
 10
3.141312788560627
 20
8.175557607100861
 30
0.0
 11
3.141312788560627
 21
7.961595943804253
 31
0.0
  0
ARC
  5
453
330
1F
100
AcDbEntity
  8
0
  6
CONTINUOUS
 62
     7
100
AcDbCircle
 10
3.471953500055454
 20
5.650326155382449
 30
0.0
 40
0.0669759623064834
100
AcDbArc
 50
63.648004629836
 51
109.3138177202714
  0
ARC
  5
454
330
1F
100
AcDbEntity
  8
0
  6
CONTINUOUS
 62
     7
100
AcDbCircle
 10
3.442500848224685
 20
5.754421306274187
 30
0.0
 40
0.0415352088674121
100
AcDbArc
 50
269.6830908793874
 51
280.1238134921053
  0
LINE
  5
455
330
1F
100
AcDbEntity
  8
0
  6
CONTINUOUS
 62
     7
100
AcDbLine
 10
3.44227111368729
 20
5.712886732751615
 30
0.0
 11
3.44227111368729
 21
5.728779349158754
 31
0.0
  0
LINE
  5
456
330
1F
100
AcDbEntity
  8
0
  6
CONTINUOUS
 62
     7
100
AcDbLine
 10
3.44227111368729
 20
5.728779349158754
 30
0.0
 11
3.502533239200741
 21
5.728779349158754
 31
0.0
  0
LWPOLYLINE
  5
457
330
1F
100
AcDbEntity
  8
0
  6
CONTINUOUS
 62
     7
100
AcDbPolyline
 90
        6
 70
   128
 43
0.0
 10
3.502533239200741
 20
5.70859927561402
 10
3.502492723002121
 20
5.708682287988387
 10
3.502369927753996
 20
5.708934111745964
 10
3.502161443495757
 20
5.709361493475481
 10
3.501869066873316
 20
5.709961059882571
 10
3.501683095688337
 20
5.710342242145788
  0
LINE
  5
458
330
1F
100
AcDbEntity
  8
0
  6
CONTINUOUS
 62
     7
100
AcDbLine
 10
3.44227111368729
 20
9.919724188339678
 30
0.0
 11
3.44227111368729
 21
9.935616804746818
 31
0.0
  0
ARC
  5
459
330
1F
100
AcDbEntity
  8
0
  6
CONTINUOUS
 62
     7
100
AcDbCircle
 10
3.442501770872608
 20
9.894092985832577
 30
0.0
 40
0.0415244595384453
100
AcDbArc
 50
79.87483137311065
 51
90.31826425539778
  0
LWPOLYLINE
  5
45A
330
1F
100
AcDbEntity
  8
0
  6
CONTINUOUS
 62
     7
100
AcDbPolyline
 90
        6
 70
   128
 43
0.0
 10
3.449801736692891
 20
9.934970745543482
 10
3.468788599021703
 20
9.932651532335231
 10
3.484738854762988
 20
9.932357469065607
 10
3.495384275119517
 20
9.933802705703444
 10
3.501274157079098
 20
9.937444690297596
 10
3.501683095688337
 20
9.938161295352646
  0
LWPOLYLINE
  5
45B
330
1F
100
AcDbEntity
  8
0
  6
CONTINUOUS
 62
     7
100
AcDbPolyline
 90
        6
 70
   128
 43
0.0
 10
3.501683095688337
 20
9.938161295352646
 10
3.502009755248073
 20
9.938830967616537
 10
3.502260735682058
 20
9.939345615004617
 10
3.502433323688306
 20
9.939699517582972
 10
3.502521396004221
 20
9.939880062163972
 10
3.502533239200741
 20
9.939904261884413
  0
LINE
  5
45C
330
1F
100
AcDbEntity
  8
0
  6
CONTINUOUS
 62
     7
100
AcDbLine
 10
3.622611995374035
 20
9.777007730345712
 30
0.0
 11
3.622611995374035
 21
5.871495807152721
 31
0.0
  0
LINE
  5
45D
330
1F
100
AcDbEntity
  8
0
  6
CONTINUOUS
 62
     7
100
AcDbLine
 10
3.632454535005511
 20
5.861653414186218
 30
0.0
 11
3.632454535005511
 21
9.786850123312216
 31
0.0
  0
LINE
  5
45E
330
1F
100
AcDbEntity
  8
0
  6
CONTINUOUS
 62
     7
100
AcDbLine
 10
3.437389388414731
 20
5.803582445027007
 30
0.0
 11
3.437389388414731
 21
5.862637536150889
 31
0.0
  0
LINE
  5
45F
330
1F
100
AcDbEntity
  8
0
  6
CONTINUOUS
 62
     7
100
AcDbLine
 10
3.437389388414731
 20
5.862637536150889
 30
0.0
 11
3.494659236828555
 21
5.862637536150889
 31
0.0
  0
LINE
  5
460
330
1F
100
AcDbEntity
  8
0
  6
CONTINUOUS
 62
     7
100
AcDbLine
 10
3.437389388414731
 20
9.785866001347542
 30
0.0
 11
3.437389388414731
 21
9.844921092471423
 31
0.0
  0
LINE
  5
461
330
1F
100
AcDbEntity
  8
0
  6
CONTINUOUS
 62
     7
100
AcDbLine
 10
3.437389388414731
 20
9.844921092471423
 30
0.0
 11
3.494659236828555
 21
9.844921092471423
 31
0.0
  0
LINE
  5
462
330
1F
100
AcDbEntity
  8
0
  6
CONTINUOUS
 62
     7
100
AcDbLine
 10
3.494659236828555
 20
9.785866001347542
 30
0.0
 11
3.437389388414731
 21
9.785866001347542
 31
0.0
  0
LINE
  5
463
330
1F
100
AcDbEntity
  8
0
  6
CONTINUOUS
 62
     7
100
AcDbLine
 10
3.449800801703692
 20
5.713536605244232
 30
0.0
 11
3.481591021127031
 21
5.649396932857868
 31
0.0
  0
ARC
  5
464
330
1F
100
AcDbEntity
  8
0
  6
CONTINUOUS
 62
     7
100
AcDbCircle
 10
3.554481122287998
 20
4.539769964455535
 30
0.0
 40
1.112018719344212
100
AcDbArc
 50
91.24244722388851
 51
93.75829431332475
  0
LINE
  5
465
330
1F
100
AcDbEntity
  8
0
  6
CONTINUOUS
 62
     7
100
AcDbLine
 10
3.481591021127031
 20
9.999106604640566
 30
0.0
 11
3.449800801703692
 21
9.934966932254198
 31
0.0
  0
ARC
  5
466
330
1F
100
AcDbEntity
  8
0
  6
CONTINUOUS
 62
     7
100
AcDbCircle
 10
3.534775678137123
 20
10.65747101771038
 30
0.0
 40
0.6605092741635584
100
AcDbArc
 50
265.3815048470248
 51
269.6177536157675
  0
ARC
  5
467
330
1F
100
AcDbEntity
  8
0
  6
CONTINUOUS
 62
     7
100
AcDbCircle
 10
3.423157045414988
 20
6.784814987895927
 30
0.0
 40
1.13692041007041
100
AcDbArc
 50
272.4664672210812
 51
272.946111130032
  0
ARC
  5
468
330
1F
100
AcDbEntity
  8
0
  6
CONTINUOUS
 62
     7
100
AcDbCircle
 10
3.423653707016443
 20
8.873823735808473
 30
0.0
 40
1.126773241239864
100
AcDbArc
 50
87.05262074258492
 51
87.5365856259272
  0
LINE
  5
469
330
1F
100
AcDbEntity
  8
0
  6
CONTINUOUS
 62
     7
100
AcDbLine
 10
3.472084050952361
 20
5.648947844712441
 30
0.0
 11
3.136391529057271
 21
5.634291174027549
 31
0.0
  0
LINE
  5
46A
330
1F
100
AcDbEntity
  8
0
  6
CONTINUOUS
 62
     7
100
AcDbLine
 10
3.136391529057271
 20
5.634291174027549
 30
0.0
 11
3.136391529057271
 21
5.689409190632852
 31
0.0
  0
LWPOLYLINE
  5
46B
330
1F
100
AcDbEntity
  8
0
  6
CONTINUOUS
 62
     7
100
AcDbPolyline
 90
        3
 70
   128
 43
0.0
 10
3.136391529057271
 20
5.714015613044026
 10
3.249951397881058
 20
5.713654083887109
 10
3.44227111368729
 20
5.712886732751615
  0
LWPOLYLINE
  5
46C
330
1F
100
AcDbEntity
  8
0
  6
CONTINUOUS
 62
     7
100
AcDbPolyline
 90
        3
 70
   128
 43
0.0
 10
3.44227111368729
 20
9.935616804746818
 10
3.328711670535668
 20
9.935136623627244
 10
3.136391529057271
 20
9.934487924454407
  0
LINE
  5
46D
330
1F
100
AcDbEntity
  8
0
  6
CONTINUOUS
 62
     7
100
AcDbLine
 10
3.136391529057271
 20
9.95909434686558
 30
0.0
 11
3.136391529057271
 21
10.01421236347088
 31
0.0
  0
LINE
  5
46E
330
1F
100
AcDbEntity
  8
0
  6
CONTINUOUS
 62
     7
100
AcDbLine
 10
3.136391529057271
 20
10.01421236347088
 30
0.0
 11
3.472084050952361
 21
9.999555692785992
 31
0.0
  0
LINE
  5
46F
330
1F
100
AcDbEntity
  8
0
  6
CONTINUOUS
 62
     7
100
AcDbLine
 10
3.44227111368729
 20
5.728779349158754
 30
0.0
 11
3.14167053679768
 21
5.728779349158754
 31
0.0
  0
LINE
  5
470
330
1F
100
AcDbEntity
  8
0
  6
CONTINUOUS
 62
     7
100
AcDbLine
 10
3.140371297119108
 20
9.844921092471423
 30
0.0
 11
3.437389388414731
 21
9.844921092471423
 31
0.0
  0
LINE
  5
471
330
1F
100
AcDbEntity
  8
0
  6
CONTINUOUS
 62
     7
100
AcDbLine
 10
3.437389388414731
 20
9.785866001347542
 30
0.0
 11
3.140371297119108
 21
9.785866001347542
 31
0.0
  0
LINE
  5
472
330
1F
100
AcDbEntity
  8
0
  6
CONTINUOUS
 62
     7
100
AcDbLine
 10
3.140371297119108
 20
5.862637536150889
 30
0.0
 11
3.437389388414731
 21
5.862637536150889
 31
0.0
  0
LINE
  5
473
330
1F
100
AcDbEntity
  8
0
  6
CONTINUOUS
 62
     7
100
AcDbLine
 10
3.532404310794238
 20
5.803582445027007
 30
0.0
 11
3.532404310794238
 21
5.728779349158754
 31
0.0
  0
LINE
  5
474
330
1F
100
AcDbEntity
  8
0
  6
CONTINUOUS
 62
     7
100
AcDbLine
 10
3.532404310794238
 20
9.919724188339678
 30
0.0
 11
3.532404310794238
 21
9.844921092471423
 31
0.0
  0
LINE
  5
475
330
1F
100
AcDbEntity
  8
0
  6
CONTINUOUS
 62
     7
100
AcDbLine
 10
2.785997813345795
 20
5.803582445027007
 30
0.0
 11
2.785997813345795
 21
5.862637536150889
 31
0.0
  0
LINE
  5
476
330
1F
100
AcDbEntity
  8
0
  6
CONTINUOUS
 62
     7
100
AcDbLine
 10
2.746627764818623
 20
5.803582445027007
 30
0.0
 11
2.785997813345795
 21
5.803582445027007
 31
0.0
  0
LINE
  5
477
330
1F
100
AcDbEntity
  8
0
  6
CONTINUOUS
 62
     7
100
AcDbLine
 10
2.746627764818623
 20
5.728779349158754
 30
0.0
 11
2.746627764818623
 21
5.803582445027007
 31
0.0
  0
LINE
  5
478
330
1F
100
AcDbEntity
  8
0
  6
CONTINUOUS
 62
     7
100
AcDbLine
 10
2.746627764818623
 20
5.728779349158754
 30
0.0
 11
2.785997923344524
 21
5.728779349158754
 31
0.0
  0
LINE
  5
479
330
1F
100
AcDbEntity
  8
0
  6
CONTINUOUS
 62
     7
100
AcDbLine
 10
2.785997923344524
 20
5.728779349158754
 30
0.0
 11
2.785997923344524
 21
5.70859927561402
 31
0.0
  0
LINE
  5
47A
330
1F
100
AcDbEntity
  8
0
  6
CONTINUOUS
 62
     7
100
AcDbLine
 10
2.785997923344524
 20
9.939904261884413
 30
0.0
 11
2.785997923344524
 21
9.919724188339678
 31
0.0
  0
LINE
  5
47B
330
1F
100
AcDbEntity
  8
0
  6
CONTINUOUS
 62
     7
100
AcDbLine
 10
2.785997923344524
 20
9.919724188339678
 30
0.0
 11
2.746627764818623
 21
9.919724188339678
 31
0.0
  0
LINE
  5
47C
330
1F
100
AcDbEntity
  8
0
  6
CONTINUOUS
 62
     7
100
AcDbLine
 10
2.746627764818623
 20
9.844921092471423
 30
0.0
 11
2.746627764818623
 21
9.919724188339678
 31
0.0
  0
LINE
  5
47D
330
1F
100
AcDbEntity
  8
0
  6
CONTINUOUS
 62
     7
100
AcDbLine
 10
2.785997813345795
 20
9.844921092471423
 30
0.0
 11
2.746627764818623
 21
9.844921092471423
 31
0.0
  0
LINE
  5
47E
330
1F
100
AcDbEntity
  8
0
  6
CONTINUOUS
 62
     7
100
AcDbLine
 10
2.785997813345795
 20
9.785866001347542
 30
0.0
 11
2.785997813345795
 21
9.844921092471423
 31
0.0
  0
LINE
  5
47F
330
1F
100
AcDbEntity
  8
0
  6
CONTINUOUS
 62
     7
100
AcDbLine
 10
2.746627764818623
 20
9.785866001347542
 30
0.0
 11
2.785997813345795
 21
9.785866001347542
 31
0.0
  0
LINE
  5
480
330
1F
100
AcDbEntity
  8
0
  6
CONTINUOUS
 62
     7
100
AcDbLine
 10
2.746627764818623
 20
5.862637536150889
 30
0.0
 11
2.746627764818623
 21
9.785866001347542
 31
0.0
  0
LINE
  5
481
330
1F
100
AcDbEntity
  8
0
  6
CONTINUOUS
 62
     7
100
AcDbLine
 10
2.785997813345795
 20
5.862637536150889
 30
0.0
 11
2.746627764818623
 21
5.862637536150889
 31
0.0
  0
LINE
  5
482
330
1F
100
AcDbEntity
  8
0
  6
CONTINUOUS
 62
     7
100
AcDbLine
 10
2.785997923344524
 20
9.939904261884413
 30
0.0
 11
2.75798124699556
 21
9.997346918301943
 31
0.0
  0
LINE
  5
483
330
1F
100
AcDbEntity
  8
0
  6
CONTINUOUS
 62
     7
100
AcDbLine
 10
2.75798124699556
 20
9.997346918301943
 30
0.0
 11
2.749865064087731
 21
9.996992429063702
 31
0.0
  0
LINE
  5
484
330
1F
100
AcDbEntity
  8
0
  6
CONTINUOUS
 62
     7
100
AcDbLine
 10
2.75798124699556
 20
5.651156619196489
 30
0.0
 11
2.785997923344524
 21
5.70859927561402
 31
0.0
  0
LINE
  5
485
330
1F
100
AcDbEntity
  8
0
  6
CONTINUOUS
 62
     7
100
AcDbLine
 10
2.749865064087731
 20
5.651511108434731
 30
0.0
 11
2.75798124699556
 21
5.651156619196489
 31
0.0
  0
ARC
  5
486
330
1F
100
AcDbEntity
  8
0
  6
CONTINUOUS
 62
     7
100
AcDbCircle
 10
2.754501765078833
 20
9.890794462263578
 30
0.0
 40
0.1062992125984246
100
AcDbArc
 50
92.49999999999978
 51
180.0000000000018
  0
LINE
  5
487
330
1F
100
AcDbEntity
  8
0
  6
CONTINUOUS
 62
     7
100
AcDbLine
 10
2.648202551835082
 20
5.757709014960787
 30
0.0
 11
2.648202551835082
 21
9.890794522537648
 31
0.0
  0
ARC
  5
488
330
1F
100
AcDbEntity
  8
0
  6
CONTINUOUS
 62
     7
100
AcDbCircle
 10
2.754501765078833
 20
5.757709075234854
 30
0.0
 40
0.1062992125984254
100
AcDbArc
 50
179.9999999999996
 51
267.5000000000009
  0
LINE
  5
489
330
1F
100
AcDbEntity
  8
0
  6
CONTINUOUS
 62
     7
100
AcDbLine
 10
2.785997813345794
 20
9.328055543346355
 30
0.0
 11
2.785997813345794
 21
9.091835032185855
 31
0.0
  0
LINE
  5
48A
330
1F
100
AcDbEntity
  8
0
  6
CONTINUOUS
 62
     7
100
AcDbLine
 10
3.139344284530122
 20
8.17539150901964
 30
0.0
 11
3.139344284530122
 21
7.961773445087076
 31
0.0
  0
LINE
  5
48B
330
1F
100
AcDbEntity
  8
0
  6
CONTINUOUS
 62
     7
100
AcDbLine
 10
2.84598010209194
 20
5.728779349158754
 30
0.0
 11
2.84598010209194
 21
5.713112303479137
 31
0.0
  0
ARC
  5
48C
330
1F
100
AcDbEntity
  8
0
  6
CONTINUOUS
 62
     7
100
AcDbCircle
 10
2.845768564463392
 20
5.755322394853391
 30
0.0
 40
0.0422106214357376
100
AcDbArc
 50
260.2047225566449
 51
270.2871377782485
  0
LWPOLYLINE
  5
48D
330
1F
100
AcDbEntity
  8
0
  6
CONTINUOUS
 62
     7
100
AcDbPolyline
 90
        6
 70
   128
 43
0.0
 10
2.838587344160376
 20
5.713727123043355
 10
2.819747000138971
 20
5.715972563770499
 10
2.803851927093545
 20
5.716230547456916
 10
2.79321354665569
 20
5.714776364255764
 10
2.787291031739755
 20
5.711118686509569
 10
2.786862440024216
 20
5.710371868470208
  0
LINE
  5
48E
330
1F
100
AcDbEntity
  8
0
  6
CONTINUOUS
 62
     7
100
AcDbLine
 10
2.78599792334452
 20
5.728779349158754
 30
0.0
 11
2.84598010209194
 21
5.728779349158754
 31
0.0
  0
LWPOLYLINE
  5
48F
330
1F
100
AcDbEntity
  8
0
  6
CONTINUOUS
 62
     7
100
AcDbPolyline
 90
        5
 70
   128
 43
0.0
 10
2.786862440024216
 20
5.710371868470208
 10
2.786493357621221
 20
5.709615077212727
 10
2.786222577415964
 20
5.709059950292266
 10
2.786054462691373
 20
5.708715287607172
 10
2.78599792334452
 20
5.70859927561402
  0
ARC
  5
490
330
1F
100
AcDbEntity
  8
0
  6
CONTINUOUS
 62
     7
100
AcDbCircle
 10
2.845767043523476
 20
9.893199430840887
 30
0.0
 40
0.0421923411225204
100
AcDbArc
 50
89.71067240361604
 51
99.79746726147901
  0
LINE
  5
491
330
1F
100
AcDbEntity
  8
0
  6
CONTINUOUS
 62
     7
100
AcDbLine
 10
2.84598010209194
 20
9.935391234019297
 30
0.0
 11
2.84598010209194
 21
9.919724188339678
 31
0.0
  0
ARC
  5
492
330
1F
100
AcDbEntity
  8
0
  6
CONTINUOUS
 62
     7
100
AcDbCircle
 10
2.816719588933328
 20
9.998036644984091
 30
0.0
 40
0.066933216606212
100
AcDbArc
 50
243.5079444683363
 51
289.0692107027678
  0
LINE
  5
493
330
1F
100
AcDbEntity
  8
0
  6
CONTINUOUS
 62
     7
100
AcDbLine
 10
2.786862440024216
 20
9.938131669028225
 30
0.0
 11
2.78599792334452
 21
9.939904261884413
 31
0.0
  0
LINE
  5
494
330
1F
100
AcDbEntity
  8
0
  6
CONTINUOUS
 62
     7
100
AcDbLine
 10
2.843228520545111
 20
9.844921092471423
 30
0.0
 11
2.843228520545111
 21
9.785866001347542
 31
0.0
  0
LINE
  5
495
330
1F
100
AcDbEntity
  8
0
  6
CONTINUOUS
 62
     7
100
AcDbLine
 10
2.785997813345791
 20
9.844921092471423
 30
0.0
 11
2.843228520545111
 21
9.844921092471423
 31
0.0
  0
LINE
  5
496
330
1F
100
AcDbEntity
  8
0
  6
CONTINUOUS
 62
     7
100
AcDbLine
 10
2.843228520545111
 20
9.785866001347542
 30
0.0
 11
2.785997813345791
 21
9.785866001347542
 31
0.0
  0
LINE
  5
497
330
1F
100
AcDbEntity
  8
0
  6
CONTINUOUS
 62
     7
100
AcDbLine
 10
2.843228520545111
 20
5.862637536150889
 30
0.0
 11
2.843228520545111
 21
5.803582445027007
 31
0.0
  0
LINE
  5
498
330
1F
100
AcDbEntity
  8
0
  6
CONTINUOUS
 62
     7
100
AcDbLine
 10
2.785997813345791
 20
5.862637536150889
 30
0.0
 11
2.843228520545111
 21
5.862637536150889
 31
0.0
  0
ARC
  5
499
330
1F
100
AcDbEntity
  8
0
  6
CONTINUOUS
 62
     7
100
AcDbCircle
 10
2.656070424788865
 20
12.91402346538808
 30
0.0
 40
2.918439709564473
100
AcDbArc
 50
272.0405899892613
 51
272.9567335565541
  0
LINE
  5
49A
330
1F
100
AcDbEntity
  8
0
  6
CONTINUOUS
 62
     7
100
AcDbLine
 10
2.83858998412988
 20
9.934765707912095
 30
0.0
 11
2.806608898578108
 21
9.999468867122343
 31
0.0
  0
LWPOLYLINE
  5
49B
330
1F
100
AcDbEntity
  8
0
  6
CONTINUOUS
 62
     7
100
AcDbPolyline
 90
        5
 70
   128
 43
0.0
 10
2.759988723805013
 20
9.997434477290457
 10
2.759107047323548
 20
9.997396051067692
 10
2.758481411217616
 20
9.997368771382832
 10
2.758105545559649
 20
9.997352344905923
 10
2.757981246995556
 20
9.997346918301943
  0
LINE
  5
49C
330
1F
100
AcDbEntity
  8
0
  6
CONTINUOUS
 62
     7
100
AcDbLine
 10
2.806608898578108
 20
5.64903467037609
 30
0.0
 11
2.83858998412988
 21
5.71373782958634
 31
0.0
  0
ARC
  5
49D
330
1F
100
AcDbEntity
  8
0
  6
CONTINUOUS
 62
     7
100
AcDbCircle
 10
2.644092169310751
 20
2.459985796176376
 30
0.0
 40
3.193187186703312
100
AcDbArc
 50
87.08268048493334
 51
87.91999596925704
  0
LWPOLYLINE
  5
49E
330
1F
100
AcDbEntity
  8
0
  6
CONTINUOUS
 62
     7
100
AcDbPolyline
 90
        5
 70
   128
 43
0.0
 10
2.757981246995556
 20
5.651156619196489
 10
2.758100742281803
 20
5.651151485922454
 10
2.758465608066843
 20
5.651135499440465
 10
2.75909179416642
 20
5.651108219755602
 10
2.759988723805013
 20
5.651069060207976
  0
ARC
  5
49F
330
1F
100
AcDbEntity
  8
0
  6
CONTINUOUS
 62
     7
100
AcDbCircle
 10
2.868270204763602
 20
7.021654009234528
 30
0.0
 40
1.374003626665039
100
AcDbArc
 50
267.4278673854183
 51
267.5098516593517
  0
ARC
  5
4A0
330
1F
100
AcDbEntity
  8
0
  6
CONTINUOUS
 62
     7
100
AcDbCircle
 10
2.868136824048814
 20
8.629866816311428
 30
0.0
 40
1.37098339275069
100
AcDbArc
 50
92.4900580362007
 51
92.57222291897898
  0
LINE
  5
4A1
330
1F
100
AcDbEntity
  8
0
  6
CONTINUOUS
 62
     7
100
AcDbLine
 10
2.808573035888228
 20
9.999555692785992
 30
0.0
 11
3.124580504301319
 21
10.01335290673273
 31
0.0
  0
LINE
  5
4A2
330
1F
100
AcDbEntity
  8
0
  6
CONTINUOUS
 62
     7
100
AcDbLine
 10
3.124580504301319
 20
10.01335290673273
 30
0.0
 11
3.124580504301319
 21
9.95909434686558
 31
0.0
  0
LINE
  5
4A3
330
1F
100
AcDbEntity
  8
0
  6
CONTINUOUS
 62
     7
100
AcDbLine
 10
3.144265544606386
 20
9.95909434686558
 30
0.0
 11
3.124580504301319
 21
9.95909434686558
 31
0.0
  0
LINE
  5
4A4
330
1F
100
AcDbEntity
  8
0
  6
CONTINUOUS
 62
     7
100
AcDbLine
 10
3.144265544606386
 20
9.95909434686558
 30
0.0
 11
3.144265544606386
 21
9.934487924454407
 31
0.0
  0
ARC
  5
4A5
330
1F
100
AcDbEntity
  8
0
  6
CONTINUOUS
 62
     7
100
AcDbCircle
 10
3.726004491251802
 20
251.3150433134033
 30
0.0
 40
241.381256274985
100
AcDbArc
 50
269.7911113901518
 51
269.8619122662397
  0
ARC
  5
4A6
330
1F
100
AcDbEntity
  8
0
  6
CONTINUOUS
 62
     7
100
AcDbCircle
 10
3.703021119068366
 20
-228.0761681062058
 30
0.0
 40
233.7908513047143
100
AcDbArc
 50
90.13693835747298
 51
90.21003791573049
  0
LINE
  5
4A7
330
1F
100
AcDbEntity
  8
0
  6
CONTINUOUS
 62
     7
100
AcDbLine
 10
3.144265544606386
 20
5.714015613044026
 30
0.0
 11
3.144265544606386
 21
5.689409190632852
 31
0.0
  0
LINE
  5
4A8
330
1F
100
AcDbEntity
  8
0
  6
CONTINUOUS
 62
     7
100
AcDbLine
 10
3.124580504301319
 20
5.689409190632852
 30
0.0
 11
3.144265544606386
 21
5.689409190632852
 31
0.0
  0
LINE
  5
4A9
330
1F
100
AcDbEntity
  8
0
  6
CONTINUOUS
 62
     7
100
AcDbLine
 10
3.124580504301319
 20
5.689409190632852
 30
0.0
 11
3.124580504301319
 21
5.6351506307657
 31
0.0
  0
LINE
  5
4AA
330
1F
100
AcDbEntity
  8
0
  6
CONTINUOUS
 62
     7
100
AcDbLine
 10
3.124580504301319
 20
5.6351506307657
 30
0.0
 11
2.808573035888228
 21
5.648947844712441
 31
0.0
  0
LINE
  5
4AB
330
1F
100
AcDbEntity
  8
0
  6
CONTINUOUS
 62
     7
100
AcDbLine
 10
3.14167053679768
 20
5.728779349158754
 30
0.0
 11
2.84598010209194
 21
5.728779349158754
 31
0.0
  0
LINE
  5
4AC
330
1F
100
AcDbEntity
  8
0
  6
CONTINUOUS
 62
     7
100
AcDbLine
 10
3.140371297119108
 20
9.844921092471423
 30
0.0
 11
2.843228520545111
 21
9.844921092471423
 31
0.0
  0
LINE
  5
4AD
330
1F
100
AcDbEntity
  8
0
  6
CONTINUOUS
 62
     7
100
AcDbLine
 10
3.140371297119108
 20
9.785866001347542
 30
0.0
 11
2.985793106960176
 21
9.785866001347542
 31
0.0
  0
LINE
  5
4AE
330
1F
100
AcDbEntity
  8
0
  6
CONTINUOUS
 62
     7
100
AcDbLine
 10
2.923793111522747
 20
9.785866001347542
 30
0.0
 11
2.843228520545111
 21
9.785866001347542
 31
0.0
  0
LINE
  5
4AF
330
1F
100
AcDbEntity
  8
0
  6
CONTINUOUS
 62
     7
100
AcDbLine
 10
2.843228520545111
 20
5.862637536150889
 30
0.0
 11
2.923793111522747
 21
5.862637536150889
 31
0.0
  0
LINE
  5
4B0
330
1F
100
AcDbEntity
  8
0
  6
CONTINUOUS
 62
     7
100
AcDbLine
 10
2.985793106960176
 20
5.862637536150889
 30
0.0
 11
3.140371297119108
 21
5.862637536150889
 31
0.0
  0
LINE
  5
4B1
330
1F
100
AcDbEntity
  8
0
  6
CONTINUOUS
 62
     7
100
AcDbLine
 10
3.439038727694756
 20
9.785866001347542
 30
0.0
 11
3.439038727694756
 21
9.10115368453599
 31
0.0
  0
LINE
  5
4B2
330
1F
100
AcDbEntity
  8
0
  6
CONTINUOUS
 62
     7
100
AcDbLine
 10
3.439038727694756
 20
8.909554597904987
 30
0.0
 11
3.439038727694756
 21
8.178155813752821
 31
0.0
  0
LINE
  5
4B3
330
1F
100
AcDbEntity
  8
0
  6
CONTINUOUS
 62
     7
100
AcDbLine
 10
3.439038727694756
 20
7.95899772798573
 30
0.0
 11
3.439038727694756
 21
7.920051284565033
 31
0.0
  0
LINE
  5
4B4
330
1F
100
AcDbEntity
  8
0
  6
CONTINUOUS
 62
     7
100
AcDbLine
 10
3.439038727694756
 20
7.728452252933397
 30
0.0
 11
3.439038727694756
 21
6.345248160991769
 31
0.0
  0
LINE
  5
4B5
330
1F
100
AcDbEntity
  8
0
  6
CONTINUOUS
 62
     7
100
AcDbLine
 10
3.439038727694756
 20
6.153649147693252
 30
0.0
 11
3.439038727694756
 21
5.862637536150889
 31
0.0
  0
LINE
  5
4B6
330
1F
100
AcDbEntity
  8
0
  6
CONTINUOUS
 62
     7
100
AcDbLine
 10
2.831346512807078
 20
9.785866001347542
 30
0.0
 11
2.831346512807078
 21
9.101071552151456
 31
0.0
  0
LINE
  5
4B7
330
1F
100
AcDbEntity
  8
0
  6
CONTINUOUS
 62
     7
100
AcDbLine
 10
2.831346512807078
 20
8.909636803622007
 30
0.0
 11
2.831346512807078
 21
8.178079364635967
 31
0.0
  0
LINE
  5
4B8
330
1F
100
AcDbEntity
  8
0
  6
CONTINUOUS
 62
     7
100
AcDbLine
 10
2.831346512807078
 20
7.959085589470746
 30
0.0
 11
2.831346512807078
 21
7.919969133847379
 31
0.0
  0
LINE
  5
4B9
330
1F
100
AcDbEntity
  8
0
  6
CONTINUOUS
 62
     7
100
AcDbLine
 10
2.831346512807078
 20
7.728534403651052
 30
0.0
 11
2.831346512807078
 21
6.345166028607236
 31
0.0
  0
LINE
  5
4BA
330
1F
100
AcDbEntity
  8
0
  6
CONTINUOUS
 62
     7
100
AcDbLine
 10
2.831346512807078
 20
6.153731280077787
 30
0.0
 11
2.831346512807078
 21
5.862637536150889
 31
0.0
  0
LINE
  5
4BB
330
1F
100
AcDbEntity
  8
0
  6
CONTINUOUS
 62
     7
100
AcDbLine
 10
2.756126778418536
 20
9.844921092471423
 30
0.0
 11
2.756126778418536
 21
9.860669097215795
 31
0.0
  0
LINE
  5
4BC
330
1F
100
AcDbEntity
  8
0
  6
CONTINUOUS
 62
     7
100
AcDbLine
 10
2.756126778418536
 20
5.728779349158754
 30
0.0
 11
2.756126778418536
 21
5.744527353903127
 31
0.0
  0
HATCH
  5
4BD
330
1F
100
AcDbEntity
  8
0
  6
CONTINUOUS
 62
     7
100
AcDbHatch
 10
0.0
 20
0.0
 30
0.0
210
0.0
220
0.0
230
1.0
  2
ANSI31
 70
     0
 71
     0
 91
        1
 92
        0
 93
       20
 72
     1
 10
2.785997828070958
 20
5.86263759552087
 11
2.746627749330802
 21
5.862637595520869
 72
     1
 10
2.746627749330802
 20
5.862637595520869
 11
2.746627749330802
 21
9.785865941977563
 72
     1
 10
2.746627749330802
 20
9.785865941977563
 11
2.785997828070958
 21
9.78586594197756
 72
     1
 10
2.785997828070958
 20
9.78586594197756
 11
2.785997828070958
 21
9.844921060087797
 72
     1
 10
2.785997828070958
 20
9.844921060087797
 11
2.746627749330802
 21
9.844921060087797
 72
     1
 10
2.746627749330802
 20
9.844921060087797
 11
2.746627749330802
 21
9.919724209694098
 72
     1
 10
2.746627749330802
 20
9.919724209694098
 11
2.785997908968537
 21
9.919724209694098
 72
     1
 10
2.785997908968537
 20
9.919724209694098
 11
2.785997908993779
 21
9.939904199698792
 72
     1
 10
2.785997908993779
 20
9.939904199698792
 11
2.757981250535171
 21
9.997346862160579
 72
     1
 10
2.757981250535171
 20
9.997346862160579
 11
2.749865058547872
 21
9.996992501565586
 72
     2
 10
2.754501765078833
 20
9.890794462263576
 40
0.1062992125984252
 50
92.49999999999952
 51
180.0
 73
     1
 72
     1
 10
2.648202552480408
 20
9.890794462263576
 11
2.648202552480408
 21
5.757709075234854
 72
     2
 10
2.754501765078833
 20
5.757709075234854
 40
0.1062992125984252
 50
180.0
 51
267.5000000000009
 73
     1
 72
     1
 10
2.749865058547872
 20
5.651511035932847
 11
2.757981250535285
 21
5.651156675337849
 72
     1
 10
2.757981250535285
 20
5.651156675337849
 11
2.785997908993779
 21
5.708599337799637
 72
     1
 10
2.785997908993779
 20
5.708599337799637
 11
2.785997908968537
 21
5.728779327804335
 72
     1
 10
2.785997908968537
 20
5.728779327804335
 11
2.746627749330802
 21
5.728779327804335
 72
     1
 10
2.746627749330802
 20
5.728779327804335
 11
2.746627749330802
 21
5.803582477410633
 72
     1
 10
2.746627749330802
 20
5.803582477410633
 11
2.785997828070958
 21
5.803582477410632
 72
     1
 10
2.785997828070958
 20
5.803582477410632
 11
2.785997828070958
 21
5.86263759552087
 97
        0
 75
     0
 76
     1
 52
0.0
 41
1.0
 77
     0
 78
     1
 53
45.0
 43
0.0
 44
0.0
 45
-0.0883883476483184
 46
0.0883883476483185
 79
     0
 98
        1
 10
0.0
 20
0.0
  0
HATCH
  5
4BE
330
1F
100
AcDbEntity
  8
0
  6
CONTINUOUS
 62
     7
100
AcDbHatch
 10
0.0
 20
0.0
 30
0.0
210
0.0
220
0.0
230
1.0
  2
ANSI31
 70
     0
 71
     0
 91
        1
 92
        0
 93
        4
 72
     1
 10
2.923793103661509
 20
5.824251768749214
 11
2.985793103661509
 21
5.824251768749214
 72
     1
 10
2.985793103661509
 20
5.824251768749214
 11
2.985793103661509
 21
9.826220272686224
 72
     1
 10
2.985793103661509
 20
9.826220272686224
 11
2.923793103661509
 21
9.826220272686224
 72
     1
 10
2.923793103661509
 20
9.826220272686224
 11
2.923793103661509
 21
5.824251768749214
 97
        0
 75
     0
 76
     1
 52
0.0
 41
1.0
 77
     0
 78
     1
 53
45.0
 43
0.0
 44
0.0
 45
-0.0883883476483184
 46
0.0883883476483185
 79
     0
 98
        1
 10
0.0
 20
0.0
  0
HATCH
  5
4BF
330
1F
100
AcDbEntity
  8
0
  6
CONTINUOUS
 62
     7
100
AcDbHatch
 10
0.0
 20
0.0
 30
0.0
210
0.0
220
0.0
230
1.0
  2
ANSI31
 70
     0
 71
     0
 91
        1
 92
        0
 93
        4
 72
     1
 10
3.528123812322928
 20
9.86066909158386
 11
3.528123812322928
 21
9.919724209694098
 72
     1
 10
3.528123812322928
 20
9.919724209694098
 11
2.746627749330802
 21
9.919724209694098
 72
     1
 10
2.746627749330802
 20
9.919724209694098
 11
2.746627749330802
 21
9.86066909158386
 72
     1
 10
2.746627749330802
 20
9.86066909158386
 11
3.528123812322928
 21
9.86066909158386
 97
        0
 75
     0
 76
     1
 52
90.00000000000019
 41
1.0
 77
     0
 78
     1
 53
135.0000000000002
 43
0.0
 44
0.0
 45
-0.0883883476483182
 46
-0.0883883476483188
 79
     0
 98
        1
 10
0.0
 20
0.0
  0
HATCH
  5
4C0
330
1F
100
AcDbEntity
  8
0
  6
CONTINUOUS
 62
     7
100
AcDbHatch
 10
0.0
 20
0.0
 30
0.0
210
0.0
220
0.0
230
1.0
  2
ANSI31
 70
     0
 71
     0
 91
        1
 92
        0
 93
        4
 72
     1
 10
3.528123812322928
 20
5.744527359300398
 11
3.528123812322928
 21
5.803582477410632
 72
     1
 10
3.528123812322928
 20
5.803582477410632
 11
2.746627749330802
 21
5.803582477410632
 72
     1
 10
2.746627749330802
 20
5.803582477410632
 11
2.746627749330802
 21
5.744527359300398
 72
     1
 10
2.746627749330802
 20
5.744527359300398
 11
3.528123812322928
 21
5.744527359300398
 97
        0
 75
     0
 76
     1
 52
90.00000000000019
 41
1.0
 77
     0
 78
     1
 53
135.0000000000002
 43
0.0
 44
0.0
 45
-0.0883883476483182
 46
-0.0883883476483188
 79
     0
 98
        1
 10
0.0
 20
0.0
  0
HATCH
  5
4C1
330
1F
100
AcDbEntity
  8
0
  6
CONTINUOUS
 62
     7
100
AcDbHatch
 10
0.0
 20
0.0
 30
0.0
210
0.0
220
0.0
230
1.0
  2
ANSI31
 70
     0
 71
     0
 91
        1
 92
        0
 93
       26
 72
     1
 10
3.494659245393794
 20
9.78586594197756
 11
3.514344284763873
 21
9.785865941977563
 72
     1
 10
3.514344284763873
 20
9.785865941977563
 11
3.514344284763873
 21
5.862637595520869
 72
     1
 10
3.514344284763873
 20
5.862637595520869
 11
3.494659245393794
 21
5.862637595520869
 72
     1
 10
3.494659245393794
 20
5.862637595520869
 11
3.494659245393794
 21
5.803582477410632
 72
     1
 10
3.494659245393794
 20
5.803582477410632
 11
3.541903339881982
 21
5.803582477410633
 72
     1
 10
3.541903339881982
 20
5.803582477410633
 11
3.541903339881982
 21
5.728779327804335
 72
     1
 10
3.541903339881982
 20
5.728779327804335
 11
3.502533241686426
 21
5.728779327804335
 72
     1
 10
3.502533241686426
 20
5.728779327804335
 11
3.502533241657157
 21
5.708599211832767
 72
     1
 10
3.502533241657157
 20
5.708599211832767
 11
3.530385658764613
 21
5.651493294040081
 72
     1
 10
3.530385658764613
 20
5.651493294040081
 11
3.530792014916881
 21
5.651511035932847
 72
     2
 10
3.52615530838592
 20
5.757709075234854
 40
0.1062992125984252
 50
272.5000000000008
 51
360.0000000000008
 73
     1
 72
     1
 10
3.632454520984345
 20
5.757709075234854
 11
3.632454520984345
 21
5.861653343552363
 72
     2
 10
3.622612001299306
 20
5.861653343552365
 40
0.0098425196850394
 50
359.9999999999956
 51
450.0000000000007
 73
     1
 72
     1
 10
3.622612001299306
 20
5.871495863237404
 11
3.602926961929227
 21
5.871495863237404
 72
     1
 10
3.602926961929227
 20
5.871495863237404
 11
3.602926961929227
 21
9.777007674261026
 72
     1
 10
3.602926961929227
 20
9.777007674261026
 11
3.622612001299306
 21
9.777007674261026
 72
     2
 10
3.622612001299306
 20
9.786850193946067
 40
0.0098425196850394
 50
270.0000000000008
 51
360.0000000000008
 73
     1
 72
     1
 10
3.632454520984345
 20
9.786850193946067
 11
3.632454520984345
 21
9.890794462263576
 72
     2
 10
3.52615530838592
 20
9.890794462263576
 40
0.1062992125984252
 50
0.0
 51
87.50000000000001
 73
     1
 72
     1
 10
3.530792014916881
 20
9.996992501565586
 11
3.530385658764613
 21
9.997010243458351
 72
     1
 10
3.530385658764613
 20
9.997010243458351
 11
3.502533241654345
 21
9.939904325659901
 72
     1
 10
3.502533241654345
 20
9.939904325659901
 11
3.502533241686426
 21
9.919724209694098
 72
     1
 10
3.502533241686426
 20
9.919724209694098
 11
3.541903339881982
 21
9.919724209694098
 72
     1
 10
3.541903339881982
 20
9.919724209694098
 11
3.541903339881982
 21
9.844921060087797
 72
     1
 10
3.541903339881982
 20
9.844921060087797
 11
3.494659245393794
 21
9.844921060087797
 72
     1
 10
3.494659245393794
 20
9.844921060087797
 11
3.494659245393794
 21
9.78586594197756
 97
        0
 75
     0
 76
     1
 52
0.0
 41
1.0
 77
     0
 78
     1
 53
45.0
 43
0.0
 44
0.0
 45
-0.0883883476483184
 46
0.0883883476483185
 79
     0
 98
        1
 10
0.0
 20
0.0
  0
DIMENSION
  5
4C2
330
1F
100
AcDbEntity
  8
0
  6
CONTINUOUS
 62
     7
100
AcDbDimension
  2
*D33
 10
2.746627749330802
 20
11.01889241541227
 30
0.0
 11
2.018222346322228
 21
11.01889241541227
 31
0.0
 70
   160
  3
SLDDIMSTYLE4
100
AcDbAlignedDimension
 13
2.923793103661509
 23
9.826220272686224
 33
0.0
 14
2.746627749330802
 24
9.785865941977563
 34
0.0
100
AcDbRotatedDimension
  0
DIMENSION
  5
4D4
330
1F
100
AcDbEntity
  8
0
  6
CONTINUOUS
 62
     7
100
AcDbDimension
  2
*D34
 10
3.514344284763873
 20
11.9741800752638
 30
0.0
 11
2.087611041101502
 21
11.9741800752638
 31
0.0
 70
   160
  3
SLDDIMSTYLE2
100
AcDbAlignedDimension
 13
2.746627749330802
 23
9.785865941977563
 33
0.0
 14
3.514344284763873
 24
9.785865941977563
 34
0.0
100
AcDbRotatedDimension
  0
DIMENSION
  5
4E6
330
1F
100
AcDbEntity
  8
0
  6
CONTINUOUS
 62
     7
100
AcDbDimension
  2
*D35
 10
3.337178930434231
 20
11.5890196064516
 30
0.0
 11
1.604799778061942
 21
11.5890196064516
 31
0.0
 70
   160
  3
SLDDIMSTYLE2
100
AcDbAlignedDimension
 13
2.923793103661509
 23
9.826220272686224
 33
0.0
 14
3.337178930434231
 24
9.100264725244755
 34
0.0
100
AcDbRotatedDimension
  0
MTEXT
  5
4F8
330
1F
100
AcDbEntity
  8
0
  6
CONTINUOUS
 62
     7
100
AcDbMText
 10
2.601999240956065
 20
5.130557533697554
 30
0.0
 40
0.125
 41
0.0
 71
     1
 72
     1
  1
SECTION G-G
  7
SLDTEXTSTYLE0
1001
ACAD
1000
MTEXTBEGIN
1070
    73
1070
     1
1070
    44
1040
1.0
1070
    74
1070
     0
1000
MTEXTEND
  0
INSERT
  5
4FD
330
1F
100
AcDbEntity
  8
0
  6
CONTINUOUS
 62
     7
100
AcDbBlockReference
  2
SW_NOTE_8
 10
4.598301182443775
 20
10.40117285481374
 30
0.0
  0
LEADER
  5
4FE
330
1F
100
AcDbEntity
  8
0
  6
CONTINUOUS
 62
     7
100
AcDbLeader
  3
SLDDIMSTYLE1
 76
     2
 10
3.622612001299301
 20
9.62983402257684
 30
0.0
 10
4.598301182443775
 20
10.40117285481374
 30
0.0
1001
ACAD
1000
DSTYLE
1002
{
1070
     6
1000

1002
}
  0
INSERT
  5
503
330
1F
100
AcDbEntity
  8
0
  6
CONTINUOUS
 62
     7
100
AcDbBlockReference
  2
SW_NOTE_9
 10
1.964511221944406
 20
9.589463926716042
 30
0.0
  0
LEADER
  5
504
330
1F
100
AcDbEntity
  8
0
  6
CONTINUOUS
 62
     7
100
AcDbLeader
  3
SLDDIMSTYLE1
 76
     2
 10
2.648202552480408
 20
9.330529515110033
 30
0.0
 10
1.964511221944406
 20
9.589463926716042
 30
0.0
1001
ACAD
1000
DSTYLE
1002
{
1070
     6
1000

1002
}
  0
INSERT
  5
50B
102
{ACAD_REACTORS
330
50C
102
}
330
1F
100
AcDbEntity
  8
0
  6
CONTINUOUS
 62
     7
100
AcDbBlockReference
  2
SW_NOTE_10
 10
1.842277928863828
 20
8.553919440145907
 30
0.0
  0
LEADER
  5
50C
330
1F
100
AcDbEntity
  8
0
  6
CONTINUOUS
 62
     7
100
AcDbLeader
  3
SLDDIMSTYLE1
 73
     2
 76
     2
 10
2.923793103661509
 20
8.721289936123081
 30
0.0
 10
1.842277928863828
 20
8.553919440145907
 30
0.0
340
50B
1001
ACAD
1000
DSTYLE
1002
{
1070
     6
1000

1002
}
  0
INSERT
  5
511
330
1F
100
AcDbEntity
  8
0
  6
CONTINUOUS
 62
     7
100
AcDbBlockReference
  2
SW_NOTE_11
 10
4.100494449825228
 20
11.1301358331491
 30
0.0
  0
LEADER
  5
512
330
1F
100
AcDbEntity
  8
0
  6
CONTINUOUS
 62
     7
100
AcDbLeader
  3
SLDDIMSTYLE1
 76
     2
 10
3.237517554403953
 20
9.919724209694095
 30
0.0
 10
4.100494449825228
 20
11.1301358331491
 30
0.0
1001
ACAD
1000
DSTYLE
1002
{
1070
     6
1000

1002
}
  0
LINE
  5
513
330
1F
100
AcDbEntity
  8
0
  6
CONTINUOUS
 62
     7
100
AcDbLine
 10
6.388140496950097
 20
2.816447525844113
 30
0.0
 11
6.385967655384281
 21
2.816447525844113
 31
0.0
  0
LINE
  5
514
330
1F
100
AcDbEntity
  8
0
  6
CONTINUOUS
 62
     7
100
AcDbLine
 10
6.385967655384281
 20
2.816447525844113
 30
0.0
 11
6.399817522056106
 21
3.133659821224358
 31
0.0
  0
LINE
  5
515
330
1F
100
AcDbEntity
  8
0
  6
CONTINUOUS
 62
     7
100
AcDbLine
 10
6.402797167634988
 20
3.152140047739205
 30
0.0
 11
6.399817522056106
 21
3.133659821224358
 31
0.0
  0
LINE
  5
516
330
1F
100
AcDbEntity
  8
0
  6
CONTINUOUS
 62
     7
100
AcDbLine
 10
6.388140496950097
 20
2.816447525844113
 30
0.0
 11
6.402797167634988
 21
3.152140047739205
 31
0.0
  0
LWPOLYLINE
  5
517
330
1F
100
AcDbEntity
  8
0
  6
CONTINUOUS
 62
     7
100
AcDbPolyline
 90
        3
 70
   128
 43
0.0
 10
6.441900102581212
 20
3.122327110474133
 10
6.441673651863855
 20
3.008767667322511
 10
6.441290122961082
 20
2.816452432818678
  0
LINE
  5
518
330
1F
100
AcDbEntity
  8
0
  6
CONTINUOUS
 62
     7
100
AcDbLine
 10
6.441290122961082
 20
2.816447525844113
 30
0.0
 11
6.424952671692712
 21
2.816447525844113
 31
0.0
  0
LINE
  5
519
330
1F
100
AcDbEntity
  8
0
  6
CONTINUOUS
 62
     7
100
AcDbLine
 10
6.424885939130279
 20
2.816447525844113
 30
0.0
 11
6.388140496950097
 21
2.816447525844113
 31
0.0
  0
LINE
  5
51A
330
1F
100
AcDbEntity
  8
0
  6
CONTINUOUS
 62
     7
100
AcDbLine
 10
6.402797167634988
 20
3.152140047739205
 30
0.0
 11
6.403233202597871
 21
3.161647017913873
 31
0.0
  0
LINE
  5
51B
330
1F
100
AcDbEntity
  8
0
  6
CONTINUOUS
 62
     7
100
AcDbLine
 10
6.403233055932901
 20
3.161647017913873
 30
0.0
 11
6.442338337518683
 21
3.129856798490535
 31
0.0
  0
LINE
  5
51C
330
1F
100
AcDbEntity
  8
0
  6
CONTINUOUS
 62
     7
100
AcDbLine
 10
6.442332910914705
 20
3.129858980132
 30
0.0
 11
6.441900102581212
 21
3.122327110474133
 31
0.0
  0
LINE
  5
51D
330
1F
100
AcDbEntity
  8
0
  6
CONTINUOUS
 62
     7
100
AcDbLine
 10
9.112477705174192
 20
3.133659821224358
 30
0.0
 11
9.10949805959531
 21
3.152140047739205
 31
0.0
  0
LINE
  5
51E
330
1F
100
AcDbEntity
  8
0
  6
CONTINUOUS
 62
     7
100
AcDbLine
 10
9.112477705174192
 20
3.133659821224358
 30
0.0
 11
9.126327571846015
 21
2.816447525844113
 31
0.0
  0
LINE
  5
51F
330
1F
100
AcDbEntity
  8
0
  6
CONTINUOUS
 62
     7
100
AcDbLine
 10
9.10949805959531
 20
3.152140047739205
 30
0.0
 11
9.124154730280199
 21
2.816447525844113
 31
0.0
  0
LINE
  5
520
330
1F
100
AcDbEntity
  8
0
  6
CONTINUOUS
 62
     7
100
AcDbLine
 10
9.126327571846015
 20
2.816447525844113
 30
0.0
 11
9.124154730280199
 21
2.816447525844113
 31
0.0
  0
LINE
  5
521
330
1F
100
AcDbEntity
  8
0
  6
CONTINUOUS
 62
     7
100
AcDbLine
 10
9.070395124649083
 20
3.122327110474133
 30
0.0
 11
9.069959236351168
 21
3.129857733479734
 31
0.0
  0
LINE
  5
522
330
1F
100
AcDbEntity
  8
0
  6
CONTINUOUS
 62
     7
100
AcDbLine
 10
9.069956889711614
 20
3.129856798490535
 30
0.0
 11
9.109062171297395
 21
3.161647017913873
 31
0.0
  0
LINE
  5
523
330
1F
100
AcDbEntity
  8
0
  6
CONTINUOUS
 62
     7
100
AcDbLine
 10
9.109061877967452
 20
3.161646981247631
 30
0.0
 11
9.10949805959531
 21
3.152140047739205
 31
0.0
  0
LINE
  5
524
330
1F
100
AcDbEntity
  8
0
  6
CONTINUOUS
 62
     7
100
AcDbLine
 10
9.071005104269216
 20
2.816447525844113
 30
0.0
 11
9.070395124649083
 21
3.122327110474133
 31
0.0
  0
LINE
  5
525
330
1F
100
AcDbEntity
  8
0
  6
CONTINUOUS
 62
     7
100
AcDbLine
 10
9.124154730280199
 20
2.816447525844113
 30
0.0
 11
9.071005104269216
 21
2.816447525844113
 31
0.0
  0
LINE
  5
526
330
1F
100
AcDbEntity
  8
0
  6
CONTINUOUS
 62
     7
100
AcDbLine
 10
9.218675758365217
 20
3.133659821224358
 30
0.0
 11
9.232525625037043
 21
2.816447525844113
 31
0.0
  0
ARC
  5
527
330
1F
100
AcDbEntity
  8
0
  6
CONTINUOUS
 62
     7
100
AcDbCircle
 10
9.165576731769712
 20
2.523645047163725
 30
0.0
 40
0.6123214280079022
100
AcDbArc
 50
85.02520083566052
 51
94.97479916434064
  0
LINE
  5
528
330
1F
100
AcDbEntity
  8
0
  6
CONTINUOUS
 62
     7
100
AcDbLine
 10
9.126327571846015
 20
2.816447525844113
 30
0.0
 11
9.232525625037043
 21
2.816447525844113
 31
0.0
  0
LINE
  5
529
330
1F
100
AcDbEntity
  8
0
  6
CONTINUOUS
 62
     7
100
AcDbLine
 10
6.279769602193254
 20
2.816447525844113
 30
0.0
 11
6.293619468865078
 21
3.133659821224358
 31
0.0
  0
ARC
  5
52A
330
1F
100
AcDbEntity
  8
0
  6
CONTINUOUS
 62
     7
100
AcDbCircle
 10
6.346718495460591
 20
2.523645047163734
 30
0.0
 40
0.6123214280078927
100
AcDbArc
 50
85.02520083565975
 51
94.97479916434
  0
LINE
  5
52B
330
1F
100
AcDbEntity
  8
0
  6
CONTINUOUS
 62
     7
100
AcDbLine
 10
6.279769602193254
 20
2.816447525844113
 30
0.0
 11
6.385967655384281
 21
2.816447525844113
 31
0.0
  0
ARC
  5
52C
330
1F
100
AcDbEntity
  8
0
  6
CONTINUOUS
 62
     7
100
AcDbCircle
 10
9.011446194557708
 20
3.123283511348176
 30
0.0
 40
0.0588812063103226
100
AcDbArc
 50
6.410572216057244
 51
83.10673624754519
  0
LINE
  5
52D
330
1F
100
AcDbEntity
  8
0
  6
CONTINUOUS
 62
     7
100
AcDbLine
 10
9.018514590644107
 20
3.181740925787336
 30
0.0
 11
9.05442565579642
 21
3.210425294423062
 31
0.0
  0
ARC
  5
52E
330
1F
100
AcDbEntity
  8
0
  6
CONTINUOUS
 62
     7
100
AcDbCircle
 10
9.057207721616039
 20
3.158553302886482
 30
0.0
 40
0.0519463605724094
100
AcDbArc
 50
3.414284675308598
 51
93.07003085540051
  0
LINE
  5
52F
330
1F
100
AcDbEntity
  8
0
  6
CONTINUOUS
 62
     7
100
AcDbLine
 10
6.457869571433877
 20
3.210425294423062
 30
0.0
 11
6.493780636586188
 21
3.181740925787336
 31
0.0
  0
ARC
  5
530
330
1F
100
AcDbEntity
  8
0
  6
CONTINUOUS
 62
     7
100
AcDbCircle
 10
6.501550542290598
 20
3.122585708106086
 30
0.0
 40
0.059662621059873
100
AcDbArc
 50
97.48235633459032
 51
172.9978447271751
  0
ARC
  5
531
330
1F
100
AcDbEntity
  8
0
  6
CONTINUOUS
 62
     7
100
AcDbCircle
 10
6.455611652923001
 20
3.157966086392843
 30
0.0
 40
0.0525076310199228
100
AcDbArc
 50
87.53542290282974
 51
175.9801087463417
  0
LINE
  5
532
330
1F
100
AcDbEntity
  8
0
  6
CONTINUOUS
 62
     7
100
AcDbLine
 10
9.039934569865346
 20
3.210441647567482
 30
0.0
 11
9.031845849973594
 21
3.210848019539704
 31
0.0
  0
LINE
  5
533
330
1F
100
AcDbEntity
  8
0
  6
CONTINUOUS
 62
     7
100
AcDbLine
 10
9.031845849973594
 20
3.210848019539704
 30
0.0
 11
9.031845849973594
 21
3.312510531792355
 31
0.0
  0
ARC
  5
534
330
1F
100
AcDbEntity
  8
0
  6
CONTINUOUS
 62
     7
100
AcDbCircle
 10
9.031845937301396
 20
3.125502723724471
 30
0.0
 40
0.187007808067904
100
AcDbArc
 50
2.49997898654822
 51
90.00002675564475
  0
LINE
  5
535
330
1F
100
AcDbEntity
  8
0
  6
CONTINUOUS
 62
     7
100
AcDbLine
 10
9.039934569865346
 20
3.210441647567482
 30
0.0
 11
9.05442565579642
 21
3.210425111091846
 31
0.0
  0
ARC
  5
536
330
1F
100
AcDbEntity
  8
0
  6
CONTINUOUS
 62
     7
100
AcDbCircle
 10
6.480449338003523
 20
3.125502673505058
 30
0.0
 40
0.1870078582873004
100
AcDbArc
 50
89.99998797354626
 51
177.500006284261
  0
LINE
  5
537
330
1F
100
AcDbEntity
  8
0
  6
CONTINUOUS
 62
     7
100
AcDbLine
 10
6.4804493772567
 20
3.312510531792355
 30
0.0
 11
6.4804493772567
 21
3.210848019539704
 31
0.0
  0
LINE
  5
538
330
1F
100
AcDbEntity
  8
0
  6
CONTINUOUS
 62
     7
100
AcDbLine
 10
6.4804493772567
 20
3.210848019539704
 30
0.0
 11
6.472360657364951
 21
3.210441647567482
 31
0.0
  0
LINE
  5
539
330
1F
100
AcDbEntity
  8
0
  6
CONTINUOUS
 62
     7
100
AcDbLine
 10
6.457869571433877
 20
3.21042514775809
 30
0.0
 11
6.472360657364951
 21
3.210441647567482
 31
0.0
  0
LINE
  5
53A
330
1F
100
AcDbEntity
  8
0
  6
CONTINUOUS
 62
     7
100
AcDbLine
 10
6.472360657364951
 20
3.210441647567482
 30
0.0
 11
9.039934569865346
 21
3.210441647567482
 31
0.0
  0
LWPOLYLINE
  5
53B
330
1F
100
AcDbEntity
  8
0
  6
CONTINUOUS
 62
     7
100
AcDbPolyline
 90
        3
 70
   128
 43
0.0
 10
9.007124882218992
 20
3.182589235987583
 10
9.017214992323843
 20
3.181925063660158
 10
9.018513123994383
 20
3.181739092475181
  0
LINE
  5
53C
330
1F
100
AcDbEntity
  8
0
  6
CONTINUOUS
 62
     7
100
AcDbLine
 10
6.505170345011307
 20
3.182589235987583
 30
0.0
 11
9.007124882218992
 21
3.182589235987583
 31
0.0
  0
LINE
  5
53D
330
1F
100
AcDbEntity
  8
0
  6
CONTINUOUS
 62
     7
100
AcDbLine
 10
6.493781223246076
 20
3.181740302461203
 30
0.0
 11
6.505170345011307
 21
3.182589235987583
 31
0.0
  0
LINE
  5
53E
330
1F
100
AcDbEntity
  8
0
  6
CONTINUOUS
 62
     7
100
AcDbLine
 10
6.4804493772567
 20
3.210848019539704
 30
0.0
 11
9.031845849973594
 21
3.210848019539704
 31
0.0
  0
LINE
  5
53F
330
1F
100
AcDbEntity
  8
0
  6
CONTINUOUS
 62
     7
100
AcDbLine
 10
9.031845849973594
 20
3.312510531792355
 30
0.0
 11
6.4804493772567
 21
3.312510531792355
 31
0.0
  0
LWPOLYLINE
  5
540
330
1F
100
AcDbEntity
  8
0
  6
CONTINUOUS
 62
     7
100
AcDbPolyline
 90
        3
 70
   128
 43
0.0
 10
6.441290122961082
 20
2.82432154139323
 10
6.441750797639326
 20
2.710762199073776
 10
6.442500255648192
 20
2.526036098878783
  0
LINE
  5
541
330
1F
100
AcDbEntity
  8
0
  6
CONTINUOUS
 62
     7
100
AcDbLine
 10
6.442500255648192
 20
2.526036098878783
 30
0.0
 11
6.442939957235388
 21
2.518646017582965
 31
0.0
  0
LINE
  5
542
330
1F
100
AcDbEntity
  8
0
  6
CONTINUOUS
 62
     7
100
AcDbLine
 10
6.442939957235388
 20
2.518645980916723
 30
0.0
 11
6.402883553303717
 21
2.486664895364953
 31
0.0
  0
LINE
  5
543
330
1F
100
AcDbEntity
  8
0
  6
CONTINUOUS
 62
     7
100
AcDbLine
 10
6.402883553303717
 20
2.486664895364953
 30
0.0
 11
6.402797167634988
 21
2.48862903267507
 31
0.0
  0
LINE
  5
544
330
1F
100
AcDbEntity
  8
0
  6
CONTINUOUS
 62
     7
100
AcDbLine
 10
6.402797167634988
 20
2.48862903267507
 30
0.0
 11
6.388999953688245
 21
2.804636501088163
 31
0.0
  0
LINE
  5
545
330
1F
100
AcDbEntity
  8
0
  6
CONTINUOUS
 62
     7
100
AcDbLine
 10
6.388999953688245
 20
2.804636501088163
 30
0.0
 11
6.425052697203875
 21
2.804636501088163
 31
0.0
  0
LINE
  5
546
330
1F
100
AcDbEntity
  8
0
  6
CONTINUOUS
 62
     7
100
AcDbLine
 10
6.424885939130279
 20
2.82432154139323
 30
0.0
 11
6.425052697203875
 21
2.804636501088163
 31
0.0
  0
LINE
  5
547
330
1F
100
AcDbEntity
  8
0
  6
CONTINUOUS
 62
     7
100
AcDbLine
 10
6.424885939130279
 20
2.82432154139323
 30
0.0
 11
6.441290122961082
 21
2.82432154139323
 31
0.0
  0
LINE
  5
548
330
1F
100
AcDbEntity
  8
0
  6
CONTINUOUS
 62
     7
100
AcDbLine
 10
6.399817522056106
 20
2.507109259189916
 30
0.0
 11
6.386827112122429
 21
2.804636501088163
 31
0.0
  0
LINE
  5
549
330
1F
100
AcDbEntity
  8
0
  6
CONTINUOUS
 62
     7
100
AcDbLine
 10
6.386827112122429
 20
2.804636501088163
 30
0.0
 11
6.388999953688245
 21
2.804636501088163
 31
0.0
  0
LINE
  5
54A
330
1F
100
AcDbEntity
  8
0
  6
CONTINUOUS
 62
     7
100
AcDbLine
 10
6.399817522056106
 20
2.507109259189916
 30
0.0
 11
6.402797167634988
 21
2.48862903267507
 31
0.0
  0
LWPOLYLINE
  5
54B
330
1F
100
AcDbEntity
  8
0
  6
CONTINUOUS
 62
     7
100
AcDbPolyline
 90
        3
 70
   128
 43
0.0
 10
9.069794971582103
 20
2.526036098878783
 10
9.070255646260351
 20
2.639595175367975
 10
9.071005104269216
 20
2.824311619293903
  0
LINE
  5
54C
330
1F
100
AcDbEntity
  8
0
  6
CONTINUOUS
 62
     7
100
AcDbLine
 10
9.071004957604243
 20
2.82432154139323
 30
0.0
 11
9.087409288100015
 21
2.82432154139323
 31
0.0
  0
LINE
  5
54D
330
1F
100
AcDbEntity
  8
0
  6
CONTINUOUS
 62
     7
100
AcDbLine
 10
9.08724253002642
 20
2.804636501088163
 30
0.0
 11
9.087409288100015
 21
2.82432154139323
 31
0.0
  0
LINE
  5
54E
330
1F
100
AcDbEntity
  8
0
  6
CONTINUOUS
 62
     7
100
AcDbLine
 10
9.08724253002642
 20
2.804636501088163
 30
0.0
 11
9.123295273542051
 21
2.804636501088163
 31
0.0
  0
LINE
  5
54F
330
1F
100
AcDbEntity
  8
0
  6
CONTINUOUS
 62
     7
100
AcDbLine
 10
9.123295273542051
 20
2.804636501088163
 30
0.0
 11
9.10949805959531
 21
2.48862903267507
 31
0.0
  0
LINE
  5
550
330
1F
100
AcDbEntity
  8
0
  6
CONTINUOUS
 62
     7
100
AcDbLine
 10
9.10949805959531
 20
2.48862903267507
 30
0.0
 11
9.10941167392658
 21
2.486664895364953
 31
0.0
  0
LINE
  5
551
330
1F
100
AcDbEntity
  8
0
  6
CONTINUOUS
 62
     7
100
AcDbLine
 10
9.10941167392658
 20
2.486664895364953
 30
0.0
 11
9.069355269994908
 21
2.518645980916723
 31
0.0
  0
LINE
  5
552
330
1F
100
AcDbEntity
  8
0
  6
CONTINUOUS
 62
     7
100
AcDbLine
 10
9.069362016583637
 20
2.51864334094722
 30
0.0
 11
9.069794971582103
 21
2.526036098878783
 31
0.0
  0
LINE
  5
553
330
1F
100
AcDbEntity
  8
0
  6
CONTINUOUS
 62
     7
100
AcDbLine
 10
9.123295273542051
 20
2.804636501088163
 30
0.0
 11
9.125468115107867
 21
2.804636501088163
 31
0.0
  0
LINE
  5
554
330
1F
100
AcDbEntity
  8
0
  6
CONTINUOUS
 62
     7
100
AcDbLine
 10
9.125468115107867
 20
2.804636501088163
 30
0.0
 11
9.112477705174192
 21
2.507109259189916
 31
0.0
  0
LINE
  5
555
330
1F
100
AcDbEntity
  8
0
  6
CONTINUOUS
 62
     7
100
AcDbLine
 10
9.10949805959531
 20
2.48862903267507
 30
0.0
 11
9.112477705174192
 21
2.507109259189916
 31
0.0
  0
LINE
  5
556
330
1F
100
AcDbEntity
  8
0
  6
CONTINUOUS
 62
     7
100
AcDbLine
 10
6.293619468865078
 20
2.507109259189916
 30
0.0
 11
6.280629058931402
 21
2.804636501088163
 31
0.0
  0
ARC
  5
557
330
1F
100
AcDbEntity
  8
0
  6
CONTINUOUS
 62
     7
100
AcDbCircle
 10
6.346718495460596
 20
3.117113484115198
 30
0.0
 40
0.612310918612501
100
AcDbArc
 50
265.0251152354966
 51
274.9748847645042
  0
LINE
  5
558
330
1F
100
AcDbEntity
  8
0
  6
CONTINUOUS
 62
     7
100
AcDbLine
 10
6.386827112122429
 20
2.804636501088163
 30
0.0
 11
6.280629058931402
 21
2.804636501088163
 31
0.0
  0
LINE
  5
559
330
1F
100
AcDbEntity
  8
0
  6
CONTINUOUS
 62
     7
100
AcDbLine
 10
9.231666168298893
 20
2.804636501088163
 30
0.0
 11
9.218675758365217
 21
2.507109259189916
 31
0.0
  0
ARC
  5
55A
330
1F
100
AcDbEntity
  8
0
  6
CONTINUOUS
 62
     7
100
AcDbCircle
 10
9.165576731769704
 20
3.117113484115332
 30
0.0
 40
0.6123109186126349
100
AcDbArc
 50
265.0251152354982
 51
274.9748847645036
  0
LINE
  5
55B
330
1F
100
AcDbEntity
  8
0
  6
CONTINUOUS
 62
     7
100
AcDbLine
 10
9.231666168298893
 20
2.804636501088163
 30
0.0
 11
9.125468115107867
 21
2.804636501088163
 31
0.0
  0
ARC
  5
55C
330
1F
100
AcDbEntity
  8
0
  6
CONTINUOUS
 62
     7
100
AcDbCircle
 10
6.452688076431226
 20
2.488571912733051
 30
0.0
 40
0.0498410196444731
100
AcDbArc
 50
182.1927866863721
 51
256.8152468486645
  0
ARC
  5
55D
330
1F
100
AcDbEntity
  8
0
  6
CONTINUOUS
 62
     7
100
AcDbCircle
 10
6.501357870529856
 20
2.525286314160166
 30
0.0
 40
0.0587940994685105
100
AcDbArc
 50
186.4849108561388
 51
263.0988652907875
  0
LINE
  5
55E
330
1F
100
AcDbEntity
  8
0
  6
CONTINUOUS
 62
     7
100
AcDbLine
 10
6.494292937334713
 20
2.466917630153711
 30
0.0
 11
6.457587388027016
 21
2.4380372437824
 31
0.0
  0
LINE
  5
55F
330
1F
100
AcDbEntity
  8
0
  6
CONTINUOUS
 62
     7
100
AcDbLine
 10
6.441319749285502
 20
2.440044720591855
 30
0.0
 11
6.457587388027016
 21
2.4380372437824
 31
0.0
  0
LINE
  5
560
330
1F
100
AcDbEntity
  8
0
  6
CONTINUOUS
 62
     7
100
AcDbLine
 10
9.054707839203279
 20
2.4380372437824
 30
0.0
 11
9.070975477944797
 21
2.440044720591855
 31
0.0
  0
LINE
  5
561
330
1F
100
AcDbEntity
  8
0
  6
CONTINUOUS
 62
     7
100
AcDbLine
 10
9.054707839203279
 20
2.4380372437824
 30
0.0
 11
9.018002289895584
 21
2.466917630153711
 31
0.0
  0
ARC
  5
562
330
1F
100
AcDbEntity
  8
0
  6
CONTINUOUS
 62
     7
100
AcDbCircle
 10
9.010214706636633
 20
2.526012143874639
 30
0.0
 40
0.0596045596456339
100
AcDbArc
 50
277.5068261319627
 51
352.8984584825193
  0
ARC
  5
563
330
1F
100
AcDbEntity
  8
0
  6
CONTINUOUS
 62
     7
100
AcDbCircle
 10
9.059647045899732
 20
2.488539021052246
 30
0.0
 40
0.0497999051178044
100
AcDbArc
 50
283.1486945577982
 51
357.8432719071689
  0
ARC
  5
564
330
1F
100
AcDbEntity
  8
0
  6
CONTINUOUS
 62
     7
100
AcDbCircle
 10
9.031845909841987
 20
2.515266385374279
 30
0.0
 40
0.1870078367523705
100
AcDbArc
 50
269.9999816574211
 51
357.5000126003883
  0
LINE
  5
565
330
1F
100
AcDbEntity
  8
0
  6
CONTINUOUS
 62
     7
100
AcDbLine
 10
9.031845849973594
 20
2.328258548621921
 30
0.0
 11
9.031845849973594
 21
2.42992106087457
 31
0.0
  0
LWPOLYLINE
  5
566
330
1F
100
AcDbEntity
  8
0
  6
CONTINUOUS
 62
     7
100
AcDbPolyline
 90
        3
 70
   128
 43
0.0
 10
9.031845849973594
 20
2.42992106087457
 10
9.049944014235393
 20
2.43197382049425
 10
9.06711936249097
 20
2.4380372437824
  0
LINE
  5
567
330
1F
100
AcDbEntity
  8
0
  6
CONTINUOUS
 62
     7
100
AcDbLine
 10
9.06711936249097
 20
2.4380372437824
 30
0.0
 11
9.070976211269655
 21
2.44004145729622
 31
0.0
  0
LWPOLYLINE
  5
568
330
1F
100
AcDbEntity
  8
0
  6
CONTINUOUS
 62
     7
100
AcDbPolyline
 90
        3
 70
   128
 43
0.0
 10
6.445175864739327
 20
2.4380372437824
 10
6.462351212994906
 20
2.43197382049425
 10
6.4804493772567
 20
2.42992106087457
  0
LINE
  5
569
330
1F
100
AcDbEntity
  8
0
  6
CONTINUOUS
 62
     7
100
AcDbLine
 10
6.4804493772567
 20
2.42992106087457
 30
0.0
 11
6.4804493772567
 21
2.328258548621921
 31
0.0
  0
ARC
  5
56A
330
1F
100
AcDbEntity
  8
0
  6
CONTINUOUS
 62
     7
100
AcDbCircle
 10
6.480449265514536
 20
2.515266331186226
 30
0.0
 40
0.1870077825643382
100
AcDbArc
 50
182.499971506429
 51
270.0000342357652
  0
LINE
  5
56B
330
1F
100
AcDbEntity
  8
0
  6
CONTINUOUS
 62
     7
100
AcDbLine
 10
6.441319015960639
 20
2.44004145729622
 30
0.0
 11
6.445175864739327
 21
2.4380372437824
 31
0.0
  0
LINE
  5
56C
330
1F
100
AcDbEntity
  8
0
  6
CONTINUOUS
 62
     7
100
AcDbLine
 10
9.054707839203279
 20
2.4380372437824
 30
0.0
 11
6.457587388027016
 21
2.4380372437824
 31
0.0
  0
LINE
  5
56D
330
1F
100
AcDbEntity
  8
0
  6
CONTINUOUS
 62
     7
100
AcDbLine
 10
9.031845849973594
 20
2.42992106087457
 30
0.0
 11
6.4804493772567
 21
2.42992106087457
 31
0.0
  0
LWPOLYLINE
  5
56E
330
1F
100
AcDbEntity
  8
0
  6
CONTINUOUS
 62
     7
100
AcDbPolyline
 90
        3
 70
   128
 43
0.0
 10
6.505811857600496
 20
2.466053920131364
 10
6.495721747495642
 20
2.466713435845915
 10
6.49429337732963
 20
2.466918180147358
  0
LINE
  5
56F
330
1F
100
AcDbEntity
  8
0
  6
CONTINUOUS
 62
     7
100
AcDbLine
 10
9.006483369629799
 20
2.466053920131364
 30
0.0
 11
6.505811857600496
 21
2.466053920131364
 31
0.0
  0
LINE
  5
570
330
1F
100
AcDbEntity
  8
0
  6
CONTINUOUS
 62
     7
100
AcDbLine
 10
9.018001703235693
 20
2.466918436811059
 30
0.0
 11
9.006483369629799
 21
2.466053920131364
 31
0.0
  0
LINE
  5
571
330
1F
100
AcDbEntity
  8
0
  6
CONTINUOUS
 62
     7
100
AcDbLine
 10
6.4804493772567
 20
2.328258548621921
 30
0.0
 11
9.031845849973594
 21
2.328258548621921
 31
0.0
  0
LINE
  5
572
330
1F
100
AcDbEntity
  8
0
  6
CONTINUOUS
 62
     7
100
AcDbLine
 10
9.196005166924491
 20
2.804636501088163
 30
0.0
 11
9.196005166924491
 21
2.816447525844113
 31
0.0
  0
LINE
  5
573
330
1F
100
AcDbEntity
  8
0
  6
CONTINUOUS
 62
     7
100
AcDbLine
 10
6.316290060305806
 20
2.804636501088163
 30
0.0
 11
6.316290060305806
 21
2.816447525844113
 31
0.0
  0
LINE
  5
574
330
1F
100
AcDbEntity
  8
0
  6
CONTINUOUS
 62
     7
100
AcDbLine
 10
9.117264996537659
 20
2.816447525844113
 30
0.0
 11
9.117264996537659
 21
2.804636501088163
 31
0.0
  0
LINE
  5
575
330
1F
100
AcDbEntity
  8
0
  6
CONTINUOUS
 62
     7
100
AcDbLine
 10
6.395030230692638
 20
2.804636501088163
 30
0.0
 11
6.395030230692638
 21
2.816447525844113
 31
0.0
  0
DIMENSION
  5
576
330
1F
100
AcDbEntity
  8
0
  6
CONTINUOUS
 62
     7
100
AcDbDimension
  2
*D40
 10
4.704965527000972
 20
2.328258549267246
 30
0.0
 11
4.704965527000972
 21
2.780900986785248
 31
0.0
 70
   160
  3
SLDDIMSTYLE2
100
AcDbAlignedDimension
 13
6.480449332369383
 23
3.312510517771169
 33
0.0
 14
6.480449332369383
 24
2.328258549267246
 34
0.0
 50
90.00000000000019
100
AcDbRotatedDimension
  0
DIMENSION
  5
588
330
1F
100
AcDbEntity
  8
0
  6
CONTINUOUS
 62
     7
100
AcDbDimension
  2
*D41
 10
5.594010761114342
 20
2.816447525645183
 30
0.0
 11
5.594010761114342
 21
3.009802291842609
 31
0.0
 70
   160
  3
SLDDIMSTYLE4
100
AcDbAlignedDimension
 13
6.480449332369383
 23
3.312510517771169
 33
0.0
 14
9.232525566371057
 24
2.816447525645183
 34
0.0
 50
90.00000000000019
100
AcDbRotatedDimension
  0
DIMENSION
  5
6AB
330
1F
100
AcDbEntity
  8
0
  6
CONTINUOUS
 62
     7
100
AcDbDimension
  2
*D42
 10
2.746627764818623
 20
10.51676517199389
 30
0.0
 11
2.088190264818623
 21
10.51676517199389
 31
0.0
 70
   160
  3
SLDDIMSTYLE4
100
AcDbAlignedDimension
 13
2.785997813345794
 23
9.328055543346355
 33
0.0
 14
2.746627764818623
 24
9.785866001347542
 34
0.0
100
AcDbRotatedDimension
  0
ENDSEC
  0
SECTION
  2
OBJECTS
  0
DICTIONARY
  5
C
330
0
100
AcDbDictionary
  3
ACAD_GROUP
350
D
  3
ACAD_LAYOUT
350
1A
  3
ACAD_MLEADERSTYLE
350
59E
  3
ACAD_MLINESTYLE
350
17
  3
ACAD_PLOTSETTINGS
350
19
  3
ACAD_PLOTSTYLENAME
350
E
  3
ACAD_SCALELIST
350
3B
  3
ACAD_TABLESTYLE
350
59D
  3
ACAD_VISUALSTYLE
350
2A
  3
ACDBVARIABLEDICTIONARY
350
59B
  3
ACDBHEADERROUNDTRIPXREC
350
6F5
  0
DICTIONARY
  5
717
330
1F
100
AcDbDictionary
280
     1
  3
ACAD_LAYOUTSELFREF
360
718
  0
DICTIONARY
  5
715
330
1B
100
AcDbDictionary
280
     1
  3
ACAD_LAYOUTSELFREF
360
716
  0
DICTIONARY
  5
D
102
{ACAD_REACTORS
330
C
102
}
330
C
100
AcDbDictionary
  0
DICTIONARY
  5
1A
102
{ACAD_REACTORS
330
C
102
}
330
C
100
AcDbDictionary
  0
DICTIONARY
  5
59E
102
{ACAD_REACTORS
330
C
102
}
330
C
100
AcDbDictionary
  0
DICTIONARY
  5
17
102
{ACAD_REACTORS
330
C
102
}
330
C
100
AcDbDictionary
  3
STANDARD
350
18
  0
DICTIONARY
  5
19
102
{ACAD_REACTORS
330
C
102
}
330
C
100
AcDbDictionary
  0
ACDBDICTIONARYWDFLT
  5
E
102
{ACAD_REACTORS
330
C
102
}
330
C
100
AcDbDictionary
281
     1
  3
Normal
350
F
100
AcDbDictionaryWithDefault
340
F
  0
DICTIONARY
  5
3B
102
{ACAD_REACTORS
330
C
102
}
330
C
100
AcDbDictionary
  3
A0
350
3C
  3
A1
350
3D
  3
A2
350
3E
  3
A3
350
3F
  3
A4
350
40
  3
A5
350
41
  3
A6
350
42
  3
A7
350
43
  3
A8
350
44
  3
A9
350
45
  3
B0
350
46
  3
B1
350
47
  3
B2
350
48
  3
B3
350
49
  3
B4
350
4A
  3
B5
350
4B
  3
B6
350
4C
  3
B7
350
4D
  3
B8
350
4E
  3
B9
350
4F
  3
C0
350
50
  3
C1
350
51
  3
C2
350
52
  3
C3
350
53
  3
C4
350
54
  3
C5
350
55
  3
C6
350
56
  3
C7
350
57
  3
C8
350
58
  3
C9
350
59
  3
D0
350
5A
  3
D1
350
5B
  3
D2
350
5C
  0
DICTIONARY
  5
59D
102
{ACAD_REACTORS
330
C
102
}
330
C
100
AcDbDictionary
  0
DICTIONARY
  5
2A
102
{ACAD_REACTORS
330
C
102
}
330
C
100
AcDbDictionary
  3
2DWIREFRAME
350
2F
  3
3D_HIDDEN
350
31
  3
3DWIREFRAME
350
30
  3
BASIC
350
32
  3
BRIGHTEN
350
36
  3
COLORCHANGE
350
3A
  3
CONCEPTUAL
350
34
  3
DIM
350
35
  3
FACEPATTERN
350
39
  3
FLAT
350
2B
  3
FLATWITHEDGES
350
2C
  3
GOURAUD
350
2D
  3
GOURAUDWITHEDGES
350
2E
  3
LINEPATTERN
350
38
  3
REALISTIC
350
33
  3
THICKEN
350
37
  0
DICTIONARY
  5
59B
102
{ACAD_REACTORS
330
C
102
}
330
C
100
AcDbDictionary
  3
CANNOSCALE
350
59C
  0
DICTIONARY
  5
6F5
102
{ACAD_REACTORS
330
C
102
}
330
C
100
AcDbDictionary
  3
TSTACKALIGN
350
6F6
  3
TSTACKSIZE
350
6F7
  3
HYPERLINKBASE
350
6F8
  3
STYLESHEET
350
6F9
  3
LAYOUTDICT
350
6FA
  3
PLOTSETDICT
350
6FB
  3
PLOTSTYLNAMDICT
350
6FC
  3
LWETCUNION
350
6FD
  3
INSUNITS
350
6FE
  3
CEPSNTYPE
350
6FF
  3
FINGERPRINTGUID
350
700
  3
VERSIONGUID
350
701
  3
PSVPSCALE
350
702
  3
PUCSORTHOREF
350
703
  3
PUCSORTHOVIEW
350
704
  3
PUCSBASE
350
705
  3
PUCSORGTOP
350
706
  3
PUCSORGBOTTOM
350
707
  3
PUCSORGLEFT
350
708
  3
PUCSORGRIGHT
350
709
  3
PUCSORGFRONT
350
70A
  3
PUCSORGBACK
350
70B
  3
UCSORTHOREF
350
70C
  3
UCSORTHOVIEW
350
70D
  3
UCSBASE
350
70E
  3
UCSORGTOP
350
70F
  3
UCSORGBOTTOM
350
710
  3
UCSORGLEFT
350
711
  3
UCSORGRIGHT
350
712
  3
UCSORGFRONT
350
713
  3
UCSORGBACK
350
714
  0
XRECORD
  5
718
102
{ACAD_REACTORS
330
717
102
}
330
717
100
AcDbXrecord
340
1F
  0
XRECORD
  5
716
102
{ACAD_REACTORS
330
715
102
}
330
715
100
AcDbXrecord
340
1B
  0
MLINESTYLE
  5
18
102
{ACAD_REACTORS
330
17
102
}
330
17
100
AcDbMlineStyle
  2
STANDARD
 70
     0
  3

 62
   256
 51
90.0
 52
90.0
 71
     2
 49
0.5
 62
   256
  6
BYLAYER
 49
-0.5
 62
   256
  6
BYLAYER
  0
ACDBPLACEHOLDER
  5
F
102
{ACAD_REACTORS
330
E
102
}
330
E
100
AcDbPlaceHolder
280
     0
  0
ACAD_PROXY_OBJECT
  5
3C
102
{ACAD_REACTORS
330
3B
102
}
330
3B
100
AcDbProxyObject
 90
      499
 91
      506
 93
       41
310
903313A31580
 94
        0
1001
ACAD
1000
AcadProxyRoundTripData
1071
      502
1071
   393239
1070
     0
  0
ACAD_PROXY_OBJECT
  5
3D
102
{ACAD_REACTORS
330
3B
102
}
330
3B
100
AcDbProxyObject
 90
      499
 91
      506
 93
      105
310
903313A324000000000000004004
 94
        0
1001
ACAD
1000
AcadProxyRoundTripData
1071
      502
1071
   393239
1070
     0
  0
ACAD_PROXY_OBJECT
  5
3E
102
{ACAD_REACTORS
330
3B
102
}
330
3B
100
AcDbProxyObject
 90
      499
 91
      506
 93
      105
310
903313A344000000000000104004
 94
        0
1001
ACAD
1000
AcadProxyRoundTripData
1071
      502
1071
   393239
1070
     0
  0
ACAD_PROXY_OBJECT
  5
3F
102
{ACAD_REACTORS
330
3B
102
}
330
3B
100
AcDbProxyObject
 90
      499
 91
      506
 93
      105
310
903313A354000000000000144000
 94
        0
1001
ACAD
1000
AcadProxyRoundTripData
1071
      502
1071
   393239
1070
     0
  0
ACAD_PROXY_OBJECT
  5
40
102
{ACAD_REACTORS
330
3B
102
}
330
3B
100
AcDbProxyObject
 90
      499
 91
      506
 93
      105
310
903313A384000000000000204000
 94
        0
1001
ACAD
1000
AcadProxyRoundTripData
1071
      502
1071
   393239
1070
     0
  0
ACAD_PROXY_OBJECT
  5
41
102
{ACAD_REACTORS
330
3B
102
}
330
3B
100
AcDbProxyObject
 90
      499
 91
      506
 93
      113
310
904313A31304000000000000244000
 94
        0
1001
ACAD
1000
AcadProxyRoundTripData
1071
      502
1071
   393239
1070
     0
  0
ACAD_PROXY_OBJECT
  5
42
102
{ACAD_REACTORS
330
3B
102
}
330
3B
100
AcDbProxyObject
 90
      499
 91
      506
 93
      113
310
904313A31364000000000000304000
 94
        0
1001
ACAD
1000
AcadProxyRoundTripData
1071
      502
1071
   393239
1070
     0
  0
ACAD_PROXY_OBJECT
  5
43
102
{ACAD_REACTORS
330
3B
102
}
330
3B
100
AcDbProxyObject
 90
      499
 91
      506
 93
      113
310
904313A32304000000000000344000
 94
        0
1001
ACAD
1000
AcadProxyRoundTripData
1071
      502
1071
   393239
1070
     0
  0
ACAD_PROXY_OBJECT
  5
44
102
{ACAD_REACTORS
330
3B
102
}
330
3B
100
AcDbProxyObject
 90
      499
 91
      506
 93
      113
310
904313A333040000000000003E4000
 94
        0
1001
ACAD
1000
AcadProxyRoundTripData
1071
      502
1071
   393239
1070
     0
  0
ACAD_PROXY_OBJECT
  5
45
102
{ACAD_REACTORS
330
3B
102
}
330
3B
100
AcDbProxyObject
 90
      499
 91
      506
 93
      113
310
904313A34304000000000000444000
 94
        0
1001
ACAD
1000
AcadProxyRoundTripData
1071
      502
1071
   393239
1070
     0
  0
ACAD_PROXY_OBJECT
  5
46
102
{ACAD_REACTORS
330
3B
102
}
330
3B
100
AcDbProxyObject
 90
      499
 91
      506
 93
      113
310
904313A35304000000000000494000
 94
        0
1001
ACAD
1000
AcadProxyRoundTripData
1071
      502
1071
   393239
1070
     0
  0
ACAD_PROXY_OBJECT
  5
47
102
{ACAD_REACTORS
330
3B
102
}
330
3B
100
AcDbProxyObject
 90
      499
 91
      506
 93
      121
310
905313A3130304000000000000594000
 94
        0
1001
ACAD
1000
AcadProxyRoundTripData
1071
      502
1071
   393239
1070
     0
  0
ACAD_PROXY_OBJECT
  5
48
102
{ACAD_REACTORS
330
3B
102
}
330
3B
100
AcDbProxyObject
 90
      499
 91
      506
 93
      105
310
903323A310000000000000010140
 94
        0
1001
ACAD
1000
AcadProxyRoundTripData
1071
      502
1071
   393239
1070
     0
  0
ACAD_PROXY_OBJECT
  5
49
102
{ACAD_REACTORS
330
3B
102
}
330
3B
100
AcDbProxyObject
 90
      499
 91
      506
 93
      105
310
903343A310000000000000410159
 94
        0
1001
ACAD
1000
AcadProxyRoundTripData
1071
      502
1071
   393239
1070
     0
  0
ACAD_PROXY_OBJECT
  5
4A
102
{ACAD_REACTORS
330
3B
102
}
330
3B
100
AcDbProxyObject
 90
      499
 91
      506
 93
      105
310
903383A310000000000000810140
 94
        0
1001
ACAD
1000
AcadProxyRoundTripData
1071
      502
1071
   393239
1070
     0
  0
ACAD_PROXY_OBJECT
  5
4B
102
{ACAD_REACTORS
330
3B
102
}
330
3B
100
AcDbProxyObject
 90
      499
 91
      506
 93
      113
310
90431303A310000000000000910140
 94
        0
1001
ACAD
1000
AcadProxyRoundTripData
1071
      502
1071
   393239
1070
     0
  0
ACAD_PROXY_OBJECT
  5
4C
102
{ACAD_REACTORS
330
3B
102
}
330
3B
100
AcDbProxyObject
 90
      499
 91
      506
 93
      121
310
9053130303A310000000000001650100
 94
        0
1001
ACAD
1000
AcadProxyRoundTripData
1071
      502
1071
   393239
1070
     0
  0
ACAD_PROXY_OBJECT
  5
4D
102
{ACAD_REACTORS
330
3B
102
}
330
3B
100
AcDbProxyObject
 90
      499
 91
      506
 93
      257
310
90E312F31323822203D2031272D3022000000000000200FC000000000000284000
 94
        0
1001
ACAD
1000
AcadProxyRoundTripData
1071
      502
1071
   393239
1070
     0
  0
ACAD_PROXY_OBJECT
  5
4E
102
{ACAD_REACTORS
330
3B
102
}
330
3B
100
AcDbProxyObject
 90
      499
 91
      506
 93
      249
310
90D312F363422203D2031272D3022000000000000240FC000000000000284000
 94
        0
1001
ACAD
1000
AcadProxyRoundTripData
1071
      502
1071
   393239
1070
     0
  0
ACAD_PROXY_OBJECT
  5
4F
102
{ACAD_REACTORS
330
3B
102
}
330
3B
100
AcDbProxyObject
 90
      499
 91
      506
 93
      249
310
90D312F333222203D2031272D3022000000000000280FC000000000000284040
 94
        0
1001
ACAD
1000
AcadProxyRoundTripData
1071
      502
1071
   393239
1070
     0
  0
ACAD_PROXY_OBJECT
  5
50
102
{ACAD_REACTORS
330
3B
102
}
330
3B
100
AcDbProxyObject
 90
      499
 91
      506
 93
      249
310
90D312F313622203D2031272D30220000000000002C0FC000000000000284000
 94
        0
1001
ACAD
1000
AcadProxyRoundTripData
1071
      502
1071
   393239
1070
     0
  0
ACAD_PROXY_OBJECT
  5
51
102
{ACAD_REACTORS
330
3B
102
}
330
3B
100
AcDbProxyObject
 90
      499
 91
      506
 93
      249
310
90D332F333222203D2031272D30220000000000002E0FC000000000000284040
 94
        0
1001
ACAD
1000
AcadProxyRoundTripData
1071
      502
1071
   393239
1070
     0
  0
ACAD_PROXY_OBJECT
  5
52
102
{ACAD_REACTORS
330
3B
102
}
330
3B
100
AcDbProxyObject
 90
      499
 91
      506
 93
      241
310
90C312F3822203D2031272D3022000000000000300FC000000000000284040
 94
        0
1001
ACAD
1000
AcadProxyRoundTripData
1071
      502
1071
   393239
1070
     0
  0
ACAD_PROXY_OBJECT
  5
53
102
{ACAD_REACTORS
330
3B
102
}
330
3B
100
AcDbProxyObject
 90
      499
 91
      506
 93
      249
310
90D332F313622203D2031272D3022000000000000320FC000000000000284040
 94
        0
1001
ACAD
1000
AcadProxyRoundTripData
1071
      502
1071
   393239
1070
     0
  0
ACAD_PROXY_OBJECT
  5
54
102
{ACAD_REACTORS
330
3B
102
}
330
3B
100
AcDbProxyObject
 90
      499
 91
      506
 93
      241
310
90C312F3422203D2031272D3022000000000000340FC000000000000284040
 94
        0
1001
ACAD
1000
AcadProxyRoundTripData
1071
      502
1071
   393239
1070
     0
  0
ACAD_PROXY_OBJECT
  5
55
102
{ACAD_REACTORS
330
3B
102
}
330
3B
100
AcDbProxyObject
 90
      499
 91
      506
 93
      241
310
90C332F3822203D2031272D3022000000000000360FC000000000000284040
 94
        0
1001
ACAD
1000
AcadProxyRoundTripData
1071
      502
1071
   393239
1070
     0
  0
ACAD_PROXY_OBJECT
  5
56
102
{ACAD_REACTORS
330
3B
102
}
330
3B
100
AcDbProxyObject
 90
      499
 91
      506
 93
      241
310
90C312F3222203D2031272D3022000000000000380FC000000000000284000
 94
        0
1001
ACAD
1000
AcadProxyRoundTripData
1071
      502
1071
   393239
1070
     0
  0
ACAD_PROXY_OBJECT
  5
57
102
{ACAD_REACTORS
330
3B
102
}
330
3B
100
AcDbProxyObject
 90
      499
 91
      506
 93
      241
310
90C332F3422203D2031272D30220000000000003A0FC000000000000284040
 94
        0
1001
ACAD
1000
AcadProxyRoundTripData
1071
      502
1071
   393239
1070
     0
  0
ACAD_PROXY_OBJECT
  5
58
102
{ACAD_REACTORS
330
3B
102
}
330
3B
100
AcDbProxyObject
 90
      499
 91
      506
 93
      161
310
90A3122203D2031272D30224000000000000284000
 94
        0
1001
ACAD
1000
AcadProxyRoundTripData
1071
      502
1071
   393239
1070
     0
  0
ACAD_PROXY_OBJECT
  5
59
102
{ACAD_REACTORS
330
3B
102
}
330
3B
100
AcDbProxyObject
 90
      499
 91
      506
 93
      257
310
90E312D312F3222203D2031272D30220000000000003E0FC000000000000284000
 94
        0
1001
ACAD
1000
AcadProxyRoundTripData
1071
      502
1071
   393239
1070
     0
  0
ACAD_PROXY_OBJECT
  5
5A
102
{ACAD_REACTORS
330
3B
102
}
330
3B
100
AcDbProxyObject
 90
      499
 91
      506
 93
      225
310
90A3322203D2031272D302200000000000002100000000000000284028
 94
        0
1001
ACAD
1000
AcadProxyRoundTripData
1071
      502
1071
   393239
1070
     0
  0
ACAD_PROXY_OBJECT
  5
5B
102
{ACAD_REACTORS
330
3B
102
}
330
3B
100
AcDbProxyObject
 90
      499
 91
      506
 93
      225
310
90A3622203D2031272D302200000000000006100000000000000284000
 94
        0
1001
ACAD
1000
AcadProxyRoundTripData
1071
      502
1071
   393239
1070
     0
  0
ACAD_PROXY_OBJECT
  5
5C
102
{ACAD_REACTORS
330
3B
102
}
330
3B
100
AcDbProxyObject
 90
      499
 91
      506
 93
      249
310
90D31272D3022203D2031272D30220000000000000A100000000000000284000
 94
        0
1001
ACAD
1000
AcadProxyRoundTripData
1071
      502
1071
   393239
1070
     0
  0
ACAD_PROXY_OBJECT
  5
2F
102
{ACAD_REACTORS
330
2A
102
}
330
2A
100
AcDbProxyObject
 90
      499
 91
      506
 93
      436
310
42CC9915DA5C99599C985B595049028333333333333E3BF0000000000000FB0107901411070040501600405405064090741402480A0344
 94
        0
1001
ACAD
1000
AcDbSavedByObjectVersion
1070
     0
1000
AcadProxyRoundTripData
1071
      501
1071
   393239
1070
     0
  0
ACAD_PROXY_OBJECT
  5
31
102
{ACAD_REACTORS
330
2A
102
}
330
2A
100
AcDbProxyObject
 90
      499
 91
      506
 93
      500
310
424CD108121A5919195B90640502408333333333333E3BF0000000000000FB01079024090700405020000000000001110200405405064090740C02480A0340
 94
        0
1001
ACAD
1000
AcDbSavedByObjectVersion
1070
     0
1000
AcadProxyRoundTripData
1071
      501
1071
   393239
1070
     0
  0
ACAD_PROXY_OBJECT
  5
30
102
{ACAD_REACTORS
330
2A
102
}
330
2A
100
AcDbProxyObject
 90
      499
 91
      506
 93
      436
310
42CCD915DA5C99599C985B595059028333333333333E3BF0000000000000FB0107901411070040501600405405064090741402480A0340
 94
        0
1001
ACAD
1000
AcDbSavedByObjectVersion
1070
     0
1000
AcadProxyRoundTripData
1071
      501
1071
   393239
1070
     0
  0
ACAD_PROXY_OBJECT
  5
32
102
{ACAD_REACTORS
330
2A
102
}
330
2A
100
AcDbProxyObject
 90
      499
 91
      506
 93
      388
310
4150985CDA58D07406404333333333333E3BF0000000000000FB0107A41107004050150841D405064090741402480A0354
 94
        0
1001
ACAD
1000
AcDbSavedByObjectVersion
1070
     0
1000
AcadProxyRoundTripData
1071
      501
1071
   393239
1070
     0
  0
ACAD_PROXY_OBJECT
  5
36
102
{ACAD_REACTORS
330
2A
102
}
330
2A
100
AcDbProxyObject
 90
      499
 91
      506
 93
      428
310
42109C9A59DA1D195B90C409028333333333333E3BF0000000000000FB010790141107004050150841D405064090741402480A029956
 94
        0
1001
ACAD
1000
AcDbSavedByObjectVersion
1070
     0
1000
AcadProxyRoundTripData
1071
      501
1071
   393239
1070
     0
  0
ACAD_PROXY_OBJECT
  5
3A
102
{ACAD_REACTORS
330
2A
102
}
330
2A
100
AcDbProxyObject
 90
      499
 91
      506
 93
      452
310
42D0DBDB1BDC90DA185B99D95104090240C333333333333E3BF0000000000000FB0108901411070040501508421405064090741402480A0354
 94
        0
1001
ACAD
1000
AcDbSavedByObjectVersion
1070
     0
1000
AcadProxyRoundTripData
1071
      501
1071
   393239
1070
     0
  0
ACAD_PROXY_OBJECT
  5
34
102
{ACAD_REACTORS
330
2A
102
}
330
2A
100
AcDbProxyObject
 90
      499
 91
      506
 93
      500
310
4290DBDB98D95C1D1D585B10940D028333333333333E3BF0000000000000FB0107902409070040501000000000000111010841D405064090740C02480A0340
 94
        0
1001
ACAD
1000
AcDbSavedByObjectVersion
1070
     0
1000
AcadProxyRoundTripData
1071
      501
1071
   393239
1070
     0
  0
ACAD_PROXY_OBJECT
  5
35
102
{ACAD_REACTORS
330
2A
102
}
330
2A
100
AcDbProxyObject
 90
      499
 91
      506
 93
      412
310
40D11A5B50B409028333333333333E3BF0000000000000FB010790141107004050150841D405064090741402480A02677FFFFFDB
 94
        0
1001
ACAD
1000
AcDbSavedByObjectVersion
1070
     0
1000
AcadProxyRoundTripData
1071
      501
1071
   393239
1070
     0
  0
ACAD_PROXY_OBJECT
  5
39
102
{ACAD_REACTORS
330
2A
102
}
330
2A
100
AcDbProxyObject
 90
      499
 91
      506
 93
      444
310
42D19858D95C185D1D195C9B90F409028333333333333E3BF0000000000000FB010790141107004050150841D405064090741402480A0350
 94
        0
1001
ACAD
1000
AcDbSavedByObjectVersion
1070
     0
1000
AcadProxyRoundTripData
1071
      501
1071
   393239
1070
     0
  0
ACAD_PROXY_OBJECT
  5
2B
102
{ACAD_REACTORS
330
2A
102
}
330
2A
100
AcDbProxyObject
 90
      499
 91
      506
 93
      388
310
41119B185D240901404333333333333E3BF0000000000000F9010740A41107004050150841D405064090741402480A1B50
 94
        0
1001
ACAD
1000
AcDbSavedByObjectVersion
1070
     0
1000
AcadProxyRoundTripData
1071
      501
1071
   393239
1070
     0
  0
ACAD_PROXY_OBJECT
  5
2C
102
{ACAD_REACTORS
330
2A
102
}
330
2A
100
AcDbProxyObject
 90
      499
 91
      506
 93
      476
310
43519B185D15DA5D1A115919D95CD0140901404333333333333E3BF0000000000000F9010740901411070040501600405405064090741402480A1B50
 94
        0
1001
ACAD
1000
AcDbSavedByObjectVersion
1070
     0
1000
AcadProxyRoundTripData
1071
      501
1071
   393239
1070
     0
  0
ACAD_PROXY_OBJECT
  5
2D
102
{ACAD_REACTORS
330
2A
102
}
330
2A
100
AcDbProxyObject
 90
      499
 91
      506
 93
      412
310
41D1DBDD5C985D5910240902404333333333333E3BF0000000000000F9010740A411070040501641D405064090741402480A1B50
 94
        0
1001
ACAD
1000
AcDbSavedByObjectVersion
1070
     0
1000
AcadProxyRoundTripData
1071
      501
1071
   393239
1070
     0
  0
ACAD_PROXY_OBJECT
  5
2E
102
{ACAD_REACTORS
330
2A
102
}
330
2A
100
AcDbProxyObject
 90
      499
 91
      506
 93
      500
310
4411DBDD5C985D5915DA5D1A115919D95CD0340902404333333333333E3BF0000000000000F9010740901411070040501600405405064090741402480A1B50
 94
        0
1001
ACAD
1000
AcDbSavedByObjectVersion
1070
     0
1000
AcadProxyRoundTripData
1071
      501
1071
   393239
1070
     0
  0
ACAD_PROXY_OBJECT
  5
38
102
{ACAD_REACTORS
330
2A
102
}
330
2A
100
AcDbProxyObject
 90
      499
 91
      506
 93
      444
310
42D31A5B995C185D1D195C9B90E409028333333333333E3BF0000000000000FB010790141107004050750841D405064090741402483A0350
 94
        0
1001
ACAD
1000
AcDbSavedByObjectVersion
1070
     0
1000
AcadProxyRoundTripData
1071
      501
1071
   393239
1070
     0
  0
ACAD_PROXY_OBJECT
  5
33
102
{ACAD_REACTORS
330
2A
102
}
330
2A
100
AcDbProxyObject
 90
      499
 91
      506
 93
      420
310
425499585B1A5CDD1A58D08409028333333333333E3BF0000000000000FB01079019070040501508421405064090741402480A1B45
 94
        0
1001
ACAD
1000
AcDbSavedByObjectVersion
1070
     0
1000
AcadProxyRoundTripData
1071
      501
1071
   393239
1070
     0
  0
ACAD_PROXY_OBJECT
  5
37
102
{ACAD_REACTORS
330
2A
102
}
330
2A
100
AcDbProxyObject
 90
      499
 91
      506
 93
      412
310
41D51A1A58DAD95B90D409028333333333333E3BF0000000000000FB010790141107004050150C41D405064090741402480A035B
 94
        0
1001
ACAD
1000
AcDbSavedByObjectVersion
1070
     0
1000
AcadProxyRoundTripData
1071
      501
1071
   393239
1070
     0
  0
DICTIONARYVAR
  5
59C
102
{ACAD_REACTORS
330
59B
102
}
330
59B
100
DictionaryVariables
280
     0
  1
1:1
  0
XRECORD
  5
6F6
102
{ACAD_REACTORS
330
6F5
102
}
330
6F5
100
AcDbXrecord
 90
        1
  0
XRECORD
  5
6F7
102
{ACAD_REACTORS
330
6F5
102
}
330
6F5
100
AcDbXrecord
 90
       70
  0
XRECORD
  5
6F8
102
{ACAD_REACTORS
330
6F5
102
}
330
6F5
100
AcDbXrecord
  1

  0
XRECORD
  5
6F9
102
{ACAD_REACTORS
330
6F5
102
}
330
6F5
100
AcDbXrecord
  1
monochrome.ctb
  0
XRECORD
  5
6FA
102
{ACAD_REACTORS
330
6F5
102
}
330
6F5
100
AcDbXrecord
340
1A
  0
XRECORD
  5
6FB
102
{ACAD_REACTORS
330
6F5
102
}
330
6F5
100
AcDbXrecord
340
19
  0
XRECORD
  5
6FC
102
{ACAD_REACTORS
330
6F5
102
}
330
6F5
100
AcDbXrecord
340
E
  0
XRECORD
  5
6FD
102
{ACAD_REACTORS
330
6F5
102
}
330
6F5
100
AcDbXrecord
 90
    10269
  0
XRECORD
  5
6FE
102
{ACAD_REACTORS
330
6F5
102
}
330
6F5
100
AcDbXrecord
 90
        1
  0
XRECORD
  5
6FF
102
{ACAD_REACTORS
330
6F5
102
}
330
6F5
100
AcDbXrecord
 90
        0
  0
XRECORD
  5
700
102
{ACAD_REACTORS
330
6F5
102
}
330
6F5
100
AcDbXrecord
  1
{D7647D45-5ACF-407C-99FC-F29F9B8C0363}
  0
XRECORD
  5
701
102
{ACAD_REACTORS
330
6F5
102
}
330
6F5
100
AcDbXrecord
  1
{98692C86-CC76-45D6-B6BD-44D95C327B49}
  0
XRECORD
  5
702
102
{ACAD_REACTORS
330
6F5
102
}
330
6F5
100
AcDbXrecord
 40
0.0
  0
XRECORD
  5
703
102
{ACAD_REACTORS
330
6F5
102
}
330
6F5
100
AcDbXrecord
340
0
  0
XRECORD
  5
704
102
{ACAD_REACTORS
330
6F5
102
}
330
6F5
100
AcDbXrecord
 70
     0
  0
XRECORD
  5
705
102
{ACAD_REACTORS
330
6F5
102
}
330
6F5
100
AcDbXrecord
340
0
  0
XRECORD
  5
706
102
{ACAD_REACTORS
330
6F5
102
}
330
6F5
100
AcDbXrecord
 10
0.0
 20
0.0
 30
0.0
  0
XRECORD
  5
707
102
{ACAD_REACTORS
330
6F5
102
}
330
6F5
100
AcDbXrecord
 10
0.0
 20
0.0
 30
0.0
  0
XRECORD
  5
708
102
{ACAD_REACTORS
330
6F5
102
}
330
6F5
100
AcDbXrecord
 10
0.0
 20
0.0
 30
0.0
  0
XRECORD
  5
709
102
{ACAD_REACTORS
330
6F5
102
}
330
6F5
100
AcDbXrecord
 10
0.0
 20
0.0
 30
0.0
  0
XRECORD
  5
70A
102
{ACAD_REACTORS
330
6F5
102
}
330
6F5
100
AcDbXrecord
 10
0.0
 20
0.0
 30
0.0
  0
XRECORD
  5
70B
102
{ACAD_REACTORS
330
6F5
102
}
330
6F5
100
AcDbXrecord
 10
0.0
 20
0.0
 30
0.0
  0
XRECORD
  5
70C
102
{ACAD_REACTORS
330
6F5
102
}
330
6F5
100
AcDbXrecord
340
0
  0
XRECORD
  5
70D
102
{ACAD_REACTORS
330
6F5
102
}
330
6F5
100
AcDbXrecord
 70
     0
  0
XRECORD
  5
70E
102
{ACAD_REACTORS
330
6F5
102
}
330
6F5
100
AcDbXrecord
340
0
  0
XRECORD
  5
70F
102
{ACAD_REACTORS
330
6F5
102
}
330
6F5
100
AcDbXrecord
 10
0.0
 20
0.0
 30
0.0
  0
XRECORD
  5
710
102
{ACAD_REACTORS
330
6F5
102
}
330
6F5
100
AcDbXrecord
 10
0.0
 20
0.0
 30
0.0
  0
XRECORD
  5
711
102
{ACAD_REACTORS
330
6F5
102
}
330
6F5
100
AcDbXrecord
 10
0.0
 20
0.0
 30
0.0
  0
XRECORD
  5
712
102
{ACAD_REACTORS
330
6F5
102
}
330
6F5
100
AcDbXrecord
 10
0.0
 20
0.0
 30
0.0
  0
XRECORD
  5
713
102
{ACAD_REACTORS
330
6F5
102
}
330
6F5
100
AcDbXrecord
 10
0.0
 20
0.0
 30
0.0
  0
XRECORD
  5
714
102
{ACAD_REACTORS
330
6F5
102
}
330
6F5
100
AcDbXrecord
 10
0.0
 20
0.0
 30
0.0
  0
ENDSEC
  0
EOF
