  0
SECTION
  2
HEADER
  9
$ACADVER
  1
AC1015
  9
$ACADMAINTVER
 70
     6
  9
$DWGCODEPAGE
  3
ANSI_1252
  9
$INSBASE
 10
0.0
 20
0.0
 30
0.0
  9
$EXTMIN
 10
0.0
 20
-0.6568055499926886
 30
0.0
  9
$EXTMAX
 10
37.95
 20
58.125
 30
0.0
  9
$LIMMIN
 10
0.0
 20
0.0
  9
$LIMMAX
 10
11.0
 20
8.5
  9
$ORTHOMODE
 70
     1
  9
$REGENMODE
 70
     1
  9
$FILLMODE
 70
     1
  9
$QTEXTMODE
 70
     0
  9
$MIRRTEXT
 70
     0
  9
$LTSCALE
 40
0.5
  9
$ATTMODE
 70
     1
  9
$TEXTSIZE
 40
0.125
  9
$TRACEWID
 40
0.05
  9
$TEXTSTYLE
  7
TXT
  9
$CLAYER
  8
OBJECT
  9
$CELTYPE
  6
ByLayer
  9
$CECOLOR
 62
   256
  9
$CELTSCALE
 40
1.0
  9
$DISPSILH
 70
     0
  9
$DIMSCALE
 40
3.75
  9
$DIMASZ
 40
0.18
  9
$DIMEXO
 40
0.063
  9
$DIMDLI
 40
0.281
  9
$DIMRND
 40
0.0
  9
$DIMDLE
 40
0.0
  9
$DIMEXE
 40
0.093
  9
$DIMTP
 40
0.0
  9
$DIMTM
 40
0.0
  9
$DIMTXT
 40
0.125
  9
$DIMCEN
 40
0.09
  9
$DIMTSZ
 40
0.0
  9
$DIMTOL
 70
     0
  9
$DIMLIM
 70
     0
  9
$DIMTIH
 70
     1
  9
$DIMTOH
 70
     1
  9
$DIMSE1
 70
     0
  9
$DIMSE2
 70
     0
  9
$DIMTAD
 70
     0
  9
$DIMZIN
 70
     0
  9
$DIMBLK
  1

  9
$DIMASO
 70
     1
  9
$DIMSHO
 70
     1
  9
$DIMPOST
  1

  9
$DIMAPOST
  1

  9
$DIMALT
 70
     0
  9
$DIMALTD
 70
     2
  9
$DIMALTF
 40
25.4
  9
$DIMLFAC
 40
1.0
  9
$DIMTOFL
 70
     0
  9
$DIMTVP
 40
0.0
  9
$DIMTIX
 70
     0
  9
$DIMSOXD
 70
     0
  9
$DIMSAH
 70
     0
  9
$DIMBLK1
  1

  9
$DIMBLK2
  1

  9
$DIMSTYLE
  2
23NSTD
  9
$DIMCLRD
 70
     0
  9
$DIMCLRE
 70
     0
  9
$DIMCLRT
 70
     0
  9
$DIMTFAC
 40
1.0
  9
$DIMGAP
 40
0.09
  9
$DIMJUST
 70
     0
  9
$DIMSD1
 70
     0
  9
$DIMSD2
 70
     0
  9
$DIMTOLJ
 70
     1
  9
$DIMTZIN
 70
     0
  9
$DIMALTZ
 70
     0
  9
$DIMALTTZ
 70
     0
  9
$DIMUPT
 70
     0
  9
$DIMDEC
 70
     3
  9
$DIMTDEC
 70
     3
  9
$DIMALTU
 70
     2
  9
$DIMALTTD
 70
     2
  9
$DIMTXSTY
  7
TXT
  9
$DIMAUNIT
 70
     0
  9
$DIMADEC
 70
     0
  9
$DIMALTRND
 40
0.0
  9
$DIMAZIN
 70
     0
  9
$DIMDSEP
 70
    46
  9
$DIMATFIT
 70
     0
  9
$DIMFRAC
 70
     0
  9
$DIMLDRBLK
  1

  9
$DIMLUNIT
 70
     2
  9
$DIMLWD
 70
    -2
  9
$DIMLWE
 70
    -2
  9
$DIMTMOVE
 70
     0
  9
$LUNITS
 70
     2
  9
$LUPREC
 70
     3
  9
$SKETCHINC
 40
0.1
  9
$FILLETRAD
 40
0.0
  9
$AUNITS
 70
     0
  9
$AUPREC
 70
     0
  9
$MENU
  1
acad
  9
$ELEVATION
 40
0.0
  9
$PELEVATION
 40
0.0
  9
$THICKNESS
 40
0.0
  9
$LIMCHECK
 70
     0
  9
$CHAMFERA
 40
0.0
  9
$CHAMFERB
 40
0.0
  9
$CHAMFERC
 40
0.0
  9
$CHAMFERD
 40
0.0
  9
$SKPOLY
 70
     0
  9
$TDCREATE
 40
2454278.385729699
  9
$TDUCREATE
 40
2454278.552396366
  9
$TDUPDATE
 40
2454306.448415972
  9
$TDUUPDATE
 40
2454306.615082638
  9
$TDINDWG
 40
0.0135210648
  9
$TDUSRTIMER
 40
0.0135210648
  9
$USRTIMER
 70
     1
  9
$ANGBASE
 50
0.0
  9
$ANGDIR
 70
     0
  9
$PDMODE
 70
     0
  9
$PDSIZE
 40
0.0
  9
$PLINEWID
 40
0.0
  9
$SPLFRAME
 70
     0
  9
$SPLINETYPE
 70
     6
  9
$SPLINESEGS
 70
     8
  9
$HANDSEED
  5
967
  9
$SURFTAB1
 70
     6
  9
$SURFTAB2
 70
     6
  9
$SURFTYPE
 70
     6
  9
$SURFU
 70
     6
  9
$SURFV
 70
     6
  9
$UCSBASE
  2

  9
$UCSNAME
  2

  9
$UCSORG
 10
0.0
 20
0.0
 30
0.0
  9
$UCSXDIR
 10
1.0
 20
0.0
 30
0.0
  9
$UCSYDIR
 10
0.0
 20
1.0
 30
0.0
  9
$UCSORTHOREF
  2

  9
$UCSORTHOVIEW
 70
     0
  9
$UCSORGTOP
 10
0.0
 20
0.0
 30
0.0
  9
$UCSORGBOTTOM
 10
0.0
 20
0.0
 30
0.0
  9
$UCSORGLEFT
 10
0.0
 20
0.0
 30
0.0
  9
$UCSORGRIGHT
 10
0.0
 20
0.0
 30
0.0
  9
$UCSORGFRONT
 10
0.0
 20
0.0
 30
0.0
  9
$UCSORGBACK
 10
0.0
 20
0.0
 30
0.0
  9
$PUCSBASE
  2

  9
$PUCSNAME
  2

  9
$PUCSORG
 10
0.0
 20
0.0
 30
0.0
  9
$PUCSXDIR
 10
1.0
 20
0.0
 30
0.0
  9
$PUCSYDIR
 10
0.0
 20
1.0
 30
0.0
  9
$PUCSORTHOREF
  2

  9
$PUCSORTHOVIEW
 70
     0
  9
$PUCSORGTOP
 10
0.0
 20
0.0
 30
0.0
  9
$PUCSORGBOTTOM
 10
0.0
 20
0.0
 30
0.0
  9
$PUCSORGLEFT
 10
0.0
 20
0.0
 30
0.0
  9
$PUCSORGRIGHT
 10
0.0
 20
0.0
 30
0.0
  9
$PUCSORGFRONT
 10
0.0
 20
0.0
 30
0.0
  9
$PUCSORGBACK
 10
0.0
 20
0.0
 30
0.0
  9
$USERI1
 70
     0
  9
$USERI2
 70
     0
  9
$USERI3
 70
     0
  9
$USERI4
 70
     0
  9
$USERI5
 70
     0
  9
$USERR1
 40
0.0
  9
$USERR2
 40
0.0
  9
$USERR3
 40
0.0
  9
$USERR4
 40
0.0
  9
$USERR5
 40
0.0
  9
$WORLDVIEW
 70
     1
  9
$SHADEDGE
 70
     3
  9
$SHADEDIF
 70
    70
  9
$TILEMODE
 70
     1
  9
$MAXACTVP
 70
    16
  9
$PINSBASE
 10
0.0
 20
0.0
 30
0.0
  9
$PLIMCHECK
 70
     0
  9
$PEXTMIN
 10
1.000000000000000E+20
 20
1.000000000000000E+20
 30
1.000000000000000E+20
  9
$PEXTMAX
 10
-1.000000000000000E+20
 20
-1.000000000000000E+20
 30
-1.000000000000000E+20
  9
$PLIMMIN
 10
0.0
 20
0.0
  9
$PLIMMAX
 10
12.0
 20
9.0
  9
$UNITMODE
 70
     0
  9
$VISRETAIN
 70
     0
  9
$PLINEGEN
 70
     0
  9
$PSLTSCALE
 70
     1
  9
$TREEDEPTH
 70
  3020
  9
$CMLSTYLE
  2
Standard
  9
$CMLJUST
 70
     0
  9
$CMLSCALE
 40
1.0
  9
$PROXYGRAPHICS
 70
     1
  9
$MEASUREMENT
 70
     0
  9
$CELWEIGHT
370
    -1
  9
$ENDCAPS
280
     0
  9
$JOINSTYLE
280
     0
  9
$LWDISPLAY
290
     0
  9
$INSUNITS
 70
     0
  9
$HYPERLINKBASE
  1

  9
$STYLESHEET
  1
monochrome.ctb
  9
$XEDIT
290
     1
  9
$CEPSNTYPE
380
     0
  9
$PSTYLEMODE
290
     1
  9
$FINGERPRINTGUID
  2
{5F9F434B-8232-11D3-80AD-00C04F604D1B}
  9
$VERSIONGUID
  2
{1035796C-2F8A-4828-A46F-1DE1FB6A9F92}
  9
$EXTNAMES
290
     1
  9
$PSVPSCALE
 40
0.0
  9
$OLESTARTUP
290
     0
  0
ENDSEC
  0
SECTION
  2
CLASSES
  0
CLASS
  1
ACDBDICTIONARYWDFLT
  2
AcDbDictionaryWithDefault
  3
AutoCAD 2000
 90
        0
280
     0
281
     0
  0
CLASS
  1
ACDBPLACEHOLDER
  2
AcDbPlaceHolder
  3
AutoCAD 2000
 90
        0
280
     0
281
     0
  0
CLASS
  1
LAYOUT
  2
AcDbLayout
  3
AutoCAD 2000
 90
        0
280
     0
281
     0
  0
ENDSEC
  0
SECTION
  2
TABLES
  0
TABLE
  2
VPORT
  5
8
330
0
100
AcDbSymbolTable
 70
     3
  0
VPORT
  5
966
330
8
100
AcDbSymbolTableRecord
100
AcDbViewportTableRecord
  2
*Active
 70
     0
 10
0.0
 20
0.0
 11
1.0
 21
1.0
 12
18.97500059646185
 22
28.73409814887995
 13
0.0
 23
0.0
 14
0.125
 24
0.125
 15
0.125
 25
0.125
 16
0.0
 26
0.0
 36
1.0
 17
0.0
 27
0.0
 37
0.0
 40
59.37687061130391
 41
1.824707846410684
 42
50.0
 43
0.0
 44
0.0
 50
0.0
 51
0.0
 71
     0
 72
   100
 73
     1
 74
     0
 75
     0
 76
     0
 77
     0
 78
     0
281
     0
 65
     1
110
0.0
120
0.0
130
0.0
111
1.0
121
0.0
131
0.0
112
0.0
122
1.0
132
0.0
 79
     0
146
0.0
  0
ENDTAB
  0
TABLE
  2
LTYPE
  5
5
330
0
100
AcDbSymbolTable
 70
     6
  0
LTYPE
  5
13
330
5
100
AcDbSymbolTableRecord
100
AcDbLinetypeTableRecord
  2
ByBlock
 70
     0
  3

 72
    65
 73
     0
 40
0.0
  0
LTYPE
  5
14
330
5
100
AcDbSymbolTableRecord
100
AcDbLinetypeTableRecord
  2
ByLayer
 70
     0
  3

 72
    65
 73
     0
 40
0.0
  0
LTYPE
  5
15
330
5
100
AcDbSymbolTableRecord
100
AcDbLinetypeTableRecord
  2
CONTINUOUS
 70
     0
  3
Solid line
 72
    65
 73
     0
 40
0.0
  0
LTYPE
  5
22
330
5
100
AcDbSymbolTableRecord
100
AcDbLinetypeTableRecord
  2
HIDDEN
 70
     0
  3
_ _ _ _ _ _ _ _ _ _ _ _ _ _ _ _ _ _ _ _ _ _ _
 72
    65
 73
     2
 40
0.375
 49
0.25
 74
     0
 49
-0.125
 74
     0
  0
LTYPE
  5
23
330
5
100
AcDbSymbolTableRecord
100
AcDbLinetypeTableRecord
  2
PHANTOM
 70
     0
  3
_____ _ _ _____ _ _ _____ _ _ _____ _ _ ____
 72
    65
 73
     6
 40
2.5
 49
1.25
 74
     0
 49
-0.25
 74
     0
 49
0.25
 74
     0
 49
-0.25
 74
     0
 49
0.25
 74
     0
 49
-0.25
 74
     0
  0
LTYPE
  5
24
330
5
100
AcDbSymbolTableRecord
100
AcDbLinetypeTableRecord
  2
CENTER
 70
     0
  3
____ _ ____ _ ____ _ ____ _ ____ _ ____ _ ____
 72
    65
 73
     4
 40
2.0
 49
1.25
 74
     0
 49
-0.25
 74
     0
 49
0.25
 74
     0
 49
-0.25
 74
     0
  0
LTYPE
  5
25
330
5
100
AcDbSymbolTableRecord
100
AcDbLinetypeTableRecord
  2
HIDDEN2
 70
     0
  3
_ _ _ _ _ _ _ _ _ _ _ _ _ _ _ _ _ _ _ _ _ _ _ _
 72
    65
 73
     2
 40
0.1875
 49
0.125
 74
     0
 49
-0.0625
 74
     0
  0
LTYPE
  5
26
330
5
100
AcDbSymbolTableRecord
100
AcDbLinetypeTableRecord
  2
PHANTOM2
 70
     0
  3
___ _ _ ___ _ _ ___ _ _ ___ _ _ ___ _ _ ___ _ _
 72
    65
 73
     6
 40
1.25
 49
0.625
 74
     0
 49
-0.125
 74
     0
 49
0.125
 74
     0
 49
-0.125
 74
     0
 49
0.125
 74
     0
 49
-0.125
 74
     0
  0
ENDTAB
  0
TABLE
  2
LAYER
  5
2
330
0
100
AcDbSymbolTable
 70
     9
  0
LAYER
  5
10
330
2
100
AcDbSymbolTableRecord
100
AcDbLayerTableRecord
  2
0
 70
     0
 62
     7
  6
CONTINUOUS
370
    -3
390
F
  0
LAYER
  5
29
330
2
100
AcDbSymbolTableRecord
100
AcDbLayerTableRecord
  2
OBJECT
 70
     0
 62
     7
  6
CONTINUOUS
370
    -3
390
F
  0
LAYER
  5
2A
330
2
100
AcDbSymbolTableRecord
100
AcDbLayerTableRecord
  2
DIM
 70
     0
 62
     7
  6
CONTINUOUS
370
    -3
390
F
  0
LAYER
  5
2B
330
2
100
AcDbSymbolTableRecord
100
AcDbLayerTableRecord
  2
HIDDEN
 70
     0
 62
     7
  6
HIDDEN
370
    -3
390
F
  0
LAYER
  5
2C
330
2
100
AcDbSymbolTableRecord
100
AcDbLayerTableRecord
  2
BEND
 70
     0
 62
     7
  6
PHANTOM
370
    -3
390
F
  0
LAYER
  5
2D
330
2
100
AcDbSymbolTableRecord
100
AcDbLayerTableRecord
  2
TEXT
 70
     0
 62
     7
  6
CONTINUOUS
370
    -3
390
F
  0
LAYER
  5
2E
330
2
100
AcDbSymbolTableRecord
100
AcDbLayerTableRecord
  2
TITLE
 70
     0
 62
     7
  6
CONTINUOUS
370
    -3
390
F
  0
LAYER
  5
2F
330
2
100
AcDbSymbolTableRecord
100
AcDbLayerTableRecord
  2
CENTER
 70
     0
 62
     7
  6
CENTER
370
    -3
390
F
  0
LAYER
  5
1C8
330
2
100
AcDbSymbolTableRecord
100
AcDbLayerTableRecord
  2
DEFPOINTS
 70
     0
 62
     7
  6
CONTINUOUS
290
     0
370
    -3
390
F
  0
ENDTAB
  0
TABLE
  2
STYLE
  5
3
330
0
100
AcDbSymbolTable
 70
     1
  0
STYLE
  5
11
330
3
100
AcDbSymbolTableRecord
100
AcDbTextStyleTableRecord
  2
TXT
 70
     0
 40
0.0
 41
0.75
 50
0.0
 71
     0
 42
0.125
  3
TXT.shx
  4

  0
ENDTAB
  0
TABLE
  2
VIEW
  5
6
330
0
100
AcDbSymbolTable
 70
     0
  0
ENDTAB
  0
TABLE
  2
UCS
  5
7
330
0
100
AcDbSymbolTable
 70
     0
  0
ENDTAB
  0
TABLE
  2
APPID
  5
9
330
0
100
AcDbSymbolTable
 70
     1
  0
APPID
  5
12
330
9
100
AcDbSymbolTableRecord
100
AcDbRegAppTableRecord
  2
ACAD
 70
     0
  0
ENDTAB
  0
TABLE
  2
DIMSTYLE
  5
A
330
0
100
AcDbSymbolTable
 70
     2
100
AcDbDimStyleTable
 71
     2
340
38
340
39
  0
DIMSTYLE
105
38
102
{ACAD_REACTORS
330
485
330
486
330
487
330
488
330
55C
330
55D
330
55E
330
55F
330
5C8
330
5F8
330
5FD
330
607
330
62C
330
634
330
642
330
644
330
645
102
}
330
A
100
AcDbSymbolTableRecord
100
AcDbDimStyleTableRecord
  2
23NSTD
 70
     0
 40
3.75
 42
0.063
 43
0.281
 44
0.093
140
0.125
271
     3
272
     3
289
     0
340
11
  0
DIMSTYLE
105
39
330
A
100
AcDbSymbolTableRecord
100
AcDbDimStyleTableRecord
  2
23NSTDI
 70
     0
 40
3.75
 42
0.063
 43
0.281
 44
0.093
140
0.125
174
     1
271
     3
272
     3
289
     0
340
11
  0
ENDTAB
  0
TABLE
  2
BLOCK_RECORD
  5
1
330
0
100
AcDbSymbolTable
 70
    20
  0
BLOCK_RECORD
  5
1E
330
1
100
AcDbSymbolTableRecord
100
AcDbBlockTableRecord
  2
*Model_Space
340
21
  0
BLOCK_RECORD
  5
1A
330
1
100
AcDbSymbolTableRecord
100
AcDbBlockTableRecord
  2
*Paper_Space
340
1D
  0
BLOCK_RECORD
  5
5E
330
1
100
AcDbSymbolTableRecord
100
AcDbBlockTableRecord
  2
HB
340
0
102
{BLKREFS
331
45D
102
}
  0
BLOCK_RECORD
  5
72
330
1
100
AcDbSymbolTableRecord
100
AcDbBlockTableRecord
  2
*X1
340
0
102
{BLKREFS
331
5C6
102
}
  0
BLOCK_RECORD
  5
9F
330
1
100
AcDbSymbolTableRecord
100
AcDbBlockTableRecord
  2
*X2
340
0
102
{BLKREFS
331
5C7
102
}
  0
BLOCK_RECORD
  5
662
330
1
100
AcDbSymbolTableRecord
100
AcDbBlockTableRecord
  2
*D3
340
0
  0
BLOCK_RECORD
  5
66F
330
1
100
AcDbSymbolTableRecord
100
AcDbBlockTableRecord
  2
*D4
340
0
  0
BLOCK_RECORD
  5
67C
330
1
100
AcDbSymbolTableRecord
100
AcDbBlockTableRecord
  2
*D5
340
0
  0
BLOCK_RECORD
  5
689
330
1
100
AcDbSymbolTableRecord
100
AcDbBlockTableRecord
  2
*D6
340
0
  0
BLOCK_RECORD
  5
696
330
1
100
AcDbSymbolTableRecord
100
AcDbBlockTableRecord
  2
*D7
340
0
  0
BLOCK_RECORD
  5
6A3
330
1
100
AcDbSymbolTableRecord
100
AcDbBlockTableRecord
  2
*D8
340
0
  0
BLOCK_RECORD
  5
6B0
330
1
100
AcDbSymbolTableRecord
100
AcDbBlockTableRecord
  2
*D9
340
0
  0
BLOCK_RECORD
  5
6BD
330
1
100
AcDbSymbolTableRecord
100
AcDbBlockTableRecord
  2
*D10
340
0
  0
BLOCK_RECORD
  5
6CA
330
1
100
AcDbSymbolTableRecord
100
AcDbBlockTableRecord
  2
*D11
340
0
  0
BLOCK_RECORD
  5
6D7
330
1
100
AcDbSymbolTableRecord
100
AcDbBlockTableRecord
  2
*D12
340
0
  0
BLOCK_RECORD
  5
6E4
330
1
100
AcDbSymbolTableRecord
100
AcDbBlockTableRecord
  2
*D13
340
0
  0
BLOCK_RECORD
  5
6F1
330
1
100
AcDbSymbolTableRecord
100
AcDbBlockTableRecord
  2
*D14
340
0
  0
BLOCK_RECORD
  5
6FE
330
1
100
AcDbSymbolTableRecord
100
AcDbBlockTableRecord
  2
*D15
340
0
  0
BLOCK_RECORD
  5
70B
330
1
100
AcDbSymbolTableRecord
100
AcDbBlockTableRecord
  2
*D16
340
0
  0
BLOCK_RECORD
  5
718
330
1
100
AcDbSymbolTableRecord
100
AcDbBlockTableRecord
  2
*D17
340
0
  0
BLOCK_RECORD
  5
725
330
1
100
AcDbSymbolTableRecord
100
AcDbBlockTableRecord
  2
*D18
340
0
  0
BLOCK_RECORD
  5
732
330
1
100
AcDbSymbolTableRecord
100
AcDbBlockTableRecord
  2
*D19
340
0
  0
ENDTAB
  0
ENDSEC
  0
SECTION
  2
BLOCKS
  0
BLOCK
  5
33
330
1E
100
AcDbEntity
  8
0
100
AcDbBlockBegin
  2
*Model_Space
 70
     0
 10
0.0
 20
0.0
 30
0.0
  3
*Model_Space
  1

  0
ENDBLK
  5
34
330
1E
100
AcDbEntity
  8
0
100
AcDbBlockEnd
  0
BLOCK
  5
31
330
1A
100
AcDbEntity
 67
     1
  8
0
100
AcDbBlockBegin
  2
*Paper_Space
 70
     0
 10
0.0
 20
0.0
 30
0.0
  3
*Paper_Space
  1

  0
ENDBLK
  5
32
330
1A
100
AcDbEntity
 67
     1
  8
0
100
AcDbBlockEnd
  0
BLOCK
  5
70
330
5E
100
AcDbEntity
  8
0
100
AcDbBlockBegin
  2
HB
 70
     0
 10
0.0
 20
0.0
 30
0.0
  3
HB
  1

  0
TEXT
  5
5F
330
5E
100
AcDbEntity
  8
TEXT
100
AcDbText
 10
0.2078333333333363
 20
15.06007919564008
 30
0.0
 40
0.125
  1
NAME
 72
     1
 11
0.437000000000003
 21
15.06007919564008
 31
0.0
100
AcDbText
  0
TEXT
  5
60
330
5E
100
AcDbEntity
  8
TEXT
100
AcDbText
 10
0.2078333333333363
 20
15.26841252897341
 30
0.0
 40
0.125
  1
PART
 72
     1
 11
0.437000000000003
 21
15.26841252897341
 31
0.0
100
AcDbText
  0
TEXT
  5
61
330
5E
100
AcDbEntity
  8
TEXT
100
AcDbText
 10
5.371999999999998
 20
15.06007919564008
 30
0.0
 40
0.125
  1
No.
 72
     1
 11
5.496999999999998
 21
15.06007919564008
 31
0.0
100
AcDbText
  0
TEXT
  5
62
330
5E
100
AcDbEntity
  8
TEXT
100
AcDbText
 10
5.267833333333331
 20
15.26841252897341
 30
0.0
 40
0.125
  1
PART
 72
     1
 11
5.496999999999998
 21
15.26841252897341
 31
0.0
100
AcDbText
  0
LINE
  5
63
330
5E
100
AcDbEntity
  8
TITLE
100
AcDbLine
 10
5.872000000000001
 20
15.438
 30
0.0
 11
5.872000000000001
 21
15.01999999999999
 31
0.0
  0
LINE
  5
64
330
5E
100
AcDbEntity
  8
TITLE
100
AcDbLine
 10
5.122000000000001
 20
15.438
 30
0.0
 11
5.122000000000001
 21
15.01999999999999
 31
0.0
  0
LINE
  5
65
330
5E
100
AcDbEntity
  8
TITLE
100
AcDbLine
 10
5.06
 20
15.438
 30
0.0
 11
5.06
 21
15.01999999999999
 31
0.0
  0
LINE
  5
66
330
5E
100
AcDbEntity
  8
TITLE
100
AcDbLine
 10
0.8120000000000029
 20
15.01999999999999
 30
0.0
 11
0.8120000000000011
 21
15.438
 31
0.0
  0
LINE
  5
67
330
5E
100
AcDbEntity
  8
TITLE
100
AcDbLine
 10
0.0620000000000012
 20
15.01999999999999
 30
0.0
 11
10.058
 21
15.01999999999999
 31
0.0
  0
LINE
  5
68
330
5E
100
AcDbEntity
  8
TITLE
100
AcDbLine
 10
10.058
 20
0.0619999999999994
 30
0.0
 11
0.0619999999999976
 21
0.0620000000000012
 31
0.0
  0
LINE
  5
69
330
5E
100
AcDbEntity
  8
TITLE
100
AcDbLine
 10
10.058
 20
15.438
 30
0.0
 11
10.058
 21
0.0619999999999994
 31
0.0
  0
LINE
  5
6A
330
5E
100
AcDbEntity
  8
TITLE
100
AcDbLine
 10
0.0620000000000012
 20
15.438
 30
0.0
 11
10.058
 21
15.438
 31
0.0
  0
LINE
  5
6B
330
5E
100
AcDbEntity
  8
TITLE
100
AcDbLine
 10
0.0619999999999976
 20
0.0620000000000012
 30
0.0
 11
0.0620000000000012
 21
15.438
 31
0.0
  0
LINE
  5
6C
330
5E
100
AcDbEntity
  8
TITLE
100
AcDbLine
 10
0.0
 20
0.0
 30
0.0
 11
0.0
 21
15.5
 31
0.0
  0
LINE
  5
6D
330
5E
100
AcDbEntity
  8
TITLE
100
AcDbLine
 10
10.12
 20
-0.0000000000000018
 30
0.0
 11
0.0
 21
0.0
 31
0.0
  0
LINE
  5
6E
330
5E
100
AcDbEntity
  8
TITLE
100
AcDbLine
 10
10.12
 20
15.49999999999999
 30
0.0
 11
10.12
 21
-0.0000000000000018
 31
0.0
  0
LINE
  5
6F
330
5E
100
AcDbEntity
  8
TITLE
100
AcDbLine
 10
0.0
 20
15.5
 30
0.0
 11
10.12
 21
15.49999999999999
 31
0.0
  0
ENDBLK
  5
71
330
5E
100
AcDbEntity
  8
0
100
AcDbBlockEnd
  0
BLOCK
  5
9D
330
72
100
AcDbEntity
  8
0
100
AcDbBlockBegin
  2
*X1
 70
     1
 10
0.0
 20
0.0
 30
0.0
  3
*X1
  1

  0
LINE
  5
73
330
72
100
AcDbEntity
  8
0
 62
     0
100
AcDbLine
 10
32.91076420632974
 20
13.64210441899632
 30
0.0
 11
33.05676420632974
 21
13.78810441899632
 31
0.0
  0
LINE
  5
74
330
72
100
AcDbEntity
  8
0
 62
     0
100
AcDbLine
 10
32.91076420632974
 20
13.81888111429296
 30
0.0
 11
33.05676420632974
 21
13.96488111429296
 31
0.0
  0
LINE
  5
75
330
72
100
AcDbEntity
  8
0
 62
     0
100
AcDbLine
 10
32.91076420632974
 20
13.99565780958959
 30
0.0
 11
33.05676420632974
 21
14.1416578095896
 31
0.0
  0
LINE
  5
76
330
72
100
AcDbEntity
  8
0
 62
     0
100
AcDbLine
 10
32.91076420632974
 20
14.17243450488623
 30
0.0
 11
33.05676420632974
 21
14.31843450488623
 31
0.0
  0
LINE
  5
77
330
72
100
AcDbEntity
  8
0
 62
     0
100
AcDbLine
 10
32.91076420632974
 20
14.34921120018287
 30
0.0
 11
33.05676420632974
 21
14.49521120018287
 31
0.0
  0
LINE
  5
78
330
72
100
AcDbEntity
  8
0
 62
     0
100
AcDbLine
 10
32.91076420632974
 20
14.5259878954795
 30
0.0
 11
33.05676420632974
 21
14.67198789547951
 31
0.0
  0
LINE
  5
79
330
72
100
AcDbEntity
  8
0
 62
     0
100
AcDbLine
 10
32.91076420632974
 20
14.70276459077614
 30
0.0
 11
33.05676420632974
 21
14.84876459077614
 31
0.0
  0
LINE
  5
7A
330
72
100
AcDbEntity
  8
0
 62
     0
100
AcDbLine
 10
32.91076420632974
 20
14.87954128607278
 30
0.0
 11
33.05676420632974
 21
15.02554128607278
 31
0.0
  0
LINE
  5
7B
330
72
100
AcDbEntity
  8
0
 62
     0
100
AcDbLine
 10
32.91076420632974
 20
15.05631798136942
 30
0.0
 11
33.05676420632974
 21
15.20231798136942
 31
0.0
  0
LINE
  5
7C
330
72
100
AcDbEntity
  8
0
 62
     0
100
AcDbLine
 10
32.91076420632974
 20
15.23309467666605
 30
0.0
 11
33.05676420632974
 21
15.37909467666605
 31
0.0
  0
LINE
  5
7D
330
72
100
AcDbEntity
  8
0
 62
     0
100
AcDbLine
 10
32.91076420632974
 20
15.40987137196269
 30
0.0
 11
33.05676420632974
 21
15.55587137196269
 31
0.0
  0
LINE
  5
7E
330
72
100
AcDbEntity
  8
0
 62
     0
100
AcDbLine
 10
32.91076420632974
 20
15.58664806725933
 30
0.0
 11
33.05676420632974
 21
15.73264806725933
 31
0.0
  0
LINE
  5
7F
330
72
100
AcDbEntity
  8
0
 62
     0
100
AcDbLine
 10
32.91076420632974
 20
15.76342476255596
 30
0.0
 11
33.05676420632974
 21
15.90942476255596
 31
0.0
  0
LINE
  5
80
330
72
100
AcDbEntity
  8
0
 62
     0
100
AcDbLine
 10
32.91076420632974
 20
15.9402014578526
 30
0.0
 11
33.05676420632974
 21
16.0862014578526
 31
0.0
  0
LINE
  5
81
330
72
100
AcDbEntity
  8
0
 62
     0
100
AcDbLine
 10
32.91076420632974
 20
16.11697815314924
 30
0.0
 11
33.05676420632974
 21
16.26297815314924
 31
0.0
  0
LINE
  5
82
330
72
100
AcDbEntity
  8
0
 62
     0
100
AcDbLine
 10
32.91076420632974
 20
16.29375484844588
 30
0.0
 11
33.05676420632974
 21
16.43975484844587
 31
0.0
  0
LINE
  5
83
330
72
100
AcDbEntity
  8
0
 62
     0
100
AcDbLine
 10
32.91076420632974
 20
16.47053154374251
 30
0.0
 11
33.05676420632974
 21
16.61653154374251
 31
0.0
  0
LINE
  5
84
330
72
100
AcDbEntity
  8
0
 62
     0
100
AcDbLine
 10
32.91076420632974
 20
16.64730823903915
 30
0.0
 11
33.05676420632974
 21
16.79330823903915
 31
0.0
  0
LINE
  5
85
330
72
100
AcDbEntity
  8
0
 62
     0
100
AcDbLine
 10
32.91076420632974
 20
16.82408493433578
 30
0.0
 11
33.05676420632974
 21
16.97008493433579
 31
0.0
  0
LINE
  5
86
330
72
100
AcDbEntity
  8
0
 62
     0
100
AcDbLine
 10
32.91076420632974
 20
17.00086162963242
 30
0.0
 11
32.9521863085664
 21
17.04228373186908
 31
0.0
  0
LINE
  5
87
330
72
100
AcDbEntity
  8
0
 62
     0
100
AcDbLine
 10
32.91076420632974
 20
13.46532772369968
 30
0.0
 11
33.05676420632974
 21
13.61132772369969
 31
0.0
  0
LINE
  5
88
330
72
100
AcDbEntity
  8
0
 62
     0
100
AcDbLine
 10
32.91076420632974
 20
13.28855102840305
 30
0.0
 11
33.05676420632974
 21
13.43455102840305
 31
0.0
  0
LINE
  5
89
330
72
100
AcDbEntity
  8
0
 62
     0
100
AcDbLine
 10
32.91076420632974
 20
13.11177433310641
 30
0.0
 11
33.05676420632974
 21
13.25777433310641
 31
0.0
  0
LINE
  5
8A
330
72
100
AcDbEntity
  8
0
 62
     0
100
AcDbLine
 10
32.91076420632974
 20
12.93499763780977
 30
0.0
 11
33.05676420632974
 21
13.08099763780978
 31
0.0
  0
LINE
  5
8B
330
72
100
AcDbEntity
  8
0
 62
     0
100
AcDbLine
 10
32.91076420632974
 20
12.75822094251314
 30
0.0
 11
33.05676420632974
 21
12.90422094251314
 31
0.0
  0
LINE
  5
8C
330
72
100
AcDbEntity
  8
0
 62
     0
100
AcDbLine
 10
32.91076420632974
 20
12.5814442472165
 30
0.0
 11
33.05676420632974
 21
12.7274442472165
 31
0.0
  0
LINE
  5
8D
330
72
100
AcDbEntity
  8
0
 62
     0
100
AcDbLine
 10
32.91076420632974
 20
12.40466755191986
 30
0.0
 11
33.05676420632974
 21
12.55066755191986
 31
0.0
  0
LINE
  5
8E
330
72
100
AcDbEntity
  8
0
 62
     0
100
AcDbLine
 10
32.91076420632974
 20
12.22789085662323
 30
0.0
 11
33.05676420632974
 21
12.37389085662323
 31
0.0
  0
LINE
  5
8F
330
72
100
AcDbEntity
  8
0
 62
     0
100
AcDbLine
 10
32.91076420632974
 20
12.05111416132659
 30
0.0
 11
33.05676420632974
 21
12.19711416132659
 31
0.0
  0
LINE
  5
90
330
72
100
AcDbEntity
  8
0
 62
     0
100
AcDbLine
 10
32.91076420632974
 20
11.87433746602995
 30
0.0
 11
33.05676420632974
 21
12.02033746602996
 31
0.0
  0
LINE
  5
91
330
72
100
AcDbEntity
  8
0
 62
     0
100
AcDbLine
 10
32.91076420632974
 20
11.69756077073331
 30
0.0
 11
33.05676420632974
 21
11.84356077073332
 31
0.0
  0
LINE
  5
92
330
72
100
AcDbEntity
  8
0
 62
     0
100
AcDbLine
 10
32.93713214786556
 20
11.5471520169725
 30
0.0
 11
33.05676420632974
 21
11.66678407543668
 31
0.0
  0
LINE
  5
93
330
72
100
AcDbEntity
  8
0
 62
     0
100
AcDbLine
 10
33.02198991684731
 20
11.45523309065761
 30
0.0
 11
33.13331819198475
 21
11.56656136579506
 31
0.0
  0
LINE
  5
94
330
72
100
AcDbEntity
  8
0
 62
     0
100
AcDbLine
 10
33.16213138752875
 20
11.41859786604242
 30
0.0
 11
33.30187306025631
 21
11.55833953876998
 31
0.0
  0
LINE
  5
95
330
72
100
AcDbEntity
  8
0
 62
     0
100
AcDbLine
 10
33.33115267272528
 20
11.4108424559423
 30
0.0
 11
33.47089434545284
 21
11.55058412866986
 31
0.0
  0
LINE
  5
96
330
72
100
AcDbEntity
  8
0
 62
     0
100
AcDbLine
 10
33.5001739579218
 20
11.40308704584219
 30
0.0
 11
33.63991563064936
 21
11.54282871856975
 31
0.0
  0
LINE
  5
97
330
72
100
AcDbEntity
  8
0
 62
     0
100
AcDbLine
 10
33.66919524311832
 20
11.39533163574207
 30
0.0
 11
33.80893691584588
 21
11.53507330846963
 31
0.0
  0
LINE
  5
98
330
72
100
AcDbEntity
  8
0
 62
     0
100
AcDbLine
 10
33.77101420632973
 20
11.32037390365685
 30
0.0
 11
33.88601420632973
 21
11.43537390365685
 31
0.0
  0
LINE
  5
99
330
72
100
AcDbEntity
  8
0
 62
     0
100
AcDbLine
 10
33.90392403454196
 20
11.45328373186908
 30
0.0
 11
33.9779582010424
 21
11.52731789836952
 31
0.0
  0
LINE
  5
9A
330
72
100
AcDbEntity
  8
0
 62
     0
100
AcDbLine
 10
33.8107007298386
 20
11.18328373186908
 30
0.0
 11
33.9107007298386
 21
11.28328373186908
 31
0.0
  0
LINE
  5
9B
330
72
100
AcDbEntity
  8
0
 62
     0
100
AcDbLine
 10
34.0807007298386
 20
11.45328373186908
 30
0.0
 11
34.08601420632973
 21
11.45859720836021
 31
0.0
  0
LINE
  5
9C
330
72
100
AcDbEntity
  8
0
 62
     0
100
AcDbLine
 10
33.98747742513524
 20
11.18328373186908
 30
0.0
 11
34.08601420632975
 21
11.28182051306358
 31
0.0
  0
ENDBLK
  5
9E
330
72
100
AcDbEntity
  8
0
100
AcDbBlockEnd
  0
BLOCK
  5
E9
330
9F
100
AcDbEntity
  8
0
100
AcDbBlockBegin
  2
*X2
 70
     1
 10
0.0
 20
0.0
 30
0.0
  3
*X2
  1

  0
LINE
  5
A0
330
9F
100
AcDbEntity
  8
0
 62
     0
100
AcDbLine
 10
38.80351420632974
 20
11.57784395321175
 30
0.0
 11
38.6587379785187
 21
11.72262018102279
 31
0.0
  0
LINE
  5
A1
330
9F
100
AcDbEntity
  8
0
 62
     0
100
AcDbLine
 10
38.38863920632974
 20
11.99271895321176
 30
0.0
 11
38.27051420632975
 21
12.11084395321175
 31
0.0
  0
LINE
  5
A2
330
9F
100
AcDbEntity
  8
0
 62
     0
100
AcDbLine
 10
38.54410547024134
 20
11.83725268930016
 30
0.0
 11
38.39457442767244
 21
11.98678373186906
 31
0.0
  0
LINE
  5
A3
330
9F
100
AcDbEntity
  8
0
 62
     0
100
AcDbLine
 10
38.71433796197969
 20
11.49024350226517
 30
0.0
 11
38.56516842812684
 21
11.63941303611802
 31
0.0
  0
LINE
  5
A4
330
9F
100
AcDbEntity
  8
0
 62
     0
100
AcDbLine
 10
38.32657905114188
 20
11.87800241310298
 30
0.0
 11
38.27051420632975
 21
11.93406725791511
 31
0.0
  0
LINE
  5
A5
330
9F
100
AcDbEntity
  8
0
 62
     0
100
AcDbLine
 10
38.54151521306348
 20
11.48628955588474
 30
0.0
 11
38.39353160807958
 21
11.63427316086865
 31
0.0
  0
LINE
  5
A6
330
9F
100
AcDbEntity
  8
0
 62
     0
100
AcDbLine
 10
38.36869246414727
 20
11.48233560950432
 30
0.0
 11
38.2207064808238
 21
11.63032159282779
 31
0.0
  0
LINE
  5
A7
330
9F
100
AcDbEntity
  8
0
 62
     0
100
AcDbLine
 10
38.19586971523106
 20
11.47838166312389
 30
0.0
 11
38.04788135356802
 21
11.62637002478693
 31
0.0
  0
LINE
  5
A8
330
9F
100
AcDbEntity
  8
0
 62
     0
100
AcDbLine
 10
38.02304696631486
 20
11.47442771674346
 30
0.0
 11
37.87505622631224
 21
11.62241845674608
 31
0.0
  0
LINE
  5
A9
330
9F
100
AcDbEntity
  8
0
 62
     0
100
AcDbLine
 10
37.85022421739864
 20
11.47047377036303
 30
0.0
 11
37.70223109905646
 21
11.61846688870522
 31
0.0
  0
LINE
  5
AA
330
9F
100
AcDbEntity
  8
0
 62
     0
100
AcDbLine
 10
37.67740146848243
 20
11.46651982398261
 30
0.0
 11
37.52940597180068
 21
11.61451532066436
 31
0.0
  0
LINE
  5
AB
330
9F
100
AcDbEntity
  8
0
 62
     0
100
AcDbLine
 10
37.50457871956622
 20
11.46256587760218
 30
0.0
 11
37.3565808445449
 21
11.6105637526235
 31
0.0
  0
LINE
  5
AC
330
9F
100
AcDbEntity
  8
0
 62
     0
100
AcDbLine
 10
37.33175597065001
 20
11.45861193122175
 30
0.0
 11
37.18375571728913
 21
11.60661218458264
 31
0.0
  0
LINE
  5
AD
330
9F
100
AcDbEntity
  8
0
 62
     0
100
AcDbLine
 10
37.15893322173381
 20
11.45465798484133
 30
0.0
 11
37.01093059003335
 21
11.60266061654178
 31
0.0
  0
LINE
  5
AE
330
9F
100
AcDbEntity
  8
0
 62
     0
100
AcDbLine
 10
36.9861104728176
 20
11.4507040384609
 30
0.0
 11
36.83810546277757
 21
11.59870904850092
 31
0.0
  0
LINE
  5
AF
330
9F
100
AcDbEntity
  8
0
 62
     0
100
AcDbLine
 10
36.81328772390139
 20
11.44675009208047
 30
0.0
 11
36.6652803355218
 21
11.59475748046006
 31
0.0
  0
LINE
  5
B0
330
9F
100
AcDbEntity
  8
0
 62
     0
100
AcDbLine
 10
36.64046497498517
 20
11.44279614570004
 30
0.0
 11
36.49245520826602
 21
11.5908059124192
 31
0.0
  0
LINE
  5
B1
330
9F
100
AcDbEntity
  8
0
 62
     0
100
AcDbLine
 10
36.46764222606897
 20
11.43884219931962
 30
0.0
 11
36.31963008101024
 21
11.58685434437834
 31
0.0
  0
LINE
  5
B2
330
9F
100
AcDbEntity
  8
0
 62
     0
100
AcDbLine
 10
36.29481947715276
 20
11.43488825293919
 30
0.0
 11
36.14680495375446
 21
11.58290277633748
 31
0.0
  0
LINE
  5
B3
330
9F
100
AcDbEntity
  8
0
 62
     0
100
AcDbLine
 10
36.12199672823655
 20
11.43093430655876
 30
0.0
 11
35.97397982649868
 21
11.57895120829663
 31
0.0
  0
LINE
  5
B4
330
9F
100
AcDbEntity
  8
0
 62
     0
100
AcDbLine
 10
35.94917397932034
 20
11.42698036017834
 30
0.0
 11
35.8011546992429
 21
11.57499964025576
 31
0.0
  0
LINE
  5
B5
330
9F
100
AcDbEntity
  8
0
 62
     0
100
AcDbLine
 10
35.77635123040413
 20
11.42302641379791
 30
0.0
 11
35.62832957198713
 21
11.57104807221491
 31
0.0
  0
LINE
  5
B6
330
9F
100
AcDbEntity
  8
0
 62
     0
100
AcDbLine
 10
35.60352848148792
 20
11.41907246741748
 30
0.0
 11
35.45550444473135
 21
11.56709650417405
 31
0.0
  0
LINE
  5
B7
330
9F
100
AcDbEntity
  8
0
 62
     0
100
AcDbLine
 10
35.43070573257171
 20
11.41511852103705
 30
0.0
 11
35.28267931747557
 21
11.56314493613319
 31
0.0
  0
LINE
  5
B8
330
9F
100
AcDbEntity
  8
0
 62
     0
100
AcDbLine
 10
35.2578829836555
 20
11.41116457465662
 30
0.0
 11
35.1098541902198
 21
11.55919336809233
 31
0.0
  0
LINE
  5
B9
330
9F
100
AcDbEntity
  8
0
 62
     0
100
AcDbLine
 10
35.08506023473929
 20
11.4072106282762
 30
0.0
 11
34.93702906296402
 21
11.55524180005147
 31
0.0
  0
LINE
  5
BA
330
9F
100
AcDbEntity
  8
0
 62
     0
100
AcDbLine
 10
34.91223748582308
 20
11.40325668189577
 30
0.0
 11
34.76420393570824
 21
11.55129023201061
 31
0.0
  0
LINE
  5
BB
330
9F
100
AcDbEntity
  8
0
 62
     0
100
AcDbLine
 10
34.73941473690687
 20
11.39930273551534
 30
0.0
 11
34.59137880845247
 21
11.54733866396975
 31
0.0
  0
LINE
  5
BC
330
9F
100
AcDbEntity
  8
0
 62
     0
100
AcDbLine
 10
34.56659198799066
 20
11.39534878913492
 30
0.0
 11
34.41855368119668
 21
11.54338709592889
 31
0.0
  0
LINE
  5
BD
330
9F
100
AcDbEntity
  8
0
 62
     0
100
AcDbLine
 10
34.39376923907445
 20
11.39139484275449
 30
0.0
 11
34.24572855394091
 21
11.53943552788803
 31
0.0
  0
LINE
  5
BE
330
9F
100
AcDbEntity
  8
0
 62
     0
100
AcDbLine
 10
34.36163920632973
 20
11.24674818020257
 30
0.0
 11
34.08601420632973
 21
11.52237318020257
 31
0.0
  0
LINE
  5
BF
330
9F
100
AcDbEntity
  8
0
 62
     0
100
AcDbLine
 10
34.29282695936654
 20
11.13878373186913
 30
0.0
 11
34.05332695936658
 21
11.37828373186908
 31
0.0
  0
LINE
  5
C0
330
9F
100
AcDbEntity
  8
0
 62
     0
100
AcDbLine
 10
34.1160502640699
 20
11.13878373186913
 30
0.0
 11
34.08601420632973
 21
11.1688197896093
 31
0.0
  0
LINE
  5
C1
330
9F
100
AcDbEntity
  8
0
 62
     0
100
AcDbLine
 10
38.80351420632973
 20
11.7546206485084
 30
0.0
 11
38.57135112296908
 21
11.98678373186906
 31
0.0
  0
LINE
  5
C2
330
9F
100
AcDbEntity
  8
0
 62
     0
100
AcDbLine
 10
38.38863920632972
 20
12.16949564850841
 30
0.0
 11
38.28136064055651
 21
12.27677421428163
 31
0.0
  0
LINE
  5
C3
330
9F
100
AcDbEntity
  8
0
 62
     0
100
AcDbLine
 10
38.88326420632973
 20
11.85164734380504
 30
0.0
 11
38.74812781826571
 21
11.98678373186906
 31
0.0
  0
LINE
  5
C4
330
9F
100
AcDbEntity
  8
0
 62
     0
100
AcDbLine
 10
38.35528614831392
 20
12.37962540182085
 30
0.0
 11
38.27051420632975
 21
12.46439734380503
 31
0.0
  0
LINE
  5
C5
330
9F
100
AcDbEntity
  8
0
 62
     0
100
AcDbLine
 10
38.55812781826571
 20
12.17678373186906
 30
0.0
 11
38.43403962947416
 21
12.30087192066061
 31
0.0
  0
LINE
  5
C6
330
9F
100
AcDbEntity
  8
0
 62
     0
100
AcDbLine
 10
38.73490451356235
 20
12.17678373186906
 30
0.0
 11
38.58671861839182
 21
12.32496962703959
 31
0.0
  0
LINE
  5
C7
330
9F
100
AcDbEntity
  8
0
 62
     0
100
AcDbLine
 10
38.56519296032583
 20
12.34649528510558
 30
0.0
 11
38.42040451356235
 21
12.49128373186906
 31
0.0
  0
LINE
  5
C8
330
9F
100
AcDbEntity
  8
0
 62
     0
100
AcDbLine
 10
38.88326420632973
 20
12.20520073439832
 30
0.0
 11
38.59718120885898
 21
12.49128373186906
 31
0.0
  0
LINE
  5
C9
330
9F
100
AcDbEntity
  8
0
 62
     0
100
AcDbLine
 10
38.40718120885899
 20
12.68128373186906
 30
0.0
 11
38.30284587963276
 21
12.78561906109528
 31
0.0
  0
LINE
  5
CA
330
9F
100
AcDbEntity
  8
0
 62
     0
100
AcDbLine
 10
38.88326420632973
 20
12.38197742969496
 30
0.0
 11
38.76413920632973
 21
12.50110242969495
 31
0.0
  0
LINE
  5
CB
330
9F
100
AcDbEntity
  8
0
 62
     0
100
AcDbLine
 10
38.58395790415562
 20
12.68128373186907
 30
0.0
 11
38.4517314912731
 21
12.81351014475157
 31
0.0
  0
LINE
  5
CC
330
9F
100
AcDbEntity
  8
0
 62
     0
100
AcDbLine
 10
38.88326420632973
 20
12.55875412499159
 30
0.0
 11
38.76413920632973
 21
12.67787912499159
 31
0.0
  0
LINE
  5
CD
330
9F
100
AcDbEntity
  8
0
 62
     0
100
AcDbLine
 10
38.76073459945224
 20
12.68128373186907
 30
0.0
 11
38.60061710291344
 21
12.84140122840788
 31
0.0
  0
LINE
  5
CE
330
9F
100
AcDbEntity
  8
0
 62
     0
100
AcDbLine
 10
38.88326420632973
 20
12.73553082028823
 30
0.0
 11
38.66351420632973
 21
12.95528082028822
 31
0.0
  0
LINE
  5
CF
330
9F
100
AcDbEntity
  8
0
 62
     0
100
AcDbLine
 10
38.80351420632975
 20
12.99205751558484
 30
0.0
 11
38.66351420632973
 21
13.13205751558486
 31
0.0
  0
LINE
  5
D0
330
9F
100
AcDbEntity
  8
0
 62
     0
100
AcDbLine
 10
38.80351420632975
 20
13.16883421088148
 30
0.0
 11
38.66351420632973
 21
13.3088342108815
 31
0.0
  0
LINE
  5
D1
330
9F
100
AcDbEntity
  8
0
 62
     0
100
AcDbLine
 10
38.80351420632975
 20
13.34561090617812
 30
0.0
 11
38.66351420632974
 21
13.48561090617813
 31
0.0
  0
LINE
  5
D2
330
9F
100
AcDbEntity
  8
0
 62
     0
100
AcDbLine
 10
38.80351420632976
 20
13.52238760147475
 30
0.0
 11
38.66351420632974
 21
13.66238760147477
 31
0.0
  0
LINE
  5
D3
330
9F
100
AcDbEntity
  8
0
 62
     0
100
AcDbLine
 10
38.80351420632976
 20
13.69916429677139
 30
0.0
 11
38.66351420632974
 21
13.8391642967714
 31
0.0
  0
LINE
  5
D4
330
9F
100
AcDbEntity
  8
0
 62
     0
100
AcDbLine
 10
38.80351420632976
 20
13.87594099206802
 30
0.0
 11
38.66351420632974
 21
14.01594099206804
 31
0.0
  0
LINE
  5
D5
330
9F
100
AcDbEntity
  8
0
 62
     0
100
AcDbLine
 10
38.80351420632976
 20
14.05271768736466
 30
0.0
 11
38.66351420632974
 21
14.19271768736467
 31
0.0
  0
LINE
  5
D6
330
9F
100
AcDbEntity
  8
0
 62
     0
100
AcDbLine
 10
38.80351420632976
 20
14.2294943826613
 30
0.0
 11
38.66351420632975
 21
14.36949438266131
 31
0.0
  0
LINE
  5
D7
330
9F
100
AcDbEntity
  8
0
 62
     0
100
AcDbLine
 10
38.80351420632976
 20
14.40627107795793
 30
0.0
 11
38.66351420632975
 21
14.54627107795794
 31
0.0
  0
LINE
  5
D8
330
9F
100
AcDbEntity
  8
0
 62
     0
100
AcDbLine
 10
38.80351420632976
 20
14.58304777325457
 30
0.0
 11
38.66351420632975
 21
14.72304777325458
 31
0.0
  0
LINE
  5
D9
330
9F
100
AcDbEntity
  8
0
 62
     0
100
AcDbLine
 10
38.80351420632976
 20
14.75982446855121
 30
0.0
 11
38.66351420632975
 21
14.89982446855122
 31
0.0
  0
LINE
  5
DA
330
9F
100
AcDbEntity
  8
0
 62
     0
100
AcDbLine
 10
38.80351420632976
 20
14.93660116384784
 30
0.0
 11
38.66351420632975
 21
15.07660116384785
 31
0.0
  0
LINE
  5
DB
330
9F
100
AcDbEntity
  8
0
 62
     0
100
AcDbLine
 10
38.80351420632976
 20
15.11337785914448
 30
0.0
 11
38.66351420632975
 21
15.25337785914449
 31
0.0
  0
LINE
  5
DC
330
9F
100
AcDbEntity
  8
0
 62
     0
100
AcDbLine
 10
38.80351420632976
 20
15.29015455444111
 30
0.0
 11
38.66351420632975
 21
15.43015455444112
 31
0.0
  0
LINE
  5
DD
330
9F
100
AcDbEntity
  8
0
 62
     0
100
AcDbLine
 10
38.80351420632976
 20
15.46693124973775
 30
0.0
 11
38.66351420632975
 21
15.60693124973776
 31
0.0
  0
LINE
  5
DE
330
9F
100
AcDbEntity
  8
0
 62
     0
100
AcDbLine
 10
38.80351420632976
 20
15.64370794503439
 30
0.0
 11
38.66351420632975
 21
15.78370794503439
 31
0.0
  0
LINE
  5
DF
330
9F
100
AcDbEntity
  8
0
 62
     0
100
AcDbLine
 10
38.80351420632976
 20
15.82048464033102
 30
0.0
 11
38.66351420632975
 21
15.96048464033103
 31
0.0
  0
LINE
  5
E0
330
9F
100
AcDbEntity
  8
0
 62
     0
100
AcDbLine
 10
38.80351420632976
 20
15.99726133562766
 30
0.0
 11
38.66351420632975
 21
16.13726133562767
 31
0.0
  0
LINE
  5
E1
330
9F
100
AcDbEntity
  8
0
 62
     0
100
AcDbLine
 10
38.80351420632976
 20
16.1740380309243
 30
0.0
 11
38.66351420632976
 21
16.3140380309243
 31
0.0
  0
LINE
  5
E2
330
9F
100
AcDbEntity
  8
0
 62
     0
100
AcDbLine
 10
38.80351420632976
 20
16.35081472622093
 30
0.0
 11
38.66351420632976
 21
16.49081472622094
 31
0.0
  0
LINE
  5
E3
330
9F
100
AcDbEntity
  8
0
 62
     0
100
AcDbLine
 10
38.31334789693478
 20
16.84098103561592
 30
0.0
 11
38.27051420632978
 21
16.88381472622092
 31
0.0
  0
LINE
  5
E4
330
9F
100
AcDbEntity
  8
0
 62
     0
100
AcDbLine
 10
38.80351420632976
 20
16.52759142151757
 30
0.0
 11
38.66351420632976
 21
16.66759142151757
 31
0.0
  0
LINE
  5
E5
330
9F
100
AcDbEntity
  8
0
 62
     0
100
AcDbLine
 10
38.53087431603423
 20
16.8002313118131
 30
0.0
 11
38.38732189597824
 21
16.94378373186909
 31
0.0
  0
LINE
  5
E6
330
9F
100
AcDbEntity
  8
0
 62
     0
100
AcDbLine
 10
38.80351420632976
 20
16.70436811681421
 30
0.0
 11
38.56409859127488
 21
16.94378373186909
 31
0.0
  0
LINE
  5
E7
330
9F
100
AcDbEntity
  8
0
 62
     0
100
AcDbLine
 10
38.88326420632976
 20
16.80139481211084
 30
0.0
 11
38.66551420632978
 21
17.01914481211082
 31
0.0
  0
LINE
  5
E8
330
9F
100
AcDbEntity
  8
0
 62
     0
100
AcDbLine
 10
38.88326420632976
 20
16.97817150740748
 30
0.0
 11
38.81915198186817
 21
17.04228373186908
 31
0.0
  0
ENDBLK
  5
EA
330
9F
100
AcDbEntity
  8
0
100
AcDbBlockEnd
  0
BLOCK
  5
66D
330
662
100
AcDbEntity
  8
0
100
AcDbBlockBegin
  2
*D3
 70
     1
 10
0.0
 20
0.0
 30
0.0
  3
*D3
  1

  0
LINE
  5
895
330
662
100
AcDbEntity
  8
DIM
 62
     0
370
    -2
100
AcDbLine
 10
14.56762280251853
 20
45.43858759768911
 30
0.0
 11
14.56762280251853
 21
46.59967469534486
 31
0.0
  0
LINE
  5
896
330
662
100
AcDbEntity
  8
DIM
 62
     0
370
    -2
100
AcDbLine
 10
21.72262280251853
 20
45.43858759768911
 30
0.0
 11
21.72262280251853
 21
46.59967469534486
 31
0.0
  0
LINE
  5
897
330
662
100
AcDbEntity
  8
DIM
 62
     0
370
    -2
100
AcDbLine
 10
15.24262280251853
 20
46.25092469534486
 30
0.0
 11
17.69043530251853
 21
46.25092469534486
 31
0.0
  0
LINE
  5
898
330
662
100
AcDbEntity
  8
DIM
 62
     0
370
    -2
100
AcDbLine
 10
21.04762280251852
 20
46.25092469534486
 30
0.0
 11
18.59981030251853
 21
46.25092469534486
 31
0.0
  0
SOLID
  5
899
330
662
100
AcDbEntity
  8
DIM
 62
     0
100
AcDbTrace
 10
15.24262280251853
 20
46.36342469534485
 30
0.0
 11
15.24262280251853
 21
46.13842469534486
 31
0.0
 12
14.56762280251853
 22
46.25092469534486
 32
0.0
 13
14.56762280251853
 23
46.25092469534486
 33
0.0
  0
SOLID
  5
89A
330
662
100
AcDbEntity
  8
DIM
 62
     0
100
AcDbTrace
 10
21.04762280251852
 20
46.36342469534485
 30
0.0
 11
21.04762280251852
 21
46.13842469534486
 31
0.0
 12
21.72262280251853
 22
46.25092469534486
 32
0.0
 13
21.72262280251853
 23
46.25092469534486
 33
0.0
  0
MTEXT
  5
89B
330
662
100
AcDbEntity
  8
DIM
 62
     0
100
AcDbMText
 10
18.14512280251853
 20
46.25092469534486
 30
0.0
 40
0.46875
 41
0.0
 71
     5
 72
     1
  1
\A1;R
 73
     1
 44
1.0
  0
POINT
  5
89C
330
662
100
AcDbEntity
  8
DEFPOINTS
 62
     0
100
AcDbPoint
 10
14.56762280251853
 20
45.20233759768911
 30
0.0
  0
POINT
  5
89D
330
662
100
AcDbEntity
  8
DEFPOINTS
 62
     0
100
AcDbPoint
 10
21.72262280251853
 20
45.20233759768911
 30
0.0
  0
POINT
  5
89E
330
662
100
AcDbEntity
  8
DEFPOINTS
 62
     0
100
AcDbPoint
 10
21.72262280251853
 20
46.25092469534486
 30
0.0
  0
ENDBLK
  5
66E
330
662
100
AcDbEntity
  8
0
100
AcDbBlockEnd
  0
BLOCK
  5
67A
330
66F
100
AcDbEntity
  8
0
100
AcDbBlockBegin
  2
*D4
 70
     1
 10
0.0
 20
0.0
 30
0.0
  3
*D4
  1

  0
LINE
  5
89F
330
66F
100
AcDbEntity
  8
DIM
 62
     0
370
    -2
100
AcDbLine
 10
32.04249819334836
 20
25.62545726961398
 30
0.0
 11
36.84866484247773
 21
25.62545726961398
 31
0.0
  0
LINE
  5
8A0
330
66F
100
AcDbEntity
  8
DIM
 62
     0
370
    -2
100
AcDbLine
 10
32.04249819334836
 20
36.72545726961397
 30
0.0
 11
36.84866484247773
 21
36.72545726961397
 31
0.0
  0
LINE
  5
8A1
330
66F
100
AcDbEntity
  8
DIM
 62
     0
370
    -2
100
AcDbLine
 10
36.49991484247773
 20
26.30045726961398
 30
0.0
 11
36.49991484247773
 21
30.60358226961398
 31
0.0
  0
LINE
  5
8A2
330
66F
100
AcDbEntity
  8
DIM
 62
     0
370
    -2
100
AcDbLine
 10
36.49991484247773
 20
36.05045726961398
 30
0.0
 11
36.49991484247773
 21
31.74733226961397
 31
0.0
  0
SOLID
  5
8A3
330
66F
100
AcDbEntity
  8
DIM
 62
     0
100
AcDbTrace
 10
36.38741484247773
 20
26.30045726961398
 30
0.0
 11
36.61241484247773
 21
26.30045726961398
 31
0.0
 12
36.49991484247773
 22
25.62545726961398
 32
0.0
 13
36.49991484247773
 23
25.62545726961398
 33
0.0
  0
SOLID
  5
8A4
330
66F
100
AcDbEntity
  8
DIM
 62
     0
100
AcDbTrace
 10
36.38741484247773
 20
36.05045726961398
 30
0.0
 11
36.61241484247773
 21
36.05045726961398
 31
0.0
 12
36.49991484247773
 22
36.72545726961397
 32
0.0
 13
36.49991484247773
 23
36.72545726961397
 33
0.0
  0
MTEXT
  5
8A5
330
66F
100
AcDbEntity
  8
DIM
 62
     0
100
AcDbMText
 10
36.49991484247772
 20
31.17545726961398
 30
0.0
 40
0.46875
 41
0.0
 71
     5
 72
     1
  1
\A1;N
 73
     1
 44
1.0
  0
POINT
  5
8A6
330
66F
100
AcDbEntity
  8
DEFPOINTS
 62
     0
100
AcDbPoint
 10
31.80624819334836
 20
25.62545726961398
 30
0.0
  0
POINT
  5
8A7
330
66F
100
AcDbEntity
  8
DEFPOINTS
 62
     0
100
AcDbPoint
 10
31.80624819334836
 20
36.72545726961397
 30
0.0
  0
POINT
  5
8A8
330
66F
100
AcDbEntity
  8
DEFPOINTS
 62
     0
100
AcDbPoint
 10
36.49991484247773
 20
36.72545726961397
 30
0.0
  0
ENDBLK
  5
67B
330
66F
100
AcDbEntity
  8
0
100
AcDbBlockEnd
  0
BLOCK
  5
687
330
67C
100
AcDbEntity
  8
0
100
AcDbBlockBegin
  2
*D5
 70
     1
 10
0.0
 20
0.0
 30
0.0
  3
*D5
  1

  0
LINE
  5
8A9
330
67C
100
AcDbEntity
  8
DIM
 62
     0
370
    -2
100
AcDbLine
 10
25.90277063345633
 20
36.79795726961398
 30
0.0
 11
24.29868352752515
 21
36.79795726961398
 31
0.0
  0
LINE
  5
8AA
330
67C
100
AcDbEntity
  8
DIM
 62
     0
370
    -2
100
AcDbLine
 10
25.90277063345633
 20
25.55295726961397
 30
0.0
 11
24.29868352752515
 21
25.55295726961397
 31
0.0
  0
LINE
  5
8AB
330
67C
100
AcDbEntity
  8
DIM
 62
     0
370
    -2
100
AcDbLine
 10
24.64743352752515
 20
36.12295726961398
 30
0.0
 11
24.64743352752515
 21
31.74733226961397
 31
0.0
  0
LINE
  5
8AC
330
67C
100
AcDbEntity
  8
DIM
 62
     0
370
    -2
100
AcDbLine
 10
24.64743352752515
 20
26.22795726961397
 30
0.0
 11
24.64743352752515
 21
30.60358226961398
 31
0.0
  0
SOLID
  5
8AD
330
67C
100
AcDbEntity
  8
DIM
 62
     0
100
AcDbTrace
 10
24.53493352752515
 20
36.12295726961398
 30
0.0
 11
24.75993352752515
 21
36.12295726961398
 31
0.0
 12
24.64743352752515
 22
36.79795726961398
 32
0.0
 13
24.64743352752515
 23
36.79795726961398
 33
0.0
  0
SOLID
  5
8AE
330
67C
100
AcDbEntity
  8
DIM
 62
     0
100
AcDbTrace
 10
24.53493352752515
 20
26.22795726961397
 30
0.0
 11
24.75993352752515
 21
26.22795726961397
 31
0.0
 12
24.64743352752515
 22
25.55295726961397
 32
0.0
 13
24.64743352752515
 23
25.55295726961397
 33
0.0
  0
MTEXT
  5
8AF
330
67C
100
AcDbEntity
  8
DIM
 62
     0
100
AcDbMText
 10
24.64743352752514
 20
31.17545726961398
 30
0.0
 40
0.46875
 41
0.0
 71
     5
 72
     1
  1
\A1;M
 73
     1
 44
1.0
  0
POINT
  5
8B0
330
67C
100
AcDbEntity
  8
DEFPOINTS
 62
     0
100
AcDbPoint
 10
26.13902063345632
 20
36.79795726961398
 30
0.0
  0
POINT
  5
8B1
330
67C
100
AcDbEntity
  8
DEFPOINTS
 62
     0
100
AcDbPoint
 10
26.13902063345632
 20
25.55295726961397
 30
0.0
  0
POINT
  5
8B2
330
67C
100
AcDbEntity
  8
DEFPOINTS
 62
     0
100
AcDbPoint
 10
24.64743352752515
 20
25.55295726961397
 30
0.0
  0
ENDBLK
  5
688
330
67C
100
AcDbEntity
  8
0
100
AcDbBlockEnd
  0
BLOCK
  5
694
330
689
100
AcDbEntity
  8
0
100
AcDbBlockBegin
  2
*D6
 70
     1
 10
0.0
 20
0.0
 30
0.0
  3
*D6
  1

  0
LINE
  5
8B3
330
689
100
AcDbEntity
  8
DIM
 62
     0
370
    -2
100
AcDbLine
 10
27.08874819334833
 20
37.31520726961394
 30
0.0
 11
27.08874819334833
 21
39.34581722438355
 31
0.0
  0
LINE
  5
8B4
330
689
100
AcDbEntity
  8
DIM
 62
     0
370
    -2
100
AcDbLine
 10
25.91349819334836
 20
36.79843972222517
 30
0.0
 11
25.91349819334836
 21
39.34581722438355
 31
0.0
  0
LINE
  5
8B5
330
689
100
AcDbEntity
  8
DIM
 62
     0
370
    -2
100
AcDbLine
 10
27.76374819334833
 20
38.99706722438356
 30
0.0
 11
28.43874819334834
 21
38.99706722438356
 31
0.0
  0
LINE
  5
8B6
330
689
100
AcDbEntity
  8
DIM
 62
     0
370
    -2
100
AcDbLine
 10
25.23849819334836
 20
38.99706722438356
 30
0.0
 11
24.56349819334835
 21
38.99706722438356
 31
0.0
  0
SOLID
  5
8B7
330
689
100
AcDbEntity
  8
DIM
 62
     0
100
AcDbTrace
 10
27.76374819334833
 20
39.10956722438355
 30
0.0
 11
27.76374819334833
 21
38.88456722438355
 31
0.0
 12
27.08874819334833
 22
38.99706722438356
 32
0.0
 13
27.08874819334833
 23
38.99706722438356
 33
0.0
  0
SOLID
  5
8B8
330
689
100
AcDbEntity
  8
DIM
 62
     0
100
AcDbTrace
 10
25.23849819334836
 20
39.10956722438355
 30
0.0
 11
25.23849819334836
 21
38.88456722438355
 31
0.0
 12
25.91349819334836
 22
38.99706722438356
 32
0.0
 13
25.91349819334836
 23
38.99706722438356
 33
0.0
  0
MTEXT
  5
8B9
330
689
100
AcDbEntity
  8
DIM
 62
     0
100
AcDbMText
 10
24.10881069334836
 20
38.99706722438356
 30
0.0
 40
0.46875
 41
0.0
 71
     5
 72
     1
  1
\A1;L
 73
     1
 44
1.0
  0
POINT
  5
8BA
330
689
100
AcDbEntity
  8
DEFPOINTS
 62
     0
100
AcDbPoint
 10
27.08874819334833
 20
37.07895726961394
 30
0.0
  0
POINT
  5
8BB
330
689
100
AcDbEntity
  8
DEFPOINTS
 62
     0
100
AcDbPoint
 10
25.91349819334836
 20
36.56218972222518
 30
0.0
  0
POINT
  5
8BC
330
689
100
AcDbEntity
  8
DEFPOINTS
 62
     0
100
AcDbPoint
 10
25.91349819334836
 20
38.99706722438356
 30
0.0
  0
ENDBLK
  5
695
330
689
100
AcDbEntity
  8
0
100
AcDbBlockEnd
  0
BLOCK
  5
6A1
330
696
100
AcDbEntity
  8
0
100
AcDbBlockBegin
  2
*D7
 70
     1
 10
0.0
 20
0.0
 30
0.0
  3
*D7
  1

  0
LINE
  5
8BD
330
696
100
AcDbEntity
  8
DIM
 62
     0
370
    -2
100
AcDbLine
 10
27.08874819334833
 20
37.31520726961394
 30
0.0
 11
27.08874819334833
 21
39.34581722438355
 31
0.0
  0
LINE
  5
8BE
330
696
100
AcDbEntity
  8
DIM
 62
     0
370
    -2
100
AcDbLine
 10
31.88599819334832
 20
36.66720726961399
 30
0.0
 11
31.88599819334832
 21
39.34581722438355
 31
0.0
  0
LINE
  5
8BF
330
696
100
AcDbEntity
  8
DIM
 62
     0
370
    -2
100
AcDbLine
 10
27.76374819334833
 20
38.99706722438356
 30
0.0
 11
29.03268569334833
 21
38.99706722438356
 31
0.0
  0
LINE
  5
8C0
330
696
100
AcDbEntity
  8
DIM
 62
     0
370
    -2
100
AcDbLine
 10
31.21099819334832
 20
38.99706722438356
 30
0.0
 11
29.94206069334833
 21
38.99706722438356
 31
0.0
  0
SOLID
  5
8C1
330
696
100
AcDbEntity
  8
DIM
 62
     0
100
AcDbTrace
 10
27.76374819334833
 20
39.10956722438355
 30
0.0
 11
27.76374819334833
 21
38.88456722438355
 31
0.0
 12
27.08874819334833
 22
38.99706722438356
 32
0.0
 13
27.08874819334833
 23
38.99706722438356
 33
0.0
  0
SOLID
  5
8C2
330
696
100
AcDbEntity
  8
DIM
 62
     0
100
AcDbTrace
 10
31.21099819334832
 20
39.10956722438355
 30
0.0
 11
31.21099819334832
 21
38.88456722438355
 31
0.0
 12
31.88599819334832
 22
38.99706722438356
 32
0.0
 13
31.88599819334832
 23
38.99706722438356
 33
0.0
  0
MTEXT
  5
8C3
330
696
100
AcDbEntity
  8
DIM
 62
     0
100
AcDbMText
 10
29.48737319334833
 20
38.99706722438356
 30
0.0
 40
0.46875
 41
0.0
 71
     5
 72
     1
  1
\A1;K
 73
     1
 44
1.0
  0
POINT
  5
8C4
330
696
100
AcDbEntity
  8
DEFPOINTS
 62
     0
100
AcDbPoint
 10
27.08874819334833
 20
37.07895726961394
 30
0.0
  0
POINT
  5
8C5
330
696
100
AcDbEntity
  8
DEFPOINTS
 62
     0
100
AcDbPoint
 10
31.88599819334832
 20
36.430957269614
 30
0.0
  0
POINT
  5
8C6
330
696
100
AcDbEntity
  8
DEFPOINTS
 62
     0
100
AcDbPoint
 10
31.88599819334832
 20
38.99706722438356
 30
0.0
  0
ENDBLK
  5
6A2
330
696
100
AcDbEntity
  8
0
100
AcDbBlockEnd
  0
BLOCK
  5
6AE
330
6A3
100
AcDbEntity
  8
0
100
AcDbBlockBegin
  2
*D8
 70
     1
 10
0.0
 20
0.0
 30
0.0
  3
*D8
  1

  0
LINE
  5
8C7
330
6A3
100
AcDbEntity
  8
DIM
 62
     0
370
    -2
100
AcDbLine
 10
31.66624819334835
 20
27.25070726961396
 30
0.0
 11
31.66624819334835
 21
29.36905997830139
 31
0.0
  0
LINE
  5
8C8
330
6A3
100
AcDbEntity
  8
DIM
 62
     0
370
    -2
100
AcDbLine
 10
31.80624819334836
 20
29.25655997830139
 30
0.0
 11
31.80624819334836
 21
29.36905997830139
 31
0.0
  0
LINE
  5
8C9
330
6A3
100
AcDbEntity
  8
DIM
 62
     0
370
    -2
100
AcDbLine
 10
30.99124819334835
 20
29.02030997830139
 30
0.0
 11
30.31624819334835
 21
29.02030997830139
 31
0.0
  0
LINE
  5
8CA
330
6A3
100
AcDbEntity
  8
DIM
 62
     0
370
    -2
100
AcDbLine
 10
32.48124819334836
 20
29.02030997830139
 30
0.0
 11
33.15624819334836
 21
29.02030997830139
 31
0.0
  0
SOLID
  5
8CB
330
6A3
100
AcDbEntity
  8
DIM
 62
     0
100
AcDbTrace
 10
30.99124819334835
 20
29.13280997830139
 30
0.0
 11
30.99124819334835
 21
28.90780997830139
 31
0.0
 12
31.66624819334835
 22
29.02030997830139
 32
0.0
 13
31.66624819334835
 23
29.02030997830139
 33
0.0
  0
SOLID
  5
8CC
330
6A3
100
AcDbEntity
  8
DIM
 62
     0
100
AcDbTrace
 10
32.48124819334836
 20
29.13280997830139
 30
0.0
 11
32.48124819334836
 21
28.90780997830139
 31
0.0
 12
31.80624819334836
 22
29.02030997830139
 32
0.0
 13
31.80624819334836
 23
29.02030997830139
 33
0.0
  0
MTEXT
  5
8CD
330
6A3
100
AcDbEntity
  8
DIM
 62
     0
100
AcDbMText
 10
34.07968569334836
 20
29.02030997830139
 30
0.0
 40
0.46875
 41
0.0
 71
     5
 72
     1
  1
\A1;0.140
 73
     1
 44
1.0
  0
POINT
  5
8CE
330
6A3
100
AcDbEntity
  8
DEFPOINTS
 62
     0
100
AcDbPoint
 10
31.66624819334835
 20
27.01445726961396
 30
0.0
  0
POINT
  5
8CF
330
6A3
100
AcDbEntity
  8
DEFPOINTS
 62
     0
100
AcDbPoint
 10
31.80624819334836
 20
29.02030997830139
 30
0.0
  0
POINT
  5
8D0
330
6A3
100
AcDbEntity
  8
DEFPOINTS
 62
     0
100
AcDbPoint
 10
31.80624819334836
 20
29.02030997830139
 30
0.0
  0
ENDBLK
  5
6AF
330
6A3
100
AcDbEntity
  8
0
100
AcDbBlockEnd
  0
BLOCK
  5
6BB
330
6B0
100
AcDbEntity
  8
0
100
AcDbBlockBegin
  2
*D9
 70
     1
 10
0.0
 20
0.0
 30
0.0
  3
*D9
  1

  0
LINE
  5
8D1
330
6B0
100
AcDbEntity
  8
DIM
 62
     0
370
    -2
100
AcDbLine
 10
31.27324819334835
 20
27.14898583220632
 30
0.0
 11
31.27324819334835
 21
28.25788380819657
 31
0.0
  0
LINE
  5
8D2
330
6B0
100
AcDbEntity
  8
DIM
 62
     0
370
    -2
100
AcDbLine
 10
31.66624819334835
 20
28.78405997830139
 30
0.0
 11
31.66624819334835
 21
27.56038380819658
 31
0.0
  0
LINE
  5
8D3
330
6B0
100
AcDbEntity
  8
DIM
 62
     0
370
    -2
100
AcDbLine
 10
30.59824819334835
 20
27.90913380819658
 30
0.0
 11
29.92324819334834
 21
27.90913380819658
 31
0.0
  0
LINE
  5
8D4
330
6B0
100
AcDbEntity
  8
DIM
 62
     0
370
    -2
100
AcDbLine
 10
32.34124819334835
 20
27.90913380819658
 30
0.0
 11
33.01624819334835
 21
27.90913380819658
 31
0.0
  0
SOLID
  5
8D5
330
6B0
100
AcDbEntity
  8
DIM
 62
     0
100
AcDbTrace
 10
30.59824819334835
 20
28.02163380819658
 30
0.0
 11
30.59824819334835
 21
27.79663380819657
 31
0.0
 12
31.27324819334835
 22
27.90913380819658
 32
0.0
 13
31.27324819334835
 23
27.90913380819658
 33
0.0
  0
SOLID
  5
8D6
330
6B0
100
AcDbEntity
  8
DIM
 62
     0
100
AcDbTrace
 10
32.34124819334835
 20
28.02163380819658
 30
0.0
 11
32.34124819334835
 21
27.79663380819657
 31
0.0
 12
31.66624819334835
 22
27.90913380819658
 32
0.0
 13
31.66624819334835
 23
27.90913380819658
 33
0.0
  0
MTEXT
  5
8D7
330
6B0
100
AcDbEntity
  8
DIM
 62
     0
100
AcDbMText
 10
34.64281069334835
 20
27.90913380819658
 30
0.0
 40
0.46875
 41
0.0
 71
     5
 72
     1
  1
\A1;0.400 [10]
 73
     1
 44
1.0
  0
POINT
  5
8D8
330
6B0
100
AcDbEntity
  8
DEFPOINTS
 62
     0
100
AcDbPoint
 10
31.27324819334835
 20
26.91273583220633
 30
0.0
  0
POINT
  5
8D9
330
6B0
100
AcDbEntity
  8
DEFPOINTS
 62
     0
100
AcDbPoint
 10
31.66624819334835
 20
29.02030997830139
 30
0.0
  0
POINT
  5
8DA
330
6B0
100
AcDbEntity
  8
DEFPOINTS
 62
     0
100
AcDbPoint
 10
31.66624819334835
 20
27.90913380819658
 30
0.0
  0
ENDBLK
  5
6BC
330
6B0
100
AcDbEntity
  8
0
100
AcDbBlockEnd
  0
BLOCK
  5
6C8
330
6BD
100
AcDbEntity
  8
0
100
AcDbBlockBegin
  2
*D10
 70
     1
 10
0.0
 20
0.0
 30
0.0
  3
*D10
  1

  0
LINE
  5
8DB
330
6BD
100
AcDbEntity
  8
DIM
 62
     0
370
    -2
100
AcDbLine
 10
31.80624819334836
 20
36.96170726961397
 30
0.0
 11
31.80624819334836
 21
38.34581722438356
 31
0.0
  0
LINE
  5
8DC
330
6BD
100
AcDbEntity
  8
DIM
 62
     0
370
    -2
100
AcDbLine
 10
31.88599819334832
 20
36.66720726961399
 30
0.0
 11
31.88599819334832
 21
38.34581722438356
 31
0.0
  0
LINE
  5
8DD
330
6BD
100
AcDbEntity
  8
DIM
 62
     0
370
    -2
100
AcDbLine
 10
31.13124819334836
 20
37.99706722438355
 30
0.0
 11
30.45624819334836
 21
37.99706722438355
 31
0.0
  0
LINE
  5
8DE
330
6BD
100
AcDbEntity
  8
DIM
 62
     0
370
    -2
100
AcDbLine
 10
32.56099819334832
 20
37.99706722438355
 30
0.0
 11
33.23599819334833
 21
37.99706722438355
 31
0.0
  0
SOLID
  5
8DF
330
6BD
100
AcDbEntity
  8
DIM
 62
     0
100
AcDbTrace
 10
31.13124819334836
 20
38.10956722438355
 30
0.0
 11
31.13124819334836
 21
37.88456722438356
 31
0.0
 12
31.80624819334836
 22
37.99706722438355
 32
0.0
 13
31.80624819334836
 23
37.99706722438355
 33
0.0
  0
SOLID
  5
8E0
330
6BD
100
AcDbEntity
  8
DIM
 62
     0
100
AcDbTrace
 10
32.56099819334832
 20
38.10956722438355
 30
0.0
 11
32.56099819334832
 21
37.88456722438356
 31
0.0
 12
31.88599819334832
 22
37.99706722438355
 32
0.0
 13
31.88599819334832
 23
37.99706722438355
 33
0.0
  0
MTEXT
  5
8E1
330
6BD
100
AcDbEntity
  8
DIM
 62
     0
100
AcDbMText
 10
34.18873256834833
 20
37.99706722438355
 30
0.0
 40
0.46875
 41
0.0
 71
     5
 72
     1
  1
\A1;0.080
 73
     1
 44
1.0
  0
POINT
  5
8E2
330
6BD
100
AcDbEntity
  8
DEFPOINTS
 62
     0
100
AcDbPoint
 10
31.80624819334836
 20
36.72545726961397
 30
0.0
  0
POINT
  5
8E3
330
6BD
100
AcDbEntity
  8
DEFPOINTS
 62
     0
100
AcDbPoint
 10
31.88599819334832
 20
36.430957269614
 30
0.0
  0
POINT
  5
8E4
330
6BD
100
AcDbEntity
  8
DEFPOINTS
 62
     0
100
AcDbPoint
 10
31.88599819334832
 20
37.99706722438355
 30
0.0
  0
ENDBLK
  5
6C9
330
6BD
100
AcDbEntity
  8
0
100
AcDbBlockEnd
  0
BLOCK
  5
6D5
330
6CA
100
AcDbEntity
  8
0
100
AcDbBlockBegin
  2
*D11
 70
     1
 10
0.0
 20
0.0
 30
0.0
  3
*D11
  1

  0
LINE
  5
8E5
330
6CA
100
AcDbEntity
  8
DIM
 62
     0
370
    -2
100
AcDbLine
 10
21.79512280251852
 20
39.29286003779708
 30
0.0
 11
21.79512280251852
 21
37.90092385358508
 31
0.0
  0
LINE
  5
8E6
330
6CA
100
AcDbEntity
  8
DIM
 62
     0
370
    -2
100
AcDbLine
 10
14.49512280251851
 20
39.29286003779708
 30
0.0
 11
14.49512280251851
 21
37.90092385358508
 31
0.0
  0
LINE
  5
8E7
330
6CA
100
AcDbEntity
  8
DIM
 62
     0
370
    -2
100
AcDbLine
 10
21.12012280251851
 20
38.24967385358508
 30
0.0
 11
18.59981030251851
 21
38.24967385358508
 31
0.0
  0
LINE
  5
8E8
330
6CA
100
AcDbEntity
  8
DIM
 62
     0
370
    -2
100
AcDbLine
 10
15.17012280251851
 20
38.24967385358508
 30
0.0
 11
17.69043530251852
 21
38.24967385358508
 31
0.0
  0
SOLID
  5
8E9
330
6CA
100
AcDbEntity
  8
DIM
 62
     0
100
AcDbTrace
 10
21.12012280251851
 20
38.36217385358508
 30
0.0
 11
21.12012280251851
 21
38.13717385358509
 31
0.0
 12
21.79512280251852
 22
38.24967385358508
 32
0.0
 13
21.79512280251852
 23
38.24967385358508
 33
0.0
  0
SOLID
  5
8EA
330
6CA
100
AcDbEntity
  8
DIM
 62
     0
100
AcDbTrace
 10
15.17012280251851
 20
38.36217385358508
 30
0.0
 11
15.17012280251851
 21
38.13717385358509
 31
0.0
 12
14.49512280251851
 22
38.24967385358508
 32
0.0
 13
14.49512280251851
 23
38.24967385358508
 33
0.0
  0
MTEXT
  5
8EB
330
6CA
100
AcDbEntity
  8
DIM
 62
     0
100
AcDbMText
 10
18.14512280251851
 20
38.24967385358508
 30
0.0
 40
0.46875
 41
0.0
 71
     5
 72
     1
  1
\A1;P
 73
     1
 44
1.0
  0
POINT
  5
8EC
330
6CA
100
AcDbEntity
  8
DEFPOINTS
 62
     0
100
AcDbPoint
 10
21.79512280251852
 20
39.52911003779707
 30
0.0
  0
POINT
  5
8ED
330
6CA
100
AcDbEntity
  8
DEFPOINTS
 62
     0
100
AcDbPoint
 10
14.49512280251851
 20
39.52911003779707
 30
0.0
  0
POINT
  5
8EE
330
6CA
100
AcDbEntity
  8
DEFPOINTS
 62
     0
100
AcDbPoint
 10
14.49512280251851
 20
38.24967385358508
 30
0.0
  0
ENDBLK
  5
6D6
330
6CA
100
AcDbEntity
  8
0
100
AcDbBlockEnd
  0
BLOCK
  5
6E2
330
6D7
100
AcDbEntity
  8
0
100
AcDbBlockBegin
  2
*D12
 70
     1
 10
0.0
 20
0.0
 30
0.0
  3
*D12
  1

  0
LINE
  5
8EF
330
6D7
100
AcDbEntity
  8
DIM
 62
     0
370
    -2
100
AcDbLine
 10
14.91587280251851
 20
9.502421098196229
 30
0.0
 11
11.60081381300413
 21
9.502421098196231
 31
0.0
  0
LINE
  5
8F0
330
6D7
100
AcDbEntity
  8
DIM
 62
     0
370
    -2
100
AcDbLine
 10
14.91587280251851
 20
19.42342109819622
 30
0.0
 11
11.60081381300413
 21
19.42342109819622
 31
0.0
  0
LINE
  5
8F1
330
6D7
100
AcDbEntity
  8
DIM
 62
     0
370
    -2
100
AcDbLine
 10
11.94956381300413
 20
10.17742109819623
 30
0.0
 11
11.94956381300413
 21
13.89104609819623
 31
0.0
  0
LINE
  5
8F2
330
6D7
100
AcDbEntity
  8
DIM
 62
     0
370
    -2
100
AcDbLine
 10
11.94956381300413
 20
18.74842109819622
 30
0.0
 11
11.94956381300413
 21
15.03479609819623
 31
0.0
  0
SOLID
  5
8F3
330
6D7
100
AcDbEntity
  8
DIM
 62
     0
100
AcDbTrace
 10
11.83706381300413
 20
10.17742109819623
 30
0.0
 11
12.06206381300413
 21
10.17742109819623
 31
0.0
 12
11.94956381300413
 22
9.502421098196231
 32
0.0
 13
11.94956381300413
 23
9.502421098196231
 33
0.0
  0
SOLID
  5
8F4
330
6D7
100
AcDbEntity
  8
DIM
 62
     0
100
AcDbTrace
 10
11.83706381300413
 20
18.74842109819622
 30
0.0
 11
12.06206381300413
 21
18.74842109819622
 31
0.0
 12
11.94956381300413
 22
19.42342109819622
 32
0.0
 13
11.94956381300413
 23
19.42342109819622
 33
0.0
  0
MTEXT
  5
8F5
330
6D7
100
AcDbEntity
  8
DIM
 62
     0
100
AcDbMText
 10
11.94956381300413
 20
14.46292109819623
 30
0.0
 40
0.46875
 41
0.0
 71
     5
 72
     1
  1
\A1;G
 73
     1
 44
1.0
  0
POINT
  5
8F6
330
6D7
100
AcDbEntity
  8
DEFPOINTS
 62
     0
100
AcDbPoint
 10
15.15212280251851
 20
9.502421098196229
 30
0.0
  0
POINT
  5
8F7
330
6D7
100
AcDbEntity
  8
DEFPOINTS
 62
     0
100
AcDbPoint
 10
15.15212280251851
 20
19.42342109819622
 30
0.0
  0
POINT
  5
8F8
330
6D7
100
AcDbEntity
  8
DEFPOINTS
 62
     0
100
AcDbPoint
 10
11.94956381300413
 20
19.42342109819622
 30
0.0
  0
ENDBLK
  5
6E3
330
6D7
100
AcDbEntity
  8
0
100
AcDbBlockEnd
  0
BLOCK
  5
6EF
330
6E4
100
AcDbEntity
  8
0
100
AcDbBlockBegin
  2
*D13
 70
     1
 10
0.0
 20
0.0
 30
0.0
  3
*D13
  1

  0
LINE
  5
8F9
330
6E4
100
AcDbEntity
  8
DIM
 62
     0
370
    -2
100
AcDbLine
 10
14.5563728025185
 20
8.956421098196237
 30
0.0
 11
10.44865228736044
 21
8.956421098196239
 31
0.0
  0
LINE
  5
8FA
330
6E4
100
AcDbEntity
  8
DIM
 62
     0
370
    -2
100
AcDbLine
 10
14.55637280251852
 20
19.96942109819623
 30
0.0
 11
10.44865228736044
 21
19.96942109819623
 31
0.0
  0
LINE
  5
8FB
330
6E4
100
AcDbEntity
  8
DIM
 62
     0
370
    -2
100
AcDbLine
 10
10.79740228736044
 20
9.63142109819624
 30
0.0
 11
10.79740228736044
 21
13.89104609819623
 31
0.0
  0
LINE
  5
8FC
330
6E4
100
AcDbEntity
  8
DIM
 62
     0
370
    -2
100
AcDbLine
 10
10.79740228736044
 20
19.29442109819623
 30
0.0
 11
10.79740228736044
 21
15.03479609819623
 31
0.0
  0
SOLID
  5
8FD
330
6E4
100
AcDbEntity
  8
DIM
 62
     0
100
AcDbTrace
 10
10.68490228736044
 20
9.63142109819624
 30
0.0
 11
10.90990228736044
 21
9.63142109819624
 31
0.0
 12
10.79740228736044
 22
8.956421098196239
 32
0.0
 13
10.79740228736044
 23
8.956421098196239
 33
0.0
  0
SOLID
  5
8FE
330
6E4
100
AcDbEntity
  8
DIM
 62
     0
100
AcDbTrace
 10
10.68490228736044
 20
19.29442109819623
 30
0.0
 11
10.90990228736044
 21
19.29442109819623
 31
0.0
 12
10.79740228736044
 22
19.96942109819623
 32
0.0
 13
10.79740228736044
 23
19.96942109819623
 33
0.0
  0
MTEXT
  5
8FF
330
6E4
100
AcDbEntity
  8
DIM
 62
     0
100
AcDbMText
 10
10.79740228736044
 20
14.46292109819624
 30
0.0
 40
0.46875
 41
0.0
 71
     5
 72
     1
  1
\A1;F
 73
     1
 44
1.0
  0
POINT
  5
900
330
6E4
100
AcDbEntity
  8
DEFPOINTS
 62
     0
100
AcDbPoint
 10
14.7926228025185
 20
8.956421098196237
 30
0.0
  0
POINT
  5
901
330
6E4
100
AcDbEntity
  8
DEFPOINTS
 62
     0
100
AcDbPoint
 10
14.79262280251852
 20
19.96942109819623
 30
0.0
  0
POINT
  5
902
330
6E4
100
AcDbEntity
  8
DEFPOINTS
 62
     0
100
AcDbPoint
 10
10.79740228736044
 20
19.96942109819623
 30
0.0
  0
ENDBLK
  5
6F0
330
6E4
100
AcDbEntity
  8
0
100
AcDbBlockEnd
  0
BLOCK
  5
6FC
330
6F1
100
AcDbEntity
  8
0
100
AcDbBlockBegin
  2
*D14
 70
     1
 10
0.0
 20
0.0
 30
0.0
  3
*D14
  1

  0
LINE
  5
903
330
6F1
100
AcDbEntity
  8
DIM
 62
     0
370
    -2
100
AcDbLine
 10
14.57449780251851
 20
20.36642109819622
 30
0.0
 11
9.295929142582108
 21
20.36642109819622
 31
0.0
  0
LINE
  5
904
330
6F1
100
AcDbEntity
  8
DIM
 62
     0
370
    -2
100
AcDbLine
 10
14.57449780251851
 20
8.559421098196231
 30
0.0
 11
9.295929142582105
 21
8.559421098196233
 31
0.0
  0
LINE
  5
905
330
6F1
100
AcDbEntity
  8
DIM
 62
     0
370
    -2
100
AcDbLine
 10
9.644679142582107
 20
19.69142109819622
 30
0.0
 11
9.644679142582107
 21
15.03479609819623
 31
0.0
  0
LINE
  5
906
330
6F1
100
AcDbEntity
  8
DIM
 62
     0
370
    -2
100
AcDbLine
 10
9.644679142582106
 20
9.234421098196234
 30
0.0
 11
9.644679142582107
 21
13.89104609819623
 31
0.0
  0
SOLID
  5
907
330
6F1
100
AcDbEntity
  8
DIM
 62
     0
100
AcDbTrace
 10
9.532179142582107
 20
19.69142109819622
 30
0.0
 11
9.757179142582108
 21
19.69142109819622
 31
0.0
 12
9.644679142582109
 22
20.36642109819622
 32
0.0
 13
9.644679142582109
 23
20.36642109819622
 33
0.0
  0
SOLID
  5
908
330
6F1
100
AcDbEntity
  8
DIM
 62
     0
100
AcDbTrace
 10
9.532179142582105
 20
9.234421098196234
 30
0.0
 11
9.757179142582106
 21
9.234421098196234
 31
0.0
 12
9.644679142582106
 22
8.559421098196233
 32
0.0
 13
9.644679142582106
 23
8.559421098196233
 33
0.0
  0
MTEXT
  5
909
330
6F1
100
AcDbEntity
  8
DIM
 62
     0
100
AcDbMText
 10
9.644679142582104
 20
14.46292109819623
 30
0.0
 40
0.46875
 41
0.0
 71
     5
 72
     1
  1
\A1;E
 73
     1
 44
1.0
  0
POINT
  5
90A
330
6F1
100
AcDbEntity
  8
DEFPOINTS
 62
     0
100
AcDbPoint
 10
14.81074780251851
 20
20.36642109819622
 30
0.0
  0
POINT
  5
90B
330
6F1
100
AcDbEntity
  8
DEFPOINTS
 62
     0
100
AcDbPoint
 10
14.81074780251851
 20
8.559421098196231
 30
0.0
  0
POINT
  5
90C
330
6F1
100
AcDbEntity
  8
DEFPOINTS
 62
     0
100
AcDbPoint
 10
9.644679142582106
 20
8.559421098196233
 30
0.0
  0
ENDBLK
  5
6FD
330
6F1
100
AcDbEntity
  8
0
100
AcDbBlockEnd
  0
BLOCK
  5
709
330
6FE
100
AcDbEntity
  8
0
100
AcDbBlockBegin
  2
*D15
 70
     1
 10
0.0
 20
0.0
 30
0.0
  3
*D15
  1

  0
LINE
  5
90D
330
6FE
100
AcDbEntity
  8
DIM
 62
     0
370
    -2
100
AcDbLine
 10
20.68412280251851
 20
19.15517109819623
 30
0.0
 11
20.68412280251851
 21
21.76417242655377
 31
0.0
  0
LINE
  5
90E
330
6FE
100
AcDbEntity
  8
DIM
 62
     0
370
    -2
100
AcDbLine
 10
15.6061228025185
 20
19.15517109819623
 30
0.0
 11
15.6061228025185
 21
21.76417242655377
 31
0.0
  0
LINE
  5
90F
330
6FE
100
AcDbEntity
  8
DIM
 62
     0
370
    -2
100
AcDbLine
 10
20.00912280251851
 20
21.41542242655377
 30
0.0
 11
18.59981030251851
 21
21.41542242655377
 31
0.0
  0
LINE
  5
910
330
6FE
100
AcDbEntity
  8
DIM
 62
     0
370
    -2
100
AcDbLine
 10
16.28112280251851
 20
21.41542242655377
 30
0.0
 11
17.69043530251851
 21
21.41542242655377
 31
0.0
  0
SOLID
  5
911
330
6FE
100
AcDbEntity
  8
DIM
 62
     0
100
AcDbTrace
 10
20.00912280251851
 20
21.52792242655377
 30
0.0
 11
20.00912280251851
 21
21.30292242655377
 31
0.0
 12
20.68412280251851
 22
21.41542242655377
 32
0.0
 13
20.68412280251851
 23
21.41542242655377
 33
0.0
  0
SOLID
  5
912
330
6FE
100
AcDbEntity
  8
DIM
 62
     0
100
AcDbTrace
 10
16.28112280251851
 20
21.52792242655377
 30
0.0
 11
16.28112280251851
 21
21.30292242655377
 31
0.0
 12
15.6061228025185
 22
21.41542242655377
 32
0.0
 13
15.6061228025185
 23
21.41542242655377
 33
0.0
  0
MTEXT
  5
913
330
6FE
100
AcDbEntity
  8
DIM
 62
     0
100
AcDbMText
 10
18.14512280251851
 20
21.41542242655377
 30
0.0
 40
0.46875
 41
0.0
 71
     5
 72
     1
  1
\A1;D
 73
     1
 44
1.0
  0
POINT
  5
914
330
6FE
100
AcDbEntity
  8
DEFPOINTS
 62
     0
100
AcDbPoint
 10
20.68412280251851
 20
18.91892109819623
 30
0.0
  0
POINT
  5
915
330
6FE
100
AcDbEntity
  8
DEFPOINTS
 62
     0
100
AcDbPoint
 10
15.6061228025185
 20
18.91892109819623
 30
0.0
  0
POINT
  5
916
330
6FE
100
AcDbEntity
  8
DEFPOINTS
 62
     0
100
AcDbPoint
 10
15.6061228025185
 20
21.41542242655377
 30
0.0
  0
ENDBLK
  5
70A
330
6FE
100
AcDbEntity
  8
0
100
AcDbBlockEnd
  0
BLOCK
  5
716
330
70B
100
AcDbEntity
  8
0
100
AcDbBlockBegin
  2
*D16
 70
     1
 10
0.0
 20
0.0
 30
0.0
  3
*D16
  1

  0
LINE
  5
917
330
70B
100
AcDbEntity
  8
DIM
 62
     0
370
    -2
100
AcDbLine
 10
15.3698728025185
 20
10.00692109819623
 30
0.0
 11
12.75352254998287
 21
10.00692109819623
 31
0.0
  0
LINE
  5
918
330
70B
100
AcDbEntity
  8
DIM
 62
     0
370
    -2
100
AcDbLine
 10
15.3698728025185
 20
18.91892109819623
 30
0.0
 11
12.75352254998287
 21
18.91892109819623
 31
0.0
  0
LINE
  5
919
330
70B
100
AcDbEntity
  8
DIM
 62
     0
370
    -2
100
AcDbLine
 10
13.10227254998287
 20
10.68192109819623
 30
0.0
 11
13.10227254998287
 21
13.89104609819623
 31
0.0
  0
LINE
  5
91A
330
70B
100
AcDbEntity
  8
DIM
 62
     0
370
    -2
100
AcDbLine
 10
13.10227254998287
 20
18.24392109819623
 30
0.0
 11
13.10227254998287
 21
15.03479609819623
 31
0.0
  0
SOLID
  5
91B
330
70B
100
AcDbEntity
  8
DIM
 62
     0
100
AcDbTrace
 10
12.98977254998287
 20
10.68192109819623
 30
0.0
 11
13.21477254998287
 21
10.68192109819623
 31
0.0
 12
13.10227254998287
 22
10.00692109819623
 32
0.0
 13
13.10227254998287
 23
10.00692109819623
 33
0.0
  0
SOLID
  5
91C
330
70B
100
AcDbEntity
  8
DIM
 62
     0
100
AcDbTrace
 10
12.98977254998287
 20
18.24392109819623
 30
0.0
 11
13.21477254998287
 21
18.24392109819623
 31
0.0
 12
13.10227254998287
 22
18.91892109819623
 32
0.0
 13
13.10227254998287
 23
18.91892109819623
 33
0.0
  0
MTEXT
  5
91D
330
70B
100
AcDbEntity
  8
DIM
 62
     0
100
AcDbMText
 10
13.10227254998287
 20
14.46292109819624
 30
0.0
 40
0.46875
 41
0.0
 71
     5
 72
     1
  1
\A1;H
 73
     1
 44
1.0
  0
POINT
  5
91E
330
70B
100
AcDbEntity
  8
DEFPOINTS
 62
     0
100
AcDbPoint
 10
15.6061228025185
 20
10.00692109819623
 30
0.0
  0
POINT
  5
91F
330
70B
100
AcDbEntity
  8
DEFPOINTS
 62
     0
100
AcDbPoint
 10
15.6061228025185
 20
18.91892109819623
 30
0.0
  0
POINT
  5
920
330
70B
100
AcDbEntity
  8
DEFPOINTS
 62
     0
100
AcDbPoint
 10
13.10227254998287
 20
18.91892109819623
 30
0.0
  0
ENDBLK
  5
717
330
70B
100
AcDbEntity
  8
0
100
AcDbBlockEnd
  0
BLOCK
  5
723
330
718
100
AcDbEntity
  8
0
100
AcDbBlockBegin
  2
*D17
 70
     1
 10
0.0
 20
0.0
 30
0.0
  3
*D17
  1

  0
LINE
  5
921
330
718
100
AcDbEntity
  8
DIM
 62
     0
370
    -2
100
AcDbLine
 10
21.13812280251852
 20
19.65967109819622
 30
0.0
 11
21.13812280251852
 21
22.71243062610796
 31
0.0
  0
LINE
  5
922
330
718
100
AcDbEntity
  8
DIM
 62
     0
370
    -2
100
AcDbLine
 10
15.15212280251851
 20
19.65967109819622
 30
0.0
 11
15.15212280251851
 21
22.71243062610796
 31
0.0
  0
LINE
  5
923
330
718
100
AcDbEntity
  8
DIM
 62
     0
370
    -2
100
AcDbLine
 10
20.46312280251851
 20
22.36368062610796
 30
0.0
 11
18.59981030251851
 21
22.36368062610796
 31
0.0
  0
LINE
  5
924
330
718
100
AcDbEntity
  8
DIM
 62
     0
370
    -2
100
AcDbLine
 10
15.82712280251851
 20
22.36368062610796
 30
0.0
 11
17.69043530251852
 21
22.36368062610796
 31
0.0
  0
SOLID
  5
925
330
718
100
AcDbEntity
  8
DIM
 62
     0
100
AcDbTrace
 10
20.46312280251851
 20
22.47618062610796
 30
0.0
 11
20.46312280251851
 21
22.25118062610796
 31
0.0
 12
21.13812280251852
 22
22.36368062610796
 32
0.0
 13
21.13812280251852
 23
22.36368062610796
 33
0.0
  0
SOLID
  5
926
330
718
100
AcDbEntity
  8
DIM
 62
     0
100
AcDbTrace
 10
15.82712280251851
 20
22.47618062610796
 30
0.0
 11
15.82712280251851
 21
22.25118062610796
 31
0.0
 12
15.15212280251851
 22
22.36368062610796
 32
0.0
 13
15.15212280251851
 23
22.36368062610796
 33
0.0
  0
MTEXT
  5
927
330
718
100
AcDbEntity
  8
DIM
 62
     0
100
AcDbMText
 10
18.14512280251851
 20
22.36368062610796
 30
0.0
 40
0.46875
 41
0.0
 71
     5
 72
     1
  1
\A1;C
 73
     1
 44
1.0
  0
POINT
  5
928
330
718
100
AcDbEntity
  8
DEFPOINTS
 62
     0
100
AcDbPoint
 10
21.13812280251852
 20
19.42342109819622
 30
0.0
  0
POINT
  5
929
330
718
100
AcDbEntity
  8
DEFPOINTS
 62
     0
100
AcDbPoint
 10
15.15212280251851
 20
19.42342109819622
 30
0.0
  0
POINT
  5
92A
330
718
100
AcDbEntity
  8
DEFPOINTS
 62
     0
100
AcDbPoint
 10
15.15212280251851
 20
22.36368062610796
 30
0.0
  0
ENDBLK
  5
724
330
718
100
AcDbEntity
  8
0
100
AcDbBlockEnd
  0
BLOCK
  5
730
330
725
100
AcDbEntity
  8
0
100
AcDbBlockBegin
  2
*D18
 70
     1
 10
0.0
 20
0.0
 30
0.0
  3
*D18
  1

  0
LINE
  5
92B
330
725
100
AcDbEntity
  8
DIM
 62
     0
370
    -2
100
AcDbLine
 10
22.0701228025185
 20
20.01204609819623
 30
0.0
 11
22.0701228025185
 21
24.63553869995236
 31
0.0
  0
LINE
  5
92C
330
725
100
AcDbEntity
  8
DIM
 62
     0
370
    -2
100
AcDbLine
 10
14.22012280251854
 20
20.01204609819623
 30
0.0
 11
14.22012280251854
 21
24.63553869995236
 31
0.0
  0
LINE
  5
92D
330
725
100
AcDbEntity
  8
DIM
 62
     0
370
    -2
100
AcDbLine
 10
21.3951228025185
 20
24.28678869995236
 30
0.0
 11
18.59981030251852
 21
24.28678869995236
 31
0.0
  0
LINE
  5
92E
330
725
100
AcDbEntity
  8
DIM
 62
     0
370
    -2
100
AcDbLine
 10
14.89512280251854
 20
24.28678869995236
 30
0.0
 11
17.69043530251852
 21
24.28678869995236
 31
0.0
  0
SOLID
  5
92F
330
725
100
AcDbEntity
  8
DIM
 62
     0
100
AcDbTrace
 10
21.3951228025185
 20
24.39928869995236
 30
0.0
 11
21.3951228025185
 21
24.17428869995236
 31
0.0
 12
22.0701228025185
 22
24.28678869995236
 32
0.0
 13
22.0701228025185
 23
24.28678869995236
 33
0.0
  0
SOLID
  5
930
330
725
100
AcDbEntity
  8
DIM
 62
     0
100
AcDbTrace
 10
14.89512280251854
 20
24.39928869995236
 30
0.0
 11
14.89512280251854
 21
24.17428869995236
 31
0.0
 12
14.22012280251854
 22
24.28678869995236
 32
0.0
 13
14.22012280251854
 23
24.28678869995236
 33
0.0
  0
MTEXT
  5
931
330
725
100
AcDbEntity
  8
DIM
 62
     0
100
AcDbMText
 10
18.14512280251852
 20
24.28678869995236
 30
0.0
 40
0.46875
 41
0.0
 71
     5
 72
     1
  1
\A1;A
 73
     1
 44
1.0
  0
POINT
  5
932
330
725
100
AcDbEntity
  8
DEFPOINTS
 62
     0
100
AcDbPoint
 10
22.0701228025185
 20
19.77579609819623
 30
0.0
  0
POINT
  5
933
330
725
100
AcDbEntity
  8
DEFPOINTS
 62
     0
100
AcDbPoint
 10
14.22012280251854
 20
19.77579609819623
 30
0.0
  0
POINT
  5
934
330
725
100
AcDbEntity
  8
DEFPOINTS
 62
     0
100
AcDbPoint
 10
14.22012280251854
 20
24.28678869995236
 30
0.0
  0
ENDBLK
  5
731
330
725
100
AcDbEntity
  8
0
100
AcDbBlockEnd
  0
BLOCK
  5
73D
330
732
100
AcDbEntity
  8
0
100
AcDbBlockBegin
  2
*D19
 70
     1
 10
0.0
 20
0.0
 30
0.0
  3
*D19
  1

  0
LINE
  5
935
330
732
100
AcDbEntity
  8
DIM
 62
     0
370
    -2
100
AcDbLine
 10
21.65512280251851
 20
20.04817109819623
 30
0.0
 11
21.65512280251851
 21
23.70734574228047
 31
0.0
  0
LINE
  5
936
330
732
100
AcDbEntity
  8
DIM
 62
     0
370
    -2
100
AcDbLine
 10
14.63512280251852
 20
20.04817109819623
 30
0.0
 11
14.63512280251852
 21
23.70734574228047
 31
0.0
  0
LINE
  5
937
330
732
100
AcDbEntity
  8
DIM
 62
     0
370
    -2
100
AcDbLine
 10
20.98012280251851
 20
23.35859574228047
 30
0.0
 11
18.59981030251851
 21
23.35859574228047
 31
0.0
  0
LINE
  5
938
330
732
100
AcDbEntity
  8
DIM
 62
     0
370
    -2
100
AcDbLine
 10
15.31012280251852
 20
23.35859574228047
 30
0.0
 11
17.69043530251852
 21
23.35859574228047
 31
0.0
  0
SOLID
  5
939
330
732
100
AcDbEntity
  8
DIM
 62
     0
100
AcDbTrace
 10
20.98012280251851
 20
23.47109574228047
 30
0.0
 11
20.98012280251851
 21
23.24609574228047
 31
0.0
 12
21.65512280251851
 22
23.35859574228047
 32
0.0
 13
21.65512280251851
 23
23.35859574228047
 33
0.0
  0
SOLID
  5
93A
330
732
100
AcDbEntity
  8
DIM
 62
     0
100
AcDbTrace
 10
15.31012280251852
 20
23.47109574228047
 30
0.0
 11
15.31012280251852
 21
23.24609574228047
 31
0.0
 12
14.63512280251852
 22
23.35859574228047
 32
0.0
 13
14.63512280251852
 23
23.35859574228047
 33
0.0
  0
MTEXT
  5
93B
330
732
100
AcDbEntity
  8
DIM
 62
     0
100
AcDbMText
 10
18.14512280251851
 20
23.35859574228047
 30
0.0
 40
0.46875
 41
0.0
 71
     5
 72
     1
  1
\A1;B
 73
     1
 44
1.0
  0
POINT
  5
93C
330
732
100
AcDbEntity
  8
DEFPOINTS
 62
     0
100
AcDbPoint
 10
21.65512280251851
 20
19.81192109819623
 30
0.0
  0
POINT
  5
93D
330
732
100
AcDbEntity
  8
DEFPOINTS
 62
     0
100
AcDbPoint
 10
14.63512280251852
 20
19.81192109819623
 30
0.0
  0
POINT
  5
93E
330
732
100
AcDbEntity
  8
DEFPOINTS
 62
     0
100
AcDbPoint
 10
14.63512280251852
 20
23.35859574228047
 30
0.0
  0
ENDBLK
  5
73E
330
732
100
AcDbEntity
  8
0
100
AcDbBlockEnd
  0
ENDSEC
  0
SECTION
  2
ENTITIES
  0
LINE
  5
418
330
1E
100
AcDbEntity
  8
TITLE
100
AcDbLine
 10
0.2324999999250223
 20
1.800000000006271
 30
0.0
 11
37.71750000007497
 21
1.800000000006271
 31
0.0
  0
TEXT
  5
419
330
1E
100
AcDbEntity
  8
TEXT
100
AcDbText
 10
9.467430929266461
 20
1.17743633266658
 30
0.0
 40
0.4687500000018751
  1
7.850
 41
0.75
 72
     1
 11
10.14125905426915
 21
1.17743633266658
 31
0.0
100
AcDbText
  0
TEXT
  5
41A
330
1E
100
AcDbEntity
  8
TEXT
100
AcDbText
 10
9.496727804266578
 20
0.4185300826635454
 30
0.0
 40
0.4687500000018751
  1
[199]
 41
0.75
 72
     1
 11
10.14125905426915
 21
0.4185300826635454
 31
0.0
100
AcDbText
  0
TEXT
  5
41B
330
1E
100
AcDbEntity
  8
TEXT
100
AcDbText
 10
11.52313323438961
 20
0.4185300826635454
 30
0.0
 40
0.4687500000018751
  1
[178]
 41
0.75
 72
     1
 11
12.16766448439219
 21
0.4185300826635454
 31
0.0
100
AcDbText
  0
TEXT
  5
41C
330
1E
100
AcDbEntity
  8
TEXT
100
AcDbText
 10
11.52313323438961
 20
1.17743633266658
 30
0.0
 40
0.4687500000018751
  1
7.020
 41
0.75
 72
     1
 11
12.16766448439219
 21
1.17743633266658
 31
0.0
100
AcDbText
  0
TEXT
  5
41D
330
1E
100
AcDbEntity
  8
TEXT
100
AcDbText
 10
13.54953866451266
 20
0.4185300826635454
 30
0.0
 40
0.4687500000018751
  1
[152]
 41
0.75
 72
     1
 11
14.19406991451524
 21
0.4185300826635454
 31
0.0
100
AcDbText
  0
TEXT
  5
41E
330
1E
100
AcDbEntity
  8
TEXT
100
AcDbText
 10
13.49094491451243
 20
1.17743633266658
 30
0.0
 40
0.4687500000018751
  1
5.986
 41
0.75
 72
     1
 11
14.19406991451524
 21
1.17743633266658
 31
0.0
100
AcDbText
  0
TEXT
  5
41F
330
1E
100
AcDbEntity
  8
TEXT
100
AcDbText
 10
15.59057384151896
 20
1.17743633266658
 30
0.0
 40
0.4687500000018751
  1
5.078
 41
0.75
 72
     1
 11
16.26440196652165
 21
1.17743633266658
 31
0.0
100
AcDbText
  0
TEXT
  5
420
330
1E
100
AcDbEntity
  8
TEXT
100
AcDbText
 10
15.61987071651907
 20
0.4185300826635454
 30
0.0
 40
0.4687500000018751
  1
[129]
 41
0.75
 72
     1
 11
16.26440196652165
 21
0.4185300826635454
 31
0.0
100
AcDbText
  0
TEXT
  5
421
330
1E
100
AcDbEntity
  8
TEXT
100
AcDbText
 10
17.68427282672706
 20
0.4185300826635454
 30
0.0
 40
0.4687500000018751
  1
[300]
 41
0.75
 72
     1
 11
18.32880407672964
 21
0.4185300826635454
 31
0.0
100
AcDbText
  0
TEXT
  5
422
330
1E
100
AcDbEntity
  8
TEXT
100
AcDbText
 10
17.59638220172671
 20
1.17743633266658
 30
0.0
 40
0.4687500000018751
  1
11.807
 41
0.75
 72
     1
 11
18.32880407672964
 21
1.17743633266658
 31
0.0
100
AcDbText
  0
TEXT
  5
423
330
1E
100
AcDbEntity
  8
TEXT
100
AcDbText
 10
19.68856080336816
 20
0.4185300826635454
 30
0.0
 40
0.4687500000018751
  1
[280]
 41
0.75
 72
     1
 11
20.36238892837085
 21
0.4185300826635454
 31
0.0
100
AcDbText
  0
TEXT
  5
424
330
1E
100
AcDbEntity
  8
TEXT
100
AcDbText
 10
19.68856080336816
 20
1.17743633266658
 30
0.0
 40
0.4687500000018751
  1
11.013
 41
0.75
 72
     1
 11
20.36238892837085
 21
1.17743633266658
 31
0.0
100
AcDbText
  0
TEXT
  5
425
330
1E
100
AcDbEntity
  8
TEXT
100
AcDbText
 10
21.75603980147978
 20
1.17743633266658
 30
0.0
 40
0.4687500000018751
  1
9.921
 41
0.75
 72
     1
 11
22.40057105148236
 21
1.17743633266658
 31
0.0
100
AcDbText
  0
TEXT
  5
426
330
1E
100
AcDbEntity
  8
TEXT
100
AcDbText
 10
21.69744605147955
 20
0.4185300826635454
 30
0.0
 40
0.4687500000018751
  1
[252]
 41
0.75
 72
     1
 11
22.40057105148236
 21
0.4185300826635454
 31
0.0
100
AcDbText
  0
TEXT
  5
427
330
1E
100
AcDbEntity
  8
TEXT
100
AcDbText
 10
23.70272935015541
 20
0.4185300826635454
 30
0.0
 40
0.4687500000018751
  1
[226]
 41
0.75
 72
     1
 11
24.40585435015822
 21
0.4185300826635454
 31
0.0
100
AcDbText
  0
TEXT
  5
428
330
1E
100
AcDbEntity
  8
TEXT
100
AcDbText
 10
23.76132310015564
 20
1.17743633266658
 30
0.0
 40
0.4687500000018751
  1
8.912
 41
0.75
 72
     1
 11
24.40585435015822
 21
1.17743633266658
 31
0.0
100
AcDbText
  0
TEXT
  5
429
330
1E
100
AcDbEntity
  8
TEXT
100
AcDbText
 10
25.78969999745901
 20
0.4185300826635454
 30
0.0
 40
0.4687500000018751
  1
[122]
 41
0.75
 72
     1
 11
26.43423124746158
 21
0.4185300826635454
 31
0.0
100
AcDbText
  0
TEXT
  5
42A
330
1E
100
AcDbEntity
  8
TEXT
100
AcDbText
 10
25.73110624745877
 20
1.17743633266658
 30
0.0
 40
0.4687500000018751
  1
4.797
 41
0.75
 72
     1
 11
26.43423124746158
 21
1.17743633266658
 31
0.0
100
AcDbText
  0
TEXT
  5
42B
330
1E
100
AcDbEntity
  8
TEXT
100
AcDbText
 10
28.06548416041327
 20
0.4185300826635454
 30
0.0
 40
0.4687500000018751
  1
[30]
 41
0.75
 72
     1
 11
28.56353103541526
 21
0.4185300826635454
 31
0.0
100
AcDbText
  0
TEXT
  5
42C
330
1E
100
AcDbEntity
  8
TEXT
100
AcDbText
 10
27.97759353541292
 20
1.17743633266658
 30
0.0
 40
0.4687500000018751
  1
1.175
 41
0.75
 72
     1
 11
28.56353103541526
 21
1.17743633266658
 31
0.0
100
AcDbText
  0
TEXT
  5
42D
330
1E
100
AcDbEntity
  8
TEXT
100
AcDbText
 10
33.9869723788983
 20
1.17743633266658
 30
0.0
 40
0.4687500000018751
  1
7.300
 41
0.75
 72
     1
 11
34.63150362890088
 21
1.17743633266658
 31
0.0
100
AcDbText
  0
TEXT
  5
42E
330
1E
100
AcDbEntity
  8
TEXT
100
AcDbText
 10
33.9869723788983
 20
0.4185300826635454
 30
0.0
 40
0.4687500000018751
  1
[185]
 41
0.75
 72
     1
 11
34.63150362890088
 21
0.4185300826635454
 31
0.0
100
AcDbText
  0
TEXT
  5
42F
330
1E
100
AcDbEntity
  8
TEXT
100
AcDbText
 10
10.02407155426868
 20
1.961186332669716
 30
0.0
 40
0.4687500000018751
  1
A
 41
0.75
 72
     1
 11
10.14125905426915
 21
1.961186332669716
 31
0.0
100
AcDbText
  0
TEXT
  5
430
330
1E
100
AcDbEntity
  8
TEXT
100
AcDbText
 10
12.05047698439172
 20
1.961186332669716
 30
0.0
 40
0.4687500000018751
  1
B
 41
0.75
 72
     1
 11
12.16766448439219
 21
1.961186332669716
 31
0.0
100
AcDbText
  0
TEXT
  5
431
330
1E
100
AcDbEntity
  8
TEXT
100
AcDbText
 10
14.07688241451477
 20
1.961186332669716
 30
0.0
 40
0.4687500000018751
  1
C
 41
0.75
 72
     1
 11
14.19406991451524
 21
1.961186332669716
 31
0.0
100
AcDbText
  0
TEXT
  5
432
330
1E
100
AcDbEntity
  8
TEXT
100
AcDbText
 10
16.14721446652118
 20
1.961186332669716
 30
0.0
 40
0.4687500000018751
  1
D
 41
0.75
 72
     1
 11
16.26440196652165
 21
1.961186332669716
 31
0.0
100
AcDbText
  0
TEXT
  5
433
330
1E
100
AcDbEntity
  8
TEXT
100
AcDbText
 10
18.21161657672918
 20
1.961186332669716
 30
0.0
 40
0.4687500000018751
  1
E
 41
0.75
 72
     1
 11
18.32880407672965
 21
1.961186332669716
 31
0.0
100
AcDbText
  0
TEXT
  5
434
330
1E
100
AcDbEntity
  8
TEXT
100
AcDbText
 10
20.24520142837038
 20
1.961186332669716
 30
0.0
 40
0.4687500000018751
  1
F
 41
0.75
 72
     1
 11
20.36238892837085
 21
1.961186332669716
 31
0.0
100
AcDbText
  0
TEXT
  5
435
330
1E
100
AcDbEntity
  8
TEXT
100
AcDbText
 10
22.2833835514819
 20
1.961186332669716
 30
0.0
 40
0.4687500000018751
  1
G
 41
0.75
 72
     1
 11
22.40057105148236
 21
1.961186332669716
 31
0.0
100
AcDbText
  0
TEXT
  5
436
330
1E
100
AcDbEntity
  8
TEXT
100
AcDbText
 10
24.28866685015776
 20
1.961186332669716
 30
0.0
 40
0.4687500000018751
  1
H
 41
0.75
 72
     1
 11
24.40585435015822
 21
1.961186332669716
 31
0.0
100
AcDbText
  0
TEXT
  5
437
330
1E
100
AcDbEntity
  8
TEXT
100
AcDbText
 10
26.31704374746111
 20
1.961186332669716
 30
0.0
 40
0.4687500000018751
  1
K
 41
0.75
 72
     1
 11
26.43423124746158
 21
1.961186332669716
 31
0.0
100
AcDbText
  0
TEXT
  5
438
330
1E
100
AcDbEntity
  8
TEXT
100
AcDbText
 10
28.44634353541479
 20
1.961186332669716
 30
0.0
 40
0.4687500000018751
  1
L
 41
0.75
 72
     1
 11
28.56353103541526
 21
1.961186332669716
 31
0.0
100
AcDbText
  0
TEXT
  5
439
330
1E
100
AcDbEntity
  8
TEXT
100
AcDbText
 10
30.44476432917517
 20
1.961186332669716
 30
0.0
 40
0.4687500000018751
  1
M
 41
0.75
 72
     1
 11
30.56195182917564
 21
1.961186332669716
 31
0.0
100
AcDbText
  0
TEXT
  5
43A
330
1E
100
AcDbEntity
  8
TEXT
100
AcDbText
 10
32.47226924383059
 20
1.961186332669716
 30
0.0
 40
0.4687500000018751
  1
N
 41
0.75
 72
     1
 11
32.58945674383106
 21
1.961186332669716
 31
0.0
100
AcDbText
  0
TEXT
  5
43B
330
1E
100
AcDbEntity
  8
TEXT
100
AcDbText
 10
34.51431612890041
 20
1.961186332669716
 30
0.0
 40
0.4687500000018751
  1
P
 41
0.75
 72
     1
 11
34.63150362890088
 21
1.961186332669716
 31
0.0
100
AcDbText
  0
TEXT
  5
43C
330
1E
100
AcDbEntity
  8
TEXT
100
AcDbText
 10
36.56925647785107
 20
1.961186332669716
 30
0.0
 40
0.4687500000018751
  1
R
 41
0.75
 72
     1
 11
36.68644397785154
 21
1.961186332669716
 31
0.0
100
AcDbText
  0
LINE
  5
43D
330
1E
100
AcDbEntity
  8
TITLE
100
AcDbLine
 10
9.13106249996062
 20
2.583750000009406
 30
0.0
 11
37.71750000007497
 21
2.583750000009406
 31
0.0
  0
TEXT
  5
43E
330
1E
100
AcDbEntity
  8
TEXT
100
AcDbText
 10
29.85882682917282
 20
0.4185300826635454
 30
0.0
 40
0.4687500000018751
  1
[286]
 41
0.75
 72
     1
 11
30.56195182917564
 21
0.4185300826635454
 31
0.0
100
AcDbText
  0
TEXT
  5
43F
330
1E
100
AcDbEntity
  8
TEXT
100
AcDbText
 10
29.80023307917259
 20
1.17743633266658
 30
0.0
 40
0.4687500000018751
  1
11.245
 41
0.75
 72
     1
 11
30.56195182917564
 21
1.17743633266658
 31
0.0
100
AcDbText
  0
TEXT
  5
440
330
1E
100
AcDbEntity
  8
TEXT
100
AcDbText
 10
31.88633174382825
 20
0.4185300826635454
 30
0.0
 40
0.4687500000018751
  1
[282]
 41
0.75
 72
     1
 11
32.58945674383106
 21
0.4185300826635454
 31
0.0
100
AcDbText
  0
TEXT
  5
441
330
1E
100
AcDbEntity
  8
TEXT
100
AcDbText
 10
31.94492549382848
 20
1.17743633266658
 30
0.0
 40
0.4687500000018751
  1
11.100
 41
0.75
 72
     1
 11
32.58945674383106
 21
1.17743633266658
 31
0.0
100
AcDbText
  0
TEXT
  5
442
330
1E
100
AcDbEntity
  8
TEXT
100
AcDbText
 10
36.04191272784896
 20
0.4185300826635454
 30
0.0
 40
0.4687500000018751
  1
[182]
 41
0.75
 72
     1
 11
36.68644397785154
 21
0.4185300826635454
 31
0.0
100
AcDbText
  0
TEXT
  5
443
330
1E
100
AcDbEntity
  8
TEXT
100
AcDbText
 10
36.04191272784896
 20
1.17743633266658
 30
0.0
 40
0.4687500000018751
  1
7.155
 41
0.75
 72
     1
 11
36.68644397785154
 21
1.17743633266658
 31
0.0
100
AcDbText
  0
TEXT
  5
444
330
1E
100
AcDbEntity
  8
TEXT
100
AcDbText
 10
3.451312499937903
 20
3.533419200124042
 30
0.0
 40
0.4687500000018751
  1
PART NO.
 41
0.75
 72
     1
 11
4.681781249942825
 21
3.533419200124042
 31
0.0
100
AcDbText
  0
TEXT
  5
445
330
1E
100
AcDbEntity
  8
TEXT
100
AcDbText
 10
1.076318825573792
 20
0.7690872004515186
 30
0.0
 40
0.4687500000018751
  1
NBA-10142
 41
0.75
 72
     1
 11
2.4532719505793
 21
0.7690872004515186
 31
0.0
100
AcDbText
  0
TEXT
  5
446
330
1E
100
AcDbEntity
  8
TEXT
100
AcDbText
 10
5.525600075591588
 20
0.7690872004515186
 30
0.0
 40
0.4687500000018751
  1
NBA-10162
 41
0.75
 72
     1
 11
6.902553200597096
 21
0.7690872004515186
 31
0.0
100
AcDbText
  0
LINE
  5
447
330
1E
100
AcDbEntity
  8
TITLE
100
AcDbLine
 10
9.13106249996062
 20
4.151250000015676
 30
0.0
 11
9.131062499960618
 21
0.2325000000000009
 31
0.0
  0
LINE
  5
448
330
1E
100
AcDbEntity
  8
TITLE
100
AcDbLine
 10
11.17293749996878
 20
2.583750000009406
 30
0.0
 11
11.17293749996878
 21
0.2325000000000009
 31
0.0
  0
LINE
  5
449
330
1E
100
AcDbEntity
  8
TITLE
100
AcDbLine
 10
13.21481249997695
 20
2.583750000009406
 30
0.0
 11
13.21481249997695
 21
0.2325000000000009
 31
0.0
  0
LINE
  5
44A
330
1E
100
AcDbEntity
  8
TITLE
100
AcDbLine
 10
15.25668749998511
 20
2.583750000009406
 30
0.0
 11
15.25668749998511
 21
0.2325000000000009
 31
0.0
  0
LINE
  5
44B
330
1E
100
AcDbEntity
  8
TITLE
100
AcDbLine
 10
17.29856249999328
 20
2.583750000009406
 30
0.0
 11
17.29856249999328
 21
0.2325000000000009
 31
0.0
  0
LINE
  5
44C
330
1E
100
AcDbEntity
  8
TITLE
100
AcDbLine
 10
19.34043750000146
 20
2.583750000009406
 30
0.0
 11
19.34043750000146
 21
0.2325000000000009
 31
0.0
  0
LINE
  5
44D
330
1E
100
AcDbEntity
  8
TITLE
100
AcDbLine
 10
21.38231250000962
 20
2.583750000009406
 30
0.0
 11
21.38231250000962
 21
0.2325000000000009
 31
0.0
  0
LINE
  5
44E
330
1E
100
AcDbEntity
  8
TITLE
100
AcDbLine
 10
23.42418750001778
 20
2.583750000009406
 30
0.0
 11
23.42418750001778
 21
0.2325000000000009
 31
0.0
  0
LINE
  5
44F
330
1E
100
AcDbEntity
  8
TITLE
100
AcDbLine
 10
25.46606250002596
 20
2.583750000009406
 30
0.0
 11
25.46606250002596
 21
0.2325000000000009
 31
0.0
  0
LINE
  5
450
330
1E
100
AcDbEntity
  8
TITLE
100
AcDbLine
 10
27.50793750003413
 20
2.583750000009406
 30
0.0
 11
27.50793750003413
 21
0.2325000000000009
 31
0.0
  0
LINE
  5
451
330
1E
100
AcDbEntity
  8
TITLE
100
AcDbLine
 10
29.54981250004229
 20
2.583750000009406
 30
0.0
 11
29.54981250004229
 21
0.2325000000000009
 31
0.0
  0
LINE
  5
452
330
1E
100
AcDbEntity
  8
TITLE
100
AcDbLine
 10
31.59168750005046
 20
2.583750000009406
 30
0.0
 11
31.59168750005046
 21
0.2325000000000009
 31
0.0
  0
LINE
  5
453
330
1E
100
AcDbEntity
  8
TITLE
100
AcDbLine
 10
33.63356250005862
 20
2.583750000009406
 30
0.0
 11
33.63356250005862
 21
0.2325000000000009
 31
0.0
  0
LINE
  5
454
330
1E
100
AcDbEntity
  8
TITLE
100
AcDbLine
 10
35.67543750006679
 20
2.583750000009406
 30
0.0
 11
35.67543750006679
 21
0.2325000000000009
 31
0.0
  0
TEXT
  5
455
330
1E
100
AcDbEntity
  8
TEXT
100
AcDbText
 10
1.691553200576253
 20
2.760234143333216
 30
0.0
 40
0.4687500000018751
  1
SOLID
 41
0.75
 72
     1
 11
2.4532719505793
 21
2.760234143333216
 31
0.0
100
AcDbText
  0
TEXT
  5
456
330
1E
100
AcDbEntity
  8
TEXT
100
AcDbText
 10
1.574365700575784
 20
1.978984143330091
 30
0.0
 40
0.4687500000018751
  1
COVER
 41
0.75
 72
     1
 11
2.4532719505793
 21
1.978984143330091
 31
0.0
100
AcDbText
  0
TEXT
  5
457
330
1E
100
AcDbEntity
  8
TEXT
100
AcDbText
 10
6.023646950593581
 20
1.978984143330091
 30
0.0
 40
0.4687500000018751
  1
COVER
 41
0.75
 72
     1
 11
6.902553200597096
 21
1.978984143330091
 31
0.0
100
AcDbText
  0
TEXT
  5
458
330
1E
100
AcDbEntity
  8
TEXT
100
AcDbText
 10
6.082240700593814
 20
2.760234143333216
 30
0.0
 40
0.4687500000018751
  1
CLEAR
 41
0.75
 72
     1
 11
6.902553200597096
 21
2.760234143333216
 31
0.0
100
AcDbText
  0
LINE
  5
459
330
1E
100
AcDbEntity
  8
TITLE
100
AcDbLine
 10
4.674043901233571
 20
3.367500000012543
 30
0.0
 11
4.674043901233571
 21
0.2325000000000009
 31
0.0
  0
LINE
  5
45A
330
1E
100
AcDbEntity
  8
TITLE
100
AcDbLine
 10
0.232499999925029
 20
3.367500000012543
 30
0.0
 11
9.13106249996062
 21
3.367500000012543
 31
0.0
  0
LINE
  5
45B
330
1E
100
AcDbEntity
  8
TITLE
100
AcDbLine
 10
0.232499999925029
 20
4.151250000015676
 30
0.0
 11
37.71750000007497
 21
4.151250000015676
 31
0.0
  0
TEXT
  5
45C
330
1E
100
AcDbEntity
  8
TEXT
100
AcDbText
 10
21.80288560014782
 20
3.158022771520037
 30
0.0
 40
0.4687500000018751
  1
DIMENSIONS
 41
0.75
 72
     1
 11
23.38491685015414
 21
3.158022771520037
 31
0.0
100
AcDbText
  0
INSERT
  5
45D
330
1E
100
AcDbEntity
  8
OBJECT
100
AcDbBlockReference
  2
HB
 10
0.0
 20
0.0
 30
0.0
 41
3.75
 42
3.75
 43
3.75
  0
TEXT
  5
45E
330
1E
100
AcDbEntity
  8
TEXT
100
AcDbText
 10
5.260000000000008
 20
56.85875
 30
0.0
 40
0.5
  1
NON-METALLIC ENCLOSURE (STYLE A)
 41
0.75
 72
     4
 11
11.01
 21
57.10875
 31
0.0
100
AcDbText
  0
TEXT
  5
45F
330
1E
100
AcDbEntity
  8
TEXT
100
AcDbText
 10
25.18762499998128
 20
56.78024999999869
 30
0.0
 40
0.657000000002628
  1
NBA-10142 & NBA-10162
 41
0.75
 72
     4
 11
29.86875000000001
 21
57.10875
 31
0.0
100
AcDbText
  0
LINE
  5
460
330
1E
100
AcDbEntity
  8
TITLE
100
AcDbLine
 10
9.131062499960618
 20
1.016250000003136
 30
0.0
 11
37.71750000007497
 21
1.016250000003136
 31
0.0
  0
TEXT
  5
461
330
1E
100
AcDbEntity
  8
TEXT
100
AcDbText
 10
0.8618389062371711
 20
4.963121840586151
 30
0.0
 40
0.468
  1
DIMENSIONS =
 41
0.75
100
AcDbText
  0
TEXT
  5
462
330
1E
100
AcDbEntity
  8
TEXT
100
AcDbText
 10
6.071497012773033
 20
5.364735086734967
 30
0.0
 40
0.468
  1
INCHES
 41
0.75
 72
     1
 11
7.007497012773033
 21
5.364735086734967
 31
0.0
100
AcDbText
  0
TEXT
  5
463
330
1E
100
AcDbEntity
  8
TEXT
100
AcDbText
 10
5.018497012773033
 20
4.584735086734966
 30
0.0
 40
0.468
  1
[MILLIMETERS]
 41
0.75
 72
     1
 11
7.007497012773033
 21
4.584735086734966
 31
0.0
100
AcDbText
  0
TEXT
  5
464
330
1E
100
AcDbEntity
  8
TEXT
100
AcDbText
 10
0.8483225056337069
 20
28.86362072582166
 30
0.0
 40
0.468
  1
%%UINDUSTRY STANDARDS:
 41
0.75
100
AcDbText
  0
TEXT
  5
465
330
1E
100
AcDbEntity
  8
TEXT
100
AcDbText
 10
0.8483225056337069
 20
28.08362072582166
 30
0.0
 40
0.468
  1
UL508 TYPE 1, 2, 4, 4X INDOOR, 12 & 13
 41
0.75
100
AcDbText
  0
TEXT
  5
466
330
1E
100
AcDbEntity
  8
TEXT
100
AcDbText
 10
0.8483225056337069
 20
27.30362072582166
 30
0.0
 40
0.468
  1
NEMA TYPE 1, 2, 4, 4X, 12 & 13
 41
0.75
100
AcDbText
  0
TEXT
  5
467
330
1E
100
AcDbEntity
  8
TEXT
100
AcDbText
 10
0.8483225056337069
 20
26.52362072582166
 30
0.0
 40
0.468
  1
IEC529-IP65
 41
0.75
100
AcDbText
  0
TEXT
  5
468
330
1E
100
AcDbEntity
  8
TEXT
100
AcDbText
 10
21.70782687868463
 20
5.320119086734967
 30
0.0
 40
0.468
  1
%%UNOTE%%U: ALL DIMENSIONS HAVE %%P0.039 [%%P1] TOLERANCE
 41
0.75
100
AcDbText
  0
TEXT
  5
469
330
1E
100
AcDbEntity
  8
TEXT
100
AcDbText
 10
23.61195306097493
 20
4.584735086734966
 30
0.0
 40
0.468
  1
UNLESS OTHERWISE SPECIFIED
 41
0.75
100
AcDbText
  0
LINE
  5
46A
330
1E
100
AcDbEntity
  8
OBJECT
100
AcDbLine
 10
31.80624819334836
 20
25.62545726961398
 30
0.0
 11
27.36437319334835
 21
25.52383328961887
 31
0.0
  0
LINE
  5
46B
330
1E
100
AcDbEntity
  8
OBJECT
100
AcDbLine
 10
31.54812319334836
 20
25.77091885362674
 30
0.0
 11
27.08874819334833
 21
25.66895726961398
 31
0.0
  0
LINE
  5
46C
330
1E
100
AcDbEntity
  8
OBJECT
100
AcDbLine
 10
31.66624819334838
 20
25.9480571142017
 30
0.0
 11
31.27324819334835
 21
26.02167870702159
 31
0.0
  0
LINE
  5
46D
330
1E
100
AcDbEntity
  8
OBJECT
100
AcDbLine
 10
31.80624819334836
 20
36.72545726961397
 30
0.0
 11
27.36437319334835
 21
36.82708124960904
 31
0.0
  0
LINE
  5
46E
330
1E
100
AcDbEntity
  8
OBJECT
100
AcDbLine
 10
31.80624819334836
 20
36.72545726961397
 30
0.0
 11
31.80624819334836
 21
31.17545726961397
 31
0.0
  0
LINE
  5
46F
330
1E
100
AcDbEntity
  8
OBJECT
100
AcDbLine
 10
31.88599819334832
 20
27.01445726961395
 30
0.0
 11
31.88599819334832
 21
25.91995726961396
 31
0.0
  0
LINE
  5
470
330
1E
100
AcDbEntity
  8
OBJECT
100
AcDbLine
 10
31.66624819334838
 20
25.9480571142017
 30
0.0
 11
31.66624819334835
 21
25.88904385362674
 31
0.0
  0
ARC
  5
471
330
1E
100
AcDbEntity
  8
OBJECT
100
AcDbCircle
 10
31.54812319334836
 20
25.88904385362674
 30
0.0
 40
0.118125
100
AcDbArc
 50
270.0
 51
0.0
  0
LINE
  5
472
330
1E
100
AcDbEntity
  8
OBJECT
100
AcDbLine
 10
31.80624819334834
 20
25.91995726961396
 30
0.0
 11
31.80624819334836
 21
25.62545726961398
 31
0.0
  0
LINE
  5
473
330
1E
100
AcDbEntity
  8
OBJECT
100
AcDbLine
 10
31.80624819334836
 20
30.88045726961398
 30
0.0
 11
31.80624819334836
 21
27.01445726961395
 31
0.0
  0
LINE
  5
474
330
1E
100
AcDbEntity
  8
OBJECT
100
AcDbLine
 10
27.36437319334835
 20
37.07895726961394
 30
0.0
 11
27.36437319334835
 21
35.03995726961398
 31
0.0
  0
LINE
  5
475
330
1E
100
AcDbEntity
  8
OBJECT
100
AcDbLine
 10
31.27324819334835
 20
26.40823583220633
 30
0.0
 11
31.27324819334835
 21
26.02167870702159
 31
0.0
  0
LINE
  5
476
330
1E
100
AcDbEntity
  8
OBJECT
100
AcDbLine
 10
27.08874819334833
 20
25.27195726961402
 30
0.0
 11
27.36437319334835
 21
25.27195726961402
 31
0.0
  0
POINT
  5
477
330
1E
100
AcDbEntity
  8
OBJECT
100
AcDbPoint
 10
27.08874819334833
 20
37.07895726961394
 30
0.0
  0
POINT
  5
478
330
1E
100
AcDbEntity
  8
OBJECT
100
AcDbPoint
 10
27.36437319334835
 20
37.07895726961394
 30
0.0
  0
POINT
  5
479
330
1E
100
AcDbEntity
  8
OBJECT
100
AcDbPoint
 10
27.36437319334835
 20
37.07895726961394
 30
0.0
  0
LINE
  5
47A
330
1E
100
AcDbEntity
  8
OBJECT
100
AcDbLine
 10
27.08874819334833
 20
37.07895726961394
 30
0.0
 11
27.36437319334835
 21
37.07895726961394
 31
0.0
  0
LINE
  5
47B
330
1E
100
AcDbEntity
  8
OBJECT
100
AcDbLine
 10
14.56762280251853
 20
45.20233759768911
 30
0.0
 11
14.50537382252343
 21
40.76046259768911
 31
0.0
  0
LINE
  5
47C
330
1E
100
AcDbEntity
  8
OBJECT
100
AcDbLine
 10
21.72262280251853
 20
45.20233759768911
 30
0.0
 11
21.7848717825136
 21
40.76046259768911
 31
0.0
  0
LINE
  5
47D
330
1E
100
AcDbEntity
  8
OBJECT
100
AcDbLine
 10
14.19037382252344
 20
40.76046259768911
 30
0.0
 11
22.0998717825136
 21
40.76046259768911
 31
0.0
  0
LINE
  5
47E
330
1E
100
AcDbEntity
  8
OBJECT
100
AcDbLine
 10
14.19037382252344
 20
40.4848375976891
 30
0.0
 11
22.0998717825136
 21
40.4848375976891
 31
0.0
  0
POINT
  5
47F
330
1E
100
AcDbEntity
  8
OBJECT
100
AcDbPoint
 10
21.7848717825136
 20
40.76046259768911
 30
0.0
  0
LINE
  5
480
330
1E
100
AcDbEntity
  8
OBJECT
100
AcDbLine
 10
22.0998717825136
 20
40.4848375976891
 30
0.0
 11
22.0998717825136
 21
40.76046259768911
 31
0.0
  0
LINE
  5
481
330
1E
100
AcDbEntity
  8
OBJECT
100
AcDbLine
 10
14.19037382252342
 20
40.4848375976891
 30
0.0
 11
14.19037382252342
 21
40.76046259768911
 31
0.0
  0
LINE
  5
482
330
1E
100
AcDbEntity
  8
OBJECT
100
AcDbLine
 10
14.56762280251853
 20
45.20233759768911
 30
0.0
 11
21.72262280251853
 21
45.20233759768911
 31
0.0
  0
LINE
  5
483
330
1E
100
AcDbEntity
  8
CENTER
100
AcDbLine
 10
18.14512280251852
 20
38.86176396179346
 30
0.0
 11
18.14512280251852
 21
45.5863888597917
 31
0.0
  0
LINE
  5
484
330
1E
100
AcDbEntity
  8
OBJECT
100
AcDbLine
 10
27.36437319334835
 20
25.52383328961887
 30
0.0
 11
27.36437319334835
 21
25.27195726961402
 31
0.0
  0
DIMENSION
  5
485
330
1E
100
AcDbEntity
  8
DIM
100
AcDbDimension
  2
*D3
 10
21.72262280251853
 20
46.25092469534486
 30
0.0
 11
18.14512280251853
 21
46.25092469534486
 31
0.0
 70
    32
  1
R
 71
     5
 42
7.154999999999994
  3
23NSTD
100
AcDbAlignedDimension
 13
14.56762280251853
 23
45.20233759768911
 33
0.0
 14
21.72262280251853
 24
45.20233759768911
 34
0.0
100
AcDbRotatedDimension
  0
DIMENSION
  5
486
330
1E
100
AcDbEntity
  8
DIM
100
AcDbDimension
  2
*D4
 10
36.49991484247773
 20
36.72545726961397
 30
0.0
 11
36.49991484247772
 21
31.17545726961398
 31
0.0
 70
    32
  1
N
 71
     5
 42
11.09999999999999
  3
23NSTD
100
AcDbAlignedDimension
 13
31.80624819334836
 23
25.62545726961398
 33
0.0
 14
31.80624819334836
 24
36.72545726961397
 34
0.0
 50
90.0
100
AcDbRotatedDimension
  0
DIMENSION
  5
487
330
1E
100
AcDbEntity
  8
DIM
100
AcDbDimension
  2
*D5
 10
24.64743352752515
 20
25.55295726961397
 30
0.0
 11
24.64743352752514
 21
31.17545726961398
 31
0.0
 70
    32
  1
M
 71
     5
 42
11.245
  3
23NSTD
100
AcDbAlignedDimension
 13
26.13902063345632
 23
36.79795726961398
 33
0.0
 14
26.13902063345632
 24
25.55295726961397
 34
0.0
 50
270.0
100
AcDbRotatedDimension
  0
DIMENSION
  5
488
330
1E
100
AcDbEntity
  8
DIM
100
AcDbDimension
  2
*D6
 10
25.91349819334836
 20
38.99706722438356
 30
0.0
 11
24.10881069334836
 21
38.99706722438356
 31
0.0
 70
    32
  1
L
 71
     5
 42
1.175249999999977
  3
23NSTD
100
AcDbAlignedDimension
 13
27.08874819334833
 23
37.07895726961394
 33
0.0
 14
25.91349819334836
 24
36.56218972222518
 34
0.0
 50
180.0
100
AcDbRotatedDimension
  0
LINE
  5
489
330
1E
100
AcDbEntity
  8
OBJECT
100
AcDbLine
 10
26.77374819334834
 20
25.31645726961398
 30
0.0
 11
27.08874819334833
 21
25.31645726961398
 31
0.0
  0
LINE
  5
48A
330
1E
100
AcDbEntity
  8
OBJECT
100
AcDbLine
 10
26.77374819334834
 20
25.52383328961888
 30
0.0
 11
26.77374819334834
 21
25.31645726961398
 31
0.0
  0
LINE
  5
48B
330
1E
100
AcDbEntity
  8
OBJECT
100
AcDbLine
 10
26.13868089823036
 20
25.55297285810036
 30
0.0
 11
26.77374819334834
 21
25.52383328961888
 31
0.0
  0
LINE
  5
48C
330
1E
100
AcDbEntity
  8
OBJECT
100
AcDbLine
 10
26.77374819334834
 20
31.17545726961397
 30
0.0
 11
26.77374819334836
 21
33.99295726961399
 31
0.0
  0
LINE
  5
48D
330
1E
100
AcDbEntity
  8
OBJECT
100
AcDbLine
 10
27.08874819334833
 20
25.51145726961398
 30
0.0
 11
27.08874819334836
 21
33.99295726961399
 31
0.0
  0
LINE
  5
48E
330
1E
100
AcDbEntity
  8
OBJECT
100
AcDbLine
 10
26.77374819334833
 20
37.03445726961398
 30
0.0
 11
27.08874819334833
 21
37.03445726961398
 31
0.0
  0
LINE
  5
48F
330
1E
100
AcDbEntity
  8
OBJECT
100
AcDbLine
 10
21.55911648489383
 20
39.3035875976891
 30
0.0
 11
14.73112912014321
 21
39.3035875976891
 31
0.0
  0
LINE
  5
490
330
1E
100
AcDbEntity
  8
OBJECT
100
AcDbLine
 10
18.14512280251852
 20
40.4848375976891
 30
0.0
 11
14.22974882252343
 21
40.4848375976891
 31
0.0
  0
LINE
  5
491
330
1E
100
AcDbEntity
  8
OBJECT
100
AcDbLine
 10
14.46599882252344
 20
40.16983759768911
 30
0.0
 11
21.82424678251361
 21
40.16983759768911
 31
0.0
  0
LINE
  5
492
330
1E
100
AcDbEntity
  8
OBJECT
100
AcDbLine
 10
14.22974882252343
 20
40.16983759768911
 30
0.0
 11
14.22974882252343
 21
40.4848375976891
 31
0.0
  0
LINE
  5
493
330
1E
100
AcDbEntity
  8
OBJECT
100
AcDbLine
 10
14.49512280251853
 20
39.52911003779707
 30
0.0
 11
14.46599882252344
 21
40.16983759768911
 31
0.0
  0
LINE
  5
494
330
1E
100
AcDbEntity
  8
OBJECT
100
AcDbLine
 10
14.46599882252344
 20
40.16983759768911
 30
0.0
 11
14.22974882252343
 21
40.16983759768911
 31
0.0
  0
ARC
  5
495
330
1E
100
AcDbEntity
  8
OBJECT
100
AcDbCircle
 10
14.73112912014321
 20
39.5398375976891
 30
0.0
 40
0.23625
100
AcDbArc
 50
182.6025622024998
 51
270.0
  0
LINE
  5
496
330
1E
100
AcDbEntity
  8
OBJECT
100
AcDbLine
 10
18.14512280251852
 20
40.4848375976891
 30
0.0
 11
22.06049678251362
 21
40.4848375976891
 31
0.0
  0
LINE
  5
497
330
1E
100
AcDbEntity
  8
OBJECT
100
AcDbLine
 10
22.06049678251362
 20
40.16983759768911
 30
0.0
 11
22.06049678251362
 21
40.4848375976891
 31
0.0
  0
LINE
  5
498
330
1E
100
AcDbEntity
  8
OBJECT
100
AcDbLine
 10
21.79512280251852
 20
39.52911003779707
 30
0.0
 11
21.82424678251361
 21
40.16983759768911
 31
0.0
  0
ARC
  5
499
330
1E
100
AcDbEntity
  8
OBJECT
100
AcDbCircle
 10
21.55911648489383
 20
39.5398375976891
 30
0.0
 40
0.23625
100
AcDbArc
 50
270.0
 51
357.3974377975001
  0
LINE
  5
49A
330
1E
100
AcDbEntity
  8
OBJECT
100
AcDbLine
 10
21.82424678251361
 20
40.16983759768911
 30
0.0
 11
22.06049678251362
 21
40.16983759768911
 31
0.0
  0
LINE
  5
49B
330
1E
100
AcDbEntity
  8
OBJECT
100
AcDbLine
 10
14.50537382252344
 20
36.64070726961398
 30
0.0
 11
14.50537382252342
 21
25.71020726961398
 31
0.0
  0
LINE
  5
49C
330
1E
100
AcDbEntity
  8
OBJECT
100
AcDbLine
 10
14.22974882252343
 20
36.64070726961398
 30
0.0
 11
14.22974882252343
 21
35.108457269614
 31
0.0
  0
LINE
  5
49D
330
1E
100
AcDbEntity
  8
OBJECT
100
AcDbLine
 10
22.06049678251362
 20
36.64070726961398
 30
0.0
 11
22.06049678251362
 21
35.03988812673257
 31
0.0
  0
LINE
  5
49E
330
1E
100
AcDbEntity
  8
OBJECT
100
AcDbLine
 10
21.7848717825136
 20
36.64070726961398
 30
0.0
 11
21.7848717825136
 21
25.71020726961398
 31
0.0
  0
LINE
  5
49F
330
1E
100
AcDbEntity
  8
OBJECT
100
AcDbLine
 10
21.66674678251361
 20
25.59208226961397
 30
0.0
 11
14.62349882252341
 21
25.59208226961397
 31
0.0
  0
LINE
  5
4A0
330
1E
100
AcDbEntity
  8
OBJECT
100
AcDbLine
 10
21.66674678251361
 20
25.31645726961398
 30
0.0
 11
14.62349882252341
 21
25.31645726961398
 31
0.0
  0
ARC
  5
4A1
330
1E
100
AcDbEntity
  8
OBJECT
100
AcDbCircle
 10
14.62349882252341
 20
25.71020726961398
 30
0.0
 40
0.39375
100
AcDbArc
 50
180.0
 51
270.0
  0
ARC
  5
4A2
330
1E
100
AcDbEntity
  8
OBJECT
100
AcDbCircle
 10
14.62349882252341
 20
25.71020726961398
 30
0.0
 40
0.118125
100
AcDbArc
 50
180.0
 51
270.0
  0
POINT
  5
4A3
330
1E
100
AcDbEntity
  8
OBJECT
100
AcDbPoint
 10
14.22974882252342
 20
25.71020726961398
 30
0.0
  0
ARC
  5
4A4
330
1E
100
AcDbEntity
  8
OBJECT
100
AcDbCircle
 10
21.66674678251361
 20
25.71020726961398
 30
0.0
 40
0.39375
100
AcDbArc
 50
270.0
 51
0.0
  0
POINT
  5
4A5
330
1E
100
AcDbEntity
  8
OBJECT
100
AcDbPoint
 10
21.66674678251361
 20
25.31645726961398
 30
0.0
  0
POINT
  5
4A6
330
1E
100
AcDbEntity
  8
OBJECT
100
AcDbPoint
 10
22.06049678251361
 20
25.71020726961398
 30
0.0
  0
ARC
  5
4A7
330
1E
100
AcDbEntity
  8
OBJECT
100
AcDbCircle
 10
21.66674678251361
 20
25.71020726961398
 30
0.0
 40
0.118125
100
AcDbArc
 50
270.0
 51
0.0
  0
LINE
  5
4A8
330
1E
100
AcDbEntity
  8
OBJECT
100
AcDbLine
 10
21.66674678251361
 20
37.03445726961398
 30
0.0
 11
14.62349882252343
 21
37.03445726961398
 31
0.0
  0
LINE
  5
4A9
330
1E
100
AcDbEntity
  8
OBJECT
100
AcDbLine
 10
21.66674678251361
 20
36.75883226961397
 30
0.0
 11
14.62349882252343
 21
36.75883226961397
 31
0.0
  0
ARC
  5
4AA
330
1E
100
AcDbEntity
  8
OBJECT
100
AcDbCircle
 10
14.62349882252343
 20
36.64070726961398
 30
0.0
 40
0.118125
100
AcDbArc
 50
90.00000000000005
 51
180.0
  0
ARC
  5
4AB
330
1E
100
AcDbEntity
  8
OBJECT
100
AcDbCircle
 10
14.62349882252343
 20
36.64070726961398
 30
0.0
 40
0.39375
100
AcDbArc
 50
90.00000000000005
 51
180.0
  0
ARC
  5
4AC
330
1E
100
AcDbEntity
  8
OBJECT
100
AcDbCircle
 10
21.66674678251361
 20
36.64070726961398
 30
0.0
 40
0.118125
100
AcDbArc
 50
0.0
 51
90.00000000000005
  0
POINT
  5
4AD
330
1E
100
AcDbEntity
  8
OBJECT
100
AcDbPoint
 10
21.66674678251361
 20
37.03445726961398
 30
0.0
  0
ARC
  5
4AE
330
1E
100
AcDbEntity
  8
OBJECT
100
AcDbCircle
 10
21.66674678251361
 20
36.64070726961398
 30
0.0
 40
0.39375
100
AcDbArc
 50
0.0
 51
90.00000000000005
  0
CIRCLE
  5
4AF
330
1E
100
AcDbEntity
  8
OBJECT
100
AcDbCircle
 10
13.99437382252342
 20
40.4848375976891
 30
0.0
 40
0.109
  0
LINE
  5
4B0
330
1E
100
AcDbEntity
  8
OBJECT
100
AcDbLine
 10
21.87724678251361
 20
39.86483759768912
 30
0.0
 11
21.82424678251361
 21
39.86483759768912
 31
0.0
  0
LINE
  5
4B1
330
1E
100
AcDbEntity
  8
OBJECT
100
AcDbLine
 10
21.87724678251361
 20
39.78983759768911
 30
0.0
 11
21.82424678251361
 21
39.78983759768911
 31
0.0
  0
LINE
  5
4B2
330
1E
100
AcDbEntity
  8
OBJECT
100
AcDbLine
 10
21.82424678251361
 20
39.61983759768911
 30
0.0
 11
21.87724678251361
 21
39.61983759768911
 31
0.0
  0
LINE
  5
4B3
330
1E
100
AcDbEntity
  8
OBJECT
100
AcDbLine
 10
28.5338952769497
 20
34.86045726961398
 30
0.0
 11
28.5338952769497
 21
34.17245726961399
 31
0.0
  0
POLYLINE
  5
4B4
330
1E
100
AcDbEntity
  8
OBJECT
100
AcDb3dPolyline
 66
     1
 10
0.0
 20
0.0
 30
0.0
 70
     8
  0
VERTEX
  5
4B5
330
4B4
100
AcDbEntity
  8
OBJECT
100
AcDbVertex
100
AcDb3dPolylineVertex
 10
26.52553525206089
 20
34.23495726961398
 30
0.0
 70
    32
1001
ACAD
1000
R13OBJECT
1002
{
1005
4AD
1002
}
  0
VERTEX
  5
4B6
330
4B4
100
AcDbEntity
  8
OBJECT
100
AcDbVertex
100
AcDb3dPolylineVertex
 10
26.52991545799274
 20
34.21103955509117
 30
0.0
 70
    32
1001
ACAD
1000
R13OBJECT
1002
{
1005
4AD
1002
}
  0
VERTEX
  5
4B7
330
4B4
100
AcDbEntity
  8
OBJECT
100
AcDbVertex
100
AcDb3dPolylineVertex
 10
26.54238922914181
 20
34.19076309578982
 30
0.0
 70
    32
1001
ACAD
1000
R13OBJECT
1002
{
1005
4AD
1002
}
  0
VERTEX
  5
4B8
330
4B4
100
AcDbEntity
  8
OBJECT
100
AcDbVertex
100
AcDb3dPolylineVertex
 10
26.56105754692568
 20
34.17721479883203
 30
0.0
 70
    32
1001
ACAD
1000
R13OBJECT
1002
{
1005
4AD
1002
}
  0
VERTEX
  5
4B9
330
4B4
100
AcDbEntity
  8
OBJECT
100
AcDbVertex
100
AcDb3dPolylineVertex
 10
26.58307832919051
 20
34.17245726961398
 30
0.0
 70
    32
1001
ACAD
1000
R13OBJECT
1002
{
1005
4AD
1002
}
  0
SEQEND
  5
4BA
330
4B4
100
AcDbEntity
  8
OBJECT
  0
POLYLINE
  5
4BB
330
1E
100
AcDbEntity
  8
OBJECT
100
AcDb3dPolyline
 66
     1
 10
0.0
 20
0.0
 30
0.0
 70
     8
  0
VERTEX
  5
4BC
330
4BB
100
AcDbEntity
  8
OBJECT
100
AcDbVertex
100
AcDb3dPolylineVertex
 10
26.50484953916675
 20
34.23495726961398
 30
0.0
 70
    32
1001
ACAD
1000
R13OBJECT
1002
{
1005
4AB
1002
}
  0
VERTEX
  5
4BD
330
4BB
100
AcDbEntity
  8
OBJECT
100
AcDbVertex
100
AcDb3dPolylineVertex
 10
26.5092297450986
 20
34.21103955509117
 30
0.0
 70
    32
1001
ACAD
1000
R13OBJECT
1002
{
1005
4AB
1002
}
  0
VERTEX
  5
4BE
330
4BB
100
AcDbEntity
  8
OBJECT
100
AcDbVertex
100
AcDb3dPolylineVertex
 10
26.52170351624768
 20
34.19076309578982
 30
0.0
 70
    32
1001
ACAD
1000
R13OBJECT
1002
{
1005
4AB
1002
}
  0
VERTEX
  5
4BF
330
4BB
100
AcDbEntity
  8
OBJECT
100
AcDbVertex
100
AcDb3dPolylineVertex
 10
26.54037183403157
 20
34.17721479883203
 30
0.0
 70
    32
1001
ACAD
1000
R13OBJECT
1002
{
1005
4AB
1002
}
  0
VERTEX
  5
4C0
330
4BB
100
AcDbEntity
  8
OBJECT
100
AcDbVertex
100
AcDb3dPolylineVertex
 10
26.56239261629638
 20
34.17245726961398
 30
0.0
 70
    32
1001
ACAD
1000
R13OBJECT
1002
{
1005
4AB
1002
}
  0
SEQEND
  5
4C1
330
4BB
100
AcDbEntity
  8
OBJECT
  0
CIRCLE
  5
4C2
330
1E
100
AcDbEntity
  8
OBJECT
100
AcDbCircle
 10
26.30874819334833
 20
34.20395726961398
 30
0.0
 40
0.085
  0
LINE
  5
4C3
330
1E
100
AcDbEntity
  8
OBJECT
100
AcDbLine
 10
26.23374819334834
 20
34.18243858877103
 30
0.0
 11
26.23374819334834
 21
34.22541831968008
 31
0.0
  0
LWPOLYLINE
  5
4C4
330
1E
100
AcDbEntity
  8
OBJECT
100
AcDbPolyline
 90
       73
 70
     0
 43
0.0
 10
26.32374819334835
 20
34.12741316468094
 10
26.31996859473476
 20
34.1267693178967
 10
26.31619646631274
 20
34.12631511654298
 10
26.31245020140854
 20
34.12604596549151
 10
26.30874819334833
 20
34.12595726961398
 10
26.30500767554063
 20
34.12605102769534
 10
26.30123047692127
 20
34.12633224675642
 10
26.29743382607411
 20
34.12680084402277
 10
26.29363495158283
 20
34.1274567367199
 10
26.28985108203123
 20
34.12829984207336
 10
26.28609944600309
 20
34.12933007730869
 10
26.28239727208215
 20
34.1305473596514
 10
26.27876178885218
 20
34.13195160632704
 10
26.27520884899634
 20
34.13354038028314
 10
26.27175015969881
 20
34.13530273778592
 10
26.26839673129488
 20
34.13722583603891
 10
26.26515957411992
 20
34.13929683224568
 10
26.26204969850921
 20
34.14150288360977
 10
26.25907811479807
 20
34.14383114733473
 10
26.25625583332184
 20
34.1462687806241
 10
26.2535938644158
 20
34.14880294068143
 10
26.25106399083243
 20
34.15146032064204
 10
26.24862908535603
 20
34.1542790792064
 10
26.24630224417977
 20
34.15724812111564
 10
26.24409656349691
 20
34.16035635111088
 10
26.24202513950062
 20
34.16359267393324
 10
26.24010106838413
 20
34.16694599432384
 10
26.23833744634068
 20
34.1704052170238
 10
26.23674736956342
 20
34.17395924677425
 10
26.23534196748271
 20
34.17759633487222
 10
26.23412369219012
 20
34.18130050031569
 10
26.23309262387069
 20
34.1850542993972
 10
26.23224884270949
 20
34.18884028840928
 10
26.23159242889157
 20
34.19264102364446
 10
26.23112346260204
 20
34.19643906139528
 10
26.23084202402596
 20
34.20021695795428
 10
26.23074819334833
 20
34.20395726961398
 10
26.23084146461703
 20
34.20768630959476
 10
26.23112124042403
 20
34.21145307952734
 10
26.23158746377093
 20
34.21524021078086
 10
26.23224007765923
 20
34.21903033472443
 10
26.23307902509042
 20
34.2228060827272
 10
26.23410424906602
 20
34.2265500861583
 10
26.23531569258757
 20
34.23024497638685
 10
26.23671329865656
 20
34.233873384782
 10
26.23829464589018
 20
34.23741939403658
 10
26.24004866580695
 20
34.2408712909592
 10
26.24196233076069
 20
34.24421801309264
 10
26.24402261310509
 20
34.24744849797971
 10
26.2462164851939
 20
34.25055168316317
 10
26.24853091938082
 20
34.25351650618581
 10
26.25095288801962
 20
34.25633190459042
 10
26.25346936346405
 20
34.25898681591978
 10
26.25613380088596
 20
34.26153445812377
 10
26.25895944148071
 20
34.26398509335909
 10
26.26193524175319
 20
34.26632581283677
 10
26.26505015820829
 20
34.26854370776782
 10
26.26829314735088
 20
34.27062586936322
 10
26.27165316568589
 20
34.27255938883401
 10
26.27511916971819
 20
34.27433135739119
 10
26.27868011595266
 20
34.27592886624576
 10
26.28232426074013
 20
34.27734091213435
 10
26.28603568737351
 20
34.27856502735485
 10
26.28979709277079
 20
34.27960110646024
 10
26.29359117385009
 20
34.28044904400348
 10
26.29740062752942
 20
34.28110873453751
 10
26.30120815072688
 20
34.28158007261529
 10
26.30499644036051
 20
34.2818629527898
 10
26.30874819334833
 20
34.28195726961398
 10
26.31244995439571
 20
34.28186858230209
 10
26.31619616903911
 20
34.28159944552671
 10
26.31996839583713
 20
34.28114524702822
 10
26.32374819334835
 20
34.28050137454702
  0
ARC
  5
4C5
330
1E
100
AcDbEntity
  8
OBJECT
100
AcDbCircle
 10
26.30874819334833
 20
34.20395726961398
 30
0.0
 40
0.078
100
AcDbArc
 50
281.0874892109704
 51
78.91251078902897
  0
LINE
  5
4C6
330
1E
100
AcDbEntity
  8
OBJECT
100
AcDbLine
 10
26.38174819334834
 20
34.23133744845177
 30
0.0
 11
26.38174819334834
 21
34.17650602580166
 31
0.0
  0
LINE
  5
4C7
330
1E
100
AcDbEntity
  8
OBJECT
100
AcDbLine
 10
26.23374819334834
 20
34.18233312646289
 30
0.0
 11
26.23374819334834
 21
34.18243858877103
 31
0.0
  0
LINE
  5
4C8
330
1E
100
AcDbEntity
  8
OBJECT
100
AcDbLine
 10
26.38174819334834
 20
34.17650602580166
 30
0.0
 11
26.38174819334834
 21
34.17648000628599
 31
0.0
  0
LINE
  5
4C9
330
1E
100
AcDbEntity
  8
OBJECT
100
AcDbLine
 10
26.52553525206089
 20
34.79795726961398
 30
0.0
 11
26.52553525206089
 21
34.23495726961398
 31
0.0
  0
LINE
  5
4CA
330
1E
100
AcDbEntity
  8
OBJECT
100
AcDbLine
 10
26.50484953916675
 20
34.79795726961398
 30
0.0
 11
26.50484953916675
 21
34.23495726961398
 31
0.0
  0
POLYLINE
  5
4CB
330
1E
100
AcDbEntity
  8
OBJECT
100
AcDb3dPolyline
 66
     1
 10
0.0
 20
0.0
 30
0.0
 70
     8
  0
VERTEX
  5
4CC
330
4CB
100
AcDbEntity
  8
OBJECT
100
AcDbVertex
100
AcDb3dPolylineVertex
 10
26.56239261629638
 20
34.86045726961398
 30
0.0
 70
    32
1001
ACAD
1000
R13OBJECT
1002
{
1005
4A8
1002
}
  0
VERTEX
  5
4CD
330
4CB
100
AcDbEntity
  8
OBJECT
100
AcDbVertex
100
AcDb3dPolylineVertex
 10
26.54037183403157
 20
34.85569974039594
 30
0.0
 70
    32
1001
ACAD
1000
R13OBJECT
1002
{
1005
4A8
1002
}
  0
VERTEX
  5
4CE
330
4CB
100
AcDbEntity
  8
OBJECT
100
AcDbVertex
100
AcDb3dPolylineVertex
 10
26.52170351624768
 20
34.84215144343814
 30
0.0
 70
    32
1001
ACAD
1000
R13OBJECT
1002
{
1005
4A8
1002
}
  0
VERTEX
  5
4CF
330
4CB
100
AcDbEntity
  8
OBJECT
100
AcDbVertex
100
AcDb3dPolylineVertex
 10
26.5092297450986
 20
34.8218749841368
 30
0.0
 70
    32
1001
ACAD
1000
R13OBJECT
1002
{
1005
4A8
1002
}
  0
VERTEX
  5
4D0
330
4CB
100
AcDbEntity
  8
OBJECT
100
AcDbVertex
100
AcDb3dPolylineVertex
 10
26.50484953916675
 20
34.79795726961398
 30
0.0
 70
    32
1001
ACAD
1000
R13OBJECT
1002
{
1005
4A8
1002
}
  0
SEQEND
  5
4D1
330
4CB
100
AcDbEntity
  8
OBJECT
  0
POLYLINE
  5
4D2
330
1E
100
AcDbEntity
  8
OBJECT
100
AcDb3dPolyline
 66
     1
 10
0.0
 20
0.0
 30
0.0
 70
     8
  0
VERTEX
  5
4D3
330
4D2
100
AcDbEntity
  8
OBJECT
100
AcDbVertex
100
AcDb3dPolylineVertex
 10
26.58307832919051
 20
34.86045726961398
 30
0.0
 70
    32
1001
ACAD
1000
R13OBJECT
1002
{
1005
4A6
1002
}
  0
VERTEX
  5
4D4
330
4D2
100
AcDbEntity
  8
OBJECT
100
AcDbVertex
100
AcDb3dPolylineVertex
 10
26.56105754692568
 20
34.85569974039594
 30
0.0
 70
    32
1001
ACAD
1000
R13OBJECT
1002
{
1005
4A6
1002
}
  0
VERTEX
  5
4D5
330
4D2
100
AcDbEntity
  8
OBJECT
100
AcDbVertex
100
AcDb3dPolylineVertex
 10
26.54238922914181
 20
34.84215144343814
 30
0.0
 70
    32
1001
ACAD
1000
R13OBJECT
1002
{
1005
4A6
1002
}
  0
VERTEX
  5
4D6
330
4D2
100
AcDbEntity
  8
OBJECT
100
AcDbVertex
100
AcDb3dPolylineVertex
 10
26.52991545799274
 20
34.8218749841368
 30
0.0
 70
    32
1001
ACAD
1000
R13OBJECT
1002
{
1005
4A6
1002
}
  0
VERTEX
  5
4D7
330
4D2
100
AcDbEntity
  8
OBJECT
100
AcDbVertex
100
AcDb3dPolylineVertex
 10
26.52553525206089
 20
34.79795726961398
 30
0.0
 70
    32
1001
ACAD
1000
R13OBJECT
1002
{
1005
4A6
1002
}
  0
SEQEND
  5
4D8
330
4D2
100
AcDbEntity
  8
OBJECT
  0
CIRCLE
  5
4D9
330
1E
100
AcDbEntity
  8
OBJECT
100
AcDbCircle
 10
26.30874819334833
 20
34.82895726961398
 30
0.0
 40
0.085
  0
LINE
  5
4DA
330
1E
100
AcDbEntity
  8
OBJECT
100
AcDbLine
 10
26.23374819334834
 20
34.22541831968008
 30
0.0
 11
26.23374819334834
 21
34.22545924472975
 31
0.0
  0
LINE
  5
4DB
330
1E
100
AcDbEntity
  8
OBJECT
100
AcDbLine
 10
26.23374819334834
 20
34.80733312646287
 30
0.0
 11
26.23374819334834
 21
34.80743858877111
 31
0.0
  0
LINE
  5
4DC
330
1E
100
AcDbEntity
  8
OBJECT
100
AcDbLine
 10
26.23374819334834
 20
34.80743858877112
 30
0.0
 11
26.23374819334834
 21
34.85041831968008
 31
0.0
  0
LINE
  5
4DD
330
1E
100
AcDbEntity
  8
OBJECT
100
AcDbLine
 10
26.23374819334834
 20
34.85041831968008
 30
0.0
 11
26.23374819334834
 21
34.85045924472978
 31
0.0
  0
ARC
  5
4DE
330
1E
100
AcDbEntity
  8
OBJECT
100
AcDbCircle
 10
26.30874819334833
 20
34.82895726961398
 30
0.0
 40
0.078
100
AcDbArc
 50
281.087489210971
 51
78.91251078902897
  0
LINE
  5
4DF
330
1E
100
AcDbEntity
  8
OBJECT
100
AcDbLine
 10
26.38174819334834
 20
34.85643453294205
 30
0.0
 11
26.38174819334834
 21
34.85633744845184
 31
0.0
  0
LINE
  5
4E0
330
1E
100
AcDbEntity
  8
OBJECT
100
AcDbLine
 10
26.38174819334834
 20
34.85633744845184
 30
0.0
 11
26.38174819334834
 21
34.80150602580156
 31
0.0
  0
LINE
  5
4E1
330
1E
100
AcDbEntity
  8
OBJECT
100
AcDbLine
 10
26.38174819334834
 20
34.80150602580156
 30
0.0
 11
26.38174819334834
 21
34.80148000628591
 31
0.0
  0
LWPOLYLINE
  5
4E2
330
1E
100
AcDbEntity
  8
OBJECT
100
AcDbPolyline
 90
       73
 70
     0
 43
0.0
 10
26.32374819334835
 20
34.75241316468094
 10
26.31996859473476
 20
34.75176931789669
 10
26.31619646631274
 20
34.75131511654298
 10
26.31245020140854
 20
34.75104596549151
 10
26.30874819334833
 20
34.75095726961398
 10
26.30500767554063
 20
34.75105102769534
 10
26.30123047692127
 20
34.75133224675642
 10
26.29743382607411
 20
34.75180084402277
 10
26.29363495158283
 20
34.7524567367199
 10
26.28985108203123
 20
34.75329984207336
 10
26.28609944600309
 20
34.75433007730869
 10
26.28239727208215
 20
34.7555473596514
 10
26.27876178885218
 20
34.75695160632704
 10
26.27520884899634
 20
34.75854038028314
 10
26.27175015969881
 20
34.76030273778592
 10
26.26839673129488
 20
34.76222583603891
 10
26.26515957411992
 20
34.76429683224568
 10
26.26204969850921
 20
34.76650288360977
 10
26.25907811479807
 20
34.76883114733473
 10
26.25625583332184
 20
34.7712687806241
 10
26.2535938644158
 20
34.77380294068143
 10
26.25106399083243
 20
34.77646032064204
 10
26.24862908535603
 20
34.7792790792064
 10
26.24630224417977
 20
34.78224812111564
 10
26.24409656349691
 20
34.78535635111088
 10
26.24202513950062
 20
34.78859267393324
 10
26.24010106838413
 20
34.79194599432384
 10
26.23833744634068
 20
34.7954052170238
 10
26.23674736956342
 20
34.79895924677425
 10
26.23534196748271
 20
34.80259633487222
 10
26.23412369219012
 20
34.80630050031569
 10
26.23309262387069
 20
34.8100542993972
 10
26.23224884270949
 20
34.81384028840928
 10
26.23159242889157
 20
34.81764102364446
 10
26.23112346260204
 20
34.82143906139528
 10
26.23084202402596
 20
34.82521695795428
 10
26.23074819334836
 20
34.82895726961398
 10
26.23084146461703
 20
34.83268630959476
 10
26.23112124042406
 20
34.83645307952734
 10
26.23158746377093
 20
34.84024021078086
 10
26.23224007765923
 20
34.84403033472443
 10
26.23307902509042
 20
34.8478060827272
 10
26.23410424906602
 20
34.8515500861583
 10
26.23531569258757
 20
34.85524497638686
 10
26.23671329865656
 20
34.858873384782
 10
26.23829464589018
 20
34.86241939403658
 10
26.24004866580695
 20
34.8658712909592
 10
26.24196233076069
 20
34.86921801309264
 10
26.24402261310509
 20
34.87244849797972
 10
26.2462164851939
 20
34.87555168316317
 10
26.24853091938082
 20
34.87851650618582
 10
26.25095288801962
 20
34.88133190459041
 10
26.25346936346405
 20
34.88398681591978
 10
26.25613380088596
 20
34.88653445812377
 10
26.25895944148071
 20
34.88898509335909
 10
26.26193524175319
 20
34.89132581283677
 10
26.26505015820829
 20
34.89354370776782
 10
26.26829314735088
 20
34.89562586936322
 10
26.27165316568589
 20
34.89755938883401
 10
26.27511916971819
 20
34.89933135739119
 10
26.27868011595266
 20
34.90092886624576
 10
26.28232426074013
 20
34.90234091213435
 10
26.28603568737351
 20
34.90356502735485
 10
26.28979709277079
 20
34.90460110646024
 10
26.29359117385009
 20
34.90544904400348
 10
26.29740062752942
 20
34.90610873453751
 10
26.30120815072688
 20
34.90658007261529
 10
26.30499644036051
 20
34.9068629527898
 10
26.30874819334833
 20
34.90695726961398
 10
26.31244995439571
 20
34.90686858230209
 10
26.31619616903911
 20
34.90659944552671
 10
26.31996839583713
 20
34.90614524702822
 10
26.32374819334835
 20
34.90550137454702
  0
LINE
  5
4E3
330
1E
100
AcDbEntity
  8
OBJECT
100
AcDbLine
 10
26.38174819334834
 20
34.23143453294197
 30
0.0
 11
26.38174819334834
 21
34.23133744845177
 31
0.0
  0
LINE
  5
4E4
330
1E
100
AcDbEntity
  8
OBJECT
100
AcDbLine
 10
26.77374819334836
 20
35.03995726961398
 30
0.0
 11
26.77374819334833
 21
37.03445726961398
 31
0.0
  0
LINE
  5
4E5
330
1E
100
AcDbEntity
  8
OBJECT
100
AcDbLine
 10
27.08874819334833
 20
35.03995726961398
 30
0.0
 11
27.08874819334833
 21
37.07895726961394
 31
0.0
  0
LINE
  5
4E6
330
1E
100
AcDbEntity
  8
OBJECT
100
AcDbLine
 10
27.36437319334835
 20
34.93095726961399
 30
0.0
 11
27.36437319334835
 21
34.10195726961398
 31
0.0
  0
LINE
  5
4E7
330
1E
100
AcDbEntity
  8
OBJECT
100
AcDbLine
 10
27.36437319334835
 20
33.99295726961399
 30
0.0
 11
27.36437319334835
 21
31.17545726961398
 31
0.0
  0
LINE
  5
4E8
330
1E
100
AcDbEntity
  8
OBJECT
100
AcDbLine
 10
27.08874819334836
 20
34.10195726961398
 30
0.0
 11
27.08874819334833
 21
34.93095726961399
 31
0.0
  0
LINE
  5
4E9
330
1E
100
AcDbEntity
  8
OBJECT
100
AcDbLine
 10
26.77374819334836
 20
34.10195726961398
 30
0.0
 11
26.77374819334836
 21
34.93095726961399
 31
0.0
  0
LINE
  5
4EA
330
1E
100
AcDbEntity
  8
OBJECT
100
AcDbLine
 10
13.81537382252342
 20
35.108457269614
 30
0.0
 11
13.81537382252342
 21
33.82745726961401
 31
0.0
  0
LINE
  5
4EB
330
1E
100
AcDbEntity
  8
OBJECT
100
AcDbLine
 10
14.46643379461736
 20
35.108457269614
 30
0.0
 11
13.81537382252342
 21
35.108457269614
 31
0.0
  0
LINE
  5
4EC
330
1E
100
AcDbEntity
  8
OBJECT
100
AcDbLine
 10
14.46643379461736
 20
33.82745726961401
 30
0.0
 11
13.81537382252342
 21
33.82745726961401
 31
0.0
  0
LINE
  5
4ED
330
1E
100
AcDbEntity
  8
OBJECT
100
AcDbLine
 10
14.17337382252343
 20
35.108457269614
 30
0.0
 11
14.17337382252343
 21
33.82745726961401
 31
0.0
  0
LINE
  5
4EE
330
1E
100
AcDbEntity
  8
OBJECT
100
AcDbLine
 10
14.22974882252343
 20
33.82745726961401
 30
0.0
 11
14.22974882252343
 21
28.52345726961395
 31
0.0
  0
LINE
  5
4EF
330
1E
100
AcDbEntity
  8
OBJECT
100
AcDbLine
 10
14.17337382252343
 20
34.796457269614
 30
0.0
 11
13.81537382252342
 21
34.796457269614
 31
0.0
  0
LINE
  5
4F0
330
1E
100
AcDbEntity
  8
OBJECT
100
AcDbLine
 10
14.17337382252343
 20
34.139457269614
 30
0.0
 11
13.81537382252342
 21
34.139457269614
 31
0.0
  0
LINE
  5
4F1
330
1E
100
AcDbEntity
  8
OBJECT
100
AcDbLine
 10
14.39643379461735
 20
35.108457269614
 30
0.0
 11
14.39643379461735
 21
33.82745726961401
 31
0.0
  0
LINE
  5
4F2
330
1E
100
AcDbEntity
  8
OBJECT
100
AcDbLine
 10
14.46643379461736
 20
35.108457269614
 30
0.0
 11
14.46643379461736
 21
33.82745726961401
 31
0.0
  0
LINE
  5
4F3
330
1E
100
AcDbEntity
  8
OBJECT
100
AcDbLine
 10
14.46643379461736
 20
27.24245726961395
 30
0.0
 11
14.46643379461736
 21
28.52345726961395
 31
0.0
  0
LINE
  5
4F4
330
1E
100
AcDbEntity
  8
OBJECT
100
AcDbLine
 10
14.39643379461735
 20
27.24245726961395
 30
0.0
 11
14.39643379461735
 21
28.52345726961395
 31
0.0
  0
LINE
  5
4F5
330
1E
100
AcDbEntity
  8
OBJECT
100
AcDbLine
 10
14.17337382252343
 20
27.24245726961395
 30
0.0
 11
14.17337382252343
 21
28.52345726961395
 31
0.0
  0
LINE
  5
4F6
330
1E
100
AcDbEntity
  8
OBJECT
100
AcDbLine
 10
13.81537382252342
 20
27.24245726961395
 30
0.0
 11
13.81537382252342
 21
28.52345726961395
 31
0.0
  0
LINE
  5
4F7
330
1E
100
AcDbEntity
  8
OBJECT
100
AcDbLine
 10
14.46643379461736
 20
28.52345726961395
 30
0.0
 11
13.81537382252342
 21
28.52345726961395
 31
0.0
  0
LINE
  5
4F8
330
1E
100
AcDbEntity
  8
OBJECT
100
AcDbLine
 10
14.17337382252343
 20
28.21145726961395
 30
0.0
 11
13.81537382252342
 21
28.21145726961395
 31
0.0
  0
LINE
  5
4F9
330
1E
100
AcDbEntity
  8
OBJECT
100
AcDbLine
 10
14.46643379461736
 20
27.24245726961395
 30
0.0
 11
13.81537382252342
 21
27.24245726961395
 31
0.0
  0
LINE
  5
4FA
330
1E
100
AcDbEntity
  8
OBJECT
100
AcDbLine
 10
14.17337382252343
 20
27.55445726961395
 30
0.0
 11
13.81537382252342
 21
27.55445726961395
 31
0.0
  0
LINE
  5
4FB
330
1E
100
AcDbEntity
  8
OBJECT
100
AcDbLine
 10
14.22974882252343
 20
27.24245726961395
 30
0.0
 11
14.22974882252342
 21
25.71020726961398
 31
0.0
  0
LINE
  5
4FC
330
1E
100
AcDbEntity
  8
OBJECT
100
AcDbLine
 10
21.87724678251363
 20
34.93095726961398
 30
0.0
 11
21.97964941642401
 21
34.93095726961398
 31
0.0
  0
LINE
  5
4FD
330
1E
100
AcDbEntity
  8
OBJECT
100
AcDbLine
 10
22.25769024459713
 20
35.03995726961398
 30
0.0
 11
22.0635427520654
 21
35.03995726961398
 31
0.0
  0
LINE
  5
4FE
330
1E
100
AcDbEntity
  8
OBJECT
100
AcDbLine
 10
22.25769024459713
 20
34.10195726961398
 30
0.0
 11
22.08845025310769
 21
34.10195726961398
 31
0.0
  0
LINE
  5
4FF
330
1E
100
AcDbEntity
  8
OBJECT
100
AcDbLine
 10
22.06353267628217
 20
33.99295726961399
 30
0.0
 11
22.25769024459713
 21
33.99295726961399
 31
0.0
  0
LINE
  5
500
330
1E
100
AcDbEntity
  8
OBJECT
100
AcDbLine
 10
22.25287178251362
 20
34.86045726961398
 30
0.0
 11
22.13724678251363
 21
34.86045726961398
 31
0.0
  0
LINE
  5
501
330
1E
100
AcDbEntity
  8
OBJECT
100
AcDbLine
 10
22.13724678251363
 20
34.17245726961398
 30
0.0
 11
22.25287178251362
 21
34.17245726961398
 31
0.0
  0
LINE
  5
502
330
1E
100
AcDbEntity
  8
OBJECT
100
AcDbLine
 10
22.08845025310769
 20
34.86045726961398
 30
0.0
 11
22.08845025310769
 21
34.92245726961398
 31
0.0
  0
LWPOLYLINE
  5
503
330
1E
100
AcDbEntity
  8
OBJECT
100
AcDbPolyline
 90
       36
 70
     0
 43
0.0
 10
22.08845083388133
 20
34.9224572698375
 10
22.08846503066358
 20
34.92397903069752
 10
22.08848304531547
 20
34.92473841507835
 10
22.08850838107601
 20
34.92549585329767
 10
22.08856010038088
 20
34.92662641392609
 10
22.08862779878369
 20
34.92774637895397
 10
22.08871089773602
 20
34.9288532388499
 10
22.08880881868951
 20
34.9299444840825
 10
22.08892098309588
 20
34.93101760512036
 10
22.08904681240672
 20
34.93207009243212
 10
22.0891857280737
 20
34.93309943648635
 10
22.08933715154846
 20
34.93410312775169
 10
22.08948230929952
 20
34.93497498545992
 10
22.08963548259792
 20
34.93581948626813
 10
22.0897955089185
 20
34.93663473649331
 10
22.08996122573601
 20
34.93741884245245
 10
22.09013147052529
 20
34.93816991046257
 10
22.09030508076112
 20
34.93888604684066
 10
22.09048089391832
 20
34.93956535790371
 10
22.09065774747169
 20
34.94020594996872
 10
22.09081457924675
 20
34.9407407081078
 10
22.09096876952988
 20
34.94123867488372
 10
22.09111891366153
 20
34.94169914637399
 10
22.09126360698219
 20
34.94212141865614
 10
22.09140144483235
 20
34.9425047878077
 10
22.09153102255244
 20
34.94284854990619
 10
22.09165093548297
 20
34.94315200102912
 10
22.09175977896437
 20
34.94341443725403
 10
22.09183081640215
 20
34.94357860318135
 10
22.09189392433335
 20
34.94371958372939
 10
22.09194860831702
 20
34.94383774776002
 10
22.09199437391232
 20
34.94393346413509
 10
22.09203072667829
 20
34.94400710171647
 10
22.09205717217402
 20
34.94405902936603
 10
22.09207321595856
 20
34.94408961594562
 10
22.09207836359105
 20
34.94409923031711
  0
LWPOLYLINE
  5
504
330
1E
100
AcDbEntity
  8
OBJECT
100
AcDbPolyline
 90
        6
 70
     0
 43
0.0
 10
22.09207836359105
 20
34.94409923031711
 10
22.0920370631763
 20
34.94402848711017
 10
22.09078916001679
 20
34.94234098297328
 10
22.08644760871338
 20
34.93830609230976
 10
22.07557170836473
 20
34.93279234358604
 10
22.0635326553684
 20
34.9309579378473
  0
LWPOLYLINE
  5
505
330
1E
100
AcDbEntity
  8
OBJECT
100
AcDbPolyline
 90
       50
 70
     0
 43
0.0
 10
22.0635427520654
 20
35.03995726961398
 10
22.0604387548846
 20
35.03988680951735
 10
22.05735160377101
 20
35.03967659383658
 10
22.05428466813957
 20
35.03932829008181
 10
22.05124130008688
 20
35.0388434741221
 10
22.04822485350509
 20
35.03822365112852
 10
22.04523869380541
 20
35.03747027841421
 10
22.04228620147789
 20
35.03658478902655
 10
22.03937076957318
 20
35.03556861499811
 10
22.03649579535159
 20
35.03442320922031
 10
22.03366995839949
 20
35.03315258337346
 10
22.03091173603242
 20
35.03176714370727
 10
22.02822293955385
 20
35.03027105577991
 10
22.02560421706594
 20
35.02866777850726
 10
22.02305627950791
 20
35.02696064425938
 10
22.02057989346498
 20
35.02515291565166
 10
22.01817586325266
 20
35.02324783429365
 10
22.01584517110604
 20
35.02124880820491
 10
22.01359489695583
 20
35.0191652200282
 10
22.01142789581722
 20
35.01700404739545
 10
22.00934342842883
 20
35.01476923905435
 10
22.00734076981946
 20
35.01246474219966
 10
22.00541918501941
 20
35.01009452331629
 10
22.00357790665385
 20
35.00766257975647
 10
22.00181611601367
 20
35.00517294364852
 10
22.00013283352844
 20
35.00262953119458
 10
21.99851613857571
 20
35.00001809894718
 10
21.99695882026158
 20
34.99732790592427
 10
21.99546167019512
 20
34.99456000139042
 10
21.99402544064672
 20
34.99171545472436
 10
21.99265085188172
 20
34.98879534545846
 10
21.99133860270869
 20
34.9858007543032
 10
21.99008938360508
 20
34.98273275567118
 10
21.98890389176967
 20
34.97959241204199
 10
21.98778284748782
 20
34.97638077035846
 10
21.98672701126731
 20
34.97309886052364
 10
21.98573720130851
 20
34.96974769598188
 10
21.98481431099158
 20
34.96632827631978
 10
21.98395932619117
 20
34.96284159180913
 10
21.98317373511024
 20
34.95929050485868
 10
21.98246368126193
 20
34.9557031022457
 10
21.98183014673121
 20
34.95208994270893
 10
21.98127226597266
 20
34.94845280385376
 10
21.98078935051221
 20
34.94479337424193
 10
21.9803808909843
 20
34.94111327552305
 10
21.98004655821962
 20
34.93741408270096
 10
21.97978620386935
 20
34.93369734295102
 10
21.97959986094854
 20
34.9299645934465
 10
21.97948774458321
 20
34.9262173786798
 10
21.97945025315318
 20
34.92245726778314
  0
LINE
  5
506
330
1E
100
AcDbEntity
  8
OBJECT
100
AcDbLine
 10
22.088899858651
 20
34.10195726961398
 30
0.0
 11
22.06354275216956
 21
34.10195726961398
 31
0.0
  0
LWPOLYLINE
  5
507
330
1E
100
AcDbEntity
  8
OBJECT
100
AcDbPolyline
 90
        6
 70
     0
 43
0.0
 10
22.06354364890769
 20
34.10195727209972
 10
22.06443494808654
 20
34.10194746493019
 10
22.08169602616401
 20
34.09759350982889
 10
22.08983314679629
 20
34.09163106384466
 10
22.09193957731851
 20
34.08904316908687
 10
22.09207830992572
 20
34.08881519043842
  0
LWPOLYLINE
  5
508
330
1E
100
AcDbEntity
  8
OBJECT
100
AcDbPolyline
 90
       37
 70
     0
 43
0.0
 10
22.09207830992572
 20
34.08881519043842
 10
22.09206565171144
 20
34.08883887558352
 10
22.09202652150891
 20
34.0889154490253
 10
22.0919626491678
 20
34.0890468305859
 10
22.09187576453773
 20
34.08923494008749
 10
22.0917891461117
 20
34.08943185285006
 10
22.09169065930252
 20
34.08966598053541
 10
22.09158153419263
 20
34.08993694970471
 10
22.09146300086452
 20
34.09024438691911
 10
22.09133628940064
 20
34.09058791873976
 10
22.09120262988348
 20
34.09096717172783
 10
22.0910632523955
 20
34.09138177244448
 10
22.09091938701915
 20
34.09183134745085
 10
22.09076181241697
 20
34.09235072004047
 10
22.0906027803298
 20
34.0929048065517
 10
22.09044331391787
 20
34.0934922617688
 10
22.09028443634132
 20
34.09411174047607
 10
22.09012717076034
 20
34.09476189745779
 10
22.08997254033509
 20
34.09544138749826
 10
22.08982156822572
 20
34.09614886538175
 10
22.08967527759243
 20
34.09688298589255
 10
22.08951683936722
 20
34.09774231757939
 10
22.08936692287982
 20
34.09862865908401
 10
22.08922617910029
 20
34.09954002289267
 10
22.08909525899865
 20
34.10047442149159
 10
22.08897481354502
 20
34.10142986736698
 10
22.08886549370943
 20
34.1024043730051
 10
22.08876795046198
 20
34.10339595089215
 10
22.08868283477268
 20
34.10440261351439
 10
22.08862885981848
 20
34.10514612072871
 10
22.08858195405751
 20
34.10589488159851
 10
22.08854215072786
 20
34.10664817284263
 10
22.08850948306757
 20
34.1074052711799
 10
22.08848398431471
 20
34.10816545332918
 10
22.08846568770734
 20
34.1089279960093
 10
22.08845462648354
 20
34.10969217593914
 10
22.08845083388133
 20
34.1104572698375
  0
LWPOLYLINE
  5
509
330
1E
100
AcDbEntity
  8
OBJECT
100
AcDbPolyline
 90
       36
 70
     0
 43
0.0
 10
21.9794474527704
 20
34.11045726778257
 10
21.97958127077431
 20
34.10343122283364
 10
21.97986915270563
 20
34.0978843099672
 10
21.98031782578103
 20
34.09238498204663
 10
21.98092867488794
 20
34.08693840959848
 10
21.98170308491383
 20
34.08154976314933
 10
21.98264244074612
 20
34.07622421322574
 10
21.98374812727219
 20
34.07096693035427
 10
21.98502152937955
 20
34.06578308506149
 10
21.98646403195554
 20
34.06067784787394
 10
21.98809938528732
 20
34.0555999848467
 10
21.98990640116134
 20
34.05064960434057
 10
21.99188652963396
 20
34.04583519555831
 10
21.99404122076153
 20
34.0411652477027
 10
21.99637192460041
 20
34.03664824997648
 10
21.99888009120694
 20
34.03229269158241
 10
22.00156717063747
 20
34.02810706172328
 10
22.00443461294837
 20
34.02409984960181
 10
22.00710557626318
 20
34.02073111377442
 10
22.00993246524324
 20
34.01749678729572
 10
22.01291617484316
 20
34.01440768642283
 10
22.0160576000177
 20
34.01147462741291
 10
22.01935763572147
 20
34.00870842652308
 10
22.02281717690921
 20
34.00611990001048
 10
22.02643711853555
 20
34.00371986413222
 10
22.03021835555522
 20
34.00151913514546
 10
22.03354640986661
 20
33.99982073480154
 10
22.03695145233105
 20
33.99829949545768
 10
22.04042845493425
 20
33.99695961797232
 10
22.04397238966195
 20
33.9958053032039
 10
22.04757822849988
 20
33.99484075201087
 10
22.05124094343371
 20
33.99407016525166
 10
22.05495550644918
 20
33.99349774378471
 10
22.05871688953199
 20
33.99312768846847
 10
22.06113116165615
 20
33.99299973766314
 10
22.06354238865121
 20
33.99295709786181
  0
LINE
  5
50A
330
1E
100
AcDbEntity
  8
OBJECT
100
AcDbLine
 10
22.08845025310769
 20
34.11045726961398
 30
0.0
 11
22.08845025310769
 21
34.17238425765185
 31
0.0
  0
LINE
  5
50B
330
1E
100
AcDbEntity
  8
OBJECT
100
AcDbLine
 10
22.18287178251363
 20
34.86045726961398
 30
0.0
 11
22.18287178251363
 21
34.86027746285
 31
0.0
  0
LINE
  5
50C
330
1E
100
AcDbEntity
  8
OBJECT
100
AcDbLine
 10
22.25287178251362
 20
34.86045726961398
 30
0.0
 11
22.25287178251362
 21
34.17245726961398
 31
0.0
  0
POLYLINE
  5
50D
330
1E
100
AcDbEntity
  8
OBJECT
100
AcDb3dPolyline
 66
     1
 10
0.0
 20
0.0
 30
0.0
 70
     8
  0
VERTEX
  5
50E
330
50D
100
AcDbEntity
  8
OBJECT
100
AcDbVertex
100
AcDb3dPolylineVertex
 10
22.37339445932984
 20
34.17245726961398
 30
0.0
 70
    32
1001
ACAD
1000
R13OBJECT
1002
{
1005
A3
1002
}
  0
VERTEX
  5
50F
330
50D
100
AcDbEntity
  8
OBJECT
100
AcDbVertex
100
AcDb3dPolylineVertex
 10
22.38876846987712
 20
34.17721479883203
 30
0.0
 70
    32
1001
ACAD
1000
R13OBJECT
1002
{
1005
A3
1002
}
  0
VERTEX
  5
510
330
50D
100
AcDbEntity
  8
OBJECT
100
AcDbVertex
100
AcDb3dPolylineVertex
 10
22.40180192668434
 20
34.19076309578982
 30
0.0
 70
    32
1001
ACAD
1000
R13OBJECT
1002
{
1005
A3
1002
}
  0
VERTEX
  5
511
330
50D
100
AcDbEntity
  8
OBJECT
100
AcDbVertex
100
AcDb3dPolylineVertex
 10
22.41051060410116
 20
34.21103955509117
 30
0.0
 70
    32
1001
ACAD
1000
R13OBJECT
1002
{
1005
A3
1002
}
  0
VERTEX
  5
512
330
50D
100
AcDbEntity
  8
OBJECT
100
AcDbVertex
100
AcDb3dPolylineVertex
 10
22.41356868493524
 20
34.23495726961398
 30
0.0
 70
    32
1001
ACAD
1000
R13OBJECT
1002
{
1005
A3
1002
}
  0
SEQEND
  5
513
330
50D
100
AcDbEntity
  8
OBJECT
  0
LINE
  5
514
330
1E
100
AcDbEntity
  8
OBJECT
100
AcDbLine
 10
22.25287178251362
 20
34.17245726961398
 30
0.0
 11
22.37339445932984
 21
34.17245726961398
 31
0.0
  0
LINE
  5
515
330
1E
100
AcDbEntity
  8
OBJECT
100
AcDbLine
 10
22.37339445932984
 20
34.86045726961398
 30
0.0
 11
22.25287178251362
 21
34.86045726961398
 31
0.0
  0
LINE
  5
516
330
1E
100
AcDbEntity
  8
OBJECT
100
AcDbLine
 10
22.41356868493524
 20
34.79795726961398
 30
0.0
 11
22.41356868493524
 21
34.23495726961398
 31
0.0
  0
POLYLINE
  5
517
330
1E
100
AcDbEntity
  8
OBJECT
100
AcDb3dPolyline
 66
     1
 10
0.0
 20
0.0
 30
0.0
 70
     8
  0
VERTEX
  5
518
330
517
100
AcDbEntity
  8
OBJECT
100
AcDbVertex
100
AcDb3dPolylineVertex
 10
22.41356868493524
 20
34.79795726961398
 30
0.0
 70
    32
1001
ACAD
1000
R13OBJECT
1002
{
1005
9E
1002
}
  0
VERTEX
  5
519
330
517
100
AcDbEntity
  8
OBJECT
100
AcDbVertex
100
AcDb3dPolylineVertex
 10
22.41051060410116
 20
34.8218749841368
 30
0.0
 70
    32
1001
ACAD
1000
R13OBJECT
1002
{
1005
9E
1002
}
  0
VERTEX
  5
51A
330
517
100
AcDbEntity
  8
OBJECT
100
AcDbVertex
100
AcDb3dPolylineVertex
 10
22.40180192668434
 20
34.84215144343814
 30
0.0
 70
    32
1001
ACAD
1000
R13OBJECT
1002
{
1005
9E
1002
}
  0
VERTEX
  5
51B
330
517
100
AcDbEntity
  8
OBJECT
100
AcDbVertex
100
AcDb3dPolylineVertex
 10
22.38876846987712
 20
34.85569974039594
 30
0.0
 70
    32
1001
ACAD
1000
R13OBJECT
1002
{
1005
9E
1002
}
  0
VERTEX
  5
51C
330
517
100
AcDbEntity
  8
OBJECT
100
AcDbVertex
100
AcDb3dPolylineVertex
 10
22.37339445932984
 20
34.86045726961398
 30
0.0
 70
    32
1001
ACAD
1000
R13OBJECT
1002
{
1005
9E
1002
}
  0
SEQEND
  5
51D
330
517
100
AcDbEntity
  8
OBJECT
  0
LINE
  5
51E
330
1E
100
AcDbEntity
  8
OBJECT
100
AcDbLine
 10
21.82424678251361
 20
34.01645726961398
 30
0.0
 11
21.87724678251361
 21
34.01645726961398
 31
0.0
  0
LINE
  5
51F
330
1E
100
AcDbEntity
  8
OBJECT
100
AcDbLine
 10
21.87724678251363
 20
35.01645726961398
 30
0.0
 11
21.82424678251361
 21
35.01645726961398
 31
0.0
  0
LINE
  5
520
330
1E
100
AcDbEntity
  8
OBJECT
100
AcDbLine
 10
21.82424678251361
 20
34.01645726961398
 30
0.0
 11
21.82424678251361
 21
35.01645726961398
 31
0.0
  0
LINE
  5
521
330
1E
100
AcDbEntity
  8
OBJECT
100
AcDbLine
 10
21.87724678251363
 20
35.01645726961398
 30
0.0
 11
21.87724678251361
 21
34.01645726961398
 31
0.0
  0
LINE
  5
522
330
1E
100
AcDbEntity
  8
OBJECT
100
AcDbLine
 10
22.13724678251363
 20
34.93095726961398
 30
0.0
 11
22.13724678251363
 21
34.10195726961398
 31
0.0
  0
LINE
  5
523
330
1E
100
AcDbEntity
  8
OBJECT
100
AcDbLine
 10
22.08845025310769
 20
34.93095726961398
 30
0.0
 11
22.08845025310769
 21
34.10195726961398
 31
0.0
  0
LINE
  5
524
330
1E
100
AcDbEntity
  8
OBJECT
100
AcDbLine
 10
22.06049678251362
 20
33.99303335828169
 30
0.0
 11
22.06049678251362
 21
28.35788118094626
 31
0.0
  0
LINE
  5
525
330
1E
100
AcDbEntity
  8
OBJECT
100
AcDbLine
 10
21.9794474527704
 20
34.11045726778257
 30
0.0
 11
21.97945025315318
 21
34.92245726778314
 31
0.0
  0
ARC
  5
526
330
1E
100
AcDbEntity
  8
OBJECT
100
AcDbCircle
 10
22.25769024459713
 20
34.98545726961398
 30
0.0
 40
0.0545
100
AcDbArc
 50
270.0
 51
90.0
  0
ARC
  5
527
330
1E
100
AcDbEntity
  8
OBJECT
100
AcDbCircle
 10
22.25769024459713
 20
34.04745726961399
 30
0.0
 40
0.0545
100
AcDbArc
 50
270.0
 51
90.0
  0
LINE
  5
528
330
1E
100
AcDbEntity
  8
OBJECT
100
AcDbLine
 10
21.97965776819005
 20
34.10195726961398
 30
0.0
 11
21.87724678251361
 21
34.10195726961398
 31
0.0
  0
LINE
  5
529
330
1E
100
AcDbEntity
  8
OBJECT
100
AcDbLine
 10
22.08845025310769
 20
34.93095726961398
 30
0.0
 11
22.25769024459713
 21
34.93095726961398
 31
0.0
  0
LINE
  5
52A
330
1E
100
AcDbEntity
  8
OBJECT
100
AcDbLine
 10
22.088899858651
 20
34.93095726595172
 30
0.0
 11
22.06354275216956
 21
34.93095726595172
 31
0.0
  0
LINE
  5
52B
330
1E
100
AcDbEntity
  8
OBJECT
100
AcDbLine
 10
22.08845025310769
 20
27.41995726961398
 30
0.0
 11
22.25769024459713
 21
27.41995726961398
 31
0.0
  0
LINE
  5
52C
330
1E
100
AcDbEntity
  8
OBJECT
100
AcDbLine
 10
22.13724678251363
 20
28.17845726961397
 30
0.0
 11
22.25287178251362
 21
28.17845726961397
 31
0.0
  0
LINE
  5
52D
330
1E
100
AcDbEntity
  8
OBJECT
100
AcDbLine
 10
22.25287178251362
 20
27.49045726961397
 30
0.0
 11
22.13724678251363
 21
27.49045726961397
 31
0.0
  0
LINE
  5
52E
330
1E
100
AcDbEntity
  8
OBJECT
100
AcDbLine
 10
22.06353267628217
 20
28.35795726961396
 30
0.0
 11
22.25769024459713
 21
28.35795726961396
 31
0.0
  0
LINE
  5
52F
330
1E
100
AcDbEntity
  8
OBJECT
100
AcDbLine
 10
22.25769024459713
 20
28.24895726961397
 30
0.0
 11
22.08845025310769
 21
28.24895726961397
 31
0.0
  0
LINE
  5
530
330
1E
100
AcDbEntity
  8
OBJECT
100
AcDbLine
 10
22.25769024459713
 20
27.31095726961397
 30
0.0
 11
22.0635427520654
 21
27.31095726961397
 31
0.0
  0
LINE
  5
531
330
1E
100
AcDbEntity
  8
OBJECT
100
AcDbLine
 10
21.9794474527704
 20
28.24045727144538
 30
0.0
 11
21.97945025315318
 21
27.42845727144482
 31
0.0
  0
LINE
  5
532
330
1E
100
AcDbEntity
  8
OBJECT
100
AcDbLine
 10
22.08845025310769
 20
27.41995726961398
 30
0.0
 11
22.08845025310769
 21
28.24895726961397
 31
0.0
  0
LINE
  5
533
330
1E
100
AcDbEntity
  8
OBJECT
100
AcDbLine
 10
22.13724678251363
 20
27.41995726961398
 30
0.0
 11
22.13724678251363
 21
28.24895726961397
 31
0.0
  0
LINE
  5
534
330
1E
100
AcDbEntity
  8
OBJECT
100
AcDbLine
 10
21.87724678251363
 20
27.33445726961397
 30
0.0
 11
21.87724678251361
 21
28.33445726961397
 31
0.0
  0
LINE
  5
535
330
1E
100
AcDbEntity
  8
OBJECT
100
AcDbLine
 10
21.82424678251361
 20
28.33445726961397
 30
0.0
 11
21.82424678251361
 21
27.33445726961397
 31
0.0
  0
LINE
  5
536
330
1E
100
AcDbEntity
  8
OBJECT
100
AcDbLine
 10
22.08845025310769
 20
28.24045726961397
 30
0.0
 11
22.08845025310769
 21
28.1785302815761
 31
0.0
  0
LINE
  5
537
330
1E
100
AcDbEntity
  8
OBJECT
100
AcDbLine
 10
21.97965776819005
 20
28.24895726961397
 30
0.0
 11
21.87724678251361
 21
28.24895726961397
 31
0.0
  0
LINE
  5
538
330
1E
100
AcDbEntity
  8
OBJECT
100
AcDbLine
 10
21.82424678251361
 20
28.33445726961397
 30
0.0
 11
21.87724678251361
 21
28.33445726961397
 31
0.0
  0
LWPOLYLINE
  5
539
330
1E
100
AcDbEntity
  8
OBJECT
100
AcDbPolyline
 90
       36
 70
     0
 43
0.0
 10
21.9794474527704
 20
28.24045727144538
 10
21.97958127077431
 20
28.24748331639431
 10
21.97986915270563
 20
28.25303022926075
 10
21.98031782578103
 20
28.25852955718132
 10
21.98092867488794
 20
28.26397612962948
 10
21.98170308491383
 20
28.26936477607862
 10
21.98264244074612
 20
28.27469032600222
 10
21.98374812727219
 20
28.27994760887369
 10
21.98502152937955
 20
28.28513145416646
 10
21.98646403195554
 20
28.29023669135402
 10
21.98809938528732
 20
28.29531455438125
 10
21.98990640116134
 20
28.30026493488738
 10
21.99188652963396
 20
28.30507934366964
 10
21.99404122076153
 20
28.30974929152525
 10
21.99637192460041
 20
28.31426628925147
 10
21.99888009120694
 20
28.31862184764553
 10
22.00156717063747
 20
28.32280747750467
 10
22.00443461294837
 20
28.32681468962613
 10
22.00710557626318
 20
28.33018342545353
 10
22.00993246524324
 20
28.33341775193224
 10
22.01291617484316
 20
28.33650685280512
 10
22.0160576000177
 20
28.33943991181504
 10
22.01935763572147
 20
28.34220611270488
 10
22.02281717690921
 20
28.34479463921747
 10
22.02643711853555
 20
28.34719467509573
 10
22.03021835555522
 20
28.34939540408249
 10
22.03354640986661
 20
28.35109380442641
 10
22.03695145233105
 20
28.35261504377028
 10
22.04042845493425
 20
28.35395492125564
 10
22.04397238966195
 20
28.35510923602405
 10
22.04757822849988
 20
28.35607378721709
 10
22.05124094343371
 20
28.35684437397629
 10
22.05495550644918
 20
28.35741679544325
 10
22.05871688953199
 20
28.35778685075949
 10
22.06113116165615
 20
28.35791480156482
 10
22.06354238865121
 20
28.35795744136614
  0
LWPOLYLINE
  5
53A
330
1E
100
AcDbEntity
  8
OBJECT
100
AcDbPolyline
 90
       37
 70
     0
 43
0.0
 10
22.09207830992572
 20
28.26209934878954
 10
22.09206565171144
 20
28.26207566364444
 10
22.09202652150891
 20
28.26199909020266
 10
22.0919626491678
 20
28.26186770864205
 10
22.09187576453773
 20
28.26167959914047
 10
22.0917891461117
 20
28.26148268637789
 10
22.09169065930252
 20
28.26124855869255
 10
22.09158153419263
 20
28.26097758952324
 10
22.09146300086452
 20
28.26067015230885
 10
22.09133628940064
 20
28.26032662048819
 10
22.09120262988348
 20
28.25994736750012
 10
22.0910632523955
 20
28.25953276678348
 10
22.09091938701915
 20
28.2590831917771
 10
22.09076181241697
 20
28.25856381918748
 10
22.0906027803298
 20
28.25800973267626
 10
22.09044331391787
 20
28.25742227745916
 10
22.09028443634132
 20
28.25680279875188
 10
22.09012717076034
 20
28.25615264177016
 10
22.08997254033509
 20
28.25547315172969
 10
22.08982156822572
 20
28.2547656738462
 10
22.08967527759243
 20
28.2540315533354
 10
22.08951683936722
 20
28.25317222164857
 10
22.08936692287982
 20
28.25228588014395
 10
22.08922617910029
 20
28.25137451633528
 10
22.08909525899865
 20
28.25044011773636
 10
22.08897481354502
 20
28.24948467186097
 10
22.08886549370943
 20
28.24851016622286
 10
22.08876795046198
 20
28.2475185883358
 10
22.08868283477268
 20
28.24651192571357
 10
22.08862885981848
 20
28.24576841849924
 10
22.08858195405751
 20
28.24501965762944
 10
22.08854215072786
 20
28.24426636638532
 10
22.08850948306757
 20
28.24350926804805
 10
22.08848398431471
 20
28.24274908589877
 10
22.08846568770734
 20
28.24198654321865
 10
22.08845462648354
 20
28.24122236328882
 10
22.08845083388133
 20
28.24045726939045
  0
LWPOLYLINE
  5
53B
330
1E
100
AcDbEntity
  8
OBJECT
100
AcDbPolyline
 90
        6
 70
     0
 43
0.0
 10
22.06354364890769
 20
28.24895726712824
 10
22.06443494808654
 20
28.24896707429777
 10
22.08169602616401
 20
28.25332102939906
 10
22.08983314679629
 20
28.25928347538329
 10
22.09193957731851
 20
28.26187137014109
 10
22.09207830992572
 20
28.26209934878954
  0
LINE
  5
53C
330
1E
100
AcDbEntity
  8
OBJECT
100
AcDbLine
 10
22.088899858651
 20
28.24895726961397
 30
0.0
 11
22.06354275216956
 21
28.24895726961397
 31
0.0
  0
LINE
  5
53D
330
1E
100
AcDbEntity
  8
OBJECT
100
AcDbLine
 10
22.088899858651
 20
27.41995727327623
 30
0.0
 11
22.06354275216956
 21
27.41995727327623
 31
0.0
  0
LINE
  5
53E
330
1E
100
AcDbEntity
  8
OBJECT
100
AcDbLine
 10
21.87724678251363
 20
27.33445726961397
 30
0.0
 11
21.82424678251361
 21
27.33445726961397
 31
0.0
  0
LWPOLYLINE
  5
53F
330
1E
100
AcDbEntity
  8
OBJECT
100
AcDbPolyline
 90
       50
 70
     0
 43
0.0
 10
22.0635427520654
 20
27.31095726961397
 10
22.0604387548846
 20
27.31102772971061
 10
22.05735160377101
 20
27.31123794539137
 10
22.05428466813957
 20
27.31158624914615
 10
22.05124130008688
 20
27.31207106510586
 10
22.04822485350509
 20
27.31269088809943
 10
22.04523869380541
 20
27.31344426081374
 10
22.04228620147789
 20
27.3143297502014
 10
22.03937076957318
 20
27.31534592422985
 10
22.03649579535159
 20
27.31649133000764
 10
22.03366995839949
 20
27.3177619558545
 10
22.03091173603242
 20
27.31914739552068
 10
22.02822293955385
 20
27.32064348344804
 10
22.02560421706594
 20
27.32224676072069
 10
22.02305627950791
 20
27.32395389496857
 10
22.02057989346498
 20
27.32576162357629
 10
22.01817586325266
 20
27.32766670493431
 10
22.01584517110604
 20
27.32966573102304
 10
22.01359489695583
 20
27.33174931919975
 10
22.01142789581722
 20
27.3339104918325
 10
22.00934342842883
 20
27.3361453001736
 10
22.00734076981946
 20
27.33844979702829
 10
22.00541918501941
 20
27.34082001591167
 10
22.00357790665385
 20
27.34325195947149
 10
22.00181611601367
 20
27.34574159557943
 10
22.00013283352844
 20
27.34828500803338
 10
21.99851613857571
 20
27.35089644028077
 10
21.99695882026158
 20
27.35358663330368
 10
21.99546167019512
 20
27.35635453783753
 10
21.99402544064672
 20
27.35919908450359
 10
21.99265085188172
 20
27.36211919376949
 10
21.99133860270869
 20
27.36511378492475
 10
21.99008938360508
 20
27.36818178355677
 10
21.98890389176967
 20
27.37132212718597
 10
21.98778284748782
 20
27.37453376886949
 10
21.98672701126731
 20
27.37781567870431
 10
21.98573720130851
 20
27.38116684324607
 10
21.98481431099158
 20
27.38458626290817
 10
21.98395932619117
 20
27.38807294741882
 10
21.98317373511024
 20
27.39162403436928
 10
21.98246368126193
 20
27.39521143698226
 10
21.98183014673121
 20
27.39882459651902
 10
21.98127226597266
 20
27.40246173537419
 10
21.98078935051221
 20
27.40612116498602
 10
21.9803808909843
 20
27.4098012637049
 10
21.98004655821962
 20
27.413500456527
 10
21.97978620386935
 20
27.41721719627694
 10
21.97959986094854
 20
27.42094994578146
 10
21.97948774458321
 20
27.42469716054815
 10
21.97945025315318
 20
27.42845727144482
  0
LWPOLYLINE
  5
540
330
1E
100
AcDbEntity
  8
OBJECT
100
AcDbPolyline
 90
        6
 70
     0
 43
0.0
 10
22.09207836359105
 20
27.40681530891084
 10
22.0920370631763
 20
27.40688605211779
 10
22.09078916001679
 20
27.40857355625468
 10
22.08644760871338
 20
27.41260844691819
 10
22.07557170836473
 20
27.41812219564192
 10
22.0635326553684
 20
27.41995660138065
  0
LWPOLYLINE
  5
541
330
1E
100
AcDbEntity
  8
OBJECT
100
AcDbPolyline
 90
       36
 70
     0
 43
0.0
 10
22.08845083388133
 20
27.42845726939045
 10
22.08846503066358
 20
27.42693550853044
 10
22.08848304531547
 20
27.42617612414961
 10
22.08850838107601
 20
27.42541868593029
 10
22.08856010038088
 20
27.42428812530186
 10
22.08862779878369
 20
27.42316816027399
 10
22.08871089773602
 20
27.42206130037805
 10
22.08880881868951
 20
27.42097005514545
 10
22.08892098309588
 20
27.41989693410759
 10
22.08904681240672
 20
27.41884444679584
 10
22.0891857280737
 20
27.4178151027416
 10
22.08933715154846
 20
27.41681141147626
 10
22.08948230929952
 20
27.41593955376803
 10
22.08963548259792
 20
27.41509505295983
 10
22.0897955089185
 20
27.41427980273464
 10
22.08996122573601
 20
27.4134956967755
 10
22.09013147052529
 20
27.41274462876539
 10
22.09030508076112
 20
27.4120284923873
 10
22.09048089391832
 20
27.41134918132424
 10
22.09065774747169
 20
27.41070858925923
 10
22.09081457924675
 20
27.41017383112015
 10
22.09096876952988
 20
27.40967586434424
 10
22.09111891366153
 20
27.40921539285396
 10
22.09126360698219
 20
27.40879312057182
 10
22.09140144483235
 20
27.40840975142026
 10
22.09153102255244
 20
27.40806598932177
 10
22.09165093548297
 20
27.40776253819884
 10
22.09175977896437
 20
27.40750010197393
 10
22.09183081640215
 20
27.4073359360466
 10
22.09189392433335
 20
27.40719495549856
 10
22.09194860831702
 20
27.40707679146793
 10
22.09199437391232
 20
27.40698107509286
 10
22.09203072667829
 20
27.40690743751148
 10
22.09205717217402
 20
27.40685550986193
 10
22.09207321595856
 20
27.40682492328233
 10
22.09207836359105
 20
27.40681530891084
  0
LINE
  5
542
330
1E
100
AcDbEntity
  8
OBJECT
100
AcDbLine
 10
22.08845025310769
 20
27.49045726961397
 30
0.0
 11
22.08845025310769
 21
27.42845726961398
 31
0.0
  0
LINE
  5
543
330
1E
100
AcDbEntity
  8
OBJECT
100
AcDbLine
 10
21.87724678251363
 20
27.41995726961398
 30
0.0
 11
21.97964941642401
 21
27.41995726961398
 31
0.0
  0
ARC
  5
544
330
1E
100
AcDbEntity
  8
OBJECT
100
AcDbCircle
 10
22.25769024459713
 20
28.30345726961397
 30
0.0
 40
0.0545
100
AcDbArc
 50
270.0
 51
90.0
  0
ARC
  5
545
330
1E
100
AcDbEntity
  8
OBJECT
100
AcDbCircle
 10
22.25769024459713
 20
27.36545726961397
 30
0.0
 40
0.0545
100
AcDbArc
 50
270.0
 51
90.0
  0
POLYLINE
  5
546
330
1E
100
AcDbEntity
  8
OBJECT
100
AcDb3dPolyline
 66
     1
 10
0.0
 20
0.0
 30
0.0
 70
     8
  0
VERTEX
  5
547
330
546
100
AcDbEntity
  8
OBJECT
100
AcDbVertex
100
AcDb3dPolylineVertex
 10
22.41356868493524
 20
27.55295726961398
 30
0.0
 70
    32
1001
ACAD
1000
R13OBJECT
1002
{
1005
9E
1002
}
  0
VERTEX
  5
548
330
546
100
AcDbEntity
  8
OBJECT
100
AcDbVertex
100
AcDb3dPolylineVertex
 10
22.41051060410116
 20
27.52903955509115
 30
0.0
 70
    32
1001
ACAD
1000
R13OBJECT
1002
{
1005
9E
1002
}
  0
VERTEX
  5
549
330
546
100
AcDbEntity
  8
OBJECT
100
AcDbVertex
100
AcDb3dPolylineVertex
 10
22.40180192668434
 20
27.5087630957898
 30
0.0
 70
    32
1001
ACAD
1000
R13OBJECT
1002
{
1005
9E
1002
}
  0
VERTEX
  5
54A
330
546
100
AcDbEntity
  8
OBJECT
100
AcDbVertex
100
AcDb3dPolylineVertex
 10
22.38876846987712
 20
27.49521479883201
 30
0.0
 70
    32
1001
ACAD
1000
R13OBJECT
1002
{
1005
9E
1002
}
  0
VERTEX
  5
54B
330
546
100
AcDbEntity
  8
OBJECT
100
AcDbVertex
100
AcDb3dPolylineVertex
 10
22.37339445932984
 20
27.49045726961397
 30
0.0
 70
    32
1001
ACAD
1000
R13OBJECT
1002
{
1005
9E
1002
}
  0
SEQEND
  5
54C
330
546
100
AcDbEntity
  8
OBJECT
  0
LINE
  5
54D
330
1E
100
AcDbEntity
  8
OBJECT
100
AcDbLine
 10
22.41356868493524
 20
27.55295726961398
 30
0.0
 11
22.41356868493524
 21
28.11595726961398
 31
0.0
  0
LINE
  5
54E
330
1E
100
AcDbEntity
  8
OBJECT
100
AcDbLine
 10
22.37339445932984
 20
27.49045726961397
 30
0.0
 11
22.25287178251362
 21
27.49045726961397
 31
0.0
  0
LINE
  5
54F
330
1E
100
AcDbEntity
  8
OBJECT
100
AcDbLine
 10
22.25287178251362
 20
28.17845726961397
 30
0.0
 11
22.37339445932984
 21
28.17845726961397
 31
0.0
  0
POLYLINE
  5
550
330
1E
100
AcDbEntity
  8
OBJECT
100
AcDb3dPolyline
 66
     1
 10
0.0
 20
0.0
 30
0.0
 70
     8
  0
VERTEX
  5
551
330
550
100
AcDbEntity
  8
OBJECT
100
AcDbVertex
100
AcDb3dPolylineVertex
 10
22.37339445932984
 20
28.17845726961397
 30
0.0
 70
    32
1001
ACAD
1000
R13OBJECT
1002
{
1005
A3
1002
}
  0
VERTEX
  5
552
330
550
100
AcDbEntity
  8
OBJECT
100
AcDbVertex
100
AcDb3dPolylineVertex
 10
22.38876846987712
 20
28.17369974039592
 30
0.0
 70
    32
1001
ACAD
1000
R13OBJECT
1002
{
1005
A3
1002
}
  0
VERTEX
  5
553
330
550
100
AcDbEntity
  8
OBJECT
100
AcDbVertex
100
AcDb3dPolylineVertex
 10
22.40180192668434
 20
28.16015144343813
 30
0.0
 70
    32
1001
ACAD
1000
R13OBJECT
1002
{
1005
A3
1002
}
  0
VERTEX
  5
554
330
550
100
AcDbEntity
  8
OBJECT
100
AcDbVertex
100
AcDb3dPolylineVertex
 10
22.41051060410116
 20
28.13987498413679
 30
0.0
 70
    32
1001
ACAD
1000
R13OBJECT
1002
{
1005
A3
1002
}
  0
VERTEX
  5
555
330
550
100
AcDbEntity
  8
OBJECT
100
AcDbVertex
100
AcDb3dPolylineVertex
 10
22.41356868493524
 20
28.11595726961398
 30
0.0
 70
    32
1001
ACAD
1000
R13OBJECT
1002
{
1005
A3
1002
}
  0
SEQEND
  5
556
330
550
100
AcDbEntity
  8
OBJECT
  0
LINE
  5
557
330
1E
100
AcDbEntity
  8
OBJECT
100
AcDbLine
 10
22.25287178251362
 20
27.49045726961397
 30
0.0
 11
22.25287178251362
 21
28.17845726961397
 31
0.0
  0
LINE
  5
558
330
1E
100
AcDbEntity
  8
OBJECT
100
AcDbLine
 10
22.18287178251363
 20
27.49045726961397
 30
0.0
 11
22.18287178251363
 21
27.49063707637795
 31
0.0
  0
LINE
  5
559
330
1E
100
AcDbEntity
  8
OBJECT
100
AcDbLine
 10
22.06049678251362
 20
27.31102641249538
 30
0.0
 11
22.06049678251361
 21
25.71020726961398
 31
0.0
  0
LINE
  5
55A
330
1E
100
AcDbEntity
  8
CENTER
100
AcDbLine
 10
18.14512280251851
 20
24.93929791419603
 30
0.0
 11
18.14512280251852
 21
37.48294617047184
 31
0.0
  0
LINE
  5
55B
330
1E
100
AcDbEntity
  8
CENTER
100
AcDbLine
 10
13.82851753119119
 20
31.17545726961397
 30
0.0
 11
22.5119086998133
 21
31.17545726961397
 31
0.0
  0
DIMENSION
  5
55C
330
1E
100
AcDbEntity
  8
DIM
100
AcDbDimension
  2
*D7
 10
31.88599819334832
 20
38.99706722438356
 30
0.0
 11
29.48737319334833
 21
38.99706722438356
 31
0.0
 70
    32
  1
K
 71
     5
 42
4.797249999999991
  3
23NSTD
100
AcDbAlignedDimension
 13
27.08874819334833
 23
37.07895726961394
 33
0.0
 14
31.88599819334832
 24
36.430957269614
 34
0.0
100
AcDbRotatedDimension
  0
DIMENSION
  5
55D
330
1E
100
AcDbEntity
  8
DIM
100
AcDbDimension
  2
*D8
 10
31.80624819334836
 20
29.02030997830139
 30
0.0
 11
34.07968569334836
 21
29.02030997830139
 31
0.0
 70
    32
  1
<>
 71
     5
 42
0.1400000000000148
  3
23NSTD
100
AcDbAlignedDimension
 13
31.66624819334835
 23
27.01445726961396
 33
0.0
 14
31.80624819334836
 24
29.02030997830139
 34
0.0
100
AcDbRotatedDimension
  0
DIMENSION
  5
55E
330
1E
100
AcDbEntity
  8
DIM
100
AcDbDimension
  2
*D9
 10
31.66624819334835
 20
27.90913380819658
 30
0.0
 11
34.64281069334835
 21
27.90913380819658
 31
0.0
 70
    32
  1
0.400 [10]
 71
     5
 42
0.3930000000000007
  3
23NSTD
100
AcDbAlignedDimension
 13
31.27324819334835
 23
26.91273583220633
 33
0.0
 14
31.66624819334835
 24
29.02030997830139
 34
0.0
100
AcDbRotatedDimension
  0
DIMENSION
  5
55F
330
1E
100
AcDbEntity
  8
DIM
100
AcDbDimension
  2
*D10
 10
31.88599819334832
 20
37.99706722438355
 30
0.0
 11
34.18873256834833
 21
37.99706722438355
 31
0.0
 70
    32
  1
<>
 71
     5
 42
0.0797499999999616
  3
23NSTD
100
AcDbAlignedDimension
 13
31.80624819334836
 23
36.72545726961397
 33
0.0
 14
31.88599819334832
 24
36.430957269614
 34
0.0
100
AcDbRotatedDimension
  0
LINE
  5
560
330
1E
100
AcDbEntity
  8
OBJECT
100
AcDbLine
 10
31.66624819334838
 20
30.90855711420173
 30
0.0
 11
31.66624819334835
 21
26.98635742502622
 31
0.0
  0
LINE
  5
561
330
1E
100
AcDbEntity
  8
OBJECT
100
AcDbLine
 10
31.88599819334832
 20
25.91995726961396
 30
0.0
 11
31.80624819334834
 21
25.91995726961396
 31
0.0
  0
LINE
  5
562
330
1E
100
AcDbEntity
  8
OBJECT
100
AcDbLine
 10
31.64688123944894
 20
26.46720726961396
 30
0.0
 11
31.27324819334835
 21
26.40823583220633
 31
0.0
  0
LINE
  5
563
330
1E
100
AcDbEntity
  8
OBJECT
100
AcDbLine
 10
31.66624819334835
 20
26.98635742502622
 30
0.0
 11
31.27324819334835
 21
26.91273583220633
 31
0.0
  0
LINE
  5
564
330
1E
100
AcDbEntity
  8
OBJECT
100
AcDbLine
 10
31.64688123944894
 20
26.46720726961396
 30
0.0
 11
31.27324819334835
 21
26.52617870702159
 31
0.0
  0
LINE
  5
565
330
1E
100
AcDbEntity
  8
OBJECT
100
AcDbLine
 10
31.27324819334835
 20
26.91273583220633
 30
0.0
 11
31.27324819334835
 21
26.52617870702159
 31
0.0
  0
LINE
  5
566
330
1E
100
AcDbEntity
  8
OBJECT
100
AcDbLine
 10
31.88599819334832
 20
27.01445726961395
 30
0.0
 11
31.80624819334836
 21
27.01445726961395
 31
0.0
  0
LINE
  5
567
330
1E
100
AcDbEntity
  8
OBJECT
100
AcDbLine
 10
31.88599819334832
 20
26.13245726961396
 30
0.0
 11
31.39137319334834
 21
26.13245726961396
 31
0.0
  0
LINE
  5
568
330
1E
100
AcDbEntity
  8
OBJECT
100
AcDbLine
 10
31.88599819334832
 20
26.29745726961395
 30
0.0
 11
31.39137319334834
 21
26.29745726961395
 31
0.0
  0
LINE
  5
569
330
1E
100
AcDbEntity
  8
OBJECT
100
AcDbLine
 10
31.27324819334835
 20
26.80195726961395
 30
0.0
 11
31.76687319334833
 21
26.80195726961396
 31
0.0
  0
LINE
  5
56A
330
1E
100
AcDbEntity
  8
OBJECT
100
AcDbLine
 10
31.27324819334835
 20
26.63695726961396
 30
0.0
 11
31.76687319334833
 21
26.63695726961396
 31
0.0
  0
LINE
  5
56B
330
1E
100
AcDbEntity
  8
OBJECT
100
AcDbLine
 10
31.76687319334833
 20
26.81445726961396
 30
0.0
 11
31.76687319334833
 21
26.62445726961396
 31
0.0
  0
LINE
  5
56C
330
1E
100
AcDbEntity
  8
OBJECT
100
AcDbLine
 10
31.66624819334838
 20
30.90855711420173
 30
0.0
 11
31.27324819334837
 21
30.98217870702161
 31
0.0
  0
LINE
  5
56D
330
1E
100
AcDbEntity
  8
OBJECT
100
AcDbLine
 10
31.27324819334837
 20
31.17545726961398
 30
0.0
 11
31.27324819334837
 21
30.98217870702161
 31
0.0
  0
LINE
  5
56E
330
1E
100
AcDbEntity
  8
OBJECT
100
AcDbLine
 10
31.88599819334838
 20
30.88045726961398
 30
0.0
 11
31.80624819334839
 21
30.88045726961398
 31
0.0
  0
LINE
  5
56F
330
1E
100
AcDbEntity
  8
OBJECT
100
AcDbLine
 10
31.88599819334838
 20
31.47045726961397
 30
0.0
 11
31.88599819334838
 21
30.88045726961398
 31
0.0
  0
LINE
  5
570
330
1E
100
AcDbEntity
  8
OBJECT
100
AcDbLine
 10
31.88599819334838
 20
31.47045726961397
 30
0.0
 11
31.80624819334839
 21
31.47045726961397
 31
0.0
  0
LINE
  5
571
330
1E
100
AcDbEntity
  8
OBJECT
100
AcDbLine
 10
31.39137319334834
 20
26.30995726961396
 30
0.0
 11
31.39137319334834
 21
26.11995726961395
 31
0.0
  0
LINE
  5
572
330
1E
100
AcDbEntity
  8
OBJECT
100
AcDbLine
 10
31.27324819334837
 20
31.07695726961398
 30
0.0
 11
31.66824819334839
 21
31.07695726961398
 31
0.0
  0
LINE
  5
573
330
1E
100
AcDbEntity
  8
OBJECT
100
AcDbLine
 10
31.66824819334839
 20
31.17545726961398
 30
0.0
 11
31.66824819334839
 21
31.07695726961398
 31
0.0
  0
LINE
  5
574
330
1E
100
AcDbEntity
  8
OBJECT
100
AcDbLine
 10
31.88599819334832
 20
26.30995726961395
 30
0.0
 11
31.39137319334834
 21
26.30995726961396
 31
0.0
  0
LINE
  5
575
330
1E
100
AcDbEntity
  8
OBJECT
100
AcDbLine
 10
31.88599819334832
 20
26.11995726961395
 30
0.0
 11
31.39137319334834
 21
26.11995726961395
 31
0.0
  0
LINE
  5
576
330
1E
100
AcDbEntity
  8
OBJECT
100
AcDbLine
 10
31.27324819334835
 20
26.62445726961396
 30
0.0
 11
31.76687319334833
 21
26.62445726961396
 31
0.0
  0
LINE
  5
577
330
1E
100
AcDbEntity
  8
OBJECT
100
AcDbLine
 10
31.27324819334835
 20
26.81445726961396
 30
0.0
 11
31.76687319334833
 21
26.81445726961396
 31
0.0
  0
LINE
  5
578
330
1E
100
AcDbEntity
  8
OBJECT
100
AcDbLine
 10
31.63499819334838
 20
30.91441124849084
 30
0.0
 11
31.63499819334835
 21
26.9805032907371
 31
0.0
  0
LINE
  5
579
330
1E
100
AcDbEntity
  8
OBJECT
100
AcDbLine
 10
31.63499819334835
 20
25.95391124849081
 30
0.0
 11
31.63499819334835
 21
25.80900480065883
 31
0.0
  0
LINE
  5
57A
330
1E
100
AcDbEntity
  8
OBJECT
100
AcDbLine
 10
31.88599819334832
 20
35.336457269614
 30
0.0
 11
31.88599819334832
 21
36.430957269614
 31
0.0
  0
LINE
  5
57B
330
1E
100
AcDbEntity
  8
OBJECT
100
AcDbLine
 10
31.88599819334832
 20
35.336457269614
 30
0.0
 11
31.80624819334836
 21
35.336457269614
 31
0.0
  0
LINE
  5
57C
330
1E
100
AcDbEntity
  8
OBJECT
100
AcDbLine
 10
31.88599819334832
 20
36.430957269614
 30
0.0
 11
31.80624819334834
 21
36.430957269614
 31
0.0
  0
LINE
  5
57D
330
1E
100
AcDbEntity
  8
OBJECT
100
AcDbLine
 10
14.85712280251852
 20
45.28233759768911
 30
0.0
 11
15.90112280251852
 21
45.28233759768911
 31
0.0
  0
LINE
  5
57E
330
1E
100
AcDbEntity
  8
OBJECT
100
AcDbLine
 10
14.85712280251852
 20
45.28233759768911
 30
0.0
 11
14.85712280251852
 21
45.20233759768911
 31
0.0
  0
LINE
  5
57F
330
1E
100
AcDbEntity
  8
OBJECT
100
AcDbLine
 10
15.44712280251852
 20
45.28233759768911
 30
0.0
 11
15.44712280251852
 21
45.20233759768911
 31
0.0
  0
LINE
  5
580
330
1E
100
AcDbEntity
  8
OBJECT
100
AcDbLine
 10
15.90112280251852
 20
45.28233759768911
 30
0.0
 11
15.90112280251852
 21
45.20233759768911
 31
0.0
  0
LINE
  5
581
330
1E
100
AcDbEntity
  8
OBJECT
100
AcDbLine
 10
17.85012280251851
 20
45.28233759768911
 30
0.0
 11
17.85012280251851
 21
45.20233759768911
 31
0.0
  0
LINE
  5
582
330
1E
100
AcDbEntity
  8
OBJECT
100
AcDbLine
 10
17.85012280251851
 20
45.28233759768911
 30
0.0
 11
18.44012280251853
 21
45.2823375976891
 31
0.0
  0
LINE
  5
583
330
1E
100
AcDbEntity
  8
OBJECT
100
AcDbLine
 10
21.43312280251852
 20
45.28233759768911
 30
0.0
 11
20.38912280251854
 21
45.28233759768911
 31
0.0
  0
LINE
  5
584
330
1E
100
AcDbEntity
  8
OBJECT
100
AcDbLine
 10
21.43312280251852
 20
45.28233759768911
 30
0.0
 11
21.43312280251852
 21
45.20233759768911
 31
0.0
  0
LINE
  5
585
330
1E
100
AcDbEntity
  8
OBJECT
100
AcDbLine
 10
20.84312280251852
 20
45.28233759768911
 30
0.0
 11
20.84312280251852
 21
45.20233759768911
 31
0.0
  0
LINE
  5
586
330
1E
100
AcDbEntity
  8
OBJECT
100
AcDbLine
 10
20.38912280251854
 20
45.28233759768911
 30
0.0
 11
20.38912280251854
 21
45.20233759768911
 31
0.0
  0
LINE
  5
587
330
1E
100
AcDbEntity
  8
OBJECT
100
AcDbLine
 10
18.44012280251853
 20
45.2823375976891
 30
0.0
 11
18.44012280251853
 21
45.20233759768911
 31
0.0
  0
CIRCLE
  5
588
330
1E
100
AcDbEntity
  8
OBJECT
100
AcDbCircle
 10
21.9098717825136
 20
41.3234625976891
 30
0.0
 40
0.0545000000000044
  0
CIRCLE
  5
589
330
1E
100
AcDbEntity
  8
OBJECT
100
AcDbCircle
 10
21.9098717825136
 20
41.3234625976891
 30
0.0
 40
0.0625
  0
CIRCLE
  5
58A
330
1E
100
AcDbEntity
  8
OBJECT
100
AcDbCircle
 10
21.99821694433261
 20
39.98867381594807
 30
0.0
 40
0.0545000000000044
  0
LWPOLYLINE
  5
58B
330
1E
100
AcDbEntity
  8
OBJECT
100
AcDbPolyline
 90
        4
 70
     0
 43
0.0
 10
21.86724214238499
 20
41.28950727730326
 10
22.11218324375137
 20
40.98199284700768
 10
22.19815731524745
 20
40.33967195582239
 10
21.95493357050649
 20
40.02179178010994
  0
LWPOLYLINE
  5
58C
330
1E
100
AcDbEntity
  8
OBJECT
100
AcDbPolyline
 90
        4
 70
     0
 43
0.0
 10
22.04150031815878
 20
39.95555585178618
 10
22.31219024459714
 20
40.30933282973486
 10
22.21622113655577
 20
41.0263276391081
 10
21.95250142264224
 20
41.35741791807494
  0
LWPOLYLINE
  5
58D
330
1E
100
AcDbEntity
  8
OBJECT
100
AcDbPolyline
 90
       10
 70
     0
 43
0.0
 10
21.7848717825136
 20
40.76046259768911
 10
21.78487178251363
 20
42.0734625976891
 10
22.18287178251363
 20
42.0734625976891
 10
22.18287178251363
 20
42.14346259768909
 10
22.35994557391693
 20
42.35449092474826
 10
22.41356868493526
 20
42.30949579207019
 10
22.25287178251362
 20
42.11798468129045
 10
22.25287178251362
 20
41.1354625976891
 42
-0.4142135623730951
 10
22.00287178251362
 20
40.8854625976891
 10
21.7848717825136
 20
40.88546259768911
  0
LWPOLYLINE
  5
58E
330
1E
100
AcDbEntity
  8
OBJECT
100
AcDbPolyline
 90
        8
 70
     1
 43
0.0
 10
21.87724678251361
 20
39.5448375976891
 10
21.87724678251361
 20
40.04483759768911
 42
-0.817231121209579
 10
22.01553640736695
 20
40.07293894350754
 10
22.08845025310769
 20
39.90093894350754
 10
22.13724678251363
 20
39.92162465640165
 10
22.06433293677285
 20
40.09362465640164
 42
0.8172311212095785
 10
21.82424678251361
 20
40.04483759768911
 10
21.82424678251361
 20
39.5448375976891
  0
LWPOLYLINE
  5
58F
330
1E
100
AcDbEntity
  8
OBJECT
100
AcDbPolyline
 90
        8
 70
     0
 43
0.0
 10
14.10337382252343
 20
40.34285168289471
 10
14.10337382252343
 20
40.09483759768911
 10
14.39643379461735
 20
40.09483759768911
 10
14.39643379461735
 20
39.66886305096611
 10
14.46604312010176
 20
39.66886305096611
 10
14.46604312010176
 20
40.16886305096611
 10
14.17337382252343
 20
40.16886305096611
 10
14.17337382252343
 20
40.48483759768911
  0
LWPOLYLINE
  5
590
330
1E
100
AcDbEntity
  8
OBJECT
100
AcDbPolyline
 90
        9
 70
     0
 43
0.0
 10
14.10337382252343
 20
40.6268235124835
 42
4.289848867954715
 10
14.17337382252344
 20
40.4848375976891
 10
14.17337382252344
 20
40.8048375976891
 10
14.50537382252343
 20
40.80483759768911
 10
14.50537382252343
 20
41.30483759768911
 10
14.4357478219085
 20
41.30483759768911
 10
14.4357478219085
 20
40.8748375976891
 10
14.10337382252343
 20
40.8748375976891
 10
14.10337382252343
 20
40.4848375976891
  0
POLYLINE
  5
591
330
1E
100
AcDbEntity
  8
OBJECT
100
AcDb2dPolyline
 66
     1
 10
0.0
 20
0.0
 30
0.0
 70
     1
1001
ACAD
1000
R13OBJECT
1002
{
1005
0
1002
}
  0
VERTEX
  5
592
330
591
100
AcDbEntity
  8
OBJECT
100
AcDbVertex
100
AcDb2dVertex
 10
27.48937319334835
 20
34.17245726961399
 30
0.0
1001
ACAD
1000
R13OBJECT
1002
{
1005
0
1002
}
  0
VERTEX
  5
593
330
591
100
AcDbEntity
  8
OBJECT
100
AcDbVertex
100
AcDb2dVertex
 10
28.72252374271257
 20
34.17245726961399
 30
0.0
1001
ACAD
1000
R13OBJECT
1002
{
1005
0
1002
}
  0
VERTEX
  5
594
330
591
100
AcDbEntity
  8
OBJECT
100
AcDbVertex
100
AcDb2dVertex
 10
28.74084577501487
 20
34.17721479883203
 30
0.0
1001
ACAD
1000
R13OBJECT
1002
{
1005
0
1002
}
  0
VERTEX
  5
595
330
591
100
AcDbEntity
  8
OBJECT
100
AcDbVertex
100
AcDb2dVertex
 10
28.75637844398882
 20
34.19076309578982
 30
0.0
1001
ACAD
1000
R13OBJECT
1002
{
1005
0
1002
}
  0
VERTEX
  5
596
330
591
100
AcDbEntity
  8
OBJECT
100
AcDbVertex
100
AcDb2dVertex
 10
28.76675704158704
 20
34.21103955509117
 30
0.0
1001
ACAD
1000
R13OBJECT
1002
{
1005
0
1002
}
  0
VERTEX
  5
597
330
591
100
AcDbEntity
  8
OBJECT
100
AcDbVertex
100
AcDb2dVertex
 10
28.7704015204075
 20
34.23495726961399
 30
0.0
1001
ACAD
1000
R13OBJECT
1002
{
1005
0
1002
}
  0
VERTEX
  5
598
330
591
100
AcDbEntity
  8
OBJECT
100
AcDbVertex
100
AcDb2dVertex
 10
28.77040152040753
 20
34.79795726961398
 30
0.0
1001
ACAD
1000
R13OBJECT
1002
{
1005
0
1002
}
  0
VERTEX
  5
599
330
591
100
AcDbEntity
  8
OBJECT
100
AcDbVertex
100
AcDb2dVertex
 10
28.76675704158704
 20
34.8218749841368
 30
0.0
1001
ACAD
1000
R13OBJECT
1002
{
1005
0
1002
}
  0
VERTEX
  5
59A
330
591
100
AcDbEntity
  8
OBJECT
100
AcDbVertex
100
AcDb2dVertex
 10
28.75637844398882
 20
34.84215144343814
 30
0.0
1001
ACAD
1000
R13OBJECT
1002
{
1005
0
1002
}
  0
VERTEX
  5
59B
330
591
100
AcDbEntity
  8
OBJECT
100
AcDbVertex
100
AcDb2dVertex
 10
28.74084577501487
 20
34.85569974039594
 30
0.0
1001
ACAD
1000
R13OBJECT
1002
{
1005
0
1002
}
  0
VERTEX
  5
59C
330
591
100
AcDbEntity
  8
OBJECT
100
AcDbVertex
100
AcDb2dVertex
 10
28.72252374271257
 20
34.86045726961398
 30
0.0
1001
ACAD
1000
R13OBJECT
1002
{
1005
0
1002
}
  0
VERTEX
  5
59D
330
591
100
AcDbEntity
  8
OBJECT
100
AcDbVertex
100
AcDb2dVertex
 10
27.48937319334835
 20
34.86045726961398
 30
0.0
1001
ACAD
1000
R13OBJECT
1002
{
1005
0
1002
}
  0
SEQEND
  5
59E
330
591
100
AcDbEntity
  8
OBJECT
  0
POLYLINE
  5
59F
330
1E
100
AcDbEntity
  8
OBJECT
100
AcDb2dPolyline
 66
     1
 10
0.0
 20
0.0
 30
0.0
1001
ACAD
1000
R13OBJECT
1002
{
1005
0
1002
}
  0
VERTEX
  5
5A0
330
59F
100
AcDbEntity
  8
OBJECT
100
AcDbVertex
100
AcDb2dVertex
 10
28.67752861003451
 20
34.17245726961399
 30
0.0
1001
ACAD
1000
R13OBJECT
1002
{
1005
0
1002
}
  0
VERTEX
  5
5A1
330
59F
100
AcDbEntity
  8
OBJECT
100
AcDbVertex
100
AcDb2dVertex
 10
28.69585064233682
 20
34.17721479883203
 30
0.0
1001
ACAD
1000
R13OBJECT
1002
{
1005
0
1002
}
  0
VERTEX
  5
5A2
330
59F
100
AcDbEntity
  8
OBJECT
100
AcDbVertex
100
AcDb2dVertex
 10
28.71138331131076
 20
34.19076309578982
 30
0.0
1001
ACAD
1000
R13OBJECT
1002
{
1005
0
1002
}
  0
VERTEX
  5
5A3
330
59F
100
AcDbEntity
  8
OBJECT
100
AcDbVertex
100
AcDb2dVertex
 10
28.72176190890899
 20
34.21103955509117
 30
0.0
1001
ACAD
1000
R13OBJECT
1002
{
1005
0
1002
}
  0
VERTEX
  5
5A4
330
59F
100
AcDbEntity
  8
OBJECT
100
AcDbVertex
100
AcDb2dVertex
 10
28.72540638772944
 20
34.23495726961399
 30
0.0
1001
ACAD
1000
R13OBJECT
1002
{
1005
0
1002
}
  0
VERTEX
  5
5A5
330
59F
100
AcDbEntity
  8
OBJECT
100
AcDbVertex
100
AcDb2dVertex
 10
28.72540638772944
 20
34.79795726961398
 30
0.0
1001
ACAD
1000
R13OBJECT
1002
{
1005
0
1002
}
  0
VERTEX
  5
5A6
330
59F
100
AcDbEntity
  8
OBJECT
100
AcDbVertex
100
AcDb2dVertex
 10
28.72176190890899
 20
34.8218749841368
 30
0.0
1001
ACAD
1000
R13OBJECT
1002
{
1005
0
1002
}
  0
VERTEX
  5
5A7
330
59F
100
AcDbEntity
  8
OBJECT
100
AcDbVertex
100
AcDb2dVertex
 10
28.71138331131074
 20
34.84215144343814
 30
0.0
1001
ACAD
1000
R13OBJECT
1002
{
1005
0
1002
}
  0
VERTEX
  5
5A8
330
59F
100
AcDbEntity
  8
OBJECT
100
AcDbVertex
100
AcDb2dVertex
 10
28.69585064233682
 20
34.85569974039594
 30
0.0
1001
ACAD
1000
R13OBJECT
1002
{
1005
0
1002
}
  0
VERTEX
  5
5A9
330
59F
100
AcDbEntity
  8
OBJECT
100
AcDbVertex
100
AcDb2dVertex
 10
28.67752861003451
 20
34.86045726961398
 30
0.0
1001
ACAD
1000
R13OBJECT
1002
{
1005
0
1002
}
  0
SEQEND
  5
5AA
330
59F
100
AcDbEntity
  8
OBJECT
  0
LWPOLYLINE
  5
5AB
330
1E
100
AcDbEntity
  8
OBJECT
100
AcDbPolyline
 90
       12
 70
     0
 43
0.0
 10
26.77374819334836
 20
34.86045726961399
 10
26.46874819334836
 20
34.86045726961398
 10
26.46874819334836
 20
34.95395726961398
 42
0.4142135623730951
 10
26.40624819334836
 20
35.01645726961398
 10
26.21124819334834
 20
35.01645726961398
 42
0.4142135623730951
 10
26.14874819334834
 20
34.95395726961398
 10
26.14874819334834
 20
34.07895726961398
 42
0.4142135623730951
 10
26.21124819334834
 20
34.01645726961398
 10
26.40624819334836
 20
34.01645726961398
 42
0.4142135623730951
 10
26.46874819334836
 20
34.07895726961398
 10
26.46874819334836
 20
34.17245726961398
 10
26.77374819334834
 20
34.17245726961399
  0
LWPOLYLINE
  5
5AC
330
1E
100
AcDbEntity
  8
OBJECT
100
AcDbPolyline
 90
        4
 70
     0
 43
0.0
 10
26.72074819334834
 20
34.17245726961398
 10
26.72074819334834
 20
34.10195726961398
 10
27.80987319334833
 20
34.10195726961398
 10
27.80987319334833
 20
34.17238425698686
  0
LWPOLYLINE
  5
5AD
330
1E
100
AcDbEntity
  8
OBJECT
100
AcDbPolyline
 90
        4
 70
     0
 43
0.0
 10
27.80987319334833
 20
34.86045726961398
 10
27.80987319334836
 20
34.93095726961399
 10
26.72074819334834
 20
34.93095726961399
 10
26.72074819334834
 20
34.86045726961398
  0
LWPOLYLINE
  5
5AE
330
1E
100
AcDbEntity
  8
OBJECT
100
AcDbPolyline
 90
        6
 70
     0
 43
0.0
 10
27.91887319334835
 20
34.86045726961398
 10
27.91887319334835
 20
34.93095726961399
 42
0.4142135623730951
 10
27.80987319334836
 20
35.03995726961398
 10
26.72074819334837
 20
35.03995726961398
 42
0.4142135623730951
 10
26.61174819334836
 20
34.93095726961399
 10
26.61174819334836
 20
34.86045726961398
  0
LWPOLYLINE
  5
5AF
330
1E
100
AcDbEntity
  8
OBJECT
100
AcDbPolyline
 90
        6
 70
     0
 43
0.0
 10
27.91887319334835
 20
34.17245726961399
 10
27.91887319334835
 20
34.10195726961398
 42
-0.4142135623730951
 10
27.80987319334836
 20
33.99295726961399
 10
26.72074819334837
 20
33.99295726961399
 42
-0.4142135623730951
 10
26.61174819334836
 20
34.10195726961398
 10
26.61174819334836
 20
34.17245726961399
  0
LINE
  5
5B0
330
1E
100
AcDbEntity
  8
OBJECT
100
AcDbLine
 10
21.66674678251361
 20
37.07895726961392
 30
0.0
 11
14.62349882252343
 21
37.07895726961392
 31
0.0
  0
ARC
  5
5B1
330
1E
100
AcDbEntity
  8
OBJECT
100
AcDbCircle
 10
21.66674678251361
 20
36.64620726961392
 30
0.0
 40
0.43275
100
AcDbArc
 50
0.0
 51
90.00000000000005
  0
LINE
  5
5B2
330
1E
100
AcDbEntity
  8
OBJECT
100
AcDbLine
 10
22.09949678251361
 20
36.64620726961393
 30
0.0
 11
22.09949678251363
 21
35.03988812673257
 31
0.0
  0
LINE
  5
5B3
330
1E
100
AcDbEntity
  8
OBJECT
100
AcDbLine
 10
22.09949678251363
 20
33.99303335828169
 30
0.0
 11
22.09949678251363
 21
28.35788118094626
 31
0.0
  0
ARC
  5
5B4
330
1E
100
AcDbEntity
  8
OBJECT
100
AcDbCircle
 10
14.62349882252343
 20
36.64620726961392
 30
0.0
 40
0.43275
100
AcDbArc
 50
90.00000000000005
 51
180.0
  0
LINE
  5
5B5
330
1E
100
AcDbEntity
  8
OBJECT
100
AcDbLine
 10
14.19074882252343
 20
36.64620726961392
 30
0.0
 11
14.19074882252343
 21
35.108457269614
 31
0.0
  0
LINE
  5
5B6
330
1E
100
AcDbEntity
  8
OBJECT
100
AcDbLine
 10
14.19074882252343
 20
33.82745726961401
 30
0.0
 11
14.19074882252343
 21
28.52345726961395
 31
0.0
  0
LINE
  5
5B7
330
1E
100
AcDbEntity
  8
OBJECT
100
AcDbLine
 10
14.19074882252343
 20
27.24245726961395
 30
0.0
 11
14.19074882252341
 21
25.70470726961405
 31
0.0
  0
ARC
  5
5B8
330
1E
100
AcDbEntity
  8
OBJECT
100
AcDbCircle
 10
14.62349882252341
 20
25.70470726961405
 30
0.0
 40
0.43275
100
AcDbArc
 50
180.0
 51
270.0
  0
LINE
  5
5B9
330
1E
100
AcDbEntity
  8
OBJECT
100
AcDbLine
 10
21.66674678251361
 20
25.27195726961405
 30
0.0
 11
14.62349882252341
 21
25.27195726961405
 31
0.0
  0
ARC
  5
5BA
330
1E
100
AcDbEntity
  8
OBJECT
100
AcDbCircle
 10
21.66674678251361
 20
25.70470726961405
 30
0.0
 40
0.43275
100
AcDbArc
 50
270.0
 51
0.0
  0
LINE
  5
5BB
330
1E
100
AcDbEntity
  8
OBJECT
100
AcDbLine
 10
22.09949678251363
 20
27.31102641249538
 30
0.0
 11
22.09949678251361
 21
25.70470726961405
 31
0.0
  0
LINE
  5
5BC
330
1E
100
AcDbEntity
  8
OBJECT
100
AcDbLine
 10
25.91349819334836
 20
36.56218972222518
 30
0.0
 11
25.91349819334836
 21
25.78872481700278
 31
0.0
  0
ARC
  5
5BD
330
1E
100
AcDbEntity
  8
OBJECT
100
AcDbCircle
 10
26.14949819334835
 20
25.78872481700278
 30
0.0
 40
0.236
100
AcDbArc
 50
180.0
 51
267.3728704098822
  0
LWPOLYLINE
  5
5BE
330
1E
100
AcDbEntity
  8
OBJECT
100
AcDbPolyline
 90
        4
 70
     0
 43
0.0
 10
27.08874819334833
 20
25.58645726961398
 10
26.88874819334834
 20
25.58645726961398
 10
26.88874819334834
 20
25.41645726961398
 10
27.08874819334833
 20
25.41645726961398
  0
LINE
  5
5BF
330
1E
100
AcDbEntity
  8
OBJECT
100
AcDbLine
 10
26.05949819334834
 20
31.17545726961397
 30
0.0
 11
26.05949819334834
 21
25.78872481700278
 31
0.0
  0
ARC
  5
5C0
330
1E
100
AcDbEntity
  8
OBJECT
100
AcDbCircle
 10
26.14949819334835
 20
25.78872481700278
 30
0.0
 40
0.09
100
AcDbArc
 50
180.0
 51
267.3728704098822
  0
LINE
  5
5C1
330
1E
100
AcDbEntity
  8
OBJECT
100
AcDbLine
 10
26.14537295368471
 20
25.69881940894677
 30
0.0
 11
27.08874819334833
 21
25.65553337042577
 31
0.0
  0
LINE
  5
5C2
330
1E
100
AcDbEntity
  8
OBJECT
100
AcDbLine
 10
26.13868089823036
 20
36.79794168112759
 30
0.0
 11
26.77374819334834
 21
36.82708124960907
 31
0.0
  0
ARC
  5
5C3
330
1E
100
AcDbEntity
  8
OBJECT
100
AcDbCircle
 10
26.14949819334835
 20
36.56218972222518
 30
0.0
 40
0.236
100
AcDbArc
 50
92.62712959011771
 51
180.0
  0
LINE
  5
5C4
330
1E
100
AcDbEntity
  8
OBJECT
100
AcDbLine
 10
27.08874819334833
 20
25.43270726961397
 30
0.0
 11
27.08874819334833
 21
25.27195726961402
 31
0.0
  0
LWPOLYLINE
  5
5C5
330
1E
100
AcDbEntity
  8
OBJECT
100
AcDbPolyline
 90
        4
 70
     0
 43
0.0
 10
27.08874819334833
 20
25.51145726961398
 10
27.02012319334835
 20
25.51145726961399
 42
1.0
 10
27.02012319334835
 20
25.43270726961397
 10
27.08874819334833
 20
25.43270726961397
  0
INSERT
  5
5C6
330
1E
100
AcDbEntity
  8
OBJECT
100
AcDbBlockReference
  2
*X1
 10
-6.997266012981391
 20
14.13317353774489
 30
0.0
1001
ACAD
1000
HATCH
1002
{
1070
    16
1000
ANSI31
1040
1.0
1040
0.0
1002
}
  0
INSERT
  5
5C7
330
1E
100
AcDbEntity
  8
OBJECT
100
AcDbBlockReference
  2
*X2
 10
-6.997266012981391
 20
14.13317353774489
 30
0.0
1001
ACAD
1000
HATCH
1002
{
1070
    16
1000
ANSI31
1040
1.0
1040
1.570796326794896
1002
}
  0
DIMENSION
  5
5C8
330
1E
100
AcDbEntity
  8
DIM
100
AcDbDimension
  2
*D11
 10
14.49512280251851
 20
38.24967385358508
 30
0.0
 11
18.14512280251851
 21
38.24967385358508
 31
0.0
 70
    32
  1
P
 71
     5
 42
7.300000000000004
  3
23NSTD
100
AcDbAlignedDimension
 13
21.79512280251852
 23
39.52911003779707
 33
0.0
 14
14.49512280251851
 24
39.52911003779707
 34
0.0
 50
180.0
100
AcDbRotatedDimension
  0
LWPOLYLINE
  5
5C9
330
1E
100
AcDbEntity
  8
BEND
100
AcDbPolyline
 90
       10
 70
     0
 43
0.0
 10
25.55971992593377
 20
31.17545726961397
 10
27.63374265301375
 20
31.17545726961397
 10
27.74808323575008
 20
31.00107204966193
 10
27.81160588972331
 20
31.39477552883395
 10
27.92594647245964
 20
31.17545726961398
 10
30.85597812762999
 20
31.17545726961397
 10
30.97031871036632
 20
31.00107204966193
 10
31.03384136433955
 20
31.39477552883395
 10
31.14818194707588
 20
31.17545726961397
 10
32.19029945545092
 20
31.17545726961397
  0
LWPOLYLINE
  5
5CA
330
1E
100
AcDbEntity
  8
HIDDEN
 48
1.5
100
AcDbPolyline
 90
        3
 70
     0
 43
0.0
 10
27.08874819334834
 20
27.18451976961398
 10
28.27674819334834
 20
27.18451976961398
 10
28.27674819334834
 20
27.14045726961398
  0
LWPOLYLINE
  5
5CB
330
1E
100
AcDbEntity
  8
HIDDEN
 48
1.5
100
AcDbPolyline
 90
        3
 70
     0
 43
0.0
 10
27.08874819334834
 20
26.55239476961397
 10
28.27674819334833
 20
26.55239476961397
 10
28.27674819334833
 20
26.59645726961399
  0
LWPOLYLINE
  5
5CC
330
1E
100
AcDbEntity
  8
OBJECT
100
AcDbPolyline
 90
        4
 70
     0
 43
0.0
 10
27.08874819334834
 20
26.61145726961399
 10
28.27674819334833
 20
26.61145726961399
 10
28.27674819334834
 20
27.12545726961398
 10
27.08874819334834
 20
27.12545726961397
  0
TEXT
  5
5CD
330
1E
100
AcDbEntity
  8
TEXT
100
AcDbText
 10
2.713402890173369
 20
39.20214592808363
 30
0.0
 40
0.4703626720183486
  1
(4) WALL MOUNTING BRKTS.
 41
0.75
100
AcDbText
  0
TEXT
  5
5CE
330
1E
100
AcDbEntity
  8
TEXT
100
AcDbText
 10
2.713402890173369
 20
37.63427035468914
 30
0.0
 40
0.4703626720183486
  1
HD. MACHINE SCREWS (NOT SHOWN)
 41
0.75
100
AcDbText
  0
TEXT
  5
5CF
330
1E
100
AcDbEntity
  8
TEXT
100
AcDbText
 10
0.8483225056337069
 20
39.94589323613329
 30
0.0
 40
0.4703626720183486
  1
%%UNOTE:%%u UNIT COMES COMPLETE WITH
 41
0.75
100
AcDbText
  0
TEXT
  5
5D0
330
1E
100
AcDbEntity
  8
TEXT
100
AcDbText
 10
10.20115808609761
 20
53.678120479926
 30
0.0
 40
0.4703626720183486
  1
UL94-5VB FLAMMABILITY RATING
 41
0.75
100
AcDbText
  0
TEXT
  5
5D1
330
1E
100
AcDbEntity
  8
TEXT
100
AcDbText
 10
10.20115808609761
 20
51.33593732998046
 30
0.0
 40
0.4703626720183486
  1
UL94V-0 FLAMMABILITY RATING
 41
0.75
100
AcDbText
  0
TEXT
  5
5D2
330
1E
100
AcDbEntity
  8
TEXT
100
AcDbText
 10
10.20115808609761
 20
52.1198751166777
 30
0.0
 40
0.4703626720183486
  1
POLYCARBONATE PLASTIC
 41
0.75
100
AcDbText
  0
LINE
  5
5D3
330
1E
100
AcDbEntity
  8
TEXT
100
AcDbLine
 10
9.329723216705335
 20
48.93087132787038
 30
0.0
 11
9.966407485136068
 21
48.93087132787037
 31
0.0
  0
LINE
  5
5D4
330
1E
100
AcDbEntity
  8
TEXT
100
AcDbLine
 10
2.911504402548395
 20
46.58567303259137
 30
0.0
 11
5.969454741919133
 21
46.58567303259137
 31
0.0
  0
TEXT
  5
5D5
330
1E
100
AcDbEntity
  8
TEXT
100
AcDbText
 10
6.204205342880669
 20
45.80173524589412
 30
0.0
 40
0.4703626720183486
  1
LIGHT GRAY OR CLEAR
 41
0.75
100
AcDbText
  0
TEXT
  5
5D6
330
1E
100
AcDbEntity
  8
TEXT
100
AcDbText
 10
10.20115808609761
 20
54.46205826662325
 30
0.0
 40
0.4703626720183486
  1
ABS/PC BLENDED PLASTIC
 41
0.75
100
AcDbText
  0
LINE
  5
5D7
330
1E
100
AcDbEntity
  8
TEXT
100
AcDbLine
 10
5.521331839520964
 20
52.1198751166777
 30
0.0
 11
9.966407485136075
 21
52.1198751166777
 31
0.0
  0
TEXT
  5
5D8
330
1E
100
AcDbEntity
  8
TEXT
100
AcDbText
 10
1.426581318766402
 20
48.93087132787038
 30
0.0
 40
0.4703626720183486
  1
WALL MOUNTING BRACKETS
 41
0.75
100
AcDbText
  0
LINE
  5
5D9
330
1E
100
AcDbEntity
  8
TEXT
100
AcDbLine
 10
3.363406078305466
 20
45.80173524589412
 30
0.0
 11
5.969454741919133
 21
45.80173524589412
 31
0.0
  0
TEXT
  5
5DA
330
1E
100
AcDbEntity
  8
TEXT
100
AcDbText
 10
1.426581318766402
 20
49.71480911456762
 30
0.0
 40
0.4703626720183486
  1
LATCHES, HINGES &
 41
0.75
100
AcDbText
  0
TEXT
  5
5DB
330
1E
100
AcDbEntity
  8
TEXT
100
AcDbText
 10
1.426581318766402
 20
54.46205826662325
 30
0.0
 40
0.4703626720183486
  1
SOLID BODY & COVER
 41
0.75
100
AcDbText
  0
TEXT
  5
5DC
330
1E
100
AcDbEntity
  8
TEXT
100
AcDbText
 10
1.426581318766402
 20
52.1198751166777
 30
0.0
 40
0.4703626720183486
  1
CLEAR COVER
 41
0.75
100
AcDbText
  0
TEXT
  5
5DD
330
1E
100
AcDbEntity
  8
TEXT
100
AcDbText
 10
1.426581318766352
 20
45.80173524589412
 30
0.0
 40
0.4703626720183486
  1
COVER
 41
0.75
100
AcDbText
  0
TEXT
  5
5DE
330
1E
100
AcDbEntity
  8
TEXT
100
AcDbText
 10
1.426581318766352
 20
46.58567303259137
 30
0.0
 40
0.4703626720183486
  1
BODY
 41
0.75
100
AcDbText
  0
TEXT
  5
5DF
330
1E
100
AcDbEntity
  8
TEXT
100
AcDbText
 10
0.8483225056337069
 20
47.36961081928861
 30
0.0
 40
0.4703626720183486
  1
%%UFINISH:
 41
0.75
100
AcDbText
  0
LINE
  5
5E0
330
1E
100
AcDbEntity
  8
TEXT
100
AcDbLine
 10
7.917402680063934
 20
54.46205826662325
 30
0.0
 11
9.966407485136075
 21
54.46205826662325
 31
0.0
  0
TEXT
  5
5E1
330
1E
100
AcDbEntity
  8
TEXT
100
AcDbText
 10
10.2011580860976
 20
48.93087132787034
 30
0.0
 40
0.4703626720183486
  1
STAINLESS STEEL
 41
0.75
100
AcDbText
  0
TEXT
  5
5E2
330
1E
100
AcDbEntity
  8
TEXT
100
AcDbText
 10
6.204205342880669
 20
46.58567303259137
 30
0.0
 40
0.4703626720183486
  1
LIGHT GRAY
 41
0.75
100
AcDbText
  0
TEXT
  5
5E3
330
1E
100
AcDbEntity
  8
TEXT
100
AcDbText
 10
0.848322505633746
 20
55.24118094824742
 30
0.0
 40
0.4703626720183486
  1
%%UMATERIAL:
 41
0.75
100
AcDbText
  0
TEXT
  5
5E4
330
1E
100
AcDbEntity
  8
TEXT
100
AcDbText
 10
10.20115808609761
 20
50.49213183645214
 30
0.0
 40
0.4703626720183486
  1
UV STABILIZED
 41
0.75
100
AcDbText
  0
TEXT
  5
5E5
330
1E
100
AcDbEntity
  8
TEXT
100
AcDbText
 10
0.8483225056337069
 20
42.29569288039871
 30
0.0
 40
0.4703626720183486
  1
COVER INCLUDES GRAY POLY-
 41
0.75
100
AcDbText
  0
TEXT
  5
5E6
330
1E
100
AcDbEntity
  8
TEXT
100
AcDbText
 10
2.713402890173369
 20
38.41820814138639
 30
0.0
 40
0.4703626720183486
  1
& (4) M5 x 10mm LG. TRUSS
 41
0.75
100
AcDbText
  0
TEXT
  5
5E7
330
1E
100
AcDbEntity
  8
TEXT
100
AcDbText
 10
0.8483225056337069
 20
35.2844707104237
 30
0.0
 40
0.46875
  1
INTERNAL HINGED PANEL MOUNTING
 41
0.75
100
AcDbText
  0
TEXT
  5
5E8
330
1E
100
AcDbEntity
  8
TEXT
100
AcDbText
 10
0.8483225056337069
 20
34.50254663955277
 30
0.0
 40
0.46875
  1
BRACKETS, AIR & MOISTURE VENTS,
 41
0.75
100
AcDbText
  0
TEXT
  5
5E9
330
1E
100
AcDbEntity
  8
TEXT
100
AcDbText
 10
0.8483225056337069
 20
31.36780777908295
 30
0.0
 40
0.46875
  1
CAN BE PURCHASED SEPARATELY.
 41
0.75
100
AcDbText
  0
TEXT
  5
5EA
330
1E
100
AcDbEntity
  8
TEXT
100
AcDbText
 10
0.8483225056337069
 20
33.72062256868183
 30
0.0
 40
0.46875
  1
STAINLESS STEEL LOCKING HASP
 41
0.75
100
AcDbText
  0
TEXT
  5
5EB
330
1E
100
AcDbEntity
  8
TEXT
100
AcDbText
 10
0.8483225056337069
 20
32.93869849781089
 30
0.0
 40
0.46875
  1
AND GALVANIZED STEEL INTERNAL
 41
0.75
100
AcDbText
  0
TEXT
  5
5EC
330
1E
100
AcDbEntity
  8
TEXT
100
AcDbText
 10
0.8483225056337069
 20
32.15677442693996
 30
0.0
 40
0.46875
  1
PANEL ARE NOT INCLUDED, BUT
 41
0.75
100
AcDbText
  0
TEXT
  5
5ED
330
1E
100
AcDbEntity
  8
DIM
100
AcDbText
 10
24.27921708945262
 20
9.739123778323353
 30
0.0
 40
0.46875
  1
BOSSES ACCEPT M6 METRIC OR
 41
0.75
 11
24.27921708945262
 21
9.973498778323353
 31
0.0
100
AcDbText
 73
     2
  0
CIRCLE
  5
5EE
330
1E
100
AcDbEntity
  8
OBJECT
100
AcDbCircle
 10
20.68412280251851
 20
10.00692109819623
 30
0.0
 40
0.0825
  0
CIRCLE
  5
5EF
330
1E
100
AcDbEntity
  8
HIDDEN
100
AcDbCircle
 10
20.68412280251851
 20
10.00692109819623
 30
0.0
 40
0.095
  0
CIRCLE
  5
5F0
330
1E
100
AcDbEntity
  8
OBJECT
100
AcDbCircle
 10
20.68412280251851
 20
10.00692109819623
 30
0.0
 40
0.295
  0
LINE
  5
5F1
330
1E
100
AcDbEntity
  8
OBJECT
100
AcDbLine
 10
21.7141853025185
 20
10.47198359819623
 30
0.0
 11
21.7141853025185
 21
9.839858598196222
 31
0.0
  0
CIRCLE
  5
5F2
330
1E
100
AcDbEntity
  8
OBJECT
100
AcDbCircle
 10
18.14512280251851
 20
10.00692109819623
 30
0.0
 40
0.0984375
  0
CIRCLE
  5
5F3
330
1E
100
AcDbEntity
  8
OBJECT
100
AcDbCircle
 10
18.14512280251851
 20
10.00692109819623
 30
0.0
 40
0.295
  0
CIRCLE
  5
5F4
330
1E
100
AcDbEntity
  8
HIDDEN
100
AcDbCircle
 10
15.60612280251852
 20
10.00692109819623
 30
0.0
 40
0.095
  0
CIRCLE
  5
5F5
330
1E
100
AcDbEntity
  8
OBJECT
100
AcDbCircle
 10
15.60612280251852
 20
10.00692109819623
 30
0.0
 40
0.0825
  0
LINE
  5
5F6
330
1E
100
AcDbEntity
  8
OBJECT
100
AcDbLine
 10
14.57606030251853
 20
10.47198359819623
 30
0.0
 11
14.57606030251853
 21
9.839858598196222
 31
0.0
  0
CIRCLE
  5
5F7
330
1E
100
AcDbEntity
  8
OBJECT
100
AcDbCircle
 10
15.6061228025185
 20
10.00692109819623
 30
0.0
 40
0.295
  0
DIMENSION
  5
5F8
330
1E
100
AcDbEntity
  8
DIM
100
AcDbDimension
  2
*D12
 10
11.94956381300413
 20
19.42342109819622
 30
0.0
 11
11.94956381300413
 21
14.46292109819623
 31
0.0
 70
    32
  1
G
 71
     5
 42
9.920999999999999
  3
23NSTD
100
AcDbAlignedDimension
 13
15.15212280251851
 23
9.502421098196229
 33
0.0
 14
15.15212280251851
 24
19.42342109819622
 34
0.0
 50
90.0
100
AcDbRotatedDimension
  0
LINE
  5
5F9
330
1E
100
AcDbEntity
  8
OBJECT
100
AcDbLine
 10
20.20762280251851
 20
8.956421098196237
 30
0.0
 11
18.3260586860484
 21
13.83210712518099
 31
0.0
  0
LINE
  5
5FA
330
1E
100
AcDbEntity
  8
OBJECT
100
AcDbLine
 10
18.43485607344936
 20
13.87409285989943
 30
0.0
 11
20.33262280251851
 21
8.956421098196237
 31
0.0
  0
LINE
  5
5FB
330
1E
100
AcDbEntity
  8
OBJECT
100
AcDbLine
 10
15.95762280251851
 20
8.956421098196237
 30
0.0
 11
17.85538953158767
 21
13.87409285989943
 31
0.0
  0
LINE
  5
5FC
330
1E
100
AcDbEntity
  8
OBJECT
100
AcDbLine
 10
17.96418691898862
 20
13.83210712518099
 30
0.0
 11
16.08262280251851
 21
8.956421098196237
 31
0.0
  0
DIMENSION
  5
5FD
330
1E
100
AcDbEntity
  8
DIM
100
AcDbDimension
  2
*D13
 10
10.79740228736044
 20
19.96942109819623
 30
0.0
 11
10.79740228736044
 21
14.46292109819624
 31
0.0
 70
    32
  1
F
 71
     5
 42
11.01299999999999
  3
23NSTD
100
AcDbAlignedDimension
 13
14.7926228025185
 23
8.956421098196237
 33
0.0
 14
14.79262280251852
 24
19.96942109819623
 34
0.0
 50
90.0
100
AcDbRotatedDimension
  0
LINE
  5
5FE
330
1E
100
AcDbEntity
  8
OBJECT
100
AcDbLine
 10
22.0701228025185
 20
19.77579609819623
 30
0.0
 11
22.07012280251852
 21
9.150046098196234
 31
0.0
  0
LINE
  5
5FF
330
1E
100
AcDbEntity
  8
OBJECT
100
AcDbLine
 10
21.81262280251851
 20
19.81192109819623
 30
0.0
 11
21.81262280251851
 21
9.113921098196236
 31
0.0
  0
LINE
  5
600
330
1E
100
AcDbEntity
  8
OBJECT
100
AcDbLine
 10
21.89137280251851
 20
19.81192109819623
 30
0.0
 11
21.8913728025185
 21
9.113921098196236
 31
0.0
  0
LINE
  5
601
330
1E
100
AcDbEntity
  8
OBJECT
100
AcDbLine
 10
21.65512280251847
 20
19.81192109819623
 30
0.0
 11
21.65512280251851
 21
9.113921098196193
 31
0.0
  0
LINE
  5
602
330
1E
100
AcDbEntity
  8
OBJECT
100
AcDbLine
 10
14.22012280251854
 20
19.77579609819623
 30
0.0
 11
14.22012280251851
 21
9.150046098196234
 31
0.0
  0
LINE
  5
603
330
1E
100
AcDbEntity
  8
CENTER
100
AcDbLine
 10
18.14512280251851
 20
8.143056177333441
 30
0.0
 11
18.14512280251851
 21
20.78278601905903
 31
0.0
  0
LINE
  5
604
330
1E
100
AcDbEntity
  8
OBJECT
100
AcDbLine
 10
14.39887280251852
 20
19.81192109819623
 30
0.0
 11
14.39887280251853
 21
9.113921098196236
 31
0.0
  0
LINE
  5
605
330
1E
100
AcDbEntity
  8
OBJECT
100
AcDbLine
 10
14.4776228025185
 20
19.81192109819623
 30
0.0
 11
14.47762280251852
 21
9.113921098196236
 31
0.0
  0
LINE
  5
606
330
1E
100
AcDbEntity
  8
OBJECT
100
AcDbLine
 10
14.63512280251856
 20
19.81192109819623
 30
0.0
 11
14.63512280251852
 21
9.113921098196193
 31
0.0
  0
DIMENSION
  5
607
330
1E
100
AcDbEntity
  8
DIM
100
AcDbDimension
  2
*D14
 10
9.644679142582106
 20
8.559421098196233
 30
0.0
 11
9.644679142582104
 21
14.46292109819623
 31
0.0
 70
    32
  1
E
 71
     5
 42
11.80699999999999
  3
23NSTD
100
AcDbAlignedDimension
 13
14.81074780251851
 23
20.36642109819622
 33
0.0
 14
14.81074780251851
 24
8.559421098196231
 34
0.0
 50
90.0
100
AcDbRotatedDimension
  0
LWPOLYLINE
  5
608
330
1E
100
AcDbEntity
  8
DIM
100
AcDbPolyline
 90
        4
 70
     0
 10
21.33656138172463
 20
19.64170332441416
 40
0.0
 41
0.253125
 10
21.85575179530701
 20
20.07305737208748
 40
0.0
 41
0.0
 10
23.23825022864869
 20
21.2216654348004
 40
0.0
 41
0.0
 10
23.91325022864871
 20
21.2216654348004
 40
0.0
 41
0.0
  0
LINE
  5
609
330
1E
100
AcDbEntity
  8
OBJECT
100
AcDbLine
 10
14.81074780251851
 20
8.559421098196231
 30
0.0
 11
21.47949780251853
 21
8.559421098196274
 31
0.0
  0
LINE
  5
60A
330
1E
100
AcDbEntity
  8
OBJECT
100
AcDbLine
 10
14.7926228025185
 20
8.798921098196196
 30
0.0
 11
21.49762280251851
 21
8.798921098196238
 31
0.0
  0
LINE
  5
60B
330
1E
100
AcDbEntity
  8
OBJECT
100
AcDbLine
 10
14.7926228025185
 20
8.720171098196196
 30
0.0
 11
21.49762280251851
 21
8.720171098196225
 31
0.0
  0
LINE
  5
60C
330
1E
100
AcDbEntity
  8
OBJECT
100
AcDbLine
 10
14.7926228025185
 20
8.956421098196237
 30
0.0
 11
21.49762280251851
 21
8.956421098196237
 31
0.0
  0
TEXT
  5
60D
330
1E
100
AcDbEntity
  8
TEXT
100
AcDbText
 10
14.85226565966136
 20
6.958442294825728
 30
0.0
 40
0.5714285714285714
  1
%%uVIEW LESS COVER
 41
0.75
 72
     4
 11
18.14512280251851
 21
7.187013723397157
 31
0.0
100
AcDbText
  0
CIRCLE
  5
60E
330
1E
100
AcDbEntity
  8
OBJECT
100
AcDbCircle
 10
15.15212280251851
 20
9.502421098196229
 30
0.0
 40
0.295
  0
ARC
  5
60F
330
1E
100
AcDbEntity
  8
OBJECT
100
AcDbCircle
 10
14.7926228025185
 20
9.113921098196193
 30
0.0
 40
0.315
100
AcDbArc
 50
180.0
 51
270.0
  0
ARC
  5
610
330
1E
100
AcDbEntity
  8
OBJECT
100
AcDbCircle
 10
14.81074780251851
 20
9.150046098196234
 30
0.0
 40
0.590625
100
AcDbArc
 50
180.0
 51
270.0
  0
ARC
  5
611
330
1E
100
AcDbEntity
  8
OBJECT
100
AcDbCircle
 10
14.7926228025185
 20
9.113921098196193
 30
0.0
 40
0.39375
100
AcDbArc
 50
180.0
 51
270.0
  0
LINE
  5
612
330
1E
100
AcDbEntity
  8
OBJECT
100
AcDbLine
 10
14.57606030251853
 20
9.839858598196222
 30
0.0
 11
14.63512280251852
 21
9.898921098196247
 31
0.0
  0
ARC
  5
615
330
1E
100
AcDbEntity
  8
OBJECT
100
AcDbCircle
 10
14.7926228025185
 20
9.113921098196193
 30
0.0
 40
0.1575
100
AcDbArc
 50
180.0
 51
270.0
  0
ARC
  5
616
330
1E
100
AcDbEntity
  8
OBJECT
100
AcDbCircle
 10
21.49762280251851
 20
9.113921098196236
 30
0.0
 40
0.315
100
AcDbArc
 50
270.0
 51
0.0
  0
ARC
  5
617
330
1E
100
AcDbEntity
  8
OBJECT
100
AcDbCircle
 10
21.47949780251853
 20
9.150046098196234
 30
0.0
 40
0.590625
100
AcDbArc
 50
270.0
 51
0.0
  0
ARC
  5
618
330
1E
100
AcDbEntity
  8
OBJECT
100
AcDbCircle
 10
21.49762280251851
 20
9.113921098196236
 30
0.0
 40
0.39375
100
AcDbArc
 50
270.0
 51
0.0
  0
CIRCLE
  5
619
330
1E
100
AcDbEntity
  8
OBJECT
100
AcDbCircle
 10
21.13812280251852
 20
9.502421098196229
 30
0.0
 40
0.295
  0
LINE
  5
61C
330
1E
100
AcDbEntity
  8
OBJECT
100
AcDbLine
 10
21.7141853025185
 20
9.839858598196222
 30
0.0
 11
21.6551228025185
 21
9.898921098196247
 31
0.0
  0
ARC
  5
61D
330
1E
100
AcDbEntity
  8
OBJECT
100
AcDbCircle
 10
21.49762280251851
 20
9.113921098196193
 30
0.0
 40
0.1575
100
AcDbArc
 50
270.0
 51
0.0
  0
TEXT
  5
61E
330
1E
100
AcDbEntity
  8
DIM
100
AcDbText
 10
24.2507502286487
 20
19.42479043480041
 30
0.0
 40
0.46875
  1
THREADED BRASS INSERT
 41
0.75
 11
24.2507502286487
 21
19.65916543480041
 31
0.0
100
AcDbText
 73
     2
  0
TEXT
  5
61F
330
1E
100
AcDbEntity
  8
DIM
100
AcDbText
 10
24.2507502286487
 20
20.9872904348004
 30
0.0
 40
0.46875
  1
0.590 [15] DIA. BOSS
 41
0.75
 11
24.2507502286487
 21
21.2216654348004
 31
0.0
100
AcDbText
 73
     2
  0
TEXT
  5
620
330
1E
100
AcDbEntity
  8
DIM
100
AcDbText
 10
24.2507502286487
 20
18.64354043480041
 30
0.0
 40
0.46875
  1
(4) PLACES (FAR SIDE)
 41
0.75
 11
24.2507502286487
 21
18.87791543480041
 31
0.0
100
AcDbText
 73
     2
  0
TEXT
  5
621
330
1E
100
AcDbEntity
  8
DIM
100
AcDbText
 10
24.2507502286487
 20
20.2060404348004
 30
0.0
 40
0.46875
  1
WITH M5 x 0.8mm
 41
0.75
 11
24.2507502286487
 21
20.4404154348004
 31
0.0
100
AcDbText
 73
     2
  0
LWPOLYLINE
  5
622
330
1E
100
AcDbEntity
  8
DIM
100
AcDbPolyline
 90
        4
 70
     0
 10
20.91102824252858
 20
18.73040340328714
 40
0.0
 41
0.253125
 10
21.43021865611096
 20
18.29904935561381
 40
0.0
 41
0.0
 10
23.26671708945265
 20
16.77324877832335
 40
0.0
 41
0.0
 10
23.94171708945266
 20
16.77324877832335
 40
0.0
 41
0.0
  0
LWPOLYLINE
  5
623
330
1E
100
AcDbEntity
  8
DIM
100
AcDbPolyline
 90
        4
 70
     0
 10
20.91102824252855
 20
14.27440340328714
 40
0.0
 41
0.253125
 10
21.43021865611093
 20
13.84304935561381
 40
0.0
 41
0.0
 10
23.26671708945262
 20
12.31724877832334
 40
0.0
 41
0.0
 10
23.94171708945263
 20
12.31724877832334
 40
0.0
 41
0.0
  0
LINE
  5
624
330
1E
100
AcDbEntity
  8
OBJECT
100
AcDbLine
 10
21.7141853025185
 20
18.45385859819621
 30
0.0
 11
21.7141853025185
 21
19.08598359819623
 31
0.0
  0
CIRCLE
  5
625
330
1E
100
AcDbEntity
  8
OBJECT
100
AcDbCircle
 10
20.68412280251851
 20
18.91892109819623
 30
0.0
 40
0.295
  0
CIRCLE
  5
626
330
1E
100
AcDbEntity
  8
HIDDEN
100
AcDbCircle
 10
20.68412280251851
 20
18.91892109819623
 30
0.0
 40
0.095
  0
CIRCLE
  5
627
330
1E
100
AcDbEntity
  8
OBJECT
100
AcDbCircle
 10
18.14512280251851
 20
18.91892109819623
 30
0.0
 40
0.0984375
  0
CIRCLE
  5
628
330
1E
100
AcDbEntity
  8
OBJECT
100
AcDbCircle
 10
18.14512280251851
 20
18.91892109819623
 30
0.0
 40
0.295
  0
CIRCLE
  5
629
330
1E
100
AcDbEntity
  8
HIDDEN
100
AcDbCircle
 10
15.60612280251852
 20
18.91892109819623
 30
0.0
 40
0.095
  0
LINE
  5
62A
330
1E
100
AcDbEntity
  8
OBJECT
100
AcDbLine
 10
14.57606030251853
 20
18.45385859819621
 30
0.0
 11
14.57606030251853
 21
19.08598359819623
 31
0.0
  0
CIRCLE
  5
62B
330
1E
100
AcDbEntity
  8
OBJECT
100
AcDbCircle
 10
15.6061228025185
 20
18.91892109819623
 30
0.0
 40
0.295
  0
DIMENSION
  5
62C
330
1E
100
AcDbEntity
  8
DIM
100
AcDbDimension
  2
*D15
 10
15.6061228025185
 20
21.41542242655377
 30
0.0
 11
18.14512280251851
 21
21.41542242655377
 31
0.0
 70
    32
  1
D
 71
     5
 42
5.078000000000002
  3
23NSTD
100
AcDbAlignedDimension
 13
20.68412280251851
 23
18.91892109819623
 33
0.0
 14
15.6061228025185
 24
18.91892109819623
 34
0.0
100
AcDbRotatedDimension
  0
LINE
  5
62D
330
1E
100
AcDbEntity
  8
OBJECT
100
AcDbLine
 10
20.33262280251851
 20
19.96942109819623
 30
0.0
 11
18.43485607344936
 21
15.05174933649303
 31
0.0
  0
LINE
  5
62E
330
1E
100
AcDbEntity
  8
OBJECT
100
AcDbLine
 10
18.3260586860484
 20
15.09373507121145
 30
0.0
 11
20.20762280251851
 21
19.96942109819623
 31
0.0
  0
LINE
  5
62F
330
1E
100
AcDbEntity
  8
OBJECT
100
AcDbLine
 10
16.08262280251851
 20
19.96942109819623
 30
0.0
 11
17.96418691898862
 21
15.09373507121145
 31
0.0
  0
LINE
  5
630
330
1E
100
AcDbEntity
  8
OBJECT
100
AcDbLine
 10
17.85538953158767
 20
15.05174933649303
 30
0.0
 11
15.95762280251851
 21
19.96942109819623
 31
0.0
  0
LINE
  5
631
330
1E
100
AcDbEntity
  8
CENTER
100
AcDbLine
 10
13.79319370565646
 20
14.46292109819623
 30
0.0
 11
22.42910512302631
 21
14.46292109819623
 31
0.0
  0
CIRCLE
  5
632
330
1E
100
AcDbEntity
  8
OBJECT
100
AcDbCircle
 10
15.6061228025185
 20
14.46292109819623
 30
0.0
 40
0.0984375
  0
CIRCLE
  5
633
330
1E
100
AcDbEntity
  8
OBJECT
100
AcDbCircle
 10
15.6061228025185
 20
14.46292109819623
 30
0.0
 40
0.295
  0
DIMENSION
  5
634
330
1E
100
AcDbEntity
  8
DIM
100
AcDbDimension
  2
*D16
 10
13.10227254998287
 20
18.91892109819623
 30
0.0
 11
13.10227254998287
 21
14.46292109819624
 31
0.0
 70
    32
  1
H
 71
     5
 42
8.911999999999999
  3
23NSTD
100
AcDbAlignedDimension
 13
15.6061228025185
 23
10.00692109819623
 33
0.0
 14
15.6061228025185
 24
18.91892109819623
 34
0.0
 50
90.0
100
AcDbRotatedDimension
  0
LINE
  5
635
330
1E
100
AcDbEntity
  8
OBJECT
100
AcDbLine
 10
14.57606030251853
 20
10.47198359819623
 30
0.0
 11
14.63512280251852
 21
10.41292109819624
 31
0.0
  0
LINE
  5
636
330
1E
100
AcDbEntity
  8
OBJECT
100
AcDbLine
 10
14.57606030251853
 20
18.45385859819621
 30
0.0
 11
14.63512280251851
 21
18.51292109819621
 31
0.0
  0
CIRCLE
  5
637
330
1E
100
AcDbEntity
  8
OBJECT
100
AcDbCircle
 10
15.60612280251852
 20
18.91892109819623
 30
0.0
 40
0.0825
  0
CIRCLE
  5
638
330
1E
100
AcDbEntity
  8
OBJECT
100
AcDbCircle
 10
20.68412280251848
 20
14.46292109819623
 30
0.0
 40
0.295
  0
CIRCLE
  5
639
330
1E
100
AcDbEntity
  8
OBJECT
100
AcDbCircle
 10
20.68412280251848
 20
14.46292109819623
 30
0.0
 40
0.0984375
  0
CIRCLE
  5
63A
330
1E
100
AcDbEntity
  8
OBJECT
100
AcDbCircle
 10
18.14512280251851
 20
14.46292109819623
 30
0.0
 40
0.59375
  0
CIRCLE
  5
63B
330
1E
100
AcDbEntity
  8
OBJECT
100
AcDbCircle
 10
18.14512280251851
 20
14.46292109819623
 30
0.0
 40
0.65625
  0
LINE
  5
63C
330
1E
100
AcDbEntity
  8
OBJECT
100
AcDbLine
 10
21.7141853025185
 20
10.47198359819623
 30
0.0
 11
21.65512280251851
 21
10.41292109819624
 31
0.0
  0
CIRCLE
  5
63D
330
1E
100
AcDbEntity
  8
OBJECT
100
AcDbCircle
 10
20.68412280251851
 20
18.91892109819623
 30
0.0
 40
0.0825
  0
LINE
  5
63E
330
1E
100
AcDbEntity
  8
OBJECT
100
AcDbLine
 10
21.7141853025185
 20
18.45385859819621
 30
0.0
 11
21.65512280251851
 21
18.51292109819621
 31
0.0
  0
LINE
  5
63F
330
1E
100
AcDbEntity
  8
OBJECT
100
AcDbLine
 10
14.79262280251852
 20
20.20567109819623
 30
0.0
 11
21.49762280251851
 21
20.20567109819623
 31
0.0
  0
LINE
  5
640
330
1E
100
AcDbEntity
  8
OBJECT
100
AcDbLine
 10
14.79262280251852
 20
20.12692109819623
 30
0.0
 11
21.49762280251851
 21
20.12692109819623
 31
0.0
  0
LINE
  5
641
330
1E
100
AcDbEntity
  8
OBJECT
100
AcDbLine
 10
14.79262280251852
 20
19.96942109819623
 30
0.0
 11
21.49762280251851
 21
19.96942109819623
 31
0.0
  0
DIMENSION
  5
642
330
1E
100
AcDbEntity
  8
DIM
100
AcDbDimension
  2
*D17
 10
15.15212280251851
 20
22.36368062610796
 30
0.0
 11
18.14512280251851
 21
22.36368062610796
 31
0.0
 70
    32
  1
C
 71
     5
 42
5.986000000000004
  3
23NSTD
100
AcDbAlignedDimension
 13
21.13812280251852
 23
19.42342109819622
 33
0.0
 14
15.15212280251851
 24
19.42342109819622
 34
0.0
100
AcDbRotatedDimension
  0
LINE
  5
643
330
1E
100
AcDbEntity
  8
OBJECT
100
AcDbLine
 10
14.81074780251851
 20
20.36642109819622
 30
0.0
 11
21.47949780251853
 21
20.36642109819618
 31
0.0
  0
DIMENSION
  5
644
330
1E
100
AcDbEntity
  8
DIM
100
AcDbDimension
  2
*D18
 10
14.22012280251854
 20
24.28678869995236
 30
0.0
 11
18.14512280251852
 21
24.28678869995236
 31
0.0
 70
    32
  1
A
 71
     5
 42
7.849999999999965
  3
23NSTD
100
AcDbAlignedDimension
 13
22.0701228025185
 23
19.77579609819623
 33
0.0
 14
14.22012280251854
 24
19.77579609819623
 34
0.0
100
AcDbRotatedDimension
  0
DIMENSION
  5
645
330
1E
100
AcDbEntity
  8
DIM
100
AcDbDimension
  2
*D19
 10
14.63512280251852
 20
23.35859574228047
 30
0.0
 11
18.14512280251851
 21
23.35859574228047
 31
0.0
 70
    32
  1
B
 71
     5
 42
7.019999999999996
  3
23NSTD
100
AcDbAlignedDimension
 13
21.65512280251851
 23
19.81192109819623
 33
0.0
 14
14.63512280251852
 24
19.81192109819623
 34
0.0
100
AcDbRotatedDimension
  0
CIRCLE
  5
646
330
1E
100
AcDbEntity
  8
OBJECT
100
AcDbCircle
 10
15.15212280251851
 20
19.42342109819622
 30
0.0
 40
0.295
  0
ARC
  5
647
330
1E
100
AcDbEntity
  8
OBJECT
100
AcDbCircle
 10
14.79262280251852
 20
19.81192109819623
 30
0.0
 40
0.39375
100
AcDbArc
 50
90.0
 51
180.0
  0
ARC
  5
648
330
1E
100
AcDbEntity
  8
OBJECT
100
AcDbCircle
 10
14.79262280251852
 20
19.81192109819623
 30
0.0
 40
0.315
100
AcDbArc
 50
90.0
 51
180.0
  0
ARC
  5
649
330
1E
100
AcDbEntity
  8
OBJECT
100
AcDbCircle
 10
14.81074780251851
 20
19.77579609819623
 30
0.0
 40
0.590625
100
AcDbArc
 50
90.0
 51
180.0
  0
ARC
  5
64A
330
1E
100
AcDbEntity
  8
OBJECT
100
AcDbCircle
 10
14.79262280251852
 20
19.81192109819623
 30
0.0
 40
0.1575
100
AcDbArc
 50
90.0
 51
180.0
  0
LINE
  5
64B
330
1E
100
AcDbEntity
  8
OBJECT
100
AcDbLine
 10
14.57606030251853
 20
19.08598359819623
 30
0.0
 11
14.63512280251851
 21
19.02692109819622
 31
0.0
  0
ARC
  5
64E
330
1E
100
AcDbEntity
  8
OBJECT
100
AcDbCircle
 10
21.49762280251851
 20
19.81192109819623
 30
0.0
 40
0.315
100
AcDbArc
 50
0.0
 51
90.0
  0
ARC
  5
64F
330
1E
100
AcDbEntity
  8
OBJECT
100
AcDbCircle
 10
21.49762280251851
 20
19.81192109819623
 30
0.0
 40
0.39375
100
AcDbArc
 50
0.0
 51
90.0
  0
ARC
  5
650
330
1E
100
AcDbEntity
  8
OBJECT
100
AcDbCircle
 10
21.47949780251853
 20
19.77579609819623
 30
0.0
 40
0.590625
100
AcDbArc
 50
0.0
 51
90.0
  0
CIRCLE
  5
651
330
1E
100
AcDbEntity
  8
OBJECT
100
AcDbCircle
 10
21.13812280251852
 20
19.42342109819622
 30
0.0
 40
0.295
  0
ARC
  5
652
330
1E
100
AcDbEntity
  8
OBJECT
100
AcDbCircle
 10
21.49762280251851
 20
19.81192109819623
 30
0.0
 40
0.1575
100
AcDbArc
 50
0.0
 51
90.0
  0
LINE
  5
654
330
1E
100
AcDbEntity
  8
OBJECT
100
AcDbLine
 10
21.7141853025185
 20
19.08598359819623
 30
0.0
 11
21.65512280251851
 21
19.02692109819622
 31
0.0
  0
TEXT
  5
656
330
1E
100
AcDbEntity
  8
DIM
100
AcDbText
 10
24.27921708945265
 20
14.97637377832335
 30
0.0
 40
0.46875
  1
THREADED BRASS INSERT
 41
0.75
 11
24.27921708945265
 21
15.21074877832335
 31
0.0
100
AcDbText
 73
     2
  0
TEXT
  5
657
330
1E
100
AcDbEntity
  8
DIM
100
AcDbText
 10
24.27921708945265
 20
16.53887377832335
 30
0.0
 40
0.46875
  1
0.590 [15] DIA. BOSS
 41
0.75
 11
24.27921708945265
 21
16.77324877832335
 31
0.0
100
AcDbText
 73
     2
  0
TEXT
  5
658
330
1E
100
AcDbEntity
  8
DIM
100
AcDbText
 10
24.27921708945262
 20
12.08287377832334
 30
0.0
 40
0.46875
  1
0.590 [15] DIA. BOSS WITH
 41
0.75
 11
24.27921708945262
 21
12.31724877832334
 31
0.0
100
AcDbText
 73
     2
  0
TEXT
  5
659
330
1E
100
AcDbEntity
  8
DIM
100
AcDbText
 10
24.27921708945262
 20
11.30162377832335
 30
0.0
 40
0.46875
  1
0.197 [5] DIA. HOLE x
 41
0.75
 11
24.27921708945262
 21
11.53599877832335
 31
0.0
100
AcDbText
 73
     2
  0
TEXT
  5
65A
330
1E
100
AcDbEntity
  8
DIM
100
AcDbText
 10
24.27921708945265
 20
14.19512377832335
 30
0.0
 40
0.46875
  1
(4) PLACES
 41
0.75
 11
24.27921708945265
 21
14.42949877832335
 31
0.0
100
AcDbText
 73
     2
  0
TEXT
  5
65B
330
1E
100
AcDbEntity
  8
DIM
100
AcDbText
 10
24.27921708945262
 20
10.52037377832335
 30
0.0
 40
0.46875
  1
0.395 [10] DEEP (4) PLACES
 41
0.75
 11
24.27921708945262
 21
10.75474877832335
 31
0.0
100
AcDbText
 73
     2
  0
TEXT
  5
65C
330
1E
100
AcDbEntity
  8
DIM
100
AcDbText
 10
24.27921708945265
 20
15.75762377832335
 30
0.0
 40
0.46875
  1
WITH M5 x 0.8mm
 41
0.75
 11
24.27921708945265
 21
15.99199877832335
 31
0.0
100
AcDbText
 73
     2
  0
TEXT
  5
65D
330
1E
100
AcDbEntity
  8
DIM
100
AcDbText
 10
33.65374819334835
 20
26.84963380819658
 30
0.0
 40
0.5
  1
(INSIDE)
 41
0.75
 72
     1
 11
34.84124819334835
 21
27.09963380819658
 31
0.0
100
AcDbText
 73
     2
  0
TEXT
  5
65E
330
1E
100
AcDbEntity
  8
TEXT
100
AcDbText
 10
2.713402890173369
 20
41.55194557234906
 30
0.0
 40
0.4703626720183486
  1
URETHANE GASKET.
 41
0.75
100
AcDbText
  0
TEXT
  5
65F
330
1E
100
AcDbEntity
  8
TEXT
100
AcDbText
 10
32.5637163062616
 20
-0.6568055499926886
 30
0.0
 40
0.4687500000018751
  1
Revised 26JUN07
 41
0.75
 72
     1
 11
34.99535693127133
 21
-0.6568055499926886
 31
0.0
100
AcDbText
  0
TEXT
  5
660
330
1E
100
AcDbEntity
  8
DIM
100
AcDbText
 10
24.27921708945262
 20
8.17662377832336
 30
0.0
 40
0.46875
  1
x 0.375 [9] LG. (NOT SUPPLIED)
 41
0.75
 11
24.27921708945262
 21
8.41099877832336
 31
0.0
100
AcDbText
 73
     2
  0
TEXT
  5
661
330
1E
100
AcDbEntity
  8
DIM
100
AcDbText
 10
24.27921708945262
 20
8.95787377832336
 30
0.0
 40
0.46875
  1
0.250" STD. SHEET METAL SCREWS
 41
0.75
 11
24.27921708945262
 21
9.19224877832336
 31
0.0
100
AcDbText
 73
     2
  0
ENDSEC
  0
SECTION
  2
OBJECTS
  0
DICTIONARY
  5
C
330
0
100
AcDbDictionary
281
     1
  3
ACAD_GROUP
350
D
  3
ACAD_LAYOUT
350
19
  3
ACAD_MLINESTYLE
350
16
  3
ACAD_PLOTSETTINGS
350
18
  3
ACAD_PLOTSTYLENAME
350
E
  3
AcadDim
350
56
  0
DICTIONARY
  5
D
102
{ACAD_REACTORS
330
C
102
}
330
C
100
AcDbDictionary
281
     1
  0
DICTIONARY
  5
19
102
{ACAD_REACTORS
330
C
102
}
330
C
100
AcDbDictionary
281
     1
  3
Layout1
350
1D
  3
Model
350
21
  0
DICTIONARY
  5
16
102
{ACAD_REACTORS
330
C
102
}
330
C
100
AcDbDictionary
281
     1
  3
Standard
350
17
  0
DICTIONARY
  5
18
102
{ACAD_REACTORS
330
C
102
}
330
C
100
AcDbDictionary
281
     1
  0
ACDBDICTIONARYWDFLT
  5
E
102
{ACAD_REACTORS
330
C
102
}
330
C
100
AcDbDictionary
281
     1
  3
Normal
350
F
100
AcDbDictionaryWithDefault
340
F
  0
XRECORD
  5
56
102
{ACAD_REACTORS
330
C
102
}
330
C
100
AcDbXrecord
280
     1
 90
   990106
  3

 60
     0
 61
     0
 62
     1
 63
     1
 64
     0
 65
     0
 66
     0
 67
     3
 68
     1
 69
     0
 70
     0
 71
     0
 72
     0
 40
0.0
170
     2
  0
LAYOUT
  5
1D
102
{ACAD_REACTORS
330
19
102
}
330
19
100
AcDbPlotSettings
  1

  2
C:\Program Files\ACAD2000\plotters\DWF ePlot.pc3
  4

  6

 40
0.0
 41
0.0
 42
0.0
 43
0.0
 44
0.0
 45
0.0
 46
0.0
 47
0.0
 48
0.0
 49
0.0
140
0.0
141
0.0
142
1.0
143
1.0
 70
   688
 72
     0
 73
     0
 74
     5
  7
monochrome.ctb
 75
    16
147
1.0
148
0.0
149
0.0
100
AcDbLayout
  1
Layout1
 70
     1
 71
     1
 10
0.0
 20
0.0
 11
12.0
 21
9.0
 12
0.0
 22
0.0
 32
0.0
 14
1.000000000000000E+20
 24
1.000000000000000E+20
 34
1.000000000000000E+20
 15
-1.000000000000000E+20
 25
-1.000000000000000E+20
 35
-1.000000000000000E+20
146
0.0
 13
0.0
 23
0.0
 33
0.0
 16
1.0
 26
0.0
 36
0.0
 17
0.0
 27
1.0
 37
0.0
 76
     0
330
1A
  0
LAYOUT
  5
21
102
{ACAD_REACTORS
330
19
102
}
330
19
100
AcDbPlotSettings
  1

  2
RICOH Aficio 1060 PCL 6
  4
Letter
  6

 40
5.027083396911621
 41
5.027085304260253
 42
5.027084350585937
 43
5.027069091796875
 44
215.8999938964843
 45
279.3999938964843
 46
16.002
 47
0.0
 48
0.0
 49
0.0
140
0.0
141
0.0
142
1.0
143
5.543612601401948
 70
 11956
 72
     0
 73
     0
 74
     1
  7
monochrome.ctb
 75
     0
147
0.180387785349053
148
0.0294145647920431
149
16.72842200348844
100
AcDbLayout
  1
Model
 70
     1
 71
     0
 10
0.0
 20
0.0
 11
12.0
 21
9.0
 12
0.0
 22
0.0
 32
0.0
 14
0.0
 24
0.0
 34
0.0
 15
0.0
 25
0.0
 35
0.0
146
0.0
 13
0.0
 23
0.0
 33
0.0
 16
1.0
 26
0.0
 36
0.0
 17
0.0
 27
1.0
 37
0.0
 76
     0
330
1E
  0
MLINESTYLE
  5
17
102
{ACAD_REACTORS
330
16
102
}
330
16
100
AcDbMlineStyle
  2
STANDARD
 70
     0
  3

 62
   256
 51
90.0
 52
90.0
 71
     2
 49
0.5
 62
   256
  6
BYLAYER
 49
-0.5
 62
   256
  6
BYLAYER
  0
ACDBPLACEHOLDER
  5
F
102
{ACAD_REACTORS
330
E
102
}
330
E
  0
ENDSEC
  0
EOF
