  0
SECTION
  2
HEADER
  9
$ACADVER
  1
AC1015
  9
$ACADMAINTVER
 70
     6
  9
$DWGCODEPAGE
  3
ANSI_1252
  9
$INSBASE
 10
0.0
 20
0.0
 30
0.0
  9
$EXTMIN
 10
-0.0011580537319702
 20
-0.6883140839304076
 30
-0.0000000000000153
  9
$EXTMAX
 10
37.9511582304504
 20
58.12679492207239
 30
0.0
  9
$LIMMIN
 10
0.0
 20
0.0
  9
$LIMMAX
 10
37.95
 20
58.125
  9
$ORTHOMODE
 70
     1
  9
$REGENMODE
 70
     1
  9
$FILLMODE
 70
     1
  9
$QTEXTMODE
 70
     0
  9
$MIRRTEXT
 70
     0
  9
$LTSCALE
 40
0.75
  9
$ATTMODE
 70
     1
  9
$TEXTSIZE
 40
0.5
  9
$TRACEWID
 40
0.05
  9
$TEXTSTYLE
  7
TXT
  9
$CLAYER
  8
OBJECT
  9
$CELTYPE
  6
ByLayer
  9
$CECOLOR
 62
   256
  9
$CELTSCALE
 40
1.0
  9
$DISPSILH
 70
     0
  9
$DIMSCALE
 40
3.75
  9
$DIMASZ
 40
0.18
  9
$DIMEXO
 40
0.063
  9
$DIMDLI
 40
0.25
  9
$DIMRND
 40
0.0
  9
$DIMDLE
 40
0.0
  9
$DIMEXE
 40
0.093
  9
$DIMTP
 40
0.0
  9
$DIMTM
 40
0.0
  9
$DIMTXT
 40
0.125
  9
$DIMCEN
 40
0.09
  9
$DIMTSZ
 40
0.0
  9
$DIMTOL
 70
     0
  9
$DIMLIM
 70
     0
  9
$DIMTIH
 70
     1
  9
$DIMTOH
 70
     1
  9
$DIMSE1
 70
     0
  9
$DIMSE2
 70
     0
  9
$DIMTAD
 70
     0
  9
$DIMZIN
 70
     0
  9
$DIMBLK
  1

  9
$DIMASO
 70
     1
  9
$DIMSHO
 70
     1
  9
$DIMPOST
  1

  9
$DIMAPOST
  1

  9
$DIMALT
 70
     1
  9
$DIMALTD
 70
     0
  9
$DIMALTF
 40
25.4
  9
$DIMLFAC
 40
1.0
  9
$DIMTOFL
 70
     0
  9
$DIMTVP
 40
0.0
  9
$DIMTIX
 70
     0
  9
$DIMSOXD
 70
     0
  9
$DIMSAH
 70
     0
  9
$DIMBLK1
  1

  9
$DIMBLK2
  1

  9
$DIMSTYLE
  2
23NSTD
  9
$DIMCLRD
 70
     0
  9
$DIMCLRE
 70
     0
  9
$DIMCLRT
 70
     0
  9
$DIMTFAC
 40
1.0
  9
$DIMGAP
 40
0.09
  9
$DIMJUST
 70
     0
  9
$DIMSD1
 70
     0
  9
$DIMSD2
 70
     0
  9
$DIMTOLJ
 70
     1
  9
$DIMTZIN
 70
     0
  9
$DIMALTZ
 70
     0
  9
$DIMALTTZ
 70
     0
  9
$DIMUPT
 70
     0
  9
$DIMDEC
 70
     3
  9
$DIMTDEC
 70
     3
  9
$DIMALTU
 70
     2
  9
$DIMALTTD
 70
     0
  9
$DIMTXSTY
  7
TXT
  9
$DIMAUNIT
 70
     0
  9
$DIMADEC
 70
     0
  9
$DIMALTRND
 40
0.0
  9
$DIMAZIN
 70
     0
  9
$DIMDSEP
 70
    46
  9
$DIMATFIT
 70
     1
  9
$DIMFRAC
 70
     0
  9
$DIMLDRBLK
  1

  9
$DIMLUNIT
 70
     2
  9
$DIMLWD
 70
    -2
  9
$DIMLWE
 70
    -2
  9
$DIMTMOVE
 70
     0
  9
$LUNITS
 70
     2
  9
$LUPREC
 70
     3
  9
$SKETCHINC
 40
0.1
  9
$FILLETRAD
 40
0.0
  9
$AUNITS
 70
     0
  9
$AUPREC
 70
     0
  9
$MENU
  1
acad
  9
$ELEVATION
 40
0.0
  9
$PELEVATION
 40
0.0
  9
$THICKNESS
 40
0.0
  9
$LIMCHECK
 70
     0
  9
$CHAMFERA
 40
0.0
  9
$CHAMFERB
 40
0.0
  9
$CHAMFERC
 40
0.0
  9
$CHAMFERD
 40
0.0
  9
$SKPOLY
 70
     0
  9
$TDCREATE
 40
2451093.394631365
  9
$TDUCREATE
 40
2451093.561298032
  9
$TDUPDATE
 40
2454306.449384398
  9
$TDUUPDATE
 40
2454306.616051064
  9
$TDINDWG
 40
0.1392033912
  9
$TDUSRTIMER
 40
0.1392033912
  9
$USRTIMER
 70
     1
  9
$ANGBASE
 50
0.0
  9
$ANGDIR
 70
     0
  9
$PDMODE
 70
     0
  9
$PDSIZE
 40
0.0
  9
$PLINEWID
 40
0.0
  9
$SPLFRAME
 70
     0
  9
$SPLINETYPE
 70
     6
  9
$SPLINESEGS
 70
     8
  9
$HANDSEED
  5
789
  9
$SURFTAB1
 70
     6
  9
$SURFTAB2
 70
     6
  9
$SURFTYPE
 70
     6
  9
$SURFU
 70
     6
  9
$SURFV
 70
     6
  9
$UCSBASE
  2

  9
$UCSNAME
  2

  9
$UCSORG
 10
0.0
 20
0.0
 30
0.0
  9
$UCSXDIR
 10
1.0
 20
0.0
 30
0.0
  9
$UCSYDIR
 10
0.0
 20
1.0
 30
0.0
  9
$UCSORTHOREF
  2

  9
$UCSORTHOVIEW
 70
     0
  9
$UCSORGTOP
 10
0.0
 20
0.0
 30
0.0
  9
$UCSORGBOTTOM
 10
0.0
 20
0.0
 30
0.0
  9
$UCSORGLEFT
 10
0.0
 20
0.0
 30
0.0
  9
$UCSORGRIGHT
 10
0.0
 20
0.0
 30
0.0
  9
$UCSORGFRONT
 10
0.0
 20
0.0
 30
0.0
  9
$UCSORGBACK
 10
0.0
 20
0.0
 30
0.0
  9
$PUCSBASE
  2

  9
$PUCSNAME
  2

  9
$PUCSORG
 10
0.0
 20
0.0
 30
0.0
  9
$PUCSXDIR
 10
1.0
 20
0.0
 30
0.0
  9
$PUCSYDIR
 10
0.0
 20
1.0
 30
0.0
  9
$PUCSORTHOREF
  2

  9
$PUCSORTHOVIEW
 70
     0
  9
$PUCSORGTOP
 10
0.0
 20
0.0
 30
0.0
  9
$PUCSORGBOTTOM
 10
0.0
 20
0.0
 30
0.0
  9
$PUCSORGLEFT
 10
0.0
 20
0.0
 30
0.0
  9
$PUCSORGRIGHT
 10
0.0
 20
0.0
 30
0.0
  9
$PUCSORGFRONT
 10
0.0
 20
0.0
 30
0.0
  9
$PUCSORGBACK
 10
0.0
 20
0.0
 30
0.0
  9
$USERI1
 70
     0
  9
$USERI2
 70
     0
  9
$USERI3
 70
     0
  9
$USERI4
 70
     0
  9
$USERI5
 70
     0
  9
$USERR1
 40
0.0
  9
$USERR2
 40
0.0
  9
$USERR3
 40
0.0
  9
$USERR4
 40
0.0
  9
$USERR5
 40
0.0
  9
$WORLDVIEW
 70
     0
  9
$SHADEDGE
 70
     3
  9
$SHADEDIF
 70
    70
  9
$TILEMODE
 70
     1
  9
$MAXACTVP
 70
    16
  9
$PINSBASE
 10
0.0
 20
0.0
 30
0.0
  9
$PLIMCHECK
 70
     0
  9
$PEXTMIN
 10
1.000000000000000E+20
 20
1.000000000000000E+20
 30
1.000000000000000E+20
  9
$PEXTMAX
 10
-1.000000000000000E+20
 20
-1.000000000000000E+20
 30
-1.000000000000000E+20
  9
$PLIMMIN
 10
0.0
 20
0.0
  9
$PLIMMAX
 10
12.0
 20
9.0
  9
$UNITMODE
 70
     0
  9
$VISRETAIN
 70
     0
  9
$PLINEGEN
 70
     0
  9
$PSLTSCALE
 70
     1
  9
$TREEDEPTH
 70
  3020
  9
$CMLSTYLE
  2
Standard
  9
$CMLJUST
 70
     0
  9
$CMLSCALE
 40
1.0
  9
$PROXYGRAPHICS
 70
     1
  9
$MEASUREMENT
 70
     0
  9
$CELWEIGHT
370
    -1
  9
$ENDCAPS
280
     0
  9
$JOINSTYLE
280
     0
  9
$LWDISPLAY
290
     0
  9
$INSUNITS
 70
     0
  9
$HYPERLINKBASE
  1

  9
$STYLESHEET
  1
monochrome.ctb
  9
$XEDIT
290
     1
  9
$CEPSNTYPE
380
     0
  9
$PSTYLEMODE
290
     1
  9
$FINGERPRINTGUID
  2
{11400B11-2F67-49E5-914A-D50AB13463D0}
  9
$VERSIONGUID
  2
{C95A233B-56DA-42B6-8EB1-57A234404CE5}
  9
$EXTNAMES
290
     1
  9
$PSVPSCALE
 40
0.0
  9
$OLESTARTUP
290
     0
  0
ENDSEC
  0
SECTION
  2
CLASSES
  0
CLASS
  1
ACDBDICTIONARYWDFLT
  2
AcDbDictionaryWithDefault
  3
AutoCAD 2000
 90
        0
280
     0
281
     0
  0
CLASS
  1
ACDBPLACEHOLDER
  2
AcDbPlaceHolder
  3
AutoCAD 2000
 90
        0
280
     0
281
     0
  0
CLASS
  1
LAYOUT
  2
AcDbLayout
  3
AutoCAD 2000
 90
        0
280
     0
281
     0
  0
ENDSEC
  0
SECTION
  2
TABLES
  0
TABLE
  2
VPORT
  5
8
330
0
100
AcDbSymbolTable
 70
     2
  0
VPORT
  5
788
330
8
100
AcDbSymbolTableRecord
100
AcDbViewportTableRecord
  2
*Active
 70
     0
 10
0.0
 20
0.0
 11
1.0
 21
1.0
 12
18.97355263167834
 22
28.72106401823935
 13
0.0
 23
0.0
 14
1.0
 24
1.0
 15
0.5
 25
0.5
 16
0.0
 26
0.0
 36
1.0
 17
0.0
 27
0.0
 37
0.0
 40
59.4049734810056
 41
1.824707846410684
 42
50.0
 43
0.0
 44
0.0
 50
0.0
 51
0.0
 71
     0
 72
   100
 73
     1
 74
     0
 75
     0
 76
     0
 77
     0
 78
     0
281
     0
 65
     1
110
0.0
120
0.0
130
0.0
111
1.0
121
0.0
131
0.0
112
0.0
122
1.0
132
0.0
 79
     0
146
0.0
  0
ENDTAB
  0
TABLE
  2
LTYPE
  5
5
330
0
100
AcDbSymbolTable
 70
     4
  0
LTYPE
  5
13
330
5
100
AcDbSymbolTableRecord
100
AcDbLinetypeTableRecord
  2
ByBlock
 70
     0
  3

 72
    65
 73
     0
 40
0.0
  0
LTYPE
  5
14
330
5
100
AcDbSymbolTableRecord
100
AcDbLinetypeTableRecord
  2
ByLayer
 70
     0
  3

 72
    65
 73
     0
 40
0.0
  0
LTYPE
  5
15
330
5
100
AcDbSymbolTableRecord
100
AcDbLinetypeTableRecord
  2
CONTINUOUS
 70
     0
  3
Solid line
 72
    65
 73
     0
 40
0.0
  0
LTYPE
  5
57
330
5
100
AcDbSymbolTableRecord
100
AcDbLinetypeTableRecord
  2
PHANTOM
 70
     0
  3
_____ _ _ _____ _ _ _____ _ _ _____ _ _ ____
 72
    65
 73
     6
 40
2.5
 49
1.25
 74
     0
 49
-0.25
 74
     0
 49
0.25
 74
     0
 49
-0.25
 74
     0
 49
0.25
 74
     0
 49
-0.25
 74
     0
  0
LTYPE
  5
58
330
5
100
AcDbSymbolTableRecord
100
AcDbLinetypeTableRecord
  2
CENTER
 70
     0
  3
____ _ ____ _ ____ _ ____ _ ____ _ ____ _ ____
 72
    65
 73
     4
 40
2.0
 49
1.25
 74
     0
 49
-0.25
 74
     0
 49
0.25
 74
     0
 49
-0.25
 74
     0
  0
LTYPE
  5
59
330
5
100
AcDbSymbolTableRecord
100
AcDbLinetypeTableRecord
  2
HIDDEN2
 70
     0
  3
_ _ _ _ _ _ _ _ _ _ _ _ _ _ _ _ _ _ _ _ _ _ _ _
 72
    65
 73
     2
 40
0.1875
 49
0.125
 74
     0
 49
-0.0625
 74
     0
  0
ENDTAB
  0
TABLE
  2
LAYER
  5
2
330
0
100
AcDbSymbolTable
 70
     9
  0
LAYER
  5
10
330
2
100
AcDbSymbolTableRecord
100
AcDbLayerTableRecord
  2
0
 70
     0
 62
     7
  6
CONTINUOUS
370
    -3
390
F
  0
LAYER
  5
5D
330
2
100
AcDbSymbolTableRecord
100
AcDbLayerTableRecord
  2
OBJECT
 70
     0
 62
     7
  6
CONTINUOUS
370
    -3
390
F
  0
LAYER
  5
5E
330
2
100
AcDbSymbolTableRecord
100
AcDbLayerTableRecord
  2
DIM
 70
     0
 62
     7
  6
CONTINUOUS
370
    -3
390
F
  0
LAYER
  5
5F
330
2
100
AcDbSymbolTableRecord
100
AcDbLayerTableRecord
  2
HIDDEN
 70
     0
 62
     7
  6
HIDDEN2
370
    -3
390
F
  0
LAYER
  5
60
330
2
100
AcDbSymbolTableRecord
100
AcDbLayerTableRecord
  2
BEND
 70
     0
 62
     7
  6
PHANTOM
370
    -3
390
F
  0
LAYER
  5
61
330
2
100
AcDbSymbolTableRecord
100
AcDbLayerTableRecord
  2
TEXT
 70
     0
 62
     7
  6
CONTINUOUS
370
    -3
390
F
  0
LAYER
  5
62
330
2
100
AcDbSymbolTableRecord
100
AcDbLayerTableRecord
  2
TITLE
 70
     0
 62
     7
  6
CONTINUOUS
370
    -3
390
F
  0
LAYER
  5
63
330
2
100
AcDbSymbolTableRecord
100
AcDbLayerTableRecord
  2
CENTER
 70
     0
 62
     7
  6
CENTER
370
    -3
390
F
  0
LAYER
  5
64
330
2
100
AcDbSymbolTableRecord
100
AcDbLayerTableRecord
  2
DEFPOINTS
 70
     0
 62
     7
  6
CONTINUOUS
290
     0
370
    -3
390
F
  0
ENDTAB
  0
TABLE
  2
STYLE
  5
3
330
0
100
AcDbSymbolTable
 70
     2
  0
STYLE
  5
11
330
3
100
AcDbSymbolTableRecord
100
AcDbTextStyleTableRecord
  2
STANDARD
 70
     0
 40
0.0
 41
1.0
 50
0.0
 71
     0
 42
0.2
  3
txt
  4

  0
STYLE
  5
56
330
3
100
AcDbSymbolTableRecord
100
AcDbTextStyleTableRecord
  2
TXT
 70
     0
 40
0.0
 41
0.75
 50
0.0
 71
     0
 42
0.5
  3
TXT.shx
  4

  0
ENDTAB
  0
TABLE
  2
VIEW
  5
6
330
0
100
AcDbSymbolTable
 70
     0
  0
ENDTAB
  0
TABLE
  2
UCS
  5
7
330
0
100
AcDbSymbolTable
 70
     0
  0
ENDTAB
  0
TABLE
  2
APPID
  5
9
330
0
100
AcDbSymbolTable
 70
     1
  0
APPID
  5
12
330
9
100
AcDbSymbolTableRecord
100
AcDbRegAppTableRecord
  2
ACAD
 70
     0
  0
ENDTAB
  0
TABLE
  2
DIMSTYLE
  5
A
330
0
100
AcDbSymbolTable
 70
     1
100
AcDbDimStyleTable
 71
     1
340
5C
  0
DIMSTYLE
105
5C
102
{ACAD_REACTORS
330
215
330
216
330
217
330
218
330
219
330
21A
330
21B
330
21C
330
21D
330
21E
330
21F
330
220
330
228
330
261
330
27F
330
280
330
281
102
}
330
A
100
AcDbSymbolTableRecord
100
AcDbDimStyleTableRecord
  2
23NSTD
 70
     0
 40
3.75
 42
0.063
 43
0.25
 44
0.093
140
0.125
170
     1
171
     0
271
     3
272
     3
274
     0
289
     1
340
56
  0
ENDTAB
  0
TABLE
  2
BLOCK_RECORD
  5
1
330
0
100
AcDbSymbolTable
 70
    20
  0
BLOCK_RECORD
  5
1E
330
1
100
AcDbSymbolTableRecord
100
AcDbBlockTableRecord
  2
*Model_Space
340
21
  0
BLOCK_RECORD
  5
1A
330
1
100
AcDbSymbolTableRecord
100
AcDbBlockTableRecord
  2
*Paper_Space
340
1D
  0
BLOCK_RECORD
  5
22
330
1
100
AcDbSymbolTableRecord
100
AcDbBlockTableRecord
  2
HB
340
0
102
{BLKREFS
331
299
102
}
  0
BLOCK_RECORD
  5
23
330
1
100
AcDbSymbolTableRecord
100
AcDbBlockTableRecord
  2
*X1
340
0
102
{BLKREFS
331
623
102
}
  0
BLOCK_RECORD
  5
24
330
1
100
AcDbSymbolTableRecord
100
AcDbBlockTableRecord
  2
*X2
340
0
102
{BLKREFS
331
624
102
}
  0
BLOCK_RECORD
  5
681
330
1
100
AcDbSymbolTableRecord
100
AcDbBlockTableRecord
  2
*D3
340
0
  0
BLOCK_RECORD
  5
68E
330
1
100
AcDbSymbolTableRecord
100
AcDbBlockTableRecord
  2
*D4
340
0
  0
BLOCK_RECORD
  5
69B
330
1
100
AcDbSymbolTableRecord
100
AcDbBlockTableRecord
  2
*D5
340
0
  0
BLOCK_RECORD
  5
6A8
330
1
100
AcDbSymbolTableRecord
100
AcDbBlockTableRecord
  2
*D6
340
0
  0
BLOCK_RECORD
  5
6B5
330
1
100
AcDbSymbolTableRecord
100
AcDbBlockTableRecord
  2
*D7
340
0
  0
BLOCK_RECORD
  5
6C2
330
1
100
AcDbSymbolTableRecord
100
AcDbBlockTableRecord
  2
*D8
340
0
  0
BLOCK_RECORD
  5
6CF
330
1
100
AcDbSymbolTableRecord
100
AcDbBlockTableRecord
  2
*D9
340
0
  0
BLOCK_RECORD
  5
6DC
330
1
100
AcDbSymbolTableRecord
100
AcDbBlockTableRecord
  2
*D10
340
0
  0
BLOCK_RECORD
  5
6E9
330
1
100
AcDbSymbolTableRecord
100
AcDbBlockTableRecord
  2
*D11
340
0
  0
BLOCK_RECORD
  5
6F6
330
1
100
AcDbSymbolTableRecord
100
AcDbBlockTableRecord
  2
*D12
340
0
  0
BLOCK_RECORD
  5
703
330
1
100
AcDbSymbolTableRecord
100
AcDbBlockTableRecord
  2
*D13
340
0
  0
BLOCK_RECORD
  5
710
330
1
100
AcDbSymbolTableRecord
100
AcDbBlockTableRecord
  2
*D14
340
0
  0
BLOCK_RECORD
  5
71D
330
1
100
AcDbSymbolTableRecord
100
AcDbBlockTableRecord
  2
*D15
340
0
  0
BLOCK_RECORD
  5
72A
330
1
100
AcDbSymbolTableRecord
100
AcDbBlockTableRecord
  2
*D16
340
0
  0
BLOCK_RECORD
  5
737
330
1
100
AcDbSymbolTableRecord
100
AcDbBlockTableRecord
  2
*D17
340
0
  0
BLOCK_RECORD
  5
744
330
1
100
AcDbSymbolTableRecord
100
AcDbBlockTableRecord
  2
*D18
340
0
  0
BLOCK_RECORD
  5
751
330
1
100
AcDbSymbolTableRecord
100
AcDbBlockTableRecord
  2
*D19
340
0
  0
ENDTAB
  0
ENDSEC
  0
SECTION
  2
BLOCKS
  0
BLOCK
  5
67
330
1E
100
AcDbEntity
  8
0
100
AcDbBlockBegin
  2
*Model_Space
 70
     0
 10
0.0
 20
0.0
 30
0.0
  3
*Model_Space
  1

  0
ENDBLK
  5
68
330
1E
100
AcDbEntity
  8
0
100
AcDbBlockEnd
  0
BLOCK
  5
65
330
1A
100
AcDbEntity
 67
     1
  8
0
100
AcDbBlockBegin
  2
*Paper_Space
 70
     0
 10
0.0
 20
0.0
 30
0.0
  3
*Paper_Space
  1

  0
ENDBLK
  5
66
330
1A
100
AcDbEntity
 67
     1
  8
0
100
AcDbBlockEnd
  0
BLOCK
  5
69
330
22
100
AcDbEntity
  8
0
100
AcDbBlockBegin
  2
HB
 70
     0
 10
0.0
 20
0.0
 30
0.0
  3
HB
  1

  0
TEXT
  5
6A
330
22
100
AcDbEntity
  8
TEXT
100
AcDbText
 10
0.2078333333333363
 20
15.06007919564008
 30
0.0
 40
0.125
  1
NAME
  7
TXT
 72
     1
 11
0.437000000000003
 21
15.06007919564008
 31
0.0
100
AcDbText
  0
TEXT
  5
6C
330
22
100
AcDbEntity
  8
TEXT
100
AcDbText
 10
0.2078333333333363
 20
15.26841252897341
 30
0.0
 40
0.125
  1
PART
  7
TXT
 72
     1
 11
0.437000000000003
 21
15.26841252897341
 31
0.0
100
AcDbText
  0
TEXT
  5
6D
330
22
100
AcDbEntity
  8
TEXT
100
AcDbText
 10
5.371999999999998
 20
15.06007919564008
 30
0.0
 40
0.125
  1
No.
  7
TXT
 72
     1
 11
5.496999999999998
 21
15.06007919564008
 31
0.0
100
AcDbText
  0
TEXT
  5
6E
330
22
100
AcDbEntity
  8
TEXT
100
AcDbText
 10
5.267833333333331
 20
15.26841252897341
 30
0.0
 40
0.125
  1
PART
  7
TXT
 72
     1
 11
5.496999999999998
 21
15.26841252897341
 31
0.0
100
AcDbText
  0
LINE
  5
6F
330
22
100
AcDbEntity
  8
TITLE
100
AcDbLine
 10
5.872000000000001
 20
15.438
 30
0.0
 11
5.872000000000001
 21
15.01999999999999
 31
0.0
  0
LINE
  5
70
330
22
100
AcDbEntity
  8
TITLE
100
AcDbLine
 10
5.122000000000001
 20
15.438
 30
0.0
 11
5.122000000000001
 21
15.01999999999999
 31
0.0
  0
LINE
  5
71
330
22
100
AcDbEntity
  8
TITLE
100
AcDbLine
 10
5.06
 20
15.438
 30
0.0
 11
5.06
 21
15.01999999999999
 31
0.0
  0
LINE
  5
72
330
22
100
AcDbEntity
  8
TITLE
100
AcDbLine
 10
0.8120000000000029
 20
15.01999999999999
 30
0.0
 11
0.8120000000000011
 21
15.438
 31
0.0
  0
LINE
  5
73
330
22
100
AcDbEntity
  8
TITLE
100
AcDbLine
 10
0.0620000000000012
 20
15.01999999999999
 30
0.0
 11
10.058
 21
15.01999999999999
 31
0.0
  0
LINE
  5
74
330
22
100
AcDbEntity
  8
TITLE
100
AcDbLine
 10
10.058
 20
0.0619999999999994
 30
0.0
 11
0.0619999999999976
 21
0.0620000000000012
 31
0.0
  0
LINE
  5
75
330
22
100
AcDbEntity
  8
TITLE
100
AcDbLine
 10
10.058
 20
15.438
 30
0.0
 11
10.058
 21
0.0619999999999994
 31
0.0
  0
LINE
  5
76
330
22
100
AcDbEntity
  8
TITLE
100
AcDbLine
 10
0.0620000000000012
 20
15.438
 30
0.0
 11
10.058
 21
15.438
 31
0.0
  0
LINE
  5
77
330
22
100
AcDbEntity
  8
TITLE
100
AcDbLine
 10
0.0619999999999976
 20
0.0620000000000012
 30
0.0
 11
0.0620000000000012
 21
15.438
 31
0.0
  0
LINE
  5
78
330
22
100
AcDbEntity
  8
TITLE
100
AcDbLine
 10
0.0
 20
0.0
 30
0.0
 11
0.0
 21
15.5
 31
0.0
  0
LINE
  5
79
330
22
100
AcDbEntity
  8
TITLE
100
AcDbLine
 10
10.12
 20
-0.0000000000000018
 30
0.0
 11
0.0
 21
0.0
 31
0.0
  0
LINE
  5
7A
330
22
100
AcDbEntity
  8
TITLE
100
AcDbLine
 10
10.12
 20
15.49999999999999
 30
0.0
 11
10.12
 21
-0.0000000000000018
 31
0.0
  0
LINE
  5
7B
330
22
100
AcDbEntity
  8
TITLE
100
AcDbLine
 10
0.0
 20
15.5
 30
0.0
 11
10.12
 21
15.49999999999999
 31
0.0
  0
ENDBLK
  5
7C
330
22
100
AcDbEntity
  8
0
100
AcDbBlockEnd
  0
BLOCK
  5
7D
330
23
100
AcDbEntity
  8
0
100
AcDbBlockBegin
  2
*X1
 70
     1
 10
0.0
 20
0.0
 30
0.0
  3
*X1
  1

  0
LINE
  5
7E
330
23
100
AcDbEntity
  8
0
 62
     0
100
AcDbLine
 10
21.29296709424401
 20
34.55121924149178
 30
0.0
 11
21.44996709424401
 21
34.70821924149178
 31
0.0
  0
LINE
  5
7F
330
23
100
AcDbEntity
  8
0
 62
     0
100
AcDbLine
 10
21.29296709424401
 20
34.72799593678842
 30
0.0
 11
21.44996709424401
 21
34.88499593678842
 31
0.0
  0
LINE
  5
80
330
23
100
AcDbEntity
  8
0
 62
     0
100
AcDbLine
 10
21.29296709424401
 20
34.90477263208506
 30
0.0
 11
21.44996709424401
 21
35.06177263208505
 31
0.0
  0
LINE
  5
81
330
23
100
AcDbEntity
  8
0
 62
     0
100
AcDbLine
 10
21.29296709424401
 20
35.08154932738169
 30
0.0
 11
21.44996709424401
 21
35.23854932738169
 31
0.0
  0
LINE
  5
82
330
23
100
AcDbEntity
  8
0
 62
     0
100
AcDbLine
 10
21.29296709424401
 20
35.25832602267833
 30
0.0
 11
21.44996709424401
 21
35.41532602267833
 31
0.0
  0
LINE
  5
83
330
23
100
AcDbEntity
  8
0
 62
     0
100
AcDbLine
 10
21.29296709424401
 20
35.43510271797497
 30
0.0
 11
21.44996709424401
 21
35.59210271797496
 31
0.0
  0
LINE
  5
84
330
23
100
AcDbEntity
  8
0
 62
     0
100
AcDbLine
 10
21.29296709424401
 20
35.6118794132716
 30
0.0
 11
21.44996709424401
 21
35.7688794132716
 31
0.0
  0
LINE
  5
85
330
23
100
AcDbEntity
  8
0
 62
     0
100
AcDbLine
 10
21.29296709424401
 20
35.78865610856824
 30
0.0
 11
21.44996709424401
 21
35.94565610856824
 31
0.0
  0
LINE
  5
86
330
23
100
AcDbEntity
  8
0
 62
     0
100
AcDbLine
 10
21.29296709424401
 20
35.96543280386487
 30
0.0
 11
21.44996709424401
 21
36.12243280386487
 31
0.0
  0
LINE
  5
87
330
23
100
AcDbEntity
  8
0
 62
     0
100
AcDbLine
 10
21.29296709424401
 20
36.14220949916151
 30
0.0
 11
21.44996709424401
 21
36.29920949916151
 31
0.0
  0
LINE
  5
88
330
23
100
AcDbEntity
  8
0
 62
     0
100
AcDbLine
 10
21.29296709424401
 20
36.31898619445815
 30
0.0
 11
21.44996709424401
 21
36.47598619445815
 31
0.0
  0
LINE
  5
89
330
23
100
AcDbEntity
  8
0
 62
     0
100
AcDbLine
 10
21.29296709424401
 20
36.49576288975479
 30
0.0
 11
21.44996709424401
 21
36.65276288975479
 31
0.0
  0
LINE
  5
8A
330
23
100
AcDbEntity
  8
0
 62
     0
100
AcDbLine
 10
21.29296709424401
 20
36.67253958505142
 30
0.0
 11
21.44996709424401
 21
36.82953958505142
 31
0.0
  0
LINE
  5
8B
330
23
100
AcDbEntity
  8
0
 62
     0
100
AcDbLine
 10
21.29296709424401
 20
36.84931628034806
 30
0.0
 11
21.44996709424401
 21
37.00631628034805
 31
0.0
  0
LINE
  5
8C
330
23
100
AcDbEntity
  8
0
 62
     0
100
AcDbLine
 10
21.29296709424401
 20
37.0260929756447
 30
0.0
 11
21.44996709424401
 21
37.1830929756447
 31
0.0
  0
LINE
  5
8D
330
23
100
AcDbEntity
  8
0
 62
     0
100
AcDbLine
 10
21.29296709424401
 20
37.20286967094134
 30
0.0
 11
21.44996709424401
 21
37.35986967094133
 31
0.0
  0
LINE
  5
8E
330
23
100
AcDbEntity
  8
0
 62
     0
100
AcDbLine
 10
21.29296709424401
 20
37.37964636623797
 30
0.0
 11
21.44996709424401
 21
37.53664636623797
 31
0.0
  0
LINE
  5
8F
330
23
100
AcDbEntity
  8
0
 62
     0
100
AcDbLine
 10
21.29296709424401
 20
37.55642306153461
 30
0.0
 11
21.44996709424401
 21
37.7134230615346
 31
0.0
  0
LINE
  5
90
330
23
100
AcDbEntity
  8
0
 62
     0
100
AcDbLine
 10
21.29296709424401
 20
37.73319975683124
 30
0.0
 11
21.44996709424401
 21
37.89019975683124
 31
0.0
  0
LINE
  5
91
330
23
100
AcDbEntity
  8
0
 62
     0
100
AcDbLine
 10
21.29296709424401
 20
37.90997645212788
 30
0.0
 11
21.44996709424401
 21
38.06697645212788
 31
0.0
  0
LINE
  5
92
330
23
100
AcDbEntity
  8
0
 62
     0
100
AcDbLine
 10
21.29296709424401
 20
38.08675314742452
 30
0.0
 11
21.40645841564397
 21
38.20024446882447
 31
0.0
  0
LINE
  5
93
330
23
100
AcDbEntity
  8
0
 62
     0
100
AcDbLine
 10
21.29296709424401
 20
34.37444254619514
 30
0.0
 11
21.44996709424401
 21
34.53144254619514
 31
0.0
  0
LINE
  5
94
330
23
100
AcDbEntity
  8
0
 62
     0
100
AcDbLine
 10
21.29296709424401
 20
34.19766585089851
 30
0.0
 11
21.44996709424401
 21
34.3546658508985
 31
0.0
  0
LINE
  5
95
330
23
100
AcDbEntity
  8
0
 62
     0
100
AcDbLine
 10
21.29296709424401
 20
34.02088915560188
 30
0.0
 11
21.44996709424401
 21
34.17788915560187
 31
0.0
  0
LINE
  5
96
330
23
100
AcDbEntity
  8
0
 62
     0
100
AcDbLine
 10
21.29296709424401
 20
33.84411246030524
 30
0.0
 11
21.44996709424401
 21
34.00111246030523
 31
0.0
  0
LINE
  5
97
330
23
100
AcDbEntity
  8
0
 62
     0
100
AcDbLine
 10
21.29296709424401
 20
33.6673357650086
 30
0.0
 11
21.44996709424401
 21
33.8243357650086
 31
0.0
  0
LINE
  5
98
330
23
100
AcDbEntity
  8
0
 62
     0
100
AcDbLine
 10
21.29296709424401
 20
33.49055906971196
 30
0.0
 11
21.44996709424401
 21
33.64755906971196
 31
0.0
  0
LINE
  5
99
330
23
100
AcDbEntity
  8
0
 62
     0
100
AcDbLine
 10
21.29296709424401
 20
33.31378237441532
 30
0.0
 11
21.44996709424401
 21
33.47078237441532
 31
0.0
  0
LINE
  5
9A
330
23
100
AcDbEntity
  8
0
 62
     0
100
AcDbLine
 10
21.29296709424402
 20
33.13700567911869
 30
0.0
 11
21.44996709424401
 21
33.29400567911868
 31
0.0
  0
LINE
  5
9B
330
23
100
AcDbEntity
  8
0
 62
     0
100
AcDbLine
 10
21.29296709424402
 20
32.96022898382205
 30
0.0
 11
21.44996709424401
 21
33.11722898382205
 31
0.0
  0
LINE
  5
9C
330
23
100
AcDbEntity
  8
0
 62
     0
100
AcDbLine
 10
21.29426960008103
 20
32.78475479436243
 30
0.0
 11
21.44996709424401
 21
32.94045228852541
 31
0.0
  0
LINE
  5
9D
330
23
100
AcDbEntity
  8
0
 62
     0
100
AcDbLine
 10
21.34633548605813
 20
32.66004398504289
 30
0.0
 11
21.46382321398625
 21
32.77753171297101
 31
0.0
  0
LINE
  5
9E
330
23
100
AcDbEntity
  8
0
 62
     0
100
AcDbLine
 10
21.45013809495935
 20
32.58706989864747
 30
0.0
 11
21.59591824601345
 21
32.73285004970157
 31
0.0
  0
LINE
  5
9F
330
23
100
AcDbEntity
  8
0
 62
     0
100
AcDbLine
 10
21.61002778833256
 20
32.57018289672405
 30
0.0
 11
21.76493953120997
 21
32.72509463960146
 31
0.0
  0
LINE
  5
A0
330
23
100
AcDbEntity
  8
0
 62
     0
100
AcDbLine
 10
21.78018404096467
 20
32.56356245405952
 30
0.0
 11
21.93396081640649
 21
32.71733922950135
 31
0.0
  0
LINE
  5
A1
330
23
100
AcDbEntity
  8
0
 62
     0
100
AcDbLine
 10
21.95034029359678
 20
32.55694201139499
 30
0.0
 11
22.10298210160301
 21
32.70958381940123
 31
0.0
  0
LINE
  5
A2
330
23
100
AcDbEntity
  8
0
 62
     0
100
AcDbLine
 10
22.12049654622889
 20
32.55032156873046
 30
0.0
 11
22.27200338679954
 21
32.70182840930111
 31
0.0
  0
LINE
  5
A3
330
23
100
AcDbEntity
  8
0
 62
     0
100
AcDbLine
 10
22.164217094244
 20
32.41726542144894
 30
0.0
 11
22.27921709424401
 21
32.53226542144895
 31
0.0
  0
LINE
  5
A4
330
23
100
AcDbEntity
  8
0
 62
     0
100
AcDbLine
 10
22.37019614161952
 20
32.62324446882447
 30
0.0
 11
22.44102467199606
 21
32.694072999201
 31
0.0
  0
LINE
  5
A5
330
23
100
AcDbEntity
  8
0
 62
     0
100
AcDbLine
 10
22.23609885692108
 20
32.31237048882938
 30
0.0
 11
22.37697283691616
 21
32.45324446882446
 31
0.0
  0
LINE
  5
A6
330
23
100
AcDbEntity
  8
0
 62
     0
100
AcDbLine
 10
22.41287555221771
 20
32.31237048882938
 30
0.0
 11
22.479217094244
 21
32.37871203085566
 31
0.0
  0
ENDBLK
  5
A7
330
23
100
AcDbEntity
  8
0
100
AcDbBlockEnd
  0
BLOCK
  5
A8
330
24
100
AcDbEntity
  8
0
100
AcDbBlockBegin
  2
*X2
 70
     1
 10
0.0
 20
0.0
 30
0.0
  3
*X2
  1

  0
LINE
  5
A9
330
24
100
AcDbEntity
  8
0
 62
     0
100
AcDbLine
 10
27.97134407197467
 20
32.66306241477177
 30
0.0
 11
27.81172154296013
 21
32.8226849437863
 31
0.0
  0
LINE
  5
AA
330
24
100
AcDbEntity
  8
0
 62
     0
100
AcDbLine
 10
27.79836232666006
 20
32.65926746478973
 30
0.0
 11
27.63873832589838
 21
32.81889146555142
 31
0.0
  0
LINE
  5
AB
330
24
100
AcDbEntity
  8
0
 62
     0
100
AcDbLine
 10
27.62538058134547
 20
32.6554725148077
 30
0.0
 11
27.46575510883663
 21
32.81509798731654
 31
0.0
  0
LINE
  5
AC
330
24
100
AcDbEntity
  8
0
 62
     0
100
AcDbLine
 10
27.45239883603087
 20
32.65167756482567
 30
0.0
 11
27.29277189177488
 21
32.81130450908166
 31
0.0
  0
LINE
  5
AD
330
24
100
AcDbEntity
  8
0
 62
     0
100
AcDbLine
 10
27.27941709071627
 20
32.64788261484363
 30
0.0
 11
27.11978867471312
 21
32.80751103084677
 31
0.0
  0
LINE
  5
AE
330
24
100
AcDbEntity
  8
0
 62
     0
100
AcDbLine
 10
27.10643534540166
 20
32.64408766486159
 30
0.0
 11
26.94680545765137
 21
32.80371755261188
 31
0.0
  0
LINE
  5
AF
330
24
100
AcDbEntity
  8
0
 62
     0
100
AcDbLine
 10
26.93345360008706
 20
32.64029271487955
 30
0.0
 11
26.77382224058962
 21
32.799924074377
 31
0.0
  0
LINE
  5
B0
330
24
100
AcDbEntity
  8
0
 62
     0
100
AcDbLine
 10
26.76047185477246
 20
32.63649776489752
 30
0.0
 11
26.60083902352786
 21
32.79613059614212
 31
0.0
  0
LINE
  5
B1
330
24
100
AcDbEntity
  8
0
 62
     0
100
AcDbLine
 10
26.58749010945786
 20
32.63270281491548
 30
0.0
 11
26.42785580646611
 21
32.79233711790723
 31
0.0
  0
LINE
  5
B2
330
24
100
AcDbEntity
  8
0
 62
     0
100
AcDbLine
 10
26.41450836414326
 20
32.62890786493344
 30
0.0
 11
26.25487258940436
 21
32.78854363967235
 31
0.0
  0
LINE
  5
B3
330
24
100
AcDbEntity
  8
0
 62
     0
100
AcDbLine
 10
26.24152661882866
 20
32.6251129149514
 30
0.0
 11
26.08188937234261
 21
32.78475016143746
 31
0.0
  0
LINE
  5
B4
330
24
100
AcDbEntity
  8
0
 62
     0
100
AcDbLine
 10
26.06854487351406
 20
32.62131796496937
 30
0.0
 11
25.90890615528085
 21
32.78095668320258
 31
0.0
  0
LINE
  5
B5
330
24
100
AcDbEntity
  8
0
 62
     0
100
AcDbLine
 10
25.89556312819946
 20
32.61752301498734
 30
0.0
 11
25.7359229382191
 21
32.7771632049677
 31
0.0
  0
LINE
  5
B6
330
24
100
AcDbEntity
  8
0
 62
     0
100
AcDbLine
 10
25.72258138288486
 20
32.6137280650053
 30
0.0
 11
25.56293972115735
 21
32.77336972673281
 31
0.0
  0
LINE
  5
B7
330
24
100
AcDbEntity
  8
0
 62
     0
100
AcDbLine
 10
25.54959963757026
 20
32.60993311502327
 30
0.0
 11
25.38995650409559
 21
32.76957624849793
 31
0.0
  0
LINE
  5
B8
330
24
100
AcDbEntity
  8
0
 62
     0
100
AcDbLine
 10
25.37661789225566
 20
32.60613816504123
 30
0.0
 11
25.21697328703384
 21
32.76578277026305
 31
0.0
  0
LINE
  5
B9
330
24
100
AcDbEntity
  8
0
 62
     0
100
AcDbLine
 10
25.20363614694106
 20
32.60234321505919
 30
0.0
 11
25.04399006997209
 21
32.76198929202816
 31
0.0
  0
LINE
  5
BA
330
24
100
AcDbEntity
  8
0
 62
     0
100
AcDbLine
 10
25.03065440162646
 20
32.59854826507715
 30
0.0
 11
24.87100685291034
 21
32.75819581379328
 31
0.0
  0
LINE
  5
BB
330
24
100
AcDbEntity
  8
0
 62
     0
100
AcDbLine
 10
24.85767265631185
 20
32.59475331509511
 30
0.0
 11
24.69802363584858
 21
32.75440233555839
 31
0.0
  0
LINE
  5
BC
330
24
100
AcDbEntity
  8
0
 62
     0
100
AcDbLine
 10
24.68469091099725
 20
32.59095836511308
 30
0.0
 11
24.52504041878682
 21
32.75060885732351
 31
0.0
  0
LINE
  5
BD
330
24
100
AcDbEntity
  8
0
 62
     0
100
AcDbLine
 10
24.51170916568266
 20
32.58716341513104
 30
0.0
 11
24.35205720172508
 21
32.74681537908863
 31
0.0
  0
LINE
  5
BE
330
24
100
AcDbEntity
  8
0
 62
     0
100
AcDbLine
 10
24.33872742036806
 20
32.58336846514901
 30
0.0
 11
24.17907398466332
 21
32.74302190085375
 31
0.0
  0
LINE
  5
BF
330
24
100
AcDbEntity
  8
0
 62
     0
100
AcDbLine
 10
24.16574567505346
 20
32.57957351516697
 30
0.0
 11
24.00609076760157
 21
32.73922842261885
 31
0.0
  0
LINE
  5
C0
330
24
100
AcDbEntity
  8
0
 62
     0
100
AcDbLine
 10
23.99276392973885
 20
32.57577856518494
 30
0.0
 11
23.83310755053981
 21
32.73543494438397
 31
0.0
  0
LINE
  5
C1
330
24
100
AcDbEntity
  8
0
 62
     0
100
AcDbLine
 10
23.81978218442425
 20
32.5719836152029
 30
0.0
 11
23.66012433347806
 21
32.73164146614909
 31
0.0
  0
LINE
  5
C2
330
24
100
AcDbEntity
  8
0
 62
     0
100
AcDbLine
 10
23.64680043910965
 20
32.56818866522086
 30
0.0
 11
23.48714111641631
 21
32.72784798791421
 31
0.0
  0
LINE
  5
C3
330
24
100
AcDbEntity
  8
0
 62
     0
100
AcDbLine
 10
23.47381869379505
 20
32.56439371523883
 30
0.0
 11
23.31415789935456
 21
32.72405450967932
 31
0.0
  0
LINE
  5
C4
330
24
100
AcDbEntity
  8
0
 62
     0
100
AcDbLine
 10
23.30083694848045
 20
32.56059876525679
 30
0.0
 11
23.1411746822928
 21
32.72026103144444
 31
0.0
  0
LINE
  5
C5
330
24
100
AcDbEntity
  8
0
 62
     0
100
AcDbLine
 10
23.12785520316585
 20
32.55680381527475
 30
0.0
 11
22.96819146523105
 21
32.71646755320955
 31
0.0
  0
LINE
  5
C6
330
24
100
AcDbEntity
  8
0
 62
     0
100
AcDbLine
 10
22.95487345785125
 20
32.55300886529271
 30
0.0
 11
22.7952082481693
 21
32.71267407497467
 31
0.0
  0
LINE
  5
C7
330
24
100
AcDbEntity
  8
0
 62
     0
100
AcDbLine
 10
22.78189171253665
 20
32.54921391531068
 30
0.0
 11
22.62222503110755
 21
32.70888059673978
 31
0.0
  0
LINE
  5
C8
330
24
100
AcDbEntity
  8
0
 62
     0
100
AcDbLine
 10
22.75484209424401
 20
32.39948683830668
 30
0.0
 11
22.479217094244
 21
32.6751118383067
 31
0.0
  0
LINE
  5
C9
330
24
100
AcDbEntity
  8
0
 62
     0
100
AcDbLine
 10
22.69330776842958
 20
32.28424446882449
 30
0.0
 11
22.42930776842958
 21
32.54824446882448
 31
0.0
  0
LINE
  5
CA
330
24
100
AcDbEntity
  8
0
 62
     0
100
AcDbLine
 10
22.51653107313294
 20
32.28424446882449
 30
0.0
 11
22.479217094244
 21
32.32155844771342
 31
0.0
  0
LINE
  5
CB
330
24
100
AcDbEntity
  8
0
 62
     0
100
AcDbLine
 10
28.14432581728927
 20
32.6668573647538
 30
0.0
 11
27.98470476002189
 21
32.82647842202119
 31
0.0
  0
LINE
  5
CC
330
24
100
AcDbEntity
  8
0
 62
     0
100
AcDbLine
 10
27.76571241037732
 20
33.04547077166577
 30
0.0
 11
27.76071709424402
 21
33.05046608779905
 31
0.0
  0
LINE
  5
CD
330
24
100
AcDbEntity
  8
0
 62
     0
100
AcDbLine
 10
28.29871709424402
 20
32.6892427830957
 30
0.0
 11
28.12239874465671
 21
32.865561132683
 31
0.0
  0
LINE
  5
CE
330
24
100
AcDbEntity
  8
0
 62
     0
100
AcDbLine
 10
27.98646625947733
 20
33.00149361786238
 30
0.0
 11
27.76071709424401
 21
33.2272427830957
 31
0.0
  0
LINE
  5
CF
330
24
100
AcDbEntity
  8
0
 62
     0
100
AcDbLine
 10
28.29871709424402
 20
32.86601947839233
 30
0.0
 11
28.0199921038119
 21
33.14474446882445
 31
0.0
  0
LINE
  5
D0
330
24
100
AcDbEntity
  8
0
 62
     0
100
AcDbLine
 10
27.87884209424401
 20
33.28589447839235
 30
0.0
 11
27.76071709424401
 21
33.40401947839233
 31
0.0
  0
LINE
  5
D1
330
24
100
AcDbEntity
  8
0
 62
     0
100
AcDbLine
 10
28.37846709424399
 20
32.96304617368898
 30
0.0
 11
28.19676879910853
 21
33.14474446882445
 31
0.0
  0
LINE
  5
D2
330
24
100
AcDbEntity
  8
0
 62
     0
100
AcDbLine
 10
27.79437438078824
 20
33.54713888714475
 30
0.0
 11
27.76071709424401
 21
33.58079617368898
 31
0.0
  0
LINE
  5
D3
330
24
100
AcDbEntity
  8
0
 62
     0
100
AcDbLine
 10
28.00676879910853
 20
33.33474446882445
 30
0.0
 11
27.89340310534103
 21
33.44811016259195
 31
0.0
  0
LINE
  5
D4
330
24
100
AcDbEntity
  8
0
 62
     0
100
AcDbLine
 10
28.378467094244
 20
33.13982286898562
 30
0.0
 11
28.37354549440517
 21
33.14474446882446
 31
0.0
  0
LINE
  5
D5
330
24
100
AcDbEntity
  8
0
 62
     0
100
AcDbLine
 10
27.99383031582268
 20
33.52445964740694
 30
0.0
 11
27.86904549440517
 21
33.64924446882446
 31
0.0
  0
LINE
  5
D6
330
24
100
AcDbEntity
  8
0
 62
     0
100
AcDbLine
 10
28.18354549440517
 20
33.33474446882445
 30
0.0
 11
28.05213150613951
 21
33.46615845709012
 31
0.0
  0
LINE
  5
D7
330
24
100
AcDbEntity
  8
0
 62
     0
100
AcDbLine
 10
28.36032218970181
 20
33.33474446882445
 30
0.0
 11
28.0458221897018
 21
33.64924446882446
 31
0.0
  0
LINE
  5
D8
330
24
100
AcDbEntity
  8
0
 62
     0
100
AcDbLine
 10
27.85582218970179
 20
33.83924446882446
 30
0.0
 11
27.76071709424402
 21
33.93434956428224
 31
0.0
  0
LINE
  5
D9
330
24
100
AcDbEntity
  8
0
 62
     0
100
AcDbLine
 10
28.37846709424399
 20
33.49337625957891
 30
0.0
 11
28.22259888499845
 21
33.64924446882446
 31
0.0
  0
LINE
  5
DA
330
24
100
AcDbEntity
  8
0
 62
     0
100
AcDbLine
 10
28.03259888499843
 20
33.83924446882446
 30
0.0
 11
27.91195905795158
 21
33.95988429587132
 31
0.0
  0
LINE
  5
DB
330
24
100
AcDbEntity
  8
0
 62
     0
100
AcDbLine
 10
28.37846709424399
 20
33.67015295487554
 30
0.0
 11
28.25934209424401
 21
33.78927795487554
 31
0.0
  0
LINE
  5
DC
330
24
100
AcDbEntity
  8
0
 62
     0
100
AcDbLine
 10
28.20937558029507
 20
33.83924446882446
 30
0.0
 11
28.06596572486356
 21
33.98265432425597
 31
0.0
  0
LINE
  5
DD
330
24
100
AcDbEntity
  8
0
 62
     0
100
AcDbLine
 10
28.37846709424399
 20
33.84692965017218
 30
0.0
 11
28.15371709424401
 21
34.07167965017215
 31
0.0
  0
LINE
  5
DE
330
24
100
AcDbEntity
  8
0
 62
     0
100
AcDbLine
 10
28.37846709424399
 20
34.02370634546882
 30
0.0
 11
28.36292897088836
 21
34.03924446882445
 31
0.0
  0
LINE
  5
DF
330
24
100
AcDbEntity
  8
0
 62
     0
100
AcDbLine
 10
28.29871709424401
 20
34.1034563454688
 30
0.0
 11
28.15371709424401
 21
34.24845634546879
 31
0.0
  0
LINE
  5
E0
330
24
100
AcDbEntity
  8
0
 62
     0
100
AcDbLine
 10
28.29871709424401
 20
34.28023304076543
 30
0.0
 11
28.15371709424401
 21
34.42523304076543
 31
0.0
  0
LINE
  5
E1
330
24
100
AcDbEntity
  8
0
 62
     0
100
AcDbLine
 10
28.29871709424401
 20
34.45700973606207
 30
0.0
 11
28.15371709424401
 21
34.60200973606207
 31
0.0
  0
LINE
  5
E2
330
24
100
AcDbEntity
  8
0
 62
     0
100
AcDbLine
 10
28.29871709424401
 20
34.6337864313587
 30
0.0
 11
28.15371709424402
 21
34.7787864313587
 31
0.0
  0
LINE
  5
E3
330
24
100
AcDbEntity
  8
0
 62
     0
100
AcDbLine
 10
28.29871709424402
 20
34.81056312665534
 30
0.0
 11
28.15371709424402
 21
34.95556312665534
 31
0.0
  0
LINE
  5
E4
330
24
100
AcDbEntity
  8
0
 62
     0
100
AcDbLine
 10
28.29871709424402
 20
34.98733982195197
 30
0.0
 11
28.15371709424402
 21
35.13233982195198
 31
0.0
  0
LINE
  5
E5
330
24
100
AcDbEntity
  8
0
 62
     0
100
AcDbLine
 10
28.29871709424402
 20
35.16411651724861
 30
0.0
 11
28.15371709424402
 21
35.30911651724861
 31
0.0
  0
LINE
  5
E6
330
24
100
AcDbEntity
  8
0
 62
     0
100
AcDbLine
 10
28.29871709424402
 20
35.34089321254525
 30
0.0
 11
28.15371709424402
 21
35.48589321254524
 31
0.0
  0
LINE
  5
E7
330
24
100
AcDbEntity
  8
0
 62
     0
100
AcDbLine
 10
28.29871709424402
 20
35.51766990784188
 30
0.0
 11
28.15371709424402
 21
35.66266990784189
 31
0.0
  0
LINE
  5
E8
330
24
100
AcDbEntity
  8
0
 62
     0
100
AcDbLine
 10
28.29871709424402
 20
35.69444660313852
 30
0.0
 11
28.15371709424402
 21
35.83944660313852
 31
0.0
  0
LINE
  5
E9
330
24
100
AcDbEntity
  8
0
 62
     0
100
AcDbLine
 10
28.29871709424402
 20
35.87122329843515
 30
0.0
 11
28.15371709424402
 21
36.01622329843515
 31
0.0
  0
LINE
  5
EA
330
24
100
AcDbEntity
  8
0
 62
     0
100
AcDbLine
 10
28.29871709424402
 20
36.04799999373179
 30
0.0
 11
28.15371709424402
 21
36.19299999373179
 31
0.0
  0
LINE
  5
EB
330
24
100
AcDbEntity
  8
0
 62
     0
100
AcDbLine
 10
28.29871709424402
 20
36.22477668902843
 30
0.0
 11
28.15371709424402
 21
36.36977668902843
 31
0.0
  0
LINE
  5
EC
330
24
100
AcDbEntity
  8
0
 62
     0
100
AcDbLine
 10
28.29871709424402
 20
36.40155338432506
 30
0.0
 11
28.15371709424402
 21
36.54655338432506
 31
0.0
  0
LINE
  5
ED
330
24
100
AcDbEntity
  8
0
 62
     0
100
AcDbLine
 10
28.29871709424402
 20
36.5783300796217
 30
0.0
 11
28.15371709424402
 21
36.7233300796217
 31
0.0
  0
LINE
  5
EE
330
24
100
AcDbEntity
  8
0
 62
     0
100
AcDbLine
 10
28.29871709424402
 20
36.75510677491834
 30
0.0
 11
28.15371709424402
 21
36.90010677491834
 31
0.0
  0
LINE
  5
EF
330
24
100
AcDbEntity
  8
0
 62
     0
100
AcDbLine
 10
28.29871709424402
 20
36.93188347021497
 30
0.0
 11
28.15371709424402
 21
37.07688347021498
 31
0.0
  0
LINE
  5
F0
330
24
100
AcDbEntity
  8
0
 62
     0
100
AcDbLine
 10
28.29871709424402
 20
37.10866016551161
 30
0.0
 11
28.15371709424402
 21
37.25366016551161
 31
0.0
  0
LINE
  5
F1
330
24
100
AcDbEntity
  8
0
 62
     0
100
AcDbLine
 10
28.29871709424402
 20
37.28543686080824
 30
0.0
 11
28.15371709424402
 21
37.43043686080825
 31
0.0
  0
LINE
  5
F2
330
24
100
AcDbEntity
  8
0
 62
     0
100
AcDbLine
 10
28.29871709424402
 20
37.46221355610488
 30
0.0
 11
28.15371709424402
 21
37.60721355610488
 31
0.0
  0
LINE
  5
F3
330
24
100
AcDbEntity
  8
0
 62
     0
100
AcDbLine
 10
28.29871709424402
 20
37.63899025140151
 30
0.0
 11
28.15371709424402
 21
37.78399025140152
 31
0.0
  0
LINE
  5
F4
330
24
100
AcDbEntity
  8
0
 62
     0
100
AcDbLine
 10
27.9602412742845
 20
37.97746607136105
 30
0.0
 11
27.83596287682106
 21
38.10174446882448
 31
0.0
  0
LINE
  5
F5
330
24
100
AcDbEntity
  8
0
 62
     0
100
AcDbLine
 10
28.29871709424403
 20
37.81576694669815
 30
0.0
 11
28.0127395721177
 21
38.10174446882448
 31
0.0
  0
LINE
  5
F6
330
24
100
AcDbEntity
  8
0
 62
     0
100
AcDbLine
 10
28.37846709424404
 20
37.91279364199478
 30
0.0
 11
28.16071709424404
 21
38.13054364199478
 31
0.0
  0
LINE
  5
F7
330
24
100
AcDbEntity
  8
0
 62
     0
100
AcDbLine
 10
28.37846709424404
 20
38.08957033729143
 30
0.0
 11
28.26779296271098
 21
38.20024446882447
 31
0.0
  0
ENDBLK
  5
F8
330
24
100
AcDbEntity
  8
0
100
AcDbBlockEnd
  0
BLOCK
  5
68C
330
681
100
AcDbEntity
  8
0
100
AcDbBlockBegin
  2
*D3
 70
     1
 10
0.0
 20
0.0
 30
0.0
  3
*D3
  1

  0
LINE
  5
682
330
681
100
AcDbEntity
  8
DIM
 62
     0
370
    -2
100
AcDbLine
 10
6.146044834244323
 20
22.60890975094838
 30
0.0
 11
1.329328741777809
 21
22.60890975094838
 31
0.0
  0
LINE
  5
683
330
681
100
AcDbEntity
  8
DIM
 62
     0
370
    -2
100
AcDbLine
 10
6.146044834244294
 20
10.77690975094837
 30
0.0
 11
1.329328741777806
 21
10.77690975094838
 31
0.0
  0
LINE
  5
684
330
681
100
AcDbEntity
  8
DIM
 62
     0
370
    -2
100
AcDbLine
 10
1.678078741777808
 20
21.93390975094837
 30
0.0
 11
1.678078741777807
 21
17.26478475094837
 31
0.0
  0
LINE
  5
685
330
681
100
AcDbEntity
  8
DIM
 62
     0
370
    -2
100
AcDbLine
 10
1.678078741777806
 20
11.45190975094837
 30
0.0
 11
1.678078741777807
 21
16.12103475094837
 31
0.0
  0
SOLID
  5
686
330
681
100
AcDbEntity
  8
DIM
 62
     0
100
AcDbTrace
 10
1.565578741777808
 20
21.93390975094837
 30
0.0
 11
1.790578741777808
 21
21.93390975094837
 31
0.0
 12
1.678078741777809
 22
22.60890975094838
 32
0.0
 13
1.678078741777809
 23
22.60890975094838
 33
0.0
  0
SOLID
  5
687
330
681
100
AcDbEntity
  8
DIM
 62
     0
100
AcDbTrace
 10
1.565578741777806
 20
11.45190975094837
 30
0.0
 11
1.790578741777806
 21
11.45190975094837
 31
0.0
 12
1.678078741777806
 22
10.77690975094838
 32
0.0
 13
1.678078741777806
 23
10.77690975094838
 33
0.0
  0
MTEXT
  5
688
330
681
100
AcDbEntity
  8
DIM
 62
     0
100
AcDbMText
 10
1.678078741777805
 20
16.69290975094837
 30
0.0
 40
0.46875
 41
0.0
 71
     5
 72
     1
  1
\A1;E
  7
TXT
 73
     1
 44
1.0
  0
POINT
  5
689
330
681
100
AcDbEntity
  8
DEFPOINTS
 62
     0
100
AcDbPoint
 10
6.382294834244323
 20
22.60890975094838
 30
0.0
  0
POINT
  5
68A
330
681
100
AcDbEntity
  8
DEFPOINTS
 62
     0
100
AcDbPoint
 10
6.382294834244294
 20
10.77690975094837
 30
0.0
  0
POINT
  5
68B
330
681
100
AcDbEntity
  8
DEFPOINTS
 62
     0
100
AcDbPoint
 10
1.678078741777806
 20
10.77690975094838
 30
0.0
  0
ENDBLK
  5
68D
330
681
100
AcDbEntity
  8
0
100
AcDbBlockEnd
  0
BLOCK
  5
699
330
68E
100
AcDbEntity
  8
0
100
AcDbBlockBegin
  2
*D4
 70
     1
 10
0.0
 20
0.0
 30
0.0
  3
*D4
  1

  0
LINE
  5
68F
330
68E
100
AcDbEntity
  8
DIM
 62
     0
370
    -2
100
AcDbLine
 10
12.24066983424429
 20
21.36515975094837
 30
0.0
 11
12.24066983424429
 21
23.98216107930591
 31
0.0
  0
LINE
  5
690
330
68E
100
AcDbEntity
  8
DIM
 62
     0
370
    -2
100
AcDbLine
 10
7.190669834244292
 20
21.36515975094837
 30
0.0
 11
7.190669834244292
 21
23.98216107930591
 31
0.0
  0
LINE
  5
691
330
68E
100
AcDbEntity
  8
DIM
 62
     0
370
    -2
100
AcDbLine
 10
11.56566983424429
 20
23.63341107930591
 30
0.0
 11
10.17035733424429
 21
23.63341107930591
 31
0.0
  0
LINE
  5
692
330
68E
100
AcDbEntity
  8
DIM
 62
     0
370
    -2
100
AcDbLine
 10
7.865669834244292
 20
23.63341107930591
 30
0.0
 11
9.260982334244294
 21
23.63341107930591
 31
0.0
  0
SOLID
  5
693
330
68E
100
AcDbEntity
  8
DIM
 62
     0
100
AcDbTrace
 10
11.56566983424429
 20
23.74591107930591
 30
0.0
 11
11.56566983424429
 21
23.52091107930591
 31
0.0
 12
12.24066983424429
 22
23.63341107930591
 32
0.0
 13
12.24066983424429
 23
23.63341107930591
 33
0.0
  0
SOLID
  5
694
330
68E
100
AcDbEntity
  8
DIM
 62
     0
100
AcDbTrace
 10
7.865669834244292
 20
23.74591107930591
 30
0.0
 11
7.865669834244292
 21
23.52091107930591
 31
0.0
 12
7.190669834244292
 22
23.63341107930591
 32
0.0
 13
7.190669834244292
 23
23.63341107930591
 33
0.0
  0
MTEXT
  5
695
330
68E
100
AcDbEntity
  8
DIM
 62
     0
100
AcDbMText
 10
9.715669834244295
 20
23.63341107930591
 30
0.0
 40
0.46875
 41
0.0
 71
     5
 72
     1
  1
\A1;D
  7
TXT
 73
     1
 44
1.0
  0
POINT
  5
696
330
68E
100
AcDbEntity
  8
DEFPOINTS
 62
     0
100
AcDbPoint
 10
12.24066983424429
 20
21.12890975094837
 30
0.0
  0
POINT
  5
697
330
68E
100
AcDbEntity
  8
DEFPOINTS
 62
     0
100
AcDbPoint
 10
7.190669834244292
 20
21.12890975094837
 30
0.0
  0
POINT
  5
698
330
68E
100
AcDbEntity
  8
DEFPOINTS
 62
     0
100
AcDbPoint
 10
7.190669834244292
 20
23.63341107930591
 30
0.0
  0
ENDBLK
  5
69A
330
68E
100
AcDbEntity
  8
0
100
AcDbBlockEnd
  0
BLOCK
  5
6A6
330
69B
100
AcDbEntity
  8
0
100
AcDbBlockBegin
  2
*D5
 70
     1
 10
0.0
 20
0.0
 30
0.0
  3
*D5
  1

  0
LINE
  5
69C
330
69B
100
AcDbEntity
  8
DIM
 62
     0
370
    -2
100
AcDbLine
 10
12.71066983424429
 20
21.90365975094837
 30
0.0
 11
12.71066983424429
 21
24.91966107930591
 31
0.0
  0
LINE
  5
69D
330
69B
100
AcDbEntity
  8
DIM
 62
     0
370
    -2
100
AcDbLine
 10
6.720669834244294
 20
21.90365975094837
 30
0.0
 11
6.720669834244294
 21
24.91966107930591
 31
0.0
  0
LINE
  5
69E
330
69B
100
AcDbEntity
  8
DIM
 62
     0
370
    -2
100
AcDbLine
 10
12.03566983424429
 20
24.57091107930591
 30
0.0
 11
10.17035733424429
 21
24.57091107930591
 31
0.0
  0
LINE
  5
69F
330
69B
100
AcDbEntity
  8
DIM
 62
     0
370
    -2
100
AcDbLine
 10
7.395669834244293
 20
24.57091107930591
 30
0.0
 11
9.260982334244294
 21
24.57091107930591
 31
0.0
  0
SOLID
  5
6A0
330
69B
100
AcDbEntity
  8
DIM
 62
     0
100
AcDbTrace
 10
12.03566983424429
 20
24.68341107930591
 30
0.0
 11
12.03566983424429
 21
24.45841107930591
 31
0.0
 12
12.71066983424429
 22
24.57091107930591
 32
0.0
 13
12.71066983424429
 23
24.57091107930591
 33
0.0
  0
SOLID
  5
6A1
330
69B
100
AcDbEntity
  8
DIM
 62
     0
100
AcDbTrace
 10
7.395669834244293
 20
24.68341107930591
 30
0.0
 11
7.395669834244293
 21
24.45841107930591
 31
0.0
 12
6.720669834244294
 22
24.57091107930591
 32
0.0
 13
6.720669834244294
 23
24.57091107930591
 33
0.0
  0
MTEXT
  5
6A2
330
69B
100
AcDbEntity
  8
DIM
 62
     0
100
AcDbMText
 10
9.715669834244295
 20
24.57091107930591
 30
0.0
 40
0.46875
 41
0.0
 71
     5
 72
     1
  1
\A1;C
  7
TXT
 73
     1
 44
1.0
  0
POINT
  5
6A3
330
69B
100
AcDbEntity
  8
DEFPOINTS
 62
     0
100
AcDbPoint
 10
12.71066983424429
 20
21.66740975094837
 30
0.0
  0
POINT
  5
6A4
330
69B
100
AcDbEntity
  8
DEFPOINTS
 62
     0
100
AcDbPoint
 10
6.720669834244294
 20
21.66740975094837
 30
0.0
  0
POINT
  5
6A5
330
69B
100
AcDbEntity
  8
DEFPOINTS
 62
     0
100
AcDbPoint
 10
6.720669834244294
 20
24.57091107930591
 30
0.0
  0
ENDBLK
  5
6A7
330
69B
100
AcDbEntity
  8
0
100
AcDbBlockEnd
  0
BLOCK
  5
6B3
330
6A8
100
AcDbEntity
  8
0
100
AcDbBlockBegin
  2
*D6
 70
     1
 10
0.0
 20
0.0
 30
0.0
  3
*D6
  1

  0
LINE
  5
6A9
330
6A8
100
AcDbEntity
  8
DIM
 62
     0
370
    -2
100
AcDbLine
 10
13.22616983424429
 20
22.27815975094837
 30
0.0
 11
13.22616983424429
 21
25.85716107930591
 31
0.0
  0
LINE
  5
6AA
330
6A8
100
AcDbEntity
  8
DIM
 62
     0
370
    -2
100
AcDbLine
 10
6.205169834244298
 20
22.27815975094837
 30
0.0
 11
6.205169834244298
 21
25.85716107930591
 31
0.0
  0
LINE
  5
6AB
330
6A8
100
AcDbEntity
  8
DIM
 62
     0
370
    -2
100
AcDbLine
 10
12.55116983424429
 20
25.50841107930591
 30
0.0
 11
10.17035733424429
 21
25.50841107930591
 31
0.0
  0
LINE
  5
6AC
330
6A8
100
AcDbEntity
  8
DIM
 62
     0
370
    -2
100
AcDbLine
 10
6.880169834244298
 20
25.50841107930591
 30
0.0
 11
9.260982334244296
 21
25.50841107930591
 31
0.0
  0
SOLID
  5
6AD
330
6A8
100
AcDbEntity
  8
DIM
 62
     0
100
AcDbTrace
 10
12.55116983424429
 20
25.62091107930591
 30
0.0
 11
12.55116983424429
 21
25.39591107930591
 31
0.0
 12
13.22616983424429
 22
25.50841107930591
 32
0.0
 13
13.22616983424429
 23
25.50841107930591
 33
0.0
  0
SOLID
  5
6AE
330
6A8
100
AcDbEntity
  8
DIM
 62
     0
100
AcDbTrace
 10
6.880169834244298
 20
25.62091107930591
 30
0.0
 11
6.880169834244298
 21
25.39591107930591
 31
0.0
 12
6.205169834244298
 22
25.50841107930591
 32
0.0
 13
6.205169834244298
 23
25.50841107930591
 33
0.0
  0
MTEXT
  5
6AF
330
6A8
100
AcDbEntity
  8
DIM
 62
     0
100
AcDbMText
 10
9.715669834244296
 20
25.50841107930591
 30
0.0
 40
0.46875
 41
0.0
 71
     5
 72
     1
  1
\A1;B
  7
TXT
 73
     1
 44
1.0
  0
POINT
  5
6B0
330
6A8
100
AcDbEntity
  8
DEFPOINTS
 62
     0
100
AcDbPoint
 10
13.22616983424429
 20
22.04190975094837
 30
0.0
  0
POINT
  5
6B1
330
6A8
100
AcDbEntity
  8
DEFPOINTS
 62
     0
100
AcDbPoint
 10
6.205169834244298
 20
22.04190975094837
 30
0.0
  0
POINT
  5
6B2
330
6A8
100
AcDbEntity
  8
DEFPOINTS
 62
     0
100
AcDbPoint
 10
6.205169834244298
 20
25.50841107930591
 30
0.0
  0
ENDBLK
  5
6B4
330
6A8
100
AcDbEntity
  8
0
100
AcDbBlockEnd
  0
BLOCK
  5
6C0
330
6B5
100
AcDbEntity
  8
0
100
AcDbBlockBegin
  2
*D7
 70
     1
 10
0.0
 20
0.0
 30
0.0
  3
*D7
  1

  0
LINE
  5
6B6
330
6B5
100
AcDbEntity
  8
DIM
 62
     0
370
    -2
100
AcDbLine
 10
13.63966983424429
 20
22.24203475094837
 30
0.0
 11
13.63966983424429
 21
26.79466107930591
 31
0.0
  0
LINE
  5
6B7
330
6B5
100
AcDbEntity
  8
DIM
 62
     0
370
    -2
100
AcDbLine
 10
5.791669834244324
 20
22.24203475094837
 30
0.0
 11
5.791669834244324
 21
26.79466107930591
 31
0.0
  0
LINE
  5
6B8
330
6B5
100
AcDbEntity
  8
DIM
 62
     0
370
    -2
100
AcDbLine
 10
12.96466983424429
 20
26.44591107930591
 30
0.0
 11
10.1703573342443
 21
26.44591107930591
 31
0.0
  0
LINE
  5
6B9
330
6B5
100
AcDbEntity
  8
DIM
 62
     0
370
    -2
100
AcDbLine
 10
6.466669834244323
 20
26.44591107930591
 30
0.0
 11
9.260982334244307
 21
26.44591107930591
 31
0.0
  0
SOLID
  5
6BA
330
6B5
100
AcDbEntity
  8
DIM
 62
     0
100
AcDbTrace
 10
12.96466983424429
 20
26.55841107930591
 30
0.0
 11
12.96466983424429
 21
26.33341107930591
 31
0.0
 12
13.63966983424429
 22
26.44591107930591
 32
0.0
 13
13.63966983424429
 23
26.44591107930591
 33
0.0
  0
SOLID
  5
6BB
330
6B5
100
AcDbEntity
  8
DIM
 62
     0
100
AcDbTrace
 10
6.466669834244323
 20
26.55841107930591
 30
0.0
 11
6.466669834244323
 21
26.33341107930591
 31
0.0
 12
5.791669834244324
 22
26.44591107930591
 32
0.0
 13
5.791669834244324
 23
26.44591107930591
 33
0.0
  0
MTEXT
  5
6BC
330
6B5
100
AcDbEntity
  8
DIM
 62
     0
100
AcDbMText
 10
9.715669834244307
 20
26.44591107930591
 30
0.0
 40
0.46875
 41
0.0
 71
     5
 72
     1
  1
\A1;A
  7
TXT
 73
     1
 44
1.0
  0
POINT
  5
6BD
330
6B5
100
AcDbEntity
  8
DEFPOINTS
 62
     0
100
AcDbPoint
 10
13.63966983424429
 20
22.00578475094837
 30
0.0
  0
POINT
  5
6BE
330
6B5
100
AcDbEntity
  8
DEFPOINTS
 62
     0
100
AcDbPoint
 10
5.791669834244324
 20
22.00578475094837
 30
0.0
  0
POINT
  5
6BF
330
6B5
100
AcDbEntity
  8
DEFPOINTS
 62
     0
100
AcDbPoint
 10
5.791669834244324
 20
26.44591107930591
 30
0.0
  0
ENDBLK
  5
6C1
330
6B5
100
AcDbEntity
  8
0
100
AcDbBlockEnd
  0
BLOCK
  5
6CD
330
6C2
100
AcDbEntity
  8
0
100
AcDbBlockBegin
  2
*D8
 70
     1
 10
0.0
 20
0.0
 30
0.0
  3
*D8
  1

  0
LINE
  5
6C3
330
6C2
100
AcDbEntity
  8
DIM
 62
     0
370
    -2
100
AcDbLine
 10
6.954419834244285
 20
12.25690975094837
 30
0.0
 11
4.329328741777804
 21
12.25690975094837
 31
0.0
  0
LINE
  5
6C4
330
6C2
100
AcDbEntity
  8
DIM
 62
     0
370
    -2
100
AcDbLine
 10
6.954419834244292
 20
21.12890975094837
 30
0.0
 11
4.329328741777806
 21
21.12890975094837
 31
0.0
  0
LINE
  5
6C5
330
6C2
100
AcDbEntity
  8
DIM
 62
     0
370
    -2
100
AcDbLine
 10
4.678078741777804
 20
12.93190975094837
 30
0.0
 11
4.678078741777805
 21
16.12103475094837
 31
0.0
  0
LINE
  5
6C6
330
6C2
100
AcDbEntity
  8
DIM
 62
     0
370
    -2
100
AcDbLine
 10
4.678078741777806
 20
20.45390975094837
 30
0.0
 11
4.678078741777805
 21
17.26478475094837
 31
0.0
  0
SOLID
  5
6C7
330
6C2
100
AcDbEntity
  8
DIM
 62
     0
100
AcDbTrace
 10
4.565578741777804
 20
12.93190975094837
 30
0.0
 11
4.790578741777804
 21
12.93190975094837
 31
0.0
 12
4.678078741777804
 22
12.25690975094837
 32
0.0
 13
4.678078741777804
 23
12.25690975094837
 33
0.0
  0
SOLID
  5
6C8
330
6C2
100
AcDbEntity
  8
DIM
 62
     0
100
AcDbTrace
 10
4.565578741777806
 20
20.45390975094837
 30
0.0
 11
4.790578741777806
 21
20.45390975094837
 31
0.0
 12
4.678078741777806
 22
21.12890975094837
 32
0.0
 13
4.678078741777806
 23
21.12890975094837
 33
0.0
  0
MTEXT
  5
6C9
330
6C2
100
AcDbEntity
  8
DIM
 62
     0
100
AcDbMText
 10
4.678078741777802
 20
16.69290975094837
 30
0.0
 40
0.46875
 41
0.0
 71
     5
 72
     1
  1
\A1;H
  7
TXT
 73
     1
 44
1.0
  0
POINT
  5
6CA
330
6C2
100
AcDbEntity
  8
DEFPOINTS
 62
     0
100
AcDbPoint
 10
7.190669834244285
 20
12.25690975094837
 30
0.0
  0
POINT
  5
6CB
330
6C2
100
AcDbEntity
  8
DEFPOINTS
 62
     0
100
AcDbPoint
 10
7.190669834244292
 20
21.12890975094837
 30
0.0
  0
POINT
  5
6CC
330
6C2
100
AcDbEntity
  8
DEFPOINTS
 62
     0
100
AcDbPoint
 10
4.678078741777806
 20
21.12890975094837
 30
0.0
  0
ENDBLK
  5
6CE
330
6C2
100
AcDbEntity
  8
0
100
AcDbBlockEnd
  0
BLOCK
  5
6DA
330
6CF
100
AcDbEntity
  8
0
100
AcDbBlockBegin
  2
*D9
 70
     1
 10
0.0
 20
0.0
 30
0.0
  3
*D9
  1

  0
LINE
  5
6D0
330
6CF
100
AcDbEntity
  8
DIM
 62
     0
370
    -2
100
AcDbLine
 10
6.484419834244294
 20
11.71840975094837
 30
0.0
 11
3.329328741777804
 21
11.71840975094837
 31
0.0
  0
LINE
  5
6D1
330
6CF
100
AcDbEntity
  8
DIM
 62
     0
370
    -2
100
AcDbLine
 10
6.484419834244294
 20
21.66740975094837
 30
0.0
 11
3.329328741777806
 21
21.66740975094837
 31
0.0
  0
LINE
  5
6D2
330
6CF
100
AcDbEntity
  8
DIM
 62
     0
370
    -2
100
AcDbLine
 10
3.678078741777804
 20
12.39340975094838
 30
0.0
 11
3.678078741777805
 21
16.12103475094837
 31
0.0
  0
LINE
  5
6D3
330
6CF
100
AcDbEntity
  8
DIM
 62
     0
370
    -2
100
AcDbLine
 10
3.678078741777806
 20
20.99240975094837
 30
0.0
 11
3.678078741777805
 21
17.26478475094837
 31
0.0
  0
SOLID
  5
6D4
330
6CF
100
AcDbEntity
  8
DIM
 62
     0
100
AcDbTrace
 10
3.565578741777804
 20
12.39340975094838
 30
0.0
 11
3.790578741777804
 21
12.39340975094838
 31
0.0
 12
3.678078741777804
 22
11.71840975094837
 32
0.0
 13
3.678078741777804
 23
11.71840975094837
 33
0.0
  0
SOLID
  5
6D5
330
6CF
100
AcDbEntity
  8
DIM
 62
     0
100
AcDbTrace
 10
3.565578741777806
 20
20.99240975094837
 30
0.0
 11
3.790578741777805
 21
20.99240975094837
 31
0.0
 12
3.678078741777806
 22
21.66740975094837
 32
0.0
 13
3.678078741777806
 23
21.66740975094837
 33
0.0
  0
MTEXT
  5
6D6
330
6CF
100
AcDbEntity
  8
DIM
 62
     0
100
AcDbMText
 10
3.678078741777802
 20
16.69290975094837
 30
0.0
 40
0.46875
 41
0.0
 71
     5
 72
     1
  1
\A1;G
  7
TXT
 73
     1
 44
1.0
  0
POINT
  5
6D7
330
6CF
100
AcDbEntity
  8
DEFPOINTS
 62
     0
100
AcDbPoint
 10
6.720669834244294
 20
11.71840975094837
 30
0.0
  0
POINT
  5
6D8
330
6CF
100
AcDbEntity
  8
DEFPOINTS
 62
     0
100
AcDbPoint
 10
6.720669834244294
 20
21.66740975094837
 30
0.0
  0
POINT
  5
6D9
330
6CF
100
AcDbEntity
  8
DEFPOINTS
 62
     0
100
AcDbPoint
 10
3.678078741777806
 20
21.66740975094837
 30
0.0
  0
ENDBLK
  5
6DB
330
6CF
100
AcDbEntity
  8
0
100
AcDbBlockEnd
  0
BLOCK
  5
6E7
330
6DC
100
AcDbEntity
  8
0
100
AcDbBlockBegin
  2
*D10
 70
     1
 10
0.0
 20
0.0
 30
0.0
  3
*D10
  1

  0
LINE
  5
6DD
330
6DC
100
AcDbEntity
  8
DIM
 62
     0
370
    -2
100
AcDbLine
 10
6.126419834244289
 20
11.19840975094837
 30
0.0
 11
2.329328741777803
 21
11.19840975094838
 31
0.0
  0
LINE
  5
6DE
330
6DC
100
AcDbEntity
  8
DIM
 62
     0
370
    -2
100
AcDbLine
 10
6.126419834244297
 20
22.18740975094837
 30
0.0
 11
2.329328741777806
 21
22.18740975094837
 31
0.0
  0
LINE
  5
6DF
330
6DC
100
AcDbEntity
  8
DIM
 62
     0
370
    -2
100
AcDbLine
 10
2.678078741777804
 20
11.87340975094838
 30
0.0
 11
2.678078741777805
 21
16.12103475094837
 31
0.0
  0
LINE
  5
6E0
330
6DC
100
AcDbEntity
  8
DIM
 62
     0
370
    -2
100
AcDbLine
 10
2.678078741777806
 20
21.51240975094837
 30
0.0
 11
2.678078741777805
 21
17.26478475094837
 31
0.0
  0
SOLID
  5
6E1
330
6DC
100
AcDbEntity
  8
DIM
 62
     0
100
AcDbTrace
 10
2.565578741777804
 20
11.87340975094838
 30
0.0
 11
2.790578741777804
 21
11.87340975094838
 31
0.0
 12
2.678078741777804
 22
11.19840975094838
 32
0.0
 13
2.678078741777804
 23
11.19840975094838
 33
0.0
  0
SOLID
  5
6E2
330
6DC
100
AcDbEntity
  8
DIM
 62
     0
100
AcDbTrace
 10
2.565578741777806
 20
21.51240975094837
 30
0.0
 11
2.790578741777806
 21
21.51240975094837
 31
0.0
 12
2.678078741777806
 22
22.18740975094837
 32
0.0
 13
2.678078741777806
 23
22.18740975094837
 33
0.0
  0
MTEXT
  5
6E3
330
6DC
100
AcDbEntity
  8
DIM
 62
     0
100
AcDbMText
 10
2.678078741777802
 20
16.69290975094837
 30
0.0
 40
0.46875
 41
0.0
 71
     5
 72
     1
  1
\A1;F
  7
TXT
 73
     1
 44
1.0
  0
POINT
  5
6E4
330
6DC
100
AcDbEntity
  8
DEFPOINTS
 62
     0
100
AcDbPoint
 10
6.36266983424429
 20
11.19840975094837
 30
0.0
  0
POINT
  5
6E5
330
6DC
100
AcDbEntity
  8
DEFPOINTS
 62
     0
100
AcDbPoint
 10
6.362669834244297
 20
22.18740975094837
 30
0.0
  0
POINT
  5
6E6
330
6DC
100
AcDbEntity
  8
DEFPOINTS
 62
     0
100
AcDbPoint
 10
2.678078741777806
 20
22.18740975094837
 30
0.0
  0
ENDBLK
  5
6E8
330
6DC
100
AcDbEntity
  8
0
100
AcDbBlockEnd
  0
BLOCK
  5
6F4
330
6E9
100
AcDbEntity
  8
0
100
AcDbBlockBegin
  2
*D11
 70
     1
 10
0.0
 20
0.0
 30
0.0
  3
*D11
  1

  0
LINE
  5
6EA
330
6E9
100
AcDbEntity
  8
DIM
 62
     0
370
    -2
100
AcDbLine
 10
6.165669834244305
 20
50.57192111752925
 30
0.0
 11
6.165669834244305
 21
51.74990311027031
 31
0.0
  0
LINE
  5
6EB
330
6E9
100
AcDbEntity
  8
DIM
 62
     0
370
    -2
100
AcDbLine
 10
13.2656698342443
 20
50.57192111752925
 30
0.0
 11
13.2656698342443
 21
51.74990311027031
 31
0.0
  0
LINE
  5
6EC
330
6E9
100
AcDbEntity
  8
DIM
 62
     0
370
    -2
100
AcDbLine
 10
6.840669834244304
 20
51.40115311027031
 30
0.0
 11
9.260982334244305
 21
51.40115311027031
 31
0.0
  0
LINE
  5
6ED
330
6E9
100
AcDbEntity
  8
DIM
 62
     0
370
    -2
100
AcDbLine
 10
12.5906698342443
 20
51.40115311027031
 30
0.0
 11
10.1703573342443
 21
51.40115311027031
 31
0.0
  0
SOLID
  5
6EE
330
6E9
100
AcDbEntity
  8
DIM
 62
     0
100
AcDbTrace
 10
6.840669834244304
 20
51.51365311027031
 30
0.0
 11
6.840669834244304
 21
51.28865311027031
 31
0.0
 12
6.165669834244305
 22
51.40115311027031
 32
0.0
 13
6.165669834244305
 23
51.40115311027031
 33
0.0
  0
SOLID
  5
6EF
330
6E9
100
AcDbEntity
  8
DIM
 62
     0
100
AcDbTrace
 10
12.5906698342443
 20
51.51365311027031
 30
0.0
 11
12.5906698342443
 21
51.28865311027031
 31
0.0
 12
13.2656698342443
 22
51.40115311027031
 32
0.0
 13
13.2656698342443
 23
51.40115311027031
 33
0.0
  0
MTEXT
  5
6F0
330
6E9
100
AcDbEntity
  8
DIM
 62
     0
100
AcDbMText
 10
9.715669834244305
 20
51.40115311027031
 30
0.0
 40
0.46875
 41
0.0
 71
     5
 72
     1
  1
\A1;R
  7
TXT
 73
     1
 44
1.0
  0
POINT
  5
6F1
330
6E9
100
AcDbEntity
  8
DEFPOINTS
 62
     0
100
AcDbPoint
 10
6.165669834244305
 20
50.33567111752925
 30
0.0
  0
POINT
  5
6F2
330
6E9
100
AcDbEntity
  8
DEFPOINTS
 62
     0
100
AcDbPoint
 10
13.2656698342443
 20
50.33567111752925
 30
0.0
  0
POINT
  5
6F3
330
6E9
100
AcDbEntity
  8
DEFPOINTS
 62
     0
100
AcDbPoint
 10
13.2656698342443
 20
51.40115311027031
 30
0.0
  0
ENDBLK
  5
6F5
330
6E9
100
AcDbEntity
  8
0
100
AcDbBlockEnd
  0
BLOCK
  5
701
330
6F6
100
AcDbEntity
  8
0
100
AcDbBlockBegin
  2
*D12
 70
     1
 10
0.0
 20
0.0
 30
0.0
  3
*D12
  1

  0
LINE
  5
6F7
330
6F6
100
AcDbEntity
  8
DIM
 62
     0
370
    -2
100
AcDbLine
 10
26.22525066136059
 20
28.55456119099708
 30
0.0
 11
31.08690941172914
 21
28.55456119099708
 31
0.0
  0
LINE
  5
6F8
330
6F6
100
AcDbEntity
  8
DIM
 62
     0
370
    -2
100
AcDbLine
 10
26.22525066136059
 20
39.61456119099707
 30
0.0
 11
31.08690941172914
 21
39.61456119099707
 31
0.0
  0
LINE
  5
6F9
330
6F6
100
AcDbEntity
  8
DIM
 62
     0
370
    -2
100
AcDbLine
 10
30.73815941172914
 20
29.22956119099707
 30
0.0
 11
30.73815941172914
 21
33.51268619099708
 31
0.0
  0
LINE
  5
6FA
330
6F6
100
AcDbEntity
  8
DIM
 62
     0
370
    -2
100
AcDbLine
 10
30.73815941172914
 20
38.93956119099707
 30
0.0
 11
30.73815941172914
 21
34.65643619099707
 31
0.0
  0
SOLID
  5
6FB
330
6F6
100
AcDbEntity
  8
DIM
 62
     0
100
AcDbTrace
 10
30.62565941172914
 20
29.22956119099707
 30
0.0
 11
30.85065941172914
 21
29.22956119099707
 31
0.0
 12
30.73815941172914
 22
28.55456119099708
 32
0.0
 13
30.73815941172914
 23
28.55456119099708
 33
0.0
  0
SOLID
  5
6FC
330
6F6
100
AcDbEntity
  8
DIM
 62
     0
100
AcDbTrace
 10
30.62565941172914
 20
38.93956119099707
 30
0.0
 11
30.85065941172914
 21
38.93956119099707
 31
0.0
 12
30.73815941172914
 22
39.61456119099707
 32
0.0
 13
30.73815941172914
 23
39.61456119099707
 33
0.0
  0
MTEXT
  5
6FD
330
6F6
100
AcDbEntity
  8
DIM
 62
     0
100
AcDbMText
 10
30.73815941172914
 20
34.08456119099708
 30
0.0
 40
0.46875
 41
0.0
 71
     5
 72
     1
  1
\A1;N
  7
TXT
 73
     1
 44
1.0
  0
POINT
  5
6FE
330
6F6
100
AcDbEntity
  8
DEFPOINTS
 62
     0
100
AcDbPoint
 10
25.98900066136059
 20
28.55456119099708
 30
0.0
  0
POINT
  5
6FF
330
6F6
100
AcDbEntity
  8
DEFPOINTS
 62
     0
100
AcDbPoint
 10
25.98900066136059
 20
39.61456119099707
 30
0.0
  0
POINT
  5
700
330
6F6
100
AcDbEntity
  8
DEFPOINTS
 62
     0
100
AcDbPoint
 10
30.73815941172914
 20
39.61456119099707
 30
0.0
  0
ENDBLK
  5
702
330
6F6
100
AcDbEntity
  8
0
100
AcDbBlockEnd
  0
BLOCK
  5
70E
330
703
100
AcDbEntity
  8
0
100
AcDbBlockBegin
  2
*D13
 70
     1
 10
0.0
 20
0.0
 30
0.0
  3
*D13
  1

  0
LINE
  5
704
330
703
100
AcDbEntity
  8
DIM
 62
     0
370
    -2
100
AcDbLine
 10
18.97252310146856
 20
39.71106119099708
 30
0.0
 11
17.11017089433799
 21
39.71106119099708
 31
0.0
  0
LINE
  5
705
330
703
100
AcDbEntity
  8
DIM
 62
     0
370
    -2
100
AcDbLine
 10
18.97252310146855
 20
28.45806119099707
 30
0.0
 11
17.11017089433799
 21
28.45806119099707
 31
0.0
  0
LINE
  5
706
330
703
100
AcDbEntity
  8
DIM
 62
     0
370
    -2
100
AcDbLine
 10
17.45892089433799
 20
39.03606119099708
 30
0.0
 11
17.45892089433799
 21
34.65643619099707
 31
0.0
  0
LINE
  5
707
330
703
100
AcDbEntity
  8
DIM
 62
     0
370
    -2
100
AcDbLine
 10
17.45892089433799
 20
29.13306119099708
 30
0.0
 11
17.45892089433799
 21
33.51268619099708
 31
0.0
  0
SOLID
  5
708
330
703
100
AcDbEntity
  8
DIM
 62
     0
100
AcDbTrace
 10
17.34642089433799
 20
39.03606119099708
 30
0.0
 11
17.57142089433799
 21
39.03606119099708
 31
0.0
 12
17.45892089433799
 22
39.71106119099708
 32
0.0
 13
17.45892089433799
 23
39.71106119099708
 33
0.0
  0
SOLID
  5
709
330
703
100
AcDbEntity
  8
DIM
 62
     0
100
AcDbTrace
 10
17.34642089433799
 20
29.13306119099708
 30
0.0
 11
17.57142089433799
 21
29.13306119099708
 31
0.0
 12
17.45892089433799
 22
28.45806119099707
 32
0.0
 13
17.45892089433799
 23
28.45806119099707
 33
0.0
  0
MTEXT
  5
70A
330
703
100
AcDbEntity
  8
DIM
 62
     0
100
AcDbMText
 10
17.45892089433799
 20
34.08456119099708
 30
0.0
 40
0.46875
 41
0.0
 71
     5
 72
     1
  1
\A1;M
  7
TXT
 73
     1
 44
1.0
  0
POINT
  5
70B
330
703
100
AcDbEntity
  8
DEFPOINTS
 62
     0
100
AcDbPoint
 10
19.20877310146855
 20
39.71106119099708
 30
0.0
  0
POINT
  5
70C
330
703
100
AcDbEntity
  8
DEFPOINTS
 62
     0
100
AcDbPoint
 10
19.20877310146855
 20
28.45806119099707
 30
0.0
  0
POINT
  5
70D
330
703
100
AcDbEntity
  8
DEFPOINTS
 62
     0
100
AcDbPoint
 10
17.45892089433799
 20
28.45806119099707
 30
0.0
  0
ENDBLK
  5
70F
330
703
100
AcDbEntity
  8
0
100
AcDbBlockEnd
  0
BLOCK
  5
71B
330
710
100
AcDbEntity
  8
0
100
AcDbBlockBegin
  2
*D14
 70
     1
 10
0.0
 20
0.0
 30
0.0
  3
*D14
  1

  0
LINE
  5
711
330
710
100
AcDbEntity
  8
DIM
 62
     0
370
    -2
100
AcDbLine
 10
20.16950066136058
 20
40.23681119099708
 30
0.0
 11
20.16950066136058
 21
41.95931119099707
 31
0.0
  0
LINE
  5
712
330
710
100
AcDbEntity
  8
DIM
 62
     0
370
    -2
100
AcDbLine
 10
18.98325066136059
 20
39.71130487337239
 30
0.0
 11
18.98325066136059
 21
41.95931119099707
 31
0.0
  0
LINE
  5
713
330
710
100
AcDbEntity
  8
DIM
 62
     0
370
    -2
100
AcDbLine
 10
20.84450066136058
 20
41.61056119099707
 30
0.0
 11
21.51950066136058
 21
41.61056119099707
 31
0.0
  0
LINE
  5
714
330
710
100
AcDbEntity
  8
DIM
 62
     0
370
    -2
100
AcDbLine
 10
18.30825066136059
 20
41.61056119099707
 30
0.0
 11
17.63325066136059
 21
41.61056119099707
 31
0.0
  0
SOLID
  5
715
330
710
100
AcDbEntity
  8
DIM
 62
     0
100
AcDbTrace
 10
20.84450066136058
 20
41.72306119099707
 30
0.0
 11
20.84450066136058
 21
41.49806119099707
 31
0.0
 12
20.16950066136058
 22
41.61056119099707
 32
0.0
 13
20.16950066136058
 23
41.61056119099707
 33
0.0
  0
SOLID
  5
716
330
710
100
AcDbEntity
  8
DIM
 62
     0
100
AcDbTrace
 10
18.30825066136059
 20
41.72306119099707
 30
0.0
 11
18.30825066136059
 21
41.49806119099707
 31
0.0
 12
18.98325066136059
 22
41.61056119099707
 32
0.0
 13
18.98325066136059
 23
41.61056119099707
 33
0.0
  0
MTEXT
  5
717
330
710
100
AcDbEntity
  8
DIM
 62
     0
100
AcDbMText
 10
19.57637566136058
 20
41.61056119099707
 30
0.0
 40
0.46875
 41
0.0
 71
     5
 72
     1
  1
\A1;L
  7
TXT
 73
     1
 44
1.0
  0
POINT
  5
718
330
710
100
AcDbEntity
  8
DEFPOINTS
 62
     0
100
AcDbPoint
 10
20.16950066136058
 20
40.00056119099708
 30
0.0
  0
POINT
  5
719
330
710
100
AcDbEntity
  8
DEFPOINTS
 62
     0
100
AcDbPoint
 10
18.98325066136059
 20
39.47505487337239
 30
0.0
  0
POINT
  5
71A
330
710
100
AcDbEntity
  8
DEFPOINTS
 62
     0
100
AcDbPoint
 10
18.98325066136059
 20
41.61056119099707
 30
0.0
  0
ENDBLK
  5
71C
330
710
100
AcDbEntity
  8
0
100
AcDbBlockEnd
  0
BLOCK
  5
728
330
71D
100
AcDbEntity
  8
0
100
AcDbBlockBegin
  2
*D15
 70
     1
 10
0.0
 20
0.0
 30
0.0
  3
*D15
  1

  0
LINE
  5
71E
330
71D
100
AcDbEntity
  8
DIM
 62
     0
370
    -2
100
AcDbLine
 10
13.3696698342443
 20
43.32019355763722
 30
0.0
 11
13.3696698342443
 21
41.92825737342523
 31
0.0
  0
LINE
  5
71F
330
71D
100
AcDbEntity
  8
DIM
 62
     0
370
    -2
100
AcDbLine
 10
6.061669834244307
 20
43.32019355763722
 30
0.0
 11
6.061669834244307
 21
41.92825737342523
 31
0.0
  0
LINE
  5
720
330
71D
100
AcDbEntity
  8
DIM
 62
     0
370
    -2
100
AcDbLine
 10
12.6946698342443
 20
42.27700737342522
 30
0.0
 11
10.1703573342443
 21
42.27700737342522
 31
0.0
  0
LINE
  5
721
330
71D
100
AcDbEntity
  8
DIM
 62
     0
370
    -2
100
AcDbLine
 10
6.736669834244307
 20
42.27700737342522
 30
0.0
 11
9.260982334244305
 21
42.27700737342522
 31
0.0
  0
SOLID
  5
722
330
71D
100
AcDbEntity
  8
DIM
 62
     0
100
AcDbTrace
 10
12.6946698342443
 20
42.38950737342523
 30
0.0
 11
12.6946698342443
 21
42.16450737342523
 31
0.0
 12
13.3696698342443
 22
42.27700737342522
 32
0.0
 13
13.3696698342443
 23
42.27700737342522
 33
0.0
  0
SOLID
  5
723
330
71D
100
AcDbEntity
  8
DIM
 62
     0
100
AcDbTrace
 10
6.736669834244307
 20
42.38950737342523
 30
0.0
 11
6.736669834244307
 21
42.16450737342523
 31
0.0
 12
6.061669834244307
 22
42.27700737342522
 32
0.0
 13
6.061669834244307
 23
42.27700737342522
 33
0.0
  0
MTEXT
  5
724
330
71D
100
AcDbEntity
  8
DIM
 62
     0
100
AcDbMText
 10
9.715669834244305
 20
42.27700737342522
 30
0.0
 40
0.46875
 41
0.0
 71
     5
 72
     1
  1
\A1;P
  7
TXT
 73
     1
 44
1.0
  0
POINT
  5
725
330
71D
100
AcDbEntity
  8
DEFPOINTS
 62
     0
100
AcDbPoint
 10
13.3696698342443
 20
43.55644355763721
 30
0.0
  0
POINT
  5
726
330
71D
100
AcDbEntity
  8
DEFPOINTS
 62
     0
100
AcDbPoint
 10
6.061669834244307
 20
43.55644355763721
 30
0.0
  0
POINT
  5
727
330
71D
100
AcDbEntity
  8
DEFPOINTS
 62
     0
100
AcDbPoint
 10
6.061669834244307
 20
42.27700737342522
 30
0.0
  0
ENDBLK
  5
729
330
71D
100
AcDbEntity
  8
0
100
AcDbBlockEnd
  0
BLOCK
  5
735
330
72A
100
AcDbEntity
  8
0
100
AcDbBlockBegin
  2
*D16
 70
     1
 10
0.0
 20
0.0
 30
0.0
  3
*D16
  1

  0
LINE
  5
72B
330
72A
100
AcDbEntity
  8
DIM
 62
     0
370
    -2
100
AcDbLine
 10
20.16950066136058
 20
40.23681119099708
 30
0.0
 11
20.16950066136058
 21
41.95931119099707
 31
0.0
  0
LINE
  5
72C
330
72A
100
AcDbEntity
  8
DIM
 62
     0
370
    -2
100
AcDbLine
 10
26.06875066136057
 20
39.57631119099709
 30
0.0
 11
26.06875066136057
 21
41.95931119099707
 31
0.0
  0
LINE
  5
72D
330
72A
100
AcDbEntity
  8
DIM
 62
     0
370
    -2
100
AcDbLine
 10
20.84450066136058
 20
41.61056119099707
 30
0.0
 11
22.66443816136058
 21
41.61056119099707
 31
0.0
  0
LINE
  5
72E
330
72A
100
AcDbEntity
  8
DIM
 62
     0
370
    -2
100
AcDbLine
 10
25.39375066136057
 20
41.61056119099707
 30
0.0
 11
23.57381316136057
 21
41.61056119099707
 31
0.0
  0
SOLID
  5
72F
330
72A
100
AcDbEntity
  8
DIM
 62
     0
100
AcDbTrace
 10
20.84450066136058
 20
41.72306119099707
 30
0.0
 11
20.84450066136058
 21
41.49806119099707
 31
0.0
 12
20.16950066136058
 22
41.61056119099707
 32
0.0
 13
20.16950066136058
 23
41.61056119099707
 33
0.0
  0
SOLID
  5
730
330
72A
100
AcDbEntity
  8
DIM
 62
     0
100
AcDbTrace
 10
25.39375066136057
 20
41.72306119099707
 30
0.0
 11
25.39375066136057
 21
41.49806119099707
 31
0.0
 12
26.06875066136057
 22
41.61056119099707
 32
0.0
 13
26.06875066136057
 23
41.61056119099707
 33
0.0
  0
MTEXT
  5
731
330
72A
100
AcDbEntity
  8
DIM
 62
     0
100
AcDbMText
 10
23.11912566136058
 20
41.61056119099707
 30
0.0
 40
0.46875
 41
0.0
 71
     5
 72
     1
  1
\A1;K
  7
TXT
 73
     1
 44
1.0
  0
POINT
  5
732
330
72A
100
AcDbEntity
  8
DEFPOINTS
 62
     0
100
AcDbPoint
 10
20.16950066136058
 20
40.00056119099708
 30
0.0
  0
POINT
  5
733
330
72A
100
AcDbEntity
  8
DEFPOINTS
 62
     0
100
AcDbPoint
 10
26.06875066136057
 20
39.34006119099709
 30
0.0
  0
POINT
  5
734
330
72A
100
AcDbEntity
  8
DEFPOINTS
 62
     0
100
AcDbPoint
 10
26.06875066136057
 20
41.61056119099707
 30
0.0
  0
ENDBLK
  5
736
330
72A
100
AcDbEntity
  8
0
100
AcDbBlockEnd
  0
BLOCK
  5
742
330
737
100
AcDbEntity
  8
0
100
AcDbBlockBegin
  2
*D17
 70
     1
 10
0.0
 20
0.0
 30
0.0
  3
*D17
  1

  0
LINE
  5
738
330
737
100
AcDbEntity
  8
DIM
 62
     0
370
    -2
100
AcDbLine
 10
25.84400066136059
 20
30.13837280665969
 30
0.0
 11
25.84400066136059
 21
32.27816389968449
 31
0.0
  0
LINE
  5
739
330
737
100
AcDbEntity
  8
DIM
 62
     0
370
    -2
100
AcDbLine
 10
25.9890006613606
 20
32.16566389968448
 30
0.0
 11
25.9890006613606
 21
32.27816389968449
 31
0.0
  0
LINE
  5
73A
330
737
100
AcDbEntity
  8
DIM
 62
     0
370
    -2
100
AcDbLine
 10
25.16900066136059
 20
31.92941389968449
 30
0.0
 11
24.49400066136059
 21
31.92941389968449
 31
0.0
  0
LINE
  5
73B
330
737
100
AcDbEntity
  8
DIM
 62
     0
370
    -2
100
AcDbLine
 10
26.6640006613606
 20
31.92941389968449
 30
0.0
 11
27.3390006613606
 21
31.92941389968449
 31
0.0
  0
SOLID
  5
73C
330
737
100
AcDbEntity
  8
DIM
 62
     0
100
AcDbTrace
 10
25.16900066136059
 20
32.04191389968448
 30
0.0
 11
25.16900066136059
 21
31.81691389968449
 31
0.0
 12
25.84400066136059
 22
31.92941389968449
 32
0.0
 13
25.84400066136059
 23
31.92941389968449
 33
0.0
  0
SOLID
  5
73D
330
737
100
AcDbEntity
  8
DIM
 62
     0
100
AcDbTrace
 10
26.6640006613606
 20
32.04191389968448
 30
0.0
 11
26.6640006613606
 21
31.81691389968449
 31
0.0
 12
25.9890006613606
 22
31.92941389968449
 32
0.0
 13
25.9890006613606
 23
31.92941389968449
 33
0.0
  0
MTEXT
  5
73E
330
737
100
AcDbEntity
  8
DIM
 62
     0
100
AcDbMText
 10
28.87767253636059
 20
31.92941389968449
 30
0.0
 40
0.46875
 41
0.0
 71
     5
 72
     1
  1
\A1;0.145 [4]
  7
TXT
 73
     1
 44
1.0
  0
POINT
  5
73F
330
737
100
AcDbEntity
  8
DEFPOINTS
 62
     0
100
AcDbPoint
 10
25.84400066136059
 20
29.9021228066597
 30
0.0
  0
POINT
  5
740
330
737
100
AcDbEntity
  8
DEFPOINTS
 62
     0
100
AcDbPoint
 10
25.9890006613606
 20
31.92941389968449
 30
0.0
  0
POINT
  5
741
330
737
100
AcDbEntity
  8
DEFPOINTS
 62
     0
100
AcDbPoint
 10
25.9890006613606
 20
31.92941389968449
 30
0.0
  0
ENDBLK
  5
743
330
737
100
AcDbEntity
  8
0
100
AcDbBlockEnd
  0
BLOCK
  5
74F
330
744
100
AcDbEntity
  8
0
100
AcDbBlockBegin
  2
*D18
 70
     1
 10
0.0
 20
0.0
 30
0.0
  3
*D18
  1

  0
LINE
  5
745
330
744
100
AcDbEntity
  8
DIM
 62
     0
370
    -2
100
AcDbLine
 10
25.45100066136059
 20
30.05808975358942
 30
0.0
 11
25.45100066136059
 21
31.16698772957967
 31
0.0
  0
LINE
  5
746
330
744
100
AcDbEntity
  8
DIM
 62
     0
370
    -2
100
AcDbLine
 10
25.84400066136059
 20
30.13837280665969
 30
0.0
 11
25.84400066136059
 21
31.16698772957967
 31
0.0
  0
LINE
  5
747
330
744
100
AcDbEntity
  8
DIM
 62
     0
370
    -2
100
AcDbLine
 10
24.77600066136059
 20
30.81823772957967
 30
0.0
 11
24.10100066136059
 21
30.81823772957967
 31
0.0
  0
LINE
  5
748
330
744
100
AcDbEntity
  8
DIM
 62
     0
370
    -2
100
AcDbLine
 10
26.51900066136059
 20
30.81823772957967
 30
0.0
 11
27.19400066136059
 21
30.81823772957967
 31
0.0
  0
SOLID
  5
749
330
744
100
AcDbEntity
  8
DIM
 62
     0
100
AcDbTrace
 10
24.77600066136059
 20
30.93073772957968
 30
0.0
 11
24.77600066136059
 21
30.70573772957967
 31
0.0
 12
25.45100066136059
 22
30.81823772957967
 32
0.0
 13
25.45100066136059
 23
30.81823772957967
 33
0.0
  0
SOLID
  5
74A
330
744
100
AcDbEntity
  8
DIM
 62
     0
100
AcDbTrace
 10
26.51900066136059
 20
30.93073772957968
 30
0.0
 11
26.51900066136059
 21
30.70573772957967
 31
0.0
 12
25.84400066136059
 22
30.81823772957967
 32
0.0
 13
25.84400066136059
 23
30.81823772957967
 33
0.0
  0
MTEXT
  5
74B
330
744
100
AcDbEntity
  8
DIM
 62
     0
100
AcDbMText
 10
28.84986003636059
 20
30.81823772957967
 30
0.0
 40
0.46875
 41
0.0
 71
     5
 72
     1
  1
\A1;0.390 [10]
  7
TXT
 73
     1
 44
1.0
  0
POINT
  5
74C
330
744
100
AcDbEntity
  8
DEFPOINTS
 62
     0
100
AcDbPoint
 10
25.45100066136059
 20
29.82183975358942
 30
0.0
  0
POINT
  5
74D
330
744
100
AcDbEntity
  8
DEFPOINTS
 62
     0
100
AcDbPoint
 10
25.84400066136059
 20
29.9021228066597
 30
0.0
  0
POINT
  5
74E
330
744
100
AcDbEntity
  8
DEFPOINTS
 62
     0
100
AcDbPoint
 10
25.84400066136059
 20
30.81823772957967
 30
0.0
  0
ENDBLK
  5
750
330
744
100
AcDbEntity
  8
0
100
AcDbBlockEnd
  0
BLOCK
  5
75C
330
751
100
AcDbEntity
  8
0
100
AcDbBlockBegin
  2
*D19
 70
     1
 10
0.0
 20
0.0
 30
0.0
  3
*D19
  1

  0
LINE
  5
752
330
751
100
AcDbEntity
  8
DIM
 62
     0
370
    -2
100
AcDbLine
 10
25.98900066136059
 20
39.85081119099707
 30
0.0
 11
25.98900066136059
 21
40.95931119099708
 31
0.0
  0
LINE
  5
753
330
751
100
AcDbEntity
  8
DIM
 62
     0
370
    -2
100
AcDbLine
 10
26.06875066136057
 20
39.57631119099709
 30
0.0
 11
26.06875066136057
 21
40.95931119099708
 31
0.0
  0
LINE
  5
754
330
751
100
AcDbEntity
  8
DIM
 62
     0
370
    -2
100
AcDbLine
 10
25.31400066136059
 20
40.61056119099707
 30
0.0
 11
24.63900066136059
 21
40.61056119099707
 31
0.0
  0
LINE
  5
755
330
751
100
AcDbEntity
  8
DIM
 62
     0
370
    -2
100
AcDbLine
 10
26.74375066136057
 20
40.61056119099707
 30
0.0
 11
27.41875066136057
 21
40.61056119099707
 31
0.0
  0
SOLID
  5
756
330
751
100
AcDbEntity
  8
DIM
 62
     0
100
AcDbTrace
 10
25.31400066136059
 20
40.72306119099707
 30
0.0
 11
25.31400066136059
 21
40.49806119099708
 31
0.0
 12
25.98900066136059
 22
40.61056119099707
 32
0.0
 13
25.98900066136059
 23
40.61056119099707
 33
0.0
  0
SOLID
  5
757
330
751
100
AcDbEntity
  8
DIM
 62
     0
100
AcDbTrace
 10
26.74375066136057
 20
40.72306119099707
 30
0.0
 11
26.74375066136057
 21
40.49806119099708
 31
0.0
 12
26.06875066136057
 22
40.61056119099707
 32
0.0
 13
26.06875066136057
 23
40.61056119099707
 33
0.0
  0
MTEXT
  5
758
330
751
100
AcDbEntity
  8
DIM
 62
     0
100
AcDbMText
 10
28.95742253636057
 20
40.61056119099707
 30
0.0
 40
0.46875
 41
0.0
 71
     5
 72
     1
  1
\A1;0.080 [2]
  7
TXT
 73
     1
 44
1.0
  0
POINT
  5
759
330
751
100
AcDbEntity
  8
DEFPOINTS
 62
     0
100
AcDbPoint
 10
25.98900066136059
 20
39.61456119099707
 30
0.0
  0
POINT
  5
75A
330
751
100
AcDbEntity
  8
DEFPOINTS
 62
     0
100
AcDbPoint
 10
26.06875066136057
 20
39.34006119099709
 30
0.0
  0
POINT
  5
75B
330
751
100
AcDbEntity
  8
DEFPOINTS
 62
     0
100
AcDbPoint
 10
26.06875066136057
 20
40.61056119099707
 30
0.0
  0
ENDBLK
  5
75D
330
751
100
AcDbEntity
  8
0
100
AcDbBlockEnd
  0
ENDSEC
  0
SECTION
  2
ENTITIES
  0
LINE
  5
1C5
330
1E
100
AcDbEntity
  8
OBJECT
100
AcDbLine
 10
25.98900066136059
 20
28.55456119099708
 30
0.0
 11
20.44512566136058
 21
28.43293721100197
 31
0.0
  0
LINE
  5
1C6
330
1E
100
AcDbEntity
  8
OBJECT
100
AcDbLine
 10
25.7286979727991
 20
28.71197298314994
 30
0.0
 11
20.16950066136057
 21
28.59006119099707
 31
0.0
  0
LINE
  5
1C7
330
1E
100
AcDbEntity
  8
OBJECT
100
AcDbLine
 10
25.84400066136058
 20
28.85249171064634
 30
0.0
 11
25.45100066136059
 21
28.93078262840469
 31
0.0
  0
LINE
  5
1C8
330
1E
100
AcDbEntity
  8
OBJECT
100
AcDbLine
 10
25.98900066136059
 20
39.61456119099707
 30
0.0
 11
20.44512566136059
 21
39.73618517099214
 31
0.0
  0
LINE
  5
1C9
330
1E
100
AcDbEntity
  8
OBJECT
100
AcDbLine
 10
25.98900066136059
 20
39.61456119099707
 30
0.0
 11
25.9890006613606
 21
34.08456119099708
 31
0.0
  0
LINE
  5
1CA
330
1E
100
AcDbEntity
  8
OBJECT
100
AcDbLine
 10
26.06875066136057
 20
29.92356119099705
 30
0.0
 11
26.06875066136057
 21
28.82906119099706
 31
0.0
  0
LINE
  5
1CB
330
1E
100
AcDbEntity
  8
OBJECT
100
AcDbLine
 10
25.98900066136058
 20
28.82906119099706
 30
0.0
 11
25.98900066136059
 21
28.55456119099708
 31
0.0
  0
LINE
  5
1CC
330
1E
100
AcDbEntity
  8
OBJECT
100
AcDbLine
 10
25.9890006613606
 20
33.78956119099708
 30
0.0
 11
25.98900066136059
 21
29.92356119099705
 31
0.0
  0
ARC
  5
1CD
330
1E
100
AcDbEntity
  8
OBJECT
100
AcDbCircle
 10
6.352579139399832
 20
22.04012903345003
 30
0.0
 40
0.3836634376471611
100
AcDbArc
 50
88.49289547525062
 51
179.7340690994557
  0
ARC
  5
1CE
330
1E
100
AcDbEntity
  8
OBJECT
100
AcDbCircle
 10
6.352617057241168
 20
22.04012303397143
 30
0.0
 40
0.304952457230732
100
AcDbArc
 50
88.11089875980933
 51
179.6643020075946
  0
ARC
  5
1CF
330
1E
100
AcDbEntity
  8
OBJECT
100
AcDbCircle
 10
6.352806199860065
 20
22.0400920355911
 30
0.0
 40
0.1476475551485796
100
AcDbArc
 50
86.16948729763768
 51
179.2946036305501
  0
LINE
  5
1D0
330
1E
100
AcDbEntity
  8
OBJECT
100
AcDbLine
 10
20.44512566136059
 20
40.00056119099708
 30
0.0
 11
20.44512566136059
 21
37.94906119099674
 31
0.0
  0
ARC
  5
1D1
330
1E
100
AcDbEntity
  8
OBJECT
100
AcDbCircle
 10
13.07811178194642
 20
22.03966887628814
 30
0.0
 40
0.1480750092672009
100
AcDbArc
 50
0.8671116234748462
 51
93.84980892879552
  0
ARC
  5
1D2
330
1E
100
AcDbEntity
  8
OBJECT
100
AcDbCircle
 10
13.07829826979607
 20
22.0396981879668
 30
0.0
 40
0.3053795726376905
100
AcDbArc
 50
0.4149404346833217
 51
91.90066104361298
  0
ARC
  5
1D3
330
1E
100
AcDbEntity
  8
OBJECT
100
AcDbCircle
 10
13.07833568359688
 20
22.03970382064649
 30
0.0
 40
0.3840904853117883
100
AcDbArc
 50
0.3290661858946925
 51
91.5166433716072
  0
CIRCLE
  5
1D4
330
1E
100
AcDbEntity
  8
OBJECT
100
AcDbCircle
 10
12.24066983424426
 20
16.69290975094837
 30
0.0
 40
0.295
  0
LINE
  5
1D5
330
1E
100
AcDbEntity
  8
CENTER
100
AcDbLine
 10
5.363240737382238
 20
16.69290975094837
 30
0.0
 11
14.00015215475209
 21
16.69290975094837
 31
0.0
  0
LINE
  5
1D6
330
1E
100
AcDbEntity
  8
OBJECT
100
AcDbLine
 10
6.382294834244294
 20
10.77690975094837
 30
0.0
 11
13.04854483424431
 21
10.77690975094837
 31
0.0
  0
LINE
  5
1D7
330
1E
100
AcDbEntity
  8
OBJECT
100
AcDbLine
 10
6.36266983424429
 20
11.04090975094833
 30
0.0
 11
13.06816983424429
 21
11.04090975094838
 31
0.0
  0
LINE
  5
1D8
330
1E
100
AcDbEntity
  8
OBJECT
100
AcDbLine
 10
6.36266983424429
 20
10.96215975094833
 30
0.0
 11
13.06816983424429
 21
10.96215975094836
 31
0.0
  0
LINE
  5
1D9
330
1E
100
AcDbEntity
  8
OBJECT
100
AcDbLine
 10
6.36266983424429
 20
11.19840975094837
 30
0.0
 11
13.06816983424429
 21
11.19840975094837
 31
0.0
  0
CIRCLE
  5
1DA
330
1E
100
AcDbEntity
  8
OBJECT
100
AcDbCircle
 10
12.24066983424429
 20
12.25690975094837
 30
0.0
 40
0.295
  0
CIRCLE
  5
1DB
330
1E
100
AcDbEntity
  8
OBJECT
100
AcDbCircle
 10
12.24066983424429
 20
21.12890975094837
 30
0.0
 40
0.295
  0
CIRCLE
  5
1DC
330
1E
100
AcDbEntity
  8
OBJECT
100
AcDbCircle
 10
12.24066983424426
 20
16.69290975094837
 30
0.0
 40
0.0984375
  0
LINE
  5
1DD
330
1E
100
AcDbEntity
  8
OBJECT
100
AcDbLine
 10
13.38366983424429
 20
22.04190975092715
 30
0.0
 11
13.38366983424429
 21
11.35590975094837
 31
0.0
  0
LINE
  5
1DE
330
1E
100
AcDbEntity
  8
OBJECT
100
AcDbLine
 10
13.46241983424428
 20
22.04190975093781
 30
0.0
 11
13.46241983424427
 21
11.35590975094837
 31
0.0
  0
LINE
  5
1DF
330
1E
100
AcDbEntity
  8
OBJECT
100
AcDbLine
 10
25.45100066136059
 20
29.31733975358943
 30
0.0
 11
25.45100066136059
 21
28.93078262840469
 31
0.0
  0
LINE
  5
1E0
330
1E
100
AcDbEntity
  8
OBJECT
100
AcDbLine
 10
20.16950066136057
 20
28.16856119099708
 30
0.0
 11
20.44512566136058
 21
28.16856119099708
 31
0.0
  0
LINE
  5
1E1
330
1E
100
AcDbEntity
  8
OBJECT
100
AcDbLine
 10
13.22616983424429
 20
22.04190975095392
 30
0.0
 11
13.22616983424429
 21
11.35590975094833
 31
0.0
  0
CIRCLE
  5
1E2
330
1E
100
AcDbEntity
  8
OBJECT
100
AcDbCircle
 10
12.71066983424429
 20
11.71840975094837
 30
0.0
 40
0.295
  0
ARC
  5
1E3
330
1E
100
AcDbEntity
  8
OBJECT
100
AcDbCircle
 10
13.06824301790206
 20
11.35633679181929
 30
0.0
 40
0.3941770476646265
100
AcDbArc
 50
269.9893623569195
 51
359.937927272746
  0
ARC
  5
1E4
330
1E
100
AcDbEntity
  8
OBJECT
100
AcDbCircle
 10
13.04861803110981
 20
11.36796170375748
 30
0.0
 40
0.5910519573415143
100
AcDbArc
 50
269.9929043945703
 51
359.9586117669749
  0
ARC
  5
1E5
330
1E
100
AcDbEntity
  8
OBJECT
100
AcDbCircle
 10
13.06824300800145
 20
11.3563368578678
 30
0.0
 40
0.3154271154069596
100
AcDbArc
 50
269.9867083478594
 51
359.922418111296
  0
ARC
  5
1E6
330
1E
100
AcDbEntity
  8
OBJECT
100
AcDbCircle
 10
13.06824295856495
 20
11.35633718813777
 30
0.0
 40
0.1579274541186219
100
AcDbArc
 50
269.9734706348144
 51
359.844926412583
  0
LINE
  5
1E7
330
1E
100
AcDbEntity
  8
OBJECT
100
AcDbLine
 10
13.28523233424427
 20
12.68122225094837
 30
0.0
 11
13.28523233424427
 21
12.09059725094837
 31
0.0
  0
LINE
  5
1E8
330
1E
100
AcDbEntity
  8
OBJECT
100
AcDbLine
 10
13.28523233424427
 20
12.09059725094837
 30
0.0
 11
13.22616983424429
 21
12.14965975094836
 31
0.0
  0
LINE
  5
1E9
330
1E
100
AcDbEntity
  8
OBJECT
100
AcDbLine
 10
13.28523233424427
 20
12.68122225094837
 30
0.0
 11
13.22616983424429
 21
12.62215975094836
 31
0.0
  0
CIRCLE
  5
1EA
330
1E
100
AcDbEntity
  8
OBJECT
100
AcDbCircle
 10
12.24066983424429
 20
12.25690975094837
 30
0.0
 40
0.0825
  0
CIRCLE
  5
1EB
330
1E
100
AcDbEntity
  8
OBJECT
100
AcDbCircle
 10
12.71066983424429
 20
21.66740975094837
 30
0.0
 40
0.295
  0
LINE
  5
1EC
330
1E
100
AcDbEntity
  8
OBJECT
100
AcDbLine
 10
13.28523233424427
 20
20.70459725094836
 30
0.0
 11
13.22616983424429
 21
20.76365975094836
 31
0.0
  0
LINE
  5
1ED
330
1E
100
AcDbEntity
  8
OBJECT
100
AcDbLine
 10
13.28523233424427
 20
21.29522225094837
 30
0.0
 11
13.22616983424429
 21
21.23615975094836
 31
0.0
  0
LINE
  5
1EE
330
1E
100
AcDbEntity
  8
OBJECT
100
AcDbLine
 10
13.28523233424427
 20
20.70459725094836
 30
0.0
 11
13.28523233424427
 21
21.29522225094837
 31
0.0
  0
CIRCLE
  5
1EF
330
1E
100
AcDbEntity
  8
OBJECT
100
AcDbCircle
 10
7.190669834244292
 20
16.69290975094837
 30
0.0
 40
0.0984375
  0
CIRCLE
  5
1F0
330
1E
100
AcDbEntity
  8
OBJECT
100
AcDbCircle
 10
7.190669834244292
 20
16.69290975094837
 30
0.0
 40
0.295
  0
LINE
  5
1F1
330
1E
100
AcDbEntity
  8
OBJECT
100
AcDbLine
 10
5.968919834244321
 20
22.04190975096938
 30
0.0
 11
5.968919834244307
 21
11.35590975094833
 31
0.0
  0
LINE
  5
1F2
330
1E
100
AcDbEntity
  8
OBJECT
100
AcDbLine
 10
6.047669834244306
 20
22.04190975094633
 30
0.0
 11
6.047669834244292
 21
11.35590975094833
 31
0.0
  0
CIRCLE
  5
1F3
330
1E
100
AcDbEntity
  8
OBJECT
100
AcDbCircle
 10
9.715669834244287
 20
12.25690975094837
 30
0.0
 40
0.295
  0
CIRCLE
  5
1F4
330
1E
100
AcDbEntity
  8
OBJECT
100
AcDbCircle
 10
9.715669834244287
 20
12.25690975094837
 30
0.0
 40
0.0984375
  0
LINE
  5
1F5
330
1E
100
AcDbEntity
  8
OBJECT
100
AcDbLine
 10
6.205169834244291
 20
22.04190975095388
 30
0.0
 11
6.205169834244291
 21
11.35590975094833
 31
0.0
  0
CIRCLE
  5
1F6
330
1E
100
AcDbEntity
  8
OBJECT
100
AcDbCircle
 10
6.720669834244294
 20
11.71840975094837
 30
0.0
 40
0.295
  0
ARC
  5
1F7
330
1E
100
AcDbEntity
  8
OBJECT
100
AcDbCircle
 10
6.36266983424429
 20
11.35590975094833
 30
0.0
 40
0.1575
100
AcDbArc
 50
180.0
 51
270.0
  0
ARC
  5
1F8
330
1E
100
AcDbEntity
  8
OBJECT
100
AcDbCircle
 10
6.36266983424429
 20
11.35590975094833
 30
0.0
 40
0.315
100
AcDbArc
 50
180.0
 51
270.0
  0
ARC
  5
1F9
330
1E
100
AcDbEntity
  8
OBJECT
100
AcDbCircle
 10
6.36266983424429
 20
11.35590975094833
 30
0.0
 40
0.39375
100
AcDbArc
 50
180.0
 51
270.0
  0
ARC
  5
1FA
330
1E
100
AcDbEntity
  8
OBJECT
100
AcDbCircle
 10
6.382294834244294
 20
11.36753475094837
 30
0.0
 40
0.590625
100
AcDbArc
 50
180.0
 51
270.0
  0
CIRCLE
  5
1FB
330
1E
100
AcDbEntity
  8
OBJECT
100
AcDbCircle
 10
7.190669834244285
 20
12.25690975094837
 30
0.0
 40
0.295
  0
LINE
  5
1FC
330
1E
100
AcDbEntity
  8
OBJECT
100
AcDbLine
 10
6.146107334244309
 20
12.68122225094837
 30
0.0
 11
6.146107334244309
 21
12.09059725094837
 31
0.0
  0
LINE
  5
1FD
330
1E
100
AcDbEntity
  8
OBJECT
100
AcDbLine
 10
6.146107334244309
 20
12.09059725094837
 30
0.0
 11
6.205169834244291
 21
12.14965975094836
 31
0.0
  0
LINE
  5
1FE
330
1E
100
AcDbEntity
  8
OBJECT
100
AcDbLine
 10
6.146107334244309
 20
12.68122225094837
 30
0.0
 11
6.205169834244291
 21
12.62215975094836
 31
0.0
  0
CIRCLE
  5
1FF
330
1E
100
AcDbEntity
  8
OBJECT
100
AcDbCircle
 10
9.715669834244295
 20
21.12890975094837
 30
0.0
 40
0.295
  0
CIRCLE
  5
200
330
1E
100
AcDbEntity
  8
OBJECT
100
AcDbCircle
 10
9.715669834244295
 20
21.12890975094837
 30
0.0
 40
0.0984375
  0
CIRCLE
  5
201
330
1E
100
AcDbEntity
  8
OBJECT
100
AcDbCircle
 10
7.190669834244292
 20
21.12890975094837
 30
0.0
 40
0.295
  0
CIRCLE
  5
202
330
1E
100
AcDbEntity
  8
OBJECT
100
AcDbCircle
 10
6.720669834244294
 20
21.66740975094837
 30
0.0
 40
0.295
  0
LINE
  5
203
330
1E
100
AcDbEntity
  8
OBJECT
100
AcDbLine
 10
6.146107334244316
 20
20.70459725094836
 30
0.0
 11
6.146107334244316
 21
21.29522225094837
 31
0.0
  0
LINE
  5
204
330
1E
100
AcDbEntity
  8
OBJECT
100
AcDbLine
 10
6.146107334244316
 20
21.29522225094837
 30
0.0
 11
6.205169834244298
 21
21.23615975094836
 31
0.0
  0
LINE
  5
205
330
1E
100
AcDbEntity
  8
OBJECT
100
AcDbLine
 10
6.146107334244316
 20
20.70459725094836
 30
0.0
 11
6.205169834244298
 21
20.76365975094836
 31
0.0
  0
LINE
  5
206
330
1E
100
AcDbEntity
  8
OBJECT
100
AcDbLine
 10
6.362669834244297
 20
22.42365975094837
 30
0.0
 11
13.06816983424429
 21
22.42365975094837
 31
0.0
  0
LINE
  5
207
330
1E
100
AcDbEntity
  8
OBJECT
100
AcDbLine
 10
6.362669834244297
 20
22.34490975094837
 30
0.0
 11
13.06816983424429
 21
22.34490975094837
 31
0.0
  0
LINE
  5
208
330
1E
100
AcDbEntity
  8
OBJECT
100
AcDbLine
 10
6.362669834244297
 20
22.18740975094837
 30
0.0
 11
13.06816983424429
 21
22.18740975094837
 31
0.0
  0
LINE
  5
209
330
1E
100
AcDbEntity
  8
OBJECT
100
AcDbLine
 10
20.16950066136058
 20
40.00056119099708
 30
0.0
 11
20.44512566136059
 21
40.00056119099708
 31
0.0
  0
LINE
  5
20A
330
1E
100
AcDbEntity
  8
OBJECT
100
AcDbLine
 10
6.165669834244305
 20
50.33567111752925
 30
0.0
 11
6.075920854249208
 21
44.79279611752924
 31
0.0
  0
LINE
  5
20B
330
1E
100
AcDbEntity
  8
OBJECT
100
AcDbLine
 10
13.2656698342443
 20
50.33567111752925
 30
0.0
 11
13.35541881423939
 21
44.79279611752924
 31
0.0
  0
LINE
  5
20C
330
1E
100
AcDbEntity
  8
OBJECT
100
AcDbLine
 10
5.760920854249224
 20
44.79279611752924
 30
0.0
 11
13.67041881423938
 21
44.79279611752924
 31
0.0
  0
LINE
  5
20D
330
1E
100
AcDbEntity
  8
OBJECT
100
AcDbLine
 10
5.760920854249224
 20
44.51717111752925
 30
0.0
 11
13.67041881423938
 21
44.51717111752925
 31
0.0
  0
LINE
  5
20E
330
1E
100
AcDbEntity
  8
OBJECT
100
AcDbLine
 10
13.67041881423938
 20
44.51717111752925
 30
0.0
 11
13.67041881423938
 21
44.79279611752924
 31
0.0
  0
LINE
  5
20F
330
1E
100
AcDbEntity
  8
OBJECT
100
AcDbLine
 10
5.76092085424921
 20
44.51717111752925
 30
0.0
 11
5.76092085424921
 21
44.79279611752924
 31
0.0
  0
LINE
  5
210
330
1E
100
AcDbEntity
  8
OBJECT
100
AcDbLine
 10
6.165669834244305
 20
50.33567111752925
 30
0.0
 11
13.2656698342443
 21
50.33567111752925
 31
0.0
  0
POINT
  5
211
330
1E
100
AcDbEntity
  8
OBJECT
100
AcDbPoint
 10
13.2656698342443
 20
50.33567111752928
 30
0.0
  0
POINT
  5
212
330
1E
100
AcDbEntity
  8
OBJECT
100
AcDbPoint
 10
6.165669834244305
 20
50.33567111752928
 30
0.0
  0
LINE
  5
213
330
1E
100
AcDbEntity
  8
CENTER
100
AcDbLine
 10
9.715669834244305
 20
42.8890974816336
 30
0.0
 11
9.715669834244305
 21
50.71972237963183
 31
0.0
  0
LINE
  5
214
330
1E
100
AcDbEntity
  8
OBJECT
100
AcDbLine
 10
20.44512566136058
 20
28.43293721100197
 30
0.0
 11
20.44512566136058
 21
28.16856119099708
 31
0.0
  0
DIMENSION
  5
215
330
1E
100
AcDbEntity
  8
DIM
100
AcDbDimension
  2
*D3
 10
1.678078741777806
 20
10.77690975094838
 30
0.0
 11
1.678078741777805
 21
16.69290975094837
 31
0.0
 70
    32
  1
E
 71
     5
 42
11.832
  3
23NSTD
100
AcDbAlignedDimension
 13
6.382294834244323
 23
22.60890975094838
 33
0.0
 14
6.382294834244294
 24
10.77690975094837
 34
0.0
 50
90.0
100
AcDbRotatedDimension
  0
DIMENSION
  5
216
330
1E
100
AcDbEntity
  8
DIM
100
AcDbDimension
  2
*D4
 10
7.190669834244292
 20
23.63341107930591
 30
0.0
 11
9.715669834244295
 21
23.63341107930591
 31
0.0
 70
    32
  1
D
 71
     5
 42
5.050000000000004
  3
23NSTD
100
AcDbAlignedDimension
 13
12.24066983424429
 23
21.12890975094837
 33
0.0
 14
7.190669834244292
 24
21.12890975094837
 34
0.0
100
AcDbRotatedDimension
  0
DIMENSION
  5
217
330
1E
100
AcDbEntity
  8
DIM
100
AcDbDimension
  2
*D5
 10
6.720669834244294
 20
24.57091107930591
 30
0.0
 11
9.715669834244295
 21
24.57091107930591
 31
0.0
 70
    32
  1
C
 71
     5
 42
5.990000000000001
  3
23NSTD
100
AcDbAlignedDimension
 13
12.71066983424429
 23
21.66740975094837
 33
0.0
 14
6.720669834244294
 24
21.66740975094837
 34
0.0
100
AcDbRotatedDimension
  0
DIMENSION
  5
218
330
1E
100
AcDbEntity
  8
DIM
100
AcDbDimension
  2
*D6
 10
6.205169834244298
 20
25.50841107930591
 30
0.0
 11
9.715669834244296
 21
25.50841107930591
 31
0.0
 70
    32
  1
B
 71
     5
 42
7.020999999999997
  3
23NSTD
100
AcDbAlignedDimension
 13
13.22616983424429
 23
22.04190975094837
 33
0.0
 14
6.205169834244298
 24
22.04190975094837
 34
0.0
100
AcDbRotatedDimension
  0
DIMENSION
  5
219
330
1E
100
AcDbEntity
  8
DIM
100
AcDbDimension
  2
*D7
 10
5.791669834244324
 20
26.44591107930591
 30
0.0
 11
9.715669834244307
 21
26.44591107930591
 31
0.0
 70
    32
  1
A
 71
     5
 42
7.847999999999967
  3
23NSTD
100
AcDbAlignedDimension
 13
13.63966983424429
 23
22.00578475094837
 33
0.0
 14
5.791669834244324
 24
22.00578475094837
 34
0.0
100
AcDbRotatedDimension
  0
DIMENSION
  5
21A
330
1E
100
AcDbEntity
  8
DIM
100
AcDbDimension
  2
*D8
 10
4.678078741777806
 20
21.12890975094837
 30
0.0
 11
4.678078741777802
 21
16.69290975094837
 31
0.0
 70
    32
  1
H
 71
     5
 42
8.871999999999998
  3
23NSTD
100
AcDbAlignedDimension
 13
7.190669834244285
 23
12.25690975094837
 33
0.0
 14
7.190669834244292
 24
21.12890975094837
 34
0.0
 50
90.0
100
AcDbRotatedDimension
  0
DIMENSION
  5
21B
330
1E
100
AcDbEntity
  8
DIM
100
AcDbDimension
  2
*D9
 10
3.678078741777806
 20
21.66740975094837
 30
0.0
 11
3.678078741777802
 21
16.69290975094837
 31
0.0
 70
    32
  1
G
 71
     5
 42
9.948999999999996
  3
23NSTD
100
AcDbAlignedDimension
 13
6.720669834244294
 23
11.71840975094837
 33
0.0
 14
6.720669834244294
 24
21.66740975094837
 34
0.0
 50
90.0
100
AcDbRotatedDimension
  0
DIMENSION
  5
21C
330
1E
100
AcDbEntity
  8
DIM
100
AcDbDimension
  2
*D10
 10
2.678078741777806
 20
22.18740975094837
 30
0.0
 11
2.678078741777802
 21
16.69290975094837
 31
0.0
 70
    32
  1
F
 71
     5
 42
10.98899999999999
  3
23NSTD
100
AcDbAlignedDimension
 13
6.36266983424429
 23
11.19840975094837
 33
0.0
 14
6.362669834244297
 24
22.18740975094837
 34
0.0
 50
90.0
100
AcDbRotatedDimension
  0
DIMENSION
  5
21D
330
1E
100
AcDbEntity
  8
DIM
100
AcDbDimension
  2
*D11
 10
13.2656698342443
 20
51.40115311027031
 30
0.0
 11
9.715669834244305
 21
51.40115311027031
 31
0.0
 70
    32
  1
R
 71
     5
 42
7.100000000000001
  3
23NSTD
100
AcDbAlignedDimension
 13
6.165669834244305
 23
50.33567111752925
 33
0.0
 14
13.2656698342443
 24
50.33567111752925
 34
0.0
100
AcDbRotatedDimension
  0
DIMENSION
  5
21E
330
1E
100
AcDbEntity
  8
DIM
100
AcDbDimension
  2
*D12
 10
30.73815941172914
 20
39.61456119099707
 30
0.0
 11
30.73815941172914
 21
34.08456119099708
 31
0.0
 70
    32
  1
N
 71
     5
 42
11.05999999999999
  3
23NSTD
100
AcDbAlignedDimension
 13
25.98900066136059
 23
28.55456119099708
 33
0.0
 14
25.98900066136059
 24
39.61456119099707
 34
0.0
 50
90.0
100
AcDbRotatedDimension
  0
DIMENSION
  5
21F
330
1E
100
AcDbEntity
  8
DIM
100
AcDbDimension
  2
*D13
 10
17.45892089433799
 20
28.45806119099707
 30
0.0
 11
17.45892089433799
 21
34.08456119099708
 31
0.0
 70
    32
  1
M
 71
     5
 42
11.253
  3
23NSTD
100
AcDbAlignedDimension
 13
19.20877310146855
 23
39.71106119099708
 33
0.0
 14
19.20877310146855
 24
28.45806119099707
 34
0.0
 50
270.0
100
AcDbRotatedDimension
  0
DIMENSION
  5
220
330
1E
100
AcDbEntity
  8
DIM
100
AcDbDimension
  2
*D14
 10
18.98325066136059
 20
41.61056119099707
 30
0.0
 11
19.57637566136058
 21
41.61056119099707
 31
0.0
 70
    32
  1
L
 71
     5
 42
1.18624999999999
  3
23NSTD
100
AcDbAlignedDimension
 13
20.16950066136058
 23
40.00056119099708
 33
0.0
 14
18.98325066136059
 24
39.47505487337239
 34
0.0
 50
180.0
100
AcDbRotatedDimension
  0
LINE
  5
221
330
1E
100
AcDbEntity
  8
OBJECT
100
AcDbLine
 10
19.85450066136057
 20
28.19668721100198
 30
0.0
 11
20.16950066136057
 21
28.19668721100198
 31
0.0
  0
LINE
  5
222
330
1E
100
AcDbEntity
  8
OBJECT
100
AcDbLine
 10
19.85450066136057
 20
28.43293721100198
 30
0.0
 11
19.85450066136057
 21
28.19668721100198
 31
0.0
  0
LINE
  5
223
330
1E
100
AcDbEntity
  8
OBJECT
100
AcDbLine
 10
19.21007531129188
 20
28.45801052459288
 30
0.0
 11
19.85450066136057
 21
28.43293721100198
 31
0.0
  0
LINE
  5
224
330
1E
100
AcDbEntity
  8
OBJECT
100
AcDbLine
 10
19.85450066136058
 20
34.08456119099708
 30
0.0
 11
19.8545006613606
 21
36.90206119099674
 31
0.0
  0
LINE
  5
225
330
1E
100
AcDbEntity
  8
OBJECT
100
AcDbLine
 10
20.16950066136057
 20
28.43256119099707
 30
0.0
 11
20.16950066136059
 21
36.90206119099674
 31
0.0
  0
LINE
  5
226
330
1E
100
AcDbEntity
  8
OBJECT
100
AcDbLine
 10
19.85450066136058
 20
39.97243517099215
 30
0.0
 11
20.16950066136058
 21
39.97243517099216
 31
0.0
  0
LINE
  5
227
330
1E
100
AcDbEntity
  8
OBJECT
100
AcDbLine
 10
19.21007531129188
 20
39.71111185740128
 30
0.0
 11
19.85450066136058
 21
39.73618517099216
 31
0.0
  0
DIMENSION
  5
228
330
1E
100
AcDbEntity
  8
DIM
100
AcDbDimension
  2
*D15
 10
6.061669834244307
 20
42.27700737342522
 30
0.0
 11
9.715669834244305
 21
42.27700737342522
 31
0.0
 70
    32
  1
P
 71
     5
 42
7.307999999999998
  3
23NSTD
100
AcDbAlignedDimension
 13
13.3696698342443
 23
43.55644355763721
 33
0.0
 14
6.061669834244307
 24
43.55644355763721
 34
0.0
 50
180.0
100
AcDbRotatedDimension
  0
LINE
  5
229
330
1E
100
AcDbEntity
  8
OBJECT
100
AcDbLine
 10
9.715669834244305
 20
44.51717111752925
 30
0.0
 11
5.800295854249217
 21
44.51717111752925
 31
0.0
  0
LINE
  5
22A
330
1E
100
AcDbEntity
  8
OBJECT
100
AcDbLine
 10
5.800295854249217
 20
44.20217111752925
 30
0.0
 11
13.63104381423939
 21
44.20217111752926
 31
0.0
  0
LINE
  5
22B
330
1E
100
AcDbEntity
  8
OBJECT
100
AcDbLine
 10
5.800295854249217
 20
44.20217111752925
 30
0.0
 11
5.800295854249217
 21
44.51717111752925
 31
0.0
  0
LINE
  5
22C
330
1E
100
AcDbEntity
  8
OBJECT
100
AcDbLine
 10
6.061669834244307
 20
43.55644355763721
 30
0.0
 11
6.036545854249215
 21
44.20217111752925
 31
0.0
  0
ARC
  5
22D
330
1E
100
AcDbEntity
  8
OBJECT
100
AcDbCircle
 10
6.297676151868992
 20
43.56717111752924
 30
0.0
 40
0.23625
100
AcDbArc
 50
182.6025622024998
 51
270.0
  0
LINE
  5
22E
330
1E
100
AcDbEntity
  8
OBJECT
100
AcDbLine
 10
6.297676151868992
 20
43.33092111752924
 30
0.0
 11
13.13366351661962
 21
43.33092111752924
 31
0.0
  0
LINE
  5
22F
330
1E
100
AcDbEntity
  8
OBJECT
100
AcDbLine
 10
9.715669834244305
 20
44.51717111752925
 30
0.0
 11
13.63104381423939
 21
44.51717111752925
 31
0.0
  0
LINE
  5
230
330
1E
100
AcDbEntity
  8
OBJECT
100
AcDbLine
 10
13.63104381423939
 20
44.20217111752926
 30
0.0
 11
13.63104381423939
 21
44.51717111752925
 31
0.0
  0
LINE
  5
231
330
1E
100
AcDbEntity
  8
OBJECT
100
AcDbLine
 10
13.3696698342443
 20
43.55644355763721
 30
0.0
 11
13.39479381423939
 21
44.20217111752925
 31
0.0
  0
ARC
  5
232
330
1E
100
AcDbEntity
  8
OBJECT
100
AcDbCircle
 10
13.13366351661962
 20
43.56717111752924
 30
0.0
 40
0.23625
100
AcDbArc
 50
270.0
 51
357.3974377975001
  0
LINE
  5
233
330
1E
100
AcDbEntity
  8
OBJECT
100
AcDbLine
 10
6.061669834244304
 20
39.59293619099709
 30
0.0
 11
6.061669834244296
 21
28.57618619099707
 31
0.0
  0
LINE
  5
234
330
1E
100
AcDbEntity
  8
OBJECT
100
AcDbLine
 10
5.800295854249217
 20
39.57868517099216
 30
0.0
 11
5.800295854249217
 21
38.0175611909971
 31
0.0
  0
LINE
  5
235
330
1E
100
AcDbEntity
  8
OBJECT
100
AcDbLine
 10
13.63104381423939
 20
39.57868517099216
 30
0.0
 11
13.63104381423941
 21
37.94899204811567
 31
0.0
  0
LINE
  5
236
330
1E
100
AcDbEntity
  8
OBJECT
100
AcDbLine
 10
13.36966983424429
 20
39.59293619099709
 30
0.0
 11
13.36966983424429
 21
28.57618619099707
 31
0.0
  0
LINE
  5
237
330
1E
100
AcDbEntity
  8
OBJECT
100
AcDbLine
 10
13.25154483424429
 20
28.45806119099707
 30
0.0
 11
6.179794834244288
 21
28.45806119099707
 31
0.0
  0
LINE
  5
238
330
1E
100
AcDbEntity
  8
OBJECT
100
AcDbLine
 10
13.23729381423939
 20
28.19668721100198
 30
0.0
 11
6.194045854249207
 21
28.19668721100198
 31
0.0
  0
ARC
  5
239
330
1E
100
AcDbEntity
  8
OBJECT
100
AcDbCircle
 10
6.194045854249207
 20
28.59043721100198
 30
0.0
 40
0.39375
100
AcDbArc
 50
180.0
 51
270.0
  0
ARC
  5
23A
330
1E
100
AcDbEntity
  8
OBJECT
100
AcDbCircle
 10
6.179794834244288
 20
28.57618619099707
 30
0.0
 40
0.118125
100
AcDbArc
 50
180.0
 51
270.0
  0
POINT
  5
23B
330
1E
100
AcDbEntity
  8
OBJECT
100
AcDbPoint
 10
5.80029585424921
 20
28.59043721100198
 30
0.0
  0
ARC
  5
23C
330
1E
100
AcDbEntity
  8
OBJECT
100
AcDbCircle
 10
13.23729381423939
 20
28.59043721100198
 30
0.0
 40
0.39375
100
AcDbArc
 50
270.0
 51
0.0
  0
POINT
  5
23D
330
1E
100
AcDbEntity
  8
OBJECT
100
AcDbPoint
 10
13.23729381423939
 20
28.19668721100198
 30
0.0
  0
POINT
  5
23E
330
1E
100
AcDbEntity
  8
OBJECT
100
AcDbPoint
 10
13.63104381423938
 20
28.59043721100198
 30
0.0
  0
ARC
  5
23F
330
1E
100
AcDbEntity
  8
OBJECT
100
AcDbCircle
 10
13.25154483424429
 20
28.57618619099707
 30
0.0
 40
0.118125
100
AcDbArc
 50
270.0
 51
0.0
  0
LINE
  5
240
330
1E
100
AcDbEntity
  8
OBJECT
100
AcDbLine
 10
13.23729381423939
 20
39.97243517099216
 30
0.0
 11
6.194045854249214
 21
39.97243517099216
 31
0.0
  0
LINE
  5
241
330
1E
100
AcDbEntity
  8
OBJECT
100
AcDbLine
 10
13.2515448342443
 20
39.71106119099708
 30
0.0
 11
6.179794834244296
 21
39.71106119099708
 31
0.0
  0
ARC
  5
242
330
1E
100
AcDbEntity
  8
OBJECT
100
AcDbCircle
 10
6.179794834244296
 20
39.59293619099709
 30
0.0
 40
0.118125
100
AcDbArc
 50
90.00000000000005
 51
180.0
  0
ARC
  5
243
330
1E
100
AcDbEntity
  8
OBJECT
100
AcDbCircle
 10
6.194045854249214
 20
39.57868517099216
 30
0.0
 40
0.39375
100
AcDbArc
 50
90.00000000000005
 51
180.0
  0
ARC
  5
244
330
1E
100
AcDbEntity
  8
OBJECT
100
AcDbCircle
 10
13.2515448342443
 20
39.59293619099709
 30
0.0
 40
0.118125
100
AcDbArc
 50
0.0
 51
90.00000000000005
  0
ARC
  5
245
330
1E
100
AcDbEntity
  8
OBJECT
100
AcDbCircle
 10
13.23729381423939
 20
39.57868517099216
 30
0.0
 40
0.39375
100
AcDbArc
 50
0.0
 51
90.0
  0
LINE
  5
246
330
1E
100
AcDbEntity
  8
OBJECT
100
AcDbLine
 10
19.8545006613606
 20
37.94906119099674
 30
0.0
 11
19.85450066136058
 21
39.97243517099215
 31
0.0
  0
LINE
  5
247
330
1E
100
AcDbEntity
  8
OBJECT
100
AcDbLine
 10
20.16950066136058
 20
37.94906119099674
 30
0.0
 11
20.16950066136058
 21
40.00056119099708
 31
0.0
  0
LINE
  5
248
330
1E
100
AcDbEntity
  8
OBJECT
100
AcDbLine
 10
20.44512566136059
 20
36.90206119099674
 30
0.0
 11
20.44512566136059
 21
34.08456119099708
 31
0.0
  0
LINE
  5
249
330
1E
100
AcDbEntity
  8
OBJECT
100
AcDbLine
 10
5.800295854249217
 20
36.7365611909971
 30
0.0
 11
5.800295854249217
 21
31.43256119099706
 31
0.0
  0
LINE
  5
24A
330
1E
100
AcDbEntity
  8
OBJECT
100
AcDbLine
 10
5.800295854249217
 20
30.15156119099706
 30
0.0
 11
5.80029585424921
 21
28.59043721100198
 31
0.0
  0
LINE
  5
24B
330
1E
100
AcDbEntity
  8
OBJECT
100
AcDbLine
 10
13.63104381423941
 20
36.90213727966479
 30
0.0
 11
13.63104381423941
 21
31.26698510232937
 31
0.0
  0
LINE
  5
24C
330
1E
100
AcDbEntity
  8
OBJECT
100
AcDbLine
 10
13.63104381423941
 20
30.22013033387849
 30
0.0
 11
13.63104381423938
 21
28.59043721100198
 31
0.0
  0
LINE
  5
24D
330
1E
100
AcDbEntity
  8
CENTER
100
AcDbLine
 10
9.715669834244298
 20
27.81952785558404
 30
0.0
 11
9.715669834244305
 21
40.39205009185494
 31
0.0
  0
LINE
  5
24E
330
1E
100
AcDbEntity
  8
CENTER
100
AcDbLine
 10
5.399064562916979
 20
34.08456119099708
 30
0.0
 11
14.08245573153909
 21
34.08456119099708
 31
0.0
  0
LINE
  5
24F
330
1E
100
AcDbEntity
  8
CENTER
100
AcDbLine
 10
9.715669834244295
 20
10.38504483008558
 30
0.0
 11
9.715669834244295
 21
23.00077467181117
 31
0.0
  0
LINE
  5
250
330
1E
100
AcDbEntity
  8
TITLE
100
AcDbLine
 10
0.2324999999250223
 20
1.800000000006271
 30
0.0
 11
37.71750000007497
 21
1.800000000006271
 31
0.0
  0
TEXT
  5
251
330
1E
100
AcDbEntity
  8
TEXT
100
AcDbText
 10
9.438134054266344
 20
1.17743633266658
 30
0.0
 40
0.4687500000018751
  1
7.848
 41
0.75
  7
TXT
 72
     1
 11
10.14125905426915
 21
1.17743633266658
 31
0.0
100
AcDbText
  0
TEXT
  5
252
330
1E
100
AcDbEntity
  8
TEXT
100
AcDbText
 10
9.496727804266578
 20
0.4185300826635454
 30
0.0
 40
0.4687500000018751
  1
[199]
 41
0.75
  7
TXT
 72
     1
 11
10.14125905426915
 21
0.4185300826635454
 31
0.0
100
AcDbText
  0
TEXT
  5
253
330
1E
100
AcDbEntity
  8
TEXT
100
AcDbText
 10
11.52313323438961
 20
0.4185300826635454
 30
0.0
 40
0.4687500000018751
  1
[178]
 41
0.75
  7
TXT
 72
     1
 11
12.16766448439219
 21
0.4185300826635454
 31
0.0
100
AcDbText
  0
TEXT
  5
254
330
1E
100
AcDbEntity
  8
TEXT
100
AcDbText
 10
11.55243010938973
 20
1.17743633266658
 30
0.0
 40
0.4687500000018751
  1
7.021
 41
0.75
  7
TXT
 72
     1
 11
12.16766448439219
 21
1.17743633266658
 31
0.0
100
AcDbText
  0
TEXT
  5
255
330
1E
100
AcDbEntity
  8
TEXT
100
AcDbText
 10
13.54953866451266
 20
0.4185300826635454
 30
0.0
 40
0.4687500000018751
  1
[152]
 41
0.75
  7
TXT
 72
     1
 11
14.19406991451524
 21
0.4185300826635454
 31
0.0
100
AcDbText
  0
TEXT
  5
256
330
1E
100
AcDbEntity
  8
TEXT
100
AcDbText
 10
13.52024178951254
 20
1.17743633266658
 30
0.0
 40
0.4687500000018751
  1
5.990
 41
0.75
  7
TXT
 72
     1
 11
14.19406991451524
 21
1.17743633266658
 31
0.0
100
AcDbText
  0
TEXT
  5
257
330
1E
100
AcDbEntity
  8
TEXT
100
AcDbText
 10
15.61987071651907
 20
1.17743633266658
 30
0.0
 40
0.4687500000018751
  1
5.050
 41
0.75
  7
TXT
 72
     1
 11
16.26440196652165
 21
1.17743633266658
 31
0.0
100
AcDbText
  0
TEXT
  5
258
330
1E
100
AcDbEntity
  8
TEXT
100
AcDbText
 10
15.61987071651907
 20
0.4185300826635454
 30
0.0
 40
0.4687500000018751
  1
[128]
 41
0.75
  7
TXT
 72
     1
 11
16.26440196652165
 21
0.4185300826635454
 31
0.0
100
AcDbText
  0
TEXT
  5
259
330
1E
100
AcDbEntity
  8
TEXT
100
AcDbText
 10
17.67182512268107
 20
0.4185300826635454
 30
0.0
 40
0.4687500000018751
  1
[301]
 41
0.75
  7
TXT
 72
     1
 11
18.28705949768353
 21
0.4185300826635454
 31
0.0
100
AcDbText
  0
TEXT
  5
25A
330
1E
100
AcDbEntity
  8
TEXT
100
AcDbText
 10
17.52534074768048
 20
1.17743633266658
 30
0.0
 40
0.4687500000018751
  1
11.832
 41
0.75
  7
TXT
 72
     1
 11
18.28705949768353
 21
1.17743633266658
 31
0.0
100
AcDbText
  0
TEXT
  5
25B
330
1E
100
AcDbEntity
  8
TEXT
100
AcDbText
 10
19.596647149832
 20
0.4185300826635454
 30
0.0
 40
0.4687500000018751
  1
[279]
 41
0.75
  7
TXT
 72
     1
 11
20.29977214983481
 21
0.4185300826635454
 31
0.0
100
AcDbText
  0
TEXT
  5
25C
330
1E
100
AcDbEntity
  8
TEXT
100
AcDbText
 10
19.50875652483165
 20
1.17743633266658
 30
0.0
 40
0.4687500000018751
  1
10.989
 41
0.75
  7
TXT
 72
     1
 11
20.29977214983481
 21
1.17743633266658
 31
0.0
100
AcDbText
  0
TEXT
  5
25D
330
1E
100
AcDbEntity
  8
TEXT
100
AcDbText
 10
21.67657385198962
 20
1.17743633266658
 30
0.0
 40
0.4687500000018751
  1
9.949
 41
0.75
  7
TXT
 72
     1
 11
22.37969885199244
 21
1.17743633266658
 31
0.0
100
AcDbText
  0
TEXT
  5
25E
330
1E
100
AcDbEntity
  8
TEXT
100
AcDbText
 10
21.67657385198962
 20
0.4185300826635454
 30
0.0
 40
0.4687500000018751
  1
[253]
 41
0.75
  7
TXT
 72
     1
 11
22.37969885199244
 21
0.4185300826635454
 31
0.0
100
AcDbText
  0
TEXT
  5
25F
330
1E
100
AcDbEntity
  8
TEXT
100
AcDbText
 10
23.70272935015541
 20
0.4185300826635454
 30
0.0
 40
0.4687500000018751
  1
[225]
 41
0.75
  7
TXT
 72
     1
 11
24.40585435015822
 21
0.4185300826635454
 31
0.0
100
AcDbText
  0
TEXT
  5
260
330
1E
100
AcDbEntity
  8
TEXT
100
AcDbText
 10
23.70272935015541
 20
1.17743633266658
 30
0.0
 40
0.4687500000018751
  1
8.872
 41
0.75
  7
TXT
 72
     1
 11
24.40585435015822
 21
1.17743633266658
 31
0.0
100
AcDbText
  0
DIMENSION
  5
261
330
1E
100
AcDbEntity
  8
DIM
100
AcDbDimension
  2
*D16
 10
26.06875066136057
 20
41.61056119099707
 30
0.0
 11
23.11912566136058
 21
41.61056119099707
 31
0.0
 70
    32
  1
K
 71
     5
 42
5.899249999999991
  3
23NSTD
100
AcDbAlignedDimension
 13
20.16950066136058
 23
40.00056119099708
 33
0.0
 14
26.06875066136057
 24
39.34006119099709
 34
0.0
100
AcDbRotatedDimension
  0
TEXT
  5
262
330
1E
100
AcDbEntity
  8
TEXT
100
AcDbText
 10
25.81899687245912
 20
0.4185300826635454
 30
0.0
 40
0.4687500000018751
  1
[150]
 41
0.75
  7
TXT
 72
     1
 11
26.43423124746158
 21
0.4185300826635454
 31
0.0
100
AcDbText
  0
TEXT
  5
263
330
1E
100
AcDbEntity
  8
TEXT
100
AcDbText
 10
25.73110624745877
 20
1.17743633266658
 30
0.0
 40
0.4687500000018751
  1
5.899
 41
0.75
  7
TXT
 72
     1
 11
26.43423124746158
 21
1.17743633266658
 31
0.0
100
AcDbText
  0
TEXT
  5
264
330
1E
100
AcDbEntity
  8
TEXT
100
AcDbText
 10
28.06548416041327
 20
0.4185300826635454
 30
0.0
 40
0.4687500000018751
  1
[30]
 41
0.75
  7
TXT
 72
     1
 11
28.56353103541526
 21
0.4185300826635454
 31
0.0
100
AcDbText
  0
TEXT
  5
265
330
1E
100
AcDbEntity
  8
TEXT
100
AcDbText
 10
27.97759353541292
 20
1.17743633266658
 30
0.0
 40
0.4687500000018751
  1
1.186
 41
0.75
  7
TXT
 72
     1
 11
28.56353103541526
 21
1.17743633266658
 31
0.0
100
AcDbText
  0
TEXT
  5
266
330
1E
100
AcDbEntity
  8
TEXT
100
AcDbText
 10
33.95767550389818
 20
1.17743633266658
 30
0.0
 40
0.4687500000018751
  1
7.308
 41
0.75
  7
TXT
 72
     1
 11
34.63150362890088
 21
1.17743633266658
 31
0.0
100
AcDbText
  0
TEXT
  5
267
330
1E
100
AcDbEntity
  8
TEXT
100
AcDbText
 10
33.9869723788983
 20
0.4185300826635454
 30
0.0
 40
0.4687500000018751
  1
[186]
 41
0.75
  7
TXT
 72
     1
 11
34.63150362890088
 21
0.4185300826635454
 31
0.0
100
AcDbText
  0
TEXT
  5
268
330
1E
100
AcDbEntity
  8
TEXT
100
AcDbText
 10
10.02407155426868
 20
1.961186332669716
 30
0.0
 40
0.4687500000018751
  1
A
 41
0.75
  7
TXT
 72
     1
 11
10.14125905426915
 21
1.961186332669716
 31
0.0
100
AcDbText
  0
TEXT
  5
269
330
1E
100
AcDbEntity
  8
TEXT
100
AcDbText
 10
12.05047698439172
 20
1.961186332669716
 30
0.0
 40
0.4687500000018751
  1
B
 41
0.75
  7
TXT
 72
     1
 11
12.16766448439219
 21
1.961186332669716
 31
0.0
100
AcDbText
  0
TEXT
  5
26A
330
1E
100
AcDbEntity
  8
TEXT
100
AcDbText
 10
14.07688241451477
 20
1.961186332669716
 30
0.0
 40
0.4687500000018751
  1
C
 41
0.75
  7
TXT
 72
     1
 11
14.19406991451524
 21
1.961186332669716
 31
0.0
100
AcDbText
  0
TEXT
  5
26B
330
1E
100
AcDbEntity
  8
TEXT
100
AcDbText
 10
16.14721446652118
 20
1.961186332669716
 30
0.0
 40
0.4687500000018751
  1
D
 41
0.75
  7
TXT
 72
     1
 11
16.26440196652165
 21
1.961186332669716
 31
0.0
100
AcDbText
  0
TEXT
  5
26C
330
1E
100
AcDbEntity
  8
TEXT
100
AcDbText
 10
18.16987199768307
 20
1.961186332669716
 30
0.0
 40
0.4687500000018751
  1
E
 41
0.75
  7
TXT
 72
     1
 11
18.28705949768354
 21
1.961186332669716
 31
0.0
100
AcDbText
  0
TEXT
  5
26D
330
1E
100
AcDbEntity
  8
TEXT
100
AcDbText
 10
20.18258464983435
 20
1.961186332669716
 30
0.0
 40
0.4687500000018751
  1
F
 41
0.75
  7
TXT
 72
     1
 11
20.29977214983481
 21
1.961186332669716
 31
0.0
100
AcDbText
  0
TEXT
  5
26E
330
1E
100
AcDbEntity
  8
TEXT
100
AcDbText
 10
22.26251135199197
 20
1.961186332669716
 30
0.0
 40
0.4687500000018751
  1
G
 41
0.75
  7
TXT
 72
     1
 11
22.37969885199244
 21
1.961186332669716
 31
0.0
100
AcDbText
  0
TEXT
  5
26F
330
1E
100
AcDbEntity
  8
TEXT
100
AcDbText
 10
24.28866685015776
 20
1.961186332669716
 30
0.0
 40
0.4687500000018751
  1
H
 41
0.75
  7
TXT
 72
     1
 11
24.40585435015822
 21
1.961186332669716
 31
0.0
100
AcDbText
  0
TEXT
  5
270
330
1E
100
AcDbEntity
  8
TEXT
100
AcDbText
 10
26.31704374746111
 20
1.961186332669716
 30
0.0
 40
0.4687500000018751
  1
K
 41
0.75
  7
TXT
 72
     1
 11
26.43423124746158
 21
1.961186332669716
 31
0.0
100
AcDbText
  0
TEXT
  5
271
330
1E
100
AcDbEntity
  8
TEXT
100
AcDbText
 10
28.44634353541479
 20
1.961186332669716
 30
0.0
 40
0.4687500000018751
  1
L
 41
0.75
  7
TXT
 72
     1
 11
28.56353103541526
 21
1.961186332669716
 31
0.0
100
AcDbText
  0
TEXT
  5
272
330
1E
100
AcDbEntity
  8
TEXT
100
AcDbText
 10
30.44476432917517
 20
1.961186332669716
 30
0.0
 40
0.4687500000018751
  1
M
 41
0.75
  7
TXT
 72
     1
 11
30.56195182917564
 21
1.961186332669716
 31
0.0
100
AcDbText
  0
TEXT
  5
273
330
1E
100
AcDbEntity
  8
TEXT
100
AcDbText
 10
32.47226924383059
 20
1.961186332669716
 30
0.0
 40
0.4687500000018751
  1
N
 41
0.75
  7
TXT
 72
     1
 11
32.58945674383106
 21
1.961186332669716
 31
0.0
100
AcDbText
  0
TEXT
  5
274
330
1E
100
AcDbEntity
  8
TEXT
100
AcDbText
 10
34.51431612890041
 20
1.961186332669716
 30
0.0
 40
0.4687500000018751
  1
P
 41
0.75
  7
TXT
 72
     1
 11
34.63150362890088
 21
1.961186332669716
 31
0.0
100
AcDbText
  0
TEXT
  5
275
330
1E
100
AcDbEntity
  8
TEXT
100
AcDbText
 10
36.56925647785107
 20
1.961186332669716
 30
0.0
 40
0.4687500000018751
  1
R
 41
0.75
  7
TXT
 72
     1
 11
36.68644397785154
 21
1.961186332669716
 31
0.0
100
AcDbText
  0
LINE
  5
276
330
1E
100
AcDbEntity
  8
TITLE
100
AcDbLine
 10
9.13106249996062
 20
2.583750000009406
 30
0.0
 11
37.71750000007497
 21
2.583750000009406
 31
0.0
  0
TEXT
  5
277
330
1E
100
AcDbEntity
  8
TEXT
100
AcDbText
 10
29.85882682917282
 20
0.4185300826635454
 30
0.0
 40
0.4687500000018751
  1
[286]
 41
0.75
  7
TXT
 72
     1
 11
30.56195182917564
 21
0.4185300826635454
 31
0.0
100
AcDbText
  0
TEXT
  5
278
330
1E
100
AcDbEntity
  8
TEXT
100
AcDbText
 10
29.80023307917259
 20
1.17743633266658
 30
0.0
 40
0.4687500000018751
  1
11.253
 41
0.75
  7
TXT
 72
     1
 11
30.56195182917564
 21
1.17743633266658
 31
0.0
100
AcDbText
  0
TEXT
  5
279
330
1E
100
AcDbEntity
  8
TEXT
100
AcDbText
 10
31.94492549382848
 20
0.4185300826635454
 30
0.0
 40
0.4687500000018751
  1
[281]
 41
0.75
  7
TXT
 72
     1
 11
32.58945674383106
 21
0.4185300826635454
 31
0.0
100
AcDbText
  0
TEXT
  5
27A
330
1E
100
AcDbEntity
  8
TEXT
100
AcDbText
 10
31.88633174382825
 20
1.17743633266658
 30
0.0
 40
0.4687500000018751
  1
11.060
 41
0.75
  7
TXT
 72
     1
 11
32.58945674383106
 21
1.17743633266658
 31
0.0
100
AcDbText
  0
TEXT
  5
27B
330
1E
100
AcDbEntity
  8
TEXT
100
AcDbText
 10
36.07120960284908
 20
0.4185300826635454
 30
0.0
 40
0.4687500000018751
  1
[180]
 41
0.75
  7
TXT
 72
     1
 11
36.68644397785154
 21
0.4185300826635454
 31
0.0
100
AcDbText
  0
TEXT
  5
27C
330
1E
100
AcDbEntity
  8
TEXT
100
AcDbText
 10
36.10050647784919
 20
1.17743633266658
 30
0.0
 40
0.4687500000018751
  1
7.100
 41
0.75
  7
TXT
 72
     1
 11
36.68644397785154
 21
1.17743633266658
 31
0.0
100
AcDbText
  0
TEXT
  5
27D
330
1E
100
AcDbEntity
  8
TEXT
100
AcDbText
 10
3.451312499937903
 20
3.533419200124042
 30
0.0
 40
0.4687500000018751
  1
PART NO.
 41
0.75
  7
TXT
 72
     1
 11
4.681781249942825
 21
3.533419200124042
 31
0.0
100
AcDbText
  0
TEXT
  5
27E
330
1E
100
AcDbEntity
  8
TEXT
100
AcDbText
 10
1.076318825573792
 20
0.7690872004515186
 30
0.0
 40
0.4687500000018751
  1
NBA-10144
 41
0.75
  7
TXT
 72
     1
 11
2.4532719505793
 21
0.7690872004515186
 31
0.0
100
AcDbText
  0
DIMENSION
  5
27F
330
1E
100
AcDbEntity
  8
DIM
100
AcDbDimension
  2
*D17
 10
25.9890006613606
 20
31.92941389968449
 30
0.0
 11
28.87767253636059
 21
31.92941389968449
 31
0.0
 70
    32
  1
<>
 71
     5
 42
0.1450000000000067
  3
23NSTD
100
AcDbAlignedDimension
 13
25.84400066136059
 23
29.9021228066597
 33
0.0
 14
25.9890006613606
 24
31.92941389968449
 34
0.0
100
AcDbRotatedDimension
  0
DIMENSION
  5
280
330
1E
100
AcDbEntity
  8
DIM
100
AcDbDimension
  2
*D18
 10
25.84400066136059
 20
30.81823772957967
 30
0.0
 11
28.84986003636059
 21
30.81823772957967
 31
0.0
 70
    32
  1
0.390 [10]
 71
     5
 42
0.3930000000000007
  3
23NSTD
100
AcDbAlignedDimension
 13
25.45100066136059
 23
29.82183975358942
 33
0.0
 14
25.84400066136059
 24
29.9021228066597
 34
0.0
100
AcDbRotatedDimension
  0
DIMENSION
  5
281
330
1E
100
AcDbEntity
  8
DIM
100
AcDbDimension
  2
*D19
 10
26.06875066136057
 20
40.61056119099707
 30
0.0
 11
28.95742253636057
 21
40.61056119099707
 31
0.0
 70
    32
  1
<>
 71
     5
 42
0.0797499999999829
  3
23NSTD
100
AcDbAlignedDimension
 13
25.98900066136059
 23
39.61456119099707
 33
0.0
 14
26.06875066136057
 24
39.34006119099709
 34
0.0
100
AcDbRotatedDimension
  0
TEXT
  5
282
330
1E
100
AcDbEntity
  8
TEXT
100
AcDbText
 10
5.525600075591588
 20
0.7690872004515186
 30
0.0
 40
0.4687500000018751
  1
NBA-10164
 41
0.75
  7
TXT
 72
     1
 11
6.902553200597096
 21
0.7690872004515186
 31
0.0
100
AcDbText
  0
LINE
  5
283
330
1E
100
AcDbEntity
  8
TITLE
100
AcDbLine
 10
9.13106249996062
 20
4.151250000015676
 30
0.0
 11
9.131062499960618
 21
0.2325000000000009
 31
0.0
  0
LINE
  5
284
330
1E
100
AcDbEntity
  8
TITLE
100
AcDbLine
 10
11.17293749996878
 20
2.583750000009406
 30
0.0
 11
11.17293749996878
 21
0.2325000000000009
 31
0.0
  0
LINE
  5
285
330
1E
100
AcDbEntity
  8
TITLE
100
AcDbLine
 10
13.21481249997695
 20
2.583750000009406
 30
0.0
 11
13.21481249997695
 21
0.2325000000000009
 31
0.0
  0
LINE
  5
286
330
1E
100
AcDbEntity
  8
TITLE
100
AcDbLine
 10
15.25668749998511
 20
2.583750000009406
 30
0.0
 11
15.25668749998511
 21
0.2325000000000009
 31
0.0
  0
LINE
  5
287
330
1E
100
AcDbEntity
  8
TITLE
100
AcDbLine
 10
17.29856249999328
 20
2.583750000009406
 30
0.0
 11
17.29856249999328
 21
0.2325000000000009
 31
0.0
  0
LINE
  5
288
330
1E
100
AcDbEntity
  8
TITLE
100
AcDbLine
 10
19.34043750000146
 20
2.583750000009406
 30
0.0
 11
19.34043750000146
 21
0.2325000000000009
 31
0.0
  0
LINE
  5
289
330
1E
100
AcDbEntity
  8
TITLE
100
AcDbLine
 10
21.38231250000962
 20
2.583750000009406
 30
0.0
 11
21.38231250000962
 21
0.2325000000000009
 31
0.0
  0
LINE
  5
28A
330
1E
100
AcDbEntity
  8
TITLE
100
AcDbLine
 10
23.42418750001778
 20
2.583750000009406
 30
0.0
 11
23.42418750001778
 21
0.2325000000000009
 31
0.0
  0
LINE
  5
28B
330
1E
100
AcDbEntity
  8
TITLE
100
AcDbLine
 10
25.46606250002596
 20
2.583750000009406
 30
0.0
 11
25.46606250002596
 21
0.2325000000000009
 31
0.0
  0
LINE
  5
28C
330
1E
100
AcDbEntity
  8
TITLE
100
AcDbLine
 10
27.50793750003413
 20
2.583750000009406
 30
0.0
 11
27.50793750003413
 21
0.2325000000000009
 31
0.0
  0
LINE
  5
28D
330
1E
100
AcDbEntity
  8
TITLE
100
AcDbLine
 10
29.54981250004229
 20
2.583750000009406
 30
0.0
 11
29.54981250004229
 21
0.2325000000000009
 31
0.0
  0
LINE
  5
28E
330
1E
100
AcDbEntity
  8
TITLE
100
AcDbLine
 10
31.59168750005046
 20
2.583750000009406
 30
0.0
 11
31.59168750005046
 21
0.2325000000000009
 31
0.0
  0
LINE
  5
28F
330
1E
100
AcDbEntity
  8
TITLE
100
AcDbLine
 10
33.63356250005862
 20
2.583750000009406
 30
0.0
 11
33.63356250005862
 21
0.2325000000000009
 31
0.0
  0
LINE
  5
290
330
1E
100
AcDbEntity
  8
TITLE
100
AcDbLine
 10
35.67543750006679
 20
2.583750000009406
 30
0.0
 11
35.67543750006679
 21
0.2325000000000009
 31
0.0
  0
TEXT
  5
291
330
1E
100
AcDbEntity
  8
TEXT
100
AcDbText
 10
1.691553200576253
 20
2.760234143333216
 30
0.0
 40
0.4687500000018751
  1
SOLID
 41
0.75
  7
TXT
 72
     1
 11
2.4532719505793
 21
2.760234143333216
 31
0.0
100
AcDbText
  0
TEXT
  5
292
330
1E
100
AcDbEntity
  8
TEXT
100
AcDbText
 10
1.574365700575784
 20
1.978984143330091
 30
0.0
 40
0.4687500000018751
  1
COVER
 41
0.75
  7
TXT
 72
     1
 11
2.4532719505793
 21
1.978984143330091
 31
0.0
100
AcDbText
  0
TEXT
  5
293
330
1E
100
AcDbEntity
  8
TEXT
100
AcDbText
 10
6.023646950593581
 20
1.978984143330091
 30
0.0
 40
0.4687500000018751
  1
COVER
 41
0.75
  7
TXT
 72
     1
 11
6.902553200597096
 21
1.978984143330091
 31
0.0
100
AcDbText
  0
TEXT
  5
294
330
1E
100
AcDbEntity
  8
TEXT
100
AcDbText
 10
6.082240700593814
 20
2.760234143333216
 30
0.0
 40
0.4687500000018751
  1
CLEAR
 41
0.75
  7
TXT
 72
     1
 11
6.902553200597096
 21
2.760234143333216
 31
0.0
100
AcDbText
  0
LINE
  5
295
330
1E
100
AcDbEntity
  8
TITLE
100
AcDbLine
 10
4.674043901233571
 20
3.367500000012543
 30
0.0
 11
4.674043901233571
 21
0.2325000000000009
 31
0.0
  0
LINE
  5
296
330
1E
100
AcDbEntity
  8
TITLE
100
AcDbLine
 10
0.232499999925029
 20
3.367500000012543
 30
0.0
 11
9.13106249996062
 21
3.367500000012543
 31
0.0
  0
LINE
  5
297
330
1E
100
AcDbEntity
  8
TITLE
100
AcDbLine
 10
0.232499999925029
 20
4.151250000015676
 30
0.0
 11
37.71750000007497
 21
4.151250000015676
 31
0.0
  0
TEXT
  5
298
330
1E
100
AcDbEntity
  8
TEXT
100
AcDbText
 10
21.31828125001779
 20
3.055500000012541
 30
0.0
 40
0.6240000000000001
  1
DIMENSIONS
 41
0.75
  7
TXT
 72
     4
 11
23.42428125001779
 21
3.367500000012541
 31
0.0
100
AcDbText
  0
INSERT
  5
299
330
1E
100
AcDbEntity
  8
OBJECT
100
AcDbBlockReference
  2
HB
 10
0.0
 20
0.0
 30
0.0
 41
3.75
 42
3.75
 43
3.75
  0
LINE
  5
29A
330
1E
100
AcDbEntity
  8
TITLE
100
AcDbLine
 10
9.131062499960618
 20
1.016250000003136
 30
0.0
 11
37.71750000007497
 21
1.016250000003136
 31
0.0
  0
ARC
  5
29B
330
1E
100
AcDbEntity
  8
OBJECT
100
AcDbCircle
 10
6.372153538659041
 20
22.02851193211935
 30
0.0
 40
0.580486411535733
100
AcDbArc
 50
88.99897226560923
 51
179.8250171018206
  0
ARC
  5
29C
330
1E
100
AcDbEntity
  8
OBJECT
100
AcDbCircle
 10
13.05876062569219
 20
22.02808621514305
 30
0.0
 40
0.580913368877249
100
AcDbArc
 50
0.2168432165887509
 51
91.00764062108536
  0
LINE
  5
29D
330
1E
100
AcDbEntity
  8
OBJECT
100
AcDbLine
 10
6.382294834244323
 20
22.60890975094838
 30
0.0
 11
13.04854483424429
 21
22.60890975094838
 31
0.0
  0
CIRCLE
  5
29E
330
1E
100
AcDbEntity
  8
HIDDEN
100
AcDbCircle
 10
12.24066983424429
 20
12.25690975094837
 30
0.0
 40
0.095
  0
CIRCLE
  5
2A1
330
1E
100
AcDbEntity
  8
HIDDEN
100
AcDbCircle
 10
7.1906698342443
 20
12.25690975094837
 30
0.0
 40
0.095
  0
CIRCLE
  5
2A2
330
1E
100
AcDbEntity
  8
OBJECT
100
AcDbCircle
 10
7.1906698342443
 20
12.25690975094837
 30
0.0
 40
0.0825
  0
CIRCLE
  5
2A7
330
1E
100
AcDbEntity
  8
OBJECT
100
AcDbCircle
 10
7.1906698342443
 20
21.12890975094837
 30
0.0
 40
0.0825
  0
CIRCLE
  5
2A8
330
1E
100
AcDbEntity
  8
HIDDEN
100
AcDbCircle
 10
7.1906698342443
 20
21.12890975094837
 30
0.0
 40
0.095
  0
CIRCLE
  5
2A9
330
1E
100
AcDbEntity
  8
HIDDEN
100
AcDbCircle
 10
12.24066983424429
 20
21.12890975094837
 30
0.0
 40
0.095
  0
CIRCLE
  5
2AA
330
1E
100
AcDbEntity
  8
OBJECT
100
AcDbCircle
 10
12.24066983424429
 20
21.12890975094837
 30
0.0
 40
0.0825
  0
LWPOLYLINE
  5
2AD
330
1E
100
AcDbEntity
  8
DIM
100
AcDbPolyline
 90
        4
 70
     0
 10
12.46757527425437
 20
20.94039205603929
 40
0.0
 41
0.253125
 10
12.98676568783674
 20
20.50903800836596
 40
0.0
 41
0.0
 10
14.82326412117843
 20
18.98323743107549
 40
0.0
 41
0.0
 10
15.49826412117843
 20
18.98323743107549
 40
0.0
 41
0.0
  0
TEXT
  5
2B3
330
1E
100
AcDbEntity
  8
DIM
100
AcDbText
 10
15.83576412117843
 20
18.74886243107549
 30
0.0
 40
0.46875
  1
0.590 [15] DIA. BOSS
 41
0.75
  7
TXT
 11
15.83576412117843
 21
18.98323743107549
 31
0.0
100
AcDbText
 73
     2
  0
TEXT
  5
2B4
330
1E
100
AcDbEntity
  8
DIM
100
AcDbText
 10
15.83576412117843
 20
17.96761243107549
 30
0.0
 40
0.46875
  1
WITH M5 x 0.8mm
 41
0.75
  7
TXT
 11
15.83576412117843
 21
18.20198743107549
 31
0.0
100
AcDbText
 73
     2
  0
TEXT
  5
2B5
330
1E
100
AcDbEntity
  8
DIM
100
AcDbText
 10
15.83576412117843
 20
17.18636243107549
 30
0.0
 40
0.46875
  1
THREADED BRASS INSERT
 41
0.75
  7
TXT
 11
15.83576412117843
 21
17.42073743107549
 31
0.0
100
AcDbText
 73
     2
  0
TEXT
  5
2B6
330
1E
100
AcDbEntity
  8
DIM
100
AcDbText
 10
15.83576412117843
 20
16.40511243107549
 30
0.0
 40
0.46875
  1
(4) PLACES
 41
0.75
  7
TXT
 11
15.83576412117843
 21
16.63948743107549
 31
0.0
100
AcDbText
 73
     2
  0
TEXT
  5
2B7
330
1E
100
AcDbEntity
  8
DIM
100
AcDbText
 10
15.8357641211784
 20
14.31286243107549
 30
0.0
 40
0.46875
  1
0.590 [15] DIA. BOSS WITH
 41
0.75
  7
TXT
 11
15.8357641211784
 21
14.54723743107549
 31
0.0
100
AcDbText
 73
     2
  0
TEXT
  5
2B8
330
1E
100
AcDbEntity
  8
DIM
100
AcDbText
 10
15.8357641211784
 20
13.53161243107549
 30
0.0
 40
0.46875
  1
0.197 [5] DIA. HOLE x
 41
0.75
  7
TXT
 11
15.8357641211784
 21
13.76598743107549
 31
0.0
100
AcDbText
 73
     2
  0
TEXT
  5
2B9
330
1E
100
AcDbEntity
  8
DIM
100
AcDbText
 10
15.8357641211784
 20
12.75036243107549
 30
0.0
 40
0.46875
  1
0.395 [10] DEEP (4) PLACES
 41
0.75
  7
TXT
 11
15.8357641211784
 21
12.98473743107549
 31
0.0
100
AcDbText
 73
     2
  0
TEXT
  5
2BA
330
1E
100
AcDbEntity
  8
DIM
100
AcDbText
 10
15.8357641211784
 20
11.96911243107549
 30
0.0
 40
0.46875
  1
BOSSES ACCEPT M6 METRIC OR
 41
0.75
  7
TXT
 11
15.8357641211784
 21
12.20348743107549
 31
0.0
100
AcDbText
 73
     2
  0
LWPOLYLINE
  5
2BB
330
1E
100
AcDbEntity
  8
DIM
100
AcDbPolyline
 90
        4
 70
     0
 10
12.46757527425434
 20
16.50439205603929
 40
0.0
 41
0.253125
 10
12.98676568783672
 20
16.07303800836596
 40
0.0
 41
0.0
 10
14.8232641211784
 20
14.54723743107549
 40
0.0
 41
0.0
 10
15.4982641211784
 20
14.54723743107549
 40
0.0
 41
0.0
  0
LINE
  5
2C1
330
1E
100
AcDbEntity
  8
OBJECT
100
AcDbLine
 10
26.06875066136057
 20
28.82906119099706
 30
0.0
 11
25.98900066136058
 21
28.82906119099706
 31
0.0
  0
LINE
  5
2C2
330
1E
100
AcDbEntity
  8
OBJECT
100
AcDbLine
 10
25.84400066136053
 20
29.36202602083646
 30
0.0
 11
25.45100066136059
 21
29.31733975358943
 31
0.0
  0
LINE
  5
2C3
330
1E
100
AcDbEntity
  8
OBJECT
100
AcDbLine
 10
25.84400066136058
 20
29.87994516769001
 30
0.0
 11
25.45100066136059
 21
29.82183975358942
 31
0.0
  0
LINE
  5
2C4
330
1E
100
AcDbEntity
  8
OBJECT
100
AcDbLine
 10
25.84400066136053
 20
29.39059636115765
 30
0.0
 11
25.45100066136059
 21
29.43528262840469
 31
0.0
  0
LINE
  5
2C5
330
1E
100
AcDbEntity
  8
OBJECT
100
AcDbLine
 10
25.45100066136059
 20
29.82183975358942
 30
0.0
 11
25.45100066136059
 21
29.43528262840469
 31
0.0
  0
LINE
  5
2C6
330
1E
100
AcDbEntity
  8
OBJECT
100
AcDbLine
 10
26.06875066136057
 20
29.92356119099705
 30
0.0
 11
25.98900066136059
 21
29.92356119099705
 31
0.0
  0
LINE
  5
2C7
330
1E
100
AcDbEntity
  8
OBJECT
100
AcDbLine
 10
26.06875066136057
 20
29.04156119099706
 30
0.0
 11
25.56912566136058
 21
29.04156119099706
 31
0.0
  0
LINE
  5
2C8
330
1E
100
AcDbEntity
  8
OBJECT
100
AcDbLine
 10
26.06875066136057
 20
29.20656119099705
 30
0.0
 11
25.56912566136058
 21
29.20656119099705
 31
0.0
  0
LINE
  5
2C9
330
1E
100
AcDbEntity
  8
OBJECT
100
AcDbLine
 10
25.45100066136059
 20
29.71106119099706
 30
0.0
 11
25.94962566136057
 21
29.71106119099706
 31
0.0
  0
LINE
  5
2CA
330
1E
100
AcDbEntity
  8
OBJECT
100
AcDbLine
 10
25.45100066136059
 20
29.54606119099707
 30
0.0
 11
25.94962566136057
 21
29.54606119099706
 31
0.0
  0
LINE
  5
2CB
330
1E
100
AcDbEntity
  8
OBJECT
100
AcDbLine
 10
25.94962566136057
 20
29.72356119099707
 30
0.0
 11
25.94962566136057
 21
29.53356119099706
 31
0.0
  0
LINE
  5
2CC
330
1E
100
AcDbEntity
  8
OBJECT
100
AcDbLine
 10
25.8440006613606
 20
33.83317721430414
 30
0.0
 11
25.45100066136059
 21
33.89128262840471
 31
0.0
  0
LINE
  5
2CD
330
1E
100
AcDbEntity
  8
OBJECT
100
AcDbLine
 10
25.45100066136059
 20
34.08456119099708
 30
0.0
 11
25.45100066136059
 21
33.89128262840471
 31
0.0
  0
LINE
  5
2CE
330
1E
100
AcDbEntity
  8
OBJECT
100
AcDbLine
 10
26.06875066136061
 20
33.78956119099708
 30
0.0
 11
25.98900066136062
 21
33.78956119099708
 31
0.0
  0
LINE
  5
2CF
330
1E
100
AcDbEntity
  8
OBJECT
100
AcDbLine
 10
26.06875066136061
 20
34.37956119099707
 30
0.0
 11
26.06875066136061
 21
33.78956119099708
 31
0.0
  0
LINE
  5
2D0
330
1E
100
AcDbEntity
  8
OBJECT
100
AcDbLine
 10
26.06875066136061
 20
34.37956119099707
 30
0.0
 11
25.98900066136062
 21
34.37956119099707
 31
0.0
  0
LINE
  5
2D1
330
1E
100
AcDbEntity
  8
OBJECT
100
AcDbLine
 10
25.56912566136058
 20
29.21906119099705
 30
0.0
 11
25.56912566136058
 21
29.02906119099705
 31
0.0
  0
LINE
  5
2D2
330
1E
100
AcDbEntity
  8
OBJECT
100
AcDbLine
 10
25.45100066136059
 20
33.98606119099708
 30
0.0
 11
25.85100066136061
 21
33.98606119099708
 31
0.0
  0
LINE
  5
2D3
330
1E
100
AcDbEntity
  8
OBJECT
100
AcDbLine
 10
25.85100066136062
 20
34.08456119099708
 30
0.0
 11
25.85100066136061
 21
33.98606119099708
 31
0.0
  0
LINE
  5
2D4
330
1E
100
AcDbEntity
  8
OBJECT
100
AcDbLine
 10
26.06875066136057
 20
29.21906119099705
 30
0.0
 11
25.56912566136058
 21
29.21906119099705
 31
0.0
  0
LINE
  5
2D5
330
1E
100
AcDbEntity
  8
OBJECT
100
AcDbLine
 10
26.06875066136057
 20
29.02906119099705
 30
0.0
 11
25.56912566136058
 21
29.02906119099705
 31
0.0
  0
LINE
  5
2D6
330
1E
100
AcDbEntity
  8
OBJECT
100
AcDbLine
 10
25.45100066136059
 20
29.53356119099706
 30
0.0
 11
25.94962566136057
 21
29.53356119099706
 31
0.0
  0
LINE
  5
2D7
330
1E
100
AcDbEntity
  8
OBJECT
100
AcDbLine
 10
25.45100066136059
 20
29.72356119099707
 30
0.0
 11
25.94962566136057
 21
29.72356119099707
 31
0.0
  0
LINE
  5
2D8
330
1E
100
AcDbEntity
  8
OBJECT
100
AcDbLine
 10
26.06875066136057
 20
38.2455611909971
 30
0.0
 11
26.06875066136057
 21
39.34006119099709
 31
0.0
  0
LINE
  5
2D9
330
1E
100
AcDbEntity
  8
OBJECT
100
AcDbLine
 10
26.06875066136057
 20
38.2455611909971
 30
0.0
 11
25.98900066136059
 21
38.2455611909971
 31
0.0
  0
LINE
  5
2DA
330
1E
100
AcDbEntity
  8
OBJECT
100
AcDbLine
 10
26.06875066136057
 20
39.34006119099709
 30
0.0
 11
25.98900066136058
 21
39.34006119099709
 31
0.0
  0
LINE
  5
2DB
330
1E
100
AcDbEntity
  8
OBJECT
100
AcDbLine
 10
6.427669834244305
 20
50.41567111752925
 30
0.0
 11
7.471669834244298
 21
50.41567111752925
 31
0.0
  0
LINE
  5
2DC
330
1E
100
AcDbEntity
  8
OBJECT
100
AcDbLine
 10
6.427669834244305
 20
50.41567111752925
 30
0.0
 11
6.427669834244305
 21
50.33567111752925
 31
0.0
  0
LINE
  5
2DD
330
1E
100
AcDbEntity
  8
OBJECT
100
AcDbLine
 10
7.017669834244305
 20
50.41567111752925
 30
0.0
 11
7.017669834244305
 21
50.33567111752925
 31
0.0
  0
LINE
  5
2DE
330
1E
100
AcDbEntity
  8
OBJECT
100
AcDbLine
 10
7.471669834244298
 20
50.41567111752925
 30
0.0
 11
7.471669834244298
 21
50.33567111752925
 31
0.0
  0
LINE
  5
2DF
330
1E
100
AcDbEntity
  8
OBJECT
100
AcDbLine
 10
9.420669834244298
 20
50.41567111752925
 30
0.0
 11
9.420669834244298
 21
50.33567111752925
 31
0.0
  0
LINE
  5
2E0
330
1E
100
AcDbEntity
  8
OBJECT
100
AcDbLine
 10
9.420669834244298
 20
50.41567111752925
 30
0.0
 11
10.01066983424431
 21
50.41567111752924
 31
0.0
  0
LINE
  5
2E1
330
1E
100
AcDbEntity
  8
OBJECT
100
AcDbLine
 10
13.00366983424431
 20
50.41567111752925
 30
0.0
 11
11.95966983424431
 21
50.41567111752925
 31
0.0
  0
LINE
  5
2E2
330
1E
100
AcDbEntity
  8
OBJECT
100
AcDbLine
 10
13.0036698342443
 20
50.41567111752925
 30
0.0
 11
13.00366983424431
 21
50.33567111752925
 31
0.0
  0
LINE
  5
2E3
330
1E
100
AcDbEntity
  8
OBJECT
100
AcDbLine
 10
12.4136698342443
 20
50.41567111752925
 30
0.0
 11
12.4136698342443
 21
50.33567111752925
 31
0.0
  0
LINE
  5
2E4
330
1E
100
AcDbEntity
  8
OBJECT
100
AcDbLine
 10
11.95966983424431
 20
50.41567111752925
 30
0.0
 11
11.95966983424431
 21
50.33567111752925
 31
0.0
  0
LINE
  5
2E5
330
1E
100
AcDbEntity
  8
OBJECT
100
AcDbLine
 10
10.01066983424431
 20
50.41567111752924
 30
0.0
 11
10.01066983424431
 21
50.33567111752925
 31
0.0
  0
LINE
  5
2E6
330
1E
100
AcDbEntity
  8
OBJECT
100
AcDbLine
 10
5.791669834244324
 20
22.03028475096022
 30
0.0
 11
5.791669834244295
 21
11.36753475094837
 31
0.0
  0
LINE
  5
2E7
330
1E
100
AcDbEntity
  8
OBJECT
100
AcDbLine
 10
13.63966983424429
 20
22.03028475092835
 30
0.0
 11
13.63966983424431
 21
11.36753475090374
 31
0.0
  0
LINE
  5
2E8
330
1E
100
AcDbEntity
  8
OBJECT
100
AcDbLine
 10
25.8440006613606
 20
33.83317721430414
 30
0.0
 11
25.84400066136058
 21
29.87994516769001
 31
0.0
  0
LINE
  5
2E9
330
1E
100
AcDbEntity
  8
OBJECT
100
AcDbLine
 10
25.84400066136053
 20
29.39059636115765
 30
0.0
 11
25.84400066136053
 21
29.36202602083646
 31
0.0
  0
ARC
  5
2EA
330
1E
100
AcDbEntity
  8
OBJECT
100
AcDbCircle
 10
25.72600066136059
 20
28.82994215077863
 30
0.0
 40
0.118
100
AcDbArc
 50
271.3098137563386
 51
0.0
  0
LINE
  5
2EB
330
1E
100
AcDbEntity
  8
OBJECT
100
AcDbLine
 10
25.84400066136058
 20
28.85249171064634
 30
0.0
 11
25.84400066136059
 21
28.82994215077864
 31
0.0
  0
CIRCLE
  5
2EC
330
1E
100
AcDbEntity
  8
OBJECT
100
AcDbCircle
 10
5.564920854249209
 20
44.51717111752925
 30
0.0
 40
0.109
  0
LWPOLYLINE
  5
2ED
330
1E
100
AcDbEntity
  8
OBJECT
100
AcDbPolyline
 90
        9
 70
     0
 43
0.0
 10
5.673920854249217
 20
44.65915703232364
 42
4.289848867954715
 10
5.743920854249225
 20
44.51717111752925
 10
5.743920854249225
 20
44.83717111752925
 10
6.075920854249211
 20
44.83717111752926
 10
6.075920854249211
 20
45.33717111752926
 10
6.006294853634287
 20
45.33717111752926
 10
6.006294853634287
 20
44.90717111752925
 10
5.673920854249217
 20
44.90717111752925
 10
5.673920854249217
 20
44.51717111752925
  0
LWPOLYLINE
  5
2F8
330
1E
100
AcDbEntity
  8
OBJECT
100
AcDbPolyline
 90
        8
 70
     0
 43
0.0
 10
5.673920854249217
 20
44.37518520273486
 10
5.673920854249217
 20
44.12717111752925
 10
5.966980826343132
 20
44.12717111752924
 10
5.966980826343132
 20
43.70119657080625
 10
6.036590151827546
 20
43.70119657080625
 10
6.036590151827546
 20
44.20119657080625
 10
5.743920854249211
 20
44.20119657080625
 10
5.743920854249211
 20
44.51717111752926
  0
LWPOLYLINE
  5
302
330
1E
100
AcDbEntity
  8
OBJECT
100
AcDbPolyline
 90
       10
 70
     0
 43
0.0
 10
13.35541881423939
 20
44.79279611752924
 10
13.35541881423942
 20
46.10579611752924
 10
13.75341881423941
 20
46.10579611752924
 10
13.75341881423941
 20
46.17579611752923
 10
13.93049260564271
 20
46.3868244445884
 10
13.98411571666105
 20
46.34182931191034
 10
13.82341881423941
 20
46.15031820113059
 10
13.82341881423941
 20
45.16779611752925
 42
-0.4142135623730951
 10
13.57341881423941
 20
44.91779611752924
 10
13.35541881423939
 20
44.91779611752925
  0
LWPOLYLINE
  5
30E
330
1E
100
AcDbEntity
  8
OBJECT
100
AcDbPolyline
 90
        4
 70
     0
 43
0.0
 10
13.61204734988457
 20
43.98788937162633
 10
13.88273727632293
 20
44.34166634957501
 10
13.78676816828156
 20
45.05866115894824
 10
13.52304845436803
 20
45.38975143791509
  0
CIRCLE
  5
314
330
1E
100
AcDbEntity
  8
OBJECT
100
AcDbCircle
 10
13.48041881423939
 20
45.35579611752925
 30
0.0
 40
0.0625
  0
CIRCLE
  5
315
330
1E
100
AcDbEntity
  8
OBJECT
100
AcDbCircle
 10
13.48041881423939
 20
45.35579611752925
 30
0.0
 40
0.0545000000000044
  0
LWPOLYLINE
  5
316
330
1E
100
AcDbEntity
  8
OBJECT
100
AcDbPolyline
 90
        4
 70
     0
 43
0.0
 10
13.43778917411078
 20
45.3218407971434
 10
13.68273027547716
 20
45.01432636684783
 10
13.76870434697324
 20
44.37200547566254
 10
13.52548060223228
 20
44.05412529995008
  0
CIRCLE
  5
31C
330
1E
100
AcDbEntity
  8
OBJECT
100
AcDbCircle
 10
13.5687639760584
 20
44.02100733578822
 30
0.0
 40
0.0545000000000044
  0
LINE
  5
31D
330
1E
100
AcDbEntity
  8
OBJECT
100
AcDbLine
 10
13.3947938142394
 20
43.65217111752925
 30
0.0
 11
13.44779381423939
 21
43.65217111752925
 31
0.0
  0
LINE
  5
31E
330
1E
100
AcDbEntity
  8
OBJECT
100
AcDbLine
 10
13.44779381423939
 20
43.82217111752925
 30
0.0
 11
13.3947938142394
 21
43.82217111752925
 31
0.0
  0
LINE
  5
31F
330
1E
100
AcDbEntity
  8
OBJECT
100
AcDbLine
 10
13.44779381423939
 20
43.89717111752926
 30
0.0
 11
13.3947938142394
 21
43.89717111752926
 31
0.0
  0
LWPOLYLINE
  5
320
330
1E
100
AcDbEntity
  8
OBJECT
100
AcDbPolyline
 90
        8
 70
     1
 43
0.0
 10
13.44779381423939
 20
43.57717111752925
 10
13.44779381423939
 20
44.07717111752925
 42
-0.817231121209579
 10
13.58608343909273
 20
44.10527246334768
 10
13.65899728483348
 20
43.93327246334768
 10
13.70779381423941
 20
43.95395817624179
 10
13.63487996849864
 20
44.12595817624178
 42
0.8172311212095785
 10
13.3947938142394
 20
44.07717111752925
 10
13.3947938142394
 20
43.57717111752925
  0
LINE
  5
32A
330
1E
100
AcDbEntity
  8
OBJECT
100
AcDbLine
 10
13.65899728483348
 20
30.32906119099674
 30
0.0
 11
13.82823727632291
 21
30.32906119099674
 31
0.0
  0
LINE
  5
32B
330
1E
100
AcDbEntity
  8
OBJECT
100
AcDbLine
 10
13.70779381423941
 20
31.08756119099674
 30
0.0
 11
13.82341881423941
 21
31.08756119099674
 31
0.0
  0
LINE
  5
32C
330
1E
100
AcDbEntity
  8
OBJECT
100
AcDbLine
 10
13.82341881423941
 20
30.39956119099674
 30
0.0
 11
13.70779381423941
 21
30.39956119099674
 31
0.0
  0
LINE
  5
32D
330
1E
100
AcDbEntity
  8
OBJECT
100
AcDbLine
 10
13.63407970800796
 20
31.26706119099673
 30
0.0
 11
13.82823727632291
 21
31.26706119099673
 31
0.0
  0
LINE
  5
32E
330
1E
100
AcDbEntity
  8
OBJECT
100
AcDbLine
 10
13.82823727632291
 20
31.15806119099674
 30
0.0
 11
13.65899728483348
 21
31.15806119099674
 31
0.0
  0
LINE
  5
32F
330
1E
100
AcDbEntity
  8
OBJECT
100
AcDbLine
 10
13.82823727632291
 20
30.22006119099673
 30
0.0
 11
13.63408978379119
 21
30.22006119099673
 31
0.0
  0
LINE
  5
330
330
1E
100
AcDbEntity
  8
OBJECT
100
AcDbLine
 10
13.54999448449619
 20
31.14956119282815
 30
0.0
 11
13.54999728487897
 21
30.33756119282758
 31
0.0
  0
LINE
  5
331
330
1E
100
AcDbEntity
  8
OBJECT
100
AcDbLine
 10
13.65899728483348
 20
30.32906119099674
 30
0.0
 11
13.65899728483348
 21
31.15806119099674
 31
0.0
  0
LINE
  5
332
330
1E
100
AcDbEntity
  8
OBJECT
100
AcDbLine
 10
13.70779381423941
 20
30.32906119099674
 30
0.0
 11
13.70779381423941
 21
31.15806119099674
 31
0.0
  0
LINE
  5
333
330
1E
100
AcDbEntity
  8
OBJECT
100
AcDbLine
 10
13.44779381423942
 20
30.24356119099673
 30
0.0
 11
13.44779381423939
 21
31.24356119099673
 31
0.0
  0
LINE
  5
334
330
1E
100
AcDbEntity
  8
OBJECT
100
AcDbLine
 10
13.3947938142394
 20
31.24356119099673
 30
0.0
 11
13.3947938142394
 21
30.24356119099673
 31
0.0
  0
LINE
  5
335
330
1E
100
AcDbEntity
  8
OBJECT
100
AcDbLine
 10
13.65944689037679
 20
30.32906119465899
 30
0.0
 11
13.63408978389535
 21
30.32906119465899
 31
0.0
  0
LINE
  5
336
330
1E
100
AcDbEntity
  8
OBJECT
100
AcDbLine
 10
13.44779381423942
 20
30.24356119099673
 30
0.0
 11
13.3947938142394
 21
30.24356119099673
 31
0.0
  0
LWPOLYLINE
  5
337
330
1E
100
AcDbEntity
  8
OBJECT
100
AcDbPolyline
 90
       50
 70
     0
 43
0.0
 10
13.63408978379119
 20
30.22006119099673
 10
13.63098578661039
 20
30.22013165109337
 10
13.6278986354968
 20
30.22034186677414
 10
13.62483169986536
 20
30.22069017052892
 10
13.62178833181267
 20
30.22117498648862
 10
13.61877188523087
 20
30.22179480948219
 10
13.6157857255312
 20
30.22254818219651
 10
13.61283323320368
 20
30.22343367158416
 10
13.60991780129896
 20
30.22444984561261
 10
13.60704282707738
 20
30.2255952513904
 10
13.60421699012528
 20
30.22686587723726
 10
13.6014587677582
 20
30.22825131690344
 10
13.59876997127964
 20
30.22974740483081
 10
13.59615124879173
 20
30.23135068210346
 10
13.5936033112337
 20
30.23305781635134
 10
13.59112692519077
 20
30.23486554495905
 10
13.58872289497845
 20
30.23677062631707
 10
13.58639220283183
 20
30.23876965240581
 10
13.58414192868162
 20
30.24085324058251
 10
13.58197492754301
 20
30.24301441321527
 10
13.57989046015462
 20
30.24524922155637
 10
13.57788780154525
 20
30.24755371841106
 10
13.5759662167452
 20
30.24992393729443
 10
13.57412493837964
 20
30.25235588085426
 10
13.57236314773945
 20
30.25484551696219
 10
13.57067986525422
 20
30.25738892941614
 10
13.56906317030149
 20
30.26000036166353
 10
13.56750585198737
 20
30.26269055468645
 10
13.56600870192091
 20
30.2654584592203
 10
13.56457247237251
 20
30.26830300588636
 10
13.5631978836075
 20
30.27122311515226
 10
13.56188563443448
 20
30.27421770630752
 10
13.56063641533086
 20
30.27728570493954
 10
13.55945092349546
 20
30.28042604856873
 10
13.55832987921361
 20
30.28363769025225
 10
13.5572740429931
 20
30.28691960008708
 10
13.55628423303429
 20
30.29027076462883
 10
13.55536134271736
 20
30.29369018429094
 10
13.55450635791695
 20
30.29717686880159
 10
13.55372076683603
 20
30.30072795575204
 10
13.55301071298772
 20
30.30431535836502
 10
13.552377178457
 20
30.30792851790179
 10
13.55181929769845
 20
30.31156565675696
 10
13.55133638223799
 20
30.31522508636879
 10
13.55092792271009
 20
30.31890518508766
 10
13.55059358994541
 20
30.32260437790976
 10
13.55033323559514
 20
30.32632111765971
 10
13.55014689267432
 20
30.33005386716423
 10
13.55003477630899
 20
30.33380108193092
 10
13.54999728487897
 20
30.33756119282758
  0
LWPOLYLINE
  5
36B
330
1E
100
AcDbEntity
  8
OBJECT
100
AcDbPolyline
 90
        6
 70
     0
 43
0.0
 10
13.66262539531684
 20
30.31591923029361
 10
13.66258409490209
 20
30.31598997350055
 10
13.66133619174258
 20
30.31767747763745
 10
13.65699464043917
 20
30.32171236830095
 10
13.64611874009052
 20
30.32722611702468
 10
13.63407968709419
 20
30.32906052276342
  0
LWPOLYLINE
  5
373
330
1E
100
AcDbEntity
  8
OBJECT
100
AcDbPolyline
 90
       36
 70
     0
 43
0.0
 10
13.65899786560712
 20
30.33756119077322
 10
13.65901206238937
 20
30.3360394299132
 10
13.65903007704125
 20
30.33528004553238
 10
13.65905541280179
 20
30.33452260731305
 10
13.65910713210667
 20
30.33339204668463
 10
13.65917483050947
 20
30.33227208165676
 10
13.6592579294618
 20
30.33116522176082
 10
13.6593558504153
 20
30.33007397652822
 10
13.65946801482167
 20
30.32900085549036
 10
13.6595938441325
 20
30.3279483681786
 10
13.65973275979948
 20
30.32691902412437
 10
13.65988418327425
 20
30.32591533285903
 10
13.66002934102531
 20
30.3250434751508
 10
13.66018251432371
 20
30.3241989743426
 10
13.66034254064428
 20
30.32338372411741
 10
13.6605082574618
 20
30.32259961815827
 10
13.66067850225108
 20
30.32184855014815
 10
13.66085211248691
 20
30.32113241377006
 10
13.66102792564411
 20
30.32045310270701
 10
13.66120477919748
 20
30.319812510642
 10
13.66136161097254
 20
30.31927775250292
 10
13.66151580125566
 20
30.31877978572701
 10
13.66166594538732
 20
30.31831931423672
 10
13.66181063870798
 20
30.31789704195459
 10
13.66194847655814
 20
30.31751367280302
 10
13.66207805427823
 20
30.31716991070454
 10
13.66219796720876
 20
30.31686645958161
 10
13.66230681069016
 20
30.31660402335669
 10
13.66237784812794
 20
30.31643985742936
 10
13.66244095605913
 20
30.31629887688132
 10
13.66249564004281
 20
30.3161807128507
 10
13.66254140563811
 20
30.31608499647563
 10
13.66257775840407
 20
30.31601135889425
 10
13.66260420389981
 20
30.3159594312447
 10
13.66262024768435
 20
30.3159288446651
 10
13.66262539531684
 20
30.31591923029361
  0
LINE
  5
399
330
1E
100
AcDbEntity
  8
OBJECT
100
AcDbLine
 10
13.65899728483348
 20
30.39956119099674
 30
0.0
 11
13.65899728483348
 21
30.33756119099674
 31
0.0
  0
LINE
  5
39A
330
1E
100
AcDbEntity
  8
OBJECT
100
AcDbLine
 10
13.44779381423942
 20
30.32906119099674
 30
0.0
 11
13.55019644814979
 21
30.32906119099674
 31
0.0
  0
LINE
  5
39B
330
1E
100
AcDbEntity
  8
OBJECT
100
AcDbLine
 10
13.75341881423941
 20
30.39956119099674
 30
0.0
 11
13.75341881423941
 21
30.39974099776072
 31
0.0
  0
LINE
  5
39C
330
1E
100
AcDbEntity
  8
OBJECT
100
AcDbLine
 10
13.65899728483348
 20
31.14956119099674
 30
0.0
 11
13.65899728483348
 21
31.08763420295887
 31
0.0
  0
LINE
  5
39D
330
1E
100
AcDbEntity
  8
OBJECT
100
AcDbLine
 10
13.55020479991583
 20
31.15806119099674
 30
0.0
 11
13.44779381423939
 21
31.15806119099674
 31
0.0
  0
LINE
  5
39E
330
1E
100
AcDbEntity
  8
OBJECT
100
AcDbLine
 10
13.3947938142394
 20
31.24356119099673
 30
0.0
 11
13.44779381423939
 21
31.24356119099673
 31
0.0
  0
LWPOLYLINE
  5
39F
330
1E
100
AcDbEntity
  8
OBJECT
100
AcDbPolyline
 90
       37
 70
     0
 43
0.0
 10
13.66262534165151
 20
31.1712032701723
 10
13.66261268343723
 20
31.17117958502721
 10
13.6625735532347
 20
31.17110301158542
 10
13.66250968089358
 20
31.17097163002481
 10
13.66242279626352
 20
31.17078352052323
 10
13.66233617783749
 20
31.17058660776066
 10
13.66223769102831
 20
31.17035248007531
 10
13.66212856591841
 20
31.17008151090601
 10
13.66201003259031
 20
31.16977407369162
 10
13.66188332112643
 20
31.16943054187096
 10
13.66174966160927
 20
31.16905128888289
 10
13.66161028412128
 20
31.16863668816625
 10
13.66146641874494
 20
31.16818711315986
 10
13.66130884414276
 20
31.16766774057024
 10
13.66114981205559
 20
31.16711365405903
 10
13.66099034564366
 20
31.16652619884193
 10
13.6608314680671
 20
31.16590672013465
 10
13.66067420248612
 20
31.16525656315292
 10
13.66051957206088
 20
31.16457707311246
 10
13.66036859995151
 20
31.16386959522897
 10
13.66022230931822
 20
31.16313547471817
 10
13.660063871093
 20
31.16227614303134
 10
13.6599139546056
 20
31.16138980152671
 10
13.65977321082608
 20
31.16047843771804
 10
13.65964229072444
 20
31.15954403911913
 10
13.65952184527081
 20
31.15858859324374
 10
13.65941252543522
 20
31.15761408760563
 10
13.65931498218777
 20
31.15662250971857
 10
13.65922986649847
 20
31.15561584709633
 10
13.65917589154427
 20
31.15487233988201
 10
13.6591289857833
 20
31.15412357901221
 10
13.65908918245364
 20
31.15337028776809
 10
13.65905651479335
 20
31.15261318943082
 10
13.6590310160405
 20
31.15185300728153
 10
13.65901271943313
 20
31.15109046460141
 10
13.65900165820932
 20
31.15032628467158
 10
13.65899786560712
 20
31.14956119077322
  0
LWPOLYLINE
  5
3C6
330
1E
100
AcDbEntity
  8
OBJECT
100
AcDbPolyline
 90
        6
 70
     0
 43
0.0
 10
13.63409068063348
 20
31.158061188511
 10
13.63498197981233
 20
31.15807099568054
 10
13.65224305788979
 20
31.16242495078183
 10
13.66038017852208
 20
31.16838739676605
 10
13.6624866090443
 20
31.17097529152385
 10
13.66262534165151
 20
31.1712032701723
  0
LINE
  5
3CE
330
1E
100
AcDbEntity
  8
OBJECT
100
AcDbLine
 10
13.65944689037679
 20
31.15806119099674
 30
0.0
 11
13.63408978389535
 21
31.15806119099674
 31
0.0
  0
LWPOLYLINE
  5
3CF
330
1E
100
AcDbEntity
  8
OBJECT
100
AcDbPolyline
 90
       36
 70
     0
 43
0.0
 10
13.54999448449619
 20
31.14956119282815
 10
13.5501283025001
 20
31.15658723777708
 10
13.55041618443141
 20
31.16213415064351
 10
13.55086485750681
 20
31.16763347856409
 10
13.55147570661373
 20
31.17308005101224
 10
13.55225011663962
 20
31.17846869746139
 10
13.5531894724719
 20
31.18379424738499
 10
13.55429515899798
 20
31.18905153025645
 10
13.55556856110534
 20
31.19423537554923
 10
13.55701106368133
 20
31.19934061273678
 10
13.55864641701311
 20
31.20441847576402
 10
13.56045343288713
 20
31.20936885627015
 10
13.56243356135974
 20
31.2141832650524
 10
13.56458825248731
 20
31.21885321290802
 10
13.56691895632619
 20
31.22337021063423
 10
13.56942712293273
 20
31.2277257690283
 10
13.57211420236326
 20
31.23191139888744
 10
13.57498164467416
 20
31.2359186110089
 10
13.57765260798897
 20
31.2392873468363
 10
13.58047949696902
 20
31.242521673315
 10
13.58346320656895
 20
31.24561077418789
 10
13.58660463174349
 20
31.2485438331978
 10
13.58990466744726
 20
31.25131003408764
 10
13.593364208635
 20
31.25389856060024
 10
13.59698415026134
 20
31.25629859647849
 10
13.600765387281
 20
31.25849932546525
 10
13.6040934415924
 20
31.26019772580918
 10
13.60749848405684
 20
31.26171896515304
 10
13.61097548666004
 20
31.26305884263841
 10
13.61451942138774
 20
31.26421315740682
 10
13.61812526022567
 20
31.26517770859985
 10
13.6217879751595
 20
31.26594829535906
 10
13.62550253817497
 20
31.26652071682601
 10
13.62926392125778
 20
31.26689077214225
 10
13.63167819338193
 20
31.26701872294759
 10
13.634089420377
 20
31.26706136274891
  0
LINE
  5
3F5
330
1E
100
AcDbEntity
  8
OBJECT
100
AcDbLine
 10
13.98411571666103
 20
30.46206119099674
 30
0.0
 11
13.98411571666103
 21
31.02506119099674
 31
0.0
  0
LINE
  5
3F6
330
1E
100
AcDbEntity
  8
OBJECT
100
AcDbLine
 10
13.82341881423941
 20
30.39956119099674
 30
0.0
 11
13.82341881423941
 21
31.08756119099674
 31
0.0
  0
ARC
  5
3F7
330
1E
100
AcDbEntity
  8
OBJECT
100
AcDbCircle
 10
13.82823727632291
 20
30.27456119099674
 30
0.0
 40
0.0545
100
AcDbArc
 50
270.0
 51
90.0
  0
POLYLINE
  5
3F8
330
1E
100
AcDbEntity
  8
OBJECT
100
AcDb3dPolyline
 66
     1
 10
0.0
 20
0.0
 30
0.0
 70
     8
  0
VERTEX
  5
3F9
330
3F8
100
AcDbEntity
  8
OBJECT
100
AcDbVertex
100
AcDb3dPolylineVertex
 10
13.98411571666103
 20
30.46206119099674
 30
0.0
 70
    32
1001
ACAD
1000
R13OBJECT
1002
{
1005
99
1002
}
  0
VERTEX
  5
3FA
330
3F8
100
AcDbEntity
  8
OBJECT
100
AcDbVertex
100
AcDb3dPolylineVertex
 10
13.98105763582695
 20
30.43814347647392
 30
0.0
 70
    32
1001
ACAD
1000
R13OBJECT
1002
{
1005
99
1002
}
  0
VERTEX
  5
3FB
330
3F8
100
AcDbEntity
  8
OBJECT
100
AcDbVertex
100
AcDb3dPolylineVertex
 10
13.97234895841013
 20
30.41786701717257
 30
0.0
 70
    32
1001
ACAD
1000
R13OBJECT
1002
{
1005
99
1002
}
  0
VERTEX
  5
3FC
330
3F8
100
AcDbEntity
  8
OBJECT
100
AcDbVertex
100
AcDb3dPolylineVertex
 10
13.9593155016029
 20
30.40431872021478
 30
0.0
 70
    32
1001
ACAD
1000
R13OBJECT
1002
{
1005
99
1002
}
  0
VERTEX
  5
3FD
330
3F8
100
AcDbEntity
  8
OBJECT
100
AcDbVertex
100
AcDb3dPolylineVertex
 10
13.94394149105563
 20
30.39956119099674
 30
0.0
 70
    32
1001
ACAD
1000
R13OBJECT
1002
{
1005
99
1002
}
  0
SEQEND
  5
3FE
330
3F8
100
AcDbEntity
  8
OBJECT
  0
LINE
  5
3FF
330
1E
100
AcDbEntity
  8
OBJECT
100
AcDbLine
 10
13.94394149105563
 20
30.39956119099674
 30
0.0
 11
13.82341881423941
 21
30.39956119099674
 31
0.0
  0
LINE
  5
400
330
1E
100
AcDbEntity
  8
OBJECT
100
AcDbLine
 10
13.82341881423941
 20
31.08756119099674
 30
0.0
 11
13.94394149105563
 21
31.08756119099674
 31
0.0
  0
POLYLINE
  5
401
330
1E
100
AcDbEntity
  8
OBJECT
100
AcDb3dPolyline
 66
     1
 10
0.0
 20
0.0
 30
0.0
 70
     8
  0
VERTEX
  5
402
330
401
100
AcDbEntity
  8
OBJECT
100
AcDbVertex
100
AcDb3dPolylineVertex
 10
13.94394149105563
 20
31.08756119099674
 30
0.0
 70
    32
1001
ACAD
1000
R13OBJECT
1002
{
1005
9E
1002
}
  0
VERTEX
  5
403
330
401
100
AcDbEntity
  8
OBJECT
100
AcDbVertex
100
AcDb3dPolylineVertex
 10
13.9593155016029
 20
31.08280366177869
 30
0.0
 70
    32
1001
ACAD
1000
R13OBJECT
1002
{
1005
9E
1002
}
  0
VERTEX
  5
404
330
401
100
AcDbEntity
  8
OBJECT
100
AcDbVertex
100
AcDb3dPolylineVertex
 10
13.97234895841013
 20
31.06925536482089
 30
0.0
 70
    32
1001
ACAD
1000
R13OBJECT
1002
{
1005
9E
1002
}
  0
VERTEX
  5
405
330
401
100
AcDbEntity
  8
OBJECT
100
AcDbVertex
100
AcDb3dPolylineVertex
 10
13.98105763582695
 20
31.04897890551955
 30
0.0
 70
    32
1001
ACAD
1000
R13OBJECT
1002
{
1005
9E
1002
}
  0
VERTEX
  5
406
330
401
100
AcDbEntity
  8
OBJECT
100
AcDbVertex
100
AcDb3dPolylineVertex
 10
13.98411571666103
 20
31.02506119099674
 30
0.0
 70
    32
1001
ACAD
1000
R13OBJECT
1002
{
1005
9E
1002
}
  0
SEQEND
  5
407
330
401
100
AcDbEntity
  8
OBJECT
  0
ARC
  5
408
330
1E
100
AcDbEntity
  8
OBJECT
100
AcDbCircle
 10
13.82823727632291
 20
31.21256119099673
 30
0.0
 40
0.0545
100
AcDbArc
 50
270.0
 51
90.0
  0
LINE
  5
409
330
1E
100
AcDbEntity
  8
OBJECT
100
AcDbLine
 10
13.82823727632291
 20
37.94906119099675
 30
0.0
 11
13.63408978379119
 21
37.94906119099675
 31
0.0
  0
LINE
  5
40A
330
1E
100
AcDbEntity
  8
OBJECT
100
AcDbLine
 10
13.82823727632291
 20
37.01106119099675
 30
0.0
 11
13.65899728483348
 21
37.01106119099675
 31
0.0
  0
LINE
  5
40B
330
1E
100
AcDbEntity
  8
OBJECT
100
AcDbLine
 10
13.63407970800796
 20
36.90206119099675
 30
0.0
 11
13.82823727632291
 21
36.90206119099675
 31
0.0
  0
LINE
  5
40C
330
1E
100
AcDbEntity
  8
OBJECT
100
AcDbLine
 10
13.82341881423941
 20
37.76956119099674
 30
0.0
 11
13.70779381423941
 21
37.76956119099674
 31
0.0
  0
LINE
  5
40D
330
1E
100
AcDbEntity
  8
OBJECT
100
AcDbLine
 10
13.70779381423941
 20
37.08156119099675
 30
0.0
 11
13.82341881423941
 21
37.08156119099675
 31
0.0
  0
LINE
  5
40E
330
1E
100
AcDbEntity
  8
OBJECT
100
AcDbLine
 10
13.65899728483348
 20
37.84006119099675
 30
0.0
 11
13.82823727632291
 21
37.84006119099675
 31
0.0
  0
LINE
  5
40F
330
1E
100
AcDbEntity
  8
OBJECT
100
AcDbLine
 10
13.3947938142394
 20
36.92556119099675
 30
0.0
 11
13.3947938142394
 21
37.92556119099675
 31
0.0
  0
LINE
  5
410
330
1E
100
AcDbEntity
  8
OBJECT
100
AcDbLine
 10
13.44779381423942
 20
37.92556119099675
 30
0.0
 11
13.44779381423939
 21
36.92556119099675
 31
0.0
  0
LINE
  5
411
330
1E
100
AcDbEntity
  8
OBJECT
100
AcDbLine
 10
13.70779381423941
 20
37.84006119099675
 30
0.0
 11
13.70779381423941
 21
37.01106119099675
 31
0.0
  0
LINE
  5
412
330
1E
100
AcDbEntity
  8
OBJECT
100
AcDbLine
 10
13.65899728483348
 20
37.84006119099675
 30
0.0
 11
13.65899728483348
 21
37.01106119099675
 31
0.0
  0
LINE
  5
413
330
1E
100
AcDbEntity
  8
OBJECT
100
AcDbLine
 10
13.54999448449619
 20
37.01956118916533
 30
0.0
 11
13.54999728487897
 21
37.8315611891659
 31
0.0
  0
LINE
  5
414
330
1E
100
AcDbEntity
  8
OBJECT
100
AcDbLine
 10
13.65944689037679
 20
37.01106119099675
 30
0.0
 11
13.63408978389535
 21
37.01106119099675
 31
0.0
  0
LWPOLYLINE
  5
415
330
1E
100
AcDbEntity
  8
OBJECT
100
AcDbPolyline
 90
        6
 70
     0
 43
0.0
 10
13.63409068063348
 20
37.01106119348249
 10
13.63498197981233
 20
37.01105138631295
 10
13.65224305788979
 20
37.00669743121165
 10
13.66038017852208
 20
37.00073498522743
 10
13.6624866090443
 20
36.99814709046963
 10
13.66262534165151
 20
36.99791911182119
  0
LWPOLYLINE
  5
41D
330
1E
100
AcDbEntity
  8
OBJECT
100
AcDbPolyline
 90
       37
 70
     0
 43
0.0
 10
13.66262534165151
 20
36.99791911182119
 10
13.66261268343723
 20
36.99794279696628
 10
13.6625735532347
 20
36.99801937040806
 10
13.66250968089358
 20
36.99815075196867
 10
13.66242279626352
 20
36.99833886147025
 10
13.66233617783749
 20
36.99853577423283
 10
13.66223769102831
 20
36.99876990191818
 10
13.66212856591841
 20
36.99904087108748
 10
13.66201003259031
 20
36.99934830830187
 10
13.66188332112643
 20
36.99969184012253
 10
13.66174966160927
 20
37.0000710931106
 10
13.66161028412128
 20
37.00048569382724
 10
13.66146641874494
 20
37.00093526883362
 10
13.66130884414276
 20
37.00145464142324
 10
13.66114981205559
 20
37.00200872793447
 10
13.66099034564366
 20
37.00259618315156
 10
13.6608314680671
 20
37.00321566185884
 10
13.66067420248612
 20
37.00386581884056
 10
13.66051957206088
 20
37.00454530888102
 10
13.66036859995151
 20
37.00525278676452
 10
13.66022230931822
 20
37.00598690727532
 10
13.660063871093
 20
37.00684623896215
 10
13.6599139546056
 20
37.00773258046678
 10
13.65977321082608
 20
37.00864394427544
 10
13.65964229072444
 20
37.00957834287435
 10
13.65952184527081
 20
37.01053378874974
 10
13.65941252543522
 20
37.01150829438786
 10
13.65931498218777
 20
37.01249987227492
 10
13.65922986649847
 20
37.01350653489715
 10
13.65917589154427
 20
37.01425004211148
 10
13.6591289857833
 20
37.01499880298128
 10
13.65908918245364
 20
37.01575209422539
 10
13.65905651479335
 20
37.01650919256267
 10
13.6590310160405
 20
37.01726937471195
 10
13.65901271943313
 20
37.01803191739207
 10
13.65900165820932
 20
37.0187960973219
 10
13.65899786560712
 20
37.01956119122026
  0
LINE
  5
444
330
1E
100
AcDbEntity
  8
OBJECT
100
AcDbLine
 10
13.65899728483348
 20
37.01956119099675
 30
0.0
 11
13.65899728483348
 21
37.08148817903461
 31
0.0
  0
LINE
  5
445
330
1E
100
AcDbEntity
  8
OBJECT
100
AcDbLine
 10
13.3947938142394
 20
36.92556119099675
 30
0.0
 11
13.44779381423939
 21
36.92556119099675
 31
0.0
  0
LINE
  5
446
330
1E
100
AcDbEntity
  8
OBJECT
100
AcDbLine
 10
13.55020479991583
 20
37.01106119099675
 30
0.0
 11
13.44779381423939
 21
37.01106119099675
 31
0.0
  0
LWPOLYLINE
  5
447
330
1E
100
AcDbEntity
  8
OBJECT
100
AcDbPolyline
 90
       36
 70
     0
 43
0.0
 10
13.54999448449619
 20
37.01956118916533
 10
13.5501283025001
 20
37.01253514421641
 10
13.55041618443141
 20
37.00698823134997
 10
13.55086485750681
 20
37.00148890342939
 10
13.55147570661373
 20
36.99604233098125
 10
13.55225011663962
 20
36.9906536845321
 10
13.5531894724719
 20
36.9853281346085
 10
13.55429515899798
 20
36.98007085173704
 10
13.55556856110534
 20
36.97488700644425
 10
13.55701106368133
 20
36.96978176925671
 10
13.55864641701311
 20
36.96470390622947
 10
13.56045343288713
 20
36.95975352572333
 10
13.56243356135974
 20
36.95493911694108
 10
13.56458825248731
 20
36.95026916908546
 10
13.56691895632619
 20
36.94575217135925
 10
13.56942712293273
 20
36.94139661296518
 10
13.57211420236326
 20
36.93721098310605
 10
13.57498164467416
 20
36.93320377098458
 10
13.57765260798897
 20
36.92983503515719
 10
13.58047949696902
 20
36.92660070867848
 10
13.58346320656895
 20
36.9235116078056
 10
13.58660463174349
 20
36.92057854879568
 10
13.58990466744726
 20
36.91781234790585
 10
13.593364208635
 20
36.91522382139325
 10
13.59698415026134
 20
36.91282378551499
 10
13.600765387281
 20
36.91062305652823
 10
13.6040934415924
 20
36.90892465618431
 10
13.60749848405684
 20
36.90740341684044
 10
13.61097548666004
 20
36.90606353935509
 10
13.61451942138774
 20
36.90490922458666
 10
13.61812526022567
 20
36.90394467339364
 10
13.6217879751595
 20
36.90317408663442
 10
13.62550253817497
 20
36.90260166516747
 10
13.62926392125778
 20
36.90223160985123
 10
13.63167819338193
 20
36.9021036590459
 10
13.634089420377
 20
36.90206101924458
  0
LINE
  5
46D
330
1E
100
AcDbEntity
  8
OBJECT
100
AcDbLine
 10
13.44779381423942
 20
37.84006119099675
 30
0.0
 11
13.55019644814979
 21
37.84006119099675
 31
0.0
  0
LINE
  5
46E
330
1E
100
AcDbEntity
  8
OBJECT
100
AcDbLine
 10
13.65899728483348
 20
37.76956119099674
 30
0.0
 11
13.65899728483348
 21
37.83156119099675
 31
0.0
  0
LWPOLYLINE
  5
46F
330
1E
100
AcDbEntity
  8
OBJECT
100
AcDbPolyline
 90
       36
 70
     0
 43
0.0
 10
13.65899786560712
 20
37.83156119122026
 10
13.65901206238937
 20
37.83308295208029
 10
13.65903007704125
 20
37.83384233646112
 10
13.65905541280179
 20
37.83459977468043
 10
13.65910713210667
 20
37.83573033530886
 10
13.65917483050947
 20
37.83685030033673
 10
13.6592579294618
 20
37.83795716023266
 10
13.6593558504153
 20
37.83904840546527
 10
13.65946801482167
 20
37.84012152650313
 10
13.6595938441325
 20
37.84117401381488
 10
13.65973275979948
 20
37.84220335786911
 10
13.65988418327425
 20
37.84320704913445
 10
13.66002934102531
 20
37.84407890684269
 10
13.66018251432371
 20
37.84492340765089
 10
13.66034254064428
 20
37.84573865787607
 10
13.6605082574618
 20
37.84652276383521
 10
13.66067850225108
 20
37.84727383184533
 10
13.66085211248691
 20
37.84798996822342
 10
13.66102792564411
 20
37.84866927928647
 10
13.66120477919748
 20
37.84930987135148
 10
13.66136161097254
 20
37.84984462949056
 10
13.66151580125566
 20
37.85034259626648
 10
13.66166594538732
 20
37.85080306775676
 10
13.66181063870798
 20
37.85122534003891
 10
13.66194847655814
 20
37.85160870919046
 10
13.66207805427823
 20
37.85195247128895
 10
13.66219796720876
 20
37.85225592241188
 10
13.66230681069016
 20
37.8525183586368
 10
13.66237784812794
 20
37.85268252456412
 10
13.66244095605913
 20
37.85282350511216
 10
13.66249564004281
 20
37.85294166914278
 10
13.66254140563811
 20
37.85303738551785
 10
13.66257775840407
 20
37.85311102309924
 10
13.66260420389981
 20
37.85316295074879
 10
13.66262024768435
 20
37.85319353732838
 10
13.66262539531684
 20
37.85320315169988
  0
LWPOLYLINE
  5
495
330
1E
100
AcDbEntity
  8
OBJECT
100
AcDbPolyline
 90
        6
 70
     0
 43
0.0
 10
13.66262539531684
 20
37.85320315169988
 10
13.66258409490209
 20
37.85313240849294
 10
13.66133619174258
 20
37.85144490435604
 10
13.65699464043917
 20
37.84741001369253
 10
13.64611874009052
 20
37.84189626496881
 10
13.63407968709419
 20
37.84006185923006
  0
LWPOLYLINE
  5
49D
330
1E
100
AcDbEntity
  8
OBJECT
100
AcDbPolyline
 90
       50
 70
     0
 43
0.0
 10
13.63408978379119
 20
37.94906119099675
 10
13.63098578661039
 20
37.94899073090011
 10
13.6278986354968
 20
37.94878051521934
 10
13.62483169986536
 20
37.94843221146457
 10
13.62178833181267
 20
37.94794739550487
 10
13.61877188523087
 20
37.94732757251129
 10
13.6157857255312
 20
37.94657419979698
 10
13.61283323320368
 20
37.94568871040932
 10
13.60991780129896
 20
37.94467253638087
 10
13.60704282707738
 20
37.94352713060308
 10
13.60421699012528
 20
37.94225650475623
 10
13.6014587677582
 20
37.94087106509004
 10
13.59876997127964
 20
37.93937497716267
 10
13.59615124879173
 20
37.93777169989002
 10
13.5936033112337
 20
37.93606456564214
 10
13.59112692519077
 20
37.93425683703443
 10
13.58872289497845
 20
37.93235175567642
 10
13.58639220283183
 20
37.93035272958767
 10
13.58414192868162
 20
37.92826914141097
 10
13.58197492754301
 20
37.92610796877822
 10
13.57989046015462
 20
37.92387316043712
 10
13.57788780154525
 20
37.92156866358243
 10
13.5759662167452
 20
37.91919844469906
 10
13.57412493837964
 20
37.91676650113923
 10
13.57236314773945
 20
37.91427686503129
 10
13.57067986525422
 20
37.91173345257735
 10
13.56906317030149
 20
37.90912202032995
 10
13.56750585198737
 20
37.90643182730704
 10
13.56600870192091
 20
37.90366392277318
 10
13.56457247237251
 20
37.90081937610713
 10
13.5631978836075
 20
37.89789926684123
 10
13.56188563443448
 20
37.89490467568597
 10
13.56063641533086
 20
37.89183667705395
 10
13.55945092349546
 20
37.88869633342475
 10
13.55832987921361
 20
37.88548469174123
 10
13.5572740429931
 20
37.88220278190641
 10
13.55628423303429
 20
37.87885161736465
 10
13.55536134271736
 20
37.87543219770254
 10
13.55450635791695
 20
37.87194551319189
 10
13.55372076683603
 20
37.86839442624145
 10
13.55301071298772
 20
37.86480702362847
 10
13.552377178457
 20
37.86119386409169
 10
13.55181929769845
 20
37.85755672523652
 10
13.55133638223799
 20
37.85389729562469
 10
13.55092792271009
 20
37.85021719690582
 10
13.55059358994541
 20
37.84651800408373
 10
13.55033323559514
 20
37.84280126433378
 10
13.55014689267432
 20
37.83906851482926
 10
13.55003477630899
 20
37.83532130006256
 10
13.54999728487897
 20
37.8315611891659
  0
LINE
  5
4D1
330
1E
100
AcDbEntity
  8
OBJECT
100
AcDbLine
 10
13.75341881423941
 20
37.76956119099674
 30
0.0
 11
13.75341881423941
 21
37.76938138423276
 31
0.0
  0
LINE
  5
4D2
330
1E
100
AcDbEntity
  8
OBJECT
100
AcDbLine
 10
13.44779381423942
 20
37.92556119099675
 30
0.0
 11
13.3947938142394
 21
37.92556119099675
 31
0.0
  0
LINE
  5
4D3
330
1E
100
AcDbEntity
  8
OBJECT
100
AcDbLine
 10
13.65944689037679
 20
37.84006118733449
 30
0.0
 11
13.63408978389535
 21
37.84006118733449
 31
0.0
  0
LINE
  5
4D4
330
1E
100
AcDbEntity
  8
OBJECT
100
AcDbLine
 10
13.82341881423941
 20
37.76956119099674
 30
0.0
 11
13.82341881423941
 21
37.08156119099675
 31
0.0
  0
LINE
  5
4D5
330
1E
100
AcDbEntity
  8
OBJECT
100
AcDbLine
 10
13.98411571666103
 20
37.70706119099674
 30
0.0
 11
13.98411571666103
 21
37.14406119099675
 31
0.0
  0
POLYLINE
  5
4D6
330
1E
100
AcDbEntity
  8
OBJECT
100
AcDb3dPolyline
 66
     1
 10
0.0
 20
0.0
 30
0.0
 70
     8
  0
VERTEX
  5
4D7
330
4D6
100
AcDbEntity
  8
OBJECT
100
AcDbVertex
100
AcDb3dPolylineVertex
 10
13.94394149105563
 20
37.08156119099675
 30
0.0
 70
    32
1001
ACAD
1000
R13OBJECT
1002
{
1005
9E
1002
}
  0
VERTEX
  5
4D8
330
4D6
100
AcDbEntity
  8
OBJECT
100
AcDbVertex
100
AcDb3dPolylineVertex
 10
13.9593155016029
 20
37.08631872021479
 30
0.0
 70
    32
1001
ACAD
1000
R13OBJECT
1002
{
1005
9E
1002
}
  0
VERTEX
  5
4D9
330
4D6
100
AcDbEntity
  8
OBJECT
100
AcDbVertex
100
AcDb3dPolylineVertex
 10
13.97234895841013
 20
37.09986701717259
 30
0.0
 70
    32
1001
ACAD
1000
R13OBJECT
1002
{
1005
9E
1002
}
  0
VERTEX
  5
4DA
330
4D6
100
AcDbEntity
  8
OBJECT
100
AcDbVertex
100
AcDb3dPolylineVertex
 10
13.98105763582695
 20
37.12014347647393
 30
0.0
 70
    32
1001
ACAD
1000
R13OBJECT
1002
{
1005
9E
1002
}
  0
VERTEX
  5
4DB
330
4D6
100
AcDbEntity
  8
OBJECT
100
AcDbVertex
100
AcDb3dPolylineVertex
 10
13.98411571666103
 20
37.14406119099675
 30
0.0
 70
    32
1001
ACAD
1000
R13OBJECT
1002
{
1005
9E
1002
}
  0
SEQEND
  5
4DC
330
4D6
100
AcDbEntity
  8
OBJECT
  0
LINE
  5
4DD
330
1E
100
AcDbEntity
  8
OBJECT
100
AcDbLine
 10
13.82341881423941
 20
37.08156119099675
 30
0.0
 11
13.94394149105563
 21
37.08156119099675
 31
0.0
  0
ARC
  5
4DE
330
1E
100
AcDbEntity
  8
OBJECT
100
AcDbCircle
 10
13.82823727632291
 20
36.95656119099675
 30
0.0
 40
0.0545
100
AcDbArc
 50
270.0
 51
90.0
  0
LINE
  5
4DF
330
1E
100
AcDbEntity
  8
OBJECT
100
AcDbLine
 10
13.94394149105563
 20
37.76956119099674
 30
0.0
 11
13.82341881423941
 21
37.76956119099674
 31
0.0
  0
POLYLINE
  5
4E0
330
1E
100
AcDbEntity
  8
OBJECT
100
AcDb3dPolyline
 66
     1
 10
0.0
 20
0.0
 30
0.0
 70
     8
  0
VERTEX
  5
4E1
330
4E0
100
AcDbEntity
  8
OBJECT
100
AcDbVertex
100
AcDb3dPolylineVertex
 10
13.98411571666103
 20
37.70706119099674
 30
0.0
 70
    32
1001
ACAD
1000
R13OBJECT
1002
{
1005
99
1002
}
  0
VERTEX
  5
4E2
330
4E0
100
AcDbEntity
  8
OBJECT
100
AcDbVertex
100
AcDb3dPolylineVertex
 10
13.98105763582695
 20
37.73097890551957
 30
0.0
 70
    32
1001
ACAD
1000
R13OBJECT
1002
{
1005
99
1002
}
  0
VERTEX
  5
4E3
330
4E0
100
AcDbEntity
  8
OBJECT
100
AcDbVertex
100
AcDb3dPolylineVertex
 10
13.97234895841013
 20
37.75125536482091
 30
0.0
 70
    32
1001
ACAD
1000
R13OBJECT
1002
{
1005
99
1002
}
  0
VERTEX
  5
4E4
330
4E0
100
AcDbEntity
  8
OBJECT
100
AcDbVertex
100
AcDb3dPolylineVertex
 10
13.9593155016029
 20
37.7648036617787
 30
0.0
 70
    32
1001
ACAD
1000
R13OBJECT
1002
{
1005
99
1002
}
  0
VERTEX
  5
4E5
330
4E0
100
AcDbEntity
  8
OBJECT
100
AcDbVertex
100
AcDb3dPolylineVertex
 10
13.94394149105563
 20
37.76956119099674
 30
0.0
 70
    32
1001
ACAD
1000
R13OBJECT
1002
{
1005
99
1002
}
  0
SEQEND
  5
4E6
330
4E0
100
AcDbEntity
  8
OBJECT
  0
ARC
  5
4E7
330
1E
100
AcDbEntity
  8
OBJECT
100
AcDbCircle
 10
13.82823727632291
 20
37.89456119099674
 30
0.0
 40
0.0545
100
AcDbArc
 50
270.0
 51
90.0
  0
LINE
  5
4E8
330
1E
100
AcDbEntity
  8
OBJECT
100
AcDbLine
 10
6.036980826343146
 20
30.15156119099705
 30
0.0
 11
6.036980826343146
 21
31.43256119099705
 31
0.0
  0
LINE
  5
4E9
330
1E
100
AcDbEntity
  8
OBJECT
100
AcDbLine
 10
5.966980826343132
 20
30.15156119099705
 30
0.0
 11
5.966980826343132
 21
31.43256119099705
 31
0.0
  0
LINE
  5
4EA
330
1E
100
AcDbEntity
  8
OBJECT
100
AcDbLine
 10
5.743920854249211
 20
30.15156119099705
 30
0.0
 11
5.743920854249211
 21
31.43256119099705
 31
0.0
  0
LINE
  5
4EB
330
1E
100
AcDbEntity
  8
OBJECT
100
AcDbLine
 10
5.385920854249206
 20
30.15156119099705
 30
0.0
 11
5.385920854249206
 21
31.43256119099705
 31
0.0
  0
LINE
  5
4EC
330
1E
100
AcDbEntity
  8
OBJECT
100
AcDbLine
 10
6.036980826343146
 20
30.15156119099705
 30
0.0
 11
5.385920854249206
 21
30.15156119099705
 31
0.0
  0
LINE
  5
4ED
330
1E
100
AcDbEntity
  8
OBJECT
100
AcDbLine
 10
5.743920854249211
 20
30.46356119099705
 30
0.0
 11
5.385920854249206
 21
30.46356119099705
 31
0.0
  0
LINE
  5
4EE
330
1E
100
AcDbEntity
  8
OBJECT
100
AcDbLine
 10
6.036980826343146
 20
31.43256119099705
 30
0.0
 11
5.385920854249206
 21
31.43256119099705
 31
0.0
  0
LINE
  5
4EF
330
1E
100
AcDbEntity
  8
OBJECT
100
AcDbLine
 10
5.743920854249211
 20
31.12056119099706
 30
0.0
 11
5.385920854249206
 21
31.12056119099705
 31
0.0
  0
LINE
  5
4F0
330
1E
100
AcDbEntity
  8
OBJECT
100
AcDbLine
 10
5.385920854249206
 20
38.0175611909971
 30
0.0
 11
5.385920854249206
 21
36.7365611909971
 31
0.0
  0
LINE
  5
4F1
330
1E
100
AcDbEntity
  8
OBJECT
100
AcDbLine
 10
5.743920854249211
 20
38.0175611909971
 30
0.0
 11
5.743920854249211
 21
36.7365611909971
 31
0.0
  0
LINE
  5
4F2
330
1E
100
AcDbEntity
  8
OBJECT
100
AcDbLine
 10
5.966980826343132
 20
38.0175611909971
 30
0.0
 11
5.966980826343132
 21
36.7365611909971
 31
0.0
  0
LINE
  5
4F3
330
1E
100
AcDbEntity
  8
OBJECT
100
AcDbLine
 10
6.036980826343146
 20
38.0175611909971
 30
0.0
 11
6.036980826343146
 21
36.7365611909971
 31
0.0
  0
LINE
  5
4F4
330
1E
100
AcDbEntity
  8
OBJECT
100
AcDbLine
 10
5.743920854249211
 20
37.0485611909971
 30
0.0
 11
5.385920854249206
 21
37.0485611909971
 31
0.0
  0
LINE
  5
4F5
330
1E
100
AcDbEntity
  8
OBJECT
100
AcDbLine
 10
6.036980826343146
 20
36.7365611909971
 30
0.0
 11
5.385920854249206
 21
36.7365611909971
 31
0.0
  0
LINE
  5
4F6
330
1E
100
AcDbEntity
  8
OBJECT
100
AcDbLine
 10
6.036980826343146
 20
38.0175611909971
 30
0.0
 11
5.385920854249206
 21
38.0175611909971
 31
0.0
  0
LINE
  5
4F7
330
1E
100
AcDbEntity
  8
OBJECT
100
AcDbLine
 10
5.743920854249211
 20
37.7055611909971
 30
0.0
 11
5.385920854249206
 21
37.7055611909971
 31
0.0
  0
LWPOLYLINE
  5
4F8
330
1E
100
AcDbEntity
  8
OBJECT
100
AcDbPolyline
 90
        4
 70
     0
 43
0.0
 10
19.80150066136059
 20
37.08156119099674
 10
19.80150066136059
 20
37.01106119099674
 10
20.89062566136058
 20
37.01106119099674
 10
20.89062566136058
 20
37.08148817836962
  0
LWPOLYLINE
  5
4FE
330
1E
100
AcDbEntity
  8
OBJECT
100
AcDbPolyline
 90
        4
 70
     0
 43
0.0
 10
20.89062566136058
 20
37.76956119099674
 10
20.89062566136061
 20
37.84006119099675
 10
19.80150066136059
 20
37.84006119099675
 10
19.80150066136059
 20
37.76956119099674
  0
LWPOLYLINE
  5
504
330
1E
100
AcDbEntity
  8
OBJECT
100
AcDbPolyline
 90
        6
 70
     0
 43
0.0
 10
20.99962566136059
 20
37.76956119099674
 10
20.99962566136059
 20
37.84006119099675
 42
0.4142135623730951
 10
20.89062566136061
 20
37.94906119099674
 10
19.80150066136062
 20
37.94906119099674
 42
0.4142135623730951
 10
19.69250066136061
 20
37.84006119099675
 10
19.69250066136061
 20
37.76956119099674
  0
LWPOLYLINE
  5
50C
330
1E
100
AcDbEntity
  8
OBJECT
100
AcDbPolyline
 90
        6
 70
     0
 43
0.0
 10
20.99962566136059
 20
37.08156119099675
 10
20.99962566136059
 20
37.01106119099674
 42
-0.4142135623730951
 10
20.89062566136061
 20
36.90206119099674
 10
19.80150066136062
 20
36.90206119099674
 42
-0.4142135623730951
 10
19.69250066136061
 20
37.01106119099674
 10
19.69250066136061
 20
37.08156119099675
  0
LINE
  5
514
330
1E
100
AcDbEntity
  8
OBJECT
100
AcDbLine
 10
20.4451256613606
 20
37.84006119099675
 30
0.0
 11
20.4451256613606
 21
37.01106119099674
 31
0.0
  0
LINE
  5
515
330
1E
100
AcDbEntity
  8
OBJECT
100
AcDbLine
 10
20.16950066136061
 20
37.01106119099674
 30
0.0
 11
20.16950066136058
 21
37.84006119099675
 31
0.0
  0
LINE
  5
516
330
1E
100
AcDbEntity
  8
OBJECT
100
AcDbLine
 10
19.85450066136061
 20
37.01106119099674
 30
0.0
 11
19.85450066136061
 21
37.84006119099675
 31
0.0
  0
LINE
  5
517
330
1E
100
AcDbEntity
  8
OBJECT
100
AcDbLine
 10
19.60628772007314
 20
37.70706119099674
 30
0.0
 11
19.60628772007314
 21
37.14406119099674
 31
0.0
  0
LINE
  5
518
330
1E
100
AcDbEntity
  8
OBJECT
100
AcDbLine
 10
19.585602007179
 20
37.70706119099674
 30
0.0
 11
19.585602007179
 21
37.14406119099674
 31
0.0
  0
LWPOLYLINE
  5
519
330
1E
100
AcDbEntity
  8
OBJECT
100
AcDbPolyline
 90
       12
 70
     0
 43
0.0
 10
19.85450066136061
 20
37.76956119099675
 10
19.54950066136061
 20
37.76956119099674
 10
19.54950066136061
 20
37.86306119099674
 42
0.4142135623730951
 10
19.48700066136061
 20
37.92556119099674
 10
19.29200066136059
 20
37.92556119099674
 42
0.4142135623730951
 10
19.22950066136058
 20
37.86306119099674
 10
19.22950066136058
 20
36.98806119099674
 42
0.4142135623730951
 10
19.29200066136059
 20
36.92556119099674
 10
19.48700066136061
 20
36.92556119099674
 42
0.4142135623730951
 10
19.54950066136061
 20
36.98806119099674
 10
19.54950066136061
 20
37.08156119099674
 10
19.85450066136058
 20
37.08156119099675
  0
POLYLINE
  5
527
330
1E
100
AcDbEntity
  8
OBJECT
100
AcDb3dPolyline
 66
     1
 10
0.0
 20
0.0
 30
0.0
 70
     8
  0
VERTEX
  5
528
330
527
100
AcDbEntity
  8
OBJECT
100
AcDbVertex
100
AcDb3dPolylineVertex
 10
19.60628772007314
 20
37.14406119099674
 30
0.0
 70
    32
1001
ACAD
1000
R13OBJECT
1002
{
1005
246
1002
}
  0
VERTEX
  5
529
330
527
100
AcDbEntity
  8
OBJECT
100
AcDbVertex
100
AcDb3dPolylineVertex
 10
19.61066792600499
 20
37.12014347647393
 30
0.0
 70
    32
1001
ACAD
1000
R13OBJECT
1002
{
1005
246
1002
}
  0
VERTEX
  5
52A
330
527
100
AcDbEntity
  8
OBJECT
100
AcDbVertex
100
AcDb3dPolylineVertex
 10
19.62314169715406
 20
37.09986701717258
 30
0.0
 70
    32
1001
ACAD
1000
R13OBJECT
1002
{
1005
246
1002
}
  0
VERTEX
  5
52B
330
527
100
AcDbEntity
  8
OBJECT
100
AcDbVertex
100
AcDb3dPolylineVertex
 10
19.64181001493793
 20
37.08631872021479
 30
0.0
 70
    32
1001
ACAD
1000
R13OBJECT
1002
{
1005
246
1002
}
  0
VERTEX
  5
52C
330
527
100
AcDbEntity
  8
OBJECT
100
AcDbVertex
100
AcDb3dPolylineVertex
 10
19.66383079720276
 20
37.08156119099674
 30
0.0
 70
    32
1001
ACAD
1000
R13OBJECT
1002
{
1005
246
1002
}
  0
SEQEND
  5
52D
330
527
100
AcDbEntity
  8
OBJECT
  0
POLYLINE
  5
52E
330
1E
100
AcDbEntity
  8
OBJECT
100
AcDb3dPolyline
 66
     1
 10
0.0
 20
0.0
 30
0.0
 70
     8
  0
VERTEX
  5
52F
330
52E
100
AcDbEntity
  8
OBJECT
100
AcDbVertex
100
AcDb3dPolylineVertex
 10
19.585602007179
 20
37.14406119099674
 30
0.0
 70
    32
1001
ACAD
1000
R13OBJECT
1002
{
1005
244
1002
}
  0
VERTEX
  5
530
330
52E
100
AcDbEntity
  8
OBJECT
100
AcDbVertex
100
AcDb3dPolylineVertex
 10
19.58998221311085
 20
37.12014347647393
 30
0.0
 70
    32
1001
ACAD
1000
R13OBJECT
1002
{
1005
244
1002
}
  0
VERTEX
  5
531
330
52E
100
AcDbEntity
  8
OBJECT
100
AcDbVertex
100
AcDb3dPolylineVertex
 10
19.60245598425993
 20
37.09986701717258
 30
0.0
 70
    32
1001
ACAD
1000
R13OBJECT
1002
{
1005
244
1002
}
  0
VERTEX
  5
532
330
52E
100
AcDbEntity
  8
OBJECT
100
AcDbVertex
100
AcDb3dPolylineVertex
 10
19.62112430204382
 20
37.08631872021479
 30
0.0
 70
    32
1001
ACAD
1000
R13OBJECT
1002
{
1005
244
1002
}
  0
VERTEX
  5
533
330
52E
100
AcDbEntity
  8
OBJECT
100
AcDbVertex
100
AcDb3dPolylineVertex
 10
19.64314508430862
 20
37.08156119099674
 30
0.0
 70
    32
1001
ACAD
1000
R13OBJECT
1002
{
1005
244
1002
}
  0
SEQEND
  5
534
330
52E
100
AcDbEntity
  8
OBJECT
  0
CIRCLE
  5
535
330
1E
100
AcDbEntity
  8
OBJECT
100
AcDbCircle
 10
19.38950066136058
 20
37.11306119099674
 30
0.0
 40
0.085
  0
LINE
  5
536
330
1E
100
AcDbEntity
  8
OBJECT
100
AcDbLine
 10
19.31450066136059
 20
37.09154251015378
 30
0.0
 11
19.31450066136059
 21
37.13452224106284
 31
0.0
  0
LWPOLYLINE
  5
537
330
1E
100
AcDbEntity
  8
OBJECT
100
AcDbPolyline
 90
       73
 70
     0
 43
0.0
 10
19.4045006613606
 20
37.0365170860637
 10
19.40072106274701
 20
37.03587323927946
 10
19.39694893432499
 20
37.03541903792574
 10
19.39320266942078
 20
37.03514988687427
 10
19.38950066136058
 20
37.03506119099674
 10
19.38576014355288
 20
37.0351549490781
 10
19.38198294493352
 20
37.03543616813917
 10
19.37818629408636
 20
37.03590476540552
 10
19.37438741959508
 20
37.03656065810266
 10
19.37060355004348
 20
37.03740376345612
 10
19.36685191401534
 20
37.03843399869145
 10
19.36314974009439
 20
37.03965128103416
 10
19.35951425686442
 20
37.0410555277098
 10
19.35596131700859
 20
37.0426443016659
 10
19.35250262771106
 20
37.04440665916868
 10
19.34914919930713
 20
37.04632975742167
 10
19.34591204213217
 20
37.04840075362844
 10
19.34280216652146
 20
37.05060680499253
 10
19.33983058281032
 20
37.05293506871749
 10
19.33700830133409
 20
37.05537270200685
 10
19.33434633242805
 20
37.05790686206419
 10
19.33181645884468
 20
37.0605642420248
 10
19.32938155336827
 20
37.06338300058916
 10
19.32705471219202
 20
37.0663520424984
 10
19.32484903150916
 20
37.06946027249364
 10
19.32277760751287
 20
37.072696595316
 10
19.32085353639638
 20
37.0760499157066
 10
19.31908991435292
 20
37.07950913840656
 10
19.31749983757566
 20
37.08306316815701
 10
19.31609443549496
 20
37.08670025625497
 10
19.31487616020237
 20
37.09040442169845
 10
19.31384509188293
 20
37.09415822077996
 10
19.31300131072174
 20
37.09794420979203
 10
19.31234489690382
 20
37.10174494502722
 10
19.31187593061429
 20
37.10554298277804
 10
19.31159449203821
 20
37.10932087933704
 10
19.31150066136058
 20
37.11306119099674
 10
19.31159393262928
 20
37.11679023097752
 10
19.31187370843628
 20
37.1205570009101
 10
19.31233993178318
 20
37.12434413216362
 10
19.31299254567147
 20
37.12813425610719
 10
19.31383149310266
 20
37.13191000410996
 10
19.31485671707827
 20
37.13565400754106
 10
19.31606816059982
 20
37.13934889776961
 10
19.31746576666881
 20
37.14297730616476
 10
19.31904711390243
 20
37.14652331541933
 10
19.3208011338192
 20
37.14997521234196
 10
19.32271479877295
 20
37.1533219344754
 10
19.32477508111733
 20
37.15655241936246
 10
19.32696895320614
 20
37.15965560454593
 10
19.32928338739307
 20
37.16262042756857
 10
19.33170535603187
 20
37.16543582597318
 10
19.33422183147629
 20
37.16809073730254
 10
19.33688626889821
 20
37.17063837950652
 10
19.33971190949296
 20
37.17308901474185
 10
19.34268770976544
 20
37.17542973421953
 10
19.34580262622054
 20
37.17764762915058
 10
19.34904561536313
 20
37.17972979074598
 10
19.35240563369814
 20
37.18166331021677
 10
19.35587163773044
 20
37.18343527877395
 10
19.35943258396491
 20
37.18503278762852
 10
19.36307672875239
 20
37.1864448335171
 10
19.36678815538576
 20
37.18766894873761
 10
19.37054956078304
 20
37.188705027843
 10
19.37434364186233
 20
37.18955296538624
 10
19.37815309554167
 20
37.19021265592027
 10
19.38196061873912
 20
37.19068399399805
 10
19.38574890837276
 20
37.19096687417256
 10
19.38950066136058
 20
37.19106119099674
 10
19.39320242240796
 20
37.19097250368485
 10
19.39694863705136
 20
37.19070336690946
 10
19.40072086384938
 20
37.19024916841098
 10
19.4045006613606
 20
37.18960529592978
  0
ARC
  5
582
330
1E
100
AcDbEntity
  8
OBJECT
100
AcDbCircle
 10
19.38950066136058
 20
37.11306119099674
 30
0.0
 40
0.078
100
AcDbArc
 50
281.0874892109704
 51
78.91251078902897
  0
LINE
  5
583
330
1E
100
AcDbEntity
  8
OBJECT
100
AcDbLine
 10
19.46250066136059
 20
37.14044136983452
 30
0.0
 11
19.46250066136059
 21
37.08560994718442
 31
0.0
  0
LINE
  5
584
330
1E
100
AcDbEntity
  8
OBJECT
100
AcDbLine
 10
19.31450066136059
 20
37.09143704784565
 30
0.0
 11
19.31450066136059
 21
37.09154251015378
 31
0.0
  0
LINE
  5
585
330
1E
100
AcDbEntity
  8
OBJECT
100
AcDbLine
 10
19.46250066136059
 20
37.08560994718442
 30
0.0
 11
19.46250066136059
 21
37.08558392766875
 31
0.0
  0
LINE
  5
586
330
1E
100
AcDbEntity
  8
OBJECT
100
AcDbLine
 10
19.31450066136059
 20
37.13452224106284
 30
0.0
 11
19.31450066136059
 21
37.1345631661125
 31
0.0
  0
LINE
  5
587
330
1E
100
AcDbEntity
  8
OBJECT
100
AcDbLine
 10
19.46250066136059
 20
37.14053845432473
 30
0.0
 11
19.46250066136059
 21
37.14044136983452
 31
0.0
  0
POLYLINE
  5
588
330
1E
100
AcDbEntity
  8
OBJECT
100
AcDb3dPolyline
 66
     1
 10
0.0
 20
0.0
 30
0.0
 70
     8
  0
VERTEX
  5
589
330
588
100
AcDbEntity
  8
OBJECT
100
AcDbVertex
100
AcDb3dPolylineVertex
 10
19.64314508430862
 20
37.76956119099674
 30
0.0
 70
    32
1001
ACAD
1000
R13OBJECT
1002
{
1005
241
1002
}
  0
VERTEX
  5
58A
330
588
100
AcDbEntity
  8
OBJECT
100
AcDbVertex
100
AcDb3dPolylineVertex
 10
19.62112430204382
 20
37.7648036617787
 30
0.0
 70
    32
1001
ACAD
1000
R13OBJECT
1002
{
1005
241
1002
}
  0
VERTEX
  5
58B
330
588
100
AcDbEntity
  8
OBJECT
100
AcDbVertex
100
AcDb3dPolylineVertex
 10
19.60245598425993
 20
37.7512553648209
 30
0.0
 70
    32
1001
ACAD
1000
R13OBJECT
1002
{
1005
241
1002
}
  0
VERTEX
  5
58C
330
588
100
AcDbEntity
  8
OBJECT
100
AcDbVertex
100
AcDb3dPolylineVertex
 10
19.58998221311085
 20
37.73097890551956
 30
0.0
 70
    32
1001
ACAD
1000
R13OBJECT
1002
{
1005
241
1002
}
  0
VERTEX
  5
58D
330
588
100
AcDbEntity
  8
OBJECT
100
AcDbVertex
100
AcDb3dPolylineVertex
 10
19.585602007179
 20
37.70706119099674
 30
0.0
 70
    32
1001
ACAD
1000
R13OBJECT
1002
{
1005
241
1002
}
  0
SEQEND
  5
58E
330
588
100
AcDbEntity
  8
OBJECT
  0
POLYLINE
  5
58F
330
1E
100
AcDbEntity
  8
OBJECT
100
AcDb3dPolyline
 66
     1
 10
0.0
 20
0.0
 30
0.0
 70
     8
  0
VERTEX
  5
590
330
58F
100
AcDbEntity
  8
OBJECT
100
AcDbVertex
100
AcDb3dPolylineVertex
 10
19.66383079720276
 20
37.76956119099674
 30
0.0
 70
    32
1001
ACAD
1000
R13OBJECT
1002
{
1005
23F
1002
}
  0
VERTEX
  5
591
330
58F
100
AcDbEntity
  8
OBJECT
100
AcDbVertex
100
AcDb3dPolylineVertex
 10
19.64181001493793
 20
37.7648036617787
 30
0.0
 70
    32
1001
ACAD
1000
R13OBJECT
1002
{
1005
23F
1002
}
  0
VERTEX
  5
592
330
58F
100
AcDbEntity
  8
OBJECT
100
AcDbVertex
100
AcDb3dPolylineVertex
 10
19.62314169715406
 20
37.7512553648209
 30
0.0
 70
    32
1001
ACAD
1000
R13OBJECT
1002
{
1005
23F
1002
}
  0
VERTEX
  5
593
330
58F
100
AcDbEntity
  8
OBJECT
100
AcDbVertex
100
AcDb3dPolylineVertex
 10
19.61066792600499
 20
37.73097890551956
 30
0.0
 70
    32
1001
ACAD
1000
R13OBJECT
1002
{
1005
23F
1002
}
  0
VERTEX
  5
594
330
58F
100
AcDbEntity
  8
OBJECT
100
AcDbVertex
100
AcDb3dPolylineVertex
 10
19.60628772007314
 20
37.70706119099674
 30
0.0
 70
    32
1001
ACAD
1000
R13OBJECT
1002
{
1005
23F
1002
}
  0
SEQEND
  5
595
330
58F
100
AcDbEntity
  8
OBJECT
  0
CIRCLE
  5
596
330
1E
100
AcDbEntity
  8
OBJECT
100
AcDbCircle
 10
19.38950066136058
 20
37.73806119099674
 30
0.0
 40
0.085
  0
LINE
  5
597
330
1E
100
AcDbEntity
  8
OBJECT
100
AcDbLine
 10
19.31450066136059
 20
37.71643704784563
 30
0.0
 11
19.31450066136059
 21
37.71654251015387
 31
0.0
  0
LINE
  5
598
330
1E
100
AcDbEntity
  8
OBJECT
100
AcDbLine
 10
19.31450066136059
 20
37.71654251015387
 30
0.0
 11
19.31450066136059
 21
37.75952224106284
 31
0.0
  0
LINE
  5
599
330
1E
100
AcDbEntity
  8
OBJECT
100
AcDbLine
 10
19.31450066136059
 20
37.75952224106284
 30
0.0
 11
19.31450066136059
 21
37.75956316611254
 31
0.0
  0
ARC
  5
59A
330
1E
100
AcDbEntity
  8
OBJECT
100
AcDbCircle
 10
19.38950066136058
 20
37.73806119099674
 30
0.0
 40
0.078
100
AcDbArc
 50
281.087489210971
 51
78.91251078902897
  0
LINE
  5
59B
330
1E
100
AcDbEntity
  8
OBJECT
100
AcDbLine
 10
19.46250066136059
 20
37.76553845432481
 30
0.0
 11
19.46250066136059
 21
37.7654413698346
 31
0.0
  0
LINE
  5
59C
330
1E
100
AcDbEntity
  8
OBJECT
100
AcDbLine
 10
19.46250066136059
 20
37.7654413698346
 30
0.0
 11
19.46250066136059
 21
37.71060994718431
 31
0.0
  0
LINE
  5
59D
330
1E
100
AcDbEntity
  8
OBJECT
100
AcDbLine
 10
19.46250066136059
 20
37.71060994718431
 30
0.0
 11
19.46250066136059
 21
37.71058392766867
 31
0.0
  0
LWPOLYLINE
  5
59E
330
1E
100
AcDbEntity
  8
OBJECT
100
AcDbPolyline
 90
       73
 70
     0
 43
0.0
 10
19.4045006613606
 20
37.6615170860637
 10
19.40072106274701
 20
37.66087323927945
 10
19.39694893432499
 20
37.66041903792574
 10
19.39320266942078
 20
37.66014988687427
 10
19.38950066136058
 20
37.66006119099674
 10
19.38576014355288
 20
37.6601549490781
 10
19.38198294493352
 20
37.66043616813917
 10
19.37818629408636
 20
37.66090476540552
 10
19.37438741959508
 20
37.66156065810266
 10
19.37060355004348
 20
37.66240376345612
 10
19.36685191401534
 20
37.66343399869145
 10
19.36314974009439
 20
37.66465128103416
 10
19.35951425686442
 20
37.6660555277098
 10
19.35596131700859
 20
37.6676443016659
 10
19.35250262771106
 20
37.66940665916868
 10
19.34914919930713
 20
37.67132975742167
 10
19.34591204213217
 20
37.67340075362844
 10
19.34280216652146
 20
37.67560680499253
 10
19.33983058281032
 20
37.67793506871749
 10
19.33700830133409
 20
37.68037270200685
 10
19.33434633242805
 20
37.68290686206419
 10
19.33181645884468
 20
37.6855642420248
 10
19.32938155336827
 20
37.68838300058916
 10
19.32705471219202
 20
37.6913520424984
 10
19.32484903150916
 20
37.69446027249364
 10
19.32277760751287
 20
37.697696595316
 10
19.32085353639638
 20
37.7010499157066
 10
19.31908991435292
 20
37.70450913840656
 10
19.31749983757566
 20
37.70806316815701
 10
19.31609443549496
 20
37.71170025625497
 10
19.31487616020237
 20
37.71540442169845
 10
19.31384509188293
 20
37.71915822077996
 10
19.31300131072174
 20
37.72294420979203
 10
19.31234489690382
 20
37.72674494502722
 10
19.31187593061429
 20
37.73054298277804
 10
19.31159449203821
 20
37.73432087933704
 10
19.31150066136061
 20
37.73806119099674
 10
19.31159393262928
 20
37.74179023097752
 10
19.3118737084363
 20
37.7455570009101
 10
19.31233993178318
 20
37.74934413216362
 10
19.31299254567147
 20
37.75313425610719
 10
19.31383149310266
 20
37.75691000410996
 10
19.31485671707827
 20
37.76065400754106
 10
19.31606816059982
 20
37.76434889776962
 10
19.31746576666881
 20
37.76797730616476
 10
19.31904711390243
 20
37.77152331541933
 10
19.3208011338192
 20
37.77497521234196
 10
19.32271479877295
 20
37.7783219344754
 10
19.32477508111733
 20
37.78155241936247
 10
19.32696895320614
 20
37.78465560454593
 10
19.32928338739307
 20
37.78762042756858
 10
19.33170535603187
 20
37.79043582597317
 10
19.33422183147629
 20
37.79309073730254
 10
19.33688626889821
 20
37.79563837950652
 10
19.33971190949296
 20
37.79808901474185
 10
19.34268770976544
 20
37.80042973421953
 10
19.34580262622054
 20
37.80264762915058
 10
19.34904561536313
 20
37.80472979074598
 10
19.35240563369814
 20
37.80666331021677
 10
19.35587163773044
 20
37.80843527877395
 10
19.35943258396491
 20
37.81003278762852
 10
19.36307672875239
 20
37.8114448335171
 10
19.36678815538576
 20
37.81266894873761
 10
19.37054956078304
 20
37.813705027843
 10
19.37434364186233
 20
37.81455296538624
 10
19.37815309554167
 20
37.81521265592027
 10
19.38196061873912
 20
37.81568399399805
 10
19.38574890837276
 20
37.81596687417256
 10
19.38950066136058
 20
37.81606119099674
 10
19.39320242240796
 20
37.81597250368485
 10
19.39694863705136
 20
37.81570336690946
 10
19.40072086384938
 20
37.81524916841098
 10
19.4045006613606
 20
37.81460529592978
  0
LINE
  5
5E9
330
1E
100
AcDbEntity
  8
OBJECT
100
AcDbLine
 10
21.61464774496195
 20
37.76956119099674
 30
0.0
 11
21.61464774496195
 21
37.08156119099675
 31
0.0
  0
POLYLINE
  5
5EA
330
1E
100
AcDbEntity
  8
OBJECT
100
AcDb2dPolyline
 66
     1
 10
0.0
 20
0.0
 30
0.0
1001
ACAD
1000
R13OBJECT
1002
{
1005
101E
1002
}
  0
VERTEX
  5
5EB
330
5EA
100
AcDbEntity
  8
OBJECT
100
AcDbVertex
100
AcDb2dVertex
 10
21.75828107804676
 20
37.08156119099675
 30
0.0
1001
ACAD
1000
R13OBJECT
1002
{
1005
101E
1002
}
  0
VERTEX
  5
5EC
330
5EA
100
AcDbEntity
  8
OBJECT
100
AcDbVertex
100
AcDb2dVertex
 10
21.77660311034907
 20
37.08631872021479
 30
0.0
1001
ACAD
1000
R13OBJECT
1002
{
1005
101E
1002
}
  0
VERTEX
  5
5ED
330
5EA
100
AcDbEntity
  8
OBJECT
100
AcDbVertex
100
AcDb2dVertex
 10
21.79213577932301
 20
37.09986701717258
 30
0.0
1001
ACAD
1000
R13OBJECT
1002
{
1005
101E
1002
}
  0
VERTEX
  5
5EE
330
5EA
100
AcDbEntity
  8
OBJECT
100
AcDbVertex
100
AcDb2dVertex
 10
21.80251437692124
 20
37.12014347647393
 30
0.0
1001
ACAD
1000
R13OBJECT
1002
{
1005
101E
1002
}
  0
VERTEX
  5
5EF
330
5EA
100
AcDbEntity
  8
OBJECT
100
AcDbVertex
100
AcDb2dVertex
 10
21.80615885574169
 20
37.14406119099675
 30
0.0
1001
ACAD
1000
R13OBJECT
1002
{
1005
101E
1002
}
  0
VERTEX
  5
5F0
330
5EA
100
AcDbEntity
  8
OBJECT
100
AcDbVertex
100
AcDb2dVertex
 10
21.80615885574169
 20
37.70706119099674
 30
0.0
1001
ACAD
1000
R13OBJECT
1002
{
1005
101E
1002
}
  0
VERTEX
  5
5F1
330
5EA
100
AcDbEntity
  8
OBJECT
100
AcDbVertex
100
AcDb2dVertex
 10
21.80251437692124
 20
37.73097890551956
 30
0.0
1001
ACAD
1000
R13OBJECT
1002
{
1005
101E
1002
}
  0
VERTEX
  5
5F2
330
5EA
100
AcDbEntity
  8
OBJECT
100
AcDbVertex
100
AcDb2dVertex
 10
21.79213577932299
 20
37.7512553648209
 30
0.0
1001
ACAD
1000
R13OBJECT
1002
{
1005
101E
1002
}
  0
VERTEX
  5
5F3
330
5EA
100
AcDbEntity
  8
OBJECT
100
AcDbVertex
100
AcDb2dVertex
 10
21.77660311034907
 20
37.7648036617787
 30
0.0
1001
ACAD
1000
R13OBJECT
1002
{
1005
101E
1002
}
  0
VERTEX
  5
5F4
330
5EA
100
AcDbEntity
  8
OBJECT
100
AcDbVertex
100
AcDb2dVertex
 10
21.75828107804676
 20
37.76956119099674
 30
0.0
1001
ACAD
1000
R13OBJECT
1002
{
1005
101E
1002
}
  0
SEQEND
  5
5F5
330
5EA
100
AcDbEntity
  8
OBJECT
  0
POLYLINE
  5
5F6
330
1E
100
AcDbEntity
  8
OBJECT
100
AcDb2dPolyline
 66
     1
 10
0.0
 20
0.0
 30
0.0
 70
     1
1001
ACAD
1000
R13OBJECT
1002
{
1005
1026
1002
}
  0
VERTEX
  5
5F7
330
5F6
100
AcDbEntity
  8
OBJECT
100
AcDbVertex
100
AcDb2dVertex
 10
20.5701256613606
 20
37.08156119099675
 30
0.0
1001
ACAD
1000
R13OBJECT
1002
{
1005
1026
1002
}
  0
VERTEX
  5
5F8
330
5F6
100
AcDbEntity
  8
OBJECT
100
AcDbVertex
100
AcDb2dVertex
 10
21.80327621072482
 20
37.08156119099675
 30
0.0
1001
ACAD
1000
R13OBJECT
1002
{
1005
1026
1002
}
  0
VERTEX
  5
5F9
330
5F6
100
AcDbEntity
  8
OBJECT
100
AcDbVertex
100
AcDb2dVertex
 10
21.82159824302712
 20
37.08631872021479
 30
0.0
1001
ACAD
1000
R13OBJECT
1002
{
1005
1026
1002
}
  0
VERTEX
  5
5FA
330
5F6
100
AcDbEntity
  8
OBJECT
100
AcDbVertex
100
AcDb2dVertex
 10
21.83713091200107
 20
37.09986701717258
 30
0.0
1001
ACAD
1000
R13OBJECT
1002
{
1005
1026
1002
}
  0
VERTEX
  5
5FB
330
5F6
100
AcDbEntity
  8
OBJECT
100
AcDbVertex
100
AcDb2dVertex
 10
21.84750950959929
 20
37.12014347647393
 30
0.0
1001
ACAD
1000
R13OBJECT
1002
{
1005
1026
1002
}
  0
VERTEX
  5
5FC
330
5F6
100
AcDbEntity
  8
OBJECT
100
AcDbVertex
100
AcDb2dVertex
 10
21.85115398841975
 20
37.14406119099675
 30
0.0
1001
ACAD
1000
R13OBJECT
1002
{
1005
1026
1002
}
  0
VERTEX
  5
5FD
330
5F6
100
AcDbEntity
  8
OBJECT
100
AcDbVertex
100
AcDb2dVertex
 10
21.85115398841978
 20
37.70706119099674
 30
0.0
1001
ACAD
1000
R13OBJECT
1002
{
1005
1026
1002
}
  0
VERTEX
  5
5FE
330
5F6
100
AcDbEntity
  8
OBJECT
100
AcDbVertex
100
AcDb2dVertex
 10
21.84750950959929
 20
37.73097890551956
 30
0.0
1001
ACAD
1000
R13OBJECT
1002
{
1005
1026
1002
}
  0
VERTEX
  5
5FF
330
5F6
100
AcDbEntity
  8
OBJECT
100
AcDbVertex
100
AcDb2dVertex
 10
21.83713091200107
 20
37.7512553648209
 30
0.0
1001
ACAD
1000
R13OBJECT
1002
{
1005
1026
1002
}
  0
VERTEX
  5
600
330
5F6
100
AcDbEntity
  8
OBJECT
100
AcDbVertex
100
AcDb2dVertex
 10
21.82159824302712
 20
37.7648036617787
 30
0.0
1001
ACAD
1000
R13OBJECT
1002
{
1005
1026
1002
}
  0
VERTEX
  5
601
330
5F6
100
AcDbEntity
  8
OBJECT
100
AcDbVertex
100
AcDb2dVertex
 10
21.80327621072482
 20
37.76956119099674
 30
0.0
1001
ACAD
1000
R13OBJECT
1002
{
1005
1026
1002
}
  0
VERTEX
  5
602
330
5F6
100
AcDbEntity
  8
OBJECT
100
AcDbVertex
100
AcDb2dVertex
 10
20.5701256613606
 20
37.76956119099674
 30
0.0
1001
ACAD
1000
R13OBJECT
1002
{
1005
1026
1002
}
  0
SEQEND
  5
603
330
5F6
100
AcDbEntity
  8
OBJECT
  0
LINE
  5
604
330
1E
100
AcDbEntity
  8
OBJECT
100
AcDbLine
 10
13.23729381423939
 20
40.00056119099709
 30
0.0
 11
6.194045854249214
 21
40.00056119099709
 31
0.0
  0
LINE
  5
605
330
1E
100
AcDbEntity
  8
OBJECT
100
AcDbLine
 10
13.23729381423939
 20
28.16856119099708
 30
0.0
 11
6.194045854249207
 21
28.16856119099708
 31
0.0
  0
LINE
  5
606
330
1E
100
AcDbEntity
  8
OBJECT
100
AcDbLine
 10
5.760920854249224
 20
30.15156119099706
 30
0.0
 11
5.760920854249217
 21
28.59043721100198
 31
0.0
  0
LINE
  5
607
330
1E
100
AcDbEntity
  8
OBJECT
100
AcDbLine
 10
5.760920854249224
 20
36.7365611909971
 30
0.0
 11
5.760920854249224
 21
31.43256119099706
 31
0.0
  0
LINE
  5
608
330
1E
100
AcDbEntity
  8
OBJECT
100
AcDbLine
 10
5.760920854249224
 20
39.57868517099216
 30
0.0
 11
5.760920854249224
 21
38.0175611909971
 31
0.0
  0
LINE
  5
609
330
1E
100
AcDbEntity
  8
OBJECT
100
AcDbLine
 10
13.67041881423938
 20
39.57868517099216
 30
0.0
 11
13.6704188142394
 21
37.94899204811567
 31
0.0
  0
LINE
  5
60A
330
1E
100
AcDbEntity
  8
OBJECT
100
AcDbLine
 10
13.6704188142394
 20
36.90213727966479
 30
0.0
 11
13.6704188142394
 21
31.26698510232937
 31
0.0
  0
LINE
  5
60B
330
1E
100
AcDbEntity
  8
OBJECT
100
AcDbLine
 10
13.6704188142394
 20
30.22013033387849
 30
0.0
 11
13.67041881423938
 21
28.59043721100198
 31
0.0
  0
ARC
  5
60C
330
1E
100
AcDbEntity
  8
OBJECT
100
AcDbCircle
 10
13.23729381423939
 20
39.56743619099711
 30
0.0
 40
0.4331249999999898
100
AcDbArc
 50
0.0000000000009399
 51
90.0
  0
ARC
  5
60D
330
1E
100
AcDbEntity
  8
OBJECT
100
AcDbCircle
 10
6.194045854249212
 20
39.56743619099709
 30
0.0
 40
0.4331249999999898
100
AcDbArc
 50
90.0
 51
180.0
  0
ARC
  5
60E
330
1E
100
AcDbEntity
  8
OBJECT
100
AcDbCircle
 10
6.194045854249207
 20
28.60168619099707
 30
0.0
 40
0.4331249999999898
100
AcDbArc
 50
180.0
 51
270.0
  0
ARC
  5
60F
330
1E
100
AcDbEntity
  8
OBJECT
100
AcDbCircle
 10
13.23729381423939
 20
28.60168619099707
 30
0.0
 40
0.4331249999999898
100
AcDbArc
 50
270.0
 51
0.0
  0
LWPOLYLINE
  5
610
330
1E
100
AcDbEntity
  8
OBJECT
100
AcDbPolyline
 90
        4
 70
     0
 43
0.0
 10
20.16950066136057
 20
28.43256119099707
 10
20.10087566136059
 20
28.43256119099708
 42
1.0
 10
20.10087566136059
 20
28.35381119099706
 10
20.16950066136057
 20
28.35381119099706
  0
LWPOLYLINE
  5
616
330
1E
100
AcDbEntity
  8
OBJECT
100
AcDbPolyline
 90
        4
 70
     0
 43
0.0
 10
20.16950066136057
 20
28.50756119099706
 10
19.96950066136059
 20
28.50756119099706
 10
19.96950066136059
 20
28.33756119099706
 10
20.16950066136057
 20
28.33756119099706
  0
LINE
  5
61C
330
1E
100
AcDbEntity
  8
OBJECT
100
AcDbLine
 10
20.16950066136057
 20
28.35381119099706
 30
0.0
 11
20.16950066136057
 21
28.16856119099708
 31
0.0
  0
LINE
  5
61D
330
1E
100
AcDbEntity
  8
OBJECT
100
AcDbLine
 10
19.22612542169695
 20
28.61992333032986
 30
0.0
 11
20.16950066136057
 21
28.57663729180885
 31
0.0
  0
ARC
  5
61E
330
1E
100
AcDbEntity
  8
OBJECT
100
AcDbCircle
 10
19.23025066136059
 20
28.70982873838587
 30
0.0
 40
0.09
100
AcDbArc
 50
180.0
 51
267.3728704098822
  0
LINE
  5
61F
330
1E
100
AcDbEntity
  8
OBJECT
100
AcDbLine
 10
19.14025066136058
 20
34.08456119099708
 30
0.0
 11
19.14025066136058
 21
28.70982873838587
 31
0.0
  0
LINE
  5
620
330
1E
100
AcDbEntity
  8
OBJECT
100
AcDbLine
 10
18.98325066136059
 20
39.4752902872447
 30
0.0
 11
18.98325066136059
 21
28.69383209474946
 31
0.0
  0
ARC
  5
621
330
1E
100
AcDbEntity
  8
OBJECT
100
AcDbCircle
 10
19.21925066136059
 20
28.69383209474946
 30
0.0
 40
0.236
100
AcDbArc
 50
180.0
 51
267.7718586293284
  0
ARC
  5
622
330
1E
100
AcDbEntity
  8
OBJECT
100
AcDbCircle
 10
19.21925066136059
 20
39.4752902872447
 30
0.0
 40
0.236
100
AcDbArc
 50
92.22814137067032
 51
180.0
  0
INSERT
  5
623
330
1E
100
AcDbEntity
  8
OBJECT
100
AcDbBlockReference
  2
*X1
 10
-2.309716432883426
 20
-4.1156832778274
 30
0.0
1001
ACAD
1000
HATCH
1002
{
1070
    16
1000
ANSI31
1040
1.0
1040
0.0
1002
}
  0
INSERT
  5
624
330
1E
100
AcDbEntity
  8
OBJECT
100
AcDbBlockReference
  2
*X2
 10
-2.309716432883426
 20
-4.1156832778274
 30
0.0
1001
ACAD
1000
HATCH
1002
{
1070
    16
1000
ANSI31
1040
1.0
1040
1.570796326794896
1002
}
  0
LWPOLYLINE
  5
625
330
1E
100
AcDbEntity
  8
BEND
100
AcDbPolyline
 90
       10
 70
     0
 43
0.0
 10
18.62947239394602
 20
34.08456119099708
 10
20.714495121026
 20
34.08456119099708
 10
20.82883570376233
 20
33.91017597104503
 10
20.89235835773554
 20
34.30387945021705
 10
21.00669894047187
 20
34.08456119099708
 10
25.03873059564224
 20
34.08456119099708
 10
25.15307117837857
 20
33.91017597104503
 10
25.21659383235178
 20
34.30387945021705
 10
25.33093441508811
 20
34.08456119099708
 10
26.37305192346316
 20
34.08456119099708
  0
LWPOLYLINE
  5
631
330
1E
100
AcDbEntity
  8
HIDDEN
100
AcDbPolyline
 90
        3
 70
     0
 43
0.0
 10
20.16950066136058
 20
30.07287369099707
 10
21.35750066136058
 20
30.07287369099707
 10
21.35750066136057
 20
30.02881119099707
  0
LWPOLYLINE
  5
636
330
1E
100
AcDbEntity
  8
HIDDEN
100
AcDbPolyline
 90
        3
 70
     0
 43
0.0
 10
20.16950066136057
 20
29.48224869099708
 10
21.35750066136057
 20
29.48224869099707
 10
21.35750066136057
 20
29.52631119099708
  0
LWPOLYLINE
  5
63B
330
1E
100
AcDbEntity
  8
OBJECT
100
AcDbPolyline
 90
        4
 70
     0
 43
0.0
 10
20.16950066136058
 20
29.54131119099708
 10
21.35750066136057
 20
29.54131119099708
 10
21.35750066136057
 20
30.01381119099707
 10
20.16950066136058
 20
30.01381119099707
  0
TEXT
  5
641
330
1E
100
AcDbEntity
  8
TEXT
100
AcDbText
 10
5.259999999999998
 20
56.85875
 30
0.0
 40
0.5
  1
NON-METALLIC ENCLOSURE (STYLE A)
 41
0.75
  7
TXT
 72
     4
 11
11.00999999999999
 21
57.10875
 31
0.0
100
AcDbText
  0
TEXT
  5
642
330
1E
100
AcDbEntity
  8
TEXT
100
AcDbText
 10
25.18762499998127
 20
56.78024999999869
 30
0.0
 40
0.657000000002628
  1
NBA-10144 & NBA-10164
 41
0.75
  7
TXT
 72
     4
 11
29.86874999999999
 21
57.10875
 31
0.0
100
AcDbText
  0
TEXT
  5
643
330
1E
100
AcDbEntity
  8
TEXT
100
AcDbText
 10
0.8618389062371676
 20
4.96312184058615
 30
0.0
 40
0.468
  1
DIMENSIONS =
 41
0.75
  7
TXT
100
AcDbText
  0
TEXT
  5
644
330
1E
100
AcDbEntity
  8
TEXT
100
AcDbText
 10
6.071497012773029
 20
5.364735086734966
 30
0.0
 40
0.468
  1
INCHES
 41
0.75
  7
TXT
 72
     1
 11
7.007497012773029
 21
5.364735086734966
 31
0.0
100
AcDbText
  0
TEXT
  5
645
330
1E
100
AcDbEntity
  8
TEXT
100
AcDbText
 10
5.018497012773029
 20
4.584735086734965
 30
0.0
 40
0.468
  1
[MILLIMETERS]
 41
0.75
  7
TXT
 72
     1
 11
7.007497012773029
 21
4.584735086734965
 31
0.0
100
AcDbText
  0
TEXT
  5
646
330
1E
100
AcDbEntity
  8
TEXT
100
AcDbText
 10
25.04044592498919
 20
9.667544957643787
 30
0.0
 40
0.468
  1
%%UINDUSTRY STANDARDS:
 41
0.75
  7
TXT
100
AcDbText
  0
TEXT
  5
647
330
1E
100
AcDbEntity
  8
TEXT
100
AcDbText
 10
25.04044592498919
 20
8.88754495764379
 30
0.0
 40
0.468
  1
UL508 TYPE 1, 2, 4, 4X INDOOR, 12 & 13
 41
0.75
  7
TXT
100
AcDbText
  0
TEXT
  5
648
330
1E
100
AcDbEntity
  8
TEXT
100
AcDbText
 10
25.04044592498919
 20
8.107544957643792
 30
0.0
 40
0.468
  1
NEMA TYPE 1, 2, 4, 4X, 12 & 13
 41
0.75
  7
TXT
100
AcDbText
  0
TEXT
  5
649
330
1E
100
AcDbEntity
  8
TEXT
100
AcDbText
 10
25.04044592498919
 20
7.327544957643787
 30
0.0
 40
0.468
  1
IEC529-IP65
 41
0.75
  7
TXT
100
AcDbText
  0
TEXT
  5
64A
330
1E
100
AcDbEntity
  8
TEXT
100
AcDbText
 10
21.70782687868463
 20
5.320119086734966
 30
0.0
 40
0.468
  1
%%UNOTE%%U: ALL DIMENSIONS HAVE %%P0.039 [%%P1] TOLERANCE
 41
0.75
  7
TXT
100
AcDbText
  0
TEXT
  5
64B
330
1E
100
AcDbEntity
  8
TEXT
100
AcDbText
 10
23.61195306097492
 20
4.584735086734965
 30
0.0
 40
0.468
  1
UNLESS OTHERWISE SPECIFIED
 41
0.75
  7
TXT
100
AcDbText
  0
TEXT
  5
64C
330
1E
100
AcDbEntity
  8
TEXT
100
AcDbText
 10
26.90552630952885
 20
22.25662261009655
 30
0.0
 40
0.4703626720183486
  1
(4) WALL MOUNTING BRKTS.
 41
0.75
  7
TXT
100
AcDbText
  0
TEXT
  5
64D
330
1E
100
AcDbEntity
  8
TEXT
100
AcDbText
 10
26.90552630952885
 20
20.68874703670206
 30
0.0
 40
0.4703626720183486
  1
HD. MACHINE SCREWS (NOT SHOWN)
 41
0.75
  7
TXT
100
AcDbText
  0
TEXT
  5
64E
330
1E
100
AcDbEntity
  8
TEXT
100
AcDbText
 10
25.04044592498919
 20
23.00036991814621
 30
0.0
 40
0.4703626720183486
  1
%%UNOTE:%%u UNIT COMES COMPLETE WITH
 41
0.75
  7
TXT
100
AcDbText
  0
TEXT
  5
64F
330
1E
100
AcDbEntity
  8
TEXT
100
AcDbText
 10
25.06147262824026
 20
53.71897456400756
 30
0.0
 40
0.4687499999999997
  1
UL94-5VB FLAMMABILITY RATING
 41
0.75
  7
TXT
100
AcDbText
  0
TEXT
  5
651
330
1E
100
AcDbEntity
  8
TEXT
100
AcDbText
 10
25.06147262824026
 20
51.38482175629041
 30
0.0
 40
0.4687499999999997
  1
UL94V-0 FLAMMABILITY RATING
 41
0.75
  7
TXT
100
AcDbText
  0
TEXT
  5
652
330
1E
100
AcDbEntity
  8
TEXT
100
AcDbText
 10
25.06147262824026
 20
52.16607175629041
 30
0.0
 40
0.4687499999999997
  1
POLYCARBONATE PLASTIC
 41
0.75
  7
TXT
100
AcDbText
  0
LINE
  5
653
330
1E
100
AcDbEntity
  8
TEXT
100
AcDbLine
 10
24.19302553554304
 20
49.05367375626555
 30
0.0
 11
24.827526886482
 21
49.05367375626554
 31
0.0
  0
LINE
  5
654
330
1E
100
AcDbEntity
  8
TEXT
100
AcDbLine
 10
17.79681204303464
 20
46.71651614085607
 30
0.0
 11
20.84427798124182
 21
46.71651614085607
 31
0.0
  0
TEXT
  5
655
330
1E
100
AcDbEntity
  8
TEXT
100
AcDbText
 10
21.07822372300006
 20
45.93526614085607
 30
0.0
 40
0.4687499999999997
  1
LIGHT GRAY OR CLEAR
 41
0.75
  7
TXT
100
AcDbText
  0
TEXT
  5
656
330
1E
100
AcDbEntity
  8
TEXT
100
AcDbText
 10
25.06147262824026
 20
54.50022456400757
 30
0.0
 40
0.4687499999999997
  1
ABS/PC BLENDED PLASTIC
 41
0.75
  7
TXT
100
AcDbText
  0
LINE
  5
657
330
1E
100
AcDbEntity
  8
TEXT
100
AcDbLine
 10
20.3976915002233
 20
52.16607175629041
 30
0.0
 11
24.82752688648202
 21
52.1660717562904
 31
0.0
  0
TEXT
  5
658
330
1E
100
AcDbEntity
  8
TEXT
100
AcDbText
 10
16.31698012411133
 20
49.05367375626555
 30
0.0
 40
0.4687499999999997
  1
WALL MOUNTING BRACKETS
 41
0.75
  7
TXT
100
AcDbText
  0
LINE
  5
659
330
1E
100
AcDbEntity
  8
TEXT
100
AcDbLine
 10
18.24716434161769
 20
45.93526614085607
 30
0.0
 11
20.84427798124182
 21
45.93526614085607
 31
0.0
  0
TEXT
  5
65A
330
1E
100
AcDbEntity
  8
TEXT
100
AcDbText
 10
16.31698012411133
 20
49.83492375626554
 30
0.0
 40
0.4687499999999997
  1
LATCHES, HINGES &
 41
0.75
  7
TXT
100
AcDbText
  0
TEXT
  5
65B
330
1E
100
AcDbEntity
  8
TEXT
100
AcDbText
 10
16.31698012411133
 20
54.50022456400757
 30
0.0
 40
0.4687499999999997
  1
SOLID BODY & COVER
 41
0.75
  7
TXT
100
AcDbText
  0
TEXT
  5
65C
330
1E
100
AcDbEntity
  8
TEXT
100
AcDbText
 10
16.31698012411133
 20
52.16607175629041
 30
0.0
 40
0.4687499999999997
  1
CLEAR COVER
 41
0.75
  7
TXT
100
AcDbText
  0
TEXT
  5
65D
330
1E
100
AcDbEntity
  8
TEXT
100
AcDbText
 10
16.31698012411128
 20
45.93526614085607
 30
0.0
 40
0.4687499999999997
  1
COVER
 41
0.75
  7
TXT
100
AcDbText
  0
TEXT
  5
65E
330
1E
100
AcDbEntity
  8
TEXT
100
AcDbText
 10
16.31698012411128
 20
46.71651614085607
 30
0.0
 40
0.4687499999999997
  1
BODY
 41
0.75
  7
TXT
100
AcDbText
  0
TEXT
  5
65F
330
1E
100
AcDbEntity
  8
TEXT
100
AcDbText
 10
15.74070391262366
 20
47.49776614085607
 30
0.0
 40
0.4687499999999997
  1
%%UFINISH:
 41
0.75
  7
TXT
100
AcDbText
  0
LINE
  5
660
330
1E
100
AcDbEntity
  8
TEXT
100
AcDbLine
 10
22.78554724074155
 20
54.50022456400757
 30
0.0
 11
24.82752688648202
 21
54.50022456400757
 31
0.0
  0
TEXT
  5
661
330
1E
100
AcDbEntity
  8
TEXT
100
AcDbText
 10
25.06147262824025
 20
49.05367375626551
 30
0.0
 40
0.4687499999999997
  1
STAINLESS STEEL
 41
0.75
  7
TXT
100
AcDbText
  0
TEXT
  5
662
330
1E
100
AcDbEntity
  8
TEXT
100
AcDbText
 10
21.07822372300006
 20
46.71651614085607
 30
0.0
 40
0.4687499999999997
  1
LIGHT GRAY
 41
0.75
  7
TXT
100
AcDbText
  0
TEXT
  5
663
330
1E
100
AcDbEntity
  8
TEXT
100
AcDbText
 10
15.7407039126237
 20
55.27667596786617
 30
0.0
 40
0.4687499999999997
  1
%%UMATERIAL:
 41
0.75
  7
TXT
100
AcDbText
  0
TEXT
  5
665
330
1E
100
AcDbEntity
  8
TEXT
100
AcDbText
 10
25.06147262824026
 20
50.60958137167502
 30
0.0
 40
0.4687499999999997
  1
UV STABILIZED
 41
0.75
  7
TXT
100
AcDbText
  0
TEXT
  5
666
330
1E
100
AcDbEntity
  8
TEXT
100
AcDbText
 10
25.04044592498919
 20
25.35016956241164
 30
0.0
 40
0.4703626720183486
  1
COVER INCLUDES GRAY POLY-
 41
0.75
  7
TXT
100
AcDbText
  0
TEXT
  5
667
330
1E
100
AcDbEntity
  8
TEXT
100
AcDbText
 10
26.90552630952885
 20
21.47268482339931
 30
0.0
 40
0.4703626720183486
  1
& (4) M5 x 10mm LG. TRUSS
 41
0.75
  7
TXT
100
AcDbText
  0
TEXT
  5
668
330
1E
100
AcDbEntity
  8
TEXT
100
AcDbText
 10
25.04044592498919
 20
17.66964638597627
 30
0.0
 40
0.46875
  1
INTERNAL HINGED PANEL MOUNTING
 41
0.75
  7
TXT
100
AcDbText
  0
TEXT
  5
669
330
1E
100
AcDbEntity
  8
TEXT
100
AcDbText
 10
25.04044592498919
 20
16.88772231510533
 30
0.0
 40
0.46875
  1
BRACKETS, AIR & MOISTURE VENTS,
 41
0.75
  7
TXT
100
AcDbText
  0
TEXT
  5
66A
330
1E
100
AcDbEntity
  8
TEXT
100
AcDbText
 10
25.04044592498919
 20
13.75298345463552
 30
0.0
 40
0.46875
  1
CAN BE PURCHASED SEPARATELY.
 41
0.75
  7
TXT
100
AcDbText
  0
TEXT
  5
66B
330
1E
100
AcDbEntity
  8
TEXT
100
AcDbText
 10
25.04044592498919
 20
16.10579824423439
 30
0.0
 40
0.46875
  1
STAINLESS STEEL LOCKING HASP
 41
0.75
  7
TXT
100
AcDbText
  0
TEXT
  5
66C
330
1E
100
AcDbEntity
  8
TEXT
100
AcDbText
 10
25.04044592498919
 20
15.32387417336346
 30
0.0
 40
0.46875
  1
AND GALVANIZED STEEL INTERNAL
 41
0.75
  7
TXT
100
AcDbText
  0
TEXT
  5
66D
330
1E
100
AcDbEntity
  8
TEXT
100
AcDbText
 10
25.04044592498919
 20
14.54195010249252
 30
0.0
 40
0.46875
  1
PANEL ARE NOT INCLUDED, BUT
 41
0.75
  7
TXT
100
AcDbText
  0
LWPOLYLINE
  5
66E
330
1E
100
AcDbEntity
  8
DIM
100
AcDbPolyline
 90
        4
 70
     0
 10
12.9091084134504
 20
21.88569197716631
 40
0.0
 41
0.253125
 10
13.42829882703278
 20
22.31704602483963
 40
0.0
 41
0.0
 10
14.81079726037446
 20
23.46565408755255
 40
0.0
 41
0.0
 10
15.48579726037447
 20
23.46565408755255
 40
0.0
 41
0.0
  0
TEXT
  5
674
330
1E
100
AcDbEntity
  8
TEXT
100
AcDbText
 10
6.42281269138715
 20
9.200430947577871
 30
0.0
 40
0.5714285714285714
  1
%%uVIEW LESS COVER
 41
0.75
  7
TXT
 72
     4
 11
9.715669834244295
 21
9.429002376149298
 31
0.0
100
AcDbText
  0
TEXT
  5
675
330
1E
100
AcDbEntity
  8
DIM
100
AcDbText
 10
15.82329726037446
 20
21.66877908755255
 30
0.0
 40
0.46875
  1
THREADED BRASS INSERT
 41
0.75
  7
TXT
 11
15.82329726037446
 21
21.90315408755255
 31
0.0
100
AcDbText
 73
     2
  0
TEXT
  5
676
330
1E
100
AcDbEntity
  8
DIM
100
AcDbText
 10
15.82329726037446
 20
23.23127908755255
 30
0.0
 40
0.46875
  1
0.590 [15] DIA. BOSS
 41
0.75
  7
TXT
 11
15.82329726037446
 21
23.46565408755255
 31
0.0
100
AcDbText
 73
     2
  0
TEXT
  5
677
330
1E
100
AcDbEntity
  8
DIM
100
AcDbText
 10
15.82329726037446
 20
20.88752908755255
 30
0.0
 40
0.46875
  1
(4) PLACES (FAR SIDE)
 41
0.75
  7
TXT
 11
15.82329726037446
 21
21.12190408755255
 31
0.0
100
AcDbText
 73
     2
  0
TEXT
  5
678
330
1E
100
AcDbEntity
  8
DIM
100
AcDbText
 10
15.82329726037446
 20
22.45002908755255
 30
0.0
 40
0.46875
  1
WITH M5 x 0.8mm
 41
0.75
  7
TXT
 11
15.82329726037446
 21
22.68440408755255
 31
0.0
100
AcDbText
 73
     2
  0
TEXT
  5
679
330
1E
100
AcDbEntity
  8
DIM
100
AcDbText
 10
27.83150066136059
 20
29.75873772957967
 30
0.0
 40
0.5
  1
(INSIDE)
 41
0.75
  7
TXT
 72
     1
 11
29.01900066136059
 21
30.00873772957968
 31
0.0
100
AcDbText
 73
     2
  0
TEXT
  5
67B
330
1E
100
AcDbEntity
  8
TEXT
100
AcDbText
 10
25.04044592498919
 20
24.56623177571439
 30
0.0
 40
0.4703626720183486
  1
   URETHANE GASKET.
 41
0.75
  7
TXT
100
AcDbText
  0
TEXT
  5
770
330
1E
100
AcDbEntity
  8
DIM
100
AcDbText
 10
15.8357641211784
 20
10.40661243107549
 30
0.0
 40
0.46875
  1
x 0.375 [9] LG. (NOT SUPPLIED)
 41
0.75
  7
TXT
 11
15.8357641211784
 21
10.64098743107549
 31
0.0
100
AcDbText
 73
     2
  0
TEXT
  5
771
330
1E
100
AcDbEntity
  8
DIM
100
AcDbText
 10
15.8357641211784
 20
11.18786243107549
 30
0.0
 40
0.46875
  1
0.250" STD. SHEET METAL SCREWS
 41
0.75
  7
TXT
 11
15.8357641211784
 21
11.42223743107549
 31
0.0
100
AcDbText
 73
     2
  0
TEXT
  5
773
330
1E
100
AcDbEntity
  8
TEXT
100
AcDbText
 10
32.77191528190645
 20
-0.6865194357205469
 30
0.0
 40
0.4687500000018751
  1
Revised 26JUN07
 41
0.75
  7
TXT
 72
     1
 11
35.20355590691618
 21
-0.6865194357205469
 31
0.0
100
AcDbText
  0
ENDSEC
  0
SECTION
  2
OBJECTS
  0
DICTIONARY
  5
C
330
0
100
AcDbDictionary
281
     1
  3
ACAD_GROUP
350
D
  3
ACAD_LAYOUT
350
19
  3
ACAD_MLINESTYLE
350
16
  3
ACAD_PLOTSETTINGS
350
18
  3
ACAD_PLOTSTYLENAME
350
E
  0
DICTIONARY
  5
D
102
{ACAD_REACTORS
330
C
102
}
330
C
100
AcDbDictionary
281
     1
  0
DICTIONARY
  5
19
102
{ACAD_REACTORS
330
C
102
}
330
C
100
AcDbDictionary
281
     1
  3
Layout1
350
1D
  3
Model
350
21
  0
DICTIONARY
  5
16
102
{ACAD_REACTORS
330
C
102
}
330
C
100
AcDbDictionary
281
     1
  3
Standard
350
17
  0
DICTIONARY
  5
18
102
{ACAD_REACTORS
330
C
102
}
330
C
100
AcDbDictionary
281
     1
  0
ACDBDICTIONARYWDFLT
  5
E
102
{ACAD_REACTORS
330
C
102
}
330
C
100
AcDbDictionary
281
     1
  3
Normal
350
F
100
AcDbDictionaryWithDefault
340
F
  0
LAYOUT
  5
1D
102
{ACAD_REACTORS
330
19
102
}
330
19
100
AcDbPlotSettings
  1

  2
None
  4

  6

 40
0.0
 41
0.0
 42
0.0
 43
0.0
 44
0.0
 45
0.0
 46
0.0
 47
0.0
 48
0.0
 49
0.0
140
0.0
141
0.0
142
1.0
143
1.0
 70
   688
 72
     0
 73
     0
 74
     5
  7
monochrome.ctb
 75
    16
147
1.0
148
0.0
149
0.0
100
AcDbLayout
  1
Layout1
 70
     1
 71
     1
 10
0.0
 20
0.0
 11
12.0
 21
9.0
 12
0.0
 22
0.0
 32
0.0
 14
1.000000000000000E+20
 24
1.000000000000000E+20
 34
1.000000000000000E+20
 15
-1.000000000000000E+20
 25
-1.000000000000000E+20
 35
-1.000000000000000E+20
146
0.0
 13
0.0
 23
0.0
 33
0.0
 16
1.0
 26
0.0
 36
0.0
 17
0.0
 27
1.0
 37
0.0
 76
     0
330
1A
  0
LAYOUT
  5
21
102
{ACAD_REACTORS
330
19
102
}
330
19
100
AcDbPlotSettings
  1

  2
RICOH Aficio 1060 PCL 6
  4
Letter
  6

 40
5.027083396911621
 41
5.027085304260253
 42
5.027084350585937
 43
5.027069091796875
 44
215.8999938964843
 45
279.3999938964843
 46
16.002
 47
0.0
 48
0.0
 49
0.0
140
0.0
141
0.0
142
1.0
143
5.546574844482722
 70
 11956
 72
     0
 73
     0
 74
     1
  7
monochrome.ctb
 75
     0
147
0.1802914461696515
148
0.073530799936205
149
17.45840285629573
100
AcDbLayout
  1
Model
 70
     1
 71
     0
 10
0.0
 20
0.0
 11
12.0
 21
9.0
 12
0.0
 22
0.0
 32
0.0
 14
0.0
 24
0.0
 34
0.0
 15
0.0
 25
0.0
 35
0.0
146
0.0
 13
0.0
 23
0.0
 33
0.0
 16
1.0
 26
0.0
 36
0.0
 17
0.0
 27
1.0
 37
0.0
 76
     0
330
1E
  0
MLINESTYLE
  5
17
102
{ACAD_REACTORS
330
16
102
}
330
16
100
AcDbMlineStyle
  2
STANDARD
 70
     0
  3

 62
   256
 51
90.0
 52
90.0
 71
     2
 49
0.5
 62
   256
  6
BYLAYER
 49
-0.5
 62
   256
  6
BYLAYER
  0
ACDBPLACEHOLDER
  5
F
102
{ACAD_REACTORS
330
E
102
}
330
E
  0
ENDSEC
  0
EOF
