  0
SECTION
  2
HEADER
  9
$ACADVER
  1
AC1015
  9
$ACADMAINTVER
 70
     6
  9
$DWGCODEPAGE
  3
ANSI_1252
  9
$INSBASE
 10
0.0
 20
0.0
 30
0.0
  9
$EXTMIN
 10
0.0
 20
-0.7566779472290551
 30
0.0
  9
$EXTMAX
 10
40.47999999983807
 20
61.99999999975201
 30
0.0
  9
$LIMMIN
 10
0.0
 20
0.0
  9
$LIMMAX
 10
80.95999999983808
 20
61.99999999999999
  9
$ORTHOMODE
 70
     1
  9
$REGENMODE
 70
     1
  9
$FILLMODE
 70
     1
  9
$QTEXTMODE
 70
     0
  9
$MIRRTEXT
 70
     0
  9
$LTSCALE
 40
0.75
  9
$ATTMODE
 70
     1
  9
$TEXTSIZE
 40
0.5
  9
$TRACEWID
 40
0.05
  9
$TEXTSTYLE
  7
TXT
  9
$CLAYER
  8
OBJECT
  9
$CELTYPE
  6
ByLayer
  9
$CECOLOR
 62
   256
  9
$CELTSCALE
 40
1.0
  9
$DISPSILH
 70
     0
  9
$DIMSCALE
 40
4.0
  9
$DIMASZ
 40
0.18
  9
$DIMEXO
 40
0.063
  9
$DIMDLI
 40
0.25
  9
$DIMRND
 40
0.0
  9
$DIMDLE
 40
0.0
  9
$DIMEXE
 40
0.093
  9
$DIMTP
 40
0.0
  9
$DIMTM
 40
0.0
  9
$DIMTXT
 40
0.125
  9
$DIMCEN
 40
0.09
  9
$DIMTSZ
 40
0.0
  9
$DIMTOL
 70
     0
  9
$DIMLIM
 70
     0
  9
$DIMTIH
 70
     1
  9
$DIMTOH
 70
     1
  9
$DIMSE1
 70
     0
  9
$DIMSE2
 70
     0
  9
$DIMTAD
 70
     0
  9
$DIMZIN
 70
     0
  9
$DIMBLK
  1

  9
$DIMASO
 70
     1
  9
$DIMSHO
 70
     1
  9
$DIMPOST
  1

  9
$DIMAPOST
  1

  9
$DIMALT
 70
     1
  9
$DIMALTD
 70
     0
  9
$DIMALTF
 40
25.4
  9
$DIMLFAC
 40
1.0
  9
$DIMTOFL
 70
     0
  9
$DIMTVP
 40
0.0
  9
$DIMTIX
 70
     1
  9
$DIMSOXD
 70
     0
  9
$DIMSAH
 70
     0
  9
$DIMBLK1
  1

  9
$DIMBLK2
  1

  9
$DIMSTYLE
  2
23NSTD
  9
$DIMCLRD
 70
     0
  9
$DIMCLRE
 70
     0
  9
$DIMCLRT
 70
     0
  9
$DIMTFAC
 40
1.0
  9
$DIMGAP
 40
0.09
  9
$DIMJUST
 70
     0
  9
$DIMSD1
 70
     0
  9
$DIMSD2
 70
     0
  9
$DIMTOLJ
 70
     1
  9
$DIMTZIN
 70
     0
  9
$DIMALTZ
 70
     0
  9
$DIMALTTZ
 70
     0
  9
$DIMUPT
 70
     0
  9
$DIMDEC
 70
     3
  9
$DIMTDEC
 70
     3
  9
$DIMALTU
 70
     2
  9
$DIMALTTD
 70
     0
  9
$DIMTXSTY
  7
TXT
  9
$DIMAUNIT
 70
     0
  9
$DIMADEC
 70
     0
  9
$DIMALTRND
 40
0.0
  9
$DIMAZIN
 70
     0
  9
$DIMDSEP
 70
    46
  9
$DIMATFIT
 70
     1
  9
$DIMFRAC
 70
     0
  9
$DIMLDRBLK
  1

  9
$DIMLUNIT
 70
     2
  9
$DIMLWD
 70
    -2
  9
$DIMLWE
 70
    -2
  9
$DIMTMOVE
 70
     0
  9
$LUNITS
 70
     2
  9
$LUPREC
 70
     3
  9
$SKETCHINC
 40
0.1
  9
$FILLETRAD
 40
0.0
  9
$AUNITS
 70
     0
  9
$AUPREC
 70
     0
  9
$MENU
  1
acad
  9
$ELEVATION
 40
0.0
  9
$PELEVATION
 40
0.0
  9
$THICKNESS
 40
0.0
  9
$LIMCHECK
 70
     0
  9
$CHAMFERA
 40
0.0
  9
$CHAMFERB
 40
0.0
  9
$CHAMFERC
 40
0.0
  9
$CHAMFERD
 40
0.0
  9
$SKPOLY
 70
     0
  9
$TDCREATE
 40
2451255.388029514
  9
$TDUCREATE
 40
2451255.554696180
  9
$TDUPDATE
 40
2454306.450193866
  9
$TDUUPDATE
 40
2454306.616860532
  9
$TDINDWG
 40
0.1026909491
  9
$TDUSRTIMER
 40
0.1026909491
  9
$USRTIMER
 70
     1
  9
$ANGBASE
 50
0.0
  9
$ANGDIR
 70
     0
  9
$PDMODE
 70
     0
  9
$PDSIZE
 40
0.0
  9
$PLINEWID
 40
0.0
  9
$SPLFRAME
 70
     0
  9
$SPLINETYPE
 70
     6
  9
$SPLINESEGS
 70
     8
  9
$HANDSEED
  5
719
  9
$SURFTAB1
 70
     6
  9
$SURFTAB2
 70
     6
  9
$SURFTYPE
 70
     6
  9
$SURFU
 70
     6
  9
$SURFV
 70
     6
  9
$UCSBASE
  2

  9
$UCSNAME
  2

  9
$UCSORG
 10
0.0
 20
0.0
 30
0.0
  9
$UCSXDIR
 10
1.0
 20
0.0
 30
0.0
  9
$UCSYDIR
 10
0.0
 20
1.0
 30
0.0
  9
$UCSORTHOREF
  2

  9
$UCSORTHOVIEW
 70
     0
  9
$UCSORGTOP
 10
0.0
 20
0.0
 30
0.0
  9
$UCSORGBOTTOM
 10
0.0
 20
0.0
 30
0.0
  9
$UCSORGLEFT
 10
0.0
 20
0.0
 30
0.0
  9
$UCSORGRIGHT
 10
0.0
 20
0.0
 30
0.0
  9
$UCSORGFRONT
 10
0.0
 20
0.0
 30
0.0
  9
$UCSORGBACK
 10
0.0
 20
0.0
 30
0.0
  9
$PUCSBASE
  2

  9
$PUCSNAME
  2

  9
$PUCSORG
 10
0.0
 20
0.0
 30
0.0
  9
$PUCSXDIR
 10
1.0
 20
0.0
 30
0.0
  9
$PUCSYDIR
 10
0.0
 20
1.0
 30
0.0
  9
$PUCSORTHOREF
  2

  9
$PUCSORTHOVIEW
 70
     0
  9
$PUCSORGTOP
 10
0.0
 20
0.0
 30
0.0
  9
$PUCSORGBOTTOM
 10
0.0
 20
0.0
 30
0.0
  9
$PUCSORGLEFT
 10
0.0
 20
0.0
 30
0.0
  9
$PUCSORGRIGHT
 10
0.0
 20
0.0
 30
0.0
  9
$PUCSORGFRONT
 10
0.0
 20
0.0
 30
0.0
  9
$PUCSORGBACK
 10
0.0
 20
0.0
 30
0.0
  9
$USERI1
 70
     0
  9
$USERI2
 70
     0
  9
$USERI3
 70
     0
  9
$USERI4
 70
     0
  9
$USERI5
 70
     0
  9
$USERR1
 40
0.0
  9
$USERR2
 40
0.0
  9
$USERR3
 40
0.0
  9
$USERR4
 40
0.0
  9
$USERR5
 40
0.0
  9
$WORLDVIEW
 70
     0
  9
$SHADEDGE
 70
     3
  9
$SHADEDIF
 70
    70
  9
$TILEMODE
 70
     1
  9
$MAXACTVP
 70
    16
  9
$PINSBASE
 10
0.0
 20
0.0
 30
0.0
  9
$PLIMCHECK
 70
     0
  9
$PEXTMIN
 10
1.000000000000000E+20
 20
1.000000000000000E+20
 30
1.000000000000000E+20
  9
$PEXTMAX
 10
-1.000000000000000E+20
 20
-1.000000000000000E+20
 30
-1.000000000000000E+20
  9
$PLIMMIN
 10
0.0
 20
0.0
  9
$PLIMMAX
 10
12.0
 20
9.0
  9
$UNITMODE
 70
     0
  9
$VISRETAIN
 70
     0
  9
$PLINEGEN
 70
     0
  9
$PSLTSCALE
 70
     1
  9
$TREEDEPTH
 70
  3020
  9
$CMLSTYLE
  2
Standard
  9
$CMLJUST
 70
     0
  9
$CMLSCALE
 40
1.0
  9
$PROXYGRAPHICS
 70
     1
  9
$MEASUREMENT
 70
     0
  9
$CELWEIGHT
370
    -1
  9
$ENDCAPS
280
     0
  9
$JOINSTYLE
280
     0
  9
$LWDISPLAY
290
     0
  9
$INSUNITS
 70
     0
  9
$HYPERLINKBASE
  1

  9
$STYLESHEET
  1
monochrome.ctb
  9
$XEDIT
290
     1
  9
$CEPSNTYPE
380
     0
  9
$PSTYLEMODE
290
     1
  9
$FINGERPRINTGUID
  2
{BCC4CC81-74BD-4ECF-A99C-64EA2950FF71}
  9
$VERSIONGUID
  2
{C591A9E6-DA09-4A9F-B04A-98C22B751BC2}
  9
$EXTNAMES
290
     1
  9
$PSVPSCALE
 40
0.0
  9
$OLESTARTUP
290
     0
  0
ENDSEC
  0
SECTION
  2
CLASSES
  0
CLASS
  1
ACDBDICTIONARYWDFLT
  2
AcDbDictionaryWithDefault
  3
AutoCAD 2000
 90
        0
280
     0
281
     0
  0
CLASS
  1
ACDBPLACEHOLDER
  2
AcDbPlaceHolder
  3
AutoCAD 2000
 90
        0
280
     0
281
     0
  0
CLASS
  1
LAYOUT
  2
AcDbLayout
  3
AutoCAD 2000
 90
        0
280
     0
281
     0
  0
ENDSEC
  0
SECTION
  2
TABLES
  0
TABLE
  2
VPORT
  5
8
330
0
100
AcDbSymbolTable
 70
     2
  0
VPORT
  5
718
330
8
100
AcDbSymbolTableRecord
100
AcDbViewportTableRecord
  2
*Active
 70
     0
 10
0.0
 20
0.0
 11
1.0
 21
1.0
 12
20.23907438638567
 22
30.61926756057172
 13
0.0
 23
0.0
 14
1.0
 24
1.0
 15
0.5
 25
0.5
 16
0.0
 26
0.0
 36
1.0
 17
0.0
 27
0.0
 37
0.0
 40
63.38908011802896
 41
1.824707846410684
 42
50.0
 43
0.0
 44
0.0
 50
0.0
 51
0.0
 71
     0
 72
   100
 73
     1
 74
     0
 75
     0
 76
     0
 77
     0
 78
     0
281
     0
 65
     1
110
0.0
120
0.0
130
0.0
111
1.0
121
0.0
131
0.0
112
0.0
122
1.0
132
0.0
 79
     0
146
0.0
  0
ENDTAB
  0
TABLE
  2
LTYPE
  5
5
330
0
100
AcDbSymbolTable
 70
     4
  0
LTYPE
  5
13
330
5
100
AcDbSymbolTableRecord
100
AcDbLinetypeTableRecord
  2
ByBlock
 70
     0
  3

 72
    65
 73
     0
 40
0.0
  0
LTYPE
  5
14
330
5
100
AcDbSymbolTableRecord
100
AcDbLinetypeTableRecord
  2
ByLayer
 70
     0
  3

 72
    65
 73
     0
 40
0.0
  0
LTYPE
  5
15
330
5
100
AcDbSymbolTableRecord
100
AcDbLinetypeTableRecord
  2
CONTINUOUS
 70
     0
  3
Solid line
 72
    65
 73
     0
 40
0.0
  0
LTYPE
  5
38
330
5
100
AcDbSymbolTableRecord
100
AcDbLinetypeTableRecord
  2
PHANTOM
 70
     0
  3
_____ _ _ _____ _ _ _____ _ _ _____ _ _ ____
 72
    65
 73
     6
 40
2.5
 49
1.25
 74
     0
 49
-0.25
 74
     0
 49
0.25
 74
     0
 49
-0.25
 74
     0
 49
0.25
 74
     0
 49
-0.25
 74
     0
  0
LTYPE
  5
39
330
5
100
AcDbSymbolTableRecord
100
AcDbLinetypeTableRecord
  2
CENTER
 70
     0
  3
____ _ ____ _ ____ _ ____ _ ____ _ ____ _ ____
 72
    65
 73
     4
 40
2.0
 49
1.25
 74
     0
 49
-0.25
 74
     0
 49
0.25
 74
     0
 49
-0.25
 74
     0
  0
LTYPE
  5
3A
330
5
100
AcDbSymbolTableRecord
100
AcDbLinetypeTableRecord
  2
HIDDEN2
 70
     0
  3
_ _ _ _ _ _ _ _ _ _ _ _ _ _ _ _ _ _ _ _ _ _ _ _
 72
    65
 73
     2
 40
0.1875
 49
0.125
 74
     0
 49
-0.0625
 74
     0
  0
ENDTAB
  0
TABLE
  2
LAYER
  5
2
330
0
100
AcDbSymbolTable
 70
     9
  0
LAYER
  5
10
330
2
100
AcDbSymbolTableRecord
100
AcDbLayerTableRecord
  2
0
 70
     0
 62
     7
  6
CONTINUOUS
370
    -3
390
F
  0
LAYER
  5
3E
330
2
100
AcDbSymbolTableRecord
100
AcDbLayerTableRecord
  2
OBJECT
 70
     0
 62
     7
  6
CONTINUOUS
370
    -3
390
F
  0
LAYER
  5
3F
330
2
100
AcDbSymbolTableRecord
100
AcDbLayerTableRecord
  2
DIM
 70
     0
 62
     7
  6
CONTINUOUS
370
    -3
390
F
  0
LAYER
  5
40
330
2
100
AcDbSymbolTableRecord
100
AcDbLayerTableRecord
  2
HIDDEN
 70
     0
 62
     7
  6
HIDDEN2
370
    -3
390
F
  0
LAYER
  5
41
330
2
100
AcDbSymbolTableRecord
100
AcDbLayerTableRecord
  2
BEND
 70
     0
 62
     7
  6
PHANTOM
370
    -3
390
F
  0
LAYER
  5
42
330
2
100
AcDbSymbolTableRecord
100
AcDbLayerTableRecord
  2
TEXT
 70
     0
 62
     7
  6
CONTINUOUS
370
    -3
390
F
  0
LAYER
  5
43
330
2
100
AcDbSymbolTableRecord
100
AcDbLayerTableRecord
  2
TITLE
 70
     0
 62
     7
  6
CONTINUOUS
370
    -3
390
F
  0
LAYER
  5
44
330
2
100
AcDbSymbolTableRecord
100
AcDbLayerTableRecord
  2
CENTER
 70
     0
 62
     7
  6
CENTER
370
    -3
390
F
  0
LAYER
  5
45
330
2
100
AcDbSymbolTableRecord
100
AcDbLayerTableRecord
  2
DEFPOINTS
 70
     0
 62
     7
  6
CONTINUOUS
290
     0
370
    -3
390
F
  0
ENDTAB
  0
TABLE
  2
STYLE
  5
3
330
0
100
AcDbSymbolTable
 70
     2
  0
STYLE
  5
11
330
3
100
AcDbSymbolTableRecord
100
AcDbTextStyleTableRecord
  2
STANDARD
 70
     0
 40
0.0
 41
1.0
 50
0.0
 71
     0
 42
0.2
  3
txt
  4

  0
STYLE
  5
37
330
3
100
AcDbSymbolTableRecord
100
AcDbTextStyleTableRecord
  2
TXT
 70
     0
 40
0.0
 41
0.75
 50
0.0
 71
     0
 42
0.5
  3
TXT.shx
  4

  0
ENDTAB
  0
TABLE
  2
VIEW
  5
6
330
0
100
AcDbSymbolTable
 70
     0
  0
ENDTAB
  0
TABLE
  2
UCS
  5
7
330
0
100
AcDbSymbolTable
 70
     0
  0
ENDTAB
  0
TABLE
  2
APPID
  5
9
330
0
100
AcDbSymbolTable
 70
     1
  0
APPID
  5
12
330
9
100
AcDbSymbolTableRecord
100
AcDbRegAppTableRecord
  2
ACAD
 70
     0
  0
ENDTAB
  0
TABLE
  2
DIMSTYLE
  5
A
330
0
100
AcDbSymbolTable
 70
     1
100
AcDbDimStyleTable
 71
     1
340
3D
  0
DIMSTYLE
105
3D
102
{ACAD_REACTORS
330
1C9
330
1CA
330
1CB
330
1CC
330
1CD
330
1CE
330
1CF
330
1D0
330
1D1
330
1D2
330
1D3
330
1D4
330
1D5
330
1D6
330
1ED
330
20C
330
20D
330
20E
102
}
330
A
100
AcDbSymbolTableRecord
100
AcDbDimStyleTableRecord
  2
23NSTD
 70
     0
 40
4.0
 42
0.063
 43
0.25
 44
0.093
140
0.125
170
     1
171
     0
271
     3
272
     3
274
     0
289
     1
340
37
  0
ENDTAB
  0
TABLE
  2
BLOCK_RECORD
  5
1
330
0
100
AcDbSymbolTable
 70
    21
  0
BLOCK_RECORD
  5
1E
330
1
100
AcDbSymbolTableRecord
100
AcDbBlockTableRecord
  2
*Model_Space
340
21
  0
BLOCK_RECORD
  5
1A
330
1
100
AcDbSymbolTableRecord
100
AcDbBlockTableRecord
  2
*Paper_Space
340
1D
  0
BLOCK_RECORD
  5
22
330
1
100
AcDbSymbolTableRecord
100
AcDbBlockTableRecord
  2
HB
340
0
102
{BLKREFS
331
227
102
}
  0
BLOCK_RECORD
  5
23
330
1
100
AcDbSymbolTableRecord
100
AcDbBlockTableRecord
  2
*X1
340
0
102
{BLKREFS
331
386
102
}
  0
BLOCK_RECORD
  5
24
330
1
100
AcDbSymbolTableRecord
100
AcDbBlockTableRecord
  2
*X2
340
0
102
{BLKREFS
331
3BD
102
}
  0
BLOCK_RECORD
  5
54A
330
1
100
AcDbSymbolTableRecord
100
AcDbBlockTableRecord
  2
*D3
340
0
  0
BLOCK_RECORD
  5
557
330
1
100
AcDbSymbolTableRecord
100
AcDbBlockTableRecord
  2
*D4
340
0
  0
BLOCK_RECORD
  5
564
330
1
100
AcDbSymbolTableRecord
100
AcDbBlockTableRecord
  2
*D5
340
0
  0
BLOCK_RECORD
  5
571
330
1
100
AcDbSymbolTableRecord
100
AcDbBlockTableRecord
  2
*D6
340
0
  0
BLOCK_RECORD
  5
57E
330
1
100
AcDbSymbolTableRecord
100
AcDbBlockTableRecord
  2
*D7
340
0
  0
BLOCK_RECORD
  5
58B
330
1
100
AcDbSymbolTableRecord
100
AcDbBlockTableRecord
  2
*D8
340
0
  0
BLOCK_RECORD
  5
598
330
1
100
AcDbSymbolTableRecord
100
AcDbBlockTableRecord
  2
*D9
340
0
  0
BLOCK_RECORD
  5
5A5
330
1
100
AcDbSymbolTableRecord
100
AcDbBlockTableRecord
  2
*D10
340
0
  0
BLOCK_RECORD
  5
5B2
330
1
100
AcDbSymbolTableRecord
100
AcDbBlockTableRecord
  2
*D11
340
0
  0
BLOCK_RECORD
  5
5BF
330
1
100
AcDbSymbolTableRecord
100
AcDbBlockTableRecord
  2
*D12
340
0
  0
BLOCK_RECORD
  5
5CC
330
1
100
AcDbSymbolTableRecord
100
AcDbBlockTableRecord
  2
*D13
340
0
  0
BLOCK_RECORD
  5
5D9
330
1
100
AcDbSymbolTableRecord
100
AcDbBlockTableRecord
  2
*D14
340
0
  0
BLOCK_RECORD
  5
5E6
330
1
100
AcDbSymbolTableRecord
100
AcDbBlockTableRecord
  2
*D15
340
0
  0
BLOCK_RECORD
  5
5F3
330
1
100
AcDbSymbolTableRecord
100
AcDbBlockTableRecord
  2
*D16
340
0
  0
BLOCK_RECORD
  5
600
330
1
100
AcDbSymbolTableRecord
100
AcDbBlockTableRecord
  2
*D17
340
0
  0
BLOCK_RECORD
  5
60D
330
1
100
AcDbSymbolTableRecord
100
AcDbBlockTableRecord
  2
*D18
340
0
  0
BLOCK_RECORD
  5
61A
330
1
100
AcDbSymbolTableRecord
100
AcDbBlockTableRecord
  2
*D19
340
0
  0
BLOCK_RECORD
  5
627
330
1
100
AcDbSymbolTableRecord
100
AcDbBlockTableRecord
  2
*D20
340
0
  0
ENDTAB
  0
ENDSEC
  0
SECTION
  2
BLOCKS
  0
BLOCK
  5
48
330
1E
100
AcDbEntity
  8
0
100
AcDbBlockBegin
  2
*Model_Space
 70
     0
 10
0.0
 20
0.0
 30
0.0
  3
*Model_Space
  1

  0
ENDBLK
  5
49
330
1E
100
AcDbEntity
  8
0
100
AcDbBlockEnd
  0
BLOCK
  5
46
330
1A
100
AcDbEntity
 67
     1
  8
0
100
AcDbBlockBegin
  2
*Paper_Space
 70
     0
 10
0.0
 20
0.0
 30
0.0
  3
*Paper_Space
  1

  0
ENDBLK
  5
47
330
1A
100
AcDbEntity
 67
     1
  8
0
100
AcDbBlockEnd
  0
BLOCK
  5
4A
330
22
100
AcDbEntity
  8
0
100
AcDbBlockBegin
  2
HB
 70
     0
 10
0.0
 20
0.0
 30
0.0
  3
HB
  1

  0
TEXT
  5
4B
330
22
100
AcDbEntity
  8
TEXT
100
AcDbText
 10
0.2078333333333363
 20
15.06007919564008
 30
0.0
 40
0.125
  1
NAME
  7
TXT
 72
     1
 11
0.437000000000003
 21
15.06007919564008
 31
0.0
100
AcDbText
  0
TEXT
  5
4D
330
22
100
AcDbEntity
  8
TEXT
100
AcDbText
 10
0.2078333333333363
 20
15.26841252897341
 30
0.0
 40
0.125
  1
PART
  7
TXT
 72
     1
 11
0.437000000000003
 21
15.26841252897341
 31
0.0
100
AcDbText
  0
TEXT
  5
4E
330
22
100
AcDbEntity
  8
TEXT
100
AcDbText
 10
5.371999999999998
 20
15.06007919564008
 30
0.0
 40
0.125
  1
No.
  7
TXT
 72
     1
 11
5.496999999999998
 21
15.06007919564008
 31
0.0
100
AcDbText
  0
TEXT
  5
4F
330
22
100
AcDbEntity
  8
TEXT
100
AcDbText
 10
5.267833333333331
 20
15.26841252897341
 30
0.0
 40
0.125
  1
PART
  7
TXT
 72
     1
 11
5.496999999999998
 21
15.26841252897341
 31
0.0
100
AcDbText
  0
LINE
  5
50
330
22
100
AcDbEntity
  8
TITLE
100
AcDbLine
 10
5.872000000000001
 20
15.438
 30
0.0
 11
5.872000000000001
 21
15.01999999999999
 31
0.0
  0
LINE
  5
51
330
22
100
AcDbEntity
  8
TITLE
100
AcDbLine
 10
5.122000000000001
 20
15.438
 30
0.0
 11
5.122000000000001
 21
15.01999999999999
 31
0.0
  0
LINE
  5
52
330
22
100
AcDbEntity
  8
TITLE
100
AcDbLine
 10
5.06
 20
15.438
 30
0.0
 11
5.06
 21
15.01999999999999
 31
0.0
  0
LINE
  5
53
330
22
100
AcDbEntity
  8
TITLE
100
AcDbLine
 10
0.8120000000000029
 20
15.01999999999999
 30
0.0
 11
0.8120000000000011
 21
15.438
 31
0.0
  0
LINE
  5
54
330
22
100
AcDbEntity
  8
TITLE
100
AcDbLine
 10
0.0620000000000012
 20
15.01999999999999
 30
0.0
 11
10.058
 21
15.01999999999999
 31
0.0
  0
LINE
  5
55
330
22
100
AcDbEntity
  8
TITLE
100
AcDbLine
 10
10.058
 20
0.0619999999999994
 30
0.0
 11
0.0619999999999976
 21
0.0620000000000012
 31
0.0
  0
LINE
  5
56
330
22
100
AcDbEntity
  8
TITLE
100
AcDbLine
 10
10.058
 20
15.438
 30
0.0
 11
10.058
 21
0.0619999999999994
 31
0.0
  0
LINE
  5
57
330
22
100
AcDbEntity
  8
TITLE
100
AcDbLine
 10
0.0620000000000012
 20
15.438
 30
0.0
 11
10.058
 21
15.438
 31
0.0
  0
LINE
  5
58
330
22
100
AcDbEntity
  8
TITLE
100
AcDbLine
 10
0.0619999999999976
 20
0.0620000000000012
 30
0.0
 11
0.0620000000000012
 21
15.438
 31
0.0
  0
LINE
  5
59
330
22
100
AcDbEntity
  8
TITLE
100
AcDbLine
 10
0.0
 20
0.0
 30
0.0
 11
0.0
 21
15.5
 31
0.0
  0
LINE
  5
5A
330
22
100
AcDbEntity
  8
TITLE
100
AcDbLine
 10
10.12
 20
-0.0000000000000018
 30
0.0
 11
0.0
 21
0.0
 31
0.0
  0
LINE
  5
5B
330
22
100
AcDbEntity
  8
TITLE
100
AcDbLine
 10
10.12
 20
15.49999999999999
 30
0.0
 11
10.12
 21
-0.0000000000000018
 31
0.0
  0
LINE
  5
5C
330
22
100
AcDbEntity
  8
TITLE
100
AcDbLine
 10
0.0
 20
15.5
 30
0.0
 11
10.12
 21
15.49999999999999
 31
0.0
  0
ENDBLK
  5
5D
330
22
100
AcDbEntity
  8
0
100
AcDbBlockEnd
  0
BLOCK
  5
5E
330
23
100
AcDbEntity
  8
0
100
AcDbBlockBegin
  2
*X1
 70
     1
 10
0.0
 20
0.0
 30
0.0
  3
*X1
  1

  0
LINE
  5
5F
330
23
100
AcDbEntity
  8
0
 62
     0
100
AcDbLine
 10
0.0
 20
2.828427124746189
 30
0.0
 11
0.118124999999992
 21
2.946552124746181
 31
0.0
  0
LINE
  5
60
330
23
100
AcDbEntity
  8
0
 62
     0
100
AcDbLine
 10
0.0
 20
3.535533905932737
 30
0.0
 11
0.118124999999992
 21
3.653658905932729
 31
0.0
  0
LINE
  5
61
330
23
100
AcDbEntity
  8
0
 62
     0
100
AcDbLine
 10
0.0
 20
4.242640687119284
 30
0.0
 11
0.118124999999992
 21
4.360765687119276
 31
0.0
  0
LINE
  5
62
330
23
100
AcDbEntity
  8
0
 62
     0
100
AcDbLine
 10
0.0
 20
4.949747468305832
 30
0.0
 11
0.118124999999992
 21
5.067872468305824
 31
0.0
  0
LINE
  5
63
330
23
100
AcDbEntity
  8
0
 62
     0
100
AcDbLine
 10
0.0
 20
5.656854249492379
 30
0.0
 11
0.118124999999992
 21
5.77497924949237
 31
0.0
  0
LINE
  5
64
330
23
100
AcDbEntity
  8
0
 62
     0
100
AcDbLine
 10
0.0
 20
6.363961030678927
 30
0.0
 11
0.118124999999992
 21
6.482086030678918
 31
0.0
  0
LINE
  5
65
330
23
100
AcDbEntity
  8
0
 62
     0
100
AcDbLine
 10
0.0
 20
7.071067811865474
 30
0.0
 11
0.118124999999992
 21
7.189192811865466
 31
0.0
  0
LINE
  5
66
330
23
100
AcDbEntity
  8
0
 62
     0
100
AcDbLine
 10
0.0
 20
7.778174593052022
 30
0.0
 11
0.0574504069479787
 21
7.835625
 31
0.0
  0
LINE
  5
67
330
23
100
AcDbEntity
  8
0
 62
     0
100
AcDbLine
 10
0.0
 20
2.121320343559642
 30
0.0
 11
0.118124999999992
 21
2.239445343559634
 31
0.0
  0
LINE
  5
68
330
23
100
AcDbEntity
  8
0
 62
     0
100
AcDbLine
 10
0.0
 20
1.414213562373094
 30
0.0
 11
0.118124999999992
 21
1.532338562373086
 31
0.0
  0
LINE
  5
69
330
23
100
AcDbEntity
  8
0
 62
     0
100
AcDbLine
 10
0.0
 20
0.7071067811865475
 30
0.0
 11
0.118124999999992
 21
0.8252317811865394
 31
0.0
  0
LINE
  5
6A
330
23
100
AcDbEntity
  8
0
 62
     0
100
AcDbLine
 10
0.2514857114717275
 20
0.2514857114717275
 30
0.0
 11
0.3658914899891268
 21
0.3658914899891268
 31
0.0
  0
LINE
  5
6B
330
23
100
AcDbEntity
  8
0
 62
     0
100
AcDbLine
 10
0.8702499999999986
 20
0.1631432188134512
 30
0.0
 11
0.9852499999999933
 21
0.2781432188134461
 31
0.0
  0
LINE
  5
6C
330
23
100
AcDbEntity
  8
0
 62
     0
100
AcDbLine
 10
0.9862317811864983
 20
0.2791249999999509
 30
0.0
 11
1.05148336495384
 21
0.3443765837672927
 31
0.0
  0
LINE
  5
6D
330
23
100
AcDbEntity
  8
0
 62
     0
100
AcDbLine
 10
0.0
 20
2.916815472394508
 30
0.0
 11
0.118124999999992
 21
3.0349404723945
 31
0.0
  0
LINE
  5
6E
330
23
100
AcDbEntity
  8
0
 62
     0
100
AcDbLine
 10
0.0
 20
3.623922253581056
 30
0.0
 11
0.118124999999992
 21
3.742047253581047
 31
0.0
  0
LINE
  5
6F
330
23
100
AcDbEntity
  8
0
 62
     0
100
AcDbLine
 10
0.0
 20
4.331029034767603
 30
0.0
 11
0.118124999999992
 21
4.449154034767595
 31
0.0
  0
LINE
  5
70
330
23
100
AcDbEntity
  8
0
 62
     0
100
AcDbLine
 10
0.0
 20
5.03813581595415
 30
0.0
 11
0.118124999999992
 21
5.156260815954142
 31
0.0
  0
LINE
  5
71
330
23
100
AcDbEntity
  8
0
 62
     0
100
AcDbLine
 10
0.0
 20
5.745242597140697
 30
0.0
 11
0.118124999999992
 21
5.86336759714069
 31
0.0
  0
LINE
  5
72
330
23
100
AcDbEntity
  8
0
 62
     0
100
AcDbLine
 10
0.0
 20
6.452349378327245
 30
0.0
 11
0.118124999999992
 21
6.570474378327237
 31
0.0
  0
LINE
  5
73
330
23
100
AcDbEntity
  8
0
 62
     0
100
AcDbLine
 10
0.0
 20
7.159456159513792
 30
0.0
 11
0.118124999999992
 21
7.277581159513784
 31
0.0
  0
LINE
  5
74
330
23
100
AcDbEntity
  8
0
 62
     0
100
AcDbLine
 10
0.0
 20
2.209708691207961
 30
0.0
 11
0.118124999999992
 21
2.327833691207952
 31
0.0
  0
LINE
  5
75
330
23
100
AcDbEntity
  8
0
 62
     0
100
AcDbLine
 10
0.0
 20
1.502601910021413
 30
0.0
 11
0.118124999999992
 21
1.620726910021405
 31
0.0
  0
LINE
  5
76
330
23
100
AcDbEntity
  8
0
 62
     0
100
AcDbLine
 10
0.0
 20
0.795495128834866
 30
0.0
 11
0.118124999999992
 21
0.9136201288348578
 31
0.0
  0
LINE
  5
77
330
23
100
AcDbEntity
  8
0
 62
     0
100
AcDbLine
 10
0.1723100290560166
 20
0.260698376704335
 30
0.0
 11
0.2801925056185377
 21
0.3685808532668561
 31
0.0
  0
LINE
  5
78
330
23
100
AcDbEntity
  8
0
 62
     0
100
AcDbLine
 10
0.8553356662471353
 20
0.2366172327089062
 30
0.0
 11
0.9657843805832509
 21
0.347065947045022
 31
0.0
  0
LINE
  5
79
330
23
100
AcDbEntity
  8
0
 62
     0
100
AcDbLine
 10
0.0
 20
3.005203820042826
 30
0.0
 11
0.118124999999992
 21
3.123328820042818
 31
0.0
  0
LINE
  5
7A
330
23
100
AcDbEntity
  8
0
 62
     0
100
AcDbLine
 10
0.0
 20
3.712310601229374
 30
0.0
 11
0.118124999999992
 21
3.830435601229366
 31
0.0
  0
LINE
  5
7B
330
23
100
AcDbEntity
  8
0
 62
     0
100
AcDbLine
 10
0.0
 20
4.419417382415922
 30
0.0
 11
0.118124999999992
 21
4.537542382415913
 31
0.0
  0
LINE
  5
7C
330
23
100
AcDbEntity
  8
0
 62
     0
100
AcDbLine
 10
0.0
 20
5.126524163602469
 30
0.0
 11
0.118124999999992
 21
5.244649163602461
 31
0.0
  0
LINE
  5
7D
330
23
100
AcDbEntity
  8
0
 62
     0
100
AcDbLine
 10
0.0
 20
5.833630944789016
 30
0.0
 11
0.118124999999992
 21
5.951755944789008
 31
0.0
  0
LINE
  5
7E
330
23
100
AcDbEntity
  8
0
 62
     0
100
AcDbLine
 10
0.0
 20
6.540737725975564
 30
0.0
 11
0.118124999999992
 21
6.658862725975556
 31
0.0
  0
LINE
  5
7F
330
23
100
AcDbEntity
  8
0
 62
     0
100
AcDbLine
 10
0.0
 20
7.247844507162112
 30
0.0
 11
0.118124999999992
 21
7.365969507162103
 31
0.0
  0
LINE
  5
80
330
23
100
AcDbEntity
  8
0
 62
     0
100
AcDbLine
 10
0.0
 20
2.298097038856279
 30
0.0
 11
0.118124999999992
 21
2.416222038856271
 31
0.0
  0
LINE
  5
81
330
23
100
AcDbEntity
  8
0
 62
     0
100
AcDbLine
 10
0.0
 20
1.590990257669731
 30
0.0
 11
0.118124999999992
 21
1.709115257669723
 31
0.0
  0
LINE
  5
82
330
23
100
AcDbEntity
  8
0
 62
     0
100
AcDbLine
 10
0.0
 20
0.8838834764831842
 30
0.0
 11
0.118124999999992
 21
1.002008476483176
 31
0.0
  0
LINE
  5
83
330
23
100
AcDbEntity
  8
0
 62
     0
100
AcDbLine
 10
0.1110237647390147
 20
0.2878004600356516
 30
0.0
 11
0.1991927826925224
 21
0.3759694779891593
 31
0.0
  0
LINE
  5
84
330
23
100
AcDbEntity
  8
0
 62
     0
100
AcDbLine
 10
0.7690713869935056
 20
0.2387413011035949
 30
0.0
 11
0.8800853962126618
 21
0.3497553103227512
 31
0.0
  0
LINE
  5
85
330
23
100
AcDbEntity
  8
0
 62
     0
100
AcDbLine
 10
0.0
 20
3.270368862987782
 30
0.0
 11
0.118124999999992
 21
3.388493862987774
 31
0.0
  0
LINE
  5
86
330
23
100
AcDbEntity
  8
0
 62
     0
100
AcDbLine
 10
0.0
 20
3.977475644174329
 30
0.0
 11
0.118124999999992
 21
4.095600644174321
 31
0.0
  0
LINE
  5
87
330
23
100
AcDbEntity
  8
0
 62
     0
100
AcDbLine
 10
0.0
 20
4.684582425360876
 30
0.0
 11
0.118124999999992
 21
4.802707425360869
 31
0.0
  0
LINE
  5
88
330
23
100
AcDbEntity
  8
0
 62
     0
100
AcDbLine
 10
0.0
 20
5.391689206547424
 30
0.0
 11
0.118124999999992
 21
5.509814206547416
 31
0.0
  0
LINE
  5
89
330
23
100
AcDbEntity
  8
0
 62
     0
100
AcDbLine
 10
0.0
 20
6.098795987733971
 30
0.0
 11
0.118124999999992
 21
6.216920987733963
 31
0.0
  0
LINE
  5
8A
330
23
100
AcDbEntity
  8
0
 62
     0
100
AcDbLine
 10
0.0
 20
6.805902768920519
 30
0.0
 11
0.118124999999992
 21
6.92402776892051
 31
0.0
  0
LINE
  5
8B
330
23
100
AcDbEntity
  8
0
 62
     0
100
AcDbLine
 10
0.0
 20
7.513009550107066
 30
0.0
 11
0.118124999999992
 21
7.631134550107058
 31
0.0
  0
LINE
  5
8C
330
23
100
AcDbEntity
  8
0
 62
     0
100
AcDbLine
 10
0.0
 20
2.563262081801234
 30
0.0
 11
0.118124999999992
 21
2.681387081801226
 31
0.0
  0
LINE
  5
8D
330
23
100
AcDbEntity
  8
0
 62
     0
100
AcDbLine
 10
0.0
 20
1.856155300614687
 30
0.0
 11
0.118124999999992
 21
1.974280300614679
 31
0.0
  0
LINE
  5
8E
330
23
100
AcDbEntity
  8
0
 62
     0
100
AcDbLine
 10
0.0
 20
1.149048519428139
 30
0.0
 11
0.118124999999992
 21
1.267173519428131
 31
0.0
  0
LINE
  5
8F
330
23
100
AcDbEntity
  8
0
 62
     0
100
AcDbLine
 10
0.0038287769624352
 20
0.4457705152040274
 30
0.0
 11
0.118124999999992
 21
0.5600667382415842
 31
0.0
  0
LINE
  5
90
330
23
100
AcDbEntity
  8
0
 62
     0
100
AcDbLine
 10
0.5102785492326165
 20
0.2451135062876612
 30
0.0
 11
0.6229884431008943
 21
0.357823400155939
 31
0.0
  0
LINE
  5
91
330
23
100
AcDbEntity
  8
0
 62
     0
100
AcDbLine
 10
0.9722718241315027
 20
0.0
 30
0.0
 11
1.081396824131451
 21
0.1091249999999491
 31
0.0
  0
ENDBLK
  5
92
330
23
100
AcDbEntity
  8
0
100
AcDbBlockEnd
  0
BLOCK
  5
93
330
24
100
AcDbEntity
  8
0
100
AcDbBlockBegin
  2
*X2
 70
     1
 10
0.0
 20
0.0
 30
0.0
  3
*X2
  1

  0
LINE
  5
94
330
24
100
AcDbEntity
  8
0
 62
     0
100
AcDbLine
 10
5.815500000000027
 20
0.5484610306788992
 30
0.0
 11
5.506961030678918
 21
0.8570000000000078
 31
0.0
  0
LINE
  5
95
330
24
100
AcDbEntity
  8
0
 62
     0
100
AcDbLine
 10
5.406625000000004
 20
0.957336030678922
 30
0.0
 11
5.287500000000007
 21
1.076461030678919
 31
0.0
  0
LINE
  5
96
330
24
100
AcDbEntity
  8
0
 62
     0
100
AcDbLine
 10
5.295187679728076
 20
0.3616665697643024
 30
0.0
 11
5.174990434987674
 21
0.4818638145047042
 31
0.0
  0
LINE
  5
97
330
24
100
AcDbEntity
  8
0
 62
     0
100
AcDbLine
 10
4.600541551355366
 20
0.3492059169504656
 30
0.0
 11
4.480360384310695
 21
0.4693870839951366
 31
0.0
  0
LINE
  5
98
330
24
100
AcDbEntity
  8
0
 62
     0
100
AcDbLine
 10
3.905895422982656
 20
0.3367452641366288
 30
0.0
 11
3.785730333633715
 21
0.456910353485569
 31
0.0
  0
LINE
  5
99
330
24
100
AcDbEntity
  8
0
 62
     0
100
AcDbLine
 10
3.211249294609945
 20
0.324284611322792
 30
0.0
 11
3.091100282956735
 21
0.4444336229760014
 31
0.0
  0
LINE
  5
9A
330
24
100
AcDbEntity
  8
0
 62
     0
100
AcDbLine
 10
2.516603166237234
 20
0.3118239585089553
 30
0.0
 11
2.396470232279755
 21
0.4319568924664337
 31
0.0
  0
LINE
  5
9B
330
24
100
AcDbEntity
  8
0
 62
     0
100
AcDbLine
 10
1.821957037864524
 20
0.2993633056951185
 30
0.0
 11
1.701840181602776
 21
0.419480161956866
 31
0.0
  0
LINE
  5
9C
330
24
100
AcDbEntity
  8
0
 62
     0
100
AcDbLine
 10
1.127310909491813
 20
0.2869026528812817
 30
0.0
 11
1.007210130925796
 21
0.4070034314472984
 31
0.0
  0
LINE
  5
9D
330
24
100
AcDbEntity
  8
0
 62
     0
100
AcDbLine
 10
0.4326647811191025
 20
0.274442000067445
 30
0.0
 11
0.3125800802488166
 21
0.3945267009377307
 31
0.0
  0
LINE
  5
9E
330
24
100
AcDbEntity
  8
0
 62
     0
100
AcDbLine
 10
5.895249999999989
 20
1.175817811865485
 30
0.0
 11
5.823755311865467
 21
1.247312500000006
 31
0.0
  0
LINE
  5
9F
330
24
100
AcDbEntity
  8
0
 62
     0
100
AcDbLine
 10
5.510067811865467
 20
1.561000000000007
 30
0.0
 11
5.34812497521106
 21
1.722942836654414
 31
0.0
  0
LINE
  5
A0
330
24
100
AcDbEntity
  8
0
 62
     0
100
AcDbLine
 10
5.815500000000026
 20
1.255567811865447
 30
0.0
 11
5.700067811865465
 21
1.371000000000009
 31
0.0
  0
LINE
  5
A1
330
24
100
AcDbEntity
  8
0
 62
     0
100
AcDbLine
 10
5.815500000000027
 20
1.962674593051994
 30
0.0
 11
5.665499999999996
 21
2.112674593052025
 31
0.0
  0
LINE
  5
A2
330
24
100
AcDbEntity
  8
0
 62
     0
100
AcDbLine
 10
5.815500000000027
 20
2.669781374238541
 30
0.0
 11
5.665500000000001
 21
2.819781374238568
 31
0.0
  0
LINE
  5
A3
330
24
100
AcDbEntity
  8
0
 62
     0
100
AcDbLine
 10
5.815500000000027
 20
3.376888155425089
 30
0.0
 11
5.665500000000006
 21
3.52688815542511
 31
0.0
  0
LINE
  5
A4
330
24
100
AcDbEntity
  8
0
 62
     0
100
AcDbLine
 10
5.815500000000027
 20
4.083994936611636
 30
0.0
 11
5.665500000000013
 21
4.233994936611652
 31
0.0
  0
LINE
  5
A5
330
24
100
AcDbEntity
  8
0
 62
     0
100
AcDbLine
 10
5.815500000000027
 20
4.791101717798184
 30
0.0
 11
5.665500000000018
 21
4.941101717798194
 31
0.0
  0
LINE
  5
A6
330
24
100
AcDbEntity
  8
0
 62
     0
100
AcDbLine
 10
5.815500000000027
 20
5.49820849898473
 30
0.0
 11
5.666708498984753
 21
5.647000000000003
 31
0.0
  0
LINE
  5
A7
330
24
100
AcDbEntity
  8
0
 62
     0
100
AcDbLine
 10
5.46970849898475
 20
5.844000000000008
 30
0.0
 11
5.313866102055602
 21
5.999842396929157
 31
0.0
  0
LINE
  5
A8
330
24
100
AcDbEntity
  8
0
 62
     0
100
AcDbLine
 10
5.815500000000027
 20
6.205315280171277
 30
0.0
 11
5.665500000000021
 21
6.355315280171283
 31
0.0
  0
LINE
  5
A9
330
24
100
AcDbEntity
  8
0
 62
     0
100
AcDbLine
 10
5.815500000000027
 20
6.912422061357825
 30
0.0
 11
5.665500000000021
 21
7.062422061357831
 31
0.0
  0
LINE
  5
AA
330
24
100
AcDbEntity
  8
0
 62
     0
100
AcDbLine
 10
5.815500000000027
 20
7.619528842544373
 30
0.0
 11
5.665500000000021
 21
7.769528842544379
 31
0.0
  0
LINE
  5
AB
330
24
100
AcDbEntity
  8
0
 62
     0
100
AcDbLine
 10
5.815500000000027
 20
0.460072683030581
 30
0.0
 11
5.665500000000021
 21
0.6100726830305871
 31
0.0
  0
LINE
  5
AC
330
24
100
AcDbEntity
  8
0
 62
     0
100
AcDbLine
 10
5.406625000000004
 20
0.8689476830306036
 30
0.0
 11
5.287500000000007
 21
0.9880726830306011
 31
0.0
  0
LINE
  5
AD
330
24
100
AcDbEntity
  8
0
 62
     0
100
AcDbLine
 10
5.599604196481241
 20
0.6759684865493674
 30
0.0
 11
5.418572683030602
 21
0.8570000000000064
 31
0.0
  0
LINE
  5
AE
330
24
100
AcDbEntity
  8
0
 62
     0
100
AcDbLine
 10
5.208356913681488
 20
0.3601089881625728
 30
0.0
 11
5.088161678653052
 21
0.4803042231910083
 31
0.0
  0
LINE
  5
AF
330
24
100
AcDbEntity
  8
0
 62
     0
100
AcDbLine
 10
4.513710785308777
 20
0.347648335348736
 30
0.0
 11
4.393531627976073
 21
0.4678274926814407
 31
0.0
  0
LINE
  5
B0
330
24
100
AcDbEntity
  8
0
 62
     0
100
AcDbLine
 10
3.819064656936067
 20
0.3351876825348992
 30
0.0
 11
3.698901577299093
 21
0.455350762171873
 31
0.0
  0
LINE
  5
B1
330
24
100
AcDbEntity
  8
0
 62
     0
100
AcDbLine
 10
3.124418528563356
 20
0.3227270297210624
 30
0.0
 11
3.004271526622113
 21
0.4428740316623054
 31
0.0
  0
LINE
  5
B2
330
24
100
AcDbEntity
  8
0
 62
     0
100
AcDbLine
 10
2.429772400190645
 20
0.3102663769072257
 30
0.0
 11
2.309641475945133
 21
0.4303973011527377
 31
0.0
  0
LINE
  5
B3
330
24
100
AcDbEntity
  8
0
 62
     0
100
AcDbLine
 10
1.735126271817934
 20
0.2978057240933889
 30
0.0
 11
1.615011425268153
 21
0.4179205706431701
 31
0.0
  0
LINE
  5
B4
330
24
100
AcDbEntity
  8
0
 62
     0
100
AcDbLine
 10
1.040480143445224
 20
0.2853450712795521
 30
0.0
 11
0.9203813745911741
 21
0.4054438401336024
 31
0.0
  0
LINE
  5
B5
330
24
100
AcDbEntity
  8
0
 62
     0
100
AcDbLine
 10
0.3458340150725137
 20
0.2728844184657153
 30
0.0
 11
0.2257513239141943
 21
0.3929671096240347
 31
0.0
  0
LINE
  5
B6
330
24
100
AcDbEntity
  8
0
 62
     0
100
AcDbLine
 10
5.895249999999989
 20
1.087429464217167
 30
0.0
 11
5.611679464217147
 21
1.371000000000009
 31
0.0
  0
LINE
  5
B7
330
24
100
AcDbEntity
  8
0
 62
     0
100
AcDbLine
 10
5.421679464217149
 20
1.561000000000007
 30
0.0
 11
5.287500000000006
 21
1.695179464217149
 31
0.0
  0
LINE
  5
B8
330
24
100
AcDbEntity
  8
0
 62
     0
100
AcDbLine
 10
5.815500000000027
 20
1.874286245403675
 30
0.0
 11
5.665499999999996
 21
2.024286245403708
 31
0.0
  0
LINE
  5
B9
330
24
100
AcDbEntity
  8
0
 62
     0
100
AcDbLine
 10
5.815500000000027
 20
2.581393026590223
 30
0.0
 11
5.665500000000001
 21
2.73139302659025
 31
0.0
  0
LINE
  5
BA
330
24
100
AcDbEntity
  8
0
 62
     0
100
AcDbLine
 10
5.815500000000027
 20
3.288499807776771
 30
0.0
 11
5.665500000000006
 21
3.438499807776792
 31
0.0
  0
LINE
  5
BB
330
24
100
AcDbEntity
  8
0
 62
     0
100
AcDbLine
 10
5.815500000000027
 20
3.995606588963318
 30
0.0
 11
5.665500000000012
 21
4.145606588963334
 31
0.0
  0
LINE
  5
BC
330
24
100
AcDbEntity
  8
0
 62
     0
100
AcDbLine
 10
5.815500000000027
 20
4.702713370149866
 30
0.0
 11
5.665500000000017
 21
4.852713370149876
 31
0.0
  0
LINE
  5
BD
330
24
100
AcDbEntity
  8
0
 62
     0
100
AcDbLine
 10
5.815500000000027
 20
5.409820151336412
 30
0.0
 11
5.578320151336434
 21
5.647000000000004
 31
0.0
  0
LINE
  5
BE
330
24
100
AcDbEntity
  8
0
 62
     0
100
AcDbLine
 10
5.381320151336431
 20
5.844000000000007
 30
0.0
 11
5.287500000000007
 21
5.937820151336433
 31
0.0
  0
LINE
  5
BF
330
24
100
AcDbEntity
  8
0
 62
     0
100
AcDbLine
 10
5.815500000000027
 20
6.116926932522959
 30
0.0
 11
5.665500000000021
 21
6.266926932522965
 31
0.0
  0
LINE
  5
C0
330
24
100
AcDbEntity
  8
0
 62
     0
100
AcDbLine
 10
5.815500000000027
 20
6.824033713709507
 30
0.0
 11
5.665500000000021
 21
6.974033713709513
 31
0.0
  0
LINE
  5
C1
330
24
100
AcDbEntity
  8
0
 62
     0
100
AcDbLine
 10
5.815500000000027
 20
7.531140494896054
 30
0.0
 11
5.665500000000021
 21
7.68114049489606
 31
0.0
  0
LINE
  5
C2
330
24
100
AcDbEntity
  8
0
 62
     0
100
AcDbLine
 10
5.815500000000026
 20
0.3716843353822628
 30
0.0
 11
5.664917825450962
 21
0.5222665099313271
 31
0.0
  0
LINE
  5
C3
330
24
100
AcDbEntity
  8
0
 62
     0
100
AcDbLine
 10
5.503955585276883
 20
0.6832287501054067
 30
0.0
 11
5.287500000000007
 21
0.8996843353822827
 31
0.0
  0
LINE
  5
C4
330
24
100
AcDbEntity
  8
0
 62
     0
100
AcDbLine
 10
5.121526147634899
 20
0.3585514065608431
 30
0.0
 11
5.001332922318429
 21
0.4787446318773123
 31
0.0
  0
LINE
  5
C5
330
24
100
AcDbEntity
  8
0
 62
     0
100
AcDbLine
 10
4.426880019262188
 20
0.3460907537470064
 30
0.0
 11
4.30670287164145
 21
0.4662679013677448
 31
0.0
  0
LINE
  5
C6
330
24
100
AcDbEntity
  8
0
 62
     0
100
AcDbLine
 10
3.732233890889478
 20
0.3336301009331696
 30
0.0
 11
3.61207282096447
 21
0.4537911708581771
 31
0.0
  0
LINE
  5
C7
330
24
100
AcDbEntity
  8
0
 62
     0
100
AcDbLine
 10
3.037587762516767
 20
0.3211694481193328
 30
0.0
 11
2.91744277028749
 21
0.4413144403486095
 31
0.0
  0
LINE
  5
C8
330
24
100
AcDbEntity
  8
0
 62
     0
100
AcDbLine
 10
2.342941634144056
 20
0.3087087953054961
 30
0.0
 11
2.22281271961051
 21
0.4288377098390418
 31
0.0
  0
LINE
  5
C9
330
24
100
AcDbEntity
  8
0
 62
     0
100
AcDbLine
 10
1.648295505771346
 20
0.2962481424916593
 30
0.0
 11
1.528182668933531
 21
0.4163609793294742
 31
0.0
  0
LINE
  5
CA
330
24
100
AcDbEntity
  8
0
 62
     0
100
AcDbLine
 10
0.9536493773986356
 20
0.2837874896778225
 30
0.0
 11
0.8335526182565516
 21
0.4038842488199064
 31
0.0
  0
LINE
  5
CB
330
24
100
AcDbEntity
  8
0
 62
     0
100
AcDbLine
 10
0.2756250000000051
 20
0.2547050858899055
 30
0.0
 11
0.1389225675795718
 21
0.3914075183103387
 31
0.0
  0
LINE
  5
CC
330
24
100
AcDbEntity
  8
0
 62
     0
100
AcDbLine
 10
5.847291116568827
 20
1.04700000000001
 30
0.0
 11
5.523291116568828
 21
1.371000000000009
 31
0.0
  0
LINE
  5
CD
330
24
100
AcDbEntity
  8
0
 62
     0
100
AcDbLine
 10
5.33329111656883
 20
1.561000000000007
 30
0.0
 11
5.287500000000006
 21
1.60679111656883
 31
0.0
  0
LINE
  5
CE
330
24
100
AcDbEntity
  8
0
 62
     0
100
AcDbLine
 10
5.815500000000027
 20
1.785897897755357
 30
0.0
 11
5.665499999999995
 21
1.93589789775539
 31
0.0
  0
LINE
  5
CF
330
24
100
AcDbEntity
  8
0
 62
     0
100
AcDbLine
 10
5.815500000000027
 20
2.493004678941904
 30
0.0
 11
5.6655
 21
2.643004678941932
 31
0.0
  0
LINE
  5
D0
330
24
100
AcDbEntity
  8
0
 62
     0
100
AcDbLine
 10
5.815500000000027
 20
3.200111460128452
 30
0.0
 11
5.665500000000005
 21
3.350111460128474
 31
0.0
  0
LINE
  5
D1
330
24
100
AcDbEntity
  8
0
 62
     0
100
AcDbLine
 10
5.815500000000027
 20
3.907218241314999
 30
0.0
 11
5.665500000000011
 21
4.057218241315016
 31
0.0
  0
LINE
  5
D2
330
24
100
AcDbEntity
  8
0
 62
     0
100
AcDbLine
 10
5.815500000000027
 20
4.614325022501547
 30
0.0
 11
5.665500000000016
 21
4.764325022501559
 31
0.0
  0
LINE
  5
D3
330
24
100
AcDbEntity
  8
0
 62
     0
100
AcDbLine
 10
5.815500000000027
 20
5.321431803688094
 30
0.0
 11
5.489931803688116
 21
5.647000000000004
 31
0.0
  0
LINE
  5
D4
330
24
100
AcDbEntity
  8
0
 62
     0
100
AcDbLine
 10
5.292931803688113
 20
5.844000000000007
 30
0.0
 11
5.287500000000007
 21
5.849431803688115
 31
0.0
  0
LINE
  5
D5
330
24
100
AcDbEntity
  8
0
 62
     0
100
AcDbLine
 10
5.815500000000027
 20
6.028538584874641
 30
0.0
 11
5.665500000000021
 21
6.178538584874647
 31
0.0
  0
LINE
  5
D6
330
24
100
AcDbEntity
  8
0
 62
     0
100
AcDbLine
 10
5.815500000000027
 20
6.735645366061189
 30
0.0
 11
5.665500000000021
 21
6.885645366061194
 31
0.0
  0
LINE
  5
D7
330
24
100
AcDbEntity
  8
0
 62
     0
100
AcDbLine
 10
5.815500000000027
 20
7.442752147247736
 30
0.0
 11
5.665500000000021
 21
7.592752147247741
 31
0.0
  0
LINE
  5
D8
330
24
100
AcDbEntity
  8
0
 62
     0
100
AcDbLine
 10
5.89524999999999
 20
0.7338760736238924
 30
0.0
 11
5.77212607362387
 21
0.8570000000000115
 31
0.0
  0
LINE
  5
D9
330
24
100
AcDbEntity
  8
0
 62
     0
100
AcDbLine
 10
5.582126073623875
 20
1.047000000000006
 30
0.0
 11
5.287500000000006
 21
1.341626073623875
 31
0.0
  0
LINE
  5
DA
330
24
100
AcDbEntity
  8
0
 62
     0
100
AcDbLine
 10
5.555679977867843
 20
0.3663393145694912
 30
0.0
 11
5.435476703991541
 21
0.4865425884457922
 31
0.0
  0
LINE
  5
DB
330
24
100
AcDbEntity
  8
0
 62
     0
100
AcDbLine
 10
4.861033849495133
 20
0.3538786617556544
 30
0.0
 11
4.740846653314562
 21
0.4740658579362245
 31
0.0
  0
LINE
  5
DC
330
24
100
AcDbEntity
  8
0
 62
     0
100
AcDbLine
 10
4.166387721122422
 20
0.3414180089418176
 30
0.0
 11
4.046216602637582
 21
0.4615891274266568
 31
0.0
  0
LINE
  5
DD
330
24
100
AcDbEntity
  8
0
 62
     0
100
AcDbLine
 10
3.471741592749711
 20
0.3289573561279808
 30
0.0
 11
3.351586551960603
 21
0.4491123969170891
 31
0.0
  0
LINE
  5
DE
330
24
100
AcDbEntity
  8
0
 62
     0
100
AcDbLine
 10
2.777095464377
 20
0.3164967033141441
 30
0.0
 11
2.656956501283623
 21
0.4366356664075215
 31
0.0
  0
LINE
  5
DF
330
24
100
AcDbEntity
  8
0
 62
     0
100
AcDbLine
 10
2.08244933600429
 20
0.3040360505003073
 30
0.0
 11
1.962326450606643
 21
0.4241589358979539
 31
0.0
  0
LINE
  5
E0
330
24
100
AcDbEntity
  8
0
 62
     0
100
AcDbLine
 10
1.387803207631579
 20
0.2915753976864705
 30
0.0
 11
1.267696399929663
 21
0.4116822053883862
 31
0.0
  0
LINE
  5
E1
330
24
100
AcDbEntity
  8
0
 62
     0
100
AcDbLine
 10
0.6931570792588691
 20
0.2791147448726337
 30
0.0
 11
0.5730663492526843
 21
0.3992054748788185
 31
0.0
  0
LINE
  5
E2
330
24
100
AcDbEntity
  8
0
 62
     0
100
AcDbLine
 10
0.2651650429449553
 20
0.0
 30
0.0
 11
0.0
 21
0.2651650429449553
 31
0.0
  0
LINE
  5
E3
330
24
100
AcDbEntity
  8
0
 62
     0
100
AcDbLine
 10
5.895249999999988
 20
1.440982854810441
 30
0.0
 11
5.776125000000021
 21
1.560107854810408
 31
0.0
  0
LINE
  5
E4
330
24
100
AcDbEntity
  8
0
 62
     0
100
AcDbLine
 10
5.775232854810422
 20
1.561000000000007
 30
0.0
 11
5.594582515016846
 21
1.741650339793583
 31
0.0
  0
LINE
  5
E5
330
24
100
AcDbEntity
  8
0
 62
     0
100
AcDbLine
 10
5.815500000000027
 20
2.227839635996949
 30
0.0
 11
5.665499999999998
 21
2.377839635996979
 31
0.0
  0
LINE
  5
E6
330
24
100
AcDbEntity
  8
0
 62
     0
100
AcDbLine
 10
5.815500000000027
 20
2.934946417183497
 30
0.0
 11
5.665500000000004
 21
3.084946417183521
 31
0.0
  0
LINE
  5
E7
330
24
100
AcDbEntity
  8
0
 62
     0
100
AcDbLine
 10
5.815500000000027
 20
3.642053198370044
 30
0.0
 11
5.665500000000009
 21
3.792053198370063
 31
0.0
  0
LINE
  5
E8
330
24
100
AcDbEntity
  8
0
 62
     0
100
AcDbLine
 10
5.815500000000027
 20
4.349159979556592
 30
0.0
 11
5.665500000000014
 21
4.499159979556606
 31
0.0
  0
LINE
  5
E9
330
24
100
AcDbEntity
  8
0
 62
     0
100
AcDbLine
 10
5.815500000000027
 20
5.056266760743138
 30
0.0
 11
5.66550000000002
 21
5.206266760743146
 31
0.0
  0
LINE
  5
EA
330
24
100
AcDbEntity
  8
0
 62
     0
100
AcDbLine
 10
5.386091465999207
 20
5.485675294743959
 30
0.0
 11
5.287500000000007
 21
5.584266760743159
 31
0.0
  0
LINE
  5
EB
330
24
100
AcDbEntity
  8
0
 62
     0
100
AcDbLine
 10
5.895249999999989
 20
5.683623541929725
 30
0.0
 11
5.560323641861385
 21
6.018549900068329
 31
0.0
  0
LINE
  5
EC
330
24
100
AcDbEntity
  8
0
 62
     0
100
AcDbLine
 10
5.815500000000027
 20
6.470480323116233
 30
0.0
 11
5.665500000000021
 21
6.620480323116239
 31
0.0
  0
LINE
  5
ED
330
24
100
AcDbEntity
  8
0
 62
     0
100
AcDbLine
 10
5.815500000000027
 20
7.177587104302781
 30
0.0
 11
5.665500000000021
 21
7.327587104302787
 31
0.0
  0
ENDBLK
  5
EE
330
24
100
AcDbEntity
  8
0
100
AcDbBlockEnd
  0
BLOCK
  5
555
330
54A
100
AcDbEntity
  8
0
100
AcDbBlockBegin
  2
*D3
 70
     1
 10
0.0
 20
0.0
 30
0.0
  3
*D3
  1

  0
LINE
  5
634
330
54A
100
AcDbEntity
  8
DIM
 62
     0
370
    -2
100
AcDbLine
 10
7.081929124437311
 20
24.41367898093599
 30
0.0
 11
0.8798390622974594
 21
24.41367898093599
 31
0.0
  0
LINE
  5
635
330
54A
100
AcDbEntity
  8
DIM
 62
     0
370
    -2
100
AcDbLine
 10
7.081929124437311
 20
8.671678980935979
 30
0.0
 11
0.8798390622974558
 21
8.671678980935981
 31
0.0
  0
LINE
  5
636
330
54A
100
AcDbEntity
  8
DIM
 62
     0
370
    -2
100
AcDbLine
 10
1.251839062297459
 20
23.69367898093599
 30
0.0
 11
1.251839062297457
 21
17.15267898093598
 31
0.0
  0
LINE
  5
637
330
54A
100
AcDbEntity
  8
DIM
 62
     0
370
    -2
100
AcDbLine
 10
1.251839062297456
 20
9.391678980935981
 30
0.0
 11
1.251839062297457
 21
15.93267898093599
 31
0.0
  0
SOLID
  5
638
330
54A
100
AcDbEntity
  8
DIM
 62
     0
100
AcDbTrace
 10
1.131839062297459
 20
23.69367898093599
 30
0.0
 11
1.371839062297459
 21
23.69367898093599
 31
0.0
 12
1.251839062297459
 22
24.41367898093599
 32
0.0
 13
1.251839062297459
 23
24.41367898093599
 33
0.0
  0
SOLID
  5
639
330
54A
100
AcDbEntity
  8
DIM
 62
     0
100
AcDbTrace
 10
1.131839062297456
 20
9.391678980935981
 30
0.0
 11
1.371839062297455
 21
9.391678980935981
 31
0.0
 12
1.251839062297456
 22
8.671678980935981
 32
0.0
 13
1.251839062297456
 23
8.671678980935981
 33
0.0
  0
MTEXT
  5
63A
330
54A
100
AcDbEntity
  8
DIM
 62
     0
100
AcDbMText
 10
1.251839062297455
 20
16.54267898093598
 30
0.0
 40
0.5
 41
0.0
 71
     5
 72
     1
  1
\A1;E
  7
TXT
 73
     1
 44
1.0
  0
POINT
  5
63B
330
54A
100
AcDbEntity
  8
DEFPOINTS
 62
     0
100
AcDbPoint
 10
7.333929124437311
 20
24.41367898093599
 30
0.0
  0
POINT
  5
63C
330
54A
100
AcDbEntity
  8
DEFPOINTS
 62
     0
100
AcDbPoint
 10
7.333929124437311
 20
8.671678980935979
 30
0.0
  0
POINT
  5
63D
330
54A
100
AcDbEntity
  8
DEFPOINTS
 62
     0
100
AcDbPoint
 10
1.251839062297456
 20
8.671678980935981
 30
0.0
  0
ENDBLK
  5
556
330
54A
100
AcDbEntity
  8
0
100
AcDbBlockEnd
  0
BLOCK
  5
562
330
557
100
AcDbEntity
  8
0
100
AcDbBlockBegin
  2
*D4
 70
     1
 10
0.0
 20
0.0
 30
0.0
  3
*D4
  1

  0
LINE
  5
63E
330
557
100
AcDbEntity
  8
DIM
 62
     0
370
    -2
100
AcDbLine
 10
17.29342912443729
 20
23.19967898093598
 30
0.0
 11
17.29342912443729
 21
25.8025553092935
 31
0.0
  0
LINE
  5
63F
330
557
100
AcDbEntity
  8
DIM
 62
     0
370
    -2
100
AcDbLine
 10
8.300429124437286
 20
23.19967898093598
 30
0.0
 11
8.300429124437286
 21
25.8025553092935
 31
0.0
  0
LINE
  5
640
330
557
100
AcDbEntity
  8
DIM
 62
     0
370
    -2
100
AcDbLine
 10
16.57342912443729
 20
25.4305553092935
 30
0.0
 11
13.28192912443729
 21
25.4305553092935
 31
0.0
  0
LINE
  5
641
330
557
100
AcDbEntity
  8
DIM
 62
     0
370
    -2
100
AcDbLine
 10
9.020429124437287
 20
25.4305553092935
 30
0.0
 11
12.31192912443729
 21
25.4305553092935
 31
0.0
  0
SOLID
  5
642
330
557
100
AcDbEntity
  8
DIM
 62
     0
100
AcDbTrace
 10
16.57342912443729
 20
25.5505553092935
 30
0.0
 11
16.57342912443729
 21
25.3105553092935
 31
0.0
 12
17.29342912443729
 22
25.4305553092935
 32
0.0
 13
17.29342912443729
 23
25.4305553092935
 33
0.0
  0
SOLID
  5
643
330
557
100
AcDbEntity
  8
DIM
 62
     0
100
AcDbTrace
 10
9.020429124437287
 20
25.5505553092935
 30
0.0
 11
9.020429124437287
 21
25.3105553092935
 31
0.0
 12
8.300429124437286
 22
25.4305553092935
 32
0.0
 13
8.300429124437286
 23
25.4305553092935
 33
0.0
  0
MTEXT
  5
644
330
557
100
AcDbEntity
  8
DIM
 62
     0
100
AcDbMText
 10
12.79692912443729
 20
25.4305553092935
 30
0.0
 40
0.5
 41
0.0
 71
     5
 72
     1
  1
\A1;D
  7
TXT
 73
     1
 44
1.0
  0
POINT
  5
645
330
557
100
AcDbEntity
  8
DEFPOINTS
 62
     0
100
AcDbPoint
 10
17.29342912443729
 20
22.94767898093598
 30
0.0
  0
POINT
  5
646
330
557
100
AcDbEntity
  8
DEFPOINTS
 62
     0
100
AcDbPoint
 10
8.300429124437286
 20
22.94767898093598
 30
0.0
  0
POINT
  5
647
330
557
100
AcDbEntity
  8
DEFPOINTS
 62
     0
100
AcDbPoint
 10
8.300429124437286
 20
25.4305553092935
 30
0.0
  0
ENDBLK
  5
563
330
557
100
AcDbEntity
  8
0
100
AcDbBlockEnd
  0
BLOCK
  5
56F
330
564
100
AcDbEntity
  8
0
100
AcDbBlockBegin
  2
*D5
 70
     1
 10
0.0
 20
0.0
 30
0.0
  3
*D5
  1

  0
LINE
  5
648
330
564
100
AcDbEntity
  8
DIM
 62
     0
370
    -2
100
AcDbLine
 10
17.75817912443729
 20
23.71367898093593
 30
0.0
 11
17.75817912443729
 21
26.8025553092935
 31
0.0
  0
LINE
  5
649
330
564
100
AcDbEntity
  8
DIM
 62
     0
370
    -2
100
AcDbLine
 10
7.835679124437284
 20
23.71367898093593
 30
0.0
 11
7.835679124437284
 21
26.8025553092935
 31
0.0
  0
LINE
  5
64A
330
564
100
AcDbEntity
  8
DIM
 62
     0
370
    -2
100
AcDbLine
 10
17.03817912443729
 20
26.4305553092935
 30
0.0
 11
13.28192912443728
 21
26.4305553092935
 31
0.0
  0
LINE
  5
64B
330
564
100
AcDbEntity
  8
DIM
 62
     0
370
    -2
100
AcDbLine
 10
8.555679124437284
 20
26.4305553092935
 30
0.0
 11
12.31192912443728
 21
26.4305553092935
 31
0.0
  0
SOLID
  5
64C
330
564
100
AcDbEntity
  8
DIM
 62
     0
100
AcDbTrace
 10
17.03817912443729
 20
26.5505553092935
 30
0.0
 11
17.03817912443729
 21
26.3105553092935
 31
0.0
 12
17.75817912443729
 22
26.4305553092935
 32
0.0
 13
17.75817912443729
 23
26.4305553092935
 33
0.0
  0
SOLID
  5
64D
330
564
100
AcDbEntity
  8
DIM
 62
     0
100
AcDbTrace
 10
8.555679124437284
 20
26.5505553092935
 30
0.0
 11
8.555679124437284
 21
26.3105553092935
 31
0.0
 12
7.835679124437284
 22
26.4305553092935
 32
0.0
 13
7.835679124437284
 23
26.4305553092935
 33
0.0
  0
MTEXT
  5
64E
330
564
100
AcDbEntity
  8
DIM
 62
     0
100
AcDbMText
 10
12.79692912443728
 20
26.4305553092935
 30
0.0
 40
0.5
 41
0.0
 71
     5
 72
     1
  1
\A1;C
  7
TXT
 73
     1
 44
1.0
  0
POINT
  5
64F
330
564
100
AcDbEntity
  8
DEFPOINTS
 62
     0
100
AcDbPoint
 10
17.75817912443729
 20
23.46167898093594
 30
0.0
  0
POINT
  5
650
330
564
100
AcDbEntity
  8
DEFPOINTS
 62
     0
100
AcDbPoint
 10
7.835679124437284
 20
23.46167898093594
 30
0.0
  0
POINT
  5
651
330
564
100
AcDbEntity
  8
DEFPOINTS
 62
     0
100
AcDbPoint
 10
7.835679124437284
 20
26.4305553092935
 30
0.0
  0
ENDBLK
  5
570
330
564
100
AcDbEntity
  8
0
100
AcDbBlockEnd
  0
BLOCK
  5
57C
330
571
100
AcDbEntity
  8
0
100
AcDbBlockBegin
  2
*D6
 70
     1
 10
0.0
 20
0.0
 30
0.0
  3
*D6
  1

  0
LINE
  5
652
330
571
100
AcDbEntity
  8
DIM
 62
     0
370
    -2
100
AcDbLine
 10
18.26605412443731
 20
24.19767898093597
 30
0.0
 11
18.26605412443731
 21
27.8025553092935
 31
0.0
  0
LINE
  5
653
330
571
100
AcDbEntity
  8
DIM
 62
     0
370
    -2
100
AcDbLine
 10
7.327804124437285
 20
24.19767898093598
 30
0.0
 11
7.327804124437285
 21
27.8025553092935
 31
0.0
  0
LINE
  5
654
330
571
100
AcDbEntity
  8
DIM
 62
     0
370
    -2
100
AcDbLine
 10
17.54605412443731
 20
27.4305553092935
 30
0.0
 11
13.28192912443729
 21
27.4305553092935
 31
0.0
  0
LINE
  5
655
330
571
100
AcDbEntity
  8
DIM
 62
     0
370
    -2
100
AcDbLine
 10
8.047804124437286
 20
27.4305553092935
 30
0.0
 11
12.31192912443729
 21
27.4305553092935
 31
0.0
  0
SOLID
  5
656
330
571
100
AcDbEntity
  8
DIM
 62
     0
100
AcDbTrace
 10
17.54605412443731
 20
27.5505553092935
 30
0.0
 11
17.54605412443731
 21
27.3105553092935
 31
0.0
 12
18.26605412443731
 22
27.4305553092935
 32
0.0
 13
18.26605412443731
 23
27.4305553092935
 33
0.0
  0
SOLID
  5
657
330
571
100
AcDbEntity
  8
DIM
 62
     0
100
AcDbTrace
 10
8.047804124437286
 20
27.5505553092935
 30
0.0
 11
8.047804124437286
 21
27.3105553092935
 31
0.0
 12
7.327804124437285
 22
27.4305553092935
 32
0.0
 13
7.327804124437285
 23
27.4305553092935
 33
0.0
  0
MTEXT
  5
658
330
571
100
AcDbEntity
  8
DIM
 62
     0
100
AcDbMText
 10
12.79692912443729
 20
27.4305553092935
 30
0.0
 40
0.5
 41
0.0
 71
     5
 72
     1
  1
\A1;B
  7
TXT
 73
     1
 44
1.0
  0
POINT
  5
659
330
571
100
AcDbEntity
  8
DEFPOINTS
 62
     0
100
AcDbPoint
 10
18.26605412443731
 20
23.94567898093598
 30
0.0
  0
POINT
  5
65A
330
571
100
AcDbEntity
  8
DEFPOINTS
 62
     0
100
AcDbPoint
 10
7.327804124437285
 20
23.94567898093598
 30
0.0
  0
POINT
  5
65B
330
571
100
AcDbEntity
  8
DEFPOINTS
 62
     0
100
AcDbPoint
 10
7.327804124437285
 20
27.4305553092935
 30
0.0
  0
ENDBLK
  5
57D
330
571
100
AcDbEntity
  8
0
100
AcDbBlockEnd
  0
BLOCK
  5
589
330
57E
100
AcDbEntity
  8
0
100
AcDbBlockBegin
  2
*D7
 70
     1
 10
0.0
 20
0.0
 30
0.0
  3
*D7
  1

  0
LINE
  5
65C
330
57E
100
AcDbEntity
  8
DIM
 62
     0
370
    -2
100
AcDbLine
 10
18.69292912443727
 20
24.23267898093598
 30
0.0
 11
18.69292912443727
 21
28.8025553092935
 31
0.0
  0
LINE
  5
65D
330
57E
100
AcDbEntity
  8
DIM
 62
     0
370
    -2
100
AcDbLine
 10
6.900929124437304
 20
24.23267898093598
 30
0.0
 11
6.900929124437304
 21
28.8025553092935
 31
0.0
  0
LINE
  5
65E
330
57E
100
AcDbEntity
  8
DIM
 62
     0
370
    -2
100
AcDbLine
 10
17.97292912443728
 20
28.4305553092935
 30
0.0
 11
13.28192912443729
 21
28.4305553092935
 31
0.0
  0
LINE
  5
65F
330
57E
100
AcDbEntity
  8
DIM
 62
     0
370
    -2
100
AcDbLine
 10
7.620929124437304
 20
28.4305553092935
 30
0.0
 11
12.31192912443729
 21
28.4305553092935
 31
0.0
  0
SOLID
  5
660
330
57E
100
AcDbEntity
  8
DIM
 62
     0
100
AcDbTrace
 10
17.97292912443728
 20
28.5505553092935
 30
0.0
 11
17.97292912443728
 21
28.3105553092935
 31
0.0
 12
18.69292912443727
 22
28.4305553092935
 32
0.0
 13
18.69292912443727
 23
28.4305553092935
 33
0.0
  0
SOLID
  5
661
330
57E
100
AcDbEntity
  8
DIM
 62
     0
100
AcDbTrace
 10
7.620929124437304
 20
28.5505553092935
 30
0.0
 11
7.620929124437304
 21
28.3105553092935
 31
0.0
 12
6.900929124437304
 22
28.4305553092935
 32
0.0
 13
6.900929124437304
 23
28.4305553092935
 33
0.0
  0
MTEXT
  5
662
330
57E
100
AcDbEntity
  8
DIM
 62
     0
100
AcDbMText
 10
12.79692912443729
 20
28.4305553092935
 30
0.0
 40
0.5
 41
0.0
 71
     5
 72
     1
  1
\A1;A
  7
TXT
 73
     1
 44
1.0
  0
POINT
  5
663
330
57E
100
AcDbEntity
  8
DEFPOINTS
 62
     0
100
AcDbPoint
 10
18.69292912443727
 20
23.98067898093598
 30
0.0
  0
POINT
  5
664
330
57E
100
AcDbEntity
  8
DEFPOINTS
 62
     0
100
AcDbPoint
 10
6.900929124437304
 20
23.98067898093598
 30
0.0
  0
POINT
  5
665
330
57E
100
AcDbEntity
  8
DEFPOINTS
 62
     0
100
AcDbPoint
 10
6.900929124437304
 20
28.4305553092935
 30
0.0
  0
ENDBLK
  5
58A
330
57E
100
AcDbEntity
  8
0
100
AcDbBlockEnd
  0
BLOCK
  5
596
330
58B
100
AcDbEntity
  8
0
100
AcDbBlockBegin
  2
*D8
 70
     1
 10
0.0
 20
0.0
 30
0.0
  3
*D8
  1

  0
LINE
  5
666
330
58B
100
AcDbEntity
  8
DIM
 62
     0
370
    -2
100
AcDbLine
 10
8.048429124437285
 20
10.13767898093598
 30
0.0
 11
4.251839062297457
 21
10.13767898093598
 31
0.0
  0
LINE
  5
667
330
58B
100
AcDbEntity
  8
DIM
 62
     0
370
    -2
100
AcDbLine
 10
8.048429124437285
 20
22.94767898093598
 30
0.0
 11
4.25183906229746
 21
22.94767898093598
 31
0.0
  0
LINE
  5
668
330
58B
100
AcDbEntity
  8
DIM
 62
     0
370
    -2
100
AcDbLine
 10
4.623839062297457
 20
10.85767898093598
 30
0.0
 11
4.623839062297458
 21
15.93267898093598
 31
0.0
  0
LINE
  5
669
330
58B
100
AcDbEntity
  8
DIM
 62
     0
370
    -2
100
AcDbLine
 10
4.623839062297459
 20
22.22767898093598
 30
0.0
 11
4.623839062297458
 21
17.15267898093598
 31
0.0
  0
SOLID
  5
66A
330
58B
100
AcDbEntity
  8
DIM
 62
     0
100
AcDbTrace
 10
4.503839062297457
 20
10.85767898093598
 30
0.0
 11
4.743839062297457
 21
10.85767898093598
 31
0.0
 12
4.623839062297457
 22
10.13767898093598
 32
0.0
 13
4.623839062297457
 23
10.13767898093598
 33
0.0
  0
SOLID
  5
66B
330
58B
100
AcDbEntity
  8
DIM
 62
     0
100
AcDbTrace
 10
4.503839062297459
 20
22.22767898093598
 30
0.0
 11
4.743839062297459
 21
22.22767898093598
 31
0.0
 12
4.623839062297459
 22
22.94767898093598
 32
0.0
 13
4.623839062297459
 23
22.94767898093598
 33
0.0
  0
MTEXT
  5
66C
330
58B
100
AcDbEntity
  8
DIM
 62
     0
100
AcDbMText
 10
4.623839062297455
 20
16.54267898093598
 30
0.0
 40
0.5
 41
0.0
 71
     5
 72
     1
  1
\A1;H
  7
TXT
 73
     1
 44
1.0
  0
POINT
  5
66D
330
58B
100
AcDbEntity
  8
DEFPOINTS
 62
     0
100
AcDbPoint
 10
8.300429124437286
 20
10.13767898093598
 30
0.0
  0
POINT
  5
66E
330
58B
100
AcDbEntity
  8
DEFPOINTS
 62
     0
100
AcDbPoint
 10
8.300429124437286
 20
22.94767898093598
 30
0.0
  0
POINT
  5
66F
330
58B
100
AcDbEntity
  8
DEFPOINTS
 62
     0
100
AcDbPoint
 10
4.623839062297459
 20
22.94767898093598
 30
0.0
  0
ENDBLK
  5
597
330
58B
100
AcDbEntity
  8
0
100
AcDbBlockEnd
  0
BLOCK
  5
5A3
330
598
100
AcDbEntity
  8
0
100
AcDbBlockBegin
  2
*D9
 70
     1
 10
0.0
 20
0.0
 30
0.0
  3
*D9
  1

  0
LINE
  5
670
330
598
100
AcDbEntity
  8
DIM
 62
     0
370
    -2
100
AcDbLine
 10
7.583679124437284
 20
9.623678980935977
 30
0.0
 11
3.127839062297454
 21
9.623678980935979
 31
0.0
  0
LINE
  5
671
330
598
100
AcDbEntity
  8
DIM
 62
     0
370
    -2
100
AcDbLine
 10
7.583679124437284
 20
23.46167898093594
 30
0.0
 11
3.127839062297457
 21
23.46167898093594
 31
0.0
  0
LINE
  5
672
330
598
100
AcDbEntity
  8
DIM
 62
     0
370
    -2
100
AcDbLine
 10
3.499839062297454
 20
10.34367898093597
 30
0.0
 11
3.499839062297455
 21
15.93267898093596
 31
0.0
  0
LINE
  5
673
330
598
100
AcDbEntity
  8
DIM
 62
     0
370
    -2
100
AcDbLine
 10
3.499839062297456
 20
22.74167898093593
 30
0.0
 11
3.499839062297455
 21
17.15267898093595
 31
0.0
  0
SOLID
  5
674
330
598
100
AcDbEntity
  8
DIM
 62
     0
100
AcDbTrace
 10
3.379839062297453
 20
10.34367898093597
 30
0.0
 11
3.619839062297454
 21
10.34367898093597
 31
0.0
 12
3.499839062297454
 22
9.623678980935979
 32
0.0
 13
3.499839062297454
 23
9.623678980935979
 33
0.0
  0
SOLID
  5
675
330
598
100
AcDbEntity
  8
DIM
 62
     0
100
AcDbTrace
 10
3.379839062297456
 20
22.74167898093593
 30
0.0
 11
3.619839062297456
 21
22.74167898093593
 31
0.0
 12
3.499839062297457
 22
23.46167898093594
 32
0.0
 13
3.499839062297457
 23
23.46167898093594
 33
0.0
  0
MTEXT
  5
676
330
598
100
AcDbEntity
  8
DIM
 62
     0
100
AcDbMText
 10
3.499839062297452
 20
16.54267898093596
 30
0.0
 40
0.5
 41
0.0
 71
     5
 72
     1
  1
\A1;G
  7
TXT
 73
     1
 44
1.0
  0
POINT
  5
677
330
598
100
AcDbEntity
  8
DEFPOINTS
 62
     0
100
AcDbPoint
 10
7.835679124437284
 20
9.623678980935977
 30
0.0
  0
POINT
  5
678
330
598
100
AcDbEntity
  8
DEFPOINTS
 62
     0
100
AcDbPoint
 10
7.835679124437284
 20
23.46167898093594
 30
0.0
  0
POINT
  5
679
330
598
100
AcDbEntity
  8
DEFPOINTS
 62
     0
100
AcDbPoint
 10
3.499839062297457
 20
23.46167898093594
 30
0.0
  0
ENDBLK
  5
5A4
330
598
100
AcDbEntity
  8
0
100
AcDbBlockEnd
  0
BLOCK
  5
5B0
330
5A5
100
AcDbEntity
  8
0
100
AcDbBlockBegin
  2
*D10
 70
     1
 10
0.0
 20
0.0
 30
0.0
  3
*D10
  1

  0
LINE
  5
67A
330
5A5
100
AcDbEntity
  8
DIM
 62
     0
370
    -2
100
AcDbLine
 10
7.137804124437283
 20
9.077678980935985
 30
0.0
 11
2.003839062297452
 21
9.077678980935987
 31
0.0
  0
LINE
  5
67B
330
5A5
100
AcDbEntity
  8
DIM
 62
     0
370
    -2
100
AcDbLine
 10
7.137804124437283
 20
24.00767898093598
 30
0.0
 11
2.003839062297455
 21
24.00767898093598
 31
0.0
  0
LINE
  5
67C
330
5A5
100
AcDbEntity
  8
DIM
 62
     0
370
    -2
100
AcDbLine
 10
2.375839062297451
 20
9.797678980935987
 30
0.0
 11
2.375839062297453
 21
15.93267898093599
 31
0.0
  0
LINE
  5
67D
330
5A5
100
AcDbEntity
  8
DIM
 62
     0
370
    -2
100
AcDbLine
 10
2.375839062297454
 20
23.28767898093598
 30
0.0
 11
2.375839062297453
 21
17.15267898093598
 31
0.0
  0
SOLID
  5
67E
330
5A5
100
AcDbEntity
  8
DIM
 62
     0
100
AcDbTrace
 10
2.255839062297451
 20
9.797678980935987
 30
0.0
 11
2.495839062297451
 21
9.797678980935987
 31
0.0
 12
2.375839062297451
 22
9.077678980935987
 32
0.0
 13
2.375839062297451
 23
9.077678980935987
 33
0.0
  0
SOLID
  5
67F
330
5A5
100
AcDbEntity
  8
DIM
 62
     0
100
AcDbTrace
 10
2.255839062297454
 20
23.28767898093598
 30
0.0
 11
2.495839062297454
 21
23.28767898093598
 31
0.0
 12
2.375839062297454
 22
24.00767898093598
 32
0.0
 13
2.375839062297454
 23
24.00767898093598
 33
0.0
  0
MTEXT
  5
680
330
5A5
100
AcDbEntity
  8
DIM
 62
     0
100
AcDbMText
 10
2.37583906229745
 20
16.54267898093598
 30
0.0
 40
0.5
 41
0.0
 71
     5
 72
     1
  1
\A1;F
  7
TXT
 73
     1
 44
1.0
  0
POINT
  5
681
330
5A5
100
AcDbEntity
  8
DEFPOINTS
 62
     0
100
AcDbPoint
 10
7.389804124437283
 20
9.077678980935985
 30
0.0
  0
POINT
  5
682
330
5A5
100
AcDbEntity
  8
DEFPOINTS
 62
     0
100
AcDbPoint
 10
7.389804124437283
 20
24.00767898093598
 30
0.0
  0
POINT
  5
683
330
5A5
100
AcDbEntity
  8
DEFPOINTS
 62
     0
100
AcDbPoint
 10
2.375839062297454
 20
24.00767898093598
 30
0.0
  0
ENDBLK
  5
5B1
330
5A5
100
AcDbEntity
  8
0
100
AcDbBlockEnd
  0
BLOCK
  5
5BD
330
5B2
100
AcDbEntity
  8
0
100
AcDbBlockBegin
  2
*D11
 70
     1
 10
0.0
 20
0.0
 30
0.0
  3
*D11
  1

  0
LINE
  5
684
330
5B2
100
AcDbEntity
  8
DIM
 62
     0
370
    -2
100
AcDbLine
 10
1.890655969428475
 20
55.81412315438793
 30
0.0
 11
1.890655969428475
 21
57.00060514712899
 31
0.0
  0
LINE
  5
685
330
5B2
100
AcDbEntity
  8
DIM
 62
     0
370
    -2
100
AcDbLine
 10
12.95465596942847
 20
55.81412315438793
 30
0.0
 11
12.95465596942847
 21
57.00060514712899
 31
0.0
  0
LINE
  5
686
330
5B2
100
AcDbEntity
  8
DIM
 62
     0
370
    -2
100
AcDbLine
 10
2.610655969428475
 20
56.628605147129
 30
0.0
 11
6.937655969428472
 21
56.628605147129
 31
0.0
  0
LINE
  5
687
330
5B2
100
AcDbEntity
  8
DIM
 62
     0
370
    -2
100
AcDbLine
 10
12.23465596942846
 20
56.628605147129
 30
0.0
 11
7.907655969428472
 21
56.628605147129
 31
0.0
  0
SOLID
  5
688
330
5B2
100
AcDbEntity
  8
DIM
 62
     0
100
AcDbTrace
 10
2.610655969428475
 20
56.74860514712899
 30
0.0
 11
2.610655969428475
 21
56.50860514712899
 31
0.0
 12
1.890655969428475
 22
56.628605147129
 32
0.0
 13
1.890655969428475
 23
56.628605147129
 33
0.0
  0
SOLID
  5
689
330
5B2
100
AcDbEntity
  8
DIM
 62
     0
100
AcDbTrace
 10
12.23465596942846
 20
56.74860514712899
 30
0.0
 11
12.23465596942846
 21
56.50860514712899
 31
0.0
 12
12.95465596942847
 22
56.628605147129
 32
0.0
 13
12.95465596942847
 23
56.628605147129
 33
0.0
  0
MTEXT
  5
68A
330
5B2
100
AcDbEntity
  8
DIM
 62
     0
100
AcDbMText
 10
7.422655969428472
 20
56.628605147129
 30
0.0
 40
0.5
 41
0.0
 71
     5
 72
     1
  1
\A1;R
  7
TXT
 73
     1
 44
1.0
  0
POINT
  5
68B
330
5B2
100
AcDbEntity
  8
DEFPOINTS
 62
     0
100
AcDbPoint
 10
1.890655969428475
 20
55.56212315438793
 30
0.0
  0
POINT
  5
68C
330
5B2
100
AcDbEntity
  8
DEFPOINTS
 62
     0
100
AcDbPoint
 10
12.95465596942847
 20
55.56212315438793
 30
0.0
  0
POINT
  5
68D
330
5B2
100
AcDbEntity
  8
DEFPOINTS
 62
     0
100
AcDbPoint
 10
12.95465596942847
 20
56.628605147129
 30
0.0
  0
ENDBLK
  5
5BE
330
5B2
100
AcDbEntity
  8
0
100
AcDbBlockEnd
  0
BLOCK
  5
5CA
330
5BF
100
AcDbEntity
  8
0
100
AcDbBlockBegin
  2
*D12
 70
     1
 10
0.0
 20
0.0
 30
0.0
  3
*D12
  1

  0
LINE
  5
68E
330
5BF
100
AcDbEntity
  8
DIM
 62
     0
370
    -2
100
AcDbLine
 10
24.29370327967006
 20
30.06074491358782
 30
0.0
 11
29.37975743602362
 21
30.06074491358782
 31
0.0
  0
LINE
  5
68F
330
5BF
100
AcDbEntity
  8
DIM
 62
     0
370
    -2
100
AcDbLine
 10
24.29370327967006
 20
45.06074491358783
 30
0.0
 11
29.37975743602362
 21
45.06074491358783
 31
0.0
  0
LINE
  5
690
330
5BF
100
AcDbEntity
  8
DIM
 62
     0
370
    -2
100
AcDbLine
 10
29.00775743602362
 20
30.78074491358782
 30
0.0
 11
29.00775743602362
 21
36.95074491358783
 31
0.0
  0
LINE
  5
691
330
5BF
100
AcDbEntity
  8
DIM
 62
     0
370
    -2
100
AcDbLine
 10
29.00775743602362
 20
44.34074491358783
 30
0.0
 11
29.00775743602362
 21
38.17074491358783
 31
0.0
  0
SOLID
  5
692
330
5BF
100
AcDbEntity
  8
DIM
 62
     0
100
AcDbTrace
 10
28.88775743602362
 20
30.78074491358782
 30
0.0
 11
29.12775743602362
 21
30.78074491358782
 31
0.0
 12
29.00775743602362
 22
30.06074491358782
 32
0.0
 13
29.00775743602362
 23
30.06074491358782
 33
0.0
  0
SOLID
  5
693
330
5BF
100
AcDbEntity
  8
DIM
 62
     0
100
AcDbTrace
 10
28.88775743602362
 20
44.34074491358783
 30
0.0
 11
29.12775743602362
 21
44.34074491358783
 31
0.0
 12
29.00775743602362
 22
45.06074491358783
 32
0.0
 13
29.00775743602362
 23
45.06074491358783
 33
0.0
  0
MTEXT
  5
694
330
5BF
100
AcDbEntity
  8
DIM
 62
     0
100
AcDbMText
 10
29.00775743602361
 20
37.56074491358784
 30
0.0
 40
0.5
 41
0.0
 71
     5
 72
     1
  1
\A1;N
  7
TXT
 73
     1
 44
1.0
  0
POINT
  5
695
330
5BF
100
AcDbEntity
  8
DEFPOINTS
 62
     0
100
AcDbPoint
 10
24.04170327967006
 20
30.06074491358782
 30
0.0
  0
POINT
  5
696
330
5BF
100
AcDbEntity
  8
DEFPOINTS
 62
     0
100
AcDbPoint
 10
24.04170327967006
 20
45.06074491358783
 30
0.0
  0
POINT
  5
697
330
5BF
100
AcDbEntity
  8
DEFPOINTS
 62
     0
100
AcDbPoint
 10
29.00775743602362
 20
45.06074491358783
 30
0.0
  0
ENDBLK
  5
5CB
330
5BF
100
AcDbEntity
  8
0
100
AcDbBlockEnd
  0
BLOCK
  5
5D7
330
5CC
100
AcDbEntity
  8
0
100
AcDbBlockBegin
  2
*D13
 70
     1
 10
0.0
 20
0.0
 30
0.0
  3
*D13
  1

  0
LINE
  5
698
330
5CC
100
AcDbEntity
  8
DIM
 62
     0
370
    -2
100
AcDbLine
 10
8.048429124437285
 20
14.41717898093598
 30
0.0
 11
5.375839062297457
 21
14.41717898093598
 31
0.0
  0
LINE
  5
699
330
5CC
100
AcDbEntity
  8
DIM
 62
     0
370
    -2
100
AcDbLine
 10
8.048429124437285
 20
18.66817898093597
 30
0.0
 11
5.375839062297458
 21
18.66817898093598
 31
0.0
  0
LINE
  5
69A
330
5CC
100
AcDbEntity
  8
DIM
 62
     0
370
    -2
100
AcDbLine
 10
5.747839062297457
 20
15.13717898093598
 30
0.0
 11
5.747839062297457
 21
15.93267898093598
 31
0.0
  0
LINE
  5
69B
330
5CC
100
AcDbEntity
  8
DIM
 62
     0
370
    -2
100
AcDbLine
 10
5.747839062297457
 20
17.94817898093598
 30
0.0
 11
5.747839062297457
 21
17.15267898093598
 31
0.0
  0
SOLID
  5
69C
330
5CC
100
AcDbEntity
  8
DIM
 62
     0
100
AcDbTrace
 10
5.627839062297457
 20
15.13717898093598
 30
0.0
 11
5.867839062297457
 21
15.13717898093598
 31
0.0
 12
5.747839062297457
 22
14.41717898093598
 32
0.0
 13
5.747839062297457
 23
14.41717898093598
 33
0.0
  0
SOLID
  5
69D
330
5CC
100
AcDbEntity
  8
DIM
 62
     0
100
AcDbTrace
 10
5.627839062297457
 20
17.94817898093598
 30
0.0
 11
5.867839062297457
 21
17.94817898093598
 31
0.0
 12
5.747839062297458
 22
18.66817898093598
 32
0.0
 13
5.747839062297458
 23
18.66817898093598
 33
0.0
  0
MTEXT
  5
69E
330
5CC
100
AcDbEntity
  8
DIM
 62
     0
100
AcDbMText
 10
5.747839062297455
 20
16.54267898093598
 30
0.0
 40
0.5
 41
0.0
 71
     5
 72
     1
  1
\A1;J
  7
TXT
 73
     1
 44
1.0
  0
POINT
  5
69F
330
5CC
100
AcDbEntity
  8
DEFPOINTS
 62
     0
100
AcDbPoint
 10
8.300429124437286
 20
14.41717898093598
 30
0.0
  0
POINT
  5
6A0
330
5CC
100
AcDbEntity
  8
DEFPOINTS
 62
     0
100
AcDbPoint
 10
8.300429124437286
 20
18.66817898093597
 30
0.0
  0
POINT
  5
6A1
330
5CC
100
AcDbEntity
  8
DEFPOINTS
 62
     0
100
AcDbPoint
 10
5.747839062297458
 20
18.66817898093598
 30
0.0
  0
ENDBLK
  5
5D8
330
5CC
100
AcDbEntity
  8
0
100
AcDbBlockEnd
  0
BLOCK
  5
5E4
330
5D9
100
AcDbEntity
  8
0
100
AcDbBlockBegin
  2
*D14
 70
     1
 10
0.0
 20
0.0
 30
0.0
  3
*D14
  1

  0
LINE
  5
6A2
330
5D9
100
AcDbEntity
  8
DIM
 62
     0
370
    -2
100
AcDbLine
 10
17.014475719778
 20
45.14424491358783
 30
0.0
 11
15.14862351264745
 21
45.14424491358783
 31
0.0
  0
LINE
  5
6A3
330
5D9
100
AcDbEntity
  8
DIM
 62
     0
370
    -2
100
AcDbLine
 10
17.014475719778
 20
29.97724491358782
 30
0.0
 11
15.14862351264745
 21
29.97724491358782
 31
0.0
  0
LINE
  5
6A4
330
5D9
100
AcDbEntity
  8
DIM
 62
     0
370
    -2
100
AcDbLine
 10
15.52062351264745
 20
44.42424491358784
 30
0.0
 11
15.52062351264745
 21
38.17074491358783
 31
0.0
  0
LINE
  5
6A5
330
5D9
100
AcDbEntity
  8
DIM
 62
     0
370
    -2
100
AcDbLine
 10
15.52062351264745
 20
30.69724491358782
 30
0.0
 11
15.52062351264745
 21
36.95074491358783
 31
0.0
  0
SOLID
  5
6A6
330
5D9
100
AcDbEntity
  8
DIM
 62
     0
100
AcDbTrace
 10
15.40062351264745
 20
44.42424491358784
 30
0.0
 11
15.64062351264745
 21
44.42424491358784
 31
0.0
 12
15.52062351264745
 22
45.14424491358783
 32
0.0
 13
15.52062351264745
 23
45.14424491358783
 33
0.0
  0
SOLID
  5
6A7
330
5D9
100
AcDbEntity
  8
DIM
 62
     0
100
AcDbTrace
 10
15.40062351264745
 20
30.69724491358782
 30
0.0
 11
15.64062351264745
 21
30.69724491358782
 31
0.0
 12
15.52062351264745
 22
29.97724491358782
 32
0.0
 13
15.52062351264745
 23
29.97724491358782
 33
0.0
  0
MTEXT
  5
6A8
330
5D9
100
AcDbEntity
  8
DIM
 62
     0
100
AcDbMText
 10
15.52062351264744
 20
37.56074491358783
 30
0.0
 40
0.5
 41
0.0
 71
     5
 72
     1
  1
\A1;M
  7
TXT
 73
     1
 44
1.0
  0
POINT
  5
6A9
330
5D9
100
AcDbEntity
  8
DEFPOINTS
 62
     0
100
AcDbPoint
 10
17.266475719778
 20
45.14424491358783
 30
0.0
  0
POINT
  5
6AA
330
5D9
100
AcDbEntity
  8
DEFPOINTS
 62
     0
100
AcDbPoint
 10
17.266475719778
 20
29.97724491358782
 30
0.0
  0
POINT
  5
6AB
330
5D9
100
AcDbEntity
  8
DEFPOINTS
 62
     0
100
AcDbPoint
 10
15.52062351264745
 20
29.97724491358782
 30
0.0
  0
ENDBLK
  5
5E5
330
5D9
100
AcDbEntity
  8
0
100
AcDbBlockEnd
  0
BLOCK
  5
5F1
330
5E6
100
AcDbEntity
  8
0
100
AcDbBlockBegin
  2
*D15
 70
     1
 10
0.0
 20
0.0
 30
0.0
  3
*D15
  1

  0
LINE
  5
6AC
330
5E6
100
AcDbEntity
  8
DIM
 62
     0
370
    -2
100
AcDbLine
 10
18.22620327967003
 20
45.64836991358783
 30
0.0
 11
18.22620327967003
 21
47.42874491358783
 31
0.0
  0
LINE
  5
6AD
330
5E6
100
AcDbEntity
  8
DIM
 62
     0
370
    -2
100
AcDbLine
 10
17.04095327967003
 20
45.16023859596315
 30
0.0
 11
17.04095327967003
 21
47.42874491358783
 31
0.0
  0
LINE
  5
6AE
330
5E6
100
AcDbEntity
  8
DIM
 62
     0
370
    -2
100
AcDbLine
 10
18.94620327967003
 20
47.05674491358784
 30
0.0
 11
19.66620327967003
 21
47.05674491358784
 31
0.0
  0
LINE
  5
6AF
330
5E6
100
AcDbEntity
  8
DIM
 62
     0
370
    -2
100
AcDbLine
 10
16.32095327967004
 20
47.05674491358784
 30
0.0
 11
15.60095327967004
 21
47.05674491358784
 31
0.0
  0
SOLID
  5
6B0
330
5E6
100
AcDbEntity
  8
DIM
 62
     0
100
AcDbTrace
 10
18.94620327967003
 20
47.17674491358783
 30
0.0
 11
18.94620327967003
 21
46.93674491358783
 31
0.0
 12
18.22620327967003
 22
47.05674491358784
 32
0.0
 13
18.22620327967003
 23
47.05674491358784
 33
0.0
  0
SOLID
  5
6B1
330
5E6
100
AcDbEntity
  8
DIM
 62
     0
100
AcDbTrace
 10
16.32095327967004
 20
47.17674491358783
 30
0.0
 11
16.32095327967004
 21
46.93674491358783
 31
0.0
 12
17.04095327967003
 22
47.05674491358784
 32
0.0
 13
17.04095327967003
 23
47.05674491358784
 33
0.0
  0
MTEXT
  5
6B2
330
5E6
100
AcDbEntity
  8
DIM
 62
     0
100
AcDbMText
 10
17.63357827967003
 20
47.05674491358784
 30
0.0
 40
0.5
 41
0.0
 71
     5
 72
     1
  1
\A1;L
  7
TXT
 73
     1
 44
1.0
  0
POINT
  5
6B3
330
5E6
100
AcDbEntity
  8
DEFPOINTS
 62
     0
100
AcDbPoint
 10
18.22620327967003
 20
45.39636991358782
 30
0.0
  0
POINT
  5
6B4
330
5E6
100
AcDbEntity
  8
DEFPOINTS
 62
     0
100
AcDbPoint
 10
17.04095327967003
 20
44.90823859596314
 30
0.0
  0
POINT
  5
6B5
330
5E6
100
AcDbEntity
  8
DEFPOINTS
 62
     0
100
AcDbPoint
 10
17.04095327967003
 20
47.05674491358784
 30
0.0
  0
ENDBLK
  5
5F2
330
5E6
100
AcDbEntity
  8
0
100
AcDbBlockEnd
  0
BLOCK
  5
5FE
330
5F3
100
AcDbEntity
  8
0
100
AcDbBlockBegin
  2
*D16
 70
     1
 10
0.0
 20
0.0
 30
0.0
  3
*D16
  1

  0
LINE
  5
6B6
330
5F3
100
AcDbEntity
  8
DIM
 62
     0
370
    -2
100
AcDbLine
 10
13.04315596942847
 20
48.5348955944959
 30
0.0
 11
13.04315596942847
 21
47.13945941028391
 31
0.0
  0
LINE
  5
6B7
330
5F3
100
AcDbEntity
  8
DIM
 62
     0
370
    -2
100
AcDbLine
 10
1.802155969428472
 20
48.5348955944959
 30
0.0
 11
1.802155969428472
 21
47.13945941028391
 31
0.0
  0
LINE
  5
6B8
330
5F3
100
AcDbEntity
  8
DIM
 62
     0
370
    -2
100
AcDbLine
 10
12.32315596942847
 20
47.51145941028392
 30
0.0
 11
7.907655969428472
 21
47.51145941028392
 31
0.0
  0
LINE
  5
6B9
330
5F3
100
AcDbEntity
  8
DIM
 62
     0
370
    -2
100
AcDbLine
 10
2.522155969428472
 20
47.51145941028392
 30
0.0
 11
6.937655969428472
 21
47.51145941028392
 31
0.0
  0
SOLID
  5
6BA
330
5F3
100
AcDbEntity
  8
DIM
 62
     0
100
AcDbTrace
 10
12.32315596942847
 20
47.63145941028391
 30
0.0
 11
12.32315596942847
 21
47.39145941028392
 31
0.0
 12
13.04315596942847
 22
47.51145941028392
 32
0.0
 13
13.04315596942847
 23
47.51145941028392
 33
0.0
  0
SOLID
  5
6BB
330
5F3
100
AcDbEntity
  8
DIM
 62
     0
100
AcDbTrace
 10
2.522155969428472
 20
47.63145941028391
 30
0.0
 11
2.522155969428472
 21
47.39145941028392
 31
0.0
 12
1.802155969428472
 22
47.51145941028392
 32
0.0
 13
1.802155969428472
 23
47.51145941028392
 33
0.0
  0
MTEXT
  5
6BC
330
5F3
100
AcDbEntity
  8
DIM
 62
     0
100
AcDbMText
 10
7.422655969428472
 20
47.51145941028392
 30
0.0
 40
0.5
 41
0.0
 71
     5
 72
     1
  1
\A1;P
  7
TXT
 73
     1
 44
1.0
  0
POINT
  5
6BD
330
5F3
100
AcDbEntity
  8
DEFPOINTS
 62
     0
100
AcDbPoint
 10
13.04315596942847
 20
48.7868955944959
 30
0.0
  0
POINT
  5
6BE
330
5F3
100
AcDbEntity
  8
DEFPOINTS
 62
     0
100
AcDbPoint
 10
1.802155969428472
 20
48.7868955944959
 30
0.0
  0
POINT
  5
6BF
330
5F3
100
AcDbEntity
  8
DEFPOINTS
 62
     0
100
AcDbPoint
 10
1.802155969428472
 20
47.51145941028392
 30
0.0
  0
ENDBLK
  5
5FF
330
5F3
100
AcDbEntity
  8
0
100
AcDbBlockEnd
  0
BLOCK
  5
60B
330
600
100
AcDbEntity
  8
0
100
AcDbBlockBegin
  2
*D17
 70
     1
 10
0.0
 20
0.0
 30
0.0
  3
*D17
  1

  0
LINE
  5
6C0
330
600
100
AcDbEntity
  8
DIM
 62
     0
370
    -2
100
AcDbLine
 10
18.22620327967003
 20
45.6877449135878
 30
0.0
 11
18.22620327967003
 21
47.42874491358783
 31
0.0
  0
LINE
  5
6C1
330
600
100
AcDbEntity
  8
DIM
 62
     0
370
    -2
100
AcDbLine
 10
24.12145327967003
 20
45.01836991358781
 30
0.0
 11
24.12145327967003
 21
47.42874491358783
 31
0.0
  0
LINE
  5
6C2
330
600
100
AcDbEntity
  8
DIM
 62
     0
370
    -2
100
AcDbLine
 10
18.94620327967003
 20
47.05674491358784
 30
0.0
 11
20.68882827967003
 21
47.05674491358784
 31
0.0
  0
LINE
  5
6C3
330
600
100
AcDbEntity
  8
DIM
 62
     0
370
    -2
100
AcDbLine
 10
23.40145327967003
 20
47.05674491358784
 30
0.0
 11
21.65882827967003
 21
47.05674491358784
 31
0.0
  0
SOLID
  5
6C4
330
600
100
AcDbEntity
  8
DIM
 62
     0
100
AcDbTrace
 10
18.94620327967003
 20
47.17674491358783
 30
0.0
 11
18.94620327967003
 21
46.93674491358783
 31
0.0
 12
18.22620327967003
 22
47.05674491358784
 32
0.0
 13
18.22620327967003
 23
47.05674491358784
 33
0.0
  0
SOLID
  5
6C5
330
600
100
AcDbEntity
  8
DIM
 62
     0
100
AcDbTrace
 10
23.40145327967003
 20
47.17674491358783
 30
0.0
 11
23.40145327967003
 21
46.93674491358783
 31
0.0
 12
24.12145327967003
 22
47.05674491358784
 32
0.0
 13
24.12145327967003
 23
47.05674491358784
 33
0.0
  0
MTEXT
  5
6C6
330
600
100
AcDbEntity
  8
DIM
 62
     0
100
AcDbMText
 10
21.17382827967003
 20
47.05674491358784
 30
0.0
 40
0.5
 41
0.0
 71
     5
 72
     1
  1
\A1;K
  7
TXT
 73
     1
 44
1.0
  0
POINT
  5
6C7
330
600
100
AcDbEntity
  8
DEFPOINTS
 62
     0
100
AcDbPoint
 10
18.22620327967003
 20
45.4357449135878
 30
0.0
  0
POINT
  5
6C8
330
600
100
AcDbEntity
  8
DEFPOINTS
 62
     0
100
AcDbPoint
 10
24.12145327967003
 20
44.76636991358781
 30
0.0
  0
POINT
  5
6C9
330
600
100
AcDbEntity
  8
DEFPOINTS
 62
     0
100
AcDbPoint
 10
24.12145327967003
 20
47.05674491358784
 30
0.0
  0
ENDBLK
  5
60C
330
600
100
AcDbEntity
  8
0
100
AcDbBlockEnd
  0
BLOCK
  5
618
330
60D
100
AcDbEntity
  8
0
100
AcDbBlockBegin
  2
*D18
 70
     1
 10
0.0
 20
0.0
 30
0.0
  3
*D18
  1

  0
LINE
  5
6CA
330
60D
100
AcDbEntity
  8
DIM
 62
     0
370
    -2
100
AcDbLine
 10
23.89170327967005
 20
32.38592013437696
 30
0.0
 11
23.89170327967005
 21
32.50592013437696
 31
0.0
  0
LINE
  5
6CB
330
60D
100
AcDbEntity
  8
DIM
 62
     0
370
    -2
100
AcDbLine
 10
24.04170327967006
 20
32.38592013437696
 30
0.0
 11
24.04170327967006
 21
32.50592013437696
 31
0.0
  0
LINE
  5
6CC
330
60D
100
AcDbEntity
  8
DIM
 62
     0
370
    -2
100
AcDbLine
 10
23.17170327967005
 20
32.13392013437696
 30
0.0
 11
22.45170327967005
 21
32.13392013437696
 31
0.0
  0
LINE
  5
6CD
330
60D
100
AcDbEntity
  8
DIM
 62
     0
370
    -2
100
AcDbLine
 10
24.76170327967006
 20
32.13392013437696
 30
0.0
 11
25.48170327967006
 21
32.13392013437696
 31
0.0
  0
SOLID
  5
6CE
330
60D
100
AcDbEntity
  8
DIM
 62
     0
100
AcDbTrace
 10
23.17170327967005
 20
32.25392013437696
 30
0.0
 11
23.17170327967005
 21
32.01392013437696
 31
0.0
 12
23.89170327967005
 22
32.13392013437696
 32
0.0
 13
23.89170327967005
 23
32.13392013437696
 33
0.0
  0
SOLID
  5
6CF
330
60D
100
AcDbEntity
  8
DIM
 62
     0
100
AcDbTrace
 10
24.76170327967006
 20
32.25392013437696
 30
0.0
 11
24.76170327967006
 21
32.01392013437696
 31
0.0
 12
24.04170327967006
 22
32.13392013437696
 32
0.0
 13
24.04170327967006
 23
32.13392013437696
 33
0.0
  0
MTEXT
  5
6D0
330
60D
100
AcDbEntity
  8
DIM
 62
     0
100
AcDbMText
 10
27.09170327967006
 20
32.13392013437696
 30
0.0
 40
0.5
 41
0.0
 71
     5
 72
     1
  1
\A1;0.150 [4]
  7
TXT
 73
     1
 44
1.0
  0
POINT
  5
6D1
330
60D
100
AcDbEntity
  8
DEFPOINTS
 62
     0
100
AcDbPoint
 10
23.89170327967005
 20
32.13392013437696
 30
0.0
  0
POINT
  5
6D2
330
60D
100
AcDbEntity
  8
DEFPOINTS
 62
     0
100
AcDbPoint
 10
24.04170327967006
 20
32.13392013437696
 30
0.0
  0
POINT
  5
6D3
330
60D
100
AcDbEntity
  8
DEFPOINTS
 62
     0
100
AcDbPoint
 10
24.04170327967006
 20
32.13392013437696
 30
0.0
  0
ENDBLK
  5
619
330
60D
100
AcDbEntity
  8
0
100
AcDbBlockEnd
  0
BLOCK
  5
625
330
61A
100
AcDbEntity
  8
0
100
AcDbBlockBegin
  2
*D19
 70
     1
 10
0.0
 20
0.0
 30
0.0
  3
*D19
  1

  0
LINE
  5
6D4
330
61A
100
AcDbEntity
  8
DIM
 62
     0
370
    -2
100
AcDbLine
 10
23.51370327967005
 20
34.93090385099545
 30
0.0
 11
23.51370327967005
 21
33.95126617801389
 31
0.0
  0
LINE
  5
6D5
330
61A
100
AcDbEntity
  8
DIM
 62
     0
370
    -2
100
AcDbLine
 10
23.89170327967005
 20
34.22063641165363
 30
0.0
 11
23.89170327967005
 21
33.95126617801389
 31
0.0
  0
LINE
  5
6D6
330
61A
100
AcDbEntity
  8
DIM
 62
     0
370
    -2
100
AcDbLine
 10
22.79370327967005
 20
34.32326617801388
 30
0.0
 11
22.07370327967005
 21
34.32326617801388
 31
0.0
  0
LINE
  5
6D7
330
61A
100
AcDbEntity
  8
DIM
 62
     0
370
    -2
100
AcDbLine
 10
24.61170327967005
 20
34.32326617801388
 30
0.0
 11
25.33170327967005
 21
34.32326617801388
 31
0.0
  0
SOLID
  5
6D8
330
61A
100
AcDbEntity
  8
DIM
 62
     0
100
AcDbTrace
 10
22.79370327967005
 20
34.44326617801388
 30
0.0
 11
22.79370327967005
 21
34.20326617801389
 31
0.0
 12
23.51370327967005
 22
34.32326617801388
 32
0.0
 13
23.51370327967005
 23
34.32326617801388
 33
0.0
  0
SOLID
  5
6D9
330
61A
100
AcDbEntity
  8
DIM
 62
     0
100
AcDbTrace
 10
24.61170327967005
 20
34.44326617801388
 30
0.0
 11
24.61170327967005
 21
34.20326617801389
 31
0.0
 12
23.89170327967005
 22
34.32326617801388
 32
0.0
 13
23.89170327967005
 23
34.32326617801388
 33
0.0
  0
MTEXT
  5
6DA
330
61A
100
AcDbEntity
  8
DIM
 62
     0
100
AcDbMText
 10
27.12920327967005
 20
34.32326617801388
 30
0.0
 40
0.5
 41
0.0
 71
     5
 72
     1
  1
\A1;0.378 [10]
  7
TXT
 73
     1
 44
1.0
  0
POINT
  5
6DB
330
61A
100
AcDbEntity
  8
DEFPOINTS
 62
     0
100
AcDbPoint
 10
23.51370327967005
 20
35.18290385099545
 30
0.0
  0
POINT
  5
6DC
330
61A
100
AcDbEntity
  8
DEFPOINTS
 62
     0
100
AcDbPoint
 10
23.89170327967005
 20
34.47263641165363
 30
0.0
  0
POINT
  5
6DD
330
61A
100
AcDbEntity
  8
DEFPOINTS
 62
     0
100
AcDbPoint
 10
23.89170327967005
 20
34.32326617801388
 30
0.0
  0
ENDBLK
  5
626
330
61A
100
AcDbEntity
  8
0
100
AcDbBlockEnd
  0
BLOCK
  5
632
330
627
100
AcDbEntity
  8
0
100
AcDbBlockBegin
  2
*D20
 70
     1
 10
0.0
 20
0.0
 30
0.0
  3
*D20
  1

  0
LINE
  5
6DE
330
627
100
AcDbEntity
  8
DIM
 62
     0
370
    -2
100
AcDbLine
 10
24.04170327967006
 20
45.31274491358783
 30
0.0
 11
24.04170327967006
 21
46.42874491358783
 31
0.0
  0
LINE
  5
6DF
330
627
100
AcDbEntity
  8
DIM
 62
     0
370
    -2
100
AcDbLine
 10
24.12145327967003
 20
45.01836991358781
 30
0.0
 11
24.12145327967003
 21
46.42874491358783
 31
0.0
  0
LINE
  5
6E0
330
627
100
AcDbEntity
  8
DIM
 62
     0
370
    -2
100
AcDbLine
 10
23.32170327967006
 20
46.05674491358783
 30
0.0
 11
22.60170327967006
 21
46.05674491358783
 31
0.0
  0
LINE
  5
6E1
330
627
100
AcDbEntity
  8
DIM
 62
     0
370
    -2
100
AcDbLine
 10
24.84145327967003
 20
46.05674491358783
 30
0.0
 11
25.56145327967003
 21
46.05674491358783
 31
0.0
  0
SOLID
  5
6E2
330
627
100
AcDbEntity
  8
DIM
 62
     0
100
AcDbTrace
 10
23.32170327967006
 20
46.17674491358783
 30
0.0
 11
23.32170327967006
 21
45.93674491358783
 31
0.0
 12
24.04170327967006
 22
46.05674491358783
 32
0.0
 13
24.04170327967006
 23
46.05674491358783
 33
0.0
  0
SOLID
  5
6E3
330
627
100
AcDbEntity
  8
DIM
 62
     0
100
AcDbTrace
 10
24.84145327967003
 20
46.17674491358783
 30
0.0
 11
24.84145327967003
 21
45.93674491358783
 31
0.0
 12
24.12145327967003
 22
46.05674491358783
 32
0.0
 13
24.12145327967003
 23
46.05674491358783
 33
0.0
  0
MTEXT
  5
6E4
330
627
100
AcDbEntity
  8
DIM
 62
     0
100
AcDbMText
 10
27.20270327967003
 20
46.05674491358783
 30
0.0
 40
0.5
 41
0.0
 71
     5
 72
     1
  1
\A1;0.080 [2]
  7
TXT
 73
     1
 44
1.0
  0
POINT
  5
6E5
330
627
100
AcDbEntity
  8
DEFPOINTS
 62
     0
100
AcDbPoint
 10
24.04170327967006
 20
45.06074491358783
 30
0.0
  0
POINT
  5
6E6
330
627
100
AcDbEntity
  8
DEFPOINTS
 62
     0
100
AcDbPoint
 10
24.12145327967003
 20
44.76636991358781
 30
0.0
  0
POINT
  5
6E7
330
627
100
AcDbEntity
  8
DEFPOINTS
 62
     0
100
AcDbPoint
 10
24.12145327967003
 20
46.05674491358783
 30
0.0
  0
ENDBLK
  5
633
330
627
100
AcDbEntity
  8
0
100
AcDbBlockEnd
  0
ENDSEC
  0
SECTION
  2
ENTITIES
  0
LINE
  5
1C7
330
1E
100
AcDbEntity
  8
CENTER
100
AcDbLine
 10
6.485875027575218
 20
16.54267898093598
 30
0.0
 11
19.0400364449451
 21
16.54267898093598
 31
0.0
  0
LINE
  5
1C8
330
1E
100
AcDbEntity
  8
CENTER
100
AcDbLine
 10
7.422655969428469
 20
48.12354951849228
 30
0.0
 11
7.422655969428469
 21
55.94717441649052
 31
0.0
  0
DIMENSION
  5
1C9
330
1E
100
AcDbEntity
  8
DIM
100
AcDbDimension
  2
*D3
 10
1.251839062297456
 20
8.671678980935981
 30
0.0
 11
1.251839062297455
 21
16.54267898093598
 31
0.0
 70
    32
  1
E
 71
     5
 42
15.74200000000001
  3
23NSTD
100
AcDbAlignedDimension
 13
7.333929124437311
 23
24.41367898093599
 33
0.0
 14
7.333929124437311
 24
8.671678980935979
 34
0.0
 50
90.0
100
AcDbRotatedDimension
  0
DIMENSION
  5
1CA
330
1E
100
AcDbEntity
  8
DIM
100
AcDbDimension
  2
*D4
 10
8.300429124437286
 20
25.4305553092935
 30
0.0
 11
12.79692912443729
 21
25.4305553092935
 31
0.0
 70
    32
  1
D
 71
     5
 42
8.993000000000009
  3
23NSTD
100
AcDbAlignedDimension
 13
17.29342912443729
 23
22.94767898093598
 33
0.0
 14
8.300429124437286
 24
22.94767898093598
 34
0.0
100
AcDbRotatedDimension
  0
DIMENSION
  5
1CB
330
1E
100
AcDbEntity
  8
DIM
100
AcDbDimension
  2
*D5
 10
7.835679124437284
 20
26.4305553092935
 30
0.0
 11
12.79692912443728
 21
26.4305553092935
 31
0.0
 70
    32
  1
C
 71
     5
 42
9.922500000000006
  3
23NSTD
100
AcDbAlignedDimension
 13
17.75817912443729
 23
23.46167898093594
 33
0.0
 14
7.835679124437284
 24
23.46167898093594
 34
0.0
100
AcDbRotatedDimension
  0
DIMENSION
  5
1CC
330
1E
100
AcDbEntity
  8
DIM
100
AcDbDimension
  2
*D6
 10
7.327804124437285
 20
27.4305553092935
 30
0.0
 11
12.79692912443729
 21
27.4305553092935
 31
0.0
 70
    32
  1
B
 71
     5
 42
10.93825000000002
  3
23NSTD
100
AcDbAlignedDimension
 13
18.26605412443731
 23
23.94567898093598
 33
0.0
 14
7.327804124437285
 24
23.94567898093598
 34
0.0
100
AcDbRotatedDimension
  0
DIMENSION
  5
1CD
330
1E
100
AcDbEntity
  8
DIM
100
AcDbDimension
  2
*D7
 10
6.900929124437304
 20
28.4305553092935
 30
0.0
 11
12.79692912443729
 21
28.4305553092935
 31
0.0
 70
    32
  1
A
 71
     5
 42
11.79199999999997
  3
23NSTD
100
AcDbAlignedDimension
 13
18.69292912443727
 23
23.98067898093598
 33
0.0
 14
6.900929124437304
 24
23.98067898093598
 34
0.0
100
AcDbRotatedDimension
  0
DIMENSION
  5
1CE
330
1E
100
AcDbEntity
  8
DIM
100
AcDbDimension
  2
*D8
 10
4.623839062297459
 20
22.94767898093598
 30
0.0
 11
4.623839062297455
 21
16.54267898093598
 31
0.0
 70
    32
  1
H
 71
     5
 42
12.81
  3
23NSTD
100
AcDbAlignedDimension
 13
8.300429124437286
 23
10.13767898093598
 33
0.0
 14
8.300429124437286
 24
22.94767898093598
 34
0.0
 50
90.0
100
AcDbRotatedDimension
  0
DIMENSION
  5
1CF
330
1E
100
AcDbEntity
  8
DIM
100
AcDbDimension
  2
*D9
 10
3.499839062297457
 20
23.46167898093594
 30
0.0
 11
3.499839062297452
 21
16.54267898093596
 31
0.0
 70
    32
  1
G
 71
     5
 42
13.83799999999996
  3
23NSTD
100
AcDbAlignedDimension
 13
7.835679124437284
 23
9.623678980935977
 33
0.0
 14
7.835679124437284
 24
23.46167898093594
 34
0.0
 50
90.0
100
AcDbRotatedDimension
  0
DIMENSION
  5
1D0
330
1E
100
AcDbEntity
  8
DIM
100
AcDbDimension
  2
*D10
 10
2.375839062297454
 20
24.00767898093598
 30
0.0
 11
2.37583906229745
 21
16.54267898093598
 31
0.0
 70
    32
  1
F
 71
     5
 42
14.92999999999999
  3
23NSTD
100
AcDbAlignedDimension
 13
7.389804124437283
 23
9.077678980935985
 33
0.0
 14
7.389804124437283
 24
24.00767898093598
 34
0.0
 50
90.0
100
AcDbRotatedDimension
  0
DIMENSION
  5
1D1
330
1E
100
AcDbEntity
  8
DIM
100
AcDbDimension
  2
*D11
 10
12.95465596942847
 20
56.628605147129
 30
0.0
 11
7.422655969428472
 21
56.628605147129
 31
0.0
 70
    32
  1
R
 71
     5
 42
11.06399999999999
  3
23NSTD
100
AcDbAlignedDimension
 13
1.890655969428475
 23
55.56212315438793
 33
0.0
 14
12.95465596942847
 24
55.56212315438793
 34
0.0
100
AcDbRotatedDimension
  0
DIMENSION
  5
1D2
330
1E
100
AcDbEntity
  8
DIM
100
AcDbDimension
  2
*D12
 10
29.00775743602362
 20
45.06074491358783
 30
0.0
 11
29.00775743602361
 21
37.56074491358784
 31
0.0
 70
    32
  1
N
 71
     5
 42
15.0
  3
23NSTD
100
AcDbAlignedDimension
 13
24.04170327967006
 23
30.06074491358782
 33
0.0
 14
24.04170327967006
 24
45.06074491358783
 34
0.0
 50
90.0
100
AcDbRotatedDimension
  0
DIMENSION
  5
1D3
330
1E
100
AcDbEntity
  8
DIM
100
AcDbDimension
  2
*D13
 10
5.747839062297458
 20
18.66817898093598
 30
0.0
 11
5.747839062297455
 21
16.54267898093598
 31
0.0
 70
    32
  1
J
 71
     5
 42
4.250999999999999
  3
23NSTD
100
AcDbAlignedDimension
 13
8.300429124437286
 23
14.41717898093598
 33
0.0
 14
8.300429124437286
 24
18.66817898093597
 34
0.0
 50
90.0
100
AcDbRotatedDimension
  0
DIMENSION
  5
1D4
330
1E
100
AcDbEntity
  8
DIM
100
AcDbDimension
  2
*D14
 10
15.52062351264745
 20
29.97724491358782
 30
0.0
 11
15.52062351264744
 21
37.56074491358783
 31
0.0
 70
    32
  1
M
 71
     5
 42
15.16700000000001
  3
23NSTD
100
AcDbAlignedDimension
 13
17.266475719778
 23
45.14424491358783
 33
0.0
 14
17.266475719778
 24
29.97724491358782
 34
0.0
 50
270.0
100
AcDbRotatedDimension
  0
DIMENSION
  5
1D5
330
1E
100
AcDbEntity
  8
DIM
100
AcDbDimension
  2
*D15
 10
17.04095327967003
 20
47.05674491358784
 30
0.0
 11
17.63357827967003
 21
47.05674491358784
 31
0.0
 70
    32
  1
L
 71
     5
 42
1.185249999999996
  3
23NSTD
100
AcDbAlignedDimension
 13
18.22620327967003
 23
45.39636991358782
 33
0.0
 14
17.04095327967003
 24
44.90823859596314
 34
0.0
 50
180.0
100
AcDbRotatedDimension
  0
DIMENSION
  5
1D6
330
1E
100
AcDbEntity
  8
DIM
100
AcDbDimension
  2
*D16
 10
1.802155969428472
 20
47.51145941028392
 30
0.0
 11
7.422655969428472
 21
47.51145941028392
 31
0.0
 70
    32
  1
P
 71
     5
 42
11.241
  3
23NSTD
100
AcDbAlignedDimension
 13
13.04315596942847
 23
48.7868955944959
 33
0.0
 14
1.802155969428472
 24
48.7868955944959
 34
0.0
 50
180.0
100
AcDbRotatedDimension
  0
LINE
  5
1D7
330
1E
100
AcDbEntity
  8
CENTER
100
AcDbLine
 10
7.422655969428468
 20
29.34796055816988
 30
0.0
 11
7.422655969428468
 21
45.81598483445061
 31
0.0
  0
LINE
  5
1D8
330
1E
100
AcDbEntity
  8
CENTER
100
AcDbLine
 10
1.154549678096241
 20
37.56074491358782
 30
0.0
 11
13.74094288672817
 21
37.56074491358782
 31
0.0
  0
LINE
  5
1D9
330
1E
100
AcDbEntity
  8
CENTER
100
AcDbLine
 10
12.79692912443728
 20
8.306769625518072
 30
0.0
 11
12.79692912443728
 21
24.79791890179876
 31
0.0
  0
LINE
  5
1DA
330
1E
100
AcDbEntity
  8
TITLE
100
AcDbLine
 10
0.2479999999989886
 20
1.919999999999013
 30
0.0
 11
40.23199999999901
 21
1.919999999999013
 31
0.0
  0
TEXT
  5
1DB
330
1E
100
AcDbEntity
  8
TEXT
100
AcDbText
 10
7.951842991257123
 20
0.4464320881726663
 30
0.0
 40
0.5
  1
[300]
 41
0.75
  7
TXT
 72
     1
 11
8.639342991257123
 21
0.4464320881726663
 31
0.0
100
AcDbText
  0
TEXT
  5
1DC
330
1E
100
AcDbEntity
  8
TEXT
100
AcDbText
 10
7.826842991257123
 20
1.255932088172666
 30
0.0
 40
0.5
  1
11.792
 41
0.75
  7
TXT
 72
     1
 11
8.639342991257123
 21
1.255932088172666
 31
0.0
100
AcDbText
  0
TEXT
  5
1DD
330
1E
100
AcDbEntity
  8
TEXT
100
AcDbText
 10
10.05084211671305
 20
0.4464320881726663
 30
0.0
 40
0.5
  1
[278]
 41
0.75
  7
TXT
 72
     1
 11
10.80084211671305
 21
0.4464320881726663
 31
0.0
100
AcDbText
  0
TEXT
  5
1DE
330
1E
100
AcDbEntity
  8
TEXT
100
AcDbText
 10
9.957092116713056
 20
1.255932088172666
 30
0.0
 40
0.5
  1
10.938
 41
0.75
  7
TXT
 72
     1
 11
10.80084211671305
 21
1.255932088172666
 31
0.0
100
AcDbText
  0
TEXT
  5
1DF
330
1E
100
AcDbEntity
  8
TEXT
100
AcDbText
 10
12.21234124216898
 20
1.255932088172666
 30
0.0
 40
0.5
  1
9.923
 41
0.75
  7
TXT
 72
     1
 11
12.96234124216899
 21
1.255932088172666
 31
0.0
100
AcDbText
  0
TEXT
  5
1E0
330
1E
100
AcDbEntity
  8
TEXT
100
AcDbText
 10
12.21234124216898
 20
0.4464320881726663
 30
0.0
 40
0.5
  1
[252]
 41
0.75
  7
TXT
 72
     1
 11
12.96234124216899
 21
0.4464320881726663
 31
0.0
100
AcDbText
  0
TEXT
  5
1E1
330
1E
100
AcDbEntity
  8
TEXT
100
AcDbText
 10
14.420695430967
 20
1.255932088172666
 30
0.0
 40
0.5
  1
8.993
 41
0.75
  7
TXT
 72
     1
 11
15.170695430967
 21
1.255932088172666
 31
0.0
100
AcDbText
  0
TEXT
  5
1E2
330
1E
100
AcDbEntity
  8
TEXT
100
AcDbText
 10
14.420695430967
 20
0.4464320881726663
 30
0.0
 40
0.5
  1
[228]
 41
0.75
  7
TXT
 72
     1
 11
15.170695430967
 21
0.4464320881726663
 31
0.0
100
AcDbText
  0
TEXT
  5
1E3
330
1E
100
AcDbEntity
  8
TEXT
100
AcDbText
 10
16.64069679753103
 20
0.4464320881726663
 30
0.0
 40
0.5
  1
[400]
 41
0.75
  7
TXT
 72
     1
 11
17.32819679753103
 21
0.4464320881726663
 31
0.0
100
AcDbText
  0
TEXT
  5
1E4
330
1E
100
AcDbEntity
  8
TEXT
100
AcDbText
 10
16.45319679753103
 20
1.255932088172666
 30
0.0
 40
0.5
  1
15.742
 41
0.75
  7
TXT
 72
     1
 11
17.32819679753103
 21
1.255932088172666
 31
0.0
100
AcDbText
  0
TEXT
  5
1E5
330
1E
100
AcDbEntity
  8
TEXT
100
AcDbText
 10
18.63134029315048
 20
1.255932088172666
 30
0.0
 40
0.5
  1
14.930
 41
0.75
  7
TXT
 72
     1
 11
19.47509029315048
 21
1.255932088172666
 31
0.0
100
AcDbText
  0
TEXT
  5
1E6
330
1E
100
AcDbEntity
  8
TEXT
100
AcDbText
 10
18.72509029315048
 20
0.4464320881726663
 30
0.0
 40
0.5
  1
[379]
 41
0.75
  7
TXT
 72
     1
 11
19.47509029315048
 21
0.4464320881726663
 31
0.0
100
AcDbText
  0
TEXT
  5
1E7
330
1E
100
AcDbEntity
  8
TEXT
100
AcDbText
 10
21.00617877544307
 20
0.4464320881726663
 30
0.0
 40
0.5
  1
[351]
 41
0.75
  7
TXT
 72
     1
 11
21.69367877544307
 21
0.4464320881726663
 31
0.0
100
AcDbText
  0
TEXT
  5
1E8
330
1E
100
AcDbEntity
  8
TEXT
100
AcDbText
 10
20.81867877544307
 20
1.255932088172666
 30
0.0
 40
0.5
  1
13.838
 41
0.75
  7
TXT
 72
     1
 11
21.69367877544307
 21
1.255932088172666
 31
0.0
100
AcDbText
  0
TEXT
  5
1E9
330
1E
100
AcDbEntity
  8
TEXT
100
AcDbText
 10
23.07366130681127
 20
1.255932088172666
 30
0.0
 40
0.5
  1
12.810
 41
0.75
  7
TXT
 72
     1
 11
23.85491130681127
 21
1.255932088172666
 31
0.0
100
AcDbText
  0
TEXT
  5
1EA
330
1E
100
AcDbEntity
  8
TEXT
100
AcDbText
 10
23.10491130681127
 20
0.4464320881726663
 30
0.0
 40
0.5
  1
[325]
 41
0.75
  7
TXT
 72
     1
 11
23.85491130681127
 21
0.4464320881726663
 31
0.0
100
AcDbText
  0
TEXT
  5
1EB
330
1E
100
AcDbEntity
  8
TEXT
100
AcDbText
 10
25.32864422232081
 20
1.255932088172666
 30
0.0
 40
0.5
  1
4.251
 41
0.75
  7
TXT
 72
     1
 11
26.01614422232081
 21
1.255932088172666
 31
0.0
100
AcDbText
  0
TEXT
  5
1EC
330
1E
100
AcDbEntity
  8
TEXT
100
AcDbText
 10
25.35989422232081
 20
0.4464320881726663
 30
0.0
 40
0.5
  1
[108]
 41
0.75
  7
TXT
 72
     1
 11
26.01614422232081
 21
0.4464320881726663
 31
0.0
100
AcDbText
  0
DIMENSION
  5
1ED
330
1E
100
AcDbEntity
  8
DIM
100
AcDbDimension
  2
*D17
 10
24.12145327967003
 20
47.05674491358784
 30
0.0
 11
21.17382827967003
 21
47.05674491358784
 31
0.0
 70
    32
  1
K
 71
     5
 42
5.89525
  3
23NSTD
100
AcDbAlignedDimension
 13
18.22620327967003
 23
45.4357449135878
 33
0.0
 14
24.12145327967003
 24
44.76636991358781
 34
0.0
100
AcDbRotatedDimension
  0
TEXT
  5
1EE
330
1E
100
AcDbEntity
  8
TEXT
100
AcDbText
 10
27.54026333059287
 20
0.4464320881726663
 30
0.0
 40
0.5
  1
[150]
 41
0.75
  7
TXT
 72
     1
 11
28.19651333059287
 21
0.4464320881726663
 31
0.0
100
AcDbText
  0
TEXT
  5
1EF
330
1E
100
AcDbEntity
  8
TEXT
100
AcDbText
 10
27.44651333059287
 20
1.255932088172666
 30
0.0
 40
0.5
  1
5.895
 41
0.75
  7
TXT
 72
     1
 11
28.19651333059287
 21
1.255932088172666
 31
0.0
100
AcDbText
  0
TEXT
  5
1F0
330
1E
100
AcDbEntity
  8
TEXT
100
AcDbText
 10
29.93651643773436
 20
0.4464320881726663
 30
0.0
 40
0.5
  1
[30]
 41
0.75
  7
TXT
 72
     1
 11
30.46776643773436
 21
0.4464320881726663
 31
0.0
100
AcDbText
  0
TEXT
  5
1F1
330
1E
100
AcDbEntity
  8
TEXT
100
AcDbText
 10
29.84276643773436
 20
1.255932088172666
 30
0.0
 40
0.5
  1
1.185
 41
0.75
  7
TXT
 72
     1
 11
30.46776643773436
 21
1.255932088172666
 31
0.0
100
AcDbText
  0
TEXT
  5
1F2
330
1E
100
AcDbEntity
  8
TEXT
100
AcDbText
 10
31.84941528440357
 20
0.4464320881726663
 30
0.0
 40
0.5
  1
[385]
 41
0.75
  7
TXT
 72
     1
 11
32.59941528440357
 21
0.4464320881726663
 31
0.0
100
AcDbText
  0
TEXT
  5
1F3
330
1E
100
AcDbEntity
  8
TEXT
100
AcDbText
 10
31.78691528440356
 20
1.255932088172666
 30
0.0
 40
0.5
  1
15.167
 41
0.75
  7
TXT
 72
     1
 11
32.59941528440357
 21
1.255932088172666
 31
0.0
100
AcDbText
  0
TEXT
  5
1F4
330
1E
100
AcDbEntity
  8
TEXT
100
AcDbText
 10
33.98083719336072
 20
1.255932088172666
 30
0.0
 40
0.5
  1
15.000
 41
0.75
  7
TXT
 72
     1
 11
34.76208719336072
 21
1.255932088172666
 31
0.0
100
AcDbText
  0
TEXT
  5
1F5
330
1E
100
AcDbEntity
  8
TEXT
100
AcDbText
 10
34.07458719336072
 20
0.4464320881726663
 30
0.0
 40
0.5
  1
[381]
 41
0.75
  7
TXT
 72
     1
 11
34.76208719336072
 21
0.4464320881726663
 31
0.0
100
AcDbText
  0
TEXT
  5
1F6
330
1E
100
AcDbEntity
  8
TEXT
100
AcDbText
 10
36.19027053742648
 20
1.255932088172666
 30
0.0
 40
0.5
  1
11.241
 41
0.75
  7
TXT
 72
     1
 11
36.94027053742647
 21
1.255932088172666
 31
0.0
100
AcDbText
  0
TEXT
  5
1F7
330
1E
100
AcDbEntity
  8
TEXT
100
AcDbText
 10
36.19027053742648
 20
0.4464320881726663
 30
0.0
 40
0.5
  1
[286]
 41
0.75
  7
TXT
 72
     1
 11
36.94027053742647
 21
0.4464320881726663
 31
0.0
100
AcDbText
  0
TEXT
  5
1F8
330
1E
100
AcDbEntity
  8
TEXT
100
AcDbText
 10
38.35095690963172
 20
1.255932088172666
 30
0.0
 40
0.5
  1
11.064
 41
0.75
  7
TXT
 72
     1
 11
39.13220690963172
 21
1.255932088172666
 31
0.0
100
AcDbText
  0
TEXT
  5
1F9
330
1E
100
AcDbEntity
  8
TEXT
100
AcDbText
 10
38.44470690963172
 20
0.4464320881726663
 30
0.0
 40
0.5
  1
[281]
 41
0.75
  7
TXT
 72
     1
 11
39.13220690963172
 21
0.4464320881726663
 31
0.0
100
AcDbText
  0
TEXT
  5
1FA
330
1E
100
AcDbEntity
  8
TEXT
100
AcDbText
 10
8.514342991257123
 20
2.091932088172666
 30
0.0
 40
0.5
  1
A
 41
0.75
  7
TXT
 72
     1
 11
8.639342991257123
 21
2.091932088172666
 31
0.0
100
AcDbText
  0
TEXT
  5
1FB
330
1E
100
AcDbEntity
  8
TEXT
100
AcDbText
 10
10.67584211671305
 20
2.091932088172666
 30
0.0
 40
0.5
  1
B
 41
0.75
  7
TXT
 72
     1
 11
10.80084211671305
 21
2.091932088172666
 31
0.0
100
AcDbText
  0
TEXT
  5
1FC
330
1E
100
AcDbEntity
  8
TEXT
100
AcDbText
 10
12.83734124216898
 20
2.091932088172666
 30
0.0
 40
0.5
  1
C
 41
0.75
  7
TXT
 72
     1
 11
12.96234124216899
 21
2.091932088172666
 31
0.0
100
AcDbText
  0
TEXT
  5
1FD
330
1E
100
AcDbEntity
  8
TEXT
100
AcDbText
 10
15.045695430967
 20
2.091932088172666
 30
0.0
 40
0.5
  1
D
 41
0.75
  7
TXT
 72
     1
 11
15.170695430967
 21
2.091932088172666
 31
0.0
100
AcDbText
  0
TEXT
  5
1FE
330
1E
100
AcDbEntity
  8
TEXT
100
AcDbText
 10
17.20319679753105
 20
2.091932088172666
 30
0.0
 40
0.5
  1
E
 41
0.75
  7
TXT
 72
     1
 11
17.32819679753105
 21
2.091932088172666
 31
0.0
100
AcDbText
  0
TEXT
  5
1FF
330
1E
100
AcDbEntity
  8
TEXT
100
AcDbText
 10
19.35009029315048
 20
2.091932088172666
 30
0.0
 40
0.5
  1
F
 41
0.75
  7
TXT
 72
     1
 11
19.47509029315048
 21
2.091932088172666
 31
0.0
100
AcDbText
  0
TEXT
  5
200
330
1E
100
AcDbEntity
  8
TEXT
100
AcDbText
 10
21.56867877544307
 20
2.091932088172666
 30
0.0
 40
0.5
  1
G
 41
0.75
  7
TXT
 72
     1
 11
21.69367877544307
 21
2.091932088172666
 31
0.0
100
AcDbText
  0
TEXT
  5
201
330
1E
100
AcDbEntity
  8
TEXT
100
AcDbText
 10
23.72991130681127
 20
2.091932088172666
 30
0.0
 40
0.5
  1
H
 41
0.75
  7
TXT
 72
     1
 11
23.85491130681127
 21
2.091932088172666
 31
0.0
100
AcDbText
  0
TEXT
  5
202
330
1E
100
AcDbEntity
  8
TEXT
100
AcDbText
 10
28.07151333059287
 20
2.091932088172666
 30
0.0
 40
0.5
  1
K
 41
0.75
  7
TXT
 72
     1
 11
28.19651333059287
 21
2.091932088172666
 31
0.0
100
AcDbText
  0
TEXT
  5
203
330
1E
100
AcDbEntity
  8
TEXT
100
AcDbText
 10
25.89114422232081
 20
2.091932088172666
 30
0.0
 40
0.5
  1
J
 41
0.75
  7
TXT
 72
     1
 11
26.01614422232081
 21
2.091932088172666
 31
0.0
100
AcDbText
  0
TEXT
  5
204
330
1E
100
AcDbEntity
  8
TEXT
100
AcDbText
 10
30.34276643773436
 20
2.091932088172666
 30
0.0
 40
0.5
  1
L
 41
0.75
  7
TXT
 72
     1
 11
30.46776643773436
 21
2.091932088172666
 31
0.0
100
AcDbText
  0
TEXT
  5
205
330
1E
100
AcDbEntity
  8
TEXT
100
AcDbText
 10
32.47441528440357
 20
2.091932088172666
 30
0.0
 40
0.5
  1
M
 41
0.75
  7
TXT
 72
     1
 11
32.59941528440357
 21
2.091932088172666
 31
0.0
100
AcDbText
  0
TEXT
  5
206
330
1E
100
AcDbEntity
  8
TEXT
100
AcDbText
 10
34.63708719336072
 20
2.091932088172666
 30
0.0
 40
0.5
  1
N
 41
0.75
  7
TXT
 72
     1
 11
34.76208719336072
 21
2.091932088172666
 31
0.0
100
AcDbText
  0
TEXT
  5
207
330
1E
100
AcDbEntity
  8
TEXT
100
AcDbText
 10
36.81527053742648
 20
2.091932088172666
 30
0.0
 40
0.5
  1
P
 41
0.75
  7
TXT
 72
     1
 11
36.94027053742647
 21
2.091932088172666
 31
0.0
100
AcDbText
  0
TEXT
  5
208
330
1E
100
AcDbEntity
  8
TEXT
100
AcDbText
 10
39.00720690963172
 20
2.091932088172666
 30
0.0
 40
0.5
  1
R
 41
0.75
  7
TXT
 72
     1
 11
39.13220690963172
 21
2.091932088172666
 31
0.0
100
AcDbText
  0
LINE
  5
209
330
1E
100
AcDbEntity
  8
TITLE
100
AcDbLine
 10
7.561799999998996
 20
2.755999999999013
 30
0.0
 11
40.23199999999901
 21
2.755999999999013
 31
0.0
  0
TEXT
  5
20A
330
1E
100
AcDbEntity
  8
TEXT
100
AcDbText
 10
2.790304231970651
 20
3.768980480117239
 30
0.0
 40
0.5
  1
PART NO.
 41
0.75
  7
TXT
 72
     1
 11
4.102804231970651
 21
3.768980480117239
 31
0.0
100
AcDbText
  0
TEXT
  5
20B
330
1E
100
AcDbEntity
  8
TEXT
100
AcDbText
 10
0.5124466468878382
 20
0.820359680478341
 30
0.0
 40
0.5
  1
NBA-10148
 41
0.75
  7
TXT
 72
     1
 11
1.981196646887838
 21
0.820359680478341
 31
0.0
100
AcDbText
  0
DIMENSION
  5
20C
330
1E
100
AcDbEntity
  8
DIM
100
AcDbDimension
  2
*D18
 10
24.04170327967006
 20
32.13392013437696
 30
0.0
 11
27.09170327967006
 21
32.13392013437696
 31
0.0
 70
    32
  1
<>
 71
     5
 42
0.1500000000000057
  3
23NSTD
100
AcDbAlignedDimension
 13
23.89170327967005
 23
32.13392013437696
 33
0.0
 14
24.04170327967006
 24
32.13392013437696
 34
0.0
100
AcDbRotatedDimension
  0
DIMENSION
  5
20D
330
1E
100
AcDbEntity
  8
DIM
100
AcDbDimension
  2
*D19
 10
23.89170327967005
 20
34.32326617801388
 30
0.0
 11
27.12920327967005
 21
34.32326617801388
 31
0.0
 70
    32
  1
<>
 71
     5
 42
0.3780000000000001
  3
23NSTD
100
AcDbAlignedDimension
 13
23.51370327967005
 23
35.18290385099545
 33
0.0
 14
23.89170327967005
 24
34.47263641165363
 34
0.0
100
AcDbRotatedDimension
  0
DIMENSION
  5
20E
330
1E
100
AcDbEntity
  8
DIM
100
AcDbDimension
  2
*D20
 10
24.12145327967003
 20
46.05674491358783
 30
0.0
 11
27.20270327967003
 21
46.05674491358783
 31
0.0
 70
    32
  1
<>
 71
     5
 42
0.0797499999999758
  3
23NSTD
100
AcDbAlignedDimension
 13
24.04170327967006
 23
45.06074491358783
 33
0.0
 14
24.12145327967003
 24
44.76636991358781
 34
0.0
100
AcDbRotatedDimension
  0
TEXT
  5
20F
330
1E
100
AcDbEntity
  8
TEXT
100
AcDbText
 10
4.326392564641579
 20
0.820359680478341
 30
0.0
 40
0.5
  1
NBA-10168
 41
0.75
  7
TXT
 72
     1
 11
5.795142564641579
 21
0.820359680478341
 31
0.0
100
AcDbText
  0
LINE
  5
210
330
1E
100
AcDbEntity
  8
TITLE
100
AcDbLine
 10
7.561799999998996
 20
4.427999999999013
 30
0.0
 11
7.561799999998996
 21
0.2479999999990121
 31
0.0
  0
LINE
  5
211
330
1E
100
AcDbEntity
  8
TITLE
100
AcDbLine
 10
9.739799999998993
 20
2.755999999999013
 30
0.0
 11
9.739799999998993
 21
0.2479999999990125
 31
0.0
  0
LINE
  5
212
330
1E
100
AcDbEntity
  8
TITLE
100
AcDbLine
 10
11.91779999999899
 20
2.755999999999013
 30
0.0
 11
11.91779999999899
 21
0.2479999999990125
 31
0.0
  0
LINE
  5
213
330
1E
100
AcDbEntity
  8
TITLE
100
AcDbLine
 10
14.09579999999898
 20
2.755999999999013
 30
0.0
 11
14.09579999999898
 21
0.2479999999990125
 31
0.0
  0
LINE
  5
214
330
1E
100
AcDbEntity
  8
TITLE
100
AcDbLine
 10
16.27379999999898
 20
2.755999999999013
 30
0.0
 11
16.27379999999898
 21
0.2479999999990125
 31
0.0
  0
LINE
  5
215
330
1E
100
AcDbEntity
  8
TITLE
100
AcDbLine
 10
18.45179999999899
 20
2.755999999999013
 30
0.0
 11
18.45179999999899
 21
0.2479999999990125
 31
0.0
  0
LINE
  5
216
330
1E
100
AcDbEntity
  8
TITLE
100
AcDbLine
 10
20.62979999999899
 20
2.755999999999013
 30
0.0
 11
20.62979999999899
 21
0.2479999999990125
 31
0.0
  0
LINE
  5
217
330
1E
100
AcDbEntity
  8
TITLE
100
AcDbLine
 10
22.80779999999899
 20
2.755999999999013
 30
0.0
 11
22.80779999999898
 21
0.2479999999990125
 31
0.0
  0
LINE
  5
218
330
1E
100
AcDbEntity
  8
TITLE
100
AcDbLine
 10
24.98579999999899
 20
2.755999999999013
 30
0.0
 11
24.98579999999899
 21
0.2479999999990125
 31
0.0
  0
LINE
  5
219
330
1E
100
AcDbEntity
  8
TITLE
100
AcDbLine
 10
27.16379999999899
 20
2.755999999999013
 30
0.0
 11
27.16379999999899
 21
0.2479999999990125
 31
0.0
  0
LINE
  5
21A
330
1E
100
AcDbEntity
  8
TITLE
100
AcDbLine
 10
29.34179999999899
 20
2.755999999999013
 30
0.0
 11
29.34179999999899
 21
0.2479999999990125
 31
0.0
  0
LINE
  5
21B
330
1E
100
AcDbEntity
  8
TITLE
100
AcDbLine
 10
31.51979999999898
 20
2.755999999999013
 30
0.0
 11
31.51979999999898
 21
0.2479999999990125
 31
0.0
  0
LINE
  5
21C
330
1E
100
AcDbEntity
  8
TITLE
100
AcDbLine
 10
33.69779999999898
 20
2.755999999999013
 30
0.0
 11
33.69779999999898
 21
0.2479999999990125
 31
0.0
  0
LINE
  5
21D
330
1E
100
AcDbEntity
  8
TITLE
100
AcDbLine
 10
35.87579999999898
 20
2.755999999999013
 30
0.0
 11
35.87579999999898
 21
0.2479999999990125
 31
0.0
  0
LINE
  5
21E
330
1E
100
AcDbEntity
  8
TITLE
100
AcDbLine
 10
38.05379999999898
 20
2.755999999999013
 30
0.0
 11
38.05379999999898
 21
0.2479999999990125
 31
0.0
  0
TEXT
  5
21F
330
1E
100
AcDbEntity
  8
TEXT
100
AcDbText
 10
1.104386212955347
 20
2.94424975287699
 30
0.0
 40
0.5
  1
SOLID
 41
0.75
  7
TXT
 72
     1
 11
1.916886212955347
 21
2.94424975287699
 31
0.0
100
AcDbText
  0
TEXT
  5
220
330
1E
100
AcDbEntity
  8
TEXT
100
AcDbText
 10
0.9793862129553474
 20
2.110916419543657
 30
0.0
 40
0.5
  1
COVER
 41
0.75
  7
TXT
 72
     1
 11
1.916886212955347
 21
2.110916419543657
 31
0.0
100
AcDbText
  0
TEXT
  5
221
330
1E
100
AcDbEntity
  8
TEXT
100
AcDbText
 10
4.830977732688239
 20
2.110916419543657
 30
0.0
 40
0.5
  1
COVER
 41
0.75
  7
TXT
 72
     1
 11
5.768477732688239
 21
2.110916419543657
 31
0.0
100
AcDbText
  0
TEXT
  5
222
330
1E
100
AcDbEntity
  8
TEXT
100
AcDbText
 10
4.893477732688239
 20
2.94424975287699
 30
0.0
 40
0.5
  1
CLEAR
 41
0.75
  7
TXT
 72
     1
 11
5.768477732688239
 21
2.94424975287699
 31
0.0
100
AcDbText
  0
LINE
  5
223
330
1E
100
AcDbEntity
  8
TITLE
100
AcDbLine
 10
3.896646828042491
 20
3.591999999999014
 30
0.0
 11
3.896646828042491
 21
0.2479999999990125
 31
0.0
  0
LINE
  5
224
330
1E
100
AcDbEntity
  8
TITLE
100
AcDbLine
 10
0.2479999999989957
 20
3.591999999999014
 30
0.0
 11
7.561799999998996
 21
3.591999999999014
 31
0.0
  0
LINE
  5
225
330
1E
100
AcDbEntity
  8
TITLE
100
AcDbLine
 10
0.2479999999989957
 20
4.427999999999013
 30
0.0
 11
40.23199999999901
 21
4.427999999999013
 31
0.0
  0
TEXT
  5
226
330
1E
100
AcDbEntity
  8
TEXT
100
AcDbText
 10
22.16741130681127
 20
3.368557622941236
 30
0.0
 40
0.5
  1
DIMENSIONS
 41
0.75
  7
TXT
 72
     1
 11
23.85491130681127
 21
3.368557622941236
 31
0.0
100
AcDbText
  0
INSERT
  5
227
330
1E
100
AcDbEntity
  8
TITLE
100
AcDbBlockReference
  2
HB
 10
0.0
 20
0.0
 30
0.0
 41
3.999999999984
 42
3.999999999984
 43
3.999999999984
  0
LINE
  5
228
330
1E
100
AcDbEntity
  8
TITLE
100
AcDbLine
 10
7.561799999998996
 20
1.083999999999012
 30
0.0
 11
40.23199999999901
 21
1.083999999999012
 31
0.0
  0
LWPOLYLINE
  5
229
330
1E
100
AcDbEntity
  8
DIM
100
AcDbPolyline
 90
        4
 70
     0
 10
17.52033456444736
 20
22.75916128602689
 40
0.0
 41
0.27
 10
18.07413760569725
 20
22.29905022171483
 40
0.0
 41
0.0
 10
19.47926472279057
 20
21.13164205514733
 40
0.0
 41
0.0
 10
20.19926427279058
 20
21.13164205514733
 40
0.0
 41
0.0
  0
TEXT
  5
22F
330
1E
100
AcDbEntity
  8
DIM
100
AcDbText
 10
20.55926404779057
 20
20.88164205514732
 30
0.0
 40
0.5
  1
0.590 [15] DIA. BOSS
 41
0.75
  7
TXT
 11
20.55926404779057
 21
21.13164205514733
 31
0.0
100
AcDbText
 73
     2
  0
TEXT
  5
230
330
1E
100
AcDbEntity
  8
DIM
100
AcDbText
 10
20.55926404779057
 20
20.04830924264732
 30
0.0
 40
0.5
  1
WITH M5 x 0.8mm
 41
0.75
  7
TXT
 11
20.55926404779057
 21
20.29830924264732
 31
0.0
100
AcDbText
 73
     2
  0
TEXT
  5
231
330
1E
100
AcDbEntity
  8
DIM
100
AcDbText
 10
20.55926404779057
 20
19.21497643014732
 30
0.0
 40
0.5
  1
THREADED BRASS INSERT
 41
0.75
  7
TXT
 11
20.55926404779057
 21
19.46497643014732
 31
0.0
100
AcDbText
 73
     2
  0
TEXT
  5
232
330
1E
100
AcDbEntity
  8
DIM
100
AcDbText
 10
20.55926404779057
 20
18.38164361764733
 30
0.0
 40
0.5
  1
(4) PLACES
 41
0.75
  7
TXT
 11
20.55926404779057
 21
18.63164361764733
 31
0.0
100
AcDbText
 73
     2
  0
TEXT
  5
233
330
1E
100
AcDbEntity
  8
DIM
100
AcDbText
 10
20.55926481416109
 20
16.60214297757156
 30
0.0
 40
0.5
  1
0.590 [15] DIA. BOSS WITH
 41
0.75
  7
TXT
 11
20.55926481416109
 21
16.85214297757156
 31
0.0
100
AcDbText
 73
     2
  0
TEXT
  5
234
330
1E
100
AcDbEntity
  8
DIM
100
AcDbText
 10
20.55926481416109
 20
15.76881016507155
 30
0.0
 40
0.5
  1
0.197 [5] DIA. HOLE x
 41
0.75
  7
TXT
 11
20.55926481416109
 21
16.01881016507155
 31
0.0
100
AcDbText
 73
     2
  0
TEXT
  5
235
330
1E
100
AcDbEntity
  8
DIM
100
AcDbText
 10
20.55926481416109
 20
14.93547735257155
 30
0.0
 40
0.5
  1
0.395 [10] DEEP (6) PLACES
 41
0.75
  7
TXT
 11
20.55926481416109
 21
15.18547735257155
 31
0.0
100
AcDbText
 73
     2
  0
TEXT
  5
236
330
1E
100
AcDbEntity
  8
DIM
100
AcDbText
 10
20.55926481416109
 20
14.10214454007155
 30
0.0
 40
0.5
  1
BOSSES ACCEPT M6 METRIC OR
 41
0.75
  7
TXT
 11
20.55926481416109
 21
14.35214454007155
 31
0.0
100
AcDbText
 73
     2
  0
LWPOLYLINE
  5
237
330
1E
100
AcDbEntity
  8
DIM
100
AcDbPolyline
 90
        4
 70
     0
 10
17.52033456444736
 20
18.47966128602689
 40
0.0
 41
0.27
 10
18.07413683932675
 20
18.0195492992906
 40
0.0
 41
0.0
 10
19.47926548916109
 20
16.85214297757156
 40
0.0
 41
0.0
 10
20.1992650391611
 20
16.85214297757156
 40
0.0
 41
0.0
  0
CIRCLE
  5
23D
330
1E
100
AcDbEntity
  8
OBJECT
100
AcDbCircle
 10
8.300429124437286
 20
14.41717898093598
 30
0.0
 40
0.295
  0
CIRCLE
  5
23E
330
1E
100
AcDbEntity
  8
OBJECT
100
AcDbCircle
 10
8.300429124437286
 20
14.41717898093598
 30
0.0
 40
0.0984375
  0
CIRCLE
  5
23F
330
1E
100
AcDbEntity
  8
OBJECT
100
AcDbCircle
 10
17.75817912443729
 20
9.623678980935977
 30
0.0
 40
0.295
  0
CIRCLE
  5
240
330
1E
100
AcDbEntity
  8
HIDDEN
100
AcDbCircle
 10
17.29342912443729
 20
10.13767898093598
 30
0.0
 40
0.095
  0
CIRCLE
  5
241
330
1E
100
AcDbEntity
  8
OBJECT
100
AcDbCircle
 10
17.29342912443729
 20
10.13767898093598
 30
0.0
 40
0.0825
  0
CIRCLE
  5
242
330
1E
100
AcDbEntity
  8
OBJECT
100
AcDbCircle
 10
17.29342912443729
 20
10.13767898093598
 30
0.0
 40
0.295
  0
CIRCLE
  5
245
330
1E
100
AcDbEntity
  8
OBJECT
100
AcDbCircle
 10
8.300429124437286
 20
10.13767898093598
 30
0.0
 40
0.295
  0
CIRCLE
  5
246
330
1E
100
AcDbEntity
  8
OBJECT
100
AcDbCircle
 10
8.300429124437286
 20
10.13767898093598
 30
0.0
 40
0.0825
  0
CIRCLE
  5
247
330
1E
100
AcDbEntity
  8
HIDDEN
100
AcDbCircle
 10
8.300429124437286
 20
10.13767898093598
 30
0.0
 40
0.095
  0
CIRCLE
  5
248
330
1E
100
AcDbEntity
  8
OBJECT
100
AcDbCircle
 10
8.300429124437286
 20
22.94767898093598
 30
0.0
 40
0.295
  0
CIRCLE
  5
249
330
1E
100
AcDbEntity
  8
HIDDEN
100
AcDbCircle
 10
8.300429124437286
 20
22.94767898093598
 30
0.0
 40
0.095
  0
CIRCLE
  5
24A
330
1E
100
AcDbEntity
  8
OBJECT
100
AcDbCircle
 10
8.300429124437286
 20
22.94767898093598
 30
0.0
 40
0.0825
  0
CIRCLE
  5
24B
330
1E
100
AcDbEntity
  8
OBJECT
100
AcDbCircle
 10
17.29342912443729
 20
22.94767898093598
 30
0.0
 40
0.295
  0
CIRCLE
  5
24C
330
1E
100
AcDbEntity
  8
OBJECT
100
AcDbCircle
 10
17.29342912443729
 20
22.94767898093598
 30
0.0
 40
0.0825
  0
CIRCLE
  5
24D
330
1E
100
AcDbEntity
  8
HIDDEN
100
AcDbCircle
 10
17.29342912443729
 20
22.94767898093598
 30
0.0
 40
0.095
  0
CIRCLE
  5
24E
330
1E
100
AcDbEntity
  8
OBJECT
100
AcDbCircle
 10
8.300429124437286
 20
18.66817898093597
 30
0.0
 40
0.0984375
  0
CIRCLE
  5
24F
330
1E
100
AcDbEntity
  8
OBJECT
100
AcDbCircle
 10
8.300429124437286
 20
18.66817898093597
 30
0.0
 40
0.295
  0
CIRCLE
  5
250
330
1E
100
AcDbEntity
  8
OBJECT
100
AcDbCircle
 10
17.29342912443729
 20
18.66817898093597
 30
0.0
 40
0.295
  0
CIRCLE
  5
251
330
1E
100
AcDbEntity
  8
OBJECT
100
AcDbCircle
 10
17.29342912443729
 20
14.41717898093598
 30
0.0
 40
0.295
  0
CIRCLE
  5
252
330
1E
100
AcDbEntity
  8
OBJECT
100
AcDbCircle
 10
17.29342912443729
 20
14.41717898093598
 30
0.0
 40
0.0984375
  0
CIRCLE
  5
253
330
1E
100
AcDbEntity
  8
OBJECT
100
AcDbCircle
 10
17.29342912443729
 20
18.66817898093597
 30
0.0
 40
0.0984375
  0
CIRCLE
  5
254
330
1E
100
AcDbEntity
  8
OBJECT
100
AcDbCircle
 10
12.79692912443728
 20
10.13767898093598
 30
0.0
 40
0.295
  0
CIRCLE
  5
255
330
1E
100
AcDbEntity
  8
OBJECT
100
AcDbCircle
 10
12.79692912443728
 20
10.13767898093598
 30
0.0
 40
0.0984375
  0
CIRCLE
  5
256
330
1E
100
AcDbEntity
  8
OBJECT
100
AcDbCircle
 10
12.79692912443728
 20
22.94767898093598
 30
0.0
 40
0.295
  0
CIRCLE
  5
257
330
1E
100
AcDbEntity
  8
OBJECT
100
AcDbCircle
 10
12.79692912443728
 20
22.94767898093598
 30
0.0
 40
0.0984375
  0
CIRCLE
  5
258
330
1E
100
AcDbEntity
  8
OBJECT
100
AcDbCircle
 10
7.835679124437291
 20
9.623678980935977
 30
0.0
 40
0.295
  0
CIRCLE
  5
25D
330
1E
100
AcDbEntity
  8
OBJECT
100
AcDbCircle
 10
7.835679124437291
 20
23.46167898093598
 30
0.0
 40
0.295
  0
CIRCLE
  5
25E
330
1E
100
AcDbEntity
  8
OBJECT
100
AcDbCircle
 10
17.75817912443729
 20
23.46167898093598
 30
0.0
 40
0.295
  0
LWPOLYLINE
  5
261
330
1E
100
AcDbEntity
  8
BEND
100
AcDbPolyline
 90
       10
 70
     0
 43
0.0
 10
16.69317501225546
 20
37.56074491358782
 10
18.77119773933545
 20
37.56074491358782
 10
18.88553832207178
 20
37.38635969363578
 10
18.94906097604498
 20
37.7800631728078
 10
19.06340155878131
 20
37.56074491358783
 10
21.7979813318754
 20
37.56074491358782
 10
21.91232191461173
 20
37.38635969363578
 10
21.97584456858495
 20
37.7800631728078
 10
22.09018515132128
 20
37.56074491358783
 10
24.42675454177261
 20
37.56074491358782
  0
LINE
  5
26D
330
1E
100
AcDbEntity
  8
OBJECT
100
AcDbLine
 10
17.91120327967005
 20
42.82524491358783
 30
0.0
 11
17.91120327967005
 21
43.65424491358783
 31
0.0
  0
LINE
  5
26E
330
1E
100
AcDbEntity
  8
OBJECT
100
AcDbLine
 10
18.50182827967003
 20
43.65424491358783
 30
0.0
 11
18.50182827967003
 21
42.82524491358783
 31
0.0
  0
LINE
  5
26F
330
1E
100
AcDbEntity
  8
OBJECT
100
AcDbLine
 10
18.22620327967005
 20
42.82524491358783
 30
0.0
 11
18.22620327967002
 21
43.65424491358783
 31
0.0
  0
POLYLINE
  5
270
330
1E
100
AcDbEntity
  8
OBJECT
100
AcDb2dPolyline
 66
     1
 10
0.0
 20
0.0
 30
0.0
 70
     1
1001
ACAD
1000
R13OBJECT
1002
{
1005
1026
1002
}
  0
VERTEX
  5
271
330
270
100
AcDbEntity
  8
OBJECT
100
AcDbVertex
100
AcDb2dVertex
 10
18.62682827967003
 20
42.89574491358783
 30
0.0
1001
ACAD
1000
R13OBJECT
1002
{
1005
1026
1002
}
  0
VERTEX
  5
272
330
270
100
AcDbEntity
  8
OBJECT
100
AcDbVertex
100
AcDb2dVertex
 10
19.85997882903425
 20
42.89574491358783
 30
0.0
1001
ACAD
1000
R13OBJECT
1002
{
1005
1026
1002
}
  0
VERTEX
  5
273
330
270
100
AcDbEntity
  8
OBJECT
100
AcDbVertex
100
AcDb2dVertex
 10
19.87830086133655
 20
42.90050244280588
 30
0.0
1001
ACAD
1000
R13OBJECT
1002
{
1005
1026
1002
}
  0
VERTEX
  5
274
330
270
100
AcDbEntity
  8
OBJECT
100
AcDbVertex
100
AcDb2dVertex
 10
19.8938335303105
 20
42.91405073976367
 30
0.0
1001
ACAD
1000
R13OBJECT
1002
{
1005
1026
1002
}
  0
VERTEX
  5
275
330
270
100
AcDbEntity
  8
OBJECT
100
AcDbVertex
100
AcDb2dVertex
 10
19.90421212790872
 20
42.93432719906501
 30
0.0
1001
ACAD
1000
R13OBJECT
1002
{
1005
1026
1002
}
  0
VERTEX
  5
276
330
270
100
AcDbEntity
  8
OBJECT
100
AcDbVertex
100
AcDb2dVertex
 10
19.90785660672918
 20
42.95824491358784
 30
0.0
1001
ACAD
1000
R13OBJECT
1002
{
1005
1026
1002
}
  0
VERTEX
  5
277
330
270
100
AcDbEntity
  8
OBJECT
100
AcDbVertex
100
AcDb2dVertex
 10
19.90785660672921
 20
43.52124491358782
 30
0.0
1001
ACAD
1000
R13OBJECT
1002
{
1005
1026
1002
}
  0
VERTEX
  5
278
330
270
100
AcDbEntity
  8
OBJECT
100
AcDbVertex
100
AcDb2dVertex
 10
19.90421212790872
 20
43.54516262811065
 30
0.0
1001
ACAD
1000
R13OBJECT
1002
{
1005
1026
1002
}
  0
VERTEX
  5
279
330
270
100
AcDbEntity
  8
OBJECT
100
AcDbVertex
100
AcDb2dVertex
 10
19.8938335303105
 20
43.56543908741199
 30
0.0
1001
ACAD
1000
R13OBJECT
1002
{
1005
1026
1002
}
  0
VERTEX
  5
27A
330
270
100
AcDbEntity
  8
OBJECT
100
AcDbVertex
100
AcDb2dVertex
 10
19.87830086133655
 20
43.57898738436978
 30
0.0
1001
ACAD
1000
R13OBJECT
1002
{
1005
1026
1002
}
  0
VERTEX
  5
27B
330
270
100
AcDbEntity
  8
OBJECT
100
AcDbVertex
100
AcDb2dVertex
 10
19.85997882903425
 20
43.58374491358783
 30
0.0
1001
ACAD
1000
R13OBJECT
1002
{
1005
1026
1002
}
  0
VERTEX
  5
27C
330
270
100
AcDbEntity
  8
OBJECT
100
AcDbVertex
100
AcDb2dVertex
 10
18.62682827967003
 20
43.58374491358783
 30
0.0
1001
ACAD
1000
R13OBJECT
1002
{
1005
1026
1002
}
  0
SEQEND
  5
27D
330
270
100
AcDbEntity
  8
OBJECT
  0
LINE
  5
27E
330
1E
100
AcDbEntity
  8
OBJECT
100
AcDbLine
 10
19.67135036327139
 20
43.58374491358783
 30
0.0
 11
19.67135036327139
 21
42.89574491358783
 31
0.0
  0
POLYLINE
  5
27F
330
1E
100
AcDbEntity
  8
OBJECT
100
AcDb2dPolyline
 66
     1
 10
0.0
 20
0.0
 30
0.0
1001
ACAD
1000
R13OBJECT
1002
{
1005
101E
1002
}
  0
VERTEX
  5
280
330
27F
100
AcDbEntity
  8
OBJECT
100
AcDbVertex
100
AcDb2dVertex
 10
19.81498369635619
 20
42.89574491358783
 30
0.0
1001
ACAD
1000
R13OBJECT
1002
{
1005
101E
1002
}
  0
VERTEX
  5
281
330
27F
100
AcDbEntity
  8
OBJECT
100
AcDbVertex
100
AcDb2dVertex
 10
19.8333057286585
 20
42.90050244280588
 30
0.0
1001
ACAD
1000
R13OBJECT
1002
{
1005
101E
1002
}
  0
VERTEX
  5
282
330
27F
100
AcDbEntity
  8
OBJECT
100
AcDbVertex
100
AcDb2dVertex
 10
19.84883839763245
 20
42.91405073976367
 30
0.0
1001
ACAD
1000
R13OBJECT
1002
{
1005
101E
1002
}
  0
VERTEX
  5
283
330
27F
100
AcDbEntity
  8
OBJECT
100
AcDbVertex
100
AcDb2dVertex
 10
19.85921699523067
 20
42.93432719906501
 30
0.0
1001
ACAD
1000
R13OBJECT
1002
{
1005
101E
1002
}
  0
VERTEX
  5
284
330
27F
100
AcDbEntity
  8
OBJECT
100
AcDbVertex
100
AcDb2dVertex
 10
19.86286147405113
 20
42.95824491358784
 30
0.0
1001
ACAD
1000
R13OBJECT
1002
{
1005
101E
1002
}
  0
VERTEX
  5
285
330
27F
100
AcDbEntity
  8
OBJECT
100
AcDbVertex
100
AcDb2dVertex
 10
19.86286147405113
 20
43.52124491358782
 30
0.0
1001
ACAD
1000
R13OBJECT
1002
{
1005
101E
1002
}
  0
VERTEX
  5
286
330
27F
100
AcDbEntity
  8
OBJECT
100
AcDbVertex
100
AcDb2dVertex
 10
19.85921699523067
 20
43.54516262811065
 30
0.0
1001
ACAD
1000
R13OBJECT
1002
{
1005
101E
1002
}
  0
VERTEX
  5
287
330
27F
100
AcDbEntity
  8
OBJECT
100
AcDbVertex
100
AcDb2dVertex
 10
19.84883839763242
 20
43.56543908741199
 30
0.0
1001
ACAD
1000
R13OBJECT
1002
{
1005
101E
1002
}
  0
VERTEX
  5
288
330
27F
100
AcDbEntity
  8
OBJECT
100
AcDbVertex
100
AcDb2dVertex
 10
19.8333057286585
 20
43.57898738436978
 30
0.0
1001
ACAD
1000
R13OBJECT
1002
{
1005
101E
1002
}
  0
VERTEX
  5
289
330
27F
100
AcDbEntity
  8
OBJECT
100
AcDbVertex
100
AcDb2dVertex
 10
19.81498369635619
 20
43.58374491358783
 30
0.0
1001
ACAD
1000
R13OBJECT
1002
{
1005
101E
1002
}
  0
SEQEND
  5
28A
330
27F
100
AcDbEntity
  8
OBJECT
  0
LWPOLYLINE
  5
28B
330
1E
100
AcDbEntity
  8
OBJECT
100
AcDbPolyline
 90
       12
 70
     0
 43
0.0
 10
17.91120327967005
 20
43.58374491358784
 10
17.60620327967004
 20
43.58374491358783
 10
17.60620327967004
 20
43.67724491358783
 42
0.4142135623730951
 10
17.54370327967004
 20
43.73974491358783
 10
17.34870327967002
 20
43.73974491358783
 42
0.4142135623730951
 10
17.28620327967002
 20
43.67724491358783
 10
17.28620327967002
 20
42.80224491358783
 42
0.4142135623730951
 10
17.34870327967002
 20
42.73974491358783
 10
17.54370327967004
 20
42.73974491358783
 42
0.4142135623730951
 10
17.60620327967004
 20
42.80224491358783
 10
17.60620327967004
 20
42.89574491358782
 10
17.91120327967002
 20
42.89574491358783
  0
POLYLINE
  5
299
330
1E
100
AcDbEntity
  8
OBJECT
100
AcDb3dPolyline
 66
     1
 10
0.0
 20
0.0
 30
0.0
 70
     8
  0
VERTEX
  5
29A
330
299
100
AcDbEntity
  8
OBJECT
100
AcDbVertex
100
AcDb3dPolylineVertex
 10
17.66299033838257
 20
42.95824491358782
 30
0.0
 70
    32
1001
ACAD
1000
R13OBJECT
1002
{
1005
246
1002
}
  0
VERTEX
  5
29B
330
299
100
AcDbEntity
  8
OBJECT
100
AcDbVertex
100
AcDb3dPolylineVertex
 10
17.66737054431442
 20
42.93432719906501
 30
0.0
 70
    32
1001
ACAD
1000
R13OBJECT
1002
{
1005
246
1002
}
  0
VERTEX
  5
29C
330
299
100
AcDbEntity
  8
OBJECT
100
AcDbVertex
100
AcDb3dPolylineVertex
 10
17.6798443154635
 20
42.91405073976367
 30
0.0
 70
    32
1001
ACAD
1000
R13OBJECT
1002
{
1005
246
1002
}
  0
VERTEX
  5
29D
330
299
100
AcDbEntity
  8
OBJECT
100
AcDbVertex
100
AcDb3dPolylineVertex
 10
17.69851263324736
 20
42.90050244280588
 30
0.0
 70
    32
1001
ACAD
1000
R13OBJECT
1002
{
1005
246
1002
}
  0
VERTEX
  5
29E
330
299
100
AcDbEntity
  8
OBJECT
100
AcDbVertex
100
AcDb3dPolylineVertex
 10
17.72053341551219
 20
42.89574491358782
 30
0.0
 70
    32
1001
ACAD
1000
R13OBJECT
1002
{
1005
246
1002
}
  0
SEQEND
  5
29F
330
299
100
AcDbEntity
  8
OBJECT
  0
POLYLINE
  5
2A0
330
1E
100
AcDbEntity
  8
OBJECT
100
AcDb3dPolyline
 66
     1
 10
0.0
 20
0.0
 30
0.0
 70
     8
  0
VERTEX
  5
2A1
330
2A0
100
AcDbEntity
  8
OBJECT
100
AcDbVertex
100
AcDb3dPolylineVertex
 10
17.64230462548844
 20
42.95824491358782
 30
0.0
 70
    32
1001
ACAD
1000
R13OBJECT
1002
{
1005
244
1002
}
  0
VERTEX
  5
2A2
330
2A0
100
AcDbEntity
  8
OBJECT
100
AcDbVertex
100
AcDb3dPolylineVertex
 10
17.64668483142029
 20
42.93432719906501
 30
0.0
 70
    32
1001
ACAD
1000
R13OBJECT
1002
{
1005
244
1002
}
  0
VERTEX
  5
2A3
330
2A0
100
AcDbEntity
  8
OBJECT
100
AcDbVertex
100
AcDb3dPolylineVertex
 10
17.65915860256936
 20
42.91405073976367
 30
0.0
 70
    32
1001
ACAD
1000
R13OBJECT
1002
{
1005
244
1002
}
  0
VERTEX
  5
2A4
330
2A0
100
AcDbEntity
  8
OBJECT
100
AcDbVertex
100
AcDb3dPolylineVertex
 10
17.67782692035325
 20
42.90050244280588
 30
0.0
 70
    32
1001
ACAD
1000
R13OBJECT
1002
{
1005
244
1002
}
  0
VERTEX
  5
2A5
330
2A0
100
AcDbEntity
  8
OBJECT
100
AcDbVertex
100
AcDb3dPolylineVertex
 10
17.69984770261806
 20
42.89574491358782
 30
0.0
 70
    32
1001
ACAD
1000
R13OBJECT
1002
{
1005
244
1002
}
  0
SEQEND
  5
2A6
330
2A0
100
AcDbEntity
  8
OBJECT
  0
CIRCLE
  5
2A7
330
1E
100
AcDbEntity
  8
OBJECT
100
AcDbCircle
 10
17.44620327967002
 20
42.92724491358783
 30
0.0
 40
0.085
  0
ARC
  5
2A8
330
1E
100
AcDbEntity
  8
OBJECT
100
AcDbCircle
 10
17.44620327967002
 20
42.92724491358781
 30
0.0
 40
0.078
100
AcDbArc
 50
281.0874892109704
 51
78.91251078902897
  0
LINE
  5
2A9
330
1E
100
AcDbEntity
  8
OBJECT
100
AcDbLine
 10
17.37120327967003
 20
42.90572623274488
 30
0.0
 11
17.37120327967003
 21
42.94870596365393
 31
0.0
  0
LINE
  5
2AA
330
1E
100
AcDbEntity
  8
OBJECT
100
AcDbLine
 10
17.51920327967002
 20
42.9546250924256
 30
0.0
 11
17.51920327967002
 21
42.89979366977551
 31
0.0
  0
LWPOLYLINE
  5
2AB
330
1E
100
AcDbEntity
  8
OBJECT
100
AcDbPolyline
 90
       73
 70
     0
 43
0.0
 10
17.46120327967003
 20
42.85070080865478
 10
17.45742368105644
 20
42.85005696187054
 10
17.45365155263443
 20
42.84960276051682
 10
17.44990528773022
 20
42.84933360946535
 10
17.44620327967002
 20
42.84924491358783
 10
17.44246276186232
 20
42.84933867166918
 10
17.43868556324295
 20
42.84961989073026
 10
17.43488891239579
 20
42.85008848799661
 10
17.43109003790451
 20
42.85074438069375
 10
17.42730616835291
 20
42.85158748604721
 10
17.42355453232477
 20
42.85261772128253
 10
17.41985235840383
 20
42.85383500362524
 10
17.41621687517386
 20
42.85523925030089
 10
17.41266393531802
 20
42.85682802425699
 10
17.40920524602049
 20
42.85859038175976
 10
17.40585181761656
 20
42.86051348001276
 10
17.4026146604416
 20
42.86258447621952
 10
17.39950478483089
 20
42.86479052758362
 10
17.39653320111975
 20
42.86711879130858
 10
17.39371091964352
 20
42.86955642459793
 10
17.39104895073748
 20
42.87209058465527
 10
17.38851907715411
 20
42.87474796461588
 10
17.38608417167771
 20
42.87756672318024
 10
17.38375733050145
 20
42.88053576508948
 10
17.38155164981859
 20
42.88364399508473
 10
17.37948022582231
 20
42.88688031790709
 10
17.37755615470581
 20
42.89023363829768
 10
17.37579253266236
 20
42.89369286099765
 10
17.3742024558851
 20
42.8972468907481
 10
17.37279705380439
 20
42.90088397884606
 10
17.3715787785118
 20
42.90458814428954
 10
17.37054771019237
 20
42.90834194337104
 10
17.36970392903117
 20
42.91212793238312
 10
17.36904751521325
 20
42.9159286676183
 10
17.36857854892372
 20
42.91972670536913
 10
17.36829711034764
 20
42.92350460192812
 10
17.36820327967001
 20
42.92724491358781
 10
17.36829655093871
 20
42.9309739535686
 10
17.36857632674571
 20
42.93474072350118
 10
17.36904255009261
 20
42.9385278547547
 10
17.36969516398091
 20
42.94231797869827
 10
17.3705341114121
 20
42.94609372670104
 10
17.3715593353877
 20
42.94983773013215
 10
17.37277077890926
 20
42.95353262036069
 10
17.37416838497825
 20
42.95716102875585
 10
17.37574973221186
 20
42.96070703801041
 10
17.37750375212863
 20
42.96415893493304
 10
17.37941741708238
 20
42.96750565706648
 10
17.38147769942677
 20
42.97073614195356
 10
17.38367157151558
 20
42.97383932713702
 10
17.3859860057025
 20
42.97680415015966
 10
17.3884079743413
 20
42.97961954856426
 10
17.39092444978573
 20
42.98227445989362
 10
17.39358888720764
 20
42.98482210209761
 10
17.39641452780239
 20
42.98727273733294
 10
17.39939032807487
 20
42.98961345681062
 10
17.40250524452997
 20
42.99183135174166
 10
17.40574823367257
 20
42.99391351333706
 10
17.40910825200757
 20
42.99584703280785
 10
17.41257425603987
 20
42.99761900136503
 10
17.41613520227435
 20
42.9992165102196
 10
17.41977934706182
 20
43.00062855610819
 10
17.42349077369519
 20
43.0018526713287
 10
17.42725217909248
 20
43.00288875043409
 10
17.43104626017177
 20
43.00373668797733
 10
17.43485571385111
 20
43.00439637851135
 10
17.43866323704856
 20
43.00486771658913
 10
17.44245152668219
 20
43.00515059676365
 10
17.44620327967002
 20
43.00524491358782
 10
17.4499050407174
 20
43.00515622627593
 10
17.45365125536079
 20
43.00488708950054
 10
17.45742348215881
 20
43.00443289100206
 10
17.46120327967003
 20
43.00378901852087
  0
LINE
  5
2F6
330
1E
100
AcDbEntity
  8
0
100
AcDbLine
 10
17.04095327967002
 20
30.21325123121251
 30
0.0
 11
17.04095327967002
 21
44.90823859596314
 31
0.0
  0
LINE
  5
2F7
330
1E
100
AcDbEntity
  8
OBJECT
100
AcDbLine
 10
24.04170327967007
 20
45.06074491358783
 30
0.0
 11
24.04170327967007
 21
35.63211991358782
 31
0.0
  0
LINE
  5
2F8
330
1E
100
AcDbEntity
  8
OBJECT
100
AcDbLine
 10
13.04315596942846
 20
45.02611991358784
 30
0.0
 11
13.04315596942849
 21
30.09536991358782
 31
0.0
  0
LWPOLYLINE
  5
2F9
330
1E
100
AcDbEntity
  8
OBJECT
100
AcDbPolyline
 90
        4
 70
     1
 43
0.0
 10
13.13553096942849
 20
42.73974491358783
 10
13.13553096942852
 20
43.73974491358783
 10
13.0825309694285
 20
43.73974491358783
 10
13.0825309694285
 20
42.73974491358783
  0
LWPOLYLINE
  5
2FF
330
1E
100
AcDbEntity
  8
OBJECT
100
AcDbPolyline
 90
       10
 70
     1
 43
0.0
 10
13.51597443151201
 20
42.71624491358783
 42
1.0
 10
13.51597443151201
 20
42.82524491358783
 10
13.34673444002258
 20
42.82524491358783
 10
13.34673444002258
 20
43.65424491358782
 10
13.51597443151201
 20
43.65424491358782
 42
1.0
 10
13.51597443151201
 20
43.76324491358782
 10
13.34673446938306
 20
43.76324491358783
 42
0.4142125522587783
 10
13.2377344693837
 20
43.65424528950128
 10
13.23773161037224
 20
42.82524528950129
 42
0.414214572488157
 10
13.3467316103716
 20
42.71624491358783
  0
LINE
  5
30B
330
1E
100
AcDbEntity
  8
OBJECT
100
AcDbLine
 10
13.48190596942849
 20
43.58374491358783
 30
0.0
 11
13.48190596942849
 21
42.89574491358782
 31
0.0
  0
LWPOLYLINE
  5
30C
330
1E
100
AcDbEntity
  8
OBJECT
100
AcDbPolyline
 90
       12
 70
     0
 43
0.0
 10
13.39553096942851
 20
43.58374491358783
 10
13.60242864624474
 20
43.58374491358783
 10
13.61780265679201
 20
43.57898738436978
 10
13.63083611359924
 20
43.56543908741199
 10
13.63954479101606
 20
43.54516262811065
 10
13.64260287185014
 20
43.52124491358782
 10
13.64260287185014
 20
42.95824491358778
 10
13.63954479101606
 20
42.93432719906501
 10
13.63083611359924
 20
42.91405073976367
 10
13.61780265679201
 20
42.90050244280588
 10
13.60242864624477
 20
42.89574491358782
 10
13.39553096942851
 20
42.89574491358782
  0
LINE
  5
31A
330
1E
100
AcDbEntity
  8
OBJECT
100
AcDbLine
 10
13.39553096942851
 20
43.65424491358782
 30
0.0
 11
13.39553096942851
 21
42.82524491358783
 31
0.0
  0
LINE
  5
31B
330
1E
100
AcDbEntity
  8
OBJECT
100
AcDbLine
 10
1.802155969428479
 20
45.02611991358784
 30
0.0
 11
1.802155969428479
 21
30.09536991358782
 31
0.0
  0
LINE
  5
31C
330
1E
100
AcDbEntity
  8
OBJECT
100
AcDbLine
 10
1.7632159415224
 20
43.56024491358781
 30
0.0
 11
1.7632159415224
 21
42.27924491358782
 31
0.0
  0
LINE
  5
31D
330
1E
100
AcDbEntity
  8
OBJECT
100
AcDbLine
 10
1.693215941522378
 20
43.56024491358781
 30
0.0
 11
1.693215941522378
 21
42.27924491358782
 31
0.0
  0
LINE
  5
31E
330
1E
100
AcDbEntity
  8
OBJECT
100
AcDbLine
 10
1.499405969428476
 20
43.56024491358781
 30
0.0
 11
1.499405969428476
 21
42.27924491358782
 31
0.0
  0
LINE
  5
31F
330
1E
100
AcDbEntity
  8
OBJECT
100
AcDbLine
 10
1.141405969428472
 20
43.56024491358781
 30
0.0
 11
1.141405969428472
 21
42.27924491358782
 31
0.0
  0
LWPOLYLINE
  5
320
330
1E
100
AcDbEntity
  8
OBJECT
100
AcDbPolyline
 90
        8
 70
     1
 43
0.0
 10
18.25992912443728
 20
8.671678980935979
 10
7.333929124437311
 20
8.671678980935979
 42
-0.4142135623730951
 10
6.900929124437304
 20
9.104678980935986
 10
6.900929124437304
 20
23.98067898093598
 42
-0.4142135623730951
 10
7.333929124437311
 20
24.41367898093599
 10
18.25992912443727
 20
24.41367898093598
 42
-0.4142135623730951
 10
18.69292912443727
 20
23.98067898093598
 10
18.69292912443727
 20
9.104678980935986
 42
-0.4142135623730953
  0
LWPOLYLINE
  5
32A
330
1E
100
AcDbEntity
  8
OBJECT
100
AcDbPolyline
 90
        8
 70
     1
 43
0.0
 10
18.20405412443731
 20
9.077678980936028
 10
7.389804124437283
 20
9.077678980935985
 42
-0.414213562373096
 10
7.327804124437285
 20
9.139678980935983
 10
7.327804124437285
 20
23.94567898093598
 42
-0.4142135623730951
 10
7.389804124437283
 20
24.00767898093598
 10
18.20405412443731
 20
24.00767898093598
 42
-0.414213562373095
 10
18.26605412443731
 20
23.94567898093598
 10
18.26605412443731
 20
9.139678980936032
 42
-0.4142135623730941
  0
LWPOLYLINE
  5
334
330
1E
100
AcDbEntity
  8
OBJECT
100
AcDbPolyline
 90
        8
 70
     1
 43
0.0
 10
18.25992912443728
 20
8.868678980935982
 10
7.333929124437311
 20
8.868678980935982
 42
-0.414213562373096
 10
7.097929124437307
 20
9.104678980935986
 10
7.097929124437307
 20
23.98067898093598
 42
-0.4142135623730971
 10
7.333929124437311
 20
24.21667898093598
 10
18.25992912443727
 20
24.21667898093598
 42
-0.4142135623730927
 10
18.49592912443727
 20
23.98067898093598
 10
18.49592912443727
 20
9.104678980935986
 42
-0.414213562373096
  0
LWPOLYLINE
  5
33E
330
1E
100
AcDbEntity
  8
OBJECT
100
AcDbPolyline
 90
        8
 70
     1
 43
0.0
 10
18.25992912443728
 20
8.947678980935982
 10
7.333929124437311
 20
8.947678980935982
 42
-0.4142135623730961
 10
7.1769291244373
 20
9.104678980935986
 10
7.176929124437315
 20
23.98067898093598
 42
-0.4142135623730928
 10
7.333929124437311
 20
24.13767898093599
 10
18.25992912443727
 20
24.13767898093598
 42
-0.4142135623730928
 10
18.41692912443726
 20
23.98067898093598
 10
18.41692912443728
 20
9.104678980935986
 42
-0.4142135623730928
  0
LINE
  5
348
330
1E
100
AcDbEntity
  8
0
100
AcDbLine
 10
18.22620327966999
 20
29.96549491358783
 30
0.0
 11
18.22620327967005
 21
42.71624491358783
 31
0.0
  0
LINE
  5
349
330
1E
100
AcDbEntity
  8
OBJECT
100
AcDbLine
 10
12.89578096942848
 20
29.72511991358782
 30
0.0
 11
1.94953096942849
 21
29.72511991358782
 31
0.0
  0
LINE
  5
34A
330
1E
100
AcDbEntity
  8
OBJECT
100
AcDbLine
 10
12.9250309694285
 20
29.97724491358782
 30
0.0
 11
1.920280969428471
 21
29.97724491358782
 31
0.0
  0
LWPOLYLINE
  5
34B
330
1E
100
AcDbEntity
  8
OBJECT
100
AcDbPolyline
 90
        5
 70
     0
 43
0.0
 10
1.526655969428485
 20
31.56124491358782
 10
1.526655969428485
 20
30.12274491358781
 42
0.4142135623730951
 10
1.959655969428492
 20
29.68974491358782
 10
12.88565596942845
 20
29.68974491358782
 42
0.4142135623730951
 10
13.31865596942845
 20
30.12274491358782
  0
LWPOLYLINE
  5
352
330
1E
100
AcDbEntity
  8
OBJECT
100
AcDbPolyline
 90
        4
 70
     0
 43
0.0
 10
7.327804124437285
 20
10.54267898093598
 10
7.268741624437303
 20
10.60174148093598
 10
7.268741624437303
 20
9.969616480935968
 10
7.327804124437285
 20
10.02867898093599
  0
LINE
  5
358
330
1E
100
AcDbEntity
  8
OBJECT
100
AcDbLine
 10
1.555780969428479
 20
42.27924491358782
 30
0.0
 11
1.555780969428479
 21
32.84224491358782
 31
0.0
  0
LWPOLYLINE
  5
359
330
1E
100
AcDbEntity
  8
OBJECT
100
AcDbPolyline
 90
        2
 70
     0
 43
0.0
 10
1.526655969428485
 20
42.27924491358782
 10
1.526655969428485
 20
32.84224491358782
 42
0.4142135623730951
  0
LWPOLYLINE
  5
35D
330
1E
100
AcDbEntity
  8
OBJECT
100
AcDbPolyline
 90
        4
 70
     0
 43
0.0
 10
18.26605412443731
 20
10.54267898093598
 10
18.32511662443729
 20
10.60174148093598
 10
18.32511662443729
 20
9.969616480935968
 10
18.26605412443731
 20
10.02867898093599
  0
LINE
  5
363
330
1E
100
AcDbEntity
  8
OBJECT
100
AcDbLine
 10
1.555780969428479
 20
31.56124491358782
 30
0.0
 11
1.555780969428479
 21
30.11886991358782
 31
0.0
  0
ARC
  5
364
330
1E
100
AcDbEntity
  8
OBJECT
100
AcDbCircle
 10
1.94953096942849
 20
30.11886991358782
 30
0.0
 40
0.39375
100
AcDbArc
 50
180.0
 51
270.0
  0
POINT
  5
365
330
1E
100
AcDbEntity
  8
OBJECT
100
AcDbPoint
 10
1.555780969428479
 20
30.11886991358782
 30
0.0
  0
ARC
  5
366
330
1E
100
AcDbEntity
  8
OBJECT
100
AcDbCircle
 10
1.920280969428471
 20
30.09536991358782
 30
0.0
 40
0.118125
100
AcDbArc
 50
180.0
 51
270.0
  0
LINE
  5
367
330
1E
100
AcDbEntity
  8
OBJECT
100
AcDbLine
 10
1.7632159415224
 20
32.84224491358782
 30
0.0
 11
1.141405969428472
 21
32.84224491358782
 31
0.0
  0
LINE
  5
368
330
1E
100
AcDbEntity
  8
OBJECT
100
AcDbLine
 10
1.7632159415224
 20
31.56124491358782
 30
0.0
 11
1.141405969428472
 21
31.56124491358782
 31
0.0
  0
LINE
  5
369
330
1E
100
AcDbEntity
  8
OBJECT
100
AcDbLine
 10
1.141405969428472
 20
31.56124491358782
 30
0.0
 11
1.141405969428472
 21
32.84224491358782
 31
0.0
  0
LINE
  5
36A
330
1E
100
AcDbEntity
  8
OBJECT
100
AcDbLine
 10
1.499405969428476
 20
31.56124491358782
 30
0.0
 11
1.499405969428476
 21
32.8422449135878
 31
0.0
  0
LINE
  5
36B
330
1E
100
AcDbEntity
  8
OBJECT
100
AcDbLine
 10
1.499405969428476
 20
31.87324491358781
 30
0.0
 11
1.141405969428472
 21
31.87324491358781
 31
0.0
  0
LINE
  5
36C
330
1E
100
AcDbEntity
  8
OBJECT
100
AcDbLine
 10
1.499405969428476
 20
32.53024491358781
 30
0.0
 11
1.141405969428472
 21
32.53024491358781
 31
0.0
  0
LINE
  5
36D
330
1E
100
AcDbEntity
  8
OBJECT
100
AcDbLine
 10
1.693215941522378
 20
31.56124491358782
 30
0.0
 11
1.693215941522378
 21
32.84224491358782
 31
0.0
  0
LINE
  5
36E
330
1E
100
AcDbEntity
  8
OBJECT
100
AcDbLine
 10
1.7632159415224
 20
31.56124491358782
 30
0.0
 11
1.7632159415224
 21
32.84224491358782
 31
0.0
  0
LINE
  5
36F
330
1E
100
AcDbEntity
  8
OBJECT
100
AcDbLine
 10
1.7632159415224
 20
42.27924491358782
 30
0.0
 11
1.141405969428472
 21
42.27924491358782
 31
0.0
  0
LINE
  5
370
330
1E
100
AcDbEntity
  8
OBJECT
100
AcDbLine
 10
1.499405969428476
 20
42.59124491358782
 30
0.0
 11
1.141405969428472
 21
42.59124491358782
 31
0.0
  0
LINE
  5
371
330
1E
100
AcDbEntity
  8
OBJECT
100
AcDbLine
 10
18.50182827967003
 20
42.71624491358783
 30
0.0
 11
18.50182827967003
 21
37.56074491358782
 31
0.0
  0
LINE
  5
372
330
1E
100
AcDbEntity
  8
0
100
AcDbLine
 10
17.91120327967002
 20
37.56074491358782
 30
0.0
 11
17.91120327967005
 21
42.71624491358783
 31
0.0
  0
LINE
  5
373
330
1E
100
AcDbEntity
  8
OBJECT
100
AcDbLine
 10
13.28953096942849
 20
42.73245974949518
 30
0.0
 11
13.28953096942849
 21
32.38902831508166
 31
0.0
  0
LINE
  5
374
330
1E
100
AcDbEntity
  8
OBJECT
100
AcDbLine
 10
17.37120327967003
 20
42.90562077043673
 30
0.0
 11
17.37120327967003
 21
42.90572623274488
 31
0.0
  0
LINE
  5
375
330
1E
100
AcDbEntity
  8
OBJECT
100
AcDbLine
 10
17.51920327967002
 20
42.89979366977551
 30
0.0
 11
17.51920327967002
 21
42.89976765025984
 31
0.0
  0
LWPOLYLINE
  5
376
330
1E
100
AcDbEntity
  8
OBJECT
100
AcDbPolyline
 90
        4
 70
     0
 43
0.0
 10
17.85820327967002
 20
42.89574491358782
 10
17.85820327967002
 20
42.82524491358783
 10
18.94732827967002
 20
42.82524491358783
 10
18.94732827967002
 20
42.89567190096071
  0
LWPOLYLINE
  5
37C
330
1E
100
AcDbEntity
  8
OBJECT
100
AcDbPolyline
 90
        6
 70
     0
 43
0.0
 10
19.05632827967003
 20
42.89574491358783
 10
19.05632827967003
 20
42.82524491358783
 42
-0.4142135623730951
 10
18.94732827967004
 20
42.71624491358783
 10
17.85820327967005
 20
42.71624491358783
 42
-0.4142135623730951
 10
17.74920327967004
 20
42.82524491358783
 10
17.74920327967004
 20
42.89574491358783
  0
LINE
  5
384
330
1E
100
AcDbEntity
  8
0
100
AcDbLine
 10
17.27183949972402
 20
30.09524807240016
 30
0.0
 11
18.22620327967002
 21
30.06529869876134
 31
0.0
  0
LINE
  5
385
330
1E
100
AcDbEntity
  8
0
100
AcDbLine
 10
17.26647571977799
 20
29.97724491358782
 30
0.0
 11
17.91120327967002
 21
29.96136991358781
 31
0.0
  0
INSERT
  5
386
330
1E
100
AcDbEntity
  8
OBJECT
100
AcDbBlockReference
  2
*X1
 10
17.04095327967002
 20
29.72511991358782
 30
0.0
1001
ACAD
1000
HATCH
1002
{
1070
    16
1000
PLASTI
1040
2.0
1040
0.7853981633974483
1002
}
  0
LINE
  5
387
330
1E
100
AcDbEntity
  8
0
100
AcDbLine
 10
17.15907827967001
 20
37.56074491358782
 30
0.0
 11
17.15907827967001
 21
30.21325123121251
 31
0.0
  0
LWPOLYLINE
  5
388
330
1E
100
AcDbEntity
  8
OBJECT
100
AcDbPolyline
 90
        2
 70
     0
 43
0.0
 10
13.31865596942845
 20
32.4015663161625
 10
13.31865596942845
 20
42.7199227488473
 42
0.414213562373095
  0
ARC
  5
38C
330
1E
100
AcDbEntity
  8
OBJECT
100
AcDbCircle
 10
12.89578096942848
 20
30.11886991358782
 30
0.0
 40
0.39375
100
AcDbArc
 50
270.0
 51
0.0
  0
POINT
  5
38D
330
1E
100
AcDbEntity
  8
OBJECT
100
AcDbPoint
 10
12.89578096942848
 20
29.72511991358782
 30
0.0
  0
LINE
  5
38E
330
1E
100
AcDbEntity
  8
OBJECT
100
AcDbLine
 10
13.28953096942849
 20
31.37445974949391
 30
0.0
 11
13.28953096942849
 21
30.11886991358782
 31
0.0
  0
LWPOLYLINE
  5
38F
330
1E
100
AcDbEntity
  8
OBJECT
100
AcDbPolyline
 90
        2
 70
     0
 43
0.0
 10
13.31865596942845
 20
30.12274491358782
 10
13.31865596942845
 20
31.36192274884729
 42
0.414213562373095
  0
ARC
  5
393
330
1E
100
AcDbEntity
  8
OBJECT
100
AcDbCircle
 10
12.9250309694285
 20
30.09536991358782
 30
0.0
 40
0.118125
100
AcDbArc
 50
270.0
 51
0.0
  0
POINT
  5
394
330
1E
100
AcDbEntity
  8
OBJECT
100
AcDbPoint
 10
13.28953096942849
 20
30.11886991358782
 30
0.0
  0
LWPOLYLINE
  5
395
330
1E
100
AcDbEntity
  8
OBJECT
100
AcDbPolyline
 90
       10
 70
     1
 43
0.0
 10
13.51597443151201
 20
31.35824491358783
 42
1.0
 10
13.51597443151201
 20
31.46724491358782
 10
13.34673444002258
 20
31.46724491358781
 10
13.34673444002258
 20
32.29624491358782
 10
13.51597443151201
 20
32.29624491358782
 42
1.0
 10
13.51597443151201
 20
32.40524491358781
 10
13.34673446938306
 20
32.40524491358781
 42
0.4142125522587783
 10
13.2377344693837
 20
32.29624528950126
 10
13.23773161037224
 20
31.46724528950127
 42
0.414214572488157
 10
13.3467316103716
 20
31.35824491358782
  0
LINE
  5
3A1
330
1E
100
AcDbEntity
  8
OBJECT
100
AcDbLine
 10
13.48190596942849
 20
32.22574491358781
 30
0.0
 11
13.48190596942849
 21
31.53774491358782
 31
0.0
  0
LWPOLYLINE
  5
3A2
330
1E
100
AcDbEntity
  8
OBJECT
100
AcDbPolyline
 90
       12
 70
     0
 43
0.0
 10
13.39553096942851
 20
32.22574491358781
 10
13.60242864624474
 20
32.22574491358781
 10
13.61780265679201
 20
32.22098738436977
 10
13.63083611359924
 20
32.20743908741197
 10
13.63954479101606
 20
32.18716262811063
 10
13.64260287185014
 20
32.16324491358781
 10
13.64260287185014
 20
31.60024491358776
 10
13.63954479101606
 20
31.576327199065
 10
13.63083611359924
 20
31.55605073976365
 10
13.61780265679201
 20
31.54250244280586
 10
13.60242864624477
 20
31.53774491358782
 10
13.39553096942851
 20
31.53774491358782
  0
LINE
  5
3B0
330
1E
100
AcDbEntity
  8
OBJECT
100
AcDbLine
 10
13.23794195510494
 20
31.46724491358781
 30
0.0
 11
13.13553096942849
 21
31.46724491358781
 31
0.0
  0
LINE
  5
3B1
330
1E
100
AcDbEntity
  8
OBJECT
100
AcDbLine
 10
13.13553096942852
 20
32.29624491358782
 30
0.0
 11
13.2379336033389
 21
32.29624491358782
 31
0.0
  0
ARC
  5
3B2
330
1E
100
AcDbEntity
  8
0
100
AcDbCircle
 10
17.27720327967003
 20
30.21325123121251
 30
0.0
 40
0.118125
100
AcDbArc
 50
180.0
 51
267.3974377975001
  0
ARC
  5
3B3
330
1E
100
AcDbEntity
  8
0
100
AcDbCircle
 10
17.27720327967003
 20
30.21325123121251
 30
0.0
 40
0.23625
100
AcDbArc
 50
180.0
 51
267.3974377975001
  0
LWPOLYLINE
  5
3B4
330
1E
100
AcDbEntity
  8
OBJECT
100
AcDbPolyline
 90
        4
 70
     1
 43
0.0
 10
13.13553096942849
 20
31.38174491358781
 10
13.13553096942852
 20
32.38174491358781
 10
13.0825309694285
 20
32.38174491358781
 10
13.0825309694285
 20
31.38174491358781
  0
LINE
  5
3BA
330
1E
100
AcDbEntity
  8
OBJECT
100
AcDbLine
 10
13.23794195510494
 20
42.82524491358783
 30
0.0
 11
13.13553096942849
 21
42.82524491358783
 31
0.0
  0
LINE
  5
3BB
330
1E
100
AcDbEntity
  8
OBJECT
100
AcDbLine
 10
23.89170327967006
 20
35.15421154078179
 30
0.0
 11
23.89170327967003
 21
31.43677828639386
 31
0.0
  0
LINE
  5
3BC
330
1E
100
AcDbEntity
  8
OBJECT
100
AcDbLine
 10
24.04170327967007
 20
35.2383699135878
 30
0.0
 11
24.04170327967007
 21
31.35261991358783
 31
0.0
  0
INSERT
  5
3BD
330
1E
100
AcDbEntity
  8
OBJECT
100
AcDbBlockReference
  2
*X2
 10
18.22620327967002
 20
29.68974491358782
 30
0.0
1001
ACAD
1000
HATCH
1002
{
1070
    16
1000
PLASTI
1040
2.0
1040
2.356194490192344
1002
}
  0
LINE
  5
3BE
330
1E
100
AcDbEntity
  8
OBJECT
100
AcDbLine
 10
23.63282827967004
 20
30.55924491358782
 30
0.0
 11
24.12145327967003
 21
30.55924491358782
 31
0.0
  0
LINE
  5
3BF
330
1E
100
AcDbEntity
  8
OBJECT
100
AcDbLine
 10
23.63282827967004
 20
30.54674491358782
 30
0.0
 11
24.12145327967003
 21
30.54674491358783
 31
0.0
  0
LINE
  5
3C0
330
1E
100
AcDbEntity
  8
OBJECT
100
AcDbLine
 10
23.63282827967004
 20
30.72424491358783
 30
0.0
 11
24.12145327967003
 21
30.72424491358783
 31
0.0
  0
LINE
  5
3C1
330
1E
100
AcDbEntity
  8
OBJECT
100
AcDbLine
 10
23.63282827967004
 20
30.73674491358782
 30
0.0
 11
24.12145327967003
 21
30.73674491358783
 31
0.0
  0
LINE
  5
3C2
330
1E
100
AcDbEntity
  8
OBJECT
100
AcDbLine
 10
24.04170327967007
 20
30.06074491358782
 30
0.0
 11
18.50182827967003
 21
29.9613699135878
 31
0.0
  0
LINE
  5
3C3
330
1E
100
AcDbEntity
  8
OBJECT
100
AcDbLine
 10
23.85340367265704
 20
30.17973118374241
 30
0.0
 11
18.22620327967002
 21
30.07865714763036
 31
0.0
  0
LINE
  5
3C4
330
1E
100
AcDbEntity
  8
OBJECT
100
AcDbLine
 10
18.72382127835506
 20
29.68974491358782
 30
0.0
 11
18.99944627835508
 21
29.68974491358782
 31
0.0
  0
LINE
  5
3C5
330
1E
100
AcDbEntity
  8
0
100
AcDbLine
 10
18.40882127835506
 20
29.72511991358782
 30
0.0
 11
18.72382127835506
 21
29.72511991358782
 31
0.0
  0
POINT
  5
3C6
330
1E
100
AcDbEntity
  8
DEFPOINTS
  6
ByBlock
 62
     0
100
AcDbPoint
 10
17.91120327967002
 20
29.96136991358781
 30
0.0
  0
LINE
  5
3C7
330
1E
100
AcDbEntity
  8
0
100
AcDbLine
 10
17.91120327967002
 20
29.96136991358781
 30
0.0
 11
17.91120327967002
 21
29.72511991358782
 31
0.0
  0
LWPOLYLINE
  5
3C8
330
1E
100
AcDbEntity
  8
OBJECT
100
AcDbPolyline
 90
        4
 70
     0
 43
0.0
 10
18.22620327967002
 20
30.00424491358777
 10
18.02620327967003
 20
30.00424491358777
 10
18.02620327967003
 20
29.83424491358777
 10
18.22620327967002
 20
29.83424491358777
  0
LWPOLYLINE
  5
3CE
330
1E
100
AcDbEntity
  8
OBJECT
100
AcDbPolyline
 90
        4
 70
     0
 43
0.0
 10
18.22620327967002
 20
29.96549491358783
 10
18.15757827967005
 20
29.96549491358784
 42
1.0
 10
18.15757827967005
 20
29.88674491358782
 10
18.22620327967002
 20
29.88674491358782
  0
LINE
  5
3D4
330
1E
100
AcDbEntity
  8
OBJECT
100
AcDbLine
 10
18.50182827967003
 20
29.9613699135878
 30
0.0
 11
18.50182827967003
 21
29.68974491358782
 31
0.0
  0
LINE
  5
3D5
330
1E
100
AcDbEntity
  8
OBJECT
100
AcDbLine
 10
23.51370327967004
 20
30.8940859761802
 30
0.0
 11
23.51370327967004
 21
30.38940385099547
 31
0.0
  0
LINE
  5
3D6
330
1E
100
AcDbEntity
  8
OBJECT
100
AcDbLine
 10
23.89170327967006
 20
30.36071154078178
 30
0.0
 11
23.51370327967004
 21
30.38940385099547
 31
0.0
  0
LINE
  5
3D7
330
1E
100
AcDbEntity
  8
OBJECT
100
AcDbLine
 10
23.89170327967006
 20
30.36071154078178
 30
0.0
 11
23.89170327967006
 21
30.21872489412836
 31
0.0
  0
ARC
  5
3D8
330
1E
100
AcDbEntity
  8
OBJECT
100
AcDbCircle
 10
23.85270327967004
 20
30.21872489412836
 30
0.0
 40
0.039
100
AcDbArc
 50
271.0290184501323
 51
359.9999999999996
  0
LINE
  5
3D9
330
1E
100
AcDbEntity
  8
OBJECT
100
AcDbLine
 10
24.00232827967005
 20
31.25074491358783
 30
0.0
 11
24.00232827967005
 21
31.06074491358783
 31
0.0
  0
LINE
  5
3DA
330
1E
100
AcDbEntity
  8
OBJECT
100
AcDbLine
 10
23.89170327967003
 20
31.43677828639386
 30
0.0
 11
23.51370327967004
 21
31.40808597618019
 31
0.0
  0
LINE
  5
3DB
330
1E
100
AcDbEntity
  8
OBJECT
100
AcDbLine
 10
23.63282827967004
 20
30.73674491358783
 30
0.0
 11
23.63282827967004
 21
30.54674491358783
 31
0.0
  0
LINE
  5
3DC
330
1E
100
AcDbEntity
  8
OBJECT
100
AcDbLine
 10
23.57508133974855
 20
30.89874491358783
 30
0.0
 11
23.51370327967004
 21
30.8940859761802
 31
0.0
  0
LINE
  5
3DD
330
1E
100
AcDbEntity
  8
OBJECT
100
AcDbLine
 10
23.51370327967004
 20
31.40808597618019
 30
0.0
 11
23.51370327967004
 21
30.90340385099546
 31
0.0
  0
LINE
  5
3DE
330
1E
100
AcDbEntity
  8
OBJECT
100
AcDbLine
 10
23.57508133974855
 20
30.89874491358783
 30
0.0
 11
23.51370327967004
 21
30.90340385099546
 31
0.0
  0
LINE
  5
3DF
330
1E
100
AcDbEntity
  8
OBJECT
100
AcDbLine
 10
24.00232827967005
 20
31.07324491358782
 30
0.0
 11
23.51370327967004
 21
31.07324491358782
 31
0.0
  0
LINE
  5
3E0
330
1E
100
AcDbEntity
  8
OBJECT
100
AcDbLine
 10
24.00232827967005
 20
31.06074491358783
 30
0.0
 11
23.51370327967004
 21
31.06074491358783
 31
0.0
  0
LINE
  5
3E1
330
1E
100
AcDbEntity
  8
OBJECT
100
AcDbLine
 10
24.00232827967005
 20
31.25074491358783
 30
0.0
 11
23.51370327967004
 21
31.25074491358783
 31
0.0
  0
LINE
  5
3E2
330
1E
100
AcDbEntity
  8
OBJECT
100
AcDbLine
 10
24.00232827967005
 20
31.23824491358782
 30
0.0
 11
23.51370327967004
 21
31.23824491358782
 31
0.0
  0
LINE
  5
3E3
330
1E
100
AcDbEntity
  8
OBJECT
100
AcDbLine
 10
24.12145327967003
 20
30.93705741358783
 30
0.0
 11
24.12145327967003
 21
30.34643241358784
 31
0.0
  0
LINE
  5
3E4
330
1E
100
AcDbEntity
  8
OBJECT
100
AcDbLine
 10
24.04170327967007
 20
30.34643241358784
 30
0.0
 11
24.04170327967007
 21
30.06074491358782
 31
0.0
  0
LINE
  5
3E5
330
1E
100
AcDbEntity
  8
OBJECT
100
AcDbLine
 10
24.04170327967007
 20
30.34643241358784
 30
0.0
 11
24.12145327967003
 21
30.34643241358784
 31
0.0
  0
LINE
  5
3E6
330
1E
100
AcDbEntity
  8
OBJECT
100
AcDbLine
 10
24.04170327967007
 20
31.35261991358783
 30
0.0
 11
24.12145327967003
 21
31.35261991358783
 31
0.0
  0
LINE
  5
3E7
330
1E
100
AcDbEntity
  8
OBJECT
100
AcDbLine
 10
24.04170327967007
 20
30.95886991358784
 30
0.0
 11
24.12145327967003
 21
30.95886991358784
 31
0.0
  0
LINE
  5
3E8
330
1E
100
AcDbEntity
  8
OBJECT
100
AcDbLine
 10
24.04170327967007
 20
30.93705741358783
 30
0.0
 11
24.12145327967003
 21
30.93705741358783
 31
0.0
  0
LINE
  5
3E9
330
1E
100
AcDbEntity
  8
OBJECT
100
AcDbLine
 10
24.04170327967007
 20
30.95886991358784
 30
0.0
 11
24.04170327967007
 21
30.93705741358783
 31
0.0
  0
LINE
  5
3EA
330
1E
100
AcDbEntity
  8
OBJECT
100
AcDbLine
 10
24.12145327967003
 20
31.35261991358783
 30
0.0
 11
24.12145327967003
 21
30.95886991358784
 31
0.0
  0
LINE
  5
3EB
330
1E
100
AcDbEntity
  8
OBJECT
100
AcDbLine
 10
23.51370327967004
 20
35.68758597618018
 30
0.0
 11
23.51370327967004
 21
35.18290385099545
 31
0.0
  0
LINE
  5
3EC
330
1E
100
AcDbEntity
  8
OBJECT
100
AcDbLine
 10
23.90870327967005
 20
35.53374491358782
 30
0.0
 11
23.90870327967005
 21
35.33674491358782
 31
0.0
  0
LINE
  5
3ED
330
1E
100
AcDbEntity
  8
OBJECT
100
AcDbLine
 10
23.51370327967004
 20
35.33674491358782
 30
0.0
 11
23.90870327967005
 21
35.33674491358782
 31
0.0
  0
LINE
  5
3EE
330
1E
100
AcDbEntity
  8
OBJECT
100
AcDbLine
 10
23.89170327967006
 20
35.15421154078179
 30
0.0
 11
23.51370327967004
 21
35.18290385099545
 31
0.0
  0
LINE
  5
3EF
330
1E
100
AcDbEntity
  8
OBJECT
100
AcDbLine
 10
23.89170327967006
 20
35.71627828639387
 30
0.0
 11
23.89170327967006
 21
37.56074491358782
 31
0.0
  0
LINE
  5
3F0
330
1E
100
AcDbEntity
  8
OBJECT
100
AcDbLine
 10
23.51370327967004
 20
35.53374491358782
 30
0.0
 11
23.90870327967005
 21
35.53374491358782
 31
0.0
  0
LINE
  5
3F1
330
1E
100
AcDbEntity
  8
OBJECT
100
AcDbLine
 10
23.89170327967006
 20
35.71627828639387
 30
0.0
 11
23.51370327967004
 21
35.68758597618018
 31
0.0
  0
LINE
  5
3F2
330
1E
100
AcDbEntity
  8
OBJECT
100
AcDbLine
 10
24.12145327967003
 20
35.63211991358782
 30
0.0
 11
24.12145327967003
 21
35.23836991358783
 31
0.0
  0
LINE
  5
3F3
330
1E
100
AcDbEntity
  8
OBJECT
100
AcDbLine
 10
24.04170327967007
 20
35.2383699135878
 30
0.0
 11
24.12145327967003
 21
35.23836991358781
 31
0.0
  0
LINE
  5
3F4
330
1E
100
AcDbEntity
  8
OBJECT
100
AcDbLine
 10
24.04170327967007
 20
35.63211991358782
 30
0.0
 11
24.12145327967003
 21
35.63211991358782
 31
0.0
  0
LINE
  5
3F5
330
1E
100
AcDbEntity
  8
OBJECT
100
AcDbLine
 10
24.04170327967007
 20
39.91025116358784
 30
0.0
 11
24.12145327967003
 21
39.91025116358784
 31
0.0
  0
LINE
  5
3F6
330
1E
100
AcDbEntity
  8
OBJECT
100
AcDbLine
 10
24.04170327967007
 20
39.47712616358784
 30
0.0
 11
24.12145327967003
 21
39.47712616358784
 31
0.0
  0
LINE
  5
3F7
330
1E
100
AcDbEntity
  8
OBJECT
100
AcDbLine
 10
24.12145327967003
 20
39.47712616358784
 30
0.0
 11
24.12145327967003
 21
39.91025116358784
 31
0.0
  0
LINE
  5
3F8
330
1E
100
AcDbEntity
  8
OBJECT
100
AcDbLine
 10
13.39553096942851
 20
32.29624491358782
 30
0.0
 11
13.39553096942851
 21
31.46724491358781
 31
0.0
  0
LWPOLYLINE
  5
3F9
330
1E
100
AcDbEntity
  8
OBJECT
100
AcDbPolyline
 90
        4
 70
     0
 43
0.0
 10
18.22620327967002
 20
31.04274491358781
 10
19.41420327967001
 20
31.04274491358781
 10
19.41420327967001
 20
31.55674491358781
 10
18.22620327967002
 20
31.5567449135878
  0
LWPOLYLINE
  5
3FF
330
1E
100
AcDbEntity
  8
HIDDEN
100
AcDbPolyline
 90
        3
 70
     0
 43
0.0
 10
18.22620327967002
 20
30.98368241358779
 10
19.41420327967001
 20
30.98368241358779
 10
19.41420327967001
 20
31.02774491358781
  0
LWPOLYLINE
  5
404
330
1E
100
AcDbEntity
  8
HIDDEN
100
AcDbPolyline
 90
        3
 70
     0
 43
0.0
 10
18.22620327967002
 20
31.61580741358781
 10
19.41420327967001
 20
31.61580741358781
 10
19.41420327967001
 20
31.5717449135878
  0
LINE
  5
409
330
1E
100
AcDbEntity
  8
0
100
AcDbLine
 10
18.72382127835503
 20
29.68974491358782
 30
0.0
 11
18.72382127835503
 21
29.88674491358782
 31
0.0
  0
LINE
  5
40A
330
1E
100
AcDbEntity
  8
OBJECT
100
AcDbLine
 10
7.422655969428469
 20
49.74662315438792
 30
0.0
 11
1.555780969428479
 21
49.74662315438792
 31
0.0
  0
LINE
  5
40B
330
1E
100
AcDbEntity
  8
OBJECT
100
AcDbLine
 10
1.555780969428479
 20
49.43162315438793
 30
0.0
 11
13.28953096942846
 21
49.43162315438793
 31
0.0
  0
LINE
  5
40C
330
1E
100
AcDbEntity
  8
OBJECT
100
AcDbLine
 10
12.80714965180377
 20
48.56137315438793
 30
0.0
 11
2.038162287053165
 21
48.56137315438793
 31
0.0
  0
LINE
  5
40D
330
1E
100
AcDbEntity
  8
OBJECT
100
AcDbLine
 10
1.89065596942849
 20
55.56212315438793
 30
0.0
 11
12.95465596942848
 21
55.56212315438793
 31
0.0
  0
LINE
  5
40E
330
1E
100
AcDbEntity
  8
OBJECT
100
AcDbLine
 10
1.526655969428485
 20
49.74662315438792
 30
0.0
 11
13.31865596942845
 21
49.74662315438792
 31
0.0
  0
LINE
  5
40F
330
1E
100
AcDbEntity
  8
OBJECT
100
AcDbLine
 10
1.526655969428485
 20
50.02224815438793
 30
0.0
 11
13.31865596942845
 21
50.02224815438793
 31
0.0
  0
LINE
  5
410
330
1E
100
AcDbEntity
  8
OBJECT
100
AcDbLine
 10
12.92503096942847
 20
45.14424491358783
 30
0.0
 11
1.920280969428471
 21
45.14424491358783
 31
0.0
  0
LINE
  5
411
330
1E
100
AcDbEntity
  8
OBJECT
100
AcDbLine
 10
12.89578096942848
 20
45.39636991358782
 30
0.0
 11
1.94953096942849
 21
45.39636991358782
 31
0.0
  0
LWPOLYLINE
  5
412
330
1E
100
AcDbEntity
  8
OBJECT
100
AcDbPolyline
 90
        6
 70
     0
 43
0.0
 10
13.31865596942845
 20
43.75956631616251
 10
13.31865596942845
 20
44.99874491358782
 42
0.414213562373095
 10
12.88565596942845
 20
45.43174491358782
 10
1.959655969428492
 20
45.43174491358782
 42
0.4142135623730951
 10
1.526655969428485
 20
44.99874491358783
 10
1.526655969428485
 20
43.56024491358781
 42
0.4142135623730951
  0
LWPOLYLINE
  5
41A
330
1E
100
AcDbEntity
  8
OBJECT
100
AcDbPolyline
 90
        4
 70
     0
 43
0.0
 10
7.327804124437285
 20
22.54267898093598
 10
7.268741624437303
 20
22.48361648093598
 10
7.268741624437303
 20
23.11574148093598
 10
7.327804124437285
 20
23.05667898093597
  0
LINE
  5
420
330
1E
100
AcDbEntity
  8
OBJECT
100
AcDbLine
 10
1.89065596942849
 20
55.56212315438793
 30
0.0
 11
1.83140596942847
 21
50.02224815438793
 31
0.0
  0
LWPOLYLINE
  5
421
330
1E
100
AcDbEntity
  8
OBJECT
100
AcDbPolyline
 90
        4
 70
     0
 43
0.0
 10
18.26605412443731
 20
22.54267898093598
 10
18.32511662443729
 20
22.48361648093598
 10
18.32511662443729
 20
23.11574148093598
 10
18.26605412443731
 20
23.05667898093597
  0
ARC
  5
427
330
1E
100
AcDbEntity
  8
OBJECT
100
AcDbCircle
 10
1.94953096942849
 20
45.00261991358782
 30
0.0
 40
0.39375
100
AcDbArc
 50
90.00000000000005
 51
180.0
  0
LINE
  5
428
330
1E
100
AcDbEntity
  8
OBJECT
100
AcDbLine
 10
1.7632159415224
 20
43.56024491358781
 30
0.0
 11
1.141405969428472
 21
43.56024491358781
 31
0.0
  0
LINE
  5
429
330
1E
100
AcDbEntity
  8
OBJECT
100
AcDbLine
 10
1.555780969428479
 20
45.00261991358782
 30
0.0
 11
1.555780969428479
 21
43.56024491358781
 31
0.0
  0
LINE
  5
42A
330
1E
100
AcDbEntity
  8
OBJECT
100
AcDbLine
 10
1.499405969428476
 20
43.24824491358781
 30
0.0
 11
1.141405969428472
 21
43.24824491358781
 31
0.0
  0
ARC
  5
42B
330
1E
100
AcDbEntity
  8
OBJECT
100
AcDbCircle
 10
1.920280969428471
 20
45.02611991358784
 30
0.0
 40
0.118125
100
AcDbArc
 50
90.00000000000005
 51
180.0
  0
LWPOLYLINE
  5
42C
330
1E
100
AcDbEntity
  8
OBJECT
100
AcDbPolyline
 90
        9
 70
     0
 43
0.0
 10
1.429405969428483
 20
49.88860906918231
 42
4.289848867954715
 10
1.499405969428504
 20
49.74662315438792
 10
1.499405969428504
 20
50.06662315438793
 10
1.83140596942847
 20
50.06662315438793
 10
1.83140596942847
 20
50.56662315438793
 10
1.761779968813566
 20
50.56662315438793
 10
1.761779968813566
 20
50.13662315438793
 10
1.429405969428483
 20
50.13662315438793
 10
1.429405969428483
 20
49.74662315438792
  0
LWPOLYLINE
  5
437
330
1E
100
AcDbEntity
  8
OBJECT
100
AcDbPolyline
 90
        8
 70
     0
 43
0.0
 10
1.429405969428483
 20
49.60463723959353
 10
1.429405969428483
 20
49.35662315438793
 10
1.722465941522397
 20
49.35662315438793
 10
1.722465941522397
 20
48.93064860766493
 10
1.792075267006804
 20
48.93064860766493
 10
1.792075267006804
 20
49.43064860766493
 10
1.499405969428476
 20
49.43064860766493
 10
1.499405969428476
 20
49.74662315438794
  0
LINE
  5
441
330
1E
100
AcDbEntity
  8
OBJECT
100
AcDbLine
 10
1.555780969428479
 20
49.43162315438793
 30
0.0
 11
1.555780969428479
 21
49.74662315438792
 31
0.0
  0
CIRCLE
  5
442
330
1E
100
AcDbEntity
  8
OBJECT
100
AcDbCircle
 10
1.320405969428474
 20
49.74662315438792
 30
0.0
 40
0.109
  0
LINE
  5
443
330
1E
100
AcDbEntity
  8
OBJECT
100
AcDbLine
 10
1.526655969428485
 20
49.74662315438792
 30
0.0
 11
1.526655969428485
 21
50.02224815438793
 31
0.0
  0
LINE
  5
444
330
1E
100
AcDbEntity
  8
OBJECT
100
AcDbLine
 10
1.802155969428479
 20
48.7868955944959
 30
0.0
 11
1.792030969428491
 21
49.43162315438793
 31
0.0
  0
ARC
  5
445
330
1E
100
AcDbEntity
  8
OBJECT
100
AcDbCircle
 10
2.038162287053165
 20
48.79762315438792
 30
0.0
 40
0.23625
100
AcDbArc
 50
182.6025622024998
 51
270.0
  0
LINE
  5
446
330
1E
100
AcDbEntity
  8
OBJECT
100
AcDbLine
 10
2.697655969428506
 20
55.64187315438792
 30
0.0
 11
2.225155969428481
 21
55.64187315438792
 31
0.0
  0
POINT
  5
447
330
1E
100
AcDbEntity
  8
OBJECT
100
AcDbPoint
 10
1.89065596942849
 20
55.56212315438796
 30
0.0
  0
LINE
  5
448
330
1E
100
AcDbEntity
  8
OBJECT
100
AcDbLine
 10
2.225155969428481
 20
55.56212315438793
 30
0.0
 11
2.225155969428481
 21
55.64187315438792
 31
0.0
  0
LINE
  5
449
330
1E
100
AcDbEntity
  8
OBJECT
100
AcDbLine
 10
3.142718469428483
 20
55.64187315438792
 30
0.0
 11
2.709593469428494
 21
55.64187315438792
 31
0.0
  0
LINE
  5
44A
330
1E
100
AcDbEntity
  8
OBJECT
100
AcDbLine
 10
2.697655969428506
 20
55.56212315438793
 30
0.0
 11
2.697655969428506
 21
55.64187315438792
 31
0.0
  0
LINE
  5
44B
330
1E
100
AcDbEntity
  8
OBJECT
100
AcDbLine
 10
2.709593469428494
 20
55.56212315438793
 30
0.0
 11
2.709593469428494
 21
55.64187315438792
 31
0.0
  0
LINE
  5
44C
330
1E
100
AcDbEntity
  8
OBJECT
100
AcDbLine
 10
3.142718469428483
 20
55.56212315438793
 30
0.0
 11
3.142718469428483
 21
55.64187315438792
 31
0.0
  0
LINE
  5
44D
330
1E
100
AcDbEntity
  8
0
100
AcDbLine
 10
18.22620327967002
 20
43.76324491358783
 30
0.0
 11
18.22620327967002
 21
45.43174491358782
 31
0.0
  0
LINE
  5
44E
330
1E
100
AcDbEntity
  8
0
100
AcDbLine
 10
17.91120327967005
 20
43.76324491358783
 30
0.0
 11
17.91120327967002
 21
45.39636991358782
 31
0.0
  0
LINE
  5
44F
330
1E
100
AcDbEntity
  8
OBJECT
100
AcDbLine
 10
18.50182827967003
 20
45.43174491358782
 30
0.0
 11
18.50182827967003
 21
43.76324491358783
 31
0.0
  0
LINE
  5
450
330
1E
100
AcDbEntity
  8
OBJECT
100
AcDbLine
 10
13.28953096942849
 20
45.00261991358782
 30
0.0
 11
13.28953096942849
 21
43.74702831508228
 31
0.0
  0
CIRCLE
  5
451
330
1E
100
AcDbEntity
  8
OBJECT
100
AcDbCircle
 10
17.44620327967002
 20
43.55224491358783
 30
0.0
 40
0.085
  0
ARC
  5
452
330
1E
100
AcDbEntity
  8
OBJECT
100
AcDbCircle
 10
17.44620327967002
 20
43.55224491358781
 30
0.0
 40
0.078
100
AcDbArc
 50
281.087489210971
 51
78.91251078902897
  0
LWPOLYLINE
  5
453
330
1E
100
AcDbEntity
  8
OBJECT
100
AcDbPolyline
 90
       73
 70
     0
 43
0.0
 10
17.46120327967003
 20
43.47570080865478
 10
17.45742368105644
 20
43.47505696187054
 10
17.45365155263443
 20
43.47460276051682
 10
17.44990528773022
 20
43.47433360946535
 10
17.44620327967002
 20
43.47424491358783
 10
17.44246276186232
 20
43.47433867166918
 10
17.43868556324295
 20
43.47461989073026
 10
17.43488891239579
 20
43.47508848799661
 10
17.43109003790451
 20
43.47574438069375
 10
17.42730616835291
 20
43.47658748604721
 10
17.42355453232477
 20
43.47761772128253
 10
17.41985235840383
 20
43.47883500362524
 10
17.41621687517386
 20
43.48023925030089
 10
17.41266393531802
 20
43.48182802425699
 10
17.40920524602049
 20
43.48359038175976
 10
17.40585181761656
 20
43.48551348001276
 10
17.4026146604416
 20
43.48758447621952
 10
17.39950478483089
 20
43.48979052758362
 10
17.39653320111975
 20
43.49211879130858
 10
17.39371091964352
 20
43.49455642459793
 10
17.39104895073748
 20
43.49709058465527
 10
17.38851907715411
 20
43.49974796461588
 10
17.38608417167771
 20
43.50256672318024
 10
17.38375733050145
 20
43.50553576508948
 10
17.38155164981859
 20
43.50864399508473
 10
17.37948022582231
 20
43.51188031790709
 10
17.37755615470581
 20
43.51523363829768
 10
17.37579253266236
 20
43.51869286099765
 10
17.3742024558851
 20
43.5222468907481
 10
17.37279705380439
 20
43.52588397884606
 10
17.3715787785118
 20
43.52958814428954
 10
17.37054771019237
 20
43.53334194337104
 10
17.36970392903117
 20
43.53712793238312
 10
17.36904751521325
 20
43.5409286676183
 10
17.36857854892372
 20
43.54472670536913
 10
17.36829711034764
 20
43.54850460192812
 10
17.36820327967004
 20
43.55224491358781
 10
17.36829655093871
 20
43.5559739535686
 10
17.36857632674574
 20
43.55974072350118
 10
17.36904255009261
 20
43.5635278547547
 10
17.36969516398091
 20
43.56731797869827
 10
17.3705341114121
 20
43.57109372670104
 10
17.3715593353877
 20
43.57483773013215
 10
17.37277077890926
 20
43.57853262036071
 10
17.37416838497825
 20
43.58216102875585
 10
17.37574973221186
 20
43.58570703801041
 10
17.37750375212863
 20
43.58915893493304
 10
17.37941741708238
 20
43.59250565706648
 10
17.38147769942677
 20
43.59573614195356
 10
17.38367157151558
 20
43.59883932713702
 10
17.3859860057025
 20
43.60180415015966
 10
17.3884079743413
 20
43.60461954856426
 10
17.39092444978573
 20
43.60727445989362
 10
17.39358888720764
 20
43.60982210209761
 10
17.39641452780239
 20
43.61227273733294
 10
17.39939032807487
 20
43.61461345681062
 10
17.40250524452997
 20
43.61683135174166
 10
17.40574823367257
 20
43.61891351333706
 10
17.40910825200757
 20
43.62084703280785
 10
17.41257425603987
 20
43.62261900136503
 10
17.41613520227435
 20
43.6242165102196
 10
17.41977934706182
 20
43.62562855610819
 10
17.42349077369519
 20
43.6268526713287
 10
17.42725217909248
 20
43.62788875043409
 10
17.43104626017177
 20
43.62873668797733
 10
17.43485571385111
 20
43.62939637851135
 10
17.43866323704856
 20
43.62986771658913
 10
17.44245152668219
 20
43.63015059676365
 10
17.44620327967002
 20
43.63024491358782
 10
17.4499050407174
 20
43.63015622627593
 10
17.45365125536079
 20
43.62988708950054
 10
17.45742348215881
 20
43.62943289100206
 10
17.46120327967003
 20
43.62878901852087
  0
LINE
  5
49E
330
1E
100
AcDbEntity
  8
OBJECT
100
AcDbLine
 10
17.37120327967003
 20
42.94870596365393
 30
0.0
 11
17.37120327967003
 21
42.94874688870359
 31
0.0
  0
LINE
  5
49F
330
1E
100
AcDbEntity
  8
OBJECT
100
AcDbLine
 10
17.51920327967002
 20
42.95472217691581
 30
0.0
 11
17.51920327967002
 21
42.9546250924256
 31
0.0
  0
LINE
  5
4A0
330
1E
100
AcDbEntity
  8
OBJECT
100
AcDbLine
 10
17.37120327967003
 20
43.53062077043672
 30
0.0
 11
17.37120327967003
 21
43.53072623274496
 31
0.0
  0
LINE
  5
4A1
330
1E
100
AcDbEntity
  8
OBJECT
100
AcDbLine
 10
17.37120327967003
 20
43.53072623274496
 30
0.0
 11
17.37120327967003
 21
43.57370596365393
 31
0.0
  0
LINE
  5
4A2
330
1E
100
AcDbEntity
  8
OBJECT
100
AcDbLine
 10
17.37120327967003
 20
43.57370596365393
 30
0.0
 11
17.37120327967003
 21
43.57374688870363
 31
0.0
  0
LINE
  5
4A3
330
1E
100
AcDbEntity
  8
OBJECT
100
AcDbLine
 10
17.51920327967002
 20
43.5797221769159
 30
0.0
 11
17.51920327967002
 21
43.57962509242569
 31
0.0
  0
LINE
  5
4A4
330
1E
100
AcDbEntity
  8
OBJECT
100
AcDbLine
 10
17.51920327967002
 20
43.57962509242569
 30
0.0
 11
17.51920327967002
 21
43.52479366977539
 31
0.0
  0
LINE
  5
4A5
330
1E
100
AcDbEntity
  8
OBJECT
100
AcDbLine
 10
17.51920327967002
 20
43.52479366977539
 30
0.0
 11
17.51920327967002
 21
43.52476765025975
 31
0.0
  0
LWPOLYLINE
  5
4A6
330
1E
100
AcDbEntity
  8
OBJECT
100
AcDbPolyline
 90
        4
 70
     0
 43
0.0
 10
18.94732827967002
 20
43.58374491358783
 10
18.94732827967004
 20
43.65424491358783
 10
17.85820327967002
 20
43.65424491358783
 10
17.85820327967002
 20
43.58374491358783
  0
LWPOLYLINE
  5
4AC
330
1E
100
AcDbEntity
  8
OBJECT
100
AcDbPolyline
 90
        6
 70
     0
 43
0.0
 10
19.05632827967003
 20
43.58374491358783
 10
19.05632827967003
 20
43.65424491358783
 42
0.4142135623730951
 10
18.94732827967004
 20
43.76324491358783
 10
17.85820327967005
 20
43.76324491358783
 42
0.4142135623730951
 10
17.74920327967004
 20
43.65424491358783
 10
17.74920327967004
 20
43.58374491358783
  0
LINE
  5
4B4
330
1E
100
AcDbEntity
  8
OBJECT
100
AcDbLine
 10
17.66299033838257
 20
43.52124491358782
 30
0.0
 11
17.66299033838257
 21
42.95824491358782
 31
0.0
  0
LINE
  5
4B5
330
1E
100
AcDbEntity
  8
OBJECT
100
AcDbLine
 10
17.64230462548844
 20
43.52124491358782
 30
0.0
 11
17.64230462548844
 21
42.95824491358782
 31
0.0
  0
POLYLINE
  5
4B6
330
1E
100
AcDbEntity
  8
OBJECT
100
AcDb3dPolyline
 66
     1
 10
0.0
 20
0.0
 30
0.0
 70
     8
  0
VERTEX
  5
4B7
330
4B6
100
AcDbEntity
  8
OBJECT
100
AcDbVertex
100
AcDb3dPolylineVertex
 10
17.69984770261806
 20
43.58374491358783
 30
0.0
 70
    32
1001
ACAD
1000
R13OBJECT
1002
{
1005
241
1002
}
  0
VERTEX
  5
4B8
330
4B6
100
AcDbEntity
  8
OBJECT
100
AcDbVertex
100
AcDb3dPolylineVertex
 10
17.67782692035325
 20
43.57898738436978
 30
0.0
 70
    32
1001
ACAD
1000
R13OBJECT
1002
{
1005
241
1002
}
  0
VERTEX
  5
4B9
330
4B6
100
AcDbEntity
  8
OBJECT
100
AcDbVertex
100
AcDb3dPolylineVertex
 10
17.65915860256936
 20
43.56543908741199
 30
0.0
 70
    32
1001
ACAD
1000
R13OBJECT
1002
{
1005
241
1002
}
  0
VERTEX
  5
4BA
330
4B6
100
AcDbEntity
  8
OBJECT
100
AcDbVertex
100
AcDb3dPolylineVertex
 10
17.64668483142029
 20
43.54516262811065
 30
0.0
 70
    32
1001
ACAD
1000
R13OBJECT
1002
{
1005
241
1002
}
  0
VERTEX
  5
4BB
330
4B6
100
AcDbEntity
  8
OBJECT
100
AcDbVertex
100
AcDb3dPolylineVertex
 10
17.64230462548844
 20
43.52124491358782
 30
0.0
 70
    32
1001
ACAD
1000
R13OBJECT
1002
{
1005
241
1002
}
  0
SEQEND
  5
4BC
330
4B6
100
AcDbEntity
  8
OBJECT
  0
POLYLINE
  5
4BD
330
1E
100
AcDbEntity
  8
OBJECT
100
AcDb3dPolyline
 66
     1
 10
0.0
 20
0.0
 30
0.0
 70
     8
  0
VERTEX
  5
4BE
330
4BD
100
AcDbEntity
  8
OBJECT
100
AcDbVertex
100
AcDb3dPolylineVertex
 10
17.72053341551219
 20
43.58374491358783
 30
0.0
 70
    32
1001
ACAD
1000
R13OBJECT
1002
{
1005
23F
1002
}
  0
VERTEX
  5
4BF
330
4BD
100
AcDbEntity
  8
OBJECT
100
AcDbVertex
100
AcDb3dPolylineVertex
 10
17.69851263324736
 20
43.57898738436978
 30
0.0
 70
    32
1001
ACAD
1000
R13OBJECT
1002
{
1005
23F
1002
}
  0
VERTEX
  5
4C0
330
4BD
100
AcDbEntity
  8
OBJECT
100
AcDbVertex
100
AcDb3dPolylineVertex
 10
17.6798443154635
 20
43.56543908741199
 30
0.0
 70
    32
1001
ACAD
1000
R13OBJECT
1002
{
1005
23F
1002
}
  0
VERTEX
  5
4C1
330
4BD
100
AcDbEntity
  8
OBJECT
100
AcDbVertex
100
AcDb3dPolylineVertex
 10
17.66737054431442
 20
43.54516262811065
 30
0.0
 70
    32
1001
ACAD
1000
R13OBJECT
1002
{
1005
23F
1002
}
  0
VERTEX
  5
4C2
330
4BD
100
AcDbEntity
  8
OBJECT
100
AcDbVertex
100
AcDb3dPolylineVertex
 10
17.66299033838257
 20
43.52124491358782
 30
0.0
 70
    32
1001
ACAD
1000
R13OBJECT
1002
{
1005
23F
1002
}
  0
SEQEND
  5
4C3
330
4BD
100
AcDbEntity
  8
OBJECT
  0
LINE
  5
4C4
330
1E
100
AcDbEntity
  8
0
100
AcDbLine
 10
17.26647571977799
 20
45.14424491358783
 30
0.0
 11
17.91120327967002
 21
45.16011991358783
 31
0.0
  0
LINE
  5
4C5
330
1E
100
AcDbEntity
  8
OBJECT
100
AcDbLine
 10
12.95465596942848
 20
55.56212315438793
 30
0.0
 11
13.01390596942847
 21
50.02224815438793
 31
0.0
  0
ARC
  5
4C6
330
1E
100
AcDbEntity
  8
OBJECT
100
AcDbCircle
 10
12.80714965180377
 20
48.79762315438792
 30
0.0
 40
0.23625
100
AcDbArc
 50
270.0
 51
357.3974377975001
  0
LINE
  5
4C7
330
1E
100
AcDbEntity
  8
OBJECT
100
AcDbLine
 10
7.422655969428469
 20
49.74662315438792
 30
0.0
 11
13.28953096942849
 21
49.74662315438792
 31
0.0
  0
ARC
  5
4C8
330
1E
100
AcDbEntity
  8
OBJECT
100
AcDbCircle
 10
12.89578096942848
 20
45.00261991358782
 30
0.0
 40
0.39375
100
AcDbArc
 50
0.0
 51
90.00000000000005
  0
POINT
  5
4C9
330
1E
100
AcDbEntity
  8
OBJECT
100
AcDbPoint
 10
12.89578096942848
 20
45.39636991358782
 30
0.0
  0
LINE
  5
4CA
330
1E
100
AcDbEntity
  8
OBJECT
100
AcDbLine
 10
13.13553096942852
 20
43.65424491358782
 30
0.0
 11
13.2379336033389
 21
43.65424491358782
 31
0.0
  0
ARC
  5
4CB
330
1E
100
AcDbEntity
  8
OBJECT
100
AcDbCircle
 10
12.92503096942847
 20
45.02611991358784
 30
0.0
 40
0.118125
100
AcDbArc
 50
0.0
 51
90.00000000000005
  0
POINT
  5
4CC
330
1E
100
AcDbEntity
  8
DEFPOINTS
  6
ByBlock
 62
     0
100
AcDbPoint
 10
17.04095327967002
 20
44.90823859596314
 30
0.0
  0
ARC
  5
4CD
330
1E
100
AcDbEntity
  8
0
100
AcDbCircle
 10
17.27720327967003
 20
44.90823859596314
 30
0.0
 40
0.23625
100
AcDbArc
 50
92.60256220249981
 51
180.0
  0
LWPOLYLINE
  5
4CE
330
1E
100
AcDbEntity
  8
OBJECT
100
AcDbPolyline
 90
       10
 70
     0
 43
0.0
 10
13.01390596942847
 20
50.02224815438793
 10
13.0139059694285
 20
51.33524815438792
 10
13.41190596942849
 20
51.33524815438792
 10
13.41190596942849
 20
51.40524815438791
 10
13.5889797608318
 20
51.61627648144708
 10
13.64260287185014
 20
51.57128134876902
 10
13.48190596942849
 20
51.37977023798927
 10
13.48190596942849
 20
50.39724815438793
 42
-0.4142135623730951
 10
13.23190596942849
 20
50.14724815438793
 10
13.01390596942847
 20
50.14724815438793
  0
LWPOLYLINE
  5
4DA
330
1E
100
AcDbEntity
  8
OBJECT
100
AcDbPolyline
 90
        4
 70
     0
 43
0.0
 10
13.27053450507365
 20
49.217341408485
 10
13.54122443151201
 20
49.57111838643369
 10
13.44525532347064
 20
50.28811319580692
 10
13.18153560955711
 20
50.61920347477376
  0
LWPOLYLINE
  5
4E0
330
1E
100
AcDbEntity
  8
OBJECT
100
AcDbPolyline
 90
        4
 70
     0
 43
0.0
 10
13.09627632929986
 20
50.55129283400208
 10
13.34121743066624
 20
50.2437784037065
 10
13.42719150216232
 20
49.60145751252121
 10
13.18396775742136
 20
49.28357733680877
  0
LINE
  5
4E6
330
1E
100
AcDbEntity
  8
OBJECT
100
AcDbLine
 10
13.04315596942846
 20
48.7868955944959
 30
0.0
 11
13.05328096942848
 21
49.43162315438793
 31
0.0
  0
LINE
  5
4E7
330
1E
100
AcDbEntity
  8
OBJECT
100
AcDbLine
 10
13.28953096942846
 20
49.43162315438793
 30
0.0
 11
13.28953096942849
 21
49.74662315438792
 31
0.0
  0
CIRCLE
  5
4E8
330
1E
100
AcDbEntity
  8
OBJECT
100
AcDbCircle
 10
13.22725113124748
 20
49.25045937264689
 30
0.0
 40
0.0545000000000044
  0
LINE
  5
4E9
330
1E
100
AcDbEntity
  8
OBJECT
100
AcDbLine
 10
13.31865596942845
 20
49.74662315438792
 30
0.0
 11
13.31865596942845
 21
50.02224815438793
 31
0.0
  0
CIRCLE
  5
4EA
330
1E
100
AcDbEntity
  8
OBJECT
100
AcDbCircle
 10
13.13890596942847
 20
50.58524815438792
 30
0.0
 40
0.0545000000000044
  0
CIRCLE
  5
4EB
330
1E
100
AcDbEntity
  8
OBJECT
100
AcDbCircle
 10
13.13890596942847
 20
50.58524815438792
 30
0.0
 40
0.0625
  0
LINE
  5
4EC
330
1E
100
AcDbEntity
  8
OBJECT
100
AcDbLine
 10
7.206093469428489
 20
55.64187315438792
 30
0.0
 11
7.639218469428478
 21
55.64187315438792
 31
0.0
  0
LINE
  5
4ED
330
1E
100
AcDbEntity
  8
OBJECT
100
AcDbLine
 10
7.206093469428489
 20
55.56212315438793
 30
0.0
 11
7.206093469428489
 21
55.64187315438792
 31
0.0
  0
LINE
  5
4EE
330
1E
100
AcDbEntity
  8
OBJECT
100
AcDbLine
 10
7.639218469428478
 20
55.56212315438793
 30
0.0
 11
7.639218469428478
 21
55.64187315438792
 31
0.0
  0
LINE
  5
4EF
330
1E
100
AcDbEntity
  8
OBJECT
100
AcDbLine
 10
11.70259346942849
 20
55.64187315438792
 30
0.0
 11
12.13571846942848
 21
55.64187315438792
 31
0.0
  0
LINE
  5
4F0
330
1E
100
AcDbEntity
  8
OBJECT
100
AcDbLine
 10
11.70259346942849
 20
55.56212315438793
 30
0.0
 11
11.70259346942849
 21
55.64187315438792
 31
0.0
  0
LINE
  5
4F1
330
1E
100
AcDbEntity
  8
OBJECT
100
AcDbLine
 10
12.14765596942846
 20
55.64187315438792
 30
0.0
 11
12.62015596942846
 21
55.64187315438792
 31
0.0
  0
LINE
  5
4F2
330
1E
100
AcDbEntity
  8
OBJECT
100
AcDbLine
 10
12.13571846942848
 20
55.56212315438793
 30
0.0
 11
12.13571846942848
 21
55.64187315438792
 31
0.0
  0
LINE
  5
4F3
330
1E
100
AcDbEntity
  8
OBJECT
100
AcDbLine
 10
12.14765596942846
 20
55.56212315438793
 30
0.0
 11
12.14765596942846
 21
55.64187315438792
 31
0.0
  0
LINE
  5
4F4
330
1E
100
AcDbEntity
  8
OBJECT
100
AcDbLine
 10
12.62015596942846
 20
55.56212315438793
 30
0.0
 11
12.62015596942846
 21
55.64187315438792
 31
0.0
  0
POINT
  5
4F5
330
1E
100
AcDbEntity
  8
OBJECT
100
AcDbPoint
 10
12.95465596942848
 20
55.56212315438796
 30
0.0
  0
LINE
  5
4F6
330
1E
100
AcDbEntity
  8
OBJECT
100
AcDbLine
 10
24.04170327967007
 20
45.06074491358783
 30
0.0
 11
18.50182827967003
 21
45.16011991358781
 31
0.0
  0
LINE
  5
4F7
330
1E
100
AcDbEntity
  8
OBJECT
100
AcDbLine
 10
18.22620327967002
 20
45.43174491358782
 30
0.0
 11
18.50182827967003
 21
45.43174491358782
 31
0.0
  0
LINE
  5
4F8
330
1E
100
AcDbEntity
  8
0
100
AcDbLine
 10
17.91120327967002
 20
45.39636991358782
 30
0.0
 11
18.22620327967002
 21
45.39636991358782
 31
0.0
  0
POINT
  5
4F9
330
1E
100
AcDbEntity
  8
OBJECT
100
AcDbPoint
 10
18.22620327967002
 20
45.43174491358782
 30
0.0
  0
POINT
  5
4FA
330
1E
100
AcDbEntity
  8
OBJECT
100
AcDbPoint
 10
18.50182827967003
 20
45.43174491358782
 30
0.0
  0
POINT
  5
4FB
330
1E
100
AcDbEntity
  8
OBJECT
100
AcDbPoint
 10
18.50182827967003
 20
45.43174491358782
 30
0.0
  0
LINE
  5
4FC
330
1E
100
AcDbEntity
  8
OBJECT
100
AcDbLine
 10
24.12145327967003
 20
43.78199491358781
 30
0.0
 11
24.12145327967003
 21
44.2151199135878
 31
0.0
  0
LINE
  5
4FD
330
1E
100
AcDbEntity
  8
OBJECT
100
AcDbLine
 10
24.04170327967007
 20
43.78199491358781
 30
0.0
 11
24.12145327967003
 21
43.78199491358781
 31
0.0
  0
LINE
  5
4FE
330
1E
100
AcDbEntity
  8
OBJECT
100
AcDbLine
 10
24.04170327967007
 20
44.76636991358781
 30
0.0
 11
24.12145327967003
 21
44.76636991358781
 31
0.0
  0
LINE
  5
4FF
330
1E
100
AcDbEntity
  8
OBJECT
100
AcDbLine
 10
24.04170327967007
 20
44.2938699135878
 30
0.0
 11
24.12145327967003
 21
44.2938699135878
 31
0.0
  0
LINE
  5
500
330
1E
100
AcDbEntity
  8
OBJECT
100
AcDbLine
 10
24.04170327967007
 20
44.2151199135878
 30
0.0
 11
24.12145327967003
 21
44.2151199135878
 31
0.0
  0
POINT
  5
501
330
1E
100
AcDbEntity
  8
OBJECT
100
AcDbPoint
 10
24.12145327967003
 20
44.76636991358781
 30
0.0
  0
LINE
  5
502
330
1E
100
AcDbEntity
  8
OBJECT
100
AcDbLine
 10
24.12145327967003
 20
44.2938699135878
 30
0.0
 11
24.12145327967003
 21
44.76636991358781
 31
0.0
  0
LWPOLYLINE
  5
503
330
1E
100
AcDbEntity
  8
OBJECT
100
AcDbPolyline
 90
        8
 70
     1
 43
0.0
 10
13.10628096942847
 20
48.80662315438793
 10
13.10628096942847
 20
49.30662315438793
 42
-0.817231121209579
 10
13.24457059428182
 20
49.33472450020635
 10
13.31748444002256
 20
49.16272450020636
 10
13.36628096942849
 20
49.18341021310046
 10
13.29336712368772
 20
49.35541021310046
 42
0.8172311212095785
 10
13.05328096942848
 20
49.30662315438793
 10
13.05328096942848
 20
48.80662315438793
  0
LINE
  5
50D
330
1E
100
AcDbEntity
  8
OBJECT
100
AcDbLine
 10
13.05328096942848
 20
48.88162315438793
 30
0.0
 11
13.10628096942847
 21
48.88162315438793
 31
0.0
  0
LINE
  5
50E
330
1E
100
AcDbEntity
  8
OBJECT
100
AcDbLine
 10
13.10628096942847
 20
49.12662315438794
 30
0.0
 11
13.05328096942848
 21
49.12662315438794
 31
0.0
  0
LINE
  5
50F
330
1E
100
AcDbEntity
  8
OBJECT
100
AcDbLine
 10
13.10628096942847
 20
49.05162315438793
 30
0.0
 11
13.05328096942848
 21
49.05162315438793
 31
0.0
  0
TEXT
  5
510
330
1E
100
AcDbEntity
  8
TEXT
100
AcDbText
 10
5.610666666505743
 20
60.64933333309301
 30
0.0
 40
0.5333333333333333
  1
NON-METALLIC ENCLOSURE (STYLE A)
 41
0.75
  7
TXT
 72
     4
 11
11.74399999983907
 21
60.91599999975969
 31
0.0
100
AcDbText
  0
TEXT
  5
511
330
1E
100
AcDbEntity
  8
TEXT
100
AcDbText
 10
26.86679999981911
 20
60.56559999975828
 30
0.0
 40
0.7008000000028031
  1
NBA-10148 & NBA-10168
 41
0.75
  7
TXT
 72
     4
 11
31.85999999983908
 21
60.91599999975969
 31
0.0
100
AcDbText
  0
TEXT
  5
512
330
1E
100
AcDbEntity
  8
TEXT
100
AcDbText
 10
0.9192948332386876
 20
5.293996629940851
 30
0.0
 40
0.5
  1
DIMENSIONS =
 41
0.75
  7
TXT
100
AcDbText
  0
TEXT
  5
513
330
1E
100
AcDbEntity
  8
TEXT
100
AcDbText
 10
6.485168878682985
 20
5.723070610869074
 30
0.0
 40
0.5
  1
INCHES
 41
0.75
  7
TXT
 72
     1
 11
7.485168878682985
 21
5.723070610869074
 31
0.0
100
AcDbText
  0
TEXT
  5
514
330
1E
100
AcDbEntity
  8
TEXT
100
AcDbText
 10
5.360168878682985
 20
4.889737277535739
 30
0.0
 40
0.5
  1
[MILLIMETERS]
 41
0.75
  7
TXT
 72
     1
 11
7.485168878682985
 21
4.889737277535739
 31
0.0
100
AcDbText
  0
TEXT
  5
515
330
1E
100
AcDbEntity
  8
TEXT
100
AcDbText
 10
27.23724840282103
 20
10.7767470355864
 30
0.0
 40
0.4992
  1
%%UINDUSTRY STANDARDS:
 41
0.75
  7
TXT
100
AcDbText
  0
TEXT
  5
516
330
1E
100
AcDbEntity
  8
TEXT
100
AcDbText
 10
27.23724840282103
 20
9.944747035586406
 30
0.0
 40
0.4992
  1
UL508 TYPE 1, 2, 4, 4X INDOOR, 12 & 13
 41
0.75
  7
TXT
100
AcDbText
  0
TEXT
  5
517
330
1E
100
AcDbEntity
  8
TEXT
100
AcDbText
 10
27.23724840282103
 20
9.112747035586409
 30
0.0
 40
0.4992
  1
NEMA TYPE 1, 2, 4, 4X, 12 & 13
 41
0.75
  7
TXT
100
AcDbText
  0
TEXT
  5
518
330
1E
100
AcDbEntity
  8
TEXT
100
AcDbText
 10
27.23724840282103
 20
8.280747035586403
 30
0.0
 40
0.4992
  1
IEC529-IP65
 41
0.75
  7
TXT
100
AcDbText
  0
TEXT
  5
519
330
1E
100
AcDbEntity
  8
TEXT
100
AcDbText
 10
23.15501533718264
 20
5.674793692499589
 30
0.0
 40
0.5
  1
%%UNOTE%%U: ALL DIMENSIONS HAVE %%P0.039 [%%P1] TOLERANCE
 41
0.75
  7
TXT
100
AcDbText
  0
TEXT
  5
51A
330
1E
100
AcDbEntity
  8
TEXT
100
AcDbText
 10
25.18933818150989
 20
4.88912702583292
 30
0.0
 40
0.5
  1
UNLESS OTHERWISE SPECIFIED
 41
0.75
  7
TXT
100
AcDbText
  0
TEXT
  5
51B
330
1E
100
AcDbEntity
  8
TEXT
100
AcDbText
 10
30.70216445502639
 20
25.8729901033477
 30
0.0
 40
0.4999999999999995
  1
(4) WALL MOUNTING BRKTS.
 41
0.75
  7
TXT
100
AcDbText
  0
TEXT
  5
51C
330
1E
100
AcDbEntity
  8
TEXT
100
AcDbText
 10
30.70216445502639
 20
24.20632343668103
 30
0.0
 40
0.4999999999999995
  1
HD. MACHINE SCREWS (NOT
 41
0.75
  7
TXT
100
AcDbText
  0
TEXT
  5
51D
330
1E
100
AcDbEntity
  8
TEXT
100
AcDbText
 10
28.71956624359041
 20
26.66360057511217
 30
0.0
 40
0.4999999999999995
  1
%%UNOTE:%%u UNIT COMES COMPLETE WITH
 41
0.75
  7
TXT
100
AcDbText
  0
TEXT
  5
51E
330
1E
100
AcDbEntity
  8
TEXT
100
AcDbText
 10
27.48862109940165
 20
57.30023953494139
 30
0.0
 40
0.4999999999999996
  1
UL94-5VB FLAMMABILITY RATING
 41
0.75
  7
TXT
100
AcDbText
  0
TEXT
  5
520
330
1E
100
AcDbEntity
  8
TEXT
100
AcDbText
 10
27.48862109940165
 20
54.8104765400431
 30
0.0
 40
0.4999999999999996
  1
UL94V-0 FLAMMABILITY RATING
 41
0.75
  7
TXT
100
AcDbText
  0
TEXT
  5
521
330
1E
100
AcDbEntity
  8
TEXT
100
AcDbText
 10
27.48862109940165
 20
55.64380987337643
 30
0.0
 40
0.4999999999999996
  1
POLYCARBONATE PLASTIC
 41
0.75
  7
TXT
100
AcDbText
  0
LINE
  5
522
330
1E
100
AcDbEntity
  8
TEXT
100
AcDbLine
 10
27.65133334491954
 20
52.32391867334992
 30
0.0
 11
28.32813478592109
 21
52.32391867334991
 31
0.0
  0
LINE
  5
523
330
1E
100
AcDbEntity
  8
TEXT
100
AcDbLine
 10
20.82870561957723
 20
49.83095055024646
 30
0.0
 11
24.0793359536649
 21
49.83095055024646
 31
0.0
  0
TEXT
  5
524
330
1E
100
AcDbEntity
  8
TEXT
100
AcDbText
 10
24.32887807820701
 20
48.99761721691312
 30
0.0
 40
0.4999999999999996
  1
LIGHT GRAY OR CLEAR
 41
0.75
  7
TXT
100
AcDbText
  0
TEXT
  5
525
330
1E
100
AcDbEntity
  8
TEXT
100
AcDbText
 10
27.48862109940165
 20
58.13357286827474
 30
0.0
 40
0.4999999999999996
  1
ABS/PC BLENDED PLASTIC
 41
0.75
  7
TXT
100
AcDbText
  0
LINE
  5
526
330
1E
100
AcDbEntity
  8
TEXT
100
AcDbLine
 10
23.60297704057847
 20
55.64380987337643
 30
0.0
 11
27.23907897485952
 21
55.64380987337642
 31
0.0
  0
TEXT
  5
527
330
1E
100
AcDbEntity
  8
TEXT
100
AcDbText
 10
19.25021823939237
 20
52.32391867334992
 30
0.0
 40
0.4999999999999996
  1
WALL MOUNTING BRACKETS
 41
0.75
  7
TXT
100
AcDbText
  0
LINE
  5
528
330
1E
100
AcDbEntity
  8
TEXT
100
AcDbLine
 10
21.30908140473248
 20
48.99761721691312
 30
0.0
 11
24.0793359536649
 21
48.99761721691312
 31
0.0
  0
TEXT
  5
529
330
1E
100
AcDbEntity
  8
TEXT
100
AcDbText
 10
19.25021823939237
 20
53.15725200668325
 30
0.0
 40
0.4999999999999996
  1
LATCHES, HINGES &
 41
0.75
  7
TXT
100
AcDbText
  0
TEXT
  5
52A
330
1E
100
AcDbEntity
  8
TEXT
100
AcDbText
 10
19.25021823939237
 20
58.13357286827474
 30
0.0
 40
0.4999999999999996
  1
SOLID BODY & COVER
 41
0.75
  7
TXT
100
AcDbText
  0
TEXT
  5
52B
330
1E
100
AcDbEntity
  8
TEXT
100
AcDbText
 10
19.25021823939237
 20
55.64380987337643
 30
0.0
 40
0.4999999999999996
  1
CLEAR COVER
 41
0.75
  7
TXT
100
AcDbText
  0
TEXT
  5
52C
330
1E
100
AcDbEntity
  8
TEXT
100
AcDbText
 10
19.25021823939231
 20
48.99761721691312
 30
0.0
 40
0.4999999999999996
  1
COVER
 41
0.75
  7
TXT
100
AcDbText
  0
TEXT
  5
52D
330
1E
100
AcDbEntity
  8
TEXT
100
AcDbText
 10
19.25021823939231
 20
49.83095055024646
 30
0.0
 40
0.4999999999999996
  1
BODY
 41
0.75
  7
TXT
100
AcDbText
  0
TEXT
  5
52E
330
1E
100
AcDbEntity
  8
TEXT
100
AcDbText
 10
18.63552361380552
 20
50.6642838835798
 30
0.0
 40
0.4999999999999996
  1
%%UFINISH:
 41
0.75
  7
TXT
100
AcDbText
  0
LINE
  5
52F
330
1E
100
AcDbEntity
  8
TEXT
100
AcDbLine
 10
26.15002316379794
 20
58.13357286827474
 30
0.0
 11
27.23907897485952
 21
58.13357286827474
 31
0.0
  0
TEXT
  5
530
330
1E
100
AcDbEntity
  8
TEXT
100
AcDbText
 10
28.57767691046321
 20
52.32391867334987
 30
0.0
 40
0.4999999999999996
  1
STAINLESS STEEL
 41
0.75
  7
TXT
100
AcDbText
  0
TEXT
  5
531
330
1E
100
AcDbEntity
  8
TEXT
100
AcDbText
 10
24.32887807820701
 20
49.83095055024646
 30
0.0
 40
0.4999999999999996
  1
LIGHT GRAY
 41
0.75
  7
TXT
100
AcDbText
  0
TEXT
  5
532
330
1E
100
AcDbEntity
  8
TEXT
100
AcDbText
 10
18.63552361380556
 20
58.96178769905723
 30
0.0
 40
0.4999999999999996
  1
%%UMATERIAL:
 41
0.75
  7
TXT
100
AcDbText
  0
TEXT
  5
534
330
1E
100
AcDbEntity
  8
TEXT
100
AcDbText
 10
27.48862109940165
 20
53.98355346312001
 30
0.0
 40
0.4999999999999996
  1
UV STABILIZED
 41
0.75
  7
TXT
100
AcDbText
  0
TEXT
  5
535
330
1E
100
AcDbEntity
  8
TEXT
100
AcDbText
 10
28.71956624359041
 20
28.94533375088787
 30
0.0
 40
0.5
  1
COVER INCLUDES GRAY POLY-
 41
0.75
  7
TXT
100
AcDbText
  0
TEXT
  5
536
330
1E
100
AcDbEntity
  8
TEXT
100
AcDbText
 10
30.70216445502639
 20
25.03965677001437
 30
0.0
 40
0.4999999999999995
  1
& (4) M5 x 10mm LG. TRUSS
 41
0.75
  7
TXT
100
AcDbText
  0
TEXT
  5
537
330
1E
100
AcDbEntity
  8
TEXT
100
AcDbText
 10
28.71956624359041
 20
21.83725342783896
 30
0.0
 40
0.5
  1
INTERNAL HINGED PANEL MOUNTING
 41
0.75
  7
TXT
100
AcDbText
  0
TEXT
  5
538
330
1E
100
AcDbEntity
  8
TEXT
100
AcDbText
 10
28.71956624359041
 20
21.00320108557662
 30
0.0
 40
0.5
  1
BRACKETS, AIR & MOISTURE VENTS,
 41
0.75
  7
TXT
100
AcDbText
  0
TEXT
  5
539
330
1E
100
AcDbEntity
  8
TEXT
100
AcDbText
 10
28.71956624359041
 20
17.65947963440883
 30
0.0
 40
0.5
  1
CAN BE PURCHASED SEPARATELY.
 41
0.75
  7
TXT
100
AcDbText
  0
TEXT
  5
53A
330
1E
100
AcDbEntity
  8
TEXT
100
AcDbText
 10
28.71956624359041
 20
20.16914874331429
 30
0.0
 40
0.5
  1
STAINLESS STEEL LOCKING HASP
 41
0.75
  7
TXT
100
AcDbText
  0
TEXT
  5
53B
330
1E
100
AcDbEntity
  8
TEXT
100
AcDbText
 10
28.71956624359041
 20
19.33509640105196
 30
0.0
 40
0.5
  1
AND GALVANIZED STEEL INTERNAL
 41
0.75
  7
TXT
100
AcDbText
  0
TEXT
  5
53C
330
1E
100
AcDbEntity
  8
TEXT
100
AcDbText
 10
28.71956624359041
 20
18.50104405878963
 30
0.0
 40
0.5
  1
PANEL ARE NOT INCLUDED, BUT
 41
0.75
  7
TXT
100
AcDbText
  0
LWPOLYLINE
  5
53D
330
1E
100
AcDbEntity
  8
DIM
100
AcDbPolyline
 90
        4
 70
     0
 10
17.96984694225715
 20
23.69451335556844
 40
0.0
 41
0.27
 10
18.52365005007835
 20
24.15462433975332
 40
0.0
 41
0.0
 10
19.99831504564281
 20
25.37980627331377
 40
0.0
 41
0.0
 10
20.71831504564282
 20
25.37980627331377
 40
0.0
 41
0.0
  0
TEXT
  5
543
330
1E
100
AcDbEntity
  8
TEXT
100
AcDbText
 10
9.284548172056334
 20
7.043181484176507
 30
0.0
 40
0.6095238095238095
  1
%%uVIEW LESS COVER
 41
0.75
  7
TXT
 72
     4
 11
12.79692912443728
 21
7.286991007986031
 31
0.0
100
AcDbText
  0
TEXT
  5
544
330
1E
100
AcDbEntity
  8
DIM
100
AcDbText
 10
21.07831504564281
 20
23.4631396066471
 30
0.0
 40
0.5
  1
THREADED BRASS INSERT
 41
0.75
  7
TXT
 11
21.07831504564281
 21
23.7131396066471
 31
0.0
100
AcDbText
 73
     2
  0
TEXT
  5
545
330
1E
100
AcDbEntity
  8
DIM
100
AcDbText
 10
21.07831504564281
 20
25.12980627331377
 30
0.0
 40
0.5
  1
0.590 [15] DIA. BOSS
 41
0.75
  7
TXT
 11
21.07831504564281
 21
25.37980627331377
 31
0.0
100
AcDbText
 73
     2
  0
TEXT
  5
546
330
1E
100
AcDbEntity
  8
DIM
100
AcDbText
 10
21.07831504564281
 20
22.62980627331377
 30
0.0
 40
0.5
  1
(4) PLACES (FAR SIDE)
 41
0.75
  7
TXT
 11
21.07831504564281
 21
22.87980627331377
 31
0.0
100
AcDbText
 73
     2
  0
TEXT
  5
547
330
1E
100
AcDbEntity
  8
DIM
100
AcDbText
 10
21.07831504564281
 20
24.29647293998044
 30
0.0
 40
0.5
  1
WITH M5 x 0.8mm
 41
0.75
  7
TXT
 11
21.07831504564281
 21
24.54647293998044
 31
0.0
100
AcDbText
 73
     2
  0
TEXT
  5
548
330
1E
100
AcDbEntity
  8
DIM
100
AcDbText
 10
26.01170327967004
 20
33.19313284468055
 30
0.0
 40
0.5333333333333333
  1
(INSIDE)
 41
0.75
  7
TXT
 72
     1
 11
27.27836994633671
 21
33.45979951134722
 31
0.0
100
AcDbText
 73
     2
  0
TEXT
  5
6E8
330
1E
100
AcDbEntity
  8
TEXT
100
AcDbText
 10
28.71956624359041
 20
28.11128140862553
 30
0.0
 40
0.5
  1
   URETHANE GASKET.
 41
0.75
  7
TXT
100
AcDbText
  0
TEXT
  5
6F2
330
1E
100
AcDbEntity
  8
TEXT
100
AcDbText
 10
30.70216445502639
 20
23.37299010334769
 30
0.0
 40
0.4999999999999995
  1
SHOWN)
 41
0.75
  7
TXT
100
AcDbText
  0
TEXT
  5
6F3
330
1E
100
AcDbEntity
  8
DIM
100
AcDbText
 10
20.55926481416109
 20
13.26881172757155
 30
0.0
 40
0.5
  1
0.250" STD. SHEET METAL SCREWS
 41
0.75
  7
TXT
 11
20.55926481416109
 21
13.51881172757155
 31
0.0
100
AcDbText
 73
     2
  0
TEXT
  5
6F4
330
1E
100
AcDbEntity
  8
DIM
100
AcDbText
 10
20.55926481416109
 20
12.43547891507155
 30
0.0
 40
0.5
  1
x 0.375 [9] LG. (NOT SUPPLIED)
 41
0.75
  7
TXT
 11
20.55926481416109
 21
12.68547891507155
 31
0.0
100
AcDbText
 73
     2
  0
TEXT
  5
6F7
330
1E
100
AcDbEntity
  8
TEXT
100
AcDbText
 10
34.9176650783148
 20
-0.7566779472290551
 30
0.0
 40
0.5
  1
Revised 26JUN07
 41
0.75
  7
TXT
 72
     1
 11
37.5114150783148
 21
-0.7566779472290551
 31
0.0
100
AcDbText
  0
ENDSEC
  0
SECTION
  2
OBJECTS
  0
DICTIONARY
  5
C
330
0
100
AcDbDictionary
281
     1
  3
ACAD_GROUP
350
D
  3
ACAD_LAYOUT
350
19
  3
ACAD_MLINESTYLE
350
16
  3
ACAD_PLOTSETTINGS
350
18
  3
ACAD_PLOTSTYLENAME
350
E
  0
DICTIONARY
  5
D
102
{ACAD_REACTORS
330
C
102
}
330
C
100
AcDbDictionary
281
     1
  0
DICTIONARY
  5
19
102
{ACAD_REACTORS
330
C
102
}
330
C
100
AcDbDictionary
281
     1
  3
Layout1
350
1D
  3
Model
350
21
  0
DICTIONARY
  5
16
102
{ACAD_REACTORS
330
C
102
}
330
C
100
AcDbDictionary
281
     1
  3
Standard
350
17
  0
DICTIONARY
  5
18
102
{ACAD_REACTORS
330
C
102
}
330
C
100
AcDbDictionary
281
     1
  0
ACDBDICTIONARYWDFLT
  5
E
102
{ACAD_REACTORS
330
C
102
}
330
C
100
AcDbDictionary
281
     1
  3
Normal
350
F
100
AcDbDictionaryWithDefault
340
F
  0
LAYOUT
  5
1D
102
{ACAD_REACTORS
330
19
102
}
330
19
100
AcDbPlotSettings
  1

  2
None
  4

  6

 40
0.0
 41
0.0
 42
0.0
 43
0.0
 44
0.0
 45
0.0
 46
0.0
 47
0.0
 48
0.0
 49
0.0
140
0.0
141
0.0
142
1.0
143
1.0
 70
   688
 72
     0
 73
     0
 74
     5
  7
monochrome.ctb
 75
    16
147
1.0
148
0.0
149
0.0
100
AcDbLayout
  1
Layout1
 70
     1
 71
     1
 10
0.0
 20
0.0
 11
12.0
 21
9.0
 12
0.0
 22
0.0
 32
0.0
 14
1.000000000000000E+20
 24
1.000000000000000E+20
 34
1.000000000000000E+20
 15
-1.000000000000000E+20
 25
-1.000000000000000E+20
 35
-1.000000000000000E+20
146
0.0
 13
0.0
 23
0.0
 33
0.0
 16
1.0
 26
0.0
 36
0.0
 17
0.0
 27
1.0
 37
0.0
 76
     0
330
1A
  0
LAYOUT
  5
21
102
{ACAD_REACTORS
330
19
102
}
330
19
100
AcDbPlotSettings
  1

  2
RICOH Aficio 1060 PCL 6
  4
Letter
  6

 40
5.027083396911621
 41
5.027085304260253
 42
5.027084350585937
 43
5.027069091796875
 44
215.8999938964843
 45
279.3999938964843
 46
16.002
 47
0.0
 48
0.0
 49
0.0
140
0.0
141
0.0
142
1.0
143
5.918476042036736
 70
 11956
 72
     0
 73
     0
 74
     1
  7
monochrome.ctb
 75
     0
147
0.1689624141244083
148
0.0627199492363275
149
19.26823764089848
100
AcDbLayout
  1
Model
 70
     1
 71
     0
 10
0.0
 20
0.0
 11
12.0
 21
9.0
 12
0.0
 22
0.0
 32
0.0
 14
0.0
 24
0.0
 34
0.0
 15
0.0
 25
0.0
 35
0.0
146
0.0
 13
0.0
 23
0.0
 33
0.0
 16
1.0
 26
0.0
 36
0.0
 17
0.0
 27
1.0
 37
0.0
 76
     0
330
1E
  0
MLINESTYLE
  5
17
102
{ACAD_REACTORS
330
16
102
}
330
16
100
AcDbMlineStyle
  2
STANDARD
 70
     0
  3

 62
   256
 51
90.0
 52
90.0
 71
     2
 49
0.5
 62
   256
  6
BYLAYER
 49
-0.5
 62
   256
  6
BYLAYER
  0
ACDBPLACEHOLDER
  5
F
102
{ACAD_REACTORS
330
E
102
}
330
E
  0
ENDSEC
  0
EOF
