  0
SECTION
  2
HEADER
  9
$ACADVER
  1
AC1015
  9
$ACADMAINTVER
 70
     6
  9
$DWGCODEPAGE
  3
ANSI_1252
  9
$INSBASE
 10
0.0
 20
0.0
 30
0.0
  9
$EXTMIN
 10
0.0
 20
-0.8261863036691609
 30
0.0
  9
$EXTMAX
 10
77.5
 20
50.59999999999998
 30
0.0
  9
$LIMMIN
 10
0.0
 20
0.0
  9
$LIMMAX
 10
77.5
 20
50.59999999999998
  9
$ORTHOMODE
 70
     0
  9
$REGENMODE
 70
     1
  9
$FILLMODE
 70
     1
  9
$QTEXTMODE
 70
     0
  9
$MIRRTEXT
 70
     0
  9
$LTSCALE
 40
1.5
  9
$ATTMODE
 70
     1
  9
$TEXTSIZE
 40
0.625
  9
$TRACEWID
 40
0.05
  9
$TEXTSTYLE
  7
TXT
  9
$CLAYER
  8
OBJECT
  9
$CELTYPE
  6
ByLayer
  9
$CECOLOR
 62
   256
  9
$CELTSCALE
 40
1.0
  9
$DISPSILH
 70
     0
  9
$DIMSCALE
 40
5.0
  9
$DIMASZ
 40
0.18
  9
$DIMEXO
 40
0.063
  9
$DIMDLI
 40
0.25
  9
$DIMRND
 40
0.0
  9
$DIMDLE
 40
0.0
  9
$DIMEXE
 40
0.093
  9
$DIMTP
 40
0.0
  9
$DIMTM
 40
0.0
  9
$DIMTXT
 40
0.125
  9
$DIMCEN
 40
0.09
  9
$DIMTSZ
 40
0.0
  9
$DIMTOL
 70
     0
  9
$DIMLIM
 70
     0
  9
$DIMTIH
 70
     1
  9
$DIMTOH
 70
     1
  9
$DIMSE1
 70
     0
  9
$DIMSE2
 70
     0
  9
$DIMTAD
 70
     0
  9
$DIMZIN
 70
     0
  9
$DIMBLK
  1

  9
$DIMASO
 70
     1
  9
$DIMSHO
 70
     1
  9
$DIMPOST
  1

  9
$DIMAPOST
  1

  9
$DIMALT
 70
     1
  9
$DIMALTD
 70
     0
  9
$DIMALTF
 40
25.4
  9
$DIMLFAC
 40
1.0
  9
$DIMTOFL
 70
     0
  9
$DIMTVP
 40
0.0
  9
$DIMTIX
 70
     0
  9
$DIMSOXD
 70
     0
  9
$DIMSAH
 70
     0
  9
$DIMBLK1
  1

  9
$DIMBLK2
  1

  9
$DIMSTYLE
  2
23NSTD
  9
$DIMCLRD
 70
     0
  9
$DIMCLRE
 70
     0
  9
$DIMCLRT
 70
     0
  9
$DIMTFAC
 40
1.0
  9
$DIMGAP
 40
0.09
  9
$DIMJUST
 70
     0
  9
$DIMSD1
 70
     0
  9
$DIMSD2
 70
     0
  9
$DIMTOLJ
 70
     1
  9
$DIMTZIN
 70
     0
  9
$DIMALTZ
 70
     0
  9
$DIMALTTZ
 70
     0
  9
$DIMUPT
 70
     0
  9
$DIMDEC
 70
     3
  9
$DIMTDEC
 70
     3
  9
$DIMALTU
 70
     2
  9
$DIMALTTD
 70
     0
  9
$DIMTXSTY
  7
TXT
  9
$DIMAUNIT
 70
     0
  9
$DIMADEC
 70
     0
  9
$DIMALTRND
 40
0.0
  9
$DIMAZIN
 70
     0
  9
$DIMDSEP
 70
    46
  9
$DIMATFIT
 70
     1
  9
$DIMFRAC
 70
     0
  9
$DIMLDRBLK
  1

  9
$DIMLUNIT
 70
     2
  9
$DIMLWD
 70
    -2
  9
$DIMLWE
 70
    -2
  9
$DIMTMOVE
 70
     0
  9
$LUNITS
 70
     2
  9
$LUPREC
 70
     8
  9
$SKETCHINC
 40
0.1
  9
$FILLETRAD
 40
0.0
  9
$AUNITS
 70
     0
  9
$AUPREC
 70
     0
  9
$MENU
  1
acad
  9
$ELEVATION
 40
0.0
  9
$PELEVATION
 40
0.0
  9
$THICKNESS
 40
0.0
  9
$LIMCHECK
 70
     0
  9
$CHAMFERA
 40
0.0
  9
$CHAMFERB
 40
0.0
  9
$CHAMFERC
 40
0.0
  9
$CHAMFERD
 40
0.0
  9
$SKPOLY
 70
     0
  9
$TDCREATE
 40
2450996.453404167
  9
$TDUCREATE
 40
2450996.620070833
  9
$TDUPDATE
 40
2454306.451035509
  9
$TDUUPDATE
 40
2454306.617702175
  9
$TDINDWG
 40
0.6218779398
  9
$TDUSRTIMER
 40
0.6218779398
  9
$USRTIMER
 70
     1
  9
$ANGBASE
 50
0.0
  9
$ANGDIR
 70
     0
  9
$PDMODE
 70
     0
  9
$PDSIZE
 40
0.0
  9
$PLINEWID
 40
0.0
  9
$SPLFRAME
 70
     0
  9
$SPLINETYPE
 70
     6
  9
$SPLINESEGS
 70
     8
  9
$HANDSEED
  5
D15
  9
$SURFTAB1
 70
     6
  9
$SURFTAB2
 70
     6
  9
$SURFTYPE
 70
     6
  9
$SURFU
 70
     6
  9
$SURFV
 70
     6
  9
$UCSBASE
  2

  9
$UCSNAME
  2

  9
$UCSORG
 10
0.0
 20
0.0
 30
0.0
  9
$UCSXDIR
 10
1.0
 20
0.0
 30
0.0
  9
$UCSYDIR
 10
0.0
 20
1.0
 30
0.0
  9
$UCSORTHOREF
  2

  9
$UCSORTHOVIEW
 70
     0
  9
$UCSORGTOP
 10
0.0
 20
0.0
 30
0.0
  9
$UCSORGBOTTOM
 10
0.0
 20
0.0
 30
0.0
  9
$UCSORGLEFT
 10
0.0
 20
0.0
 30
0.0
  9
$UCSORGRIGHT
 10
0.0
 20
0.0
 30
0.0
  9
$UCSORGFRONT
 10
0.0
 20
0.0
 30
0.0
  9
$UCSORGBACK
 10
0.0
 20
0.0
 30
0.0
  9
$PUCSBASE
  2

  9
$PUCSNAME
  2

  9
$PUCSORG
 10
0.0
 20
0.0
 30
0.0
  9
$PUCSXDIR
 10
1.0
 20
0.0
 30
0.0
  9
$PUCSYDIR
 10
0.0
 20
1.0
 30
0.0
  9
$PUCSORTHOREF
  2

  9
$PUCSORTHOVIEW
 70
     0
  9
$PUCSORGTOP
 10
0.0
 20
0.0
 30
0.0
  9
$PUCSORGBOTTOM
 10
0.0
 20
0.0
 30
0.0
  9
$PUCSORGLEFT
 10
0.0
 20
0.0
 30
0.0
  9
$PUCSORGRIGHT
 10
0.0
 20
0.0
 30
0.0
  9
$PUCSORGFRONT
 10
0.0
 20
0.0
 30
0.0
  9
$PUCSORGBACK
 10
0.0
 20
0.0
 30
0.0
  9
$USERI1
 70
     0
  9
$USERI2
 70
     0
  9
$USERI3
 70
     0
  9
$USERI4
 70
     0
  9
$USERI5
 70
     0
  9
$USERR1
 40
0.0
  9
$USERR2
 40
0.0
  9
$USERR3
 40
0.0
  9
$USERR4
 40
0.0
  9
$USERR5
 40
0.0
  9
$WORLDVIEW
 70
     0
  9
$SHADEDGE
 70
     3
  9
$SHADEDIF
 70
    70
  9
$TILEMODE
 70
     1
  9
$MAXACTVP
 70
    16
  9
$PINSBASE
 10
0.0
 20
0.0
 30
0.0
  9
$PLIMCHECK
 70
     0
  9
$PEXTMIN
 10
1.000000000000000E+20
 20
1.000000000000000E+20
 30
1.000000000000000E+20
  9
$PEXTMAX
 10
-1.000000000000000E+20
 20
-1.000000000000000E+20
 30
-1.000000000000000E+20
  9
$PLIMMIN
 10
0.0
 20
0.0
  9
$PLIMMAX
 10
12.0
 20
9.0
  9
$UNITMODE
 70
     0
  9
$VISRETAIN
 70
     0
  9
$PLINEGEN
 70
     0
  9
$PSLTSCALE
 70
     1
  9
$TREEDEPTH
 70
  3020
  9
$CMLSTYLE
  2
Standard
  9
$CMLJUST
 70
     0
  9
$CMLSCALE
 40
1.0
  9
$PROXYGRAPHICS
 70
     1
  9
$MEASUREMENT
 70
     0
  9
$CELWEIGHT
370
    -1
  9
$ENDCAPS
280
     0
  9
$JOINSTYLE
280
     0
  9
$LWDISPLAY
290
     0
  9
$INSUNITS
 70
     0
  9
$HYPERLINKBASE
  1

  9
$STYLESHEET
  1
monochrome.ctb
  9
$XEDIT
290
     1
  9
$CEPSNTYPE
380
     0
  9
$PSTYLEMODE
290
     1
  9
$FINGERPRINTGUID
  2
{A21CBEBC-6D43-11D4-819A-00C04F604D1B}
  9
$VERSIONGUID
  2
{055E00E4-28AD-4682-BB7D-C8DE2B1F3570}
  9
$EXTNAMES
290
     1
  9
$PSVPSCALE
 40
0.0
  9
$OLESTARTUP
290
     0
  0
ENDSEC
  0
SECTION
  2
CLASSES
  0
CLASS
  1
ACDBDICTIONARYWDFLT
  2
AcDbDictionaryWithDefault
  3
AutoCAD 2000
 90
        0
280
     0
281
     0
  0
CLASS
  1
ACDBPLACEHOLDER
  2
AcDbPlaceHolder
  3
AutoCAD 2000
 90
        0
280
     0
281
     0
  0
CLASS
  1
LAYOUT
  2
AcDbLayout
  3
AutoCAD 2000
 90
        0
280
     0
281
     0
  0
ENDSEC
  0
SECTION
  2
TABLES
  0
TABLE
  2
VPORT
  5
8
330
0
100
AcDbSymbolTable
 70
     2
  0
VPORT
  5
D14
330
8
100
AcDbSymbolTableRecord
100
AcDbViewportTableRecord
  2
*Active
 70
     0
 10
0.0
 20
0.0
 11
1.0
 21
1.0
 12
38.74921829015073
 22
24.88690720739511
 13
0.0
 23
0.0
 14
1.0
 24
1.0
 15
0.5
 25
0.5
 16
0.0
 26
0.0
 36
1.0
 17
0.0
 27
0.0
 37
0.0
 40
51.94203287638824
 41
1.824707846410684
 42
50.0
 43
0.0
 44
0.0
 50
0.0
 51
0.0
 71
     0
 72
   100
 73
     1
 74
     0
 75
     0
 76
     0
 77
     0
 78
     0
281
     0
 65
     1
110
0.0
120
0.0
130
0.0
111
1.0
121
0.0
131
0.0
112
0.0
122
1.0
132
0.0
 79
     0
146
0.0
  0
ENDTAB
  0
TABLE
  2
LTYPE
  5
5
330
0
100
AcDbSymbolTable
 70
     6
  0
LTYPE
  5
13
330
5
100
AcDbSymbolTableRecord
100
AcDbLinetypeTableRecord
  2
ByBlock
 70
     0
  3

 72
    65
 73
     0
 40
0.0
  0
LTYPE
  5
14
330
5
100
AcDbSymbolTableRecord
100
AcDbLinetypeTableRecord
  2
ByLayer
 70
     0
  3

 72
    65
 73
     0
 40
0.0
  0
LTYPE
  5
15
330
5
100
AcDbSymbolTableRecord
100
AcDbLinetypeTableRecord
  2
CONTINUOUS
 70
     0
  3
Solid line
 72
    65
 73
     0
 40
0.0
  0
LTYPE
  5
3B
330
5
100
AcDbSymbolTableRecord
100
AcDbLinetypeTableRecord
  2
HIDDEN
 70
     0
  3
_ _ _ _ _ _ _ _ _ _ _ _ _ _ _ _ _ _ _ _ _ _ _
 72
    65
 73
     2
 40
0.375
 49
0.25
 74
     0
 49
-0.125
 74
     0
  0
LTYPE
  5
3C
330
5
100
AcDbSymbolTableRecord
100
AcDbLinetypeTableRecord
  2
PHANTOM
 70
     0
  3
_____ _ _ _____ _ _ _____ _ _ _____ _ _ ____
 72
    65
 73
     6
 40
2.5
 49
1.25
 74
     0
 49
-0.25
 74
     0
 49
0.25
 74
     0
 49
-0.25
 74
     0
 49
0.25
 74
     0
 49
-0.25
 74
     0
  0
LTYPE
  5
3D
330
5
100
AcDbSymbolTableRecord
100
AcDbLinetypeTableRecord
  2
CENTER
 70
     0
  3
____ _ ____ _ ____ _ ____ _ ____ _ ____ _ ____
 72
    65
 73
     4
 40
2.0
 49
1.25
 74
     0
 49
-0.25
 74
     0
 49
0.25
 74
     0
 49
-0.25
 74
     0
  0
LTYPE
  5
3E
330
5
100
AcDbSymbolTableRecord
100
AcDbLinetypeTableRecord
  2
PHANTOM2
 70
     0
  3
___ _ _ ___ _ _ ___ _ _ ___ _ _ ___ _ _ ___ _ _
 72
    65
 73
     6
 40
1.25
 49
0.625
 74
     0
 49
-0.125
 74
     0
 49
0.125
 74
     0
 49
-0.125
 74
     0
 49
0.125
 74
     0
 49
-0.125
 74
     0
  0
LTYPE
  5
3F
330
5
100
AcDbSymbolTableRecord
100
AcDbLinetypeTableRecord
  2
HIDDEN2
 70
     0
  3
_ _ _ _ _ _ _ _ _ _ _ _ _ _ _ _ _ _ _ _ _ _ _ _
 72
    65
 73
     2
 40
0.1875
 49
0.125
 74
     0
 49
-0.0625
 74
     0
  0
ENDTAB
  0
TABLE
  2
LAYER
  5
2
330
0
100
AcDbSymbolTable
 70
     9
  0
LAYER
  5
10
330
2
100
AcDbSymbolTableRecord
100
AcDbLayerTableRecord
  2
0
 70
     0
 62
     7
  6
CONTINUOUS
370
    -3
390
F
  0
LAYER
  5
44
330
2
100
AcDbSymbolTableRecord
100
AcDbLayerTableRecord
  2
OBJECT
 70
     0
 62
     7
  6
CONTINUOUS
370
    -3
390
F
  0
LAYER
  5
45
330
2
100
AcDbSymbolTableRecord
100
AcDbLayerTableRecord
  2
DIM
 70
     0
 62
     7
  6
CONTINUOUS
370
    -3
390
F
  0
LAYER
  5
46
330
2
100
AcDbSymbolTableRecord
100
AcDbLayerTableRecord
  2
HIDDEN
 70
     0
 62
     7
  6
HIDDEN
370
    -3
390
F
  0
LAYER
  5
47
330
2
100
AcDbSymbolTableRecord
100
AcDbLayerTableRecord
  2
BEND
 70
     0
 62
     7
  6
PHANTOM
370
    -3
390
F
  0
LAYER
  5
48
330
2
100
AcDbSymbolTableRecord
100
AcDbLayerTableRecord
  2
TEXT
 70
     0
 62
     7
  6
CONTINUOUS
370
    -3
390
F
  0
LAYER
  5
49
330
2
100
AcDbSymbolTableRecord
100
AcDbLayerTableRecord
  2
TITLE
 70
     0
 62
     7
  6
CONTINUOUS
370
    -3
390
F
  0
LAYER
  5
4A
330
2
100
AcDbSymbolTableRecord
100
AcDbLayerTableRecord
  2
CENTER
 70
     0
 62
     7
  6
CENTER
370
    -3
390
F
  0
LAYER
  5
4B
330
2
100
AcDbSymbolTableRecord
100
AcDbLayerTableRecord
  2
DEFPOINTS
 70
     0
 62
     7
  6
CONTINUOUS
290
     0
370
    -3
390
F
  0
ENDTAB
  0
TABLE
  2
STYLE
  5
3
330
0
100
AcDbSymbolTable
 70
     2
  0
STYLE
  5
11
330
3
100
AcDbSymbolTableRecord
100
AcDbTextStyleTableRecord
  2
STANDARD
 70
     0
 40
0.0
 41
1.0
 50
0.0
 71
     0
 42
0.2
  3
txt
  4

  0
STYLE
  5
3A
330
3
100
AcDbSymbolTableRecord
100
AcDbTextStyleTableRecord
  2
TXT
 70
     0
 40
0.0
 41
0.75
 50
0.0
 71
     0
 42
0.625
  3
TXT.shx
  4

  0
ENDTAB
  0
TABLE
  2
VIEW
  5
6
330
0
100
AcDbSymbolTable
 70
     0
  0
ENDTAB
  0
TABLE
  2
UCS
  5
7
330
0
100
AcDbSymbolTable
 70
     0
  0
ENDTAB
  0
TABLE
  2
APPID
  5
9
330
0
100
AcDbSymbolTable
 70
     1
  0
APPID
  5
12
330
9
100
AcDbSymbolTableRecord
100
AcDbRegAppTableRecord
  2
ACAD
 70
     0
  0
ENDTAB
  0
TABLE
  2
DIMSTYLE
  5
A
330
0
100
AcDbSymbolTable
 70
     2
100
AcDbDimStyleTable
 71
     2
340
43
340
42
  0
DIMSTYLE
105
42
102
{ACAD_REACTORS
330
2C8
330
2B1
330
327
330
210
330
20F
330
20E
330
20D
330
20C
330
1FB
330
200
330
23D
330
238
330
203
330
202
330
26C
330
26B
330
2DB
330
2DC
330
2E3
330
2D9
330
2DA
330
9E6
330
91B
102
}
330
A
100
AcDbSymbolTableRecord
100
AcDbDimStyleTableRecord
  2
23NSTD
 70
     0
 40
5.0
 42
0.063
 43
0.25
 44
0.093
140
0.125
170
     1
171
     0
271
     3
272
     3
274
     0
289
     1
340
3A
  0
DIMSTYLE
105
43
330
A
100
AcDbSymbolTableRecord
100
AcDbDimStyleTableRecord
  2
23NSTDI
 70
     0
 40
5.0
 42
0.063
 43
0.25
 44
0.093
140
0.125
170
     1
171
     0
174
     1
271
     3
272
     3
274
     0
340
3A
  0
ENDTAB
  0
TABLE
  2
BLOCK_RECORD
  5
1
330
0
100
AcDbSymbolTable
 70
    25
  0
BLOCK_RECORD
  5
1E
330
1
100
AcDbSymbolTableRecord
100
AcDbBlockTableRecord
  2
*Model_Space
340
21
  0
BLOCK_RECORD
  5
1A
330
1
100
AcDbSymbolTableRecord
100
AcDbBlockTableRecord
  2
*Paper_Space
340
1D
  0
BLOCK_RECORD
  5
22
330
1
100
AcDbSymbolTableRecord
100
AcDbBlockTableRecord
  2
HBS
340
0
102
{BLKREFS
331
6DB
102
}
  0
BLOCK_RECORD
  5
23
330
1
100
AcDbSymbolTableRecord
100
AcDbBlockTableRecord
  2
*X1
340
0
102
{BLKREFS
331
6EC
102
}
  0
BLOCK_RECORD
  5
24
330
1
100
AcDbSymbolTableRecord
100
AcDbBlockTableRecord
  2
*X2
340
0
102
{BLKREFS
331
6ED
102
}
  0
BLOCK_RECORD
  5
732
330
1
100
AcDbSymbolTableRecord
100
AcDbBlockTableRecord
  2
*D3
340
0
  0
BLOCK_RECORD
  5
73F
330
1
100
AcDbSymbolTableRecord
100
AcDbBlockTableRecord
  2
*D4
340
0
  0
BLOCK_RECORD
  5
74C
330
1
100
AcDbSymbolTableRecord
100
AcDbBlockTableRecord
  2
*D5
340
0
  0
BLOCK_RECORD
  5
759
330
1
100
AcDbSymbolTableRecord
100
AcDbBlockTableRecord
  2
*D6
340
0
  0
BLOCK_RECORD
  5
766
330
1
100
AcDbSymbolTableRecord
100
AcDbBlockTableRecord
  2
*D7
340
0
  0
BLOCK_RECORD
  5
773
330
1
100
AcDbSymbolTableRecord
100
AcDbBlockTableRecord
  2
*D8
340
0
  0
BLOCK_RECORD
  5
780
330
1
100
AcDbSymbolTableRecord
100
AcDbBlockTableRecord
  2
*D9
340
0
  0
BLOCK_RECORD
  5
78D
330
1
100
AcDbSymbolTableRecord
100
AcDbBlockTableRecord
  2
*D10
340
0
  0
BLOCK_RECORD
  5
79A
330
1
100
AcDbSymbolTableRecord
100
AcDbBlockTableRecord
  2
*D11
340
0
  0
BLOCK_RECORD
  5
7A7
330
1
100
AcDbSymbolTableRecord
100
AcDbBlockTableRecord
  2
*D12
340
0
  0
BLOCK_RECORD
  5
7B4
330
1
100
AcDbSymbolTableRecord
100
AcDbBlockTableRecord
  2
*D13
340
0
  0
BLOCK_RECORD
  5
7C1
330
1
100
AcDbSymbolTableRecord
100
AcDbBlockTableRecord
  2
*D14
340
0
  0
BLOCK_RECORD
  5
7CE
330
1
100
AcDbSymbolTableRecord
100
AcDbBlockTableRecord
  2
*D15
340
0
  0
BLOCK_RECORD
  5
7DB
330
1
100
AcDbSymbolTableRecord
100
AcDbBlockTableRecord
  2
*D16
340
0
  0
BLOCK_RECORD
  5
7E8
330
1
100
AcDbSymbolTableRecord
100
AcDbBlockTableRecord
  2
*D17
340
0
  0
BLOCK_RECORD
  5
7F5
330
1
100
AcDbSymbolTableRecord
100
AcDbBlockTableRecord
  2
*D18
340
0
  0
BLOCK_RECORD
  5
802
330
1
100
AcDbSymbolTableRecord
100
AcDbBlockTableRecord
  2
*D19
340
0
  0
BLOCK_RECORD
  5
80F
330
1
100
AcDbSymbolTableRecord
100
AcDbBlockTableRecord
  2
*D20
340
0
  0
BLOCK_RECORD
  5
81C
330
1
100
AcDbSymbolTableRecord
100
AcDbBlockTableRecord
  2
*D21
340
0
  0
BLOCK_RECORD
  5
829
330
1
100
AcDbSymbolTableRecord
100
AcDbBlockTableRecord
  2
*D22
340
0
  0
BLOCK_RECORD
  5
836
330
1
100
AcDbSymbolTableRecord
100
AcDbBlockTableRecord
  2
*D23
340
0
  0
BLOCK_RECORD
  5
9E7
330
1
100
AcDbSymbolTableRecord
100
AcDbBlockTableRecord
  2
*D24
340
0
  0
ENDTAB
  0
ENDSEC
  0
SECTION
  2
BLOCKS
  0
BLOCK
  5
4E
330
1E
100
AcDbEntity
  8
0
100
AcDbBlockBegin
  2
*Model_Space
 70
     0
 10
0.0
 20
0.0
 30
0.0
  3
*Model_Space
  1

  0
ENDBLK
  5
4F
330
1E
100
AcDbEntity
  8
0
100
AcDbBlockEnd
  0
BLOCK
  5
4C
330
1A
100
AcDbEntity
 67
     1
  8
0
100
AcDbBlockBegin
  2
*Paper_Space
 70
     0
 10
0.0
 20
0.0
 30
0.0
  3
*Paper_Space
  1

  0
ENDBLK
  5
4D
330
1A
100
AcDbEntity
 67
     1
  8
0
100
AcDbBlockEnd
  0
BLOCK
  5
50
330
22
100
AcDbEntity
  8
0
100
AcDbBlockBegin
  2
HBS
 70
     0
 10
0.0
 20
0.0
 30
0.0
  3
HBS
  1

  0
LINE
  5
51
330
22
100
AcDbEntity
  8
TITLE
100
AcDbLine
 10
0.0619999999999976
 20
9.64
 30
0.0
 11
15.43799999999999
 21
9.640000000000004
 31
0.0
  0
LWPOLYLINE
  5
52
330
22
100
AcDbEntity
  8
TITLE
100
AcDbPolyline
 90
        4
 70
     1
 43
0.0
 10
15.5
 20
10.11999999999999
 10
15.49999999999999
 20
0.0
 10
0.0
 20
0.0
 10
0.0
 20
10.11999999999999
  0
LWPOLYLINE
  5
58
330
22
100
AcDbEntity
  8
TITLE
100
AcDbPolyline
 90
        4
 70
     1
 43
0.0
 10
15.43799999999999
 20
10.058
 10
15.43799999999999
 20
0.0620000000000012
 10
0.0620000000000012
 20
0.0620000000000012
 10
0.0620000000000012
 20
10.058
  0
TEXT
  5
5E
330
22
100
AcDbEntity
  8
TEXT
100
AcDbText
 10
0.2078333333333345
 20
9.680079195640079
 30
0.0
 40
0.125
  1
NAME
  7
TXT
 72
     1
 11
0.4370000000000012
 21
9.680079195640079
 31
0.0
100
AcDbText
  0
TEXT
  5
60
330
22
100
AcDbEntity
  8
TEXT
100
AcDbText
 10
0.2078333333333345
 20
9.888412528973411
 30
0.0
 40
0.125
  1
PART
  7
TXT
 72
     1
 11
0.4370000000000012
 21
9.888412528973411
 31
0.0
100
AcDbText
  0
LINE
  5
61
330
22
100
AcDbEntity
  8
TITLE
100
AcDbLine
 10
0.8120000000000011
 20
9.64
 30
0.0
 11
0.8119999999999976
 21
10.058
 31
0.0
  0
TEXT
  5
62
330
22
100
AcDbEntity
  8
TEXT
100
AcDbText
 10
7.926833333333331
 20
9.888412528973411
 30
0.0
 40
0.125
  1
PART
  7
TXT
 72
     1
 11
8.155999999999998
 21
9.888412528973411
 31
0.0
100
AcDbText
  0
TEXT
  5
63
330
22
100
AcDbEntity
  8
TEXT
100
AcDbText
 10
8.030999999999998
 20
9.680079195640079
 30
0.0
 40
0.125
  1
No.
  7
TXT
 72
     1
 11
8.155999999999998
 21
9.680079195640079
 31
0.0
100
AcDbText
  0
LINE
  5
64
330
22
100
AcDbEntity
  8
TITLE
100
AcDbLine
 10
7.780999999999998
 20
10.058
 30
0.0
 11
7.780999999999998
 21
9.64
 31
0.0
  0
LINE
  5
65
330
22
100
AcDbEntity
  8
TITLE
100
AcDbLine
 10
7.719000000000001
 20
10.058
 30
0.0
 11
7.719000000000001
 21
9.64
 31
0.0
  0
LINE
  5
66
330
22
100
AcDbEntity
  8
TITLE
100
AcDbLine
 10
8.530999999999998
 20
10.058
 30
0.0
 11
8.530999999999998
 21
9.64
 31
0.0
  0
ENDBLK
  5
67
330
22
100
AcDbEntity
  8
0
100
AcDbBlockEnd
  0
BLOCK
  5
68
330
23
100
AcDbEntity
  8
0
100
AcDbBlockBegin
  2
*X1
 70
     1
 10
0.0
 20
0.0
 30
0.0
  3
*X1
  1

  0
LINE
  5
69
330
23
100
AcDbEntity
  8
0
 62
     0
100
AcDbLine
 10
48.999514338323
 20
19.65458291908128
 30
0.0
 11
49.13851433832299
 21
19.79358291908127
 31
0.0
  0
LINE
  5
6A
330
23
100
AcDbEntity
  8
0
 62
     0
100
AcDbLine
 10
48.999514338323
 20
19.47780622378465
 30
0.0
 11
49.13851433832299
 21
19.61680622378463
 31
0.0
  0
LINE
  5
6B
330
23
100
AcDbEntity
  8
0
 62
     0
100
AcDbLine
 10
48.999514338323
 20
19.30102952848801
 30
0.0
 11
49.13851433832299
 21
19.44002952848799
 31
0.0
  0
LINE
  5
6C
330
23
100
AcDbEntity
  8
0
 62
     0
100
AcDbLine
 10
48.999514338323
 20
19.12425283319137
 30
0.0
 11
49.13851433832299
 21
19.26325283319135
 31
0.0
  0
LINE
  5
6D
330
23
100
AcDbEntity
  8
0
 62
     0
100
AcDbLine
 10
48.999514338323
 20
18.94747613789474
 30
0.0
 11
49.13851433832299
 21
19.08647613789472
 31
0.0
  0
LINE
  5
6E
330
23
100
AcDbEntity
  8
0
 62
     0
100
AcDbLine
 10
48.999514338323
 20
18.7706994425981
 30
0.0
 11
49.13851433832299
 21
18.90969944259808
 31
0.0
  0
LINE
  5
6F
330
23
100
AcDbEntity
  8
0
 62
     0
100
AcDbLine
 10
48.999514338323
 20
18.59392274730146
 30
0.0
 11
49.13851433832299
 21
18.73292274730145
 31
0.0
  0
LINE
  5
70
330
23
100
AcDbEntity
  8
0
 62
     0
100
AcDbLine
 10
48.999514338323
 20
18.41714605200482
 30
0.0
 11
49.13851433832299
 21
18.55614605200481
 31
0.0
  0
LINE
  5
71
330
23
100
AcDbEntity
  8
0
 62
     0
100
AcDbLine
 10
48.999514338323
 20
18.24036935670819
 30
0.0
 11
49.13851433832299
 21
18.37936935670817
 31
0.0
  0
LINE
  5
72
330
23
100
AcDbEntity
  8
0
 62
     0
100
AcDbLine
 10
48.999514338323
 20
18.06359266141155
 30
0.0
 11
49.13851433832299
 21
18.20259266141153
 31
0.0
  0
LINE
  5
73
330
23
100
AcDbEntity
  8
0
 62
     0
100
AcDbLine
 10
48.999514338323
 20
17.88681596611492
 30
0.0
 11
49.138514338323
 21
18.0258159661149
 31
0.0
  0
LINE
  5
74
330
23
100
AcDbEntity
  8
0
 62
     0
100
AcDbLine
 10
48.99951433832301
 20
17.71003927081828
 30
0.0
 11
49.138514338323
 21
17.84903927081826
 31
0.0
  0
LINE
  5
75
330
23
100
AcDbEntity
  8
0
 62
     0
100
AcDbLine
 10
48.99951433832301
 20
17.53326257552164
 30
0.0
 11
49.138514338323
 21
17.67226257552163
 31
0.0
  0
LINE
  5
76
330
23
100
AcDbEntity
  8
0
 62
     0
100
AcDbLine
 10
48.99951433832301
 20
17.35648588022501
 30
0.0
 11
49.138514338323
 21
17.49548588022499
 31
0.0
  0
LINE
  5
77
330
23
100
AcDbEntity
  8
0
 62
     0
100
AcDbLine
 10
48.99951433832301
 20
17.17970918492837
 30
0.0
 11
49.138514338323
 21
17.31870918492836
 31
0.0
  0
LINE
  5
78
330
23
100
AcDbEntity
  8
0
 62
     0
100
AcDbLine
 10
48.99951433832301
 20
17.00293248963173
 30
0.0
 11
49.138514338323
 21
17.14193248963172
 31
0.0
  0
LINE
  5
79
330
23
100
AcDbEntity
  8
0
 62
     0
100
AcDbLine
 10
48.99951433832301
 20
16.8261557943351
 30
0.0
 11
49.138514338323
 21
16.96515579433508
 31
0.0
  0
LINE
  5
7A
330
23
100
AcDbEntity
  8
0
 62
     0
100
AcDbLine
 10
48.99951433832301
 20
16.64937909903846
 30
0.0
 11
49.138514338323
 21
16.78837909903844
 31
0.0
  0
LINE
  5
7B
330
23
100
AcDbEntity
  8
0
 62
     0
100
AcDbLine
 10
48.99951433832301
 20
16.47260240374182
 30
0.0
 11
49.138514338323
 21
16.61160240374181
 31
0.0
  0
LINE
  5
7C
330
23
100
AcDbEntity
  8
0
 62
     0
100
AcDbLine
 10
48.99951433832301
 20
16.29582570844519
 30
0.0
 11
49.138514338323
 21
16.43482570844517
 31
0.0
  0
LINE
  5
7D
330
23
100
AcDbEntity
  8
0
 62
     0
100
AcDbLine
 10
48.99951433832301
 20
16.11904901314855
 30
0.0
 11
49.138514338323
 21
16.25804901314854
 31
0.0
  0
LINE
  5
7E
330
23
100
AcDbEntity
  8
0
 62
     0
100
AcDbLine
 10
48.99951433832301
 20
15.94227231785191
 30
0.0
 11
49.138514338323
 21
16.0812723178519
 31
0.0
  0
LINE
  5
7F
330
23
100
AcDbEntity
  8
0
 62
     0
100
AcDbLine
 10
48.99951433832301
 20
15.76549562255528
 30
0.0
 11
49.138514338323
 21
15.90449562255526
 31
0.0
  0
LINE
  5
80
330
23
100
AcDbEntity
  8
0
 62
     0
100
AcDbLine
 10
48.99951433832301
 20
15.58871892725864
 30
0.0
 11
49.138514338323
 21
15.72771892725862
 31
0.0
  0
LINE
  5
81
330
23
100
AcDbEntity
  8
0
 62
     0
100
AcDbLine
 10
48.99951433832301
 20
15.411942231962
 30
0.0
 11
49.138514338323
 21
15.55094223196199
 31
0.0
  0
LINE
  5
82
330
23
100
AcDbEntity
  8
0
 62
     0
100
AcDbLine
 10
48.99951433832301
 20
15.23516553666537
 30
0.0
 11
49.138514338323
 21
15.37416553666535
 31
0.0
  0
LINE
  5
83
330
23
100
AcDbEntity
  8
0
 62
     0
100
AcDbLine
 10
48.99951433832301
 20
15.05838884136873
 30
0.0
 11
49.138514338323
 21
15.19738884136871
 31
0.0
  0
LINE
  5
84
330
23
100
AcDbEntity
  8
0
 62
     0
100
AcDbLine
 10
48.99951433832301
 20
14.88161214607209
 30
0.0
 11
49.138514338323
 21
15.02061214607208
 31
0.0
  0
LINE
  5
85
330
23
100
AcDbEntity
  8
0
 62
     0
100
AcDbLine
 10
48.99951433832301
 20
14.70483545077546
 30
0.0
 11
49.138514338323
 21
14.84383545077544
 31
0.0
  0
LINE
  5
86
330
23
100
AcDbEntity
  8
0
 62
     0
100
AcDbLine
 10
48.99951433832301
 20
14.52805875547882
 30
0.0
 11
49.138514338323
 21
14.66705875547881
 31
0.0
  0
LINE
  5
87
330
23
100
AcDbEntity
  8
0
 62
     0
100
AcDbLine
 10
48.99951433832301
 20
14.35128206018218
 30
0.0
 11
49.138514338323
 21
14.49028206018217
 31
0.0
  0
LINE
  5
88
330
23
100
AcDbEntity
  8
0
 62
     0
100
AcDbLine
 10
48.99951433832301
 20
14.17450536488555
 30
0.0
 11
49.138514338323
 21
14.31350536488553
 31
0.0
  0
LINE
  5
89
330
23
100
AcDbEntity
  8
0
 62
     0
100
AcDbLine
 10
48.99951433832301
 20
13.99772866958891
 30
0.0
 11
49.138514338323
 21
14.1367286695889
 31
0.0
  0
LINE
  5
8A
330
23
100
AcDbEntity
  8
0
 62
     0
100
AcDbLine
 10
48.99951433832301
 20
13.82095197429227
 30
0.0
 11
49.138514338323
 21
13.95995197429226
 31
0.0
  0
LINE
  5
8B
330
23
100
AcDbEntity
  8
0
 62
     0
100
AcDbLine
 10
48.99951433832301
 20
13.64417527899564
 30
0.0
 11
49.138514338323
 21
13.78317527899562
 31
0.0
  0
LINE
  5
8C
330
23
100
AcDbEntity
  8
0
 62
     0
100
AcDbLine
 10
48.99951433832301
 20
13.467398583699
 30
0.0
 11
49.138514338323
 21
13.60639858369899
 31
0.0
  0
LINE
  5
8D
330
23
100
AcDbEntity
  8
0
 62
     0
100
AcDbLine
 10
48.99951433832301
 20
13.29062188840236
 30
0.0
 11
49.138514338323
 21
13.42962188840235
 31
0.0
  0
LINE
  5
8E
330
23
100
AcDbEntity
  8
0
 62
     0
100
AcDbLine
 10
48.99951433832302
 20
13.11384519310573
 30
0.0
 11
49.138514338323
 21
13.25284519310571
 31
0.0
  0
LINE
  5
8F
330
23
100
AcDbEntity
  8
0
 62
     0
100
AcDbLine
 10
48.99951433832302
 20
12.93706849780909
 30
0.0
 11
49.138514338323
 21
13.07606849780908
 31
0.0
  0
LINE
  5
90
330
23
100
AcDbEntity
  8
0
 62
     0
100
AcDbLine
 10
49.00270684871923
 20
12.76348431290867
 30
0.0
 11
49.138514338323
 21
12.89929180251244
 31
0.0
  0
LINE
  5
91
330
23
100
AcDbEntity
  8
0
 62
     0
100
AcDbLine
 10
49.06015915715349
 20
12.6441599260463
 30
0.0
 11
49.15877854480942
 21
12.74277931370223
 31
0.0
  0
LINE
  5
92
330
23
100
AcDbEntity
  8
0
 62
     0
100
AcDbLine
 10
49.16851180433898
 20
12.57573587793514
 30
0.0
 11
49.2947601548265
 21
12.70198422842266
 31
0.0
  0
LINE
  5
93
330
23
100
AcDbEntity
  8
0
 62
     0
100
AcDbLine
 10
49.33062841228067
 20
12.56107579058019
 30
0.0
 11
49.46333923474373
 21
12.69378661304326
 31
0.0
  0
LINE
  5
94
330
23
100
AcDbEntity
  8
0
 62
     0
100
AcDbLine
 10
49.4992074921979
 20
12.5528781752008
 30
0.0
 11
49.63191831466097
 21
12.68558899766386
 31
0.0
  0
LINE
  5
95
330
23
100
AcDbEntity
  8
0
 62
     0
100
AcDbLine
 10
49.66778657211514
 20
12.54468055982139
 30
0.0
 11
49.80049739457821
 21
12.67739138228446
 31
0.0
  0
LINE
  5
96
330
23
100
AcDbEntity
  8
0
 62
     0
100
AcDbLine
 10
49.83636565203237
 20
12.536482944442
 30
0.0
 11
49.96907647449544
 21
12.66919376690506
 31
0.0
  0
LINE
  5
97
330
23
100
AcDbEntity
  8
0
 62
     0
100
AcDbLine
 10
49.86965606532301
 20
12.39299666243599
 30
0.0
 11
49.98461669332304
 21
12.50795729043601
 31
0.0
  0
LINE
  5
98
330
23
100
AcDbEntity
  8
0
 62
     0
100
AcDbLine
 10
50.05737194155423
 20
12.58071253866721
 30
0.0
 11
50.13765555441268
 21
12.66099615152566
 31
0.0
  0
LINE
  5
99
330
23
100
AcDbEntity
  8
0
 62
     0
100
AcDbLine
 10
49.94014863685086
 20
12.28671253866721
 30
0.0
 11
50.03814863685087
 21
12.38471253866721
 31
0.0
  0
ENDBLK
  5
9A
330
23
100
AcDbEntity
  8
0
100
AcDbBlockEnd
  0
BLOCK
  5
9B
330
24
100
AcDbEntity
  8
0
100
AcDbBlockBegin
  2
*X2
 70
     1
 10
0.0
 20
0.0
 30
0.0
  3
*X2
  1

  0
LINE
  5
9C
330
24
100
AcDbEntity
  8
0
 62
     0
100
AcDbLine
 10
56.79226231482306
 20
12.68097893675523
 30
0.0
 11
56.63187007596141
 21
12.84137117561687
 31
0.0
  0
LINE
  5
9D
330
24
100
AcDbEntity
  8
0
 62
     0
100
AcDbLine
 10
56.65274322090528
 20
12.64372133537637
 30
0.0
 11
56.50590419232289
 21
12.79056036395876
 31
0.0
  0
LINE
  5
9E
330
24
100
AcDbEntity
  8
0
 62
     0
100
AcDbLine
 10
56.47906761541496
 20
12.64062024557005
 30
0.0
 11
56.33236283035188
 21
12.78732503063313
 31
0.0
  0
LINE
  5
9F
330
24
100
AcDbEntity
  8
0
 62
     0
100
AcDbLine
 10
56.30539200992465
 20
12.63751915576373
 30
0.0
 11
56.15882146838088
 21
12.7840896973075
 31
0.0
  0
LINE
  5
A0
330
24
100
AcDbEntity
  8
0
 62
     0
100
AcDbLine
 10
56.13171640443433
 20
12.63441806595741
 30
0.0
 11
55.98528010640987
 21
12.78085436398187
 31
0.0
  0
LINE
  5
A1
330
24
100
AcDbEntity
  8
0
 62
     0
100
AcDbLine
 10
55.95804079894402
 20
12.63131697615109
 30
0.0
 11
55.81173874443887
 21
12.77761903065623
 31
0.0
  0
LINE
  5
A2
330
24
100
AcDbEntity
  8
0
 62
     0
100
AcDbLine
 10
55.7843651934537
 20
12.62821588634476
 30
0.0
 11
55.63819738246786
 21
12.7743836973306
 31
0.0
  0
LINE
  5
A3
330
24
100
AcDbEntity
  8
0
 62
     0
100
AcDbLine
 10
55.61068958796339
 20
12.62511479653844
 30
0.0
 11
55.46465602049686
 21
12.77114836400497
 31
0.0
  0
LINE
  5
A4
330
24
100
AcDbEntity
  8
0
 62
     0
100
AcDbLine
 10
55.43701398247307
 20
12.62201370673212
 30
0.0
 11
55.29111465852586
 21
12.76791303067934
 31
0.0
  0
LINE
  5
A5
330
24
100
AcDbEntity
  8
0
 62
     0
100
AcDbLine
 10
55.26333837698276
 20
12.61891261692579
 30
0.0
 11
55.11757329655485
 21
12.76467769735371
 31
0.0
  0
LINE
  5
A6
330
24
100
AcDbEntity
  8
0
 62
     0
100
AcDbLine
 10
55.08966277149244
 20
12.61581152711947
 30
0.0
 11
54.94403193458385
 21
12.76144236402807
 31
0.0
  0
LINE
  5
A7
330
24
100
AcDbEntity
  8
0
 62
     0
100
AcDbLine
 10
54.91598716600213
 20
12.61271043731315
 30
0.0
 11
54.77049057261284
 21
12.75820703070244
 31
0.0
  0
LINE
  5
A8
330
24
100
AcDbEntity
  8
0
 62
     0
100
AcDbLine
 10
54.74231156051182
 20
12.60960934750683
 30
0.0
 11
54.59694921064183
 21
12.75497169737681
 31
0.0
  0
LINE
  5
A9
330
24
100
AcDbEntity
  8
0
 62
     0
100
AcDbLine
 10
54.5686359550215
 20
12.60650825770051
 30
0.0
 11
54.42340784867083
 21
12.75173636405118
 31
0.0
  0
LINE
  5
AA
330
24
100
AcDbEntity
  8
0
 62
     0
100
AcDbLine
 10
54.39496034953119
 20
12.60340716789419
 30
0.0
 11
54.24986648669983
 21
12.74850103072554
 31
0.0
  0
LINE
  5
AB
330
24
100
AcDbEntity
  8
0
 62
     0
100
AcDbLine
 10
54.22128474404087
 20
12.60030607808786
 30
0.0
 11
54.07632512472883
 21
12.74526569739991
 31
0.0
  0
LINE
  5
AC
330
24
100
AcDbEntity
  8
0
 62
     0
100
AcDbLine
 10
54.04760913855056
 20
12.59720498828154
 30
0.0
 11
53.90278376275782
 21
12.74203036407428
 31
0.0
  0
LINE
  5
AD
330
24
100
AcDbEntity
  8
0
 62
     0
100
AcDbLine
 10
53.87393353306023
 20
12.59410389847522
 30
0.0
 11
53.72924240078681
 21
12.73879503074865
 31
0.0
  0
LINE
  5
AE
330
24
100
AcDbEntity
  8
0
 62
     0
100
AcDbLine
 10
53.70025792756993
 20
12.5910028086689
 30
0.0
 11
53.55570103881581
 21
12.73555969742302
 31
0.0
  0
LINE
  5
AF
330
24
100
AcDbEntity
  8
0
 62
     0
100
AcDbLine
 10
53.52658232207961
 20
12.58790171886257
 30
0.0
 11
53.3821596768448
 21
12.73232436409738
 31
0.0
  0
LINE
  5
B0
330
24
100
AcDbEntity
  8
0
 62
     0
100
AcDbLine
 10
53.35290671658929
 20
12.58480062905625
 30
0.0
 11
53.20861831487381
 21
12.72908903077175
 31
0.0
  0
LINE
  5
B1
330
24
100
AcDbEntity
  8
0
 62
     0
100
AcDbLine
 10
53.17923111109898
 20
12.58169953924993
 30
0.0
 11
53.0350769529028
 21
12.72585369744612
 31
0.0
  0
LINE
  5
B2
330
24
100
AcDbEntity
  8
0
 62
     0
100
AcDbLine
 10
53.00555550560867
 20
12.57859844944361
 30
0.0
 11
52.86153559093179
 21
12.72261836412049
 31
0.0
  0
LINE
  5
B3
330
24
100
AcDbEntity
  8
0
 62
     0
100
AcDbLine
 10
52.83187990011835
 20
12.57549735963729
 30
0.0
 11
52.68799422896079
 21
12.71938303079485
 31
0.0
  0
LINE
  5
B4
330
24
100
AcDbEntity
  8
0
 62
     0
100
AcDbLine
 10
52.65820429462803
 20
12.57239626983096
 30
0.0
 11
52.51445286698978
 21
12.71614769746922
 31
0.0
  0
LINE
  5
B5
330
24
100
AcDbEntity
  8
0
 62
     0
100
AcDbLine
 10
52.48452868913773
 20
12.56929518002464
 30
0.0
 11
52.34091150501878
 21
12.71291236414359
 31
0.0
  0
LINE
  5
B6
330
24
100
AcDbEntity
  8
0
 62
     0
100
AcDbLine
 10
52.31085308364741
 20
12.56619409021832
 30
0.0
 11
52.16737014304777
 21
12.70967703081796
 31
0.0
  0
LINE
  5
B7
330
24
100
AcDbEntity
  8
0
 62
     0
100
AcDbLine
 10
52.13717747815709
 20
12.563093000412
 30
0.0
 11
51.99382878107677
 21
12.70644169749232
 31
0.0
  0
LINE
  5
B8
330
24
100
AcDbEntity
  8
0
 62
     0
100
AcDbLine
 10
51.96350187266677
 20
12.55999191060568
 30
0.0
 11
51.82028741910577
 21
12.70320636416669
 31
0.0
  0
LINE
  5
B9
330
24
100
AcDbEntity
  8
0
 62
     0
100
AcDbLine
 10
51.78982626717647
 20
12.55689082079936
 30
0.0
 11
51.64674605713476
 21
12.69997103084106
 31
0.0
  0
LINE
  5
BA
330
24
100
AcDbEntity
  8
0
 62
     0
100
AcDbLine
 10
51.61615066168614
 20
12.55378973099303
 30
0.0
 11
51.47320469516376
 21
12.69673569751543
 31
0.0
  0
LINE
  5
BB
330
24
100
AcDbEntity
  8
0
 62
     0
100
AcDbLine
 10
51.44247505619583
 20
12.55068864118671
 30
0.0
 11
51.29966333319275
 21
12.6935003641898
 31
0.0
  0
LINE
  5
BC
330
24
100
AcDbEntity
  8
0
 62
     0
100
AcDbLine
 10
51.26879945070552
 20
12.54758755138039
 30
0.0
 11
51.12612197122174
 21
12.69026503086416
 31
0.0
  0
LINE
  5
BD
330
24
100
AcDbEntity
  8
0
 62
     0
100
AcDbLine
 10
51.0951238452152
 20
12.54448646157407
 30
0.0
 11
50.95258060925075
 21
12.68702969753853
 31
0.0
  0
LINE
  5
BE
330
24
100
AcDbEntity
  8
0
 62
     0
100
AcDbLine
 10
50.92144823972489
 20
12.54138537176774
 30
0.0
 11
50.77903924727974
 21
12.6837943642129
 31
0.0
  0
LINE
  5
BF
330
24
100
AcDbEntity
  8
0
 62
     0
100
AcDbLine
 10
50.74777263423457
 20
12.53828428196142
 30
0.0
 11
50.60549788530874
 21
12.68055903088727
 31
0.0
  0
LINE
  5
C0
330
24
100
AcDbEntity
  8
0
 62
     0
100
AcDbLine
 10
50.57409702874426
 20
12.5351831921551
 30
0.0
 11
50.43195652333773
 21
12.67732369756163
 31
0.0
  0
LINE
  5
C1
330
24
100
AcDbEntity
  8
0
 62
     0
100
AcDbLine
 10
50.46020724282307
 20
12.47229628277965
 30
0.0
 11
50.25841516136672
 21
12.674088364236
 31
0.0
  0
LINE
  5
C2
330
24
100
AcDbEntity
  8
0
 62
     0
100
AcDbLine
 10
50.46020724282308
 20
12.29551958748301
 30
0.0
 11
50.18461669332302
 21
12.57111013698306
 31
0.0
  0
LINE
  5
C3
330
24
100
AcDbEntity
  8
0
 62
     0
100
AcDbLine
 10
50.32123759634229
 20
12.25771253866715
 30
0.0
 11
50.18461669332302
 21
12.39433344168643
 31
0.0
  0
LINE
  5
C4
330
24
100
AcDbEntity
  8
0
 62
     0
100
AcDbLine
 10
50.12455051834222
 20
12.45439961666723
 30
0.0
 11
50.07739338909264
 21
12.50155674591681
 31
0.0
  0
LINE
  5
C5
330
24
100
AcDbEntity
  8
0
 62
     0
100
AcDbLine
 10
56.79226231482306
 20
12.85775563205187
 30
0.0
 11
56.65326231482306
 21
12.99675563205187
 31
0.0
  0
LINE
  5
C6
330
24
100
AcDbEntity
  8
0
 62
     0
100
AcDbLine
 10
56.79226231482306
 20
13.03453232734851
 30
0.0
 11
56.65326231482306
 21
13.1735323273485
 31
0.0
  0
LINE
  5
C7
330
24
100
AcDbEntity
  8
0
 62
     0
100
AcDbLine
 10
56.34866468789027
 20
13.47812995428128
 30
0.0
 11
56.25726231482306
 21
13.5695323273485
 31
0.0
  0
LINE
  5
C8
330
24
100
AcDbEntity
  8
0
 62
     0
100
AcDbLine
 10
56.79226231482306
 20
13.21130902264515
 30
0.0
 11
56.65326231482306
 21
13.35030902264514
 31
0.0
  0
LINE
  5
C9
330
24
100
AcDbEntity
  8
0
 62
     0
100
AcDbLine
 10
56.54983528746285
 20
13.45373605000535
 30
0.0
 11
56.36805952280098
 21
13.63551181466722
 31
0.0
  0
LINE
  5
CA
330
24
100
AcDbEntity
  8
0
 62
     0
100
AcDbLine
 10
56.79226231482306
 20
13.38808571794178
 30
0.0
 11
56.5448362180976
 21
13.63551181466722
 31
0.0
  0
LINE
  5
CB
330
24
100
AcDbEntity
  8
0
 62
     0
100
AcDbLine
 10
56.34798582559763
 20
13.8323622071672
 30
0.0
 11
56.25726231482304
 21
13.92308571794178
 31
0.0
  0
LINE
  5
CC
330
24
100
AcDbEntity
  8
0
 62
     0
100
AcDbLine
 10
56.84226231482305
 20
13.51486241323841
 30
0.0
 11
56.72161291339424
 21
13.63551181466722
 31
0.0
  0
LINE
  5
CD
330
24
100
AcDbEntity
  8
0
 62
     0
100
AcDbLine
 10
56.52476252089426
 20
13.8323622071672
 30
0.0
 11
56.36535660248196
 21
13.99176812557951
 31
0.0
  0
LINE
  5
CE
330
24
100
AcDbEntity
  8
0
 62
     0
100
AcDbLine
 10
56.84226231482305
 20
13.69163910853505
 30
0.0
 11
56.75289223632301
 21
13.7810091870351
 31
0.0
  0
LINE
  5
CF
330
24
100
AcDbEntity
  8
0
 62
     0
100
AcDbLine
 10
56.7015392161909
 20
13.8323622071672
 30
0.0
 11
56.52301560102355
 21
14.01088582233457
 31
0.0
  0
LINE
  5
D0
330
24
100
AcDbEntity
  8
0
 62
     0
100
AcDbLine
 10
56.84226231482305
 20
13.86841580383168
 30
0.0
 11
56.65326231482304
 21
14.05741580383169
 31
0.0
  0
LINE
  5
D1
330
24
100
AcDbEntity
  8
0
 62
     0
100
AcDbLine
 10
56.79226231482305
 20
14.09519249912833
 30
0.0
 11
56.65326231482304
 21
14.23419249912833
 31
0.0
  0
LINE
  5
D2
330
24
100
AcDbEntity
  8
0
 62
     0
100
AcDbLine
 10
56.79226231482305
 20
14.27196919442496
 30
0.0
 11
56.65326231482304
 21
14.41096919442497
 31
0.0
  0
LINE
  5
D3
330
24
100
AcDbEntity
  8
0
 62
     0
100
AcDbLine
 10
56.79226231482305
 20
14.4487458897216
 30
0.0
 11
56.65326231482304
 21
14.5877458897216
 31
0.0
  0
LINE
  5
D4
330
24
100
AcDbEntity
  8
0
 62
     0
100
AcDbLine
 10
56.79226231482305
 20
14.62552258501824
 30
0.0
 11
56.65326231482304
 21
14.76452258501824
 31
0.0
  0
LINE
  5
D5
330
24
100
AcDbEntity
  8
0
 62
     0
100
AcDbLine
 10
56.79226231482305
 20
14.80229928031487
 30
0.0
 11
56.65326231482304
 21
14.94129928031488
 31
0.0
  0
LINE
  5
D6
330
24
100
AcDbEntity
  8
0
 62
     0
100
AcDbLine
 10
56.79226231482305
 20
14.97907597561151
 30
0.0
 11
56.65326231482304
 21
15.11807597561152
 31
0.0
  0
LINE
  5
D7
330
24
100
AcDbEntity
  8
0
 62
     0
100
AcDbLine
 10
56.79226231482305
 20
15.15585267090815
 30
0.0
 11
56.65326231482304
 21
15.29485267090815
 31
0.0
  0
LINE
  5
D8
330
24
100
AcDbEntity
  8
0
 62
     0
100
AcDbLine
 10
56.79226231482305
 20
15.33262936620478
 30
0.0
 11
56.65326231482304
 21
15.47162936620479
 31
0.0
  0
LINE
  5
D9
330
24
100
AcDbEntity
  8
0
 62
     0
100
AcDbLine
 10
56.79226231482305
 20
15.50940606150142
 30
0.0
 11
56.65326231482304
 21
15.64840606150143
 31
0.0
  0
LINE
  5
DA
330
24
100
AcDbEntity
  8
0
 62
     0
100
AcDbLine
 10
56.79226231482305
 20
15.68618275679806
 30
0.0
 11
56.65326231482304
 21
15.82518275679807
 31
0.0
  0
LINE
  5
DB
330
24
100
AcDbEntity
  8
0
 62
     0
100
AcDbLine
 10
56.79226231482305
 20
15.8629594520947
 30
0.0
 11
56.65326231482304
 21
16.0019594520947
 31
0.0
  0
LINE
  5
DC
330
24
100
AcDbEntity
  8
0
 62
     0
100
AcDbLine
 10
56.79226231482305
 20
16.03973614739133
 30
0.0
 11
56.65326231482304
 21
16.17873614739134
 31
0.0
  0
LINE
  5
DD
330
24
100
AcDbEntity
  8
0
 62
     0
100
AcDbLine
 10
56.79226231482305
 20
16.21651284268797
 30
0.0
 11
56.65326231482304
 21
16.35551284268798
 31
0.0
  0
LINE
  5
DE
330
24
100
AcDbEntity
  8
0
 62
     0
100
AcDbLine
 10
56.79226231482305
 20
16.39328953798461
 30
0.0
 11
56.65326231482303
 21
16.53228953798462
 31
0.0
  0
LINE
  5
DF
330
24
100
AcDbEntity
  8
0
 62
     0
100
AcDbLine
 10
56.3302880571805
 20
16.85526379562716
 30
0.0
 11
56.25726231482305
 21
16.9282895379846
 31
0.0
  0
LINE
  5
E0
330
24
100
AcDbEntity
  8
0
 62
     0
100
AcDbLine
 10
56.79226231482305
 20
16.57006623328124
 30
0.0
 11
56.65326231482303
 21
16.70906623328125
 31
0.0
  0
LINE
  5
E1
330
24
100
AcDbEntity
  8
0
 62
     0
100
AcDbLine
 10
56.53145865675307
 20
16.83086989135123
 30
0.0
 11
56.35191123843704
 21
17.01041730966726
 31
0.0
  0
LINE
  5
E2
330
24
100
AcDbEntity
  8
0
 62
     0
100
AcDbLine
 10
56.79226231482305
 20
16.74684292857788
 30
0.0
 11
56.52868793373367
 21
17.01041730966726
 31
0.0
  0
LINE
  5
E3
330
24
100
AcDbEntity
  8
0
 62
     0
100
AcDbLine
 10
56.33183754123369
 20
17.20726770216724
 30
0.0
 11
56.25726231482306
 21
17.28184292857788
 31
0.0
  0
LINE
  5
E4
330
24
100
AcDbEntity
  8
0
 62
     0
100
AcDbLine
 10
56.80703943278039
 20
16.90884250591719
 30
0.0
 11
56.70546462903031
 21
17.01041730966726
 31
0.0
  0
LINE
  5
E5
330
24
100
AcDbEntity
  8
0
 62
     0
100
AcDbLine
 10
56.50861423653033
 20
17.20726770216724
 30
0.0
 11
56.35095469086849
 21
17.36492724782908
 31
0.0
  0
LINE
  5
E6
330
24
100
AcDbEntity
  8
0
 62
     0
100
AcDbLine
 10
56.84226231482305
 20
17.05039631917115
 30
0.0
 11
56.75289223632301
 21
17.1397663976712
 31
0.0
  0
LINE
  5
E7
330
24
100
AcDbEntity
  8
0
 62
     0
100
AcDbLine
 10
56.68539093182697
 20
17.20726770216724
 30
0.0
 11
56.50861368941008
 21
17.38404494458413
 31
0.0
  0
LINE
  5
E8
330
24
100
AcDbEntity
  8
0
 62
     0
100
AcDbLine
 10
56.84226231482305
 20
17.22717301446779
 30
0.0
 11
56.65326231482305
 21
17.41617301446779
 31
0.0
  0
LINE
  5
E9
330
24
100
AcDbEntity
  8
0
 62
     0
100
AcDbLine
 10
56.79226231482307
 20
17.45394970976441
 30
0.0
 11
56.65326231482305
 21
17.59294970976443
 31
0.0
  0
LINE
  5
EA
330
24
100
AcDbEntity
  8
0
 62
     0
100
AcDbLine
 10
56.79226231482307
 20
17.63072640506105
 30
0.0
 11
56.65326231482305
 21
17.76972640506107
 31
0.0
  0
LINE
  5
EB
330
24
100
AcDbEntity
  8
0
 62
     0
100
AcDbLine
 10
56.79226231482306
 20
17.80750310035768
 30
0.0
 11
56.65326231482305
 21
17.94650310035771
 31
0.0
  0
LINE
  5
EC
330
24
100
AcDbEntity
  8
0
 62
     0
100
AcDbLine
 10
56.79226231482306
 20
17.98427979565432
 30
0.0
 11
56.65326231482305
 21
18.12327979565434
 31
0.0
  0
LINE
  5
ED
330
24
100
AcDbEntity
  8
0
 62
     0
100
AcDbLine
 10
56.79226231482306
 20
18.16105649095097
 30
0.0
 11
56.65326231482305
 21
18.30005649095098
 31
0.0
  0
LINE
  5
EE
330
24
100
AcDbEntity
  8
0
 62
     0
100
AcDbLine
 10
56.79226231482306
 20
18.3378331862476
 30
0.0
 11
56.65326231482305
 21
18.47683318624762
 31
0.0
  0
LINE
  5
EF
330
24
100
AcDbEntity
  8
0
 62
     0
100
AcDbLine
 10
56.79226231482306
 20
18.51460988154424
 30
0.0
 11
56.65326231482305
 21
18.65360988154425
 31
0.0
  0
LINE
  5
F0
330
24
100
AcDbEntity
  8
0
 62
     0
100
AcDbLine
 10
56.79226231482306
 20
18.69138657684088
 30
0.0
 11
56.65326231482305
 21
18.83038657684089
 31
0.0
  0
LINE
  5
F1
330
24
100
AcDbEntity
  8
0
 62
     0
100
AcDbLine
 10
56.79226231482306
 20
18.86816327213752
 30
0.0
 11
56.65326231482305
 21
19.00716327213753
 31
0.0
  0
LINE
  5
F2
330
24
100
AcDbEntity
  8
0
 62
     0
100
AcDbLine
 10
56.79226231482306
 20
19.04493996743416
 30
0.0
 11
56.65326231482305
 21
19.18393996743416
 31
0.0
  0
LINE
  5
F3
330
24
100
AcDbEntity
  8
0
 62
     0
100
AcDbLine
 10
56.79226231482306
 20
19.22171666273079
 30
0.0
 11
56.65326231482305
 21
19.3607166627308
 31
0.0
  0
LINE
  5
F4
330
24
100
AcDbEntity
  8
0
 62
     0
100
AcDbLine
 10
56.79226231482306
 20
19.39849335802743
 30
0.0
 11
56.65326231482305
 21
19.53749335802744
 31
0.0
  0
LINE
  5
F5
330
24
100
AcDbEntity
  8
0
 62
     0
100
AcDbLine
 10
56.79226231482306
 20
19.57527005332407
 30
0.0
 11
56.65326231482305
 21
19.71427005332407
 31
0.0
  0
LINE
  5
F6
330
24
100
AcDbEntity
  8
0
 62
     0
100
AcDbLine
 10
56.79226231482306
 20
19.75204674862071
 30
0.0
 11
56.73833697268046
 21
19.8059720907633
 31
0.0
  0
ENDBLK
  5
F7
330
24
100
AcDbEntity
  8
0
100
AcDbBlockEnd
  0
BLOCK
  5
73D
330
732
100
AcDbEntity
  8
0
100
AcDbBlockBegin
  2
*D3
 70
     1
 10
0.0
 20
0.0
 30
0.0
  3
*D3
  1

  0
LINE
  5
C72
330
732
100
AcDbEntity
  8
DIM
 62
     0
370
    -2
100
AcDbLine
 10
23.43765604931231
 20
31.85654599833289
 30
0.0
 11
23.43765604931231
 21
36.92333893234764
 31
0.0
  0
LINE
  5
C73
330
732
100
AcDbEntity
  8
DIM
 62
     0
370
    -2
100
AcDbLine
 10
7.695656049312255
 20
31.85654599833289
 30
0.0
 11
7.695656049312255
 21
36.92333893234764
 31
0.0
  0
LINE
  5
C74
330
732
100
AcDbEntity
  8
DIM
 62
     0
370
    -2
100
AcDbLine
 10
22.53765604931231
 20
36.45833893234764
 30
0.0
 11
16.17290604931228
 21
36.45833893234764
 31
0.0
  0
LINE
  5
C75
330
732
100
AcDbEntity
  8
DIM
 62
     0
370
    -2
100
AcDbLine
 10
8.595656049312255
 20
36.45833893234764
 30
0.0
 11
14.96040604931228
 21
36.45833893234764
 31
0.0
  0
SOLID
  5
C76
330
732
100
AcDbEntity
  8
DIM
 62
     0
100
AcDbTrace
 10
22.53765604931231
 20
36.60833893234764
 30
0.0
 11
22.53765604931231
 21
36.30833893234764
 31
0.0
 12
23.43765604931231
 22
36.45833893234764
 32
0.0
 13
23.43765604931231
 23
36.45833893234764
 33
0.0
  0
SOLID
  5
C77
330
732
100
AcDbEntity
  8
DIM
 62
     0
100
AcDbTrace
 10
8.595656049312255
 20
36.60833893234764
 30
0.0
 11
8.595656049312255
 21
36.30833893234764
 31
0.0
 12
7.695656049312255
 22
36.45833893234764
 32
0.0
 13
7.695656049312255
 23
36.45833893234764
 33
0.0
  0
MTEXT
  5
C78
330
732
100
AcDbEntity
  8
DIM
 62
     0
100
AcDbMText
 10
15.56665604931228
 20
36.45833893234764
 30
0.0
 40
0.625
 41
0.0
 71
     5
 72
     1
  1
\A1;A
  7
TXT
 73
     1
 44
1.0
  0
POINT
  5
C79
330
732
100
AcDbEntity
  8
DEFPOINTS
 62
     0
100
AcDbPoint
 10
23.43765604931231
 20
31.54154599833288
 30
0.0
  0
POINT
  5
C7A
330
732
100
AcDbEntity
  8
DEFPOINTS
 62
     0
100
AcDbPoint
 10
7.695656049312255
 20
31.54154599833288
 30
0.0
  0
POINT
  5
C7B
330
732
100
AcDbEntity
  8
DEFPOINTS
 62
     0
100
AcDbPoint
 10
7.695656049312255
 20
36.45833893234764
 30
0.0
  0
ENDBLK
  5
73E
330
732
100
AcDbEntity
  8
0
100
AcDbBlockEnd
  0
BLOCK
  5
74A
330
73F
100
AcDbEntity
  8
0
100
AcDbBlockBegin
  2
*D4
 70
     1
 10
0.0
 20
0.0
 30
0.0
  3
*D4
  1

  0
LINE
  5
C7C
330
73F
100
AcDbEntity
  8
DIM
 62
     0
370
    -2
100
AcDbLine
 10
23.01915604931231
 20
31.87446339033286
 30
0.0
 11
23.01915604931231
 21
35.91785581341038
 31
0.0
  0
LINE
  5
C7D
330
73F
100
AcDbEntity
  8
DIM
 62
     0
370
    -2
100
AcDbLine
 10
8.11415604931232
 20
31.87446339033286
 30
0.0
 11
8.11415604931232
 21
35.91785581341038
 31
0.0
  0
LINE
  5
C7E
330
73F
100
AcDbEntity
  8
DIM
 62
     0
370
    -2
100
AcDbLine
 10
22.11915604931231
 20
35.45285581341038
 30
0.0
 11
16.17290604931231
 21
35.45285581341038
 31
0.0
  0
LINE
  5
C7F
330
73F
100
AcDbEntity
  8
DIM
 62
     0
370
    -2
100
AcDbLine
 10
9.014156049312321
 20
35.45285581341038
 30
0.0
 11
14.96040604931232
 21
35.45285581341038
 31
0.0
  0
SOLID
  5
C80
330
73F
100
AcDbEntity
  8
DIM
 62
     0
100
AcDbTrace
 10
22.11915604931231
 20
35.60285581341037
 30
0.0
 11
22.11915604931231
 21
35.30285581341038
 31
0.0
 12
23.01915604931231
 22
35.45285581341038
 32
0.0
 13
23.01915604931231
 23
35.45285581341038
 33
0.0
  0
SOLID
  5
C81
330
73F
100
AcDbEntity
  8
DIM
 62
     0
100
AcDbTrace
 10
9.014156049312321
 20
35.60285581341037
 30
0.0
 11
9.014156049312321
 21
35.30285581341038
 31
0.0
 12
8.11415604931232
 22
35.45285581341038
 32
0.0
 13
8.11415604931232
 23
35.45285581341038
 33
0.0
  0
MTEXT
  5
C82
330
73F
100
AcDbEntity
  8
DIM
 62
     0
100
AcDbMText
 10
15.56665604931231
 20
35.45285581341038
 30
0.0
 40
0.625
 41
0.0
 71
     5
 72
     1
  1
\A1;B
  7
TXT
 73
     1
 44
1.0
  0
POINT
  5
C83
330
73F
100
AcDbEntity
  8
DEFPOINTS
 62
     0
100
AcDbPoint
 10
23.01915604931231
 20
31.55946339033286
 30
0.0
  0
POINT
  5
C84
330
73F
100
AcDbEntity
  8
DEFPOINTS
 62
     0
100
AcDbPoint
 10
8.11415604931232
 20
31.55946339033286
 30
0.0
  0
POINT
  5
C85
330
73F
100
AcDbEntity
  8
DEFPOINTS
 62
     0
100
AcDbPoint
 10
8.11415604931232
 20
35.45285581341038
 30
0.0
  0
ENDBLK
  5
74B
330
73F
100
AcDbEntity
  8
0
100
AcDbBlockEnd
  0
BLOCK
  5
757
330
74C
100
AcDbEntity
  8
0
100
AcDbBlockBegin
  2
*D5
 70
     1
 10
0.0
 20
0.0
 30
0.0
  3
*D5
  1

  0
LINE
  5
C2C
330
74C
100
AcDbEntity
  8
DIM
 62
     0
370
    -2
100
AcDbLine
 10
7.968191526812343
 20
12.44979023283282
 30
0.0
 11
3.670519980371323
 21
12.44979023283282
 31
0.0
  0
LINE
  5
C2D
330
74C
100
AcDbEntity
  8
DIM
 62
     0
370
    -2
100
AcDbLine
 10
7.968191526812344
 20
32.13209717583289
 30
0.0
 11
3.670519980371327
 21
32.13209717583289
 31
0.0
  0
LINE
  5
C2E
330
74C
100
AcDbEntity
  8
DIM
 62
     0
370
    -2
100
AcDbLine
 10
4.135519980371323
 20
13.34979023283282
 30
0.0
 11
4.135519980371324
 21
21.52844370433286
 31
0.0
  0
LINE
  5
C2F
330
74C
100
AcDbEntity
  8
DIM
 62
     0
370
    -2
100
AcDbLine
 10
4.135519980371327
 20
31.23209717583289
 30
0.0
 11
4.135519980371325
 21
23.05344370433286
 31
0.0
  0
SOLID
  5
C30
330
74C
100
AcDbEntity
  8
DIM
 62
     0
100
AcDbTrace
 10
3.985519980371323
 20
13.34979023283282
 30
0.0
 11
4.285519980371323
 21
13.34979023283282
 31
0.0
 12
4.135519980371323
 22
12.44979023283282
 32
0.0
 13
4.135519980371323
 23
12.44979023283282
 33
0.0
  0
SOLID
  5
C31
330
74C
100
AcDbEntity
  8
DIM
 62
     0
100
AcDbTrace
 10
3.985519980371327
 20
31.23209717583289
 30
0.0
 11
4.285519980371327
 21
31.23209717583289
 31
0.0
 12
4.135519980371327
 22
32.13209717583289
 32
0.0
 13
4.135519980371327
 23
32.13209717583289
 33
0.0
  0
MTEXT
  5
C32
330
74C
100
AcDbEntity
  8
DIM
 62
     0
100
AcDbMText
 10
4.135519980371322
 20
22.29094370433286
 30
0.0
 40
0.625
 41
0.0
 71
     5
 72
     1
  1
\A1;E
  7
TXT
 73
     1
 44
1.0
  0
POINT
  5
C33
330
74C
100
AcDbEntity
  8
DEFPOINTS
 62
     0
100
AcDbPoint
 10
8.283191526812345
 20
12.44979023283282
 30
0.0
  0
POINT
  5
C34
330
74C
100
AcDbEntity
  8
DEFPOINTS
 62
     0
100
AcDbPoint
 10
8.283191526812345
 20
32.13209717583289
 30
0.0
  0
POINT
  5
C35
330
74C
100
AcDbEntity
  8
DEFPOINTS
 62
     0
100
AcDbPoint
 10
4.135519980371327
 20
32.13209717583289
 30
0.0
  0
ENDBLK
  5
758
330
74C
100
AcDbEntity
  8
0
100
AcDbBlockEnd
  0
BLOCK
  5
764
330
759
100
AcDbEntity
  8
0
100
AcDbBlockBegin
  2
*D6
 70
     1
 10
0.0
 20
0.0
 30
0.0
  3
*D6
  1

  0
LINE
  5
C36
330
759
100
AcDbEntity
  8
DIM
 62
     0
370
    -2
100
AcDbLine
 10
7.968191526812343
 20
12.86494370433286
 30
0.0
 11
4.805700869763525
 21
12.86494370433286
 31
0.0
  0
LINE
  5
C37
330
759
100
AcDbEntity
  8
DIM
 62
     0
370
    -2
100
AcDbLine
 10
7.956636363312374
 20
31.71694370433286
 30
0.0
 11
4.80570086976353
 21
31.71694370433286
 31
0.0
  0
LINE
  5
C38
330
759
100
AcDbEntity
  8
DIM
 62
     0
370
    -2
100
AcDbLine
 10
5.270700869763525
 20
13.76494370433286
 30
0.0
 11
5.270700869763527
 21
21.52844370433286
 31
0.0
  0
LINE
  5
C39
330
759
100
AcDbEntity
  8
DIM
 62
     0
370
    -2
100
AcDbLine
 10
5.27070086976353
 20
30.81694370433286
 30
0.0
 11
5.270700869763528
 21
23.05344370433286
 31
0.0
  0
SOLID
  5
C3A
330
759
100
AcDbEntity
  8
DIM
 62
     0
100
AcDbTrace
 10
5.120700869763525
 20
13.76494370433286
 30
0.0
 11
5.420700869763526
 21
13.76494370433286
 31
0.0
 12
5.270700869763525
 22
12.86494370433286
 32
0.0
 13
5.270700869763525
 23
12.86494370433286
 33
0.0
  0
SOLID
  5
C3B
330
759
100
AcDbEntity
  8
DIM
 62
     0
100
AcDbTrace
 10
5.120700869763529
 20
30.81694370433286
 30
0.0
 11
5.42070086976353
 21
30.81694370433286
 31
0.0
 12
5.27070086976353
 22
31.71694370433286
 32
0.0
 13
5.27070086976353
 23
31.71694370433286
 33
0.0
  0
MTEXT
  5
C3C
330
759
100
AcDbEntity
  8
DIM
 62
     0
100
AcDbMText
 10
5.270700869763524
 20
22.29094370433286
 30
0.0
 40
0.625
 41
0.0
 71
     5
 72
     1
  1
\A1;F
  7
TXT
 73
     1
 44
1.0
  0
POINT
  5
C3D
330
759
100
AcDbEntity
  8
DEFPOINTS
 62
     0
100
AcDbPoint
 10
8.283191526812345
 20
12.86494370433286
 30
0.0
  0
POINT
  5
C3E
330
759
100
AcDbEntity
  8
DEFPOINTS
 62
     0
100
AcDbPoint
 10
8.271636363312374
 20
31.71694370433286
 30
0.0
  0
POINT
  5
C3F
330
759
100
AcDbEntity
  8
DEFPOINTS
 62
     0
100
AcDbPoint
 10
5.27070086976353
 20
31.71694370433286
 30
0.0
  0
ENDBLK
  5
765
330
759
100
AcDbEntity
  8
0
100
AcDbBlockEnd
  0
BLOCK
  5
771
330
766
100
AcDbEntity
  8
0
100
AcDbBlockBegin
  2
*D7
 70
     1
 10
0.0
 20
0.0
 30
0.0
  3
*D7
  1

  0
LINE
  5
C40
330
766
100
AcDbEntity
  8
DIM
 62
     0
370
    -2
100
AcDbLine
 10
8.322156049312313
 20
13.39294370433286
 30
0.0
 11
5.982125894737023
 21
13.39294370433286
 31
0.0
  0
LINE
  5
C41
330
766
100
AcDbEntity
  8
DIM
 62
     0
370
    -2
100
AcDbLine
 10
8.322156049312317
 20
31.18894370433286
 30
0.0
 11
5.982125894737027
 21
31.18894370433286
 31
0.0
  0
LINE
  5
C42
330
766
100
AcDbEntity
  8
DIM
 62
     0
370
    -2
100
AcDbLine
 10
6.447125894737023
 20
14.29294370433286
 30
0.0
 11
6.447125894737024
 21
21.52844370433286
 31
0.0
  0
LINE
  5
C43
330
766
100
AcDbEntity
  8
DIM
 62
     0
370
    -2
100
AcDbLine
 10
6.447125894737027
 20
30.28894370433286
 30
0.0
 11
6.447125894737025
 21
23.05344370433286
 31
0.0
  0
SOLID
  5
C44
330
766
100
AcDbEntity
  8
DIM
 62
     0
100
AcDbTrace
 10
6.297125894737023
 20
14.29294370433286
 30
0.0
 11
6.597125894737024
 21
14.29294370433286
 31
0.0
 12
6.447125894737022
 22
13.39294370433286
 32
0.0
 13
6.447125894737022
 23
13.39294370433286
 33
0.0
  0
SOLID
  5
C45
330
766
100
AcDbEntity
  8
DIM
 62
     0
100
AcDbTrace
 10
6.297125894737026
 20
30.28894370433286
 30
0.0
 11
6.597125894737027
 21
30.28894370433286
 31
0.0
 12
6.447125894737027
 22
31.18894370433286
 32
0.0
 13
6.447125894737027
 23
31.18894370433286
 33
0.0
  0
MTEXT
  5
C46
330
766
100
AcDbEntity
  8
DIM
 62
     0
100
AcDbMText
 10
6.447125894737022
 20
22.29094370433286
 30
0.0
 40
0.625
 41
0.0
 71
     5
 72
     1
  1
\A1;G
  7
TXT
 73
     1
 44
1.0
  0
POINT
  5
C47
330
766
100
AcDbEntity
  8
DEFPOINTS
 62
     0
100
AcDbPoint
 10
8.637156049312313
 20
13.39294370433286
 30
0.0
  0
POINT
  5
C48
330
766
100
AcDbEntity
  8
DEFPOINTS
 62
     0
100
AcDbPoint
 10
8.637156049312316
 20
31.18894370433286
 30
0.0
  0
POINT
  5
C49
330
766
100
AcDbEntity
  8
DEFPOINTS
 62
     0
100
AcDbPoint
 10
6.447125894737027
 20
31.18894370433286
 30
0.0
  0
ENDBLK
  5
772
330
766
100
AcDbEntity
  8
0
100
AcDbBlockEnd
  0
BLOCK
  5
77E
330
773
100
AcDbEntity
  8
0
100
AcDbBlockBegin
  2
*D8
 70
     1
 10
0.0
 20
0.0
 30
0.0
  3
*D8
  1

  0
LINE
  5
C86
330
773
100
AcDbEntity
  8
DIM
 62
     0
370
    -2
100
AcDbLine
 10
9.116656049312311
 20
31.02744370433286
 30
0.0
 11
9.116656049312311
 21
33.81528193242512
 31
0.0
  0
LINE
  5
C87
330
773
100
AcDbEntity
  8
DIM
 62
     0
370
    -2
100
AcDbLine
 10
22.01665604931231
 20
31.02744370433286
 30
0.0
 11
22.01665604931231
 21
33.81528193242512
 31
0.0
  0
LINE
  5
C88
330
773
100
AcDbEntity
  8
DIM
 62
     0
370
    -2
100
AcDbLine
 10
10.01665604931231
 20
33.35028193242512
 30
0.0
 11
14.96040604931231
 21
33.35028193242512
 31
0.0
  0
LINE
  5
C89
330
773
100
AcDbEntity
  8
DIM
 62
     0
370
    -2
100
AcDbLine
 10
21.11665604931231
 20
33.35028193242512
 30
0.0
 11
16.17290604931231
 21
33.35028193242512
 31
0.0
  0
SOLID
  5
C8A
330
773
100
AcDbEntity
  8
DIM
 62
     0
100
AcDbTrace
 10
10.01665604931231
 20
33.50028193242511
 30
0.0
 11
10.01665604931231
 21
33.20028193242512
 31
0.0
 12
9.116656049312311
 22
33.35028193242512
 32
0.0
 13
9.116656049312311
 23
33.35028193242512
 33
0.0
  0
SOLID
  5
C8B
330
773
100
AcDbEntity
  8
DIM
 62
     0
100
AcDbTrace
 10
21.11665604931231
 20
33.50028193242511
 30
0.0
 11
21.11665604931231
 21
33.20028193242512
 31
0.0
 12
22.01665604931231
 22
33.35028193242512
 32
0.0
 13
22.01665604931231
 23
33.35028193242512
 33
0.0
  0
MTEXT
  5
C8C
330
773
100
AcDbEntity
  8
DIM
 62
     0
100
AcDbMText
 10
15.56665604931231
 20
33.35028193242512
 30
0.0
 40
0.625
 41
0.0
 71
     5
 72
     1
  1
\A1;D
  7
TXT
 73
     1
 44
1.0
  0
POINT
  5
C8D
330
773
100
AcDbEntity
  8
DEFPOINTS
 62
     0
100
AcDbPoint
 10
9.116656049312311
 20
30.71244370433285
 30
0.0
  0
POINT
  5
C8E
330
773
100
AcDbEntity
  8
DEFPOINTS
 62
     0
100
AcDbPoint
 10
22.01665604931231
 20
30.71244370433285
 30
0.0
  0
POINT
  5
C8F
330
773
100
AcDbEntity
  8
DEFPOINTS
 62
     0
100
AcDbPoint
 10
22.01665604931231
 20
33.35028193242512
 30
0.0
  0
ENDBLK
  5
77F
330
773
100
AcDbEntity
  8
0
100
AcDbBlockEnd
  0
BLOCK
  5
78B
330
780
100
AcDbEntity
  8
0
100
AcDbBlockBegin
  2
*D9
 70
     1
 10
0.0
 20
0.0
 30
0.0
  3
*D9
  1

  0
LINE
  5
C90
330
780
100
AcDbEntity
  8
DIM
 62
     0
370
    -2
100
AcDbLine
 10
8.637156049312316
 20
31.50394370433286
 30
0.0
 11
8.637156049312316
 21
34.89513166280328
 31
0.0
  0
LINE
  5
C91
330
780
100
AcDbEntity
  8
DIM
 62
     0
370
    -2
100
AcDbLine
 10
22.49615604931231
 20
31.50394370433286
 30
0.0
 11
22.49615604931231
 21
34.89513166280328
 31
0.0
  0
LINE
  5
C92
330
780
100
AcDbEntity
  8
DIM
 62
     0
370
    -2
100
AcDbLine
 10
9.537156049312317
 20
34.43013166280327
 30
0.0
 11
14.96040604931232
 21
34.43013166280327
 31
0.0
  0
LINE
  5
C93
330
780
100
AcDbEntity
  8
DIM
 62
     0
370
    -2
100
AcDbLine
 10
21.59615604931231
 20
34.43013166280327
 30
0.0
 11
16.17290604931231
 21
34.43013166280327
 31
0.0
  0
SOLID
  5
C94
330
780
100
AcDbEntity
  8
DIM
 62
     0
100
AcDbTrace
 10
9.537156049312317
 20
34.58013166280327
 30
0.0
 11
9.537156049312317
 21
34.28013166280328
 31
0.0
 12
8.637156049312316
 22
34.43013166280327
 32
0.0
 13
8.637156049312316
 23
34.43013166280327
 33
0.0
  0
SOLID
  5
C95
330
780
100
AcDbEntity
  8
DIM
 62
     0
100
AcDbTrace
 10
21.59615604931231
 20
34.58013166280327
 30
0.0
 11
21.59615604931231
 21
34.28013166280328
 31
0.0
 12
22.49615604931231
 22
34.43013166280327
 32
0.0
 13
22.49615604931231
 23
34.43013166280327
 33
0.0
  0
MTEXT
  5
C96
330
780
100
AcDbEntity
  8
DIM
 62
     0
100
AcDbMText
 10
15.56665604931231
 20
34.43013166280327
 30
0.0
 40
0.625
 41
0.0
 71
     5
 72
     1
  1
\A1;C
  7
TXT
 73
     1
 44
1.0
  0
POINT
  5
C97
330
780
100
AcDbEntity
  8
DEFPOINTS
 62
     0
100
AcDbPoint
 10
8.637156049312316
 20
31.18894370433286
 30
0.0
  0
POINT
  5
C98
330
780
100
AcDbEntity
  8
DEFPOINTS
 62
     0
100
AcDbPoint
 10
22.49615604931231
 20
31.18894370433286
 30
0.0
  0
POINT
  5
C99
330
780
100
AcDbEntity
  8
DEFPOINTS
 62
     0
100
AcDbPoint
 10
22.49615604931231
 20
34.43013166280327
 30
0.0
  0
ENDBLK
  5
78C
330
780
100
AcDbEntity
  8
0
100
AcDbBlockEnd
  0
BLOCK
  5
798
330
78D
100
AcDbEntity
  8
0
100
AcDbBlockBegin
  2
*D10
 70
     1
 10
0.0
 20
0.0
 30
0.0
  3
*D10
  1

  0
LINE
  5
CA4
330
78D
100
AcDbEntity
  8
DIM
 62
     0
370
    -2
100
AcDbLine
 10
57.64092988770354
 20
12.83844370433286
 30
0.0
 11
59.64257817882418
 21
12.83844370433286
 31
0.0
  0
LINE
  5
CA5
330
78D
100
AcDbEntity
  8
DIM
 62
     0
370
    -2
100
AcDbLine
 10
57.64092988770354
 20
31.74344370433285
 30
0.0
 11
59.64257817882419
 21
31.74344370433285
 31
0.0
  0
LINE
  5
CA6
330
78D
100
AcDbEntity
  8
DIM
 62
     0
370
    -2
100
AcDbLine
 10
59.17757817882418
 20
13.73844370433286
 30
0.0
 11
59.17757817882419
 21
21.52844370433286
 31
0.0
  0
LINE
  5
CA7
330
78D
100
AcDbEntity
  8
DIM
 62
     0
370
    -2
100
AcDbLine
 10
59.17757817882419
 20
30.84344370433286
 30
0.0
 11
59.17757817882419
 21
23.05344370433286
 31
0.0
  0
SOLID
  5
CA8
330
78D
100
AcDbEntity
  8
DIM
 62
     0
100
AcDbTrace
 10
59.02757817882418
 20
13.73844370433286
 30
0.0
 11
59.32757817882418
 21
13.73844370433286
 31
0.0
 12
59.17757817882418
 22
12.83844370433286
 32
0.0
 13
59.17757817882418
 23
12.83844370433286
 33
0.0
  0
SOLID
  5
CA9
330
78D
100
AcDbEntity
  8
DIM
 62
     0
100
AcDbTrace
 10
59.02757817882419
 20
30.84344370433286
 30
0.0
 11
59.32757817882419
 21
30.84344370433286
 31
0.0
 12
59.17757817882419
 22
31.74344370433285
 32
0.0
 13
59.17757817882419
 23
31.74344370433285
 33
0.0
  0
MTEXT
  5
CAA
330
78D
100
AcDbEntity
  8
DIM
 62
     0
100
AcDbMText
 10
59.17757817882418
 20
22.29094370433287
 30
0.0
 40
0.625
 41
0.0
 71
     5
 72
     1
  1
\A1;P
  7
TXT
 73
     1
 44
1.0
  0
POINT
  5
CAB
330
78D
100
AcDbEntity
  8
DEFPOINTS
 62
     0
100
AcDbPoint
 10
57.32592988770353
 20
12.83844370433286
 30
0.0
  0
POINT
  5
CAC
330
78D
100
AcDbEntity
  8
DEFPOINTS
 62
     0
100
AcDbPoint
 10
57.32592988770353
 20
31.74344370433285
 30
0.0
  0
POINT
  5
CAD
330
78D
100
AcDbEntity
  8
DEFPOINTS
 62
     0
100
AcDbPoint
 10
59.17757817882419
 20
31.74344370433285
 30
0.0
  0
ENDBLK
  5
799
330
78D
100
AcDbEntity
  8
0
100
AcDbBlockEnd
  0
BLOCK
  5
7A5
330
79A
100
AcDbEntity
  8
0
100
AcDbBlockBegin
  2
*D11
 70
     1
 10
0.0
 20
0.0
 30
0.0
  3
*D11
  1

  0
LINE
  5
CAE
330
79A
100
AcDbEntity
  8
DIM
 62
     0
370
    -2
100
AcDbLine
 10
49.44367616315417
 20
31.82344370433285
 30
0.0
 11
47.63516833232894
 21
31.82344370433285
 31
0.0
  0
LINE
  5
CAF
330
79A
100
AcDbEntity
  8
DIM
 62
     0
370
    -2
100
AcDbLine
 10
49.44367616315418
 20
12.75844370433286
 30
0.0
 11
47.63516833232893
 21
12.75844370433286
 31
0.0
  0
LINE
  5
CB0
330
79A
100
AcDbEntity
  8
DIM
 62
     0
370
    -2
100
AcDbLine
 10
48.10016833232893
 20
30.92344370433286
 30
0.0
 11
48.10016833232893
 21
23.05344370433285
 31
0.0
  0
LINE
  5
CB1
330
79A
100
AcDbEntity
  8
DIM
 62
     0
370
    -2
100
AcDbLine
 10
48.10016833232893
 20
13.65844370433286
 30
0.0
 11
48.10016833232893
 21
21.52844370433285
 31
0.0
  0
SOLID
  5
CB2
330
79A
100
AcDbEntity
  8
DIM
 62
     0
100
AcDbTrace
 10
47.95016833232893
 20
30.92344370433286
 30
0.0
 11
48.25016833232893
 21
30.92344370433286
 31
0.0
 12
48.10016833232893
 22
31.82344370433285
 32
0.0
 13
48.10016833232893
 23
31.82344370433285
 33
0.0
  0
SOLID
  5
CB3
330
79A
100
AcDbEntity
  8
DIM
 62
     0
100
AcDbTrace
 10
47.95016833232892
 20
13.65844370433286
 30
0.0
 11
48.25016833232893
 21
13.65844370433286
 31
0.0
 12
48.10016833232893
 22
12.75844370433286
 32
0.0
 13
48.10016833232893
 23
12.75844370433286
 33
0.0
  0
MTEXT
  5
CB4
330
79A
100
AcDbEntity
  8
DIM
 62
     0
100
AcDbMText
 10
48.10016833232893
 20
22.29094370433286
 30
0.0
 40
0.625
 41
0.0
 71
     5
 72
     1
  1
\A1;N
  7
TXT
 73
     1
 44
1.0
  0
POINT
  5
CB5
330
79A
100
AcDbEntity
  8
DEFPOINTS
 62
     0
100
AcDbPoint
 10
49.75867616315417
 20
31.82344370433285
 30
0.0
  0
POINT
  5
CB6
330
79A
100
AcDbEntity
  8
DEFPOINTS
 62
     0
100
AcDbPoint
 10
49.75867616315419
 20
12.75844370433286
 30
0.0
  0
POINT
  5
CB7
330
79A
100
AcDbEntity
  8
DEFPOINTS
 62
     0
100
AcDbPoint
 10
48.10016833232893
 20
12.75844370433286
 30
0.0
  0
ENDBLK
  5
7A6
330
79A
100
AcDbEntity
  8
0
100
AcDbBlockEnd
  0
BLOCK
  5
7B2
330
7A7
100
AcDbEntity
  8
0
100
AcDbBlockBegin
  2
*D12
 70
     1
 10
0.0
 20
0.0
 30
0.0
  3
*D12
  1

  0
LINE
  5
C18
330
7A7
100
AcDbEntity
  8
DIM
 62
     0
370
    -2
100
AcDbLine
 10
29.89910617448991
 20
34.75346478284154
 30
0.0
 11
29.89910617448991
 21
33.25579814523145
 31
0.0
  0
LINE
  5
C19
330
7A7
100
AcDbEntity
  8
DIM
 62
     0
370
    -2
100
AcDbLine
 10
45.01910617448992
 20
34.75346478284154
 30
0.0
 11
45.01910617448992
 21
33.25579814523145
 31
0.0
  0
LINE
  5
C1A
330
7A7
100
AcDbEntity
  8
DIM
 62
     0
370
    -2
100
AcDbLine
 10
30.79910617448991
 20
33.72079814523145
 30
0.0
 11
36.85285617448991
 21
33.72079814523145
 31
0.0
  0
LINE
  5
C1B
330
7A7
100
AcDbEntity
  8
DIM
 62
     0
370
    -2
100
AcDbLine
 10
44.11910617448992
 20
33.72079814523145
 30
0.0
 11
38.06535617448992
 21
33.72079814523145
 31
0.0
  0
SOLID
  5
C1C
330
7A7
100
AcDbEntity
  8
DIM
 62
     0
100
AcDbTrace
 10
30.79910617448991
 20
33.87079814523145
 30
0.0
 11
30.79910617448991
 21
33.57079814523145
 31
0.0
 12
29.89910617448991
 22
33.72079814523145
 32
0.0
 13
29.89910617448991
 23
33.72079814523145
 33
0.0
  0
SOLID
  5
C1D
330
7A7
100
AcDbEntity
  8
DIM
 62
     0
100
AcDbTrace
 10
44.11910617448992
 20
33.87079814523145
 30
0.0
 11
44.11910617448992
 21
33.57079814523145
 31
0.0
 12
45.01910617448992
 22
33.72079814523145
 32
0.0
 13
45.01910617448992
 23
33.72079814523145
 33
0.0
  0
MTEXT
  5
C1E
330
7A7
100
AcDbEntity
  8
DIM
 62
     0
100
AcDbMText
 10
37.45910617448991
 20
33.72079814523145
 30
0.0
 40
0.625
 41
0.0
 71
     5
 72
     1
  1
\A1;R
  7
TXT
 73
     1
 44
1.0
  0
POINT
  5
C1F
330
7A7
100
AcDbEntity
  8
DEFPOINTS
 62
     0
100
AcDbPoint
 10
29.89910617448991
 20
35.06846478284154
 30
0.0
  0
POINT
  5
C20
330
7A7
100
AcDbEntity
  8
DEFPOINTS
 62
     0
100
AcDbPoint
 10
45.01910617448992
 20
35.06846478284154
 30
0.0
  0
POINT
  5
C21
330
7A7
100
AcDbEntity
  8
DEFPOINTS
 62
     0
100
AcDbPoint
 10
45.01910617448992
 20
33.72079814523145
 30
0.0
  0
ENDBLK
  5
7B3
330
7A7
100
AcDbEntity
  8
0
100
AcDbBlockEnd
  0
BLOCK
  5
7BF
330
7B4
100
AcDbEntity
  8
0
100
AcDbBlockBegin
  2
*D13
 70
     1
 10
0.0
 20
0.0
 30
0.0
  3
*D13
  1

  0
LINE
  5
CEA
330
7B4
100
AcDbEntity
  8
DIM
 62
     0
370
    -2
100
AcDbLine
 10
29.97660617448991
 20
43.03097053089072
 30
0.0
 11
29.97660617448991
 21
44.15147719121669
 31
0.0
  0
LINE
  5
CEB
330
7B4
100
AcDbEntity
  8
DIM
 62
     0
370
    -2
100
AcDbLine
 10
44.94160617448992
 20
43.03097053089072
 30
0.0
 11
44.94160617448992
 21
44.15147719121669
 31
0.0
  0
LINE
  5
CEC
330
7B4
100
AcDbEntity
  8
DIM
 62
     0
370
    -2
100
AcDbLine
 10
30.87660617448991
 20
43.68647719121668
 30
0.0
 11
36.85285617448991
 21
43.68647719121668
 31
0.0
  0
LINE
  5
CED
330
7B4
100
AcDbEntity
  8
DIM
 62
     0
370
    -2
100
AcDbLine
 10
44.04160617448992
 20
43.68647719121668
 30
0.0
 11
38.06535617448992
 21
43.68647719121668
 31
0.0
  0
SOLID
  5
CEE
330
7B4
100
AcDbEntity
  8
DIM
 62
     0
100
AcDbTrace
 10
30.87660617448991
 20
43.83647719121667
 30
0.0
 11
30.87660617448991
 21
43.53647719121668
 31
0.0
 12
29.97660617448991
 22
43.68647719121668
 32
0.0
 13
29.97660617448991
 23
43.68647719121668
 33
0.0
  0
SOLID
  5
CEF
330
7B4
100
AcDbEntity
  8
DIM
 62
     0
100
AcDbTrace
 10
44.04160617448992
 20
43.83647719121667
 30
0.0
 11
44.04160617448992
 21
43.53647719121668
 31
0.0
 12
44.94160617448992
 22
43.68647719121668
 32
0.0
 13
44.94160617448992
 23
43.68647719121668
 33
0.0
  0
MTEXT
  5
CF0
330
7B4
100
AcDbEntity
  8
DIM
 62
     0
100
AcDbMText
 10
37.45910617448991
 20
43.68647719121668
 30
0.0
 40
0.625
 41
0.0
 71
     5
 72
     1
  1
\A1;S
  7
TXT
 73
     1
 44
1.0
  0
POINT
  5
CF1
330
7B4
100
AcDbEntity
  8
DEFPOINTS
 62
     0
100
AcDbPoint
 10
29.97660617448991
 20
42.71597053089073
 30
0.0
  0
POINT
  5
CF2
330
7B4
100
AcDbEntity
  8
DEFPOINTS
 62
     0
100
AcDbPoint
 10
44.94160617448992
 20
42.71597053089073
 30
0.0
  0
POINT
  5
CF3
330
7B4
100
AcDbEntity
  8
DEFPOINTS
 62
     0
100
AcDbPoint
 10
44.94160617448992
 20
43.68647719121668
 30
0.0
  0
ENDBLK
  5
7C0
330
7B4
100
AcDbEntity
  8
0
100
AcDbBlockEnd
  0
BLOCK
  5
7CC
330
7C1
100
AcDbEntity
  8
0
100
AcDbBlockBegin
  2
*D14
 70
     1
 10
0.0
 20
0.0
 30
0.0
  3
*D14
  1

  0
LINE
  5
CCC
330
7C1
100
AcDbEntity
  8
DIM
 62
     0
370
    -2
100
AcDbLine
 10
50.71828426620349
 20
32.44694370433286
 30
0.0
 11
50.71828426620349
 21
35.11594660191545
 31
0.0
  0
LINE
  5
CCD
330
7C1
100
AcDbEntity
  8
DIM
 62
     0
370
    -2
100
AcDbLine
 10
57.40592988770353
 20
31.79421529183291
 30
0.0
 11
57.40592988770353
 21
35.11594660191545
 31
0.0
  0
LINE
  5
CCE
330
7C1
100
AcDbEntity
  8
DIM
 62
     0
370
    -2
100
AcDbLine
 10
51.61828426620349
 20
34.65094660191545
 30
0.0
 11
53.45585707695351
 21
34.65094660191545
 31
0.0
  0
LINE
  5
CCF
330
7C1
100
AcDbEntity
  8
DIM
 62
     0
370
    -2
100
AcDbLine
 10
56.50592988770354
 20
34.65094660191545
 30
0.0
 11
54.66835707695352
 21
34.65094660191545
 31
0.0
  0
SOLID
  5
CD0
330
7C1
100
AcDbEntity
  8
DIM
 62
     0
100
AcDbTrace
 10
51.61828426620349
 20
34.80094660191545
 30
0.0
 11
51.61828426620349
 21
34.50094660191545
 31
0.0
 12
50.71828426620349
 22
34.65094660191545
 32
0.0
 13
50.71828426620349
 23
34.65094660191545
 33
0.0
  0
SOLID
  5
CD1
330
7C1
100
AcDbEntity
  8
DIM
 62
     0
100
AcDbTrace
 10
56.50592988770354
 20
34.80094660191545
 30
0.0
 11
56.50592988770354
 21
34.50094660191545
 31
0.0
 12
57.40592988770353
 22
34.65094660191545
 32
0.0
 13
57.40592988770353
 23
34.65094660191545
 33
0.0
  0
MTEXT
  5
CD2
330
7C1
100
AcDbEntity
  8
DIM
 62
     0
100
AcDbMText
 10
54.06210707695351
 20
34.65094660191545
 30
0.0
 40
0.625
 41
0.0
 71
     5
 72
     1
  1
\A1;L
  7
TXT
 73
     1
 44
1.0
  0
POINT
  5
CD3
330
7C1
100
AcDbEntity
  8
DEFPOINTS
 62
     0
100
AcDbPoint
 10
50.71828426620349
 20
32.13194370433287
 30
0.0
  0
POINT
  5
CD4
330
7C1
100
AcDbEntity
  8
DEFPOINTS
 62
     0
100
AcDbPoint
 10
57.40592988770353
 20
31.47921529183291
 30
0.0
  0
POINT
  5
CD5
330
7C1
100
AcDbEntity
  8
DEFPOINTS
 62
     0
100
AcDbPoint
 10
57.40592988770353
 20
34.65094660191545
 30
0.0
  0
ENDBLK
  5
7CD
330
7C1
100
AcDbEntity
  8
0
100
AcDbBlockEnd
  0
BLOCK
  5
7D9
330
7CE
100
AcDbEntity
  8
0
100
AcDbBlockBegin
  2
*D15
 70
     1
 10
0.0
 20
0.0
 30
0.0
  3
*D15
  1

  0
LINE
  5
CE0
330
7CE
100
AcDbEntity
  8
DIM
 62
     0
370
    -2
100
AcDbLine
 10
57.40592988770353
 20
31.79421529183291
 30
0.0
 11
57.40592988770353
 21
33.81528193242512
 31
0.0
  0
LINE
  5
CE1
330
7CE
100
AcDbEntity
  8
DIM
 62
     0
370
    -2
100
AcDbLine
 10
57.32592988770353
 20
32.05844370433286
 30
0.0
 11
57.32592988770353
 21
33.81528193242512
 31
0.0
  0
LINE
  5
CE2
330
7CE
100
AcDbEntity
  8
DIM
 62
     0
370
    -2
100
AcDbLine
 10
58.30592988770353
 20
33.35028193242512
 30
0.0
 11
59.20592988770353
 21
33.35028193242512
 31
0.0
  0
LINE
  5
CE3
330
7CE
100
AcDbEntity
  8
DIM
 62
     0
370
    -2
100
AcDbLine
 10
56.42592988770354
 20
33.35028193242512
 30
0.0
 11
55.52592988770354
 21
33.35028193242512
 31
0.0
  0
SOLID
  5
CE4
330
7CE
100
AcDbEntity
  8
DIM
 62
     0
100
AcDbTrace
 10
58.30592988770353
 20
33.50028193242511
 30
0.0
 11
58.30592988770353
 21
33.20028193242512
 31
0.0
 12
57.40592988770353
 22
33.35028193242512
 32
0.0
 13
57.40592988770353
 23
33.35028193242512
 33
0.0
  0
SOLID
  5
CE5
330
7CE
100
AcDbEntity
  8
DIM
 62
     0
100
AcDbTrace
 10
56.42592988770354
 20
33.50028193242511
 30
0.0
 11
56.42592988770354
 21
33.20028193242512
 31
0.0
 12
57.32592988770353
 22
33.35028193242512
 32
0.0
 13
57.32592988770353
 23
33.35028193242512
 33
0.0
  0
MTEXT
  5
CE6
330
7CE
100
AcDbEntity
  8
DIM
 62
     0
100
AcDbMText
 10
53.47436738770354
 20
33.35028193242512
 30
0.0
 40
0.625
 41
0.0
 71
     5
 72
     1
  1
\A1;0.080 [2]
  7
TXT
 73
     1
 44
1.0
  0
POINT
  5
CE7
330
7CE
100
AcDbEntity
  8
DEFPOINTS
 62
     0
100
AcDbPoint
 10
57.40592988770353
 20
31.47921529183291
 30
0.0
  0
POINT
  5
CE8
330
7CE
100
AcDbEntity
  8
DEFPOINTS
 62
     0
100
AcDbPoint
 10
57.32592988770353
 20
31.74344370433285
 30
0.0
  0
POINT
  5
CE9
330
7CE
100
AcDbEntity
  8
DEFPOINTS
 62
     0
100
AcDbPoint
 10
57.32592988770353
 20
33.35028193242512
 30
0.0
  0
ENDBLK
  5
7DA
330
7CE
100
AcDbEntity
  8
0
100
AcDbBlockEnd
  0
BLOCK
  5
7E6
330
7DB
100
AcDbEntity
  8
0
100
AcDbBlockBegin
  2
*D16
 70
     1
 10
0.0
 20
0.0
 30
0.0
  3
*D16
  1

  0
LINE
  5
CB8
330
7DB
100
AcDbEntity
  8
DIM
 62
     0
370
    -2
100
AcDbLine
 10
56.79092988770356
 20
16.74135004733684
 30
0.0
 11
56.79092988770356
 21
15.10235169856042
 31
0.0
  0
LINE
  5
CB9
330
7DB
100
AcDbEntity
  8
DIM
 62
     0
370
    -2
100
AcDbLine
 10
57.18692988770354
 20
16.69333117124962
 30
0.0
 11
57.18692988770354
 21
15.10235169856042
 31
0.0
  0
LINE
  5
CBA
330
7DB
100
AcDbEntity
  8
DIM
 62
     0
370
    -2
100
AcDbLine
 10
55.89092988770356
 20
15.56735169856042
 30
0.0
 11
54.99092988770356
 21
15.56735169856042
 31
0.0
  0
LINE
  5
CBB
330
7DB
100
AcDbEntity
  8
DIM
 62
     0
370
    -2
100
AcDbLine
 10
58.08692988770354
 20
15.56735169856042
 30
0.0
 11
58.98692988770354
 21
15.56735169856042
 31
0.0
  0
SOLID
  5
CBC
330
7DB
100
AcDbEntity
  8
DIM
 62
     0
100
AcDbTrace
 10
55.89092988770356
 20
15.71735169856042
 30
0.0
 11
55.89092988770356
 21
15.41735169856042
 31
0.0
 12
56.79092988770356
 22
15.56735169856042
 32
0.0
 13
56.79092988770356
 23
15.56735169856042
 33
0.0
  0
SOLID
  5
CBD
330
7DB
100
AcDbEntity
  8
DIM
 62
     0
100
AcDbTrace
 10
58.08692988770354
 20
15.71735169856042
 30
0.0
 11
58.08692988770354
 21
15.41735169856042
 31
0.0
 12
57.18692988770354
 22
15.56735169856042
 32
0.0
 13
57.18692988770354
 23
15.56735169856042
 33
0.0
  0
MTEXT
  5
CBE
330
7DB
100
AcDbEntity
  8
DIM
 62
     0
100
AcDbMText
 10
63.03067988770354
 20
15.56735169856042
 30
0.0
 40
0.625
 41
0.0
 71
     5
 72
     1
  1
\A1;0.396 [10] (INSIDE)
  7
TXT
 73
     1
 44
1.0
  0
POINT
  5
CBF
330
7DB
100
AcDbEntity
  8
DEFPOINTS
 62
     0
100
AcDbPoint
 10
56.79092988770356
 20
17.05635004733685
 30
0.0
  0
POINT
  5
CC0
330
7DB
100
AcDbEntity
  8
DEFPOINTS
 62
     0
100
AcDbPoint
 10
57.18692988770354
 20
17.00833117124962
 30
0.0
  0
POINT
  5
CC1
330
7DB
100
AcDbEntity
  8
DEFPOINTS
 62
     0
100
AcDbPoint
 10
57.18692988770354
 20
15.56735169856042
 30
0.0
  0
ENDBLK
  5
7E7
330
7DB
100
AcDbEntity
  8
0
100
AcDbBlockEnd
  0
BLOCK
  5
7F3
330
7E8
100
AcDbEntity
  8
0
100
AcDbBlockBegin
  2
*D17
 70
     1
 10
0.0
 20
0.0
 30
0.0
  3
*D17
  1

  0
LINE
  5
CC2
330
7E8
100
AcDbEntity
  8
DIM
 62
     0
370
    -2
100
AcDbLine
 10
57.18692988770354
 20
18.83682847584863
 30
0.0
 11
57.18692988770354
 21
19.30182847584863
 31
0.0
  0
LINE
  5
CC3
330
7E8
100
AcDbEntity
  8
DIM
 62
     0
370
    -2
100
AcDbLine
 10
57.32592988770353
 20
18.83682847584863
 30
0.0
 11
57.32592988770353
 21
19.30182847584863
 31
0.0
  0
LINE
  5
CC4
330
7E8
100
AcDbEntity
  8
DIM
 62
     0
370
    -2
100
AcDbLine
 10
56.28692988770354
 20
18.83682847584863
 30
0.0
 11
55.38692988770354
 21
18.83682847584863
 31
0.0
  0
LINE
  5
CC5
330
7E8
100
AcDbEntity
  8
DIM
 62
     0
370
    -2
100
AcDbLine
 10
58.22592988770353
 20
18.83682847584863
 30
0.0
 11
59.12592988770353
 21
18.83682847584863
 31
0.0
  0
SOLID
  5
CC6
330
7E8
100
AcDbEntity
  8
DIM
 62
     0
100
AcDbTrace
 10
56.28692988770354
 20
18.98682847584862
 30
0.0
 11
56.28692988770354
 21
18.68682847584863
 31
0.0
 12
57.18692988770354
 22
18.83682847584863
 32
0.0
 13
57.18692988770354
 23
18.83682847584863
 33
0.0
  0
SOLID
  5
CC7
330
7E8
100
AcDbEntity
  8
DIM
 62
     0
100
AcDbTrace
 10
58.22592988770353
 20
18.98682847584862
 30
0.0
 11
58.22592988770353
 21
18.68682847584863
 31
0.0
 12
57.32592988770353
 22
18.83682847584863
 32
0.0
 13
57.32592988770353
 23
18.83682847584863
 33
0.0
  0
MTEXT
  5
CC8
330
7E8
100
AcDbEntity
  8
DIM
 62
     0
100
AcDbMText
 10
61.17749238770354
 20
18.83682847584863
 30
0.0
 40
0.625
 41
0.0
 71
     5
 72
     1
  1
\A1;0.139 [4]
  7
TXT
 73
     1
 44
1.0
  0
POINT
  5
CC9
330
7E8
100
AcDbEntity
  8
DEFPOINTS
 62
     0
100
AcDbPoint
 10
57.18692988770354
 20
18.52182847584862
 30
0.0
  0
POINT
  5
CCA
330
7E8
100
AcDbEntity
  8
DEFPOINTS
 62
     0
100
AcDbPoint
 10
57.32592988770353
 20
18.52182847584862
 30
0.0
  0
POINT
  5
CCB
330
7E8
100
AcDbEntity
  8
DEFPOINTS
 62
     0
100
AcDbPoint
 10
57.32592988770353
 20
18.83682847584863
 30
0.0
  0
ENDBLK
  5
7F4
330
7E8
100
AcDbEntity
  8
0
100
AcDbBlockEnd
  0
BLOCK
  5
800
330
7F5
100
AcDbEntity
  8
0
100
AcDbBlockBegin
  2
*D18
 70
     1
 10
0.0
 20
0.0
 30
0.0
  3
*D18
  1

  0
LINE
  5
C5E
330
7F5
100
AcDbEntity
  8
DIM
 62
     0
370
    -2
100
AcDbLine
 10
22.33165604931231
 20
13.86944370433291
 30
0.0
 11
26.45035823412353
 21
13.86944370433291
 31
0.0
  0
LINE
  5
C5F
330
7F5
100
AcDbEntity
  8
DIM
 62
     0
370
    -2
100
AcDbLine
 10
22.33165604931231
 20
20.6034437043328
 30
0.0
 11
26.45035823412353
 21
20.6034437043328
 31
0.0
  0
LINE
  5
C60
330
7F5
100
AcDbEntity
  8
DIM
 62
     0
370
    -2
100
AcDbLine
 10
25.98535823412353
 20
14.76944370433292
 30
0.0
 11
25.98535823412353
 21
16.47394370433286
 31
0.0
  0
LINE
  5
C61
330
7F5
100
AcDbEntity
  8
DIM
 62
     0
370
    -2
100
AcDbLine
 10
25.98535823412353
 20
19.7034437043328
 30
0.0
 11
25.98535823412353
 21
17.99894370433285
 31
0.0
  0
SOLID
  5
C62
330
7F5
100
AcDbEntity
  8
DIM
 62
     0
100
AcDbTrace
 10
25.83535823412354
 20
14.76944370433292
 30
0.0
 11
26.13535823412354
 21
14.76944370433292
 31
0.0
 12
25.98535823412353
 22
13.86944370433291
 32
0.0
 13
25.98535823412353
 23
13.86944370433291
 33
0.0
  0
SOLID
  5
C63
330
7F5
100
AcDbEntity
  8
DIM
 62
     0
100
AcDbTrace
 10
25.83535823412354
 20
19.7034437043328
 30
0.0
 11
26.13535823412354
 21
19.7034437043328
 31
0.0
 12
25.98535823412353
 22
20.6034437043328
 32
0.0
 13
25.98535823412353
 23
20.6034437043328
 33
0.0
  0
MTEXT
  5
C64
330
7F5
100
AcDbEntity
  8
DIM
 62
     0
100
AcDbMText
 10
25.98535823412353
 20
17.23644370433286
 30
0.0
 40
0.625
 41
0.0
 71
     5
 72
     1
  1
\A1;J
  7
TXT
 73
     1
 44
1.0
  0
POINT
  5
C65
330
7F5
100
AcDbEntity
  8
DEFPOINTS
 62
     0
100
AcDbPoint
 10
22.01665604931231
 20
13.86944370433291
 30
0.0
  0
POINT
  5
C66
330
7F5
100
AcDbEntity
  8
DEFPOINTS
 62
     0
100
AcDbPoint
 10
22.01665604931231
 20
20.6034437043328
 30
0.0
  0
POINT
  5
C67
330
7F5
100
AcDbEntity
  8
DEFPOINTS
 62
     0
100
AcDbPoint
 10
25.98535823412353
 20
20.6034437043328
 30
0.0
  0
ENDBLK
  5
801
330
7F5
100
AcDbEntity
  8
0
100
AcDbBlockEnd
  0
BLOCK
  5
80D
330
802
100
AcDbEntity
  8
0
100
AcDbBlockBegin
  2
*D19
 70
     1
 10
0.0
 20
0.0
 30
0.0
  3
*D19
  1

  0
LINE
  5
C68
330
802
100
AcDbEntity
  8
DIM
 62
     0
370
    -2
100
AcDbLine
 10
22.33165604931231
 20
13.86944370433291
 30
0.0
 11
25.12896898839358
 21
13.86944370433291
 31
0.0
  0
LINE
  5
C69
330
802
100
AcDbEntity
  8
DIM
 62
     0
370
    -2
100
AcDbLine
 10
22.33165604931231
 20
17.2444437043328
 30
0.0
 11
25.12896898839358
 21
17.2444437043328
 31
0.0
  0
LINE
  5
C6A
330
802
100
AcDbEntity
  8
DIM
 62
     0
370
    -2
100
AcDbLine
 10
24.66396898839358
 20
12.96944370433291
 30
0.0
 11
24.66396898839358
 21
12.06944370433292
 31
0.0
  0
LINE
  5
C6B
330
802
100
AcDbEntity
  8
DIM
 62
     0
370
    -2
100
AcDbLine
 10
24.66396898839358
 20
18.1444437043328
 30
0.0
 11
24.66396898839358
 21
19.0444437043328
 31
0.0
  0
SOLID
  5
C6C
330
802
100
AcDbEntity
  8
DIM
 62
     0
100
AcDbTrace
 10
24.51396898839357
 20
12.96944370433291
 30
0.0
 11
24.81396898839357
 21
12.96944370433291
 31
0.0
 12
24.66396898839358
 22
13.86944370433291
 32
0.0
 13
24.66396898839358
 23
13.86944370433291
 33
0.0
  0
SOLID
  5
C6D
330
802
100
AcDbEntity
  8
DIM
 62
     0
100
AcDbTrace
 10
24.51396898839357
 20
18.1444437043328
 30
0.0
 11
24.81396898839357
 21
18.1444437043328
 31
0.0
 12
24.66396898839358
 22
17.2444437043328
 32
0.0
 13
24.66396898839358
 23
17.2444437043328
 33
0.0
  0
MTEXT
  5
C6E
330
802
100
AcDbEntity
  8
DIM
 62
     0
100
AcDbMText
 10
24.66396898839357
 20
15.55694370433286
 30
0.0
 40
0.625
 41
0.0
 71
     5
 72
     1
  1
\A1;H
  7
TXT
 73
     1
 44
1.0
  0
POINT
  5
C6F
330
802
100
AcDbEntity
  8
DEFPOINTS
 62
     0
100
AcDbPoint
 10
22.01665604931231
 20
13.86944370433291
 30
0.0
  0
POINT
  5
C70
330
802
100
AcDbEntity
  8
DEFPOINTS
 62
     0
100
AcDbPoint
 10
22.01665604931231
 20
17.2444437043328
 30
0.0
  0
POINT
  5
C71
330
802
100
AcDbEntity
  8
DEFPOINTS
 62
     0
100
AcDbPoint
 10
24.66396898839358
 20
17.2444437043328
 30
0.0
  0
ENDBLK
  5
80E
330
802
100
AcDbEntity
  8
0
100
AcDbBlockEnd
  0
BLOCK
  5
81A
330
80F
100
AcDbEntity
  8
0
100
AcDbBlockBegin
  2
*D20
 70
     1
 10
0.0
 20
0.0
 30
0.0
  3
*D20
  1

  0
LINE
  5
C9A
330
80F
100
AcDbEntity
  8
DIM
 62
     0
370
    -2
100
AcDbLine
 10
22.33165604931231
 20
30.71244370433287
 30
0.0
 11
25.12896898839358
 21
30.71244370433287
 31
0.0
  0
LINE
  5
C9B
330
80F
100
AcDbEntity
  8
DIM
 62
     0
370
    -2
100
AcDbLine
 10
22.33165604931231
 20
27.33744370433287
 30
0.0
 11
25.12896898839358
 21
27.33744370433286
 31
0.0
  0
LINE
  5
C9C
330
80F
100
AcDbEntity
  8
DIM
 62
     0
370
    -2
100
AcDbLine
 10
24.66396898839358
 20
31.61244370433287
 30
0.0
 11
24.66396898839358
 21
32.51244370433286
 31
0.0
  0
LINE
  5
C9D
330
80F
100
AcDbEntity
  8
DIM
 62
     0
370
    -2
100
AcDbLine
 10
24.66396898839358
 20
26.43744370433287
 30
0.0
 11
24.66396898839358
 21
25.53744370433286
 31
0.0
  0
SOLID
  5
C9E
330
80F
100
AcDbEntity
  8
DIM
 62
     0
100
AcDbTrace
 10
24.51396898839357
 20
31.61244370433287
 30
0.0
 11
24.81396898839357
 21
31.61244370433287
 31
0.0
 12
24.66396898839358
 22
30.71244370433287
 32
0.0
 13
24.66396898839358
 23
30.71244370433287
 33
0.0
  0
SOLID
  5
C9F
330
80F
100
AcDbEntity
  8
DIM
 62
     0
100
AcDbTrace
 10
24.51396898839357
 20
26.43744370433287
 30
0.0
 11
24.81396898839357
 21
26.43744370433287
 31
0.0
 12
24.66396898839358
 22
27.33744370433286
 32
0.0
 13
24.66396898839358
 23
27.33744370433286
 33
0.0
  0
MTEXT
  5
CA0
330
80F
100
AcDbEntity
  8
DIM
 62
     0
100
AcDbMText
 10
24.66396898839357
 20
29.02494370433288
 30
0.0
 40
0.625
 41
0.0
 71
     5
 72
     1
  1
\A1;H
  7
TXT
 73
     1
 44
1.0
  0
POINT
  5
CA1
330
80F
100
AcDbEntity
  8
DEFPOINTS
 62
     0
100
AcDbPoint
 10
22.01665604931231
 20
30.71244370433287
 30
0.0
  0
POINT
  5
CA2
330
80F
100
AcDbEntity
  8
DEFPOINTS
 62
     0
100
AcDbPoint
 10
22.01665604931231
 20
27.33744370433287
 30
0.0
  0
POINT
  5
CA3
330
80F
100
AcDbEntity
  8
DEFPOINTS
 62
     0
100
AcDbPoint
 10
24.66396898839358
 20
27.33744370433286
 30
0.0
  0
ENDBLK
  5
81B
330
80F
100
AcDbEntity
  8
0
100
AcDbBlockEnd
  0
BLOCK
  5
827
330
81C
100
AcDbEntity
  8
0
100
AcDbBlockBegin
  2
*D21
 70
     1
 10
0.0
 20
0.0
 30
0.0
  3
*D21
  1

  0
LINE
  5
C22
330
81C
100
AcDbEntity
  8
DIM
 62
     0
370
    -2
100
AcDbLine
 10
22.33165604931231
 20
30.71244370433287
 30
0.0
 11
26.45035823412354
 21
30.71244370433287
 31
0.0
  0
LINE
  5
C23
330
81C
100
AcDbEntity
  8
DIM
 62
     0
370
    -2
100
AcDbLine
 10
22.33165604931231
 20
23.97844370433287
 30
0.0
 11
26.45035823412353
 21
23.97844370433287
 31
0.0
  0
LINE
  5
C24
330
81C
100
AcDbEntity
  8
DIM
 62
     0
370
    -2
100
AcDbLine
 10
25.98535823412354
 20
29.81244370433287
 30
0.0
 11
25.98535823412354
 21
28.10794370433287
 31
0.0
  0
LINE
  5
C25
330
81C
100
AcDbEntity
  8
DIM
 62
     0
370
    -2
100
AcDbLine
 10
25.98535823412354
 20
24.87844370433287
 30
0.0
 11
25.98535823412354
 21
26.58294370433287
 31
0.0
  0
SOLID
  5
C26
330
81C
100
AcDbEntity
  8
DIM
 62
     0
100
AcDbTrace
 10
25.83535823412354
 20
29.81244370433287
 30
0.0
 11
26.13535823412354
 21
29.81244370433287
 31
0.0
 12
25.98535823412354
 22
30.71244370433287
 32
0.0
 13
25.98535823412354
 23
30.71244370433287
 33
0.0
  0
SOLID
  5
C27
330
81C
100
AcDbEntity
  8
DIM
 62
     0
100
AcDbTrace
 10
25.83535823412354
 20
24.87844370433287
 30
0.0
 11
26.13535823412354
 21
24.87844370433287
 31
0.0
 12
25.98535823412353
 22
23.97844370433287
 32
0.0
 13
25.98535823412353
 23
23.97844370433287
 33
0.0
  0
MTEXT
  5
C28
330
81C
100
AcDbEntity
  8
DIM
 62
     0
100
AcDbMText
 10
25.98535823412353
 20
27.34544370433288
 30
0.0
 40
0.625
 41
0.0
 71
     5
 72
     1
  1
\A1;J
  7
TXT
 73
     1
 44
1.0
  0
POINT
  5
C29
330
81C
100
AcDbEntity
  8
DEFPOINTS
 62
     0
100
AcDbPoint
 10
22.01665604931231
 20
30.71244370433287
 30
0.0
  0
POINT
  5
C2A
330
81C
100
AcDbEntity
  8
DEFPOINTS
 62
     0
100
AcDbPoint
 10
22.01665604931231
 20
23.97844370433287
 30
0.0
  0
POINT
  5
C2B
330
81C
100
AcDbEntity
  8
DEFPOINTS
 62
     0
100
AcDbPoint
 10
25.98535823412353
 20
23.97844370433287
 30
0.0
  0
ENDBLK
  5
828
330
81C
100
AcDbEntity
  8
0
100
AcDbBlockEnd
  0
BLOCK
  5
834
330
829
100
AcDbEntity
  8
0
100
AcDbBlockBegin
  2
*D22
 70
     1
 10
0.0
 20
0.0
 30
0.0
  3
*D22
  1

  0
LINE
  5
CD6
330
829
100
AcDbEntity
  8
DIM
 62
     0
370
    -2
100
AcDbLine
 10
50.71828426620349
 20
32.44694370433292
 30
0.0
 11
50.71828426620349
 21
35.11594660191545
 31
0.0
  0
LINE
  5
CD7
330
829
100
AcDbEntity
  8
DIM
 62
     0
370
    -2
100
AcDbLine
 10
49.53318191120348
 20
31.9024668852502
 30
0.0
 11
49.53318191120348
 21
35.11594660191545
 31
0.0
  0
LINE
  5
CD8
330
829
100
AcDbEntity
  8
DIM
 62
     0
370
    -2
100
AcDbLine
 10
51.61828426620349
 20
34.65094660191545
 30
0.0
 11
52.51828426620349
 21
34.65094660191545
 31
0.0
  0
LINE
  5
CD9
330
829
100
AcDbEntity
  8
DIM
 62
     0
370
    -2
100
AcDbLine
 10
48.63318191120348
 20
34.65094660191545
 30
0.0
 11
47.73318191120348
 21
34.65094660191545
 31
0.0
  0
SOLID
  5
CDA
330
829
100
AcDbEntity
  8
DIM
 62
     0
100
AcDbTrace
 10
51.61828426620349
 20
34.80094660191545
 30
0.0
 11
51.61828426620349
 21
34.50094660191545
 31
0.0
 12
50.71828426620349
 22
34.65094660191545
 32
0.0
 13
50.71828426620349
 23
34.65094660191545
 33
0.0
  0
SOLID
  5
CDB
330
829
100
AcDbEntity
  8
DIM
 62
     0
100
AcDbTrace
 10
48.63318191120348
 20
34.80094660191545
 30
0.0
 11
48.63318191120348
 21
34.50094660191545
 31
0.0
 12
49.53318191120348
 22
34.65094660191545
 32
0.0
 13
49.53318191120348
 23
34.65094660191545
 33
0.0
  0
MTEXT
  5
CDC
330
829
100
AcDbEntity
  8
DIM
 62
     0
100
AcDbMText
 10
47.12693191120347
 20
34.65094660191545
 30
0.0
 40
0.625
 41
0.0
 71
     5
 72
     1
  1
\A1;M
  7
TXT
 73
     1
 44
1.0
  0
POINT
  5
CDD
330
829
100
AcDbEntity
  8
DEFPOINTS
 62
     0
100
AcDbPoint
 10
50.71828426620349
 20
32.13194370433292
 30
0.0
  0
POINT
  5
CDE
330
829
100
AcDbEntity
  8
DEFPOINTS
 62
     0
100
AcDbPoint
 10
49.53318191120348
 20
31.5874668852502
 30
0.0
  0
POINT
  5
CDF
330
829
100
AcDbEntity
  8
DEFPOINTS
 62
     0
100
AcDbPoint
 10
49.53318191120348
 20
34.65094660191545
 30
0.0
  0
ENDBLK
  5
835
330
829
100
AcDbEntity
  8
0
100
AcDbBlockEnd
  0
BLOCK
  5
841
330
836
100
AcDbEntity
  8
0
100
AcDbBlockBegin
  2
*D23
 70
     1
 10
0.0
 20
0.0
 30
0.0
  3
*D23
  1

  0
LINE
  5
C4A
330
836
100
AcDbEntity
  8
DIM
 62
     0
370
    -2
100
AcDbLine
 10
22.33165604931231
 20
20.60344370433285
 30
0.0
 11
26.45035823412353
 21
20.60344370433285
 31
0.0
  0
LINE
  5
C4B
330
836
100
AcDbEntity
  8
DIM
 62
     0
370
    -2
100
AcDbLine
 10
22.33165604931231
 20
23.97844370433286
 30
0.0
 11
26.45035823412353
 21
23.97844370433285
 31
0.0
  0
LINE
  5
C4C
330
836
100
AcDbEntity
  8
DIM
 62
     0
370
    -2
100
AcDbLine
 10
25.98535823412353
 20
19.70344370433285
 30
0.0
 11
25.98535823412353
 21
18.80344370433285
 31
0.0
  0
LINE
  5
C4D
330
836
100
AcDbEntity
  8
DIM
 62
     0
370
    -2
100
AcDbLine
 10
25.98535823412354
 20
24.87844370433285
 30
0.0
 11
25.98535823412354
 21
25.77844370433286
 31
0.0
  0
SOLID
  5
C4E
330
836
100
AcDbEntity
  8
DIM
 62
     0
100
AcDbTrace
 10
25.83535823412354
 20
19.70344370433285
 30
0.0
 11
26.13535823412354
 21
19.70344370433285
 31
0.0
 12
25.98535823412353
 22
20.60344370433285
 32
0.0
 13
25.98535823412353
 23
20.60344370433285
 33
0.0
  0
SOLID
  5
C4F
330
836
100
AcDbEntity
  8
DIM
 62
     0
100
AcDbTrace
 10
25.83535823412354
 20
24.87844370433285
 30
0.0
 11
26.13535823412354
 21
24.87844370433285
 31
0.0
 12
25.98535823412353
 22
23.97844370433285
 32
0.0
 13
25.98535823412353
 23
23.97844370433285
 33
0.0
  0
MTEXT
  5
C50
330
836
100
AcDbEntity
  8
DIM
 62
     0
100
AcDbMText
 10
25.98535823412353
 20
22.29094370433286
 30
0.0
 40
0.625
 41
0.0
 71
     5
 72
     1
  1
\A1;H
  7
TXT
 73
     1
 44
1.0
  0
POINT
  5
C51
330
836
100
AcDbEntity
  8
DEFPOINTS
 62
     0
100
AcDbPoint
 10
22.01665604931231
 20
20.60344370433285
 30
0.0
  0
POINT
  5
C52
330
836
100
AcDbEntity
  8
DEFPOINTS
 62
     0
100
AcDbPoint
 10
22.01665604931231
 20
23.97844370433286
 30
0.0
  0
POINT
  5
C53
330
836
100
AcDbEntity
  8
DEFPOINTS
 62
     0
100
AcDbPoint
 10
25.98535823412353
 20
23.97844370433285
 30
0.0
  0
ENDBLK
  5
842
330
836
100
AcDbEntity
  8
0
100
AcDbBlockEnd
  0
BLOCK
  5
9F2
330
9E7
100
AcDbEntity
  8
0
100
AcDbBlockBegin
  2
*D24
 70
     1
 10
0.0
 20
0.0
 30
0.0
  3
*D24
  1

  0
LINE
  5
C54
330
9E7
100
AcDbEntity
  8
DIM
 62
     0
370
    -2
100
AcDbLine
 10
22.33165604931231
 20
30.71244370433285
 30
0.0
 11
28.07331037112939
 21
30.71244370433285
 31
0.0
  0
LINE
  5
C55
330
9E7
100
AcDbEntity
  8
DIM
 62
     0
370
    -2
100
AcDbLine
 10
22.33165604931231
 20
13.86944370433286
 30
0.0
 11
28.07331037112939
 21
13.86944370433286
 31
0.0
  0
LINE
  5
C56
330
9E7
100
AcDbEntity
  8
DIM
 62
     0
370
    -2
100
AcDbLine
 10
27.60831037112939
 20
29.81244370433286
 30
0.0
 11
27.60831037112939
 21
23.05344370433286
 31
0.0
  0
LINE
  5
C57
330
9E7
100
AcDbEntity
  8
DIM
 62
     0
370
    -2
100
AcDbLine
 10
27.60831037112939
 20
14.76944370433286
 30
0.0
 11
27.60831037112939
 21
21.52844370433286
 31
0.0
  0
SOLID
  5
C58
330
9E7
100
AcDbEntity
  8
DIM
 62
     0
100
AcDbTrace
 10
27.45831037112939
 20
29.81244370433286
 30
0.0
 11
27.75831037112939
 21
29.81244370433286
 31
0.0
 12
27.60831037112939
 22
30.71244370433285
 32
0.0
 13
27.60831037112939
 23
30.71244370433285
 33
0.0
  0
SOLID
  5
C59
330
9E7
100
AcDbEntity
  8
DIM
 62
     0
100
AcDbTrace
 10
27.45831037112939
 20
14.76944370433286
 30
0.0
 11
27.75831037112939
 21
14.76944370433286
 31
0.0
 12
27.60831037112939
 22
13.86944370433286
 32
0.0
 13
27.60831037112939
 23
13.86944370433286
 33
0.0
  0
MTEXT
  5
C5A
330
9E7
100
AcDbEntity
  8
DIM
 62
     0
100
AcDbMText
 10
27.60831037112938
 20
22.29094370433287
 30
0.0
 40
0.625
 41
0.0
 71
     5
 72
     1
  1
\A1;K
  7
TXT
 73
     1
 44
1.0
  0
POINT
  5
C5B
330
9E7
100
AcDbEntity
  8
DEFPOINTS
 62
     0
100
AcDbPoint
 10
22.01665604931231
 20
30.71244370433285
 30
0.0
  0
POINT
  5
C5C
330
9E7
100
AcDbEntity
  8
DEFPOINTS
 62
     0
100
AcDbPoint
 10
22.01665604931231
 20
13.86944370433286
 30
0.0
  0
POINT
  5
C5D
330
9E7
100
AcDbEntity
  8
DEFPOINTS
 62
     0
100
AcDbPoint
 10
27.60831037112939
 20
13.86944370433286
 30
0.0
  0
ENDBLK
  5
9F3
330
9E7
100
AcDbEntity
  8
0
100
AcDbBlockEnd
  0
ENDSEC
  0
SECTION
  2
ENTITIES
  0
LINE
  5
1F5
330
1E
100
AcDbEntity
  8
TITLE
100
AcDbLine
 10
0.3100000000000023
 20
5.535000000000025
 30
0.0
 11
77.19
 21
5.535000000000025
 31
0.0
  0
LINE
  5
1F6
330
1E
100
AcDbEntity
  8
TITLE
100
AcDbLine
 10
10.17857320146987
 20
3.444999999999993
 30
0.0
 11
77.19
 21
3.444999999999993
 31
0.0
  0
LINE
  5
1F7
330
1E
100
AcDbEntity
  8
TITLE
100
AcDbLine
 10
0.3099999999999952
 20
2.400000000000005
 30
0.0
 11
77.19
 21
2.400000000000005
 31
0.0
  0
TEXT
  5
1F8
330
1E
100
AcDbEntity
  8
TEXT
100
AcDbText
 10
10.88634374593093
 20
48.79427161905619
 30
0.0
 40
0.937
  1
NON-METALLIC ENCLOSURE (STYLE A)
 41
0.75
  7
TXT
 72
     1
 11
21.66184374593092
 21
48.79427161905619
 31
0.0
100
AcDbText
  0
LINE
  5
1F9
330
1E
100
AcDbEntity
  8
OBJECT
100
AcDbLine
 10
22.31164237226341
 20
30.7255105548895
 30
0.0
 11
23.01915604931231
 21
30.27572183015662
 31
0.0
  0
LINE
  5
1FA
330
1E
100
AcDbEntity
  8
OBJECT
100
AcDbLine
 10
22.31164237226341
 20
13.85637685377627
 30
0.0
 11
23.01915604931231
 21
14.30616557850909
 31
0.0
  0
DIMENSION
  5
1FB
330
1E
100
AcDbEntity
  8
DIM
100
AcDbDimension
  2
*D18
 10
25.98535823412353
 20
20.6034437043328
 30
0.0
 11
25.98535823412353
 21
17.23644370433286
 31
0.0
 70
    32
  1
J
 71
     5
 42
6.733999999999882
  3
23NSTD
100
AcDbAlignedDimension
 13
22.01665604931231
 23
13.86944370433291
 33
0.0
 14
22.01665604931231
 24
20.6034437043328
 34
0.0
 50
90.0
100
AcDbRotatedDimension
  0
LINE
  5
1FC
330
1E
100
AcDbEntity
  8
OBJECT
100
AcDbLine
 10
8.283191526812345
 20
12.86494370433286
 30
0.0
 11
22.86167573531226
 21
12.86494370433286
 31
0.0
  0
LINE
  5
1FD
330
1E
100
AcDbEntity
  8
OBJECT
100
AcDbLine
 10
8.283191526812345
 20
12.6466406253328
 30
0.0
 11
22.85012057181228
 21
12.6466406253328
 31
0.0
  0
LINE
  5
1FE
330
1E
100
AcDbEntity
  8
OBJECT
100
AcDbLine
 10
8.283191526812345
 20
12.72538078233289
 30
0.0
 11
22.85012057181228
 21
12.72538078233289
 31
0.0
  0
LINE
  5
1FF
330
1E
100
AcDbEntity
  8
OBJECT
100
AcDbLine
 10
8.283191526812345
 20
12.44979023283282
 30
0.0
 11
22.85012057181228
 21
12.44979023283282
 31
0.0
  0
DIMENSION
  5
200
330
1E
100
AcDbEntity
  8
DIM
100
AcDbDimension
  2
*D19
 10
24.66396898839358
 20
17.2444437043328
 30
0.0
 11
24.66396898839357
 21
15.55694370433286
 31
0.0
 70
    32
  1
H
 71
     5
 42
3.374999999999884
  3
23NSTD
100
AcDbAlignedDimension
 13
22.01665604931231
 23
13.86944370433291
 33
0.0
 14
22.01665604931231
 24
17.2444437043328
 34
0.0
 50
90.0
100
AcDbRotatedDimension
  0
LINE
  5
201
330
1E
100
AcDbEntity
  8
OBJECT
100
AcDbLine
 10
22.15561813495771
 20
14.12997625904483
 30
0.0
 11
23.01915604931231
 21
14.6687401867863
 31
0.0
  0
DIMENSION
  5
202
330
1E
100
AcDbEntity
  8
DIM
100
AcDbDimension
  2
*D3
 10
7.695656049312255
 20
36.45833893234764
 30
0.0
 11
15.56665604931228
 21
36.45833893234764
 31
0.0
 70
    32
  1
A
 71
     5
 42
15.74200000000006
  3
23NSTD
100
AcDbAlignedDimension
 13
23.43765604931231
 23
31.54154599833288
 33
0.0
 14
7.695656049312255
 24
31.54154599833288
 34
0.0
100
AcDbRotatedDimension
  0
DIMENSION
  5
203
330
1E
100
AcDbEntity
  8
DIM
100
AcDbDimension
  2
*D4
 10
8.11415604931232
 20
35.45285581341038
 30
0.0
 11
15.56665604931231
 21
35.45285581341038
 31
0.0
 70
    32
  1
B
 71
     5
 42
14.90499999999999
  3
23NSTD
100
AcDbAlignedDimension
 13
23.01915604931231
 23
31.55946339033286
 33
0.0
 14
8.11415604931232
 24
31.55946339033286
 34
0.0
100
AcDbRotatedDimension
  0
LINE
  5
204
330
1E
100
AcDbEntity
  8
OBJECT
100
AcDbLine
 10
15.72413636331231
 20
23.05866023508288
 30
0.0
 11
23.01915604931231
 21
23.05866023508288
 31
0.0
  0
LINE
  5
205
330
1E
100
AcDbEntity
  8
OBJECT
100
AcDbLine
 10
15.72413636331231
 20
21.52322717358284
 30
0.0
 11
23.01915604931231
 21
21.52322717358284
 31
0.0
  0
LINE
  5
206
330
1E
100
AcDbEntity
  8
OBJECT
100
AcDbLine
 10
8.271636363312374
 20
31.71694370433286
 30
0.0
 11
22.86167573531226
 21
31.71694370433286
 31
0.0
  0
LINE
  5
207
330
1E
100
AcDbEntity
  8
OBJECT
100
AcDbLine
 10
8.283191526812345
 20
32.13209717583289
 30
0.0
 11
22.85012057181228
 21
32.13209717583289
 31
0.0
  0
LINE
  5
208
330
1E
100
AcDbEntity
  8
OBJECT
100
AcDbLine
 10
8.283191526812345
 20
31.85650662633288
 30
0.0
 11
22.85012057181228
 21
31.85650662633288
 31
0.0
  0
LINE
  5
209
330
1E
100
AcDbEntity
  8
OBJECT
100
AcDbLine
 10
8.283191526812345
 20
31.93524678333286
 30
0.0
 11
22.85012057181228
 21
31.93524678333286
 31
0.0
  0
LINE
  5
20A
330
1E
100
AcDbEntity
  8
CENTER
100
AcDbLine
 10
7.380724608744287
 20
22.29094370433286
 30
0.0
 11
23.8912167267926
 21
22.29094370433286
 31
0.0
  0
LINE
  5
20B
330
1E
100
AcDbEntity
  8
OBJECT
100
AcDbLine
 10
22.15561813495771
 20
30.45191114962088
 30
0.0
 11
23.01915604931231
 21
29.91314722187935
 31
0.0
  0
DIMENSION
  5
20C
330
1E
100
AcDbEntity
  8
DIM
100
AcDbDimension
  2
*D20
 10
24.66396898839358
 20
27.33744370433286
 30
0.0
 11
24.66396898839357
 21
29.02494370433288
 31
0.0
 70
    32
  1
H
 71
     5
 42
3.375000000000003
  3
23NSTD
100
AcDbAlignedDimension
 13
22.01665604931231
 23
30.71244370433287
 33
0.0
 14
22.01665604931231
 24
27.33744370433287
 34
0.0
 50
90.0
100
AcDbRotatedDimension
  0
DIMENSION
  5
20D
330
1E
100
AcDbEntity
  8
DIM
100
AcDbDimension
  2
*D21
 10
25.98535823412353
 20
23.97844370433287
 30
0.0
 11
25.98535823412353
 21
27.34544370433288
 31
0.0
 70
    32
  1
J
 71
     5
 42
6.733999999999998
  3
23NSTD
100
AcDbAlignedDimension
 13
22.01665604931231
 23
30.71244370433287
 33
0.0
 14
22.01665604931231
 24
23.97844370433287
 34
0.0
 50
90.0
100
AcDbRotatedDimension
  0
DIMENSION
  5
20E
330
1E
100
AcDbEntity
  8
DIM
100
AcDbDimension
  2
*D5
 10
4.135519980371327
 20
32.13209717583289
 30
0.0
 11
4.135519980371322
 21
22.29094370433286
 31
0.0
 70
    32
  1
E
 71
     5
 42
19.68230694300007
  3
23NSTD
100
AcDbAlignedDimension
 13
8.283191526812345
 23
12.44979023283282
 33
0.0
 14
8.283191526812345
 24
32.13209717583289
 34
0.0
 50
90.0
100
AcDbRotatedDimension
  0
DIMENSION
  5
20F
330
1E
100
AcDbEntity
  8
DIM
100
AcDbDimension
  2
*D6
 10
5.27070086976353
 20
31.71694370433286
 30
0.0
 11
5.270700869763524
 21
22.29094370433286
 31
0.0
 70
    32
  1
F
 71
     5
 42
18.852
  3
23NSTD
100
AcDbAlignedDimension
 13
8.283191526812345
 23
12.86494370433286
 33
0.0
 14
8.271636363312374
 24
31.71694370433286
 34
0.0
 50
90.0
100
AcDbRotatedDimension
  0
DIMENSION
  5
210
330
1E
100
AcDbEntity
  8
DIM
100
AcDbDimension
  2
*D7
 10
6.447125894737027
 20
31.18894370433286
 30
0.0
 11
6.447125894737022
 21
22.29094370433286
 31
0.0
 70
    32
  1
G
 71
     5
 42
17.796
  3
23NSTD
100
AcDbAlignedDimension
 13
8.637156049312313
 23
13.39294370433286
 33
0.0
 14
8.637156049312316
 24
31.18894370433286
 34
0.0
 50
90.0
100
AcDbRotatedDimension
  0
LINE
  5
211
330
1E
100
AcDbEntity
  8
CENTER
100
AcDbLine
 10
15.56665604931231
 20
32.65535409449246
 30
0.0
 11
15.56665604931231
 21
12.00641572723257
 31
0.0
  0
LINE
  5
212
330
1E
100
AcDbEntity
  8
OBJECT
100
AcDbLine
 10
7.695656049312312
 20
31.54154599834518
 30
0.0
 11
7.695656049312312
 21
13.04034141033288
 31
0.0
  0
LINE
  5
213
330
1E
100
AcDbEntity
  8
OBJECT
100
AcDbLine
 10
7.96823089881235
 20
31.54154599833288
 30
0.0
 11
7.96823089881235
 21
13.04034141033288
 31
0.0
  0
LINE
  5
214
330
1E
100
AcDbEntity
  8
OBJECT
100
AcDbLine
 10
7.889490741812267
 20
31.54154599833288
 30
0.0
 11
7.889490741812267
 21
13.04034141033288
 31
0.0
  0
LINE
  5
215
330
1E
100
AcDbEntity
  8
OBJECT
100
AcDbLine
 10
8.977693963666915
 20
14.12997625904483
 30
0.0
 11
8.114156049312313
 21
14.6687401867863
 31
0.0
  0
LINE
  5
216
330
1E
100
AcDbEntity
  8
OBJECT
100
AcDbLine
 10
16.18986694506179
 20
17.12699456576707
 30
0.0
 11
21.86736257416607
 21
14.12419678398145
 31
0.0
  0
LINE
  5
217
330
1E
100
AcDbEntity
  8
OBJECT
100
AcDbLine
 10
16.04493493413784
 20
16.84736103880789
 30
0.0
 11
21.72243056324209
 21
13.84456325702217
 31
0.0
  0
LINE
  5
218
330
1E
100
AcDbEntity
  8
OBJECT
100
AcDbLine
 10
15.08837716448671
 20
16.84736103880784
 30
0.0
 11
9.410881535382536
 21
13.84456325702217
 31
0.0
  0
LINE
  5
219
330
1E
100
AcDbEntity
  8
OBJECT
100
AcDbLine
 10
14.94344515356273
 20
17.126994565767
 30
0.0
 11
9.265949524458555
 21
14.12419678398145
 31
0.0
  0
LINE
  5
21A
330
1E
100
AcDbEntity
  8
OBJECT
100
AcDbLine
 10
8.114156049312313
 20
31.55946339033286
 30
0.0
 11
8.114156049312313
 21
13.04034141033288
 31
0.0
  0
LINE
  5
21B
330
1E
100
AcDbEntity
  8
TITLE
100
AcDbLine
 10
0.3100000000000023
 20
4.490000000000009
 30
0.0
 11
10.17857320146987
 21
4.48999999999998
 31
0.0
  0
TEXT
  5
21C
330
1E
100
AcDbEntity
  8
TEXT
100
AcDbText
 10
3.81518932750874
 20
4.716397263530325
 30
0.0
 40
0.625
  1
PART NO.
 41
0.75
  7
TXT
 72
     1
 11
5.45581432750874
 21
4.716397263530325
 31
0.0
100
AcDbText
  0
TEXT
  5
21D
330
1E
100
AcDbEntity
  8
TEXT
100
AcDbText
 10
0.8911658497211334
 20
1.025449600599188
 30
0.0
 40
0.625
  1
NBA-10152
 41
0.75
  7
TXT
 72
     1
 11
2.727103349721133
 21
1.025449600599188
 31
0.0
100
AcDbText
  0
TEXT
  5
21E
330
1E
100
AcDbEntity
  8
TEXT
100
AcDbText
 10
1.935362194181806
 20
3.657168999214093
 30
0.0
 40
0.625
  1
GRAY
 41
0.75
  7
TXT
 72
     1
 11
2.794737194181806
 21
3.657168999214093
 31
0.0
100
AcDbText
  0
TEXT
  5
21F
330
1E
100
AcDbEntity
  8
TEXT
100
AcDbText
 10
1.622862194181806
 20
2.620477256929234
 30
0.0
 40
0.625
  1
COVER
 41
0.75
  7
TXT
 72
     1
 11
2.794737194181806
 21
2.620477256929234
 31
0.0
100
AcDbText
  0
TEXT
  5
220
330
1E
100
AcDbEntity
  8
TEXT
100
AcDbText
 10
6.717506812352311
 20
3.657168999214093
 30
0.0
 40
0.625
  1
CLEAR
 41
0.75
  7
TXT
 72
     1
 11
7.811256812352311
 21
3.657168999214093
 31
0.0
100
AcDbText
  0
TEXT
  5
221
330
1E
100
AcDbEntity
  8
TEXT
100
AcDbText
 10
6.639381812352311
 20
2.620477256929234
 30
0.0
 40
0.625
  1
COVER
 41
0.75
  7
TXT
 72
     1
 11
7.811256812352311
 21
2.620477256929234
 31
0.0
100
AcDbText
  0
TEXT
  5
222
330
1E
100
AcDbEntity
  8
TEXT
100
AcDbText
 10
5.907685467891646
 20
1.025449600599188
 30
0.0
 40
0.625
  1
NBA-10172
 41
0.75
  7
TXT
 72
     1
 11
7.743622967891646
 21
1.025449600599188
 31
0.0
100
AcDbText
  0
LINE
  5
223
330
1E
100
AcDbEntity
  8
TITLE
100
AcDbLine
 10
5.244286600734938
 20
0.3100000000000023
 30
0.0
 11
5.244286600734938
 21
4.490000000000009
 31
0.0
  0
CIRCLE
  5
224
330
1E
100
AcDbEntity
  8
OBJECT
100
AcDbCircle
 10
9.116656049312318
 20
13.86944370433286
 30
0.0
 40
0.29527558875
  0
CIRCLE
  5
225
330
1E
100
AcDbEntity
  8
HIDDEN
100
AcDbCircle
 10
9.116656049312318
 20
13.86944370433286
 30
0.0
 40
0.09842519625
  0
CIRCLE
  5
226
330
1E
100
AcDbEntity
  8
OBJECT
100
AcDbCircle
 10
9.116656049312318
 20
13.86944370433286
 30
0.0
 40
0.093
  0
ARC
  5
227
330
1E
100
AcDbEntity
  8
OBJECT
100
AcDbCircle
 10
8.283634131833331
 20
13.03777375511826
 30
0.0
 40
0.5879836888709757
100
AcDbArc
 50
179.7497953133633
 51
269.9568705687443
  0
POINT
  5
228
330
1E
100
AcDbEntity
  8
OBJECT
100
AcDbPoint
 10
8.283191526812345
 20
12.44979023283282
 30
0.0
  0
ARC
  5
229
330
1E
100
AcDbEntity
  8
OBJECT
100
AcDbCircle
 10
8.283191526812345
 20
13.04034141033288
 30
0.0
 40
0.393700785
100
AcDbArc
 50
180.0
 51
270.0
  0
ARC
  5
22A
330
1E
100
AcDbEntity
  8
OBJECT
100
AcDbCircle
 10
8.283191526812345
 20
13.04034141033288
 30
0.0
 40
0.314960628
100
AcDbArc
 50
180.0
 51
270.0
  0
ARC
  5
22B
330
1E
100
AcDbEntity
  8
OBJECT
100
AcDbCircle
 10
8.297855465124357
 20
13.04822660186667
 30
0.0
 40
0.1838685715808703
100
AcDbArc
 50
182.4578794968594
 51
265.4256729118035
  0
LINE
  5
22C
330
1E
100
AcDbEntity
  8
OBJECT
100
AcDbLine
 10
8.821669726361214
 20
13.85637685377628
 30
0.0
 11
8.114156049312313
 21
14.30616557850909
 31
0.0
  0
CIRCLE
  5
22D
330
1E
100
AcDbEntity
  8
OBJECT
100
AcDbCircle
 10
8.637156049312309
 20
13.39294370433286
 30
0.0
 40
0.295
  0
TEXT
  5
22E
330
1E
100
AcDbEntity
  8
TEXT
100
AcDbText
 10
12.1228989787531
 20
2.614915110217054
 30
0.0
 40
0.625
  1
A
 41
0.75
  7
TXT
 72
     1
 11
12.2791489787531
 21
2.614915110217054
 31
0.0
100
AcDbText
  0
TEXT
  5
22F
330
1E
100
AcDbEntity
  8
TEXT
100
AcDbText
 10
16.43365708981979
 20
2.614915110217054
 30
0.0
 40
0.625
  1
B
 41
0.75
  7
TXT
 72
     1
 11
16.58990708981979
 21
2.614915110217054
 31
0.0
100
AcDbText
  0
CIRCLE
  5
230
330
1E
100
AcDbEntity
  8
OBJECT
100
AcDbCircle
 10
15.56665604931231
 20
13.86944370433286
 30
0.0
 40
0.09842519625
  0
CIRCLE
  5
231
330
1E
100
AcDbEntity
  8
OBJECT
100
AcDbCircle
 10
15.56665604931231
 20
13.86944370433286
 30
0.0
 40
0.29527558875
  0
TEXT
  5
232
330
1E
100
AcDbEntity
  8
TEXT
100
AcDbText
 10
20.49574851883066
 20
2.614915110217054
 30
0.0
 40
0.625
  1
C
 41
0.75
  7
TXT
 72
     1
 11
20.65199851883066
 21
2.614915110217054
 31
0.0
100
AcDbText
  0
TEXT
  5
233
330
1E
100
AcDbEntity
  8
TEXT
100
AcDbText
 10
24.64072928835516
 20
2.614915110217054
 30
0.0
 40
0.625
  1
D
 41
0.75
  7
TXT
 72
     1
 11
24.79697928835516
 21
2.614915110217054
 31
0.0
100
AcDbText
  0
CIRCLE
  5
234
330
1E
100
AcDbEntity
  8
OBJECT
100
AcDbCircle
 10
22.01665604931231
 20
13.86944370433286
 30
0.0
 40
0.093
  0
CIRCLE
  5
235
330
1E
100
AcDbEntity
  8
HIDDEN
100
AcDbCircle
 10
22.01665604931231
 20
13.86944370433286
 30
0.0
 40
0.09842519625
  0
CIRCLE
  5
236
330
1E
100
AcDbEntity
  8
OBJECT
100
AcDbCircle
 10
22.01665604931231
 20
13.86944370433286
 30
0.0
 40
0.29527558875
  0
CIRCLE
  5
237
330
1E
100
AcDbEntity
  8
OBJECT
100
AcDbCircle
 10
22.49615604931232
 20
13.39294370433286
 30
0.0
 40
0.295
  0
DIMENSION
  5
238
330
1E
100
AcDbEntity
  8
DIM
100
AcDbDimension
  2
*D8
 10
22.01665604931231
 20
33.35028193242512
 30
0.0
 11
15.56665604931231
 21
33.35028193242512
 31
0.0
 70
    32
  1
D
 71
     5
 42
12.9
  3
23NSTD
100
AcDbAlignedDimension
 13
9.116656049312311
 23
30.71244370433285
 33
0.0
 14
22.01665604931231
 24
30.71244370433285
 34
0.0
100
AcDbRotatedDimension
  0
LINE
  5
239
330
1E
100
AcDbEntity
  8
OBJECT
100
AcDbLine
 10
8.114156049312313
 20
23.05866023508288
 30
0.0
 11
15.40917573531231
 21
23.05866023508288
 31
0.0
  0
LINE
  5
23A
330
1E
100
AcDbEntity
  8
OBJECT
100
AcDbLine
 10
8.114156049312313
 20
21.52322717358284
 30
0.0
 11
15.40917573531231
 21
21.52322717358284
 31
0.0
  0
LINE
  5
23B
330
1E
100
AcDbEntity
  8
OBJECT
100
AcDbLine
 10
14.9434451535625
 20
27.45489284289876
 30
0.0
 11
9.265949524458548
 21
30.45769062468432
 31
0.0
  0
LINE
  5
23C
330
1E
100
AcDbEntity
  8
OBJECT
100
AcDbLine
 10
15.08837716448654
 20
27.73452636985801
 30
0.0
 11
9.410881535382529
 21
30.73732415164361
 31
0.0
  0
DIMENSION
  5
23D
330
1E
100
AcDbEntity
  8
DIM
100
AcDbDimension
  2
*D9
 10
22.49615604931231
 20
34.43013166280327
 30
0.0
 11
15.56665604931231
 21
34.43013166280327
 31
0.0
 70
    32
  1
C
 71
     5
 42
13.85899999999999
  3
23NSTD
100
AcDbAlignedDimension
 13
8.637156049312316
 23
31.18894370433286
 33
0.0
 14
22.49615604931231
 24
31.18894370433286
 34
0.0
100
AcDbRotatedDimension
  0
LINE
  5
23E
330
1E
100
AcDbEntity
  8
OBJECT
100
AcDbLine
 10
8.251951324062346
 20
21.52322717358284
 30
0.0
 11
8.251951324062346
 21
23.05866023508288
 31
0.0
  0
CIRCLE
  5
23F
330
1E
100
AcDbEntity
  8
OBJECT
100
AcDbCircle
 10
8.637156049312309
 20
22.29094370433286
 30
0.0
 40
0.295
  0
ARC
  5
240
330
1E
100
AcDbEntity
  8
OBJECT
100
AcDbCircle
 10
8.283191526812345
 20
31.54154599833288
 30
0.0
 40
0.393700785
100
AcDbArc
 50
90.0
 51
180.0
  0
ARC
  5
241
330
1E
100
AcDbEntity
  8
OBJECT
100
AcDbCircle
 10
8.283634131833323
 20
31.54411365354746
 30
0.0
 40
0.5879836888710278
100
AcDbArc
 50
90.04312943125476
 51
180.2502046866315
  0
ARC
  5
242
330
1E
100
AcDbEntity
  8
OBJECT
100
AcDbCircle
 10
8.271636363312374
 20
31.55946339033286
 30
0.0
 40
0.157480314
100
AcDbArc
 50
90.0
 51
180.0
  0
ARC
  5
243
330
1E
100
AcDbEntity
  8
OBJECT
100
AcDbCircle
 10
8.283191526812345
 20
31.54154599833288
 30
0.0
 40
0.314960628
100
AcDbArc
 50
90.0
 51
180.0
  0
CIRCLE
  5
244
330
1E
100
AcDbEntity
  8
OBJECT
100
AcDbCircle
 10
9.116656049312311
 20
30.71244370433285
 30
0.0
 40
0.29527558875
  0
CIRCLE
  5
245
330
1E
100
AcDbEntity
  8
OBJECT
100
AcDbCircle
 10
9.116656049312311
 20
30.71244370433285
 30
0.0
 40
0.093
  0
CIRCLE
  5
246
330
1E
100
AcDbEntity
  8
HIDDEN
100
AcDbCircle
 10
9.116656049312311
 20
30.71244370433285
 30
0.0
 40
0.09842519625
  0
LINE
  5
247
330
1E
100
AcDbEntity
  8
OBJECT
100
AcDbLine
 10
8.821669726361207
 20
30.6655105548895
 30
0.0
 11
8.11415604931232
 21
30.27572183015662
 31
0.0
  0
LINE
  5
248
330
1E
100
AcDbEntity
  8
OBJECT
100
AcDbLine
 10
8.977693963666908
 20
30.45191114962088
 30
0.0
 11
8.11415604931232
 21
29.91314722187935
 31
0.0
  0
CIRCLE
  5
249
330
1E
100
AcDbEntity
  8
OBJECT
100
AcDbCircle
 10
8.637156049312316
 20
31.18894370433286
 30
0.0
 40
0.295
  0
POINT
  5
24A
330
1E
100
AcDbEntity
  8
OBJECT
100
AcDbPoint
 10
8.283191526812345
 20
32.13209717583289
 30
0.0
  0
LINE
  5
24B
330
1E
100
AcDbEntity
  8
OBJECT
100
AcDbLine
 10
15.72413636331231
 20
26.68894010254759
 30
0.0
 11
15.72413636331231
 21
23.05866023508288
 31
0.0
  0
LINE
  5
24C
330
1E
100
AcDbEntity
  8
OBJECT
100
AcDbLine
 10
15.40917573531231
 20
26.68894010254756
 30
0.0
 11
15.40917573531231
 21
23.05866023508288
 31
0.0
  0
LINE
  5
24D
330
1E
100
AcDbEntity
  8
OBJECT
100
AcDbLine
 10
15.40917573531231
 20
21.52322717358284
 30
0.0
 11
15.40917573531231
 21
17.89294730611794
 31
0.0
  0
LINE
  5
24E
330
1E
100
AcDbEntity
  8
OBJECT
100
AcDbLine
 10
15.72413636331231
 20
21.52322717358284
 30
0.0
 11
15.72413636331231
 21
17.89294730611791
 31
0.0
  0
ARC
  5
24F
330
1E
100
AcDbEntity
  8
OBJECT
100
AcDbCircle
 10
15.56665604931225
 20
17.27262484908284
 30
0.0
 40
0.6799999999999999
100
AcDbArc
 50
345.9932462115413
 51
76.60937695848947
  0
ARC
  5
250
330
1E
100
AcDbEntity
  8
OBJECT
100
AcDbCircle
 10
15.56665604931225
 20
17.27262484908284
 30
0.0
 40
0.6799999999999999
100
AcDbArc
 50
103.3906230415013
 51
194.0067537884636
  0
CIRCLE
  5
251
330
1E
100
AcDbEntity
  8
OBJECT
100
AcDbCircle
 10
15.56665604931225
 20
17.27262484908284
 30
0.0
 40
0.6400000000000001
  0
CIRCLE
  5
252
330
1E
100
AcDbEntity
  8
OBJECT
100
AcDbCircle
 10
15.56665604931225
 20
17.27262484908284
 30
0.0
 40
0.6
  0
ARC
  5
253
330
1E
100
AcDbEntity
  8
OBJECT
100
AcDbCircle
 10
15.56665604931225
 20
17.27262484908284
 30
0.0
 40
0.6799999999999999
100
AcDbArc
 50
220.7879998714763
 51
319.2120001285275
  0
CIRCLE
  5
254
330
1E
100
AcDbEntity
  8
OBJECT
100
AcDbCircle
 10
22.01665604931231
 20
17.24444370433286
 30
0.0
 40
0.09842519625
  0
CIRCLE
  5
255
330
1E
100
AcDbEntity
  8
OBJECT
100
AcDbCircle
 10
22.01665604931231
 20
17.24444370433286
 30
0.0
 40
0.29527558875
  0
CIRCLE
  5
256
330
1E
100
AcDbEntity
  8
OBJECT
100
AcDbCircle
 10
22.01665604931231
 20
20.60344370433285
 30
0.0
 40
0.09842519625
  0
CIRCLE
  5
257
330
1E
100
AcDbEntity
  8
OBJECT
100
AcDbCircle
 10
22.01665604931231
 20
20.60344370433285
 30
0.0
 40
0.29527558875
  0
CIRCLE
  5
258
330
1E
100
AcDbEntity
  8
OBJECT
100
AcDbCircle
 10
22.49615604931232
 20
22.29094370433286
 30
0.0
 40
0.295
  0
LINE
  5
259
330
1E
100
AcDbEntity
  8
OBJECT
100
AcDbLine
 10
16.04493493413801
 20
27.73452636985799
 30
0.0
 11
21.72243056324209
 21
30.73732415164361
 31
0.0
  0
LINE
  5
25A
330
1E
100
AcDbEntity
  8
OBJECT
100
AcDbLine
 10
16.18986694506202
 20
27.4548928428987
 30
0.0
 11
21.86736257416607
 21
30.45769062468432
 31
0.0
  0
ARC
  5
25B
330
1E
100
AcDbEntity
  8
OBJECT
100
AcDbCircle
 10
15.56665604931225
 20
27.30926255958287
 30
0.0
 40
0.6799999999999999
100
AcDbArc
 50
283.3906230415105
 51
14.00675378845867
  0
CIRCLE
  5
25C
330
1E
100
AcDbEntity
  8
OBJECT
100
AcDbCircle
 10
15.56665604931225
 20
27.30926255958287
 30
0.0
 40
0.6
  0
CIRCLE
  5
25D
330
1E
100
AcDbEntity
  8
OBJECT
100
AcDbCircle
 10
15.56665604931225
 20
27.30926255958287
 30
0.0
 40
0.6400000000000001
  0
ARC
  5
25E
330
1E
100
AcDbEntity
  8
OBJECT
100
AcDbCircle
 10
15.56665604931225
 20
27.30926255958287
 30
0.0
 40
0.6799999999999999
100
AcDbArc
 50
40.78799987147251
 51
139.2120001285236
  0
ARC
  5
25F
330
1E
100
AcDbEntity
  8
OBJECT
100
AcDbCircle
 10
15.56665604931225
 20
27.30926255958287
 30
0.0
 40
0.6799999999999999
100
AcDbArc
 50
165.9932462115363
 51
256.6093769584986
  0
CIRCLE
  5
260
330
1E
100
AcDbEntity
  8
OBJECT
100
AcDbCircle
 10
15.56665604931231
 20
30.71244370433285
 30
0.0
 40
0.09842519625
  0
CIRCLE
  5
261
330
1E
100
AcDbEntity
  8
OBJECT
100
AcDbCircle
 10
15.56665604931231
 20
30.71244370433285
 30
0.0
 40
0.29527558875
  0
CIRCLE
  5
262
330
1E
100
AcDbEntity
  8
OBJECT
100
AcDbCircle
 10
22.01665604931231
 20
27.33744370433285
 30
0.0
 40
0.29527558875
  0
CIRCLE
  5
263
330
1E
100
AcDbEntity
  8
OBJECT
100
AcDbCircle
 10
22.01665604931231
 20
23.97844370433286
 30
0.0
 40
0.09842519625
  0
CIRCLE
  5
264
330
1E
100
AcDbEntity
  8
OBJECT
100
AcDbCircle
 10
22.01665604931231
 20
27.33744370433285
 30
0.0
 40
0.09842519625
  0
CIRCLE
  5
265
330
1E
100
AcDbEntity
  8
OBJECT
100
AcDbCircle
 10
22.01665604931231
 20
23.97844370433286
 30
0.0
 40
0.29527558875
  0
CIRCLE
  5
266
330
1E
100
AcDbEntity
  8
HIDDEN
100
AcDbCircle
 10
22.01665604931231
 20
30.71244370433285
 30
0.0
 40
0.09842519625
  0
CIRCLE
  5
267
330
1E
100
AcDbEntity
  8
OBJECT
100
AcDbCircle
 10
22.01665604931231
 20
30.71244370433285
 30
0.0
 40
0.093
  0
CIRCLE
  5
268
330
1E
100
AcDbEntity
  8
OBJECT
100
AcDbCircle
 10
22.01665604931231
 20
30.71244370433285
 30
0.0
 40
0.29527558875
  0
CIRCLE
  5
269
330
1E
100
AcDbEntity
  8
OBJECT
100
AcDbCircle
 10
22.49615604931231
 20
31.18894370433286
 30
0.0
 40
0.295
  0
TEXT
  5
26A
330
1E
100
AcDbEntity
  8
TEXT
100
AcDbText
 10
54.0623059797473
 20
48.79427161905619
 30
0.0
 40
0.937
  1
NBA-10152 & NBA-10172
 41
0.75
  7
TXT
 72
     1
 11
60.73843097974729
 21
48.79427161905619
 31
0.0
100
AcDbText
  0
DIMENSION
  5
26B
330
1E
100
AcDbEntity
  8
DIM
100
AcDbDimension
  2
*D10
 10
59.17757817882419
 20
31.74344370433285
 30
0.0
 11
59.17757817882418
 21
22.29094370433287
 31
0.0
 70
    32
  1
P
 71
     5
 42
18.905
  3
23NSTD
100
AcDbAlignedDimension
 13
57.32592988770353
 23
12.83844370433286
 33
0.0
 14
57.32592988770353
 24
31.74344370433285
 34
0.0
 50
90.0
100
AcDbRotatedDimension
  0
DIMENSION
  5
26C
330
1E
100
AcDbEntity
  8
DIM
100
AcDbDimension
  2
*D11
 10
48.10016833232893
 20
12.75844370433286
 30
0.0
 11
48.10016833232893
 21
22.29094370433286
 31
0.0
 70
    32
  1
N
 71
     5
 42
19.06499999999999
  3
23NSTD
100
AcDbAlignedDimension
 13
49.75867616315417
 23
31.82344370433285
 33
0.0
 14
49.75867616315419
 24
12.75844370433286
 34
0.0
 50
90.0
100
AcDbRotatedDimension
  0
LINE
  5
26D
330
1E
100
AcDbEntity
  8
OBJECT
100
AcDbLine
 10
57.32592988770353
 20
17.10107367158284
 30
0.0
 11
57.32592988770353
 21
14.15116817658288
 31
0.0
  0
LINE
  5
26E
330
1E
100
AcDbEntity
  8
OBJECT
100
AcDbLine
 10
49.67218191120347
 20
19.99820325642895
 30
0.0
 11
49.67218191120348
 21
12.99442052341551
 31
0.0
  0
LINE
  5
26F
330
1E
100
AcDbEntity
  8
OBJECT
100
AcDbLine
 10
57.18692988770354
 20
17.00833117124962
 30
0.0
 11
57.18692988770354
 21
14.21891067691613
 31
0.0
  0
LINE
  5
270
330
1E
100
AcDbEntity
  8
CENTER
100
AcDbLine
 10
37.45910617448991
 20
32.56390416495303
 30
0.0
 11
37.45910617448991
 21
11.88338010190675
 31
0.0
  0
LINE
  5
271
330
1E
100
AcDbEntity
  8
OBJECT
100
AcDbLine
 10
45.01816124648995
 20
12.84349101783284
 30
0.0
 11
45.01816124648995
 21
31.73839639083287
 31
0.0
  0
LINE
  5
272
330
1E
100
AcDbEntity
  8
OBJECT
100
AcDbLine
 10
29.90005110248988
 20
12.84349101783284
 30
0.0
 11
29.90005110248988
 21
31.73839639083287
 31
0.0
  0
LINE
  5
273
330
1E
100
AcDbEntity
  8
OBJECT
100
AcDbLine
 10
23.24382135681236
 20
31.54154599833288
 30
0.0
 11
23.24382135681236
 21
13.04034141033288
 31
0.0
  0
LINE
  5
274
330
1E
100
AcDbEntity
  8
OBJECT
100
AcDbLine
 10
23.16508119981227
 20
31.54154599833288
 30
0.0
 11
23.16508119981227
 21
13.04034141033288
 31
0.0
  0
LINE
  5
275
330
1E
100
AcDbEntity
  8
OBJECT
100
AcDbLine
 10
23.43765604931231
 20
31.54154599836652
 30
0.0
 11
23.43765604931231
 21
13.04034141033288
 31
0.0
  0
LINE
  5
276
330
1E
100
AcDbEntity
  8
OBJECT
100
AcDbLine
 10
23.01915604931231
 20
31.55946339033286
 30
0.0
 11
23.01915604931231
 21
13.02242401833291
 31
0.0
  0
TEXT
  5
277
330
1E
100
AcDbEntity
  8
TEXT
100
AcDbText
 10
41.00088630954827
 20
4.119454004286126
 30
0.0
 40
0.7800000000000001
  1
DIMENSIONS
 41
0.75
  7
TXT
 72
     1
 11
43.63338630954827
 21
4.119454004286126
 31
0.0
100
AcDbText
  0
LINE
  5
278
330
1E
100
AcDbEntity
  8
OBJECT
100
AcDbLine
 10
30.01816133798989
 20
12.72538078233283
 30
0.0
 11
44.90005101098994
 21
12.72538078233283
 31
0.0
  0
TEXT
  5
279
330
1E
100
AcDbEntity
  8
TEXT
100
AcDbText
 10
37.1640152323114
 20
2.614915110217054
 30
0.0
 40
0.625
  1
G
 41
0.75
  7
TXT
 72
     1
 11
37.3202652323114
 21
2.614915110217054
 31
0.0
100
AcDbText
  0
TEXT
  5
27A
330
1E
100
AcDbEntity
  8
TEXT
100
AcDbText
 10
32.95820907630823
 20
2.614915110217054
 30
0.0
 40
0.625
  1
F
 41
0.75
  7
TXT
 72
     1
 11
33.11445907630823
 21
2.614915110217054
 31
0.0
100
AcDbText
  0
TEXT
  5
27B
330
1E
100
AcDbEntity
  8
TEXT
100
AcDbText
 10
28.73056091256684
 20
2.614915110217054
 30
0.0
 40
0.625
  1
E
 41
0.75
  7
TXT
 72
     1
 11
28.88681091256684
 21
2.614915110217054
 31
0.0
100
AcDbText
  0
ARC
  5
27C
330
1E
100
AcDbEntity
  8
OBJECT
100
AcDbCircle
 10
22.84967796679129
 20
13.03777375511826
 30
0.0
 40
0.5879836888709781
100
AcDbArc
 50
270.0431294312557
 51
0.2502046866364411
  0
ARC
  5
27D
330
1E
100
AcDbEntity
  8
OBJECT
100
AcDbCircle
 10
22.85012057181228
 20
13.04034141033288
 30
0.0
 40
0.393700785
100
AcDbArc
 50
270.0
 51
0.0
  0
ARC
  5
27E
330
1E
100
AcDbEntity
  8
OBJECT
100
AcDbCircle
 10
22.86167573531226
 20
13.02242401833291
 30
0.0
 40
0.157480314
100
AcDbArc
 50
270.0
 51
0.0
  0
ARC
  5
27F
330
1E
100
AcDbEntity
  8
OBJECT
100
AcDbCircle
 10
22.85012057181228
 20
13.04034141033288
 30
0.0
 40
0.314960628
100
AcDbArc
 50
270.0
 51
0.0
  0
TEXT
  5
280
330
1E
100
AcDbEntity
  8
TEXT
100
AcDbText
 10
41.35593183568168
 20
2.614915110217054
 30
0.0
 40
0.625
  1
H
 41
0.75
  7
TXT
 72
     1
 11
41.51218183568168
 21
2.614915110217054
 31
0.0
100
AcDbText
  0
TEXT
  5
281
330
1E
100
AcDbEntity
  8
TEXT
100
AcDbText
 10
45.48917332727099
 20
2.614915110217054
 30
0.0
 40
0.625
  1
J
 41
0.75
  7
TXT
 72
     1
 11
45.64542332727099
 21
2.614915110217054
 31
0.0
100
AcDbText
  0
ARC
  5
282
330
1E
100
AcDbEntity
  8
OBJECT
100
AcDbCircle
 10
30.01816133798989
 20
12.84349101783284
 30
0.0
 40
0.1181102355
100
AcDbArc
 50
180.0
 51
270.0
  0
TEXT
  5
283
330
1E
100
AcDbEntity
  8
TEXT
100
AcDbText
 10
49.80762434852234
 20
2.614915110217054
 30
0.0
 40
0.625
  1
K
 41
0.75
  7
TXT
 72
     1
 11
49.96387434852234
 21
2.614915110217054
 31
0.0
100
AcDbText
  0
TEXT
  5
284
330
1E
100
AcDbEntity
  8
TEXT
100
AcDbText
 10
53.89137542131628
 20
2.614915110217054
 30
0.0
 40
0.625
  1
L
 41
0.75
  7
TXT
 72
     1
 11
54.04762542131628
 21
2.614915110217054
 31
0.0
100
AcDbText
  0
TEXT
  5
285
330
1E
100
AcDbEntity
  8
TEXT
100
AcDbText
 10
58.12681008274747
 20
2.614915110217054
 30
0.0
 40
0.625
  1
M
 41
0.75
  7
TXT
 72
     1
 11
58.28306008274747
 21
2.614915110217054
 31
0.0
100
AcDbText
  0
TEXT
  5
286
330
1E
100
AcDbEntity
  8
TEXT
100
AcDbText
 10
62.29885337177352
 20
2.614915110217054
 30
0.0
 40
0.625
  1
N
 41
0.75
  7
TXT
 72
     1
 11
62.45510337177352
 21
2.614915110217054
 31
0.0
100
AcDbText
  0
ARC
  5
287
330
1E
100
AcDbEntity
  8
OBJECT
100
AcDbCircle
 10
44.90005101098994
 20
12.84349101783284
 30
0.0
 40
0.1181102355
100
AcDbArc
 50
270.0
 51
0.0
  0
LINE
  5
288
330
1E
100
AcDbEntity
  8
OBJECT
100
AcDbLine
 10
57.32592988770355
 20
12.83844370433286
 30
0.0
 11
50.99387481570357
 21
12.72538078233289
 31
0.0
  0
LINE
  5
289
330
1E
100
AcDbEntity
  8
OBJECT
100
AcDbLine
 10
57.07077341267764
 20
12.98337322224651
 30
0.0
 11
50.71828426620351
 21
12.86494370433286
 31
0.0
  0
TEXT
  5
28A
330
1E
100
AcDbEntity
  8
TEXT
100
AcDbText
 10
66.52100491582736
 20
2.614915110217054
 30
0.0
 40
0.625
  1
P
 41
0.75
  7
TXT
 72
     1
 11
66.67725491582736
 21
2.614915110217054
 31
0.0
100
AcDbText
  0
TEXT
  5
28B
330
1E
100
AcDbEntity
  8
TEXT
100
AcDbText
 10
70.81216851074464
 20
2.614915110217054
 30
0.0
 40
0.625
  1
R
 41
0.75
  7
TXT
 72
     1
 11
70.96841851074464
 21
2.614915110217054
 31
0.0
100
AcDbText
  0
ARC
  5
28C
330
1E
100
AcDbEntity
  8
OBJECT
100
AcDbCircle
 10
49.7694023822034
 20
12.99442052341551
 30
0.0
 40
0.097220471
100
AcDbArc
 50
180.0
 51
267.3974377975001
  0
ARC
  5
28D
330
1E
100
AcDbEntity
  8
OBJECT
100
AcDbCircle
 10
49.7694023822034
 20
12.99442052341551
 30
0.0
 40
0.236220471
100
AcDbArc
 50
180.0
 51
267.3974377975001
  0
LINE
  5
28E
330
1E
100
AcDbEntity
  8
OBJECT
100
AcDbLine
 10
49.76498782802194
 20
12.89730033142205
 30
0.0
 11
50.71828426620351
 21
12.85094370433285
 31
0.0
  0
LINE
  5
28F
330
1E
100
AcDbEntity
  8
OBJECT
100
AcDbLine
 10
50.99387481570357
 20
12.72538078233289
 30
0.0
 11
50.99387481570357
 21
12.4499437043328
 31
0.0
  0
LINE
  5
290
330
1E
100
AcDbEntity
  8
OBJECT
100
AcDbLine
 10
50.71828426620349
 20
12.4499437043328
 30
0.0
 11
50.99387481570357
 21
12.4499437043328
 31
0.0
  0
LINE
  5
291
330
1E
100
AcDbEntity
  8
OBJECT
100
AcDbLine
 10
50.4033236382035
 20
12.72709527339248
 30
0.0
 11
50.4033236382035
 21
12.47894370433285
 31
0.0
  0
TEXT
  5
292
330
1E
100
AcDbEntity
  8
TEXT
100
AcDbText
 10
74.88389005782157
 20
2.614915110217054
 30
0.0
 40
0.625
  1
S
 41
0.75
  7
TXT
 72
     1
 11
75.04014005782157
 21
2.614915110217054
 31
0.0
100
AcDbText
  0
LINE
  5
293
330
1E
100
AcDbEntity
  8
OBJECT
100
AcDbLine
 10
57.32592988770353
 20
14.15116817658288
 30
0.0
 11
57.37592988770355
 21
14.15116817658288
 31
0.0
  0
LINE
  5
294
330
1E
100
AcDbEntity
  8
OBJECT
100
AcDbLine
 10
57.37592988770355
 20
13.70116817658286
 30
0.0
 11
57.37592988770355
 21
14.15116817658288
 31
0.0
  0
LINE
  5
295
330
1E
100
AcDbEntity
  8
OBJECT
100
AcDbLine
 10
57.32592988770353
 20
13.70116817658286
 30
0.0
 11
57.37592988770355
 21
13.70116817658286
 31
0.0
  0
LINE
  5
296
330
1E
100
AcDbEntity
  8
OBJECT
100
AcDbLine
 10
57.32592988770353
 20
13.70116817658286
 30
0.0
 11
57.32592988770355
 21
12.83844370433286
 31
0.0
  0
LINE
  5
297
330
1E
100
AcDbEntity
  8
HIDDEN
100
AcDbLine
 10
57.18692988770354
 20
13.29624692058281
 30
0.0
 11
56.91029996620358
 21
13.29624692058281
 31
0.0
  0
LINE
  5
298
330
1E
100
AcDbEntity
  8
HIDDEN
100
AcDbLine
 10
57.40592988770352
 20
13.29624692058281
 30
0.0
 11
57.32592988770353
 21
13.29624692058281
 31
0.0
  0
LINE
  5
299
330
1E
100
AcDbEntity
  8
HIDDEN
100
AcDbLine
 10
57.18692988770354
 20
13.49309731308278
 30
0.0
 11
56.91029996620358
 21
13.4930973130828
 31
0.0
  0
LINE
  5
29A
330
1E
100
AcDbEntity
  8
HIDDEN
100
AcDbLine
 10
57.40592988770353
 20
13.4930973130828
 30
0.0
 11
57.32592988770353
 21
13.49309731308278
 31
0.0
  0
LINE
  5
29B
330
1E
100
AcDbEntity
  8
HIDDEN
100
AcDbLine
 10
56.91029996620358
 20
13.3946721168328
 30
0.0
 11
56.91029996620358
 21
13.4930973130828
 31
0.0
  0
LINE
  5
29C
330
1E
100
AcDbEntity
  8
HIDDEN
100
AcDbLine
 10
56.91029996620358
 20
13.3946721168328
 30
0.0
 11
56.91029996620358
 21
13.29624692058281
 31
0.0
  0
LINE
  5
29D
330
1E
100
AcDbEntity
  8
OBJECT
100
AcDbLine
 10
57.40592988770353
 20
13.1026721168328
 30
0.0
 11
57.40592988770353
 21
13.6866721168328
 31
0.0
  0
LINE
  5
29E
330
1E
100
AcDbEntity
  8
OBJECT
100
AcDbLine
 10
57.32592988770353
 20
13.6866721168328
 30
0.0
 11
57.40592988770353
 21
13.6866721168328
 31
0.0
  0
LINE
  5
29F
330
1E
100
AcDbEntity
  8
OBJECT
100
AcDbLine
 10
57.32592988770355
 20
13.10267211683279
 30
0.0
 11
57.40592988770353
 21
13.1026721168328
 31
0.0
  0
LINE
  5
2A0
330
1E
100
AcDbEntity
  8
OBJECT
100
AcDbLine
 10
57.2865598092035
 20
13.92616817658286
 30
0.0
 11
57.2865598092035
 21
14.02459337283285
 31
0.0
  0
LINE
  5
2A1
330
1E
100
AcDbEntity
  8
OBJECT
100
AcDbLine
 10
57.2865598092035
 20
13.92616817658286
 30
0.0
 11
57.2865598092035
 21
13.82774298033287
 31
0.0
  0
LINE
  5
2A2
330
1E
100
AcDbEntity
  8
OBJECT
100
AcDbLine
 10
57.18692988770354
 20
13.63342567624958
 30
0.0
 11
57.18692988770354
 21
13.10135882058661
 31
0.0
  0
LINE
  5
2A3
330
1E
100
AcDbEntity
  8
OBJECT
100
AcDbLine
 10
56.96431305089831
 20
13.66042014670786
 30
0.0
 11
56.79092988770354
 21
13.63939574107893
 31
0.0
  0
ARC
  5
2A4
330
1E
100
AcDbEntity
  8
OBJECT
100
AcDbCircle
 10
57.06892988770357
 20
13.10135882058661
 30
0.0
 40
0.118
100
AcDbArc
 50
270.8951737102111
 51
0.0
  0
LINE
  5
2A5
330
1E
100
AcDbEntity
  8
OBJECT
100
AcDbLine
 10
57.18692988770354
 20
13.10192961649959
 30
0.0
 11
56.79092988770356
 21
13.14994849258681
 31
0.0
  0
LINE
  5
2A6
330
1E
100
AcDbEntity
  8
OBJECT
100
AcDbLine
 10
56.79092988770354
 20
13.63939574107893
 30
0.0
 11
56.79092988770356
 21
13.14994849258681
 31
0.0
  0
LINE
  5
2A7
330
1E
100
AcDbEntity
  8
OBJECT
100
AcDbLine
 10
57.18692988770354
 20
14.21891067691613
 30
0.0
 11
56.79092988770354
 21
14.17089180082892
 31
0.0
  0
LINE
  5
2A8
330
1E
100
AcDbEntity
  8
OBJECT
100
AcDbLine
 10
56.79092988770356
 20
13.82774298033287
 30
0.0
 11
57.2865598092035
 21
13.82774298033287
 31
0.0
  0
LINE
  5
2A9
330
1E
100
AcDbEntity
  8
OBJECT
100
AcDbLine
 10
56.79092988770354
 20
14.02459337283285
 30
0.0
 11
57.2865598092035
 21
14.02459337283285
 31
0.0
  0
LINE
  5
2AA
330
1E
100
AcDbEntity
  8
OBJECT
100
AcDbLine
 10
56.79092988770354
 20
14.17089180082892
 30
0.0
 11
56.79092988770356
 21
13.68144455233681
 31
0.0
  0
POINT
  5
2AB
330
1E
100
AcDbEntity
  8
OBJECT
100
AcDbPoint
 10
56.85348894570349
 20
13.67385865422007
 30
0.0
  0
POINT
  5
2AC
330
1E
100
AcDbEntity
  8
OBJECT
100
AcDbPoint
 10
56.85348894570349
 20
14.17847769894565
 30
0.0
  0
LINE
  5
2AD
330
1E
100
AcDbEntity
  8
OBJECT
100
AcDbLine
 10
57.18692988770354
 20
13.63342567624958
 30
0.0
 11
56.79092988770356
 21
13.68144455233681
 31
0.0
  0
LINE
  5
2AE
330
1E
100
AcDbEntity
  8
OBJECT
100
AcDbLine
 10
29.97660617448991
 20
42.71597053089073
 30
0.0
 11
29.90005110248993
 21
36.30356108039073
 31
0.0
  0
LINE
  5
2AF
330
1E
100
AcDbEntity
  8
CENTER
100
AcDbLine
 10
37.45910617448991
 20
34.45784307724889
 30
0.0
 11
37.45910617448991
 21
43.09997379024316
 31
0.0
  0
LINE
  5
2B0
330
1E
100
AcDbEntity
  8
OBJECT
100
AcDbLine
 10
44.94160617448992
 20
42.71597053089073
 30
0.0
 11
45.01816124649001
 21
36.30356108039073
 31
0.0
  0
DIMENSION
  5
2B1
330
1E
100
AcDbEntity
  8
DIM
100
AcDbDimension
  2
*D12
 10
45.01910617448992
 20
33.72079814523145
 30
0.0
 11
37.45910617448991
 21
33.72079814523145
 31
0.0
 70
    32
  1
R
 71
     5
 42
15.12
  3
23NSTD
100
AcDbAlignedDimension
 13
29.89910617448991
 23
35.06846478284154
 33
0.0
 14
45.01910617448992
 24
35.06846478284154
 34
0.0
100
AcDbRotatedDimension
  0
LINE
  5
2B2
330
1E
100
AcDbEntity
  8
OBJECT
100
AcDbLine
 10
30.01816133798989
 20
31.85650662633288
 30
0.0
 11
44.90005101098994
 21
31.85650662633288
 31
0.0
  0
LINE
  5
2B3
330
1E
100
AcDbEntity
  8
OBJECT
100
AcDbLine
 10
45.27310617448992
 20
35.71300990289076
 30
0.0
 11
29.64510617448992
 21
35.71300990289075
 31
0.0
  0
LINE
  5
2B4
330
1E
100
AcDbEntity
  8
OBJECT
100
AcDbLine
 10
44.78312935540723
 20
34.84297053089072
 30
0.0
 11
30.1350829935726
 21
34.84297053089071
 31
0.0
  0
LINE
  5
2B5
330
1E
100
AcDbEntity
  8
CENTER
100
AcDbLine
 10
45.92205190609132
 20
22.29094370433286
 30
0.0
 11
28.99488755614885
 21
22.29094370433286
 31
0.0
  0
LINE
  5
2B6
330
1E
100
AcDbEntity
  8
OBJECT
100
AcDbLine
 10
29.58509047448994
 20
36.30356108039073
 30
0.0
 11
45.33312187449
 21
36.30356108039073
 31
0.0
  0
LINE
  5
2B7
330
1E
100
AcDbEntity
  8
OBJECT
100
AcDbLine
 10
29.58509047448994
 20
36.02797053089072
 30
0.0
 11
45.33312187449
 21
36.02797053089078
 31
0.0
  0
LINE
  5
2B8
330
1E
100
AcDbEntity
  8
OBJECT
100
AcDbLine
 10
22.8698056110623
 20
21.52322717358284
 30
0.0
 11
22.8698056110623
 21
23.05866023508288
 31
0.0
  0
ARC
  5
2B9
330
1E
100
AcDbEntity
  8
OBJECT
100
AcDbCircle
 10
22.85012057181228
 20
31.54154599833288
 30
0.0
 40
0.393700785
100
AcDbArc
 50
0.0
 51
90.0
  0
ARC
  5
2BA
330
1E
100
AcDbEntity
  8
OBJECT
100
AcDbCircle
 10
22.84967796679129
 20
31.54411365354751
 30
0.0
 40
0.5879836888709792
100
AcDbArc
 50
359.7497953133635
 51
89.95687056874418
  0
ARC
  5
2BB
330
1E
100
AcDbEntity
  8
OBJECT
100
AcDbCircle
 10
22.85012057181228
 20
31.54154599833288
 30
0.0
 40
0.314960628
100
AcDbArc
 50
0.0
 51
90.0
  0
ARC
  5
2BC
330
1E
100
AcDbEntity
  8
OBJECT
100
AcDbCircle
 10
22.86167573531226
 20
31.55946339033286
 30
0.0
 40
0.157480314
100
AcDbArc
 50
0.0
 51
90.0
  0
CIRCLE
  5
2BD
330
1E
100
AcDbEntity
  8
OBJECT
100
AcDbCircle
 10
29.38909047448994
 20
36.02797053089072
 30
0.0
 40
0.109
  0
LINE
  5
2BE
330
1E
100
AcDbEntity
  8
OBJECT
100
AcDbLine
 10
29.58509047448994
 20
36.02797053089078
 30
0.0
 11
29.58509047448994
 21
36.30356108039073
 31
0.0
  0
LINE
  5
2BF
330
1E
100
AcDbEntity
  8
OBJECT
100
AcDbLine
 10
29.89910617449003
 20
35.06846478284145
 30
0.0
 11
29.86068102398995
 21
35.71300990289076
 31
0.0
  0
ARC
  5
2C0
330
1E
100
AcDbEntity
  8
OBJECT
100
AcDbCircle
 10
30.01816133798989
 20
31.73839639083287
 30
0.0
 40
0.1181102355
100
AcDbArc
 50
90.0
 51
180.0
  0
ARC
  5
2C1
330
1E
100
AcDbEntity
  8
OBJECT
100
AcDbCircle
 10
30.1350829935726
 20
35.07919100189073
 30
0.0
 40
0.236220471
100
AcDbArc
 50
182.6025622024998
 51
270.0
  0
LINE
  5
2C2
330
1E
100
AcDbEntity
  8
OBJECT
100
AcDbLine
 10
29.64510617448992
 20
35.71300990289075
 30
0.0
 11
29.64510617448992
 21
36.02797053089075
 31
0.0
  0
LINE
  5
2C3
330
1E
100
AcDbEntity
  8
OBJECT
100
AcDbLine
 10
45.0191061744898
 20
35.06846478284145
 30
0.0
 11
45.05753132498988
 21
35.71300990289076
 31
0.0
  0
ARC
  5
2C4
330
1E
100
AcDbEntity
  8
OBJECT
100
AcDbCircle
 10
44.90005101098994
 20
31.73839639083287
 30
0.0
 40
0.1181102355
100
AcDbArc
 50
0.0
 51
90.00000000000003
  0
ARC
  5
2C5
330
1E
100
AcDbEntity
  8
OBJECT
100
AcDbCircle
 10
44.78312935540723
 20
35.07919100189073
 30
0.0
 40
0.236220471
100
AcDbArc
 50
270.0
 51
357.3974377975001
  0
LINE
  5
2C6
330
1E
100
AcDbEntity
  8
OBJECT
100
AcDbLine
 10
45.33312187449
 20
36.02797053089078
 30
0.0
 11
45.33312187449
 21
36.30356108039073
 31
0.0
  0
LINE
  5
2C7
330
1E
100
AcDbEntity
  8
OBJECT
100
AcDbLine
 10
45.27310617448992
 20
35.71300990289076
 30
0.0
 11
45.27310617448992
 21
36.02797053089075
 31
0.0
  0
DIMENSION
  5
2C8
330
1E
100
AcDbEntity
  8
DIM
100
AcDbDimension
  2
*D13
 10
44.94160617448992
 20
43.68647719121668
 30
0.0
 11
37.45910617448991
 21
43.68647719121668
 31
0.0
 70
    32
  1
S
 71
     5
 42
14.965
  3
23NSTD
100
AcDbAlignedDimension
 13
29.97660617448991
 23
42.71597053089073
 33
0.0
 14
44.94160617448992
 24
42.71597053089073
 34
0.0
100
AcDbRotatedDimension
  0
LINE
  5
2C9
330
1E
100
AcDbEntity
  8
OBJECT
100
AcDbLine
 10
29.97660617448991
 20
42.71597053089073
 30
0.0
 11
44.94160617448992
 21
42.71597053089073
 31
0.0
  0
LINE
  5
2CA
330
1E
100
AcDbEntity
  8
OBJECT
100
AcDbLine
 10
30.82197235848985
 20
42.76597053089074
 30
0.0
 11
31.2274133004899
 21
42.76597053089074
 31
0.0
  0
LINE
  5
2CB
330
1E
100
AcDbEntity
  8
OBJECT
100
AcDbLine
 10
30.23797235848985
 20
42.71597053089073
 30
0.0
 11
30.23797235848985
 21
42.79597053089074
 31
0.0
  0
LINE
  5
2CC
330
1E
100
AcDbEntity
  8
OBJECT
100
AcDbLine
 10
30.82197235848985
 20
42.71597053089073
 30
0.0
 11
30.82197235848985
 21
42.79597053089074
 31
0.0
  0
LINE
  5
2CD
330
1E
100
AcDbEntity
  8
OBJECT
100
AcDbLine
 10
30.23797235848985
 20
42.79597053089074
 30
0.0
 11
30.82197235848985
 21
42.79597053089074
 31
0.0
  0
POINT
  5
2CE
330
1E
100
AcDbEntity
  8
OBJECT
100
AcDbPoint
 10
29.97660617448991
 20
42.71597053089073
 30
0.0
  0
LINE
  5
2CF
330
1E
100
AcDbEntity
  8
OBJECT
100
AcDbLine
 10
31.2274133004899
 20
42.71597053089073
 30
0.0
 11
31.2274133004899
 21
42.76597053089074
 31
0.0
  0
LINE
  5
2D0
330
1E
100
AcDbEntity
  8
OBJECT
100
AcDbLine
 10
37.65910617448989
 20
42.71597053089073
 30
0.0
 11
37.65910617448989
 21
42.76597053089074
 31
0.0
  0
LINE
  5
2D1
330
1E
100
AcDbEntity
  8
OBJECT
100
AcDbLine
 10
37.25910617448988
 20
42.71597053089073
 30
0.0
 11
37.25910617448988
 21
42.76597053089074
 31
0.0
  0
LINE
  5
2D2
330
1E
100
AcDbEntity
  8
OBJECT
100
AcDbLine
 10
37.65910617448989
 20
42.76597053089074
 30
0.0
 11
37.25910617448988
 21
42.76597053089074
 31
0.0
  0
LINE
  5
2D3
330
1E
100
AcDbEntity
  8
OBJECT
100
AcDbLine
 10
44.09623999048998
 20
42.76597053089074
 30
0.0
 11
43.69079904848994
 21
42.76597053089074
 31
0.0
  0
LINE
  5
2D4
330
1E
100
AcDbEntity
  8
OBJECT
100
AcDbLine
 10
43.69079904848994
 20
42.71597053089073
 30
0.0
 11
43.69079904848994
 21
42.76597053089074
 31
0.0
  0
LINE
  5
2D5
330
1E
100
AcDbEntity
  8
OBJECT
100
AcDbLine
 10
44.68023999048997
 20
42.79597053089074
 30
0.0
 11
44.09623999048998
 21
42.79597053089074
 31
0.0
  0
LINE
  5
2D6
330
1E
100
AcDbEntity
  8
OBJECT
100
AcDbLine
 10
44.09623999048998
 20
42.71597053089073
 30
0.0
 11
44.09623999048998
 21
42.79597053089074
 31
0.0
  0
LINE
  5
2D7
330
1E
100
AcDbEntity
  8
OBJECT
100
AcDbLine
 10
44.68023999048997
 20
42.71597053089073
 30
0.0
 11
44.68023999048997
 21
42.79597053089074
 31
0.0
  0
POINT
  5
2D8
330
1E
100
AcDbEntity
  8
OBJECT
100
AcDbPoint
 10
44.94160617448992
 20
42.71597053089073
 30
0.0
  0
DIMENSION
  5
2D9
330
1E
100
AcDbEntity
  8
DIM
100
AcDbDimension
  2
*D14
 10
57.40592988770353
 20
34.65094660191545
 30
0.0
 11
54.06210707695351
 21
34.65094660191545
 31
0.0
 70
    32
  1
L
 71
     5
 42
6.687645621500038
  3
23NSTD
100
AcDbAlignedDimension
 13
50.71828426620349
 23
32.13194370433287
 33
0.0
 14
57.40592988770353
 24
31.47921529183291
 34
0.0
100
AcDbRotatedDimension
  0
DIMENSION
  5
2DA
330
1E
100
AcDbEntity
  8
DIM
100
AcDbDimension
  2
*D15
 10
57.32592988770353
 20
33.35028193242512
 30
0.0
 11
53.47436738770354
 21
33.35028193242512
 31
0.0
 70
    32
  1
<>
 71
     5
 42
0.0799999999999983
  3
23NSTD
100
AcDbAlignedDimension
 13
57.40592988770353
 23
31.47921529183291
 33
0.0
 14
57.32592988770353
 24
31.74344370433285
 34
0.0
100
AcDbRotatedDimension
  0
DIMENSION
  5
2DB
330
1E
100
AcDbEntity
  8
DIM
100
AcDbDimension
  2
*D16
 10
57.18692988770354
 20
15.56735169856042
 30
0.0
 11
63.03067988770354
 21
15.56735169856042
 31
0.0
 70
    32
  1
<> (INSIDE)
 71
     5
 42
0.3959999999999866
  3
23NSTD
100
AcDbAlignedDimension
 13
56.79092988770356
 23
17.05635004733685
 33
0.0
 14
57.18692988770354
 24
17.00833117124962
 34
0.0
 50
180.0
100
AcDbRotatedDimension
  0
DIMENSION
  5
2DC
330
1E
100
AcDbEntity
  8
DIM
100
AcDbDimension
  2
*D17
 10
57.32592988770353
 20
18.83682847584863
 30
0.0
 11
61.17749238770354
 21
18.83682847584863
 31
0.0
 70
    32
  1
<>
 71
     5
 42
0.1389999999999958
  3
23NSTD
100
AcDbAlignedDimension
 13
57.18692988770354
 23
18.52182847584862
 33
0.0
 14
57.32592988770353
 24
18.52182847584862
 34
0.0
100
AcDbRotatedDimension
  0
LINE
  5
2DD
330
1E
100
AcDbEntity
  8
CENTER
100
AcDbLine
 10
58.04450690325861
 20
22.29094370433286
 30
0.0
 11
49.05173133239906
 21
22.29094370433286
 31
0.0
  0
LINE
  5
2DE
330
1E
100
AcDbEntity
  8
OBJECT
100
AcDbLine
 10
57.32592988770354
 20
31.74344370433285
 30
0.0
 11
50.99387481570357
 21
31.85650662633288
 31
0.0
  0
LINE
  5
2DF
330
1E
100
AcDbEntity
  8
OBJECT
100
AcDbLine
 10
49.5331819112035
 20
12.99442052341551
 30
0.0
 11
49.53318191120348
 21
31.5874668852502
 31
0.0
  0
LINE
  5
2E0
330
1E
100
AcDbEntity
  8
OBJECT
100
AcDbLine
 10
50.40332363820354
 20
19.99820325642895
 30
0.0
 11
50.40332363820346
 21
28.62644370433285
 31
0.0
  0
LINE
  5
2E1
330
1E
100
AcDbEntity
  8
OBJECT
100
AcDbLine
 10
50.9938748157035
 20
28.62644370433288
 30
0.0
 11
50.99387481570357
 21
19.99820325642895
 31
0.0
  0
LINE
  5
2E2
330
1E
100
AcDbEntity
  8
OBJECT
100
AcDbLine
 10
50.71828426620346
 20
28.62644370433285
 30
0.0
 11
50.71828426620351
 21
12.72538078233289
 31
0.0
  0
DIMENSION
  5
2E3
330
1E
100
AcDbEntity
  8
DIM
100
AcDbDimension
  2
*D22
 10
49.53318191120348
 20
34.65094660191545
 30
0.0
 11
47.12693191120347
 21
34.65094660191545
 31
0.0
 70
    32
  1
M
 71
     5
 42
1.185102355000019
  3
23NSTD
100
AcDbAlignedDimension
 13
50.71828426620349
 23
32.13194370433292
 33
0.0
 14
49.53318191120348
 24
31.5874668852502
 34
0.0
100
AcDbRotatedDimension
  0
ARC
  5
2E4
330
1E
100
AcDbEntity
  8
OBJECT
100
AcDbCircle
 10
49.76940238220339
 20
31.5874668852502
 30
0.0
 40
0.236220471
100
AcDbArc
 50
92.60256220249981
 51
180.0
  0
LINE
  5
2E5
330
1E
100
AcDbEntity
  8
OBJECT
100
AcDbLine
 10
50.40332363820346
 20
29.67344370433284
 30
0.0
 11
50.4033236382035
 21
32.10294370433287
 31
0.0
  0
LINE
  5
2E6
330
1E
100
AcDbEntity
  8
OBJECT
100
AcDbLine
 10
50.99387481570357
 20
32.13194370433292
 30
0.0
 11
50.9938748157035
 21
29.67344370433284
 31
0.0
  0
LINE
  5
2E7
330
1E
100
AcDbEntity
  8
OBJECT
100
AcDbLine
 10
50.71828426620349
 20
32.13194370433292
 30
0.0
 11
50.71828426620346
 21
29.67344370433284
 31
0.0
  0
POINT
  5
2E8
330
1E
100
AcDbEntity
  8
OBJECT
100
AcDbPoint
 10
49.53318191120348
 20
31.5874668852502
 30
0.0
  0
LINE
  5
2E9
330
1E
100
AcDbEntity
  8
OBJECT
100
AcDbLine
 10
50.9938748157035
 20
29.56444370433287
 30
0.0
 11
50.9938748157035
 21
28.73544370433286
 31
0.0
  0
LINE
  5
2EA
330
1E
100
AcDbEntity
  8
OBJECT
100
AcDbLine
 10
50.71828426620346
 20
29.56444370433287
 30
0.0
 11
50.71828426620346
 21
28.73544370433286
 31
0.0
  0
LINE
  5
2EB
330
1E
100
AcDbEntity
  8
OBJECT
100
AcDbLine
 10
50.71828426620349
 20
32.13194370433292
 30
0.0
 11
50.99387481570357
 21
32.13194370433292
 31
0.0
  0
LINE
  5
2EC
330
1E
100
AcDbEntity
  8
OBJECT
100
AcDbLine
 10
57.32592988770354
 20
31.74344370433285
 30
0.0
 11
57.32592988770356
 21
17.50107367158283
 31
0.0
  0
LINE
  5
2ED
330
1E
100
AcDbEntity
  8
OBJECT
100
AcDbLine
 10
57.18692988770354
 20
19.99820325642893
 30
0.0
 11
57.18692988770354
 21
17.59381617191617
 31
0.0
  0
LINE
  5
2EE
330
1E
100
AcDbEntity
  8
OBJECT
100
AcDbLine
 10
57.18692988770354
 20
17.00833117124962
 30
0.0
 11
56.79092988770356
 21
17.05635004733685
 31
0.0
  0
LINE
  5
2EF
330
1E
100
AcDbEntity
  8
OBJECT
100
AcDbLine
 10
57.18692988770354
 20
17.59381617191617
 30
0.0
 11
56.79092988770354
 21
17.54579729582896
 31
0.0
  0
LINE
  5
2F0
330
1E
100
AcDbEntity
  8
OBJECT
100
AcDbLine
 10
57.32592988770353
 20
17.50107367158283
 30
0.0
 11
57.37592988770355
 21
17.50107367158283
 31
0.0
  0
LINE
  5
2F1
330
1E
100
AcDbEntity
  8
OBJECT
100
AcDbLine
 10
57.32592988770353
 20
17.10107367158284
 30
0.0
 11
57.37592988770355
 21
17.10107367158284
 31
0.0
  0
LINE
  5
2F2
330
1E
100
AcDbEntity
  8
OBJECT
100
AcDbLine
 10
57.2865598092035
 20
17.30107367158289
 30
0.0
 11
57.2865598092035
 21
17.39949886783288
 31
0.0
  0
LINE
  5
2F3
330
1E
100
AcDbEntity
  8
OBJECT
100
AcDbLine
 10
57.2865598092035
 20
17.30107367158289
 30
0.0
 11
57.2865598092035
 21
17.2026484753329
 31
0.0
  0
POINT
  5
2F4
330
1E
100
AcDbEntity
  8
OBJECT
100
AcDbPoint
 10
56.85348894570349
 20
17.55338319394569
 30
0.0
  0
POINT
  5
2F5
330
1E
100
AcDbEntity
  8
OBJECT
100
AcDbPoint
 10
56.85348894570349
 20
17.0487641492201
 30
0.0
  0
LINE
  5
2F6
330
1E
100
AcDbEntity
  8
OBJECT
100
AcDbLine
 10
57.37592988770355
 20
17.10107367158284
 30
0.0
 11
57.37592988770355
 21
17.50107367158283
 31
0.0
  0
LINE
  5
2F7
330
1E
100
AcDbEntity
  8
OBJECT
100
AcDbLine
 10
56.79092988770354
 20
17.54579729582896
 30
0.0
 11
56.79092988770356
 21
17.05635004733685
 31
0.0
  0
LINE
  5
2F8
330
1E
100
AcDbEntity
  8
OBJECT
100
AcDbLine
 10
56.79092988770354
 20
17.39949886783288
 30
0.0
 11
57.2865598092035
 21
17.39949886783288
 31
0.0
  0
LINE
  5
2F9
330
1E
100
AcDbEntity
  8
OBJECT
100
AcDbLine
 10
56.79092988770356
 20
17.2026484753329
 30
0.0
 11
57.2865598092035
 21
17.2026484753329
 31
0.0
  0
LINE
  5
2FA
330
1E
100
AcDbEntity
  8
OBJECT
100
AcDbLine
 10
57.40592988770353
 20
22.58294370433286
 30
0.0
 11
57.40592988770353
 21
21.99894370433285
 31
0.0
  0
LINE
  5
2FB
330
1E
100
AcDbEntity
  8
OBJECT
100
AcDbLine
 10
57.32592988770353
 20
22.58294370433286
 30
0.0
 11
57.40592988770353
 21
22.58294370433286
 31
0.0
  0
LINE
  5
2FC
330
1E
100
AcDbEntity
  8
OBJECT
100
AcDbLine
 10
57.32592988770353
 20
21.99894370433285
 30
0.0
 11
57.40592988770353
 21
21.99894370433285
 31
0.0
  0
LINE
  5
2FD
330
1E
100
AcDbEntity
  8
OBJECT
100
AcDbLine
 10
57.32592988770353
 20
24.1819082420829
 30
0.0
 11
57.37592988770355
 21
24.1819082420829
 31
0.0
  0
LINE
  5
2FE
330
1E
100
AcDbEntity
  8
OBJECT
100
AcDbLine
 10
57.32592988770353
 20
23.78190824208289
 30
0.0
 11
57.37592988770355
 21
23.78190824208289
 31
0.0
  0
LINE
  5
2FF
330
1E
100
AcDbEntity
  8
OBJECT
100
AcDbLine
 10
57.37592988770355
 20
24.1819082420829
 30
0.0
 11
57.37592988770355
 21
23.78190824208289
 31
0.0
  0
LINE
  5
300
330
1E
100
AcDbEntity
  8
OBJECT
100
AcDbLine
 10
57.37592988770355
 20
27.48081373708288
 30
0.0
 11
57.37592988770355
 21
27.08081373708287
 31
0.0
  0
LINE
  5
301
330
1E
100
AcDbEntity
  8
OBJECT
100
AcDbLine
 10
57.32592988770353
 20
27.08081373708287
 30
0.0
 11
57.37592988770355
 21
27.08081373708287
 31
0.0
  0
LINE
  5
302
330
1E
100
AcDbEntity
  8
OBJECT
100
AcDbLine
 10
57.32592988770353
 20
27.48081373708288
 30
0.0
 11
57.37592988770355
 21
27.48081373708288
 31
0.0
  0
LINE
  5
303
330
1E
100
AcDbEntity
  8
OBJECT
100
AcDbLine
 10
57.32592988770353
 20
30.43071923208286
 30
0.0
 11
57.37592988770355
 21
30.43071923208286
 31
0.0
  0
LINE
  5
304
330
1E
100
AcDbEntity
  8
OBJECT
100
AcDbLine
 10
57.37592988770355
 20
30.88071923208285
 30
0.0
 11
57.37592988770355
 21
30.43071923208286
 31
0.0
  0
LINE
  5
305
330
1E
100
AcDbEntity
  8
OBJECT
100
AcDbLine
 10
57.32592988770353
 20
30.88071923208285
 30
0.0
 11
57.37592988770355
 21
30.88071923208285
 31
0.0
  0
LINE
  5
306
330
1E
100
AcDbEntity
  8
OBJECT
100
AcDbLine
 10
57.32592988770353
 20
30.89521529183291
 30
0.0
 11
57.40592988770353
 21
30.89521529183291
 31
0.0
  0
LINE
  5
307
330
1E
100
AcDbEntity
  8
OBJECT
100
AcDbLine
 10
57.32592988770353
 20
31.47921529183291
 30
0.0
 11
57.40592988770353
 21
31.47921529183291
 31
0.0
  0
LINE
  5
308
330
1E
100
AcDbEntity
  8
OBJECT
100
AcDbLine
 10
57.40592988770353
 20
31.47921529183291
 30
0.0
 11
57.40592988770353
 21
30.89521529183291
 31
0.0
  0
TEXT
  5
309
330
1E
100
AcDbEntity
  8
TEXT
100
AcDbText
 10
73.94639005782157
 20
1.569915110217067
 30
0.0
 40
0.625
  1
14.965
 41
0.75
  7
TXT
 72
     1
 11
75.04014005782157
 21
1.569915110217067
 31
0.0
100
AcDbText
  0
TEXT
  5
30A
330
1E
100
AcDbEntity
  8
TEXT
100
AcDbText
 10
74.14170255782157
 20
0.5580401102170641
 30
0.0
 40
0.625
  1
[380]
 41
0.75
  7
TXT
 72
     1
 11
75.04014005782157
 21
0.5580401102170641
 31
0.0
100
AcDbText
  0
TEXT
  5
30B
330
1E
100
AcDbEntity
  8
TEXT
100
AcDbText
 10
40.57468183568168
 20
1.569915110217067
 30
0.0
 40
0.625
  1
3.375
 41
0.75
  7
TXT
 72
     1
 11
41.51218183568168
 21
1.569915110217067
 31
0.0
100
AcDbText
  0
TEXT
  5
30C
330
1E
100
AcDbEntity
  8
TEXT
100
AcDbText
 10
40.80905683568168
 20
0.5580401102170641
 30
0.0
 40
0.625
  1
[86]
 41
0.75
  7
TXT
 72
     1
 11
41.51218183568168
 21
0.5580401102170641
 31
0.0
100
AcDbText
  0
TEXT
  5
30D
330
1E
100
AcDbEntity
  8
TEXT
100
AcDbText
 10
23.78135428835516
 20
1.569915110217067
 30
0.0
 40
0.625
  1
12.900
 41
0.75
  7
TXT
 72
     1
 11
24.79697928835516
 21
1.569915110217067
 31
0.0
100
AcDbText
  0
TEXT
  5
30E
330
1E
100
AcDbEntity
  8
TEXT
100
AcDbText
 10
23.85947928835516
 20
0.5580401102170641
 30
0.0
 40
0.625
  1
[328]
 41
0.75
  7
TXT
 72
     1
 11
24.79697928835516
 21
0.5580401102170641
 31
0.0
100
AcDbText
  0
TEXT
  5
30F
330
1E
100
AcDbEntity
  8
TEXT
100
AcDbText
 10
15.53521958981979
 20
1.569915110217067
 30
0.0
 40
0.625
  1
14.905
 41
0.75
  7
TXT
 72
     1
 11
16.58990708981979
 21
1.569915110217067
 31
0.0
100
AcDbText
  0
TEXT
  5
310
330
1E
100
AcDbEntity
  8
TEXT
100
AcDbText
 10
11.1853989787531
 20
1.569915110217067
 30
0.0
 40
0.625
  1
15.742
 41
0.75
  7
TXT
 72
     1
 11
12.2791489787531
 21
1.569915110217067
 31
0.0
100
AcDbText
  0
TEXT
  5
311
330
1E
100
AcDbEntity
  8
TEXT
100
AcDbText
 10
11.4197739787531
 20
0.5580401102170641
 30
0.0
 40
0.625
  1
[400]
 41
0.75
  7
TXT
 72
     1
 11
12.2791489787531
 21
0.5580401102170641
 31
0.0
100
AcDbText
  0
TEXT
  5
312
330
1E
100
AcDbEntity
  8
TEXT
100
AcDbText
 10
15.65240708981979
 20
0.5580401102170641
 30
0.0
 40
0.625
  1
[379]
 41
0.75
  7
TXT
 72
     1
 11
16.58990708981979
 21
0.5580401102170641
 31
0.0
100
AcDbText
  0
TEXT
  5
313
330
1E
100
AcDbEntity
  8
TEXT
100
AcDbText
 10
19.55824851883066
 20
1.569915110217067
 30
0.0
 40
0.625
  1
13.859
 41
0.75
  7
TXT
 72
     1
 11
20.65199851883066
 21
1.569915110217067
 31
0.0
100
AcDbText
  0
TEXT
  5
314
330
1E
100
AcDbEntity
  8
TEXT
100
AcDbText
 10
19.71449851883066
 20
0.5580401102170641
 30
0.0
 40
0.625
  1
[352]
 41
0.75
  7
TXT
 72
     1
 11
20.65199851883066
 21
0.5580401102170641
 31
0.0
100
AcDbText
  0
TEXT
  5
315
330
1E
100
AcDbEntity
  8
TEXT
100
AcDbText
 10
32.02070907630823
 20
1.569915110217067
 30
0.0
 40
0.625
  1
18.852
 41
0.75
  7
TXT
 72
     1
 11
33.11445907630823
 21
1.569915110217067
 31
0.0
100
AcDbText
  0
TEXT
  5
316
330
1E
100
AcDbEntity
  8
TEXT
100
AcDbText
 10
32.17695907630823
 20
0.5580401102170641
 30
0.0
 40
0.625
  1
[479]
 41
0.75
  7
TXT
 72
     1
 11
33.11445907630823
 21
0.5580401102170641
 31
0.0
100
AcDbText
  0
TEXT
  5
317
330
1E
100
AcDbEntity
  8
TEXT
100
AcDbText
 10
27.79306091256684
 20
1.569915110217067
 30
0.0
 40
0.625
  1
19.682
 41
0.75
  7
TXT
 72
     1
 11
28.88681091256684
 21
1.569915110217067
 31
0.0
100
AcDbText
  0
TEXT
  5
318
330
1E
100
AcDbEntity
  8
TEXT
100
AcDbText
 10
28.02743591256684
 20
0.5580401102170641
 30
0.0
 40
0.625
  1
[500]
 41
0.75
  7
TXT
 72
     1
 11
28.88681091256684
 21
0.5580401102170641
 31
0.0
100
AcDbText
  0
TEXT
  5
319
330
1E
100
AcDbEntity
  8
TEXT
100
AcDbText
 10
36.2265152323114
 20
1.569915110217067
 30
0.0
 40
0.625
  1
17.796
 41
0.75
  7
TXT
 72
     1
 11
37.3202652323114
 21
1.569915110217067
 31
0.0
100
AcDbText
  0
TEXT
  5
31A
330
1E
100
AcDbEntity
  8
TEXT
100
AcDbText
 10
36.3827652323114
 20
0.5580401102170641
 30
0.0
 40
0.625
  1
[452]
 41
0.75
  7
TXT
 72
     1
 11
37.3202652323114
 21
0.5580401102170641
 31
0.0
100
AcDbText
  0
TEXT
  5
31B
330
1E
100
AcDbEntity
  8
TEXT
100
AcDbText
 10
57.50181008274747
 20
1.569915110217067
 30
0.0
 40
0.625
  1
1.185
 41
0.75
  7
TXT
 72
     1
 11
58.28306008274747
 21
1.569915110217067
 31
0.0
100
AcDbText
  0
TEXT
  5
31C
330
1E
100
AcDbEntity
  8
TEXT
100
AcDbText
 10
57.61899758274747
 20
0.5580401102170641
 30
0.0
 40
0.625
  1
[30]
 41
0.75
  7
TXT
 72
     1
 11
58.28306008274747
 21
0.5580401102170641
 31
0.0
100
AcDbText
  0
TEXT
  5
31D
330
1E
100
AcDbEntity
  8
TEXT
100
AcDbText
 10
44.86417332727099
 20
0.5580401102170641
 30
0.0
 40
0.625
  1
[171]
 41
0.75
  7
TXT
 72
     1
 11
45.64542332727099
 21
0.5580401102170641
 31
0.0
100
AcDbText
  0
TEXT
  5
31E
330
1E
100
AcDbEntity
  8
TEXT
100
AcDbText
 10
44.70792332727099
 20
1.569915110217067
 30
0.0
 40
0.625
  1
6.734
 41
0.75
  7
TXT
 72
     1
 11
45.64542332727099
 21
1.569915110217067
 31
0.0
100
AcDbText
  0
TEXT
  5
31F
330
1E
100
AcDbEntity
  8
TEXT
100
AcDbText
 10
53.11012542131628
 20
1.569915110217067
 30
0.0
 40
0.625
  1
6.688
 41
0.75
  7
TXT
 72
     1
 11
54.04762542131628
 21
1.569915110217067
 31
0.0
100
AcDbText
  0
TEXT
  5
320
330
1E
100
AcDbEntity
  8
TEXT
100
AcDbText
 10
53.22731292131628
 20
0.5580401102170641
 30
0.0
 40
0.625
  1
[170]
 41
0.75
  7
TXT
 72
     1
 11
54.04762542131628
 21
0.5580401102170641
 31
0.0
100
AcDbText
  0
TEXT
  5
321
330
1E
100
AcDbEntity
  8
TEXT
100
AcDbText
 10
65.62256741582736
 20
1.569915110217067
 30
0.0
 40
0.625
  1
18.905
 41
0.75
  7
TXT
 72
     1
 11
66.67725491582736
 21
1.569915110217067
 31
0.0
100
AcDbText
  0
TEXT
  5
322
330
1E
100
AcDbEntity
  8
TEXT
100
AcDbText
 10
65.77881741582736
 20
0.5580401102170641
 30
0.0
 40
0.625
  1
[480]
 41
0.75
  7
TXT
 72
     1
 11
66.67725491582736
 21
0.5580401102170641
 31
0.0
100
AcDbText
  0
TEXT
  5
323
330
1E
100
AcDbEntity
  8
TEXT
100
AcDbText
 10
61.40041587177352
 20
1.569915110217067
 30
0.0
 40
0.625
  1
19.065
 41
0.75
  7
TXT
 72
     1
 11
62.45510337177352
 21
1.569915110217067
 31
0.0
100
AcDbText
  0
TEXT
  5
324
330
1E
100
AcDbEntity
  8
TEXT
100
AcDbText
 10
61.51760337177352
 20
0.5580401102170641
 30
0.0
 40
0.625
  1
[484]
 41
0.75
  7
TXT
 72
     1
 11
62.45510337177352
 21
0.5580401102170641
 31
0.0
100
AcDbText
  0
TEXT
  5
325
330
1E
100
AcDbEntity
  8
TEXT
100
AcDbText
 10
69.99185601074464
 20
1.569915110217067
 30
0.0
 40
0.625
  1
15.120
 41
0.75
  7
TXT
 72
     1
 11
70.96841851074464
 21
1.569915110217067
 31
0.0
100
AcDbText
  0
TEXT
  5
326
330
1E
100
AcDbEntity
  8
TEXT
100
AcDbText
 10
70.03091851074464
 20
0.5580401102170641
 30
0.0
 40
0.625
  1
[384]
 41
0.75
  7
TXT
 72
     1
 11
70.96841851074464
 21
0.5580401102170641
 31
0.0
100
AcDbText
  0
DIMENSION
  5
327
330
1E
100
AcDbEntity
  8
DIM
100
AcDbDimension
  2
*D23
 10
25.98535823412353
 20
23.97844370433285
 30
0.0
 11
25.98535823412353
 21
22.29094370433286
 31
0.0
 70
    32
  1
H
 71
     5
 42
3.375
  3
23NSTD
100
AcDbAlignedDimension
 13
22.01665604931231
 23
20.60344370433285
 33
0.0
 14
22.01665604931231
 24
23.97844370433286
 34
0.0
 50
90.0
100
AcDbRotatedDimension
  0
TEXT
  5
328
330
1E
100
AcDbEntity
  8
TEXT
100
AcDbText
 10
48.82576107909891
 20
1.569915110217067
 30
0.0
 40
0.625
  1
16.843
 41
0.75
  7
TXT
 72
     1
 11
49.91951107909891
 21
1.569915110217067
 31
0.0
100
AcDbText
  0
TEXT
  5
329
330
1E
100
AcDbEntity
  8
TEXT
100
AcDbText
 10
48.98201107909891
 20
0.5580401102170641
 30
0.0
 40
0.625
  1
[428]
 41
0.75
  7
TXT
 72
     1
 11
49.91951107909891
 21
0.5580401102170641
 31
0.0
100
AcDbText
  0
CIRCLE
  5
32A
330
1E
100
AcDbEntity
  8
OBJECT
100
AcDbCircle
 10
9.116656049312311
 20
23.97844370433286
 30
0.0
 40
0.09842519625
  0
CIRCLE
  5
32B
330
1E
100
AcDbEntity
  8
OBJECT
100
AcDbCircle
 10
9.116656049312311
 20
23.97844370433286
 30
0.0
 40
0.29527558875
  0
CIRCLE
  5
32C
330
1E
100
AcDbEntity
  8
OBJECT
100
AcDbCircle
 10
9.116656049312311
 20
27.33744370433285
 30
0.0
 40
0.29527558875
  0
CIRCLE
  5
32D
330
1E
100
AcDbEntity
  8
OBJECT
100
AcDbCircle
 10
9.116656049312311
 20
27.33744370433285
 30
0.0
 40
0.09842519625
  0
CIRCLE
  5
32E
330
1E
100
AcDbEntity
  8
OBJECT
100
AcDbCircle
 10
9.116656049312318
 20
17.24444370433286
 30
0.0
 40
0.29527558875
  0
CIRCLE
  5
32F
330
1E
100
AcDbEntity
  8
OBJECT
100
AcDbCircle
 10
9.116656049312318
 20
17.24444370433286
 30
0.0
 40
0.09842519625
  0
CIRCLE
  5
330
330
1E
100
AcDbEntity
  8
OBJECT
100
AcDbCircle
 10
9.116656049312318
 20
20.60344370433285
 30
0.0
 40
0.09842519625
  0
CIRCLE
  5
331
330
1E
100
AcDbEntity
  8
OBJECT
100
AcDbCircle
 10
9.116656049312318
 20
20.60344370433285
 30
0.0
 40
0.29527558875
  0
LINE
  5
332
330
1E
100
AcDbEntity
  8
OBJECT
100
AcDbLine
 10
57.37592988770355
 20
20.79997916658283
 30
0.0
 11
57.37592988770355
 21
20.39997916658282
 31
0.0
  0
LINE
  5
333
330
1E
100
AcDbEntity
  8
OBJECT
100
AcDbLine
 10
57.32592988770353
 20
20.39997916658282
 30
0.0
 11
57.37592988770355
 21
20.39997916658282
 31
0.0
  0
LINE
  5
334
330
1E
100
AcDbEntity
  8
OBJECT
100
AcDbLine
 10
57.32592988770353
 20
20.79997916658283
 30
0.0
 11
57.37592988770355
 21
20.79997916658283
 31
0.0
  0
LINE
  5
335
330
1E
100
AcDbEntity
  8
TITLE
100
AcDbLine
 10
10.17857320146987
 20
0.3100000000000023
 30
0.0
 11
10.17857320146987
 21
5.535000000000025
 31
0.0
  0
LINE
  5
336
330
1E
100
AcDbEntity
  8
TITLE
100
AcDbLine
 10
14.36657320146987
 20
0.3100000000000023
 30
0.0
 11
14.36657320146987
 21
3.444999999999993
 31
0.0
  0
LINE
  5
337
330
1E
100
AcDbEntity
  8
TITLE
100
AcDbLine
 10
18.55457320146987
 20
0.3100000000000023
 30
0.0
 11
18.55457320146986
 21
3.444999999999993
 31
0.0
  0
LINE
  5
338
330
1E
100
AcDbEntity
  8
TITLE
100
AcDbLine
 10
22.74257320146986
 20
0.3100000000000023
 30
0.0
 11
22.74257320146986
 21
3.444999999999993
 31
0.0
  0
LINE
  5
339
330
1E
100
AcDbEntity
  8
TITLE
100
AcDbLine
 10
26.93057320146987
 20
0.3100000000000023
 30
0.0
 11
26.93057320146985
 21
3.444999999999993
 31
0.0
  0
LINE
  5
33A
330
1E
100
AcDbEntity
  8
TITLE
100
AcDbLine
 10
31.11857320146987
 20
0.3100000000000023
 30
0.0
 11
31.11857320146985
 21
3.444999999999993
 31
0.0
  0
LINE
  5
33B
330
1E
100
AcDbEntity
  8
TITLE
100
AcDbLine
 10
35.30657320146987
 20
0.3100000000000023
 30
0.0
 11
35.30657320146987
 21
3.444999999999993
 31
0.0
  0
LINE
  5
33C
330
1E
100
AcDbEntity
  8
TITLE
100
AcDbLine
 10
39.49457320146987
 20
0.3100000000000023
 30
0.0
 11
39.49457320146987
 21
3.444999999999993
 31
0.0
  0
LINE
  5
33D
330
1E
100
AcDbEntity
  8
TITLE
100
AcDbLine
 10
43.68257320146986
 20
0.3100000000000023
 30
0.0
 11
43.68257320146986
 21
3.444999999999993
 31
0.0
  0
LINE
  5
33E
330
1E
100
AcDbEntity
  8
TITLE
100
AcDbLine
 10
47.87057320146987
 20
0.3100000000000023
 30
0.0
 11
47.87057320146987
 21
3.444999999999993
 31
0.0
  0
LINE
  5
33F
330
1E
100
AcDbEntity
  8
TITLE
100
AcDbLine
 10
52.05857320146987
 20
0.3100000000000023
 30
0.0
 11
52.05857320146986
 21
3.444999999999993
 31
0.0
  0
LINE
  5
340
330
1E
100
AcDbEntity
  8
TITLE
100
AcDbLine
 10
56.24657320146987
 20
0.3100000000000023
 30
0.0
 11
56.24657320146986
 21
3.444999999999993
 31
0.0
  0
LINE
  5
341
330
1E
100
AcDbEntity
  8
TITLE
100
AcDbLine
 10
60.43457320146988
 20
0.3100000000000023
 30
0.0
 11
60.43457320146988
 21
3.444999999999993
 31
0.0
  0
LINE
  5
342
330
1E
100
AcDbEntity
  8
TITLE
100
AcDbLine
 10
64.62257320146986
 20
0.3100000000000023
 30
0.0
 11
64.62257320146986
 21
3.444999999999993
 31
0.0
  0
LINE
  5
343
330
1E
100
AcDbEntity
  8
TITLE
100
AcDbLine
 10
68.81057320146988
 20
0.3100000000000023
 30
0.0
 11
68.81057320146988
 21
3.444999999999993
 31
0.0
  0
LINE
  5
344
330
1E
100
AcDbEntity
  8
TITLE
100
AcDbLine
 10
72.99857320146987
 20
0.3100000000000023
 30
0.0
 11
72.99857320146985
 21
3.444999999999993
 31
0.0
  0
LWPOLYLINE
  5
345
330
1E
100
AcDbEntity
  8
DIM
100
AcDbPolyline
 90
        4
 70
     0
 10
21.85138238283185
 20
13.62475555897276
 40
0.0
 41
0.3375
 10
21.3338522286792
 20
12.94843868456152
 40
0.0
 41
0.0
 10
19.65491090198017
 20
10.56313547343921
 40
0.0
 41
0.0
 10
21.04253025277238
 20
10.56313547343921
 40
0.0
 41
0.0
  0
TEXT
  5
34B
330
1E
100
AcDbEntity
  8
DIM
100
AcDbText
 10
21.48553753953302
 20
10.25063547343921
 30
0.0
 40
0.625
  1
0.590 [15] DIA. BOSS WITH
 41
0.75
  7
TXT
 11
21.48553753953302
 21
10.56313547343921
 31
0.0
100
AcDbText
 73
     2
  0
TEXT
  5
34C
330
1E
100
AcDbEntity
  8
DIM
100
AcDbText
 10
21.48553753953302
 20
9.208968806772588
 30
0.0
 40
0.625
  1
M5 x 0.8mm THREADED BRASS INSERT
 41
0.75
  7
TXT
 11
21.48553753953302
 21
9.521468806772588
 31
0.0
100
AcDbText
 73
     2
  0
LWPOLYLINE
  5
34D
330
1E
100
AcDbEntity
  8
DIM
100
AcDbPolyline
 90
        3
 70
     0
 10
22.3456082616391
 20
13.13925026013945
 40
0.0
 41
0.3375
 10
21.69552081658497
 20
12.51684660190551
 40
0.0
 41
0.0
 10
19.65491090198017
 20
10.56313547343921
 40
0.0
 41
0.0
  0
TEXT
  5
35C
330
1E
100
AcDbEntity
  8
DIM
100
AcDbText
 10
21.46734592350425
 20
8.167302140105903
 30
0.0
 40
0.625
  1
(4) PL'S INSIDE AS SHOWN - AND -
 41
0.75
  7
TXT
 72
     2
 11
35.60797092350425
 21
8.479802140105903
 31
0.0
100
AcDbText
 73
     2
  0
TEXT
  5
35D
330
1E
100
AcDbEntity
  8
DIM
100
AcDbText
 10
21.46502858258558
 20
6.09776071965399
 30
0.0
 40
0.625
  1
LOCATION DIMENSIONS "C" AND "G")
 41
0.75
  7
TXT
 11
21.46502858258558
 21
6.41026071965399
 31
0.0
100
AcDbText
 73
     2
  0
TEXT
  5
35E
330
1E
100
AcDbEntity
  8
DIM
100
AcDbText
 10
21.46502858258558
 20
7.109635719653965
 30
0.0
 40
0.625
  1
(6) PL'S OUTSIDE (REFERENCE
 41
0.75
  7
TXT
 11
21.46502858258558
 21
7.422135719653965
 31
0.0
100
AcDbText
 73
     2
  0
TEXT
  5
35F
330
1E
100
AcDbEntity
  8
TEXT
100
AcDbText
 10
11.62453323851194
 20
6.110027620589093
 30
0.0
 40
0.625
  1
%%UVIEW LESS COVER
 41
0.75
  7
TXT
 72
     1
 11
15.22609573851194
 21
6.110027620589093
 31
0.0
100
AcDbText
  0
LINE
  5
360
330
1E
100
AcDbEntity
  8
TITLE
100
AcDbLine
 10
10.17857320146987
 20
1.389000000000005
 30
0.0
 11
77.19
 21
1.389000000000005
 31
0.0
  0
LWPOLYLINE
  5
361
330
1E
100
AcDbEntity
  8
BEND
100
AcDbPolyline
 90
       10
 70
     0
 43
0.0
 10
57.89455394101448
 20
19.99820325642895
 10
55.60753760224575
 20
19.99820325642895
 10
55.50321652152511
 20
20.19463622815932
 10
55.33630188119137
 20
19.76359109930294
 10
55.21111703991697
 20
19.99820325642895
 10
51.7311556182404
 20
19.99820325642895
 10
51.62683453751977
 20
20.19463622815932
 10
51.45991989718602
 20
19.76359109930294
 10
51.33473505591162
 20
19.99820325642895
 10
49.08921406791005
 20
19.99820325642895
  0
LWPOLYLINE
  5
36D
330
1E
100
AcDbEntity
  8
OBJECT
100
AcDbPolyline
 90
        4
 70
     0
 43
0.0
 10
50.71828426620351
 20
12.77294370433285
 10
50.51828426620352
 20
12.77294370433285
 10
50.51828426620352
 20
12.57694370433285
 10
50.71828426620351
 20
12.57694370433285
  0
LWPOLYLINE
  5
373
330
1E
100
AcDbEntity
  8
OBJECT
100
AcDbPolyline
 90
        4
 70
     0
 43
0.0
 10
50.71828426620351
 20
12.72538078233289
 10
50.64965926620354
 20
12.72538078233289
 42
1.0
 10
50.64965926620354
 20
12.64663078233287
 10
50.71828426620351
 20
12.64663078233287
  0
LWPOLYLINE
  5
379
330
1E
100
AcDbEntity
  8
OBJECT
100
AcDbPolyline
 90
        8
 70
     0
 43
0.0
 10
29.56809047448994
 20
36.02797053089073
 10
29.56809047448995
 20
35.71199598416773
 10
29.86075977206826
 20
35.71199598416773
 10
29.86075977206826
 20
35.21199598416773
 10
29.79115044658387
 20
35.21199598416773
 10
29.79115044658387
 20
35.63797053089074
 10
29.49809047448995
 20
35.63797053089074
 10
29.49809047448995
 20
35.88598461609633
  0
LWPOLYLINE
  5
383
330
1E
100
AcDbEntity
  8
OBJECT
100
AcDbPolyline
 90
        9
 70
     0
 43
0.0
 10
29.49809047448995
 20
36.16995644568511
 42
4.289848867954715
 10
29.56809047448994
 20
36.02797053089072
 10
29.56809047448995
 20
36.34797053089075
 10
29.90009047448994
 20
36.34797053089075
 10
29.90009047448994
 20
36.84797053089075
 10
29.83046447387501
 20
36.84797053089075
 10
29.83046447387501
 20
36.41797053089074
 10
29.49809047448995
 20
36.41797053089074
 10
29.49809047448995
 20
36.02797053089072
  0
LWPOLYLINE
  5
38E
330
1E
100
AcDbEntity
  8
OBJECT
100
AcDbPolyline
 90
       10
 70
     0
 43
0.0
 10
45.01816124649001
 20
36.30356108039073
 10
45.01816124649003
 20
37.61656108039074
 10
45.41616124649003
 20
37.61656108039074
 10
45.41616124649003
 20
37.68656108039073
 10
45.59323503789333
 20
37.8975894074499
 10
45.64685814891167
 20
37.85259427477184
 10
45.48616124649003
 20
37.66108316399209
 10
45.48616124649003
 20
36.67856108039073
 42
-0.4142135623730951
 10
45.23616124649002
 20
36.42856108039073
 10
45.01816124649001
 20
36.42856108039075
  0
LWPOLYLINE
  5
39A
330
1E
100
AcDbEntity
  8
OBJECT
100
AcDbPolyline
 90
        4
 70
     0
 43
0.0
 10
45.27478978213518
 20
35.49865433448782
 10
45.54547970857355
 20
35.8524313124365
 10
45.44951060053217
 20
36.56942612180974
 10
45.18579088661865
 20
36.90051640077658
  0
LWPOLYLINE
  5
3A0
330
1E
100
AcDbEntity
  8
OBJECT
100
AcDbPolyline
 90
        4
 70
     0
 43
0.0
 10
45.1005316063614
 20
36.83260576000489
 10
45.34547270772778
 20
36.52509132970932
 10
45.43144677922386
 20
35.88277043852403
 10
45.1882230344829
 20
35.56489026281157
  0
CIRCLE
  5
3A6
330
1E
100
AcDbEntity
  8
OBJECT
100
AcDbCircle
 10
45.14316124649001
 20
36.86656108039073
 30
0.0
 40
0.0625
  0
CIRCLE
  5
3A7
330
1E
100
AcDbEntity
  8
OBJECT
100
AcDbCircle
 10
45.14316124649001
 20
36.86656108039073
 30
0.0
 40
0.0545000000000044
  0
LWPOLYLINE
  5
3A8
330
1E
100
AcDbEntity
  8
OBJECT
100
AcDbPolyline
 90
        8
 70
     1
 43
0.0
 10
45.11053624649001
 20
35.08793608039074
 10
45.11053624649001
 20
35.58793608039074
 42
-0.817231121209579
 10
45.24882587134335
 20
35.61603742620917
 10
45.32173971708409
 20
35.44403742620918
 10
45.37053624649003
 20
35.4647231391033
 10
45.29762240074926
 20
35.63672313910328
 42
0.8172311212095785
 10
45.05753624649002
 20
35.58793608039074
 10
45.05753624649002
 20
35.08793608039074
  0
CIRCLE
  5
3B2
330
1E
100
AcDbEntity
  8
OBJECT
100
AcDbCircle
 10
45.23150640830901
 20
35.53177229864971
 30
0.0
 40
0.0545000000000044
  0
LINE
  5
3B3
330
1E
100
AcDbEntity
  8
OBJECT
100
AcDbLine
 10
45.05753624649002
 20
35.16293608039075
 30
0.0
 11
45.11053624649001
 21
35.16293608039075
 31
0.0
  0
LINE
  5
3B4
330
1E
100
AcDbEntity
  8
OBJECT
100
AcDbLine
 10
45.11053624649001
 20
35.33293608039075
 30
0.0
 11
45.05753624649002
 21
35.33293608039075
 31
0.0
  0
LINE
  5
3B5
330
1E
100
AcDbEntity
  8
OBJECT
100
AcDbLine
 10
45.11053624649001
 20
35.40793608039075
 30
0.0
 11
45.05753624649002
 21
35.40793608039075
 31
0.0
  0
LWPOLYLINE
  5
3B6
330
1E
100
AcDbEntity
  8
OBJECT
100
AcDbPolyline
 90
        4
 70
     0
 43
0.0
 10
23.01915604931231
 20
22.03394370433286
 10
23.07821116706226
 20
21.97488858658285
 10
23.07821116706226
 20
22.60699882208287
 10
23.01915604931231
 20
22.54794370433286
  0
LWPOLYLINE
  5
3BC
330
1E
100
AcDbEntity
  8
OBJECT
100
AcDbPolyline
 90
        4
 70
     0
 43
0.0
 10
23.01915604931231
 20
30.31794370433285
 10
23.07821116706226
 20
30.25888858658285
 10
23.07821116706226
 20
30.89099882208286
 10
23.01915604931231
 20
30.83194370433286
  0
LWPOLYLINE
  5
3C2
330
1E
100
AcDbEntity
  8
OBJECT
100
AcDbPolyline
 90
        4
 70
     0
 43
0.0
 10
23.01915604931231
 20
13.74994370433286
 10
23.07821116706226
 20
13.69088858658285
 10
23.07821116706226
 20
14.32299882208287
 10
23.01915604931231
 20
14.26394370433286
  0
LWPOLYLINE
  5
3C8
330
1E
100
AcDbEntity
  8
OBJECT
100
AcDbPolyline
 90
        4
 70
     0
 43
0.0
 10
8.114156049312313
 20
22.03394370433286
 10
8.055100931562364
 20
21.97488858658285
 10
8.055100931562364
 20
22.60699882208287
 10
8.114156049312313
 20
22.54794370433286
  0
LWPOLYLINE
  5
3CE
330
1E
100
AcDbEntity
  8
OBJECT
100
AcDbPolyline
 90
        4
 70
     0
 43
0.0
 10
8.114156049312313
 20
30.31794370433285
 10
8.055100931562364
 20
30.25888858658285
 10
8.055100931562364
 20
30.89099882208286
 10
8.114156049312313
 20
30.83194370433286
  0
LWPOLYLINE
  5
3D4
330
1E
100
AcDbEntity
  8
OBJECT
100
AcDbPolyline
 90
        4
 70
     0
 43
0.0
 10
8.114156049312313
 20
13.74994370433286
 10
8.055100931562364
 20
13.69088858658285
 10
8.055100931562364
 20
14.32299882208287
 10
8.114156049312313
 20
14.26394370433286
  0
LWPOLYLINE
  5
3DA
330
1E
100
AcDbEntity
  8
OBJECT
100
AcDbPolyline
 90
        4
 70
     0
 43
0.0
 10
15.82365604931231
 20
12.86494370433286
 10
15.88271116706232
 20
12.80588858658291
 10
15.2506009315623
 20
12.80588858658291
 10
15.30965604931231
 20
12.86494370433286
  0
LWPOLYLINE
  5
3E0
330
1E
100
AcDbEntity
  8
OBJECT
100
AcDbPolyline
 90
        4
 70
     0
 43
0.0
 10
15.82365604931231
 20
31.71694370433286
 10
15.88271116706232
 20
31.77599882208281
 10
15.2506009315623
 20
31.77599882208281
 10
15.30965604931231
 20
31.71694370433286
  0
LINE
  5
3E6
330
1E
100
AcDbEntity
  8
OBJECT
100
AcDbLine
 10
29.24908555298994
 20
14.79144370433285
 30
0.0
 11
29.24908555298994
 21
16.07244370433285
 31
0.0
  0
LINE
  5
3E7
330
1E
100
AcDbEntity
  8
OBJECT
100
AcDbLine
 10
29.60708555298994
 20
14.79144370433285
 30
0.0
 11
29.60708555298994
 21
16.07244370433284
 31
0.0
  0
LINE
  5
3E8
330
1E
100
AcDbEntity
  8
OBJECT
100
AcDbLine
 10
29.83014552508386
 20
14.79144370433285
 30
0.0
 11
29.83014552508386
 21
16.07244370433285
 31
0.0
  0
LINE
  5
3E9
330
1E
100
AcDbEntity
  8
OBJECT
100
AcDbLine
 10
29.90014552508388
 20
14.79144370433285
 30
0.0
 11
29.90014552508388
 21
16.07244370433285
 31
0.0
  0
LINE
  5
3EA
330
1E
100
AcDbEntity
  8
OBJECT
100
AcDbLine
 10
29.90014552508388
 20
14.79144370433285
 30
0.0
 11
29.24908555298994
 21
14.79144370433285
 31
0.0
  0
LINE
  5
3EB
330
1E
100
AcDbEntity
  8
OBJECT
100
AcDbLine
 10
29.60708555298994
 20
15.10344370433284
 30
0.0
 11
29.24908555298994
 21
15.10344370433284
 31
0.0
  0
LINE
  5
3EC
330
1E
100
AcDbEntity
  8
OBJECT
100
AcDbLine
 10
29.90014552508388
 20
16.07244370433285
 30
0.0
 11
29.24908555298994
 21
16.07244370433285
 31
0.0
  0
LINE
  5
3ED
330
1E
100
AcDbEntity
  8
OBJECT
100
AcDbLine
 10
29.60708555298994
 20
15.76044370433284
 30
0.0
 11
29.24908555298994
 21
15.76044370433284
 31
0.0
  0
LINE
  5
3EE
330
1E
100
AcDbEntity
  8
OBJECT
100
AcDbLine
 10
29.90014552508386
 20
29.79044370433285
 30
0.0
 11
29.90014552508386
 21
28.50944370433285
 31
0.0
  0
LINE
  5
3EF
330
1E
100
AcDbEntity
  8
OBJECT
100
AcDbLine
 10
29.83014552508383
 20
29.79044370433285
 30
0.0
 11
29.83014552508383
 21
28.50944370433285
 31
0.0
  0
LINE
  5
3F0
330
1E
100
AcDbEntity
  8
OBJECT
100
AcDbLine
 10
29.60708555298991
 20
29.79044370433285
 30
0.0
 11
29.60708555298991
 21
28.50944370433285
 31
0.0
  0
LINE
  5
3F1
330
1E
100
AcDbEntity
  8
OBJECT
100
AcDbLine
 10
29.24908555298991
 20
29.79044370433285
 30
0.0
 11
29.24908555298991
 21
28.50944370433285
 31
0.0
  0
LINE
  5
3F2
330
1E
100
AcDbEntity
  8
OBJECT
100
AcDbLine
 10
29.90014552508386
 20
28.50944370433285
 30
0.0
 11
29.24908555298991
 21
28.50944370433285
 31
0.0
  0
LINE
  5
3F3
330
1E
100
AcDbEntity
  8
OBJECT
100
AcDbLine
 10
29.60708555298991
 20
28.82144370433286
 30
0.0
 11
29.24908555298991
 21
28.82144370433286
 31
0.0
  0
LINE
  5
3F4
330
1E
100
AcDbEntity
  8
OBJECT
100
AcDbLine
 10
29.90014552508386
 20
29.79044370433285
 30
0.0
 11
29.24908555298991
 21
29.79044370433285
 31
0.0
  0
LINE
  5
3F5
330
1E
100
AcDbEntity
  8
OBJECT
100
AcDbLine
 10
29.60708555298991
 20
29.47844370433285
 30
0.0
 11
29.24908555298991
 21
29.47844370433285
 31
0.0
  0
LINE
  5
3F6
330
1E
100
AcDbEntity
  8
OBJECT
100
AcDbLine
 10
45.48612679598991
 20
14.99094258716253
 30
0.0
 11
45.48612679598991
 21
15.67894258716254
 31
0.0
  0
LINE
  5
3F7
330
1E
100
AcDbEntity
  8
OBJECT
100
AcDbLine
 10
45.64682369841153
 20
15.05344258716253
 30
0.0
 11
45.64682369841153
 21
15.61644258716254
 31
0.0
  0
LINE
  5
3F8
330
1E
100
AcDbEntity
  8
OBJECT
100
AcDbLine
 10
45.0575017959899
 20
15.83494258716253
 30
0.0
 11
45.0575017959899
 21
14.83494258716253
 31
0.0
  0
LINE
  5
3F9
330
1E
100
AcDbEntity
  8
OBJECT
100
AcDbLine
 10
45.11050179598993
 20
14.83494258716253
 30
0.0
 11
45.1105017959899
 21
15.83494258716253
 31
0.0
  0
LINE
  5
3FA
330
1E
100
AcDbEntity
  8
OBJECT
100
AcDbLine
 10
45.37050179598992
 20
14.92044258716254
 30
0.0
 11
45.37050179598992
 21
15.74944258716253
 31
0.0
  0
LINE
  5
3FB
330
1E
100
AcDbEntity
  8
OBJECT
100
AcDbLine
 10
45.32170526658399
 20
14.92044258716254
 30
0.0
 11
45.32170526658399
 21
15.74944258716253
 31
0.0
  0
LINE
  5
3FC
330
1E
100
AcDbEntity
  8
OBJECT
100
AcDbLine
 10
45.21270246624669
 20
15.74094258899394
 30
0.0
 11
45.21270526662948
 21
14.92894258899338
 31
0.0
  0
LINE
  5
3FD
330
1E
100
AcDbEntity
  8
OBJECT
100
AcDbLine
 10
45.49094525807342
 20
14.81144258716253
 30
0.0
 11
45.2967977655417
 21
14.81144258716253
 31
0.0
  0
LINE
  5
3FE
330
1E
100
AcDbEntity
  8
OBJECT
100
AcDbLine
 10
45.48612679598991
 20
14.99094258716253
 30
0.0
 11
45.37050179598992
 21
14.99094258716253
 31
0.0
  0
LINE
  5
3FF
330
1E
100
AcDbEntity
  8
OBJECT
100
AcDbLine
 10
45.32170526658399
 20
14.92044258716254
 30
0.0
 11
45.49094525807342
 21
14.92044258716254
 31
0.0
  0
LINE
  5
400
330
1E
100
AcDbEntity
  8
OBJECT
100
AcDbLine
 10
45.11050179598993
 20
14.92044258716254
 30
0.0
 11
45.2129044299003
 21
14.92044258716254
 31
0.0
  0
LINE
  5
401
330
1E
100
AcDbEntity
  8
OBJECT
100
AcDbLine
 10
45.32170526658399
 20
14.99094258716253
 30
0.0
 11
45.32170526658399
 21
14.92894258716254
 31
0.0
  0
LWPOLYLINE
  5
402
330
1E
100
AcDbEntity
  8
OBJECT
100
AcDbPolyline
 90
       36
 70
     0
 43
0.0
 10
45.32170584735763
 20
14.92894258693901
 10
45.32172004413988
 20
14.927420826079
 10
45.32173805879176
 20
14.92666144169817
 10
45.3217633945523
 20
14.92590400347885
 10
45.32181511385718
 20
14.92477344285042
 10
45.32188281225998
 20
14.92365347782255
 10
45.32196591121231
 20
14.92254661792661
 10
45.32206383216581
 20
14.92145537269401
 10
45.32217599657218
 20
14.92038225165615
 10
45.32230182588302
 20
14.9193297643444
 10
45.32244074154999
 20
14.91830042029016
 10
45.32259216502476
 20
14.91729672902482
 10
45.32273732277582
 20
14.91642487131659
 10
45.32289049607422
 20
14.91558037050839
 10
45.32305052239479
 20
14.9147651202832
 10
45.32321623921231
 20
14.91398101432406
 10
45.32338648400158
 20
14.91322994631395
 10
45.32356009423742
 20
14.91251380993586
 10
45.32373590739462
 20
14.9118344988728
 10
45.32391276094799
 20
14.91119390680779
 10
45.32406959272305
 20
14.91065914866871
 10
45.32422378300617
 20
14.9101611818928
 10
45.32437392713783
 20
14.90970071040251
 10
45.32451862045848
 20
14.90927843812038
 10
45.32465645830865
 20
14.90889506896881
 10
45.32478603602874
 20
14.90855130687033
 10
45.32490594895927
 20
14.9082478557474
 10
45.32501479244067
 20
14.90798541952249
 10
45.32508582987844
 20
14.90782125359516
 10
45.32514893780964
 20
14.90768027304712
 10
45.32520362179332
 20
14.90756210901649
 10
45.32524938738862
 20
14.90746639264142
 10
45.32528574015458
 20
14.90739275506004
 10
45.32531218565032
 20
14.90734082741049
 10
45.32532822943486
 20
14.90731024083089
 10
45.32533337706735
 20
14.9073006264594
  0
LWPOLYLINE
  5
428
330
1E
100
AcDbEntity
  8
OBJECT
100
AcDbPolyline
 90
        6
 70
     0
 43
0.0
 10
45.32533337706735
 20
14.9073006264594
 10
45.3252920766526
 20
14.90737136966635
 10
45.32404417349309
 20
14.90905887380324
 10
45.31970262218968
 20
14.91309376446675
 10
45.30882672184103
 20
14.91860751319048
 10
45.2967876688447
 20
14.92044191892921
  0
LWPOLYLINE
  5
430
330
1E
100
AcDbEntity
  8
OBJECT
100
AcDbPolyline
 90
       50
 70
     0
 43
0.0
 10
45.2967977655417
 20
14.81144258716253
 10
45.29369376836089
 20
14.81151304725917
 10
45.2906066172473
 20
14.81172326293993
 10
45.28753968161587
 20
14.81207156669471
 10
45.28449631356318
 20
14.81255638265442
 10
45.28147986698138
 20
14.81317620564799
 10
45.27849370728171
 20
14.8139295783623
 10
45.27554121495419
 20
14.81481506774996
 10
45.27262578304948
 20
14.81583124177841
 10
45.26975080882789
 20
14.8169766475562
 10
45.26692497187579
 20
14.81824727340306
 10
45.26416674950872
 20
14.81963271306924
 10
45.26147795303015
 20
14.8211288009966
 10
45.25885923054224
 20
14.82273207826925
 10
45.2563112929842
 20
14.82443921251713
 10
45.25383490694127
 20
14.82624694112485
 10
45.25143087672896
 20
14.82815202248287
 10
45.24910018458235
 20
14.83015104857161
 10
45.24684991043213
 20
14.83223463674831
 10
45.24468290929351
 20
14.83439580938106
 10
45.24259844190512
 20
14.83663061772216
 10
45.24059578329576
 20
14.83893511457685
 10
45.23867419849572
 20
14.84130533346022
 10
45.23683292013015
 20
14.84373727702005
 10
45.23507112948997
 20
14.84622691312799
 10
45.23338784700473
 20
14.84877032558194
 10
45.231771152052
 20
14.85138175782933
 10
45.23021383373787
 20
14.85407195085224
 10
45.22871668367142
 20
14.8568398553861
 10
45.22728045412302
 20
14.85968440205215
 10
45.22590586535801
 20
14.86260451131805
 10
45.22459361618499
 20
14.86559910247331
 10
45.22334439708138
 20
14.86866710110533
 10
45.22215890524598
 20
14.87180744473453
 10
45.22103786096411
 20
14.87501908641805
 10
45.21998202474361
 20
14.87830099625287
 10
45.2189922147848
 20
14.88165216079463
 10
45.21806932446787
 20
14.88507158045674
 10
45.21721433966746
 20
14.88855826496738
 10
45.21642874858653
 20
14.89210935191784
 10
45.21571869473823
 20
14.89569675453082
 10
45.21508516020751
 20
14.89930991406758
 10
45.21452727944896
 20
14.90294705292275
 10
45.2140443639885
 20
14.90660648253458
 10
45.2136359044606
 20
14.91028658125346
 10
45.21330157169592
 20
14.91398577407555
 10
45.21304121734565
 20
14.9177025138255
 10
45.21285487442483
 20
14.92143526333002
 10
45.2127427580595
 20
14.92518247809671
 10
45.21270526662948
 20
14.92894258899338
  0
LINE
  5
464
330
1E
100
AcDbEntity
  8
OBJECT
100
AcDbLine
 10
45.11050179598993
 20
14.83494258716253
 30
0.0
 11
45.0575017959899
 21
14.83494258716253
 31
0.0
  0
LINE
  5
465
330
1E
100
AcDbEntity
  8
OBJECT
100
AcDbLine
 10
45.3221548721273
 20
14.92044259082479
 30
0.0
 11
45.29679776564586
 21
14.92044259082479
 31
0.0
  0
LINE
  5
466
330
1E
100
AcDbEntity
  8
OBJECT
100
AcDbLine
 10
45.41612679598992
 20
14.99094258716253
 30
0.0
 11
45.41612679598992
 21
14.99112239392651
 31
0.0
  0
LINE
  5
467
330
1E
100
AcDbEntity
  8
OBJECT
100
AcDbLine
 10
45.60664947280614
 20
14.99094258716253
 30
0.0
 11
45.48612679598991
 21
14.99094258716253
 31
0.0
  0
POLYLINE
  5
468
330
1E
100
AcDbEntity
  8
OBJECT
100
AcDb3dPolyline
 66
     1
 10
0.0
 20
0.0
 30
0.0
 70
     8
  0
VERTEX
  5
469
330
468
100
AcDbEntity
  8
OBJECT
100
AcDbVertex
100
AcDb3dPolylineVertex
 10
45.64682369841153
 20
15.05344258716253
 30
0.0
 70
    32
1001
ACAD
1000
R13OBJECT
1002
{
1005
99
1002
}
  0
VERTEX
  5
46A
330
468
100
AcDbEntity
  8
OBJECT
100
AcDbVertex
100
AcDb3dPolylineVertex
 10
45.64376561757746
 20
15.02952487263971
 30
0.0
 70
    32
1001
ACAD
1000
R13OBJECT
1002
{
1005
99
1002
}
  0
VERTEX
  5
46B
330
468
100
AcDbEntity
  8
OBJECT
100
AcDbVertex
100
AcDb3dPolylineVertex
 10
45.63505694016064
 20
15.00924841333837
 30
0.0
 70
    32
1001
ACAD
1000
R13OBJECT
1002
{
1005
99
1002
}
  0
VERTEX
  5
46C
330
468
100
AcDbEntity
  8
OBJECT
100
AcDbVertex
100
AcDb3dPolylineVertex
 10
45.62202348335341
 20
14.99570011638057
 30
0.0
 70
    32
1001
ACAD
1000
R13OBJECT
1002
{
1005
99
1002
}
  0
VERTEX
  5
46D
330
468
100
AcDbEntity
  8
OBJECT
100
AcDbVertex
100
AcDb3dPolylineVertex
 10
45.60664947280614
 20
14.99094258716253
 30
0.0
 70
    32
1001
ACAD
1000
R13OBJECT
1002
{
1005
99
1002
}
  0
SEQEND
  5
46E
330
468
100
AcDbEntity
  8
OBJECT
  0
ARC
  5
46F
330
1E
100
AcDbEntity
  8
OBJECT
100
AcDbCircle
 10
45.49094525807342
 20
14.86594258716253
 30
0.0
 40
0.0545
100
AcDbArc
 50
270.0
 51
90.0
  0
LINE
  5
470
330
1E
100
AcDbEntity
  8
OBJECT
100
AcDbLine
 10
45.49094525807342
 20
15.74944258716253
 30
0.0
 11
45.32170526658399
 21
15.74944258716253
 31
0.0
  0
LINE
  5
471
330
1E
100
AcDbEntity
  8
OBJECT
100
AcDbLine
 10
45.29678768975847
 20
15.85844258716253
 30
0.0
 11
45.49094525807342
 21
15.85844258716253
 31
0.0
  0
LINE
  5
472
330
1E
100
AcDbEntity
  8
OBJECT
100
AcDbLine
 10
45.37050179598992
 20
15.67894258716254
 30
0.0
 11
45.48612679598991
 21
15.67894258716254
 31
0.0
  0
LINE
  5
473
330
1E
100
AcDbEntity
  8
OBJECT
100
AcDbLine
 10
45.3221548721273
 20
15.74944258716253
 30
0.0
 11
45.29679776564586
 21
15.74944258716253
 31
0.0
  0
LWPOLYLINE
  5
474
330
1E
100
AcDbEntity
  8
OBJECT
100
AcDbPolyline
 90
        6
 70
     0
 43
0.0
 10
45.29679866238399
 20
15.7494425846768
 10
45.29768996156284
 20
15.74945239184633
 10
45.3149510396403
 20
15.75380634694762
 10
45.32308816027259
 20
15.75976879293185
 10
45.3251945907948
 20
15.76235668768964
 10
45.32533332340202
 20
15.7625846663381
  0
LWPOLYLINE
  5
47C
330
1E
100
AcDbEntity
  8
OBJECT
100
AcDbPolyline
 90
       37
 70
     0
 43
0.0
 10
45.32533332340202
 20
15.7625846663381
 10
45.32532066518775
 20
15.762560981193
 10
45.3252815349852
 20
15.76248440775121
 10
45.32521766264409
 20
15.76235302619061
 10
45.32513077801403
 20
15.76216491668903
 10
45.325044159588
 20
15.76196800392645
 10
45.32494567277882
 20
15.76173387624111
 10
45.32483654766892
 20
15.7614629070718
 10
45.32471801434081
 20
15.76115546985741
 10
45.32459130287693
 20
15.76081193803675
 10
45.32445764335977
 20
15.76043268504868
 10
45.32431826587179
 20
15.76001808433204
 10
45.32417440049544
 20
15.75956850932566
 10
45.32401682589326
 20
15.75904913673604
 10
45.3238577938061
 20
15.75849505022482
 10
45.32369832739417
 20
15.75790759500772
 10
45.32353944981761
 20
15.75728811630044
 10
45.32338218423663
 20
15.75663795931872
 10
45.32322755381139
 20
15.75595846927825
 10
45.32307658170203
 20
15.75525099139476
 10
45.32293029106873
 20
15.75451687088396
 10
45.32277185284351
 20
15.75365753919713
 10
45.32262193635611
 20
15.75277119769251
 10
45.32248119257658
 20
15.75185983388384
 10
45.32235027247494
 20
15.75092543528493
 10
45.32222982702132
 20
15.74996998940953
 10
45.32212050718572
 20
15.74899548377142
 10
45.32202296393828
 20
15.74800390588436
 10
45.32193784824897
 20
15.74699724326213
 10
45.32188387329478
 20
15.7462537360478
 10
45.32183696753381
 20
15.74550497517801
 10
45.32179716420415
 20
15.74475168393388
 10
45.32176449654386
 20
15.74399458559661
 10
45.32173899779102
 20
15.74323440344733
 10
45.32172070118363
 20
15.74247186076721
 10
45.32170963995983
 20
15.74170768083738
 10
45.32170584735763
 20
15.74094258693901
  0
LWPOLYLINE
  5
4A3
330
1E
100
AcDbEntity
  8
OBJECT
100
AcDbPolyline
 90
       36
 70
     0
 43
0.0
 10
45.21270246624669
 20
15.74094258899394
 10
45.21283628425061
 20
15.74796863394287
 10
45.21312416618193
 20
15.75351554680931
 10
45.21357283925732
 20
15.75901487472988
 10
45.21418368836424
 20
15.76446144717803
 10
45.21495809839012
 20
15.76985009362718
 10
45.21589745422241
 20
15.77517564355078
 10
45.21700314074848
 20
15.78043292642225
 10
45.21827654285584
 20
15.78561677171502
 10
45.21971904543184
 20
15.79072200890258
 10
45.22135439876362
 20
15.79579987192981
 10
45.22316141463764
 20
15.80075025243594
 10
45.22514154311025
 20
15.8055646612182
 10
45.22729623423782
 20
15.81023460907381
 10
45.2296269380767
 20
15.81475160680003
 10
45.23213510468323
 20
15.81910716519409
 10
45.23482218411376
 20
15.82329279505323
 10
45.23768962642466
 20
15.8273000071747
 10
45.24036058973948
 20
15.83066874300209
 10
45.24318747871953
 20
15.83390306948079
 10
45.24617118831947
 20
15.83699217035368
 10
45.249312613494
 20
15.8399252293636
 10
45.25261264919777
 20
15.84269143025344
 10
45.2560721903855
 20
15.84527995676603
 10
45.25969213201185
 20
15.84767999264428
 10
45.26347336903151
 20
15.84988072163105
 10
45.26680142334291
 20
15.85157912197498
 10
45.27020646580734
 20
15.85310036131883
 10
45.27368346841055
 20
15.8544402388042
 10
45.27722740313826
 20
15.85559455357261
 10
45.28083324197618
 20
15.85655910476565
 10
45.28449595691
 20
15.85732969152485
 10
45.28821051992548
 20
15.85790211299181
 10
45.29197190300829
 20
15.85827216830804
 10
45.29438617513244
 20
15.85840011911338
 10
45.29679740212751
 20
15.8584427589147
  0
LINE
  5
4C9
330
1E
100
AcDbEntity
  8
OBJECT
100
AcDbLine
 10
45.0575017959899
 20
15.83494258716253
 30
0.0
 11
45.1105017959899
 21
15.83494258716253
 31
0.0
  0
LINE
  5
4CA
330
1E
100
AcDbEntity
  8
OBJECT
100
AcDbLine
 10
45.21291278166635
 20
15.74944258716253
 30
0.0
 11
45.1105017959899
 21
15.74944258716253
 31
0.0
  0
LINE
  5
4CB
330
1E
100
AcDbEntity
  8
OBJECT
100
AcDbLine
 10
45.32170526658399
 20
15.74094258716253
 30
0.0
 11
45.32170526658399
 21
15.67901559912467
 31
0.0
  0
POLYLINE
  5
4CC
330
1E
100
AcDbEntity
  8
OBJECT
100
AcDb3dPolyline
 66
     1
 10
0.0
 20
0.0
 30
0.0
 70
     8
  0
VERTEX
  5
4CD
330
4CC
100
AcDbEntity
  8
OBJECT
100
AcDbVertex
100
AcDb3dPolylineVertex
 10
45.60664947280614
 20
15.67894258716254
 30
0.0
 70
    32
1001
ACAD
1000
R13OBJECT
1002
{
1005
9E
1002
}
  0
VERTEX
  5
4CE
330
4CC
100
AcDbEntity
  8
OBJECT
100
AcDbVertex
100
AcDb3dPolylineVertex
 10
45.62202348335341
 20
15.67418505794448
 30
0.0
 70
    32
1001
ACAD
1000
R13OBJECT
1002
{
1005
9E
1002
}
  0
VERTEX
  5
4CF
330
4CC
100
AcDbEntity
  8
OBJECT
100
AcDbVertex
100
AcDb3dPolylineVertex
 10
45.63505694016064
 20
15.66063676098669
 30
0.0
 70
    32
1001
ACAD
1000
R13OBJECT
1002
{
1005
9E
1002
}
  0
VERTEX
  5
4D0
330
4CC
100
AcDbEntity
  8
OBJECT
100
AcDbVertex
100
AcDb3dPolylineVertex
 10
45.64376561757746
 20
15.64036030168534
 30
0.0
 70
    32
1001
ACAD
1000
R13OBJECT
1002
{
1005
9E
1002
}
  0
VERTEX
  5
4D1
330
4CC
100
AcDbEntity
  8
OBJECT
100
AcDbVertex
100
AcDb3dPolylineVertex
 10
45.64682369841153
 20
15.61644258716254
 30
0.0
 70
    32
1001
ACAD
1000
R13OBJECT
1002
{
1005
9E
1002
}
  0
SEQEND
  5
4D2
330
4CC
100
AcDbEntity
  8
OBJECT
  0
LINE
  5
4D3
330
1E
100
AcDbEntity
  8
OBJECT
100
AcDbLine
 10
45.48612679598991
 20
15.67894258716254
 30
0.0
 11
45.60664947280614
 21
15.67894258716254
 31
0.0
  0
ARC
  5
4D4
330
1E
100
AcDbEntity
  8
OBJECT
100
AcDbCircle
 10
45.49094525807342
 20
15.80394258716252
 30
0.0
 40
0.0545
100
AcDbArc
 50
270.0
 51
90.0
  0
LINE
  5
4D5
330
1E
100
AcDbEntity
  8
OBJECT
100
AcDbLine
 10
45.21270246624666
 20
28.74394258533109
 30
0.0
 11
45.21270526662945
 21
29.55594258533166
 31
0.0
  0
LINE
  5
4D6
330
1E
100
AcDbEntity
  8
OBJECT
100
AcDbLine
 10
45.32170526658396
 20
29.56444258716251
 30
0.0
 11
45.32170526658396
 21
28.7354425871625
 31
0.0
  0
LINE
  5
4D7
330
1E
100
AcDbEntity
  8
OBJECT
100
AcDbLine
 10
45.37050179598989
 20
29.56444258716251
 30
0.0
 11
45.37050179598989
 21
28.7354425871625
 31
0.0
  0
LINE
  5
4D8
330
1E
100
AcDbEntity
  8
OBJECT
100
AcDbLine
 10
45.1105017959899
 20
29.6499425871625
 30
0.0
 11
45.11050179598988
 21
28.6499425871625
 31
0.0
  0
LINE
  5
4D9
330
1E
100
AcDbEntity
  8
OBJECT
100
AcDbLine
 10
45.05750179598988
 20
28.6499425871625
 30
0.0
 11
45.05750179598988
 21
29.6499425871625
 31
0.0
  0
LINE
  5
4DA
330
1E
100
AcDbEntity
  8
OBJECT
100
AcDbLine
 10
45.6468236984115
 20
29.4314425871625
 30
0.0
 11
45.6468236984115
 21
28.86844258716251
 31
0.0
  0
LINE
  5
4DB
330
1E
100
AcDbEntity
  8
OBJECT
100
AcDbLine
 10
45.48612679598988
 20
29.4939425871625
 30
0.0
 11
45.48612679598988
 21
28.80594258716251
 31
0.0
  0
LINE
  5
4DC
330
1E
100
AcDbEntity
  8
OBJECT
100
AcDbLine
 10
45.37050179598989
 20
28.80594258716251
 30
0.0
 11
45.48612679598988
 21
28.80594258716251
 31
0.0
  0
LINE
  5
4DD
330
1E
100
AcDbEntity
  8
OBJECT
100
AcDbLine
 10
45.29678768975844
 20
28.62644258716251
 30
0.0
 11
45.4909452580734
 21
28.62644258716251
 31
0.0
  0
LINE
  5
4DE
330
1E
100
AcDbEntity
  8
OBJECT
100
AcDbLine
 10
45.4909452580734
 20
28.7354425871625
 30
0.0
 11
45.32170526658396
 21
28.7354425871625
 31
0.0
  0
LINE
  5
4DF
330
1E
100
AcDbEntity
  8
OBJECT
100
AcDbLine
 10
45.21291278166631
 20
28.7354425871625
 30
0.0
 11
45.11050179598988
 21
28.7354425871625
 31
0.0
  0
LINE
  5
4E0
330
1E
100
AcDbEntity
  8
OBJECT
100
AcDbLine
 10
45.05750179598988
 20
28.6499425871625
 30
0.0
 11
45.11050179598988
 21
28.6499425871625
 31
0.0
  0
LINE
  5
4E1
330
1E
100
AcDbEntity
  8
OBJECT
100
AcDbLine
 10
45.32170526658396
 20
28.7439425871625
 30
0.0
 11
45.32170526658396
 21
28.80586957520037
 31
0.0
  0
LWPOLYLINE
  5
4E2
330
1E
100
AcDbEntity
  8
OBJECT
100
AcDbPolyline
 90
       36
 70
     0
 43
0.0
 10
45.21270246624666
 20
28.74394258533109
 10
45.21283628425059
 20
28.73691654038216
 10
45.21312416618189
 20
28.73136962751572
 10
45.2135728392573
 20
28.72587029959515
 10
45.21418368836421
 20
28.72042372714701
 10
45.21495809839009
 20
28.71503508069785
 10
45.21589745422239
 20
28.70970953077425
 10
45.21700314074846
 20
28.70445224790278
 10
45.21827654285582
 20
28.69926840261001
 10
45.21971904543181
 20
28.69416316542247
 10
45.22135439876359
 20
28.68908530239522
 10
45.22316141463761
 20
28.68413492188908
 10
45.22514154311022
 20
28.67932051310683
 10
45.2272962342378
 20
28.67465056525121
 10
45.22962693807667
 20
28.670133567525
 10
45.23213510468321
 20
28.66577800913093
 10
45.23482218411373
 20
28.6615923792718
 10
45.23768962642463
 20
28.65758516715033
 10
45.24036058973945
 20
28.65421643132294
 10
45.24318747871951
 20
28.65098210484424
 10
45.24617118831943
 20
28.64789300397135
 10
45.24931261349396
 20
28.64495994496143
 10
45.25261264919774
 20
28.64219374407161
 10
45.25607219038548
 20
28.639605217559
 10
45.25969213201181
 20
28.63720518168074
 10
45.26347336903149
 20
28.63500445269398
 10
45.26680142334288
 20
28.63330605235006
 10
45.27020646580732
 20
28.6317848130062
 10
45.27368346841052
 20
28.63044493552083
 10
45.27722740313822
 20
28.62929062075242
 10
45.28083324197615
 20
28.62832606955938
 10
45.28449595690998
 20
28.62755548280018
 10
45.28821051992546
 20
28.62698306133323
 10
45.29197190300826
 20
28.62661300601699
 10
45.29438617513242
 20
28.62648505521166
 10
45.29679740212748
 20
28.62644241541033
  0
LWPOLYLINE
  5
508
330
1E
100
AcDbEntity
  8
OBJECT
100
AcDbPolyline
 90
       37
 70
     0
 43
0.0
 10
45.32533332340199
 20
28.72230050798693
 10
45.32532066518771
 20
28.72232419313203
 10
45.32528153498518
 20
28.72240076657382
 10
45.32521766264406
 20
28.72253214813442
 10
45.32513077801399
 20
28.722720257636
 10
45.32504415958797
 20
28.72291717039858
 10
45.32494567277879
 20
28.72315129808392
 10
45.32483654766889
 20
28.72342226725323
 10
45.32471801434079
 20
28.72372970446763
 10
45.32459130287691
 20
28.72407323628828
 10
45.32445764335975
 20
28.72445248927635
 10
45.32431826587177
 20
28.724867089993
 10
45.32417440049542
 20
28.72531666499937
 10
45.32401682589323
 20
28.72583603758899
 10
45.32385779380606
 20
28.72639012410021
 10
45.32369832739414
 20
28.72697757931731
 10
45.32353944981759
 20
28.72759705802459
 10
45.3233821842366
 20
28.72824721500631
 10
45.32322755381136
 20
28.72892670504678
 10
45.32307658170199
 20
28.72963418293027
 10
45.32293029106869
 20
28.73036830344107
 10
45.32277185284349
 20
28.7312276351279
 10
45.32262193635609
 20
28.73211397663254
 10
45.32248119257656
 20
28.73302534044119
 10
45.32235027247492
 20
28.73395973904011
 10
45.32222982702129
 20
28.7349151849155
 10
45.3221205071857
 20
28.73588969055361
 10
45.32202296393825
 20
28.73688126844067
 10
45.32193784824895
 20
28.73788793106291
 10
45.32188387329475
 20
28.73863143827724
 10
45.32183696753378
 20
28.73938019914703
 10
45.32179716420412
 20
28.74013349039115
 10
45.32176449654383
 20
28.74089058872842
 10
45.32173899779098
 20
28.7416507708777
 10
45.3217207011836
 20
28.74241331355782
 10
45.3217096399598
 20
28.74317749348765
 10
45.3217058473576
 20
28.74394258738602
  0
LWPOLYLINE
  5
52F
330
1E
100
AcDbEntity
  8
OBJECT
100
AcDbPolyline
 90
        6
 70
     0
 43
0.0
 10
45.29679866238396
 20
28.73544258964823
 10
45.2976899615628
 20
28.7354327824787
 10
45.31495103964028
 20
28.73107882737741
 10
45.32308816027255
 20
28.72511638139318
 10
45.32519459079478
 20
28.72252848663539
 10
45.32533332340199
 20
28.72230050798693
  0
LINE
  5
537
330
1E
100
AcDbEntity
  8
OBJECT
100
AcDbLine
 10
45.32215487212726
 20
28.7354425871625
 30
0.0
 11
45.29679776564583
 21
28.7354425871625
 31
0.0
  0
ARC
  5
538
330
1E
100
AcDbEntity
  8
OBJECT
100
AcDbCircle
 10
45.4909452580734
 20
28.68094258716251
 30
0.0
 40
0.0545
100
AcDbArc
 50
270.0
 51
90.0
  0
LINE
  5
539
330
1E
100
AcDbEntity
  8
OBJECT
100
AcDbLine
 10
45.48612679598988
 20
28.80594258716251
 30
0.0
 11
45.60664947280611
 21
28.80594258716251
 31
0.0
  0
POLYLINE
  5
53A
330
1E
100
AcDbEntity
  8
OBJECT
100
AcDb3dPolyline
 66
     1
 10
0.0
 20
0.0
 30
0.0
 70
     8
  0
VERTEX
  5
53B
330
53A
100
AcDbEntity
  8
OBJECT
100
AcDbVertex
100
AcDb3dPolylineVertex
 10
45.60664947280611
 20
28.80594258716251
 30
0.0
 70
    32
1001
ACAD
1000
R13OBJECT
1002
{
1005
9E
1002
}
  0
VERTEX
  5
53C
330
53A
100
AcDbEntity
  8
OBJECT
100
AcDbVertex
100
AcDb3dPolylineVertex
 10
45.62202348335339
 20
28.81070011638055
 30
0.0
 70
    32
1001
ACAD
1000
R13OBJECT
1002
{
1005
9E
1002
}
  0
VERTEX
  5
53D
330
53A
100
AcDbEntity
  8
OBJECT
100
AcDbVertex
100
AcDb3dPolylineVertex
 10
45.6350569401606
 20
28.82424841333834
 30
0.0
 70
    32
1001
ACAD
1000
R13OBJECT
1002
{
1005
9E
1002
}
  0
VERTEX
  5
53E
330
53A
100
AcDbEntity
  8
OBJECT
100
AcDbVertex
100
AcDb3dPolylineVertex
 10
45.64376561757742
 20
28.84452487263969
 30
0.0
 70
    32
1001
ACAD
1000
R13OBJECT
1002
{
1005
9E
1002
}
  0
VERTEX
  5
53F
330
53A
100
AcDbEntity
  8
OBJECT
100
AcDbVertex
100
AcDb3dPolylineVertex
 10
45.6468236984115
 20
28.86844258716251
 30
0.0
 70
    32
1001
ACAD
1000
R13OBJECT
1002
{
1005
9E
1002
}
  0
SEQEND
  5
540
330
53A
100
AcDbEntity
  8
OBJECT
  0
LINE
  5
541
330
1E
100
AcDbEntity
  8
OBJECT
100
AcDbLine
 10
45.32170526658396
 20
29.56444258716251
 30
0.0
 11
45.4909452580734
 21
29.56444258716251
 31
0.0
  0
LINE
  5
542
330
1E
100
AcDbEntity
  8
OBJECT
100
AcDbLine
 10
45.48612679598988
 20
29.4939425871625
 30
0.0
 11
45.37050179598989
 21
29.4939425871625
 31
0.0
  0
LINE
  5
543
330
1E
100
AcDbEntity
  8
OBJECT
100
AcDbLine
 10
45.4909452580734
 20
29.6734425871625
 30
0.0
 11
45.29679776554167
 21
29.6734425871625
 31
0.0
  0
LINE
  5
544
330
1E
100
AcDbEntity
  8
OBJECT
100
AcDbLine
 10
45.32215487212726
 20
29.56444258350024
 30
0.0
 11
45.29679776564583
 21
29.56444258350024
 31
0.0
  0
LINE
  5
545
330
1E
100
AcDbEntity
  8
OBJECT
100
AcDbLine
 10
45.1105017959899
 20
29.6499425871625
 30
0.0
 11
45.05750179598988
 21
29.6499425871625
 31
0.0
  0
LWPOLYLINE
  5
546
330
1E
100
AcDbEntity
  8
OBJECT
100
AcDbPolyline
 90
       50
 70
     0
 43
0.0
 10
45.29679776554167
 20
29.6734425871625
 10
45.29369376836086
 20
29.67337212706587
 10
45.29060661724727
 20
29.6731619113851
 10
45.28753968161583
 20
29.67281360763032
 10
45.28449631356315
 20
29.67232879167061
 10
45.28147986698136
 20
29.67170896867704
 10
45.27849370728168
 20
29.67095559596273
 10
45.27554121495415
 20
29.67007010657507
 10
45.27262578304944
 20
29.66905393254662
 10
45.26975080882786
 20
29.66790852676883
 10
45.26692497187577
 20
29.66663790092198
 10
45.26416674950868
 20
29.66525246125579
 10
45.26147795303012
 20
29.66375637332843
 10
45.25885923054221
 20
29.66215309605578
 10
45.25631129298417
 20
29.6604459618079
 10
45.25383490694125
 20
29.65863823320018
 10
45.25143087672893
 20
29.65673315184218
 10
45.24910018458231
 20
29.65473412575343
 10
45.2468499104321
 20
29.65265053757672
 10
45.24468290929348
 20
29.65048936494397
 10
45.2425984419051
 20
29.64825455660288
 10
45.24059578329572
 20
29.64595005974819
 10
45.23867419849568
 20
29.64357984086481
 10
45.23683292013013
 20
29.64114789730498
 10
45.23507112948993
 20
29.63865826119704
 10
45.2333878470047
 20
29.63611484874311
 10
45.23177115205197
 20
29.63350341649571
 10
45.23021383373785
 20
29.63081322347279
 10
45.22871668367139
 20
29.62804531893894
 10
45.22728045412299
 20
29.62520077227288
 10
45.22590586535798
 20
29.62228066300698
 10
45.22459361618496
 20
29.61928607185172
 10
45.22334439708134
 20
29.6162180732197
 10
45.22215890524594
 20
29.61307772959051
 10
45.22103786096408
 20
29.60986608790698
 10
45.21998202474359
 20
29.60658417807216
 10
45.21899221478477
 20
29.60323301353041
 10
45.21806932446785
 20
29.5998135938683
 10
45.21721433966743
 20
29.59632690935764
 10
45.21642874858651
 20
29.59277582240721
 10
45.21571869473819
 20
29.58918841979421
 10
45.21508516020747
 20
29.58557526025744
 10
45.21452727944892
 20
29.58193812140228
 10
45.21404436398848
 20
29.57827869179045
 10
45.21363590446057
 20
29.57459859307157
 10
45.21330157169589
 20
29.57089940024948
 10
45.21304121734561
 20
29.56718266049954
 10
45.2128548744248
 20
29.56344991099501
 10
45.21274275805947
 20
29.55970269622832
 10
45.21270526662945
 20
29.55594258533166
  0
LWPOLYLINE
  5
57A
330
1E
100
AcDbEntity
  8
OBJECT
100
AcDbPolyline
 90
        6
 70
     0
 43
0.0
 10
45.32533337706732
 20
29.57758454786563
 10
45.32529207665257
 20
29.5775138046587
 10
45.32404417349306
 20
29.5758263005218
 10
45.31970262218965
 20
29.57179140985828
 10
45.308826721841
 20
29.56627766113455
 10
45.29678766884467
 20
29.56444325539582
  0
LWPOLYLINE
  5
582
330
1E
100
AcDbEntity
  8
OBJECT
100
AcDbPolyline
 90
       36
 70
     0
 43
0.0
 10
45.3217058473576
 20
29.55594258738602
 10
45.32172004413985
 20
29.55746434824603
 10
45.32173805879174
 20
29.55822373262687
 10
45.32176339455228
 20
29.55898117084618
 10
45.32181511385715
 20
29.56011173147461
 10
45.32188281225995
 20
29.56123169650248
 10
45.32196591121229
 20
29.56233855639842
 10
45.32206383216577
 20
29.56342980163102
 10
45.32217599657215
 20
29.56450292266888
 10
45.32230182588299
 20
29.56555540998063
 10
45.32244074154997
 20
29.56658475403487
 10
45.32259216502473
 20
29.56758844530021
 10
45.32273732277579
 20
29.56846030300844
 10
45.32289049607419
 20
29.56930480381665
 10
45.32305052239476
 20
29.57012005404182
 10
45.32321623921228
 20
29.57090416000097
 10
45.32338648400155
 20
29.57165522801108
 10
45.32356009423739
 20
29.57237136438918
 10
45.32373590739459
 20
29.57305067545222
 10
45.32391276094796
 20
29.57369126751724
 10
45.32406959272302
 20
29.57422602565632
 10
45.32422378300615
 20
29.57472399243223
 10
45.3243739271378
 20
29.57518446392251
 10
45.32451862045846
 20
29.57560673620465
 10
45.32465645830862
 20
29.57599010535622
 10
45.32478603602871
 20
29.5763338674547
 10
45.32490594895924
 20
29.57663731857763
 10
45.32501479244063
 20
29.57689975480255
 10
45.32508582987841
 20
29.57706392072987
 10
45.32514893780962
 20
29.57720490127791
 10
45.32520362179329
 20
29.57732306530854
 10
45.32524938738859
 20
29.57741878168361
 10
45.32528574015455
 20
29.57749241926499
 10
45.32531218565028
 20
29.57754434691454
 10
45.32532822943482
 20
29.57757493349414
 10
45.32533337706732
 20
29.57758454786563
  0
LINE
  5
5A8
330
1E
100
AcDbEntity
  8
OBJECT
100
AcDbLine
 10
45.32170526658396
 20
29.4939425871625
 30
0.0
 11
45.32170526658396
 21
29.55594258716251
 31
0.0
  0
LINE
  5
5A9
330
1E
100
AcDbEntity
  8
OBJECT
100
AcDbLine
 10
45.1105017959899
 20
29.56444258716251
 30
0.0
 11
45.21290442990028
 21
29.56444258716251
 31
0.0
  0
ARC
  5
5AA
330
1E
100
AcDbEntity
  8
OBJECT
100
AcDbCircle
 10
45.4909452580734
 20
29.6189425871625
 30
0.0
 40
0.0545
100
AcDbArc
 50
270.0
 51
90.0
  0
POLYLINE
  5
5AB
330
1E
100
AcDbEntity
  8
OBJECT
100
AcDb3dPolyline
 66
     1
 10
0.0
 20
0.0
 30
0.0
 70
     8
  0
VERTEX
  5
5AC
330
5AB
100
AcDbEntity
  8
OBJECT
100
AcDbVertex
100
AcDb3dPolylineVertex
 10
45.6468236984115
 20
29.4314425871625
 30
0.0
 70
    32
1001
ACAD
1000
R13OBJECT
1002
{
1005
99
1002
}
  0
VERTEX
  5
5AD
330
5AB
100
AcDbEntity
  8
OBJECT
100
AcDbVertex
100
AcDb3dPolylineVertex
 10
45.64376561757742
 20
29.45536030168532
 30
0.0
 70
    32
1001
ACAD
1000
R13OBJECT
1002
{
1005
99
1002
}
  0
VERTEX
  5
5AE
330
5AB
100
AcDbEntity
  8
OBJECT
100
AcDbVertex
100
AcDb3dPolylineVertex
 10
45.6350569401606
 20
29.47563676098667
 30
0.0
 70
    32
1001
ACAD
1000
R13OBJECT
1002
{
1005
99
1002
}
  0
VERTEX
  5
5AF
330
5AB
100
AcDbEntity
  8
OBJECT
100
AcDbVertex
100
AcDb3dPolylineVertex
 10
45.62202348335339
 20
29.48918505794446
 30
0.0
 70
    32
1001
ACAD
1000
R13OBJECT
1002
{
1005
99
1002
}
  0
VERTEX
  5
5B0
330
5AB
100
AcDbEntity
  8
OBJECT
100
AcDbVertex
100
AcDb3dPolylineVertex
 10
45.60664947280611
 20
29.4939425871625
 30
0.0
 70
    32
1001
ACAD
1000
R13OBJECT
1002
{
1005
99
1002
}
  0
SEQEND
  5
5B1
330
5AB
100
AcDbEntity
  8
OBJECT
  0
LINE
  5
5B2
330
1E
100
AcDbEntity
  8
OBJECT
100
AcDbLine
 10
45.60664947280611
 20
29.4939425871625
 30
0.0
 11
45.48612679598988
 21
29.4939425871625
 31
0.0
  0
LINE
  5
5B3
330
1E
100
AcDbEntity
  8
OBJECT
100
AcDbLine
 10
45.4161267959899
 20
29.4939425871625
 30
0.0
 11
45.4161267959899
 21
29.49376278039851
 31
0.0
  0
LWPOLYLINE
  5
5B4
330
1E
100
AcDbEntity
  8
OBJECT
100
AcDbPolyline
 90
       12
 70
     0
 43
0.0
 10
50.40328426620348
 20
29.49394370433285
 10
50.09828426620348
 20
29.49394370433284
 10
50.09828426620348
 20
29.58744370433285
 42
0.4142135623730951
 10
50.03578426620348
 20
29.64994370433284
 10
49.84078426620346
 20
29.64994370433284
 42
0.4142135623730951
 10
49.77828426620345
 20
29.58744370433285
 10
49.77828426620345
 20
28.71244370433284
 42
0.4142135623730951
 10
49.84078426620346
 20
28.64994370433285
 10
50.03578426620348
 20
28.64994370433285
 42
0.4142135623730951
 10
50.09828426620348
 20
28.71244370433284
 10
50.09828426620348
 20
28.80594370433285
 10
50.40328426620345
 20
28.80594370433285
  0
LINE
  5
5C2
330
1E
100
AcDbEntity
  8
OBJECT
100
AcDbLine
 10
50.40328426620348
 20
28.73544370433284
 30
0.0
 11
50.40328426620348
 21
29.56444370433285
 31
0.0
  0
LWPOLYLINE
  5
5C3
330
1E
100
AcDbEntity
  8
OBJECT
100
AcDbPolyline
 90
       73
 70
     0
 43
0.0
 10
49.95328426620346
 20
29.3858995993998
 10
49.94950466758988
 20
29.38525575261555
 10
49.94573253916787
 20
29.38480155126185
 10
49.94198627426365
 20
29.38453240021038
 10
49.93828426620345
 20
29.38444370433284
 10
49.93454374839576
 20
29.38453746241421
 10
49.93076654977639
 20
29.38481868147527
 10
49.92696989892923
 20
29.38528727874162
 10
49.92317102443795
 20
29.38594317143877
 10
49.91938715488635
 20
29.38678627679223
 10
49.91563551885821
 20
29.38781651202756
 10
49.91193334493726
 20
29.38903379437027
 10
49.9082978617073
 20
29.3904380410459
 10
49.90474492185146
 20
29.392026815002
 10
49.90128623255393
 20
29.39378917250479
 10
49.89793280415
 20
29.39571227075777
 10
49.89469564697504
 20
29.39778326696454
 10
49.89158577136433
 20
29.39998931832862
 10
49.88861418765319
 20
29.40231758205359
 10
49.88579190617696
 20
29.40475521534295
 10
49.88312993727092
 20
29.40728937540029
 10
49.88060006368755
 20
29.40994675536091
 10
49.87816515821115
 20
29.41276551392527
 10
49.87583831703489
 20
29.41573455583451
 10
49.87363263635202
 20
29.41884278582974
 10
49.87156121235575
 20
29.4220791086521
 10
49.86963714123925
 20
29.42543242904269
 10
49.8678735191958
 20
29.42889165174266
 10
49.86628344241854
 20
29.43244568149311
 10
49.86487804033783
 20
29.43608276959107
 10
49.86365976504524
 20
29.43978693503455
 10
49.86262869672581
 20
29.44354073411606
 10
49.86178491556461
 20
29.44732672312815
 10
49.86112850174669
 20
29.45112745836332
 10
49.86065953545716
 20
29.45492549611415
 10
49.86037809688108
 20
29.45870339267315
 10
49.86028426620348
 20
29.46244370433285
 10
49.86037753747215
 20
29.46617274431363
 10
49.86065731327918
 20
29.46993951424621
 10
49.86112353662605
 20
29.47372664549973
 10
49.86177615051435
 20
29.47751676944329
 10
49.86261509794553
 20
29.48129251744605
 10
49.86364032192113
 20
29.48503652087716
 10
49.86485176544269
 20
29.48873141110572
 10
49.86624937151169
 20
29.49235981950087
 10
49.8678307187453
 20
29.49590582875543
 10
49.86958473866207
 20
29.49935772567806
 10
49.87149840361581
 20
29.5027044478115
 10
49.8735586859602
 20
29.50593493269857
 10
49.87575255804902
 20
29.50903811788203
 10
49.87806699223594
 20
29.51200294090469
 10
49.88048896087474
 20
29.51481833930928
 10
49.88300543631916
 20
29.51747325063865
 10
49.88566987374108
 20
29.52002089284263
 10
49.88849551433583
 20
29.52247152807796
 10
49.89147131460831
 20
29.52481224755564
 10
49.89458623106341
 20
29.52703014248669
 10
49.89782922020601
 20
29.5291123040821
 10
49.90118923854101
 20
29.53104582355288
 10
49.90465524257331
 20
29.53281779211004
 10
49.90821618880779
 20
29.53441530096463
 10
49.91186033359525
 20
29.5358273468532
 10
49.91557176022863
 20
29.53705146207371
 10
49.91933316562591
 20
29.53808754117911
 10
49.92312724670521
 20
29.53893547872234
 10
49.92693670038454
 20
29.53959516925637
 10
49.93074422358199
 20
29.54006650733415
 10
49.93453251321563
 20
29.54034938750867
 10
49.93828426620345
 20
29.54044370433285
 10
49.94198602725083
 20
29.54035501702096
 10
49.94573224189423
 20
29.54008588024557
 10
49.94950446869225
 20
29.53963168174709
 10
49.95328426620346
 20
29.53898780926588
  0
ARC
  5
60E
330
1E
100
AcDbEntity
  8
OBJECT
100
AcDbCircle
 10
49.93828426620345
 20
29.46244370433285
 30
0.0
 40
0.078
100
AcDbArc
 50
281.087489210971
 51
78.91251078902897
  0
CIRCLE
  5
60F
330
1E
100
AcDbEntity
  8
OBJECT
100
AcDbCircle
 10
49.93828426620345
 20
29.46244370433285
 30
0.0
 40
0.085
  0
LINE
  5
610
330
1E
100
AcDbEntity
  8
OBJECT
100
AcDbLine
 10
50.13438561202187
 20
29.43144370433284
 30
0.0
 11
50.13438561202187
 21
28.86844370433285
 31
0.0
  0
LINE
  5
611
330
1E
100
AcDbEntity
  8
OBJECT
100
AcDbLine
 10
50.15507132491601
 20
29.43144370433284
 30
0.0
 11
50.15507132491601
 21
28.86844370433285
 31
0.0
  0
LINE
  5
612
330
1E
100
AcDbEntity
  8
OBJECT
100
AcDbLine
 10
50.01128426620346
 20
28.86492096766084
 30
0.0
 11
50.01128426620346
 21
28.86482388317062
 31
0.0
  0
LINE
  5
613
330
1E
100
AcDbEntity
  8
OBJECT
100
AcDbLine
 10
49.86328426620346
 20
28.85890475439895
 30
0.0
 11
49.86328426620346
 21
28.85894567944861
 31
0.0
  0
LINE
  5
614
330
1E
100
AcDbEntity
  8
OBJECT
100
AcDbLine
 10
50.01128426620346
 20
28.80999246052052
 30
0.0
 11
50.01128426620346
 21
28.80996644100485
 31
0.0
  0
LINE
  5
615
330
1E
100
AcDbEntity
  8
OBJECT
100
AcDbLine
 10
49.86328426620346
 20
28.81581956118176
 30
0.0
 11
49.86328426620346
 21
28.81592502348988
 31
0.0
  0
LINE
  5
616
330
1E
100
AcDbEntity
  8
OBJECT
100
AcDbLine
 10
50.01128426620346
 20
28.86482388317062
 30
0.0
 11
50.01128426620346
 21
28.80999246052052
 31
0.0
  0
ARC
  5
617
330
1E
100
AcDbEntity
  8
OBJECT
100
AcDbCircle
 10
49.93828426620345
 20
28.83744370433285
 30
0.0
 40
0.078
100
AcDbArc
 50
281.0874892109704
 51
78.91251078902897
  0
LWPOLYLINE
  5
618
330
1E
100
AcDbEntity
  8
OBJECT
100
AcDbPolyline
 90
       73
 70
     0
 43
0.0
 10
49.95328426620346
 20
28.7608995993998
 10
49.94950466758988
 20
28.76025575261555
 10
49.94573253916787
 20
28.75980155126185
 10
49.94198627426365
 20
28.75953240021038
 10
49.93828426620345
 20
28.75944370433284
 10
49.93454374839576
 20
28.75953746241421
 10
49.93076654977639
 20
28.75981868147527
 10
49.92696989892923
 20
28.76028727874162
 10
49.92317102443795
 20
28.76094317143877
 10
49.91938715488635
 20
28.76178627679223
 10
49.91563551885821
 20
28.76281651202756
 10
49.91193334493726
 20
28.76403379437027
 10
49.9082978617073
 20
28.7654380410459
 10
49.90474492185146
 20
28.767026815002
 10
49.90128623255393
 20
28.76878917250479
 10
49.89793280415
 20
28.77071227075777
 10
49.89469564697504
 20
28.77278326696454
 10
49.89158577136433
 20
28.77498931832862
 10
49.88861418765319
 20
28.77731758205359
 10
49.88579190617696
 20
28.77975521534295
 10
49.88312993727092
 20
28.78228937540029
 10
49.88060006368755
 20
28.78494675536091
 10
49.87816515821115
 20
28.78776551392527
 10
49.87583831703489
 20
28.79073455583451
 10
49.87363263635202
 20
28.79384278582974
 10
49.87156121235575
 20
28.7970791086521
 10
49.86963714123925
 20
28.80043242904269
 10
49.8678735191958
 20
28.80389165174266
 10
49.86628344241854
 20
28.80744568149311
 10
49.86487804033783
 20
28.81108276959107
 10
49.86365976504524
 20
28.81478693503455
 10
49.86262869672581
 20
28.81854073411606
 10
49.86178491556461
 20
28.82232672312815
 10
49.86112850174669
 20
28.82612745836332
 10
49.86065953545716
 20
28.82992549611415
 10
49.86037809688108
 20
28.83370339267315
 10
49.86028426620345
 20
28.83744370433285
 10
49.86037753747215
 20
28.84117274431363
 10
49.86065731327915
 20
28.84493951424621
 10
49.86112353662605
 20
28.84872664549973
 10
49.86177615051435
 20
28.85251676944329
 10
49.86261509794553
 20
28.85629251744605
 10
49.86364032192113
 20
28.86003652087716
 10
49.86485176544269
 20
28.86373141110572
 10
49.86624937151169
 20
28.86735981950087
 10
49.8678307187453
 20
28.87090582875543
 10
49.86958473866207
 20
28.87435772567806
 10
49.87149840361581
 20
28.8777044478115
 10
49.8735586859602
 20
28.88093493269857
 10
49.87575255804902
 20
28.88403811788203
 10
49.87806699223594
 20
28.88700294090467
 10
49.88048896087474
 20
28.88981833930929
 10
49.88300543631916
 20
28.89247325063865
 10
49.88566987374108
 20
28.89502089284263
 10
49.88849551433583
 20
28.89747152807796
 10
49.89147131460831
 20
28.89981224755564
 10
49.89458623106341
 20
28.90203014248669
 10
49.89782922020601
 20
28.9041123040821
 10
49.90118923854101
 20
28.90604582355288
 10
49.90465524257331
 20
28.90781779211004
 10
49.90821618880779
 20
28.90941530096463
 10
49.91186033359525
 20
28.9108273468532
 10
49.91557176022863
 20
28.91205146207371
 10
49.91933316562591
 20
28.91308754117911
 10
49.92312724670521
 20
28.91393547872234
 10
49.92693670038454
 20
28.91459516925637
 10
49.93074422358199
 20
28.91506650733415
 10
49.93453251321563
 20
28.91534938750867
 10
49.93828426620345
 20
28.91544370433285
 10
49.94198602725083
 20
28.91535501702096
 10
49.94573224189423
 20
28.91508588024557
 10
49.94950446869225
 20
28.91463168174709
 10
49.95328426620346
 20
28.91398780926588
  0
LINE
  5
663
330
1E
100
AcDbEntity
  8
OBJECT
100
AcDbLine
 10
49.86328426620346
 20
28.81592502348988
 30
0.0
 11
49.86328426620346
 21
28.85890475439895
 31
0.0
  0
CIRCLE
  5
664
330
1E
100
AcDbEntity
  8
OBJECT
100
AcDbCircle
 10
49.93828426620345
 20
28.83744370433285
 30
0.0
 40
0.085
  0
POLYLINE
  5
665
330
1E
100
AcDbEntity
  8
OBJECT
100
AcDb3dPolyline
 66
     1
 10
0.0
 20
0.0
 30
0.0
 70
     8
  0
VERTEX
  5
666
330
665
100
AcDbEntity
  8
OBJECT
100
AcDbVertex
100
AcDb3dPolylineVertex
 10
50.13438561202187
 20
28.86844370433285
 30
0.0
 70
    32
1001
ACAD
1000
R13OBJECT
1002
{
1005
244
1002
}
  0
VERTEX
  5
667
330
665
100
AcDbEntity
  8
OBJECT
100
AcDbVertex
100
AcDb3dPolylineVertex
 10
50.13876581795372
 20
28.84452598981003
 30
0.0
 70
    32
1001
ACAD
1000
R13OBJECT
1002
{
1005
244
1002
}
  0
VERTEX
  5
668
330
665
100
AcDbEntity
  8
OBJECT
100
AcDbVertex
100
AcDb3dPolylineVertex
 10
50.1512395891028
 20
28.82424953050868
 30
0.0
 70
    32
1001
ACAD
1000
R13OBJECT
1002
{
1005
244
1002
}
  0
VERTEX
  5
669
330
665
100
AcDbEntity
  8
OBJECT
100
AcDbVertex
100
AcDb3dPolylineVertex
 10
50.16990790688669
 20
28.81070123355089
 30
0.0
 70
    32
1001
ACAD
1000
R13OBJECT
1002
{
1005
244
1002
}
  0
VERTEX
  5
66A
330
665
100
AcDbEntity
  8
OBJECT
100
AcDbVertex
100
AcDb3dPolylineVertex
 10
50.19192868915149
 20
28.80594370433285
 30
0.0
 70
    32
1001
ACAD
1000
R13OBJECT
1002
{
1005
244
1002
}
  0
SEQEND
  5
66B
330
665
100
AcDbEntity
  8
OBJECT
  0
POLYLINE
  5
66C
330
1E
100
AcDbEntity
  8
OBJECT
100
AcDb3dPolyline
 66
     1
 10
0.0
 20
0.0
 30
0.0
 70
     8
  0
VERTEX
  5
66D
330
66C
100
AcDbEntity
  8
OBJECT
100
AcDbVertex
100
AcDb3dPolylineVertex
 10
50.15507132491601
 20
28.86844370433285
 30
0.0
 70
    32
1001
ACAD
1000
R13OBJECT
1002
{
1005
246
1002
}
  0
VERTEX
  5
66E
330
66C
100
AcDbEntity
  8
OBJECT
100
AcDbVertex
100
AcDb3dPolylineVertex
 10
50.15945153084786
 20
28.84452598981003
 30
0.0
 70
    32
1001
ACAD
1000
R13OBJECT
1002
{
1005
246
1002
}
  0
VERTEX
  5
66F
330
66C
100
AcDbEntity
  8
OBJECT
100
AcDbVertex
100
AcDb3dPolylineVertex
 10
50.17192530199693
 20
28.82424953050868
 30
0.0
 70
    32
1001
ACAD
1000
R13OBJECT
1002
{
1005
246
1002
}
  0
VERTEX
  5
670
330
66C
100
AcDbEntity
  8
OBJECT
100
AcDbVertex
100
AcDb3dPolylineVertex
 10
50.19059361978079
 20
28.81070123355089
 30
0.0
 70
    32
1001
ACAD
1000
R13OBJECT
1002
{
1005
246
1002
}
  0
VERTEX
  5
671
330
66C
100
AcDbEntity
  8
OBJECT
100
AcDbVertex
100
AcDb3dPolylineVertex
 10
50.21261440204563
 20
28.80594370433285
 30
0.0
 70
    32
1001
ACAD
1000
R13OBJECT
1002
{
1005
246
1002
}
  0
SEQEND
  5
672
330
66C
100
AcDbEntity
  8
OBJECT
  0
LINE
  5
673
330
1E
100
AcDbEntity
  8
OBJECT
100
AcDbLine
 10
50.01128426620346
 20
29.43499246052041
 30
0.0
 11
50.01128426620346
 21
29.43496644100477
 31
0.0
  0
LINE
  5
674
330
1E
100
AcDbEntity
  8
OBJECT
100
AcDbLine
 10
50.01128426620346
 20
29.4898238831707
 30
0.0
 11
50.01128426620346
 21
29.43499246052041
 31
0.0
  0
LINE
  5
675
330
1E
100
AcDbEntity
  8
OBJECT
100
AcDbLine
 10
50.01128426620346
 20
29.48992096766091
 30
0.0
 11
50.01128426620346
 21
29.4898238831707
 31
0.0
  0
LINE
  5
676
330
1E
100
AcDbEntity
  8
OBJECT
100
AcDbLine
 10
49.86328426620346
 20
29.48390475439895
 30
0.0
 11
49.86328426620346
 21
29.48394567944864
 31
0.0
  0
LINE
  5
677
330
1E
100
AcDbEntity
  8
OBJECT
100
AcDbLine
 10
49.86328426620346
 20
29.44092502348999
 30
0.0
 11
49.86328426620346
 21
29.48390475439895
 31
0.0
  0
LINE
  5
678
330
1E
100
AcDbEntity
  8
OBJECT
100
AcDbLine
 10
49.86328426620346
 20
29.44081956118173
 30
0.0
 11
49.86328426620346
 21
29.44092502348997
 31
0.0
  0
POLYLINE
  5
679
330
1E
100
AcDbEntity
  8
OBJECT
100
AcDb3dPolyline
 66
     1
 10
0.0
 20
0.0
 30
0.0
 70
     8
  0
VERTEX
  5
67A
330
679
100
AcDbEntity
  8
OBJECT
100
AcDbVertex
100
AcDb3dPolylineVertex
 10
50.21261440204563
 20
29.49394370433284
 30
0.0
 70
    32
1001
ACAD
1000
R13OBJECT
1002
{
1005
23F
1002
}
  0
VERTEX
  5
67B
330
679
100
AcDbEntity
  8
OBJECT
100
AcDbVertex
100
AcDb3dPolylineVertex
 10
50.19059361978079
 20
29.4891861751148
 30
0.0
 70
    32
1001
ACAD
1000
R13OBJECT
1002
{
1005
23F
1002
}
  0
VERTEX
  5
67C
330
679
100
AcDbEntity
  8
OBJECT
100
AcDbVertex
100
AcDb3dPolylineVertex
 10
50.17192530199693
 20
29.47563787815701
 30
0.0
 70
    32
1001
ACAD
1000
R13OBJECT
1002
{
1005
23F
1002
}
  0
VERTEX
  5
67D
330
679
100
AcDbEntity
  8
OBJECT
100
AcDbVertex
100
AcDb3dPolylineVertex
 10
50.15945153084786
 20
29.45536141885567
 30
0.0
 70
    32
1001
ACAD
1000
R13OBJECT
1002
{
1005
23F
1002
}
  0
VERTEX
  5
67E
330
679
100
AcDbEntity
  8
OBJECT
100
AcDbVertex
100
AcDb3dPolylineVertex
 10
50.15507132491601
 20
29.43144370433284
 30
0.0
 70
    32
1001
ACAD
1000
R13OBJECT
1002
{
1005
23F
1002
}
  0
SEQEND
  5
67F
330
679
100
AcDbEntity
  8
OBJECT
  0
POLYLINE
  5
680
330
1E
100
AcDbEntity
  8
OBJECT
100
AcDb3dPolyline
 66
     1
 10
0.0
 20
0.0
 30
0.0
 70
     8
  0
VERTEX
  5
681
330
680
100
AcDbEntity
  8
OBJECT
100
AcDbVertex
100
AcDb3dPolylineVertex
 10
50.19192868915149
 20
29.49394370433284
 30
0.0
 70
    32
1001
ACAD
1000
R13OBJECT
1002
{
1005
241
1002
}
  0
VERTEX
  5
682
330
680
100
AcDbEntity
  8
OBJECT
100
AcDbVertex
100
AcDb3dPolylineVertex
 10
50.16990790688669
 20
29.4891861751148
 30
0.0
 70
    32
1001
ACAD
1000
R13OBJECT
1002
{
1005
241
1002
}
  0
VERTEX
  5
683
330
680
100
AcDbEntity
  8
OBJECT
100
AcDbVertex
100
AcDb3dPolylineVertex
 10
50.1512395891028
 20
29.47563787815701
 30
0.0
 70
    32
1001
ACAD
1000
R13OBJECT
1002
{
1005
241
1002
}
  0
VERTEX
  5
684
330
680
100
AcDbEntity
  8
OBJECT
100
AcDbVertex
100
AcDb3dPolylineVertex
 10
50.13876581795372
 20
29.45536141885567
 30
0.0
 70
    32
1001
ACAD
1000
R13OBJECT
1002
{
1005
241
1002
}
  0
VERTEX
  5
685
330
680
100
AcDbEntity
  8
OBJECT
100
AcDbVertex
100
AcDb3dPolylineVertex
 10
50.13438561202187
 20
29.43144370433284
 30
0.0
 70
    32
1001
ACAD
1000
R13OBJECT
1002
{
1005
241
1002
}
  0
SEQEND
  5
686
330
680
100
AcDbEntity
  8
OBJECT
  0
POLYLINE
  5
687
330
1E
100
AcDbEntity
  8
OBJECT
100
AcDb2dPolyline
 66
     1
 10
0.0
 20
0.0
 30
0.0
1001
ACAD
1000
R13OBJECT
1002
{
1005
101E
1002
}
  0
VERTEX
  5
688
330
687
100
AcDbEntity
  8
OBJECT
100
AcDbVertex
100
AcDb2dVertex
 10
52.30706468288963
 20
28.80594370433285
 30
0.0
1001
ACAD
1000
R13OBJECT
1002
{
1005
101E
1002
}
  0
VERTEX
  5
689
330
687
100
AcDbEntity
  8
OBJECT
100
AcDbVertex
100
AcDb2dVertex
 10
52.32538671519193
 20
28.81070123355089
 30
0.0
1001
ACAD
1000
R13OBJECT
1002
{
1005
101E
1002
}
  0
VERTEX
  5
68A
330
687
100
AcDbEntity
  8
OBJECT
100
AcDbVertex
100
AcDb2dVertex
 10
52.34091938416589
 20
28.82424953050868
 30
0.0
1001
ACAD
1000
R13OBJECT
1002
{
1005
101E
1002
}
  0
VERTEX
  5
68B
330
687
100
AcDbEntity
  8
OBJECT
100
AcDbVertex
100
AcDb2dVertex
 10
52.3512979817641
 20
28.84452598981003
 30
0.0
1001
ACAD
1000
R13OBJECT
1002
{
1005
101E
1002
}
  0
VERTEX
  5
68C
330
687
100
AcDbEntity
  8
OBJECT
100
AcDbVertex
100
AcDb2dVertex
 10
52.35494246058457
 20
28.86844370433285
 30
0.0
1001
ACAD
1000
R13OBJECT
1002
{
1005
101E
1002
}
  0
VERTEX
  5
68D
330
687
100
AcDbEntity
  8
OBJECT
100
AcDbVertex
100
AcDb2dVertex
 10
52.35494246058457
 20
29.43144370433284
 30
0.0
1001
ACAD
1000
R13OBJECT
1002
{
1005
101E
1002
}
  0
VERTEX
  5
68E
330
687
100
AcDbEntity
  8
OBJECT
100
AcDbVertex
100
AcDb2dVertex
 10
52.3512979817641
 20
29.45536141885567
 30
0.0
1001
ACAD
1000
R13OBJECT
1002
{
1005
101E
1002
}
  0
VERTEX
  5
68F
330
687
100
AcDbEntity
  8
OBJECT
100
AcDbVertex
100
AcDb2dVertex
 10
52.34091938416586
 20
29.47563787815701
 30
0.0
1001
ACAD
1000
R13OBJECT
1002
{
1005
101E
1002
}
  0
VERTEX
  5
690
330
687
100
AcDbEntity
  8
OBJECT
100
AcDbVertex
100
AcDb2dVertex
 10
52.32538671519193
 20
29.4891861751148
 30
0.0
1001
ACAD
1000
R13OBJECT
1002
{
1005
101E
1002
}
  0
VERTEX
  5
691
330
687
100
AcDbEntity
  8
OBJECT
100
AcDbVertex
100
AcDb2dVertex
 10
52.30706468288963
 20
29.49394370433284
 30
0.0
1001
ACAD
1000
R13OBJECT
1002
{
1005
101E
1002
}
  0
SEQEND
  5
692
330
687
100
AcDbEntity
  8
OBJECT
  0
POLYLINE
  5
693
330
1E
100
AcDbEntity
  8
OBJECT
100
AcDb2dPolyline
 66
     1
 10
0.0
 20
0.0
 30
0.0
 70
     1
1001
ACAD
1000
R13OBJECT
1002
{
1005
1026
1002
}
  0
VERTEX
  5
694
330
693
100
AcDbEntity
  8
OBJECT
100
AcDbVertex
100
AcDb2dVertex
 10
51.11890926620347
 20
28.80594370433285
 30
0.0
1001
ACAD
1000
R13OBJECT
1002
{
1005
1026
1002
}
  0
VERTEX
  5
695
330
693
100
AcDbEntity
  8
OBJECT
100
AcDbVertex
100
AcDb2dVertex
 10
52.35205981556768
 20
28.80594370433285
 30
0.0
1001
ACAD
1000
R13OBJECT
1002
{
1005
1026
1002
}
  0
VERTEX
  5
696
330
693
100
AcDbEntity
  8
OBJECT
100
AcDbVertex
100
AcDb2dVertex
 10
52.37038184787
 20
28.81070123355089
 30
0.0
1001
ACAD
1000
R13OBJECT
1002
{
1005
1026
1002
}
  0
VERTEX
  5
697
330
693
100
AcDbEntity
  8
OBJECT
100
AcDbVertex
100
AcDb2dVertex
 10
52.38591451684394
 20
28.82424953050868
 30
0.0
1001
ACAD
1000
R13OBJECT
1002
{
1005
1026
1002
}
  0
VERTEX
  5
698
330
693
100
AcDbEntity
  8
OBJECT
100
AcDbVertex
100
AcDb2dVertex
 10
52.39629311444216
 20
28.84452598981003
 30
0.0
1001
ACAD
1000
R13OBJECT
1002
{
1005
1026
1002
}
  0
VERTEX
  5
699
330
693
100
AcDbEntity
  8
OBJECT
100
AcDbVertex
100
AcDb2dVertex
 10
52.39993759326262
 20
28.86844370433285
 30
0.0
1001
ACAD
1000
R13OBJECT
1002
{
1005
1026
1002
}
  0
VERTEX
  5
69A
330
693
100
AcDbEntity
  8
OBJECT
100
AcDbVertex
100
AcDb2dVertex
 10
52.39993759326265
 20
29.43144370433284
 30
0.0
1001
ACAD
1000
R13OBJECT
1002
{
1005
1026
1002
}
  0
VERTEX
  5
69B
330
693
100
AcDbEntity
  8
OBJECT
100
AcDbVertex
100
AcDb2dVertex
 10
52.39629311444216
 20
29.45536141885567
 30
0.0
1001
ACAD
1000
R13OBJECT
1002
{
1005
1026
1002
}
  0
VERTEX
  5
69C
330
693
100
AcDbEntity
  8
OBJECT
100
AcDbVertex
100
AcDb2dVertex
 10
52.38591451684394
 20
29.47563787815701
 30
0.0
1001
ACAD
1000
R13OBJECT
1002
{
1005
1026
1002
}
  0
VERTEX
  5
69D
330
693
100
AcDbEntity
  8
OBJECT
100
AcDbVertex
100
AcDb2dVertex
 10
52.37038184787
 20
29.4891861751148
 30
0.0
1001
ACAD
1000
R13OBJECT
1002
{
1005
1026
1002
}
  0
VERTEX
  5
69E
330
693
100
AcDbEntity
  8
OBJECT
100
AcDbVertex
100
AcDb2dVertex
 10
52.35205981556768
 20
29.49394370433284
 30
0.0
1001
ACAD
1000
R13OBJECT
1002
{
1005
1026
1002
}
  0
VERTEX
  5
69F
330
693
100
AcDbEntity
  8
OBJECT
100
AcDbVertex
100
AcDb2dVertex
 10
51.11890926620347
 20
29.49394370433284
 30
0.0
1001
ACAD
1000
R13OBJECT
1002
{
1005
1026
1002
}
  0
SEQEND
  5
6A0
330
693
100
AcDbEntity
  8
OBJECT
  0
LINE
  5
6A1
330
1E
100
AcDbEntity
  8
OBJECT
100
AcDbLine
 10
52.16343134980482
 20
29.49394370433284
 30
0.0
 11
52.16343134980482
 21
28.80594370433285
 31
0.0
  0
LWPOLYLINE
  5
6A2
330
1E
100
AcDbEntity
  8
OBJECT
100
AcDbPolyline
 90
        6
 70
     0
 43
0.0
 10
51.54840926620346
 20
28.80594370433285
 10
51.54840926620346
 20
28.73544370433284
 42
-0.4142135623730951
 10
51.43940926620349
 20
28.62644370433285
 10
50.35028426620349
 20
28.62644370433285
 42
-0.4142135623730951
 10
50.24128426620348
 20
28.73544370433284
 10
50.24128426620348
 20
28.80594370433285
  0
LWPOLYLINE
  5
6AA
330
1E
100
AcDbEntity
  8
OBJECT
100
AcDbPolyline
 90
        4
 70
     0
 43
0.0
 10
50.35028426620346
 20
28.80594370433285
 10
50.35028426620346
 20
28.73544370433284
 10
51.43940926620345
 20
28.73544370433284
 10
51.43940926620345
 20
28.80587069170573
  0
LWPOLYLINE
  5
6B0
330
1E
100
AcDbEntity
  8
OBJECT
100
AcDbPolyline
 90
        6
 70
     0
 43
0.0
 10
51.54840926620346
 20
29.49394370433284
 10
51.54840926620346
 20
29.56444370433285
 42
0.4142135623730951
 10
51.43940926620349
 20
29.67344370433284
 10
50.35028426620349
 20
29.67344370433284
 42
0.4142135623730951
 10
50.24128426620348
 20
29.56444370433285
 10
50.24128426620348
 20
29.49394370433284
  0
LWPOLYLINE
  5
6B8
330
1E
100
AcDbEntity
  8
OBJECT
100
AcDbPolyline
 90
        4
 70
     0
 43
0.0
 10
51.43940926620345
 20
29.49394370433284
 10
51.43940926620349
 20
29.56444370433285
 10
50.35028426620346
 20
29.56444370433285
 10
50.35028426620346
 20
29.49394370433284
  0
LINE
  5
6BE
330
1E
100
AcDbEntity
  8
OBJECT
100
AcDbLine
 10
50.71828426620351
 20
12.64663078233287
 30
0.0
 11
50.71828426620351
 21
12.4499437043328
 31
0.0
  0
LINE
  5
6BF
330
1E
100
AcDbEntity
  8
OBJECT
100
AcDbLine
 10
44.83510617448991
 20
32.10294370433286
 30
0.0
 11
30.08310617448991
 21
32.10294370433286
 31
0.0
  0
LINE
  5
6C0
330
1E
100
AcDbEntity
  8
OBJECT
100
AcDbLine
 10
44.83510617448991
 20
12.47894370433285
 30
0.0
 11
30.08310617448991
 21
12.47894370433286
 31
0.0
  0
LINE
  5
6C1
330
1E
100
AcDbEntity
  8
OBJECT
100
AcDbLine
 10
29.64510617448992
 20
31.66494370433285
 30
0.0
 11
29.64510617448992
 21
29.79044370433285
 31
0.0
  0
LINE
  5
6C2
330
1E
100
AcDbEntity
  8
OBJECT
100
AcDbLine
 10
45.27310617448992
 20
31.66494370433286
 30
0.0
 11
45.27310617448992
 21
29.66922137302242
 31
0.0
  0
ARC
  5
6C3
330
1E
100
AcDbEntity
  8
OBJECT
100
AcDbCircle
 10
30.08310617448991
 20
31.66494370433285
 30
0.0
 40
0.4379999999999999
100
AcDbArc
 50
90.0
 51
180.0
  0
ARC
  5
6C4
330
1E
100
AcDbEntity
  8
OBJECT
100
AcDbCircle
 10
44.83510617448991
 20
31.66494370433286
 30
0.0
 40
0.4379999999999999
100
AcDbArc
 50
0.0
 51
90.0
  0
ARC
  5
6C5
330
1E
100
AcDbEntity
  8
OBJECT
100
AcDbCircle
 10
44.83510617448991
 20
12.91694370433285
 30
0.0
 40
0.4379999999999999
100
AcDbArc
 50
270.0
 51
0.0
  0
ARC
  5
6C6
330
1E
100
AcDbEntity
  8
OBJECT
100
AcDbCircle
 10
30.08310617448991
 20
12.91694370433286
 30
0.0
 40
0.4379999999999999
100
AcDbArc
 50
180.0
 51
270.0
  0
LINE
  5
6C7
330
1E
100
AcDbEntity
  8
OBJECT
100
AcDbLine
 10
29.64510617448991
 20
14.79144370433285
 30
0.0
 11
29.64510617448991
 21
12.91694370433286
 31
0.0
  0
LINE
  5
6C8
330
1E
100
AcDbEntity
  8
OBJECT
100
AcDbLine
 10
29.64510617448992
 20
28.50944370433285
 30
0.0
 11
29.64510617448991
 21
16.07244370433285
 31
0.0
  0
LINE
  5
6C9
330
1E
100
AcDbEntity
  8
OBJECT
100
AcDbLine
 10
45.27310617448992
 20
28.63066739814595
 30
0.0
 11
45.27310617448992
 21
15.85421777617907
 31
0.0
  0
LINE
  5
6CA
330
1E
100
AcDbEntity
  8
OBJECT
100
AcDbLine
 10
45.27310617448992
 20
14.81566380130262
 30
0.0
 11
45.27310617448992
 21
12.91694370433285
 31
0.0
  0
LINE
  5
6CB
330
1E
100
AcDbEntity
  8
OBJECT
100
AcDbLine
 10
50.4033236382035
 20
32.10294370433287
 30
0.0
 11
50.71828426620349
 21
32.10294370433287
 31
0.0
  0
LINE
  5
6CC
330
1E
100
AcDbEntity
  8
OBJECT
100
AcDbLine
 10
50.4033236382035
 20
12.47894370433285
 30
0.0
 11
50.71828426620351
 21
12.47894370433285
 31
0.0
  0
LINE
  5
6CD
330
1E
100
AcDbEntity
  8
OBJECT
100
AcDbLine
 10
49.75823655320116
 20
12.75846438402984
 30
0.0
 11
50.4033236382035
 21
12.72709527339248
 31
0.0
  0
LINE
  5
6CE
330
1E
100
AcDbEntity
  8
OBJECT
100
AcDbLine
 10
49.75823655320116
 20
31.82342302463588
 30
0.0
 11
50.4033236382035
 21
31.85479213527323
 31
0.0
  0
LINE
  5
6CF
330
1E
100
AcDbEntity
  8
OBJECT
100
AcDbLine
 10
29.58810617448991
 20
31.69394370433286
 30
0.0
 11
29.58810617448991
 21
29.79044370433285
 31
0.0
  0
LINE
  5
6D0
330
1E
100
AcDbEntity
  8
OBJECT
100
AcDbLine
 10
45.33010617448992
 20
31.69394370433286
 30
0.0
 11
45.33010617448992
 21
29.6734425871625
 31
0.0
  0
LINE
  5
6D1
330
1E
100
AcDbEntity
  8
OBJECT
100
AcDbLine
 10
44.89210617448992
 20
32.13194370433286
 30
0.0
 11
30.02610617448991
 21
32.13194370433286
 31
0.0
  0
LINE
  5
6D2
330
1E
100
AcDbEntity
  8
OBJECT
100
AcDbLine
 10
44.89210617448992
 20
12.44994370433285
 30
0.0
 11
30.02610617448991
 21
12.44994370433285
 31
0.0
  0
ARC
  5
6D3
330
1E
100
AcDbEntity
  8
OBJECT
100
AcDbCircle
 10
30.02610617448991
 20
31.69394370433286
 30
0.0
 40
0.4379999999999999
100
AcDbArc
 50
90.0
 51
180.0
  0
ARC
  5
6D4
330
1E
100
AcDbEntity
  8
OBJECT
100
AcDbCircle
 10
44.89210617448992
 20
31.69394370433286
 30
0.0
 40
0.4379999999999999
100
AcDbArc
 50
0.0
 51
90.0
  0
ARC
  5
6D5
330
1E
100
AcDbEntity
  8
OBJECT
100
AcDbCircle
 10
44.89210617448992
 20
12.88794370433286
 30
0.0
 40
0.4379999999999999
100
AcDbArc
 50
270.0
 51
0.0
  0
ARC
  5
6D6
330
1E
100
AcDbEntity
  8
OBJECT
100
AcDbCircle
 10
30.02610617448991
 20
12.88794370433286
 30
0.0
 40
0.4379999999999999
100
AcDbArc
 50
180.0
 51
270.0
  0
LINE
  5
6D7
330
1E
100
AcDbEntity
  8
OBJECT
100
AcDbLine
 10
29.58810617448991
 20
28.50944370433285
 30
0.0
 11
29.58810617448991
 21
16.07244370433285
 31
0.0
  0
LINE
  5
6D8
330
1E
100
AcDbEntity
  8
OBJECT
100
AcDbLine
 10
29.58810617448991
 20
14.79144370433285
 30
0.0
 11
29.58810617448991
 21
12.88794370433286
 31
0.0
  0
LINE
  5
6D9
330
1E
100
AcDbEntity
  8
OBJECT
100
AcDbLine
 10
45.33010617448992
 20
14.81144258716253
 30
0.0
 11
45.33010617448992
 21
12.88794370433286
 31
0.0
  0
LINE
  5
6DA
330
1E
100
AcDbEntity
  8
OBJECT
100
AcDbLine
 10
45.33010617448992
 20
28.6264425871625
 30
0.0
 11
45.33010617448992
 21
15.85844258716253
 31
0.0
  0
INSERT
  5
6DB
330
1E
100
AcDbEntity
  8
TITLE
100
AcDbBlockReference
  2
HBS
 10
0.0
 20
0.0
 30
0.0
 41
5.0
 42
5.0
 43
5.0
  0
LWPOLYLINE
  5
6DC
330
1E
100
AcDbEntity
  8
HIDDEN
100
AcDbPolyline
 90
        3
 70
     0
 43
0.0
 10
50.7182842662035
 20
14.32299882208287
 10
51.9062842662035
 20
14.32299882208287
 10
51.9062842662035
 20
14.27894370433286
  0
LWPOLYLINE
  5
6E1
330
1E
100
AcDbEntity
  8
HIDDEN
100
AcDbPolyline
 90
        3
 70
     0
 43
0.0
 10
50.7182842662035
 20
13.69088858658285
 10
51.9062842662035
 20
13.69088858658285
 10
51.90628426620351
 20
13.73494370433286
  0
LWPOLYLINE
  5
6E6
330
1E
100
AcDbEntity
  8
OBJECT
100
AcDbPolyline
 90
        4
 70
     0
 43
0.0
 10
50.71828426620351
 20
14.26394370433286
 10
51.9062842662035
 20
14.26394370433286
 10
51.9062842662035
 20
13.74994370433286
 10
50.71828426620351
 20
13.74994370433286
  0
INSERT
  5
6EC
330
1E
100
AcDbEntity
  8
OBJECT
100
AcDbBlockReference
  2
*X1
 10
0.5336675728804892
 20
0.1922311656656461
 30
0.0
1001
ACAD
1000
HATCH
1002
{
1070
    16
1000
ANSI31
1040
1.0
1040
0.0
1002
}
  0
INSERT
  5
6ED
330
1E
100
AcDbEntity
  8
OBJECT
100
AcDbBlockReference
  2
*X2
 10
0.5336675728804892
 20
0.1922311656656461
 30
0.0
1001
ACAD
1000
HATCH
1002
{
1070
    16
1000
ANSI31
1040
1.0
1040
1.570796326794896
1002
}
  0
LWPOLYLINE
  5
6EE
330
1E
100
AcDbEntity
  8
OBJECT
100
AcDbPolyline
 90
        4
 70
     0
 43
0.0
 10
57.32592988770353
 20
22.98594370433285
 10
52.08592988770354
 20
22.98594370433286
 10
52.08592988770354
 20
22.73594370433286
 10
57.32592988770354
 20
22.73594370433286
  0
LWPOLYLINE
  5
6F4
330
1E
100
AcDbEntity
  8
OBJECT
100
AcDbPolyline
 90
        4
 70
     0
 43
0.0
 10
57.32592988770354
 20
22.60594370433286
 10
52.08592988770354
 20
22.60594370433286
 10
52.08592988770353
 20
22.35594370433286
 10
57.32592988770354
 20
22.35594370433286
  0
LWPOLYLINE
  5
6FA
330
1E
100
AcDbEntity
  8
OBJECT
100
AcDbPolyline
 90
        4
 70
     0
 43
0.0
 10
57.32592988770354
 20
22.22594370433285
 10
52.08592988770353
 20
22.22594370433285
 10
52.08592988770353
 20
21.97594370433285
 10
57.32592988770354
 20
21.97594370433286
  0
LWPOLYLINE
  5
700
330
1E
100
AcDbEntity
  8
OBJECT
100
AcDbPolyline
 90
        4
 70
     0
 43
0.0
 10
57.32592988770354
 20
21.84594370433285
 10
52.08592988770353
 20
21.84594370433285
 10
52.08592988770353
 20
21.59594370433286
 10
57.32592988770354
 20
21.59594370433286
  0
TEXT
  5
706
330
1E
100
AcDbEntity
  8
TEXT
100
AcDbText
 10
55.84376917147953
 20
9.622566306132156
 30
0.0
 40
0.625
  1
DIMENSIONS =
 41
0.75
  7
TXT
100
AcDbText
  0
TEXT
  5
707
330
1E
100
AcDbEntity
  8
TEXT
100
AcDbText
 10
62.8011117282849
 20
10.15890878229243
 30
0.0
 40
0.625
  1
INCHES
 41
0.75
  7
TXT
 72
     1
 11
64.0511117282849
 21
10.15890878229243
 31
0.0
100
AcDbText
  0
TEXT
  5
708
330
1E
100
AcDbEntity
  8
TEXT
100
AcDbText
 10
61.3948617282849
 20
9.117242115625764
 30
0.0
 40
0.625
  1
[MILLIMETERS]
 41
0.75
  7
TXT
 72
     1
 11
64.0511117282849
 21
9.117242115625764
 31
0.0
100
AcDbText
  0
TEXT
  5
709
330
1E
100
AcDbEntity
  8
TEXT
100
AcDbText
 10
60.66356125464942
 20
31.56916549803637
 30
0.0
 40
0.6240000000000001
  1
%%UINDUSTRY STANDARDS:
 41
0.75
  7
TXT
100
AcDbText
  0
TEXT
  5
70A
330
1E
100
AcDbEntity
  8
TEXT
100
AcDbText
 10
60.66356125464942
 20
30.52916549803636
 30
0.0
 40
0.6240000000000001
  1
UL508 TYPE 1, 2, 4, 4X INDOOR, 12 & 13
 41
0.75
  7
TXT
100
AcDbText
  0
TEXT
  5
70B
330
1E
100
AcDbEntity
  8
TEXT
100
AcDbText
 10
60.66356125464942
 20
29.48916549803637
 30
0.0
 40
0.6240000000000001
  1
NEMA TYPE 1, 2, 4, 4X, 12 & 13
 41
0.75
  7
TXT
100
AcDbText
  0
TEXT
  5
70C
330
1E
100
AcDbEntity
  8
TEXT
100
AcDbText
 10
60.66356125464942
 20
28.44916549803635
 30
0.0
 40
0.6240000000000001
  1
IEC529-IP65
 41
0.75
  7
TXT
100
AcDbText
  0
TEXT
  5
70D
330
1E
100
AcDbEntity
  8
TEXT
100
AcDbText
 10
55.84376917147953
 20
7.09349211562575
 30
0.0
 40
0.625
  1
%%UNOTE%%U: ALL DIMENSIONS HAVE %%P0.039 [%%P1] TOLERANCE
 41
0.75
  7
TXT
100
AcDbText
  0
TEXT
  5
70E
330
1E
100
AcDbEntity
  8
TEXT
100
AcDbText
 10
58.38667272688861
 20
6.111408782292407
 30
0.0
 40
0.625
  1
UNLESS OTHERWISE SPECIFIED
 41
0.75
  7
TXT
100
AcDbText
  0
TEXT
  5
70F
330
1E
100
AcDbEntity
  8
TEXT
100
AcDbText
 10
63.14180901894437
 20
43.04639415392188
 30
0.0
 40
0.6249999999999993
  1
(4) WALL MOUNTING BRKTS.
 41
0.75
  7
TXT
100
AcDbText
  0
TEXT
  5
710
330
1E
100
AcDbEntity
  8
TEXT
100
AcDbText
 10
63.14180901894437
 20
40.96306082058856
 30
0.0
 40
0.6249999999999993
  1
HD. MACHINE SCREWS (NOT SHOWN)
 41
0.75
  7
TXT
100
AcDbText
  0
TEXT
  5
711
330
1E
100
AcDbEntity
  8
TEXT
100
AcDbText
 10
60.66356125464942
 20
44.03465724362746
 30
0.0
 40
0.6249999999999993
  1
%%UNOTE:%%u UNIT COMES COMPLETE WITH
 41
0.75
  7
TXT
100
AcDbText
  0
TEXT
  5
712
330
1E
100
AcDbEntity
  8
TEXT
100
AcDbText
 10
12.14474013897858
 20
45.08139812818855
 30
0.0
 40
0.6249999999999995
  1
UL94-5VB FLAMMABILITY RATING
 41
0.75
  7
TXT
100
AcDbText
  0
TEXT
  5
714
330
1E
100
AcDbEntity
  8
TEXT
100
AcDbText
 10
12.14474013897858
 20
41.96919438456567
 30
0.0
 40
0.6249999999999995
  1
UL94V-0 FLAMMABILITY RATING
 41
0.75
  7
TXT
100
AcDbText
  0
TEXT
  5
715
330
1E
100
AcDbEntity
  8
TEXT
100
AcDbText
 10
12.14474013897858
 20
43.01086105123234
 30
0.0
 40
0.6249999999999995
  1
POLYCARBONATE PLASTIC
 41
0.75
  7
TXT
100
AcDbText
  0
LINE
  5
716
330
1E
100
AcDbEntity
  8
TEXT
100
AcDbLine
 10
12.34813044587594
 20
38.86099705119919
 30
0.0
 11
13.19413224712789
 21
38.86099705119919
 31
0.0
  0
LINE
  5
717
330
1E
100
AcDbEntity
  8
TEXT
100
AcDbLine
 10
32.33320797069584
 20
46.11666666666666
 30
0.0
 11
36.39649588830543
 21
46.11666666666666
 31
0.0
  0
TEXT
  5
718
330
1E
100
AcDbEntity
  8
TEXT
100
AcDbText
 10
36.70842354398307
 20
45.075
 30
0.0
 40
0.6249999999999995
  1
LIGHT GRAY OR CLEAR
 41
0.75
  7
TXT
100
AcDbText
  0
TEXT
  5
719
330
1E
100
AcDbEntity
  8
TEXT
100
AcDbText
 10
12.14474013897858
 20
46.12306479485522
 30
0.0
 40
0.6249999999999995
  1
ABS/PC BLENDED PLASTIC
 41
0.75
  7
TXT
100
AcDbText
  0
LINE
  5
71A
330
1E
100
AcDbEntity
  8
TEXT
100
AcDbLine
 10
7.287685065449611
 20
43.01086105123234
 30
0.0
 11
11.83281248330092
 21
43.01086105123234
 31
0.0
  0
TEXT
  5
71B
330
1E
100
AcDbEntity
  8
TEXT
100
AcDbText
 10
1.846736563966988
 20
38.86099705119919
 30
0.0
 40
0.6249999999999995
  1
WALL MOUNTING BRACKETS
 41
0.75
  7
TXT
100
AcDbText
  0
LINE
  5
71C
330
1E
100
AcDbEntity
  8
TEXT
100
AcDbLine
 10
32.93367770213992
 20
45.075
 30
0.0
 11
36.39649588830543
 21
45.075
 31
0.0
  0
TEXT
  5
71D
330
1E
100
AcDbEntity
  8
TEXT
100
AcDbText
 10
1.846736563966988
 20
39.90266371786586
 30
0.0
 40
0.6249999999999995
  1
LATCHES, HINGES &
 41
0.75
  7
TXT
100
AcDbText
  0
TEXT
  5
71E
330
1E
100
AcDbEntity
  8
TEXT
100
AcDbText
 10
1.846736563966988
 20
46.12306479485522
 30
0.0
 40
0.6249999999999995
  1
SOLID BODY & COVER
 41
0.75
  7
TXT
100
AcDbText
  0
TEXT
  5
71F
330
1E
100
AcDbEntity
  8
TEXT
100
AcDbText
 10
1.846736563966988
 20
43.01086105123234
 30
0.0
 40
0.6249999999999995
  1
CLEAR COVER
 41
0.75
  7
TXT
100
AcDbText
  0
TEXT
  5
720
330
1E
100
AcDbEntity
  8
TEXT
100
AcDbText
 10
30.3600987454647
 20
45.075
 30
0.0
 40
0.6249999999999995
  1
COVER
 41
0.75
  7
TXT
100
AcDbText
  0
TEXT
  5
721
330
1E
100
AcDbEntity
  8
TEXT
100
AcDbText
 10
30.3600987454647
 20
46.11666666666666
 30
0.0
 40
0.6249999999999995
  1
BODY
 41
0.75
  7
TXT
100
AcDbText
  0
TEXT
  5
722
330
1E
100
AcDbEntity
  8
TEXT
100
AcDbText
 10
29.59173046348121
 20
47.15833333333333
 30
0.0
 40
0.6249999999999995
  1
%%UFINISH:
 41
0.75
  7
TXT
100
AcDbText
  0
LINE
  5
723
330
1E
100
AcDbEntity
  8
TEXT
100
AcDbLine
 10
10.47149271947395
 20
46.12306479485522
 30
0.0
 11
11.83281248330092
 21
46.12306479485522
 31
0.0
  0
TEXT
  5
724
330
1E
100
AcDbEntity
  8
TEXT
100
AcDbText
 10
13.50605990280554
 20
38.86099705119915
 30
0.0
 40
0.6249999999999995
  1
STAINLESS STEEL
 41
0.75
  7
TXT
100
AcDbText
  0
TEXT
  5
725
330
1E
100
AcDbEntity
  8
TEXT
100
AcDbText
 10
36.70842354398307
 20
46.11666666666666
 30
0.0
 40
0.6249999999999995
  1
LIGHT GRAY
 41
0.75
  7
TXT
100
AcDbText
  0
TEXT
  5
726
330
1E
100
AcDbEntity
  8
TEXT
100
AcDbText
 10
1.078368281983479
 20
47.15833333333333
 30
0.0
 40
0.6249999999999995
  1
%%UMATERIAL:
 41
0.75
  7
TXT
100
AcDbText
  0
TEXT
  5
728
330
1E
100
AcDbEntity
  8
TEXT
100
AcDbText
 10
12.14474013897858
 20
40.93554053841181
 30
0.0
 40
0.6249999999999995
  1
UV STABILIZED
 41
0.75
  7
TXT
100
AcDbText
  0
TEXT
  5
729
330
1E
100
AcDbEntity
  8
TEXT
100
AcDbText
 10
60.66356125464941
 20
47.15833333333333
 30
0.0
 40
0.625
  1
COVER INCLUDES GRAY POLY-
 41
0.75
  7
TXT
100
AcDbText
  0
TEXT
  5
72A
330
1E
100
AcDbEntity
  8
TEXT
100
AcDbText
 10
63.14180901894437
 20
42.00472748725522
 30
0.0
 40
0.6249999999999993
  1
& (4) M5 x 10mm LG. TRUSS
 41
0.75
  7
TXT
100
AcDbText
  0
TEXT
  5
72B
330
1E
100
AcDbEntity
  8
TEXT
100
AcDbText
 10
60.66356125464942
 20
38.88590369812796
 30
0.0
 40
0.625
  1
INTERNAL HINGED PANEL MOUNTING
 41
0.75
  7
TXT
100
AcDbText
  0
TEXT
  5
72C
330
1E
100
AcDbEntity
  8
TEXT
100
AcDbText
 10
60.66356125464942
 20
37.84333827030003
 30
0.0
 40
0.625
  1
BRACKETS, AIR & MOISTURE VENTS,
 41
0.75
  7
TXT
100
AcDbText
  0
TEXT
  5
72D
330
1E
100
AcDbEntity
  8
TEXT
100
AcDbText
 10
60.66356125464942
 20
33.66368645634028
 30
0.0
 40
0.625
  1
CAN BE PURCHASED SEPARATELY.
 41
0.75
  7
TXT
100
AcDbText
  0
TEXT
  5
72E
330
1E
100
AcDbEntity
  8
TEXT
100
AcDbText
 10
60.66356125464942
 20
36.80077284247211
 30
0.0
 40
0.625
  1
STAINLESS STEEL LOCKING HASP
 41
0.75
  7
TXT
100
AcDbText
  0
TEXT
  5
72F
330
1E
100
AcDbEntity
  8
TEXT
100
AcDbText
 10
60.66356125464942
 20
35.7582074146442
 30
0.0
 40
0.625
  1
AND GALVANIZED STEEL INTERNAL
 41
0.75
  7
TXT
100
AcDbText
  0
TEXT
  5
730
330
1E
100
AcDbEntity
  8
TEXT
100
AcDbText
 10
60.66356125464942
 20
34.71564198681631
 30
0.0
 40
0.625
  1
PANEL ARE NOT INCLUDED, BUT
 41
0.75
  7
TXT
100
AcDbText
  0
LEADER
  5
91B
330
1E
100
AcDbEntity
  8
DIM
100
AcDbLeader
  3
23NSTD
 73
     0
 40
3.749999999999999
 41
16.5625
 76
     3
 10
15.8532499994362
 20
13.79836922885788
 30
0.0
 10
18.76347914349869
 20
10.91230003098149
 30
0.0
 10
17.72209832202308
 20
10.91230003098149
 30
0.0
340
91C
213
0.0
223
-0.3125
233
0.0
1001
ACAD
1000
DSTYLE
1002
{
1070
   147
1040
0.09
1070
    77
1070
     0
1002
}
  0
MTEXT
  5
91C
102
{ACAD_REACTORS
330
91B
102
}
330
1E
100
AcDbEntity
  8
DIM
100
AcDbMText
 10
17.27209832202308
 20
11.22480003098149
 30
0.0
 40
0.625
 41
0.0
 71
     3
 72
     1
  1
0.590 [15] DIA. BOSS WITH 0.197 [5] DIA.\PHOLE x 0.425 [11] DEEP (10) PLACES\PBOSSES ACCEPT M6 METRIC OR 0.250" STD.\PSHEET METAL SCREWS x 0.375 [9] LG.
  7
TXT
 73
     1
 44
1.0
  0
DIMENSION
  5
9E6
330
1E
100
AcDbEntity
  8
DIM
100
AcDbDimension
  2
*D24
 10
27.60831037112939
 20
13.86944370433286
 30
0.0
 11
27.60831037112938
 21
22.29094370433287
 31
0.0
 70
    32
  1
K
 71
     5
 42
16.84299999999999
  3
23NSTD
100
AcDbAlignedDimension
 13
22.01665604931231
 23
30.71244370433285
 33
0.0
 14
22.01665604931231
 24
13.86944370433286
 34
0.0
 50
90.0
100
AcDbRotatedDimension
  0
TEXT
  5
A55
330
1E
100
AcDbEntity
  8
TEXT
100
AcDbText
 10
60.66356125464941
 20
46.1157679055054
 30
0.0
 40
0.625
  1
   URETHANE GASKET.
 41
0.75
  7
TXT
100
AcDbText
  0
TEXT
  5
CF9
330
1E
100
AcDbEntity
  8
TEXT
100
AcDbText
 10
70.51924182648445
 20
-0.8261863036691607
 30
0.0
 40
0.625
  1
Revised 26JUN07
 41
0.75
  7
TXT
 72
     1
 11
73.76142932648445
 21
-0.8261863036691607
 31
0.0
100
AcDbText
  0
TEXT
  5
D02
330
1E
100
AcDbEntity
  8
DIM
100
AcDbText
 10
4.278880362565985
 20
6.417745543896202
 30
0.0
 40
0.625
  1
(NOT SUPPLIED)
 41
0.75
  7
TXT
100
AcDbText
  0
ENDSEC
  0
SECTION
  2
OBJECTS
  0
DICTIONARY
  5
C
330
0
100
AcDbDictionary
281
     1
  3
ACAD_GROUP
350
D
  3
ACAD_LAYOUT
350
19
  3
ACAD_MLINESTYLE
350
16
  3
ACAD_PLOTSETTINGS
350
18
  3
ACAD_PLOTSTYLENAME
350
E
  3
AcadDim
350
91A
  0
DICTIONARY
  5
D
102
{ACAD_REACTORS
330
C
102
}
330
C
100
AcDbDictionary
281
     1
  0
DICTIONARY
  5
19
102
{ACAD_REACTORS
330
C
102
}
330
C
100
AcDbDictionary
281
     1
  3
Layout1
350
1D
  3
Model
350
21
  0
DICTIONARY
  5
16
102
{ACAD_REACTORS
330
C
102
}
330
C
100
AcDbDictionary
281
     1
  3
Standard
350
17
  0
DICTIONARY
  5
18
102
{ACAD_REACTORS
330
C
102
}
330
C
100
AcDbDictionary
281
     1
  0
ACDBDICTIONARYWDFLT
  5
E
102
{ACAD_REACTORS
330
C
102
}
330
C
100
AcDbDictionary
281
     1
  3
Normal
350
F
100
AcDbDictionaryWithDefault
340
F
  0
XRECORD
  5
91A
102
{ACAD_REACTORS
330
C
102
}
330
C
100
AcDbXrecord
280
     1
 90
   990106
  3

 60
     0
 61
     0
 62
     1
 63
     1
 64
     0
 65
     0
 66
     0
 67
     3
 68
     0
 69
     0
 70
     0
 71
     0
 72
     0
 40
0.0
170
     2
340
91C
  0
LAYOUT
  5
1D
102
{ACAD_REACTORS
330
19
102
}
330
19
100
AcDbPlotSettings
  1

  2
HP DesignJet 430 (D/A1) by HP
  4

  6

 40
0.0
 41
0.0
 42
0.0
 43
0.0
 44
0.0
 45
0.0
 46
0.0
 47
0.0
 48
0.0
 49
0.0
140
0.0
141
0.0
142
1.0
143
1.0
 70
   688
 72
     0
 73
     0
 74
     5
  7
monochrome.ctb
 75
    16
147
1.0
148
0.0
149
0.0
100
AcDbLayout
  1
Layout1
 70
     1
 71
     1
 10
0.0
 20
0.0
 11
12.0
 21
9.0
 12
0.0
 22
0.0
 32
0.0
 14
1.000000000000000E+20
 24
1.000000000000000E+20
 34
1.000000000000000E+20
 15
-1.000000000000000E+20
 25
-1.000000000000000E+20
 35
-1.000000000000000E+20
146
0.0
 13
0.0
 23
0.0
 33
0.0
 16
1.0
 26
0.0
 36
0.0
 17
0.0
 27
1.0
 37
0.0
 76
     0
330
1A
  0
LAYOUT
  5
21
102
{ACAD_REACTORS
330
19
102
}
330
19
100
AcDbPlotSettings
  1

  2
RICOH Aficio 1060 PCL 6
  4
Letter
  6

 40
5.027083396911621
 41
5.027085304260253
 42
5.027084350585937
 43
5.027069091796875
 44
215.8999938964843
 45
279.3999938964843
 46
13.462
 47
0.0
 48
0.0
 49
0.0
140
0.0
141
0.0
142
1.0
143
7.308942863956856
 70
 11956
 72
     0
 73
     1
 74
     1
  7
monochrome.ctb
 75
     0
147
0.1368186916512066
148
0.0114383875920964
149
21.06485411858904
100
AcDbLayout
  1
Model
 70
     1
 71
     0
 10
0.0
 20
0.0
 11
12.0
 21
9.0
 12
0.0
 22
0.0
 32
0.0
 14
0.0
 24
0.0
 34
0.0
 15
0.0
 25
0.0
 35
0.0
146
0.0
 13
0.0
 23
0.0
 33
0.0
 16
1.0
 26
0.0
 36
0.0
 17
0.0
 27
1.0
 37
0.0
 76
     0
330
1E
  0
MLINESTYLE
  5
17
102
{ACAD_REACTORS
330
16
102
}
330
16
100
AcDbMlineStyle
  2
STANDARD
 70
     0
  3

 62
   256
 51
90.0
 52
90.0
 71
     2
 49
0.5
 62
   256
  6
BYLAYER
 49
-0.5
 62
   256
  6
BYLAYER
  0
ACDBPLACEHOLDER
  5
F
102
{ACAD_REACTORS
330
E
102
}
330
E
  0
ENDSEC
  0
EOF
