  0
SECTION
  2
HEADER
  9
$ACADVER
  1
AC1015
  9
$ACADMAINTVER
 70
     6
  9
$DWGCODEPAGE
  3
ANSI_1252
  9
$INSBASE
 10
0.0
 20
0.0
 30
0.0
  9
$EXTMIN
 10
-0.0018919454909536
 20
-0.6238158025606851
 30
-0.0015258207003583
  9
$EXTMAX
 10
62.00189223420093
 20
40.48125444633398
 30
0.0000000349246037
  9
$LIMMIN
 10
0.0
 20
0.0
  9
$LIMMAX
 10
62.0
 20
40.47999999999999
  9
$ORTHOMODE
 70
     1
  9
$REGENMODE
 70
     1
  9
$FILLMODE
 70
     1
  9
$QTEXTMODE
 70
     0
  9
$MIRRTEXT
 70
     0
  9
$LTSCALE
 40
1.25
  9
$ATTMODE
 70
     1
  9
$TEXTSIZE
 40
0.5
  9
$TRACEWID
 40
0.05
  9
$TEXTSTYLE
  7
TXT
  9
$CLAYER
  8
OBJECT
  9
$CELTYPE
  6
ByLayer
  9
$CECOLOR
 62
   256
  9
$CELTSCALE
 40
1.0
  9
$DISPSILH
 70
     0
  9
$DIMSCALE
 40
4.0
  9
$DIMASZ
 40
0.18
  9
$DIMEXO
 40
0.063
  9
$DIMDLI
 40
0.25
  9
$DIMRND
 40
0.0
  9
$DIMDLE
 40
0.0
  9
$DIMEXE
 40
0.093
  9
$DIMTP
 40
0.0
  9
$DIMTM
 40
0.0
  9
$DIMTXT
 40
0.125
  9
$DIMCEN
 40
0.09
  9
$DIMTSZ
 40
0.0
  9
$DIMTOL
 70
     0
  9
$DIMLIM
 70
     0
  9
$DIMTIH
 70
     1
  9
$DIMTOH
 70
     1
  9
$DIMSE1
 70
     0
  9
$DIMSE2
 70
     0
  9
$DIMTAD
 70
     0
  9
$DIMZIN
 70
     0
  9
$DIMBLK
  1

  9
$DIMASO
 70
     1
  9
$DIMSHO
 70
     1
  9
$DIMPOST
  1

  9
$DIMAPOST
  1

  9
$DIMALT
 70
     1
  9
$DIMALTD
 70
     0
  9
$DIMALTF
 40
25.4
  9
$DIMLFAC
 40
1.0
  9
$DIMTOFL
 70
     0
  9
$DIMTVP
 40
0.0
  9
$DIMTIX
 70
     0
  9
$DIMSOXD
 70
     0
  9
$DIMSAH
 70
     0
  9
$DIMBLK1
  1

  9
$DIMBLK2
  1

  9
$DIMSTYLE
  2
23NSTD
  9
$DIMCLRD
 70
     0
  9
$DIMCLRE
 70
     0
  9
$DIMCLRT
 70
     0
  9
$DIMTFAC
 40
1.0
  9
$DIMGAP
 40
0.09
  9
$DIMJUST
 70
     0
  9
$DIMSD1
 70
     0
  9
$DIMSD2
 70
     0
  9
$DIMTOLJ
 70
     1
  9
$DIMTZIN
 70
     0
  9
$DIMALTZ
 70
     0
  9
$DIMALTTZ
 70
     0
  9
$DIMUPT
 70
     0
  9
$DIMDEC
 70
     3
  9
$DIMTDEC
 70
     3
  9
$DIMALTU
 70
     2
  9
$DIMALTTD
 70
     0
  9
$DIMTXSTY
  7
TXT
  9
$DIMAUNIT
 70
     0
  9
$DIMADEC
 70
     0
  9
$DIMALTRND
 40
0.0
  9
$DIMAZIN
 70
     0
  9
$DIMDSEP
 70
    46
  9
$DIMATFIT
 70
     1
  9
$DIMFRAC
 70
     0
  9
$DIMLDRBLK
  1

  9
$DIMLUNIT
 70
     2
  9
$DIMLWD
 70
    -2
  9
$DIMLWE
 70
    -2
  9
$DIMTMOVE
 70
     0
  9
$LUNITS
 70
     2
  9
$LUPREC
 70
     3
  9
$SKETCHINC
 40
0.1
  9
$FILLETRAD
 40
0.0
  9
$AUNITS
 70
     0
  9
$AUPREC
 70
     0
  9
$MENU
  1
acad
  9
$ELEVATION
 40
0.0
  9
$PELEVATION
 40
0.0
  9
$THICKNESS
 40
0.0
  9
$LIMCHECK
 70
     0
  9
$CHAMFERA
 40
0.0
  9
$CHAMFERB
 40
0.0
  9
$CHAMFERC
 40
0.0
  9
$CHAMFERD
 40
0.0
  9
$SKPOLY
 70
     0
  9
$TDCREATE
 40
2451095.630225462
  9
$TDUCREATE
 40
2451095.796892130
  9
$TDUPDATE
 40
2454306.459495439
  9
$TDUUPDATE
 40
2454306.626162106
  9
$TDINDWG
 40
0.4593557060
  9
$TDUSRTIMER
 40
0.4593557060
  9
$USRTIMER
 70
     1
  9
$ANGBASE
 50
0.0
  9
$ANGDIR
 70
     0
  9
$PDMODE
 70
     0
  9
$PDSIZE
 40
0.0
  9
$PLINEWID
 40
0.0
  9
$SPLFRAME
 70
     0
  9
$SPLINETYPE
 70
     6
  9
$SPLINESEGS
 70
     8
  9
$HANDSEED
  5
739
  9
$SURFTAB1
 70
     6
  9
$SURFTAB2
 70
     6
  9
$SURFTYPE
 70
     6
  9
$SURFU
 70
     6
  9
$SURFV
 70
     6
  9
$UCSBASE
  2

  9
$UCSNAME
  2

  9
$UCSORG
 10
0.0
 20
0.0
 30
0.0
  9
$UCSXDIR
 10
1.0
 20
0.0
 30
0.0
  9
$UCSYDIR
 10
0.0
 20
1.0
 30
0.0
  9
$UCSORTHOREF
  2

  9
$UCSORTHOVIEW
 70
     0
  9
$UCSORGTOP
 10
0.0
 20
0.0
 30
0.0
  9
$UCSORGBOTTOM
 10
0.0
 20
0.0
 30
0.0
  9
$UCSORGLEFT
 10
0.0
 20
0.0
 30
0.0
  9
$UCSORGRIGHT
 10
0.0
 20
0.0
 30
0.0
  9
$UCSORGFRONT
 10
0.0
 20
0.0
 30
0.0
  9
$UCSORGBACK
 10
0.0
 20
0.0
 30
0.0
  9
$PUCSBASE
  2

  9
$PUCSNAME
  2

  9
$PUCSORG
 10
0.0
 20
0.0
 30
0.0
  9
$PUCSXDIR
 10
1.0
 20
0.0
 30
0.0
  9
$PUCSYDIR
 10
0.0
 20
1.0
 30
0.0
  9
$PUCSORTHOREF
  2

  9
$PUCSORTHOVIEW
 70
     0
  9
$PUCSORGTOP
 10
0.0
 20
0.0
 30
0.0
  9
$PUCSORGBOTTOM
 10
0.0
 20
0.0
 30
0.0
  9
$PUCSORGLEFT
 10
0.0
 20
0.0
 30
0.0
  9
$PUCSORGRIGHT
 10
0.0
 20
0.0
 30
0.0
  9
$PUCSORGFRONT
 10
0.0
 20
0.0
 30
0.0
  9
$PUCSORGBACK
 10
0.0
 20
0.0
 30
0.0
  9
$USERI1
 70
     0
  9
$USERI2
 70
     0
  9
$USERI3
 70
     0
  9
$USERI4
 70
     0
  9
$USERI5
 70
     0
  9
$USERR1
 40
0.0
  9
$USERR2
 40
0.0
  9
$USERR3
 40
0.0
  9
$USERR4
 40
0.0
  9
$USERR5
 40
0.0
  9
$WORLDVIEW
 70
     0
  9
$SHADEDGE
 70
     3
  9
$SHADEDIF
 70
    70
  9
$TILEMODE
 70
     1
  9
$MAXACTVP
 70
    16
  9
$PINSBASE
 10
0.0
 20
0.0
 30
0.0
  9
$PLIMCHECK
 70
     0
  9
$PEXTMIN
 10
1.000000000000000E+20
 20
1.000000000000000E+20
 30
1.000000000000000E+20
  9
$PEXTMAX
 10
-1.000000000000000E+20
 20
-1.000000000000000E+20
 30
-1.000000000000000E+20
  9
$PLIMMIN
 10
0.0
 20
0.0
  9
$PLIMMAX
 10
12.0
 20
9.0
  9
$UNITMODE
 70
     0
  9
$VISRETAIN
 70
     0
  9
$PLINEGEN
 70
     0
  9
$PSLTSCALE
 70
     1
  9
$TREEDEPTH
 70
  3020
  9
$CMLSTYLE
  2
Standard
  9
$CMLJUST
 70
     0
  9
$CMLSCALE
 40
1.0
  9
$PROXYGRAPHICS
 70
     1
  9
$MEASUREMENT
 70
     0
  9
$CELWEIGHT
370
    -1
  9
$ENDCAPS
280
     0
  9
$JOINSTYLE
280
     0
  9
$LWDISPLAY
290
     0
  9
$INSUNITS
 70
     0
  9
$HYPERLINKBASE
  1

  9
$STYLESHEET
  1
monochrome.ctb
  9
$XEDIT
290
     1
  9
$CEPSNTYPE
380
     0
  9
$PSTYLEMODE
290
     1
  9
$FINGERPRINTGUID
  2
{30EEE162-C9DF-11D8-8607-00C04F604D21}
  9
$VERSIONGUID
  2
{2E849812-6CBF-4B0D-889C-D36F249ADA50}
  9
$EXTNAMES
290
     1
  9
$PSVPSCALE
 40
0.0
  9
$OLESTARTUP
290
     0
  0
ENDSEC
  0
SECTION
  2
CLASSES
  0
CLASS
  1
ACDBDICTIONARYWDFLT
  2
AcDbDictionaryWithDefault
  3
AutoCAD 2000
 90
        0
280
     0
281
     0
  0
CLASS
  1
ACDBPLACEHOLDER
  2
AcDbPlaceHolder
  3
AutoCAD 2000
 90
        0
280
     0
281
     0
  0
CLASS
  1
LAYOUT
  2
AcDbLayout
  3
AutoCAD 2000
 90
        0
280
     0
281
     0
  0
ENDSEC
  0
SECTION
  2
TABLES
  0
TABLE
  2
VPORT
  5
8
330
0
100
AcDbSymbolTable
 70
     2
  0
VPORT
  5
738
330
8
100
AcDbSymbolTableRecord
100
AcDbViewportTableRecord
  2
*Active
 70
     0
 10
0.0
 20
0.0
 11
1.0
 21
1.0
 12
31.00000043309139
 22
19.92871951330288
 13
0.0
 23
0.0
 14
1.0
 24
1.0
 15
0.0
 25
0.0
 16
0.0
 26
0.0
 36
1.0
 17
0.0
 27
0.0
 37
0.0
 40
41.51485374792815
 41
1.824707846410684
 42
50.0
 43
0.0
 44
0.0
 50
0.0
 51
0.0
 71
     0
 72
   100
 73
     1
 74
     0
 75
     0
 76
     0
 77
     0
 78
     0
281
     0
 65
     1
110
0.0
120
0.0
130
0.0
111
1.0
121
0.0
131
0.0
112
0.0
122
1.0
132
0.0
 79
     0
146
0.0
  0
ENDTAB
  0
TABLE
  2
LTYPE
  5
5
330
0
100
AcDbSymbolTable
 70
     4
  0
LTYPE
  5
13
330
5
100
AcDbSymbolTableRecord
100
AcDbLinetypeTableRecord
  2
ByBlock
 70
     0
  3

 72
    65
 73
     0
 40
0.0
  0
LTYPE
  5
14
330
5
100
AcDbSymbolTableRecord
100
AcDbLinetypeTableRecord
  2
ByLayer
 70
     0
  3

 72
    65
 73
     0
 40
0.0
  0
LTYPE
  5
15
330
5
100
AcDbSymbolTableRecord
100
AcDbLinetypeTableRecord
  2
CONTINUOUS
 70
     0
  3
Solid line
 72
    65
 73
     0
 40
0.0
  0
LTYPE
  5
36
330
5
100
AcDbSymbolTableRecord
100
AcDbLinetypeTableRecord
  2
PHANTOM
 70
     0
  3
_____ _ _ _____ _ _ _____ _ _ _____ _ _ ____
 72
    65
 73
     6
 40
2.5
 49
1.25
 74
     0
 49
-0.25
 74
     0
 49
0.25
 74
     0
 49
-0.25
 74
     0
 49
0.25
 74
     0
 49
-0.25
 74
     0
  0
LTYPE
  5
37
330
5
100
AcDbSymbolTableRecord
100
AcDbLinetypeTableRecord
  2
CENTER
 70
     0
  3
____ _ ____ _ ____ _ ____ _ ____ _ ____ _ ____
 72
    65
 73
     4
 40
2.0
 49
1.25
 74
     0
 49
-0.25
 74
     0
 49
0.25
 74
     0
 49
-0.25
 74
     0
  0
LTYPE
  5
38
330
5
100
AcDbSymbolTableRecord
100
AcDbLinetypeTableRecord
  2
HIDDEN2
 70
     0
  3
_ _ _ _ _ _ _ _ _ _ _ _ _ _ _ _ _ _ _ _ _ _ _ _
 72
    65
 73
     2
 40
0.1875
 49
0.125
 74
     0
 49
-0.0625
 74
     0
  0
ENDTAB
  0
TABLE
  2
LAYER
  5
2
330
0
100
AcDbSymbolTable
 70
     9
  0
LAYER
  5
10
330
2
100
AcDbSymbolTableRecord
100
AcDbLayerTableRecord
  2
0
 70
     0
 62
     7
  6
CONTINUOUS
370
    -3
390
F
  0
LAYER
  5
3C
330
2
100
AcDbSymbolTableRecord
100
AcDbLayerTableRecord
  2
OBJECT
 70
     0
 62
     7
  6
CONTINUOUS
370
    -3
390
F
  0
LAYER
  5
3D
330
2
100
AcDbSymbolTableRecord
100
AcDbLayerTableRecord
  2
DIM
 70
     0
 62
     7
  6
CONTINUOUS
370
    -3
390
F
  0
LAYER
  5
3E
330
2
100
AcDbSymbolTableRecord
100
AcDbLayerTableRecord
  2
HIDDEN
 70
     0
 62
     7
  6
HIDDEN2
370
    -3
390
F
  0
LAYER
  5
3F
330
2
100
AcDbSymbolTableRecord
100
AcDbLayerTableRecord
  2
BEND
 70
     0
 62
     7
  6
PHANTOM
370
    -3
390
F
  0
LAYER
  5
40
330
2
100
AcDbSymbolTableRecord
100
AcDbLayerTableRecord
  2
TEXT
 70
     0
 62
     7
  6
CONTINUOUS
370
    -3
390
F
  0
LAYER
  5
41
330
2
100
AcDbSymbolTableRecord
100
AcDbLayerTableRecord
  2
TITLE
 70
     0
 62
     7
  6
CONTINUOUS
370
    -3
390
F
  0
LAYER
  5
42
330
2
100
AcDbSymbolTableRecord
100
AcDbLayerTableRecord
  2
CENTER
 70
     0
 62
     7
  6
CENTER
370
    -3
390
F
  0
LAYER
  5
43
330
2
100
AcDbSymbolTableRecord
100
AcDbLayerTableRecord
  2
DEFPOINTS
 70
     0
 62
     7
  6
CONTINUOUS
290
     0
370
    -3
390
F
  0
ENDTAB
  0
TABLE
  2
STYLE
  5
3
330
0
100
AcDbSymbolTable
 70
     2
  0
STYLE
  5
11
330
3
100
AcDbSymbolTableRecord
100
AcDbTextStyleTableRecord
  2
STANDARD
 70
     0
 40
0.0
 41
1.0
 50
0.0
 71
     0
 42
0.2
  3
txt
  4

  0
STYLE
  5
35
330
3
100
AcDbSymbolTableRecord
100
AcDbTextStyleTableRecord
  2
TXT
 70
     0
 40
0.0
 41
0.75
 50
0.0
 71
     0
 42
0.5
  3
TXT.shx
  4

  0
ENDTAB
  0
TABLE
  2
VIEW
  5
6
330
0
100
AcDbSymbolTable
 70
     0
  0
ENDTAB
  0
TABLE
  2
UCS
  5
7
330
0
100
AcDbSymbolTable
 70
     0
  0
ENDTAB
  0
TABLE
  2
APPID
  5
9
330
0
100
AcDbSymbolTable
 70
     1
  0
APPID
  5
12
330
9
100
AcDbSymbolTableRecord
100
AcDbRegAppTableRecord
  2
ACAD
 70
     0
  0
ENDTAB
  0
TABLE
  2
DIMSTYLE
  5
A
330
0
100
AcDbSymbolTable
 70
     1
100
AcDbDimStyleTable
 71
     1
340
3B
  0
DIMSTYLE
105
3B
102
{ACAD_REACTORS
330
1AD
330
1AE
330
1AF
330
1B0
330
1B1
330
1B2
330
1B3
330
1B4
330
1BC
330
1D5
330
1D6
330
1D7
330
1D8
330
1F3
330
20C
330
21E
102
}
330
A
100
AcDbSymbolTableRecord
100
AcDbDimStyleTableRecord
  2
23NSTD
 70
     0
 40
4.0
 42
0.063
 43
0.25
 44
0.093
140
0.125
170
     1
171
     0
271
     3
272
     3
274
     0
289
     1
340
35
  0
ENDTAB
  0
TABLE
  2
BLOCK_RECORD
  5
1
330
0
100
AcDbSymbolTable
 70
    19
  0
BLOCK_RECORD
  5
1E
330
1
100
AcDbSymbolTableRecord
100
AcDbBlockTableRecord
  2
*Model_Space
340
21
  0
BLOCK_RECORD
  5
1A
330
1
100
AcDbSymbolTableRecord
100
AcDbBlockTableRecord
  2
*Paper_Space
340
1D
  0
BLOCK_RECORD
  5
22
330
1
100
AcDbSymbolTableRecord
100
AcDbBlockTableRecord
  2
*X0
340
0
102
{BLKREFS
331
30B
102
}
  0
BLOCK_RECORD
  5
23
330
1
100
AcDbSymbolTableRecord
100
AcDbBlockTableRecord
  2
*X1
340
0
102
{BLKREFS
331
30C
102
}
  0
BLOCK_RECORD
  5
24
330
1
100
AcDbSymbolTableRecord
100
AcDbBlockTableRecord
  2
HBS
340
0
102
{BLKREFS
331
3A4
102
}
  0
BLOCK_RECORD
  5
457
330
1
100
AcDbSymbolTableRecord
100
AcDbBlockTableRecord
  2
*D3
340
0
  0
BLOCK_RECORD
  5
464
330
1
100
AcDbSymbolTableRecord
100
AcDbBlockTableRecord
  2
*D4
340
0
  0
BLOCK_RECORD
  5
471
330
1
100
AcDbSymbolTableRecord
100
AcDbBlockTableRecord
  2
*D5
340
0
  0
BLOCK_RECORD
  5
47E
330
1
100
AcDbSymbolTableRecord
100
AcDbBlockTableRecord
  2
*D6
340
0
  0
BLOCK_RECORD
  5
48B
330
1
100
AcDbSymbolTableRecord
100
AcDbBlockTableRecord
  2
*D7
340
0
  0
BLOCK_RECORD
  5
498
330
1
100
AcDbSymbolTableRecord
100
AcDbBlockTableRecord
  2
*D8
340
0
  0
BLOCK_RECORD
  5
4A5
330
1
100
AcDbSymbolTableRecord
100
AcDbBlockTableRecord
  2
*D9
340
0
  0
BLOCK_RECORD
  5
4B2
330
1
100
AcDbSymbolTableRecord
100
AcDbBlockTableRecord
  2
*D10
340
0
  0
BLOCK_RECORD
  5
4BF
330
1
100
AcDbSymbolTableRecord
100
AcDbBlockTableRecord
  2
*D11
340
0
  0
BLOCK_RECORD
  5
4CC
330
1
100
AcDbSymbolTableRecord
100
AcDbBlockTableRecord
  2
*D12
340
0
  0
BLOCK_RECORD
  5
4D9
330
1
100
AcDbSymbolTableRecord
100
AcDbBlockTableRecord
  2
*D13
340
0
  0
BLOCK_RECORD
  5
4E6
330
1
100
AcDbSymbolTableRecord
100
AcDbBlockTableRecord
  2
*D14
340
0
  0
BLOCK_RECORD
  5
4F3
330
1
100
AcDbSymbolTableRecord
100
AcDbBlockTableRecord
  2
*D15
340
0
  0
BLOCK_RECORD
  5
500
330
1
100
AcDbSymbolTableRecord
100
AcDbBlockTableRecord
  2
*D16
340
0
  0
BLOCK_RECORD
  5
50D
330
1
100
AcDbSymbolTableRecord
100
AcDbBlockTableRecord
  2
*D17
340
0
  0
BLOCK_RECORD
  5
51A
330
1
100
AcDbSymbolTableRecord
100
AcDbBlockTableRecord
  2
*D18
340
0
  0
ENDTAB
  0
ENDSEC
  0
SECTION
  2
BLOCKS
  0
BLOCK
  5
46
330
1E
100
AcDbEntity
  8
0
100
AcDbBlockBegin
  2
*Model_Space
 70
     0
 10
0.0
 20
0.0
 30
0.0
  3
*Model_Space
  1

  0
ENDBLK
  5
47
330
1E
100
AcDbEntity
  8
0
100
AcDbBlockEnd
  0
BLOCK
  5
44
330
1A
100
AcDbEntity
 67
     1
  8
0
100
AcDbBlockBegin
  2
*Paper_Space
 70
     0
 10
0.0
 20
0.0
 30
0.0
  3
*Paper_Space
  1

  0
ENDBLK
  5
45
330
1A
100
AcDbEntity
 67
     1
  8
0
100
AcDbBlockEnd
  0
BLOCK
  5
48
330
22
100
AcDbEntity
  8
0
100
AcDbBlockBegin
  2
*X0
 70
     1
 10
0.0
 20
0.0
 30
0.0
  3
*X0
  1

  0
LINE
  5
49
330
22
100
AcDbEntity
  8
0
 62
     0
100
AcDbLine
 10
19.8719045719322
 20
29.77139950854386
 30
0.0
 11
20.0059045719322
 21
29.90539950854386
 31
0.0
  0
LINE
  5
4A
330
22
100
AcDbEntity
  8
0
 62
     0
100
AcDbLine
 10
19.87190457193219
 20
30.47850628973041
 30
0.0
 11
20.0059045719322
 21
30.61250628973041
 31
0.0
  0
LINE
  5
4B
330
22
100
AcDbEntity
  8
0
 62
     0
100
AcDbLine
 10
19.87190457193219
 20
31.18561307091695
 30
0.0
 11
20.0059045719322
 21
31.31961307091695
 31
0.0
  0
LINE
  5
4C
330
22
100
AcDbEntity
  8
0
 62
     0
100
AcDbLine
 10
19.87190457193219
 20
31.89271985210349
 30
0.0
 11
20.00590457193219
 21
32.0267198521035
 31
0.0
  0
LINE
  5
4D
330
22
100
AcDbEntity
  8
0
 62
     0
100
AcDbLine
 10
19.87190457193219
 20
32.59982663329004
 30
0.0
 11
20.00590457193219
 21
32.73382663329004
 31
0.0
  0
LINE
  5
4E
330
22
100
AcDbEntity
  8
0
 62
     0
100
AcDbLine
 10
19.87190457193218
 20
33.30693341447659
 30
0.0
 11
20.00590457193219
 21
33.44093341447659
 31
0.0
  0
LINE
  5
4F
330
22
100
AcDbEntity
  8
0
 62
     0
100
AcDbLine
 10
19.87190457193218
 20
34.01404019566313
 30
0.0
 11
19.95667252592341
 21
34.09880814965436
 31
0.0
  0
LINE
  5
50
330
22
100
AcDbEntity
  8
0
 62
     0
100
AcDbLine
 10
19.8719045719322
 20
29.06429272735731
 30
0.0
 11
20.0059045719322
 21
29.19829272735732
 31
0.0
  0
LINE
  5
51
330
22
100
AcDbEntity
  8
0
 62
     0
100
AcDbLine
 10
19.8719045719322
 20
28.35718594617077
 30
0.0
 11
20.0059045719322
 21
28.49118594617077
 31
0.0
  0
LINE
  5
52
330
22
100
AcDbEntity
  8
0
 62
     0
100
AcDbLine
 10
20.09990761463791
 20
27.87808220768993
 30
0.0
 11
20.28480422026502
 21
28.06297881331705
 31
0.0
  0
LINE
  5
53
330
22
100
AcDbEntity
  8
0
 62
     0
100
AcDbLine
 10
20.75018663852042
 20
27.82125445038589
 30
0.0
 11
20.95906358239447
 21
28.03013139425994
 31
0.0
  0
LINE
  5
54
330
22
100
AcDbEntity
  8
0
 62
     0
100
AcDbLine
 10
19.8719045719322
 20
29.85978785619218
 30
0.0
 11
20.0059045719322
 21
29.99378785619218
 31
0.0
  0
LINE
  5
55
330
22
100
AcDbEntity
  8
0
 62
     0
100
AcDbLine
 10
19.87190457193219
 20
30.56689463737872
 30
0.0
 11
20.0059045719322
 21
30.70089463737872
 31
0.0
  0
LINE
  5
56
330
22
100
AcDbEntity
  8
0
 62
     0
100
AcDbLine
 10
19.87190457193219
 20
31.27400141856527
 30
0.0
 11
20.00590457193219
 21
31.40800141856527
 31
0.0
  0
LINE
  5
57
330
22
100
AcDbEntity
  8
0
 62
     0
100
AcDbLine
 10
19.87190457193219
 20
31.98110819975181
 30
0.0
 11
20.00590457193219
 21
32.11510819975181
 31
0.0
  0
LINE
  5
58
330
22
100
AcDbEntity
  8
0
 62
     0
100
AcDbLine
 10
19.87190457193219
 20
32.68821498093836
 30
0.0
 11
20.00590457193219
 21
32.82221498093836
 31
0.0
  0
LINE
  5
59
330
22
100
AcDbEntity
  8
0
 62
     0
100
AcDbLine
 10
19.87190457193218
 20
33.3953217621249
 30
0.0
 11
20.00590457193219
 21
33.5293217621249
 31
0.0
  0
LINE
  5
5A
330
22
100
AcDbEntity
  8
0
 62
     0
100
AcDbLine
 10
19.8719045719322
 20
29.15268107500563
 30
0.0
 11
20.0059045719322
 21
29.28668107500563
 31
0.0
  0
LINE
  5
5B
330
22
100
AcDbEntity
  8
0
 62
     0
100
AcDbLine
 10
19.8719045719322
 20
28.44557429381909
 30
0.0
 11
20.0059045719322
 21
28.57957429381909
 31
0.0
  0
LINE
  5
5C
330
22
100
AcDbEntity
  8
0
 62
     0
100
AcDbLine
 10
20.01736279873349
 20
27.88392573943383
 30
0.0
 11
20.20052179999884
 21
28.06708474069918
 31
0.0
  0
LINE
  5
5D
330
22
100
AcDbEntity
  8
0
 62
     0
100
AcDbLine
 10
20.68711225534321
 20
27.846568414857
 30
0.0
 11
20.87478116212829
 21
28.03423732164208
 31
0.0
  0
LINE
  5
5E
330
22
100
AcDbEntity
  8
0
 62
     0
100
AcDbLine
 10
19.8719045719322
 20
29.9481762038405
 30
0.0
 11
20.0059045719322
 21
30.0821762038405
 31
0.0
  0
LINE
  5
5F
330
22
100
AcDbEntity
  8
0
 62
     0
100
AcDbLine
 10
19.87190457193219
 20
30.65528298502704
 30
0.0
 11
20.0059045719322
 21
30.78928298502704
 31
0.0
  0
LINE
  5
60
330
22
100
AcDbEntity
  8
0
 62
     0
100
AcDbLine
 10
19.87190457193219
 20
31.36238976621358
 30
0.0
 11
20.00590457193219
 21
31.49638976621359
 31
0.0
  0
LINE
  5
61
330
22
100
AcDbEntity
  8
0
 62
     0
100
AcDbLine
 10
19.87190457193219
 20
32.06949654740013
 30
0.0
 11
20.00590457193219
 21
32.20349654740013
 31
0.0
  0
LINE
  5
62
330
22
100
AcDbEntity
  8
0
 62
     0
100
AcDbLine
 10
19.87190457193219
 20
32.77660332858668
 30
0.0
 11
20.00590457193219
 21
32.91060332858668
 31
0.0
  0
LINE
  5
63
330
22
100
AcDbEntity
  8
0
 62
     0
100
AcDbLine
 10
19.87190457193218
 20
33.48371010977322
 30
0.0
 11
20.00590457193219
 21
33.61771010977323
 31
0.0
  0
LINE
  5
64
330
22
100
AcDbEntity
  8
0
 62
     0
100
AcDbLine
 10
19.8719045719322
 20
29.24106942265395
 30
0.0
 11
20.0059045719322
 21
29.37506942265395
 31
0.0
  0
LINE
  5
65
330
22
100
AcDbEntity
  8
0
 62
     0
100
AcDbLine
 10
19.8719045719322
 20
28.5339626414674
 30
0.0
 11
20.0059045719322
 21
28.6679626414674
 31
0.0
  0
LINE
  5
66
330
22
100
AcDbEntity
  8
0
 62
     0
100
AcDbLine
 10
19.95386721299345
 20
27.90881850134211
 30
0.0
 11
20.11623937973266
 21
28.07119066808132
 31
0.0
  0
LINE
  5
67
330
22
100
AcDbEntity
  8
0
 62
     0
100
AcDbLine
 10
20.6032258780996
 20
27.85107038526171
 30
0.0
 11
20.7904987418621
 21
28.03834324902421
 31
0.0
  0
LINE
  5
68
330
22
100
AcDbEntity
  8
0
 62
     0
100
AcDbLine
 10
19.8719045719322
 20
30.21334124678545
 30
0.0
 11
20.0059045719322
 21
30.34734124678545
 31
0.0
  0
LINE
  5
69
330
22
100
AcDbEntity
  8
0
 62
     0
100
AcDbLine
 10
19.87190457193219
 20
30.92044802797199
 30
0.0
 11
20.0059045719322
 21
31.054448027972
 31
0.0
  0
LINE
  5
6A
330
22
100
AcDbEntity
  8
0
 62
     0
100
AcDbLine
 10
19.87190457193219
 20
31.62755480915854
 30
0.0
 11
20.00590457193219
 21
31.76155480915854
 31
0.0
  0
LINE
  5
6B
330
22
100
AcDbEntity
  8
0
 62
     0
100
AcDbLine
 10
19.87190457193219
 20
32.33466159034508
 30
0.0
 11
20.00590457193219
 21
32.46866159034509
 31
0.0
  0
LINE
  5
6C
330
22
100
AcDbEntity
  8
0
 62
     0
100
AcDbLine
 10
19.87190457193218
 20
33.04176837153163
 30
0.0
 11
20.00590457193219
 21
33.17576837153163
 31
0.0
  0
LINE
  5
6D
330
22
100
AcDbEntity
  8
0
 62
     0
100
AcDbLine
 10
19.87190457193218
 20
33.74887515271817
 30
0.0
 11
20.00590457193219
 21
33.88287515271818
 31
0.0
  0
LINE
  5
6E
330
22
100
AcDbEntity
  8
0
 62
     0
100
AcDbLine
 10
19.8719045719322
 20
29.50623446559891
 30
0.0
 11
20.0059045719322
 21
29.6402344655989
 31
0.0
  0
LINE
  5
6F
330
22
100
AcDbEntity
  8
0
 62
     0
100
AcDbLine
 10
19.8719045719322
 20
28.79912768441236
 30
0.0
 11
20.0059045719322
 21
28.93312768441236
 31
0.0
  0
LINE
  5
70
330
22
100
AcDbEntity
  8
0
 62
     0
100
AcDbLine
 10
19.8719045719322
 20
28.09202090322581
 30
0.0
 11
20.0059045719322
 21
28.22602090322582
 31
0.0
  0
LINE
  5
71
330
22
100
AcDbEntity
  8
0
 62
     0
100
AcDbLine
 10
20.35156674636875
 20
27.86457629647582
 30
0.0
 11
20.53765148106356
 21
28.05066103117063
 31
0.0
  0
LINE
  5
72
330
22
100
AcDbEntity
  8
0
 62
     0
100
AcDbLine
 10
20.81042380517129
 20
27.61632657409181
 30
0.0
 11
20.92938733506928
 21
27.7352901039898
 31
0.0
  0
ENDBLK
  5
73
330
22
100
AcDbEntity
  8
0
100
AcDbBlockEnd
  0
BLOCK
  5
74
330
23
100
AcDbEntity
  8
0
100
AcDbBlockBegin
  2
*X1
 70
     1
 10
0.0
 20
0.0
 30
0.0
  3
*X1
  1

  0
LINE
  5
75
330
23
100
AcDbEntity
  8
0
 62
     0
100
AcDbLine
 10
26.47249577682366
 20
27.97472637454048
 30
0.0
 11
26.28230266276138
 21
28.16491948860276
 31
0.0
  0
LINE
  5
76
330
23
100
AcDbEntity
  8
0
 62
     0
100
AcDbLine
 10
26.91369195093207
 20
28.24063698161863
 30
0.0
 11
26.66052078289634
 21
28.49380814965435
 31
0.0
  0
LINE
  5
77
330
23
100
AcDbEntity
  8
0
 62
     0
100
AcDbLine
 10
26.52011706593311
 20
28.6342118666176
 30
0.0
 11
26.4058021049327
 21
28.74852682761799
 31
0.0
  0
LINE
  5
78
330
23
100
AcDbEntity
  8
0
 62
     0
100
AcDbLine
 10
26.91962756408289
 20
28.94180814965435
 30
0.0
 11
26.78062756408289
 21
29.08080814965435
 31
0.0
  0
LINE
  5
79
330
23
100
AcDbEntity
  8
0
 62
     0
100
AcDbLine
 10
26.59062756408289
 20
29.27080814965435
 30
0.0
 11
26.41221923742636
 21
29.44921647631088
 31
0.0
  0
LINE
  5
7A
330
23
100
AcDbEntity
  8
0
 62
     0
100
AcDbLine
 10
26.91369195093207
 20
29.65485054399172
 30
0.0
 11
26.78569195093206
 21
29.78285054399172
 31
0.0
  0
LINE
  5
7B
330
23
100
AcDbEntity
  8
0
 62
     0
100
AcDbLine
 10
26.91369195093207
 20
30.36195732517827
 30
0.0
 11
26.78569195093206
 21
30.48995732517827
 31
0.0
  0
LINE
  5
7C
330
23
100
AcDbEntity
  8
0
 62
     0
100
AcDbLine
 10
26.91369195093207
 20
31.06906410636482
 30
0.0
 11
26.78569195093207
 21
31.19706410636482
 31
0.0
  0
LINE
  5
7D
330
23
100
AcDbEntity
  8
0
 62
     0
100
AcDbLine
 10
26.91369195093207
 20
31.77617088755136
 30
0.0
 11
26.78569195093207
 21
31.90417088755137
 31
0.0
  0
LINE
  5
7E
330
23
100
AcDbEntity
  8
0
 62
     0
100
AcDbLine
 10
26.91369195093207
 20
32.48327766873791
 30
0.0
 11
26.78569195093207
 21
32.61127766873791
 31
0.0
  0
LINE
  5
7F
330
23
100
AcDbEntity
  8
0
 62
     0
100
AcDbLine
 10
26.91369195093208
 20
33.19038444992445
 30
0.0
 11
26.78569195093207
 21
33.31838444992445
 31
0.0
  0
LINE
  5
80
330
23
100
AcDbEntity
  8
0
 62
     0
100
AcDbLine
 10
26.94637503238872
 20
33.86480814965436
 30
0.0
 11
26.79537503238872
 21
34.01580814965436
 31
0.0
  0
LINE
  5
81
330
23
100
AcDbEntity
  8
0
 62
     0
100
AcDbLine
 10
25.78347634228299
 20
27.9566390278946
 30
0.0
 11
25.59314631799345
 21
28.14696905218415
 31
0.0
  0
LINE
  5
82
330
23
100
AcDbEntity
  8
0
 62
     0
100
AcDbLine
 10
25.09445690774232
 20
27.93855168124873
 30
0.0
 11
24.90398997322553
 21
28.12901861576552
 31
0.0
  0
LINE
  5
83
330
23
100
AcDbEntity
  8
0
 62
     0
100
AcDbLine
 10
24.40543747320165
 20
27.92046433460285
 30
0.0
 11
24.2148336284576
 21
28.1110681793469
 31
0.0
  0
LINE
  5
84
330
23
100
AcDbEntity
  8
0
 62
     0
100
AcDbLine
 10
23.71641803866098
 20
27.90237698795698
 30
0.0
 11
23.52567728368968
 21
28.09311774292828
 31
0.0
  0
LINE
  5
85
330
23
100
AcDbEntity
  8
0
 62
     0
100
AcDbLine
 10
23.02739860412031
 20
27.8842896413111
 30
0.0
 11
22.83652093892175
 21
28.07516730650966
 31
0.0
  0
LINE
  5
86
330
23
100
AcDbEntity
  8
0
 62
     0
100
AcDbLine
 10
22.33837916957964
 20
27.86620229466523
 30
0.0
 11
22.14736459415382
 21
28.05721687009104
 31
0.0
  0
LINE
  5
87
330
23
100
AcDbEntity
  8
0
 62
     0
100
AcDbLine
 10
21.64935973503896
 20
27.84811494801935
 30
0.0
 11
21.4582082493859
 21
28.03926643367242
 31
0.0
  0
LINE
  5
88
330
23
100
AcDbEntity
  8
0
 62
     0
100
AcDbLine
 10
21.18274524708264
 20
27.60762265478913
 30
0.0
 11
21.05669195093207
 21
27.7336759509397
 31
0.0
  0
LINE
  5
89
330
23
100
AcDbEntity
  8
0
 62
     0
100
AcDbLine
 10
21.02155975221742
 20
27.76880814965435
 30
0.0
 11
20.94872553033428
 21
27.84164237153748
 31
0.0
  0
LINE
  5
8A
330
23
100
AcDbEntity
  8
0
 62
     0
100
AcDbLine
 10
26.55862320614125
 20
27.97698729287121
 30
0.0
 11
26.36844720585737
 21
28.16716329315509
 31
0.0
  0
LINE
  5
8B
330
23
100
AcDbEntity
  8
0
 62
     0
100
AcDbLine
 10
26.94690913054466
 20
28.29580814965435
 30
0.0
 11
26.74890913054466
 21
28.49380814965435
 31
0.0
  0
LINE
  5
8C
330
23
100
AcDbEntity
  8
0
 62
     0
100
AcDbLine
 10
26.55890913054467
 20
28.68380814965435
 30
0.0
 11
26.4058021049327
 21
28.83691517526631
 31
0.0
  0
LINE
  5
8D
330
23
100
AcDbEntity
  8
0
 62
     0
100
AcDbLine
 10
26.97274706793192
 20
28.97707699345365
 30
0.0
 11
26.85843210693153
 21
29.09139195445403
 31
0.0
  0
LINE
  5
8E
330
23
100
AcDbEntity
  8
0
 62
     0
100
AcDbLine
 10
26.67901591173121
 20
29.27080814965435
 30
0.0
 11
26.49376404814653
 21
29.45606001323903
 31
0.0
  0
LINE
  5
8F
330
23
100
AcDbEntity
  8
0
 62
     0
100
AcDbLine
 10
26.91369195093207
 20
29.74323889164004
 30
0.0
 11
26.78569195093206
 21
29.87123889164005
 31
0.0
  0
LINE
  5
90
330
23
100
AcDbEntity
  8
0
 62
     0
100
AcDbLine
 10
26.91369195093207
 20
30.45034567282659
 30
0.0
 11
26.78569195093206
 21
30.57834567282659
 31
0.0
  0
LINE
  5
91
330
23
100
AcDbEntity
  8
0
 62
     0
100
AcDbLine
 10
26.91369195093207
 20
31.15745245401313
 30
0.0
 11
26.78569195093207
 21
31.28545245401314
 31
0.0
  0
LINE
  5
92
330
23
100
AcDbEntity
  8
0
 62
     0
100
AcDbLine
 10
26.91369195093207
 20
31.86455923519968
 30
0.0
 11
26.78569195093207
 21
31.99255923519968
 31
0.0
  0
LINE
  5
93
330
23
100
AcDbEntity
  8
0
 62
     0
100
AcDbLine
 10
26.91369195093207
 20
32.57166601638623
 30
0.0
 11
26.78569195093207
 21
32.69966601638623
 31
0.0
  0
LINE
  5
94
330
23
100
AcDbEntity
  8
0
 62
     0
100
AcDbLine
 10
26.91369195093208
 20
33.27877279757277
 30
0.0
 11
26.78569195093207
 21
33.40677279757278
 31
0.0
  0
LINE
  5
95
330
23
100
AcDbEntity
  8
0
 62
     0
100
AcDbLine
 10
26.97274706793192
 20
33.92682446175948
 30
0.0
 11
26.80076338003702
 21
34.09880814965437
 31
0.0
  0
LINE
  5
96
330
23
100
AcDbEntity
  8
0
 62
     0
100
AcDbLine
 10
25.86960377160058
 20
27.95889994622534
 30
0.0
 11
25.67929086108945
 21
28.14921285673647
 31
0.0
  0
LINE
  5
97
330
23
100
AcDbEntity
  8
0
 62
     0
100
AcDbLine
 10
25.18058433705991
 20
27.94081259957946
 30
0.0
 11
24.99013451632152
 21
28.13126242031785
 31
0.0
  0
LINE
  5
98
330
23
100
AcDbEntity
  8
0
 62
     0
100
AcDbLine
 10
24.49156490251923
 20
27.92272525293359
 30
0.0
 11
24.3009781715536
 21
28.11331198389923
 31
0.0
  0
LINE
  5
99
330
23
100
AcDbEntity
  8
0
 62
     0
100
AcDbLine
 10
23.80254546797856
 20
27.90463790628771
 30
0.0
 11
23.61182182678567
 21
28.09536154748061
 31
0.0
  0
LINE
  5
9A
330
23
100
AcDbEntity
  8
0
 62
     0
100
AcDbLine
 10
23.11352603343789
 20
27.88655055964183
 30
0.0
 11
22.92266548201774
 21
28.07741111106199
 31
0.0
  0
LINE
  5
9B
330
23
100
AcDbEntity
  8
0
 62
     0
100
AcDbLine
 10
22.42450659889722
 20
27.86846321299596
 30
0.0
 11
22.23350913724981
 21
28.05946067464336
 31
0.0
  0
LINE
  5
9C
330
23
100
AcDbEntity
  8
0
 62
     0
100
AcDbLine
 10
21.73548716435655
 20
27.85037586635008
 30
0.0
 11
21.54435279248189
 21
28.04151023822475
 31
0.0
  0
LINE
  5
9D
330
23
100
AcDbEntity
  8
0
 62
     0
100
AcDbLine
 10
21.26535683010088
 20
27.6133994194192
 30
0.0
 11
21.02394809986573
 21
27.85480814965435
 31
0.0
  0
LINE
  5
9E
330
23
100
AcDbEntity
  8
0
 62
     0
100
AcDbLine
 10
26.64475063545884
 20
27.97924821120195
 30
0.0
 11
26.45459174895337
 21
28.16940709770742
 31
0.0
  0
LINE
  5
9F
330
23
100
AcDbEntity
  8
0
 62
     0
100
AcDbLine
 10
26.97274706793192
 20
28.35835855991541
 30
0.0
 11
26.83729747819298
 21
28.49380814965435
 31
0.0
  0
LINE
  5
A0
330
23
100
AcDbEntity
  8
0
 62
     0
100
AcDbLine
 10
26.4340671565893
 20
28.89703847125804
 30
0.0
 11
26.4058021049327
 21
28.92530352291463
 31
0.0
  0
LINE
  5
A1
330
23
100
AcDbEntity
  8
0
 62
     0
100
AcDbLine
 10
26.64729747819298
 20
28.68380814965435
 30
0.0
 11
26.46281405694004
 21
28.86829157090729
 31
0.0
  0
LINE
  5
A2
330
23
100
AcDbEntity
  8
0
 62
     0
100
AcDbLine
 10
26.97274706793192
 20
29.06546534110196
 30
0.0
 11
26.85843210693152
 21
29.17978030210236
 31
0.0
  0
LINE
  5
A3
330
23
100
AcDbEntity
  8
0
 62
     0
100
AcDbLine
 10
26.76740425937953
 20
29.27080814965435
 30
0.0
 11
26.58001101173551
 21
29.45820139729836
 31
0.0
  0
LINE
  5
A4
330
23
100
AcDbEntity
  8
0
 62
     0
100
AcDbLine
 10
26.91369195093207
 20
29.83162723928836
 30
0.0
 11
26.78569195093206
 21
29.95962723928836
 31
0.0
  0
LINE
  5
A5
330
23
100
AcDbEntity
  8
0
 62
     0
100
AcDbLine
 10
26.91369195093207
 20
30.53873402047491
 30
0.0
 11
26.78569195093206
 21
30.66673402047491
 31
0.0
  0
LINE
  5
A6
330
23
100
AcDbEntity
  8
0
 62
     0
100
AcDbLine
 10
26.91369195093207
 20
31.24584080166145
 30
0.0
 11
26.78569195093207
 21
31.37384080166146
 31
0.0
  0
LINE
  5
A7
330
23
100
AcDbEntity
  8
0
 62
     0
100
AcDbLine
 10
26.91369195093207
 20
31.952947582848
 30
0.0
 11
26.78569195093207
 21
32.080947582848
 31
0.0
  0
LINE
  5
A8
330
23
100
AcDbEntity
  8
0
 62
     0
100
AcDbLine
 10
26.91369195093207
 20
32.66005436403455
 30
0.0
 11
26.78569195093207
 21
32.78805436403455
 31
0.0
  0
LINE
  5
A9
330
23
100
AcDbEntity
  8
0
 62
     0
100
AcDbLine
 10
26.91369195093208
 20
33.3671611452211
 30
0.0
 11
26.78569195093207
 21
33.49516114522109
 31
0.0
  0
LINE
  5
AA
330
23
100
AcDbEntity
  8
0
 62
     0
100
AcDbLine
 10
26.4614956332489
 20
33.81935746290427
 30
0.0
 11
26.40580210493263
 21
33.87505099122054
 31
0.0
  0
LINE
  5
AB
330
23
100
AcDbEntity
  8
0
 62
     0
100
AcDbLine
 10
26.97274706793191
 20
34.0152128094078
 30
0.0
 11
26.88915172768535
 21
34.09880814965436
 31
0.0
  0
LINE
  5
AC
330
23
100
AcDbEntity
  8
0
 62
     0
100
AcDbLine
 10
25.95573120091816
 20
27.96116086455607
 30
0.0
 11
25.76543540418544
 21
28.1514566612888
 31
0.0
  0
LINE
  5
AD
330
23
100
AcDbEntity
  8
0
 62
     0
100
AcDbLine
 10
25.26671176637749
 20
27.9430735179102
 30
0.0
 11
25.07627905941751
 21
28.13350622487018
 31
0.0
  0
LINE
  5
AE
330
23
100
AcDbEntity
  8
0
 62
     0
100
AcDbLine
 10
24.57769233183682
 20
27.92498617126432
 30
0.0
 11
24.38712271464959
 21
28.11555578845156
 31
0.0
  0
LINE
  5
AF
330
23
100
AcDbEntity
  8
0
 62
     0
100
AcDbLine
 10
23.88867289729615
 20
27.90689882461844
 30
0.0
 11
23.69796636988166
 21
28.09760535203293
 31
0.0
  0
LINE
  5
B0
330
23
100
AcDbEntity
  8
0
 62
     0
100
AcDbLine
 10
23.19965346275548
 20
27.88881147797257
 30
0.0
 11
23.00881002511373
 21
28.07965491561431
 31
0.0
  0
LINE
  5
B1
330
23
100
AcDbEntity
  8
0
 62
     0
100
AcDbLine
 10
22.5106340282148
 20
27.87072413132669
 30
0.0
 11
22.3196536803458
 21
28.06170447919569
 31
0.0
  0
LINE
  5
B2
330
23
100
AcDbEntity
  8
0
 62
     0
100
AcDbLine
 10
21.82161459367413
 20
27.85263678468082
 30
0.0
 11
21.63049733557788
 21
28.04375404277707
 31
0.0
  0
LINE
  5
B3
330
23
100
AcDbEntity
  8
0
 62
     0
100
AcDbLine
 10
21.33453799204396
 20
27.63260660512445
 30
0.0
 11
21.05669195093207
 21
27.91045264623633
 31
0.0
  0
LINE
  5
B4
330
23
100
AcDbEntity
  8
0
 62
     0
100
AcDbLine
 10
26.21411348887091
 20
27.96794361954828
 30
0.0
 11
26.02386903347341
 21
28.15818807494578
 31
0.0
  0
LINE
  5
B5
330
23
100
AcDbEntity
  8
0
 62
     0
100
AcDbLine
 10
26.90313292341159
 20
27.98603096619415
 30
0.0
 11
26.71302537824134
 21
28.17613851136441
 31
0.0
  0
LINE
  5
B6
330
23
100
AcDbEntity
  8
0
 62
     0
100
AcDbLine
 10
26.58280885978793
 20
28.30635502981781
 30
0.0
 11
26.4058021049327
 21
28.48336178467304
 31
0.0
  0
LINE
  5
B7
330
23
100
AcDbEntity
  8
0
 62
     0
100
AcDbLine
 10
26.91246252113794
 20
28.68380814965435
 30
0.0
 11
26.72155494770699
 21
28.8747157230853
 31
0.0
  0
LINE
  5
B8
330
23
100
AcDbEntity
  8
0
 62
     0
100
AcDbLine
 10
26.70598347809663
 20
28.89028719269565
 30
0.0
 11
26.51546252113793
 21
29.08080814965435
 31
0.0
  0
LINE
  5
B9
330
23
100
AcDbEntity
  8
0
 62
     0
100
AcDbLine
 10
26.97274706793191
 20
29.33063038404693
 30
0.0
 11
26.78569195093206
 21
29.51768550104677
 31
0.0
  0
LINE
  5
BA
330
23
100
AcDbEntity
  8
0
 62
     0
100
AcDbLine
 10
26.91369195093207
 20
30.09679228223332
 30
0.0
 11
26.78569195093206
 21
30.22479228223332
 31
0.0
  0
LINE
  5
BB
330
23
100
AcDbEntity
  8
0
 62
     0
100
AcDbLine
 10
26.91369195093207
 20
30.80389906341986
 30
0.0
 11
26.78569195093207
 21
30.93189906341986
 31
0.0
  0
LINE
  5
BC
330
23
100
AcDbEntity
  8
0
 62
     0
100
AcDbLine
 10
26.91369195093207
 20
31.51100584460641
 30
0.0
 11
26.78569195093207
 21
31.63900584460641
 31
0.0
  0
LINE
  5
BD
330
23
100
AcDbEntity
  8
0
 62
     0
100
AcDbLine
 10
26.91369195093207
 20
32.21811262579295
 30
0.0
 11
26.78569195093207
 21
32.34611262579296
 31
0.0
  0
LINE
  5
BE
330
23
100
AcDbEntity
  8
0
 62
     0
100
AcDbLine
 10
26.91369195093208
 20
32.9252194069795
 30
0.0
 11
26.78569195093207
 21
33.0532194069795
 31
0.0
  0
LINE
  5
BF
330
23
100
AcDbEntity
  8
0
 62
     0
100
AcDbLine
 10
26.91369195093208
 20
33.63232618816605
 30
0.0
 11
26.78569195093207
 21
33.76032618816605
 31
0.0
  0
LINE
  5
C0
330
23
100
AcDbEntity
  8
0
 62
     0
100
AcDbLine
 10
26.73341195475623
 20
33.81260618434188
 30
0.0
 11
26.53020998944377
 21
34.01580814965436
 31
0.0
  0
LINE
  5
C1
330
23
100
AcDbEntity
  8
0
 62
     0
100
AcDbLine
 10
25.52509405433024
 20
27.9498562729024
 30
0.0
 11
25.33471268870548
 21
28.14023763852716
 31
0.0
  0
LINE
  5
C2
330
23
100
AcDbEntity
  8
0
 62
     0
100
AcDbLine
 10
24.83607461978957
 20
27.93176892625652
 30
0.0
 11
24.64555634393756
 21
28.12228720210854
 31
0.0
  0
LINE
  5
C3
330
23
100
AcDbEntity
  8
0
 62
     0
100
AcDbLine
 10
24.1470551852489
 20
27.91368157961065
 30
0.0
 11
23.95639999916963
 21
28.10433676568992
 31
0.0
  0
LINE
  5
C4
330
23
100
AcDbEntity
  8
0
 62
     0
100
AcDbLine
 10
23.45803575070823
 20
27.89559423296477
 30
0.0
 11
23.2672436544017
 21
28.08638632927129
 31
0.0
  0
LINE
  5
C5
330
23
100
AcDbEntity
  8
0
 62
     0
100
AcDbLine
 10
22.76901631616755
 20
27.8775068863189
 30
0.0
 11
22.57808730963378
 21
28.06843589285268
 31
0.0
  0
LINE
  5
C6
330
23
100
AcDbEntity
  8
0
 62
     0
100
AcDbLine
 10
22.07999688162688
 20
27.85941953967302
 30
0.0
 11
21.88893096486585
 21
28.05048545643406
 31
0.0
  0
LINE
  5
C7
330
23
100
AcDbEntity
  8
0
 62
     0
100
AcDbLine
 10
21.39097744708621
 20
27.84133219302715
 30
0.0
 11
21.19977462009792
 21
28.03253502001544
 31
0.0
  0
ENDBLK
  5
C8
330
23
100
AcDbEntity
  8
0
100
AcDbBlockEnd
  0
BLOCK
  5
C9
330
24
100
AcDbEntity
  8
0
100
AcDbBlockBegin
  2
HBS
 70
     0
 10
0.0
 20
0.0
 30
0.0
  3
HBS
  1

  0
LINE
  5
CA
330
24
100
AcDbEntity
  8
TITLE
100
AcDbLine
 10
0.0619999999999976
 20
9.64
 30
0.0
 11
15.43799999999999
 21
9.640000000000004
 31
0.0
  0
LWPOLYLINE
  5
CB
330
24
100
AcDbEntity
  8
TITLE
100
AcDbPolyline
 90
        4
 70
     1
 43
0.0
 10
15.5
 20
10.11999999999999
 10
15.49999999999999
 20
0.0
 10
0.0
 20
0.0
 10
0.0
 20
10.11999999999999
  0
LWPOLYLINE
  5
D1
330
24
100
AcDbEntity
  8
TITLE
100
AcDbPolyline
 90
        4
 70
     1
 43
0.0
 10
15.43799999999999
 20
10.058
 10
15.43799999999999
 20
0.0620000000000012
 10
0.0620000000000012
 20
0.0620000000000012
 10
0.0620000000000012
 20
10.058
  0
TEXT
  5
D7
330
24
100
AcDbEntity
  8
TEXT
100
AcDbText
 10
0.2078333333333345
 20
9.680079195640079
 30
0.0
 40
0.125
  1
NAME
  7
TXT
 72
     1
 11
0.4370000000000012
 21
9.680079195640079
 31
0.0
100
AcDbText
  0
TEXT
  5
D9
330
24
100
AcDbEntity
  8
TEXT
100
AcDbText
 10
0.2078333333333345
 20
9.888412528973411
 30
0.0
 40
0.125
  1
PART
  7
TXT
 72
     1
 11
0.4370000000000012
 21
9.888412528973411
 31
0.0
100
AcDbText
  0
LINE
  5
DA
330
24
100
AcDbEntity
  8
TITLE
100
AcDbLine
 10
0.8120000000000011
 20
9.64
 30
0.0
 11
0.8119999999999976
 21
10.058
 31
0.0
  0
TEXT
  5
DB
330
24
100
AcDbEntity
  8
TEXT
100
AcDbText
 10
7.926833333333331
 20
9.888412528973411
 30
0.0
 40
0.125
  1
PART
  7
TXT
 72
     1
 11
8.155999999999998
 21
9.888412528973411
 31
0.0
100
AcDbText
  0
TEXT
  5
DC
330
24
100
AcDbEntity
  8
TEXT
100
AcDbText
 10
8.030999999999998
 20
9.680079195640079
 30
0.0
 40
0.125
  1
No.
  7
TXT
 72
     1
 11
8.155999999999998
 21
9.680079195640079
 31
0.0
100
AcDbText
  0
LINE
  5
DD
330
24
100
AcDbEntity
  8
TITLE
100
AcDbLine
 10
7.780999999999998
 20
10.058
 30
0.0
 11
7.780999999999998
 21
9.64
 31
0.0
  0
LINE
  5
DE
330
24
100
AcDbEntity
  8
TITLE
100
AcDbLine
 10
7.719000000000001
 20
10.058
 30
0.0
 11
7.719000000000001
 21
9.64
 31
0.0
  0
LINE
  5
DF
330
24
100
AcDbEntity
  8
TITLE
100
AcDbLine
 10
8.530999999999998
 20
10.058
 30
0.0
 11
8.530999999999998
 21
9.64
 31
0.0
  0
ENDBLK
  5
E0
330
24
100
AcDbEntity
  8
0
100
AcDbBlockEnd
  0
BLOCK
  5
462
330
457
100
AcDbEntity
  8
0
100
AcDbBlockBegin
  2
*D3
 70
     1
 10
0.0
 20
0.0
 30
0.0
  3
*D3
  1

  0
LINE
  5
682
330
457
100
AcDbEntity
  8
DIM
 62
     0
370
    -2
100
AcDbLine
 10
16.66521782296328
 20
9.769855354676833
 30
0.0
 11
12.00245057405388
 21
9.769855354676833
 31
0.0
  0
LINE
  5
683
330
457
100
AcDbEntity
  8
DIM
 62
     0
370
    -2
100
AcDbLine
 10
16.66521782296328
 20
22.76985535467683
 30
0.0
 11
12.00245057405388
 21
22.76985535467683
 31
0.0
  0
LINE
  5
684
330
457
100
AcDbEntity
  8
DIM
 62
     0
370
    -2
100
AcDbLine
 10
12.37445057405388
 20
10.48985535467683
 30
0.0
 11
12.37445057405388
 21
15.65985535467683
 31
0.0
  0
LINE
  5
685
330
457
100
AcDbEntity
  8
DIM
 62
     0
370
    -2
100
AcDbLine
 10
12.37445057405389
 20
22.04985535467683
 30
0.0
 11
12.37445057405388
 21
16.87985535467683
 31
0.0
  0
SOLID
  5
686
330
457
100
AcDbEntity
  8
DIM
 62
     0
100
AcDbTrace
 10
12.25445057405388
 20
10.48985535467683
 30
0.0
 11
12.49445057405388
 21
10.48985535467683
 31
0.0
 12
12.37445057405388
 22
9.769855354676833
 32
0.0
 13
12.37445057405388
 23
9.769855354676833
 33
0.0
  0
SOLID
  5
687
330
457
100
AcDbEntity
  8
DIM
 62
     0
100
AcDbTrace
 10
12.25445057405389
 20
22.04985535467683
 30
0.0
 11
12.49445057405388
 21
22.04985535467683
 31
0.0
 12
12.37445057405389
 22
22.76985535467683
 32
0.0
 13
12.37445057405389
 23
22.76985535467683
 33
0.0
  0
MTEXT
  5
688
330
457
100
AcDbEntity
  8
DIM
 62
     0
100
AcDbMText
 10
12.37445057405388
 20
16.26985535467683
 30
0.0
 40
0.5
 41
0.0
 71
     5
 72
     1
  1
\A1;E
  7
TXT
 73
     1
 44
1.0
  0
POINT
  5
689
330
457
100
AcDbEntity
  8
DEFPOINTS
 62
     0
100
AcDbPoint
 10
16.91721782296328
 20
9.769855354676833
 30
0.0
  0
POINT
  5
68A
330
457
100
AcDbEntity
  8
DEFPOINTS
 62
     0
100
AcDbPoint
 10
16.91721782296328
 20
22.76985535467683
 30
0.0
  0
POINT
  5
68B
330
457
100
AcDbEntity
  8
DEFPOINTS
 62
     0
100
AcDbPoint
 10
12.37445057405389
 20
22.76985535467683
 30
0.0
  0
ENDBLK
  5
463
330
457
100
AcDbEntity
  8
0
100
AcDbBlockEnd
  0
BLOCK
  5
46F
330
464
100
AcDbEntity
  8
0
100
AcDbBlockBegin
  2
*D4
 70
     1
 10
0.0
 20
0.0
 30
0.0
  3
*D4
  1

  0
LINE
  5
68C
330
464
100
AcDbEntity
  8
DIM
 62
     0
370
    -2
100
AcDbLine
 10
16.48421782296328
 20
22.58885535467683
 30
0.0
 11
16.48421782296328
 21
27.04300681161394
 31
0.0
  0
LINE
  5
68D
330
464
100
AcDbEntity
  8
DIM
 62
     0
370
    -2
100
AcDbLine
 10
29.49421782296328
 20
22.58885535467683
 30
0.0
 11
29.49421782296328
 21
27.04300681161394
 31
0.0
  0
LINE
  5
68E
330
464
100
AcDbEntity
  8
DIM
 62
     0
370
    -2
100
AcDbLine
 10
17.20421782296328
 20
26.67100681161394
 30
0.0
 11
22.50421782296328
 21
26.67100681161394
 31
0.0
  0
LINE
  5
68F
330
464
100
AcDbEntity
  8
DIM
 62
     0
370
    -2
100
AcDbLine
 10
28.77421782296328
 20
26.67100681161394
 30
0.0
 11
23.47421782296328
 21
26.67100681161394
 31
0.0
  0
SOLID
  5
690
330
464
100
AcDbEntity
  8
DIM
 62
     0
100
AcDbTrace
 10
17.20421782296328
 20
26.79100681161394
 30
0.0
 11
17.20421782296328
 21
26.55100681161394
 31
0.0
 12
16.48421782296328
 22
26.67100681161394
 32
0.0
 13
16.48421782296328
 23
26.67100681161394
 33
0.0
  0
SOLID
  5
691
330
464
100
AcDbEntity
  8
DIM
 62
     0
100
AcDbTrace
 10
28.77421782296328
 20
26.79100681161394
 30
0.0
 11
28.77421782296328
 21
26.55100681161394
 31
0.0
 12
29.49421782296328
 22
26.67100681161394
 32
0.0
 13
29.49421782296328
 23
26.67100681161394
 33
0.0
  0
MTEXT
  5
692
330
464
100
AcDbEntity
  8
DIM
 62
     0
100
AcDbMText
 10
22.98921782296328
 20
26.67100681161394
 30
0.0
 40
0.5
 41
0.0
 71
     5
 72
     1
  1
\A1;A
  7
TXT
 73
     1
 44
1.0
  0
POINT
  5
693
330
464
100
AcDbEntity
  8
DEFPOINTS
 62
     0
100
AcDbPoint
 10
16.48421782296328
 20
22.33685535467683
 30
0.0
  0
POINT
  5
694
330
464
100
AcDbEntity
  8
DEFPOINTS
 62
     0
100
AcDbPoint
 10
29.49421782296328
 20
22.33685535467683
 30
0.0
  0
POINT
  5
695
330
464
100
AcDbEntity
  8
DEFPOINTS
 62
     0
100
AcDbPoint
 10
29.49421782296328
 20
26.67100681161394
 30
0.0
  0
ENDBLK
  5
470
330
464
100
AcDbEntity
  8
0
100
AcDbBlockEnd
  0
BLOCK
  5
47C
330
471
100
AcDbEntity
  8
0
100
AcDbBlockBegin
  2
*D5
 70
     1
 10
0.0
 20
0.0
 30
0.0
  3
*D5
  1

  0
LINE
  5
696
330
471
100
AcDbEntity
  8
DIM
 62
     0
370
    -2
100
AcDbLine
 10
16.91721782296328
 20
22.55285535467683
 30
0.0
 11
16.91721782296328
 21
26.04300681161394
 31
0.0
  0
LINE
  5
697
330
471
100
AcDbEntity
  8
DIM
 62
     0
370
    -2
100
AcDbLine
 10
29.06121782296328
 20
22.55285535467683
 30
0.0
 11
29.06121782296328
 21
26.04300681161394
 31
0.0
  0
LINE
  5
698
330
471
100
AcDbEntity
  8
DIM
 62
     0
370
    -2
100
AcDbLine
 10
17.63721782296328
 20
25.67100681161394
 30
0.0
 11
22.50421782296328
 21
25.67100681161394
 31
0.0
  0
LINE
  5
699
330
471
100
AcDbEntity
  8
DIM
 62
     0
370
    -2
100
AcDbLine
 10
28.34121782296328
 20
25.67100681161394
 30
0.0
 11
23.47421782296328
 21
25.67100681161394
 31
0.0
  0
SOLID
  5
69A
330
471
100
AcDbEntity
  8
DIM
 62
     0
100
AcDbTrace
 10
17.63721782296328
 20
25.79100681161394
 30
0.0
 11
17.63721782296328
 21
25.55100681161394
 31
0.0
 12
16.91721782296328
 22
25.67100681161394
 32
0.0
 13
16.91721782296328
 23
25.67100681161394
 33
0.0
  0
SOLID
  5
69B
330
471
100
AcDbEntity
  8
DIM
 62
     0
100
AcDbTrace
 10
28.34121782296328
 20
25.79100681161394
 30
0.0
 11
28.34121782296328
 21
25.55100681161394
 31
0.0
 12
29.06121782296328
 22
25.67100681161394
 32
0.0
 13
29.06121782296328
 23
25.67100681161394
 33
0.0
  0
MTEXT
  5
69C
330
471
100
AcDbEntity
  8
DIM
 62
     0
100
AcDbMText
 10
22.98921782296328
 20
25.67100681161394
 30
0.0
 40
0.5
 41
0.0
 71
     5
 72
     1
  1
\A1;B
  7
TXT
 73
     1
 44
1.0
  0
POINT
  5
69D
330
471
100
AcDbEntity
  8
DEFPOINTS
 62
     0
100
AcDbPoint
 10
16.91721782296328
 20
22.30085535467683
 30
0.0
  0
POINT
  5
69E
330
471
100
AcDbEntity
  8
DEFPOINTS
 62
     0
100
AcDbPoint
 10
29.06121782296328
 20
22.30085535467683
 30
0.0
  0
POINT
  5
69F
330
471
100
AcDbEntity
  8
DEFPOINTS
 62
     0
100
AcDbPoint
 10
29.06121782296328
 20
25.67100681161394
 30
0.0
  0
ENDBLK
  5
47D
330
471
100
AcDbEntity
  8
0
100
AcDbBlockEnd
  0
BLOCK
  5
489
330
47E
100
AcDbEntity
  8
0
100
AcDbBlockBegin
  2
*D6
 70
     1
 10
0.0
 20
0.0
 30
0.0
  3
*D6
  1

  0
LINE
  5
6A0
330
47E
100
AcDbEntity
  8
DIM
 62
     0
370
    -2
100
AcDbLine
 10
17.48271782296328
 20
22.03185535467683
 30
0.0
 11
17.48271782296328
 21
25.04300681161394
 31
0.0
  0
LINE
  5
6A1
330
47E
100
AcDbEntity
  8
DIM
 62
     0
370
    -2
100
AcDbLine
 10
28.49571782296328
 20
22.03185535467683
 30
0.0
 11
28.49571782296328
 21
25.04300681161394
 31
0.0
  0
LINE
  5
6A2
330
47E
100
AcDbEntity
  8
DIM
 62
     0
370
    -2
100
AcDbLine
 10
18.20271782296328
 20
24.67100681161394
 30
0.0
 11
22.50421782296328
 21
24.67100681161394
 31
0.0
  0
LINE
  5
6A3
330
47E
100
AcDbEntity
  8
DIM
 62
     0
370
    -2
100
AcDbLine
 10
27.77571782296329
 20
24.67100681161394
 30
0.0
 11
23.47421782296328
 21
24.67100681161394
 31
0.0
  0
SOLID
  5
6A4
330
47E
100
AcDbEntity
  8
DIM
 62
     0
100
AcDbTrace
 10
18.20271782296328
 20
24.79100681161394
 30
0.0
 11
18.20271782296328
 21
24.55100681161394
 31
0.0
 12
17.48271782296328
 22
24.67100681161394
 32
0.0
 13
17.48271782296328
 23
24.67100681161394
 33
0.0
  0
SOLID
  5
6A5
330
47E
100
AcDbEntity
  8
DIM
 62
     0
100
AcDbTrace
 10
27.77571782296329
 20
24.79100681161394
 30
0.0
 11
27.77571782296329
 21
24.55100681161394
 31
0.0
 12
28.49571782296328
 22
24.67100681161394
 32
0.0
 13
28.49571782296328
 23
24.67100681161394
 33
0.0
  0
MTEXT
  5
6A6
330
47E
100
AcDbEntity
  8
DIM
 62
     0
100
AcDbMText
 10
22.98921782296328
 20
24.67100681161394
 30
0.0
 40
0.5
 41
0.0
 71
     5
 72
     1
  1
\A1;C
  7
TXT
 73
     1
 44
1.0
  0
POINT
  5
6A7
330
47E
100
AcDbEntity
  8
DEFPOINTS
 62
     0
100
AcDbPoint
 10
17.48271782296328
 20
21.77985535467683
 30
0.0
  0
POINT
  5
6A8
330
47E
100
AcDbEntity
  8
DEFPOINTS
 62
     0
100
AcDbPoint
 10
28.49571782296328
 20
21.77985535467683
 30
0.0
  0
POINT
  5
6A9
330
47E
100
AcDbEntity
  8
DEFPOINTS
 62
     0
100
AcDbPoint
 10
28.49571782296328
 20
24.67100681161394
 30
0.0
  0
ENDBLK
  5
48A
330
47E
100
AcDbEntity
  8
0
100
AcDbBlockEnd
  0
BLOCK
  5
496
330
48B
100
AcDbEntity
  8
0
100
AcDbBlockBegin
  2
*D7
 70
     1
 10
0.0
 20
0.0
 30
0.0
  3
*D7
  1

  0
LINE
  5
6AA
330
48B
100
AcDbEntity
  8
DIM
 62
     0
370
    -2
100
AcDbLine
 10
16.70421782296329
 20
22.33985535467683
 30
0.0
 11
13.00245057405389
 21
22.33985535467683
 31
0.0
  0
LINE
  5
6AB
330
48B
100
AcDbEntity
  8
DIM
 62
     0
370
    -2
100
AcDbLine
 10
16.70421782296328
 20
10.19985535467683
 30
0.0
 11
13.00245057405388
 21
10.19985535467683
 31
0.0
  0
LINE
  5
6AC
330
48B
100
AcDbEntity
  8
DIM
 62
     0
370
    -2
100
AcDbLine
 10
13.37445057405389
 20
21.61985535467683
 30
0.0
 11
13.37445057405389
 21
16.87985535467683
 31
0.0
  0
LINE
  5
6AD
330
48B
100
AcDbEntity
  8
DIM
 62
     0
370
    -2
100
AcDbLine
 10
13.37445057405388
 20
10.91985535467683
 30
0.0
 11
13.37445057405389
 21
15.65985535467683
 31
0.0
  0
SOLID
  5
6AE
330
48B
100
AcDbEntity
  8
DIM
 62
     0
100
AcDbTrace
 10
13.25445057405389
 20
21.61985535467683
 30
0.0
 11
13.49445057405389
 21
21.61985535467683
 31
0.0
 12
13.37445057405389
 22
22.33985535467683
 32
0.0
 13
13.37445057405389
 23
22.33985535467683
 33
0.0
  0
SOLID
  5
6AF
330
48B
100
AcDbEntity
  8
DIM
 62
     0
100
AcDbTrace
 10
13.25445057405389
 20
10.91985535467683
 30
0.0
 11
13.49445057405388
 21
10.91985535467683
 31
0.0
 12
13.37445057405388
 22
10.19985535467683
 32
0.0
 13
13.37445057405388
 23
10.19985535467683
 33
0.0
  0
MTEXT
  5
6B0
330
48B
100
AcDbEntity
  8
DIM
 62
     0
100
AcDbMText
 10
13.37445057405388
 20
16.26985535467683
 30
0.0
 40
0.5
 41
0.0
 71
     5
 72
     1
  1
\A1;F
  7
TXT
 73
     1
 44
1.0
  0
POINT
  5
6B1
330
48B
100
AcDbEntity
  8
DEFPOINTS
 62
     0
100
AcDbPoint
 10
16.95621782296329
 20
22.33985535467683
 30
0.0
  0
POINT
  5
6B2
330
48B
100
AcDbEntity
  8
DEFPOINTS
 62
     0
100
AcDbPoint
 10
16.95621782296328
 20
10.19985535467683
 30
0.0
  0
POINT
  5
6B3
330
48B
100
AcDbEntity
  8
DEFPOINTS
 62
     0
100
AcDbPoint
 10
13.37445057405388
 20
10.19985535467683
 30
0.0
  0
ENDBLK
  5
497
330
48B
100
AcDbEntity
  8
0
100
AcDbBlockEnd
  0
BLOCK
  5
4A3
330
498
100
AcDbEntity
  8
0
100
AcDbBlockBegin
  2
*D8
 70
     1
 10
0.0
 20
0.0
 30
0.0
  3
*D8
  1

  0
LINE
  5
6B4
330
498
100
AcDbEntity
  8
DIM
 62
     0
370
    -2
100
AcDbLine
 10
17.81421782296328
 20
21.19285535467683
 30
0.0
 11
15.00245057405389
 21
21.19285535467683
 31
0.0
  0
LINE
  5
6B5
330
498
100
AcDbEntity
  8
DIM
 62
     0
370
    -2
100
AcDbLine
 10
17.81421782296328
 20
11.34685535467683
 30
0.0
 11
15.00245057405388
 21
11.34685535467683
 31
0.0
  0
LINE
  5
6B6
330
498
100
AcDbEntity
  8
DIM
 62
     0
370
    -2
100
AcDbLine
 10
15.37445057405389
 20
20.47285535467683
 30
0.0
 11
15.37445057405389
 21
16.87985535467683
 31
0.0
  0
LINE
  5
6B7
330
498
100
AcDbEntity
  8
DIM
 62
     0
370
    -2
100
AcDbLine
 10
15.37445057405389
 20
12.06685535467683
 30
0.0
 11
15.37445057405389
 21
15.65985535467683
 31
0.0
  0
SOLID
  5
6B8
330
498
100
AcDbEntity
  8
DIM
 62
     0
100
AcDbTrace
 10
15.25445057405389
 20
20.47285535467683
 30
0.0
 11
15.49445057405389
 21
20.47285535467683
 31
0.0
 12
15.37445057405389
 22
21.19285535467683
 32
0.0
 13
15.37445057405389
 23
21.19285535467683
 33
0.0
  0
SOLID
  5
6B9
330
498
100
AcDbEntity
  8
DIM
 62
     0
100
AcDbTrace
 10
15.25445057405389
 20
12.06685535467683
 30
0.0
 11
15.49445057405389
 21
12.06685535467683
 31
0.0
 12
15.37445057405388
 22
11.34685535467683
 32
0.0
 13
15.37445057405388
 23
11.34685535467683
 33
0.0
  0
MTEXT
  5
6BA
330
498
100
AcDbEntity
  8
DIM
 62
     0
100
AcDbMText
 10
15.37445057405388
 20
16.26985535467684
 30
0.0
 40
0.5
 41
0.0
 71
     5
 72
     1
  1
\A1;H
  7
TXT
 73
     1
 44
1.0
  0
POINT
  5
6BB
330
498
100
AcDbEntity
  8
DEFPOINTS
 62
     0
100
AcDbPoint
 10
18.06621782296328
 20
21.19285535467683
 30
0.0
  0
POINT
  5
6BC
330
498
100
AcDbEntity
  8
DEFPOINTS
 62
     0
100
AcDbPoint
 10
18.06621782296328
 20
11.34685535467683
 30
0.0
  0
POINT
  5
6BD
330
498
100
AcDbEntity
  8
DEFPOINTS
 62
     0
100
AcDbPoint
 10
15.37445057405388
 20
11.34685535467683
 30
0.0
  0
ENDBLK
  5
4A4
330
498
100
AcDbEntity
  8
0
100
AcDbBlockEnd
  0
BLOCK
  5
4B0
330
4A5
100
AcDbEntity
  8
0
100
AcDbBlockBegin
  2
*D9
 70
     1
 10
0.0
 20
0.0
 30
0.0
  3
*D9
  1

  0
LINE
  5
6BE
330
4A5
100
AcDbEntity
  8
DIM
 62
     0
370
    -2
100
AcDbLine
 10
18.06621782296328
 20
21.44485535467683
 30
0.0
 11
18.06621782296328
 21
24.04300681161394
 31
0.0
  0
LINE
  5
6BF
330
4A5
100
AcDbEntity
  8
DIM
 62
     0
370
    -2
100
AcDbLine
 10
27.91221782296328
 20
21.44485535467683
 30
0.0
 11
27.91221782296328
 21
24.04300681161394
 31
0.0
  0
LINE
  5
6C0
330
4A5
100
AcDbEntity
  8
DIM
 62
     0
370
    -2
100
AcDbLine
 10
18.78621782296328
 20
23.67100681161394
 30
0.0
 11
22.50421782296328
 21
23.67100681161394
 31
0.0
  0
LINE
  5
6C1
330
4A5
100
AcDbEntity
  8
DIM
 62
     0
370
    -2
100
AcDbLine
 10
27.19221782296328
 20
23.67100681161394
 30
0.0
 11
23.47421782296328
 21
23.67100681161394
 31
0.0
  0
SOLID
  5
6C2
330
4A5
100
AcDbEntity
  8
DIM
 62
     0
100
AcDbTrace
 10
18.78621782296328
 20
23.79100681161394
 30
0.0
 11
18.78621782296328
 21
23.55100681161394
 31
0.0
 12
18.06621782296328
 22
23.67100681161394
 32
0.0
 13
18.06621782296328
 23
23.67100681161394
 33
0.0
  0
SOLID
  5
6C3
330
4A5
100
AcDbEntity
  8
DIM
 62
     0
100
AcDbTrace
 10
27.19221782296328
 20
23.79100681161394
 30
0.0
 11
27.19221782296328
 21
23.55100681161394
 31
0.0
 12
27.91221782296328
 22
23.67100681161394
 32
0.0
 13
27.91221782296328
 23
23.67100681161394
 33
0.0
  0
MTEXT
  5
6C4
330
4A5
100
AcDbEntity
  8
DIM
 62
     0
100
AcDbMText
 10
22.98921782296328
 20
23.67100681161394
 30
0.0
 40
0.5
 41
0.0
 71
     5
 72
     1
  1
\A1;D
  7
TXT
 73
     1
 44
1.0
  0
POINT
  5
6C5
330
4A5
100
AcDbEntity
  8
DEFPOINTS
 62
     0
100
AcDbPoint
 10
18.06621782296328
 20
21.19285535467683
 30
0.0
  0
POINT
  5
6C6
330
4A5
100
AcDbEntity
  8
DEFPOINTS
 62
     0
100
AcDbPoint
 10
27.91221782296328
 20
21.19285535467683
 30
0.0
  0
POINT
  5
6C7
330
4A5
100
AcDbEntity
  8
DEFPOINTS
 62
     0
100
AcDbPoint
 10
27.91221782296328
 20
23.67100681161394
 30
0.0
  0
ENDBLK
  5
4B1
330
4A5
100
AcDbEntity
  8
0
100
AcDbBlockEnd
  0
BLOCK
  5
4BD
330
4B2
100
AcDbEntity
  8
0
100
AcDbBlockBegin
  2
*D10
 70
     1
 10
0.0
 20
0.0
 30
0.0
  3
*D10
  1

  0
LINE
  5
6C8
330
4B2
100
AcDbEntity
  8
DIM
 62
     0
370
    -2
100
AcDbLine
 10
48.19827423246187
 20
23.01802714340982
 30
0.0
 11
48.19827423246187
 21
24.04346151301412
 31
0.0
  0
LINE
  5
6C9
330
4B2
100
AcDbEntity
  8
DIM
 62
     0
370
    -2
100
AcDbLine
 10
47.01348685346198
 20
22.56243280263307
 30
0.0
 11
47.01348685346198
 21
24.04346151301412
 31
0.0
  0
LINE
  5
6CA
330
4B2
100
AcDbEntity
  8
DIM
 62
     0
370
    -2
100
AcDbLine
 10
48.91827423246187
 20
23.67146151301412
 30
0.0
 11
49.63827423246186
 21
23.67146151301412
 31
0.0
  0
LINE
  5
6CB
330
4B2
100
AcDbEntity
  8
DIM
 62
     0
370
    -2
100
AcDbLine
 10
46.29348685346198
 20
23.67146151301412
 30
0.0
 11
45.57348685346198
 21
23.67146151301412
 31
0.0
  0
SOLID
  5
6CC
330
4B2
100
AcDbEntity
  8
DIM
 62
     0
100
AcDbTrace
 10
48.91827423246187
 20
23.79146151301412
 30
0.0
 11
48.91827423246187
 21
23.55146151301412
 31
0.0
 12
48.19827423246187
 22
23.67146151301412
 32
0.0
 13
48.19827423246187
 23
23.67146151301412
 33
0.0
  0
SOLID
  5
6CD
330
4B2
100
AcDbEntity
  8
DIM
 62
     0
100
AcDbTrace
 10
46.29348685346198
 20
23.79146151301412
 30
0.0
 11
46.29348685346198
 21
23.55146151301412
 31
0.0
 12
47.01348685346198
 22
23.67146151301412
 32
0.0
 13
47.01348685346198
 23
23.67146151301412
 33
0.0
  0
MTEXT
  5
6CE
330
4B2
100
AcDbEntity
  8
DIM
 62
     0
100
AcDbMText
 10
47.60588054296192
 20
23.67146151301412
 30
0.0
 40
0.5
 41
0.0
 71
     5
 72
     1
  1
\A1;K
  7
TXT
 73
     1
 44
1.0
  0
POINT
  5
6CF
330
4B2
100
AcDbEntity
  8
DEFPOINTS
 62
     0
100
AcDbPoint
 10
48.19827423246187
 20
22.76602714340982
 30
0.0
  0
POINT
  5
6D0
330
4B2
100
AcDbEntity
  8
DEFPOINTS
 62
     0
100
AcDbPoint
 10
47.01348685346198
 20
22.31043280263307
 30
0.0
  0
POINT
  5
6D1
330
4B2
100
AcDbEntity
  8
DEFPOINTS
 62
     0
100
AcDbPoint
 10
47.01348685346198
 20
23.67146151301412
 30
0.0
  0
ENDBLK
  5
4BE
330
4B2
100
AcDbEntity
  8
0
100
AcDbBlockEnd
  0
BLOCK
  5
4CA
330
4BF
100
AcDbEntity
  8
0
100
AcDbBlockBegin
  2
*D11
 70
     1
 10
0.0
 20
0.0
 30
0.0
  3
*D11
  1

  0
LINE
  5
6D2
330
4BF
100
AcDbEntity
  8
DIM
 62
     0
370
    -2
100
AcDbLine
 10
31.30934565546515
 20
24.82296570049301
 30
0.0
 11
31.30934565546515
 21
23.6303295519345
 31
0.0
  0
LINE
  5
6D3
330
4BF
100
AcDbEntity
  8
DIM
 62
     0
370
    -2
100
AcDbLine
 10
43.73434565546516
 20
24.82296570049301
 30
0.0
 11
43.73434565546516
 21
23.6303295519345
 31
0.0
  0
LINE
  5
6D4
330
4BF
100
AcDbEntity
  8
DIM
 62
     0
370
    -2
100
AcDbLine
 10
32.02934565546515
 20
24.0023295519345
 30
0.0
 11
37.03684565546515
 21
24.0023295519345
 31
0.0
  0
LINE
  5
6D5
330
4BF
100
AcDbEntity
  8
DIM
 62
     0
370
    -2
100
AcDbLine
 10
43.01434565546516
 20
24.0023295519345
 30
0.0
 11
38.00684565546515
 21
24.0023295519345
 31
0.0
  0
SOLID
  5
6D6
330
4BF
100
AcDbEntity
  8
DIM
 62
     0
100
AcDbTrace
 10
32.02934565546515
 20
24.1223295519345
 30
0.0
 11
32.02934565546515
 21
23.8823295519345
 31
0.0
 12
31.30934565546515
 22
24.0023295519345
 32
0.0
 13
31.30934565546515
 23
24.0023295519345
 33
0.0
  0
SOLID
  5
6D7
330
4BF
100
AcDbEntity
  8
DIM
 62
     0
100
AcDbTrace
 10
43.01434565546516
 20
24.1223295519345
 30
0.0
 11
43.01434565546516
 21
23.8823295519345
 31
0.0
 12
43.73434565546516
 22
24.0023295519345
 32
0.0
 13
43.73434565546516
 23
24.0023295519345
 33
0.0
  0
MTEXT
  5
6D8
330
4BF
100
AcDbEntity
  8
DIM
 62
     0
100
AcDbMText
 10
37.52184565546516
 20
24.0023295519345
 30
0.0
 40
0.5
 41
0.0
 71
     5
 72
     1
  1
\A1;N
  7
TXT
 73
     1
 44
1.0
  0
POINT
  5
6D9
330
4BF
100
AcDbEntity
  8
DEFPOINTS
 62
     0
100
AcDbPoint
 10
31.30934565546515
 20
25.07496570049301
 30
0.0
  0
POINT
  5
6DA
330
4BF
100
AcDbEntity
  8
DEFPOINTS
 62
     0
100
AcDbPoint
 10
43.73434565546516
 20
25.07496570049301
 30
0.0
  0
POINT
  5
6DB
330
4BF
100
AcDbEntity
  8
DEFPOINTS
 62
     0
100
AcDbPoint
 10
43.73434565546516
 20
24.0023295519345
 30
0.0
  0
ENDBLK
  5
4CB
330
4BF
100
AcDbEntity
  8
0
100
AcDbBlockEnd
  0
BLOCK
  5
4D7
330
4CC
100
AcDbEntity
  8
0
100
AcDbBlockBegin
  2
*D12
 70
     1
 10
0.0
 20
0.0
 30
0.0
  3
*D12
  1

  0
LINE
  5
6DC
330
4CC
100
AcDbEntity
  8
DIM
 62
     0
370
    -2
100
AcDbLine
 10
54.05527423246188
 20
15.78385535467684
 30
0.0
 11
54.05527423246188
 21
14.2699683645292
 31
0.0
  0
LINE
  5
6DD
330
4CC
100
AcDbEntity
  8
DIM
 62
     0
370
    -2
100
AcDbLine
 10
53.92727423246189
 20
15.73035535467683
 30
0.0
 11
53.92727423246189
 21
14.2699683645292
 31
0.0
  0
LINE
  5
6DE
330
4CC
100
AcDbEntity
  8
DIM
 62
     0
370
    -2
100
AcDbLine
 10
54.77527423246188
 20
14.6419683645292
 30
0.0
 11
55.49527423246188
 21
14.6419683645292
 31
0.0
  0
LINE
  5
6DF
330
4CC
100
AcDbEntity
  8
DIM
 62
     0
370
    -2
100
AcDbLine
 10
53.20727423246188
 20
14.6419683645292
 30
0.0
 11
52.48727423246188
 21
14.6419683645292
 31
0.0
  0
SOLID
  5
6E0
330
4CC
100
AcDbEntity
  8
DIM
 62
     0
100
AcDbTrace
 10
54.77527423246188
 20
14.7619683645292
 30
0.0
 11
54.77527423246188
 21
14.5219683645292
 31
0.0
 12
54.05527423246188
 22
14.6419683645292
 32
0.0
 13
54.05527423246188
 23
14.6419683645292
 33
0.0
  0
SOLID
  5
6E1
330
4CC
100
AcDbEntity
  8
DIM
 62
     0
100
AcDbTrace
 10
53.20727423246188
 20
14.7619683645292
 30
0.0
 11
53.20727423246188
 21
14.5219683645292
 31
0.0
 12
53.92727423246189
 22
14.6419683645292
 32
0.0
 13
53.92727423246189
 23
14.6419683645292
 33
0.0
  0
MTEXT
  5
6E2
330
4CC
100
AcDbEntity
  8
DIM
 62
     0
100
AcDbMText
 10
50.84602423246188
 20
14.6419683645292
 30
0.0
 40
0.5
 41
0.0
 71
     5
 72
     1
  1
\A1;0.128 [3]
  7
TXT
 73
     1
 44
1.0
  0
POINT
  5
6E3
330
4CC
100
AcDbEntity
  8
DEFPOINTS
 62
     0
100
AcDbPoint
 10
54.05527423246188
 20
16.03585535467684
 30
0.0
  0
POINT
  5
6E4
330
4CC
100
AcDbEntity
  8
DEFPOINTS
 62
     0
100
AcDbPoint
 10
53.92727423246189
 20
15.98235535467683
 30
0.0
  0
POINT
  5
6E5
330
4CC
100
AcDbEntity
  8
DEFPOINTS
 62
     0
100
AcDbPoint
 10
53.92727423246189
 20
14.6419683645292
 30
0.0
  0
ENDBLK
  5
4D8
330
4CC
100
AcDbEntity
  8
0
100
AcDbBlockEnd
  0
BLOCK
  5
4E4
330
4D9
100
AcDbEntity
  8
0
100
AcDbBlockBegin
  2
*D13
 70
     1
 10
0.0
 20
0.0
 30
0.0
  3
*D13
  1

  0
LINE
  5
6E6
330
4D9
100
AcDbEntity
  8
DIM
 62
     0
370
    -2
100
AcDbLine
 10
31.41434565546515
 20
32.20085984655054
 30
0.0
 11
31.41434565546515
 21
33.31685984655054
 31
0.0
  0
LINE
  5
6E7
330
4D9
100
AcDbEntity
  8
DIM
 62
     0
370
    -2
100
AcDbLine
 10
43.62934565546516
 20
32.20085984655054
 30
0.0
 11
43.62934565546516
 21
33.31685984655054
 31
0.0
  0
LINE
  5
6E8
330
4D9
100
AcDbEntity
  8
DIM
 62
     0
370
    -2
100
AcDbLine
 10
32.13434565546515
 20
32.94485984655054
 30
0.0
 11
37.03684565546515
 21
32.94485984655054
 31
0.0
  0
LINE
  5
6E9
330
4D9
100
AcDbEntity
  8
DIM
 62
     0
370
    -2
100
AcDbLine
 10
42.90934565546516
 20
32.94485984655054
 30
0.0
 11
38.00684565546515
 21
32.94485984655054
 31
0.0
  0
SOLID
  5
6EA
330
4D9
100
AcDbEntity
  8
DIM
 62
     0
100
AcDbTrace
 10
32.13434565546515
 20
33.06485984655054
 30
0.0
 11
32.13434565546515
 21
32.82485984655054
 31
0.0
 12
31.41434565546515
 22
32.94485984655054
 32
0.0
 13
31.41434565546515
 23
32.94485984655054
 33
0.0
  0
SOLID
  5
6EB
330
4D9
100
AcDbEntity
  8
DIM
 62
     0
100
AcDbTrace
 10
42.90934565546516
 20
33.06485984655054
 30
0.0
 11
42.90934565546516
 21
32.82485984655054
 31
0.0
 12
43.62934565546516
 22
32.94485984655054
 32
0.0
 13
43.62934565546516
 23
32.94485984655054
 33
0.0
  0
MTEXT
  5
6EC
330
4D9
100
AcDbEntity
  8
DIM
 62
     0
100
AcDbMText
 10
37.52184565546516
 20
32.94485984655054
 30
0.0
 40
0.5
 41
0.0
 71
     5
 72
     1
  1
\A1;P
  7
TXT
 73
     1
 44
1.0
  0
POINT
  5
6ED
330
4D9
100
AcDbEntity
  8
DEFPOINTS
 62
     0
100
AcDbPoint
 10
31.41434565546515
 20
31.94885984655054
 30
0.0
  0
POINT
  5
6EE
330
4D9
100
AcDbEntity
  8
DEFPOINTS
 62
     0
100
AcDbPoint
 10
43.62934565546516
 20
31.94885984655054
 30
0.0
  0
POINT
  5
6EF
330
4D9
100
AcDbEntity
  8
DEFPOINTS
 62
     0
100
AcDbPoint
 10
43.62934565546516
 20
32.94485984655054
 30
0.0
  0
ENDBLK
  5
4E5
330
4D9
100
AcDbEntity
  8
0
100
AcDbBlockEnd
  0
BLOCK
  5
4F1
330
4E6
100
AcDbEntity
  8
0
100
AcDbBlockBegin
  2
*D14
 70
     1
 10
0.0
 20
0.0
 30
0.0
  3
*D14
  1

  0
LINE
  5
6F0
330
4E6
100
AcDbEntity
  8
DIM
 62
     0
370
    -2
100
AcDbLine
 10
48.19827423246187
 20
23.01802710540991
 30
0.0
 11
48.19827423246187
 21
24.04346151301412
 31
0.0
  0
LINE
  5
6F1
330
4E6
100
AcDbEntity
  8
DIM
 62
     0
370
    -2
100
AcDbLine
 10
54.05527423246187
 20
22.63435535467683
 30
0.0
 11
54.05527423246187
 21
24.04346151301412
 31
0.0
  0
LINE
  5
6F2
330
4E6
100
AcDbEntity
  8
DIM
 62
     0
370
    -2
100
AcDbLine
 10
48.91827423246187
 20
23.67146151301412
 30
0.0
 11
50.64177423246187
 21
23.67146151301412
 31
0.0
  0
LINE
  5
6F3
330
4E6
100
AcDbEntity
  8
DIM
 62
     0
370
    -2
100
AcDbLine
 10
53.33527423246187
 20
23.67146151301412
 30
0.0
 11
51.61177423246186
 21
23.67146151301412
 31
0.0
  0
SOLID
  5
6F4
330
4E6
100
AcDbEntity
  8
DIM
 62
     0
100
AcDbTrace
 10
48.91827423246187
 20
23.79146151301412
 30
0.0
 11
48.91827423246187
 21
23.55146151301412
 31
0.0
 12
48.19827423246187
 22
23.67146151301412
 32
0.0
 13
48.19827423246187
 23
23.67146151301412
 33
0.0
  0
SOLID
  5
6F5
330
4E6
100
AcDbEntity
  8
DIM
 62
     0
100
AcDbTrace
 10
53.33527423246187
 20
23.79146151301412
 30
0.0
 11
53.33527423246187
 21
23.55146151301412
 31
0.0
 12
54.05527423246187
 22
23.67146151301412
 32
0.0
 13
54.05527423246187
 23
23.67146151301412
 33
0.0
  0
MTEXT
  5
6F6
330
4E6
100
AcDbEntity
  8
DIM
 62
     0
100
AcDbMText
 10
51.12677423246187
 20
23.67146151301412
 30
0.0
 40
0.5
 41
0.0
 71
     5
 72
     1
  1
\A1;J
  7
TXT
 73
     1
 44
1.0
  0
POINT
  5
6F7
330
4E6
100
AcDbEntity
  8
DEFPOINTS
 62
     0
100
AcDbPoint
 10
48.19827423246187
 20
22.76602710540991
 30
0.0
  0
POINT
  5
6F8
330
4E6
100
AcDbEntity
  8
DEFPOINTS
 62
     0
100
AcDbPoint
 10
54.05527423246187
 20
22.38235535467683
 30
0.0
  0
POINT
  5
6F9
330
4E6
100
AcDbEntity
  8
DEFPOINTS
 62
     0
100
AcDbPoint
 10
54.05527423246187
 20
23.67146151301412
 30
0.0
  0
ENDBLK
  5
4F2
330
4E6
100
AcDbEntity
  8
0
100
AcDbBlockEnd
  0
BLOCK
  5
4FE
330
4F3
100
AcDbEntity
  8
0
100
AcDbBlockBegin
  2
*D15
 70
     1
 10
0.0
 20
0.0
 30
0.0
  3
*D15
  1

  0
LINE
  5
6FA
330
4F3
100
AcDbEntity
  8
DIM
 62
     0
370
    -2
100
AcDbLine
 10
53.54738438646251
 20
11.85772189955168
 30
0.0
 11
53.54738438646251
 21
13.06846794497608
 31
0.0
  0
LINE
  5
6FB
330
4F3
100
AcDbEntity
  8
DIM
 62
     0
370
    -2
100
AcDbLine
 10
53.92727423246189
 20
12.94846794497608
 30
0.0
 11
53.92727423246189
 21
13.06846794497608
 31
0.0
  0
LINE
  5
6FC
330
4F3
100
AcDbEntity
  8
DIM
 62
     0
370
    -2
100
AcDbLine
 10
52.82738438646251
 20
12.69646794497608
 30
0.0
 11
52.10738438646251
 21
12.69646794497608
 31
0.0
  0
LINE
  5
6FD
330
4F3
100
AcDbEntity
  8
DIM
 62
     0
370
    -2
100
AcDbLine
 10
54.64727423246188
 20
12.69646794497608
 30
0.0
 11
55.36727423246188
 21
12.69646794497608
 31
0.0
  0
SOLID
  5
6FE
330
4F3
100
AcDbEntity
  8
DIM
 62
     0
100
AcDbTrace
 10
52.82738438646251
 20
12.81646794497608
 30
0.0
 11
52.82738438646251
 21
12.57646794497608
 31
0.0
 12
53.54738438646251
 22
12.69646794497608
 32
0.0
 13
53.54738438646251
 23
12.69646794497608
 33
0.0
  0
SOLID
  5
6FF
330
4F3
100
AcDbEntity
  8
DIM
 62
     0
100
AcDbTrace
 10
54.64727423246188
 20
12.81646794497608
 30
0.0
 11
54.64727423246188
 21
12.57646794497608
 31
0.0
 12
53.92727423246189
 22
12.69646794497608
 32
0.0
 13
53.92727423246189
 23
12.69646794497608
 33
0.0
  0
MTEXT
  5
700
330
4F3
100
AcDbEntity
  8
DIM
 62
     0
100
AcDbMText
 10
58.57102423246188
 20
12.69646794497608
 30
0.0
 40
0.5
 41
0.0
 71
     5
 72
     1
  1
\A1;0.380 [10] (INSIDE)
  7
TXT
 73
     1
 44
1.0
  0
POINT
  5
701
330
4F3
100
AcDbEntity
  8
DEFPOINTS
 62
     0
100
AcDbPoint
 10
53.54738438646251
 20
11.60572189955168
 30
0.0
  0
POINT
  5
702
330
4F3
100
AcDbEntity
  8
DEFPOINTS
 62
     0
100
AcDbPoint
 10
53.92727423246189
 20
12.69646794497608
 30
0.0
  0
POINT
  5
703
330
4F3
100
AcDbEntity
  8
DEFPOINTS
 62
     0
100
AcDbPoint
 10
53.92727423246189
 20
12.69646794497608
 30
0.0
  0
ENDBLK
  5
4FF
330
4F3
100
AcDbEntity
  8
0
100
AcDbBlockEnd
  0
BLOCK
  5
50B
330
500
100
AcDbEntity
  8
0
100
AcDbBlockBegin
  2
*D16
 70
     1
 10
0.0
 20
0.0
 30
0.0
  3
*D16
  1

  0
LINE
  5
704
330
500
100
AcDbEntity
  8
DIM
 62
     0
370
    -2
100
AcDbLine
 10
17.23071782296329
 20
21.77985535467683
 30
0.0
 11
14.00245057405389
 21
21.77985535467683
 31
0.0
  0
LINE
  5
705
330
500
100
AcDbEntity
  8
DIM
 62
     0
370
    -2
100
AcDbLine
 10
17.23071782296329
 20
10.75985535467683
 30
0.0
 11
14.00245057405388
 21
10.75985535467683
 31
0.0
  0
LINE
  5
706
330
500
100
AcDbEntity
  8
DIM
 62
     0
370
    -2
100
AcDbLine
 10
14.37445057405389
 20
21.05985535467683
 30
0.0
 11
14.37445057405389
 21
16.87985535467683
 31
0.0
  0
LINE
  5
707
330
500
100
AcDbEntity
  8
DIM
 62
     0
370
    -2
100
AcDbLine
 10
14.37445057405389
 20
11.47985535467683
 30
0.0
 11
14.37445057405389
 21
15.65985535467683
 31
0.0
  0
SOLID
  5
708
330
500
100
AcDbEntity
  8
DIM
 62
     0
100
AcDbTrace
 10
14.25445057405389
 20
21.05985535467683
 30
0.0
 11
14.49445057405389
 21
21.05985535467683
 31
0.0
 12
14.37445057405389
 22
21.77985535467683
 32
0.0
 13
14.37445057405389
 23
21.77985535467683
 33
0.0
  0
SOLID
  5
709
330
500
100
AcDbEntity
  8
DIM
 62
     0
100
AcDbTrace
 10
14.25445057405388
 20
11.47985535467683
 30
0.0
 11
14.49445057405388
 21
11.47985535467683
 31
0.0
 12
14.37445057405389
 22
10.75985535467683
 32
0.0
 13
14.37445057405389
 23
10.75985535467683
 33
0.0
  0
MTEXT
  5
70A
330
500
100
AcDbEntity
  8
DIM
 62
     0
100
AcDbMText
 10
14.37445057405389
 20
16.26985535467683
 30
0.0
 40
0.5
 41
0.0
 71
     5
 72
     1
  1
\A1;G
  7
TXT
 73
     1
 44
1.0
  0
POINT
  5
70B
330
500
100
AcDbEntity
  8
DEFPOINTS
 62
     0
100
AcDbPoint
 10
17.48271782296328
 20
21.77985535467683
 30
0.0
  0
POINT
  5
70C
330
500
100
AcDbEntity
  8
DEFPOINTS
 62
     0
100
AcDbPoint
 10
17.48271782296328
 20
10.75985535467683
 30
0.0
  0
POINT
  5
70D
330
500
100
AcDbEntity
  8
DEFPOINTS
 62
     0
100
AcDbPoint
 10
14.37445057405389
 20
10.75985535467683
 30
0.0
  0
ENDBLK
  5
50C
330
500
100
AcDbEntity
  8
0
100
AcDbBlockEnd
  0
BLOCK
  5
518
330
50D
100
AcDbEntity
  8
0
100
AcDbBlockBegin
  2
*D17
 70
     1
 10
0.0
 20
0.0
 30
0.0
  3
*D17
  1

  0
LINE
  5
70E
330
50D
100
AcDbEntity
  8
DIM
 62
     0
370
    -2
100
AcDbLine
 10
54.30727423246187
 20
22.38235535467683
 30
0.0
 11
57.77576619083583
 21
22.38235535467683
 31
0.0
  0
LINE
  5
70F
330
50D
100
AcDbEntity
  8
DIM
 62
     0
370
    -2
100
AcDbLine
 10
54.30727423246189
 20
10.15735535467682
 30
0.0
 11
57.77576619083582
 21
10.15735535467682
 31
0.0
  0
LINE
  5
710
330
50D
100
AcDbEntity
  8
DIM
 62
     0
370
    -2
100
AcDbLine
 10
57.40376619083583
 20
21.66235535467682
 30
0.0
 11
57.40376619083583
 21
16.87985535467682
 31
0.0
  0
LINE
  5
711
330
50D
100
AcDbEntity
  8
DIM
 62
     0
370
    -2
100
AcDbLine
 10
57.40376619083582
 20
10.87735535467682
 30
0.0
 11
57.40376619083582
 21
15.65985535467683
 31
0.0
  0
SOLID
  5
712
330
50D
100
AcDbEntity
  8
DIM
 62
     0
100
AcDbTrace
 10
57.28376619083583
 20
21.66235535467682
 30
0.0
 11
57.52376619083583
 21
21.66235535467682
 31
0.0
 12
57.40376619083583
 22
22.38235535467683
 32
0.0
 13
57.40376619083583
 23
22.38235535467683
 33
0.0
  0
SOLID
  5
713
330
50D
100
AcDbEntity
  8
DIM
 62
     0
100
AcDbTrace
 10
57.28376619083583
 20
10.87735535467682
 30
0.0
 11
57.52376619083582
 21
10.87735535467682
 31
0.0
 12
57.40376619083582
 22
10.15735535467682
 32
0.0
 13
57.40376619083582
 23
10.15735535467682
 33
0.0
  0
MTEXT
  5
714
330
50D
100
AcDbEntity
  8
DIM
 62
     0
100
AcDbMText
 10
57.40376619083582
 20
16.26985535467683
 30
0.0
 40
0.5
 41
0.0
 71
     5
 72
     1
  1
\A1;M
  7
TXT
 73
     1
 44
1.0
  0
POINT
  5
715
330
50D
100
AcDbEntity
  8
DEFPOINTS
 62
     0
100
AcDbPoint
 10
54.05527423246187
 20
22.38235535467683
 30
0.0
  0
POINT
  5
716
330
50D
100
AcDbEntity
  8
DEFPOINTS
 62
     0
100
AcDbPoint
 10
54.05527423246188
 20
10.15735535467682
 30
0.0
  0
POINT
  5
717
330
50D
100
AcDbEntity
  8
DEFPOINTS
 62
     0
100
AcDbPoint
 10
57.40376619083582
 20
10.15735535467682
 30
0.0
  0
ENDBLK
  5
519
330
50D
100
AcDbEntity
  8
0
100
AcDbBlockEnd
  0
BLOCK
  5
525
330
51A
100
AcDbEntity
  8
0
100
AcDbBlockBegin
  2
*D18
 70
     1
 10
0.0
 20
0.0
 30
0.0
  3
*D18
  1

  0
LINE
  5
718
330
51A
100
AcDbEntity
  8
DIM
 62
     0
370
    -2
100
AcDbLine
 10
46.9293800864038
 20
22.48735535467683
 30
0.0
 11
45.4689698386868
 21
22.48735535467683
 31
0.0
  0
LINE
  5
719
330
51A
100
AcDbEntity
  8
DIM
 62
     0
370
    -2
100
AcDbLine
 10
46.92938008640383
 20
10.05235535467683
 30
0.0
 11
45.46896983868679
 21
10.05235535467683
 31
0.0
  0
LINE
  5
71A
330
51A
100
AcDbEntity
  8
DIM
 62
     0
370
    -2
100
AcDbLine
 10
45.84096983868679
 20
21.76735535467683
 30
0.0
 11
45.84096983868679
 21
16.87985535467683
 31
0.0
  0
LINE
  5
71B
330
51A
100
AcDbEntity
  8
DIM
 62
     0
370
    -2
100
AcDbLine
 10
45.84096983868678
 20
10.77235535467683
 30
0.0
 11
45.84096983868678
 21
15.65985535467683
 31
0.0
  0
SOLID
  5
71C
330
51A
100
AcDbEntity
  8
DIM
 62
     0
100
AcDbTrace
 10
45.7209698386868
 20
21.76735535467683
 30
0.0
 11
45.96096983868679
 21
21.76735535467683
 31
0.0
 12
45.84096983868679
 22
22.48735535467683
 32
0.0
 13
45.84096983868679
 23
22.48735535467683
 33
0.0
  0
SOLID
  5
71D
330
51A
100
AcDbEntity
  8
DIM
 62
     0
100
AcDbTrace
 10
45.72096983868679
 20
10.77235535467683
 30
0.0
 11
45.96096983868679
 21
10.77235535467683
 31
0.0
 12
45.84096983868678
 22
10.05235535467683
 32
0.0
 13
45.84096983868678
 23
10.05235535467683
 33
0.0
  0
MTEXT
  5
71E
330
51A
100
AcDbEntity
  8
DIM
 62
     0
100
AcDbMText
 10
45.84096983868678
 20
16.26985535467684
 30
0.0
 40
0.5
 41
0.0
 71
     5
 72
     1
  1
\A1;L
  7
TXT
 73
     1
 44
1.0
  0
POINT
  5
71F
330
51A
100
AcDbEntity
  8
DEFPOINTS
 62
     0
100
AcDbPoint
 10
47.1813800864038
 20
22.48735535467683
 30
0.0
  0
POINT
  5
720
330
51A
100
AcDbEntity
  8
DEFPOINTS
 62
     0
100
AcDbPoint
 10
47.18138008640383
 20
10.05235535467683
 30
0.0
  0
POINT
  5
721
330
51A
100
AcDbEntity
  8
DEFPOINTS
 62
     0
100
AcDbPoint
 10
45.84096983868678
 20
10.05235535467683
 30
0.0
  0
ENDBLK
  5
526
330
51A
100
AcDbEntity
  8
0
100
AcDbBlockEnd
  0
ENDSEC
  0
SECTION
  2
ENTITIES
  0
LWPOLYLINE
  5
1A2
330
1E
100
AcDbEntity
  8
DIM
100
AcDbPolyline
 90
        4
 70
     0
 10
27.69531733738149
 20
11.15814809632575
 40
0.0
 41
0.27
 10
27.16526246670122
 20
10.67086805972654
 40
0.0
 41
0.0
 10
25.14505418320691
 20
8.813688320852056
 40
0.0
 41
0.0
 10
25.8619903533829
 20
8.813688320852056
 40
0.0
 41
0.0
  0
TEXT
  5
1A8
330
1E
100
AcDbEntity
  8
DIM
100
AcDbText
 10
26.22648054956224
 20
8.608622429654651
 30
0.0
 40
0.5
  1
0.575 [15] DIA. BOSS WITH
 41
0.75
  7
TXT
 11
26.22648054956224
 21
8.858622429654651
 31
0.0
100
AcDbText
 73
     2
  0
LINE
  5
1A9
330
1E
100
AcDbEntity
  8
CENTER
100
AcDbLine
 10
22.98921782296328
 20
23.02781915005099
 30
0.0
 11
22.98921782296328
 21
9.511891559302675
 31
0.0
  0
CIRCLE
  5
1AA
330
1E
100
AcDbEntity
  8
OBJECT
100
AcDbCircle
 10
22.98921782296328
 20
11.34685535467683
 30
0.0
 40
0.2875
  0
CIRCLE
  5
1AB
330
1E
100
AcDbEntity
  8
OBJECT
100
AcDbCircle
 10
22.98921782296328
 20
11.34685535467683
 30
0.0
 40
0.083
  0
LINE
  5
1AC
330
1E
100
AcDbEntity
  8
CENTER
100
AcDbLine
 10
16.10092435008604
 20
16.26985535467683
 30
0.0
 11
29.87751129584052
 21
16.26985535467683
 31
0.0
  0
DIMENSION
  5
1AD
330
1E
100
AcDbEntity
  8
DIM
100
AcDbDimension
  2
*D3
 10
12.37445057405389
 20
22.76985535467683
 30
0.0
 11
12.37445057405388
 21
16.26985535467683
 31
0.0
 70
    32
  1
E
 71
     5
 42
13.0
  3
23NSTD
100
AcDbAlignedDimension
 13
16.91721782296328
 23
9.769855354676833
 33
0.0
 14
16.91721782296328
 24
22.76985535467683
 34
0.0
 50
90.0
100
AcDbRotatedDimension
  0
DIMENSION
  5
1AE
330
1E
100
AcDbEntity
  8
DIM
100
AcDbDimension
  2
*D4
 10
29.49421782296328
 20
26.67100681161394
 30
0.0
 11
22.98921782296328
 21
26.67100681161394
 31
0.0
 70
    32
  1
A
 71
     5
 42
13.00999999999999
  3
23NSTD
100
AcDbAlignedDimension
 13
16.48421782296328
 23
22.33685535467683
 33
0.0
 14
29.49421782296328
 24
22.33685535467683
 34
0.0
 50
180.0
100
AcDbRotatedDimension
  0
DIMENSION
  5
1AF
330
1E
100
AcDbEntity
  8
DIM
100
AcDbDimension
  2
*D5
 10
29.06121782296328
 20
25.67100681161394
 30
0.0
 11
22.98921782296328
 21
25.67100681161394
 31
0.0
 70
    32
  1
B
 71
     5
 42
12.14399999999999
  3
23NSTD
100
AcDbAlignedDimension
 13
16.91721782296328
 23
22.30085535467683
 33
0.0
 14
29.06121782296328
 24
22.30085535467683
 34
0.0
 50
180.0
100
AcDbRotatedDimension
  0
DIMENSION
  5
1B0
330
1E
100
AcDbEntity
  8
DIM
100
AcDbDimension
  2
*D6
 10
28.49571782296328
 20
24.67100681161394
 30
0.0
 11
22.98921782296328
 21
24.67100681161394
 31
0.0
 70
    32
  1
C
 71
     5
 42
11.01299999999999
  3
23NSTD
100
AcDbAlignedDimension
 13
17.48271782296328
 23
21.77985535467683
 33
0.0
 14
28.49571782296328
 24
21.77985535467683
 34
0.0
100
AcDbRotatedDimension
  0
DIMENSION
  5
1B1
330
1E
100
AcDbEntity
  8
DIM
100
AcDbDimension
  2
*D7
 10
13.37445057405388
 20
10.19985535467683
 30
0.0
 11
13.37445057405388
 21
16.26985535467683
 31
0.0
 70
    32
  1
F
 71
     5
 42
12.14
  3
23NSTD
100
AcDbAlignedDimension
 13
16.95621782296329
 23
22.33985535467683
 33
0.0
 14
16.95621782296328
 24
10.19985535467683
 34
0.0
 50
90.0
100
AcDbRotatedDimension
  0
DIMENSION
  5
1B2
330
1E
100
AcDbEntity
  8
DIM
100
AcDbDimension
  2
*D8
 10
15.37445057405388
 20
11.34685535467683
 30
0.0
 11
15.37445057405388
 21
16.26985535467684
 31
0.0
 70
    32
  1
H
 71
     5
 42
9.845999999999998
  3
23NSTD
100
AcDbAlignedDimension
 13
18.06621782296328
 23
21.19285535467683
 33
0.0
 14
18.06621782296328
 24
11.34685535467683
 34
0.0
 50
270.0
100
AcDbRotatedDimension
  0
DIMENSION
  5
1B3
330
1E
100
AcDbEntity
  8
DIM
100
AcDbDimension
  2
*D9
 10
27.91221782296328
 20
23.67100681161394
 30
0.0
 11
22.98921782296328
 21
23.67100681161394
 31
0.0
 70
    32
  1
D
 71
     5
 42
9.846000000000003
  3
23NSTD
100
AcDbAlignedDimension
 13
18.06621782296328
 23
21.19285535467683
 33
0.0
 14
27.91221782296328
 24
21.19285535467683
 34
0.0
 50
180.0
100
AcDbRotatedDimension
  0
DIMENSION
  5
1B4
330
1E
100
AcDbEntity
  8
DIM
100
AcDbDimension
  2
*D10
 10
47.01348685346198
 20
23.67146151301412
 30
0.0
 11
47.60588054296192
 21
23.67146151301412
 31
0.0
 70
    32
  1
K
 71
     5
 42
1.184787378999885
  3
23NSTD
100
AcDbAlignedDimension
 13
48.19827423246187
 23
22.76602714340982
 33
0.0
 14
47.01348685346198
 24
22.31043280263307
 34
0.0
100
AcDbRotatedDimension
  0
LINE
  5
1B5
330
1E
100
AcDbEntity
  8
OBJECT
100
AcDbLine
 10
31.0168456554652
 20
10.24229629067683
 30
0.0
 11
31.01684565546513
 21
22.29741441867627
 31
0.0
  0
LINE
  5
1B6
330
1E
100
AcDbEntity
  8
CENTER
100
AcDbLine
 10
37.52184565546516
 20
9.412226033308883
 30
0.0
 11
37.52184565546516
 21
23.05013861787632
 31
0.0
  0
LINE
  5
1B7
330
1E
100
AcDbEntity
  8
CENTER
100
AcDbLine
 10
44.43574455859352
 20
16.26985535467683
 30
0.0
 11
30.71111066934527
 21
16.26985535467683
 31
0.0
  0
ARC
  5
1B8
330
1E
100
AcDbEntity
  8
OBJECT
100
AcDbCircle
 10
31.48928659146527
 20
10.24229629067683
 30
0.0
 40
0.472440936
100
AcDbArc
 50
180.0
 51
270.0
  0
ARC
  5
1B9
330
1E
100
AcDbEntity
  8
OBJECT
100
AcDbCircle
 10
43.55440471946503
 20
10.24229629067683
 30
0.0
 40
0.472440936
100
AcDbArc
 50
269.9999999999999
 51
0.0
  0
LINE
  5
1BA
330
1E
100
AcDbEntity
  8
OBJECT
100
AcDbLine
 10
44.02684565546515
 20
20.05676875567654
 30
0.0
 11
44.02684565546515
 21
12.48294195367711
 31
0.0
  0
ARC
  5
1BB
330
1E
100
AcDbEntity
  8
OBJECT
100
AcDbCircle
 10
31.48928659146524
 20
22.29741441867627
 30
0.0
 40
0.472440936
100
AcDbArc
 50
89.99999999999994
 51
180.0
  0
DIMENSION
  5
1BC
330
1E
100
AcDbEntity
  8
DIM
100
AcDbDimension
  2
*D11
 10
43.73434565546516
 20
24.0023295519345
 30
0.0
 11
37.52184565546516
 21
24.0023295519345
 31
0.0
 70
    32
  1
N
 71
     5
 42
12.42500000000001
  3
23NSTD
100
AcDbAlignedDimension
 13
31.30934565546515
 23
25.07496570049301
 33
0.0
 14
43.73434565546516
 24
25.07496570049301
 34
0.0
100
AcDbRotatedDimension
  0
LINE
  5
1BD
330
1E
100
AcDbEntity
  8
OBJECT
100
AcDbLine
 10
31.48928659146524
 20
22.76985535467683
 30
0.0
 11
43.55440471946502
 21
22.76985535467683
 31
0.0
  0
LINE
  5
1BE
330
1E
100
AcDbEntity
  8
OBJECT
100
AcDbLine
 10
31.07980705976378
 20
26.38713543155065
 30
0.0
 11
43.95117958507921
 21
26.38713543155065
 31
0.0
  0
LINE
  5
1BF
330
1E
100
AcDbEntity
  8
OBJECT
100
AcDbLine
 10
43.95117958507921
 20
25.7965842615504
 30
0.0
 11
31.07779269724956
 21
25.79658426155041
 31
0.0
  0
LINE
  5
1C0
330
1E
100
AcDbEntity
  8
OBJECT
100
AcDbLine
 10
31.33334565546515
 20
26.38713543155066
 30
0.0
 11
31.41434565546515
 21
31.94885984655054
 31
0.0
  0
LINE
  5
1C1
330
1E
100
AcDbEntity
  8
CENTER
100
AcDbLine
 10
37.52184565546516
 20
24.70897789255559
 30
0.0
 11
37.52184565546516
 21
32.28649046312376
 31
0.0
  0
LINE
  5
1C2
330
1E
100
AcDbEntity
  8
OBJECT
100
AcDbLine
 10
44.46034565546516
 20
26.09185984655053
 30
0.0
 11
31.01684565546708
 21
26.09185984655054
 31
0.0
  0
LINE
  5
1C3
330
1E
100
AcDbEntity
  8
OBJECT
100
AcDbLine
 10
43.55742310342132
 20
24.90707246755067
 30
0.0
 11
31.48626820750898
 21
24.90707246755067
 31
0.0
  0
LINE
  5
1C4
330
1E
100
AcDbEntity
  8
OBJECT
100
AcDbLine
 10
31.01667386673215
 20
26.09185984655054
 30
0.0
 11
31.02081604574955
 21
26.32916512353045
 31
0.0
  0
ARC
  5
1C5
330
1E
100
AcDbEntity
  8
OBJECT
100
AcDbCircle
 10
31.07779269724956
 20
25.85563937855026
 30
0.0
 40
0.059055117
100
AcDbArc
 50
180.4999999999984
 51
270.0000000000029
  0
LINE
  5
1C6
330
1E
100
AcDbEntity
  8
OBJECT
100
AcDbLine
 10
31.01667386673215
 20
26.09185984655054
 30
0.0
 11
31.01873982888715
 21
25.85512403197575
 31
0.0
  0
ARC
  5
1C7
330
1E
100
AcDbEntity
  8
OBJECT
100
AcDbCircle
 10
31.21464749120598
 20
25.73752914455057
 30
0.0
 40
0.059055117
100
AcDbArc
 50
3.000000000001543
 51
90.0
  0
ARC
  5
1C8
330
1E
100
AcDbEntity
  8
OBJECT
100
AcDbCircle
 10
31.48626820750898
 20
25.0842378185502
 30
0.0
 40
0.177165351
100
AcDbArc
 50
183.0000000000012
 51
270.0
  0
LINE
  5
1C9
330
1E
100
AcDbEntity
  8
OBJECT
100
AcDbLine
 10
31.27362167522089
 20
25.74061985056963
 30
0.0
 11
31.30934565546515
 21
25.07496570049301
 31
0.0
  0
LINE
  5
1CA
330
1E
100
AcDbEntity
  8
OBJECT
100
AcDbLine
 10
43.62934565546516
 20
31.94885984655054
 30
0.0
 11
31.41434565546515
 21
31.94885984655054
 31
0.0
  0
LINE
  5
1CB
330
1E
100
AcDbEntity
  8
OBJECT
100
AcDbLine
 10
44.02684565546515
 20
21.67094195367712
 30
0.0
 11
44.02684565546514
 21
22.29741441867627
 31
0.0
  0
ARC
  5
1CC
330
1E
100
AcDbEntity
  8
OBJECT
100
AcDbCircle
 10
43.55440471946502
 20
22.29741441867627
 30
0.0
 40
0.472440936
100
AcDbArc
 50
0.0
 51
90.00000000000005
  0
LINE
  5
1CD
330
1E
100
AcDbEntity
  8
OBJECT
100
AcDbLine
 10
44.18431424511648
 20
26.09185984655028
 30
0.0
 11
44.18431424511648
 21
26.28095766140257
 31
0.0
  0
ARC
  5
1CE
330
1E
100
AcDbEntity
  8
OBJECT
100
AcDbCircle
 10
44.04177324976153
 20
25.67847402755071
 30
0.0
 40
0.177165351
100
AcDbArc
 50
269.9994624464301
 51
0.9999999887896457
  0
LINE
  5
1CF
330
1E
100
AcDbEntity
  8
OBJECT
100
AcDbLine
 10
43.75752786852155
 20
25.50130867655027
 30
0.0
 11
44.04177324976153
 21
25.50130867655027
 31
0.0
  0
CIRCLE
  5
1D0
330
1E
100
AcDbEntity
  8
HIDDEN
100
AcDbCircle
 10
43.97762133561644
 20
25.67847402755071
 30
0.0
 40
0.0688976365
  0
LINE
  5
1D1
330
1E
100
AcDbEntity
  8
OBJECT
100
AcDbLine
 10
44.29892222290257
 20
27.31712343515205
 30
0.0
 11
44.01898422094528
 21
26.45851856950911
 31
0.0
  0
LINE
  5
1D2
330
1E
100
AcDbEntity
  8
OBJECT
100
AcDbLine
 10
44.35025024665891
 20
27.29377406628295
 30
0.0
 11
44.18431424511648
 21
26.28095766140257
 31
0.0
  0
LINE
  5
1D3
330
1E
100
AcDbEntity
  8
OBJECT
100
AcDbLine
 10
44.01898422094528
 20
26.45851856950911
 30
0.0
 11
43.88166133594256
 21
26.38713543155066
 31
0.0
  0
ARC
  5
1D4
330
1E
100
AcDbEntity
  8
OBJECT
100
AcDbCircle
 10
44.32304979838227
 20
27.3020712613982
 30
0.0
 40
0.0284377888245715
100
AcDbArc
 50
343.0362544530527
 51
148.0417053691257
  0
DIMENSION
  5
1D5
330
1E
100
AcDbEntity
  8
DIM
100
AcDbDimension
  2
*D12
 10
53.92727423246189
 20
14.6419683645292
 30
0.0
 11
50.84602423246188
 21
14.6419683645292
 31
0.0
 70
    32
  1
<>
 71
     5
 42
0.1280000000000001
  3
23NSTD
100
AcDbAlignedDimension
 13
54.05527423246188
 23
16.03585535467684
 33
0.0
 14
53.92727423246189
 24
15.98235535467683
 34
0.0
100
AcDbRotatedDimension
  0
DIMENSION
  5
1D6
330
1E
100
AcDbEntity
  8
DIM
100
AcDbDimension
  2
*D13
 10
43.62934565546516
 20
32.94485984655054
 30
0.0
 11
37.52184565546516
 21
32.94485984655054
 31
0.0
 70
    32
  1
P
 71
     5
 42
12.215
  3
23NSTD
100
AcDbAlignedDimension
 13
31.41434565546515
 23
31.94885984655054
 33
0.0
 14
43.62934565546516
 24
31.94885984655054
 34
0.0
100
AcDbRotatedDimension
  0
DIMENSION
  5
1D7
330
1E
100
AcDbEntity
  8
DIM
100
AcDbDimension
  2
*D14
 10
54.05527423246187
 20
23.67146151301412
 30
0.0
 11
51.12677423246187
 21
23.67146151301412
 31
0.0
 70
    32
  1
J
 71
     5
 42
5.856999999999999
  3
23NSTD
100
AcDbAlignedDimension
 13
48.19827423246187
 23
22.76602710540991
 33
0.0
 14
54.05527423246187
 24
22.38235535467683
 34
0.0
100
AcDbRotatedDimension
  0
DIMENSION
  5
1D8
330
1E
100
AcDbEntity
  8
DIM
100
AcDbDimension
  2
*D15
 10
53.92727423246189
 20
12.69646794497608
 30
0.0
 11
58.57102423246188
 21
12.69646794497608
 31
0.0
 70
    32
  1
<> (INSIDE)
 71
     5
 42
0.3798898459993722
  3
23NSTD
100
AcDbAlignedDimension
 13
53.54738438646251
 23
11.60572189955168
 33
0.0
 14
53.92727423246189
 24
12.69646794497608
 34
0.0
100
AcDbRotatedDimension
  0
TEXT
  5
1D9
330
1E
100
AcDbEntity
  8
TEXT
100
AcDbText
 10
20.05011410813824
 20
1.277464613368287
 30
0.0
 40
0.4640000000000001
  1
13.010
 41
0.75
  7
TXT
 72
     4
 11
20.74611410813824
 21
1.509464613368287
 31
0.0
100
AcDbText
  0
TEXT
  5
1DA
330
1E
100
AcDbEntity
  8
TEXT
100
AcDbText
 10
20.07911410813824
 20
0.445083660987334
 30
0.0
 40
0.4640000000000001
  1
[330]
 41
0.75
  7
TXT
 72
     4
 11
20.74611410813824
 21
0.6770836609873339
 31
0.0
100
AcDbText
  0
TEXT
  5
1DB
330
1E
100
AcDbEntity
  8
TEXT
100
AcDbText
 10
23.11055891291954
 20
0.4450836609873339
 30
0.0
 40
0.4640000000000001
  1
[308]
 41
0.75
  7
TXT
 72
     4
 11
23.77755891291954
 21
0.6770836609873339
 31
0.0
100
AcDbText
  0
TEXT
  5
1DC
330
1E
100
AcDbEntity
  8
TEXT
100
AcDbText
 10
23.02355891291954
 20
1.277464613368287
 30
0.0
 40
0.4640000000000001
  1
12.144
 41
0.75
  7
TXT
 72
     4
 11
23.77755891291954
 21
1.509464613368287
 31
0.0
100
AcDbText
  0
TEXT
  5
1DD
330
1E
100
AcDbEntity
  8
TEXT
100
AcDbText
 10
26.20750151586795
 20
1.277464613368285
 30
0.0
 40
0.4640000000000001
  1
11.013
 41
0.75
  7
TXT
 72
     4
 11
26.87450151586795
 21
1.509464613368285
 31
0.0
100
AcDbText
  0
TEXT
  5
1DE
330
1E
100
AcDbEntity
  8
TEXT
100
AcDbText
 10
26.20750151586795
 20
0.4450836609873321
 30
0.0
 40
0.4640000000000001
  1
[280]
 41
0.75
  7
TXT
 72
     4
 11
26.87450151586795
 21
0.6770836609873321
 31
0.0
100
AcDbText
  0
TEXT
  5
1DF
330
1E
100
AcDbEntity
  8
TEXT
100
AcDbText
 10
29.16045778567829
 20
0.4450836609873321
 30
0.0
 40
0.4640000000000001
  1
[250]
 41
0.75
  7
TXT
 72
     4
 11
29.82745778567829
 21
0.6770836609873321
 31
0.0
100
AcDbText
  0
TEXT
  5
1E0
330
1E
100
AcDbEntity
  8
TEXT
100
AcDbText
 10
29.13145778567829
 20
1.277464613368285
 30
0.0
 40
0.4640000000000001
  1
9.846
 41
0.75
  7
TXT
 72
     4
 11
29.82745778567829
 21
1.509464613368285
 31
0.0
100
AcDbText
  0
TEXT
  5
1E1
330
1E
100
AcDbEntity
  8
TEXT
100
AcDbText
 10
32.20682359936176
 20
1.277464613368285
 30
0.0
 40
0.4640000000000001
  1
13.000
 41
0.75
  7
TXT
 72
     4
 11
32.93182359936176
 21
1.509464613368285
 31
0.0
100
AcDbText
  0
TEXT
  5
1E2
330
1E
100
AcDbEntity
  8
TEXT
100
AcDbText
 10
32.26482359936176
 20
0.4450836609873323
 30
0.0
 40
0.4640000000000001
  1
[330]
 41
0.75
  7
TXT
 72
     4
 11
32.93182359936176
 21
0.6770836609873321
 31
0.0
100
AcDbText
  0
TEXT
  5
1E3
330
1E
100
AcDbEntity
  8
TEXT
100
AcDbText
 10
35.21217806200396
 20
1.277464613368285
 30
0.0
 40
0.4640000000000001
  1
12.140
 41
0.75
  7
TXT
 72
     4
 11
35.93717806200396
 21
1.509464613368285
 31
0.0
100
AcDbText
  0
TEXT
  5
1E4
330
1E
100
AcDbEntity
  8
TEXT
100
AcDbText
 10
35.27017806200396
 20
0.4450836609873321
 30
0.0
 40
0.4640000000000001
  1
[308]
 41
0.75
  7
TXT
 72
     4
 11
35.93717806200396
 21
0.6770836609873321
 31
0.0
100
AcDbText
  0
TEXT
  5
1E5
330
1E
100
AcDbEntity
  8
TEXT
100
AcDbText
 10
38.29696587146026
 20
1.277464613368285
 30
0.0
 40
0.4640000000000001
  1
11.020
 41
0.75
  7
TXT
 72
     4
 11
38.99296587146025
 21
1.509464613368285
 31
0.0
100
AcDbText
  0
TEXT
  5
1E6
330
1E
100
AcDbEntity
  8
TEXT
100
AcDbText
 10
38.32596587146025
 20
0.4450836609873321
 30
0.0
 40
0.4640000000000001
  1
[280]
 41
0.75
  7
TXT
 72
     4
 11
38.99296587146025
 21
0.6770836609873321
 31
0.0
100
AcDbText
  0
TEXT
  5
1E7
330
1E
100
AcDbEntity
  8
TEXT
100
AcDbText
 10
41.29478845050548
 20
1.277464613368285
 30
0.0
 40
0.4640000000000001
  1
9.846
 41
0.75
  7
TXT
 72
     4
 11
41.99078845050547
 21
1.509464613368285
 31
0.0
100
AcDbText
  0
TEXT
  5
1E8
330
1E
100
AcDbEntity
  8
TEXT
100
AcDbText
 10
41.32378845050547
 20
0.4450836609873321
 30
0.0
 40
0.4640000000000001
  1
[250]
 41
0.75
  7
TXT
 72
     4
 11
41.99078845050547
 21
0.6770836609873321
 31
0.0
100
AcDbText
  0
TEXT
  5
1E9
330
1E
100
AcDbEntity
  8
TEXT
100
AcDbText
 10
47.47564259684589
 20
1.277464613368285
 30
0.0
 40
0.4640000000000001
  1
1.185
 41
0.75
  7
TXT
 72
     4
 11
48.0556425968459
 21
1.509464613368285
 31
0.0
100
AcDbText
  0
TEXT
  5
1EA
330
1E
100
AcDbEntity
  8
TEXT
100
AcDbText
 10
47.5626425968459
 20
0.4450836609873321
 30
0.0
 40
0.4640000000000001
  1
[30]
 41
0.75
  7
TXT
 72
     4
 11
48.0556425968459
 21
0.6770836609873321
 31
0.0
100
AcDbText
  0
TEXT
  5
1EB
330
1E
100
AcDbEntity
  8
TEXT
100
AcDbText
 10
44.34452714753184
 20
1.277464613368285
 30
0.0
 40
0.4640000000000001
  1
5.857
 41
0.75
  7
TXT
 72
     4
 11
45.04052714753183
 21
1.509464613368285
 31
0.0
100
AcDbText
  0
TEXT
  5
1EC
330
1E
100
AcDbEntity
  8
TEXT
100
AcDbText
 10
44.40252714753183
 20
0.4450836609873321
 30
0.0
 40
0.4640000000000001
  1
[149]
 41
0.75
  7
TXT
 72
     4
 11
45.04052714753183
 21
0.6770836609873321
 31
0.0
100
AcDbText
  0
TEXT
  5
1ED
330
1E
100
AcDbEntity
  8
TEXT
100
AcDbText
 10
53.34211913175237
 20
1.277464613368285
 30
0.0
 40
0.4640000000000001
  1
12.225
 41
0.75
  7
TXT
 72
     4
 11
54.15411913175237
 21
1.509464613368285
 31
0.0
100
AcDbText
  0
TEXT
  5
1EE
330
1E
100
AcDbEntity
  8
TEXT
100
AcDbText
 10
53.57411913175237
 20
0.4450836609873322
 30
0.0
 40
0.4640000000000001
  1
[311]
 41
0.75
  7
TXT
 72
     4
 11
54.15411913175237
 21
0.6770836609873321
 31
0.0
100
AcDbText
  0
TEXT
  5
1EF
330
1E
100
AcDbEntity
  8
TEXT
100
AcDbText
 10
56.37727615285517
 20
1.277464613368285
 30
0.0
 40
0.4640000000000001
  1
12.425
 41
0.75
  7
TXT
 72
     4
 11
57.18927615285517
 21
1.509464613368285
 31
0.0
100
AcDbText
  0
TEXT
  5
1F0
330
1E
100
AcDbEntity
  8
TEXT
100
AcDbText
 10
56.55127615285517
 20
0.4450836609873322
 30
0.0
 40
0.4640000000000001
  1
[316]
 41
0.75
  7
TXT
 72
     4
 11
57.18927615285517
 21
0.6770836609873321
 31
0.0
100
AcDbText
  0
TEXT
  5
1F1
330
1E
100
AcDbEntity
  8
TEXT
100
AcDbText
 10
59.56027343905111
 20
1.277464613368285
 30
0.0
 40
0.4640000000000001
  1
12.215
 41
0.75
  7
TXT
 72
     4
 11
60.31427343905111
 21
1.509464613368285
 31
0.0
100
AcDbText
  0
TEXT
  5
1F2
330
1E
100
AcDbEntity
  8
TEXT
100
AcDbText
 10
59.70527343905111
 20
0.445083660987334
 30
0.0
 40
0.4640000000000001
  1
[310]
 41
0.75
  7
TXT
 72
     4
 11
60.31427343905111
 21
0.6770836609873339
 31
0.0
100
AcDbText
  0
DIMENSION
  5
1F3
330
1E
100
AcDbEntity
  8
DIM
100
AcDbDimension
  2
*D16
 10
14.37445057405389
 20
10.75985535467683
 30
0.0
 11
14.37445057405389
 21
16.26985535467683
 31
0.0
 70
    32
  1
G
 71
     5
 42
11.01999999999999
  3
23NSTD
100
AcDbAlignedDimension
 13
17.48271782296328
 23
21.77985535467683
 33
0.0
 14
17.48271782296328
 24
10.75985535467683
 34
0.0
 50
90.0
100
AcDbRotatedDimension
  0
CIRCLE
  5
1F4
330
1E
100
AcDbEntity
  8
HIDDEN
100
AcDbCircle
 10
18.06621782296328
 20
11.34685535467683
 30
0.0
 40
0.095
  0
CIRCLE
  5
1F5
330
1E
100
AcDbEntity
  8
OBJECT
100
AcDbCircle
 10
18.06621782296328
 20
11.34685535467683
 30
0.0
 40
0.0825
  0
CIRCLE
  5
1F8
330
1E
100
AcDbEntity
  8
OBJECT
100
AcDbCircle
 10
27.91221782296328
 20
11.34685535467683
 30
0.0
 40
0.0825
  0
CIRCLE
  5
1F9
330
1E
100
AcDbEntity
  8
HIDDEN
100
AcDbCircle
 10
27.91221782296328
 20
11.34685535467683
 30
0.0
 40
0.095
  0
CIRCLE
  5
1FE
330
1E
100
AcDbEntity
  8
OBJECT
100
AcDbCircle
 10
18.06621782296328
 20
21.19285535467683
 30
0.0
 40
0.0825
  0
CIRCLE
  5
1FF
330
1E
100
AcDbEntity
  8
HIDDEN
100
AcDbCircle
 10
18.06621782296328
 20
21.19285535467683
 30
0.0
 40
0.095
  0
CIRCLE
  5
200
330
1E
100
AcDbEntity
  8
HIDDEN
100
AcDbCircle
 10
27.91221782296328
 20
21.19285535467683
 30
0.0
 40
0.095
  0
CIRCLE
  5
201
330
1E
100
AcDbEntity
  8
OBJECT
100
AcDbCircle
 10
27.91221782296328
 20
21.19285535467683
 30
0.0
 40
0.0825
  0
LINE
  5
204
330
1E
100
AcDbEntity
  8
OBJECT
100
AcDbLine
 10
31.48928659146527
 20
9.769855354676833
 30
0.0
 11
43.55440471946503
 21
9.769855354676833
 31
0.0
  0
LINE
  5
205
330
1E
100
AcDbEntity
  8
OBJECT
100
AcDbLine
 10
44.02684565546503
 20
10.24229629067683
 30
0.0
 11
44.02684565546503
 21
10.86876875567654
 31
0.0
  0
ARC
  5
206
330
1E
100
AcDbEntity
  8
OBJECT
100
AcDbCircle
 10
31.07980705976378
 20
26.32813543155067
 30
0.0
 40
0.059
100
AcDbArc
 50
90.0
 51
179.0000000000214
  0
LINE
  5
207
330
1E
100
AcDbEntity
  8
OBJECT
100
AcDbLine
 10
43.77006963570941
 20
25.74061985056963
 30
0.0
 11
43.73434565546516
 21
25.07496570049301
 31
0.0
  0
ARC
  5
208
330
1E
100
AcDbEntity
  8
OBJECT
100
AcDbCircle
 10
43.55742310342132
 20
25.0842378185502
 30
0.0
 40
0.177165351
100
AcDbArc
 50
270.0
 51
356.9999999999987
  0
ARC
  5
209
330
1E
100
AcDbEntity
  8
OBJECT
100
AcDbCircle
 10
43.82904381972433
 20
25.73752914455057
 30
0.0
 40
0.059055117
100
AcDbArc
 50
90.0
 51
176.9999999999984
  0
LINE
  5
20A
330
1E
100
AcDbEntity
  8
OBJECT
100
AcDbLine
 10
43.71034565546515
 20
26.38713543155065
 30
0.0
 11
43.62934565546516
 21
31.94885984655054
 31
0.0
  0
LINE
  5
20B
330
1E
100
AcDbEntity
  8
OBJECT
100
AcDbLine
 10
54.05527423246188
 20
10.15735535467682
 30
0.0
 11
54.05527423246188
 21
10.46685535467682
 31
0.0
  0
DIMENSION
  5
20C
330
1E
100
AcDbEntity
  8
DIM
100
AcDbDimension
  2
*D17
 10
57.40376619083582
 20
10.15735535467682
 30
0.0
 11
57.40376619083582
 21
16.26985535467683
 31
0.0
 70
    32
  1
M
 71
     5
 42
12.225
  3
23NSTD
100
AcDbAlignedDimension
 13
54.05527423246187
 23
22.38235535467683
 33
0.0
 14
54.05527423246188
 24
10.15735535467682
 34
0.0
 50
270.0
100
AcDbRotatedDimension
  0
LINE
  5
20D
330
1E
100
AcDbEntity
  8
OBJECT
100
AcDbLine
 10
47.90299864746176
 20
9.845521425062768
 30
0.0
 11
47.90299864746176
 21
9.957657190417583
 31
0.0
  0
LINE
  5
20E
330
1E
100
AcDbEntity
  8
OBJECT
100
AcDbLine
 10
48.49354981746199
 20
22.69418928429089
 30
0.0
 11
48.49354981746199
 21
21.35598132967673
 31
0.0
  0
LINE
  5
20F
330
1E
100
AcDbEntity
  8
OBJECT
100
AcDbLine
 10
47.01348685346201
 20
10.22927790672058
 30
0.0
 11
47.01348685346198
 21
22.31043280263307
 31
0.0
  0
LINE
  5
210
330
1E
100
AcDbEntity
  8
OBJECT
100
AcDbLine
 10
48.49354981746199
 20
22.52835535467683
 30
0.0
 11
54.05527423246187
 21
22.38235535467683
 31
0.0
  0
LINE
  5
211
330
1E
100
AcDbEntity
  8
OBJECT
100
AcDbLine
 10
47.84703423648093
 20
22.52307933492116
 30
0.0
 11
47.18138008640432
 21
22.48735535467691
 31
0.0
  0
ARC
  5
212
330
1E
100
AcDbEntity
  8
OBJECT
100
AcDbCircle
 10
47.19065220446151
 20
22.31043280263307
 30
0.0
 40
0.177165351
100
AcDbArc
 50
93.00000000000123
 51
180.0
  0
ARC
  5
213
330
1E
100
AcDbEntity
  8
OBJECT
100
AcDbCircle
 10
47.84394353046187
 20
22.58205351893607
 30
0.0
 40
0.059055117
100
AcDbArc
 50
273.0000000000015
 51
0.0
  0
LINE
  5
214
330
1E
100
AcDbEntity
  8
OBJECT
100
AcDbLine
 10
48.49354981746201
 20
10.01135535467683
 30
0.0
 11
54.05527423246188
 21
10.15735535467682
 31
0.0
  0
ARC
  5
215
330
1E
100
AcDbEntity
  8
OBJECT
100
AcDbCircle
 10
47.19065220446154
 20
10.22927790672058
 30
0.0
 40
0.177165351
100
AcDbArc
 50
180.0
 51
266.9999999999987
  0
LINE
  5
216
330
1E
100
AcDbEntity
  8
OBJECT
100
AcDbLine
 10
47.84703423648098
 20
10.01663137443249
 30
0.0
 11
47.18138008640434
 21
10.05235535467675
 31
0.0
  0
ARC
  5
217
330
1E
100
AcDbEntity
  8
OBJECT
100
AcDbCircle
 10
47.84394353046191
 20
9.957657190417583
 30
0.0
 40
0.059055117
100
AcDbArc
 50
0.0
 51
86.99999999999844
  0
LINE
  5
218
330
1E
100
AcDbEntity
  8
OBJECT
100
AcDbLine
 10
54.11432934946173
 20
11.11285535467684
 30
0.0
 11
54.11432934946171
 21
11.58085535467683
 31
0.0
  0
LINE
  5
219
330
1E
100
AcDbEntity
  8
OBJECT
100
AcDbLine
 10
54.11432934946171
 20
11.58085535467683
 30
0.0
 11
54.05527423246187
 21
11.58085535467683
 31
0.0
  0
LINE
  5
21A
330
1E
100
AcDbEntity
  8
OBJECT
100
AcDbLine
 10
54.11432934946173
 20
11.11285535467683
 30
0.0
 11
54.05527423246188
 21
11.11285535467683
 31
0.0
  0
LINE
  5
21B
330
1E
100
AcDbEntity
  8
OBJECT
100
AcDbLine
 10
54.11432934946173
 20
11.05285535467683
 30
0.0
 11
54.05527423246188
 21
11.05285535467683
 31
0.0
  0
LINE
  5
21C
330
1E
100
AcDbEntity
  8
OBJECT
100
AcDbLine
 10
54.11432934946173
 20
10.46685535467683
 30
0.0
 11
54.05527423246188
 21
10.46685535467683
 31
0.0
  0
LINE
  5
21D
330
1E
100
AcDbEntity
  8
OBJECT
100
AcDbLine
 10
54.11432934946173
 20
10.46685535467683
 30
0.0
 11
54.11432934946173
 21
11.05285535467683
 31
0.0
  0
DIMENSION
  5
21E
330
1E
100
AcDbEntity
  8
DIM
100
AcDbDimension
  2
*D18
 10
45.84096983868678
 20
10.05235535467683
 30
0.0
 11
45.84096983868678
 21
16.26985535467684
 31
0.0
 70
    32
  1
L
 71
     5
 42
12.435
  3
23NSTD
100
AcDbAlignedDimension
 13
47.1813800864038
 23
22.48735535467683
 33
0.0
 14
47.18138008640383
 24
10.05235535467683
 34
0.0
 50
90.0
100
AcDbRotatedDimension
  0
LINE
  5
21F
330
1E
100
AcDbEntity
  8
OBJECT
100
AcDbLine
 10
47.14748685346201
 20
10.28872636965082
 30
0.0
 11
47.147486853462
 21
16.26985535467683
 31
0.0
  0
LINE
  5
220
330
1E
100
AcDbEntity
  8
OBJECT
100
AcDbLine
 10
48.19827423246187
 20
10.19985535467683
 30
0.0
 11
53.88928971997497
 21
10.34808907905818
 31
0.0
  0
LINE
  5
221
330
1E
100
AcDbEntity
  8
OBJECT
100
AcDbLine
 10
48.19827423246187
 20
10.19642250672615
 30
0.0
 11
47.18839310454038
 21
10.24562017526416
 31
0.0
  0
ARC
  5
222
330
1E
100
AcDbEntity
  8
OBJECT
100
AcDbCircle
 10
47.19065220446154
 20
10.28872636965082
 30
0.0
 40
0.043165351
100
AcDbArc
 50
180.0
 51
266.9999999999987
  0
LINE
  5
223
330
1E
100
AcDbEntity
  8
OBJECT
100
AcDbLine
 10
48.49354981746199
 20
10.01135535467684
 30
0.0
 11
48.49354981746199
 21
9.845521425062768
 31
0.0
  0
LINE
  5
224
330
1E
100
AcDbEntity
  8
OBJECT
100
AcDbLine
 10
47.90299864746176
 20
16.26985535467683
 30
0.0
 11
47.90299864746174
 21
20.05676875567654
 31
0.0
  0
LINE
  5
225
330
1E
100
AcDbEntity
  8
OBJECT
100
AcDbLine
 10
54.09464506000699
 20
10.66485535467683
 30
0.0
 11
54.09464506000698
 21
10.85485535467683
 31
0.0
  0
LINE
  5
226
330
1E
100
AcDbEntity
  8
OBJECT
100
AcDbLine
 10
53.6616993474629
 20
10.66485535467683
 30
0.0
 11
53.66169934746292
 21
10.85485535467683
 31
0.0
  0
LINE
  5
227
330
1E
100
AcDbEntity
  8
OBJECT
100
AcDbLine
 10
53.56638242750912
 20
11.62539494695797
 30
0.0
 11
53.92727423246189
 21
11.63435535467683
 31
0.0
  0
ARC
  5
228
330
1E
100
AcDbEntity
  8
OBJECT
100
AcDbCircle
 10
53.5670694254625
 20
11.60572189955168
 30
0.0
 40
0.019685039
100
AcDbArc
 50
91.99999999999866
 51
179.9999999999999
  0
LINE
  5
229
330
1E
100
AcDbEntity
  8
OBJECT
100
AcDbLine
 10
54.09464506000698
 20
10.85485535467683
 30
0.0
 11
54.11432934946173
 21
10.87471217586858
 31
0.0
  0
ARC
  5
22A
330
1E
100
AcDbEntity
  8
OBJECT
100
AcDbCircle
 10
53.5670694254625
 20
11.01872189955169
 30
0.0
 40
0.019685039
100
AcDbArc
 50
91.99999999999866
 51
179.9999999999999
  0
LINE
  5
22B
330
1E
100
AcDbEntity
  8
OBJECT
100
AcDbLine
 10
53.56638242750912
 20
11.03839494695798
 30
0.0
 11
53.92727423246189
 21
11.04735535467684
 31
0.0
  0
LINE
  5
22C
330
1E
100
AcDbEntity
  8
OBJECT
100
AcDbLine
 10
54.11432934946173
 20
16.03585535467683
 30
0.0
 11
54.11432934946173
 21
16.50385535467683
 31
0.0
  0
LINE
  5
22D
330
1E
100
AcDbEntity
  8
OBJECT
100
AcDbLine
 10
54.11432934946173
 20
16.03585535467683
 30
0.0
 11
54.05527423246188
 21
16.03585535467684
 31
0.0
  0
LINE
  5
22E
330
1E
100
AcDbEntity
  8
OBJECT
100
AcDbLine
 10
54.11432934946173
 20
16.50385535467683
 30
0.0
 11
54.05527423246188
 21
16.50385535467683
 31
0.0
  0
LINE
  5
22F
330
1E
100
AcDbEntity
  8
OBJECT
100
AcDbLine
 10
53.94229118286998
 20
16.18685535467683
 30
0.0
 11
53.54738438646243
 21
16.18685535467683
 31
0.0
  0
LINE
  5
230
330
1E
100
AcDbEntity
  8
OBJECT
100
AcDbLine
 10
53.94229118286998
 20
16.18685535467683
 30
0.0
 11
53.94229118286998
 21
16.26985535467683
 31
0.0
  0
LINE
  5
231
330
1E
100
AcDbEntity
  8
OBJECT
100
AcDbLine
 10
53.54738438646243
 20
16.01098880980198
 30
0.0
 11
53.54738438646243
 21
16.26985535467683
 31
0.0
  0
LINE
  5
232
330
1E
100
AcDbEntity
  8
OBJECT
100
AcDbLine
 10
53.56638242750905
 20
15.99131576239569
 30
0.0
 11
53.92727423246189
 21
15.98235535467683
 31
0.0
  0
ARC
  5
233
330
1E
100
AcDbEntity
  8
OBJECT
100
AcDbCircle
 10
53.56706942546243
 20
16.01098880980198
 30
0.0
 40
0.019685039
100
AcDbArc
 50
180.0
 51
268.0000000000013
  0
LINE
  5
234
330
1E
100
AcDbEntity
  8
OBJECT
100
AcDbLine
 10
54.05527423246188
 20
16.26985535467683
 30
0.0
 11
54.05527423246187
 21
22.38235535467683
 31
0.0
  0
LINE
  5
235
330
1E
100
AcDbEntity
  8
OBJECT
100
AcDbLine
 10
54.09464506000698
 20
10.85485535467683
 30
0.0
 11
53.66169934746292
 21
10.85485535467683
 31
0.0
  0
LINE
  5
236
330
1E
100
AcDbEntity
  8
OBJECT
100
AcDbLine
 10
54.09464506000698
 20
10.84235535467683
 30
0.0
 11
53.66169934746292
 21
10.84235535467683
 31
0.0
  0
LINE
  5
237
330
1E
100
AcDbEntity
  8
OBJECT
100
AcDbLine
 10
54.09464506000699
 20
10.67735535467684
 30
0.0
 11
53.66169934746292
 21
10.67735535467684
 31
0.0
  0
LINE
  5
238
330
1E
100
AcDbEntity
  8
OBJECT
100
AcDbLine
 10
54.09464506000699
 20
10.66485535467683
 30
0.0
 11
53.6616993474629
 21
10.66485535467683
 31
0.0
  0
LINE
  5
239
330
1E
100
AcDbEntity
  8
OBJECT
100
AcDbLine
 10
54.09464506000698
 20
10.66485535467683
 30
0.0
 11
54.11432934946173
 21
10.64499853348508
 31
0.0
  0
ARC
  5
23A
330
1E
100
AcDbEntity
  8
OBJECT
100
AcDbCircle
 10
53.5670694254625
 20
10.50098880980197
 30
0.0
 40
0.019685039
100
AcDbArc
 50
180.0
 51
268.0000000000013
  0
LINE
  5
23B
330
1E
100
AcDbEntity
  8
OBJECT
100
AcDbLine
 10
53.54738438646251
 20
11.01872189955169
 30
0.0
 11
53.54738438646251
 21
10.50098880980197
 31
0.0
  0
ARC
  5
23C
330
1E
100
AcDbEntity
  8
OBJECT
100
AcDbCircle
 10
53.5670694254625
 20
11.08798880980198
 30
0.0
 40
0.019685039
100
AcDbArc
 50
180.0
 51
268.0000000000013
  0
LINE
  5
23D
330
1E
100
AcDbEntity
  8
OBJECT
100
AcDbLine
 10
53.56638242750912
 20
11.0683157623957
 30
0.0
 11
53.92727423246189
 21
11.05935535467684
 31
0.0
  0
LINE
  5
23E
330
1E
100
AcDbEntity
  8
OBJECT
100
AcDbLine
 10
53.54738438646251
 20
11.60572189955168
 30
0.0
 11
53.54738438646251
 21
11.08798880980198
 31
0.0
  0
LINE
  5
23F
330
1E
100
AcDbEntity
  8
OBJECT
100
AcDbLine
 10
53.56706867591725
 20
11.25185535467683
 30
0.0
 11
53.54738438646251
 21
11.23199853348508
 31
0.0
  0
LINE
  5
240
330
1E
100
AcDbEntity
  8
OBJECT
100
AcDbLine
 10
53.56706867591725
 20
11.44185535467683
 30
0.0
 11
53.54738438646251
 21
11.46171217586858
 31
0.0
  0
LINE
  5
241
330
1E
100
AcDbEntity
  8
OBJECT
100
AcDbLine
 10
53.56706867591725
 20
11.44185535467683
 30
0.0
 11
54.00001438846132
 21
11.44185535467683
 31
0.0
  0
LINE
  5
242
330
1E
100
AcDbEntity
  8
OBJECT
100
AcDbLine
 10
53.56706867591724
 20
11.25185535467684
 30
0.0
 11
53.56706867591725
 21
11.44185535467683
 31
0.0
  0
LINE
  5
243
330
1E
100
AcDbEntity
  8
OBJECT
100
AcDbLine
 10
53.56706867591725
 20
11.42935535467683
 30
0.0
 11
54.00001438846132
 21
11.42935535467683
 31
0.0
  0
LINE
  5
244
330
1E
100
AcDbEntity
  8
OBJECT
100
AcDbLine
 10
53.56706867591724
 20
11.25185535467684
 30
0.0
 11
54.00001438846134
 21
11.25185535467683
 31
0.0
  0
LINE
  5
245
330
1E
100
AcDbEntity
  8
OBJECT
100
AcDbLine
 10
53.56706867591724
 20
11.26435535467684
 30
0.0
 11
54.00001438846132
 21
11.26435535467683
 31
0.0
  0
LINE
  5
246
330
1E
100
AcDbEntity
  8
OBJECT
100
AcDbLine
 10
54.00001438846134
 20
11.25185535467683
 30
0.0
 11
54.00001438846132
 21
11.44185535467683
 31
0.0
  0
LINE
  5
247
330
1E
100
AcDbEntity
  8
OBJECT
100
AcDbLine
 10
54.05527423246187
 20
11.58085535467683
 30
0.0
 11
54.05527423246188
 21
16.03585535467684
 31
0.0
  0
LINE
  5
248
330
1E
100
AcDbEntity
  8
OBJECT
100
AcDbLine
 10
53.92727423246189
 20
11.63435535467683
 30
0.0
 11
53.92727423246189
 21
15.98235535467683
 31
0.0
  0
LINE
  5
249
330
1E
100
AcDbEntity
  8
OBJECT
100
AcDbLine
 10
54.05527423246188
 20
11.05285535467682
 30
0.0
 11
54.05527423246188
 21
11.11285535467683
 31
0.0
  0
TEXT
  5
24A
330
1E
100
AcDbEntity
  8
DIM
100
AcDbText
 10
26.22648054956224
 20
7.777028454480735
 30
0.0
 40
0.5
  1
M5 x 0.8mm THREADED BRASS
 41
0.75
  7
TXT
 11
26.22648054956224
 21
8.027028454480735
 31
0.0
100
AcDbText
 73
     2
  0
TEXT
  5
24B
330
1E
100
AcDbEntity
  8
DIM
100
AcDbText
 10
26.22648054956224
 20
6.980629590205133
 30
0.0
 40
0.5
  1
INSERT - (4) PLACES INSIDE
 41
0.75
  7
TXT
 11
26.22648054956224
 21
7.230629590205133
 31
0.0
100
AcDbText
 73
     2
  0
LINE
  5
24C
330
1E
100
AcDbEntity
  8
OBJECT
100
AcDbLine
 10
47.90299864746174
 20
21.67094195367711
 30
0.0
 11
47.90299864746174
 21
22.69418928429089
 31
0.0
  0
LINE
  5
24D
330
1E
100
AcDbEntity
  8
OBJECT
100
AcDbLine
 10
48.49354981746199
 20
20.37172937967692
 30
0.0
 11
48.49354981746201
 21
16.26985535467683
 31
0.0
  0
LINE
  5
24E
330
1E
100
AcDbEntity
  8
OBJECT
100
AcDbLine
 10
48.19827423246187
 20
9.769855354676826
 30
0.0
 11
48.19827423246188
 21
9.939855354676842
 31
0.0
  0
CIRCLE
  5
24F
330
1E
100
AcDbEntity
  8
OBJECT
100
AcDbCircle
 10
17.48271782296328
 20
10.75985535467683
 30
0.0
 40
0.2875000000000003
  0
CIRCLE
  5
250
330
1E
100
AcDbEntity
  8
OBJECT
100
AcDbCircle
 10
28.49571782296328
 20
10.75985535467683
 30
0.0
 40
0.2875000000000003
  0
CIRCLE
  5
251
330
1E
100
AcDbEntity
  8
OBJECT
100
AcDbCircle
 10
28.49571782296328
 20
21.77985535467683
 30
0.0
 40
0.2875000000000003
  0
CIRCLE
  5
252
330
1E
100
AcDbEntity
  8
OBJECT
100
AcDbCircle
 10
17.48271782296328
 20
21.77985535467683
 30
0.0
 40
0.2875000000000003
  0
CIRCLE
  5
253
330
1E
100
AcDbEntity
  8
OBJECT
100
AcDbCircle
 10
27.91221782296328
 20
11.34685535467683
 30
0.0
 40
0.2875000000000003
  0
CIRCLE
  5
254
330
1E
100
AcDbEntity
  8
OBJECT
100
AcDbCircle
 10
18.06621782296328
 20
11.34685535467683
 30
0.0
 40
0.2875000000000003
  0
CIRCLE
  5
255
330
1E
100
AcDbEntity
  8
OBJECT
100
AcDbCircle
 10
18.06621782296328
 20
21.19285535467683
 30
0.0
 40
0.2875000000000003
  0
CIRCLE
  5
256
330
1E
100
AcDbEntity
  8
OBJECT
100
AcDbCircle
 10
27.91221782296328
 20
21.19285535467683
 30
0.0
 40
0.2875000000000003
  0
CIRCLE
  5
257
330
1E
100
AcDbEntity
  8
OBJECT
100
AcDbCircle
 10
18.06621782296328
 20
16.26985535467683
 30
0.0
 40
0.2875
  0
CIRCLE
  5
258
330
1E
100
AcDbEntity
  8
OBJECT
100
AcDbCircle
 10
18.06621782296328
 20
16.26985535467683
 30
0.0
 40
0.083
  0
CIRCLE
  5
259
330
1E
100
AcDbEntity
  8
OBJECT
100
AcDbCircle
 10
22.98921782296328
 20
21.19285535467683
 30
0.0
 40
0.2875
  0
CIRCLE
  5
25A
330
1E
100
AcDbEntity
  8
OBJECT
100
AcDbCircle
 10
22.98921782296328
 20
21.19285535467683
 30
0.0
 40
0.083
  0
CIRCLE
  5
25B
330
1E
100
AcDbEntity
  8
OBJECT
100
AcDbCircle
 10
27.91221782296328
 20
16.26985535467683
 30
0.0
 40
0.2875
  0
CIRCLE
  5
25C
330
1E
100
AcDbEntity
  8
OBJECT
100
AcDbCircle
 10
27.91221782296328
 20
16.26985535467683
 30
0.0
 40
0.083
  0
LINE
  5
25D
330
1E
100
AcDbEntity
  8
OBJECT
100
AcDbLine
 10
53.92727423246189
 20
10.472377267871
 30
0.0
 11
53.92727423246187
 21
10.38707585611286
 31
0.0
  0
ARC
  5
25E
330
1E
100
AcDbEntity
  8
OBJECT
100
AcDbCircle
 10
53.88827423246187
 20
10.38707585611286
 30
0.0
 40
0.039
100
AcDbArc
 50
271.4920442360024
 51
0.0
  0
TEXT
  5
25F
330
1E
100
AcDbEntity
  8
DIM
100
AcDbText
 10
26.22648054956224
 20
6.158010432567074
 30
0.0
 40
0.5
  1
(4) PLACES OUTSIDE
 41
0.75
  7
TXT
 11
26.22648054956224
 21
6.408010432567074
 31
0.0
100
AcDbText
 73
     2
  0
LWPOLYLINE
  5
260
330
1E
100
AcDbEntity
  8
DIM
100
AcDbPolyline
 90
        4
 70
     0
 10
22.78770360293985
 20
11.1417986085592
 40
0.0
 41
0.27
 10
22.38203088609674
 20
10.54696279355717
 40
0.0
 41
0.0
 10
21.2733052463368
 20
9.00396800769718
 40
0.0
 41
0.0
 10
20.5563690761608
 20
9.00396800769718
 40
0.0
 41
0.0
  0
TEXT
  5
266
330
1E
100
AcDbEntity
  8
DIM
100
AcDbText
 10
5.240838001046988
 20
6.304937672477688
 30
0.0
 40
0.5
  1
METAL SCREWS x 0.375 [9] LG. (NOT SUPPLIED)
 41
0.75
  7
TXT
 72
     2
 11
20.17833800104698
 21
6.554937672477688
 31
0.0
100
AcDbText
 73
     2
  0
TEXT
  5
267
330
1E
100
AcDbEntity
  8
DIM
100
AcDbText
 10
5.490838001046988
 20
7.099716980009016
 30
0.0
 40
0.5
  1
BOSSES ACCEPT M5 METRIC OR #10 STD. SHEET
 41
0.75
  7
TXT
 72
     2
 11
20.17833800104698
 21
7.349716980009016
 31
0.0
100
AcDbText
 73
     2
  0
TEXT
  5
268
330
1E
100
AcDbEntity
  8
DIM
100
AcDbText
 10
8.928338001046988
 20
7.947693676482188
 30
0.0
 40
0.5
  1
HOLE x 0.395 [10] DEEP (4) PLACES
 41
0.75
  7
TXT
 72
     2
 11
20.17833800104698
 21
8.197693676482188
 31
0.0
100
AcDbText
 73
     2
  0
TEXT
  5
269
330
1E
100
AcDbEntity
  8
DIM
100
AcDbText
 10
7.428338001046988
 20
8.769071773679669
 30
0.0
 40
0.5
  1
0.575 [15] DIA. BOSS WITH 0.166 [4] DIA.
 41
0.75
  7
TXT
 72
     2
 11
20.17833800104698
 21
9.019071773679669
 31
0.0
100
AcDbText
 73
     2
  0
CIRCLE
  5
26A
330
1E
100
AcDbEntity
  8
OBJECT
100
AcDbCircle
 10
29.65021782296328
 20
13.95785535467683
 30
0.0
 40
0.12
  0
LINE
  5
26B
330
1E
100
AcDbEntity
  8
OBJECT
100
AcDbLine
 10
44.46034565546516
 20
25.96385984655054
 30
0.0
 11
44.46034565546516
 21
26.21985984655054
 31
0.0
  0
LINE
  5
26C
330
1E
100
AcDbEntity
  8
OBJECT
100
AcDbLine
 10
44.18431424511648
 20
26.21985984655054
 30
0.0
 11
44.46034565546516
 21
26.21985984655054
 31
0.0
  0
LINE
  5
26D
330
1E
100
AcDbEntity
  8
OBJECT
100
AcDbLine
 10
44.21891161762045
 20
25.96385984655054
 30
0.0
 11
44.46034565546514
 21
25.96385984655054
 31
0.0
  0
LWPOLYLINE
  5
26E
330
1E
100
AcDbEntity
  8
OBJECT
100
AcDbPolyline
 90
        8
 70
     1
 43
0.0
 10
16.91721782296328
 20
10.23885535467683
 42
0.4142135623730951
 10
16.95621782296328
 20
10.19985535467683
 10
29.02221782296328
 20
10.19985535467683
 42
0.4142135623730951
 10
29.06121782296328
 20
10.23885535467683
 10
29.06121782296328
 20
22.30085535467683
 42
0.4142135623730951
 10
29.02221782296328
 20
22.33985535467683
 10
16.95621782296329
 20
22.33985535467683
 42
0.4142135623730951
 10
16.91721782296328
 20
22.30085535467683
  0
LWPOLYLINE
  5
278
330
1E
100
AcDbEntity
  8
OBJECT
100
AcDbPolyline
 90
        8
 70
     1
 43
0.0
 10
16.74321782296328
 20
10.23885535467683
 42
0.4142135623730936
 10
16.95621782296328
 20
10.02585535467683
 10
29.02221782296328
 20
10.02585535467683
 42
0.4142135623730961
 10
29.23521782296328
 20
10.23885535467683
 10
29.23521782296328
 20
22.30085535467683
 42
0.4142135623730937
 10
29.02221782296328
 20
22.51385535467684
 10
16.95621782296329
 20
22.51385535467683
 42
0.4142135623730912
 10
16.74321782296328
 20
22.30085535467683
  0
LWPOLYLINE
  5
282
330
1E
100
AcDbEntity
  8
OBJECT
100
AcDbPolyline
 90
        8
 70
     1
 43
0.0
 10
16.65721782296328
 20
10.23885535467683
 42
0.4142135623730958
 10
16.95621782296328
 20
9.939855354676835
 10
29.02221782296328
 20
9.939855354676835
 42
0.4142135623730958
 10
29.32121782296327
 20
10.23885535467683
 10
29.32121782296329
 20
22.30085535467683
 42
0.4142135623730922
 10
29.02221782296328
 20
22.59985535467684
 10
16.95621782296329
 20
22.59985535467683
 42
0.414213562373094
 10
16.65721782296329
 20
22.30085535467683
  0
LINE
  5
28C
330
1E
100
AcDbEntity
  8
OBJECT
100
AcDbLine
 10
16.35626506946313
 20
20.37172937967647
 30
0.0
 11
16.35626506946313
 21
21.35598132967719
 31
0.0
  0
LINE
  5
28D
330
1E
100
AcDbEntity
  8
OBJECT
100
AcDbLine
 10
16.49406034246307
 20
20.37172937967647
 30
0.0
 11
16.49406034246307
 21
21.35598132967719
 31
0.0
  0
LINE
  5
28E
330
1E
100
AcDbEntity
  8
OBJECT
100
AcDbLine
 10
16.49406034246307
 20
11.18372937967647
 30
0.0
 11
16.49406034246307
 21
12.16798132967719
 31
0.0
  0
LINE
  5
28F
330
1E
100
AcDbEntity
  8
OBJECT
100
AcDbLine
 10
16.35626506946313
 20
11.18372937967647
 30
0.0
 11
16.35626506946313
 21
12.16798132967719
 31
0.0
  0
LWPOLYLINE
  5
290
330
1E
100
AcDbEntity
  8
BEND
100
AcDbPolyline
 90
       14
 70
     0
 43
0.0
 10
46.69281935636981
 20
16.26985535467684
 10
47.38871479775932
 20
16.26985535467684
 10
47.48032164957459
 20
16.43137585091243
 10
47.52103580593692
 20
16.13630019309644
 10
47.59228557957101
 20
16.26985535467684
 10
50.15021655565196
 20
16.26985535467684
 10
50.24182340746723
 20
16.43137585091243
 10
50.28253756382959
 20
16.13630019309644
 10
50.35378733746369
 20
16.26985535467683
 10
52.76102539336196
 20
16.26985535467684
 10
52.85263224517724
 20
16.43137585091243
 10
52.89334640153959
 20
16.13630019309644
 10
52.96459617517368
 20
16.26985535467684
 10
54.41738948985602
 20
16.26985535467684
  0
LINE
  5
2A0
330
1E
100
AcDbEntity
  8
OBJECT
100
AcDbLine
 10
54.05527423246188
 20
10.46685535467683
 30
0.0
 11
54.11432934946173
 21
10.46685535467683
 31
0.0
  0
LINE
  5
2A1
330
1E
100
AcDbEntity
  8
OBJECT
100
AcDbLine
 10
54.05527423246188
 20
16.03585535467684
 30
0.0
 11
54.11432934946173
 21
16.03585535467683
 31
0.0
  0
LINE
  5
2A2
330
1E
100
AcDbEntity
  8
OBJECT
100
AcDbLine
 10
54.11432934946173
 20
16.03585535467683
 30
0.0
 11
54.11432934946173
 21
16.26985535467684
 31
0.0
  0
LWPOLYLINE
  5
2A3
330
1E
100
AcDbEntity
  8
OBJECT
100
AcDbPolyline
 90
        4
 70
     0
 43
0.0
 10
48.19827423246188
 20
10.0615955106767
 10
48.04079392046169
 20
10.058846681606
 10
48.04079392046169
 20
9.906864027747664
 10
48.19827423246188
 20
9.904115198676512
  0
LWPOLYLINE
  5
2A9
330
1E
100
AcDbEntity
  8
OBJECT
100
AcDbPolyline
 90
        8
 70
     1
 43
0.0
 10
43.57734565546516
 20
10.05235535467683
 42
0.4142135623730951
 10
43.73434565546516
 20
10.20935535467683
 10
43.73434565546516
 20
22.33035535467684
 42
0.4142135623730951
 10
43.57734565546515
 20
22.48735535467683
 10
31.46634565546516
 20
22.48735535467683
 42
0.4142135623730951
 10
31.30934565546515
 20
22.33035535467684
 10
31.30934565546515
 20
10.20935535467683
 42
0.4142135623730951
 10
31.46634565546516
 20
10.05235535467682
  0
ARC
  5
2B3
330
1E
100
AcDbEntity
  8
OBJECT
100
AcDbCircle
 10
30.54440471946701
 20
21.99555298448001
 30
0.0
 40
0.4724409360000578
100
AcDbArc
 50
305.6853347126199
 51
359.9999999999866
  0
LINE
  5
2B4
330
1E
100
AcDbEntity
  8
OBJECT
100
AcDbLine
 10
30.81999526546684
 20
21.34417030627695
 30
0.0
 11
30.81999526546684
 21
20.38354040307671
 31
0.0
  0
LINE
  5
2B5
330
1E
100
AcDbEntity
  8
OBJECT
100
AcDbLine
 10
31.01684565546706
 20
20.38354040307763
 30
0.0
 11
30.81999526546684
 21
20.38354040307763
 31
0.0
  0
LWPOLYLINE
  5
2B6
330
1E
100
AcDbEntity
  8
OBJECT
100
AcDbPolyline
 90
        4
 70
     0
 43
0.0
 10
31.01684565546696
 20
19.73215772487378
 42
0.2415313610589563
 10
30.81999526546684
 20
20.11588977847896
 10
30.81999526546684
 20
20.37172937967693
 10
31.01684565546698
 20
20.37172937967693
  0
LINE
  5
2BC
330
1E
100
AcDbEntity
  8
OBJECT
100
AcDbLine
 10
31.01684565546706
 20
21.34417030627695
 30
0.0
 11
30.81999526546684
 21
21.34417030627695
 31
0.0
  0
LINE
  5
2BD
330
1E
100
AcDbEntity
  8
OBJECT
100
AcDbLine
 10
30.81999526546684
 20
21.35598132967675
 30
0.0
 11
30.81999526546683
 21
21.61182093087472
 31
0.0
  0
LINE
  5
2BE
330
1E
100
AcDbEntity
  8
OBJECT
100
AcDbLine
 10
31.01684565546706
 20
21.35598132967675
 30
0.0
 11
30.81999526546684
 21
21.35598132967675
 31
0.0
  0
LWPOLYLINE
  5
2BF
330
1E
100
AcDbEntity
  8
OBJECT
100
AcDbPolyline
 90
        4
 70
     0
 43
0.0
 10
31.01684565546696
 20
10.54415772487378
 42
0.2415313610589563
 10
30.81999526546684
 20
10.92788977847896
 10
30.81999526546684
 20
11.18372937967693
 10
31.01684565546698
 20
11.18372937967693
  0
LINE
  5
2C5
330
1E
100
AcDbEntity
  8
OBJECT
100
AcDbLine
 10
30.81999526546684
 20
12.15617030627695
 30
0.0
 11
30.81999526546684
 21
11.19554040307671
 31
0.0
  0
LINE
  5
2C6
330
1E
100
AcDbEntity
  8
OBJECT
100
AcDbLine
 10
31.01684565546706
 20
11.19554040307763
 30
0.0
 11
30.81999526546684
 21
11.19554040307763
 31
0.0
  0
LINE
  5
2C7
330
1E
100
AcDbEntity
  8
OBJECT
100
AcDbLine
 10
31.01684565546706
 20
12.15617030627694
 30
0.0
 11
30.81999526546684
 21
12.15617030627695
 31
0.0
  0
LINE
  5
2C8
330
1E
100
AcDbEntity
  8
OBJECT
100
AcDbLine
 10
31.01684565546706
 20
12.16798132967675
 30
0.0
 11
30.81999526546684
 21
12.16798132967675
 31
0.0
  0
LINE
  5
2C9
330
1E
100
AcDbEntity
  8
OBJECT
100
AcDbLine
 10
30.81999526546684
 20
12.16798132967675
 30
0.0
 11
30.81999526546683
 21
12.42382093087472
 31
0.0
  0
ARC
  5
2CA
330
1E
100
AcDbEntity
  8
OBJECT
100
AcDbCircle
 10
30.54440471946701
 20
12.80755298448001
 30
0.0
 40
0.4724409360000578
100
AcDbArc
 50
305.6853347126199
 51
359.9999999999866
  0
LINE
  5
2CB
330
1E
100
AcDbEntity
  8
OBJECT
100
AcDbLine
 10
43.85314086246511
 20
20.37172937967692
 30
0.0
 11
43.85314086246511
 21
21.35598132967674
 31
0.0
  0
LINE
  5
2CC
330
1E
100
AcDbEntity
  8
OBJECT
100
AcDbLine
 10
44.35148758720685
 20
21.35598132967674
 30
0.0
 11
44.35148758720685
 21
20.37172937967692
 31
0.0
  0
LINE
  5
2CD
330
1E
100
AcDbEntity
  8
OBJECT
100
AcDbLine
 10
44.14841644746523
 20
21.35598132967674
 30
0.0
 11
44.14841644746523
 21
20.37172937967692
 31
0.0
  0
LINE
  5
2CE
330
1E
100
AcDbEntity
  8
OBJECT
100
AcDbLine
 10
43.73434565546516
 20
20.37172937967692
 30
0.0
 11
44.35148758720685
 21
20.37172937967692
 31
0.0
  0
LINE
  5
2CF
330
1E
100
AcDbEntity
  8
OBJECT
100
AcDbLine
 10
43.73434565546516
 20
20.05676875567654
 30
0.0
 11
44.21684565546515
 21
20.05676875567655
 31
0.0
  0
LINE
  5
2D0
330
1E
100
AcDbEntity
  8
OBJECT
100
AcDbLine
 10
44.21684565546515
 20
20.05676875567655
 30
0.0
 11
44.21684565546515
 21
20.37172937967692
 31
0.0
  0
LINE
  5
2D1
330
1E
100
AcDbEntity
  8
OBJECT
100
AcDbLine
 10
43.73434565546516
 20
21.35598132967674
 30
0.0
 11
44.35148758720685
 21
21.35598132967674
 31
0.0
  0
LINE
  5
2D2
330
1E
100
AcDbEntity
  8
OBJECT
100
AcDbLine
 10
43.73434565546516
 20
21.67094195367711
 30
0.0
 11
44.21684565546515
 21
21.67094195367712
 31
0.0
  0
LINE
  5
2D3
330
1E
100
AcDbEntity
  8
OBJECT
100
AcDbLine
 10
44.21684565546515
 20
21.67094195367712
 30
0.0
 11
44.21684565546515
 21
21.35598132967674
 31
0.0
  0
LWPOLYLINE
  5
2D4
330
1E
100
AcDbEntity
  8
OBJECT
100
AcDbPolyline
 90
        4
 70
     0
 43
0.0
 10
44.02684565546516
 20
13.34346626867662
 42
-0.3106384182581576
 10
44.26762393331206
 20
13.69362270414834
 42
0.7051781285480231
 10
44.28431852545442
 20
14.21613719038376
 42
-0.3236437854432907
 10
44.02684565546516
 20
14.57224444067704
  0
CIRCLE
  5
2DA
330
1E
100
AcDbEntity
  8
OBJECT
100
AcDbCircle
 10
44.18284565546516
 20
13.95785535467683
 30
0.0
 40
0.12
  0
LINE
  5
2DB
330
1E
100
AcDbEntity
  8
OBJECT
100
AcDbLine
 10
44.02684565546515
 20
26.09185984655053
 30
0.0
 11
44.01003586404455
 21
26.33225106350156
 31
0.0
  0
ARC
  5
2DC
330
1E
100
AcDbEntity
  8
OBJECT
100
AcDbCircle
 10
43.95117958507921
 20
26.32813543155065
 30
0.0
 40
0.059
100
AcDbArc
 50
4.000000000000171
 51
90.0
  0
ARC
  5
2DD
330
1E
100
AcDbEntity
  8
OBJECT
100
AcDbCircle
 10
43.95117958507921
 20
25.8555842615504
 30
0.0
 40
0.059
100
AcDbArc
 50
270.0
 51
355.9999999999998
  0
LINE
  5
2DE
330
1E
100
AcDbEntity
  8
OBJECT
100
AcDbLine
 10
44.02684565546515
 20
26.09185984655053
 30
0.0
 11
44.01003586404455
 21
25.8514686295995
 31
0.0
  0
LINE
  5
2DF
330
1E
100
AcDbEntity
  8
OBJECT
100
AcDbLine
 10
48.19827423246187
 20
22.76985535467683
 30
0.0
 11
47.95788301551084
 21
22.75304556325623
 31
0.0
  0
ARC
  5
2E0
330
1E
100
AcDbEntity
  8
OBJECT
100
AcDbCircle
 10
47.96199864746173
 20
22.69418928429089
 30
0.0
 40
0.059
100
AcDbArc
 50
94.00000000000018
 51
180.0
  0
ARC
  5
2E1
330
1E
100
AcDbEntity
  8
OBJECT
100
AcDbCircle
 10
48.434549817462
 20
22.69418928429089
 30
0.0
 40
0.059
100
AcDbArc
 50
0.0000000000000509
 51
85.99999999999985
  0
LINE
  5
2E2
330
1E
100
AcDbEntity
  8
OBJECT
100
AcDbLine
 10
48.19827423246187
 20
22.76985535467683
 30
0.0
 11
48.43866544941289
 21
22.75304556325623
 31
0.0
  0
LINE
  5
2E3
330
1E
100
AcDbEntity
  8
OBJECT
100
AcDbLine
 10
48.19827423246187
 20
9.769855354676833
 30
0.0
 11
48.43866544941289
 21
9.786665146097439
 31
0.0
  0
ARC
  5
2E4
330
1E
100
AcDbEntity
  8
OBJECT
100
AcDbCircle
 10
47.96199864746173
 20
9.845521425062768
 30
0.0
 40
0.059
100
AcDbArc
 50
180.0
 51
265.9999999999998
  0
LINE
  5
2E5
330
1E
100
AcDbEntity
  8
OBJECT
100
AcDbLine
 10
48.19827423246187
 20
9.769855354676833
 30
0.0
 11
47.95788301551084
 21
9.786665146097439
 31
0.0
  0
ARC
  5
2E6
330
1E
100
AcDbEntity
  8
OBJECT
100
AcDbCircle
 10
48.434549817462
 20
9.845521425062768
 30
0.0
 40
0.059
100
AcDbArc
 50
274.0000000000001
 51
0.0
  0
LINE
  5
2E7
330
1E
100
AcDbEntity
  8
OBJECT
100
AcDbLine
 10
48.19827423246187
 20
10.02585535467683
 30
0.0
 11
48.12127423246187
 21
10.02585535467683
 31
0.0
  0
LINE
  5
2E8
330
1E
100
AcDbEntity
  8
OBJECT
100
AcDbLine
 10
48.19827423246187
 20
9.939855354676835
 30
0.0
 11
48.12127423246187
 21
9.939855354676835
 31
0.0
  0
ARC
  5
2E9
330
1E
100
AcDbEntity
  8
OBJECT
100
AcDbCircle
 10
48.12127423246187
 20
9.982855354676834
 30
0.0
 40
0.0429999999999993
100
AcDbArc
 50
90.0
 51
270.0
  0
LINE
  5
2EA
330
1E
100
AcDbEntity
  8
OBJECT
100
AcDbLine
 10
48.19827423246188
 20
10.02585535467683
 30
0.0
 11
48.19827423246187
 21
20.37172937967692
 31
0.0
  0
ARC
  5
2EB
330
1E
100
AcDbEntity
  8
OBJECT
100
AcDbCircle
 10
29.46922082388883
 20
25.09830855739078
 30
0.0
 40
1.747017539050701
100
AcDbArc
 50
27.53895796904764
 51
38.02627328486201
  0
ARC
  5
2EC
330
1E
100
AcDbEntity
  8
OBJECT
100
AcDbCircle
 10
30.99542930331152
 20
26.26935984655055
 30
0.0
 40
0.1775
100
AcDbArc
 50
90.0
 51
276.9596745962847
  0
LINE
  5
2ED
330
1E
100
AcDbEntity
  8
OBJECT
100
AcDbLine
 10
31.33421547159663
 20
26.44685984655054
 30
0.0
 11
30.99542930331152
 21
26.44685984655054
 31
0.0
  0
LINE
  5
2EE
330
1E
100
AcDbEntity
  8
OBJECT
100
AcDbLine
 10
53.56638242750884
 20
10.48131576239585
 30
0.0
 11
53.92727423246189
 21
10.472377267871
 31
0.0
  0
LINE
  5
2EF
330
1E
100
AcDbEntity
  8
OBJECT
100
AcDbLine
 10
53.92727423246189
 20
11.05935535467684
 30
0.0
 11
53.92727423246189
 21
11.04735535467684
 31
0.0
  0
LINE
  5
2F0
330
1E
100
AcDbEntity
  8
OBJECT
100
AcDbLine
 10
47.60772306246162
 20
21.67094195367711
 30
0.0
 11
48.19827423246187
 21
21.67094195367711
 31
0.0
  0
LINE
  5
2F1
330
1E
100
AcDbEntity
  8
OBJECT
100
AcDbLine
 10
47.60772306246161
 20
21.35598132967674
 30
0.0
 11
49.43692343613436
 21
21.35598132967673
 31
0.0
  0
LINE
  5
2F2
330
1E
100
AcDbEntity
  8
OBJECT
100
AcDbLine
 10
47.60772306246162
 20
20.05676875567654
 30
0.0
 11
48.19827423246187
 21
20.05676875567654
 31
0.0
  0
LINE
  5
2F3
330
1E
100
AcDbEntity
  8
OBJECT
100
AcDbLine
 10
47.60772306246161
 20
20.37172937967692
 30
0.0
 11
49.43692343613436
 21
20.37172937967692
 31
0.0
  0
LINE
  5
2F4
330
1E
100
AcDbEntity
  8
OBJECT
100
AcDbLine
 10
47.60772306246162
 20
20.05676875567654
 30
0.0
 11
47.60772306246161
 21
20.37172937967692
 31
0.0
  0
LINE
  5
2F5
330
1E
100
AcDbEntity
  8
OBJECT
100
AcDbLine
 10
47.60772306246161
 20
21.35598132967675
 30
0.0
 11
47.60772306246161
 21
20.37172937967692
 31
0.0
  0
LINE
  5
2F6
330
1E
100
AcDbEntity
  8
OBJECT
100
AcDbLine
 10
47.60772306246162
 20
21.67094195367711
 30
0.0
 11
47.60772306246161
 21
21.35598132967674
 31
0.0
  0
LINE
  5
2F7
330
1E
100
AcDbEntity
  8
OBJECT
100
AcDbLine
 10
49.43692343613436
 20
21.35598132967673
 30
0.0
 11
49.43692343613436
 21
20.37172937967692
 31
0.0
  0
LINE
  5
2F8
330
1E
100
AcDbEntity
  8
OBJECT
100
AcDbLine
 10
47.90299864746174
 20
20.37172937967692
 30
0.0
 11
47.90299864746174
 21
21.35598132967673
 31
0.0
  0
LINE
  5
2F9
330
1E
100
AcDbEntity
  8
OBJECT
100
AcDbLine
 10
48.38737204731415
 20
21.35598132967675
 30
0.0
 11
48.38737204731415
 21
20.37172937967692
 31
0.0
  0
LINE
  5
2FA
330
1E
100
AcDbEntity
  8
OBJECT
100
AcDbLine
 10
44.21891161762045
 20
25.6815659892283
 30
0.0
 11
44.21891161762045
 21
26.09185984655053
 31
0.0
  0
LINE
  5
2FB
330
1E
100
AcDbEntity
  8
OBJECT
100
AcDbLine
 10
44.35148758720685
 20
12.16798132967674
 30
0.0
 11
44.35148758720685
 21
11.18372937967692
 31
0.0
  0
LINE
  5
2FC
330
1E
100
AcDbEntity
  8
OBJECT
100
AcDbLine
 10
43.85314086246511
 20
11.18372937967692
 30
0.0
 11
43.85314086246511
 21
12.16798132967674
 31
0.0
  0
LINE
  5
2FD
330
1E
100
AcDbEntity
  8
OBJECT
100
AcDbLine
 10
44.14841644746523
 20
12.16798132967674
 30
0.0
 11
44.14841644746523
 21
11.18372937967692
 31
0.0
  0
LINE
  5
2FE
330
1E
100
AcDbEntity
  8
OBJECT
100
AcDbLine
 10
43.73434565546516
 20
11.18372937967692
 30
0.0
 11
44.35148758720685
 21
11.18372937967692
 31
0.0
  0
LINE
  5
2FF
330
1E
100
AcDbEntity
  8
OBJECT
100
AcDbLine
 10
43.73434565546516
 20
10.86876875567653
 30
0.0
 11
44.21684565546515
 21
10.86876875567654
 31
0.0
  0
LINE
  5
300
330
1E
100
AcDbEntity
  8
OBJECT
100
AcDbLine
 10
44.21684565546515
 20
10.86876875567654
 30
0.0
 11
44.21684565546515
 21
11.18372937967692
 31
0.0
  0
LINE
  5
301
330
1E
100
AcDbEntity
  8
OBJECT
100
AcDbLine
 10
43.73434565546516
 20
12.16798132967674
 30
0.0
 11
44.35148758720685
 21
12.16798132967674
 31
0.0
  0
LINE
  5
302
330
1E
100
AcDbEntity
  8
OBJECT
100
AcDbLine
 10
43.73434565546516
 20
12.48294195367711
 30
0.0
 11
44.21684565546515
 21
12.48294195367711
 31
0.0
  0
LINE
  5
303
330
1E
100
AcDbEntity
  8
OBJECT
100
AcDbLine
 10
44.21684565546515
 20
12.48294195367711
 30
0.0
 11
44.21684565546515
 21
12.16798132967674
 31
0.0
  0
LINE
  5
304
330
1E
100
AcDbEntity
  8
OBJECT
100
AcDbLine
 10
54.11432934946173
 20
21.42685535467685
 30
0.0
 11
54.11432934946171
 21
20.95885535467686
 31
0.0
  0
LINE
  5
305
330
1E
100
AcDbEntity
  8
OBJECT
100
AcDbLine
 10
54.11432934946173
 20
21.42685535467685
 30
0.0
 11
54.05527423246188
 21
21.42685535467685
 31
0.0
  0
LINE
  5
306
330
1E
100
AcDbEntity
  8
OBJECT
100
AcDbLine
 10
54.11432934946171
 20
20.95885535467686
 30
0.0
 11
54.05527423246187
 21
20.95885535467686
 31
0.0
  0
LINE
  5
307
330
1E
100
AcDbEntity
  8
OBJECT
100
AcDbLine
 10
54.11432934946173
 20
22.07285535467686
 30
0.0
 11
54.11432934946173
 21
21.48685535467686
 31
0.0
  0
LINE
  5
308
330
1E
100
AcDbEntity
  8
OBJECT
100
AcDbLine
 10
54.11432934946173
 20
21.48685535467686
 30
0.0
 11
54.05527423246188
 21
21.48685535467686
 31
0.0
  0
LINE
  5
309
330
1E
100
AcDbEntity
  8
OBJECT
100
AcDbLine
 10
54.11432934946173
 20
22.07285535467686
 30
0.0
 11
54.05527423246188
 21
22.07285535467686
 31
0.0
  0
LINE
  5
30A
330
1E
100
AcDbEntity
  8
OBJECT
100
AcDbLine
 10
54.05527423246188
 20
22.07285535467686
 30
0.0
 11
54.11432934946173
 21
22.07285535467686
 31
0.0
  0
INSERT
  5
30B
330
1E
100
AcDbEntity
  8
OBJECT
100
AcDbBlockReference
  2
*X0
 10
27.1415822815298
 20
-17.82895279497751
 30
0.0
1001
ACAD
1000
HATCH
1002
{
1070
    16
1000
PLASTI
1040
2.0
1040
0.7853981633974483
1002
}
  0
INSERT
  5
30C
330
1E
100
AcDbEntity
  8
OBJECT
100
AcDbBlockReference
  2
*X1
 10
27.1415822815298
 20
-17.82895279497751
 30
0.0
1001
ACAD
1000
HATCH
1002
{
1070
    16
1000
PLASTI
1040
2.0
1040
5.497787143782137
1002
}
  0
LWPOLYLINE
  5
30D
330
1E
100
AcDbEntity
  8
OBJECT
100
AcDbPolyline
 90
        5
 70
     0
 43
0.0
 10
43.32134565546515
 20
32.00791496355038
 10
43.32134565546515
 20
31.94885984655054
 10
43.32134565546515
 20
32.00791496355038
 10
42.73534565546515
 20
32.00791496355038
 10
42.73534565546515
 20
31.94885984655054
  0
LWPOLYLINE
  5
314
330
1E
100
AcDbEntity
  8
OBJECT
100
AcDbPolyline
 90
        4
 70
     0
 43
0.0
 10
42.20734565546516
 20
31.94885984655052
 10
42.20734565546516
 20
32.00791496355037
 10
42.67534565546514
 20
32.00791496355038
 10
42.67534565546514
 20
31.94885984655054
  0
LWPOLYLINE
  5
31A
330
1E
100
AcDbEntity
  8
OBJECT
100
AcDbPolyline
 90
        4
 70
     0
 43
0.0
 10
32.83634565546515
 20
31.94885984655052
 10
32.83634565546515
 20
32.00791496355037
 10
32.36834565546516
 20
32.00791496355038
 10
32.36834565546516
 20
31.94885984655054
  0
LWPOLYLINE
  5
320
330
1E
100
AcDbEntity
  8
OBJECT
100
AcDbPolyline
 90
        5
 70
     0
 43
0.0
 10
31.72234565546516
 20
32.00791496355038
 10
31.72234565546516
 20
31.94885984655054
 10
31.72234565546516
 20
32.00791496355038
 10
32.30834565546516
 20
32.00791496355038
 10
32.30834565546516
 20
31.94885984655054
  0
LWPOLYLINE
  5
327
330
1E
100
AcDbEntity
  8
OBJECT
100
AcDbPolyline
 90
        4
 70
     0
 43
0.0
 10
37.28784565546516
 20
31.94885984655052
 10
37.28784565546516
 20
32.00791496355037
 10
37.75584565546515
 20
32.00791496355038
 10
37.75584565546515
 20
31.94885984655054
  0
LINE
  5
32D
330
1E
100
AcDbEntity
  8
OBJECT
100
AcDbLine
 10
48.19827423246187
 20
21.35598132967673
 30
0.0
 11
48.19827423246187
 21
22.76985535467683
 31
0.0
  0
LWPOLYLINE
  5
32E
330
1E
100
AcDbEntity
  8
OBJECT
100
AcDbPolyline
 90
        4
 70
     0
 43
0.0
 10
17.7958123159632
 20
22.33985535467683
 10
17.73675719896336
 20
22.39891047167668
 10
18.3666784469632
 20
22.39891047167668
 10
18.30762332996336
 20
22.33985535467683
  0
LWPOLYLINE
  5
334
330
1E
100
AcDbEntity
  8
OBJECT
100
AcDbPolyline
 90
        4
 70
     0
 43
0.0
 10
28.18262332996336
 20
22.33985535467683
 10
28.2416784469632
 20
22.39891047167668
 10
27.61175719896336
 20
22.39891047167668
 10
27.6708123159632
 20
22.33985535467683
  0
LWPOLYLINE
  5
33A
330
1E
100
AcDbEntity
  8
OBJECT
100
AcDbPolyline
 90
        4
 70
     0
 43
0.0
 10
17.7958123159632
 20
10.19985535467683
 10
17.73675719896336
 20
10.14080023767699
 10
18.3666784469632
 20
10.14080023767699
 10
18.30762332996336
 20
10.19985535467683
  0
LWPOLYLINE
  5
340
330
1E
100
AcDbEntity
  8
OBJECT
100
AcDbPolyline
 90
        4
 70
     0
 43
0.0
 10
28.18262332996336
 20
10.19985535467683
 10
28.2416784469632
 20
10.14080023767699
 10
27.61175719896336
 20
10.14080023767699
 10
27.6708123159632
 20
10.19985535467683
  0
LWPOLYLINE
  5
346
330
1E
100
AcDbEntity
  8
OBJECT
100
AcDbPolyline
 90
       28
 70
     0
 43
0.0
 10
16.65721782296329
 20
21.35598132967719
 10
16.28736743296316
 20
21.35598132967719
 10
16.28736743296316
 20
21.61182093087517
 42
0.2415313610589569
 10
16.48421782296328
 20
21.99555298448034
 10
16.48421782296328
 20
22.33685535467683
 42
-0.4142135623730951
 10
16.91721782296328
 20
22.76985535467683
 10
29.06121782296328
 20
22.76985535467684
 42
-0.4142135623730951
 10
29.49421782296328
 20
22.33685535467683
 10
29.49421782296328
 20
21.39898132967674
 10
29.45416270596344
 20
21.39898132967674
 10
29.45416270596344
 20
20.32872937967693
 10
29.49421782296328
 20
20.32872937967693
 10
29.49421782296329
 20
14.57224444067704
 42
0.3236437854432907
 10
29.75169069295255
 20
14.21613719038376
 42
-0.7051781285480231
 10
29.73499610081019
 20
13.69362270414834
 42
0.3106384182581576
 10
29.49421782296329
 20
13.34346626867663
 10
29.49421782296328
 20
12.21098132967674
 10
29.45416270596344
 20
12.21098132967674
 10
29.45416270596344
 20
11.14072937967693
 10
29.49421782296329
 20
11.14072937967693
 10
29.49421782296328
 20
10.20285535467683
 42
-0.4142135623730951
 10
29.06121782296328
 20
9.769855354676833
 10
16.91721782296328
 20
9.769855354676833
 42
-0.4142135623730951
 10
16.48421782296328
 20
10.20285535467683
 10
16.4842178229634
 20
10.54415772487407
 42
0.2415313610589932
 10
16.28736743296316
 20
10.92788977847941
 10
16.28736743296316
 20
11.18372937967647
 10
16.65721782296329
 20
11.18372937967647
  0
LWPOLYLINE
  5
364
330
1E
100
AcDbEntity
  8
OBJECT
100
AcDbPolyline
 90
        8
 70
     0
 43
0.0
 10
16.65721782296329
 20
12.16798132967719
 10
16.28736743296316
 20
12.16798132967719
 10
16.28736743296316
 20
12.42382093087517
 42
0.2415313610589569
 10
16.48421782296328
 20
12.80755298448035
 10
16.4842178229634
 20
19.73215772487412
 42
0.2415313610589613
 10
16.28736743296316
 20
20.11588977847942
 10
16.28736743296316
 20
20.37172937967647
 10
16.65721782296329
 20
20.37172937967647
  0
TEXT
  5
36E
330
1E
100
AcDbEntity
  8
TEXT
100
AcDbText
 10
50.30548038214071
 20
1.277464613368285
 30
0.0
 40
0.4640000000000001
  1
12.435
 41
0.75
  7
TXT
 72
     4
 11
51.11748038214071
 21
1.509464613368285
 31
0.0
100
AcDbText
  0
TEXT
  5
36F
330
1E
100
AcDbEntity
  8
TEXT
100
AcDbText
 10
50.47948038214071
 20
0.4450836609873322
 30
0.0
 40
0.4640000000000001
  1
[316]
 41
0.75
  7
TXT
 72
     4
 11
51.11748038214071
 21
0.6770836609873321
 31
0.0
100
AcDbText
  0
TEXT
  5
370
330
1E
100
AcDbEntity
  8
TEXT
100
AcDbText
 10
9.395333333333331
 20
39.06266666666664
 30
0.0
 40
0.6666666666666666
  1
NON-METALLIC ENCLOSURE (STYLE B)
 41
0.75
  7
TXT
 72
     4
 11
17.06199999999999
 21
39.39599999999998
 31
0.0
100
AcDbText
  0
TEXT
  5
371
330
1E
100
AcDbEntity
  8
TEXT
100
AcDbText
 10
37.10466666666662
 20
39.06266666666667
 30
0.0
 40
0.6666666666666666
  1
NBB-10245 & NBB-10265 & NBB-15245 & NBB-22245
 41
0.75
  7
TXT
 72
     4
 11
47.93799999999996
 21
39.396
 31
0.0
100
AcDbText
  0
TEXT
  5
372
330
1E
100
AcDbEntity
  8
TEXT
100
AcDbText
 10
44.88445060767372
 20
7.102608544386628
 30
0.0
 40
0.5009174311926606
  1
DIMENSIONS =
 41
0.75
  7
TXT
100
AcDbText
  0
TEXT
  5
373
330
1E
100
AcDbEntity
  8
TEXT
100
AcDbText
 10
50.46053726604545
 20
7.532469817022972
 30
0.0
 40
0.5009174311926606
  1
INCHES
 41
0.75
  7
TXT
 72
     1
 11
51.46237212843077
 21
7.532469817022972
 31
0.0
100
AcDbText
  0
TEXT
  5
374
330
1E
100
AcDbEntity
  8
TEXT
100
AcDbText
 10
49.33347304586196
 20
6.69760743170187
 30
0.0
 40
0.5009174311926606
  1
[MILLIMETERS]
 41
0.75
  7
TXT
 72
     1
 11
51.46237212843077
 21
6.69760743170187
 31
0.0
100
AcDbText
  0
TEXT
  5
375
330
1E
100
AcDbEntity
  8
TEXT
100
AcDbText
 10
2.678680450763813
 20
22.78273320947875
 30
0.0
 40
0.5009174311926606
  1
(4) WALL MOUNTING BRKTS.
 41
0.75
  7
TXT
100
AcDbText
  0
TEXT
  5
376
330
1E
100
AcDbEntity
  8
TEXT
100
AcDbText
 10
2.678680450763813
 20
21.11300843883655
 30
0.0
 40
0.5009174311926606
  1
HD. MACHINE SCREWS (NOT
 41
0.75
  7
TXT
100
AcDbText
  0
TEXT
  5
377
330
1E
100
AcDbEntity
  8
TEXT
100
AcDbText
 10
0.6924444444444547
 20
23.5747943426593
 30
0.0
 40
0.5009174311926606
  1
%%UNOTE:%%u UNIT COMES COMPLETE WITH
 41
0.75
  7
TXT
100
AcDbText
  0
TEXT
  5
378
330
1E
100
AcDbEntity
  8
TEXT
100
AcDbText
 10
46.14018421379649
 20
37.72513761467889
 30
0.0
 40
0.5009174311926606
  1
%%UINDUSTRY STANDARDS:
 41
0.75
  7
TXT
100
AcDbText
  0
TEXT
  5
379
330
1E
100
AcDbEntity
  8
TEXT
100
AcDbText
 10
46.64018421379648
 20
36.05541284403668
 30
0.0
 40
0.5009174311926606
  1
UL508 TYPE 1, 2, 3, 3R, 4, 4X INDOOR, 12 & 13
 41
0.75
  7
TXT
100
AcDbText
  0
TEXT
  5
37A
330
1E
100
AcDbEntity
  8
TEXT
100
AcDbText
 10
46.64018421379648
 20
35.22055045871559
 30
0.0
 40
0.5009174311926606
  1
NEMA TYPE 1, 2, 3, 3R, 4, 4X, 12 & 13
 41
0.75
  7
TXT
100
AcDbText
  0
TEXT
  5
37B
330
1E
100
AcDbEntity
  8
TEXT
100
AcDbText
 10
46.64018421379648
 20
34.38568807339447
 30
0.0
 40
0.5009174311926606
  1
IEC529-IP65
 41
0.75
  7
TXT
100
AcDbText
  0
TEXT
  5
37C
330
1E
100
AcDbEntity
  8
TEXT
100
AcDbText
 10
10.34492897139838
 20
35.22567835301421
 30
0.0
 40
0.5009174311926606
  1
UL94-5VB FLAMMABILITY RATING
 41
0.75
  7
TXT
100
AcDbText
  0
TEXT
  5
37E
330
1E
100
AcDbEntity
  8
TEXT
100
AcDbText
 10
44.88445060767372
 20
5.490497906171428
 30
0.0
 40
0.5009174311926606
  1
%%UNOTE%%U: ALL DIMENSIONS HAVE %%P0.039 [%%P1] TOLERANCE
 41
0.75
  7
TXT
100
AcDbText
  0
TEXT
  5
37F
330
1E
100
AcDbEntity
  8
TEXT
100
AcDbText
 10
46.48991072229793
 20
4.678646147761639
 30
0.0
 40
0.5009174311926606
  1
 UNLESS OTHERWISE SPECIFIED
 41
0.75
  7
TXT
100
AcDbText
  0
TEXT
  5
380
330
1E
100
AcDbEntity
  8
TEXT
100
AcDbText
 10
10.34492897139838
 20
33.16744666323195
 30
0.0
 40
0.5009174311926606
  1
UL94V-0 FLAMMABILITY RATING
 41
0.75
  7
TXT
100
AcDbText
  0
TEXT
  5
381
330
1E
100
AcDbEntity
  8
TEXT
100
AcDbText
 10
46.64018421379648
 20
36.89027522935779
 30
0.0
 40
0.5009174311926606
  1
%%uUL LISTED INDOOR VERSION
 41
0.75
  7
TXT
100
AcDbText
  0
TEXT
  5
382
330
1E
100
AcDbEntity
  8
TEXT
100
AcDbText
 10
46.64018421379648
 20
31.08914021950889
 30
0.0
 40
0.5009174311926606
  1
NEMA TYPE 1, 2, 3, 3R, 4, 4X, 12 & 13
 41
0.75
  7
TXT
100
AcDbText
  0
TEXT
  5
383
330
1E
100
AcDbEntity
  8
TEXT
100
AcDbText
 10
46.64018421379648
 20
31.92400260482997
 30
0.0
 40
0.5009174311926606
  1
UL508 TYPE 1, 2, 3, 3R, 4, 4X, 12 & 13
 41
0.75
  7
TXT
100
AcDbText
  0
TEXT
  5
384
330
1E
100
AcDbEntity
  8
TEXT
100
AcDbText
 10
46.64018421379648
 20
32.75886499015109
 30
0.0
 40
0.5009174311926606
  1
%%uUL LISTED OUTDOOR VERSION
 41
0.75
  7
TXT
100
AcDbText
  0
TEXT
  5
385
330
1E
100
AcDbEntity
  8
TEXT
100
AcDbText
 10
46.64018421379648
 20
30.25427783418777
 30
0.0
 40
0.5009174311926606
  1
IEC529-IP65
 41
0.75
  7
TXT
100
AcDbText
  0
TEXT
  5
386
330
1E
100
AcDbEntity
  8
TEXT
100
AcDbText
 10
10.34492897139838
 20
34.00230904855305
 30
0.0
 40
0.5009174311926606
  1
POLYCARBONATE PLASTIC
 41
0.75
  7
TXT
100
AcDbText
  0
LINE
  5
387
330
1E
100
AcDbEntity
  8
TEXT
100
AcDbLine
 10
32.89042130075856
 20
33.82360985110809
 30
0.0
 11
33.87637583208342
 21
33.82360985110808
 31
0.0
  0
LINE
  5
388
330
1E
100
AcDbEntity
  8
TEXT
100
AcDbLine
 10
30.55817477044813
 20
34.65847223642918
 30
0.0
 11
33.87637583208342
 21
34.65847223642918
 31
0.0
  0
LINE
  5
389
330
1E
100
AcDbEntity
  8
TEXT
100
AcDbLine
 10
26.67109749806778
 20
36.89027522935779
 30
0.0
 11
33.87637583208342
 21
36.89027522935779
 31
0.0
  0
TEXT
  5
38A
330
1E
100
AcDbEntity
  8
TEXT
100
AcDbText
 10
34.12637583208342
 20
36.05541284403669
 30
0.0
 40
0.5009174311926606
  1
LIGHT GRAY OR CLEAR
 41
0.75
  7
TXT
100
AcDbText
  0
TEXT
  5
38B
330
1E
100
AcDbEntity
  8
TEXT
100
AcDbText
 10
10.34492897139838
 20
36.06054073833532
 30
0.0
 40
0.5009174311926606
  1
ABS/PC BLENDED PLASTIC
 41
0.75
  7
TXT
100
AcDbText
  0
LINE
  5
38C
330
1E
100
AcDbEntity
  8
TEXT
100
AcDbLine
 10
6.16901246466098
 20
34.00230904855305
 30
0.0
 11
10.09492897139838
 21
34.00230904855305
 31
0.0
  0
TEXT
  5
38D
330
1E
100
AcDbEntity
  8
TEXT
100
AcDbText
 10
24.4738913051295
 20
33.82360985110809
 30
0.0
 40
0.5009174311926606
  1
WALL MOUNTING BRACKETS
 41
0.75
  7
TXT
100
AcDbText
  0
LINE
  5
38E
330
1E
100
AcDbEntity
  8
TEXT
100
AcDbLine
 10
27.15235470668203
 20
36.05541284403669
 30
0.0
 11
33.87637583208342
 21
36.05541284403669
 31
0.0
  0
TEXT
  5
38F
330
1E
100
AcDbEntity
  8
TEXT
100
AcDbText
 10
24.4738913051295
 20
34.65847223642918
 30
0.0
 40
0.5009174311926606
  1
LATCHES & HINGES
 41
0.75
  7
TXT
100
AcDbText
  0
TEXT
  5
390
330
1E
100
AcDbEntity
  8
TEXT
100
AcDbText
 10
1.808266950078198
 20
36.06054073833532
 30
0.0
 40
0.5009174311926606
  1
SOLID BODY & COVER
 41
0.75
  7
TXT
100
AcDbText
  0
TEXT
  5
391
330
1E
100
AcDbEntity
  8
TEXT
100
AcDbText
 10
1.808266950078198
 20
34.00230904855305
 30
0.0
 40
0.5009174311926606
  1
CLEAR COVER
 41
0.75
  7
TXT
100
AcDbText
  0
TEXT
  5
392
330
1E
100
AcDbEntity
  8
TEXT
100
AcDbText
 10
25.08971381076325
 20
36.05541284403669
 30
0.0
 40
0.5009174311926606
  1
COVER
 41
0.75
  7
TXT
100
AcDbText
  0
TEXT
  5
393
330
1E
100
AcDbEntity
  8
TEXT
100
AcDbText
 10
0.8690743890651688
 20
36.89540312365643
 30
0.0
 40
0.5009174311926606
  1
%%UUL LISTED INDOOR VERSION
 41
0.75
  7
TXT
100
AcDbText
  0
TEXT
  5
394
330
1E
100
AcDbEntity
  8
TEXT
100
AcDbText
 10
25.08971381076325
 20
36.89027522935779
 30
0.0
 40
0.5009174311926606
  1
BODY
 41
0.75
  7
TXT
100
AcDbText
  0
TEXT
  5
395
330
1E
100
AcDbEntity
  8
TEXT
100
AcDbText
 10
24.4738913051295
 20
37.72513761467889
 30
0.0
 40
0.5009174311926606
  1
%%UFINISH:
 41
0.75
  7
TXT
100
AcDbText
  0
LINE
  5
396
330
1E
100
AcDbEntity
  8
TEXT
100
AcDbLine
 10
8.72073206700562
 20
36.06054073833532
 30
0.0
 11
10.09492897139838
 21
36.06054073833532
 31
0.0
  0
TEXT
  5
397
330
1E
100
AcDbEntity
  8
TEXT
100
AcDbText
 10
34.12637583208342
 20
33.82360985110804
 30
0.0
 40
0.5009174311926606
  1
STAINLESS STEEL
 41
0.75
  7
TXT
100
AcDbText
  0
TEXT
  5
398
330
1E
100
AcDbEntity
  8
TEXT
100
AcDbText
 10
34.12637583208342
 20
34.65847223642918
 30
0.0
 40
0.5009174311926606
  1
NON-METALLIC
 41
0.75
  7
TXT
100
AcDbText
  0
TEXT
  5
399
330
1E
100
AcDbEntity
  8
TEXT
100
AcDbText
 10
34.12637583208342
 20
36.89027522935779
 30
0.0
 40
0.5009174311926606
  1
LIGHT GRAY
 41
0.75
  7
TXT
100
AcDbText
  0
TEXT
  5
39A
330
1E
100
AcDbEntity
  8
TEXT
100
AcDbText
 10
0.6924444444444547
 20
37.72513761467889
 30
0.0
 40
0.5009174311926606
  1
%%UMATERIAL:
 41
0.75
  7
TXT
100
AcDbText
  0
TEXT
  5
39C
330
1E
100
AcDbEntity
  8
TEXT
100
AcDbText
 10
10.34492897139838
 20
32.32183081952932
 30
0.0
 40
0.5009174311926606
  1
UV STABILIZED
 41
0.75
  7
TXT
100
AcDbText
  0
TEXT
  5
39D
330
1E
100
AcDbEntity
  8
TEXT
100
AcDbText
 10
10.34492897139838
 20
30.26038812057274
 30
0.0
 40
0.5009174311926606
  1
UL94-5VA FLAMMABILITY RATING
 41
0.75
  7
TXT
100
AcDbText
  0
TEXT
  5
39F
330
1E
100
AcDbEntity
  8
TEXT
100
AcDbText
 10
10.34492897139838
 20
29.44202855264411
 30
0.0
 40
0.5009174311926606
  1
UV STABILIZED
 41
0.75
  7
TXT
100
AcDbText
  0
TEXT
  5
3A0
330
1E
100
AcDbEntity
  8
TEXT
100
AcDbText
 10
1.808266950078198
 20
31.09525050589384
 30
0.0
 40
0.5009174311926606
  1
SOLID BODY & COVER
 41
0.75
  7
TXT
100
AcDbText
  0
TEXT
  5
3A1
330
1E
100
AcDbEntity
  8
TEXT
100
AcDbText
 10
0.8690743890651688
 20
31.93011289121496
 30
0.0
 40
0.5009174311926606
  1
%%UUL LISTED OUTDOOR VERSION
 41
0.75
  7
TXT
100
AcDbText
  0
TEXT
  5
3A2
330
1E
100
AcDbEntity
  8
TEXT
100
AcDbText
 10
10.34492897139838
 20
31.09525050589384
 30
0.0
 40
0.5009174311926606
  1
PBT/PC BLENDED PLASTIC
 41
0.75
  7
TXT
100
AcDbText
  0
LINE
  5
3A3
330
1E
100
AcDbEntity
  8
TEXT
100
AcDbLine
 10
8.69202492877104
 20
31.09525050589384
 30
0.0
 11
10.09492897139838
 21
31.09525050589384
 31
0.0
  0
INSERT
  5
3A4
330
1E
100
AcDbEntity
  8
TITLE
100
AcDbBlockReference
  2
HBS
 10
0.0
 20
0.0
 30
0.0
 41
4.0
 42
4.0
 43
4.0
  0
TEXT
  5
3A5
330
1E
100
AcDbEntity
  8
TEXT
100
AcDbText
 10
19.69636068010613
 20
5.023018535148046
 30
0.0
 40
0.5714285714285714
  1
%%uVIEW LESS COVER
 41
0.75
  7
TXT
 72
     4
 11
22.98921782296328
 21
5.251589963719474
 31
0.0
100
AcDbText
  0
TEXT
  5
3A6
330
1E
100
AcDbEntity
  8
TEXT
100
AcDbText
 10
0.6924444444444547
 20
18.64919498596243
 30
0.0
 40
0.5009174311926606
  1
COVER INCLUDES GRAY POLY-
 41
0.75
  7
TXT
100
AcDbText
  0
TEXT
  5
3A7
330
1E
100
AcDbEntity
  8
TEXT
100
AcDbText
 10
2.678680450763813
 20
21.94787082415765
 30
0.0
 40
0.5009174311926606
  1
& (4) M5 x 10mm LG. TRUSS
 41
0.75
  7
TXT
100
AcDbText
  0
TEXT
  5
3A8
330
1E
100
AcDbEntity
  8
TEXT
100
AcDbText
 10
0.6924444444444547
 20
16.40504850142033
 30
0.0
 40
0.4992
  1
INTERNAL HINGED PANEL MOUNTING
 41
0.75
  7
TXT
100
AcDbText
  0
TEXT
  5
3A9
330
1E
100
AcDbEntity
  8
TEXT
100
AcDbText
 10
0.6924444444444547
 20
15.57233064290562
 30
0.0
 40
0.4992
  1
BRACKETS, AIR & MOISTURE VENTS,
 41
0.75
  7
TXT
100
AcDbText
  0
TEXT
  5
3AA
330
1E
100
AcDbEntity
  8
TEXT
100
AcDbText
 10
0.6924444444444547
 20
12.23395914605969
 30
0.0
 40
0.4992
  1
CAN BE PURCHASED SEPARATELY.
 41
0.75
  7
TXT
100
AcDbText
  0
TEXT
  5
3AB
330
1E
100
AcDbEntity
  8
TEXT
100
AcDbText
 10
0.6924444444444547
 20
14.7396127843909
 30
0.0
 40
0.4992
  1
STAINLESS STEEL LOCKING HASP
 41
0.75
  7
TXT
100
AcDbText
  0
TEXT
  5
3AC
330
1E
100
AcDbEntity
  8
TEXT
100
AcDbText
 10
0.6924444444444547
 20
13.90689492587619
 30
0.0
 40
0.4992
  1
AND GALVANIZED STEEL INTERNAL
 41
0.75
  7
TXT
100
AcDbText
  0
TEXT
  5
3AD
330
1E
100
AcDbEntity
  8
TEXT
100
AcDbText
 10
0.6924444444444547
 20
13.07417706736148
 30
0.0
 40
0.4992
  1
PANEL ARE NOT INCLUDED, BUT
 41
0.75
  7
TXT
100
AcDbText
  0
LINE
  5
3AE
330
1E
100
AcDbEntity
  8
TITLE
100
AcDbLine
 10
61.75199999999998
 20
1.923076452599381
 30
0.0
 11
0.2480000000000082
 21
1.923076452599381
 31
0.0
  0
LINE
  5
3AF
330
1E
100
AcDbEntity
  8
TITLE
100
AcDbLine
 10
61.75199999999998
 20
2.760614678899067
 30
0.0
 11
19.24800000000001
 21
2.76061467889906
 31
0.0
  0
LINE
  5
3B0
330
1E
100
AcDbEntity
  8
TITLE
100
AcDbLine
 10
19.24800000000001
 20
3.598152905198773
 30
0.0
 11
0.2479999999999904
 21
3.598152905198773
 31
0.0
  0
TEXT
  5
3B1
330
1E
100
AcDbEntity
  8
TEXT
100
AcDbText
 10
0.7155793195718772
 20
0.8256949637582806
 30
0.0
 40
0.5003822629969419
  1
NBB-10245
 41
0.75
  7
TXT
 72
     1
 11
2.248000000000011
 21
0.8256949637582806
 31
0.0
100
AcDbText
  0
TEXT
  5
3B2
330
1E
100
AcDbEntity
  8
TEXT
100
AcDbText
 10
1.309783256880745
 20
2.084212021610071
 30
0.0
 40
0.5003822629969419
  1
COVER
 41
0.75
  7
TXT
 72
     1
 11
2.248000000000011
 21
2.084212021610071
 31
0.0
100
AcDbText
  0
TEXT
  5
3B3
330
1E
100
AcDbEntity
  8
TEXT
100
AcDbText
 10
1.434878822629981
 20
2.938362926515075
 30
0.0
 40
0.5003822629969419
  1
SOLID
 41
0.75
  7
TXT
 72
     1
 11
2.248000000000011
 21
2.938362926515075
 31
0.0
100
AcDbText
  0
TEXT
  5
3B4
330
1E
100
AcDbEntity
  8
TEXT
100
AcDbText
 10
2.934496559633046
 20
3.772176589852598
 30
0.0
 40
0.5003822629969419
  1
PART NO.
 41
0.75
  7
TXT
 72
     1
 11
4.248000000000018
 21
3.772176589852598
 31
0.0
100
AcDbText
  0
TEXT
  5
3B5
330
1E
100
AcDbEntity
  8
TEXT
100
AcDbText
 10
5.309783256880745
 20
2.084212021610071
 30
0.0
 40
0.5003822629969419
  1
COVER
 41
0.75
  7
TXT
 72
     1
 11
6.248000000000011
 21
2.084212021610071
 31
0.0
100
AcDbText
  0
TEXT
  5
3B6
330
1E
100
AcDbEntity
  8
TEXT
100
AcDbText
 10
5.372331039755363
 20
2.938362926515075
 30
0.0
 40
0.5003822629969419
  1
CLEAR
 41
0.75
  7
TXT
 72
     1
 11
6.248000000000011
 21
2.938362926515075
 31
0.0
100
AcDbText
  0
TEXT
  5
3B7
330
1E
100
AcDbEntity
  8
TEXT
100
AcDbText
 10
4.715579319571877
 20
0.8256949637582806
 30
0.0
 40
0.5003822629969419
  1
NBB-10265
 41
0.75
  7
TXT
 72
     1
 11
6.248000000000011
 21
0.8256949637582806
 31
0.0
100
AcDbText
  0
LINE
  5
3B8
330
1E
100
AcDbEntity
  8
TITLE
100
AcDbLine
 10
61.75199999999998
 20
4.435691131498472
 30
0.0
 11
0.2480000000000118
 21
4.435691131498472
 31
0.0
  0
TEXT
  5
3B9
330
1E
100
AcDbEntity
  8
TEXT
100
AcDbText
 10
20.62101854238901
 20
2.091654434250767
 30
0.0
 40
0.5003822629969419
  1
A
 41
0.75
  7
TXT
 72
     4
 11
20.74611410813824
 21
2.341845565749238
 31
0.0
100
AcDbText
  0
TEXT
  5
3BA
330
1E
100
AcDbEntity
  8
TEXT
100
AcDbText
 10
34.89399999999999
 20
3.286152905198802
 30
0.0
 40
0.6239999999999999
  1
DIMENSIONS
 41
0.75
  7
TXT
 72
     4
 11
37.0
 21
3.598152905198801
 31
0.0
100
AcDbText
  0
TEXT
  5
3BB
330
1E
100
AcDbEntity
  8
TEXT
100
AcDbText
 10
23.65246334717031
 20
2.091654434250767
 30
0.0
 40
0.5003822629969419
  1
B
 41
0.75
  7
TXT
 72
     4
 11
23.77755891291954
 21
2.341845565749238
 31
0.0
100
AcDbText
  0
TEXT
  5
3BC
330
1E
100
AcDbEntity
  8
TEXT
100
AcDbText
 10
26.74940595011872
 20
2.091654434250767
 30
0.0
 40
0.5003822629969419
  1
C
 41
0.75
  7
TXT
 72
     4
 11
26.87450151586795
 21
2.341845565749238
 31
0.0
100
AcDbText
  0
TEXT
  5
3BD
330
1E
100
AcDbEntity
  8
TEXT
100
AcDbText
 10
29.70236221992906
 20
2.091654434250767
 30
0.0
 40
0.5003822629969419
  1
D
 41
0.75
  7
TXT
 72
     4
 11
29.82745778567829
 21
2.341845565749238
 31
0.0
100
AcDbText
  0
TEXT
  5
3BE
330
1E
100
AcDbEntity
  8
TEXT
100
AcDbText
 10
32.80672803361253
 20
2.091654434250767
 30
0.0
 40
0.5003822629969419
  1
E
 41
0.75
  7
TXT
 72
     4
 11
32.93182359936176
 21
2.341845565749238
 31
0.0
100
AcDbText
  0
TEXT
  5
3BF
330
1E
100
AcDbEntity
  8
TEXT
100
AcDbText
 10
35.81208249625473
 20
2.091654434250767
 30
0.0
 40
0.5003822629969419
  1
F
 41
0.75
  7
TXT
 72
     4
 11
35.93717806200396
 21
2.341845565749238
 31
0.0
100
AcDbText
  0
TEXT
  5
3C0
330
1E
100
AcDbEntity
  8
TEXT
100
AcDbText
 10
38.86787030571102
 20
2.091654434250767
 30
0.0
 40
0.5003822629969419
  1
G
 41
0.75
  7
TXT
 72
     4
 11
38.99296587146025
 21
2.341845565749238
 31
0.0
100
AcDbText
  0
TEXT
  5
3C1
330
1E
100
AcDbEntity
  8
TEXT
100
AcDbText
 10
41.86569288475624
 20
2.091654434250767
 30
0.0
 40
0.5003822629969419
  1
H
 41
0.75
  7
TXT
 72
     4
 11
41.99078845050547
 21
2.341845565749238
 31
0.0
100
AcDbText
  0
TEXT
  5
3C2
330
1E
100
AcDbEntity
  8
TEXT
100
AcDbText
 10
44.93643648912334
 20
2.091654434250767
 30
0.0
 40
0.5003822629969419
  1
J
 41
0.75
  7
TXT
 72
     4
 11
45.06153205487257
 21
2.341845565749238
 31
0.0
100
AcDbText
  0
TEXT
  5
3C3
330
1E
100
AcDbEntity
  8
TEXT
100
AcDbText
 10
47.93054703109667
 20
2.091654434250767
 30
0.0
 40
0.5003822629969419
  1
K
 41
0.75
  7
TXT
 72
     4
 11
48.0556425968459
 21
2.341845565749238
 31
0.0
100
AcDbText
  0
TEXT
  5
3C4
330
1E
100
AcDbEntity
  8
TEXT
100
AcDbText
 10
50.97137990905071
 20
2.091654434250767
 30
0.0
 40
0.5003822629969419
  1
L
 41
0.75
  7
TXT
 72
     4
 11
51.09647547479994
 21
2.341845565749238
 31
0.0
100
AcDbText
  0
TEXT
  5
3C5
330
1E
100
AcDbEntity
  8
TEXT
100
AcDbText
 10
54.02902356600313
 20
2.091654434250767
 30
0.0
 40
0.5003822629969419
  1
M
 41
0.75
  7
TXT
 72
     4
 11
54.15411913175237
 21
2.341845565749238
 31
0.0
100
AcDbText
  0
TEXT
  5
3C6
330
1E
100
AcDbEntity
  8
TEXT
100
AcDbText
 10
57.06418058710593
 20
2.091654434250767
 30
0.0
 40
0.5003822629969419
  1
N
 41
0.75
  7
TXT
 72
     4
 11
57.18927615285517
 21
2.341845565749238
 31
0.0
100
AcDbText
  0
TEXT
  5
3C7
330
1E
100
AcDbEntity
  8
TEXT
100
AcDbText
 10
60.18917787330187
 20
2.091654434250767
 30
0.0
 40
0.5003822629969419
  1
P
 41
0.75
  7
TXT
 72
     4
 11
60.31427343905111
 21
2.341845565749238
 31
0.0
100
AcDbText
  0
LINE
  5
3C8
330
1E
100
AcDbEntity
  8
TITLE
100
AcDbLine
 10
61.75199999999998
 20
1.085538226299668
 30
0.0
 11
19.24800000000001
 21
1.085538226299667
 31
0.0
  0
LINE
  5
3C9
330
1E
100
AcDbEntity
  8
TITLE
100
AcDbLine
 10
8.248000000000011
 20
0.2480000000000047
 30
0.0
 11
8.248000000000025
 21
6.11076758409785
 31
0.0
  0
LINE
  5
3CA
330
1E
100
AcDbEntity
  8
TITLE
100
AcDbLine
 10
4.248000000000011
 20
0.2480000000000189
 30
0.0
 11
4.248000000000018
 21
3.598152905198773
 31
0.0
  0
LINE
  5
3CB
330
1E
100
AcDbEntity
  8
TITLE
100
AcDbLine
 10
19.24800000000001
 20
6.11076758409785
 30
0.0
 11
0.2480000000000047
 21
6.11076758409785
 31
0.0
  0
TEXT
  5
3CC
330
1E
100
AcDbEntity
  8
TEXT
100
AcDbText
 10
2.56132107721685
 20
5.450977605414173
 30
0.0
 40
0.5003822629969419
  1
UL LISTED
 41
0.75
  7
TXT
 72
     1
 11
4.125015649082293
 21
5.450977605414173
 31
0.0
100
AcDbText
  0
TEXT
  5
3CD
330
1E
100
AcDbEntity
  8
TEXT
100
AcDbText
 10
1.623104334097582
 20
4.596826700509176
 30
0.0
 40
0.5003822629969419
  1
INDOOR VERSION
 41
0.75
  7
TXT
 72
     1
 11
4.125015649082293
 21
4.596826700509176
 31
0.0
100
AcDbText
  0
TEXT
  5
3CE
330
1E
100
AcDbEntity
  8
TEXT
100
AcDbText
 10
10.30978325688074
 20
2.084212021610056
 30
0.0
 40
0.5003822629969419
  1
COVER
 41
0.75
  7
TXT
 72
     1
 11
11.24800000000001
 21
2.084212021610056
 31
0.0
100
AcDbText
  0
TEXT
  5
3CF
330
1E
100
AcDbEntity
  8
TEXT
100
AcDbText
 10
9.684305428134567
 20
0.8256949637582806
 30
0.0
 40
0.5003822629969419
  1
NBB-15245
 41
0.75
  7
TXT
 72
     1
 11
11.24800000000001
 21
0.8256949637582806
 31
0.0
100
AcDbText
  0
TEXT
  5
3D0
330
1E
100
AcDbEntity
  8
TEXT
100
AcDbText
 10
10.43487882262998
 20
2.938362926515061
 30
0.0
 40
0.5003822629969419
  1
SOLID
 41
0.75
  7
TXT
 72
     1
 11
11.24800000000001
 21
2.938362926515061
 31
0.0
100
AcDbText
  0
TEXT
  5
3D1
330
1E
100
AcDbEntity
  8
TEXT
100
AcDbText
 10
8.495897553516829
 20
4.596826700509147
 30
0.0
 40
0.5003822629969419
  1
OUTDOOR VERSION
 41
0.75
  7
TXT
 72
     1
 11
11.24800000000001
 21
4.596826700509147
 31
0.0
100
AcDbText
  0
TEXT
  5
3D2
330
1E
100
AcDbEntity
  8
TEXT
100
AcDbText
 10
9.684305428134567
 20
5.450977605414166
 30
0.0
 40
0.5003822629969419
  1
UL LISTED
 41
0.75
  7
TXT
 72
     1
 11
11.24800000000001
 21
5.450977605414166
 31
0.0
100
AcDbText
  0
TEXT
  5
3D3
330
1E
100
AcDbEntity
  8
TEXT
100
AcDbText
 10
9.934496559633039
 20
3.772176589852577
 30
0.0
 40
0.5003822629969419
  1
PART NO.
 41
0.75
  7
TXT
 72
     1
 11
11.24800000000001
 21
3.772176589852577
 31
0.0
100
AcDbText
  0
LINE
  5
3E1
330
1E
100
AcDbEntity
  8
TITLE
100
AcDbLine
 10
14.24800000000001
 20
0.2480000000000047
 30
0.0
 11
14.24800000000001
 21
6.11076758409785
 31
0.0
  0
LINE
  5
3E3
330
1E
100
AcDbEntity
  8
TITLE
100
AcDbLine
 10
19.24800000000001
 20
0.2480000000000047
 30
0.0
 11
19.24800000000001
 21
6.11076758409785
 31
0.0
  0
TEXT
  5
3E4
330
1E
100
AcDbEntity
  8
TEXT
100
AcDbText
 10
15.68794022352901
 20
0.8256949637582806
 30
0.0
 40
0.5003822629969419
  1
NBB-22245
 41
0.75
  7
TXT
 72
     1
 11
17.31418257826907
 21
0.8256949637582806
 31
0.0
100
AcDbText
  0
TEXT
  5
3E5
330
1E
100
AcDbEntity
  8
TEXT
100
AcDbText
 10
16.0006791379021
 20
3.772176589852577
 30
0.0
 40
0.5003822629969419
  1
PART NO.
 41
0.75
  7
TXT
 72
     1
 11
17.31418257826907
 21
3.772176589852577
 31
0.0
100
AcDbText
  0
TEXT
  5
3E6
330
1E
100
AcDbEntity
  8
TEXT
100
AcDbText
 10
16.37596583514981
 20
2.084212021610056
 30
0.0
 40
0.5003822629969419
  1
COVER
 41
0.75
  7
TXT
 72
     1
 11
17.31418257826907
 21
2.084212021610056
 31
0.0
100
AcDbText
  0
TEXT
  5
3E7
330
1E
100
AcDbEntity
  8
TEXT
100
AcDbText
 10
16.50106140089904
 20
2.938362926515061
 30
0.0
 40
0.5003822629969419
  1
SOLID
 41
0.75
  7
TXT
 72
     1
 11
17.31418257826907
 21
2.938362926515061
 31
0.0
100
AcDbText
  0
TEXT
  5
420
330
1E
100
AcDbEntity
  8
TEXT
100
AcDbText
 10
10.31141649667623
 20
27.49603657200936
 30
0.0
 40
0.5009174311926606
  1
UL94-HB FLAMMABILITY RATING
 41
0.75
  7
TXT
100
AcDbText
  0
TEXT
  5
421
330
1E
100
AcDbEntity
  8
TEXT
100
AcDbText
 10
1.907913361487572
 20
28.25398425185207
 30
0.0
 40
0.5009174311926606
  1
SOLID BODY & COVER
 41
0.75
  7
TXT
100
AcDbText
  0
TEXT
  5
422
330
1E
100
AcDbEntity
  8
TEXT
100
AcDbText
 10
0.8917429872703195
 20
29.02966699063722
 30
0.0
 40
0.5009174311926606
  1
%%UABS VERSION
 41
0.75
  7
TXT
100
AcDbText
  0
LINE
  5
423
330
1E
100
AcDbEntity
  8
TEXT
100
AcDbLine
 10
8.789617776429423
 20
28.25398425185207
 30
0.0
 11
10.03016649667623
 21
28.25398425185207
 31
0.0
  0
TEXT
  5
424
330
1E
100
AcDbEntity
  8
TEXT
100
AcDbText
 10
10.31141649667623
 20
28.25398425185207
 30
0.0
 40
0.5009174311926606
  1
ABS
 41
0.75
  7
TXT
100
AcDbText
  0
MTEXT
  5
429
330
1E
100
AcDbEntity
  8
TEXT
100
AcDbMText
 10
0.8690743890651688
 20
27.08578822491628
 30
0.0
 40
0.5009174311926606
 41
19.226
 71
     1
 72
     5
  1
{\LALL VERSIONS\P} GASKET        MODIFIED POLYURETHANE
  7
TXT
 73
     1
 44
1.0
  0
LINE
  5
42A
330
1E
100
AcDbEntity
  8
TEXT
100
AcDbLine
 10
3.476634929290987
 20
25.76149631264253
 30
0.0
 11
6.317785685759851
 21
25.76149631264253
 31
0.0
  0
TEXT
  5
42D
330
1E
100
AcDbEntity
  8
TEXT
100
AcDbText
 10
16.01660344104102
 20
4.596826700509147
 30
0.0
 40
0.5003822629969419
  1
VERSION
 41
0.75
  7
TXT
 72
     1
 11
17.26755909853337
 21
4.596826700509147
 31
0.0
100
AcDbText
  0
TEXT
  5
42E
330
1E
100
AcDbEntity
  8
TEXT
100
AcDbText
 10
16.76717683553643
 20
5.450977605414166
 30
0.0
 40
0.5003822629969419
  1
ABS
 41
0.75
  7
TXT
 72
     1
 11
17.26755909853337
 21
5.450977605414166
 31
0.0
100
AcDbText
  0
LINE
  5
42F
330
1E
100
AcDbEntity
  8
TITLE
100
AcDbLine
 10
19.248
 20
2.760614678899059
 30
0.0
 11
19.24800000000001
 21
0.2480000000000047
 31
0.0
  0
LINE
  5
43E
330
1E
100
AcDbEntity
  8
TITLE
100
AcDbLine
 10
22.28400000000001
 20
2.760614678899061
 30
0.0
 11
22.28400000000001
 21
0.2480000000000047
 31
0.0
  0
LINE
  5
43F
330
1E
100
AcDbEntity
  8
TITLE
100
AcDbLine
 10
25.32
 20
2.760614678899061
 30
0.0
 11
25.32
 21
0.2480000000000047
 31
0.0
  0
LINE
  5
440
330
1E
100
AcDbEntity
  8
TITLE
100
AcDbLine
 10
28.356
 20
2.760614678899062
 30
0.0
 11
28.35600000000001
 21
0.2480000000000047
 31
0.0
  0
LINE
  5
441
330
1E
100
AcDbEntity
  8
TITLE
100
AcDbLine
 10
31.392
 20
2.760614678899062
 30
0.0
 11
31.39200000000001
 21
0.2480000000000047
 31
0.0
  0
LINE
  5
442
330
1E
100
AcDbEntity
  8
TITLE
100
AcDbLine
 10
34.42800000000001
 20
2.760614678899062
 30
0.0
 11
34.42800000000001
 21
0.2480000000000047
 31
0.0
  0
LINE
  5
443
330
1E
100
AcDbEntity
  8
TITLE
100
AcDbLine
 10
37.46400000000001
 20
2.760614678899063
 30
0.0
 11
37.46400000000001
 21
0.2480000000000047
 31
0.0
  0
LINE
  5
444
330
1E
100
AcDbEntity
  8
TITLE
100
AcDbLine
 10
40.50000000000001
 20
2.760614678899063
 30
0.0
 11
40.50000000000001
 21
0.2480000000000047
 31
0.0
  0
LINE
  5
445
330
1E
100
AcDbEntity
  8
TITLE
100
AcDbLine
 10
43.53600000000001
 20
2.760614678899065
 30
0.0
 11
43.53600000000001
 21
0.2480000000000047
 31
0.0
  0
LINE
  5
446
330
1E
100
AcDbEntity
  8
TITLE
100
AcDbLine
 10
46.57200000000002
 20
2.760614678899065
 30
0.0
 11
46.57200000000002
 21
0.2480000000000047
 31
0.0
  0
LINE
  5
447
330
1E
100
AcDbEntity
  8
TITLE
100
AcDbLine
 10
49.608
 20
2.760614678899065
 30
0.0
 11
49.608
 21
0.2480000000000047
 31
0.0
  0
LINE
  5
448
330
1E
100
AcDbEntity
  8
TITLE
100
AcDbLine
 10
52.64400000000001
 20
2.760614678899066
 30
0.0
 11
52.64400000000001
 21
0.2480000000000047
 31
0.0
  0
LINE
  5
449
330
1E
100
AcDbEntity
  8
TITLE
100
AcDbLine
 10
55.68000000000001
 20
2.760614678899066
 30
0.0
 11
55.68000000000002
 21
0.2480000000000047
 31
0.0
  0
LINE
  5
44A
330
1E
100
AcDbEntity
  8
TITLE
100
AcDbLine
 10
58.716
 20
2.760614678899067
 30
0.0
 11
58.716
 21
0.2480000000000047
 31
0.0
  0
TEXT
  5
44F
330
1E
100
AcDbEntity
  8
TEXT
100
AcDbText
 10
46.64018421379648
 20
28.74907500265207
 30
0.0
 40
0.5009174311926606
  1
%%uABS VERSION
 41
0.75
  7
TXT
100
AcDbText
  0
TEXT
  5
450
330
1E
100
AcDbEntity
  8
TEXT
100
AcDbText
 10
46.64018421379648
 20
27.06841733645095
 30
0.0
 40
0.5009174311926606
  1
IEC529-IP65
 41
0.75
  7
TXT
100
AcDbText
  0
TEXT
  5
451
330
1E
100
AcDbEntity
  8
TEXT
100
AcDbText
 10
46.64018421379648
 20
27.90327972177206
 30
0.0
 40
0.5009174311926606
  1
NEMA TYPE 1, 2, 3, 3R, 4, 4X, 12 & 13
 41
0.75
  7
TXT
100
AcDbText
  0
TEXT
  5
5DA
330
1E
100
AcDbEntity
  8
TEXT
100
AcDbText
 10
56.71060917552662
 20
-0.6225615476254259
 30
0.0
 40
0.4640000000000001
  1
Revised 26JUN07
 41
0.75
  7
TXT
 72
     4
 11
59.11760917552661
 21
-0.3905615476254258
 31
0.0
100
AcDbText
  0
TEXT
  5
5DB
330
1E
100
AcDbEntity
  8
TEXT
100
AcDbText
 10
2.678680450763813
 20
20.27814605351545
 30
0.0
 40
0.5009174311926606
  1
SHOWN)
 41
0.75
  7
TXT
100
AcDbText
  0
TEXT
  5
733
330
1E
100
AcDbEntity
  8
TEXT
100
AcDbText
 10
0.6924444444444547
 20
17.81647712744772
 30
0.0
 40
0.5009174311926606
  1
  URETHANE GASKET.
 41
0.75
  7
TXT
100
AcDbText
  0
ENDSEC
  0
SECTION
  2
OBJECTS
  0
DICTIONARY
  5
C
330
0
100
AcDbDictionary
281
     1
  3
ACAD_GROUP
350
D
  3
ACAD_LAYOUT
350
19
  3
ACAD_MLINESTYLE
350
16
  3
ACAD_PLOTSETTINGS
350
18
  3
ACAD_PLOTSTYLENAME
350
E
  0
DICTIONARY
  5
D
102
{ACAD_REACTORS
330
C
102
}
330
C
100
AcDbDictionary
281
     1
  0
DICTIONARY
  5
19
102
{ACAD_REACTORS
330
C
102
}
330
C
100
AcDbDictionary
281
     1
  3
Layout1
350
1D
  3
Model
350
21
  0
DICTIONARY
  5
16
102
{ACAD_REACTORS
330
C
102
}
330
C
100
AcDbDictionary
281
     1
  3
Standard
350
17
  0
DICTIONARY
  5
18
102
{ACAD_REACTORS
330
C
102
}
330
C
100
AcDbDictionary
281
     1
  0
ACDBDICTIONARYWDFLT
  5
E
102
{ACAD_REACTORS
330
C
102
}
330
C
100
AcDbDictionary
281
     1
  3
Normal
350
F
100
AcDbDictionaryWithDefault
340
F
  0
LAYOUT
  5
1D
102
{ACAD_REACTORS
330
19
102
}
330
19
100
AcDbPlotSettings
  1

  2
RICOH Aficio 1060 PCL 5e
  4

  6

 40
0.0
 41
0.0
 42
0.0
 43
0.0
 44
0.0
 45
0.0
 46
0.0
 47
0.0
 48
0.0
 49
0.0
140
0.0
141
0.0
142
1.0
143
1.0
 70
   688
 72
     0
 73
     0
 74
     5
  7
monochrome.ctb
 75
    16
147
1.0
148
0.0
149
0.0
100
AcDbLayout
  1
Layout1
 70
     1
 71
     1
 10
0.0
 20
0.0
 11
12.0
 21
9.0
 12
0.0
 22
0.0
 32
0.0
 14
1.000000000000000E+20
 24
1.000000000000000E+20
 34
1.000000000000000E+20
 15
-1.000000000000000E+20
 25
-1.000000000000000E+20
 35
-1.000000000000000E+20
146
0.0
 13
0.0
 23
0.0
 33
0.0
 16
1.0
 26
0.0
 36
0.0
 17
0.0
 27
1.0
 37
0.0
 76
     0
330
1A
  0
LAYOUT
  5
21
102
{ACAD_REACTORS
330
19
102
}
330
19
100
AcDbPlotSettings
  1

  2
RICOH Aficio 1060 PCL 6
  4
Letter
  6

 40
5.027083396911621
 41
5.027085304260253
 42
5.027084350585937
 43
5.027069091796875
 44
215.8999938964843
 45
279.3999938964843
 46
13.71599999999999
 47
0.0
 48
0.0
 49
0.0
140
0.0
141
0.0
142
1.0
143
5.847471953218853
 70
 11956
 72
     0
 73
     1
 74
     1
  7
monochrome.ctb
 75
     0
147
0.1710140737741428
148
0.0961137640105932
149
15.87678140485967
100
AcDbLayout
  1
Model
 70
     1
 71
     0
 10
0.0
 20
0.0
 11
12.0
 21
9.0
 12
0.0
 22
0.0
 32
0.0
 14
0.0
 24
0.0
 34
0.0
 15
0.0
 25
0.0
 35
0.0
146
0.0
 13
0.0
 23
0.0
 33
0.0
 16
1.0
 26
0.0
 36
0.0
 17
0.0
 27
1.0
 37
0.0
 76
     0
330
1E
  0
MLINESTYLE
  5
17
102
{ACAD_REACTORS
330
16
102
}
330
16
100
AcDbMlineStyle
  2
STANDARD
 70
     0
  3

 62
   256
 51
90.0
 52
90.0
 71
     2
 49
0.5
 62
   256
  6
BYLAYER
 49
-0.5
 62
   256
  6
BYLAYER
  0
ACDBPLACEHOLDER
  5
F
102
{ACAD_REACTORS
330
E
102
}
330
E
  0
ENDSEC
  0
EOF
