  0
SECTION
  2
HEADER
  9
$ACADVER
  1
AC1015
  9
$ACADMAINTVER
 70
     6
  9
$DWGCODEPAGE
  3
ANSI_1252
  9
$INSBASE
 10
0.0
 20
0.0
 30
0.0
  9
$EXTMIN
 10
0.0
 20
-0.6740538067248859
 30
0.0
  9
$EXTMAX
 10
69.75
 20
45.53999999999999
 30
0.0
  9
$LIMMIN
 10
0.0
 20
0.0
  9
$LIMMAX
 10
69.75
 20
45.53999999999999
  9
$ORTHOMODE
 70
     0
  9
$REGENMODE
 70
     1
  9
$FILLMODE
 70
     1
  9
$QTEXTMODE
 70
     0
  9
$MIRRTEXT
 70
     0
  9
$LTSCALE
 40
1.0
  9
$ATTMODE
 70
     1
  9
$TEXTSIZE
 40
0.5620000000000001
  9
$TRACEWID
 40
0.05
  9
$TEXTSTYLE
  7
TXT
  9
$CLAYER
  8
OBJECT
  9
$CELTYPE
  6
ByLayer
  9
$CECOLOR
 62
   256
  9
$CELTSCALE
 40
1.0
  9
$DISPSILH
 70
     0
  9
$DIMSCALE
 40
4.5
  9
$DIMASZ
 40
0.18
  9
$DIMEXO
 40
0.063
  9
$DIMDLI
 40
0.25
  9
$DIMRND
 40
0.0
  9
$DIMDLE
 40
0.0
  9
$DIMEXE
 40
0.093
  9
$DIMTP
 40
0.0
  9
$DIMTM
 40
0.0
  9
$DIMTXT
 40
0.125
  9
$DIMCEN
 40
0.09
  9
$DIMTSZ
 40
0.0
  9
$DIMTOL
 70
     0
  9
$DIMLIM
 70
     0
  9
$DIMTIH
 70
     1
  9
$DIMTOH
 70
     1
  9
$DIMSE1
 70
     0
  9
$DIMSE2
 70
     0
  9
$DIMTAD
 70
     0
  9
$DIMZIN
 70
     0
  9
$DIMBLK
  1

  9
$DIMASO
 70
     1
  9
$DIMSHO
 70
     1
  9
$DIMPOST
  1

  9
$DIMAPOST
  1

  9
$DIMALT
 70
     1
  9
$DIMALTD
 70
     0
  9
$DIMALTF
 40
25.4
  9
$DIMLFAC
 40
1.0
  9
$DIMTOFL
 70
     0
  9
$DIMTVP
 40
0.0
  9
$DIMTIX
 70
     0
  9
$DIMSOXD
 70
     0
  9
$DIMSAH
 70
     0
  9
$DIMBLK1
  1

  9
$DIMBLK2
  1

  9
$DIMSTYLE
  2
23NSTD
  9
$DIMCLRD
 70
     0
  9
$DIMCLRE
 70
     0
  9
$DIMCLRT
 70
     0
  9
$DIMTFAC
 40
1.0
  9
$DIMGAP
 40
0.09
  9
$DIMJUST
 70
     0
  9
$DIMSD1
 70
     0
  9
$DIMSD2
 70
     0
  9
$DIMTOLJ
 70
     1
  9
$DIMTZIN
 70
     0
  9
$DIMALTZ
 70
     0
  9
$DIMALTTZ
 70
     0
  9
$DIMUPT
 70
     0
  9
$DIMDEC
 70
     3
  9
$DIMTDEC
 70
     3
  9
$DIMALTU
 70
     2
  9
$DIMALTTD
 70
     0
  9
$DIMTXSTY
  7
TXT
  9
$DIMAUNIT
 70
     0
  9
$DIMADEC
 70
     0
  9
$DIMALTRND
 40
0.0
  9
$DIMAZIN
 70
     0
  9
$DIMDSEP
 70
    46
  9
$DIMATFIT
 70
     1
  9
$DIMFRAC
 70
     0
  9
$DIMLDRBLK
  1

  9
$DIMLUNIT
 70
     2
  9
$DIMLWD
 70
    -2
  9
$DIMLWE
 70
    -2
  9
$DIMTMOVE
 70
     0
  9
$LUNITS
 70
     2
  9
$LUPREC
 70
     3
  9
$SKETCHINC
 40
0.1
  9
$FILLETRAD
 40
0.0
  9
$AUNITS
 70
     0
  9
$AUPREC
 70
     0
  9
$MENU
  1
acad
  9
$ELEVATION
 40
0.0
  9
$PELEVATION
 40
0.0
  9
$THICKNESS
 40
0.0
  9
$LIMCHECK
 70
     0
  9
$CHAMFERA
 40
0.0
  9
$CHAMFERB
 40
0.0
  9
$CHAMFERC
 40
0.0
  9
$CHAMFERD
 40
0.0
  9
$SKPOLY
 70
     0
  9
$TDCREATE
 40
2451095.630225462
  9
$TDUCREATE
 40
2451095.796892130
  9
$TDUPDATE
 40
2454306.460232199
  9
$TDUUPDATE
 40
2454306.626898866
  9
$TDINDWG
 40
0.4527450116
  9
$TDUSRTIMER
 40
0.4527450116
  9
$USRTIMER
 70
     1
  9
$ANGBASE
 50
0.0
  9
$ANGDIR
 70
     0
  9
$PDMODE
 70
     0
  9
$PDSIZE
 40
0.0
  9
$PLINEWID
 40
0.0
  9
$SPLFRAME
 70
     0
  9
$SPLINETYPE
 70
     6
  9
$SPLINESEGS
 70
     8
  9
$HANDSEED
  5
DB3
  9
$SURFTAB1
 70
     6
  9
$SURFTAB2
 70
     6
  9
$SURFTYPE
 70
     6
  9
$SURFU
 70
     6
  9
$SURFV
 70
     6
  9
$UCSBASE
  2

  9
$UCSNAME
  2

  9
$UCSORG
 10
0.0
 20
0.0
 30
0.0
  9
$UCSXDIR
 10
1.0
 20
0.0
 30
0.0
  9
$UCSYDIR
 10
0.0
 20
1.0
 30
0.0
  9
$UCSORTHOREF
  2

  9
$UCSORTHOVIEW
 70
     0
  9
$UCSORGTOP
 10
0.0
 20
0.0
 30
0.0
  9
$UCSORGBOTTOM
 10
0.0
 20
0.0
 30
0.0
  9
$UCSORGLEFT
 10
0.0
 20
0.0
 30
0.0
  9
$UCSORGRIGHT
 10
0.0
 20
0.0
 30
0.0
  9
$UCSORGFRONT
 10
0.0
 20
0.0
 30
0.0
  9
$UCSORGBACK
 10
0.0
 20
0.0
 30
0.0
  9
$PUCSBASE
  2

  9
$PUCSNAME
  2

  9
$PUCSORG
 10
0.0
 20
0.0
 30
0.0
  9
$PUCSXDIR
 10
1.0
 20
0.0
 30
0.0
  9
$PUCSYDIR
 10
0.0
 20
1.0
 30
0.0
  9
$PUCSORTHOREF
  2

  9
$PUCSORTHOVIEW
 70
     0
  9
$PUCSORGTOP
 10
0.0
 20
0.0
 30
0.0
  9
$PUCSORGBOTTOM
 10
0.0
 20
0.0
 30
0.0
  9
$PUCSORGLEFT
 10
0.0
 20
0.0
 30
0.0
  9
$PUCSORGRIGHT
 10
0.0
 20
0.0
 30
0.0
  9
$PUCSORGFRONT
 10
0.0
 20
0.0
 30
0.0
  9
$PUCSORGBACK
 10
0.0
 20
0.0
 30
0.0
  9
$USERI1
 70
     0
  9
$USERI2
 70
     0
  9
$USERI3
 70
     0
  9
$USERI4
 70
     0
  9
$USERI5
 70
     0
  9
$USERR1
 40
0.0
  9
$USERR2
 40
0.0
  9
$USERR3
 40
0.0
  9
$USERR4
 40
0.0
  9
$USERR5
 40
0.0
  9
$WORLDVIEW
 70
     0
  9
$SHADEDGE
 70
     3
  9
$SHADEDIF
 70
    70
  9
$TILEMODE
 70
     1
  9
$MAXACTVP
 70
    16
  9
$PINSBASE
 10
0.0
 20
0.0
 30
0.0
  9
$PLIMCHECK
 70
     0
  9
$PEXTMIN
 10
1.000000000000000E+20
 20
1.000000000000000E+20
 30
1.000000000000000E+20
  9
$PEXTMAX
 10
-1.000000000000000E+20
 20
-1.000000000000000E+20
 30
-1.000000000000000E+20
  9
$PLIMMIN
 10
0.0
 20
0.0
  9
$PLIMMAX
 10
12.0
 20
9.0
  9
$UNITMODE
 70
     0
  9
$VISRETAIN
 70
     0
  9
$PLINEGEN
 70
     0
  9
$PSLTSCALE
 70
     1
  9
$TREEDEPTH
 70
  3020
  9
$CMLSTYLE
  2
Standard
  9
$CMLJUST
 70
     0
  9
$CMLSCALE
 40
1.0
  9
$PROXYGRAPHICS
 70
     1
  9
$MEASUREMENT
 70
     0
  9
$CELWEIGHT
370
    -1
  9
$ENDCAPS
280
     0
  9
$JOINSTYLE
280
     0
  9
$LWDISPLAY
290
     0
  9
$INSUNITS
 70
     0
  9
$HYPERLINKBASE
  1

  9
$STYLESHEET
  1
monochrome.ctb
  9
$XEDIT
290
     1
  9
$CEPSNTYPE
380
     0
  9
$PSTYLEMODE
290
     1
  9
$FINGERPRINTGUID
  2
{BDAFF7A6-C9DC-11D8-8607-00C04F604D21}
  9
$VERSIONGUID
  2
{E3B4C5E0-CB87-4303-94A9-D5CD3B07297D}
  9
$EXTNAMES
290
     1
  9
$PSVPSCALE
 40
0.0
  9
$OLESTARTUP
290
     0
  0
ENDSEC
  0
SECTION
  2
CLASSES
  0
CLASS
  1
ACDBDICTIONARYWDFLT
  2
AcDbDictionaryWithDefault
  3
AutoCAD 2000
 90
        0
280
     0
281
     0
  0
CLASS
  1
ACDBPLACEHOLDER
  2
AcDbPlaceHolder
  3
AutoCAD 2000
 90
        0
280
     0
281
     0
  0
CLASS
  1
LAYOUT
  2
AcDbLayout
  3
AutoCAD 2000
 90
        0
280
     0
281
     0
  0
ENDSEC
  0
SECTION
  2
TABLES
  0
TABLE
  2
VPORT
  5
8
330
0
100
AcDbSymbolTable
 70
     2
  0
VPORT
  5
DB2
330
8
100
AcDbSymbolTableRecord
100
AcDbViewportTableRecord
  2
*Active
 70
     0
 10
0.0
 20
0.0
 11
1.0
 21
1.0
 12
34.87500032480864
 22
22.43298086510113
 13
0.0
 23
0.0
 14
1.0
 24
1.0
 15
0.0
 25
0.0
 16
0.0
 26
0.0
 36
1.0
 17
0.0
 27
0.0
 37
0.0
 40
46.68183547970659
 41
1.824707846410684
 42
50.0
 43
0.0
 44
0.0
 50
0.0
 51
0.0
 71
     0
 72
   100
 73
     1
 74
     0
 75
     0
 76
     0
 77
     0
 78
     0
281
     0
 65
     1
110
0.0
120
0.0
130
0.0
111
1.0
121
0.0
131
0.0
112
0.0
122
1.0
132
0.0
 79
     0
146
0.0
  0
ENDTAB
  0
TABLE
  2
LTYPE
  5
5
330
0
100
AcDbSymbolTable
 70
     4
  0
LTYPE
  5
13
330
5
100
AcDbSymbolTableRecord
100
AcDbLinetypeTableRecord
  2
ByBlock
 70
     0
  3

 72
    65
 73
     0
 40
0.0
  0
LTYPE
  5
14
330
5
100
AcDbSymbolTableRecord
100
AcDbLinetypeTableRecord
  2
ByLayer
 70
     0
  3

 72
    65
 73
     0
 40
0.0
  0
LTYPE
  5
15
330
5
100
AcDbSymbolTableRecord
100
AcDbLinetypeTableRecord
  2
CONTINUOUS
 70
     0
  3
Solid line
 72
    65
 73
     0
 40
0.0
  0
LTYPE
  5
3D
330
5
100
AcDbSymbolTableRecord
100
AcDbLinetypeTableRecord
  2
PHANTOM
 70
     0
  3
_____ _ _ _____ _ _ _____ _ _ _____ _ _ ____
 72
    65
 73
     6
 40
2.5
 49
1.25
 74
     0
 49
-0.25
 74
     0
 49
0.25
 74
     0
 49
-0.25
 74
     0
 49
0.25
 74
     0
 49
-0.25
 74
     0
  0
LTYPE
  5
3E
330
5
100
AcDbSymbolTableRecord
100
AcDbLinetypeTableRecord
  2
CENTER
 70
     0
  3
____ _ ____ _ ____ _ ____ _ ____ _ ____ _ ____
 72
    65
 73
     4
 40
2.0
 49
1.25
 74
     0
 49
-0.25
 74
     0
 49
0.25
 74
     0
 49
-0.25
 74
     0
  0
LTYPE
  5
3F
330
5
100
AcDbSymbolTableRecord
100
AcDbLinetypeTableRecord
  2
HIDDEN2
 70
     0
  3
_ _ _ _ _ _ _ _ _ _ _ _ _ _ _ _ _ _ _ _ _ _ _ _
 72
    65
 73
     2
 40
0.1875
 49
0.125
 74
     0
 49
-0.0625
 74
     0
  0
ENDTAB
  0
TABLE
  2
LAYER
  5
2
330
0
100
AcDbSymbolTable
 70
     9
  0
LAYER
  5
10
330
2
100
AcDbSymbolTableRecord
100
AcDbLayerTableRecord
  2
0
 70
     0
 62
     7
  6
CONTINUOUS
370
    -3
390
F
  0
LAYER
  5
44
330
2
100
AcDbSymbolTableRecord
100
AcDbLayerTableRecord
  2
OBJECT
 70
     0
 62
     7
  6
CONTINUOUS
370
    -3
390
F
  0
LAYER
  5
45
330
2
100
AcDbSymbolTableRecord
100
AcDbLayerTableRecord
  2
DIM
 70
     0
 62
     7
  6
CONTINUOUS
370
    -3
390
F
  0
LAYER
  5
46
330
2
100
AcDbSymbolTableRecord
100
AcDbLayerTableRecord
  2
HIDDEN
 70
     0
 62
     7
  6
HIDDEN2
370
    -3
390
F
  0
LAYER
  5
47
330
2
100
AcDbSymbolTableRecord
100
AcDbLayerTableRecord
  2
BEND
 70
     0
 62
     7
  6
PHANTOM
370
    -3
390
F
  0
LAYER
  5
48
330
2
100
AcDbSymbolTableRecord
100
AcDbLayerTableRecord
  2
TEXT
 70
     0
 62
     7
  6
CONTINUOUS
370
    -3
390
F
  0
LAYER
  5
49
330
2
100
AcDbSymbolTableRecord
100
AcDbLayerTableRecord
  2
TITLE
 70
     0
 62
     7
  6
CONTINUOUS
370
    -3
390
F
  0
LAYER
  5
4A
330
2
100
AcDbSymbolTableRecord
100
AcDbLayerTableRecord
  2
CENTER
 70
     0
 62
     7
  6
CENTER
370
    -3
390
F
  0
LAYER
  5
4B
330
2
100
AcDbSymbolTableRecord
100
AcDbLayerTableRecord
  2
DEFPOINTS
 70
     0
 62
     7
  6
CONTINUOUS
290
     0
370
    -3
390
F
  0
ENDTAB
  0
TABLE
  2
STYLE
  5
3
330
0
100
AcDbSymbolTable
 70
     2
  0
STYLE
  5
11
330
3
100
AcDbSymbolTableRecord
100
AcDbTextStyleTableRecord
  2
STANDARD
 70
     0
 40
0.0
 41
1.0
 50
0.0
 71
     0
 42
0.2
  3
txt
  4

  0
STYLE
  5
3C
330
3
100
AcDbSymbolTableRecord
100
AcDbTextStyleTableRecord
  2
TXT
 70
     0
 40
0.0
 41
0.75
 50
0.0
 71
     0
 42
0.5620000000000001
  3
TXT.shx
  4

  0
ENDTAB
  0
TABLE
  2
VIEW
  5
6
330
0
100
AcDbSymbolTable
 70
     0
  0
ENDTAB
  0
TABLE
  2
UCS
  5
7
330
0
100
AcDbSymbolTable
 70
     0
  0
ENDTAB
  0
TABLE
  2
APPID
  5
9
330
0
100
AcDbSymbolTable
 70
     1
  0
APPID
  5
12
330
9
100
AcDbSymbolTableRecord
100
AcDbRegAppTableRecord
  2
ACAD
 70
     0
  0
ENDTAB
  0
TABLE
  2
DIMSTYLE
  5
A
330
0
100
AcDbSymbolTable
 70
     2
100
AcDbDimStyleTable
 71
     2
340
42
340
43
  0
DIMSTYLE
105
42
102
{ACAD_REACTORS
330
239
330
23A
330
23B
330
23C
330
23D
330
23E
330
23F
330
240
330
241
330
242
330
243
330
248
330
250
330
251
330
252
330
253
330
279
330
2E5
330
2F7
330
323
330
523
102
}
330
A
100
AcDbSymbolTableRecord
100
AcDbDimStyleTableRecord
  2
23NSTD
 70
     0
 40
4.5
 42
0.063
 43
0.25
 44
0.093
140
0.125
170
     1
171
     0
271
     3
272
     3
274
     0
289
     1
340
3C
  0
DIMSTYLE
105
43
102
{ACAD_REACTORS
330
244
330
254
102
}
330
A
100
AcDbSymbolTableRecord
100
AcDbDimStyleTableRecord
  2
23NSTDI
 70
     0
 40
4.5
 42
0.063
 43
0.25
 44
0.093
140
0.125
170
     1
171
     0
174
     1
271
     3
272
     3
274
     0
340
3C
  0
ENDTAB
  0
TABLE
  2
BLOCK_RECORD
  5
1
330
0
100
AcDbSymbolTable
 70
    26
  0
BLOCK_RECORD
  5
1E
330
1
100
AcDbSymbolTableRecord
100
AcDbBlockTableRecord
  2
*Model_Space
340
21
  0
BLOCK_RECORD
  5
1A
330
1
100
AcDbSymbolTableRecord
100
AcDbBlockTableRecord
  2
*Paper_Space
340
1D
  0
BLOCK_RECORD
  5
22
330
1
100
AcDbSymbolTableRecord
100
AcDbBlockTableRecord
  2
*X0
340
0
102
{BLKREFS
331
511
102
}
  0
BLOCK_RECORD
  5
23
330
1
100
AcDbSymbolTableRecord
100
AcDbBlockTableRecord
  2
*X1
340
0
102
{BLKREFS
331
56C
102
}
  0
BLOCK_RECORD
  5
24
330
1
100
AcDbSymbolTableRecord
100
AcDbBlockTableRecord
  2
HBS
340
0
102
{BLKREFS
331
5D1
102
}
  0
BLOCK_RECORD
  5
AAE
330
1
100
AcDbSymbolTableRecord
100
AcDbBlockTableRecord
  2
*D3
340
0
  0
BLOCK_RECORD
  5
ABB
330
1
100
AcDbSymbolTableRecord
100
AcDbBlockTableRecord
  2
*D4
340
0
  0
BLOCK_RECORD
  5
B89
330
1
100
AcDbSymbolTableRecord
100
AcDbBlockTableRecord
  2
*D5
340
0
  0
BLOCK_RECORD
  5
B96
330
1
100
AcDbSymbolTableRecord
100
AcDbBlockTableRecord
  2
*D6
340
0
  0
BLOCK_RECORD
  5
BA3
330
1
100
AcDbSymbolTableRecord
100
AcDbBlockTableRecord
  2
*D7
340
0
  0
BLOCK_RECORD
  5
BB0
330
1
100
AcDbSymbolTableRecord
100
AcDbBlockTableRecord
  2
*D8
340
0
  0
BLOCK_RECORD
  5
BBD
330
1
100
AcDbSymbolTableRecord
100
AcDbBlockTableRecord
  2
*D9
340
0
  0
BLOCK_RECORD
  5
BCA
330
1
100
AcDbSymbolTableRecord
100
AcDbBlockTableRecord
  2
*D10
340
0
  0
BLOCK_RECORD
  5
BD7
330
1
100
AcDbSymbolTableRecord
100
AcDbBlockTableRecord
  2
*D11
340
0
  0
BLOCK_RECORD
  5
BE4
330
1
100
AcDbSymbolTableRecord
100
AcDbBlockTableRecord
  2
*D12
340
0
  0
BLOCK_RECORD
  5
BF1
330
1
100
AcDbSymbolTableRecord
100
AcDbBlockTableRecord
  2
*D13
340
0
  0
BLOCK_RECORD
  5
BFE
330
1
100
AcDbSymbolTableRecord
100
AcDbBlockTableRecord
  2
*D14
340
0
  0
BLOCK_RECORD
  5
C0B
330
1
100
AcDbSymbolTableRecord
100
AcDbBlockTableRecord
  2
*D15
340
0
  0
BLOCK_RECORD
  5
C18
330
1
100
AcDbSymbolTableRecord
100
AcDbBlockTableRecord
  2
*D16
340
0
  0
BLOCK_RECORD
  5
C25
330
1
100
AcDbSymbolTableRecord
100
AcDbBlockTableRecord
  2
*D17
340
0
  0
BLOCK_RECORD
  5
C32
330
1
100
AcDbSymbolTableRecord
100
AcDbBlockTableRecord
  2
*D18
340
0
  0
BLOCK_RECORD
  5
C3F
330
1
100
AcDbSymbolTableRecord
100
AcDbBlockTableRecord
  2
*D19
340
0
  0
BLOCK_RECORD
  5
C56
330
1
100
AcDbSymbolTableRecord
100
AcDbBlockTableRecord
  2
*D20
340
0
  0
BLOCK_RECORD
  5
C63
330
1
100
AcDbSymbolTableRecord
100
AcDbBlockTableRecord
  2
*D21
340
0
  0
BLOCK_RECORD
  5
C70
330
1
100
AcDbSymbolTableRecord
100
AcDbBlockTableRecord
  2
*D22
340
0
  0
BLOCK_RECORD
  5
C7D
330
1
100
AcDbSymbolTableRecord
100
AcDbBlockTableRecord
  2
*D23
340
0
  0
BLOCK_RECORD
  5
C8A
330
1
100
AcDbSymbolTableRecord
100
AcDbBlockTableRecord
  2
*D24
340
0
  0
BLOCK_RECORD
  5
C97
330
1
100
AcDbSymbolTableRecord
100
AcDbBlockTableRecord
  2
*D25
340
0
  0
ENDTAB
  0
ENDSEC
  0
SECTION
  2
BLOCKS
  0
BLOCK
  5
4E
330
1E
100
AcDbEntity
  8
0
100
AcDbBlockBegin
  2
*Model_Space
 70
     0
 10
0.0
 20
0.0
 30
0.0
  3
*Model_Space
  1

  0
ENDBLK
  5
4F
330
1E
100
AcDbEntity
  8
0
100
AcDbBlockEnd
  0
BLOCK
  5
4C
330
1A
100
AcDbEntity
 67
     1
  8
0
100
AcDbBlockBegin
  2
*Paper_Space
 70
     0
 10
0.0
 20
0.0
 30
0.0
  3
*Paper_Space
  1

  0
ENDBLK
  5
4D
330
1A
100
AcDbEntity
 67
     1
  8
0
100
AcDbBlockEnd
  0
BLOCK
  5
50
330
22
100
AcDbEntity
  8
0
100
AcDbBlockBegin
  2
*X0
 70
     1
 10
0.0
 20
0.0
 30
0.0
  3
*X0
  1

  0
LINE
  5
51
330
22
100
AcDbEntity
  8
0
 62
     0
100
AcDbLine
 10
21.20250748454357
 20
28.98068207759559
 30
0.0
 11
21.33650748454357
 21
29.11468207759559
 31
0.0
  0
LINE
  5
52
330
22
100
AcDbEntity
  8
0
 62
     0
100
AcDbLine
 10
21.20250748454357
 20
29.68778885878214
 30
0.0
 11
21.33650748454357
 21
29.82178885878214
 31
0.0
  0
LINE
  5
53
330
22
100
AcDbEntity
  8
0
 62
     0
100
AcDbLine
 10
21.20250748454357
 20
30.39489563996869
 30
0.0
 11
21.33650748454356
 21
30.52889563996869
 31
0.0
  0
LINE
  5
54
330
22
100
AcDbEntity
  8
0
 62
     0
100
AcDbLine
 10
21.20250748454357
 20
31.10200242115523
 30
0.0
 11
21.33650748454356
 21
31.23600242115523
 31
0.0
  0
LINE
  5
55
330
22
100
AcDbEntity
  8
0
 62
     0
100
AcDbLine
 10
21.20250748454357
 20
31.80910920234178
 30
0.0
 11
21.33650748454356
 21
31.94310920234178
 31
0.0
  0
LINE
  5
56
330
22
100
AcDbEntity
  8
0
 62
     0
100
AcDbLine
 10
21.20250748454357
 20
32.51621598352832
 30
0.0
 11
21.33650748454356
 21
32.65021598352833
 31
0.0
  0
LINE
  5
57
330
22
100
AcDbEntity
  8
0
 62
     0
100
AcDbLine
 10
21.20250748454356
 20
33.22332276471487
 30
0.0
 11
21.33650748454356
 21
33.35732276471487
 31
0.0
  0
LINE
  5
58
330
22
100
AcDbEntity
  8
0
 62
     0
100
AcDbLine
 10
21.20250748454356
 20
33.93042954590141
 30
0.0
 11
21.33650748454356
 21
34.06442954590142
 31
0.0
  0
LINE
  5
59
330
22
100
AcDbEntity
  8
0
 62
     0
100
AcDbLine
 10
21.20250748454358
 20
28.27357529640904
 30
0.0
 11
21.33650748454357
 21
28.40757529640905
 31
0.0
  0
LINE
  5
5A
330
22
100
AcDbEntity
  8
0
 62
     0
100
AcDbLine
 10
21.20250748454358
 20
27.5664685152225
 30
0.0
 11
21.33650748454357
 21
27.7004685152225
 31
0.0
  0
LINE
  5
5B
330
22
100
AcDbEntity
  8
0
 62
     0
100
AcDbLine
 10
21.20250748454358
 20
26.85936173403595
 30
0.0
 11
21.33650748454358
 21
26.99336173403596
 31
0.0
  0
LINE
  5
5C
330
22
100
AcDbEntity
  8
0
 62
     0
100
AcDbLine
 10
21.58504145408458
 20
26.53478892239041
 30
0.0
 11
21.71565731269872
 21
26.66540478100456
 31
0.0
  0
LINE
  5
5D
330
22
100
AcDbEntity
  8
0
 62
     0
100
AcDbLine
 10
22.09201927854332
 20
26.33465996566261
 30
0.0
 11
22.22981455154326
 21
26.47245523866255
 31
0.0
  0
LINE
  5
5E
330
22
100
AcDbEntity
  8
0
 62
     0
100
AcDbLine
 10
22.28257981048497
 20
26.52522049760425
 30
0.0
 11
22.38674833064764
 21
26.62938901776692
 31
0.0
  0
LINE
  5
5F
330
22
100
AcDbEntity
  8
0
 62
     0
100
AcDbLine
 10
21.20250748454357
 20
29.06907042524391
 30
0.0
 11
21.33650748454357
 21
29.20307042524391
 31
0.0
  0
LINE
  5
60
330
22
100
AcDbEntity
  8
0
 62
     0
100
AcDbLine
 10
21.20250748454357
 20
29.77617720643046
 30
0.0
 11
21.33650748454357
 21
29.91017720643046
 31
0.0
  0
LINE
  5
61
330
22
100
AcDbEntity
  8
0
 62
     0
100
AcDbLine
 10
21.20250748454357
 20
30.483283987617
 30
0.0
 11
21.33650748454356
 21
30.617283987617
 31
0.0
  0
LINE
  5
62
330
22
100
AcDbEntity
  8
0
 62
     0
100
AcDbLine
 10
21.20250748454357
 20
31.19039076880355
 30
0.0
 11
21.33650748454356
 21
31.32439076880355
 31
0.0
  0
LINE
  5
63
330
22
100
AcDbEntity
  8
0
 62
     0
100
AcDbLine
 10
21.20250748454357
 20
31.89749754999009
 30
0.0
 11
21.33650748454356
 21
32.0314975499901
 31
0.0
  0
LINE
  5
64
330
22
100
AcDbEntity
  8
0
 62
     0
100
AcDbLine
 10
21.20250748454357
 20
32.60460433117664
 30
0.0
 11
21.33650748454356
 21
32.73860433117664
 31
0.0
  0
LINE
  5
65
330
22
100
AcDbEntity
  8
0
 62
     0
100
AcDbLine
 10
21.20250748454356
 20
33.31171111236319
 30
0.0
 11
21.33650748454356
 21
33.44571111236319
 31
0.0
  0
LINE
  5
66
330
22
100
AcDbEntity
  8
0
 62
     0
100
AcDbLine
 10
21.20250748454356
 20
34.01881789354973
 30
0.0
 11
21.28249774064819
 21
34.09880814965436
 31
0.0
  0
LINE
  5
67
330
22
100
AcDbEntity
  8
0
 62
     0
100
AcDbLine
 10
21.20250748454358
 20
28.36196364405736
 30
0.0
 11
21.33650748454357
 21
28.49596364405737
 31
0.0
  0
LINE
  5
68
330
22
100
AcDbEntity
  8
0
 62
     0
100
AcDbLine
 10
21.20250748454358
 20
27.65485686287082
 30
0.0
 11
21.33650748454357
 21
27.78885686287082
 31
0.0
  0
LINE
  5
69
330
22
100
AcDbEntity
  8
0
 62
     0
100
AcDbLine
 10
21.20250748454358
 20
26.94775008168427
 30
0.0
 11
21.33650748454358
 21
27.08175008168427
 31
0.0
  0
LINE
  5
6A
330
22
100
AcDbEntity
  8
0
 62
     0
100
AcDbLine
 10
21.50115507684097
 20
26.53929089279512
 30
0.0
 11
21.63177093545511
 21
26.66990675140926
 31
0.0
  0
LINE
  5
6B
330
22
100
AcDbEntity
  8
0
 62
     0
100
AcDbLine
 10
22.09201927854332
 20
26.42304831331093
 30
0.0
 11
22.30286195340402
 21
26.63389098817163
 31
0.0
  0
LINE
  5
6C
330
22
100
AcDbEntity
  8
0
 62
     0
100
AcDbLine
 10
21.20250748454357
 20
29.15745877289223
 30
0.0
 11
21.33650748454357
 21
29.29145877289223
 31
0.0
  0
LINE
  5
6D
330
22
100
AcDbEntity
  8
0
 62
     0
100
AcDbLine
 10
21.20250748454357
 20
29.86456555407878
 30
0.0
 11
21.33650748454357
 21
29.99856555407878
 31
0.0
  0
LINE
  5
6E
330
22
100
AcDbEntity
  8
0
 62
     0
100
AcDbLine
 10
21.20250748454357
 20
30.57167233526532
 30
0.0
 11
21.33650748454356
 21
30.70567233526532
 31
0.0
  0
LINE
  5
6F
330
22
100
AcDbEntity
  8
0
 62
     0
100
AcDbLine
 10
21.20250748454357
 20
31.27877911645187
 30
0.0
 11
21.33650748454356
 21
31.41277911645187
 31
0.0
  0
LINE
  5
70
330
22
100
AcDbEntity
  8
0
 62
     0
100
AcDbLine
 10
21.20250748454357
 20
31.98588589763842
 30
0.0
 11
21.33650748454356
 21
32.11988589763842
 31
0.0
  0
LINE
  5
71
330
22
100
AcDbEntity
  8
0
 62
     0
100
AcDbLine
 10
21.20250748454356
 20
32.69299267882496
 30
0.0
 11
21.33650748454356
 21
32.82699267882496
 31
0.0
  0
LINE
  5
72
330
22
100
AcDbEntity
  8
0
 62
     0
100
AcDbLine
 10
21.20250748454356
 20
33.40009946001151
 30
0.0
 11
21.33650748454356
 21
33.53409946001151
 31
0.0
  0
LINE
  5
73
330
22
100
AcDbEntity
  8
0
 62
     0
100
AcDbLine
 10
21.20250748454358
 20
28.45035199170569
 30
0.0
 11
21.33650748454357
 21
28.58435199170568
 31
0.0
  0
LINE
  5
74
330
22
100
AcDbEntity
  8
0
 62
     0
100
AcDbLine
 10
21.20250748454358
 20
27.74324521051914
 30
0.0
 11
21.33650748454357
 21
27.87724521051914
 31
0.0
  0
LINE
  5
75
330
22
100
AcDbEntity
  8
0
 62
     0
100
AcDbLine
 10
21.20250748454358
 20
27.03613842933259
 30
0.0
 11
21.33650748454357
 21
27.17013842933259
 31
0.0
  0
LINE
  5
76
330
22
100
AcDbEntity
  8
0
 62
     0
100
AcDbLine
 10
21.41726869959736
 20
26.54379286319983
 30
0.0
 11
21.5478845582115
 21
26.67440872181396
 31
0.0
  0
LINE
  5
77
330
22
100
AcDbEntity
  8
0
 62
     0
100
AcDbLine
 10
22.07433487392735
 20
26.49375225634327
 30
0.0
 11
22.21897557616041
 21
26.63839295857633
 31
0.0
  0
LINE
  5
78
330
22
100
AcDbEntity
  8
0
 62
     0
100
AcDbLine
 10
21.20250748454357
 20
29.42262381583718
 30
0.0
 11
21.33650748454357
 21
29.55662381583719
 31
0.0
  0
LINE
  5
79
330
22
100
AcDbEntity
  8
0
 62
     0
100
AcDbLine
 10
21.20250748454357
 20
30.12973059702373
 30
0.0
 11
21.33650748454356
 21
30.26373059702373
 31
0.0
  0
LINE
  5
7A
330
22
100
AcDbEntity
  8
0
 62
     0
100
AcDbLine
 10
21.20250748454357
 20
30.83683737821028
 30
0.0
 11
21.33650748454356
 21
30.97083737821028
 31
0.0
  0
LINE
  5
7B
330
22
100
AcDbEntity
  8
0
 62
     0
100
AcDbLine
 10
21.20250748454357
 20
31.54394415939682
 30
0.0
 11
21.33650748454356
 21
31.67794415939682
 31
0.0
  0
LINE
  5
7C
330
22
100
AcDbEntity
  8
0
 62
     0
100
AcDbLine
 10
21.20250748454357
 20
32.25105094058337
 30
0.0
 11
21.33650748454356
 21
32.38505094058337
 31
0.0
  0
LINE
  5
7D
330
22
100
AcDbEntity
  8
0
 62
     0
100
AcDbLine
 10
21.20250748454356
 20
32.95815772176991
 30
0.0
 11
21.33650748454356
 21
33.09215772176991
 31
0.0
  0
LINE
  5
7E
330
22
100
AcDbEntity
  8
0
 62
     0
100
AcDbLine
 10
21.20250748454356
 20
33.66526450295646
 30
0.0
 11
21.33650748454356
 21
33.79926450295646
 31
0.0
  0
LINE
  5
7F
330
22
100
AcDbEntity
  8
0
 62
     0
100
AcDbLine
 10
21.20250748454358
 20
28.71551703465064
 30
0.0
 11
21.33650748454357
 21
28.84951703465064
 31
0.0
  0
LINE
  5
80
330
22
100
AcDbEntity
  8
0
 62
     0
100
AcDbLine
 10
21.20250748454358
 20
28.00841025346409
 30
0.0
 11
21.33650748454357
 21
28.14241025346409
 31
0.0
  0
LINE
  5
81
330
22
100
AcDbEntity
  8
0
 62
     0
100
AcDbLine
 10
21.20250748454358
 20
27.30130347227754
 30
0.0
 11
21.33650748454357
 21
27.43530347227755
 31
0.0
  0
LINE
  5
82
330
22
100
AcDbEntity
  8
0
 62
     0
100
AcDbLine
 10
21.23266561697789
 20
26.62435482352532
 30
0.0
 11
21.33650748454358
 21
26.728196691091
 31
0.0
  0
LINE
  5
83
330
22
100
AcDbEntity
  8
0
 62
     0
100
AcDbLine
 10
21.83670058581543
 20
26.52128301117631
 30
0.0
 11
21.96731644442956
 21
26.65189886979044
 31
0.0
  0
LINE
  5
84
330
22
100
AcDbEntity
  8
0
 62
     0
100
AcDbLine
 10
22.2882578482256
 20
26.26573349239993
 30
0.0
 11
22.38729486354345
 21
26.36477050771778
 31
0.0
  0
ENDBLK
  5
85
330
22
100
AcDbEntity
  8
0
100
AcDbBlockEnd
  0
BLOCK
  5
86
330
23
100
AcDbEntity
  8
0
100
AcDbBlockBegin
  2
*X1
 70
     1
 10
0.0
 20
0.0
 30
0.0
  3
*X1
  1

  0
LINE
  5
87
330
23
100
AcDbEntity
  8
0
 62
     0
100
AcDbLine
 10
27.57746013454391
 20
26.86976201682024
 30
0.0
 11
27.5269140017098
 21
26.92030814965434
 31
0.0
  0
LINE
  5
88
330
23
100
AcDbEntity
  8
0
 62
     0
100
AcDbLine
 10
27.10500015017593
 20
27.34222200118821
 30
0.0
 11
26.98340501754408
 21
27.46381713382007
 31
0.0
  0
LINE
  5
89
330
23
100
AcDbEntity
  8
0
 62
     0
100
AcDbLine
 10
27.33691400170981
 20
27.11030814965435
 30
0.0
 11
27.1517919206734
 21
27.29543023069075
 31
0.0
  0
LINE
  5
8A
330
23
100
AcDbEntity
  8
0
 62
     0
100
AcDbLine
 10
27.16440921159794
 20
26.57570615857967
 30
0.0
 11
27.0326075513995
 21
26.7075078187781
 31
0.0
  0
LINE
  5
8B
330
23
100
AcDbEntity
  8
0
 62
     0
100
AcDbLine
 10
26.46900128348105
 20
26.56400730551
 30
0.0
 11
26.33719962328262
 21
26.69580896570844
 31
0.0
  0
LINE
  5
8C
330
23
100
AcDbEntity
  8
0
 62
     0
100
AcDbLine
 10
25.77359335536417
 20
26.55230845244034
 30
0.0
 11
25.64179169516573
 21
26.68411011263877
 31
0.0
  0
LINE
  5
8D
330
23
100
AcDbEntity
  8
0
 62
     0
100
AcDbLine
 10
25.07818542724728
 20
26.54060959937067
 30
0.0
 11
24.94638376704885
 21
26.67241125956911
 31
0.0
  0
LINE
  5
8E
330
23
100
AcDbEntity
  8
0
 62
     0
100
AcDbLine
 10
24.38277749913039
 20
26.52891074630101
 30
0.0
 11
24.25097583893196
 21
26.66071240649944
 31
0.0
  0
LINE
  5
8F
330
23
100
AcDbEntity
  8
0
 62
     0
100
AcDbLine
 10
23.68736957101351
 20
26.51721189323135
 30
0.0
 11
23.55556791081508
 21
26.64901355342978
 31
0.0
  0
LINE
  5
90
330
23
100
AcDbEntity
  8
0
 62
     0
100
AcDbLine
 10
22.99196164289663
 20
26.50551304016169
 30
0.0
 11
22.86015998269819
 21
26.63731470036012
 31
0.0
  0
LINE
  5
91
330
23
100
AcDbEntity
  8
0
 62
     0
100
AcDbLine
 10
22.52213108510884
 20
26.26823681676292
 30
0.0
 11
22.29773388388268
 21
26.49263401798909
 31
0.0
  0
LINE
  5
92
330
23
100
AcDbEntity
  8
0
 62
     0
100
AcDbLine
 10
27.57746013454391
 20
27.57686879800679
 30
0.0
 11
27.44214517354353
 21
27.71218375900716
 31
0.0
  0
LINE
  5
93
330
23
100
AcDbEntity
  8
0
 62
     0
100
AcDbLine
 10
27.36102078289635
 20
27.79330814965435
 30
0.0
 11
27.10005732011534
 21
28.05427161243535
 31
0.0
  0
LINE
  5
94
330
23
100
AcDbEntity
  8
0
 62
     0
100
AcDbLine
 10
27.49740501754413
 20
28.36403069619311
 30
0.0
 11
27.25962756408289
 21
28.60180814965435
 31
0.0
  0
LINE
  5
95
330
23
100
AcDbEntity
  8
0
 62
     0
100
AcDbLine
 10
27.09362756408289
 20
28.76780814965435
 30
0.0
 11
27.08740501754408
 21
28.77403069619316
 31
0.0
  0
LINE
  5
96
330
23
100
AcDbEntity
  8
0
 62
     0
100
AcDbLine
 10
27.49740501754412
 20
29.07113747737967
 30
0.0
 11
27.36340501754408
 21
29.2051374773797
 31
0.0
  0
LINE
  5
97
330
23
100
AcDbEntity
  8
0
 62
     0
100
AcDbLine
 10
27.12750982788897
 20
29.44103266703482
 30
0.0
 11
27.08740501754407
 21
29.48113747737972
 31
0.0
  0
LINE
  5
98
330
23
100
AcDbEntity
  8
0
 62
     0
100
AcDbLine
 10
27.57746013454393
 20
29.69818914156642
 30
0.0
 11
27.36340501754408
 21
29.91224425856625
 31
0.0
  0
LINE
  5
99
330
23
100
AcDbEntity
  8
0
 62
     0
100
AcDbLine
 10
27.4974050175441
 20
30.48535103975279
 30
0.0
 11
27.40894790764253
 21
30.57380814965435
 31
0.0
  0
LINE
  5
9A
330
23
100
AcDbEntity
  8
0
 62
     0
100
AcDbLine
 10
27.24294790764254
 20
30.73980814965435
 30
0.0
 11
27.09875025375063
 21
30.88400580354626
 31
0.0
  0
LINE
  5
9B
330
23
100
AcDbEntity
  8
0
 62
     0
100
AcDbLine
 10
27.4974050175441
 20
31.19245782093934
 30
0.0
 11
27.36340501754407
 21
31.32645782093936
 31
0.0
  0
LINE
  5
9C
330
23
100
AcDbEntity
  8
0
 62
     0
100
AcDbLine
 10
27.28222431268162
 20
31.40763852580181
 30
0.0
 11
27.13005468882908
 21
31.55980814965435
 31
0.0
  0
LINE
  5
9D
330
23
100
AcDbEntity
  8
0
 62
     0
100
AcDbLine
 10
27.49740501754409
 20
31.89956460212589
 30
0.0
 11
27.36340501754408
 21
32.0335646021259
 31
0.0
  0
LINE
  5
9E
330
23
100
AcDbEntity
  8
0
 62
     0
100
AcDbLine
 10
27.57746013454392
 20
32.5266162663126
 30
0.0
 11
27.41242196795218
 21
32.69165443290435
 31
0.0
  0
LINE
  5
9F
330
23
100
AcDbEntity
  8
0
 62
     0
100
AcDbLine
 10
27.39226825120218
 20
32.71180814965435
 30
0.0
 11
27.24151786316391
 21
32.86255853769261
 31
0.0
  0
LINE
  5
A0
330
23
100
AcDbEntity
  8
0
 62
     0
100
AcDbLine
 10
27.49740501754408
 20
33.31377816449899
 30
0.0
 11
27.38437503238873
 21
33.42680814965435
 31
0.0
  0
LINE
  5
A1
330
23
100
AcDbEntity
  8
0
 62
     0
100
AcDbLine
 10
27.37240501754409
 20
33.43877816449899
 30
0.0
 11
27.22540501754407
 21
33.585778164499
 31
0.0
  0
LINE
  5
A2
330
23
100
AcDbEntity
  8
0
 62
     0
100
AcDbLine
 10
27.5774601345439
 20
27.48848045035847
 30
0.0
 11
27.44214517354354
 21
27.62379541135884
 31
0.0
  0
LINE
  5
A3
330
23
100
AcDbEntity
  8
0
 62
     0
100
AcDbLine
 10
27.27263243524803
 20
27.79330814965435
 30
0.0
 11
27.01380971894257
 21
28.0521308659598
 31
0.0
  0
LINE
  5
A4
330
23
100
AcDbEntity
  8
0
 62
     0
100
AcDbLine
 10
27.57746013454391
 20
26.78137366917192
 30
0.0
 11
27.43852565406148
 21
26.92030814965434
 31
0.0
  0
LINE
  5
A5
330
23
100
AcDbEntity
  8
0
 62
     0
100
AcDbLine
 10
27.01436208049978
 20
27.34447172321604
 30
0.0
 11
26.98340501754408
 21
27.37542878617175
 31
0.0
  0
LINE
  5
A6
330
23
100
AcDbEntity
  8
0
 62
     0
100
AcDbLine
 10
27.24852565406149
 20
27.11030814965435
 30
0.0
 11
27.08740501754408
 21
27.27142878617176
 31
0.0
  0
LINE
  5
A7
330
23
100
AcDbEntity
  8
0
 62
     0
100
AcDbLine
 10
27.07748322058332
 20
26.57424380194596
 30
0.0
 11
26.94568156038489
 21
26.70604546214439
 31
0.0
  0
LINE
  5
A8
330
23
100
AcDbEntity
  8
0
 62
     0
100
AcDbLine
 10
26.38207529246644
 20
26.5625449488763
 30
0.0
 11
26.250273632268
 21
26.69434660907473
 31
0.0
  0
LINE
  5
A9
330
23
100
AcDbEntity
  8
0
 62
     0
100
AcDbLine
 10
25.68666736434956
 20
26.55084609580663
 30
0.0
 11
25.55486570415112
 21
26.68264775600507
 31
0.0
  0
LINE
  5
AA
330
23
100
AcDbEntity
  8
0
 62
     0
100
AcDbLine
 10
24.99125943623267
 20
26.53914724273697
 30
0.0
 11
24.85945777603424
 21
26.6709489029354
 31
0.0
  0
LINE
  5
AB
330
23
100
AcDbEntity
  8
0
 62
     0
100
AcDbLine
 10
24.29585150811579
 20
26.5274483896673
 30
0.0
 11
24.16404984791735
 21
26.65925004986574
 31
0.0
  0
LINE
  5
AC
330
23
100
AcDbEntity
  8
0
 62
     0
100
AcDbLine
 10
23.6004435799989
 20
26.51574953659764
 30
0.0
 11
23.46864191980047
 21
26.64755119679607
 31
0.0
  0
LINE
  5
AD
330
23
100
AcDbEntity
  8
0
 62
     0
100
AcDbLine
 10
22.90503565188202
 20
26.50405068352798
 30
0.0
 11
22.77323399168358
 21
26.63585234372641
 31
0.0
  0
LINE
  5
AE
330
23
100
AcDbEntity
  8
0
 62
     0
100
AcDbLine
 10
22.4395195020906
 20
26.26246005213285
 30
0.0
 11
22.38729486354345
 21
26.31468469067999
 31
0.0
  0
LINE
  5
AF
330
23
100
AcDbEntity
  8
0
 62
     0
100
AcDbLine
 10
22.29866979119937
 20
26.40330976302408
 30
0.0
 11
22.28529647691317
 21
26.41668307731027
 31
0.0
  0
LINE
  5
B0
330
23
100
AcDbEntity
  8
0
 62
     0
100
AcDbLine
 10
27.49740501754413
 20
28.27564234854479
 30
0.0
 11
27.36340501754408
 21
28.40964234854483
 31
0.0
  0
LINE
  5
B1
330
23
100
AcDbEntity
  8
0
 62
     0
100
AcDbLine
 10
27.3248966158522
 20
28.44815075023672
 30
0.0
 11
27.17123921643457
 21
28.60180814965435
 31
0.0
  0
LINE
  5
B2
330
23
100
AcDbEntity
  8
0
 62
     0
100
AcDbLine
 10
27.49740501754412
 20
28.98274912973135
 30
0.0
 11
27.36340501754408
 21
29.11674912973138
 31
0.0
  0
LINE
  5
B3
330
23
100
AcDbEntity
  8
0
 62
     0
100
AcDbLine
 10
27.57746013454392
 20
29.6098007939181
 30
0.0
 11
27.28131486303878
 21
29.90594606542324
 31
0.0
  0
LINE
  5
B4
330
23
100
AcDbEntity
  8
0
 62
     0
100
AcDbLine
 10
27.4974050175441
 20
30.39696269210446
 30
0.0
 11
27.32055955999422
 21
30.57380814965435
 31
0.0
  0
LINE
  5
B5
330
23
100
AcDbEntity
  8
0
 62
     0
100
AcDbLine
 10
27.15455955999422
 20
30.73980814965435
 30
0.0
 11
27.08740501754408
 21
30.80696269210449
 31
0.0
  0
LINE
  5
B6
330
23
100
AcDbEntity
  8
0
 62
     0
100
AcDbLine
 10
27.4974050175441
 20
31.10406947329102
 30
0.0
 11
27.36340501754408
 21
31.23806947329104
 31
0.0
  0
LINE
  5
B7
330
23
100
AcDbEntity
  8
0
 62
     0
100
AcDbLine
 10
27.19064296922844
 20
31.41083152160668
 30
0.0
 11
27.08740501754407
 21
31.51406947329104
 31
0.0
  0
LINE
  5
B8
330
23
100
AcDbEntity
  8
0
 62
     0
100
AcDbLine
 10
27.57746013454393
 20
31.73112113747773
 30
0.0
 11
27.51577312236731
 21
31.79280814965435
 31
0.0
  0
LINE
  5
B9
330
23
100
AcDbEntity
  8
0
 62
     0
100
AcDbLine
 10
27.49740501754409
 20
31.81117625447758
 30
0.0
 11
27.36340501754408
 21
31.94517625447758
 31
0.0
  0
LINE
  5
BA
330
23
100
AcDbEntity
  8
0
 62
     0
100
AcDbLine
 10
27.53687990355385
 20
32.47880814965436
 30
0.0
 11
27.41242196795218
 21
32.60326608525603
 31
0.0
  0
LINE
  5
BB
330
23
100
AcDbEntity
  8
0
 62
     0
100
AcDbLine
 10
27.30387990355386
 20
32.71180814965435
 30
0.0
 11
27.15610736400766
 21
32.85958068920056
 31
0.0
  0
LINE
  5
BC
330
23
100
AcDbEntity
  8
0
 62
     0
100
AcDbLine
 10
27.49740501754408
 20
33.22538981685068
 30
0.0
 11
27.22540501754407
 21
33.49738981685068
 31
0.0
  0
LINE
  5
BD
330
23
100
AcDbEntity
  8
0
 62
     0
100
AcDbLine
 10
27.49740501754408
 20
33.93249659803722
 30
0.0
 11
27.44009346592696
 21
33.98980814965435
 31
0.0
  0
LINE
  5
BE
330
23
100
AcDbEntity
  8
0
 62
     0
100
AcDbLine
 10
27.37240501754409
 20
34.05749659803722
 30
0.0
 11
27.33109346592694
 21
34.09880814965436
 31
0.0
  0
LINE
  5
BF
330
23
100
AcDbEntity
  8
0
 62
     0
100
AcDbLine
 10
27.56674408759971
 20
27.41080814965434
 30
0.0
 11
27.37424408759971
 21
27.60330814965435
 31
0.0
  0
LINE
  5
C0
330
23
100
AcDbEntity
  8
0
 62
     0
100
AcDbLine
 10
27.18424408759971
 20
27.79330814965435
 30
0.0
 11
26.98340501754408
 21
27.99414721970998
 31
0.0
  0
LINE
  5
C1
330
23
100
AcDbEntity
  8
0
 62
     0
100
AcDbLine
 10
27.54263730641317
 20
26.72780814965435
 30
0.0
 11
27.35013730641317
 21
26.92030814965434
 31
0.0
  0
LINE
  5
C2
330
23
100
AcDbEntity
  8
0
 62
     0
100
AcDbLine
 10
27.20171997854448
 20
27.06872547752303
 30
0.0
 11
27.08740501754408
 21
27.18304043852343
 31
0.0
  0
LINE
  5
C3
330
23
100
AcDbEntity
  8
0
 62
     0
100
AcDbLine
 10
26.99055722956872
 20
26.57278144531225
 30
0.0
 11
26.85875556937028
 21
26.70458310551068
 31
0.0
  0
LINE
  5
C4
330
23
100
AcDbEntity
  8
0
 62
     0
100
AcDbLine
 10
26.29514930145183
 20
26.56108259224259
 30
0.0
 11
26.1633476412534
 21
26.69288425244102
 31
0.0
  0
LINE
  5
C5
330
23
100
AcDbEntity
  8
0
 62
     0
100
AcDbLine
 10
25.59974137333494
 20
26.54938373917292
 30
0.0
 11
25.46793971313651
 21
26.68118539937136
 31
0.0
  0
LINE
  5
C6
330
23
100
AcDbEntity
  8
0
 62
     0
100
AcDbLine
 10
24.90433344521806
 20
26.53768488610326
 30
0.0
 11
24.77253178501963
 21
26.6694865463017
 31
0.0
  0
LINE
  5
C7
330
23
100
AcDbEntity
  8
0
 62
     0
100
AcDbLine
 10
24.20892551710117
 20
26.5259860330336
 30
0.0
 11
24.07712385690274
 21
26.65778769323203
 31
0.0
  0
LINE
  5
C8
330
23
100
AcDbEntity
  8
0
 62
     0
100
AcDbLine
 10
23.51351758898429
 20
26.51428717996394
 30
0.0
 11
23.38171592878585
 21
26.64608884016237
 31
0.0
  0
LINE
  5
C9
330
23
100
AcDbEntity
  8
0
 62
     0
100
AcDbLine
 10
22.8181096608674
 20
26.50258832689427
 30
0.0
 11
22.68630800066897
 21
26.63438998709271
 31
0.0
  0
LINE
  5
CA
330
23
100
AcDbEntity
  8
0
 62
     0
100
AcDbLine
 10
27.49740501754413
 20
28.18725400089647
 30
0.0
 11
27.36340501754408
 21
28.32125400089651
 31
0.0
  0
LINE
  5
CB
330
23
100
AcDbEntity
  8
0
 62
     0
100
AcDbLine
 10
27.23331527239901
 20
28.45134374604159
 30
0.0
 11
27.08740501754408
 21
28.59725400089653
 31
0.0
  0
LINE
  5
CC
330
23
100
AcDbEntity
  8
0
 62
     0
100
AcDbLine
 10
27.57746013454394
 20
28.81430566508322
 30
0.0
 11
27.5569576499728
 21
28.83480814965436
 31
0.0
  0
LINE
  5
CD
330
23
100
AcDbEntity
  8
0
 62
     0
100
AcDbLine
 10
27.49740501754412
 20
28.89436078208303
 30
0.0
 11
27.36340501754408
 21
29.02836078208307
 31
0.0
  0
LINE
  5
CE
330
23
100
AcDbEntity
  8
0
 62
     0
100
AcDbLine
 10
27.57746013454392
 20
29.52141244626978
 30
0.0
 11
27.41242196795218
 21
29.68645061286152
 31
0.0
  0
LINE
  5
CF
330
23
100
AcDbEntity
  8
0
 62
     0
100
AcDbLine
 10
27.34506443115935
 20
29.75380814965435
 30
0.0
 11
27.19590436388252
 21
29.90296821693118
 31
0.0
  0
LINE
  5
D0
330
23
100
AcDbEntity
  8
0
 62
     0
100
AcDbLine
 10
27.4974050175441
 20
30.30857434445614
 30
0.0
 11
27.2321712123459
 21
30.57380814965435
 31
0.0
  0
LINE
  5
D1
330
23
100
AcDbEntity
  8
0
 62
     0
100
AcDbLine
 10
27.4974050175441
 20
31.0156811256427
 30
0.0
 11
27.36340501754408
 21
31.14968112564272
 31
0.0
  0
LINE
  5
D2
330
23
100
AcDbEntity
  8
0
 62
     0
100
AcDbLine
 10
27.09569887703201
 20
31.41738726615479
 30
0.0
 11
27.09103571788913
 21
31.42205042529766
 31
0.0
  0
LINE
  5
D3
330
23
100
AcDbEntity
  8
0
 62
     0
100
AcDbLine
 10
27.57746013454393
 20
31.64273278982942
 30
0.0
 11
27.34019402894513
 21
31.87999889542822
 31
0.0
  0
LINE
  5
D4
330
23
100
AcDbEntity
  8
0
 62
     0
100
AcDbLine
 10
27.49740501754408
 20
32.42989468801581
 30
0.0
 11
27.38149155590554
 21
32.54580814965435
 31
0.0
  0
LINE
  5
D5
330
23
100
AcDbEntity
  8
0
 62
     0
100
AcDbLine
 10
27.21549155590554
 20
32.71180814965435
 30
0.0
 11
27.08747434682022
 21
32.83982535873967
 31
0.0
  0
LINE
  5
D6
330
23
100
AcDbEntity
  8
0
 62
     0
100
AcDbLine
 10
27.49740501754408
 20
33.13700146920236
 30
0.0
 11
27.36340501754408
 21
33.27100146920236
 31
0.0
  0
LINE
  5
D7
330
23
100
AcDbEntity
  8
0
 62
     0
100
AcDbLine
 10
27.32299989709211
 20
33.31140658965433
 30
0.0
 11
27.22540501754407
 21
33.40900146920236
 31
0.0
  0
LINE
  5
D8
330
23
100
AcDbEntity
  8
0
 62
     0
100
AcDbLine
 10
27.41520511827864
 20
33.92630814965434
 30
0.0
 11
27.24270511827862
 21
34.09880814965436
 31
0.0
  0
LINE
  5
D9
330
23
100
AcDbEntity
  8
0
 62
     0
100
AcDbLine
 10
27.57746013454391
 20
27.13492705976519
 30
0.0
 11
27.10907904465475
 21
27.60330814965436
 31
0.0
  0
LINE
  5
DA
330
23
100
AcDbEntity
  8
0
 62
     0
100
AcDbLine
 10
27.42518718464177
 20
26.58009322848079
 30
0.0
 11
27.29338552444333
 21
26.71189488867922
 31
0.0
  0
LINE
  5
DB
330
23
100
AcDbEntity
  8
0
 62
     0
100
AcDbLine
 10
27.27436767370293
 20
26.73091273941962
 30
0.0
 11
27.08740501754408
 21
26.91787539557848
 31
0.0
  0
LINE
  5
DC
330
23
100
AcDbEntity
  8
0
 62
     0
100
AcDbLine
 10
26.72977925652488
 20
26.56839437541112
 30
0.0
 11
26.59797759632645
 21
26.70019603560956
 31
0.0
  0
LINE
  5
DD
330
23
100
AcDbEntity
  8
0
 62
     0
100
AcDbLine
 10
26.034371328408
 20
26.55669552234146
 30
0.0
 11
25.90256966820956
 21
26.6884971825399
 31
0.0
  0
LINE
  5
DE
330
23
100
AcDbEntity
  8
0
 62
     0
100
AcDbLine
 10
25.33896340029111
 20
26.5449966692718
 30
0.0
 11
25.20716174009268
 21
26.67679832947023
 31
0.0
  0
LINE
  5
DF
330
23
100
AcDbEntity
  8
0
 62
     0
100
AcDbLine
 10
24.64355547217423
 20
26.53329781620214
 30
0.0
 11
24.51175381197579
 21
26.66509947640057
 31
0.0
  0
LINE
  5
E0
330
23
100
AcDbEntity
  8
0
 62
     0
100
AcDbLine
 10
23.94814754405734
 20
26.52159896313247
 30
0.0
 11
23.81634588385891
 21
26.65340062333091
 31
0.0
  0
LINE
  5
E1
330
23
100
AcDbEntity
  8
0
 62
     0
100
AcDbLine
 10
23.25273961594046
 20
26.50990011006281
 30
0.0
 11
23.12093795574202
 21
26.64170177026124
 31
0.0
  0
LINE
  5
E2
330
23
100
AcDbEntity
  8
0
 62
     0
100
AcDbLine
 10
22.68257044854356
 20
26.37296249627316
 30
0.0
 11
22.42553002762514
 21
26.63000291719158
 31
0.0
  0
LINE
  5
E3
330
23
100
AcDbEntity
  8
0
 62
     0
100
AcDbLine
 10
27.57746013454391
 20
27.84203384095174
 30
0.0
 11
27.35880012363364
 21
28.06069385186201
 31
0.0
  0
LINE
  5
E4
330
23
100
AcDbEntity
  8
0
 62
     0
100
AcDbLine
 10
27.57746013454392
 20
28.54914062213827
 30
0.0
 11
27.41242196795218
 21
28.71417878873002
 31
0.0
  0
LINE
  5
E5
330
23
100
AcDbEntity
  8
0
 62
     0
100
AcDbLine
 10
27.35879260702785
 20
28.76780814965435
 30
0.0
 11
27.20917003050747
 21
28.91743072617472
 31
0.0
  0
LINE
  5
E6
330
23
100
AcDbEntity
  8
0
 62
     0
100
AcDbLine
 10
27.49740501754412
 20
29.33630252032463
 30
0.0
 11
27.24589938821439
 21
29.58780814965435
 31
0.0
  0
LINE
  5
E7
330
23
100
AcDbEntity
  8
0
 62
     0
100
AcDbLine
 10
27.49740501754411
 20
30.04340930151118
 30
0.0
 11
27.36340501754408
 21
30.17740930151122
 31
0.0
  0
LINE
  5
E8
330
23
100
AcDbEntity
  8
0
 62
     0
100
AcDbLine
 10
27.11328572683211
 20
30.42752859222319
 30
0.0
 11
27.08740501754407
 21
30.45340930151122
 31
0.0
  0
LINE
  5
E9
330
23
100
AcDbEntity
  8
0
 62
     0
100
AcDbLine
 10
27.57746013454393
 20
30.67046096569791
 30
0.0
 11
27.35345969557008
 21
30.89446140467176
 31
0.0
  0
LINE
  5
EA
330
23
100
AcDbEntity
  8
0
 62
     0
100
AcDbLine
 10
27.49740501754409
 20
31.4576228638843
 30
0.0
 11
27.39521973177403
 21
31.55980814965435
 31
0.0
  0
LINE
  5
EB
330
23
100
AcDbEntity
  8
0
 62
     0
100
AcDbLine
 10
27.22921973177404
 20
31.72580814965435
 30
0.0
 11
27.09121434678068
 21
31.86381353464771
 31
0.0
  0
LINE
  5
EC
330
23
100
AcDbEntity
  8
0
 62
     0
100
AcDbLine
 10
27.49740501754409
 20
32.16472964507085
 30
0.0
 11
27.36340501754407
 21
32.29872964507086
 31
0.0
  0
LINE
  5
ED
330
23
100
AcDbEntity
  8
0
 62
     0
100
AcDbLine
 10
27.26800021162476
 20
32.39413445099017
 30
0.0
 11
27.11632651296058
 21
32.54580814965435
 31
0.0
  0
LINE
  5
EE
330
23
100
AcDbEntity
  8
0
 62
     0
100
AcDbLine
 10
27.49740501754408
 20
32.8718364262574
 30
0.0
 11
27.36340501754408
 21
33.0058364262574
 31
0.0
  0
LINE
  5
EF
330
23
100
AcDbEntity
  8
0
 62
     0
100
AcDbLine
 10
27.43154007533368
 20
33.64480814965435
 30
0.0
 11
27.22540501754408
 21
33.85094320744395
 31
0.0
  0
ENDBLK
  5
F0
330
23
100
AcDbEntity
  8
0
100
AcDbBlockEnd
  0
BLOCK
  5
F1
330
24
100
AcDbEntity
  8
0
100
AcDbBlockBegin
  2
HBS
 70
     0
 10
0.0
 20
0.0
 30
0.0
  3
HBS
  1

  0
LINE
  5
F2
330
24
100
AcDbEntity
  8
TITLE
100
AcDbLine
 10
0.0619999999999976
 20
9.64
 30
0.0
 11
15.43799999999999
 21
9.640000000000004
 31
0.0
  0
LWPOLYLINE
  5
F3
330
24
100
AcDbEntity
  8
TITLE
100
AcDbPolyline
 90
        4
 70
     1
 43
0.0
 10
15.5
 20
10.11999999999999
 10
15.49999999999999
 20
0.0
 10
0.0
 20
0.0
 10
0.0
 20
10.11999999999999
  0
LWPOLYLINE
  5
F9
330
24
100
AcDbEntity
  8
TITLE
100
AcDbPolyline
 90
        4
 70
     1
 43
0.0
 10
15.43799999999999
 20
10.058
 10
15.43799999999999
 20
0.0620000000000012
 10
0.0620000000000012
 20
0.0620000000000012
 10
0.0620000000000012
 20
10.058
  0
TEXT
  5
FF
330
24
100
AcDbEntity
  8
TEXT
100
AcDbText
 10
0.2078333333333345
 20
9.680079195640079
 30
0.0
 40
0.125
  1
NAME
  7
TXT
 72
     1
 11
0.4370000000000012
 21
9.680079195640079
 31
0.0
100
AcDbText
  0
TEXT
  5
101
330
24
100
AcDbEntity
  8
TEXT
100
AcDbText
 10
0.2078333333333345
 20
9.888412528973411
 30
0.0
 40
0.125
  1
PART
  7
TXT
 72
     1
 11
0.4370000000000012
 21
9.888412528973411
 31
0.0
100
AcDbText
  0
LINE
  5
102
330
24
100
AcDbEntity
  8
TITLE
100
AcDbLine
 10
0.8120000000000011
 20
9.64
 30
0.0
 11
0.8119999999999976
 21
10.058
 31
0.0
  0
TEXT
  5
103
330
24
100
AcDbEntity
  8
TEXT
100
AcDbText
 10
7.926833333333331
 20
9.888412528973411
 30
0.0
 40
0.125
  1
PART
  7
TXT
 72
     1
 11
8.155999999999998
 21
9.888412528973411
 31
0.0
100
AcDbText
  0
TEXT
  5
104
330
24
100
AcDbEntity
  8
TEXT
100
AcDbText
 10
8.030999999999998
 20
9.680079195640079
 30
0.0
 40
0.125
  1
No.
  7
TXT
 72
     1
 11
8.155999999999998
 21
9.680079195640079
 31
0.0
100
AcDbText
  0
LINE
  5
105
330
24
100
AcDbEntity
  8
TITLE
100
AcDbLine
 10
7.780999999999998
 20
10.058
 30
0.0
 11
7.780999999999998
 21
9.64
 31
0.0
  0
LINE
  5
106
330
24
100
AcDbEntity
  8
TITLE
100
AcDbLine
 10
7.719000000000001
 20
10.058
 30
0.0
 11
7.719000000000001
 21
9.64
 31
0.0
  0
LINE
  5
107
330
24
100
AcDbEntity
  8
TITLE
100
AcDbLine
 10
8.530999999999998
 20
10.058
 30
0.0
 11
8.530999999999998
 21
9.64
 31
0.0
  0
ENDBLK
  5
108
330
24
100
AcDbEntity
  8
0
100
AcDbBlockEnd
  0
BLOCK
  5
AB9
330
AAE
100
AcDbEntity
  8
0
100
AcDbBlockBegin
  2
*D3
 70
     1
 10
0.0
 20
0.0
 30
0.0
  3
*D3
  1

  0
LINE
  5
CA4
330
AAE
100
AcDbEntity
  8
DIM
 62
     0
370
    -2
100
AcDbLine
 10
33.46884182203292
 20
24.38287893390771
 30
0.0
 11
30.43583283349451
 21
24.38287893390771
 31
0.0
  0
LINE
  5
CA5
330
AAE
100
AcDbEntity
  8
DIM
 62
     0
370
    -2
100
AcDbLine
 10
33.46884182203292
 20
23.3968789339077
 30
0.0
 11
30.43583283349451
 21
23.3968789339077
 31
0.0
  0
LINE
  5
CA6
330
AAE
100
AcDbEntity
  8
DIM
 62
     0
370
    -2
100
AcDbLine
 10
30.85433283349451
 20
25.19287893390771
 30
0.0
 11
30.85433283349451
 21
26.00287893390771
 31
0.0
  0
LINE
  5
CA7
330
AAE
100
AcDbEntity
  8
DIM
 62
     0
370
    -2
100
AcDbLine
 10
30.85433283349451
 20
22.5868789339077
 30
0.0
 11
30.85433283349451
 21
21.7768789339077
 31
0.0
  0
SOLID
  5
CA8
330
AAE
100
AcDbEntity
  8
DIM
 62
     0
100
AcDbTrace
 10
30.71933283349451
 20
25.19287893390771
 30
0.0
 11
30.98933283349452
 21
25.19287893390771
 31
0.0
 12
30.85433283349451
 22
24.38287893390771
 32
0.0
 13
30.85433283349451
 23
24.38287893390771
 33
0.0
  0
SOLID
  5
CA9
330
AAE
100
AcDbEntity
  8
DIM
 62
     0
100
AcDbTrace
 10
30.71933283349451
 20
22.5868789339077
 30
0.0
 11
30.98933283349451
 21
22.5868789339077
 31
0.0
 12
30.85433283349451
 22
23.3968789339077
 32
0.0
 13
30.85433283349451
 23
23.3968789339077
 33
0.0
  0
MTEXT
  5
CAA
330
AAE
100
AcDbEntity
  8
DIM
 62
     0
100
AcDbMText
 10
30.85433283349451
 20
23.88987893390771
 30
0.0
 40
0.5625
 41
0.0
 71
     5
 72
     1
  1
\A1;V TYP.
  7
TXT
 73
     1
 44
1.0
  0
POINT
  5
CAB
330
AAE
100
AcDbEntity
  8
DEFPOINTS
 62
     0
100
AcDbPoint
 10
33.75234182203291
 20
24.38287893390771
 30
0.0
  0
POINT
  5
CAC
330
AAE
100
AcDbEntity
  8
DEFPOINTS
 62
     0
100
AcDbPoint
 10
33.75234182203291
 20
23.3968789339077
 30
0.0
  0
POINT
  5
CAD
330
AAE
100
AcDbEntity
  8
DEFPOINTS
 62
     0
100
AcDbPoint
 10
30.85433283349451
 20
23.3968789339077
 30
0.0
  0
ENDBLK
  5
ABA
330
AAE
100
AcDbEntity
  8
0
100
AcDbBlockEnd
  0
BLOCK
  5
AC6
330
ABB
100
AcDbEntity
  8
0
100
AcDbBlockBegin
  2
*D4
 70
     1
 10
0.0
 20
0.0
 30
0.0
  3
*D4
  1

  0
LINE
  5
D53
330
ABB
100
AcDbEntity
  8
DIM
 62
     0
370
    -2
100
AcDbLine
 10
25.63384182203291
 20
12.61987893390771
 30
0.0
 11
25.63384182203291
 21
15.44812998759929
 31
0.0
  0
LINE
  5
D54
330
ABB
100
AcDbEntity
  8
DIM
 62
     0
370
    -2
100
AcDbLine
 10
26.61984182203291
 20
12.61987893390771
 30
0.0
 11
26.61984182203291
 21
15.44812998759929
 31
0.0
  0
LINE
  5
D55
330
ABB
100
AcDbEntity
  8
DIM
 62
     0
370
    -2
100
AcDbLine
 10
24.82384182203292
 20
15.02962998759929
 30
0.0
 11
24.01384182203291
 21
15.02962998759929
 31
0.0
  0
LINE
  5
D56
330
ABB
100
AcDbEntity
  8
DIM
 62
     0
370
    -2
100
AcDbLine
 10
27.42984182203291
 20
15.02962998759929
 30
0.0
 11
28.24278230140538
 21
15.02962998759929
 31
0.0
  0
SOLID
  5
D57
330
ABB
100
AcDbEntity
  8
DIM
 62
     0
100
AcDbTrace
 10
24.82384182203292
 20
15.16462998759929
 30
0.0
 11
24.82384182203292
 21
14.89462998759929
 31
0.0
 12
25.63384182203291
 22
15.02962998759929
 32
0.0
 13
25.63384182203291
 23
15.02962998759929
 33
0.0
  0
SOLID
  5
D58
330
ABB
100
AcDbEntity
  8
DIM
 62
     0
100
AcDbTrace
 10
27.42984182203291
 20
15.16462998759929
 30
0.0
 11
27.42984182203291
 21
14.89462998759929
 31
0.0
 12
26.61984182203291
 22
15.02962998759929
 32
0.0
 13
26.61984182203291
 23
15.02962998759929
 33
0.0
  0
MTEXT
  5
D59
330
ABB
100
AcDbEntity
  8
DIM
 62
     0
100
AcDbMText
 10
29.77278230140538
 20
15.02962998759929
 30
0.0
 40
0.5625
 41
0.0
 71
     5
 72
     1
  1
\A1;W TYP.
  7
TXT
 73
     1
 44
1.0
  0
POINT
  5
D5A
330
ABB
100
AcDbEntity
  8
DEFPOINTS
 62
     0
100
AcDbPoint
 10
25.63384182203291
 20
12.33637893390771
 30
0.0
  0
POINT
  5
D5B
330
ABB
100
AcDbEntity
  8
DEFPOINTS
 62
     0
100
AcDbPoint
 10
26.61984182203291
 20
12.33637893390771
 30
0.0
  0
POINT
  5
D5C
330
ABB
100
AcDbEntity
  8
DEFPOINTS
 62
     0
100
AcDbPoint
 10
26.61984182203291
 20
15.02962998759929
 30
0.0
  0
ENDBLK
  5
AC7
330
ABB
100
AcDbEntity
  8
0
100
AcDbBlockEnd
  0
BLOCK
  5
B94
330
B89
100
AcDbEntity
  8
0
100
AcDbBlockBegin
  2
*D5
 70
     1
 10
0.0
 20
0.0
 30
0.0
  3
*D5
  1

  0
LINE
  5
CBD
330
B89
100
AcDbEntity
  8
DIM
 62
     0
370
    -2
100
AcDbLine
 10
23.37084182203291
 20
11.12887893390771
 30
0.0
 11
19.34072560264796
 21
11.12887893390771
 31
0.0
  0
LINE
  5
CBE
330
B89
100
AcDbEntity
  8
DIM
 62
     0
370
    -2
100
AcDbLine
 10
23.37084182203291
 20
26.80887893390771
 30
0.0
 11
19.34072560264797
 21
26.80887893390771
 31
0.0
  0
LINE
  5
CBF
330
B89
100
AcDbEntity
  8
DIM
 62
     0
370
    -2
100
AcDbLine
 10
19.75922560264796
 20
11.93887893390771
 30
0.0
 11
19.75922560264796
 21
18.28262893390771
 31
0.0
  0
LINE
  5
CC0
330
B89
100
AcDbEntity
  8
DIM
 62
     0
370
    -2
100
AcDbLine
 10
19.75922560264796
 20
25.99887893390771
 30
0.0
 11
19.75922560264796
 21
19.65512893390771
 31
0.0
  0
SOLID
  5
CC1
330
B89
100
AcDbEntity
  8
DIM
 62
     0
100
AcDbTrace
 10
19.62422560264796
 20
11.93887893390771
 30
0.0
 11
19.89422560264796
 21
11.93887893390771
 31
0.0
 12
19.75922560264796
 22
11.12887893390771
 32
0.0
 13
19.75922560264796
 23
11.12887893390771
 33
0.0
  0
SOLID
  5
CC2
330
B89
100
AcDbEntity
  8
DIM
 62
     0
100
AcDbTrace
 10
19.62422560264796
 20
25.99887893390771
 30
0.0
 11
19.89422560264797
 21
25.99887893390771
 31
0.0
 12
19.75922560264796
 22
26.80887893390771
 32
0.0
 13
19.75922560264796
 23
26.80887893390771
 33
0.0
  0
MTEXT
  5
CC3
330
B89
100
AcDbEntity
  8
DIM
 62
     0
100
AcDbMText
 10
19.75922560264796
 20
18.96887893390772
 30
0.0
 40
0.5625
 41
0.0
 71
     5
 72
     1
  1
\A1;G
  7
TXT
 73
     1
 44
1.0
  0
POINT
  5
CC4
330
B89
100
AcDbEntity
  8
DEFPOINTS
 62
     0
100
AcDbPoint
 10
23.65434182203291
 20
11.12887893390771
 30
0.0
  0
POINT
  5
CC5
330
B89
100
AcDbEntity
  8
DEFPOINTS
 62
     0
100
AcDbPoint
 10
23.65434182203291
 20
26.80887893390771
 30
0.0
  0
POINT
  5
CC6
330
B89
100
AcDbEntity
  8
DEFPOINTS
 62
     0
100
AcDbPoint
 10
19.75922560264796
 20
26.80887893390771
 30
0.0
  0
ENDBLK
  5
B95
330
B89
100
AcDbEntity
  8
0
100
AcDbBlockEnd
  0
BLOCK
  5
BA1
330
B96
100
AcDbEntity
  8
0
100
AcDbBlockBegin
  2
*D6
 70
     1
 10
0.0
 20
0.0
 30
0.0
  3
*D6
  1

  0
LINE
  5
CC7
330
B96
100
AcDbEntity
  8
DIM
 62
     0
370
    -2
100
AcDbLine
 10
23.22134182203291
 20
26.65937893390772
 30
0.0
 11
23.22134182203291
 21
30.37247122887098
 31
0.0
  0
LINE
  5
CC8
330
B96
100
AcDbEntity
  8
DIM
 62
     0
370
    -2
100
AcDbLine
 10
34.94834182203291
 20
26.65937893390772
 30
0.0
 11
34.94834182203291
 21
30.37247122887098
 31
0.0
  0
LINE
  5
CC9
330
B96
100
AcDbEntity
  8
DIM
 62
     0
370
    -2
100
AcDbLine
 10
24.03134182203291
 20
29.95397122887098
 30
0.0
 11
28.53921682203291
 21
29.95397122887098
 31
0.0
  0
LINE
  5
CCA
330
B96
100
AcDbEntity
  8
DIM
 62
     0
370
    -2
100
AcDbLine
 10
34.13834182203291
 20
29.95397122887098
 30
0.0
 11
29.63046682203291
 21
29.95397122887098
 31
0.0
  0
SOLID
  5
CCB
330
B96
100
AcDbEntity
  8
DIM
 62
     0
100
AcDbTrace
 10
24.03134182203291
 20
30.08897122887097
 30
0.0
 11
24.03134182203291
 21
29.81897122887097
 31
0.0
 12
23.22134182203291
 22
29.95397122887098
 32
0.0
 13
23.22134182203291
 23
29.95397122887098
 33
0.0
  0
SOLID
  5
CCC
330
B96
100
AcDbEntity
  8
DIM
 62
     0
100
AcDbTrace
 10
34.13834182203291
 20
30.08897122887097
 30
0.0
 11
34.13834182203291
 21
29.81897122887097
 31
0.0
 12
34.94834182203291
 22
29.95397122887098
 32
0.0
 13
34.94834182203291
 23
29.95397122887098
 33
0.0
  0
MTEXT
  5
CCD
330
B96
100
AcDbEntity
  8
DIM
 62
     0
100
AcDbMText
 10
29.08484182203291
 20
29.95397122887098
 30
0.0
 40
0.5625
 41
0.0
 71
     5
 72
     1
  1
\A1;A
  7
TXT
 73
     1
 44
1.0
  0
POINT
  5
CCE
330
B96
100
AcDbEntity
  8
DEFPOINTS
 62
     0
100
AcDbPoint
 10
23.22134182203291
 20
26.37587893390772
 30
0.0
  0
POINT
  5
CCF
330
B96
100
AcDbEntity
  8
DEFPOINTS
 62
     0
100
AcDbPoint
 10
34.94834182203291
 20
26.37587893390772
 30
0.0
  0
POINT
  5
CD0
330
B96
100
AcDbEntity
  8
DEFPOINTS
 62
     0
100
AcDbPoint
 10
34.94834182203291
 20
29.95397122887098
 30
0.0
  0
ENDBLK
  5
BA2
330
B96
100
AcDbEntity
  8
0
100
AcDbBlockEnd
  0
BLOCK
  5
BAE
330
BA3
100
AcDbEntity
  8
0
100
AcDbBlockBegin
  2
*D7
 70
     1
 10
0.0
 20
0.0
 30
0.0
  3
*D7
  1

  0
LINE
  5
CD1
330
BA3
100
AcDbEntity
  8
DIM
 62
     0
370
    -2
100
AcDbLine
 10
23.63784182203291
 20
26.65150885590721
 30
0.0
 11
23.63784182203291
 21
29.24747122887097
 31
0.0
  0
LINE
  5
CD2
330
BA3
100
AcDbEntity
  8
DIM
 62
     0
370
    -2
100
AcDbLine
 10
34.53184182203291
 20
26.65150885590721
 30
0.0
 11
34.53184182203291
 21
29.24747122887097
 31
0.0
  0
LINE
  5
CD3
330
BA3
100
AcDbEntity
  8
DIM
 62
     0
370
    -2
100
AcDbLine
 10
24.44784182203291
 20
28.82897122887097
 30
0.0
 11
28.53921682203291
 21
28.82897122887097
 31
0.0
  0
LINE
  5
CD4
330
BA3
100
AcDbEntity
  8
DIM
 62
     0
370
    -2
100
AcDbLine
 10
33.72184182203291
 20
28.82897122887097
 30
0.0
 11
29.63046682203291
 21
28.82897122887097
 31
0.0
  0
SOLID
  5
CD5
330
BA3
100
AcDbEntity
  8
DIM
 62
     0
100
AcDbTrace
 10
24.44784182203291
 20
28.96397122887098
 30
0.0
 11
24.44784182203291
 21
28.69397122887097
 31
0.0
 12
23.63784182203291
 22
28.82897122887097
 32
0.0
 13
23.63784182203291
 23
28.82897122887097
 33
0.0
  0
SOLID
  5
CD6
330
BA3
100
AcDbEntity
  8
DIM
 62
     0
100
AcDbTrace
 10
33.72184182203291
 20
28.96397122887098
 30
0.0
 11
33.72184182203291
 21
28.69397122887097
 31
0.0
 12
34.53184182203291
 22
28.82897122887097
 32
0.0
 13
34.53184182203291
 23
28.82897122887097
 33
0.0
  0
MTEXT
  5
CD7
330
BA3
100
AcDbEntity
  8
DIM
 62
     0
100
AcDbMText
 10
29.08484182203291
 20
28.82897122887097
 30
0.0
 40
0.5625
 41
0.0
 71
     5
 72
     1
  1
\A1;B
  7
TXT
 73
     1
 44
1.0
  0
POINT
  5
CD8
330
BA3
100
AcDbEntity
  8
DEFPOINTS
 62
     0
100
AcDbPoint
 10
23.63784182203291
 20
26.36800885590721
 30
0.0
  0
POINT
  5
CD9
330
BA3
100
AcDbEntity
  8
DEFPOINTS
 62
     0
100
AcDbPoint
 10
34.53184182203291
 20
26.36800885590721
 30
0.0
  0
POINT
  5
CDA
330
BA3
100
AcDbEntity
  8
DEFPOINTS
 62
     0
100
AcDbPoint
 10
34.53184182203291
 20
28.82897122887097
 30
0.0
  0
ENDBLK
  5
BAF
330
BA3
100
AcDbEntity
  8
0
100
AcDbBlockEnd
  0
BLOCK
  5
BBB
330
BB0
100
AcDbEntity
  8
0
100
AcDbBlockBegin
  2
*D8
 70
     1
 10
0.0
 20
0.0
 30
0.0
  3
*D8
  1

  0
LINE
  5
CDB
330
BB0
100
AcDbEntity
  8
DIM
 62
     0
370
    -2
100
AcDbLine
 10
33.85284182203289
 20
12.56837893390772
 30
0.0
 11
37.6016090709423
 21
12.56837893390771
 31
0.0
  0
LINE
  5
CDC
330
BB0
100
AcDbEntity
  8
DIM
 62
     0
370
    -2
100
AcDbLine
 10
33.85284182203289
 20
25.3693789339077
 30
0.0
 11
37.60160907094231
 21
25.3693789339077
 31
0.0
  0
LINE
  5
CDD
330
BB0
100
AcDbEntity
  8
DIM
 62
     0
370
    -2
100
AcDbLine
 10
37.1831090709423
 20
13.37837893390771
 30
0.0
 11
37.18310907094231
 21
18.2826289339077
 31
0.0
  0
LINE
  5
CDE
330
BB0
100
AcDbEntity
  8
DIM
 62
     0
370
    -2
100
AcDbLine
 10
37.18310907094231
 20
24.5593789339077
 30
0.0
 11
37.18310907094231
 21
19.65512893390771
 31
0.0
  0
SOLID
  5
CDF
330
BB0
100
AcDbEntity
  8
DIM
 62
     0
100
AcDbTrace
 10
37.0481090709423
 20
13.37837893390771
 30
0.0
 11
37.3181090709423
 21
13.37837893390771
 31
0.0
 12
37.1831090709423
 22
12.56837893390771
 32
0.0
 13
37.1831090709423
 23
12.56837893390771
 33
0.0
  0
SOLID
  5
CE0
330
BB0
100
AcDbEntity
  8
DIM
 62
     0
100
AcDbTrace
 10
37.0481090709423
 20
24.5593789339077
 30
0.0
 11
37.3181090709423
 21
24.5593789339077
 31
0.0
 12
37.18310907094231
 22
25.3693789339077
 32
0.0
 13
37.18310907094231
 23
25.3693789339077
 33
0.0
  0
MTEXT
  5
CE1
330
BB0
100
AcDbEntity
  8
DIM
 62
     0
100
AcDbMText
 10
37.1831090709423
 20
18.96887893390771
 30
0.0
 40
0.5625
 41
0.0
 71
     5
 72
     1
  1
\A1;L
  7
TXT
 73
     1
 44
1.0
  0
POINT
  5
CE2
330
BB0
100
AcDbEntity
  8
DEFPOINTS
 62
     0
100
AcDbPoint
 10
33.56934182203289
 20
12.56837893390772
 30
0.0
  0
POINT
  5
CE3
330
BB0
100
AcDbEntity
  8
DEFPOINTS
 62
     0
100
AcDbPoint
 10
33.56934182203289
 20
25.3693789339077
 30
0.0
  0
POINT
  5
CE4
330
BB0
100
AcDbEntity
  8
DEFPOINTS
 62
     0
100
AcDbPoint
 10
37.18310907094231
 20
25.3693789339077
 30
0.0
  0
ENDBLK
  5
BBC
330
BB0
100
AcDbEntity
  8
0
100
AcDbBlockEnd
  0
BLOCK
  5
BC8
330
BBD
100
AcDbEntity
  8
0
100
AcDbBlockBegin
  2
*D9
 70
     1
 10
0.0
 20
0.0
 30
0.0
  3
*D9
  1

  0
LINE
  5
CE5
330
BBD
100
AcDbEntity
  8
DIM
 62
     0
370
    -2
100
AcDbLine
 10
24.60034182203292
 20
12.28487893390771
 30
0.0
 11
24.60034182203292
 21
8.684227476970601
 31
0.0
  0
LINE
  5
CE6
330
BBD
100
AcDbEntity
  8
DIM
 62
     0
370
    -2
100
AcDbLine
 10
33.56934182203289
 20
12.28487893390771
 30
0.0
 11
33.56934182203289
 21
8.684227476970601
 31
0.0
  0
LINE
  5
CE7
330
BBD
100
AcDbEntity
  8
DIM
 62
     0
370
    -2
100
AcDbLine
 10
25.41034182203292
 20
9.102727476970601
 30
0.0
 11
28.5392168220329
 21
9.102727476970601
 31
0.0
  0
LINE
  5
CE8
330
BBD
100
AcDbEntity
  8
DIM
 62
     0
370
    -2
100
AcDbLine
 10
32.75934182203289
 20
9.102727476970601
 30
0.0
 11
29.63046682203291
 21
9.102727476970601
 31
0.0
  0
SOLID
  5
CE9
330
BBD
100
AcDbEntity
  8
DIM
 62
     0
100
AcDbTrace
 10
25.41034182203292
 20
9.237727476970601
 30
0.0
 11
25.41034182203292
 21
8.967727476970601
 31
0.0
 12
24.60034182203292
 22
9.102727476970601
 32
0.0
 13
24.60034182203292
 23
9.102727476970601
 33
0.0
  0
SOLID
  5
CEA
330
BBD
100
AcDbEntity
  8
DIM
 62
     0
100
AcDbTrace
 10
32.75934182203289
 20
9.237727476970601
 30
0.0
 11
32.75934182203289
 21
8.967727476970601
 31
0.0
 12
33.56934182203289
 22
9.102727476970601
 32
0.0
 13
33.56934182203289
 23
9.102727476970601
 33
0.0
  0
MTEXT
  5
CEB
330
BBD
100
AcDbEntity
  8
DIM
 62
     0
100
AcDbMText
 10
29.08484182203291
 20
9.102727476970601
 30
0.0
 40
0.5625
 41
0.0
 71
     5
 72
     1
  1
\A1;E
  7
TXT
 73
     1
 44
1.0
  0
POINT
  5
CEC
330
BBD
100
AcDbEntity
  8
DEFPOINTS
 62
     0
100
AcDbPoint
 10
24.60034182203292
 20
12.56837893390772
 30
0.0
  0
POINT
  5
CED
330
BBD
100
AcDbEntity
  8
DEFPOINTS
 62
     0
100
AcDbPoint
 10
33.56934182203289
 20
12.56837893390772
 30
0.0
  0
POINT
  5
CEE
330
BBD
100
AcDbEntity
  8
DEFPOINTS
 62
     0
100
AcDbPoint
 10
33.56934182203289
 20
9.102727476970601
 30
0.0
  0
ENDBLK
  5
BC9
330
BBD
100
AcDbEntity
  8
0
100
AcDbBlockEnd
  0
BLOCK
  5
BD5
330
BCA
100
AcDbEntity
  8
0
100
AcDbBlockBegin
  2
*D10
 70
     1
 10
0.0
 20
0.0
 30
0.0
  3
*D10
  1

  0
LINE
  5
CEF
330
BCA
100
AcDbEntity
  8
DIM
 62
     0
370
    -2
100
AcDbLine
 10
23.87284182203291
 20
26.33587893390772
 30
0.0
 11
23.87284182203291
 21
28.12247122887097
 31
0.0
  0
LINE
  5
CF0
330
BCA
100
AcDbEntity
  8
DIM
 62
     0
370
    -2
100
AcDbLine
 10
34.29684182203291
 20
26.33587893390772
 30
0.0
 11
34.29684182203291
 21
28.12247122887097
 31
0.0
  0
LINE
  5
CF1
330
BCA
100
AcDbEntity
  8
DIM
 62
     0
370
    -2
100
AcDbLine
 10
24.68284182203291
 20
27.70397122887097
 30
0.0
 11
28.53921682203291
 21
27.70397122887097
 31
0.0
  0
LINE
  5
CF2
330
BCA
100
AcDbEntity
  8
DIM
 62
     0
370
    -2
100
AcDbLine
 10
33.48684182203291
 20
27.70397122887097
 30
0.0
 11
29.63046682203291
 21
27.70397122887097
 31
0.0
  0
SOLID
  5
CF3
330
BCA
100
AcDbEntity
  8
DIM
 62
     0
100
AcDbTrace
 10
24.68284182203291
 20
27.83897122887097
 30
0.0
 11
24.68284182203291
 21
27.56897122887097
 31
0.0
 12
23.87284182203291
 22
27.70397122887097
 32
0.0
 13
23.87284182203291
 23
27.70397122887097
 33
0.0
  0
SOLID
  5
CF4
330
BCA
100
AcDbEntity
  8
DIM
 62
     0
100
AcDbTrace
 10
33.48684182203291
 20
27.83897122887097
 30
0.0
 11
33.48684182203291
 21
27.56897122887097
 31
0.0
 12
34.29684182203291
 22
27.70397122887097
 32
0.0
 13
34.29684182203291
 23
27.70397122887097
 33
0.0
  0
MTEXT
  5
CF5
330
BCA
100
AcDbEntity
  8
DIM
 62
     0
100
AcDbMText
 10
29.08484182203291
 20
27.70397122887097
 30
0.0
 40
0.5625
 41
0.0
 71
     5
 72
     1
  1
\A1;C
  7
TXT
 73
     1
 44
1.0
  0
POINT
  5
CF6
330
BCA
100
AcDbEntity
  8
DEFPOINTS
 62
     0
100
AcDbPoint
 10
23.87284182203291
 20
26.05237893390772
 30
0.0
  0
POINT
  5
CF7
330
BCA
100
AcDbEntity
  8
DEFPOINTS
 62
     0
100
AcDbPoint
 10
34.29684182203291
 20
26.05237893390772
 30
0.0
  0
POINT
  5
CF8
330
BCA
100
AcDbEntity
  8
DEFPOINTS
 62
     0
100
AcDbPoint
 10
34.29684182203291
 20
27.70397122887097
 30
0.0
  0
ENDBLK
  5
BD6
330
BCA
100
AcDbEntity
  8
0
100
AcDbBlockEnd
  0
BLOCK
  5
BE2
330
BD7
100
AcDbEntity
  8
0
100
AcDbBlockBegin
  2
*D11
 70
     1
 10
0.0
 20
0.0
 30
0.0
  3
*D11
  1

  0
LINE
  5
CF9
330
BD7
100
AcDbEntity
  8
DIM
 62
     0
370
    -2
100
AcDbLine
 10
23.39371190003296
 20
26.40737893390771
 30
0.0
 11
20.46572560264797
 21
26.40737893390771
 31
0.0
  0
LINE
  5
CFA
330
BD7
100
AcDbEntity
  8
DIM
 62
     0
370
    -2
100
AcDbLine
 10
23.39371190003296
 20
11.53037893390771
 30
0.0
 11
20.46572560264797
 21
11.53037893390771
 31
0.0
  0
LINE
  5
CFB
330
BD7
100
AcDbEntity
  8
DIM
 62
     0
370
    -2
100
AcDbLine
 10
20.88422560264797
 20
25.59737893390771
 30
0.0
 11
20.88422560264797
 21
19.65512893390771
 31
0.0
  0
LINE
  5
CFC
330
BD7
100
AcDbEntity
  8
DIM
 62
     0
370
    -2
100
AcDbLine
 10
20.88422560264797
 20
12.34037893390771
 30
0.0
 11
20.88422560264797
 21
18.28262893390771
 31
0.0
  0
SOLID
  5
CFD
330
BD7
100
AcDbEntity
  8
DIM
 62
     0
100
AcDbTrace
 10
20.74922560264797
 20
25.59737893390771
 30
0.0
 11
21.01922560264797
 21
25.59737893390771
 31
0.0
 12
20.88422560264797
 22
26.40737893390771
 32
0.0
 13
20.88422560264797
 23
26.40737893390771
 33
0.0
  0
SOLID
  5
CFE
330
BD7
100
AcDbEntity
  8
DIM
 62
     0
100
AcDbTrace
 10
20.74922560264796
 20
12.34037893390771
 30
0.0
 11
21.01922560264797
 21
12.34037893390771
 31
0.0
 12
20.88422560264797
 22
11.53037893390771
 32
0.0
 13
20.88422560264797
 23
11.53037893390771
 33
0.0
  0
MTEXT
  5
CFF
330
BD7
100
AcDbEntity
  8
DIM
 62
     0
100
AcDbMText
 10
20.88422560264796
 20
18.96887893390772
 30
0.0
 40
0.5625
 41
0.0
 71
     5
 72
     1
  1
\A1;H
  7
TXT
 73
     1
 44
1.0
  0
POINT
  5
D00
330
BD7
100
AcDbEntity
  8
DEFPOINTS
 62
     0
100
AcDbPoint
 10
23.67721190003296
 20
26.40737893390771
 30
0.0
  0
POINT
  5
D01
330
BD7
100
AcDbEntity
  8
DEFPOINTS
 62
     0
100
AcDbPoint
 10
23.67721190003296
 20
11.53037893390771
 30
0.0
  0
POINT
  5
D02
330
BD7
100
AcDbEntity
  8
DEFPOINTS
 62
     0
100
AcDbPoint
 10
20.88422560264797
 20
11.53037893390771
 30
0.0
  0
ENDBLK
  5
BE3
330
BD7
100
AcDbEntity
  8
0
100
AcDbBlockEnd
  0
BLOCK
  5
BEF
330
BE4
100
AcDbEntity
  8
0
100
AcDbBlockBegin
  2
*D12
 70
     1
 10
0.0
 20
0.0
 30
0.0
  3
*D12
  1

  0
LINE
  5
D03
330
BE4
100
AcDbEntity
  8
DIM
 62
     0
370
    -2
100
AcDbLine
 10
32.8193418220329
 20
25.60137893390772
 30
0.0
 11
38.72660907094232
 21
25.60137893390772
 31
0.0
  0
LINE
  5
D04
330
BE4
100
AcDbEntity
  8
DIM
 62
     0
370
    -2
100
AcDbLine
 10
32.8193418220329
 20
12.33637893390771
 30
0.0
 11
38.7266090709423
 21
12.33637893390771
 31
0.0
  0
LINE
  5
D05
330
BE4
100
AcDbEntity
  8
DIM
 62
     0
370
    -2
100
AcDbLine
 10
38.30810907094231
 20
24.79137893390772
 30
0.0
 11
38.30810907094231
 21
19.65512893390771
 31
0.0
  0
LINE
  5
D06
330
BE4
100
AcDbEntity
  8
DIM
 62
     0
370
    -2
100
AcDbLine
 10
38.3081090709423
 20
13.14637893390771
 30
0.0
 11
38.30810907094231
 21
18.28262893390771
 31
0.0
  0
SOLID
  5
D07
330
BE4
100
AcDbEntity
  8
DIM
 62
     0
100
AcDbTrace
 10
38.17310907094231
 20
24.79137893390772
 30
0.0
 11
38.44310907094231
 21
24.79137893390772
 31
0.0
 12
38.30810907094231
 22
25.60137893390772
 32
0.0
 13
38.30810907094231
 23
25.60137893390772
 33
0.0
  0
SOLID
  5
D08
330
BE4
100
AcDbEntity
  8
DIM
 62
     0
100
AcDbTrace
 10
38.17310907094231
 20
13.14637893390771
 30
0.0
 11
38.4431090709423
 21
13.14637893390771
 31
0.0
 12
38.3081090709423
 22
12.33637893390771
 32
0.0
 13
38.3081090709423
 23
12.33637893390771
 33
0.0
  0
MTEXT
  5
D09
330
BE4
100
AcDbEntity
  8
DIM
 62
     0
100
AcDbMText
 10
38.3081090709423
 20
18.96887893390772
 30
0.0
 40
0.5625
 41
0.0
 71
     5
 72
     1
  1
\A1;K
  7
TXT
 73
     1
 44
1.0
  0
POINT
  5
D0A
330
BE4
100
AcDbEntity
  8
DEFPOINTS
 62
     0
100
AcDbPoint
 10
32.5358418220329
 20
25.60137893390772
 30
0.0
  0
POINT
  5
D0B
330
BE4
100
AcDbEntity
  8
DEFPOINTS
 62
     0
100
AcDbPoint
 10
32.5358418220329
 20
12.33637893390771
 30
0.0
  0
POINT
  5
D0C
330
BE4
100
AcDbEntity
  8
DEFPOINTS
 62
     0
100
AcDbPoint
 10
38.3081090709423
 20
12.33637893390771
 30
0.0
  0
ENDBLK
  5
BF0
330
BE4
100
AcDbEntity
  8
0
100
AcDbBlockEnd
  0
BLOCK
  5
BFC
330
BF1
100
AcDbEntity
  8
0
100
AcDbBlockBegin
  2
*D13
 70
     1
 10
0.0
 20
0.0
 30
0.0
  3
*D13
  1

  0
LINE
  5
D0D
330
BF1
100
AcDbEntity
  8
DIM
 62
     0
370
    -2
100
AcDbLine
 10
34.03584182203291
 20
24.38287893390771
 30
0.0
 11
36.47660907094231
 21
24.38287893390771
 31
0.0
  0
LINE
  5
D0E
330
BF1
100
AcDbEntity
  8
DIM
 62
     0
370
    -2
100
AcDbLine
 10
34.03584182203291
 20
13.55487893390771
 30
0.0
 11
36.4766090709423
 21
13.55487893390771
 31
0.0
  0
LINE
  5
D0F
330
BF1
100
AcDbEntity
  8
DIM
 62
     0
370
    -2
100
AcDbLine
 10
36.05810907094231
 20
23.57287893390771
 30
0.0
 11
36.05810907094231
 21
19.65512893390771
 31
0.0
  0
LINE
  5
D10
330
BF1
100
AcDbEntity
  8
DIM
 62
     0
370
    -2
100
AcDbLine
 10
36.0581090709423
 20
14.36487893390771
 30
0.0
 11
36.05810907094231
 21
18.28262893390771
 31
0.0
  0
SOLID
  5
D11
330
BF1
100
AcDbEntity
  8
DIM
 62
     0
100
AcDbTrace
 10
35.92310907094232
 20
23.57287893390771
 30
0.0
 11
36.19310907094231
 21
23.57287893390771
 31
0.0
 12
36.05810907094231
 22
24.38287893390771
 32
0.0
 13
36.05810907094231
 23
24.38287893390771
 33
0.0
  0
SOLID
  5
D12
330
BF1
100
AcDbEntity
  8
DIM
 62
     0
100
AcDbTrace
 10
35.92310907094231
 20
14.36487893390771
 30
0.0
 11
36.1931090709423
 21
14.36487893390771
 31
0.0
 12
36.0581090709423
 22
13.55487893390771
 32
0.0
 13
36.0581090709423
 23
13.55487893390771
 33
0.0
  0
MTEXT
  5
D13
330
BF1
100
AcDbEntity
  8
DIM
 62
     0
100
AcDbMText
 10
36.0581090709423
 20
18.96887893390772
 30
0.0
 40
0.5625
 41
0.0
 71
     5
 72
     1
  1
\A1;M
  7
TXT
 73
     1
 44
1.0
  0
POINT
  5
D14
330
BF1
100
AcDbEntity
  8
DEFPOINTS
 62
     0
100
AcDbPoint
 10
33.75234182203291
 20
24.38287893390771
 30
0.0
  0
POINT
  5
D15
330
BF1
100
AcDbEntity
  8
DEFPOINTS
 62
     0
100
AcDbPoint
 10
33.75234182203291
 20
13.55487893390771
 30
0.0
  0
POINT
  5
D16
330
BF1
100
AcDbEntity
  8
DEFPOINTS
 62
     0
100
AcDbPoint
 10
36.0581090709423
 20
13.55487893390771
 30
0.0
  0
ENDBLK
  5
BFD
330
BF1
100
AcDbEntity
  8
0
100
AcDbBlockEnd
  0
BLOCK
  5
C09
330
BFE
100
AcDbEntity
  8
0
100
AcDbBlockBegin
  2
*D14
 70
     1
 10
0.0
 20
0.0
 30
0.0
  3
*D14
  1

  0
LINE
  5
D17
330
BFE
100
AcDbEntity
  8
DIM
 62
     0
370
    -2
100
AcDbLine
 10
25.63384182203291
 20
12.05287893390771
 30
0.0
 11
25.63384182203291
 21
9.809227476970601
 31
0.0
  0
LINE
  5
D18
330
BFE
100
AcDbEntity
  8
DIM
 62
     0
370
    -2
100
AcDbLine
 10
32.5358418220329
 20
12.05287893390771
 30
0.0
 11
32.5358418220329
 21
9.809227476970601
 31
0.0
  0
LINE
  5
D19
330
BFE
100
AcDbEntity
  8
DIM
 62
     0
370
    -2
100
AcDbLine
 10
26.44384182203291
 20
10.2277274769706
 30
0.0
 11
28.53921682203291
 21
10.2277274769706
 31
0.0
  0
LINE
  5
D1A
330
BFE
100
AcDbEntity
  8
DIM
 62
     0
370
    -2
100
AcDbLine
 10
31.72584182203291
 20
10.2277274769706
 30
0.0
 11
29.63046682203291
 21
10.2277274769706
 31
0.0
  0
SOLID
  5
D1B
330
BFE
100
AcDbEntity
  8
DIM
 62
     0
100
AcDbTrace
 10
26.44384182203291
 20
10.3627274769706
 30
0.0
 11
26.44384182203291
 21
10.0927274769706
 31
0.0
 12
25.63384182203291
 22
10.2277274769706
 32
0.0
 13
25.63384182203291
 23
10.2277274769706
 33
0.0
  0
SOLID
  5
D1C
330
BFE
100
AcDbEntity
  8
DIM
 62
     0
100
AcDbTrace
 10
31.72584182203291
 20
10.3627274769706
 30
0.0
 11
31.72584182203291
 21
10.0927274769706
 31
0.0
 12
32.5358418220329
 22
10.2277274769706
 32
0.0
 13
32.5358418220329
 23
10.2277274769706
 33
0.0
  0
MTEXT
  5
D1D
330
BFE
100
AcDbEntity
  8
DIM
 62
     0
100
AcDbMText
 10
29.08484182203291
 20
10.2277274769706
 30
0.0
 40
0.5625
 41
0.0
 71
     5
 72
     1
  1
\A1;F
  7
TXT
 73
     1
 44
1.0
  0
POINT
  5
D1E
330
BFE
100
AcDbEntity
  8
DEFPOINTS
 62
     0
100
AcDbPoint
 10
25.63384182203291
 20
12.33637893390771
 30
0.0
  0
POINT
  5
D1F
330
BFE
100
AcDbEntity
  8
DEFPOINTS
 62
     0
100
AcDbPoint
 10
32.5358418220329
 20
12.33637893390771
 30
0.0
  0
POINT
  5
D20
330
BFE
100
AcDbEntity
  8
DEFPOINTS
 62
     0
100
AcDbPoint
 10
32.5358418220329
 20
10.2277274769706
 30
0.0
  0
ENDBLK
  5
C0A
330
BFE
100
AcDbEntity
  8
0
100
AcDbBlockEnd
  0
BLOCK
  5
C16
330
C0B
100
AcDbEntity
  8
0
100
AcDbBlockBegin
  2
*D15
 70
     1
 10
0.0
 20
0.0
 30
0.0
  3
*D15
  1

  0
LINE
  5
D21
330
C0B
100
AcDbEntity
  8
DIM
 62
     0
370
    -2
100
AcDbLine
 10
24.41734182203291
 20
13.27137893390771
 30
0.0
 11
24.41734182203291
 21
7.559227476970601
 31
0.0
  0
LINE
  5
D22
330
C0B
100
AcDbEntity
  8
DIM
 62
     0
370
    -2
100
AcDbLine
 10
33.75234182203291
 20
13.27137893390771
 30
0.0
 11
33.75234182203291
 21
7.559227476970601
 31
0.0
  0
LINE
  5
D23
330
C0B
100
AcDbEntity
  8
DIM
 62
     0
370
    -2
100
AcDbLine
 10
25.22734182203291
 20
7.977727476970601
 30
0.0
 11
28.53921682203291
 21
7.977727476970601
 31
0.0
  0
LINE
  5
D24
330
C0B
100
AcDbEntity
  8
DIM
 62
     0
370
    -2
100
AcDbLine
 10
32.94234182203291
 20
7.977727476970601
 30
0.0
 11
29.63046682203291
 21
7.977727476970601
 31
0.0
  0
SOLID
  5
D25
330
C0B
100
AcDbEntity
  8
DIM
 62
     0
100
AcDbTrace
 10
25.22734182203291
 20
8.112727476970601
 30
0.0
 11
25.22734182203291
 21
7.842727476970601
 31
0.0
 12
24.41734182203291
 22
7.977727476970601
 32
0.0
 13
24.41734182203291
 23
7.977727476970601
 33
0.0
  0
SOLID
  5
D26
330
C0B
100
AcDbEntity
  8
DIM
 62
     0
100
AcDbTrace
 10
32.94234182203291
 20
8.112727476970601
 30
0.0
 11
32.94234182203291
 21
7.842727476970601
 31
0.0
 12
33.75234182203291
 22
7.977727476970601
 32
0.0
 13
33.75234182203291
 23
7.977727476970601
 33
0.0
  0
MTEXT
  5
D27
330
C0B
100
AcDbEntity
  8
DIM
 62
     0
100
AcDbMText
 10
29.08484182203291
 20
7.977727476970601
 30
0.0
 40
0.5625
 41
0.0
 71
     5
 72
     1
  1
\A1;D
  7
TXT
 73
     1
 44
1.0
  0
POINT
  5
D28
330
C0B
100
AcDbEntity
  8
DEFPOINTS
 62
     0
100
AcDbPoint
 10
24.41734182203291
 20
13.55487893390771
 30
0.0
  0
POINT
  5
D29
330
C0B
100
AcDbEntity
  8
DEFPOINTS
 62
     0
100
AcDbPoint
 10
33.75234182203291
 20
13.55487893390771
 30
0.0
  0
POINT
  5
D2A
330
C0B
100
AcDbEntity
  8
DEFPOINTS
 62
     0
100
AcDbPoint
 10
33.75234182203291
 20
7.977727476970601
 30
0.0
  0
ENDBLK
  5
C17
330
C0B
100
AcDbEntity
  8
0
100
AcDbBlockEnd
  0
BLOCK
  5
C23
330
C18
100
AcDbEntity
  8
0
100
AcDbBlockBegin
  2
*D16
 70
     1
 10
0.0
 20
0.0
 30
0.0
  3
*D16
  1

  0
LINE
  5
D2B
330
C18
100
AcDbEntity
  8
DIM
 62
     0
370
    -2
100
AcDbLine
 10
40.50728103644443
 20
29.09439479421038
 30
0.0
 11
40.50728103644443
 21
27.88675864565188
 31
0.0
  0
LINE
  5
D2C
330
C18
100
AcDbEntity
  8
DIM
 62
     0
370
    -2
100
AcDbLine
 10
51.65428103644449
 20
29.09439479421038
 30
0.0
 11
51.65428103644449
 21
27.88675864565188
 31
0.0
  0
LINE
  5
D2D
330
C18
100
AcDbEntity
  8
DIM
 62
     0
370
    -2
100
AcDbLine
 10
41.31728103644443
 20
28.30525864565188
 30
0.0
 11
45.53515603644446
 21
28.30525864565188
 31
0.0
  0
LINE
  5
D2E
330
C18
100
AcDbEntity
  8
DIM
 62
     0
370
    -2
100
AcDbLine
 10
50.84428103644449
 20
28.30525864565188
 30
0.0
 11
46.62640603644446
 21
28.30525864565188
 31
0.0
  0
SOLID
  5
D2F
330
C18
100
AcDbEntity
  8
DIM
 62
     0
100
AcDbTrace
 10
41.31728103644443
 20
28.44025864565188
 30
0.0
 11
41.31728103644443
 21
28.17025864565188
 31
0.0
 12
40.50728103644443
 22
28.30525864565188
 32
0.0
 13
40.50728103644443
 23
28.30525864565188
 33
0.0
  0
SOLID
  5
D30
330
C18
100
AcDbEntity
  8
DIM
 62
     0
100
AcDbTrace
 10
50.84428103644449
 20
28.44025864565188
 30
0.0
 11
50.84428103644449
 21
28.17025864565188
 31
0.0
 12
51.65428103644449
 22
28.30525864565188
 32
0.0
 13
51.65428103644449
 23
28.30525864565188
 33
0.0
  0
MTEXT
  5
D31
330
C18
100
AcDbEntity
  8
DIM
 62
     0
100
AcDbMText
 10
46.08078103644446
 20
28.30525864565188
 30
0.0
 40
0.5625
 41
0.0
 71
     5
 72
     1
  1
\A1;T
  7
TXT
 73
     1
 44
1.0
  0
POINT
  5
D32
330
C18
100
AcDbEntity
  8
DEFPOINTS
 62
     0
100
AcDbPoint
 10
40.50728103644443
 20
29.37789479421038
 30
0.0
  0
POINT
  5
D33
330
C18
100
AcDbEntity
  8
DEFPOINTS
 62
     0
100
AcDbPoint
 10
51.65428103644449
 20
29.37789479421038
 30
0.0
  0
POINT
  5
D34
330
C18
100
AcDbEntity
  8
DEFPOINTS
 62
     0
100
AcDbPoint
 10
51.65428103644449
 20
28.30525864565188
 30
0.0
  0
ENDBLK
  5
C24
330
C18
100
AcDbEntity
  8
0
100
AcDbBlockEnd
  0
BLOCK
  5
C30
330
C25
100
AcDbEntity
  8
0
100
AcDbBlockBegin
  2
*D17
 70
     1
 10
0.0
 20
0.0
 30
0.0
  3
*D17
  1

  0
LINE
  5
D35
330
C25
100
AcDbEntity
  8
DIM
 62
     0
370
    -2
100
AcDbLine
 10
40.53578103644446
 20
35.78839909426857
 30
0.0
 11
40.53578103644446
 21
37.01886330359371
 31
0.0
  0
LINE
  5
D36
330
C25
100
AcDbEntity
  8
DIM
 62
     0
370
    -2
100
AcDbLine
 10
51.62578103644449
 20
35.78839909426857
 30
0.0
 11
51.62578103644449
 21
37.01886330359371
 31
0.0
  0
LINE
  5
D37
330
C25
100
AcDbEntity
  8
DIM
 62
     0
370
    -2
100
AcDbLine
 10
41.34578103644447
 20
36.60036330359371
 30
0.0
 11
45.53515603644448
 21
36.60036330359371
 31
0.0
  0
LINE
  5
D38
330
C25
100
AcDbEntity
  8
DIM
 62
     0
370
    -2
100
AcDbLine
 10
50.81578103644448
 20
36.60036330359371
 30
0.0
 11
46.62640603644447
 21
36.60036330359371
 31
0.0
  0
SOLID
  5
D39
330
C25
100
AcDbEntity
  8
DIM
 62
     0
100
AcDbTrace
 10
41.34578103644447
 20
36.73536330359371
 30
0.0
 11
41.34578103644447
 21
36.46536330359372
 31
0.0
 12
40.53578103644446
 22
36.60036330359371
 32
0.0
 13
40.53578103644446
 23
36.60036330359371
 33
0.0
  0
SOLID
  5
D3A
330
C25
100
AcDbEntity
  8
DIM
 62
     0
100
AcDbTrace
 10
50.81578103644448
 20
36.73536330359371
 30
0.0
 11
50.81578103644448
 21
36.46536330359372
 31
0.0
 12
51.62578103644449
 22
36.60036330359371
 32
0.0
 13
51.62578103644449
 23
36.60036330359371
 33
0.0
  0
MTEXT
  5
D3B
330
C25
100
AcDbEntity
  8
DIM
 62
     0
100
AcDbMText
 10
46.08078103644447
 20
36.60036330359371
 30
0.0
 40
0.5625
 41
0.0
 71
     5
 72
     1
  1
\A1;U
  7
TXT
 73
     1
 44
1.0
  0
POINT
  5
D3C
330
C25
100
AcDbEntity
  8
DEFPOINTS
 62
     0
100
AcDbPoint
 10
40.53578103644446
 20
35.50489909426857
 30
0.0
  0
POINT
  5
D3D
330
C25
100
AcDbEntity
  8
DEFPOINTS
 62
     0
100
AcDbPoint
 10
51.62578103644449
 20
35.50489909426857
 30
0.0
  0
POINT
  5
D3E
330
C25
100
AcDbEntity
  8
DEFPOINTS
 62
     0
100
AcDbPoint
 10
51.62578103644449
 20
36.60036330359371
 30
0.0
  0
ENDBLK
  5
C31
330
C25
100
AcDbEntity
  8
0
100
AcDbBlockEnd
  0
BLOCK
  5
C3D
330
C32
100
AcDbEntity
  8
0
100
AcDbBlockBegin
  2
*D18
 70
     1
 10
0.0
 20
0.0
 30
0.0
  3
*D18
  1

  0
LINE
  5
D3F
330
C32
100
AcDbEntity
  8
DIM
 62
     0
370
    -2
100
AcDbLine
 10
55.76549603353345
 20
27.08855068464079
 30
0.0
 11
55.76549603353345
 21
28.128985092245
 31
0.0
  0
LINE
  5
D40
330
C32
100
AcDbEntity
  8
DIM
 62
     0
370
    -2
100
AcDbLine
 10
60.87560618753408
 20
26.76987893390771
 30
0.0
 11
60.87560618753408
 21
28.128985092245
 31
0.0
  0
LINE
  5
D41
330
C32
100
AcDbEntity
  8
DIM
 62
     0
370
    -2
100
AcDbLine
 10
56.57549603353345
 20
27.710485092245
 30
0.0
 11
57.77492611053376
 21
27.710485092245
 31
0.0
  0
LINE
  5
D42
330
C32
100
AcDbEntity
  8
DIM
 62
     0
370
    -2
100
AcDbLine
 10
60.06560618753407
 20
27.710485092245
 30
0.0
 11
58.86617611053376
 21
27.710485092245
 31
0.0
  0
SOLID
  5
D43
330
C32
100
AcDbEntity
  8
DIM
 62
     0
100
AcDbTrace
 10
56.57549603353345
 20
27.845485092245
 30
0.0
 11
56.57549603353345
 21
27.575485092245
 31
0.0
 12
55.76549603353345
 22
27.710485092245
 32
0.0
 13
55.76549603353345
 23
27.710485092245
 33
0.0
  0
SOLID
  5
D44
330
C32
100
AcDbEntity
  8
DIM
 62
     0
100
AcDbTrace
 10
60.06560618753407
 20
27.845485092245
 30
0.0
 11
60.06560618753407
 21
27.575485092245
 31
0.0
 12
60.87560618753408
 22
27.710485092245
 32
0.0
 13
60.87560618753408
 23
27.710485092245
 33
0.0
  0
MTEXT
  5
D45
330
C32
100
AcDbEntity
  8
DIM
 62
     0
100
AcDbMText
 10
58.32055111053376
 20
27.710485092245
 30
0.0
 40
0.5625
 41
0.0
 71
     5
 72
     1
  1
\A1;N
  7
TXT
 73
     1
 44
1.0
  0
POINT
  5
D46
330
C32
100
AcDbEntity
  8
DEFPOINTS
 62
     0
100
AcDbPoint
 10
55.76549603353345
 20
26.80505068464079
 30
0.0
  0
POINT
  5
D47
330
C32
100
AcDbEntity
  8
DEFPOINTS
 62
     0
100
AcDbPoint
 10
60.87560618753408
 20
26.48637893390771
 30
0.0
  0
POINT
  5
D48
330
C32
100
AcDbEntity
  8
DEFPOINTS
 62
     0
100
AcDbPoint
 10
60.87560618753408
 20
27.710485092245
 30
0.0
  0
ENDBLK
  5
C3E
330
C32
100
AcDbEntity
  8
0
100
AcDbBlockEnd
  0
BLOCK
  5
C4A
330
C3F
100
AcDbEntity
  8
0
100
AcDbBlockBegin
  2
*D19
 70
     1
 10
0.0
 20
0.0
 30
0.0
  3
*D19
  1

  0
LINE
  5
D49
330
C3F
100
AcDbEntity
  8
DIM
 62
     0
370
    -2
100
AcDbLine
 10
60.46560618753407
 20
13.94985710723188
 30
0.0
 11
60.46560618753407
 21
14.37610315265628
 31
0.0
  0
LINE
  5
D4A
330
C3F
100
AcDbEntity
  8
DIM
 62
     0
370
    -2
100
AcDbLine
 10
60.74160618753408
 20
14.24110315265628
 30
0.0
 11
60.74160618753408
 21
14.37610315265628
 31
0.0
  0
LINE
  5
D4B
330
C3F
100
AcDbEntity
  8
DIM
 62
     0
370
    -2
100
AcDbLine
 10
59.65560618753407
 20
13.95760315265628
 30
0.0
 11
58.84560618753408
 21
13.95760315265628
 31
0.0
  0
LINE
  5
D4C
330
C3F
100
AcDbEntity
  8
DIM
 62
     0
370
    -2
100
AcDbLine
 10
61.55160618753408
 20
13.95760315265628
 30
0.0
 11
62.36160618753408
 21
13.95760315265628
 31
0.0
  0
SOLID
  5
D4D
330
C3F
100
AcDbEntity
  8
DIM
 62
     0
100
AcDbTrace
 10
59.65560618753407
 20
14.09260315265628
 30
0.0
 11
59.65560618753407
 21
13.82260315265628
 31
0.0
 12
60.46560618753407
 22
13.95760315265628
 32
0.0
 13
60.46560618753407
 23
13.95760315265628
 33
0.0
  0
SOLID
  5
D4E
330
C3F
100
AcDbEntity
  8
DIM
 62
     0
100
AcDbTrace
 10
61.55160618753408
 20
14.09260315265628
 30
0.0
 11
61.55160618753408
 21
13.82260315265628
 31
0.0
 12
60.74160618753408
 22
13.95760315265628
 32
0.0
 13
60.74160618753408
 23
13.95760315265628
 33
0.0
  0
MTEXT
  5
D4F
330
C3F
100
AcDbEntity
  8
DIM
 62
     0
100
AcDbMText
 10
65.89551243753408
 20
13.95760315265628
 30
0.0
 40
0.5625
 41
0.0
 71
     5
 72
     1
  1
\A1;0.276 [7] (INSIDE)
  7
TXT
 73
     1
 44
1.0
  0
POINT
  5
D50
330
C3F
100
AcDbEntity
  8
DEFPOINTS
 62
     0
100
AcDbPoint
 10
60.46560618753407
 20
13.66635710723189
 30
0.0
  0
POINT
  5
D51
330
C3F
100
AcDbEntity
  8
DEFPOINTS
 62
     0
100
AcDbPoint
 10
60.74160618753408
 20
13.95760315265628
 30
0.0
  0
POINT
  5
D52
330
C3F
100
AcDbEntity
  8
DEFPOINTS
 62
     0
100
AcDbPoint
 10
60.74160618753408
 20
13.95760315265628
 30
0.0
  0
ENDBLK
  5
C4B
330
C3F
100
AcDbEntity
  8
0
100
AcDbBlockEnd
  0
BLOCK
  5
C61
330
C56
100
AcDbEntity
  8
0
100
AcDbBlockBegin
  2
*D20
 70
     1
 10
0.0
 20
0.0
 30
0.0
  3
*D20
  1

  0
LINE
  5
D5D
330
C56
100
AcDbEntity
  8
DIM
 62
     0
370
    -2
100
AcDbLine
 10
23.58934182203291
 20
26.05237893390772
 30
0.0
 11
21.59072560264797
 21
26.05237893390772
 31
0.0
  0
LINE
  5
D5E
330
C56
100
AcDbEntity
  8
DIM
 62
     0
370
    -2
100
AcDbLine
 10
23.58934182203291
 20
11.88537893390771
 30
0.0
 11
21.59072560264796
 21
11.88537893390771
 31
0.0
  0
LINE
  5
D5F
330
C56
100
AcDbEntity
  8
DIM
 62
     0
370
    -2
100
AcDbLine
 10
22.00922560264797
 20
25.24237893390772
 30
0.0
 11
22.00922560264797
 21
19.65512893390772
 31
0.0
  0
LINE
  5
D60
330
C56
100
AcDbEntity
  8
DIM
 62
     0
370
    -2
100
AcDbLine
 10
22.00922560264797
 20
12.69537893390771
 30
0.0
 11
22.00922560264797
 21
18.28262893390771
 31
0.0
  0
SOLID
  5
D61
330
C56
100
AcDbEntity
  8
DIM
 62
     0
100
AcDbTrace
 10
21.87422560264797
 20
25.24237893390772
 30
0.0
 11
22.14422560264797
 21
25.24237893390772
 31
0.0
 12
22.00922560264797
 22
26.05237893390772
 32
0.0
 13
22.00922560264797
 23
26.05237893390772
 33
0.0
  0
SOLID
  5
D62
330
C56
100
AcDbEntity
  8
DIM
 62
     0
100
AcDbTrace
 10
21.87422560264796
 20
12.69537893390771
 30
0.0
 11
22.14422560264797
 21
12.69537893390771
 31
0.0
 12
22.00922560264797
 22
11.88537893390771
 32
0.0
 13
22.00922560264797
 23
11.88537893390771
 33
0.0
  0
MTEXT
  5
D63
330
C56
100
AcDbEntity
  8
DIM
 62
     0
100
AcDbMText
 10
22.00922560264796
 20
18.96887893390772
 30
0.0
 40
0.5625
 41
0.0
 71
     5
 72
     1
  1
\A1;J
  7
TXT
 73
     1
 44
1.0
  0
POINT
  5
D64
330
C56
100
AcDbEntity
  8
DEFPOINTS
 62
     0
100
AcDbPoint
 10
23.87284182203291
 20
26.05237893390772
 30
0.0
  0
POINT
  5
D65
330
C56
100
AcDbEntity
  8
DEFPOINTS
 62
     0
100
AcDbPoint
 10
23.87284182203291
 20
11.88537893390771
 30
0.0
  0
POINT
  5
D66
330
C56
100
AcDbEntity
  8
DEFPOINTS
 62
     0
100
AcDbPoint
 10
22.00922560264797
 20
11.88537893390771
 30
0.0
  0
ENDBLK
  5
C62
330
C56
100
AcDbEntity
  8
0
100
AcDbBlockEnd
  0
BLOCK
  5
C6E
330
C63
100
AcDbEntity
  8
0
100
AcDbBlockBegin
  2
*D21
 70
     1
 10
0.0
 20
0.0
 30
0.0
  3
*D21
  1

  0
LINE
  5
D67
330
C63
100
AcDbEntity
  8
DIM
 62
     0
370
    -2
100
AcDbLine
 10
61.15910618753408
 20
26.48637893390771
 30
0.0
 11
66.6142986529062
 21
26.48637893390771
 31
0.0
  0
LINE
  5
D68
330
C63
100
AcDbEntity
  8
DIM
 62
     0
370
    -2
100
AcDbLine
 10
61.15910618753408
 20
11.45137893390771
 30
0.0
 11
66.6142986529062
 21
11.45137893390771
 31
0.0
  0
LINE
  5
D69
330
C63
100
AcDbEntity
  8
DIM
 62
     0
370
    -2
100
AcDbLine
 10
66.19579865290621
 20
25.67637893390771
 30
0.0
 11
66.19579865290621
 21
19.65512893390771
 31
0.0
  0
LINE
  5
D6A
330
C63
100
AcDbEntity
  8
DIM
 62
     0
370
    -2
100
AcDbLine
 10
66.19579865290621
 20
12.26137893390771
 30
0.0
 11
66.19579865290621
 21
18.2826289339077
 31
0.0
  0
SOLID
  5
D6B
330
C63
100
AcDbEntity
  8
DIM
 62
     0
100
AcDbTrace
 10
66.0607986529062
 20
25.67637893390771
 30
0.0
 11
66.33079865290621
 21
25.67637893390771
 31
0.0
 12
66.19579865290621
 22
26.48637893390771
 32
0.0
 13
66.19579865290621
 23
26.48637893390771
 33
0.0
  0
SOLID
  5
D6C
330
C63
100
AcDbEntity
  8
DIM
 62
     0
100
AcDbTrace
 10
66.0607986529062
 20
12.26137893390771
 30
0.0
 11
66.33079865290621
 21
12.26137893390771
 31
0.0
 12
66.19579865290621
 22
11.45137893390771
 32
0.0
 13
66.19579865290621
 23
11.45137893390771
 33
0.0
  0
MTEXT
  5
D6D
330
C63
100
AcDbEntity
  8
DIM
 62
     0
100
AcDbMText
 10
66.19579865290621
 20
18.96887893390772
 30
0.0
 40
0.5625
 41
0.0
 71
     5
 72
     1
  1
\A1;S
  7
TXT
 73
     1
 44
1.0
  0
POINT
  5
D6E
330
C63
100
AcDbEntity
  8
DEFPOINTS
 62
     0
100
AcDbPoint
 10
60.87560618753408
 20
26.48637893390771
 30
0.0
  0
POINT
  5
D6F
330
C63
100
AcDbEntity
  8
DEFPOINTS
 62
     0
100
AcDbPoint
 10
60.87560618753408
 20
11.45137893390771
 30
0.0
  0
POINT
  5
D70
330
C63
100
AcDbEntity
  8
DEFPOINTS
 62
     0
100
AcDbPoint
 10
66.19579865290621
 20
11.45137893390771
 30
0.0
  0
ENDBLK
  5
C6F
330
C63
100
AcDbEntity
  8
0
100
AcDbBlockEnd
  0
BLOCK
  5
C7B
330
C70
100
AcDbEntity
  8
0
100
AcDbBlockBegin
  2
*D22
 70
     1
 10
0.0
 20
0.0
 30
0.0
  3
*D22
  1

  0
LINE
  5
D71
330
C70
100
AcDbEntity
  8
DIM
 62
     0
370
    -2
100
AcDbLine
 10
54.46510188747537
 20
26.52137893390772
 30
0.0
 11
52.98969163975836
 21
26.52137893390772
 31
0.0
  0
LINE
  5
D72
330
C70
100
AcDbEntity
  8
DIM
 62
     0
370
    -2
100
AcDbLine
 10
54.4651018874754
 20
11.4163789339077
 30
0.0
 11
52.98969163975836
 21
11.4163789339077
 31
0.0
  0
LINE
  5
D73
330
C70
100
AcDbEntity
  8
DIM
 62
     0
370
    -2
100
AcDbLine
 10
53.40819163975837
 20
25.71137893390772
 30
0.0
 11
53.40819163975837
 21
19.65512893390771
 31
0.0
  0
LINE
  5
D74
330
C70
100
AcDbEntity
  8
DIM
 62
     0
370
    -2
100
AcDbLine
 10
53.40819163975837
 20
12.2263789339077
 30
0.0
 11
53.40819163975837
 21
18.28262893390771
 31
0.0
  0
SOLID
  5
D75
330
C70
100
AcDbEntity
  8
DIM
 62
     0
100
AcDbTrace
 10
53.27319163975837
 20
25.71137893390772
 30
0.0
 11
53.54319163975837
 21
25.71137893390772
 31
0.0
 12
53.40819163975837
 22
26.52137893390772
 32
0.0
 13
53.40819163975837
 23
26.52137893390772
 33
0.0
  0
SOLID
  5
D76
330
C70
100
AcDbEntity
  8
DIM
 62
     0
100
AcDbTrace
 10
53.27319163975836
 20
12.2263789339077
 30
0.0
 11
53.54319163975836
 21
12.2263789339077
 31
0.0
 12
53.40819163975837
 22
11.4163789339077
 32
0.0
 13
53.40819163975837
 23
11.4163789339077
 33
0.0
  0
MTEXT
  5
D77
330
C70
100
AcDbEntity
  8
DIM
 62
     0
100
AcDbMText
 10
53.40819163975837
 20
18.96887893390772
 30
0.0
 40
0.5625
 41
0.0
 71
     5
 72
     1
  1
\A1;R
  7
TXT
 73
     1
 44
1.0
  0
POINT
  5
D78
330
C70
100
AcDbEntity
  8
DEFPOINTS
 62
     0
100
AcDbPoint
 10
54.74860188747537
 20
26.52137893390772
 30
0.0
  0
POINT
  5
D79
330
C70
100
AcDbEntity
  8
DEFPOINTS
 62
     0
100
AcDbPoint
 10
54.74860188747539
 20
11.4163789339077
 30
0.0
  0
POINT
  5
D7A
330
C70
100
AcDbEntity
  8
DEFPOINTS
 62
     0
100
AcDbPoint
 10
53.40819163975837
 20
11.4163789339077
 30
0.0
  0
ENDBLK
  5
C7C
330
C70
100
AcDbEntity
  8
0
100
AcDbBlockEnd
  0
BLOCK
  5
C88
330
C7D
100
AcDbEntity
  8
0
100
AcDbBlockBegin
  2
*D23
 70
     1
 10
0.0
 20
0.0
 30
0.0
  3
*D23
  1

  0
LINE
  5
D7B
330
C7D
100
AcDbEntity
  8
DIM
 62
     0
370
    -2
100
AcDbLine
 10
60.36160618753407
 20
13.1490371953813
 30
0.0
 11
60.36160618753407
 21
13.45709843231244
 31
0.0
  0
LINE
  5
D7C
330
C7D
100
AcDbEntity
  8
DIM
 62
     0
370
    -2
100
AcDbLine
 10
60.74160618753408
 20
13.1490371953813
 30
0.0
 11
60.74160618753408
 21
13.45709843231244
 31
0.0
  0
LINE
  5
D7D
330
C7D
100
AcDbEntity
  8
DIM
 62
     0
370
    -2
100
AcDbLine
 10
59.55160618753406
 20
13.03859843231244
 30
0.0
 11
58.74160618753407
 21
13.03859843231244
 31
0.0
  0
LINE
  5
D7E
330
C7D
100
AcDbEntity
  8
DIM
 62
     0
370
    -2
100
AcDbLine
 10
61.55160618753408
 20
13.03859843231244
 30
0.0
 11
62.36160618753408
 21
13.03859843231244
 31
0.0
  0
SOLID
  5
D7F
330
C7D
100
AcDbEntity
  8
DIM
 62
     0
100
AcDbTrace
 10
59.55160618753406
 20
13.17359843231244
 30
0.0
 11
59.55160618753406
 21
12.90359843231244
 31
0.0
 12
60.36160618753407
 22
13.03859843231244
 32
0.0
 13
60.36160618753407
 23
13.03859843231244
 33
0.0
  0
SOLID
  5
D80
330
C7D
100
AcDbEntity
  8
DIM
 62
     0
100
AcDbTrace
 10
61.55160618753408
 20
13.17359843231244
 30
0.0
 11
61.55160618753408
 21
12.90359843231244
 31
0.0
 12
60.74160618753408
 22
13.03859843231244
 32
0.0
 13
60.74160618753408
 23
13.03859843231244
 33
0.0
  0
MTEXT
  5
D81
330
C7D
100
AcDbEntity
  8
DIM
 62
     0
100
AcDbMText
 10
65.96582493753408
 20
13.03859843231244
 30
0.0
 40
0.5625
 41
0.0
 71
     5
 72
     1
  1
\A1;0.380 [10] (INSIDE)
  7
TXT
 73
     1
 44
1.0
  0
POINT
  5
D82
330
C7D
100
AcDbEntity
  8
DEFPOINTS
 62
     0
100
AcDbPoint
 10
60.36160618753407
 20
12.8655371953813
 30
0.0
  0
POINT
  5
D83
330
C7D
100
AcDbEntity
  8
DEFPOINTS
 62
     0
100
AcDbPoint
 10
60.74160618753408
 20
12.8655371953813
 30
0.0
  0
POINT
  5
D84
330
C7D
100
AcDbEntity
  8
DEFPOINTS
 62
     0
100
AcDbPoint
 10
60.74160618753408
 20
13.03859843231244
 30
0.0
  0
ENDBLK
  5
C89
330
C7D
100
AcDbEntity
  8
0
100
AcDbBlockEnd
  0
BLOCK
  5
C95
330
C8A
100
AcDbEntity
  8
0
100
AcDbBlockBegin
  2
*D24
 70
     1
 10
0.0
 20
0.0
 30
0.0
  3
*D24
  1

  0
LINE
  5
D85
330
C8A
100
AcDbEntity
  8
DIM
 62
     0
370
    -2
100
AcDbLine
 10
60.74160618753406
 20
16.82942489530047
 30
0.0
 11
60.74160618753406
 21
16.67623222698724
 31
0.0
  0
LINE
  5
D86
330
C8A
100
AcDbEntity
  8
DIM
 62
     0
370
    -2
100
AcDbLine
 10
60.87560618753408
 20
16.82942489530047
 30
0.0
 11
60.87560618753408
 21
16.67623222698724
 31
0.0
  0
LINE
  5
D87
330
C8A
100
AcDbEntity
  8
DIM
 62
     0
370
    -2
100
AcDbLine
 10
59.93160618753407
 20
17.09473222698724
 30
0.0
 11
59.12160618753407
 21
17.09473222698724
 31
0.0
  0
LINE
  5
D88
330
C8A
100
AcDbEntity
  8
DIM
 62
     0
370
    -2
100
AcDbLine
 10
61.68560618753408
 20
17.09473222698724
 30
0.0
 11
62.49560618753408
 21
17.09473222698724
 31
0.0
  0
SOLID
  5
D89
330
C8A
100
AcDbEntity
  8
DIM
 62
     0
100
AcDbTrace
 10
59.93160618753407
 20
17.22973222698724
 30
0.0
 11
59.93160618753407
 21
16.95973222698723
 31
0.0
 12
60.74160618753406
 22
17.09473222698724
 32
0.0
 13
60.74160618753406
 23
17.09473222698724
 33
0.0
  0
SOLID
  5
D8A
330
C8A
100
AcDbEntity
  8
DIM
 62
     0
100
AcDbTrace
 10
61.68560618753408
 20
17.22973222698724
 30
0.0
 11
61.68560618753408
 21
16.95973222698723
 31
0.0
 12
60.87560618753408
 22
17.09473222698724
 32
0.0
 13
60.87560618753408
 23
17.09473222698724
 33
0.0
  0
MTEXT
  5
D8B
330
C8A
100
AcDbEntity
  8
DIM
 62
     0
100
AcDbMText
 10
64.34201243753408
 20
17.09473222698724
 30
0.0
 40
0.5625
 41
0.0
 71
     5
 72
     1
  1
\A1;0.134 [3]
  7
TXT
 73
     1
 44
1.0
  0
POINT
  5
D8C
330
C8A
100
AcDbEntity
  8
DEFPOINTS
 62
     0
100
AcDbPoint
 10
60.74160618753406
 20
17.11292489530047
 30
0.0
  0
POINT
  5
D8D
330
C8A
100
AcDbEntity
  8
DEFPOINTS
 62
     0
100
AcDbPoint
 10
60.87560618753408
 20
17.11292489530047
 30
0.0
  0
POINT
  5
D8E
330
C8A
100
AcDbEntity
  8
DEFPOINTS
 62
     0
100
AcDbPoint
 10
60.87560618753408
 20
17.09473222698724
 30
0.0
  0
ENDBLK
  5
C96
330
C8A
100
AcDbEntity
  8
0
100
AcDbBlockEnd
  0
BLOCK
  5
CA2
330
C97
100
AcDbEntity
  8
0
100
AcDbBlockBegin
  2
*D25
 70
     1
 10
0.0
 20
0.0
 30
0.0
  3
*D25
  1

  0
LINE
  5
C98
330
C97
100
AcDbEntity
  8
DIM
 62
     0
370
    -2
100
AcDbLine
 10
55.76549603353345
 20
27.0885507226407
 30
0.0
 11
55.76549603353345
 21
28.128985092245
 31
0.0
  0
LINE
  5
C99
330
C97
100
AcDbEntity
  8
DIM
 62
     0
370
    -2
100
AcDbLine
 10
54.58070865453354
 20
26.62795638186394
 30
0.0
 11
54.58070865453354
 21
28.128985092245
 31
0.0
  0
LINE
  5
C9A
330
C97
100
AcDbEntity
  8
DIM
 62
     0
370
    -2
100
AcDbLine
 10
56.57549603353345
 20
27.710485092245
 30
0.0
 11
57.38549603353344
 21
27.710485092245
 31
0.0
  0
LINE
  5
C9B
330
C97
100
AcDbEntity
  8
DIM
 62
     0
370
    -2
100
AcDbLine
 10
53.77070865453354
 20
27.710485092245
 30
0.0
 11
52.96070865453355
 21
27.710485092245
 31
0.0
  0
SOLID
  5
C9C
330
C97
100
AcDbEntity
  8
DIM
 62
     0
100
AcDbTrace
 10
56.57549603353345
 20
27.845485092245
 30
0.0
 11
56.57549603353345
 21
27.575485092245
 31
0.0
 12
55.76549603353345
 22
27.710485092245
 32
0.0
 13
55.76549603353345
 23
27.710485092245
 33
0.0
  0
SOLID
  5
C9D
330
C97
100
AcDbEntity
  8
DIM
 62
     0
100
AcDbTrace
 10
53.77070865453354
 20
27.845485092245
 30
0.0
 11
53.77070865453354
 21
27.575485092245
 31
0.0
 12
54.58070865453354
 22
27.710485092245
 32
0.0
 13
54.58070865453354
 23
27.710485092245
 33
0.0
  0
MTEXT
  5
C9E
330
C97
100
AcDbEntity
  8
DIM
 62
     0
100
AcDbMText
 10
55.1731023440335
 20
27.710485092245
 30
0.0
 40
0.5625
 41
0.0
 71
     5
 72
     1
  1
\A1;P
  7
TXT
 73
     1
 44
1.0
  0
POINT
  5
C9F
330
C97
100
AcDbEntity
  8
DEFPOINTS
 62
     0
100
AcDbPoint
 10
55.76549603353345
 20
26.8050507226407
 30
0.0
  0
POINT
  5
CA0
330
C97
100
AcDbEntity
  8
DEFPOINTS
 62
     0
100
AcDbPoint
 10
54.58070865453354
 20
26.34445638186394
 30
0.0
  0
POINT
  5
CA1
330
C97
100
AcDbEntity
  8
DEFPOINTS
 62
     0
100
AcDbPoint
 10
54.58070865453354
 20
27.710485092245
 30
0.0
  0
ENDBLK
  5
CA3
330
C97
100
AcDbEntity
  8
0
100
AcDbBlockEnd
  0
ENDSEC
  0
SECTION
  2
ENTITIES
  0
LWPOLYLINE
  5
220
330
1E
100
AcDbEntity
  8
DIM
100
AcDbPolyline
 90
        4
 70
     0
 10
24.1036614567674
 20
26.22378064399557
 40
0.0
 41
0.30375
 10
24.61207187474198
 20
26.85435089931602
 40
0.0
 41
0.0
 10
30.30528736124826
 20
33.91552080457181
 40
0.0
 41
0.0
 10
31.11184055269625
 20
33.91552080457181
 40
0.0
 41
0.0
  0
TEXT
  5
226
330
1E
100
AcDbEntity
  8
DIM
100
AcDbText
 10
31.51511714842026
 20
33.63546761309681
 30
0.0
 40
0.5601063829500001
  1
0.575 [15] DIA. BOSS
 41
0.75
  7
TXT
 11
31.51511714842026
 21
33.91552080457181
 31
0.0
100
AcDbText
 73
     2
  0
LWPOLYLINE
  5
227
330
1E
100
AcDbEntity
  8
DIM
100
AcDbPolyline
 90
        4
 70
     0
 10
33.80860253052336
 20
12.28721818106724
 40
0.0
 41
0.30375
 10
34.28379848883373
 20
11.63125415674466
 40
0.0
 41
0.0
 10
35.37394814998306
 20
10.2361839500131
 40
0.0
 41
0.0
 10
36.18050134143107
 20
10.2361839500131
 40
0.0
 41
0.0
  0
LINE
  5
22D
330
1E
100
AcDbEntity
  8
CENTER
100
AcDbLine
 10
29.08484182203292
 20
27.06684272928188
 30
0.0
 11
29.08484182203292
 21
10.87091513853355
 31
0.0
  0
ARC
  5
22E
330
1E
100
AcDbEntity
  8
OBJECT
100
AcDbCircle
 10
23.87284182203291
 20
11.88537893390771
 30
0.0
 40
0.2875
100
AcDbArc
 50
215.1755004971478
 51
144.8244995028521
  0
CIRCLE
  5
22F
330
1E
100
AcDbEntity
  8
OBJECT
100
AcDbCircle
 10
24.60034182203292
 20
12.56837893390772
 30
0.0
 40
0.3625
  0
CIRCLE
  5
230
330
1E
100
AcDbEntity
  8
OBJECT
100
AcDbCircle
 10
28.59184182203291
 20
12.33637893390771
 30
0.0
 40
0.083
  0
CIRCLE
  5
231
330
1E
100
AcDbEntity
  8
OBJECT
100
AcDbCircle
 10
28.59184182203291
 20
12.33637893390771
 30
0.0
 40
0.238
  0
CIRCLE
  5
232
330
1E
100
AcDbEntity
  8
OBJECT
100
AcDbCircle
 10
29.57784182203291
 20
12.33637893390771
 30
0.0
 40
0.238
  0
CIRCLE
  5
233
330
1E
100
AcDbEntity
  8
OBJECT
100
AcDbCircle
 10
29.57784182203291
 20
12.33637893390771
 30
0.0
 40
0.083
  0
LINE
  5
234
330
1E
100
AcDbEntity
  8
OBJECT
100
AcDbLine
 10
34.53184182203287
 20
18.18147737390767
 30
0.0
 11
23.63784182203291
 21
18.18147737390767
 31
0.0
  0
LINE
  5
235
330
1E
100
AcDbEntity
  8
CENTER
100
AcDbLine
 10
22.83804834915567
 20
18.96887893390771
 30
0.0
 11
35.33163529491015
 21
18.96887893390771
 31
0.0
  0
LINE
  5
236
330
1E
100
AcDbEntity
  8
OBJECT
100
AcDbLine
 10
34.91828670503307
 20
13.3987529589078
 30
0.0
 11
34.94834182203291
 21
13.3987529589078
 31
0.0
  0
LINE
  5
237
330
1E
100
AcDbEntity
  8
OBJECT
100
AcDbLine
 10
34.91828670503307
 20
14.38300490890761
 30
0.0
 11
34.94834182203291
 21
14.38300490890761
 31
0.0
  0
LINE
  5
238
330
1E
100
AcDbEntity
  8
OBJECT
100
AcDbLine
 10
34.91828670503307
 20
14.38300490890761
 30
0.0
 11
34.91828670503307
 21
13.3987529589078
 31
0.0
  0
DIMENSION
  5
239
330
1E
100
AcDbEntity
  8
DIM
100
AcDbDimension
  2
*D5
 10
19.75922560264796
 20
26.80887893390771
 30
0.0
 11
19.75922560264796
 21
18.96887893390772
 31
0.0
 70
    32
  1
G
 71
     5
 42
15.67999999999999
  3
23NSTD
100
AcDbAlignedDimension
 13
23.65434182203291
 23
11.12887893390771
 33
0.0
 14
23.65434182203291
 24
26.80887893390771
 34
0.0
 50
90.0
100
AcDbRotatedDimension
  0
DIMENSION
  5
23A
330
1E
100
AcDbEntity
  8
DIM
100
AcDbDimension
  2
*D6
 10
34.94834182203291
 20
29.95397122887098
 30
0.0
 11
29.08484182203291
 21
29.95397122887098
 31
0.0
 70
    32
  1
A
 71
     5
 42
11.727
  3
23NSTD
100
AcDbAlignedDimension
 13
23.22134182203291
 23
26.37587893390772
 33
0.0
 14
34.94834182203291
 24
26.37587893390772
 34
0.0
 50
180.0
100
AcDbRotatedDimension
  0
DIMENSION
  5
23B
330
1E
100
AcDbEntity
  8
DIM
100
AcDbDimension
  2
*D7
 10
34.53184182203291
 20
28.82897122887097
 30
0.0
 11
29.08484182203291
 21
28.82897122887097
 31
0.0
 70
    32
  1
B
 71
     5
 42
10.894
  3
23NSTD
100
AcDbAlignedDimension
 13
23.63784182203291
 23
26.36800885590721
 33
0.0
 14
34.53184182203291
 24
26.36800885590721
 34
0.0
 50
180.0
100
AcDbRotatedDimension
  0
DIMENSION
  5
23C
330
1E
100
AcDbEntity
  8
DIM
100
AcDbDimension
  2
*D8
 10
37.18310907094231
 20
25.3693789339077
 30
0.0
 11
37.1831090709423
 21
18.96887893390771
 31
0.0
 70
    32
  1
L
 71
     5
 42
12.80099999999998
  3
23NSTD
100
AcDbAlignedDimension
 13
33.56934182203289
 23
12.56837893390772
 33
0.0
 14
33.56934182203289
 24
25.3693789339077
 34
0.0
 50
90.0
100
AcDbRotatedDimension
  0
DIMENSION
  5
23D
330
1E
100
AcDbEntity
  8
DIM
100
AcDbDimension
  2
*D9
 10
33.56934182203289
 20
9.102727476970601
 30
0.0
 11
29.08484182203291
 21
9.102727476970601
 31
0.0
 70
    32
  1
E
 71
     5
 42
8.968999999999969
  3
23NSTD
100
AcDbAlignedDimension
 13
24.60034182203292
 23
12.56837893390772
 33
0.0
 14
33.56934182203289
 24
12.56837893390772
 34
0.0
 50
180.0
100
AcDbRotatedDimension
  0
DIMENSION
  5
23E
330
1E
100
AcDbEntity
  8
DIM
100
AcDbDimension
  2
*D10
 10
34.29684182203291
 20
27.70397122887097
 30
0.0
 11
29.08484182203291
 21
27.70397122887097
 31
0.0
 70
    32
  1
C
 71
     5
 42
10.424
  3
23NSTD
100
AcDbAlignedDimension
 13
23.87284182203291
 23
26.05237893390772
 33
0.0
 14
34.29684182203291
 24
26.05237893390772
 34
0.0
100
AcDbRotatedDimension
  0
DIMENSION
  5
23F
330
1E
100
AcDbEntity
  8
DIM
100
AcDbDimension
  2
*D11
 10
20.88422560264797
 20
11.53037893390771
 30
0.0
 11
20.88422560264796
 21
18.96887893390772
 31
0.0
 70
    32
  1
H
 71
     5
 42
14.877
  3
23NSTD
100
AcDbAlignedDimension
 13
23.67721190003296
 23
26.40737893390771
 33
0.0
 14
23.67721190003296
 24
11.53037893390771
 34
0.0
 50
90.0
100
AcDbRotatedDimension
  0
DIMENSION
  5
240
330
1E
100
AcDbEntity
  8
DIM
100
AcDbDimension
  2
*D12
 10
38.3081090709423
 20
12.33637893390771
 30
0.0
 11
38.3081090709423
 21
18.96887893390772
 31
0.0
 70
    32
  1
K
 71
     5
 42
13.265
  3
23NSTD
100
AcDbAlignedDimension
 13
32.5358418220329
 23
25.60137893390772
 33
0.0
 14
32.5358418220329
 24
12.33637893390771
 34
0.0
 50
90.0
100
AcDbRotatedDimension
  0
DIMENSION
  5
241
330
1E
100
AcDbEntity
  8
DIM
100
AcDbDimension
  2
*D13
 10
36.0581090709423
 20
13.55487893390771
 30
0.0
 11
36.0581090709423
 21
18.96887893390772
 31
0.0
 70
    32
  1
M
 71
     5
 42
10.82799999999999
  3
23NSTD
100
AcDbAlignedDimension
 13
33.75234182203291
 23
24.38287893390771
 33
0.0
 14
33.75234182203291
 24
13.55487893390771
 34
0.0
 50
90.0
100
AcDbRotatedDimension
  0
DIMENSION
  5
242
330
1E
100
AcDbEntity
  8
DIM
100
AcDbDimension
  2
*D14
 10
32.5358418220329
 20
10.2277274769706
 30
0.0
 11
29.08484182203291
 21
10.2277274769706
 31
0.0
 70
    32
  1
F
 71
     5
 42
6.90199999999999
  3
23NSTD
100
AcDbAlignedDimension
 13
25.63384182203291
 23
12.33637893390771
 33
0.0
 14
32.5358418220329
 24
12.33637893390771
 34
0.0
100
AcDbRotatedDimension
  0
DIMENSION
  5
243
330
1E
100
AcDbEntity
  8
DIM
100
AcDbDimension
  2
*D15
 10
33.75234182203291
 20
7.977727476970601
 30
0.0
 11
29.08484182203291
 21
7.977727476970601
 31
0.0
 70
    32
  1
D
 71
     5
 42
9.335000000000004
  3
23NSTD
100
AcDbAlignedDimension
 13
24.41734182203291
 23
13.55487893390771
 33
0.0
 14
33.75234182203291
 24
13.55487893390771
 34
0.0
100
AcDbRotatedDimension
  0
DIMENSION
  5
244
330
1E
100
AcDbEntity
  8
DIM
100
AcDbDimension
  2
*D25
 10
54.58070865453354
 20
27.710485092245
 30
0.0
 11
55.1731023440335
 21
27.710485092245
 31
0.0
 70
    32
  1
P
 71
     5
 42
1.184787378999899
  3
23NSTDI
100
AcDbAlignedDimension
 13
55.76549603353345
 23
26.8050507226407
 33
0.0
 14
54.58070865453354
 24
26.34445638186394
 34
0.0
100
AcDbRotatedDimension
  0
LINE
  5
245
330
1E
100
AcDbEntity
  8
OBJECT
100
AcDbLine
 10
51.94428103644447
 20
14.69796553290799
 30
0.0
 11
51.94428103644448
 21
23.23979233490742
 31
0.0
  0
LINE
  5
246
330
1E
100
AcDbEntity
  8
CENTER
100
AcDbLine
 10
46.08078103644447
 20
10.77661771994683
 30
0.0
 11
46.08078103644447
 21
27.16114014786858
 31
0.0
  0
LINE
  5
247
330
1E
100
AcDbEntity
  8
CENTER
100
AcDbLine
 10
52.29654225040536
 20
18.96887893390771
 30
0.0
 11
39.86501982248361
 21
18.96887893390771
 31
0.0
  0
DIMENSION
  5
248
330
1E
100
AcDbEntity
  8
DIM
100
AcDbDimension
  2
*D16
 10
51.65428103644449
 20
28.30525864565188
 30
0.0
 11
46.08078103644446
 21
28.30525864565188
 31
0.0
 70
    32
  1
T
 71
     5
 42
11.14700000000006
  3
23NSTD
100
AcDbAlignedDimension
 13
40.50728103644443
 23
29.37789479421038
 33
0.0
 14
51.65428103644449
 24
29.37789479421038
 34
0.0
100
AcDbRotatedDimension
  0
LINE
  5
249
330
1E
100
AcDbEntity
  8
OBJECT
100
AcDbLine
 10
40.2802424407431
 20
30.69006452526805
 30
0.0
 11
51.88131963214583
 21
30.69006452526803
 31
0.0
  0
LINE
  5
24A
330
1E
100
AcDbEntity
  8
OBJECT
100
AcDbLine
 10
51.88333399466006
 20
30.09951335526779
 30
0.0
 11
40.27822807822889
 21
30.09951335526779
 31
0.0
  0
LINE
  5
24B
330
1E
100
AcDbEntity
  8
CENTER
100
AcDbLine
 10
46.08078103644447
 20
29.01190698627297
 30
0.0
 11
46.08078103644447
 21
35.84252971084179
 31
0.0
  0
LINE
  5
24C
330
1E
100
AcDbEntity
  8
OBJECT
100
AcDbLine
 10
52.10174962609567
 20
30.39478894026792
 30
0.0
 11
52.10174962609567
 21
30.58388675512021
 31
0.0
  0
LINE
  5
24D
330
1E
100
AcDbEntity
  8
OBJECT
100
AcDbLine
 10
52.21635760388189
 20
31.62005252886943
 30
0.0
 11
51.93641960192461
 21
30.76144766322649
 31
0.0
  0
LINE
  5
24E
330
1E
100
AcDbEntity
  8
OBJECT
100
AcDbLine
 10
51.93641960192461
 20
30.76144766322649
 30
0.0
 11
51.79909671692189
 21
30.69006452526805
 31
0.0
  0
ARC
  5
24F
330
1E
100
AcDbEntity
  8
OBJECT
100
AcDbCircle
 10
52.24048517936147
 20
31.60500035511584
 30
0.0
 40
0.0284377888245715
100
AcDbArc
 50
343.0362544530527
 51
148.0417053691257
  0
DIMENSION
  5
250
330
1E
100
AcDbEntity
  8
DIM
100
AcDbDimension
  2
*D17
 10
51.62578103644449
 20
36.60036330359371
 30
0.0
 11
46.08078103644447
 21
36.60036330359371
 31
0.0
 70
    32
  1
U
 71
     5
 42
11.09000000000001
  3
23NSTD
100
AcDbAlignedDimension
 13
40.53578103644446
 23
35.50489909426857
 33
0.0
 14
51.62578103644449
 24
35.50489909426857
 34
0.0
100
AcDbRotatedDimension
  0
DIMENSION
  5
251
330
1E
100
AcDbEntity
  8
DIM
100
AcDbDimension
  2
*D18
 10
60.87560618753408
 20
27.710485092245
 30
0.0
 11
58.32055111053376
 21
27.710485092245
 31
0.0
 70
    32
  1
N
 71
     5
 42
5.110110154000636
  3
23NSTD
100
AcDbAlignedDimension
 13
55.76549603353345
 23
26.80505068464079
 33
0.0
 14
60.87560618753408
 24
26.48637893390771
 34
0.0
100
AcDbRotatedDimension
  0
DIMENSION
  5
252
330
1E
100
AcDbEntity
  8
DIM
100
AcDbDimension
  2
*D19
 10
60.74160618753408
 20
13.95760315265628
 30
0.0
 11
65.89551243753408
 21
13.95760315265628
 31
0.0
 70
    32
  1
<> (INSIDE)
 71
     5
 42
0.2760000000000105
  3
23NSTD
100
AcDbAlignedDimension
 13
60.46560618753407
 23
13.66635710723189
 33
0.0
 14
60.74160618753408
 24
13.95760315265628
 34
0.0
100
AcDbRotatedDimension
  0
DIMENSION
  5
253
330
1E
100
AcDbEntity
  8
DIM
100
AcDbDimension
  2
*D4
 10
26.61984182203291
 20
15.02962998759929
 30
0.0
 11
29.77278230140538
 21
15.02962998759929
 31
0.0
 70
   160
  1
W TYP.
 71
     5
 42
0.9859999999999971
  3
23NSTD
100
AcDbAlignedDimension
 13
25.63384182203291
 23
12.33637893390771
 33
0.0
 14
26.61984182203291
 24
12.33637893390771
 34
0.0
 50
180.0
100
AcDbRotatedDimension
  0
DIMENSION
  5
254
330
1E
100
AcDbEntity
  8
DIM
100
AcDbDimension
  2
*D3
 10
30.85433283349451
 20
23.3968789339077
 30
0.0
 11
30.85433283349451
 21
23.88987893390771
 31
0.0
 70
   160
  1
V TYP.
 71
     5
 42
0.9860000000000042
  3
23NSTDI
100
AcDbAlignedDimension
 13
33.75234182203291
 23
24.38287893390771
 33
0.0
 14
33.75234182203291
 24
23.3968789339077
 34
0.0
 50
90.0
100
AcDbRotatedDimension
  0
TEXT
  5
255
330
1E
100
AcDbEntity
  8
TEXT
100
AcDbText
 10
19.66836233349924
 20
1.43762762123142
 30
0.0
 40
0.5220000000000001
  1
11.727
 41
0.75
  7
TXT
 72
     4
 11
20.51661233349924
 21
1.69862762123142
 31
0.0
100
AcDbText
  0
TEXT
  5
256
330
1E
100
AcDbEntity
  8
TEXT
100
AcDbText
 10
19.73361233349924
 20
0.5011990498028505
 30
0.0
 40
0.5220000000000001
  1
[298]
 41
0.75
  7
TXT
 72
     4
 11
20.51661233349924
 21
0.7621990498028506
 31
0.0
100
AcDbText
  0
TEXT
  5
257
330
1E
100
AcDbEntity
  8
TEXT
100
AcDbText
 10
22.26992594971237
 20
0.5011990498028505
 30
0.0
 40
0.5220000000000001
  1
[277]
 41
0.75
  7
TXT
 72
     4
 11
23.05292594971237
 21
0.7621990498028506
 31
0.0
100
AcDbText
  0
TEXT
  5
258
330
1E
100
AcDbEntity
  8
TEXT
100
AcDbText
 10
22.17205094971237
 20
1.43762762123142
 30
0.0
 40
0.5220000000000001
  1
10.894
 41
0.75
  7
TXT
 72
     4
 11
23.05292594971237
 21
1.69862762123142
 31
0.0
100
AcDbText
  0
TEXT
  5
259
330
1E
100
AcDbEntity
  8
TEXT
100
AcDbText
 10
24.65428638974626
 20
1.43762762123142
 30
0.0
 40
0.5220000000000001
  1
10.424
 41
0.75
  7
TXT
 72
     4
 11
25.53516138974626
 21
1.69862762123142
 31
0.0
100
AcDbText
  0
TEXT
  5
25A
330
1E
100
AcDbEntity
  8
TEXT
100
AcDbText
 10
24.75216138974626
 20
0.5011990498028487
 30
0.0
 40
0.5220000000000001
  1
[265]
 41
0.75
  7
TXT
 72
     4
 11
25.53516138974626
 21
0.7621990498028488
 31
0.0
100
AcDbText
  0
TEXT
  5
25B
330
1E
100
AcDbEntity
  8
TEXT
100
AcDbText
 10
27.31895291399749
 20
0.5011990498028487
 30
0.0
 40
0.5220000000000001
  1
[237]
 41
0.75
  7
TXT
 72
     4
 11
28.10195291399749
 21
0.7621990498028488
 31
0.0
100
AcDbText
  0
TEXT
  5
25C
330
1E
100
AcDbEntity
  8
TEXT
100
AcDbText
 10
27.31895291399749
 20
1.43762762123142
 30
0.0
 40
0.5220000000000001
  1
9.335
 41
0.75
  7
TXT
 72
     4
 11
28.10195291399749
 21
1.69862762123142
 31
0.0
100
AcDbText
  0
TEXT
  5
25D
330
1E
100
AcDbEntity
  8
TEXT
100
AcDbText
 10
29.80754929508195
 20
1.43762762123142
 30
0.0
 40
0.5220000000000001
  1
8.969
 41
0.75
  7
TXT
 72
     4
 11
30.59054929508195
 21
1.69862762123142
 31
0.0
100
AcDbText
  0
TEXT
  5
25E
330
1E
100
AcDbEntity
  8
TEXT
100
AcDbText
 10
29.80754929508195
 20
0.5011990498028487
 30
0.0
 40
0.5220000000000001
  1
[228]
 41
0.75
  7
TXT
 72
     4
 11
30.59054929508195
 21
0.7621990498028488
 31
0.0
100
AcDbText
  0
TEXT
  5
25F
330
1E
100
AcDbEntity
  8
TEXT
100
AcDbText
 10
32.32477077325102
 20
1.43762762123142
 30
0.0
 40
0.5220000000000001
  1
6.902
 41
0.75
  7
TXT
 72
     4
 11
33.07514577325102
 21
1.69862762123142
 31
0.0
100
AcDbText
  0
TEXT
  5
260
330
1E
100
AcDbEntity
  8
TEXT
100
AcDbText
 10
32.35739577325102
 20
0.5011990498028488
 30
0.0
 40
0.5220000000000001
  1
[175]
 41
0.75
  7
TXT
 72
     4
 11
33.07514577325102
 21
0.7621990498028488
 31
0.0
100
AcDbText
  0
TEXT
  5
261
330
1E
100
AcDbEntity
  8
TEXT
100
AcDbText
 10
34.69950663463127
 20
1.43762762123142
 30
0.0
 40
0.5220000000000001
  1
15.680
 41
0.75
  7
TXT
 72
     4
 11
35.58038163463128
 21
1.69862762123142
 31
0.0
100
AcDbText
  0
TEXT
  5
262
330
1E
100
AcDbEntity
  8
TEXT
100
AcDbText
 10
34.79738163463128
 20
0.5011990498028487
 30
0.0
 40
0.5220000000000001
  1
[398]
 41
0.75
  7
TXT
 72
     4
 11
35.58038163463128
 21
0.7621990498028488
 31
0.0
100
AcDbText
  0
TEXT
  5
263
330
1E
100
AcDbEntity
  8
TEXT
100
AcDbText
 10
37.18956927828386
 20
1.43762762123142
 30
0.0
 40
0.5220000000000001
  1
14.877
 41
0.75
  7
TXT
 72
     4
 11
38.10306927828387
 21
1.69862762123142
 31
0.0
100
AcDbText
  0
TEXT
  5
264
330
1E
100
AcDbEntity
  8
TEXT
100
AcDbText
 10
37.32006927828386
 20
0.5011990498028487
 30
0.0
 40
0.5220000000000001
  1
[378]
 41
0.75
  7
TXT
 72
     4
 11
38.10306927828387
 21
0.7621990498028488
 31
0.0
100
AcDbText
  0
TEXT
  5
265
330
1E
100
AcDbEntity
  8
TEXT
100
AcDbText
 10
39.77077361047171
 20
1.43762762123142
 30
0.0
 40
0.5220000000000001
  1
14.167
 41
0.75
  7
TXT
 72
     4
 11
40.61902361047171
 21
1.69862762123142
 31
0.0
100
AcDbText
  0
TEXT
  5
266
330
1E
100
AcDbEntity
  8
TEXT
100
AcDbText
 10
39.86864861047171
 20
0.5011990498028487
 30
0.0
 40
0.5220000000000001
  1
[360]
 41
0.75
  7
TXT
 72
     4
 11
40.61902361047171
 21
0.7621990498028488
 31
0.0
100
AcDbText
  0
TEXT
  5
267
330
1E
100
AcDbEntity
  8
TEXT
100
AcDbText
 10
42.15827465255808
 20
1.43762762123142
 30
0.0
 40
0.5220000000000001
  1
13.265
 41
0.75
  7
TXT
 72
     4
 11
43.07177465255809
 21
1.69862762123142
 31
0.0
100
AcDbText
  0
TEXT
  5
268
330
1E
100
AcDbEntity
  8
TEXT
100
AcDbText
 10
42.28877465255808
 20
0.5011990498028487
 30
0.0
 40
0.5220000000000001
  1
[337]
 41
0.75
  7
TXT
 72
     4
 11
43.07177465255809
 21
0.7621990498028488
 31
0.0
100
AcDbText
  0
TEXT
  5
269
330
1E
100
AcDbEntity
  8
TEXT
100
AcDbText
 10
44.79894236155097
 20
1.43762762123142
 30
0.0
 40
0.5220000000000001
  1
12.801
 41
0.75
  7
TXT
 72
     4
 11
45.61456736155096
 21
1.69862762123142
 31
0.0
100
AcDbText
  0
TEXT
  5
26A
330
1E
100
AcDbEntity
  8
TEXT
100
AcDbText
 10
44.83156736155097
 20
0.5011990498028487
 30
0.0
 40
0.5220000000000001
  1
[325]
 41
0.75
  7
TXT
 72
     4
 11
45.61456736155096
 21
0.7621990498028488
 31
0.0
100
AcDbText
  0
TEXT
  5
26B
330
1E
100
AcDbEntity
  8
TEXT
100
AcDbText
 10
47.22213669068475
 20
1.43762762123142
 30
0.0
 40
0.5220000000000001
  1
10.828
 41
0.75
  7
TXT
 72
     4
 11
48.10301169068475
 21
1.69862762123142
 31
0.0
100
AcDbText
  0
TEXT
  5
26C
330
1E
100
AcDbEntity
  8
TEXT
100
AcDbText
 10
47.32001169068475
 20
0.5011990498028487
 30
0.0
 40
0.5220000000000001
  1
[275]
 41
0.75
  7
TXT
 72
     4
 11
48.10301169068475
 21
0.7621990498028488
 31
0.0
100
AcDbText
  0
TEXT
  5
26D
330
1E
100
AcDbEntity
  8
TEXT
100
AcDbText
 10
50.08379099856699
 20
1.43762762123142
 30
0.0
 40
0.5220000000000001
  1
5.110
 41
0.75
  7
TXT
 72
     4
 11
50.70366599856699
 21
1.69862762123142
 31
0.0
100
AcDbText
  0
TEXT
  5
26E
330
1E
100
AcDbEntity
  8
TEXT
100
AcDbText
 10
50.01854099856699
 20
0.5011990498028487
 30
0.0
 40
0.5220000000000001
  1
[130]
 41
0.75
  7
TXT
 72
     4
 11
50.70366599856699
 21
0.7621990498028488
 31
0.0
100
AcDbText
  0
TEXT
  5
26F
330
1E
100
AcDbEntity
  8
TEXT
100
AcDbText
 10
52.54125250576719
 20
1.43762762123142
 30
0.0
 40
0.5220000000000001
  1
1.185
 41
0.75
  7
TXT
 72
     4
 11
53.19375250576719
 21
1.69862762123142
 31
0.0
100
AcDbText
  0
TEXT
  5
270
330
1E
100
AcDbEntity
  8
TEXT
100
AcDbText
 10
52.63912750576719
 20
0.5011990498028487
 30
0.0
 40
0.5220000000000001
  1
[30]
 41
0.75
  7
TXT
 72
     4
 11
53.19375250576719
 21
0.7621990498028488
 31
0.0
100
AcDbText
  0
TEXT
  5
271
330
1E
100
AcDbEntity
  8
TEXT
100
AcDbText
 10
54.85708393306741
 20
1.43762762123142
 30
0.0
 40
0.5220000000000001
  1
15.105
 41
0.75
  7
TXT
 72
     4
 11
55.67270893306741
 21
1.69862762123142
 31
0.0
100
AcDbText
  0
TEXT
  5
272
330
1E
100
AcDbEntity
  8
TEXT
100
AcDbText
 10
54.88970893306741
 20
0.5011990498028487
 30
0.0
 40
0.5220000000000001
  1
[384]
 41
0.75
  7
TXT
 72
     4
 11
55.67270893306741
 21
0.7621990498028488
 31
0.0
100
AcDbText
  0
TEXT
  5
273
330
1E
100
AcDbEntity
  8
TEXT
100
AcDbText
 10
57.30424177224915
 20
1.43762762123142
 30
0.0
 40
0.5220000000000001
  1
15.035
 41
0.75
  7
TXT
 72
     4
 11
58.18511677224916
 21
1.69862762123142
 31
0.0
100
AcDbText
  0
TEXT
  5
274
330
1E
100
AcDbEntity
  8
TEXT
100
AcDbText
 10
57.40211677224916
 20
0.5011990498028487
 30
0.0
 40
0.5220000000000001
  1
[382]
 41
0.75
  7
TXT
 72
     4
 11
58.18511677224916
 21
0.7621990498028488
 31
0.0
100
AcDbText
  0
TEXT
  5
275
330
1E
100
AcDbEntity
  8
TEXT
100
AcDbText
 10
59.96057802771651
 20
1.43762762123142
 30
0.0
 40
0.5220000000000001
  1
11.147
 41
0.75
  7
TXT
 72
     4
 11
60.7435780277165
 21
1.69862762123142
 31
0.0
100
AcDbText
  0
TEXT
  5
276
330
1E
100
AcDbEntity
  8
TEXT
100
AcDbText
 10
59.96057802771651
 20
0.5011990498028487
 30
0.0
 40
0.5220000000000001
  1
[283]
 41
0.75
  7
TXT
 72
     4
 11
60.7435780277165
 21
0.7621990498028488
 31
0.0
100
AcDbText
  0
TEXT
  5
277
330
1E
100
AcDbEntity
  8
TEXT
100
AcDbText
 10
62.4130176529956
 20
1.43762762123142
 30
0.0
 40
0.5220000000000001
  1
11.090
 41
0.75
  7
TXT
 72
     4
 11
63.19601765299561
 21
1.69862762123142
 31
0.0
100
AcDbText
  0
TEXT
  5
278
330
1E
100
AcDbEntity
  8
TEXT
100
AcDbText
 10
62.4130176529956
 20
0.5011990498028487
 30
0.0
 40
0.5220000000000001
  1
[282]
 41
0.75
  7
TXT
 72
     4
 11
63.19601765299561
 21
0.7621990498028488
 31
0.0
100
AcDbText
  0
DIMENSION
  5
279
330
1E
100
AcDbEntity
  8
DIM
100
AcDbDimension
  2
*D20
 10
22.00922560264797
 20
11.88537893390771
 30
0.0
 11
22.00922560264796
 21
18.96887893390772
 31
0.0
 70
    32
  1
J
 71
     5
 42
14.16700000000001
  3
23NSTD
100
AcDbAlignedDimension
 13
23.87284182203291
 23
26.05237893390772
 33
0.0
 14
23.87284182203291
 24
11.88537893390771
 34
0.0
 50
90.0
100
AcDbRotatedDimension
  0
CIRCLE
  5
27A
330
1E
100
AcDbEntity
  8
OBJECT
100
AcDbCircle
 10
27.60584182203292
 20
12.33637893390771
 30
0.0
 40
0.083
  0
CIRCLE
  5
27B
330
1E
100
AcDbEntity
  8
OBJECT
100
AcDbCircle
 10
27.60584182203292
 20
12.33637893390771
 30
0.0
 40
0.238
  0
CIRCLE
  5
27C
330
1E
100
AcDbEntity
  8
OBJECT
100
AcDbCircle
 10
26.61984182203291
 20
12.33637893390771
 30
0.0
 40
0.083
  0
CIRCLE
  5
27D
330
1E
100
AcDbEntity
  8
OBJECT
100
AcDbCircle
 10
26.61984182203291
 20
12.33637893390771
 30
0.0
 40
0.238
  0
CIRCLE
  5
27E
330
1E
100
AcDbEntity
  8
OBJECT
100
AcDbCircle
 10
25.63384182203291
 20
12.33637893390771
 30
0.0
 40
0.083
  0
CIRCLE
  5
27F
330
1E
100
AcDbEntity
  8
OBJECT
100
AcDbCircle
 10
25.63384182203291
 20
12.33637893390771
 30
0.0
 40
0.238
  0
CIRCLE
  5
280
330
1E
100
AcDbEntity
  8
OBJECT
100
AcDbCircle
 10
30.56384182203291
 20
12.33637893390771
 30
0.0
 40
0.238
  0
CIRCLE
  5
281
330
1E
100
AcDbEntity
  8
OBJECT
100
AcDbCircle
 10
30.56384182203291
 20
12.33637893390771
 30
0.0
 40
0.083
  0
CIRCLE
  5
282
330
1E
100
AcDbEntity
  8
OBJECT
100
AcDbCircle
 10
31.54984182203292
 20
12.33637893390771
 30
0.0
 40
0.238
  0
CIRCLE
  5
283
330
1E
100
AcDbEntity
  8
OBJECT
100
AcDbCircle
 10
31.54984182203292
 20
12.33637893390771
 30
0.0
 40
0.083
  0
CIRCLE
  5
284
330
1E
100
AcDbEntity
  8
OBJECT
100
AcDbCircle
 10
32.5358418220329
 20
12.33637893390771
 30
0.0
 40
0.238
  0
CIRCLE
  5
285
330
1E
100
AcDbEntity
  8
OBJECT
100
AcDbCircle
 10
32.5358418220329
 20
12.33637893390771
 30
0.0
 40
0.083
  0
CIRCLE
  5
286
330
1E
100
AcDbEntity
  8
OBJECT
100
AcDbCircle
 10
24.41734182203291
 20
13.55487893390771
 30
0.0
 40
0.238
  0
CIRCLE
  5
287
330
1E
100
AcDbEntity
  8
OBJECT
100
AcDbCircle
 10
24.41734182203291
 20
13.55487893390771
 30
0.0
 40
0.083
  0
CIRCLE
  5
288
330
1E
100
AcDbEntity
  8
OBJECT
100
AcDbCircle
 10
24.41734182203291
 20
15.52687893390771
 30
0.0
 40
0.238
  0
CIRCLE
  5
289
330
1E
100
AcDbEntity
  8
OBJECT
100
AcDbCircle
 10
24.41734182203291
 20
14.54087893390771
 30
0.0
 40
0.238
  0
CIRCLE
  5
28A
330
1E
100
AcDbEntity
  8
OBJECT
100
AcDbCircle
 10
24.41734182203291
 20
14.54087893390771
 30
0.0
 40
0.083
  0
CIRCLE
  5
28B
330
1E
100
AcDbEntity
  8
OBJECT
100
AcDbCircle
 10
24.41734182203291
 20
15.52687893390771
 30
0.0
 40
0.083
  0
CIRCLE
  5
28C
330
1E
100
AcDbEntity
  8
OBJECT
100
AcDbCircle
 10
24.41734182203291
 20
16.51287893390771
 30
0.0
 40
0.083
  0
CIRCLE
  5
28D
330
1E
100
AcDbEntity
  8
OBJECT
100
AcDbCircle
 10
24.41734182203291
 20
16.51287893390771
 30
0.0
 40
0.238
  0
CIRCLE
  5
28E
330
1E
100
AcDbEntity
  8
OBJECT
100
AcDbCircle
 10
24.41734182203291
 20
17.49887893390772
 30
0.0
 40
0.238
  0
CIRCLE
  5
28F
330
1E
100
AcDbEntity
  8
OBJECT
100
AcDbCircle
 10
24.41734182203291
 20
17.49887893390772
 30
0.0
 40
0.083
  0
CIRCLE
  5
290
330
1E
100
AcDbEntity
  8
OBJECT
100
AcDbCircle
 10
33.75234182203291
 20
14.54087893390771
 30
0.0
 40
0.238
  0
CIRCLE
  5
291
330
1E
100
AcDbEntity
  8
OBJECT
100
AcDbCircle
 10
33.75234182203291
 20
14.54087893390771
 30
0.0
 40
0.083
  0
CIRCLE
  5
292
330
1E
100
AcDbEntity
  8
OBJECT
100
AcDbCircle
 10
33.75234182203291
 20
13.55487893390771
 30
0.0
 40
0.083
  0
CIRCLE
  5
293
330
1E
100
AcDbEntity
  8
OBJECT
100
AcDbCircle
 10
33.75234182203291
 20
13.55487893390771
 30
0.0
 40
0.238
  0
CIRCLE
  5
294
330
1E
100
AcDbEntity
  8
OBJECT
100
AcDbCircle
 10
33.75234182203291
 20
16.51287893390771
 30
0.0
 40
0.238
  0
CIRCLE
  5
295
330
1E
100
AcDbEntity
  8
OBJECT
100
AcDbCircle
 10
33.75234182203291
 20
16.51287893390771
 30
0.0
 40
0.083
  0
CIRCLE
  5
296
330
1E
100
AcDbEntity
  8
OBJECT
100
AcDbCircle
 10
33.75234182203291
 20
15.52687893390771
 30
0.0
 40
0.238
  0
CIRCLE
  5
297
330
1E
100
AcDbEntity
  8
OBJECT
100
AcDbCircle
 10
33.75234182203291
 20
15.52687893390771
 30
0.0
 40
0.083
  0
CIRCLE
  5
298
330
1E
100
AcDbEntity
  8
OBJECT
100
AcDbCircle
 10
33.75234182203291
 20
17.49887893390772
 30
0.0
 40
0.238
  0
CIRCLE
  5
299
330
1E
100
AcDbEntity
  8
OBJECT
100
AcDbCircle
 10
33.75234182203291
 20
17.49887893390772
 30
0.0
 40
0.083
  0
CIRCLE
  5
29A
330
1E
100
AcDbEntity
  8
HIDDEN
100
AcDbCircle
 10
24.60034182203292
 20
12.56837893390772
 30
0.0
 40
0.095
  0
CIRCLE
  5
29B
330
1E
100
AcDbEntity
  8
OBJECT
100
AcDbCircle
 10
24.60034182203292
 20
12.56837893390772
 30
0.0
 40
0.0825
  0
CIRCLE
  5
29E
330
1E
100
AcDbEntity
  8
OBJECT
100
AcDbCircle
 10
33.56934182203289
 20
12.56837893390772
 30
0.0
 40
0.3625
  0
CIRCLE
  5
29F
330
1E
100
AcDbEntity
  8
OBJECT
100
AcDbCircle
 10
33.56934182203289
 20
12.56837893390772
 30
0.0
 40
0.0825
  0
CIRCLE
  5
2A0
330
1E
100
AcDbEntity
  8
HIDDEN
100
AcDbCircle
 10
33.56934182203289
 20
12.56837893390772
 30
0.0
 40
0.095
  0
ARC
  5
2A3
330
1E
100
AcDbEntity
  8
OBJECT
100
AcDbCircle
 10
34.29684182203291
 20
11.88537893390771
 30
0.0
 40
0.2875
100
AcDbArc
 50
35.17550049714729
 51
324.8244995028527
  0
LINE
  5
2A4
330
1E
100
AcDbEntity
  8
OBJECT
100
AcDbLine
 10
34.91828670503307
 20
23.5547529589078
 30
0.0
 11
34.91828670503307
 21
24.53900490890762
 31
0.0
  0
CIRCLE
  5
2A5
330
1E
100
AcDbEntity
  8
OBJECT
100
AcDbCircle
 10
24.60034182203292
 20
25.3693789339077
 30
0.0
 40
0.3625
  0
ARC
  5
2A8
330
1E
100
AcDbEntity
  8
OBJECT
100
AcDbCircle
 10
23.87284182203291
 20
26.05237893390772
 30
0.0
 40
0.2875
100
AcDbArc
 50
215.1755004971476
 51
144.8244995028524
  0
CIRCLE
  5
2A9
330
1E
100
AcDbEntity
  8
OBJECT
100
AcDbCircle
 10
24.60034182203292
 20
25.3693789339077
 30
0.0
 40
0.0825
  0
CIRCLE
  5
2AA
330
1E
100
AcDbEntity
  8
HIDDEN
100
AcDbCircle
 10
24.60034182203292
 20
25.3693789339077
 30
0.0
 40
0.095
  0
CIRCLE
  5
2AB
330
1E
100
AcDbEntity
  8
OBJECT
100
AcDbCircle
 10
25.63384182203291
 20
25.60137893390772
 30
0.0
 40
0.083
  0
CIRCLE
  5
2AC
330
1E
100
AcDbEntity
  8
OBJECT
100
AcDbCircle
 10
25.63384182203291
 20
25.60137893390772
 30
0.0
 40
0.238
  0
CIRCLE
  5
2AD
330
1E
100
AcDbEntity
  8
OBJECT
100
AcDbCircle
 10
27.60584182203292
 20
25.60137893390772
 30
0.0
 40
0.238
  0
CIRCLE
  5
2AE
330
1E
100
AcDbEntity
  8
OBJECT
100
AcDbCircle
 10
26.61984182203291
 20
25.60137893390772
 30
0.0
 40
0.238
  0
CIRCLE
  5
2AF
330
1E
100
AcDbEntity
  8
OBJECT
100
AcDbCircle
 10
26.61984182203291
 20
25.60137893390772
 30
0.0
 40
0.083
  0
CIRCLE
  5
2B0
330
1E
100
AcDbEntity
  8
OBJECT
100
AcDbCircle
 10
27.60584182203292
 20
25.60137893390772
 30
0.0
 40
0.083
  0
CIRCLE
  5
2B1
330
1E
100
AcDbEntity
  8
OBJECT
100
AcDbCircle
 10
28.59184182203291
 20
25.60137893390772
 30
0.0
 40
0.238
  0
CIRCLE
  5
2B2
330
1E
100
AcDbEntity
  8
OBJECT
100
AcDbCircle
 10
28.59184182203291
 20
25.60137893390772
 30
0.0
 40
0.083
  0
CIRCLE
  5
2B3
330
1E
100
AcDbEntity
  8
OBJECT
100
AcDbCircle
 10
30.56384182203291
 20
25.60137893390772
 30
0.0
 40
0.238
  0
CIRCLE
  5
2B4
330
1E
100
AcDbEntity
  8
OBJECT
100
AcDbCircle
 10
30.56384182203291
 20
25.60137893390772
 30
0.0
 40
0.083
  0
CIRCLE
  5
2B5
330
1E
100
AcDbEntity
  8
OBJECT
100
AcDbCircle
 10
29.57784182203291
 20
25.60137893390772
 30
0.0
 40
0.238
  0
CIRCLE
  5
2B6
330
1E
100
AcDbEntity
  8
OBJECT
100
AcDbCircle
 10
29.57784182203291
 20
25.60137893390772
 30
0.0
 40
0.083
  0
CIRCLE
  5
2B7
330
1E
100
AcDbEntity
  8
OBJECT
100
AcDbCircle
 10
31.54984182203292
 20
25.60137893390772
 30
0.0
 40
0.238
  0
CIRCLE
  5
2B8
330
1E
100
AcDbEntity
  8
OBJECT
100
AcDbCircle
 10
31.54984182203292
 20
25.60137893390772
 30
0.0
 40
0.083
  0
CIRCLE
  5
2B9
330
1E
100
AcDbEntity
  8
HIDDEN
100
AcDbCircle
 10
33.56934182203289
 20
25.3693789339077
 30
0.0
 40
0.095
  0
CIRCLE
  5
2BA
330
1E
100
AcDbEntity
  8
OBJECT
100
AcDbCircle
 10
33.56934182203289
 20
25.3693789339077
 30
0.0
 40
0.0825
  0
CIRCLE
  5
2BB
330
1E
100
AcDbEntity
  8
OBJECT
100
AcDbCircle
 10
33.56934182203289
 20
25.3693789339077
 30
0.0
 40
0.3625
  0
CIRCLE
  5
2BC
330
1E
100
AcDbEntity
  8
OBJECT
100
AcDbCircle
 10
32.5358418220329
 20
25.60137893390772
 30
0.0
 40
0.238
  0
CIRCLE
  5
2BD
330
1E
100
AcDbEntity
  8
OBJECT
100
AcDbCircle
 10
32.5358418220329
 20
25.60137893390772
 30
0.0
 40
0.083
  0
ARC
  5
2BE
330
1E
100
AcDbEntity
  8
OBJECT
100
AcDbCircle
 10
34.29684182203291
 20
26.05237893390772
 30
0.0
 40
0.2875
100
AcDbArc
 50
35.17550049714758
 51
324.8244995028524
  0
LINE
  5
2C1
330
1E
100
AcDbEntity
  8
OBJECT
100
AcDbLine
 10
34.91828670503307
 20
24.53900490890762
 30
0.0
 11
34.94834182203291
 21
24.53900490890762
 31
0.0
  0
CIRCLE
  5
2C2
330
1E
100
AcDbEntity
  8
OBJECT
100
AcDbCircle
 10
24.41734182203291
 20
23.3968789339077
 30
0.0
 40
0.238
  0
CIRCLE
  5
2C3
330
1E
100
AcDbEntity
  8
OBJECT
100
AcDbCircle
 10
24.41734182203291
 20
23.3968789339077
 30
0.0
 40
0.083
  0
CIRCLE
  5
2C4
330
1E
100
AcDbEntity
  8
OBJECT
100
AcDbCircle
 10
24.41734182203291
 20
24.38287893390771
 30
0.0
 40
0.083
  0
CIRCLE
  5
2C5
330
1E
100
AcDbEntity
  8
OBJECT
100
AcDbCircle
 10
24.41734182203291
 20
24.38287893390771
 30
0.0
 40
0.238
  0
CIRCLE
  5
2C6
330
1E
100
AcDbEntity
  8
OBJECT
100
AcDbCircle
 10
24.41734182203291
 20
21.42487893390771
 30
0.0
 40
0.238
  0
CIRCLE
  5
2C7
330
1E
100
AcDbEntity
  8
OBJECT
100
AcDbCircle
 10
24.41734182203291
 20
21.42487893390771
 30
0.0
 40
0.083
  0
CIRCLE
  5
2C8
330
1E
100
AcDbEntity
  8
OBJECT
100
AcDbCircle
 10
24.41734182203291
 20
22.4108789339077
 30
0.0
 40
0.238
  0
CIRCLE
  5
2C9
330
1E
100
AcDbEntity
  8
OBJECT
100
AcDbCircle
 10
24.41734182203291
 20
22.4108789339077
 30
0.0
 40
0.083
  0
CIRCLE
  5
2CA
330
1E
100
AcDbEntity
  8
OBJECT
100
AcDbCircle
 10
24.41734182203291
 20
20.4388789339077
 30
0.0
 40
0.238
  0
CIRCLE
  5
2CB
330
1E
100
AcDbEntity
  8
OBJECT
100
AcDbCircle
 10
24.41734182203291
 20
20.4388789339077
 30
0.0
 40
0.083
  0
LINE
  5
2CC
330
1E
100
AcDbEntity
  8
OBJECT
100
AcDbLine
 10
23.63784182203293
 20
19.75628049390774
 30
0.0
 11
34.53184182203291
 21
19.75628049390774
 31
0.0
  0
CIRCLE
  5
2CD
330
1E
100
AcDbEntity
  8
OBJECT
100
AcDbCircle
 10
33.75234182203291
 20
24.38287893390771
 30
0.0
 40
0.238
  0
CIRCLE
  5
2CE
330
1E
100
AcDbEntity
  8
OBJECT
100
AcDbCircle
 10
33.75234182203291
 20
23.3968789339077
 30
0.0
 40
0.238
  0
CIRCLE
  5
2CF
330
1E
100
AcDbEntity
  8
OBJECT
100
AcDbCircle
 10
33.75234182203291
 20
24.38287893390771
 30
0.0
 40
0.083
  0
LINE
  5
2D0
330
1E
100
AcDbEntity
  8
OBJECT
100
AcDbLine
 10
34.91828670503307
 20
23.5547529589078
 30
0.0
 11
34.94834182203291
 21
23.5547529589078
 31
0.0
  0
CIRCLE
  5
2D1
330
1E
100
AcDbEntity
  8
OBJECT
100
AcDbCircle
 10
33.75234182203291
 20
23.3968789339077
 30
0.0
 40
0.083
  0
CIRCLE
  5
2D2
330
1E
100
AcDbEntity
  8
OBJECT
100
AcDbCircle
 10
33.75234182203291
 20
22.4108789339077
 30
0.0
 40
0.238
  0
CIRCLE
  5
2D3
330
1E
100
AcDbEntity
  8
OBJECT
100
AcDbCircle
 10
33.75234182203291
 20
21.42487893390771
 30
0.0
 40
0.238
  0
CIRCLE
  5
2D4
330
1E
100
AcDbEntity
  8
OBJECT
100
AcDbCircle
 10
33.75234182203291
 20
22.4108789339077
 30
0.0
 40
0.083
  0
CIRCLE
  5
2D5
330
1E
100
AcDbEntity
  8
OBJECT
100
AcDbCircle
 10
33.75234182203291
 20
21.42487893390771
 30
0.0
 40
0.083
  0
CIRCLE
  5
2D6
330
1E
100
AcDbEntity
  8
OBJECT
100
AcDbCircle
 10
33.75234182203291
 20
20.4388789339077
 30
0.0
 40
0.238
  0
CIRCLE
  5
2D7
330
1E
100
AcDbEntity
  8
OBJECT
100
AcDbCircle
 10
33.75234182203291
 20
20.4388789339077
 30
0.0
 40
0.083
  0
LINE
  5
2D8
330
1E
100
AcDbEntity
  8
OBJECT
100
AcDbLine
 10
23.65434182203291
 20
11.12887893390771
 30
0.0
 11
34.51534182203291
 21
11.12887893390771
 31
0.0
  0
LINE
  5
2D9
330
1E
100
AcDbEntity
  8
OBJECT
100
AcDbLine
 10
23.65434182203291
 20
26.80887893390771
 30
0.0
 11
34.51534182203291
 21
26.80887893390771
 31
0.0
  0
LINE
  5
2DA
330
1E
100
AcDbEntity
  8
OBJECT
100
AcDbLine
 10
23.22134182203291
 20
26.37587893390772
 30
0.0
 11
23.22134182203291
 21
25.97557656371122
 31
0.0
  0
LINE
  5
2DB
330
1E
100
AcDbEntity
  8
OBJECT
100
AcDbLine
 10
34.94834182203291
 20
26.37587893390772
 30
0.0
 11
34.94834182203291
 21
24.53900490890762
 31
0.0
  0
ARC
  5
2DC
330
1E
100
AcDbEntity
  8
OBJECT
100
AcDbCircle
 10
23.65434182203291
 20
26.37587893390772
 30
0.0
 40
0.433
100
AcDbArc
 50
90.0
 51
180.0
  0
ARC
  5
2DD
330
1E
100
AcDbEntity
  8
OBJECT
100
AcDbCircle
 10
34.51534182203291
 20
26.37587893390772
 30
0.0
 40
0.433
100
AcDbArc
 50
0.0
 51
90.0
  0
ARC
  5
2DE
330
1E
100
AcDbEntity
  8
OBJECT
100
AcDbCircle
 10
23.65434182203291
 20
11.56187893390771
 30
0.0
 40
0.433
100
AcDbArc
 50
180.0
 51
270.0
  0
ARC
  5
2DF
330
1E
100
AcDbEntity
  8
OBJECT
100
AcDbCircle
 10
34.51534182203291
 20
11.56187893390771
 30
0.0
 40
0.433
100
AcDbArc
 50
270.0
 51
0.0
  0
LINE
  5
2E0
330
1E
100
AcDbEntity
  8
OBJECT
100
AcDbLine
 10
23.22134182203291
 20
11.96218130410494
 30
0.0
 11
23.22134182203291
 21
11.56187893390771
 31
0.0
  0
LINE
  5
2E1
330
1E
100
AcDbEntity
  8
OBJECT
100
AcDbLine
 10
23.22134182203291
 20
23.71218130410493
 30
0.0
 11
23.22134182203291
 21
20.10057656371076
 31
0.0
  0
LINE
  5
2E2
330
1E
100
AcDbEntity
  8
OBJECT
100
AcDbLine
 10
34.94834182203291
 20
23.5547529589078
 30
0.0
 11
34.94834182203291
 21
16.49326801990791
 31
0.0
  0
LINE
  5
2E3
330
1E
100
AcDbEntity
  8
OBJECT
100
AcDbLine
 10
34.94834182203291
 20
13.3987529589078
 30
0.0
 11
34.94834182203291
 21
11.56187893390771
 31
0.0
  0
LINE
  5
2E4
330
1E
100
AcDbEntity
  8
OBJECT
100
AcDbLine
 10
60.87560618753408
 20
11.45137893390771
 30
0.0
 11
60.87560618753408
 21
11.5978789339077
 31
0.0
  0
DIMENSION
  5
2E5
330
1E
100
AcDbEntity
  8
DIM
100
AcDbDimension
  2
*D21
 10
66.19579865290621
 20
11.45137893390771
 30
0.0
 11
66.19579865290621
 21
18.96887893390772
 31
0.0
 70
    32
  1
S
 71
     5
 42
15.03499999999999
  3
23NSTD
100
AcDbAlignedDimension
 13
60.87560618753408
 23
26.48637893390771
 33
0.0
 14
60.87560618753408
 24
11.45137893390771
 34
0.0
 50
270.0
100
AcDbRotatedDimension
  0
LINE
  5
2E6
330
1E
100
AcDbEntity
  8
OBJECT
100
AcDbLine
 10
55.47022044853331
 20
11.20454500429364
 30
0.0
 11
55.47022044853331
 21
11.32168076964845
 31
0.0
  0
LINE
  5
2E7
330
1E
100
AcDbEntity
  8
OBJECT
100
AcDbLine
 10
56.06077161853357
 20
26.73321286352176
 30
0.0
 11
56.06077161853357
 21
24.53900490890762
 31
0.0
  0
LINE
  5
2E8
330
1E
100
AcDbEntity
  8
OBJECT
100
AcDbLine
 10
54.58070865453358
 20
11.59330148595146
 30
0.0
 11
54.58070865453354
 21
26.34445638186394
 31
0.0
  0
LINE
  5
2E9
330
1E
100
AcDbEntity
  8
OBJECT
100
AcDbLine
 10
56.06077161853357
 20
26.56737893390771
 30
0.0
 11
60.87560618753408
 21
26.48637893390771
 31
0.0
  0
LINE
  5
2EA
330
1E
100
AcDbEntity
  8
OBJECT
100
AcDbLine
 10
55.41425603755251
 20
26.55710291415203
 30
0.0
 11
54.74860188747587
 21
26.52137893390777
 31
0.0
  0
ARC
  5
2EB
330
1E
100
AcDbEntity
  8
OBJECT
100
AcDbCircle
 10
54.75787400553308
 20
26.34445638186394
 30
0.0
 40
0.177165351
100
AcDbArc
 50
93.00000000000123
 51
180.0
  0
ARC
  5
2EC
330
1E
100
AcDbEntity
  8
OBJECT
100
AcDbCircle
 10
55.41116533153345
 20
26.61607709816694
 30
0.0
 40
0.059055117
100
AcDbArc
 50
273.0000000000015
 51
0.0
  0
LINE
  5
2ED
330
1E
100
AcDbEntity
  8
OBJECT
100
AcDbLine
 10
56.06077161853357
 20
11.3703789339077
 30
0.0
 11
60.87560618753408
 21
11.45137893390771
 31
0.0
  0
ARC
  5
2EE
330
1E
100
AcDbEntity
  8
OBJECT
100
AcDbCircle
 10
54.7578740055331
 20
11.59330148595146
 30
0.0
 40
0.177165351
100
AcDbArc
 50
180.0
 51
266.9999999999987
  0
LINE
  5
2EF
330
1E
100
AcDbEntity
  8
OBJECT
100
AcDbLine
 10
55.41425603755254
 20
11.38065495366337
 30
0.0
 11
54.74860188747591
 21
11.41637893390763
 31
0.0
  0
ARC
  5
2F0
330
1E
100
AcDbEntity
  8
OBJECT
100
AcDbCircle
 10
55.41116533153347
 20
11.32168076964845
 30
0.0
 40
0.059055117
100
AcDbArc
 50
0.0
 51
86.99999999999844
  0
LINE
  5
2F1
330
1E
100
AcDbEntity
  8
OBJECT
100
AcDbLine
 10
60.95566130453391
 20
12.2808789339077
 30
0.0
 11
60.95566130453391
 21
12.85587893390771
 31
0.0
  0
LINE
  5
2F2
330
1E
100
AcDbEntity
  8
OBJECT
100
AcDbLine
 10
60.95566130453391
 20
12.85587893390771
 30
0.0
 11
60.87560618753408
 21
12.85587893390771
 31
0.0
  0
LINE
  5
2F3
330
1E
100
AcDbEntity
  8
OBJECT
100
AcDbLine
 10
60.95566130453391
 20
12.2808789339077
 30
0.0
 11
60.87560618753408
 21
12.2808789339077
 31
0.0
  0
LINE
  5
2F4
330
1E
100
AcDbEntity
  8
OBJECT
100
AcDbLine
 10
60.95566130453391
 20
12.17287893390771
 30
0.0
 11
60.87560618753408
 21
12.17287893390771
 31
0.0
  0
LINE
  5
2F5
330
1E
100
AcDbEntity
  8
OBJECT
100
AcDbLine
 10
60.95566130453391
 20
11.5978789339077
 30
0.0
 11
60.87560618753408
 21
11.5978789339077
 31
0.0
  0
LINE
  5
2F6
330
1E
100
AcDbEntity
  8
OBJECT
100
AcDbLine
 10
60.95566130453391
 20
11.5978789339077
 30
0.0
 11
60.95566130453391
 21
12.17287893390771
 31
0.0
  0
DIMENSION
  5
2F7
330
1E
100
AcDbEntity
  8
DIM
100
AcDbDimension
  2
*D22
 10
53.40819163975837
 20
11.4163789339077
 30
0.0
 11
53.40819163975837
 21
18.96887893390772
 31
0.0
 70
    32
  1
R
 71
     5
 42
15.10500000000001
  3
23NSTD
100
AcDbAlignedDimension
 13
54.74860188747537
 23
26.52137893390772
 33
0.0
 14
54.74860188747539
 24
11.4163789339077
 34
0.0
 50
90.0
100
AcDbRotatedDimension
  0
LINE
  5
2F8
330
1E
100
AcDbEntity
  8
OBJECT
100
AcDbLine
 10
54.71470865453357
 20
11.59673433390214
 30
0.0
 11
54.71470865453356
 21
18.96887893390771
 31
0.0
  0
LINE
  5
2F9
330
1E
100
AcDbEntity
  8
OBJECT
100
AcDbLine
 10
55.76549603353345
 20
11.49943047097747
 30
0.0
 11
54.75578299561472
 21
11.55361922442373
 31
0.0
  0
ARC
  5
2FA
330
1E
100
AcDbEntity
  8
OBJECT
100
AcDbCircle
 10
54.7578740055331
 20
11.59673433390214
 30
0.0
 40
0.043165351
100
AcDbArc
 50
180.0
 51
266.9999999999987
  0
LINE
  5
2FB
330
1E
100
AcDbEntity
  8
OBJECT
100
AcDbLine
 10
56.06077161853356
 20
11.3703789339077
 30
0.0
 11
56.06077161853356
 21
11.20454500429364
 31
0.0
  0
LINE
  5
2FC
330
1E
100
AcDbEntity
  8
OBJECT
100
AcDbLine
 10
55.47022044853331
 20
18.96887893390771
 30
0.0
 11
55.47022044853331
 21
23.23979233490742
 31
0.0
  0
LINE
  5
2FD
330
1E
100
AcDbEntity
  8
OBJECT
100
AcDbLine
 10
60.93597701507918
 20
11.79037893390771
 30
0.0
 11
60.93597701507917
 21
11.9803789339077
 31
0.0
  0
LINE
  5
2FE
330
1E
100
AcDbEntity
  8
OBJECT
100
AcDbLine
 10
60.57992114853446
 20
11.79037893390771
 30
0.0
 11
60.57992114853449
 21
11.9803789339077
 31
0.0
  0
LINE
  5
2FF
330
1E
100
AcDbEntity
  8
OBJECT
100
AcDbLine
 10
60.93597701507917
 20
11.9803789339077
 30
0.0
 11
60.95566130453391
 21
12.00023575509946
 31
0.0
  0
LINE
  5
300
330
1E
100
AcDbEntity
  8
OBJECT
100
AcDbLine
 10
60.95566130453392
 20
17.34887893390771
 30
0.0
 11
60.95566130453392
 21
17.64887893390771
 31
0.0
  0
LINE
  5
301
330
1E
100
AcDbEntity
  8
OBJECT
100
AcDbLine
 10
60.95566130453392
 20
17.34887893390771
 30
0.0
 11
60.87560618753408
 21
17.34887893390772
 31
0.0
  0
LINE
  5
302
330
1E
100
AcDbEntity
  8
OBJECT
100
AcDbLine
 10
60.95566130453392
 20
17.64887893390771
 30
0.0
 11
60.87560618753408
 21
17.64887893390771
 31
0.0
  0
LINE
  5
303
330
1E
100
AcDbEntity
  8
OBJECT
100
AcDbLine
 10
60.87560618753412
 20
12.85587893390771
 30
0.0
 11
60.87560618753412
 21
13.40487893390773
 31
0.0
  0
LINE
  5
304
330
1E
100
AcDbEntity
  8
OBJECT
100
AcDbLine
 10
60.87560618753408
 20
17.64887893390771
 30
0.0
 11
60.87560618753408
 21
26.48637893390771
 31
0.0
  0
LINE
  5
305
330
1E
100
AcDbEntity
  8
OBJECT
100
AcDbLine
 10
60.93597701507917
 20
11.9803789339077
 30
0.0
 11
60.57992114853449
 21
11.9803789339077
 31
0.0
  0
LINE
  5
306
330
1E
100
AcDbEntity
  8
OBJECT
100
AcDbLine
 10
60.93597701507917
 20
11.9678789339077
 30
0.0
 11
60.57992114853449
 21
11.9678789339077
 31
0.0
  0
LINE
  5
307
330
1E
100
AcDbEntity
  8
OBJECT
100
AcDbLine
 10
60.93597701507918
 20
11.80287893390771
 30
0.0
 11
60.57992114853449
 21
11.80287893390771
 31
0.0
  0
LINE
  5
308
330
1E
100
AcDbEntity
  8
OBJECT
100
AcDbLine
 10
60.93597701507918
 20
11.79037893390771
 30
0.0
 11
60.57992114853446
 21
11.79037893390771
 31
0.0
  0
LINE
  5
309
330
1E
100
AcDbEntity
  8
OBJECT
100
AcDbLine
 10
60.93597701507917
 20
11.79037893390771
 30
0.0
 11
60.95566130453391
 21
11.77052211271595
 31
0.0
  0
LINE
  5
30A
330
1E
100
AcDbEntity
  8
OBJECT
100
AcDbLine
 10
60.38129047698883
 20
12.47337893390771
 30
0.0
 11
60.36160618753409
 21
12.45352211271596
 31
0.0
  0
LINE
  5
30B
330
1E
100
AcDbEntity
  8
OBJECT
100
AcDbLine
 10
60.38129047698883
 20
12.6633789339077
 30
0.0
 11
60.36160618753409
 21
12.68323575509946
 31
0.0
  0
LINE
  5
30C
330
1E
100
AcDbEntity
  8
OBJECT
100
AcDbLine
 10
60.38129047698883
 20
12.6633789339077
 30
0.0
 11
60.82034634353352
 21
12.6633789339077
 31
0.0
  0
LINE
  5
30D
330
1E
100
AcDbEntity
  8
OBJECT
100
AcDbLine
 10
60.3812904769888
 20
12.47337893390771
 30
0.0
 11
60.38129047698883
 21
12.6633789339077
 31
0.0
  0
LINE
  5
30E
330
1E
100
AcDbEntity
  8
OBJECT
100
AcDbLine
 10
60.38129047698883
 20
12.65087893390771
 30
0.0
 11
60.82034634353352
 21
12.65087893390771
 31
0.0
  0
LINE
  5
30F
330
1E
100
AcDbEntity
  8
OBJECT
100
AcDbLine
 10
60.3812904769888
 20
12.47337893390771
 30
0.0
 11
60.82034634353354
 21
12.47337893390771
 31
0.0
  0
LINE
  5
310
330
1E
100
AcDbEntity
  8
OBJECT
100
AcDbLine
 10
60.3812904769888
 20
12.48587893390772
 30
0.0
 11
60.82034634353352
 21
12.48587893390771
 31
0.0
  0
LINE
  5
311
330
1E
100
AcDbEntity
  8
OBJECT
100
AcDbLine
 10
60.82034634353354
 20
12.47337893390771
 30
0.0
 11
60.82034634353352
 21
12.6633789339077
 31
0.0
  0
LINE
  5
312
330
1E
100
AcDbEntity
  8
OBJECT
100
AcDbLine
 10
60.87560618753408
 20
12.1728789339077
 30
0.0
 11
60.87560618753408
 21
12.2808789339077
 31
0.0
  0
TEXT
  5
313
330
1E
100
AcDbEntity
  8
DIM
100
AcDbText
 10
36.58377793715507
 20
9.956130758538105
 30
0.0
 40
0.5601063829500001
  1
0.725 [18] DIA. BOSS 
 41
0.75
  7
TXT
 11
36.58377793715507
 21
10.2361839500131
 31
0.0
100
AcDbText
 73
     2
  0
TEXT
  5
314
330
1E
100
AcDbEntity
  8
DIM
100
AcDbText
 10
31.51511714842026
 20
32.72865537910076
 30
0.0
 40
0.5601063829500001
  1
WITH M5 x 0.8mm
 41
0.75
  7
TXT
 11
31.51511714842026
 21
33.00870857057576
 31
0.0
100
AcDbText
 73
     2
  0
TEXT
  5
315
330
1E
100
AcDbEntity
  8
DIM
100
AcDbText
 10
31.51511714842026
 20
31.82184314510471
 30
0.0
 40
0.5601063829500001
  1
THREADED BRASS INSERT
 41
0.75
  7
TXT
 11
31.51511714842026
 21
32.10189633657971
 31
0.0
100
AcDbText
 73
     2
  0
TEXT
  5
316
330
1E
100
AcDbEntity
  8
DIM
100
AcDbText
 10
31.51511714842026
 20
30.91503091110867
 30
0.0
 40
0.5601063829500001
  1
(4) PLACES (FAR SIDE)
 41
0.75
  7
TXT
 11
31.51511714842026
 21
31.19508410258367
 31
0.0
100
AcDbText
 73
     2
  0
TEXT
  5
317
330
1E
100
AcDbEntity
  8
DIM
100
AcDbText
 10
36.58377793715507
 20
9.049318524542055
 30
0.0
 40
0.5601063829500001
  1
WITH M5 x 0.8mm
 41
0.75
  7
TXT
 11
36.58377793715507
 21
9.329371716017055
 31
0.0
100
AcDbText
 73
     2
  0
TEXT
  5
318
330
1E
100
AcDbEntity
  8
DIM
100
AcDbText
 10
36.58377793715507
 20
8.142506290546005
 30
0.0
 40
0.5601063829500001
  1
THREADED BRASS INSERT
 41
0.75
  7
TXT
 11
36.58377793715507
 21
8.422559482021005
 31
0.0
100
AcDbText
 73
     2
  0
TEXT
  5
319
330
1E
100
AcDbEntity
  8
DIM
100
AcDbText
 10
36.58377793715507
 20
7.235694056549963
 30
0.0
 40
0.5601063829500001
  1
(4) PLACES
 41
0.75
  7
TXT
 11
36.58377793715507
 21
7.515747248024963
 31
0.0
100
AcDbText
 73
     2
  0
LINE
  5
31A
330
1E
100
AcDbEntity
  8
OBJECT
100
AcDbLine
 10
55.47022044853331
 20
24.85396553290798
 30
0.0
 11
55.47022044853331
 21
26.73321286352176
 31
0.0
  0
LINE
  5
31B
330
1E
100
AcDbEntity
  8
OBJECT
100
AcDbLine
 10
56.06077161853357
 20
23.5547529589078
 30
0.0
 11
56.06077161853357
 21
18.96887893390771
 31
0.0
  0
LINE
  5
31C
330
1E
100
AcDbEntity
  8
OBJECT
100
AcDbLine
 10
55.76549603353345
 20
11.1288789339077
 30
0.0
 11
55.76549603353345
 21
11.26337893390772
 31
0.0
  0
LINE
  5
31D
330
1E
100
AcDbEntity
  8
OBJECT
100
AcDbLine
 10
34.94834182203291
 20
15.2644898479075
 30
0.0
 11
34.94834182203291
 21
14.38300490890762
 31
0.0
  0
LINE
  5
31E
330
1E
100
AcDbEntity
  8
OBJECT
100
AcDbLine
 10
52.37778103644445
 20
30.26078894026792
 30
0.0
 11
52.37778103644445
 21
30.52878894026792
 31
0.0
  0
LINE
  5
31F
330
1E
100
AcDbEntity
  8
OBJECT
100
AcDbLine
 10
40.21728103644448
 20
30.39478894026791
 30
0.0
 11
52.37778103644445
 21
30.39478894026792
 31
0.0
  0
LINE
  5
320
330
1E
100
AcDbEntity
  8
OBJECT
100
AcDbLine
 10
52.10174962609567
 20
30.52878894026792
 30
0.0
 11
52.37778103644445
 21
30.52878894026792
 31
0.0
  0
LINE
  5
321
330
1E
100
AcDbEntity
  8
OBJECT
100
AcDbLine
 10
52.1363469985998
 20
30.26078894026792
 30
0.0
 11
52.37778103644445
 21
30.26078894026792
 31
0.0
  0
LINE
  5
322
330
1E
100
AcDbEntity
  8
OBJECT
100
AcDbLine
 10
23.22134182203291
 20
17.83718130410465
 30
0.0
 11
23.22134182203291
 21
14.22557656371123
 31
0.0
  0
DIMENSION
  5
323
330
1E
100
AcDbEntity
  8
DIM
100
AcDbDimension
  2
*D23
 10
60.74160618753408
 20
13.03859843231244
 30
0.0
 11
65.96582493753408
 21
13.03859843231244
 31
0.0
 70
    32
  1
0.380 [10] (INSIDE)
 71
     5
 42
0.3800000000000096
  3
23NSTD
100
AcDbAlignedDimension
 13
60.36160618753407
 23
12.8655371953813
 33
0.0
 14
60.74160618753408
 24
12.8655371953813
 34
0.0
100
AcDbRotatedDimension
  0
LWPOLYLINE
  5
324
330
1E
100
AcDbEntity
  8
OBJECT
100
AcDbPolyline
 90
        4
 70
     0
 43
0.0
 10
28.82893631503284
 20
26.40737893390771
 10
28.76988119803299
 20
26.46643405090756
 10
29.39980244603283
 20
26.46643405090756
 10
29.34074732903299
 20
26.40737893390771
  0
LWPOLYLINE
  5
32A
330
1E
100
AcDbEntity
  8
OBJECT
100
AcDbPolyline
 90
        4
 70
     0
 43
0.0
 10
28.82893631503284
 20
11.5303789339077
 10
28.76988119803299
 20
11.47132381690786
 10
29.39980244603283
 20
11.47132381690787
 10
29.34074732903299
 20
11.5303789339077
  0
LWPOLYLINE
  5
330
330
1E
100
AcDbEntity
  8
OBJECT
100
AcDbPolyline
 90
        8
 70
     1
 43
0.0
 10
34.53184182203287
 20
11.56974901190821
 42
-0.4142135623730951
 10
34.49247174403287
 20
11.53037893390771
 10
23.67721190003296
 20
11.53037893390771
 42
-0.4142135623730951
 10
23.63784182203296
 20
11.56974901190821
 10
23.63784182203291
 20
26.36800885590721
 42
-0.4142135623730951
 10
23.67721190003296
 20
26.4073789339072
 10
34.49247174403287
 20
26.40737893390771
 42
-0.4142135623730951
 10
34.53184182203287
 20
26.36800885590721
  0
LWPOLYLINE
  5
33A
330
1E
100
AcDbEntity
  8
OBJECT
100
AcDbPolyline
 90
        4
 70
     0
 43
0.0
 10
34.53184182203287
 20
12.83797342690763
 10
34.59089693903271
 20
12.77891830990778
 10
34.59089693903271
 20
13.40883955790763
 10
34.53184182203287
 20
13.34978444090779
  0
LWPOLYLINE
  5
340
330
1E
100
AcDbEntity
  8
OBJECT
100
AcDbPolyline
 90
        4
 70
     0
 43
0.0
 10
34.53184182203287
 20
24.58797342690763
 10
34.59089693903271
 20
24.52891830990779
 10
34.59089693903271
 20
25.15883955790763
 10
34.53184182203287
 20
25.09978444090779
  0
LWPOLYLINE
  5
346
330
1E
100
AcDbEntity
  8
OBJECT
100
AcDbPolyline
 90
        4
 70
     0
 43
0.0
 10
23.63784182203295
 20
24.58797342690763
 10
23.57878670503311
 20
24.52891830990779
 10
23.57878670503311
 20
25.15883955790763
 10
23.63784182203295
 20
25.09978444090779
  0
LWPOLYLINE
  5
34C
330
1E
100
AcDbEntity
  8
OBJECT
100
AcDbPolyline
 90
        4
 70
     0
 43
0.0
 10
23.63784182203295
 20
12.83797342690763
 10
23.57878670503311
 20
12.77891830990778
 10
23.57878670503311
 20
13.40883955790763
 10
23.63784182203295
 20
13.34978444090779
  0
LWPOLYLINE
  5
352
330
1E
100
AcDbEntity
  8
OBJECT
100
AcDbPolyline
 90
        8
 70
     1
 43
0.0
 10
34.68884182203287
 20
11.56974901190796
 42
-0.4142135623730978
 10
34.49247174403261
 20
11.37337893390771
 10
23.67721190003321
 20
11.37337893390771
 42
-0.4142135623730925
 10
23.48084182203296
 20
11.56974901190796
 10
23.48084182203292
 20
26.36800885590718
 42
-0.4142135623730792
 10
23.67721190003293
 20
26.56437893390721
 10
34.49247174403261
 20
26.56437893390772
 42
-0.414213562373111
 10
34.68884182203287
 20
26.36800885590746
  0
LWPOLYLINE
  5
35C
330
1E
100
AcDbEntity
  8
OBJECT
100
AcDbPolyline
 90
        8
 70
     1
 43
0.0
 10
34.79884182203287
 20
11.56974901190796
 42
-0.4142135623730957
 10
34.49247174403261
 20
11.26337893390771
 10
23.67721190003321
 20
11.26337893390771
 42
-0.4142135623730932
 10
23.37084182203296
 20
11.56974901190796
 10
23.37084182203291
 20
26.36800885590718
 42
-0.4142135623730787
 10
23.67721190003292
 20
26.67437893390721
 10
34.4924717440326
 20
26.67437893390771
 42
-0.4142135623731076
 10
34.79884182203287
 20
26.36800885590746
  0
LINE
  5
366
330
1E
100
AcDbEntity
  8
OBJECT
100
AcDbLine
 10
24.37434182203291
 20
24.14879561540765
 30
0.0
 11
24.37434182203291
 21
23.63096225240777
 31
0.0
  0
LINE
  5
367
330
1E
100
AcDbEntity
  8
OBJECT
100
AcDbLine
 10
24.46034182203291
 20
24.14879561540765
 30
0.0
 11
24.46034182203291
 21
23.63096225240777
 31
0.0
  0
LINE
  5
368
330
1E
100
AcDbEntity
  8
OBJECT
100
AcDbLine
 10
24.46034182203291
 20
23.16279561540766
 30
0.0
 11
24.46034182203291
 21
22.64496225240776
 31
0.0
  0
LINE
  5
369
330
1E
100
AcDbEntity
  8
OBJECT
100
AcDbLine
 10
24.37434182203291
 20
23.16279561540766
 30
0.0
 11
24.37434182203291
 21
22.64496225240776
 31
0.0
  0
LINE
  5
36A
330
1E
100
AcDbEntity
  8
OBJECT
100
AcDbLine
 10
24.46034182203291
 20
22.17679561540765
 30
0.0
 11
24.46034182203291
 21
21.65896225240777
 31
0.0
  0
LINE
  5
36B
330
1E
100
AcDbEntity
  8
OBJECT
100
AcDbLine
 10
24.37434182203291
 20
22.17679561540765
 30
0.0
 11
24.37434182203291
 21
21.65896225240777
 31
0.0
  0
LINE
  5
36C
330
1E
100
AcDbEntity
  8
OBJECT
100
AcDbLine
 10
24.46034182203291
 20
21.19079561540765
 30
0.0
 11
24.46034182203291
 21
20.67296225240777
 31
0.0
  0
LINE
  5
36D
330
1E
100
AcDbEntity
  8
OBJECT
100
AcDbLine
 10
24.37434182203291
 20
21.19079561540765
 30
0.0
 11
24.37434182203291
 21
20.67296225240777
 31
0.0
  0
LINE
  5
36E
330
1E
100
AcDbEntity
  8
OBJECT
100
AcDbLine
 10
32.30175850353285
 20
25.6443789339077
 30
0.0
 11
31.78392514053297
 21
25.6443789339077
 31
0.0
  0
LINE
  5
36F
330
1E
100
AcDbEntity
  8
OBJECT
100
AcDbLine
 10
32.30175850353285
 20
25.55837893390772
 30
0.0
 11
31.78392514053297
 21
25.55837893390772
 31
0.0
  0
LINE
  5
370
330
1E
100
AcDbEntity
  8
OBJECT
100
AcDbLine
 10
24.96063864350202
 20
25.32947341500033
 30
0.0
 11
25.42569696009135
 21
25.48596785797769
 31
0.0
  0
LINE
  5
371
330
1E
100
AcDbEntity
  8
OBJECT
100
AcDbLine
 10
24.95932243752855
 20
25.41976908868397
 30
0.0
 11
25.39826881663323
 21
25.56747673446633
 31
0.0
  0
LINE
  5
372
330
1E
100
AcDbEntity
  8
OBJECT
100
AcDbLine
 10
27.37175850353285
 20
25.6443789339077
 30
0.0
 11
26.85392514053297
 21
25.6443789339077
 31
0.0
  0
LINE
  5
373
330
1E
100
AcDbEntity
  8
OBJECT
100
AcDbLine
 10
27.37175850353285
 20
25.55837893390772
 30
0.0
 11
26.85392514053297
 21
25.55837893390772
 31
0.0
  0
LINE
  5
374
330
1E
100
AcDbEntity
  8
OBJECT
100
AcDbLine
 10
28.35775850353285
 20
25.6443789339077
 30
0.0
 11
27.83992514053297
 21
25.6443789339077
 31
0.0
  0
LINE
  5
375
330
1E
100
AcDbEntity
  8
OBJECT
100
AcDbLine
 10
28.35775850353285
 20
25.55837893390772
 30
0.0
 11
27.83992514053297
 21
25.55837893390772
 31
0.0
  0
LINE
  5
376
330
1E
100
AcDbEntity
  8
OBJECT
100
AcDbLine
 10
29.34375850353285
 20
25.6443789339077
 30
0.0
 11
28.82592514053296
 21
25.6443789339077
 31
0.0
  0
LINE
  5
377
330
1E
100
AcDbEntity
  8
OBJECT
100
AcDbLine
 10
29.34375850353285
 20
25.55837893390772
 30
0.0
 11
28.82592514053296
 21
25.55837893390772
 31
0.0
  0
LINE
  5
378
330
1E
100
AcDbEntity
  8
OBJECT
100
AcDbLine
 10
30.32975850353285
 20
25.6443789339077
 30
0.0
 11
29.81192514053297
 21
25.6443789339077
 31
0.0
  0
LINE
  5
379
330
1E
100
AcDbEntity
  8
OBJECT
100
AcDbLine
 10
30.32975850353285
 20
25.55837893390772
 30
0.0
 11
29.81192514053297
 21
25.55837893390772
 31
0.0
  0
LINE
  5
37A
330
1E
100
AcDbEntity
  8
OBJECT
100
AcDbLine
 10
31.31575850353286
 20
25.6443789339077
 30
0.0
 11
30.79792514053297
 21
25.6443789339077
 31
0.0
  0
LINE
  5
37B
330
1E
100
AcDbEntity
  8
OBJECT
100
AcDbLine
 10
31.31575850353286
 20
25.55837893390772
 30
0.0
 11
30.79792514053297
 21
25.55837893390772
 31
0.0
  0
LINE
  5
37C
330
1E
100
AcDbEntity
  8
OBJECT
100
AcDbLine
 10
26.38575850353285
 20
25.55837893390772
 30
0.0
 11
25.86792514053305
 21
25.55837893390772
 31
0.0
  0
LINE
  5
37D
330
1E
100
AcDbEntity
  8
OBJECT
100
AcDbLine
 10
26.38575850353285
 20
25.6443789339077
 30
0.0
 11
25.86792514053305
 21
25.6443789339077
 31
0.0
  0
LINE
  5
37E
330
1E
100
AcDbEntity
  8
OBJECT
100
AcDbLine
 10
24.675328658088
 20
25.01471962637659
 30
0.0
 11
24.53275289796294
 21
24.59102379584927
 31
0.0
  0
LINE
  5
37F
330
1E
100
AcDbEntity
  8
OBJECT
100
AcDbLine
 10
24.58210608782692
 20
25.00733790308665
 30
0.0
 11
24.45124402147429
 21
24.61845193930738
 31
0.0
  0
LINE
  5
380
330
1E
100
AcDbEntity
  8
OBJECT
100
AcDbLine
 10
33.79534182203291
 20
21.19079561540765
 30
0.0
 11
33.79534182203291
 21
20.67296225240777
 31
0.0
  0
LINE
  5
381
330
1E
100
AcDbEntity
  8
OBJECT
100
AcDbLine
 10
33.70934182203291
 20
21.19079561540765
 30
0.0
 11
33.70934182203291
 21
20.67296225240777
 31
0.0
  0
LINE
  5
382
330
1E
100
AcDbEntity
  8
OBJECT
100
AcDbLine
 10
33.79534182203291
 20
22.17679561540765
 30
0.0
 11
33.79534182203291
 21
21.65896225240777
 31
0.0
  0
LINE
  5
383
330
1E
100
AcDbEntity
  8
OBJECT
100
AcDbLine
 10
33.70934182203291
 20
22.17679561540765
 30
0.0
 11
33.70934182203291
 21
21.65896225240777
 31
0.0
  0
LINE
  5
384
330
1E
100
AcDbEntity
  8
OBJECT
100
AcDbLine
 10
33.79534182203291
 20
23.16279561540766
 30
0.0
 11
33.79534182203291
 21
22.64496225240776
 31
0.0
  0
LINE
  5
385
330
1E
100
AcDbEntity
  8
OBJECT
100
AcDbLine
 10
33.70934182203291
 20
23.16279561540766
 30
0.0
 11
33.70934182203291
 21
22.64496225240776
 31
0.0
  0
LINE
  5
386
330
1E
100
AcDbEntity
  8
OBJECT
100
AcDbLine
 10
33.70934182203291
 20
24.14879561540765
 30
0.0
 11
33.70934182203291
 21
23.63096225240777
 31
0.0
  0
LINE
  5
387
330
1E
100
AcDbEntity
  8
OBJECT
100
AcDbLine
 10
33.79534182203291
 20
24.14879561540765
 30
0.0
 11
33.79534182203291
 21
23.63096225240777
 31
0.0
  0
LINE
  5
388
330
1E
100
AcDbEntity
  8
OBJECT
100
AcDbLine
 10
33.49435498597782
 20
25.01471962637659
 30
0.0
 11
33.63693074610287
 21
24.59102379584927
 31
0.0
  0
LINE
  5
389
330
1E
100
AcDbEntity
  8
OBJECT
100
AcDbLine
 10
33.58757755623889
 20
25.00733790308665
 30
0.0
 11
33.71843962259152
 21
24.61845193930738
 31
0.0
  0
LINE
  5
38A
330
1E
100
AcDbEntity
  8
OBJECT
100
AcDbLine
 10
33.21036120653725
 20
25.41976908868397
 30
0.0
 11
32.77141482743259
 21
25.56747673446633
 31
0.0
  0
LINE
  5
38B
330
1E
100
AcDbEntity
  8
OBJECT
100
AcDbLine
 10
33.2090450005638
 20
25.32947341500033
 30
0.0
 11
32.74398668397447
 21
25.48596785797769
 31
0.0
  0
LINE
  5
38C
330
1E
100
AcDbEntity
  8
OBJECT
100
AcDbLine
 10
24.37434182203291
 20
16.74696225240777
 30
0.0
 11
24.37434182203291
 21
17.26479561540765
 31
0.0
  0
LINE
  5
38D
330
1E
100
AcDbEntity
  8
OBJECT
100
AcDbLine
 10
24.46034182203291
 20
16.74696225240777
 30
0.0
 11
24.46034182203291
 21
17.26479561540765
 31
0.0
  0
LINE
  5
38E
330
1E
100
AcDbEntity
  8
OBJECT
100
AcDbLine
 10
24.37434182203291
 20
15.76096225240777
 30
0.0
 11
24.37434182203291
 21
16.27879561540765
 31
0.0
  0
LINE
  5
38F
330
1E
100
AcDbEntity
  8
OBJECT
100
AcDbLine
 10
24.46034182203291
 20
15.76096225240777
 30
0.0
 11
24.46034182203291
 21
16.27879561540765
 31
0.0
  0
LINE
  5
390
330
1E
100
AcDbEntity
  8
OBJECT
100
AcDbLine
 10
24.37434182203291
 20
14.77496225240777
 30
0.0
 11
24.37434182203291
 21
15.29279561540765
 31
0.0
  0
LINE
  5
391
330
1E
100
AcDbEntity
  8
OBJECT
100
AcDbLine
 10
24.46034182203291
 20
14.77496225240777
 30
0.0
 11
24.46034182203291
 21
15.29279561540765
 31
0.0
  0
LINE
  5
392
330
1E
100
AcDbEntity
  8
OBJECT
100
AcDbLine
 10
24.46034182203291
 20
13.78896225240777
 30
0.0
 11
24.46034182203291
 21
14.30679561540765
 31
0.0
  0
LINE
  5
393
330
1E
100
AcDbEntity
  8
OBJECT
100
AcDbLine
 10
24.37434182203291
 20
13.78896225240777
 30
0.0
 11
24.37434182203291
 21
14.30679561540765
 31
0.0
  0
LINE
  5
394
330
1E
100
AcDbEntity
  8
OBJECT
100
AcDbLine
 10
24.58210608782692
 20
12.93041996472876
 30
0.0
 11
24.45124402147429
 21
13.31930592850803
 31
0.0
  0
LINE
  5
395
330
1E
100
AcDbEntity
  8
OBJECT
100
AcDbLine
 10
24.675328658088
 20
12.92303824143882
 30
0.0
 11
24.53275289796294
 21
13.34673407196614
 31
0.0
  0
LINE
  5
396
330
1E
100
AcDbEntity
  8
OBJECT
100
AcDbLine
 10
24.95932243752855
 20
12.51798877913145
 30
0.0
 11
25.39826881663323
 21
12.37028113334909
 31
0.0
  0
LINE
  5
397
330
1E
100
AcDbEntity
  8
OBJECT
100
AcDbLine
 10
24.96063864350202
 20
12.6082844528151
 30
0.0
 11
25.42569696009135
 21
12.45179000983773
 31
0.0
  0
LINE
  5
398
330
1E
100
AcDbEntity
  8
OBJECT
100
AcDbLine
 10
26.38575850353285
 20
12.2933789339077
 30
0.0
 11
25.86792514053305
 21
12.2933789339077
 31
0.0
  0
LINE
  5
399
330
1E
100
AcDbEntity
  8
OBJECT
100
AcDbLine
 10
26.38575850353285
 20
12.37937893390771
 30
0.0
 11
25.86792514053305
 21
12.37937893390771
 31
0.0
  0
LINE
  5
39A
330
1E
100
AcDbEntity
  8
OBJECT
100
AcDbLine
 10
27.37175850353285
 20
12.37937893390771
 30
0.0
 11
26.85392514053297
 21
12.37937893390771
 31
0.0
  0
LINE
  5
39B
330
1E
100
AcDbEntity
  8
OBJECT
100
AcDbLine
 10
27.37175850353285
 20
12.2933789339077
 30
0.0
 11
26.85392514053297
 21
12.2933789339077
 31
0.0
  0
LINE
  5
39C
330
1E
100
AcDbEntity
  8
OBJECT
100
AcDbLine
 10
28.35775850353285
 20
12.37937893390771
 30
0.0
 11
27.83992514053297
 21
12.37937893390771
 31
0.0
  0
LINE
  5
39D
330
1E
100
AcDbEntity
  8
OBJECT
100
AcDbLine
 10
28.35775850353285
 20
12.2933789339077
 30
0.0
 11
27.83992514053297
 21
12.2933789339077
 31
0.0
  0
LINE
  5
39E
330
1E
100
AcDbEntity
  8
OBJECT
100
AcDbLine
 10
29.34375850353285
 20
12.37937893390771
 30
0.0
 11
28.82592514053296
 21
12.37937893390771
 31
0.0
  0
LINE
  5
39F
330
1E
100
AcDbEntity
  8
OBJECT
100
AcDbLine
 10
29.34375850353285
 20
12.2933789339077
 30
0.0
 11
28.82592514053296
 21
12.2933789339077
 31
0.0
  0
LINE
  5
3A0
330
1E
100
AcDbEntity
  8
OBJECT
100
AcDbLine
 10
30.32975850353285
 20
12.37937893390771
 30
0.0
 11
29.81192514053297
 21
12.37937893390771
 31
0.0
  0
LINE
  5
3A1
330
1E
100
AcDbEntity
  8
OBJECT
100
AcDbLine
 10
30.32975850353285
 20
12.2933789339077
 30
0.0
 11
29.81192514053297
 21
12.2933789339077
 31
0.0
  0
LINE
  5
3A2
330
1E
100
AcDbEntity
  8
OBJECT
100
AcDbLine
 10
31.31575850353286
 20
12.37937893390771
 30
0.0
 11
30.79792514053297
 21
12.37937893390771
 31
0.0
  0
LINE
  5
3A3
330
1E
100
AcDbEntity
  8
OBJECT
100
AcDbLine
 10
31.31575850353286
 20
12.29337893390771
 30
0.0
 11
30.79792514053297
 21
12.2933789339077
 31
0.0
  0
LINE
  5
3A4
330
1E
100
AcDbEntity
  8
OBJECT
100
AcDbLine
 10
32.30175850353285
 20
12.37937893390771
 30
0.0
 11
31.78392514053297
 21
12.37937893390771
 31
0.0
  0
LINE
  5
3A5
330
1E
100
AcDbEntity
  8
OBJECT
100
AcDbLine
 10
32.30175850353285
 20
12.29337893390771
 30
0.0
 11
31.78392514053297
 21
12.29337893390771
 31
0.0
  0
LINE
  5
3A6
330
1E
100
AcDbEntity
  8
OBJECT
100
AcDbLine
 10
33.2090450005638
 20
12.6082844528151
 30
0.0
 11
32.74398668397447
 21
12.45179000983773
 31
0.0
  0
LINE
  5
3A7
330
1E
100
AcDbEntity
  8
OBJECT
100
AcDbLine
 10
33.21036120653725
 20
12.51798877913145
 30
0.0
 11
32.77141482743259
 21
12.37028113334909
 31
0.0
  0
LINE
  5
3A8
330
1E
100
AcDbEntity
  8
OBJECT
100
AcDbLine
 10
33.58757755623889
 20
12.93041996472876
 30
0.0
 11
33.71843962259152
 21
13.31930592850803
 31
0.0
  0
LINE
  5
3A9
330
1E
100
AcDbEntity
  8
OBJECT
100
AcDbLine
 10
33.49435498597782
 20
12.92303824143882
 30
0.0
 11
33.63693074610287
 21
13.34673407196614
 31
0.0
  0
LINE
  5
3AA
330
1E
100
AcDbEntity
  8
OBJECT
100
AcDbLine
 10
33.79534182203291
 20
13.78896225240777
 30
0.0
 11
33.79534182203291
 21
14.30679561540765
 31
0.0
  0
LINE
  5
3AB
330
1E
100
AcDbEntity
  8
OBJECT
100
AcDbLine
 10
33.70934182203291
 20
13.78896225240777
 30
0.0
 11
33.70934182203291
 21
14.30679561540765
 31
0.0
  0
LINE
  5
3AC
330
1E
100
AcDbEntity
  8
OBJECT
100
AcDbLine
 10
33.70934182203291
 20
14.77496225240777
 30
0.0
 11
33.70934182203291
 21
15.29279561540765
 31
0.0
  0
LINE
  5
3AD
330
1E
100
AcDbEntity
  8
OBJECT
100
AcDbLine
 10
33.79534182203291
 20
14.77496225240777
 30
0.0
 11
33.79534182203291
 21
15.29279561540765
 31
0.0
  0
LINE
  5
3AE
330
1E
100
AcDbEntity
  8
OBJECT
100
AcDbLine
 10
33.70934182203291
 20
15.76096225240777
 30
0.0
 11
33.70934182203291
 21
16.27879561540765
 31
0.0
  0
LINE
  5
3AF
330
1E
100
AcDbEntity
  8
OBJECT
100
AcDbLine
 10
33.79534182203291
 20
15.76096225240777
 30
0.0
 11
33.79534182203291
 21
16.27879561540765
 31
0.0
  0
LINE
  5
3B0
330
1E
100
AcDbEntity
  8
OBJECT
100
AcDbLine
 10
33.70934182203291
 20
16.74696225240777
 30
0.0
 11
33.70934182203291
 21
17.26479561540765
 31
0.0
  0
LINE
  5
3B1
330
1E
100
AcDbEntity
  8
OBJECT
100
AcDbLine
 10
33.79534182203291
 20
16.74696225240777
 30
0.0
 11
33.79534182203291
 21
17.26479561540765
 31
0.0
  0
LWPOLYLINE
  5
3B2
330
1E
100
AcDbEntity
  8
OBJECT
100
AcDbPolyline
 90
        4
 70
     0
 43
0.0
 10
34.94834182203291
 20
15.2644898479075
 42
-0.3106384182581576
 10
35.18912009987981
 20
15.61464628337922
 42
0.7051781285480231
 10
35.20581469202217
 20
16.13716076961464
 42
-0.3236437854432907
 10
34.94834182203291
 20
16.49326801990792
  0
CIRCLE
  5
3B8
330
1E
100
AcDbEntity
  8
OBJECT
100
AcDbCircle
 10
35.1043418220329
 20
15.87887893390771
 30
0.0
 40
0.12
  0
LINE
  5
3B9
330
1E
100
AcDbEntity
  8
OBJECT
100
AcDbLine
 10
23.37084182203294
 20
19.46100490890807
 30
0.0
 11
23.02449143203279
 21
19.46100490890807
 31
0.0
  0
ARC
  5
3BA
330
1E
100
AcDbEntity
  8
OBJECT
100
AcDbCircle
 10
22.74890088603291
 20
20.10057656371122
 30
0.0
 40
0.4724409359999989
100
AcDbArc
 50
305.6853347126336
 51
0.0
  0
LINE
  5
3BB
330
1E
100
AcDbEntity
  8
OBJECT
100
AcDbLine
 10
23.02449143203279
 20
18.47675295890734
 30
0.0
 11
23.37084182203294
 21
18.47675295890734
 31
0.0
  0
ARC
  5
3BC
330
1E
100
AcDbEntity
  8
OBJECT
100
AcDbCircle
 10
22.74890088603286
 20
17.83718130410494
 30
0.0
 40
0.4724409360001616
100
AcDbArc
 50
0.0000000000068937
 51
54.31466528737426
  0
LINE
  5
3BD
330
1E
100
AcDbEntity
  8
OBJECT
100
AcDbLine
 10
23.09338906853276
 20
18.47675295890734
 30
0.0
 11
23.09338906853276
 21
19.46100490890807
 31
0.0
  0
LINE
  5
3BE
330
1E
100
AcDbEntity
  8
OBJECT
100
AcDbLine
 10
23.02449143203277
 20
18.22091335771029
 30
0.0
 11
23.02449143203279
 21
18.47675295890734
 31
0.0
  0
LINE
  5
3BF
330
1E
100
AcDbEntity
  8
OBJECT
100
AcDbLine
 10
23.02449143203279
 20
19.46100490890807
 30
0.0
 11
23.02449143203279
 21
19.71684451010604
 31
0.0
  0
LINE
  5
3C0
330
1E
100
AcDbEntity
  8
OBJECT
100
AcDbLine
 10
23.2311843415327
 20
18.47675295890734
 30
0.0
 11
23.2311843415327
 21
19.46100490890807
 31
0.0
  0
ARC
  5
3C1
330
1E
100
AcDbEntity
  8
OBJECT
100
AcDbCircle
 10
22.74890088603291
 20
14.22557656371123
 30
0.0
 40
0.4724409359999989
100
AcDbArc
 50
305.6853347126336
 51
0.0
  0
LINE
  5
3C2
330
1E
100
AcDbEntity
  8
OBJECT
100
AcDbLine
 10
23.37084182203294
 20
13.58600490890807
 30
0.0
 11
23.02449143203279
 21
13.58600490890807
 31
0.0
  0
LINE
  5
3C3
330
1E
100
AcDbEntity
  8
OBJECT
100
AcDbLine
 10
23.02449143203279
 20
12.60175295890735
 30
0.0
 11
23.37084182203294
 21
12.60175295890735
 31
0.0
  0
LINE
  5
3C4
330
1E
100
AcDbEntity
  8
OBJECT
100
AcDbLine
 10
23.02449143203277
 20
12.34591335771029
 30
0.0
 11
23.02449143203279
 21
12.60175295890735
 31
0.0
  0
ARC
  5
3C5
330
1E
100
AcDbEntity
  8
OBJECT
100
AcDbCircle
 10
22.74890088603286
 20
11.96218130410494
 30
0.0
 40
0.4724409360001616
100
AcDbArc
 50
0.0
 51
54.31466528737426
  0
LINE
  5
3C6
330
1E
100
AcDbEntity
  8
OBJECT
100
AcDbLine
 10
23.02449143203279
 20
13.58600490890807
 30
0.0
 11
23.02449143203279
 21
13.84184451010605
 31
0.0
  0
LINE
  5
3C7
330
1E
100
AcDbEntity
  8
OBJECT
100
AcDbLine
 10
23.2311843415327
 20
12.60175295890735
 30
0.0
 11
23.2311843415327
 21
13.58600490890807
 31
0.0
  0
LINE
  5
3C8
330
1E
100
AcDbEntity
  8
OBJECT
100
AcDbLine
 10
23.09338906853276
 20
12.60175295890735
 30
0.0
 11
23.09338906853276
 21
13.58600490890807
 31
0.0
  0
ARC
  5
3C9
330
1E
100
AcDbEntity
  8
OBJECT
100
AcDbCircle
 10
22.74890088603291
 20
25.97557656371122
 30
0.0
 40
0.4724409359999989
100
AcDbArc
 50
305.6853347126336
 51
0.0
  0
LINE
  5
3CA
330
1E
100
AcDbEntity
  8
OBJECT
100
AcDbLine
 10
23.37084182203294
 20
25.33600490890807
 30
0.0
 11
23.02449143203279
 21
25.33600490890807
 31
0.0
  0
LINE
  5
3CB
330
1E
100
AcDbEntity
  8
OBJECT
100
AcDbLine
 10
23.02449143203279
 20
24.35175295890735
 30
0.0
 11
23.37084182203294
 21
24.35175295890735
 31
0.0
  0
LINE
  5
3CC
330
1E
100
AcDbEntity
  8
OBJECT
100
AcDbLine
 10
23.02449143203277
 20
24.09591335771028
 30
0.0
 11
23.02449143203279
 21
24.35175295890735
 31
0.0
  0
ARC
  5
3CD
330
1E
100
AcDbEntity
  8
OBJECT
100
AcDbCircle
 10
22.74890088603286
 20
23.71218130410493
 30
0.0
 40
0.4724409360001616
100
AcDbArc
 50
0.0000000000068937
 51
54.31466528737426
  0
LINE
  5
3CE
330
1E
100
AcDbEntity
  8
OBJECT
100
AcDbLine
 10
23.02449143203279
 20
25.33600490890807
 30
0.0
 11
23.02449143203279
 21
25.59184451010604
 31
0.0
  0
LINE
  5
3CF
330
1E
100
AcDbEntity
  8
OBJECT
100
AcDbLine
 10
23.2311843415327
 20
24.35175295890735
 30
0.0
 11
23.2311843415327
 21
25.33600490890807
 31
0.0
  0
LINE
  5
3D0
330
1E
100
AcDbEntity
  8
OBJECT
100
AcDbLine
 10
23.09338906853276
 20
24.35175295890735
 30
0.0
 11
23.09338906853276
 21
25.33600490890807
 31
0.0
  0
LWPOLYLINE
  5
3D1
330
1E
100
AcDbEntity
  8
OBJECT
100
AcDbPolyline
 90
        8
 70
     1
 43
0.0
 10
51.65428103644447
 20
11.57385924590698
 42
-0.4142135623730956
 10
51.49680072444447
 20
11.4163789339077
 10
40.66476134844463
 20
11.41637893390699
 42
-0.4142135623730956
 10
40.50728103644444
 20
11.57385924590698
 10
40.50728103644443
 20
26.36389862190753
 42
-0.4142135623730956
 10
40.66476134844462
 20
26.52137893390752
 10
51.49680072444446
 20
26.52137893390772
 42
-0.4142135623730957
 10
51.65428103644445
 20
26.36389862190753
  0
LINE
  5
3DB
330
1E
100
AcDbEntity
  8
OBJECT
100
AcDbLine
 10
40.02043064644616
 20
25.32419388550783
 30
0.0
 11
40.02043064644616
 21
24.36356398230759
 31
0.0
  0
LWPOLYLINE
  5
3DC
330
1E
100
AcDbEntity
  8
OBJECT
100
AcDbPolyline
 90
        4
 70
     0
 43
0.0
 10
40.21728103644629
 20
23.71218130410465
 42
0.2415313610589563
 10
40.02043064644616
 20
24.09591335770984
 10
40.02043064644616
 20
24.3517529589078
 10
40.2172810364463
 20
24.3517529589078
  0
LINE
  5
3E2
330
1E
100
AcDbEntity
  8
OBJECT
100
AcDbLine
 10
40.21728103644639
 20
24.36356398230851
 30
0.0
 11
40.02043064644616
 21
24.36356398230851
 31
0.0
  0
LINE
  5
3E3
330
1E
100
AcDbEntity
  8
OBJECT
100
AcDbLine
 10
40.21728103644639
 20
25.33600490890763
 30
0.0
 11
40.02043064644616
 21
25.33600490890763
 31
0.0
  0
LINE
  5
3E4
330
1E
100
AcDbEntity
  8
OBJECT
100
AcDbLine
 10
40.02043064644616
 20
25.33600490890763
 30
0.0
 11
40.02043064644615
 21
25.59184451010559
 31
0.0
  0
LINE
  5
3E5
330
1E
100
AcDbEntity
  8
OBJECT
100
AcDbLine
 10
40.21728103644639
 20
25.32419388550781
 30
0.0
 11
40.02043064644616
 21
25.32419388550783
 31
0.0
  0
ARC
  5
3E6
330
1E
100
AcDbEntity
  8
OBJECT
100
AcDbCircle
 10
39.74484010044633
 20
25.97557656371088
 30
0.0
 40
0.4724409360000578
100
AcDbArc
 50
305.6853347126199
 51
359.9999999999866
  0
LWPOLYLINE
  5
3E7
330
1E
100
AcDbEntity
  8
OBJECT
100
AcDbPolyline
 90
        4
 70
     0
 43
0.0
 10
40.21728103644629
 20
17.83718130410465
 42
0.2415313610589563
 10
40.02043064644616
 20
18.22091335770983
 10
40.02043064644616
 20
18.4767529589078
 10
40.2172810364463
 20
18.4767529589078
  0
LINE
  5
3ED
330
1E
100
AcDbEntity
  8
OBJECT
100
AcDbLine
 10
40.21728103644639
 20
18.48856398230851
 30
0.0
 11
40.02043064644616
 21
18.48856398230851
 31
0.0
  0
LINE
  5
3EE
330
1E
100
AcDbEntity
  8
OBJECT
100
AcDbLine
 10
40.21728103644639
 20
19.46100490890763
 30
0.0
 11
40.02043064644616
 21
19.46100490890763
 31
0.0
  0
LINE
  5
3EF
330
1E
100
AcDbEntity
  8
OBJECT
100
AcDbLine
 10
40.21728103644639
 20
19.44919388550781
 30
0.0
 11
40.02043064644616
 21
19.44919388550783
 31
0.0
  0
ARC
  5
3F0
330
1E
100
AcDbEntity
  8
OBJECT
100
AcDbCircle
 10
39.74484010044633
 20
20.10057656371088
 30
0.0
 40
0.4724409360000578
100
AcDbArc
 50
305.6853347126199
 51
359.9999999999866
  0
LINE
  5
3F1
330
1E
100
AcDbEntity
  8
OBJECT
100
AcDbLine
 10
40.02043064644616
 20
19.44919388550783
 30
0.0
 11
40.02043064644616
 21
18.48856398230759
 31
0.0
  0
LINE
  5
3F2
330
1E
100
AcDbEntity
  8
OBJECT
100
AcDbLine
 10
40.02043064644616
 20
19.46100490890763
 30
0.0
 11
40.02043064644615
 21
19.71684451010559
 31
0.0
  0
LINE
  5
3F3
330
1E
100
AcDbEntity
  8
OBJECT
100
AcDbLine
 10
40.02043064644616
 20
13.58600490890763
 30
0.0
 11
40.02043064644615
 21
13.84184451010559
 31
0.0
  0
ARC
  5
3F4
330
1E
100
AcDbEntity
  8
OBJECT
100
AcDbCircle
 10
39.74484010044633
 20
14.22557656371088
 30
0.0
 40
0.4724409360000578
100
AcDbArc
 50
305.6853347126199
 51
359.9999999999866
  0
LINE
  5
3F5
330
1E
100
AcDbEntity
  8
OBJECT
100
AcDbLine
 10
40.21728103644639
 20
13.57419388550781
 30
0.0
 11
40.02043064644616
 21
13.57419388550783
 31
0.0
  0
LINE
  5
3F6
330
1E
100
AcDbEntity
  8
OBJECT
100
AcDbLine
 10
40.21728103644639
 20
13.58600490890763
 30
0.0
 11
40.02043064644616
 21
13.58600490890763
 31
0.0
  0
LINE
  5
3F7
330
1E
100
AcDbEntity
  8
OBJECT
100
AcDbLine
 10
40.21728103644639
 20
12.61356398230851
 30
0.0
 11
40.02043064644616
 21
12.61356398230851
 31
0.0
  0
LWPOLYLINE
  5
3F8
330
1E
100
AcDbEntity
  8
OBJECT
100
AcDbPolyline
 90
        4
 70
     0
 43
0.0
 10
40.21728103644629
 20
11.96218130410465
 42
0.2415313610589563
 10
40.02043064644616
 20
12.34591335770984
 10
40.02043064644616
 20
12.6017529589078
 10
40.2172810364463
 20
12.6017529589078
  0
LINE
  5
3FE
330
1E
100
AcDbEntity
  8
OBJECT
100
AcDbLine
 10
40.02043064644616
 20
13.57419388550783
 30
0.0
 11
40.02043064644616
 21
12.61356398230758
 31
0.0
  0
LWPOLYLINE
  5
3FF
330
1E
100
AcDbEntity
  8
OBJECT
100
AcDbPolyline
 90
        4
 70
     0
 43
0.0
 10
51.94428103644447
 20
15.2644898479075
 42
-0.3106384182581576
 10
52.18505931429137
 20
15.61464628337922
 42
0.7051781285480231
 10
52.20175390643372
 20
16.13716076961464
 42
-0.3236437854432907
 10
51.94428103644447
 20
16.49326801990792
  0
CIRCLE
  5
405
330
1E
100
AcDbEntity
  8
OBJECT
100
AcDbCircle
 10
52.10028103644447
 20
15.87887893390771
 30
0.0
 40
0.12
  0
ARC
  5
406
330
1E
100
AcDbEntity
  8
OBJECT
100
AcDbCircle
 10
40.19586468428893
 20
30.57228894026791
 30
0.0
 40
0.1775
100
AcDbArc
 50
90.0
 51
276.9596745962847
  0
ARC
  5
407
330
1E
100
AcDbEntity
  8
OBJECT
100
AcDbCircle
 10
38.66965620486625
 20
29.40123765110815
 30
0.0
 40
1.747017539050701
100
AcDbArc
 50
27.53895796904764
 51
38.02627328486201
  0
ARC
  5
408
330
1E
100
AcDbEntity
  8
OBJECT
100
AcDbCircle
 10
40.28024244074118
 20
30.63106452526803
 30
0.0
 40
0.059
100
AcDbArc
 50
90.0
 51
179.0000000000214
  0
LINE
  5
409
330
1E
100
AcDbEntity
  8
OBJECT
100
AcDbLine
 10
40.21710924770955
 20
30.39478894026791
 30
0.0
 11
40.21917520986455
 21
30.15805312569312
 31
0.0
  0
ARC
  5
40A
330
1E
100
AcDbEntity
  8
OBJECT
100
AcDbCircle
 10
40.27822807822697
 20
30.15856847226762
 30
0.0
 40
0.059055117
100
AcDbArc
 50
180.4999999999984
 51
270.0000000000029
  0
LINE
  5
40B
330
1E
100
AcDbEntity
  8
OBJECT
100
AcDbLine
 10
40.21710924770955
 20
30.39478894026791
 30
0.0
 11
40.22125142672695
 21
30.63209421724781
 31
0.0
  0
LINE
  5
40C
330
1E
100
AcDbEntity
  8
OBJECT
100
AcDbLine
 10
40.45578578074993
 20
30.7497889402679
 30
0.0
 11
40.19586468428893
 21
30.74978894026791
 31
0.0
  0
LINE
  5
40D
330
1E
100
AcDbEntity
  8
OBJECT
100
AcDbLine
 10
52.1363469985998
 20
29.98449508294569
 30
0.0
 11
52.1363469985998
 21
30.39478894026792
 31
0.0
  0
LINE
  5
40E
330
1E
100
AcDbEntity
  8
OBJECT
100
AcDbLine
 10
51.94428103644448
 20
30.39478894026792
 30
0.0
 11
51.92747124502389
 21
30.15439772331689
 31
0.0
  0
ARC
  5
40F
330
1E
100
AcDbEntity
  8
OBJECT
100
AcDbCircle
 10
51.86861496605855
 20
30.15851335526779
 30
0.0
 40
0.059
100
AcDbArc
 50
270.0
 51
355.9999999999998
  0
ARC
  5
410
330
1E
100
AcDbEntity
  8
OBJECT
100
AcDbCircle
 10
51.86861496605855
 20
30.63106452526805
 30
0.0
 40
0.059
100
AcDbArc
 50
4.000000000000171
 51
90.0
  0
LINE
  5
411
330
1E
100
AcDbEntity
  8
OBJECT
100
AcDbLine
 10
51.94428103644448
 20
30.39478894026792
 30
0.0
 11
51.92747124502389
 21
30.63518015721896
 31
0.0
  0
CIRCLE
  5
412
330
1E
100
AcDbEntity
  8
HIDDEN
100
AcDbCircle
 10
51.89505671659578
 20
29.98140312126809
 30
0.0
 40
0.0688976365
  0
LINE
  5
413
330
1E
100
AcDbEntity
  8
OBJECT
100
AcDbLine
 10
51.67496324950089
 20
29.80423777026765
 30
0.0
 11
51.95920863074086
 21
29.80423777026765
 31
0.0
  0
ARC
  5
414
330
1E
100
AcDbEntity
  8
OBJECT
100
AcDbCircle
 10
51.95920863074086
 20
29.98140312126809
 30
0.0
 40
0.177165351
100
AcDbArc
 50
269.9994624464301
 51
0.9999999887896457
  0
LINE
  5
415
330
1E
100
AcDbEntity
  8
OBJECT
100
AcDbLine
 10
55.17494486353319
 20
23.5547529589078
 30
0.0
 11
57.00414523720592
 21
23.5547529589078
 31
0.0
  0
LINE
  5
416
330
1E
100
AcDbEntity
  8
OBJECT
100
AcDbLine
 10
55.17494486353319
 20
23.23979233490742
 30
0.0
 11
55.76549603353345
 21
23.23979233490742
 31
0.0
  0
LINE
  5
417
330
1E
100
AcDbEntity
  8
OBJECT
100
AcDbLine
 10
55.17494486353319
 20
24.53900490890762
 30
0.0
 11
57.00414523720592
 21
24.53900490890762
 31
0.0
  0
LINE
  5
418
330
1E
100
AcDbEntity
  8
OBJECT
100
AcDbLine
 10
55.17494486353319
 20
24.853965532908
 30
0.0
 11
55.76549603353345
 21
24.853965532908
 31
0.0
  0
LINE
  5
419
330
1E
100
AcDbEntity
  8
OBJECT
100
AcDbLine
 10
55.17494486353319
 20
24.53900490890762
 30
0.0
 11
55.17494486353319
 21
23.5547529589078
 31
0.0
  0
LINE
  5
41A
330
1E
100
AcDbEntity
  8
OBJECT
100
AcDbLine
 10
55.17494486353319
 20
23.23979233490742
 30
0.0
 11
55.17494486353319
 21
23.5547529589078
 31
0.0
  0
LINE
  5
41B
330
1E
100
AcDbEntity
  8
OBJECT
100
AcDbLine
 10
55.17494486353319
 20
24.853965532908
 30
0.0
 11
55.17494486353319
 21
24.53900490890762
 31
0.0
  0
LINE
  5
41C
330
1E
100
AcDbEntity
  8
OBJECT
100
AcDbLine
 10
55.95459384838573
 20
24.53900490890762
 30
0.0
 11
55.95459384838573
 21
23.5547529589078
 31
0.0
  0
LINE
  5
41D
330
1E
100
AcDbEntity
  8
OBJECT
100
AcDbLine
 10
55.47022044853331
 20
23.5547529589078
 30
0.0
 11
55.47022044853331
 21
24.53900490890762
 31
0.0
  0
LINE
  5
41E
330
1E
100
AcDbEntity
  8
OBJECT
100
AcDbLine
 10
57.00414523720592
 20
24.53900490890762
 30
0.0
 11
57.00414523720592
 21
23.5547529589078
 31
0.0
  0
LINE
  5
41F
330
1E
100
AcDbEntity
  8
OBJECT
100
AcDbLine
 10
55.76549603353345
 20
24.53900490890762
 30
0.0
 11
55.76549603353345
 21
26.80887893390771
 31
0.0
  0
LINE
  5
420
330
1E
100
AcDbEntity
  8
OBJECT
100
AcDbLine
 10
55.76549603353345
 20
26.80887893390771
 30
0.0
 11
56.00588725048447
 21
26.7920691424871
 31
0.0
  0
ARC
  5
421
330
1E
100
AcDbEntity
  8
OBJECT
100
AcDbCircle
 10
56.00177161853357
 20
26.73321286352176
 30
0.0
 40
0.059
100
AcDbArc
 50
0.0
 51
85.99999999999985
  0
ARC
  5
422
330
1E
100
AcDbEntity
  8
OBJECT
100
AcDbCircle
 10
55.52922044853332
 20
26.73321286352176
 30
0.0
 40
0.059
100
AcDbArc
 50
94.00000000000018
 51
180.0
  0
LINE
  5
423
330
1E
100
AcDbEntity
  8
OBJECT
100
AcDbLine
 10
55.76549603353345
 20
26.80887893390771
 30
0.0
 11
55.52510481658242
 21
26.7920691424871
 31
0.0
  0
LINE
  5
424
330
1E
100
AcDbEntity
  8
OBJECT
100
AcDbLine
 10
52.26892296818604
 20
14.38300490890761
 30
0.0
 11
52.26892296818604
 21
13.3987529589078
 31
0.0
  0
LINE
  5
425
330
1E
100
AcDbEntity
  8
OBJECT
100
AcDbLine
 10
51.77057624344443
 20
13.3987529589078
 30
0.0
 11
51.77057624344443
 21
14.38300490890761
 31
0.0
  0
LINE
  5
426
330
1E
100
AcDbEntity
  8
OBJECT
100
AcDbLine
 10
52.06585182844456
 20
14.38300490890761
 30
0.0
 11
52.06585182844456
 21
13.3987529589078
 31
0.0
  0
LINE
  5
427
330
1E
100
AcDbEntity
  8
OBJECT
100
AcDbLine
 10
51.65428103644447
 20
13.3987529589078
 30
0.0
 11
52.26892296818604
 21
13.3987529589078
 31
0.0
  0
LINE
  5
428
330
1E
100
AcDbEntity
  8
OBJECT
100
AcDbLine
 10
52.13428103644447
 20
13.08379233490742
 30
0.0
 11
52.13428103644447
 21
13.3987529589078
 31
0.0
  0
LINE
  5
429
330
1E
100
AcDbEntity
  8
OBJECT
100
AcDbLine
 10
51.65428103644447
 20
13.08379233490741
 30
0.0
 11
52.13428103644447
 21
13.08379233490742
 31
0.0
  0
LINE
  5
42A
330
1E
100
AcDbEntity
  8
OBJECT
100
AcDbLine
 10
51.65428103644447
 20
14.38300490890762
 30
0.0
 11
52.26892296818604
 21
14.38300490890761
 31
0.0
  0
LINE
  5
42B
330
1E
100
AcDbEntity
  8
OBJECT
100
AcDbLine
 10
52.13428103644447
 20
14.69796553290799
 30
0.0
 11
52.13428103644447
 21
14.38300490890761
 31
0.0
  0
LINE
  5
42C
330
1E
100
AcDbEntity
  8
OBJECT
100
AcDbLine
 10
51.65428103644447
 20
14.69796553290797
 30
0.0
 11
52.13428103644447
 21
14.69796553290799
 31
0.0
  0
LINE
  5
42D
330
1E
100
AcDbEntity
  8
OBJECT
100
AcDbLine
 10
52.06585182844456
 20
24.53900490890762
 30
0.0
 11
52.06585182844456
 21
23.5547529589078
 31
0.0
  0
LINE
  5
42E
330
1E
100
AcDbEntity
  8
OBJECT
100
AcDbLine
 10
51.77057624344443
 20
23.5547529589078
 30
0.0
 11
51.77057624344443
 21
24.53900490890762
 31
0.0
  0
LINE
  5
42F
330
1E
100
AcDbEntity
  8
OBJECT
100
AcDbLine
 10
52.26892296818604
 20
24.53900490890762
 30
0.0
 11
52.26892296818604
 21
23.5547529589078
 31
0.0
  0
LINE
  5
430
330
1E
100
AcDbEntity
  8
OBJECT
100
AcDbLine
 10
51.65428103644447
 20
23.5547529589078
 30
0.0
 11
52.26892296818604
 21
23.5547529589078
 31
0.0
  0
LINE
  5
431
330
1E
100
AcDbEntity
  8
OBJECT
100
AcDbLine
 10
51.65428103644447
 20
23.23979233490742
 30
0.0
 11
52.13428103644447
 21
23.23979233490742
 31
0.0
  0
LINE
  5
432
330
1E
100
AcDbEntity
  8
OBJECT
100
AcDbLine
 10
52.13428103644447
 20
23.23979233490742
 30
0.0
 11
52.13428103644447
 21
23.5547529589078
 31
0.0
  0
LINE
  5
433
330
1E
100
AcDbEntity
  8
OBJECT
100
AcDbLine
 10
51.65428103644447
 20
24.85396553290798
 30
0.0
 11
52.13428103644447
 21
24.853965532908
 31
0.0
  0
LINE
  5
434
330
1E
100
AcDbEntity
  8
OBJECT
100
AcDbLine
 10
51.65428103644447
 20
24.53900490890762
 30
0.0
 11
52.26892296818604
 21
24.53900490890762
 31
0.0
  0
LINE
  5
435
330
1E
100
AcDbEntity
  8
OBJECT
100
AcDbLine
 10
52.13428103644447
 20
24.853965532908
 30
0.0
 11
52.13428103644447
 21
24.53900490890762
 31
0.0
  0
LWPOLYLINE
  5
436
330
1E
100
AcDbEntity
  8
BEND
100
AcDbPolyline
 90
       14
 70
     0
 43
0.0
 10
54.26004115744137
 20
18.96887893390772
 10
54.83608059603227
 20
18.96887893390772
 10
54.92768744784754
 20
19.1303994301433
 10
54.96840160420987
 20
18.83532377232732
 10
55.03965137784396
 20
18.96887893390772
 10
57.56318577410224
 20
18.96887893390772
 10
57.65479262591751
 20
19.1303994301433
 10
57.69550678227987
 20
18.83532377232732
 10
57.76675655591397
 20
18.96887893390771
 10
60.29869621512482
 20
18.96887893390772
 10
60.3903030669401
 20
19.1303994301433
 10
60.43101722330245
 20
18.83532377232732
 10
60.50226699693655
 20
18.96887893390772
 10
61.23772144492821
 20
18.96887893390772
  0
ARC
  5
446
330
1E
100
AcDbEntity
  8
OBJECT
100
AcDbCircle
 10
55.52922044853333
 20
11.20454500429364
 30
0.0
 40
0.059
100
AcDbArc
 50
180.0
 51
265.9999999999998
  0
LINE
  5
447
330
1E
100
AcDbEntity
  8
OBJECT
100
AcDbLine
 10
55.76549603353345
 20
11.1288789339077
 30
0.0
 11
55.52510481658243
 21
11.14568872532831
 31
0.0
  0
LINE
  5
448
330
1E
100
AcDbEntity
  8
OBJECT
100
AcDbLine
 10
55.76549603353345
 20
11.1288789339077
 30
0.0
 11
56.00588725048448
 21
11.14568872532831
 31
0.0
  0
ARC
  5
449
330
1E
100
AcDbEntity
  8
OBJECT
100
AcDbCircle
 10
56.00177161853359
 20
11.20454500429364
 30
0.0
 40
0.059
100
AcDbArc
 50
274.0000000000001
 51
0.0
  0
LWPOLYLINE
  5
44A
330
1E
100
AcDbEntity
  8
OBJECT
100
AcDbPolyline
 90
        4
 70
     0
 43
0.0
 10
55.76549603353345
 20
11.39711908990759
 10
55.60801572153326
 20
11.39437026083689
 10
55.60801572153326
 20
11.24238760697855
 10
55.76549603353345
 20
11.2396387779074
  0
LINE
  5
450
330
1E
100
AcDbEntity
  8
OBJECT
100
AcDbLine
 10
55.76549603353345
 20
11.37337893390772
 30
0.0
 11
55.76549603353345
 21
23.5547529589078
 31
0.0
  0
LWPOLYLINE
  5
451
330
1E
100
AcDbEntity
  8
OBJECT
100
AcDbPolyline
 90
       10
 70
     0
 43
0.0
 10
51.9442810364445
 20
24.853965532908
 10
51.94428103644436
 20
26.33643799790714
 42
0.4142135623730953
 10
51.47184010044436
 20
26.80887893390714
 10
40.68972197244458
 20
26.80887893390771
 42
0.4142135623730953
 10
40.21728103644458
 20
26.33643799790714
 10
40.21728103644448
 20
11.6013198699077
 42
0.4142135623730953
 10
40.68972197244459
 20
11.1288789339077
 10
51.47184010044437
 20
11.1288789339077
 42
0.4142135623730953
 10
51.94428103644437
 20
11.6013198699077
 10
51.94428103644437
 20
13.08379233490742
  0
LWPOLYLINE
  5
45D
330
1E
100
AcDbEntity
  8
OBJECT
100
AcDbPolyline
 90
        4
 70
     0
 43
0.0
 10
51.70678103644448
 20
30.69006452526805
 10
51.62578103644449
 20
35.50489909426857
 10
40.53578103644446
 20
35.50489909426857
 10
40.45478103644446
 20
30.69006452526805
  0
LWPOLYLINE
  5
463
330
1E
100
AcDbEntity
  8
OBJECT
100
AcDbPolyline
 90
        8
 70
     0
 43
0.0
 10
51.74897920070367
 20
30.09951335526795
 42
0.3989595459737116
 10
51.69000501668875
 20
30.04354894428701
 10
51.65428103644449
 20
29.37789479421038
 42
-0.3989595459737131
 10
51.47735848440066
 20
29.21000156126759
 10
40.68420358848826
 20
29.21000156126805
 42
-0.3989595459737131
 10
40.5072810364445
 20
29.37789479420987
 10
40.47155705620017
 20
30.04354894428701
 42
0.3989595459737116
 10
40.41258287218526
 20
30.09951335526795
  0
LWPOLYLINE
  5
46D
330
1E
100
AcDbEntity
  8
HIDDEN
100
AcDbPolyline
 90
        3
 70
     0
 43
0.0
 10
55.76549603353345
 20
13.40883955790762
 10
56.95349603353345
 20
13.40883955790762
 10
56.95349603353345
 20
13.38069402331467
  0
LWPOLYLINE
  5
472
330
1E
100
AcDbEntity
  8
HIDDEN
100
AcDbPolyline
 90
        3
 70
     0
 43
0.0
 10
55.76549603353345
 20
12.77891830990778
 10
56.95349603353345
 20
12.77891830990778
 10
56.95349603353345
 20
12.80706384450073
  0
LWPOLYLINE
  5
477
330
1E
100
AcDbEntity
  8
OBJECT
100
AcDbPolyline
 90
        4
 70
     0
 43
0.0
 10
55.76549603353345
 20
12.83797342690761
 10
56.95349603353345
 20
12.83797342690763
 10
56.95349603353345
 20
13.34978444090778
 10
55.76549603353345
 20
13.34978444090779
  0
LWPOLYLINE
  5
47D
330
1E
100
AcDbEntity
  8
OBJECT
100
AcDbPolyline
 90
        4
 70
     0
 43
0.0
 10
60.46560618753407
 20
17.58187893390771
 10
60.79062313794218
 20
17.58187893390771
 10
60.79062313794218
 20
17.41587893390771
 10
60.46560618753407
 20
17.41587893390771
  0
LWPOLYLINE
  5
483
330
1E
100
AcDbEntity
  8
OBJECT
100
AcDbPolyline
 90
        4
 70
     0
 43
0.0
 10
60.46560618753407
 20
16.5958789339077
 10
60.79062313794218
 20
16.5958789339077
 10
60.79062313794218
 20
16.4298789339077
 10
60.46560618753407
 20
16.4298789339077
  0
LWPOLYLINE
  5
489
330
1E
100
AcDbEntity
  8
OBJECT
100
AcDbPolyline
 90
        4
 70
     0
 43
0.0
 10
60.46560618753407
 20
15.60987893390771
 10
60.79062313794218
 20
15.60987893390771
 10
60.79062313794218
 20
15.44387893390771
 10
60.46560618753407
 20
15.44387893390771
  0
LWPOLYLINE
  5
48F
330
1E
100
AcDbEntity
  8
OBJECT
100
AcDbPolyline
 90
        4
 70
     0
 43
0.0
 10
60.46560618753407
 20
14.62387893390771
 10
60.79062313794218
 20
14.62387893390771
 10
60.79062313794218
 20
14.45787893390771
 10
60.46560618753407
 20
14.45787893390771
  0
LWPOLYLINE
  5
495
330
1E
100
AcDbEntity
  8
OBJECT
100
AcDbPolyline
 90
        4
 70
     0
 43
0.0
 10
60.46560618753407
 20
13.6378789339077
 10
60.79062313794218
 20
13.6378789339077
 10
60.79062313794218
 20
13.47187893390771
 10
60.46560618753407
 20
13.47187893390771
  0
LINE
  5
49B
330
1E
100
AcDbEntity
  8
OBJECT
100
AcDbLine
 10
60.95566130453392
 20
16.66287893390771
 30
0.0
 11
60.87560618753408
 21
16.66287893390771
 31
0.0
  0
LINE
  5
49C
330
1E
100
AcDbEntity
  8
OBJECT
100
AcDbLine
 10
60.95566130453392
 20
16.36287893390771
 30
0.0
 11
60.95566130453392
 21
16.66287893390771
 31
0.0
  0
LINE
  5
49D
330
1E
100
AcDbEntity
  8
OBJECT
100
AcDbLine
 10
60.95566130453392
 20
16.36287893390771
 30
0.0
 11
60.87560618753408
 21
16.36287893390773
 31
0.0
  0
LINE
  5
49E
330
1E
100
AcDbEntity
  8
OBJECT
100
AcDbLine
 10
60.95566130453392
 20
15.67687893390771
 30
0.0
 11
60.87560618753408
 21
15.67687893390771
 31
0.0
  0
LINE
  5
49F
330
1E
100
AcDbEntity
  8
OBJECT
100
AcDbLine
 10
60.95566130453392
 20
15.37687893390771
 30
0.0
 11
60.95566130453392
 21
15.67687893390771
 31
0.0
  0
LINE
  5
4A0
330
1E
100
AcDbEntity
  8
OBJECT
100
AcDbLine
 10
60.95566130453392
 20
15.37687893390771
 30
0.0
 11
60.87560618753408
 21
15.37687893390772
 31
0.0
  0
LINE
  5
4A1
330
1E
100
AcDbEntity
  8
OBJECT
100
AcDbLine
 10
60.95566130453392
 20
14.69087893390771
 30
0.0
 11
60.87560618753408
 21
14.69087893390771
 31
0.0
  0
LINE
  5
4A2
330
1E
100
AcDbEntity
  8
OBJECT
100
AcDbLine
 10
60.95566130453392
 20
14.39087893390771
 30
0.0
 11
60.95566130453392
 21
14.69087893390771
 31
0.0
  0
LINE
  5
4A3
330
1E
100
AcDbEntity
  8
OBJECT
100
AcDbLine
 10
60.95566130453392
 20
14.39087893390771
 30
0.0
 11
60.87560618753408
 21
14.39087893390772
 31
0.0
  0
LINE
  5
4A4
330
1E
100
AcDbEntity
  8
OBJECT
100
AcDbLine
 10
60.95566130453392
 20
13.70487893390771
 30
0.0
 11
60.87560618753408
 21
13.70487893390771
 31
0.0
  0
LINE
  5
4A5
330
1E
100
AcDbEntity
  8
OBJECT
100
AcDbLine
 10
60.95566130453392
 20
13.40487893390771
 30
0.0
 11
60.95566130453392
 21
13.70487893390771
 31
0.0
  0
LINE
  5
4A6
330
1E
100
AcDbEntity
  8
OBJECT
100
AcDbLine
 10
60.95566130453392
 20
13.40487893390771
 30
0.0
 11
60.87560618753408
 21
13.40487893390773
 31
0.0
  0
LINE
  5
4A7
330
1E
100
AcDbEntity
  8
OBJECT
100
AcDbLine
 10
60.87560618753408
 20
16.6628789339077
 30
0.0
 11
60.87560618753408
 21
17.34887893390772
 31
0.0
  0
LINE
  5
4A8
330
1E
100
AcDbEntity
  8
OBJECT
100
AcDbLine
 10
60.8756061875341
 20
15.67687893390771
 30
0.0
 11
60.8756061875341
 21
16.36287893390772
 31
0.0
  0
LINE
  5
4A9
330
1E
100
AcDbEntity
  8
OBJECT
100
AcDbLine
 10
60.87560618753411
 20
14.69087893390771
 30
0.0
 11
60.8756061875341
 21
15.37687893390772
 31
0.0
  0
LINE
  5
4AA
330
1E
100
AcDbEntity
  8
OBJECT
100
AcDbLine
 10
60.87560618753412
 20
13.70487893390771
 30
0.0
 11
60.87560618753411
 21
14.39087893390772
 31
0.0
  0
LWPOLYLINE
  5
4AB
330
1E
100
AcDbEntity
  8
OBJECT
100
AcDbPolyline
 90
        4
 70
     0
 43
0.0
 10
60.87560618753408
 20
20.28887893390771
 10
60.95566130453392
 20
20.28887893390771
 10
60.95566130453392
 20
20.58887893390771
 10
60.87560618753408
 20
20.5888789339077
  0
LWPOLYLINE
  5
4B1
330
1E
100
AcDbEntity
  8
OBJECT
100
AcDbPolyline
 90
        4
 70
     0
 43
0.0
 10
60.87560618753408
 20
21.27487893390771
 10
60.95566130453392
 20
21.27487893390771
 10
60.95566130453392
 20
21.57487893390771
 10
60.87560618753408
 20
21.57487893390769
  0
LWPOLYLINE
  5
4B7
330
1E
100
AcDbEntity
  8
OBJECT
100
AcDbPolyline
 90
        4
 70
     0
 43
0.0
 10
60.87560618753408
 20
22.26087893390772
 10
60.95566130453392
 20
22.26087893390772
 10
60.95566130453392
 20
22.56087893390771
 10
60.87560618753408
 20
22.5608789339077
  0
LWPOLYLINE
  5
4BD
330
1E
100
AcDbEntity
  8
OBJECT
100
AcDbPolyline
 90
        4
 70
     0
 43
0.0
 10
60.87560618753408
 20
23.24687893390771
 10
60.95566130453392
 20
23.24687893390771
 10
60.95566130453392
 20
23.54687893390771
 10
60.87560618753408
 20
23.5468789339077
  0
LWPOLYLINE
  5
4C3
330
1E
100
AcDbEntity
  8
OBJECT
100
AcDbPolyline
 90
        4
 70
     0
 43
0.0
 10
60.87560618753408
 20
24.23287893390772
 10
60.95566130453392
 20
24.23287893390772
 10
60.95566130453392
 20
24.53287893390772
 10
60.87560618753408
 20
24.5328789339077
  0
LWPOLYLINE
  5
4C9
330
1E
100
AcDbEntity
  8
OBJECT
100
AcDbPolyline
 90
        4
 70
     0
 43
0.0
 10
42.47978103644447
 20
35.50489909426857
 10
42.47978103644447
 20
35.5849542112684
 10
42.77978103644446
 20
35.5849542112684
 10
42.77978103644445
 20
35.50489909426856
  0
LWPOLYLINE
  5
4CF
330
1E
100
AcDbEntity
  8
OBJECT
100
AcDbPolyline
 90
        4
 70
     0
 43
0.0
 10
43.46578103644445
 20
35.50489909426857
 10
43.46578103644445
 20
35.5849542112684
 10
43.76578103644447
 20
35.5849542112684
 10
43.76578103644446
 20
35.50489909426856
  0
LWPOLYLINE
  5
4D5
330
1E
100
AcDbEntity
  8
OBJECT
100
AcDbPolyline
 90
        4
 70
     0
 43
0.0
 10
44.45178103644447
 20
35.50489909426857
 10
44.45178103644447
 20
35.5849542112684
 10
44.75178103644446
 20
35.5849542112684
 10
44.75178103644446
 20
35.50489909426856
  0
LWPOLYLINE
  5
4DB
330
1E
100
AcDbEntity
  8
OBJECT
100
AcDbPolyline
 90
        4
 70
     0
 43
0.0
 10
45.43778103644447
 20
35.50489909426857
 10
45.43778103644447
 20
35.5849542112684
 10
45.73778103644446
 20
35.5849542112684
 10
45.73778103644446
 20
35.50489909426856
  0
LWPOLYLINE
  5
4E1
330
1E
100
AcDbEntity
  8
OBJECT
100
AcDbPolyline
 90
        4
 70
     0
 43
0.0
 10
49.68178103644447
 20
35.50489909426857
 10
49.68178103644447
 20
35.5849542112684
 10
49.38178103644446
 20
35.5849542112684
 10
49.38178103644447
 20
35.50489909426856
  0
LWPOLYLINE
  5
4E7
330
1E
100
AcDbEntity
  8
OBJECT
100
AcDbPolyline
 90
        4
 70
     0
 43
0.0
 10
48.69578103644446
 20
35.50489909426857
 10
48.69578103644446
 20
35.5849542112684
 10
48.39578103644447
 20
35.5849542112684
 10
48.39578103644447
 20
35.50489909426856
  0
LWPOLYLINE
  5
4ED
330
1E
100
AcDbEntity
  8
OBJECT
100
AcDbPolyline
 90
        4
 70
     0
 43
0.0
 10
47.70978103644446
 20
35.50489909426857
 10
47.70978103644446
 20
35.5849542112684
 10
47.40978103644446
 20
35.5849542112684
 10
47.40978103644446
 20
35.50489909426856
  0
LWPOLYLINE
  5
4F3
330
1E
100
AcDbEntity
  8
OBJECT
100
AcDbPolyline
 90
        4
 70
     0
 43
0.0
 10
46.72378103644446
 20
35.50489909426857
 10
46.72378103644446
 20
35.5849542112684
 10
46.42378103644445
 20
35.5849542112684
 10
46.42378103644447
 20
35.50489909426856
  0
LWPOLYLINE
  5
4F9
330
1E
100
AcDbEntity
  8
OBJECT
100
AcDbPolyline
 90
        4
 70
     0
 43
0.0
 10
41.30878103644447
 20
35.50489909426857
 10
41.30878103644447
 20
35.58495421126838
 10
41.88378103644448
 20
35.58495421126837
 10
41.88378103644448
 20
35.50489909426857
  0
LWPOLYLINE
  5
4FF
330
1E
100
AcDbEntity
  8
OBJECT
100
AcDbPolyline
 90
        4
 70
     0
 43
0.0
 10
40.58128103644447
 20
35.50489909426857
 10
40.58128103644447
 20
35.58495421126838
 10
41.15628103644445
 20
35.58495421126837
 10
41.15628103644445
 20
35.50489909426857
  0
LWPOLYLINE
  5
505
330
1E
100
AcDbEntity
  8
OBJECT
100
AcDbPolyline
 90
        4
 70
     0
 43
0.0
 10
51.58028103644445
 20
35.50489909426857
 10
51.58028103644445
 20
35.58495421126838
 10
51.00528103644446
 20
35.58495421126837
 10
51.00528103644446
 20
35.50489909426857
  0
LWPOLYLINE
  5
50B
330
1E
100
AcDbEntity
  8
OBJECT
100
AcDbPolyline
 90
        4
 70
     0
 43
0.0
 10
50.85278103644444
 20
35.50489909426857
 10
50.85278103644444
 20
35.58495421126838
 10
50.27778103644444
 20
35.58495421126837
 10
50.27778103644444
 20
35.50489909426857
  0
INSERT
  5
511
330
1E
100
AcDbEntity
  8
OBJECT
100
AcDbBlockReference
  2
*X0
 10
33.37820116999
 20
-15.12992921574664
 30
0.0
1001
ACAD
1000
HATCH
1002
{
1070
    16
1000
PLASTI
1040
2.0
1040
0.7853981633974483
1002
}
  0
LWPOLYLINE
  5
512
330
1E
100
AcDbEntity
  8
OBJECT
100
AcDbPolyline
 90
        4
 70
     0
 43
0.0
 10
60.87560618753408
 20
25.65687893390775
 10
60.95566130453391
 20
25.65687893390775
 10
60.95566130453391
 20
25.08187893390774
 10
60.87560618753408
 20
25.08187893390774
  0
LWPOLYLINE
  5
518
330
1E
100
AcDbEntity
  8
OBJECT
100
AcDbPolyline
 90
        4
 70
     0
 43
0.0
 10
60.87560618753408
 20
25.76487893390774
 10
60.95566130453391
 20
25.76487893390774
 10
60.95566130453391
 20
26.33987893390774
 10
60.87560618753408
 20
26.33987893390774
  0
LINE
  5
51E
330
1E
100
AcDbEntity
  8
OBJECT
100
AcDbLine
 10
60.62660618753408
 20
13.32088842430951
 30
0.0
 11
60.62660618753408
 21
12.9280245258855
 31
0.0
  0
LINE
  5
51F
330
1E
100
AcDbEntity
  8
OBJECT
100
AcDbLine
 10
60.62660618753408
 20
14.30688842430951
 30
0.0
 11
60.62660618753408
 21
13.78886944350591
 31
0.0
  0
LINE
  5
520
330
1E
100
AcDbEntity
  8
OBJECT
100
AcDbLine
 10
60.62660618753408
 20
15.29288842430951
 30
0.0
 11
60.62660618753408
 21
14.7748694435059
 31
0.0
  0
LINE
  5
521
330
1E
100
AcDbEntity
  8
OBJECT
100
AcDbLine
 10
60.62660618753408
 20
16.2788884243095
 30
0.0
 11
60.62660618753408
 21
15.7608694435059
 31
0.0
  0
LINE
  5
522
330
1E
100
AcDbEntity
  8
OBJECT
100
AcDbLine
 10
60.62660618753407
 20
17.26488842430951
 30
0.0
 11
60.62660618753408
 21
16.7468694435059
 31
0.0
  0
DIMENSION
  5
523
330
1E
100
AcDbEntity
  8
DIM
100
AcDbDimension
  2
*D24
 10
60.87560618753408
 20
17.09473222698724
 30
0.0
 11
64.34201243753408
 21
17.09473222698724
 31
0.0
 70
    32
 71
     5
 42
0.1340000000000145
  3
23NSTD
100
AcDbAlignedDimension
 13
60.74160618753406
 23
17.11292489530047
 33
0.0
 14
60.87560618753408
 24
17.11292489530047
 34
0.0
100
AcDbRotatedDimension
  0
LWPOLYLINE
  5
524
330
1E
100
AcDbEntity
  8
OBJECT
100
AcDbPolyline
 90
        4
 70
     0
 43
0.0
 10
60.87560618753408
 20
18.2968789339077
 10
60.75060618753408
 20
18.2968789339077
 10
60.75060618753408
 20
18.5148789339077
 10
60.87560618753408
 20
18.5148789339077
  0
LWPOLYLINE
  5
52A
330
1E
100
AcDbEntity
  8
OBJECT
100
AcDbPolyline
 90
        4
 70
     0
 43
0.0
 10
60.87560618753408
 20
18.5783789339077
 10
60.75060618753408
 20
18.5783789339077
 10
60.75060618753408
 20
18.79637893390771
 10
60.87560618753408
 20
18.79637893390771
  0
LWPOLYLINE
  5
530
330
1E
100
AcDbEntity
  8
OBJECT
100
AcDbPolyline
 90
        3
 70
     0
 43
0.0
 10
60.75060618753408
 20
18.96887893390772
 10
60.75060618753408
 20
18.85987893390771
 10
60.87560618753408
 20
18.85987893390771
  0
LWPOLYLINE
  5
535
330
1E
100
AcDbEntity
  8
OBJECT
100
AcDbPolyline
 90
        4
 70
     0
 43
0.0
 10
55.76549603353345
 20
11.37337893390772
 10
55.70849603353345
 20
11.37337893390772
 42
1.0
 10
55.70849603353345
 20
11.26337893390772
 10
55.76549603353345
 20
11.26337893390772
  0
LWPOLYLINE
  5
53B
330
1E
100
AcDbEntity
  8
OBJECT
100
AcDbPolyline
 90
       47
 70
     0
 43
0.0
 10
55.76549603353345
 20
11.49943047097747
 10
60.70326219201974
 20
11.58249855007877
 42
0.2321119028290795
 10
60.7338487058521
 20
11.59814983113734
 10
60.48460422858068
 20
11.60683934162655
 42
-0.4040262258351634
 10
60.46560618753407
 20
11.62651238903283
 10
60.46560618753407
 20
12.14424547878257
 42
-0.4040262258351634
 10
60.4846042285804
 20
12.16391852618868
 10
60.74160618753408
 20
12.17287893390771
 10
60.74160618753408
 20
12.20587893390772
 10
60.3806042285807
 20
12.21483934162657
 42
-0.4040262258351634
 10
60.36160618753407
 20
12.23451238903286
 10
60.36160618753409
 20
12.90224547878256
 42
-0.4040262258351634
 10
60.3806042285804
 20
12.92191852618867
 10
60.74160618753408
 20
12.93087893390771
 10
60.74160618753408
 20
13.3168789339077
 10
60.48460422858068
 20
13.32583934162657
 42
-0.4040262258351634
 10
60.46560618753407
 20
13.34551238903285
 10
60.46560618753407
 20
13.76424547878256
 42
-0.4040262258351634
 10
60.4846042285804
 20
13.78391852618867
 10
60.74160618753408
 20
13.7928789339077
 10
60.74160618753408
 20
14.30287893390771
 10
60.48460422858068
 20
14.31183934162657
 42
-0.4040262258351634
 10
60.46560618753407
 20
14.33151238903286
 10
60.46560618753407
 20
14.75024547878256
 42
-0.4040262258351634
 10
60.4846042285804
 20
14.76991852618868
 10
60.74160618753408
 20
14.77887893390771
 10
60.74160618753406
 20
15.28887893390771
 10
60.48460422858068
 20
15.29783934162657
 42
-0.4040262258351634
 10
60.46560618753407
 20
15.31751238903285
 10
60.46560618753407
 20
15.73624547878257
 42
-0.4040262258351634
 10
60.4846042285804
 20
15.75591852618868
 10
60.74160618753408
 20
15.76487893390772
 10
60.74160618753406
 20
16.27487893390771
 10
60.48460422858068
 20
16.28383934162656
 42
-0.4040262258351634
 10
60.46560618753407
 20
16.30351238903285
 10
60.46560618753407
 20
16.72224547878256
 42
-0.4040262258351634
 10
60.4846042285804
 20
16.74191852618867
 10
60.74160618753408
 20
16.75087893390771
 10
60.74160618753406
 20
17.26087893390771
 10
60.48460422858068
 20
17.26983934162657
 42
-0.4040262258351634
 10
60.46560618753407
 20
17.28951238903285
 10
60.46560618753407
 20
17.70824547878256
 42
-0.4040262258351634
 10
60.4846042285804
 20
17.72791852618868
 10
60.74160618753408
 20
17.73687893390771
 10
60.74160618753408
 20
18.18147737390768
 10
60.60360618753407
 20
18.18147737390768
 10
60.60360618753407
 20
18.96887893390771
  0
INSERT
  5
56C
330
1E
100
AcDbEntity
  8
OBJECT
100
AcDbBlockReference
  2
*X1
 10
33.37820116999
 20
-15.12992921574664
 30
0.0
1001
ACAD
1000
HATCH
1002
{
1070
    16
1000
PLASTI
1040
2.0
1040
2.356194490192344
1002
}
  0
LINE
  5
56D
330
1E
100
AcDbEntity
  8
OBJECT
100
AcDbLine
 10
52.26768562763809
 20
31.59670316000053
 30
0.0
 11
52.10174962609567
 21
30.58388675512021
 31
0.0
  0
TEXT
  5
56E
330
1E
100
AcDbEntity
  8
TEXT
100
AcDbText
 10
20.36471314385119
 20
2.354256192659991
 30
0.0
 40
0.5616000000000002
  1
A
 41
0.75
  7
TXT
 72
     4
 11
20.50511314385119
 21
2.635056192659991
 31
0.0
100
AcDbText
  0
TEXT
  5
56F
330
1E
100
AcDbEntity
  8
TEXT
100
AcDbText
 10
22.91252594971238
 20
2.354256192659991
 30
0.0
 40
0.5616000000000002
  1
B
 41
0.75
  7
TXT
 72
     4
 11
23.05292594971237
 21
2.635056192659991
 31
0.0
100
AcDbText
  0
TEXT
  5
570
330
1E
100
AcDbEntity
  8
TEXT
100
AcDbText
 10
25.39476138974626
 20
2.354256192659991
 30
0.0
 40
0.5616000000000002
  1
C
 41
0.75
  7
TXT
 72
     4
 11
25.53516138974626
 21
2.635056192659991
 31
0.0
100
AcDbText
  0
TEXT
  5
571
330
1E
100
AcDbEntity
  8
TEXT
100
AcDbText
 10
27.96155291399749
 20
2.354256192659991
 30
0.0
 40
0.5616000000000002
  1
D
 41
0.75
  7
TXT
 72
     4
 11
28.10195291399749
 21
2.635056192659991
 31
0.0
100
AcDbText
  0
TEXT
  5
572
330
1E
100
AcDbEntity
  8
TEXT
100
AcDbText
 10
30.45014929508195
 20
2.354256192659991
 30
0.0
 40
0.5616000000000002
  1
E
 41
0.75
  7
TXT
 72
     4
 11
30.59054929508195
 21
2.635056192659991
 31
0.0
100
AcDbText
  0
TEXT
  5
573
330
1E
100
AcDbEntity
  8
TEXT
100
AcDbText
 10
32.93474577325102
 20
2.354256192659991
 30
0.0
 40
0.5616000000000002
  1
F
 41
0.75
  7
TXT
 72
     4
 11
33.07514577325102
 21
2.635056192659991
 31
0.0
100
AcDbText
  0
TEXT
  5
574
330
1E
100
AcDbEntity
  8
TEXT
100
AcDbText
 10
35.43998163463128
 20
2.354256192659991
 30
0.0
 40
0.5616000000000002
  1
G
 41
0.75
  7
TXT
 72
     4
 11
35.58038163463128
 21
2.635056192659991
 31
0.0
100
AcDbText
  0
TEXT
  5
575
330
1E
100
AcDbEntity
  8
TEXT
100
AcDbText
 10
37.96266927828387
 20
2.354256192659991
 30
0.0
 40
0.5616000000000002
  1
H
 41
0.75
  7
TXT
 72
     4
 11
38.10306927828387
 21
2.635056192659991
 31
0.0
100
AcDbText
  0
TEXT
  5
576
330
1E
100
AcDbEntity
  8
TEXT
100
AcDbText
 10
40.47862361047172
 20
2.354256192659991
 30
0.0
 40
0.5616000000000002
  1
J
 41
0.75
  7
TXT
 72
     4
 11
40.61902361047171
 21
2.635056192659991
 31
0.0
100
AcDbText
  0
TEXT
  5
577
330
1E
100
AcDbEntity
  8
TEXT
100
AcDbText
 10
42.93137465255809
 20
2.354256192659991
 30
0.0
 40
0.5616000000000002
  1
K
 41
0.75
  7
TXT
 72
     4
 11
43.07177465255809
 21
2.635056192659991
 31
0.0
100
AcDbText
  0
TEXT
  5
578
330
1E
100
AcDbEntity
  8
TEXT
100
AcDbText
 10
45.47416736155097
 20
2.354256192659991
 30
0.0
 40
0.5616000000000002
  1
L
 41
0.75
  7
TXT
 72
     4
 11
45.61456736155096
 21
2.635056192659991
 31
0.0
100
AcDbText
  0
TEXT
  5
579
330
1E
100
AcDbEntity
  8
TEXT
100
AcDbText
 10
47.96261169068475
 20
2.354256192659991
 30
0.0
 40
0.5616000000000002
  1
M
 41
0.75
  7
TXT
 72
     4
 11
48.10301169068475
 21
2.635056192659991
 31
0.0
100
AcDbText
  0
TEXT
  5
57A
330
1E
100
AcDbEntity
  8
TEXT
100
AcDbText
 10
50.56326599856699
 20
2.354256192659991
 30
0.0
 40
0.5616000000000002
  1
N
 41
0.75
  7
TXT
 72
     4
 11
50.70366599856699
 21
2.635056192659991
 31
0.0
100
AcDbText
  0
TEXT
  5
57B
330
1E
100
AcDbEntity
  8
TEXT
100
AcDbText
 10
53.05335250576719
 20
2.354256192659991
 30
0.0
 40
0.5616000000000002
  1
P
 41
0.75
  7
TXT
 72
     4
 11
53.19375250576719
 21
2.635056192659991
 31
0.0
100
AcDbText
  0
TEXT
  5
57C
330
1E
100
AcDbEntity
  8
TEXT
100
AcDbText
 10
55.53230893306741
 20
2.354256192659991
 30
0.0
 40
0.5616000000000002
  1
R
 41
0.75
  7
TXT
 72
     4
 11
55.67270893306741
 21
2.635056192659991
 31
0.0
100
AcDbText
  0
TEXT
  5
57D
330
1E
100
AcDbEntity
  8
TEXT
100
AcDbText
 10
58.04471677224916
 20
2.354256192659991
 30
0.0
 40
0.5616000000000002
  1
S
 41
0.75
  7
TXT
 72
     4
 11
58.18511677224916
 21
2.635056192659991
 31
0.0
100
AcDbText
  0
TEXT
  5
57E
330
1E
100
AcDbEntity
  8
TEXT
100
AcDbText
 10
60.60317802771651
 20
2.354256192659991
 30
0.0
 40
0.5616000000000002
  1
T
 41
0.75
  7
TXT
 72
     4
 11
60.7435780277165
 21
2.635056192659991
 31
0.0
100
AcDbText
  0
TEXT
  5
57F
330
1E
100
AcDbEntity
  8
TEXT
100
AcDbText
 10
63.05561765299561
 20
2.354256192659991
 30
0.0
 40
0.5616000000000002
  1
U
 41
0.75
  7
TXT
 72
     4
 11
63.19601765299561
 21
2.635056192659991
 31
0.0
100
AcDbText
  0
TEXT
  5
580
330
1E
100
AcDbEntity
  8
TEXT
100
AcDbText
 10
52.45729765345725
 20
41.50477981651376
 30
0.0
 40
0.5616000000000002
  1
INTERNAL HINGED PANEL MOUNTING BRACKETS,
 41
0.75
  7
TXT
100
AcDbText
  0
TEXT
  5
581
330
1E
100
AcDbEntity
  8
TEXT
100
AcDbText
 10
52.45729765345725
 20
40.56877981651378
 30
0.0
 40
0.5616000000000002
  1
STAINLESS STEEL LOCKING HASP,
 41
0.75
  7
TXT
100
AcDbText
  0
LINE
  5
582
330
1E
100
AcDbEntity
  8
TITLE
100
AcDbLine
 10
69.471
 20
2.164420871558512
 30
0.0
 11
0.279000000000007
 21
2.164420871558512
 31
0.0
  0
LINE
  5
584
330
1E
100
AcDbEntity
  8
TITLE
100
AcDbLine
 10
19.27900000000001
 20
4.048881880732817
 30
0.0
 11
0.2790000000000052
 21
4.048881880732819
 31
0.0
  0
TEXT
  5
585
330
1E
100
AcDbEntity
  8
TEXT
100
AcDbText
 10
0.5358000822681655
 20
0.9298666966122652
 30
0.0
 40
0.5629300458715596
  1
NBB-10247
 41
0.75
  7
TXT
 72
     1
 11
2.259773347749816
 21
0.9298666966122652
 31
0.0
100
AcDbText
  0
TEXT
  5
586
330
1E
100
AcDbEntity
  8
TEXT
100
AcDbText
 10
1.204279511740641
 20
2.345698386695529
 30
0.0
 40
0.5629300458715596
  1
COVER
 41
0.75
  7
TXT
 72
     1
 11
2.259773347749816
 21
2.345698386695529
 31
0.0
100
AcDbText
  0
TEXT
  5
587
330
1E
100
AcDbEntity
  8
TEXT
100
AcDbText
 10
1.345012023208531
 20
3.306618154713666
 30
0.0
 40
0.5629300458715596
  1
SOLID
 41
0.75
  7
TXT
 72
     1
 11
2.259773347749816
 21
3.306618154713666
 31
0.0
100
AcDbText
  0
TEXT
  5
588
330
1E
100
AcDbEntity
  8
TEXT
100
AcDbText
 10
2.942339894357441
 20
4.244658525968381
 30
0.0
 40
0.5629300458715596
  1
PART NO.
 41
0.75
  7
TXT
 72
     1
 11
4.420031264770284
 21
4.244658525968381
 31
0.0
100
AcDbText
  0
TEXT
  5
589
330
1E
100
AcDbEntity
  8
TEXT
100
AcDbText
 10
5.255568290219761
 20
2.345698386695529
 30
0.0
 40
0.5629300458715596
  1
COVER
 41
0.75
  7
TXT
 72
     1
 11
6.311062126228935
 21
2.345698386695529
 31
0.0
100
AcDbText
  0
TEXT
  5
58A
330
1E
100
AcDbEntity
  8
TEXT
100
AcDbText
 10
5.325934545953706
 20
3.306618154713666
 30
0.0
 40
0.5629300458715596
  1
CLEAR
 41
0.75
  7
TXT
 72
     1
 11
6.311062126228935
 21
3.306618154713666
 31
0.0
100
AcDbText
  0
TEXT
  5
58B
330
1E
100
AcDbEntity
  8
TEXT
100
AcDbText
 10
4.587088860747284
 20
0.9298666966122652
 30
0.0
 40
0.5629300458715596
  1
NBB-10267
 41
0.75
  7
TXT
 72
     1
 11
6.311062126228935
 21
0.9298666966122652
 31
0.0
100
AcDbText
  0
LINE
  5
58C
330
1E
100
AcDbEntity
  8
TITLE
100
AcDbLine
 10
69.47099999999998
 20
4.991112385319981
 30
0.0
 11
0.2789999999999984
 21
4.991112385319981
 31
0.0
  0
TEXT
  5
58D
330
1E
100
AcDbEntity
  8
TEXT
100
AcDbText
 10
39.25574999999997
 20
3.697881880732856
 30
0.0
 40
0.7019999999999995
  1
DIMENSIONS
 41
0.75
  7
TXT
 72
     4
 11
41.62499999999996
 21
4.048881880732856
 31
0.0
100
AcDbText
  0
TEXT
  5
58E
330
1E
100
AcDbEntity
  8
TEXT
100
AcDbText
 10
10.56974999999999
 20
43.94549999999997
 30
0.0
 40
0.7500000000000001
  1
NON-METALLIC ENCLOSURE (STYLE B)
 41
0.75
  7
TXT
 72
     4
 11
19.19474999999999
 21
44.32049999999998
 31
0.0
100
AcDbText
  0
TEXT
  5
58F
330
1E
100
AcDbEntity
  8
TEXT
100
AcDbText
 10
41.74274999999997
 20
43.94550000000001
 30
0.0
 40
0.7500000000000001
  1
NBB-10247 & NBB-10267 & NBB-15247 & NBB-22247
 41
0.75
  7
TXT
 72
     4
 11
53.93024999999997
 21
44.32050000000001
 31
0.0
100
AcDbText
  0
TEXT
  5
590
330
1E
100
AcDbEntity
  8
TEXT
100
AcDbText
 10
50.49500693363295
 20
7.99043461243496
 30
0.0
 40
0.5635321100917432
  1
DIMENSIONS =
 41
0.75
  7
TXT
100
AcDbText
  0
TEXT
  5
591
330
1E
100
AcDbEntity
  8
TEXT
100
AcDbText
 10
56.76810442430114
 20
8.474028544150847
 30
0.0
 40
0.5635321100917432
  1
INCHES
 41
0.75
  7
TXT
 72
     1
 11
57.89516864448462
 21
8.474028544150847
 31
0.0
100
AcDbText
  0
TEXT
  5
592
330
1E
100
AcDbEntity
  8
TEXT
100
AcDbText
 10
55.50015717659472
 20
7.534808360664604
 30
0.0
 40
0.5635321100917432
  1
[MILLIMETERS]
 41
0.75
  7
TXT
 72
     1
 11
57.89516864448462
 21
7.534808360664604
 31
0.0
100
AcDbText
  0
TEXT
  5
593
330
1E
100
AcDbEntity
  8
TEXT
100
AcDbText
 10
56.74083877594656
 20
34.1194693676478
 30
0.0
 40
0.5635321100917432
  1
(4) WALL MOUNTING BRKTS.
 41
0.75
  7
TXT
100
AcDbText
  0
TEXT
  5
594
330
1E
100
AcDbEntity
  8
TEXT
100
AcDbText
 10
56.74083877594656
 20
32.24102900067532
 30
0.0
 40
0.5635321100917432
  1
HD. MACHINE SCREWS (NOT SHOWN)
 41
0.75
  7
TXT
100
AcDbText
  0
TEXT
  5
595
330
1E
100
AcDbEntity
  8
TEXT
100
AcDbText
 10
52.45729765345725
 20
39.63277981651376
 30
0.0
 40
0.5635321100917432
  1
AIR AND MOISTURE VENTS AND GALVANIZED
 41
0.75
  7
TXT
100
AcDbText
  0
TEXT
  5
596
330
1E
100
AcDbEntity
  8
TEXT
100
AcDbText
 10
52.45729765345725
 20
38.69597222568471
 30
0.0
 40
0.5635321100917432
  1
STEEL INTERNAL PANEL ARE NOT INCLUDED,
 41
0.75
  7
TXT
100
AcDbText
  0
TEXT
  5
597
330
1E
100
AcDbEntity
  8
TEXT
100
AcDbText
 10
52.45729765345725
 20
37.75072706422019
 30
0.0
 40
0.5635321100917432
  1
BUT CAN BE PURCHASED SEPARATELY.
 41
0.75
  7
TXT
100
AcDbText
  0
TEXT
  5
598
330
1E
100
AcDbEntity
  8
TEXT
100
AcDbText
 10
54.50632326883727
 20
35.01053814247592
 30
0.0
 40
0.5635321100917432
  1
%%UNOTE:%%u UNIT COMES COMPLETE WITH
 41
0.75
  7
TXT
100
AcDbText
  0
TEXT
  5
599
330
1E
100
AcDbEntity
  8
TEXT
100
AcDbText
 10
0.7790000000000124
 20
24.71198104960953
 30
0.0
 40
0.5635321100917432
  1
%%UINDUSTRY STANDARDS:
 41
0.75
  7
TXT
100
AcDbText
  0
TEXT
  5
59A
330
1E
100
AcDbEntity
  8
TEXT
100
AcDbText
 10
1.341500000000012
 20
22.83354068263704
 30
0.0
 40
0.5635321100917432
  1
UL508 TYPE 1, 2, 3, 3R, 4, 4X INDOOR, 12 & 13
 41
0.75
  7
TXT
100
AcDbText
  0
TEXT
  5
59B
330
1E
100
AcDbEntity
  8
TEXT
100
AcDbText
 10
1.341500000000012
 20
21.89432049915081
 30
0.0
 40
0.5635321100917432
  1
NEMA TYPE 1, 2, 3, 3R, 4, 4X, 12 & 13
 41
0.75
  7
TXT
100
AcDbText
  0
TEXT
  5
59C
330
1E
100
AcDbEntity
  8
TEXT
100
AcDbText
 10
1.341500000000012
 20
20.95510031566457
 30
0.0
 40
0.5635321100917432
  1
IEC529-IP65
 41
0.75
  7
TXT
100
AcDbText
  0
TEXT
  5
59D
330
1E
100
AcDbEntity
  8
TEXT
100
AcDbText
 10
11.63804509282318
 20
39.628888147141
 30
0.0
 40
0.5635321100917432
  1
UL94-5VB FLAMMABILITY RATING
 41
0.75
  7
TXT
100
AcDbText
  0
TEXT
  5
59F
330
1E
100
AcDbEntity
  8
TEXT
100
AcDbText
 10
50.49500693363295
 20
6.17681014444286
 30
0.0
 40
0.5635321100917432
  1
%%UNOTE%%U: ALL DIMENSIONS HAVE %%P0.039 [%%P1] TOLERANCE
 41
0.75
  7
TXT
100
AcDbText
  0
TEXT
  5
5A0
330
1E
100
AcDbEntity
  8
TEXT
100
AcDbText
 10
52.30114956258518
 20
5.263476916231847
 30
0.0
 40
0.5635321100917432
  1
 UNLESS OTHERWISE SPECIFIED
 41
0.75
  7
TXT
100
AcDbText
  0
LINE
  5
5A1
330
1E
100
AcDbEntity
  8
TITLE
100
AcDbLine
 10
69.47080000000003
 20
1.222190366971354
 30
0.0
 11
19.279
 21
1.222190366971354
 31
0.0
  0
TEXT
  5
5A2
330
1E
100
AcDbEntity
  8
TEXT
100
AcDbText
 10
11.63804509282318
 20
36.82276535885424
 30
0.0
 40
0.5635321100917432
  1
UL94V-0 FLAMMABILITY RATING
 41
0.75
  7
TXT
100
AcDbText
  0
LINE
  5
5A3
330
1E
100
AcDbEntity
  8
TITLE
100
AcDbLine
 10
8.279000000000001
 20
0.2790000000000052
 30
0.0
 11
8.27900000000001
 21
6.875573394494282
 31
0.0
  0
LINE
  5
5A4
330
1E
100
AcDbEntity
  8
TITLE
100
AcDbLine
 10
4.279000000000013
 20
0.2790000000000052
 30
0.0
 11
4.279000000000022
 21
4.048881880732819
 31
0.0
  0
LINE
  5
5A5
330
1E
100
AcDbEntity
  8
TITLE
100
AcDbLine
 10
19.27900000000001
 20
6.875573394494283
 30
0.0
 11
0.2790000000000052
 21
6.875573394494281
 31
0.0
  0
TEXT
  5
5A6
330
1E
100
AcDbEntity
  8
TEXT
100
AcDbText
 10
2.522517476639224
 20
6.133309668475151
 30
0.0
 40
0.5629300458715596
  1
UL LISTED
 41
0.75
  7
TXT
 72
     1
 11
4.281673869987848
 21
6.133309668475151
 31
0.0
100
AcDbText
  0
TEXT
  5
5A7
330
1E
100
AcDbEntity
  8
TEXT
100
AcDbText
 10
1.467023640630049
 20
5.172389900457014
 30
0.0
 40
0.5629300458715596
  1
INDOOR VERSION
 41
0.75
  7
TXT
 72
     1
 11
4.281673869987848
 21
5.172389900457014
 31
0.0
100
AcDbText
  0
TEXT
  5
5A8
330
1E
100
AcDbEntity
  8
TEXT
100
AcDbText
 10
10.76198622886497
 20
2.345698386695513
 30
0.0
 40
0.5629300458715596
  1
COVER
 41
0.75
  7
TXT
 72
     1
 11
11.81748006487414
 21
2.345698386695513
 31
0.0
100
AcDbText
  0
TEXT
  5
5A9
330
1E
100
AcDbEntity
  8
TEXT
100
AcDbText
 10
10.05832367152551
 20
0.9298666966122652
 30
0.0
 40
0.5629300458715596
  1
NBB-15247
 41
0.75
  7
TXT
 72
     1
 11
11.81748006487413
 21
0.9298666966122652
 31
0.0
100
AcDbText
  0
TEXT
  5
5AA
330
1E
100
AcDbEntity
  8
TEXT
100
AcDbText
 10
10.90271874033285
 20
3.306618154713651
 30
0.0
 40
0.5629300458715596
  1
SOLID
 41
0.75
  7
TXT
 72
     1
 11
11.81748006487414
 21
3.306618154713651
 31
0.0
100
AcDbText
  0
TEXT
  5
5AB
330
1E
100
AcDbEntity
  8
TEXT
100
AcDbText
 10
8.721364812580567
 20
5.172389900457001
 30
0.0
 40
0.5629300458715596
  1
OUTDOOR VERSION
 41
0.75
  7
TXT
 72
     1
 11
11.81748006487414
 21
5.172389900457001
 31
0.0
100
AcDbText
  0
TEXT
  5
5AC
330
1E
100
AcDbEntity
  8
TEXT
100
AcDbText
 10
10.05832367152552
 20
6.133309668475142
 30
0.0
 40
0.5629300458715596
  1
UL LISTED
 41
0.75
  7
TXT
 72
     1
 11
11.81748006487414
 21
6.133309668475142
 31
0.0
100
AcDbText
  0
TEXT
  5
5AD
330
1E
100
AcDbEntity
  8
TEXT
100
AcDbText
 10
10.3397886944613
 20
4.244658525968349
 30
0.0
 40
0.5629300458715596
  1
PART NO.
 41
0.75
  7
TXT
 72
     1
 11
11.81748006487414
 21
4.244658525968349
 31
0.0
100
AcDbText
  0
TEXT
  5
5AE
330
1E
100
AcDbEntity
  8
TEXT
100
AcDbText
 10
1.341500000000012
 20
23.77276086612329
 30
0.0
 40
0.5635321100917432
  1
%%uUL LISTED INDOOR VERSION
 41
0.75
  7
TXT
100
AcDbText
  0
TEXT
  5
5AF
330
1E
100
AcDbEntity
  8
TEXT
100
AcDbText
 10
1.341500000000012
 20
17.83482494587741
 30
0.0
 40
0.5635321100917432
  1
NEMA TYPE 1, 2, 3, 3R, 4, 4X, 12 & 13
 41
0.75
  7
TXT
100
AcDbText
  0
TEXT
  5
5B0
330
1E
100
AcDbEntity
  8
TEXT
100
AcDbText
 10
1.341500000000012
 20
18.77404512936364
 30
0.0
 40
0.5635321100917432
  1
UL508 TYPE 1, 2, 3, 3R, 4, 4X, 12 & 13
 41
0.75
  7
TXT
100
AcDbText
  0
TEXT
  5
5B1
330
1E
100
AcDbEntity
  8
TEXT
100
AcDbText
 10
1.341500000000012
 20
19.71326531284989
 30
0.0
 40
0.5635321100917432
  1
%%uUL LISTED OUTDOOR VERSION
 41
0.75
  7
TXT
100
AcDbText
  0
TEXT
  5
5B2
330
1E
100
AcDbEntity
  8
TEXT
100
AcDbText
 10
1.341500000000012
 20
16.89560476239117
 30
0.0
 40
0.5635321100917432
  1
IEC529-IP65
 41
0.75
  7
TXT
100
AcDbText
  0
TEXT
  5
5B3
330
1E
100
AcDbEntity
  8
TEXT
100
AcDbText
 10
11.63804509282318
 20
37.76198554234047
 30
0.0
 40
0.5635321100917432
  1
POLYCARBONATE PLASTIC
 41
0.75
  7
TXT
100
AcDbText
  0
LINE
  5
5B4
330
1E
100
AcDbEntity
  8
TEXT
100
AcDbLine
 10
37.00172396335338
 20
38.0515610824966
 30
0.0
 11
38.11092281109387
 21
38.05156108249658
 31
0.0
  0
LINE
  5
5B5
330
1E
100
AcDbEntity
  8
TEXT
100
AcDbLine
 10
34.37794661675416
 20
38.99078126598282
 30
0.0
 11
38.11092281109387
 21
38.99078126598282
 31
0.0
  0
LINE
  5
5B6
330
1E
100
AcDbEntity
  8
TEXT
100
AcDbLine
 10
30.00498468532626
 20
41.50155963302752
 30
0.0
 11
38.11092281109387
 21
41.50155963302752
 31
0.0
  0
TEXT
  5
5B7
330
1E
100
AcDbEntity
  8
TEXT
100
AcDbText
 10
38.39217281109387
 20
40.56233944954128
 30
0.0
 40
0.5635321100917432
  1
LIGHT GRAY OR CLEAR
 41
0.75
  7
TXT
100
AcDbText
  0
TEXT
  5
5B8
330
1E
100
AcDbEntity
  8
TEXT
100
AcDbText
 10
11.63804509282318
 20
40.56810833062725
 30
0.0
 40
0.5635321100917432
  1
ABS/PC BLENDED PLASTIC
 41
0.75
  7
TXT
100
AcDbText
  0
LINE
  5
5B9
330
1E
100
AcDbEntity
  8
TEXT
100
AcDbLine
 10
6.940139022743605
 20
37.76198554234047
 30
0.0
 11
11.35679509282318
 21
37.76198554234047
 31
0.0
  0
TEXT
  5
5BA
330
1E
100
AcDbEntity
  8
TEXT
100
AcDbText
 10
27.5331277182707
 20
38.0515610824966
 30
0.0
 40
0.5635321100917432
  1
WALL MOUNTING BRACKETS
 41
0.75
  7
TXT
100
AcDbText
  0
LINE
  5
5BB
330
1E
100
AcDbEntity
  8
TEXT
100
AcDbLine
 10
30.54639904501729
 20
40.56233944954128
 30
0.0
 11
38.11092281109387
 21
40.56233944954128
 31
0.0
  0
TEXT
  5
5BC
330
1E
100
AcDbEntity
  8
TEXT
100
AcDbText
 10
27.5331277182707
 20
38.99078126598282
 30
0.0
 40
0.5635321100917432
  1
LATCHES & HINGES
 41
0.75
  7
TXT
100
AcDbText
  0
TEXT
  5
5BD
330
1E
100
AcDbEntity
  8
TEXT
100
AcDbText
 10
2.034300318837977
 20
40.56810833062725
 30
0.0
 40
0.5635321100917432
  1
SOLID BODY & COVER
 41
0.75
  7
TXT
100
AcDbText
  0
TEXT
  5
5BE
330
1E
100
AcDbEntity
  8
TEXT
100
AcDbText
 10
2.034300318837977
 20
37.76198554234047
 30
0.0
 40
0.5635321100917432
  1
CLEAR COVER
 41
0.75
  7
TXT
100
AcDbText
  0
TEXT
  5
5BF
330
1E
100
AcDbEntity
  8
TEXT
100
AcDbText
 10
28.22592803710867
 20
40.56233944954128
 30
0.0
 40
0.5635321100917432
  1
COVER
 41
0.75
  7
TXT
100
AcDbText
  0
TEXT
  5
5C0
330
1E
100
AcDbEntity
  8
TEXT
100
AcDbText
 10
1.341500000000012
 20
41.50732851411349
 30
0.0
 40
0.5635321100917432
  1
%%UUL LISTED INDOOR VERSION
 41
0.75
  7
TXT
100
AcDbText
  0
TEXT
  5
5C1
330
1E
100
AcDbEntity
  8
TEXT
100
AcDbText
 10
28.22592803710867
 20
41.50155963302752
 30
0.0
 40
0.5635321100917432
  1
BODY
 41
0.75
  7
TXT
100
AcDbText
  0
TEXT
  5
5C2
330
1E
100
AcDbEntity
  8
TEXT
100
AcDbText
 10
27.5331277182707
 20
42.44077981651376
 30
0.0
 40
0.5635321100917432
  1
%%UFINISH:
 41
0.75
  7
TXT
100
AcDbText
  0
LINE
  5
5C3
330
1E
100
AcDbEntity
  8
TEXT
100
AcDbLine
 10
9.810823575381327
 20
40.56810833062725
 30
0.0
 11
11.35679509282318
 21
40.56810833062725
 31
0.0
  0
TEXT
  5
5C4
330
1E
100
AcDbEntity
  8
TEXT
100
AcDbText
 10
38.39217281109387
 20
38.05156108249654
 30
0.0
 40
0.5635321100917432
  1
STAINLESS STEEL
 41
0.75
  7
TXT
100
AcDbText
  0
TEXT
  5
5C5
330
1E
100
AcDbEntity
  8
TEXT
100
AcDbText
 10
38.39217281109387
 20
38.99078126598282
 30
0.0
 40
0.5635321100917432
  1
NON-METALLIC
 41
0.75
  7
TXT
100
AcDbText
  0
TEXT
  5
5C6
330
1E
100
AcDbEntity
  8
TEXT
100
AcDbText
 10
38.39217281109385
 20
41.50155963302752
 30
0.0
 40
0.5635321100917432
  1
LIGHT GRAY
 41
0.75
  7
TXT
100
AcDbText
  0
TEXT
  5
5C7
330
1E
100
AcDbEntity
  8
TEXT
100
AcDbText
 10
0.7790000000000127
 20
42.44077981651376
 30
0.0
 40
0.5635321100917432
  1
%%UMATERIAL:
 41
0.75
  7
TXT
100
AcDbText
  0
TEXT
  5
5C9
330
1E
100
AcDbEntity
  8
TEXT
100
AcDbText
 10
11.63804509282318
 20
35.85003173010598
 30
0.0
 40
0.5635321100917432
  1
UV STABILIZED
 41
0.75
  7
TXT
100
AcDbText
  0
TEXT
  5
5CA
330
1E
100
AcDbEntity
  8
TEXT
100
AcDbText
 10
11.63804509282318
 20
33.04029655649811
 30
0.0
 40
0.5635321100917432
  1
UL94-5VA FLAMMABILITY RATING
 41
0.75
  7
TXT
100
AcDbText
  0
TEXT
  5
5CC
330
1E
100
AcDbEntity
  8
TEXT
100
AcDbText
 10
11.63804509282318
 20
32.02849848410775
 30
0.0
 40
0.5635321100917432
  1
UV STABILIZED
 41
0.75
  7
TXT
100
AcDbText
  0
TEXT
  5
5CD
330
1E
100
AcDbEntity
  8
TEXT
100
AcDbText
 10
2.034300318837977
 20
33.97951673998434
 30
0.0
 40
0.5635321100917432
  1
SOLID BODY & COVER
 41
0.75
  7
TXT
100
AcDbText
  0
TEXT
  5
5CE
330
1E
100
AcDbEntity
  8
TEXT
100
AcDbText
 10
1.341500000000012
 20
34.9187369234706
 30
0.0
 40
0.5635321100917432
  1
%%UUL LISTED OUTDOOR VERSION
 41
0.75
  7
TXT
100
AcDbText
  0
TEXT
  5
5CF
330
1E
100
AcDbEntity
  8
TEXT
100
AcDbText
 10
11.63804509282318
 20
33.97951673998434
 30
0.0
 40
0.5635321100917432
  1
PBT/PC BLENDED PLASTIC
 41
0.75
  7
TXT
100
AcDbText
  0
LINE
  5
5D0
330
1E
100
AcDbEntity
  8
TEXT
100
AcDbLine
 10
9.778528044867419
 20
33.97951673998434
 30
0.0
 11
11.35679509282318
 21
33.97951673998434
 31
0.0
  0
INSERT
  5
5D1
330
1E
100
AcDbEntity
  8
TITLE
100
AcDbBlockReference
  2
HBS
 10
0.0
 20
0.0
 30
0.0
 41
4.5
 42
4.5
 43
4.5
  0
TEXT
  5
5D2
330
1E
100
AcDbEntity
  8
TEXT
100
AcDbText
 10
25.16775141606415
 20
5.822361969392217
 30
0.0
 40
0.6428571428571429
  1
%%uVIEW LESS COVER
 41
0.75
  7
TXT
 72
     4
 11
28.87221570177844
 21
6.079504826535074
 31
0.0
100
AcDbText
  0
LINE
  5
5D4
330
1E
100
AcDbEntity
  8
TITLE
100
AcDbLine
 10
15.27899999999999
 20
0.2790000000000052
 30
0.0
 11
15.27900000000001
 21
6.875573394494281
 31
0.0
  0
TEXT
  5
5D5
330
1E
100
AcDbEntity
  8
TEXT
100
AcDbText
 10
0.7790000000000124
 20
26.07153703391145
 30
0.0
 40
0.5635321100917432
  1
COVER INCLUDES GRAY POLYURETHANE GASKET.
 41
0.75
  7
TXT
100
AcDbText
  0
TEXT
  5
5D6
330
1E
100
AcDbEntity
  8
TEXT
100
AcDbText
 10
56.74083877594656
 20
33.18024918416156
 30
0.0
 40
0.5635321100917432
  1
& (4) M5 x 10mm LG. TRUSS
 41
0.75
  7
TXT
100
AcDbText
  0
TEXT
  5
5E7
330
1E
100
AcDbEntity
  8
DIM
100
AcDbText
 10
6.075264517268614
 20
7.196933046708004
 30
0.0
 40
0.5601063829500001
  1
METAL SCREWS x 0.250 [6] LG.  (NOT SUPPLIED)
 41
0.75
  7
TXT
 72
     2
 11
23.15850919724363
 21
7.476986238183004
 31
0.0
100
AcDbText
 73
     2
  0
TEXT
  5
5E8
330
1E
100
AcDbEntity
  8
DIM
100
AcDbText
 10
6.705384198087369
 20
8.103745280704053
 30
0.0
 40
0.5601063829500001
  1
BOSSES ACCEPT M5 METRIC OR #10 STD. SHEET
 41
0.75
  7
TXT
 72
     2
 11
23.15850919724363
 21
8.383798472179053
 31
0.0
100
AcDbText
 73
     2
  0
TEXT
  5
5E9
330
1E
100
AcDbEntity
  8
DIM
100
AcDbText
 10
10.34607568726237
 20
9.010557514700103
 30
0.0
 40
0.5601063829500001
  1
HOLE x 0.325 [8] DEEP (36) PLACES
 41
0.75
  7
TXT
 72
     2
 11
23.15850919724363
 21
9.290610706175103
 31
0.0
100
AcDbText
 73
     2
  0
TEXT
  5
5EA
330
1E
100
AcDbEntity
  8
DIM
100
AcDbText
 10
8.875796432018614
 20
9.917369748696152
 30
0.0
 40
0.5601063829500001
  1
0.476 [12] DIA. BOSS WITH 0.166 [4] DIA.
 41
0.75
  7
TXT
 72
     2
 11
23.15850919724363
 21
10.19742294017115
 31
0.0
100
AcDbText
 73
     2
  0
LWPOLYLINE
  5
5EB
330
1E
100
AcDbEntity
  8
DIM
100
AcDbPolyline
 90
        4
 70
     0
 10
25.48514479088399
 20
12.15054784682189
 40
0.0
 41
0.30375
 10
24.96774623277747
 20
11.52733140603322
 40
0.0
 41
0.0
 10
23.6602939044364
 20
10.19742294017115
 40
0.0
 41
0.0
 10
23.2570173087124
 20
10.19742294017115
 40
0.0
 41
0.0
  0
LINE
  5
5FA
330
1E
100
AcDbEntity
  8
TITLE
100
AcDbLine
 10
19.27900000000001
 20
0.2790000000000052
 30
0.0
 11
19.27900000000001
 21
6.875573394494283
 31
0.0
  0
TEXT
  5
5FB
330
1E
100
AcDbEntity
  8
TEXT
100
AcDbText
 10
15.50392157797163
 20
0.9298666966122652
 30
0.0
 40
0.5629300458715596
  1
NBB-22247
 41
0.75
  7
TXT
 72
     1
 11
17.3334442270542
 21
0.9298666966122652
 31
0.0
100
AcDbText
  0
TEXT
  5
5FC
330
1E
100
AcDbEntity
  8
TEXT
100
AcDbText
 10
16.41868290251293
 20
3.306618154713651
 30
0.0
 40
0.5629300458715596
  1
SOLID
 41
0.75
  7
TXT
 72
     1
 11
17.33344422705421
 21
3.306618154713651
 31
0.0
100
AcDbText
  0
TEXT
  5
5FD
330
1E
100
AcDbEntity
  8
TEXT
100
AcDbText
 10
16.27795039104504
 20
2.345698386695513
 30
0.0
 40
0.5629300458715596
  1
COVER
 41
0.75
  7
TXT
 72
     1
 11
17.33344422705421
 21
2.345698386695513
 31
0.0
100
AcDbText
  0
TEXT
  5
5FE
330
1E
100
AcDbEntity
  8
TEXT
100
AcDbText
 10
15.85575285664137
 20
4.244658525968349
 30
0.0
 40
0.5629300458715596
  1
PART NO.
 41
0.75
  7
TXT
 72
     1
 11
17.33344422705421
 21
4.244658525968349
 31
0.0
100
AcDbText
  0
TEXT
  5
A77
330
1E
100
AcDbEntity
  8
TEXT
100
AcDbText
 10
11.61164092239909
 20
29.43449718230592
 30
0.0
 40
0.5635321100917432
  1
UL94-HB FLAMMABILITY RATING
 41
0.75
  7
TXT
100
AcDbText
  0
TEXT
  5
A78
330
1E
100
AcDbEntity
  8
TEXT
100
AcDbText
 10
2.029398554361875
 20
30.37371736579216
 30
0.0
 40
0.5635321100917432
  1
SOLID BODY & COVER
 41
0.75
  7
TXT
100
AcDbText
  0
TEXT
  5
A79
330
1E
100
AcDbEntity
  8
TEXT
100
AcDbText
 10
1.336598235523908
 20
31.31293754927841
 30
0.0
 40
0.5635321100917432
  1
%%UABS VERSION
 41
0.75
  7
TXT
100
AcDbText
  0
LINE
  5
A7A
330
1E
100
AcDbEntity
  8
TEXT
100
AcDbLine
 10
9.89931830690935
 20
30.37371736579216
 30
0.0
 11
11.25189811259682
 21
30.37371736579216
 31
0.0
  0
TEXT
  5
A7B
330
1E
100
AcDbEntity
  8
TEXT
100
AcDbText
 10
11.61164092239909
 20
30.37371736579216
 30
0.0
 40
0.5635321100917432
  1
ABS
 41
0.75
  7
TXT
100
AcDbText
  0
TEXT
  5
AA7
330
1E
100
AcDbEntity
  8
TEXT
100
AcDbText
 10
67.63729476825027
 20
0.5011990498028488
 30
0.0
 40
0.5220000000000001
  1
[25]
 41
0.75
  7
TXT
 72
     4
 11
68.22454476825027
 21
0.7621990498028488
 31
0.0
100
AcDbText
  0
TEXT
  5
AA8
330
1E
100
AcDbEntity
  8
TEXT
100
AcDbText
 10
67.47416976825026
 20
1.43762762123142
 30
0.0
 40
0.5220000000000001
  1
0.986
 41
0.75
  7
TXT
 72
     4
 11
68.22454476825027
 21
1.69862762123142
 31
0.0
100
AcDbText
  0
TEXT
  5
AA9
330
1E
100
AcDbEntity
  8
TEXT
100
AcDbText
 10
65.12781350814977
 20
0.5011990498028488
 30
0.0
 40
0.5220000000000001
  1
[25]
 41
0.75
  7
TXT
 72
     4
 11
65.71506350814977
 21
0.7621990498028488
 31
0.0
100
AcDbText
  0
TEXT
  5
AAA
330
1E
100
AcDbEntity
  8
TEXT
100
AcDbText
 10
64.96468850814976
 20
1.43762762123142
 30
0.0
 40
0.5220000000000001
  1
0.986
 41
0.75
  7
TXT
 72
     4
 11
65.71506350814977
 21
1.69862762123142
 31
0.0
100
AcDbText
  0
TEXT
  5
AAB
330
1E
100
AcDbEntity
  8
TEXT
100
AcDbText
 10
65.50446350814977
 20
2.354256192659991
 30
0.0
 40
0.5616000000000002
  1
V
 41
0.75
  7
TXT
 72
     4
 11
65.71506350814977
 21
2.635056192659991
 31
0.0
100
AcDbText
  0
TEXT
  5
AAC
330
1E
100
AcDbEntity
  8
TEXT
100
AcDbText
 10
68.01394476825027
 20
2.354256192659991
 30
0.0
 40
0.5616000000000002
  1
W
 41
0.75
  7
TXT
 72
     4
 11
68.22454476825027
 21
2.635056192659991
 31
0.0
100
AcDbText
  0
MTEXT
  5
B4E
330
1E
100
AcDbEntity
  8
TEXT
100
AcDbMText
 10
1.425067567716419
 20
29.32914854806344
 30
0.0
 40
0.5635321100917432
 41
21.94599999999999
 71
     1
 72
     5
  1
{\LALL VERSIONS\P}   GASKET               MODIFIED POLYURETHANE
  7
TXT
 73
     1
 44
1.0
  0
LINE
  5
B4F
330
1E
100
AcDbEntity
  8
TEXT
100
AcDbLine
 10
5.220449229678536
 20
27.84275087432252
 30
0.0
 11
11.31371528796137
 21
27.84275087432252
 31
0.0
  0
TEXT
  5
B50
330
1E
100
AcDbEntity
  8
TEXT
100
AcDbText
 10
1.341500000000012
 20
14.4074831725958
 30
0.0
 40
0.5635321100917432
  1
NEMA TYPE 1, 2, 3, 3R, 4, 4X, 12 & 13
 41
0.75
  7
TXT
100
AcDbText
  0
TEXT
  5
B51
330
1E
100
AcDbEntity
  8
TEXT
100
AcDbText
 10
1.341500000000012
 20
13.46826298910956
 30
0.0
 40
0.5635321100917432
  1
IEC529-IP65
 41
0.75
  7
TXT
100
AcDbText
  0
TEXT
  5
B52
330
1E
100
AcDbEntity
  8
TEXT
100
AcDbText
 10
1.341500000000012
 20
15.46692714912056
 30
0.0
 40
0.5635321100917432
  1
%%uABS VERSION
 41
0.75
  7
TXT
100
AcDbText
  0
LINE
  5
B65
330
1E
100
AcDbEntity
  8
TITLE
100
AcDbLine
 10
21.7888
 20
3.106651376145662
 30
0.0
 11
21.7888
 21
0.2790000000000052
 31
0.0
  0
LINE
  5
B66
330
1E
100
AcDbEntity
  8
TITLE
100
AcDbLine
 10
24.2986
 20
3.106651376145663
 30
0.0
 11
24.29860000000001
 21
0.2790000000000052
 31
0.0
  0
LINE
  5
B67
330
1E
100
AcDbEntity
  8
TITLE
100
AcDbLine
 10
26.8084
 20
3.106651376145664
 30
0.0
 11
26.8084
 21
0.2790000000000052
 31
0.0
  0
LINE
  5
B68
330
1E
100
AcDbEntity
  8
TITLE
100
AcDbLine
 10
29.3182
 20
3.106651376145665
 30
0.0
 11
29.3182
 21
0.2790000000000052
 31
0.0
  0
LINE
  5
B69
330
1E
100
AcDbEntity
  8
TITLE
100
AcDbLine
 10
31.828
 20
3.106651376145665
 30
0.0
 11
31.828
 21
0.2790000000000052
 31
0.0
  0
LINE
  5
B6A
330
1E
100
AcDbEntity
  8
TITLE
100
AcDbLine
 10
34.3378
 20
3.106651376145666
 30
0.0
 11
34.3378
 21
0.2790000000000052
 31
0.0
  0
LINE
  5
B6B
330
1E
100
AcDbEntity
  8
TITLE
100
AcDbLine
 10
36.84760000000001
 20
3.106651376145667
 30
0.0
 11
36.84760000000001
 21
0.2790000000000052
 31
0.0
  0
LINE
  5
B6C
330
1E
100
AcDbEntity
  8
TITLE
100
AcDbLine
 10
39.35740000000001
 20
3.106651376145668
 30
0.0
 11
39.35740000000001
 21
0.2790000000000052
 31
0.0
  0
LINE
  5
B6D
330
1E
100
AcDbEntity
  8
TITLE
100
AcDbLine
 10
41.8672
 20
3.106651376145668
 30
0.0
 11
41.86720000000001
 21
0.2790000000000052
 31
0.0
  0
LINE
  5
B6E
330
1E
100
AcDbEntity
  8
TITLE
100
AcDbLine
 10
44.37700000000001
 20
3.106651376145669
 30
0.0
 11
44.37700000000001
 21
0.2790000000000052
 31
0.0
  0
LINE
  5
B6F
330
1E
100
AcDbEntity
  8
TITLE
100
AcDbLine
 10
46.88679999999999
 20
3.10665137614567
 30
0.0
 11
46.8868
 21
0.2790000000000052
 31
0.0
  0
LINE
  5
B70
330
1E
100
AcDbEntity
  8
TITLE
100
AcDbLine
 10
49.3966
 20
3.106651376145671
 30
0.0
 11
49.3966
 21
0.2790000000000052
 31
0.0
  0
LINE
  5
B71
330
1E
100
AcDbEntity
  8
TITLE
100
AcDbLine
 10
51.90640000000001
 20
3.106651376145671
 30
0.0
 11
51.90640000000001
 21
0.2790000000000052
 31
0.0
  0
LINE
  5
B72
330
1E
100
AcDbEntity
  8
TITLE
100
AcDbLine
 10
54.4162
 20
3.106651376145672
 30
0.0
 11
54.4162
 21
0.2790000000000052
 31
0.0
  0
LINE
  5
B73
330
1E
100
AcDbEntity
  8
TITLE
100
AcDbLine
 10
56.926
 20
3.106651376145673
 30
0.0
 11
56.926
 21
0.2790000000000052
 31
0.0
  0
LINE
  5
B74
330
1E
100
AcDbEntity
  8
TITLE
100
AcDbLine
 10
59.4358
 20
3.106651376145673
 30
0.0
 11
59.4358
 21
0.2790000000000052
 31
0.0
  0
LINE
  5
B75
330
1E
100
AcDbEntity
  8
TITLE
100
AcDbLine
 10
61.9456
 20
3.106651376145673
 30
0.0
 11
61.9456
 21
0.2790000000000052
 31
0.0
  0
LINE
  5
B76
330
1E
100
AcDbEntity
  8
TITLE
100
AcDbLine
 10
64.4554
 20
3.106651376145675
 30
0.0
 11
64.4554
 21
0.2790000000000052
 31
0.0
  0
LINE
  5
B77
330
1E
100
AcDbEntity
  8
TITLE
100
AcDbLine
 10
66.96520000000001
 20
3.106651376145676
 30
0.0
 11
66.96520000000001
 21
0.2790000000000052
 31
0.0
  0
LINE
  5
B7A
330
1E
100
AcDbEntity
  8
TITLE
100
AcDbLine
 10
19.279
 20
3.106651376145662
 30
0.0
 11
69.47099999999998
 21
3.106651376145675
 31
0.0
  0
TEXT
  5
B7F
330
1E
100
AcDbEntity
  8
TEXT
100
AcDbText
 10
16.73694625653608
 20
6.133309668475142
 30
0.0
 40
0.5629300458715596
  1
ABS
 41
0.75
  7
TXT
 72
     1
 11
17.29987630240763
 21
6.133309668475142
 31
0.0
100
AcDbText
  0
TEXT
  5
B80
330
1E
100
AcDbEntity
  8
TEXT
100
AcDbText
 10
15.89255118772874
 20
5.172389900457001
 30
0.0
 40
0.5629300458715596
  1
VERSION
 41
0.75
  7
TXT
 72
     1
 11
17.29987630240763
 21
5.172389900457001
 31
0.0
100
AcDbText
  0
TEXT
  5
CB9
330
1E
100
AcDbEntity
  8
TEXT
100
AcDbText
 10
63.84731148258672
 20
-0.6740538067248858
 30
0.0
 40
0.5220000000000001
  1
Revised 26JUN07
 41
0.75
  7
TXT
 72
     4
 11
66.55518648258672
 21
-0.4130538067248857
 31
0.0
100
AcDbText
  0
ENDSEC
  0
SECTION
  2
OBJECTS
  0
DICTIONARY
  5
C
330
0
100
AcDbDictionary
281
     1
  3
ACAD_GROUP
350
D
  3
ACAD_LAYOUT
350
19
  3
ACAD_MLINESTYLE
350
16
  3
ACAD_PLOTSETTINGS
350
18
  3
ACAD_PLOTSTYLENAME
350
E
  0
DICTIONARY
  5
D
102
{ACAD_REACTORS
330
C
102
}
330
C
100
AcDbDictionary
281
     1
  0
DICTIONARY
  5
19
102
{ACAD_REACTORS
330
C
102
}
330
C
100
AcDbDictionary
281
     1
  3
Layout1
350
1D
  3
Model
350
21
  0
DICTIONARY
  5
16
102
{ACAD_REACTORS
330
C
102
}
330
C
100
AcDbDictionary
281
     1
  3
Standard
350
17
  0
DICTIONARY
  5
18
102
{ACAD_REACTORS
330
C
102
}
330
C
100
AcDbDictionary
281
     1
  0
ACDBDICTIONARYWDFLT
  5
E
102
{ACAD_REACTORS
330
C
102
}
330
C
100
AcDbDictionary
281
     1
  3
Normal
350
F
100
AcDbDictionaryWithDefault
340
F
  0
LAYOUT
  5
1D
102
{ACAD_REACTORS
330
19
102
}
330
19
100
AcDbPlotSettings
  1

  2
RICOH Aficio 1060 PCL 5e
  4

  6

 40
0.0
 41
0.0
 42
0.0
 43
0.0
 44
0.0
 45
0.0
 46
0.0
 47
0.0
 48
0.0
 49
0.0
140
0.0
141
0.0
142
1.0
143
1.0
 70
   688
 72
     0
 73
     0
 74
     5
  7
monochrome.ctb
 75
    16
147
1.0
148
0.0
149
0.0
100
AcDbLayout
  1
Layout1
 70
     1
 71
     1
 10
0.0
 20
0.0
 11
12.0
 21
9.0
 12
0.0
 22
0.0
 32
0.0
 14
1.000000000000000E+20
 24
1.000000000000000E+20
 34
1.000000000000000E+20
 15
-1.000000000000000E+20
 25
-1.000000000000000E+20
 35
-1.000000000000000E+20
146
0.0
 13
0.0
 23
0.0
 33
0.0
 16
1.0
 26
0.0
 36
0.0
 17
0.0
 27
1.0
 37
0.0
 76
     0
330
1A
  0
LAYOUT
  5
21
102
{ACAD_REACTORS
330
19
102
}
330
19
100
AcDbPlotSettings
  1

  2
RICOH Aficio 1060 PCL 6
  4
Letter
  6

 40
5.027083396911621
 41
5.027085304260253
 42
5.027084350585937
 43
5.027069091796875
 44
215.8999938964843
 45
279.3999938964843
 46
13.71599999999999
 47
0.0
 48
0.0
 49
0.0
140
0.0
141
0.0
142
1.0
143
6.578004457840846
 70
 11956
 72
     0
 73
     1
 74
     1
  7
monochrome.ctb
 75
     0
147
0.1520217881287722
148
0.0540623424038643
149
17.15678661913836
100
AcDbLayout
  1
Model
 70
     1
 71
     0
 10
0.0
 20
0.0
 11
12.0
 21
9.0
 12
0.0
 22
0.0
 32
0.0
 14
0.0
 24
0.0
 34
0.0
 15
0.0
 25
0.0
 35
0.0
146
0.0
 13
0.0
 23
0.0
 33
0.0
 16
1.0
 26
0.0
 36
0.0
 17
0.0
 27
1.0
 37
0.0
 76
     0
330
1E
  0
MLINESTYLE
  5
17
102
{ACAD_REACTORS
330
16
102
}
330
16
100
AcDbMlineStyle
  2
STANDARD
 70
     0
  3

 62
   256
 51
90.0
 52
90.0
 71
     2
 49
0.5
 62
   256
  6
BYLAYER
 49
-0.5
 62
   256
  6
BYLAYER
  0
ACDBPLACEHOLDER
  5
F
102
{ACAD_REACTORS
330
E
102
}
330
E
  0
ENDSEC
  0
EOF
