  0
SECTION
  2
HEADER
  9
$ACADVER
  1
AC1014
  9
$ACADMAINTVER
 70
     9
  9
$DWGCODEPAGE
  3
ANSI_1252
  9
$INSBASE
 10
0.0
 20
0.0
 30
0.0
  9
$EXTMIN
 10
-0.0019933050323289
 20
-0.0011599594344887
 30
-0.0000000000112498
  9
$EXTMAX
 10
130.7269951313509
 20
76.07366102221988
 30
0.0000000000002956
  9
$LIMMIN
 10
0.0
 20
0.0
  9
$LIMMAX
 10
130.725
 20
76.07249999999997
  9
$ORTHOMODE
 70
     0
  9
$REGENMODE
 70
     1
  9
$FILLMODE
 70
     1
  9
$QTEXTMODE
 70
     0
  9
$MIRRTEXT
 70
     0
  9
$DRAGMODE
 70
     2
  9
$LTSCALE
 40
1.5
  9
$OSMODE
 70
   229
  9
$ATTMODE
 70
     1
  9
$TEXTSIZE
 40
0.18
  9
$TRACEWID
 40
0.05
  9
$TEXTSTYLE
  7
TXT
  9
$CLAYER
  8
0
  9
$CELTYPE
  6
BYLAYER
  9
$CECOLOR
 62
   256
  9
$CELTSCALE
 40
1.0
  9
$DELOBJ
 70
     1
  9
$DISPSILH
 70
     0
  9
$DIMSCALE
 40
7.5
  9
$DIMASZ
 40
0.18
  9
$DIMEXO
 40
0.063
  9
$DIMDLI
 40
0.25
  9
$DIMRND
 40
0.0
  9
$DIMDLE
 40
0.0
  9
$DIMEXE
 40
0.093
  9
$DIMTP
 40
0.0
  9
$DIMTM
 40
0.0
  9
$DIMTXT
 40
0.125
  9
$DIMCEN
 40
0.09
  9
$DIMTSZ
 40
0.0
  9
$DIMTOL
 70
     0
  9
$DIMLIM
 70
     0
  9
$DIMTIH
 70
     1
  9
$DIMTOH
 70
     1
  9
$DIMSE1
 70
     0
  9
$DIMSE2
 70
     0
  9
$DIMTAD
 70
     0
  9
$DIMZIN
 70
     0
  9
$DIMBLK
  1

  9
$DIMASO
 70
     1
  9
$DIMSHO
 70
     1
  9
$DIMPOST
  1

  9
$DIMAPOST
  1

  9
$DIMALT
 70
     0
  9
$DIMALTD
 70
     2
  9
$DIMALTF
 40
25.4
  9
$DIMLFAC
 40
1.0
  9
$DIMTOFL
 70
     0
  9
$DIMTVP
 40
0.0
  9
$DIMTIX
 70
     0
  9
$DIMSOXD
 70
     0
  9
$DIMSAH
 70
     0
  9
$DIMBLK1
  1

  9
$DIMBLK2
  1

  9
$DIMSTYLE
  2
23NSTD
  9
$DIMCLRD
 70
     0
  9
$DIMCLRE
 70
     0
  9
$DIMCLRT
 70
     0
  9
$DIMTFAC
 40
1.0
  9
$DIMGAP
 40
0.09
  9
$DIMJUST
 70
     0
  9
$DIMSD1
 70
     0
  9
$DIMSD2
 70
     0
  9
$DIMTOLJ
 70
     1
  9
$DIMTZIN
 70
     0
  9
$DIMALTZ
 70
     0
  9
$DIMALTTZ
 70
     0
  9
$DIMFIT
 70
     1
  9
$DIMUPT
 70
     0
  9
$DIMUNIT
 70
     2
  9
$DIMDEC
 70
     3
  9
$DIMTDEC
 70
     3
  9
$DIMALTU
 70
     2
  9
$DIMALTTD
 70
     2
  9
$DIMTXSTY
  7
TXT
  9
$DIMAUNIT
 70
     0
  9
$LUNITS
 70
     2
  9
$LUPREC
 70
     3
  9
$SKETCHINC
 40
0.1
  9
$FILLETRAD
 40
0.0
  9
$AUNITS
 70
     0
  9
$AUPREC
 70
     0
  9
$MENU
  1
acad
  9
$ELEVATION
 40
0.0
  9
$PELEVATION
 40
0.0
  9
$THICKNESS
 40
0.0
  9
$LIMCHECK
 70
     0
  9
$BLIPMODE
 70
     0
  9
$CHAMFERA
 40
0.0
  9
$CHAMFERB
 40
0.0
  9
$CHAMFERC
 40
0.0
  9
$CHAMFERD
 40
0.0
  9
$SKPOLY
 70
     0
  9
$TDCREATE
 40
2451101.565398148
  9
$TDUPDATE
 40
2455469.442467083
  9
$TDINDWG
 40
0.4518507523
  9
$TDUSRTIMER
 40
0.4518507523
  9
$USRTIMER
 70
     1
  9
$ANGBASE
 50
0.0
  9
$ANGDIR
 70
     0
  9
$PDMODE
 70
     0
  9
$PDSIZE
 40
0.0
  9
$PLINEWID
 40
0.0
  9
$COORDS
 70
     2
  9
$SPLFRAME
 70
     0
  9
$SPLINETYPE
 70
     6
  9
$SPLINESEGS
 70
     8
  9
$ATTDIA
 70
     0
  9
$ATTREQ
 70
     1
  9
$HANDLING
 70
  4097
  9
$HANDSEED
  5
1503
  9
$SURFTAB1
 70
     6
  9
$SURFTAB2
 70
     6
  9
$SURFTYPE
 70
     6
  9
$SURFU
 70
     6
  9
$SURFV
 70
     6
  9
$UCSNAME
  2

  9
$UCSORG
 10
0.0
 20
0.0
 30
0.0
  9
$UCSXDIR
 10
1.0
 20
0.0
 30
0.0
  9
$UCSYDIR
 10
0.0
 20
1.0
 30
0.0
  9
$PUCSNAME
  2

  9
$PUCSORG
 10
0.0
 20
0.0
 30
0.0
  9
$PUCSXDIR
 10
1.0
 20
0.0
 30
0.0
  9
$PUCSYDIR
 10
0.0
 20
1.0
 30
0.0
  9
$USERI1
 70
     0
  9
$USERI2
 70
     0
  9
$USERI3
 70
     0
  9
$USERI4
 70
     0
  9
$USERI5
 70
     0
  9
$USERR1
 40
0.0
  9
$USERR2
 40
0.0
  9
$USERR3
 40
0.0
  9
$USERR4
 40
0.0
  9
$USERR5
 40
0.0
  9
$WORLDVIEW
 70
     1
  9
$SHADEDGE
 70
     3
  9
$SHADEDIF
 70
    70
  9
$TILEMODE
 70
     1
  9
$MAXACTVP
 70
    16
  9
$PINSBASE
 10
0.0
 20
0.0
 30
0.0
  9
$PLIMCHECK
 70
     0
  9
$PEXTMIN
 10
1.000000000000000E+20
 20
1.000000000000000E+20
 30
1.000000000000000E+20
  9
$PEXTMAX
 10
-1.000000000000000E+20
 20
-1.000000000000000E+20
 30
-1.000000000000000E+20
  9
$PLIMMIN
 10
0.0
 20
0.0
  9
$PLIMMAX
 10
12.0
 20
9.0
  9
$UNITMODE
 70
     0
  9
$VISRETAIN
 70
     0
  9
$PLINEGEN
 70
     0
  9
$PSLTSCALE
 70
     0
  9
$TREEDEPTH
 70
  3020
  9
$PICKSTYLE
 70
     1
  9
$CMLSTYLE
  2
STANDARD
  9
$CMLJUST
 70
     0
  9
$CMLSCALE
 40
1.0
  9
$PROXYGRAPHICS
 70
     1
  9
$MEASUREMENT
 70
     0
  0
ENDSEC
  0
SECTION
  2
CLASSES
  0
CLASS
  1
ACDBDICTIONARYWDFLT
  2
AcDbDictionaryWithDefault
  3
AutoCAD 2000
 90
        0
280
     0
281
     0
  0
CLASS
  1
ACDBPLACEHOLDER
  2
AcDbPlaceHolder
  3
AutoCAD 2000
 90
        0
280
     0
281
     0
  0
CLASS
  1
LAYOUT
  2
AcDbLayout
  3
AutoCAD 2000
 90
        0
280
     0
281
     0
  0
CLASS
  1
DICTIONARYVAR
  2
AcDbDictionaryVar
  3
AutoCAD 2000
 90
        0
280
     0
281
     0
  0
CLASS
  1
LONG_TRANSACTION
  2
AcDbLongTransaction
  3
AutoCAD 2000
 90
        0
280
     0
281
     0
  0
CLASS
  1
LWPOLYLINE
  2
AcDbPolyline
  3
AutoCAD 2000
 90
        0
280
     0
281
     1
  0
CLASS
  1
HATCH
  2
AcDbHatch
  3
AutoCAD 2000
 90
        0
280
     0
281
     1
  0
CLASS
  1
XRECORD
  2
AcDbXrecord
  3
AutoCAD 2000
 90
        0
280
     0
281
     0
  0
ENDSEC
  0
SECTION
  2
TABLES
  0
TABLE
  2
VPORT
  5
8
330
0
100
AcDbSymbolTable
 70
     4
  0
VPORT
  5
14DD
330
8
100
AcDbSymbolTableRecord
100
AcDbViewportTableRecord
  2
*ACTIVE
 70
     0
 10
0.0
 20
0.0
 11
1.0
 21
1.0
 12
65.36250091315934
 22
38.0362505313927
 13
0.0
 23
0.0
 14
1.0
 24
1.0
 15
1.0
 25
1.0
 16
0.0
 26
0.0
 36
1.0
 17
0.0
 27
0.0
 37
0.0
 40
76.84067488415426
 41
1.836974789915966
 42
50.0
 43
0.0
 44
0.0
 50
0.0
 51
0.0
 71
     0
 72
  5000
 73
     1
 74
     0
 75
     0
 76
     0
 77
     0
 78
     0
  0
ENDTAB
  0
TABLE
  2
LTYPE
  5
5
330
0
100
AcDbSymbolTable
 70
     5
  0
LTYPE
  5
13
330
5
100
AcDbSymbolTableRecord
100
AcDbLinetypeTableRecord
  2
BYBLOCK
 70
     0
  3

 72
    65
 73
     0
 40
0.0
  0
LTYPE
  5
14
330
5
100
AcDbSymbolTableRecord
100
AcDbLinetypeTableRecord
  2
BYLAYER
 70
     0
  3

 72
    65
 73
     0
 40
0.0
  0
LTYPE
  5
15
330
5
100
AcDbSymbolTableRecord
100
AcDbLinetypeTableRecord
  2
CONTINUOUS
 70
     0
  3
Solid line
 72
    65
 73
     0
 40
0.0
  0
LTYPE
  5
3B
330
5
100
AcDbSymbolTableRecord
100
AcDbLinetypeTableRecord
  2
CENTER
 70
     0
  3
____ _ ____ _ ____ _ ____ _ ____ _ ____ _ ____ 
 72
    65
 73
     4
 40
2.0
 49
1.25
 74
     0
 49
-0.25
 74
     0
 49
0.25
 74
     0
 49
-0.25
 74
     0
  0
LTYPE
  5
3C
330
5
100
AcDbSymbolTableRecord
100
AcDbLinetypeTableRecord
  2
PHANTOM
 70
     0
  3
______  __  __  ______  __  __  ______  __  __ 
 72
    65
 73
     6
 40
2.5
 49
1.25
 74
     0
 49
-0.25
 74
     0
 49
0.25
 74
     0
 49
-0.25
 74
     0
 49
0.25
 74
     0
 49
-0.25
 74
     0
  0
LTYPE
  5
3D
330
5
100
AcDbSymbolTableRecord
100
AcDbLinetypeTableRecord
  2
HIDDEN
 70
     0
  3
__ __ __ __ __ __ __ __ __ __ __ __ __ __ __ __
 72
    65
 73
     2
 40
0.375
 49
0.25
 74
     0
 49
-0.125
 74
     0
  0
ENDTAB
  0
TABLE
  2
LAYER
  5
2
330
0
100
AcDbSymbolTable
 70
     9
  0
LAYER
  5
10
330
2
100
AcDbSymbolTableRecord
100
AcDbLayerTableRecord
  2
0
 70
     0
 62
     7
  6
CONTINUOUS
  0
LAYER
  5
48
330
2
100
AcDbSymbolTableRecord
100
AcDbLayerTableRecord
  2
DEFPOINTS
 70
     0
 62
     7
  6
CONTINUOUS
  0
ENDTAB
  0
TABLE
  2
STYLE
  5
3
330
0
100
AcDbSymbolTable
 70
     1
  0
STYLE
  5
11
330
3
100
AcDbSymbolTableRecord
100
AcDbTextStyleTableRecord
  2
TXT
 70
     0
 40
0.0
 41
0.75
 50
0.0
 71
     0
 42
0.18
  3
txt.shx
  4

  0
ENDTAB
  0
TABLE
  2
VIEW
  5
6
330
0
100
AcDbSymbolTable
 70
     0
  0
ENDTAB
  0
TABLE
  2
UCS
  5
7
330
0
100
AcDbSymbolTable
 70
     0
  0
ENDTAB
  0
TABLE
  2
APPID
  5
9
330
0
100
AcDbSymbolTable
 70
     1
  0
APPID
  5
12
330
9
100
AcDbSymbolTableRecord
100
AcDbRegAppTableRecord
  2
ACAD
 70
     0
  0
ENDTAB
  0
TABLE
  2
DIMSTYLE
  5
A
330
0
100
AcDbSymbolTable
 70
     2
  0
DIMSTYLE
105
41
102
{ACAD_REACTORS
330
576
330
577
330
579
330
57A
330
57B
330
57C
330
57D
330
57E
330
57F
330
580
330
581
330
582
330
583
330
585
330
5BF
330
5C0
330
5C2
330
886
330
9FB
102
}
330
A
100
AcDbSymbolTableRecord
100
AcDbDimStyleTableRecord
  2
23NSTD
 70
     0
  3

  4

  5

  6

  7

 40
7.5
 41
0.18
 42
0.063
 43
0.25
 44
0.093
 45
0.0
 46
0.0
 47
0.0
 48
0.0
140
0.125
141
0.09
142
0.0
143
25.4
144
1.0
145
0.0
146
1.0
147
0.09
 71
     0
 72
     0
 73
     1
 74
     1
 75
     0
 76
     0
 77
     0
 78
     0
170
     0
171
     2
172
     0
173
     0
174
     0
175
     0
176
     0
177
     0
178
     0
270
     2
271
     3
272
     3
273
     2
274
     2
340
11
275
     0
280
     0
281
     0
282
     0
283
     1
284
     0
285
     0
286
     0
287
     1
288
     0
  0
DIMSTYLE
105
42
102
{ACAD_REACTORS
330
575
330
578
330
5C1
102
}
330
A
100
AcDbSymbolTableRecord
100
AcDbDimStyleTableRecord
  2
23NSTDI
 70
     0
  3

  4

  5

  6

  7

 40
7.5
 41
0.18
 42
0.063
 43
0.25
 44
0.093
 45
0.0
 46
0.0
 47
0.0
 48
0.0
140
0.125
141
0.09
142
0.0
143
25.4
144
1.0
145
0.0
146
1.0
147
0.09
 71
     0
 72
     0
 73
     1
 74
     1
 75
     0
 76
     0
 77
     0
 78
     0
170
     0
171
     2
172
     0
173
     0
174
     1
175
     0
176
     0
177
     0
178
     0
270
     2
271
     3
272
     3
273
     2
274
     2
340
11
275
     0
280
     0
281
     0
282
     0
283
     1
284
     0
285
     0
286
     0
287
     3
288
     0
  0
ENDTAB
  0
TABLE
  2
BLOCK_RECORD
  5
1
330
0
100
AcDbSymbolTable
 70
    24
  0
BLOCK_RECORD
  5
1E
102
{ACAD_XDICTIONARY
360
1501
102
}
330
1
100
AcDbSymbolTableRecord
100
AcDbBlockTableRecord
  2
*MODEL_SPACE
  0
BLOCK_RECORD
  5
1A
102
{ACAD_XDICTIONARY
360
14FF
102
}
330
1
100
AcDbSymbolTableRecord
100
AcDbBlockTableRecord
  2
*PAPER_SPACE
  0
BLOCK_RECORD
  5
22
330
1
100
AcDbSymbolTableRecord
100
AcDbBlockTableRecord
  2
*X0
  0
BLOCK_RECORD
  5
24
330
1
100
AcDbSymbolTableRecord
100
AcDbBlockTableRecord
  2
*X1
  0
BLOCK_RECORD
  5
64A
330
1
100
AcDbSymbolTableRecord
100
AcDbBlockTableRecord
  2
*D2
  0
BLOCK_RECORD
  5
657
330
1
100
AcDbSymbolTableRecord
100
AcDbBlockTableRecord
  2
*D3
  0
BLOCK_RECORD
  5
664
330
1
100
AcDbSymbolTableRecord
100
AcDbBlockTableRecord
  2
*D4
  0
BLOCK_RECORD
  5
671
330
1
100
AcDbSymbolTableRecord
100
AcDbBlockTableRecord
  2
*D5
  0
BLOCK_RECORD
  5
67E
330
1
100
AcDbSymbolTableRecord
100
AcDbBlockTableRecord
  2
*D6
  0
BLOCK_RECORD
  5
68B
330
1
100
AcDbSymbolTableRecord
100
AcDbBlockTableRecord
  2
*D7
  0
BLOCK_RECORD
  5
698
330
1
100
AcDbSymbolTableRecord
100
AcDbBlockTableRecord
  2
*D8
  0
BLOCK_RECORD
  5
6A5
330
1
100
AcDbSymbolTableRecord
100
AcDbBlockTableRecord
  2
*D9
  0
BLOCK_RECORD
  5
6B2
330
1
100
AcDbSymbolTableRecord
100
AcDbBlockTableRecord
  2
*D10
  0
BLOCK_RECORD
  5
6BF
330
1
100
AcDbSymbolTableRecord
100
AcDbBlockTableRecord
  2
*D11
  0
BLOCK_RECORD
  5
6CC
330
1
100
AcDbSymbolTableRecord
100
AcDbBlockTableRecord
  2
*D12
  0
BLOCK_RECORD
  5
6D9
330
1
100
AcDbSymbolTableRecord
100
AcDbBlockTableRecord
  2
*D13
  0
BLOCK_RECORD
  5
6E6
330
1
100
AcDbSymbolTableRecord
100
AcDbBlockTableRecord
  2
*D14
  0
BLOCK_RECORD
  5
6F3
330
1
100
AcDbSymbolTableRecord
100
AcDbBlockTableRecord
  2
*D15
  0
BLOCK_RECORD
  5
700
330
1
100
AcDbSymbolTableRecord
100
AcDbBlockTableRecord
  2
*D16
  0
BLOCK_RECORD
  5
70D
330
1
100
AcDbSymbolTableRecord
100
AcDbBlockTableRecord
  2
*D17
  0
BLOCK_RECORD
  5
71A
330
1
100
AcDbSymbolTableRecord
100
AcDbBlockTableRecord
  2
*D18
  0
BLOCK_RECORD
  5
727
330
1
100
AcDbSymbolTableRecord
100
AcDbBlockTableRecord
  2
*D19
  0
BLOCK_RECORD
  5
734
330
1
100
AcDbSymbolTableRecord
100
AcDbBlockTableRecord
  2
*D20
  0
BLOCK_RECORD
  5
741
330
1
100
AcDbSymbolTableRecord
100
AcDbBlockTableRecord
  2
*D21
  0
BLOCK_RECORD
  5
887
330
1
100
AcDbSymbolTableRecord
100
AcDbBlockTableRecord
  2
*D23
  0
ENDTAB
  0
ENDSEC
  0
SECTION
  2
BLOCKS
  0
BLOCK
  5
4D
330
1E
100
AcDbEntity
  8
0
100
AcDbBlockBegin
  2
*MODEL_SPACE
 70
     0
 10
0.0
 20
0.0
 30
0.0
  3
*MODEL_SPACE
  1

  0
ENDBLK
  5
4E
330
1E
100
AcDbEntity
  8
0
100
AcDbBlockEnd
  0
BLOCK
  5
4B
330
1A
100
AcDbEntity
 67
     1
  8
0
100
AcDbBlockBegin
  2
*PAPER_SPACE
 70
     0
 10
0.0
 20
0.0
 30
0.0
  3
*PAPER_SPACE
  1

  0
ENDBLK
  5
4C
330
1A
100
AcDbEntity
 67
     1
  8
0
100
AcDbBlockEnd
  0
BLOCK
  5
4F
330
22
100
AcDbEntity
  8
0
100
AcDbBlockBegin
  2
*X0
 70
     1
 10
0.0
 20
0.0
 30
0.0
  3
*X0
  1

  0
LINE
  5
50
330
22
100
AcDbEntity
  8
0
 62
     0
100
AcDbLine
 10
79.3156488191785
 20
25.75231014429753
 30
0.0
 11
79.51249920917851
 21
25.94916053429754
 31
0.0
  0
LINE
  5
51
330
22
100
AcDbEntity
  8
0
 62
     0
100
AcDbLine
 10
79.3156488191785
 20
26.28264023018745
 30
0.0
 11
79.51249920917851
 21
26.47949062018745
 31
0.0
  0
LINE
  5
52
330
22
100
AcDbEntity
  8
0
 62
     0
100
AcDbLine
 10
79.3156488191785
 20
26.81297031607736
 30
0.0
 11
79.51249920917851
 21
27.00982070607736
 31
0.0
  0
LINE
  5
53
330
22
100
AcDbEntity
  8
0
 62
     0
100
AcDbLine
 10
79.3156488191785
 20
27.34330040196727
 30
0.0
 11
79.51249920917851
 21
27.54015079196728
 31
0.0
  0
LINE
  5
54
330
22
100
AcDbEntity
  8
0
 62
     0
100
AcDbLine
 10
79.1958539649208
 20
27.75383563359946
 30
0.0
 11
79.43560759828691
 21
27.99358926696558
 31
0.0
  0
LINE
  5
55
330
22
100
AcDbEntity
  8
0
 62
     0
100
AcDbLine
 10
78.92194803917849
 20
28.01025979374707
 30
0.0
 11
79.00949920917852
 21
28.0978109637471
 31
0.0
  0
LINE
  5
56
330
22
100
AcDbEntity
  8
0
 62
     0
100
AcDbLine
 10
79.10527751239701
 20
28.19358926696558
 30
0.0
 11
79.51249920917851
 21
28.6008109637471
 31
0.0
  0
LINE
  5
57
330
22
100
AcDbEntity
  8
0
 62
     0
100
AcDbLine
 10
79.31564881917849
 20
28.93429065963697
 30
0.0
 11
79.51249920917851
 21
29.13114104963701
 31
0.0
  0
LINE
  5
58
330
22
100
AcDbEntity
  8
0
 62
     0
100
AcDbLine
 10
79.31564881917849
 20
29.46462074552688
 30
0.0
 11
79.51249920917851
 21
29.66147113552692
 31
0.0
  0
LINE
  5
59
330
22
100
AcDbEntity
  8
0
 62
     0
100
AcDbLine
 10
79.31564881917849
 20
29.99495083141679
 30
0.0
 11
79.51249920917851
 21
30.19180122141683
 31
0.0
  0
LINE
  5
5A
330
22
100
AcDbEntity
  8
0
 62
     0
100
AcDbLine
 10
79.31564881917849
 20
30.52528091730671
 30
0.0
 11
79.51249920917851
 21
30.72213130730674
 31
0.0
  0
LINE
  5
5B
330
22
100
AcDbEntity
  8
0
 62
     0
100
AcDbLine
 10
79.14108490810398
 20
30.88104709212211
 30
0.0
 11
79.51249920917851
 21
31.25246139319665
 31
0.0
  0
LINE
  5
5C
330
22
100
AcDbEntity
  8
0
 62
     0
100
AcDbLine
 10
79.04126314035282
 20
31.31155541026087
 30
0.0
 11
79.2892756666778
 21
31.55956793658583
 31
0.0
  0
LINE
  5
5D
330
22
100
AcDbEntity
  8
0
 62
     0
100
AcDbLine
 10
79.31564881917847
 20
31.58594108908652
 30
0.0
 11
79.51249920917851
 21
31.78279147908656
 31
0.0
  0
LINE
  5
5E
330
22
100
AcDbEntity
  8
0
 62
     0
100
AcDbLine
 10
79.31564881917847
 20
32.11627117497643
 30
0.0
 11
79.51249920917851
 21
32.31312156497647
 31
0.0
  0
LINE
  5
5F
330
22
100
AcDbEntity
  8
0
 62
     0
100
AcDbLine
 10
79.31564881917847
 20
32.64660126086634
 30
0.0
 11
79.51249920917851
 21
32.84345165086638
 31
0.0
  0
LINE
  5
60
330
22
100
AcDbEntity
  8
0
 62
     0
100
AcDbLine
 10
79.31564881917847
 20
33.17693134675625
 30
0.0
 11
79.31980673938781
 21
33.18108926696559
 31
0.0
  0
LINE
  5
61
330
22
100
AcDbEntity
  8
0
 62
     0
100
AcDbLine
 10
79.3156488191785
 20
25.22198005840762
 30
0.0
 11
79.51249920917851
 21
25.41883044840763
 31
0.0
  0
LINE
  5
62
330
22
100
AcDbEntity
  8
0
 62
     0
100
AcDbLine
 10
79.3156488191785
 20
24.69164997251771
 30
0.0
 11
79.51249920917851
 21
24.88850036251772
 31
0.0
  0
LINE
  5
63
330
22
100
AcDbEntity
  8
0
 62
     0
100
AcDbLine
 10
79.3156488191785
 20
24.1613198866278
 30
0.0
 11
79.51249920917851
 21
24.35817027662781
 31
0.0
  0
LINE
  5
64
330
22
100
AcDbEntity
  8
0
 62
     0
100
AcDbLine
 10
79.31564881917849
 20
23.63098980073789
 30
0.0
 11
79.51249920917851
 21
23.8278401907379
 31
0.0
  0
LINE
  5
65
330
22
100
AcDbEntity
  8
0
 62
     0
100
AcDbLine
 10
79.31564881917849
 20
23.10065971484797
 30
0.0
 11
79.51249920917851
 21
23.29751010484799
 31
0.0
  0
LINE
  5
66
330
22
100
AcDbEntity
  8
0
 62
     0
100
AcDbLine
 10
79.31564881917849
 20
22.57032962895806
 30
0.0
 11
79.51249920917851
 21
22.76718001895808
 31
0.0
  0
LINE
  5
67
330
22
100
AcDbEntity
  8
0
 62
     0
100
AcDbLine
 10
79.31564881917849
 20
22.03999954306815
 30
0.0
 11
79.51249920917851
 21
22.23684993306817
 31
0.0
  0
LINE
  5
68
330
22
100
AcDbEntity
  8
0
 62
     0
100
AcDbLine
 10
79.31564881917849
 20
21.50966945717823
 30
0.0
 11
79.51249920917851
 21
21.70651984717826
 31
0.0
  0
LINE
  5
69
330
22
100
AcDbEntity
  8
0
 62
     0
100
AcDbLine
 10
79.31564881917849
 20
20.97933937128832
 30
0.0
 11
79.51249920917851
 21
21.17618976128834
 31
0.0
  0
LINE
  5
6A
330
22
100
AcDbEntity
  8
0
 62
     0
100
AcDbLine
 10
79.31564881917849
 20
20.44900928539841
 30
0.0
 11
79.51249920917851
 21
20.64585967539843
 31
0.0
  0
LINE
  5
6B
330
22
100
AcDbEntity
  8
0
 62
     0
100
AcDbLine
 10
78.92194803917849
 20
19.52497841950849
 30
0.0
 11
79.00834090677491
 21
19.61137128710492
 31
0.0
  0
LINE
  5
6C
330
22
100
AcDbEntity
  8
0
 62
     0
100
AcDbLine
 10
79.31564881917849
 20
19.9186791995085
 30
0.0
 11
79.51249920917851
 21
20.11552958950852
 31
0.0
  0
LINE
  5
6D
330
22
100
AcDbEntity
  8
0
 62
     0
100
AcDbLine
 10
78.93762401590684
 20
19.01032431034695
 30
0.0
 11
79.12807427472532
 21
19.20077456916542
 31
0.0
  0
LINE
  5
6E
330
22
100
AcDbEntity
  8
0
 62
     0
100
AcDbLine
 10
79.31564881917847
 20
19.38834911361858
 30
0.0
 11
79.51249920917851
 21
19.58519950361861
 31
0.0
  0
LINE
  5
6F
330
22
100
AcDbEntity
  8
0
 62
     0
100
AcDbLine
 10
79.31564881917847
 20
18.85801902772866
 30
0.0
 11
79.51249920917851
 21
19.0548694177287
 31
0.0
  0
LINE
  5
70
330
22
100
AcDbEntity
  8
0
 62
     0
100
AcDbLine
 10
79.31564881917847
 20
18.32768894183876
 30
0.0
 11
79.51249920917851
 21
18.52453933183879
 31
0.0
  0
LINE
  5
71
330
22
100
AcDbEntity
  8
0
 62
     0
100
AcDbLine
 10
78.94347401459497
 20
17.42518405136534
 30
0.0
 11
79.00252913159512
 21
17.48423916836549
 31
0.0
  0
LINE
  5
72
330
22
100
AcDbEntity
  8
0
 62
     0
100
AcDbLine
 10
79.31564881917847
 20
17.79735885594884
 30
0.0
 11
79.51249920917851
 21
17.99420924594888
 31
0.0
  0
LINE
  5
73
330
22
100
AcDbEntity
  8
0
 62
     0
100
AcDbLine
 10
79.15816850717847
 20
17.63987854394884
 30
0.0
 11
79.27811967759513
 21
17.7598297143655
 31
0.0
  0
LINE
  5
74
330
22
100
AcDbEntity
  8
0
 62
     0
100
AcDbLine
 10
79.16671749208497
 20
17.11809744296543
 30
0.0
 11
79.24742615198517
 21
17.19880610286562
 31
0.0
  0
LINE
  5
75
330
22
100
AcDbEntity
  8
0
 62
     0
100
AcDbLine
 10
79.3156488191785
 20
25.28827131914386
 30
0.0
 11
79.51249920917851
 21
25.48512170914387
 31
0.0
  0
LINE
  5
76
330
22
100
AcDbEntity
  8
0
 62
     0
100
AcDbLine
 10
79.3156488191785
 20
25.81860140503378
 30
0.0
 11
79.51249920917851
 21
26.01545179503378
 31
0.0
  0
LINE
  5
77
330
22
100
AcDbEntity
  8
0
 62
     0
100
AcDbLine
 10
79.3156488191785
 20
26.34893149092369
 30
0.0
 11
79.51249920917851
 21
26.54578188092369
 31
0.0
  0
LINE
  5
78
330
22
100
AcDbEntity
  8
0
 62
     0
100
AcDbLine
 10
79.3156488191785
 20
26.8792615768136
 30
0.0
 11
79.51249920917851
 21
27.0761119668136
 31
0.0
  0
LINE
  5
79
330
22
100
AcDbEntity
  8
0
 62
     0
100
AcDbLine
 10
79.3156488191785
 20
27.40959166270351
 30
0.0
 11
79.51249920917851
 21
27.60644205270351
 31
0.0
  0
LINE
  5
7A
330
22
100
AcDbEntity
  8
0
 62
     0
100
AcDbLine
 10
79.13820939036752
 20
27.76248231978243
 30
0.0
 11
79.36931633755067
 21
27.99358926696558
 31
0.0
  0
LINE
  5
7B
330
22
100
AcDbEntity
  8
0
 62
     0
100
AcDbLine
 10
78.92194803917849
 20
28.07655105448331
 30
0.0
 11
79.00949920917852
 21
28.16410222448334
 31
0.0
  0
LINE
  5
7C
330
22
100
AcDbEntity
  8
0
 62
     0
100
AcDbLine
 10
79.31564881917849
 20
28.4702518344833
 30
0.0
 11
79.51249920917851
 21
28.66710222448334
 31
0.0
  0
LINE
  5
7D
330
22
100
AcDbEntity
  8
0
 62
     0
100
AcDbLine
 10
79.03898625166076
 20
28.19358926696558
 30
0.0
 11
79.28538526032847
 21
28.43998827563329
 31
0.0
  0
LINE
  5
7E
330
22
100
AcDbEntity
  8
0
 62
     0
100
AcDbLine
 10
79.31564881917849
 20
29.00058192037321
 30
0.0
 11
79.51249920917851
 21
29.19743231037325
 31
0.0
  0
LINE
  5
7F
330
22
100
AcDbEntity
  8
0
 62
     0
100
AcDbLine
 10
79.31564881917849
 20
29.53091200626312
 30
0.0
 11
79.51249920917851
 21
29.72776239626316
 31
0.0
  0
LINE
  5
80
330
22
100
AcDbEntity
  8
0
 62
     0
100
AcDbLine
 10
79.31564881917849
 20
30.06124209215303
 30
0.0
 11
79.51249920917851
 21
30.25809248215307
 31
0.0
  0
LINE
  5
81
330
22
100
AcDbEntity
  8
0
 62
     0
100
AcDbLine
 10
79.31564881917849
 20
30.59157217804294
 30
0.0
 11
79.51249920917851
 21
30.78842256804298
 31
0.0
  0
LINE
  5
82
330
22
100
AcDbEntity
  8
0
 62
     0
100
AcDbLine
 10
79.0834403335507
 20
30.88969377830508
 30
0.0
 11
79.30057755990647
 21
31.10683100466085
 31
0.0
  0
LINE
  5
83
330
22
100
AcDbEntity
  8
0
 62
     0
100
AcDbLine
 10
79.31564881917847
 20
31.12190226393285
 30
0.0
 11
79.51249920917851
 21
31.31875265393289
 31
0.0
  0
LINE
  5
84
330
22
100
AcDbEntity
  8
0
 62
     0
100
AcDbLine
 10
78.97497187961659
 20
31.31155541026087
 30
0.0
 11
79.21128594816456
 21
31.54786947880884
 31
0.0
  0
LINE
  5
85
330
22
100
AcDbEntity
  8
0
 62
     0
100
AcDbLine
 10
79.31564881917847
 20
31.65223234982276
 30
0.0
 11
79.51249920917851
 21
31.8490827398228
 31
0.0
  0
LINE
  5
86
330
22
100
AcDbEntity
  8
0
 62
     0
100
AcDbLine
 10
79.31564881917847
 20
32.18256243571266
 30
0.0
 11
79.51249920917851
 21
32.37941282571271
 31
0.0
  0
LINE
  5
87
330
22
100
AcDbEntity
  8
0
 62
     0
100
AcDbLine
 10
79.31564881917847
 20
32.71289252160258
 30
0.0
 11
79.51249920917851
 21
32.90974291160262
 31
0.0
  0
LINE
  5
88
330
22
100
AcDbEntity
  8
0
 62
     0
100
AcDbLine
 10
79.3156488191785
 20
24.75794123325395
 30
0.0
 11
79.51249920917851
 21
24.95479162325396
 31
0.0
  0
LINE
  5
89
330
22
100
AcDbEntity
  8
0
 62
     0
100
AcDbLine
 10
79.3156488191785
 20
24.22761114736404
 30
0.0
 11
79.51249920917851
 21
24.42446153736405
 31
0.0
  0
LINE
  5
8A
330
22
100
AcDbEntity
  8
0
 62
     0
100
AcDbLine
 10
79.3156488191785
 20
23.69728106147412
 30
0.0
 11
79.51249920917851
 21
23.89413145147414
 31
0.0
  0
LINE
  5
8B
330
22
100
AcDbEntity
  8
0
 62
     0
100
AcDbLine
 10
79.31564881917849
 20
23.16695097558421
 30
0.0
 11
79.51249920917851
 21
23.36380136558422
 31
0.0
  0
LINE
  5
8C
330
22
100
AcDbEntity
  8
0
 62
     0
100
AcDbLine
 10
79.31564881917849
 20
22.6366208896943
 30
0.0
 11
79.51249920917851
 21
22.83347127969432
 31
0.0
  0
LINE
  5
8D
330
22
100
AcDbEntity
  8
0
 62
     0
100
AcDbLine
 10
79.31564881917849
 20
22.10629080380439
 30
0.0
 11
79.51249920917851
 21
22.3031411938044
 31
0.0
  0
LINE
  5
8E
330
22
100
AcDbEntity
  8
0
 62
     0
100
AcDbLine
 10
79.31564881917849
 20
21.57596071791448
 30
0.0
 11
79.51249920917851
 21
21.7728111079145
 31
0.0
  0
LINE
  5
8F
330
22
100
AcDbEntity
  8
0
 62
     0
100
AcDbLine
 10
79.31564881917849
 20
21.04563063202456
 30
0.0
 11
79.51249920917851
 21
21.24248102202459
 31
0.0
  0
LINE
  5
90
330
22
100
AcDbEntity
  8
0
 62
     0
100
AcDbLine
 10
79.31564881917849
 20
20.51530054613465
 30
0.0
 11
79.51249920917851
 21
20.71215093613467
 31
0.0
  0
LINE
  5
91
330
22
100
AcDbEntity
  8
0
 62
     0
100
AcDbLine
 10
79.31564881917849
 20
19.98497046024474
 30
0.0
 11
79.51249920917851
 21
20.18182085024477
 31
0.0
  0
LINE
  5
92
330
22
100
AcDbEntity
  8
0
 62
     0
100
AcDbLine
 10
78.92194803917849
 20
19.06093959435482
 30
0.0
 11
79.06178301398909
 21
19.20077456916542
 31
0.0
  0
LINE
  5
93
330
22
100
AcDbEntity
  8
0
 62
     0
100
AcDbLine
 10
79.2665074195891
 20
19.40549897476544
 30
0.0
 11
79.51249920917851
 21
19.65149076435485
 31
0.0
  0
LINE
  5
94
330
22
100
AcDbEntity
  8
0
 62
     0
100
AcDbLine
 10
79.31564881917847
 20
18.9243102884649
 30
0.0
 11
79.51249920917851
 21
19.12116067846494
 31
0.0
  0
LINE
  5
95
330
22
100
AcDbEntity
  8
0
 62
     0
100
AcDbLine
 10
79.31564881917847
 20
18.39398020257499
 30
0.0
 11
79.51249920917851
 21
18.59083059257503
 31
0.0
  0
LINE
  5
96
330
22
100
AcDbEntity
  8
0
 62
     0
100
AcDbLine
 10
78.92194803917846
 20
17.46994933668506
 30
0.0
 11
78.93623787085882
 21
17.48423916836542
 31
0.0
  0
LINE
  5
97
330
22
100
AcDbEntity
  8
0
 62
     0
100
AcDbLine
 10
79.31564881917847
 20
17.86365011668508
 30
0.0
 11
79.51249920917851
 21
18.06050050668512
 31
0.0
  0
LINE
  5
98
330
22
100
AcDbEntity
  8
0
 62
     0
100
AcDbLine
 10
79.13308826085881
 20
17.68108955836542
 30
0.0
 11
79.21182841685889
 21
17.7598297143655
 31
0.0
  0
LINE
  5
99
330
22
100
AcDbEntity
  8
0
 62
     0
100
AcDbLine
 10
79.10042623134874
 20
17.11809744296543
 30
0.0
 11
79.23034748874866
 21
17.24801870036535
 31
0.0
  0
LINE
  5
9A
330
22
100
AcDbEntity
  8
0
 62
     0
100
AcDbLine
 10
79.45672543724882
 20
17.47439664886551
 30
0.0
 11
79.51249920917851
 21
17.53017042079521
 31
0.0
  0
LINE
  5
9B
330
22
100
AcDbEntity
  8
0
 62
     0
100
AcDbLine
 10
79.3156488191785
 20
25.3545625798801
 30
0.0
 11
79.51249920917851
 21
25.55141296988011
 31
0.0
  0
LINE
  5
9C
330
22
100
AcDbEntity
  8
0
 62
     0
100
AcDbLine
 10
79.3156488191785
 20
25.88489266577001
 30
0.0
 11
79.51249920917851
 21
26.08174305577002
 31
0.0
  0
LINE
  5
9D
330
22
100
AcDbEntity
  8
0
 62
     0
100
AcDbLine
 10
79.3156488191785
 20
26.41522275165993
 30
0.0
 11
79.51249920917851
 21
26.61207314165993
 31
0.0
  0
LINE
  5
9E
330
22
100
AcDbEntity
  8
0
 62
     0
100
AcDbLine
 10
79.3156488191785
 20
26.94555283754984
 30
0.0
 11
79.51249920917851
 21
27.14240322754984
 31
0.0
  0
LINE
  5
9F
330
22
100
AcDbEntity
  8
0
 62
     0
100
AcDbLine
 10
79.3156488191785
 20
27.47588292343975
 30
0.0
 11
79.51249920917851
 21
27.67273331343975
 31
0.0
  0
LINE
  5
A0
330
22
100
AcDbEntity
  8
0
 62
     0
100
AcDbLine
 10
79.08056481581425
 20
27.7711290059654
 30
0.0
 11
79.30302507681443
 21
27.99358926696558
 31
0.0
  0
LINE
  5
A1
330
22
100
AcDbEntity
  8
0
 62
     0
100
AcDbLine
 10
79.50302507681444
 20
28.19358926696558
 30
0.0
 11
79.55949920917851
 21
28.25006339932966
 31
0.0
  0
LINE
  5
A2
330
22
100
AcDbEntity
  8
0
 62
     0
100
AcDbLine
 10
78.92194803917849
 20
28.14284231521955
 30
0.0
 11
79.20739554181523
 21
28.42828981785629
 31
0.0
  0
LINE
  5
A3
330
22
100
AcDbEntity
  8
0
 62
     0
100
AcDbLine
 10
79.31564881917849
 20
28.53654309521954
 30
0.0
 11
79.51249920917851
 21
28.73339348521957
 31
0.0
  0
LINE
  5
A4
330
22
100
AcDbEntity
  8
0
 62
     0
100
AcDbLine
 10
79.31564881917849
 20
29.06687318110945
 30
0.0
 11
79.51249920917851
 21
29.26372357110949
 31
0.0
  0
LINE
  5
A5
330
22
100
AcDbEntity
  8
0
 62
     0
100
AcDbLine
 10
79.31564881917849
 20
29.59720326699936
 30
0.0
 11
79.51249920917851
 21
29.79405365699939
 31
0.0
  0
LINE
  5
A6
330
22
100
AcDbEntity
  8
0
 62
     0
100
AcDbLine
 10
79.31564881917849
 20
30.12753335288927
 30
0.0
 11
79.51249920917851
 21
30.32438374288931
 31
0.0
  0
LINE
  5
A7
330
22
100
AcDbEntity
  8
0
 62
     0
100
AcDbLine
 10
79.31564881917849
 20
30.65786343877919
 30
0.0
 11
79.51249920917851
 21
30.85471382877922
 31
0.0
  0
LINE
  5
A8
330
22
100
AcDbEntity
  8
0
 62
     0
100
AcDbLine
 10
79.02579575899743
 20
30.89834046448805
 30
0.0
 11
79.23428629917023
 21
31.10683100466085
 31
0.0
  0
LINE
  5
A9
330
22
100
AcDbEntity
  8
0
 62
     0
100
AcDbLine
 10
79.31564881917847
 20
31.18819352466908
 30
0.0
 11
79.51249920917851
 21
31.38504391466913
 31
0.0
  0
LINE
  5
AA
330
22
100
AcDbEntity
  8
0
 62
     0
100
AcDbLine
 10
78.92194803917849
 20
31.32482283055901
 30
0.0
 11
79.13329622965132
 21
31.53617102103184
 31
0.0
  0
LINE
  5
AB
330
22
100
AcDbEntity
  8
0
 62
     0
100
AcDbLine
 10
79.31564881917847
 20
31.718523610559
 30
0.0
 11
79.51249920917851
 21
31.91537400055904
 31
0.0
  0
LINE
  5
AC
330
22
100
AcDbEntity
  8
0
 62
     0
100
AcDbLine
 10
79.31564881917847
 20
32.24885369644891
 30
0.0
 11
79.51249920917851
 21
32.44570408644895
 31
0.0
  0
LINE
  5
AD
330
22
100
AcDbEntity
  8
0
 62
     0
100
AcDbLine
 10
79.31564881917847
 20
32.77918378233882
 30
0.0
 11
79.51249920917851
 21
32.97603417233886
 31
0.0
  0
LINE
  5
AE
330
22
100
AcDbEntity
  8
0
 62
     0
100
AcDbLine
 10
79.3156488191785
 20
24.82423249399019
 30
0.0
 11
79.51249920917851
 21
25.0210828839902
 31
0.0
  0
LINE
  5
AF
330
22
100
AcDbEntity
  8
0
 62
     0
100
AcDbLine
 10
79.3156488191785
 20
24.29390240810028
 30
0.0
 11
79.51249920917851
 21
24.49075279810029
 31
0.0
  0
LINE
  5
B0
330
22
100
AcDbEntity
  8
0
 62
     0
100
AcDbLine
 10
79.3156488191785
 20
23.76357232221037
 30
0.0
 11
79.51249920917851
 21
23.96042271221038
 31
0.0
  0
LINE
  5
B1
330
22
100
AcDbEntity
  8
0
 62
     0
100
AcDbLine
 10
79.31564881917849
 20
23.23324223632045
 30
0.0
 11
79.51249920917851
 21
23.43009262632047
 31
0.0
  0
LINE
  5
B2
330
22
100
AcDbEntity
  8
0
 62
     0
100
AcDbLine
 10
79.31564881917849
 20
22.70291215043054
 30
0.0
 11
79.51249920917851
 21
22.89976254043055
 31
0.0
  0
LINE
  5
B3
330
22
100
AcDbEntity
  8
0
 62
     0
100
AcDbLine
 10
79.31564881917849
 20
22.17258206454063
 30
0.0
 11
79.51249920917851
 21
22.36943245454065
 31
0.0
  0
LINE
  5
B4
330
22
100
AcDbEntity
  8
0
 62
     0
100
AcDbLine
 10
79.31564881917849
 20
21.64225197865071
 30
0.0
 11
79.51249920917851
 21
21.83910236865073
 31
0.0
  0
LINE
  5
B5
330
22
100
AcDbEntity
  8
0
 62
     0
100
AcDbLine
 10
79.31564881917849
 20
21.1119218927608
 30
0.0
 11
79.51249920917851
 21
21.30877228276082
 31
0.0
  0
LINE
  5
B6
330
22
100
AcDbEntity
  8
0
 62
     0
100
AcDbLine
 10
79.31564881917849
 20
20.58159180687089
 30
0.0
 11
79.51249920917851
 21
20.77844219687091
 31
0.0
  0
LINE
  5
B7
330
22
100
AcDbEntity
  8
0
 62
     0
100
AcDbLine
 10
79.31564881917849
 20
20.05126172098098
 30
0.0
 11
79.51249920917851
 21
20.248112110981
 31
0.0
  0
LINE
  5
B8
330
22
100
AcDbEntity
  8
0
 62
     0
100
AcDbLine
 10
78.92194803917849
 20
19.12723085509107
 30
0.0
 11
78.99549175325283
 21
19.20077456916542
 31
0.0
  0
LINE
  5
B9
330
22
100
AcDbEntity
  8
0
 62
     0
100
AcDbLine
 10
79.20021615885286
 20
19.40549897476544
 30
0.0
 11
79.51249920917851
 21
19.71778202509109
 31
0.0
  0
LINE
  5
BA
330
22
100
AcDbEntity
  8
0
 62
     0
100
AcDbLine
 10
79.279304924191
 20
18.95425765421367
 30
0.0
 11
79.51249920917851
 21
19.18745193920118
 31
0.0
  0
LINE
  5
BB
330
22
100
AcDbEntity
  8
0
 62
     0
100
AcDbLine
 10
79.31564881917847
 20
18.46027146331123
 30
0.0
 11
79.51249920917851
 21
18.65712185331127
 31
0.0
  0
LINE
  5
BC
330
22
100
AcDbEntity
  8
0
 62
     0
100
AcDbLine
 10
79.06679700012258
 20
17.68108955836542
 30
0.0
 11
79.14553715612266
 21
17.7598297143655
 31
0.0
  0
LINE
  5
BD
330
22
100
AcDbEntity
  8
0
 62
     0
100
AcDbLine
 10
79.31564881917847
 20
17.92994137742132
 30
0.0
 11
79.51249920917851
 21
18.12679176742136
 31
0.0
  0
LINE
  5
BE
330
22
100
AcDbEntity
  8
0
 62
     0
100
AcDbLine
 10
79.03413497061248
 20
17.11809744296543
 30
0.0
 11
79.16405622801242
 21
17.24801870036535
 31
0.0
  0
LINE
  5
BF
330
22
100
AcDbEntity
  8
0
 62
     0
100
AcDbLine
 10
79.39043417651259
 20
17.47439664886551
 30
0.0
 11
79.51249920917851
 21
17.59646168153145
 31
0.0
  0
LINE
  5
C0
330
22
100
AcDbEntity
  8
0
 62
     0
100
AcDbLine
 10
79.3156488191785
 20
25.55343636208882
 30
0.0
 11
79.51249920917851
 21
25.75028675208883
 31
0.0
  0
LINE
  5
C1
330
22
100
AcDbEntity
  8
0
 62
     0
100
AcDbLine
 10
79.3156488191785
 20
26.08376644797873
 30
0.0
 11
79.51249920917851
 21
26.28061683797874
 31
0.0
  0
LINE
  5
C2
330
22
100
AcDbEntity
  8
0
 62
     0
100
AcDbLine
 10
79.3156488191785
 20
26.61409653386864
 30
0.0
 11
79.51249920917851
 21
26.81094692386865
 31
0.0
  0
LINE
  5
C3
330
22
100
AcDbEntity
  8
0
 62
     0
100
AcDbLine
 10
79.3156488191785
 20
27.14442661975856
 30
0.0
 11
79.51249920917851
 21
27.34127700975856
 31
0.0
  0
LINE
  5
C4
330
22
100
AcDbEntity
  8
0
 62
     0
100
AcDbLine
 10
79.3156488191785
 20
27.67475670564847
 30
0.0
 11
79.55949920917851
 21
27.91860709564847
 31
0.0
  0
LINE
  5
C5
330
22
100
AcDbEntity
  8
0
 62
     0
100
AcDbLine
 10
78.92476476568358
 20
27.81420273804343
 30
0.0
 11
79.10415129460571
 21
27.99358926696558
 31
0.0
  0
LINE
  5
C6
330
22
100
AcDbEntity
  8
0
 62
     0
100
AcDbLine
 10
79.30415129460572
 20
28.19358926696558
 30
0.0
 11
79.51249920917851
 21
28.40193718153838
 31
0.0
  0
LINE
  5
C7
330
22
100
AcDbEntity
  8
0
 62
     0
100
AcDbLine
 10
78.92194803917849
 20
28.34171609742826
 30
0.0
 11
78.97342638627552
 21
28.39319444452529
 31
0.0
  0
LINE
  5
C8
330
22
100
AcDbEntity
  8
0
 62
     0
100
AcDbLine
 10
79.31564881917849
 20
28.73541687742826
 30
0.0
 11
79.51249920917851
 21
28.93226726742829
 31
0.0
  0
LINE
  5
C9
330
22
100
AcDbEntity
  8
0
 62
     0
100
AcDbLine
 10
79.31564881917849
 20
29.26574696331817
 30
0.0
 11
79.51249920917851
 21
29.4625973533182
 31
0.0
  0
LINE
  5
CA
330
22
100
AcDbEntity
  8
0
 62
     0
100
AcDbLine
 10
79.31564881917849
 20
29.79607704920808
 30
0.0
 11
79.51249920917851
 21
29.99292743920811
 31
0.0
  0
LINE
  5
CB
330
22
100
AcDbEntity
  8
0
 62
     0
100
AcDbLine
 10
79.31564881917849
 20
30.32640713509799
 30
0.0
 11
79.51249920917851
 21
30.52325752509803
 31
0.0
  0
LINE
  5
CC
330
22
100
AcDbEntity
  8
0
 62
     0
100
AcDbLine
 10
79.31401863176379
 20
30.85510703357321
 30
0.0
 11
79.51249920917851
 21
31.05358761098794
 31
0.0
  0
LINE
  5
CD
330
22
100
AcDbEntity
  8
0
 62
     0
100
AcDbLine
 10
78.92194803917849
 20
30.99336652687782
 30
0.0
 11
79.03541251696151
 21
31.10683100466085
 31
0.0
  0
LINE
  5
CE
330
22
100
AcDbEntity
  8
0
 62
     0
100
AcDbLine
 10
79.24013692256155
 20
31.31155541026087
 30
0.0
 11
79.51249920917851
 21
31.58391769687785
 31
0.0
  0
LINE
  5
CF
330
22
100
AcDbEntity
  8
0
 62
     0
100
AcDbLine
 10
79.31564881917847
 20
31.91739739276771
 30
0.0
 11
79.51249920917851
 21
32.11424778276776
 31
0.0
  0
LINE
  5
D0
330
22
100
AcDbEntity
  8
0
 62
     0
100
AcDbLine
 10
79.31564881917847
 20
32.44772747865762
 30
0.0
 11
79.51249920917851
 21
32.64457786865767
 31
0.0
  0
LINE
  5
D1
330
22
100
AcDbEntity
  8
0
 62
     0
100
AcDbLine
 10
79.31564881917847
 20
32.97805756454753
 30
0.0
 11
79.51249920917851
 21
33.17490795454757
 31
0.0
  0
LINE
  5
D2
330
22
100
AcDbEntity
  8
0
 62
     0
100
AcDbLine
 10
79.3156488191785
 20
25.02310627619891
 30
0.0
 11
79.51249920917851
 21
25.21995666619892
 31
0.0
  0
LINE
  5
D3
330
22
100
AcDbEntity
  8
0
 62
     0
100
AcDbLine
 10
79.3156488191785
 20
24.49277619030899
 30
0.0
 11
79.51249920917851
 21
24.689626580309
 31
0.0
  0
LINE
  5
D4
330
22
100
AcDbEntity
  8
0
 62
     0
100
AcDbLine
 10
79.3156488191785
 20
23.96244610441908
 30
0.0
 11
79.51249920917851
 21
24.15929649441909
 31
0.0
  0
LINE
  5
D5
330
22
100
AcDbEntity
  8
0
 62
     0
100
AcDbLine
 10
79.31564881917849
 20
23.43211601852917
 30
0.0
 11
79.51249920917851
 21
23.62896640852918
 31
0.0
  0
LINE
  5
D6
330
22
100
AcDbEntity
  8
0
 62
     0
100
AcDbLine
 10
79.31564881917849
 20
22.90178593263926
 30
0.0
 11
79.51249920917851
 21
23.09863632263927
 31
0.0
  0
LINE
  5
D7
330
22
100
AcDbEntity
  8
0
 62
     0
100
AcDbLine
 10
79.31564881917849
 20
22.37145584674935
 30
0.0
 11
79.51249920917851
 21
22.56830623674936
 31
0.0
  0
LINE
  5
D8
330
22
100
AcDbEntity
  8
0
 62
     0
100
AcDbLine
 10
79.31564881917849
 20
21.84112576085943
 30
0.0
 11
79.51249920917851
 21
22.03797615085945
 31
0.0
  0
LINE
  5
D9
330
22
100
AcDbEntity
  8
0
 62
     0
100
AcDbLine
 10
79.31564881917849
 20
21.31079567496952
 30
0.0
 11
79.51249920917851
 21
21.50764606496954
 31
0.0
  0
LINE
  5
DA
330
22
100
AcDbEntity
  8
0
 62
     0
100
AcDbLine
 10
79.31564881917849
 20
20.78046558907961
 30
0.0
 11
79.51249920917851
 21
20.97731597907963
 31
0.0
  0
LINE
  5
DB
330
22
100
AcDbEntity
  8
0
 62
     0
100
AcDbLine
 10
79.31564881917849
 20
20.25013550318969
 30
0.0
 11
79.51249920917851
 21
20.44698589318972
 31
0.0
  0
LINE
  5
DC
330
22
100
AcDbEntity
  8
0
 62
     0
100
AcDbLine
 10
79.00134237664414
 20
19.40549897476544
 30
0.0
 11
79.24231006231463
 21
19.64646666043592
 31
0.0
  0
LINE
  5
DD
330
22
100
AcDbEntity
  8
0
 62
     0
100
AcDbLine
 10
79.31564881917849
 20
19.71980541729978
 30
0.0
 11
79.51249920917851
 21
19.91665580729981
 31
0.0
  0
LINE
  5
DE
330
22
100
AcDbEntity
  8
0
 62
     0
100
AcDbLine
 10
79.1063712005312
 20
18.98019771276258
 30
0.0
 11
79.51249920917851
 21
19.3863257214099
 31
0.0
  0
LINE
  5
DF
330
22
100
AcDbEntity
  8
0
 62
     0
100
AcDbLine
 10
79.31564881917847
 20
18.65914524551995
 30
0.0
 11
79.51249920917851
 21
18.85599563551999
 31
0.0
  0
LINE
  5
E0
330
22
100
AcDbEntity
  8
0
 62
     0
100
AcDbLine
 10
78.86792321791386
 20
17.68108955836542
 30
0.0
 11
78.94666337391395
 21
17.75982971436551
 31
0.0
  0
LINE
  5
E1
330
22
100
AcDbEntity
  8
0
 62
     0
100
AcDbLine
 10
79.31564881917847
 20
18.12881515963004
 30
0.0
 11
79.51249920917851
 21
18.32566554963008
 31
0.0
  0
LINE
  5
E2
330
22
100
AcDbEntity
  8
0
 62
     0
100
AcDbLine
 10
78.92194803917846
 20
17.20478429374011
 30
0.0
 11
78.9651824458037
 21
17.24801870036535
 31
0.0
  0
LINE
  5
E3
330
22
100
AcDbEntity
  8
0
 62
     0
100
AcDbLine
 10
79.14234779680369
 20
17.42518405136534
 30
0.0
 11
79.51249920917851
 21
17.79533546374016
 31
0.0
  0
LINE
  5
E4
330
22
100
AcDbEntity
  8
0
 62
     0
100
AcDbLine
 10
79.37463747107592
 20
17.12714363974767
 30
0.0
 11
79.44629993419368
 21
17.19880610286543
 31
0.0
  0
ENDBLK
  5
E5
330
22
100
AcDbEntity
  8
0
100
AcDbBlockEnd
  0
BLOCK
  5
185
330
24
100
AcDbEntity
  8
0
100
AcDbBlockBegin
  2
*X1
 70
     1
 10
0.0
 20
0.0
 30
0.0
  3
*X1
  1

  0
LINE
  5
186
330
24
100
AcDbEntity
  8
0
 62
     0
100
AcDbLine
 10
74.20125541459036
 20
17.54584944436416
 30
0.0
 11
74.00135136145102
 21
17.74575349750349
 31
0.0
  0
LINE
  5
187
330
24
100
AcDbEntity
  8
0
 62
     0
100
AcDbLine
 10
73.66150393151833
 20
17.55527084154628
 30
0.0
 11
73.46159987837899
 21
17.75517489468561
 31
0.0
  0
LINE
  5
188
330
24
100
AcDbEntity
  8
0
 62
     0
100
AcDbLine
 10
73.12175244844631
 20
17.5646922387284
 30
0.0
 11
72.92184839530697
 21
17.76459629186773
 31
0.0
  0
LINE
  5
189
330
24
100
AcDbEntity
  8
0
 62
     0
100
AcDbLine
 10
72.58200096537428
 20
17.57411363591052
 30
0.0
 11
72.38209691223493
 21
17.77401768904986
 31
0.0
  0
LINE
  5
18A
330
24
100
AcDbEntity
  8
0
 62
     0
100
AcDbLine
 10
72.04224948230225
 20
17.58353503309263
 30
0.0
 11
71.84234542916289
 21
17.78343908623199
 31
0.0
  0
LINE
  5
18B
330
24
100
AcDbEntity
  8
0
 62
     0
100
AcDbLine
 10
71.50249799923023
 20
17.59295643027475
 30
0.0
 11
71.30259394609085
 21
17.79286048341411
 31
0.0
  0
LINE
  5
18C
330
24
100
AcDbEntity
  8
0
 62
     0
100
AcDbLine
 10
70.96274651615821
 20
17.60237782745686
 30
0.0
 11
70.76284246301883
 21
17.80228188059623
 31
0.0
  0
LINE
  5
18D
330
24
100
AcDbEntity
  8
0
 62
     0
100
AcDbLine
 10
70.00607811917848
 20
18.55904622443658
 30
0.0
 11
69.69665727485767
 21
18.86846706875738
 31
0.0
  0
LINE
  5
18E
330
24
100
AcDbEntity
  8
0
 62
     0
100
AcDbLine
 10
70.42299503308616
 20
17.61179922463899
 30
0.0
 11
70.22309097994678
 21
17.81170327777836
 31
0.0
  0
LINE
  5
18F
330
24
100
AcDbEntity
  8
0
 62
     0
100
AcDbLine
 10
69.35681002279093
 20
18.67798423493422
 30
0.0
 11
69.15690607715323
 21
18.87788818057193
 31
0.0
  0
LINE
  5
190
330
24
100
AcDbEntity
  8
0
 62
     0
100
AcDbLine
 10
70.00607811917848
 20
18.02871613854667
 30
0.0
 11
69.80969331917847
 21
18.22510093854669
 31
0.0
  0
LINE
  5
191
330
24
100
AcDbEntity
  8
0
 62
     0
100
AcDbLine
 10
69.88324355001414
 20
17.6212206218211
 30
0.0
 11
69.7117806355531
 21
17.79268353628214
 31
0.0
  0
LINE
  5
192
330
24
100
AcDbEntity
  8
0
 62
     0
100
AcDbLine
 10
74.7410068976624
 20
17.53642804718205
 30
0.0
 11
74.54110284452307
 21
17.73633210032136
 31
0.0
  0
LINE
  5
193
330
24
100
AcDbEntity
  8
0
 62
     0
100
AcDbLine
 10
75.28075838073442
 20
17.52700664999993
 30
0.0
 11
75.08085432759511
 21
17.72691070313924
 31
0.0
  0
LINE
  5
194
330
24
100
AcDbEntity
  8
0
 62
     0
100
AcDbLine
 10
75.82050986380645
 20
17.51758525281781
 30
0.0
 11
75.62060581066714
 21
17.71748930595712
 31
0.0
  0
LINE
  5
195
330
24
100
AcDbEntity
  8
0
 62
     0
100
AcDbLine
 10
76.36026134687847
 20
17.5081638556357
 30
0.0
 11
76.16035729373916
 21
17.70806790877499
 31
0.0
  0
LINE
  5
196
330
24
100
AcDbEntity
  8
0
 62
     0
100
AcDbLine
 10
76.90001282995051
 20
17.49874245845358
 30
0.0
 11
76.70010877681121
 21
17.69864651159287
 31
0.0
  0
LINE
  5
197
330
24
100
AcDbEntity
  8
0
 62
     0
100
AcDbLine
 10
77.43976431302254
 20
17.48932106127146
 30
0.0
 11
77.23986025988324
 21
17.68922511441074
 31
0.0
  0
LINE
  5
198
330
24
100
AcDbEntity
  8
0
 62
     0
100
AcDbLine
 10
77.97951579609456
 20
17.47989966408934
 30
0.0
 11
77.77961174295528
 21
17.67980371722862
 31
0.0
  0
LINE
  5
199
330
24
100
AcDbEntity
  8
0
 62
     0
100
AcDbLine
 10
78.8336559591083
 20
17.15608958696552
 30
0.0
 11
78.69618659910823
 21
17.29355894696559
 31
0.0
  0
LINE
  5
19A
330
24
100
AcDbEntity
  8
0
 62
     0
100
AcDbLine
 10
78.51926727916659
 20
17.47047826690723
 30
0.0
 11
78.3193632260273
 21
17.6703823200465
 31
0.0
  0
LINE
  5
19B
330
24
100
AcDbEntity
  8
0
 62
     0
100
AcDbLine
 10
78.5783557191083
 20
17.41138982696551
 30
0.0
 11
78.52917843917845
 21
17.46056710689536
 31
0.0
  0
LINE
  5
19C
330
24
100
AcDbEntity
  8
0
 62
     0
100
AcDbLine
 10
78.96047557207268
 20
17.55960005989104
 30
0.0
 11
78.85911470909935
 21
17.66096092286437
 31
0.0
  0
LINE
  5
19D
330
24
100
AcDbEntity
  8
0
 62
     0
100
AcDbLine
 10
74.13378647920636
 20
17.54702711901193
 30
0.0
 11
73.93388242606703
 21
17.74693117215125
 31
0.0
  0
LINE
  5
19E
330
24
100
AcDbEntity
  8
0
 62
     0
100
AcDbLine
 10
73.59403499613434
 20
17.55644851619404
 30
0.0
 11
73.39413094299499
 21
17.75635256933338
 31
0.0
  0
LINE
  5
19F
330
24
100
AcDbEntity
  8
0
 62
     0
100
AcDbLine
 10
73.0542835130623
 20
17.56586991337616
 30
0.0
 11
72.85437945992295
 21
17.7657739665155
 31
0.0
  0
LINE
  5
1A0
330
24
100
AcDbEntity
  8
0
 62
     0
100
AcDbLine
 10
72.51453202999027
 20
17.57529131055828
 30
0.0
 11
72.31462797685093
 21
17.77519536369763
 31
0.0
  0
LINE
  5
1A1
330
24
100
AcDbEntity
  8
0
 62
     0
100
AcDbLine
 10
71.97478054691825
 20
17.5847127077404
 30
0.0
 11
71.77487649377889
 21
17.78461676087975
 31
0.0
  0
LINE
  5
1A2
330
24
100
AcDbEntity
  8
0
 62
     0
100
AcDbLine
 10
71.43502906384623
 20
17.59413410492251
 30
0.0
 11
71.23512501070685
 21
17.79403815806188
 31
0.0
  0
LINE
  5
1A3
330
24
100
AcDbEntity
  8
0
 62
     0
100
AcDbLine
 10
70.89527758077419
 20
17.60355550210463
 30
0.0
 11
70.69537352763481
 21
17.803459555244
 31
0.0
  0
LINE
  5
1A4
330
24
100
AcDbEntity
  8
0
 62
     0
100
AcDbLine
 10
70.00607811917848
 20
18.49275496370034
 30
0.0
 11
69.62918837514462
 21
18.8696447077342
 31
0.0
  0
LINE
  5
1A5
330
24
100
AcDbEntity
  8
0
 62
     0
100
AcDbLine
 10
70.35552609770217
 20
17.61297689928675
 30
0.0
 11
70.15562204456279
 21
17.81288095242612
 31
0.0
  0
LINE
  5
1A6
330
24
100
AcDbEntity
  8
0
 62
     0
100
AcDbLine
 10
69.28934112307789
 20
18.67916187391103
 30
0.0
 11
69.08943717744017
 21
18.87906581954874
 31
0.0
  0
LINE
  5
1A7
330
24
100
AcDbEntity
  8
0
 62
     0
100
AcDbLine
 10
70.00607811917848
 20
17.96242487781043
 30
0.0
 11
69.80969331917847
 21
18.15880967781044
 31
0.0
  0
LINE
  5
1A8
330
24
100
AcDbEntity
  8
0
 62
     0
100
AcDbLine
 10
69.81577461463015
 20
17.62239829646887
 30
0.0
 11
69.6594983665695
 21
17.77867454452952
 31
0.0
  0
LINE
  5
1A9
330
24
100
AcDbEntity
  8
0
 62
     0
100
AcDbLine
 10
74.67353796227839
 20
17.53760572182981
 30
0.0
 11
74.47363390913906
 21
17.73750977496913
 31
0.0
  0
LINE
  5
1AA
330
24
100
AcDbEntity
  8
0
 62
     0
100
AcDbLine
 10
75.21328944535042
 20
17.5281843246477
 30
0.0
 11
75.01338539221109
 21
17.72808837778701
 31
0.0
  0
LINE
  5
1AB
330
24
100
AcDbEntity
  8
0
 62
     0
100
AcDbLine
 10
75.75304092842245
 20
17.51876292746558
 30
0.0
 11
75.55313687528313
 21
17.71866698060488
 31
0.0
  0
LINE
  5
1AC
330
24
100
AcDbEntity
  8
0
 62
     0
100
AcDbLine
 10
76.29279241149447
 20
17.50934153028346
 30
0.0
 11
76.09288835835517
 21
17.70924558342276
 31
0.0
  0
LINE
  5
1AD
330
24
100
AcDbEntity
  8
0
 62
     0
100
AcDbLine
 10
76.83254389456649
 20
17.49992013310134
 30
0.0
 11
76.6326398414272
 21
17.69982418624063
 31
0.0
  0
LINE
  5
1AE
330
24
100
AcDbEntity
  8
0
 62
     0
100
AcDbLine
 10
77.37229537763854
 20
17.49049873591922
 30
0.0
 11
77.17239132449924
 21
17.69040278905851
 31
0.0
  0
LINE
  5
1AF
330
24
100
AcDbEntity
  8
0
 62
     0
100
AcDbLine
 10
77.91204686071056
 20
17.48107733873711
 30
0.0
 11
77.71214280757127
 21
17.68098139187638
 31
0.0
  0
LINE
  5
1B0
330
24
100
AcDbEntity
  8
0
 62
     0
100
AcDbLine
 10
78.76736469837206
 20
17.15608958696552
 30
0.0
 11
78.629895338372
 21
17.29355894696559
 31
0.0
  0
LINE
  5
1B1
330
24
100
AcDbEntity
  8
0
 62
     0
100
AcDbLine
 10
78.45179834378258
 20
17.47165594155499
 30
0.0
 11
78.2518942906433
 21
17.67155999469426
 31
0.0
  0
LINE
  5
1B2
330
24
100
AcDbEntity
  8
0
 62
     0
100
AcDbLine
 10
78.92194803917846
 20
17.53183633204902
 30
0.0
 11
78.79164577371534
 21
17.66213859751213
 31
0.0
  0
LINE
  5
1B3
330
24
100
AcDbEntity
  8
0
 62
     0
100
AcDbLine
 10
74.06631754382236
 20
17.54820479365969
 30
0.0
 11
73.86641349068303
 21
17.74810884679902
 31
0.0
  0
LINE
  5
1B4
330
24
100
AcDbEntity
  8
0
 62
     0
100
AcDbLine
 10
73.52656606075033
 20
17.55762619084181
 30
0.0
 11
73.32666200761099
 21
17.75753024398114
 31
0.0
  0
LINE
  5
1B5
330
24
100
AcDbEntity
  8
0
 62
     0
100
AcDbLine
 10
72.9868145776783
 20
17.56704758802393
 30
0.0
 11
72.78691052453895
 21
17.76695164116327
 31
0.0
  0
LINE
  5
1B6
330
24
100
AcDbEntity
  8
0
 62
     0
100
AcDbLine
 10
72.44706309460628
 20
17.57646898520604
 30
0.0
 11
72.24715904146691
 21
17.77637303834539
 31
0.0
  0
LINE
  5
1B7
330
24
100
AcDbEntity
  8
0
 62
     0
100
AcDbLine
 10
71.90731161153426
 20
17.58589038238816
 30
0.0
 11
71.70740755839489
 21
17.78579443552752
 31
0.0
  0
LINE
  5
1B8
330
24
100
AcDbEntity
  8
0
 62
     0
100
AcDbLine
 10
71.36756012846221
 20
17.59531177957028
 30
0.0
 11
71.16765607532285
 21
17.79521583270964
 31
0.0
  0
LINE
  5
1B9
330
24
100
AcDbEntity
  8
0
 62
     0
100
AcDbLine
 10
70.82780864539019
 20
17.6047331767524
 30
0.0
 11
70.62790459225081
 21
17.80463722989176
 31
0.0
  0
LINE
  5
1BA
330
24
100
AcDbEntity
  8
0
 62
     0
100
AcDbLine
 10
69.76162342106919
 20
18.67091840107338
 30
0.0
 11
69.56171947543156
 21
18.87082234671102
 31
0.0
  0
LINE
  5
1BB
330
24
100
AcDbEntity
  8
0
 62
     0
100
AcDbLine
 10
70.00607811917848
 20
18.4264637029641
 30
0.0
 11
69.80969331917846
 21
18.62284850296413
 31
0.0
  0
LINE
  5
1BC
330
24
100
AcDbEntity
  8
0
 62
     0
100
AcDbLine
 10
70.28805716231817
 20
17.61415457393451
 30
0.0
 11
70.08815310917878
 21
17.81405862707389
 31
0.0
  0
LINE
  5
1BD
330
24
100
AcDbEntity
  8
0
 62
     0
100
AcDbLine
 10
69.22187222336484
 20
18.68033951288783
 30
0.0
 11
69.02196827772711
 21
18.88024345852556
 31
0.0
  0
LINE
  5
1BE
330
24
100
AcDbEntity
  8
0
 62
     0
100
AcDbLine
 10
70.00607811917848
 20
17.89613361707419
 30
0.0
 11
69.80969331917847
 21
18.0925184170742
 31
0.0
  0
LINE
  5
1BF
330
24
100
AcDbEntity
  8
0
 62
     0
100
AcDbLine
 10
69.74830567924614
 20
17.62357597111663
 30
0.0
 11
69.65258547917844
 21
17.71929617118432
 31
0.0
  0
LINE
  5
1C0
330
24
100
AcDbEntity
  8
0
 62
     0
100
AcDbLine
 10
74.60606902689439
 20
17.53878339647758
 30
0.0
 11
74.40616497375505
 21
17.7386874496169
 31
0.0
  0
LINE
  5
1C1
330
24
100
AcDbEntity
  8
0
 62
     0
100
AcDbLine
 10
75.14582050996641
 20
17.52936199929546
 30
0.0
 11
74.94591645682709
 21
17.72926605243477
 31
0.0
  0
LINE
  5
1C2
330
24
100
AcDbEntity
  8
0
 62
     0
100
AcDbLine
 10
75.68557199303845
 20
17.51994060211334
 30
0.0
 11
75.48566793989913
 21
17.71984465525265
 31
0.0
  0
LINE
  5
1C3
330
24
100
AcDbEntity
  8
0
 62
     0
100
AcDbLine
 10
76.22532347611048
 20
17.51051920493122
 30
0.0
 11
76.02541942297117
 21
17.71042325807052
 31
0.0
  0
LINE
  5
1C4
330
24
100
AcDbEntity
  8
0
 62
     0
100
AcDbLine
 10
76.7650749591825
 20
17.50109780774911
 30
0.0
 11
76.56517090604319
 21
17.7010018608884
 31
0.0
  0
LINE
  5
1C5
330
24
100
AcDbEntity
  8
0
 62
     0
100
AcDbLine
 10
77.30482644225452
 20
17.49167641056699
 30
0.0
 11
77.10492238911523
 21
17.69158046370627
 31
0.0
  0
LINE
  5
1C6
330
24
100
AcDbEntity
  8
0
 62
     0
100
AcDbLine
 10
77.84457792532656
 20
17.48225501338487
 30
0.0
 11
77.64467387218727
 21
17.68215906652415
 31
0.0
  0
LINE
  5
1C7
330
24
100
AcDbEntity
  8
0
 62
     0
100
AcDbLine
 10
78.70107343763582
 20
17.15608958696552
 30
0.0
 11
78.56360407763574
 21
17.29355894696559
 31
0.0
  0
LINE
  5
1C8
330
24
100
AcDbEntity
  8
0
 62
     0
100
AcDbLine
 10
78.38432940839858
 20
17.47283361620276
 30
0.0
 11
78.18442535525931
 21
17.67273766934203
 31
0.0
  0
LINE
  5
1C9
330
24
100
AcDbEntity
  8
0
 62
     0
100
AcDbLine
 10
78.92194803917847
 20
17.46554507131277
 30
0.0
 11
78.72417683833133
 21
17.6633162721599
 31
0.0
  0
LINE
  5
1CA
330
24
100
AcDbEntity
  8
0
 62
     0
100
AcDbLine
 10
74.40366222074238
 20
17.54231642042087
 30
0.0
 11
74.20375816760304
 21
17.74222047356019
 31
0.0
  0
LINE
  5
1CB
330
24
100
AcDbEntity
  8
0
 62
     0
100
AcDbLine
 10
73.86391073767035
 20
17.55173781760299
 30
0.0
 11
73.66400668453102
 21
17.75164187074231
 31
0.0
  0
LINE
  5
1CC
330
24
100
AcDbEntity
  8
0
 62
     0
100
AcDbLine
 10
73.32415925459833
 20
17.56115921478511
 30
0.0
 11
73.12425520145898
 21
17.76106326792444
 31
0.0
  0
LINE
  5
1CD
330
24
100
AcDbEntity
  8
0
 62
     0
100
AcDbLine
 10
72.78440777152629
 20
17.57058061196722
 30
0.0
 11
72.58450371838694
 21
17.77048466510656
 31
0.0
  0
LINE
  5
1CE
330
24
100
AcDbEntity
  8
0
 62
     0
100
AcDbLine
 10
72.24465628845426
 20
17.58000200914934
 30
0.0
 11
72.0447522353149
 21
17.77990606228869
 31
0.0
  0
LINE
  5
1CF
330
24
100
AcDbEntity
  8
0
 62
     0
100
AcDbLine
 10
71.70490480538224
 20
17.58942340633145
 30
0.0
 11
71.50500075224286
 21
17.78932745947081
 31
0.0
  0
LINE
  5
1D0
330
24
100
AcDbEntity
  8
0
 62
     0
100
AcDbLine
 10
71.16515332231021
 20
17.59884480351358
 30
0.0
 11
70.96524926917084
 21
17.79874885665294
 31
0.0
  0
LINE
  5
1D1
330
24
100
AcDbEntity
  8
0
 62
     0
100
AcDbLine
 10
70.00607811917848
 20
18.7579200066453
 30
0.0
 11
69.89906397399685
 21
18.86493415182694
 31
0.0
  0
LINE
  5
1D2
330
24
100
AcDbEntity
  8
0
 62
     0
100
AcDbLine
 10
70.62540183923818
 20
17.60826620069569
 30
0.0
 11
70.4254977860988
 21
17.80817025383506
 31
0.0
  0
LINE
  5
1D3
330
24
100
AcDbEntity
  8
0
 62
     0
100
AcDbLine
 10
69.55921672193006
 20
18.6744513180038
 30
0.0
 11
69.3593127762924
 21
18.87435526364147
 31
0.0
  0
LINE
  5
1D4
330
24
100
AcDbEntity
  8
0
 62
     0
100
AcDbLine
 10
70.00607811917848
 20
18.22758992075538
 30
0.0
 11
69.80969331917846
 21
18.42397472075541
 31
0.0
  0
LINE
  5
1D5
330
24
100
AcDbEntity
  8
0
 62
     0
100
AcDbLine
 10
70.08565035616616
 20
17.61768759787781
 30
0.0
 11
69.80969331917847
 21
17.89364463486548
 31
0.0
  0
LINE
  5
1D6
330
24
100
AcDbEntity
  8
0
 62
     0
100
AcDbLine
 10
69.01946552422571
 20
18.68387242981825
 30
0.0
 11
68.92596171917844
 21
18.77737623486551
 31
0.0
  0
LINE
  5
1D7
330
24
100
AcDbEntity
  8
0
 62
     0
100
AcDbLine
 10
74.9434137038144
 20
17.53289502323875
 30
0.0
 11
74.74350965067507
 21
17.73279907637807
 31
0.0
  0
LINE
  5
1D8
330
24
100
AcDbEntity
  8
0
 62
     0
100
AcDbLine
 10
75.48316518688643
 20
17.52347362605664
 30
0.0
 11
75.28326113374712
 21
17.72337767919594
 31
0.0
  0
LINE
  5
1D9
330
24
100
AcDbEntity
  8
0
 62
     0
100
AcDbLine
 10
76.02291666995846
 20
17.51405222887452
 30
0.0
 11
75.82301261681916
 21
17.71395628201382
 31
0.0
  0
LINE
  5
1DA
330
24
100
AcDbEntity
  8
0
 62
     0
100
AcDbLine
 10
76.56266815303048
 20
17.5046308316924
 30
0.0
 11
76.36276409989118
 21
17.7045348848317
 31
0.0
  0
LINE
  5
1DB
330
24
100
AcDbEntity
  8
0
 62
     0
100
AcDbLine
 10
77.10241963610252
 20
17.49520943451028
 30
0.0
 11
76.90251558296322
 21
17.69511348764957
 31
0.0
  0
LINE
  5
1DC
330
24
100
AcDbEntity
  8
0
 62
     0
100
AcDbLine
 10
77.64217111917455
 20
17.48578803732817
 30
0.0
 11
77.44226706603526
 21
17.68569209046745
 31
0.0
  0
LINE
  5
1DD
330
24
100
AcDbEntity
  8
0
 62
     0
100
AcDbLine
 10
78.18192260224657
 20
17.47636664014605
 30
0.0
 11
77.98201854910729
 21
17.67627069328532
 31
0.0
  0
LINE
  5
1DE
330
24
100
AcDbEntity
  8
0
 62
     0
100
AcDbLine
 10
78.92194803917846
 20
17.26667128910407
 30
0.0
 11
78.89506038131694
 21
17.29355894696559
 31
0.0
  0
LINE
  5
1DF
330
24
100
AcDbEntity
  8
0
 62
     0
100
AcDbLine
 10
78.77722950131702
 20
17.41138982696551
 30
0.0
 11
78.52177003217931
 21
17.6668492961032
 31
0.0
  0
ENDBLK
  5
1E0
330
24
100
AcDbEntity
  8
0
100
AcDbBlockEnd
  0
BLOCK
  5
655
330
64A
100
AcDbEntity
  8
0
100
AcDbBlockBegin
  2
*D2
 70
     1
 10
0.0
 20
0.0
 30
0.0
  3
*D2
  1

  0
LINE
  5
141B
330
64A
100
AcDbEntity
  8
0
 62
     0
100
AcDbLine
 10
29.23772301521406
 20
18.62904628967348
 30
0.0
 11
35.98018753031622
 21
18.62904628967348
 31
0.0
  0
LINE
  5
141C
330
64A
100
AcDbEntity
  8
0
 62
     0
100
AcDbLine
 10
29.23772301521406
 20
43.23534503967343
 30
0.0
 11
35.98018753031622
 21
43.23534503967343
 31
0.0
  0
LINE
  5
141D
330
64A
100
AcDbEntity
  8
0
 62
     0
100
AcDbLine
 10
35.28268753031623
 20
19.97904628967348
 30
0.0
 11
35.28268753031623
 21
29.78844566467346
 31
0.0
  0
LINE
  5
141E
330
64A
100
AcDbEntity
  8
0
 62
     0
100
AcDbLine
 10
35.28268753031623
 20
41.88534503967343
 30
0.0
 11
35.28268753031623
 21
32.07594566467345
 31
0.0
  0
SOLID
  5
141F
330
64A
100
AcDbEntity
  8
0
 62
     0
100
AcDbTrace
 10
35.05768753031623
 20
19.97904628967348
 30
0.0
 11
35.50768753031623
 21
19.97904628967348
 31
0.0
 12
35.28268753031623
 22
18.62904628967348
 32
0.0
 13
35.28268753031623
 23
18.62904628967348
 33
0.0
  0
SOLID
  5
1420
330
64A
100
AcDbEntity
  8
0
 62
     0
100
AcDbTrace
 10
35.05768753031623
 20
41.88534503967343
 30
0.0
 11
35.50768753031623
 21
41.88534503967343
 31
0.0
 12
35.28268753031623
 22
43.23534503967343
 32
0.0
 13
35.28268753031623
 23
43.23534503967343
 33
0.0
  0
MTEXT
  5
1421
330
64A
100
AcDbEntity
  8
0
 62
     0
100
AcDbMText
 10
35.28268753031622
 20
30.93219566467346
 30
0.0
 40
0.9375
 41
0.0
 71
     5
 72
     1
  1
\A1;G
1001
ACAD
1000
MTEXTBEGIN
1070
    73
1070
     1
1070
    44
1040
1.0
1070
    74
1070
     0
1000
MTEXTEND
  0
POINT
  5
1422
330
64A
100
AcDbEntity
  8
DEFPOINTS
 62
     0
100
AcDbPoint
 10
28.76522301521406
 20
18.62904628967348
 30
0.0
  0
POINT
  5
1423
330
64A
100
AcDbEntity
  8
DEFPOINTS
 62
     0
100
AcDbPoint
 10
28.76522301521406
 20
43.23534503967343
 30
0.0
  0
POINT
  5
1424
330
64A
100
AcDbEntity
  8
DEFPOINTS
 62
     0
100
AcDbPoint
 10
35.28268753031623
 20
43.23534503967343
 30
0.0
  0
ENDBLK
  5
656
330
64A
100
AcDbEntity
  8
0
100
AcDbBlockEnd
  0
BLOCK
  5
662
330
657
100
AcDbEntity
  8
0
100
AcDbBlockBegin
  2
*D3
 70
     1
 10
0.0
 20
0.0
 30
0.0
  3
*D3
  1

  0
LINE
  5
1411
330
657
100
AcDbEntity
  8
0
 62
     0
100
AcDbLine
 10
27.6629198952141
 20
17.05424316967364
 30
0.0
 11
38.25888493908131
 21
17.05424316967364
 31
0.0
  0
LINE
  5
1412
330
657
100
AcDbEntity
  8
0
 62
     0
100
AcDbLine
 10
27.6629198952141
 20
44.8101481596735
 30
0.0
 11
38.25888493908131
 21
44.8101481596735
 31
0.0
  0
LINE
  5
1413
330
657
100
AcDbEntity
  8
0
 62
     0
100
AcDbLine
 10
37.56138493908131
 20
18.40424316967364
 30
0.0
 11
37.56138493908131
 21
29.78844566467357
 31
0.0
  0
LINE
  5
1414
330
657
100
AcDbEntity
  8
0
 62
     0
100
AcDbLine
 10
37.56138493908131
 20
43.46014815967349
 30
0.0
 11
37.56138493908131
 21
32.07594566467356
 31
0.0
  0
SOLID
  5
1415
330
657
100
AcDbEntity
  8
0
 62
     0
100
AcDbTrace
 10
37.33638493908131
 20
18.40424316967364
 30
0.0
 11
37.78638493908131
 21
18.40424316967364
 31
0.0
 12
37.56138493908131
 22
17.05424316967364
 32
0.0
 13
37.56138493908131
 23
17.05424316967364
 33
0.0
  0
SOLID
  5
1416
330
657
100
AcDbEntity
  8
0
 62
     0
100
AcDbTrace
 10
37.33638493908131
 20
43.46014815967349
 30
0.0
 11
37.78638493908131
 21
43.46014815967349
 31
0.0
 12
37.56138493908131
 22
44.8101481596735
 32
0.0
 13
37.56138493908131
 23
44.8101481596735
 33
0.0
  0
MTEXT
  5
1417
330
657
100
AcDbEntity
  8
0
 62
     0
100
AcDbMText
 10
37.5613849390813
 20
30.93219566467357
 30
0.0
 40
0.9375
 41
0.0
 71
     5
 72
     1
  1
\A1;F
1001
ACAD
1000
MTEXTBEGIN
1070
    73
1070
     1
1070
    44
1040
1.0
1070
    74
1070
     0
1000
MTEXTEND
  0
POINT
  5
1418
330
657
100
AcDbEntity
  8
DEFPOINTS
 62
     0
100
AcDbPoint
 10
27.1904198952141
 20
17.05424316967364
 30
0.0
  0
POINT
  5
1419
330
657
100
AcDbEntity
  8
DEFPOINTS
 62
     0
100
AcDbPoint
 10
27.1904198952141
 20
44.8101481596735
 30
0.0
  0
POINT
  5
141A
330
657
100
AcDbEntity
  8
DEFPOINTS
 62
     0
100
AcDbPoint
 10
37.56138493908131
 20
44.8101481596735
 30
0.0
  0
ENDBLK
  5
663
330
657
100
AcDbEntity
  8
0
100
AcDbBlockEnd
  0
BLOCK
  5
66F
330
664
100
AcDbEntity
  8
0
100
AcDbBlockBegin
  2
*D4
 70
     1
 10
0.0
 20
0.0
 30
0.0
  3
*D4
  1

  0
LINE
  5
142F
330
664
100
AcDbEntity
  8
0
 62
     0
100
AcDbLine
 10
27.1904198952141
 20
16.58174316967364
 30
0.0
 11
27.1904198952141
 21
10.72634663606472
 31
0.0
  0
LINE
  5
1430
330
664
100
AcDbEntity
  8
0
 62
     0
100
AcDbLine
 10
10.45813674521408
 20
16.58174316967364
 30
0.0
 11
10.45813674521408
 21
10.72634663606472
 31
0.0
  0
LINE
  5
1431
330
664
100
AcDbEntity
  8
0
 62
     0
100
AcDbLine
 10
25.8404198952141
 20
11.42384663606472
 30
0.0
 11
19.73365332021409
 21
11.42384663606472
 31
0.0
  0
LINE
  5
1432
330
664
100
AcDbEntity
  8
0
 62
     0
100
AcDbLine
 10
11.80813674521408
 20
11.42384663606472
 30
0.0
 11
17.91490332021409
 21
11.42384663606472
 31
0.0
  0
SOLID
  5
1433
330
664
100
AcDbEntity
  8
0
 62
     0
100
AcDbTrace
 10
25.8404198952141
 20
11.64884663606472
 30
0.0
 11
25.8404198952141
 21
11.19884663606472
 31
0.0
 12
27.1904198952141
 22
11.42384663606472
 32
0.0
 13
27.1904198952141
 23
11.42384663606472
 33
0.0
  0
SOLID
  5
1434
330
664
100
AcDbEntity
  8
0
 62
     0
100
AcDbTrace
 10
11.80813674521408
 20
11.64884663606472
 30
0.0
 11
11.80813674521408
 21
11.19884663606472
 31
0.0
 12
10.45813674521408
 22
11.42384663606472
 32
0.0
 13
10.45813674521408
 23
11.42384663606472
 33
0.0
  0
MTEXT
  5
1435
330
664
100
AcDbEntity
  8
0
 62
     0
100
AcDbMText
 10
18.82427832021409
 20
11.42384663606472
 30
0.0
 40
0.9375
 41
0.0
 71
     5
 72
     1
  1
\A1;D
1001
ACAD
1000
MTEXTBEGIN
1070
    73
1070
     1
1070
    44
1040
1.0
1070
    74
1070
     0
1000
MTEXTEND
  0
POINT
  5
1436
330
664
100
AcDbEntity
  8
DEFPOINTS
 62
     0
100
AcDbPoint
 10
27.1904198952141
 20
17.05424316967364
 30
0.0
  0
POINT
  5
1437
330
664
100
AcDbEntity
  8
DEFPOINTS
 62
     0
100
AcDbPoint
 10
10.45813674521408
 20
17.05424316967364
 30
0.0
  0
POINT
  5
1438
330
664
100
AcDbEntity
  8
DEFPOINTS
 62
     0
100
AcDbPoint
 10
10.45813674521408
 20
11.42384663606472
 30
0.0
  0
ENDBLK
  5
670
330
664
100
AcDbEntity
  8
0
100
AcDbBlockEnd
  0
BLOCK
  5
67C
330
671
100
AcDbEntity
  8
0
100
AcDbBlockBegin
  2
*D5
 70
     1
 10
0.0
 20
0.0
 30
0.0
  3
*D5
  1

  0
LINE
  5
1425
330
671
100
AcDbEntity
  8
0
 62
     0
100
AcDbLine
 10
28.76522301521406
 20
18.15654628967348
 30
0.0
 11
28.76522301521406
 21
8.851346636064723
 31
0.0
  0
LINE
  5
1426
330
671
100
AcDbEntity
  8
0
 62
     0
100
AcDbLine
 10
8.883333625214074
 20
18.15654628967348
 30
0.0
 11
8.883333625214074
 21
8.851346636064723
 31
0.0
  0
LINE
  5
1427
330
671
100
AcDbEntity
  8
0
 62
     0
100
AcDbLine
 10
27.41522301521406
 20
9.548846636064723
 30
0.0
 11
19.73365332021406
 21
9.548846636064723
 31
0.0
  0
LINE
  5
1428
330
671
100
AcDbEntity
  8
0
 62
     0
100
AcDbLine
 10
10.23333362521407
 20
9.548846636064723
 30
0.0
 11
17.91490332021406
 21
9.548846636064723
 31
0.0
  0
SOLID
  5
1429
330
671
100
AcDbEntity
  8
0
 62
     0
100
AcDbTrace
 10
27.41522301521406
 20
9.773846636064723
 30
0.0
 11
27.41522301521406
 21
9.323846636064724
 31
0.0
 12
28.76522301521406
 22
9.548846636064723
 32
0.0
 13
28.76522301521406
 23
9.548846636064723
 33
0.0
  0
SOLID
  5
142A
330
671
100
AcDbEntity
  8
0
 62
     0
100
AcDbTrace
 10
10.23333362521407
 20
9.773846636064723
 30
0.0
 11
10.23333362521407
 21
9.323846636064724
 31
0.0
 12
8.883333625214074
 22
9.548846636064723
 32
0.0
 13
8.883333625214074
 23
9.548846636064723
 33
0.0
  0
MTEXT
  5
142B
330
671
100
AcDbEntity
  8
0
 62
     0
100
AcDbMText
 10
18.82427832021406
 20
9.548846636064723
 30
0.0
 40
0.9375
 41
0.0
 71
     5
 72
     1
  1
\A1;C
1001
ACAD
1000
MTEXTBEGIN
1070
    73
1070
     1
1070
    44
1040
1.0
1070
    74
1070
     0
1000
MTEXTEND
  0
POINT
  5
142C
330
671
100
AcDbEntity
  8
DEFPOINTS
 62
     0
100
AcDbPoint
 10
28.76522301521406
 20
18.62904628967348
 30
0.0
  0
POINT
  5
142D
330
671
100
AcDbEntity
  8
DEFPOINTS
 62
     0
100
AcDbPoint
 10
8.883333625214074
 20
18.62904628967348
 30
0.0
  0
POINT
  5
142E
330
671
100
AcDbEntity
  8
DEFPOINTS
 62
     0
100
AcDbPoint
 10
8.883333625214074
 20
9.548846636064723
 30
0.0
  0
ENDBLK
  5
67D
330
671
100
AcDbEntity
  8
0
100
AcDbBlockEnd
  0
BLOCK
  5
689
330
67E
100
AcDbEntity
  8
0
100
AcDbBlockBegin
  2
*D6
 70
     1
 10
0.0
 20
0.0
 30
0.0
  3
*D6
  1

  0
LINE
  5
1407
330
67E
100
AcDbEntity
  8
0
 62
     0
100
AcDbLine
 10
8.180872496100242
 20
16.63302560707356
 30
0.0
 11
3.166030572430601
 21
16.63302560707356
 31
0.0
  0
LINE
  5
1408
330
67E
100
AcDbEntity
  8
0
 62
     0
100
AcDbLine
 10
8.180872496100242
 20
45.23136572227357
 30
0.0
 11
3.166030572430608
 21
45.23136572227357
 31
0.0
  0
LINE
  5
1409
330
67E
100
AcDbEntity
  8
0
 62
     0
100
AcDbLine
 10
3.863530572430601
 20
17.98302560707356
 30
0.0
 11
3.863530572430604
 21
29.78844566467357
 31
0.0
  0
LINE
  5
140A
330
67E
100
AcDbEntity
  8
0
 62
     0
100
AcDbLine
 10
3.863530572430607
 20
43.88136572227358
 30
0.0
 11
3.863530572430604
 21
32.07594566467356
 31
0.0
  0
SOLID
  5
140B
330
67E
100
AcDbEntity
  8
0
 62
     0
100
AcDbTrace
 10
3.638530572430601
 20
17.98302560707356
 30
0.0
 11
4.088530572430601
 21
17.98302560707356
 31
0.0
 12
3.863530572430601
 22
16.63302560707356
 32
0.0
 13
3.863530572430601
 23
16.63302560707356
 33
0.0
  0
SOLID
  5
140C
330
67E
100
AcDbEntity
  8
0
 62
     0
100
AcDbTrace
 10
3.638530572430607
 20
43.88136572227358
 30
0.0
 11
4.088530572430607
 21
43.88136572227358
 31
0.0
 12
3.863530572430607
 22
45.23136572227357
 32
0.0
 13
3.863530572430607
 23
45.23136572227357
 33
0.0
  0
MTEXT
  5
140D
330
67E
100
AcDbEntity
  8
0
 62
     0
100
AcDbMText
 10
3.863530572430599
 20
30.93219566467357
 30
0.0
 40
0.9375
 41
0.0
 71
     5
 72
     1
  1
\A1;B
1001
ACAD
1000
MTEXTBEGIN
1070
    73
1070
     1
1070
    44
1040
1.0
1070
    74
1070
     0
1000
MTEXTEND
  0
POINT
  5
140E
330
67E
100
AcDbEntity
  8
DEFPOINTS
 62
     0
100
AcDbPoint
 10
8.653372496100242
 20
16.63302560707356
 30
0.0
  0
POINT
  5
140F
330
67E
100
AcDbEntity
  8
DEFPOINTS
 62
     0
100
AcDbPoint
 10
8.653372496100242
 20
45.23136572227357
 30
0.0
  0
POINT
  5
1410
330
67E
100
AcDbEntity
  8
DEFPOINTS
 62
     0
100
AcDbPoint
 10
3.863530572430607
 20
45.23136572227357
 30
0.0
  0
ENDBLK
  5
68A
330
67E
100
AcDbEntity
  8
0
100
AcDbBlockEnd
  0
BLOCK
  5
696
330
68B
100
AcDbEntity
  8
0
100
AcDbBlockBegin
  2
*D7
 70
     1
 10
0.0
 20
0.0
 30
0.0
  3
*D7
  1

  0
LINE
  5
144D
330
68B
100
AcDbEntity
  8
0
 62
     0
100
AcDbLine
 10
29.19575237781407
 20
45.50329748878744
 30
0.0
 11
29.19575237781407
 21
49.84233853304761
 31
0.0
  0
LINE
  5
144E
330
68B
100
AcDbEntity
  8
0
 62
     0
100
AcDbLine
 10
8.452804262614048
 20
45.50329748878744
 30
0.0
 11
8.452804262614048
 21
49.84233853304761
 31
0.0
  0
LINE
  5
144F
330
68B
100
AcDbEntity
  8
0
 62
     0
100
AcDbLine
 10
27.84575237781407
 20
49.14483853304762
 30
0.0
 11
19.73365332021406
 21
49.14483853304762
 31
0.0
  0
LINE
  5
1450
330
68B
100
AcDbEntity
  8
0
 62
     0
100
AcDbLine
 10
9.802804262614047
 20
49.14483853304762
 30
0.0
 11
17.91490332021405
 21
49.14483853304762
 31
0.0
  0
SOLID
  5
1451
330
68B
100
AcDbEntity
  8
0
 62
     0
100
AcDbTrace
 10
27.84575237781407
 20
49.36983853304762
 30
0.0
 11
27.84575237781407
 21
48.91983853304761
 31
0.0
 12
29.19575237781407
 22
49.14483853304762
 32
0.0
 13
29.19575237781407
 23
49.14483853304762
 33
0.0
  0
SOLID
  5
1452
330
68B
100
AcDbEntity
  8
0
 62
     0
100
AcDbTrace
 10
9.802804262614047
 20
49.36983853304762
 30
0.0
 11
9.802804262614047
 21
48.91983853304761
 31
0.0
 12
8.452804262614048
 22
49.14483853304762
 32
0.0
 13
8.452804262614048
 23
49.14483853304762
 33
0.0
  0
MTEXT
  5
1453
330
68B
100
AcDbEntity
  8
0
 62
     0
100
AcDbMText
 10
18.82427832021406
 20
49.14483853304762
 30
0.0
 40
0.9375
 41
0.0
 71
     5
 72
     1
  1
\A1;A
1001
ACAD
1000
MTEXTBEGIN
1070
    73
1070
     1
1070
    44
1040
1.0
1070
    74
1070
     0
1000
MTEXTEND
  0
POINT
  5
1454
330
68B
100
AcDbEntity
  8
DEFPOINTS
 62
     0
100
AcDbPoint
 10
29.19575237781407
 20
45.03079748878744
 30
0.0
  0
POINT
  5
1455
330
68B
100
AcDbEntity
  8
DEFPOINTS
 62
     0
100
AcDbPoint
 10
8.452804262614048
 20
45.03079748878744
 30
0.0
  0
POINT
  5
1456
330
68B
100
AcDbEntity
  8
DEFPOINTS
 62
     0
100
AcDbPoint
 10
8.452804262614048
 20
49.14483853304762
 30
0.0
  0
ENDBLK
  5
697
330
68B
100
AcDbEntity
  8
0
100
AcDbBlockEnd
  0
BLOCK
  5
6A3
330
698
100
AcDbEntity
  8
0
100
AcDbBlockBegin
  2
*D8
 70
     1
 10
0.0
 20
0.0
 30
0.0
  3
*D8
  1

  0
LINE
  5
13FD
330
698
100
AcDbEntity
  8
0
 62
     0
100
AcDbLine
 10
65.63298797826849
 20
52.93061776386173
 30
0.0
 11
65.63298797826849
 21
50.41072147264713
 31
0.0
  0
LINE
  5
13FE
330
698
100
AcDbEntity
  8
0
 62
     0
100
AcDbLine
 10
42.34086243190849
 20
52.93061776386173
 30
0.0
 11
42.34086243190849
 21
50.41072147264713
 31
0.0
  0
LINE
  5
13FF
330
698
100
AcDbEntity
  8
0
 62
     0
100
AcDbLine
 10
64.28298797826849
 20
51.10822147264713
 30
0.0
 11
54.89630020508849
 21
51.10822147264713
 31
0.0
  0
LINE
  5
1400
330
698
100
AcDbEntity
  8
0
 62
     0
100
AcDbLine
 10
43.69086243190849
 20
51.10822147264713
 30
0.0
 11
53.07755020508849
 21
51.10822147264713
 31
0.0
  0
SOLID
  5
1401
330
698
100
AcDbEntity
  8
0
 62
     0
100
AcDbTrace
 10
64.28298797826849
 20
51.33322147264713
 30
0.0
 11
64.28298797826849
 21
50.88322147264713
 31
0.0
 12
65.63298797826849
 22
51.10822147264713
 32
0.0
 13
65.63298797826849
 23
51.10822147264713
 33
0.0
  0
SOLID
  5
1402
330
698
100
AcDbEntity
  8
0
 62
     0
100
AcDbTrace
 10
43.69086243190849
 20
51.33322147264713
 30
0.0
 11
43.69086243190849
 21
50.88322147264713
 31
0.0
 12
42.34086243190849
 22
51.10822147264713
 32
0.0
 13
42.34086243190849
 23
51.10822147264713
 33
0.0
  0
MTEXT
  5
1403
330
698
100
AcDbEntity
  8
0
 62
     0
100
AcDbMText
 10
53.98692520508849
 20
51.10822147264713
 30
0.0
 40
0.9375
 41
0.0
 71
     5
 72
     1
  1
\A1;N
1001
ACAD
1000
MTEXTBEGIN
1070
    73
1070
     1
1070
    44
1040
1.0
1070
    74
1070
     0
1000
MTEXTEND
  0
POINT
  5
1404
330
698
100
AcDbEntity
  8
DEFPOINTS
 62
     0
100
AcDbPoint
 10
65.63298797826849
 20
53.40311776386172
 30
0.0
  0
POINT
  5
1405
330
698
100
AcDbEntity
  8
DEFPOINTS
 62
     0
100
AcDbPoint
 10
42.34086243190849
 20
53.40311776386172
 30
0.0
  0
POINT
  5
1406
330
698
100
AcDbEntity
  8
DEFPOINTS
 62
     0
100
AcDbPoint
 10
42.34086243190849
 20
51.10822147264713
 30
0.0
  0
ENDBLK
  5
6A4
330
698
100
AcDbEntity
  8
0
100
AcDbBlockEnd
  0
BLOCK
  5
6B0
330
6A5
100
AcDbEntity
  8
0
100
AcDbBlockBegin
  2
*D9
 70
     1
 10
0.0
 20
0.0
 30
0.0
  3
*D9
  1

  0
LINE
  5
13F3
330
6A5
100
AcDbEntity
  8
0
 62
     0
100
AcDbLine
 10
66.11290922908839
 20
64.60691698386196
 30
0.0
 11
66.11290922908839
 21
67.06032173270798
 31
0.0
  0
LINE
  5
13F4
330
6A5
100
AcDbEntity
  8
0
 62
     0
100
AcDbLine
 10
41.86094118108838
 20
64.60691698386196
 30
0.0
 11
41.86094118108838
 21
67.06032173270798
 31
0.0
  0
LINE
  5
13F5
330
6A5
100
AcDbEntity
  8
0
 62
     0
100
AcDbLine
 10
64.76290922908839
 20
66.36282173270797
 30
0.0
 11
54.89630020508838
 21
66.36282173270797
 31
0.0
  0
LINE
  5
13F6
330
6A5
100
AcDbEntity
  8
0
 62
     0
100
AcDbLine
 10
43.21094118108837
 20
66.36282173270797
 30
0.0
 11
53.07755020508839
 21
66.36282173270797
 31
0.0
  0
SOLID
  5
13F7
330
6A5
100
AcDbEntity
  8
0
 62
     0
100
AcDbTrace
 10
64.76290922908839
 20
66.58782173270797
 30
0.0
 11
64.76290922908839
 21
66.13782173270798
 31
0.0
 12
66.11290922908839
 22
66.36282173270797
 32
0.0
 13
66.11290922908839
 23
66.36282173270797
 33
0.0
  0
SOLID
  5
13F8
330
6A5
100
AcDbEntity
  8
0
 62
     0
100
AcDbTrace
 10
43.21094118108837
 20
66.58782173270797
 30
0.0
 11
43.21094118108837
 21
66.13782173270798
 31
0.0
 12
41.86094118108838
 22
66.36282173270797
 32
0.0
 13
41.86094118108838
 23
66.36282173270797
 33
0.0
  0
MTEXT
  5
13F9
330
6A5
100
AcDbEntity
  8
0
 62
     0
100
AcDbMText
 10
53.98692520508838
 20
66.36282173270797
 30
0.0
 40
0.9375
 41
0.0
 71
     5
 72
     1
  1
\A1;P
1001
ACAD
1000
MTEXTBEGIN
1070
    73
1070
     1
1070
    44
1040
1.0
1070
    74
1070
     0
1000
MTEXTEND
  0
POINT
  5
13FA
330
6A5
100
AcDbEntity
  8
DEFPOINTS
 62
     0
100
AcDbPoint
 10
66.11290922908839
 20
64.13441698386197
 30
0.0
  0
POINT
  5
13FB
330
6A5
100
AcDbEntity
  8
DEFPOINTS
 62
     0
100
AcDbPoint
 10
41.86094118108838
 20
64.13441698386197
 30
0.0
  0
POINT
  5
13FC
330
6A5
100
AcDbEntity
  8
DEFPOINTS
 62
     0
100
AcDbPoint
 10
41.86094118108838
 20
66.36282173270797
 30
0.0
  0
ENDBLK
  5
6B1
330
6A5
100
AcDbEntity
  8
0
100
AcDbBlockEnd
  0
BLOCK
  5
6BD
330
6B2
100
AcDbEntity
  8
0
100
AcDbBlockBegin
  2
*D10
 70
     1
 10
0.0
 20
0.0
 30
0.0
  3
*D10
  1

  0
LINE
  5
14BB
330
6B2
100
AcDbEntity
  8
0
 62
     0
100
AcDbLine
 10
74.9112267823356
 20
46.98776623785351
 30
0.0
 11
74.9112267823356
 21
49.77104556773535
 31
0.0
  0
LINE
  5
14BC
330
6B2
100
AcDbEntity
  8
0
 62
     0
100
AcDbLine
 10
73.92697483233556
 20
46.79091584785351
 30
0.0
 11
73.92697483233556
 21
49.77104556773535
 31
0.0
  0
LINE
  5
14BD
330
6B2
100
AcDbEntity
  8
0
 62
     0
100
AcDbLine
 10
76.2612267823356
 20
49.07354556773535
 30
0.0
 11
77.61122678233561
 21
49.07354556773535
 31
0.0
  0
LINE
  5
14BE
330
6B2
100
AcDbEntity
  8
0
 62
     0
100
AcDbLine
 10
72.57697483233556
 20
49.07354556773535
 30
0.0
 11
71.22697483233555
 21
49.07354556773535
 31
0.0
  0
SOLID
  5
14BF
330
6B2
100
AcDbEntity
  8
0
 62
     0
100
AcDbTrace
 10
76.2612267823356
 20
49.29854556773535
 30
0.0
 11
76.2612267823356
 21
48.84854556773535
 31
0.0
 12
74.9112267823356
 22
49.07354556773535
 32
0.0
 13
74.9112267823356
 23
49.07354556773535
 33
0.0
  0
SOLID
  5
14C0
330
6B2
100
AcDbEntity
  8
0
 62
     0
100
AcDbTrace
 10
72.57697483233556
 20
49.29854556773535
 30
0.0
 11
72.57697483233556
 21
48.84854556773535
 31
0.0
 12
73.92697483233556
 22
49.07354556773535
 32
0.0
 13
73.92697483233556
 23
49.07354556773535
 33
0.0
  0
MTEXT
  5
14C1
330
6B2
100
AcDbEntity
  8
0
 62
     0
100
AcDbMText
 10
70.31759983233555
 20
49.07354556773535
 30
0.0
 40
0.9375
 41
0.0
 71
     5
 72
     1
  1
\A1;J
1001
ACAD
1000
MTEXTBEGIN
1070
    73
1070
     1
1070
    44
1040
1.0
1070
    74
1070
     0
1000
MTEXTEND
  0
POINT
  5
14C2
330
6B2
100
AcDbEntity
  8
DEFPOINTS
 62
     0
100
AcDbPoint
 10
74.9112267823356
 20
46.51526623785352
 30
0.0
  0
POINT
  5
14C3
330
6B2
100
AcDbEntity
  8
DEFPOINTS
 62
     0
100
AcDbPoint
 10
73.92697483233556
 20
46.31841584785351
 30
0.0
  0
POINT
  5
14C4
330
6B2
100
AcDbEntity
  8
DEFPOINTS
 62
     0
100
AcDbPoint
 10
73.92697483233556
 20
49.07354556773535
 30
0.0
  0
ENDBLK
  5
6BE
330
6B2
100
AcDbEntity
  8
0
100
AcDbBlockEnd
  0
BLOCK
  5
6CA
330
6BF
100
AcDbEntity
  8
0
100
AcDbBlockBegin
  2
*D11
 70
     1
 10
0.0
 20
0.0
 30
0.0
  3
*D11
  1

  0
LINE
  5
146B
330
6BF
100
AcDbEntity
  8
0
 62
     0
100
AcDbLine
 10
73.65132522233557
 20
46.51526623785352
 30
0.0
 11
70.33746831527508
 21
46.51526623785352
 31
0.0
  0
LINE
  5
146C
330
6BF
100
AcDbEntity
  8
0
 62
     0
100
AcDbLine
 10
73.65132522233534
 20
15.34912509149339
 30
0.0
 11
70.33746831527508
 21
15.34912509149339
 31
0.0
  0
LINE
  5
146D
330
6BF
100
AcDbEntity
  8
0
 62
     0
100
AcDbLine
 10
71.03496831527509
 20
45.16526623785352
 30
0.0
 11
71.03496831527509
 21
32.07594566467345
 31
0.0
  0
LINE
  5
146E
330
6BF
100
AcDbEntity
  8
0
 62
     0
100
AcDbLine
 10
71.03496831527507
 20
16.69912509149339
 30
0.0
 11
71.03496831527507
 21
29.78844566467346
 31
0.0
  0
SOLID
  5
146F
330
6BF
100
AcDbEntity
  8
0
 62
     0
100
AcDbTrace
 10
70.8099683152751
 20
45.16526623785352
 30
0.0
 11
71.25996831527508
 21
45.16526623785352
 31
0.0
 12
71.03496831527509
 22
46.51526623785352
 32
0.0
 13
71.03496831527509
 23
46.51526623785352
 33
0.0
  0
SOLID
  5
1470
330
6BF
100
AcDbEntity
  8
0
 62
     0
100
AcDbTrace
 10
70.80996831527508
 20
16.69912509149339
 30
0.0
 11
71.25996831527507
 21
16.69912509149339
 31
0.0
 12
71.03496831527507
 22
15.34912509149339
 32
0.0
 13
71.03496831527507
 23
15.34912509149339
 33
0.0
  0
MTEXT
  5
1471
330
6BF
100
AcDbEntity
  8
0
 62
     0
100
AcDbMText
 10
71.03496831527507
 20
30.93219566467347
 30
0.0
 40
0.9375
 41
0.0
 71
     5
 72
     1
  1
\A1;L
1001
ACAD
1000
MTEXTBEGIN
1070
    73
1070
     1
1070
    44
1040
1.0
1070
    74
1070
     0
1000
MTEXTEND
  0
POINT
  5
1472
330
6BF
100
AcDbEntity
  8
DEFPOINTS
 62
     0
100
AcDbPoint
 10
74.12382522233556
 20
46.51526623785352
 30
0.0
  0
POINT
  5
1473
330
6BF
100
AcDbEntity
  8
DEFPOINTS
 62
     0
100
AcDbPoint
 10
74.12382522233534
 20
15.34912509149339
 30
0.0
  0
POINT
  5
1474
330
6BF
100
AcDbEntity
  8
DEFPOINTS
 62
     0
100
AcDbPoint
 10
71.03496831527507
 20
15.34912509149339
 30
0.0
  0
ENDBLK
  5
6CB
330
6BF
100
AcDbEntity
  8
0
100
AcDbBlockEnd
  0
BLOCK
  5
6D7
330
6CC
100
AcDbEntity
  8
0
100
AcDbBlockBegin
  2
*D12
 70
     1
 10
0.0
 20
0.0
 30
0.0
  3
*D12
  1

  0
LINE
  5
1461
330
6CC
100
AcDbEntity
  8
0
 62
     0
100
AcDbLine
 10
85.3276244423354
 20
46.99518748867362
 30
0.0
 11
88.97931228306124
 21
46.99518748867362
 31
0.0
  0
LINE
  5
1462
330
6CC
100
AcDbEntity
  8
0
 62
     0
100
AcDbLine
 10
85.3276244423354
 20
14.8692038406733
 30
0.0
 11
88.97931228306122
 21
14.8692038406733
 31
0.0
  0
LINE
  5
1463
330
6CC
100
AcDbEntity
  8
0
 62
     0
100
AcDbLine
 10
88.28181228306123
 20
45.64518748867362
 30
0.0
 11
88.28181228306123
 21
32.07594566467346
 31
0.0
  0
LINE
  5
1464
330
6CC
100
AcDbEntity
  8
0
 62
     0
100
AcDbLine
 10
88.28181228306121
 20
16.2192038406733
 30
0.0
 11
88.28181228306121
 21
29.78844566467346
 31
0.0
  0
SOLID
  5
1465
330
6CC
100
AcDbEntity
  8
0
 62
     0
100
AcDbTrace
 10
88.05681228306124
 20
45.64518748867362
 30
0.0
 11
88.50681228306122
 21
45.64518748867362
 31
0.0
 12
88.28181228306123
 22
46.99518748867362
 32
0.0
 13
88.28181228306123
 23
46.99518748867362
 33
0.0
  0
SOLID
  5
1466
330
6CC
100
AcDbEntity
  8
0
 62
     0
100
AcDbTrace
 10
88.05681228306122
 20
16.2192038406733
 30
0.0
 11
88.5068122830612
 21
16.2192038406733
 31
0.0
 12
88.28181228306121
 22
14.8692038406733
 32
0.0
 13
88.28181228306121
 23
14.8692038406733
 33
0.0
  0
MTEXT
  5
1467
330
6CC
100
AcDbEntity
  8
0
 62
     0
100
AcDbMText
 10
88.28181228306121
 20
30.93219566467348
 30
0.0
 40
0.9375
 41
0.0
 71
     5
 72
     1
  1
\A1;M
1001
ACAD
1000
MTEXTBEGIN
1070
    73
1070
     1
1070
    44
1040
1.0
1070
    74
1070
     0
1000
MTEXTEND
  0
POINT
  5
1468
330
6CC
100
AcDbEntity
  8
DEFPOINTS
 62
     0
100
AcDbPoint
 10
84.8551244423354
 20
46.99518748867362
 30
0.0
  0
POINT
  5
1469
330
6CC
100
AcDbEntity
  8
DEFPOINTS
 62
     0
100
AcDbPoint
 10
84.8551244423354
 20
14.8692038406733
 30
0.0
  0
POINT
  5
146A
330
6CC
100
AcDbEntity
  8
DEFPOINTS
 62
     0
100
AcDbPoint
 10
88.28181228306121
 20
14.8692038406733
 30
0.0
  0
ENDBLK
  5
6D8
330
6CC
100
AcDbEntity
  8
0
100
AcDbBlockEnd
  0
BLOCK
  5
6E4
330
6D9
100
AcDbEntity
  8
0
100
AcDbBlockBegin
  2
*D13
 70
     1
 10
0.0
 20
0.0
 30
0.0
  3
*D13
  1

  0
LINE
  5
14B1
330
6D9
100
AcDbEntity
  8
0
 62
     0
100
AcDbLine
 10
73.92697483233556
 20
46.79091584785351
 30
0.0
 11
73.92697483233556
 21
51.64604556773535
 31
0.0
  0
LINE
  5
14B2
330
6D9
100
AcDbEntity
  8
0
 62
     0
100
AcDbLine
 10
85.05197483233542
 20
47.2708370986736
 30
0.0
 11
85.05197483233542
 21
51.64604556773535
 31
0.0
  0
LINE
  5
14B3
330
6D9
100
AcDbEntity
  8
0
 62
     0
100
AcDbLine
 10
75.27697483233556
 20
50.94854556773535
 30
0.0
 11
78.58009983233549
 21
50.94854556773535
 31
0.0
  0
LINE
  5
14B4
330
6D9
100
AcDbEntity
  8
0
 62
     0
100
AcDbLine
 10
83.70197483233543
 20
50.94854556773535
 30
0.0
 11
80.39884983233548
 21
50.94854556773535
 31
0.0
  0
SOLID
  5
14B5
330
6D9
100
AcDbEntity
  8
0
 62
     0
100
AcDbTrace
 10
75.27697483233556
 20
51.17354556773535
 30
0.0
 11
75.27697483233556
 21
50.72354556773535
 31
0.0
 12
73.92697483233556
 22
50.94854556773535
 32
0.0
 13
73.92697483233556
 23
50.94854556773535
 33
0.0
  0
SOLID
  5
14B6
330
6D9
100
AcDbEntity
  8
0
 62
     0
100
AcDbTrace
 10
83.70197483233543
 20
51.17354556773535
 30
0.0
 11
83.70197483233543
 21
50.72354556773535
 31
0.0
 12
85.05197483233542
 22
50.94854556773535
 32
0.0
 13
85.05197483233542
 23
50.94854556773535
 33
0.0
  0
MTEXT
  5
14B7
330
6D9
100
AcDbEntity
  8
0
 62
     0
100
AcDbMText
 10
79.48947483233549
 20
50.94854556773535
 30
0.0
 40
0.9375
 41
0.0
 71
     5
 72
     1
  1
\A1;K
1001
ACAD
1000
MTEXTBEGIN
1070
    73
1070
     1
1070
    44
1040
1.0
1070
    74
1070
     0
1000
MTEXTEND
  0
POINT
  5
14B8
330
6D9
100
AcDbEntity
  8
DEFPOINTS
 62
     0
100
AcDbPoint
 10
73.92697483233556
 20
46.31841584785351
 30
0.0
  0
POINT
  5
14B9
330
6D9
100
AcDbEntity
  8
DEFPOINTS
 62
     0
100
AcDbPoint
 10
85.05197483233542
 20
46.79833709867361
 30
0.0
  0
POINT
  5
14BA
330
6D9
100
AcDbEntity
  8
DEFPOINTS
 62
     0
100
AcDbPoint
 10
85.05197483233542
 20
50.94854556773535
 30
0.0
  0
ENDBLK
  5
6E5
330
6D9
100
AcDbEntity
  8
0
100
AcDbBlockEnd
  0
BLOCK
  5
6F1
330
6E6
100
AcDbEntity
  8
0
100
AcDbBlockBegin
  2
*D14
 70
     1
 10
0.0
 20
0.0
 30
0.0
  3
*D14
  1

  0
LINE
  5
1493
330
6E6
100
AcDbEntity
  8
0
 62
     0
100
AcDbLine
 10
84.8551244423354
 20
24.5288977582648
 30
0.0
 11
84.8551244423354
 21
23.77110054724258
 31
0.0
  0
LINE
  5
1494
330
6E6
100
AcDbEntity
  8
0
 62
     0
100
AcDbLine
 10
84.46142366233539
 20
25.10743293609838
 30
0.0
 11
84.46142366233539
 21
23.77110054724258
 31
0.0
  0
LINE
  5
1495
330
6E6
100
AcDbEntity
  8
0
 62
     0
100
AcDbLine
 10
86.2051244423354
 20
24.46860054724258
 30
0.0
 11
87.55512444233541
 21
24.46860054724258
 31
0.0
  0
LINE
  5
1496
330
6E6
100
AcDbEntity
  8
0
 62
     0
100
AcDbLine
 10
83.11142366233539
 20
24.46860054724258
 30
0.0
 11
81.76142366233539
 21
24.46860054724258
 31
0.0
  0
SOLID
  5
1497
330
6E6
100
AcDbEntity
  8
0
 62
     0
100
AcDbTrace
 10
86.2051244423354
 20
24.69360054724258
 30
0.0
 11
86.2051244423354
 21
24.24360054724258
 31
0.0
 12
84.8551244423354
 22
24.46860054724258
 32
0.0
 13
84.8551244423354
 23
24.46860054724258
 33
0.0
  0
SOLID
  5
1498
330
6E6
100
AcDbEntity
  8
0
 62
     0
100
AcDbTrace
 10
83.11142366233539
 20
24.69360054724258
 30
0.0
 11
83.11142366233539
 21
24.24360054724258
 31
0.0
 12
84.46142366233539
 22
24.46860054724258
 32
0.0
 13
84.46142366233539
 23
24.46860054724258
 33
0.0
  0
MTEXT
  5
1499
330
6E6
100
AcDbEntity
  8
0
 62
     0
100
AcDbMText
 10
79.73876741233539
 20
24.46860054724258
 30
0.0
 40
0.9375
 41
0.0
 71
     5
 72
     1
  1
\A1;0.394
1001
ACAD
1000
MTEXTBEGIN
1070
    73
1070
     1
1070
    44
1040
1.0
1070
    74
1070
     0
1000
MTEXTEND
  0
POINT
  5
149A
330
6E6
100
AcDbEntity
  8
DEFPOINTS
 62
     0
100
AcDbPoint
 10
84.8551244423354
 20
25.0013977582648
 30
0.0
  0
POINT
  5
149B
330
6E6
100
AcDbEntity
  8
DEFPOINTS
 62
     0
100
AcDbPoint
 10
84.46142366233539
 20
25.57993293609838
 30
0.0
  0
POINT
  5
149C
330
6E6
100
AcDbEntity
  8
DEFPOINTS
 62
     0
100
AcDbPoint
 10
84.46142366233539
 20
24.46860054724258
 30
0.0
  0
ENDBLK
  5
6F2
330
6E6
100
AcDbEntity
  8
0
100
AcDbBlockEnd
  0
BLOCK
  5
6FE
330
6F3
100
AcDbEntity
  8
0
100
AcDbBlockBegin
  2
*D15
 70
     1
 10
0.0
 20
0.0
 30
0.0
  3
*D15
  1

  0
LINE
  5
1489
330
6F3
100
AcDbEntity
  8
0
 62
     0
100
AcDbLine
 10
85.05197483233542
 20
29.99939978730011
 30
0.0
 11
85.05197483233542
 21
30.64588821346422
 31
0.0
  0
LINE
  5
148A
330
6F3
100
AcDbEntity
  8
0
 62
     0
100
AcDbLine
 10
84.85512444233535
 20
29.99939978730011
 30
0.0
 11
84.85512444233535
 21
30.64588821346422
 31
0.0
  0
LINE
  5
148B
330
6F3
100
AcDbEntity
  8
0
 62
     0
100
AcDbLine
 10
86.4019748323354
 20
29.94838821346423
 30
0.0
 11
87.75197483233542
 21
29.94838821346423
 31
0.0
  0
LINE
  5
148C
330
6F3
100
AcDbEntity
  8
0
 62
     0
100
AcDbLine
 10
83.50512444233535
 20
29.94838821346423
 30
0.0
 11
82.15512444233535
 21
29.94838821346423
 31
0.0
  0
SOLID
  5
148D
330
6F3
100
AcDbEntity
  8
0
 62
     0
100
AcDbTrace
 10
86.4019748323354
 20
30.17338821346422
 30
0.0
 11
86.4019748323354
 21
29.72338821346422
 31
0.0
 12
85.05197483233542
 22
29.94838821346423
 32
0.0
 13
85.05197483233542
 23
29.94838821346423
 33
0.0
  0
SOLID
  5
148E
330
6F3
100
AcDbEntity
  8
0
 62
     0
100
AcDbTrace
 10
83.50512444233535
 20
30.17338821346422
 30
0.0
 11
83.50512444233535
 21
29.72338821346422
 31
0.0
 12
84.85512444233535
 22
29.94838821346423
 32
0.0
 13
84.85512444233535
 23
29.94838821346423
 33
0.0
  0
MTEXT
  5
148F
330
6F3
100
AcDbEntity
  8
0
 62
     0
100
AcDbMText
 10
80.24965569233534
 20
29.94838821346423
 30
0.0
 40
0.9375
 41
0.0
 71
     5
 72
     1
  1
\A1;0.200
1001
ACAD
1000
MTEXTBEGIN
1070
    73
1070
     1
1070
    44
1040
1.0
1070
    74
1070
     0
1000
MTEXTEND
  0
POINT
  5
1490
330
6F3
100
AcDbEntity
  8
DEFPOINTS
 62
     0
100
AcDbPoint
 10
85.05197483233542
 20
29.52689978730011
 30
0.0
  0
POINT
  5
1491
330
6F3
100
AcDbEntity
  8
DEFPOINTS
 62
     0
100
AcDbPoint
 10
84.85512444233535
 20
29.52689978730011
 30
0.0
  0
POINT
  5
1492
330
6F3
100
AcDbEntity
  8
DEFPOINTS
 62
     0
100
AcDbPoint
 10
84.85512444233535
 20
29.94838821346423
 30
0.0
  0
ENDBLK
  5
6FF
330
6F3
100
AcDbEntity
  8
0
100
AcDbBlockEnd
  0
BLOCK
  5
70B
330
700
100
AcDbEntity
  8
0
100
AcDbBlockBegin
  2
*D16
 70
     1
 10
0.0
 20
0.0
 30
0.0
  3
*D16
  1

  0
LINE
  5
14A7
330
700
100
AcDbEntity
  8
0
 62
     0
100
AcDbLine
 10
117.9220456257979
 20
25.84469566467348
 30
0.0
 11
121.6569235680288
 21
25.84469566467348
 31
0.0
  0
LINE
  5
14A8
330
700
100
AcDbEntity
  8
0
 62
     0
100
AcDbLine
 10
117.9220456257979
 20
36.01969566467346
 30
0.0
 11
121.6569235680288
 21
36.01969566467346
 31
0.0
  0
LINE
  5
14A9
330
700
100
AcDbEntity
  8
0
 62
     0
100
AcDbLine
 10
120.9594235680288
 20
27.19469566467347
 30
0.0
 11
120.9594235680288
 21
29.78844566467347
 31
0.0
  0
LINE
  5
14AA
330
700
100
AcDbEntity
  8
0
 62
     0
100
AcDbLine
 10
120.9594235680288
 20
34.66969566467346
 30
0.0
 11
120.9594235680288
 21
32.07594566467347
 31
0.0
  0
SOLID
  5
14AB
330
700
100
AcDbEntity
  8
0
 62
     0
100
AcDbTrace
 10
120.7344235680288
 20
27.19469566467347
 30
0.0
 11
121.1844235680288
 21
27.19469566467347
 31
0.0
 12
120.9594235680288
 22
25.84469566467348
 32
0.0
 13
120.9594235680288
 23
25.84469566467348
 33
0.0
  0
SOLID
  5
14AC
330
700
100
AcDbEntity
  8
0
 62
     0
100
AcDbTrace
 10
120.7344235680288
 20
34.66969566467346
 30
0.0
 11
121.1844235680288
 21
34.66969566467346
 31
0.0
 12
120.9594235680288
 22
36.01969566467346
 32
0.0
 13
120.9594235680288
 23
36.01969566467346
 33
0.0
  0
MTEXT
  5
14AD
330
700
100
AcDbEntity
  8
0
 62
     0
100
AcDbMText
 10
120.9594235680288
 20
30.93219566467349
 30
0.0
 40
0.9375
 41
0.0
 71
     5
 72
     1
  1
\A1;U
1001
ACAD
1000
MTEXTBEGIN
1070
    73
1070
     1
1070
    44
1040
1.0
1070
    74
1070
     0
1000
MTEXTEND
  0
POINT
  5
14AE
330
700
100
AcDbEntity
  8
DEFPOINTS
 62
     0
100
AcDbPoint
 10
117.449545625798
 20
25.84469566467348
 30
0.0
  0
POINT
  5
14AF
330
700
100
AcDbEntity
  8
DEFPOINTS
 62
     0
100
AcDbPoint
 10
117.449545625798
 20
36.01969566467346
 30
0.0
  0
POINT
  5
14B0
330
700
100
AcDbEntity
  8
DEFPOINTS
 62
     0
100
AcDbPoint
 10
120.9594235680288
 20
36.01969566467346
 30
0.0
  0
ENDBLK
  5
70C
330
700
100
AcDbEntity
  8
0
100
AcDbBlockEnd
  0
BLOCK
  5
718
330
70D
100
AcDbEntity
  8
0
100
AcDbBlockBegin
  2
*D17
 70
     1
 10
0.0
 20
0.0
 30
0.0
  3
*D17
  1

  0
LINE
  5
1457
330
70D
100
AcDbEntity
  8
0
 62
     0
100
AcDbLine
 10
117.9220456257979
 20
15.87019566467347
 30
0.0
 11
124.1927909531034
 21
15.87019566467347
 31
0.0
  0
LINE
  5
1458
330
70D
100
AcDbEntity
  8
0
 62
     0
100
AcDbLine
 10
117.9220456257979
 20
45.99419566467346
 30
0.0
 11
124.1927909531034
 21
45.99419566467346
 31
0.0
  0
LINE
  5
1459
330
70D
100
AcDbEntity
  8
0
 62
     0
100
AcDbLine
 10
123.4952909531034
 20
17.22019566467347
 30
0.0
 11
123.4952909531034
 21
29.78844566467347
 31
0.0
  0
LINE
  5
145A
330
70D
100
AcDbEntity
  8
0
 62
     0
100
AcDbLine
 10
123.4952909531034
 20
44.64419566467347
 30
0.0
 11
123.4952909531034
 21
32.07594566467347
 31
0.0
  0
SOLID
  5
145B
330
70D
100
AcDbEntity
  8
0
 62
     0
100
AcDbTrace
 10
123.2702909531034
 20
17.22019566467347
 30
0.0
 11
123.7202909531034
 21
17.22019566467347
 31
0.0
 12
123.4952909531034
 22
15.87019566467347
 32
0.0
 13
123.4952909531034
 23
15.87019566467347
 33
0.0
  0
SOLID
  5
145C
330
70D
100
AcDbEntity
  8
0
 62
     0
100
AcDbTrace
 10
123.2702909531034
 20
44.64419566467347
 30
0.0
 11
123.7202909531034
 21
44.64419566467347
 31
0.0
 12
123.4952909531034
 22
45.99419566467346
 32
0.0
 13
123.4952909531034
 23
45.99419566467346
 33
0.0
  0
MTEXT
  5
145D
330
70D
100
AcDbEntity
  8
0
 62
     0
100
AcDbMText
 10
123.4952909531034
 20
30.93219566467349
 30
0.0
 40
0.9375
 41
0.0
 71
     5
 72
     1
  1
\A1;T
1001
ACAD
1000
MTEXTBEGIN
1070
    73
1070
     1
1070
    44
1040
1.0
1070
    74
1070
     0
1000
MTEXTEND
  0
POINT
  5
145E
330
70D
100
AcDbEntity
  8
DEFPOINTS
 62
     0
100
AcDbPoint
 10
117.449545625798
 20
15.87019566467347
 30
0.0
  0
POINT
  5
145F
330
70D
100
AcDbEntity
  8
DEFPOINTS
 62
     0
100
AcDbPoint
 10
117.449545625798
 20
45.99419566467346
 30
0.0
  0
POINT
  5
1460
330
70D
100
AcDbEntity
  8
DEFPOINTS
 62
     0
100
AcDbPoint
 10
123.4952909531034
 20
45.99419566467346
 30
0.0
  0
ENDBLK
  5
719
330
70D
100
AcDbEntity
  8
0
100
AcDbBlockEnd
  0
BLOCK
  5
725
330
71A
100
AcDbEntity
  8
0
100
AcDbBlockBegin
  2
*D18
 70
     1
 10
0.0
 20
0.0
 30
0.0
  3
*D18
  1

  0
LINE
  5
1475
330
71A
100
AcDbEntity
  8
0
 62
     0
100
AcDbLine
 10
117.449545625798
 20
15.39769566467347
 30
0.0
 11
117.449545625798
 21
10.25375580593452
 31
0.0
  0
LINE
  5
1476
330
71A
100
AcDbEntity
  8
0
 62
     0
100
AcDbLine
 10
95.24754562579799
 20
15.39769566467347
 30
0.0
 11
95.24754562579799
 21
10.25375580593452
 31
0.0
  0
LINE
  5
1477
330
71A
100
AcDbEntity
  8
0
 62
     0
100
AcDbLine
 10
116.099545625798
 20
10.95125580593452
 30
0.0
 11
107.257920625798
 21
10.95125580593452
 31
0.0
  0
LINE
  5
1478
330
71A
100
AcDbEntity
  8
0
 62
     0
100
AcDbLine
 10
96.59754562579799
 20
10.95125580593452
 30
0.0
 11
105.439170625798
 21
10.95125580593452
 31
0.0
  0
SOLID
  5
1479
330
71A
100
AcDbEntity
  8
0
 62
     0
100
AcDbTrace
 10
116.099545625798
 20
11.17625580593452
 30
0.0
 11
116.099545625798
 21
10.72625580593452
 31
0.0
 12
117.449545625798
 22
10.95125580593452
 32
0.0
 13
117.449545625798
 23
10.95125580593452
 33
0.0
  0
SOLID
  5
147A
330
71A
100
AcDbEntity
  8
0
 62
     0
100
AcDbTrace
 10
96.59754562579799
 20
11.17625580593452
 30
0.0
 11
96.59754562579799
 21
10.72625580593452
 31
0.0
 12
95.24754562579799
 22
10.95125580593452
 32
0.0
 13
95.24754562579799
 23
10.95125580593452
 33
0.0
  0
MTEXT
  5
147B
330
71A
100
AcDbEntity
  8
0
 62
     0
100
AcDbMText
 10
106.348545625798
 20
10.95125580593452
 30
0.0
 40
0.9375
 41
0.0
 71
     5
 72
     1
  1
\A1;R
1001
ACAD
1000
MTEXTBEGIN
1070
    73
1070
     1
1070
    44
1040
1.0
1070
    74
1070
     0
1000
MTEXTEND
  0
POINT
  5
147C
330
71A
100
AcDbEntity
  8
DEFPOINTS
 62
     0
100
AcDbPoint
 10
117.449545625798
 20
15.87019566467347
 30
0.0
  0
POINT
  5
147D
330
71A
100
AcDbEntity
  8
DEFPOINTS
 62
     0
100
AcDbPoint
 10
95.24754562579799
 20
15.87019566467347
 30
0.0
  0
POINT
  5
147E
330
71A
100
AcDbEntity
  8
DEFPOINTS
 62
     0
100
AcDbPoint
 10
95.24754562579799
 20
10.95125580593452
 30
0.0
  0
ENDBLK
  5
726
330
71A
100
AcDbEntity
  8
0
100
AcDbBlockEnd
  0
BLOCK
  5
732
330
727
100
AcDbEntity
  8
0
100
AcDbBlockBegin
  2
*D19
 70
     1
 10
0.0
 20
0.0
 30
0.0
  3
*D19
  1

  0
LINE
  5
1443
330
727
100
AcDbEntity
  8
0
 62
     0
100
AcDbLine
 10
29.23772301521406
 20
28.96369176467361
 30
0.0
 11
33.62075050925187
 21
28.96369176467361
 31
0.0
  0
LINE
  5
1444
330
727
100
AcDbEntity
  8
0
 62
     0
100
AcDbLine
 10
29.23772301521406
 20
32.90069956467355
 30
0.0
 11
33.62075050925187
 21
32.90069956467355
 31
0.0
  0
LINE
  5
1445
330
727
100
AcDbEntity
  8
0
 62
     0
100
AcDbLine
 10
32.92325050925187
 20
27.61369176467361
 30
0.0
 11
32.92325050925187
 21
26.26369176467361
 31
0.0
  0
LINE
  5
1446
330
727
100
AcDbEntity
  8
0
 62
     0
100
AcDbLine
 10
32.92325050925187
 20
34.25069956467356
 30
0.0
 11
32.92325050925187
 21
35.60069956467356
 31
0.0
  0
SOLID
  5
1447
330
727
100
AcDbEntity
  8
0
 62
     0
100
AcDbTrace
 10
32.69825050925187
 20
27.61369176467361
 30
0.0
 11
33.14825050925187
 21
27.61369176467361
 31
0.0
 12
32.92325050925187
 22
28.96369176467361
 32
0.0
 13
32.92325050925187
 23
28.96369176467361
 33
0.0
  0
SOLID
  5
1448
330
727
100
AcDbEntity
  8
0
 62
     0
100
AcDbTrace
 10
32.69825050925187
 20
34.25069956467356
 30
0.0
 11
33.14825050925187
 21
34.25069956467356
 31
0.0
 12
32.92325050925187
 22
32.90069956467355
 32
0.0
 13
32.92325050925187
 23
32.90069956467355
 33
0.0
  0
MTEXT
  5
1449
330
727
100
AcDbEntity
  8
0
 62
     0
100
AcDbMText
 10
32.92325050925186
 20
30.93219566467359
 30
0.0
 40
0.9375
 41
0.0
 71
     5
 72
     1
  1
\A1;H
1001
ACAD
1000
MTEXTBEGIN
1070
    73
1070
     1
1070
    44
1040
1.0
1070
    74
1070
     0
1000
MTEXTEND
  0
POINT
  5
144A
330
727
100
AcDbEntity
  8
DEFPOINTS
 62
     0
100
AcDbPoint
 10
28.76522301521406
 20
28.96369176467361
 30
0.0
  0
POINT
  5
144B
330
727
100
AcDbEntity
  8
DEFPOINTS
 62
     0
100
AcDbPoint
 10
28.76522301521406
 20
32.90069956467355
 30
0.0
  0
POINT
  5
144C
330
727
100
AcDbEntity
  8
DEFPOINTS
 62
     0
100
AcDbPoint
 10
32.92325050925187
 20
32.90069956467355
 30
0.0
  0
ENDBLK
  5
733
330
727
100
AcDbEntity
  8
0
100
AcDbBlockEnd
  0
BLOCK
  5
73F
330
734
100
AcDbEntity
  8
0
100
AcDbBlockBegin
  2
*D20
 70
     1
 10
0.0
 20
0.0
 30
0.0
  3
*D20
  1

  0
LINE
  5
1439
330
734
100
AcDbEntity
  8
0
 62
     0
100
AcDbLine
 10
20.79278222021409
 20
16.58174316967364
 30
0.0
 11
20.79278222021409
 21
12.60134663606472
 31
0.0
  0
LINE
  5
143A
330
734
100
AcDbEntity
  8
0
 62
     0
100
AcDbLine
 10
16.85577442021408
 20
16.58174316967364
 30
0.0
 11
16.85577442021408
 21
12.60134663606472
 31
0.0
  0
LINE
  5
143B
330
734
100
AcDbEntity
  8
0
 62
     0
100
AcDbLine
 10
22.14278222021409
 20
13.29884663606472
 30
0.0
 11
23.49278222021408
 21
13.29884663606472
 31
0.0
  0
LINE
  5
143C
330
734
100
AcDbEntity
  8
0
 62
     0
100
AcDbLine
 10
15.50577442021408
 20
13.29884663606472
 30
0.0
 11
14.15577442021408
 21
13.29884663606472
 31
0.0
  0
SOLID
  5
143D
330
734
100
AcDbEntity
  8
0
 62
     0
100
AcDbTrace
 10
22.14278222021409
 20
13.52384663606472
 30
0.0
 11
22.14278222021409
 21
13.07384663606472
 31
0.0
 12
20.79278222021409
 22
13.29884663606472
 32
0.0
 13
20.79278222021409
 23
13.29884663606472
 33
0.0
  0
SOLID
  5
143E
330
734
100
AcDbEntity
  8
0
 62
     0
100
AcDbTrace
 10
15.50577442021408
 20
13.52384663606472
 30
0.0
 11
15.50577442021408
 21
13.07384663606472
 31
0.0
 12
16.85577442021408
 22
13.29884663606472
 32
0.0
 13
16.85577442021408
 23
13.29884663606472
 33
0.0
  0
MTEXT
  5
143F
330
734
100
AcDbEntity
  8
0
 62
     0
100
AcDbMText
 10
18.82427832021408
 20
13.29884663606472
 30
0.0
 40
0.9375
 41
0.0
 71
     5
 72
     1
  1
\A1;E
1001
ACAD
1000
MTEXTBEGIN
1070
    73
1070
     1
1070
    44
1040
1.0
1070
    74
1070
     0
1000
MTEXTEND
  0
POINT
  5
1440
330
734
100
AcDbEntity
  8
DEFPOINTS
 62
     0
100
AcDbPoint
 10
20.79278222021409
 20
17.05424316967364
 30
0.0
  0
POINT
  5
1441
330
734
100
AcDbEntity
  8
DEFPOINTS
 62
     0
100
AcDbPoint
 10
16.85577442021408
 20
17.05424316967364
 30
0.0
  0
POINT
  5
1442
330
734
100
AcDbEntity
  8
DEFPOINTS
 62
     0
100
AcDbPoint
 10
16.85577442021408
 20
13.29884663606472
 30
0.0
  0
ENDBLK
  5
740
330
734
100
AcDbEntity
  8
0
100
AcDbBlockEnd
  0
BLOCK
  5
74C
330
741
100
AcDbEntity
  8
0
100
AcDbBlockBegin
  2
*D21
 70
     1
 10
0.0
 20
0.0
 30
0.0
  3
*D21
  1

  0
LINE
  5
147F
330
741
100
AcDbEntity
  8
0
 62
     0
100
AcDbLine
 10
109.2235456257979
 20
15.39769566467347
 30
0.0
 11
109.2235456257979
 21
12.12875580593452
 31
0.0
  0
LINE
  5
1480
330
741
100
AcDbEntity
  8
0
 62
     0
100
AcDbLine
 10
103.473545625798
 20
15.39769566467347
 30
0.0
 11
103.473545625798
 21
12.12875580593452
 31
0.0
  0
LINE
  5
1481
330
741
100
AcDbEntity
  8
0
 62
     0
100
AcDbLine
 10
107.873545625798
 20
12.82625580593452
 30
0.0
 11
107.2579206257979
 21
12.82625580593452
 31
0.0
  0
LINE
  5
1482
330
741
100
AcDbEntity
  8
0
 62
     0
100
AcDbLine
 10
104.8235456257979
 20
12.82625580593452
 30
0.0
 11
105.4391706257979
 21
12.82625580593452
 31
0.0
  0
SOLID
  5
1483
330
741
100
AcDbEntity
  8
0
 62
     0
100
AcDbTrace
 10
107.873545625798
 20
13.05125580593452
 30
0.0
 11
107.873545625798
 21
12.60125580593452
 31
0.0
 12
109.2235456257979
 22
12.82625580593452
 32
0.0
 13
109.2235456257979
 23
12.82625580593452
 33
0.0
  0
SOLID
  5
1484
330
741
100
AcDbEntity
  8
0
 62
     0
100
AcDbTrace
 10
104.8235456257979
 20
13.05125580593452
 30
0.0
 11
104.8235456257979
 21
12.60125580593452
 31
0.0
 12
103.473545625798
 22
12.82625580593452
 32
0.0
 13
103.473545625798
 23
12.82625580593452
 33
0.0
  0
MTEXT
  5
1485
330
741
100
AcDbEntity
  8
0
 62
     0
100
AcDbMText
 10
106.3485456257979
 20
12.82625580593452
 30
0.0
 40
0.9375
 41
0.0
 71
     5
 72
     1
  1
\A1;S
1001
ACAD
1000
MTEXTBEGIN
1070
    73
1070
     1
1070
    44
1040
1.0
1070
    74
1070
     0
1000
MTEXTEND
  0
POINT
  5
1486
330
741
100
AcDbEntity
  8
DEFPOINTS
 62
     0
100
AcDbPoint
 10
109.2235456257979
 20
15.87019566467347
 30
0.0
  0
POINT
  5
1487
330
741
100
AcDbEntity
  8
DEFPOINTS
 62
     0
100
AcDbPoint
 10
103.473545625798
 20
15.87019566467347
 30
0.0
  0
POINT
  5
1488
330
741
100
AcDbEntity
  8
DEFPOINTS
 62
     0
100
AcDbPoint
 10
103.473545625798
 20
12.82625580593452
 30
0.0
  0
ENDBLK
  5
74D
330
741
100
AcDbEntity
  8
0
100
AcDbBlockEnd
  0
BLOCK
  5
892
330
887
100
AcDbEntity
  8
0
100
AcDbBlockBegin
  2
*D23
 70
     1
 10
0.0
 20
0.0
 30
0.0
  3
*D23
  1

  0
LINE
  5
149D
330
887
100
AcDbEntity
  8
0
 62
     0
100
AcDbLine
 10
84.46142366233539
 20
25.10743293609838
 30
0.0
 11
84.46142366233539
 21
18.43389898394533
 31
0.0
  0
LINE
  5
149E
330
887
100
AcDbEntity
  8
0
 62
     0
100
AcDbLine
 10
75.54555374233537
 20
20.20230175555007
 30
0.0
 11
75.54555374233537
 21
18.43389898394533
 31
0.0
  0
LINE
  5
149F
330
887
100
AcDbEntity
  8
0
 62
     0
100
AcDbLine
 10
83.11142366233539
 20
19.13139898394533
 30
0.0
 11
81.96755120233538
 21
19.13139898394533
 31
0.0
  0
LINE
  5
14A0
330
887
100
AcDbEntity
  8
0
 62
     0
100
AcDbLine
 10
76.89555374233536
 20
19.13139898394533
 30
0.0
 11
78.03942620233538
 21
19.13139898394533
 31
0.0
  0
SOLID
  5
14A1
330
887
100
AcDbEntity
  8
0
 62
     0
100
AcDbTrace
 10
83.11142366233539
 20
19.35639898394533
 30
0.0
 11
83.11142366233539
 21
18.90639898394533
 31
0.0
 12
84.46142366233539
 22
19.13139898394533
 32
0.0
 13
84.46142366233539
 23
19.13139898394533
 33
0.0
  0
SOLID
  5
14A2
330
887
100
AcDbEntity
  8
0
 62
     0
100
AcDbTrace
 10
76.89555374233536
 20
19.35639898394533
 30
0.0
 11
76.89555374233536
 21
18.90639898394533
 31
0.0
 12
75.54555374233537
 22
19.13139898394533
 32
0.0
 13
75.54555374233537
 23
19.13139898394533
 33
0.0
  0
MTEXT
  5
14A3
330
887
100
AcDbEntity
  8
0
 62
     0
100
AcDbMText
 10
80.00348870233537
 20
19.13139898394533
 30
0.0
 40
0.9375
 41
0.0
 71
     5
 72
     1
  1
\A1;8.916
1001
ACAD
1000
MTEXTBEGIN
1070
    73
1070
     1
1070
    44
1040
1.0
1070
    74
1070
     0
1000
MTEXTEND
  0
POINT
  5
14A4
330
887
100
AcDbEntity
  8
DEFPOINTS
 62
     0
100
AcDbPoint
 10
84.46142366233539
 20
25.57993293609838
 30
0.0
  0
POINT
  5
14A5
330
887
100
AcDbEntity
  8
DEFPOINTS
 62
     0
100
AcDbPoint
 10
75.54555374233537
 20
20.67480175555007
 30
0.0
  0
POINT
  5
14A6
330
887
100
AcDbEntity
  8
DEFPOINTS
 62
     0
100
AcDbPoint
 10
75.54555374233537
 20
19.13139898394533
 30
0.0
  0
ENDBLK
  5
893
330
887
100
AcDbEntity
  8
0
100
AcDbBlockEnd
  0
ENDSEC
  0
SECTION
  2
ENTITIES
  0
LINE
  5
2E9
330
1E
100
AcDbEntity
  8
0
  6
CENTER
100
AcDbLine
 10
53.98692520508838
 20
14.78000584587175
 30
0.0
 11
53.98692520508838
 21
47.03838930058876
 31
0.0
  0
LINE
  5
2EA
330
1E
100
AcDbEntity
  8
0
100
AcDbLine
 10
42.34086243190849
 20
46.31841584785351
 30
0.0
 11
42.34086243190849
 21
30.93219566467347
 31
0.0
  0
LINE
  5
2EB
330
1E
100
AcDbEntity
  8
0
100
AcDbLine
 10
65.63298797826849
 20
46.31841584785351
 30
0.0
 11
65.63298797826849
 21
30.93219566467347
 31
0.0
  0
LINE
  5
2EC
330
1E
100
AcDbEntity
  8
0
100
AcDbLine
 10
42.34086243190849
 20
15.54597548149362
 30
0.0
 11
42.34086243190849
 21
30.93219566467347
 31
0.0
  0
CIRCLE
  5
2ED
330
1E
100
AcDbEntity
  8
0
100
AcDbCircle
 10
53.98692520508838
 20
17.54636914467332
 30
0.0
 40
0.314960624
  0
CIRCLE
  5
2EE
330
1E
100
AcDbEntity
  8
0
100
AcDbCircle
 10
53.98692520508838
 20
17.54636914467332
 30
0.0
 40
0.2440944836
  0
CIRCLE
  5
2EF
330
1E
100
AcDbEntity
  8
0
100
AcDbCircle
 10
53.98692520508838
 20
17.54636914467332
 30
0.0
 40
0.5511810920000001
  0
CIRCLE
  5
2F0
330
1E
100
AcDbEntity
  8
0
100
AcDbCircle
 10
53.98692520508838
 20
17.54636914467332
 30
0.0
 40
0.472440936
  0
CIRCLE
  5
2F1
330
1E
100
AcDbEntity
  8
0
100
AcDbCircle
 10
44.5381064850882
 20
17.54636914467332
 30
0.0
 40
0.2440944836
  0
CIRCLE
  5
2F2
330
1E
100
AcDbEntity
  8
0
100
AcDbCircle
 10
44.5381064850882
 20
17.54636914467332
 30
0.0
 40
0.314960624
  0
CIRCLE
  5
2F3
330
1E
100
AcDbEntity
  8
0
100
AcDbCircle
 10
44.5381064850882
 20
17.54636914467332
 30
0.0
 40
0.472440936
  0
CIRCLE
  5
2F4
330
1E
100
AcDbEntity
  8
0
100
AcDbCircle
 10
44.5381064850882
 20
17.54636914467332
 30
0.0
 40
0.5511810920000001
  0
LINE
  5
2F5
330
1E
100
AcDbEntity
  8
0
100
AcDbLine
 10
65.63298797826849
 20
15.54597548149362
 30
0.0
 11
65.63298797826849
 21
30.93219566467347
 31
0.0
  0
LINE
  5
2F6
330
1E
100
AcDbEntity
  8
0
100
AcDbLine
 10
42.53771282190849
 20
15.34912509149339
 30
0.0
 11
53.98692520508838
 21
15.34912509149339
 31
0.0
  0
LINE
  5
2F7
330
1E
100
AcDbEntity
  8
0
100
AcDbLine
 10
65.43613758826848
 20
15.34912509149339
 30
0.0
 11
53.98692520508838
 21
15.34912509149339
 31
0.0
  0
ARC
  5
2F8
330
1E
100
AcDbEntity
  8
0
100
AcDbCircle
 10
65.43613758826848
 20
15.54597548149362
 30
0.0
 40
0.19685039
100
AcDbArc
 50
270.0
 51
0.0
  0
ARC
  5
2F9
330
1E
100
AcDbEntity
  8
0
100
AcDbCircle
 10
42.53771282190849
 20
15.54597548149362
 30
0.0
 40
0.19685039
100
AcDbArc
 50
180.0
 51
270.0
  0
LINE
  5
2FA
330
1E
100
AcDbEntity
  8
0
  6
CENTER
100
AcDbLine
 10
41.60239470885916
 20
30.93219566467347
 30
0.0
 11
66.28074013756034
 21
30.93219566467347
 31
0.0
  0
CIRCLE
  5
2FB
330
1E
100
AcDbEntity
  8
0
100
AcDbCircle
 10
44.5381064850882
 20
30.93219566467347
 30
0.0
 40
0.5511810920000001
  0
CIRCLE
  5
2FC
330
1E
100
AcDbEntity
  8
0
100
AcDbCircle
 10
44.5381064850882
 20
30.93219566467347
 30
0.0
 40
0.472440936
  0
CIRCLE
  5
2FD
330
1E
100
AcDbEntity
  8
0
100
AcDbCircle
 10
44.5381064850882
 20
30.93219566467347
 30
0.0
 40
0.314960624
  0
CIRCLE
  5
2FE
330
1E
100
AcDbEntity
  8
0
100
AcDbCircle
 10
44.5381064850882
 20
30.93219566467347
 30
0.0
 40
0.2440944836
  0
LINE
  5
2FF
330
1E
100
AcDbEntity
  8
0
100
AcDbLine
 10
42.53771282190849
 20
53.20626737386172
 30
0.0
 11
53.98692520508838
 21
53.20626737386172
 31
0.0
  0
LINE
  5
300
330
1E
100
AcDbEntity
  8
0
100
AcDbLine
 10
42.34086243190849
 20
54.19051932386176
 30
0.0
 11
53.98692520508838
 21
54.19051932386176
 31
0.0
  0
LINE
  5
301
330
1E
100
AcDbEntity
  8
0
100
AcDbLine
 10
42.53771282190849
 20
46.51526623785352
 30
0.0
 11
53.98692520508838
 21
46.51526623785352
 31
0.0
  0
CIRCLE
  5
302
330
1E
100
AcDbEntity
  8
0
100
AcDbCircle
 10
53.98692520508838
 20
44.31802218467359
 30
0.0
 40
0.2440944836
  0
CIRCLE
  5
303
330
1E
100
AcDbEntity
  8
0
100
AcDbCircle
 10
53.98692520508838
 20
44.31802218467359
 30
0.0
 40
0.314960624
  0
CIRCLE
  5
304
330
1E
100
AcDbEntity
  8
0
100
AcDbCircle
 10
53.98692520508838
 20
44.31802218467359
 30
0.0
 40
0.472440936
  0
CIRCLE
  5
305
330
1E
100
AcDbEntity
  8
0
100
AcDbCircle
 10
53.98692520508838
 20
44.31802218467359
 30
0.0
 40
0.5511810920000001
  0
CIRCLE
  5
306
330
1E
100
AcDbEntity
  8
0
100
AcDbCircle
 10
44.5381064850882
 20
44.31802218467359
 30
0.0
 40
0.5511810920000001
  0
CIRCLE
  5
307
330
1E
100
AcDbEntity
  8
0
100
AcDbCircle
 10
44.5381064850882
 20
44.31802218467359
 30
0.0
 40
0.472440936
  0
CIRCLE
  5
308
330
1E
100
AcDbEntity
  8
0
100
AcDbCircle
 10
44.5381064850882
 20
44.31802218467359
 30
0.0
 40
0.314960624
  0
CIRCLE
  5
309
330
1E
100
AcDbEntity
  8
0
100
AcDbCircle
 10
44.5381064850882
 20
44.31802218467359
 30
0.0
 40
0.2440944836
  0
LINE
  5
30A
330
1E
100
AcDbEntity
  8
0
100
AcDbLine
 10
65.63298797826849
 20
54.19051932386176
 30
0.0
 11
53.98692520508838
 21
54.19051932386176
 31
0.0
  0
LINE
  5
30B
330
1E
100
AcDbEntity
  8
0
100
AcDbLine
 10
65.43613758826848
 20
53.20626737386172
 30
0.0
 11
53.98692520508838
 21
53.20626737386172
 31
0.0
  0
LINE
  5
30C
330
1E
100
AcDbEntity
  8
0
100
AcDbLine
 10
65.43613758826848
 20
46.51526623785352
 30
0.0
 11
53.98692520508838
 21
46.51526623785352
 31
0.0
  0
ARC
  5
30D
330
1E
100
AcDbEntity
  8
0
100
AcDbCircle
 10
65.43613758826848
 20
46.31841584785351
 30
0.0
 40
0.19685039
100
AcDbArc
 50
0.0
 51
90.0
  0
LINE
  5
30E
330
1E
100
AcDbEntity
  8
0
100
AcDbLine
 10
65.63298797826849
 20
53.40311776386172
 30
0.0
 11
65.63298797826849
 21
54.19051932386176
 31
0.0
  0
ARC
  5
30F
330
1E
100
AcDbEntity
  8
0
100
AcDbCircle
 10
65.43613758826848
 20
53.40311776386172
 30
0.0
 40
0.19685039
100
AcDbArc
 50
270.0
 51
0.0
  0
ARC
  5
310
330
1E
100
AcDbEntity
  8
0
100
AcDbCircle
 10
42.53771282190849
 20
46.31841584785351
 30
0.0
 40
0.19685039
100
AcDbArc
 50
90.00000000000003
 51
180.0
  0
LINE
  5
311
330
1E
100
AcDbEntity
  8
0
100
AcDbLine
 10
42.34086243190849
 20
53.40311776386172
 30
0.0
 11
42.34086243190849
 21
54.19051932386176
 31
0.0
  0
ARC
  5
312
330
1E
100
AcDbEntity
  8
0
100
AcDbCircle
 10
42.53771282190849
 20
53.40311776386172
 30
0.0
 40
0.19685039
100
AcDbArc
 50
180.0
 51
270.0
  0
LINE
  5
313
330
1E
100
AcDbEntity
  8
0
100
AcDbLine
 10
41.88962152508837
 20
63.34794660386186
 30
0.0
 11
41.88962152508837
 21
63.74071620386195
 31
0.0
  0
LINE
  5
314
330
1E
100
AcDbEntity
  8
0
100
AcDbLine
 10
41.88962152508837
 20
63.34794660386186
 30
0.0
 11
66.08422888508838
 21
63.34794660386186
 31
0.0
  0
LINE
  5
315
330
1E
100
AcDbEntity
  8
0
100
AcDbLine
 10
42.35877871154655
 20
54.47135364386193
 30
0.0
 11
65.6150716986302
 21
54.47135364386193
 31
0.0
  0
LINE
  5
316
330
1E
100
AcDbEntity
  8
0
100
AcDbLine
 10
43.4090735641309
 20
54.19051932386176
 30
0.0
 11
43.40635354690909
 21
54.47135364386198
 31
0.0
  0
LINE
  5
317
330
1E
100
AcDbEntity
  8
0
100
AcDbLine
 10
42.35877871154655
 20
54.47135364386193
 30
0.0
 11
42.20383720508839
 21
63.34794660386186
 31
0.0
  0
LINE
  5
318
330
1E
100
AcDbEntity
  8
0
  6
CENTER
100
AcDbLine
 10
53.98692520508838
 20
53.0110126544246
 30
0.0
 11
53.98692520508838
 21
64.58727453251575
 31
0.0
  0
LINE
  5
319
330
1E
100
AcDbEntity
  8
0
100
AcDbLine
 10
66.08422888508838
 20
63.34794660386186
 30
0.0
 11
66.08422888508838
 21
63.74071620386195
 31
0.0
  0
LINE
  5
31A
330
1E
100
AcDbEntity
  8
0
100
AcDbLine
 10
64.56477684604585
 20
54.19051932386176
 30
0.0
 11
64.56749686326768
 21
54.47135364386198
 31
0.0
  0
LINE
  5
31B
330
1E
100
AcDbEntity
  8
0
100
AcDbLine
 10
65.6150716986302
 20
54.47135364386193
 30
0.0
 11
65.76783132197235
 21
63.22294660386191
 31
0.0
  0
LINE
  5
31C
330
1E
100
AcDbEntity
  8
0
100
AcDbLine
 10
42.05779157108838
 20
64.33126737386174
 30
0.0
 11
53.98692520508837
 21
64.33126737386174
 31
0.0
  0
LINE
  5
31D
330
1E
100
AcDbEntity
  8
0
100
AcDbLine
 10
66.11290922908839
 20
63.74071620386195
 30
0.0
 11
66.11290922908839
 21
64.13441698386197
 31
0.0
  0
ARC
  5
31E
330
1E
100
AcDbEntity
  8
0
100
AcDbCircle
 10
65.91605883908838
 20
64.13441698386197
 30
0.0
 40
0.19685039
100
AcDbArc
 50
0.0
 51
90.0
  0
LINE
  5
31F
330
1E
100
AcDbEntity
  8
0
100
AcDbLine
 10
65.91605883908838
 20
64.33126737386174
 30
0.0
 11
53.98692520508837
 21
64.33126737386174
 31
0.0
  0
ARC
  5
320
330
1E
100
AcDbEntity
  8
0
100
AcDbCircle
 10
42.05779157108838
 20
64.13441698386197
 30
0.0
 40
0.19685039
100
AcDbArc
 50
90.0
 51
180.0
  0
LINE
  5
321
330
1E
100
AcDbEntity
  8
0
100
AcDbLine
 10
41.86094118108838
 20
63.74071620386195
 30
0.0
 11
66.11290922908839
 21
63.74071620386195
 31
0.0
  0
LINE
  5
322
330
1E
100
AcDbEntity
  8
0
100
AcDbLine
 10
41.86094118108838
 20
63.74071620386195
 30
0.0
 11
41.86094118108838
 21
64.13441698386197
 31
0.0
  0
LINE
  5
323
330
1E
100
AcDbEntity
  8
0
100
AcDbLine
 10
42.08600632508837
 20
14.90719598467339
 30
0.0
 11
53.98692520508838
 21
14.90719598467339
 31
0.0
  0
LINE
  5
324
330
1E
100
AcDbEntity
  8
0
100
AcDbLine
 10
42.40022200508839
 20
15.22141166467358
 30
0.0
 11
53.98692520508838
 21
15.22141166467358
 31
0.0
  0
ARC
  5
325
330
1E
100
AcDbEntity
  8
0
100
AcDbCircle
 10
42.08600632508837
 20
15.10358078467342
 30
0.0
 40
0.1963848
100
AcDbArc
 50
180.0
 51
270.0
  0
ARC
  5
326
330
1E
100
AcDbEntity
  8
0
100
AcDbCircle
 10
42.40022200508839
 20
15.41779646467338
 30
0.0
 40
0.1963848
100
AcDbArc
 50
180.0
 51
270.0
  0
LINE
  5
327
330
1E
100
AcDbEntity
  8
0
100
AcDbLine
 10
41.88962152508837
 20
30.93219566467347
 30
0.0
 11
41.88962152508837
 21
15.10358078467342
 31
0.0
  0
LINE
  5
328
330
1E
100
AcDbEntity
  8
0
100
AcDbLine
 10
42.20383720508839
 20
30.93219566467347
 30
0.0
 11
42.20383720508839
 21
15.41779646467338
 31
0.0
  0
LINE
  5
329
330
1E
100
AcDbEntity
  8
0
100
AcDbLine
 10
65.57362840508836
 20
15.22141166467358
 30
0.0
 11
53.98692520508838
 21
15.22141166467358
 31
0.0
  0
LINE
  5
32A
330
1E
100
AcDbEntity
  8
0
100
AcDbLine
 10
65.88784408508837
 20
14.90719598467339
 30
0.0
 11
53.98692520508838
 21
14.90719598467339
 31
0.0
  0
ARC
  5
32B
330
1E
100
AcDbEntity
  8
0
100
AcDbCircle
 10
65.88784408508837
 20
15.10358078467342
 30
0.0
 40
0.1963848
100
AcDbArc
 50
270.0
 51
0.0
  0
ARC
  5
32C
330
1E
100
AcDbEntity
  8
0
100
AcDbCircle
 10
65.57362840508836
 20
15.41779646467338
 30
0.0
 40
0.1963848
100
AcDbArc
 50
270.0
 51
0.0
  0
LINE
  5
32D
330
1E
100
AcDbEntity
  8
0
100
AcDbLine
 10
66.08422888508838
 20
30.93219566467347
 30
0.0
 11
66.08422888508838
 21
15.10358078467342
 31
0.0
  0
LINE
  5
32E
330
1E
100
AcDbEntity
  8
0
100
AcDbLine
 10
65.77001320508836
 20
30.93219566467347
 30
0.0
 11
65.77001320508836
 21
15.41779646467338
 31
0.0
  0
LINE
  5
32F
330
1E
100
AcDbEntity
  8
0
100
AcDbLine
 10
66.08422888508838
 20
30.93219566467347
 30
0.0
 11
66.08422888508838
 21
46.76081054467348
 31
0.0
  0
LINE
  5
330
330
1E
100
AcDbEntity
  8
0
100
AcDbLine
 10
65.77001320508836
 20
30.93219566467347
 30
0.0
 11
65.77001320508836
 21
46.44659486467353
 31
0.0
  0
ARC
  5
331
330
1E
100
AcDbEntity
  8
0
100
AcDbCircle
 10
65.57362840508836
 20
46.44659486467353
 30
0.0
 40
0.1963848
100
AcDbArc
 50
0.0
 51
90.0
  0
ARC
  5
332
330
1E
100
AcDbEntity
  8
0
100
AcDbCircle
 10
65.88784408508837
 20
46.76081054467348
 30
0.0
 40
0.1963848
100
AcDbArc
 50
0.0
 51
90.0
  0
LINE
  5
333
330
1E
100
AcDbEntity
  8
0
100
AcDbLine
 10
65.88784408508837
 20
46.95719534467352
 30
0.0
 11
53.98692520508838
 21
46.95719534467352
 31
0.0
  0
LINE
  5
334
330
1E
100
AcDbEntity
  8
0
100
AcDbLine
 10
65.57362840508836
 20
46.64297966467356
 30
0.0
 11
53.98692520508838
 21
46.64297966467356
 31
0.0
  0
LINE
  5
335
330
1E
100
AcDbEntity
  8
0
100
AcDbLine
 10
42.40022200508839
 20
46.64297966467356
 30
0.0
 11
53.98692520508838
 21
46.64297966467356
 31
0.0
  0
LINE
  5
336
330
1E
100
AcDbEntity
  8
0
100
AcDbLine
 10
42.08600632508837
 20
46.95719534467352
 30
0.0
 11
53.98692520508838
 21
46.95719534467352
 31
0.0
  0
LINE
  5
337
330
1E
100
AcDbEntity
  8
0
100
AcDbLine
 10
41.88962152508837
 20
30.93219566467347
 30
0.0
 11
41.88962152508837
 21
46.76081054467348
 31
0.0
  0
ARC
  5
338
330
1E
100
AcDbEntity
  8
0
100
AcDbCircle
 10
42.08600632508837
 20
46.76081054467348
 30
0.0
 40
0.1963848
100
AcDbArc
 50
90.0
 51
180.0
  0
ARC
  5
339
330
1E
100
AcDbEntity
  8
0
100
AcDbCircle
 10
42.40022200508839
 20
46.44659486467353
 30
0.0
 40
0.1963848
100
AcDbArc
 50
90.0
 51
180.0
  0
LINE
  5
33A
330
1E
100
AcDbEntity
  8
0
100
AcDbLine
 10
42.20383720508839
 20
30.93219566467347
 30
0.0
 11
42.20383720508839
 21
46.44659486467353
 31
0.0
  0
CIRCLE
  5
33B
330
1E
100
AcDbEntity
  8
0
100
AcDbCircle
 10
65.86624175708834
 20
46.73920821667351
 30
0.0
 40
0.1875
  0
ARC
  5
33C
330
1E
100
AcDbEntity
  8
0
100
AcDbCircle
 10
59.76063832508836
 20
46.73920821667351
 30
0.0
 40
0.1875
100
AcDbArc
 50
329.1215191374222
 51
210.8784808625778
  0
ARC
  5
33D
330
1E
100
AcDbEntity
  8
0
100
AcDbCircle
 10
53.98692520508838
 20
46.73920821667351
 30
0.0
 40
0.1875
100
AcDbArc
 50
329.1215191374222
 51
210.8784808625778
  0
ARC
  5
33E
330
1E
100
AcDbEntity
  8
0
100
AcDbCircle
 10
48.21321208508838
 20
46.73920821667351
 30
0.0
 40
0.1875
100
AcDbArc
 50
329.1215191374222
 51
210.8784808625778
  0
CIRCLE
  5
33F
330
1E
100
AcDbEntity
  8
0
100
AcDbCircle
 10
42.10760865308837
 20
46.73920821667351
 30
0.0
 40
0.1875
  0
ARC
  5
340
330
1E
100
AcDbEntity
  8
0
100
AcDbCircle
 10
65.86624175708834
 20
40.2408351846735
 30
0.0
 40
0.1875
100
AcDbArc
 50
239.1215191374124
 51
120.8784808625874
  0
ARC
  5
341
330
1E
100
AcDbEntity
  8
0
100
AcDbCircle
 10
65.86624175708838
 20
34.03507550467348
 30
0.0
 40
0.1875
100
AcDbArc
 50
239.1215191374016
 51
120.8784808625982
  0
ARC
  5
342
330
1E
100
AcDbEntity
  8
0
100
AcDbCircle
 10
42.10760865308837
 20
34.03507550467348
 30
0.0
 40
0.1875
100
AcDbArc
 50
59.12151913740171
 51
300.8784808625982
  0
ARC
  5
343
330
1E
100
AcDbEntity
  8
0
100
AcDbCircle
 10
42.10760865308841
 20
40.2408351846735
 30
0.0
 40
0.1875
100
AcDbArc
 50
59.12151913741252
 51
300.8784808625875
  0
ARC
  5
344
330
1E
100
AcDbEntity
  8
0
100
AcDbCircle
 10
42.10760865308837
 20
27.82931582467345
 30
0.0
 40
0.1875
100
AcDbArc
 50
59.12151913740171
 51
300.8784808625982
  0
ARC
  5
345
330
1E
100
AcDbEntity
  8
0
100
AcDbCircle
 10
65.86624175708838
 20
27.82931582467345
 30
0.0
 40
0.1875
100
AcDbArc
 50
239.1215191374016
 51
120.8784808625982
  0
ARC
  5
346
330
1E
100
AcDbEntity
  8
0
100
AcDbCircle
 10
42.10760865308841
 20
21.62355614467343
 30
0.0
 40
0.1875
100
AcDbArc
 50
59.12151913741249
 51
300.8784808625875
  0
ARC
  5
347
330
1E
100
AcDbEntity
  8
0
100
AcDbCircle
 10
65.86624175708834
 20
21.62355614467343
 30
0.0
 40
0.1875
100
AcDbArc
 50
239.1215191374124
 51
120.8784808625875
  0
ARC
  5
348
330
1E
100
AcDbEntity
  8
0
100
AcDbCircle
 10
48.21321208508838
 20
15.12518311267341
 30
0.0
 40
0.1875
100
AcDbArc
 50
149.1215191374221
 51
30.87848086257778
  0
ARC
  5
349
330
1E
100
AcDbEntity
  8
0
100
AcDbCircle
 10
53.98692520508838
 20
15.12518311267341
 30
0.0
 40
0.1875
100
AcDbArc
 50
149.1215191374221
 51
30.87848086257778
  0
ARC
  5
34A
330
1E
100
AcDbEntity
  8
0
100
AcDbCircle
 10
59.76063832508836
 20
15.12518311267341
 30
0.0
 40
0.1875
100
AcDbArc
 50
149.1215191374221
 51
30.87848086257778
  0
CIRCLE
  5
34B
330
1E
100
AcDbEntity
  8
0
100
AcDbCircle
 10
65.86624175708834
 20
15.12518311267341
 30
0.0
 40
0.1875
  0
CIRCLE
  5
34C
330
1E
100
AcDbEntity
  8
0
100
AcDbCircle
 10
42.10760865308837
 20
15.12518311267341
 30
0.0
 40
0.1875
  0
LINE
  5
34D
330
1E
100
AcDbEntity
  8
0
100
AcDbLine
 10
74.9112267823356
 20
46.51526623785352
 30
0.0
 11
74.9112267823356
 21
30.93219566467347
 31
0.0
  0
LINE
  5
34E
330
1E
100
AcDbEntity
  8
0
100
AcDbLine
 10
73.92697483233556
 20
46.31841584785351
 30
0.0
 11
73.92697483233533
 21
30.93219566467347
 31
0.0
  0
LINE
  5
34F
330
1E
100
AcDbEntity
  8
0
100
AcDbLine
 10
74.12382522233556
 20
46.51526623785352
 30
0.0
 11
74.9112267823356
 21
46.51526623785352
 31
0.0
  0
ARC
  5
350
330
1E
100
AcDbEntity
  8
0
100
AcDbCircle
 10
74.12382522233556
 20
46.31841584785351
 30
0.0
 40
0.19685039
100
AcDbArc
 50
90.00000000000003
 51
179.9999999999999
  0
LINE
  5
351
330
1E
100
AcDbEntity
  8
0
100
AcDbLine
 10
73.84823467633544
 20
31.48337675667366
 30
0.0
 11
73.92697483233553
 21
31.48337675667366
 31
0.0
  0
LINE
  5
352
102
{ACAD_REACTORS
330
9F9
102
}
330
1E
100
AcDbEntity
  8
0
100
AcDbLine
 10
73.84823467633544
 20
30.3810145726737
 30
0.0
 11
73.92697483233553
 21
30.3810145726737
 31
0.0
  0
LINE
  5
353
102
{ACAD_REACTORS
330
9F9
102
}
330
1E
100
AcDbEntity
  8
0
100
AcDbLine
 10
73.84823467633544
 20
30.38101457267372
 30
0.0
 11
73.84823467633544
 21
31.48337675667367
 31
0.0
  0
LINE
  5
354
330
1E
100
AcDbEntity
  8
0
100
AcDbLine
 10
73.84823467633544
 20
43.76684109267384
 30
0.0
 11
73.84823467633544
 21
44.86920327667379
 31
0.0
  0
LINE
  5
355
330
1E
100
AcDbEntity
  8
0
100
AcDbLine
 10
73.84823467633544
 20
43.76684109267384
 30
0.0
 11
73.92697483233553
 21
43.76684109267384
 31
0.0
  0
LINE
  5
356
330
1E
100
AcDbEntity
  8
0
100
AcDbLine
 10
73.84823467633544
 20
44.86920327667379
 30
0.0
 11
73.92697483233553
 21
44.86920327667379
 31
0.0
  0
LINE
  5
357
330
1E
100
AcDbEntity
  8
0
100
AcDbLine
 10
84.46142366233535
 20
46.99518748867362
 30
0.0
 11
84.46142366233535
 21
30.93219566467347
 31
0.0
  0
LINE
  5
358
330
1E
100
AcDbEntity
  8
0
100
AcDbLine
 10
84.06865406233535
 20
46.95719534467352
 30
0.0
 11
84.06865406233535
 21
30.93219566467347
 31
0.0
  0
LINE
  5
359
330
1E
100
AcDbEntity
  8
0
100
AcDbLine
 10
75.54555374233536
 20
27.69184646467361
 30
0.0
 11
83.6956001423354
 21
27.69184646467361
 31
0.0
  0
LINE
  5
35A
330
1E
100
AcDbEntity
  8
0
100
AcDbLine
 10
75.54555374233538
 20
27.1026920646735
 30
0.0
 11
83.69560014233542
 21
27.1026920646735
 31
0.0
  0
LINE
  5
35B
330
1E
100
AcDbEntity
  8
0
  6
PHANTOM
100
AcDbLine
 10
73.56568692438407
 20
30.93219566467347
 30
0.0
 11
76.25655991476332
 21
30.93219566467347
 31
0.0
  0
LINE
  5
35C
330
1E
100
AcDbEntity
  8
0
100
AcDbLine
 10
83.97324830563247
 20
27.49546166467358
 30
0.0
 11
83.99010014233537
 21
27.49546166467358
 31
0.0
  0
LINE
  5
35D
330
1E
100
AcDbEntity
  8
0
100
AcDbLine
 10
83.97324830563247
 20
27.29907686467355
 30
0.0
 11
83.99010014233537
 21
27.29907686467355
 31
0.0
  0
LINE
  5
35E
330
1E
100
AcDbEntity
  8
0
100
AcDbLine
 10
75.19206110233534
 20
15.37635317113162
 30
0.0
 11
84.06865406233535
 21
15.22141166467358
 31
0.0
  0
LINE
  5
35F
330
1E
100
AcDbEntity
  8
0
100
AcDbLine
 10
75.54555374233538
 20
15.5665976490612
 30
0.0
 11
84.57925454233537
 21
15.40891381505511
 31
0.0
  0
LINE
  5
360
330
1E
100
AcDbEntity
  8
0
100
AcDbLine
 10
74.34043734233535
 20
16.63302560707356
 30
0.0
 11
75.54555374233536
 21
16.61417266627344
 31
0.0
  0
LINE
  5
361
330
1E
100
AcDbEntity
  8
0
100
AcDbLine
 10
75.34916894233538
 20
15.57002555849621
 30
0.0
 11
75.19206110233534
 21
15.52792863964359
 31
0.0
  0
LINE
  5
362
330
1E
100
AcDbEntity
  8
0
100
AcDbLine
 10
74.34043734233535
 20
16.43661089394149
 30
0.0
 11
75.34916894233536
 21
16.42118576055972
 31
0.0
  0
LINE
  5
363
330
1E
100
AcDbEntity
  8
0
100
AcDbLine
 10
75.34916894233538
 20
15.57002555849621
 30
0.0
 11
75.34916894233536
 21
16.42118576055972
 31
0.0
  0
LINE
  5
364
330
1E
100
AcDbEntity
  8
0
100
AcDbLine
 10
75.19206110233534
 20
15.37635317113162
 30
0.0
 11
75.19206110233534
 21
16.42392800649426
 31
0.0
  0
LINE
  5
365
330
1E
100
AcDbEntity
  8
0
100
AcDbLine
 10
74.34043734233535
 20
16.43661089394149
 30
0.0
 11
74.34043734233535
 21
16.63302560707357
 31
0.0
  0
LINE
  5
366
102
{ACAD_REACTORS
330
9F9
102
}
330
1E
100
AcDbEntity
  8
0
100
AcDbLine
 10
75.54555374233538
 20
15.5665976490612
 30
0.0
 11
75.54555374233536
 21
30.93219566467347
 31
0.0
  0
LINE
  5
367
330
1E
100
AcDbEntity
  8
0
100
AcDbLine
 10
83.99010014233539
 20
27.29907686467355
 30
0.0
 11
83.99010014233539
 21
27.49546166467358
 31
0.0
  0
LINE
  5
368
330
1E
100
AcDbEntity
  8
0
100
AcDbLine
 10
84.06865406233535
 20
14.90719598467339
 30
0.0
 11
84.06865406233535
 21
15.22141166467358
 31
0.0
  0
LINE
  5
369
330
1E
100
AcDbEntity
  8
0
100
AcDbLine
 10
84.46142366233535
 20
14.90719598467339
 30
0.0
 11
84.46142366233535
 21
15.31070645759891
 31
0.0
  0
LINE
  5
36A
330
1E
100
AcDbEntity
  8
0
100
AcDbLine
 10
84.57925454233537
 20
15.31070645759891
 30
0.0
 11
84.46142366233535
 21
15.31070645759891
 31
0.0
  0
LINE
  5
36B
330
1E
100
AcDbEntity
  8
0
100
AcDbLine
 10
84.06865406233535
 20
14.90719598467339
 30
0.0
 11
84.46142366233535
 21
14.90719598467339
 31
0.0
  0
LINE
  5
36C
330
1E
100
AcDbEntity
  8
0
100
AcDbLine
 10
84.06865406233535
 20
15.04466534467346
 30
0.0
 11
84.46142366233535
 21
15.04466534467346
 31
0.0
  0
LINE
  5
36D
330
1E
100
AcDbEntity
  8
0
100
AcDbLine
 10
84.06865406233535
 20
15.16249622467339
 30
0.0
 11
84.46142366233535
 21
15.16249622467339
 31
0.0
  0
LINE
  5
36E
330
1E
100
AcDbEntity
  8
0
100
AcDbLine
 10
84.57925454233537
 20
15.31070645759891
 30
0.0
 11
84.57925454233537
 21
15.40891381505512
 31
0.0
  0
LINE
  5
36F
330
1E
100
AcDbEntity
  8
0
100
AcDbLine
 10
75.19206110233534
 20
46.48803815821529
 30
0.0
 11
83.94365406233536
 21
46.64079778155754
 31
0.0
  0
LINE
  5
370
330
1E
100
AcDbEntity
  8
0
100
AcDbLine
 10
74.9112267823356
 20
45.43774330563103
 30
0.0
 11
75.19206110233534
 21
45.44046332285287
 31
0.0
  0
LINE
  5
371
330
1E
100
AcDbEntity
  8
0
100
AcDbLine
 10
75.19206110233534
 20
46.48803815821529
 30
0.0
 11
75.19206110233534
 21
30.93219566467347
 31
0.0
  0
LINE
  5
372
330
1E
100
AcDbEntity
  8
0
100
AcDbLine
 10
84.06865406233535
 20
46.95719534467352
 30
0.0
 11
84.46142366233535
 21
46.95719534467352
 31
0.0
  0
LINE
  5
373
330
1E
100
AcDbEntity
  8
0
100
AcDbLine
 10
85.05197483233542
 20
46.79833709867361
 30
0.0
 11
85.05197483233542
 21
30.93219566467347
 31
0.0
  0
LINE
  5
374
330
1E
100
AcDbEntity
  8
0
100
AcDbLine
 10
84.46142366233535
 20
46.99518748867362
 30
0.0
 11
84.8551244423354
 21
46.99518748867362
 31
0.0
  0
ARC
  5
375
330
1E
100
AcDbEntity
  8
0
100
AcDbCircle
 10
84.8551244423354
 20
46.79833709867361
 30
0.0
 40
0.19685039
100
AcDbArc
 50
0.0
 51
90.0
  0
LINE
  5
376
330
1E
100
AcDbEntity
  8
0
100
AcDbLine
 10
84.46142366233539
 20
17.15660537247332
 30
0.0
 11
84.85512444233538
 21
17.15660537247332
 31
0.0
  0
LINE
  5
377
330
1E
100
AcDbEntity
  8
0
100
AcDbLine
 10
84.46142366233539
 20
16.9518809668733
 30
0.0
 11
84.85512444233538
 21
16.9518809668733
 31
0.0
  0
LINE
  5
378
330
1E
100
AcDbEntity
  8
0
100
AcDbLine
 10
84.85512444233538
 20
17.40857387167339
 30
0.0
 11
84.49495356513295
 21
17.35454824009296
 31
0.0
  0
LINE
  5
379
330
1E
100
AcDbEntity
  8
0
100
AcDbLine
 10
84.85512444233538
 20
16.9518809668733
 30
0.0
 11
84.85512444233538
 21
17.15660537247332
 31
0.0
  0
ARC
  5
37A
330
1E
100
AcDbEntity
  8
0
100
AcDbCircle
 10
84.50079374033538
 20
17.31561373874352
 30
0.0
 40
0.039370078
100
AcDbArc
 50
98.53076560994852
 51
180.0
  0
LINE
  5
37B
330
1E
100
AcDbEntity
  8
0
100
AcDbLine
 10
84.85512444233538
 20
16.69991246767345
 30
0.0
 11
84.49495356513299
 21
16.75393809925367
 31
0.0
  0
ARC
  5
37C
330
1E
100
AcDbEntity
  8
0
100
AcDbCircle
 10
84.50079374033538
 20
16.7928726006031
 30
0.0
 40
0.039370078
100
AcDbArc
 50
180.0
 51
261.4692343900514
  0
ARC
  5
37D
330
1E
100
AcDbEntity
  8
0
100
AcDbCircle
 10
84.8551244423354
 20
15.06605423067331
 30
0.0
 40
0.19685039
100
AcDbArc
 50
270.0
 51
0.0
  0
LINE
  5
37E
330
1E
100
AcDbEntity
  8
0
100
AcDbLine
 10
84.46142366233535
 20
14.8692038406733
 30
0.0
 11
84.46142366233535
 21
15.31070645759892
 31
0.0
  0
LINE
  5
37F
330
1E
100
AcDbEntity
  8
0
100
AcDbLine
 10
84.46142366233535
 20
14.8692038406733
 30
0.0
 11
84.8551244423354
 21
14.8692038406733
 31
0.0
  0
LINE
  5
380
330
1E
100
AcDbEntity
  8
0
100
AcDbLine
 10
84.46142366233535
 20
15.23534556607329
 30
0.0
 11
84.69764413033535
 21
15.23534556607351
 31
0.0
  0
LINE
  5
381
330
1E
100
AcDbEntity
  8
0
100
AcDbLine
 10
84.38268350633538
 20
15.4321959560733
 30
0.0
 11
84.69764413033539
 21
15.4321959560733
 31
0.0
  0
LINE
  5
382
330
1E
100
AcDbEntity
  8
0
100
AcDbLine
 10
84.38268350633538
 20
15.51093611207339
 30
0.0
 11
84.85512444233538
 21
15.51093611207338
 31
0.0
  0
LINE
  5
383
330
1E
100
AcDbEntity
  8
0
100
AcDbLine
 10
84.69764413033535
 20
15.23534556607351
 30
0.0
 11
84.69764413033539
 21
15.4321959560733
 31
0.0
  0
LINE
  5
384
330
1E
100
AcDbEntity
  8
0
100
AcDbLine
 10
84.77638428633538
 20
15.22550304657339
 30
0.0
 11
85.05197483233539
 21
15.22550304657339
 31
0.0
  0
LINE
  5
385
330
1E
100
AcDbEntity
  8
0
100
AcDbLine
 10
84.46142366233535
 20
15.17629044907322
 30
0.0
 11
84.7763842863354
 21
15.17629044907322
 31
0.0
  0
LINE
  5
386
330
1E
100
AcDbEntity
  8
0
100
AcDbLine
 10
84.7763842863354
 20
14.94991250057351
 30
0.0
 11
84.77638428633538
 21
15.22550304657339
 31
0.0
  0
LINE
  5
387
330
1E
100
AcDbEntity
  8
0
100
AcDbLine
 10
84.46142366233535
 20
14.99912509807323
 30
0.0
 11
84.7763842863354
 21
14.99912509807323
 31
0.0
  0
LINE
  5
388
330
1E
100
AcDbEntity
  8
0
100
AcDbLine
 10
84.7763842863354
 20
14.94991250057351
 30
0.0
 11
85.01406208599647
 21
14.94991250057329
 31
0.0
  0
LINE
  5
389
330
1E
100
AcDbEntity
  8
0
100
AcDbLine
 10
84.85512444233538
 20
15.51093611207339
 30
0.0
 11
84.85512444233538
 21
15.51247280316874
 31
0.0
  0
LINE
  5
38A
330
1E
100
AcDbEntity
  8
0
100
AcDbLine
 10
84.46142366233539
 20
16.7928726006031
 30
0.0
 11
84.46142366233539
 21
17.32239805775326
 31
0.0
  0
LINE
  5
38B
330
1E
100
AcDbEntity
  8
0
100
AcDbLine
 10
84.77638428633538
 20
17.39676284827338
 30
0.0
 11
84.77638428633538
 21
25.49878382656871
 31
0.0
  0
LINE
  5
38C
330
1E
100
AcDbEntity
  8
0
100
AcDbLine
 10
84.85512444233538
 20
17.40857387167339
 30
0.0
 11
84.8551244423354
 21
25.48697280316874
 31
0.0
  0
LINE
  5
38D
330
1E
100
AcDbEntity
  8
0
100
AcDbLine
 10
84.38268350633538
 20
15.4321959560733
 30
0.0
 11
84.38268350633538
 21
30.93219566467347
 31
0.0
  0
LINE
  5
38E
330
1E
100
AcDbEntity
  8
0
100
AcDbLine
 10
84.46142366233535
 20
15.41097056071606
 30
0.0
 11
84.46142366233535
 21
15.4321959560733
 31
0.0
  0
LINE
  5
38F
102
{ACAD_REACTORS
330
9F9
102
}
330
1E
100
AcDbEntity
  8
0
100
AcDbLine
 10
73.84823467633523
 20
18.09755023667352
 30
0.0
 11
73.92697483233533
 21
18.09755023667352
 31
0.0
  0
LINE
  5
390
102
{ACAD_REACTORS
330
9F9
102
}
330
1E
100
AcDbEntity
  8
0
100
AcDbLine
 10
74.63563623633527
 20
17.79046362827361
 30
0.0
 11
75.5480377963353
 21
17.79046362827361
 31
0.0
  0
LINE
  5
391
102
{ACAD_REACTORS
330
9F9
102
}
330
1E
100
AcDbEntity
  8
0
100
AcDbLine
 10
74.67500631433532
 20
18.01881008067343
 30
0.0
 11
74.79311654833523
 21
18.01881008067343
 31
0.0
  0
LINE
  5
392
102
{ACAD_REACTORS
330
9F9
102
}
330
1E
100
AcDbEntity
  8
0
100
AcDbLine
 10
74.79311654833523
 20
17.94006992467333
 30
0.0
 11
75.5480377963353
 21
17.94006992467333
 31
0.0
  0
LINE
  5
393
330
1E
100
AcDbEntity
  8
0
100
AcDbLine
 10
75.5480377963353
 20
17.54636914467332
 30
0.0
 11
75.5480377963353
 21
17.94006992467333
 31
0.0
  0
LINE
  5
394
102
{ACAD_REACTORS
330
9F9
102
}
330
1E
100
AcDbEntity
  8
0
100
AcDbLine
 10
74.79311654833523
 20
17.94006992467333
 30
0.0
 11
74.79311654833523
 21
18.01881008067343
 31
0.0
  0
LINE
  5
395
102
{ACAD_REACTORS
330
9F9
102
}
330
1E
100
AcDbEntity
  8
0
100
AcDbLine
 10
74.67500631433532
 20
18.01881008067343
 30
0.0
 11
74.67500631433532
 21
18.17629039267362
 31
0.0
  0
LINE
  5
396
102
{ACAD_REACTORS
330
9F9
102
}
330
1E
100
AcDbEntity
  8
0
100
AcDbLine
 10
74.63563623633527
 20
17.54636914467332
 30
0.0
 11
74.63563623633527
 21
17.86132976867347
 31
0.0
  0
LINE
  5
397
102
{ACAD_REACTORS
330
9F9
102
}
330
1E
100
AcDbEntity
  8
0
100
AcDbLine
 10
74.51752600233536
 20
17.54636914467332
 30
0.0
 11
74.51752600233536
 21
18.01881008067343
 31
0.0
  0
LINE
  5
398
102
{ACAD_REACTORS
330
9F9
102
}
330
1E
100
AcDbEntity
  8
0
100
AcDbLine
 10
74.51752600233536
 20
17.86132976867347
 30
0.0
 11
74.63563623633527
 21
17.86132976867347
 31
0.0
  0
LINE
  5
399
102
{ACAD_REACTORS
330
9F9
102
}
330
1E
100
AcDbEntity
  8
0
100
AcDbLine
 10
74.12382522233534
 20
18.17629039267362
 30
0.0
 11
74.67500631433532
 21
18.17629039267362
 31
0.0
  0
LINE
  5
39A
102
{ACAD_REACTORS
330
9F9
102
}
330
1E
100
AcDbEntity
  8
0
100
AcDbLine
 10
73.84823467633523
 20
18.01881008067343
 30
0.0
 11
74.51752600233536
 21
18.01881008067343
 31
0.0
  0
LINE
  5
39B
102
{ACAD_REACTORS
330
9F9
102
}
330
1E
100
AcDbEntity
  8
0
100
AcDbLine
 10
73.92697483233533
 20
18.09755023667352
 30
0.0
 11
73.92697483233533
 21
30.3810145726737
 31
0.0
  0
LINE
  5
39C
102
{ACAD_REACTORS
330
9F9
102
}
330
1E
100
AcDbEntity
  8
0
100
AcDbLine
 10
74.12382522233534
 20
18.17629039267362
 30
0.0
 11
74.12382522233534
 21
30.30227441667362
 31
0.0
  0
LINE
  5
39D
102
{ACAD_REACTORS
330
9F9
102
}
330
1E
100
AcDbEntity
  8
0
100
AcDbLine
 10
74.12382522233534
 20
16.75581797843355
 30
0.0
 11
74.12382522233534
 21
16.91644789667347
 31
0.0
  0
LINE
  5
39E
102
{ACAD_REACTORS
330
9F9
102
}
330
1E
100
AcDbEntity
  8
0
100
AcDbLine
 10
74.12382522233534
 20
16.32274712043349
 30
0.0
 11
74.12382522233534
 21
16.67707782243346
 31
0.0
  0
LINE
  5
39F
102
{ACAD_REACTORS
330
9F9
102
}
330
1E
100
AcDbEntity
  8
0
100
AcDbLine
 10
73.84823467633523
 20
16.99518805267357
 30
0.0
 11
73.92697483233533
 21
16.99518805267357
 31
0.0
  0
ARC
  5
3A0
102
{ACAD_REACTORS
330
9F9
102
}
330
1E
100
AcDbEntity
  8
0
100
AcDbCircle
 10
74.12382522233534
 20
15.54597548149362
 30
0.0
 40
0.19685039
100
AcDbArc
 50
180.0
 51
270.0
  0
LINE
  5
3A1
102
{ACAD_REACTORS
330
9F9
102
}
330
1E
100
AcDbEntity
  8
0
100
AcDbLine
 10
74.12382522233534
 20
15.54597548149362
 30
0.0
 11
74.12382522233534
 21
16.24400696443339
 31
0.0
  0
LINE
  5
3A2
102
{ACAD_REACTORS
330
9F9
102
}
330
1E
100
AcDbEntity
  8
0
100
AcDbLine
 10
73.92697483233533
 20
15.54597548149362
 30
0.0
 11
73.92697483233533
 21
16.99518805267357
 31
0.0
  0
LINE
  5
3A3
102
{ACAD_REACTORS
330
9F9
102
}
330
1E
100
AcDbEntity
  8
0
100
AcDbLine
 10
74.63563623633527
 20
17.30227466107348
 30
0.0
 11
75.5480377963353
 21
17.30227466107348
 31
0.0
  0
LINE
  5
3A4
102
{ACAD_REACTORS
330
9F9
102
}
330
1E
100
AcDbEntity
  8
0
100
AcDbLine
 10
74.67500631433532
 20
17.07392820867343
 30
0.0
 11
74.79311654833523
 21
17.07392820867343
 31
0.0
  0
LINE
  5
3A5
102
{ACAD_REACTORS
330
9F9
102
}
330
1E
100
AcDbEntity
  8
0
100
AcDbLine
 10
74.79311654833523
 20
17.1526683646733
 30
0.0
 11
75.5480377963353
 21
17.1526683646733
 31
0.0
  0
LINE
  5
3A6
102
{ACAD_REACTORS
330
9F9
102
}
330
1E
100
AcDbEntity
  8
0
100
AcDbLine
 10
75.41024252333537
 20
17.30227466107348
 30
0.0
 11
75.41024252333537
 21
17.1526683646733
 31
0.0
  0
LINE
  5
3A7
102
{ACAD_REACTORS
330
9F9
102
}
330
1E
100
AcDbEntity
  8
0
100
AcDbLine
 10
74.79311654833523
 20
17.1526683646733
 30
0.0
 11
74.79311654833523
 21
17.07392820867343
 31
0.0
  0
LINE
  5
3A8
102
{ACAD_REACTORS
330
9F9
102
}
330
1E
100
AcDbEntity
  8
0
100
AcDbLine
 10
74.67500631433532
 20
17.07392820867343
 30
0.0
 11
74.67500631433532
 21
16.91644789667347
 31
0.0
  0
LINE
  5
3A9
102
{ACAD_REACTORS
330
9F9
102
}
330
1E
100
AcDbEntity
  8
0
100
AcDbLine
 10
74.51752600233536
 20
17.23140852067339
 30
0.0
 11
74.63563623633527
 21
17.23140852067339
 31
0.0
  0
LINE
  5
3AA
102
{ACAD_REACTORS
330
9F9
102
}
330
1E
100
AcDbEntity
  8
0
100
AcDbLine
 10
74.91122678233537
 20
15.34912509149339
 30
0.0
 11
74.91122678233537
 21
16.42664802371607
 31
0.0
  0
LINE
  5
3AB
102
{ACAD_REACTORS
330
9F9
102
}
330
1E
100
AcDbEntity
  8
0
100
AcDbLine
 10
74.43878584633527
 20
16.24400696443339
 30
0.0
 11
74.43878584633527
 21
16.43489426550805
 31
0.0
  0
LINE
  5
3AC
102
{ACAD_REACTORS
330
9F9
102
}
330
1E
100
AcDbEntity
  8
0
100
AcDbLine
 10
74.12382522233534
 20
15.34912509149339
 30
0.0
 11
74.91122678233537
 21
15.34912509149339
 31
0.0
  0
LINE
  5
3AD
102
{ACAD_REACTORS
330
9F9
102
}
330
1E
100
AcDbEntity
  8
0
100
AcDbLine
 10
74.12382522233534
 20
15.54597548149362
 30
0.0
 11
74.91122678233537
 21
15.54597548149362
 31
0.0
  0
LINE
  5
3AE
102
{ACAD_REACTORS
330
9F9
102
}
330
1E
100
AcDbEntity
  8
0
100
AcDbLine
 10
74.12382522233534
 20
16.75581797843355
 30
0.0
 11
74.43878584633527
 21
16.75581797843355
 31
0.0
  0
LINE
  5
3AF
102
{ACAD_REACTORS
330
9F9
102
}
330
1E
100
AcDbEntity
  8
0
100
AcDbLine
 10
74.12382522233534
 20
16.67707782243346
 30
0.0
 11
74.43878584633527
 21
16.67707782243346
 31
0.0
  0
LINE
  5
3B0
102
{ACAD_REACTORS
330
9F9
102
}
330
1E
100
AcDbEntity
  8
0
100
AcDbLine
 10
74.12382522233534
 20
16.32274712043349
 30
0.0
 11
74.43878584633527
 21
16.32274712043349
 31
0.0
  0
LINE
  5
3B1
102
{ACAD_REACTORS
330
9F9
102
}
330
1E
100
AcDbEntity
  8
0
100
AcDbLine
 10
74.12382522233534
 20
16.24400696443339
 30
0.0
 11
74.43878584633527
 21
16.24400696443339
 31
0.0
  0
LINE
  5
3B2
102
{ACAD_REACTORS
330
9F9
102
}
330
1E
100
AcDbEntity
  8
0
100
AcDbLine
 10
74.12382522233534
 20
16.91644789667347
 30
0.0
 11
74.67500631433532
 21
16.91644789667347
 31
0.0
  0
LINE
  5
3B3
102
{ACAD_REACTORS
330
9F9
102
}
330
1E
100
AcDbEntity
  8
0
100
AcDbLine
 10
73.84823467633523
 20
17.07392820867343
 30
0.0
 11
74.51752600233536
 21
17.07392820867343
 31
0.0
  0
LINE
  5
3B4
330
1E
100
AcDbEntity
  8
0
100
AcDbLine
 10
75.5480377963353
 20
17.54636914467332
 30
0.0
 11
75.5480377963353
 21
17.1526683646733
 31
0.0
  0
LINE
  5
3B5
102
{ACAD_REACTORS
330
9F9
102
}
330
1E
100
AcDbEntity
  8
0
100
AcDbLine
 10
74.51752600233536
 20
17.54636914467332
 30
0.0
 11
74.51752600233536
 21
17.07392820867343
 31
0.0
  0
LINE
  5
3B6
102
{ACAD_REACTORS
330
9F9
102
}
330
1E
100
AcDbEntity
  8
0
100
AcDbLine
 10
74.63563623633527
 20
17.54636914467332
 30
0.0
 11
74.63563623633527
 21
17.23140852067339
 31
0.0
  0
LINE
  5
3B7
102
{ACAD_REACTORS
330
9F9
102
}
330
1E
100
AcDbEntity
  8
0
100
AcDbLine
 10
73.84823467633523
 20
16.99518805267357
 30
0.0
 11
73.84823467633523
 21
18.09755023667352
 31
0.0
  0
LINE
  5
3B8
102
{ACAD_REACTORS
330
9F9
102
}
330
1E
100
AcDbEntity
  8
0
100
AcDbLine
 10
74.43878584633527
 20
16.6313089786401
 30
0.0
 11
74.43878584633527
 21
16.91644789667347
 31
0.0
  0
ARC
  5
3B9
330
1E
100
AcDbEntity
  8
0
100
AcDbCircle
 10
83.6956001423354
 20
27.39726926467357
 30
0.0
 40
0.2945
100
AcDbArc
 50
270.0
 51
90.0
  0
ARC
  5
3BA
330
1E
100
AcDbEntity
  8
0
100
AcDbCircle
 10
83.6956001423354
 20
20.52380126467355
 30
0.0
 40
0.2945
100
AcDbArc
 50
270.0
 51
90.0
  0
LINE
  5
3BB
330
1E
100
AcDbEntity
  8
0
100
AcDbLine
 10
75.54555374233538
 20
20.2292240646735
 30
0.0
 11
83.69560014233542
 21
20.2292240646735
 31
0.0
  0
LINE
  5
3BC
330
1E
100
AcDbEntity
  8
0
100
AcDbLine
 10
75.54555374233536
 20
20.81837846467359
 30
0.0
 11
83.6956001423354
 21
20.81837846467359
 31
0.0
  0
LINE
  5
3BD
330
1E
100
AcDbEntity
  8
0
100
AcDbLine
 10
83.99010014233539
 20
20.42560886467353
 30
0.0
 11
83.99010014233539
 21
20.62199366467357
 31
0.0
  0
LINE
  5
3BE
330
1E
100
AcDbEntity
  8
0
100
AcDbLine
 10
83.97324830563247
 20
20.42560886467353
 30
0.0
 11
83.99010014233537
 21
20.42560886467353
 31
0.0
  0
LINE
  5
3BF
330
1E
100
AcDbEntity
  8
0
100
AcDbLine
 10
83.97324830563247
 20
20.62199366467357
 30
0.0
 11
83.99010014233537
 21
20.62199366467357
 31
0.0
  0
LINE
  5
3C0
330
1E
100
AcDbEntity
  8
0
100
AcDbLine
 10
74.43878584633527
 20
18.17629039267362
 30
0.0
 11
74.43878584633527
 21
30.30227441667361
 31
0.0
  0
LINE
  5
3C1
330
1E
100
AcDbEntity
  8
0
100
AcDbLine
 10
83.99010014233537
 20
15.41919754335981
 30
0.0
 11
83.99010014233537
 21
16.08550478467338
 31
0.0
  0
LINE
  5
3C2
330
1E
100
AcDbEntity
  8
0
100
AcDbLine
 10
75.6730377963353
 20
16.08550478467338
 30
0.0
 11
83.99010014233537
 21
16.08550478467338
 31
0.0
  0
LINE
  5
3C3
330
1E
100
AcDbEntity
  8
0
100
AcDbLine
 10
75.54555374233544
 20
15.7712891046734
 30
0.0
 11
83.99010014233537
 21
15.7712891046734
 31
0.0
  0
LINE
  5
3C4
330
1E
100
AcDbEntity
  8
0
100
AcDbLine
 10
75.67552185033523
 20
17.94006992467333
 30
0.0
 11
75.67552185033523
 21
15.79636914467333
 31
0.0
  0
LINE
  5
3C5
330
1E
100
AcDbEntity
  8
0
100
AcDbLine
 10
75.5480377963353
 20
17.94006992467333
 30
0.0
 11
75.67552185033523
 21
17.94006992467333
 31
0.0
  0
LINE
  5
3C6
330
1E
100
AcDbEntity
  8
0
100
AcDbLine
 10
75.54803779633534
 20
15.79636914467333
 30
0.0
 11
75.67552185033523
 21
15.79636914467333
 31
0.0
  0
LINE
  5
3C7
102
{ACAD_REACTORS
330
9F9
102
}
330
1E
100
AcDbEntity
  8
0
100
AcDbLine
 10
74.63563623633547
 20
30.93219566467345
 30
0.0
 11
74.63563623633547
 21
30.61723504067353
 31
0.0
  0
LINE
  5
3C8
102
{ACAD_REACTORS
330
9F9
102
}
330
1E
100
AcDbEntity
  8
0
100
AcDbLine
 10
74.51752600233556
 20
30.93219566467345
 30
0.0
 11
74.51752600233556
 21
30.45975472867357
 31
0.0
  0
LINE
  5
3C9
330
1E
100
AcDbEntity
  8
0
100
AcDbLine
 10
75.54803779633551
 20
30.93219566467345
 30
0.0
 11
75.54803779633551
 21
30.53849488467344
 31
0.0
  0
LINE
  5
3CA
102
{ACAD_REACTORS
330
9F9
102
}
330
1E
100
AcDbEntity
  8
0
100
AcDbLine
 10
74.12382522233554
 20
30.30227441667361
 30
0.0
 11
74.67500631433551
 21
30.30227441667361
 31
0.0
  0
LINE
  5
3CB
102
{ACAD_REACTORS
330
9F9
102
}
330
1E
100
AcDbEntity
  8
0
100
AcDbLine
 10
74.51752600233556
 20
30.61723504067353
 30
0.0
 11
74.63563623633547
 21
30.61723504067353
 31
0.0
  0
LINE
  5
3CC
102
{ACAD_REACTORS
330
9F9
102
}
330
1E
100
AcDbEntity
  8
0
100
AcDbLine
 10
74.67500631433551
 20
30.45975472867357
 30
0.0
 11
74.67500631433551
 21
30.30227441667361
 31
0.0
  0
LINE
  5
3CD
102
{ACAD_REACTORS
330
9F9
102
}
330
1E
100
AcDbEntity
  8
0
100
AcDbLine
 10
74.79311654833543
 20
30.53849488467344
 30
0.0
 11
74.79311654833543
 21
30.45975472867357
 31
0.0
  0
LINE
  5
3CE
102
{ACAD_REACTORS
330
9F9
102
}
330
1E
100
AcDbEntity
  8
0
100
AcDbLine
 10
75.41024252333556
 20
30.68810118107362
 30
0.0
 11
75.41024252333556
 21
30.53849488467344
 31
0.0
  0
LINE
  5
3CF
102
{ACAD_REACTORS
330
9F9
102
}
330
1E
100
AcDbEntity
  8
0
100
AcDbLine
 10
74.79311654833543
 20
30.53849488467344
 30
0.0
 11
75.54803779633551
 21
30.53849488467344
 31
0.0
  0
LINE
  5
3D0
102
{ACAD_REACTORS
330
9F9
102
}
330
1E
100
AcDbEntity
  8
0
100
AcDbLine
 10
74.67500631433551
 20
30.45975472867357
 30
0.0
 11
74.79311654833543
 21
30.45975472867357
 31
0.0
  0
LINE
  5
3D1
102
{ACAD_REACTORS
330
9F9
102
}
330
1E
100
AcDbEntity
  8
0
100
AcDbLine
 10
74.63563623633547
 20
30.68810118107362
 30
0.0
 11
75.54803779633551
 21
30.68810118107362
 31
0.0
  0
LINE
  5
3D2
102
{ACAD_REACTORS
330
9F9
102
}
330
1E
100
AcDbEntity
  8
0
100
AcDbLine
 10
73.84823467633544
 20
30.45975472867357
 30
0.0
 11
74.51752600233556
 21
30.45975472867357
 31
0.0
  0
LINE
  5
3D3
330
1E
100
AcDbEntity
  8
0
100
AcDbLine
 10
75.67303779633551
 20
30.93219566467345
 30
0.0
 11
75.67303779633551
 21
30.53849488467344
 31
0.0
  0
LINE
  5
3D4
330
1E
100
AcDbEntity
  8
0
100
AcDbLine
 10
75.54803779633551
 20
30.53849488467344
 30
0.0
 11
75.67303779633551
 21
30.53849488467344
 31
0.0
  0
LINE
  5
3D5
330
1E
100
AcDbEntity
  8
0
100
AcDbLine
 10
75.55052185033523
 20
17.94006992467333
 30
0.0
 11
75.55052185033523
 21
15.79636914467333
 31
0.0
  0
LINE
  5
3D6
330
1E
100
AcDbEntity
  8
0
100
AcDbLine
 10
83.94365406233536
 20
46.92670821667351
 30
0.0
 11
83.94365406233536
 21
46.55170821667351
 31
0.0
  0
LINE
  5
3D7
330
1E
100
AcDbEntity
  8
0
100
AcDbLine
 10
83.94365406233536
 20
46.55170821667351
 30
0.0
 11
84.06865406233535
 21
46.55170821667351
 31
0.0
  0
LINE
  5
3D8
330
1E
100
AcDbEntity
  8
0
100
AcDbLine
 10
83.94365406233536
 20
46.92670821667351
 30
0.0
 11
84.06865406233535
 21
46.92670821667351
 31
0.0
  0
LINE
  5
3D9
330
1E
100
AcDbEntity
  8
0
100
AcDbLine
 10
83.94365406233536
 20
40.42833518467349
 30
0.0
 11
83.94365406233536
 21
40.0533351846735
 31
0.0
  0
LINE
  5
3DA
330
1E
100
AcDbEntity
  8
0
100
AcDbLine
 10
83.94365406233536
 20
40.42833518467349
 30
0.0
 11
84.06865406233535
 21
40.42833518467349
 31
0.0
  0
LINE
  5
3DB
330
1E
100
AcDbEntity
  8
0
100
AcDbLine
 10
83.94365406233536
 20
40.0533351846735
 30
0.0
 11
84.06865406233535
 21
40.0533351846735
 31
0.0
  0
LINE
  5
3DC
330
1E
100
AcDbEntity
  8
0
100
AcDbLine
 10
83.94365406233537
 20
33.84757550467348
 30
0.0
 11
84.06865406233539
 21
33.84757550467348
 31
0.0
  0
LINE
  5
3DD
330
1E
100
AcDbEntity
  8
0
100
AcDbLine
 10
83.94365406233537
 20
34.22257550467348
 30
0.0
 11
84.06865406233539
 21
34.22257550467348
 31
0.0
  0
LINE
  5
3DE
330
1E
100
AcDbEntity
  8
0
100
AcDbLine
 10
83.94365406233537
 20
34.22257550467348
 30
0.0
 11
83.94365406233537
 21
33.84757550467348
 31
0.0
  0
LINE
  5
3DF
330
1E
100
AcDbEntity
  8
0
100
AcDbLine
 10
85.09897483233542
 20
46.28919566467347
 30
0.0
 11
85.09897483233542
 21
45.69919566467347
 31
0.0
  0
LINE
  5
3E0
330
1E
100
AcDbEntity
  8
0
100
AcDbLine
 10
85.05197483233542
 20
46.28919566467347
 30
0.0
 11
85.09897483233542
 21
46.28919566467347
 31
0.0
  0
LINE
  5
3E1
330
1E
100
AcDbEntity
  8
0
100
AcDbLine
 10
85.05197483233542
 20
45.69919566467347
 30
0.0
 11
85.09897483233542
 21
45.69919566467347
 31
0.0
  0
LINE
  5
3E2
330
1E
100
AcDbEntity
  8
0
100
AcDbLine
 10
85.05197483233542
 20
35.72469566467346
 30
0.0
 11
85.09897483233542
 21
35.72469566467346
 31
0.0
  0
LINE
  5
3E3
330
1E
100
AcDbEntity
  8
0
100
AcDbLine
 10
85.05197483233542
 20
36.31469566467346
 30
0.0
 11
85.09897483233542
 21
36.31469566467346
 31
0.0
  0
LINE
  5
3E4
330
1E
100
AcDbEntity
  8
0
100
AcDbLine
 10
85.09897483233542
 20
36.31469566467346
 30
0.0
 11
85.09897483233542
 21
35.72469566467346
 31
0.0
  0
LINE
  5
3E5
330
1E
100
AcDbEntity
  8
0
100
AcDbLine
 10
45.08928757708818
 20
53.12752721786162
 30
0.0
 11
45.08928757708818
 21
53.20626737386172
 31
0.0
  0
LINE
  5
3E6
330
1E
100
AcDbEntity
  8
0
100
AcDbLine
 10
43.98692539308822
 20
53.12752721786162
 30
0.0
 11
43.98692539308822
 21
53.20626737386172
 31
0.0
  0
LINE
  5
3E7
330
1E
100
AcDbEntity
  8
0
100
AcDbLine
 10
43.98692539308822
 20
53.12752721786162
 30
0.0
 11
45.08928757708818
 21
53.12752721786162
 31
0.0
  0
LINE
  5
3E8
330
1E
100
AcDbEntity
  8
0
100
AcDbLine
 10
53.4357441130884
 20
53.12752721786162
 30
0.0
 11
53.4357441130884
 21
53.20626737386172
 31
0.0
  0
LINE
  5
3E9
330
1E
100
AcDbEntity
  8
0
100
AcDbLine
 10
54.53810629708836
 20
53.12752721786162
 30
0.0
 11
54.53810629708836
 21
53.20626737386172
 31
0.0
  0
LINE
  5
3EA
330
1E
100
AcDbEntity
  8
0
100
AcDbLine
 10
54.53810629708836
 20
53.12752721786162
 30
0.0
 11
53.4357441130884
 21
53.12752721786162
 31
0.0
  0
LINE
  5
3EB
330
1E
100
AcDbEntity
  8
0
100
AcDbLine
 10
66.05374175708835
 20
63.22294660386186
 30
0.0
 11
66.05374175708835
 21
63.34794660386186
 31
0.0
  0
LINE
  5
3EC
330
1E
100
AcDbEntity
  8
0
100
AcDbLine
 10
65.67874175708834
 20
63.22294660386186
 30
0.0
 11
65.67874175708834
 21
63.34794660386186
 31
0.0
  0
LINE
  5
3ED
330
1E
100
AcDbEntity
  8
0
100
AcDbLine
 10
65.67874175708834
 20
63.22294660386186
 30
0.0
 11
66.05374175708835
 21
63.22294660386186
 31
0.0
  0
LINE
  5
3EE
330
1E
100
AcDbEntity
  8
0
100
AcDbLine
 10
59.94813832508836
 20
63.22294660386186
 30
0.0
 11
59.94813832508836
 21
63.34794660386186
 31
0.0
  0
LINE
  5
3EF
330
1E
100
AcDbEntity
  8
0
100
AcDbLine
 10
59.57313832508837
 20
63.22294660386186
 30
0.0
 11
59.57313832508837
 21
63.34794660386186
 31
0.0
  0
LINE
  5
3F0
330
1E
100
AcDbEntity
  8
0
100
AcDbLine
 10
59.57313832508837
 20
63.22294660386186
 30
0.0
 11
59.94813832508836
 21
63.22294660386186
 31
0.0
  0
LINE
  5
3F1
330
1E
100
AcDbEntity
  8
0
100
AcDbLine
 10
53.79942520508838
 20
63.22294660386186
 30
0.0
 11
54.17442520508839
 21
63.22294660386186
 31
0.0
  0
LINE
  5
3F2
330
1E
100
AcDbEntity
  8
0
100
AcDbLine
 10
53.79942520508838
 20
63.22294660386186
 30
0.0
 11
53.79942520508838
 21
63.34794660386186
 31
0.0
  0
LINE
  5
3F3
330
1E
100
AcDbEntity
  8
0
100
AcDbLine
 10
54.17442520508839
 20
63.22294660386186
 30
0.0
 11
54.17442520508839
 21
63.34794660386186
 31
0.0
  0
LINE
  5
3F4
330
1E
100
AcDbEntity
  8
0
100
AcDbLine
 10
48.40071208508838
 20
63.22294660386186
 30
0.0
 11
48.02571208508839
 21
63.22294660386186
 31
0.0
  0
LINE
  5
3F5
330
1E
100
AcDbEntity
  8
0
100
AcDbLine
 10
48.40071208508838
 20
63.22294660386186
 30
0.0
 11
48.40071208508838
 21
63.34794660386186
 31
0.0
  0
LINE
  5
3F6
330
1E
100
AcDbEntity
  8
0
100
AcDbLine
 10
48.02571208508839
 20
63.22294660386186
 30
0.0
 11
48.02571208508839
 21
63.34794660386186
 31
0.0
  0
LINE
  5
3F7
330
1E
100
AcDbEntity
  8
0
100
AcDbLine
 10
41.9201086530884
 20
63.22294660386186
 30
0.0
 11
41.9201086530884
 21
63.34794660386186
 31
0.0
  0
LINE
  5
3F8
330
1E
100
AcDbEntity
  8
0
100
AcDbLine
 10
42.2951086530884
 20
63.22294660386186
 30
0.0
 11
42.2951086530884
 21
63.34794660386186
 31
0.0
  0
LINE
  5
3F9
330
1E
100
AcDbEntity
  8
0
100
AcDbLine
 10
42.2951086530884
 20
63.22294660386186
 30
0.0
 11
41.9201086530884
 21
63.22294660386186
 31
0.0
  0
LINE
  5
3FA
330
1E
100
AcDbEntity
  8
0
100
AcDbLine
 10
65.38342520508837
 20
64.33126737386174
 30
0.0
 11
65.38342520508837
 21
64.37826737386174
 31
0.0
  0
LINE
  5
3FB
330
1E
100
AcDbEntity
  8
0
100
AcDbLine
 10
64.79342520508836
 20
64.33126737386174
 30
0.0
 11
64.79342520508836
 21
64.37826737386174
 31
0.0
  0
LINE
  5
3FC
330
1E
100
AcDbEntity
  8
0
100
AcDbLine
 10
64.79342520508836
 20
64.37826737386174
 30
0.0
 11
65.38342520508837
 21
64.37826737386174
 31
0.0
  0
LINE
  5
3FD
330
1E
100
AcDbEntity
  8
0
100
AcDbLine
 10
57.15692520508838
 20
64.33126737386174
 30
0.0
 11
57.15692520508838
 21
64.37826737386174
 31
0.0
  0
LINE
  5
3FE
330
1E
100
AcDbEntity
  8
0
100
AcDbLine
 10
56.56692520508838
 20
64.33126737386174
 30
0.0
 11
56.56692520508838
 21
64.37826737386174
 31
0.0
  0
LINE
  5
3FF
330
1E
100
AcDbEntity
  8
0
100
AcDbLine
 10
56.56692520508838
 20
64.37826737386174
 30
0.0
 11
57.15692520508838
 21
64.37826737386174
 31
0.0
  0
LINE
  5
400
330
1E
100
AcDbEntity
  8
0
100
AcDbLine
 10
51.40692520508839
 20
64.37826737386174
 30
0.0
 11
50.81692520508838
 21
64.37826737386174
 31
0.0
  0
LINE
  5
401
330
1E
100
AcDbEntity
  8
0
100
AcDbLine
 10
51.40692520508839
 20
64.33126737386174
 30
0.0
 11
51.40692520508839
 21
64.37826737386174
 31
0.0
  0
LINE
  5
402
330
1E
100
AcDbEntity
  8
0
100
AcDbLine
 10
50.81692520508838
 20
64.33126737386174
 30
0.0
 11
50.81692520508838
 21
64.37826737386174
 31
0.0
  0
LINE
  5
403
330
1E
100
AcDbEntity
  8
0
100
AcDbLine
 10
42.59042520508837
 20
64.33126737386174
 30
0.0
 11
42.59042520508837
 21
64.37826737386174
 31
0.0
  0
LINE
  5
404
330
1E
100
AcDbEntity
  8
0
100
AcDbLine
 10
43.18042520508838
 20
64.33126737386174
 30
0.0
 11
43.18042520508838
 21
64.37826737386174
 31
0.0
  0
LINE
  5
405
330
1E
100
AcDbEntity
  8
0
100
AcDbLine
 10
43.18042520508838
 20
64.37826737386174
 30
0.0
 11
42.59042520508837
 21
64.37826737386174
 31
0.0
  0
LINE
  5
406
330
1E
100
AcDbEntity
  8
0
100
AcDbLine
 10
85.09897483233542
 20
25.54969566467346
 30
0.0
 11
85.09897483233542
 21
26.13969566467346
 31
0.0
  0
LINE
  5
407
330
1E
100
AcDbEntity
  8
0
100
AcDbLine
 10
85.05197483233542
 20
25.54969566467346
 30
0.0
 11
85.09897483233542
 21
25.54969566467346
 31
0.0
  0
LINE
  5
408
330
1E
100
AcDbEntity
  8
0
100
AcDbLine
 10
85.05197483233542
 20
26.13969566467346
 30
0.0
 11
85.09897483233542
 21
26.13969566467346
 31
0.0
  0
LINE
  5
409
330
1E
100
AcDbEntity
  8
0
100
AcDbLine
 10
85.05197483233542
 20
16.16519566467346
 30
0.0
 11
85.09897483233542
 21
16.16519566467346
 31
0.0
  0
LINE
  5
40A
330
1E
100
AcDbEntity
  8
0
100
AcDbLine
 10
85.05197483233542
 20
15.57519566467346
 30
0.0
 11
85.09897483233542
 21
15.57519566467346
 31
0.0
  0
LINE
  5
40B
330
1E
100
AcDbEntity
  8
0
100
AcDbLine
 10
85.09897483233542
 20
15.57519566467346
 30
0.0
 11
85.09897483233542
 21
16.16519566467346
 31
0.0
  0
LINE
  5
40C
330
1E
100
AcDbEntity
  8
0
100
AcDbLine
 10
84.46142366233539
 20
15.60543293609838
 30
0.0
 11
84.46142366233539
 21
16.13495839324853
 31
0.0
  0
ARC
  5
40D
330
1E
100
AcDbEntity
  8
0
100
AcDbCircle
 10
84.50079374033538
 20
15.60543293609838
 30
0.0
 40
0.039370078
100
AcDbArc
 50
180.0
 51
261.4692343900514
  0
LINE
  5
40E
330
1E
100
AcDbEntity
  8
0
100
AcDbLine
 10
84.85512444233538
 20
15.51247280316873
 30
0.0
 11
84.49495356513299
 21
15.56649843474895
 31
0.0
  0
ARC
  5
40F
330
1E
100
AcDbEntity
  8
0
100
AcDbCircle
 10
84.50079374033538
 20
16.1281740742388
 30
0.0
 40
0.039370078
100
AcDbArc
 50
98.53076560994852
 51
180.0
  0
LINE
  5
410
330
1E
100
AcDbEntity
  8
0
100
AcDbLine
 10
84.85512444233538
 20
16.22113420716867
 30
0.0
 11
84.49495356513295
 21
16.16710857558824
 31
0.0
  0
LINE
  5
411
330
1E
100
AcDbEntity
  8
0
100
AcDbLine
 10
84.85512444233538
 20
15.51093611207338
 30
0.0
 11
84.85512444233538
 21
16.69991246767345
 31
0.0
  0
LINE
  5
412
330
1E
100
AcDbEntity
  8
0
100
AcDbLine
 10
85.05197483233542
 20
15.06605423067331
 30
0.0
 11
85.05197483233542
 21
25.54969566467346
 31
0.0
  0
LINE
  5
413
330
1E
100
AcDbEntity
  8
0
100
AcDbLine
 10
84.85512444233538
 20
25.48697280316874
 30
0.0
 11
84.49495356513299
 21
25.54099843474896
 31
0.0
  0
LINE
  5
414
330
1E
100
AcDbEntity
  8
0
100
AcDbLine
 10
84.54897483233542
 20
25.74469566467346
 30
0.0
 11
84.54897483233542
 21
25.94469566467347
 31
0.0
  0
LINE
  5
415
330
1E
100
AcDbEntity
  8
0
100
AcDbLine
 10
84.85512444233538
 20
26.19563420716868
 30
0.0
 11
84.49495356513295
 21
26.14160857558825
 31
0.0
  0
ARC
  5
416
330
1E
100
AcDbEntity
  8
0
100
AcDbCircle
 10
84.50079374033538
 20
26.1026740742388
 30
0.0
 40
0.039370078
100
AcDbArc
 50
98.53076560994852
 51
180.0
  0
ARC
  5
417
330
1E
100
AcDbEntity
  8
0
100
AcDbCircle
 10
84.50079374033538
 20
25.57993293609838
 30
0.0
 40
0.039370078
100
AcDbArc
 50
180.0
 51
261.4692343900514
  0
LINE
  5
418
330
1E
100
AcDbEntity
  8
0
100
AcDbLine
 10
84.46142366233539
 20
25.57993293609838
 30
0.0
 11
84.46142366233539
 21
26.10945839324854
 31
0.0
  0
LINE
  5
419
330
1E
100
AcDbEntity
  8
0
100
AcDbLine
 10
85.09897483233542
 20
25.74469566467346
 30
0.0
 11
84.54897483233542
 21
25.74469566467346
 31
0.0
  0
LINE
  5
41A
330
1E
100
AcDbEntity
  8
0
100
AcDbLine
 10
85.09897483233542
 20
25.94469566467347
 30
0.0
 11
84.54897483233542
 21
25.94469566467347
 31
0.0
  0
LINE
  5
41B
330
1E
100
AcDbEntity
  8
0
100
AcDbLine
 10
84.77638428633538
 20
26.18382318376866
 30
0.0
 11
84.7763842863354
 21
28.61777992656886
 31
0.0
  0
LINE
  5
41C
330
1E
100
AcDbEntity
  8
0
100
AcDbLine
 10
84.85512444233538
 20
26.19563420716868
 30
0.0
 11
84.85512444233538
 21
28.60596890316888
 31
0.0
  0
LINE
  5
41D
330
1E
100
AcDbEntity
  8
0
100
AcDbLine
 10
85.05197483233542
 20
26.13969566467346
 30
0.0
 11
85.05197483233542
 21
30.93219566467347
 31
0.0
  0
LINE
  5
41E
330
1E
100
AcDbEntity
  8
0
100
AcDbLine
 10
30.72519720021409
 20
14.90719598467339
 30
0.0
 11
18.82427832021409
 21
14.90719598467339
 31
0.0
  0
LINE
  5
41F
330
1E
100
AcDbEntity
  8
0
100
AcDbLine
 10
30.41098152021408
 20
15.22141166467358
 30
0.0
 11
18.82427832021409
 21
15.22141166467358
 31
0.0
  0
CIRCLE
  5
420
330
1E
100
AcDbEntity
  8
0
100
AcDbCircle
 10
30.70359487221407
 20
15.12518311267341
 30
0.0
 40
0.1875
  0
LINE
  5
421
330
1E
100
AcDbEntity
  8
0
100
AcDbLine
 10
30.9215820002141
 20
30.93219566467347
 30
0.0
 11
30.9215820002141
 21
15.10358078467342
 31
0.0
  0
ARC
  5
422
330
1E
100
AcDbEntity
  8
0
100
AcDbCircle
 10
30.41098152021408
 20
15.41779646467338
 30
0.0
 40
0.1963848
100
AcDbArc
 50
270.0
 51
0.0
  0
ARC
  5
423
330
1E
100
AcDbEntity
  8
0
100
AcDbCircle
 10
30.72519720021409
 20
15.10358078467342
 30
0.0
 40
0.1963848
100
AcDbArc
 50
270.0
 51
0.0
  0
LINE
  5
424
330
1E
100
AcDbEntity
  8
0
100
AcDbLine
 10
30.60736632021408
 20
30.93219566467347
 30
0.0
 11
30.60736632021408
 21
15.41779646467338
 31
0.0
  0
ARC
  5
425
330
1E
100
AcDbEntity
  8
0
100
AcDbCircle
 10
30.70359487221407
 20
21.62355614467343
 30
0.0
 40
0.1875
100
AcDbArc
 50
239.1215191374124
 51
120.8784808625875
  0
ARC
  5
426
330
1E
100
AcDbEntity
  8
0
100
AcDbCircle
 10
30.70359487221409
 20
27.82931582467345
 30
0.0
 40
0.1875
100
AcDbArc
 50
239.1215191374016
 51
120.8784808625982
  0
ARC
  5
427
330
1E
100
AcDbEntity
  8
0
100
AcDbCircle
 10
30.70359487221409
 20
34.03507550467348
 30
0.0
 40
0.1875
100
AcDbArc
 50
239.1215191374016
 51
120.8784808625982
  0
LINE
  5
428
330
1E
100
AcDbEntity
  8
0
100
AcDbLine
 10
30.60736632021408
 20
30.93219566467347
 30
0.0
 11
30.60736632021408
 21
46.44659486467353
 31
0.0
  0
LINE
  5
429
330
1E
100
AcDbEntity
  8
0
100
AcDbLine
 10
30.9215820002141
 20
30.93219566467347
 30
0.0
 11
30.9215820002141
 21
46.76081054467348
 31
0.0
  0
ARC
  5
42A
330
1E
100
AcDbEntity
  8
0
100
AcDbCircle
 10
30.70359487221407
 20
40.2408351846735
 30
0.0
 40
0.1875
100
AcDbArc
 50
239.1215191374124
 51
120.8784808625874
  0
ARC
  5
42B
330
1E
100
AcDbEntity
  8
0
100
AcDbCircle
 10
6.944961768214113
 20
21.62355614467343
 30
0.0
 40
0.1875
100
AcDbArc
 50
59.12151913741249
 51
300.8784808625875
  0
ARC
  5
42C
330
1E
100
AcDbEntity
  8
0
100
AcDbCircle
 10
6.944961768214085
 20
27.82931582467345
 30
0.0
 40
0.1875
100
AcDbArc
 50
59.12151913740171
 51
300.8784808625982
  0
ARC
  5
42D
330
1E
100
AcDbEntity
  8
0
100
AcDbCircle
 10
6.944961768214085
 20
34.03507550467348
 30
0.0
 40
0.1875
100
AcDbArc
 50
59.12151913740171
 51
300.8784808625982
  0
ARC
  5
42E
330
1E
100
AcDbEntity
  8
0
100
AcDbCircle
 10
6.944961768214113
 20
40.2408351846735
 30
0.0
 40
0.1875
100
AcDbArc
 50
59.12151913741252
 51
300.8784808625875
  0
ARC
  5
42F
330
1E
100
AcDbEntity
  8
0
100
AcDbCircle
 10
13.05056520021409
 20
15.12518311267341
 30
0.0
 40
0.1875
100
AcDbArc
 50
149.1215191374221
 51
30.87848086257778
  0
CIRCLE
  5
430
330
1E
100
AcDbEntity
  8
0
100
AcDbCircle
 10
6.944961768214085
 20
15.12518311267341
 30
0.0
 40
0.1875
  0
ARC
  5
431
330
1E
100
AcDbEntity
  8
0
100
AcDbCircle
 10
6.923359440214085
 20
15.10358078467342
 30
0.0
 40
0.1963848
100
AcDbArc
 50
180.0
 51
270.0
  0
LINE
  5
432
330
1E
100
AcDbEntity
  8
0
100
AcDbLine
 10
6.923359440214085
 20
14.90719598467339
 30
0.0
 11
18.82427832021409
 21
14.90719598467339
 31
0.0
  0
LINE
  5
433
330
1E
100
AcDbEntity
  8
0
100
AcDbLine
 10
6.726974640214081
 20
30.93219566467347
 30
0.0
 11
6.726974640214081
 21
15.10358078467342
 31
0.0
  0
LINE
  5
434
330
1E
100
AcDbEntity
  8
0
100
AcDbLine
 10
7.237575120214103
 20
15.22141166467358
 30
0.0
 11
18.82427832021409
 21
15.22141166467358
 31
0.0
  0
LINE
  5
435
330
1E
100
AcDbEntity
  8
0
100
AcDbLine
 10
7.041190320214099
 20
30.93219566467347
 30
0.0
 11
7.041190320214099
 21
15.41779646467338
 31
0.0
  0
ARC
  5
436
330
1E
100
AcDbEntity
  8
0
100
AcDbCircle
 10
7.237575120214103
 20
15.41779646467338
 30
0.0
 40
0.1963848
100
AcDbArc
 50
180.0
 51
270.0
  0
LINE
  5
437
330
1E
100
AcDbEntity
  8
0
100
AcDbLine
 10
6.726974640214081
 20
30.93219566467347
 30
0.0
 11
6.726974640214081
 21
46.76081054467348
 31
0.0
  0
CIRCLE
  5
438
330
1E
100
AcDbEntity
  8
0
100
AcDbCircle
 10
6.944961768214085
 20
46.73920821667351
 30
0.0
 40
0.1875
  0
ARC
  5
439
330
1E
100
AcDbEntity
  8
0
100
AcDbCircle
 10
7.237575120214103
 20
46.44659486467353
 30
0.0
 40
0.1963848
100
AcDbArc
 50
90.0
 51
180.0
  0
ARC
  5
43A
330
1E
100
AcDbEntity
  8
0
100
AcDbCircle
 10
6.923359440214085
 20
46.76081054467348
 30
0.0
 40
0.1963848
100
AcDbArc
 50
90.0
 51
180.0
  0
LINE
  5
43B
330
1E
100
AcDbEntity
  8
0
100
AcDbLine
 10
6.923359440214085
 20
46.95719534467352
 30
0.0
 11
18.82427832021409
 21
46.95719534467352
 31
0.0
  0
LINE
  5
43C
330
1E
100
AcDbEntity
  8
0
100
AcDbLine
 10
7.237575120214103
 20
46.64297966467356
 30
0.0
 11
18.82427832021409
 21
46.64297966467356
 31
0.0
  0
LINE
  5
43D
330
1E
100
AcDbEntity
  8
0
100
AcDbLine
 10
7.041190320214099
 20
30.93219566467347
 30
0.0
 11
7.041190320214099
 21
46.44659486467353
 31
0.0
  0
ARC
  5
43E
330
1E
100
AcDbEntity
  8
0
100
AcDbCircle
 10
13.05056520021409
 20
46.73920821667351
 30
0.0
 40
0.1875
100
AcDbArc
 50
329.1215191374222
 51
210.8784808625778
  0
ARC
  5
43F
330
1E
100
AcDbEntity
  8
0
100
AcDbCircle
 10
18.82427832021409
 20
46.73920821667351
 30
0.0
 40
0.1875
100
AcDbArc
 50
329.1215191374222
 51
210.8784808625778
  0
ARC
  5
440
330
1E
100
AcDbEntity
  8
0
100
AcDbCircle
 10
24.59799144021408
 20
46.73920821667351
 30
0.0
 40
0.1875
100
AcDbArc
 50
329.1215191374222
 51
210.8784808625778
  0
LINE
  5
441
330
1E
100
AcDbEntity
  8
0
100
AcDbLine
 10
30.41098152021408
 20
46.64297966467356
 30
0.0
 11
18.82427832021409
 21
46.64297966467356
 31
0.0
  0
LINE
  5
442
330
1E
100
AcDbEntity
  8
0
100
AcDbLine
 10
30.72519720021409
 20
46.95719534467352
 30
0.0
 11
18.82427832021409
 21
46.95719534467352
 31
0.0
  0
CIRCLE
  5
443
330
1E
100
AcDbEntity
  8
0
100
AcDbCircle
 10
30.70359487221407
 20
46.73920821667351
 30
0.0
 40
0.1875
  0
ARC
  5
444
330
1E
100
AcDbEntity
  8
0
100
AcDbCircle
 10
30.72519720021409
 20
46.76081054467348
 30
0.0
 40
0.1963848
100
AcDbArc
 50
0.0
 51
90.0
  0
ARC
  5
445
330
1E
100
AcDbEntity
  8
0
100
AcDbCircle
 10
30.41098152021408
 20
46.44659486467353
 30
0.0
 40
0.1963848
100
AcDbArc
 50
0.0
 51
90.0
  0
LINE
  5
446
330
1E
100
AcDbEntity
  8
0
  6
CENTER
100
AcDbLine
 10
18.82427832021409
 20
14.78794622047556
 30
0.0
 11
18.82427832021409
 21
47.01234536291176
 31
0.0
  0
LINE
  5
447
330
1E
100
AcDbEntity
  8
0
  6
CENTER
100
AcDbLine
 10
6.439747823984873
 20
30.93219566467347
 30
0.0
 11
31.05953677601021
 21
30.93219566467347
 31
0.0
  0
LINE
  5
448
330
1E
100
AcDbEntity
  8
0
100
AcDbLine
 10
7.347707295184136
 20
15.52792863964359
 30
0.0
 11
18.82427832021409
 21
15.52792863964359
 31
0.0
  0
LINE
  5
449
330
1E
100
AcDbEntity
  8
0
100
AcDbLine
 10
7.389804214036757
 20
15.57002555849621
 30
0.0
 11
18.82427832021409
 21
15.57002555849621
 31
0.0
  0
LINE
  5
44A
330
1E
100
AcDbEntity
  8
0
100
AcDbLine
 10
8.653372496100246
 20
16.42118576055972
 30
0.0
 11
18.82427832021409
 21
16.42118576055972
 31
0.0
  0
LINE
  5
44B
330
1E
100
AcDbEntity
  8
0
100
AcDbLine
 10
8.653372496100246
 20
16.63302560707356
 30
0.0
 11
18.82427832021409
 21
16.63302560707356
 31
0.0
  0
LINE
  5
44C
330
1E
100
AcDbEntity
  8
0
100
AcDbLine
 10
8.653372496100246
 20
16.43661089394149
 30
0.0
 11
18.82427832021409
 21
16.43661089394149
 31
0.0
  0
LINE
  5
44D
330
1E
100
AcDbEntity
  8
0
100
AcDbLine
 10
7.392516626672261
 20
15.37635317113162
 30
0.0
 11
18.82427832021409
 21
15.37635317113162
 31
0.0
  0
ARC
  5
44E
330
1E
100
AcDbEntity
  8
0
100
AcDbCircle
 10
8.653372496100246
 20
16.8335938405597
 30
0.0
 40
0.2005682334861536
100
AcDbArc
 50
180.0
 51
270.0
  0
ARC
  5
44F
330
1E
100
AcDbEntity
  8
0
100
AcDbCircle
 10
8.653372496100246
 20
16.8335938405597
 30
0.0
 40
0.41240808
100
AcDbArc
 50
180.0
 51
270.0
  0
ARC
  5
450
330
1E
100
AcDbEntity
  8
0
100
AcDbCircle
 10
8.653372496100246
 20
16.8335938405597
 30
0.0
 40
0.3969829466181802
100
AcDbArc
 50
180.0
 51
270.0
  0
ARC
  5
451
330
1E
100
AcDbEntity
  8
0
100
AcDbCircle
 10
7.392516626672261
 20
15.57273797113166
 30
0.0
 40
0.1963848
100
AcDbArc
 50
180.0
 51
270.0
  0
ARC
  5
452
330
1E
100
AcDbEntity
  8
0
100
AcDbCircle
 10
28.99518414432793
 20
16.8335938405597
 30
0.0
 40
0.2005682334861536
100
AcDbArc
 50
270.0
 51
0.0
  0
ARC
  5
453
330
1E
100
AcDbEntity
  8
0
100
AcDbCircle
 10
28.99518414432793
 20
16.8335938405597
 30
0.0
 40
0.3969829466181802
100
AcDbArc
 50
270.0
 51
0.0
  0
ARC
  5
454
330
1E
100
AcDbEntity
  8
0
100
AcDbCircle
 10
28.99518414432793
 20
16.8335938405597
 30
0.0
 40
0.41240808
100
AcDbArc
 50
270.0
 51
0.0
  0
ARC
  5
455
330
1E
100
AcDbEntity
  8
0
100
AcDbCircle
 10
30.25604001375592
 20
15.57273797113166
 30
0.0
 40
0.1963848
100
AcDbArc
 50
270.0
 51
0.0
  0
LINE
  5
456
330
1E
100
AcDbEntity
  8
0
100
AcDbLine
 10
30.25604001375592
 20
15.37635317113162
 30
0.0
 11
18.82427832021409
 21
15.37635317113162
 31
0.0
  0
LINE
  5
457
330
1E
100
AcDbEntity
  8
0
100
AcDbLine
 10
28.99518414432793
 20
16.43661089394149
 30
0.0
 11
18.82427832021409
 21
16.43661089394149
 31
0.0
  0
LINE
  5
458
330
1E
100
AcDbEntity
  8
0
100
AcDbLine
 10
28.99518414432793
 20
16.63302560707356
 30
0.0
 11
18.82427832021409
 21
16.63302560707356
 31
0.0
  0
LINE
  5
459
330
1E
100
AcDbEntity
  8
0
100
AcDbLine
 10
28.99518414432793
 20
16.42118576055972
 30
0.0
 11
18.82427832021409
 21
16.42118576055972
 31
0.0
  0
LINE
  5
45A
330
1E
100
AcDbEntity
  8
0
100
AcDbLine
 10
30.25875242639142
 20
15.57002555849621
 30
0.0
 11
18.82427832021409
 21
15.57002555849621
 31
0.0
  0
LINE
  5
45B
330
1E
100
AcDbEntity
  8
0
100
AcDbLine
 10
30.30084934524399
 20
15.52792863964359
 30
0.0
 11
18.82427832021409
 21
15.52792863964359
 31
0.0
  0
LINE
  5
45C
330
1E
100
AcDbEntity
  8
0
100
AcDbLine
 10
30.25875242639142
 20
19.54187726467338
 30
0.0
 11
29.40759222432797
 21
19.54187726467338
 31
0.0
  0
CIRCLE
  5
45D
330
1E
100
AcDbEntity
  8
0
100
AcDbCircle
 10
29.84146560021412
 20
19.24730006467356
 30
0.0
 40
0.062843136
  0
CIRCLE
  5
45E
330
1E
100
AcDbEntity
  8
0
100
AcDbCircle
 10
29.84146560021412
 20
17.83332950467351
 30
0.0
 40
0.062843136
  0
LINE
  5
45F
330
1E
100
AcDbEntity
  8
0
100
AcDbLine
 10
30.25875242639142
 20
17.53875230467346
 30
0.0
 11
29.40759222432797
 21
17.53875230467346
 31
0.0
  0
LINE
  5
460
330
1E
100
AcDbEntity
  8
0
100
AcDbLine
 10
29.19575237781407
 20
45.03079748878744
 30
0.0
 11
29.19575237781407
 21
30.93219566467347
 31
0.0
  0
LINE
  5
461
330
1E
100
AcDbEntity
  8
0
100
AcDbLine
 10
29.39216709094608
 20
45.03079748878744
 30
0.0
 11
29.39216709094608
 21
30.93219566467347
 31
0.0
  0
LINE
  5
462
330
1E
100
AcDbEntity
  8
0
100
AcDbLine
 10
29.40759222432791
 20
45.03079748878744
 30
0.0
 11
29.40759222432791
 21
30.93219566467347
 31
0.0
  0
LINE
  5
463
330
1E
100
AcDbEntity
  8
0
100
AcDbLine
 10
30.4524248137559
 20
46.29165335821525
 30
0.0
 11
30.4524248137559
 21
30.93219566467347
 31
0.0
  0
LINE
  5
464
330
1E
100
AcDbEntity
  8
0
100
AcDbLine
 10
30.30084934524399
 20
46.33646268970332
 30
0.0
 11
30.30084934524399
 21
30.93219566467347
 31
0.0
  0
LINE
  5
465
330
1E
100
AcDbEntity
  8
0
100
AcDbLine
 10
30.25875242639148
 20
46.29436577085093
 30
0.0
 11
30.25875242639136
 21
30.93219566467347
 31
0.0
  0
LINE
  5
466
330
1E
100
AcDbEntity
  8
0
100
AcDbLine
 10
30.25875242639148
 20
15.57002555849621
 30
0.0
 11
30.25875242639136
 21
30.93219566467347
 31
0.0
  0
LINE
  5
467
330
1E
100
AcDbEntity
  8
0
100
AcDbLine
 10
30.30084934524399
 20
15.52792863964359
 30
0.0
 11
30.30084934524399
 21
30.93219566467347
 31
0.0
  0
LINE
  5
468
330
1E
100
AcDbEntity
  8
0
100
AcDbLine
 10
30.4524248137559
 20
15.57273797113166
 30
0.0
 11
30.4524248137559
 21
30.93219566467347
 31
0.0
  0
LINE
  5
469
330
1E
100
AcDbEntity
  8
0
100
AcDbLine
 10
29.40759222432791
 20
16.8335938405597
 30
0.0
 11
29.40759222432791
 21
30.93219566467347
 31
0.0
  0
LINE
  5
46A
330
1E
100
AcDbEntity
  8
0
100
AcDbLine
 10
29.39216709094608
 20
16.8335938405597
 30
0.0
 11
29.39216709094608
 21
30.93219566467347
 31
0.0
  0
LINE
  5
46B
330
1E
100
AcDbEntity
  8
0
100
AcDbLine
 10
29.19575237781407
 20
16.8335938405597
 30
0.0
 11
29.19575237781407
 21
30.93219566467347
 31
0.0
  0
ARC
  5
46C
330
1E
100
AcDbEntity
  8
0
100
AcDbCircle
 10
30.25604001375592
 20
46.29165335821525
 30
0.0
 40
0.1963848
100
AcDbArc
 50
0.0
 51
90.0
  0
ARC
  5
46D
330
1E
100
AcDbEntity
  8
0
100
AcDbCircle
 10
28.99518414432793
 20
45.03079748878744
 30
0.0
 40
0.41240808
100
AcDbArc
 50
0.0
 51
90.0
  0
ARC
  5
46E
330
1E
100
AcDbEntity
  8
0
100
AcDbCircle
 10
28.99518414432793
 20
45.03079748878744
 30
0.0
 40
0.3969829466181802
100
AcDbArc
 50
0.0
 51
90.0
  0
ARC
  5
46F
330
1E
100
AcDbEntity
  8
0
100
AcDbCircle
 10
28.99518414432793
 20
45.03079748878744
 30
0.0
 40
0.2005682334861536
100
AcDbArc
 50
0.0
 51
90.0
  0
LINE
  5
470
330
1E
100
AcDbEntity
  8
0
100
AcDbLine
 10
8.240964416100212
 20
45.03079748878744
 30
0.0
 11
8.240964416100212
 21
30.93219566467347
 31
0.0
  0
LINE
  5
471
330
1E
100
AcDbEntity
  8
0
100
AcDbLine
 10
8.452804262614051
 20
45.03079748878744
 30
0.0
 11
8.452804262614051
 21
30.93219566467347
 31
0.0
  0
LINE
  5
472
330
1E
100
AcDbEntity
  8
0
100
AcDbLine
 10
8.256389549482037
 20
45.03079748878744
 30
0.0
 11
8.256389549482037
 21
30.93219566467347
 31
0.0
  0
LINE
  5
473
330
1E
100
AcDbEntity
  8
0
100
AcDbLine
 10
7.389804214036701
 20
46.29436577085093
 30
0.0
 11
7.389804214036757
 21
30.93219566467347
 31
0.0
  0
LINE
  5
474
330
1E
100
AcDbEntity
  8
0
100
AcDbLine
 10
7.347707295184136
 20
46.33646268970332
 30
0.0
 11
7.347707295184136
 21
30.93219566467347
 31
0.0
  0
LINE
  5
475
330
1E
100
AcDbEntity
  8
0
100
AcDbLine
 10
7.196131826672228
 20
46.29165335821525
 30
0.0
 11
7.196131826672228
 21
30.93219566467347
 31
0.0
  0
LINE
  5
476
330
1E
100
AcDbEntity
  8
0
100
AcDbLine
 10
30.25875242639142
 20
26.82775334467359
 30
0.0
 11
29.40759222432797
 21
26.82775334467359
 31
0.0
  0
CIRCLE
  5
477
330
1E
100
AcDbEntity
  8
0
100
AcDbCircle
 10
29.84146560021412
 20
25.11920558467349
 30
0.0
 40
0.062843136
  0
LINE
  5
478
330
1E
100
AcDbEntity
  8
0
100
AcDbLine
 10
30.25875242639142
 20
24.82462838467344
 30
0.0
 11
29.40759222432797
 21
24.82462838467344
 31
0.0
  0
CIRCLE
  5
479
330
1E
100
AcDbEntity
  8
0
100
AcDbCircle
 10
29.84146560021412
 20
26.53317614467354
 30
0.0
 40
0.062843136
  0
LINE
  5
47A
330
1E
100
AcDbEntity
  8
0
100
AcDbLine
 10
8.452804262614051
 20
16.8335938405597
 30
0.0
 11
8.452804262614051
 21
30.93219566467347
 31
0.0
  0
LINE
  5
47B
330
1E
100
AcDbEntity
  8
0
100
AcDbLine
 10
8.256389549482037
 20
16.8335938405597
 30
0.0
 11
8.256389549482037
 21
30.93219566467347
 31
0.0
  0
LINE
  5
47C
330
1E
100
AcDbEntity
  8
0
100
AcDbLine
 10
8.240964416100212
 20
16.8335938405597
 30
0.0
 11
8.240964416100212
 21
30.93219566467347
 31
0.0
  0
LINE
  5
47D
330
1E
100
AcDbEntity
  8
0
100
AcDbLine
 10
7.196131826672228
 20
15.57273797113166
 30
0.0
 11
7.196131826672228
 21
30.93219566467347
 31
0.0
  0
LINE
  5
47E
330
1E
100
AcDbEntity
  8
0
100
AcDbLine
 10
7.347707295184136
 20
15.52792863964359
 30
0.0
 11
7.347707295184136
 21
30.93219566467347
 31
0.0
  0
LINE
  5
47F
330
1E
100
AcDbEntity
  8
0
100
AcDbLine
 10
7.389804214036701
 20
15.57002555849621
 30
0.0
 11
7.389804214036757
 21
30.93219566467347
 31
0.0
  0
LINE
  5
480
330
1E
100
AcDbEntity
  8
0
100
AcDbLine
 10
30.25875242639142
 20
37.03976294467347
 30
0.0
 11
29.40759222432797
 21
37.03976294467347
 31
0.0
  0
CIRCLE
  5
481
330
1E
100
AcDbEntity
  8
0
100
AcDbCircle
 10
29.84146560021412
 20
36.74518574467342
 30
0.0
 40
0.062843136
  0
CIRCLE
  5
482
330
1E
100
AcDbEntity
  8
0
100
AcDbCircle
 10
29.84146560021412
 20
35.3312151846736
 30
0.0
 40
0.062843136
  0
LINE
  5
483
330
1E
100
AcDbEntity
  8
0
100
AcDbLine
 10
30.25875242639142
 20
35.03663798467356
 30
0.0
 11
29.40759222432797
 21
35.03663798467356
 31
0.0
  0
ARC
  5
484
330
1E
100
AcDbEntity
  8
0
100
AcDbCircle
 10
7.392516626672261
 20
46.29165335821525
 30
0.0
 40
0.1963848
100
AcDbArc
 50
90.0
 51
180.0
  0
ARC
  5
485
330
1E
100
AcDbEntity
  8
0
100
AcDbCircle
 10
8.653372496100246
 20
45.03079748878744
 30
0.0
 40
0.2005682334861536
100
AcDbArc
 50
90.0
 51
180.0
  0
ARC
  5
486
330
1E
100
AcDbEntity
  8
0
100
AcDbCircle
 10
8.653372496100246
 20
45.03079748878744
 30
0.0
 40
0.3969829466181802
100
AcDbArc
 50
90.0
 51
180.0
  0
ARC
  5
487
330
1E
100
AcDbEntity
  8
0
100
AcDbCircle
 10
8.653372496100246
 20
45.03079748878744
 30
0.0
 40
0.41240808
100
AcDbArc
 50
90.0
 51
180.0
  0
CIRCLE
  5
488
330
1E
100
AcDbEntity
  8
0
100
AcDbCircle
 10
29.84146560021412
 20
44.0310618246734
 30
0.0
 40
0.062843136
  0
LINE
  5
489
330
1E
100
AcDbEntity
  8
0
100
AcDbLine
 10
30.25875242639142
 20
44.32563902467345
 30
0.0
 11
29.40759222432797
 21
44.32563902467345
 31
0.0
  0
CIRCLE
  5
48A
330
1E
100
AcDbEntity
  8
0
100
AcDbCircle
 10
29.84146560021412
 20
42.61709126467358
 30
0.0
 40
0.062843136
  0
LINE
  5
48B
330
1E
100
AcDbEntity
  8
0
100
AcDbLine
 10
30.25875242639142
 20
42.32251406467352
 30
0.0
 11
29.40759222432797
 21
42.32251406467352
 31
0.0
  0
LINE
  5
48C
330
1E
100
AcDbEntity
  8
0
100
AcDbLine
 10
8.653372496100246
 20
45.23136572227357
 30
0.0
 11
18.82427832021409
 21
45.23136572227357
 31
0.0
  0
LINE
  5
48D
330
1E
100
AcDbEntity
  8
0
100
AcDbLine
 10
8.653372496100246
 20
45.42778043540542
 30
0.0
 11
18.82427832021409
 21
45.42778043540542
 31
0.0
  0
LINE
  5
48E
330
1E
100
AcDbEntity
  8
0
100
AcDbLine
 10
8.653372496100246
 20
45.44320556878742
 30
0.0
 11
18.82427832021409
 21
45.44320556878742
 31
0.0
  0
LINE
  5
48F
330
1E
100
AcDbEntity
  8
0
100
AcDbLine
 10
7.389804214036757
 20
46.29436577085093
 30
0.0
 11
18.82427832021409
 21
46.29436577085093
 31
0.0
  0
LINE
  5
490
330
1E
100
AcDbEntity
  8
0
100
AcDbLine
 10
7.347707295184136
 20
46.33646268970332
 30
0.0
 11
18.82427832021409
 21
46.33646268970332
 31
0.0
  0
LINE
  5
491
330
1E
100
AcDbEntity
  8
0
100
AcDbLine
 10
7.392516626672261
 20
46.48803815821529
 30
0.0
 11
18.82427832021409
 21
46.48803815821529
 31
0.0
  0
LINE
  5
492
330
1E
100
AcDbEntity
  8
0
100
AcDbLine
 10
30.30084934524399
 20
46.33646268970332
 30
0.0
 11
18.82427832021409
 21
46.33646268970332
 31
0.0
  0
LINE
  5
493
330
1E
100
AcDbEntity
  8
0
100
AcDbLine
 10
30.25875242639142
 20
46.29436577085093
 30
0.0
 11
18.82427832021409
 21
46.29436577085093
 31
0.0
  0
LINE
  5
494
330
1E
100
AcDbEntity
  8
0
100
AcDbLine
 10
28.99518414432793
 20
45.44320556878742
 30
0.0
 11
18.82427832021409
 21
45.44320556878742
 31
0.0
  0
LINE
  5
495
330
1E
100
AcDbEntity
  8
0
100
AcDbLine
 10
28.99518414432793
 20
45.23136572227357
 30
0.0
 11
18.82427832021409
 21
45.23136572227357
 31
0.0
  0
LINE
  5
496
330
1E
100
AcDbEntity
  8
0
100
AcDbLine
 10
28.99518414432793
 20
45.42778043540542
 30
0.0
 11
18.82427832021409
 21
45.42778043540542
 31
0.0
  0
LINE
  5
497
330
1E
100
AcDbEntity
  8
0
100
AcDbLine
 10
30.25604001375592
 20
46.48803815821529
 30
0.0
 11
18.82427832021409
 21
46.48803815821529
 31
0.0
  0
ARC
  5
498
330
1E
100
AcDbEntity
  8
0
100
AcDbCircle
 10
18.82427832021409
 20
15.12518311267341
 30
0.0
 40
0.1875
100
AcDbArc
 50
149.1215191374221
 51
30.87848086257778
  0
ARC
  5
499
330
1E
100
AcDbEntity
  8
0
100
AcDbCircle
 10
24.59799144021408
 20
15.12518311267341
 30
0.0
 40
0.1875
100
AcDbArc
 50
149.1215191374221
 51
30.87848086257778
  0
LINE
  5
49A
330
1E
100
AcDbEntity
  8
0
100
AcDbLine
 10
17.44859789080573
 20
32.99912475967345
 30
0.0
 11
9.539341525591623
 21
43.75215869440293
 31
0.0
  0
LINE
  5
49B
330
1E
100
AcDbEntity
  8
0
100
AcDbLine
 10
17.54475078521409
 20
33.20062714959964
 30
0.0
 11
9.680142539528844
 21
43.89295970834004
 31
0.0
  0
LINE
  5
49C
330
1E
100
AcDbEntity
  8
0
100
AcDbLine
 10
8.784908430214073
 20
33.24108570917575
 30
0.0
 11
8.784908430214073
 21
42.89495889517147
 31
0.0
  0
LINE
  5
49D
330
1E
100
AcDbEntity
  8
0
100
AcDbLine
 10
8.981758820214082
 20
33.24108570917575
 30
0.0
 11
8.981758820214082
 21
42.89495889517147
 31
0.0
  0
LINE
  5
49E
330
1E
100
AcDbEntity
  8
0
100
AcDbLine
 10
20.10380585521409
 20
33.20062714959964
 30
0.0
 11
20.10380585521409
 21
44.71172296467361
 31
0.0
  0
LINE
  5
49F
330
1E
100
AcDbEntity
  8
0
100
AcDbLine
 10
17.54475078521409
 20
33.20062714959964
 30
0.0
 11
17.54475078521409
 21
44.71172296467361
 31
0.0
  0
LINE
  5
4A0
330
1E
100
AcDbEntity
  8
0
100
AcDbLine
 10
20.10380585521409
 20
33.20062714959964
 30
0.0
 11
27.96841410089932
 21
43.89295970834004
 31
0.0
  0
LINE
  5
4A1
330
1E
100
AcDbEntity
  8
0
100
AcDbLine
 10
20.19995874962242
 20
32.99912475967345
 30
0.0
 11
28.10921511483654
 21
43.75215869440293
 31
0.0
  0
LINE
  5
4A2
330
1E
100
AcDbEntity
  8
0
100
AcDbLine
 10
28.66679782021405
 20
33.24108570917575
 30
0.0
 11
28.66679782021405
 21
42.89495889517147
 31
0.0
  0
LINE
  5
4A3
330
1E
100
AcDbEntity
  8
0
100
AcDbLine
 10
28.86364821021406
 20
33.24108570917575
 30
0.0
 11
28.86364821021406
 21
42.89495889517147
 31
0.0
  0
LINE
  5
4A4
330
1E
100
AcDbEntity
  8
0
100
AcDbLine
 10
27.96841410089932
 20
17.97143162100709
 30
0.0
 11
27.36151212338937
 21
17.36452964349709
 31
0.0
  0
CIRCLE
  5
4A5
330
1E
100
AcDbEntity
  8
0
  6
HIDDEN
100
AcDbCircle
 10
27.1904198952141
 20
17.05424316967364
 30
0.0
 40
0.0985
  0
CIRCLE
  5
4A6
330
1E
100
AcDbEntity
  8
0
100
AcDbCircle
 10
27.1904198952141
 20
17.05424316967364
 30
0.0
 40
0.2952755849999999
  0
CIRCLE
  5
4A7
330
1E
100
AcDbEntity
  8
0
100
AcDbCircle
 10
27.1904198952141
 20
17.05424316967364
 30
0.0
 40
0.3543307019999999
  0
LINE
  5
4A8
330
1E
100
AcDbEntity
  8
0
100
AcDbLine
 10
20.45239607571196
 20
17.15266836467375
 30
0.0
 11
20.10380585521409
 21
17.15266836467375
 31
0.0
  0
LINE
  5
4A9
330
1E
100
AcDbEntity
  8
0
100
AcDbLine
 10
20.45239607571196
 20
16.95581797467352
 30
0.0
 11
20.10380585521409
 21
16.95581797467352
 31
0.0
  0
CIRCLE
  5
4AB
330
1E
100
AcDbEntity
  8
0
100
AcDbCircle
 10
20.79278222021409
 20
17.05424316967364
 30
0.0
 40
0.3543307019999999
  0
CIRCLE
  5
4AC
330
1E
100
AcDbEntity
  8
0
100
AcDbCircle
 10
20.79278222021409
 20
17.05424316967364
 30
0.0
 40
0.2952755849999999
  0
LINE
  5
4AD
330
1E
100
AcDbEntity
  8
0
100
AcDbLine
 10
26.85003375071197
 20
16.95581797467352
 30
0.0
 11
21.13316836471622
 21
16.95581797467352
 31
0.0
  0
LINE
  5
4AE
330
1E
100
AcDbEntity
  8
0
100
AcDbLine
 10
26.85003375071197
 20
17.15266836467375
 30
0.0
 11
21.13316836471622
 21
17.15266836467375
 31
0.0
  0
CIRCLE
  5
4B0
330
1E
100
AcDbEntity
  8
0
100
AcDbCircle
 10
16.85577442021409
 20
17.05424316967364
 30
0.0
 40
0.3543307019999999
  0
CIRCLE
  5
4B1
330
1E
100
AcDbEntity
  8
0
100
AcDbCircle
 10
16.85577442021409
 20
17.05424316967364
 30
0.0
 40
0.2952755849999999
  0
LINE
  5
4B2
330
1E
100
AcDbEntity
  8
0
100
AcDbLine
 10
17.19616056471622
 20
16.95581797467352
 30
0.0
 11
17.54475078521409
 21
16.95581797467352
 31
0.0
  0
LINE
  5
4B3
330
1E
100
AcDbEntity
  8
0
100
AcDbLine
 10
17.19616056471622
 20
17.15266836467375
 30
0.0
 11
17.54475078521409
 21
17.15266836467375
 31
0.0
  0
CIRCLE
  5
4B4
330
1E
100
AcDbEntity
  8
0
100
AcDbCircle
 10
28.76522301521406
 20
18.62904628967348
 30
0.0
 40
0.2952755849999999
  0
CIRCLE
  5
4B5
330
1E
100
AcDbEntity
  8
0
100
AcDbCircle
 10
28.76522301521406
 20
18.62904628967348
 30
0.0
 40
0.3543307019999999
  0
LINE
  5
4B8
330
1E
100
AcDbEntity
  8
0
100
AcDbLine
 10
28.66679782021405
 20
29.65266812967353
 30
0.0
 11
28.66679782021405
 21
29.3040779091758
 31
0.0
  0
LINE
  5
4B9
330
1E
100
AcDbEntity
  8
0
100
AcDbLine
 10
28.86364821021406
 20
29.65266812967353
 30
0.0
 11
28.86364821021406
 21
29.3040779091758
 31
0.0
  0
CIRCLE
  5
4BA
330
1E
100
AcDbEntity
  8
0
100
AcDbCircle
 10
28.76522301521406
 20
28.96369176467361
 30
0.0
 40
0.3543307019999999
  0
CIRCLE
  5
4BB
330
1E
100
AcDbEntity
  8
0
100
AcDbCircle
 10
28.76522301521406
 20
28.96369176467361
 30
0.0
 40
0.2952755849999999
  0
LINE
  5
4BC
330
1E
100
AcDbEntity
  8
0
100
AcDbLine
 10
28.86364821021406
 20
32.21172319967364
 30
0.0
 11
28.86364821021406
 21
32.56031342017136
 31
0.0
  0
LINE
  5
4BD
330
1E
100
AcDbEntity
  8
0
100
AcDbLine
 10
28.66679782021405
 20
32.21172319967364
 30
0.0
 11
28.66679782021405
 21
32.56031342017136
 31
0.0
  0
CIRCLE
  5
4BF
330
1E
100
AcDbEntity
  8
0
100
AcDbCircle
 10
28.76522301521406
 20
32.90069956467355
 30
0.0
 40
0.3543307019999999
  0
CIRCLE
  5
4C0
330
1E
100
AcDbEntity
  8
0
100
AcDbCircle
 10
28.76522301521406
 20
32.90069956467355
 30
0.0
 40
0.2952755849999999
  0
LINE
  5
4C1
330
1E
100
AcDbEntity
  8
0
100
AcDbLine
 10
28.86364821021406
 20
28.62330562017142
 30
0.0
 11
28.86364821021406
 21
18.96943243417567
 31
0.0
  0
LINE
  5
4C2
330
1E
100
AcDbEntity
  8
0
100
AcDbLine
 10
28.66679782021405
 20
28.62330562017142
 30
0.0
 11
28.66679782021405
 21
18.96943243417567
 31
0.0
  0
LINE
  5
4C3
330
1E
100
AcDbEntity
  8
0
100
AcDbLine
 10
20.45239607571196
 20
29.06211695967373
 30
0.0
 11
20.10380585521409
 21
29.06211695967373
 31
0.0
  0
LINE
  5
4C4
330
1E
100
AcDbEntity
  8
0
100
AcDbLine
 10
20.45239607571196
 20
28.86526656967349
 30
0.0
 11
20.19995874962242
 21
28.86526656967349
 31
0.0
  0
CIRCLE
  5
4C5
330
1E
100
AcDbEntity
  8
0
100
AcDbCircle
 10
20.79278222021409
 20
28.96369176467361
 30
0.0
 40
0.1023622028
  0
LINE
  5
4C6
330
1E
100
AcDbEntity
  8
0
100
AcDbLine
 10
19.90695546521408
 20
30.93219566467347
 30
0.0
 11
19.90695546521408
 21
29.84951851967376
 31
0.0
  0
LINE
  5
4C7
330
1E
100
AcDbEntity
  8
0
100
AcDbLine
 10
20.10380585521409
 20
30.93219566467347
 30
0.0
 11
20.10380585521409
 21
29.84951851967376
 31
0.0
  0
LINE
  5
4C8
330
1E
100
AcDbEntity
  8
0
100
AcDbLine
 10
20.10380585521409
 20
29.65266812967353
 30
0.0
 11
20.10380585521409
 21
29.06211695967373
 31
0.0
  0
CIRCLE
  5
4C9
330
1E
100
AcDbEntity
  8
0
100
AcDbCircle
 10
20.79278222021409
 20
28.96369176467361
 30
0.0
 40
0.3543307019999999
  0
CIRCLE
  5
4CA
330
1E
100
AcDbEntity
  8
0
100
AcDbCircle
 10
20.79278222021409
 20
28.96369176467361
 30
0.0
 40
0.2952755849999999
  0
CIRCLE
  5
4CB
330
1E
100
AcDbEntity
  8
0
100
AcDbCircle
 10
20.79278222021409
 20
32.90069956467355
 30
0.0
 40
0.1023622028
  0
LINE
  5
4CC
330
1E
100
AcDbEntity
  8
0
100
AcDbLine
 10
20.45239607571196
 20
32.99912475967345
 30
0.0
 11
20.19995874962242
 21
32.99912475967345
 31
0.0
  0
LINE
  5
4CD
330
1E
100
AcDbEntity
  8
0
100
AcDbLine
 10
20.45239607571196
 20
32.80227436967367
 30
0.0
 11
20.10380585521409
 21
32.80227436967367
 31
0.0
  0
CIRCLE
  5
4CE
330
1E
100
AcDbEntity
  8
0
100
AcDbCircle
 10
20.79278222021409
 20
32.90069956467355
 30
0.0
 40
0.2952755849999999
  0
CIRCLE
  5
4CF
330
1E
100
AcDbEntity
  8
0
100
AcDbCircle
 10
20.79278222021409
 20
32.90069956467355
 30
0.0
 40
0.3543307019999999
  0
LINE
  5
4D0
330
1E
100
AcDbEntity
  8
0
100
AcDbLine
 10
20.10380585521409
 20
32.21172319967364
 30
0.0
 11
20.10380585521409
 21
32.80227436967367
 31
0.0
  0
LINE
  5
4D1
330
1E
100
AcDbEntity
  8
0
100
AcDbLine
 10
20.10380585521409
 20
30.93219566467347
 30
0.0
 11
20.10380585521409
 21
32.01487280967363
 31
0.0
  0
LINE
  5
4D2
330
1E
100
AcDbEntity
  8
0
100
AcDbLine
 10
19.90695546521408
 20
30.93219566467347
 30
0.0
 11
19.90695546521408
 21
32.01487280967363
 31
0.0
  0
CIRCLE
  5
4D3
330
1E
100
AcDbEntity
  8
0
100
AcDbCircle
 10
16.85577442021409
 20
28.96369176467361
 30
0.0
 40
0.1023622028
  0
LINE
  5
4D4
330
1E
100
AcDbEntity
  8
0
100
AcDbLine
 10
17.19616056471622
 20
29.06211695967373
 30
0.0
 11
17.54475078521409
 21
29.06211695967373
 31
0.0
  0
LINE
  5
4D5
330
1E
100
AcDbEntity
  8
0
100
AcDbLine
 10
17.19616056471619
 20
28.86526656967349
 30
0.0
 11
17.44859789080573
 21
28.86526656967349
 31
0.0
  0
LINE
  5
4D6
330
1E
100
AcDbEntity
  8
0
100
AcDbLine
 10
17.74160117521407
 20
29.84951851967376
 30
0.0
 11
18.82427832021409
 21
29.84951851967376
 31
0.0
  0
LINE
  5
4D7
330
1E
100
AcDbEntity
  8
0
100
AcDbLine
 10
17.74160117521407
 20
29.65266812967353
 30
0.0
 11
18.82427832021409
 21
29.65266812967353
 31
0.0
  0
LINE
  5
4D8
330
1E
100
AcDbEntity
  8
0
100
AcDbLine
 10
17.54475078521409
 20
30.93219566467347
 30
0.0
 11
17.54475078521409
 21
29.84951851967376
 31
0.0
  0
LINE
  5
4D9
330
1E
100
AcDbEntity
  8
0
100
AcDbLine
 10
17.74160117521407
 20
30.93219566467347
 30
0.0
 11
17.74160117521407
 21
29.84951851967376
 31
0.0
  0
CIRCLE
  5
4DA
330
1E
100
AcDbEntity
  8
0
100
AcDbCircle
 10
16.85577442021409
 20
28.96369176467361
 30
0.0
 40
0.2952755849999999
  0
CIRCLE
  5
4DB
330
1E
100
AcDbEntity
  8
0
100
AcDbCircle
 10
16.85577442021409
 20
28.96369176467361
 30
0.0
 40
0.3543307019999999
  0
LINE
  5
4DC
330
1E
100
AcDbEntity
  8
0
100
AcDbLine
 10
17.54475078521409
 20
29.65266812967353
 30
0.0
 11
17.54475078521409
 21
29.06211695967373
 31
0.0
  0
LINE
  5
4DD
330
1E
100
AcDbEntity
  8
0
100
AcDbLine
 10
17.74160117521407
 20
32.21172319967364
 30
0.0
 11
18.82427832021409
 21
32.21172319967364
 31
0.0
  0
LINE
  5
4DE
330
1E
100
AcDbEntity
  8
0
100
AcDbLine
 10
17.74160117521407
 20
32.01487280967363
 30
0.0
 11
18.82427832021409
 21
32.01487280967363
 31
0.0
  0
LINE
  5
4DF
330
1E
100
AcDbEntity
  8
0
100
AcDbLine
 10
17.54475078521409
 20
32.21172319967364
 30
0.0
 11
17.54475078521409
 21
32.80227436967367
 31
0.0
  0
CIRCLE
  5
4E0
330
1E
100
AcDbEntity
  8
0
100
AcDbCircle
 10
16.85577442021409
 20
32.90069956467355
 30
0.0
 40
0.1023622028
  0
CIRCLE
  5
4E1
330
1E
100
AcDbEntity
  8
0
100
AcDbCircle
 10
16.85577442021409
 20
32.90069956467355
 30
0.0
 40
0.3543307019999999
  0
CIRCLE
  5
4E2
330
1E
100
AcDbEntity
  8
0
100
AcDbCircle
 10
16.85577442021409
 20
32.90069956467355
 30
0.0
 40
0.2952755849999999
  0
LINE
  5
4E3
330
1E
100
AcDbEntity
  8
0
100
AcDbLine
 10
17.19616056471619
 20
32.99912475967345
 30
0.0
 11
17.44859789080573
 21
32.99912475967345
 31
0.0
  0
LINE
  5
4E4
330
1E
100
AcDbEntity
  8
0
100
AcDbLine
 10
17.19616056471622
 20
32.80227436967367
 30
0.0
 11
17.54475078521409
 21
32.80227436967367
 31
0.0
  0
LINE
  5
4E5
330
1E
100
AcDbEntity
  8
0
100
AcDbLine
 10
17.54475078521409
 20
30.93219566467347
 30
0.0
 11
17.54475078521409
 21
32.01487280967363
 31
0.0
  0
LINE
  5
4E6
330
1E
100
AcDbEntity
  8
0
100
AcDbLine
 10
17.74160117521407
 20
30.93219566467347
 30
0.0
 11
17.74160117521407
 21
32.01487280967363
 31
0.0
  0
LINE
  5
4E7
330
1E
100
AcDbEntity
  8
0
100
AcDbLine
 10
19.90695546521408
 20
32.01487280967363
 30
0.0
 11
18.82427832021409
 21
32.01487280967363
 31
0.0
  0
LINE
  5
4E8
330
1E
100
AcDbEntity
  8
0
100
AcDbLine
 10
19.90695546521408
 20
32.21172319967364
 30
0.0
 11
18.82427832021409
 21
32.21172319967364
 31
0.0
  0
LINE
  5
4E9
330
1E
100
AcDbEntity
  8
0
100
AcDbLine
 10
19.90695546521408
 20
29.65266812967353
 30
0.0
 11
18.82427832021409
 21
29.65266812967353
 31
0.0
  0
LINE
  5
4EA
330
1E
100
AcDbEntity
  8
0
100
AcDbLine
 10
19.90695546521408
 20
29.84951851967376
 30
0.0
 11
18.82427832021409
 21
29.84951851967376
 31
0.0
  0
LINE
  5
4EB
330
1E
100
AcDbEntity
  8
0
100
AcDbLine
 10
20.19995874962242
 20
28.86526656967349
 30
0.0
 11
28.10921511483654
 21
18.11223263494443
 31
0.0
  0
LINE
  5
4EC
330
1E
100
AcDbEntity
  8
0
100
AcDbLine
 10
28.42483687071198
 20
32.99912475967345
 30
0.0
 11
21.13316836471619
 21
32.99912475967345
 31
0.0
  0
LINE
  5
4ED
330
1E
100
AcDbEntity
  8
0
100
AcDbLine
 10
28.42483687071198
 20
32.80227436967367
 30
0.0
 11
21.13316836471622
 21
32.80227436967367
 31
0.0
  0
LINE
  5
4EE
330
1E
100
AcDbEntity
  8
0
100
AcDbLine
 10
28.66679782021405
 20
32.21172319967364
 30
0.0
 11
20.10380585521409
 21
32.21172319967364
 31
0.0
  0
LINE
  5
4EF
330
1E
100
AcDbEntity
  8
0
100
AcDbLine
 10
28.42483687071198
 20
28.86526656967349
 30
0.0
 11
21.13316836471619
 21
28.86526656967349
 31
0.0
  0
LINE
  5
4F0
330
1E
100
AcDbEntity
  8
0
100
AcDbLine
 10
28.42483687071198
 20
29.06211695967373
 30
0.0
 11
21.13316836471622
 21
29.06211695967373
 31
0.0
  0
LINE
  5
4F1
330
1E
100
AcDbEntity
  8
0
100
AcDbLine
 10
28.66679782021405
 20
29.65266812967353
 30
0.0
 11
20.10380585521409
 21
29.65266812967353
 31
0.0
  0
LINE
  5
4F2
330
1E
100
AcDbEntity
  8
0
100
AcDbLine
 10
28.45493654139055
 20
18.45795406149849
 30
0.0
 11
28.10921511483654
 21
18.11223263494443
 31
0.0
  0
LINE
  5
4F3
330
1E
100
AcDbEntity
  8
0
100
AcDbLine
 10
20.10380585521409
 20
28.66376417974775
 30
0.0
 11
27.96841410089932
 21
17.97143162100709
 31
0.0
  0
LINE
  5
4F4
330
1E
100
AcDbEntity
  8
0
100
AcDbLine
 10
17.54475078521409
 20
28.66376417974775
 30
0.0
 11
17.54475078521409
 21
17.15266836467375
 31
0.0
  0
LINE
  5
4F5
330
1E
100
AcDbEntity
  8
0
100
AcDbLine
 10
20.10380585521409
 20
28.66376417974775
 30
0.0
 11
20.10380585521409
 21
17.15266836467375
 31
0.0
  0
LINE
  5
4F6
330
1E
100
AcDbEntity
  8
0
100
AcDbLine
 10
28.59413078703879
 20
18.31875981585002
 30
0.0
 11
27.50070636903755
 21
17.22533539784885
 31
0.0
  0
LINE
  5
4F7
330
1E
100
AcDbEntity
  8
0
100
AcDbLine
 10
9.680142539528844
 20
17.97143162100709
 30
0.0
 11
10.28704451703879
 21
17.36452964349709
 31
0.0
  0
CIRCLE
  5
4F9
330
1E
100
AcDbEntity
  8
0
100
AcDbCircle
 10
10.45813674521409
 20
17.05424316967364
 30
0.0
 40
0.3543307019999999
  0
CIRCLE
  5
4FA
330
1E
100
AcDbEntity
  8
0
100
AcDbCircle
 10
10.45813674521409
 20
17.05424316967364
 30
0.0
 40
0.2952755849999999
  0
LINE
  5
4FC
330
1E
100
AcDbEntity
  8
0
100
AcDbLine
 10
9.193620099037616
 20
18.45795406149849
 30
0.0
 11
9.539341525591623
 21
18.11223263494443
 31
0.0
  0
CIRCLE
  5
4FD
330
1E
100
AcDbEntity
  8
0
100
AcDbCircle
 10
8.883333625214078
 20
18.62904628967348
 30
0.0
 40
0.3543307019999999
  0
CIRCLE
  5
4FE
330
1E
100
AcDbEntity
  8
0
100
AcDbCircle
 10
8.883333625214078
 20
18.62904628967348
 30
0.0
 40
0.2952755849999999
  0
LINE
  5
500
330
1E
100
AcDbEntity
  8
0
100
AcDbLine
 10
8.784908430214073
 20
29.65266812967353
 30
0.0
 11
8.784908430214073
 21
29.3040779091758
 31
0.0
  0
LINE
  5
501
330
1E
100
AcDbEntity
  8
0
100
AcDbLine
 10
8.981758820214082
 20
29.65266812967353
 30
0.0
 11
8.981758820214082
 21
29.3040779091758
 31
0.0
  0
CIRCLE
  5
502
330
1E
100
AcDbEntity
  8
0
100
AcDbCircle
 10
8.883333625214078
 20
28.96369176467361
 30
0.0
 40
0.3543307019999999
  0
CIRCLE
  5
503
330
1E
100
AcDbEntity
  8
0
100
AcDbCircle
 10
8.883333625214078
 20
28.96369176467361
 30
0.0
 40
0.2952755849999999
  0
LINE
  5
504
330
1E
100
AcDbEntity
  8
0
100
AcDbLine
 10
8.784908430214073
 20
32.21172319967364
 30
0.0
 11
8.784908430214073
 21
32.56031342017136
 31
0.0
  0
LINE
  5
505
330
1E
100
AcDbEntity
  8
0
100
AcDbLine
 10
8.981758820214082
 20
32.21172319967364
 30
0.0
 11
8.981758820214082
 21
32.56031342017136
 31
0.0
  0
CIRCLE
  5
507
330
1E
100
AcDbEntity
  8
0
100
AcDbCircle
 10
8.883333625214078
 20
32.90069956467355
 30
0.0
 40
0.2952755849999999
  0
CIRCLE
  5
508
330
1E
100
AcDbEntity
  8
0
100
AcDbCircle
 10
8.883333625214078
 20
32.90069956467355
 30
0.0
 40
0.3543307019999999
  0
LINE
  5
509
330
1E
100
AcDbEntity
  8
0
100
AcDbLine
 10
8.981758820214082
 20
28.62330562017142
 30
0.0
 11
8.981758820214082
 21
18.96943243417567
 31
0.0
  0
LINE
  5
50A
330
1E
100
AcDbEntity
  8
0
100
AcDbLine
 10
8.784908430214073
 20
28.62330562017142
 30
0.0
 11
8.784908430214073
 21
18.96943243417567
 31
0.0
  0
LINE
  5
50B
330
1E
100
AcDbEntity
  8
0
100
AcDbLine
 10
9.054425853389403
 20
18.31875981585002
 30
0.0
 11
10.14785027139058
 21
17.22533539784885
 31
0.0
  0
LINE
  5
50C
330
1E
100
AcDbEntity
  8
0
100
AcDbLine
 10
17.54475078521409
 20
28.66376417974775
 30
0.0
 11
9.680142539528844
 21
17.97143162100709
 31
0.0
  0
LINE
  5
50D
330
1E
100
AcDbEntity
  8
0
100
AcDbLine
 10
17.44859789080573
 20
28.86526656967349
 30
0.0
 11
9.539341525591623
 21
18.11223263494443
 31
0.0
  0
LINE
  5
50E
330
1E
100
AcDbEntity
  8
0
100
AcDbLine
 10
8.981758820214082
 20
32.21172319967364
 30
0.0
 11
17.54475078521409
 21
32.21172319967364
 31
0.0
  0
LINE
  5
50F
330
1E
100
AcDbEntity
  8
0
100
AcDbLine
 10
9.223719769716211
 20
32.80227436967367
 30
0.0
 11
16.51538827571195
 21
32.80227436967367
 31
0.0
  0
LINE
  5
510
330
1E
100
AcDbEntity
  8
0
100
AcDbLine
 10
9.223719769716211
 20
32.99912475967345
 30
0.0
 11
16.51538827571195
 21
32.99912475967345
 31
0.0
  0
LINE
  5
511
330
1E
100
AcDbEntity
  8
0
100
AcDbLine
 10
9.223719769716211
 20
28.86526656967349
 30
0.0
 11
16.51538827571195
 21
28.86526656967349
 31
0.0
  0
LINE
  5
512
330
1E
100
AcDbEntity
  8
0
100
AcDbLine
 10
9.223719769716211
 20
29.06211695967373
 30
0.0
 11
16.51538827571195
 21
29.06211695967373
 31
0.0
  0
LINE
  5
513
330
1E
100
AcDbEntity
  8
0
100
AcDbLine
 10
8.981758820214082
 20
29.65266812967353
 30
0.0
 11
17.54475078521409
 21
29.65266812967353
 31
0.0
  0
LINE
  5
514
330
1E
100
AcDbEntity
  8
0
100
AcDbLine
 10
10.79852288971622
 20
16.95581797467352
 30
0.0
 11
16.51538827571195
 21
16.95581797467352
 31
0.0
  0
LINE
  5
515
330
1E
100
AcDbEntity
  8
0
100
AcDbLine
 10
10.79852288971622
 20
17.15266836467375
 30
0.0
 11
16.51538827571195
 21
17.15266836467375
 31
0.0
  0
CIRCLE
  5
516
330
1E
100
AcDbEntity
  8
0
100
AcDbCircle
 10
28.76522301521406
 20
43.23534503967343
 30
0.0
 40
0.3543307019999999
  0
CIRCLE
  5
517
330
1E
100
AcDbEntity
  8
0
100
AcDbCircle
 10
28.76522301521406
 20
43.23534503967343
 30
0.0
 40
0.2952755849999999
  0
LINE
  5
519
330
1E
100
AcDbEntity
  8
0
100
AcDbLine
 10
27.96841410089932
 20
43.89295970834004
 30
0.0
 11
27.36151212338937
 21
44.49986168585005
 31
0.0
  0
LINE
  5
51B
330
1E
100
AcDbEntity
  8
0
100
AcDbLine
 10
20.45239607571196
 20
44.90857335467339
 30
0.0
 11
20.10380585521409
 21
44.90857335467362
 31
0.0
  0
LINE
  5
51C
330
1E
100
AcDbEntity
  8
0
100
AcDbLine
 10
20.45239607571196
 20
44.71172296467361
 30
0.0
 11
20.10380585521409
 21
44.71172296467361
 31
0.0
  0
LINE
  5
51E
330
1E
100
AcDbEntity
  8
0
100
AcDbLine
 10
26.85003375071197
 20
44.90857335467362
 30
0.0
 11
21.13316836471622
 21
44.90857335467339
 31
0.0
  0
LINE
  5
51F
330
1E
100
AcDbEntity
  8
0
100
AcDbLine
 10
26.85003375071197
 20
44.71172296467361
 30
0.0
 11
21.13316836471622
 21
44.71172296467361
 31
0.0
  0
LINE
  5
521
330
1E
100
AcDbEntity
  8
0
100
AcDbLine
 10
17.19616056471622
 20
44.71172296467361
 30
0.0
 11
17.54475078521409
 21
44.71172296467361
 31
0.0
  0
LINE
  5
522
330
1E
100
AcDbEntity
  8
0
100
AcDbLine
 10
17.19616056471622
 20
44.90857335467339
 30
0.0
 11
17.54475078521409
 21
44.90857335467362
 31
0.0
  0
CIRCLE
  5
523
330
1E
100
AcDbEntity
  8
0
100
AcDbCircle
 10
16.85577442021409
 20
44.8101481596735
 30
0.0
 40
0.2952755849999999
  0
CIRCLE
  5
524
330
1E
100
AcDbEntity
  8
0
100
AcDbCircle
 10
16.85577442021409
 20
44.8101481596735
 30
0.0
 40
0.3543307019999999
  0
CIRCLE
  5
525
330
1E
100
AcDbEntity
  8
0
100
AcDbCircle
 10
20.79278222021409
 20
44.8101481596735
 30
0.0
 40
0.3543307019999999
  0
CIRCLE
  5
526
330
1E
100
AcDbEntity
  8
0
100
AcDbCircle
 10
20.79278222021409
 20
44.8101481596735
 30
0.0
 40
0.2952755849999999
  0
CIRCLE
  5
527
330
1E
100
AcDbEntity
  8
0
100
AcDbCircle
 10
27.1904198952141
 20
44.8101481596735
 30
0.0
 40
0.3543307019999999
  0
CIRCLE
  5
528
330
1E
100
AcDbEntity
  8
0
100
AcDbCircle
 10
27.1904198952141
 20
44.8101481596735
 30
0.0
 40
0.2952755849999999
  0
LINE
  5
529
330
1E
100
AcDbEntity
  8
0
100
AcDbLine
 10
28.59413078703879
 20
43.54563151349711
 30
0.0
 11
27.50070636903755
 21
44.63905593149829
 31
0.0
  0
LINE
  5
52A
330
1E
100
AcDbEntity
  8
0
100
AcDbLine
 10
28.45493654139055
 20
43.40643726784887
 30
0.0
 11
28.10921511483654
 21
43.75215869440293
 31
0.0
  0
LINE
  5
52C
330
1E
100
AcDbEntity
  8
0
100
AcDbLine
 10
9.193620099037616
 20
43.40643726784887
 30
0.0
 11
9.539341525591623
 21
43.75215869440293
 31
0.0
  0
LINE
  5
52D
330
1E
100
AcDbEntity
  8
0
100
AcDbLine
 10
9.680142539528844
 20
43.89295970834004
 30
0.0
 11
10.28704451703879
 21
44.49986168585005
 31
0.0
  0
LINE
  5
52F
330
1E
100
AcDbEntity
  8
0
100
AcDbLine
 10
9.054425853389403
 20
43.54563151349711
 30
0.0
 11
10.14785027139058
 21
44.63905593149829
 31
0.0
  0
CIRCLE
  5
530
330
1E
100
AcDbEntity
  8
0
100
AcDbCircle
 10
8.883333625214078
 20
43.23534503967343
 30
0.0
 40
0.2952755849999999
  0
CIRCLE
  5
531
330
1E
100
AcDbEntity
  8
0
100
AcDbCircle
 10
8.883333625214078
 20
43.23534503967343
 30
0.0
 40
0.3543307019999999
  0
CIRCLE
  5
532
330
1E
100
AcDbEntity
  8
0
100
AcDbCircle
 10
10.45813674521409
 20
44.8101481596735
 30
0.0
 40
0.2952755849999999
  0
CIRCLE
  5
533
330
1E
100
AcDbEntity
  8
0
100
AcDbCircle
 10
10.45813674521409
 20
44.8101481596735
 30
0.0
 40
0.3543307019999999
  0
LINE
  5
534
330
1E
100
AcDbEntity
  8
0
100
AcDbLine
 10
10.79852288971622
 20
44.71172296467361
 30
0.0
 11
16.51538827571195
 21
44.71172296467361
 31
0.0
  0
LINE
  5
535
330
1E
100
AcDbEntity
  8
0
100
AcDbLine
 10
10.79852288971622
 20
44.90857335467362
 30
0.0
 11
16.51538827571195
 21
44.90857335467339
 31
0.0
  0
LINE
  5
536
330
1E
100
AcDbEntity
  8
0
100
AcDbLine
 10
29.19575237781407
 20
29.65266812967351
 30
0.0
 11
28.86364821021406
 21
29.65266812967353
 31
0.0
  0
LINE
  5
537
330
1E
100
AcDbEntity
  8
0
100
AcDbLine
 10
29.19575237781407
 20
32.21172319967364
 30
0.0
 11
28.86364821021406
 21
32.21172319967364
 31
0.0
  0
LINE
  5
538
330
1E
100
AcDbEntity
  8
0
100
AcDbLine
 10
29.19575237781407
 20
32.01487280967363
 30
0.0
 11
20.10380585521409
 21
32.01487280967363
 31
0.0
  0
LINE
  5
539
330
1E
100
AcDbEntity
  8
0
100
AcDbLine
 10
29.19575237781407
 20
29.84951851967356
 30
0.0
 11
20.10380585521409
 21
29.84951851967376
 31
0.0
  0
LINE
  5
53A
330
1E
100
AcDbEntity
  8
0
100
AcDbLine
 10
8.452804262614051
 20
29.65266812967353
 30
0.0
 11
8.784908430214073
 21
29.65266812967353
 31
0.0
  0
LINE
  5
53B
330
1E
100
AcDbEntity
  8
0
100
AcDbLine
 10
8.452804262614051
 20
29.84951851967355
 30
0.0
 11
17.54475078521409
 21
29.84951851967376
 31
0.0
  0
LINE
  5
53C
330
1E
100
AcDbEntity
  8
0
100
AcDbLine
 10
8.452804262614037
 20
32.21172319967364
 30
0.0
 11
8.784908430214073
 21
32.21172319967364
 31
0.0
  0
LINE
  5
53D
330
1E
100
AcDbEntity
  8
0
100
AcDbLine
 10
8.452804262614037
 20
32.01487280967362
 30
0.0
 11
17.54475078521409
 21
32.01487280967363
 31
0.0
  0
LINE
  5
53E
330
1E
100
AcDbEntity
  8
0
100
AcDbLine
 10
19.90695546521408
 20
32.21172319967364
 30
0.0
 11
19.90695546521406
 21
45.23136572227357
 31
0.0
  0
LINE
  5
53F
330
1E
100
AcDbEntity
  8
0
100
AcDbLine
 10
20.10380585521409
 20
44.90857335467362
 30
0.0
 11
20.10380585521407
 21
45.23136572227357
 31
0.0
  0
LINE
  5
540
330
1E
100
AcDbEntity
  8
0
100
AcDbLine
 10
17.74160117521407
 20
32.21172319967364
 30
0.0
 11
17.74160117521407
 21
45.23136572227357
 31
0.0
  0
LINE
  5
541
330
1E
100
AcDbEntity
  8
0
100
AcDbLine
 10
17.54475078521409
 20
44.90857335467362
 30
0.0
 11
17.54475078521409
 21
45.23136572227357
 31
0.0
  0
LINE
  5
542
330
1E
100
AcDbEntity
  8
0
100
AcDbLine
 10
20.10380585521409
 20
16.95581797467352
 30
0.0
 11
20.10380585521407
 21
16.63302560707356
 31
0.0
  0
LINE
  5
543
330
1E
100
AcDbEntity
  8
0
100
AcDbLine
 10
19.90695546521408
 20
29.65266812967353
 30
0.0
 11
19.90695546521408
 21
16.63302560707356
 31
0.0
  0
LINE
  5
544
330
1E
100
AcDbEntity
  8
0
100
AcDbLine
 10
17.54475078521409
 20
16.95581797467352
 30
0.0
 11
17.54475078521409
 21
16.63302560707356
 31
0.0
  0
LINE
  5
545
330
1E
100
AcDbEntity
  8
0
100
AcDbLine
 10
17.74160117521407
 20
29.65266812967353
 30
0.0
 11
17.74160117521408
 21
16.63302560707356
 31
0.0
  0
LINE
  5
546
330
1E
100
AcDbEntity
  8
0
100
AcDbLine
 10
84.46142366233539
 20
29.06266180796875
 30
0.0
 11
84.85512444233538
 21
29.06266180796875
 31
0.0
  0
LINE
  5
547
330
1E
100
AcDbEntity
  8
0
100
AcDbLine
 10
84.46142366233539
 20
28.85793740236873
 30
0.0
 11
84.85512444233538
 21
28.85793740236873
 31
0.0
  0
LINE
  5
548
330
1E
100
AcDbEntity
  8
0
100
AcDbLine
 10
84.85512444233538
 20
29.31463030716882
 30
0.0
 11
84.49495356513295
 21
29.26060467558839
 31
0.0
  0
LINE
  5
549
330
1E
100
AcDbEntity
  8
0
100
AcDbLine
 10
84.85512444233538
 20
28.85793740236873
 30
0.0
 11
84.85512444233538
 21
29.06266180796875
 31
0.0
  0
ARC
  5
54A
330
1E
100
AcDbEntity
  8
0
100
AcDbCircle
 10
84.50079374033538
 20
29.22167017423895
 30
0.0
 40
0.039370078
100
AcDbArc
 50
98.53076560994852
 51
180.0
  0
LINE
  5
54B
330
1E
100
AcDbEntity
  8
0
100
AcDbLine
 10
84.85512444233538
 20
28.60596890316888
 30
0.0
 11
84.49495356513299
 21
28.6599945347491
 31
0.0
  0
ARC
  5
54C
330
1E
100
AcDbEntity
  8
0
100
AcDbCircle
 10
84.50079374033538
 20
28.69892903609853
 30
0.0
 40
0.039370078
100
AcDbArc
 50
180.0
 51
261.4692343900514
  0
LINE
  5
54D
330
1E
100
AcDbEntity
  8
0
100
AcDbLine
 10
84.46142366233539
 20
28.69892903609853
 30
0.0
 11
84.46142366233539
 21
29.22845449324869
 31
0.0
  0
LINE
  5
54E
330
1E
100
AcDbEntity
  8
0
100
AcDbLine
 10
84.85512444233538
 20
29.31463030716881
 30
0.0
 11
84.85512444233538
 21
30.93219566467347
 31
0.0
  0
LINE
  5
54F
330
1E
100
AcDbEntity
  8
0
100
AcDbLine
 10
84.7763842863354
 20
29.3028192837688
 30
0.0
 11
84.77638428633538
 21
30.93219566467347
 31
0.0
  0
TEXT
  5
550
330
1E
100
AcDbEntity
  8
0
100
AcDbText
 10
70.56684718420308
 20
2.377757482992886
 30
0.0
 40
0.9360000000000001
  1
0.985
 41
0.75
 72
     4
 11
71.91234718420308
 21
2.845757482992885
 31
0.0
100
AcDbText
  0
TEXT
  5
551
330
1E
100
AcDbEntity
  8
0
100
AcDbText
 10
70.85934718420308
 20
0.775388568952915
 30
0.0
 40
0.9360000000000001
  1
[25]
 41
0.75
 72
     4
 11
71.91234718420308
 21
1.243388568952914
 31
0.0
100
AcDbText
  0
TEXT
  5
552
330
1E
100
AcDbEntity
  8
0
100
AcDbText
 10
21.18829209359831
 20
2.377757482992916
 30
0.0
 40
0.9360000000000001
  1
20.740
 41
0.75
 72
     4
 11
22.82629209359831
 21
2.845757482992916
 31
0.0
100
AcDbText
  0
TEXT
  5
553
330
1E
100
AcDbEntity
  8
0
100
AcDbText
 10
20.95429209359831
 20
0.7753885689529452
 30
0.0
 40
0.9360000000000001
  1
[526.5]
 41
0.75
 72
     4
 11
22.82629209359831
 21
1.243388568952945
 31
0.0
100
AcDbText
  0
TEXT
  5
554
330
1E
100
AcDbEntity
  8
0
100
AcDbText
 10
27.33062369557299
 20
2.37775748299291
 30
0.0
 40
0.9360000000000001
  1
28.610
 41
0.75
 72
     4
 11
28.91012369557299
 21
2.84575748299291
 31
0.0
100
AcDbText
  0
TEXT
  5
555
330
1E
100
AcDbEntity
  8
0
100
AcDbText
 10
27.03812369557299
 20
0.7753885689529399
 30
0.0
 40
0.9360000000000001
  1
[726.5]
 41
0.75
 72
     4
 11
28.91012369557299
 21
1.243388568952939
 31
0.0
100
AcDbText
  0
TEXT
  5
556
330
1E
100
AcDbEntity
  8
0
100
AcDbText
 10
33.71768917433
 20
0.7753885689529354
 30
0.0
 40
0.9360000000000001
  1
[504]
 41
0.75
 72
     4
 11
35.06318917433
 21
1.243388568952935
 31
0.0
100
AcDbText
  0
TEXT
  5
557
330
1E
100
AcDbEntity
  8
0
100
AcDbText
 10
33.48368917433
 20
2.377757482992906
 30
0.0
 40
0.9360000000000001
  1
19.860
 41
0.75
 72
     4
 11
35.06318917433
 21
2.845757482992906
 31
0.0
100
AcDbText
  0
TEXT
  5
558
330
1E
100
AcDbEntity
  8
0
100
AcDbText
 10
51.90585204965036
 20
2.377757482992884
 30
0.0
 40
0.9360000000000001
  1
27.734
 41
0.75
 72
     4
 11
53.66085204965036
 21
2.845757482992884
 31
0.0
100
AcDbText
  0
TEXT
  5
559
330
1E
100
AcDbEntity
  8
0
100
AcDbText
 10
52.31535204965036
 20
0.7753885689529132
 30
0.0
 40
0.9360000000000001
  1
[704]
 41
0.75
 72
     4
 11
53.66085204965036
 21
1.243388568952913
 31
0.0
100
AcDbText
  0
TEXT
  5
55A
330
1E
100
AcDbEntity
  8
0
100
AcDbText
 10
46.15155335136869
 20
2.377757482992906
 30
0.0
 40
0.9360000000000001
  1
3.900
 41
0.75
 72
     4
 11
47.4385533513687
 21
2.845757482992906
 31
0.0
100
AcDbText
  0
TEXT
  5
55B
330
1E
100
AcDbEntity
  8
0
100
AcDbText
 10
46.3855533513687
 20
0.7753885689529354
 30
0.0
 40
0.9360000000000001
  1
[99]
 41
0.75
 72
     4
 11
47.4385533513687
 21
1.243388568952935
 31
0.0
100
AcDbText
  0
TEXT
  5
55C
330
1E
100
AcDbEntity
  8
0
100
AcDbText
 10
39.74302044767575
 20
0.7753885689529221
 30
0.0
 40
0.9360000000000001
  1
[424]
 41
0.75
 72
     4
 11
41.14702044767575
 21
1.243388568952922
 31
0.0
100
AcDbText
  0
TEXT
  5
55D
330
1E
100
AcDbEntity
  8
0
100
AcDbText
 10
39.56752044767575
 20
2.377757482992893
 30
0.0
 40
0.9360000000000001
  1
16.703
 41
0.75
 72
     4
 11
41.14702044767575
 21
2.845757482992893
 31
0.0
100
AcDbText
  0
TEXT
  5
55E
330
1E
100
AcDbEntity
  8
0
100
AcDbText
 10
57.92045010347146
 20
2.377757482992895
 30
0.0
 40
0.9360000000000001
  1
24.562
 41
0.75
 72
     4
 11
59.67545010347146
 21
2.845757482992895
 31
0.0
100
AcDbText
  0
TEXT
  5
55F
330
1E
100
AcDbEntity
  8
0
100
AcDbText
 10
57.80345010347146
 20
0.7753885689529248
 30
0.0
 40
0.9360000000000001
  1
[623.5]
 41
0.75
 72
     4
 11
59.67545010347146
 21
1.243388568952924
 31
0.0
100
AcDbText
  0
TEXT
  5
560
330
1E
100
AcDbEntity
  8
0
100
AcDbText
 10
64.70628170544607
 20
0.7753885689529061
 30
0.0
 40
0.9360000000000001
  1
[99]
 41
0.75
 72
     4
 11
65.75928170544607
 21
1.243388568952906
 31
0.0
100
AcDbText
  0
TEXT
  5
561
330
1E
100
AcDbEntity
  8
0
100
AcDbText
 10
64.47228170544606
 20
2.377757482992877
 30
0.0
 40
0.9360000000000001
  1
3.900
 41
0.75
 72
     4
 11
65.75928170544607
 21
2.845757482992877
 31
0.0
100
AcDbText
  0
TEXT
  5
562
330
1E
100
AcDbEntity
  8
0
100
AcDbText
 10
82.73753010785792
 20
2.377757482992875
 30
0.0
 40
0.9360000000000001
  1
31.070
 41
0.75
 72
     4
 11
84.25853010785791
 21
2.845757482992875
 31
0.0
100
AcDbText
  0
TEXT
  5
563
330
1E
100
AcDbEntity
  8
0
100
AcDbText
 10
76.5498375916724
 20
2.37775748299287
 30
0.0
 40
0.9360000000000001
  1
11.125
 41
0.75
 72
     4
 11
77.9538375916724
 21
2.845757482992869
 31
0.0
100
AcDbText
  0
TEXT
  5
564
330
1E
100
AcDbEntity
  8
0
100
AcDbText
 10
76.5498375916724
 20
0.775388568952899
 30
0.0
 40
0.9360000000000001
  1
[282]
 41
0.75
 72
     4
 11
77.9538375916724
 21
1.243388568952898
 31
0.0
100
AcDbText
  0
TEXT
  5
565
330
1E
100
AcDbEntity
  8
0
100
AcDbText
 10
82.85453010785792
 20
0.7753885689529044
 30
0.0
 40
0.9360000000000001
  1
[789]
 41
0.75
 72
     4
 11
84.25853010785791
 21
1.243388568952904
 31
0.0
100
AcDbText
  0
TEXT
  5
566
330
1E
100
AcDbEntity
  8
0
100
AcDbText
 10
94.86230115848634
 20
2.377757482992865
 30
0.0
 40
0.9360000000000001
  1
23.225
 41
0.75
 72
     4
 11
96.61730115848634
 21
2.845757482992865
 31
0.0
100
AcDbText
  0
TEXT
  5
567
330
1E
100
AcDbEntity
  8
0
100
AcDbText
 10
94.74530115848635
 20
0.7753885689528947
 30
0.0
 40
0.9360000000000001
  1
[589.5]
 41
0.75
 72
     4
 11
96.61730115848634
 21
1.243388568952894
 31
0.0
100
AcDbText
  0
TEXT
  5
568
330
1E
100
AcDbEntity
  8
0
100
AcDbText
 10
89.15091579748649
 20
0.775388568952927
 30
0.0
 40
0.9360000000000001
  1
[814]
 41
0.75
 72
     4
 11
90.43791579748649
 21
1.243388568952926
 31
0.0
100
AcDbText
  0
TEXT
  5
569
330
1E
100
AcDbEntity
  8
0
100
AcDbText
 10
88.79991579748649
 20
2.377757482992898
 30
0.0
 40
0.9360000000000001
  1
32.050
 41
0.75
 72
     4
 11
90.43791579748649
 21
2.845757482992898
 31
0.0
100
AcDbText
  0
TEXT
  5
56A
330
1E
100
AcDbEntity
  8
0
100
AcDbText
 10
101.0918793643003
 20
2.377757482992861
 30
0.0
 40
0.9360000000000001
  1
24.180
 41
0.75
 72
     4
 11
102.6713793643003
 21
2.845757482992861
 31
0.0
100
AcDbText
  0
TEXT
  5
56B
330
1E
100
AcDbEntity
  8
0
100
AcDbText
 10
101.3843793643003
 20
0.7753885689528896
 30
0.0
 40
0.9360000000000001
  1
[614]
 41
0.75
 72
     4
 11
102.6713793643003
 21
1.243388568952889
 31
0.0
100
AcDbText
  0
TEXT
  5
56C
330
1E
100
AcDbEntity
  8
0
100
AcDbText
 10
119.4104818185372
 20
2.377757482992845
 30
0.0
 40
0.9360000000000001
  1
30.125
 41
0.75
 72
     4
 11
120.9899818185372
 21
2.845757482992845
 31
0.0
100
AcDbText
  0
TEXT
  5
56D
330
1E
100
AcDbEntity
  8
0
100
AcDbText
 10
119.5859818185372
 20
0.7753885689528736
 30
0.0
 40
0.9360000000000001
  1
[765]
 41
0.75
 72
     4
 11
120.9899818185372
 21
1.243388568952873
 31
0.0
100
AcDbText
  0
TEXT
  5
56E
330
1E
100
AcDbEntity
  8
0
100
AcDbText
 10
106.92185940925
 20
2.377757482992855
 30
0.0
 40
0.9360000000000001
  1
22.203
 41
0.75
 72
     4
 11
108.61835940925
 21
2.845757482992855
 31
0.0
100
AcDbText
  0
TEXT
  5
56F
330
1E
100
AcDbEntity
  8
0
100
AcDbText
 10
106.74635940925
 20
0.7753885689528844
 30
0.0
 40
0.9360000000000001
  1
[563.5]
 41
0.75
 72
     4
 11
108.61835940925
 21
1.243388568952884
 31
0.0
100
AcDbText
  0
TEXT
  5
570
330
1E
100
AcDbEntity
  8
0
100
AcDbText
 10
113.6392649294146
 20
0.7753885689528786
 30
0.0
 40
0.9360000000000001
  1
[146]
 41
0.75
 72
     4
 11
114.9262649294146
 21
1.243388568952878
 31
0.0
100
AcDbText
  0
TEXT
  5
571
330
1E
100
AcDbEntity
  8
0
100
AcDbText
 10
113.5807649294146
 20
2.377757482992849
 30
0.0
 40
0.9360000000000001
  1
5.750
 41
0.75
 72
     4
 11
114.9262649294146
 21
2.845757482992849
 31
0.0
100
AcDbText
  0
TEXT
  5
572
330
1E
100
AcDbEntity
  8
0
100
AcDbText
 10
125.7539909092686
 20
2.377757482992839
 30
0.0
 40
0.9360000000000001
  1
10.175
 41
0.75
 72
     4
 11
127.2164909092686
 21
2.845757482992839
 31
0.0
100
AcDbText
  0
TEXT
  5
573
330
1E
100
AcDbEntity
  8
0
100
AcDbText
 10
125.8124909092686
 20
0.7753885689528693
 30
0.0
 40
0.9360000000000001
  1
[258]
 41
0.75
 72
     4
 11
127.2164909092686
 21
1.243388568952869
 31
0.0
100
AcDbText
  0
TEXT
  5
574
330
1E
100
AcDbEntity
  8
0
100
AcDbText
 10
13.06182258510302
 20
7.428710789470642
 30
0.0
 40
1.071428571428571
  1
%%UVIEW LESS DOOR
 41
0.75
 72
     1
 11
18.70021544224587
 21
7.428710789470642
 31
0.0
100
AcDbText
  0
DIMENSION
  5
575
330
1E
100
AcDbEntity
  8
0
100
AcDbDimension
  2
*D19
 10
32.92325050925187
 20
32.90069956467355
 30
0.0
 11
32.92325050925186
 21
30.93219566467359
 31
0.0
 70
    32
  1
H
  3
23NSTDI
100
AcDbAlignedDimension
 13
28.76522301521406
 23
28.96369176467361
 33
0.0
 14
28.76522301521406
 24
32.90069956467355
 34
0.0
 50
90.0
100
AcDbRotatedDimension
  0
DIMENSION
  5
576
330
1E
100
AcDbEntity
  8
0
100
AcDbDimension
  2
*D2
 10
35.28268753031623
 20
43.23534503967343
 30
0.0
 11
35.28268753031622
 21
30.93219566467346
 31
0.0
 70
    32
  1
G
  3
23NSTD
100
AcDbAlignedDimension
 13
28.76522301521406
 23
18.62904628967348
 33
0.0
 14
28.76522301521406
 24
43.23534503967343
 34
0.0
 50
90.0
100
AcDbRotatedDimension
  0
DIMENSION
  5
577
330
1E
100
AcDbEntity
  8
0
100
AcDbDimension
  2
*D3
 10
37.56138493908131
 20
44.8101481596735
 30
0.0
 11
37.5613849390813
 21
30.93219566467357
 31
0.0
 70
    32
  1
F
  3
23NSTD
100
AcDbAlignedDimension
 13
27.1904198952141
 23
17.05424316967364
 33
0.0
 14
27.1904198952141
 24
44.8101481596735
 34
0.0
 50
90.0
100
AcDbRotatedDimension
  0
DIMENSION
  5
578
330
1E
100
AcDbEntity
  8
0
100
AcDbDimension
  2
*D20
 10
16.85577442021408
 20
13.29884663606472
 30
0.0
 11
18.82427832021408
 21
13.29884663606472
 31
0.0
 70
    32
  1
E
  3
23NSTDI
100
AcDbAlignedDimension
 13
20.79278222021409
 23
17.05424316967364
 33
0.0
 14
16.85577442021408
 24
17.05424316967364
 34
0.0
100
AcDbRotatedDimension
  0
DIMENSION
  5
579
330
1E
100
AcDbEntity
  8
0
100
AcDbDimension
  2
*D4
 10
10.45813674521408
 20
11.42384663606472
 30
0.0
 11
18.82427832021409
 21
11.42384663606472
 31
0.0
 70
    32
  1
D
  3
23NSTD
100
AcDbAlignedDimension
 13
27.1904198952141
 23
17.05424316967364
 33
0.0
 14
10.45813674521408
 24
17.05424316967364
 34
0.0
100
AcDbRotatedDimension
  0
DIMENSION
  5
57A
330
1E
100
AcDbEntity
  8
0
100
AcDbDimension
  2
*D5
 10
8.883333625214074
 20
9.548846636064723
 30
0.0
 11
18.82427832021406
 21
9.548846636064723
 31
0.0
 70
    32
  1
C
  3
23NSTD
100
AcDbAlignedDimension
 13
28.76522301521406
 23
18.62904628967348
 33
0.0
 14
8.883333625214074
 24
18.62904628967348
 34
0.0
100
AcDbRotatedDimension
  0
DIMENSION
  5
57B
330
1E
100
AcDbEntity
  8
0
100
AcDbDimension
  2
*D6
 10
3.863530572430607
 20
45.23136572227357
 30
0.0
 11
3.863530572430599
 21
30.93219566467357
 31
0.0
 70
    32
  1
B
  3
23NSTD
100
AcDbAlignedDimension
 13
8.653372496100242
 23
16.63302560707356
 33
0.0
 14
8.653372496100242
 24
45.23136572227357
 34
0.0
 50
90.0
100
AcDbRotatedDimension
  0
DIMENSION
  5
57C
330
1E
100
AcDbEntity
  8
0
100
AcDbDimension
  2
*D7
 10
8.452804262614048
 20
49.14483853304762
 30
0.0
 11
18.82427832021406
 21
49.14483853304762
 31
0.0
 70
    32
  1
A
  3
23NSTD
100
AcDbAlignedDimension
 13
29.19575237781407
 23
45.03079748878744
 33
0.0
 14
8.452804262614048
 24
45.03079748878744
 34
0.0
100
AcDbRotatedDimension
  0
DIMENSION
  5
57D
330
1E
100
AcDbEntity
  8
0
100
AcDbDimension
  2
*D8
 10
42.34086243190849
 20
51.10822147264713
 30
0.0
 11
53.98692520508849
 21
51.10822147264713
 31
0.0
 70
    32
  1
N
  3
23NSTD
100
AcDbAlignedDimension
 13
65.63298797826849
 23
53.40311776386172
 33
0.0
 14
42.34086243190849
 24
53.40311776386172
 34
0.0
100
AcDbRotatedDimension
  0
DIMENSION
  5
57E
330
1E
100
AcDbEntity
  8
0
100
AcDbDimension
  2
*D9
 10
41.86094118108838
 20
66.36282173270797
 30
0.0
 11
53.98692520508838
 21
66.36282173270797
 31
0.0
 70
    32
  1
P
  3
23NSTD
100
AcDbAlignedDimension
 13
66.11290922908839
 23
64.13441698386197
 33
0.0
 14
41.86094118108838
 24
64.13441698386197
 34
0.0
100
AcDbRotatedDimension
  0
DIMENSION
  5
57F
330
1E
100
AcDbEntity
  8
0
100
AcDbDimension
  2
*D10
 10
73.92697483233556
 20
49.07354556773535
 30
0.0
 11
70.31759983233555
 21
49.07354556773535
 31
0.0
 70
    32
  1
J
  3
23NSTD
100
AcDbAlignedDimension
 13
74.9112267823356
 23
46.51526623785352
 33
0.0
 14
73.92697483233556
 24
46.31841584785351
 34
0.0
100
AcDbRotatedDimension
  0
DIMENSION
  5
580
330
1E
100
AcDbEntity
  8
0
100
AcDbDimension
  2
*D11
 10
71.03496831527507
 20
15.34912509149339
 30
0.0
 11
71.03496831527507
 21
30.93219566467347
 31
0.0
 70
    32
  1
L
  3
23NSTD
100
AcDbAlignedDimension
 13
74.12382522233556
 23
46.51526623785352
 33
0.0
 14
74.12382522233534
 24
15.34912509149339
 34
0.0
 50
90.0
100
AcDbRotatedDimension
  0
DIMENSION
  5
581
330
1E
100
AcDbEntity
  8
0
100
AcDbDimension
  2
*D12
 10
88.28181228306121
 20
14.8692038406733
 30
0.0
 11
88.28181228306121
 21
30.93219566467348
 31
0.0
 70
    32
  1
M
  3
23NSTD
100
AcDbAlignedDimension
 13
84.8551244423354
 23
46.99518748867362
 33
0.0
 14
84.8551244423354
 24
14.8692038406733
 34
0.0
 50
90.0
100
AcDbRotatedDimension
  0
DIMENSION
  5
582
330
1E
100
AcDbEntity
  8
0
100
AcDbDimension
  2
*D13
 10
85.05197483233542
 20
50.94854556773535
 30
0.0
 11
79.48947483233549
 21
50.94854556773535
 31
0.0
 70
    32
  1
K
  3
23NSTD
100
AcDbAlignedDimension
 13
73.92697483233556
 23
46.31841584785351
 33
0.0
 14
85.05197483233542
 24
46.79833709867361
 34
0.0
100
AcDbRotatedDimension
  0
DIMENSION
  5
583
330
1E
100
AcDbEntity
  8
0
100
AcDbDimension
  2
*D14
 10
84.46142366233539
 20
24.46860054724258
 30
0.0
 11
79.73876741233539
 21
24.46860054724258
 31
0.0
 70
    32
  3
23NSTD
100
AcDbAlignedDimension
 13
84.8551244423354
 23
25.0013977582648
 33
0.0
 14
84.46142366233539
 24
25.57993293609838
 34
0.0
100
AcDbRotatedDimension
  0
TEXT
  5
584
330
1E
100
AcDbEntity
  8
0
100
AcDbText
 10
78.50752063088506
 20
22.69537415527732
 30
0.0
 40
0.9379999999999999
  1
[10.0]
 41
0.75
 72
     1
 11
79.79727063088507
 21
22.69537415527732
 31
0.0
100
AcDbText
  0
DIMENSION
  5
585
330
1E
100
AcDbEntity
  8
0
100
AcDbDimension
  2
*D15
 10
84.85512444233535
 20
29.94838821346423
 30
0.0
 11
80.24965569233534
 21
29.94838821346423
 31
0.0
 70
    32
  1
0.200
  3
23NSTD
100
AcDbAlignedDimension
 13
85.05197483233542
 23
29.52689978730011
 33
0.0
 14
84.85512444233535
 24
29.52689978730011
 34
0.0
100
AcDbRotatedDimension
  0
TEXT
  5
586
330
1E
100
AcDbEntity
  8
0
100
AcDbText
 10
79.10340045843726
 20
28.17424406658531
 30
0.0
 40
0.9379999999999999
  1
[5.0]
 41
0.75
 72
     1
 11
80.21727545843726
 21
28.17424406658531
 31
0.0
100
AcDbText
  0
LINE
  5
587
330
1E
100
AcDbEntity
  8
0
100
AcDbLine
 10
94.44762674579799
 20
46.95719534467352
 30
0.0
 11
106.348545625798
 21
46.95719534467352
 31
0.0
  0
ARC
  5
588
330
1E
100
AcDbEntity
  8
0
100
AcDbCircle
 10
94.44762674579799
 20
46.76081054467348
 30
0.0
 40
0.1963848
100
AcDbArc
 50
90.0
 51
180.0
  0
CIRCLE
  5
589
330
1E
100
AcDbEntity
  8
0
100
AcDbCircle
 10
94.46922907379798
 20
46.73920821667351
 30
0.0
 40
0.14
  0
LINE
  5
58A
330
1E
100
AcDbEntity
  8
0
100
AcDbLine
 10
94.25124194579799
 20
30.93219566467347
 30
0.0
 11
94.25124194579799
 21
46.76081054467348
 31
0.0
  0
LINE
  5
58B
330
1E
100
AcDbEntity
  8
0
100
AcDbLine
 10
94.25124194579799
 20
30.93219566467347
 30
0.0
 11
94.25124194579799
 21
15.10358078467342
 31
0.0
  0
ARC
  5
58C
330
1E
100
AcDbEntity
  8
0
100
AcDbCircle
 10
94.44762674579799
 20
15.10358078467342
 30
0.0
 40
0.1963848
100
AcDbArc
 50
180.0
 51
270.0
  0
LINE
  5
58D
330
1E
100
AcDbEntity
  8
0
100
AcDbLine
 10
94.44762674579799
 20
14.90719598467339
 30
0.0
 11
106.348545625798
 21
14.90719598467339
 31
0.0
  0
LINE
  5
58E
330
1E
100
AcDbEntity
  8
0
100
AcDbLine
 10
118.2494645057979
 20
14.90719598467339
 30
0.0
 11
106.348545625798
 21
14.90719598467339
 31
0.0
  0
ARC
  5
58F
330
1E
100
AcDbEntity
  8
0
100
AcDbCircle
 10
118.2494645057979
 20
15.10358078467342
 30
0.0
 40
0.1963848
100
AcDbArc
 50
270.0
 51
0.0
  0
LINE
  5
590
330
1E
100
AcDbEntity
  8
0
100
AcDbLine
 10
118.445849305798
 20
30.93219566467347
 30
0.0
 11
118.445849305798
 21
15.10358078467342
 31
0.0
  0
LINE
  5
591
330
1E
100
AcDbEntity
  8
0
100
AcDbLine
 10
118.445849305798
 20
30.93219566467347
 30
0.0
 11
118.445849305798
 21
46.76081054467348
 31
0.0
  0
LINE
  5
592
330
1E
100
AcDbEntity
  8
0
100
AcDbLine
 10
118.2494645057979
 20
46.95719534467352
 30
0.0
 11
106.348545625798
 21
46.95719534467352
 31
0.0
  0
ARC
  5
593
330
1E
100
AcDbEntity
  8
0
100
AcDbCircle
 10
118.2494645057979
 20
46.76081054467348
 30
0.0
 40
0.1963848
100
AcDbArc
 50
0.0
 51
90.0
  0
CIRCLE
  5
594
330
1E
100
AcDbEntity
  8
0
100
AcDbCircle
 10
100.5748325057979
 20
46.73920821667351
 30
0.0
 40
0.14
  0
CIRCLE
  5
595
330
1E
100
AcDbEntity
  8
0
100
AcDbCircle
 10
106.348545625798
 20
46.73920821667351
 30
0.0
 40
0.14
  0
CIRCLE
  5
596
330
1E
100
AcDbEntity
  8
0
100
AcDbCircle
 10
112.1222587457979
 20
46.73920821667351
 30
0.0
 40
0.14
  0
CIRCLE
  5
597
330
1E
100
AcDbEntity
  8
0
100
AcDbCircle
 10
94.46922907379798
 20
40.2408351846735
 30
0.0
 40
0.14
  0
CIRCLE
  5
598
330
1E
100
AcDbEntity
  8
0
100
AcDbCircle
 10
94.46922907379798
 20
34.03507550467348
 30
0.0
 40
0.14
  0
CIRCLE
  5
599
330
1E
100
AcDbEntity
  8
0
100
AcDbCircle
 10
94.46922907379798
 20
21.62355614467344
 30
0.0
 40
0.14
  0
CIRCLE
  5
59A
330
1E
100
AcDbEntity
  8
0
100
AcDbCircle
 10
94.46922907379798
 20
27.82931582467345
 30
0.0
 40
0.14
  0
CIRCLE
  5
59B
330
1E
100
AcDbEntity
  8
0
100
AcDbCircle
 10
94.46922907379798
 20
15.12518311267342
 30
0.0
 40
0.14
  0
CIRCLE
  5
59C
330
1E
100
AcDbEntity
  8
0
100
AcDbCircle
 10
118.227862177798
 20
15.12518311267342
 30
0.0
 40
0.14
  0
CIRCLE
  5
59D
330
1E
100
AcDbEntity
  8
0
100
AcDbCircle
 10
118.227862177798
 20
21.62355614467344
 30
0.0
 40
0.14
  0
CIRCLE
  5
59E
330
1E
100
AcDbEntity
  8
0
100
AcDbCircle
 10
118.227862177798
 20
27.82931582467345
 30
0.0
 40
0.14
  0
CIRCLE
  5
59F
330
1E
100
AcDbEntity
  8
0
100
AcDbCircle
 10
118.227862177798
 20
34.03507550467348
 30
0.0
 40
0.14
  0
CIRCLE
  5
5A0
330
1E
100
AcDbEntity
  8
0
100
AcDbCircle
 10
118.227862177798
 20
40.2408351846735
 30
0.0
 40
0.14
  0
CIRCLE
  5
5A1
330
1E
100
AcDbEntity
  8
0
100
AcDbCircle
 10
118.227862177798
 20
46.73920821667351
 30
0.0
 40
0.14
  0
CIRCLE
  5
5A2
330
1E
100
AcDbEntity
  8
0
100
AcDbCircle
 10
100.5748325057979
 20
15.12518311267342
 30
0.0
 40
0.14
  0
CIRCLE
  5
5A3
330
1E
100
AcDbEntity
  8
0
100
AcDbCircle
 10
106.348545625798
 20
15.12518311267342
 30
0.0
 40
0.14
  0
CIRCLE
  5
5A4
330
1E
100
AcDbEntity
  8
0
100
AcDbCircle
 10
112.1222587457979
 20
15.12518311267342
 30
0.0
 40
0.14
  0
LINE
  5
5A5
330
1E
100
AcDbEntity
  8
0
  6
CENTER
100
AcDbLine
 10
106.348545625798
 20
14.78000584587175
 30
0.0
 11
106.348545625798
 21
47.03838930058876
 31
0.0
  0
LINE
  5
5A6
330
1E
100
AcDbEntity
  8
0
  6
CENTER
100
AcDbLine
 10
93.96401512956877
 20
30.93219566467347
 30
0.0
 11
118.6423605582699
 21
30.93219566467347
 31
0.0
  0
CIRCLE
  5
5A7
330
1E
100
AcDbEntity
  8
0
100
AcDbCircle
 10
95.24754562579799
 20
45.99419566467346
 30
0.0
 40
0.295
  0
CIRCLE
  5
5A9
330
1E
100
AcDbEntity
  8
0
100
AcDbCircle
 10
95.24754562579799
 20
36.01969566467346
 30
0.0
 40
0.295
  0
CIRCLE
  5
5AC
330
1E
100
AcDbEntity
  8
0
100
AcDbCircle
 10
95.24754562579799
 20
25.84469566467348
 30
0.0
 40
0.295
  0
CIRCLE
  5
5AD
330
1E
100
AcDbEntity
  8
0
100
AcDbCircle
 10
95.24754562579799
 20
15.87019566467347
 30
0.0
 40
0.295
  0
CIRCLE
  5
5AF
330
1E
100
AcDbEntity
  8
0
100
AcDbCircle
 10
103.473545625798
 20
45.99419566467346
 30
0.0
 40
0.295
  0
CIRCLE
  5
5B2
330
1E
100
AcDbEntity
  8
0
100
AcDbCircle
 10
103.473545625798
 20
15.87019566467347
 30
0.0
 40
0.295
  0
CIRCLE
  5
5B3
330
1E
100
AcDbEntity
  8
0
100
AcDbCircle
 10
109.2235456257979
 20
15.87019566467347
 30
0.0
 40
0.295
  0
CIRCLE
  5
5B6
330
1E
100
AcDbEntity
  8
0
100
AcDbCircle
 10
117.449545625798
 20
15.87019566467347
 30
0.0
 40
0.295
  0
CIRCLE
  5
5B7
330
1E
100
AcDbEntity
  8
0
100
AcDbCircle
 10
117.449545625798
 20
25.84469566467348
 30
0.0
 40
0.295
  0
CIRCLE
  5
5BA
330
1E
100
AcDbEntity
  8
0
100
AcDbCircle
 10
117.449545625798
 20
36.01969566467346
 30
0.0
 40
0.295
  0
CIRCLE
  5
5BB
330
1E
100
AcDbEntity
  8
0
100
AcDbCircle
 10
117.449545625798
 20
45.99419566467346
 30
0.0
 40
0.295
  0
CIRCLE
  5
5BD
330
1E
100
AcDbEntity
  8
0
100
AcDbCircle
 10
109.2235456257979
 20
45.99419566467346
 30
0.0
 40
0.295
  0
DIMENSION
  5
5BF
330
1E
100
AcDbEntity
  8
0
100
AcDbDimension
  2
*D16
 10
120.9594235680288
 20
36.01969566467346
 30
0.0
 11
120.9594235680288
 21
30.93219566467349
 31
0.0
 70
    32
  1
U
  3
23NSTD
100
AcDbAlignedDimension
 13
117.449545625798
 23
25.84469566467348
 33
0.0
 14
117.449545625798
 24
36.01969566467346
 34
0.0
 50
90.0
100
AcDbRotatedDimension
  0
DIMENSION
  5
5C0
330
1E
100
AcDbEntity
  8
0
100
AcDbDimension
  2
*D17
 10
123.4952909531034
 20
45.99419566467346
 30
0.0
 11
123.4952909531034
 21
30.93219566467349
 31
0.0
 70
    32
  1
T
  3
23NSTD
100
AcDbAlignedDimension
 13
117.449545625798
 23
15.87019566467347
 33
0.0
 14
117.449545625798
 24
45.99419566467346
 34
0.0
 50
90.0
100
AcDbRotatedDimension
  0
DIMENSION
  5
5C1
330
1E
100
AcDbEntity
  8
0
100
AcDbDimension
  2
*D21
 10
103.473545625798
 20
12.82625580593452
 30
0.0
 11
106.3485456257979
 21
12.82625580593452
 31
0.0
 70
   160
  1
S
  3
23NSTDI
100
AcDbAlignedDimension
 13
109.2235456257979
 23
15.87019566467347
 33
0.0
 14
103.473545625798
 24
15.87019566467347
 34
0.0
100
AcDbRotatedDimension
  0
DIMENSION
  5
5C2
330
1E
100
AcDbEntity
  8
0
100
AcDbDimension
  2
*D18
 10
95.24754562579799
 20
10.95125580593452
 30
0.0
 11
106.348545625798
 21
10.95125580593452
 31
0.0
 70
    32
  1
R
  3
23NSTD
100
AcDbAlignedDimension
 13
117.449545625798
 23
15.87019566467347
 33
0.0
 14
95.24754562579799
 24
15.87019566467347
 34
0.0
100
AcDbRotatedDimension
  0
INSERT
  5
5C3
330
1E
100
AcDbEntity
  8
0
100
AcDbBlockReference
  2
*X0
 10
5.539475623156903
 20
-2.248893602292127
 30
0.0
1001
ACAD
1000
HATCH
1002
{
1070
    16
1000
PLASTI
1040
1.5
1040
0.7853981633974483
1002
}
  0
INSERT
  5
5C5
330
1E
100
AcDbEntity
  8
0
100
AcDbBlockReference
  2
*X1
 10
5.539475623156903
 20
-2.248893602292127
 30
0.0
1001
ACAD
1000
HATCH
1002
{
1070
    16
1000
PLASTI
1040
1.5
1040
2.356194490192344
1002
}
  0
LINE
  5
5C6
330
1E
100
AcDbEntity
  8
0
  6
PHANTOM
100
AcDbLine
 10
76.25655991476332
 20
30.93219566467347
 30
0.0
 11
76.47013099294152
 21
31.46997683542375
 31
0.0
  0
LINE
  5
5C7
330
1E
100
AcDbEntity
  8
0
  6
PHANTOM
100
AcDbLine
 10
76.47013099294152
 20
31.46997683542375
 30
0.0
 11
76.62268189959238
 21
30.37199161430126
 31
0.0
  0
LINE
  5
5C8
330
1E
100
AcDbEntity
  8
0
  6
PHANTOM
100
AcDbLine
 10
76.62268189959238
 20
30.37199161430126
 30
0.0
 11
76.86676306353425
 21
30.93219566467347
 31
0.0
  0
LINE
  5
5C9
330
1E
100
AcDbEntity
  8
0
  6
PHANTOM
100
AcDbLine
 10
82.17552897656052
 20
30.93219566467347
 30
0.0
 11
82.38910005473872
 21
31.46997683542375
 31
0.0
  0
LINE
  5
5CA
330
1E
100
AcDbEntity
  8
0
  6
PHANTOM
100
AcDbLine
 10
82.38910005473872
 20
31.46997683542375
 30
0.0
 11
82.54165096138958
 21
30.37199161430126
 31
0.0
  0
LINE
  5
5CB
330
1E
100
AcDbEntity
  8
0
  6
PHANTOM
100
AcDbLine
 10
82.54165096138958
 20
30.37199161430126
 30
0.0
 11
82.78573212533144
 21
30.93219566467347
 31
0.0
  0
LINE
  5
5CC
330
1E
100
AcDbEntity
  8
0
  6
PHANTOM
100
AcDbLine
 10
76.86676306353425
 20
30.93219566467347
 30
0.0
 11
82.17552897656052
 21
30.93219566467345
 31
0.0
  0
LINE
  5
5CD
330
1E
100
AcDbEntity
  8
0
  6
PHANTOM
100
AcDbLine
 10
82.78573212533144
 20
30.93219566467345
 30
0.0
 11
85.14194880247529
 21
30.93219566467347
 31
0.0
  0
LWPOLYLINE
  5
5CE
330
1E
100
AcDbEntity
  8
0
100
AcDbPolyline
 90
        4
 70
     0
 10
95.03079691881804
 20
15.59784691778888
 40
0.0
 41
0.50625
 10
94.34011725090851
 20
14.43790657607455
 40
0.0
 41
0.0
 10
93.32066052481575
 20
12.72581189865908
 40
0.0
 41
0.0
 10
91.97066052481575
 20
12.72581189865908
 40
0.0
 41
0.0
  0
TEXT
  5
5D4
330
1E
100
AcDbEntity
  8
0
100
AcDbText
 10
79.57691052481575
 20
12.25706189865908
 30
0.0
 40
0.9375
  1
0.590 [15] DIA. BOSS
 41
0.75
 72
     2
 11
91.29566052481575
 21
12.72581189865908
 31
0.0
100
AcDbText
 73
     2
  0
TEXT
  5
5D5
330
1E
100
AcDbEntity
  8
0
100
AcDbText
 10
78.99097302481575
 20
10.69456189865908
 30
0.0
 40
0.9375
  1
WITH M5x0.8mm PITCH
 41
0.75
 72
     2
 11
91.29566052481575
 21
11.16331189865908
 31
0.0
100
AcDbText
 73
     2
  0
TEXT
  5
5D6
330
1E
100
AcDbEntity
  8
0
100
AcDbText
 10
76.99878552481575
 20
9.132061898659088
 30
0.0
 40
0.9375
  1
THREADED BRASS INSERT
 41
0.75
 72
     2
 11
91.29566052481575
 21
9.600811898659088
 31
0.0
100
AcDbText
 73
     2
  0
TEXT
  5
5D7
330
1E
100
AcDbEntity
  8
0
100
AcDbText
 10
84.49878552481575
 20
7.569561898659088
 30
0.0
 40
0.9375
  1
(12) PLACES
 41
0.75
 72
     2
 11
91.29566052481575
 21
8.038311898659088
 31
0.0
100
AcDbText
 73
     2
  0
LWPOLYLINE
  5
5D8
330
1E
100
AcDbEntity
  8
0
100
AcDbPolyline
 90
        4
 70
     0
 10
27.41726234241207
 20
16.78032073362439
 40
0.0
 41
0.50625
 10
28.20625345803764
 20
15.68487880478292
 40
0.0
 41
0.0
 10
29.53195735556787
 20
12.88970385525132
 40
0.0
 41
0.0
 10
30.88195735556786
 20
12.88970385525132
 40
0.0
 41
0.0
  0
TEXT
  5
5DE
330
1E
100
AcDbEntity
  8
0
100
AcDbText
 10
31.55695735556786
 20
12.42095385525132
 30
0.0
 40
0.9375
  1
0.690 [17.5] DIA. BOSS
 41
0.75
 11
31.55695735556786
 21
12.88970385525132
 31
0.0
100
AcDbText
 73
     2
  0
TEXT
  5
5DF
330
1E
100
AcDbEntity
  8
0
100
AcDbText
 10
31.55695735556786
 20
10.85845385525132
 30
0.0
 40
0.9375
  1
WITH M5x0.8mm PITCH
 41
0.75
 11
31.55695735556786
 21
11.32720385525132
 31
0.0
100
AcDbText
 73
     2
  0
TEXT
  5
5E0
330
1E
100
AcDbEntity
  8
0
100
AcDbText
 10
31.55695735556786
 20
9.295953855251326
 30
0.0
 40
0.9375
  1
THREADED BRASS INSERT
 41
0.75
 11
31.55695735556786
 21
9.764703855251326
 31
0.0
100
AcDbText
 73
     2
  0
TEXT
  5
5E1
330
1E
100
AcDbEntity
  8
0
100
AcDbText
 10
31.55695735556786
 20
7.733453855251326
 30
0.0
 40
0.9375
  1
(16) PLACES
 41
0.75
 11
31.55695735556786
 21
8.202203855251326
 31
0.0
100
AcDbText
 73
     2
  0
TEXT
  5
5E2
330
1E
100
AcDbEntity
  8
0
100
AcDbText
 10
22.59229209359831
 20
3.945410550459651
 30
0.0
 40
0.9360000000000001
  1
A
 41
0.75
 72
     4
 11
22.82629209359831
 21
4.413410550459651
 31
0.0
100
AcDbText
  0
TEXT
  5
5E3
330
1E
100
AcDbEntity
  8
0
100
AcDbText
 10
28.67612369557299
 20
3.945410550459646
 30
0.0
 40
0.9360000000000001
  1
B
 41
0.75
 72
     4
 11
28.91012369557299
 21
4.413410550459646
 31
0.0
100
AcDbText
  0
TEXT
  5
5E4
330
1E
100
AcDbEntity
  8
0
100
AcDbText
 10
34.82918917433
 20
3.945410550459643
 30
0.0
 40
0.9360000000000001
  1
C
 41
0.75
 72
     4
 11
35.06318917433
 21
4.413410550459643
 31
0.0
100
AcDbText
  0
TEXT
  5
5E5
330
1E
100
AcDbEntity
  8
0
100
AcDbText
 10
40.91302044767576
 20
3.945410550459628
 30
0.0
 40
0.9360000000000001
  1
D
 41
0.75
 72
     4
 11
41.14702044767575
 21
4.413410550459628
 31
0.0
100
AcDbText
  0
TEXT
  5
5E6
330
1E
100
AcDbEntity
  8
0
100
AcDbText
 10
47.20455335136869
 20
3.945410550459643
 30
0.0
 40
0.9360000000000001
  1
E
 41
0.75
 72
     4
 11
47.4385533513687
 21
4.413410550459643
 31
0.0
100
AcDbText
  0
TEXT
  5
5E7
330
1E
100
AcDbEntity
  8
0
100
AcDbText
 10
53.42685204965036
 20
3.945410550459619
 30
0.0
 40
0.9360000000000001
  1
F
 41
0.75
 72
     4
 11
53.66085204965036
 21
4.413410550459619
 31
0.0
100
AcDbText
  0
TEXT
  5
5E8
330
1E
100
AcDbEntity
  8
0
100
AcDbText
 10
59.44145010347146
 20
3.945410550459632
 30
0.0
 40
0.9360000000000001
  1
G
 41
0.75
 72
     4
 11
59.67545010347146
 21
4.413410550459632
 31
0.0
100
AcDbText
  0
TEXT
  5
5E9
330
1E
100
AcDbEntity
  8
0
100
AcDbText
 10
65.46252645596277
 20
3.945410550459612
 30
0.0
 40
0.9360000000000001
  1
H
 41
0.75
 72
     4
 11
65.69652645596277
 21
4.413410550459612
 31
0.0
100
AcDbText
  0
TEXT
  5
5EA
330
1E
100
AcDbEntity
  8
0
100
AcDbText
 10
71.67834718420309
 20
3.945410550459621
 30
0.0
 40
0.9360000000000001
  1
J
 41
0.75
 72
     4
 11
71.91234718420308
 21
4.413410550459621
 31
0.0
100
AcDbText
  0
TEXT
  5
5EB
330
1E
100
AcDbEntity
  8
0
100
AcDbText
 10
77.7198375916724
 20
3.945410550459605
 30
0.0
 40
0.9360000000000001
  1
K
 41
0.75
 72
     4
 11
77.9538375916724
 21
4.413410550459605
 31
0.0
100
AcDbText
  0
TEXT
  5
5EC
330
1E
100
AcDbEntity
  8
0
100
AcDbText
 10
84.02453010785793
 20
3.945410550459611
 30
0.0
 40
0.9360000000000001
  1
L
 41
0.75
 72
     4
 11
84.25853010785791
 21
4.413410550459611
 31
0.0
100
AcDbText
  0
TEXT
  5
5ED
330
1E
100
AcDbEntity
  8
0
100
AcDbText
 10
90.2039157974865
 20
3.945410550459634
 30
0.0
 40
0.9360000000000001
  1
M
 41
0.75
 72
     4
 11
90.43791579748649
 21
4.413410550459634
 31
0.0
100
AcDbText
  0
TEXT
  5
5EE
330
1E
100
AcDbEntity
  8
0
100
AcDbText
 10
96.38330115848635
 20
3.945410550459602
 30
0.0
 40
0.9360000000000001
  1
N
 41
0.75
 72
     4
 11
96.61730115848634
 21
4.413410550459602
 31
0.0
100
AcDbText
  0
TEXT
  5
5EF
330
1E
100
AcDbEntity
  8
0
100
AcDbText
 10
102.4373793643003
 20
3.945410550459596
 30
0.0
 40
0.9360000000000001
  1
P
 41
0.75
 72
     4
 11
102.6713793643003
 21
4.413410550459596
 31
0.0
100
AcDbText
  0
TEXT
  5
5F0
330
1E
100
AcDbEntity
  8
0
100
AcDbText
 10
108.38435940925
 20
3.945410550459591
 30
0.0
 40
0.9360000000000001
  1
R
 41
0.75
 72
     4
 11
108.61835940925
 21
4.413410550459591
 31
0.0
100
AcDbText
  0
TEXT
  5
5F1
330
1E
100
AcDbEntity
  8
0
100
AcDbText
 10
114.6922649294146
 20
3.945410550459586
 30
0.0
 40
0.9360000000000001
  1
S
 41
0.75
 72
     4
 11
114.9262649294146
 21
4.413410550459586
 31
0.0
100
AcDbText
  0
TEXT
  5
5F2
330
1E
100
AcDbEntity
  8
0
100
AcDbText
 10
120.7559818185372
 20
3.94541055045958
 30
0.0
 40
0.9360000000000001
  1
T
 41
0.75
 72
     4
 11
120.9899818185372
 21
4.41341055045958
 31
0.0
100
AcDbText
  0
TEXT
  5
5F3
330
1E
100
AcDbEntity
  8
0
100
AcDbText
 10
126.9824909092686
 20
3.945410550459575
 30
0.0
 40
0.9360000000000001
  1
U
 41
0.75
 72
     4
 11
127.2164909092686
 21
4.413410550459575
 31
0.0
100
AcDbText
  0
TEXT
  5
5F4
330
1E
100
AcDbEntity
  8
0
100
AcDbText
 10
103.844600702448
 20
53.69147566871264
 30
0.0
 40
0.9360000000000001
  1
STAINLESS STEEL LOCKING HASP,
 41
0.75
100
AcDbText
  0
LINE
  5
5F5
330
1E
100
AcDbEntity
  8
0
100
AcDbLine
 10
130.2367499999999
 20
3.629018348623816
 30
0.0
 11
0.4882500000000079
 21
3.629018348623817
 31
0.0
  0
LINE
  5
5F6
330
1E
100
AcDbEntity
  8
0
100
AcDbLine
 10
130.2367499999999
 20
5.199402522935759
 30
0.0
 11
0.4882500000000079
 21
5.199402522935743
 31
0.0
  0
TEXT
  5
5F7
330
1E
100
AcDbEntity
  8
0
100
AcDbText
 10
7.310067954497082
 20
0.7976606117714567
 30
0.0
 40
0.9382167431192659
  1
NBC-10352
 41
0.75
 72
     1
 11
10.18335673029983
 21
0.7976606117714567
 31
0.0
100
AcDbText
  0
TEXT
  5
5F8
330
1E
100
AcDbEntity
  8
0
100
AcDbText
 10
7.906255703328187
 20
5.556396488704148
 30
0.0
 40
0.9382167431192659
  1
PART NO.
 41
0.75
 72
     1
 11
10.36907465401626
 21
5.556396488704148
 31
0.0
100
AcDbText
  0
TEXT
  5
5FB
330
1E
100
AcDbEntity
  8
0
100
AcDbText
 10
13.57224999999999
 20
73.313375
 30
0.0
 40
1.25
  1
LARGE NON-METALLIC ENCLOSURE (STYLE C)
 41
0.75
 72
     4
 11
30.75974999999999
 21
73.938375
 31
0.0
100
AcDbText
  0
TEXT
  5
5FC
330
1E
100
AcDbEntity
  8
0
100
AcDbText
 10
70.3378400863844
 20
73.313375
 30
0.0
 40
1.25
  1
NBC-10342    NBC-10352    NBC-10372
 41
0.75
 72
     4
 11
85.88471508638439
 21
73.938375
 31
0.0
100
AcDbText
  0
TEXT
  5
5FD
330
1E
100
AcDbEntity
  8
0
100
AcDbText
 10
50.7175207261293
 20
8.357235472560063
 30
0.0
 40
0.9392201834862387
  1
DIMENSIONS =
 41
0.75
100
AcDbText
  0
TEXT
  5
5FE
330
1E
100
AcDbEntity
  8
0
100
AcDbText
 10
61.17268321057627
 20
9.163225358753209
 30
0.0
 40
0.9392201834862387
  1
INCHES
 41
0.75
 72
     1
 11
63.05112357754875
 21
9.163225358753209
 31
0.0
100
AcDbText
  0
TEXT
  5
5FF
330
1E
100
AcDbEntity
  8
0
100
AcDbText
 10
59.05943779773224
 20
7.597858386276129
 30
0.0
 40
0.9392201834862387
  1
[MILLIMETERS]
 41
0.75
 72
     1
 11
63.05112357754875
 21
7.597858386276129
 31
0.0
100
AcDbText
  0
TEXT
  5
600
330
1E
100
AcDbEntity
  8
0
100
AcDbText
 10
103.844600702448
 20
67.77643668132146
 30
0.0
 40
0.9392201834862387
  1
 (8) WALL MOUNTING BRACKETS
 41
0.75
100
AcDbText
  0
TEXT
  5
601
330
1E
100
AcDbEntity
  8
0
100
AcDbText
 10
103.844600702448
 20
58.3039824986955
 30
0.0
 40
0.9392201834862387
  1
 (1) T-HANDLE KEY & (2) DOOR KEYS
 41
0.75
100
AcDbText
  0
TEXT
  5
602
330
1E
100
AcDbEntity
  8
0
100
AcDbText
 10
103.844600702448
 20
55.26688427115356
 30
0.0
 40
0.9392201834862387
  1
AIR AND MOISTURE VENTS,
 41
0.75
100
AcDbText
  0
TEXT
  5
603
330
1E
100
AcDbEntity
  8
0
100
AcDbText
 10
103.844600702448
 20
69.26155130603496
 30
0.0
 40
0.9392201834862387
  1
UNIT COMES COMPLETE WITH:
 41
0.75
100
AcDbText
  0
TEXT
  5
604
330
1E
100
AcDbEntity
  8
0
100
AcDbText
 10
69.77499455288833
 20
59.04377294833915
 30
0.0
 40
0.9392201834862387
  1
%%UBOXES DESIGNED TO MEET STANDARDS:
 41
0.75
100
AcDbText
  0
TEXT
  5
605
330
1E
100
AcDbEntity
  8
0
100
AcDbText
 10
70.71249455288833
 20
57.48100887637966
 30
0.0
 40
0.9392201834862387
  1
UL508 TYPE 1, 2, 4, 4X INDOOR,
 41
0.75
100
AcDbText
  0
TEXT
  5
606
330
1E
100
AcDbEntity
  8
0
100
AcDbText
 10
70.71249455288833
 20
54.35027493142553
 30
0.0
 40
0.9392201834862387
  1
NEMA TYPE 1, 2, 4, 4X, 12 & 13
 41
0.75
100
AcDbText
  0
TEXT
  5
607
330
1E
100
AcDbEntity
  8
0
100
AcDbText
 10
70.71249455288833
 20
52.78490795894843
 30
0.0
 40
0.9392201834862387
  1
 AND IEC529-IP66
 41
0.75
100
AcDbText
  0
TEXT
  5
60A
330
1E
100
AcDbEntity
  8
0
100
AcDbText
 10
96.1934313266525
 20
8.874552889272607
 30
0.0
 40
0.9392201834862387
  1
%%UNOTE%%U: ALL DIMENSIONS HAVE %%P0.039 [%%P1] TOLERANCE
 41
0.75
100
AcDbText
  0
TEXT
  5
60B
330
1E
100
AcDbEntity
  8
0
100
AcDbText
 10
99.20366904157285
 20
7.352330842254247
 30
0.0
 40
0.9392201834862387
  1
 UNLESS OTHERWISE SPECIFIED
 41
0.75
100
AcDbText
  0
LINE
  5
60D
330
1E
100
AcDbEntity
  8
0
100
AcDbLine
 10
19.91474999999991
 20
0.4882500000000101
 30
0.0
 11
19.91474999999993
 21
6.769786697247674
 31
0.0
  0
LINE
  5
61A
330
1E
100
AcDbEntity
  8
0
100
AcDbLine
 10
77.94125842664738
 20
67.69618433355788
 30
0.0
 11
89.25002473568898
 21
67.69618433355788
 31
0.0
  0
LINE
  5
61B
330
1E
100
AcDbEntity
  8
0
100
AcDbLine
 10
81.71809986241237
 20
61.3259057999671
 30
0.0
 11
87.23911725746953
 21
61.3259057999671
 31
0.0
  0
TEXT
  5
61D
330
1E
100
AcDbEntity
  8
0
100
AcDbText
 10
70.68588357730655
 20
66.21421018077464
 30
0.0
 40
0.9392201834862387
  1
WALL MOUNTING BRACKETS
 41
0.75
100
AcDbText
  0
TEXT
  5
61E
330
1E
100
AcDbEntity
  8
0
100
AcDbText
 10
70.68588357730655
 20
69.26155130603496
 30
0.0
 40
0.9392201834862387
  1
LATCHES, HINGES & PANEL
 41
0.75
100
AcDbText
  0
TEXT
  5
621
330
1E
100
AcDbEntity
  8
0
100
AcDbText
 10
70.76412596749418
 20
62.80787995275034
 30
0.0
 40
0.9392201834862387
  1
BODY, DOOR, LATCHES, HINGES &
 41
0.75
100
AcDbText
  0
TEXT
  5
622
330
1E
100
AcDbEntity
  8
0
100
AcDbText
 10
69.77499455288833
 20
64.37324692522742
 30
0.0
 40
0.9392201834862387
  1
%%UFINISH:
 41
0.75
100
AcDbText
  0
TEXT
  5
624
330
1E
100
AcDbEntity
  8
0
100
AcDbText
 10
89.80003445553283
 20
66.21421018077459
 30
0.0
 40
0.9392201834862387
  1
STAINLESS STEEL
 41
0.75
100
AcDbText
  0
TEXT
  5
625
330
1E
100
AcDbEntity
  8
0
100
AcDbText
 10
89.80003445553283
 20
67.69618433355788
 30
0.0
 40
0.9392201834862387
  1
NON-METALLIC
 41
0.75
100
AcDbText
  0
TEXT
  5
626
330
1E
100
AcDbEntity
  8
0
100
AcDbText
 10
87.70786725746949
 20
61.3259057999671
 30
0.0
 40
0.9392201834862387
  1
LIGHT GRAY
 41
0.75
100
AcDbText
  0
TEXT
  5
631
330
1E
100
AcDbEntity
  8
0
100
AcDbText
 10
49.3776417617806
 20
12.29685094070664
 30
0.0
 40
0.9392201834862387
  1
DOOR INCLUDES GRAY POLYURETHANE GASKET.
 41
0.75
100
AcDbText
  0
TEXT
  5
632
330
1E
100
AcDbEntity
  8
0
100
AcDbText
 10
103.844600702448
 20
66.21106970884439
 30
0.0
 40
0.9392201834862387
  1
 (20) M5x0.8 x 10mm LG. TRUSS HD.
 41
0.75
100
AcDbText
  0
LINE
  5
643
330
1E
100
AcDbEntity
  8
0
100
AcDbLine
 10
86.40885508791871
 20
66.21421018077459
 30
0.0
 11
89.25002473568898
 21
66.21421018077459
 31
0.0
  0
TEXT
  5
644
330
1E
100
AcDbEntity
  8
0
100
AcDbText
 10
103.844600702448
 20
52.13615032619945
 30
0.0
 40
0.9392201834862387
  1
& GALVANIZED STEEL INTERNAL
 41
0.75
100
AcDbText
  0
TEXT
  5
645
330
1E
100
AcDbEntity
  8
0
100
AcDbText
 10
103.844600702448
 20
50.56074172375854
 30
0.0
 40
0.9392201834862387
  1
PANEL ARE NOT INCLUDED, BUT
 41
0.75
100
AcDbText
  0
TEXT
  5
646
330
1E
100
AcDbEntity
  8
0
100
AcDbText
 10
103.844600702448
 20
48.98533312131762
 30
0.0
 40
0.9392201834862387
  1
CAN BE PURCHASED SEPARATELY.
 41
0.75
100
AcDbText
  0
TEXT
  5
647
330
1E
100
AcDbEntity
  8
0
100
AcDbText
 10
71.64999455288833
 20
55.91564190390258
 30
0.0
 40
0.9392201834862387
  1
12 & 13
 41
0.75
100
AcDbText
  0
LINE
  5
648
330
1E
100
AcDbEntity
  8
0
100
AcDbLine
 10
130.2367499999999
 20
2.026649434583845
 30
0.0
 11
0.4882500000000092
 21
2.02664943458385
 31
0.0
  0
DIMENSION
  5
886
330
1E
100
AcDbEntity
  8
0
100
AcDbDimension
  2
*D23
 10
75.54555374233537
 20
19.13139898394533
 30
0.0
 11
80.00348870233537
 21
19.13139898394533
 31
0.0
 70
    32
  3
23NSTD
100
AcDbAlignedDimension
 13
84.46142366233539
 23
25.57993293609838
 33
0.0
 14
75.54555374233537
 24
20.67480175555007
 34
0.0
100
AcDbRotatedDimension
  0
TEXT
  5
895
330
1E
100
AcDbEntity
  8
0
100
AcDbText
 10
78.18599192088504
 20
17.35817259198006
 30
0.0
 40
0.9379999999999999
  1
[226.5]
 41
0.75
 72
     1
 11
80.06199192088505
 21
17.35817259198006
 31
0.0
100
AcDbText
  0
TEXT
  5
899
330
1E
100
AcDbEntity
  8
0
100
AcDbText
 10
120.5499650863843
 20
73.313375
 30
0.0
 40
1.25
  1
9-29-10
 41
0.75
 72
     4
 11
123.4405900863843
 21
73.938375
 31
0.0
100
AcDbText
  0
HATCH
  5
9F9
330
1E
100
AcDbEntity
  8
0
100
AcDbHatch
 10
0.0
 20
0.0
 30
0.0
210
0.0
220
0.0
230
1.0
  2
PLASTI
 70
     0
 71
     1
 91
        2
 92
        7
 72
     0
 73
     1
 93
       28
 10
74.12382522233534
 20
30.3022744166736
 10
74.67500631433551
 20
30.30227441667361
 10
74.67500631433551
 20
30.45975472867358
 10
74.79311654833543
 20
30.45975472867357
 10
74.79311654833544
 20
30.53849488467344
 10
75.41024252333556
 20
30.53849488467343
 10
75.41024252333558
 20
30.68810118107362
 10
74.63563623633547
 20
30.68810118107362
 10
74.63563623633547
 20
30.61723504067353
 10
74.51752600233556
 20
30.61723504067353
 10
74.51752600233556
 20
30.45975472867357
 10
73.84823467633542
 20
30.45975472867357
 10
73.84823467633545
 20
30.3810145726737
 10
73.92697483233533
 20
30.38101457267371
 10
73.92697483233533
 20
18.09755023667352
 10
73.84823467633523
 20
18.09755023667352
 10
73.84823467633523
 20
18.01881008067343
 10
74.51752600233536
 20
18.01881008067343
 10
74.51752600233536
 20
17.86132976867347
 10
74.63563623633529
 20
17.86132976867347
 10
74.63563623633529
 20
17.79046362827361
 10
75.54555374233538
 20
17.79046362827361
 10
75.54555374233537
 20
17.94006992467333
 10
74.79311654833523
 20
17.94006992467333
 10
74.79311654833523
 20
18.01881008067343
 10
74.67500631433532
 20
18.01881008067343
 10
74.67500631433532
 20
18.17629039267362
 10
74.12382522233534
 20
18.17629039267362
 97
       28
330
3CA
330
3CC
330
3D0
330
3CD
330
3CF
330
3CE
330
3D1
330
3C7
330
3CB
330
3C8
330
3D2
330
353
330
352
330
39B
330
38F
330
3B7
330
39A
330
397
330
398
330
396
330
390
330
366
330
392
330
394
330
391
330
395
330
399
330
39C
 92
        7
 72
     1
 73
     1
 93
       27
 10
74.12382522233534
 20
16.67707782243346
 42
0.0
 10
74.43878584633527
 20
16.67707782243346
 42
0.0
 10
74.43878584633527
 20
16.75581797843355
 42
0.0
 10
74.12382522233532
 20
16.75581797843355
 42
0.0
 10
74.12382522233534
 20
16.91644789667347
 42
0.0
 10
74.67500631433532
 20
16.91644789667347
 42
0.0
 10
74.67500631433532
 20
17.07392820867343
 42
0.0
 10
74.79311654833523
 20
17.07392820867343
 42
0.0
 10
74.79311654833523
 20
17.1526683646733
 42
0.0
 10
75.41024252333535
 20
17.1526683646733
 42
0.0
 10
75.41024252333537
 20
17.30227466107348
 42
0.0
 10
74.63563623633527
 20
17.30227466107348
 42
0.0
 10
74.63563623633525
 20
17.23140852067339
 42
0.0
 10
74.51752600233536
 20
17.23140852067339
 42
0.0
 10
74.51752600233536
 20
17.07392820867343
 42
0.0
 10
73.84823467633523
 20
17.07392820867343
 42
0.0
 10
73.84823467633523
 20
16.99518805267357
 42
0.0
 10
73.92697483233532
 20
16.99518805267357
 42
0.0
 10
73.92697483233533
 20
15.54597548149362
 42
0.4142135623734383
 10
74.12382522233532
 20
15.34912509149339
 42
0.0
 10
74.91122678233539
 20
15.34912509149339
 42
0.0
 10
74.91122678233539
 20
15.54597548149362
 42
0.0
 10
74.12382522233534
 20
15.54597548149362
 42
0.0
 10
74.12382522233532
 20
16.24400696443339
 42
0.0
 10
74.43878584633525
 20
16.24400696443339
 42
0.0
 10
74.43878584633527
 20
16.32274712043349
 42
0.0
 10
74.12382522233534
 20
16.32274712043349
 42
0.0
 97
       27
330
3AF
330
3B8
330
3AE
330
39D
330
3B2
330
3A8
330
3A4
330
3A7
330
3A5
330
3A6
330
3A3
330
3B6
330
3A9
330
3B5
330
3B3
330
3B7
330
39F
330
3A2
330
3A0
330
3AC
330
3AA
330
3AD
330
3A1
330
3B1
330
3AB
330
3B0
330
39E
 75
     0
 76
     1
 52
45.0
 41
1.5
 77
     0
 78
     4
 53
45.0
 43
5.757102487746863
 44
-3.535234488846384
 45
-0.2651650429449553
 46
0.2651650429449553
 79
     0
 53
45.0
 43
5.723956857378743
 44
-3.502088858478265
 45
-0.2651650429449553
 46
0.2651650429449553
 79
     0
 53
45.0
 43
5.690811227010624
 44
-3.468943228110145
 45
-0.2651650429449553
 46
0.2651650429449553
 79
     0
 53
45.0
 43
5.591374335906266
 44
-3.369506337005787
 45
-0.2651650429449553
 46
0.2651650429449553
 79
     0
 47
0.0308068919847661
 98
        2
 10
74.02785733873713
 20
28.52612009508962
 10
73.99702752857405
 20
16.44981828205004
  0
LEADER
  5
9FB
330
1E
100
AcDbEntity
  8
0
100
AcDbLeader
  3
23NSTD
 73
     0
 74
     0
 75
     1
 40
5.625
 41
29.0625
 76
     3
 10
16.69065252530833
 20
33.23220140156472
 30
0.0
 10
9.442853249127233
 20
56.0512004235307
 30
0.0
 10
10.79285324912723
 20
56.0512004235307
 30
0.0
340
9FC
213
-0.1490033007962879
223
2.26604929074972
233
0.0
1001
ACAD
1000
DSTYLE
1002
{
1070
     5
1000

1002
}
  0
MTEXT
  5
9FC
102
{ACAD_REACTORS
330
9FB
102
}
330
1E
100
AcDbEntity
  8
0
100
AcDbMText
 10
11.61685654992352
 20
53.78515113278098
 30
0.0
 40
0.9375
 41
0.0
 71
     4
 72
     1
  1
0.690 [17.5] DIA. BOSS WITH 0.200 [5] DIA.\PHOLE x 0.395 [10] DEEP (4) PLACES\PBOSSES ACCEPT M6 METRIC OR 0.250" STD. SHEET\PMETAL SCREWS x 0.375 [9] LG. (NOT SUPPLIED)
1001
ACAD
1000
MTEXTBEGIN
1070
    73
1070
     1
1070
    44
1040
1.0
1070
    74
1070
     0
1000
MTEXTEND
  0
LINE
  5
C07
330
1E
100
AcDbEntity
  8
0
100
AcDbLine
 10
26.0437499999999
 20
0.4882500000000101
 30
0.0
 11
26.04374999999993
 21
5.199402522935747
 31
0.0
  0
LINE
  5
C08
330
1E
100
AcDbEntity
  8
0
100
AcDbLine
 10
32.17274999999989
 20
0.4882500000000199
 30
0.0
 11
32.17274999999992
 21
5.199402522935757
 31
0.0
  0
LINE
  5
C09
330
1E
100
AcDbEntity
  8
0
100
AcDbLine
 10
38.30174999999991
 20
0.4882500000000181
 30
0.0
 11
38.30174999999993
 21
5.199402522935756
 31
0.0
  0
LINE
  5
C0A
330
1E
100
AcDbEntity
  8
0
100
AcDbLine
 10
44.4307499999999
 20
0.4882500000000092
 30
0.0
 11
44.43074999999992
 21
5.199402522935747
 31
0.0
  0
LINE
  5
C0B
330
1E
100
AcDbEntity
  8
0
100
AcDbLine
 10
50.55974999999989
 20
0.4882500000000101
 30
0.0
 11
50.55974999999992
 21
5.199402522935747
 31
0.0
  0
LINE
  5
C0C
330
1E
100
AcDbEntity
  8
0
100
AcDbLine
 10
56.68874999999991
 20
0.4882500000000092
 30
0.0
 11
56.68874999999992
 21
5.199402522935747
 31
0.0
  0
LINE
  5
C0D
330
1E
100
AcDbEntity
  8
0
100
AcDbLine
 10
62.8177499999999
 20
0.4882500000000092
 30
0.0
 11
62.81774999999992
 21
5.199402522935747
 31
0.0
  0
LINE
  5
C0E
330
1E
100
AcDbEntity
  8
0
100
AcDbLine
 10
68.94674999999991
 20
0.4882500000000092
 30
0.0
 11
68.94674999999992
 21
5.199402522935747
 31
0.0
  0
LINE
  5
C0F
330
1E
100
AcDbEntity
  8
0
100
AcDbLine
 10
75.07574999999992
 20
0.4882500000000092
 30
0.0
 11
75.07574999999993
 21
5.199402522935747
 31
0.0
  0
LINE
  5
C10
330
1E
100
AcDbEntity
  8
0
100
AcDbLine
 10
81.20474999999991
 20
0.4882500000000092
 30
0.0
 11
81.20474999999995
 21
5.199402522935747
 31
0.0
  0
LINE
  5
C11
330
1E
100
AcDbEntity
  8
0
100
AcDbLine
 10
87.33374999999993
 20
0.4882500000000092
 30
0.0
 11
87.33374999999993
 21
5.199402522935747
 31
0.0
  0
LINE
  5
C12
330
1E
100
AcDbEntity
  8
0
100
AcDbLine
 10
93.46274999999993
 20
0.4882500000000092
 30
0.0
 11
93.46274999999995
 21
5.199402522935747
 31
0.0
  0
LINE
  5
C13
330
1E
100
AcDbEntity
  8
0
100
AcDbLine
 10
99.59174999999994
 20
0.488250000000019
 30
0.0
 11
99.59174999999994
 21
5.199402522935756
 31
0.0
  0
LINE
  5
C14
330
1E
100
AcDbEntity
  8
0
100
AcDbLine
 10
105.7207499999999
 20
0.4882500000000092
 30
0.0
 11
105.7207499999999
 21
5.199402522935747
 31
0.0
  0
LINE
  5
C15
330
1E
100
AcDbEntity
  8
0
100
AcDbLine
 10
111.8497499999999
 20
0.4882500000000092
 30
0.0
 11
111.8497499999999
 21
5.199402522935747
 31
0.0
  0
LINE
  5
C16
330
1E
100
AcDbEntity
  8
0
100
AcDbLine
 10
117.9787499999999
 20
0.4882500000000199
 30
0.0
 11
117.9787499999999
 21
5.199402522935757
 31
0.0
  0
LINE
  5
C17
330
1E
100
AcDbEntity
  8
0
100
AcDbLine
 10
124.1077499999999
 20
0.4882500000000092
 30
0.0
 11
124.1077499999999
 21
5.199402522935747
 31
0.0
  0
TEXT
  5
DD2
330
1E
100
AcDbEntity
  8
0
100
AcDbText
 10
70.68588357730655
 20
67.69618433355788
 30
0.0
 40
0.9392201834862387
  1
  BRACKETS
 41
0.75
100
AcDbText
  0
TEXT
  5
DD4
330
1E
100
AcDbEntity
  8
0
100
AcDbText
 10
103.844600702448
 20
61.59522113917676
 30
0.0
 40
0.9392201834862387
  1
 (8) M4 x 18mm LG. PAN HD. SELF-
 41
0.75
100
AcDbText
  0
TEXT
  5
DD5
330
1E
100
AcDbEntity
  8
0
100
AcDbText
 10
103.844600702448
 20
63.16058811165382
 30
0.0
 40
0.9392201834862387
  1
 (8) PANEL BRACKETS
 41
0.75
100
AcDbText
  0
CIRCLE
  5
EBD
330
1E
100
AcDbEntity
  8
0
100
AcDbCircle
 10
27.1904198952141
 20
17.05424316967364
 30
0.0
 40
0.0853616516775837
  0
CIRCLE
  5
EBE
330
1E
100
AcDbEntity
  8
0
100
AcDbCircle
 10
28.76522301521406
 20
18.62904628967348
 30
0.0
 40
0.0853616516775837
  0
CIRCLE
  5
EBF
330
1E
100
AcDbEntity
  8
0
  6
HIDDEN
100
AcDbCircle
 10
28.76522301521406
 20
18.62904628967348
 30
0.0
 40
0.0985
  0
CIRCLE
  5
EC0
330
1E
100
AcDbEntity
  8
0
100
AcDbCircle
 10
20.79278222021409
 20
17.05424316967364
 30
0.0
 40
0.0853616516775837
  0
CIRCLE
  5
EC1
330
1E
100
AcDbEntity
  8
0
  6
HIDDEN
100
AcDbCircle
 10
20.79278222021409
 20
17.05424316967364
 30
0.0
 40
0.0985
  0
CIRCLE
  5
EC2
330
1E
100
AcDbEntity
  8
0
  6
HIDDEN
100
AcDbCircle
 10
28.76522301521406
 20
28.96369176467361
 30
0.0
 40
0.0985
  0
CIRCLE
  5
EC3
330
1E
100
AcDbEntity
  8
0
100
AcDbCircle
 10
28.76522301521406
 20
28.96369176467361
 30
0.0
 40
0.0853616516775837
  0
CIRCLE
  5
EC4
330
1E
100
AcDbEntity
  8
0
100
AcDbCircle
 10
8.88333362521412
 20
28.96369176467361
 30
0.0
 40
0.0853616516775837
  0
CIRCLE
  5
EC5
330
1E
100
AcDbEntity
  8
0
  6
HIDDEN
100
AcDbCircle
 10
8.88333362521412
 20
28.96369176467361
 30
0.0
 40
0.0985
  0
CIRCLE
  5
EC6
330
1E
100
AcDbEntity
  8
0
  6
HIDDEN
100
AcDbCircle
 10
8.88333362521412
 20
18.62904628967348
 30
0.0
 40
0.0985
  0
CIRCLE
  5
EC7
330
1E
100
AcDbEntity
  8
0
100
AcDbCircle
 10
8.88333362521412
 20
18.62904628967348
 30
0.0
 40
0.0853616516775837
  0
CIRCLE
  5
EC8
330
1E
100
AcDbEntity
  8
0
100
AcDbCircle
 10
10.45813674521407
 20
17.05424316967364
 30
0.0
 40
0.0853616516775837
  0
CIRCLE
  5
EC9
330
1E
100
AcDbEntity
  8
0
  6
HIDDEN
100
AcDbCircle
 10
10.45813674521407
 20
17.05424316967364
 30
0.0
 40
0.0985
  0
CIRCLE
  5
ECA
330
1E
100
AcDbEntity
  8
0
  6
HIDDEN
100
AcDbCircle
 10
16.85577442021409
 20
17.05424316967364
 30
0.0
 40
0.0985
  0
CIRCLE
  5
ECB
330
1E
100
AcDbEntity
  8
0
100
AcDbCircle
 10
16.85577442021409
 20
17.05424316967364
 30
0.0
 40
0.0853616516775837
  0
CIRCLE
  5
ECC
330
1E
100
AcDbEntity
  8
0
  6
HIDDEN
100
AcDbCircle
 10
8.88333362521412
 20
32.90069956467333
 30
0.0
 40
0.0985
  0
CIRCLE
  5
ECD
330
1E
100
AcDbEntity
  8
0
100
AcDbCircle
 10
8.88333362521412
 20
32.90069956467333
 30
0.0
 40
0.0853616516775837
  0
CIRCLE
  5
ECE
330
1E
100
AcDbEntity
  8
0
100
AcDbCircle
 10
8.88333362521412
 20
43.23534503967346
 30
0.0
 40
0.0853616516775837
  0
CIRCLE
  5
ECF
330
1E
100
AcDbEntity
  8
0
  6
HIDDEN
100
AcDbCircle
 10
8.88333362521412
 20
43.23534503967346
 30
0.0
 40
0.0985
  0
CIRCLE
  5
ED0
330
1E
100
AcDbEntity
  8
0
  6
HIDDEN
100
AcDbCircle
 10
10.45813674521407
 20
44.8101481596733
 30
0.0
 40
0.0985
  0
CIRCLE
  5
ED1
330
1E
100
AcDbEntity
  8
0
100
AcDbCircle
 10
10.45813674521407
 20
44.8101481596733
 30
0.0
 40
0.0853616516775837
  0
CIRCLE
  5
ED2
330
1E
100
AcDbEntity
  8
0
100
AcDbCircle
 10
16.85577442021409
 20
44.8101481596733
 30
0.0
 40
0.0853616516775837
  0
CIRCLE
  5
ED3
330
1E
100
AcDbEntity
  8
0
  6
HIDDEN
100
AcDbCircle
 10
16.85577442021409
 20
44.8101481596733
 30
0.0
 40
0.0985
  0
CIRCLE
  5
ED4
330
1E
100
AcDbEntity
  8
0
  6
HIDDEN
100
AcDbCircle
 10
20.79278222021409
 20
44.8101481596733
 30
0.0
 40
0.0985
  0
CIRCLE
  5
ED5
330
1E
100
AcDbEntity
  8
0
100
AcDbCircle
 10
20.79278222021409
 20
44.8101481596733
 30
0.0
 40
0.0853616516775837
  0
CIRCLE
  5
ED6
330
1E
100
AcDbEntity
  8
0
  6
HIDDEN
100
AcDbCircle
 10
28.76522301521406
 20
43.23534503967346
 30
0.0
 40
0.0985
  0
CIRCLE
  5
ED7
330
1E
100
AcDbEntity
  8
0
100
AcDbCircle
 10
28.76522301521406
 20
43.23534503967346
 30
0.0
 40
0.0853616516775837
  0
CIRCLE
  5
ED8
330
1E
100
AcDbEntity
  8
0
100
AcDbCircle
 10
27.1904198952141
 20
44.8101481596733
 30
0.0
 40
0.0853616516775837
  0
CIRCLE
  5
ED9
330
1E
100
AcDbEntity
  8
0
  6
HIDDEN
100
AcDbCircle
 10
27.1904198952141
 20
44.8101481596733
 30
0.0
 40
0.0985
  0
CIRCLE
  5
EDA
330
1E
100
AcDbEntity
  8
0
100
AcDbCircle
 10
28.76522301521406
 20
32.90069956467333
 30
0.0
 40
0.0853616516775837
  0
CIRCLE
  5
EDB
330
1E
100
AcDbEntity
  8
0
  6
HIDDEN
100
AcDbCircle
 10
28.76522301521406
 20
32.90069956467333
 30
0.0
 40
0.0985
  0
CIRCLE
  5
EDD
330
1E
100
AcDbEntity
  8
0
  6
HIDDEN
100
AcDbCircle
 10
95.24754562579799
 20
15.87019566467347
 30
0.0
 40
0.0985
  0
CIRCLE
  5
EDE
330
1E
100
AcDbEntity
  8
0
100
AcDbCircle
 10
95.24754562579799
 20
15.87019566467347
 30
0.0
 40
0.0853616516775837
  0
CIRCLE
  5
EDF
330
1E
100
AcDbEntity
  8
0
100
AcDbCircle
 10
95.24754562579799
 20
25.84469566467348
 30
0.0
 40
0.0853616516775837
  0
CIRCLE
  5
EE0
330
1E
100
AcDbEntity
  8
0
  6
HIDDEN
100
AcDbCircle
 10
95.24754562579799
 20
25.84469566467348
 30
0.0
 40
0.0985
  0
CIRCLE
  5
EE1
330
1E
100
AcDbEntity
  8
0
  6
HIDDEN
100
AcDbCircle
 10
103.473545625798
 20
15.87019566467347
 30
0.0
 40
0.0985
  0
CIRCLE
  5
EE2
330
1E
100
AcDbEntity
  8
0
100
AcDbCircle
 10
103.473545625798
 20
15.87019566467347
 30
0.0
 40
0.0853616516775837
  0
CIRCLE
  5
EE3
330
1E
100
AcDbEntity
  8
0
  6
HIDDEN
100
AcDbCircle
 10
117.4495456257979
 20
25.84469566467348
 30
0.0
 40
0.0985
  0
CIRCLE
  5
EE4
330
1E
100
AcDbEntity
  8
0
100
AcDbCircle
 10
117.4495456257979
 20
25.84469566467348
 30
0.0
 40
0.0853616516775837
  0
CIRCLE
  5
EE5
330
1E
100
AcDbEntity
  8
0
100
AcDbCircle
 10
117.4495456257979
 20
15.87019566467347
 30
0.0
 40
0.0853616516775837
  0
CIRCLE
  5
EE6
330
1E
100
AcDbEntity
  8
0
  6
HIDDEN
100
AcDbCircle
 10
117.4495456257979
 20
15.87019566467347
 30
0.0
 40
0.0985
  0
CIRCLE
  5
EE7
330
1E
100
AcDbEntity
  8
0
100
AcDbCircle
 10
109.2235456257979
 20
15.87019566467347
 30
0.0
 40
0.0853616516775837
  0
CIRCLE
  5
EE8
330
1E
100
AcDbEntity
  8
0
  6
HIDDEN
100
AcDbCircle
 10
109.2235456257979
 20
15.87019566467347
 30
0.0
 40
0.0985
  0
CIRCLE
  5
EF5
330
1E
100
AcDbEntity
  8
0
  6
HIDDEN
100
AcDbCircle
 10
95.24754562579799
 20
36.01969566467346
 30
0.0
 40
0.0985
  0
CIRCLE
  5
EF6
330
1E
100
AcDbEntity
  8
0
100
AcDbCircle
 10
95.24754562579799
 20
36.01969566467346
 30
0.0
 40
0.0853616516775837
  0
CIRCLE
  5
EF7
330
1E
100
AcDbEntity
  8
0
100
AcDbCircle
 10
117.4495456257979
 20
36.01969566467346
 30
0.0
 40
0.0853616516775837
  0
CIRCLE
  5
EF8
330
1E
100
AcDbEntity
  8
0
  6
HIDDEN
100
AcDbCircle
 10
117.4495456257979
 20
36.01969566467346
 30
0.0
 40
0.0985
  0
CIRCLE
  5
EF9
330
1E
100
AcDbEntity
  8
0
100
AcDbCircle
 10
95.24754562579799
 20
45.99419566467346
 30
0.0
 40
0.0853616516775837
  0
CIRCLE
  5
EFA
330
1E
100
AcDbEntity
  8
0
  6
HIDDEN
100
AcDbCircle
 10
95.24754562579799
 20
45.99419566467346
 30
0.0
 40
0.0985
  0
CIRCLE
  5
EFB
330
1E
100
AcDbEntity
  8
0
100
AcDbCircle
 10
103.473545625798
 20
45.99419566467346
 30
0.0
 40
0.0853616516775837
  0
CIRCLE
  5
EFC
330
1E
100
AcDbEntity
  8
0
  6
HIDDEN
100
AcDbCircle
 10
103.473545625798
 20
45.99419566467346
 30
0.0
 40
0.0985
  0
CIRCLE
  5
EFD
330
1E
100
AcDbEntity
  8
0
  6
HIDDEN
100
AcDbCircle
 10
109.2235456257979
 20
45.99419566467346
 30
0.0
 40
0.0985
  0
CIRCLE
  5
EFE
330
1E
100
AcDbEntity
  8
0
100
AcDbCircle
 10
109.2235456257979
 20
45.99419566467346
 30
0.0
 40
0.0853616516775837
  0
CIRCLE
  5
EFF
330
1E
100
AcDbEntity
  8
0
  6
HIDDEN
100
AcDbCircle
 10
117.4495456257979
 20
45.99419566467346
 30
0.0
 40
0.0985
  0
CIRCLE
  5
F00
330
1E
100
AcDbEntity
  8
0
100
AcDbCircle
 10
117.4495456257979
 20
45.99419566467346
 30
0.0
 40
0.0853616516775837
  0
TEXT
  5
F05
330
1E
100
AcDbEntity
  8
0
100
AcDbText
 10
0.7684286594355397
 20
0.7976606117714567
 30
0.0
 40
0.9382167431192659
  1
NBC-10342
 41
0.75
 72
     1
 11
3.641717435238291
 21
0.7976606117714567
 31
0.0
100
AcDbText
  0
TEXT
  5
F06
330
1E
100
AcDbEntity
  8
0
100
AcDbText
 10
13.86185169262206
 20
0.7976606117714567
 30
0.0
 40
0.9382167431192659
  1
NBC-10372
 41
0.75
 72
     1
 11
16.73514046842481
 21
0.7976606117714567
 31
0.0
100
AcDbText
  0
TEXT
  5
F07
330
1E
100
AcDbEntity
  8
0
100
AcDbText
 10
1.765283948999759
 20
3.858596892883079
 30
0.0
 40
0.9382167431192659
  1
INDOOR
 41
0.75
 72
     1
 11
3.641717435238291
 21
3.858596892883079
 31
0.0
100
AcDbText
  0
TEXT
  5
F08
330
1E
100
AcDbEntity
  8
0
100
AcDbText
 10
8.306923244061302
 20
3.858596892883079
 30
0.0
 40
0.9382167431192659
  1
INDOOR
 41
0.75
 72
     1
 11
10.18335673029983
 21
3.858596892883079
 31
0.0
100
AcDbText
  0
TEXT
  5
F09
330
1E
100
AcDbEntity
  8
0
100
AcDbText
 10
14.38959861062665
 20
3.858596892883079
 30
0.0
 40
0.9382167431192659
  1
OUTDOOR
 41
0.75
 72
     1
 11
16.73514046842481
 21
3.858596892883079
 31
0.0
100
AcDbText
  0
TEXT
  5
F0A
330
1E
100
AcDbEntity
  8
0
100
AcDbText
 10
2.703500692119025
 20
2.380863041947131
 30
0.0
 40
0.9382167431192659
  1
ABS
 41
0.75
 72
     1
 11
3.641717435238291
 21
2.380863041947131
 31
0.0
100
AcDbText
  0
TEXT
  5
F0B
330
1E
100
AcDbEntity
  8
0
100
AcDbText
 10
8.189646151171395
 20
2.380863041947131
 30
0.0
 40
0.9382167431192659
  1
ABS/PC
 41
0.75
 72
     1
 11
10.18335673029983
 21
2.380863041947131
 31
0.0
100
AcDbText
  0
TEXT
  5
F0C
330
1E
100
AcDbEntity
  8
0
100
AcDbText
 10
14.74142988929637
 20
2.380863041947131
 30
0.0
 40
0.9382167431192659
  1
PBT/PC
 41
0.75
 72
     1
 11
16.73514046842481
 21
2.380863041947131
 31
0.0
100
AcDbText
  0
LINE
  5
FE3
330
1E
100
AcDbEntity
  8
0
100
AcDbLine
 10
6.868636371828642
 20
0.4882500000000208
 30
0.0
 11
6.868636371828657
 21
5.199402522935757
 31
0.0
  0
LINE
  5
FE4
330
1E
100
AcDbEntity
  8
0
100
AcDbLine
 10
13.4567069756967
 20
0.4882500000000208
 30
0.0
 11
13.45670697569671
 21
5.199402522935757
 31
0.0
  0
LINE
  5
1018
330
1E
100
AcDbEntity
  8
0
100
AcDbLine
 10
130.2367499999999
 20
6.769786697247687
 30
0.0
 11
0.4882500000000079
 21
6.769786697247671
 31
0.0
  0
TEXT
  5
1019
330
1E
100
AcDbEntity
  8
0
100
AcDbText
 10
72.15379556958694
 20
5.556396488704148
 30
0.0
 40
0.9382167431192659
  1
DIMENSIONS
 41
0.75
 72
     1
 11
75.32027707761447
 21
5.556396488704148
 31
0.0
100
AcDbText
  0
TEXT
  5
1027
330
1E
100
AcDbEntity
  8
0
100
AcDbText
 10
0.8639306742805494
 20
66.32037391452382
 30
0.0
 40
0.9382167431192659
  1
PBT/PC BLEND
 41
0.75
 72
     1
 11
4.968628925427339
 21
66.32037391452382
 31
0.0
100
AcDbText
  0
TEXT
  5
1028
330
1E
100
AcDbEntity
  8
0
100
AcDbText
 10
0.8639306742805494
 20
67.90357634469948
 30
0.0
 40
0.9382167431192659
  1
ABS/PC BLEND
 41
0.75
 72
     1
 11
4.968628925427339
 21
67.90357634469948
 31
0.0
100
AcDbText
  0
TEXT
  5
1029
330
1E
100
AcDbEntity
  8
0
100
AcDbText
 10
4.030412182308072
 20
69.48423253742574
 30
0.0
 40
0.9382167431192659
  1
ABS
 41
0.75
 72
     1
 11
4.968628925427339
 21
69.48423253742574
 31
0.0
100
AcDbText
  0
TEXT
  5
102A
330
1E
100
AcDbEntity
  8
0
100
AcDbText
 10
9.987524037323506
 20
66.32037391452382
 30
0.0
 40
0.9382167431192659
  1
UL94-5VA + UV(f1)
 41
0.75
 72
     1
 11
15.734101588929
 21
66.32037391452382
 31
0.0
100
AcDbText
  0
TEXT
  5
102B
330
1E
100
AcDbEntity
  8
0
100
AcDbText
 10
12.91945135957121
 20
67.90357634469948
 30
0.0
 40
0.9382167431192659
  1
UL94-5VA
 41
0.75
 72
     1
 11
15.734101588929
 21
67.90357634469948
 31
0.0
100
AcDbText
  0
TEXT
  5
102C
330
1E
100
AcDbEntity
  8
0
100
AcDbText
 10
13.38855973113084
 20
69.48423253742574
 30
0.0
 40
0.9382167431192659
  1
UL94-HB
 41
0.75
 72
     1
 11
15.734101588929
 21
69.48423253742574
 31
0.0
100
AcDbText
  0
TEXT
  5
102D
330
1E
100
AcDbEntity
  8
0
100
AcDbText
 10
22.65747256212243
 20
69.48423253742574
 30
0.0
 40
0.9382167431192659
  1
-40%%DC~+60%%DC/-40%%DF~140%%DF
 41
0.75
 72
     1
 11
29.81137522840683
 21
69.48423253742574
 31
0.0
100
AcDbText
  0
LINE
  5
1030
330
1E
100
AcDbEntity
  8
0
100
AcDbLine
 10
37.66193899973758
 20
67.54936273733619
 30
0.0
 11
0.4882500000000079
 21
67.54936273733619
 31
0.0
  0
LINE
  5
1031
330
1E
100
AcDbEntity
  8
0
100
AcDbLine
 10
37.66193899973758
 20
69.15173165137616
 30
0.0
 11
0.4882500000000079
 21
69.15173165137616
 31
0.0
  0
LINE
  5
1032
330
1E
100
AcDbEntity
  8
0
100
AcDbLine
 10
37.66193899973758
 20
70.72211582568809
 30
0.0
 11
0.4882500000000079
 21
70.72211582568809
 31
0.0
  0
LINE
  5
1034
330
1E
100
AcDbEntity
  8
0
100
AcDbLine
 10
9.504858649832499
 20
65.94699382329624
 30
0.0
 11
9.504858649832517
 21
72.29250000000002
 31
0.0
  0
LINE
  5
1035
330
1E
100
AcDbEntity
  8
0
100
AcDbLine
 10
21.93602263977465
 20
65.94699382329622
 30
0.0
 11
21.93602263977466
 21
72.29250000000002
 31
0.0
  0
LINE
  5
1036
330
1E
100
AcDbEntity
  8
0
100
AcDbLine
 10
37.66193899973757
 20
65.94699382329622
 30
0.0
 11
37.66193899973758
 21
72.29250000000002
 31
0.0
  0
TEXT
  5
1038
330
1E
100
AcDbEntity
  8
0
100
AcDbText
 10
22.54019546923252
 20
67.81092602132351
 30
0.0
 40
0.9382167431192659
  1
-40%%DC~+85%%DC/-40%%DF~185%%DF
 41
0.75
 72
     1
 11
29.81137522840683
 21
67.81092602132351
 31
0.0
100
AcDbText
  0
TEXT
  5
1039
330
1E
100
AcDbEntity
  8
0
100
AcDbText
 10
22.54019546923252
 20
66.20855710728354
 30
0.0
 40
0.9382167431192659
  1
-40%%DC~+75%%DC/-40%%DF~167%%DF
 41
0.75
 72
     1
 11
29.81137522840683
 21
66.20855710728354
 31
0.0
100
AcDbText
  0
TEXT
  5
103A
330
1E
100
AcDbEntity
  8
0
100
AcDbText
 10
2.388532881849371
 20
71.03746301792206
 30
0.0
 40
0.9382167431192659
  1
MATERIAL
 41
0.75
 72
     1
 11
4.968628925427353
 21
71.03746301792206
 31
0.0
100
AcDbText
  0
TEXT
  5
103B
330
1E
100
AcDbEntity
  8
0
100
AcDbText
 10
9.964532328890342
 20
71.03746301792206
 30
0.0
 40
0.9382167431192659
  1
FLAMMABILITY RATING
 41
0.6739153130330253
 72
     5
 11
21.1347881278898
 21
71.03746301792206
 31
0.0
100
AcDbText
  0
TEXT
  5
103C
330
1E
100
AcDbEntity
  8
0
100
AcDbText
 10
22.36840895334181
 20
71.03746301792206
 30
0.0
 40
0.9382167431192659
  1
CONTINUOUS OPERATING TEMP.
 41
0.6598014475925427
 72
     5
 11
37.43163690813936
 21
71.03746301792206
 31
0.0
100
AcDbText
  0
LINE
  5
103D
330
1E
100
AcDbEntity
  8
0
100
AcDbLine
 10
37.66193899973756
 20
65.94699382329622
 30
0.0
 11
0.4882500000000079
 21
65.94699382329622
 31
0.0
  0
TEXT
  5
1113
330
1E
100
AcDbEntity
  8
0
100
AcDbText
 10
69.77499455288833
 20
70.82691827851204
 30
0.0
 40
0.9392201834862387
  1
%%UMATERIAL:
 41
0.75
100
AcDbText
  0
TEXT
  5
13C4
330
1E
100
AcDbEntity
  8
0
100
AcDbText
 10
103.844600702448
 20
60.02985416669969
 30
0.0
 40
0.9392201834862387
  1
  TAPPING SCREWS
 41
0.75
100
AcDbText
  0
TEXT
  5
13C5
330
1E
100
AcDbEntity
  8
0
100
AcDbText
 10
103.844600702448
 20
64.64570273636732
 30
0.0
 40
0.9392201834862387
  1
  MACHINE SCREWS
 41
0.75
100
AcDbText
  0
TEXT
  5
13C8
330
1E
100
AcDbEntity
  8
0
100
AcDbText
 10
70.76412596749418
 20
61.3259057999671
 30
0.0
 40
0.9392201834862387
  1
 PANEL BRACKETS
 41
0.75
100
AcDbText
  0
LINE
  5
14C7
330
1E
100
AcDbEntity
  8
0
100
AcDbLine
 10
0.4882499999999812
 20
72.2925
 30
0.0
 11
130.2367499999999
 21
72.29250000000003
 31
0.0
  0
TEXT
  5
14C8
330
1E
100
AcDbEntity
  8
0
100
AcDbText
 10
1.636687500000009
 20
72.60812366566561
 30
0.0
 40
0.984375
  1
NAME
 72
     1
 11
3.441375000000009
 21
72.60812366566561
 31
0.0
100
AcDbText
  0
TEXT
  5
14C9
330
1E
100
AcDbEntity
  8
0
100
AcDbText
 10
1.636687500000009
 20
74.2487486656656
 30
0.0
 40
0.984375
  1
PART
 72
     1
 11
3.441375000000009
 21
74.2487486656656
 31
0.0
100
AcDbText
  0
LINE
  5
14CA
330
1E
100
AcDbEntity
  8
0
100
AcDbLine
 10
6.394500000000009
 20
72.2925
 30
0.0
 11
6.394499999999981
 21
75.58424999999999
 31
0.0
  0
TEXT
  5
14CB
330
1E
100
AcDbEntity
  8
0
100
AcDbText
 10
56.76168749999999
 20
74.2487486656656
 30
0.0
 40
0.984375
  1
PART
 72
     1
 11
58.56637499999999
 21
74.2487486656656
 31
0.0
100
AcDbText
  0
TEXT
  5
14CC
330
1E
100
AcDbEntity
  8
0
100
AcDbText
 10
57.58199999999999
 20
72.60812366566561
 30
0.0
 40
0.984375
  1
No.
 72
     1
 11
58.56637499999999
 21
72.60812366566561
 31
0.0
100
AcDbText
  0
LINE
  5
14CD
330
1E
100
AcDbEntity
  8
0
100
AcDbLine
 10
55.61325
 20
75.58424999999999
 30
0.0
 11
55.61325
 21
72.2925
 31
0.0
  0
LINE
  5
14CE
330
1E
100
AcDbEntity
  8
0
100
AcDbLine
 10
55.12500000000001
 20
75.58424999999999
 30
0.0
 11
55.12500000000001
 21
72.2925
 31
0.0
  0
LINE
  5
14CF
330
1E
100
AcDbEntity
  8
0
100
AcDbLine
 10
61.51949999999999
 20
75.58424999999999
 30
0.0
 11
61.51949999999999
 21
72.2925
 31
0.0
  0
LINE
  5
14D0
330
1E
100
AcDbEntity
  8
0
100
AcDbLine
 10
130.725
 20
76.07249999999997
 30
0.0
 11
130.7249999999999
 21
0.0
 31
0.0
  0
LINE
  5
14D1
330
1E
100
AcDbEntity
  8
0
100
AcDbLine
 10
130.7249999999999
 20
0.0
 30
0.0
 11
0.0
 21
0.0
 31
0.0
  0
LINE
  5
14D2
330
1E
100
AcDbEntity
  8
0
100
AcDbLine
 10
0.0
 20
0.0
 30
0.0
 11
0.0
 21
76.07249999999997
 31
0.0
  0
LINE
  5
14D3
330
1E
100
AcDbEntity
  8
0
100
AcDbLine
 10
0.0
 20
76.07249999999997
 30
0.0
 11
130.725
 21
76.07249999999997
 31
0.0
  0
LINE
  5
14D4
330
1E
100
AcDbEntity
  8
0
100
AcDbLine
 10
130.2367499999999
 20
75.58425000000005
 30
0.0
 11
130.2367499999999
 21
0.4882500000000092
 31
0.0
  0
LINE
  5
14D5
330
1E
100
AcDbEntity
  8
0
100
AcDbLine
 10
130.2367499999999
 20
0.4882500000000092
 30
0.0
 11
0.4882500000000092
 21
0.4882500000000092
 31
0.0
  0
LINE
  5
14D6
330
1E
100
AcDbEntity
  8
0
100
AcDbLine
 10
0.4882500000000092
 20
0.4882500000000092
 30
0.0
 11
0.4882500000000092
 21
75.58424999999999
 31
0.0
  0
LINE
  5
14D7
330
1E
100
AcDbEntity
  8
0
100
AcDbLine
 10
0.4882500000000092
 20
75.58424999999999
 30
0.0
 11
130.2367499999999
 21
75.58425000000005
 31
0.0
  0
LINE
  5
14D8
330
1E
100
AcDbEntity
  8
0
100
AcDbLine
 10
110.2499301727688
 20
75.58424999999999
 30
0.0
 11
110.2499301727688
 21
72.2925
 31
0.0
  0
LINE
  5
14D9
330
1E
100
AcDbEntity
  8
0
100
AcDbLine
 10
116.6444301727687
 20
75.58424999999999
 30
0.0
 11
116.6444301727687
 21
72.2925
 31
0.0
  0
LINE
  5
14DA
330
1E
100
AcDbEntity
  8
0
100
AcDbLine
 10
110.7381801727687
 20
75.58424999999999
 30
0.0
 11
110.7381801727687
 21
72.2925
 31
0.0
  0
TEXT
  5
14DB
330
1E
100
AcDbEntity
  8
0
100
AcDbText
 10
111.8866176727687
 20
72.60812366566561
 30
0.0
 40
0.984375
  1
DATE
 72
     1
 11
113.6913051727687
 21
72.60812366566561
 31
0.0
100
AcDbText
  0
TEXT
  5
14DC
330
1E
100
AcDbEntity
  8
0
100
AcDbText
 10
112.0506801727687
 20
74.2487486656656
 30
0.0
 40
0.984375
  1
REV.
 72
     1
 11
113.6913051727687
 21
74.2487486656656
 31
0.0
100
AcDbText
  0
ENDSEC
  0
SECTION
  2
OBJECTS
  0
DICTIONARY
  5
C
330
0
100
AcDbDictionary
  3
ACAD_GROUP
350
D
  3
ACAD_LAYOUT
350
19
  3
ACAD_MLINESTYLE
350
16
  3
ACAD_PLOTSETTINGS
350
18
  3
ACAD_PLOTSTYLENAME
350
E
  3
ACDBVARIABLEDICTIONARY
350
9B9
  3
ACDBHEADERROUNDTRIPXREC
350
14DE
  0
DICTIONARY
  5
1501
330
1E
100
AcDbDictionary
280
     1
  3
ACAD_LAYOUTSELFREF
360
1502
  0
DICTIONARY
  5
14FF
330
1A
100
AcDbDictionary
280
     1
  3
ACAD_LAYOUTSELFREF
360
1500
  0
DICTIONARY
  5
D
102
{ACAD_REACTORS
330
C
102
}
330
C
100
AcDbDictionary
  0
DICTIONARY
  5
19
102
{ACAD_REACTORS
330
C
102
}
330
C
100
AcDbDictionary
  0
DICTIONARY
  5
16
102
{ACAD_REACTORS
330
C
102
}
330
C
100
AcDbDictionary
  3
STANDARD
350
17
  0
DICTIONARY
  5
18
102
{ACAD_REACTORS
330
C
102
}
330
C
100
AcDbDictionary
  0
ACDBDICTIONARYWDFLT
  5
E
102
{ACAD_REACTORS
330
C
102
}
330
C
100
AcDbDictionary
281
     1
  3
Normal
350
F
100
AcDbDictionaryWithDefault
340
F
  0
DICTIONARY
  5
9B9
102
{ACAD_REACTORS
330
C
102
}
330
C
100
AcDbDictionary
  3
SORTENTS
350
9BA
  0
DICTIONARY
  5
14DE
102
{ACAD_REACTORS
330
C
102
}
330
C
100
AcDbDictionary
  3
TSTACKALIGN
350
14DF
  3
TSTACKSIZE
350
14E0
  3
HYPERLINKBASE
350
14E1
  3
STYLESHEET
350
14E2
  3
LAYOUTDICT
350
14E3
  3
PLOTSETDICT
350
14E4
  3
PLOTSTYLNAMDICT
350
14E5
  3
LWETCUNION
350
14E6
  3
INSUNITS
350
14E7
  3
CEPSNTYPE
350
14E8
  3
FINGERPRINTGUID
350
14E9
  3
VERSIONGUID
350
14EA
  3
PSVPSCALE
350
14EB
  3
DIMSTYLEDATA
350
14EC
  3
PUCSORTHOREF
350
14ED
  3
PUCSORTHOVIEW
350
14EE
  3
PUCSBASE
350
14EF
  3
PUCSORGTOP
350
14F0
  3
PUCSORGBOTTOM
350
14F1
  3
PUCSORGLEFT
350
14F2
  3
PUCSORGRIGHT
350
14F3
  3
PUCSORGFRONT
350
14F4
  3
PUCSORGBACK
350
14F5
  3
UCSORTHOREF
350
14F6
  3
UCSORTHOVIEW
350
14F7
  3
UCSBASE
350
14F8
  3
UCSORGTOP
350
14F9
  3
UCSORGBOTTOM
350
14FA
  3
UCSORGLEFT
350
14FB
  3
UCSORGRIGHT
350
14FC
  3
UCSORGFRONT
350
14FD
  3
UCSORGBACK
350
14FE
  0
XRECORD
  5
1502
102
{ACAD_REACTORS
330
1501
102
}
330
1501
100
AcDbXrecord
340
1E
  0
XRECORD
  5
1500
102
{ACAD_REACTORS
330
14FF
102
}
330
14FF
100
AcDbXrecord
340
1A
  0
MLINESTYLE
  5
17
102
{ACAD_REACTORS
330
16
102
}
330
16
100
AcDbMlineStyle
  2
STANDARD
 70
     0
  3

 62
   256
 51
90.0
 52
90.0
 71
     2
 49
0.5
 62
   256
  6
BYLAYER
 49
-0.5
 62
   256
  6
BYLAYER
  0
ACDBPLACEHOLDER
  5
F
102
{ACAD_REACTORS
330
E
102
}
330
E
100
AcDbPlaceHolder
280
     0
  0
DICTIONARYVAR
  5
9BA
102
{ACAD_REACTORS
330
9B9
102
}
330
9B9
100
DictionaryVariables
280
     0
  1
96
  0
XRECORD
  5
14DF
102
{ACAD_REACTORS
330
14DE
102
}
330
14DE
100
AcDbXrecord
 90
        1
  0
XRECORD
  5
14E0
102
{ACAD_REACTORS
330
14DE
102
}
330
14DE
100
AcDbXrecord
 90
       70
  0
XRECORD
  5
14E1
102
{ACAD_REACTORS
330
14DE
102
}
330
14DE
100
AcDbXrecord
  1

  0
XRECORD
  5
14E2
102
{ACAD_REACTORS
330
14DE
102
}
330
14DE
100
AcDbXrecord
  1
monochrome.ctb
  0
XRECORD
  5
14E3
102
{ACAD_REACTORS
330
14DE
102
}
330
14DE
100
AcDbXrecord
340
19
  0
XRECORD
  5
14E4
102
{ACAD_REACTORS
330
14DE
102
}
330
14DE
100
AcDbXrecord
340
18
  0
XRECORD
  5
14E5
102
{ACAD_REACTORS
330
14DE
102
}
330
14DE
100
AcDbXrecord
340
E
  0
XRECORD
  5
14E6
102
{ACAD_REACTORS
330
14DE
102
}
330
14DE
100
AcDbXrecord
 90
    14877
  0
XRECORD
  5
14E7
102
{ACAD_REACTORS
330
14DE
102
}
330
14DE
100
AcDbXrecord
 90
        0
  0
XRECORD
  5
14E8
102
{ACAD_REACTORS
330
14DE
102
}
330
14DE
100
AcDbXrecord
 90
        0
  0
XRECORD
  5
14E9
102
{ACAD_REACTORS
330
14DE
102
}
330
14DE
100
AcDbXrecord
  1
{576C1918-E61D-4924-B8A3-4DAF058169B2}
  0
XRECORD
  5
14EA
102
{ACAD_REACTORS
330
14DE
102
}
330
14DE
100
AcDbXrecord
  1
{CD395A34-7334-4593-843F-1E53B713E9AF}
  0
XRECORD
  5
14EB
102
{ACAD_REACTORS
330
14DE
102
}
330
14DE
100
AcDbXrecord
 40
0.0
  0
XRECORD
  5
14EC
102
{ACAD_REACTORS
330
14DE
102
}
330
14DE
100
AcDbXrecord
1000
DSTYLE
1002
{
1070
   289
 70
     1
1002
}
  0
XRECORD
  5
14ED
102
{ACAD_REACTORS
330
14DE
102
}
330
14DE
100
AcDbXrecord
340
0
  0
XRECORD
  5
14EE
102
{ACAD_REACTORS
330
14DE
102
}
330
14DE
100
AcDbXrecord
 70
     0
  0
XRECORD
  5
14EF
102
{ACAD_REACTORS
330
14DE
102
}
330
14DE
100
AcDbXrecord
340
0
  0
XRECORD
  5
14F0
102
{ACAD_REACTORS
330
14DE
102
}
330
14DE
100
AcDbXrecord
 10
0.0
 20
0.0
 30
0.0
  0
XRECORD
  5
14F1
102
{ACAD_REACTORS
330
14DE
102
}
330
14DE
100
AcDbXrecord
 10
0.0
 20
0.0
 30
0.0
  0
XRECORD
  5
14F2
102
{ACAD_REACTORS
330
14DE
102
}
330
14DE
100
AcDbXrecord
 10
0.0
 20
0.0
 30
0.0
  0
XRECORD
  5
14F3
102
{ACAD_REACTORS
330
14DE
102
}
330
14DE
100
AcDbXrecord
 10
0.0
 20
0.0
 30
0.0
  0
XRECORD
  5
14F4
102
{ACAD_REACTORS
330
14DE
102
}
330
14DE
100
AcDbXrecord
 10
0.0
 20
0.0
 30
0.0
  0
XRECORD
  5
14F5
102
{ACAD_REACTORS
330
14DE
102
}
330
14DE
100
AcDbXrecord
 10
0.0
 20
0.0
 30
0.0
  0
XRECORD
  5
14F6
102
{ACAD_REACTORS
330
14DE
102
}
330
14DE
100
AcDbXrecord
340
0
  0
XRECORD
  5
14F7
102
{ACAD_REACTORS
330
14DE
102
}
330
14DE
100
AcDbXrecord
 70
     0
  0
XRECORD
  5
14F8
102
{ACAD_REACTORS
330
14DE
102
}
330
14DE
100
AcDbXrecord
340
0
  0
XRECORD
  5
14F9
102
{ACAD_REACTORS
330
14DE
102
}
330
14DE
100
AcDbXrecord
 10
0.0
 20
0.0
 30
0.0
  0
XRECORD
  5
14FA
102
{ACAD_REACTORS
330
14DE
102
}
330
14DE
100
AcDbXrecord
 10
0.0
 20
0.0
 30
0.0
  0
XRECORD
  5
14FB
102
{ACAD_REACTORS
330
14DE
102
}
330
14DE
100
AcDbXrecord
 10
0.0
 20
0.0
 30
0.0
  0
XRECORD
  5
14FC
102
{ACAD_REACTORS
330
14DE
102
}
330
14DE
100
AcDbXrecord
 10
0.0
 20
0.0
 30
0.0
  0
XRECORD
  5
14FD
102
{ACAD_REACTORS
330
14DE
102
}
330
14DE
100
AcDbXrecord
 10
0.0
 20
0.0
 30
0.0
  0
XRECORD
  5
14FE
102
{ACAD_REACTORS
330
14DE
102
}
330
14DE
100
AcDbXrecord
 10
0.0
 20
0.0
 30
0.0
  0
ENDSEC
  0
EOF
