  0
SECTION
  2
HEADER
  9
$ACADVER
  1
AC1009
  9
$DWGCODEPAGE
  3
ansi_1252
  9
$INSBASE
 10
0.0
 20
0.0
 30
0.0
  9
$EXTMIN
 10
0.0
 20
-48.67449773892714
 30
0.0
  9
$EXTMAX
 10
66.42420575481076
 20
-12.64693836255842
 30
0.0
  9
$LIMMIN
 10
0.0
 20
0.0
  9
$LIMMAX
 10
54.25
 20
35.41999999999998
  9
$ORTHOMODE
 70
     1
  9
$REGENMODE
 70
     1
  9
$FILLMODE
 70
     1
  9
$QTEXTMODE
 70
     0
  9
$MIRRTEXT
 70
     0
  9
$DRAGMODE
 70
     2
  9
$LTSCALE
 40
0.75
  9
$OSMODE
 70
    37
  9
$ATTMODE
 70
     1
  9
$TEXTSIZE
 40
0.4370000000000001
  9
$TRACEWID
 40
0.05
  9
$TEXTSTYLE
  7
TXT
  9
$CLAYER
  8
OBJECT
  9
$CELTYPE
  6
BYLAYER
  9
$CECOLOR
 62
   256
  9
$DIMSCALE
 40
3.5
  9
$DIMASZ
 40
0.18
  9
$DIMEXO
 40
0.063
  9
$DIMDLI
 40
0.25
  9
$DIMRND
 40
0.0
  9
$DIMDLE
 40
0.0
  9
$DIMEXE
 40
0.093
  9
$DIMTP
 40
0.0
  9
$DIMTM
 40
0.0
  9
$DIMTXT
 40
0.125
  9
$DIMCEN
 40
0.09
  9
$DIMTSZ
 40
0.0
  9
$DIMTOL
 70
     0
  9
$DIMLIM
 70
     0
  9
$DIMTIH
 70
     1
  9
$DIMTOH
 70
     1
  9
$DIMSE1
 70
     0
  9
$DIMSE2
 70
     0
  9
$DIMTAD
 70
     0
  9
$DIMZIN
 70
     0
  9
$DIMBLK
  1

  9
$DIMASO
 70
     1
  9
$DIMSHO
 70
     1
  9
$DIMPOST
  1

  9
$DIMAPOST
  1

  9
$DIMALT
 70
     1
  9
$DIMALTD
 70
     0
  9
$DIMALTF
 40
25.4
  9
$DIMLFAC
 40
1.0
  9
$DIMTOFL
 70
     0
  9
$DIMTVP
 40
0.0
  9
$DIMTIX
 70
     0
  9
$DIMSOXD
 70
     0
  9
$DIMSAH
 70
     0
  9
$DIMBLK1
  1

  9
$DIMBLK2
  1

  9
$DIMSTYLE
  2
23NSTD
  9
$DIMCLRD
 70
     0
  9
$DIMCLRE
 70
     0
  9
$DIMCLRT
 70
     0
  9
$DIMTFAC
 40
1.0
  9
$DIMGAP
 40
0.09
  9
$LUNITS
 70
     2
  9
$LUPREC
 70
     3
  9
$SKETCHINC
 40
0.1
  9
$FILLETRAD
 40
0.0
  9
$AUNITS
 70
     0
  9
$AUPREC
 70
     0
  9
$MENU
  1
.
  9
$ELEVATION
 40
0.0
  9
$PELEVATION
 40
0.0
  9
$THICKNESS
 40
0.0
  9
$LIMCHECK
 70
     0
  9
$CHAMFERA
 40
0.0
  9
$CHAMFERB
 40
0.0
  9
$SKPOLY
 70
     0
  9
$TDCREATE
 40
2453353.550459155
  9
$TDUPDATE
 40
2454306.459488171
  9
$TDINDWG
 40
0.7451656366
  9
$TDUSRTIMER
 40
0.7451656366
  9
$USRTIMER
 70
     1
  9
$ANGBASE
 50
0.0
  9
$ANGDIR
 70
     0
  9
$PDMODE
 70
     0
  9
$PDSIZE
 40
0.0
  9
$PLINEWID
 40
0.0
  9
$COORDS
 70
     1
  9
$SPLFRAME
 70
     0
  9
$SPLINETYPE
 70
     6
  9
$SPLINESEGS
 70
     8
  9
$ATTDIA
 70
     0
  9
$ATTREQ
 70
     1
  9
$HANDLING
 70
     1
  9
$HANDSEED
  5
1A52
  9
$SURFTAB1
 70
     6
  9
$SURFTAB2
 70
     6
  9
$SURFTYPE
 70
     6
  9
$SURFU
 70
     6
  9
$SURFV
 70
     6
  9
$UCSNAME
  2

  9
$UCSORG
 10
0.0
 20
0.0
 30
0.0
  9
$UCSXDIR
 10
1.0
 20
0.0
 30
0.0
  9
$UCSYDIR
 10
0.0
 20
1.0
 30
0.0
  9
$PUCSNAME
  2

  9
$PUCSORG
 10
0.0
 20
0.0
 30
0.0
  9
$PUCSXDIR
 10
1.0
 20
0.0
 30
0.0
  9
$PUCSYDIR
 10
0.0
 20
1.0
 30
0.0
  9
$USERI1
 70
     0
  9
$USERI2
 70
     0
  9
$USERI3
 70
     0
  9
$USERI4
 70
     0
  9
$USERI5
 70
     0
  9
$USERR1
 40
0.0
  9
$USERR2
 40
0.0
  9
$USERR3
 40
0.0
  9
$USERR4
 40
0.0
  9
$USERR5
 40
0.0
  9
$WORLDVIEW
 70
     0
  9
$SHADEDGE
 70
     3
  9
$SHADEDIF
 70
    70
  9
$TILEMODE
 70
     1
  9
$MAXACTVP
 70
    16
  9
$PLIMCHECK
 70
     0
  9
$PEXTMIN
 10
1.000000000000000E+20
 20
1.000000000000000E+20
 30
1.000000000000000E+20
  9
$PEXTMAX
 10
-1.000000000000000E+20
 20
-1.000000000000000E+20
 30
-1.000000000000000E+20
  9
$PLIMMIN
 10
0.0
 20
0.0
  9
$PLIMMAX
 10
12.0
 20
9.0
  9
$UNITMODE
 70
     0
  9
$VISRETAIN
 70
     0
  9
$PLINEGEN
 70
     0
  9
$PSLTSCALE
 70
     1
  0
ENDSEC
  0
SECTION
  2
TABLES
  0
TABLE
  2
VPORT
 70
     1
  0
VPORT
  2
*ACTIVE
 70
     0
 10
0.0
 20
0.0
 11
1.0
 21
1.0
 12
33.81877066655065
 22
-32.0939251342384
 13
0.0
 23
0.0
 14
1.0
 24
1.0
 15
0.5
 25
0.5
 16
0.0
 26
0.0
 36
1.0
 17
0.0
 27
0.0
 37
0.0
 40
49.37032532000149
 41
1.824707846410685
 42
50.0
 43
0.0
 44
0.0
 50
0.0
 51
0.0
 71
    16
 72
 10000
 73
     1
 74
     0
 75
     0
 76
     0
 77
     0
 78
     0
  0
ENDTAB
  0
TABLE
  2
LTYPE
 70
     4
  0
LTYPE
  2
CONTINUOUS
 70
     0
  3
Solid line
 72
    65
 73
     0
 40
0.0
  0
LTYPE
  2
PHANTOM
 70
     0
  3
_____ _ _ _____ _ _ _____ _ _ _____ _ _ ____
 72
    65
 73
     6
 40
2.5
 49
1.25
 49
-0.25
 49
0.25
 49
-0.25
 49
0.25
 49
-0.25
  0
LTYPE
  2
CENTER
 70
     0
  3
____ _ ____ _ ____ _ ____ _ ____ _ ____ _ ____
 72
    65
 73
     4
 40
2.0
 49
1.25
 49
-0.25
 49
0.25
 49
-0.25
  0
LTYPE
  2
HIDDEN2
 70
     0
  3
_ _ _ _ _ _ _ _ _ _ _ _ _ _ _ _ _ _ _ _ _ _ _ _
 72
    65
 73
     2
 40
0.1875
 49
0.125
 49
-0.0625
  0
ENDTAB
  0
TABLE
  2
LAYER
 70
     9
  0
LAYER
  2
0
 70
     0
 62
     7
  6
CONTINUOUS
  0
LAYER
  2
OBJECT
 70
     0
 62
     7
  6
CONTINUOUS
  0
LAYER
  2
DIM
 70
     0
 62
     7
  6
CONTINUOUS
  0
LAYER
  2
HIDDEN
 70
     0
 62
     7
  6
HIDDEN2
  0
LAYER
  2
BEND
 70
     0
 62
     7
  6
PHANTOM
  0
LAYER
  2
TEXT
 70
     0
 62
     7
  6
CONTINUOUS
  0
LAYER
  2
TITLE
 70
     0
 62
     7
  6
CONTINUOUS
  0
LAYER
  2
CENTER
 70
     0
 62
     7
  6
CENTER
  0
LAYER
  2
DEFPOINTS
 70
     0
 62
     7
  6
CONTINUOUS
  0
ENDTAB
  0
TABLE
  2
STYLE
 70
     2
  0
STYLE
  2
STANDARD
 70
     0
 40
0.0
 41
1.0
 50
0.0
 71
     0
 42
0.2
  3
txt
  4

  0
STYLE
  2
TXT
 70
     0
 40
0.0
 41
0.75
 50
0.0
 71
     0
 42
0.4370000000000001
  3
TXT.shx
  4

  0
ENDTAB
  0
TABLE
  2
VIEW
 70
     0
  0
ENDTAB
  0
TABLE
  2
UCS
 70
     0
  0
ENDTAB
  0
TABLE
  2
APPID
 70
     1
  0
APPID
  2
ACAD
 70
     0
  0
ENDTAB
  0
TABLE
  2
DIMSTYLE
 70
     3
  0
DIMSTYLE
  2
STANDARD
 70
     0
  3

  4

  5

  6

  7

 40
1.0
 41
0.18
 42
0.0625
 43
0.38
 44
0.18
 45
0.0
 46
0.0
 47
0.0
 48
0.0
140
0.18
141
0.09
142
0.0
143
25.4
144
1.0
145
0.0
146
1.0
147
0.09
 71
     0
 72
     0
 73
     1
 74
     1
 75
     0
 76
     0
 77
     0
 78
     0
170
     0
171
     2
172
     0
173
     0
174
     0
175
     0
176
     0
177
     0
178
     0
  0
DIMSTYLE
  2
23NSTD
 70
     0
  3

  4

  5

  6

  7

 40
3.5
 41
0.18
 42
0.063
 43
0.25
 44
0.093
 45
0.0
 46
0.0
 47
0.0
 48
0.0
140
0.125
141
0.09
142
0.0
143
25.4
144
1.0
145
0.0
146
1.0
147
0.09
 71
     0
 72
     0
 73
     1
 74
     1
 75
     0
 76
     0
 77
     0
 78
     0
170
     1
171
     0
172
     0
173
     0
174
     0
175
     0
176
     0
177
     0
178
     0
  0
DIMSTYLE
  2
23NSTDI
 70
     0
  3

  4

  5

  6

  7

 40
3.5
 41
0.18
 42
0.063
 43
0.25
 44
0.093
 45
0.0
 46
0.0
 47
0.0
 48
0.0
140
0.125
141
0.09
142
0.0
143
25.4
144
1.0
145
0.0
146
1.0
147
0.09
 71
     0
 72
     0
 73
     1
 74
     1
 75
     0
 76
     0
 77
     0
 78
     0
170
     1
171
     0
172
     0
173
     0
174
     1
175
     0
176
     0
177
     0
178
     0
  0
ENDTAB
  0
ENDSEC
  0
SECTION
  2
BLOCKS
  0
BLOCK
  8
0
  2
$MODEL_SPACE
 70
     0
 10
0.0
 20
0.0
 30
0.0
  3
$MODEL_SPACE
  1

  0
ENDBLK
  5
21
  8
0
  0
BLOCK
 67
     1
  8
0
  2
$PAPER_SPACE
 70
     0
 10
0.0
 20
0.0
 30
0.0
  3
$PAPER_SPACE
  1

  0
ENDBLK
  5
76
 67
     1
  8
0
  0
BLOCK
  8
0
  2
*X0
 70
     1
 10
0.0
 20
0.0
 30
0.0
  3
*X0
  1

  0
LINE
  5
50
  8
0
 62
     0
 10
13.17199065049241
 20
20.59661185295115
 30
0.0
 11
13.30499065049241
 21
20.72961185295115
 31
0.0
  0
LINE
  5
51
  8
0
 62
     0
 10
13.17199065049241
 20
21.12694193884107
 30
0.0
 11
13.30499065049241
 21
21.25994193884106
 31
0.0
  0
LINE
  5
52
  8
0
 62
     0
 10
13.17199065049241
 20
21.65727202473098
 30
0.0
 11
13.30499065049241
 21
21.79027202473097
 31
0.0
  0
LINE
  5
53
  8
0
 62
     0
 10
13.17199065049241
 20
22.18760211062089
 30
0.0
 11
13.30499065049241
 21
22.32060211062088
 31
0.0
  0
LINE
  5
54
  8
0
 62
     0
 10
13.17199065049241
 20
22.7179321965108
 30
0.0
 11
13.30499065049241
 21
22.8509321965108
 31
0.0
  0
LINE
  5
55
  8
0
 62
     0
 10
13.17199065049241
 20
23.24826228240071
 30
0.0
 11
13.30499065049241
 21
23.38126228240071
 31
0.0
  0
LINE
  5
56
  8
0
 62
     0
 10
13.17199065049241
 20
23.77859236829062
 30
0.0
 11
13.30499065049241
 21
23.91159236829062
 31
0.0
  0
LINE
  5
57
  8
0
 62
     0
 10
13.17199065049241
 20
20.06628176706124
 30
0.0
 11
13.30499065049241
 21
20.19928176706125
 31
0.0
  0
LINE
  5
58
  8
0
 62
     0
 10
13.17199065049241
 20
19.53595168117134
 30
0.0
 11
13.30499065049241
 21
19.66895168117133
 31
0.0
  0
LINE
  5
1305
  8
0
 62
     0
 10
13.17199065049241
 20
19.00562159528142
 30
0.0
 11
13.30499065049241
 21
19.13862159528142
 31
0.0
  0
LINE
  5
1306
  8
0
 62
     0
 10
13.49905170798111
 20
18.80235256688021
 30
0.0
 11
13.63466509576162
 21
18.93796595466072
 31
0.0
  0
LINE
  5
5B
  8
0
 62
     0
 10
13.97232310180724
 20
18.74529387481643
 30
0.0
 11
14.13231286694283
 21
18.90528363995203
 31
0.0
  0
LINE
  5
5C
  8
0
 62
     0
 10
14.24660553175125
 20
18.48924621887054
 30
0.0
 11
14.35677802949225
 21
18.59941871661154
 31
0.0
  0
LINE
  5
5D
  8
0
 62
     0
 10
13.17199065049241
 20
20.6629031136874
 30
0.0
 11
13.30499065049241
 21
20.79590311368739
 31
0.0
  0
LINE
  5
1307
  8
0
 62
     0
 10
13.17199065049241
 20
21.19323319957731
 30
0.0
 11
13.30499065049241
 21
21.32623319957731
 31
0.0
  0
LINE
  5
5F
  8
0
 62
     0
 10
13.17199065049241
 20
21.72356328546722
 30
0.0
 11
13.30499065049241
 21
21.85656328546721
 31
0.0
  0
LINE
  5
60
  8
0
 62
     0
 10
13.17199065049241
 20
22.25389337135713
 30
0.0
 11
13.30499065049241
 21
22.38689337135713
 31
0.0
  0
LINE
  5
61
  8
0
 62
     0
 10
13.17199065049241
 20
22.78422345724704
 30
0.0
 11
13.30499065049241
 21
22.91722345724704
 31
0.0
  0
LINE
  5
62
  8
0
 62
     0
 10
13.17199065049241
 20
23.31455354313695
 30
0.0
 11
13.30499065049241
 21
23.44755354313695
 31
0.0
  0
LINE
  5
63
  8
0
 62
     0
 10
13.17199065049241
 20
23.84488362902686
 30
0.0
 11
13.30499065049241
 21
23.97788362902685
 31
0.0
  0
LINE
  5
64
  8
0
 62
     0
 10
13.17199065049241
 20
20.13257302779748
 30
0.0
 11
13.30499065049241
 21
20.26557302779748
 31
0.0
  0
LINE
  5
65
  8
0
 62
     0
 10
13.17199065049241
 20
19.60224294190758
 30
0.0
 11
13.30499065049241
 21
19.73524294190757
 31
0.0
  0
LINE
  5
66
  8
0
 62
     0
 10
13.17199065049241
 20
19.07191285601767
 30
0.0
 11
13.30499065049241
 21
19.20491285601766
 31
0.0
  0
LINE
  5
67
  8
0
 62
     0
 10
13.43989278375284
 20
18.80948490338818
 30
0.0
 11
13.57245912436396
 21
18.94205124399931
 31
0.0
  0
LINE
  5
68
  8
0
 62
     0
 10
13.91316417757897
 20
18.75242621132441
 30
0.0
 11
14.07010689554518
 21
18.90936892929062
 31
0.0
  0
LINE
  5
69
  8
0
 62
     0
 10
14.18464684448757
 20
18.49357879234309
 30
0.0
 11
14.29691501626654
 21
18.60584696412207
 31
0.0
  0
LINE
  5
6A
  8
0
 62
     0
 10
13.17199065049241
 20
20.19886428853372
 30
0.0
 11
13.30499065049241
 21
20.33186428853372
 31
0.0
  0
LINE
  5
1308
  8
0
 62
     0
 10
13.17199065049241
 20
20.72919437442363
 30
0.0
 11
13.30499065049241
 21
20.86219437442363
 31
0.0
  0
LINE
  5
1309
  8
0
 62
     0
 10
13.17199065049241
 20
21.25952446031355
 30
0.0
 11
13.30499065049241
 21
21.39252446031354
 31
0.0
  0
LINE
  5
6D
  8
0
 62
     0
 10
13.17199065049241
 20
21.78985454620346
 30
0.0
 11
13.30499065049241
 21
21.92285454620345
 31
0.0
  0
LINE
  5
6E
  8
0
 62
     0
 10
13.17199065049241
 20
22.32018463209337
 30
0.0
 11
13.30499065049241
 21
22.45318463209336
 31
0.0
  0
LINE
  5
6F
  8
0
 62
     0
 10
13.17199065049241
 20
22.85051471798328
 30
0.0
 11
13.30499065049241
 21
22.98351471798328
 31
0.0
  0
LINE
  5
70
  8
0
 62
     0
 10
13.17199065049241
 20
23.38084480387319
 30
0.0
 11
13.30499065049241
 21
23.51384480387319
 31
0.0
  0
LINE
  5
71
  8
0
 62
     0
 10
13.17199065049241
 20
23.9111748897631
 30
0.0
 11
13.30499065049241
 21
24.0441748897631
 31
0.0
  0
LINE
  5
72
  8
0
 62
     0
 10
13.17199065049241
 20
19.66853420264381
 30
0.0
 11
13.30499065049241
 21
19.80153420264381
 31
0.0
  0
LINE
  5
130A
  8
0
 62
     0
 10
13.17199065049241
 20
19.1382041167539
 30
0.0
 11
13.30499065049241
 21
19.2712041167539
 31
0.0
  0
LINE
  5
130B
  8
0
 62
     0
 10
13.38073385952457
 20
18.81661723989616
 30
0.0
 11
13.51025315296631
 21
18.9461365333379
 31
0.0
  0
LINE
  5
130C
  8
0
 62
     0
 10
13.85400525335071
 20
18.75955854783238
 30
0.0
 11
14.00790092414753
 21
18.9134542186292
 31
0.0
  0
LINE
  5
130D
  8
0
 62
     0
 10
14.12268815722388
 20
18.49791136581565
 30
0.0
 11
14.23176102271813
 21
18.6069842313099
 31
0.0
  0
LINE
  5
77
  8
0
 62
     0
 10
13.17199065049241
 20
20.39773807074244
 30
0.0
 11
13.30499065049241
 21
20.53073807074244
 31
0.0
  0
LINE
  5
78
  8
0
 62
     0
 10
13.17199065049241
 20
20.92806815663235
 30
0.0
 11
13.30499065049241
 21
21.06106815663235
 31
0.0
  0
LINE
  5
79
  8
0
 62
     0
 10
13.17199065049241
 20
21.45839824252226
 30
0.0
 11
13.30499065049241
 21
21.59139824252226
 31
0.0
  0
LINE
  5
7A
  8
0
 62
     0
 10
13.17199065049241
 20
21.98872832841217
 30
0.0
 11
13.30499065049241
 21
22.12172832841217
 31
0.0
  0
LINE
  5
7B
  8
0
 62
     0
 10
13.17199065049241
 20
22.51905841430208
 30
0.0
 11
13.30499065049241
 21
22.65205841430208
 31
0.0
  0
LINE
  5
7C
  8
0
 62
     0
 10
13.17199065049241
 20
23.04938850019199
 30
0.0
 11
13.30499065049241
 21
23.18238850019199
 31
0.0
  0
LINE
  5
7D
  8
0
 62
     0
 10
13.17199065049241
 20
23.57971858608191
 30
0.0
 11
13.30499065049241
 21
23.7127185860819
 31
0.0
  0
LINE
  5
7E
  8
0
 62
     0
 10
13.17199065049241
 20
24.11004867197181
 30
0.0
 11
13.18348418586024
 21
24.12154220733965
 31
0.0
  0
LINE
  5
7F
  8
0
 62
     0
 10
13.17199065049241
 20
19.86740798485253
 30
0.0
 11
13.30499065049241
 21
20.00040798485253
 31
0.0
  0
LINE
  5
80
  8
0
 62
     0
 10
13.17199065049241
 20
19.33707789896262
 30
0.0
 11
13.30499065049241
 21
19.47007789896262
 31
0.0
  0
LINE
  5
81
  8
0
 62
     0
 10
13.23136844094088
 20
18.86612560352117
 30
0.0
 11
13.32651629225089
 21
18.96127345483119
 31
0.0
  0
LINE
  5
82
  8
0
 62
     0
 10
13.67652848066591
 20
18.7809555573563
 30
0.0
 11
13.82128300995457
 21
18.92571008664496
 31
0.0
  0
LINE
  5
83
  8
0
 62
     0
 10
14.06150244449213
 20
18.6355994352926
 30
0.0
 11
14.31893078113579
 21
18.89302777193627
 31
0.0
  0
ENDBLK
  5
187A
  8
0
  0
BLOCK
  8
0
  2
*X1
 70
     1
 10
0.0
 20
0.0
 30
0.0
  3
*X1
  1

  0
LINE
  5
86
  8
0
 62
     0
 10
18.76654172649273
 20
18.88689437169091
 30
0.0
 11
18.59155459197279
 21
19.06188150621085
 31
0.0
  0
LINE
  5
87
  8
0
 62
     0
 10
18.42863814666424
 20
19.2247979515194
 30
0.0
 11
18.27348660949313
 21
19.37994948869051
 31
0.0
  0
LINE
  5
88
  8
0
 62
     0
 10
18.76654172649274
 20
19.41722445758081
 30
0.0
 11
18.75488224526531
 21
19.42888393880825
 31
0.0
  0
LINE
  5
89
  8
0
 62
     0
 10
18.48641783375438
 20
19.69734835031918
 30
0.0
 11
18.28896586628321
 21
19.89480031779035
 31
0.0
  0
LINE
  5
8A
  8
0
 62
     0
 10
18.68648660949289
 20
19.49727957458067
 30
0.0
 11
18.55348660949291
 21
19.63027957458065
 31
0.0
  0
LINE
  5
8B
  8
0
 62
     0
 10
18.76654172649273
 20
19.94755454347073
 30
0.0
 11
18.44769179084549
 21
20.26640447911797
 31
0.0
  0
LINE
  5
8C
  8
0
 62
     0
 10
18.72249216617515
 20
20.52193418967822
 30
0.0
 11
18.58881731149288
 21
20.6556090443605
 31
0.0
  0
LINE
  5
8D
  8
0
 62
     0
 10
18.48888414851375
 20
20.75554220733963
 30
0.0
 11
18.35858576501489
 21
20.88584059083849
 31
0.0
  0
LINE
  5
8E
  8
0
 62
     0
 10
18.68648660949289
 20
21.0882698322504
 30
0.0
 11
18.5534866094929
 21
21.22126983225039
 31
0.0
  0
LINE
  5
8F
  8
0
 62
     0
 10
18.33261978418485
 20
21.44213665755843
 30
0.0
 11
18.27348660949292
 21
21.50126983225037
 31
0.0
  0
LINE
  5
90
  8
0
 62
     0
 10
18.76654172649274
 20
21.53854480114045
 30
0.0
 11
18.58881731149288
 21
21.71626921614032
 31
0.0
  0
LINE
  5
91
  8
0
 62
     0
 10
18.56354432029356
 20
21.74154220733963
 30
0.0
 11
18.43076410280941
 21
21.87432242482379
 31
0.0
  0
LINE
  5
130E
  8
0
 62
     0
 10
18.6864866094929
 20
22.14893000403022
 30
0.0
 11
18.5534866094929
 21
22.28193000403021
 31
0.0
  0
LINE
  5
130F
  8
0
 62
     0
 10
18.40993854199895
 20
22.42547807152415
 30
0.0
 11
18.27787440618348
 21
22.55754220733963
 31
0.0
  0
LINE
  5
94
  8
0
 62
     0
 10
18.76654172649274
 20
22.59920497292028
 30
0.0
 11
18.50294244060393
 21
22.86280425880908
 31
0.0
  0
LINE
  5
95
  8
0
 62
     0
 10
18.6864866094929
 20
23.20959017581003
 30
0.0
 11
18.5534866094929
 21
23.34259017581003
 31
0.0
  0
LINE
  5
96
  8
0
 62
     0
 10
18.48725729981305
 20
23.40881948548988
 30
0.0
 11
18.35253457796331
 21
23.54354220733962
 31
0.0
  0
LINE
  5
1310
  8
0
 62
     0
 10
18.76654172649274
 20
23.6598651447001
 30
0.0
 11
18.5534866094929
 21
23.87292026169994
 31
0.0
  0
LINE
  5
1311
  8
0
 62
     0
 10
18.32752509407766
 20
18.79558091821607
 30
0.0
 11
18.19356842180381
 21
18.92953759048993
 31
0.0
  0
LINE
  5
1312
  8
0
 62
     0
 10
17.80585834995097
 20
18.78691757645286
 30
0.0
 11
17.6685741377599
 21
18.92420178864393
 31
0.0
  0
LINE
  5
1313
  8
0
 62
     0
 10
17.28419160582428
 20
18.77825423468964
 30
0.0
 11
17.14357985371599
 21
18.91886598679793
 31
0.0
  0
LINE
  5
1314
  8
0
 62
     0
 10
16.76252486169758
 20
18.76959089292642
 30
0.0
 11
16.61858556967207
 21
18.91353018495193
 31
0.0
  0
LINE
  5
1315
  8
0
 62
     0
 10
16.24085811757089
 20
18.7609275511632
 30
0.0
 11
16.09359128562816
 21
18.90819438310593
 31
0.0
  0
LINE
  5
1316
  8
0
 62
     0
 10
15.7191913734442
 20
18.75226420939998
 30
0.0
 11
15.56859700158425
 21
18.90285858125993
 31
0.0
  0
LINE
  5
1317
  8
0
 62
     0
 10
15.1975246293175
 20
18.74360086763677
 30
0.0
 11
15.04360271754034
 21
18.89752277941393
 31
0.0
  0
LINE
  5
1318
  8
0
 62
     0
 10
14.67585788519081
 20
18.73493752587355
 30
0.0
 11
14.51860843349643
 21
18.89218697756794
 31
0.0
  0
LINE
  5
1319
  8
0
 62
     0
 10
14.39616865684365
 20
18.48429666833079
 30
0.0
 11
14.35677802949226
 21
18.52368729568219
 31
0.0
  0
LINE
  5
131A
  8
0
 62
     0
 10
18.76654172649274
 20
18.95318563242715
 30
0.0
 11
18.65842250746186
 21
19.06130485145802
 31
0.0
  0
LINE
  5
131B
  8
0
 62
     0
 10
18.49436261350671
 20
19.22536474541318
 30
0.0
 11
18.29700423354726
 21
19.42272312537263
 31
0.0
  0
LINE
  5
131C
  8
0
 62
     0
 10
18.68648660949289
 20
19.56357083531691
 30
0.0
 11
18.35052066522196
 21
19.89953677958784
 31
0.0
  0
LINE
  5
131D
  8
0
 62
     0
 10
18.76654172649273
 20
20.01384580420697
 30
0.0
 11
18.51177941475769
 21
20.26860811594202
 31
0.0
  0
LINE
  5
131E
  8
0
 62
     0
 10
18.32395286324534
 20
20.45643466745437
 30
0.0
 11
18.27348660949291
 21
20.50690092120679
 31
0.0
  0
LINE
  5
131F
  8
0
 62
     0
 10
18.76654172649273
 20
20.54417589009688
 30
0.0
 11
18.58881731149288
 21
20.72190030509674
 31
0.0
  0
LINE
  5
1320
  8
0
 62
     0
 10
18.55517540924998
 20
20.75554220733963
 30
0.0
 11
18.42267338892709
 21
20.88804422766253
 31
0.0
  0
LINE
  5
1321
  8
0
 62
     0
 10
18.68648660949289
 20
21.15456109298663
 30
0.0
 11
18.5534866094929
 21
21.28756109298663
 31
0.0
  0
LINE
  5
1322
  8
0
 62
     0
 10
18.40127162105943
 20
21.43977608142009
 30
0.0
 11
18.27348660949296
 21
21.56756109298656
 31
0.0
  0
LINE
  5
1323
  8
0
 62
     0
 10
18.76654172649274
 20
21.60483606187669
 30
0.0
 11
18.4948517267216
 21
21.87652606164783
 31
0.0
  0
LINE
  5
1324
  8
0
 62
     0
 10
18.6864866094929
 20
22.21522126476645
 30
0.0
 11
18.5534866094929
 21
22.34822126476645
 31
0.0
  0
LINE
  5
1325
  8
0
 62
     0
 10
18.47859037887354
 20
22.42311749538581
 30
0.0
 11
18.34416566691972
 21
22.55754220733963
 31
0.0
  0
LINE
  5
1326
  8
0
 62
     0
 10
18.76654172649275
 20
22.66549623365651
 30
0.0
 11
18.5534866094929
 21
22.87855135065636
 31
0.0
  0
LINE
  5
1327
  8
0
 62
     0
 10
18.6864866094929
 20
23.27588143654627
 30
0.0
 11
18.41882583869955
 21
23.54354220733962
 31
0.0
  0
LINE
  5
1328
  8
0
 62
     0
 10
18.76654172649275
 20
23.72615640543633
 30
0.0
 11
18.71526864405476
 21
23.77742948787433
 31
0.0
  0
LINE
  5
1329
  8
0
 62
     0
 10
18.6864866094929
 20
23.80621152243619
 30
0.0
 11
18.5534866094929
 21
23.93921152243618
 31
0.0
  0
LINE
  5
132A
  8
0
 62
     0
 10
18.3927334370935
 20
18.79666383593647
 30
0.0
 11
18.2591927073093
 21
18.93020456572068
 31
0.0
  0
LINE
  5
132B
  8
0
 62
     0
 10
17.87106669296681
 20
18.78800049417326
 30
0.0
 11
17.73419842326538
 21
18.92486876387468
 31
0.0
  0
LINE
  5
132C
  8
0
 62
     0
 10
17.34939994884012
 20
18.77933715241004
 30
0.0
 11
17.20920413922148
 21
18.91953296202868
 31
0.0
  0
LINE
  5
132D
  8
0
 62
     0
 10
16.82773320471342
 20
18.77067381064682
 30
0.0
 11
16.68420985517756
 21
18.91419716018268
 31
0.0
  0
LINE
  5
132E
  8
0
 62
     0
 10
16.30606646058673
 20
18.7620104688836
 30
0.0
 11
16.15921557113365
 21
18.90886135833668
 31
0.0
  0
LINE
  5
132F
  8
0
 62
     0
 10
15.78439971646004
 20
18.75334712712039
 30
0.0
 11
15.63422128708974
 21
18.90352555649069
 31
0.0
  0
LINE
  5
1330
  8
0
 62
     0
 10
15.26273297233334
 20
18.74468378535717
 30
0.0
 11
15.10922700304583
 21
18.89818975464468
 31
0.0
  0
LINE
  5
1331
  8
0
 62
     0
 10
14.74106622820665
 20
18.73602044359395
 30
0.0
 11
14.58423271900192
 21
18.89285395279868
 31
0.0
  0
LINE
  5
1332
  8
0
 62
     0
 10
14.45812734410734
 20
18.48862924180335
 30
0.0
 11
14.35677802949226
 21
18.58997855641843
 31
0.0
  0
LINE
  5
1333
  8
0
 62
     0
 10
14.31321437857106
 20
18.63354220733963
 30
0.0
 11
14.25714746834081
 21
18.68960911756988
 31
0.0
  0
LINE
  5
BB
  8
0
 62
     0
 10
18.76654172649274
 20
19.01947689316338
 30
0.0
 11
18.72529042295094
 21
19.06072819670518
 31
0.0
  0
LINE
  5
BC
  8
0
 62
     0
 10
18.56008708034918
 20
19.22593153930694
 30
0.0
 11
18.36109185745945
 21
19.42492676219667
 31
0.0
  0
LINE
  5
BD
  8
0
 62
     0
 10
18.68648660949289
 20
19.62986209605315
 30
0.0
 11
18.41624513206452
 21
19.90010357348152
 31
0.0
  0
LINE
  5
BE
  8
0
 62
     0
 10
18.76654172649274
 20
20.08013706494321
 30
0.0
 11
18.55348660949291
 21
20.29319218194304
 31
0.0
  0
LINE
  5
BF
  8
0
 62
     0
 10
18.39260470011992
 20
20.45407409131603
 30
0.0
 11
18.27348660949295
 21
20.57319218194299
 31
0.0
  0
LINE
  5
C0
  8
0
 62
     0
 10
18.76654172649274
 20
20.61046715083312
 30
0.0
 11
18.48676101283928
 21
20.89024786448657
 31
0.0
  0
LINE
  5
C1
  8
0
 62
     0
 10
18.68648660949289
 20
21.22085235372288
 30
0.0
 11
18.5534866094929
 21
21.35385235372287
 31
0.0
  0
LINE
  5
C2
  8
0
 62
     0
 10
18.46992345793402
 20
21.43741550528174
 30
0.0
 11
18.33579675587614
 21
21.57154220733962
 31
0.0
  0
LINE
  5
C3
  8
0
 62
     0
 10
18.76654172649275
 20
21.67112732261293
 30
0.0
 11
18.5534866094929
 21
21.88418243961278
 31
0.0
  0
LINE
  5
C4
  8
0
 62
     0
 10
18.6864866094929
 20
22.28151252550269
 30
0.0
 11
18.5534866094929
 21
22.41451252550269
 31
0.0
  0
LINE
  5
C5
  8
0
 62
     0
 10
18.54724221574812
 20
22.42075691924747
 30
0.0
 11
18.41045692765596
 21
22.55754220733963
 31
0.0
  0
LINE
  5
C6
  8
0
 62
     0
 10
18.76654172649275
 20
22.73178749439275
 30
0.0
 11
18.70656317787097
 21
22.79176604301452
 31
0.0
  0
LINE
  5
C7
  8
0
 62
     0
 10
18.6864866094929
 20
22.8118426113926
 30
0.0
 11
18.5534866094929
 21
22.9448426113926
 31
0.0
  0
LINE
  5
C8
  8
0
 62
     0
 10
18.6864866094929
 20
23.34217269728251
 30
0.0
 11
18.48511709943579
 21
23.54354220733962
 31
0.0
  0
LINE
  5
C9
  8
0
 62
     0
 10
18.31511709943578
 20
23.71354220733963
 30
0.0
 11
18.27348660949311
 21
23.7551726972823
 31
0.0
  0
LINE
  5
CA
  8
0
 62
     0
 10
18.6864866094929
 20
23.87250278317242
 30
0.0
 11
18.5534866094929
 21
24.00550278317242
 31
0.0
  0
LINE
  5
CB
  8
0
 62
     0
 10
18.45794178010934
 20
18.79774675365688
 30
0.0
 11
18.27348660949292
 21
18.98220192427329
 31
0.0
  0
LINE
  5
CC
  8
0
 62
     0
 10
17.93627503598264
 20
18.78908341189366
 30
0.0
 11
17.79982270877088
 21
18.92553573910543
 31
0.0
  0
LINE
  5
CD
  8
0
 62
     0
 10
17.41460829185595
 20
18.78042007013044
 30
0.0
 11
17.27482842472697
 21
18.92019993725943
 31
0.0
  0
LINE
  5
CE
  8
0
 62
     0
 10
16.89294154772926
 20
18.77175672836722
 30
0.0
 11
16.74983414068305
 21
18.91486413541343
 31
0.0
  0
LINE
  5
CF
  8
0
 62
     0
 10
16.37127480360256
 20
18.76309338660401
 30
0.0
 11
16.22483985663914
 21
18.90952833356743
 31
0.0
  0
LINE
  5
D0
  8
0
 62
     0
 10
15.84960805947587
 20
18.75443004484079
 30
0.0
 11
15.69984557259523
 21
18.90419253172144
 31
0.0
  0
LINE
  5
D1
  8
0
 62
     0
 10
15.32794131534918
 20
18.74576670307757
 30
0.0
 11
15.17485128855132
 21
18.89885672987543
 31
0.0
  0
LINE
  5
D2
  8
0
 62
     0
 10
14.80627457122248
 20
18.73710336131436
 30
0.0
 11
14.64985700450741
 21
18.89352092802943
 31
0.0
  0
LINE
  5
D3
  8
0
 62
     0
 10
14.52008603137103
 20
18.4929618152759
 30
0.0
 11
14.28466252828393
 21
18.728385318363
 31
0.0
  0
LINE
  5
D4
  8
0
 62
     0
 10
18.65356680915684
 20
18.80099550681808
 30
0.0
 11
18.27348660949303
 21
19.1810757064819
 31
0.0
  0
LINE
  5
D5
  8
0
 62
     0
 10
18.75208092399068
 20
19.23281147787416
 30
0.0
 11
18.55335472919604
 21
19.4315376726688
 31
0.0
  0
LINE
  5
D6
  8
0
 62
     0
 10
18.76654172649273
 20
19.74868076126202
 30
0.0
 11
18.61341853259219
 21
19.90180395516257
 31
0.0
  0
LINE
  5
D7
  8
0
 62
     0
 10
18.45053737560875
 20
20.064685112146
 30
0.0
 11
18.27348951662267
 21
20.24173297113208
 31
0.0
  0
LINE
  5
D8
  8
0
 62
     0
 10
18.68648660949289
 20
20.35906596415177
 30
0.0
 11
18.46001036630504
 21
20.58554220733963
 31
0.0
  0
LINE
  5
D9
  8
0
 62
     0
 10
18.29001036630503
 20
20.75554220733963
 30
0.0
 11
18.27348660949309
 21
20.77206596415157
 31
0.0
  0
LINE
  5
DA
  8
0
 62
     0
 10
18.76654172649275
 20
20.80934093304183
 30
0.0
 11
18.75810940439951
 21
20.81777325513506
 31
0.0
  0
LINE
  5
DB
  8
0
 62
     0
 10
18.68648660949289
 20
20.88939605004168
 30
0.0
 11
18.5534866094929
 21
21.02239605004167
 31
0.0
  0
LINE
  5
DC
  8
0
 62
     0
 10
18.68648660949289
 20
21.41972613593159
 30
0.0
 11
18.53467053808486
 21
21.57154220733962
 31
0.0
  0
LINE
  5
DD
  8
0
 62
     0
 10
18.36467053808485
 20
21.74154220733963
 30
0.0
 11
18.27348660949314
 21
21.83272613593134
 31
0.0
  0
LINE
  5
DE
  8
0
 62
     0
 10
18.6864866094929
 20
21.9500562218215
 30
0.0
 11
18.5534866094929
 21
22.08305622182149
 31
0.0
  0
LINE
  5
DF
  8
0
 62
     0
 10
18.6864866094929
 20
22.48038630771141
 30
0.0
 11
18.58881731149288
 21
22.57805560571143
 31
0.0
  0
LINE
  5
E0
  8
0
 62
     0
 10
18.43933070986467
 20
22.72754220733963
 30
0.0
 11
18.31067956886735
 21
22.85619334833695
 31
0.0
  0
LINE
  5
E1
  8
0
 62
     0
 10
18.6864866094929
 20
23.01071639360132
 30
0.0
 11
18.5534866094929
 21
23.14371639360131
 31
0.0
  0
LINE
  5
E2
  8
0
 62
     0
 10
18.74666439585961
 20
23.48086869312452
 30
0.0
 11
18.58881731149288
 21
23.63871577749125
 31
0.0
  0
LINE
  5
E3
  8
0
 62
     0
 10
18.51399088164449
 20
23.71354220733963
 30
0.0
 11
18.38285790666187
 21
23.84467518232225
 31
0.0
  0
LINE
  5
E4
  8
0
 62
     0
 10
18.6864866094929
 20
24.07137656538114
 30
0.0
 11
18.63632096753439
 21
24.12154220733965
 31
0.0
  0
LINE
  5
E5
  8
0
 62
     0
 10
18.13190006503015
 20
18.79233216505486
 30
0.0
 11
17.99669556528734
 21
18.92753666479768
 31
0.0
  0
LINE
  5
E6
  8
0
 62
     0
 10
17.61023332090346
 20
18.78366882329165
 30
0.0
 11
17.47170128124343
 21
18.92220086295168
 31
0.0
  0
LINE
  5
E7
  8
0
 62
     0
 10
17.08856657677677
 20
18.77500548152843
 30
0.0
 11
16.94670699719952
 21
18.91686506110568
 31
0.0
  0
LINE
  5
E8
  8
0
 62
     0
 10
16.56689983265008
 20
18.76634213976521
 30
0.0
 11
16.42171271315561
 21
18.91152925925968
 31
0.0
  0
LINE
  5
E9
  8
0
 62
     0
 10
16.04523308852338
 20
18.757678798002
 30
0.0
 11
15.8967184291117
 21
18.90619345741368
 31
0.0
  0
LINE
  5
EA
  8
0
 62
     0
 10
15.52356634439669
 20
18.74901545623878
 30
0.0
 11
15.37172414506778
 21
18.90085765556768
 31
0.0
  0
LINE
  5
EB
  8
0
 62
     0
 10
15.00189960026999
 20
18.74035211447556
 30
0.0
 11
14.84672986102387
 21
18.89552185372169
 31
0.0
  0
LINE
  5
EC
  8
0
 62
     0
 10
14.65205361449238
 20
18.55986801436327
 30
0.0
 11
14.35677802949225
 21
18.85514359936339
 31
0.0
  0
ENDBLK
  5
187C
  8
0
  0
BLOCK
  8
0
  2
HBS
 70
     0
 10
0.0
 20
0.0
 30
0.0
  3
HBS
  1

  0
LINE
  5
EF
  8
TITLE
 10
0.0619999999999976
 20
9.64
 30
0.0
 11
15.43799999999999
 21
9.640000000000004
 31
0.0
  0
POLYLINE
  5
F0
  8
TITLE
 66
     1
 10
0.0
 20
0.0
 30
0.0
 70
     1
  0
VERTEX
  5
1A48
  8
TITLE
 10
15.5
 20
10.11999999999999
 30
0.0
  0
VERTEX
  5
1A49
  8
TITLE
 10
15.49999999999999
 20
0.0
 30
0.0
  0
VERTEX
  5
1A4A
  8
TITLE
 10
0.0
 20
0.0
 30
0.0
  0
VERTEX
  5
1A4B
  8
TITLE
 10
0.0
 20
10.11999999999999
 30
0.0
  0
SEQEND
  5
1A4C
  8
TITLE
  0
POLYLINE
  5
F6
  8
TITLE
 66
     1
 10
0.0
 20
0.0
 30
0.0
 70
     1
  0
VERTEX
  5
1A4D
  8
TITLE
 10
15.43799999999999
 20
10.058
 30
0.0
  0
VERTEX
  5
1A4E
  8
TITLE
 10
15.43799999999999
 20
0.0620000000000012
 30
0.0
  0
VERTEX
  5
1A4F
  8
TITLE
 10
0.0620000000000012
 20
0.0620000000000012
 30
0.0
  0
VERTEX
  5
1A50
  8
TITLE
 10
0.0620000000000012
 20
10.058
 30
0.0
  0
SEQEND
  5
1A51
  8
TITLE
  0
TEXT
  5
FC
  8
TEXT
 10
0.2076250000000012
 20
9.68007919564008
 30
0.0
 40
0.125
  1
NAME
  7
TXT
 72
     1
 11
0.4370000000000012
 21
9.68007919564008
 31
0.0
  0
TEXT
  5
FE
  8
TEXT
 10
0.2076250000000012
 20
9.888412528973411
 30
0.0
 40
0.125
  1
PART
  7
TXT
 72
     1
 11
0.4370000000000012
 21
9.888412528973411
 31
0.0
  0
LINE
  5
FF
  8
TITLE
 10
0.812000000000001
 20
9.64
 30
0.0
 11
0.8119999999999976
 21
10.058
 31
0.0
  0
TEXT
  5
100
  8
TEXT
 10
7.926624999999999
 20
9.888412528973411
 30
0.0
 40
0.125
  1
PART
  7
TXT
 72
     1
 11
8.155999999999999
 21
9.888412528973411
 31
0.0
  0
TEXT
  5
101
  8
TEXT
 10
8.030999999999999
 20
9.68007919564008
 30
0.0
 40
0.125
  1
No.
  7
TXT
 72
     1
 11
8.155999999999999
 21
9.68007919564008
 31
0.0
  0
LINE
  5
102
  8
TITLE
 10
7.780999999999998
 20
10.058
 30
0.0
 11
7.780999999999998
 21
9.64
 31
0.0
  0
LINE
  5
103
  8
TITLE
 10
7.719000000000001
 20
10.058
 30
0.0
 11
7.719000000000001
 21
9.64
 31
0.0
  0
LINE
  5
104
  8
TITLE
 10
8.530999999999999
 20
10.058
 30
0.0
 11
8.530999999999999
 21
9.64
 31
0.0
  0
ENDBLK
  5
187E
  8
0
  0
BLOCK
  8
0
  2
*D3
 70
     1
 10
0.0
 20
0.0
 30
0.0
  3
*D3
  1

  0
LINE
  5
EEC
  8
DIM
 62
     0
 10
47.81101565649958
 20
9.751673340450038
 30
0.0
 11
53.20557476140614
 21
9.751673340450036
 31
0.0
  0
LINE
  5
EED
  8
DIM
 62
     0
 10
47.81101565649958
 20
20.39167334045003
 30
0.0
 11
53.20557476140614
 21
20.39167334045003
 31
0.0
  0
LINE
  5
EEE
  8
DIM
 62
     0
 10
52.88007476140614
 20
10.38167334045003
 30
0.0
 11
52.88007476140614
 21
14.53792334045003
 31
0.0
  0
LINE
  5
EEF
  8
DIM
 62
     0
 10
52.88007476140615
 20
19.76167334045003
 30
0.0
 11
52.88007476140614
 21
15.60542334045003
 31
0.0
  0
SOLID
  5
EF0
  8
DIM
 62
     0
 10
52.77507476140614
 20
10.38167334045003
 30
0.0
 11
52.98507476140613
 21
10.38167334045003
 31
0.0
 12
52.88007476140614
 22
9.751673340450036
 32
0.0
 13
52.88007476140614
 23
9.751673340450036
 33
0.0
  0
SOLID
  5
EF1
  8
DIM
 62
     0
 10
52.77507476140615
 20
19.76167334045003
 30
0.0
 11
52.98507476140614
 21
19.76167334045003
 31
0.0
 12
52.88007476140615
 22
20.39167334045003
 32
0.0
 13
52.88007476140615
 23
20.39167334045003
 33
0.0
  0
TEXT
  5
EF2
  8
DIM
 62
     0
 10
52.77015288640614
 20
14.85292334045004
 30
0.0
 40
0.4375
  1
S
 41
0.75
  7
TXT
  0
POINT
  5
EF3
  8
DEFPOINTS
 62
     0
 10
47.59051565649958
 20
9.751673340450038
 30
0.0
  0
POINT
  5
EF4
  8
DEFPOINTS
 62
     0
 10
47.59051565649958
 20
20.39167334045003
 30
0.0
  0
POINT
  5
EF5
  8
DEFPOINTS
 62
     0
 10
52.88007476140615
 20
20.39167334045003
 30
0.0
  0
ENDBLK
  5
1880
  8
0
  0
BLOCK
  8
0
  2
*D4
 70
     1
 10
0.0
 20
0.0
 30
0.0
  3
*D4
  1

  0
LINE
  5
EBA
  8
DIM
 62
     0
 10
16.70164027892193
 20
9.431673340450036
 30
0.0
 11
13.36655139667832
 21
9.431673340450036
 31
0.0
  0
LINE
  5
EBB
  8
DIM
 62
     0
 10
16.70164027892193
 20
20.71167334045003
 30
0.0
 11
13.36655139667833
 21
20.71167334045003
 31
0.0
  0
LINE
  5
EBC
  8
DIM
 62
     0
 10
13.69205139667832
 20
10.06167334045003
 30
0.0
 11
13.69205139667832
 21
14.53792334045004
 31
0.0
  0
LINE
  5
EBD
  8
DIM
 62
     0
 10
13.69205139667833
 20
20.08167334045003
 30
0.0
 11
13.69205139667832
 21
15.60542334045003
 31
0.0
  0
SOLID
  5
EBE
  8
DIM
 62
     0
 10
13.58705139667832
 20
10.06167334045003
 30
0.0
 11
13.79705139667832
 21
10.06167334045003
 31
0.0
 12
13.69205139667832
 22
9.431673340450036
 32
0.0
 13
13.69205139667832
 23
9.431673340450036
 33
0.0
  0
SOLID
  5
EBF
  8
DIM
 62
     0
 10
13.58705139667833
 20
20.08167334045003
 30
0.0
 11
13.79705139667833
 21
20.08167334045003
 31
0.0
 12
13.69205139667833
 22
20.71167334045003
 32
0.0
 13
13.69205139667833
 23
20.71167334045003
 33
0.0
  0
TEXT
  5
EC0
  8
DIM
 62
     0
 10
13.58212952167832
 20
14.85292334045004
 30
0.0
 40
0.4375
  1
G
 41
0.75
  7
TXT
  0
POINT
  5
EC1
  8
DEFPOINTS
 62
     0
 10
16.92214027892193
 20
9.431673340450036
 30
0.0
  0
POINT
  5
EC2
  8
DEFPOINTS
 62
     0
 10
16.92214027892193
 20
20.71167334045003
 30
0.0
  0
POINT
  5
EC3
  8
DEFPOINTS
 62
     0
 10
13.69205139667833
 20
20.71167334045003
 30
0.0
  0
ENDBLK
  5
1882
  8
0
  0
BLOCK
  8
0
  2
*D5
 70
     1
 10
0.0
 20
0.0
 30
0.0
  3
*D5
  1

  0
LINE
  5
E92
  8
DIM
 62
     0
 10
23.96406942092193
 20
20.49910248245003
 30
0.0
 11
23.96406942092193
 21
23.66217334045003
 31
0.0
  0
LINE
  5
E93
  8
DIM
 62
     0
 10
16.48906942092193
 20
20.49910248245003
 30
0.0
 11
16.48906942092193
 21
23.66217334045003
 31
0.0
  0
LINE
  5
E94
  8
DIM
 62
     0
 10
23.33406942092194
 20
23.33667334045003
 30
0.0
 11
20.65094442092193
 21
23.33667334045003
 31
0.0
  0
LINE
  5
E95
  8
DIM
 62
     0
 10
17.11906942092193
 20
23.33667334045003
 30
0.0
 11
19.80219442092193
 21
23.33667334045003
 31
0.0
  0
SOLID
  5
E96
  8
DIM
 62
     0
 10
23.33406942092194
 20
23.44167334045003
 30
0.0
 11
23.33406942092194
 21
23.23167334045003
 31
0.0
 12
23.96406942092193
 22
23.33667334045003
 32
0.0
 13
23.96406942092193
 23
23.33667334045003
 33
0.0
  0
SOLID
  5
E97
  8
DIM
 62
     0
 10
17.11906942092193
 20
23.44167334045003
 30
0.0
 11
17.11906942092193
 21
23.23167334045003
 31
0.0
 12
16.48906942092193
 22
23.33667334045003
 32
0.0
 13
16.48906942092193
 23
23.33667334045003
 33
0.0
  0
TEXT
  5
E98
  8
DIM
 62
     0
 10
20.11664754592193
 20
23.11792334045003
 30
0.0
 40
0.4375
  1
A
 41
0.75
  7
TXT
  0
POINT
  5
E99
  8
DEFPOINTS
 62
     0
 10
23.96406942092193
 20
20.27860248245003
 30
0.0
  0
POINT
  5
E9A
  8
DEFPOINTS
 62
     0
 10
16.48906942092193
 20
20.27860248245003
 30
0.0
  0
POINT
  5
E9B
  8
DEFPOINTS
 62
     0
 10
16.48906942092193
 20
23.33667334045003
 30
0.0
  0
ENDBLK
  5
1884
  8
0
  0
BLOCK
  8
0
  2
*D6
 70
     1
 10
0.0
 20
0.0
 30
0.0
  3
*D6
  1

  0
LINE
  5
E74
  8
DIM
 62
     0
 10
17.86806942092193
 20
10.71217334045003
 30
0.0
 11
17.86806942092193
 21
6.497897437854969
 31
0.0
  0
LINE
  5
E75
  8
DIM
 62
     0
 10
22.58506942092193
 20
10.71217334045003
 30
0.0
 11
22.58506942092193
 21
6.497897437854969
 31
0.0
  0
LINE
  5
E76
  8
DIM
 62
     0
 10
18.49806942092193
 20
6.823397437854969
 30
0.0
 11
19.80219442092193
 21
6.823397437854969
 31
0.0
  0
LINE
  5
E77
  8
DIM
 62
     0
 10
21.95506942092193
 20
6.823397437854969
 30
0.0
 11
20.65094442092193
 21
6.823397437854969
 31
0.0
  0
SOLID
  5
E78
  8
DIM
 62
     0
 10
18.49806942092193
 20
6.928397437854969
 30
0.0
 11
18.49806942092193
 21
6.718397437854968
 31
0.0
 12
17.86806942092193
 22
6.823397437854969
 32
0.0
 13
17.86806942092193
 23
6.823397437854969
 33
0.0
  0
SOLID
  5
E79
  8
DIM
 62
     0
 10
21.95506942092193
 20
6.928397437854969
 30
0.0
 11
21.95506942092193
 21
6.718397437854968
 31
0.0
 12
22.58506942092193
 22
6.823397437854969
 32
0.0
 13
22.58506942092193
 23
6.823397437854969
 33
0.0
  0
TEXT
  5
E7A
  8
DIM
 62
     0
 10
20.11664754592193
 20
6.604647437854969
 30
0.0
 40
0.4375
  1
E
 41
0.75
  7
TXT
  0
POINT
  5
E7B
  8
DEFPOINTS
 62
     0
 10
17.86806942092193
 20
10.93267334045003
 30
0.0
  0
POINT
  5
E7C
  8
DEFPOINTS
 62
     0
 10
22.58506942092193
 20
10.93267334045003
 30
0.0
  0
POINT
  5
E7D
  8
DEFPOINTS
 62
     0
 10
22.58506942092193
 20
6.823397437854969
 30
0.0
  0
ENDBLK
  5
1886
  8
0
  0
BLOCK
  8
0
  2
*D7
 70
     1
 10
0.0
 20
0.0
 30
0.0
  3
*D7
  1

  0
LINE
  5
E42
  8
DIM
 62
     0
 10
22.80556942092193
 20
10.93267334045003
 30
0.0
 11
30.28254932915473
 21
10.93267334045003
 31
0.0
  0
LINE
  5
E43
  8
DIM
 62
     0
 10
22.80556942092193
 20
19.21067334045003
 30
0.0
 11
30.28254932915473
 21
19.21067334045003
 31
0.0
  0
LINE
  5
E44
  8
DIM
 62
     0
 10
29.95704932915473
 20
11.56267334045003
 30
0.0
 11
29.95704932915473
 21
14.53792334045003
 31
0.0
  0
LINE
  5
E45
  8
DIM
 62
     0
 10
29.95704932915473
 20
18.58067334045003
 30
0.0
 11
29.95704932915473
 21
15.60542334045003
 31
0.0
  0
SOLID
  5
E46
  8
DIM
 62
     0
 10
29.85204932915473
 20
11.56267334045003
 30
0.0
 11
30.06204932915473
 21
11.56267334045003
 31
0.0
 12
29.95704932915473
 22
10.93267334045003
 32
0.0
 13
29.95704932915473
 23
10.93267334045003
 33
0.0
  0
SOLID
  5
E47
  8
DIM
 62
     0
 10
29.85204932915473
 20
18.58067334045003
 30
0.0
 11
30.06204932915473
 21
18.58067334045003
 31
0.0
 12
29.95704932915473
 22
19.21067334045003
 32
0.0
 13
29.95704932915473
 23
19.21067334045003
 33
0.0
  0
TEXT
  5
E48
  8
DIM
 62
     0
 10
29.84712745415473
 20
14.85292334045004
 30
0.0
 40
0.4375
  1
L
 41
0.75
  7
TXT
  0
POINT
  5
E49
  8
DEFPOINTS
 62
     0
 10
22.58506942092193
 20
10.93267334045003
 30
0.0
  0
POINT
  5
E4A
  8
DEFPOINTS
 62
     0
 10
22.58506942092193
 20
19.21067334045003
 30
0.0
  0
POINT
  5
E4B
  8
DEFPOINTS
 62
     0
 10
29.95704932915473
 20
19.21067334045003
 30
0.0
  0
ENDBLK
  5
1888
  8
0
  0
BLOCK
  8
0
  2
*D8
 70
     1
 10
0.0
 20
0.0
 30
0.0
  3
*D8
  1

  0
LINE
  5
E9C
  8
DIM
 62
     0
 10
16.90156942092193
 20
20.48380326245044
 30
0.0
 11
16.90156942092193
 21
22.78717334045003
 31
0.0
  0
LINE
  5
E9D
  8
DIM
 62
     0
 10
23.55156942092193
 20
20.48380326245044
 30
0.0
 11
23.55156942092193
 21
22.78717334045003
 31
0.0
  0
LINE
  5
E9E
  8
DIM
 62
     0
 10
17.53156942092193
 20
22.46167334045003
 30
0.0
 11
19.80219442092193
 21
22.46167334045003
 31
0.0
  0
LINE
  5
E9F
  8
DIM
 62
     0
 10
22.92156942092193
 20
22.46167334045003
 30
0.0
 11
20.65094442092193
 21
22.46167334045003
 31
0.0
  0
SOLID
  5
EA0
  8
DIM
 62
     0
 10
17.53156942092193
 20
22.56667334045003
 30
0.0
 11
17.53156942092193
 21
22.35667334045003
 31
0.0
 12
16.90156942092193
 22
22.46167334045003
 32
0.0
 13
16.90156942092193
 23
22.46167334045003
 33
0.0
  0
SOLID
  5
EA1
  8
DIM
 62
     0
 10
22.92156942092193
 20
22.56667334045003
 30
0.0
 11
22.92156942092193
 21
22.35667334045003
 31
0.0
 12
23.55156942092193
 22
22.46167334045003
 32
0.0
 13
23.55156942092193
 23
22.46167334045003
 33
0.0
  0
TEXT
  5
EA2
  8
DIM
 62
     0
 10
20.11664754592193
 20
22.24292334045003
 30
0.0
 40
0.4375
  1
B
 41
0.75
  7
TXT
  0
POINT
  5
EA3
  8
DEFPOINTS
 62
     0
 10
16.90156942092193
 20
20.26330326245044
 30
0.0
  0
POINT
  5
EA4
  8
DEFPOINTS
 62
     0
 10
23.55156942092193
 20
20.26330326245044
 30
0.0
  0
POINT
  5
EA5
  8
DEFPOINTS
 62
     0
 10
23.55156942092193
 20
22.46167334045003
 30
0.0
  0
ENDBLK
  5
188A
  8
0
  0
BLOCK
  8
0
  2
*D9
 70
     1
 10
0.0
 20
0.0
 30
0.0
  3
*D9
  1

  0
LINE
  5
EC4
  8
DIM
 62
     0
 10
16.72043949892198
 20
9.84067334045004
 30
0.0
 11
14.24155139667832
 21
9.84067334045004
 31
0.0
  0
LINE
  5
EC5
  8
DIM
 62
     0
 10
16.72043949892198
 20
20.30267334045003
 30
0.0
 11
14.24155139667833
 21
20.30267334045003
 31
0.0
  0
LINE
  5
EC6
  8
DIM
 62
     0
 10
14.56705139667832
 20
10.47067334045004
 30
0.0
 11
14.56705139667833
 21
14.53792334045004
 31
0.0
  0
LINE
  5
EC7
  8
DIM
 62
     0
 10
14.56705139667833
 20
19.67267334045003
 30
0.0
 11
14.56705139667833
 21
15.60542334045003
 31
0.0
  0
SOLID
  5
EC8
  8
DIM
 62
     0
 10
14.46205139667832
 20
10.47067334045004
 30
0.0
 11
14.67205139667832
 21
10.47067334045004
 31
0.0
 12
14.56705139667832
 22
9.84067334045004
 32
0.0
 13
14.56705139667832
 23
9.84067334045004
 33
0.0
  0
SOLID
  5
EC9
  8
DIM
 62
     0
 10
14.46205139667832
 20
19.67267334045003
 30
0.0
 11
14.67205139667832
 21
19.67267334045003
 31
0.0
 12
14.56705139667833
 22
20.30267334045003
 32
0.0
 13
14.56705139667833
 23
20.30267334045003
 33
0.0
  0
TEXT
  5
ECA
  8
DIM
 62
     0
 10
14.45712952167832
 20
14.85292334045004
 30
0.0
 40
0.4375
  1
H
 41
0.75
  7
TXT
  0
POINT
  5
ECB
  8
DEFPOINTS
 62
     0
 10
16.94093949892198
 20
9.84067334045004
 30
0.0
  0
POINT
  5
ECC
  8
DEFPOINTS
 62
     0
 10
16.94093949892198
 20
20.30267334045003
 30
0.0
  0
POINT
  5
ECD
  8
DEFPOINTS
 62
     0
 10
14.56705139667833
 20
20.30267334045003
 30
0.0
  0
ENDBLK
  5
188C
  8
0
  0
BLOCK
  8
0
  2
*D10
 70
     1
 10
0.0
 20
0.0
 30
0.0
  3
*D10
  1

  0
LINE
  5
EE2
  8
DIM
 62
     0
 10
42.02341293044141
 20
9.771673340450038
 30
0.0
 11
40.92908059227529
 21
9.771673340450038
 31
0.0
  0
LINE
  5
EE3
  8
DIM
 62
     0
 10
42.02341293044141
 20
20.37167334045003
 30
0.0
 11
40.92908059227529
 21
20.37167334045003
 31
0.0
  0
LINE
  5
EE4
  8
DIM
 62
     0
 10
41.25458059227528
 20
10.40167334045003
 30
0.0
 11
41.25458059227528
 21
14.53792334045004
 31
0.0
  0
LINE
  5
EE5
  8
DIM
 62
     0
 10
41.25458059227529
 20
19.74167334045003
 30
0.0
 11
41.25458059227528
 21
15.60542334045003
 31
0.0
  0
SOLID
  5
EE6
  8
DIM
 62
     0
 10
41.14958059227529
 20
10.40167334045003
 30
0.0
 11
41.35958059227529
 21
10.40167334045003
 31
0.0
 12
41.25458059227528
 22
9.771673340450038
 32
0.0
 13
41.25458059227528
 23
9.771673340450038
 33
0.0
  0
SOLID
  5
EE7
  8
DIM
 62
     0
 10
41.1495805922753
 20
19.74167334045003
 30
0.0
 11
41.35958059227529
 21
19.74167334045003
 31
0.0
 12
41.25458059227529
 22
20.37167334045003
 32
0.0
 13
41.25458059227529
 23
20.37167334045003
 33
0.0
  0
TEXT
  5
EE8
  8
DIM
 62
     0
 10
41.14465871727528
 20
14.85292334045004
 30
0.0
 40
0.4375
  1
R
 41
0.75
  7
TXT
  0
POINT
  5
EE9
  8
DEFPOINTS
 62
     0
 10
42.24391293044141
 20
9.771673340450038
 30
0.0
  0
POINT
  5
EEA
  8
DEFPOINTS
 62
     0
 10
42.24391293044141
 20
20.37167334045003
 30
0.0
  0
POINT
  5
EEB
  8
DEFPOINTS
 62
     0
 10
41.25458059227529
 20
20.37167334045003
 30
0.0
  0
ENDBLK
  5
188E
  8
0
  0
BLOCK
  8
0
  2
*D11
 70
     1
 10
0.0
 20
0.0
 30
0.0
  3
*D11
  1

  0
LINE
  5
EF6
  8
DIM
 62
     0
 10
47.45751565649957
 20
12.97929650049167
 30
0.0
 11
47.45751565649957
 21
12.86647616800891
 31
0.0
  0
LINE
  5
EF7
  8
DIM
 62
     0
 10
47.59051565649958
 20
12.97929650049167
 30
0.0
 11
47.59051565649958
 21
12.86647616800891
 31
0.0
  0
LINE
  5
EF8
  8
DIM
 62
     0
 10
46.82751565649957
 20
13.19197616800891
 30
0.0
 11
46.19751565649957
 21
13.19197616800891
 31
0.0
  0
LINE
  5
EF9
  8
DIM
 62
     0
 10
48.22051565649958
 20
13.19197616800891
 30
0.0
 11
48.85051565649959
 21
13.19197616800891
 31
0.0
  0
SOLID
  5
EFA
  8
DIM
 62
     0
 10
46.82751565649957
 20
13.29697616800891
 30
0.0
 11
46.82751565649957
 21
13.08697616800891
 31
0.0
 12
47.45751565649957
 22
13.19197616800891
 32
0.0
 13
47.45751565649957
 23
13.19197616800891
 33
0.0
  0
SOLID
  5
EFB
  8
DIM
 62
     0
 10
48.22051565649958
 20
13.29697616800891
 30
0.0
 11
48.22051565649958
 21
13.08697616800891
 31
0.0
 12
47.59051565649958
 22
13.19197616800891
 32
0.0
 13
47.59051565649958
 23
13.19197616800891
 33
0.0
  0
TEXT
  5
EFC
  8
DIM
 62
     0
 10
49.16606253149959
 20
12.97322616800891
 30
0.0
 40
0.4375
  1
0.133 [3]
 41
0.75
  7
TXT
  0
POINT
  5
EFD
  8
DEFPOINTS
 62
     0
 10
47.45751565649957
 20
13.19979650049167
 30
0.0
  0
POINT
  5
EFE
  8
DEFPOINTS
 62
     0
 10
47.59051565649958
 20
13.19979650049167
 30
0.0
  0
POINT
  5
EFF
  8
DEFPOINTS
 62
     0
 10
47.59051565649958
 20
13.19197616800891
 30
0.0
  0
ENDBLK
  5
1890
  8
0
  0
BLOCK
  8
0
  2
*D12
 70
     1
 10
0.0
 20
0.0
 30
0.0
  3
*D12
  1

  0
LINE
  5
F0A
  8
DIM
 62
     0
 10
43.26080707649891
 20
20.93217334045004
 30
0.0
 11
43.26080707649891
 21
21.86534110313745
 31
0.0
  0
LINE
  5
F0B
  8
DIM
 62
     0
 10
47.59051565649958
 20
20.61217334045003
 30
0.0
 11
47.59051565649958
 21
21.86534110313745
 31
0.0
  0
LINE
  5
F0C
  8
DIM
 62
     0
 10
43.89080707649891
 20
21.53984110313744
 30
0.0
 11
45.00128636649924
 21
21.53984110313744
 31
0.0
  0
LINE
  5
F0D
  8
DIM
 62
     0
 10
46.96051565649958
 20
21.53984110313744
 30
0.0
 11
45.85003636649925
 21
21.53984110313744
 31
0.0
  0
SOLID
  5
F0E
  8
DIM
 62
     0
 10
43.89080707649891
 20
21.64484110313745
 30
0.0
 11
43.89080707649891
 21
21.43484110313744
 31
0.0
 12
43.26080707649891
 22
21.53984110313744
 32
0.0
 13
43.26080707649891
 23
21.53984110313744
 33
0.0
  0
SOLID
  5
F0F
  8
DIM
 62
     0
 10
46.96051565649958
 20
21.64484110313745
 30
0.0
 11
46.96051565649958
 21
21.43484110313744
 31
0.0
 12
47.59051565649958
 22
21.53984110313744
 32
0.0
 13
47.59051565649958
 23
21.53984110313744
 33
0.0
  0
TEXT
  5
F10
  8
DIM
 62
     0
 10
45.31573949149925
 20
21.32109110313744
 30
0.0
 40
0.4375
  1
N
 41
0.75
  7
TXT
  0
POINT
  5
F11
  8
DEFPOINTS
 62
     0
 10
43.26080707649891
 20
20.71167334045004
 30
0.0
  0
POINT
  5
F12
  8
DEFPOINTS
 62
     0
 10
47.59051565649958
 20
20.39167334045003
 30
0.0
  0
POINT
  5
F13
  8
DEFPOINTS
 62
     0
 10
47.59051565649958
 20
21.53984110313744
 30
0.0
  0
ENDBLK
  5
1892
  8
0
  0
BLOCK
  8
0
  2
*D13
 70
     1
 10
0.0
 20
0.0
 30
0.0
  3
*D13
  1

  0
LINE
  5
E4C
  8
DIM
 62
     0
 10
23.39706942092193
 20
18.52267334045004
 30
0.0
 11
29.40754932915473
 21
18.52267334045003
 31
0.0
  0
LINE
  5
E4D
  8
DIM
 62
     0
 10
23.39706942092193
 20
11.62067334045003
 30
0.0
 11
29.40754932915473
 21
11.62067334045003
 31
0.0
  0
LINE
  5
E4E
  8
DIM
 62
     0
 10
29.08204932915473
 20
17.89267334045003
 30
0.0
 11
29.08204932915473
 21
15.60542334045003
 31
0.0
  0
LINE
  5
E4F
  8
DIM
 62
     0
 10
29.08204932915473
 20
12.25067334045003
 30
0.0
 11
29.08204932915473
 21
14.53792334045003
 31
0.0
  0
SOLID
  5
E50
  8
DIM
 62
     0
 10
28.97704932915473
 20
17.89267334045003
 30
0.0
 11
29.18704932915473
 21
17.89267334045003
 31
0.0
 12
29.08204932915473
 22
18.52267334045003
 32
0.0
 13
29.08204932915473
 23
18.52267334045003
 33
0.0
  0
SOLID
  5
E51
  8
DIM
 62
     0
 10
28.97704932915473
 20
12.25067334045003
 30
0.0
 11
29.18704932915473
 21
12.25067334045003
 31
0.0
 12
29.08204932915473
 22
11.62067334045003
 32
0.0
 13
29.08204932915473
 23
11.62067334045003
 33
0.0
  0
TEXT
  5
E52
  8
DIM
 62
     0
 10
28.97212745415473
 20
14.85292334045004
 30
0.0
 40
0.4375
  1
M
 41
0.75
  7
TXT
  0
POINT
  5
E53
  8
DEFPOINTS
 62
     0
 10
23.17656942092193
 20
18.52267334045004
 30
0.0
  0
POINT
  5
E54
  8
DEFPOINTS
 62
     0
 10
23.17656942092193
 20
11.62067334045003
 30
0.0
  0
POINT
  5
E55
  8
DEFPOINTS
 62
     0
 10
29.08204932915473
 20
11.62067334045003
 30
0.0
  0
ENDBLK
  5
1894
  8
0
  0
BLOCK
  8
0
  2
*D14
 70
     1
 10
0.0
 20
0.0
 30
0.0
  3
*D14
  1

  0
LINE
  5
EA6
  8
DIM
 62
     0
 10
17.15156942092193
 20
20.26967334045004
 30
0.0
 11
17.15156942092193
 21
21.91217334045004
 31
0.0
  0
LINE
  5
EA7
  8
DIM
 62
     0
 10
23.30156942092193
 20
20.26967334045003
 30
0.0
 11
23.30156942092193
 21
21.91217334045004
 31
0.0
  0
LINE
  5
EA8
  8
DIM
 62
     0
 10
17.78156942092193
 20
21.58667334045003
 30
0.0
 11
19.80219442092193
 21
21.58667334045003
 31
0.0
  0
LINE
  5
EA9
  8
DIM
 62
     0
 10
22.67156942092193
 20
21.58667334045003
 30
0.0
 11
20.65094442092193
 21
21.58667334045003
 31
0.0
  0
SOLID
  5
EAA
  8
DIM
 62
     0
 10
17.78156942092193
 20
21.69167334045003
 30
0.0
 11
17.78156942092193
 21
21.48167334045003
 31
0.0
 12
17.15156942092193
 22
21.58667334045003
 32
0.0
 13
17.15156942092193
 23
21.58667334045003
 33
0.0
  0
SOLID
  5
EAB
  8
DIM
 62
     0
 10
22.67156942092193
 20
21.69167334045003
 30
0.0
 11
22.67156942092193
 21
21.48167334045003
 31
0.0
 12
23.30156942092193
 22
21.58667334045003
 32
0.0
 13
23.30156942092193
 23
21.58667334045003
 33
0.0
  0
TEXT
  5
EAC
  8
DIM
 62
     0
 10
20.11664754592193
 20
21.36792334045003
 30
0.0
 40
0.4375
  1
C
 41
0.75
  7
TXT
  0
POINT
  5
EAD
  8
DEFPOINTS
 62
     0
 10
17.15156942092193
 20
20.04917334045003
 30
0.0
  0
POINT
  5
EAE
  8
DEFPOINTS
 62
     0
 10
23.30156942092193
 20
20.04917334045003
 30
0.0
  0
POINT
  5
EAF
  8
DEFPOINTS
 62
     0
 10
23.30156942092193
 20
21.58667334045003
 30
0.0
  0
ENDBLK
  5
1896
  8
0
  0
BLOCK
  8
0
  2
*D15
 70
     1
 10
0.0
 20
0.0
 30
0.0
  3
*D15
  1

  0
LINE
  5
E6A
  8
DIM
 62
     0
 10
17.27656942092193
 20
11.40017334045003
 30
0.0
 11
17.27656942092193
 21
5.622897437854968
 31
0.0
  0
LINE
  5
E6B
  8
DIM
 62
     0
 10
23.17656942092193
 20
11.40017334045003
 30
0.0
 11
23.17656942092193
 21
5.622897437854968
 31
0.0
  0
LINE
  5
E6C
  8
DIM
 62
     0
 10
17.90656942092193
 20
5.948397437854968
 30
0.0
 11
19.80219442092193
 21
5.948397437854968
 31
0.0
  0
LINE
  5
E6D
  8
DIM
 62
     0
 10
22.54656942092193
 20
5.948397437854968
 30
0.0
 11
20.65094442092193
 21
5.948397437854968
 31
0.0
  0
SOLID
  5
E6E
  8
DIM
 62
     0
 10
17.90656942092193
 20
6.053397437854968
 30
0.0
 11
17.90656942092193
 21
5.843397437854967
 31
0.0
 12
17.27656942092193
 22
5.948397437854968
 32
0.0
 13
17.27656942092193
 23
5.948397437854968
 33
0.0
  0
SOLID
  5
E6F
  8
DIM
 62
     0
 10
22.54656942092193
 20
6.053397437854968
 30
0.0
 11
22.54656942092193
 21
5.843397437854967
 31
0.0
 12
23.17656942092193
 22
5.948397437854968
 32
0.0
 13
23.17656942092193
 23
5.948397437854968
 33
0.0
  0
TEXT
  5
E70
  8
DIM
 62
     0
 10
20.11664754592193
 20
5.729647437854968
 30
0.0
 40
0.4375
  1
D
 41
0.75
  7
TXT
  0
POINT
  5
E71
  8
DEFPOINTS
 62
     0
 10
17.27656942092193
 20
11.62067334045003
 30
0.0
  0
POINT
  5
E72
  8
DEFPOINTS
 62
     0
 10
23.17656942092193
 20
11.62067334045003
 30
0.0
  0
POINT
  5
E73
  8
DEFPOINTS
 62
     0
 10
23.17656942092193
 20
5.948397437854968
 30
0.0
  0
ENDBLK
  5
1898
  8
0
  0
BLOCK
  8
0
  2
*D16
 70
     1
 10
0.0
 20
0.0
 30
0.0
  3
*D16
  1

  0
LINE
  5
E88
  8
DIM
 62
     0
 10
18.74756942092193
 20
10.42117334045004
 30
0.0
 11
18.74756942092193
 21
7.372897437854969
 31
0.0
  0
LINE
  5
E89
  8
DIM
 62
     0
 10
21.70556942092193
 20
10.42117334045004
 30
0.0
 11
21.70556942092193
 21
7.372897437854969
 31
0.0
  0
LINE
  5
E8A
  8
DIM
 62
     0
 10
19.37756942092193
 20
7.698397437854969
 30
0.0
 11
19.80219442092193
 21
7.698397437854969
 31
0.0
  0
LINE
  5
E8B
  8
DIM
 62
     0
 10
21.07556942092193
 20
7.698397437854969
 30
0.0
 11
20.65094442092193
 21
7.698397437854969
 31
0.0
  0
SOLID
  5
E8C
  8
DIM
 62
     0
 10
19.37756942092193
 20
7.803397437854969
 30
0.0
 11
19.37756942092193
 21
7.593397437854968
 31
0.0
 12
18.74756942092193
 22
7.698397437854969
 32
0.0
 13
18.74756942092193
 23
7.698397437854969
 33
0.0
  0
SOLID
  5
E8D
  8
DIM
 62
     0
 10
21.07556942092193
 20
7.803397437854969
 30
0.0
 11
21.07556942092193
 21
7.593397437854968
 31
0.0
 12
21.70556942092193
 22
7.698397437854969
 32
0.0
 13
21.70556942092193
 23
7.698397437854969
 33
0.0
  0
TEXT
  5
E8E
  8
DIM
 62
     0
 10
20.11664754592193
 20
7.479647437854969
 30
0.0
 40
0.4375
  1
F
 41
0.75
  7
TXT
  0
POINT
  5
E8F
  8
DEFPOINTS
 62
     0
 10
18.74756942092193
 20
10.64167334045003
 30
0.0
  0
POINT
  5
E90
  8
DEFPOINTS
 62
     0
 10
21.70556942092193
 20
10.64167334045003
 30
0.0
  0
POINT
  5
E91
  8
DEFPOINTS
 62
     0
 10
21.70556942092193
 20
7.698397437854969
 30
0.0
  0
ENDBLK
  5
189A
  8
0
  0
BLOCK
  8
0
  2
*D17
 70
     1
 10
0.0
 20
0.0
 30
0.0
  3
*D17
  1

  0
LINE
  5
ECE
  8
DIM
 62
     0
 10
16.93106942092193
 20
10.09417334045003
 30
0.0
 11
15.11655139667832
 21
10.09417334045003
 31
0.0
  0
LINE
  5
ECF
  8
DIM
 62
     0
 10
16.93106942092193
 20
20.04917334045003
 30
0.0
 11
15.11655139667833
 21
20.04917334045003
 31
0.0
  0
LINE
  5
ED0
  8
DIM
 62
     0
 10
15.44205139667832
 20
10.72417334045003
 30
0.0
 11
15.44205139667832
 21
14.53792334045004
 31
0.0
  0
LINE
  5
ED1
  8
DIM
 62
     0
 10
15.44205139667832
 20
19.41917334045004
 30
0.0
 11
15.44205139667832
 21
15.60542334045003
 31
0.0
  0
SOLID
  5
ED2
  8
DIM
 62
     0
 10
15.33705139667832
 20
10.72417334045003
 30
0.0
 11
15.54705139667832
 21
10.72417334045003
 31
0.0
 12
15.44205139667832
 22
10.09417334045003
 32
0.0
 13
15.44205139667832
 23
10.09417334045003
 33
0.0
  0
SOLID
  5
ED3
  8
DIM
 62
     0
 10
15.33705139667832
 20
19.41917334045004
 30
0.0
 11
15.54705139667833
 21
19.41917334045004
 31
0.0
 12
15.44205139667833
 22
20.04917334045003
 32
0.0
 13
15.44205139667833
 23
20.04917334045003
 33
0.0
  0
TEXT
  5
ED4
  8
DIM
 62
     0
 10
15.33212952167832
 20
14.85292334045004
 30
0.0
 40
0.4375
  1
J
 41
0.75
  7
TXT
  0
POINT
  5
ED5
  8
DEFPOINTS
 62
     0
 10
17.15156942092193
 20
10.09417334045003
 30
0.0
  0
POINT
  5
ED6
  8
DEFPOINTS
 62
     0
 10
17.15156942092193
 20
20.04917334045003
 30
0.0
  0
POINT
  5
ED7
  8
DEFPOINTS
 62
     0
 10
15.44205139667833
 20
20.04917334045003
 30
0.0
  0
ENDBLK
  5
189C
  8
0
  0
BLOCK
  8
0
  2
*D18
 70
     1
 10
0.0
 20
0.0
 30
0.0
  3
*D18
  1

  0
LINE
  5
E56
  8
DIM
 62
     0
 10
21.92606942092193
 20
10.64167334045003
 30
0.0
 11
31.15754932915473
 21
10.64167334045003
 31
0.0
  0
LINE
  5
E57
  8
DIM
 62
     0
 10
21.92344734592166
 20
19.50167334045003
 30
0.0
 11
31.15754932915473
 21
19.50167334045003
 31
0.0
  0
LINE
  5
E58
  8
DIM
 62
     0
 10
30.83204932915473
 20
11.27167334045003
 30
0.0
 11
30.83204932915473
 21
14.53792334045003
 31
0.0
  0
LINE
  5
E59
  8
DIM
 62
     0
 10
30.83204932915473
 20
18.87167334045003
 30
0.0
 11
30.83204932915473
 21
15.60542334045003
 31
0.0
  0
SOLID
  5
E5A
  8
DIM
 62
     0
 10
30.72704932915473
 20
11.27167334045003
 30
0.0
 11
30.93704932915473
 21
11.27167334045003
 31
0.0
 12
30.83204932915473
 22
10.64167334045003
 32
0.0
 13
30.83204932915473
 23
10.64167334045003
 33
0.0
  0
SOLID
  5
E5B
  8
DIM
 62
     0
 10
30.72704932915473
 20
18.87167334045003
 30
0.0
 11
30.93704932915473
 21
18.87167334045003
 31
0.0
 12
30.83204932915473
 22
19.50167334045003
 32
0.0
 13
30.83204932915473
 23
19.50167334045003
 33
0.0
  0
TEXT
  5
E5C
  8
DIM
 62
     0
 10
30.72212745415473
 20
14.85292334045004
 30
0.0
 40
0.4375
  1
K
 41
0.75
  7
TXT
  0
POINT
  5
E5D
  8
DEFPOINTS
 62
     0
 10
21.70556942092193
 20
10.64167334045003
 30
0.0
  0
POINT
  5
E5E
  8
DEFPOINTS
 62
     0
 10
21.70294734592165
 20
19.50167334045003
 30
0.0
  0
POINT
  5
E5F
  8
DEFPOINTS
 62
     0
 10
30.83204932915473
 20
19.50167334045003
 30
0.0
  0
ENDBLK
  5
189E
  8
0
  0
BLOCK
  8
0
  2
*D19
 70
     1
 10
0.0
 20
0.0
 30
0.0
  3
*D19
  1

  0
LINE
  5
E7E
  8
DIM
 62
     0
 10
19.73356942092193
 20
10.42117334045004
 30
0.0
 11
19.73356942092193
 21
8.24789743785497
 31
0.0
  0
LINE
  5
E7F
  8
DIM
 62
     0
 10
18.74756942092193
 20
10.42117334045004
 30
0.0
 11
18.74756942092193
 21
8.24789743785497
 31
0.0
  0
LINE
  5
E80
  8
DIM
 62
     0
 10
20.36356942092193
 20
8.573397437854968
 30
0.0
 11
20.99356942092193
 21
8.573397437854968
 31
0.0
  0
LINE
  5
E81
  8
DIM
 62
     0
 10
18.11756942092193
 20
8.573397437854968
 30
0.0
 11
17.48756942092193
 21
8.573397437854968
 31
0.0
  0
SOLID
  5
E82
  8
DIM
 62
     0
 10
20.36356942092193
 20
8.67839743785497
 30
0.0
 11
20.36356942092193
 21
8.46839743785497
 31
0.0
 12
19.73356942092193
 22
8.573397437854968
 32
0.0
 13
19.73356942092193
 23
8.573397437854968
 33
0.0
  0
SOLID
  5
E83
  8
DIM
 62
     0
 10
18.11756942092193
 20
8.67839743785497
 30
0.0
 11
18.11756942092193
 21
8.46839743785497
 31
0.0
 12
18.74756942092193
 22
8.573397437854968
 32
0.0
 13
18.74756942092193
 23
8.573397437854968
 33
0.0
  0
TEXT
  5
E84
  8
DIM
 62
     0
 10
13.07100692092193
 20
8.354647437854968
 30
0.0
 40
0.4375
  1
0.986 [25] TYP.
 41
0.75
  7
TXT
  0
POINT
  5
E85
  8
DEFPOINTS
 62
     0
 10
19.73356942092193
 20
10.64167334045003
 30
0.0
  0
POINT
  5
E86
  8
DEFPOINTS
 62
     0
 10
18.74756942092193
 20
10.64167334045003
 30
0.0
  0
POINT
  5
E87
  8
DEFPOINTS
 62
     0
 10
18.74756942092193
 20
8.573397437854968
 30
0.0
  0
ENDBLK
  5
18A0
  8
0
  0
BLOCK
  8
0
  2
*D20
 70
     1
 10
0.0
 20
0.0
 30
0.0
  3
*D20
  1

  0
LINE
  5
EB0
  8
DIM
 62
     0
 10
32.60419264566942
 20
22.34611223602116
 30
0.0
 11
32.60419264566942
 21
21.24658702090028
 31
0.0
  0
LINE
  5
EB1
  8
DIM
 62
     0
 10
39.40419264566943
 20
22.34611223602116
 30
0.0
 11
39.40419264566943
 21
21.24658702090028
 31
0.0
  0
LINE
  5
EB2
  8
DIM
 62
     0
 10
33.23419264566942
 20
21.57208702090028
 30
0.0
 11
35.57981764566942
 21
21.57208702090028
 31
0.0
  0
LINE
  5
EB3
  8
DIM
 62
     0
 10
38.77419264566943
 20
21.57208702090028
 30
0.0
 11
36.42856764566942
 21
21.57208702090028
 31
0.0
  0
SOLID
  5
EB4
  8
DIM
 62
     0
 10
33.23419264566942
 20
21.67708702090028
 30
0.0
 11
33.23419264566942
 21
21.46708702090028
 31
0.0
 12
32.60419264566942
 22
21.57208702090028
 32
0.0
 13
32.60419264566942
 23
21.57208702090028
 33
0.0
  0
SOLID
  5
EB5
  8
DIM
 62
     0
 10
38.77419264566943
 20
21.67708702090028
 30
0.0
 11
38.77419264566943
 21
21.46708702090028
 31
0.0
 12
39.40419264566943
 22
21.57208702090028
 32
0.0
 13
39.40419264566943
 23
21.57208702090028
 33
0.0
  0
TEXT
  5
EB6
  8
DIM
 62
     0
 10
35.89427077066943
 20
21.35333702090028
 30
0.0
 40
0.4375
  1
T
 41
0.75
  7
TXT
  0
POINT
  5
EB7
  8
DEFPOINTS
 62
     0
 10
32.60419264566942
 20
22.56661223602117
 30
0.0
  0
POINT
  5
EB8
  8
DEFPOINTS
 62
     0
 10
39.40419264566943
 20
22.56661223602117
 30
0.0
  0
POINT
  5
EB9
  8
DEFPOINTS
 62
     0
 10
39.40419264566943
 20
21.57208702090028
 30
0.0
  0
ENDBLK
  5
18A2
  8
0
  0
BLOCK
  8
0
  2
*D21
 70
     1
 10
0.0
 20
0.0
 30
0.0
  3
*D21
  1

  0
LINE
  5
ED8
  8
DIM
 62
     0
 10
32.58419264566941
 20
28.15071496207935
 30
0.0
 11
32.58419264566941
 21
29.18061370459746
 31
0.0
  0
LINE
  5
ED9
  8
DIM
 62
     0
 10
39.42419264566944
 20
28.15071496207935
 30
0.0
 11
39.42419264566944
 21
29.18061370459746
 31
0.0
  0
LINE
  5
EDA
  8
DIM
 62
     0
 10
33.21419264566941
 20
28.85511370459746
 30
0.0
 11
35.57981764566942
 21
28.85511370459746
 31
0.0
  0
LINE
  5
EDB
  8
DIM
 62
     0
 10
38.79419264566944
 20
28.85511370459746
 30
0.0
 11
36.42856764566942
 21
28.85511370459746
 31
0.0
  0
SOLID
  5
EDC
  8
DIM
 62
     0
 10
33.21419264566941
 20
28.96011370459746
 30
0.0
 11
33.21419264566941
 21
28.75011370459746
 31
0.0
 12
32.58419264566941
 22
28.85511370459746
 32
0.0
 13
32.58419264566941
 23
28.85511370459746
 33
0.0
  0
SOLID
  5
EDD
  8
DIM
 62
     0
 10
38.79419264566944
 20
28.96011370459746
 30
0.0
 11
38.79419264566944
 21
28.75011370459746
 31
0.0
 12
39.42419264566944
 22
28.85511370459746
 32
0.0
 13
39.42419264566944
 23
28.85511370459746
 33
0.0
  0
TEXT
  5
EDE
  8
DIM
 62
     0
 10
35.89427077066943
 20
28.63636370459746
 30
0.0
 40
0.4375
  1
U
 41
0.75
  7
TXT
  0
POINT
  5
EDF
  8
DEFPOINTS
 62
     0
 10
32.58419264566941
 20
27.93021496207935
 30
0.0
  0
POINT
  5
EE0
  8
DEFPOINTS
 62
     0
 10
39.42419264566944
 20
27.93021496207935
 30
0.0
  0
POINT
  5
EE1
  8
DEFPOINTS
 62
     0
 10
39.42419264566944
 20
28.85511370459746
 30
0.0
  0
ENDBLK
  5
18A4
  8
0
  0
BLOCK
  8
0
  2
*D22
 70
     1
 10
0.0
 20
0.0
 30
0.0
  3
*D22
  1

  0
LINE
  5
F00
  8
DIM
 62
     0
 10
43.26080707649891
 20
20.93217334045004
 30
0.0
 11
43.26080707649891
 21
21.86534110313745
 31
0.0
  0
LINE
  5
F01
  8
DIM
 62
     0
 10
42.07601969749908
 20
20.4152507884062
 30
0.0
 11
42.07601969749908
 21
21.86534110313745
 31
0.0
  0
LINE
  5
F02
  8
DIM
 62
     0
 10
43.89080707649891
 20
21.53984110313744
 30
0.0
 11
44.52080707649891
 21
21.53984110313744
 31
0.0
  0
LINE
  5
F03
  8
DIM
 62
     0
 10
41.44601969749908
 20
21.53984110313744
 30
0.0
 11
40.81601969749908
 21
21.53984110313744
 31
0.0
  0
SOLID
  5
F04
  8
DIM
 62
     0
 10
43.89080707649891
 20
21.64484110313745
 30
0.0
 11
43.89080707649891
 21
21.43484110313744
 31
0.0
 12
43.26080707649891
 22
21.53984110313744
 32
0.0
 13
43.26080707649891
 23
21.53984110313744
 33
0.0
  0
SOLID
  5
F05
  8
DIM
 62
     0
 10
41.44601969749908
 20
21.64484110313745
 30
0.0
 11
41.44601969749908
 21
21.43484110313744
 31
0.0
 12
42.07601969749908
 22
21.53984110313744
 32
0.0
 13
42.07601969749908
 23
21.53984110313744
 33
0.0
  0
TEXT
  5
F06
  8
DIM
 62
     0
 10
42.558491511999
 20
21.32109110313744
 30
0.0
 40
0.4375
  1
P
 41
0.75
  7
TXT
  0
POINT
  5
F07
  8
DEFPOINTS
 62
     0
 10
43.26080707649891
 20
20.71167334045004
 30
0.0
  0
POINT
  5
F08
  8
DEFPOINTS
 62
     0
 10
42.07601969749908
 20
20.1947507884062
 30
0.0
  0
POINT
  5
F09
  8
DEFPOINTS
 62
     0
 10
42.07601969749908
 20
21.53984110313744
 30
0.0
  0
ENDBLK
  5
18A6
  8
0
  0
BLOCK
  8
0
  2
*D23
 70
     1
 10
0.0
 20
0.0
 30
0.0
  3
*D23
  1

  0
LINE
  5
E60
  8
DIM
 62
     0
 10
23.39706942092193
 20
18.52267334045004
 30
0.0
 11
26.77800950879325
 21
18.52267334045003
 31
0.0
  0
LINE
  5
E61
  8
DIM
 62
     0
 10
23.39706942092193
 20
17.53667334045003
 30
0.0
 11
26.77800950879325
 21
17.53667334045003
 31
0.0
  0
LINE
  5
E62
  8
DIM
 62
     0
 10
26.45250950879325
 20
19.15267334045003
 30
0.0
 11
26.45250950879325
 21
19.78267334045003
 31
0.0
  0
LINE
  5
E63
  8
DIM
 62
     0
 10
26.45250950879325
 20
16.90667334045003
 30
0.0
 11
26.45250950879325
 21
16.27667334045003
 31
0.0
  0
SOLID
  5
E64
  8
DIM
 62
     0
 10
26.34750950879325
 20
19.15267334045003
 30
0.0
 11
26.55750950879325
 21
19.15267334045003
 31
0.0
 12
26.45250950879325
 22
18.52267334045003
 32
0.0
 13
26.45250950879325
 23
18.52267334045003
 33
0.0
  0
SOLID
  5
E65
  8
DIM
 62
     0
 10
26.34750950879325
 20
16.90667334045003
 30
0.0
 11
26.55750950879325
 21
16.90667334045003
 31
0.0
 12
26.45250950879325
 22
17.53667334045003
 32
0.0
 13
26.45250950879325
 23
17.53667334045003
 33
0.0
  0
TEXT
  5
E66
  8
DIM
 62
     0
 10
24.40172825879325
 20
17.81092334045004
 30
0.0
 40
0.4375
  1
0.986 [25] TYP.
 41
0.75
  7
TXT
  0
POINT
  5
E67
  8
DEFPOINTS
 62
     0
 10
23.17656942092193
 20
18.52267334045004
 30
0.0
  0
POINT
  5
E68
  8
DEFPOINTS
 62
     0
 10
23.17656942092193
 20
17.53667334045003
 30
0.0
  0
POINT
  5
E69
  8
DEFPOINTS
 62
     0
 10
26.45250950879325
 20
17.53667334045003
 30
0.0
  0
ENDBLK
  5
18A8
  8
0
  0
BLOCK
  8
0
  2
*D24
 70
     1
 10
0.0
 20
0.0
 30
0.0
  3
*D24
  1

  0
POINT
  5
F64
  8
DEFPOINTS
  6
BYBLOCK
 62
     0
 10
16.92214027892193
 20
-38.63526502210834
 30
0.0
  0
POINT
  5
F65
  8
DEFPOINTS
  6
BYBLOCK
 62
     0
 10
16.92214027892193
 20
-27.35526502210835
 30
0.0
  0
LINE
  5
F66
  8
0
  6
BYBLOCK
 62
     0
 10
16.70164027892193
 20
-38.63526502210834
 30
0.0
 11
13.36655139667833
 21
-38.63526502210834
 31
0.0
  0
LINE
  5
F67
  8
0
  6
BYBLOCK
 62
     0
 10
16.70164027892193
 20
-27.35526502210835
 30
0.0
 11
13.36655139667833
 21
-27.35526502210835
 31
0.0
  0
LINE
  5
F68
  8
0
  6
BYBLOCK
 62
     0
 10
13.69205139667833
 20
-38.00526502210834
 30
0.0
 11
13.69205139667833
 21
-33.52901502210835
 31
0.0
  0
SOLID
  5
F69
  8
0
  6
BYBLOCK
 62
     0
 10
13.69205139667833
 20
-38.63526502210834
 30
0.0
 11
13.79705139667835
 21
-38.00526502210834
 31
0.0
 12
13.58705139667831
 22
-38.00526502210834
 32
0.0
 13
13.58705139667831
 23
-38.00526502210834
 33
0.0
  0
LINE
  5
F6A
  8
0
  6
BYBLOCK
 62
     0
 10
13.69205139667833
 20
-27.98526502210835
 30
0.0
 11
13.69205139667833
 21
-32.46151502210834
 31
0.0
  0
SOLID
  5
F6B
  8
0
  6
BYBLOCK
 62
     0
 10
13.69205139667833
 20
-27.35526502210835
 30
0.0
 11
13.79705139667835
 21
-27.98526502210835
 31
0.0
 12
13.58705139667831
 22
-27.98526502210835
 32
0.0
 13
13.58705139667831
 23
-27.98526502210835
 33
0.0
  0
TEXT
  5
F6C
  8
0
  6
BYBLOCK
 62
     0
 10
13.58212952167833
 20
-33.21401502210835
 30
0.0
 40
0.4375
  1
G
 41
0.75
  7
TXT
  0
ENDBLK
  5
18AA
  8
OBJECT
  0
BLOCK
  8
0
  2
*D25
 70
     1
 10
0.0
 20
0.0
 30
0.0
  3
*D25
  1

  0
POINT
  5
F71
  8
DEFPOINTS
  6
BYBLOCK
 62
     0
 10
23.96406942092193
 20
-27.78833588010835
 30
0.0
  0
POINT
  5
F72
  8
DEFPOINTS
  6
BYBLOCK
 62
     0
 10
16.48906942092193
 20
-27.78833588010835
 30
0.0
  0
LINE
  5
F73
  8
0
  6
BYBLOCK
 62
     0
 10
23.96406942092193
 20
-27.56783588010835
 30
0.0
 11
23.96406942092193
 21
-24.40476502210835
 31
0.0
  0
LINE
  5
F74
  8
0
  6
BYBLOCK
 62
     0
 10
16.48906942092193
 20
-27.56783588010835
 30
0.0
 11
16.48906942092193
 21
-24.40476502210835
 31
0.0
  0
LINE
  5
F75
  8
0
  6
BYBLOCK
 62
     0
 10
23.33406942092193
 20
-24.73026502210835
 30
0.0
 11
20.65149129592193
 21
-24.73026502210835
 31
0.0
  0
SOLID
  5
F76
  8
0
  6
BYBLOCK
 62
     0
 10
23.96406942092193
 20
-24.73026502210835
 30
0.0
 11
23.33406942092193
 21
-24.62526502210833
 31
0.0
 12
23.33406942092193
 22
-24.83526502210837
 32
0.0
 13
23.33406942092193
 23
-24.83526502210837
 33
0.0
  0
LINE
  5
F77
  8
0
  6
BYBLOCK
 62
     0
 10
17.11906942092193
 20
-24.73026502210835
 30
0.0
 11
19.80164754592193
 21
-24.73026502210835
 31
0.0
  0
SOLID
  5
F78
  8
0
  6
BYBLOCK
 62
     0
 10
16.48906942092193
 20
-24.73026502210835
 30
0.0
 11
17.11906942092193
 21
-24.62526502210833
 31
0.0
 12
17.11906942092193
 22
-24.83526502210837
 32
0.0
 13
17.11906942092193
 23
-24.83526502210837
 33
0.0
  0
TEXT
  5
F79
  8
0
  6
BYBLOCK
 62
     0
 10
20.11664754592193
 20
-24.94901502210835
 30
0.0
 40
0.4375
  1
A
 41
0.75
  7
TXT
  0
ENDBLK
  5
18AC
  8
OBJECT
  0
BLOCK
  8
0
  2
*D26
 70
     1
 10
0.0
 20
0.0
 30
0.0
  3
*D26
  1

  0
POINT
  5
F7E
  8
DEFPOINTS
  6
BYBLOCK
 62
     0
 10
17.86806942092193
 20
-37.13426502210835
 30
0.0
  0
POINT
  5
F7F
  8
DEFPOINTS
  6
BYBLOCK
 62
     0
 10
22.58506942092193
 20
-37.13426502210835
 30
0.0
  0
LINE
  5
F80
  8
0
  6
BYBLOCK
 62
     0
 10
17.86806942092193
 20
-37.35476502210835
 30
0.0
 11
17.86806942092193
 21
-41.56904092470341
 31
0.0
  0
LINE
  5
F81
  8
0
  6
BYBLOCK
 62
     0
 10
22.58506942092193
 20
-37.35476502210835
 30
0.0
 11
22.58506942092193
 21
-41.56904092470341
 31
0.0
  0
LINE
  5
F82
  8
0
  6
BYBLOCK
 62
     0
 10
18.49806942092193
 20
-41.24354092470341
 30
0.0
 11
19.80164754592193
 21
-41.24354092470341
 31
0.0
  0
SOLID
  5
F83
  8
0
  6
BYBLOCK
 62
     0
 10
17.86806942092193
 20
-41.24354092470341
 30
0.0
 11
18.49806942092193
 21
-41.34854092470343
 31
0.0
 12
18.49806942092193
 22
-41.13854092470339
 32
0.0
 13
18.49806942092193
 23
-41.13854092470339
 33
0.0
  0
LINE
  5
F84
  8
0
  6
BYBLOCK
 62
     0
 10
21.95506942092193
 20
-41.24354092470341
 30
0.0
 11
20.65149129592193
 21
-41.24354092470341
 31
0.0
  0
SOLID
  5
F85
  8
0
  6
BYBLOCK
 62
     0
 10
22.58506942092193
 20
-41.24354092470341
 30
0.0
 11
21.95506942092193
 21
-41.34854092470343
 31
0.0
 12
21.95506942092193
 22
-41.13854092470339
 32
0.0
 13
21.95506942092193
 23
-41.13854092470339
 33
0.0
  0
TEXT
  5
F86
  8
0
  6
BYBLOCK
 62
     0
 10
20.11664754592193
 20
-41.46229092470341
 30
0.0
 40
0.4375
  1
E
 41
0.75
  7
TXT
  0
ENDBLK
  5
18AE
  8
OBJECT
  0
BLOCK
  8
0
  2
*D27
 70
     1
 10
0.0
 20
0.0
 30
0.0
  3
*D27
  1

  0
POINT
  5
F8B
  8
DEFPOINTS
  6
BYBLOCK
 62
     0
 10
22.58506942092193
 20
-37.13426502210835
 30
0.0
  0
POINT
  5
F8C
  8
DEFPOINTS
  6
BYBLOCK
 62
     0
 10
22.58506942092193
 20
-28.85626502210835
 30
0.0
  0
LINE
  5
F8D
  8
0
  6
BYBLOCK
 62
     0
 10
22.80556942092193
 20
-37.13426502210835
 30
0.0
 11
30.28254932915473
 21
-37.13426502210835
 31
0.0
  0
LINE
  5
F8E
  8
0
  6
BYBLOCK
 62
     0
 10
22.80556942092193
 20
-28.85626502210835
 30
0.0
 11
30.28254932915473
 21
-28.85626502210835
 31
0.0
  0
LINE
  5
F8F
  8
0
  6
BYBLOCK
 62
     0
 10
29.95704932915473
 20
-36.50426502210835
 30
0.0
 11
29.95704932915473
 21
-33.52901502210835
 31
0.0
  0
SOLID
  5
F90
  8
0
  6
BYBLOCK
 62
     0
 10
29.95704932915473
 20
-37.13426502210835
 30
0.0
 11
30.06204932915475
 21
-36.50426502210835
 31
0.0
 12
29.85204932915471
 22
-36.50426502210835
 32
0.0
 13
29.85204932915471
 23
-36.50426502210835
 33
0.0
  0
LINE
  5
F91
  8
0
  6
BYBLOCK
 62
     0
 10
29.95704932915473
 20
-29.48626502210835
 30
0.0
 11
29.95704932915473
 21
-32.46151502210835
 31
0.0
  0
SOLID
  5
F92
  8
0
  6
BYBLOCK
 62
     0
 10
29.95704932915473
 20
-28.85626502210835
 30
0.0
 11
30.06204932915475
 21
-29.48626502210835
 31
0.0
 12
29.85204932915471
 22
-29.48626502210835
 32
0.0
 13
29.85204932915471
 23
-29.48626502210835
 33
0.0
  0
TEXT
  5
F93
  8
0
  6
BYBLOCK
 62
     0
 10
29.84712745415473
 20
-33.21401502210836
 30
0.0
 40
0.4375
  1
L
 41
0.75
  7
TXT
  0
ENDBLK
  5
18B0
  8
OBJECT
  0
BLOCK
  8
0
  2
*D28
 70
     1
 10
0.0
 20
0.0
 30
0.0
  3
*D28
  1

  0
POINT
  5
F98
  8
DEFPOINTS
  6
BYBLOCK
 62
     0
 10
16.90156942092193
 20
-27.80363510010794
 30
0.0
  0
POINT
  5
F99
  8
DEFPOINTS
  6
BYBLOCK
 62
     0
 10
23.55156942092193
 20
-27.80363510010794
 30
0.0
  0
LINE
  5
F9A
  8
0
  6
BYBLOCK
 62
     0
 10
16.90156942092193
 20
-27.58313510010794
 30
0.0
 11
16.90156942092193
 21
-25.27976502210835
 31
0.0
  0
LINE
  5
F9B
  8
0
  6
BYBLOCK
 62
     0
 10
23.55156942092193
 20
-27.58313510010794
 30
0.0
 11
23.55156942092193
 21
-25.27976502210835
 31
0.0
  0
LINE
  5
F9C
  8
0
  6
BYBLOCK
 62
     0
 10
17.53156942092193
 20
-25.60526502210835
 30
0.0
 11
19.80164754592193
 21
-25.60526502210835
 31
0.0
  0
SOLID
  5
F9D
  8
0
  6
BYBLOCK
 62
     0
 10
16.90156942092193
 20
-25.60526502210835
 30
0.0
 11
17.53156942092193
 21
-25.71026502210837
 31
0.0
 12
17.53156942092193
 22
-25.50026502210833
 32
0.0
 13
17.53156942092193
 23
-25.50026502210833
 33
0.0
  0
LINE
  5
F9E
  8
0
  6
BYBLOCK
 62
     0
 10
22.92156942092193
 20
-25.60526502210835
 30
0.0
 11
20.65149129592193
 21
-25.60526502210835
 31
0.0
  0
SOLID
  5
F9F
  8
0
  6
BYBLOCK
 62
     0
 10
23.55156942092193
 20
-25.60526502210835
 30
0.0
 11
22.92156942092193
 21
-25.71026502210837
 31
0.0
 12
22.92156942092193
 22
-25.50026502210833
 32
0.0
 13
22.92156942092193
 23
-25.50026502210833
 33
0.0
  0
TEXT
  5
FA0
  8
0
  6
BYBLOCK
 62
     0
 10
20.11664754592193
 20
-25.82401502210835
 30
0.0
 40
0.4375
  1
B
 41
0.75
  7
TXT
  0
ENDBLK
  5
18B2
  8
OBJECT
  0
BLOCK
  8
0
  2
*D29
 70
     1
 10
0.0
 20
0.0
 30
0.0
  3
*D29
  1

  0
POINT
  5
FA5
  8
DEFPOINTS
  6
BYBLOCK
 62
     0
 10
16.94093949892198
 20
-38.22626502210834
 30
0.0
  0
POINT
  5
FA6
  8
DEFPOINTS
  6
BYBLOCK
 62
     0
 10
16.94093949892198
 20
-27.76426502210835
 30
0.0
  0
LINE
  5
FA7
  8
0
  6
BYBLOCK
 62
     0
 10
16.72043949892198
 20
-38.22626502210834
 30
0.0
 11
14.24155139667833
 21
-38.22626502210834
 31
0.0
  0
LINE
  5
FA8
  8
0
  6
BYBLOCK
 62
     0
 10
16.72043949892198
 20
-27.76426502210835
 30
0.0
 11
14.24155139667833
 21
-27.76426502210835
 31
0.0
  0
LINE
  5
FA9
  8
0
  6
BYBLOCK
 62
     0
 10
14.56705139667833
 20
-37.59626502210834
 30
0.0
 11
14.56705139667833
 21
-33.52901502210835
 31
0.0
  0
SOLID
  5
FAA
  8
0
  6
BYBLOCK
 62
     0
 10
14.56705139667833
 20
-38.22626502210834
 30
0.0
 11
14.67205139667835
 21
-37.59626502210834
 31
0.0
 12
14.46205139667831
 22
-37.59626502210834
 32
0.0
 13
14.46205139667831
 23
-37.59626502210834
 33
0.0
  0
LINE
  5
FAB
  8
0
  6
BYBLOCK
 62
     0
 10
14.56705139667833
 20
-28.39426502210835
 30
0.0
 11
14.56705139667833
 21
-32.46151502210834
 31
0.0
  0
SOLID
  5
FAC
  8
0
  6
BYBLOCK
 62
     0
 10
14.56705139667833
 20
-27.76426502210835
 30
0.0
 11
14.67205139667835
 21
-28.39426502210835
 31
0.0
 12
14.46205139667831
 22
-28.39426502210835
 32
0.0
 13
14.46205139667831
 23
-28.39426502210835
 33
0.0
  0
TEXT
  5
FAD
  8
0
  6
BYBLOCK
 62
     0
 10
14.45712952167833
 20
-33.21401502210835
 30
0.0
 40
0.4375
  1
H
 41
0.75
  7
TXT
  0
ENDBLK
  5
18B4
  8
OBJECT
  0
BLOCK
  8
0
  2
*D30
 70
     1
 10
0.0
 20
0.0
 30
0.0
  3
*D30
  1

  0
POINT
  5
FB5
  8
DEFPOINTS
  6
BYBLOCK
 62
     0
 10
42.24391293044141
 20
-38.29526502210835
 30
0.0
  0
POINT
  5
FB6
  8
DEFPOINTS
  6
BYBLOCK
 62
     0
 10
42.24391293044141
 20
-27.69526502210835
 30
0.0
  0
LINE
  5
FB7
  8
0
  6
BYBLOCK
 62
     0
 10
42.02341293044141
 20
-38.29526502210835
 30
0.0
 11
40.92908059227529
 21
-38.29526502210835
 31
0.0
  0
LINE
  5
FB8
  8
0
  6
BYBLOCK
 62
     0
 10
42.02341293044141
 20
-27.69526502210835
 30
0.0
 11
40.92908059227529
 21
-27.69526502210835
 31
0.0
  0
LINE
  5
FB9
  8
0
  6
BYBLOCK
 62
     0
 10
41.25458059227529
 20
-37.66526502210834
 30
0.0
 11
41.25458059227529
 21
-33.52901502210835
 31
0.0
  0
SOLID
  5
FBA
  8
0
  6
BYBLOCK
 62
     0
 10
41.25458059227529
 20
-38.29526502210835
 30
0.0
 11
41.35958059227531
 21
-37.66526502210834
 31
0.0
 12
41.14958059227527
 22
-37.66526502210834
 32
0.0
 13
41.14958059227527
 23
-37.66526502210834
 33
0.0
  0
LINE
  5
FBB
  8
0
  6
BYBLOCK
 62
     0
 10
41.25458059227529
 20
-28.32526502210835
 30
0.0
 11
41.25458059227529
 21
-32.46151502210835
 31
0.0
  0
SOLID
  5
FBC
  8
0
  6
BYBLOCK
 62
     0
 10
41.25458059227529
 20
-27.69526502210835
 30
0.0
 11
41.35958059227531
 21
-28.32526502210835
 31
0.0
 12
41.14958059227527
 22
-28.32526502210835
 32
0.0
 13
41.14958059227527
 23
-28.32526502210835
 33
0.0
  0
TEXT
  5
FBD
  8
0
  6
BYBLOCK
 62
     0
 10
41.14465871727529
 20
-33.21401502210835
 30
0.0
 40
0.4375
  1
R
 41
0.75
  7
TXT
  0
ENDBLK
  5
18B6
  8
OBJECT
  0
BLOCK
  8
0
  2
*D31
 70
     1
 10
0.0
 20
0.0
 30
0.0
  3
*D31
  1

  0
POINT
  5
FD5
  8
DEFPOINTS
  6
BYBLOCK
 62
     0
 10
47.45751565649957
 20
-34.86714186206671
 30
0.0
  0
POINT
  5
FD6
  8
DEFPOINTS
  6
BYBLOCK
 62
     0
 10
47.59051565649958
 20
-34.86714186206671
 30
0.0
  0
LINE
  5
FD7
  8
0
  6
BYBLOCK
 62
     0
 10
47.45751565649957
 20
-35.08764186206671
 30
0.0
 11
47.45751565649957
 21
-35.20046219454947
 31
0.0
  0
LINE
  5
FD8
  8
0
  6
BYBLOCK
 62
     0
 10
47.59051565649958
 20
-35.08764186206671
 30
0.0
 11
47.59051565649958
 21
-35.20046219454947
 31
0.0
  0
LINE
  5
FD9
  8
0
  6
BYBLOCK
 62
     0
 10
46.82751565649956
 20
-34.87496219454947
 30
0.0
 11
46.19751565649957
 21
-34.87496219454947
 31
0.0
  0
SOLID
  5
FDA
  8
0
  6
BYBLOCK
 62
     0
 10
47.45751565649957
 20
-34.87496219454947
 30
0.0
 11
46.82751565649956
 21
-34.97996219454949
 31
0.0
 12
46.82751565649956
 22
-34.76996219454945
 32
0.0
 13
46.82751565649956
 23
-34.76996219454945
 33
0.0
  0
LINE
  5
FDB
  8
0
  6
BYBLOCK
 62
     0
 10
48.22051565649959
 20
-34.87496219454947
 30
0.0
 11
48.85051565649958
 21
-34.87496219454947
 31
0.0
  0
SOLID
  5
FDC
  8
0
  6
BYBLOCK
 62
     0
 10
47.59051565649958
 20
-34.87496219454947
 30
0.0
 11
48.22051565649959
 21
-34.97996219454949
 31
0.0
 12
48.22051565649959
 22
-34.76996219454945
 32
0.0
 13
48.22051565649959
 23
-34.76996219454945
 33
0.0
  0
TEXT
  5
FDD
  8
0
  6
BYBLOCK
 62
     0
 10
49.16551565649958
 20
-35.09371219454947
 30
0.0
 40
0.4375
  1
0.133 [3]
 41
0.75
  7
TXT
  0
ENDBLK
  5
18B8
  8
OBJECT
  0
BLOCK
  8
0
  2
*D32
 70
     1
 10
0.0
 20
0.0
 30
0.0
  3
*D32
  1

  0
POINT
  5
FF6
  8
DEFPOINTS
  6
BYBLOCK
 62
     0
 10
43.26080707649891
 20
-27.35526502210834
 30
0.0
  0
POINT
  5
FF7
  8
DEFPOINTS
  6
BYBLOCK
 62
     0
 10
42.07601969749908
 20
-27.87218757415218
 30
0.0
  0
LINE
  5
FF8
  8
0
  6
BYBLOCK
 62
     0
 10
43.26080707649891
 20
-27.13476502210834
 30
0.0
 11
43.26080707649891
 21
-26.20159725942094
 31
0.0
  0
LINE
  5
FF9
  8
0
  6
BYBLOCK
 62
     0
 10
42.07601969749908
 20
-27.65168757415218
 30
0.0
 11
42.07601969749908
 21
-26.20159725942094
 31
0.0
  0
LINE
  5
FFA
  8
0
  6
BYBLOCK
 62
     0
 10
43.89080707649891
 20
-26.52709725942094
 30
0.0
 11
44.5208070764989
 21
-26.52709725942094
 31
0.0
  0
SOLID
  5
FFB
  8
0
  6
BYBLOCK
 62
     0
 10
43.26080707649891
 20
-26.52709725942094
 30
0.0
 11
43.89080707649891
 21
-26.42209725942092
 31
0.0
 12
43.89080707649891
 22
-26.63209725942096
 32
0.0
 13
43.89080707649891
 23
-26.63209725942096
 33
0.0
  0
LINE
  5
FFC
  8
0
  6
BYBLOCK
 62
     0
 10
41.44601969749908
 20
-26.52709725942094
 30
0.0
 11
40.81601969749908
 21
-26.52709725942094
 31
0.0
  0
SOLID
  5
FFD
  8
0
  6
BYBLOCK
 62
     0
 10
42.07601969749908
 20
-26.52709725942094
 30
0.0
 11
41.44601969749908
 21
-26.42209725942092
 31
0.0
 12
41.44601969749908
 22
-26.63209725942096
 32
0.0
 13
41.44601969749908
 23
-26.63209725942096
 33
0.0
  0
TEXT
  5
FFE
  8
0
  6
BYBLOCK
 62
     0
 10
42.55849151199899
 20
-26.74584725942094
 30
0.0
 40
0.4375
  1
P
 41
0.75
  7
TXT
  0
ENDBLK
  5
18BA
  8
OBJECT
  0
BLOCK
  8
0
  2
*D33
 70
     1
 10
0.0
 20
0.0
 30
0.0
  3
*D33
  1

  0
POINT
  5
1008
  8
DEFPOINTS
  6
BYBLOCK
 62
     0
 10
47.59051565649958
 20
-38.31526502210834
 30
0.0
  0
POINT
  5
1009
  8
DEFPOINTS
  6
BYBLOCK
 62
     0
 10
47.59051565649958
 20
-27.67526502210835
 30
0.0
  0
LINE
  5
100A
  8
0
  6
BYBLOCK
 62
     0
 10
47.81101565649958
 20
-38.31526502210834
 30
0.0
 11
53.20557476140615
 21
-38.31526502210834
 31
0.0
  0
LINE
  5
100B
  8
0
  6
BYBLOCK
 62
     0
 10
47.81101565649958
 20
-27.67526502210835
 30
0.0
 11
53.20557476140615
 21
-27.67526502210835
 31
0.0
  0
LINE
  5
100C
  8
0
  6
BYBLOCK
 62
     0
 10
52.88007476140615
 20
-37.68526502210834
 30
0.0
 11
52.88007476140615
 21
-33.52901502210835
 31
0.0
  0
SOLID
  5
100D
  8
0
  6
BYBLOCK
 62
     0
 10
52.88007476140615
 20
-38.31526502210834
 30
0.0
 11
52.98507476140617
 21
-37.68526502210834
 31
0.0
 12
52.77507476140613
 22
-37.68526502210834
 32
0.0
 13
52.77507476140613
 23
-37.68526502210834
 33
0.0
  0
LINE
  5
100E
  8
0
  6
BYBLOCK
 62
     0
 10
52.88007476140615
 20
-28.30526502210835
 30
0.0
 11
52.88007476140615
 21
-32.46151502210834
 31
0.0
  0
SOLID
  5
100F
  8
0
  6
BYBLOCK
 62
     0
 10
52.88007476140615
 20
-27.67526502210835
 30
0.0
 11
52.98507476140617
 21
-28.30526502210835
 31
0.0
 12
52.77507476140613
 22
-28.30526502210835
 32
0.0
 13
52.77507476140613
 23
-28.30526502210835
 33
0.0
  0
TEXT
  5
1010
  8
0
  6
BYBLOCK
 62
     0
 10
52.77015288640615
 20
-33.21401502210835
 30
0.0
 40
0.4375
  1
S
 41
0.75
  7
TXT
  0
ENDBLK
  5
18BC
  8
OBJECT
  0
BLOCK
  8
0
  2
*D34
 70
     1
 10
0.0
 20
0.0
 30
0.0
  3
*D34
  1

  0
POINT
  5
1015
  8
DEFPOINTS
  6
BYBLOCK
 62
     0
 10
43.26080707649891
 20
-27.35526502210834
 30
0.0
  0
POINT
  5
1016
  8
DEFPOINTS
  6
BYBLOCK
 62
     0
 10
47.59051565649958
 20
-27.67526502210835
 30
0.0
  0
LINE
  5
1017
  8
0
  6
BYBLOCK
 62
     0
 10
43.26080707649891
 20
-27.13476502210834
 30
0.0
 11
43.26080707649891
 21
-26.20159725942094
 31
0.0
  0
LINE
  5
1018
  8
0
  6
BYBLOCK
 62
     0
 10
47.59051565649958
 20
-27.45476502210835
 30
0.0
 11
47.59051565649958
 21
-26.20159725942094
 31
0.0
  0
LINE
  5
1019
  8
0
  6
BYBLOCK
 62
     0
 10
43.89080707649891
 20
-26.52709725942094
 30
0.0
 11
45.00073949149925
 21
-26.52709725942094
 31
0.0
  0
SOLID
  5
101A
  8
0
  6
BYBLOCK
 62
     0
 10
43.26080707649891
 20
-26.52709725942094
 30
0.0
 11
43.89080707649891
 21
-26.63209725942096
 31
0.0
 12
43.89080707649891
 22
-26.42209725942092
 32
0.0
 13
43.89080707649891
 23
-26.42209725942092
 33
0.0
  0
LINE
  5
101B
  8
0
  6
BYBLOCK
 62
     0
 10
46.96051565649958
 20
-26.52709725942094
 30
0.0
 11
45.85058324149924
 21
-26.52709725942094
 31
0.0
  0
SOLID
  5
101C
  8
0
  6
BYBLOCK
 62
     0
 10
47.59051565649958
 20
-26.52709725942094
 30
0.0
 11
46.96051565649958
 21
-26.63209725942096
 31
0.0
 12
46.96051565649958
 22
-26.42209725942092
 32
0.0
 13
46.96051565649958
 23
-26.42209725942092
 33
0.0
  0
TEXT
  5
101D
  8
0
  6
BYBLOCK
 62
     0
 10
45.31573949149924
 20
-26.74584725942094
 30
0.0
 40
0.4375
  1
N
 41
0.75
  7
TXT
  0
ENDBLK
  5
18BE
  8
OBJECT
  0
BLOCK
  8
0
  2
*D35
 70
     1
 10
0.0
 20
0.0
 30
0.0
  3
*D35
  1

  0
POINT
  5
1022
  8
DEFPOINTS
  6
BYBLOCK
 62
     0
 10
23.17656942092193
 20
-29.54426502210834
 30
0.0
  0
POINT
  5
1023
  8
DEFPOINTS
  6
BYBLOCK
 62
     0
 10
23.17656942092193
 20
-36.44626502210835
 30
0.0
  0
LINE
  5
1024
  8
0
  6
BYBLOCK
 62
     0
 10
23.39706942092193
 20
-29.54426502210834
 30
0.0
 11
29.40754932915473
 21
-29.54426502210834
 31
0.0
  0
LINE
  5
1025
  8
0
  6
BYBLOCK
 62
     0
 10
23.39706942092193
 20
-36.44626502210835
 30
0.0
 11
29.40754932915473
 21
-36.44626502210835
 31
0.0
  0
LINE
  5
1026
  8
0
  6
BYBLOCK
 62
     0
 10
29.08204932915473
 20
-30.17426502210834
 30
0.0
 11
29.08204932915473
 21
-32.46151502210834
 31
0.0
  0
SOLID
  5
1027
  8
0
  6
BYBLOCK
 62
     0
 10
29.08204932915473
 20
-29.54426502210834
 30
0.0
 11
28.97704932915471
 21
-30.17426502210834
 31
0.0
 12
29.18704932915475
 22
-30.17426502210834
 32
0.0
 13
29.18704932915475
 23
-30.17426502210834
 33
0.0
  0
LINE
  5
1028
  8
0
  6
BYBLOCK
 62
     0
 10
29.08204932915473
 20
-35.81626502210835
 30
0.0
 11
29.08204932915473
 21
-33.52901502210835
 31
0.0
  0
SOLID
  5
1029
  8
0
  6
BYBLOCK
 62
     0
 10
29.08204932915473
 20
-36.44626502210835
 30
0.0
 11
28.97704932915471
 21
-35.81626502210835
 31
0.0
 12
29.18704932915475
 22
-35.81626502210835
 32
0.0
 13
29.18704932915475
 23
-35.81626502210835
 33
0.0
  0
TEXT
  5
102A
  8
0
  6
BYBLOCK
 62
     0
 10
28.97212745415473
 20
-33.21401502210834
 30
0.0
 40
0.4375
  1
M
 41
0.75
  7
TXT
  0
ENDBLK
  5
18C0
  8
OBJECT
  0
BLOCK
  8
0
  2
*D36
 70
     1
 10
0.0
 20
0.0
 30
0.0
  3
*D36
  1

  0
POINT
  5
102F
  8
DEFPOINTS
  6
BYBLOCK
 62
     0
 10
17.15156942092193
 20
-28.01776502210835
 30
0.0
  0
POINT
  5
1030
  8
DEFPOINTS
  6
BYBLOCK
 62
     0
 10
23.30156942092193
 20
-28.01776502210835
 30
0.0
  0
LINE
  5
1031
  8
0
  6
BYBLOCK
 62
     0
 10
17.15156942092193
 20
-27.79726502210835
 30
0.0
 11
17.15156942092193
 21
-26.15476502210835
 31
0.0
  0
LINE
  5
1032
  8
0
  6
BYBLOCK
 62
     0
 10
23.30156942092193
 20
-27.79726502210835
 30
0.0
 11
23.30156942092193
 21
-26.15476502210835
 31
0.0
  0
LINE
  5
1033
  8
0
  6
BYBLOCK
 62
     0
 10
17.78156942092193
 20
-26.48026502210835
 30
0.0
 11
19.80164754592193
 21
-26.48026502210835
 31
0.0
  0
SOLID
  5
1034
  8
0
  6
BYBLOCK
 62
     0
 10
17.15156942092193
 20
-26.48026502210835
 30
0.0
 11
17.78156942092193
 21
-26.58526502210837
 31
0.0
 12
17.78156942092193
 22
-26.37526502210833
 32
0.0
 13
17.78156942092193
 23
-26.37526502210833
 33
0.0
  0
LINE
  5
1035
  8
0
  6
BYBLOCK
 62
     0
 10
22.67156942092193
 20
-26.48026502210835
 30
0.0
 11
20.65149129592193
 21
-26.48026502210835
 31
0.0
  0
SOLID
  5
1036
  8
0
  6
BYBLOCK
 62
     0
 10
23.30156942092193
 20
-26.48026502210835
 30
0.0
 11
22.67156942092193
 21
-26.58526502210837
 31
0.0
 12
22.67156942092193
 22
-26.37526502210833
 32
0.0
 13
22.67156942092193
 23
-26.37526502210833
 33
0.0
  0
TEXT
  5
1037
  8
0
  6
BYBLOCK
 62
     0
 10
20.11664754592193
 20
-26.69901502210835
 30
0.0
 40
0.4375
  1
C
 41
0.75
  7
TXT
  0
ENDBLK
  5
18C2
  8
OBJECT
  0
BLOCK
  8
0
  2
*D37
 70
     1
 10
0.0
 20
0.0
 30
0.0
  3
*D37
  1

  0
POINT
  5
103C
  8
DEFPOINTS
  6
BYBLOCK
 62
     0
 10
17.27656942092193
 20
-36.44626502210835
 30
0.0
  0
POINT
  5
103D
  8
DEFPOINTS
  6
BYBLOCK
 62
     0
 10
23.17656942092193
 20
-36.44626502210835
 30
0.0
  0
LINE
  5
103E
  8
0
  6
BYBLOCK
 62
     0
 10
17.27656942092193
 20
-36.66676502210835
 30
0.0
 11
17.27656942092193
 21
-42.44404092470341
 31
0.0
  0
LINE
  5
103F
  8
0
  6
BYBLOCK
 62
     0
 10
23.17656942092193
 20
-36.66676502210835
 30
0.0
 11
23.17656942092193
 21
-42.44404092470341
 31
0.0
  0
LINE
  5
1040
  8
0
  6
BYBLOCK
 62
     0
 10
17.90656942092193
 20
-42.11854092470341
 30
0.0
 11
19.80164754592193
 21
-42.11854092470341
 31
0.0
  0
SOLID
  5
1041
  8
0
  6
BYBLOCK
 62
     0
 10
17.27656942092193
 20
-42.11854092470341
 30
0.0
 11
17.90656942092193
 21
-42.22354092470343
 31
0.0
 12
17.90656942092193
 22
-42.01354092470339
 32
0.0
 13
17.90656942092193
 23
-42.01354092470339
 33
0.0
  0
LINE
  5
1042
  8
0
  6
BYBLOCK
 62
     0
 10
22.54656942092193
 20
-42.11854092470341
 30
0.0
 11
20.65149129592193
 21
-42.11854092470341
 31
0.0
  0
SOLID
  5
1043
  8
0
  6
BYBLOCK
 62
     0
 10
23.17656942092193
 20
-42.11854092470341
 30
0.0
 11
22.54656942092193
 21
-42.22354092470343
 31
0.0
 12
22.54656942092193
 22
-42.01354092470339
 32
0.0
 13
22.54656942092193
 23
-42.01354092470339
 33
0.0
  0
TEXT
  5
1044
  8
0
  6
BYBLOCK
 62
     0
 10
20.11664754592193
 20
-42.33729092470341
 30
0.0
 40
0.4375
  1
D
 41
0.75
  7
TXT
  0
ENDBLK
  5
18C4
  8
OBJECT
  0
BLOCK
  8
0
  2
*D38
 70
     1
 10
0.0
 20
0.0
 30
0.0
  3
*D38
  1

  0
POINT
  5
1049
  8
DEFPOINTS
  6
BYBLOCK
 62
     0
 10
18.74756942092193
 20
-37.42526502210835
 30
0.0
  0
POINT
  5
104A
  8
DEFPOINTS
  6
BYBLOCK
 62
     0
 10
21.70556942092193
 20
-37.42526502210835
 30
0.0
  0
LINE
  5
104B
  8
0
  6
BYBLOCK
 62
     0
 10
18.74756942092193
 20
-37.64576502210835
 30
0.0
 11
18.74756942092193
 21
-40.69404092470341
 31
0.0
  0
LINE
  5
104C
  8
0
  6
BYBLOCK
 62
     0
 10
21.70556942092193
 20
-37.64576502210835
 30
0.0
 11
21.70556942092193
 21
-40.69404092470341
 31
0.0
  0
LINE
  5
104D
  8
0
  6
BYBLOCK
 62
     0
 10
19.37756942092193
 20
-40.36854092470341
 30
0.0
 11
19.80164754592193
 21
-40.36854092470341
 31
0.0
  0
SOLID
  5
104E
  8
0
  6
BYBLOCK
 62
     0
 10
18.74756942092193
 20
-40.36854092470341
 30
0.0
 11
19.37756942092193
 21
-40.47354092470343
 31
0.0
 12
19.37756942092193
 22
-40.26354092470339
 32
0.0
 13
19.37756942092193
 23
-40.26354092470339
 33
0.0
  0
LINE
  5
104F
  8
0
  6
BYBLOCK
 62
     0
 10
21.07556942092193
 20
-40.36854092470341
 30
0.0
 11
20.65149129592193
 21
-40.36854092470341
 31
0.0
  0
SOLID
  5
1050
  8
0
  6
BYBLOCK
 62
     0
 10
21.70556942092193
 20
-40.36854092470341
 30
0.0
 11
21.07556942092193
 21
-40.47354092470343
 31
0.0
 12
21.07556942092193
 22
-40.26354092470339
 32
0.0
 13
21.07556942092193
 23
-40.26354092470339
 33
0.0
  0
TEXT
  5
1051
  8
0
  6
BYBLOCK
 62
     0
 10
20.11664754592193
 20
-40.58729092470341
 30
0.0
 40
0.4375
  1
F
 41
0.75
  7
TXT
  0
ENDBLK
  5
18C6
  8
OBJECT
  0
BLOCK
  8
0
  2
*D39
 70
     1
 10
0.0
 20
0.0
 30
0.0
  3
*D39
  1

  0
POINT
  5
1056
  8
DEFPOINTS
  6
BYBLOCK
 62
     0
 10
17.15156942092193
 20
-37.97276502210835
 30
0.0
  0
POINT
  5
1057
  8
DEFPOINTS
  6
BYBLOCK
 62
     0
 10
17.15156942092193
 20
-28.01776502210835
 30
0.0
  0
LINE
  5
1058
  8
0
  6
BYBLOCK
 62
     0
 10
16.93106942092193
 20
-37.97276502210835
 30
0.0
 11
15.11655139667833
 21
-37.97276502210835
 31
0.0
  0
LINE
  5
1059
  8
0
  6
BYBLOCK
 62
     0
 10
16.93106942092193
 20
-28.01776502210835
 30
0.0
 11
15.11655139667833
 21
-28.01776502210835
 31
0.0
  0
LINE
  5
105A
  8
0
  6
BYBLOCK
 62
     0
 10
15.44205139667833
 20
-37.34276502210835
 30
0.0
 11
15.44205139667833
 21
-33.52901502210835
 31
0.0
  0
SOLID
  5
105B
  8
0
  6
BYBLOCK
 62
     0
 10
15.44205139667833
 20
-37.97276502210835
 30
0.0
 11
15.54705139667835
 21
-37.34276502210835
 31
0.0
 12
15.33705139667831
 22
-37.34276502210835
 32
0.0
 13
15.33705139667831
 23
-37.34276502210835
 33
0.0
  0
LINE
  5
105C
  8
0
  6
BYBLOCK
 62
     0
 10
15.44205139667833
 20
-28.64776502210835
 30
0.0
 11
15.44205139667833
 21
-32.46151502210835
 31
0.0
  0
SOLID
  5
105D
  8
0
  6
BYBLOCK
 62
     0
 10
15.44205139667833
 20
-28.01776502210835
 30
0.0
 11
15.54705139667835
 21
-28.64776502210835
 31
0.0
 12
15.33705139667831
 22
-28.64776502210835
 32
0.0
 13
15.33705139667831
 23
-28.64776502210835
 33
0.0
  0
TEXT
  5
105E
  8
0
  6
BYBLOCK
 62
     0
 10
15.33212952167833
 20
-33.21401502210835
 30
0.0
 40
0.4375
  1
J
 41
0.75
  7
TXT
  0
ENDBLK
  5
18C8
  8
OBJECT
  0
BLOCK
  8
0
  2
*D40
 70
     1
 10
0.0
 20
0.0
 30
0.0
  3
*D40
  1

  0
POINT
  5
1063
  8
DEFPOINTS
  6
BYBLOCK
 62
     0
 10
21.70556942092193
 20
-37.42526502210835
 30
0.0
  0
POINT
  5
1064
  8
DEFPOINTS
  6
BYBLOCK
 62
     0
 10
21.70294734592165
 20
-28.56526502210835
 30
0.0
  0
LINE
  5
1065
  8
0
  6
BYBLOCK
 62
     0
 10
21.92606942092193
 20
-37.42526502210835
 30
0.0
 11
31.15754932915473
 21
-37.42526502210835
 31
0.0
  0
LINE
  5
1066
  8
0
  6
BYBLOCK
 62
     0
 10
21.92344734592165
 20
-28.56526502210835
 30
0.0
 11
31.15754932915473
 21
-28.56526502210835
 31
0.0
  0
LINE
  5
1067
  8
0
  6
BYBLOCK
 62
     0
 10
30.83204932915473
 20
-36.79526502210835
 30
0.0
 11
30.83204932915473
 21
-33.52901502210835
 31
0.0
  0
SOLID
  5
1068
  8
0
  6
BYBLOCK
 62
     0
 10
30.83204932915473
 20
-37.42526502210835
 30
0.0
 11
30.93704932915475
 21
-36.79526502210835
 31
0.0
 12
30.72704932915471
 22
-36.79526502210835
 32
0.0
 13
30.72704932915471
 23
-36.79526502210835
 33
0.0
  0
LINE
  5
1069
  8
0
  6
BYBLOCK
 62
     0
 10
30.83204932915473
 20
-29.19526502210835
 30
0.0
 11
30.83204932915473
 21
-32.46151502210835
 31
0.0
  0
SOLID
  5
106A
  8
0
  6
BYBLOCK
 62
     0
 10
30.83204932915473
 20
-28.56526502210835
 30
0.0
 11
30.93704932915475
 21
-29.19526502210835
 31
0.0
 12
30.72704932915471
 22
-29.19526502210835
 32
0.0
 13
30.72704932915471
 23
-29.19526502210835
 33
0.0
  0
TEXT
  5
106B
  8
0
  6
BYBLOCK
 62
     0
 10
30.72212745415473
 20
-33.21401502210835
 30
0.0
 40
0.4375
  1
K
 41
0.75
  7
TXT
  0
ENDBLK
  5
18CA
  8
OBJECT
  0
BLOCK
  8
0
  2
*D41
 70
     1
 10
0.0
 20
0.0
 30
0.0
  3
*D41
  1

  0
POINT
  5
1070
  8
DEFPOINTS
  6
BYBLOCK
 62
     0
 10
19.73356942092193
 20
-37.42526502210835
 30
0.0
  0
POINT
  5
1071
  8
DEFPOINTS
  6
BYBLOCK
 62
     0
 10
18.74756942092193
 20
-37.42526502210835
 30
0.0
  0
LINE
  5
1072
  8
0
  6
BYBLOCK
 62
     0
 10
19.73356942092193
 20
-37.64576502210835
 30
0.0
 11
19.73356942092193
 21
-39.81904092470341
 31
0.0
  0
LINE
  5
1073
  8
0
  6
BYBLOCK
 62
     0
 10
18.74756942092193
 20
-37.64576502210835
 30
0.0
 11
18.74756942092193
 21
-39.81904092470341
 31
0.0
  0
LINE
  5
1074
  8
0
  6
BYBLOCK
 62
     0
 10
20.36356942092193
 20
-39.49354092470341
 30
0.0
 11
20.99356942092193
 21
-39.49354092470341
 31
0.0
  0
SOLID
  5
1075
  8
0
  6
BYBLOCK
 62
     0
 10
19.73356942092193
 20
-39.49354092470341
 30
0.0
 11
20.36356942092193
 21
-39.38854092470339
 31
0.0
 12
20.36356942092193
 22
-39.59854092470343
 32
0.0
 13
20.36356942092193
 23
-39.59854092470343
 33
0.0
  0
LINE
  5
1076
  8
0
  6
BYBLOCK
 62
     0
 10
18.11756942092193
 20
-39.49354092470341
 30
0.0
 11
17.48756942092193
 21
-39.49354092470341
 31
0.0
  0
SOLID
  5
1077
  8
0
  6
BYBLOCK
 62
     0
 10
18.74756942092193
 20
-39.49354092470341
 30
0.0
 11
18.11756942092193
 21
-39.38854092470339
 31
0.0
 12
18.11756942092193
 22
-39.59854092470343
 32
0.0
 13
18.11756942092193
 23
-39.59854092470343
 33
0.0
  0
TEXT
  5
1078
  8
0
  6
BYBLOCK
 62
     0
 10
13.07100692092193
 20
-39.71229092470341
 30
0.0
 40
0.4375
  1
0.986 [25] TYP.
 41
0.75
  7
TXT
  0
ENDBLK
  5
18CC
  8
OBJECT
  0
BLOCK
  8
0
  2
*D42
 70
     1
 10
0.0
 20
0.0
 30
0.0
  3
*D42
  1

  0
POINT
  5
107D
  8
DEFPOINTS
  6
BYBLOCK
 62
     0
 10
23.17656942092193
 20
-29.54426502210834
 30
0.0
  0
POINT
  5
107E
  8
DEFPOINTS
  6
BYBLOCK
 62
     0
 10
23.17656942092193
 20
-30.53026502210835
 30
0.0
  0
LINE
  5
107F
  8
0
  6
BYBLOCK
 62
     0
 10
23.39706942092193
 20
-29.54426502210834
 30
0.0
 11
26.77800950879325
 21
-29.54426502210834
 31
0.0
  0
LINE
  5
1080
  8
0
  6
BYBLOCK
 62
     0
 10
23.39706942092193
 20
-30.53026502210835
 30
0.0
 11
26.77800950879325
 21
-30.53026502210835
 31
0.0
  0
LINE
  5
1081
  8
0
  6
BYBLOCK
 62
     0
 10
26.45250950879325
 20
-28.91426502210834
 30
0.0
 11
26.45250950879325
 21
-28.28426502210834
 31
0.0
  0
SOLID
  5
1082
  8
0
  6
BYBLOCK
 62
     0
 10
26.45250950879325
 20
-29.54426502210834
 30
0.0
 11
26.34750950879323
 21
-28.91426502210834
 31
0.0
 12
26.55750950879327
 22
-28.91426502210834
 32
0.0
 13
26.55750950879327
 23
-28.91426502210834
 33
0.0
  0
LINE
  5
1083
  8
0
  6
BYBLOCK
 62
     0
 10
26.45250950879325
 20
-31.16026502210835
 30
0.0
 11
26.45250950879325
 21
-31.79026502210835
 31
0.0
  0
SOLID
  5
1084
  8
0
  6
BYBLOCK
 62
     0
 10
26.45250950879325
 20
-30.53026502210835
 30
0.0
 11
26.34750950879323
 21
-31.16026502210835
 31
0.0
 12
26.55750950879327
 22
-31.16026502210835
 32
0.0
 13
26.55750950879327
 23
-31.16026502210835
 33
0.0
  0
TEXT
  5
1085
  8
0
  6
BYBLOCK
 62
     0
 10
24.40172825879325
 20
-30.25601502210835
 30
0.0
 40
0.4375
  1
0.986 [25] TYP.
 41
0.75
  7
TXT
  0
ENDBLK
  5
18CE
  8
OBJECT
  0
BLOCK
  8
0
  2
*D43
 70
     1
 10
0.0
 20
0.0
 30
0.0
  3
*D43
  1

  0
POINT
  5
11E1
  8
DEFPOINTS
  6
BYBLOCK
 62
     0
 10
32.60419264566942
 20
-25.50032612653721
 30
0.0
  0
POINT
  5
11E2
  8
DEFPOINTS
  6
BYBLOCK
 62
     0
 10
39.40419264566943
 20
-25.50032612653721
 30
0.0
  0
LINE
  5
11E3
  8
0
  6
BYBLOCK
 62
     0
 10
32.60419264566942
 20
-25.72082612653721
 30
0.0
 11
32.60419264566942
 21
-26.8203513416581
 31
0.0
  0
LINE
  5
11E4
  8
0
  6
BYBLOCK
 62
     0
 10
39.40419264566943
 20
-25.72082612653721
 30
0.0
 11
39.40419264566943
 21
-26.8203513416581
 31
0.0
  0
LINE
  5
11E5
  8
0
  6
BYBLOCK
 62
     0
 10
33.23419264566942
 20
-26.4948513416581
 30
0.0
 11
35.57927077066942
 21
-26.4948513416581
 31
0.0
  0
SOLID
  5
11E6
  8
0
  6
BYBLOCK
 62
     0
 10
32.60419264566942
 20
-26.4948513416581
 30
0.0
 11
33.23419264566942
 21
-26.59985134165812
 31
0.0
 12
33.23419264566942
 22
-26.38985134165808
 32
0.0
 13
33.23419264566942
 23
-26.38985134165808
 33
0.0
  0
LINE
  5
11E7
  8
0
  6
BYBLOCK
 62
     0
 10
38.77419264566943
 20
-26.4948513416581
 30
0.0
 11
36.42911452066943
 21
-26.4948513416581
 31
0.0
  0
SOLID
  5
11E8
  8
0
  6
BYBLOCK
 62
     0
 10
39.40419264566943
 20
-26.4948513416581
 30
0.0
 11
38.77419264566943
 21
-26.59985134165812
 31
0.0
 12
38.77419264566943
 22
-26.38985134165808
 32
0.0
 13
38.77419264566943
 23
-26.38985134165808
 33
0.0
  0
TEXT
  5
11E9
  8
0
  6
BYBLOCK
 62
     0
 10
35.89427077066943
 20
-26.7136013416581
 30
0.0
 40
0.4375
  1
T
 41
0.75
  7
TXT
  0
ENDBLK
  5
18D0
  8
OBJECT
  0
BLOCK
  8
0
  2
*D44
 70
     1
 10
0.0
 20
0.0
 30
0.0
  3
*D44
  1

  0
POINT
  5
1206
  8
DEFPOINTS
  6
BYBLOCK
 62
     0
 10
32.58419264566941
 20
-20.13672340047903
 30
0.0
  0
POINT
  5
1207
  8
DEFPOINTS
  6
BYBLOCK
 62
     0
 10
39.42419264566944
 20
-20.13672340047903
 30
0.0
  0
LINE
  5
1208
  8
0
  6
BYBLOCK
 62
     0
 10
32.58419264566941
 20
-19.91622340047903
 30
0.0
 11
32.58419264566941
 21
-18.88632465796092
 31
0.0
  0
LINE
  5
1209
  8
0
  6
BYBLOCK
 62
     0
 10
39.42419264566944
 20
-19.91622340047903
 30
0.0
 11
39.42419264566944
 21
-18.88632465796092
 31
0.0
  0
LINE
  5
120A
  8
0
  6
BYBLOCK
 62
     0
 10
33.21419264566941
 20
-19.21182465796092
 30
0.0
 11
35.57927077066942
 21
-19.21182465796092
 31
0.0
  0
SOLID
  5
120B
  8
0
  6
BYBLOCK
 62
     0
 10
32.58419264566941
 20
-19.21182465796092
 30
0.0
 11
33.21419264566941
 21
-19.31682465796094
 31
0.0
 12
33.21419264566941
 22
-19.1068246579609
 32
0.0
 13
33.21419264566941
 23
-19.1068246579609
 33
0.0
  0
LINE
  5
120C
  8
0
  6
BYBLOCK
 62
     0
 10
38.79419264566944
 20
-19.21182465796092
 30
0.0
 11
36.42911452066943
 21
-19.21182465796092
 31
0.0
  0
SOLID
  5
120D
  8
0
  6
BYBLOCK
 62
     0
 10
39.42419264566944
 20
-19.21182465796092
 30
0.0
 11
38.79419264566944
 21
-19.31682465796094
 31
0.0
 12
38.79419264566944
 22
-19.1068246579609
 32
0.0
 13
38.79419264566944
 23
-19.1068246579609
 33
0.0
  0
TEXT
  5
120E
  8
0
  6
BYBLOCK
 62
     0
 10
35.89427077066943
 20
-19.43057465796092
 30
0.0
 40
0.4375
  1
U
 41
0.75
  7
TXT
  0
ENDBLK
  5
18D2
  8
OBJECT
  0
BLOCK
  8
0
  2
*D45
 70
     1
 10
0.0
 20
0.0
 30
0.0
  3
*D45
  1

  0
POINT
  5
1260
  8
DEFPOINTS
  6
BYBLOCK
 62
     0
 10
17.20656942092193
 20
-28.05776502210834
 30
0.0
  0
POINT
  5
1261
  8
DEFPOINTS
  6
BYBLOCK
 62
     0
 10
23.24656942092193
 20
-28.05776502210834
 30
0.0
  0
LINE
  5
1262
  8
0
  6
BYBLOCK
 62
     0
 10
17.20656942092193
 20
-27.83726502210834
 30
0.0
 11
17.20656942092193
 21
-26.25302978672659
 31
0.0
  0
LINE
  5
1263
  8
0
  6
BYBLOCK
 62
     0
 10
23.24656942092193
 20
-27.83726502210834
 30
0.0
 11
23.24656942092193
 21
-26.25302978672659
 31
0.0
  0
LINE
  5
1264
  8
0
  6
BYBLOCK
 62
     0
 10
17.83656942092193
 20
-26.57852978672659
 30
0.0
 11
18.49078817092193
 21
-26.57852978672659
 31
0.0
  0
SOLID
  5
1265
  8
0
  6
BYBLOCK
 62
     0
 10
17.20656942092193
 20
-26.57852978672659
 30
0.0
 11
17.83656942092193
 21
-26.68352978672661
 31
0.0
 12
17.83656942092193
 22
-26.47352978672657
 32
0.0
 13
17.83656942092193
 23
-26.47352978672657
 33
0.0
  0
LINE
  5
1266
  8
0
  6
BYBLOCK
 62
     0
 10
22.61656942092193
 20
-26.57852978672659
 30
0.0
 11
21.96235067092193
 21
-26.57852978672659
 31
0.0
  0
SOLID
  5
1267
  8
0
  6
BYBLOCK
 62
     0
 10
23.24656942092193
 20
-26.57852978672659
 30
0.0
 11
22.61656942092193
 21
-26.68352978672661
 31
0.0
 12
22.61656942092193
 22
-26.47352978672657
 32
0.0
 13
22.61656942092193
 23
-26.47352978672657
 33
0.0
  0
TEXT
  5
1268
  8
0
  6
BYBLOCK
 62
     0
 10
18.80578817092193
 20
-26.79727978672659
 30
0.0
 40
0.4375
  1
6.040 [153]
 41
0.75
  7
TXT
  0
ENDBLK
  5
18D4
  8
OBJECT
  0
BLOCK
  8
0
  2
*D46
 70
     1
 10
0.0
 20
0.0
 30
0.0
  3
*D46
  1

  0
POINT
  5
126C
  8
DEFPOINTS
  6
BYBLOCK
 62
     0
 10
17.20656942092193
 20
-28.05776502210834
 30
0.0
  0
POINT
  5
126D
  8
DEFPOINTS
  6
BYBLOCK
 62
     0
 10
23.24656942092193
 20
-28.05776502210834
 30
0.0
  0
LINE
  5
126E
  8
0
  6
BYBLOCK
 62
     0
 10
17.20656942092193
 20
-27.83726502210834
 30
0.0
 11
17.20656942092193
 21
-26.25302978672659
 31
0.0
  0
LINE
  5
126F
  8
0
  6
BYBLOCK
 62
     0
 10
23.24656942092193
 20
-27.83726502210834
 30
0.0
 11
23.24656942092193
 21
-26.25302978672659
 31
0.0
  0
LINE
  5
1270
  8
0
  6
BYBLOCK
 62
     0
 10
17.83656942092193
 20
-26.57852978672659
 30
0.0
 11
19.52930379592193
 21
-26.57852978672659
 31
0.0
  0
SOLID
  5
1271
  8
0
  6
BYBLOCK
 62
     0
 10
17.20656942092193
 20
-26.57852978672659
 30
0.0
 11
17.83656942092193
 21
-26.68352978672661
 31
0.0
 12
17.83656942092193
 22
-26.47352978672657
 32
0.0
 13
17.83656942092193
 23
-26.47352978672657
 33
0.0
  0
LINE
  5
1272
  8
0
  6
BYBLOCK
 62
     0
 10
22.61656942092193
 20
-26.57852978672659
 30
0.0
 11
20.92383504592193
 21
-26.57852978672659
 31
0.0
  0
SOLID
  5
1273
  8
0
  6
BYBLOCK
 62
     0
 10
23.24656942092193
 20
-26.57852978672659
 30
0.0
 11
22.61656942092193
 21
-26.68352978672661
 31
0.0
 12
22.61656942092193
 22
-26.47352978672657
 32
0.0
 13
22.61656942092193
 23
-26.47352978672657
 33
0.0
  0
TEXT
  5
1274
  8
0
  6
BYBLOCK
 62
     0
 10
19.84430379592193
 20
-26.79727978672659
 30
0.0
 40
0.4375
  1
<C>
 41
0.75
  7
TXT
  0
ENDBLK
  5
18D6
  8
OBJECT
  0
BLOCK
  8
0
  2
*D47
 70
     1
 10
0.0
 20
0.0
 30
0.0
  3
*D47
  1

  0
POINT
  5
1278
  8
DEFPOINTS
  6
BYBLOCK
 62
     0
 10
17.20656942092193
 20
-28.05776502210834
 30
0.0
  0
POINT
  5
1279
  8
DEFPOINTS
  6
BYBLOCK
 62
     0
 10
23.24656942092193
 20
-28.05776502210834
 30
0.0
  0
LINE
  5
127A
  8
0
  6
BYBLOCK
 62
     0
 10
17.20656942092193
 20
-27.83726502210834
 30
0.0
 11
17.20656942092193
 21
-26.25302978672659
 31
0.0
  0
LINE
  5
127B
  8
0
  6
BYBLOCK
 62
     0
 10
23.24656942092193
 20
-27.83726502210834
 30
0.0
 11
23.24656942092193
 21
-26.25302978672659
 31
0.0
  0
LINE
  5
127C
  8
0
  6
BYBLOCK
 62
     0
 10
17.83656942092193
 20
-26.57852978672659
 30
0.0
 11
19.80164754592193
 21
-26.57852978672659
 31
0.0
  0
SOLID
  5
127D
  8
0
  6
BYBLOCK
 62
     0
 10
17.20656942092193
 20
-26.57852978672659
 30
0.0
 11
17.83656942092193
 21
-26.68352978672661
 31
0.0
 12
17.83656942092193
 22
-26.47352978672657
 32
0.0
 13
17.83656942092193
 23
-26.47352978672657
 33
0.0
  0
LINE
  5
127E
  8
0
  6
BYBLOCK
 62
     0
 10
22.61656942092193
 20
-26.57852978672659
 30
0.0
 11
20.65149129592193
 21
-26.57852978672659
 31
0.0
  0
SOLID
  5
127F
  8
0
  6
BYBLOCK
 62
     0
 10
23.24656942092193
 20
-26.57852978672659
 30
0.0
 11
22.61656942092193
 21
-26.68352978672661
 31
0.0
 12
22.61656942092193
 22
-26.47352978672657
 32
0.0
 13
22.61656942092193
 23
-26.47352978672657
 33
0.0
  0
TEXT
  5
1280
  8
0
  6
BYBLOCK
 62
     0
 10
20.11664754592193
 20
-26.79727978672659
 30
0.0
 40
0.4375
  1
C
 41
0.75
  7
TXT
  0
ENDBLK
  5
18D8
  8
OBJECT
  0
BLOCK
  8
0
  2
*D48
 70
     1
 10
0.0
 20
0.0
 30
0.0
  3
*D48
  1

  0
POINT
  5
1285
  8
DEFPOINTS
  6
BYBLOCK
 62
     0
 10
17.20656942092193
 20
-37.93276502210834
 30
0.0
  0
POINT
  5
1286
  8
DEFPOINTS
  6
BYBLOCK
 62
     0
 10
17.20656942092193
 20
-28.05776502210834
 30
0.0
  0
LINE
  5
1287
  8
0
  6
BYBLOCK
 62
     0
 10
16.98606942092193
 20
-37.93276502210834
 30
0.0
 11
15.40826635291603
 21
-37.93276502210834
 31
0.0
  0
LINE
  5
1288
  8
0
  6
BYBLOCK
 62
     0
 10
16.98606942092193
 20
-28.05776502210834
 30
0.0
 11
15.40826635291603
 21
-28.05776502210834
 31
0.0
  0
LINE
  5
1289
  8
0
  6
BYBLOCK
 62
     0
 10
15.73376635291603
 20
-37.30276502210834
 30
0.0
 11
15.73376635291603
 21
-33.52901502210834
 31
0.0
  0
SOLID
  5
128A
  8
0
  6
BYBLOCK
 62
     0
 10
15.73376635291603
 20
-37.93276502210834
 30
0.0
 11
15.83876635291605
 21
-37.30276502210834
 31
0.0
 12
15.62876635291601
 22
-37.30276502210834
 32
0.0
 13
15.62876635291601
 23
-37.30276502210834
 33
0.0
  0
LINE
  5
128B
  8
0
  6
BYBLOCK
 62
     0
 10
15.73376635291603
 20
-28.68776502210834
 30
0.0
 11
15.73376635291603
 21
-32.46151502210834
 31
0.0
  0
SOLID
  5
128C
  8
0
  6
BYBLOCK
 62
     0
 10
15.73376635291603
 20
-28.05776502210834
 30
0.0
 11
15.83876635291605
 21
-28.68776502210834
 31
0.0
 12
15.62876635291601
 22
-28.68776502210834
 32
0.0
 13
15.62876635291601
 23
-28.68776502210834
 33
0.0
  0
TEXT
  5
128D
  8
0
  6
BYBLOCK
 62
     0
 10
14.25720385291603
 20
-33.21401502210834
 30
0.0
 40
0.4375
  1
9.875 [251]
 41
0.75
  7
TXT
  0
ENDBLK
  5
18DA
  8
OBJECT
  0
BLOCK
  8
0
  2
*D49
 70
     1
 10
0.0
 20
0.0
 30
0.0
  3
*D49
  1

  0
POINT
  5
1291
  8
DEFPOINTS
  6
BYBLOCK
 62
     0
 10
17.20656942092193
 20
-37.93276502210834
 30
0.0
  0
POINT
  5
1292
  8
DEFPOINTS
  6
BYBLOCK
 62
     0
 10
17.20656942092193
 20
-28.05776502210834
 30
0.0
  0
LINE
  5
1293
  8
0
  6
BYBLOCK
 62
     0
 10
16.98606942092193
 20
-37.93276502210834
 30
0.0
 11
15.40826635291603
 21
-37.93276502210834
 31
0.0
  0
LINE
  5
1294
  8
0
  6
BYBLOCK
 62
     0
 10
16.98606942092193
 20
-28.05776502210834
 30
0.0
 11
15.40826635291603
 21
-28.05776502210834
 31
0.0
  0
LINE
  5
1295
  8
0
  6
BYBLOCK
 62
     0
 10
15.73376635291603
 20
-37.30276502210834
 30
0.0
 11
15.73376635291603
 21
-33.52901502210834
 31
0.0
  0
SOLID
  5
1296
  8
0
  6
BYBLOCK
 62
     0
 10
15.73376635291603
 20
-37.93276502210834
 30
0.0
 11
15.83876635291605
 21
-37.30276502210834
 31
0.0
 12
15.62876635291601
 22
-37.30276502210834
 32
0.0
 13
15.62876635291601
 23
-37.30276502210834
 33
0.0
  0
LINE
  5
1297
  8
0
  6
BYBLOCK
 62
     0
 10
15.73376635291603
 20
-28.68776502210834
 30
0.0
 11
15.73376635291603
 21
-32.46151502210834
 31
0.0
  0
SOLID
  5
1298
  8
0
  6
BYBLOCK
 62
     0
 10
15.73376635291603
 20
-28.05776502210834
 30
0.0
 11
15.83876635291605
 21
-28.68776502210834
 31
0.0
 12
15.62876635291601
 22
-28.68776502210834
 32
0.0
 13
15.62876635291601
 23
-28.68776502210834
 33
0.0
  0
TEXT
  5
1299
  8
0
  6
BYBLOCK
 62
     0
 10
15.62384447791603
 20
-33.21401502210834
 30
0.0
 40
0.4375
  1
J
 41
0.75
  7
TXT
  0
ENDBLK
  5
18DC
  8
OBJECT
  0
BLOCK
  8
0
  2
*X50
 70
     1
 10
0.0
 20
0.0
 30
0.0
  3
*X50
  1

  0
TEXT
  5
149E
  8
TEXT
 10
0.6283427417781411
 20
-25.06463455312426
 30
0.0
 40
0.438302752293577
  1
ALL VERSIONS
 41
0.75
  7
TXT
  0
LINE
  5
149F
  8
TEXT
 10
0.6283427417781411
 20
-25.15229510358297
 30
0.0
 11
4.573067512420334
 21
-25.15229510358297
 31
0.0
  0
TEXT
  5
14A0
  8
TEXT
 10
0.6283427417781411
 20
-25.79513914028022
 30
0.0
 40
0.438302752293577
  1
  GASKET          MODIFIED POLYURETHANE
 41
0.75
  7
TXT
  0
ENDBLK
  5
18DE
  8
0
  0
ENDSEC
  0
SECTION
  2
ENTITIES
  0
CIRCLE
  5
F44
  8
OBJECT
 10
22.58506942092193
 20
-28.85626502210835
 30
0.0
 40
0.0835000000000008
  0
CIRCLE
  5
F45
  8
OBJECT
 10
22.58506942092193
 20
-28.85626502210835
 30
0.0
 40
0.2875000000000014
  0
CIRCLE
  5
F46
  8
OBJECT
 10
17.86806942092193
 20
-28.85626502210835
 30
0.0
 40
0.2875000000000014
  0
CIRCLE
  5
F47
  8
OBJECT
 10
17.86806942092193
 20
-28.85626502210835
 30
0.0
 40
0.0835000000000008
  0
LINE
  5
F48
  8
CENTER
 10
20.22656942092193
 20
-38.9421358935932
 30
0.0
 11
20.22656942092193
 21
-26.94969381645162
 31
0.0
  0
CIRCLE
  5
F49
  8
OBJECT
 10
22.58506942092193
 20
-37.13426502210835
 30
0.0
 40
0.2875000000000014
  0
CIRCLE
  5
F4A
  8
OBJECT
 10
22.58506942092193
 20
-37.13426502210835
 30
0.0
 40
0.0835000000000008
  0
CIRCLE
  5
F4B
  8
OBJECT
 10
17.86806942092193
 20
-37.13426502210835
 30
0.0
 40
0.2875000000000014
  0
CIRCLE
  5
F4C
  8
OBJECT
 10
17.86806942092193
 20
-37.13426502210835
 30
0.0
 40
0.0835000000000008
  0
LINE
  5
F4D
  8
OBJECT
 10
16.4989119404216
 20
-36.03413904710799
 30
0.0
 11
16.4989119404216
 21
-37.01839099710871
 31
0.0
  0
LINE
  5
F4E
  8
OBJECT
 10
16.36111666742166
 20
-36.03413904710799
 30
0.0
 11
16.36111666742166
 21
-37.01839099710871
 31
0.0
  0
CIRCLE
  5
F50
  8
OBJECT
 10
19.73356942092193
 20
-37.42526502210835
 30
0.0
 40
0.0850000000000009
  0
CIRCLE
  5
F51
  8
OBJECT
 10
18.74756942092193
 20
-37.42526502210835
 30
0.0
 40
0.0850000000000009
  0
CIRCLE
  5
F52
  8
OBJECT
 10
18.74756942092193
 20
-37.42526502210835
 30
0.0
 40
0.2220000000000013
  0
CIRCLE
  5
F53
  8
OBJECT
 10
19.73356942092193
 20
-37.42526502210835
 30
0.0
 40
0.2220000000000013
  0
CIRCLE
  5
F55
  8
OBJECT
 10
20.71956942092193
 20
-37.42526502210835
 30
0.0
 40
0.2220000000000013
  0
CIRCLE
  5
F56
  8
OBJECT
 10
20.71956942092193
 20
-37.42526502210835
 30
0.0
 40
0.0850000000000009
  0
CIRCLE
  5
F57
  8
OBJECT
 10
21.70556942092193
 20
-37.42526502210835
 30
0.0
 40
0.2220000000000013
  0
CIRCLE
  5
F58
  8
OBJECT
 10
21.70556942092193
 20
-37.42526502210835
 30
0.0
 40
0.0850000000000009
  0
LINE
  5
F59
  8
CENTER
 10
16.13747710236517
 20
-32.99526502210834
 30
0.0
 11
24.22649292993015
 21
-32.99526502210834
 31
0.0
  0
CIRCLE
  5
F5A
  8
OBJECT
 10
23.17656942092193
 20
-29.54426502210834
 30
0.0
 40
0.2220000000000013
  0
CIRCLE
  5
F5B
  8
OBJECT
 10
23.17656942092193
 20
-29.54426502210834
 30
0.0
 40
0.0850000000000009
  0
CIRCLE
  5
F5C
  8
OBJECT
 10
23.17656942092193
 20
-31.51626502210835
 30
0.0
 40
0.2220000000000013
  0
CIRCLE
  5
F5D
  8
OBJECT
 10
23.17656942092193
 20
-31.51626502210835
 30
0.0
 40
0.0850000000000009
  0
CIRCLE
  5
F5E
  8
OBJECT
 10
23.17656942092193
 20
-30.53026502210835
 30
0.0
 40
0.0850000000000009
  0
CIRCLE
  5
F5F
  8
OBJECT
 10
23.17656942092193
 20
-30.53026502210835
 30
0.0
 40
0.2220000000000013
  0
DIMENSION
  5
F62
  8
DIM
  2
*D24
 10
13.69205139667833
 20
-27.35526502210835
 30
0.0
 11
13.69205139667833
 21
-32.99526502210835
 31
0.0
 70
    32
  1
G
  3
23NSTD
 13
16.92214027892193
 23
-38.63526502210834
 33
0.0
 14
16.92214027892193
 24
-27.35526502210835
 34
0.0
 50
90.0
  0
DIMENSION
  5
F6F
  8
DIM
  2
*D25
 10
16.48906942092193
 20
-24.73026502210835
 30
0.0
 11
20.22656942092193
 21
-24.73026502210835
 31
0.0
 70
    32
  1
A
  3
23NSTD
 13
23.96406942092193
 23
-27.78833588010835
 33
0.0
 14
16.48906942092193
 24
-27.78833588010835
 34
0.0
 50
180.0
  0
DIMENSION
  5
F7C
  8
DIM
  2
*D26
 10
22.58506942092193
 20
-41.24354092470341
 30
0.0
 11
20.22656942092193
 21
-41.24354092470341
 31
0.0
 70
    32
  1
E
  3
23NSTD
 13
17.86806942092193
 23
-37.13426502210835
 33
0.0
 14
22.58506942092193
 24
-37.13426502210835
 34
0.0
 50
180.0
  0
DIMENSION
  5
F89
  8
DIM
  2
*D27
 10
29.95704932915473
 20
-28.85626502210835
 30
0.0
 11
29.95704932915473
 21
-32.99526502210836
 31
0.0
 70
    32
  1
L
  3
23NSTD
 13
22.58506942092193
 23
-37.13426502210835
 33
0.0
 14
22.58506942092193
 24
-28.85626502210835
 34
0.0
 50
90.0
  0
DIMENSION
  5
F96
  8
DIM
  2
*D28
 10
23.55156942092193
 20
-25.60526502210835
 30
0.0
 11
20.22656942092193
 21
-25.60526502210835
 31
0.0
 70
    32
  1
B
  3
23NSTD
 13
16.90156942092193
 23
-27.80363510010794
 33
0.0
 14
23.55156942092193
 24
-27.80363510010794
 34
0.0
 50
180.0
  0
DIMENSION
  5
FA3
  8
DIM
  2
*D29
 10
14.56705139667833
 20
-27.76426502210835
 30
0.0
 11
14.56705139667833
 21
-32.99526502210835
 31
0.0
 70
    32
  1
H
  3
23NSTD
 13
16.94093949892198
 23
-38.22626502210834
 33
0.0
 14
16.94093949892198
 24
-27.76426502210835
 34
0.0
 50
90.0
  0
LINE
  5
FB0
  8
CENTER
 10
40.22252363569239
 20
-32.99526502210834
 30
0.0
 11
31.87240394370856
 21
-32.99526502210834
 31
0.0
  0
LINE
  5
FB1
  8
OBJECT
 10
32.06984225566919
 20
-37.00657997370847
 30
0.0
 11
32.06984225566919
 21
-36.04595007050823
 31
0.0
  0
LINE
  5
FB2
  8
OBJECT
 10
32.26669264566918
 20
-37.00657997370847
 30
0.0
 11
32.06984225566919
 21
-37.00657997370847
 31
0.0
  0
DIMENSION
  5
FB3
  8
DIM
  2
*D30
 10
41.25458059227529
 20
-27.69526502210835
 30
0.0
 11
41.25458059227529
 21
-32.99526502210835
 31
0.0
 70
    32
  1
R
  3
23NSTD
 13
42.24391293044141
 23
-38.29526502210835
 33
0.0
 14
42.24391293044141
 24
-27.69526502210835
 34
0.0
 50
90.0
  0
LINE
  5
FC0
  8
OBJECT
 10
43.4499048913512
 20
-28.97213904710842
 30
0.0
 11
43.4499048913512
 21
-29.95639099710824
 31
0.0
  0
LINE
  5
FC1
  8
OBJECT
 10
42.96553149149878
 20
-29.95639099710824
 30
0.0
 11
42.96553149149878
 21
-28.97213904710843
 31
0.0
  0
LINE
  5
FC2
  8
OBJECT
 10
42.67025590649866
 20
-28.97213904710842
 30
0.0
 11
42.67025590649866
 21
-29.95639099710824
 31
0.0
  0
LINE
  5
FC3
  8
OBJECT
 10
44.49945628017142
 20
-28.97213904710843
 30
0.0
 11
44.49945628017142
 21
-29.95639099710824
 31
0.0
  0
LINE
  5
FC4
  8
CENTER
 10
36.00419264566943
 20
-38.8998371987969
 30
0.0
 11
36.00419264566943
 21
-27.1070745306926
 31
0.0
  0
LINE
  5
FC5
  8
OBJECT
 10
39.86326343766952
 20
-28.97213904710843
 30
0.0
 11
39.86326343766952
 21
-29.95639099710824
 31
0.0
  0
LINE
  5
FC6
  8
OBJECT
 10
40.03042505741088
 20
-28.97213904710843
 30
0.0
 11
40.03042505741088
 21
-29.95639099710824
 31
0.0
  0
LINE
  5
FC7
  8
OBJECT
 10
39.5679878526694
 20
-29.95639099710824
 30
0.0
 11
39.5679878526694
 21
-28.97213904710843
 31
0.0
  0
LINE
  5
FC8
  8
OBJECT
 10
39.86326343766952
 20
-36.0341390471089
 30
0.0
 11
39.86326343766952
 21
-37.01839099710871
 31
0.0
  0
LINE
  5
FC9
  8
OBJECT
 10
40.03042505741088
 20
-36.0341390471089
 30
0.0
 11
40.03042505741088
 21
-37.01839099710871
 31
0.0
  0
LINE
  5
FCA
  8
OBJECT
 10
39.5679878526694
 20
-36.0341390471089
 30
0.0
 11
39.5679878526694
 21
-37.01839099710871
 31
0.0
  0
LINE
  5
FCB
  8
OBJECT
 10
39.86326343766952
 20
-37.01839099710871
 30
0.0
 11
39.86326343766952
 21
-37.33335162110909
 31
0.0
  0
LINE
  5
FCC
  8
OBJECT
 10
39.40419264566943
 20
-37.33335162110909
 30
0.0
 11
39.86326343766952
 21
-37.33335162110909
 31
0.0
  0
LINE
  5
FCD
  8
OBJECT
 10
39.40419264566943
 20
-37.01839099710871
 30
0.0
 11
40.03042505741088
 21
-37.01839099710871
 31
0.0
  0
LINE
  5
FCE
  8
OBJECT
 10
39.86326343766952
 20
-35.71917842310852
 30
0.0
 11
39.86326343766952
 21
-36.0341390471089
 31
0.0
  0
LINE
  5
FCF
  8
OBJECT
 10
39.40419264566943
 20
-35.71917842310852
 30
0.0
 11
39.86326343766952
 21
-35.71917842310852
 31
0.0
  0
LINE
  5
FD0
  8
OBJECT
 10
39.40419264566943
 20
-36.0341390471089
 30
0.0
 11
40.03042505741088
 21
-36.0341390471089
 31
0.0
  0
LINE
  5
FD1
  8
OBJECT
 10
39.40419264566943
 20
-30.27135162110862
 30
0.0
 11
39.93169264566943
 21
-30.27135162110862
 31
0.0
  0
LINE
  5
FD2
  8
OBJECT
 10
39.40419264566943
 20
-29.95639099710824
 30
0.0
 11
40.03042505741088
 21
-29.95639099710824
 31
0.0
  0
DIMENSION
  5
FD3
  8
DIM
  2
*D31
 10
47.59051565649958
 20
-34.87496219454947
 30
0.0
 11
50.28606253149958
 21
-34.87496219454947
 31
0.0
 70
    32
  3
23NSTD
 13
47.45751565649957
 23
-34.86714186206671
 33
0.0
 14
47.59051565649958
 24
-34.86714186206671
 34
0.0
  0
LINE
  5
FE0
  8
OBJECT
 10
42.63925590649868
 20
-29.95639099710824
 30
0.0
 11
44.49945628017142
 21
-29.95639099710824
 31
0.0
  0
LINE
  5
FE1
  8
OBJECT
 10
42.07601969749908
 20
-27.87218757415173
 30
0.0
 11
42.07601969749908
 21
-38.11834247006497
 31
0.0
  0
LINE
  5
FE2
  8
OBJECT
 10
42.91359352858555
 20
-38.37600326137034
 30
0.0
 11
42.24391293044141
 21
-38.29526502210835
 31
0.0
  0
ARC
  5
FE3
  8
OBJECT
 10
42.25318504849862
 20
-38.11834247006497
 30
0.0
 40
0.1771653509999993
 50
180.0
 51
266.9999999999987
  0
LINE
  5
FE4
  8
OBJECT
 10
43.26080707649891
 20
-38.51200517810867
 30
0.0
 11
43.10332676449872
 21
-38.50925634903751
 31
0.0
  0
LINE
  5
FE5
  8
OBJECT
 10
43.26080707649891
 20
-38.35452486610848
 30
0.0
 11
43.10332676449872
 21
-38.35727369517917
 31
0.0
  0
LINE
  5
FE6
  8
OBJECT
 10
43.10332676449872
 20
-38.35727369517917
 30
0.0
 11
43.10332676449872
 21
-38.50925634903751
 31
0.0
  0
LINE
  5
FE7
  8
OBJECT
 10
42.63925590649868
 20
-30.27135162110862
 30
0.0
 11
43.26080707649891
 21
-30.27135162110862
 31
0.0
  0
LINE
  5
FE8
  8
OBJECT
 10
42.63925590649868
 20
-30.27135162110862
 30
0.0
 11
42.63925590649868
 21
-29.95639099710824
 31
0.0
  0
LINE
  5
FE9
  8
OBJECT
 10
43.55608266149904
 20
-29.95639099710824
 30
0.0
 11
43.55608266149906
 21
-32.99526502210834
 31
0.0
  0
LINE
  5
FEA
  8
OBJECT
 10
42.96553149149878
 20
-32.99526502210833
 30
0.0
 11
42.96553149149878
 21
-30.27135162110862
 31
0.0
  0
LINE
  5
FEB
  8
OBJECT
 10
47.53584635849953
 20
-37.21484460710965
 30
0.0
 11
47.53584635849953
 21
-37.05368543710749
 31
0.0
  0
LINE
  5
FEC
  8
OBJECT
 10
47.19719994595432
 20
-37.21776502210835
 30
0.0
 11
47.19719994595432
 21
-37.05076502210834
 31
0.0
  0
LINE
  5
FED
  8
OBJECT
 10
47.17751565649957
 20
-37.2376218433001
 30
0.0
 11
47.19719994595432
 21
-37.21776502210835
 31
0.0
  0
LINE
  5
FEE
  8
OBJECT
 10
47.19719994595432
 20
-37.05076502210834
 30
0.0
 11
47.17751565649957
 21
-37.03090820091659
 31
0.0
  0
LINE
  5
FEF
  8
OBJECT
 10
47.19719994595432
 20
-37.21776502210835
 30
0.0
 11
47.53584635849953
 21
-37.21484460710965
 31
0.0
  0
LINE
  5
FF0
  8
OBJECT
 10
47.19719994595432
 20
-37.05076502210834
 30
0.0
 11
47.53584635849953
 21
-37.05368543710749
 31
0.0
  0
LINE
  5
FF1
  8
OBJECT
 10
39.40419264566943
 20
-28.65717842310805
 30
0.0
 11
39.93169264566943
 21
-28.65717842310805
 31
0.0
  0
LINE
  5
FF2
  8
OBJECT
 10
39.40419264566943
 20
-28.97213904710843
 30
0.0
 11
40.03042505741088
 21
-28.97213904710843
 31
0.0
  0
LINE
  5
FF3
  8
OBJECT
 10
42.63925590649865
 20
-28.97213904710842
 30
0.0
 11
44.49945628017142
 21
-28.97213904710843
 31
0.0
  0
DIMENSION
  5
FF4
  8
DIM
  2
*D32
 10
42.07601969749908
 20
-26.52709725942094
 30
0.0
 11
42.66841338699899
 21
-26.52709725942094
 31
0.0
 70
    32
  1
P
  3
23NSTDI
 13
43.26080707649891
 23
-27.35526502210834
 33
0.0
 14
42.07601969749908
 24
-27.87218757415218
 34
0.0
  0
LINE
  5
1001
  8
OBJECT
 10
42.63925590649868
 20
-28.65717842310805
 30
0.0
 11
43.26080707649891
 21
-28.65717842310805
 31
0.0
  0
LINE
  5
1002
  8
OBJECT
 10
42.63925590649868
 20
-28.65717842310805
 30
0.0
 11
42.63925590649865
 21
-28.97213904710842
 31
0.0
  0
LINE
  5
1003
  8
OBJECT
 10
43.26080707649894
 20
-28.97213904710843
 30
0.0
 11
43.26080707649891
 21
-27.35526502210834
 31
0.0
  0
LINE
  5
1004
  8
OBJECT
 10
42.96553149149878
 20
-28.65717842310805
 30
0.0
 11
42.96553149149878
 21
-27.43093109249428
 31
0.0
  0
LINE
  5
1005
  8
OBJECT
 10
43.55608266149904
 20
-27.43093109249428
 30
0.0
 11
43.55608266149904
 21
-28.97213904710842
 31
0.0
  0
DIMENSION
  5
1006
  8
DIM
  2
*D33
 10
52.88007476140615
 20
-27.67526502210835
 30
0.0
 11
52.88007476140615
 21
-32.99526502210835
 31
0.0
 70
    32
  1
S
  3
23NSTD
 13
47.59051565649958
 23
-38.31526502210834
 33
0.0
 14
47.59051565649958
 24
-27.67526502210835
 34
0.0
 50
90.0
  0
DIMENSION
  5
1013
  8
DIM
  2
*D34
 10
47.59051565649958
 20
-26.52709725942094
 30
0.0
 11
45.42566136649924
 21
-26.52709725942094
 31
0.0
 70
    32
  1
N
  3
23NSTD
 13
43.26080707649891
 23
-27.35526502210834
 33
0.0
 14
47.59051565649958
 24
-27.67526502210835
 34
0.0
  0
DIMENSION
  5
1020
  8
DIM
  2
*D35
 10
29.08204932915473
 20
-36.44626502210835
 30
0.0
 11
29.08204932915473
 21
-32.99526502210834
 31
0.0
 70
    32
  1
M
  3
23NSTD
 13
23.17656942092193
 23
-29.54426502210834
 33
0.0
 14
23.17656942092193
 24
-36.44626502210835
 34
0.0
 50
90.0
  0
DIMENSION
  5
103A
  8
DIM
  2
*D37
 10
23.17656942092193
 20
-42.11854092470341
 30
0.0
 11
20.22656942092193
 21
-42.11854092470341
 31
0.0
 70
    32
  1
D
  3
23NSTD
 13
17.27656942092193
 23
-36.44626502210835
 33
0.0
 14
23.17656942092193
 24
-36.44626502210835
 34
0.0
 50
180.0
  0
DIMENSION
  5
1047
  8
DIM
  2
*D38
 10
21.70556942092193
 20
-40.36854092470341
 30
0.0
 11
20.22656942092193
 21
-40.36854092470341
 31
0.0
 70
    32
  1
F
  3
23NSTD
 13
18.74756942092193
 23
-37.42526502210835
 33
0.0
 14
21.70556942092193
 24
-37.42526502210835
 34
0.0
 50
180.0
  0
DIMENSION
  5
1061
  8
DIM
  2
*D40
 10
30.83204932915473
 20
-28.56526502210835
 30
0.0
 11
30.83204932915473
 21
-32.99526502210835
 31
0.0
 70
    32
  1
K
  3
23NSTD
 13
21.70556942092193
 23
-37.42526502210835
 33
0.0
 14
21.70294734592165
 24
-28.56526502210835
 34
0.0
 50
90.0
  0
DIMENSION
  5
106E
  8
DIM
  2
*D41
 10
18.74756942092193
 20
-39.49354092470341
 30
0.0
 11
15.12178817092193
 21
-39.49354092470341
 31
0.0
 70
    32
  1
<> TYP.
  3
23NSTD
 13
19.73356942092193
 23
-37.42526502210835
 33
0.0
 14
18.74756942092193
 24
-37.42526502210835
 34
0.0
  0
DIMENSION
  5
107B
  8
DIM
  2
*D42
 10
26.45250950879325
 20
-30.53026502210835
 30
0.0
 11
26.45250950879325
 21
-30.03726502210835
 31
0.0
 70
    32
  1
<> TYP.
  3
23NSTDI
 13
23.17656942092193
 23
-29.54426502210834
 33
0.0
 14
23.17656942092193
 24
-30.53026502210835
 34
0.0
 50
90.0
  0
TEXT
  5
1088
  8
TEXT
 10
17.16734061662449
 20
-46.23585021271172
 30
0.0
 40
0.4368000000000001
  1
A
 41
0.75
  7
TXT
 72
     4
 11
17.27708661662449
 21
-46.01745021271172
 31
0.0
  0
TEXT
  5
1089
  8
TEXT
 10
16.70378661662449
 20
-47.71519380408152
 30
0.0
 40
0.4368000000000001
  1
[190]
 41
0.75
  7
TXT
 72
     4
 11
17.27708661662449
 21
-47.49679380408152
 31
0.0
  0
TEXT
  5
108A
  8
TEXT
 10
16.62188661662449
 20
-46.9674216441962
 30
0.0
 40
0.4368000000000001
  1
7.475
 41
0.75
  7
TXT
 72
     4
 11
17.27708661662449
 21
-46.7490216441962
 31
0.0
  0
TEXT
  5
108B
  8
TEXT
 10
18.74909186405174
 20
-47.71519380408152
 30
0.0
 40
0.4368000000000001
  1
[169]
 41
0.75
  7
TXT
 72
     4
 11
19.35023786405174
 21
-47.49679380408152
 31
0.0
  0
TEXT
  5
108C
  8
TEXT
 10
18.72288386405174
 20
-46.9674216441962
 30
0.0
 40
0.4368000000000001
  1
6.650
 41
0.75
  7
TXT
 72
     4
 11
19.35023786405174
 21
-46.7490216441962
 31
0.0
  0
TEXT
  5
108D
  8
TEXT
 10
19.24049186405174
 20
-46.23585021271172
 30
0.0
 40
0.4368000000000001
  1
B
 41
0.75
  7
TXT
 72
     4
 11
19.35023786405174
 21
-46.01745021271172
 31
0.0
  0
TEXT
  5
108E
  8
TEXT
 10
21.34990783325623
 20
-46.23585021271172
 30
0.0
 40
0.4368000000000001
  1
C
 41
0.75
  7
TXT
 72
     4
 11
21.45965383325623
 21
-46.01745021271172
 31
0.0
  0
TEXT
  5
108F
  8
TEXT
 10
20.85850783325623
 20
-47.71519380408152
 30
0.0
 40
0.4368000000000001
  1
[153]
 41
0.75
  7
TXT
 72
     4
 11
21.45965383325623
 21
-47.49679380408152
 31
0.0
  0
TEXT
  5
1090
  8
TEXT
 10
20.86014583325623
 20
-46.9674216441962
 30
0.0
 40
0.4368000000000001
  1
6.040
 41
0.75
  7
TXT
 72
     4
 11
21.45965383325623
 21
-46.7490216441962
 31
0.0
  0
TEXT
  5
1091
  8
TEXT
 10
23.43681569281983
 20
-46.23585021271172
 30
0.0
 40
0.4368000000000001
  1
D
 41
0.75
  7
TXT
 72
     4
 11
23.54656169281983
 21
-46.01745021271172
 31
0.0
  0
TEXT
  5
1092
  8
TEXT
 10
22.97326169281983
 20
-47.71519380408152
 30
0.0
 40
0.4368000000000001
  1
[150]
 41
0.75
  7
TXT
 72
     4
 11
23.54656169281983
 21
-47.49679380408152
 31
0.0
  0
TEXT
  5
1093
  8
TEXT
 10
22.94705369281983
 20
-46.9674216441962
 30
0.0
 40
0.4368000000000001
  1
5.900
 41
0.75
  7
TXT
 72
     4
 11
23.54656169281983
 21
-46.7490216441962
 31
0.0
  0
TEXT
  5
1094
  8
TEXT
 10
25.53748060519629
 20
-46.23585021271172
 30
0.0
 40
0.4368000000000001
  1
E
 41
0.75
  7
TXT
 72
     4
 11
25.64722660519629
 21
-46.01745021271172
 31
0.0
  0
TEXT
  5
1095
  8
TEXT
 10
25.07392660519629
 20
-47.71519380408152
 30
0.0
 40
0.4368000000000001
  1
[120]
 41
0.75
  7
TXT
 72
     4
 11
25.64722660519629
 21
-47.49679380408152
 31
0.0
  0
TEXT
  5
1096
  8
TEXT
 10
25.04608060519629
 20
-46.9674216441962
 30
0.0
 40
0.4368000000000001
  1
4.717
 41
0.75
  7
TXT
 72
     4
 11
25.64722660519629
 21
-46.7490216441962
 31
0.0
  0
TEXT
  5
1097
  8
TEXT
 10
27.67722747587401
 20
-46.23585021271172
 30
0.0
 40
0.4368000000000001
  1
F
 41
0.75
  7
TXT
 72
     4
 11
27.78697347587401
 21
-46.01745021271172
 31
0.0
  0
TEXT
  5
1098
  8
TEXT
 10
27.29557347587401
 20
-47.71519380408152
 30
0.0
 40
0.4368000000000001
  1
[75]
 41
0.75
  7
TXT
 72
     4
 11
27.78697347587401
 21
-47.49679380408152
 31
0.0
  0
TEXT
  5
1099
  8
TEXT
 10
27.15961947587401
 20
-46.9674216441962
 30
0.0
 40
0.4368000000000001
  1
2.960
 41
0.75
  7
TXT
 72
     4
 11
27.78697347587401
 21
-46.7490216441962
 31
0.0
  0
TEXT
  5
109A
  8
TEXT
 10
29.74556047864696
 20
-46.23585021271172
 30
0.0
 40
0.4368000000000001
  1
G
 41
0.75
  7
TXT
 72
     4
 11
29.85530647864696
 21
-46.01745021271172
 31
0.0
  0
TEXT
  5
109B
  8
TEXT
 10
29.20010647864696
 20
-47.71519380408152
 30
0.0
 40
0.4368000000000001
  1
[287]
 41
0.75
  7
TXT
 72
     4
 11
29.85530647864696
 21
-47.49679380408152
 31
0.0
  0
TEXT
  5
109C
  8
TEXT
 10
29.17226047864696
 20
-46.9674216441962
 30
0.0
 40
0.4368000000000001
  1
11.280
 41
0.75
  7
TXT
 72
     4
 11
29.85530647864696
 21
-46.7490216441962
 31
0.0
  0
TEXT
  5
109D
  8
TEXT
 10
31.82836937398475
 20
-46.23585021271172
 30
0.0
 40
0.4368000000000001
  1
H
 41
0.75
  7
TXT
 72
     4
 11
31.93811537398475
 21
-46.01745021271172
 31
0.0
  0
TEXT
  5
109E
  8
TEXT
 10
31.31220115707693
 20
-47.71519380408152
 30
0.0
 40
0.4368000000000016
  1
[266]
 41
0.75
  7
TXT
 72
     4
 11
31.96740115707694
 21
-47.49679380408152
 31
0.0
  0
TEXT
  5
109F
  8
TEXT
 10
31.23030115707694
 20
-46.9674216441962
 30
0.0
 40
0.4368000000000001
  1
10.462
 41
0.75
  7
TXT
 72
     4
 11
31.96740115707694
 21
-46.7490216441962
 31
0.0
  0
TEXT
  5
10A0
  8
TEXT
 10
33.96874668605579
 20
-46.23585021271172
 30
0.0
 40
0.4368000000000001
  1
J
 41
0.75
  7
TXT
 72
     4
 11
34.07849268605579
 21
-46.01745021271172
 31
0.0
  0
TEXT
  5
10A1
  8
TEXT
 10
33.47734668605579
 20
-47.71519380408152
 30
0.0
 40
0.4368000000000001
  1
[251]
 41
0.75
  7
TXT
 72
     4
 11
34.07849268605579
 21
-47.49679380408152
 31
0.0
  0
TEXT
  5
10A2
  8
TEXT
 10
33.42329268605579
 20
-46.9674216441962
 30
0.0
 40
0.4368000000000001
  1
9.875
 41
0.75
  7
TXT
 72
     4
 11
34.07849268605579
 21
-46.7490216441962
 31
0.0
  0
TEXT
  5
10A3
  8
TEXT
 10
36.07925597440399
 20
-46.23585021271172
 30
0.0
 40
0.4368000000000001
  1
K
 41
0.75
  7
TXT
 72
     4
 11
36.18900197440399
 21
-46.01745021271172
 31
0.0
  0
TEXT
  5
10A4
  8
TEXT
 10
35.53380197440399
 20
-47.71519380408152
 30
0.0
 40
0.4368000000000001
  1
[225]
 41
0.75
  7
TXT
 72
     4
 11
36.18900197440399
 21
-47.49679380408152
 31
0.0
  0
TEXT
  5
10A5
  8
TEXT
 10
35.561647974404
 20
-46.9674216441962
 30
0.0
 40
0.4368000000000001
  1
8.860
 41
0.75
  7
TXT
 72
     4
 11
36.18900197440399
 21
-46.7490216441962
 31
0.0
  0
TEXT
  5
10A6
  8
TEXT
 10
38.17773316551598
 20
-46.23585021271172
 30
0.0
 40
0.4368000000000001
  1
L
 41
0.75
  7
TXT
 72
     4
 11
38.28747916551598
 21
-46.01745021271172
 31
0.0
  0
TEXT
  5
10A7
  8
TEXT
 10
37.71417916551598
 20
-47.71519380408152
 30
0.0
 40
0.4368000000000001
  1
[210]
 41
0.75
  7
TXT
 72
     4
 11
38.28747916551598
 21
-47.49679380408152
 31
0.0
  0
TEXT
  5
10A8
  8
TEXT
 10
37.63227916551598
 20
-46.9674216441962
 30
0.0
 40
0.4368000000000001
  1
8.278
 41
0.75
  7
TXT
 72
     4
 11
38.28747916551598
 21
-46.7490216441962
 31
0.0
  0
TEXT
  5
10A9
  8
TEXT
 10
40.2899669687644
 20
-46.23585021271172
 30
0.0
 40
0.4368000000000001
  1
M
 41
0.75
  7
TXT
 72
     4
 11
40.3997129687644
 21
-46.01745021271172
 31
0.0
  0
TEXT
  5
10AA
  8
TEXT
 10
39.7985669687644
 20
-47.71519380408152
 30
0.0
 40
0.4368000000000001
  1
[175]
 41
0.75
  7
TXT
 72
     4
 11
40.3997129687644
 21
-47.49679380408152
 31
0.0
  0
TEXT
  5
10AB
  8
TEXT
 10
39.7723589687644
 20
-46.9674216441962
 30
0.0
 40
0.4368000000000001
  1
6.902
 41
0.75
  7
TXT
 72
     4
 11
40.3997129687644
 21
-46.7490216441962
 31
0.0
  0
TEXT
  5
10AC
  8
TEXT
 10
42.37405683744067
 20
-46.23585021271172
 30
0.0
 40
0.4368000000000001
  1
N
 41
0.75
  7
TXT
 72
     4
 11
42.48380283744067
 21
-46.01745021271172
 31
0.0
  0
TEXT
  5
10AD
  8
TEXT
 10
41.96455683744067
 20
-47.71519380408152
 30
0.0
 40
0.4368000000000001
  1
[110]
 41
0.75
  7
TXT
 72
     4
 11
42.48380283744067
 21
-47.49679380408152
 31
0.0
  0
TEXT
  5
10AE
  8
TEXT
 10
41.85644883744067
 20
-46.9674216441962
 30
0.0
 40
0.4368000000000001
  1
4.330
 41
0.75
  7
TXT
 72
     4
 11
42.48380283744067
 21
-46.7490216441962
 31
0.0
  0
TEXT
  5
10AF
  8
TEXT
 10
44.47909689358602
 20
-46.23585021271172
 30
0.0
 40
0.4368000000000001
  1
P
 41
0.75
  7
TXT
 72
     4
 11
44.58884289358602
 21
-46.01745021271172
 31
0.0
  0
TEXT
  5
10B0
  8
TEXT
 10
44.12528889358602
 20
-47.71519380408152
 30
0.0
 40
0.4368000000000001
  1
[30]
 41
0.75
  7
TXT
 72
     4
 11
44.58884289358602
 21
-47.49679380408152
 31
0.0
  0
TEXT
  5
10B1
  8
TEXT
 10
44.04175089358602
 20
-46.9674216441962
 30
0.0
 40
0.4368000000000001
  1
1.185
 41
0.75
  7
TXT
 72
     4
 11
44.58884289358602
 21
-46.7490216441962
 31
0.0
  0
TEXT
  5
10B2
  8
TEXT
 10
46.54286712824912
 20
-46.23585021271172
 30
0.0
 40
0.4368000000000001
  1
R
 41
0.75
  7
TXT
 72
     4
 11
46.65261312824912
 21
-46.01745021271172
 31
0.0
  0
TEXT
  5
10B3
  8
TEXT
 10
45.99741312824912
 20
-47.71519380408152
 30
0.0
 40
0.4368000000000001
  1
[269]
 41
0.75
  7
TXT
 72
     4
 11
46.65261312824912
 21
-47.49679380408152
 31
0.0
  0
TEXT
  5
10B4
  8
TEXT
 10
45.97120512824912
 20
-46.9674216441962
 30
0.0
 40
0.4368000000000001
  1
10.600
 41
0.75
  7
TXT
 72
     4
 11
46.65261312824912
 21
-46.7490216441962
 31
0.0
  0
TEXT
  5
10B5
  8
TEXT
 10
48.67933248798851
 20
-46.23585021271172
 30
0.0
 40
0.4368000000000001
  1
S
 41
0.75
  7
TXT
 72
     4
 11
48.78907848798851
 21
-46.01745021271172
 31
0.0
  0
TEXT
  5
10B6
  8
TEXT
 10
48.16172448798851
 20
-47.71519380408152
 30
0.0
 40
0.4368000000000001
  1
[270]
 41
0.75
  7
TXT
 72
     4
 11
48.78907848798851
 21
-47.49679380408152
 31
0.0
  0
TEXT
  5
10B7
  8
TEXT
 10
48.07982448798851
 20
-46.9674216441962
 30
0.0
 40
0.4368000000000001
  1
10.640
 41
0.75
  7
TXT
 72
     4
 11
48.78907848798851
 21
-46.7490216441962
 31
0.0
  0
TEXT
  5
10B8
  8
TEXT
 10
50.78109119003891
 20
-46.23585021271172
 30
0.0
 40
0.4368000000000001
  1
T
 41
0.75
  7
TXT
 72
     4
 11
50.89083719003891
 21
-46.01745021271172
 31
0.0
  0
TEXT
  5
10B9
  8
TEXT
 10
50.28969119003891
 20
-47.71519380408152
 30
0.0
 40
0.4368000000000001
  1
[173]
 41
0.75
  7
TXT
 72
     4
 11
50.89083719003891
 21
-47.49679380408152
 31
0.0
  0
TEXT
  5
10BA
  8
TEXT
 10
50.29132919003891
 20
-46.9674216441962
 30
0.0
 40
0.4368000000000001
  1
6.800
 41
0.75
  7
TXT
 72
     4
 11
50.89083719003891
 21
-46.7490216441962
 31
0.0
  0
TEXT
  5
10BB
  8
TEXT
 10
52.89223091978034
 20
-46.23585021271172
 30
0.0
 40
0.4368000000000001
  1
U
 41
0.75
  7
TXT
 72
     4
 11
53.00197691978034
 21
-46.01745021271172
 31
0.0
  0
TEXT
  5
10BC
  8
TEXT
 10
52.40083091978034
 20
-47.71519380408152
 30
0.0
 40
0.4368000000000001
  1
[175]
 41
0.75
  7
TXT
 72
     4
 11
53.00197691978034
 21
-47.49679380408152
 31
0.0
  0
TEXT
  5
10BD
  8
TEXT
 10
52.37462291978034
 20
-46.9674216441962
 30
0.0
 40
0.4368000000000001
  1
6.840
 41
0.75
  7
TXT
 72
     4
 11
53.00197691978034
 21
-46.7490216441962
 31
0.0
  0
POLYLINE
  5
10BE
  8
DIM
 66
     1
 10
0.0
 20
0.0
 30
0.0
  0
VERTEX
  5
18E5
  8
DIM
 10
22.8284128876111
 20
-28.7031630716972
 30
0.0
 41
0.23625
  0
VERTEX
  5
18E6
  8
DIM
 10
23.0390801517737
 20
-28.26599099929941
 30
0.0
  0
VERTEX
  5
18E7
  8
DIM
 10
24.48033904813842
 20
-23.75475833040567
 30
0.0
  0
VERTEX
  5
18E8
  8
DIM
 10
25.08008109667867
 20
-23.74497422492551
 30
0.0
  0
SEQEND
  5
18E9
  8
DIM
  0
TEXT
  5
10BF
  8
DIM
 10
25.36228114309047
 20
-23.95912800838747
 30
0.0
 40
0.4356382978500001
  1
0.575 [15] DIA. BOSS
 41
0.75
  7
TXT
 11
25.36228114309047
 21
-23.74130885946247
 31
0.0
 73
     2
  0
TEXT
  5
10C0
  8
DIM
 10
25.39374067113068
 20
-25.41223635882028
 30
0.0
 40
0.4356382978500001
  1
WITH M5 x 0.8mm
 41
0.75
  7
TXT
 11
25.39374067113068
 21
-25.19441720989528
 31
0.0
 73
     2
  0
TEXT
  5
10C1
  8
DIM
 10
25.39374067113068
 20
-26.13839695438644
 30
0.0
 40
0.4356382978500001
  1
THREADED BRASS INSERT
 41
0.75
  7
TXT
 11
25.39374067113068
 21
-25.92057780546144
 31
0.0
 73
     2
  0
CIRCLE
  5
10C2
  8
OBJECT
 10
23.17656942092193
 20
-32.50226502210835
 30
0.0
 40
0.2220000000000013
  0
CIRCLE
  5
10C3
  8
OBJECT
 10
23.17656942092193
 20
-32.50226502210835
 30
0.0
 40
0.0850000000000009
  0
CIRCLE
  5
10C4
  8
OBJECT
 10
23.17656942092193
 20
-33.48826502210834
 30
0.0
 40
0.2220000000000013
  0
CIRCLE
  5
10C5
  8
OBJECT
 10
23.17656942092193
 20
-33.48826502210834
 30
0.0
 40
0.0850000000000009
  0
CIRCLE
  5
10C6
  8
OBJECT
 10
23.17656942092193
 20
-34.47426502210836
 30
0.0
 40
0.2220000000000013
  0
CIRCLE
  5
10C7
  8
OBJECT
 10
23.17656942092193
 20
-34.47426502210836
 30
0.0
 40
0.0850000000000009
  0
CIRCLE
  5
10C8
  8
OBJECT
 10
23.17656942092193
 20
-36.44626502210835
 30
0.0
 40
0.2220000000000013
  0
CIRCLE
  5
10C9
  8
OBJECT
 10
23.17656942092193
 20
-35.46026502210835
 30
0.0
 40
0.2220000000000013
  0
CIRCLE
  5
10CA
  8
OBJECT
 10
23.17656942092193
 20
-35.46026502210835
 30
0.0
 40
0.0850000000000009
  0
CIRCLE
  5
10CB
  8
OBJECT
 10
23.17656942092193
 20
-36.44626502210835
 30
0.0
 40
0.0850000000000009
  0
POLYLINE
  5
10CC
  8
DIM
 66
     1
 10
0.0
 20
0.0
 30
0.0
  0
VERTEX
  5
18EA
  8
DIM
 10
21.85329479525287
 20
-37.59097927550492
 30
0.0
 41
0.23625
  0
VERTEX
  5
18EB
  8
DIM
 10
22.37896136518136
 20
-37.93821789268283
 30
0.0
  0
VERTEX
  5
18EC
  8
DIM
 10
24.00149652692643
 20
-39.01001301551809
 30
0.0
  0
VERTEX
  5
18ED
  8
DIM
 10
24.62881567583043
 20
-39.01001301551809
 30
0.0
  0
SEQEND
  5
18EE
  8
DIM
  0
TEXT
  5
10CD
  8
DIM
 10
24.9174263024701
 20
-41.40857334939038
 30
0.0
 40
0.4356382978500001
  1
x 0.315 [8] DEEP (24) PLACES
 41
0.75
  7
TXT
 11
24.9174263024701
 21
-41.19075420046538
 31
0.0
 73
     2
  0
TEXT
  5
10CE
  8
DIM
 10
24.94247525028244
 20
-39.22783216444309
 30
0.0
 40
0.4356382978500001
  1
0.444 [11] DIA. BOSS
 41
0.75
  7
TXT
 11
24.94247525028244
 21
-39.01001301551809
 31
0.0
 73
     2
  0
TEXT
  5
10CF
  8
DIM
 10
24.9174263024701
 20
-40.69128392300906
 30
0.0
 40
0.4356382978500001
  1
WITH 0.170 [4] DIA. HOLE
 41
0.75
  7
TXT
 11
24.9174263024701
 21
-40.47346477408406
 31
0.0
 73
     2
  0
TEXT
  5
10D0
  8
DIM
 10
24.9174263024701
 20
-42.15089238688745
 30
0.0
 40
0.4356382978500001
  1
BOSSES ACCEPT M5 METRIC OR
 41
0.75
  7
TXT
 11
24.9174263024701
 21
-41.93307323796245
 31
0.0
 73
     2
  0
CIRCLE
  5
10D1
  8
OBJECT
 10
17.27656942092193
 20
-36.44626502210835
 30
0.0
 40
0.0850000000000009
  0
CIRCLE
  5
10D2
  8
OBJECT
 10
17.27656942092193
 20
-35.46026502210835
 30
0.0
 40
0.2220000000000013
  0
CIRCLE
  5
10D3
  8
OBJECT
 10
17.27656942092193
 20
-35.46026502210835
 30
0.0
 40
0.0850000000000009
  0
CIRCLE
  5
10D4
  8
OBJECT
 10
17.27656942092193
 20
-34.47426502210836
 30
0.0
 40
0.0850000000000009
  0
CIRCLE
  5
10D5
  8
OBJECT
 10
17.27656942092193
 20
-34.47426502210836
 30
0.0
 40
0.2220000000000013
  0
CIRCLE
  5
10D6
  8
OBJECT
 10
17.27656942092193
 20
-33.48826502210834
 30
0.0
 40
0.0850000000000009
  0
CIRCLE
  5
10D7
  8
OBJECT
 10
17.27656942092193
 20
-33.48826502210834
 30
0.0
 40
0.2220000000000013
  0
CIRCLE
  5
10D8
  8
OBJECT
 10
17.27656942092193
 20
-32.50226502210835
 30
0.0
 40
0.0850000000000009
  0
CIRCLE
  5
10D9
  8
OBJECT
 10
17.27656942092193
 20
-32.50226502210835
 30
0.0
 40
0.2220000000000013
  0
CIRCLE
  5
10DA
  8
OBJECT
 10
17.27656942092193
 20
-31.51626502210835
 30
0.0
 40
0.0850000000000009
  0
CIRCLE
  5
10DB
  8
OBJECT
 10
17.27656942092193
 20
-31.51626502210835
 30
0.0
 40
0.2220000000000013
  0
CIRCLE
  5
10DC
  8
OBJECT
 10
17.27656942092193
 20
-29.54426502210834
 30
0.0
 40
0.2220000000000013
  0
LINE
  5
10DD
  8
OBJECT
 10
17.31159697942183
 20
-36.22704579360516
 30
0.0
 11
17.31159697942183
 21
-35.67948425061154
 31
0.0
  0
LINE
  5
10DE
  8
OBJECT
 10
17.24154186242201
 20
-36.22704579360517
 30
0.0
 11
17.24154186242201
 21
-35.67948425061154
 31
0.0
  0
CIRCLE
  5
10DF
  8
OBJECT
 10
17.27656942092193
 20
-30.53026502210835
 30
0.0
 40
0.0850000000000009
  0
CIRCLE
  5
10E0
  8
OBJECT
 10
17.27656942092193
 20
-30.53026502210835
 30
0.0
 40
0.2220000000000013
  0
CIRCLE
  5
10E1
  8
OBJECT
 10
17.27656942092193
 20
-29.54426502210834
 30
0.0
 40
0.0850000000000009
  0
CIRCLE
  5
10E2
  8
OBJECT
 10
17.27656942092193
 20
-36.44626502210835
 30
0.0
 40
0.2220000000000013
  0
LINE
  5
10E3
  8
OBJECT
 10
21.4863501924187
 20
-28.53023746360888
 30
0.0
 11
20.93878864942519
 21
-28.53023746360888
 31
0.0
  0
LINE
  5
10E4
  8
OBJECT
 10
21.48635019241884
 20
-28.60029258060873
 30
0.0
 11
20.93878864942505
 21
-28.60029258060873
 31
0.0
  0
CIRCLE
  5
10E5
  8
OBJECT
 10
18.74756942092193
 20
-28.56526502210835
 30
0.0
 40
0.0850000000000009
  0
CIRCLE
  5
10E6
  8
OBJECT
 10
18.74756942092193
 20
-28.56526502210835
 30
0.0
 40
0.2220000000000013
  0
CIRCLE
  5
10E7
  8
OBJECT
 10
20.71956942092193
 20
-28.56526502210835
 30
0.0
 40
0.2220000000000013
  0
CIRCLE
  5
10E8
  8
OBJECT
 10
19.73356942092193
 20
-28.56526502210835
 30
0.0
 40
0.0850000000000009
  0
CIRCLE
  5
10E9
  8
OBJECT
 10
19.73356942092193
 20
-28.56526502210835
 30
0.0
 40
0.2220000000000013
  0
CIRCLE
  5
10EA
  8
OBJECT
 10
21.70556942092193
 20
-28.56526502210835
 30
0.0
 40
0.0850000000000009
  0
CIRCLE
  5
10EB
  8
OBJECT
 10
20.71956942092193
 20
-28.56526502210835
 30
0.0
 40
0.0850000000000009
  0
CIRCLE
  5
10EC
  8
OBJECT
 10
21.70556942092193
 20
-28.56526502210835
 30
0.0
 40
0.2220000000000013
  0
POLYLINE
  5
10F1
  8
OBJECT
 66
     1
 10
0.0
 20
0.0
 30
0.0
 70
     1
  0
VERTEX
  5
18EF
  8
OBJECT
 10
23.70904973292188
 20
-27.80363510010794
 30
0.0
 42
0.4142135623730951
  0
VERTEX
  5
18F0
  8
OBJECT
 10
23.51219934292188
 20
-27.60678471010816
 30
0.0
  0
VERTEX
  5
18F1
  8
OBJECT
 10
16.94093949892198
 20
-27.60678471010794
 30
0.0
 42
0.4142135623730948
  0
VERTEX
  5
18F2
  8
OBJECT
 10
16.74408910892174
 20
-27.80363510010794
 30
0.0
  0
VERTEX
  5
18F3
  8
OBJECT
 10
16.74408910892174
 20
-38.18689494410784
 30
0.0
 42
0.4142135623730951
  0
VERTEX
  5
18F4
  8
OBJECT
 10
16.94093949892198
 20
-38.38374533410784
 30
0.0
  0
VERTEX
  5
18F5
  8
OBJECT
 10
23.51219934292188
 20
-38.38374533410762
 30
0.0
 42
0.4142135623730951
  0
VERTEX
  5
18F6
  8
OBJECT
 10
23.70904973292188
 20
-38.18689494410784
 30
0.0
  0
SEQEND
  5
18F7
  8
OBJECT
  0
POLYLINE
  5
10F2
  8
OBJECT
 66
     1
 10
0.0
 20
0.0
 30
0.0
 70
     1
  0
VERTEX
  5
18F8
  8
OBJECT
 10
16.94093949892198
 20
-27.76426502210794
 30
0.0
 42
0.4142135623730948
  0
VERTEX
  5
18F9
  8
OBJECT
 10
16.90156942092193
 20
-27.80363510010794
 30
0.0
  0
VERTEX
  5
18FA
  8
OBJECT
 10
16.90156942092198
 20
-38.18689494410784
 30
0.0
 42
0.4142135623730951
  0
VERTEX
  5
18FB
  8
OBJECT
 10
16.94093949892198
 20
-38.22626502210834
 30
0.0
  0
VERTEX
  5
18FC
  8
OBJECT
 10
23.51219934292188
 20
-38.22626502210834
 30
0.0
 42
0.4142135623730951
  0
VERTEX
  5
18FD
  8
OBJECT
 10
23.55156942092188
 20
-38.18689494410784
 30
0.0
  0
VERTEX
  5
18FE
  8
OBJECT
 10
23.55156942092194
 20
-27.80363510010794
 30
0.0
 42
0.4142135623730951
  0
VERTEX
  5
18FF
  8
OBJECT
 10
23.51219934292188
 20
-27.76426502210794
 30
0.0
  0
SEQEND
  5
1900
  8
OBJECT
  0
LINE
  5
10F3
  8
OBJECT
 10
47.65088648404466
 20
-37.84926502210834
 30
0.0
 11
47.31224007149941
 21
-37.85218543710749
 31
0.0
  0
LINE
  5
10F4
  8
OBJECT
 10
47.65088648404466
 20
-37.84926502210834
 30
0.0
 11
47.67057077349941
 21
-37.8294082009166
 31
0.0
  0
LINE
  5
10F5
  8
OBJECT
 10
47.65088648404466
 20
-38.01626502210834
 30
0.0
 11
47.65088648404466
 21
-37.84926502210834
 31
0.0
  0
LINE
  5
10F6
  8
OBJECT
 10
47.31224007149945
 20
-38.01334460710964
 30
0.0
 11
47.31224007149941
 21
-37.85218543710749
 31
0.0
  0
LINE
  5
10F7
  8
OBJECT
 10
47.65088648404466
 20
-38.01626502210834
 30
0.0
 11
47.31224007149945
 21
-38.01334460710964
 31
0.0
  0
LINE
  5
10F8
  8
OBJECT
 10
47.67057077349941
 20
-38.03612184330009
 30
0.0
 11
47.65088648404466
 21
-38.01626502210834
 31
0.0
  0
ARC
  5
10F9
  8
OBJECT
 10
47.19720069549979
 20
-37.61861748801091
 30
0.0
 40
0.0196850390000023
 50
180.0
 51
268.0000000000013
  0
LINE
  5
10FA
  8
OBJECT
 10
47.19651369754641
 20
-37.63829053541674
 30
0.0
 11
47.45751565649957
 21
-37.64726502210835
 31
0.0
  0
LINE
  5
10FB
  8
OBJECT
 10
47.17751565649982
 20
-37.39311748801092
 30
0.0
 11
47.17751565649979
 21
-37.61861748801091
 31
0.0
  0
POLYLINE
  5
10FC
  8
OBJECT
 66
     1
 10
0.0
 20
0.0
 30
0.0
  0
VERTEX
  5
1901
  8
OBJECT
 10
43.26080707649891
 20
-38.22626502210834
 30
0.0
  0
VERTEX
  5
1902
  8
OBJECT
 10
47.17751565649957
 20
-38.18645738704148
 30
0.0
  0
VERTEX
  5
1903
  8
OBJECT
 10
47.17751565649982
 20
-37.71391255620624
 30
0.0
 42
-0.4040262258351634
  0
VERTEX
  5
1904
  8
OBJECT
 10
47.19651369754644
 20
-37.69423950879995
 30
0.0
  0
VERTEX
  5
1905
  8
OBJECT
 10
47.45751565649957
 20
-37.68526502210835
 30
0.0
  0
VERTEX
  5
1906
  8
OBJECT
 10
47.45751565649957
 20
-37.42176502210835
 30
0.0
  0
VERTEX
  5
1907
  8
OBJECT
 10
47.19651369754644
 20
-37.41279053541674
 30
0.0
 42
-0.4040262258351634
  0
VERTEX
  5
1908
  8
OBJECT
 10
47.17751565649982
 20
-37.39311748801092
 30
0.0
  0
VERTEX
  5
1909
  8
OBJECT
 10
47.17751565649982
 20
-36.87541255620623
 30
0.0
 42
-0.4040262258351634
  0
VERTEX
  5
190A
  8
OBJECT
 10
47.19651369754644
 20
-36.85573950879995
 30
0.0
  0
VERTEX
  5
190B
  8
OBJECT
 10
47.45751565649957
 20
-36.84676502210834
 30
0.0
  0
VERTEX
  5
190C
  8
OBJECT
 10
47.45751565649957
 20
-36.66826502210836
 30
0.0
  0
VERTEX
  5
190D
  8
OBJECT
 10
47.19651369754616
 20
-36.65929053541702
 30
0.0
 42
-0.4040262258351634
  0
VERTEX
  5
190E
  8
OBJECT
 10
47.17751565649957
 20
-36.63961748801091
 30
0.0
  0
VERTEX
  5
190F
  8
OBJECT
 10
47.17751565649982
 20
-36.25291255620624
 30
0.0
 42
-0.4040262258351634
  0
VERTEX
  5
1910
  8
OBJECT
 10
47.19651369754644
 20
-36.23323950879995
 30
0.0
  0
VERTEX
  5
1911
  8
OBJECT
 10
47.45751565649957
 20
-36.22426502210836
 30
0.0
  0
VERTEX
  5
1912
  8
OBJECT
 10
47.45751565649957
 20
-35.68226502210835
 30
0.0
  0
VERTEX
  5
1913
  8
OBJECT
 10
47.19651369754616
 20
-35.67329053541702
 30
0.0
 42
-0.4040262258351634
  0
VERTEX
  5
1914
  8
OBJECT
 10
47.17751565649957
 20
-35.65361748801091
 30
0.0
  0
VERTEX
  5
1915
  8
OBJECT
 10
47.17751565649982
 20
-35.26691255620624
 30
0.0
 42
-0.4040262258351634
  0
VERTEX
  5
1916
  8
OBJECT
 10
47.19651369754644
 20
-35.24723950879995
 30
0.0
  0
VERTEX
  5
1917
  8
OBJECT
 10
47.45751565649957
 20
-35.23826502210834
 30
0.0
  0
VERTEX
  5
1918
  8
OBJECT
 10
47.45751565649957
 20
-34.69626502210835
 30
0.0
  0
VERTEX
  5
1919
  8
OBJECT
 10
47.19651369754616
 20
-34.68729053541702
 30
0.0
 42
-0.4040262258351634
  0
VERTEX
  5
191A
  8
OBJECT
 10
47.17751565649957
 20
-34.66761748801091
 30
0.0
  0
VERTEX
  5
191B
  8
OBJECT
 10
47.17751565649982
 20
-34.28091255620625
 30
0.0
 42
-0.4040262258351634
  0
VERTEX
  5
191C
  8
OBJECT
 10
47.19651369754644
 20
-34.26123950879995
 30
0.0
  0
VERTEX
  5
191D
  8
OBJECT
 10
47.45751565649957
 20
-34.25226502210835
 30
0.0
  0
VERTEX
  5
191E
  8
OBJECT
 10
47.45751565649957
 20
-33.71026502210835
 30
0.0
  0
VERTEX
  5
191F
  8
OBJECT
 10
47.19651369754616
 20
-33.70129053541702
 30
0.0
 42
-0.4040262258351634
  0
VERTEX
  5
1920
  8
OBJECT
 10
47.17751565649957
 20
-33.68161748801091
 30
0.0
  0
VERTEX
  5
1921
  8
OBJECT
 10
47.17751565649982
 20
-33.29491255620623
 30
0.0
 42
-0.4040262258351634
  0
VERTEX
  5
1922
  8
OBJECT
 10
47.19651369754644
 20
-33.27523950879996
 30
0.0
  0
VERTEX
  5
1923
  8
OBJECT
 10
47.45751565649957
 20
-33.26626502210834
 30
0.0
  0
VERTEX
  5
1924
  8
OBJECT
 10
47.45751565649957
 20
-32.99526502210834
 30
0.0
  0
SEQEND
  5
1925
  8
OBJECT
  0
LINE
  5
10FD
  8
OBJECT
 10
32.26669264566899
 20
-36.04595007050915
 30
0.0
 11
32.06984225566919
 21
-36.04595007050915
 31
0.0
  0
POLYLINE
  5
10FE
  8
OBJECT
 66
     1
 10
0.0
 20
0.0
 30
0.0
  0
VERTEX
  5
1926
  8
OBJECT
 10
32.2666926456693
 20
-35.39456739230531
 30
0.0
 42
-0.2415313610589563
  0
VERTEX
  5
1927
  8
OBJECT
 10
32.06984225566919
 20
-35.77829944591047
 30
0.0
  0
VERTEX
  5
1928
  8
OBJECT
 10
32.06984225566919
 20
-36.03413904710845
 30
0.0
  0
VERTEX
  5
1929
  8
OBJECT
 10
32.26669264566933
 20
-36.03413904710845
 30
0.0
  0
SEQEND
  5
192A
  8
OBJECT
  0
POLYLINE
  5
10FF
  8
OBJECT
 66
     1
 10
0.0
 20
0.0
 30
0.0
  0
VERTEX
  5
192B
  8
OBJECT
 10
32.2666926456693
 20
-30.5959626519114
 30
0.0
 42
0.2415313610589563
  0
VERTEX
  5
192C
  8
OBJECT
 10
32.06984225566919
 20
-30.21223059830622
 30
0.0
  0
VERTEX
  5
192D
  8
OBJECT
 10
32.06984225566919
 20
-29.95639099710825
 30
0.0
  0
VERTEX
  5
192E
  8
OBJECT
 10
32.26669264566933
 20
-29.95639099710825
 30
0.0
  0
SEQEND
  5
192F
  8
OBJECT
  0
LINE
  5
1100
  8
OBJECT
 10
32.06984225566919
 20
-28.98395007050823
 30
0.0
 11
32.06984225566919
 21
-29.94457997370847
 31
0.0
  0
LINE
  5
1101
  8
OBJECT
 10
32.26669264566941
 20
-28.98395007050823
 30
0.0
 11
32.06984225566919
 21
-28.98395007050823
 31
0.0
  0
LINE
  5
1102
  8
OBJECT
 10
32.26669264566938
 20
-29.94457997370754
 30
0.0
 11
32.06984225566919
 21
-29.94457997370754
 31
0.0
  0
POLYLINE
  5
1103
  8
OBJECT
 66
     1
 10
0.0
 20
0.0
 30
0.0
  0
VERTEX
  5
1930
  8
OBJECT
 10
39.74169264566944
 20
-30.27135162110862
 30
0.0
  0
VERTEX
  5
1931
  8
OBJECT
 10
39.74169264566944
 20
-35.71917842310852
 30
0.0
  0
SEQEND
  5
1932
  8
OBJECT
  0
LINE
  5
1104
  8
OBJECT
 10
42.91359352858555
 20
-27.61452678284635
 30
0.0
 11
42.24391293044141
 21
-27.69526502210835
 31
0.0
  0
ARC
  5
1105
  8
OBJECT
 10
42.25318504849862
 20
-27.87218757415173
 30
0.0
 40
0.177165350999999
 50
93.00000000000225
 51
180.000000000001
  0
ARC
  5
1106
  8
OBJECT
 10
42.90653149149878
 20
-27.55595095479258
 30
0.0
 40
0.0589999999999984
 50
276.874531881784
 51
359.9999999999993
  0
ARC
  5
1107
  8
OBJECT
 10
42.90653149149881
 20
-38.43457908942411
 30
0.0
 40
0.0589999999999975
 50
0.0
 51
83.12546811821385
  0
TEXT
  5
1108
  8
DIM
 10
25.39374067113068
 20
-26.86897864590101
 30
0.0
 40
0.4356382978500001
  1
(4) PLACES INSIDE
 41
0.75
  7
TXT
 11
25.39374067113068
 21
-26.65115949697601
 31
0.0
 73
     2
  0
TEXT
  5
1109
  8
TEXT
 10
0.5975876857027052
 20
-34.08376357349181
 30
0.0
 40
0.4370000000000001
  1
INTERNAL HINGED PANEL MOUNTING BRACKETS,
 41
0.75
  7
TXT
  0
TEXT
  5
110A
  8
TEXT
 10
0.5975876857027052
 20
-34.87910357349181
 30
0.0
 40
0.4370000000000001
  1
STAINLESS STEEL LOCKING HASP,
 41
0.75
  7
TXT
  0
LINE
  5
110B
  8
OBJECT
 10
20.50035019241881
 20
-28.60029258060873
 30
0.0
 11
19.95278864942505
 21
-28.60029258060873
 31
0.0
  0
LINE
  5
110C
  8
OBJECT
 10
20.50035019241867
 20
-28.53023746360888
 30
0.0
 11
19.9527886494252
 21
-28.53023746360888
 31
0.0
  0
LINE
  5
110D
  8
OBJECT
 10
19.51435019241881
 20
-28.60029258060873
 30
0.0
 11
18.96678864942505
 21
-28.60029258060873
 31
0.0
  0
LINE
  5
110E
  8
OBJECT
 10
19.51435019241866
 20
-28.53023746360888
 30
0.0
 11
18.96678864942519
 21
-28.53023746360888
 31
0.0
  0
LINE
  5
110F
  8
OBJECT
 10
17.31159697942184
 20
-34.25504579360515
 30
0.0
 11
17.31159697942184
 21
-33.70748425061154
 31
0.0
  0
LINE
  5
1110
  8
OBJECT
 10
17.24154186242201
 20
-34.25504579360516
 30
0.0
 11
17.24154186242201
 21
-33.70748425061154
 31
0.0
  0
LINE
  5
1111
  8
OBJECT
 10
17.31159697942183
 20
-35.24104579360515
 30
0.0
 11
17.31159697942184
 21
-34.69348425061154
 31
0.0
  0
LINE
  5
1112
  8
OBJECT
 10
17.24154186242201
 20
-35.24104579360515
 30
0.0
 11
17.24154186242201
 21
-34.69348425061154
 31
0.0
  0
LINE
  5
1113
  8
OBJECT
 10
17.24154186242201
 20
-32.28304579360515
 30
0.0
 11
17.24154186242201
 21
-31.73548425061154
 31
0.0
  0
LINE
  5
1114
  8
OBJECT
 10
17.31159697942185
 20
-32.28304579360515
 30
0.0
 11
17.31159697942185
 21
-31.73548425061154
 31
0.0
  0
LINE
  5
1115
  8
OBJECT
 10
17.31159697942184
 20
-33.26904579360515
 30
0.0
 11
17.31159697942185
 21
-32.72148425061154
 31
0.0
  0
LINE
  5
1116
  8
OBJECT
 10
17.24154186242201
 20
-33.26904579360515
 30
0.0
 11
17.24154186242201
 21
-32.72148425061154
 31
0.0
  0
LINE
  5
1117
  8
OBJECT
 10
17.24154186242201
 20
-30.31104579360516
 30
0.0
 11
17.24154186242201
 21
-29.76348425061154
 31
0.0
  0
LINE
  5
1118
  8
OBJECT
 10
17.31159697942185
 20
-30.31104579360516
 30
0.0
 11
17.31159697942185
 21
-29.76348425061154
 31
0.0
  0
LINE
  5
1119
  8
OBJECT
 10
17.31159697942185
 20
-31.29704579360515
 30
0.0
 11
17.31159697942185
 21
-30.74948425061154
 31
0.0
  0
LINE
  5
111A
  8
OBJECT
 10
17.24154186242201
 20
-31.29704579360515
 30
0.0
 11
17.24154186242201
 21
-30.74948425061154
 31
0.0
  0
LINE
  5
111B
  8
OBJECT
 10
17.3929469197716
 20
-29.35521402961823
 30
0.0
 11
17.65549507479558
 21
-29.04983257457765
 31
0.0
  0
LINE
  5
111C
  8
OBJECT
 10
18.1279925019653
 20
-28.73339825711096
 30
0.0
 11
18.52844804717836
 21
-28.60089960599441
 31
0.0
  0
LINE
  5
111D
  8
OBJECT
 10
18.14998104518961
 20
-28.79985503981124
 30
0.0
 11
18.55043659040268
 21
-28.66735638869469
 31
0.0
  0
LINE
  5
111E
  8
OBJECT
 10
17.4460267482622
 20
-29.40084879495572
 30
0.0
 11
17.70857490328619
 21
-29.09546733991514
 31
0.0
  0
LINE
  5
111F
  8
OBJECT
 10
23.00711209358166
 20
-29.40084879495572
 30
0.0
 11
22.74456393855767
 21
-29.09546733991514
 31
0.0
  0
LINE
  5
1120
  8
OBJECT
 10
23.06019192207227
 20
-29.35521402961823
 30
0.0
 11
22.79764376704827
 21
-29.04983257457765
 31
0.0
  0
LINE
  5
1121
  8
OBJECT
 10
22.30315779665426
 20
-28.79985503981124
 30
0.0
 11
21.90270225144119
 21
-28.66735638869469
 31
0.0
  0
LINE
  5
1122
  8
OBJECT
 10
22.32514633987857
 20
-28.73339825711096
 30
0.0
 11
21.9246907946655
 21
-28.60089960599441
 31
0.0
  0
LINE
  5
1123
  8
OBJECT
 10
23.14154186242201
 20
-30.31104579360516
 30
0.0
 11
23.14154186242201
 21
-29.76348425061154
 31
0.0
  0
LINE
  5
1124
  8
OBJECT
 10
23.21159697942185
 20
-30.31104579360516
 30
0.0
 11
23.21159697942185
 21
-29.76348425061154
 31
0.0
  0
LINE
  5
1125
  8
OBJECT
 10
23.21159697942185
 20
-31.29704579360515
 30
0.0
 11
23.21159697942185
 21
-30.74948425061154
 31
0.0
  0
LINE
  5
1126
  8
OBJECT
 10
23.14154186242201
 20
-31.29704579360515
 30
0.0
 11
23.14154186242201
 21
-30.74948425061154
 31
0.0
  0
LINE
  5
1127
  8
OBJECT
 10
23.21159697942185
 20
-32.28304579360515
 30
0.0
 11
23.21159697942185
 21
-31.73548425061154
 31
0.0
  0
LINE
  5
1128
  8
OBJECT
 10
23.14154186242202
 20
-32.28304579360515
 30
0.0
 11
23.14154186242201
 21
-31.73548425061154
 31
0.0
  0
LINE
  5
1129
  8
OBJECT
 10
23.21159697942185
 20
-33.26904579360515
 30
0.0
 11
23.21159697942185
 21
-32.72148425061154
 31
0.0
  0
LINE
  5
112A
  8
OBJECT
 10
23.14154186242202
 20
-33.26904579360515
 30
0.0
 11
23.14154186242202
 21
-32.72148425061154
 31
0.0
  0
LINE
  5
112B
  8
OBJECT
 10
23.21159697942185
 20
-34.25504579360516
 30
0.0
 11
23.21159697942185
 21
-33.70748425061154
 31
0.0
  0
LINE
  5
112C
  8
OBJECT
 10
23.14154186242203
 20
-34.25504579360515
 30
0.0
 11
23.14154186242202
 21
-33.70748425061154
 31
0.0
  0
LINE
  5
112D
  8
OBJECT
 10
23.21159697942185
 20
-35.24104579360515
 30
0.0
 11
23.21159697942185
 21
-34.69348425061154
 31
0.0
  0
LINE
  5
112E
  8
OBJECT
 10
23.14154186242203
 20
-35.24104579360515
 30
0.0
 11
23.14154186242203
 21
-34.69348425061154
 31
0.0
  0
LINE
  5
112F
  8
OBJECT
 10
23.21159697942185
 20
-36.22704579360517
 30
0.0
 11
23.21159697942185
 21
-35.67948425061154
 31
0.0
  0
LINE
  5
1130
  8
OBJECT
 10
23.14154186242203
 20
-36.22704579360516
 30
0.0
 11
23.14154186242203
 21
-35.67948425061154
 31
0.0
  0
LINE
  5
1131
  8
OBJECT
 10
17.4460267482622
 20
-36.58968124926097
 30
0.0
 11
17.70857490328619
 21
-36.89506270430157
 31
0.0
  0
LINE
  5
1132
  8
OBJECT
 10
17.3929469197716
 20
-36.63531601459846
 30
0.0
 11
17.65549507479558
 21
-36.94069746963905
 31
0.0
  0
LINE
  5
1133
  8
OBJECT
 10
18.14998104518961
 20
-37.19067500440546
 30
0.0
 11
18.55043659040268
 21
-37.32317365552201
 31
0.0
  0
LINE
  5
1134
  8
OBJECT
 10
18.1279925019653
 20
-37.25713178710574
 30
0.0
 11
18.52844804717836
 21
-37.38963043822229
 31
0.0
  0
LINE
  5
1135
  8
OBJECT
 10
19.51435019241866
 20
-37.46029258060782
 30
0.0
 11
18.96678864942519
 21
-37.46029258060782
 31
0.0
  0
LINE
  5
1136
  8
OBJECT
 10
19.51435019241881
 20
-37.39023746360797
 30
0.0
 11
18.96678864942505
 21
-37.39023746360797
 31
0.0
  0
LINE
  5
1137
  8
OBJECT
 10
20.50035019241867
 20
-37.46029258060782
 30
0.0
 11
19.9527886494252
 21
-37.46029258060782
 31
0.0
  0
LINE
  5
1138
  8
OBJECT
 10
20.50035019241881
 20
-37.39023746360797
 30
0.0
 11
19.95278864942505
 21
-37.39023746360797
 31
0.0
  0
LINE
  5
1139
  8
OBJECT
 10
21.4863501924187
 20
-37.46029258060782
 30
0.0
 11
20.93878864942519
 21
-37.46029258060782
 31
0.0
  0
LINE
  5
113A
  8
OBJECT
 10
21.48635019241884
 20
-37.39023746360797
 30
0.0
 11
20.93878864942505
 21
-37.39023746360797
 31
0.0
  0
LINE
  5
113B
  8
OBJECT
 10
22.32514633987857
 20
-37.25713178710574
 30
0.0
 11
21.9246907946655
 21
-37.38963043822229
 31
0.0
  0
LINE
  5
113C
  8
OBJECT
 10
22.30315779665426
 20
-37.19067500440546
 30
0.0
 11
21.90270225144119
 21
-37.32317365552201
 31
0.0
  0
LINE
  5
113D
  8
OBJECT
 10
23.00711209358166
 20
-36.58968124926097
 30
0.0
 11
22.74456393855767
 21
-36.89506270430157
 31
0.0
  0
LINE
  5
113E
  8
OBJECT
 10
23.06019192207227
 20
-36.63531601459846
 30
0.0
 11
22.79764376704827
 21
-36.94069746963905
 31
0.0
  0
CIRCLE
  5
113F
  8
OBJECT
 10
24.12006942092193
 20
-34.76026502210835
 30
0.0
 40
0.1125000000000007
  0
POLYLINE
  5
1140
  8
OBJECT
 66
     1
 10
0.0
 20
0.0
 30
0.0
  0
VERTEX
  5
1933
  8
OBJECT
 10
19.97066391392185
 20
-38.22626502210834
 30
0.0
  0
VERTEX
  5
1934
  8
OBJECT
 10
19.93656942092193
 20
-38.28532013910819
 30
0.0
  0
VERTEX
  5
1935
  8
OBJECT
 10
20.51656942092193
 20
-38.28532013910819
 30
0.0
  0
VERTEX
  5
1936
  8
OBJECT
 10
20.48247492792201
 20
-38.22626502210834
 30
0.0
  0
SEQEND
  5
1937
  8
OBJECT
  0
POLYLINE
  5
1141
  8
OBJECT
 66
     1
 10
0.0
 20
0.0
 30
0.0
  0
VERTEX
  5
1938
  8
OBJECT
 10
19.97066391392185
 20
-27.76426502210835
 30
0.0
  0
VERTEX
  5
1939
  8
OBJECT
 10
19.93656942092193
 20
-27.70520990510851
 30
0.0
  0
VERTEX
  5
193A
  8
OBJECT
 10
20.51656942092193
 20
-27.7052099051085
 30
0.0
  0
VERTEX
  5
193B
  8
OBJECT
 10
20.48247492792201
 20
-27.76426502210835
 30
0.0
  0
SEQEND
  5
193C
  8
OBJECT
  0
POLYLINE
  5
1142
  8
OBJECT
 66
     1
 10
0.0
 20
0.0
 30
0.0
  0
VERTEX
  5
193D
  8
OBJECT
 10
23.55156942092189
 20
-36.78217052910843
 30
0.0
  0
VERTEX
  5
193E
  8
OBJECT
 10
23.61062453792173
 20
-36.81626502210835
 30
0.0
  0
VERTEX
  5
193F
  8
OBJECT
 10
23.61062453792173
 20
-36.23626502210836
 30
0.0
  0
VERTEX
  5
1940
  8
OBJECT
 10
23.55156942092189
 20
-36.27035951510827
 30
0.0
  0
SEQEND
  5
1941
  8
OBJECT
  0
POLYLINE
  5
1143
  8
OBJECT
 66
     1
 10
0.0
 20
0.0
 30
0.0
  0
VERTEX
  5
1942
  8
OBJECT
 10
23.55156942092189
 20
-29.20835951510826
 30
0.0
  0
VERTEX
  5
1943
  8
OBJECT
 10
23.61062453792173
 20
-29.17426502210835
 30
0.0
  0
VERTEX
  5
1944
  8
OBJECT
 10
23.61062453792173
 20
-29.75426502210835
 30
0.0
  0
VERTEX
  5
1945
  8
OBJECT
 10
23.55156942092189
 20
-29.72017052910843
 30
0.0
  0
SEQEND
  5
1946
  8
OBJECT
  0
POLYLINE
  5
1144
  8
OBJECT
 66
     1
 10
0.0
 20
0.0
 30
0.0
  0
VERTEX
  5
1947
  8
OBJECT
 10
16.90156942092197
 20
-36.78217052910843
 30
0.0
  0
VERTEX
  5
1948
  8
OBJECT
 10
16.84251430392213
 20
-36.81626502210835
 30
0.0
  0
VERTEX
  5
1949
  8
OBJECT
 10
16.84251430392213
 20
-36.23626502210836
 30
0.0
  0
VERTEX
  5
194A
  8
OBJECT
 10
16.90156942092197
 20
-36.27035951510827
 30
0.0
  0
SEQEND
  5
194B
  8
OBJECT
  0
POLYLINE
  5
1145
  8
OBJECT
 66
     1
 10
0.0
 20
0.0
 30
0.0
  0
VERTEX
  5
194C
  8
OBJECT
 10
16.90156942092197
 20
-29.20835951510826
 30
0.0
  0
VERTEX
  5
194D
  8
OBJECT
 10
16.84251430392213
 20
-29.17426502210835
 30
0.0
  0
VERTEX
  5
194E
  8
OBJECT
 10
16.84251430392213
 20
-29.75426502210835
 30
0.0
  0
VERTEX
  5
194F
  8
OBJECT
 10
16.90156942092197
 20
-29.72017052910843
 30
0.0
  0
SEQEND
  5
1950
  8
OBJECT
  0
LINE
  5
1146
  8
OBJECT
 10
16.4989119404216
 20
-29.95639099710871
 30
0.0
 11
16.4989119404216
 21
-28.97213904710799
 31
0.0
  0
LINE
  5
1147
  8
OBJECT
 10
16.36111666742166
 20
-29.95639099710871
 30
0.0
 11
16.36111666742166
 21
-28.97213904710799
 31
0.0
  0
POLYLINE
  5
1148
  8
OBJECT
 66
     1
 10
0.0
 20
0.0
 30
0.0
  0
VERTEX
  5
1951
  8
OBJECT
 10
16.64408910892174
 20
-36.03413904710799
 30
0.0
  0
VERTEX
  5
1952
  8
OBJECT
 10
16.2922190309217
 20
-36.03413904710799
 30
0.0
  0
VERTEX
  5
1953
  8
OBJECT
 10
16.29221903092169
 20
-35.77829944591092
 30
0.0
 42
0.2415313610589597
  0
VERTEX
  5
1954
  8
OBJECT
 10
16.48906942092193
 20
-35.39456739230575
 30
0.0
  0
VERTEX
  5
1955
  8
OBJECT
 10
16.48906942092193
 20
-30.59596265191106
 30
0.0
 42
0.2415313610589597
  0
VERTEX
  5
1956
  8
OBJECT
 10
16.29221903092169
 20
-30.21223059830577
 30
0.0
  0
VERTEX
  5
1957
  8
OBJECT
 10
16.2922190309217
 20
-29.95639099710871
 30
0.0
  0
VERTEX
  5
1958
  8
OBJECT
 10
16.64408910892174
 20
-29.95639099710871
 30
0.0
  0
SEQEND
  5
1959
  8
OBJECT
  0
POLYLINE
  5
1149
  8
OBJECT
 66
     1
 10
0.0
 20
0.0
 30
0.0
  0
VERTEX
  5
195A
  8
OBJECT
 10
16.64408910892174
 20
-28.97213904710799
 30
0.0
  0
VERTEX
  5
195B
  8
OBJECT
 10
16.2922190309217
 20
-28.97213904710799
 30
0.0
  0
VERTEX
  5
195C
  8
OBJECT
 10
16.2922190309217
 20
-28.71629944591001
 30
0.0
 42
0.241531361058956
  0
VERTEX
  5
195D
  8
OBJECT
 10
16.48906942092182
 20
-28.33256739230484
 30
0.0
  0
VERTEX
  5
195E
  8
OBJECT
 10
16.48906942092193
 20
-27.78833588010835
 30
0.0
 42
-0.4142135623730951
  0
VERTEX
  5
195F
  8
OBJECT
 10
16.92214027892193
 20
-27.35526502210835
 30
0.0
  0
VERTEX
  5
1960
  8
OBJECT
 10
23.53099856292193
 20
-27.35526502210835
 30
0.0
 42
-0.4142135623730951
  0
VERTEX
  5
1961
  8
OBJECT
 10
23.96406942092193
 20
-27.78833588010835
 30
0.0
  0
VERTEX
  5
1962
  8
OBJECT
 10
23.96406942092193
 20
-28.97213904710844
 30
0.0
  0
VERTEX
  5
1963
  8
OBJECT
 10
23.93901430392209
 20
-28.97213904710844
 30
0.0
  0
VERTEX
  5
1964
  8
OBJECT
 10
23.93901430392209
 20
-29.95639099710825
 30
0.0
  0
VERTEX
  5
1965
  8
OBJECT
 10
23.96406942092193
 20
-29.95639099710825
 30
0.0
  0
VERTEX
  5
1966
  8
OBJECT
 10
23.96406942092192
 20
-34.14587593610814
 30
0.0
 42
0.3236437854432928
  0
VERTEX
  5
1967
  8
OBJECT
 10
24.22154229091119
 20
-34.50198318640142
 30
0.0
 42
-0.7051781285480231
  0
VERTEX
  5
1968
  8
OBJECT
 10
24.20484769876884
 20
-35.02449767263684
 30
0.0
 42
0.31063841825816
  0
VERTEX
  5
1969
  8
OBJECT
 10
23.96406942092192
 20
-35.37465410810855
 30
0.0
  0
VERTEX
  5
196A
  8
OBJECT
 10
23.96406942092192
 20
-35.99113904710798
 30
0.0
  0
VERTEX
  5
196B
  8
OBJECT
 10
23.93901430392208
 20
-35.99113904710798
 30
0.0
  0
VERTEX
  5
196C
  8
OBJECT
 10
23.93901430392208
 20
-37.06139099710871
 30
0.0
  0
VERTEX
  5
196D
  8
OBJECT
 10
23.96406942092192
 20
-37.06139099710871
 30
0.0
  0
VERTEX
  5
196E
  8
OBJECT
 10
23.96406942092193
 20
-38.20219416410834
 30
0.0
 42
-0.4142135623730951
  0
VERTEX
  5
196F
  8
OBJECT
 10
23.53099856292193
 20
-38.63526502210834
 30
0.0
  0
VERTEX
  5
1970
  8
OBJECT
 10
16.92214027892193
 20
-38.63526502210834
 30
0.0
 42
-0.4142135623730951
  0
VERTEX
  5
1971
  8
OBJECT
 10
16.48906942092193
 20
-38.20219416410834
 30
0.0
  0
VERTEX
  5
1972
  8
OBJECT
 10
16.48906942092182
 20
-37.65796265191186
 30
0.0
 42
0.241531361058956
  0
VERTEX
  5
1973
  8
OBJECT
 10
16.2922190309217
 20
-37.27423059830668
 30
0.0
  0
VERTEX
  5
1974
  8
OBJECT
 10
16.2922190309217
 20
-37.01839099710871
 30
0.0
  0
VERTEX
  5
1975
  8
OBJECT
 10
16.64408910892174
 20
-37.01839099710871
 30
0.0
  0
SEQEND
  5
1976
  8
OBJECT
  0
LINE
  5
114A
  8
OBJECT
 10
32.26669264566941
 20
-28.97213904710843
 30
0.0
 11
32.06984225566919
 21
-28.97213904710843
 31
0.0
  0
LINE
  5
114B
  8
OBJECT
 10
32.06984225566919
 20
-28.97213904710843
 30
0.0
 11
32.06984225566918
 21
-28.71629944591046
 31
0.0
  0
ARC
  5
114C
  8
OBJECT
 10
31.79425170966936
 20
-28.33256739230517
 30
0.0
 40
0.472440936000058
 50
305.68533471262
 51
359.9999999999866
  0
ARC
  5
114D
  8
OBJECT
 10
31.79425170966931
 20
-37.65796265191232
 30
0.0
 40
0.4724409359999981
 50
0.0
 51
54.31466528736626
  0
LINE
  5
114E
  8
OBJECT
 10
32.06984225566919
 20
-37.27423059830714
 30
0.0
 11
32.06984225566919
 21
-37.01839099710917
 31
0.0
  0
LINE
  5
114F
  8
OBJECT
 10
32.06984225566919
 20
-37.01839099710917
 30
0.0
 11
32.2666926456693
 21
-37.01839099710917
 31
0.0
  0
CIRCLE
  5
1150
  8
OBJECT
 10
39.89769264566944
 20
-34.76026502210835
 30
0.0
 40
0.1124999999999972
  0
POLYLINE
  5
1151
  8
OBJECT
 66
     1
 10
0.0
 20
0.0
 30
0.0
  0
VERTEX
  5
1977
  8
OBJECT
 10
39.74169264566944
 20
-34.14587593610814
 30
0.0
 42
0.3236437854432934
  0
VERTEX
  5
1978
  8
OBJECT
 10
39.99916551565871
 20
-34.50198318640142
 30
0.0
 42
-0.7051781285480232
  0
VERTEX
  5
1979
  8
OBJECT
 10
39.98247092351635
 20
-35.02449767263685
 30
0.0
 42
0.3106384182581596
  0
VERTEX
  5
197A
  8
OBJECT
 10
39.74169264566944
 20
-35.37465410810855
 30
0.0
  0
SEQEND
  5
197B
  8
OBJECT
  0
CIRCLE
  5
1152
  8
HIDDEN
 10
22.58506942092193
 20
-28.85626502210835
 30
0.0
 40
0.0985000000000014
  0
CIRCLE
  5
1153
  8
HIDDEN
 10
17.86806942092193
 20
-28.85626502210835
 30
0.0
 40
0.0985000000000014
  0
CIRCLE
  5
1154
  8
HIDDEN
 10
17.86806942092193
 20
-37.13426502210835
 30
0.0
 40
0.0985000000000014
  0
CIRCLE
  5
1155
  8
HIDDEN
 10
22.58506942092193
 20
-37.13426502210835
 30
0.0
 40
0.0985000000000014
  0
POLYLINE
  5
1156
  8
BEND
 66
     1
 10
0.0
 20
0.0
 30
0.0
  0
VERTEX
  5
197C
  8
BEND
 10
41.78179218700408
 20
-32.99526502210833
 30
0.0
  0
VERTEX
  5
197D
  8
BEND
 10
42.46168762839358
 20
-32.99526502210833
 30
0.0
  0
VERTEX
  5
197E
  8
BEND
 10
42.55329448020885
 20
-32.83374452587275
 30
0.0
  0
VERTEX
  5
197F
  8
BEND
 10
42.59400863657118
 20
-33.12882018368873
 30
0.0
  0
VERTEX
  5
1980
  8
BEND
 10
42.6652584102053
 20
-32.99526502210833
 30
0.0
  0
VERTEX
  5
1981
  8
BEND
 10
44.56126764600749
 20
-32.99526502210833
 30
0.0
  0
VERTEX
  5
1982
  8
BEND
 10
44.65287449782276
 20
-32.83374452587275
 30
0.0
  0
VERTEX
  5
1983
  8
BEND
 10
44.69358865418511
 20
-33.12882018368873
 30
0.0
  0
VERTEX
  5
1984
  8
BEND
 10
44.7648384278192
 20
-32.99526502210834
 30
0.0
  0
VERTEX
  5
1985
  8
BEND
 10
46.85530995798243
 20
-32.99526502210836
 30
0.0
  0
VERTEX
  5
1986
  8
BEND
 10
46.9469168097977
 20
-32.83374452587275
 30
0.0
  0
VERTEX
  5
1987
  8
BEND
 10
46.98763096616006
 20
-33.12882018368873
 30
0.0
  0
VERTEX
  5
1988
  8
BEND
 10
47.05888073979415
 20
-32.99526502210833
 30
0.0
  0
VERTEX
  5
1989
  8
BEND
 10
47.94506287319744
 20
-32.99526502210833
 30
0.0
  0
SEQEND
  5
198A
  8
BEND
  0
LINE
  5
1157
  8
OBJECT
 10
43.55608266149904
 20
-27.60826502210835
 30
0.0
 11
47.59051565649958
 21
-27.67526502210835
 31
0.0
  0
LINE
  5
1158
  8
OBJECT
 10
47.59051565649958
 20
-27.67526502210835
 30
0.0
 11
47.59051565649958
 21
-27.73027910108109
 31
0.0
  0
POLYLINE
  5
1159
  8
OBJECT
 66
     1
 10
0.0
 20
0.0
 30
0.0
 70
     1
  0
VERTEX
  5
198B
  8
OBJECT
 10
47.67057077349942
 20
-27.77337404861825
 30
0.0
  0
VERTEX
  5
198C
  8
OBJECT
 10
47.59051565649959
 20
-27.77027910108109
 30
0.0
  0
VERTEX
  5
198D
  8
OBJECT
 10
47.67057077349942
 20
-27.77337404861828
 30
0.0
  0
VERTEX
  5
198E
  8
OBJECT
 10
47.67057077349942
 20
-28.34215599559841
 30
0.0
  0
VERTEX
  5
198F
  8
OBJECT
 10
47.59051565649956
 20
-28.3452509431356
 30
0.0
  0
VERTEX
  5
1990
  8
OBJECT
 10
47.67057077349942
 20
-28.34215599559838
 30
0.0
  0
SEQEND
  5
1991
  8
OBJECT
  0
POLYLINE
  5
115A
  8
OBJECT
 66
     1
 10
0.0
 20
0.0
 30
0.0
  0
VERTEX
  5
1992
  8
OBJECT
 10
47.59051565649955
 20
-29.39426502210831
 30
0.0
  0
VERTEX
  5
1993
  8
OBJECT
 10
47.67057077349941
 20
-29.3973599696455
 30
0.0
  0
VERTEX
  5
1994
  8
OBJECT
 10
47.67057077349941
 20
-29.69117007457113
 30
0.0
  0
VERTEX
  5
1995
  8
OBJECT
 10
47.59051565649958
 20
-29.69426502210832
 30
0.0
  0
SEQEND
  5
1996
  8
OBJECT
  0
POLYLINE
  5
115B
  8
OBJECT
 66
     1
 10
0.0
 20
0.0
 30
0.0
 70
     1
  0
VERTEX
  5
1997
  8
OBJECT
 10
47.67057077349941
 20
-28.57187404861829
 30
0.0
  0
VERTEX
  5
1998
  8
OBJECT
 10
47.59051565649958
 20
-28.56877910108112
 30
0.0
  0
VERTEX
  5
1999
  8
OBJECT
 10
47.67057077349941
 20
-28.57187404861831
 30
0.0
  0
VERTEX
  5
199A
  8
OBJECT
 10
47.67057077349941
 20
-29.14065599559844
 30
0.0
  0
VERTEX
  5
199B
  8
OBJECT
 10
47.59051565649955
 20
-29.14375094313563
 30
0.0
  0
VERTEX
  5
199C
  8
OBJECT
 10
47.67057077349941
 20
-29.14065599559841
 30
0.0
  0
SEQEND
  5
199D
  8
OBJECT
  0
POLYLINE
  5
115C
  8
OBJECT
 66
     1
 10
0.0
 20
0.0
 30
0.0
  0
VERTEX
  5
199E
  8
OBJECT
 10
47.59051565649955
 20
-30.38026502210831
 30
0.0
  0
VERTEX
  5
199F
  8
OBJECT
 10
47.67057077349941
 20
-30.3833599696455
 30
0.0
  0
VERTEX
  5
19A0
  8
OBJECT
 10
47.67057077349941
 20
-30.67717007457113
 30
0.0
  0
VERTEX
  5
19A1
  8
OBJECT
 10
47.59051565649958
 20
-30.68026502210832
 30
0.0
  0
SEQEND
  5
19A2
  8
OBJECT
  0
POLYLINE
  5
115D
  8
OBJECT
 66
     1
 10
0.0
 20
0.0
 30
0.0
  0
VERTEX
  5
19A3
  8
OBJECT
 10
47.59051565649955
 20
-31.36626502210831
 30
0.0
  0
VERTEX
  5
19A4
  8
OBJECT
 10
47.67057077349941
 20
-31.3693599696455
 30
0.0
  0
VERTEX
  5
19A5
  8
OBJECT
 10
47.67057077349941
 20
-31.66317007457113
 30
0.0
  0
VERTEX
  5
19A6
  8
OBJECT
 10
47.59051565649958
 20
-31.66626502210832
 30
0.0
  0
SEQEND
  5
19A7
  8
OBJECT
  0
POLYLINE
  5
115E
  8
OBJECT
 66
     1
 10
0.0
 20
0.0
 30
0.0
  0
VERTEX
  5
19A8
  8
OBJECT
 10
47.59051565649955
 20
-32.35226502210831
 30
0.0
  0
VERTEX
  5
19A9
  8
OBJECT
 10
47.67057077349941
 20
-32.35535996964551
 30
0.0
  0
VERTEX
  5
19AA
  8
OBJECT
 10
47.67057077349941
 20
-32.64917007457112
 30
0.0
  0
VERTEX
  5
19AB
  8
OBJECT
 10
47.59051565649958
 20
-32.65226502210832
 30
0.0
  0
SEQEND
  5
19AC
  8
OBJECT
  0
POLYLINE
  5
115F
  8
OBJECT
 66
     1
 10
0.0
 20
0.0
 30
0.0
  0
VERTEX
  5
19AD
  8
OBJECT
 10
47.59051565649955
 20
-28.41526502210834
 30
0.0
  0
VERTEX
  5
19AE
  8
OBJECT
 10
47.67057077349941
 20
-28.41835996964554
 30
0.0
  0
VERTEX
  5
19AF
  8
OBJECT
 10
47.67057077349941
 20
-28.71217007457116
 30
0.0
  0
SEQEND
  5
19B0
  8
OBJECT
  0
LINE
  5
1160
  8
OBJECT
 10
47.59051565649955
 20
-38.31526502210834
 30
0.0
 11
47.59051565649955
 21
-38.26025094313557
 31
0.0
  0
POLYLINE
  5
1161
  8
OBJECT
 66
     1
 10
0.0
 20
0.0
 30
0.0
  0
VERTEX
  5
19B1
  8
OBJECT
 10
47.59051565649955
 20
-33.63826502210836
 30
0.0
  0
VERTEX
  5
19B2
  8
OBJECT
 10
47.67057077349941
 20
-33.63517007457117
 30
0.0
  0
VERTEX
  5
19B3
  8
OBJECT
 10
47.67057077349941
 20
-33.34135996964554
 30
0.0
  0
VERTEX
  5
19B4
  8
OBJECT
 10
47.59051565649958
 20
-33.33826502210835
 30
0.0
  0
SEQEND
  5
19B5
  8
OBJECT
  0
POLYLINE
  5
1162
  8
OBJECT
 66
     1
 10
0.0
 20
0.0
 30
0.0
  0
VERTEX
  5
19B6
  8
OBJECT
 10
47.59051565649955
 20
-37.57526502210833
 30
0.0
  0
VERTEX
  5
19B7
  8
OBJECT
 10
47.67057077349941
 20
-37.57217007457113
 30
0.0
  0
VERTEX
  5
19B8
  8
OBJECT
 10
47.67057077349941
 20
-37.27835996964551
 30
0.0
  0
SEQEND
  5
19B9
  8
OBJECT
  0
POLYLINE
  5
1163
  8
OBJECT
 66
     1
 10
0.0
 20
0.0
 30
0.0
 70
     1
  0
VERTEX
  5
19BA
  8
OBJECT
 10
47.67057077349941
 20
-37.41865599559839
 30
0.0
  0
VERTEX
  5
19BB
  8
OBJECT
 10
47.59051565649958
 20
-37.42175094313555
 30
0.0
  0
VERTEX
  5
19BC
  8
OBJECT
 10
47.67057077349941
 20
-37.41865599559835
 30
0.0
  0
VERTEX
  5
19BD
  8
OBJECT
 10
47.67057077349941
 20
-36.84987404861823
 30
0.0
  0
VERTEX
  5
19BE
  8
OBJECT
 10
47.59051565649955
 20
-36.84677910108103
 30
0.0
  0
VERTEX
  5
19BF
  8
OBJECT
 10
47.67057077349941
 20
-36.84987404861825
 30
0.0
  0
SEQEND
  5
19C0
  8
OBJECT
  0
POLYLINE
  5
1164
  8
OBJECT
 66
     1
 10
0.0
 20
0.0
 30
0.0
  0
VERTEX
  5
19C1
  8
OBJECT
 10
47.59051565649955
 20
-34.62426502210836
 30
0.0
  0
VERTEX
  5
19C2
  8
OBJECT
 10
47.67057077349941
 20
-34.62117007457116
 30
0.0
  0
VERTEX
  5
19C3
  8
OBJECT
 10
47.67057077349941
 20
-34.32735996964554
 30
0.0
  0
VERTEX
  5
19C4
  8
OBJECT
 10
47.59051565649958
 20
-34.32426502210835
 30
0.0
  0
SEQEND
  5
19C5
  8
OBJECT
  0
POLYLINE
  5
1165
  8
OBJECT
 66
     1
 10
0.0
 20
0.0
 30
0.0
  0
VERTEX
  5
19C6
  8
OBJECT
 10
47.59051565649955
 20
-35.61026502210836
 30
0.0
  0
VERTEX
  5
19C7
  8
OBJECT
 10
47.67057077349941
 20
-35.60717007457117
 30
0.0
  0
VERTEX
  5
19C8
  8
OBJECT
 10
47.67057077349941
 20
-35.31335996964555
 30
0.0
  0
VERTEX
  5
19C9
  8
OBJECT
 10
47.59051565649958
 20
-35.31026502210835
 30
0.0
  0
SEQEND
  5
19CA
  8
OBJECT
  0
POLYLINE
  5
1166
  8
OBJECT
 66
     1
 10
0.0
 20
0.0
 30
0.0
  0
VERTEX
  5
19CB
  8
OBJECT
 10
47.59051565649955
 20
-36.59626502210836
 30
0.0
  0
VERTEX
  5
19CC
  8
OBJECT
 10
47.67057077349941
 20
-36.59317007457117
 30
0.0
  0
VERTEX
  5
19CD
  8
OBJECT
 10
47.67057077349941
 20
-36.29935996964554
 30
0.0
  0
VERTEX
  5
19CE
  8
OBJECT
 10
47.59051565649958
 20
-36.29626502210835
 30
0.0
  0
SEQEND
  5
19CF
  8
OBJECT
  0
POLYLINE
  5
1167
  8
OBJECT
 66
     1
 10
0.0
 20
0.0
 30
0.0
 70
     1
  0
VERTEX
  5
19D0
  8
OBJECT
 10
47.67057077349941
 20
-38.25715599559841
 30
0.0
  0
VERTEX
  5
19D1
  8
OBJECT
 10
47.59051565649958
 20
-38.26025094313557
 30
0.0
  0
VERTEX
  5
19D2
  8
OBJECT
 10
47.67057077349941
 20
-38.25715599559838
 30
0.0
  0
VERTEX
  5
19D3
  8
OBJECT
 10
47.67057077349941
 20
-37.68837404861826
 30
0.0
  0
VERTEX
  5
19D4
  8
OBJECT
 10
47.59051565649955
 20
-37.68527910108107
 30
0.0
  0
VERTEX
  5
19D5
  8
OBJECT
 10
47.67057077349941
 20
-37.68837404861829
 30
0.0
  0
SEQEND
  5
19D6
  8
OBJECT
  0
LINE
  5
1168
  8
OBJECT
 10
47.59051565649955
 20
-36.29626502210835
 30
0.0
 11
47.59051565649955
 21
-35.61026502210836
 31
0.0
  0
LINE
  5
1169
  8
OBJECT
 10
47.59051565649955
 20
-35.31026502210835
 30
0.0
 11
47.59051565649955
 21
-34.62426502210836
 31
0.0
  0
LINE
  5
116A
  8
OBJECT
 10
47.59051565649955
 20
-34.32426502210835
 30
0.0
 11
47.59051565649958
 21
-33.63826502210836
 31
0.0
  0
LINE
  5
116B
  8
OBJECT
 10
47.59051565649955
 20
-33.33826502210835
 30
0.0
 11
47.59051565649958
 21
-27.67526502210835
 31
0.0
  0
LINE
  5
116C
  8
OBJECT
 10
47.59051565649955
 20
-37.68527910108106
 30
0.0
 11
47.59051565649955
 21
-37.42175094313555
 31
0.0
  0
LINE
  5
116D
  8
OBJECT
 10
47.59051565649955
 20
-36.84677910108103
 30
0.0
 11
47.59051565649955
 21
-36.59626502210836
 31
0.0
  0
POLYLINE
  5
116E
  8
OBJECT
 66
     1
 10
0.0
 20
0.0
 30
0.0
  0
VERTEX
  5
19D7
  8
OBJECT
 10
47.17751565649957
 20
-33.57326502210835
 30
0.0
  0
VERTEX
  5
19D8
  8
OBJECT
 10
47.49284635849956
 20
-33.57326502210835
 30
0.0
  0
VERTEX
  5
19D9
  8
OBJECT
 10
47.49284635849956
 20
-33.40326502210834
 30
0.0
  0
VERTEX
  5
19DA
  8
OBJECT
 10
47.17751565649957
 20
-33.40326502210834
 30
0.0
  0
SEQEND
  5
19DB
  8
OBJECT
  0
POLYLINE
  5
116F
  8
OBJECT
 66
     1
 10
0.0
 20
0.0
 30
0.0
  0
VERTEX
  5
19DC
  8
OBJECT
 10
47.17751565649957
 20
-34.55926502210835
 30
0.0
  0
VERTEX
  5
19DD
  8
OBJECT
 10
47.49284635849956
 20
-34.55926502210835
 30
0.0
  0
VERTEX
  5
19DE
  8
OBJECT
 10
47.49284635849956
 20
-34.38926502210834
 30
0.0
  0
VERTEX
  5
19DF
  8
OBJECT
 10
47.17751565649957
 20
-34.38926502210834
 30
0.0
  0
SEQEND
  5
19E0
  8
OBJECT
  0
POLYLINE
  5
1170
  8
OBJECT
 66
     1
 10
0.0
 20
0.0
 30
0.0
  0
VERTEX
  5
19E1
  8
OBJECT
 10
47.17751565649957
 20
-35.54526502210835
 30
0.0
  0
VERTEX
  5
19E2
  8
OBJECT
 10
47.49284635849956
 20
-35.54526502210835
 30
0.0
  0
VERTEX
  5
19E3
  8
OBJECT
 10
47.49284635849956
 20
-35.37526502210834
 30
0.0
  0
VERTEX
  5
19E4
  8
OBJECT
 10
47.17751565649957
 20
-35.37526502210834
 30
0.0
  0
SEQEND
  5
19E5
  8
OBJECT
  0
POLYLINE
  5
1171
  8
OBJECT
 66
     1
 10
0.0
 20
0.0
 30
0.0
  0
VERTEX
  5
19E6
  8
OBJECT
 10
47.17751565649957
 20
-36.53126502210835
 30
0.0
  0
VERTEX
  5
19E7
  8
OBJECT
 10
47.49284635849956
 20
-36.53126502210835
 30
0.0
  0
VERTEX
  5
19E8
  8
OBJECT
 10
47.49284635849956
 20
-36.36126502210834
 30
0.0
  0
VERTEX
  5
19E9
  8
OBJECT
 10
47.17751565649957
 20
-36.36126502210834
 30
0.0
  0
SEQEND
  5
19EA
  8
OBJECT
  0
LINE
  5
1172
  8
OBJECT
 10
43.26080707649891
 20
-27.35526502210834
 30
0.0
 11
43.02041585954788
 21
-27.37207481352895
 31
0.0
  0
LINE
  5
1173
  8
OBJECT
 10
43.26080707649891
 20
-27.35526502210834
 30
0.0
 11
43.50119829344996
 21
-27.37207481352895
 31
0.0
  0
ARC
  5
1174
  8
OBJECT
 10
43.02453149149878
 20
-27.43093109249428
 30
0.0
 40
0.0589999999999999
 50
93.99999999999945
 51
179.9999999999993
  0
ARC
  5
1175
  8
OBJECT
 10
43.49708266149904
 20
-27.43093109249428
 30
0.0
 40
0.0589999999999975
 50
0.0
 51
85.99999999999979
  0
LINE
  5
1176
  8
OBJECT
 10
43.26080707649891
 20
-38.63526502210832
 30
0.0
 11
43.02041585954788
 21
-38.61845523068772
 31
0.0
  0
ARC
  5
1177
  8
OBJECT
 10
43.02453149149878
 20
-38.55959895172239
 30
0.0
 40
0.0589999999999975
 50
180.0
 51
265.9999999999998
  0
LINE
  5
1178
  8
OBJECT
 10
42.96553149149878
 20
-38.55959895172239
 30
0.0
 11
42.96553149149878
 21
-38.43457908942411
 31
0.0
  0
LINE
  5
1179
  8
OBJECT
 10
43.26080707649891
 20
-38.48326502210834
 30
0.0
 11
43.21080707649893
 21
-38.48326502210834
 31
0.0
  0
ARC
  5
117A
  8
OBJECT
 10
43.21080707649893
 20
-38.43326502210834
 30
0.0
 40
0.0500000000000043
 50
90.0
 51
270.0
  0
LINE
  5
117B
  8
OBJECT
 10
43.26080707649891
 20
-29.95639099710824
 30
0.0
 11
43.26080707649891
 21
-38.38326502210834
 31
0.0
  0
LINE
  5
117C
  8
OBJECT
 10
43.26080707649891
 20
-38.38326502210834
 30
0.0
 11
43.21080707649893
 21
-38.38326502210834
 31
0.0
  0
LINE
  5
117D
  8
OBJECT
 10
43.26080707649891
 20
-38.48326502210834
 30
0.0
 11
43.26080707649891
 21
-38.63526502210832
 31
0.0
  0
POLYLINE
  5
117E
  8
OBJECT
 66
     1
 10
0.0
 20
0.0
 30
0.0
  0
VERTEX
  5
19EB
  8
OBJECT
 10
42.20901969749906
 20
-32.99526502210834
 30
0.0
  0
VERTEX
  5
19EC
  8
OBJECT
 10
42.20901969749906
 20
-38.12066764773071
 30
0.0
 42
0.3954269326290927
  0
VERTEX
  5
19ED
  8
OBJECT
 10
42.24550341781964
 20
-38.1595863879027
 30
0.0
  0
VERTEX
  5
19EE
  8
OBJECT
 10
43.26080707649891
 20
-38.22626502210834
 30
0.0
  0
SEQEND
  5
19EF
  8
OBJECT
  0
POLYLINE
  5
117F
  8
OBJECT
 66
     1
 10
0.0
 20
0.0
 30
0.0
  0
VERTEX
  5
19F0
  8
OBJECT
 10
43.26080707649891
 20
-38.63526502210832
 30
0.0
  0
VERTEX
  5
19F1
  8
OBJECT
 10
43.50119829344996
 20
-38.61845523068772
 30
0.0
 42
0.3939104756149413
  0
VERTEX
  5
19F2
  8
OBJECT
 10
43.55608266149904
 20
-38.55959895172239
 30
0.0
  0
VERTEX
  5
19F3
  8
OBJECT
 10
43.55608266149906
 20
-38.38226502210835
 30
0.0
  0
VERTEX
  5
19F4
  8
OBJECT
 10
47.59051565649958
 20
-38.31526502210834
 30
0.0
  0
SEQEND
  5
19F5
  8
OBJECT
  0
INSERT
  5
1180
  8
OBJECT
  2
*X0
 10
28.90402904700666
 20
-57.11680722944797
 30
0.0
1001
ACAD
1000
HATCH
1002
{
1070
    16
1000
PLASTI
1040
1.5
1040
0.7853981633974483
1002
}
  0
LINE
  5
1181
  8
OBJECT
 10
39.93169264566943
 20
-28.65717842310805
 30
0.0
 11
39.93169264566943
 21
-28.97213904710843
 31
0.0
  0
LINE
  5
1182
  8
OBJECT
 10
39.93169264566943
 20
-30.27135162110862
 30
0.0
 11
39.93169264566943
 21
-29.95639099710824
 31
0.0
  0
POLYLINE
  5
1183
  8
OBJECT
 66
     1
 10
0.0
 20
0.0
 30
0.0
 70
     1
  0
VERTEX
  5
19F6
  8
OBJECT
 10
39.40419264566923
 20
-38.13778471010907
 30
0.0
 42
-0.4142135623730956
  0
VERTEX
  5
19F7
  8
OBJECT
 10
39.24671233366924
 20
-38.29526502210835
 30
0.0
  0
VERTEX
  5
19F8
  8
OBJECT
 10
32.76167295766961
 20
-38.29526502210906
 30
0.0
 42
-0.4142135623730956
  0
VERTEX
  5
19F9
  8
OBJECT
 10
32.60419264566942
 20
-38.13778471010907
 30
0.0
  0
VERTEX
  5
19FA
  8
OBJECT
 10
32.60419264566942
 20
-27.85274533410854
 30
0.0
 42
-0.4142135623730956
  0
VERTEX
  5
19FB
  8
OBJECT
 10
32.76167295766961
 20
-27.69526502210853
 30
0.0
  0
VERTEX
  5
19FC
  8
OBJECT
 10
39.24671233366924
 20
-27.69526502210835
 30
0.0
 42
-0.4142135623730957
  0
VERTEX
  5
19FD
  8
OBJECT
 10
39.40419264566923
 20
-27.85274533410854
 30
0.0
  0
SEQEND
  5
19FE
  8
OBJECT
  0
POLYLINE
  5
1184
  8
OBJECT
 66
     1
 10
0.0
 20
0.0
 30
0.0
  0
VERTEX
  5
19FF
  8
OBJECT
 10
39.74169264566944
 20
-37.33335162110909
 30
0.0
  0
VERTEX
  5
1A00
  8
OBJECT
 10
39.74169264566944
 20
-38.20219416410834
 30
0.0
 42
-0.4142135623730951
  0
VERTEX
  5
1A01
  8
OBJECT
 10
39.30862178766943
 20
-38.63526502210834
 30
0.0
  0
VERTEX
  5
1A02
  8
OBJECT
 10
32.69976350366942
 20
-38.63526502210834
 30
0.0
 42
-0.4142135623730951
  0
VERTEX
  5
1A03
  8
OBJECT
 10
32.26669264566941
 20
-38.20219416410834
 30
0.0
  0
VERTEX
  5
1A04
  8
OBJECT
 10
32.26669264566731
 20
-27.78833588010844
 30
0.0
 42
-0.4142135623730948
  0
VERTEX
  5
1A05
  8
OBJECT
 10
32.69976350366942
 20
-27.35526502210835
 30
0.0
  0
VERTEX
  5
1A06
  8
OBJECT
 10
39.30862178766943
 20
-27.35526502210835
 30
0.0
 42
-0.4142135623730951
  0
VERTEX
  5
1A07
  8
OBJECT
 10
39.74169264566944
 20
-27.78833588010835
 30
0.0
  0
VERTEX
  5
1A08
  8
OBJECT
 10
39.74169264566944
 20
-28.65717842310805
 30
0.0
  0
SEQEND
  5
1A09
  8
OBJECT
  0
POLYLINE
  5
1185
  8
HIDDEN
 66
     1
 10
0.0
 20
0.0
 30
0.0
  0
VERTEX
  5
1A0A
  8
HIDDEN
 10
43.26080707649891
 20
-36.81626502210835
 30
0.0
  0
VERTEX
  5
1A0B
  8
HIDDEN
 10
44.44880707649892
 20
-36.81626502210835
 30
0.0
  0
VERTEX
  5
1A0C
  8
HIDDEN
 10
44.44880707649892
 20
-36.79092747319146
 30
0.0
  0
SEQEND
  5
1A0D
  8
HIDDEN
  0
POLYLINE
  5
1186
  8
HIDDEN
 66
     1
 10
0.0
 20
0.0
 30
0.0
  0
VERTEX
  5
1A0E
  8
HIDDEN
 10
43.26080707649891
 20
-36.23626502210836
 30
0.0
  0
VERTEX
  5
1A0F
  8
HIDDEN
 10
44.44880707649892
 20
-36.23626502210836
 30
0.0
  0
VERTEX
  5
1A10
  8
HIDDEN
 10
44.44880707649892
 20
-36.26160257102524
 30
0.0
  0
SEQEND
  5
1A11
  8
HIDDEN
  0
POLYLINE
  5
1187
  8
OBJECT
 66
     1
 10
0.0
 20
0.0
 30
0.0
  0
VERTEX
  5
1A12
  8
OBJECT
 10
43.26080707649891
 20
-36.78217052910842
 30
0.0
  0
VERTEX
  5
1A13
  8
OBJECT
 10
44.44880707649892
 20
-36.78217052910843
 30
0.0
  0
VERTEX
  5
1A14
  8
OBJECT
 10
44.44880707649892
 20
-36.27035951510827
 30
0.0
  0
VERTEX
  5
1A15
  8
OBJECT
 10
43.26080707649891
 20
-36.27035951510826
 30
0.0
  0
SEQEND
  5
1A16
  8
OBJECT
  0
POLYLINE
  5
1189
  8
OBJECT
 66
     1
 10
0.0
 20
0.0
 30
0.0
 70
     1
  0
VERTEX
  5
1A17
  8
OBJECT
 10
23.80904973292189
 20
-27.80363510010805
 30
0.0
 42
0.4142135623730857
  0
VERTEX
  5
1A18
  8
OBJECT
 10
23.512199342922
 20
-27.50678471010816
 30
0.0
  0
VERTEX
  5
1A19
  8
OBJECT
 10
16.94093949892187
 20
-27.50678471010794
 30
0.0
 42
0.4142135623731049
  0
VERTEX
  5
1A1A
  8
OBJECT
 10
16.64408910892174
 20
-27.80363510010806
 30
0.0
  0
VERTEX
  5
1A1B
  8
OBJECT
 10
16.64408910892174
 20
-38.18689494410772
 30
0.0
 42
0.4142135623731058
  0
VERTEX
  5
1A1C
  8
OBJECT
 10
16.94093949892187
 20
-38.48374533410784
 30
0.0
  0
VERTEX
  5
1A1D
  8
OBJECT
 10
23.512199342922
 20
-38.48374533410762
 30
0.0
 42
0.4142135623729219
  0
VERTEX
  5
1A1E
  8
OBJECT
 10
23.80904973292189
 20
-38.18689494410784
 30
0.0
  0
SEQEND
  5
1A1F
  8
OBJECT
  0
LINE
  5
118A
  8
OBJECT
 10
47.34251565649956
 20
-32.99526502210834
 30
0.0
 11
47.34251565649956
 21
-33.27021926817482
 31
0.0
  0
LINE
  5
118B
  8
OBJECT
 10
47.34251565649956
 20
-36.664310776042
 30
0.0
 11
47.34251565649956
 21
-36.85071926817483
 31
0.0
  0
LINE
  5
118C
  8
OBJECT
 10
47.34251565649956
 20
-35.67831077604199
 30
0.0
 11
47.34251565649956
 21
-36.22821926817483
 31
0.0
  0
LINE
  5
118D
  8
OBJECT
 10
47.34251565649956
 20
-34.69231077604199
 30
0.0
 11
47.34251565649956
 21
-35.24221926817482
 31
0.0
  0
LINE
  5
118E
  8
OBJECT
 10
47.34251565649956
 20
-33.70631077604199
 30
0.0
 11
47.34251565649956
 21
-34.25621926817483
 31
0.0
  0
LINE
  5
118F
  8
OBJECT
 10
47.34251565649956
 20
-37.64331077604186
 30
0.0
 11
47.34251565649956
 21
-37.68921926817483
 31
0.0
  0
LINE
  5
1190
  8
TITLE
 10
54.03299999999997
 20
-46.38349990690176
 30
0.0
 11
0.2169999999999987
 21
-46.38349990690176
 31
0.0
  0
LINE
  5
1191
  8
TITLE
 10
54.03299999999997
 20
-45.65065395888953
 30
0.0
 11
16.21700000000001
 21
-45.65065395888954
 31
0.0
  0
LINE
  5
1192
  8
TITLE
 10
16.21700000000001
 20
-44.91780801087731
 30
0.0
 11
0.2170000000000041
 21
-44.9178080108773
 31
0.0
  0
TEXT
  5
1193
  8
TEXT
 10
0.6255846115252277
 20
-47.34370870963773
 30
0.0
 40
0.4378344801223241
  1
NBB-10243
 41
0.75
  7
TXT
 72
     1
 11
1.966999999999998
 21
-47.34370870963773
 31
0.0
  0
TEXT
  5
1194
  8
TEXT
 10
1.14606034977064
 20
-46.24250628401742
 30
0.0
 40
0.4378344801223241
  1
COVER
 41
0.75
  7
TXT
 72
     1
 11
1.966999999999998
 21
-46.24250628401742
 31
0.0
  0
TEXT
  5
1195
  8
TEXT
 10
1.254424383600916
 20
-45.49512424222553
 30
0.0
 40
0.4378344801223241
  1
SOLID
 41
0.75
  7
TXT
 72
     1
 11
1.966999999999998
 21
-45.49512424222553
 31
0.0
  0
TEXT
  5
1196
  8
TEXT
 10
2.567684489678904
 20
-44.7655372868052
 30
0.0
 40
0.4378344801223241
  1
PART NO.
 41
0.75
  7
TXT
 72
     1
 11
3.717000000000005
 21
-44.7655372868052
 31
0.0
  0
TEXT
  5
1197
  8
TEXT
 10
4.64606034977064
 20
-46.24250628401742
 30
0.0
 40
0.4378344801223241
  1
COVER
 41
0.75
  7
TXT
 72
     1
 11
5.466999999999998
 21
-46.24250628401742
 31
0.0
  0
TEXT
  5
1198
  8
TEXT
 10
4.700242366685778
 20
-45.49512424222553
 30
0.0
 40
0.4378344801223241
  1
CLEAR
 41
0.75
  7
TXT
 72
     1
 11
5.466999999999998
 21
-45.49512424222553
 31
0.0
  0
TEXT
  5
1199
  8
TEXT
 10
4.125584611525228
 20
-47.34370870963773
 30
0.0
 40
0.4378344801223241
  1
NBB-10263
 41
0.75
  7
TXT
 72
     1
 11
5.466999999999998
 21
-47.34370870963773
 31
0.0
  0
LINE
  5
119A
  8
TITLE
 10
54.03299999999997
 20
-44.18496206286506
 30
0.0
 11
0.2169999999999987
 21
-44.18496206286506
 31
0.0
  0
TEXT
  5
119B
  8
TEXT
 10
30.53020249999998
 20
-45.19080801087728
 30
0.0
 40
0.5460000000000002
  1
DIMENSIONS
 41
0.75
  7
TXT
 72
     4
 11
32.37499999999998
 21
-44.91780801087727
 31
0.0
  0
TEXT
  5
119C
  8
TEXT
 10
8.22018749999999
 20
-13.88710502922507
 30
0.0
 40
0.5833333333333334
  1
NON-METALLIC ENCLOSURE (STYLE B)
 41
0.75
  7
TXT
 72
     4
 11
14.92924999999999
 21
-13.5954383625584
 31
0.0
  0
TEXT
  5
119D
  8
TEXT
 10
32.46512499999998
 20
-13.88710502922505
 30
0.0
 40
0.5833333333333334
  1
NBB-10243 & NBB-10263 & NBB-15243 & NBB-22243
 41
0.75
  7
TXT
 72
     4
 11
41.94574999999998
 21
-13.59543836255838
 31
0.0
  0
TEXT
  5
119E
  8
TEXT
 10
39.27389428171452
 20
-41.85215588622008
 30
0.0
 40
0.4383027522935781
  1
DIMENSIONS =
 41
0.75
  7
TXT
  0
TEXT
  5
119F
  8
TEXT
 10
44.15187435090904
 20
-41.47602727266328
 30
0.0
 40
0.4383027522935781
  1
INCHES
 41
0.75
  7
TXT
 72
     1
 11
45.02957561237693
 21
-41.47602727266328
 31
0.0
  0
TEXT
  5
11A0
  8
TEXT
 10
43.16569315824849
 20
-42.20653185981924
 30
0.0
 40
0.4383027522935781
  1
[MILLIMETERS]
 41
0.75
  7
TXT
 72
     1
 11
45.02957561237693
 21
-42.20653185981924
 31
0.0
  0
TEXT
  5
11A1
  8
TEXT
 10
2.343845394418337
 20
-28.1197519983746
 30
0.0
 40
0.4383027522935781
  1
(4) WALL MOUNTING BRKTS.
 41
0.75
  7
TXT
  0
TEXT
  5
11A2
  8
TEXT
 10
2.343845394418337
 20
-29.58076117268653
 30
0.0
 40
0.4383027522935781
  1
HD. MACHINE SCREWS (NOT SHOWN)
 41
0.75
  7
TXT
  0
TEXT
  5
11A3
  8
TEXT
 10
0.5975876857027052
 20
-35.67444357349181
 30
0.0
 40
0.4370000000000001
  1
AIR AND MOISTURE VENTS AND GALVANIZED
 41
0.75
  7
TXT
  0
TEXT
  5
11A4
  8
TEXT
 10
0.5975876857027052
 20
-36.47046980136572
 30
0.0
 40
0.4370000000000001
  1
STEEL INTERNAL PANEL ARE NOT INCLUDED,
 41
0.75
  7
TXT
  0
TEXT
  5
11A5
  8
TEXT
 10
0.5975876857027052
 20
-37.27366562051015
 30
0.0
 40
0.4370000000000001
  1
BUT CAN BE PURCHASED SEPARATELY.
 41
0.75
  7
TXT
  0
TEXT
  5
11A6
  8
TEXT
 10
0.6058888888888987
 20
-27.42669850684162
 30
0.0
 40
0.4383027522935781
  1
%%UNOTE:%%u UNIT COMES COMPLETE WITH
 41
0.75
  7
TXT
  0
TEXT
  5
11A7
  8
TEXT
 10
40.07754709228268
 20
-15.69881824857793
 30
0.0
 40
0.4383027522935781
  1
%%UINDUSTRY STANDARDS:
 41
0.75
  7
TXT
  0
TEXT
  5
11A8
  8
TEXT
 10
40.51504709228268
 20
-17.15982742288986
 30
0.0
 40
0.4383027522935781
  1
UL508 TYPE 1, 2, 3, 3R, 4, 4X INDOOR, 12 & 13
 41
0.75
  7
TXT
  0
TEXT
  5
11A9
  8
TEXT
 10
40.51504709228268
 20
-17.89033201004582
 30
0.0
 40
0.4383027522935781
  1
NEMA TYPE 1, 2, 3, 3R, 4, 4X, 12 & 13
 41
0.75
  7
TXT
  0
TEXT
  5
11AA
  8
TEXT
 10
40.51504709228268
 20
-18.62083659720179
 30
0.0
 40
0.4383027522935781
  1
IEC529-IP65
 41
0.75
  7
TXT
  0
TEXT
  5
11AB
  8
TEXT
 10
9.051812849973587
 20
-17.24446980367094
 30
0.0
 40
0.4383027522935781
  1
UL94-5VB FLAMMABILITY RATING
 41
0.75
  7
TXT
  0
TEXT
  5
11AC
  8
TEXT
 10
39.27389428171452
 20
-43.26275269465838
 30
0.0
 40
0.4383027522935781
  1
%%UNOTE%%U: ALL DIMENSIONS HAVE %%P0.039 [%%P1] TOLERANCE
 41
0.75
  7
TXT
  0
TEXT
  5
11AD
  8
TEXT
 10
40.67867188201069
 20
-43.97312298326695
 30
0.0
 40
0.4383027522935781
  1
 UNLESS OTHERWISE SPECIFIED
 41
0.75
  7
TXT
  0
LINE
  5
11AE
  8
TITLE
 10
54.03299999999997
 20
-47.116345854914
 30
0.0
 11
16.21700000000001
 21
-47.116345854914
 31
0.0
  0
TEXT
  5
11AF
  8
TEXT
 10
9.051812849973587
 20
-19.03622852267973
 30
0.0
 40
0.4383027522935781
  1
UL94V-0 FLAMMABILITY RATING
 41
0.75
  7
TXT
  0
LINE
  5
11B0
  8
TITLE
 10
7.216999999999998
 20
-47.84919180292622
 30
0.0
 11
7.217000000000005
 21
-42.71927016684061
 31
0.0
  0
LINE
  5
11B1
  8
TITLE
 10
3.716999999999998
 20
-47.84919180292621
 30
0.0
 11
3.717000000000005
 21
-44.9178080108773
 31
0.0
  0
LINE
  5
11B2
  8
TITLE
 10
16.21700000000002
 20
-42.71927016684062
 30
0.0
 11
0.2170000000000041
 21
-42.71927016684061
 31
0.0
  0
TEXT
  5
11B3
  8
TEXT
 10
2.240061356364431
 20
-43.29658639818882
 30
0.0
 40
0.4378344801223241
  1
UL LISTED
 41
0.75
  7
TXT
 72
     1
 11
3.609388692947
 21
-43.29658639818882
 31
0.0
  0
TEXT
  5
11B4
  8
TEXT
 10
1.419121706135074
 20
-44.0439684399807
 30
0.0
 40
0.4378344801223241
  1
INDOOR VERSION
 41
0.75
  7
TXT
 72
     1
 11
3.609388692947
 21
-44.0439684399807
 31
0.0
  0
TEXT
  5
11B5
  8
TEXT
 10
9.146060349770648
 20
-46.24250628401743
 30
0.0
 40
0.4378344801223241
  1
COVER
 41
0.75
  7
TXT
 72
     1
 11
9.967000000000006
 21
-46.24250628401743
 31
0.0
  0
TEXT
  5
11B6
  8
TEXT
 10
8.59767266341743
 20
-47.34370870963773
 30
0.0
 40
0.4378344801223241
  1
NBB-15243
 41
0.75
  7
TXT
 72
     1
 11
9.966999999999999
 21
-47.34370870963773
 31
0.0
  0
TEXT
  5
11B7
  8
TEXT
 10
9.254424383600924
 20
-45.49512424222554
 30
0.0
 40
0.4378344801223241
  1
SOLID
 41
0.75
  7
TXT
 72
     1
 11
9.967000000000006
 21
-45.49512424222554
 31
0.0
  0
TEXT
  5
11B8
  8
TEXT
 10
7.55836306622707
 20
-44.04396843998072
 30
0.0
 40
0.4378344801223241
  1
OUTDOOR VERSION
 41
0.75
  7
TXT
 72
     1
 11
9.967000000000006
 21
-44.04396843998072
 31
0.0
  0
TEXT
  5
11B9
  8
TEXT
 10
8.597672663417438
 20
-43.29658639818883
 30
0.0
 40
0.4378344801223241
  1
UL LISTED
 41
0.75
  7
TXT
 72
     1
 11
9.967000000000006
 21
-43.29658639818883
 31
0.0
  0
TEXT
  5
11BA
  8
TEXT
 10
8.817684489678905
 20
-44.76553728680522
 30
0.0
 40
0.4378344801223241
  1
PART NO.
 41
0.75
  7
TXT
 72
     1
 11
9.967000000000006
 21
-44.76553728680522
 31
0.0
  0
TEXT
  5
11BB
  8
TEXT
 10
40.51504709228268
 20
-16.42932283573389
 30
0.0
 40
0.4383027522935781
  1
%%uUL LISTED INDOOR VERSION
 41
0.75
  7
TXT
  0
TEXT
  5
11BC
  8
TEXT
 10
40.51504709228268
 20
-21.50531596935168
 30
0.0
 40
0.4383027522935781
  1
NEMA TYPE 1, 2, 3, 3R, 4, 4X, 12 & 13
 41
0.75
  7
TXT
  0
TEXT
  5
11BD
  8
TEXT
 10
40.51504709228268
 20
-20.77481138219572
 30
0.0
 40
0.4383027522935781
  1
UL508 TYPE 1, 2, 3, 3R, 4, 4X, 12 & 13
 41
0.75
  7
TXT
  0
TEXT
  5
11BE
  8
TEXT
 10
40.51504709228268
 20
-20.04430679503976
 30
0.0
 40
0.4383027522935781
  1
%%uUL LISTED OUTDOOR VERSION
 41
0.75
  7
TXT
  0
TEXT
  5
11BF
  8
TEXT
 10
40.51504709228268
 20
-22.23582055650765
 30
0.0
 40
0.4383027522935781
  1
IEC529-IP65
 41
0.75
  7
TXT
  0
TEXT
  5
11C0
  8
TEXT
 10
9.051812849973587
 20
-18.30572393552377
 30
0.0
 40
0.4383027522935781
  1
POLYCARBONATE PLASTIC
 41
0.75
  7
TXT
  0
LINE
  5
11C1
  8
TEXT
 10
28.77911863816374
 20
-18.47127974283881
 30
0.0
 11
29.641828853073
 21
-18.47127974283882
 31
0.0
  0
LINE
  5
11C2
  8
TEXT
 10
26.73840292414212
 20
-17.74077515568285
 30
0.0
 11
29.641828853073
 21
-17.74077515568285
 31
0.0
  0
LINE
  5
11C3
  8
TEXT
 10
23.33721031080931
 20
-15.78794753687031
 30
0.0
 11
29.641828853073
 21
-15.78794753687031
 31
0.0
  0
TEXT
  5
11C4
  8
TEXT
 10
29.860578853073
 20
-16.51845212402628
 30
0.0
 40
0.4383027522935781
  1
LIGHT GRAY OR CLEAR
 41
0.75
  7
TXT
  0
TEXT
  5
11C5
  8
TEXT
 10
9.051812849973587
 20
-16.51396521651497
 30
0.0
 40
0.4383027522935781
  1
ABS/PC BLENDED PLASTIC
 41
0.75
  7
TXT
  0
LINE
  5
11C6
  8
TEXT
 10
5.397885906578359
 20
-18.30572393552377
 30
0.0
 11
8.833062849973587
 21
-18.30572393552378
 31
0.0
  0
TEXT
  5
11C7
  8
TEXT
 10
21.41465489198832
 20
-18.47127974283881
 30
0.0
 40
0.4383027522935781
  1
WALL MOUNTING BRACKETS
 41
0.75
  7
TXT
  0
LINE
  5
11C8
  8
TEXT
 10
23.75831036834678
 20
-16.51845212402628
 30
0.0
 11
29.641828853073
 21
-16.51845212402628
 31
0.0
  0
TEXT
  5
11C9
  8
TEXT
 10
21.41465489198832
 20
-17.74077515568285
 30
0.0
 40
0.4383027522935781
  1
LATCHES & HINGES
 41
0.75
  7
TXT
  0
TEXT
  5
11CA
  8
TEXT
 10
1.582233581318426
 20
-16.51396521651497
 30
0.0
 40
0.438302752293578
  1
SOLID BODY & COVER
 41
0.75
  7
TXT
  0
TEXT
  5
11CB
  8
TEXT
 10
1.582233581318426
 20
-18.30572393552377
 30
0.0
 40
0.438302752293578
  1
CLEAR COVER
 41
0.75
  7
TXT
  0
TEXT
  5
11CC
  8
TEXT
 10
21.95349958441785
 20
-16.51845212402628
 30
0.0
 40
0.4383027522935781
  1
COVER
 41
0.75
  7
TXT
  0
TEXT
  5
11CD
  8
TEXT
 10
0.6283427417781411
 20
-15.78346062935901
 30
0.0
 40
0.4383027522935781
  1
%%UUL LISTED INDOOR VERSION
 41
0.75
  7
TXT
  0
TEXT
  5
11CE
  8
TEXT
 10
21.95349958441785
 20
-15.78794753687031
 30
0.0
 40
0.4383027522935781
  1
BODY
 41
0.75
  7
TXT
  0
TEXT
  5
11CF
  8
TEXT
 10
21.41465489198832
 20
-15.05744294971435
 30
0.0
 40
0.4383027522935781
  1
%%UFINISH:
 41
0.75
  7
TXT
  0
LINE
  5
11D0
  8
TEXT
 10
7.63064055862992
 20
-16.51396521651497
 30
0.0
 11
8.833062849973587
 21
-16.51396521651497
 31
0.0
  0
TEXT
  5
11D1
  8
TEXT
 10
29.860578853073
 20
-18.47127974283884
 30
0.0
 40
0.4383027522935781
  1
STAINLESS STEEL
 41
0.75
  7
TXT
  0
TEXT
  5
11D2
  8
TEXT
 10
29.860578853073
 20
-17.74077515568285
 30
0.0
 40
0.4383027522935781
  1
NON-METALLIC
 41
0.75
  7
TXT
  0
TEXT
  5
11D3
  8
TEXT
 10
29.86057885307299
 20
-15.78794753687031
 30
0.0
 40
0.4383027522935781
  1
LIGHT GRAY
 41
0.75
  7
TXT
  0
TEXT
  5
11D4
  8
TEXT
 10
0.6058888888888987
 20
-15.05744294971435
 30
0.0
 40
0.4383027522935781
  1
%%UMATERIAL:
 41
0.75
  7
TXT
  0
TEXT
  5
11D5
  8
TEXT
 10
9.051812849973587
 20
-19.78821212970091
 30
0.0
 40
0.4383027522935781
  1
UV STABILIZED
 41
0.75
  7
TXT
  0
TEXT
  5
11D6
  8
TEXT
 10
9.051812849973587
 20
-21.63488455354535
 30
0.0
 40
0.4383027522935781
  1
UL94-5VA FLAMMABILITY RATING
 41
0.75
  7
TXT
  0
TEXT
  5
11D7
  8
TEXT
 10
9.051812849973587
 20
-22.41292024239562
 30
0.0
 40
0.4383027522935781
  1
UV STABILIZED
 41
0.75
  7
TXT
  0
TEXT
  5
11D8
  8
TEXT
 10
1.582233581318426
 20
-20.90437996638938
 30
0.0
 40
0.438302752293578
  1
SOLID BODY & COVER
 41
0.75
  7
TXT
  0
TEXT
  5
11D9
  8
TEXT
 10
0.6283427417781411
 20
-20.1738753792334
 30
0.0
 40
0.4383027522935781
  1
%%UUL LISTED OUTDOOR VERSION
 41
0.75
  7
TXT
  0
TEXT
  5
11DA
  8
TEXT
 10
9.051812849973587
 20
-20.90437996638938
 30
0.0
 40
0.4383027522935781
  1
PBT/PC BLENDED PLASTIC
 41
0.75
  7
TXT
  0
LINE
  5
11DB
  8
TEXT
 10
7.605521812674659
 20
-20.90437996638938
 30
0.0
 11
8.833062849973587
 21
-20.90437996638938
 31
0.0
  0
INSERT
  5
11DC
  8
TITLE
  2
HBS
 10
0.0
 20
-48.06693836255838
 30
0.0
 41
3.5
 42
3.5
 43
3.5
  0
TEXT
  5
11DD
  8
TEXT
 10
17.29031942092193
 20
-43.66855933962773
 30
0.0
 40
0.5
  1
%%uVIEW LESS COVER
 41
0.75
  7
TXT
 72
     4
 11
20.22656942092193
 21
-43.36855933962774
 31
0.0
  0
LINE
  5
11DE
  8
TITLE
 10
12.717
 20
-47.84919180292623
 30
0.0
 11
12.71700000000002
 21
-42.71927016684061
 31
0.0
  0
DIMENSION
  5
11DF
  8
DIM
  2
*D43
 10
39.40419264566943
 20
-26.4948513416581
 30
0.0
 11
36.00419264566943
 21
-26.4948513416581
 31
0.0
 70
    32
  1
T
  3
23NSTD
 13
32.60419264566942
 23
-25.50032612653721
 33
0.0
 14
39.40419264566943
 24
-25.50032612653721
 34
0.0
  0
LINE
  5
11EC
  8
OBJECT
 10
39.69793341349843
 20
-24.10077325752111
 30
0.0
 11
39.56061052849573
 21
-24.17215639547956
 31
0.0
  0
LINE
  5
11ED
  8
OBJECT
 10
39.4585055337531
 20
-25.08898315047995
 30
0.0
 11
39.7545542778105
 21
-25.08898315047995
 31
0.0
  0
CIRCLE
  5
11EE
  8
HIDDEN
 10
39.65657052816961
 20
-24.88081779947951
 30
0.0
 40
0.0688976364999974
  0
LINE
  5
11EF
  8
OBJECT
 10
39.66396061312817
 20
-24.76270756547999
 30
0.0
 11
32.34442467821068
 21
-24.76270756547981
 31
0.0
  0
LINE
  5
11F0
  8
OBJECT
 10
32.34442467821068
 20
-24.17215639547956
 30
0.0
 11
39.66396061312817
 21
-24.17215639547956
 31
0.0
  0
LINE
  5
11F1
  8
OBJECT
 10
40.17519264566945
 20
-24.46743198047968
 30
0.0
 11
32.26875860782473
 21
-24.46743198047968
 31
0.0
  0
LINE
  5
11F2
  8
OBJECT
 10
39.49463139061062
 20
-24.17215639547956
 30
0.0
 11
39.42419264566944
 21
-20.13672340047903
 31
0.0
  0
LINE
  5
11F3
  8
OBJECT
 10
32.51375390072822
 20
-24.17215639547956
 30
0.0
 11
32.58419264566941
 21
-20.13672340047903
 31
0.0
  0
LINE
  5
11F4
  8
CENTER
 10
36.00419264566943
 20
-25.86631393447463
 30
0.0
 11
36.00419264566943
 21
-19.89841411596267
 31
0.0
  0
LINE
  5
11F5
  8
OBJECT
 10
32.78111519771325
 20
-25.66821935947955
 30
0.0
 11
39.22727009362568
 21
-25.66821935947955
 31
0.0
  0
LINE
  5
11F6
  8
OBJECT
 10
32.60419264566948
 20
-25.50032612653772
 30
0.0
 11
32.5199859068742
 21
-24.81451727421891
 31
0.0
  0
ARC
  5
11F7
  8
OBJECT
 10
32.78111519771325
 20
-25.49105400848001
 30
0.0
 40
0.1771653510000023
 50
183.000000000001
 51
269.9999999999998
  0
ARC
  5
11F8
  8
OBJECT
 10
32.24734225566919
 20
-24.28993198047968
 30
0.0
 40
0.1774999999999984
 50
90.0
 51
276.9596745962847
  0
LINE
  5
11F9
  8
OBJECT
 10
32.26875860782473
 20
-24.46743198047968
 30
0.0
 11
32.28556839924532
 21
-24.22704076352865
 31
0.0
  0
ARC
  5
11FA
  8
OBJECT
 10
32.34442467821068
 20
-24.70370756547981
 30
0.0
 40
0.0589999999999999
 50
183.9999999999994
 51
269.9999999999993
  0
LINE
  5
11FB
  8
OBJECT
 10
32.26875860782473
 20
-24.46743198047968
 30
0.0
 11
32.28556839924532
 21
-24.70782319743071
 31
0.0
  0
ARC
  5
11FC
  8
OBJECT
 10
30.72113377624649
 20
-25.46098326963945
 30
0.0
 40
1.747017539050703
 50
26.57463255936535
 51
38.02627328486196
  0
ARC
  5
11FD
  8
OBJECT
 10
32.34442467821068
 20
-24.23115639547955
 30
0.0
 40
0.0590000000000011
 50
90.0
 51
175.9999999999998
  0
ARC
  5
11FE
  8
OBJECT
 10
32.46142568392735
 20
-24.82170756547982
 30
0.0
 40
0.059
 50
7.000000000001039
 51
90.00000000000107
  0
LINE
  5
11FF
  8
OBJECT
 10
32.51479639426983
 20
-24.11243198047969
 30
0.0
 11
32.24734225566919
 21
-24.11243198047969
 31
0.0
  0
LINE
  5
1200
  8
OBJECT
 10
39.40419264566934
 20
-25.50032612653772
 30
0.0
 11
39.48839938446464
 21
-24.81451727421891
 31
0.0
  0
ARC
  5
1201
  8
OBJECT
 10
39.2272700936256
 20
-25.49105400848001
 30
0.0
 40
0.1771653509999993
 50
270.0
 51
356.9999999999987
  0
ARC
  5
1202
  8
OBJECT
 10
39.54695960741147
 20
-24.82170756547982
 30
0.0
 40
0.0590000000000011
 50
90.0
 51
173.0
  0
LINE
  5
1203
  8
OBJECT
 10
39.42419264566944
 20
-20.13672340047903
 30
0.0
 11
32.58419264566941
 21
-20.13672340047903
 31
0.0
  0
DIMENSION
  5
1204
  8
DIM
  2
*D44
 10
39.42419264566944
 20
-19.21182465796092
 30
0.0
 11
36.00419264566943
 21
-19.21182465796092
 31
0.0
 70
    32
  1
U
  3
23NSTD
 13
32.58419264566941
 23
-20.13672340047903
 33
0.0
 14
39.42419264566944
 24
-20.13672340047903
 34
0.0
  0
POLYLINE
  5
1211
  8
OBJECT
 66
     1
 10
0.0
 20
0.0
 30
0.0
  0
VERTEX
  5
1A20
  8
OBJECT
 10
32.64194264566941
 20
-20.13672340047903
 30
0.0
  0
VERTEX
  5
1A21
  8
OBJECT
 10
32.6450375932066
 20
-20.05666828347918
 30
0.0
  0
VERTEX
  5
1A22
  8
OBJECT
 10
33.21334769813224
 20
-20.05666828347918
 30
0.0
  0
VERTEX
  5
1A23
  8
OBJECT
 10
33.21644264566943
 20
-20.13672340047903
 30
0.0
  0
SEQEND
  5
1A24
  8
OBJECT
  0
POLYLINE
  5
1212
  8
OBJECT
 66
     1
 10
0.0
 20
0.0
 30
0.0
  0
VERTEX
  5
1A25
  8
OBJECT
 10
36.64719264566942
 20
-20.13672340047903
 30
0.0
  0
VERTEX
  5
1A26
  8
OBJECT
 10
36.64409769813223
 20
-20.05666828347918
 30
0.0
  0
VERTEX
  5
1A27
  8
OBJECT
 10
36.35028759320663
 20
-20.05666828347918
 30
0.0
  0
VERTEX
  5
1A28
  8
OBJECT
 10
36.34719264566944
 20
-20.13672340047903
 30
0.0
  0
SEQEND
  5
1A29
  8
OBJECT
  0
POLYLINE
  5
1213
  8
OBJECT
 66
     1
 10
0.0
 20
0.0
 30
0.0
  0
VERTEX
  5
1A2A
  8
OBJECT
 10
33.35844264566943
 20
-20.13672340047903
 30
0.0
  0
VERTEX
  5
1A2B
  8
OBJECT
 10
33.36153759320662
 20
-20.05666828347918
 30
0.0
  0
VERTEX
  5
1A2C
  8
OBJECT
 10
33.92984769813224
 20
-20.05666828347918
 30
0.0
  0
VERTEX
  5
1A2D
  8
OBJECT
 10
33.93294264566943
 20
-20.13672340047903
 30
0.0
  0
SEQEND
  5
1A2E
  8
OBJECT
  0
POLYLINE
  5
1214
  8
OBJECT
 66
     1
 10
0.0
 20
0.0
 30
0.0
  0
VERTEX
  5
1A2F
  8
OBJECT
 10
34.67519264566945
 20
-20.13672340047903
 30
0.0
  0
VERTEX
  5
1A30
  8
OBJECT
 10
34.67209769813225
 20
-20.05666828347918
 30
0.0
  0
VERTEX
  5
1A31
  8
OBJECT
 10
34.37828759320662
 20
-20.05666828347918
 30
0.0
  0
VERTEX
  5
1A32
  8
OBJECT
 10
34.37519264566943
 20
-20.13672340047903
 30
0.0
  0
SEQEND
  5
1A33
  8
OBJECT
  0
POLYLINE
  5
1215
  8
OBJECT
 66
     1
 10
0.0
 20
0.0
 30
0.0
  0
VERTEX
  5
1A34
  8
OBJECT
 10
35.66119264566943
 20
-20.13672340047903
 30
0.0
  0
VERTEX
  5
1A35
  8
OBJECT
 10
35.65809769813224
 20
-20.05666828347918
 30
0.0
  0
VERTEX
  5
1A36
  8
OBJECT
 10
35.36428759320662
 20
-20.05666828347918
 30
0.0
  0
VERTEX
  5
1A37
  8
OBJECT
 10
35.36119264566942
 20
-20.13672340047903
 30
0.0
  0
SEQEND
  5
1A38
  8
OBJECT
  0
POLYLINE
  5
1216
  8
OBJECT
 66
     1
 10
0.0
 20
0.0
 30
0.0
  0
VERTEX
  5
1A39
  8
OBJECT
 10
37.63319264566944
 20
-20.13672340047903
 30
0.0
  0
VERTEX
  5
1A3A
  8
OBJECT
 10
37.63009769813225
 20
-20.05666828347918
 30
0.0
  0
VERTEX
  5
1A3B
  8
OBJECT
 10
37.33628759320662
 20
-20.05666828347918
 30
0.0
  0
VERTEX
  5
1A3C
  8
OBJECT
 10
37.33319264566943
 20
-20.13672340047903
 30
0.0
  0
SEQEND
  5
1A3D
  8
OBJECT
  0
POLYLINE
  5
1217
  8
OBJECT
 66
     1
 10
0.0
 20
0.0
 30
0.0
  0
VERTEX
  5
1A3E
  8
OBJECT
 10
39.36644264566944
 20
-20.13672340047903
 30
0.0
  0
VERTEX
  5
1A3F
  8
OBJECT
 10
39.36334769813225
 20
-20.05666828347918
 30
0.0
  0
VERTEX
  5
1A40
  8
OBJECT
 10
38.79503759320663
 20
-20.05666828347918
 30
0.0
  0
VERTEX
  5
1A41
  8
OBJECT
 10
38.79194264566944
 20
-20.13672340047903
 30
0.0
  0
SEQEND
  5
1A42
  8
OBJECT
  0
POLYLINE
  5
1218
  8
OBJECT
 66
     1
 10
0.0
 20
0.0
 30
0.0
  0
VERTEX
  5
1A43
  8
OBJECT
 10
38.64994264566945
 20
-20.13672340047903
 30
0.0
  0
VERTEX
  5
1A44
  8
OBJECT
 10
38.64684769813225
 20
-20.05666828347918
 30
0.0
  0
VERTEX
  5
1A45
  8
OBJECT
 10
38.07853759320661
 20
-20.05666828347918
 30
0.0
  0
VERTEX
  5
1A46
  8
OBJECT
 10
38.07544264566942
 20
-20.13672340047903
 30
0.0
  0
SEQEND
  5
1A47
  8
OBJECT
  0
LINE
  5
1219
  8
OBJECT
 10
40.03042505741088
 20
-23.25803700788772
 30
0.0
 11
39.86326343766952
 21
-24.2783341656274
 31
0.0
  0
LINE
  5
121A
  8
OBJECT
 10
39.97787141545574
 20
-23.24216839187817
 30
0.0
 11
39.69793341349843
 21
-24.10077325752111
 31
0.0
  0
LINE
  5
121B
  8
OBJECT
 10
39.93169264566943
 20
-24.91490976119995
 30
0.0
 11
39.93169264566943
 21
-24.46743198047968
 31
0.0
  0
ARC
  5
121C
  8
OBJECT
 10
39.7545542778105
 20
-24.91181779948775
 30
0.0
 40
0.1771653509999984
 50
269.9994624464302
 51
358.9999999999938
  0
LINE
  5
121D
  8
OBJECT
 10
39.73962668351412
 20
-24.46743198047968
 30
0.0
 11
39.72281689209349
 21
-24.22704076352865
 31
0.0
  0
LINE
  5
121E
  8
OBJECT
 10
40.17519264566945
 20
-24.33443198047968
 30
0.0
 11
39.86326343766952
 21
-24.33443198047968
 31
0.0
  0
LINE
  5
121F
  8
OBJECT
 10
40.17519264566945
 20
-24.60043198047968
 30
0.0
 11
39.93169264566943
 21
-24.60043198047968
 31
0.0
  0
LINE
  5
1220
  8
OBJECT
 10
39.73962668351412
 20
-24.46743198047968
 30
0.0
 11
39.72281689209349
 21
-24.70782319743071
 31
0.0
  0
LINE
  5
1221
  8
OBJECT
 10
39.86326343766952
 20
-24.46743198047968
 30
0.0
 11
39.86326343766952
 21
-24.2783341656274
 31
0.0
  0
LINE
  5
1222
  8
OBJECT
 10
39.75029600276877
 20
-24.53977817551447
 30
0.0
 11
39.75029600276877
 21
-24.27377817551447
 31
0.0
  0
ARC
  5
1223
  8
OBJECT
 10
39.66396061312817
 20
-24.70370756547981
 30
0.0
 40
0.0590000000000011
 50
270.0
 51
355.9999999999998
  0
ARC
  5
1224
  8
OBJECT
 10
39.66396061312817
 20
-24.23115639547955
 30
0.0
 40
0.0589999999999999
 50
3.999999999999444
 51
89.99999999999929
  0
ARC
  5
1225
  8
OBJECT
 10
40.00199899093529
 20
-23.25722056563176
 30
0.0
 40
0.0284377888245722
 50
343.0362544530527
 51
148.0417053691257
  0
TEXT
  5
1226
  8
TEXT
 10
0.6058888888888987
 20
-31.04177034699846
 30
0.0
 40
0.4383027522935781
  1
COVER INCLUDES GRAY POLYURETHANE GASKET.
 41
0.75
  7
TXT
  0
TEXT
  5
1227
  8
TEXT
 10
2.343845394418337
 20
-28.85025658553057
 30
0.0
 40
0.4383027522935781
  1
& (4) M5 x 10mm LG. TRUSS
 41
0.75
  7
TXT
  0
LINE
  5
1228
  8
TITLE
 10
16.217
 20
-47.84919180292624
 30
0.0
 11
16.21700000000002
 21
-42.71927016684062
 31
0.0
  0
TEXT
  5
1229
  8
TEXT
 10
13.06375923748988
 20
-47.34370870963773
 30
0.0
 40
0.4378344801223241
  1
NBB-22243
 41
0.75
  7
TXT
 72
     1
 11
14.48726859098759
 21
-47.34370870963773
 31
0.0
  0
TEXT
  5
122A
  8
TEXT
 10
13.3379530806665
 20
-44.76553728680522
 30
0.0
 40
0.4378344801223241
  1
PART NO.
 41
0.75
  7
TXT
 72
     1
 11
14.4872685909876
 21
-44.76553728680522
 31
0.0
  0
TEXT
  5
122B
  8
TEXT
 10
13.66632894075824
 20
-46.24250628401743
 30
0.0
 40
0.4378344801223241
  1
COVER
 41
0.75
  7
TXT
 72
     1
 11
14.4872685909876
 21
-46.24250628401743
 31
0.0
  0
TEXT
  5
122C
  8
TEXT
 10
13.77469297458852
 20
-45.49512424222554
 30
0.0
 40
0.4378344801223241
  1
SOLID
 41
0.75
  7
TXT
 72
     1
 11
14.4872685909876
 21
-45.49512424222554
 31
0.0
  0
TEXT
  5
122D
  8
TEXT
 10
9.067389637774374
 20
-24.1907901590616
 30
0.0
 40
0.4383027522935781
  1
UL94-HB FLAMMABILITY RATING
 41
0.75
  7
TXT
  0
TEXT
  5
122E
  8
TEXT
 10
0.723862435406673
 20
-22.62497477403827
 30
0.0
 40
0.4383027522935781
  1
%%UABS VERSION
 41
0.75
  7
TXT
  0
TEXT
  5
122F
  8
TEXT
 10
1.675271553353553
 20
-23.38183038472085
 30
0.0
 40
0.438302752293578
  1
SOLID BODY & COVER
 41
0.75
  7
TXT
  0
LINE
  5
1230
  8
TEXT
 10
7.645883770791215
 20
-23.38183038472085
 30
0.0
 11
8.707646827972098
 21
-23.38183038472085
 31
0.0
  0
TEXT
  5
1231
  8
TEXT
 10
9.067389637774374
 20
-23.38183038472085
 30
0.0
 40
0.4383027522935781
  1
ABS
 41
0.75
  7
TXT
  0
INSERT
  5
1232
  8
TEXT
  2
*X50
 10
0.0
 20
0.0
 30
0.0
  0
LINE
  5
1233
  8
TEXT
 10
3.237811458043594
 20
-25.79088449129588
 30
0.0
 11
6.357560237843884
 21
-25.79088449129588
 31
0.0
  0
TEXT
  5
1234
  8
TEXT
 10
40.51504709228268
 20
-23.70219104845797
 30
0.0
 40
0.4383027522935781
  1
%%uABS VERSION
 41
0.75
  7
TXT
  0
TEXT
  5
1235
  8
TEXT
 10
40.51504709228268
 20
-24.42797918941535
 30
0.0
 40
0.4383027522935781
  1
NEMA TYPE 1, 2, 3, 3R, 4, 4X, 12 & 13
 41
0.75
  7
TXT
  0
TEXT
  5
1236
  8
TEXT
 10
40.51504709228268
 20
-25.15848377657132
 30
0.0
 40
0.4383027522935781
  1
IEC529-IP65
 41
0.75
  7
TXT
  0
TEXT
  5
1237
  8
TEXT
 10
14.05682822825451
 20
-43.29658639818883
 30
0.0
 40
0.4378344801223241
  1
ABS
 41
0.75
  7
TXT
 72
     1
 11
14.49521000147699
 21
-43.29658639818883
 31
0.0
  0
TEXT
  5
1238
  8
TEXT
 10
13.40007650807103
 20
-44.04396843998072
 30
0.0
 40
0.4378344801223241
  1
VERSION
 41
0.75
  7
TXT
 72
     1
 11
14.49521000147699
 21
-44.04396843998072
 31
0.0
  0
LINE
  5
1239
  8
TITLE
 10
18.31790000000001
 20
-45.65065395888954
 30
0.0
 11
18.31790000000001
 21
-47.84993836255838
 31
0.0
  0
LINE
  5
123A
  8
TITLE
 10
20.41880000000001
 20
-45.65065395888954
 30
0.0
 11
20.41880000000001
 21
-47.84993836255838
 31
0.0
  0
LINE
  5
123B
  8
TITLE
 10
22.51970000000001
 20
-45.65065395888954
 30
0.0
 11
22.51970000000001
 21
-47.84993836255838
 31
0.0
  0
LINE
  5
123C
  8
TITLE
 10
24.62060000000001
 20
-45.65065395888954
 30
0.0
 11
24.62060000000001
 21
-47.84993836255838
 31
0.0
  0
LINE
  5
123D
  8
TITLE
 10
26.72150000000001
 20
-45.65065395888954
 30
0.0
 11
26.72150000000001
 21
-47.84993836255838
 31
0.0
  0
LINE
  5
123E
  8
TITLE
 10
28.82240000000001
 20
-45.65065395888954
 30
0.0
 11
28.82240000000001
 21
-47.84993836255838
 31
0.0
  0
LINE
  5
123F
  8
TITLE
 10
30.92330000000001
 20
-45.65065395888954
 30
0.0
 11
30.92330000000001
 21
-47.84993836255838
 31
0.0
  0
LINE
  5
1240
  8
TITLE
 10
33.02420000000001
 20
-45.65065395888954
 30
0.0
 11
33.02420000000001
 21
-47.84993836255838
 31
0.0
  0
LINE
  5
1241
  8
TITLE
 10
35.12510000000002
 20
-45.65065395888954
 30
0.0
 11
35.12510000000002
 21
-47.84993836255838
 31
0.0
  0
LINE
  5
1242
  8
TITLE
 10
37.22600000000001
 20
-45.65065395888954
 30
0.0
 11
37.22600000000001
 21
-47.84993836255838
 31
0.0
  0
LINE
  5
1243
  8
TITLE
 10
39.32690000000001
 20
-45.65065395888954
 30
0.0
 11
39.32690000000001
 21
-47.84993836255838
 31
0.0
  0
LINE
  5
1244
  8
TITLE
 10
41.42780000000001
 20
-45.65065395888954
 30
0.0
 11
41.42780000000001
 21
-47.84993836255838
 31
0.0
  0
LINE
  5
1245
  8
TITLE
 10
43.52870000000002
 20
-45.65065395888954
 30
0.0
 11
43.52870000000002
 21
-47.84993836255838
 31
0.0
  0
LINE
  5
1246
  8
TITLE
 10
45.62960000000002
 20
-45.65065395888954
 30
0.0
 11
45.62960000000002
 21
-47.84993836255838
 31
0.0
  0
LINE
  5
1247
  8
TITLE
 10
47.73050000000002
 20
-45.65065395888954
 30
0.0
 11
47.73050000000002
 21
-47.84993836255838
 31
0.0
  0
LINE
  5
1248
  8
TITLE
 10
49.83140000000002
 20
-45.65065395888954
 30
0.0
 11
49.83140000000002
 21
-47.84993836255838
 31
0.0
  0
LINE
  5
1249
  8
TITLE
 10
51.93230000000002
 20
-45.65065395888954
 30
0.0
 11
51.93230000000002
 21
-47.84993836255838
 31
0.0
  0
TEXT
  5
124A
  8
DIM
 10
25.35794972570322
 20
-24.67491010435038
 30
0.0
 40
0.4356382978500001
  1
0.390 [10] TALL (INSIDE)
 41
0.75
  7
TXT
 11
25.35794972570322
 21
-24.45709095542538
 31
0.0
 73
     2
  0
TEXT
  5
124B
  8
DIM
 10
24.98511002079494
 20
-39.947357913341
 30
0.0
 40
0.4356382978500001
  1
0.280 [7] TALL (INSIDE)
 41
0.75
  7
TXT
 11
24.98511002079494
 21
-39.729538764416
 31
0.0
 73
     2
  0
TEXT
  5
124C
  8
DIM
 10
48.21555096129784
 20
-35.78840488567239
 30
0.0
 40
0.4356382978500001
  1
BASE THICKNESS
 41
0.75
  7
TXT
 11
48.21555096129784
 21
-35.57058573674738
 31
0.0
 73
     2
  0
TEXT
  5
124D
  8
DIM
 10
25.39374067113068
 20
-27.59513924146717
 30
0.0
 40
0.4356382978500001
  1
(4) PLACES OUTSIDE
 41
0.75
  7
TXT
 11
25.39374067113068
 21
-27.37732009254217
 31
0.0
 73
     2
  0
TEXT
  5
124E
  8
DIM
 10
24.84974258414526
 20
-43.59050430511983
 30
0.0
 40
0.4356382978500001
  1
x 0.250 [6] LG. (NOT SUPPLIED)
 41
0.75
  7
TXT
 11
24.84974258414526
 21
-43.37268515619483
 31
0.0
 73
     2
  0
TEXT
  5
124F
  8
DIM
 10
24.84974258414526
 20
-42.86990505177576
 30
0.0
 40
0.4356382978500001
  1
#10 STD. SHEET METAL SCREWS
 41
0.75
  7
TXT
 11
24.84974258414526
 21
-42.65208590285076
 31
0.0
 73
     2
  0
TEXT
  5
1250
  8
TEXT
 10
49.36043235814585
 20
-48.67449773892714
 30
0.0
 40
0.4368000000000001
  1
Revised 03OCT14
 41
0.75
  7
TXT
 72
     4
 11
51.57173235814585
 21
-48.45609773892714
 31
0.0
  0
CIRCLE
  5
125A
  8
OBJECT
 10
23.24656942092193
 20
-28.05776502210834
 30
0.0
 40
0.2875
  0
CIRCLE
  5
125B
  8
OBJECT
 10
17.20656942092193
 20
-28.05776502210834
 30
0.0
 40
0.2875
  0
CIRCLE
  5
125C
  8
OBJECT
 10
17.20656942092193
 20
-37.93276502210834
 30
0.0
 40
0.2875
  0
CIRCLE
  5
125D
  8
OBJECT
 10
23.24656942092193
 20
-37.93276502210834
 30
0.0
 40
0.2875
  0
DIMENSION
  5
125E
  8
OBJECT
  2
*D47
 10
23.24656942092193
 20
-26.57852978672659
 30
0.0
 11
20.22656942092193
 21
-26.57852978672659
 31
0.0
 70
    32
  1
C
  3
23NSTD
 13
17.20656942092193
 23
-28.05776502210834
 33
0.0
 14
23.24656942092193
 24
-28.05776502210834
 34
0.0
  0
DIMENSION
  5
1283
  8
OBJECT
  2
*D49
 10
15.73376635291603
 20
-28.05776502210834
 30
0.0
 11
15.73376635291603
 21
-32.99526502210834
 31
0.0
 70
    32
  1
J
  3
23NSTD
 13
17.20656942092193
 23
-37.93276502210834
 33
0.0
 14
17.20656942092193
 24
-28.05776502210834
 34
0.0
 50
90.0
  0
LINE
  5
180E
  8
0
 62
     0
 10
47.67057077349939
 20
-38.22991285775706
 30
0.0
 11
47.45523568677794
 21
-38.0145777710356
 31
0.0
  0
LINE
  5
180F
  8
0
 62
     0
 10
47.31224007149942
 20
-37.87158215575709
 30
0.0
 11
47.17751565649979
 21
-37.73685774075746
 31
0.0
  0
LINE
  5
1810
  8
0
 62
     0
 10
47.6705707734994
 20
-37.69958277186716
 30
0.0
 11
47.65891129227197
 21
-37.68792329063972
 31
0.0
  0
LINE
  5
1811
  8
0
 62
     0
 10
47.39044688076104
 20
-37.41945887912879
 30
0.0
 11
47.19299491328987
 21
-37.22200691165762
 31
0.0
  0
LINE
  5
1812
  8
0
 62
     0
 10
47.59051565649955
 20
-37.6195276548673
 30
0.0
 11
47.45751565649957
 21
-37.48652765486732
 31
0.0
  0
LINE
  5
1813
  8
0
 62
     0
 10
47.67057077349939
 20
-37.16925268597724
 30
0.0
 11
47.35172083785215
 21
-36.85040275033001
 31
0.0
  0
LINE
  5
1814
  8
0
 62
     0
 10
47.62652121318181
 20
-36.59487303976975
 30
0.0
 11
47.49284635849953
 21
-36.46119818508747
 31
0.0
  0
LINE
  5
1815
  8
0
 62
     0
 10
47.39291319552041
 20
-36.36126502210834
 30
0.0
 11
47.26261481202155
 21
-36.23096663860948
 31
0.0
  0
LINE
  5
1816
  8
0
 62
     0
 10
47.59051565649955
 20
-36.02853739719757
 30
0.0
 11
47.45751565649956
 21
-35.89553739719759
 31
0.0
  0
LINE
  5
1817
  8
0
 62
     0
 10
47.23664883119151
 20
-35.67467057188954
 30
0.0
 11
47.17751565649958
 21
-35.6155373971976
 31
0.0
  0
LINE
  5
1818
  8
0
 62
     0
 10
47.6705707734994
 20
-35.57826242830753
 30
0.0
 11
47.49284635849953
 21
-35.40053801330765
 31
0.0
  0
LINE
  5
1819
  8
0
 62
     0
 10
47.46757336730022
 20
-35.37526502210834
 30
0.0
 11
47.33479314981606
 21
-35.24248480462418
 31
0.0
  0
LINE
  5
181A
  8
0
 62
     0
 10
47.59051565649956
 20
-34.96787722541775
 30
0.0
 11
47.45751565649956
 21
-34.83487722541776
 31
0.0
  0
LINE
  5
181B
  8
0
 62
     0
 10
47.31396758900561
 20
-34.69132915792382
 30
0.0
 11
47.18190345319014
 21
-34.55926502210834
 31
0.0
  0
LINE
  5
181C
  8
0
 62
     0
 10
47.6705707734994
 20
-34.5176022565277
 30
0.0
 11
47.40697148761059
 21
-34.25400297063889
 31
0.0
  0
LINE
  5
181D
  8
0
 62
     0
 10
47.59051565649956
 20
-33.90721705363794
 30
0.0
 11
47.45751565649956
 21
-33.77421705363794
 31
0.0
  0
LINE
  5
181E
  8
0
 62
     0
 10
47.39128634681971
 20
-33.70798774395809
 30
0.0
 11
47.25656362496997
 21
-33.57326502210835
 31
0.0
  0
LINE
  5
181F
  8
0
 62
     0
 10
47.6705707734994
 20
-33.45694208474787
 30
0.0
 11
47.45751565649956
 21
-33.24388696774803
 31
0.0
  0
LINE
  5
1820
  8
0
 62
     0
 10
47.23155414108432
 20
-38.3212263112319
 30
0.0
 11
47.09759746881047
 21
-38.18726963895804
 31
0.0
  0
LINE
  5
1821
  8
0
 62
     0
 10
46.70988739695763
 20
-38.32988965299511
 30
0.0
 11
46.57260318476656
 21
-38.19260544080404
 31
0.0
  0
LINE
  5
1822
  8
0
 62
     0
 10
46.18822065283094
 20
-38.33855299475833
 30
0.0
 11
46.04760890072265
 21
-38.19794124265005
 31
0.0
  0
LINE
  5
1823
  8
0
 62
     0
 10
45.66655390870424
 20
-38.34721633652156
 30
0.0
 11
45.52261461667873
 21
-38.20327704449604
 31
0.0
  0
LINE
  5
1824
  8
0
 62
     0
 10
45.14488716457755
 20
-38.35587967828477
 30
0.0
 11
44.99762033263482
 21
-38.20861284634204
 31
0.0
  0
LINE
  5
1825
  8
0
 62
     0
 10
44.62322042045086
 20
-38.36454302004799
 30
0.0
 11
44.47262604859091
 21
-38.21394864818804
 31
0.0
  0
LINE
  5
1826
  8
0
 62
     0
 10
44.10155367632416
 20
-38.3732063618112
 30
0.0
 11
43.947631764547
 21
-38.21928445003404
 31
0.0
  0
LINE
  5
1827
  8
0
 62
     0
 10
43.57988693219747
 20
-38.38186970357442
 30
0.0
 11
43.42263748050309
 21
-38.22462025188003
 31
0.0
  0
LINE
  5
1828
  8
0
 62
     0
 10
43.30019770385031
 20
-38.63251056111719
 30
0.0
 11
43.26080707649892
 21
-38.59311993376578
 31
0.0
  0
LINE
  5
1829
  8
0
 62
     0
 10
47.6705707734994
 20
-38.16362159702082
 30
0.0
 11
47.52210360226702
 21
-38.01515442578845
 31
0.0
  0
LINE
  5
182A
  8
0
 62
     0
 10
47.35873366269434
 20
-37.85178448621576
 30
0.0
 11
47.20103328055392
 21
-37.69408410407534
 31
0.0
  0
LINE
  5
182B
  8
0
 62
     0
 10
47.59051565649955
 20
-37.55323639413106
 30
0.0
 11
47.25454971222862
 21
-37.21727044986013
 31
0.0
  0
LINE
  5
182C
  8
0
 62
     0
 10
47.67057077349939
 20
-37.10296142524101
 30
0.0
 11
47.41580846176435
 21
-36.84819911350596
 31
0.0
  0
LINE
  5
182D
  8
0
 62
     0
 10
47.227981910252
 20
-36.6603725619936
 30
0.0
 11
47.17751565649957
 21
-36.60990630824118
 31
0.0
  0
LINE
  5
182E
  8
0
 62
     0
 10
47.67057077349939
 20
-36.57263133935109
 30
0.0
 11
47.49284635849953
 21
-36.39490692435123
 31
0.0
  0
LINE
  5
182F
  8
0
 62
     0
 10
47.45920445625664
 20
-36.36126502210834
 30
0.0
 11
47.32670243593375
 21
-36.22876300178544
 31
0.0
  0
LINE
  5
1830
  8
0
 62
     0
 10
47.59051565649955
 20
-35.96224613646135
 30
0.0
 11
47.45751565649956
 21
-35.82924613646134
 31
0.0
  0
LINE
  5
1831
  8
0
 62
     0
 10
47.30530066806609
 20
-35.67703114802788
 30
0.0
 11
47.17751565649962
 21
-35.54924613646141
 31
0.0
  0
LINE
  5
1832
  8
0
 62
     0
 10
47.6705707734994
 20
-35.51197116757128
 30
0.0
 11
47.39888077372826
 21
-35.24028116780014
 31
0.0
  0
LINE
  5
1833
  8
0
 62
     0
 10
47.59051565649956
 20
-34.90158596468152
 30
0.0
 11
47.45751565649956
 21
-34.76858596468152
 31
0.0
  0
LINE
  5
1834
  8
0
 62
     0
 10
47.3826194258802
 20
-34.69368973406216
 30
0.0
 11
47.24819471392638
 21
-34.55926502210834
 31
0.0
  0
LINE
  5
1835
  8
0
 62
     0
 10
47.67057077349941
 20
-34.45131099579146
 30
0.0
 11
47.45751565649956
 21
-34.23825587879161
 31
0.0
  0
LINE
  5
1836
  8
0
 62
     0
 10
47.59051565649956
 20
-33.8409257929017
 30
0.0
 11
47.32285488570621
 21
-33.57326502210835
 31
0.0
  0
LINE
  5
1837
  8
0
 62
     0
 10
47.67057077349941
 20
-33.39065082401164
 30
0.0
 11
47.61929769106142
 21
-33.33937774157364
 31
0.0
  0
LINE
  5
1838
  8
0
 62
     0
 10
47.59051565649956
 20
-33.31059570701179
 30
0.0
 11
47.45751565649956
 21
-33.17759570701179
 31
0.0
  0
LINE
  5
1839
  8
0
 62
     0
 10
47.29676248410016
 20
-38.3201433935115
 30
0.0
 11
47.16322175431596
 21
-38.18660266372729
 31
0.0
  0
LINE
  5
183A
  8
0
 62
     0
 10
46.77509573997347
 20
-38.32880673527471
 30
0.0
 11
46.63822747027204
 21
-38.19193846557329
 31
0.0
  0
LINE
  5
183B
  8
0
 62
     0
 10
46.25342899584678
 20
-38.33747007703793
 30
0.0
 11
46.11323318622814
 21
-38.19727426741929
 31
0.0
  0
LINE
  5
183C
  8
0
 62
     0
 10
45.73176225172008
 20
-38.34613341880115
 30
0.0
 11
45.58823890218422
 21
-38.20261006926529
 31
0.0
  0
LINE
  5
183D
  8
0
 62
     0
 10
45.21009550759339
 20
-38.35479676056437
 30
0.0
 11
45.06324461814031
 21
-38.20794587111129
 31
0.0
  0
LINE
  5
183E
  8
0
 62
     0
 10
44.6884287634667
 20
-38.36346010232758
 30
0.0
 11
44.5382503340964
 21
-38.21328167295728
 31
0.0
  0
LINE
  5
183F
  8
0
 62
     0
 10
44.16676201934
 20
-38.3721234440908
 30
0.0
 11
44.01325605005249
 21
-38.2186174748033
 31
0.0
  0
LINE
  5
1840
  8
0
 62
     0
 10
43.64509527521331
 20
-38.38078678585402
 30
0.0
 11
43.48826176600858
 21
-38.22395327664929
 31
0.0
  0
LINE
  5
1841
  8
0
 62
     0
 10
43.362156391114
 20
-38.62817798764462
 30
0.0
 11
43.26080707649892
 21
-38.52682867302954
 31
0.0
  0
LINE
  5
1842
  8
0
 62
     0
 10
43.21724342557772
 20
-38.48326502210834
 30
0.0
 11
43.16117651534747
 21
-38.42719811187809
 31
0.0
  0
LINE
  5
1843
  8
0
 62
     0
 10
47.6705707734994
 20
-38.09733033628459
 30
0.0
 11
47.58897151775611
 21
-38.01573108054129
 31
0.0
  0
LINE
  5
1844
  8
0
 62
     0
 10
47.4244581295368
 20
-37.851217692322
 30
0.0
 11
47.26512090446611
 21
-37.6918804672513
 31
0.0
  0
LINE
  5
1845
  8
0
 62
     0
 10
47.59051565649955
 20
-37.48694513339483
 30
0.0
 11
47.32027417907118
 21
-37.21670365596646
 31
0.0
  0
LINE
  5
1846
  8
0
 62
     0
 10
47.6705707734994
 20
-37.03667016450476
 30
0.0
 11
47.45751565649957
 21
-36.82361504750493
 31
0.0
  0
LINE
  5
1847
  8
0
 62
     0
 10
47.29663374712658
 20
-36.66273313813194
 30
0.0
 11
47.17751565649961
 21
-36.54361504750499
 31
0.0
  0
LINE
  5
1848
  8
0
 62
     0
 10
47.6705707734994
 20
-36.50634007861485
 30
0.0
 11
47.39079005984594
 21
-36.2265593649614
 31
0.0
  0
LINE
  5
1849
  8
0
 62
     0
 10
47.59051565649955
 20
-35.8959548757251
 30
0.0
 11
47.45751565649956
 21
-35.7629548757251
 31
0.0
  0
LINE
  5
184A
  8
0
 62
     0
 10
47.37395250494068
 20
-35.67939172416623
 30
0.0
 11
47.2398258028828
 21
-35.54526502210835
 31
0.0
  0
LINE
  5
184B
  8
0
 62
     0
 10
47.67057077349941
 20
-35.44567990683504
 30
0.0
 11
47.45751565649956
 21
-35.23262478983519
 31
0.0
  0
LINE
  5
184C
  8
0
 62
     0
 10
47.59051565649956
 20
-34.83529470394528
 30
0.0
 11
47.45751565649956
 21
-34.70229470394528
 31
0.0
  0
LINE
  5
184D
  8
0
 62
     0
 10
47.45127126275478
 20
-34.6960503102005
 30
0.0
 11
47.31448597466262
 21
-34.55926502210834
 31
0.0
  0
LINE
  5
184E
  8
0
 62
     0
 10
47.67057077349941
 20
-34.38501973505522
 30
0.0
 11
47.61059222487763
 21
-34.32504118643345
 31
0.0
  0
LINE
  5
184F
  8
0
 62
     0
 10
47.59051565649956
 20
-34.30496461805537
 30
0.0
 11
47.45751565649956
 21
-34.17196461805537
 31
0.0
  0
LINE
  5
1850
  8
0
 62
     0
 10
47.59051565649956
 20
-33.77463453216546
 30
0.0
 11
47.38914614644245
 21
-33.57326502210835
 31
0.0
  0
LINE
  5
1851
  8
0
 62
     0
 10
47.21914614644244
 20
-33.40326502210834
 30
0.0
 11
47.17751565649976
 21
-33.36163453216567
 31
0.0
  0
LINE
  5
1852
  8
0
 62
     0
 10
47.59051565649956
 20
-33.24430444627555
 30
0.0
 11
47.45751565649956
 21
-33.11130444627555
 31
0.0
  0
LINE
  5
1853
  8
0
 62
     0
 10
47.361970827116
 20
-38.31906047579109
 30
0.0
 11
47.17751565649958
 21
-38.13460530517468
 31
0.0
  0
LINE
  5
1854
  8
0
 62
     0
 10
46.8403040829893
 20
-38.32772381755431
 30
0.0
 11
46.70385175577754
 21
-38.19127149034254
 31
0.0
  0
LINE
  5
1855
  8
0
 62
     0
 10
46.31863733886261
 20
-38.33638715931753
 30
0.0
 11
46.17885747173363
 21
-38.19660729218855
 31
0.0
  0
LINE
  5
1856
  8
0
 62
     0
 10
45.79697059473592
 20
-38.34505050108075
 30
0.0
 11
45.65386318768971
 21
-38.20194309403454
 31
0.0
  0
LINE
  5
1857
  8
0
 62
     0
 10
45.27530385060922
 20
-38.35371384284396
 30
0.0
 11
45.1288689036458
 21
-38.20727889588054
 31
0.0
  0
LINE
  5
1858
  8
0
 62
     0
 10
44.75363710648253
 20
-38.36237718460718
 30
0.0
 11
44.60387461960189
 21
-38.21261469772654
 31
0.0
  0
LINE
  5
1859
  8
0
 62
     0
 10
44.23197036235584
 20
-38.3710405263704
 30
0.0
 11
44.07888033555798
 21
-38.21795049957254
 31
0.0
  0
LINE
  5
185A
  8
0
 62
     0
 10
43.71030361822914
 20
-38.37970386813361
 30
0.0
 11
43.55388605151407
 21
-38.22328630141854
 31
0.0
  0
LINE
  5
185B
  8
0
 62
     0
 10
43.42411507837769
 20
-38.62384541417207
 30
0.0
 11
43.18869157529059
 21
-38.38842191108498
 31
0.0
  0
LINE
  5
185C
  8
0
 62
     0
 10
47.5575958561635
 20
-38.31581172262989
 30
0.0
 11
47.17751565649969
 21
-37.93573152296607
 31
0.0
  0
LINE
  5
185D
  8
0
 62
     0
 10
47.62163153006421
 20
-37.84951731064069
 30
0.0
 11
47.4573837762027
 21
-37.68526955677918
 31
0.0
  0
LINE
  5
185E
  8
0
 62
     0
 10
47.67057077349939
 20
-37.36812646818595
 30
0.0
 11
47.51744757959885
 21
-37.2150032742854
 31
0.0
  0
LINE
  5
185F
  8
0
 62
     0
 10
47.35456642261541
 20
-37.05212211730197
 30
0.0
 11
47.17751856362933
 21
-36.87507425831589
 31
0.0
  0
LINE
  5
1860
  8
0
 62
     0
 10
47.59051565649955
 20
-36.7577412652962
 30
0.0
 11
47.3640394133117
 21
-36.53126502210834
 31
0.0
  0
LINE
  5
1861
  8
0
 62
     0
 10
47.19403941331169
 20
-36.36126502210834
 30
0.0
 11
47.17751565649975
 21
-36.34474126529641
 31
0.0
  0
LINE
  5
1862
  8
0
 62
     0
 10
47.67057077349941
 20
-36.30746629640614
 30
0.0
 11
47.66213845140616
 21
-36.29903397431291
 31
0.0
  0
LINE
  5
1863
  8
0
 62
     0
 10
47.59051565649955
 20
-36.22741117940629
 30
0.0
 11
47.45751565649956
 21
-36.0944111794063
 31
0.0
  0
LINE
  5
1864
  8
0
 62
     0
 10
47.59051565649955
 20
-35.69708109351638
 30
0.0
 11
47.43869958509152
 21
-35.54526502210835
 31
0.0
  0
LINE
  5
1865
  8
0
 62
     0
 10
47.26869958509151
 20
-35.37526502210834
 30
0.0
 11
47.1775156564998
 21
-35.28408109351663
 31
0.0
  0
LINE
  5
1866
  8
0
 62
     0
 10
47.59051565649956
 20
-35.16675100762647
 30
0.0
 11
47.45751565649956
 21
-35.03375100762648
 31
0.0
  0
LINE
  5
1867
  8
0
 62
     0
 10
47.59051565649956
 20
-34.63642092173656
 30
0.0
 11
47.49284635849953
 21
-34.53875162373654
 31
0.0
  0
LINE
  5
1868
  8
0
 62
     0
 10
47.34335975687133
 20
-34.38926502210834
 30
0.0
 11
47.21470861587401
 21
-34.26061388111102
 31
0.0
  0
LINE
  5
1869
  8
0
 62
     0
 10
47.59051565649956
 20
-34.10609083584665
 30
0.0
 11
47.45751565649956
 21
-33.97309083584666
 31
0.0
  0
LINE
  5
186A
  8
0
 62
     0
 10
47.65069344286627
 20
-33.63593853632345
 30
0.0
 11
47.49284635849953
 21
-33.47809145195672
 31
0.0
  0
LINE
  5
186B
  8
0
 62
     0
 10
47.41801992865115
 20
-33.40326502210834
 30
0.0
 11
47.28688695366853
 21
-33.27213204712572
 31
0.0
  0
LINE
  5
186C
  8
0
 62
     0
 10
47.59051565649956
 20
-33.04543066406683
 30
0.0
 11
47.54035001454105
 21
-32.99526502210832
 31
0.0
  0
LINE
  5
186D
  8
0
 62
     0
 10
47.03592911203681
 20
-38.32447506439311
 30
0.0
 11
46.900724612294
 21
-38.18927056465029
 31
0.0
  0
LINE
  5
186E
  8
0
 62
     0
 10
46.51426236791012
 20
-38.33313840615632
 30
0.0
 11
46.37573032825009
 21
-38.19460636649629
 31
0.0
  0
LINE
  5
186F
  8
0
 62
     0
 10
45.99259562378343
 20
-38.34180174791954
 30
0.0
 11
45.85073604420618
 21
-38.19994216834229
 31
0.0
  0
LINE
  5
1870
  8
0
 62
     0
 10
45.47092887965674
 20
-38.35046508968276
 30
0.0
 11
45.32574176016227
 21
-38.20527797018829
 31
0.0
  0
LINE
  5
1871
  8
0
 62
     0
 10
44.94926213553003
 20
-38.35912843144597
 30
0.0
 11
44.80074747611836
 21
-38.21061377203429
 31
0.0
  0
LINE
  5
1872
  8
0
 62
     0
 10
44.42759539140335
 20
-38.36779177320919
 30
0.0
 11
44.27575319207444
 21
-38.21594957388029
 31
0.0
  0
LINE
  5
1873
  8
0
 62
     0
 10
43.90592864727665
 20
-38.37645511497242
 30
0.0
 11
43.75075890803053
 21
-38.22128537572628
 31
0.0
  0
LINE
  5
1874
  8
0
 62
     0
 10
43.55608266149904
 20
-38.5569392150847
 30
0.0
 11
43.26080707649891
 21
-38.26166363008458
 31
0.0
  0
ENDSEC
  0
EOF
