  0
SECTION
  2
HEADER
  9
$ACADVER
  1
AC1009
  9
$DWGCODEPAGE
  3
ansi_1252
  9
$INSBASE
 10
0.0
 20
0.0
 30
0.0
  9
$EXTMIN
 10
0.0
 20
-32.15890099328674
 30
0.0
  9
$EXTMAX
 10
33.19999999999998
 20
-11.50290099328676
 30
0.0
  9
$LIMMIN
 10
0.0
 20
0.0
  9
$LIMMAX
 10
11.0
 20
8.5
  9
$ORTHOMODE
 70
     1
  9
$REGENMODE
 70
     1
  9
$FILLMODE
 70
     1
  9
$QTEXTMODE
 70
     0
  9
$MIRRTEXT
 70
     0
  9
$DRAGMODE
 70
     2
  9
$LTSCALE
 40
0.625
  9
$OSMODE
 70
    37
  9
$ATTMODE
 70
     1
  9
$TEXTSIZE
 40
0.25
  9
$TRACEWID
 40
0.05
  9
$TEXTSTYLE
  7
TXT
  9
$CLAYER
  8
OBJECT
  9
$CELTYPE
  6
BYLAYER
  9
$CECOLOR
 62
   256
  9
$DIMSCALE
 40
2.0
  9
$DIMASZ
 40
0.18
  9
$DIMEXO
 40
0.063
  9
$DIMDLI
 40
0.281
  9
$DIMRND
 40
0.0
  9
$DIMDLE
 40
0.0
  9
$DIMEXE
 40
0.093
  9
$DIMTP
 40
0.0
  9
$DIMTM
 40
0.0
  9
$DIMTXT
 40
0.125
  9
$DIMCEN
 40
0.09
  9
$DIMTSZ
 40
0.0
  9
$DIMTOL
 70
     0
  9
$DIMLIM
 70
     0
  9
$DIMTIH
 70
     1
  9
$DIMTOH
 70
     1
  9
$DIMSE1
 70
     0
  9
$DIMSE2
 70
     0
  9
$DIMTAD
 70
     0
  9
$DIMZIN
 70
     0
  9
$DIMBLK
  1

  9
$DIMASO
 70
     1
  9
$DIMSHO
 70
     1
  9
$DIMPOST
  1

  9
$DIMAPOST
  1

  9
$DIMALT
 70
     1
  9
$DIMALTD
 70
     1
  9
$DIMALTF
 40
25.4
  9
$DIMLFAC
 40
1.0
  9
$DIMTOFL
 70
     0
  9
$DIMTVP
 40
0.0
  9
$DIMTIX
 70
     1
  9
$DIMSOXD
 70
     0
  9
$DIMSAH
 70
     0
  9
$DIMBLK1
  1

  9
$DIMBLK2
  1

  9
$DIMSTYLE
  2
23NSTDI
  9
$DIMCLRD
 70
     0
  9
$DIMCLRE
 70
     0
  9
$DIMCLRT
 70
     0
  9
$DIMTFAC
 40
1.0
  9
$DIMGAP
 40
0.09
  9
$LUNITS
 70
     2
  9
$LUPREC
 70
     3
  9
$SKETCHINC
 40
0.1
  9
$FILLETRAD
 40
0.0
  9
$AUNITS
 70
     0
  9
$AUPREC
 70
     0
  9
$MENU
  1
.
  9
$ELEVATION
 40
0.0
  9
$PELEVATION
 40
0.0
  9
$THICKNESS
 40
0.0
  9
$LIMCHECK
 70
     0
  9
$CHAMFERA
 40
0.0
  9
$CHAMFERB
 40
0.0
  9
$SKPOLY
 70
     0
  9
$TDCREATE
 40
2453353.508792488
  9
$TDUPDATE
 40
2456749.440476516
  9
$TDINDWG
 40
0.5426938194
  9
$TDUSRTIMER
 40
0.5426357523
  9
$USRTIMER
 70
     1
  9
$ANGBASE
 50
0.0
  9
$ANGDIR
 70
     0
  9
$PDMODE
 70
     0
  9
$PDSIZE
 40
0.0
  9
$PLINEWID
 40
0.0
  9
$COORDS
 70
     1
  9
$SPLFRAME
 70
     0
  9
$SPLINETYPE
 70
     6
  9
$SPLINESEGS
 70
     8
  9
$ATTDIA
 70
     0
  9
$ATTREQ
 70
     1
  9
$HANDLING
 70
     1
  9
$HANDSEED
  5
92CA
  9
$SURFTAB1
 70
     6
  9
$SURFTAB2
 70
     6
  9
$SURFTYPE
 70
     6
  9
$SURFU
 70
     6
  9
$SURFV
 70
     6
  9
$UCSNAME
  2

  9
$UCSORG
 10
0.0
 20
0.0
 30
0.0
  9
$UCSXDIR
 10
1.0
 20
0.0
 30
0.0
  9
$UCSYDIR
 10
0.0
 20
1.0
 30
0.0
  9
$PUCSNAME
  2

  9
$PUCSORG
 10
0.0
 20
0.0
 30
0.0
  9
$PUCSXDIR
 10
1.0
 20
0.0
 30
0.0
  9
$PUCSYDIR
 10
0.0
 20
1.0
 30
0.0
  9
$USERI1
 70
     0
  9
$USERI2
 70
     0
  9
$USERI3
 70
     0
  9
$USERI4
 70
     0
  9
$USERI5
 70
     0
  9
$USERR1
 40
0.0
  9
$USERR2
 40
0.0
  9
$USERR3
 40
0.0
  9
$USERR4
 40
0.0
  9
$USERR5
 40
0.0
  9
$WORLDVIEW
 70
     1
  9
$SHADEDGE
 70
     3
  9
$SHADEDIF
 70
    70
  9
$TILEMODE
 70
     1
  9
$MAXACTVP
 70
    16
  9
$PLIMCHECK
 70
     0
  9
$PEXTMIN
 10
1.000000000000000E+20
 20
1.000000000000000E+20
 30
1.000000000000000E+20
  9
$PEXTMAX
 10
-1.000000000000000E+20
 20
-1.000000000000000E+20
 30
-1.000000000000000E+20
  9
$PLIMMIN
 10
0.0
 20
0.0
  9
$PLIMMAX
 10
12.0
 20
9.0
  9
$UNITMODE
 70
     0
  9
$VISRETAIN
 70
     0
  9
$PLINEGEN
 70
     0
  9
$PSLTSCALE
 70
     1
  0
ENDSEC
  0
SECTION
  2
TABLES
  0
TABLE
  2
VPORT
 70
     1
  0
VPORT
  2
*ACTIVE
 70
     0
 10
0.0
 20
0.0
 11
1.0
 21
1.0
 12
14.48136476981816
 22
-21.82124940687965
 13
0.0
 23
0.0
 14
0.125
 24
0.125
 15
0.125
 25
0.125
 16
0.0
 26
0.0
 36
1.0
 17
0.0
 27
0.0
 37
0.0
 40
24.99512631251147
 41
1.836974789915967
 42
50.0
 43
0.0
 44
0.0
 50
0.0
 51
0.0
 71
    16
 72
 10000
 73
     1
 74
     0
 75
     0
 76
     0
 77
     0
 78
     0
  0
ENDTAB
  0
TABLE
  2
LTYPE
 70
     9
  0
LTYPE
  2
CONTINUOUS
 70
     0
  3
Solid line
 72
    65
 73
     0
 40
0.0
  0
LTYPE
  2
HIDDEN
 70
     0
  3
_ _ _ _ _ _ _ _ _ _ _ _ _ _ _ _ _ _ _ _ _ _ _
 72
    65
 73
     2
 40
0.375
 49
0.25
 49
-0.125
  0
LTYPE
  2
PHANTOM
 70
     0
  3
_____ _ _ _____ _ _ _____ _ _ _____ _ _ ____
 72
    65
 73
     6
 40
2.5
 49
1.25
 49
-0.25
 49
0.25
 49
-0.25
 49
0.25
 49
-0.25
  0
LTYPE
  2
CENTER
 70
     0
  3
____ _ ____ _ ____ _ ____ _ ____ _ ____ _ ____
 72
    65
 73
     4
 40
2.0
 49
1.25
 49
-0.25
 49
0.25
 49
-0.25
  0
LTYPE
  2
HIDDEN2
 70
     0
  3
_ _ _ _ _ _ _ _ _ _ _ _ _ _ _ _ _ _ _ _ _ _ _ _
 72
    65
 73
     2
 40
0.1875
 49
0.125
 49
-0.0625
  0
LTYPE
  2
PHANTOM2
 70
     0
  3
___ _ _ ___ _ _ ___ _ _ ___ _ _ ___ _ _ ___ _ _
 72
    65
 73
     6
 40
1.25
 49
0.625
 49
-0.125
 49
0.125
 49
-0.125
 49
0.125
 49
-0.125
  0
LTYPE
  2
CENTER2
 70
     0
  3
Center (.5x) ___ _ ___ _ ___ _ ___ _ ___ _ ___
 72
    65
 73
     4
 40
28.575
 49
19.05
 49
-3.174999999999999
 49
3.174999999999999
 49
-3.174999999999999
  0
LTYPE
  2
CENTERX2
 70
     0
  3
Center (2x) ________  __  ________  __  _____
 72
    65
 73
     4
 40
0.7999999999999999
 49
0.5
 49
-0.1
 49
0.1
 49
-0.1
  0
LTYPE
  2
DOT2
 70
     0
  3
Dot (.5x) ........................................
 72
    65
 73
     2
 40
0.025
 49
0.0
 49
-0.025
  0
ENDTAB
  0
TABLE
  2
LAYER
 70
    10
  0
LAYER
  2
0
 70
     0
 62
     7
  6
CONTINUOUS
  0
LAYER
  2
OBJECT
 70
     0
 62
     7
  6
CONTINUOUS
  0
LAYER
  2
DIM
 70
     0
 62
     7
  6
CONTINUOUS
  0
LAYER
  2
HIDDEN
 70
     0
 62
     7
  6
HIDDEN
  0
LAYER
  2
BEND
 70
     0
 62
     7
  6
PHANTOM
  0
LAYER
  2
TEXT
 70
     0
 62
     7
  6
CONTINUOUS
  0
LAYER
  2
TITLE
 70
     0
 62
     7
  6
CONTINUOUS
  0
LAYER
  2
CENTER
 70
     0
 62
     7
  6
CENTER
  0
LAYER
  2
DEFPOINTS
 70
     0
 62
     7
  6
CONTINUOUS
  0
LAYER
  2
_2D_DELETED_OBJS
 70
     0
 62
     7
  6
CONTINUOUS
  0
ENDTAB
  0
TABLE
  2
STYLE
 70
     3
  0
STYLE
  2
STANDARD
 70
     0
 40
0.0
 41
1.0
 50
0.0
 71
     0
 42
0.2
  3
txt
  4

  0
STYLE
  2
TXT
 70
     0
 40
0.0
 41
0.75
 50
0.0
 71
     0
 42
0.25
  3
TXT.shx
  4

  0
STYLE
  2
SI
 70
     0
 40
0.0
 41
1.0
 50
0.0
 71
     0
 42
3.0
  3
simplex
  4

  0
ENDTAB
  0
TABLE
  2
VIEW
 70
     0
  0
ENDTAB
  0
TABLE
  2
UCS
 70
     0
  0
ENDTAB
  0
TABLE
  2
APPID
 70
     8
  0
APPID
  2
ACAD
 70
     0
  0
APPID
  2
ACAD_DSTYLE_DIMRADIAL_EXTE
 70
     0
  0
APPID
  2
ACAD_NAV_VCDISPLAY
 70
     0
  0
APPID
  2
ACAD_PSEXT
 70
     0
  0
APPID
  2
ACADANNOTATIVE
 70
     0
  0
APPID
  2
ACAD_DSTYLE_DIMJAG
 70
     0
  0
APPID
  2
ACAD_DSTYLE_DIMTALN
 70
     0
  0
APPID
  2
DCO15
 70
     0
  0
ENDTAB
  0
TABLE
  2
DIMSTYLE
 70
     3
  0
DIMSTYLE
  2
STANDARD
 70
     0
  3

  4

  5

  6

  7

 40
1.0
 41
0.18
 42
0.0625
 43
0.38
 44
0.18
 45
0.0
 46
0.0
 47
0.0
 48
0.0
140
0.18
141
0.09
142
0.0
143
25.4
144
1.0
145
0.0
146
1.0
147
0.09
 71
     0
 72
     0
 73
     1
 74
     1
 75
     0
 76
     0
 77
     0
 78
     0
170
     0
171
     2
172
     0
173
     0
174
     0
175
     0
176
     0
177
     0
178
     0
  0
DIMSTYLE
  2
23NSTD
 70
     0
  3

  4

  5

  6

  7

 40
2.0
 41
0.18
 42
0.063
 43
0.281
 44
0.093
 45
0.0
 46
0.0
 47
0.0
 48
0.0
140
0.125
141
0.09
142
0.0
143
25.4
144
1.0
145
0.0
146
1.0
147
0.09
 71
     0
 72
     0
 73
     1
 74
     1
 75
     0
 76
     0
 77
     0
 78
     0
170
     1
171
     1
172
     0
173
     0
174
     0
175
     0
176
     0
177
     0
178
     0
  0
DIMSTYLE
  2
23NSTDI
 70
     0
  3

  4

  5

  6

  7

 40
2.0
 41
0.18
 42
0.063
 43
0.281
 44
0.093
 45
0.0
 46
0.0
 47
0.0
 48
0.0
140
0.125
141
0.09
142
0.0
143
25.4
144
1.0
145
0.0
146
1.0
147
0.09
 71
     0
 72
     0
 73
     1
 74
     1
 75
     0
 76
     0
 77
     0
 78
     0
170
     1
171
     1
172
     0
173
     0
174
     1
175
     0
176
     0
177
     0
178
     0
  0
ENDTAB
  0
ENDSEC
  0
SECTION
  2
BLOCKS
  0
BLOCK
  8
0
  2
$MODEL_SPACE
 70
     0
 10
0.0
 20
0.0
 30
0.0
  3
$MODEL_SPACE
  1

  0
ENDBLK
  5
21
  8
0
  0
BLOCK
 67
     1
  8
0
  2
$PAPER_SPACE
 70
     0
 10
0.0
 20
0.0
 30
0.0
  3
$PAPER_SPACE
  1

  0
ENDBLK
  5
76
 67
     1
  8
0
  0
BLOCK
  8
0
  2
HBS
 70
     0
 10
0.0
 20
0.0
 30
0.0
  3
HBS
  1

  0
LINE
  5
57AD
  8
TITLE
 10
0.0620000000000118
 20
10.266
 30
0.0
 11
16.53800000000001
 21
10.266
 31
0.0
  0
LINE
  5
57AE
  8
TITLE
 10
16.53800000000001
 20
0.0620000000000012
 30
0.0
 11
0.0620000000000118
 21
0.0620000000000012
 31
0.0
  0
LINE
  5
57AF
  8
TITLE
 10
0.0
 20
10.32799999999999
 30
0.0
 11
16.59999999999999
 21
10.32799999999999
 31
0.0
  0
LINE
  5
57B0
  8
TITLE
 10
16.59999999999999
 20
0.0
 30
0.0
 11
0.0
 21
0.0
 31
0.0
  0
LINE
  5
57B1
  8
TITLE
 10
0.0620000000000118
 20
9.848000000000003
 30
0.0
 11
16.53800000000001
 21
9.848000000000006
 31
0.0
  0
LINE
  5
57B2
  8
TITLE
 10
0.0620000000000118
 20
0.0620000000000012
 30
0.0
 11
0.0620000000000118
 21
10.266
 31
0.0
  0
LINE
  5
57B3
  8
TITLE
 10
0.0
 20
0.0
 30
0.0
 11
0.0
 21
10.32799999999999
 31
0.0
  0
LINE
  5
57B4
  8
TITLE
 10
0.6832256297567483
 20
9.848000000000003
 30
0.0
 11
0.6832256297567483
 21
10.266
 31
0.0
  0
LINE
  5
57B5
  8
TITLE
 10
7.394499999999993
 20
10.266
 30
0.0
 11
7.394499999999993
 21
9.848000000000003
 31
0.0
  0
LINE
  5
57B6
  8
TITLE
 10
7.456500000000005
 20
10.266
 30
0.0
 11
7.456500000000005
 21
9.848000000000003
 31
0.0
  0
LINE
  5
57B7
  8
TITLE
 10
8.052745547125625
 20
10.266
 30
0.0
 11
8.052745547125625
 21
9.848000000000003
 31
0.0
  0
TEXT
  5
57B8
  8
TEXT
 10
7.632697851596219
 20
9.888079195640081
 30
0.0
 40
0.125
  1
No.
  7
TXT
 72
     1
 11
7.757697851596219
 21
9.888079195640081
 31
0.0
  0
TEXT
  5
57B9
  8
TEXT
 10
7.528322851596219
 20
10.09641252897341
 30
0.0
 40
0.125
  1
PART
  7
TXT
 72
     1
 11
7.757697851596219
 21
10.09641252897341
 31
0.0
  0
LINE
  5
57BA
  8
TITLE
 10
16.53800000000001
 20
10.266
 30
0.0
 11
16.53800000000001
 21
0.0620000000000012
 31
0.0
  0
LINE
  5
57BB
  8
TITLE
 10
16.59999999999999
 20
10.32799999999999
 30
0.0
 11
16.59999999999999
 21
0.0
 31
0.0
  0
TEXT
  5
57BC
  8
TEXT
 10
14.308507098846
 20
10.09641252897341
 30
0.0
 40
0.125
  1
REV.
  7
TXT
 72
     1
 11
14.516632098846
 21
10.09641252897341
 31
0.0
  0
TEXT
  5
57BD
  8
TEXT
 10
14.287257098846
 20
9.888079195640081
 30
0.0
 40
0.125
  1
DATE
  7
TXT
 72
     1
 11
14.516632098846
 21
9.888079195640081
 31
0.0
  0
LINE
  5
57BE
  8
TITLE
 10
14.23053366769755
 20
10.266
 30
0.0
 11
14.23053366769755
 21
9.848000000000003
 31
0.0
  0
LINE
  5
57BF
  8
TITLE
 10
14.81199113305001
 20
10.266
 30
0.0
 11
14.81199113305001
 21
9.848000000000003
 31
0.0
  0
LINE
  5
57C0
  8
TITLE
 10
14.16853366769754
 20
10.266
 30
0.0
 11
14.16853366769754
 21
9.848000000000003
 31
0.0
  0
LINE
  5
57C1
  8
TITLE
 10
1.278807051939764
 20
9.848000000000003
 30
0.0
 11
1.278807051939764
 21
10.266
 31
0.0
  0
TEXT
  5
57C2
  8
TEXT
 10
0.7508918328362642
 20
10.09641252897341
 30
0.0
 40
0.125
  1
PART
  7
TXT
 72
     1
 11
0.9802668328362641
 21
10.09641252897341
 31
0.0
  0
TEXT
  5
57C3
  8
TEXT
 10
0.7508918328362642
 20
9.888079195640081
 30
0.0
 40
0.125
  1
NAME
  7
TXT
 72
     1
 11
0.9802668328362641
 21
9.888079195640081
 31
0.0
  0
LINE
  5
57C4
  8
TITLE
 10
0.1285380773901465
 20
9.927976666428888
 30
0.0
 11
0.1285380773901465
 21
10.19351142052816
 31
0.0
  0
ARC
  5
57C5
  8
TITLE
 10
0.2140567449432638
 20
10.13044691642958
 30
0.0
 40
0.063064504098577
 50
270.0
 51
90.0
  0
LINE
  5
57C6
  8
TITLE
 10
0.3134433045320293
 20
9.944572588560096
 30
0.0
 11
0.3134433045320293
 21
10.19351142052816
 31
0.0
  0
LINE
  5
57C7
  8
TITLE
 10
0.3850940800495266
 20
9.97130050354441
 30
0.0
 11
0.3850940800495266
 21
10.19351142052816
 31
0.0
  0
LINE
  5
57C8
  8
TITLE
 10
0.3619809266567984
 20
9.97130050354441
 30
0.0
 11
0.3619809266567984
 21
10.19351142052816
 31
0.0
  0
LINE
  5
57C9
  8
TITLE
 10
0.4879422817271575
 20
9.927976666428888
 30
0.0
 11
0.4879422817271575
 21
10.19351142052816
 31
0.0
  0
ARC
  5
57CA
  8
TITLE
 10
0.5209718037827998
 20
10.10057425659341
 30
0.0
 40
0.0929371639347451
 50
0.0
 51
90.0
  0
LINE
  5
57CB
  8
TITLE
 10
0.4336317021742673
 20
9.944572588560096
 30
0.0
 11
0.4336317021742673
 21
10.19351142052816
 31
0.0
  0
LINE
  5
57CC
  8
TITLE
 10
0.3300392266632457
 20
9.927976666428888
 30
0.0
 11
0.4170357800430793
 21
9.927976666428888
 31
0.0
  0
LINE
  5
57CD
  8
TITLE
 10
0.1285380773901465
 20
9.927976666428888
 30
0.0
 11
0.2140567449432638
 21
9.927976666428888
 31
0.0
  0
LINE
  5
57CE
  8
TITLE
 10
0.2140567449432638
 20
10.05410567462604
 30
0.0
 11
0.1412503117561528
 21
10.05410567462604
 31
0.0
  0
LINE
  5
57CF
  8
TITLE
 10
0.2140567449432638
 20
10.067382412331
 30
0.0
 11
0.1412503117561528
 21
10.067382412331
 31
0.0
  0
LINE
  5
57D0
  8
TITLE
 10
0.1412503117561528
 20
10.067382412331
 30
0.0
 11
0.1412503117561528
 21
10.06074404347852
 31
0.0
  0
LINE
  5
57D1
  8
TITLE
 10
0.1412503117561528
 20
10.05410567462604
 30
0.0
 11
0.1412503117561528
 21
10.06074404347852
 31
0.0
  0
ARC
  5
57D2
  8
TITLE
 10
0.2140567449432638
 20
9.991041170527467
 30
0.0
 40
0.063064504098577
 50
270.0
 51
90.0
  0
ARC
  5
57D3
  8
TITLE
 10
0.3300392266632457
 20
9.944572588560096
 30
0.0
 40
0.0165959221312045
 50
180.0
 51
270.0
  0
ARC
  5
57D4
  8
TITLE
 10
0.3718173423445705
 20
9.97130050354441
 30
0.0
 40
0.0132767377049636
 50
277.444284097714
 51
0.0
  0
ARC
  5
57D5
  8
TITLE
 10
0.3752576643617544
 20
9.97130050354441
 30
0.0
 40
0.0132767377049636
 50
180.0
 51
262.5557159022859
  0
ARC
  5
57D6
  8
TITLE
 10
0.5209718037827998
 20
10.02091383036363
 30
0.0
 40
0.0929371639347451
 50
270.0
 51
0.0
  0
ARC
  5
57D7
  8
TITLE
 10
0.4170357800430793
 20
9.944572588560096
 30
0.0
 40
0.0165959221312045
 50
270.0
 51
0.0
  0
LINE
  5
57D8
  8
TITLE
 10
0.4879422817271575
 20
9.927976666428888
 30
0.0
 11
0.5209718037827998
 21
9.927976666428888
 31
0.0
  0
LINE
  5
57D9
  8
TITLE
 10
0.6139089677175776
 20
10.02091383036363
 30
0.0
 11
0.6139089677175776
 21
10.10057425659341
 31
0.0
  0
LINE
  5
57DA
  8
TITLE
 10
0.5650705899142281
 20
10.05410567462604
 30
0.0
 11
0.5650705899142281
 21
10.067382412331
 31
0.0
  0
LINE
  5
57DB
  8
TITLE
 10
0.5237730004059529
 20
10.05410567462604
 30
0.0
 11
0.5237730004059529
 21
10.067382412331
 31
0.0
  0
LINE
  5
57DC
  8
TITLE
 10
0.5650705899142281
 20
10.05410567462604
 30
0.0
 11
0.5237730004059529
 21
10.05410567462604
 31
0.0
  0
LINE
  5
57DD
  8
TITLE
 10
0.5650705899142281
 20
10.067382412331
 30
0.0
 11
0.5237730004059529
 21
10.067382412331
 31
0.0
  0
LINE
  5
57DE
  8
TITLE
 10
0.3850940800495266
 20
10.19351142052816
 30
0.0
 11
0.4336317021742673
 21
10.19351142052816
 31
0.0
  0
LINE
  5
57DF
  8
TITLE
 10
0.1285380773901465
 20
10.19351142052816
 30
0.0
 11
0.2140567449432638
 21
10.19351142052816
 31
0.0
  0
LINE
  5
57E0
  8
TITLE
 10
0.3134433045320293
 20
10.19351142052816
 30
0.0
 11
0.3619809266567984
 21
10.19351142052816
 31
0.0
  0
LINE
  5
57E1
  8
TITLE
 10
0.4879422817271575
 20
10.19351142052816
 30
0.0
 11
0.5209718037827998
 21
10.19351142052816
 31
0.0
  0
ENDBLK
  5
9196
  8
0
  0
BLOCK
  8
0
  2
*D1
 70
     1
 10
0.0
 20
0.0
 30
0.0
  3
*D1
  1

  0
POINT
  5
740F
  8
DEFPOINTS
  6
BYBLOCK
 62
     0
 10
4.650304518908399
 20
-15.61921324038541
 30
0.0
  0
POINT
  5
7410
  8
DEFPOINTS
  6
BYBLOCK
 62
     0
 10
7.09124935490837
 20
-15.61921324038541
 30
0.0
  0
LINE
  5
7411
  8
0
  6
BYBLOCK
 62
     0
 10
4.650304518908399
 20
-15.49321324038541
 30
0.0
 11
4.650304518908399
 21
-14.35421582915773
 31
0.0
  0
LINE
  5
7412
  8
0
  6
BYBLOCK
 62
     0
 10
7.09124935490837
 20
-15.49321324038541
 30
0.0
 11
7.09124935490837
 21
-14.35421582915773
 31
0.0
  0
LINE
  5
7413
  8
0
  6
BYBLOCK
 62
     0
 10
4.290304518908399
 20
-14.54021582915773
 30
0.0
 11
3.930304518908399
 21
-14.54021582915773
 31
0.0
  0
SOLID
  5
7414
  8
0
  6
BYBLOCK
 62
     0
 10
4.650304518908399
 20
-14.54021582915773
 30
0.0
 11
4.290304518908399
 21
-14.60021582915774
 31
0.0
 12
4.290304518908399
 22
-14.48021582915771
 32
0.0
 13
4.290304518908399
 23
-14.48021582915771
 33
0.0
  0
LINE
  5
7415
  8
0
  6
BYBLOCK
 62
     0
 10
7.45124935490837
 20
-14.54021582915773
 30
0.0
 11
7.811249354908369
 21
-14.54021582915773
 31
0.0
  0
SOLID
  5
7416
  8
0
  6
BYBLOCK
 62
     0
 10
7.09124935490837
 20
-14.54021582915773
 30
0.0
 11
7.45124935490837
 21
-14.60021582915774
 31
0.0
 12
7.45124935490837
 22
-14.48021582915771
 32
0.0
 13
7.45124935490837
 23
-14.48021582915771
 33
0.0
  0
TEXT
  5
7417
  8
0
  6
BYBLOCK
 62
     0
 10
4.986424481193957
 20
-14.66521582915773
 30
0.0
 40
0.25
  1
2.44 [62.0]
 41
0.75
  7
TXT
  0
ENDBLK
  5
9198
  8
OBJECT
  0
BLOCK
  8
0
  2
*D2
 70
     1
 10
0.0
 20
0.0
 30
0.0
  3
*D2
  1

  0
POINT
  5
741C
  8
DEFPOINTS
  6
BYBLOCK
 62
     0
 10
4.650304518908399
 20
-15.61921324038541
 30
0.0
  0
POINT
  5
741D
  8
DEFPOINTS
  6
BYBLOCK
 62
     0
 10
4.650304518908399
 20
-24.75307133638545
 30
0.0
  0
LINE
  5
741E
  8
0
  6
BYBLOCK
 62
     0
 10
4.524304518908399
 20
-15.61921324038541
 30
0.0
 11
2.993775932720502
 21
-15.61921324038541
 31
0.0
  0
LINE
  5
741F
  8
0
  6
BYBLOCK
 62
     0
 10
4.524304518908399
 20
-24.75307133638545
 30
0.0
 11
2.993775932720502
 21
-24.75307133638545
 31
0.0
  0
LINE
  5
7420
  8
0
  6
BYBLOCK
 62
     0
 10
3.179775932720502
 20
-15.97921324038541
 30
0.0
 11
3.179775932720502
 21
-19.88114228838543
 31
0.0
  0
SOLID
  5
7421
  8
0
  6
BYBLOCK
 62
     0
 10
3.179775932720502
 20
-15.61921324038541
 30
0.0
 11
3.11977593272049
 21
-15.97921324038541
 31
0.0
 12
3.239775932720514
 22
-15.97921324038541
 32
0.0
 13
3.239775932720514
 23
-15.97921324038541
 33
0.0
  0
LINE
  5
7422
  8
0
  6
BYBLOCK
 62
     0
 10
3.179775932720502
 20
-24.39307133638545
 30
0.0
 11
3.179775932720502
 21
-20.49114228838543
 31
0.0
  0
SOLID
  5
7423
  8
0
  6
BYBLOCK
 62
     0
 10
3.179775932720502
 20
-24.75307133638545
 30
0.0
 11
3.11977593272049
 21
-24.39307133638545
 31
0.0
 12
3.239775932720514
 22
-24.39307133638545
 32
0.0
 13
3.239775932720514
 23
-24.39307133638545
 33
0.0
  0
TEXT
  5
7424
  8
0
  6
BYBLOCK
 62
     0
 10
2.321025932720502
 20
-20.31114228838543
 30
0.0
 40
0.25
  1
9.13 [232.0]
 41
0.75
  7
TXT
  0
ENDBLK
  5
919A
  8
OBJECT
  0
BLOCK
  8
0
  2
*D3
 70
     1
 10
0.0
 20
0.0
 30
0.0
  3
*D3
  1

  0
POINT
  5
742C
  8
DEFPOINTS
  6
BYBLOCK
 62
     0
 10
11.84609735449174
 20
-25.10740203838542
 30
0.0
  0
POINT
  5
742D
  8
DEFPOINTS
  6
BYBLOCK
 62
     0
 10
11.88546743249179
 20
-15.26488253838544
 30
0.0
  0
LINE
  5
742E
  8
0
  6
BYBLOCK
 62
     0
 10
11.72009735449174
 20
-25.10740203838542
 30
0.0
 11
10.17031115786073
 21
-25.10740203838542
 31
0.0
  0
LINE
  5
742F
  8
0
  6
BYBLOCK
 62
     0
 10
11.75946743249179
 20
-15.26488253838544
 30
0.0
 11
10.17031115786073
 21
-15.26488253838544
 31
0.0
  0
LINE
  5
7430
  8
0
  6
BYBLOCK
 62
     0
 10
10.35631115786073
 20
-24.74740203838542
 30
0.0
 11
10.35631115786073
 21
-20.49114228838543
 31
0.0
  0
SOLID
  5
7431
  8
0
  6
BYBLOCK
 62
     0
 10
10.35631115786073
 20
-25.10740203838542
 30
0.0
 11
10.41631115786074
 21
-24.74740203838542
 31
0.0
 12
10.29631115786072
 22
-24.74740203838542
 32
0.0
 13
10.29631115786072
 23
-24.74740203838542
 33
0.0
  0
LINE
  5
7432
  8
0
  6
BYBLOCK
 62
     0
 10
10.35631115786073
 20
-15.62488253838544
 30
0.0
 11
10.35631115786073
 21
-19.88114228838543
 31
0.0
  0
SOLID
  5
7433
  8
0
  6
BYBLOCK
 62
     0
 10
10.35631115786073
 20
-15.26488253838544
 30
0.0
 11
10.41631115786074
 21
-15.62488253838544
 31
0.0
 12
10.29631115786072
 22
-15.62488253838544
 32
0.0
 13
10.29631115786072
 23
-15.62488253838544
 33
0.0
  0
TEXT
  5
7434
  8
0
  6
BYBLOCK
 62
     0
 10
9.482561157860731
 20
-20.31114228838543
 30
0.0
 40
0.25
  1
9.84 [250.0]
 41
0.75
  7
TXT
  0
ENDBLK
  5
919C
  8
OBJECT
  0
BLOCK
  8
0
  2
*D4
 70
     1
 10
0.0
 20
0.0
 30
0.0
  3
*D4
  1

  0
POINT
  5
7446
  8
DEFPOINTS
  6
BYBLOCK
 62
     0
 10
12.3185382904918
 20
-24.1231500883856
 30
0.0
  0
POINT
  5
7447
  8
DEFPOINTS
  6
BYBLOCK
 62
     0
 10
13.89334141049175
 20
-24.1231500883856
 30
0.0
  0
LINE
  5
7448
  8
0
  6
BYBLOCK
 62
     0
 10
12.3185382904918
 20
-24.2491500883856
 30
0.0
 11
12.3185382904918
 21
-25.96430393753825
 31
0.0
  0
LINE
  5
7449
  8
0
  6
BYBLOCK
 62
     0
 10
13.89334141049175
 20
-24.2491500883856
 30
0.0
 11
13.89334141049175
 21
-25.96430393753825
 31
0.0
  0
LINE
  5
744A
  8
0
  6
BYBLOCK
 62
     0
 10
12.6785382904918
 20
-25.77830393753825
 30
0.0
 11
13.53334141049175
 21
-25.77830393753825
 31
0.0
  0
SOLID
  5
744B
  8
0
  6
BYBLOCK
 62
     0
 10
12.3185382904918
 20
-25.77830393753825
 30
0.0
 11
12.6785382904918
 21
-25.83830393753826
 31
0.0
 12
12.6785382904918
 22
-25.71830393753823
 32
0.0
 13
12.6785382904918
 23
-25.71830393753823
 33
0.0
  0
LINE
  5
744C
  8
0
  6
BYBLOCK
 62
     0
 10
13.89334141049175
 20
-25.77830393753825
 30
0.0
 11
14.61427891049175
 21
-25.77830393753825
 31
0.0
  0
SOLID
  5
744D
  8
0
  6
BYBLOCK
 62
     0
 10
13.89334141049175
 20
-25.77830393753825
 30
0.0
 11
13.53334141049175
 21
-25.83830393753826
 31
0.0
 12
13.53334141049175
 22
-25.71830393753823
 32
0.0
 13
13.53334141049175
 23
-25.71830393753823
 33
0.0
  0
TEXT
  5
744E
  8
0
  6
BYBLOCK
 62
     0
 10
14.79427891049175
 20
-25.90330393753825
 30
0.0
 40
0.25
  1
1.57 [40.0]
 41
0.75
  7
TXT
  0
ENDBLK
  5
919E
  8
OBJECT
  0
BLOCK
  8
0
  2
*D5
 70
     1
 10
0.0
 20
0.0
 30
0.0
  3
*D5
  1

  0
LINE
  5
75A1
  8
0
  6
BYBLOCK
 62
     0
 10
5.690776936908386
 20
-24.51685086838562
 30
0.0
 11
6.050776936908385
 21
-24.51685086838562
 31
0.0
  0
LINE
  5
75A2
  8
0
  6
BYBLOCK
 62
     0
 10
5.870776936908386
 20
-24.33685086838562
 30
0.0
 11
5.870776936908386
 21
-24.69685086838562
 31
0.0
  0
LINE
  5
75A3
  8
0
  6
BYBLOCK
 62
     0
 10
6.069414866310328
 20
-25.03706748658044
 30
0.0
 11
6.352353710855251
 21
-25.77806136075276
 31
0.0
  0
LINE
  5
75A4
  8
0
  6
BYBLOCK
 62
     0
 10
6.352353710855251
 20
-25.77806136075276
 30
0.0
 11
6.713603710855259
 21
-25.77806136075276
 31
0.0
  0
SOLID
  5
75A5
  8
0
  6
BYBLOCK
 62
     0
 10
5.940996792319756
 20
-24.70075097156438
 30
0.0
 11
6.013362113807639
 21
-25.05847049891221
 31
0.0
 12
6.125467618813017
 22
-25.01566447424868
 32
0.0
 13
6.125467618813017
 23
-25.01566447424868
 33
0.0
  0
TEXT
  5
75A6
  8
0
  6
BYBLOCK
 62
     0
 10
6.893603710855259
 20
-25.90306136075276
 30
0.0
 40
0.25
  1
%%c0.39 [%%c10.0]
 41
0.75
  7
TXT
  0
POINT
  5
75A7
  8
DEFPOINTS
  6
BYBLOCK
 62
     0
 10
5.800557081497016
 20
-24.33295076520686
 30
0.0
  0
POINT
  5
75A8
  8
DEFPOINTS
  6
BYBLOCK
 62
     0
 10
5.940996792319756
 20
-24.70075097156438
 30
0.0
  0
ENDBLK
  5
91A0
  8
OBJECT
  0
BLOCK
  8
0
  2
*D6
 70
     1
 10
0.0
 20
0.0
 30
0.0
  3
*D6
  1

  0
LINE
  5
75AD
  8
0
  6
BYBLOCK
 62
     0
 10
4.470304518908399
 20
-15.61921324038541
 30
0.0
 11
4.830304518908398
 21
-15.61921324038541
 31
0.0
  0
LINE
  5
75AE
  8
0
  6
BYBLOCK
 62
     0
 10
4.650304518908398
 20
-15.43921324038541
 30
0.0
 11
4.650304518908398
 21
-15.79921324038541
 31
0.0
  0
LINE
  5
75AF
  8
0
  6
BYBLOCK
 62
     0
 10
4.203666980944266
 20
-15.20963918153726
 30
0.0
 11
3.938337750470525
 21
-14.96632785944926
 31
0.0
  0
LINE
  5
75B0
  8
0
  6
BYBLOCK
 62
     0
 10
3.938337750470525
 20
-14.96632785944926
 30
0.0
 11
3.577712750470521
 21
-14.96632785944926
 31
0.0
  0
SOLID
  5
75B1
  8
0
  6
BYBLOCK
 62
     0
 10
4.468996211418006
 20
-15.45295050362527
 30
0.0
 11
4.244218867958941
 21
-15.16541764312496
 31
0.0
 12
4.163115093929591
 22
-15.25386071994956
 32
0.0
 13
4.163115093929591
 23
-15.25386071994956
 33
0.0
  0
TEXT
  5
75B2
  8
0
  6
BYBLOCK
 62
     0
 10
1.492712750470521
 20
-15.09132785944926
 30
0.0
 40
0.25
  1
%%c0.49 [%%c12.5]
 41
0.75
  7
TXT
  0
POINT
  5
75B3
  8
DEFPOINTS
  6
BYBLOCK
 62
     0
 10
4.83161282639879
 20
-15.78547597714554
 30
0.0
  0
POINT
  5
75B4
  8
DEFPOINTS
  6
BYBLOCK
 62
     0
 10
4.468996211418006
 20
-15.45295050362527
 30
0.0
  0
ENDBLK
  5
91A2
  8
OBJECT
  0
BLOCK
  8
0
  2
*D7
 70
     1
 10
0.0
 20
0.0
 30
0.0
  3
*D7
  1

  0
LINE
  5
75B9
  8
0
  6
BYBLOCK
 62
     0
 10
6.911249354908369
 20
-15.61921324038541
 30
0.0
 11
7.271249354908369
 21
-15.61921324038541
 31
0.0
  0
LINE
  5
75BA
  8
0
  6
BYBLOCK
 62
     0
 10
7.091249354908369
 20
-15.43921324038541
 30
0.0
 11
7.091249354908369
 21
-15.79921324038541
 31
0.0
  0
LINE
  5
75BB
  8
0
  6
BYBLOCK
 62
     0
 10
7.406796093108132
 20
-15.30614694387381
 30
0.0
 11
7.662357005935858
 21
-15.05259493770017
 31
0.0
  0
LINE
  5
75BC
  8
0
  6
BYBLOCK
 62
     0
 10
7.662357005935858
 20
-15.05259493770017
 30
0.0
 11
8.022982005935814
 21
-15.05259493770017
 31
0.0
  0
SOLID
  5
75BD
  8
0
  6
BYBLOCK
 62
     0
 10
7.151235180280426
 20
-15.55969895004744
 30
0.0
 11
7.449054760803744
 21
-15.3487404293451
 31
0.0
 12
7.364537425412519
 22
-15.26355345840252
 32
0.0
 13
7.364537425412519
 23
-15.26355345840252
 33
0.0
  0
TEXT
  5
75BE
  8
0
  6
BYBLOCK
 62
     0
 10
8.202982005935814
 20
-15.17759493770017
 30
0.0
 40
0.25
  1
%%c0.17 [%%c4.3]
 41
0.75
  7
TXT
  0
POINT
  5
75BF
  8
DEFPOINTS
  6
BYBLOCK
 62
     0
 10
7.031263529536313
 20
-15.67872753072339
 30
0.0
  0
POINT
  5
75C0
  8
DEFPOINTS
  6
BYBLOCK
 62
     0
 10
7.151235180280426
 20
-15.55969895004744
 30
0.0
  0
ENDBLK
  5
91A4
  8
OBJECT
  0
BLOCK
  8
0
  2
*D8
 70
     1
 10
0.0
 20
0.0
 30
0.0
  3
*D8
  1

  0
POINT
  5
7617
  8
DEFPOINTS
  6
BYBLOCK
 62
     0
 10
11.68861704249178
 20
-17.83995893325362
 30
0.0
  0
POINT
  5
7618
  8
DEFPOINTS
  6
BYBLOCK
 62
     0
 10
14.52326265849177
 20
-17.83995893325362
 30
0.0
  0
LINE
  5
7619
  8
0
  6
BYBLOCK
 62
     0
 10
11.68861704249178
 20
-17.96595893325362
 30
0.0
 11
11.68861704249178
 21
-18.06836504508691
 31
0.0
  0
LINE
  5
761A
  8
0
  6
BYBLOCK
 62
     0
 10
14.52326265849177
 20
-17.96595893325362
 30
0.0
 11
14.52326265849177
 21
-18.06836504508691
 31
0.0
  0
LINE
  5
761B
  8
0
  6
BYBLOCK
 62
     0
 10
12.04861704249178
 20
-17.88236504508691
 30
0.0
 11
12.00904868809358
 21
-17.88236504508691
 31
0.0
  0
SOLID
  5
761C
  8
0
  6
BYBLOCK
 62
     0
 10
11.68861704249178
 20
-17.88236504508691
 30
0.0
 11
12.04861704249178
 21
-17.94236504508692
 31
0.0
 12
12.04861704249178
 22
-17.82236504508689
 32
0.0
 13
12.04861704249178
 23
-17.82236504508689
 33
0.0
  0
LINE
  5
761D
  8
0
  6
BYBLOCK
 62
     0
 10
14.16326265849177
 20
-17.88236504508691
 30
0.0
 11
13.96092368809358
 21
-17.88236504508691
 31
0.0
  0
SOLID
  5
761E
  8
0
  6
BYBLOCK
 62
     0
 10
14.52326265849177
 20
-17.88236504508691
 30
0.0
 11
14.16326265849177
 21
-17.94236504508692
 31
0.0
 12
14.16326265849177
 22
-17.82236504508689
 32
0.0
 13
14.16326265849177
 23
-17.82236504508689
 33
0.0
  0
TEXT
  5
761F
  8
0
  6
BYBLOCK
 62
     0
 10
12.18904868809358
 20
-18.00736504508691
 30
0.0
 40
0.25
  1
2.83 [72.0]
 41
0.75
  7
TXT
  0
ENDBLK
  5
91A6
  8
OBJECT
  0
BLOCK
  8
0
  2
*D9
 70
     1
 10
0.0
 20
0.0
 30
0.0
  3
*D9
  1

  0
POINT
  5
7624
  8
DEFPOINTS
  6
BYBLOCK
 62
     0
 10
12.75255747188779
 20
-15.40267781138538
 30
0.0
  0
POINT
  5
7625
  8
DEFPOINTS
  6
BYBLOCK
 62
     0
 10
12.85246567713642
 20
-24.96960676538548
 30
0.0
  0
LINE
  5
7626
  8
0
  6
BYBLOCK
 62
     0
 10
12.87855747188779
 20
-15.40267781138538
 30
0.0
 11
12.9598966185542
 21
-15.40267781138538
 31
0.0
  0
LINE
  5
7627
  8
0
  6
BYBLOCK
 62
     0
 10
12.72646567713642
 20
-24.96960676538548
 30
0.0
 11
12.5878966185542
 21
-24.96960676538548
 31
0.0
  0
LINE
  5
7628
  8
0
  6
BYBLOCK
 62
     0
 10
12.7738966185542
 20
-15.76267781138538
 30
0.0
 11
12.7738966185542
 21
-19.88114228838543
 31
0.0
  0
SOLID
  5
7629
  8
0
  6
BYBLOCK
 62
     0
 10
12.7738966185542
 20
-15.40267781138538
 30
0.0
 11
12.71389661855419
 21
-15.76267781138538
 31
0.0
 12
12.83389661855421
 22
-15.76267781138538
 32
0.0
 13
12.83389661855421
 23
-15.76267781138538
 33
0.0
  0
LINE
  5
762A
  8
0
  6
BYBLOCK
 62
     0
 10
12.7738966185542
 20
-24.60960676538548
 30
0.0
 11
12.7738966185542
 21
-20.49114228838543
 31
0.0
  0
SOLID
  5
762B
  8
0
  6
BYBLOCK
 62
     0
 10
12.7738966185542
 20
-24.96960676538548
 30
0.0
 11
12.71389661855419
 21
-24.60960676538548
 31
0.0
 12
12.83389661855421
 22
-24.60960676538548
 32
0.0
 13
12.83389661855421
 23
-24.60960676538548
 33
0.0
  0
TEXT
  5
762C
  8
0
  6
BYBLOCK
 62
     0
 10
11.8842091185542
 20
-20.31114228838543
 30
0.0
 40
0.25
  1
9.57 [243.0]
 41
0.75
  7
TXT
  0
ENDBLK
  5
91A8
  8
OBJECT
  0
BLOCK
  8
0
  2
*D10
 70
     1
 10
0.0
 20
0.0
 30
0.0
  3
*D10
  1

  0
POINT
  5
7631
  8
DEFPOINTS
  6
BYBLOCK
 62
     0
 10
20.84309671165829
 20
-17.22074777919089
 30
0.0
  0
POINT
  5
7632
  8
DEFPOINTS
  6
BYBLOCK
 62
     0
 10
20.84309671165829
 20
-19.18925167919097
 30
0.0
  0
LINE
  5
7633
  8
0
  6
BYBLOCK
 62
     0
 10
20.96909671165829
 20
-17.22074777919089
 30
0.0
 11
23.1978261237213
 21
-17.22074777919089
 31
0.0
  0
LINE
  5
7634
  8
0
  6
BYBLOCK
 62
     0
 10
20.96909671165829
 20
-19.18925167919097
 30
0.0
 11
23.1978261237213
 21
-19.18925167919097
 31
0.0
  0
LINE
  5
7635
  8
0
  6
BYBLOCK
 62
     0
 10
23.0118261237213
 20
-17.58074777919089
 30
0.0
 11
23.0118261237213
 21
-17.89999972919093
 31
0.0
  0
SOLID
  5
7636
  8
0
  6
BYBLOCK
 62
     0
 10
23.0118261237213
 20
-17.22074777919089
 30
0.0
 11
22.95182612372129
 21
-17.58074777919089
 31
0.0
 12
23.07182612372131
 22
-17.58074777919089
 32
0.0
 13
23.07182612372131
 23
-17.58074777919089
 33
0.0
  0
LINE
  5
7637
  8
0
  6
BYBLOCK
 62
     0
 10
23.0118261237213
 20
-18.82925167919097
 30
0.0
 11
23.0118261237213
 21
-18.50999972919093
 31
0.0
  0
SOLID
  5
7638
  8
0
  6
BYBLOCK
 62
     0
 10
23.0118261237213
 20
-19.18925167919097
 30
0.0
 11
22.95182612372129
 21
-18.82925167919097
 31
0.0
 12
23.07182612372131
 22
-18.82925167919097
 32
0.0
 13
23.07182612372131
 23
-18.82925167919097
 33
0.0
  0
TEXT
  5
7639
  8
0
  6
BYBLOCK
 62
     0
 10
22.2627636237213
 20
-18.32999972919093
 30
0.0
 40
0.25
  1
1.97 [50.0]
 41
0.75
  7
TXT
  0
ENDBLK
  5
91AA
  8
OBJECT
  0
BLOCK
  8
0
  2
*D11
 70
     1
 10
0.0
 20
0.0
 30
0.0
  3
*D11
  1

  0
POINT
  5
763E
  8
DEFPOINTS
  6
BYBLOCK
 62
     0
 10
20.84309671165829
 20
-19.18925167919097
 30
0.0
  0
POINT
  5
763F
  8
DEFPOINTS
  6
BYBLOCK
 62
     0
 10
20.84309671165829
 20
-21.15775557919083
 30
0.0
  0
LINE
  5
7640
  8
0
  6
BYBLOCK
 62
     0
 10
20.96909671165829
 20
-19.18925167919097
 30
0.0
 11
23.1978261237213
 21
-19.18925167919097
 31
0.0
  0
LINE
  5
7641
  8
0
  6
BYBLOCK
 62
     0
 10
20.96909671165829
 20
-21.15775557919083
 30
0.0
 11
23.1978261237213
 21
-21.15775557919083
 31
0.0
  0
LINE
  5
7642
  8
0
  6
BYBLOCK
 62
     0
 10
23.0118261237213
 20
-19.54925167919097
 30
0.0
 11
23.0118261237213
 21
-19.8685036291909
 31
0.0
  0
SOLID
  5
7643
  8
0
  6
BYBLOCK
 62
     0
 10
23.0118261237213
 20
-19.18925167919097
 30
0.0
 11
22.95182612372129
 21
-19.54925167919097
 31
0.0
 12
23.07182612372131
 22
-19.54925167919097
 32
0.0
 13
23.07182612372131
 23
-19.54925167919097
 33
0.0
  0
LINE
  5
7644
  8
0
  6
BYBLOCK
 62
     0
 10
23.0118261237213
 20
-20.79775557919083
 30
0.0
 11
23.0118261237213
 21
-20.4785036291909
 31
0.0
  0
SOLID
  5
7645
  8
0
  6
BYBLOCK
 62
     0
 10
23.0118261237213
 20
-21.15775557919083
 30
0.0
 11
22.95182612372129
 21
-20.79775557919083
 31
0.0
 12
23.07182612372131
 22
-20.79775557919083
 32
0.0
 13
23.07182612372131
 23
-20.79775557919083
 33
0.0
  0
TEXT
  5
7646
  8
0
  6
BYBLOCK
 62
     0
 10
22.2627636237213
 20
-20.2985036291909
 30
0.0
 40
0.25
  1
1.97 [50.0]
 41
0.75
  7
TXT
  0
ENDBLK
  5
91AC
  8
OBJECT
  0
BLOCK
  8
0
  2
*D12
 70
     1
 10
0.0
 20
0.0
 30
0.0
  3
*D12
  1

  0
POINT
  5
764B
  8
DEFPOINTS
  6
BYBLOCK
 62
     0
 10
20.84309671165829
 20
-21.15775557919083
 30
0.0
  0
POINT
  5
764C
  8
DEFPOINTS
  6
BYBLOCK
 62
     0
 10
20.84309671165829
 20
-23.12625947919092
 30
0.0
  0
LINE
  5
764D
  8
0
  6
BYBLOCK
 62
     0
 10
20.96909671165829
 20
-21.15775557919083
 30
0.0
 11
23.1978261237213
 21
-21.15775557919083
 31
0.0
  0
LINE
  5
764E
  8
0
  6
BYBLOCK
 62
     0
 10
20.96909671165829
 20
-23.12625947919092
 30
0.0
 11
23.1978261237213
 21
-23.12625947919092
 31
0.0
  0
LINE
  5
764F
  8
0
  6
BYBLOCK
 62
     0
 10
23.0118261237213
 20
-21.51775557919083
 30
0.0
 11
23.0118261237213
 21
-21.83700752919088
 31
0.0
  0
SOLID
  5
7650
  8
0
  6
BYBLOCK
 62
     0
 10
23.0118261237213
 20
-21.15775557919083
 30
0.0
 11
22.95182612372129
 21
-21.51775557919083
 31
0.0
 12
23.07182612372131
 22
-21.51775557919083
 32
0.0
 13
23.07182612372131
 23
-21.51775557919083
 33
0.0
  0
LINE
  5
7651
  8
0
  6
BYBLOCK
 62
     0
 10
23.0118261237213
 20
-22.76625947919092
 30
0.0
 11
23.0118261237213
 21
-22.44700752919088
 31
0.0
  0
SOLID
  5
7652
  8
0
  6
BYBLOCK
 62
     0
 10
23.0118261237213
 20
-23.12625947919092
 30
0.0
 11
22.95182612372129
 21
-22.76625947919092
 31
0.0
 12
23.07182612372131
 22
-22.76625947919092
 32
0.0
 13
23.07182612372131
 23
-22.76625947919092
 33
0.0
  0
TEXT
  5
7653
  8
0
  6
BYBLOCK
 62
     0
 10
22.2627636237213
 20
-22.26700752919088
 30
0.0
 40
0.25
  1
1.97 [50.0]
 41
0.75
  7
TXT
  0
ENDBLK
  5
91AE
  8
OBJECT
  0
BLOCK
  8
0
  2
*D13
 70
     1
 10
0.0
 20
0.0
 30
0.0
  3
*D13
  1

  0
LINE
  5
7658
  8
0
  6
BYBLOCK
 62
     0
 10
20.16309672105827
 20
-17.22074777919088
 30
0.0
 11
20.52309672105827
 21
-17.22074777919088
 31
0.0
  0
LINE
  5
7659
  8
0
  6
BYBLOCK
 62
     0
 10
20.34309672105827
 20
-17.04074777919088
 30
0.0
 11
20.34309672105827
 21
-17.40074777919088
 31
0.0
  0
LINE
  5
765A
  8
0
  6
BYBLOCK
 62
     0
 10
20.98643754809776
 20
-16.74034953602944
 30
0.0
 11
22.15934299361518
 21
-15.86451251195315
 31
0.0
  0
LINE
  5
765B
  8
0
  6
BYBLOCK
 62
     0
 10
22.15934299361518
 20
-15.86451251195315
 30
0.0
 11
22.51965549361518
 21
-15.86451251195315
 31
0.0
  0
SOLID
  5
765C
  8
0
  6
BYBLOCK
 62
     0
 10
20.69798464119098
 20
-16.95574433749184
 30
0.0
 11
21.02233668167484
 21
-16.78842502051392
 31
0.0
 12
20.95053841452069
 22
-16.69227405154497
 32
0.0
 13
20.95053841452069
 23
-16.69227405154497
 33
0.0
  0
TEXT
  5
765D
  8
0
  6
BYBLOCK
 62
     0
 10
22.69965549361518
 20
-15.98951251195315
 30
0.0
 40
0.25
  1
%%c0.89 [%%c22.5] (4X)
 41
0.75
  7
TXT
  0
POINT
  5
765E
  8
DEFPOINTS
  6
BYBLOCK
 62
     0
 10
19.98820880092555
 20
-17.48575122088992
 30
0.0
  0
POINT
  5
765F
  8
DEFPOINTS
  6
BYBLOCK
 62
     0
 10
20.69798464119098
 20
-16.95574433749184
 30
0.0
  0
ENDBLK
  5
91B0
  8
OBJECT
  0
BLOCK
  8
0
  2
*D14
 70
     1
 10
0.0
 20
0.0
 30
0.0
  3
*D14
  1

  0
POINT
  5
7664
  8
DEFPOINTS
  6
BYBLOCK
 62
     0
 10
20.28010459625829
 20
-17.7207477697908
 30
0.0
  0
POINT
  5
7665
  8
DEFPOINTS
  6
BYBLOCK
 62
     0
 10
20.28010459625829
 20
-16.72074778859098
 30
0.0
  0
LINE
  5
7666
  8
0
  6
BYBLOCK
 62
     0
 10
20.15410459625829
 20
-17.7207477697908
 30
0.0
 11
17.57402305810613
 21
-17.7207477697908
 31
0.0
  0
LINE
  5
7667
  8
0
  6
BYBLOCK
 62
     0
 10
20.15410459625829
 20
-16.72074778859098
 30
0.0
 11
17.57402305810613
 21
-16.72074778859098
 31
0.0
  0
LINE
  5
7668
  8
0
  6
BYBLOCK
 62
     0
 10
17.76002305810613
 20
-18.0807477697908
 30
0.0
 11
17.76002305810613
 21
-18.4407477697908
 31
0.0
  0
SOLID
  5
7669
  8
0
  6
BYBLOCK
 62
     0
 10
17.76002305810613
 20
-17.7207477697908
 30
0.0
 11
17.82002305810614
 21
-18.0807477697908
 31
0.0
 12
17.70002305810612
 22
-18.0807477697908
 32
0.0
 13
17.70002305810612
 23
-18.0807477697908
 33
0.0
  0
LINE
  5
766A
  8
0
  6
BYBLOCK
 62
     0
 10
17.76002305810613
 20
-16.36074778859098
 30
0.0
 11
17.76002305810613
 21
-16.00074778859098
 31
0.0
  0
SOLID
  5
766B
  8
0
  6
BYBLOCK
 62
     0
 10
17.76002305810613
 20
-16.72074778859098
 30
0.0
 11
17.82002305810614
 21
-16.36074778859098
 31
0.0
 12
17.70002305810612
 22
-16.36074778859098
 32
0.0
 13
17.70002305810612
 23
-16.36074778859098
 33
0.0
  0
TEXT
  5
766C
  8
0
  6
BYBLOCK
 62
     0
 10
17.01096055810613
 20
-17.34574777919089
 30
0.0
 40
0.25
  1
1.00 [25.4]
 41
0.75
  7
TXT
  0
ENDBLK
  5
91B2
  8
OBJECT
  0
BLOCK
  8
0
  2
*D15
 70
     1
 10
0.0
 20
0.0
 30
0.0
  3
*D15
  1

  0
POINT
  5
77AD
  8
DEFPOINTS
  6
BYBLOCK
 62
     0
 10
20.28010459625829
 20
-16.72074778859098
 30
0.0
  0
POINT
  5
77AE
  8
DEFPOINTS
  6
BYBLOCK
 62
     0
 10
20.40608884585827
 20
-16.72074778859098
 30
0.0
  0
LINE
  5
77AF
  8
0
  6
BYBLOCK
 62
     0
 10
20.28010459625829
 20
-16.59474778859098
 30
0.0
 11
20.28010459625829
 21
-13.80140093471163
 31
0.0
  0
LINE
  5
77B0
  8
0
  6
BYBLOCK
 62
     0
 10
20.40608884585827
 20
-16.59474778859098
 30
0.0
 11
20.40608884585827
 21
-13.80140093471163
 31
0.0
  0
LINE
  5
77B1
  8
0
  6
BYBLOCK
 62
     0
 10
19.92010459625829
 20
-13.98740093471163
 30
0.0
 11
19.56010459625829
 21
-13.98740093471163
 31
0.0
  0
SOLID
  5
77B2
  8
0
  6
BYBLOCK
 62
     0
 10
20.28010459625829
 20
-13.98740093471163
 30
0.0
 11
19.92010459625829
 21
-14.04740093471164
 31
0.0
 12
19.92010459625829
 22
-13.92740093471161
 32
0.0
 13
19.92010459625829
 23
-13.92740093471161
 33
0.0
  0
LINE
  5
77B3
  8
0
  6
BYBLOCK
 62
     0
 10
20.76608884585827
 20
-13.98740093471163
 30
0.0
 11
21.12608884585827
 21
-13.98740093471163
 31
0.0
  0
SOLID
  5
77B4
  8
0
  6
BYBLOCK
 62
     0
 10
20.40608884585827
 20
-13.98740093471163
 30
0.0
 11
20.76608884585827
 21
-14.04740093471164
 31
0.0
 12
20.76608884585827
 22
-13.92740093471161
 32
0.0
 13
20.76608884585827
 23
-13.92740093471161
 33
0.0
  0
TEXT
  5
77B5
  8
0
  6
BYBLOCK
 62
     0
 10
21.30671384585827
 20
-14.11240093471163
 30
0.0
 40
0.25
  1
0.13 [3.2]
 41
0.75
  7
TXT
  0
ENDBLK
  5
91B4
  8
OBJECT
  0
BLOCK
  8
0
  2
*D16
 70
     1
 10
0.0
 20
0.0
 30
0.0
  3
*D16
  1

  0
POINT
  5
7982
  8
DEFPOINTS
  6
BYBLOCK
 62
     0
 10
21.77815023336171
 20
-30.59170503238814
 30
0.0
  0
POINT
  5
7983
  8
DEFPOINTS
  6
BYBLOCK
 62
     0
 10
20.34114238636169
 20
-29.59170503238794
 30
0.0
  0
LINE
  5
7984
  8
0
  6
BYBLOCK
 62
     0
 10
21.90415023336171
 20
-30.59170503238814
 30
0.0
 11
23.75877773279178
 21
-30.59170503238814
 31
0.0
  0
LINE
  5
7985
  8
0
  6
BYBLOCK
 62
     0
 10
20.46714238636169
 20
-29.59170503238794
 30
0.0
 11
23.75877773279178
 21
-29.59170503238794
 31
0.0
  0
LINE
  5
7986
  8
0
  6
BYBLOCK
 62
     0
 10
23.57277773279178
 20
-30.95170503238814
 30
0.0
 11
23.57277773279178
 21
-31.31170503238814
 31
0.0
  0
SOLID
  5
7987
  8
0
  6
BYBLOCK
 62
     0
 10
23.57277773279178
 20
-30.59170503238814
 30
0.0
 11
23.63277773279179
 21
-30.95170503238814
 31
0.0
 12
23.51277773279176
 22
-30.95170503238814
 32
0.0
 13
23.51277773279176
 23
-30.95170503238814
 33
0.0
  0
LINE
  5
7988
  8
0
  6
BYBLOCK
 62
     0
 10
23.57277773279178
 20
-29.23170503238794
 30
0.0
 11
23.57277773279178
 21
-28.87170503238794
 31
0.0
  0
SOLID
  5
7989
  8
0
  6
BYBLOCK
 62
     0
 10
23.57277773279178
 20
-29.59170503238794
 30
0.0
 11
23.63277773279179
 21
-29.23170503238794
 31
0.0
 12
23.51277773279176
 22
-29.23170503238794
 32
0.0
 13
23.51277773279176
 23
-29.23170503238794
 33
0.0
  0
TEXT
  5
798A
  8
0
  6
BYBLOCK
 62
     0
 10
22.82371523279178
 20
-30.21670503238804
 30
0.0
 40
0.25
  1
1.00 [25.4]
 41
0.75
  7
TXT
  0
ENDBLK
  5
91B6
  8
OBJECT
  0
BLOCK
  8
0
  2
*D17
 70
     1
 10
0.0
 20
0.0
 30
0.0
  3
*D17
  1

  0
POINT
  5
79CE
  8
DEFPOINTS
  6
BYBLOCK
 62
     0
 10
13.89334141049175
 20
-24.1021500883856
 30
0.0
  0
POINT
  5
79CF
  8
DEFPOINTS
  6
BYBLOCK
 62
     0
 10
13.89334141049175
 20
-16.27013448838571
 30
0.0
  0
LINE
  5
79D0
  8
0
  6
BYBLOCK
 62
     0
 10
14.01934141049175
 20
-24.1021500883856
 30
0.0
 11
16.35087261579645
 21
-24.1021500883856
 31
0.0
  0
LINE
  5
79D1
  8
0
  6
BYBLOCK
 62
     0
 10
14.01934141049175
 20
-16.27013448838571
 30
0.0
 11
16.35087261579645
 21
-16.27013448838571
 31
0.0
  0
LINE
  5
79D2
  8
0
  6
BYBLOCK
 62
     0
 10
16.16487261579645
 20
-23.7421500883856
 30
0.0
 11
16.16487261579645
 21
-20.49114228838565
 31
0.0
  0
SOLID
  5
79D3
  8
0
  6
BYBLOCK
 62
     0
 10
16.16487261579645
 20
-24.1021500883856
 30
0.0
 11
16.22487261579646
 21
-23.7421500883856
 31
0.0
 12
16.10487261579644
 22
-23.7421500883856
 32
0.0
 13
16.10487261579644
 23
-23.7421500883856
 33
0.0
  0
LINE
  5
79D4
  8
0
  6
BYBLOCK
 62
     0
 10
16.16487261579645
 20
-16.63013448838571
 30
0.0
 11
16.16487261579645
 21
-19.88114228838565
 31
0.0
  0
SOLID
  5
79D5
  8
0
  6
BYBLOCK
 62
     0
 10
16.16487261579645
 20
-16.27013448838571
 30
0.0
 11
16.22487261579646
 21
-16.63013448838571
 31
0.0
 12
16.10487261579644
 22
-16.63013448838571
 32
0.0
 13
16.10487261579644
 23
-16.63013448838571
 33
0.0
  0
TEXT
  5
79D6
  8
0
  6
BYBLOCK
 62
     0
 10
15.29018511579645
 20
-20.31114228838565
 30
0.0
 40
0.25
  1
7.83 [198.9]
 41
0.75
  7
TXT
  0
ENDBLK
  5
91B8
  8
OBJECT
  0
BLOCK
  8
0
  2
*D18
 70
     1
 10
0.0
 20
0.0
 30
0.0
  3
*D18
  1

  0
POINT
  5
79DA
  8
DEFPOINTS
  6
BYBLOCK
 62
     0
 10
27.09271160852206
 20
-23.55759351216677
 30
0.0
  0
POINT
  5
79DB
  8
DEFPOINTS
  6
BYBLOCK
 62
     0
 10
29.84693103823884
 20
-23.92498473738516
 30
0.0
  0
LINE
  5
79DC
  8
0
  6
BYBLOCK
 62
     0
 10
27.09271160852206
 20
-23.43159351216677
 30
0.0
 11
27.09271160852206
 21
-23.00964721439861
 31
0.0
  0
LINE
  5
79DD
  8
0
  6
BYBLOCK
 62
     0
 10
29.84693103823884
 20
-23.79898473738516
 30
0.0
 11
29.84693103823884
 21
-23.00964721439861
 31
0.0
  0
LINE
  5
79DE
  8
0
  6
BYBLOCK
 62
     0
 10
27.45271160852206
 20
-23.19564721439861
 30
0.0
 11
27.50982132338045
 21
-23.19564721439861
 31
0.0
  0
SOLID
  5
79DF
  8
0
  6
BYBLOCK
 62
     0
 10
27.09271160852206
 20
-23.19564721439861
 30
0.0
 11
27.45271160852206
 21
-23.25564721439862
 31
0.0
 12
27.45271160852206
 22
-23.1356472143986
 32
0.0
 13
27.45271160852206
 23
-23.1356472143986
 33
0.0
  0
LINE
  5
79E0
  8
0
  6
BYBLOCK
 62
     0
 10
29.48693103823884
 20
-23.19564721439861
 30
0.0
 11
29.42982132338045
 21
-23.19564721439861
 31
0.0
  0
SOLID
  5
79E1
  8
0
  6
BYBLOCK
 62
     0
 10
29.84693103823884
 20
-23.19564721439861
 30
0.0
 11
29.48693103823884
 21
-23.25564721439862
 31
0.0
 12
29.48693103823884
 22
-23.1356472143986
 32
0.0
 13
29.48693103823884
 23
-23.1356472143986
 33
0.0
  0
TEXT
  5
79E2
  8
0
  6
BYBLOCK
 62
     0
 10
27.68982132338045
 20
-23.32064721439861
 30
0.0
 40
0.25
  1
2.75 [70.0]
 41
0.75
  7
TXT
  0
ENDBLK
  5
91BA
  8
OBJECT
  0
BLOCK
  8
0
  2
*D19
 70
     1
 10
0.0
 20
0.0
 30
0.0
  3
*D19
  1

  0
POINT
  5
7A13
  8
DEFPOINTS
  6
BYBLOCK
 62
     0
 10
11.53113673049176
 20
-15.61921324038541
 30
0.0
  0
POINT
  5
7A14
  8
DEFPOINTS
  6
BYBLOCK
 62
     0
 10
14.68074297049179
 20
-15.61921324038541
 30
0.0
  0
LINE
  5
7A15
  8
0
  6
BYBLOCK
 62
     0
 10
11.53113673049176
 20
-15.49321324038541
 30
0.0
 11
11.53113673049176
 21
-14.10600469507618
 31
0.0
  0
LINE
  5
7A16
  8
0
  6
BYBLOCK
 62
     0
 10
14.68074297049179
 20
-15.49321324038541
 30
0.0
 11
14.68074297049179
 21
-14.10600469507618
 31
0.0
  0
LINE
  5
7A17
  8
0
  6
BYBLOCK
 62
     0
 10
11.89113673049176
 20
-14.29200469507618
 30
0.0
 11
12.17687735049178
 21
-14.29200469507618
 31
0.0
  0
SOLID
  5
7A18
  8
0
  6
BYBLOCK
 62
     0
 10
11.53113673049176
 20
-14.29200469507618
 30
0.0
 11
11.89113673049176
 21
-14.35200469507619
 31
0.0
 12
11.89113673049176
 22
-14.23200469507617
 32
0.0
 13
11.89113673049176
 23
-14.23200469507617
 33
0.0
  0
LINE
  5
7A19
  8
0
  6
BYBLOCK
 62
     0
 10
14.32074297049179
 20
-14.29200469507618
 30
0.0
 11
14.03500235049177
 21
-14.29200469507618
 31
0.0
  0
SOLID
  5
7A1A
  8
0
  6
BYBLOCK
 62
     0
 10
14.68074297049179
 20
-14.29200469507618
 30
0.0
 11
14.32074297049179
 21
-14.35200469507619
 31
0.0
 12
14.32074297049179
 22
-14.23200469507617
 32
0.0
 13
14.32074297049179
 23
-14.23200469507617
 33
0.0
  0
TEXT
  5
7A1B
  8
0
  6
BYBLOCK
 62
     0
 10
12.35687735049178
 20
-14.41700469507618
 30
0.0
 40
0.25
  1
3.15 [80.0]
 41
0.75
  7
TXT
  0
ENDBLK
  5
91BC
  8
OBJECT
  0
BLOCK
  8
0
  2
*D20
 70
     1
 10
0.0
 20
0.0
 30
0.0
  3
*D20
  1

  0
LINE
  5
7A36
  8
0
  6
BYBLOCK
 62
     0
 10
13.71334141049175
 20
-16.27013448838571
 30
0.0
 11
14.07334141049175
 21
-16.27013448838571
 31
0.0
  0
LINE
  5
7A37
  8
0
  6
BYBLOCK
 62
     0
 10
13.89334141049175
 20
-16.09013448838571
 30
0.0
 11
13.89334141049175
 21
-16.45013448838571
 31
0.0
  0
LINE
  5
7A38
  8
0
  6
BYBLOCK
 62
     0
 10
14.20227717669326
 20
-15.97827203386048
 30
0.0
 11
15.11650899430157
 21
-15.11456516827799
 31
0.0
  0
LINE
  5
7A39
  8
0
  6
BYBLOCK
 62
     0
 10
15.11650899430157
 20
-15.11456516827799
 30
0.0
 11
15.47650899430157
 21
-15.11456516827799
 31
0.0
  0
SOLID
  5
7A3A
  8
0
  6
BYBLOCK
 62
     0
 10
13.94059041002845
 20
-16.22549670122302
 30
0.0
 11
14.24348128792036
 21
-16.02188649497129
 31
0.0
 12
14.16107306546616
 22
-15.93465757274967
 32
0.0
 13
14.16107306546616
 23
-15.93465757274967
 33
0.0
  0
TEXT
  5
7A3B
  8
0
  6
BYBLOCK
 62
     0
 10
15.65650899430157
 20
-15.23956516827799
 30
0.0
 40
0.25
  1
%%c0.13 [%%c3.3] TYP.
 41
0.75
  7
TXT
  0
POINT
  5
7A3C
  8
DEFPOINTS
  6
BYBLOCK
 62
     0
 10
13.84609241095505
 20
-16.31477227554839
 30
0.0
  0
POINT
  5
7A3D
  8
DEFPOINTS
  6
BYBLOCK
 62
     0
 10
13.94059041002845
 20
-16.22549670122302
 30
0.0
  0
ENDBLK
  5
91BE
  8
OBJECT
  0
BLOCK
  8
0
  2
*D21
 70
     1
 10
0.0
 20
0.0
 30
0.0
  3
*D21
  1

  0
LINE
  5
7A4D
  8
0
  6
BYBLOCK
 62
     0
 10
12.1385382904918
 20
-16.27013448838571
 30
0.0
 11
12.4985382904918
 21
-16.27013448838571
 31
0.0
  0
LINE
  5
7A4E
  8
0
  6
BYBLOCK
 62
     0
 10
12.3185382904918
 20
-16.09013448838571
 30
0.0
 11
12.3185382904918
 21
-16.45013448838571
 31
0.0
  0
LINE
  5
7A4F
  8
0
  6
BYBLOCK
 62
     0
 10
12.02127211280657
 20
-15.79909115746552
 30
0.0
 11
10.85548390062011
 21
-13.9518014089584
 31
0.0
  0
LINE
  5
7A50
  8
0
  6
BYBLOCK
 62
     0
 10
10.85548390062011
 20
-13.9518014089584
 30
0.0
 11
10.49548390062011
 21
-13.9518014089584
 31
0.0
  0
SOLID
  5
7A51
  8
0
  6
BYBLOCK
 62
     0
 10
12.21340106068213
 20
-16.10353568014285
 30
0.0
 11
12.07201286658614
 21
-15.76706966615292
 31
0.0
 12
11.97053135902701
 22
-15.83111264877811
 32
0.0
 13
11.97053135902701
 23
-15.83111264877811
 33
0.0
  0
TEXT
  5
7A52
  8
0
  6
BYBLOCK
 62
     0
 10
7.660483900620108
 20
-14.0768014089584
 30
0.0
 40
0.25
  1
%%c0.39 [%%c10.0] TYP.
 41
0.75
  7
TXT
  0
POINT
  5
7A53
  8
DEFPOINTS
  6
BYBLOCK
 62
     0
 10
12.42367552030147
 20
-16.43673329662856
 30
0.0
  0
POINT
  5
7A54
  8
DEFPOINTS
  6
BYBLOCK
 62
     0
 10
12.21340106068213
 20
-16.10353568014285
 30
0.0
  0
ENDBLK
  5
91C0
  8
OBJECT
  0
BLOCK
  8
0
  2
*X22
 70
     1
 10
0.0
 20
0.0
 30
0.0
  3
*X22
  1

  0
ENDBLK
  5
91C2
  8
0
  0
BLOCK
  8
0
  2
*X23
 70
     1
 10
0.0
 20
0.0
 30
0.0
  3
*X23
  1

  0
ENDBLK
  5
91C4
  8
0
  0
BLOCK
  8
0
  2
*X24
 70
     1
 10
0.0
 20
0.0
 30
0.0
  3
*X24
  1

  0
ENDBLK
  5
91C6
  8
0
  0
BLOCK
  8
0
  2
*X25
 70
     1
 10
0.0
 20
0.0
 30
0.0
  3
*X25
  1

  0
ENDBLK
  5
91C8
  8
0
  0
BLOCK
  8
0
  2
*X26
 70
     1
 10
0.0
 20
0.0
 30
0.0
  3
*X26
  1

  0
ENDBLK
  5
91CA
  8
0
  0
BLOCK
  8
0
  2
*X27
 70
     1
 10
0.0
 20
0.0
 30
0.0
  3
*X27
  1

  0
ENDBLK
  5
91CC
  8
0
  0
BLOCK
  8
0
  2
*X28
 70
     1
 10
0.0
 20
0.0
 30
0.0
  3
*X28
  1

  0
ENDBLK
  5
91CE
  8
0
  0
BLOCK
  8
0
  2
*X29
 70
     1
 10
0.0
 20
0.0
 30
0.0
  3
*X29
  1

  0
ENDBLK
  5
91D0
  8
0
  0
BLOCK
  8
0
  2
*X30
 70
     1
 10
0.0
 20
0.0
 30
0.0
  3
*X30
  1

  0
ENDBLK
  5
91D2
  8
0
  0
BLOCK
  8
0
  2
*X31
 70
     1
 10
0.0
 20
0.0
 30
0.0
  3
*X31
  1

  0
ENDBLK
  5
91D4
  8
0
  0
BLOCK
  8
0
  2
*X32
 70
     1
 10
0.0
 20
0.0
 30
0.0
  3
*X32
  1

  0
ENDBLK
  5
91D6
  8
0
  0
BLOCK
  8
0
  2
*X33
 70
     1
 10
0.0
 20
0.0
 30
0.0
  3
*X33
  1

  0
ENDBLK
  5
91D8
  8
0
  0
BLOCK
  8
0
  2
*X34
 70
     1
 10
0.0
 20
0.0
 30
0.0
  3
*X34
  1

  0
ENDBLK
  5
91DA
  8
0
  0
BLOCK
  8
0
  2
*X35
 70
     1
 10
0.0
 20
0.0
 30
0.0
  3
*X35
  1

  0
ENDBLK
  5
91DC
  8
0
  0
BLOCK
  8
0
  2
*X36
 70
     1
 10
0.0
 20
0.0
 30
0.0
  3
*X36
  1

  0
ENDBLK
  5
91DE
  8
0
  0
BLOCK
  8
0
  2
*X37
 70
     1
 10
0.0
 20
0.0
 30
0.0
  3
*X37
  1

  0
ENDBLK
  5
91E0
  8
0
  0
BLOCK
  8
0
  2
*X38
 70
     1
 10
0.0
 20
0.0
 30
0.0
  3
*X38
  1

  0
ENDBLK
  5
91E2
  8
0
  0
BLOCK
  8
0
  2
*X39
 70
     1
 10
0.0
 20
0.0
 30
0.0
  3
*X39
  1

  0
ENDBLK
  5
91E4
  8
0
  0
BLOCK
  8
0
  2
*X40
 70
     1
 10
0.0
 20
0.0
 30
0.0
  3
*X40
  1

  0
ENDBLK
  5
91E6
  8
0
  0
BLOCK
  8
0
  2
*X41
 70
     1
 10
0.0
 20
0.0
 30
0.0
  3
*X41
  1

  0
ENDBLK
  5
91E8
  8
0
  0
BLOCK
  8
0
  2
*X42
 70
     1
 10
0.0
 20
0.0
 30
0.0
  3
*X42
  1

  0
ENDBLK
  5
91EA
  8
0
  0
BLOCK
  8
0
  2
*X43
 70
     1
 10
0.0
 20
0.0
 30
0.0
  3
*X43
  1

  0
SOLID
  5
7D8D
  8
BEND
 10
19.13495296122032
 20
-14.83165761195072
 30
0.0
 11
18.77495296122032
 21
-14.77165761195072
 31
0.0
 12
19.13495296122032
 22
-14.71165761195071
 32
0.0
 13
19.13495296122032
 23
-14.71165761195071
 33
0.0
  0
LINE
  5
7D8E
  8
BEND
 10
19.13495296122032
 20
-14.77165761195072
 30
0.0
 11
19.57249646854975
 21
-14.77165761195072
 31
0.0
  0
ENDBLK
  5
91EC
  8
0
  0
BLOCK
  8
0
  2
*X44
 70
     1
 10
0.0
 20
0.0
 30
0.0
  3
*X44
  1

  0
SOLID
  5
7D92
  8
BEND
 10
-19.13495296122032
 20
-25.54062696482014
 30
0.0
 11
-18.77495296122032
 21
-25.60062696482014
 31
0.0
 12
-19.13495296122032
 22
-25.66062696482014
 32
0.0
 13
-19.13495296122032
 23
-25.66062696482014
 33
0.0
210
0.0
220
0.0
230
-1.0
  0
LINE
  5
7D93
  8
BEND
 10
19.13495296122032
 20
-25.60062696482014
 30
0.0
 11
19.57249646854975
 21
-25.60062696482014
 31
0.0
  0
ENDBLK
  5
91EE
  8
0
  0
BLOCK
  8
0
  2
*X45
 70
     1
 10
0.0
 20
0.0
 30
0.0
  3
*X45
  1

  0
TEXT
  5
7D9D
  8
OBJECT
 10
22.53276275005821
 20
-14.51791458568974
 30
0.0
 40
0.25
  1
NON-METALLIC
 41
0.75
  7
TXT
  0
TEXT
  5
7D9E
  8
OBJECT
 10
22.53276275005821
 20
-14.93458125235641
 30
0.0
 40
0.25
  1
CAPTIVE SCREWS (4X)
 41
0.75
  7
TXT
  0
ENDBLK
  5
91F0
  8
0
  0
BLOCK
  8
0
  2
*D46
 70
     1
 10
0.0
 20
0.0
 30
0.0
  3
*D46
  1

  0
POINT
  5
8109
  8
DEFPOINTS
  6
BYBLOCK
 62
     0
 10
30.29804127223888
 20
-15.38692678920199
 30
0.0
  0
POINT
  5
810A
  8
DEFPOINTS
  6
BYBLOCK
 62
     0
 10
28.32953831686102
 20
-15.26477428715939
 30
0.0
  0
LINE
  5
810B
  8
0
  6
BYBLOCK
 62
     0
 10
30.29804127223888
 20
-15.26092678920199
 30
0.0
 11
30.29804127223888
 21
-13.73739061572348
 31
0.0
  0
LINE
  5
810C
  8
0
  6
BYBLOCK
 62
     0
 10
28.32953831686102
 20
-15.13877428715939
 30
0.0
 11
28.32953831686102
 21
-13.73739061572348
 31
0.0
  0
LINE
  5
810D
  8
0
  6
BYBLOCK
 62
     0
 10
30.65804127223888
 20
-13.92339061572348
 30
0.0
 11
31.01804127223888
 21
-13.92339061572348
 31
0.0
  0
SOLID
  5
810E
  8
0
  6
BYBLOCK
 62
     0
 10
30.29804127223888
 20
-13.92339061572348
 30
0.0
 11
30.65804127223888
 21
-13.86339061572346
 31
0.0
 12
30.65804127223888
 22
-13.98339061572349
 32
0.0
 13
30.65804127223888
 23
-13.98339061572349
 33
0.0
  0
LINE
  5
810F
  8
0
  6
BYBLOCK
 62
     0
 10
27.96953831686102
 20
-13.92339061572348
 30
0.0
 11
27.60953831686102
 21
-13.92339061572348
 31
0.0
  0
SOLID
  5
8110
  8
0
  6
BYBLOCK
 62
     0
 10
28.32953831686102
 20
-13.92339061572348
 30
0.0
 11
27.96953831686102
 21
-13.86339061572346
 31
0.0
 12
27.96953831686102
 22
-13.98339061572349
 32
0.0
 13
27.96953831686102
 23
-13.98339061572349
 33
0.0
  0
TEXT
  5
8111
  8
0
  6
BYBLOCK
 62
     0
 10
28.56472729454995
 20
-14.04839061572348
 30
0.0
 40
0.25
  1
1.97 [50.0]
 41
0.75
  7
TXT
  0
ENDBLK
  5
91F2
  8
OBJECT
  0
BLOCK
  8
0
  2
*D47
 70
     1
 10
0.0
 20
0.0
 30
0.0
  3
*D47
  1

  0
POINT
  5
8115
  8
DEFPOINTS
  6
BYBLOCK
 62
     0
 10
26.95160432727791
 20
-15.40778599202769
 30
0.0
  0
POINT
  5
8116
  8
DEFPOINTS
  6
BYBLOCK
 62
     0
 10
30.29804127223888
 20
-15.38692678920199
 30
0.0
  0
LINE
  5
8117
  8
0
  6
BYBLOCK
 62
     0
 10
26.95160432727791
 20
-15.28178599202769
 30
0.0
 11
26.95160432727791
 21
-12.87365040059752
 31
0.0
  0
LINE
  5
8118
  8
0
  6
BYBLOCK
 62
     0
 10
30.29804127223888
 20
-15.26092678920199
 30
0.0
 11
30.29804127223888
 21
-12.87365040059752
 31
0.0
  0
LINE
  5
8119
  8
0
  6
BYBLOCK
 62
     0
 10
26.95160432727791
 20
-13.05965040059752
 30
0.0
 11
27.64888529975839
 21
-13.05965040059752
 31
0.0
  0
SOLID
  5
811A
  8
0
  6
BYBLOCK
 62
     0
 10
26.95160432727791
 20
-13.05965040059752
 30
0.0
 11
27.31160432727791
 21
-13.11965040059754
 31
0.0
 12
27.31160432727791
 22
-12.99965040059751
 32
0.0
 13
27.31160432727791
 23
-12.99965040059751
 33
0.0
  0
LINE
  5
811B
  8
0
  6
BYBLOCK
 62
     0
 10
30.29804127223888
 20
-13.05965040059752
 30
0.0
 11
29.60076029975839
 21
-13.05965040059752
 31
0.0
  0
SOLID
  5
811C
  8
0
  6
BYBLOCK
 62
     0
 10
30.29804127223888
 20
-13.05965040059752
 30
0.0
 11
29.93804127223888
 21
-13.11965040059754
 31
0.0
 12
29.93804127223888
 22
-12.99965040059751
 32
0.0
 13
29.93804127223888
 23
-12.99965040059751
 33
0.0
  0
TEXT
  5
811D
  8
0
  6
BYBLOCK
 62
     0
 10
27.82888529975839
 20
-13.18465040059752
 30
0.0
 40
0.25
  1
3.35 [85.0]
 41
0.75
  7
TXT
  0
ENDBLK
  5
91F4
  8
OBJECT
  0
BLOCK
  8
0
  2
*X48
 70
     1
 10
0.0
 20
0.0
 30
0.0
  3
*X48
  1

  0
LINE
  5
91FB
  8
OBJECT
 10
26.95160432727792
 20
-21.75382056131706
 30
0.0
 11
27.04766931880399
 21
-21.65775556979099
 31
0.0
  0
LINE
  5
91FC
  8
OBJECT
 10
26.95160432727792
 20
-21.8775642480247
 30
0.0
 11
27.09271160852206
 21
-21.73645696678056
 31
0.0
  0
LINE
  5
91FD
  8
OBJECT
 10
26.95160432727792
 20
-22.00130793473235
 30
0.0
 11
27.09271160852206
 21
-21.8602006534882
 31
0.0
  0
LINE
  5
91FE
  8
OBJECT
 10
26.95160432727792
 20
-22.12505162143999
 30
0.0
 11
27.09271160852206
 21
-21.98394434019585
 31
0.0
  0
LINE
  5
91FF
  8
OBJECT
 10
26.95160432727792
 20
-22.24879530814763
 30
0.0
 11
27.09271160852206
 21
-22.10768802690349
 31
0.0
  0
LINE
  5
9200
  8
OBJECT
 10
26.95160432727792
 20
-22.37253899485528
 30
0.0
 11
27.09271160852206
 21
-22.23143171361114
 31
0.0
  0
LINE
  5
9201
  8
OBJECT
 10
26.95160432727792
 20
-22.49628268156292
 30
0.0
 11
27.09271160852206
 21
-22.35517540031878
 31
0.0
  0
LINE
  5
9202
  8
OBJECT
 10
26.95160432727792
 20
-22.62002636827057
 30
0.0
 11
27.09271160852206
 21
-22.47891908702642
 31
0.0
  0
LINE
  5
9203
  8
OBJECT
 10
27.06911489366534
 20
-22.62625948859078
 30
0.0
 11
27.09271160852206
 21
-22.60266277373406
 31
0.0
  0
ENDBLK
  5
9205
  8
0
  0
BLOCK
  8
0
  2
*X49
 70
     1
 10
0.0
 20
0.0
 30
0.0
  3
*X49
  1

  0
LINE
  5
9207
  8
OBJECT
 10
26.95160432727793
 20
-19.78531666131697
 30
0.0
 11
27.04766931880399
 21
-19.6892516697909
 31
0.0
  0
LINE
  5
9208
  8
OBJECT
 10
26.95160432727793
 20
-19.90906034802461
 30
0.0
 11
27.09271160852207
 21
-19.76795306678047
 31
0.0
  0
LINE
  5
9209
  8
OBJECT
 10
26.95160432727793
 20
-20.03280403473225
 30
0.0
 11
27.09271160852207
 21
-19.89169675348811
 31
0.0
  0
LINE
  5
920A
  8
OBJECT
 10
26.95160432727793
 20
-20.15654772143989
 30
0.0
 11
27.09271160852207
 21
-20.01544044019576
 31
0.0
  0
LINE
  5
920B
  8
OBJECT
 10
26.95160432727793
 20
-20.28029140814754
 30
0.0
 11
27.09271160852207
 21
-20.1391841269034
 31
0.0
  0
LINE
  5
920C
  8
OBJECT
 10
26.95160432727793
 20
-20.40403509485518
 30
0.0
 11
27.09271160852207
 21
-20.26292781361104
 31
0.0
  0
LINE
  5
920D
  8
OBJECT
 10
26.95160432727793
 20
-20.52777878156282
 30
0.0
 11
27.09271160852207
 21
-20.38667150031869
 31
0.0
  0
LINE
  5
920E
  8
OBJECT
 10
26.95160432727793
 20
-20.65152246827047
 30
0.0
 11
27.09271160852207
 21
-20.51041518702633
 31
0.0
  0
LINE
  5
920F
  8
OBJECT
 10
27.06911489366534
 20
-20.65775558859069
 30
0.0
 11
27.09271160852207
 21
-20.63415887373397
 31
0.0
  0
ENDBLK
  5
9211
  8
0
  0
BLOCK
  8
0
  2
*X50
 70
     1
 10
0.0
 20
0.0
 30
0.0
  3
*X50
  1

  0
LINE
  5
9213
  8
OBJECT
 10
26.95160432727794
 20
-17.81681276131713
 30
0.0
 11
27.04766931880379
 21
-17.72074776979127
 31
0.0
  0
LINE
  5
9214
  8
OBJECT
 10
26.95160432727794
 20
-17.94055644802477
 30
0.0
 11
27.09271160852208
 21
-17.79944916678063
 31
0.0
  0
LINE
  5
9215
  8
OBJECT
 10
26.95160432727794
 20
-18.06430013473242
 30
0.0
 11
27.09271160852208
 21
-17.92319285348827
 31
0.0
  0
LINE
  5
9216
  8
OBJECT
 10
26.95160432727794
 20
-18.18804382144006
 30
0.0
 11
27.09271160852208
 21
-18.04693654019592
 31
0.0
  0
LINE
  5
9217
  8
OBJECT
 10
26.95160432727794
 20
-18.3117875081477
 30
0.0
 11
27.09271160852208
 21
-18.17068022690356
 31
0.0
  0
LINE
  5
9218
  8
OBJECT
 10
26.95160432727794
 20
-18.43553119485535
 30
0.0
 11
27.09271160852208
 21
-18.2944239136112
 31
0.0
  0
LINE
  5
9219
  8
OBJECT
 10
26.95160432727794
 20
-18.55927488156299
 30
0.0
 11
27.09271160852208
 21
-18.41816760031885
 31
0.0
  0
LINE
  5
921A
  8
OBJECT
 10
26.95160432727794
 20
-18.68301856827064
 30
0.0
 11
27.09271160852208
 21
-18.54191128702649
 31
0.0
  0
LINE
  5
921B
  8
OBJECT
 10
27.06911489366515
 20
-18.68925168859106
 30
0.0
 11
27.09271160852208
 21
-18.66565497373413
 31
0.0
  0
ENDBLK
  5
921D
  8
0
  0
BLOCK
  8
0
  2
*X51
 70
     1
 10
0.0
 20
0.0
 30
0.0
  3
*X51
  1

  0
LINE
  5
921F
  8
OBJECT
 10
26.95160432727792
 20
-23.73371954863935
 30
0.0
 11
27.0590644061262
 21
-23.62625946979107
 31
0.0
  0
LINE
  5
9220
  8
OBJECT
 10
26.95160432727792
 20
-23.85746323534699
 30
0.0
 11
27.09271160852206
 21
-23.71635595410285
 31
0.0
  0
LINE
  5
9221
  8
OBJECT
 10
26.95160432727792
 20
-23.98120692205464
 30
0.0
 11
27.09271160852206
 21
-23.8400996408105
 31
0.0
  0
LINE
  5
9222
  8
OBJECT
 10
26.95160432727792
 20
-24.10495060876228
 30
0.0
 11
27.09271160852206
 21
-23.96384332751814
 31
0.0
  0
LINE
  5
9223
  8
OBJECT
 10
26.95160432727792
 20
-24.22869429546992
 30
0.0
 11
27.09271160852206
 21
-24.08758701422578
 31
0.0
  0
LINE
  5
9224
  8
OBJECT
 10
26.95160432727792
 20
-24.35243798217757
 30
0.0
 11
27.09271160852206
 21
-24.21133070093343
 31
0.0
  0
LINE
  5
9225
  8
OBJECT
 10
26.95160432727792
 20
-24.47618166888521
 30
0.0
 11
27.09271160852206
 21
-24.33507438764107
 31
0.0
  0
LINE
  5
9226
  8
OBJECT
 10
26.95160432727792
 20
-24.59992535559284
 30
0.0
 11
27.02476764341182
 21
-24.52676203945894
 31
0.0
  0
LINE
  5
9227
  8
OBJECT
 10
27.02476764341182
 20
-24.52676203945894
 30
0.0
 11
27.09271160852206
 21
-24.45881807434871
 31
0.0
  0
LINE
  5
9228
  8
OBJECT
 10
26.95160432727792
 20
-24.72366904230049
 30
0.0
 11
27.09271160852206
 21
-24.58256176105635
 31
0.0
  0
LINE
  5
9229
  8
OBJECT
 10
26.95160432727792
 20
-24.84741272900813
 30
0.0
 11
27.04588272777551
 21
-24.75313432851054
 31
0.0
  0
LINE
  5
922A
  8
OBJECT
 10
27.04588272777551
 20
-24.75313432851054
 30
0.0
 11
27.09271160852206
 21
-24.70630544776399
 31
0.0
  0
LINE
  5
922B
  8
OBJECT
 10
26.95218850713475
 20
-24.97057223585895
 30
0.0
 11
27.09271160852206
 21
-24.83004913447163
 31
0.0
  0
LINE
  5
922C
  8
OBJECT
 10
27.00712603485395
 20
-25.03937839484739
 30
0.0
 11
27.06699781213966
 21
-24.97950661756168
 31
0.0
  0
LINE
  5
922D
  8
OBJECT
 10
27.06699781213966
 20
-24.97950661756168
 30
0.0
 11
27.14671105416968
 21
-24.89979337553165
 31
0.0
  0
LINE
  5
922E
  8
OBJECT
 10
27.12546603380991
 20
-25.04478208259907
 30
0.0
 11
27.1907414988473
 21
-24.97950661756168
 31
0.0
  0
LINE
  5
922F
  8
OBJECT
 10
27.1907414988473
 20
-24.97950661756168
 30
0.0
 11
27.26933332072155
 21
-24.90091479568743
 31
0.0
  0
LINE
  5
9230
  8
OBJECT
 10
27.24722990286998
 20
-25.04676190024665
 30
0.0
 11
27.31448518555494
 21
-24.97950661756168
 31
0.0
  0
LINE
  5
9231
  8
OBJECT
 10
27.31448518555494
 20
-24.97950661756168
 30
0.0
 11
27.36497981163238
 21
-24.92901199148424
 31
0.0
  0
LINE
  5
9232
  8
OBJECT
 10
27.36497981163238
 20
-24.92901199148424
 30
0.0
 11
27.39195558727343
 21
-24.9020362158432
 31
0.0
  0
LINE
  5
9233
  8
OBJECT
 10
27.36899377193003
 20
-25.04874171789423
 30
0.0
 11
27.45791341913661
 21
-24.95982207068765
 31
0.0
  0
LINE
  5
9234
  8
OBJECT
 10
27.49075764099009
 20
-25.05072153554181
 30
0.0
 11
27.58165710584425
 21
-24.95982207068765
 31
0.0
  0
LINE
  5
9235
  8
OBJECT
 10
27.61252151005015
 20
-25.05270135318939
 30
0.0
 11
27.7054007925519
 21
-24.95982207068765
 31
0.0
  0
LINE
  5
9236
  8
OBJECT
 10
27.73428537911022
 20
-25.05468117083698
 30
0.0
 11
27.82914447925954
 21
-24.95982207068765
 31
0.0
  0
LINE
  5
9237
  8
OBJECT
 10
27.85604924817028
 20
-25.05666098848456
 30
0.0
 11
27.95288816596718
 21
-24.95982207068765
 31
0.0
  0
LINE
  5
9238
  8
OBJECT
 10
27.45791341913661
 20
-24.95982207068765
 30
0.0
 11
27.51457785382529
 21
-24.90315763599897
 31
0.0
  0
LINE
  5
9239
  8
OBJECT
 10
27.58165710584425
 20
-24.95982207068765
 30
0.0
 11
27.63720012037717
 21
-24.90427905615473
 31
0.0
  0
LINE
  5
923A
  8
OBJECT
 10
27.7054007925519
 20
-24.95982207068765
 30
0.0
 11
27.75982238692905
 21
-24.9054004763105
 31
0.0
  0
LINE
  5
923B
  8
OBJECT
 10
27.82914447925954
 20
-24.95982207068765
 30
0.0
 11
27.88244465348092
 21
-24.90652189646627
 31
0.0
  0
LINE
  5
923C
  8
OBJECT
 10
27.95288816596718
 20
-24.95982207068765
 30
0.0
 11
28.0050669200328
 21
-24.90764331662204
 31
0.0
  0
LINE
  5
923D
  8
OBJECT
 10
27.97781311723034
 20
-25.05864080613214
 30
0.0
 11
28.06678957923759
 21
-24.96966434412489
 31
0.0
  0
LINE
  5
923E
  8
OBJECT
 10
28.0995769862904
 20
-25.06062062377972
 30
0.0
 11
28.19053326594523
 21
-24.96966434412489
 31
0.0
  0
LINE
  5
923F
  8
OBJECT
 10
28.06678957923759
 20
-24.96966434412489
 30
0.0
 11
28.12768918658467
 21
-24.90876473677781
 31
0.0
  0
LINE
  5
9240
  8
OBJECT
 10
28.19053326594523
 20
-24.96966434412489
 30
0.0
 11
28.25031145313654
 21
-24.90988615693358
 31
0.0
  0
LINE
  5
9241
  8
OBJECT
 10
28.18412025582624
 20
-25.09982104095153
 30
0.0
 11
28.23559043597214
 21
-25.04835086080562
 31
0.0
  0
LINE
  5
9242
  8
OBJECT
 10
28.33396454328309
 20
-24.94997675349467
 30
0.0
 11
28.37333059327496
 21
-24.9106107035028
 31
0.0
  0
LINE
  5
9243
  8
OBJECT
 10
28.30173249066296
 20
-25.10595249282245
 30
0.0
 11
28.32953737223878
 21
-25.07814761124663
 31
0.0
  0
ENDBLK
  5
9245
  8
0
  0
BLOCK
  8
0
  2
*X52
 70
     1
 10
0.0
 20
0.0
 30
0.0
  3
*X52
  1

  0
LINE
  5
9247
  8
OBJECT
 10
28.30173249066456
 20
-15.26633208394834
 30
0.0
 11
28.32953737223878
 21
-15.29413696552256
 31
0.0
  0
LINE
  5
9248
  8
OBJECT
 10
28.18412025582783
 20
-15.27246353581926
 30
0.0
 11
28.23559043597382
 21
-15.32393371596524
 31
0.0
  0
LINE
  5
9249
  8
OBJECT
 10
28.33396454328477
 20
-15.4223078232762
 30
0.0
 11
28.37333059327664
 21
-15.46167387326807
 31
0.0
  0
LINE
  5
924A
  8
OBJECT
 10
28.09957698629204
 20
-15.31166395299112
 30
0.0
 11
28.1905332659469
 21
-15.40262023264598
 31
0.0
  0
LINE
  5
924B
  8
OBJECT
 10
27.97781311723197
 20
-15.3136437706387
 30
0.0
 11
28.06678957923925
 21
-15.40262023264598
 31
0.0
  0
LINE
  5
924C
  8
OBJECT
 10
28.1905332659469
 20
-15.40262023264598
 30
0.0
 11
28.25031145313821
 21
-15.46239841983729
 31
0.0
  0
LINE
  5
924D
  8
OBJECT
 10
28.06678957923925
 20
-15.40262023264598
 30
0.0
 11
28.12768918658632
 21
-15.46351983999305
 31
0.0
  0
LINE
  5
924E
  8
OBJECT
 10
27.85604924817191
 20
-15.31562358828629
 30
0.0
 11
27.95288816596884
 21
-15.41246250608322
 31
0.0
  0
LINE
  5
924F
  8
OBJECT
 10
27.73428537911184
 20
-15.31760340593387
 30
0.0
 11
27.82914447926119
 21
-15.41246250608322
 31
0.0
  0
LINE
  5
9250
  8
OBJECT
 10
27.61252151005177
 20
-15.31958322358145
 30
0.0
 11
27.70540079255354
 21
-15.41246250608322
 31
0.0
  0
LINE
  5
9251
  8
OBJECT
 10
27.4907576409917
 20
-15.32156304122903
 30
0.0
 11
27.5816571058459
 21
-15.41246250608322
 31
0.0
  0
LINE
  5
9252
  8
OBJECT
 10
27.36899377193164
 20
-15.32354285887661
 30
0.0
 11
27.45791341913825
 21
-15.41246250608322
 31
0.0
  0
LINE
  5
9253
  8
OBJECT
 10
27.95288816596884
 20
-15.41246250608322
 30
0.0
 11
28.00506692003444
 21
-15.46464126014882
 31
0.0
  0
LINE
  5
9254
  8
OBJECT
 10
27.82914447926119
 20
-15.41246250608322
 30
0.0
 11
27.88244465348256
 21
-15.46576268030459
 31
0.0
  0
LINE
  5
9255
  8
OBJECT
 10
27.70540079255354
 20
-15.41246250608322
 30
0.0
 11
27.75982238693068
 21
-15.46688410046036
 31
0.0
  0
LINE
  5
9256
  8
OBJECT
 10
27.5816571058459
 20
-15.41246250608322
 30
0.0
 11
27.6372001203788
 21
-15.46800552061613
 31
0.0
  0
LINE
  5
9257
  8
OBJECT
 10
27.45791341913825
 20
-15.41246250608322
 30
0.0
 11
27.51457785382692
 21
-15.4691269407719
 31
0.0
  0
LINE
  5
9258
  8
OBJECT
 10
27.24722990287157
 20
-15.3255226765242
 30
0.0
 11
27.31448518555656
 21
-15.39277795920919
 31
0.0
  0
LINE
  5
9259
  8
OBJECT
 10
27.31448518555656
 20
-15.39277795920919
 30
0.0
 11
27.36497981163238
 21
-15.44327258528501
 31
0.0
  0
LINE
  5
925A
  8
OBJECT
 10
27.36497981163238
 20
-15.44327258528501
 30
0.0
 11
27.39195558727504
 21
-15.47024836092767
 31
0.0
  0
LINE
  5
925B
  8
OBJECT
 10
27.1254660338115
 20
-15.32750249417178
 30
0.0
 11
27.19074149884892
 21
-15.39277795920919
 31
0.0
  0
LINE
  5
925C
  8
OBJECT
 10
27.19074149884892
 20
-15.39277795920919
 30
0.0
 11
27.26933332072316
 21
-15.47136978108344
 31
0.0
  0
LINE
  5
925D
  8
OBJECT
 10
27.00712603485515
 20
-15.33290618192308
 30
0.0
 11
27.06699781214126
 21
-15.39277795920919
 31
0.0
  0
LINE
  5
925E
  8
OBJECT
 10
27.06699781214126
 20
-15.39277795920919
 30
0.0
 11
27.14671105417127
 21
-15.4724912012392
 31
0.0
  0
LINE
  5
925F
  8
OBJECT
 10
26.95218850713489
 20
-15.40171234091047
 30
0.0
 11
27.09271160852206
 21
-15.54223544229764
 31
0.0
  0
LINE
  5
9260
  8
OBJECT
 10
26.95160432727792
 20
-15.52487184776115
 30
0.0
 11
27.04588272777711
 21
-15.61915024826033
 31
0.0
  0
LINE
  5
9261
  8
OBJECT
 10
27.04588272777711
 20
-15.61915024826033
 30
0.0
 11
27.09271160852206
 21
-15.66597912900529
 31
0.0
  0
LINE
  5
9262
  8
OBJECT
 10
26.95160432727792
 20
-15.6486155344688
 30
0.0
 11
27.09271160852206
 21
-15.78972281571294
 31
0.0
  0
LINE
  5
9263
  8
OBJECT
 10
26.95160432727792
 20
-15.77235922117645
 30
0.0
 11
27.0247676434134
 21
-15.84552253731193
 31
0.0
  0
LINE
  5
9264
  8
OBJECT
 10
27.0247676434134
 20
-15.84552253731193
 30
0.0
 11
27.09271160852206
 21
-15.91346650242059
 31
0.0
  0
LINE
  5
9265
  8
OBJECT
 10
26.95160432727792
 20
-15.8961029078841
 30
0.0
 11
27.09271160852206
 21
-16.03721018912824
 31
0.0
  0
LINE
  5
9266
  8
OBJECT
 10
26.95160432727792
 20
-16.01984659459175
 30
0.0
 11
27.09271160852206
 21
-16.16095387583589
 31
0.0
  0
LINE
  5
9267
  8
OBJECT
 10
26.95160432727792
 20
-16.1435902812994
 30
0.0
 11
27.09271160852206
 21
-16.28469756254354
 31
0.0
  0
LINE
  5
9268
  8
OBJECT
 10
26.95160432727792
 20
-16.26733396800705
 30
0.0
 11
27.09271160852206
 21
-16.40844124925119
 31
0.0
  0
LINE
  5
9269
  8
OBJECT
 10
26.95160432727792
 20
-16.3910776547147
 30
0.0
 11
27.09271160852206
 21
-16.53218493595884
 31
0.0
  0
LINE
  5
926A
  8
OBJECT
 10
26.95160432727792
 20
-16.51482134142235
 30
0.0
 11
27.09271160852206
 21
-16.65592862266649
 31
0.0
  0
LINE
  5
926B
  8
OBJECT
 10
26.95160432727792
 20
-16.63856502813
 30
0.0
 11
27.05906440612772
 21
-16.7460251069798
 31
0.0
  0
ENDBLK
  5
926D
  8
0
  0
BLOCK
  8
0
  2
*X53
 70
     1
 10
0.0
 20
0.0
 30
0.0
  3
*X53
  1

  0
LINE
  5
926F
  8
OBJECT
 10
30.16193103823884
 20
-15.69738905608036
 30
0.0
 11
30.24016984605889
 21
-15.61915024826031
 31
0.0
  0
LINE
  5
9270
  8
OBJECT
 10
29.84693103823884
 20
-16.13613274278801
 30
0.0
 11
29.93077968264117
 21
-16.05228409838567
 31
0.0
  0
LINE
  5
9271
  8
OBJECT
 10
30.16193103823884
 20
-15.82113274278801
 30
0.0
 11
30.27935054064145
 21
-15.7037132403854
 31
0.0
  0
LINE
  5
9272
  8
OBJECT
 10
30.27935054064145
 20
-15.7037132403854
 30
0.0
 11
30.29804127223887
 21
-15.68502250878798
 31
0.0
  0
LINE
  5
9273
  8
OBJECT
 10
29.92267297934878
 20
-16.18413448838571
 30
0.0
 11
30.05452336934892
 21
-16.05228409838557
 31
0.0
  0
LINE
  5
9274
  8
OBJECT
 10
30.16193103823884
 20
-15.94487642949565
 30
0.0
 11
30.29804127223887
 21
-15.80876619549562
 31
0.0
  0
LINE
  5
9275
  8
OBJECT
 10
29.84693103823886
 20
-16.38362011620328
 30
0.0
 11
29.91641666605643
 21
-16.3141344883857
 31
0.0
  0
LINE
  5
9276
  8
OBJECT
 10
30.04641666605643
 20
-16.18413448838571
 30
0.0
 11
30.29804127223887
 21
-15.93250988220326
 31
0.0
  0
LINE
  5
9277
  8
OBJECT
 10
29.90830996276428
 20
-16.4459848783855
 30
0.0
 11
30.04016035276407
 21
-16.3141344883857
 31
0.0
  0
LINE
  5
9278
  8
OBJECT
 10
30.06593103823885
 20
-16.28836380291092
 30
0.0
 11
30.10516035276406
 21
-16.24913448838571
 31
0.0
  0
LINE
  5
9279
  8
OBJECT
 10
30.10516035276406
 20
-16.24913448838571
 30
0.0
 11
30.29804127223887
 21
-16.05625356891091
 31
0.0
  0
LINE
  5
927A
  8
OBJECT
 10
30.03205364947191
 20
-16.4459848783855
 30
0.0
 11
30.2289040394717
 21
-16.24913448838571
 31
0.0
  0
LINE
  5
927B
  8
OBJECT
 10
30.2289040394717
 20
-16.24913448838571
 30
0.0
 11
30.29804127223887
 21
-16.17999725561854
 31
0.0
  0
LINE
  5
927C
  8
OBJECT
 10
30.15579733617955
 20
-16.4459848783855
 30
0.0
 11
30.29804127223887
 21
-16.30374094232618
 31
0.0
  0
LINE
  5
927D
  8
OBJECT
 10
30.16193103823884
 20
-16.56359486303386
 30
0.0
 11
30.29804127223887
 21
-16.42748462903383
 31
0.0
  0
LINE
  5
927E
  8
OBJECT
 10
30.16193103823884
 20
-16.6873385497415
 30
0.0
 11
30.29804127223887
 21
-16.55122831574147
 31
0.0
  0
LINE
  5
927F
  8
OBJECT
 10
30.16193103823884
 20
-16.81108223644914
 30
0.0
 11
30.29804127223887
 21
-16.67497200244912
 31
0.0
  0
LINE
  5
9280
  8
OBJECT
 10
30.16193103823884
 20
-16.93482592315679
 30
0.0
 11
30.29804127223887
 21
-16.79871568915676
 31
0.0
  0
LINE
  5
9281
  8
OBJECT
 10
30.16193103823884
 20
-17.05856960986443
 30
0.0
 11
30.29804127223887
 21
-16.9224593758644
 31
0.0
  0
LINE
  5
9282
  8
OBJECT
 10
30.16193103823884
 20
-17.18231329657207
 30
0.0
 11
30.29804127223887
 21
-17.04620306257205
 31
0.0
  0
LINE
  5
9283
  8
OBJECT
 10
30.16193103823884
 20
-17.30605698327972
 30
0.0
 11
30.29804127223887
 21
-17.16994674927969
 31
0.0
  0
LINE
  5
9284
  8
OBJECT
 10
30.16193103823884
 20
-17.42980066998736
 30
0.0
 11
30.29804127223887
 21
-17.29369043598733
 31
0.0
  0
LINE
  5
9285
  8
OBJECT
 10
30.16193103823884
 20
-17.553544356695
 30
0.0
 11
30.29804127223887
 21
-17.41743412269498
 31
0.0
  0
LINE
  5
9286
  8
OBJECT
 10
30.16193103823884
 20
-17.67728804340265
 30
0.0
 11
30.29804127223887
 21
-17.54117780940262
 31
0.0
  0
LINE
  5
9287
  8
OBJECT
 10
30.16193103823884
 20
-17.80103173011029
 30
0.0
 11
30.29804127223887
 21
-17.66492149611026
 31
0.0
  0
LINE
  5
9288
  8
OBJECT
 10
30.16193103823884
 20
-17.92477541681793
 30
0.0
 11
30.29804127223887
 21
-17.78866518281791
 31
0.0
  0
LINE
  5
9289
  8
OBJECT
 10
30.16193103823884
 20
-18.04851910352558
 30
0.0
 11
30.29804127223887
 21
-17.91240886952555
 31
0.0
  0
LINE
  5
928A
  8
OBJECT
 10
30.16193103823884
 20
-18.17226279023322
 30
0.0
 11
30.29804127223887
 21
-18.03615255623319
 31
0.0
  0
LINE
  5
928B
  8
OBJECT
 10
30.16193103823884
 20
-18.29600647694087
 30
0.0
 11
30.29804127223887
 21
-18.15989624294084
 31
0.0
  0
LINE
  5
928C
  8
OBJECT
 10
30.16193103823884
 20
-18.41975016364851
 30
0.0
 11
30.29804127223887
 21
-18.28363992964848
 31
0.0
  0
LINE
  5
928D
  8
OBJECT
 10
30.16193103823884
 20
-18.54349385035615
 30
0.0
 11
30.29804127223887
 21
-18.40738361635612
 31
0.0
  0
LINE
  5
928E
  8
OBJECT
 10
30.16193103823884
 20
-18.6672375370638
 30
0.0
 11
30.29804127223887
 21
-18.53112730306377
 31
0.0
  0
LINE
  5
928F
  8
OBJECT
 10
30.16193103823884
 20
-18.79098122377144
 30
0.0
 11
30.29804127223887
 21
-18.65487098977141
 31
0.0
  0
LINE
  5
9290
  8
OBJECT
 10
30.16193103823884
 20
-18.91472491047908
 30
0.0
 11
30.29804127223887
 21
-18.77861467647906
 31
0.0
  0
LINE
  5
9291
  8
OBJECT
 10
30.16193103823884
 20
-19.03846859718673
 30
0.0
 11
30.29804127223887
 21
-18.9023583631867
 31
0.0
  0
LINE
  5
9292
  8
OBJECT
 10
30.16193103823884
 20
-19.16221228389437
 30
0.0
 11
30.29804127223887
 21
-19.02610204989434
 31
0.0
  0
LINE
  5
9293
  8
OBJECT
 10
30.16193103823884
 20
-19.28595597060201
 30
0.0
 11
30.29804127223887
 21
-19.14984573660199
 31
0.0
  0
LINE
  5
9294
  8
OBJECT
 10
30.16193103823884
 20
-19.40969965730966
 30
0.0
 11
30.29804127223887
 21
-19.27358942330963
 31
0.0
  0
LINE
  5
9295
  8
OBJECT
 10
30.16193103823884
 20
-19.5334433440173
 30
0.0
 11
30.29804127223887
 21
-19.39733311001728
 31
0.0
  0
LINE
  5
9296
  8
OBJECT
 10
30.16193103823884
 20
-19.65718703072494
 30
0.0
 11
30.29804127223887
 21
-19.52107679672492
 31
0.0
  0
LINE
  5
9297
  8
OBJECT
 10
30.16193103823884
 20
-19.78093071743259
 30
0.0
 11
30.29804127223887
 21
-19.64482048343256
 31
0.0
  0
LINE
  5
9298
  8
OBJECT
 10
30.16193103823884
 20
-19.90467440414023
 30
0.0
 11
30.29804127223887
 21
-19.76856417014021
 31
0.0
  0
LINE
  5
9299
  8
OBJECT
 10
30.16193103823884
 20
-20.02841809084788
 30
0.0
 11
30.29804127223887
 21
-19.89230785684785
 31
0.0
  0
LINE
  5
929A
  8
OBJECT
 10
30.16193103823884
 20
-20.15216177755552
 30
0.0
 11
30.29804127223887
 21
-20.01605154355549
 31
0.0
  0
LINE
  5
929B
  8
OBJECT
 10
30.16193103823884
 20
-20.27590546426314
 30
0.0
 11
30.25169421411655
 21
-20.18614228838543
 31
0.0
  0
LINE
  5
929C
  8
OBJECT
 10
30.25169421411655
 20
-20.18614228838543
 30
0.0
 11
30.29804127223887
 21
-20.13979523026312
 31
0.0
  0
LINE
  5
929D
  8
OBJECT
 10
30.16193103823884
 20
-20.39964915097079
 30
0.0
 11
30.29804127223887
 21
-20.26353891697076
 31
0.0
  0
LINE
  5
929E
  8
OBJECT
 10
30.16193103823884
 20
-20.52339283767843
 30
0.0
 11
30.29804127223887
 21
-20.3872826036784
 31
0.0
  0
LINE
  5
929F
  8
OBJECT
 10
30.16193103823884
 20
-20.64713652438607
 30
0.0
 11
30.29804127223887
 21
-20.51102629038605
 31
0.0
  0
LINE
  5
92A0
  8
OBJECT
 10
30.16193103823884
 20
-20.77088021109372
 30
0.0
 11
30.29804127223887
 21
-20.63476997709369
 31
0.0
  0
LINE
  5
92A1
  8
OBJECT
 10
30.16193103823884
 20
-20.89462389780136
 30
0.0
 11
30.29804127223887
 21
-20.75851366380134
 31
0.0
  0
LINE
  5
92A2
  8
OBJECT
 10
30.16193103823884
 20
-21.01836758450901
 30
0.0
 11
30.29804127223887
 21
-20.88225735050898
 31
0.0
  0
LINE
  5
92A3
  8
OBJECT
 10
30.16193103823884
 20
-21.14211127121665
 30
0.0
 11
30.29804127223887
 21
-21.00600103721662
 31
0.0
  0
LINE
  5
92A4
  8
OBJECT
 10
30.16193103823884
 20
-21.26585495792429
 30
0.0
 11
30.29804127223887
 21
-21.12974472392427
 31
0.0
  0
LINE
  5
92A5
  8
OBJECT
 10
30.16193103823884
 20
-21.38959864463194
 30
0.0
 11
30.29804127223887
 21
-21.25348841063191
 31
0.0
  0
LINE
  5
92A6
  8
OBJECT
 10
30.16193103823884
 20
-21.51334233133958
 30
0.0
 11
30.29804127223887
 21
-21.37723209733955
 31
0.0
  0
LINE
  5
92A7
  8
OBJECT
 10
30.16193103823884
 20
-21.63708601804722
 30
0.0
 11
30.29804127223887
 21
-21.5009757840472
 31
0.0
  0
LINE
  5
92A8
  8
OBJECT
 10
30.16193103823884
 20
-21.76082970475487
 30
0.0
 11
30.29804127223887
 21
-21.62471947075484
 31
0.0
  0
LINE
  5
92A9
  8
OBJECT
 10
30.16193103823884
 20
-21.88457339146251
 30
0.0
 11
30.29804127223887
 21
-21.74846315746248
 31
0.0
  0
LINE
  5
92AA
  8
OBJECT
 10
30.16193103823884
 20
-22.00831707817016
 30
0.0
 11
30.29804127223887
 21
-21.87220684417013
 31
0.0
  0
LINE
  5
92AB
  8
OBJECT
 10
30.16193103823884
 20
-22.1320607648778
 30
0.0
 11
30.29804127223887
 21
-21.99595053087777
 31
0.0
  0
LINE
  5
92AC
  8
OBJECT
 10
30.16193103823884
 20
-22.25580445158544
 30
0.0
 11
30.29804127223887
 21
-22.11969421758542
 31
0.0
  0
LINE
  5
92AD
  8
OBJECT
 10
30.16193103823884
 20
-22.37954813829309
 30
0.0
 11
30.29804127223887
 21
-22.24343790429306
 31
0.0
  0
LINE
  5
92AE
  8
OBJECT
 10
30.16193103823884
 20
-22.50329182500073
 30
0.0
 11
30.29804127223887
 21
-22.3671815910007
 31
0.0
  0
LINE
  5
92AF
  8
OBJECT
 10
30.16193103823884
 20
-22.62703551170838
 30
0.0
 11
30.29804127223887
 21
-22.49092527770835
 31
0.0
  0
LINE
  5
92B0
  8
OBJECT
 10
30.16193103823884
 20
-22.75077919841602
 30
0.0
 11
30.29804127223887
 21
-22.61466896441599
 31
0.0
  0
LINE
  5
92B1
  8
OBJECT
 10
30.16193103823884
 20
-22.87452288512366
 30
0.0
 11
30.29804127223887
 21
-22.73841265112364
 31
0.0
  0
LINE
  5
92B2
  8
OBJECT
 10
30.16193103823884
 20
-22.99826657183131
 30
0.0
 11
30.29804127223887
 21
-22.86215633783128
 31
0.0
  0
LINE
  5
92B3
  8
OBJECT
 10
30.16193103823884
 20
-23.12201025853895
 30
0.0
 11
30.29804127223887
 21
-22.98590002453892
 31
0.0
  0
LINE
  5
92B4
  8
OBJECT
 10
30.16193103823884
 20
-23.24575394524659
 30
0.0
 11
30.29804127223887
 21
-23.10964371124657
 31
0.0
  0
LINE
  5
92B5
  8
OBJECT
 10
30.16193103823884
 20
-23.36949763195424
 30
0.0
 11
30.29804127223887
 21
-23.23338739795421
 31
0.0
  0
LINE
  5
92B6
  8
OBJECT
 10
30.16193103823884
 20
-23.49324131866188
 30
0.0
 11
30.29804127223887
 21
-23.35713108466185
 31
0.0
  0
LINE
  5
92B7
  8
OBJECT
 10
30.16193103823884
 20
-23.61698500536953
 30
0.0
 11
30.29804127223887
 21
-23.4808747713695
 31
0.0
  0
LINE
  5
92B8
  8
OBJECT
 10
29.84693103823884
 20
-24.05572869207714
 30
0.0
 11
29.97636003193075
 21
-23.92629969838523
 31
0.0
  0
LINE
  5
92B9
  8
OBJECT
 10
30.16193103823884
 20
-23.74072869207714
 30
0.0
 11
30.29804127223887
 21
-23.60461845807711
 31
0.0
  0
LINE
  5
92BA
  8
OBJECT
 10
29.96825332863847
 20
-24.05815008838515
 30
0.0
 11
30.10010371863831
 21
-23.92629969838532
 31
0.0
  0
LINE
  5
92BB
  8
OBJECT
 10
30.16193103823884
 20
-23.86447237878479
 30
0.0
 11
30.29804127223887
 21
-23.72836214478475
 31
0.0
  0
LINE
  5
92BC
  8
OBJECT
 10
29.84716439414409
 20
-24.30298270958718
 30
0.0
 11
29.96199701534612
 21
-24.18815008838515
 31
0.0
  0
LINE
  5
92BD
  8
OBJECT
 10
30.06593103823884
 20
-24.08421606549243
 30
0.0
 11
30.29804127223887
 21
-23.8521058314924
 31
0.0
  0
LINE
  5
92BE
  8
OBJECT
 10
29.95389031205353
 20
-24.32000047838538
 30
0.0
 11
30.15074070205376
 21
-24.12315008838515
 31
0.0
  0
LINE
  5
92BF
  8
OBJECT
 10
30.07763399876117
 20
-24.32000047838538
 30
0.0
 11
30.2744843887614
 21
-24.12315008838515
 31
0.0
  0
LINE
  5
92C0
  8
OBJECT
 10
30.15074070205376
 20
-24.12315008838515
 30
0.0
 11
30.29804127223887
 21
-23.97584951820004
 31
0.0
  0
LINE
  5
92C1
  8
OBJECT
 10
30.2744843887614
 20
-24.12315008838515
 30
0.0
 11
30.29804127223887
 21
-24.09959320490769
 31
0.0
  0
LINE
  5
92C2
  8
OBJECT
 10
30.16193103823884
 20
-24.35944712561535
 30
0.0
 11
30.29804127223887
 21
-24.22333689161533
 31
0.0
  0
LINE
  5
92C3
  8
OBJECT
 10
30.16193103823884
 20
-24.483190812323
 30
0.0
 11
30.29804127223887
 21
-24.34708057832297
 31
0.0
  0
LINE
  5
92C4
  8
OBJECT
 10
30.16193103823884
 20
-24.60693449903064
 30
0.0
 11
30.29804127223887
 21
-24.47082426503061
 31
0.0
  0
LINE
  5
92C5
  8
OBJECT
 10
30.16193103823884
 20
-24.73067818573829
 30
0.0
 11
30.22403788759168
 21
-24.66857133638545
 31
0.0
  0
LINE
  5
92C6
  8
OBJECT
 10
30.22403788759168
 20
-24.66857133638545
 30
0.0
 11
30.29804127223887
 21
-24.59456795173826
 31
0.0
  0
LINE
  5
92C7
  8
OBJECT
 10
30.26321858217423
 20
-24.75313432851054
 30
0.0
 11
30.29804127223887
 21
-24.7183116384459
 31
0.0
  0
ENDBLK
  5
92C9
  8
0
  0
ENDSEC
  0
SECTION
  2
ENTITIES
  0
INSERT
  5
49E5
  8
_2D_DELETED_OBJS
  2
*X22
 10
0.0
 20
0.0
 30
0.0
1001
ACAD
1000
HATCH
1002
{
1070
    19
1000
_USER
1040
1.0
1040
0.7853981633974483
1000
ASC_BOUNDS
1070
     0
1000
ASC_SEEDPOINT
1011
0.0
1021
0.0
1031
0.0
1021
0.0
1031
0.0
1000
R14_HATCH_DATA
1000
49E5
1011
1.0
1021
0.0
1031
0.0
1021
0.0
1031
0.0
1011
0.0
1021
1.0
1031
0.0
1021
1.0
1031
0.0
1011
0.0
1021
0.0
1031
1.0
1021
0.0
1031
1.0
1040
0.0
1010
0.0
1020
0.0
1030
1.0
1020
0.0
1030
1.0
1000
_USER
1070
     0
1070
     1
1071
        0
1070
     0
1070
     0
1040
0.7853981633974483
1040
1.0
1070
     0
1070
     1
1040
0.7853981633974483
1040
0.0
1040
0.0
1040
-0.7071067811865475
1040
0.7071067811865476
1070
     0
1071
        1
1040
0.0
1040
0.0
1040
0.0
1002
}
  0
INSERT
  5
49E6
  8
_2D_DELETED_OBJS
  2
*X23
 10
0.0
 20
0.0
 30
0.0
1001
ACAD
1000
HATCH
1002
{
1070
    19
1000
_USER
1040
1.0
1040
0.7853981633974483
1000
ASC_BOUNDS
1070
     0
1000
ASC_SEEDPOINT
1011
0.0
1021
0.0
1031
0.0
1021
0.0
1031
0.0
1000
R14_HATCH_DATA
1000
49E6
1011
1.0
1021
0.0
1031
0.0
1021
0.0
1031
0.0
1011
0.0
1021
1.0
1031
0.0
1021
1.0
1031
0.0
1011
0.0
1021
0.0
1031
1.0
1021
0.0
1031
1.0
1040
0.0
1010
0.0
1020
0.0
1030
1.0
1020
0.0
1030
1.0
1000
_USER
1070
     0
1070
     1
1071
        0
1070
     0
1070
     0
1040
0.7853981633974483
1040
1.0
1070
     1
1070
     2
1040
0.7853981633974483
1040
0.0
1040
0.0
1040
-0.7071067811865475
1040
0.7071067811865476
1070
     0
1040
2.356194490192345
1040
0.0
1040
0.0
1040
-0.7071067811865476
1040
-0.7071067811865475
1070
     0
1071
        1
1040
0.0
1040
0.0
1040
0.0
1002
}
  0
INSERT
  5
49E7
  8
_2D_DELETED_OBJS
  2
*X24
 10
0.0
 20
0.0
 30
0.0
1001
ACAD
1000
HATCH
1002
{
1070
    19
1000
_USER
1040
1.0
1040
0.7853981633974483
1000
ASC_BOUNDS
1070
     0
1000
ASC_SEEDPOINT
1011
0.0
1021
0.0
1031
0.0
1021
0.0
1031
0.0
1000
R14_HATCH_DATA
1000
49E7
1011
1.0
1021
0.0
1031
0.0
1021
0.0
1031
0.0
1011
0.0
1021
1.0
1031
0.0
1021
1.0
1031
0.0
1011
0.0
1021
0.0
1031
1.0
1021
0.0
1031
1.0
1040
0.0
1010
0.0
1020
0.0
1030
1.0
1020
0.0
1030
1.0
1000
_USER
1070
     0
1070
     1
1071
        0
1070
     0
1070
     0
1040
0.7853981633974483
1040
1.0
1070
     1
1070
     2
1040
0.7853981633974483
1040
0.0
1040
0.0
1040
-0.7071067811865475
1040
0.7071067811865476
1070
     0
1040
2.356194490192345
1040
0.0
1040
0.0
1040
-0.7071067811865476
1040
-0.7071067811865475
1070
     0
1071
        1
1040
0.0
1040
0.0
1040
0.0
1002
}
  0
INSERT
  5
49E8
  8
_2D_DELETED_OBJS
  2
*X25
 10
0.0
 20
0.0
 30
0.0
1001
ACAD
1000
HATCH
1002
{
1070
    19
1000
_USER
1040
1.0
1040
0.7853981633974483
1000
ASC_BOUNDS
1070
     0
1000
ASC_SEEDPOINT
1011
0.0
1021
0.0
1031
0.0
1021
0.0
1031
0.0
1000
R14_HATCH_DATA
1000
49E8
1011
1.0
1021
0.0
1031
0.0
1021
0.0
1031
0.0
1011
0.0
1021
1.0
1031
0.0
1021
1.0
1031
0.0
1011
0.0
1021
0.0
1031
1.0
1021
0.0
1031
1.0
1040
0.0
1010
0.0
1020
0.0
1030
1.0
1020
0.0
1030
1.0
1000
_USER
1070
     0
1070
     1
1071
        0
1070
     0
1070
     0
1040
0.7853981633974483
1040
1.0
1070
     1
1070
     2
1040
0.7853981633974483
1040
0.0
1040
0.0
1040
-0.7071067811865475
1040
0.7071067811865476
1070
     0
1040
2.356194490192345
1040
0.0
1040
0.0
1040
-0.7071067811865476
1040
-0.7071067811865475
1070
     0
1071
        1
1040
0.0
1040
0.0
1040
0.0
1002
}
  0
INSERT
  5
49E9
  8
_2D_DELETED_OBJS
  2
*X26
 10
0.0
 20
0.0
 30
0.0
1001
ACAD
1000
HATCH
1002
{
1070
    19
1000
_USER
1040
1.0
1040
0.7853981633974483
1000
ASC_BOUNDS
1070
     0
1000
ASC_SEEDPOINT
1011
0.0
1021
0.0
1031
0.0
1021
0.0
1031
0.0
1000
R14_HATCH_DATA
1000
49E9
1011
1.0
1021
0.0
1031
0.0
1021
0.0
1031
0.0
1011
0.0
1021
1.0
1031
0.0
1021
1.0
1031
0.0
1011
0.0
1021
0.0
1031
1.0
1021
0.0
1031
1.0
1040
0.0
1010
0.0
1020
0.0
1030
1.0
1020
0.0
1030
1.0
1000
_USER
1070
     0
1070
     1
1071
        0
1070
     0
1070
     0
1040
0.7853981633974483
1040
1.0
1070
     1
1070
     2
1040
0.7853981633974483
1040
0.0
1040
0.0
1040
-0.7071067811865475
1040
0.7071067811865476
1070
     0
1040
2.356194490192345
1040
0.0
1040
0.0
1040
-0.7071067811865476
1040
-0.7071067811865475
1070
     0
1071
        1
1040
0.0
1040
0.0
1040
0.0
1002
}
  0
INSERT
  5
70B5
  8
OBJECT
  2
*X27
 10
0.0
 20
0.0
 30
0.0
1001
ACAD
1000
HATCH
1002
{
1070
    19
1000
ANSI31
1040
0.7
1040
0.0
1000
ASC_BOUNDS
1070
     0
1000
ASC_SEEDPOINT
1011
0.0
1021
0.0
1031
0.0
1021
0.0
1031
0.0
1000
R14_HATCH_DATA
1000
70B5
1011
1.0
1021
0.0
1031
0.0
1021
0.0
1031
0.0
1011
0.0
1021
1.0
1031
0.0
1021
1.0
1031
0.0
1011
0.0
1021
0.0
1031
1.0
1021
0.0
1031
1.0
1040
0.0
1010
0.0
1020
0.0
1030
1.0
1020
0.0
1030
1.0
1000
ANSI31
1070
     0
1070
     1
1071
        0
1070
     0
1070
     1
1040
0.0
1040
0.7
1070
     0
1070
     1
1040
0.7853981633974483
1040
0.0
1040
0.0
1040
-0.0618718433538229
1040
0.0618718433538229
1070
     0
1071
        1
1040
0.0
1040
0.0
1040
0.0
1002
}
  0
INSERT
  5
70B6
  8
OBJECT
  2
*X28
 10
0.0
 20
0.0
 30
0.0
1001
ACAD
1000
HATCH
1002
{
1070
    19
1000
ANSI31
1040
0.7
1040
0.0
1000
ASC_BOUNDS
1070
     0
1000
ASC_SEEDPOINT
1011
0.0
1021
0.0
1031
0.0
1021
0.0
1031
0.0
1000
R14_HATCH_DATA
1000
70B6
1011
1.0
1021
0.0
1031
0.0
1021
0.0
1031
0.0
1011
0.0
1021
1.0
1031
0.0
1021
1.0
1031
0.0
1011
0.0
1021
0.0
1031
1.0
1021
0.0
1031
1.0
1040
0.0
1010
0.0
1020
0.0
1030
1.0
1020
0.0
1030
1.0
1000
ANSI31
1070
     0
1070
     1
1071
        0
1070
     0
1070
     1
1040
0.0
1040
0.7
1070
     0
1070
     1
1040
0.7853981633974483
1040
0.0
1040
0.0
1040
-0.0618718433538229
1040
0.0618718433538229
1070
     0
1071
        1
1040
0.0
1040
0.0
1040
0.0
1002
}
  0
INSERT
  5
70C3
  8
OBJECT
  2
*X29
 10
0.0
 20
0.0
 30
0.0
1001
ACAD
1000
HATCH
1002
{
1070
    19
1000
ANSI31
1040
0.7
1040
0.0
1000
ASC_BOUNDS
1070
     0
1000
ASC_SEEDPOINT
1011
0.0
1021
0.0
1031
0.0
1021
0.0
1031
0.0
1000
R14_HATCH_DATA
1000
70C3
1011
1.0
1021
0.0
1031
0.0
1021
0.0
1031
0.0
1011
0.0
1021
1.0
1031
0.0
1021
1.0
1031
0.0
1011
0.0
1021
0.0
1031
1.0
1021
0.0
1031
1.0
1040
0.0
1010
0.0
1020
0.0
1030
1.0
1020
0.0
1030
1.0
1000
ANSI31
1070
     0
1070
     1
1071
        0
1070
     0
1070
     1
1040
0.0
1040
0.7
1070
     0
1070
     1
1040
0.7853981633974483
1040
0.0
1040
0.0
1040
-0.0618718433538229
1040
0.0618718433538229
1070
     0
1071
        1
1040
0.0
1040
0.0
1040
0.0
1002
}
  0
INSERT
  5
70C4
  8
OBJECT
  2
*X30
 10
0.0
 20
0.0
 30
0.0
1001
ACAD
1000
HATCH
1002
{
1070
    19
1000
ANSI31
1040
0.7
1040
0.0
1000
ASC_BOUNDS
1070
     0
1000
ASC_SEEDPOINT
1011
0.0
1021
0.0
1031
0.0
1021
0.0
1031
0.0
1000
R14_HATCH_DATA
1000
70C4
1011
1.0
1021
0.0
1031
0.0
1021
0.0
1031
0.0
1011
0.0
1021
1.0
1031
0.0
1021
1.0
1031
0.0
1011
0.0
1021
0.0
1031
1.0
1021
0.0
1031
1.0
1040
0.0
1010
0.0
1020
0.0
1030
1.0
1020
0.0
1030
1.0
1000
ANSI31
1070
     0
1070
     1
1071
        0
1070
     0
1070
     1
1040
0.0
1040
0.7
1070
     0
1070
     1
1040
0.7853981633974483
1040
0.0
1040
0.0
1040
-0.0618718433538229
1040
0.0618718433538229
1070
     0
1071
        1
1040
0.0
1040
0.0
1040
0.0
1002
}
  0
INSERT
  5
70D2
  8
OBJECT
  2
*X31
 10
0.0
 20
0.0
 30
0.0
1001
ACAD
1000
HATCH
1002
{
1070
    19
1000
ANSI31
1040
0.7
1040
0.0
1000
ASC_BOUNDS
1070
     0
1000
ASC_SEEDPOINT
1011
0.0
1021
0.0
1031
0.0
1021
0.0
1031
0.0
1000
R14_HATCH_DATA
1000
70D2
1011
1.0
1021
0.0
1031
0.0
1021
0.0
1031
0.0
1011
0.0
1021
1.0
1031
0.0
1021
1.0
1031
0.0
1011
0.0
1021
0.0
1031
1.0
1021
0.0
1031
1.0
1040
0.0
1010
0.0
1020
0.0
1030
1.0
1020
0.0
1030
1.0
1000
ANSI31
1070
     0
1070
     1
1071
        0
1070
     0
1070
     1
1040
0.0
1040
0.7
1070
     0
1070
     1
1040
0.7853981633974483
1040
0.0
1040
0.0
1040
-0.0618718433538229
1040
0.0618718433538229
1070
     0
1071
        1
1040
0.0
1040
0.0
1040
0.0
1002
}
  0
INSERT
  5
70D3
  8
OBJECT
  2
*X32
 10
0.0
 20
0.0
 30
0.0
1001
ACAD
1000
HATCH
1002
{
1070
    19
1000
ANSI31
1040
0.7
1040
0.0
1000
ASC_BOUNDS
1070
     0
1000
ASC_SEEDPOINT
1011
0.0
1021
0.0
1031
0.0
1021
0.0
1031
0.0
1000
R14_HATCH_DATA
1000
70D3
1011
1.0
1021
0.0
1031
0.0
1021
0.0
1031
0.0
1011
0.0
1021
1.0
1031
0.0
1021
1.0
1031
0.0
1011
0.0
1021
0.0
1031
1.0
1021
0.0
1031
1.0
1040
0.0
1010
0.0
1020
0.0
1030
1.0
1020
0.0
1030
1.0
1000
ANSI31
1070
     0
1070
     1
1071
        0
1070
     0
1070
     1
1040
0.0
1040
0.7
1070
     0
1070
     1
1040
0.7853981633974483
1040
0.0
1040
0.0
1040
-0.0618718433538229
1040
0.0618718433538229
1070
     0
1071
        1
1040
0.0
1040
0.0
1040
0.0
1002
}
  0
INSERT
  5
70D4
  8
OBJECT
  2
*X33
 10
0.0
 20
0.0
 30
0.0
1001
ACAD
1000
HATCH
1002
{
1070
    19
1000
ANSI31
1040
0.7
1040
0.0
1000
ASC_BOUNDS
1070
     0
1000
ASC_SEEDPOINT
1011
0.0
1021
0.0
1031
0.0
1021
0.0
1031
0.0
1000
R14_HATCH_DATA
1000
70D4
1011
1.0
1021
0.0
1031
0.0
1021
0.0
1031
0.0
1011
0.0
1021
1.0
1031
0.0
1021
1.0
1031
0.0
1011
0.0
1021
0.0
1031
1.0
1021
0.0
1031
1.0
1040
0.0
1010
0.0
1020
0.0
1030
1.0
1020
0.0
1030
1.0
1000
ANSI31
1070
     0
1070
     1
1071
        0
1070
     0
1070
     1
1040
0.0
1040
0.7
1070
     0
1070
     1
1040
0.7853981633974483
1040
0.0
1040
0.0
1040
-0.0618718433538229
1040
0.0618718433538229
1070
     0
1071
        1
1040
0.0
1040
0.0
1040
0.0
1002
}
  0
INSERT
  5
70D5
  8
OBJECT
  2
*X34
 10
0.0
 20
0.0
 30
0.0
1001
ACAD
1000
HATCH
1002
{
1070
    19
1000
ANSI31
1040
0.7
1040
0.0
1000
ASC_BOUNDS
1070
     0
1000
ASC_SEEDPOINT
1011
0.0
1021
0.0
1031
0.0
1021
0.0
1031
0.0
1000
R14_HATCH_DATA
1000
70D5
1011
1.0
1021
0.0
1031
0.0
1021
0.0
1031
0.0
1011
0.0
1021
1.0
1031
0.0
1021
1.0
1031
0.0
1011
0.0
1021
0.0
1031
1.0
1021
0.0
1031
1.0
1040
0.0
1010
0.0
1020
0.0
1030
1.0
1020
0.0
1030
1.0
1000
ANSI31
1070
     0
1070
     1
1071
        0
1070
     0
1070
     1
1040
0.0
1040
0.7
1070
     0
1070
     1
1040
0.7853981633974483
1040
0.0
1040
0.0
1040
-0.0618718433538229
1040
0.0618718433538229
1070
     0
1071
        1
1040
0.0
1040
0.0
1040
0.0
1002
}
  0
INSERT
  5
70D6
  8
OBJECT
  2
*X35
 10
0.0
 20
0.0
 30
0.0
1001
ACAD
1000
HATCH
1002
{
1070
    19
1000
ANSI31
1040
0.7
1040
0.0
1000
ASC_BOUNDS
1070
     0
1000
ASC_SEEDPOINT
1011
0.0
1021
0.0
1031
0.0
1021
0.0
1031
0.0
1000
R14_HATCH_DATA
1000
70D6
1011
1.0
1021
0.0
1031
0.0
1021
0.0
1031
0.0
1011
0.0
1021
1.0
1031
0.0
1021
1.0
1031
0.0
1011
0.0
1021
0.0
1031
1.0
1021
0.0
1031
1.0
1040
0.0
1010
0.0
1020
0.0
1030
1.0
1020
0.0
1030
1.0
1000
ANSI31
1070
     0
1070
     1
1071
        0
1070
     0
1070
     1
1040
0.0
1040
0.7
1070
     0
1070
     1
1040
0.7853981633974483
1040
0.0
1040
0.0
1040
-0.0618718433538229
1040
0.0618718433538229
1070
     0
1071
        1
1040
0.0
1040
0.0
1040
0.0
1002
}
  0
INSERT
  5
70D7
  8
OBJECT
  2
*X36
 10
0.0
 20
0.0
 30
0.0
1001
ACAD
1000
HATCH
1002
{
1070
    19
1000
ANSI31
1040
0.7
1040
0.0
1000
ASC_BOUNDS
1070
     0
1000
ASC_SEEDPOINT
1011
0.0
1021
0.0
1031
0.0
1021
0.0
1031
0.0
1000
R14_HATCH_DATA
1000
70D7
1011
1.0
1021
0.0
1031
0.0
1021
0.0
1031
0.0
1011
0.0
1021
1.0
1031
0.0
1021
1.0
1031
0.0
1011
0.0
1021
0.0
1031
1.0
1021
0.0
1031
1.0
1040
0.0
1010
0.0
1020
0.0
1030
1.0
1020
0.0
1030
1.0
1000
ANSI31
1070
     0
1070
     1
1071
        0
1070
     0
1070
     1
1040
0.0
1040
0.7
1070
     0
1070
     1
1040
0.7853981633974483
1040
0.0
1040
0.0
1040
-0.0618718433538229
1040
0.0618718433538229
1070
     0
1071
        1
1040
0.0
1040
0.0
1040
0.0
1002
}
  0
INSERT
  5
70D8
  8
OBJECT
  2
*X37
 10
0.0
 20
0.0
 30
0.0
1001
ACAD
1000
HATCH
1002
{
1070
    19
1000
ANSI31
1040
0.7
1040
0.0
1000
ASC_BOUNDS
1070
     0
1000
ASC_SEEDPOINT
1011
0.0
1021
0.0
1031
0.0
1021
0.0
1031
0.0
1000
R14_HATCH_DATA
1000
70D8
1011
1.0
1021
0.0
1031
0.0
1021
0.0
1031
0.0
1011
0.0
1021
1.0
1031
0.0
1021
1.0
1031
0.0
1011
0.0
1021
0.0
1031
1.0
1021
0.0
1031
1.0
1040
0.0
1010
0.0
1020
0.0
1030
1.0
1020
0.0
1030
1.0
1000
ANSI31
1070
     0
1070
     1
1071
        0
1070
     0
1070
     1
1040
0.0
1040
0.7
1070
     0
1070
     1
1040
0.7853981633974483
1040
0.0
1040
0.0
1040
-0.0618718433538229
1040
0.0618718433538229
1070
     0
1071
        1
1040
0.0
1040
0.0
1040
0.0
1002
}
  0
INSERT
  5
70D9
  8
OBJECT
  2
*X38
 10
0.0
 20
0.0
 30
0.0
1001
ACAD
1000
HATCH
1002
{
1070
    19
1000
ANSI31
1040
0.7
1040
0.0
1000
ASC_BOUNDS
1070
     0
1000
ASC_SEEDPOINT
1011
0.0
1021
0.0
1031
0.0
1021
0.0
1031
0.0
1000
R14_HATCH_DATA
1000
70D9
1011
1.0
1021
0.0
1031
0.0
1021
0.0
1031
0.0
1011
0.0
1021
1.0
1031
0.0
1021
1.0
1031
0.0
1011
0.0
1021
0.0
1031
1.0
1021
0.0
1031
1.0
1040
0.0
1010
0.0
1020
0.0
1030
1.0
1020
0.0
1030
1.0
1000
ANSI31
1070
     0
1070
     1
1071
        0
1070
     0
1070
     1
1040
0.0
1040
0.7
1070
     0
1070
     1
1040
0.7853981633974483
1040
0.0
1040
0.0
1040
-0.0618718433538229
1040
0.0618718433538229
1070
     0
1071
        1
1040
0.0
1040
0.0
1040
0.0
1002
}
  0
INSERT
  5
70DA
  8
OBJECT
  2
*X39
 10
0.0
 20
0.0
 30
0.0
1001
ACAD
1000
HATCH
1002
{
1070
    19
1000
ANSI31
1040
0.7
1040
0.0
1000
ASC_BOUNDS
1070
     0
1000
ASC_SEEDPOINT
1011
0.0
1021
0.0
1031
0.0
1021
0.0
1031
0.0
1000
R14_HATCH_DATA
1000
70DA
1011
1.0
1021
0.0
1031
0.0
1021
0.0
1031
0.0
1011
0.0
1021
1.0
1031
0.0
1021
1.0
1031
0.0
1011
0.0
1021
0.0
1031
1.0
1021
0.0
1031
1.0
1040
0.0
1010
0.0
1020
0.0
1030
1.0
1020
0.0
1030
1.0
1000
ANSI31
1070
     0
1070
     1
1071
        0
1070
     0
1070
     1
1040
0.0
1040
0.7
1070
     0
1070
     1
1040
0.7853981633974483
1040
0.0
1040
0.0
1040
-0.0618718433538229
1040
0.0618718433538229
1070
     0
1071
        1
1040
0.0
1040
0.0
1040
0.0
1002
}
  0
INSERT
  5
70DB
  8
OBJECT
  2
*X40
 10
0.0
 20
0.0
 30
0.0
1001
ACAD
1000
HATCH
1002
{
1070
    19
1000
ANSI31
1040
0.7
1040
0.0
1000
ASC_BOUNDS
1070
     0
1000
ASC_SEEDPOINT
1011
0.0
1021
0.0
1031
0.0
1021
0.0
1031
0.0
1000
R14_HATCH_DATA
1000
70DB
1011
1.0
1021
0.0
1031
0.0
1021
0.0
1031
0.0
1011
0.0
1021
1.0
1031
0.0
1021
1.0
1031
0.0
1011
0.0
1021
0.0
1031
1.0
1021
0.0
1031
1.0
1040
0.0
1010
0.0
1020
0.0
1030
1.0
1020
0.0
1030
1.0
1000
ANSI31
1070
     0
1070
     1
1071
        0
1070
     0
1070
     1
1040
0.0
1040
0.7
1070
     0
1070
     1
1040
0.7853981633974483
1040
0.0
1040
0.0
1040
-0.0618718433538229
1040
0.0618718433538229
1070
     0
1071
        1
1040
0.0
1040
0.0
1040
0.0
1002
}
  0
INSERT
  5
70DC
  8
OBJECT
  2
*X41
 10
0.0
 20
0.0
 30
0.0
1001
ACAD
1000
HATCH
1002
{
1070
    19
1000
ANSI31
1040
0.7
1040
0.0
1000
ASC_BOUNDS
1070
     0
1000
ASC_SEEDPOINT
1011
0.0
1021
0.0
1031
0.0
1021
0.0
1031
0.0
1000
R14_HATCH_DATA
1000
70DC
1011
1.0
1021
0.0
1031
0.0
1021
0.0
1031
0.0
1011
0.0
1021
1.0
1031
0.0
1021
1.0
1031
0.0
1011
0.0
1021
0.0
1031
1.0
1021
0.0
1031
1.0
1040
0.0
1010
0.0
1020
0.0
1030
1.0
1020
0.0
1030
1.0
1000
ANSI31
1070
     0
1070
     1
1071
        0
1070
     0
1070
     1
1040
0.0
1040
0.7
1070
     0
1070
     1
1040
0.7853981633974483
1040
0.0
1040
0.0
1040
-0.0618718433538229
1040
0.0618718433538229
1070
     0
1071
        1
1040
0.0
1040
0.0
1040
0.0
1002
}
  0
INSERT
  5
71C1
  8
OBJECT
  2
*X42
 10
0.0
 20
0.0
 30
0.0
1001
ACAD
1000
HATCH
1002
{
1070
    19
1000
ANSI31
1040
0.7
1040
0.0
1000
ASC_BOUNDS
1070
     0
1000
ASC_SEEDPOINT
1011
0.0
1021
0.0
1031
0.0
1021
0.0
1031
0.0
1000
R14_HATCH_DATA
1000
71C1
1011
1.0
1021
0.0
1031
0.0
1021
0.0
1031
0.0
1011
0.0
1021
1.0
1031
0.0
1021
1.0
1031
0.0
1011
0.0
1021
0.0
1031
1.0
1021
0.0
1031
1.0
1040
0.0
1010
0.0
1020
0.0
1030
1.0
1020
0.0
1030
1.0
1000
ANSI31
1070
     0
1070
     1
1071
        0
1070
     0
1070
     1
1040
0.0
1040
0.7
1070
     0
1070
     1
1040
0.7853981633974483
1040
0.0
1040
0.0
1040
-0.0618718433538229
1040
0.0618718433538229
1070
     0
1071
        1
1040
0.0
1040
0.0
1040
0.0
1002
}
  0
CIRCLE
  5
7395
  8
0
 10
7.09124935490837
 20
-15.61921324038541
 30
0.0
 40
0.2459999999999996
  0
CIRCLE
  5
7396
  8
0
 10
4.650304518908399
 20
-15.61921324038541
 30
0.0
 40
0.2460000000000004
  0
CIRCLE
  5
7397
  8
0
 10
5.870776936908384
 20
-15.8554337083857
 30
0.0
 40
0.1968503899999998
  0
LINE
  5
7398
  8
CENTER
 10
5.870776936908384
 20
-15.26488253838544
 30
0.0
 11
5.870776936908384
 21
-20.18614228838543
 31
0.0
  0
LINE
  5
7399
  8
0
 10
7.445580056908397
 20
-15.57984316238537
 30
0.0
 11
7.445580056908397
 21
-20.18614228838543
 31
0.0
  0
LINE
  5
739A
  8
0
 10
4.295973816908372
 20
-15.57984316238537
 30
0.0
 11
4.295973816908372
 21
-20.18614228838543
 31
0.0
  0
LINE
  5
739B
  8
CENTER
 10
5.870776936908384
 20
-25.10740203838542
 30
0.0
 11
5.870776936908384
 21
-20.18614228838543
 31
0.0
  0
LINE
  5
739C
  8
0
 10
4.295973816908372
 20
-24.79244141438549
 30
0.0
 11
4.295973816908372
 21
-20.18614228838543
 31
0.0
  0
LINE
  5
739D
  8
0
 10
7.445580056908397
 20
-24.79244141438549
 30
0.0
 11
7.445580056908397
 21
-20.18614228838543
 31
0.0
  0
LINE
  5
739E
  8
0
 10
4.610934440908408
 20
-25.10740203838542
 30
0.0
 11
7.13061943290836
 21
-25.10740203838542
 31
0.0
  0
ARC
  5
739F
  8
0
 10
4.610934440908408
 20
-24.79244141438549
 30
0.0
 40
0.3149606240000002
 50
180.0
 51
270.0
  0
ARC
  5
73A0
  8
0
 10
7.13061943290836
 20
-24.79244141438549
 30
0.0
 40
0.3149606240000011
 50
270.0
 51
0.0
  0
CIRCLE
  5
73A1
  8
0
 10
4.650304518908399
 20
-24.75307133638545
 30
0.0
 40
0.2460000000000004
  0
CIRCLE
  5
73A2
  8
0
 10
4.650304518908399
 20
-24.75307133638545
 30
0.0
 40
0.0845000000000002
  0
CIRCLE
  5
73A3
  8
0
 10
7.09124935490837
 20
-24.75307133638545
 30
0.0
 40
0.2459999999999996
  0
CIRCLE
  5
73A4
  8
0
 10
7.09124935490837
 20
-24.75307133638545
 30
0.0
 40
0.0845000000000002
  0
CIRCLE
  5
73A5
  8
0
 10
5.870776936908384
 20
-24.51685086838562
 30
0.0
 40
0.1968503899999998
  0
LINE
  5
73A6
  8
CENTER
 10
4.295973816908372
 20
-20.18614228838543
 30
0.0
 11
7.445580056908397
 21
-20.18614228838543
 31
0.0
  0
ARC
  5
73A7
  8
0
 10
7.13061943290836
 20
-15.57984316238537
 30
0.0
 40
0.3149606240000002
 50
0.0
 51
90.0
  0
ARC
  5
73A8
  8
0
 10
4.610934440908408
 20
-15.57984316238537
 30
0.0
 40
0.3149606240000011
 50
90.0
 51
180.0
  0
LINE
  5
73A9
  8
0
 10
4.610934440908408
 20
-15.26488253838544
 30
0.0
 11
7.13061943290836
 21
-15.26488253838544
 31
0.0
  0
CIRCLE
  5
73AA
  8
0
 10
7.09124935490837
 20
-15.61921324038541
 30
0.0
 40
0.0845000000000002
  0
CIRCLE
  5
73AB
  8
0
 10
4.650304518908399
 20
-15.61921324038541
 30
0.0
 40
0.0845000000000002
  0
LINE
  5
73AC
  8
CENTER
 10
7.05187927690838
 20
-20.18614228838543
 30
0.0
 11
6.658178496908362
 21
-20.18614228838543
 31
0.0
  0
LINE
  5
73AD
  8
CENTER
 10
7.05187927690838
 20
-20.18614228838543
 30
0.0
 11
6.658178496908362
 21
-20.18614228838543
 31
0.0
  0
CIRCLE
  5
73AE
  8
0
 10
5.083375376908406
 20
-24.1231500883856
 30
0.0
 40
0.1970000000000001
  0
CIRCLE
  5
73AF
  8
0
 10
6.658178496908362
 20
-24.1231500883856
 30
0.0
 40
0.1970000000000001
  0
CIRCLE
  5
73B0
  8
0
 10
5.083375376908406
 20
-16.24913448838571
 30
0.0
 40
0.1970000000000001
  0
CIRCLE
  5
73B1
  8
0
 10
6.658178496908362
 20
-16.24913448838571
 30
0.0
 40
0.1970000000000001
  0
CIRCLE
  5
73B2
  8
0
 10
14.32641226849176
 20
-15.61921324038541
 30
0.0
 40
0.2263779484999997
  0
CIRCLE
  5
73B3
  8
0
 10
11.88546743249179
 20
-15.61921324038541
 30
0.0
 40
0.2263779484999997
  0
ARC
  5
73B4
  8
0
 10
14.28704219049177
 20
-15.63889827938566
 30
0.0
 40
0.2677165303999995
 50
180.0
 51
270.0
  0
ARC
  5
73B5
  8
0
 10
11.92483751049178
 20
-15.63889827938566
 30
0.0
 40
0.2677165304000013
 50
270.0
 51
0.0
  0
ARC
  5
73B6
  8
0
 10
14.28704219049177
 20
-15.63889827938566
 30
0.0
 40
0.3149606239999994
 50
180.0
 51
270.0
  0
ARC
  5
73B7
  8
0
 10
11.92483751049178
 20
-15.63889827938566
 30
0.0
 40
0.3149606240000011
 50
270.0
 51
0.0
  0
LINE
  5
73B8
  8
0
 10
14.68074297049179
 20
-15.57984316238537
 30
0.0
 11
14.68074297049179
 21
-20.18614228838543
 31
0.0
  0
LINE
  5
73B9
  8
0
 10
11.53113673049176
 20
-15.57984316238537
 30
0.0
 11
11.53113673049176
 21
-20.18614228838543
 31
0.0
  0
LINE
  5
73BA
  8
0
 10
11.53113673049176
 20
-24.79244141438549
 30
0.0
 11
11.53113673049176
 21
-20.18614228838543
 31
0.0
  0
LINE
  5
73BB
  8
0
 10
14.68074297049179
 20
-24.79244141438549
 30
0.0
 11
14.68074297049179
 21
-20.18614228838543
 31
0.0
  0
LINE
  5
73BC
  8
0
 10
11.64924696449179
 20
-24.34755953298564
 30
0.0
 11
11.64924696449179
 21
-20.18614228838543
 31
0.0
  0
LINE
  5
73BD
  8
0
 10
14.56263273649176
 20
-24.34755953298564
 30
0.0
 11
14.56263273649176
 21
-20.18614228838543
 31
0.0
  0
LINE
  5
73BE
  8
0
 10
11.60200287089173
 20
-24.34755953298564
 30
0.0
 11
11.60200287089173
 21
-20.18614228838543
 31
0.0
  0
LINE
  5
73BF
  8
0
 10
14.60987683009182
 20
-24.34755953298564
 30
0.0
 11
14.60987683009182
 21
-20.18614228838543
 31
0.0
  0
LINE
  5
73C0
  8
0
 10
11.84609735449174
 20
-25.10740203838542
 30
0.0
 11
14.36578234649175
 21
-25.10740203838542
 31
0.0
  0
LINE
  5
73C1
  8
0
 10
12.23979813449176
 20
-24.73338629738565
 30
0.0
 11
12.23979813449176
 21
-24.91842566398519
 31
0.0
  0
LINE
  5
73C2
  8
0
 10
11.72011310489176
 20
-24.41842567338573
 30
0.0
 11
11.92483751049178
 21
-24.41842567338573
 31
0.0
  0
ARC
  5
73C3
  8
0
 10
11.92483751049178
 20
-24.73338629738565
 30
0.0
 40
0.3149606239999994
 50
0.0
 51
90.0
  0
ARC
  5
73C4
  8
0
 10
11.84609735449174
 20
-24.79244141438549
 30
0.0
 40
0.3149606239999994
 50
180.0
 51
270.0
  0
ARC
  5
73C5
  8
0
 10
14.36578234649175
 20
-24.79244141438549
 30
0.0
 40
0.3149606240000011
 50
270.0
 51
0.0
  0
CIRCLE
  5
73C6
  8
0
 10
11.88546743249179
 20
-24.75307133638545
 30
0.0
 40
0.2263779484999997
  0
CIRCLE
  5
73C7
  8
0
 10
11.88546743249179
 20
-24.75307133638545
 30
0.0
 40
0.1968503899999998
  0
CIRCLE
  5
73C8
  8
0
 10
14.32641226849176
 20
-24.75307133638545
 30
0.0
 40
0.2263779484999997
  0
CIRCLE
  5
73C9
  8
0
 10
14.32641226849176
 20
-24.75307133638545
 30
0.0
 40
0.1968503899999998
  0
LINE
  5
73CA
  8
0
 10
12.31066427489173
 20
-24.98929180438573
 30
0.0
 11
13.90121542609182
 21
-24.98929180438573
 31
0.0
  0
LINE
  5
73CB
  8
0
 10
12.31066427489173
 20
-25.03653589798533
 30
0.0
 11
13.90121542609182
 21
-25.03653589798533
 31
0.0
  0
LINE
  5
73CC
  8
0
 10
12.19255404089176
 20
-24.73338629738565
 30
0.0
 11
12.19255404089176
 21
-24.91842566398519
 31
0.0
  0
ARC
  5
73CD
  8
0
 10
11.92483751049178
 20
-24.73338629738565
 30
0.0
 40
0.2677165303999995
 50
0.0
 51
90.0
  0
LINE
  5
73CE
  8
0
 10
11.72011310489176
 20
-24.46566976698533
 30
0.0
 11
11.92483751049178
 21
-24.46566976698533
 31
0.0
  0
ARC
  5
73CF
  8
0
 10
11.72011310489176
 20
-24.34755953298564
 30
0.0
 40
0.1181102339999995
 50
180.0
 51
270.0
  0
ARC
  5
73D0
  8
0
 10
12.31066427489173
 20
-24.91842566398519
 30
0.0
 40
0.1181102339999995
 50
180.0
 51
270.0
  0
ARC
  5
73D1
  8
0
 10
12.31066427489173
 20
-24.91842566398519
 30
0.0
 40
0.0708661403999997
 50
180.0
 51
270.0
  0
ARC
  5
73D2
  8
0
 10
11.72011310489176
 20
-24.34755953298564
 30
0.0
 40
0.0708661403999997
 50
180.0
 51
270.0
  0
ARC
  5
73D3
  8
0
 10
14.28704219049177
 20
-24.73338629738565
 30
0.0
 40
0.2677165304000013
 50
90.0
 51
180.0
  0
ARC
  5
73D4
  8
0
 10
14.28704219049177
 20
-24.73338629738565
 30
0.0
 40
0.3149606240000011
 50
90.0
 51
180.0
  0
LINE
  5
73D5
  8
0
 10
13.97208156649179
 20
-24.73338629738565
 30
0.0
 11
13.97208156649179
 21
-24.91842566398519
 31
0.0
  0
LINE
  5
73D6
  8
0
 10
14.01932566009179
 20
-24.73338629738565
 30
0.0
 11
14.01932566009179
 21
-24.91842566398519
 31
0.0
  0
ARC
  5
73D7
  8
0
 10
13.90121542609182
 20
-24.91842566398519
 30
0.0
 40
0.1181102339999995
 50
270.0
 51
0.0
  0
ARC
  5
73D8
  8
0
 10
13.90121542609182
 20
-24.91842566398519
 30
0.0
 40
0.0708661403999997
 50
270.0
 51
0.0
  0
LINE
  5
73D9
  8
0
 10
14.49176659609179
 20
-24.41842567338573
 30
0.0
 11
14.28704219049177
 21
-24.41842567338573
 31
0.0
  0
ARC
  5
73DA
  8
0
 10
14.49176659609179
 20
-24.34755953298564
 30
0.0
 40
0.0708661403999997
 50
270.0
 51
0.0
  0
LINE
  5
73DB
  8
0
 10
14.49176659609179
 20
-24.46566976698533
 30
0.0
 11
14.28704219049177
 21
-24.46566976698533
 31
0.0
  0
ARC
  5
73DC
  8
0
 10
14.49176659609179
 20
-24.34755953298564
 30
0.0
 40
0.1181102339999995
 50
270.0
 51
0.0
  0
ARC
  5
73DD
  8
0
 10
14.32641226849176
 20
-24.75307133638545
 30
0.0
 40
0.3149606239999997
 50
292.9756871628772
 51
337.0243128371226
  0
LINE
  5
73DE
  8
0
 10
14.61638724667841
 20
-24.8760132197941
 30
0.0
 11
14.53483178406349
 21
-24.84143581508543
 31
0.0
  0
LINE
  5
73DF
  8
0
 10
14.44935415190059
 20
-25.04304631457227
 30
0.0
 11
14.41477674719186
 21
-24.96149085195712
 31
0.0
  0
LINE
  5
73E0
  8
0
 10
12.2616489230653
 20
-24.96960676538548
 30
0.0
 11
13.95023077791825
 21
-24.96960676538548
 31
0.0
  0
LINE
  5
73E1
  8
0
 10
14.52326265849177
 20
-15.96124270050414
 30
0.0
 11
14.52326265849177
 21
-24.41104187626671
 31
0.0
  0
LINE
  5
73E2
  8
0
 10
14.52326265849177
 20
-15.96124270050414
 30
0.0
 11
14.52326265849177
 21
-16.15070929338536
 31
0.0
  0
LINE
  5
73E3
  8
0
 10
11.68861704249178
 20
-15.96124270050414
 30
0.0
 11
11.68861704249178
 21
-24.41104187626671
 31
0.0
  0
LINE
  5
73E4
  8
0
 10
11.68861704249178
 20
-15.96124270050414
 30
0.0
 11
11.68861704249178
 21
-16.15070929338536
 31
0.0
  0
ARC
  5
73E5
  8
0
 10
14.49176659609179
 20
-16.02472504378522
 30
0.0
 40
0.1181102339999995
 50
0.0
 51
90.0
  0
LINE
  5
73E6
  8
0
 10
14.49176659609179
 20
-15.90661480978553
 30
0.0
 11
14.28704219049177
 21
-15.90661480978553
 31
0.0
  0
LINE
  5
73E7
  8
0
 10
11.72011310489176
 20
-15.90661480978553
 30
0.0
 11
11.92483751049178
 21
-15.90661480978553
 31
0.0
  0
ARC
  5
73E8
  8
0
 10
11.72011310489176
 20
-16.02472504378522
 30
0.0
 40
0.1181102339999995
 50
90.0
 51
180.0
  0
ARC
  5
73E9
  8
0
 10
14.49176659609179
 20
-16.02472504378522
 30
0.0
 40
0.0708661403999997
 50
0.0
 51
90.0
  0
LINE
  5
73EA
  8
0
 10
14.49176659609179
 20
-15.95385890338559
 30
0.0
 11
14.28704219049177
 21
-15.95385890338559
 31
0.0
  0
LINE
  5
73EB
  8
0
 10
11.72011310489176
 20
-15.95385890338559
 30
0.0
 11
11.92483751049178
 21
-15.95385890338559
 31
0.0
  0
ARC
  5
73EC
  8
0
 10
11.72011310489176
 20
-16.02472504378522
 30
0.0
 40
0.0708661403999997
 50
90.0
 51
180.0
  0
LINE
  5
73ED
  8
0
 10
14.60987683009182
 20
-16.02472504378522
 30
0.0
 11
14.60987683009182
 21
-20.18614228838543
 31
0.0
  0
LINE
  5
73EE
  8
0
 10
11.60200287089173
 20
-16.02472504378522
 30
0.0
 11
11.60200287089173
 21
-20.18614228838543
 31
0.0
  0
LINE
  5
73EF
  8
0
 10
14.56263273649176
 20
-16.02472504378522
 30
0.0
 11
14.56263273649176
 21
-20.18614228838543
 31
0.0
  0
LINE
  5
73F0
  8
0
 10
11.64924696449179
 20
-16.02472504378522
 30
0.0
 11
11.64924696449179
 21
-20.18614228838543
 31
0.0
  0
ARC
  5
73F1
  8
0
 10
13.90121542609182
 20
-15.45385891278521
 30
0.0
 40
0.1181102339999995
 50
0.0
 51
90.0
  0
ARC
  5
73F2
  8
0
 10
12.31066427489173
 20
-15.45385891278521
 30
0.0
 40
0.1181102339999995
 50
90.0
 51
180.0
  0
ARC
  5
73F3
  8
0
 10
13.90121542609182
 20
-15.45385891278521
 30
0.0
 40
0.0708661403999997
 50
0.0
 51
90.0
  0
ARC
  5
73F4
  8
0
 10
12.31066427489173
 20
-15.45385891278521
 30
0.0
 40
0.0708661403999997
 50
90.0
 51
180.0
  0
ARC
  5
73F5
  8
0
 10
14.36578234649175
 20
-15.57984316238537
 30
0.0
 40
0.3149606239999994
 50
0.0
 51
90.0
  0
ARC
  5
73F6
  8
0
 10
11.84609735449174
 20
-15.57984316238537
 30
0.0
 40
0.3149606240000011
 50
90.0
 51
180.0
  0
LINE
  5
73F7
  8
0
 10
12.2616489230653
 20
-15.40267781138538
 30
0.0
 11
13.95023077791825
 21
-15.40267781138538
 31
0.0
  0
LINE
  5
73F8
  8
0
 10
12.31066427489173
 20
-15.33574867878552
 30
0.0
 11
13.90121542609182
 21
-15.33574867878552
 31
0.0
  0
LINE
  5
73F9
  8
0
 10
12.31066427489173
 20
-15.38299277238558
 30
0.0
 11
13.90121542609182
 21
-15.38299277238558
 31
0.0
  0
LINE
  5
73FA
  8
0
 10
11.84609735449174
 20
-15.26488253838544
 30
0.0
 11
14.36578234649175
 21
-15.26488253838544
 31
0.0
  0
LINE
  5
73FB
  8
0
 10
14.01932566009179
 20
-15.63889827938566
 30
0.0
 11
14.01932566009179
 21
-15.45385891278521
 31
0.0
  0
LINE
  5
73FC
  8
0
 10
12.19255404089176
 20
-15.63889827938566
 30
0.0
 11
12.19255404089176
 21
-15.45385891278521
 31
0.0
  0
LINE
  5
73FD
  8
0
 10
13.97208156649179
 20
-15.63889827938566
 30
0.0
 11
13.97208156649179
 21
-15.45385891278521
 31
0.0
  0
LINE
  5
73FE
  8
0
 10
12.23979813449176
 20
-15.63889827938566
 30
0.0
 11
12.23979813449176
 21
-15.45385891278521
 31
0.0
  0
CIRCLE
  5
73FF
  8
0
 10
14.32641226849176
 20
-15.61921324038541
 30
0.0
 40
0.1968503899999998
  0
CIRCLE
  5
7400
  8
0
 10
11.88546743249179
 20
-15.61921324038541
 30
0.0
 40
0.1968503899999998
  0
LINE
  5
7401
  8
0
 10
11.58434442822073
 20
-15.52688160458649
 30
0.0
 11
11.66903527317197
 21
-15.55284987715515
 31
0.0
  0
LINE
  5
7402
  8
0
 10
11.79313579669303
 20
-15.31809023611468
 30
0.0
 11
11.81910406926141
 21
-15.40278108106587
 31
0.0
  0
CIRCLE
  5
7403
  8
0
 10
12.3185382904918
 20
-24.1021500883856
 30
0.0
 40
0.1969999999999992
  0
CIRCLE
  5
7405
  8
0
 10
13.89334141049175
 20
-24.1021500883856
 30
0.0
 40
0.1969999999999992
  0
CIRCLE
  5
7407
  8
0
 10
12.3185382904918
 20
-16.27013448838571
 30
0.0
 40
0.1969999999999992
  0
CIRCLE
  5
7409
  8
0
 10
13.89334141049175
 20
-16.27013448838571
 30
0.0
 40
0.1969999999999992
  0
LINE
  5
740B
  8
BEND
 10
20.34110276407517
 20
-14.77165761195072
 30
0.0
 11
20.34110276407517
 21
-20.18614228838543
 31
0.0
  0
LINE
  5
740C
  8
CENTER
 10
18.76629964407516
 20
-20.18614228838543
 30
0.0
 11
21.91590588407518
 21
-20.18614228838543
 31
0.0
  0
DIMENSION
  5
740D
  8
_2D_DELETED_OBJS
  2
*D1
 10
7.09124935490837
 20
-14.54021582915773
 30
0.0
 11
5.782361981193957
 21
-14.54021582915773
 31
0.0
 70
    32
  3
23NSTD
 13
4.650304518908399
 23
-15.61921324038541
 33
0.0
 14
7.09124935490837
 24
-15.61921324038541
 34
0.0
  0
DIMENSION
  5
741A
  8
_2D_DELETED_OBJS
  2
*D2
 10
3.179775932720502
 20
-24.75307133638545
 30
0.0
 11
3.179775932720502
 21
-20.18614228838543
 31
0.0
 70
    32
  3
23NSTD
 13
4.650304518908399
 23
-15.61921324038541
 33
0.0
 14
4.650304518908399
 24
-24.75307133638545
 34
0.0
 50
90.0
  0
TEXT
  5
7427
  8
OBJECT
 10
5.058767848841739
 20
-26.53574610870172
 30
0.0
 40
0.2496000000000009
  1
BOTTOM VIEW
 41
0.75
  7
TXT
  0
TEXT
  5
7428
  8
OBJECT
 10
10.64057817670101
 20
-26.58857879450234
 30
0.0
 40
0.2496000000000009
  1
TOP VIEW WITH COVER REMOVED
 41
0.75
  7
TXT
  0
TEXT
  5
7429
  8
OBJECT
 10
18.52113364183952
 20
-27.21178152698836
 30
0.0
 40
0.2496000000000009
  1
TOP VIEW WITH COVER
 41
0.75
  7
TXT
  0
DIMENSION
  5
742A
  8
_2D_DELETED_OBJS
  2
*D3
 10
10.35631115786073
 20
-15.26488253838544
 30
0.0
 11
10.35631115786073
 21
-20.18614228838543
 31
0.0
 70
    32
  3
23NSTD
 13
11.84609735449174
 23
-25.10740203838542
 33
0.0
 14
11.88546743249179
 24
-15.26488253838544
 34
0.0
 50
90.0
  0
DIMENSION
  5
7437
  8
_2D_DELETED_OBJS
  2
*D19
 10
14.68074297049179
 20
-14.29200469507618
 30
0.0
 11
13.10593985049178
 21
-14.29200469507618
 31
0.0
 70
    32
  3
23NSTD
 13
11.53113673049176
 23
-15.61921324038541
 33
0.0
 14
14.68074297049179
 24
-15.61921324038541
 34
0.0
  0
DIMENSION
  5
7444
  8
_2D_DELETED_OBJS
  2
*D4
 10
13.89334141049175
 20
-25.77830393753825
 30
0.0
 11
15.54334141049175
 21
-25.77830393753825
 31
0.0
 70
    32
  3
23NSTD
 13
12.3185382904918
 23
-24.1231500883856
 33
0.0
 14
13.89334141049175
 24
-24.1231500883856
 34
0.0
  0
LINE
  5
7451
  8
CENTER
 10
18.76629964407516
 20
-20.18614228838543
 30
0.0
 11
21.91590588407518
 21
-20.18614228838543
 31
0.0
  0
LINE
  5
7452
  8
0
 10
18.76629964407516
 20
-15.65858331838546
 30
0.0
 11
18.76629964407516
 21
-20.18614228838543
 31
0.0
  0
LINE
  5
7453
  8
HIDDEN
 10
18.82535476107517
 20
-16.01291402038543
 30
0.0
 11
18.82535476107517
 21
-20.18614228838543
 31
0.0
  0
LINE
  5
7454
  8
HIDDEN
 10
18.92377995607517
 20
-16.09165417638552
 30
0.0
 11
18.92377995607517
 21
-20.18614228838543
 31
0.0
  0
LINE
  5
7455
  8
HIDDEN
 10
18.96315003407517
 20
-16.09165417638552
 30
0.0
 11
18.96315003407517
 21
-20.18614228838543
 31
0.0
  0
LINE
  5
7456
  8
HIDDEN
 10
19.55370120407513
 20
-15.63889827938566
 30
0.0
 11
19.55370120407513
 21
-15.52078804538552
 31
0.0
  0
LINE
  5
7457
  8
HIDDEN
 10
19.51433112607515
 20
-15.63889827938566
 30
0.0
 11
19.51433112607515
 21
-15.52078804538552
 31
0.0
  0
LINE
  5
7458
  8
HIDDEN
 10
19.41590593107514
 20
-15.63889827938566
 30
0.0
 11
19.41590593107514
 21
-15.44204788938542
 31
0.0
  0
ARC
  5
7459
  8
HIDDEN
 10
19.61275632107515
 20
-15.52078804538552
 30
0.0
 40
0.0590551169999998
 50
90.0
 51
180.0
  0
ARC
  5
745A
  8
HIDDEN
 10
19.61275632107515
 20
-15.52078804538552
 30
0.0
 40
0.0984251950000008
 50
90.0
 51
180.0
  0
ARC
  5
745B
  8
HIDDEN
 10
19.53401616507517
 20
-15.44204788938542
 30
0.0
 40
0.1181102339999995
 50
90.0
 51
180.0
  0
LINE
  5
745C
  8
HIDDEN
 10
19.61275632107515
 20
-15.46173292838568
 30
0.0
 11
20.34110276407517
 21
-15.46173292838568
 31
0.0
  0
LINE
  5
745D
  8
HIDDEN
 10
19.61275632107515
 20
-15.42236285038562
 30
0.0
 11
20.34110276407517
 21
-15.42236285038562
 31
0.0
  0
LINE
  5
745E
  8
HIDDEN
 10
19.53401616507517
 20
-15.32393765538573
 30
0.0
 11
20.34110276407517
 21
-15.32393765538573
 31
0.0
  0
LINE
  5
745F
  8
HIDDEN
 10
18.94346499507514
 20
-15.89480378638574
 30
0.0
 11
19.16000042407517
 21
-15.89480378638574
 31
0.0
  0
ARC
  5
7460
  8
HIDDEN
 10
18.94346499507514
 20
-16.01291402038543
 30
0.0
 40
0.1181102339999995
 50
90.0
 51
180.0
  0
LINE
  5
7461
  8
HIDDEN
 10
19.02220515107518
 20
-15.99322898138563
 30
0.0
 11
19.16000042407517
 21
-15.99322898138563
 31
0.0
  0
ARC
  5
7462
  8
HIDDEN
 10
19.02220515107518
 20
-16.09165417638552
 30
0.0
 40
0.0984251950000008
 50
90.0
 51
180.0
  0
LINE
  5
7463
  8
HIDDEN
 10
19.02220515107518
 20
-16.03259905938567
 30
0.0
 11
19.16000042407517
 21
-16.03259905938567
 31
0.0
  0
ARC
  5
7464
  8
HIDDEN
 10
19.02220515107518
 20
-16.09165417638552
 30
0.0
 40
0.0590551169999998
 50
90.0
 51
180.0
  0
ARC
  5
7465
  8
HIDDEN
 10
19.16000042407517
 20
-15.63889827938566
 30
0.0
 40
0.2559055070000014
 50
270.0
 51
0.0
  0
ARC
  5
7466
  8
HIDDEN
 10
19.16000042407517
 20
-15.63889827938566
 30
0.0
 40
0.3543307019999986
 50
270.0
 51
0.0
  0
ARC
  5
7467
  8
HIDDEN
 10
19.16000042407517
 20
-15.63889827938566
 30
0.0
 40
0.3937007799999996
 50
270.0
 51
0.0
  0
TEXT
  5
7468
  8
BEND
 10
19.304756712905
 20
-14.60890014144715
 30
0.0
 40
0.2755905460000001
  1
A
  7
SI
  0
LINE
  5
7469
  8
HIDDEN
 10
18.82539265477521
 20
-28.48537695915375
 30
0.0
 11
18.92381538914531
 21
-28.48537695915375
 31
0.0
  0
ARC
  5
746A
  8
0
 10
18.91273884029192
 20
-27.87516043519291
 30
0.0
 40
0.0787401560000021
 50
90.0
 51
178.0000000001788
  0
LINE
  5
746B
  8
0
 10
18.76633901415317
 20
-28.5838021541541
 30
0.0
 11
20.34110276407517
 21
-28.5838021541541
 31
0.0
  0
LINE
  5
746C
  8
0
 10
18.79533565253711
 20
-28.38695668541378
 30
0.0
 11
20.34110276407517
 21
-28.38695668541378
 31
0.0
  0
LINE
  5
746D
  8
HIDDEN
 10
18.89428856883432
 20
-28.20979576354749
 30
0.0
 11
18.89428856883432
 21
-27.79707637145076
 31
0.0
  0
LINE
  5
746E
  8
HIDDEN
 10
18.96345462298461
 20
-28.5838021541541
 30
0.0
 11
18.97500540972947
 21
-27.92205802473573
 31
0.0
  0
LINE
  5
746F
  8
HIDDEN
 10
18.90413084227134
 20
-28.5838021541541
 30
0.0
 11
18.90413084227134
 21
-28.30821849791765
 31
0.0
  0
LINE
  5
7470
  8
HIDDEN
 10
18.9240855292366
 20
-28.5838021541541
 30
0.0
 11
18.9240855292366
 21
-28.66254034164977
 31
0.0
  0
LINE
  5
7471
  8
HIDDEN
 10
18.96345462298461
 20
-28.5838021541541
 30
0.0
 11
18.96345462298461
 21
-28.66254034164977
 31
0.0
  0
LINE
  5
7472
  8
HIDDEN
 10
18.92381538914531
 20
-28.5838021541541
 30
0.0
 11
18.92381538914531
 21
-28.48537695915375
 31
0.0
  0
LINE
  5
7473
  8
0
 62
     6
 10
18.9730267563304
 20
-28.30821849791765
 30
0.0
 11
18.9730267563304
 21
-28.20979576354749
 31
0.0
  0
ARC
  5
7474
  8
0
 10
18.99468745060266
 20
-27.92240157603702
 30
0.0
 40
0.0196850389999988
 50
156.4311984096742
 51
179.0000000002254
  0
LINE
  5
7475
  8
HIDDEN
 10
19.34703314693695
 20
-28.20979576354749
 30
0.0
 11
19.34703314693695
 21
-27.79642027919282
 31
0.0
  0
LINE
  5
7476
  8
HIDDEN
 10
19.33719087349982
 20
-28.5838021541541
 30
0.0
 11
19.33719087349982
 21
-28.30821849791765
 31
0.0
  0
LINE
  5
7477
  8
HIDDEN
 10
19.26829495944076
 20
-28.30821849791765
 30
0.0
 11
19.26829495944076
 21
-28.20979576354749
 31
0.0
  0
LINE
  5
7478
  8
HIDDEN
 10
18.89428856883432
 20
-28.20979576354749
 30
0.0
 11
19.34703314693695
 21
-28.20979576354749
 31
0.0
  0
LINE
  5
7479
  8
HIDDEN
 10
18.90413084227134
 20
-28.30821849791765
 30
0.0
 11
19.33719087349982
 21
-28.30821849791765
 31
0.0
  0
LINE
  5
747A
  8
0
 10
21.91586651399711
 20
-28.5838021541541
 30
0.0
 11
20.34110276407517
 21
-28.5838021541541
 31
0.0
  0
LINE
  5
747B
  8
0
 10
21.88686987561317
 20
-28.38695668541378
 30
0.0
 11
20.34110276407517
 21
-28.38695668541378
 31
0.0
  0
LINE
  5
747C
  8
0
 10
21.76946668785836
 20
-27.79642027919282
 30
0.0
 11
20.34110276407517
 21
-27.79642027919282
 31
0.0
  0
LINE
  5
747D
  8
HIDDEN
 10
21.75811999891368
 20
-28.66254034164977
 30
0.0
 11
20.34110276407517
 21
-28.66254034164977
 31
0.0
  0
LINE
  5
747E
  8
HIDDEN
 10
21.70556100220341
 20
-27.91453051319296
 30
0.0
 11
20.34110276407517
 21
-27.91453051319296
 31
0.0
  0
LINE
  5
747F
  8
HIDDEN
 10
21.33517238121339
 20
-28.20979576354749
 30
0.0
 11
21.33517238121339
 21
-27.79642027919282
 31
0.0
  0
LINE
  5
7480
  8
HIDDEN
 10
21.78791695931602
 20
-28.20979576354749
 30
0.0
 11
21.78791695931602
 21
-27.79707637145076
 31
0.0
  0
LINE
  5
7481
  8
0
 10
21.86612715835224
 20
-28.38695668541378
 30
0.0
 11
21.84815887748283
 21
-27.87241244337848
 31
0.0
  0
LINE
  5
7482
  8
HIDDEN
 10
21.71875090516562
 20
-28.5838021541541
 30
0.0
 11
21.70720011842081
 21
-27.92205802473573
 31
0.0
  0
LINE
  5
7483
  8
HIDDEN
 10
21.78791695931602
 20
-28.20979576354749
 30
0.0
 11
21.33517238121339
 21
-28.20979576354749
 31
0.0
  0
LINE
  5
7484
  8
HIDDEN
 10
21.34501465465035
 20
-28.5838021541541
 30
0.0
 11
21.34501465465035
 21
-28.30821849791765
 31
0.0
  0
LINE
  5
7485
  8
HIDDEN
 10
21.778074685879
 20
-28.30821849791765
 30
0.0
 11
21.34501465465035
 21
-28.30821849791765
 31
0.0
  0
LINE
  5
7486
  8
HIDDEN
 10
21.41391056870952
 20
-28.30821849791765
 30
0.0
 11
21.41391056870952
 21
-28.20979576354749
 31
0.0
  0
LINE
  5
7487
  8
HIDDEN
 10
21.778074685879
 20
-28.5838021541541
 30
0.0
 11
21.778074685879
 21
-28.30821849791765
 31
0.0
  0
LINE
  5
7488
  8
HIDDEN
 10
21.75839013900497
 20
-28.48537695915375
 30
0.0
 11
21.85681287337507
 21
-28.48537695915375
 31
0.0
  0
LINE
  5
7489
  8
HIDDEN
 10
21.85681287337507
 20
-28.5838021541541
 30
0.0
 11
21.85681287337507
 21
-28.48537695915375
 31
0.0
  0
ARC
  5
748A
  8
0
 10
21.88686987561317
 20
-28.40664172441357
 30
0.0
 40
0.0196850390000005
 50
3.000000000278279
 51
90.0
  0
LINE
  5
748B
  8
0
 10
21.91586651399711
 20
-28.5838021541541
 30
0.0
 11
21.9065279369513
 21
-28.40561148907419
 31
0.0
  0
LINE
  5
748C
  8
HIDDEN
 10
21.71875090516562
 20
-28.5838021541541
 30
0.0
 11
21.71875090516562
 21
-28.66254034164977
 31
0.0
  0
LINE
  5
748D
  8
HIDDEN
 10
21.75811999891368
 20
-28.5838021541541
 30
0.0
 11
21.75811999891368
 21
-28.66254034164977
 31
0.0
  0
LINE
  5
748E
  8
HIDDEN
 10
21.75839013900497
 20
-28.5838021541541
 30
0.0
 11
21.75839013900497
 21
-28.48537695915375
 31
0.0
  0
LINE
  5
748F
  8
0
 62
     6
 10
21.70917877181989
 20
-28.30821849791765
 30
0.0
 11
21.70917877181989
 21
-28.20979576354749
 31
0.0
  0
ARC
  5
7490
  8
0
 10
21.76946668785836
 20
-27.87516043519291
 30
0.0
 40
0.0787401560000009
 50
1.999999999821191
 51
90.0
  0
ARC
  5
7491
  8
0
 10
21.68751807754762
 20
-27.92240157603702
 30
0.0
 40
0.0196850389999987
 50
0.9999999997754176
 51
23.56880159032664
  0
LINE
  5
7492
  8
HIDDEN
 10
18.9240855292366
 20
-28.66254034164977
 30
0.0
 11
20.34110276407517
 21
-28.66254034164977
 31
0.0
  0
LINE
  5
7493
  8
0
 10
18.91273884029192
 20
-27.79642027919282
 30
0.0
 11
20.34110276407517
 21
-27.79642027919282
 31
0.0
  0
LINE
  5
7494
  8
HIDDEN
 10
18.97664452594688
 20
-27.91453051319296
 30
0.0
 11
20.34110276407517
 21
-27.91453051319296
 31
0.0
  0
LINE
  5
7495
  8
0
 10
18.81607836979805
 20
-28.38695668541378
 30
0.0
 11
18.83404665066746
 21
-27.87241244337848
 31
0.0
  0
LINE
  5
7496
  8
HIDDEN
 10
18.82539265477521
 20
-28.5838021541541
 30
0.0
 11
18.82539265477521
 21
-28.48537695915375
 31
0.0
  0
ARC
  5
7497
  8
0
 10
18.79533565253711
 20
-28.40664172441357
 30
0.0
 40
0.0196850389999987
 50
90.0
 51
176.9999999997217
  0
LINE
  5
7498
  8
0
 10
18.76633901415317
 20
-28.5838021541541
 30
0.0
 11
18.77567759119898
 21
-28.40561148907419
 31
0.0
  0
LINE
  5
7499
  8
0
 10
21.89316523348475
 20
-28.78068144438804
 30
0.0
 11
20.34114238636169
 21
-28.78068144438804
 31
0.0
  0
LINE
  5
749A
  8
HIDDEN
 10
21.76354444320037
 20
-30.453909759388
 30
0.0
 11
20.34114238636169
 21
-30.453909759388
 31
0.0
  0
LINE
  5
749B
  8
HIDDEN
 10
21.75846519436169
 20
-28.70194128838794
 30
0.0
 11
18.9238195783617
 21
-28.70194128838794
 31
0.0
  0
LINE
  5
749C
  8
0
 10
21.91594550636171
 20
-28.58383105438826
 30
0.0
 11
20.34114238636169
 21
-28.58383105438826
 31
0.0
  0
ARC
  5
749D
  8
0
 10
19.33720539736168
 20
-30.57201999338814
 30
0.0
 40
0.0196850390000023
 50
270.0
 51
0.0
  0
LINE
  5
749E
  8
0
 10
18.7891199888968
 20
-28.78068144438804
 30
0.0
 11
20.34114238636169
 21
-28.78068144438804
 31
0.0
  0
LINE
  5
749F
  8
HIDDEN
 10
18.91874032952296
 20
-30.453909759388
 30
0.0
 11
20.34114238636169
 21
-30.45390975938853
 31
0.0
  0
ARC
  5
74A0
  8
0
 10
18.7891199888968
 20
-28.76099640538824
 30
0.0
 40
0.0196850389999987
 50
180.9999999997754
 51
269.999999999999
  0
LINE
  5
74A1
  8
HIDDEN
 10
19.19941012436169
 20
-30.35548456438811
 30
0.0
 11
19.19941012436169
 21
-30.59170503238794
 31
0.0
  0
LINE
  5
74A2
  8
HIDDEN
 10
19.31752035836166
 20
-30.35548456438811
 30
0.0
 11
19.19941012436169
 21
-30.35548456438811
 31
0.0
  0
LINE
  5
74A3
  8
0
 10
18.80570934436167
 20
-28.78068144438804
 30
0.0
 11
18.82048917186511
 21
-30.47428192715471
 31
0.0
  0
LINE
  5
74A4
  8
HIDDEN
 10
18.90413079163187
 20
-28.77982253343008
 30
0.0
 11
18.91874032952296
 21
-30.453909759388
 31
0.0
  0
LINE
  5
74A5
  8
HIDDEN
 10
19.04192981236167
 20
-30.35548456438811
 30
0.0
 11
18.9238195783617
 21
-30.35548456438811
 31
0.0
  0
LINE
  5
74A6
  8
HIDDEN
 10
19.04192981236167
 20
-30.35548456438811
 30
0.0
 11
19.04192981236167
 21
-30.59170503238794
 31
0.0
  0
ARC
  5
74A7
  8
0
 10
18.90413453936167
 20
-30.57201999338814
 30
0.0
 40
0.0196850389999987
 50
180.0
 51
270.0
  0
ARC
  5
74A8
  8
0
 10
18.89922632968131
 20
-30.47359479838825
 30
0.0
 40
0.0787401559999985
 50
180.499999999652
 51
259.1834095468532
  0
LINE
  5
74A9
  8
0
 10
18.88444950036171
 20
-30.55093597424012
 30
0.0
 11
18.88444950036171
 21
-30.57201999338814
 31
0.0
  0
LINE
  5
74AA
  8
0
 10
18.90413453936167
 20
-30.59170503238794
 30
0.0
 11
19.33720539736168
 21
-30.59170503238794
 31
0.0
  0
ARC
  5
74AB
  8
0
 10
20.51830773736168
 20
-30.57201999338814
 30
0.0
 40
0.0196850390000023
 50
270.0
 51
0.0
  0
LINE
  5
74AC
  8
0
 10
20.5379927763617
 20
-30.55233495438834
 30
0.0
 11
20.5379927763617
 21
-30.57201999338814
 31
0.0
  0
ARC
  5
74AD
  8
0
 10
20.16397703536171
 20
-30.57201999338814
 30
0.0
 40
0.0196850389999987
 50
180.0
 51
270.0
  0
LINE
  5
74AE
  8
0
 10
20.14429199636168
 20
-30.55233495438834
 30
0.0
 11
20.14429199636168
 21
-30.57201999338814
 31
0.0
  0
LINE
  5
74AF
  8
0
 10
20.16397703536171
 20
-30.59170503238839
 30
0.0
 11
20.51830773736168
 21
-30.59170503238839
 31
0.0
  0
LINE
  5
74B0
  8
0
 10
19.35689043636171
 20
-30.55233495438789
 30
0.0
 11
19.35689043636171
 21
-30.57201999338814
 31
0.0
  0
LINE
  5
74B1
  8
0
 10
18.88444950036171
 20
-30.55233495438789
 30
0.0
 11
20.3411423863617
 21
-30.55233495438789
 31
0.0
  0
ARC
  5
74B2
  8
HIDDEN
 10
19.52914607853228
 20
-30.39485464238861
 30
0.0
 40
0.0393700779999993
 50
180.499999999652
 51
269.9999999999993
  0
LINE
  5
74B3
  8
0
 10
18.76633926636168
 20
-28.58383105438826
 30
0.0
 11
20.34114238636169
 21
-28.58383105438826
 31
0.0
  0
LINE
  5
74B4
  8
HIDDEN
 10
19.34704791686169
 20
-28.58383105438826
 30
0.0
 11
19.34704791686169
 21
-28.70194128838794
 31
0.0
  0
LINE
  5
74B5
  8
HIDDEN
 10
18.88444950036171
 20
-28.70194128838794
 30
0.0
 11
18.9238195783617
 21
-28.70194128838794
 31
0.0
  0
LINE
  5
74B6
  8
HIDDEN
 10
18.88444950036171
 20
-28.58383105438826
 30
0.0
 11
18.88444950036171
 21
-28.70194128838794
 31
0.0
  0
LINE
  5
74B7
  8
HIDDEN
 10
18.89429201986172
 20
-28.58383105438826
 30
0.0
 11
18.89429201986172
 21
-28.70194128838794
 31
0.0
  0
LINE
  5
74B8
  8
HIDDEN
 10
19.31752035836166
 20
-28.70194128838794
 30
0.0
 11
19.31752035836166
 21
-30.35548456438811
 31
0.0
  0
LINE
  5
74B9
  8
HIDDEN
 10
18.9238195783617
 20
-28.70194128838794
 30
0.0
 11
18.9238195783617
 21
-30.35548456438811
 31
0.0
  0
LINE
  5
74BA
  8
CENTER
 10
19.12066996836171
 20
-27.79642027919282
 30
0.0
 11
19.12066996836171
 21
-30.59170503238794
 31
0.0
  0
LINE
  5
74BB
  8
0
 10
18.76633901415317
 20
-28.5838021541541
 30
0.0
 11
18.7694379480236
 21
-28.76133995668953
 31
0.0
  0
LINE
  5
74BC
  8
CENTER
 10
20.34114238636169
 20
-27.79642027919282
 30
0.0
 11
20.34114238636169
 21
-30.59170503238794
 31
0.0
  0
LINE
  5
74BD
  8
HIDDEN
 10
19.47500067036168
 20
-28.7019412883884
 30
0.0
 11
19.48977749962421
 21
-30.39519820677206
 31
0.0
  0
LINE
  5
74BE
  8
0
 10
21.91594530898044
 20
-28.58385367203492
 30
0.0
 11
21.91284727435794
 21
-28.76133995668953
 31
0.0
  0
ARC
  5
74BF
  8
0
 10
21.78305844304208
 20
-30.47359479838825
 30
0.0
 40
0.078740155999999
 50
280.8165904531464
 51
359.5000000003475
  0
LINE
  5
74C0
  8
HIDDEN
 10
21.77815398109152
 20
-28.77982253343008
 30
0.0
 11
21.76354444320037
 21
-30.453909759388
 31
0.0
  0
LINE
  5
74C1
  8
0
 10
21.79783527236167
 20
-30.55233495438789
 30
0.0
 11
20.3411423863617
 21
-30.55233495438789
 31
0.0
  0
ARC
  5
74C2
  8
HIDDEN
 10
21.15313869419111
 20
-30.39485464238861
 30
0.0
 40
0.039370078000001
 50
270.0
 51
359.5000000003472
  0
ARC
  5
74C3
  8
HIDDEN
 10
21.15313869419111
 20
-30.39485464238861
 30
0.0
 40
0.039370078000001
 50
270.0
 51
359.5000000003472
  0
LINE
  5
74C4
  8
HIDDEN
 10
21.4828746483617
 20
-30.35548456438811
 30
0.0
 11
21.36476441436167
 21
-30.35548456438811
 31
0.0
  0
LINE
  5
74C5
  8
HIDDEN
 10
21.75846519436169
 20
-30.35548456438811
 30
0.0
 11
21.64035496036171
 21
-30.35548456438811
 31
0.0
  0
LINE
  5
74C6
  8
HIDDEN
 10
21.64035496036171
 20
-30.35548456438811
 30
0.0
 11
21.64035496036171
 21
-30.59170503238794
 31
0.0
  0
LINE
  5
74C7
  8
HIDDEN
 10
21.4828746483617
 20
-30.35548456438811
 30
0.0
 11
21.4828746483617
 21
-30.59170503238794
 31
0.0
  0
ARC
  5
74C8
  8
0
 10
21.3450793753617
 20
-30.57201999338814
 30
0.0
 40
0.0196850389999987
 50
180.0
 51
270.0
  0
LINE
  5
74C9
  8
0
 10
21.32539433636168
 20
-30.55233495438789
 30
0.0
 11
21.32539433636168
 21
-30.57201999338814
 31
0.0
  0
ARC
  5
74CA
  8
0
 10
21.77815023336171
 20
-30.57201999338814
 30
0.0
 40
0.0196850390000023
 50
270.0
 51
0.0
  0
LINE
  5
74CB
  8
0
 10
21.77815023336171
 20
-30.59170503238794
 30
0.0
 11
21.3450793753617
 21
-30.59170503238794
 31
0.0
  0
LINE
  5
74CC
  8
0
 10
21.79783527236168
 20
-30.55093597424012
 30
0.0
 11
21.79783527236168
 21
-30.57201999338814
 31
0.0
  0
LINE
  5
74CD
  8
0
 10
21.87657542836166
 20
-28.78068144438804
 30
0.0
 11
21.86179560085821
 21
-30.47428192715471
 31
0.0
  0
LINE
  5
74CE
  8
HIDDEN
 10
21.79783527236168
 20
-28.70194128838794
 30
0.0
 11
21.75846519436169
 21
-28.70194128838794
 31
0.0
  0
LINE
  5
74CF
  8
HIDDEN
 10
21.79783527236168
 20
-28.58383105438826
 30
0.0
 11
21.79783527236168
 21
-28.70194128838794
 31
0.0
  0
LINE
  5
74D0
  8
HIDDEN
 10
21.33523685586169
 20
-28.58383105438826
 30
0.0
 11
21.33523685586169
 21
-28.70194128838794
 31
0.0
  0
LINE
  5
74D1
  8
HIDDEN
 10
21.78799275286166
 20
-28.58383105438826
 30
0.0
 11
21.78799275286166
 21
-28.70194128838794
 31
0.0
  0
LINE
  5
74D2
  8
HIDDEN
 10
21.20728410236171
 20
-28.7019412883884
 30
0.0
 11
21.19250727309918
 21
-30.39519820677206
 31
0.0
  0
LINE
  5
74D3
  8
HIDDEN
 10
21.75846519436169
 20
-28.70194128838794
 30
0.0
 11
21.75846519436169
 21
-30.35548456438811
 31
0.0
  0
LINE
  5
74D4
  8
HIDDEN
 10
21.36476441436167
 20
-28.70194128838794
 30
0.0
 11
21.36476441436167
 21
-30.35548456438811
 31
0.0
  0
LINE
  5
74D5
  8
CENTER
 10
21.56161480436168
 20
-27.79642027919282
 30
0.0
 11
21.56161480436168
 21
-30.59170503238794
 31
0.0
  0
ARC
  5
74D6
  8
0
 10
21.89316523348475
 20
-28.76099640538824
 30
0.0
 40
0.0196850390000023
 50
270.0
 51
359.0000000002234
  0
ARC
  5
754C
  8
HIDDEN
 10
19.16199438105826
 20
-15.62625962019102
 30
0.0
 40
0.2677165304000013
 50
270.0
 51
0.0
  0
ARC
  5
754D
  8
HIDDEN
 10
19.16199438105826
 20
-15.62625962019102
 30
0.0
 40
0.3149606240000011
 50
270.0
 51
0.0
  0
LINE
  5
754E
  8
HIDDEN
 10
18.92577391305826
 20
-15.94860404130952
 30
0.0
 11
18.92577391305826
 21
-16.13807063419074
 31
0.0
  0
LINE
  5
754F
  8
HIDDEN
 10
18.9572699754583
 20
-15.89397615059089
 30
0.0
 11
19.16199438105826
 21
-15.89397615059089
 31
0.0
  0
ARC
  5
7550
  8
HIDDEN
 10
18.9572699754583
 20
-16.01208638459104
 30
0.0
 40
0.1181102339999995
 50
90.0
 51
180.0
  0
LINE
  5
7551
  8
HIDDEN
 10
18.9572699754583
 20
-15.94122024419094
 30
0.0
 11
19.16199438105826
 21
-15.94122024419094
 31
0.0
  0
ARC
  5
7552
  8
HIDDEN
 10
18.9572699754583
 20
-16.01208638459104
 30
0.0
 40
0.0708661403999997
 50
90.0
 51
180.0
  0
LINE
  5
7553
  8
HIDDEN
 10
18.83915974145827
 20
-16.01208638459104
 30
0.0
 11
18.83915974145827
 21
-20.1735036291908
 31
0.0
  0
LINE
  5
7554
  8
HIDDEN
 10
18.88640383505827
 20
-16.01208638459104
 30
0.0
 11
18.88640383505827
 21
-20.1735036291908
 31
0.0
  0
ARC
  5
7555
  8
HIDDEN
 10
19.54782114545827
 20
-15.44122025359103
 30
0.0
 40
0.1181102339999995
 50
90.0
 51
180.0
  0
ARC
  5
7556
  8
HIDDEN
 10
19.54782114545827
 20
-15.44122025359103
 30
0.0
 40
0.0708661403999997
 50
90.0
 51
180.0
  0
LINE
  5
7557
  8
HIDDEN
 10
19.49880579363179
 20
-15.39003915219075
 30
0.0
 11
20.34110276407517
 21
-15.39003915219075
 31
0.0
  0
LINE
  5
7558
  8
HIDDEN
 10
19.54782114545827
 20
-15.37035411319095
 30
0.0
 11
20.34110276407517
 21
-15.37035411319095
 31
0.0
  0
LINE
  5
7559
  8
HIDDEN
 10
19.4297109114583
 20
-15.62625962019102
 30
0.0
 11
19.4297109114583
 21
-15.44122025359103
 31
0.0
  0
LINE
  5
755A
  8
HIDDEN
 10
19.4769550050583
 20
-15.62625962019102
 30
0.0
 11
19.4769550050583
 21
-15.44122025359103
 31
0.0
  0
LINE
  5
755B
  8
0
 10
20.28010459625829
 20
-17.7207477697908
 30
0.0
 11
20.40608884585827
 21
-17.7207477697908
 31
0.0
  0
LINE
  5
755C
  8
0
 10
20.28010459625829
 20
-16.72074778859098
 30
0.0
 11
20.40608884585827
 21
-16.72074778859098
 31
0.0
  0
LINE
  5
755D
  8
0
 10
19.84309673045828
 20
-17.15775565439082
 30
0.0
 11
19.90468566715838
 21
-17.15775565439082
 31
0.0
  0
LINE
  5
755E
  8
0
 10
20.78150777495818
 20
-17.15775565439082
 30
0.0
 11
20.84309671165829
 21
-17.15775565439082
 31
0.0
  0
LINE
  5
755F
  8
0
 10
19.84309673045828
 20
-17.28373990399097
 30
0.0
 11
19.90468566715838
 21
-17.28373990399097
 31
0.0
  0
LINE
  5
7560
  8
0
 10
20.78150777495818
 20
-17.28373990399097
 30
0.0
 11
20.84309671165829
 21
-17.28373990399097
 31
0.0
  0
LINE
  5
7561
  8
0
 10
19.84309673045828
 20
-17.15775565439082
 30
0.0
 11
19.84309673045828
 21
-17.28373990399097
 31
0.0
  0
LINE
  5
7562
  8
0
 10
20.84309671165829
 20
-17.15775565439082
 30
0.0
 11
20.84309671165829
 21
-17.28373990399097
 31
0.0
  0
LINE
  5
7563
  8
0
 10
20.28010459625829
 20
-16.72074778859098
 30
0.0
 11
20.28010459625829
 21
-16.78233672529097
 31
0.0
  0
LINE
  5
7564
  8
0
 10
20.28010459625829
 20
-17.65915883309081
 30
0.0
 11
20.28010459625829
 21
-17.7207477697908
 31
0.0
  0
LINE
  5
7565
  8
0
 10
20.40608884585827
 20
-16.72074778859098
 30
0.0
 11
20.40608884585827
 21
-16.78233672529097
 31
0.0
  0
LINE
  5
7566
  8
0
 10
20.40608884585827
 20
-17.65915883309081
 30
0.0
 11
20.40608884585827
 21
-17.7207477697908
 31
0.0
  0
ARC
  5
7567
  8
0
 10
20.34309672105826
 20
-17.22074777919089
 30
0.0
 40
0.4429133775000006
 50
188.1764571411832
 51
261.8235428590278
  0
ARC
  5
7568
  8
0
 10
20.34309672105826
 20
-17.22074777919089
 30
0.0
 40
0.4429133774999998
 50
278.1764571409724
 51
351.823542858817
  0
ARC
  5
7569
  8
0
 10
20.34309672105826
 20
-17.22074777919089
 30
0.0
 40
0.4429133775000006
 50
8.176457141183212
 51
81.82354285902778
  0
ARC
  5
756A
  8
0
 10
20.34309672105826
 20
-17.22074777919089
 30
0.0
 40
0.4429133774999998
 50
98.17645714097243
 51
171.8235428588169
  0
LINE
  5
756B
  8
0
 10
20.28010459625829
 20
-19.6892516697909
 30
0.0
 11
20.40608884585827
 21
-19.6892516697909
 31
0.0
  0
LINE
  5
756C
  8
0
 10
20.28010459625829
 20
-18.68925168859106
 30
0.0
 11
20.40608884585827
 21
-18.68925168859106
 31
0.0
  0
LINE
  5
756D
  8
0
 10
19.84309673045828
 20
-19.12625955439091
 30
0.0
 11
19.90468566715838
 21
-19.12625955439091
 31
0.0
  0
LINE
  5
756E
  8
0
 10
20.78150777495818
 20
-19.12625955439091
 30
0.0
 11
20.84309671165829
 21
-19.12625955439091
 31
0.0
  0
LINE
  5
756F
  8
0
 10
19.84309673045828
 20
-19.25224380399106
 30
0.0
 11
19.90468566715838
 21
-19.25224380399106
 31
0.0
  0
LINE
  5
7570
  8
0
 10
20.78150777495818
 20
-19.25224380399106
 30
0.0
 11
20.84309671165829
 21
-19.25224380399106
 31
0.0
  0
LINE
  5
7571
  8
0
 10
19.84309673045828
 20
-19.12625955439091
 30
0.0
 11
19.84309673045828
 21
-19.25224380399106
 31
0.0
  0
LINE
  5
7572
  8
0
 10
20.84309671165829
 20
-19.12625955439091
 30
0.0
 11
20.84309671165829
 21
-19.25224380399106
 31
0.0
  0
LINE
  5
7573
  8
0
 10
20.28010459625829
 20
-18.68925168859106
 30
0.0
 11
20.28010459625829
 21
-18.75084062529105
 31
0.0
  0
LINE
  5
7574
  8
0
 10
20.28010459625829
 20
-19.62766273309091
 30
0.0
 11
20.28010459625829
 21
-19.6892516697909
 31
0.0
  0
LINE
  5
7575
  8
0
 10
20.40608884585827
 20
-18.68925168859106
 30
0.0
 11
20.40608884585827
 21
-18.75084062529105
 31
0.0
  0
LINE
  5
7576
  8
0
 10
20.40608884585827
 20
-19.62766273309091
 30
0.0
 11
20.40608884585827
 21
-19.6892516697909
 31
0.0
  0
ARC
  5
7577
  8
0
 10
20.34309672105826
 20
-19.18925167919097
 30
0.0
 40
0.4429133775000006
 50
188.1764571411832
 51
261.8235428590278
  0
ARC
  5
7578
  8
0
 10
20.34309672105826
 20
-19.18925167919097
 30
0.0
 40
0.4429133774999998
 50
278.1764571409724
 51
351.823542858817
  0
ARC
  5
7579
  8
0
 10
20.34309672105826
 20
-19.18925167919097
 30
0.0
 40
0.4429133775000006
 50
8.176457141183212
 51
81.82354285902778
  0
ARC
  5
757A
  8
0
 10
20.34309672105826
 20
-19.18925167919097
 30
0.0
 40
0.4429133774999998
 50
98.17645714097243
 51
171.8235428588169
  0
LINE
  5
757B
  8
0
 10
20.28010459625829
 20
-21.65775556979099
 30
0.0
 11
20.40608884585827
 21
-21.65775556979099
 31
0.0
  0
LINE
  5
757C
  8
0
 10
20.28010459625829
 20
-20.6577555885907
 30
0.0
 11
20.40608884585827
 21
-20.6577555885907
 31
0.0
  0
LINE
  5
757D
  8
0
 10
19.84309673045828
 20
-21.09476345439099
 30
0.0
 11
19.90468566715838
 21
-21.09476345439099
 31
0.0
  0
LINE
  5
757E
  8
0
 10
20.78150777495818
 20
-21.09476345439099
 30
0.0
 11
20.84309671165829
 21
-21.09476345439099
 31
0.0
  0
LINE
  5
757F
  8
0
 10
19.84309673045828
 20
-21.22074770399069
 30
0.0
 11
19.90468566715838
 21
-21.22074770399069
 31
0.0
  0
LINE
  5
7580
  8
0
 10
20.78150777495818
 20
-21.22074770399069
 30
0.0
 11
20.84309671165829
 21
-21.22074770399069
 31
0.0
  0
LINE
  5
7581
  8
0
 10
19.84309673045828
 20
-21.09476345439099
 30
0.0
 11
19.84309673045828
 21
-21.22074770399069
 31
0.0
  0
LINE
  5
7582
  8
0
 10
20.84309671165829
 20
-21.09476345439099
 30
0.0
 11
20.84309671165829
 21
-21.22074770399069
 31
0.0
  0
LINE
  5
7583
  8
0
 10
20.28010459625829
 20
-20.6577555885907
 30
0.0
 11
20.28010459625829
 21
-20.71934452529113
 31
0.0
  0
LINE
  5
7584
  8
0
 10
20.28010459625829
 20
-21.59616663309099
 30
0.0
 11
20.28010459625829
 21
-21.65775556979099
 31
0.0
  0
LINE
  5
7585
  8
0
 10
20.40608884585827
 20
-20.6577555885907
 30
0.0
 11
20.40608884585827
 21
-20.71934452529113
 31
0.0
  0
LINE
  5
7586
  8
0
 10
20.40608884585827
 20
-21.59616663309099
 30
0.0
 11
20.40608884585827
 21
-21.65775556979099
 31
0.0
  0
ARC
  5
7587
  8
0
 10
20.34309672105826
 20
-21.15775557919106
 30
0.0
 40
0.4429133775000001
 50
188.1764571411827
 51
261.8235428590274
  0
ARC
  5
7588
  8
0
 10
20.34309672105826
 20
-21.15775557919106
 30
0.0
 40
0.4429133774999998
 50
278.1764571409724
 51
351.823542858817
  0
ARC
  5
7589
  8
0
 10
20.34309672105826
 20
-21.15775557919106
 30
0.0
 40
0.4429133775000006
 50
8.176457141183212
 51
81.82354285902778
  0
ARC
  5
758A
  8
0
 10
20.34309672105826
 20
-21.15775557919106
 30
0.0
 40
0.4429133774999998
 50
98.17645714097243
 51
171.8235428588169
  0
LINE
  5
758B
  8
0
 10
20.28010459625829
 20
-23.62625946979107
 30
0.0
 11
20.40608884585827
 21
-23.62625946979107
 31
0.0
  0
LINE
  5
758C
  8
0
 10
20.28010459625829
 20
-22.62625948859078
 30
0.0
 11
20.40608884585827
 21
-22.62625948859078
 31
0.0
  0
LINE
  5
758D
  8
0
 10
19.84309673045828
 20
-23.06326735439107
 30
0.0
 11
19.90468566715838
 21
-23.06326735439107
 31
0.0
  0
LINE
  5
758E
  8
0
 10
20.78150777495818
 20
-23.06326735439107
 30
0.0
 11
20.84309671165829
 21
-23.06326735439107
 31
0.0
  0
LINE
  5
758F
  8
0
 10
19.84309673045828
 20
-23.18925160399077
 30
0.0
 11
19.90468566715838
 21
-23.18925160399077
 31
0.0
  0
LINE
  5
7590
  8
0
 10
20.78150777495818
 20
-23.18925160399077
 30
0.0
 11
20.84309671165829
 21
-23.18925160399077
 31
0.0
  0
LINE
  5
7591
  8
0
 10
19.84309673045828
 20
-23.06326735439107
 30
0.0
 11
19.84309673045828
 21
-23.18925160399077
 31
0.0
  0
LINE
  5
7592
  8
0
 10
20.84309671165829
 20
-23.06326735439107
 30
0.0
 11
20.84309671165829
 21
-23.18925160399077
 31
0.0
  0
LINE
  5
7593
  8
0
 10
20.28010459625829
 20
-22.62625948859078
 30
0.0
 11
20.28010459625829
 21
-22.68784842529077
 31
0.0
  0
LINE
  5
7594
  8
0
 10
20.28010459625829
 20
-23.56467053309062
 30
0.0
 11
20.28010459625829
 21
-23.62625946979107
 31
0.0
  0
LINE
  5
7595
  8
0
 10
20.40608884585827
 20
-22.62625948859078
 30
0.0
 11
20.40608884585827
 21
-22.68784842529077
 31
0.0
  0
LINE
  5
7596
  8
0
 10
20.40608884585827
 20
-23.56467053309062
 30
0.0
 11
20.40608884585827
 21
-23.62625946979107
 31
0.0
  0
ARC
  5
7597
  8
0
 10
20.34309672105826
 20
-23.12625947919069
 30
0.0
 40
0.4429133775000006
 50
188.1764571411832
 51
261.8235428590278
  0
ARC
  5
7598
  8
0
 10
20.34309672105826
 20
-23.12625947919069
 30
0.0
 40
0.4429133774999998
 50
278.1764571409724
 51
351.823542858817
  0
ARC
  5
7599
  8
0
 10
20.34309672105826
 20
-23.12625947919069
 30
0.0
 40
0.4429133775000006
 50
8.176457141183212
 51
81.82354285902778
  0
ARC
  5
759A
  8
0
 10
20.34309672105826
 20
-23.12625947919069
 30
0.0
 40
0.4429133774999998
 50
98.17645714097243
 51
171.8235428588169
  0
INSERT
  5
759B
  8
OBJECT
  2
HBS
 10
0.0
 20
-32.15890099328674
 30
0.0
 41
2.0
 42
2.0
 43
2.0
  0
TEXT
  5
759C
  8
OBJECT
 10
2.82448454962171
 20
-12.22804996549625
 30
0.0
 40
0.351
  1
PBB SERIES - PC 10% FIBERGLASS PUSH BUTTON BOX
 41
0.75
  7
TXT
 72
     1
 11
8.68311329962171
 21
-12.22804996549625
 31
0.0
  0
TEXT
  5
759D
  8
OBJECT
 10
21.00446584258772
 20
-12.22804996549625
 30
0.0
 40
0.351
  1
PBB-11821-4
 41
0.75
  7
TXT
 72
     1
 11
22.27859584258772
 21
-12.22804996549625
 31
0.0
  0
TEXT
  5
759E
  8
OBJECT
 10
30.66690719525544
 20
-12.22804996549625
 30
0.0
 40
0.351
  1
12-3-15
 41
0.75
  7
TXT
 72
     1
 11
31.45797344525544
 21
-12.22804996549625
 31
0.0
  0
DIMENSION
  5
759F
  8
OBJECT
  2
*D5
 10
5.800557081497016
 20
-24.33295076520686
 30
0.0
 11
7.814228710855259
 21
-25.77806136075276
 31
0.0
 70
    35
  3
23NSTD
 15
5.940996792319756
 25
-24.70075097156438
 35
0.0
 40
0.0
  0
DIMENSION
  5
75AB
  8
OBJECT
  2
*D6
 10
4.83161282639879
 20
-15.78547597714554
 30
0.0
 11
2.445212750470521
 21
-14.96632785944926
 31
0.0
 70
    35
  3
23NSTD
 15
4.468996211418006
 25
-15.45295050362527
 35
0.0
 40
0.0
  0
DIMENSION
  5
75B7
  8
OBJECT
  2
*D7
 10
7.031263529536313
 20
-15.67872753072339
 30
0.0
 11
9.061732005935815
 21
-15.05259493770017
 31
0.0
 70
    35
  3
23NSTD
 15
7.151235180280426
 25
-15.55969895004744
 35
0.0
 40
0.0
  0
ARC
  5
75C3
  8
OBJECT
 10
11.88546743249179
 20
-15.61921324038541
 30
0.0
 40
0.3149606239997302
 50
107.0468131166457
 51
162.9531868833432
  0
LINE
  5
75C4
  8
HIDDEN
 10
5.004635220908369
 20
-15.63889827938566
 30
0.0
 11
5.004635220908369
 21
-15.45385891278521
 31
0.0
  0
LINE
  5
75C5
  8
HIDDEN
 10
4.957391127308369
 20
-15.63889827938566
 30
0.0
 11
4.957391127308369
 21
-15.45385891278521
 31
0.0
  0
LINE
  5
75C6
  8
HIDDEN
 10
5.07550136130834
 20
-15.38299277238558
 30
0.0
 11
5.870776936908384
 21
-15.38299277238558
 31
0.0
  0
LINE
  5
75C7
  8
HIDDEN
 10
5.07550136130834
 20
-15.33574867878552
 30
0.0
 11
5.870776936908384
 21
-15.33574867878552
 31
0.0
  0
LINE
  5
75C8
  8
HIDDEN
 10
5.026486009481914
 20
-15.40267781138538
 30
0.0
 11
5.870776936908384
 21
-15.40267781138538
 31
0.0
  0
ARC
  5
75C9
  8
HIDDEN
 10
5.07550136130834
 20
-15.45385891278521
 30
0.0
 40
0.0708661403999997
 50
90.0
 51
180.0
  0
ARC
  5
75CA
  8
HIDDEN
 10
5.07550136130834
 20
-15.45385891278521
 30
0.0
 40
0.1181102339999995
 50
90.0
 51
180.0
  0
ARC
  5
75CB
  8
HIDDEN
 10
4.689674596908389
 20
-15.63889827938566
 30
0.0
 40
0.3149606240000011
 50
270.0
 51
0.0
  0
ARC
  5
75CC
  8
HIDDEN
 10
4.689674596908389
 20
-15.63889827938566
 30
0.0
 40
0.2677165304000013
 50
270.0
 51
0.0
  0
LINE
  5
75CD
  8
HIDDEN
 10
4.45345412890839
 20
-15.96124270050414
 30
0.0
 11
4.45345412890839
 21
-20.18614228838543
 31
0.0
  0
LINE
  5
75CE
  8
HIDDEN
 10
4.4140840509084
 20
-16.02472504378522
 30
0.0
 11
4.4140840509084
 21
-20.18614228838543
 31
0.0
  0
LINE
  5
75CF
  8
HIDDEN
 10
4.366839957308343
 20
-16.02472504378522
 30
0.0
 11
4.366839957308343
 21
-20.18614228838543
 31
0.0
  0
ARC
  5
75D0
  8
HIDDEN
 10
4.484950191308371
 20
-16.02472504378522
 30
0.0
 40
0.0708661403999997
 50
90.0
 51
180.0
  0
ARC
  5
75D1
  8
HIDDEN
 10
4.484950191308371
 20
-16.02472504378522
 30
0.0
 40
0.1181102339999995
 50
90.0
 51
180.0
  0
LINE
  5
75D2
  8
HIDDEN
 10
4.45345412890839
 20
-15.96124270050414
 30
0.0
 11
4.45345412890839
 21
-16.15070929338536
 31
0.0
  0
LINE
  5
75D3
  8
HIDDEN
 10
4.484950191308371
 20
-15.95385890338559
 30
0.0
 11
4.689674596908389
 21
-15.95385890338559
 31
0.0
  0
LINE
  5
75D4
  8
HIDDEN
 10
4.484950191308371
 20
-15.90661480978553
 30
0.0
 11
4.689674596908389
 21
-15.90661480978553
 31
0.0
  0
LINE
  5
75D5
  8
HIDDEN
 10
7.288099744908379
 20
-15.96124270050414
 30
0.0
 11
7.288099744908379
 21
-20.18614228838543
 31
0.0
  0
LINE
  5
75D6
  8
HIDDEN
 10
7.374713916508426
 20
-16.02472504378522
 30
0.0
 11
7.374713916508426
 21
-20.18614228838543
 31
0.0
  0
LINE
  5
75D7
  8
HIDDEN
 10
7.327469822908369
 20
-16.02472504378522
 30
0.0
 11
7.327469822908369
 21
-20.18614228838543
 31
0.0
  0
LINE
  5
75D8
  8
HIDDEN
 10
7.256603682508398
 20
-15.90661480978553
 30
0.0
 11
7.05187927690838
 21
-15.90661480978553
 31
0.0
  0
LINE
  5
75D9
  8
HIDDEN
 10
7.256603682508398
 20
-15.95385890338559
 30
0.0
 11
7.05187927690838
 21
-15.95385890338559
 31
0.0
  0
LINE
  5
75DA
  8
HIDDEN
 10
7.288099744908379
 20
-15.96124270050414
 30
0.0
 11
7.288099744908379
 21
-16.15070929338536
 31
0.0
  0
ARC
  5
75DB
  8
HIDDEN
 10
7.256603682508398
 20
-16.02472504378522
 30
0.0
 40
0.1181102340000004
 50
0.0
 51
89.99999999999999
  0
ARC
  5
75DC
  8
HIDDEN
 10
7.256603682508398
 20
-16.02472504378522
 30
0.0
 40
0.0708661403999997
 50
0.0
 51
89.99999999999999
  0
ARC
  5
75DD
  8
HIDDEN
 10
7.05187927690838
 20
-15.63889827938566
 30
0.0
 40
0.3149606240000002
 50
180.0
 51
270.0
  0
ARC
  5
75DE
  8
HIDDEN
 10
7.05187927690838
 20
-15.63889827938566
 30
0.0
 40
0.2677165304000004
 50
180.0
 51
270.0
  0
LINE
  5
75DF
  8
HIDDEN
 10
6.7841627465084
 20
-15.63889827938566
 30
0.0
 11
6.7841627465084
 21
-15.45385891278521
 31
0.0
  0
LINE
  5
75E0
  8
HIDDEN
 10
6.7369186529084
 20
-15.63889827938566
 30
0.0
 11
6.7369186529084
 21
-15.45385891278521
 31
0.0
  0
LINE
  5
75E1
  8
HIDDEN
 10
6.666052512508429
 20
-15.38299277238558
 30
0.0
 11
5.870776936908384
 21
-15.38299277238558
 31
0.0
  0
LINE
  5
75E2
  8
HIDDEN
 10
6.666052512508429
 20
-15.33574867878552
 30
0.0
 11
5.870776936908384
 21
-15.33574867878552
 31
0.0
  0
LINE
  5
75E3
  8
HIDDEN
 10
6.715067864334855
 20
-15.40267781138538
 30
0.0
 11
5.870776936908384
 21
-15.40267781138538
 31
0.0
  0
ARC
  5
75E4
  8
HIDDEN
 10
6.666052512508429
 20
-15.45385891278521
 30
0.0
 40
0.1181102340000004
 50
0.0
 51
89.99999999999999
  0
ARC
  5
75E5
  8
HIDDEN
 10
6.666052512508429
 20
-15.45385891278521
 30
0.0
 40
0.0708661403999997
 50
0.0
 51
89.99999999999999
  0
LINE
  5
75E6
  8
HIDDEN
 10
4.45345412890839
 20
-24.41104187626671
 30
0.0
 11
4.45345412890839
 21
-20.18614228838543
 31
0.0
  0
LINE
  5
75E7
  8
HIDDEN
 10
4.366839957308343
 20
-24.34755953298564
 30
0.0
 11
4.366839957308343
 21
-20.18614228838543
 31
0.0
  0
LINE
  5
75E8
  8
HIDDEN
 10
4.4140840509084
 20
-24.34755953298564
 30
0.0
 11
4.4140840509084
 21
-20.18614228838543
 31
0.0
  0
LINE
  5
75E9
  8
HIDDEN
 10
7.327469822908369
 20
-24.34755953298564
 30
0.0
 11
7.327469822908369
 21
-20.18614228838543
 31
0.0
  0
LINE
  5
75EA
  8
HIDDEN
 10
7.288099744908379
 20
-24.41104187626671
 30
0.0
 11
7.288099744908379
 21
-20.18614228838543
 31
0.0
  0
LINE
  5
75EB
  8
HIDDEN
 10
7.374713916508426
 20
-24.34755953298564
 30
0.0
 11
7.374713916508426
 21
-20.18614228838543
 31
0.0
  0
ARC
  5
75EC
  8
HIDDEN
 10
7.256603682508398
 20
-24.34755953298564
 30
0.0
 40
0.0708661403999997
 50
270.0
 51
0.0
  0
ARC
  5
75ED
  8
HIDDEN
 10
7.256603682508398
 20
-24.34755953298564
 30
0.0
 40
0.1181102339999995
 50
270.0
 51
0.0
  0
LINE
  5
75EE
  8
HIDDEN
 10
7.288099744908379
 20
-24.41104187626671
 30
0.0
 11
7.288099744908379
 21
-24.22157528338549
 31
0.0
  0
LINE
  5
75EF
  8
HIDDEN
 10
7.256603682508398
 20
-24.41842567338527
 30
0.0
 11
7.05187927690838
 21
-24.41842567338527
 31
0.0
  0
ARC
  5
75F0
  8
HIDDEN
 10
7.05187927690838
 20
-24.7333862973852
 30
0.0
 40
0.3149606240000011
 50
90.0
 51
180.0
  0
ARC
  5
75F1
  8
HIDDEN
 10
7.05187927690838
 20
-24.7333862973852
 30
0.0
 40
0.2677165304000013
 50
90.0
 51
180.0
  0
LINE
  5
75F2
  8
HIDDEN
 10
7.256603682508398
 20
-24.46566976698533
 30
0.0
 11
7.05187927690838
 21
-24.46566976698533
 31
0.0
  0
LINE
  5
75F3
  8
HIDDEN
 10
6.715067864334855
 20
-24.96960676538548
 30
0.0
 11
5.870776936908384
 21
-24.96960676538548
 31
0.0
  0
LINE
  5
75F4
  8
HIDDEN
 10
6.666052512508429
 20
-24.98929180438527
 30
0.0
 11
5.870776936908384
 21
-24.98929180438527
 31
0.0
  0
LINE
  5
75F5
  8
HIDDEN
 10
6.7369186529084
 20
-24.7333862973852
 30
0.0
 11
6.7369186529084
 21
-24.91842566398564
 31
0.0
  0
LINE
  5
75F6
  8
HIDDEN
 10
6.7841627465084
 20
-24.7333862973852
 30
0.0
 11
6.7841627465084
 21
-24.91842566398564
 31
0.0
  0
ARC
  5
75F7
  8
HIDDEN
 10
6.666052512508429
 20
-24.91842566398564
 30
0.0
 40
0.0708661403999997
 50
270.0
 51
0.0
  0
ARC
  5
75F8
  8
HIDDEN
 10
6.666052512508429
 20
-24.91842566398564
 30
0.0
 40
0.1181102339999995
 50
270.0
 51
0.0
  0
LINE
  5
75F9
  8
HIDDEN
 10
6.666052512508429
 20
-25.03653589798533
 30
0.0
 11
5.870776936908384
 21
-25.03653589798533
 31
0.0
  0
LINE
  5
75FA
  8
HIDDEN
 10
4.957391127308369
 20
-24.7333862973852
 30
0.0
 11
4.957391127308369
 21
-24.91842566398564
 31
0.0
  0
LINE
  5
75FB
  8
HIDDEN
 10
5.004635220908369
 20
-24.7333862973852
 30
0.0
 11
5.004635220908369
 21
-24.91842566398564
 31
0.0
  0
LINE
  5
75FC
  8
HIDDEN
 10
5.07550136130834
 20
-24.98929180438527
 30
0.0
 11
5.870776936908384
 21
-24.98929180438527
 31
0.0
  0
LINE
  5
75FD
  8
HIDDEN
 10
5.026486009481914
 20
-24.96960676538548
 30
0.0
 11
5.870776936908384
 21
-24.96960676538548
 31
0.0
  0
ARC
  5
75FE
  8
HIDDEN
 10
5.07550136130834
 20
-24.91842566398564
 30
0.0
 40
0.1181102340000004
 50
180.0
 51
270.0
  0
ARC
  5
75FF
  8
HIDDEN
 10
5.07550136130834
 20
-24.91842566398564
 30
0.0
 40
0.0708661403999997
 50
180.0
 51
270.0
  0
ARC
  5
7600
  8
HIDDEN
 10
4.689674596908389
 20
-24.7333862973852
 30
0.0
 40
0.3149606240000002
 50
0.0
 51
90.00000000000003
  0
ARC
  5
7601
  8
HIDDEN
 10
4.689674596908389
 20
-24.7333862973852
 30
0.0
 40
0.2677165304000004
 50
0.0
 51
90.00000000000003
  0
LINE
  5
7602
  8
HIDDEN
 10
4.484950191308371
 20
-24.46566976698533
 30
0.0
 11
4.689674596908389
 21
-24.46566976698533
 31
0.0
  0
LINE
  5
7603
  8
HIDDEN
 10
4.484950191308371
 20
-24.41842567338527
 30
0.0
 11
4.689674596908389
 21
-24.41842567338527
 31
0.0
  0
LINE
  5
7604
  8
HIDDEN
 10
4.45345412890839
 20
-24.41104187626671
 30
0.0
 11
4.45345412890839
 21
-24.22157528338549
 31
0.0
  0
ARC
  5
7605
  8
HIDDEN
 10
4.484950191308371
 20
-24.34755953298564
 30
0.0
 40
0.1181102340000004
 50
180.0
 51
270.0
  0
ARC
  5
7606
  8
HIDDEN
 10
4.484950191308371
 20
-24.34755953298564
 30
0.0
 40
0.0708661403999997
 50
180.0
 51
270.0
  0
LINE
  5
7607
  8
HIDDEN
 10
5.07550136130834
 20
-25.03653589798533
 30
0.0
 11
5.870776936908384
 21
-25.03653589798533
 31
0.0
  0
DIMENSION
  5
7615
  8
OBJECT
  2
*D8
 10
14.52326265849177
 20
-17.88236504508691
 30
0.0
 11
12.98498618809358
 21
-17.88236504508691
 31
0.0
 70
    32
  3
23NSTDI
 13
11.68861704249178
 23
-17.83995893325362
 33
0.0
 14
14.52326265849177
 24
-17.83995893325362
 34
0.0
  0
DIMENSION
  5
7622
  8
OBJECT
  2
*D9
 10
12.7738966185542
 20
-24.96960676538548
 30
0.0
 11
12.7738966185542
 21
-20.18614228838543
 31
0.0
 70
    32
  3
23NSTDI
 13
12.75255747188779
 23
-15.40267781138538
 33
0.0
 14
12.85246567713642
 24
-24.96960676538548
 34
0.0
 50
90.0
  0
DIMENSION
  5
762F
  8
OBJECT
  2
*D10
 10
23.0118261237213
 20
-19.18925167919097
 30
0.0
 11
23.0118261237213
 21
-18.20499972919093
 31
0.0
 70
    32
  3
23NSTDI
 13
20.84309671165829
 23
-17.22074777919089
 33
0.0
 14
20.84309671165829
 24
-19.18925167919097
 34
0.0
 50
90.0
  0
DIMENSION
  5
763C
  8
OBJECT
  2
*D11
 10
23.0118261237213
 20
-21.15775557919083
 30
0.0
 11
23.0118261237213
 21
-20.1735036291909
 31
0.0
 70
    32
  3
23NSTDI
 13
20.84309671165829
 23
-19.18925167919097
 33
0.0
 14
20.84309671165829
 24
-21.15775557919083
 34
0.0
 50
90.0
  0
DIMENSION
  5
7649
  8
OBJECT
  2
*D12
 10
23.0118261237213
 20
-23.12625947919092
 30
0.0
 11
23.0118261237213
 21
-22.14200752919088
 31
0.0
 70
    32
  3
23NSTDI
 13
20.84309671165829
 23
-21.15775557919083
 33
0.0
 14
20.84309671165829
 24
-23.12625947919092
 34
0.0
 50
90.0
  0
DIMENSION
  5
7656
  8
OBJECT
  2
*D13
 10
19.98820880092555
 20
-17.48575122088992
 30
0.0
 11
24.08996799361518
 21
-15.86451251195315
 31
0.0
 70
    35
  1
<> (4X)
  3
23NSTD
 15
20.69798464119098
 25
-16.95574433749184
 35
0.0
 40
0.0
  0
DIMENSION
  5
7662
  8
OBJECT
  2
*D14
 10
17.76002305810613
 20
-16.72074778859098
 30
0.0
 11
17.76002305810613
 21
-17.22074777919089
 31
0.0
 70
    32
  3
23NSTD
 13
20.28010459625829
 23
-17.7207477697908
 33
0.0
 14
20.28010459625829
 24
-16.72074778859098
 34
0.0
 50
90.0
  0
INSERT
  5
766F
  8
BEND
  2
*X43
 10
0.7686062955254194
 20
0.0
 30
0.0
  0
LINE
  5
7670
  8
BEND
 10
20.34110276407517
 20
-25.60062696482014
 30
0.0
 11
20.34110276407517
 21
-20.18614228838543
 31
0.0
  0
INSERT
  5
7671
  8
BEND
  2
*X44
 10
0.7686062955254194
 20
0.0
 30
0.0
  0
TEXT
  5
7672
  8
BEND
 10
19.37924490164936
 20
-25.53150055380041
 30
0.0
 40
0.2755905460000001
  1
A
  7
SI
  0
LINE
  5
7673
  8
0
 10
18.76629964407516
 20
-15.57984316238537
 30
0.0
 11
18.76629964407516
 21
-20.18614228838543
 31
0.0
  0
LINE
  5
7674
  8
0
 10
19.08126026807514
 20
-15.26488253838544
 30
0.0
 11
21.60094526007515
 21
-15.26488253838544
 31
0.0
  0
ARC
  5
7675
  8
0
 10
19.08126026807514
 20
-15.57984316238537
 30
0.0
 40
0.3149606240000011
 50
90.0
 51
180.0
  0
ARC
  5
7676
  8
0
 10
21.60094526007515
 20
-15.57984316238537
 30
0.0
 40
0.3149606240000011
 50
0.0
 51
90.0
  0
LINE
  5
7677
  8
0
 10
21.91590588407518
 20
-15.57984316238537
 30
0.0
 11
21.91590588407518
 21
-20.18614228838543
 31
0.0
  0
LINE
  5
7678
  8
HIDDEN
 10
18.88640383505827
 20
-24.36019819217982
 30
0.0
 11
18.88640383505827
 21
-20.19878094758007
 31
0.0
  0
LINE
  5
7679
  8
HIDDEN
 10
18.83915974145827
 20
-24.36019819217982
 30
0.0
 11
18.83915974145827
 21
-20.19878094758007
 31
0.0
  0
LINE
  5
767A
  8
HIDDEN
 10
18.96315003407517
 20
-24.28063040038533
 30
0.0
 11
18.96315003407517
 21
-20.18614228838543
 31
0.0
  0
LINE
  5
767B
  8
HIDDEN
 10
18.92377995607517
 20
-24.28063040038533
 30
0.0
 11
18.92377995607517
 21
-20.18614228838543
 31
0.0
  0
LINE
  5
767C
  8
HIDDEN
 10
18.82535476107517
 20
-24.35937055638543
 30
0.0
 11
18.82535476107517
 21
-20.18614228838543
 31
0.0
  0
LINE
  5
767D
  8
0
 10
18.76629964407516
 20
-24.79244141438549
 30
0.0
 11
18.76629964407516
 21
-20.18614228838543
 31
0.0
  0
LINE
  5
767E
  8
0
 10
18.76629964407516
 20
-24.7137012583854
 30
0.0
 11
18.76629964407516
 21
-20.18614228838543
 31
0.0
  0
LINE
  5
767F
  8
HIDDEN
 10
18.9572699754583
 20
-24.43106433257991
 30
0.0
 11
19.16199438105826
 21
-24.43106433257991
 31
0.0
  0
LINE
  5
7680
  8
HIDDEN
 10
18.9572699754583
 20
-24.47830842617996
 30
0.0
 11
19.16199438105826
 21
-24.47830842617996
 31
0.0
  0
LINE
  5
7681
  8
HIDDEN
 10
19.02220515107518
 20
-24.33968551738518
 30
0.0
 11
19.16000042407517
 21
-24.33968551738518
 31
0.0
  0
LINE
  5
7682
  8
HIDDEN
 10
19.02220515107518
 20
-24.37905559538522
 30
0.0
 11
19.16000042407517
 21
-24.37905559538522
 31
0.0
  0
LINE
  5
7683
  8
HIDDEN
 10
18.94346499507514
 20
-24.47748079038512
 30
0.0
 11
19.16000042407517
 21
-24.47748079038512
 31
0.0
  0
ARC
  5
7684
  8
0
 10
19.08126026807514
 20
-24.79244141438549
 30
0.0
 40
0.3149606240000011
 50
180.0
 51
270.0
  0
ARC
  5
7685
  8
HIDDEN
 10
18.9572699754583
 20
-24.36019819217982
 30
0.0
 40
0.0708661403999997
 50
180.0
 51
270.0
  0
ARC
  5
7686
  8
HIDDEN
 10
18.9572699754583
 20
-24.36019819217982
 30
0.0
 40
0.1181102339999995
 50
180.0
 51
270.0
  0
LINE
  5
7687
  8
HIDDEN
 10
18.92577391305826
 20
-24.42368053546134
 30
0.0
 11
18.92577391305826
 21
-24.23421394258013
 31
0.0
  0
ARC
  5
7688
  8
HIDDEN
 10
19.02220515107518
 20
-24.28063040038533
 30
0.0
 40
0.0984251950000008
 50
180.0
 51
270.0
  0
ARC
  5
7689
  8
HIDDEN
 10
18.94346499507514
 20
-24.35937055638543
 30
0.0
 40
0.1181102339999995
 50
180.0
 51
270.0
  0
ARC
  5
768A
  8
HIDDEN
 10
19.02220515107518
 20
-24.28063040038533
 30
0.0
 40
0.0590551169999998
 50
180.0
 51
270.0
  0
LINE
  5
768B
  8
HIDDEN
 10
19.4769550050583
 20
-24.74602495657983
 30
0.0
 11
19.4769550050583
 21
-24.93106432317983
 31
0.0
  0
LINE
  5
768C
  8
HIDDEN
 10
19.4297109114583
 20
-24.74602495657983
 30
0.0
 11
19.4297109114583
 21
-24.93106432317983
 31
0.0
  0
LINE
  5
768D
  8
HIDDEN
 10
19.41590593107514
 20
-24.7333862973852
 30
0.0
 11
19.41590593107514
 21
-24.93023668738543
 31
0.0
  0
LINE
  5
768E
  8
HIDDEN
 10
19.51433112607515
 20
-24.7333862973852
 30
0.0
 11
19.51433112607515
 21
-24.85149653138534
 31
0.0
  0
LINE
  5
768F
  8
HIDDEN
 10
19.55370120407513
 20
-24.7333862973852
 30
0.0
 11
19.55370120407513
 21
-24.85149653138534
 31
0.0
  0
ARC
  5
7690
  8
HIDDEN
 10
19.16199438105826
 20
-24.74602495657983
 30
0.0
 40
0.3149606240000011
 50
0.0
 51
90.00000000000003
  0
ARC
  5
7691
  8
HIDDEN
 10
19.16000042407517
 20
-24.7333862973852
 30
0.0
 40
0.3937007799999996
 50
0.0
 51
90.00000000000003
  0
ARC
  5
7692
  8
HIDDEN
 10
19.16000042407517
 20
-24.7333862973852
 30
0.0
 40
0.3543307019999986
 50
0.0
 51
90.00000000000003
  0
ARC
  5
7693
  8
HIDDEN
 10
19.16199438105826
 20
-24.74602495657983
 30
0.0
 40
0.2677165304000013
 50
0.0
 51
90.00000000000003
  0
ARC
  5
7694
  8
HIDDEN
 10
19.16000042407517
 20
-24.7333862973852
 30
0.0
 40
0.2559055070000014
 50
0.0
 51
90.00000000000003
  0
LINE
  5
7695
  8
0
 10
19.08126026807514
 20
-25.10740203838542
 30
0.0
 11
21.60094526007515
 21
-25.10740203838542
 31
0.0
  0
LINE
  5
7696
  8
HIDDEN
 10
19.54782114545827
 20
-25.00193046357991
 30
0.0
 11
20.34110276407517
 21
-25.00193046357991
 31
0.0
  0
LINE
  5
7697
  8
HIDDEN
 10
19.49880579363179
 20
-24.98224542458011
 30
0.0
 11
20.34110276407517
 21
-24.98224542458011
 31
0.0
  0
LINE
  5
7698
  8
HIDDEN
 10
19.53401616507517
 20
-25.04834692138512
 30
0.0
 11
20.34110276407517
 21
-25.04834692138512
 31
0.0
  0
LINE
  5
7699
  8
HIDDEN
 10
19.61275632107515
 20
-24.94992172638523
 30
0.0
 11
20.34110276407517
 21
-24.94992172638523
 31
0.0
  0
LINE
  5
769A
  8
HIDDEN
 10
19.61275632107515
 20
-24.91055164838518
 30
0.0
 11
20.34110276407517
 21
-24.91055164838518
 31
0.0
  0
ARC
  5
769B
  8
HIDDEN
 10
19.54782114545827
 20
-24.93106432317983
 30
0.0
 40
0.0708661403999997
 50
180.0
 51
270.0
  0
ARC
  5
769C
  8
HIDDEN
 10
19.54782114545827
 20
-24.93106432317983
 30
0.0
 40
0.1181102339999995
 50
180.0
 51
270.0
  0
ARC
  5
769D
  8
HIDDEN
 10
19.53401616507517
 20
-24.93023668738543
 30
0.0
 40
0.1181102339999995
 50
180.0
 51
270.0
  0
ARC
  5
769E
  8
HIDDEN
 10
19.61275632107515
 20
-24.85149653138534
 30
0.0
 40
0.0984251950000008
 50
180.0
 51
270.0
  0
ARC
  5
769F
  8
HIDDEN
 10
19.61275632107515
 20
-24.85149653138534
 30
0.0
 40
0.0590551169999998
 50
180.0
 51
270.0
  0
ARC
  5
76A0
  8
0
 10
21.60094526007515
 20
-24.79244141438549
 30
0.0
 40
0.3149606240000011
 50
270.0
 51
0.0
  0
LINE
  5
76A1
  8
0
 10
21.91590588407518
 20
-24.79244141438549
 30
0.0
 11
21.91590588407518
 21
-20.18614228838543
 31
0.0
  0
LINE
  5
76A2
  8
HIDDEN
 10
21.79580169309207
 20
-16.01208638459104
 30
0.0
 11
21.79580169309207
 21
-20.1735036291908
 31
0.0
  0
LINE
  5
76A3
  8
HIDDEN
 10
21.84304578669207
 20
-16.01208638459104
 30
0.0
 11
21.84304578669207
 21
-20.1735036291908
 31
0.0
  0
LINE
  5
76A4
  8
HIDDEN
 10
21.71905549407517
 20
-16.09165417638552
 30
0.0
 11
21.71905549407517
 21
-20.18614228838543
 31
0.0
  0
LINE
  5
76A5
  8
HIDDEN
 10
21.75842557207516
 20
-16.09165417638552
 30
0.0
 11
21.75842557207516
 21
-20.18614228838543
 31
0.0
  0
LINE
  5
76A6
  8
HIDDEN
 10
21.85685076707517
 20
-16.01291402038543
 30
0.0
 11
21.85685076707517
 21
-20.18614228838543
 31
0.0
  0
LINE
  5
76A7
  8
HIDDEN
 10
21.72493555269204
 20
-15.94122024419094
 30
0.0
 11
21.52021114709208
 21
-15.94122024419094
 31
0.0
  0
LINE
  5
76A8
  8
HIDDEN
 10
21.72493555269204
 20
-15.89397615059089
 30
0.0
 11
21.52021114709208
 21
-15.89397615059089
 31
0.0
  0
LINE
  5
76A9
  8
HIDDEN
 10
21.66000037707516
 20
-16.03259905938567
 30
0.0
 11
21.52220510407516
 21
-16.03259905938567
 31
0.0
  0
LINE
  5
76AA
  8
HIDDEN
 10
21.66000037707516
 20
-15.99322898138563
 30
0.0
 11
21.52220510407516
 21
-15.99322898138563
 31
0.0
  0
LINE
  5
76AB
  8
HIDDEN
 10
21.7387405330752
 20
-15.89480378638574
 30
0.0
 11
21.52220510407516
 21
-15.89480378638574
 31
0.0
  0
ARC
  5
76AC
  8
HIDDEN
 10
21.72493555269204
 20
-16.01208638459104
 30
0.0
 40
0.0708661403999997
 50
0.0
 51
89.99999999999999
  0
ARC
  5
76AD
  8
HIDDEN
 10
21.72493555269204
 20
-16.01208638459104
 30
0.0
 40
0.1181102339999995
 50
0.0
 51
89.99999999999999
  0
LINE
  5
76AE
  8
HIDDEN
 10
21.75643161509208
 20
-15.94860404130952
 30
0.0
 11
21.75643161509208
 21
-16.13807063419074
 31
0.0
  0
ARC
  5
76AF
  8
HIDDEN
 10
21.66000037707516
 20
-16.09165417638552
 30
0.0
 40
0.0984251950000008
 50
0.0
 51
89.99999999999999
  0
ARC
  5
76B0
  8
HIDDEN
 10
21.7387405330752
 20
-16.01291402038543
 30
0.0
 40
0.1181102339999995
 50
0.0
 51
89.99999999999999
  0
ARC
  5
76B1
  8
HIDDEN
 10
21.66000037707516
 20
-16.09165417638552
 30
0.0
 40
0.0590551169999998
 50
0.0
 51
89.99999999999999
  0
ARC
  5
76B2
  8
HIDDEN
 10
21.52021114709208
 20
-15.62625962019102
 30
0.0
 40
0.3149606240000011
 50
180.0
 51
270.0
  0
ARC
  5
76B3
  8
HIDDEN
 10
21.52220510407516
 20
-15.63889827938566
 30
0.0
 40
0.3937007799999996
 50
180.0
 51
270.0
  0
ARC
  5
76B4
  8
HIDDEN
 10
21.52220510407516
 20
-15.63889827938566
 30
0.0
 40
0.3543307019999986
 50
180.0
 51
270.0
  0
ARC
  5
76B5
  8
HIDDEN
 10
21.52021114709208
 20
-15.62625962019102
 30
0.0
 40
0.2677165304000013
 50
180.0
 51
270.0
  0
ARC
  5
76B6
  8
HIDDEN
 10
21.52220510407516
 20
-15.63889827938566
 30
0.0
 40
0.2559055070000014
 50
180.0
 51
270.0
  0
LINE
  5
76B7
  8
HIDDEN
 10
21.20525052309204
 20
-15.62625962019102
 30
0.0
 11
21.20525052309204
 21
-15.44122025359103
 31
0.0
  0
LINE
  5
76B8
  8
HIDDEN
 10
21.25249461669204
 20
-15.62625962019102
 30
0.0
 11
21.25249461669204
 21
-15.44122025359103
 31
0.0
  0
LINE
  5
76B9
  8
HIDDEN
 10
21.2662995970752
 20
-15.63889827938566
 30
0.0
 11
21.2662995970752
 21
-15.44204788938542
 31
0.0
  0
LINE
  5
76BA
  8
HIDDEN
 10
21.1678744020752
 20
-15.63889827938566
 30
0.0
 11
21.1678744020752
 21
-15.52078804538552
 31
0.0
  0
LINE
  5
76BB
  8
HIDDEN
 10
21.1285043240752
 20
-15.63889827938566
 30
0.0
 11
21.1285043240752
 21
-15.52078804538552
 31
0.0
  0
LINE
  5
76BC
  8
HIDDEN
 10
21.13438438269207
 20
-15.37035411319095
 30
0.0
 11
20.34110276407517
 21
-15.37035411319095
 31
0.0
  0
LINE
  5
76BD
  8
HIDDEN
 10
21.18339973451856
 20
-15.39003915219075
 30
0.0
 11
20.34110276407517
 21
-15.39003915219075
 31
0.0
  0
LINE
  5
76BE
  8
HIDDEN
 10
21.14818936307517
 20
-15.32393765538573
 30
0.0
 11
20.34110276407517
 21
-15.32393765538573
 31
0.0
  0
LINE
  5
76BF
  8
HIDDEN
 10
21.06944920707519
 20
-15.42236285038562
 30
0.0
 11
20.34110276407517
 21
-15.42236285038562
 31
0.0
  0
LINE
  5
76C0
  8
HIDDEN
 10
21.06944920707519
 20
-15.46173292838568
 30
0.0
 11
20.34110276407517
 21
-15.46173292838568
 31
0.0
  0
ARC
  5
76C1
  8
HIDDEN
 10
21.13438438269207
 20
-15.44122025359103
 30
0.0
 40
0.0708661403999997
 50
0.0
 51
89.99999999999999
  0
ARC
  5
76C2
  8
HIDDEN
 10
21.13438438269207
 20
-15.44122025359103
 30
0.0
 40
0.1181102339999995
 50
0.0
 51
89.99999999999999
  0
ARC
  5
76C3
  8
HIDDEN
 10
21.14818936307517
 20
-15.44204788938542
 30
0.0
 40
0.1181102339999995
 50
0.0
 51
89.99999999999999
  0
ARC
  5
76C4
  8
HIDDEN
 10
21.06944920707519
 20
-15.52078804538552
 30
0.0
 40
0.0984251950000008
 50
0.0
 51
89.99999999999999
  0
ARC
  5
76C5
  8
HIDDEN
 10
21.06944920707519
 20
-15.52078804538552
 30
0.0
 40
0.0590551169999998
 50
0.0
 51
89.99999999999999
  0
LINE
  5
76C6
  8
HIDDEN
 10
21.85685076707517
 20
-24.35937055638543
 30
0.0
 11
21.85685076707517
 21
-20.18614228838543
 31
0.0
  0
LINE
  5
76C7
  8
HIDDEN
 10
21.75842557207516
 20
-24.28063040038533
 30
0.0
 11
21.75842557207516
 21
-20.18614228838543
 31
0.0
  0
LINE
  5
76C8
  8
HIDDEN
 10
21.71905549407517
 20
-24.28063040038533
 30
0.0
 11
21.71905549407517
 21
-20.18614228838543
 31
0.0
  0
LINE
  5
76C9
  8
HIDDEN
 10
21.84304578669207
 20
-24.36019819217982
 30
0.0
 11
21.84304578669207
 21
-20.19878094758007
 31
0.0
  0
LINE
  5
76CA
  8
HIDDEN
 10
21.79580169309207
 20
-24.36019819217982
 30
0.0
 11
21.79580169309207
 21
-20.19878094758007
 31
0.0
  0
LINE
  5
76CB
  8
HIDDEN
 10
21.75643161509208
 20
-24.42368053546134
 30
0.0
 11
21.75643161509208
 21
-24.23421394258013
 31
0.0
  0
ARC
  5
76CC
  8
HIDDEN
 10
21.52220510407516
 20
-24.7333862973852
 30
0.0
 40
0.2559055069999978
 50
90.0
 51
180.0
  0
ARC
  5
76CD
  8
HIDDEN
 10
21.52021114709208
 20
-24.74602495657983
 30
0.0
 40
0.2677165304000013
 50
90.0
 51
180.0
  0
ARC
  5
76CE
  8
HIDDEN
 10
21.52220510407516
 20
-24.7333862973852
 30
0.0
 40
0.3543307019999986
 50
90.0
 51
180.0
  0
ARC
  5
76CF
  8
HIDDEN
 10
21.52220510407516
 20
-24.7333862973852
 30
0.0
 40
0.3937007799999996
 50
90.0
 51
180.0
  0
ARC
  5
76D0
  8
HIDDEN
 10
21.52021114709208
 20
-24.74602495657983
 30
0.0
 40
0.3149606240000011
 50
90.0
 51
180.0
  0
ARC
  5
76D1
  8
HIDDEN
 10
21.7387405330752
 20
-24.35937055638543
 30
0.0
 40
0.1181102339999995
 50
270.0
 51
0.0
  0
ARC
  5
76D2
  8
HIDDEN
 10
21.72493555269204
 20
-24.36019819217982
 30
0.0
 40
0.1181102339999995
 50
270.0
 51
0.0
  0
LINE
  5
76D3
  8
HIDDEN
 10
21.7387405330752
 20
-24.47748079038512
 30
0.0
 11
21.52220510407516
 21
-24.47748079038512
 31
0.0
  0
LINE
  5
76D4
  8
HIDDEN
 10
21.72493555269204
 20
-24.47830842617996
 30
0.0
 11
21.52021114709208
 21
-24.47830842617996
 31
0.0
  0
LINE
  5
76D5
  8
HIDDEN
 10
21.66000037707516
 20
-24.37905559538522
 30
0.0
 11
21.52220510407516
 21
-24.37905559538522
 31
0.0
  0
LINE
  5
76D6
  8
HIDDEN
 10
21.66000037707516
 20
-24.33968551738518
 30
0.0
 11
21.52220510407516
 21
-24.33968551738518
 31
0.0
  0
LINE
  5
76D7
  8
HIDDEN
 10
21.72493555269204
 20
-24.43106433257991
 30
0.0
 11
21.52021114709208
 21
-24.43106433257991
 31
0.0
  0
ARC
  5
76D8
  8
HIDDEN
 10
21.66000037707516
 20
-24.28063040038533
 30
0.0
 40
0.0590551169999998
 50
270.0
 51
0.0
  0
ARC
  5
76D9
  8
HIDDEN
 10
21.66000037707516
 20
-24.28063040038533
 30
0.0
 40
0.0984251950000008
 50
270.0
 51
0.0
  0
ARC
  5
76DA
  8
HIDDEN
 10
21.72493555269204
 20
-24.36019819217982
 30
0.0
 40
0.0708661403999997
 50
270.0
 51
0.0
  0
ARC
  5
76DB
  8
HIDDEN
 10
21.06944920707519
 20
-24.85149653138534
 30
0.0
 40
0.0590551169999998
 50
270.0
 51
0.0
  0
ARC
  5
76DC
  8
HIDDEN
 10
21.06944920707519
 20
-24.85149653138534
 30
0.0
 40
0.0984251950000008
 50
270.0
 51
0.0
  0
LINE
  5
76DD
  8
HIDDEN
 10
21.2662995970752
 20
-24.7333862973852
 30
0.0
 11
21.2662995970752
 21
-24.93023668738543
 31
0.0
  0
LINE
  5
76DE
  8
HIDDEN
 10
21.25249461669204
 20
-24.74602495657983
 30
0.0
 11
21.25249461669204
 21
-24.93106432317983
 31
0.0
  0
LINE
  5
76DF
  8
HIDDEN
 10
21.20525052309204
 20
-24.74602495657983
 30
0.0
 11
21.20525052309204
 21
-24.93106432317983
 31
0.0
  0
LINE
  5
76E0
  8
HIDDEN
 10
21.06944920707519
 20
-24.91055164838518
 30
0.0
 11
20.34110276407517
 21
-24.91055164838518
 31
0.0
  0
LINE
  5
76E1
  8
HIDDEN
 10
21.06944920707519
 20
-24.94992172638523
 30
0.0
 11
20.34110276407517
 21
-24.94992172638523
 31
0.0
  0
LINE
  5
76E2
  8
HIDDEN
 10
21.18339973451856
 20
-24.98224542458011
 30
0.0
 11
20.34110276407517
 21
-24.98224542458011
 31
0.0
  0
LINE
  5
76E3
  8
HIDDEN
 10
21.13438438269207
 20
-25.00193046357991
 30
0.0
 11
20.34110276407517
 21
-25.00193046357991
 31
0.0
  0
ARC
  5
76E4
  8
HIDDEN
 10
21.14818936307517
 20
-24.93023668738543
 30
0.0
 40
0.1181102339999995
 50
270.0
 51
0.0
  0
ARC
  5
76E5
  8
HIDDEN
 10
21.13438438269207
 20
-24.93106432317983
 30
0.0
 40
0.1181102339999995
 50
270.0
 51
0.0
  0
ARC
  5
76E6
  8
HIDDEN
 10
21.13438438269207
 20
-24.93106432317983
 30
0.0
 40
0.0708661403999997
 50
270.0
 51
0.0
  0
LINE
  5
76E7
  8
HIDDEN
 10
21.1285043240752
 20
-24.7333862973852
 30
0.0
 11
21.1285043240752
 21
-24.85149653138534
 31
0.0
  0
LINE
  5
76E8
  8
HIDDEN
 10
21.1678744020752
 20
-24.7333862973852
 30
0.0
 11
21.1678744020752
 21
-24.85149653138534
 31
0.0
  0
LINE
  5
76E9
  8
HIDDEN
 10
21.14818936307517
 20
-25.04834692138512
 30
0.0
 11
20.34110276407517
 21
-25.04834692138512
 31
0.0
  0
CIRCLE
  5
76EA
  8
_2D_DELETED_OBJS
 10
19.12063034607518
 20
-15.61931905384825
 30
0.0
 40
0.2198818856300022
  0
LINE
  5
76EB
  8
_2D_DELETED_OBJS
 10
19.08126026807518
 20
-15.7716928968183
 30
0.0
 11
19.08126026807518
 21
-15.73742928784825
 31
0.0
  0
LINE
  5
76EC
  8
_2D_DELETED_OBJS
 10
19.16000042407518
 20
-15.7716928968183
 30
0.0
 11
19.16000042407518
 21
-15.73742928784825
 31
0.0
  0
LINE
  5
76ED
  8
_2D_DELETED_OBJS
 10
19.27313728427136
 20
-15.57994897584826
 30
0.0
 11
19.23874058007518
 21
-15.57994897584826
 31
0.0
  0
LINE
  5
76EE
  8
_2D_DELETED_OBJS
 10
19.27308264242006
 20
-15.65868913184826
 30
0.0
 11
19.23874058007518
 21
-15.65868913184826
 31
0.0
  0
ARC
  5
76EF
  8
_2D_DELETED_OBJS
 10
19.12063034607518
 20
-15.61921324038541
 30
0.0
 40
0.1574803119999874
 50
345.4827237648233
 51
14.43775526086912
  0
ARC
  5
76F0
  8
_2D_DELETED_OBJS
 10
19.12063034607518
 20
-15.61921324038541
 30
0.0
 40
0.1574803120000047
 50
255.5224878140701
 51
284.4775121859291
  0
ARC
  5
76F1
  8
_2D_DELETED_OBJS
 10
19.12063034607518
 20
-15.61921324038541
 30
0.0
 40
0.1574803120000092
 50
165.5622447391302
 51
194.5172762351762
  0
ARC
  5
76F2
  8
_2D_DELETED_OBJS
 10
19.12063034607518
 20
-15.61921324038541
 30
0.0
 40
0.1574803120000047
 50
75.52248781407015
 51
104.4775121859292
  0
LINE
  5
76F3
  8
_2D_DELETED_OBJS
 10
19.08126026807518
 20
-15.50120881984826
 30
0.0
 11
19.08126026807518
 21
-15.46673358395251
 31
0.0
  0
LINE
  5
76F4
  8
_2D_DELETED_OBJS
 10
19.16000042407518
 20
-15.50120881984826
 30
0.0
 11
19.16000042407518
 21
-15.46673358395251
 31
0.0
  0
LINE
  5
76F5
  8
_2D_DELETED_OBJS
 10
19.00252011207518
 20
-15.57994897584826
 30
0.0
 11
18.96812340787899
 21
-15.57994897584826
 31
0.0
  0
LINE
  5
76F6
  8
_2D_DELETED_OBJS
 10
19.00252011207518
 20
-15.65868913184826
 30
0.0
 11
18.96817804973029
 21
-15.65868913184826
 31
0.0
  0
ARC
  5
76F7
  8
_2D_DELETED_OBJS
 10
19.00252011207518
 20
-15.50120881984826
 30
0.0
 40
0.0787401559999985
 50
270.0
 51
0.0
  0
ARC
  5
76F8
  8
_2D_DELETED_OBJS
 10
19.23874058007518
 20
-15.50120881984826
 30
0.0
 40
0.0787401559999985
 50
180.0
 51
270.0
  0
ARC
  5
76F9
  8
_2D_DELETED_OBJS
 10
19.23874058007518
 20
-15.73742928784825
 30
0.0
 40
0.0787401559999985
 50
90.0
 51
180.0
  0
ARC
  5
76FA
  8
_2D_DELETED_OBJS
 10
19.00252011207518
 20
-15.73742928784825
 30
0.0
 40
0.0787401559999985
 50
0.0
 51
90.0
  0
ARC
  5
76FB
  8
_2D_DELETED_OBJS
 10
21.67968541607515
 20
-15.50120881984826
 30
0.0
 40
0.0787401559999985
 50
180.0
 51
270.0
  0
ARC
  5
76FC
  8
_2D_DELETED_OBJS
 10
21.67968541607515
 20
-15.73742928784825
 30
0.0
 40
0.0787401559999985
 50
90.0
 51
180.0
  0
CIRCLE
  5
76FD
  8
_2D_DELETED_OBJS
 10
21.56157518207515
 20
-15.61931905384825
 30
0.0
 40
0.2198818856300022
  0
ARC
  5
76FE
  8
_2D_DELETED_OBJS
 10
21.56157518207515
 20
-15.61921324038541
 30
0.0
 40
0.1574803120000089
 50
345.482723764824
 51
14.43775526086983
  0
LINE
  5
76FF
  8
_2D_DELETED_OBJS
 10
21.67968541607515
 20
-15.65868913184826
 30
0.0
 11
21.71402747842005
 21
-15.65868913184826
 31
0.0
  0
LINE
  5
7700
  8
_2D_DELETED_OBJS
 10
21.67968541607515
 20
-15.57994897584826
 30
0.0
 11
21.71408212027134
 21
-15.57994897584826
 31
0.0
  0
ARC
  5
7701
  8
_2D_DELETED_OBJS
 10
21.44346494807515
 20
-15.50120881984826
 30
0.0
 40
0.0787401559999985
 50
270.0
 51
0.0
  0
ARC
  5
7702
  8
_2D_DELETED_OBJS
 10
21.56157518207515
 20
-15.61921324038541
 30
0.0
 40
0.1574803119999868
 50
165.5622447391308
 51
194.5172762351767
  0
ARC
  5
7703
  8
_2D_DELETED_OBJS
 10
21.44346494807515
 20
-15.73742928784825
 30
0.0
 40
0.0787401559999985
 50
0.0
 51
89.99999999999999
  0
LINE
  5
7704
  8
_2D_DELETED_OBJS
 10
21.52220510407516
 20
-15.7716928968183
 30
0.0
 11
21.52220510407516
 21
-15.73742928784825
 31
0.0
  0
LINE
  5
7705
  8
_2D_DELETED_OBJS
 10
21.60094526007516
 20
-15.7716928968183
 30
0.0
 11
21.60094526007516
 21
-15.73742928784825
 31
0.0
  0
ARC
  5
7706
  8
_2D_DELETED_OBJS
 10
21.56157518207515
 20
-15.61921324038541
 30
0.0
 40
0.1574803120000047
 50
255.5224878140701
 51
284.477512185929
  0
LINE
  5
7707
  8
_2D_DELETED_OBJS
 10
21.40912288573028
 20
-15.65868913184826
 30
0.0
 11
21.44346494807515
 21
-15.65868913184826
 31
0.0
  0
LINE
  5
7708
  8
_2D_DELETED_OBJS
 10
21.40906824387899
 20
-15.57994897584826
 30
0.0
 11
21.44346494807515
 21
-15.57994897584826
 31
0.0
  0
LINE
  5
7709
  8
_2D_DELETED_OBJS
 10
21.52220510407516
 20
-15.50120881984826
 30
0.0
 11
21.52220510407516
 21
-15.46673358395251
 31
0.0
  0
LINE
  5
770A
  8
_2D_DELETED_OBJS
 10
21.60094526007516
 20
-15.50120881984826
 30
0.0
 11
21.60094526007516
 21
-15.46673358395251
 31
0.0
  0
ARC
  5
770B
  8
_2D_DELETED_OBJS
 10
21.56157518207515
 20
-15.61921324038541
 30
0.0
 40
0.1574803120000047
 50
75.52248781407015
 51
104.4775121859291
  0
ARC
  5
770C
  8
_2D_DELETED_OBJS
 10
19.00252011207518
 20
-24.8710757569226
 30
0.0
 40
0.0787401559999985
 50
0.0
 51
90.00000000000003
  0
ARC
  5
770D
  8
_2D_DELETED_OBJS
 10
19.00252011207518
 20
-24.6348552889226
 30
0.0
 40
0.0787401560000021
 50
270.0
 51
0.0
  0
CIRCLE
  5
770E
  8
_2D_DELETED_OBJS
 10
19.12063034607518
 20
-24.7529655229226
 30
0.0
 40
0.2198818856300022
  0
ARC
  5
770F
  8
_2D_DELETED_OBJS
 10
19.12063034607518
 20
-24.75307133638545
 30
0.0
 40
0.1574803120000089
 50
165.482723764824
 51
194.4377552608698
  0
LINE
  5
7710
  8
_2D_DELETED_OBJS
 10
19.00252011207518
 20
-24.7135954449226
 30
0.0
 11
18.96817804973029
 21
-24.7135954449226
 31
0.0
  0
LINE
  5
7711
  8
_2D_DELETED_OBJS
 10
19.00252011207518
 20
-24.7923356009226
 30
0.0
 11
18.96812340787899
 21
-24.7923356009226
 31
0.0
  0
ARC
  5
7712
  8
_2D_DELETED_OBJS
 10
19.23874058007518
 20
-24.8710757569226
 30
0.0
 40
0.0787401560000021
 50
90.0
 51
180.0
  0
ARC
  5
7713
  8
_2D_DELETED_OBJS
 10
19.12063034607518
 20
-24.75307133638545
 30
0.0
 40
0.1574803119999877
 50
345.5622447391295
 51
14.51727623517538
  0
ARC
  5
7714
  8
_2D_DELETED_OBJS
 10
19.23874058007518
 20
-24.6348552889226
 30
0.0
 40
0.0787401559999985
 50
180.0
 51
270.0
  0
LINE
  5
7715
  8
_2D_DELETED_OBJS
 10
19.16000042407518
 20
-24.60059167995255
 30
0.0
 11
19.16000042407518
 21
-24.6348552889226
 31
0.0
  0
LINE
  5
7716
  8
_2D_DELETED_OBJS
 10
19.08126026807518
 20
-24.60059167995255
 30
0.0
 11
19.08126026807518
 21
-24.6348552889226
 31
0.0
  0
ARC
  5
7717
  8
_2D_DELETED_OBJS
 10
19.12063034607518
 20
-24.75307133638545
 30
0.0
 40
0.1574803120000047
 50
75.52248781407015
 51
104.4775121859291
  0
LINE
  5
7718
  8
_2D_DELETED_OBJS
 10
19.27308264242006
 20
-24.7135954449226
 30
0.0
 11
19.23874058007518
 21
-24.7135954449226
 31
0.0
  0
LINE
  5
7719
  8
_2D_DELETED_OBJS
 10
19.27313728427136
 20
-24.7923356009226
 30
0.0
 11
19.23874058007518
 21
-24.7923356009226
 31
0.0
  0
LINE
  5
771A
  8
_2D_DELETED_OBJS
 10
19.16000042407518
 20
-24.8710757569226
 30
0.0
 11
19.16000042407518
 21
-24.90555099281834
 31
0.0
  0
LINE
  5
771B
  8
_2D_DELETED_OBJS
 10
19.08126026807518
 20
-24.8710757569226
 30
0.0
 11
19.08126026807518
 21
-24.90555099281834
 31
0.0
  0
ARC
  5
771C
  8
_2D_DELETED_OBJS
 10
19.12063034607518
 20
-24.75307133638545
 30
0.0
 40
0.1574803120000082
 50
255.5224878140705
 51
284.4775121859295
  0
ARC
  5
771D
  8
_2D_DELETED_OBJS
 10
21.56157518207515
 20
-24.75307133638545
 30
0.0
 40
0.1574803119999865
 50
165.4827237648246
 51
194.4377552608705
  0
ARC
  5
771E
  8
_2D_DELETED_OBJS
 10
21.44346494807515
 20
-24.8710757569226
 30
0.0
 40
0.0787401559999985
 50
0.0
 51
90.00000000000003
  0
ARC
  5
771F
  8
_2D_DELETED_OBJS
 10
21.56157518207515
 20
-24.75307133638545
 30
0.0
 40
0.1574803120000092
 50
345.5622447391302
 51
14.5172762351761
  0
CIRCLE
  5
7720
  8
_2D_DELETED_OBJS
 10
21.56157518207515
 20
-24.7529655229226
 30
0.0
 40
0.2198818856300022
  0
ARC
  5
7721
  8
_2D_DELETED_OBJS
 10
21.67968541607515
 20
-24.8710757569226
 30
0.0
 40
0.0787401560000021
 50
90.0
 51
180.0
  0
LINE
  5
7722
  8
_2D_DELETED_OBJS
 10
21.40912288573028
 20
-24.7135954449226
 30
0.0
 11
21.44346494807515
 21
-24.7135954449226
 31
0.0
  0
ARC
  5
7723
  8
_2D_DELETED_OBJS
 10
21.56157518207515
 20
-24.75307133638545
 30
0.0
 40
0.1574803120000047
 50
75.52248781407015
 51
104.477512185929
  0
LINE
  5
7724
  8
_2D_DELETED_OBJS
 10
21.60094526007516
 20
-24.60059167995255
 30
0.0
 11
21.60094526007516
 21
-24.6348552889226
 31
0.0
  0
LINE
  5
7725
  8
_2D_DELETED_OBJS
 10
21.52220510407516
 20
-24.60059167995255
 30
0.0
 11
21.52220510407516
 21
-24.6348552889226
 31
0.0
  0
ARC
  5
7726
  8
_2D_DELETED_OBJS
 10
21.44346494807515
 20
-24.6348552889226
 30
0.0
 40
0.0787401560000021
 50
270.0
 51
0.0
  0
LINE
  5
7727
  8
_2D_DELETED_OBJS
 10
21.67968541607515
 20
-24.7135954449226
 30
0.0
 11
21.71402747842005
 21
-24.7135954449226
 31
0.0
  0
ARC
  5
7728
  8
_2D_DELETED_OBJS
 10
21.67968541607515
 20
-24.6348552889226
 30
0.0
 40
0.0787401559999985
 50
180.0
 51
270.0
  0
LINE
  5
7729
  8
_2D_DELETED_OBJS
 10
21.40906824387899
 20
-24.7923356009226
 30
0.0
 11
21.44346494807515
 21
-24.7923356009226
 31
0.0
  0
ARC
  5
772A
  8
_2D_DELETED_OBJS
 10
21.56157518207515
 20
-24.75307133638545
 30
0.0
 40
0.1574803120000082
 50
255.5224878140705
 51
284.4775121859294
  0
LINE
  5
772B
  8
_2D_DELETED_OBJS
 10
21.60094526007516
 20
-24.8710757569226
 30
0.0
 11
21.60094526007516
 21
-24.90555099281834
 31
0.0
  0
LINE
  5
772C
  8
_2D_DELETED_OBJS
 10
21.52220510407516
 20
-24.8710757569226
 30
0.0
 11
21.52220510407516
 21
-24.90555099281834
 31
0.0
  0
LINE
  5
772D
  8
_2D_DELETED_OBJS
 10
21.67968541607515
 20
-24.7923356009226
 30
0.0
 11
21.71408212027134
 21
-24.7923356009226
 31
0.0
  0
INSERT
  5
772F
  8
OBJECT
  2
*X45
 10
0.7507191106364175
 20
0.0
 30
0.0
  0
LINE
  5
7732
  8
CENTER
 10
20.34110276407517
 20
-15.26488253838544
 30
0.0
 11
20.34110276407517
 21
-25.10740203838542
 31
0.0
  0
TEXT
  5
77A0
  8
OBJECT
 10
0.5864390501803312
 20
-29.97834995341641
 30
0.0
 40
0.2496000000000009
  1
6- ALL OTHER DIMENSIONS HAVE %%p0.03[0.76] TOLERANCE
 41
0.75
  7
TXT
  0
TEXT
  5
77A1
  8
OBJECT
 10
2.933605248324773
 20
-27.61771417341853
 30
0.0
 40
0.2496000000000009
  1
COVER - GRAY POLYCARBONATE
 41
0.75
  7
TXT
  0
TEXT
  5
77A2
  8
OBJECT
 10
0.5864390501803314
 20
-28.06513466699253
 30
0.0
 40
0.2496000000000009
  1
2- IP-67 TUV AND UL-94V0 RATING
 41
0.75
  7
TXT
  0
TEXT
  5
77A3
  8
OBJECT
 10
0.5864390501803314
 20
-28.55528826600794
 30
0.0
 40
0.2496000000000009
  1
3- UL508/NEMA TYPE 4X AND TYPE 6 LISTED #E343339
 41
0.75
  7
TXT
  0
TEXT
  5
77A5
  8
OBJECT
 10
0.5864390501803313
 20
-29.46706065456174
 30
0.0
 40
0.2496000000000009
  1
5- FOUR NON-METALLIC CAPTIVE SCREWS PROVIDED
 41
0.75
  7
TXT
  0
TEXT
  5
77A6
  8
OBJECT
 10
0.5864390501803314
 20
-27.19688960144162
 30
0.0
 40
0.2496000000000009
  1
1- MATERIAL:  BODY- GRAY POLYCARBONATE, 10% GLASS FIBER FILLED
 41
0.75
  7
TXT
  0
TEXT
  5
77A7
  8
OBJECT
 10
0.5864390501803314
 20
-29.00337331960603
 30
0.0
 40
0.2496000000000009
  1
4- CONTINUOUS GASKET IN COVER
 41
0.75
  7
TXT
  0
TEXT
  5
77A8
  8
OBJECT
 10
0.5864390501803313
 20
-30.85099266470435
 30
0.0
 40
0.2496000000000009
  1
7- DIMENSIONS ARE INCH[MM]
 41
0.75
  7
TXT
  0
TEXT
  5
77A9
  8
OBJECT
 10
0.5864390501803312
 20
-30.4264350070145
 30
0.0
 40
0.2496000000000009
  1
   UNLESS OTHERWISE SPECIFIED
 41
0.75
  7
TXT
  0
TEXT
  5
77AA
  8
OBJECT
 10
0.5864390501803314
 20
-26.64542333000286
 30
0.0
 40
0.2496000000000009
  1
NOTES:
 41
0.75
  7
TXT
  0
DIMENSION
  5
77AB
  8
OBJECT
  2
*D15
 10
20.40608884585827
 20
-13.98740093471163
 30
0.0
 11
21.97796384585827
 21
-13.98740093471163
 31
0.0
 70
    32
  3
23NSTDI
 13
20.28010459625829
 23
-16.72074778859098
 33
0.0
 14
20.40608884585827
 24
-16.72074778859098
 34
0.0
  0
CIRCLE
  5
77DF
  8
OBJECT
 10
20.34114238636169
 20
-29.59170503238794
 30
0.0
 40
0.4340000000000011
  0
CIRCLE
  5
77E0
  8
OBJECT
 10
20.34114238636169
 20
-29.59170503238794
 30
0.0
 40
0.3840000000000003
  0
TEXT
  5
77E8
  8
OBJECT
 10
27.74022421806439
 20
-26.14250917556438
 30
0.0
 40
0.2496000000000009
  1
SECTION A-A
 41
0.75
  7
TXT
  0
LINE
  5
77E9
  8
HIDDEN
 10
28.05395371600256
 20
-15.41246250608321
 30
0.0
 11
27.36497981163238
 21
-15.41246250608321
 31
0.0
  0
LINE
  5
77EA
  8
HIDDEN
 10
27.36497981163238
 20
-15.39277795920918
 30
0.0
 11
26.95304783963912
 21
-15.39277795920918
 31
0.0
  0
LINE
  5
77EB
  8
HIDDEN
 10
27.36497981163238
 20
-15.84552253731191
 30
0.0
 11
27.36497981163238
 21
-15.39277795920918
 31
0.0
  0
LINE
  5
77EC
  8
HIDDEN
 10
28.05395371600256
 20
-15.83568026387466
 30
0.0
 11
28.05395371600256
 21
-15.40262023264597
 31
0.0
  0
LINE
  5
77ED
  8
HIDDEN
 10
28.32953737223884
 20
-15.40262023264597
 30
0.0
 11
28.05395371600256
 21
-15.40262023264597
 31
0.0
  0
LINE
  5
77EE
  8
HIDDEN
 10
28.05395371600256
 20
-15.82583799043742
 30
0.0
 11
27.36497981163238
 21
-15.82583799043789
 31
0.0
  0
LINE
  5
77EF
  8
HIDDEN
 10
27.36497981163238
 20
-15.84552253731191
 30
0.0
 11
26.95160432727792
 21
-15.84552253731191
 31
0.0
  0
LINE
  5
77F0
  8
HIDDEN
 10
28.32953737223884
 20
-15.83568026387466
 30
0.0
 11
28.05395371600256
 21
-15.83568026387466
 31
0.0
  0
LINE
  5
77F1
  8
CENTER
 10
30.33741135023886
 20
-15.61915024826031
 30
0.0
 11
26.95160432727792
 21
-15.61915024826031
 31
0.0
  0
ARC
  5
77F2
  8
0
 10
27.0303444832779
 20
-15.40778599202769
 30
0.0
 40
0.0787401559999985
 50
91.99999999999196
 51
179.9999999999997
  0
LINE
  5
77F3
  8
0
 10
28.40827555973502
 20
-15.46167387326805
 30
0.0
 11
28.32953737223884
 21
-15.46167387326805
 31
0.0
  0
LINE
  5
77F4
  8
0
 10
28.40827555973502
 20
-15.42230477951999
 30
0.0
 11
28.32953737223884
 21
-15.42230477951999
 31
0.0
  0
LINE
  5
77F5
  8
0
 10
28.32953737223884
 20
-15.26482840452774
 30
0.0
 11
28.13269190349863
 21
-15.27514463840645
 31
0.0
  0
LINE
  5
77F6
  8
0
 10
28.23111217723883
 20
-15.42230477951999
 30
0.0
 11
28.23111217723883
 21
-15.32388204515028
 31
0.0
  0
LINE
  5
77F7
  8
0
 10
28.32953737223884
 20
-15.32388204515028
 30
0.0
 11
28.23111217723883
 21
-15.32388204515028
 31
0.0
  0
LINE
  5
77F8
  8
0
 10
28.32953737223884
 20
-15.42230477951999
 30
0.0
 11
28.23111217723883
 21
-15.42230477951999
 31
0.0
  0
LINE
  5
77F9
  8
0
 10
26.95160432727792
 20
-20.18614228838543
 30
0.0
 11
26.95160432727792
 21
-15.40778599202769
 31
0.0
  0
LINE
  5
77FA
  8
0
 10
28.13269190349864
 20
-15.31112552153365
 30
0.0
 11
28.13269190349863
 21
-15.27514463840645
 31
0.0
  0
LINE
  5
77FB
  8
0
 10
28.40827555973502
 20
-17.43012856067082
 30
0.0
 11
28.40827555973502
 21
-15.42230477951999
 31
0.0
  0
LINE
  5
77FC
  8
_2D_DELETED_OBJS
 10
28.13269190349863
 20
-15.31112552153365
 30
0.0
 11
27.02759649146325
 21
-15.32909380240299
 31
0.0
  0
LINE
  5
77FD
  8
_2D_DELETED_OBJS
 10
28.32953737223884
 20
-15.46167387326805
 30
0.0
 11
27.11191624808195
 21
-15.47280941095722
 31
0.0
  0
LINE
  5
77FE
  8
0
 10
28.44764760623886
 20
-15.42225458267067
 30
0.0
 11
28.44764760623886
 21
-20.18614228838543
 31
0.0
  0
LINE
  5
77FF
  8
0
 10
28.52638776223884
 20
-15.28755474095907
 30
0.0
 11
28.52638776223884
 21
-15.31731359425531
 31
0.0
  0
LINE
  5
7800
  8
0
 10
30.33741135023886
 20
-16.09296913738573
 30
0.0
 11
30.33741135023886
 21
-16.4472998393857
 31
0.0
  0
LINE
  5
7801
  8
0
 10
29.84693103823884
 20
-16.09296913738573
 30
0.0
 11
29.84693103823884
 21
-16.4472998393857
 31
0.0
  0
LINE
  5
7802
  8
CENTER
 10
29.83512001483888
 20
-16.27013448838571
 30
0.0
 11
30.3256003268389
 21
-16.27013448838571
 31
0.0
  0
LINE
  5
7803
  8
0
 10
30.29804127223887
 20
-16.07328409838548
 30
0.0
 11
30.31772631123883
 21
-16.07328409838548
 31
0.0
  0
ARC
  5
7804
  8
0
 10
30.31772631123883
 20
-16.09296913738573
 30
0.0
 40
0.0196850390000023
 50
0.0
 51
90.0
  0
LINE
  5
7805
  8
0
 10
29.86661607723886
 20
-16.07328409838548
 30
0.0
 11
30.16193103823884
 21
-16.07328409838548
 31
0.0
  0
ARC
  5
7806
  8
0
 10
29.86661607723886
 20
-16.09296913738573
 30
0.0
 40
0.0196850389999987
 50
90.0
 51
180.0
  0
LINE
  5
7807
  8
0
 10
30.29804127223887
 20
-16.4669848783855
 30
0.0
 11
30.31772631123883
 21
-16.4669848783855
 31
0.0
  0
ARC
  5
7808
  8
0
 10
30.31772631123883
 20
-16.4472998393857
 30
0.0
 40
0.0196850389999987
 50
270.0
 51
0.0
  0
LINE
  5
7809
  8
0
 10
29.86661607723886
 20
-16.4669848783855
 30
0.0
 11
30.16193103823884
 21
-16.4669848783855
 31
0.0
  0
ARC
  5
780A
  8
0
 10
29.86661607723886
 20
-16.4472998393857
 30
0.0
 40
0.0196850389999952
 50
180.0
 51
270.0
  0
LINE
  5
780B
  8
0
 10
30.29804127223887
 20
-16.4669848783855
 30
0.0
 11
30.29804127223887
 21
-17.45112856067082
 31
0.0
  0
ARC
  5
780C
  8
0
 10
30.25867119423888
 20
-15.38692678920199
 30
0.0
 40
0.0393700780000046
 50
0.0
 51
89.00000000006096
  0
LINE
  5
780D
  8
0
 10
28.52638776223884
 20
-15.31731359425531
 30
0.0
 11
30.25935829684156
 21
-15.34756270745548
 31
0.0
  0
LINE
  5
780E
  8
0
 10
28.32953737223884
 20
-15.26477427067094
 30
0.0
 11
28.50704627454015
 21
-15.26787270008582
 31
0.0
  0
LINE
  5
780F
  8
0
 10
28.44764760623886
 20
-15.38288450467109
 30
0.0
 11
28.44764760623886
 21
-15.42225458267067
 31
0.0
  0
LINE
  5
7810
  8
0
 10
28.32953737223884
 20
-15.38288450467109
 30
0.0
 11
28.44764760623886
 21
-15.38288450467109
 31
0.0
  0
ARC
  5
7811
  8
0
 10
28.50670272323882
 20
-15.28755474095907
 30
0.0
 40
0.0196850389999952
 50
0.0
 51
89.00000000006096
  0
LINE
  5
7812
  8
0
 10
28.32953737223884
 20
-15.38288450467109
 30
0.0
 11
28.25079721623885
 21
-15.38288450467109
 31
0.0
  0
LINE
  5
7813
  8
0
 10
28.25079721623885
 20
-15.33564041107057
 30
0.0
 11
28.32953737223884
 21
-15.33564041107057
 31
0.0
  0
LINE
  5
7814
  8
0
 10
28.25079721623885
 20
-15.33564041107057
 30
0.0
 11
28.25079721623885
 21
-15.38288450467109
 31
0.0
  0
LINE
  5
7815
  8
0
 10
28.44764760623886
 20
-15.42225458267067
 30
0.0
 11
30.16193103823884
 21
-15.45217751128149
 31
0.0
  0
LINE
  5
7816
  8
0
 10
28.32953737223878
 20
-15.33564041107057
 30
0.0
 11
28.32953737223878
 21
-15.26488253838544
 31
0.0
  0
LINE
  5
7817
  8
0
 10
28.40827555973491
 20
-15.46172800712531
 30
0.0
 11
28.32953737223878
 21
-15.46172800712531
 31
0.0
  0
LINE
  5
7818
  8
0
 10
28.40827555973491
 20
-15.42235891337724
 30
0.0
 11
28.32953737223878
 21
-15.42235891337724
 31
0.0
  0
LINE
  5
7819
  8
0
 10
28.23111217723877
 20
-15.42235891337724
 30
0.0
 11
28.23111217723877
 21
-15.32393617900754
 31
0.0
  0
LINE
  5
781A
  8
0
 10
28.32953737223878
 20
-15.32393617900754
 30
0.0
 11
28.23111217723877
 21
-15.32393617900754
 31
0.0
  0
LINE
  5
781B
  8
0
 10
28.32953737223878
 20
-15.42235891337724
 30
0.0
 11
28.23111217723877
 21
-15.42235891337724
 31
0.0
  0
LINE
  5
781C
  8
0
 10
28.40827555973491
 20
-20.18614228838543
 30
0.0
 11
28.40827555973491
 21
-15.42235891337724
 31
0.0
  0
LINE
  5
781D
  8
_2D_DELETED_OBJS
 10
30.29804127223887
 20
-20.18614228838543
 30
0.0
 11
30.29804127223887
 21
-15.38692678920199
 31
0.0
  0
LINE
  5
781E
  8
_2D_DELETED_OBJS
 10
28.32953737223878
 20
-15.26488253838544
 30
0.0
 11
28.32953737223878
 21
-15.33564041107057
 31
0.0
  0
LINE
  5
781F
  8
CENTER
 10
27.19701067291308
 20
-20.18614228838543
 30
0.0
 11
30.29804127223887
 21
-20.18614228838543
 31
0.0
  0
LINE
  5
7820
  8
HIDDEN
 10
28.32953737223884
 20
-15.38288450467109
 30
0.0
 11
28.32953737223884
 21
-20.18614228838543
 31
0.0
  0
LINE
  5
7821
  8
OBJECT
 10
27.06971160852206
 20
-16.03259905938567
 30
0.0
 11
28.40827555973491
 21
-16.03259905938567
 31
0.0
  0
LINE
  5
7822
  8
OBJECT
 10
28.40827555973491
 20
-15.95385890338558
 30
0.0
 11
30.16193103823883
 21
-15.95385890338559
 31
0.0
  0
LINE
  5
7823
  8
HIDDEN
 10
28.32953737223885
 20
-15.53471324038541
 30
0.0
 11
30.33741135023886
 21
-15.53471324038541
 31
0.0
  0
LINE
  5
7824
  8
HIDDEN
 10
28.32953737223885
 20
-15.7037132403854
 30
0.0
 11
30.33741135023886
 21
-15.7037132403854
 31
0.0
  0
LINE
  5
7825
  8
0
 10
30.29804127223887
 20
-15.37321324038541
 30
0.0
 11
30.31772631123883
 21
-15.37321324038541
 31
0.0
  0
ARC
  5
7826
  8
0
 10
30.31772631123883
 20
-15.39289827938567
 30
0.0
 40
0.0196850390000023
 50
0.0
 51
90.0
  0
LINE
  5
7827
  8
0
 10
30.33741135023886
 20
-15.39289827938567
 30
0.0
 11
30.33741135023886
 21
-15.84552820138516
 31
0.0
  0
ARC
  5
7828
  8
0
 10
30.31772631123883
 20
-15.84552820138516
 30
0.0
 40
0.0196850389999987
 50
270.0
 51
0.0
  0
LINE
  5
7829
  8
0
 10
30.29804127223887
 20
-15.8652132403854
 30
0.0
 11
30.31772631123883
 21
-15.8652132403854
 31
0.0
  0
ARC
  5
782A
  8
0
 10
30.31772631123883
 20
-24.97938629738519
 30
0.0
 40
0.0196850389999987
 50
270.0
 51
0.0
  0
ARC
  5
782B
  8
0
 10
27.0303444832779
 20
-24.96449858474317
 30
0.0
 40
0.078740155999995
 50
180.0
 51
268.0000000000077
  0
LINE
  5
782C
  8
0
 10
28.23111217723877
 20
-24.94992566339361
 30
0.0
 11
28.23111217723877
 21
-25.04834839776332
 31
0.0
  0
LINE
  5
782D
  8
0
 10
28.25079721623885
 20
-25.03664416570028
 30
0.0
 11
28.25079721623885
 21
-24.98940007209977
 31
0.0
  0
LINE
  5
782E
  8
0
 10
28.23111217723883
 20
-24.94997979725086
 30
0.0
 11
28.23111217723883
 21
-25.04840253162057
 31
0.0
  0
ARC
  5
782F
  8
0
 10
30.25867119423888
 20
-24.98535778756887
 30
0.0
 40
0.0393700779999993
 50
270.9999999999409
 51
0.000000000001818
  0
LINE
  5
7830
  8
CENTER
 10
30.33741135023886
 20
-24.75313432851054
 30
0.0
 11
26.95160432727792
 21
-24.75313432851054
 31
0.0
  0
LINE
  5
7831
  8
HIDDEN
 10
28.32953737223885
 20
-24.83757133638544
 30
0.0
 11
30.33741135023886
 21
-24.83757133638544
 31
0.0
  0
LINE
  5
7832
  8
HIDDEN
 10
28.32953737223885
 20
-24.66857133638545
 30
0.0
 11
30.33741135023886
 21
-24.66857133638545
 31
0.0
  0
LINE
  5
7833
  8
OBJECT
 10
28.40827555973491
 20
-24.41842567338528
 30
0.0
 11
30.16193103823884
 21
-24.41842567338527
 31
0.0
  0
LINE
  5
7834
  8
0
 10
28.44764760623886
 20
-24.95002999410018
 30
0.0
 11
30.16193103823884
 21
-24.92010706548936
 31
0.0
  0
LINE
  5
7835
  8
OBJECT
 10
27.09271160852206
 20
-24.33968551738518
 30
0.0
 11
28.40827555973491
 21
-24.33968551738518
 31
0.0
  0
LINE
  5
7836
  8
HIDDEN
 10
27.36497981163238
 20
-24.97950661756168
 30
0.0
 11
26.95304783963912
 21
-24.97950661756168
 31
0.0
  0
LINE
  5
7837
  8
HIDDEN
 10
27.36497981163238
 20
-24.52676203945894
 30
0.0
 11
26.95160432727792
 21
-24.52676203945894
 31
0.0
  0
LINE
  5
7838
  8
_2D_DELETED_OBJS
 10
28.32953737223884
 20
-24.9106107035028
 30
0.0
 11
27.11191624808195
 21
-24.89947516581363
 31
0.0
  0
ARC
  5
7839
  8
0
 10
27.11277505332277
 20
-24.87942951044115
 30
0.0
 40
0.0200640436042696
 50
180.4426614117297
 51
267.5468079000269
  0
LINE
  5
783A
  8
HIDDEN
 10
28.05395371600256
 20
-24.53660431289619
 30
0.0
 11
28.05395371600256
 21
-24.96966434412489
 31
0.0
  0
LINE
  5
783B
  8
HIDDEN
 10
27.36497981163238
 20
-24.52676203945894
 30
0.0
 11
27.36497981163238
 21
-24.97950661756168
 31
0.0
  0
LINE
  5
783C
  8
HIDDEN
 10
28.05395371600256
 20
-24.54644658633343
 30
0.0
 11
27.36497981163238
 21
-24.54644658633298
 31
0.0
  0
LINE
  5
783D
  8
HIDDEN
 10
28.32953737223884
 20
-24.53660431289619
 30
0.0
 11
28.05395371600256
 21
-24.53660431289619
 31
0.0
  0
LINE
  5
783E
  8
HIDDEN
 10
28.05395371600256
 20
-24.95982207068765
 30
0.0
 11
27.36497981163238
 21
-24.95982207068765
 31
0.0
  0
LINE
  5
783F
  8
HIDDEN
 10
28.32953737223884
 20
-24.96966434412489
 30
0.0
 11
28.05395371600256
 21
-24.96966434412489
 31
0.0
  0
LINE
  5
7840
  8
0
 10
28.32953737223878
 20
-24.94992566339361
 30
0.0
 11
28.23111217723877
 21
-24.94992566339361
 31
0.0
  0
LINE
  5
7841
  8
0
 10
28.40827555973491
 20
-24.94992566339361
 30
0.0
 11
28.32953737223878
 21
-24.94992566339361
 31
0.0
  0
LINE
  5
7842
  8
0
 10
28.40827555973491
 20
-24.91055656964555
 30
0.0
 11
28.32953737223878
 21
-24.91055656964555
 31
0.0
  0
LINE
  5
7843
  8
0
 10
28.32953737223884
 20
-24.98940007209977
 30
0.0
 11
28.25079721623885
 21
-24.98940007209977
 31
0.0
  0
LINE
  5
7844
  8
0
 10
28.32953737223884
 20
-24.98940007209977
 30
0.0
 11
28.44764760623886
 21
-24.98940007209977
 31
0.0
  0
LINE
  5
7845
  8
0
 10
28.44764760623886
 20
-24.98940007209977
 30
0.0
 11
28.44764760623886
 21
-24.95002999410018
 31
0.0
  0
LINE
  5
7846
  8
0
 10
28.32953737223884
 20
-24.94997979725086
 30
0.0
 11
28.23111217723883
 21
-24.94997979725086
 31
0.0
  0
LINE
  5
7847
  8
0
 10
28.40827555973502
 20
-24.94997979725086
 30
0.0
 11
28.32953737223884
 21
-24.94997979725086
 31
0.0
  0
LINE
  5
7848
  8
0
 10
28.40827555973502
 20
-24.9106107035028
 30
0.0
 11
28.32953737223884
 21
-24.9106107035028
 31
0.0
  0
LINE
  5
7849
  8
0
 10
29.84693103823884
 20
-24.27931543938513
 30
0.0
 11
29.84693103823884
 21
-23.92498473738516
 31
0.0
  0
LINE
  5
784A
  8
0
 10
30.33741135023886
 20
-24.27931543938513
 30
0.0
 11
30.33741135023886
 21
-23.92498473738516
 31
0.0
  0
LINE
  5
784B
  8
CENTER
 10
29.83512001483888
 20
-24.10215008838514
 30
0.0
 11
30.3256003268389
 21
-24.10215008838514
 31
0.0
  0
LINE
  5
784C
  8
0
 10
29.86661607723886
 20
-23.90529969838536
 30
0.0
 11
30.16193103823884
 21
-23.90529969838536
 31
0.0
  0
ARC
  5
784D
  8
0
 10
29.86661607723886
 20
-23.92498473738516
 30
0.0
 40
0.0196850390000023
 50
90.0
 51
180.0
  0
LINE
  5
784E
  8
0
 10
30.29804127223887
 20
-23.90529969838536
 30
0.0
 11
30.31772631123883
 21
-23.90529969838536
 31
0.0
  0
ARC
  5
784F
  8
0
 10
30.31772631123883
 20
-23.92498473738516
 30
0.0
 40
0.0196850390000023
 50
0.0
 51
90.0
  0
LINE
  5
7850
  8
0
 10
30.33741135023886
 20
-24.97938629738519
 30
0.0
 11
30.33741135023886
 21
-24.5267563753857
 31
0.0
  0
LINE
  5
7851
  8
0
 10
30.29804127223887
 20
-24.50707133638545
 30
0.0
 11
30.31772631123883
 21
-24.50707133638545
 31
0.0
  0
ARC
  5
7852
  8
0
 10
30.31772631123883
 20
-24.5267563753857
 30
0.0
 40
0.0196850390000023
 50
0.0
 51
90.0
  0
LINE
  5
7853
  8
0
 10
29.86661607723886
 20
-24.29900047838538
 30
0.0
 11
30.16193103823884
 21
-24.29900047838538
 31
0.0
  0
ARC
  5
7854
  8
0
 10
29.86661607723886
 20
-24.27931543938513
 30
0.0
 40
0.0196850389999952
 50
180.0
 51
270.0
  0
LINE
  5
7855
  8
0
 10
30.29804127223887
 20
-24.29900047838538
 30
0.0
 11
30.31772631123883
 21
-24.29900047838538
 31
0.0
  0
ARC
  5
7856
  8
0
 10
30.31772631123883
 20
-24.27931543938513
 30
0.0
 40
0.0196850389999987
 50
270.0
 51
0.0
  0
LINE
  5
7857
  8
0
 10
28.52638776223884
 20
-25.05497098251554
 30
0.0
 11
30.25935829684156
 21
-25.02472186931537
 31
0.0
  0
LINE
  5
7858
  8
_2D_DELETED_OBJS
 10
28.13269190349863
 20
-25.06115905523721
 30
0.0
 11
27.02759649146325
 21
-25.04319077436786
 31
0.0
  0
LINE
  5
7859
  8
_2D_DELETED_OBJS
 10
28.32953737223878
 20
-25.10740203838542
 30
0.0
 11
28.32953737223878
 21
-25.03664416570028
 31
0.0
  0
LINE
  5
785A
  8
0
 10
28.32953737223878
 20
-25.03664416570028
 30
0.0
 11
28.32953737223878
 21
-25.10740203838542
 31
0.0
  0
LINE
  5
785B
  8
0
 10
28.13269190349864
 20
-25.06115905523721
 30
0.0
 11
28.13269190349863
 21
-25.09713993836441
 31
0.0
  0
LINE
  5
785C
  8
0
 10
28.52638776223884
 20
-25.08472983581179
 30
0.0
 11
28.52638776223884
 21
-25.05497098251555
 31
0.0
  0
LINE
  5
785D
  8
0
 10
28.32953737223884
 20
-25.10751030609991
 30
0.0
 11
28.50704627454015
 21
-25.10441187668503
 31
0.0
  0
LINE
  5
785E
  8
0
 10
28.32953737223878
 20
-25.04834839776332
 30
0.0
 11
28.23111217723877
 21
-25.04834839776332
 31
0.0
  0
LINE
  5
785F
  8
0
 10
28.25079721623885
 20
-25.03664416570028
 30
0.0
 11
28.32953737223884
 21
-25.03664416570028
 31
0.0
  0
LINE
  5
7860
  8
0
 10
28.32953737223884
 20
-25.04840253162057
 30
0.0
 11
28.23111217723883
 21
-25.04840253162057
 31
0.0
  0
LINE
  5
7861
  8
0
 10
28.32953737223884
 20
-25.10745617224312
 30
0.0
 11
28.13269190349863
 21
-25.09713993836441
 31
0.0
  0
ARC
  5
7862
  8
0
 10
28.50670272323882
 20
-25.08472983581179
 30
0.0
 40
0.0196850389999997
 50
270.9999999999409
 51
0.000000000001818
  0
LINE
  5
7863
  8
0
 10
30.29804127223887
 20
-24.99907133638544
 30
0.0
 11
30.31772631123883
 21
-24.99907133638544
 31
0.0
  0
LINE
  5
7864
  8
_2D_DELETED_OBJS
 10
30.29804127223887
 20
-20.18614228838543
 30
0.0
 11
30.29804127223887
 21
-24.98535778756887
 31
0.0
  0
LINE
  5
7865
  8
HIDDEN
 10
28.32953737223884
 20
-24.98940007209977
 30
0.0
 11
28.32953737223884
 21
-20.18614228838543
 31
0.0
  0
LINE
  5
7866
  8
0
 10
28.44764760623886
 20
-24.95002999410018
 30
0.0
 11
28.44764760623886
 21
-20.18614228838543
 31
0.0
  0
LINE
  5
7867
  8
0
 10
28.40827555973491
 20
-20.18614228838543
 30
0.0
 11
28.40827555973491
 21
-24.94992566339361
 31
0.0
  0
LINE
  5
7868
  8
0
 10
28.40827555973502
 20
-22.94215601610004
 30
0.0
 11
28.40827555973502
 21
-24.94997979725086
 31
0.0
  0
LINE
  5
7869
  8
0
 10
26.95160432727792
 20
-20.18614228838543
 30
0.0
 11
26.95160432727792
 21
-24.96449858474317
 31
0.0
  0
LINE
  5
786A
  8
OBJECT
 10
28.24723500352011
 20
-24.94992566339361
 30
0.0
 11
28.28693953436995
 21
-24.91022113254378
 31
0.0
  0
LINE
  5
786B
  8
OBJECT
 10
28.32733707574496
 20
-15.3238820451503
 30
0.0
 11
28.32953737223877
 21
-15.32168174865648
 31
0.0
  0
LINE
  5
786C
  8
0
 10
27.09271160852206
 20
-24.8795845216756
 30
0.0
 11
27.09271160852206
 21
-15.49270005509527
 31
0.0
  0
ARC
  5
786D
  8
0
 10
27.11277505332277
 20
-15.49285506632972
 30
0.0
 40
0.0200640436042677
 50
92.45319209997342
 51
179.5573385882706
  0
LINE
  5
786E
  8
0
 10
30.16193103823884
 20
-15.45217751128149
 30
0.0
 11
30.16193103823884
 21
-16.07328409838548
 31
0.0
  0
LINE
  5
786F
  8
0
 10
30.16193103823884
 20
-24.92010706548936
 30
0.0
 11
30.16193103823884
 21
-24.29900047838538
 31
0.0
  0
LINE
  5
7870
  8
CENTER
 10
29.84693103823884
 20
-24.03715008838515
 30
0.0
 11
30.06593103823884
 21
-24.03715008838515
 31
0.0
  0
LINE
  5
7871
  8
CENTER
 10
29.84693103823884
 20
-24.16715008838515
 30
0.0
 11
30.06593103823884
 21
-24.16715008838515
 31
0.0
  0
LINE
  5
7872
  8
CENTER
 10
29.84693103823884
 20
-16.20513448838571
 30
0.0
 11
30.06593103823885
 21
-16.20513448838571
 31
0.0
  0
LINE
  5
7873
  8
CENTER
 10
29.84693103823884
 20
-16.33513448838571
 30
0.0
 11
30.06593103823885
 21
-16.33513448838571
 31
0.0
  0
LINE
  5
7874
  8
OBJECT
 10
26.95160432727792
 20
-16.72074778859098
 30
0.0
 11
27.09271160852206
 21
-16.72074778859098
 31
0.0
  0
LINE
  5
7875
  8
OBJECT
 10
26.95160432727792
 20
-17.7207477697908
 30
0.0
 11
27.09271160852206
 21
-17.7207477697908
 31
0.0
  0
LINE
  5
7876
  8
OBJECT
 10
26.95160432727792
 20
-18.68925168859106
 30
0.0
 11
27.09271160852207
 21
-18.68925168859106
 31
0.0
  0
LINE
  5
7877
  8
OBJECT
 10
26.95160432727792
 20
-19.6892516697909
 30
0.0
 11
27.09271160852206
 21
-19.6892516697909
 31
0.0
  0
LINE
  5
7878
  8
OBJECT
 10
26.95160432727792
 20
-20.6577555885907
 30
0.0
 11
27.09271160852206
 21
-20.6577555885907
 31
0.0
  0
LINE
  5
7879
  8
OBJECT
 10
26.95160432727792
 20
-21.65775556979099
 30
0.0
 11
27.09271160852206
 21
-21.65775556979099
 31
0.0
  0
LINE
  5
787A
  8
OBJECT
 10
26.95160432727792
 20
-22.62625948859078
 30
0.0
 11
27.09271160852206
 21
-22.62625948859078
 31
0.0
  0
LINE
  5
787B
  8
OBJECT
 10
26.95160432727792
 20
-23.62625946979107
 30
0.0
 11
27.09271160852206
 21
-23.62625946979107
 31
0.0
  0
INSERT
  5
787C
  8
OBJECT
  2
*X48
 10
0.0
 20
0.0
 30
0.0
1001
ACAD
1000
HATCH
1002
{
1070
    19
1000
ANSI31
1040
0.7
1040
0.0
1000
R14_HATCH_DATA
1000
787C
1011
1.0
1021
0.0
1031
0.0
1021
0.0
1031
0.0
1011
0.0
1021
1.0
1031
0.0
1021
1.0
1031
0.0
1011
0.0
1021
0.0
1031
1.0
1021
0.0
1031
1.0
1040
0.0
1010
0.0
1020
0.0
1030
1.0
1020
0.0
1030
1.0
1000
ANSI31
1070
     0
1070
     1
1071
        1
1071
        7
1070
     0
1070
     1
1071
        4
1040
26.95160432727792
1040
-22.62625948859078
1040
27.09271160852206
1040
-22.62625948859078
1040
27.09271160852206
1040
-21.65775556979099
1040
26.95160432727792
1040
-21.65775556979099
1071
        0
1070
     0
1070
     1
1040
0.0
1040
0.7
1070
     0
1070
     1
1040
0.7853981633974471
1040
-9.68713768671213
1040
-32.15890099328674
1040
-0.0618718433538223
1040
0.0618718433538206
1070
     0
1040
0.0
1071
        1
1040
0.0
1040
0.0
1040
0.0
1002
}
  0
INSERT
  5
787D
  8
OBJECT
  2
*X49
 10
0.0
 20
0.0
 30
0.0
1001
ACAD
1000
HATCH
1002
{
1070
    19
1000
ANSI31
1040
0.7
1040
0.0
1000
R14_HATCH_DATA
1000
787D
1011
1.0
1021
0.0
1031
0.0
1021
0.0
1031
0.0
1011
0.0
1021
1.0
1031
0.0
1021
1.0
1031
0.0
1011
0.0
1021
0.0
1031
1.0
1021
0.0
1031
1.0
1040
0.0
1010
0.0
1020
0.0
1030
1.0
1020
0.0
1030
1.0
1000
ANSI31
1070
     0
1070
     1
1071
        1
1071
        7
1070
     0
1070
     1
1071
        4
1040
26.95160432727793
1040
-20.65775558859069
1040
27.09271160852207
1040
-20.65775558859069
1040
27.09271160852207
1040
-19.6892516697909
1040
26.95160432727793
1040
-19.6892516697909
1071
        0
1070
     0
1070
     1
1040
0.0
1040
0.7
1070
     0
1070
     1
1040
0.7853981633974471
1040
-9.687137686712123
1040
-30.19039709328665
1040
-0.0618718433538223
1040
0.0618718433538206
1070
     0
1040
0.0
1071
        1
1040
0.0
1040
0.0
1040
0.0
1002
}
  0
INSERT
  5
787E
  8
OBJECT
  2
*X50
 10
0.0
 20
0.0
 30
0.0
1001
ACAD
1000
HATCH
1002
{
1070
    19
1000
ANSI31
1040
0.7
1040
0.0
1000
R14_HATCH_DATA
1000
787E
1011
1.0
1021
0.0
1031
0.0
1021
0.0
1031
0.0
1011
0.0
1021
1.0
1031
0.0
1021
1.0
1031
0.0
1011
0.0
1021
0.0
1031
1.0
1021
0.0
1031
1.0
1040
0.0
1010
0.0
1020
0.0
1030
1.0
1020
0.0
1030
1.0
1000
ANSI31
1070
     0
1070
     1
1071
        1
1071
        7
1070
     0
1070
     1
1071
        4
1040
26.95160432727794
1040
-18.68925168859106
1040
27.09271160852208
1040
-18.68925168859106
1040
27.09271160852208
1040
-17.72074776979127
1040
26.95160432727794
1040
-17.72074776979127
1071
        0
1070
     0
1070
     1
1040
0.0
1040
0.7
1070
     0
1070
     1
1040
0.7853981633974509
1040
-9.687137686712116
1040
-28.22189319328701
1040
-0.0618718433538223
1040
0.0618718433538206
1070
     0
1040
0.0
1071
        1
1040
0.0
1040
0.0
1040
0.0
1002
}
  0
INSERT
  5
787F
  8
OBJECT
  2
*X51
 10
0.0
 20
0.0
 30
0.0
1001
ACAD
1000
HATCH
1002
{
1070
    19
1000
ANSI31
1040
0.7
1040
0.0
1000
R14_HATCH_DATA
1000
787F
1011
1.0
1021
0.0
1031
0.0
1021
0.0
1031
0.0
1011
0.0
1021
1.0
1031
0.0
1021
1.0
1031
0.0
1011
0.0
1021
0.0
1031
1.0
1021
0.0
1031
1.0
1040
0.0
1010
0.0
1020
0.0
1030
1.0
1020
0.0
1030
1.0
1000
ANSI31
1070
     0
1070
     1
1071
        8
1071
        7
1070
     0
1070
     1
1071
        4
1040
27.36497981163238
1040
-24.90178951367913
1040
27.36497981163238
1040
-24.95982207068765
1040
28.05395371600256
1040
-24.95982207068765
1040
28.05395371600256
1040
-24.90809040213018
1071
        0
1071
        7
1070
     0
1070
     1
1071
        5
1040
28.32953737223884
1040
-24.94997979725086
1040
28.40827555973491
1040
-24.94992566339361
1040
28.40827555973502
1040
-24.9106107035028
1040
28.32953737223884
1040
-24.9106107035028
1040
28.32953737223884
1040
-24.94992566339361
1071
        0
1071
       22
1070
     0
1070
     1
1071
        2
1040
28.32953737223884
1040
-24.94992566339361
1040
28.32953737223884
1040
-24.94997979725086
1071
        0
1071
        7
1070
     0
1070
     1
1071
        5
1040
27.09271160852206
1040
-24.33968551738518
1040
27.09271160852206
1040
-23.62625946979107
1040
26.95160432727792
1040
-23.62625946979107
1040
26.95160432727792
1040
-24.52676203945894
1040
27.09271160852206
1040
-24.52676203945894
1071
        0
1071
        7
1070
     0
1070
     1
1071
        4
1040
27.09271160852206
1040
-24.52676203945894
1040
26.95160432727792
1040
-24.52676203945894
1040
26.95160432727792
1040
-24.75313432851054
1040
27.09271160852206
1040
-24.75313432851054
1071
        0
1071
        7
1070
     0
1070
     1
1071
        8
1040
28.23111217723877
1040
-24.94992566339361
1040
28.24723500352011
1040
-24.94992566339361
1040
28.28693953436995
1040
-24.91022113254378
1040
28.05395371600256
1040
-24.90809040213018
1040
28.05395371600256
1040
-24.95982207068765
1040
28.05395371600256
1040
-24.96966434412489
1040
28.23111217723883
1040
-24.96966434412489
1040
28.23111217723883
1040
-24.94997979725086
1071
        0
1071
        7
1070
     1
1070
     1
1071
        9
1040
27.36497981163238
1040
-24.97950661756168
1040
0.0
1040
27.36497981163238
1040
-24.95982207068765
1040
0.0
1040
27.36497981163238
1040
-24.90178951367913
1040
0.0
1040
27.11191624808195
1040
-24.89947516581363
1040
-0.3994863965182238
1040
27.09271160852206
1040
-24.8795845216756
1040
0.0
1040
27.09271160852206
1040
-24.75313432851054
1040
0.0
1040
26.95160432727792
1040
-24.75313432851054
1040
0.0
1040
26.95160432727791
1040
-24.96449858474317
1040
0.0479806118614111
1040
26.95304783963912
1040
-24.97950661756168
1040
0.0
1071
        0
1071
        7
1070
     1
1070
     1
1071
       13
1040
28.32953737223884
1040
-25.04840253162057
1040
0.0
1040
28.23111217723877
1040
-25.04834839776332
1040
0.0
1040
28.23111217723877
1040
-24.96966434412489
1040
0.0
1040
28.05395371600256
1040
-24.96966434412489
1040
0.0
1040
28.05395371600256
1040
-24.95982207068765
1040
0.0
1040
27.36497981163238
1040
-24.95982207068765
1040
0.0
1040
27.36497981163238
1040
-24.97950661756168
1040
0.0
1040
26.95304783963912
1040
-24.97950661756168
1040
0.3492747738578842
1040
27.02759649146325
1040
-25.04319077436786
1040
0.0
1040
28.13269190349864
1040
-25.06115905523721
1040
0.0
1040
28.13269190349863
1040
-25.09713993836441
1040
0.0
1040
28.32953737223878
1040
-25.10740203838542
1040
0.0
1040
28.32953737223878
1040
-25.04834839776332
1040
0.0
1071
        0
1070
     0
1070
     1
1040
0.0
1040
0.7
1070
     0
1070
     1
1040
0.7853981633974471
1040
-9.68713768671213
1040
-32.15890099328674
1040
-0.0618718433538223
1040
0.0618718433538206
1070
     0
1040
0.0
1071
       16
1040
0.0
1040
0.0
1040
0.0
1040
0.0
1040
0.0
1040
0.0
1040
0.0
1040
0.0
1040
0.0
1040
0.0
1040
0.0
1040
0.0
1040
0.0
1040
0.0
1040
0.0
1040
0.0
1040
0.0
1040
0.0
1040
0.0
1040
0.0
1040
0.0
1040
0.0
1040
0.0
1040
0.0
1040
27.94235804549267
1040
-24.93369324558984
1040
0.0
1040
28.36491641347903
1040
-24.92950949937215
1040
0.0
1040
28.36491641347903
1040
-24.92950949937215
1040
0.0
1040
27.03448511625465
1040
-24.32286629780758
1040
0.0
1040
27.05540384734309
1040
-24.67848472631094
1040
0.0
1040
28.11389164041783
1040
-24.92950949937215
1040
0.0
1040
27.07632257843153
1040
-24.95461197667827
1040
0.0
1040
27.89633683709812
1040
-24.99226569263745
1040
0.0
1002
}
  0
INSERT
  5
7880
  8
OBJECT
  2
*X52
 10
0.0
 20
0.0
 30
0.0
1001
ACAD
1000
HATCH
1002
{
1070
    19
1000
ANSI31
1040
0.7
1040
0.0
1000
R14_HATCH_DATA
1000
7880
1011
1.0
1021
0.0
1031
0.0
1021
0.0
1031
0.0
1011
0.0
1021
1.0
1031
0.0
1021
1.0
1031
0.0
1011
0.0
1021
0.0
1031
1.0
1021
0.0
1031
1.0
1040
0.0
1010
0.0
1020
0.0
1030
1.0
1020
0.0
1030
1.0
1000
ANSI31
1070
     0
1070
     1
1071
        8
1071
        7
1070
     0
1070
     1
1071
        4
1040
27.36497981163238
1040
-15.47049506309175
1040
27.36497981163238
1040
-15.41246250608322
1040
28.05395371600256
1040
-15.41246250608322
1040
28.05395371600256
1040
-15.46419417464069
1071
        0
1071
        7
1070
     0
1070
     1
1071
        5
1040
28.32953737223884
1040
-15.42230477952001
1040
28.40827555973491
1040
-15.42235891337726
1040
28.40827555973502
1040
-15.46167387326807
1040
28.32953737223884
1040
-15.46167387326807
1040
28.32953737223884
1040
-15.42235891337726
1071
        0
1071
       22
1070
     0
1070
     1
1071
        2
1040
28.32953737223884
1040
-15.42235891337726
1040
28.32953737223884
1040
-15.42230477952001
1071
        0
1071
        7
1070
     0
1070
     1
1071
        5
1040
27.09271160852206
1040
-16.03259905938569
1040
27.09271160852206
1040
-16.7460251069798
1040
26.95160432727792
1040
-16.7460251069798
1040
26.95160432727792
1040
-15.84552253731193
1040
27.09271160852206
1040
-15.84552253731193
1071
        0
1071
        7
1070
     0
1070
     1
1071
        4
1040
27.09271160852206
1040
-15.84552253731193
1040
26.95160432727792
1040
-15.84552253731193
1040
26.95160432727792
1040
-15.61915024826033
1040
27.09271160852206
1040
-15.61915024826033
1071
        0
1071
        7
1070
     0
1070
     1
1071
        8
1040
28.23111217723877
1040
-15.42235891337726
1040
28.24723500352011
1040
-15.42235891337725
1040
28.28693953436995
1040
-15.4620634442271
1040
28.05395371600256
1040
-15.46419417464069
1040
28.05395371600256
1040
-15.41246250608322
1040
28.05395371600256
1040
-15.40262023264598
1040
28.23111217723883
1040
-15.40262023264598
1040
28.23111217723883
1040
-15.42230477952001
1071
        0
1071
        7
1070
     1
1070
     1
1071
        9
1040
27.36497981163238
1040
-15.39277795920919
1040
0.0
1040
27.36497981163238
1040
-15.41246250608322
1040
0.0
1040
27.36497981163238
1040
-15.47049506309175
1040
0.0
1040
27.11191624808195
1040
-15.47280941095724
1040
0.3994863965182238
1040
27.09271160852206
1040
-15.49270005509527
1040
0.0
1040
27.09271160852206
1040
-15.61915024826033
1040
0.0
1040
26.95160432727792
1040
-15.61915024826033
1040
0.0
1040
26.95160432727791
1040
-15.4077859920277
1040
-0.0479806118614111
1040
26.95304783963912
1040
-15.39277795920919
1040
0.0
1071
        0
1071
        7
1070
     1
1070
     1
1071
       13
1040
28.32953737223884
1040
-15.3238820451503
1040
0.0
1040
28.23111217723877
1040
-15.32393617900755
1040
0.0
1040
28.23111217723877
1040
-15.40262023264598
1040
0.0
1040
28.05395371600256
1040
-15.40262023264598
1040
0.0
1040
28.05395371600256
1040
-15.41246250608322
1040
0.0
1040
27.36497981163238
1040
-15.41246250608322
1040
0.0
1040
27.36497981163238
1040
-15.39277795920919
1040
0.0
1040
26.95304783963912
1040
-15.39277795920919
1040
-0.3492747738578842
1040
27.02759649146325
1040
-15.32909380240301
1040
0.0
1040
28.13269190349864
1040
-15.31112552153366
1040
0.0
1040
28.13269190349863
1040
-15.27514463840646
1040
0.0
1040
28.32953737223878
1040
-15.26488253838545
1040
0.0
1040
28.32953737223878
1040
-15.32393617900755
1040
0.0
1071
        0
1070
     0
1070
     1
1040
0.0
1040
0.7
1070
     0
1070
     1
1040
5.497787143782138
1040
-9.68713768671213
1040
-8.213383583484134
1040
-0.0618718433538223
1040
-0.0618718433538277
1070
     0
1040
0.0
1071
       16
1040
0.0
1040
0.0
1040
0.0
1040
0.0
1040
0.0
1040
0.0
1040
0.0
1040
0.0
1040
0.0
1040
0.0
1040
0.0
1040
0.0
1040
0.0
1040
0.0
1040
0.0
1040
0.0
1040
0.0
1040
0.0
1040
0.0
1040
0.0
1040
0.0
1040
0.0
1040
0.0
1040
0.0
1040
27.94235804549267
1040
-15.43859133118104
1040
0.0
1040
28.36491641347903
1040
-15.44277507739872
1040
0.0
1040
28.36491641347903
1040
-15.44277507739872
1040
0.0
1040
27.03448511625465
1040
-16.04941827896329
1040
0.0
1040
27.05540384734309
1040
-15.69379985045992
1040
0.0
1040
28.11389164041783
1040
-15.44277507739872
1040
0.0
1040
27.07632257843153
1040
-15.4176726000926
1040
0.0
1040
27.89633683709812
1040
-15.38001888413342
1040
0.0
1002
}
  0
LINE
  5
7881
  8
OBJECT
 10
30.16193103823884
 20
-23.90529969838536
 30
0.0
 11
30.16193103823884
 21
-16.4669848783855
 31
0.0
  0
LINE
  5
7882
  8
OBJECT
 10
30.20483983518369
 20
-25.0256734926034
 30
0.0
 11
30.2608489836622
 21
-24.96966434412489
 31
0.0
  0
LINE
  5
7883
  8
OBJECT
 10
30.2608489836622
 20
-24.96966434412489
 30
0.0
 11
30.29804127223887
 21
-24.93247205554822
 31
0.0
  0
LINE
  5
7884
  8
OBJECT
 10
30.07889782246689
 20
-25.02787181861256
 30
0.0
 11
30.13710529695455
 21
-24.9696643441249
 31
0.0
  0
LINE
  5
7885
  8
OBJECT
 10
30.13710529695455
 20
-24.96966434412489
 30
0.0
 11
30.29804127223887
 21
-24.80872836884059
 31
0.0
  0
LINE
  5
7886
  8
OBJECT
 10
29.95295580975008
 20
-25.03007014462172
 30
0.0
 11
30.02320388368415
 21
-24.95982207068765
 31
0.0
  0
LINE
  5
7887
  8
OBJECT
 10
30.02320388368415
 20
-24.95982207068765
 30
0.0
 11
30.06115992251459
 21
-24.92186603185721
 31
0.0
  0
LINE
  5
7888
  8
OBJECT
 10
29.82701379703327
 20
-25.03226847063088
 30
0.0
 11
29.8994601969765
 21
-24.95982207068765
 31
0.0
  0
LINE
  5
7889
  8
OBJECT
 10
29.8994601969765
 20
-24.95982207068765
 30
0.0
 11
29.93521790979779
 21
-24.92406435786636
 31
0.0
  0
LINE
  5
788A
  8
OBJECT
 10
29.70107178431646
 20
-25.03446679664005
 30
0.0
 11
29.72104127223887
 21
-25.01449730871764
 31
0.0
  0
LINE
  5
788B
  8
OBJECT
 10
29.77571651026885
 20
-24.95982207068765
 30
0.0
 11
29.80927589708098
 21
-24.92626268387552
 31
0.0
  0
LINE
  5
788C
  8
OBJECT
 10
29.57512977159965
 20
-25.03666512264921
 30
0.0
 11
29.65197282356121
 21
-24.95982207068765
 31
0.0
  0
LINE
  5
788D
  8
OBJECT
 10
29.65197282356121
 20
-24.95982207068765
 30
0.0
 11
29.68333388436418
 21
-24.92846100988467
 31
0.0
  0
LINE
  5
788E
  8
OBJECT
 10
29.44918775888285
 20
-25.03886344865837
 30
0.0
 11
29.52822913685356
 21
-24.95982207068765
 31
0.0
  0
LINE
  5
788F
  8
OBJECT
 10
29.52822913685356
 20
-24.95982207068765
 30
0.0
 11
29.55739187164739
 21
-24.93065933589383
 31
0.0
  0
LINE
  5
7890
  8
OBJECT
 10
29.32324574616603
 20
-25.04106177466753
 30
0.0
 11
29.38480090327188
 21
-24.97950661756168
 31
0.0
  0
LINE
  5
7891
  8
OBJECT
 10
29.38480090327188
 20
-24.97950661756168
 30
0.0
 11
29.43144985893059
 21
-24.93285766190298
 31
0.0
  0
LINE
  5
7892
  8
OBJECT
 10
29.19730373344924
 20
-25.04326010067669
 30
0.0
 11
29.26105721656424
 21
-24.97950661756168
 31
0.0
  0
LINE
  5
7893
  8
OBJECT
 10
29.26105721656424
 20
-24.97950661756168
 30
0.0
 11
29.30550784621378
 21
-24.93505598791214
 31
0.0
  0
LINE
  5
7894
  8
OBJECT
 10
29.07136172073242
 20
-25.04545842668585
 30
0.0
 11
29.13731352985659
 21
-24.97950661756168
 31
0.0
  0
LINE
  5
7895
  8
OBJECT
 10
29.13731352985659
 20
-24.97950661756168
 30
0.0
 11
29.17956583349698
 21
-24.93725431392129
 31
0.0
  0
LINE
  5
7896
  8
OBJECT
 10
28.94541970801561
 20
-25.04765675269501
 30
0.0
 11
29.05362382078019
 21
-24.93945263993044
 31
0.0
  0
LINE
  5
7897
  8
OBJECT
 10
28.8194776952988
 20
-25.04985507870418
 30
0.0
 11
28.92768180806338
 21
-24.9416509659396
 31
0.0
  0
LINE
  5
7898
  8
OBJECT
 10
30.26321858217492
 20
-24.75313432851054
 30
0.0
 11
30.16193103823884
 21
-24.85248082297134
 31
0.0
  0
LINE
  5
7899
  8
OBJECT
 10
28.69735650241386
 20
-25.05198671205509
 30
0.0
 11
28.80556061517845
 21
-24.94378259929051
 31
0.0
  0
LINE
  5
789A
  8
OBJECT
 10
28.57141448969706
 20
-25.05418503806425
 30
0.0
 11
28.67961860246164
 21
-24.94598092529966
 31
0.0
  0
LINE
  5
789B
  8
OBJECT
 10
28.39549686213243
 20
-25.10635897892124
 30
0.0
 11
28.55367658974484
 21
-24.94817925130882
 31
0.0
  0
LINE
  5
789C
  8
OBJECT
 10
28.330455401651
 20
-25.04765675269501
 30
0.0
 11
28.38871208224625
 21
-24.98940007209977
 31
0.0
  0
LINE
  5
789D
  8
OBJECT
 10
30.20483983518369
 20
-15.34661108416747
 30
0.0
 11
30.2608489836622
 21
-15.40262023264598
 31
0.0
  0
LINE
  5
789E
  8
OBJECT
 10
30.2608489836622
 20
-15.40262023264598
 30
0.0
 11
30.29804127223887
 21
-15.43981252122265
 31
0.0
  0
LINE
  5
789F
  8
OBJECT
 10
30.07889782246689
 20
-15.34441275815831
 30
0.0
 11
30.13710529695455
 21
-15.40262023264597
 31
0.0
  0
LINE
  5
78A0
  8
OBJECT
 10
30.13710529695455
 20
-15.40262023264597
 30
0.0
 11
30.29804127223887
 21
-15.56355620793028
 31
0.0
  0
LINE
  5
78A1
  8
OBJECT
 10
29.95295580975008
 20
-15.34221443214915
 30
0.0
 11
30.06115992251457
 21
-15.45041854491364
 31
0.0
  0
LINE
  5
78A2
  8
OBJECT
 10
29.82701379703327
 20
-15.34001610613999
 30
0.0
 11
29.93521790979776
 21
-15.44822021890449
 31
0.0
  0
LINE
  5
78A3
  8
OBJECT
 10
29.70107178431646
 20
-15.33781778013083
 30
0.0
 11
29.72104127223886
 21
-15.35778726805323
 31
0.0
  0
LINE
  5
78A4
  8
OBJECT
 10
29.57512977159965
 20
-15.33561945412166
 30
0.0
 11
29.68333388436417
 21
-15.44382356688618
 31
0.0
  0
LINE
  5
78A5
  8
OBJECT
 10
29.44918775888285
 20
-15.3334211281125
 30
0.0
 11
29.55739187164736
 21
-15.44162524087702
 31
0.0
  0
LINE
  5
78A6
  8
OBJECT
 10
29.32324574616603
 20
-15.33122280210334
 30
0.0
 11
29.43144985893056
 21
-15.43942691486787
 31
0.0
  0
LINE
  5
78A7
  8
OBJECT
 10
29.19730373344924
 20
-15.32902447609418
 30
0.0
 11
29.30550784621376
 21
-15.43722858885871
 31
0.0
  0
LINE
  5
78A8
  8
OBJECT
 10
29.07136172073242
 20
-15.32682615008502
 30
0.0
 11
29.17956583349697
 21
-15.43503026284956
 31
0.0
  0
LINE
  5
78A9
  8
OBJECT
 10
28.95304127223887
 20
-15.33224938829911
 30
0.0
 11
29.05362382078019
 21
-15.43283193684043
 31
0.0
  0
LINE
  5
78AA
  8
OBJECT
 10
28.8194776952988
 20
-15.32242949806669
 30
0.0
 11
28.90404127223887
 21
-15.40699307500676
 31
0.0
  0
LINE
  5
78AB
  8
OBJECT
 10
30.26321858217492
 20
-15.61915024826033
 30
0.0
 11
30.16193103823884
 21
-15.51980375379953
 31
0.0
  0
LINE
  5
78AC
  8
OBJECT
 10
28.69735650241386
 20
-15.32029786471578
 30
0.0
 11
28.80556061517845
 21
-15.42850197748036
 31
0.0
  0
LINE
  5
78AD
  8
OBJECT
 10
28.57141448969706
 20
-15.31809953870662
 30
0.0
 11
28.67961860246164
 21
-15.42630365147121
 31
0.0
  0
LINE
  5
78AE
  8
OBJECT
 10
28.39549686213243
 20
-15.26592559784963
 30
0.0
 11
28.55367658974484
 21
-15.42410532546205
 31
0.0
  0
LINE
  5
78AF
  8
OBJECT
 10
28.330455401651
 20
-15.32462782407585
 30
0.0
 11
28.38871208224625
 21
-15.3828845046711
 31
0.0
  0
POINT
  5
78B0
  8
DEFPOINTS
 10
27.09271160852206
 20
-21.04135615624688
 30
0.0
  0
POINT
  5
78B1
  8
DEFPOINTS
 10
26.95160432727792
 20
-21.04135615624688
 30
0.0
  0
LINE
  5
78B2
  8
0
 10
27.09271160852206
 20
-20.91535615624688
 30
0.0
 11
27.09271160852206
 21
-20.74312835475887
 31
0.0
  0
LINE
  5
78B3
  8
0
 10
26.95160432727792
 20
-20.91535615624688
 30
0.0
 11
26.95160432727792
 21
-20.74312835475887
 31
0.0
  0
POINT
  5
78B4
  8
DEFPOINTS
 10
30.29804127223888
 20
-15.38692678920199
 30
0.0
  0
POINT
  5
78B5
  8
DEFPOINTS
 10
30.33741135023883
 20
-15.39289827938567
 30
0.0
  0
LINE
  5
78B6
  8
0
 10
30.06593103823885
 20
-16.20513448838571
 30
0.0
 11
30.06593103823884
 21
-16.33513448838571
 31
0.0
  0
LINE
  5
78B7
  8
0
 10
30.06593103823884
 20
-24.16715008838515
 30
0.0
 11
30.06593103823884
 21
-24.03715008838515
 31
0.0
  0
INSERT
  5
78B8
  8
OBJECT
  2
*X53
 10
0.0
 20
0.0
 30
0.0
1001
ACAD
1000
HATCH
1002
{
1070
    19
1000
ANSI31
1040
0.7
1040
0.0
1000
R14_HATCH_DATA
1000
78B8
1011
1.0
1021
0.0
1031
0.0
1021
0.0
1031
0.0
1011
0.0
1021
1.0
1031
0.0
1021
1.0
1031
0.0
1011
0.0
1021
0.0
1031
1.0
1021
0.0
1031
1.0
1040
0.0
1010
0.0
1020
0.0
1030
1.0
1020
0.0
1030
1.0
1000
ANSI31
1070
     0
1070
     1
1071
        6
1071
        7
1070
     1
1070
     1
1071
       12
1040
30.29804127223887
1040
-24.66857133638545
1040
0.0
1040
30.29804127223887
1040
-24.50707133638545
1040
0.0
1040
30.29804127223887
1040
-24.32000047838538
1040
0.0
1040
30.29804127223887
1040
-24.12315008838515
1040
0.0
1040
30.06593103823884
1040
-24.12315008838515
1040
0.0
1040
30.06593103823884
1040
-24.18815008838515
1040
0.0
1040
29.84693103823884
1040
-24.18815008838515
1040
0.0
1040
29.84693103823887
1040
-24.30031543938513
1040
0.4142135623730992
1040
29.86661607723886
1040
-24.32000047838538
1040
0.0
1040
30.16193103823884
1040
-24.32000047838538
1040
0.0
1040
30.16193103823884
1040
-24.41842567338527
1040
0.0
1040
30.16193103823884
1040
-24.66857133638545
1040
0.0
1071
        0
1071
        7
1070
     0
1070
     1
1071
        5
1040
30.29804127223887
1040
-24.75313432851054
1040
30.29804127223887
1040
-24.66857133638545
1040
30.16193103823884
1040
-24.66857133638545
1040
30.16193103823884
1040
-24.75313432851054
1040
30.26321858217492
1040
-24.75313432851054
1071
        0
1071
        7
1070
     1
1070
     1
1071
       10
1040
30.16193103823884
1040
-23.92629969838536
1040
0.0
1040
29.86661607723886
1040
-23.92629969838516
1040
0.4142135623730949
1040
29.84693103823884
1040
-23.94598473738516
1040
0.0
1040
29.84693103823884
1040
-24.05815008838515
1040
0.0
1040
30.06593103823884
1040
-24.05815008838515
1040
0.0
1040
30.06593103823884
1040
-24.12315008838515
1040
0.0
1040
30.29804127223887
1040
-24.12315008838515
1040
0.0
1040
30.29804127223887
1040
-23.92629969838536
1040
0.0
1040
30.29804127223887
1040
-20.18614228838543
1040
0.0
1040
30.16193103823884
1040
-20.18614228838543
1040
0.0
1071
        0
1071
        7
1070
     1
1070
     1
1071
       11
1040
29.84693103823887
1040
-16.4262998393857
1040
0.4142135623730992
1040
29.86661607723886
1040
-16.4459848783855
1040
0.0
1040
30.16193103823884
1040
-16.4459848783855
1040
0.0
1040
30.16193103823884
1040
-20.18614228838543
1040
0.0
1040
30.29804127223887
1040
-20.18614228838543
1040
0.0
1040
30.29804127223887
1040
-17.43012856067082
1040
0.0
1040
30.29804127223887
1040
-16.4459848783855
1040
0.0
1040
30.29804127223887
1040
-16.24913448838571
1040
0.0
1040
30.06593103823885
1040
-16.24913448838571
1040
0.0
1040
30.06593103823885
1040
-16.3141344883857
1040
0.0
1040
29.84693103823884
1040
-16.3141344883857
1040
0.0
1071
        0
1071
        7
1070
     1
1070
     1
1071
       12
1040
30.29804127223887
1040
-15.7037132403854
1040
0.0
1040
30.16193103823884
1040
-15.7037132403854
1040
0.0
1040
30.16193103823884
1040
-15.95385890338559
1040
0.0
1040
30.16193103823884
1040
-16.05228409838547
1040
0.0
1040
29.86661607723886
1040
-16.05228409838573
1040
0.414213562373095
1040
29.84693103823884
1040
-16.07196913738573
1040
0.0
1040
29.84693103823884
1040
-16.18413448838571
1040
0.0
1040
30.06593103823885
1040
-16.18413448838571
1040
0.0
1040
30.06593103823885
1040
-16.24913448838571
1040
0.0
1040
30.29804127223887
1040
-16.24913448838571
1040
0.0
1040
30.29804127223887
1040
-16.05228409838547
1040
0.0
1040
30.29804127223887
1040
-15.8652132403854
1040
0.0
1071
        0
1071
        7
1070
     0
1070
     1
1071
        5
1040
30.16193103823884
1040
-15.61915024826031
1040
30.16193103823884
1040
-15.7037132403854
1040
30.29804127223887
1040
-15.7037132403854
1040
30.29804127223887
1040
-15.61915024826031
1040
30.2632185821749
1040
-15.61915024826031
1071
        0
1070
     0
1070
     1
1040
0.0
1040
0.7
1070
     0
1070
     1
1040
0.7853981633974471
1040
-9.68713768671213
1040
-32.15890099328674
1040
-0.0618718433538223
1040
0.0618718433538206
1070
     0
1040
0.0
1071
       14
1040
0.0
1040
0.0
1040
0.0
1040
0.0
1040
0.0
1040
0.0
1040
0.0
1040
0.0
1040
0.0
1040
0.0
1040
0.0
1040
0.0
1040
0.0
1040
0.0
1040
0.0
1040
0.0
1040
0.0
1040
0.0
1040
0.0
1040
0.0
1040
0.0
1040
0.0
1040
0.0
1040
0.0
1040
30.23911333660857
1040
-24.23207530669485
1040
0.0
1040
30.23911333660857
1040
-24.70580758877129
1040
0.0
1040
30.14699872620482
1040
-24.04784608588735
1040
0.0
1040
30.25227256666625
1040
-19.83689246743014
1040
0.0
1040
30.19963564643554
1040
-16.11283036110705
1040
0.0
1040
30.19963564643554
1040
-15.6522573090883
1040
0.0
1002
}
  0
DIMENSION
  5
78B9
  8
OBJECT
  2
*D47
 10
30.29804127223888
 20
-13.05965040059752
 30
0.0
 11
28.62482279975839
 21
-13.05965040059752
 31
0.0
 70
    32
  3
23NSTDI
 13
26.95160432727791
 23
-15.40778599202769
 33
0.0
 14
30.29804127223888
 24
-15.38692678920199
 34
0.0
1001
ACAD
1000
DSTYLE
1002
{
1070
   287
1070
     5
1070
   271
1070
     2
1070
   279
1070
     2
1002
}
  0
DIMENSION
  5
78C6
  8
OBJECT
  2
*D46
 10
28.32953831686102
 20
-13.92339061572348
 30
0.0
 11
29.31378979454995
 21
-13.92339061572348
 31
0.0
 70
    32
  3
23NSTDI
 13
30.29804127223888
 23
-15.38692678920199
 33
0.0
 14
28.32953831686102
 24
-15.26477428715939
 34
0.0
1001
ACAD
1000
DSTYLE
1002
{
1070
   287
1070
     5
1070
   271
1070
     2
1070
   279
1070
     2
1002
}
  0
POINT
  5
78D3
  8
DEFPOINTS
 10
30.29804127223888
 20
-15.38692678920199
 30
0.0
  0
POINT
  5
78D4
  8
DEFPOINTS
 10
30.33741135023883
 20
-15.39289827938567
 30
0.0
  0
LINE
  5
78D5
  8
0
 10
30.29804127223888
 20
-15.26092678920199
 30
0.0
 11
30.29804127223888
 21
-14.9094529973324
 31
0.0
  0
LINE
  5
78D6
  8
0
 10
30.33741135023883
 20
-15.26689827938566
 30
0.0
 11
30.33741135023883
 21
-14.9094529973324
 31
0.0
  0
LINE
  5
78D7
  8
0
 10
29.93804127223888
 20
-15.0954529973324
 30
0.0
 11
29.57804127223888
 21
-15.0954529973324
 31
0.0
  0
SOLID
  5
78D8
  8
0
 10
30.29804127223888
 20
-15.0954529973324
 30
0.0
 11
29.93804127223888
 21
-15.15545299733241
 31
0.0
 12
29.93804127223888
 22
-15.03545299733239
 32
0.0
 13
29.93804127223888
 23
-15.03545299733239
 33
0.0
  0
LINE
  5
78D9
  8
0
 10
30.69741135023883
 20
-15.0954529973324
 30
0.0
 11
31.05741135023883
 21
-15.0954529973324
 31
0.0
  0
SOLID
  5
78DA
  8
0
 10
30.33741135023883
 20
-15.0954529973324
 30
0.0
 11
30.69741135023883
 21
-15.15545299733241
 31
0.0
 12
30.69741135023883
 22
-15.03545299733239
 32
0.0
 13
30.69741135023883
 23
-15.03545299733239
 33
0.0
  0
TEXT
  5
78DB
  8
0
 10
31.09935176161037
 20
-15.2204529973324
 30
0.0
 40
0.25
  1
0.04 [1.0]
 41
0.75
  7
TXT
  0
POINT
  5
78E9
  8
DEFPOINTS
 10
30.16193103823884
 20
-21.93803732990369
 30
0.0
  0
POINT
  5
78EA
  8
DEFPOINTS
 10
30.29804127223887
 20
-21.84788240642132
 30
0.0
  0
LINE
  5
78EB
  8
0
 10
30.16193103823884
 20
-21.8120373299037
 30
0.0
 11
30.16193103823884
 21
-21.22665174133399
 31
0.0
  0
LINE
  5
78EC
  8
0
 10
30.29804127223887
 20
-21.72188240642132
 30
0.0
 11
30.29804127223887
 21
-21.22665174133399
 31
0.0
  0
LINE
  5
78ED
  8
0
 10
29.80193103823884
 20
-21.41265174133399
 30
0.0
 11
29.44193103823884
 21
-21.41265174133399
 31
0.0
  0
SOLID
  5
78EE
  8
0
 10
30.16193103823884
 20
-21.41265174133399
 30
0.0
 11
29.80193103823884
 21
-21.472651741334
 31
0.0
 12
29.80193103823884
 22
-21.35265174133398
 32
0.0
 13
29.80193103823884
 23
-21.35265174133398
 33
0.0
  0
LINE
  5
78EF
  8
0
 10
30.65804127223887
 20
-21.41265174133399
 30
0.0
 11
31.01804127223886
 21
-21.41265174133399
 31
0.0
  0
SOLID
  5
78F0
  8
0
 10
30.29804127223887
 20
-21.41265174133399
 30
0.0
 11
30.65804127223887
 21
-21.472651741334
 31
0.0
 12
30.65804127223887
 22
-21.35265174133398
 32
0.0
 13
30.65804127223887
 23
-21.35265174133398
 33
0.0
  0
TEXT
  5
78F1
  8
0
 10
31.07506456567431
 20
-21.53765174133399
 30
0.0
 40
0.25
  1
0.14 [3.5]
 41
0.75
  7
TXT
  0
POINT
  5
78F2
  8
DEFPOINTS
 10
27.09271160852206
 20
-20.91535615624688
 30
0.0
  0
POINT
  5
78F3
  8
DEFPOINTS
 10
26.95160432727792
 20
-20.91535615624688
 30
0.0
  0
LINE
  5
78F4
  8
0
 10
27.09271160852206
 20
-21.04135615624688
 30
0.0
 11
27.09271160852206
 21
-21.33888121008615
 31
0.0
  0
LINE
  5
78F5
  8
0
 10
26.95160432727792
 20
-21.04135615624688
 30
0.0
 11
26.95160432727792
 21
-21.33888121008615
 31
0.0
  0
LINE
  5
78F6
  8
0
 10
27.45271160852206
 20
-21.15288121008615
 30
0.0
 11
27.81271160852206
 21
-21.15288121008615
 31
0.0
  0
SOLID
  5
78F7
  8
0
 10
27.09271160852206
 20
-21.15288121008615
 30
0.0
 11
27.45271160852206
 21
-21.09288121008613
 31
0.0
 12
27.45271160852206
 22
-21.21288121008616
 32
0.0
 13
27.45271160852206
 23
-21.21288121008616
 33
0.0
  0
LINE
  5
78F8
  8
0
 10
26.59160432727792
 20
-21.15288121008615
 30
0.0
 11
26.23160432727792
 21
-21.15288121008615
 31
0.0
  0
SOLID
  5
78F9
  8
0
 10
26.95160432727792
 20
-21.15288121008615
 30
0.0
 11
26.59160432727792
 21
-21.09288121008613
 31
0.0
 12
26.59160432727792
 22
-21.21288121008616
 32
0.0
 13
26.59160432727792
 23
-21.21288121008616
 33
0.0
  0
TEXT
  5
78FA
  8
0
 10
24.81554614645488
 20
-21.27788121008615
 30
0.0
 40
0.25
  1
0.14 [3.6]
 41
0.75
  7
TXT
  0
DIMENSION
  5
78FB
  8
OBJECT
  2
*D18
 10
29.84693103823884
 20
-23.19564721439861
 30
0.0
 11
28.46982132338045
 21
-23.19564721439861
 31
0.0
 70
    32
  3
23NSTDI
 13
27.09271160852206
 23
-23.55759351216677
 33
0.0
 14
29.84693103823884
 24
-23.92498473738516
 34
0.0
  0
POINT
  5
7908
  8
DEFPOINTS
 10
29.84693103823884
 20
-16.4472998393857
 30
0.0
  0
POINT
  5
7909
  8
DEFPOINTS
 10
30.16193103823884
 20
-16.65131135022459
 30
0.0
  0
LINE
  5
790A
  8
0
 10
29.84693103823884
 20
-16.5732998393857
 30
0.0
 11
29.84693103823884
 21
-17.50318729307249
 31
0.0
  0
LINE
  5
790B
  8
0
 10
30.16193103823884
 20
-16.77731135022459
 30
0.0
 11
30.16193103823884
 21
-17.50318729307249
 31
0.0
  0
LINE
  5
790C
  8
0
 10
29.48693103823884
 20
-17.31718729307249
 30
0.0
 11
29.12693103823884
 21
-17.31718729307249
 31
0.0
  0
SOLID
  5
790D
  8
0
 10
29.84693103823884
 20
-17.31718729307249
 30
0.0
 11
29.48693103823884
 21
-17.3771872930725
 31
0.0
 12
29.48693103823884
 22
-17.25718729307248
 32
0.0
 13
29.48693103823884
 23
-17.25718729307248
 33
0.0
  0
LINE
  5
790E
  8
0
 10
30.52193103823884
 20
-17.31718729307249
 30
0.0
 11
30.88193103823884
 21
-17.31718729307249
 31
0.0
  0
SOLID
  5
790F
  8
0
 10
30.16193103823884
 20
-17.31718729307249
 30
0.0
 11
30.52193103823884
 21
-17.3771872930725
 31
0.0
 12
30.52193103823884
 22
-17.25718729307248
 32
0.0
 13
30.52193103823884
 23
-17.25718729307248
 33
0.0
  0
TEXT
  5
7910
  8
0
 10
30.95768075646074
 20
-17.44218729307249
 30
0.0
 40
0.25
  1
0.31 [8.0]
 41
0.75
  7
TXT
  0
DIMENSION
  5
7980
  8
OBJECT
  2
*D16
 10
23.57277773279178
 20
-29.59170503238794
 30
0.0
 11
23.57277773279178
 21
-30.09170503238804
 31
0.0
 70
    32
  3
23NSTDI
 13
21.77815023336171
 23
-30.59170503238814
 33
0.0
 14
20.34114238636169
 24
-29.59170503238794
 34
0.0
 50
90.0
  0
LINE
  5
7999
  8
0
 10
20.16114238636169
 20
-29.59170503238794
 30
0.0
 11
20.52114238636169
 21
-29.59170503238794
 31
0.0
  0
LINE
  5
799A
  8
0
 10
20.34114238636169
 20
-29.41170503238794
 30
0.0
 11
20.34114238636169
 21
-29.77170503238793
 31
0.0
  0
LINE
  5
799B
  8
0
 10
19.59807612503423
 20
-29.31190415448218
 30
0.0
 11
18.11850746852413
 21
-28.75477401608268
 31
0.0
  0
LINE
  5
799C
  8
0
 10
18.11850746852413
 20
-28.75477401608268
 30
0.0
 11
17.75850746852413
 21
-28.75477401608268
 31
0.0
  0
SOLID
  5
799D
  8
0
 10
19.93498274226079
 20
-29.43876601348227
 30
0.0
 11
19.61921976820092
 21
-29.25575305161108
 31
0.0
 12
19.57693248186755
 22
-29.36805525735329
 32
0.0
 13
19.57693248186755
 23
-29.36805525735329
 33
0.0
  0
TEXT
  5
799E
  8
0
 10
15.64350746852413
 20
-28.87977401608268
 30
0.0
 40
0.25
  1
%%c0.87 [%%c22.0]
 41
0.75
  7
TXT
  0
POINT
  5
799F
  8
DEFPOINTS
 10
20.74730203046259
 20
-29.7446440512936
 30
0.0
  0
POINT
  5
79A0
  8
DEFPOINTS
 10
19.93498274226079
 20
-29.43876601348227
 30
0.0
  0
TEXT
  5
79A1
  8
0
 10
15.89194496852413
 20
-29.21054324023713
 30
0.0
 40
0.25
  1
KNOCKOUT
 41
0.75
  7
TXT
  0
TEXT
  5
79A2
  8
0
 10
15.79819496852413
 20
-29.54131246439158
 30
0.0
 40
0.25
  1
BOTH ENDS
 41
0.75
  7
TXT
  0
CIRCLE
  5
79AF
  8
OBJECT
 10
12.3185382904918
 20
-24.1021500883856
 30
0.0
 40
0.065
  0
CIRCLE
  5
79B0
  8
OBJECT
 10
13.89334141049175
 20
-24.1021500883856
 30
0.0
 40
0.0649999999999995
  0
CIRCLE
  5
79B1
  8
OBJECT
 10
12.3185382904918
 20
-16.27013448838571
 30
0.0
 40
0.0649999999999995
  0
CIRCLE
  5
79B2
  8
OBJECT
 10
13.89334141049175
 20
-16.27013448838571
 30
0.0
 40
0.0649999999999995
  0
DIMENSION
  5
79CC
  8
OBJECT
  2
*D17
 10
16.16487261579645
 20
-16.27013448838571
 30
0.0
 11
16.16487261579645
 21
-20.18614228838565
 31
0.0
 70
    32
  3
23NSTDI
 13
13.89334141049175
 23
-24.1021500883856
 33
0.0
 14
13.89334141049175
 24
-16.27013448838571
 34
0.0
 50
90.0
  0
POINT
  5
79F2
  8
DEFPOINTS
 10
19.84309673045828
 20
-23.18925160399077
 30
0.0
  0
POINT
  5
79F3
  8
DEFPOINTS
 10
20.84309671165829
 20
-23.18925160399077
 30
0.0
  0
LINE
  5
79F4
  8
0
 10
19.84309673045828
 20
-23.31525160399077
 30
0.0
 11
19.84309673045828
 21
-26.11576083995908
 31
0.0
  0
LINE
  5
79F5
  8
0
 10
20.84309671165829
 20
-23.31525160399077
 30
0.0
 11
20.84309671165829
 21
-26.11576083995908
 31
0.0
  0
LINE
  5
79F6
  8
0
 10
19.48309673045828
 20
-25.92976083995908
 30
0.0
 11
19.12309673045828
 21
-25.92976083995908
 31
0.0
  0
SOLID
  5
79F7
  8
0
 10
19.84309673045828
 20
-25.92976083995908
 30
0.0
 11
19.48309673045828
 21
-25.9897608399591
 31
0.0
 12
19.48309673045828
 22
-25.86976083995907
 32
0.0
 13
19.48309673045828
 23
-25.86976083995907
 33
0.0
  0
LINE
  5
79F8
  8
0
 10
21.20309671165829
 20
-25.92976083995908
 30
0.0
 11
22.25336544573583
 21
-25.92976083995908
 31
0.0
  0
SOLID
  5
79F9
  8
0
 10
20.84309671165829
 20
-25.92976083995908
 30
0.0
 11
21.20309671165829
 21
-25.9897608399591
 31
0.0
 12
21.20309671165829
 22
-25.86976083995907
 32
0.0
 13
21.20309671165829
 23
-25.86976083995907
 33
0.0
  0
TEXT
  5
79FA
  8
0
 10
22.38562536529605
 20
-26.05476083995908
 30
0.0
 40
0.25
  1
1.00 [25.4]
 41
0.75
  7
TXT
  0
DIMENSION
  5
79FB
  8
OBJECT
  2
*D20
 10
13.84609241095505
 20
-16.31477227554839
 30
0.0
 11
16.92213399430157
 21
-15.11456516827799
 31
0.0
 70
    35
  1
<> TYP.
  3
23NSTDI
 15
13.94059041002845
 25
-16.22549670122302
 35
0.0
 40
0.0
  0
POINT
  5
7A2B
  8
DEFPOINTS
 10
29.84693103823884
 20
-23.92498473738516
 30
0.0
  0
POINT
  5
7A2C
  8
DEFPOINTS
 10
30.06593103823884
 20
-24.03715008838515
 30
0.0
  0
LINE
  5
7A2D
  8
0
 10
29.84693103823884
 20
-23.79898473738516
 30
0.0
 11
29.84693103823884
 21
-23.43296058033075
 31
0.0
  0
LINE
  5
7A2E
  8
0
 10
30.06593103823884
 20
-23.91115008838515
 30
0.0
 11
30.06593103823884
 21
-23.43296058033075
 31
0.0
  0
LINE
  5
7A2F
  8
0
 10
29.48693103823884
 20
-23.61896058033075
 30
0.0
 11
29.12693103823884
 21
-23.61896058033075
 31
0.0
  0
SOLID
  5
7A30
  8
0
 10
29.84693103823884
 20
-23.61896058033075
 30
0.0
 11
29.48693103823884
 21
-23.67896058033076
 31
0.0
 12
29.48693103823884
 22
-23.55896058033074
 32
0.0
 13
29.48693103823884
 23
-23.55896058033074
 33
0.0
  0
LINE
  5
7A31
  8
0
 10
30.42593103823884
 20
-23.61896058033075
 30
0.0
 11
30.78593103823884
 21
-23.61896058033075
 31
0.0
  0
SOLID
  5
7A32
  8
0
 10
30.06593103823884
 20
-23.61896058033075
 30
0.0
 11
30.42593103823884
 21
-23.67896058033076
 31
0.0
 12
30.42593103823884
 22
-23.55896058033074
 32
0.0
 13
30.42593103823884
 23
-23.55896058033074
 33
0.0
  0
TEXT
  5
7A33
  8
0
 10
30.9233326233723
 20
-23.73255450457813
 30
0.0
 40
0.25
  1
0.22 [5.6]
 41
0.75
  7
TXT
  0
TEXT
  5
7A34
  8
0
 10
30.8755201233723
 20
-24.08262937421771
 30
0.0
 40
0.25
  1
DEEP TYP.
 41
0.75
  7
TXT
  0
DIMENSION
  5
7A40
  8
OBJECT
  2
*D21
 10
12.42367552030147
 20
-16.43673329662856
 30
0.0
 11
8.987983900620108
 21
-13.9518014089584
 31
0.0
 70
    35
  1
<> TYP.
  3
23NSTDI
 15
12.21340106068213
 25
-16.10353568014285
 35
0.0
 40
0.0
  0
LINE
  5
8073
  8
_2D_DELETED_OBJS
 10
29.77104127223887
 20
-15.42848457243141
 30
0.0
 11
29.77104127223887
 21
-15.33903910208549
 31
0.0
  0
LINE
  5
8074
  8
_2D_DELETED_OBJS
 10
29.72104127223887
 20
-15.427611819185
 30
0.0
 11
29.72104127223887
 21
-15.33816634883908
 31
0.0
  0
LINE
  5
8075
  8
_2D_DELETED_OBJS
 10
28.95304127223887
 20
-15.41420632932018
 30
0.0
 11
28.95304127223887
 21
-15.32476085897421
 31
0.0
  0
LINE
  5
8076
  8
_2D_DELETED_OBJS
 10
28.90404127223887
 20
-15.4133510311387
 30
0.0
 11
28.90404127223887
 21
-15.32390556079273
 31
0.0
  0
LINE
  5
807A
  8
0
 10
28.90404127223887
 20
-15.4133510311387
 30
0.0
 11
28.95304127223887
 21
-15.41420632932018
 31
0.0
  0
LINE
  5
807B
  8
0
 10
29.72104127223887
 20
-15.427611819185
 30
0.0
 11
29.77104127223887
 21
-15.42848457243141
 31
0.0
  0
LINE
  5
807C
  8
OBJECT
 10
29.77104127223887
 20
-15.40778726805324
 30
0.0
 11
29.80927589708096
 21
-15.44602189289533
 31
0.0
  0
LINE
  5
807D
  8
OBJECT
 10
29.70107178431646
 20
-25.03446679664003
 30
0.0
 11
29.72104127223886
 21
-25.01449730871763
 31
0.0
  0
LINE
  5
807E
  8
_2D_DELETED_OBJS
 10
29.77104127223887
 20
-24.94380000433945
 30
0.0
 11
29.77104127223887
 21
-25.03324547468537
 31
0.0
  0
LINE
  5
807F
  8
_2D_DELETED_OBJS
 10
29.72104127223887
 20
-24.94467275758586
 30
0.0
 11
29.72104127223887
 21
-25.03411822793178
 31
0.0
  0
LINE
  5
8080
  8
_2D_DELETED_OBJS
 10
28.95304127223887
 20
-24.95807824745068
 30
0.0
 11
28.95304127223887
 21
-25.04752371779665
 31
0.0
  0
LINE
  5
8081
  8
_2D_DELETED_OBJS
 10
28.90404127223887
 20
-24.95893354563216
 30
0.0
 11
28.90404127223887
 21
-25.04837901597813
 31
0.0
  0
LINE
  5
8082
  8
0
 10
28.90404127223887
 20
-24.95893354563216
 30
0.0
 11
28.95304127223887
 21
-24.95807824745068
 31
0.0
  0
LINE
  5
8083
  8
0
 10
29.72104127223887
 20
-24.94467275758586
 30
0.0
 11
29.77104127223887
 21
-24.94380000433945
 31
0.0
  0
LINE
  5
8084
  8
OBJECT
 10
29.77104127223887
 20
-24.96449730871762
 30
0.0
 11
29.80927589708096
 21
-24.92626268387553
 31
0.0
  0
LINE
  5
8085
  8
OBJECT
 10
29.77104127223887
 20
-24.96449730871763
 30
0.0
 11
29.77571651026885
 21
-24.95982207068765
 31
0.0
  0
LINE
  5
8086
  8
0
 10
29.5862466232734
 20
-25.28688801134856
 30
0.0
 11
29.97519737042523
 21
-25.65043926440225
 31
0.0
  0
SOLID
  5
8088
  8
0
 10
29.32324574616603
 20
-25.04106177466753
 30
0.0
 11
29.54527558382656
 21
-25.33072149086645
 31
0.0
 12
29.62721766272024
 22
-25.24305453183064
 32
0.0
 13
29.62721766272024
 23
-25.24305453183064
 33
0.0
  0
LINE
  5
808C
  8
OBJECT
 10
29.97519737042523
 20
-25.65043926440225
 30
0.0
 11
30.3873018389832
 21
-25.65043926440225
 31
0.0
  0
TEXT
  5
808E
  8
0
 10
30.50557693938526
 20
-25.77161354570666
 30
0.0
 40
0.25
  1
KNOCKOUT
 41
0.75
  7
TXT
  0
LINE
  5
8090
  8
0
 10
29.24504391536785
 20
-15.20898636961584
 30
0.0
 11
30.54168730944052
 21
-14.35107550697736
 31
0.0
  0
SOLID
  5
8091
  8
0
 10
29.10308708657402
 20
-15.3288766174174
 30
0.0
 11
29.34949027577869
 21
-15.05964536301003
 31
0.0
 12
29.423489429143
 22
-15.15411295163899
 32
0.0
 13
29.423489429143
 23
-15.15411295163899
 33
0.0
  0
LINE
  5
8092
  8
OBJECT
 10
30.54168730944052
 20
-14.35107550697736
 30
0.0
 11
30.88211847559012
 21
-14.35107550697736
 31
0.0
  0
TEXT
  5
8093
  8
0
 10
30.969871690485
 20
-14.4654515714432
 30
0.0
 40
0.25
  1
KNOCKOUT
 41
0.75
  7
TXT
  0
POINT
  5
812F
  8
DEFPOINTS
 10
20.34110276407515
 20
-25.10740203838542
 30
0.0
  0
POINT
  5
8130
  8
DEFPOINTS
 10
21.91590588407515
 20
-24.79244141438549
 30
0.0
  0
LINE
  5
8131
  8
0
 10
20.34110276407515
 20
-25.23340203838542
 30
0.0
 11
20.34110276407515
 21
-26.71136884519927
 31
0.0
  0
LINE
  5
8132
  8
0
 10
21.91590588407515
 20
-24.91844141438549
 30
0.0
 11
21.91590588407515
 21
-26.71136884519927
 31
0.0
  0
LINE
  5
8133
  8
0
 10
19.98110276407515
 20
-26.52536884519927
 30
0.0
 11
19.62110276407515
 21
-26.52536884519927
 31
0.0
  0
SOLID
  5
8134
  8
0
 10
20.34110276407515
 20
-26.52536884519927
 30
0.0
 11
19.98110276407515
 21
-26.58536884519928
 31
0.0
 12
19.98110276407515
 22
-26.46536884519925
 32
0.0
 13
19.98110276407515
 23
-26.46536884519925
 33
0.0
  0
LINE
  5
8135
  8
0
 10
22.27590588407515
 20
-26.52536884519927
 30
0.0
 11
22.63590588407515
 21
-26.52536884519927
 31
0.0
  0
SOLID
  5
8136
  8
0
 10
21.91590588407515
 20
-26.52536884519927
 30
0.0
 11
22.27590588407515
 21
-26.58536884519928
 31
0.0
 12
22.27590588407515
 22
-26.46536884519925
 32
0.0
 13
22.27590588407515
 23
-26.46536884519925
 33
0.0
  0
LINE
  5
8137
  8
0
 10
20.34110276407515
 20
-26.52536884519927
 30
0.0
 11
19.82475432407515
 21
-26.52536884519927
 31
0.0
  0
LINE
  5
8138
  8
0
 10
21.91590588407515
 20
-26.52536884519927
 30
0.0
 11
22.43225432407515
 21
-26.52536884519927
 31
0.0
  0
TEXT
  5
8139
  8
0
 10
22.79439210455406
 20
-26.65036884519927
 30
0.0
 40
0.25
  1
1.575 [40.0]
  0
SOLID
  5
813A
  8
OBJECT
 10
21.96878897386012
 20
-15.23248556353424
 30
0.0
 11
21.65617536265695
 21
-15.42082761961974
 31
0.0
 12
21.89080703074033
 22
-15.14127801698648
 32
0.0
 13
21.89080703074033
 23
-15.14127801698648
 33
0.0
  0
LINE
  5
813B
  8
OBJECT
 10
21.92979800230022
 20
-15.18688179026036
 30
0.0
 11
22.85842067918101
 21
-14.39291458568974
 31
0.0
  0
LINE
  5
813C
  8
OBJECT
 10
23.21842067918101
 20
-14.39291458568974
 30
0.0
 11
22.85842067918101
 21
-14.39291458568974
 31
0.0
  0
POINT
  5
813D
  8
DEFPOINTS
 10
27.09271160852206
 20
-19.21075991823641
 30
0.0
  0
POINT
  5
813E
  8
DEFPOINTS
 10
30.16193103823884
 20
-19.21075991823641
 30
0.0
  0
LINE
  5
813F
  8
0
 10
27.09271160852206
 20
-19.0847599182364
 30
0.0
 11
27.09271160852206
 21
-18.68726885536469
 31
0.0
  0
LINE
  5
8140
  8
0
 10
30.16193103823884
 20
-19.0847599182364
 30
0.0
 11
30.16193103823884
 21
-18.68726885536469
 31
0.0
  0
TEXT
  5
8145
  8
0
 10
24.2929756829506
 20
-19.01830450360957
 30
0.0
 40
0.25
  1
3.07 [78.0] REF.
 41
0.75
  7
TXT
  0
LINE
  5
8146
  8
0
 10
27.45271160852206
 20
-18.87326885536469
 30
0.0
 11
27.81271160852206
 21
-18.87326885536469
 31
0.0
  0
SOLID
  5
8147
  8
0
 10
27.09271160852206
 20
-18.87326885536469
 30
0.0
 11
27.45271160852206
 21
-18.93326885536471
 31
0.0
 12
27.45271160852206
 22
-18.81326885536468
 32
0.0
 13
27.45271160852206
 23
-18.81326885536468
 33
0.0
  0
LINE
  5
8148
  8
0
 10
29.80193103823884
 20
-18.87326885536469
 30
0.0
 11
26.77238961427835
 21
-18.87326885536469
 31
0.0
  0
SOLID
  5
8149
  8
0
 10
30.16193103823884
 20
-18.87326885536469
 30
0.0
 11
29.80193103823884
 21
-18.93326885536471
 31
0.0
 12
29.80193103823884
 22
-18.81326885536468
 32
0.0
 13
29.80193103823884
 23
-18.81326885536468
 33
0.0
  0
TEXT
  5
9182
  8
OBJECT
 10
0.5864390501803313
 20
-31.23159338070415
 30
0.0
 40
0.2496000000000009
  1
OPTIONAL ACCESSORIES:
 41
0.75
  7
TXT
  0
TEXT
  5
9183
  8
OBJECT
 10
0.5864390501803313
 20
-31.59937522821362
 30
0.0
 40
0.249600000000001
  1
MOUNTING BRACKET KIT (STAINLESS STEEL) - #NBX-10922
 41
0.75
  7
TXT
  0
TEXT
  5
9184
  8
OBJECT
 10
0.5864390501803313
 20
-31.98284803328195
 30
0.0
 40
0.249600000000001
  1
MOUNTING BRACKET KIT (PLASTIC) - #PIX-4117
 41
0.75
  7
TXT
  0
VIEWPORT
  5
9107
 67
     1
  8
0
 10
7.8
 20
4.5
 30
0.0
 40
15.64
 41
9.0
 68
     1
 69
     1
1001
ACAD
1000
MVIEW
1002
{
1070
    16
1010
0.0
1020
0.0
1030
0.0
1020
0.0
1030
0.0
1010
0.0
1020
0.0
1030
1.0
1020
0.0
1030
1.0
1040
0.0
1040
12.0
1040
6.0
1040
4.5
1040
50.0
1040
0.0
1040
0.0
1070
    16
1070
   100
1070
     0
1070
     3
1070
     0
1070
     0
1070
     0
1070
     0
1040
0.0
1040
0.0
1040
0.0
1040
0.5
1040
0.5
1040
0.5
1040
0.5
1070
     0
1002
{
1002
}
1002
}
  0
ENDSEC
  0
EOF
