  0
SECTION
  2
HEADER
  9
$ACADVER
  1
AC1015
  9
$ACADMAINTVER
 70
     6
  9
$DWGCODEPAGE
  3
ANSI_1252
  9
$INSBASE
 10
0.0
 20
0.0
 30
0.0
  9
$EXTMIN
 10
0.0
 20
-0.8010880105221055
 30
0.0
  9
$EXTMAX
 10
85.25
 20
55.65999999999998
 30
0.0
  9
$LIMMIN
 10
0.0
 20
0.0
  9
$LIMMAX
 10
85.25
 20
55.65999999999998
  9
$ORTHOMODE
 70
     1
  9
$REGENMODE
 70
     1
  9
$FILLMODE
 70
     1
  9
$QTEXTMODE
 70
     0
  9
$MIRRTEXT
 70
     0
  9
$LTSCALE
 40
1.0
  9
$ATTMODE
 70
     1
  9
$TEXTSIZE
 40
0.6875
  9
$TRACEWID
 40
0.05
  9
$TEXTSTYLE
  7
TXT
  9
$CLAYER
  8
OBJECT
  9
$CELTYPE
  6
ByLayer
  9
$CECOLOR
 62
   256
  9
$CELTSCALE
 40
1.0
  9
$DISPSILH
 70
     0
  9
$DIMSCALE
 40
5.5
  9
$DIMASZ
 40
0.18
  9
$DIMEXO
 40
0.063
  9
$DIMDLI
 40
0.25
  9
$DIMRND
 40
0.0
  9
$DIMDLE
 40
0.0
  9
$DIMEXE
 40
0.093
  9
$DIMTP
 40
0.0
  9
$DIMTM
 40
0.0
  9
$DIMTXT
 40
0.125
  9
$DIMCEN
 40
0.09
  9
$DIMTSZ
 40
0.0
  9
$DIMTOL
 70
     0
  9
$DIMLIM
 70
     0
  9
$DIMTIH
 70
     1
  9
$DIMTOH
 70
     1
  9
$DIMSE1
 70
     0
  9
$DIMSE2
 70
     0
  9
$DIMTAD
 70
     0
  9
$DIMZIN
 70
     0
  9
$DIMBLK
  1

  9
$DIMASO
 70
     1
  9
$DIMSHO
 70
     1
  9
$DIMPOST
  1

  9
$DIMAPOST
  1

  9
$DIMALT
 70
     1
  9
$DIMALTD
 70
     0
  9
$DIMALTF
 40
25.4
  9
$DIMLFAC
 40
1.0
  9
$DIMTOFL
 70
     0
  9
$DIMTVP
 40
0.0
  9
$DIMTIX
 70
     0
  9
$DIMSOXD
 70
     0
  9
$DIMSAH
 70
     0
  9
$DIMBLK1
  1

  9
$DIMBLK2
  1

  9
$DIMSTYLE
  2
23NSTD
  9
$DIMCLRD
 70
     0
  9
$DIMCLRE
 70
     0
  9
$DIMCLRT
 70
     0
  9
$DIMTFAC
 40
1.0
  9
$DIMGAP
 40
0.09
  9
$DIMJUST
 70
     0
  9
$DIMSD1
 70
     0
  9
$DIMSD2
 70
     0
  9
$DIMTOLJ
 70
     1
  9
$DIMTZIN
 70
     0
  9
$DIMALTZ
 70
     0
  9
$DIMALTTZ
 70
     0
  9
$DIMUPT
 70
     0
  9
$DIMDEC
 70
     3
  9
$DIMTDEC
 70
     3
  9
$DIMALTU
 70
     2
  9
$DIMALTTD
 70
     0
  9
$DIMTXSTY
  7
TXT
  9
$DIMAUNIT
 70
     0
  9
$DIMADEC
 70
     0
  9
$DIMALTRND
 40
0.0
  9
$DIMAZIN
 70
     0
  9
$DIMDSEP
 70
    46
  9
$DIMATFIT
 70
     1
  9
$DIMFRAC
 70
     0
  9
$DIMLDRBLK
  1

  9
$DIMLUNIT
 70
     2
  9
$DIMLWD
 70
    -2
  9
$DIMLWE
 70
    -2
  9
$DIMTMOVE
 70
     0
  9
$LUNITS
 70
     2
  9
$LUPREC
 70
     3
  9
$SKETCHINC
 40
0.1
  9
$FILLETRAD
 40
0.0
  9
$AUNITS
 70
     0
  9
$AUPREC
 70
     0
  9
$MENU
  1
acad
  9
$ELEVATION
 40
0.0
  9
$PELEVATION
 40
0.0
  9
$THICKNESS
 40
0.0
  9
$LIMCHECK
 70
     0
  9
$CHAMFERA
 40
0.0
  9
$CHAMFERB
 40
0.0
  9
$CHAMFERC
 40
0.0
  9
$CHAMFERD
 40
0.0
  9
$SKPOLY
 70
     0
  9
$TDCREATE
 40
2451095.630225462
  9
$TDUCREATE
 40
2451095.796892130
  9
$TDUPDATE
 40
2454306.461374236
  9
$TDUUPDATE
 40
2454306.628040903
  9
$TDINDWG
 40
0.3794668403
  9
$TDUSRTIMER
 40
0.3794668403
  9
$USRTIMER
 70
     1
  9
$ANGBASE
 50
0.0
  9
$ANGDIR
 70
     0
  9
$PDMODE
 70
     0
  9
$PDSIZE
 40
0.0
  9
$PLINEWID
 40
0.0
  9
$SPLFRAME
 70
     0
  9
$SPLINETYPE
 70
     6
  9
$SPLINESEGS
 70
     8
  9
$HANDSEED
  5
895
  9
$SURFTAB1
 70
     6
  9
$SURFTAB2
 70
     6
  9
$SURFTYPE
 70
     6
  9
$SURFU
 70
     6
  9
$SURFV
 70
     6
  9
$UCSBASE
  2

  9
$UCSNAME
  2

  9
$UCSORG
 10
0.0
 20
0.0
 30
0.0
  9
$UCSXDIR
 10
1.0
 20
0.0
 30
0.0
  9
$UCSYDIR
 10
0.0
 20
1.0
 30
0.0
  9
$UCSORTHOREF
  2

  9
$UCSORTHOVIEW
 70
     0
  9
$UCSORGTOP
 10
0.0
 20
0.0
 30
0.0
  9
$UCSORGBOTTOM
 10
0.0
 20
0.0
 30
0.0
  9
$UCSORGLEFT
 10
0.0
 20
0.0
 30
0.0
  9
$UCSORGRIGHT
 10
0.0
 20
0.0
 30
0.0
  9
$UCSORGFRONT
 10
0.0
 20
0.0
 30
0.0
  9
$UCSORGBACK
 10
0.0
 20
0.0
 30
0.0
  9
$PUCSBASE
  2

  9
$PUCSNAME
  2

  9
$PUCSORG
 10
0.0
 20
0.0
 30
0.0
  9
$PUCSXDIR
 10
1.0
 20
0.0
 30
0.0
  9
$PUCSYDIR
 10
0.0
 20
1.0
 30
0.0
  9
$PUCSORTHOREF
  2

  9
$PUCSORTHOVIEW
 70
     0
  9
$PUCSORGTOP
 10
0.0
 20
0.0
 30
0.0
  9
$PUCSORGBOTTOM
 10
0.0
 20
0.0
 30
0.0
  9
$PUCSORGLEFT
 10
0.0
 20
0.0
 30
0.0
  9
$PUCSORGRIGHT
 10
0.0
 20
0.0
 30
0.0
  9
$PUCSORGFRONT
 10
0.0
 20
0.0
 30
0.0
  9
$PUCSORGBACK
 10
0.0
 20
0.0
 30
0.0
  9
$USERI1
 70
     0
  9
$USERI2
 70
     0
  9
$USERI3
 70
     0
  9
$USERI4
 70
     0
  9
$USERI5
 70
     0
  9
$USERR1
 40
0.0
  9
$USERR2
 40
0.0
  9
$USERR3
 40
0.0
  9
$USERR4
 40
0.0
  9
$USERR5
 40
0.0
  9
$WORLDVIEW
 70
     0
  9
$SHADEDGE
 70
     3
  9
$SHADEDIF
 70
    70
  9
$TILEMODE
 70
     1
  9
$MAXACTVP
 70
    16
  9
$PINSBASE
 10
0.0
 20
0.0
 30
0.0
  9
$PLIMCHECK
 70
     0
  9
$PEXTMIN
 10
1.060416690946563
 20
0.7937500251559762
 30
0.0
  9
$PEXTMAX
 10
9.543750218519075
 20
7.143750226403783
 30
0.0
  9
$PLIMMIN
 10
-0.1979161059762549
 20
-0.2812499887361301
  9
$PLIMMAX
 10
10.80208365372785
 20
8.218749770967978
  9
$UNITMODE
 70
     0
  9
$VISRETAIN
 70
     0
  9
$PLINEGEN
 70
     0
  9
$PSLTSCALE
 70
     1
  9
$TREEDEPTH
 70
  3020
  9
$CMLSTYLE
  2
Standard
  9
$CMLJUST
 70
     0
  9
$CMLSCALE
 40
1.0
  9
$PROXYGRAPHICS
 70
     1
  9
$MEASUREMENT
 70
     0
  9
$CELWEIGHT
370
    -1
  9
$ENDCAPS
280
     0
  9
$JOINSTYLE
280
     0
  9
$LWDISPLAY
290
     0
  9
$INSUNITS
 70
     0
  9
$HYPERLINKBASE
  1

  9
$STYLESHEET
  1
monochrome.ctb
  9
$XEDIT
290
     1
  9
$CEPSNTYPE
380
     0
  9
$PSTYLEMODE
290
     1
  9
$FINGERPRINTGUID
  2
{DFFA6D4A-C900-11D8-8606-00C04F604D21}
  9
$VERSIONGUID
  2
{128AD731-90B5-4D96-9042-75D5BBCF629D}
  9
$EXTNAMES
290
     1
  9
$PSVPSCALE
 40
0.0
  9
$OLESTARTUP
290
     0
  0
ENDSEC
  0
SECTION
  2
CLASSES
  0
CLASS
  1
ACDBDICTIONARYWDFLT
  2
AcDbDictionaryWithDefault
  3
AutoCAD 2000
 90
        0
280
     0
281
     0
  0
CLASS
  1
ACDBPLACEHOLDER
  2
AcDbPlaceHolder
  3
AutoCAD 2000
 90
        0
280
     0
281
     0
  0
CLASS
  1
LAYOUT
  2
AcDbLayout
  3
AutoCAD 2000
 90
        0
280
     0
281
     0
  0
ENDSEC
  0
SECTION
  2
TABLES
  0
TABLE
  2
VPORT
  5
8
330
0
100
AcDbSymbolTable
 70
     2
  0
VPORT
  5
894
330
8
100
AcDbSymbolTableRecord
100
AcDbViewportTableRecord
  2
*Active
 70
     0
 10
0.0
 20
0.0
 11
1.0
 21
1.0
 12
42.62500039698838
 22
27.42945625766436
 13
0.0
 23
0.0
 14
1.0
 24
1.0
 15
0.0
 25
0.0
 16
0.0
 26
0.0
 36
1.0
 17
0.0
 27
0.0
 37
0.0
 40
57.03266024795678
 41
1.824707846410684
 42
50.0
 43
0.0
 44
0.0
 50
0.0
 51
0.0
 71
     0
 72
   100
 73
     1
 74
     0
 75
     0
 76
     0
 77
     0
 78
     0
281
     0
 65
     1
110
0.0
120
0.0
130
0.0
111
1.0
121
0.0
131
0.0
112
0.0
122
1.0
132
0.0
 79
     0
146
0.0
  0
ENDTAB
  0
TABLE
  2
LTYPE
  5
5
330
0
100
AcDbSymbolTable
 70
     4
  0
LTYPE
  5
13
330
5
100
AcDbSymbolTableRecord
100
AcDbLinetypeTableRecord
  2
ByBlock
 70
     0
  3

 72
    65
 73
     0
 40
0.0
  0
LTYPE
  5
14
330
5
100
AcDbSymbolTableRecord
100
AcDbLinetypeTableRecord
  2
ByLayer
 70
     0
  3

 72
    65
 73
     0
 40
0.0
  0
LTYPE
  5
15
330
5
100
AcDbSymbolTableRecord
100
AcDbLinetypeTableRecord
  2
CONTINUOUS
 70
     0
  3
Solid line
 72
    65
 73
     0
 40
0.0
  0
LTYPE
  5
3D
330
5
100
AcDbSymbolTableRecord
100
AcDbLinetypeTableRecord
  2
PHANTOM
 70
     0
  3
_____ _ _ _____ _ _ _____ _ _ _____ _ _ ____
 72
    65
 73
     6
 40
2.5
 49
1.25
 74
     0
 49
-0.25
 74
     0
 49
0.25
 74
     0
 49
-0.25
 74
     0
 49
0.25
 74
     0
 49
-0.25
 74
     0
  0
LTYPE
  5
3E
330
5
100
AcDbSymbolTableRecord
100
AcDbLinetypeTableRecord
  2
CENTER
 70
     0
  3
____ _ ____ _ ____ _ ____ _ ____ _ ____ _ ____
 72
    65
 73
     4
 40
2.0
 49
1.25
 74
     0
 49
-0.25
 74
     0
 49
0.25
 74
     0
 49
-0.25
 74
     0
  0
LTYPE
  5
3F
330
5
100
AcDbSymbolTableRecord
100
AcDbLinetypeTableRecord
  2
HIDDEN2
 70
     0
  3
_ _ _ _ _ _ _ _ _ _ _ _ _ _ _ _ _ _ _ _ _ _ _ _
 72
    65
 73
     2
 40
0.1875
 49
0.125
 74
     0
 49
-0.0625
 74
     0
  0
ENDTAB
  0
TABLE
  2
LAYER
  5
2
330
0
100
AcDbSymbolTable
 70
     9
  0
LAYER
  5
10
330
2
100
AcDbSymbolTableRecord
100
AcDbLayerTableRecord
  2
0
 70
     0
 62
     7
  6
CONTINUOUS
370
    -3
390
F
  0
LAYER
  5
44
330
2
100
AcDbSymbolTableRecord
100
AcDbLayerTableRecord
  2
OBJECT
 70
     0
 62
     7
  6
CONTINUOUS
370
    -3
390
F
  0
LAYER
  5
45
330
2
100
AcDbSymbolTableRecord
100
AcDbLayerTableRecord
  2
DIM
 70
     0
 62
     7
  6
CONTINUOUS
370
    -3
390
F
  0
LAYER
  5
46
330
2
100
AcDbSymbolTableRecord
100
AcDbLayerTableRecord
  2
HIDDEN
 70
     0
 62
     7
  6
HIDDEN2
370
    -3
390
F
  0
LAYER
  5
47
330
2
100
AcDbSymbolTableRecord
100
AcDbLayerTableRecord
  2
BEND
 70
     0
 62
     7
  6
PHANTOM
370
    -3
390
F
  0
LAYER
  5
48
330
2
100
AcDbSymbolTableRecord
100
AcDbLayerTableRecord
  2
TEXT
 70
     0
 62
     7
  6
CONTINUOUS
370
    -3
390
F
  0
LAYER
  5
49
330
2
100
AcDbSymbolTableRecord
100
AcDbLayerTableRecord
  2
TITLE
 70
     0
 62
     7
  6
CONTINUOUS
370
    -3
390
F
  0
LAYER
  5
4A
330
2
100
AcDbSymbolTableRecord
100
AcDbLayerTableRecord
  2
CENTER
 70
     0
 62
     7
  6
CENTER
370
    -3
390
F
  0
LAYER
  5
4B
330
2
100
AcDbSymbolTableRecord
100
AcDbLayerTableRecord
  2
DEFPOINTS
 70
     0
 62
     7
  6
CONTINUOUS
290
     0
370
    -3
390
F
  0
ENDTAB
  0
TABLE
  2
STYLE
  5
3
330
0
100
AcDbSymbolTable
 70
     2
  0
STYLE
  5
11
330
3
100
AcDbSymbolTableRecord
100
AcDbTextStyleTableRecord
  2
STANDARD
 70
     0
 40
0.0
 41
1.0
 50
0.0
 71
     0
 42
0.2
  3
txt
  4

  0
STYLE
  5
3C
330
3
100
AcDbSymbolTableRecord
100
AcDbTextStyleTableRecord
  2
TXT
 70
     0
 40
0.0
 41
0.75
 50
0.0
 71
     0
 42
0.6875
  3
TXT.shx
  4

  0
ENDTAB
  0
TABLE
  2
VIEW
  5
6
330
0
100
AcDbSymbolTable
 70
     0
  0
ENDTAB
  0
TABLE
  2
UCS
  5
7
330
0
100
AcDbSymbolTable
 70
     0
  0
ENDTAB
  0
TABLE
  2
APPID
  5
9
330
0
100
AcDbSymbolTable
 70
     1
  0
APPID
  5
12
330
9
100
AcDbSymbolTableRecord
100
AcDbRegAppTableRecord
  2
ACAD
 70
     0
  0
ENDTAB
  0
TABLE
  2
DIMSTYLE
  5
A
330
0
100
AcDbSymbolTable
 70
     2
100
AcDbDimStyleTable
 71
     2
340
43
340
42
  0
DIMSTYLE
105
42
102
{ACAD_REACTORS
330
24B
330
24C
330
24D
330
24E
330
24F
330
250
330
251
330
252
330
253
330
254
330
255
330
259
330
25E
330
25F
330
260
330
261
330
286
330
29B
330
2A6
330
4BF
330
4C0
330
4C1
102
}
330
A
100
AcDbSymbolTableRecord
100
AcDbDimStyleTableRecord
  2
23NSTD
 70
     0
 40
5.5
 42
0.063
 43
0.25
 44
0.093
140
0.125
170
     1
171
     0
271
     3
272
     3
274
     0
289
     1
340
3C
  0
DIMSTYLE
105
43
102
{ACAD_REACTORS
330
256
102
}
330
A
100
AcDbSymbolTableRecord
100
AcDbDimStyleTableRecord
  2
23NSTDI
 70
     0
 40
5.5
 42
0.063
 43
0.25
 44
0.093
140
0.125
170
     1
171
     0
174
     1
271
     3
272
     3
274
     0
340
3C
  0
ENDTAB
  0
TABLE
  2
BLOCK_RECORD
  5
1
330
0
100
AcDbSymbolTable
 70
    26
  0
BLOCK_RECORD
  5
1E
330
1
100
AcDbSymbolTableRecord
100
AcDbBlockTableRecord
  2
*Model_Space
340
21
  0
BLOCK_RECORD
  5
1A
330
1
100
AcDbSymbolTableRecord
100
AcDbBlockTableRecord
  2
*Paper_Space
340
1D
  0
BLOCK_RECORD
  5
22
330
1
100
AcDbSymbolTableRecord
100
AcDbBlockTableRecord
  2
*X0
340
0
102
{BLKREFS
331
43E
102
}
  0
BLOCK_RECORD
  5
23
330
1
100
AcDbSymbolTableRecord
100
AcDbBlockTableRecord
  2
*X1
340
0
102
{BLKREFS
331
52A
102
}
  0
BLOCK_RECORD
  5
24
330
1
100
AcDbSymbolTableRecord
100
AcDbBlockTableRecord
  2
HBS
340
0
102
{BLKREFS
331
65F
102
}
  0
BLOCK_RECORD
  5
737
330
1
100
AcDbSymbolTableRecord
100
AcDbBlockTableRecord
  2
*D3
340
0
  0
BLOCK_RECORD
  5
744
330
1
100
AcDbSymbolTableRecord
100
AcDbBlockTableRecord
  2
*D4
340
0
  0
BLOCK_RECORD
  5
751
330
1
100
AcDbSymbolTableRecord
100
AcDbBlockTableRecord
  2
*D5
340
0
  0
BLOCK_RECORD
  5
75E
330
1
100
AcDbSymbolTableRecord
100
AcDbBlockTableRecord
  2
*D6
340
0
  0
BLOCK_RECORD
  5
76B
330
1
100
AcDbSymbolTableRecord
100
AcDbBlockTableRecord
  2
*D7
340
0
  0
BLOCK_RECORD
  5
778
330
1
100
AcDbSymbolTableRecord
100
AcDbBlockTableRecord
  2
*D8
340
0
  0
BLOCK_RECORD
  5
785
330
1
100
AcDbSymbolTableRecord
100
AcDbBlockTableRecord
  2
*D9
340
0
  0
BLOCK_RECORD
  5
792
330
1
100
AcDbSymbolTableRecord
100
AcDbBlockTableRecord
  2
*D10
340
0
  0
BLOCK_RECORD
  5
79F
330
1
100
AcDbSymbolTableRecord
100
AcDbBlockTableRecord
  2
*D11
340
0
  0
BLOCK_RECORD
  5
7AC
330
1
100
AcDbSymbolTableRecord
100
AcDbBlockTableRecord
  2
*D12
340
0
  0
BLOCK_RECORD
  5
7B9
330
1
100
AcDbSymbolTableRecord
100
AcDbBlockTableRecord
  2
*D13
340
0
  0
BLOCK_RECORD
  5
7C6
330
1
100
AcDbSymbolTableRecord
100
AcDbBlockTableRecord
  2
*D14
340
0
  0
BLOCK_RECORD
  5
7D3
330
1
100
AcDbSymbolTableRecord
100
AcDbBlockTableRecord
  2
*D15
340
0
  0
BLOCK_RECORD
  5
7E0
330
1
100
AcDbSymbolTableRecord
100
AcDbBlockTableRecord
  2
*D16
340
0
  0
BLOCK_RECORD
  5
7ED
330
1
100
AcDbSymbolTableRecord
100
AcDbBlockTableRecord
  2
*D17
340
0
  0
BLOCK_RECORD
  5
7FA
330
1
100
AcDbSymbolTableRecord
100
AcDbBlockTableRecord
  2
*D18
340
0
  0
BLOCK_RECORD
  5
808
330
1
100
AcDbSymbolTableRecord
100
AcDbBlockTableRecord
  2
*D19
340
0
  0
BLOCK_RECORD
  5
815
330
1
100
AcDbSymbolTableRecord
100
AcDbBlockTableRecord
  2
*D20
340
0
  0
BLOCK_RECORD
  5
822
330
1
100
AcDbSymbolTableRecord
100
AcDbBlockTableRecord
  2
*D21
340
0
  0
BLOCK_RECORD
  5
82F
330
1
100
AcDbSymbolTableRecord
100
AcDbBlockTableRecord
  2
*D22
340
0
  0
BLOCK_RECORD
  5
83C
330
1
100
AcDbSymbolTableRecord
100
AcDbBlockTableRecord
  2
*D23
340
0
  0
BLOCK_RECORD
  5
849
330
1
100
AcDbSymbolTableRecord
100
AcDbBlockTableRecord
  2
*D24
340
0
  0
BLOCK_RECORD
  5
856
330
1
100
AcDbSymbolTableRecord
100
AcDbBlockTableRecord
  2
*D25
340
0
  0
ENDTAB
  0
ENDSEC
  0
SECTION
  2
BLOCKS
  0
BLOCK
  5
4E
330
1E
100
AcDbEntity
  8
0
100
AcDbBlockBegin
  2
*Model_Space
 70
     0
 10
0.0
 20
0.0
 30
0.0
  3
*Model_Space
  1

  0
ENDBLK
  5
4F
330
1E
100
AcDbEntity
  8
0
100
AcDbBlockEnd
  0
BLOCK
  5
4C
330
1A
100
AcDbEntity
 67
     1
  8
0
100
AcDbBlockBegin
  2
*Paper_Space
 70
     0
 10
0.0
 20
0.0
 30
0.0
  3
*Paper_Space
  1

  0
ENDBLK
  5
4D
330
1A
100
AcDbEntity
 67
     1
  8
0
100
AcDbBlockEnd
  0
BLOCK
  5
50
330
22
100
AcDbEntity
  8
0
100
AcDbBlockBegin
  2
*X0
 70
     1
 10
0.0
 20
0.0
 30
0.0
  3
*X0
  1

  0
LINE
  5
51
330
22
100
AcDbEntity
  8
0
 62
     0
100
AcDbLine
 10
24.98698683207074
 20
39.12912245580168
 30
0.0
 11
25.12098683207074
 21
39.26312245580169
 31
0.0
  0
LINE
  5
52
330
22
100
AcDbEntity
  8
0
 62
     0
100
AcDbLine
 10
24.98698683207074
 20
39.83622923698823
 30
0.0
 11
25.12098683207074
 21
39.97022923698823
 31
0.0
  0
LINE
  5
53
330
22
100
AcDbEntity
  8
0
 62
     0
100
AcDbLine
 10
24.98698683207074
 20
40.54333601817478
 30
0.0
 11
25.12098683207073
 21
40.67733601817479
 31
0.0
  0
LINE
  5
54
330
22
100
AcDbEntity
  8
0
 62
     0
100
AcDbLine
 10
24.98698683207073
 20
41.25044279936132
 30
0.0
 11
25.12098683207073
 21
41.38444279936133
 31
0.0
  0
LINE
  5
55
330
22
100
AcDbEntity
  8
0
 62
     0
100
AcDbLine
 10
24.98698683207073
 20
41.95754958054787
 30
0.0
 11
25.12098683207073
 21
42.09154958054788
 31
0.0
  0
LINE
  5
56
330
22
100
AcDbEntity
  8
0
 62
     0
100
AcDbLine
 10
24.98698683207073
 20
42.66465636173442
 30
0.0
 11
25.12098683207073
 21
42.79865636173442
 31
0.0
  0
LINE
  5
57
330
22
100
AcDbEntity
  8
0
 62
     0
100
AcDbLine
 10
24.98698683207073
 20
43.37176314292096
 30
0.0
 11
25.12098683207073
 21
43.50576314292097
 31
0.0
  0
LINE
  5
58
330
22
100
AcDbEntity
  8
0
 62
     0
100
AcDbLine
 10
24.98698683207073
 20
44.07886992410751
 30
0.0
 11
25.12098683207073
 21
44.21286992410752
 31
0.0
  0
LINE
  5
59
330
22
100
AcDbEntity
  8
0
 62
     0
100
AcDbLine
 10
24.98698683207074
 20
38.42201567461513
 30
0.0
 11
25.12098683207074
 21
38.55601567461514
 31
0.0
  0
LINE
  5
5A
330
22
100
AcDbEntity
  8
0
 62
     0
100
AcDbLine
 10
24.98698683207074
 20
37.71490889342859
 30
0.0
 11
25.12098683207074
 21
37.8489088934286
 31
0.0
  0
LINE
  5
5B
330
22
100
AcDbEntity
  8
0
 62
     0
100
AcDbLine
 10
24.98698683207074
 20
37.00780211224204
 30
0.0
 11
25.12098683207074
 21
37.14180211224205
 31
0.0
  0
LINE
  5
5C
330
22
100
AcDbEntity
  8
0
 62
     0
100
AcDbLine
 10
24.98698683207074
 20
36.3006953310555
 30
0.0
 11
25.12098683207074
 21
36.4346953310555
 31
0.0
  0
LINE
  5
5D
330
22
100
AcDbEntity
  8
0
 62
     0
100
AcDbLine
 10
25.01321860842696
 20
35.61982032622517
 30
0.0
 11
25.12098683207074
 21
35.72758854986896
 31
0.0
  0
LINE
  5
5E
330
22
100
AcDbEntity
  8
0
 62
     0
100
AcDbLine
 10
25.61166044410031
 20
35.51115538071197
 30
0.0
 11
25.74088616259327
 21
35.64038109920494
 31
0.0
  0
LINE
  5
5F
330
22
100
AcDbEntity
  8
0
 62
     0
100
AcDbLine
 10
26.01896681109594
 20
35.21135496652105
 30
0.0
 11
26.17177421107065
 21
35.36416236649577
 31
0.0
  0
LINE
  5
60
330
22
100
AcDbEntity
  8
0
 62
     0
100
AcDbLine
 10
24.98698683207074
 20
39.21751080345
 30
0.0
 11
25.12098683207074
 21
39.35151080345001
 31
0.0
  0
LINE
  5
61
330
22
100
AcDbEntity
  8
0
 62
     0
100
AcDbLine
 10
24.98698683207074
 20
39.92461758463655
 30
0.0
 11
25.12098683207074
 21
40.05861758463655
 31
0.0
  0
LINE
  5
62
330
22
100
AcDbEntity
  8
0
 62
     0
100
AcDbLine
 10
24.98698683207074
 20
40.63172436582309
 30
0.0
 11
25.12098683207073
 21
40.7657243658231
 31
0.0
  0
LINE
  5
63
330
22
100
AcDbEntity
  8
0
 62
     0
100
AcDbLine
 10
24.98698683207073
 20
41.33883114700964
 30
0.0
 11
25.12098683207073
 21
41.47283114700965
 31
0.0
  0
LINE
  5
64
330
22
100
AcDbEntity
  8
0
 62
     0
100
AcDbLine
 10
24.98698683207073
 20
42.04593792819618
 30
0.0
 11
25.12098683207073
 21
42.17993792819619
 31
0.0
  0
LINE
  5
65
330
22
100
AcDbEntity
  8
0
 62
     0
100
AcDbLine
 10
24.98698683207073
 20
42.75304470938273
 30
0.0
 11
25.12098683207073
 21
42.88704470938274
 31
0.0
  0
LINE
  5
66
330
22
100
AcDbEntity
  8
0
 62
     0
100
AcDbLine
 10
24.98698683207073
 20
43.46015149056928
 30
0.0
 11
25.12098683207073
 21
43.59415149056928
 31
0.0
  0
LINE
  5
67
330
22
100
AcDbEntity
  8
0
 62
     0
100
AcDbLine
 10
24.98698683207073
 20
44.16725827175583
 30
0.0
 11
25.12098683207073
 21
44.30125827175583
 31
0.0
  0
LINE
  5
68
330
22
100
AcDbEntity
  8
0
 62
     0
100
AcDbLine
 10
24.98698683207074
 20
38.51040402226345
 30
0.0
 11
25.12098683207074
 21
38.64440402226346
 31
0.0
  0
LINE
  5
69
330
22
100
AcDbEntity
  8
0
 62
     0
100
AcDbLine
 10
24.98698683207074
 20
37.80329724107691
 30
0.0
 11
25.12098683207074
 21
37.93729724107691
 31
0.0
  0
LINE
  5
6A
330
22
100
AcDbEntity
  8
0
 62
     0
100
AcDbLine
 10
24.98698683207074
 20
37.09619045989036
 30
0.0
 11
25.12098683207074
 21
37.23019045989037
 31
0.0
  0
LINE
  5
6B
330
22
100
AcDbEntity
  8
0
 62
     0
100
AcDbLine
 10
24.98698683207074
 20
36.38908367870381
 30
0.0
 11
25.12098683207074
 21
36.52308367870382
 31
0.0
  0
LINE
  5
6C
330
22
100
AcDbEntity
  8
0
 62
     0
100
AcDbLine
 10
24.98926735582148
 20
35.684257421268
 30
0.0
 11
25.12098683207074
 21
35.81597689751727
 31
0.0
  0
LINE
  5
6D
330
22
100
AcDbEntity
  8
0
 62
     0
100
AcDbLine
 10
25.52777406685674
 20
35.51565735111672
 30
0.0
 11
25.65672827339028
 21
35.64461155765027
 31
0.0
  0
LINE
  5
6E
330
22
100
AcDbEntity
  8
0
 62
     0
100
AcDbLine
 10
25.93635522807769
 20
35.21713173115113
 30
0.0
 11
26.10025143223792
 21
35.38102793531136
 31
0.0
  0
LINE
  5
6F
330
22
100
AcDbEntity
  8
0
 62
     0
100
AcDbLine
 10
24.98698683207074
 20
39.30589915109832
 30
0.0
 11
25.12098683207074
 21
39.43989915109833
 31
0.0
  0
LINE
  5
70
330
22
100
AcDbEntity
  8
0
 62
     0
100
AcDbLine
 10
24.98698683207074
 20
40.01300593228487
 30
0.0
 11
25.12098683207074
 21
40.14700593228488
 31
0.0
  0
LINE
  5
71
330
22
100
AcDbEntity
  8
0
 62
     0
100
AcDbLine
 10
24.98698683207074
 20
40.72011271347141
 30
0.0
 11
25.12098683207073
 21
40.85411271347142
 31
0.0
  0
LINE
  5
72
330
22
100
AcDbEntity
  8
0
 62
     0
100
AcDbLine
 10
24.98698683207073
 20
41.42721949465796
 30
0.0
 11
25.12098683207073
 21
41.56121949465797
 31
0.0
  0
LINE
  5
73
330
22
100
AcDbEntity
  8
0
 62
     0
100
AcDbLine
 10
24.98698683207073
 20
42.13432627584451
 30
0.0
 11
25.12098683207073
 21
42.26832627584451
 31
0.0
  0
LINE
  5
74
330
22
100
AcDbEntity
  8
0
 62
     0
100
AcDbLine
 10
24.98698683207073
 20
42.84143305703105
 30
0.0
 11
25.12098683207073
 21
42.97543305703106
 31
0.0
  0
LINE
  5
75
330
22
100
AcDbEntity
  8
0
 62
     0
100
AcDbLine
 10
24.98698683207073
 20
43.5485398382176
 30
0.0
 11
25.12098683207073
 21
43.68253983821761
 31
0.0
  0
LINE
  5
76
330
22
100
AcDbEntity
  8
0
 62
     0
100
AcDbLine
 10
24.98698683207073
 20
44.25564661940414
 30
0.0
 11
25.12098683207073
 21
44.38964661940415
 31
0.0
  0
LINE
  5
77
330
22
100
AcDbEntity
  8
0
 62
     0
100
AcDbLine
 10
24.98698683207074
 20
38.59879236991178
 30
0.0
 11
25.12098683207074
 21
38.73279236991178
 31
0.0
  0
LINE
  5
78
330
22
100
AcDbEntity
  8
0
 62
     0
100
AcDbLine
 10
24.98698683207074
 20
37.89168558872523
 30
0.0
 11
25.12098683207074
 21
38.02568558872523
 31
0.0
  0
LINE
  5
79
330
22
100
AcDbEntity
  8
0
 62
     0
100
AcDbLine
 10
24.98698683207074
 20
37.18457880753868
 30
0.0
 11
25.12098683207074
 21
37.31857880753868
 31
0.0
  0
LINE
  5
7A
330
22
100
AcDbEntity
  8
0
 62
     0
100
AcDbLine
 10
24.98698683207074
 20
36.47747202635214
 30
0.0
 11
25.12098683207074
 21
36.61147202635214
 31
0.0
  0
LINE
  5
7B
330
22
100
AcDbEntity
  8
0
 62
     0
100
AcDbLine
 10
24.98698683207074
 20
35.77036524516559
 30
0.0
 11
25.12098683207074
 21
35.90436524516559
 31
0.0
  0
LINE
  5
7C
330
22
100
AcDbEntity
  8
0
 62
     0
100
AcDbLine
 10
25.44388768961317
 20
35.52015932152147
 30
0.0
 11
25.5725703841873
 21
35.6488420160956
 31
0.0
  0
LINE
  5
7D
330
22
100
AcDbEntity
  8
0
 62
     0
100
AcDbLine
 10
25.88209337938165
 20
35.25125823010341
 30
0.0
 11
26.01409960673294
 21
35.3832644574547
 31
0.0
  0
LINE
  5
7E
330
22
100
AcDbEntity
  8
0
 62
     0
100
AcDbLine
 10
26.16803650266921
 20
35.53720135339096
 30
0.0
 11
26.17177421107065
 21
35.5409390617924
 31
0.0
  0
LINE
  5
7F
330
22
100
AcDbEntity
  8
0
 62
     0
100
AcDbLine
 10
24.98698683207074
 20
38.86395741285673
 30
0.0
 11
25.12098683207074
 21
38.99795741285673
 31
0.0
  0
LINE
  5
80
330
22
100
AcDbEntity
  8
0
 62
     0
100
AcDbLine
 10
24.98698683207074
 20
39.57106419404328
 30
0.0
 11
25.12098683207074
 21
39.70506419404328
 31
0.0
  0
LINE
  5
81
330
22
100
AcDbEntity
  8
0
 62
     0
100
AcDbLine
 10
24.98698683207074
 20
40.27817097522983
 30
0.0
 11
25.12098683207073
 21
40.41217097522983
 31
0.0
  0
LINE
  5
82
330
22
100
AcDbEntity
  8
0
 62
     0
100
AcDbLine
 10
24.98698683207073
 20
40.98527775641637
 30
0.0
 11
25.12098683207073
 21
41.11927775641637
 31
0.0
  0
LINE
  5
83
330
22
100
AcDbEntity
  8
0
 62
     0
100
AcDbLine
 10
24.98698683207073
 20
41.69238453760292
 30
0.0
 11
25.12098683207073
 21
41.82638453760292
 31
0.0
  0
LINE
  5
84
330
22
100
AcDbEntity
  8
0
 62
     0
100
AcDbLine
 10
24.98698683207073
 20
42.39949131878947
 30
0.0
 11
25.12098683207073
 21
42.53349131878946
 31
0.0
  0
LINE
  5
85
330
22
100
AcDbEntity
  8
0
 62
     0
100
AcDbLine
 10
24.98698683207073
 20
43.10659809997601
 30
0.0
 11
25.12098683207073
 21
43.24059809997602
 31
0.0
  0
LINE
  5
86
330
22
100
AcDbEntity
  8
0
 62
     0
100
AcDbLine
 10
24.98698683207073
 20
43.81370488116256
 30
0.0
 11
25.12098683207073
 21
43.94770488116257
 31
0.0
  0
LINE
  5
87
330
22
100
AcDbEntity
  8
0
 62
     0
100
AcDbLine
 10
24.98698683207073
 20
44.5208116623491
 30
0.0
 11
25.12098683207073
 21
44.65481166234911
 31
0.0
  0
LINE
  5
88
330
22
100
AcDbEntity
  8
0
 62
     0
100
AcDbLine
 10
24.98698683207074
 20
38.15685063167018
 30
0.0
 11
25.12098683207074
 21
38.29085063167019
 31
0.0
  0
LINE
  5
89
330
22
100
AcDbEntity
  8
0
 62
     0
100
AcDbLine
 10
24.98698683207074
 20
37.44974385048364
 30
0.0
 11
25.12098683207074
 21
37.58374385048364
 31
0.0
  0
LINE
  5
8A
330
22
100
AcDbEntity
  8
0
 62
     0
100
AcDbLine
 10
24.98698683207074
 20
36.74263706929709
 30
0.0
 11
25.12098683207074
 21
36.8766370692971
 31
0.0
  0
LINE
  5
8B
330
22
100
AcDbEntity
  8
0
 62
     0
100
AcDbLine
 10
24.98698683207074
 20
36.03553028811054
 30
0.0
 11
25.12098683207074
 21
36.16953028811055
 31
0.0
  0
LINE
  5
8C
330
22
100
AcDbEntity
  8
0
 62
     0
100
AcDbLine
 10
25.19222855788246
 20
35.53366523273571
 30
0.0
 11
25.32009671657835
 21
35.66153339143161
 31
0.0
  0
LINE
  5
8D
330
22
100
AcDbEntity
  8
0
 62
     0
100
AcDbLine
 10
25.85345006481821
 20
35.48777995848492
 30
0.0
 11
25.99335983020222
 21
35.62768972386893
 31
0.0
  0
ENDBLK
  5
8E
330
22
100
AcDbEntity
  8
0
100
AcDbBlockEnd
  0
BLOCK
  5
8F
330
23
100
AcDbEntity
  8
0
100
AcDbBlockBegin
  2
*X1
 70
     1
 10
0.0
 20
0.0
 30
0.0
  3
*X1
  1

  0
LINE
  5
90
330
23
100
AcDbEntity
  8
0
 62
     0
100
AcDbLine
 10
32.83777421107063
 20
36.45869034521103
 30
0.0
 11
32.65629492408221
 21
36.64016963219944
 31
0.0
  0
LINE
  5
91
330
23
100
AcDbEntity
  8
0
 62
     0
100
AcDbLine
 10
32.46629492408221
 20
36.83016963219944
 30
0.0
 11
32.33177421107064
 21
36.964690345211
 31
0.0
  0
LINE
  5
92
330
23
100
AcDbEntity
  8
0
 62
     0
100
AcDbLine
 10
32.83777421107064
 20
35.75158356402446
 30
0.0
 11
32.59468814289563
 21
35.99466963219946
 31
0.0
  0
LINE
  5
93
330
23
100
AcDbEntity
  8
0
 62
     0
100
AcDbLine
 10
32.55008917207102
 20
36.03926860302407
 30
0.0
 11
32.33177421107064
 21
36.25758356402446
 31
0.0
  0
LINE
  5
94
330
23
100
AcDbEntity
  8
0
 62
     0
100
AcDbLine
 10
32.27542418147277
 20
35.60682681243579
 30
0.0
 11
32.14360190622256
 21
35.738649087686
 31
0.0
  0
LINE
  5
95
330
23
100
AcDbEntity
  8
0
 62
     0
100
AcDbLine
 10
31.58229802560095
 20
35.59284618712105
 30
0.0
 11
31.45041588117685
 21
35.72472833154515
 31
0.0
  0
LINE
  5
96
330
23
100
AcDbEntity
  8
0
 62
     0
100
AcDbLine
 10
30.88917186972913
 20
35.57886556180632
 30
0.0
 11
30.75722985613115
 21
35.71080757540431
 31
0.0
  0
LINE
  5
97
330
23
100
AcDbEntity
  8
0
 62
     0
100
AcDbLine
 10
30.19604571385732
 20
35.56488493649159
 30
0.0
 11
30.06404383108544
 21
35.69688681926347
 31
0.0
  0
LINE
  5
98
330
23
100
AcDbEntity
  8
0
 62
     0
100
AcDbLine
 10
29.50291955798551
 20
35.55090431117686
 30
0.0
 11
29.37085780603974
 21
35.68296606312263
 31
0.0
  0
LINE
  5
99
330
23
100
AcDbEntity
  8
0
 62
     0
100
AcDbLine
 10
28.80979340211369
 20
35.53692368586213
 30
0.0
 11
28.67767178099402
 21
35.66904530698179
 31
0.0
  0
LINE
  5
9A
330
23
100
AcDbEntity
  8
0
 62
     0
100
AcDbLine
 10
28.11666724624187
 20
35.5229430605474
 30
0.0
 11
27.98448575594832
 21
35.65512455084095
 31
0.0
  0
LINE
  5
9B
330
23
100
AcDbEntity
  8
0
 62
     0
100
AcDbLine
 10
27.42354109037005
 20
35.50896243523267
 30
0.0
 11
27.29129973090262
 21
35.64120379470011
 31
0.0
  0
LINE
  5
9C
330
23
100
AcDbEntity
  8
0
 62
     0
100
AcDbLine
 10
26.73041493449824
 20
35.49498180991793
 30
0.0
 11
26.59811370585691
 21
35.62728303855926
 31
0.0
  0
LINE
  5
9D
330
23
100
AcDbEntity
  8
0
 62
     0
100
AcDbLine
 10
26.3080883199718
 20
35.21020164325783
 30
0.0
 11
26.17177421107065
 21
35.34651575215897
 31
0.0
  0
LINE
  5
9E
330
23
100
AcDbEntity
  8
0
 62
     0
100
AcDbLine
 10
26.11387015994709
 20
35.40441980328254
 30
0.0
 11
26.05978164164992
 21
35.4585083215797
 31
0.0
  0
LINE
  5
9F
330
23
100
AcDbEntity
  8
0
 62
     0
100
AcDbLine
 10
32.8377742110706
 20
37.16579712639759
 30
0.0
 11
32.68090170526874
 21
37.32266963219945
 31
0.0
  0
LINE
  5
A0
330
23
100
AcDbEntity
  8
0
 62
     0
100
AcDbLine
 10
32.51490170526874
 20
37.48866963219945
 30
0.0
 11
32.43577421107063
 21
37.56779712639758
 31
0.0
  0
LINE
  5
A1
330
23
100
AcDbEntity
  8
0
 62
     0
100
AcDbLine
 10
32.83777421107061
 20
37.87290390758413
 30
0.0
 11
32.71177421107063
 21
37.99890390758411
 31
0.0
  0
LINE
  5
A2
330
23
100
AcDbEntity
  8
0
 62
     0
100
AcDbLine
 10
32.55141763288033
 20
38.15926048577441
 30
0.0
 11
32.43577421107061
 21
38.27490390758413
 31
0.0
  0
LINE
  5
A3
330
23
100
AcDbEntity
  8
0
 62
     0
100
AcDbLine
 10
32.8967742110706
 20
38.52101068877068
 30
0.0
 11
32.87811526764182
 21
38.53966963219948
 31
0.0
  0
LINE
  5
A4
330
23
100
AcDbEntity
  8
0
 62
     0
100
AcDbLine
 10
32.83777421107061
 20
38.58001068877067
 30
0.0
 11
32.71177421107063
 21
38.70601068877066
 31
0.0
  0
LINE
  5
A5
330
23
100
AcDbEntity
  8
0
 62
     0
100
AcDbLine
 10
32.8967742110706
 20
39.22811746995723
 30
0.0
 11
32.77579116147872
 21
39.34910051954912
 31
0.0
  0
LINE
  5
A6
330
23
100
AcDbEntity
  8
0
 62
     0
100
AcDbLine
 10
32.66822204882838
 20
39.45666963219945
 30
0.0
 11
32.52184399137529
 21
39.60304768965254
 31
0.0
  0
LINE
  5
A7
330
23
100
AcDbEntity
  8
0
 62
     0
100
AcDbLine
 10
32.8377742110706
 20
39.99422425114378
 30
0.0
 11
32.71177421107062
 21
40.12022425114376
 31
0.0
  0
LINE
  5
A8
330
23
100
AcDbEntity
  8
0
 62
     0
100
AcDbLine
 10
32.71027661616809
 20
40.1217218460463
 30
0.0
 11
32.55732883001493
 21
40.27466963219946
 31
0.0
  0
LINE
  5
A9
330
23
100
AcDbEntity
  8
0
 62
     0
100
AcDbLine
 10
32.83777421107061
 20
40.70133103233032
 30
0.0
 11
32.71177421107063
 21
40.82733103233031
 31
0.0
  0
LINE
  5
AA
330
23
100
AcDbEntity
  8
0
 62
     0
100
AcDbLine
 10
32.8967742110706
 20
41.34943781351688
 30
0.0
 11
32.66999889439874
 21
41.57621313018874
 31
0.0
  0
LINE
  5
AB
330
23
100
AcDbEntity
  8
0
 62
     0
100
AcDbLine
 10
32.8377742110706
 20
42.11554459470342
 30
0.0
 11
32.71064917357457
 21
42.24266963219945
 31
0.0
  0
LINE
  5
AC
330
23
100
AcDbEntity
  8
0
 62
     0
100
AcDbLine
 10
32.54464917357458
 20
42.40866963219946
 30
0.0
 11
32.43577421107063
 21
42.5175445947034
 31
0.0
  0
LINE
  5
AD
330
23
100
AcDbEntity
  8
0
 62
     0
100
AcDbLine
 10
32.83777421107061
 20
42.82265137588996
 30
0.0
 11
32.71177421107063
 21
42.94865137588995
 31
0.0
  0
LINE
  5
AE
330
23
100
AcDbEntity
  8
0
 62
     0
100
AcDbLine
 10
32.58223971728696
 20
43.07818586967361
 30
0.0
 11
32.43577421107061
 21
43.22465137588996
 31
0.0
  0
LINE
  5
AF
330
23
100
AcDbEntity
  8
0
 62
     0
100
AcDbLine
 10
32.83777421107061
 20
43.52975815707651
 30
0.0
 11
32.71177421107063
 21
43.65575815707649
 31
0.0
  0
LINE
  5
B0
330
23
100
AcDbEntity
  8
0
 62
     0
100
AcDbLine
 10
32.83777421107061
 20
44.23686493826306
 30
0.0
 11
32.58177421107063
 21
44.49286493826303
 31
0.0
  0
LINE
  5
B1
330
23
100
AcDbEntity
  8
0
 62
     0
100
AcDbLine
 10
32.8968293280705
 20
36.31124688056282
 30
0.0
 11
32.56790657643388
 21
36.64016963219944
 31
0.0
  0
LINE
  5
B2
330
23
100
AcDbEntity
  8
0
 62
     0
100
AcDbLine
 10
32.37790657643389
 20
36.83016963219944
 30
0.0
 11
32.33177421107065
 21
36.87630199756267
 31
0.0
  0
LINE
  5
B3
330
23
100
AcDbEntity
  8
0
 62
     0
100
AcDbLine
 10
32.83777421107064
 20
35.66319521637614
 30
0.0
 11
32.71177421107064
 21
35.78919521637613
 31
0.0
  0
LINE
  5
B4
330
23
100
AcDbEntity
  8
0
 62
     0
100
AcDbLine
 10
32.69574078779757
 20
35.80522863964921
 30
0.0
 11
32.33177421107064
 21
36.16919521637614
 31
0.0
  0
LINE
  5
B5
330
23
100
AcDbEntity
  8
0
 62
     0
100
AcDbLine
 10
32.18878341198879
 20
35.60507923427145
 30
0.0
 11
32.05695365309184
 21
35.73690899316839
 31
0.0
  0
LINE
  5
B6
330
23
100
AcDbEntity
  8
0
 62
     0
100
AcDbLine
 10
31.49565725611697
 20
35.59109860895671
 30
0.0
 11
31.36376762804614
 21
35.72298823702755
 31
0.0
  0
LINE
  5
B7
330
23
100
AcDbEntity
  8
0
 62
     0
100
AcDbLine
 10
30.80253110024516
 20
35.57711798364198
 30
0.0
 11
30.67058160300043
 21
35.7090674808867
 31
0.0
  0
LINE
  5
B8
330
23
100
AcDbEntity
  8
0
 62
     0
100
AcDbLine
 10
30.10940494437334
 20
35.56313735832725
 30
0.0
 11
29.97739557795473
 21
35.69514672474586
 31
0.0
  0
LINE
  5
B9
330
23
100
AcDbEntity
  8
0
 62
     0
100
AcDbLine
 10
29.41627878850153
 20
35.54915673301252
 30
0.0
 11
29.28420955290902
 21
35.68122596860503
 31
0.0
  0
LINE
  5
BA
330
23
100
AcDbEntity
  8
0
 62
     0
100
AcDbLine
 10
28.72315263262971
 20
35.53517610769779
 30
0.0
 11
28.59102352786331
 21
35.66730521246418
 31
0.0
  0
LINE
  5
BB
330
23
100
AcDbEntity
  8
0
 62
     0
100
AcDbLine
 10
28.0300264767579
 20
35.52119548238305
 30
0.0
 11
27.89783750281761
 21
35.65338445632334
 31
0.0
  0
LINE
  5
BC
330
23
100
AcDbEntity
  8
0
 62
     0
100
AcDbLine
 10
27.33690032088608
 20
35.50721485706832
 30
0.0
 11
27.2046514777719
 21
35.6394637001825
 31
0.0
  0
LINE
  5
BD
330
23
100
AcDbEntity
  8
0
 62
     0
100
AcDbLine
 10
26.64377416501427
 20
35.49323423175359
 30
0.0
 11
26.5114654527262
 21
35.62554294404166
 31
0.0
  0
LINE
  5
BE
330
23
100
AcDbEntity
  8
0
 62
     0
100
AcDbLine
 10
26.22547673695355
 20
35.20442487862775
 30
0.0
 11
26.17177421107065
 21
35.25812740451065
 31
0.0
  0
LINE
  5
BF
330
23
100
AcDbEntity
  8
0
 62
     0
100
AcDbLine
 10
32.8377742110706
 20
37.07740877874927
 30
0.0
 11
32.59251335762042
 21
37.32266963219945
 31
0.0
  0
LINE
  5
C0
330
23
100
AcDbEntity
  8
0
 62
     0
100
AcDbLine
 10
32.83777421107061
 20
37.78451555993581
 30
0.0
 11
32.71177421107063
 21
37.91051555993579
 31
0.0
  0
LINE
  5
C1
330
23
100
AcDbEntity
  8
0
 62
     0
100
AcDbLine
 10
32.45983628942714
 20
38.16245348157929
 30
0.0
 11
32.43577421107061
 21
38.18651555993581
 31
0.0
  0
LINE
  5
C2
330
23
100
AcDbEntity
  8
0
 62
     0
100
AcDbLine
 10
32.8967742110706
 20
38.43262234112236
 30
0.0
 11
32.70399803733237
 21
38.62539851486061
 31
0.0
  0
LINE
  5
C3
330
23
100
AcDbEntity
  8
0
 62
     0
100
AcDbLine
 10
32.83777421107061
 20
39.1987291223089
 30
0.0
 11
32.74583370118006
 21
39.29066963219946
 31
0.0
  0
LINE
  5
C4
330
23
100
AcDbEntity
  8
0
 62
     0
100
AcDbLine
 10
32.57983370118006
 20
39.45666963219945
 30
0.0
 11
32.44154377919594
 21
39.59495955418358
 31
0.0
  0
LINE
  5
C5
330
23
100
AcDbEntity
  8
0
 62
     0
100
AcDbLine
 10
32.8377742110706
 20
39.90583590349546
 30
0.0
 11
32.71177421107062
 21
40.03183590349545
 31
0.0
  0
LINE
  5
C6
330
23
100
AcDbEntity
  8
0
 62
     0
100
AcDbLine
 10
32.6186952727149
 20
40.12491484185118
 30
0.0
 11
32.46894048236661
 21
40.27466963219946
 31
0.0
  0
LINE
  5
C7
330
23
100
AcDbEntity
  8
0
 62
     0
100
AcDbLine
 10
32.83777421107061
 20
40.612942684682
 30
0.0
 11
32.71177421107063
 21
40.73894268468198
 31
0.0
  0
LINE
  5
C8
330
23
100
AcDbEntity
  8
0
 62
     0
100
AcDbLine
 10
32.8967742110706
 20
41.26104946586855
 30
0.0
 11
32.77579116147872
 21
41.38203251546045
 31
0.0
  0
LINE
  5
C9
330
23
100
AcDbEntity
  8
0
 62
     0
100
AcDbLine
 10
32.7331540447397
 20
41.42466963219946
 30
0.0
 11
32.58458839524248
 21
41.57323528169668
 31
0.0
  0
LINE
  5
CA
330
23
100
AcDbEntity
  8
0
 62
     0
100
AcDbLine
 10
32.8377742110706
 20
42.0271562470551
 30
0.0
 11
32.62226082592625
 21
42.24266963219945
 31
0.0
  0
LINE
  5
CB
330
23
100
AcDbEntity
  8
0
 62
     0
100
AcDbLine
 10
32.45626082592625
 20
42.40866963219946
 30
0.0
 11
32.43577421107063
 21
42.42915624705509
 31
0.0
  0
LINE
  5
CC
330
23
100
AcDbEntity
  8
0
 62
     0
100
AcDbLine
 10
32.83777421107061
 20
42.73426302824165
 30
0.0
 11
32.71177421107063
 21
42.86026302824162
 31
0.0
  0
LINE
  5
CD
330
23
100
AcDbEntity
  8
0
 62
     0
100
AcDbLine
 10
32.49065837383378
 20
43.08137886547848
 30
0.0
 11
32.43577421107061
 21
43.13626302824164
 31
0.0
  0
LINE
  5
CE
330
23
100
AcDbEntity
  8
0
 62
     0
100
AcDbLine
 10
32.8967742110706
 20
43.3823698094282
 30
0.0
 11
32.71177421107064
 21
43.56736980942818
 31
0.0
  0
LINE
  5
CF
330
23
100
AcDbEntity
  8
0
 62
     0
100
AcDbLine
 10
32.83777421107061
 20
44.14847659061474
 30
0.0
 11
32.58177421107063
 21
44.40447659061471
 31
0.0
  0
LINE
  5
D0
330
23
100
AcDbEntity
  8
0
 62
     0
100
AcDbLine
 10
32.8968293280705
 20
36.22285853291451
 30
0.0
 11
32.71177421107064
 21
36.40791364991437
 31
0.0
  0
LINE
  5
D1
330
23
100
AcDbEntity
  8
0
 62
     0
100
AcDbLine
 10
32.68716005286308
 20
36.43252780812192
 30
0.0
 11
32.47951822878556
 21
36.64016963219945
 31
0.0
  0
LINE
  5
D2
330
23
100
AcDbEntity
  8
0
 62
     0
100
AcDbLine
 10
32.79526879837663
 20
35.61731228142184
 30
0.0
 11
32.66349142500684
 21
35.74908965479163
 31
0.0
  0
LINE
  5
D3
330
23
100
AcDbEntity
  8
0
 62
     0
100
AcDbLine
 10
32.60415944434438
 20
35.80842163545408
 30
0.0
 11
32.33177421107064
 21
36.08080686872781
 31
0.0
  0
LINE
  5
D4
330
23
100
AcDbEntity
  8
0
 62
     0
100
AcDbLine
 10
32.10214264250481
 20
35.6033316561071
 30
0.0
 11
31.97030539996113
 21
35.73516889865079
 31
0.0
  0
LINE
  5
D5
330
23
100
AcDbEntity
  8
0
 62
     0
100
AcDbLine
 10
31.409016486633
 20
35.58935103079237
 30
0.0
 11
31.27711937491543
 21
35.72124814250995
 31
0.0
  0
LINE
  5
D6
330
23
100
AcDbEntity
  8
0
 62
     0
100
AcDbLine
 10
30.71589033076119
 20
35.57537040547764
 30
0.0
 11
30.58393334986972
 21
35.70732738636911
 31
0.0
  0
LINE
  5
D7
330
23
100
AcDbEntity
  8
0
 62
     0
100
AcDbLine
 10
30.02276417488937
 20
35.56138978016291
 30
0.0
 11
29.89074732482401
 21
35.69340663022826
 31
0.0
  0
LINE
  5
D8
330
23
100
AcDbEntity
  8
0
 62
     0
100
AcDbLine
 10
29.32963801901755
 20
35.54740915484818
 30
0.0
 11
29.19756129977831
 21
35.67948587408742
 31
0.0
  0
LINE
  5
D9
330
23
100
AcDbEntity
  8
0
 62
     0
100
AcDbLine
 10
28.63651186314573
 20
35.53342852953345
 30
0.0
 11
28.5043752747326
 21
35.66556511794658
 31
0.0
  0
LINE
  5
DA
330
23
100
AcDbEntity
  8
0
 62
     0
100
AcDbLine
 10
27.94338570727392
 20
35.51944790421871
 30
0.0
 11
27.81118924968689
 21
35.65164436180574
 31
0.0
  0
LINE
  5
DB
330
23
100
AcDbEntity
  8
0
 62
     0
100
AcDbLine
 10
27.2502595514021
 20
35.50546727890398
 30
0.0
 11
27.11800322464119
 21
35.6377236056649
 31
0.0
  0
LINE
  5
DC
330
23
100
AcDbEntity
  8
0
 62
     0
100
AcDbLine
 10
26.55713339553029
 20
35.49148665358925
 30
0.0
 11
26.42481719959548
 21
35.62380284952406
 31
0.0
  0
LINE
  5
DD
330
23
100
AcDbEntity
  8
0
 62
     0
100
AcDbLine
 10
32.8377742110706
 20
36.98902043110095
 30
0.0
 11
32.71177421107064
 21
37.11502043110092
 31
0.0
  0
LINE
  5
DE
330
23
100
AcDbEntity
  8
0
 62
     0
100
AcDbLine
 10
32.65515082814283
 20
37.17164381402873
 30
0.0
 11
32.5041250099721
 21
37.32266963219945
 31
0.0
  0
LINE
  5
DF
330
23
100
AcDbEntity
  8
0
 62
     0
100
AcDbLine
 10
32.83777421107061
 20
37.6961272122875
 30
0.0
 11
32.71177421107063
 21
37.82212721228747
 31
0.0
  0
LINE
  5
E0
330
23
100
AcDbEntity
  8
0
 62
     0
100
AcDbLine
 10
32.8967742110706
 20
38.34423399347405
 30
0.0
 11
32.77579116147872
 21
38.46521704306594
 31
0.0
  0
LINE
  5
E1
330
23
100
AcDbEntity
  8
0
 62
     0
100
AcDbLine
 10
32.76833857234521
 20
38.47266963219945
 30
0.0
 11
32.6185875381761
 21
38.62242066636856
 31
0.0
  0
LINE
  5
E2
330
23
100
AcDbEntity
  8
0
 62
     0
100
AcDbLine
 10
32.83777421107061
 20
39.11034077466058
 30
0.0
 11
32.65744535353174
 21
39.29066963219946
 31
0.0
  0
LINE
  5
E3
330
23
100
AcDbEntity
  8
0
 62
     0
100
AcDbLine
 10
32.49144535353174
 20
39.45666963219945
 30
0.0
 11
32.43577421107063
 21
39.51234077466058
 31
0.0
  0
LINE
  5
E4
330
23
100
AcDbEntity
  8
0
 62
     0
100
AcDbLine
 10
32.8377742110706
 20
39.81744755584713
 30
0.0
 11
32.71177421107062
 21
39.94344755584712
 31
0.0
  0
LINE
  5
E5
330
23
100
AcDbEntity
  8
0
 62
     0
100
AcDbLine
 10
32.52711392926171
 20
40.12810783765604
 30
0.0
 11
32.43577421107061
 21
40.21944755584714
 31
0.0
  0
LINE
  5
E6
330
23
100
AcDbEntity
  8
0
 62
     0
100
AcDbLine
 10
32.8967742110706
 20
40.46555433703369
 30
0.0
 11
32.85465891590482
 21
40.50766963219947
 31
0.0
  0
LINE
  5
E7
330
23
100
AcDbEntity
  8
0
 62
     0
100
AcDbLine
 10
32.83777421107061
 20
40.52455433703368
 30
0.0
 11
32.71177421107063
 21
40.65055433703366
 31
0.0
  0
LINE
  5
E8
330
23
100
AcDbEntity
  8
0
 62
     0
100
AcDbLine
 10
32.87776569709137
 20
41.19166963219947
 30
0.0
 11
32.77579116147872
 21
41.29364416781213
 31
0.0
  0
LINE
  5
E9
330
23
100
AcDbEntity
  8
0
 62
     0
100
AcDbLine
 10
32.64476569709138
 20
41.42466963219946
 30
0.0
 11
32.49917789608622
 21
41.57025743320462
 31
0.0
  0
LINE
  5
EA
330
23
100
AcDbEntity
  8
0
 62
     0
100
AcDbLine
 10
32.8377742110706
 20
41.93876789940678
 30
0.0
 11
32.71177421107063
 21
42.06476789940675
 31
0.0
  0
LINE
  5
EB
330
23
100
AcDbEntity
  8
0
 62
     0
100
AcDbLine
 10
32.68597291254946
 20
42.09056919792794
 30
0.0
 11
32.53387247827793
 21
42.24266963219945
 31
0.0
  0
LINE
  5
EC
330
23
100
AcDbEntity
  8
0
 62
     0
100
AcDbLine
 10
32.83777421107061
 20
42.64587468059333
 30
0.0
 11
32.71177421107063
 21
42.7718746805933
 31
0.0
  0
LINE
  5
ED
330
23
100
AcDbEntity
  8
0
 62
     0
100
AcDbLine
 10
32.8967742110706
 20
43.29398146177989
 30
0.0
 11
32.64733279910965
 21
43.54342287374083
 31
0.0
  0
LINE
  5
EE
330
23
100
AcDbEntity
  8
0
 62
     0
100
AcDbLine
 10
32.83777421107061
 20
44.06008824296642
 30
0.0
 11
32.58177421107063
 21
44.3160882429664
 31
0.0
  0
LINE
  5
EF
330
23
100
AcDbEntity
  8
0
 62
     0
100
AcDbLine
 10
32.83777421107061
 20
44.76719502415297
 30
0.0
 11
32.81929960302412
 21
44.78566963219946
 31
0.0
  0
LINE
  5
F0
330
23
100
AcDbEntity
  8
0
 62
     0
100
AcDbLine
 10
32.89682932807051
 20
35.95769348996955
 30
0.0
 11
32.85985318584058
 21
35.99466963219947
 31
0.0
  0
LINE
  5
F1
330
23
100
AcDbEntity
  8
0
 62
     0
100
AcDbLine
 10
32.41241602250351
 20
36.44210679553653
 30
0.0
 11
32.33177421107064
 21
36.52274860696941
 31
0.0
  0
LINE
  5
F2
330
23
100
AcDbEntity
  8
0
 62
     0
100
AcDbLine
 10
32.6698531858406
 20
36.18466963219946
 30
0.0
 11
32.48766672341224
 21
36.36685609462782
 31
0.0
  0
LINE
  5
F3
330
23
100
AcDbEntity
  8
0
 62
     0
100
AcDbLine
 10
32.5353464899247
 20
35.61206954692881
 30
0.0
 11
32.4035466656147
 21
35.74386937123881
 31
0.0
  0
LINE
  5
F4
330
23
100
AcDbEntity
  8
0
 62
     0
100
AcDbLine
 10
31.84222033405288
 20
35.59808892161408
 30
0.0
 11
31.71036064056899
 21
35.72994861509797
 31
0.0
  0
LINE
  5
F5
330
23
100
AcDbEntity
  8
0
 62
     0
100
AcDbLine
 10
31.14909417818107
 20
35.58410829629934
 30
0.0
 11
31.01717461552329
 21
35.71602785895713
 31
0.0
  0
LINE
  5
F6
330
23
100
AcDbEntity
  8
0
 62
     0
100
AcDbLine
 10
30.45596802230925
 20
35.57012767098461
 30
0.0
 11
30.32398859047758
 21
35.70210710281629
 31
0.0
  0
LINE
  5
F7
330
23
100
AcDbEntity
  8
0
 62
     0
100
AcDbLine
 10
29.76284186643743
 20
35.55614704566989
 30
0.0
 11
29.63080256543187
 21
35.68818634667545
 31
0.0
  0
LINE
  5
F8
330
23
100
AcDbEntity
  8
0
 62
     0
100
AcDbLine
 10
29.06971571056562
 20
35.54216642035516
 30
0.0
 11
28.93761654038616
 21
35.67426559053461
 31
0.0
  0
LINE
  5
F9
330
23
100
AcDbEntity
  8
0
 62
     0
100
AcDbLine
 10
28.3765895546938
 20
35.52818579504042
 30
0.0
 11
28.24443051534046
 21
35.66034483439377
 31
0.0
  0
LINE
  5
FA
330
23
100
AcDbEntity
  8
0
 62
     0
100
AcDbLine
 10
27.68346339882199
 20
35.51420516972569
 30
0.0
 11
27.55124449029475
 21
35.64642407825292
 31
0.0
  0
LINE
  5
FB
330
23
100
AcDbEntity
  8
0
 62
     0
100
AcDbLine
 10
26.99033724295017
 20
35.50022454441096
 30
0.0
 11
26.85805846524905
 21
35.63250332211208
 31
0.0
  0
LINE
  5
FC
330
23
100
AcDbEntity
  8
0
 62
     0
100
AcDbLine
 10
26.46704979607077
 20
35.3164052101038
 30
0.0
 11
26.17177421107065
 21
35.61168079510393
 31
0.0
  0
LINE
  5
FD
330
23
100
AcDbEntity
  8
0
 62
     0
100
AcDbLine
 10
32.8967742110706
 20
36.66485538815599
 30
0.0
 11
32.56507466630275
 21
36.99655493292385
 31
0.0
  0
LINE
  5
FE
330
23
100
AcDbEntity
  8
0
 62
     0
100
AcDbLine
 10
32.8967742110706
 20
37.37196216934255
 30
0.0
 11
32.62992058582065
 21
37.63881579459251
 31
0.0
  0
LINE
  5
FF
330
23
100
AcDbEntity
  8
0
 62
     0
100
AcDbLine
 10
32.83777421107061
 20
38.13806895052909
 30
0.0
 11
32.66917352940025
 21
38.30666963219945
 31
0.0
  0
LINE
  5
100
330
23
100
AcDbEntity
  8
0
 62
     0
100
AcDbLine
 10
32.50317352940025
 20
38.47266963219945
 30
0.0
 11
32.43577421107063
 21
38.54006895052908
 31
0.0
  0
LINE
  5
101
330
23
100
AcDbEntity
  8
0
 62
     0
100
AcDbLine
 10
32.83777421107061
 20
38.84517573171563
 30
0.0
 11
32.71177421107063
 21
38.97117573171562
 31
0.0
  0
LINE
  5
102
330
23
100
AcDbEntity
  8
0
 62
     0
100
AcDbLine
 10
32.53926578107102
 20
39.14368416171523
 30
0.0
 11
32.43577421107061
 21
39.24717573171563
 31
0.0
  0
LINE
  5
103
330
23
100
AcDbEntity
  8
0
 62
     0
100
AcDbLine
 10
32.8967742110706
 20
39.49328251290219
 30
0.0
 11
32.86638709177331
 21
39.52366963219947
 31
0.0
  0
LINE
  5
104
330
23
100
AcDbEntity
  8
0
 62
     0
100
AcDbLine
 10
32.8377742110706
 20
39.55228251290218
 30
0.0
 11
32.71177421107063
 21
39.67828251290216
 31
0.0
  0
LINE
  5
105
330
23
100
AcDbEntity
  8
0
 62
     0
100
AcDbLine
 10
32.88949387295987
 20
40.20766963219947
 30
0.0
 11
32.77579116147872
 21
40.32137234368063
 31
0.0
  0
LINE
  5
106
330
23
100
AcDbEntity
  8
0
 62
     0
100
AcDbLine
 10
32.65649387295988
 20
40.44066963219946
 30
0.0
 11
32.51051094373076
 21
40.58665256142858
 31
0.0
  0
LINE
  5
107
330
23
100
AcDbEntity
  8
0
 62
     0
100
AcDbLine
 10
32.83777421107061
 20
40.96649607527527
 30
0.0
 11
32.71177421107063
 21
41.09249607527526
 31
0.0
  0
LINE
  5
108
330
23
100
AcDbEntity
  8
0
 62
     0
100
AcDbLine
 10
32.69812476435877
 20
41.10614552198712
 30
0.0
 11
32.54560065414643
 21
41.25866963219945
 31
0.0
  0
LINE
  5
109
330
23
100
AcDbEntity
  8
0
 62
     0
100
AcDbLine
 10
32.8377742110706
 20
41.67360285646182
 30
0.0
 11
32.71177421107063
 21
41.7996028564618
 31
0.0
  0
LINE
  5
10A
330
23
100
AcDbEntity
  8
0
 62
     0
100
AcDbLine
 10
32.8967742110706
 20
42.32170963764839
 30
0.0
 11
32.6586658467542
 21
42.55981800196479
 31
0.0
  0
LINE
  5
10B
330
23
100
AcDbEntity
  8
0
 62
     0
100
AcDbLine
 10
32.83777421107061
 20
43.08781641883492
 30
0.0
 11
32.69892099770607
 21
43.22666963219946
 31
0.0
  0
LINE
  5
10C
330
23
100
AcDbEntity
  8
0
 62
     0
100
AcDbLine
 10
32.53292099770607
 20
43.39266963219945
 30
0.0
 11
32.43577421107063
 21
43.48981641883491
 31
0.0
  0
LINE
  5
10D
330
23
100
AcDbEntity
  8
0
 62
     0
100
AcDbLine
 10
32.83777421107061
 20
43.79492320002146
 30
0.0
 11
32.71177421107063
 21
43.92092320002146
 31
0.0
  0
LINE
  5
10E
330
23
100
AcDbEntity
  8
0
 62
     0
100
AcDbLine
 10
32.63442933889267
 20
43.99826807219941
 30
0.0
 11
32.58177421107063
 21
44.05092320002145
 31
0.0
  0
LINE
  5
10F
330
23
100
AcDbEntity
  8
0
 62
     0
100
AcDbLine
 10
32.83777421107061
 20
44.50202998120802
 30
0.0
 11
32.58177421107064
 21
44.75802998120798
 31
0.0
  0
ENDBLK
  5
110
330
23
100
AcDbEntity
  8
0
100
AcDbBlockEnd
  0
BLOCK
  5
111
330
24
100
AcDbEntity
  8
0
100
AcDbBlockBegin
  2
HBS
 70
     0
 10
0.0
 20
0.0
 30
0.0
  3
HBS
  1

  0
LINE
  5
112
330
24
100
AcDbEntity
  8
TITLE
100
AcDbLine
 10
0.0619999999999976
 20
9.64
 30
0.0
 11
15.43799999999999
 21
9.640000000000004
 31
0.0
  0
LWPOLYLINE
  5
113
330
24
100
AcDbEntity
  8
TITLE
100
AcDbPolyline
 90
        4
 70
     1
 43
0.0
 10
15.5
 20
10.11999999999999
 10
15.49999999999999
 20
0.0
 10
0.0
 20
0.0
 10
0.0
 20
10.11999999999999
  0
LWPOLYLINE
  5
119
330
24
100
AcDbEntity
  8
TITLE
100
AcDbPolyline
 90
        4
 70
     1
 43
0.0
 10
15.43799999999999
 20
10.058
 10
15.43799999999999
 20
0.0620000000000012
 10
0.0620000000000012
 20
0.0620000000000012
 10
0.0620000000000012
 20
10.058
  0
TEXT
  5
11F
330
24
100
AcDbEntity
  8
TEXT
100
AcDbText
 10
0.2078333333333345
 20
9.680079195640079
 30
0.0
 40
0.125
  1
NAME
  7
TXT
 72
     1
 11
0.4370000000000012
 21
9.680079195640079
 31
0.0
100
AcDbText
  0
TEXT
  5
121
330
24
100
AcDbEntity
  8
TEXT
100
AcDbText
 10
0.2078333333333345
 20
9.888412528973411
 30
0.0
 40
0.125
  1
PART
  7
TXT
 72
     1
 11
0.4370000000000012
 21
9.888412528973411
 31
0.0
100
AcDbText
  0
LINE
  5
122
330
24
100
AcDbEntity
  8
TITLE
100
AcDbLine
 10
0.8120000000000011
 20
9.64
 30
0.0
 11
0.8119999999999976
 21
10.058
 31
0.0
  0
TEXT
  5
123
330
24
100
AcDbEntity
  8
TEXT
100
AcDbText
 10
7.926833333333331
 20
9.888412528973411
 30
0.0
 40
0.125
  1
PART
  7
TXT
 72
     1
 11
8.155999999999998
 21
9.888412528973411
 31
0.0
100
AcDbText
  0
TEXT
  5
124
330
24
100
AcDbEntity
  8
TEXT
100
AcDbText
 10
8.030999999999998
 20
9.680079195640079
 30
0.0
 40
0.125
  1
No.
  7
TXT
 72
     1
 11
8.155999999999998
 21
9.680079195640079
 31
0.0
100
AcDbText
  0
LINE
  5
125
330
24
100
AcDbEntity
  8
TITLE
100
AcDbLine
 10
7.780999999999998
 20
10.058
 30
0.0
 11
7.780999999999998
 21
9.64
 31
0.0
  0
LINE
  5
126
330
24
100
AcDbEntity
  8
TITLE
100
AcDbLine
 10
7.719000000000001
 20
10.058
 30
0.0
 11
7.719000000000001
 21
9.64
 31
0.0
  0
LINE
  5
127
330
24
100
AcDbEntity
  8
TITLE
100
AcDbLine
 10
8.530999999999998
 20
10.058
 30
0.0
 11
8.530999999999998
 21
9.64
 31
0.0
  0
ENDBLK
  5
128
330
24
100
AcDbEntity
  8
0
100
AcDbBlockEnd
  0
BLOCK
  5
742
330
737
100
AcDbEntity
  8
0
100
AcDbBlockBegin
  2
*D3
 70
     1
 10
0.0
 20
0.0
 30
0.0
  3
*D3
  1

  0
LINE
  5
738
330
737
100
AcDbEntity
  8
DIM
 62
     0
370
    -2
100
AcDbLine
 10
27.76589262428098
 20
13.49553767529096
 30
0.0
 11
22.60104223428086
 21
13.49553767529096
 31
0.0
  0
LINE
  5
739
330
737
100
AcDbEntity
  8
DIM
 62
     0
370
    -2
100
AcDbLine
 10
27.76589262428098
 20
32.66553767529096
 30
0.0
 11
22.60104223428086
 21
32.66553767529096
 31
0.0
  0
LINE
  5
73A
330
737
100
AcDbEntity
  8
DIM
 62
     0
370
    -2
100
AcDbLine
 10
23.11254223428086
 20
14.48553767529096
 30
0.0
 11
23.11254223428086
 21
22.24178767529096
 31
0.0
  0
LINE
  5
73B
330
737
100
AcDbEntity
  8
DIM
 62
     0
370
    -2
100
AcDbLine
 10
23.11254223428086
 20
31.67553767529097
 30
0.0
 11
23.11254223428086
 21
23.91928767529097
 31
0.0
  0
SOLID
  5
73C
330
737
100
AcDbEntity
  8
DIM
 62
     0
100
AcDbTrace
 10
22.94754223428086
 20
14.48553767529096
 30
0.0
 11
23.27754223428086
 21
14.48553767529096
 31
0.0
 12
23.11254223428086
 22
13.49553767529096
 32
0.0
 13
23.11254223428086
 23
13.49553767529096
 33
0.0
  0
SOLID
  5
73D
330
737
100
AcDbEntity
  8
DIM
 62
     0
100
AcDbTrace
 10
22.94754223428086
 20
31.67553767529097
 30
0.0
 11
23.27754223428086
 21
31.67553767529097
 31
0.0
 12
23.11254223428086
 22
32.66553767529096
 32
0.0
 13
23.11254223428086
 23
32.66553767529096
 33
0.0
  0
MTEXT
  5
73E
330
737
100
AcDbEntity
  8
DIM
 62
     0
100
AcDbMText
 10
23.11254223428086
 20
23.08053767529097
 30
0.0
 40
0.6875
 41
0.0
 71
     5
 72
     1
  1
\A1;G
  7
TXT
 73
     1
 44
1.0
  0
POINT
  5
73F
330
737
100
AcDbEntity
  8
DEFPOINTS
 62
     0
100
AcDbPoint
 10
28.11239262428098
 20
13.49553767529096
 30
0.0
  0
POINT
  5
740
330
737
100
AcDbEntity
  8
DEFPOINTS
 62
     0
100
AcDbPoint
 10
28.11239262428098
 20
32.66553767529096
 30
0.0
  0
POINT
  5
741
330
737
100
AcDbEntity
  8
DEFPOINTS
 62
     0
100
AcDbPoint
 10
23.11254223428086
 20
32.66553767529096
 30
0.0
  0
ENDBLK
  5
743
330
737
100
AcDbEntity
  8
0
100
AcDbBlockEnd
  0
BLOCK
  5
74F
330
744
100
AcDbEntity
  8
0
100
AcDbBlockBegin
  2
*D4
 70
     1
 10
0.0
 20
0.0
 30
0.0
  3
*D4
  1

  0
LINE
  5
745
330
744
100
AcDbEntity
  8
DIM
 62
     0
370
    -2
100
AcDbLine
 10
27.67939262428099
 20
32.57903767529096
 30
0.0
 11
27.67939262428099
 21
37.56353767529097
 31
0.0
  0
LINE
  5
746
330
744
100
AcDbEntity
  8
DIM
 62
     0
370
    -2
100
AcDbLine
 10
42.31939262428099
 20
32.57903767529096
 30
0.0
 11
42.31939262428099
 21
37.56353767529097
 31
0.0
  0
LINE
  5
747
330
744
100
AcDbEntity
  8
DIM
 62
     0
370
    -2
100
AcDbLine
 10
28.66939262428099
 20
37.05203767529097
 30
0.0
 11
34.33251762428099
 21
37.05203767529097
 31
0.0
  0
LINE
  5
748
330
744
100
AcDbEntity
  8
DIM
 62
     0
370
    -2
100
AcDbLine
 10
41.32939262428099
 20
37.05203767529097
 30
0.0
 11
35.66626762428099
 21
37.05203767529097
 31
0.0
  0
SOLID
  5
749
330
744
100
AcDbEntity
  8
DIM
 62
     0
100
AcDbTrace
 10
28.66939262428099
 20
37.21703767529097
 30
0.0
 11
28.66939262428099
 21
36.88703767529097
 31
0.0
 12
27.67939262428099
 22
37.05203767529097
 32
0.0
 13
27.67939262428099
 23
37.05203767529097
 33
0.0
  0
SOLID
  5
74A
330
744
100
AcDbEntity
  8
DIM
 62
     0
100
AcDbTrace
 10
41.32939262428099
 20
37.21703767529097
 30
0.0
 11
41.32939262428099
 21
36.88703767529097
 31
0.0
 12
42.31939262428099
 22
37.05203767529097
 32
0.0
 13
42.31939262428099
 23
37.05203767529097
 33
0.0
  0
MTEXT
  5
74B
330
744
100
AcDbEntity
  8
DIM
 62
     0
100
AcDbMText
 10
34.99939262428099
 20
37.05203767529097
 30
0.0
 40
0.6875
 41
0.0
 71
     5
 72
     1
  1
\A1;A
  7
TXT
 73
     1
 44
1.0
  0
POINT
  5
74C
330
744
100
AcDbEntity
  8
DEFPOINTS
 62
     0
100
AcDbPoint
 10
27.67939262428099
 20
32.23253767529097
 30
0.0
  0
POINT
  5
74D
330
744
100
AcDbEntity
  8
DEFPOINTS
 62
     0
100
AcDbPoint
 10
42.31939262428099
 20
32.23253767529097
 30
0.0
  0
POINT
  5
74E
330
744
100
AcDbEntity
  8
DEFPOINTS
 62
     0
100
AcDbPoint
 10
42.31939262428099
 20
37.05203767529097
 30
0.0
  0
ENDBLK
  5
750
330
744
100
AcDbEntity
  8
0
100
AcDbBlockEnd
  0
BLOCK
  5
75C
330
751
100
AcDbEntity
  8
0
100
AcDbBlockBegin
  2
*D5
 70
     1
 10
0.0
 20
0.0
 30
0.0
  3
*D5
  1

  0
LINE
  5
752
330
751
100
AcDbEntity
  8
DIM
 62
     0
370
    -2
100
AcDbLine
 10
28.12439262428098
 20
32.55303767529095
 30
0.0
 11
28.12439262428098
 21
36.18853767529097
 31
0.0
  0
LINE
  5
753
330
751
100
AcDbEntity
  8
DIM
 62
     0
370
    -2
100
AcDbLine
 10
41.87439262428099
 20
32.55303767529095
 30
0.0
 11
41.87439262428099
 21
36.18853767529097
 31
0.0
  0
LINE
  5
754
330
751
100
AcDbEntity
  8
DIM
 62
     0
370
    -2
100
AcDbLine
 10
29.11439262428098
 20
35.67703767529097
 30
0.0
 11
34.33251762428099
 21
35.67703767529097
 31
0.0
  0
LINE
  5
755
330
751
100
AcDbEntity
  8
DIM
 62
     0
370
    -2
100
AcDbLine
 10
40.88439262428098
 20
35.67703767529097
 30
0.0
 11
35.66626762428098
 21
35.67703767529097
 31
0.0
  0
SOLID
  5
756
330
751
100
AcDbEntity
  8
DIM
 62
     0
100
AcDbTrace
 10
29.11439262428098
 20
35.84203767529097
 30
0.0
 11
29.11439262428098
 21
35.51203767529097
 31
0.0
 12
28.12439262428098
 22
35.67703767529097
 32
0.0
 13
28.12439262428098
 23
35.67703767529097
 33
0.0
  0
SOLID
  5
757
330
751
100
AcDbEntity
  8
DIM
 62
     0
100
AcDbTrace
 10
40.88439262428098
 20
35.84203767529097
 30
0.0
 11
40.88439262428098
 21
35.51203767529097
 31
0.0
 12
41.87439262428099
 22
35.67703767529097
 32
0.0
 13
41.87439262428099
 23
35.67703767529097
 33
0.0
  0
MTEXT
  5
758
330
751
100
AcDbEntity
  8
DIM
 62
     0
100
AcDbMText
 10
34.99939262428098
 20
35.67703767529097
 30
0.0
 40
0.6875
 41
0.0
 71
     5
 72
     1
  1
\A1;B
  7
TXT
 73
     1
 44
1.0
  0
POINT
  5
759
330
751
100
AcDbEntity
  8
DEFPOINTS
 62
     0
100
AcDbPoint
 10
28.12439262428098
 20
32.20653767529096
 30
0.0
  0
POINT
  5
75A
330
751
100
AcDbEntity
  8
DEFPOINTS
 62
     0
100
AcDbPoint
 10
41.87439262428099
 20
32.20653767529096
 30
0.0
  0
POINT
  5
75B
330
751
100
AcDbEntity
  8
DEFPOINTS
 62
     0
100
AcDbPoint
 10
41.87439262428099
 20
35.67703767529097
 30
0.0
  0
ENDBLK
  5
75D
330
751
100
AcDbEntity
  8
0
100
AcDbBlockEnd
  0
BLOCK
  5
769
330
75E
100
AcDbEntity
  8
0
100
AcDbBlockBegin
  2
*D6
 70
     1
 10
0.0
 20
0.0
 30
0.0
  3
*D6
  1

  0
LINE
  5
75F
330
75E
100
AcDbEntity
  8
DIM
 62
     0
370
    -2
100
AcDbLine
 10
41.16739262428098
 20
15.01153767529097
 30
0.0
 11
45.82589262428097
 21
15.01153767529096
 31
0.0
  0
LINE
  5
760
330
75E
100
AcDbEntity
  8
DIM
 62
     0
370
    -2
100
AcDbLine
 10
41.16739262428098
 20
31.14953767529096
 30
0.0
 11
45.82589262428098
 21
31.14953767529096
 31
0.0
  0
LINE
  5
761
330
75E
100
AcDbEntity
  8
DIM
 62
     0
370
    -2
100
AcDbLine
 10
45.31439262428098
 20
16.00153767529096
 30
0.0
 11
45.31439262428098
 21
22.24178767529096
 31
0.0
  0
LINE
  5
762
330
75E
100
AcDbEntity
  8
DIM
 62
     0
370
    -2
100
AcDbLine
 10
45.31439262428098
 20
30.15953767529095
 30
0.0
 11
45.31439262428098
 21
23.91928767529096
 31
0.0
  0
SOLID
  5
763
330
75E
100
AcDbEntity
  8
DIM
 62
     0
100
AcDbTrace
 10
45.14939262428098
 20
16.00153767529096
 30
0.0
 11
45.47939262428098
 21
16.00153767529096
 31
0.0
 12
45.31439262428097
 22
15.01153767529096
 32
0.0
 13
45.31439262428097
 23
15.01153767529096
 33
0.0
  0
SOLID
  5
764
330
75E
100
AcDbEntity
  8
DIM
 62
     0
100
AcDbTrace
 10
45.14939262428098
 20
30.15953767529095
 30
0.0
 11
45.47939262428098
 21
30.15953767529095
 31
0.0
 12
45.31439262428098
 22
31.14953767529096
 32
0.0
 13
45.31439262428098
 23
31.14953767529096
 33
0.0
  0
MTEXT
  5
765
330
75E
100
AcDbEntity
  8
DIM
 62
     0
100
AcDbMText
 10
45.31439262428097
 20
23.08053767529097
 30
0.0
 40
0.6875
 41
0.0
 71
     5
 72
     1
  1
\A1;L
  7
TXT
 73
     1
 44
1.0
  0
POINT
  5
766
330
75E
100
AcDbEntity
  8
DEFPOINTS
 62
     0
100
AcDbPoint
 10
40.82089262428098
 20
15.01153767529097
 30
0.0
  0
POINT
  5
767
330
75E
100
AcDbEntity
  8
DEFPOINTS
 62
     0
100
AcDbPoint
 10
40.82089262428098
 20
31.14953767529096
 30
0.0
  0
POINT
  5
768
330
75E
100
AcDbEntity
  8
DEFPOINTS
 62
     0
100
AcDbPoint
 10
45.31439262428098
 20
31.14953767529096
 30
0.0
  0
ENDBLK
  5
76A
330
75E
100
AcDbEntity
  8
0
100
AcDbBlockEnd
  0
BLOCK
  5
776
330
76B
100
AcDbEntity
  8
0
100
AcDbBlockBegin
  2
*D7
 70
     1
 10
0.0
 20
0.0
 30
0.0
  3
*D7
  1

  0
LINE
  5
76C
330
76B
100
AcDbEntity
  8
DIM
 62
     0
370
    -2
100
AcDbLine
 10
29.177892624281
 20
14.66503767529097
 30
0.0
 11
29.177892624281
 21
9.989037675290967
 31
0.0
  0
LINE
  5
76D
330
76B
100
AcDbEntity
  8
DIM
 62
     0
370
    -2
100
AcDbLine
 10
40.82089262428098
 20
14.66503767529097
 30
0.0
 11
40.82089262428098
 21
9.989037675290967
 31
0.0
  0
LINE
  5
76E
330
76B
100
AcDbEntity
  8
DIM
 62
     0
370
    -2
100
AcDbLine
 10
30.16789262428099
 20
10.50053767529096
 30
0.0
 11
34.33251762428099
 21
10.50053767529096
 31
0.0
  0
LINE
  5
76F
330
76B
100
AcDbEntity
  8
DIM
 62
     0
370
    -2
100
AcDbLine
 10
39.83089262428098
 20
10.50053767529096
 30
0.0
 11
35.66626762428099
 21
10.50053767529096
 31
0.0
  0
SOLID
  5
770
330
76B
100
AcDbEntity
  8
DIM
 62
     0
100
AcDbTrace
 10
30.16789262428099
 20
10.66553767529096
 30
0.0
 11
30.16789262428099
 21
10.33553767529096
 31
0.0
 12
29.177892624281
 22
10.50053767529096
 32
0.0
 13
29.177892624281
 23
10.50053767529096
 33
0.0
  0
SOLID
  5
771
330
76B
100
AcDbEntity
  8
DIM
 62
     0
100
AcDbTrace
 10
39.83089262428098
 20
10.66553767529096
 30
0.0
 11
39.83089262428098
 21
10.33553767529096
 31
0.0
 12
40.82089262428098
 22
10.50053767529096
 32
0.0
 13
40.82089262428098
 23
10.50053767529096
 33
0.0
  0
MTEXT
  5
772
330
76B
100
AcDbEntity
  8
DIM
 62
     0
100
AcDbMText
 10
34.99939262428099
 20
10.50053767529096
 30
0.0
 40
0.6875
 41
0.0
 71
     5
 72
     1
  1
\A1;E
  7
TXT
 73
     1
 44
1.0
  0
POINT
  5
773
330
76B
100
AcDbEntity
  8
DEFPOINTS
 62
     0
100
AcDbPoint
 10
29.177892624281
 20
15.01153767529097
 30
0.0
  0
POINT
  5
774
330
76B
100
AcDbEntity
  8
DEFPOINTS
 62
     0
100
AcDbPoint
 10
40.82089262428098
 20
15.01153767529097
 30
0.0
  0
POINT
  5
775
330
76B
100
AcDbEntity
  8
DEFPOINTS
 62
     0
100
AcDbPoint
 10
40.82089262428098
 20
10.50053767529096
 30
0.0
  0
ENDBLK
  5
777
330
76B
100
AcDbEntity
  8
0
100
AcDbBlockEnd
  0
BLOCK
  5
783
330
778
100
AcDbEntity
  8
0
100
AcDbBlockBegin
  2
*D8
 70
     1
 10
0.0
 20
0.0
 30
0.0
  3
*D8
  1

  0
LINE
  5
779
330
778
100
AcDbEntity
  8
DIM
 62
     0
370
    -2
100
AcDbLine
 10
28.61539262428098
 20
32.12303767529096
 30
0.0
 11
28.61539262428098
 21
34.81353767529097
 31
0.0
  0
LINE
  5
77A
330
778
100
AcDbEntity
  8
DIM
 62
     0
370
    -2
100
AcDbLine
 10
41.38339262428099
 20
32.12303767529096
 30
0.0
 11
41.38339262428099
 21
34.81353767529097
 31
0.0
  0
LINE
  5
77B
330
778
100
AcDbEntity
  8
DIM
 62
     0
370
    -2
100
AcDbLine
 10
29.60539262428098
 20
34.30203767529097
 30
0.0
 11
34.33251762428099
 21
34.30203767529097
 31
0.0
  0
LINE
  5
77C
330
778
100
AcDbEntity
  8
DIM
 62
     0
370
    -2
100
AcDbLine
 10
40.39339262428098
 20
34.30203767529097
 30
0.0
 11
35.66626762428098
 21
34.30203767529097
 31
0.0
  0
SOLID
  5
77D
330
778
100
AcDbEntity
  8
DIM
 62
     0
100
AcDbTrace
 10
29.60539262428098
 20
34.46703767529097
 30
0.0
 11
29.60539262428098
 21
34.13703767529097
 31
0.0
 12
28.61539262428098
 22
34.30203767529097
 32
0.0
 13
28.61539262428098
 23
34.30203767529097
 33
0.0
  0
SOLID
  5
77E
330
778
100
AcDbEntity
  8
DIM
 62
     0
100
AcDbTrace
 10
40.39339262428098
 20
34.46703767529097
 30
0.0
 11
40.39339262428098
 21
34.13703767529097
 31
0.0
 12
41.38339262428099
 22
34.30203767529097
 32
0.0
 13
41.38339262428099
 23
34.30203767529097
 33
0.0
  0
MTEXT
  5
77F
330
778
100
AcDbEntity
  8
DIM
 62
     0
100
AcDbMText
 10
34.99939262428098
 20
34.30203767529097
 30
0.0
 40
0.6875
 41
0.0
 71
     5
 72
     1
  1
\A1;C
  7
TXT
 73
     1
 44
1.0
  0
POINT
  5
780
330
778
100
AcDbEntity
  8
DEFPOINTS
 62
     0
100
AcDbPoint
 10
28.61539262428098
 20
31.77653767529097
 30
0.0
  0
POINT
  5
781
330
778
100
AcDbEntity
  8
DEFPOINTS
 62
     0
100
AcDbPoint
 10
41.38339262428099
 20
31.77653767529097
 30
0.0
  0
POINT
  5
782
330
778
100
AcDbEntity
  8
DEFPOINTS
 62
     0
100
AcDbPoint
 10
41.38339262428099
 20
34.30203767529097
 30
0.0
  0
ENDBLK
  5
784
330
778
100
AcDbEntity
  8
0
100
AcDbBlockEnd
  0
BLOCK
  5
790
330
785
100
AcDbEntity
  8
0
100
AcDbBlockBegin
  2
*D9
 70
     1
 10
0.0
 20
0.0
 30
0.0
  3
*D9
  1

  0
LINE
  5
786
330
785
100
AcDbEntity
  8
DIM
 62
     0
370
    -2
100
AcDbLine
 10
27.81689262428098
 20
32.24553767529096
 30
0.0
 11
23.97604223428086
 21
32.24553767529096
 31
0.0
  0
LINE
  5
787
330
785
100
AcDbEntity
  8
DIM
 62
     0
370
    -2
100
AcDbLine
 10
27.81689262428098
 20
13.91553767529096
 30
0.0
 11
23.97604223428086
 21
13.91553767529096
 31
0.0
  0
LINE
  5
788
330
785
100
AcDbEntity
  8
DIM
 62
     0
370
    -2
100
AcDbLine
 10
24.48754223428087
 20
31.25553767529096
 30
0.0
 11
24.48754223428086
 21
23.91928767529096
 31
0.0
  0
LINE
  5
789
330
785
100
AcDbEntity
  8
DIM
 62
     0
370
    -2
100
AcDbLine
 10
24.48754223428086
 20
14.90553767529096
 30
0.0
 11
24.48754223428086
 21
22.24178767529096
 31
0.0
  0
SOLID
  5
78A
330
785
100
AcDbEntity
  8
DIM
 62
     0
100
AcDbTrace
 10
24.32254223428087
 20
31.25553767529096
 30
0.0
 11
24.65254223428086
 21
31.25553767529096
 31
0.0
 12
24.48754223428087
 22
32.24553767529096
 32
0.0
 13
24.48754223428087
 23
32.24553767529096
 33
0.0
  0
SOLID
  5
78B
330
785
100
AcDbEntity
  8
DIM
 62
     0
100
AcDbTrace
 10
24.32254223428087
 20
14.90553767529096
 30
0.0
 11
24.65254223428086
 21
14.90553767529096
 31
0.0
 12
24.48754223428086
 22
13.91553767529096
 32
0.0
 13
24.48754223428086
 23
13.91553767529096
 33
0.0
  0
MTEXT
  5
78C
330
785
100
AcDbEntity
  8
DIM
 62
     0
100
AcDbMText
 10
24.48754223428086
 20
23.08053767529097
 30
0.0
 40
0.6875
 41
0.0
 71
     5
 72
     1
  1
\A1;H
  7
TXT
 73
     1
 44
1.0
  0
POINT
  5
78D
330
785
100
AcDbEntity
  8
DEFPOINTS
 62
     0
100
AcDbPoint
 10
28.16339262428098
 20
32.24553767529096
 30
0.0
  0
POINT
  5
78E
330
785
100
AcDbEntity
  8
DEFPOINTS
 62
     0
100
AcDbPoint
 10
28.16339262428098
 20
13.91553767529096
 30
0.0
  0
POINT
  5
78F
330
785
100
AcDbEntity
  8
DEFPOINTS
 62
     0
100
AcDbPoint
 10
24.48754223428086
 20
13.91553767529096
 30
0.0
  0
ENDBLK
  5
791
330
785
100
AcDbEntity
  8
0
100
AcDbBlockEnd
  0
BLOCK
  5
79D
330
792
100
AcDbEntity
  8
0
100
AcDbBlockBegin
  2
*D10
 70
     1
 10
0.0
 20
0.0
 30
0.0
  3
*D10
  1

  0
LINE
  5
793
330
792
100
AcDbEntity
  8
DIM
 62
     0
370
    -2
100
AcDbLine
 10
40.75789262428098
 20
31.42553767529097
 30
0.0
 11
47.20089262428099
 21
31.42553767529097
 31
0.0
  0
LINE
  5
794
330
792
100
AcDbEntity
  8
DIM
 62
     0
370
    -2
100
AcDbLine
 10
40.75789262428098
 20
14.73553767529096
 30
0.0
 11
47.20089262428098
 21
14.73553767529096
 31
0.0
  0
LINE
  5
795
330
792
100
AcDbEntity
  8
DIM
 62
     0
370
    -2
100
AcDbLine
 10
46.68939262428099
 20
30.43553767529097
 30
0.0
 11
46.68939262428099
 21
23.91928767529096
 31
0.0
  0
LINE
  5
796
330
792
100
AcDbEntity
  8
DIM
 62
     0
370
    -2
100
AcDbLine
 10
46.68939262428098
 20
15.72553767529096
 30
0.0
 11
46.68939262428099
 21
22.24178767529096
 31
0.0
  0
SOLID
  5
797
330
792
100
AcDbEntity
  8
DIM
 62
     0
100
AcDbTrace
 10
46.52439262428099
 20
30.43553767529097
 30
0.0
 11
46.85439262428099
 21
30.43553767529097
 31
0.0
 12
46.68939262428099
 22
31.42553767529097
 32
0.0
 13
46.68939262428099
 23
31.42553767529097
 33
0.0
  0
SOLID
  5
798
330
792
100
AcDbEntity
  8
DIM
 62
     0
100
AcDbTrace
 10
46.52439262428099
 20
15.72553767529096
 30
0.0
 11
46.85439262428098
 21
15.72553767529096
 31
0.0
 12
46.68939262428098
 22
14.73553767529096
 32
0.0
 13
46.68939262428098
 23
14.73553767529096
 33
0.0
  0
MTEXT
  5
799
330
792
100
AcDbEntity
  8
DIM
 62
     0
100
AcDbMText
 10
46.68939262428098
 20
23.08053767529097
 30
0.0
 40
0.6875
 41
0.0
 71
     5
 72
     1
  1
\A1;K
  7
TXT
 73
     1
 44
1.0
  0
POINT
  5
79A
330
792
100
AcDbEntity
  8
DEFPOINTS
 62
     0
100
AcDbPoint
 10
40.41139262428098
 20
31.42553767529097
 30
0.0
  0
POINT
  5
79B
330
792
100
AcDbEntity
  8
DEFPOINTS
 62
     0
100
AcDbPoint
 10
40.41139262428098
 20
14.73553767529096
 30
0.0
  0
POINT
  5
79C
330
792
100
AcDbEntity
  8
DEFPOINTS
 62
     0
100
AcDbPoint
 10
46.68939262428098
 20
14.73553767529096
 30
0.0
  0
ENDBLK
  5
79E
330
792
100
AcDbEntity
  8
0
100
AcDbBlockEnd
  0
BLOCK
  5
7AA
330
79F
100
AcDbEntity
  8
0
100
AcDbBlockBegin
  2
*D11
 70
     1
 10
0.0
 20
0.0
 30
0.0
  3
*D11
  1

  0
LINE
  5
7A0
330
79F
100
AcDbEntity
  8
DIM
 62
     0
370
    -2
100
AcDbLine
 10
41.42489262428099
 20
30.46053767529096
 30
0.0
 11
44.45089262428099
 21
30.46053767529096
 31
0.0
  0
LINE
  5
7A1
330
79F
100
AcDbEntity
  8
DIM
 62
     0
370
    -2
100
AcDbLine
 10
41.42489262428099
 20
15.70053767529096
 30
0.0
 11
44.45089262428098
 21
15.70053767529096
 31
0.0
  0
LINE
  5
7A2
330
79F
100
AcDbEntity
  8
DIM
 62
     0
370
    -2
100
AcDbLine
 10
43.93939262428099
 20
29.47053767529096
 30
0.0
 11
43.93939262428099
 21
23.91928767529096
 31
0.0
  0
LINE
  5
7A3
330
79F
100
AcDbEntity
  8
DIM
 62
     0
370
    -2
100
AcDbLine
 10
43.93939262428099
 20
16.69053767529096
 30
0.0
 11
43.93939262428099
 21
22.24178767529096
 31
0.0
  0
SOLID
  5
7A4
330
79F
100
AcDbEntity
  8
DIM
 62
     0
100
AcDbTrace
 10
43.77439262428099
 20
29.47053767529096
 30
0.0
 11
44.10439262428099
 21
29.47053767529096
 31
0.0
 12
43.93939262428099
 22
30.46053767529096
 32
0.0
 13
43.93939262428099
 23
30.46053767529096
 33
0.0
  0
SOLID
  5
7A5
330
79F
100
AcDbEntity
  8
DIM
 62
     0
100
AcDbTrace
 10
43.77439262428099
 20
16.69053767529096
 30
0.0
 11
44.10439262428099
 21
16.69053767529096
 31
0.0
 12
43.93939262428098
 22
15.70053767529096
 32
0.0
 13
43.93939262428098
 23
15.70053767529096
 33
0.0
  0
MTEXT
  5
7A6
330
79F
100
AcDbEntity
  8
DIM
 62
     0
100
AcDbMText
 10
43.93939262428098
 20
23.08053767529097
 30
0.0
 40
0.6875
 41
0.0
 71
     5
 72
     1
  1
\A1;M
  7
TXT
 73
     1
 44
1.0
  0
POINT
  5
7A7
330
79F
100
AcDbEntity
  8
DEFPOINTS
 62
     0
100
AcDbPoint
 10
41.07839262428099
 20
30.46053767529096
 30
0.0
  0
POINT
  5
7A8
330
79F
100
AcDbEntity
  8
DEFPOINTS
 62
     0
100
AcDbPoint
 10
41.07839262428099
 20
15.70053767529096
 30
0.0
  0
POINT
  5
7A9
330
79F
100
AcDbEntity
  8
DEFPOINTS
 62
     0
100
AcDbPoint
 10
43.93939262428098
 20
15.70053767529096
 30
0.0
  0
ENDBLK
  5
7AB
330
79F
100
AcDbEntity
  8
0
100
AcDbBlockEnd
  0
BLOCK
  5
7B7
330
7AC
100
AcDbEntity
  8
0
100
AcDbBlockBegin
  2
*D12
 70
     1
 10
0.0
 20
0.0
 30
0.0
  3
*D12
  1

  0
LINE
  5
7AD
330
7AC
100
AcDbEntity
  8
DIM
 62
     0
370
    -2
100
AcDbLine
 10
29.58739262428098
 20
14.38903767529096
 30
0.0
 11
29.58739262428098
 21
11.36403767529096
 31
0.0
  0
LINE
  5
7AE
330
7AC
100
AcDbEntity
  8
DIM
 62
     0
370
    -2
100
AcDbLine
 10
40.41139262428098
 20
14.38903767529096
 30
0.0
 11
40.41139262428098
 21
11.36403767529096
 31
0.0
  0
LINE
  5
7AF
330
7AC
100
AcDbEntity
  8
DIM
 62
     0
370
    -2
100
AcDbLine
 10
30.57739262428098
 20
11.87553767529096
 30
0.0
 11
34.33251762428098
 21
11.87553767529096
 31
0.0
  0
LINE
  5
7B0
330
7AC
100
AcDbEntity
  8
DIM
 62
     0
370
    -2
100
AcDbLine
 10
39.42139262428097
 20
11.87553767529096
 30
0.0
 11
35.66626762428097
 21
11.87553767529096
 31
0.0
  0
SOLID
  5
7B1
330
7AC
100
AcDbEntity
  8
DIM
 62
     0
100
AcDbTrace
 10
30.57739262428098
 20
12.04053767529096
 30
0.0
 11
30.57739262428098
 21
11.71053767529096
 31
0.0
 12
29.58739262428098
 22
11.87553767529096
 32
0.0
 13
29.58739262428098
 23
11.87553767529096
 33
0.0
  0
SOLID
  5
7B2
330
7AC
100
AcDbEntity
  8
DIM
 62
     0
100
AcDbTrace
 10
39.42139262428097
 20
12.04053767529096
 30
0.0
 11
39.42139262428097
 21
11.71053767529096
 31
0.0
 12
40.41139262428098
 22
11.87553767529096
 32
0.0
 13
40.41139262428098
 23
11.87553767529096
 33
0.0
  0
MTEXT
  5
7B3
330
7AC
100
AcDbEntity
  8
DIM
 62
     0
100
AcDbMText
 10
34.99939262428098
 20
11.87553767529096
 30
0.0
 40
0.6875
 41
0.0
 71
     5
 72
     1
  1
\A1;F
  7
TXT
 73
     1
 44
1.0
  0
POINT
  5
7B4
330
7AC
100
AcDbEntity
  8
DEFPOINTS
 62
     0
100
AcDbPoint
 10
29.58739262428098
 20
14.73553767529096
 30
0.0
  0
POINT
  5
7B5
330
7AC
100
AcDbEntity
  8
DEFPOINTS
 62
     0
100
AcDbPoint
 10
40.41139262428098
 20
14.73553767529096
 30
0.0
  0
POINT
  5
7B6
330
7AC
100
AcDbEntity
  8
DEFPOINTS
 62
     0
100
AcDbPoint
 10
40.41139262428098
 20
11.87553767529096
 30
0.0
  0
ENDBLK
  5
7B8
330
7AC
100
AcDbEntity
  8
0
100
AcDbBlockEnd
  0
BLOCK
  5
7C4
330
7B9
100
AcDbEntity
  8
0
100
AcDbBlockBegin
  2
*D13
 70
     1
 10
0.0
 20
0.0
 30
0.0
  3
*D13
  1

  0
LINE
  5
7BA
330
7B9
100
AcDbEntity
  8
DIM
 62
     0
370
    -2
100
AcDbLine
 10
28.92039262428097
 20
15.35403767529096
 30
0.0
 11
28.92039262428097
 21
8.614037675290967
 31
0.0
  0
LINE
  5
7BB
330
7B9
100
AcDbEntity
  8
DIM
 62
     0
370
    -2
100
AcDbLine
 10
41.07839262428099
 20
15.35403767529096
 30
0.0
 11
41.07839262428099
 21
8.614037675290967
 31
0.0
  0
LINE
  5
7BC
330
7B9
100
AcDbEntity
  8
DIM
 62
     0
370
    -2
100
AcDbLine
 10
29.91039262428097
 20
9.125537675290967
 30
0.0
 11
34.33251762428099
 21
9.125537675290967
 31
0.0
  0
LINE
  5
7BD
330
7B9
100
AcDbEntity
  8
DIM
 62
     0
370
    -2
100
AcDbLine
 10
40.08839262428099
 20
9.125537675290967
 30
0.0
 11
35.66626762428098
 21
9.125537675290967
 31
0.0
  0
SOLID
  5
7BE
330
7B9
100
AcDbEntity
  8
DIM
 62
     0
100
AcDbTrace
 10
29.91039262428097
 20
9.290537675290966
 30
0.0
 11
29.91039262428097
 21
8.960537675290968
 31
0.0
 12
28.92039262428097
 22
9.125537675290967
 32
0.0
 13
28.92039262428097
 23
9.125537675290967
 33
0.0
  0
SOLID
  5
7BF
330
7B9
100
AcDbEntity
  8
DIM
 62
     0
100
AcDbTrace
 10
40.08839262428099
 20
9.290537675290966
 30
0.0
 11
40.08839262428099
 21
8.960537675290968
 31
0.0
 12
41.07839262428099
 22
9.125537675290967
 32
0.0
 13
41.07839262428099
 23
9.125537675290967
 33
0.0
  0
MTEXT
  5
7C0
330
7B9
100
AcDbEntity
  8
DIM
 62
     0
100
AcDbMText
 10
34.99939262428098
 20
9.125537675290967
 30
0.0
 40
0.6875
 41
0.0
 71
     5
 72
     1
  1
\A1;D
  7
TXT
 73
     1
 44
1.0
  0
POINT
  5
7C1
330
7B9
100
AcDbEntity
  8
DEFPOINTS
 62
     0
100
AcDbPoint
 10
28.92039262428097
 20
15.70053767529096
 30
0.0
  0
POINT
  5
7C2
330
7B9
100
AcDbEntity
  8
DEFPOINTS
 62
     0
100
AcDbPoint
 10
41.07839262428099
 20
15.70053767529096
 30
0.0
  0
POINT
  5
7C3
330
7B9
100
AcDbEntity
  8
DEFPOINTS
 62
     0
100
AcDbPoint
 10
41.07839262428099
 20
9.125537675290967
 30
0.0
  0
ENDBLK
  5
7C5
330
7B9
100
AcDbEntity
  8
0
100
AcDbBlockEnd
  0
BLOCK
  5
7D1
330
7C6
100
AcDbEntity
  8
0
100
AcDbBlockBegin
  2
*D14
 70
     1
 10
0.0
 20
0.0
 30
0.0
  3
*D14
  1

  0
LINE
  5
7C7
330
7C6
100
AcDbEntity
  8
DIM
 62
     0
370
    -2
100
AcDbLine
 10
48.84306700454676
 20
35.64909312898466
 30
0.0
 11
48.84306700454676
 21
34.01258238691414
 31
0.0
  0
LINE
  5
7C8
330
7C6
100
AcDbEntity
  8
DIM
 62
     0
370
    -2
100
AcDbLine
 10
62.82306700454679
 20
35.64909312898466
 30
0.0
 11
62.82306700454679
 21
34.01258238691414
 31
0.0
  0
LINE
  5
7C9
330
7C6
100
AcDbEntity
  8
DIM
 62
     0
370
    -2
100
AcDbLine
 10
49.83306700454677
 20
34.52408238691414
 30
0.0
 11
55.16619200454678
 21
34.52408238691414
 31
0.0
  0
LINE
  5
7CA
330
7C6
100
AcDbEntity
  8
DIM
 62
     0
370
    -2
100
AcDbLine
 10
61.83306700454679
 20
34.52408238691414
 30
0.0
 11
56.49994200454678
 21
34.52408238691414
 31
0.0
  0
SOLID
  5
7CB
330
7C6
100
AcDbEntity
  8
DIM
 62
     0
100
AcDbTrace
 10
49.83306700454677
 20
34.68908238691414
 30
0.0
 11
49.83306700454677
 21
34.35908238691414
 31
0.0
 12
48.84306700454676
 22
34.52408238691414
 32
0.0
 13
48.84306700454676
 23
34.52408238691414
 33
0.0
  0
SOLID
  5
7CC
330
7C6
100
AcDbEntity
  8
DIM
 62
     0
100
AcDbTrace
 10
61.83306700454679
 20
34.68908238691414
 30
0.0
 11
61.83306700454679
 21
34.35908238691414
 31
0.0
 12
62.82306700454679
 22
34.52408238691414
 32
0.0
 13
62.82306700454679
 23
34.52408238691414
 33
0.0
  0
MTEXT
  5
7CD
330
7C6
100
AcDbEntity
  8
DIM
 62
     0
100
AcDbMText
 10
55.83306700454677
 20
34.52408238691414
 30
0.0
 40
0.6875
 41
0.0
 71
     5
 72
     1
  1
\A1;T
  7
TXT
 73
     1
 44
1.0
  0
POINT
  5
7CE
330
7C6
100
AcDbEntity
  8
DEFPOINTS
 62
     0
100
AcDbPoint
 10
48.84306700454676
 20
35.99559312898466
 30
0.0
  0
POINT
  5
7CF
330
7C6
100
AcDbEntity
  8
DEFPOINTS
 62
     0
100
AcDbPoint
 10
62.82306700454679
 20
35.99559312898466
 30
0.0
  0
POINT
  5
7D0
330
7C6
100
AcDbEntity
  8
DEFPOINTS
 62
     0
100
AcDbPoint
 10
62.82306700454679
 20
34.52408238691414
 30
0.0
  0
ENDBLK
  5
7D2
330
7C6
100
AcDbEntity
  8
0
100
AcDbBlockEnd
  0
BLOCK
  5
7DE
330
7D3
100
AcDbEntity
  8
0
100
AcDbBlockBegin
  2
*D15
 70
     1
 10
0.0
 20
0.0
 30
0.0
  3
*D15
  1

  0
LINE
  5
7D4
330
7D3
100
AcDbEntity
  8
DIM
 62
     0
370
    -2
100
AcDbLine
 10
48.92806700454677
 20
44.02498727504219
 30
0.0
 11
48.92806700454677
 21
45.46226478752728
 31
0.0
  0
LINE
  5
7D5
330
7D3
100
AcDbEntity
  8
DIM
 62
     0
370
    -2
100
AcDbLine
 10
62.73806700454677
 20
44.02498727504219
 30
0.0
 11
62.73806700454677
 21
45.46226478752728
 31
0.0
  0
LINE
  5
7D6
330
7D3
100
AcDbEntity
  8
DIM
 62
     0
370
    -2
100
AcDbLine
 10
49.91806700454677
 20
44.95076478752729
 30
0.0
 11
55.16619200454678
 21
44.95076478752729
 31
0.0
  0
LINE
  5
7D7
330
7D3
100
AcDbEntity
  8
DIM
 62
     0
370
    -2
100
AcDbLine
 10
61.74806700454677
 20
44.95076478752729
 30
0.0
 11
56.49994200454678
 21
44.95076478752729
 31
0.0
  0
SOLID
  5
7D8
330
7D3
100
AcDbEntity
  8
DIM
 62
     0
100
AcDbTrace
 10
49.91806700454677
 20
45.11576478752728
 30
0.0
 11
49.91806700454677
 21
44.78576478752729
 31
0.0
 12
48.92806700454677
 22
44.95076478752729
 32
0.0
 13
48.92806700454677
 23
44.95076478752729
 33
0.0
  0
SOLID
  5
7D9
330
7D3
100
AcDbEntity
  8
DIM
 62
     0
100
AcDbTrace
 10
61.74806700454677
 20
45.11576478752728
 30
0.0
 11
61.74806700454677
 21
44.78576478752729
 31
0.0
 12
62.73806700454677
 22
44.95076478752729
 32
0.0
 13
62.73806700454677
 23
44.95076478752729
 33
0.0
  0
MTEXT
  5
7DA
330
7D3
100
AcDbEntity
  8
DIM
 62
     0
100
AcDbMText
 10
55.83306700454677
 20
44.95076478752729
 30
0.0
 40
0.6875
 41
0.0
 71
     5
 72
     1
  1
\A1;U
  7
TXT
 73
     1
 44
1.0
  0
POINT
  5
7DB
330
7D3
100
AcDbEntity
  8
DEFPOINTS
 62
     0
100
AcDbPoint
 10
48.92806700454677
 20
43.67848727504219
 30
0.0
  0
POINT
  5
7DC
330
7D3
100
AcDbEntity
  8
DEFPOINTS
 62
     0
100
AcDbPoint
 10
62.73806700454677
 20
43.67848727504219
 30
0.0
  0
POINT
  5
7DD
330
7D3
100
AcDbEntity
  8
DEFPOINTS
 62
     0
100
AcDbPoint
 10
62.73806700454677
 20
44.95076478752729
 30
0.0
  0
ENDBLK
  5
7DF
330
7D3
100
AcDbEntity
  8
0
100
AcDbBlockEnd
  0
BLOCK
  5
7EB
330
7E0
100
AcDbEntity
  8
0
100
AcDbBlockBegin
  2
*D16
 70
     1
 10
0.0
 20
0.0
 30
0.0
  3
*D16
  1

  0
LINE
  5
7E1
330
7E0
100
AcDbEntity
  8
DIM
 62
     0
370
    -2
100
AcDbLine
 10
67.65440196524718
 20
33.01203763729105
 30
0.0
 11
67.65440196524718
 21
34.29753767529096
 31
0.0
  0
LINE
  5
7E2
330
7E0
100
AcDbEntity
  8
DIM
 62
     0
370
    -2
100
AcDbLine
 10
74.32040196524717
 20
32.59453767529095
 30
0.0
 11
74.32040196524717
 21
34.29753767529096
 31
0.0
  0
LINE
  5
7E3
330
7E0
100
AcDbEntity
  8
DIM
 62
     0
370
    -2
100
AcDbLine
 10
68.64440196524717
 20
33.78603767529097
 30
0.0
 11
70.32052696524717
 21
33.78603767529097
 31
0.0
  0
LINE
  5
7E4
330
7E0
100
AcDbEntity
  8
DIM
 62
     0
370
    -2
100
AcDbLine
 10
73.33040196524717
 20
33.78603767529097
 30
0.0
 11
71.65427696524718
 21
33.78603767529097
 31
0.0
  0
SOLID
  5
7E5
330
7E0
100
AcDbEntity
  8
DIM
 62
     0
100
AcDbTrace
 10
68.64440196524717
 20
33.95103767529096
 30
0.0
 11
68.64440196524717
 21
33.62103767529097
 31
0.0
 12
67.65440196524718
 22
33.78603767529097
 32
0.0
 13
67.65440196524718
 23
33.78603767529097
 33
0.0
  0
SOLID
  5
7E6
330
7E0
100
AcDbEntity
  8
DIM
 62
     0
100
AcDbTrace
 10
73.33040196524717
 20
33.95103767529096
 30
0.0
 11
73.33040196524717
 21
33.62103767529097
 31
0.0
 12
74.32040196524717
 22
33.78603767529097
 32
0.0
 13
74.32040196524717
 23
33.78603767529097
 33
0.0
  0
MTEXT
  5
7E7
330
7E0
100
AcDbEntity
  8
DIM
 62
     0
100
AcDbMText
 10
70.98740196524717
 20
33.78603767529097
 30
0.0
 40
0.6875
 41
0.0
 71
     5
 72
     1
  1
\A1;N
  7
TXT
 73
     1
 44
1.0
  0
POINT
  5
7E8
330
7E0
100
AcDbEntity
  8
DEFPOINTS
 62
     0
100
AcDbPoint
 10
67.65440196524718
 20
32.66553763729105
 30
0.0
  0
POINT
  5
7E9
330
7E0
100
AcDbEntity
  8
DEFPOINTS
 62
     0
100
AcDbPoint
 10
74.32040196524717
 20
32.24803767529095
 30
0.0
  0
POINT
  5
7EA
330
7E0
100
AcDbEntity
  8
DEFPOINTS
 62
     0
100
AcDbPoint
 10
74.32040196524717
 20
33.78603767529097
 30
0.0
  0
ENDBLK
  5
7EC
330
7E0
100
AcDbEntity
  8
0
100
AcDbBlockEnd
  0
BLOCK
  5
7F8
330
7ED
100
AcDbEntity
  8
0
100
AcDbBlockBegin
  2
*D17
 70
     1
 10
0.0
 20
0.0
 30
0.0
  3
*D17
  1

  0
LINE
  5
7EE
330
7ED
100
AcDbEntity
  8
DIM
 62
     0
370
    -2
100
AcDbLine
 10
30.57139262428099
 20
15.08203767529096
 30
0.0
 11
30.57139262428099
 21
18.46009783682713
 31
0.0
  0
LINE
  5
7EF
330
7ED
100
AcDbEntity
  8
DIM
 62
     0
370
    -2
100
AcDbLine
 10
31.55539262428099
 20
15.08203767529096
 30
0.0
 11
31.55539262428099
 21
18.46009783682713
 31
0.0
  0
LINE
  5
7F0
330
7ED
100
AcDbEntity
  8
DIM
 62
     0
370
    -2
100
AcDbLine
 10
29.58139262428099
 20
17.94859783682714
 30
0.0
 11
28.59139262428099
 21
17.94859783682714
 31
0.0
  0
LINE
  5
7F1
330
7ED
100
AcDbEntity
  8
DIM
 62
     0
370
    -2
100
AcDbLine
 10
32.54539262428099
 20
17.94859783682714
 30
0.0
 11
33.535392624281
 21
17.94859783682714
 31
0.0
  0
SOLID
  5
7F2
330
7ED
100
AcDbEntity
  8
DIM
 62
     0
100
AcDbTrace
 10
29.58139262428099
 20
18.11359783682713
 30
0.0
 11
29.58139262428099
 21
17.78359783682714
 31
0.0
 12
30.57139262428099
 22
17.94859783682714
 32
0.0
 13
30.57139262428099
 23
17.94859783682714
 33
0.0
  0
SOLID
  5
7F3
330
7ED
100
AcDbEntity
  8
DIM
 62
     0
100
AcDbTrace
 10
32.54539262428099
 20
18.11359783682713
 30
0.0
 11
32.54539262428099
 21
17.78359783682714
 31
0.0
 12
31.55539262428099
 22
17.94859783682714
 32
0.0
 13
31.55539262428099
 23
17.94859783682714
 33
0.0
  0
MTEXT
  5
7F4
330
7ED
100
AcDbEntity
  8
DIM
 62
     0
100
AcDbMText
 10
37.253048874281
 20
17.94859783682714
 30
0.0
 40
0.6875
 41
0.0
 71
     5
 72
     1
  1
\A1;0.984 [25] TYP.
  7
TXT
 73
     1
 44
1.0
  0
POINT
  5
7F5
330
7ED
100
AcDbEntity
  8
DEFPOINTS
 62
     0
100
AcDbPoint
 10
30.57139262428099
 20
14.73553767529096
 30
0.0
  0
POINT
  5
7F6
330
7ED
100
AcDbEntity
  8
DEFPOINTS
 62
     0
100
AcDbPoint
 10
31.55539262428099
 20
14.73553767529096
 30
0.0
  0
POINT
  5
7F7
330
7ED
100
AcDbEntity
  8
DEFPOINTS
 62
     0
100
AcDbPoint
 10
31.55539262428099
 20
17.94859783682714
 30
0.0
  0
ENDBLK
  5
7F9
330
7ED
100
AcDbEntity
  8
0
100
AcDbBlockEnd
  0
BLOCK
  5
806
330
7FA
100
AcDbEntity
  8
0
100
AcDbBlockBegin
  2
*D18
 70
     1
 10
0.0
 20
0.0
 30
0.0
  3
*D18
  1

  0
LINE
  5
7FB
330
7FA
100
AcDbEntity
  8
DIM
 62
     0
370
    -2
100
AcDbLine
 10
40.73189262428099
 20
30.46053767529096
 30
0.0
 11
38.443204593301
 21
30.46053767529096
 31
0.0
  0
LINE
  5
7FC
330
7FA
100
AcDbEntity
  8
DIM
 62
     0
370
    -2
100
AcDbLine
 10
40.73189262428099
 20
29.47653767529097
 30
0.0
 11
38.443204593301
 21
29.47653767529097
 31
0.0
  0
LINE
  5
7FD
330
7FA
100
AcDbEntity
  8
DIM
 62
     0
370
    -2
100
AcDbLine
 10
38.954704593301
 20
31.45053767529097
 30
0.0
 11
38.954704593301
 21
32.44053767529097
 31
0.0
  0
LINE
  5
7FE
330
7FA
100
AcDbEntity
  8
DIM
 62
     0
370
    -2
100
AcDbLine
 10
38.954704593301
 20
28.48653767529097
 30
0.0
 11
38.954704593301
 21
27.49653767529097
 31
0.0
  0
LINE
  5
7FF
330
7FA
100
AcDbEntity
  8
DIM
 62
     0
370
    -2
100
AcDbLine
 10
38.954704593301
 20
27.49653767529097
 30
0.0
 11
37.964704593301
 21
27.49653767529097
 31
0.0
  0
SOLID
  5
800
330
7FA
100
AcDbEntity
  8
DIM
 62
     0
100
AcDbTrace
 10
38.789704593301
 20
31.45053767529097
 30
0.0
 11
39.119704593301
 21
31.45053767529097
 31
0.0
 12
38.954704593301
 22
30.46053767529096
 32
0.0
 13
38.954704593301
 23
30.46053767529096
 33
0.0
  0
SOLID
  5
801
330
7FA
100
AcDbEntity
  8
DIM
 62
     0
100
AcDbTrace
 10
38.789704593301
 20
28.48653767529097
 30
0.0
 11
39.119704593301
 21
28.48653767529097
 31
0.0
 12
38.954704593301
 22
29.47653767529097
 32
0.0
 13
38.954704593301
 23
29.47653767529097
 33
0.0
  0
MTEXT
  5
802
330
7FA
100
AcDbEntity
  8
DIM
 62
     0
100
AcDbMText
 10
34.24704834330099
 20
27.49653767529097
 30
0.0
 40
0.6875
 41
0.0
 71
     5
 72
     1
  1
\A1;0.984 [25] TYP.
  7
TXT
 73
     1
 44
1.0
  0
POINT
  5
803
330
7FA
100
AcDbEntity
  8
DEFPOINTS
 62
     0
100
AcDbPoint
 10
41.07839262428099
 20
30.46053767529096
 30
0.0
  0
POINT
  5
804
330
7FA
100
AcDbEntity
  8
DEFPOINTS
 62
     0
100
AcDbPoint
 10
41.07839262428099
 20
29.47653767529097
 30
0.0
  0
POINT
  5
805
330
7FA
100
AcDbEntity
  8
DEFPOINTS
 62
     0
100
AcDbPoint
 10
38.954704593301
 20
29.47653767529097
 30
0.0
  0
ENDBLK
  5
807
330
7FA
100
AcDbEntity
  8
0
100
AcDbBlockEnd
  0
BLOCK
  5
813
330
808
100
AcDbEntity
  8
0
100
AcDbBlockBegin
  2
*D19
 70
     1
 10
0.0
 20
0.0
 30
0.0
  3
*D19
  1

  0
LINE
  5
809
330
808
100
AcDbEntity
  8
DIM
 62
     0
370
    -2
100
AcDbLine
 10
28.26889262428098
 20
31.77653767529097
 30
0.0
 11
25.35104223428087
 21
31.77653767529097
 31
0.0
  0
LINE
  5
80A
330
808
100
AcDbEntity
  8
DIM
 62
     0
370
    -2
100
AcDbLine
 10
28.26889262428098
 20
14.38453767529096
 30
0.0
 11
25.35104223428086
 21
14.38453767529097
 31
0.0
  0
LINE
  5
80B
330
808
100
AcDbEntity
  8
DIM
 62
     0
370
    -2
100
AcDbLine
 10
25.86254223428086
 20
30.78653767529097
 30
0.0
 11
25.86254223428086
 21
23.91928767529097
 31
0.0
  0
LINE
  5
80C
330
808
100
AcDbEntity
  8
DIM
 62
     0
370
    -2
100
AcDbLine
 10
25.86254223428086
 20
15.37453767529097
 30
0.0
 11
25.86254223428086
 21
22.24178767529096
 31
0.0
  0
SOLID
  5
80D
330
808
100
AcDbEntity
  8
DIM
 62
     0
100
AcDbTrace
 10
25.69754223428087
 20
30.78653767529097
 30
0.0
 11
26.02754223428087
 21
30.78653767529097
 31
0.0
 12
25.86254223428086
 22
31.77653767529097
 32
0.0
 13
25.86254223428086
 23
31.77653767529097
 33
0.0
  0
SOLID
  5
80E
330
808
100
AcDbEntity
  8
DIM
 62
     0
100
AcDbTrace
 10
25.69754223428086
 20
15.37453767529097
 30
0.0
 11
26.02754223428086
 21
15.37453767529097
 31
0.0
 12
25.86254223428086
 22
14.38453767529097
 32
0.0
 13
25.86254223428086
 23
14.38453767529097
 33
0.0
  0
MTEXT
  5
80F
330
808
100
AcDbEntity
  8
DIM
 62
     0
100
AcDbMText
 10
25.86254223428086
 20
23.08053767529097
 30
0.0
 40
0.6875
 41
0.0
 71
     5
 72
     1
  1
\A1;J
  7
TXT
 73
     1
 44
1.0
  0
POINT
  5
810
330
808
100
AcDbEntity
  8
DEFPOINTS
 62
     0
100
AcDbPoint
 10
28.61539262428098
 20
31.77653767529097
 30
0.0
  0
POINT
  5
811
330
808
100
AcDbEntity
  8
DEFPOINTS
 62
     0
100
AcDbPoint
 10
28.61539262428098
 20
14.38453767529096
 30
0.0
  0
POINT
  5
812
330
808
100
AcDbEntity
  8
DEFPOINTS
 62
     0
100
AcDbPoint
 10
25.86254223428086
 20
14.38453767529097
 30
0.0
  0
ENDBLK
  5
814
330
808
100
AcDbEntity
  8
0
100
AcDbBlockEnd
  0
BLOCK
  5
820
330
815
100
AcDbEntity
  8
0
100
AcDbBlockBegin
  2
*D20
 70
     1
 10
0.0
 20
0.0
 30
0.0
  3
*D20
  1

  0
LINE
  5
816
330
815
100
AcDbEntity
  8
DIM
 62
     0
370
    -2
100
AcDbLine
 10
74.66690196524718
 20
32.24803767529095
 30
0.0
 11
81.26898356865147
 21
32.24803767529095
 31
0.0
  0
LINE
  5
817
330
815
100
AcDbEntity
  8
DIM
 62
     0
370
    -2
100
AcDbLine
 10
74.6669019652472
 20
13.91303767529096
 30
0.0
 11
81.26898356865146
 21
13.91303767529096
 31
0.0
  0
LINE
  5
818
330
815
100
AcDbEntity
  8
DIM
 62
     0
370
    -2
100
AcDbLine
 10
80.75748356865146
 20
31.25803767529095
 30
0.0
 11
80.75748356865146
 21
23.91928767529096
 31
0.0
  0
LINE
  5
819
330
815
100
AcDbEntity
  8
DIM
 62
     0
370
    -2
100
AcDbLine
 10
80.75748356865146
 20
14.90303767529096
 30
0.0
 11
80.75748356865146
 21
22.24178767529096
 31
0.0
  0
SOLID
  5
81A
330
815
100
AcDbEntity
  8
DIM
 62
     0
100
AcDbTrace
 10
80.59248356865145
 20
31.25803767529095
 30
0.0
 11
80.92248356865146
 21
31.25803767529095
 31
0.0
 12
80.75748356865148
 22
32.24803767529095
 32
0.0
 13
80.75748356865148
 23
32.24803767529095
 33
0.0
  0
SOLID
  5
81B
330
815
100
AcDbEntity
  8
DIM
 62
     0
100
AcDbTrace
 10
80.59248356865145
 20
14.90303767529096
 30
0.0
 11
80.92248356865146
 21
14.90303767529096
 31
0.0
 12
80.75748356865146
 22
13.91303767529096
 32
0.0
 13
80.75748356865146
 23
13.91303767529096
 33
0.0
  0
MTEXT
  5
81C
330
815
100
AcDbEntity
  8
DIM
 62
     0
100
AcDbMText
 10
80.75748356865146
 20
23.08053767529097
 30
0.0
 40
0.6875
 41
0.0
 71
     5
 72
     1
  1
\A1;S
  7
TXT
 73
     1
 44
1.0
  0
POINT
  5
81D
330
815
100
AcDbEntity
  8
DEFPOINTS
 62
     0
100
AcDbPoint
 10
74.32040196524717
 20
32.24803767529095
 30
0.0
  0
POINT
  5
81E
330
815
100
AcDbEntity
  8
DEFPOINTS
 62
     0
100
AcDbPoint
 10
74.3204019652472
 20
13.91303767529096
 30
0.0
  0
POINT
  5
81F
330
815
100
AcDbEntity
  8
DEFPOINTS
 62
     0
100
AcDbPoint
 10
80.75748356865146
 20
13.91303767529096
 30
0.0
  0
ENDBLK
  5
821
330
815
100
AcDbEntity
  8
0
100
AcDbBlockEnd
  0
BLOCK
  5
82D
330
822
100
AcDbEntity
  8
0
100
AcDbBlockBegin
  2
*D21
 70
     1
 10
0.0
 20
0.0
 30
0.0
  3
*D21
  1

  0
LINE
  5
823
330
822
100
AcDbEntity
  8
DIM
 62
     0
370
    -2
100
AcDbLine
 10
66.29100781918907
 20
32.33053767529094
 30
0.0
 11
64.58700781918911
 21
32.33053767529094
 31
0.0
  0
LINE
  5
824
330
822
100
AcDbEntity
  8
DIM
 62
     0
370
    -2
100
AcDbLine
 10
66.29100781918911
 20
13.83053767529096
 30
0.0
 11
64.5870078191891
 21
13.83053767529096
 31
0.0
  0
LINE
  5
825
330
822
100
AcDbEntity
  8
DIM
 62
     0
370
    -2
100
AcDbLine
 10
65.0985078191891
 20
31.34053767529094
 30
0.0
 11
65.0985078191891
 21
23.91928767529095
 31
0.0
  0
LINE
  5
826
330
822
100
AcDbEntity
  8
DIM
 62
     0
370
    -2
100
AcDbLine
 10
65.0985078191891
 20
14.82053767529096
 30
0.0
 11
65.0985078191891
 21
22.24178767529095
 31
0.0
  0
SOLID
  5
827
330
822
100
AcDbEntity
  8
DIM
 62
     0
100
AcDbTrace
 10
64.93350781918909
 20
31.34053767529094
 30
0.0
 11
65.2635078191891
 21
31.34053767529094
 31
0.0
 12
65.09850781918911
 22
32.33053767529094
 32
0.0
 13
65.09850781918911
 23
32.33053767529094
 33
0.0
  0
SOLID
  5
828
330
822
100
AcDbEntity
  8
DIM
 62
     0
100
AcDbTrace
 10
64.93350781918909
 20
14.82053767529096
 30
0.0
 11
65.2635078191891
 21
14.82053767529096
 31
0.0
 12
65.0985078191891
 22
13.83053767529096
 32
0.0
 13
65.0985078191891
 23
13.83053767529096
 33
0.0
  0
MTEXT
  5
829
330
822
100
AcDbEntity
  8
DIM
 62
     0
100
AcDbMText
 10
65.0985078191891
 20
23.08053767529096
 30
0.0
 40
0.6875
 41
0.0
 71
     5
 72
     1
  1
\A1;R
  7
TXT
 73
     1
 44
1.0
  0
POINT
  5
82A
330
822
100
AcDbEntity
  8
DEFPOINTS
 62
     0
100
AcDbPoint
 10
66.63750781918908
 20
32.33053767529094
 30
0.0
  0
POINT
  5
82B
330
822
100
AcDbEntity
  8
DEFPOINTS
 62
     0
100
AcDbPoint
 10
66.63750781918911
 20
13.83053767529096
 30
0.0
  0
POINT
  5
82C
330
822
100
AcDbEntity
  8
DEFPOINTS
 62
     0
100
AcDbPoint
 10
65.0985078191891
 20
13.83053767529096
 30
0.0
  0
ENDBLK
  5
82E
330
822
100
AcDbEntity
  8
0
100
AcDbBlockEnd
  0
BLOCK
  5
83A
330
82F
100
AcDbEntity
  8
0
100
AcDbBlockBegin
  2
*D22
 70
     1
 10
0.0
 20
0.0
 30
0.0
  3
*D22
  1

  0
LINE
  5
830
330
82F
100
AcDbEntity
  8
DIM
 62
     0
370
    -2
100
AcDbLine
 10
74.19440196524717
 20
20.94397706724425
 30
0.0
 11
74.19440196524717
 21
20.77613122591002
 31
0.0
  0
LINE
  5
831
330
82F
100
AcDbEntity
  8
DIM
 62
     0
370
    -2
100
AcDbLine
 10
74.32040196524717
 20
21.00883540056605
 30
0.0
 11
74.32040196524717
 21
20.77613122591002
 31
0.0
  0
LINE
  5
832
330
82F
100
AcDbEntity
  8
DIM
 62
     0
370
    -2
100
AcDbLine
 10
73.20440196524717
 20
21.28763122591002
 30
0.0
 11
72.21440196524716
 21
21.28763122591002
 31
0.0
  0
LINE
  5
833
330
82F
100
AcDbEntity
  8
DIM
 62
     0
370
    -2
100
AcDbLine
 10
75.31040196524717
 20
21.28763122591002
 30
0.0
 11
76.30040196524716
 21
21.28763122591002
 31
0.0
  0
SOLID
  5
834
330
82F
100
AcDbEntity
  8
DIM
 62
     0
100
AcDbTrace
 10
73.20440196524717
 20
21.45263122591002
 30
0.0
 11
73.20440196524717
 21
21.12263122591002
 31
0.0
 12
74.19440196524717
 22
21.28763122591002
 32
0.0
 13
74.19440196524717
 23
21.28763122591002
 33
0.0
  0
SOLID
  5
835
330
82F
100
AcDbEntity
  8
DIM
 62
     0
100
AcDbTrace
 10
75.31040196524717
 20
21.45263122591002
 30
0.0
 11
75.31040196524717
 21
21.12263122591002
 31
0.0
 12
74.32040196524717
 22
21.28763122591002
 32
0.0
 13
74.32040196524717
 23
21.28763122591002
 33
0.0
  0
MTEXT
  5
836
330
82F
100
AcDbEntity
  8
DIM
 62
     0
100
AcDbMText
 10
78.55712071524717
 20
21.28763122591002
 30
0.0
 40
0.6875
 41
0.0
 71
     5
 72
     1
  1
\A1;0.126 [3]
  7
TXT
 73
     1
 44
1.0
  0
POINT
  5
837
330
82F
100
AcDbEntity
  8
DEFPOINTS
 62
     0
100
AcDbPoint
 10
74.19440196524717
 20
21.29047706724425
 30
0.0
  0
POINT
  5
838
330
82F
100
AcDbEntity
  8
DEFPOINTS
 62
     0
100
AcDbPoint
 10
74.32040196524717
 20
21.35533540056605
 30
0.0
  0
POINT
  5
839
330
82F
100
AcDbEntity
  8
DEFPOINTS
 62
     0
100
AcDbPoint
 10
74.32040196524717
 20
21.28763122591002
 30
0.0
  0
ENDBLK
  5
83B
330
82F
100
AcDbEntity
  8
0
100
AcDbBlockEnd
  0
BLOCK
  5
847
330
83C
100
AcDbEntity
  8
0
100
AcDbBlockBegin
  2
*D23
 70
     1
 10
0.0
 20
0.0
 30
0.0
  3
*D23
  1

  0
LINE
  5
83D
330
83C
100
AcDbEntity
  8
DIM
 62
     0
370
    -2
100
AcDbLine
 10
73.8144019652472
 20
15.49139449648271
 30
0.0
 11
73.8144019652472
 21
16.61754572495981
 31
0.0
  0
LINE
  5
83E
330
83C
100
AcDbEntity
  8
DIM
 62
     0
370
    -2
100
AcDbLine
 10
74.19440196524708
 20
16.45254572495981
 30
0.0
 11
74.19440196524708
 21
16.61754572495981
 31
0.0
  0
LINE
  5
83F
330
83C
100
AcDbEntity
  8
DIM
 62
     0
370
    -2
100
AcDbLine
 10
72.82440196524721
 20
16.10604572495981
 30
0.0
 11
71.8344019652472
 21
16.10604572495981
 31
0.0
  0
LINE
  5
840
330
83C
100
AcDbEntity
  8
DIM
 62
     0
370
    -2
100
AcDbLine
 10
75.18440196524707
 20
16.10604572495981
 30
0.0
 11
76.17440196524707
 21
16.10604572495981
 31
0.0
  0
SOLID
  5
841
330
83C
100
AcDbEntity
  8
DIM
 62
     0
100
AcDbTrace
 10
72.82440196524721
 20
16.27104572495981
 30
0.0
 11
72.82440196524721
 21
15.94104572495981
 31
0.0
 12
73.8144019652472
 22
16.10604572495981
 32
0.0
 13
73.8144019652472
 23
16.10604572495981
 33
0.0
  0
SOLID
  5
842
330
83C
100
AcDbEntity
  8
DIM
 62
     0
100
AcDbTrace
 10
75.18440196524707
 20
16.27104572495981
 30
0.0
 11
75.18440196524707
 21
15.94104572495981
 31
0.0
 12
74.19440196524708
 22
16.10604572495981
 32
0.0
 13
74.19440196524708
 23
16.10604572495981
 33
0.0
  0
MTEXT
  5
843
330
83C
100
AcDbEntity
  8
DIM
 62
     0
100
AcDbMText
 10
80.57955821524707
 20
16.10604572495981
 30
0.0
 40
0.6875
 41
0.0
 71
     5
 72
     1
  1
\A1;0.380 [10] (INSIDE)
  7
TXT
 73
     1
 44
1.0
  0
POINT
  5
844
330
83C
100
AcDbEntity
  8
DEFPOINTS
 62
     0
100
AcDbPoint
 10
73.8144019652472
 20
15.1448944964827
 30
0.0
  0
POINT
  5
845
330
83C
100
AcDbEntity
  8
DEFPOINTS
 62
     0
100
AcDbPoint
 10
74.19440196524708
 20
16.10604572495981
 30
0.0
  0
POINT
  5
846
330
83C
100
AcDbEntity
  8
DEFPOINTS
 62
     0
100
AcDbPoint
 10
74.19440196524708
 20
16.10604572495981
 30
0.0
  0
ENDBLK
  5
848
330
83C
100
AcDbEntity
  8
0
100
AcDbBlockEnd
  0
BLOCK
  5
854
330
849
100
AcDbEntity
  8
0
100
AcDbBlockBegin
  2
*D24
 70
     1
 10
0.0
 20
0.0
 30
0.0
  3
*D24
  1

  0
LINE
  5
84A
330
849
100
AcDbEntity
  8
DIM
 62
     0
370
    -2
100
AcDbLine
 10
73.91840196524718
 20
18.16175174880692
 30
0.0
 11
73.91840196524718
 21
18.64448019379108
 31
0.0
  0
LINE
  5
84B
330
849
100
AcDbEntity
  8
DIM
 62
     0
370
    -2
100
AcDbLine
 10
74.1944019652471
 20
17.8041319398333
 30
0.0
 11
74.1944019652471
 21
17.62148019379107
 31
0.0
  0
LINE
  5
84C
330
849
100
AcDbEntity
  8
DIM
 62
     0
370
    -2
100
AcDbLine
 10
72.92840196524719
 20
18.13298019379108
 30
0.0
 11
71.93840196524718
 21
18.13298019379108
 31
0.0
  0
LINE
  5
84D
330
849
100
AcDbEntity
  8
DIM
 62
     0
370
    -2
100
AcDbLine
 10
75.18440196524711
 20
18.13298019379108
 30
0.0
 11
76.1744019652471
 21
18.13298019379108
 31
0.0
  0
SOLID
  5
84E
330
849
100
AcDbEntity
  8
DIM
 62
     0
100
AcDbTrace
 10
72.92840196524719
 20
18.29798019379108
 30
0.0
 11
72.92840196524719
 21
17.96798019379108
 31
0.0
 12
73.91840196524718
 22
18.13298019379108
 32
0.0
 13
73.91840196524718
 23
18.13298019379108
 33
0.0
  0
SOLID
  5
84F
330
849
100
AcDbEntity
  8
DIM
 62
     0
100
AcDbTrace
 10
75.18440196524711
 20
18.29798019379108
 30
0.0
 11
75.18440196524711
 21
17.96798019379108
 31
0.0
 12
74.1944019652471
 22
18.13298019379108
 32
0.0
 13
74.1944019652471
 23
18.13298019379108
 33
0.0
  0
MTEXT
  5
850
330
849
100
AcDbEntity
  8
DIM
 62
     0
100
AcDbMText
 10
80.4936207152471
 20
18.13298019379108
 30
0.0
 40
0.6875
 41
0.0
 71
     5
 72
     1
  1
\A1;0.276 [7] (INSIDE)
  7
TXT
 73
     1
 44
1.0
  0
POINT
  5
851
330
849
100
AcDbEntity
  8
DEFPOINTS
 62
     0
100
AcDbPoint
 10
73.91840196524718
 20
17.81525174880692
 30
0.0
  0
POINT
  5
852
330
849
100
AcDbEntity
  8
DEFPOINTS
 62
     0
100
AcDbPoint
 10
74.1944019652471
 20
18.1506319398333
 30
0.0
  0
POINT
  5
853
330
849
100
AcDbEntity
  8
DEFPOINTS
 62
     0
100
AcDbPoint
 10
74.1944019652471
 20
18.13298019379108
 30
0.0
  0
ENDBLK
  5
855
330
849
100
AcDbEntity
  8
0
100
AcDbBlockEnd
  0
BLOCK
  5
861
330
856
100
AcDbEntity
  8
0
100
AcDbBlockBegin
  2
*D25
 70
     1
 10
0.0
 20
0.0
 30
0.0
  3
*D25
  1

  0
LINE
  5
857
330
856
100
AcDbEntity
  8
DIM
 62
     0
370
    -2
100
AcDbLine
 10
67.65440196524718
 20
33.01203767529096
 30
0.0
 11
67.65440196524718
 21
34.29753767529096
 31
0.0
  0
LINE
  5
858
330
856
100
AcDbEntity
  8
DIM
 62
     0
370
    -2
100
AcDbLine
 10
66.46961458624726
 20
32.50011512324717
 30
0.0
 11
66.46961458624726
 21
34.29753767529096
 31
0.0
  0
LINE
  5
859
330
856
100
AcDbEntity
  8
DIM
 62
     0
370
    -2
100
AcDbLine
 10
68.64440196524717
 20
33.78603767529097
 30
0.0
 11
69.63440196524718
 21
33.78603767529097
 31
0.0
  0
LINE
  5
85A
330
856
100
AcDbEntity
  8
DIM
 62
     0
370
    -2
100
AcDbLine
 10
65.47961458624726
 20
33.78603767529097
 30
0.0
 11
64.48961458624726
 21
33.78603767529097
 31
0.0
  0
SOLID
  5
85B
330
856
100
AcDbEntity
  8
DIM
 62
     0
100
AcDbTrace
 10
68.64440196524717
 20
33.95103767529096
 30
0.0
 11
68.64440196524717
 21
33.62103767529097
 31
0.0
 12
67.65440196524718
 22
33.78603767529097
 32
0.0
 13
67.65440196524718
 23
33.78603767529097
 33
0.0
  0
SOLID
  5
85C
330
856
100
AcDbEntity
  8
DIM
 62
     0
100
AcDbTrace
 10
65.47961458624726
 20
33.95103767529096
 30
0.0
 11
65.47961458624726
 21
33.62103767529097
 31
0.0
 12
66.46961458624726
 22
33.78603767529097
 32
0.0
 13
66.46961458624726
 23
33.78603767529097
 33
0.0
  0
MTEXT
  5
85D
330
856
100
AcDbEntity
  8
DIM
 62
     0
100
AcDbMText
 10
67.06200827574722
 20
33.78603767529097
 30
0.0
 40
0.6875
 41
0.0
 71
     5
 72
     1
  1
\A1;P
  7
TXT
 73
     1
 44
1.0
  0
POINT
  5
85E
330
856
100
AcDbEntity
  8
DEFPOINTS
 62
     0
100
AcDbPoint
 10
67.65440196524718
 20
32.66553767529096
 30
0.0
  0
POINT
  5
85F
330
856
100
AcDbEntity
  8
DEFPOINTS
 62
     0
100
AcDbPoint
 10
66.46961458624726
 20
32.15361512324717
 30
0.0
  0
POINT
  5
860
330
856
100
AcDbEntity
  8
DEFPOINTS
 62
     0
100
AcDbPoint
 10
66.46961458624726
 20
33.78603767529097
 30
0.0
  0
ENDBLK
  5
862
330
856
100
AcDbEntity
  8
0
100
AcDbBlockEnd
  0
ENDSEC
  0
SECTION
  2
ENTITIES
  0
TEXT
  5
242
330
1E
100
AcDbEntity
  8
DIM
100
AcDbText
 10
36.61087933750946
 20
41.45060025797933
 30
0.0
 40
0.675
  1
0.570 [14] DIA. BOSS
 41
0.75
  7
TXT
 11
36.61087933750946
 21
41.78810025797933
 31
0.0
100
AcDbText
 73
     2
  0
LINE
  5
243
330
1E
100
AcDbEntity
  8
CENTER
100
AcDbLine
 10
34.99939262428098
 20
32.92350147066513
 30
0.0
 11
34.99939262428098
 21
13.2375738799168
 31
0.0
  0
CIRCLE
  5
244
330
1E
100
AcDbEntity
  8
OBJECT
100
AcDbCircle
 10
29.177892624281
 20
15.01153767529097
 30
0.0
 40
0.285
  0
CIRCLE
  5
245
330
1E
100
AcDbEntity
  8
OBJECT
100
AcDbCircle
 10
34.50739262428098
 20
14.73553767529096
 30
0.0
 40
0.083
  0
CIRCLE
  5
246
330
1E
100
AcDbEntity
  8
OBJECT
100
AcDbCircle
 10
34.50739262428098
 20
14.73553767529096
 30
0.0
 40
0.236
  0
CIRCLE
  5
247
330
1E
100
AcDbEntity
  8
OBJECT
100
AcDbCircle
 10
35.49139262428099
 20
14.73553767529096
 30
0.0
 40
0.236
  0
CIRCLE
  5
248
330
1E
100
AcDbEntity
  8
OBJECT
100
AcDbCircle
 10
35.49139262428099
 20
14.73553767529096
 30
0.0
 40
0.083
  0
LINE
  5
249
330
1E
100
AcDbEntity
  8
OBJECT
100
AcDbLine
 10
41.87439262428099
 20
22.29313611529092
 30
0.0
 11
28.12439262428098
 21
22.29313611529093
 31
0.0
  0
LINE
  5
24A
330
1E
100
AcDbEntity
  8
CENTER
100
AcDbLine
 10
27.29609915140374
 20
23.08053767529096
 30
0.0
 11
42.70268609715822
 21
23.08053767529096
 31
0.0
  0
DIMENSION
  5
24B
330
1E
100
AcDbEntity
  8
DIM
100
AcDbDimension
  2
*D3
 10
23.11254223428086
 20
32.66553767529096
 30
0.0
 11
23.11254223428086
 21
23.08053767529097
 31
0.0
 70
    32
  1
G
 71
     5
 42
19.16999999999999
  3
23NSTD
100
AcDbAlignedDimension
 13
28.11239262428098
 23
13.49553767529096
 33
0.0
 14
28.11239262428098
 24
32.66553767529096
 34
0.0
 50
90.0
100
AcDbRotatedDimension
  0
DIMENSION
  5
24C
330
1E
100
AcDbEntity
  8
DIM
100
AcDbDimension
  2
*D4
 10
42.31939262428099
 20
37.05203767529097
 30
0.0
 11
34.99939262428099
 21
37.05203767529097
 31
0.0
 70
    32
  1
A
 71
     5
 42
14.64
  3
23NSTD
100
AcDbAlignedDimension
 13
27.67939262428099
 23
32.23253767529097
 33
0.0
 14
42.31939262428099
 24
32.23253767529097
 34
0.0
 50
180.0
100
AcDbRotatedDimension
  0
DIMENSION
  5
24D
330
1E
100
AcDbEntity
  8
DIM
100
AcDbDimension
  2
*D5
 10
41.87439262428099
 20
35.67703767529097
 30
0.0
 11
34.99939262428098
 21
35.67703767529097
 31
0.0
 70
    32
  1
B
 71
     5
 42
13.75
  3
23NSTD
100
AcDbAlignedDimension
 13
28.12439262428098
 23
32.20653767529096
 33
0.0
 14
41.87439262428099
 24
32.20653767529096
 34
0.0
 50
180.0
100
AcDbRotatedDimension
  0
DIMENSION
  5
24E
330
1E
100
AcDbEntity
  8
DIM
100
AcDbDimension
  2
*D6
 10
45.31439262428098
 20
31.14953767529096
 30
0.0
 11
45.31439262428097
 21
23.08053767529097
 31
0.0
 70
    32
  1
L
 71
     5
 42
16.13799999999999
  3
23NSTD
100
AcDbAlignedDimension
 13
40.82089262428098
 23
15.01153767529097
 33
0.0
 14
40.82089262428098
 24
31.14953767529096
 34
0.0
 50
90.0
100
AcDbRotatedDimension
  0
DIMENSION
  5
24F
330
1E
100
AcDbEntity
  8
DIM
100
AcDbDimension
  2
*D7
 10
40.82089262428098
 20
10.50053767529096
 30
0.0
 11
34.99939262428099
 21
10.50053767529096
 31
0.0
 70
    32
  1
E
 71
     5
 42
11.64299999999998
  3
23NSTD
100
AcDbAlignedDimension
 13
29.177892624281
 23
15.01153767529097
 33
0.0
 14
40.82089262428098
 24
15.01153767529097
 34
0.0
 50
180.0
100
AcDbRotatedDimension
  0
DIMENSION
  5
250
330
1E
100
AcDbEntity
  8
DIM
100
AcDbDimension
  2
*D8
 10
41.38339262428099
 20
34.30203767529097
 30
0.0
 11
34.99939262428098
 21
34.30203767529097
 31
0.0
 70
    32
  1
C
 71
     5
 42
12.768
  3
23NSTD
100
AcDbAlignedDimension
 13
28.61539262428098
 23
31.77653767529097
 33
0.0
 14
41.38339262428099
 24
31.77653767529097
 34
0.0
100
AcDbRotatedDimension
  0
DIMENSION
  5
251
330
1E
100
AcDbEntity
  8
DIM
100
AcDbDimension
  2
*D9
 10
24.48754223428086
 20
13.91553767529096
 30
0.0
 11
24.48754223428086
 21
23.08053767529097
 31
0.0
 70
    32
  1
H
 71
     5
 42
18.32999999999999
  3
23NSTD
100
AcDbAlignedDimension
 13
28.16339262428098
 23
32.24553767529096
 33
0.0
 14
28.16339262428098
 24
13.91553767529096
 34
0.0
 50
90.0
100
AcDbRotatedDimension
  0
DIMENSION
  5
252
330
1E
100
AcDbEntity
  8
DIM
100
AcDbDimension
  2
*D10
 10
46.68939262428098
 20
14.73553767529096
 30
0.0
 11
46.68939262428098
 21
23.08053767529097
 31
0.0
 70
    32
  1
K
 71
     5
 42
16.69
  3
23NSTD
100
AcDbAlignedDimension
 13
40.41139262428098
 23
31.42553767529097
 33
0.0
 14
40.41139262428098
 24
14.73553767529096
 34
0.0
 50
90.0
100
AcDbRotatedDimension
  0
DIMENSION
  5
253
330
1E
100
AcDbEntity
  8
DIM
100
AcDbDimension
  2
*D11
 10
43.93939262428098
 20
15.70053767529096
 30
0.0
 11
43.93939262428098
 21
23.08053767529097
 31
0.0
 70
    32
  1
M
 71
     5
 42
14.76
  3
23NSTD
100
AcDbAlignedDimension
 13
41.07839262428099
 23
30.46053767529096
 33
0.0
 14
41.07839262428099
 24
15.70053767529096
 34
0.0
 50
90.0
100
AcDbRotatedDimension
  0
DIMENSION
  5
254
330
1E
100
AcDbEntity
  8
DIM
100
AcDbDimension
  2
*D12
 10
40.41139262428098
 20
11.87553767529096
 30
0.0
 11
34.99939262428098
 21
11.87553767529096
 31
0.0
 70
    32
  1
F
 71
     5
 42
10.82399999999999
  3
23NSTD
100
AcDbAlignedDimension
 13
29.58739262428098
 23
14.73553767529096
 33
0.0
 14
40.41139262428098
 24
14.73553767529096
 34
0.0
100
AcDbRotatedDimension
  0
DIMENSION
  5
255
330
1E
100
AcDbEntity
  8
DIM
100
AcDbDimension
  2
*D13
 10
41.07839262428099
 20
9.125537675290967
 30
0.0
 11
34.99939262428098
 21
9.125537675290967
 31
0.0
 70
    32
  1
D
 71
     5
 42
12.15800000000001
  3
23NSTD
100
AcDbAlignedDimension
 13
28.92039262428097
 23
15.70053767529096
 33
0.0
 14
41.07839262428099
 24
15.70053767529096
 34
0.0
100
AcDbRotatedDimension
  0
DIMENSION
  5
256
330
1E
100
AcDbEntity
  8
DIM
100
AcDbDimension
  2
*D25
 10
66.46961458624726
 20
33.78603767529097
 30
0.0
 11
67.06200827574722
 21
33.78603767529097
 31
0.0
 70
    32
  1
P
 71
     5
 42
1.184787378999914
  3
23NSTDI
100
AcDbAlignedDimension
 13
67.65440196524718
 23
32.66553767529096
 33
0.0
 14
66.46961458624726
 24
32.15361512324717
 34
0.0
100
AcDbRotatedDimension
  0
LINE
  5
257
330
1E
100
AcDbEntity
  8
CENTER
100
AcDbLine
 10
55.83306700454677
 20
13.14327646133008
 30
0.0
 11
55.83306700454677
 21
33.01779888925182
 31
0.0
  0
LINE
  5
258
330
1E
100
AcDbEntity
  8
CENTER
100
AcDbLine
 10
63.50532821850764
 20
23.08053767529096
 30
0.0
 11
48.16080579058591
 21
23.08053767529096
 31
0.0
  0
DIMENSION
  5
259
330
1E
100
AcDbEntity
  8
DIM
100
AcDbDimension
  2
*D14
 10
62.82306700454679
 20
34.52408238691414
 30
0.0
 11
55.83306700454677
 21
34.52408238691414
 31
0.0
 70
    32
  1
T
 71
     5
 42
13.98000000000001
  3
23NSTD
100
AcDbAlignedDimension
 13
48.84306700454676
 23
35.99559312898466
 33
0.0
 14
62.82306700454679
 24
35.99559312898466
 34
0.0
100
AcDbRotatedDimension
  0
LINE
  5
25A
330
1E
100
AcDbEntity
  8
OBJECT
100
AcDbLine
 10
48.57620019757842
 20
37.30776286004233
 30
0.0
 11
63.07740093416085
 21
37.30776286004231
 31
0.0
  0
LINE
  5
25B
330
1E
100
AcDbEntity
  8
OBJECT
100
AcDbLine
 10
63.07740093416085
 20
36.71721169004207
 30
0.0
 11
48.5741858350642
 21
36.71721169004207
 31
0.0
  0
LINE
  5
25C
330
1E
100
AcDbEntity
  8
CENTER
100
AcDbLine
 10
55.83306700454677
 20
35.62960532104725
 30
0.0
 11
55.83306700454677
 21
43.96021713942305
 31
0.0
  0
LINE
  5
25D
330
1E
100
AcDbEntity
  8
OBJECT
100
AcDbLine
 10
63.58656700454678
 20
37.01248727504221
 30
0.0
 11
63.44820400913746
 21
37.01248727504221
 31
0.0
  0
DIMENSION
  5
25E
330
1E
100
AcDbEntity
  8
DIM
100
AcDbDimension
  2
*D15
 10
62.73806700454677
 20
44.95076478752729
 30
0.0
 11
55.83306700454677
 21
44.95076478752729
 31
0.0
 70
    32
  1
U
 71
     5
 42
13.81
  3
23NSTD
100
AcDbAlignedDimension
 13
48.92806700454677
 23
43.67848727504219
 33
0.0
 14
62.73806700454677
 24
43.67848727504219
 34
0.0
100
AcDbRotatedDimension
  0
DIMENSION
  5
25F
330
1E
100
AcDbEntity
  8
DIM
100
AcDbDimension
  2
*D16
 10
74.32040196524717
 20
33.78603767529097
 30
0.0
 11
70.98740196524717
 21
33.78603767529097
 31
0.0
 70
    32
  1
N
 71
     5
 42
6.665999999999996
  3
23NSTD
100
AcDbAlignedDimension
 13
67.65440196524718
 23
32.66553763729105
 33
0.0
 14
74.32040196524717
 24
32.24803767529095
 34
0.0
100
AcDbRotatedDimension
  0
DIMENSION
  5
260
330
1E
100
AcDbEntity
  8
DIM
100
AcDbDimension
  2
*D17
 10
31.55539262428099
 20
17.94859783682714
 30
0.0
 11
37.253048874281
 21
17.94859783682714
 31
0.0
 70
    32
  1
<> TYP.
 71
     5
 42
0.9840000000000088
  3
23NSTD
100
AcDbAlignedDimension
 13
30.57139262428099
 23
14.73553767529096
 33
0.0
 14
31.55539262428099
 24
14.73553767529096
 34
0.0
 50
180.0
100
AcDbRotatedDimension
  0
DIMENSION
  5
261
330
1E
100
AcDbEntity
  8
DIM
100
AcDbDimension
  2
*D18
 10
38.954704593301
 20
29.47653767529097
 30
0.0
 11
34.24704834330099
 21
27.49653767529097
 31
0.0
 70
    32
  1
<> TYP.
 71
     5
 42
0.9839999999999946
  3
23NSTD
100
AcDbAlignedDimension
 13
41.07839262428099
 23
30.46053767529096
 33
0.0
 14
41.07839262428099
 24
29.47653767529097
 34
0.0
 50
90.0
100
AcDbRotatedDimension
  0
TEXT
  5
262
330
1E
100
AcDbEntity
  8
TEXT
100
AcDbText
 10
23.99932442194482
 20
1.757100425949508
 30
0.0
 40
0.6380000000000001
  1
14.640
 41
0.75
  7
TXT
 72
     4
 11
25.07594942194482
 21
2.076100425949508
 31
0.0
100
AcDbText
  0
TEXT
  5
263
330
1E
100
AcDbEntity
  8
TEXT
100
AcDbText
 10
24.11894942194482
 20
0.6125766164257013
 30
0.0
 40
0.6380000000000001
  1
[372]
 41
0.75
  7
TXT
 72
     4
 11
25.07594942194482
 21
0.9315766164257013
 31
0.0
100
AcDbText
  0
TEXT
  5
264
330
1E
100
AcDbEntity
  8
TEXT
100
AcDbText
 10
27.49520315864715
 20
0.6125766164257013
 30
0.0
 40
0.6380000000000001
  1
[349]
 41
0.75
  7
TXT
 72
     4
 11
28.45220315864715
 21
0.9315766164257013
 31
0.0
100
AcDbText
  0
TEXT
  5
265
330
1E
100
AcDbEntity
  8
TEXT
100
AcDbText
 10
27.37557815864715
 20
1.757100425949508
 30
0.0
 40
0.6380000000000001
  1
13.750
 41
0.75
  7
TXT
 72
     4
 11
28.45220315864715
 21
2.076100425949508
 31
0.0
100
AcDbText
  0
TEXT
  5
266
330
1E
100
AcDbEntity
  8
TEXT
100
AcDbText
 10
30.75869247899234
 20
1.75710042594951
 30
0.0
 40
0.6380000000000001
  1
12.768
 41
0.75
  7
TXT
 72
     4
 11
31.87519247899234
 21
2.07610042594951
 31
0.0
100
AcDbText
  0
TEXT
  5
267
330
1E
100
AcDbEntity
  8
TEXT
100
AcDbText
 10
30.91819247899234
 20
0.6125766164257013
 30
0.0
 40
0.6380000000000001
  1
[324]
 41
0.75
  7
TXT
 72
     4
 11
31.87519247899234
 21
0.9315766164257013
 31
0.0
100
AcDbText
  0
TEXT
  5
268
330
1E
100
AcDbEntity
  8
TEXT
100
AcDbText
 10
34.4277937829944
 20
0.6125766164257013
 30
0.0
 40
0.6380000000000001
  1
[309]
 41
0.75
  7
TXT
 72
     4
 11
35.34491878299439
 21
0.9315766164257013
 31
0.0
100
AcDbText
  0
TEXT
  5
269
330
1E
100
AcDbEntity
  8
TEXT
100
AcDbText
 10
34.3081687829944
 20
1.75710042594951
 30
0.0
 40
0.6380000000000001
  1
12.158
 41
0.75
  7
TXT
 72
     4
 11
35.34491878299439
 21
2.07610042594951
 31
0.0
100
AcDbText
  0
TEXT
  5
26A
330
1E
100
AcDbEntity
  8
TEXT
100
AcDbText
 10
37.67181979880368
 20
1.75710042594951
 30
0.0
 40
0.6380000000000001
  1
11.643
 41
0.75
  7
TXT
 72
     4
 11
38.70856979880368
 21
2.07610042594951
 31
0.0
100
AcDbText
  0
TEXT
  5
26B
330
1E
100
AcDbEntity
  8
TEXT
100
AcDbText
 10
37.75156979880367
 20
0.6125766164257013
 30
0.0
 40
0.6380000000000001
  1
[296]
 41
0.75
  7
TXT
 72
     4
 11
38.70856979880368
 21
0.9315766164257013
 31
0.0
100
AcDbText
  0
TEXT
  5
26C
330
1E
100
AcDbEntity
  8
TEXT
100
AcDbText
 10
41.05134618978182
 20
1.75710042594951
 30
0.0
 40
0.6380000000000001
  1
10.824
 41
0.75
  7
TXT
 72
     4
 11
42.12797118978182
 21
2.07610042594951
 31
0.0
100
AcDbText
  0
TEXT
  5
26D
330
1E
100
AcDbEntity
  8
TEXT
100
AcDbText
 10
41.17097118978182
 20
0.6125766164257013
 30
0.0
 40
0.6380000000000001
  1
[275]
 41
0.75
  7
TXT
 72
     4
 11
42.12797118978182
 21
0.9315766164257013
 31
0.0
100
AcDbText
  0
TEXT
  5
26E
330
1E
100
AcDbEntity
  8
TEXT
100
AcDbText
 10
44.57745388476854
 20
1.75710042594951
 30
0.0
 40
0.6380000000000001
  1
19.170
 41
0.75
  7
TXT
 72
     4
 11
45.57432888476855
 21
2.07610042594951
 31
0.0
100
AcDbText
  0
TEXT
  5
26F
330
1E
100
AcDbEntity
  8
TEXT
100
AcDbText
 10
44.61732888476855
 20
0.6125766164257013
 30
0.0
 40
0.6380000000000001
  1
[487]
 41
0.75
  7
TXT
 72
     4
 11
45.57432888476855
 21
0.9315766164257013
 31
0.0
100
AcDbText
  0
TEXT
  5
270
330
1E
100
AcDbEntity
  8
TEXT
100
AcDbText
 10
47.92787093105233
 20
1.75710042594951
 30
0.0
 40
0.6380000000000001
  1
18.330
 41
0.75
  7
TXT
 72
     4
 11
49.00449593105233
 21
2.07610042594951
 31
0.0
100
AcDbText
  0
TEXT
  5
271
330
1E
100
AcDbEntity
  8
TEXT
100
AcDbText
 10
48.04749593105233
 20
0.6125766164257013
 30
0.0
 40
0.6380000000000001
  1
[466]
 41
0.75
  7
TXT
 72
     4
 11
49.00449593105233
 21
0.9315766164257013
 31
0.0
100
AcDbText
  0
TEXT
  5
272
330
1E
100
AcDbEntity
  8
TEXT
100
AcDbText
 10
51.29120620613711
 20
1.75710042594951
 30
0.0
 40
0.6380000000000001
  1
17.392
 41
0.75
  7
TXT
 72
     4
 11
52.40770620613712
 21
2.07610042594951
 31
0.0
100
AcDbText
  0
TEXT
  5
273
330
1E
100
AcDbEntity
  8
TEXT
100
AcDbText
 10
51.45070620613712
 20
0.6125766164257013
 30
0.0
 40
0.6380000000000001
  1
[442]
 41
0.75
  7
TXT
 72
     4
 11
52.40770620613712
 21
0.9315766164257013
 31
0.0
100
AcDbText
  0
TEXT
  5
274
330
1E
100
AcDbEntity
  8
TEXT
100
AcDbText
 10
54.76124825086375
 20
1.75710042594951
 30
0.0
 40
0.6380000000000001
  1
16.690
 41
0.75
  7
TXT
 72
     4
 11
55.83787325086375
 21
2.07610042594951
 31
0.0
100
AcDbText
  0
TEXT
  5
275
330
1E
100
AcDbEntity
  8
TEXT
100
AcDbText
 10
54.88087325086375
 20
0.6125766164257013
 30
0.0
 40
0.6380000000000001
  1
[424]
 41
0.75
  7
TXT
 72
     4
 11
55.83787325086375
 21
0.9315766164257013
 31
0.0
100
AcDbText
  0
TEXT
  5
276
330
1E
100
AcDbEntity
  8
TEXT
100
AcDbText
 10
58.23671529210199
 20
1.75710042594951
 30
0.0
 40
0.6380000000000001
  1
16.138
 41
0.75
  7
TXT
 72
     4
 11
59.27346529210199
 21
2.07610042594951
 31
0.0
100
AcDbText
  0
TEXT
  5
277
330
1E
100
AcDbEntity
  8
TEXT
100
AcDbText
 10
58.43609029210199
 20
0.6125766164257013
 30
0.0
 40
0.6380000000000001
  1
[410]
 41
0.75
  7
TXT
 72
     4
 11
59.27346529210199
 21
0.9315766164257013
 31
0.0
100
AcDbText
  0
TEXT
  5
278
330
1E
100
AcDbEntity
  8
TEXT
100
AcDbText
 10
61.58744807911034
 20
1.75710042594951
 30
0.0
 40
0.6380000000000001
  1
14.760
 41
0.75
  7
TXT
 72
     4
 11
62.66407307911034
 21
2.07610042594951
 31
0.0
100
AcDbText
  0
TEXT
  5
279
330
1E
100
AcDbEntity
  8
TEXT
100
AcDbText
 10
61.70707307911033
 20
0.6125766164257013
 30
0.0
 40
0.6380000000000001
  1
[375]
 41
0.75
  7
TXT
 72
     4
 11
62.66407307911034
 21
0.9315766164257013
 31
0.0
100
AcDbText
  0
TEXT
  5
27A
330
1E
100
AcDbEntity
  8
TEXT
100
AcDbText
 10
65.10669495763756
 20
1.75710042594951
 30
0.0
 40
0.6380000000000001
  1
6.666
 41
0.75
  7
TXT
 72
     4
 11
66.06369495763755
 21
2.07610042594951
 31
0.0
100
AcDbText
  0
TEXT
  5
27B
330
1E
100
AcDbEntity
  8
TEXT
100
AcDbText
 10
65.18644495763755
 20
0.6125766164257013
 30
0.0
 40
0.6380000000000001
  1
[169]
 41
0.75
  7
TXT
 72
     4
 11
66.06369495763755
 21
0.9315766164257013
 31
0.0
100
AcDbText
  0
TEXT
  5
27C
330
1E
100
AcDbEntity
  8
TEXT
100
AcDbText
 10
68.69277314173077
 20
1.75710042594951
 30
0.0
 40
0.6380000000000001
  1
1.185
 41
0.75
  7
TXT
 72
     4
 11
69.49027314173076
 21
2.07610042594951
 31
0.0
100
AcDbText
  0
TEXT
  5
27D
330
1E
100
AcDbEntity
  8
TEXT
100
AcDbText
 10
68.81239814173077
 20
0.6125766164257013
 30
0.0
 40
0.6380000000000001
  1
[30]
 41
0.75
  7
TXT
 72
     4
 11
69.49027314173076
 21
0.9315766164257013
 31
0.0
100
AcDbText
  0
TEXT
  5
27E
330
1E
100
AcDbEntity
  8
TEXT
100
AcDbText
 10
71.87651316208292
 20
1.75710042594951
 30
0.0
 40
0.6380000000000001
  1
18.500
 41
0.75
  7
TXT
 72
     4
 11
72.91326316208291
 21
2.07610042594951
 31
0.0
100
AcDbText
  0
TEXT
  5
27F
330
1E
100
AcDbEntity
  8
TEXT
100
AcDbText
 10
71.99613816208291
 20
0.6125766164257013
 30
0.0
 40
0.6380000000000001
  1
[470]
 41
0.75
  7
TXT
 72
     4
 11
72.91326316208291
 21
0.9315766164257013
 31
0.0
100
AcDbText
  0
TEXT
  5
280
330
1E
100
AcDbEntity
  8
TEXT
100
AcDbText
 10
75.2233413446188
 20
1.75710042594951
 30
0.0
 40
0.6380000000000001
  1
18.335
 41
0.75
  7
TXT
 72
     4
 11
76.3398413446188
 21
2.07610042594951
 31
0.0
100
AcDbText
  0
TEXT
  5
281
330
1E
100
AcDbEntity
  8
TEXT
100
AcDbText
 10
75.38284134461881
 20
0.6125766164257013
 30
0.0
 40
0.6380000000000001
  1
[466]
 41
0.75
  7
TXT
 72
     4
 11
76.3398413446188
 21
0.9315766164257013
 31
0.0
100
AcDbText
  0
TEXT
  5
282
330
1E
100
AcDbEntity
  8
TEXT
100
AcDbText
 10
78.65924912658162
 20
1.75710042594951
 30
0.0
 40
0.6380000000000001
  1
13.980
 41
0.75
  7
TXT
 72
     4
 11
79.73587412658163
 21
2.07610042594951
 31
0.0
100
AcDbText
  0
TEXT
  5
283
330
1E
100
AcDbEntity
  8
TEXT
100
AcDbText
 10
78.77887412658164
 20
0.6125766164257013
 30
0.0
 40
0.6380000000000001
  1
[355]
 41
0.75
  7
TXT
 72
     4
 11
79.73587412658163
 21
0.9315766164257013
 31
0.0
100
AcDbText
  0
TEXT
  5
284
330
1E
100
AcDbEntity
  8
TEXT
100
AcDbText
 10
82.23751880173674
 20
1.75710042594951
 30
0.0
 40
0.6380000000000001
  1
13.810
 41
0.75
  7
TXT
 72
     4
 11
83.23439380173674
 21
2.07610042594951
 31
0.0
100
AcDbText
  0
TEXT
  5
285
330
1E
100
AcDbEntity
  8
TEXT
100
AcDbText
 10
82.35714380173673
 20
0.6125766164257013
 30
0.0
 40
0.6380000000000001
  1
[351]
 41
0.75
  7
TXT
 72
     4
 11
83.23439380173674
 21
0.9315766164257013
 31
0.0
100
AcDbText
  0
DIMENSION
  5
286
330
1E
100
AcDbEntity
  8
DIM
100
AcDbDimension
  2
*D19
 10
25.86254223428086
 20
14.38453767529097
 30
0.0
 11
25.86254223428086
 21
23.08053767529097
 31
0.0
 70
    32
  1
J
 71
     5
 42
17.392
  3
23NSTD
100
AcDbAlignedDimension
 13
28.61539262428098
 23
31.77653767529097
 33
0.0
 14
28.61539262428098
 24
14.38453767529096
 34
0.0
 50
90.0
100
AcDbRotatedDimension
  0
CIRCLE
  5
287
330
1E
100
AcDbEntity
  8
HIDDEN
100
AcDbCircle
 10
29.177892624281
 20
15.01153767529097
 30
0.0
 40
0.095
  0
CIRCLE
  5
288
330
1E
100
AcDbEntity
  8
OBJECT
100
AcDbCircle
 10
29.177892624281
 20
15.01153767529097
 30
0.0
 40
0.0825
  0
CIRCLE
  5
28B
330
1E
100
AcDbEntity
  8
OBJECT
100
AcDbCircle
 10
40.82089262428098
 20
15.01153767529097
 30
0.0
 40
0.285
  0
CIRCLE
  5
28C
330
1E
100
AcDbEntity
  8
OBJECT
100
AcDbCircle
 10
40.82089262428098
 20
15.01153767529097
 30
0.0
 40
0.0825
  0
CIRCLE
  5
28D
330
1E
100
AcDbEntity
  8
HIDDEN
100
AcDbCircle
 10
40.82089262428098
 20
15.01153767529097
 30
0.0
 40
0.095
  0
CIRCLE
  5
290
330
1E
100
AcDbEntity
  8
OBJECT
100
AcDbCircle
 10
29.17789262428098
 20
31.14953767529096
 30
0.0
 40
0.285
  0
CIRCLE
  5
293
330
1E
100
AcDbEntity
  8
OBJECT
100
AcDbCircle
 10
29.17789262428098
 20
31.14953767529096
 30
0.0
 40
0.0825
  0
CIRCLE
  5
294
330
1E
100
AcDbEntity
  8
HIDDEN
100
AcDbCircle
 10
29.17789262428098
 20
31.14953767529096
 30
0.0
 40
0.095
  0
CIRCLE
  5
295
330
1E
100
AcDbEntity
  8
HIDDEN
100
AcDbCircle
 10
40.82089262428098
 20
31.14953767529096
 30
0.0
 40
0.095
  0
CIRCLE
  5
296
330
1E
100
AcDbEntity
  8
OBJECT
100
AcDbCircle
 10
40.82089262428098
 20
31.14953767529096
 30
0.0
 40
0.0825
  0
CIRCLE
  5
297
330
1E
100
AcDbEntity
  8
OBJECT
100
AcDbCircle
 10
40.82089262428098
 20
31.14953767529096
 30
0.0
 40
0.285
  0
LINE
  5
29A
330
1E
100
AcDbEntity
  8
OBJECT
100
AcDbLine
 10
28.12439262428098
 20
23.867939235291
 30
0.0
 11
41.874392624281
 21
23.867939235291
 31
0.0
  0
DIMENSION
  5
29B
330
1E
100
AcDbEntity
  8
DIM
100
AcDbDimension
  2
*D20
 10
80.75748356865146
 20
13.91303767529096
 30
0.0
 11
80.75748356865146
 21
23.08053767529097
 31
0.0
 70
    32
  1
S
 71
     5
 42
18.33499999999998
  3
23NSTD
100
AcDbAlignedDimension
 13
74.32040196524717
 23
32.24803767529095
 33
0.0
 14
74.3204019652472
 24
13.91303767529096
 34
0.0
 50
270.0
100
AcDbRotatedDimension
  0
LINE
  5
29C
330
1E
100
AcDbEntity
  8
OBJECT
100
AcDbLine
 10
67.35912638024704
 20
13.5712037456769
 30
0.0
 11
67.35912638024704
 21
13.73583951103172
 31
0.0
  0
LINE
  5
29D
330
1E
100
AcDbEntity
  8
OBJECT
100
AcDbLine
 10
67.9496775502473
 20
32.58987160490504
 30
0.0
 11
67.9496775502473
 21
31.29953767529096
 31
0.0
  0
LINE
  5
29E
330
1E
100
AcDbEntity
  8
OBJECT
100
AcDbLine
 10
66.46961458624729
 20
14.00746022733472
 30
0.0
 11
66.46961458624726
 21
32.15361512324717
 31
0.0
  0
LINE
  5
29F
330
1E
100
AcDbEntity
  8
OBJECT
100
AcDbLine
 10
67.9496775502473
 20
32.37653767529094
 30
0.0
 11
74.32040196524717
 21
32.24803767529095
 31
0.0
  0
LINE
  5
2A0
330
1E
100
AcDbEntity
  8
OBJECT
100
AcDbLine
 10
67.30316196926624
 20
32.36626165553527
 30
0.0
 11
66.6375078191896
 21
32.33053767529101
 31
0.0
  0
ARC
  5
2A1
330
1E
100
AcDbEntity
  8
OBJECT
100
AcDbCircle
 10
66.64677993724679
 20
32.15361512324717
 30
0.0
 40
0.177165351
100
AcDbArc
 50
93.00000000000123
 51
180.0
  0
ARC
  5
2A2
330
1E
100
AcDbEntity
  8
OBJECT
100
AcDbCircle
 10
67.30007126324718
 20
32.42523583955018
 30
0.0
 40
0.059055117
100
AcDbArc
 50
273.0000000000015
 51
0.0
  0
ARC
  5
2A3
330
1E
100
AcDbEntity
  8
OBJECT
100
AcDbCircle
 10
66.64677993724682
 20
14.00746022733472
 30
0.0
 40
0.177165351
100
AcDbArc
 50
180.0
 51
266.9999999999987
  0
LINE
  5
2A4
330
1E
100
AcDbEntity
  8
OBJECT
100
AcDbLine
 10
67.30316196926644
 20
13.79481369504631
 30
0.0
 11
66.63750781918911
 21
13.83053767529096
 31
0.0
  0
ARC
  5
2A5
330
1E
100
AcDbEntity
  8
OBJECT
100
AcDbCircle
 10
67.3000712632472
 20
13.73583951103172
 30
0.0
 40
0.059055117
100
AcDbArc
 50
0.0
 51
86.99999999999844
  0
DIMENSION
  5
2A6
330
1E
100
AcDbEntity
  8
DIM
100
AcDbDimension
  2
*D21
 10
65.0985078191891
 20
13.83053767529096
 30
0.0
 11
65.0985078191891
 21
23.08053767529096
 31
0.0
 70
    32
  1
R
 71
     5
 42
18.49999999999997
  3
23NSTD
100
AcDbAlignedDimension
 13
66.63750781918908
 23
32.33053767529094
 33
0.0
 14
66.63750781918911
 24
13.83053767529096
 34
0.0
 50
90.0
100
AcDbRotatedDimension
  0
LINE
  5
2A7
330
1E
100
AcDbEntity
  8
OBJECT
100
AcDbLine
 10
66.60361458624731
 20
14.00746022733472
 30
0.0
 11
66.60361458624727
 21
23.08053767529096
 31
0.0
  0
LINE
  5
2A8
330
1E
100
AcDbEntity
  8
OBJECT
100
AcDbLine
 10
67.65440196524718
 20
13.91358921236073
 30
0.0
 11
66.64452083732569
 21
13.96435403294808
 31
0.0
  0
ARC
  5
2A9
330
1E
100
AcDbEntity
  8
OBJECT
100
AcDbCircle
 10
66.64677993724682
 20
14.00746022733472
 30
0.0
 40
0.043165351
100
AcDbArc
 50
180.0
 51
266.9999999999987
  0
LINE
  5
2AA
330
1E
100
AcDbEntity
  8
OBJECT
100
AcDbLine
 10
67.35912638024704
 20
23.08053767529096
 30
0.0
 11
67.35912638024704
 21
29.30603767529096
 31
0.0
  0
LINE
  5
2AB
330
1E
100
AcDbEntity
  8
OBJECT
100
AcDbLine
 10
74.25841891565527
 20
17.58553767529097
 30
0.0
 11
74.25841891565527
 21
17.75153767529097
 31
0.0
  0
LINE
  5
2AC
330
1E
100
AcDbEntity
  8
OBJECT
100
AcDbLine
 10
74.3597727927923
 20
14.28953767529099
 30
0.0
 11
74.3597727927923
 21
14.47953767529098
 31
0.0
  0
LINE
  5
2AD
330
1E
100
AcDbEntity
  8
OBJECT
100
AcDbLine
 10
74.03271692624757
 20
14.28953767529098
 30
0.0
 11
74.0327169262476
 21
14.47953767529098
 31
0.0
  0
LINE
  5
2AE
330
1E
100
AcDbEntity
  8
OBJECT
100
AcDbLine
 10
74.3597727927923
 20
14.47953767529098
 30
0.0
 11
74.37945708224704
 21
14.49939449648273
 31
0.0
  0
LINE
  5
2AF
330
1E
100
AcDbEntity
  8
OBJECT
100
AcDbLine
 10
74.25841891565527
 20
17.75153767529097
 30
0.0
 11
73.91840196524718
 21
17.75153767529097
 31
0.0
  0
LINE
  5
2B0
330
1E
100
AcDbEntity
  8
OBJECT
100
AcDbLine
 10
74.25841891565527
 20
17.58553767529097
 30
0.0
 11
73.91840196524718
 21
17.58553767529097
 31
0.0
  0
LINE
  5
2B1
330
1E
100
AcDbEntity
  8
OBJECT
100
AcDbLine
 10
74.25841891565527
 20
18.56953767529097
 30
0.0
 11
73.91840196524718
 21
18.56953767529097
 31
0.0
  0
LINE
  5
2B2
330
1E
100
AcDbEntity
  8
OBJECT
100
AcDbLine
 10
74.25841891565527
 20
18.56953767529097
 30
0.0
 11
74.25841891565527
 21
18.73553767529097
 31
0.0
  0
LINE
  5
2B3
330
1E
100
AcDbEntity
  8
OBJECT
100
AcDbLine
 10
74.25841891565527
 20
18.73553767529097
 30
0.0
 11
73.91840196524718
 21
18.73553767529097
 31
0.0
  0
LINE
  5
2B4
330
1E
100
AcDbEntity
  8
OBJECT
100
AcDbLine
 10
74.25841891565527
 20
19.55353767529097
 30
0.0
 11
73.91840196524718
 21
19.55353767529097
 31
0.0
  0
LINE
  5
2B5
330
1E
100
AcDbEntity
  8
OBJECT
100
AcDbLine
 10
74.25841891565527
 20
19.55353767529097
 30
0.0
 11
74.25841891565527
 21
19.71953767529097
 31
0.0
  0
LINE
  5
2B6
330
1E
100
AcDbEntity
  8
OBJECT
100
AcDbLine
 10
74.25841891565527
 20
19.71953767529097
 30
0.0
 11
73.91840196524718
 21
19.71953767529097
 31
0.0
  0
LINE
  5
2B7
330
1E
100
AcDbEntity
  8
OBJECT
100
AcDbLine
 10
74.25841891565527
 20
20.53753767529097
 30
0.0
 11
73.91840196524718
 21
20.53753767529097
 31
0.0
  0
LINE
  5
2B8
330
1E
100
AcDbEntity
  8
OBJECT
100
AcDbLine
 10
74.25841891565527
 20
20.53753767529097
 30
0.0
 11
74.25841891565527
 21
20.70353767529097
 31
0.0
  0
LINE
  5
2B9
330
1E
100
AcDbEntity
  8
OBJECT
100
AcDbLine
 10
74.25841891565527
 20
20.70353767529097
 30
0.0
 11
73.91840196524718
 21
20.70353767529097
 31
0.0
  0
LINE
  5
2BA
330
1E
100
AcDbEntity
  8
OBJECT
100
AcDbLine
 10
74.25841891565527
 20
21.52153767529097
 30
0.0
 11
73.91840196524718
 21
21.52153767529097
 31
0.0
  0
LINE
  5
2BB
330
1E
100
AcDbEntity
  8
OBJECT
100
AcDbLine
 10
74.25841891565527
 20
21.52153767529097
 30
0.0
 11
74.25841891565527
 21
21.68753767529097
 31
0.0
  0
LINE
  5
2BC
330
1E
100
AcDbEntity
  8
OBJECT
100
AcDbLine
 10
74.25841891565527
 20
21.68753767529097
 30
0.0
 11
73.91840196524718
 21
21.68753767529097
 31
0.0
  0
LINE
  5
2BD
330
1E
100
AcDbEntity
  8
OBJECT
100
AcDbLine
 10
74.3597727927923
 20
14.47953767529098
 30
0.0
 11
74.0327169262476
 21
14.47953767529098
 31
0.0
  0
LINE
  5
2BE
330
1E
100
AcDbEntity
  8
OBJECT
100
AcDbLine
 10
74.3597727927923
 20
14.46703767529098
 30
0.0
 11
74.0327169262476
 21
14.46703767529098
 31
0.0
  0
LINE
  5
2BF
330
1E
100
AcDbEntity
  8
OBJECT
100
AcDbLine
 10
74.3597727927923
 20
14.30203767529099
 30
0.0
 11
74.0327169262476
 21
14.30203767529098
 31
0.0
  0
LINE
  5
2C0
330
1E
100
AcDbEntity
  8
OBJECT
100
AcDbLine
 10
74.3597727927923
 20
14.28953767529099
 30
0.0
 11
74.03271692624757
 21
14.28953767529098
 31
0.0
  0
LINE
  5
2C1
330
1E
100
AcDbEntity
  8
OBJECT
100
AcDbLine
 10
74.3597727927923
 20
14.28953767529098
 30
0.0
 11
74.37945708224704
 21
14.26968085409923
 31
0.0
  0
LINE
  5
2C2
330
1E
100
AcDbEntity
  8
OBJECT
100
AcDbLine
 10
73.83408625470194
 20
14.93503767529096
 30
0.0
 11
73.8144019652472
 21
14.91518085409921
 31
0.0
  0
LINE
  5
2C3
330
1E
100
AcDbEntity
  8
OBJECT
100
AcDbLine
 10
73.83408625470194
 20
15.12503767529095
 30
0.0
 11
73.8144019652472
 21
15.1448944964827
 31
0.0
  0
LINE
  5
2C4
330
1E
100
AcDbEntity
  8
OBJECT
100
AcDbLine
 10
73.83408625470194
 20
15.12503767529095
 30
0.0
 11
74.16114212124664
 21
15.12503767529095
 31
0.0
  0
LINE
  5
2C5
330
1E
100
AcDbEntity
  8
OBJECT
100
AcDbLine
 10
73.83408625470192
 20
14.93503767529096
 30
0.0
 11
73.83408625470194
 21
15.12503767529095
 31
0.0
  0
LINE
  5
2C6
330
1E
100
AcDbEntity
  8
OBJECT
100
AcDbLine
 10
73.83408625470194
 20
15.11253767529097
 30
0.0
 11
74.16114212124664
 21
15.11253767529097
 31
0.0
  0
LINE
  5
2C7
330
1E
100
AcDbEntity
  8
OBJECT
100
AcDbLine
 10
73.83408625470192
 20
14.93503767529096
 30
0.0
 11
74.16114212124664
 21
14.93503767529096
 31
0.0
  0
LINE
  5
2C8
330
1E
100
AcDbEntity
  8
OBJECT
100
AcDbLine
 10
73.83408625470192
 20
14.94753767529097
 30
0.0
 11
74.16114212124664
 21
14.94753767529096
 31
0.0
  0
LINE
  5
2C9
330
1E
100
AcDbEntity
  8
OBJECT
100
AcDbLine
 10
74.16114212124664
 20
14.93503767529096
 30
0.0
 11
74.16114212124664
 21
15.12503767529095
 31
0.0
  0
TEXT
  5
2CA
330
1E
100
AcDbEntity
  8
DIM
100
AcDbText
 10
36.61087933750946
 20
40.34227419420641
 30
0.0
 40
0.675
  1
WITH M5 x 0.8mm
 41
0.75
  7
TXT
 11
36.61087933750946
 21
40.67977419420642
 31
0.0
100
AcDbText
 73
     2
  0
TEXT
  5
2CB
330
1E
100
AcDbEntity
  8
DIM
100
AcDbText
 10
36.61087933750946
 20
39.23394813043346
 30
0.0
 40
0.675
  1
THREADED BRASS INSERT
 41
0.75
  7
TXT
 11
36.61087933750946
 21
39.57144813043346
 31
0.0
100
AcDbText
 73
     2
  0
TEXT
  5
2CC
330
1E
100
AcDbEntity
  8
DIM
100
AcDbText
 10
36.61087933750946
 20
38.12562206666052
 30
0.0
 40
0.675
  1
(4) PLACES (FAR SIDE)
 41
0.75
  7
TXT
 11
36.61087933750946
 21
38.46312206666052
 31
0.0
100
AcDbText
 73
     2
  0
LINE
  5
2CD
330
1E
100
AcDbEntity
  8
OBJECT
100
AcDbLine
 10
67.35912638024704
 20
31.73103767529096
 30
0.0
 11
67.35912638024704
 21
32.58987160490504
 31
0.0
  0
LINE
  5
2CE
330
1E
100
AcDbEntity
  8
OBJECT
100
AcDbLine
 10
67.9496775502473
 20
29.73753767529096
 30
0.0
 11
67.9496775502473
 21
23.08053767529096
 31
0.0
  0
LINE
  5
2CF
330
1E
100
AcDbEntity
  8
OBJECT
100
AcDbLine
 10
67.6544019652472
 20
13.49553767529096
 30
0.0
 11
67.6544019652472
 21
13.69928041579477
 31
0.0
  0
CIRCLE
  5
2D0
330
1E
100
AcDbEntity
  8
OBJECT
100
AcDbCircle
 10
28.61539262428098
 20
14.38453767529096
 30
0.0
 40
0.284999999999997
  0
CIRCLE
  5
2D1
330
1E
100
AcDbEntity
  8
OBJECT
100
AcDbCircle
 10
41.38339262428099
 20
14.38453767529096
 30
0.0
 40
0.284999999999997
  0
CIRCLE
  5
2D2
330
1E
100
AcDbEntity
  8
OBJECT
100
AcDbCircle
 10
41.38339262428099
 20
31.77653767529097
 30
0.0
 40
0.284999999999997
  0
CIRCLE
  5
2D3
330
1E
100
AcDbEntity
  8
OBJECT
100
AcDbCircle
 10
28.61539262428098
 20
31.77653767529097
 30
0.0
 40
0.284999999999997
  0
CIRCLE
  5
2D4
330
1E
100
AcDbEntity
  8
OBJECT
100
AcDbCircle
 10
36.47539262428098
 20
14.73553767529096
 30
0.0
 40
0.083
  0
CIRCLE
  5
2D5
330
1E
100
AcDbEntity
  8
OBJECT
100
AcDbCircle
 10
36.47539262428098
 20
14.73553767529096
 30
0.0
 40
0.236
  0
CIRCLE
  5
2D6
330
1E
100
AcDbEntity
  8
OBJECT
100
AcDbCircle
 10
37.45939262428098
 20
14.73553767529096
 30
0.0
 40
0.083
  0
CIRCLE
  5
2D7
330
1E
100
AcDbEntity
  8
OBJECT
100
AcDbCircle
 10
37.45939262428098
 20
14.73553767529096
 30
0.0
 40
0.236
  0
CIRCLE
  5
2D8
330
1E
100
AcDbEntity
  8
OBJECT
100
AcDbCircle
 10
38.44339262428098
 20
14.73553767529096
 30
0.0
 40
0.083
  0
CIRCLE
  5
2D9
330
1E
100
AcDbEntity
  8
OBJECT
100
AcDbCircle
 10
38.44339262428098
 20
14.73553767529096
 30
0.0
 40
0.236
  0
CIRCLE
  5
2DA
330
1E
100
AcDbEntity
  8
OBJECT
100
AcDbCircle
 10
39.42739262428098
 20
14.73553767529096
 30
0.0
 40
0.083
  0
CIRCLE
  5
2DB
330
1E
100
AcDbEntity
  8
OBJECT
100
AcDbCircle
 10
39.42739262428098
 20
14.73553767529096
 30
0.0
 40
0.236
  0
CIRCLE
  5
2DC
330
1E
100
AcDbEntity
  8
OBJECT
100
AcDbCircle
 10
40.41139262428098
 20
14.73553767529096
 30
0.0
 40
0.083
  0
CIRCLE
  5
2DD
330
1E
100
AcDbEntity
  8
OBJECT
100
AcDbCircle
 10
40.41139262428098
 20
14.73553767529096
 30
0.0
 40
0.236
  0
CIRCLE
  5
2DE
330
1E
100
AcDbEntity
  8
OBJECT
100
AcDbCircle
 10
33.52339262428098
 20
14.73553767529096
 30
0.0
 40
0.236
  0
CIRCLE
  5
2DF
330
1E
100
AcDbEntity
  8
OBJECT
100
AcDbCircle
 10
33.52339262428098
 20
14.73553767529096
 30
0.0
 40
0.083
  0
CIRCLE
  5
2E0
330
1E
100
AcDbEntity
  8
OBJECT
100
AcDbCircle
 10
32.53939262428099
 20
14.73553767529096
 30
0.0
 40
0.236
  0
CIRCLE
  5
2E1
330
1E
100
AcDbEntity
  8
OBJECT
100
AcDbCircle
 10
32.53939262428099
 20
14.73553767529096
 30
0.0
 40
0.083
  0
CIRCLE
  5
2E2
330
1E
100
AcDbEntity
  8
OBJECT
100
AcDbCircle
 10
31.55539262428098
 20
14.73553767529096
 30
0.0
 40
0.236
  0
CIRCLE
  5
2E3
330
1E
100
AcDbEntity
  8
OBJECT
100
AcDbCircle
 10
31.55539262428098
 20
14.73553767529096
 30
0.0
 40
0.083
  0
CIRCLE
  5
2E4
330
1E
100
AcDbEntity
  8
OBJECT
100
AcDbCircle
 10
30.57139262428099
 20
14.73553767529096
 30
0.0
 40
0.236
  0
CIRCLE
  5
2E5
330
1E
100
AcDbEntity
  8
OBJECT
100
AcDbCircle
 10
30.57139262428099
 20
14.73553767529096
 30
0.0
 40
0.083
  0
CIRCLE
  5
2E6
330
1E
100
AcDbEntity
  8
OBJECT
100
AcDbCircle
 10
29.58739262428098
 20
14.73553767529096
 30
0.0
 40
0.236
  0
CIRCLE
  5
2E7
330
1E
100
AcDbEntity
  8
OBJECT
100
AcDbCircle
 10
29.58739262428098
 20
14.73553767529096
 30
0.0
 40
0.083
  0
CIRCLE
  5
2E8
330
1E
100
AcDbEntity
  8
OBJECT
100
AcDbCircle
 10
33.52339262428098
 20
31.42553767529097
 30
0.0
 40
0.236
  0
CIRCLE
  5
2E9
330
1E
100
AcDbEntity
  8
OBJECT
100
AcDbCircle
 10
33.52339262428098
 20
31.42553767529097
 30
0.0
 40
0.083
  0
CIRCLE
  5
2EA
330
1E
100
AcDbEntity
  8
OBJECT
100
AcDbCircle
 10
30.57139262428099
 20
31.42553767529097
 30
0.0
 40
0.236
  0
CIRCLE
  5
2EB
330
1E
100
AcDbEntity
  8
OBJECT
100
AcDbCircle
 10
30.57139262428099
 20
31.42553767529097
 30
0.0
 40
0.083
  0
CIRCLE
  5
2EC
330
1E
100
AcDbEntity
  8
OBJECT
100
AcDbCircle
 10
31.55539262428098
 20
31.42553767529097
 30
0.0
 40
0.236
  0
CIRCLE
  5
2ED
330
1E
100
AcDbEntity
  8
OBJECT
100
AcDbCircle
 10
31.55539262428098
 20
31.42553767529097
 30
0.0
 40
0.083
  0
CIRCLE
  5
2EE
330
1E
100
AcDbEntity
  8
OBJECT
100
AcDbCircle
 10
32.53939262428099
 20
31.42553767529097
 30
0.0
 40
0.236
  0
CIRCLE
  5
2EF
330
1E
100
AcDbEntity
  8
OBJECT
100
AcDbCircle
 10
32.53939262428099
 20
31.42553767529097
 30
0.0
 40
0.083
  0
CIRCLE
  5
2F0
330
1E
100
AcDbEntity
  8
OBJECT
100
AcDbCircle
 10
34.50739262428098
 20
31.42553767529097
 30
0.0
 40
0.236
  0
CIRCLE
  5
2F1
330
1E
100
AcDbEntity
  8
OBJECT
100
AcDbCircle
 10
34.50739262428098
 20
31.42553767529097
 30
0.0
 40
0.083
  0
CIRCLE
  5
2F2
330
1E
100
AcDbEntity
  8
OBJECT
100
AcDbCircle
 10
35.49139262428099
 20
31.42553767529097
 30
0.0
 40
0.236
  0
CIRCLE
  5
2F3
330
1E
100
AcDbEntity
  8
OBJECT
100
AcDbCircle
 10
35.49139262428099
 20
31.42553767529097
 30
0.0
 40
0.083
  0
CIRCLE
  5
2F4
330
1E
100
AcDbEntity
  8
OBJECT
100
AcDbCircle
 10
36.47539262428098
 20
31.42553767529097
 30
0.0
 40
0.083
  0
CIRCLE
  5
2F5
330
1E
100
AcDbEntity
  8
OBJECT
100
AcDbCircle
 10
36.47539262428098
 20
31.42553767529097
 30
0.0
 40
0.236
  0
CIRCLE
  5
2F6
330
1E
100
AcDbEntity
  8
OBJECT
100
AcDbCircle
 10
38.44339262428098
 20
31.42553767529097
 30
0.0
 40
0.236
  0
CIRCLE
  5
2F7
330
1E
100
AcDbEntity
  8
OBJECT
100
AcDbCircle
 10
37.45939262428098
 20
31.42553767529097
 30
0.0
 40
0.236
  0
CIRCLE
  5
2F8
330
1E
100
AcDbEntity
  8
OBJECT
100
AcDbCircle
 10
37.45939262428098
 20
31.42553767529097
 30
0.0
 40
0.083
  0
CIRCLE
  5
2F9
330
1E
100
AcDbEntity
  8
OBJECT
100
AcDbCircle
 10
38.44339262428098
 20
31.42553767529097
 30
0.0
 40
0.083
  0
CIRCLE
  5
2FA
330
1E
100
AcDbEntity
  8
OBJECT
100
AcDbCircle
 10
39.42739262428098
 20
31.42553767529097
 30
0.0
 40
0.083
  0
CIRCLE
  5
2FB
330
1E
100
AcDbEntity
  8
OBJECT
100
AcDbCircle
 10
39.42739262428098
 20
31.42553767529097
 30
0.0
 40
0.236
  0
CIRCLE
  5
2FC
330
1E
100
AcDbEntity
  8
OBJECT
100
AcDbCircle
 10
40.41139262428098
 20
31.42553767529097
 30
0.0
 40
0.083
  0
CIRCLE
  5
2FD
330
1E
100
AcDbEntity
  8
OBJECT
100
AcDbCircle
 10
40.41139262428098
 20
31.42553767529097
 30
0.0
 40
0.236
  0
CIRCLE
  5
2FE
330
1E
100
AcDbEntity
  8
OBJECT
100
AcDbCircle
 10
29.58739262428098
 20
31.42553767529097
 30
0.0
 40
0.236
  0
CIRCLE
  5
2FF
330
1E
100
AcDbEntity
  8
OBJECT
100
AcDbCircle
 10
29.58739262428098
 20
31.42553767529097
 30
0.0
 40
0.083
  0
CIRCLE
  5
300
330
1E
100
AcDbEntity
  8
OBJECT
100
AcDbCircle
 10
28.92039262428097
 20
17.66853767529096
 30
0.0
 40
0.236
  0
CIRCLE
  5
301
330
1E
100
AcDbEntity
  8
OBJECT
100
AcDbCircle
 10
28.92039262428097
 20
17.66853767529096
 30
0.0
 40
0.083
  0
CIRCLE
  5
302
330
1E
100
AcDbEntity
  8
OBJECT
100
AcDbCircle
 10
28.92039262428097
 20
15.70053767529096
 30
0.0
 40
0.236
  0
CIRCLE
  5
303
330
1E
100
AcDbEntity
  8
OBJECT
100
AcDbCircle
 10
28.92039262428097
 20
15.70053767529096
 30
0.0
 40
0.083
  0
CIRCLE
  5
304
330
1E
100
AcDbEntity
  8
OBJECT
100
AcDbCircle
 10
28.92039262428097
 20
16.68453767529095
 30
0.0
 40
0.236
  0
CIRCLE
  5
305
330
1E
100
AcDbEntity
  8
OBJECT
100
AcDbCircle
 10
28.92039262428097
 20
16.68453767529095
 30
0.0
 40
0.083
  0
CIRCLE
  5
306
330
1E
100
AcDbEntity
  8
OBJECT
100
AcDbCircle
 10
28.92039262428097
 20
18.65253767529096
 30
0.0
 40
0.236
  0
CIRCLE
  5
307
330
1E
100
AcDbEntity
  8
OBJECT
100
AcDbCircle
 10
28.92039262428097
 20
18.65253767529096
 30
0.0
 40
0.083
  0
CIRCLE
  5
308
330
1E
100
AcDbEntity
  8
OBJECT
100
AcDbCircle
 10
28.92039262428097
 20
19.63653767529095
 30
0.0
 40
0.236
  0
CIRCLE
  5
309
330
1E
100
AcDbEntity
  8
OBJECT
100
AcDbCircle
 10
28.92039262428097
 20
19.63653767529095
 30
0.0
 40
0.083
  0
CIRCLE
  5
30A
330
1E
100
AcDbEntity
  8
OBJECT
100
AcDbCircle
 10
28.92039262428097
 20
20.62053767529096
 30
0.0
 40
0.083
  0
CIRCLE
  5
30B
330
1E
100
AcDbEntity
  8
OBJECT
100
AcDbCircle
 10
28.92039262428097
 20
20.62053767529096
 30
0.0
 40
0.236
  0
CIRCLE
  5
30C
330
1E
100
AcDbEntity
  8
OBJECT
100
AcDbCircle
 10
28.92039262428097
 20
21.60453767529096
 30
0.0
 40
0.236
  0
CIRCLE
  5
30D
330
1E
100
AcDbEntity
  8
OBJECT
100
AcDbCircle
 10
28.92039262428097
 20
21.60453767529096
 30
0.0
 40
0.083
  0
CIRCLE
  5
30E
330
1E
100
AcDbEntity
  8
OBJECT
100
AcDbCircle
 10
41.07839262428099
 20
17.66853767529096
 30
0.0
 40
0.236
  0
CIRCLE
  5
30F
330
1E
100
AcDbEntity
  8
OBJECT
100
AcDbCircle
 10
41.07839262428099
 20
16.68453767529095
 30
0.0
 40
0.236
  0
CIRCLE
  5
310
330
1E
100
AcDbEntity
  8
OBJECT
100
AcDbCircle
 10
41.07839262428099
 20
15.70053767529096
 30
0.0
 40
0.236
  0
CIRCLE
  5
311
330
1E
100
AcDbEntity
  8
OBJECT
100
AcDbCircle
 10
41.07839262428099
 20
15.70053767529096
 30
0.0
 40
0.083
  0
CIRCLE
  5
312
330
1E
100
AcDbEntity
  8
OBJECT
100
AcDbCircle
 10
41.07839262428099
 20
17.66853767529096
 30
0.0
 40
0.083
  0
CIRCLE
  5
313
330
1E
100
AcDbEntity
  8
OBJECT
100
AcDbCircle
 10
41.07839262428099
 20
16.68453767529095
 30
0.0
 40
0.083
  0
CIRCLE
  5
314
330
1E
100
AcDbEntity
  8
OBJECT
100
AcDbCircle
 10
41.07839262428099
 20
19.63653767529095
 30
0.0
 40
0.236
  0
CIRCLE
  5
315
330
1E
100
AcDbEntity
  8
OBJECT
100
AcDbCircle
 10
41.07839262428099
 20
18.65253767529096
 30
0.0
 40
0.236
  0
CIRCLE
  5
316
330
1E
100
AcDbEntity
  8
OBJECT
100
AcDbCircle
 10
41.07839262428099
 20
18.65253767529096
 30
0.0
 40
0.083
  0
CIRCLE
  5
317
330
1E
100
AcDbEntity
  8
OBJECT
100
AcDbCircle
 10
41.07839262428099
 20
19.63653767529095
 30
0.0
 40
0.083
  0
CIRCLE
  5
318
330
1E
100
AcDbEntity
  8
OBJECT
100
AcDbCircle
 10
41.07839262428099
 20
21.60453767529096
 30
0.0
 40
0.236
  0
CIRCLE
  5
319
330
1E
100
AcDbEntity
  8
OBJECT
100
AcDbCircle
 10
41.07839262428099
 20
20.62053767529096
 30
0.0
 40
0.236
  0
CIRCLE
  5
31A
330
1E
100
AcDbEntity
  8
OBJECT
100
AcDbCircle
 10
41.07839262428099
 20
21.60453767529096
 30
0.0
 40
0.083
  0
CIRCLE
  5
31B
330
1E
100
AcDbEntity
  8
OBJECT
100
AcDbCircle
 10
41.07839262428099
 20
20.62053767529096
 30
0.0
 40
0.083
  0
CIRCLE
  5
31C
330
1E
100
AcDbEntity
  8
OBJECT
100
AcDbCircle
 10
28.92039262428097
 20
28.49253767529097
 30
0.0
 40
0.236
  0
CIRCLE
  5
31D
330
1E
100
AcDbEntity
  8
OBJECT
100
AcDbCircle
 10
28.92039262428097
 20
29.47653767529097
 30
0.0
 40
0.236
  0
CIRCLE
  5
31E
330
1E
100
AcDbEntity
  8
OBJECT
100
AcDbCircle
 10
28.92039262428097
 20
30.46053767529096
 30
0.0
 40
0.236
  0
CIRCLE
  5
31F
330
1E
100
AcDbEntity
  8
OBJECT
100
AcDbCircle
 10
28.92039262428097
 20
30.46053767529096
 30
0.0
 40
0.083
  0
CIRCLE
  5
320
330
1E
100
AcDbEntity
  8
OBJECT
100
AcDbCircle
 10
28.92039262428097
 20
28.49253767529097
 30
0.0
 40
0.083
  0
CIRCLE
  5
321
330
1E
100
AcDbEntity
  8
OBJECT
100
AcDbCircle
 10
28.92039262428097
 20
29.47653767529097
 30
0.0
 40
0.083
  0
CIRCLE
  5
322
330
1E
100
AcDbEntity
  8
OBJECT
100
AcDbCircle
 10
28.92039262428097
 20
26.52453767529097
 30
0.0
 40
0.236
  0
CIRCLE
  5
323
330
1E
100
AcDbEntity
  8
OBJECT
100
AcDbCircle
 10
28.92039262428097
 20
27.50853767529096
 30
0.0
 40
0.236
  0
CIRCLE
  5
324
330
1E
100
AcDbEntity
  8
OBJECT
100
AcDbCircle
 10
28.92039262428097
 20
27.50853767529096
 30
0.0
 40
0.083
  0
CIRCLE
  5
325
330
1E
100
AcDbEntity
  8
OBJECT
100
AcDbCircle
 10
28.92039262428097
 20
26.52453767529097
 30
0.0
 40
0.083
  0
CIRCLE
  5
326
330
1E
100
AcDbEntity
  8
OBJECT
100
AcDbCircle
 10
28.92039262428097
 20
24.55653767529097
 30
0.0
 40
0.236
  0
CIRCLE
  5
327
330
1E
100
AcDbEntity
  8
OBJECT
100
AcDbCircle
 10
28.92039262428097
 20
25.54053767529097
 30
0.0
 40
0.236
  0
CIRCLE
  5
328
330
1E
100
AcDbEntity
  8
OBJECT
100
AcDbCircle
 10
28.92039262428097
 20
24.55653767529097
 30
0.0
 40
0.083
  0
CIRCLE
  5
329
330
1E
100
AcDbEntity
  8
OBJECT
100
AcDbCircle
 10
28.92039262428097
 20
25.54053767529097
 30
0.0
 40
0.083
  0
CIRCLE
  5
32A
330
1E
100
AcDbEntity
  8
OBJECT
100
AcDbCircle
 10
41.07839262428099
 20
28.49253767529097
 30
0.0
 40
0.236
  0
CIRCLE
  5
32B
330
1E
100
AcDbEntity
  8
OBJECT
100
AcDbCircle
 10
41.07839262428099
 20
29.47653767529097
 30
0.0
 40
0.236
  0
CIRCLE
  5
32C
330
1E
100
AcDbEntity
  8
OBJECT
100
AcDbCircle
 10
41.07839262428099
 20
30.46053767529096
 30
0.0
 40
0.083
  0
CIRCLE
  5
32D
330
1E
100
AcDbEntity
  8
OBJECT
100
AcDbCircle
 10
41.07839262428099
 20
30.46053767529096
 30
0.0
 40
0.236
  0
CIRCLE
  5
32E
330
1E
100
AcDbEntity
  8
OBJECT
100
AcDbCircle
 10
41.07839262428099
 20
29.47653767529097
 30
0.0
 40
0.083
  0
CIRCLE
  5
32F
330
1E
100
AcDbEntity
  8
OBJECT
100
AcDbCircle
 10
41.07839262428099
 20
28.49253767529097
 30
0.0
 40
0.083
  0
CIRCLE
  5
330
330
1E
100
AcDbEntity
  8
OBJECT
100
AcDbCircle
 10
41.07839262428099
 20
27.50853767529096
 30
0.0
 40
0.083
  0
CIRCLE
  5
331
330
1E
100
AcDbEntity
  8
OBJECT
100
AcDbCircle
 10
41.07839262428099
 20
27.50853767529096
 30
0.0
 40
0.236
  0
CIRCLE
  5
332
330
1E
100
AcDbEntity
  8
OBJECT
100
AcDbCircle
 10
41.07839262428099
 20
26.52453767529097
 30
0.0
 40
0.083
  0
CIRCLE
  5
333
330
1E
100
AcDbEntity
  8
OBJECT
100
AcDbCircle
 10
41.07839262428099
 20
26.52453767529097
 30
0.0
 40
0.236
  0
CIRCLE
  5
334
330
1E
100
AcDbEntity
  8
OBJECT
100
AcDbCircle
 10
41.07839262428099
 20
24.55653767529097
 30
0.0
 40
0.083
  0
CIRCLE
  5
335
330
1E
100
AcDbEntity
  8
OBJECT
100
AcDbCircle
 10
41.07839262428099
 20
24.55653767529097
 30
0.0
 40
0.236
  0
CIRCLE
  5
336
330
1E
100
AcDbEntity
  8
OBJECT
100
AcDbCircle
 10
41.07839262428099
 20
25.54053767529097
 30
0.0
 40
0.083
  0
CIRCLE
  5
337
330
1E
100
AcDbEntity
  8
OBJECT
100
AcDbCircle
 10
41.07839262428099
 20
25.54053767529097
 30
0.0
 40
0.236
  0
LWPOLYLINE
  5
338
330
1E
100
AcDbEntity
  8
OBJECT
100
AcDbPolyline
 90
        8
 70
     1
 43
0.0
 10
48.84306700454676
 20
13.98753767529096
 42
0.4142135623730951
 10
49.00006700454678
 20
13.83053767529096
 10
62.66606700454677
 20
13.83053767529096
 42
0.4142135623730951
 10
62.82306700454679
 20
13.98753767529096
 10
62.82306700454679
 20
32.17353767529095
 42
0.4142135623730951
 10
62.66606700454677
 20
32.33053767529095
 10
49.00006700454678
 20
32.33053767529097
 42
0.4142135623730951
 10
48.84306700454676
 20
32.17353767529097
  0
LINE
  5
342
330
1E
100
AcDbEntity
  8
OBJECT
100
AcDbLine
 10
74.25841891565527
 20
15.61753767529097
 30
0.0
 11
74.25841891565527
 21
15.78353767529097
 31
0.0
  0
LINE
  5
343
330
1E
100
AcDbEntity
  8
OBJECT
100
AcDbLine
 10
74.25841891565527
 20
15.61753767529097
 30
0.0
 11
73.91840196524718
 21
15.61753767529097
 31
0.0
  0
LINE
  5
344
330
1E
100
AcDbEntity
  8
OBJECT
100
AcDbLine
 10
74.25841891565527
 20
15.78353767529097
 30
0.0
 11
73.91840196524718
 21
15.78353767529097
 31
0.0
  0
LINE
  5
345
330
1E
100
AcDbEntity
  8
OBJECT
100
AcDbLine
 10
74.25841891565527
 20
16.60153767529097
 30
0.0
 11
74.25841891565527
 21
16.76753767529097
 31
0.0
  0
LINE
  5
346
330
1E
100
AcDbEntity
  8
OBJECT
100
AcDbLine
 10
74.25841891565527
 20
16.76753767529097
 30
0.0
 11
73.91840196524718
 21
16.76753767529097
 31
0.0
  0
LINE
  5
347
330
1E
100
AcDbEntity
  8
OBJECT
100
AcDbLine
 10
74.25841891565527
 20
16.60153767529097
 30
0.0
 11
73.91840196524718
 21
16.60153767529096
 31
0.0
  0
LINE
  5
348
330
1E
100
AcDbEntity
  8
OBJECT
100
AcDbLine
 10
63.58656700454678
 20
36.88648727504221
 30
0.0
 11
63.58656700454678
 21
37.1384872750422
 31
0.0
  0
LINE
  5
349
330
1E
100
AcDbEntity
  8
OBJECT
100
AcDbLine
 10
63.45258057566922
 20
37.1384872750422
 30
0.0
 11
63.58656700454678
 21
37.1384872750422
 31
0.0
  0
LINE
  5
34A
330
1E
100
AcDbEntity
  8
OBJECT
100
AcDbLine
 10
63.4438274426057
 20
36.88648727504221
 30
0.0
 11
63.58656700454678
 21
36.88648727504221
 31
0.0
  0
LWPOLYLINE
  5
34B
330
1E
100
AcDbEntity
  8
OBJECT
100
AcDbPolyline
 90
        8
 70
     1
 43
0.0
 10
28.12439262428098
 20
32.20653767529096
 10
28.12439262428098
 20
13.95453767529097
 42
0.4142135623730951
 10
28.16339262428098
 20
13.91553767529096
 10
41.83539262428098
 20
13.91553767529096
 42
0.4142135623730951
 10
41.87439262428099
 20
13.95453767529097
 10
41.87439262428099
 20
32.20653767529096
 42
0.4142135623730951
 10
41.83539262428098
 20
32.24553767529096
 10
28.16339262428098
 20
32.24553767529096
 42
0.4142135623730951
  0
LWPOLYLINE
  5
355
330
1E
100
AcDbEntity
  8
OBJECT
100
AcDbPolyline
 90
        4
 70
     0
 43
0.0
 10
34.7434871172809
 20
32.24553767529096
 10
34.68443200028106
 20
32.3045927922908
 10
35.31435324828091
 20
32.3045927922908
 10
35.25529813128106
 20
32.24553767529096
  0
LWPOLYLINE
  5
35B
330
1E
100
AcDbEntity
  8
OBJECT
100
AcDbPolyline
 90
        4
 70
     0
 43
0.0
 10
34.7434871172809
 20
13.91553767529096
 10
34.68443200028106
 20
13.85648255829112
 10
35.31435324828091
 20
13.85648255829112
 10
35.25529813128106
 20
13.91553767529096
  0
LWPOLYLINE
  5
361
330
1E
100
AcDbEntity
  8
OBJECT
100
AcDbPolyline
 90
        4
 70
     0
 43
0.0
 10
41.87439262428099
 20
15.38713216829088
 10
41.93344774128128
 20
15.32807705129104
 10
41.93344774128128
 20
15.95799829929088
 10
41.87439262428099
 20
15.89894318229104
  0
LWPOLYLINE
  5
367
330
1E
100
AcDbEntity
  8
OBJECT
100
AcDbPolyline
 90
        4
 70
     0
 43
0.0
 10
41.87439262428099
 20
30.26213216829089
 10
41.93344774128128
 20
30.20307705129104
 10
41.93344774128128
 20
30.83299829929089
 10
41.87439262428099
 20
30.77394318229105
  0
LWPOLYLINE
  5
36D
330
1E
100
AcDbEntity
  8
OBJECT
100
AcDbPolyline
 90
        4
 70
     0
 43
0.0
 10
28.12439262428098
 20
15.38713216829088
 10
28.06533750728068
 20
15.32807705129104
 10
28.06533750728068
 20
15.95799829929088
 10
28.12439262428098
 20
15.89894318229104
  0
LWPOLYLINE
  5
373
330
1E
100
AcDbEntity
  8
OBJECT
100
AcDbPolyline
 90
        4
 70
     0
 43
0.0
 10
28.12439262428098
 20
30.26213216829089
 10
28.06533750728068
 20
30.20307705129104
 10
28.06533750728068
 20
30.83299829929089
 10
28.12439262428098
 20
30.77394318229105
  0
LWPOLYLINE
  5
379
330
1E
100
AcDbEntity
  8
OBJECT
100
AcDbPolyline
 90
        8
 70
     1
 43
0.0
 10
27.96739262428099
 20
32.20653767529096
 10
27.96739262428099
 20
13.95453767529097
 42
0.4142135623730951
 10
28.16339262428098
 20
13.75853767529097
 10
41.83539262428098
 20
13.75853767529097
 42
0.4142135623730951
 10
42.03139262428098
 20
13.95453767529097
 10
42.03139262428098
 20
32.20653767529096
 42
0.4142135623730951
 10
41.83539262428098
 20
32.40253767529095
 10
28.16339262428098
 20
32.40253767529097
 42
0.4142135623730951
  0
LWPOLYLINE
  5
383
330
1E
100
AcDbEntity
  8
OBJECT
100
AcDbPolyline
 90
        8
 70
     1
 43
0.0
 10
27.85739262428099
 20
32.20653767529096
 10
27.85739262428099
 20
13.95453767529097
 42
0.414213562373094
 10
28.16339262428098
 20
13.64853767529097
 10
41.83539262428098
 20
13.64853767529097
 42
0.4142135623730906
 10
42.14139262428098
 20
13.95453767529097
 10
42.14139262428098
 20
32.20653767529096
 42
0.4142135623730974
 10
41.83539262428098
 20
32.51253767529096
 10
28.16339262428098
 20
32.51253767529097
 42
0.414213562373094
  0
CIRCLE
  5
38D
330
1E
100
AcDbEntity
  8
OBJECT
100
AcDbCircle
 10
42.475392624281
 20
19.46353767529096
 30
0.0
 40
0.12
  0
LWPOLYLINE
  5
38E
330
1E
100
AcDbEntity
  8
OBJECT
100
AcDbPolyline
 90
        2
 70
     0
 43
0.0
 10
28.25439262428098
 20
23.867939235291
 10
28.25439262428098
 20
22.29313611529093
  0
LWPOLYLINE
  5
392
330
1E
100
AcDbEntity
  8
OBJECT
100
AcDbPolyline
 90
        2
 70
     0
 43
0.0
 10
41.74439262428099
 20
22.29313611529093
 10
41.74439262428099
 20
23.867939235291
  0
LINE
  5
396
330
1E
100
AcDbEntity
  8
OBJECT
100
AcDbLine
 10
28.88039262428098
 20
30.22795220712926
 30
0.0
 11
28.88039262428098
 21
29.70912314345267
 31
0.0
  0
LINE
  5
397
330
1E
100
AcDbEntity
  8
OBJECT
100
AcDbLine
 10
28.96039262428098
 20
30.22795220712926
 30
0.0
 11
28.96039262428098
 21
29.70912314345267
 31
0.0
  0
LINE
  5
398
330
1E
100
AcDbEntity
  8
OBJECT
100
AcDbLine
 10
28.96039262428098
 20
25.30795220712926
 30
0.0
 11
28.96039262428098
 21
24.78912314345267
 31
0.0
  0
LINE
  5
399
330
1E
100
AcDbEntity
  8
OBJECT
100
AcDbLine
 10
28.88039262428098
 20
25.30795220712926
 30
0.0
 11
28.88039262428098
 21
24.78912314345267
 31
0.0
  0
LINE
  5
39A
330
1E
100
AcDbEntity
  8
OBJECT
100
AcDbLine
 10
28.96039262428098
 20
26.29195220712927
 30
0.0
 11
28.96039262428098
 21
25.77312314345268
 31
0.0
  0
LINE
  5
39B
330
1E
100
AcDbEntity
  8
OBJECT
100
AcDbLine
 10
28.88039262428098
 20
26.29195220712927
 30
0.0
 11
28.88039262428098
 21
25.77312314345268
 31
0.0
  0
LINE
  5
39C
330
1E
100
AcDbEntity
  8
OBJECT
100
AcDbLine
 10
28.88039262428098
 20
27.27595220712926
 30
0.0
 11
28.88039262428098
 21
26.75712314345267
 31
0.0
  0
LINE
  5
39D
330
1E
100
AcDbEntity
  8
OBJECT
100
AcDbLine
 10
28.96039262428098
 20
27.27595220712926
 30
0.0
 11
28.96039262428098
 21
26.75712314345267
 31
0.0
  0
LINE
  5
39E
330
1E
100
AcDbEntity
  8
OBJECT
100
AcDbLine
 10
28.96039262428098
 20
28.25995220712925
 30
0.0
 11
28.96039262428098
 21
27.74112314345266
 31
0.0
  0
LINE
  5
39F
330
1E
100
AcDbEntity
  8
OBJECT
100
AcDbLine
 10
28.88039262428098
 20
28.25995220712925
 30
0.0
 11
28.88039262428098
 21
27.74112314345266
 31
0.0
  0
LINE
  5
3A0
330
1E
100
AcDbEntity
  8
OBJECT
100
AcDbLine
 10
28.96039262428098
 20
29.24395220712927
 30
0.0
 11
28.96039262428098
 21
28.72512314345268
 31
0.0
  0
LINE
  5
3A1
330
1E
100
AcDbEntity
  8
OBJECT
100
AcDbLine
 10
28.88039262428098
 20
29.24395220712927
 30
0.0
 11
28.88039262428098
 21
28.72512314345268
 31
0.0
  0
LINE
  5
3A2
330
1E
100
AcDbEntity
  8
OBJECT
100
AcDbLine
 10
41.03839262428098
 20
25.30795220712926
 30
0.0
 11
41.03839262428098
 21
24.78912314345267
 31
0.0
  0
LINE
  5
3A3
330
1E
100
AcDbEntity
  8
OBJECT
100
AcDbLine
 10
41.11839262428098
 20
25.30795220712926
 30
0.0
 11
41.11839262428098
 21
24.78912314345267
 31
0.0
  0
LINE
  5
3A4
330
1E
100
AcDbEntity
  8
OBJECT
100
AcDbLine
 10
41.03839262428098
 20
26.29195220712927
 30
0.0
 11
41.03839262428098
 21
25.77312314345268
 31
0.0
  0
LINE
  5
3A5
330
1E
100
AcDbEntity
  8
OBJECT
100
AcDbLine
 10
41.11839262428098
 20
26.29195220712927
 30
0.0
 11
41.11839262428098
 21
25.77312314345268
 31
0.0
  0
LINE
  5
3A6
330
1E
100
AcDbEntity
  8
OBJECT
100
AcDbLine
 10
41.11839262428098
 20
27.27595220712926
 30
0.0
 11
41.11839262428098
 21
26.75712314345267
 31
0.0
  0
LINE
  5
3A7
330
1E
100
AcDbEntity
  8
OBJECT
100
AcDbLine
 10
41.03839262428098
 20
27.27595220712926
 30
0.0
 11
41.03839262428098
 21
26.75712314345267
 31
0.0
  0
LINE
  5
3A8
330
1E
100
AcDbEntity
  8
OBJECT
100
AcDbLine
 10
41.03839262428098
 20
28.25995220712925
 30
0.0
 11
41.03839262428098
 21
27.74112314345266
 31
0.0
  0
LINE
  5
3A9
330
1E
100
AcDbEntity
  8
OBJECT
100
AcDbLine
 10
41.11839262428098
 20
28.25995220712925
 30
0.0
 11
41.11839262428098
 21
27.74112314345266
 31
0.0
  0
LINE
  5
3AA
330
1E
100
AcDbEntity
  8
OBJECT
100
AcDbLine
 10
41.03839262428098
 20
29.24395220712927
 30
0.0
 11
41.03839262428098
 21
28.72512314345268
 31
0.0
  0
LINE
  5
3AB
330
1E
100
AcDbEntity
  8
OBJECT
100
AcDbLine
 10
41.11839262428098
 20
29.24395220712927
 30
0.0
 11
41.11839262428098
 21
28.72512314345268
 31
0.0
  0
LINE
  5
3AC
330
1E
100
AcDbEntity
  8
OBJECT
100
AcDbLine
 10
41.03839262428098
 20
30.22795220712926
 30
0.0
 11
41.03839262428098
 21
29.70912314345267
 31
0.0
  0
LINE
  5
3AD
330
1E
100
AcDbEntity
  8
OBJECT
100
AcDbLine
 10
41.11839262428098
 20
30.22795220712926
 30
0.0
 11
41.11839262428098
 21
29.70912314345267
 31
0.0
  0
LINE
  5
3AE
330
1E
100
AcDbEntity
  8
OBJECT
100
AcDbLine
 10
28.88039262428098
 20
20.85312314345266
 30
0.0
 11
28.88039262428098
 21
21.37195220712925
 31
0.0
  0
LINE
  5
3AF
330
1E
100
AcDbEntity
  8
OBJECT
100
AcDbLine
 10
28.96039262428098
 20
20.85312314345266
 30
0.0
 11
28.96039262428098
 21
21.37195220712925
 31
0.0
  0
LINE
  5
3B0
330
1E
100
AcDbEntity
  8
OBJECT
100
AcDbLine
 10
28.88039262428098
 20
19.86912314345266
 30
0.0
 11
28.88039262428098
 21
20.38795220712925
 31
0.0
  0
LINE
  5
3B1
330
1E
100
AcDbEntity
  8
OBJECT
100
AcDbLine
 10
28.96039262428098
 20
19.86912314345266
 30
0.0
 11
28.96039262428098
 21
20.38795220712925
 31
0.0
  0
LINE
  5
3B2
330
1E
100
AcDbEntity
  8
OBJECT
100
AcDbLine
 10
28.96039262428098
 20
18.88512314345267
 30
0.0
 11
28.96039262428098
 21
19.40395220712925
 31
0.0
  0
LINE
  5
3B3
330
1E
100
AcDbEntity
  8
OBJECT
100
AcDbLine
 10
28.88039262428098
 20
18.88512314345267
 30
0.0
 11
28.88039262428098
 21
19.40395220712925
 31
0.0
  0
LINE
  5
3B4
330
1E
100
AcDbEntity
  8
OBJECT
100
AcDbLine
 10
28.88039262428098
 20
17.90112314345266
 30
0.0
 11
28.88039262428098
 21
18.41995220712925
 31
0.0
  0
LINE
  5
3B5
330
1E
100
AcDbEntity
  8
OBJECT
100
AcDbLine
 10
28.96039262428098
 20
17.90112314345266
 30
0.0
 11
28.96039262428098
 21
18.41995220712925
 31
0.0
  0
LINE
  5
3B6
330
1E
100
AcDbEntity
  8
OBJECT
100
AcDbLine
 10
28.88039262428098
 20
16.91712314345266
 30
0.0
 11
28.88039262428098
 21
17.43595220712925
 31
0.0
  0
LINE
  5
3B7
330
1E
100
AcDbEntity
  8
OBJECT
100
AcDbLine
 10
28.96039262428098
 20
16.91712314345266
 30
0.0
 11
28.96039262428098
 21
17.43595220712925
 31
0.0
  0
LINE
  5
3B8
330
1E
100
AcDbEntity
  8
OBJECT
100
AcDbLine
 10
28.88039262428098
 20
15.93312314345267
 30
0.0
 11
28.88039262428098
 21
16.45195220712925
 31
0.0
  0
LINE
  5
3B9
330
1E
100
AcDbEntity
  8
OBJECT
100
AcDbLine
 10
28.96039262428098
 20
15.93312314345267
 30
0.0
 11
28.96039262428098
 21
16.45195220712925
 31
0.0
  0
LINE
  5
3BA
330
1E
100
AcDbEntity
  8
OBJECT
100
AcDbLine
 10
41.11839262428098
 20
15.93312314345267
 30
0.0
 11
41.11839262428098
 21
16.45195220712925
 31
0.0
  0
LINE
  5
3BB
330
1E
100
AcDbEntity
  8
OBJECT
100
AcDbLine
 10
41.03839262428098
 20
15.93312314345267
 30
0.0
 11
41.03839262428098
 21
16.45195220712925
 31
0.0
  0
LINE
  5
3BC
330
1E
100
AcDbEntity
  8
OBJECT
100
AcDbLine
 10
41.11839262428098
 20
16.91712314345266
 30
0.0
 11
41.11839262428098
 21
17.43595220712925
 31
0.0
  0
LINE
  5
3BD
330
1E
100
AcDbEntity
  8
OBJECT
100
AcDbLine
 10
41.03839262428098
 20
16.91712314345266
 30
0.0
 11
41.03839262428098
 21
17.43595220712925
 31
0.0
  0
LINE
  5
3BE
330
1E
100
AcDbEntity
  8
OBJECT
100
AcDbLine
 10
41.11839262428098
 20
17.90112314345266
 30
0.0
 11
41.11839262428098
 21
18.41995220712925
 31
0.0
  0
LINE
  5
3BF
330
1E
100
AcDbEntity
  8
OBJECT
100
AcDbLine
 10
41.03839262428098
 20
17.90112314345266
 30
0.0
 11
41.03839262428098
 21
18.41995220712925
 31
0.0
  0
LINE
  5
3C0
330
1E
100
AcDbEntity
  8
OBJECT
100
AcDbLine
 10
41.03839262428098
 20
18.88512314345267
 30
0.0
 11
41.03839262428098
 21
19.40395220712925
 31
0.0
  0
LINE
  5
3C1
330
1E
100
AcDbEntity
  8
OBJECT
100
AcDbLine
 10
41.11839262428098
 20
18.88512314345267
 30
0.0
 11
41.11839262428098
 21
19.40395220712925
 31
0.0
  0
LINE
  5
3C2
330
1E
100
AcDbEntity
  8
OBJECT
100
AcDbLine
 10
41.11839262428098
 20
19.86912314345266
 30
0.0
 11
41.11839262428098
 21
20.38795220712925
 31
0.0
  0
LINE
  5
3C3
330
1E
100
AcDbEntity
  8
OBJECT
100
AcDbLine
 10
41.03839262428098
 20
19.86912314345266
 30
0.0
 11
41.03839262428098
 21
20.38795220712925
 31
0.0
  0
LINE
  5
3C4
330
1E
100
AcDbEntity
  8
OBJECT
100
AcDbLine
 10
41.11839262428098
 20
20.85312314345266
 30
0.0
 11
41.11839262428098
 21
21.37195220712925
 31
0.0
  0
LINE
  5
3C5
330
1E
100
AcDbEntity
  8
OBJECT
100
AcDbLine
 10
41.03839262428098
 20
20.85312314345266
 30
0.0
 11
41.03839262428098
 21
21.37195220712925
 31
0.0
  0
LINE
  5
3C6
330
1E
100
AcDbEntity
  8
OBJECT
100
AcDbLine
 10
29.81997809244269
 20
31.46553767529096
 30
0.0
 11
30.33880715611928
 21
31.46553767529097
 31
0.0
  0
LINE
  5
3C7
330
1E
100
AcDbEntity
  8
OBJECT
100
AcDbLine
 10
29.81997809244269
 20
31.38553767529097
 30
0.0
 11
30.33880715611927
 21
31.38553767529097
 31
0.0
  0
LINE
  5
3C8
330
1E
100
AcDbEntity
  8
OBJECT
100
AcDbLine
 10
30.8039780924427
 20
31.46553767529097
 30
0.0
 11
31.32280715611928
 21
31.46553767529096
 31
0.0
  0
LINE
  5
3C9
330
1E
100
AcDbEntity
  8
OBJECT
100
AcDbLine
 10
30.8039780924427
 20
31.38553767529097
 30
0.0
 11
31.32280715611928
 21
31.38553767529097
 31
0.0
  0
LINE
  5
3CA
330
1E
100
AcDbEntity
  8
OBJECT
100
AcDbLine
 10
31.78797809244268
 20
31.46553767529096
 30
0.0
 11
32.30680715611929
 21
31.46553767529096
 31
0.0
  0
LINE
  5
3CB
330
1E
100
AcDbEntity
  8
OBJECT
100
AcDbLine
 10
31.78797809244268
 20
31.38553767529097
 30
0.0
 11
32.30680715611927
 21
31.38553767529097
 31
0.0
  0
LINE
  5
3CC
330
1E
100
AcDbEntity
  8
OBJECT
100
AcDbLine
 10
32.77197809244269
 20
31.46553767529096
 30
0.0
 11
33.29080715611928
 21
31.46553767529096
 31
0.0
  0
LINE
  5
3CD
330
1E
100
AcDbEntity
  8
OBJECT
100
AcDbLine
 10
32.77197809244269
 20
31.38553767529097
 30
0.0
 11
33.29080715611927
 21
31.38553767529097
 31
0.0
  0
LINE
  5
3CE
330
1E
100
AcDbEntity
  8
OBJECT
100
AcDbLine
 10
33.75597809244268
 20
31.46553767529096
 30
0.0
 11
34.27480715611928
 21
31.46553767529096
 31
0.0
  0
LINE
  5
3CF
330
1E
100
AcDbEntity
  8
OBJECT
100
AcDbLine
 10
33.75597809244268
 20
31.38553767529097
 30
0.0
 11
34.27480715611926
 21
31.38553767529097
 31
0.0
  0
LINE
  5
3D0
330
1E
100
AcDbEntity
  8
OBJECT
100
AcDbLine
 10
34.73997809244268
 20
31.46553767529096
 30
0.0
 11
35.25880715611929
 21
31.46553767529096
 31
0.0
  0
LINE
  5
3D1
330
1E
100
AcDbEntity
  8
OBJECT
100
AcDbLine
 10
34.73997809244268
 20
31.38553767529097
 30
0.0
 11
35.25880715611927
 21
31.38553767529097
 31
0.0
  0
LINE
  5
3D2
330
1E
100
AcDbEntity
  8
OBJECT
100
AcDbLine
 10
35.72397809244269
 20
31.46553767529096
 30
0.0
 11
36.24280715611928
 21
31.46553767529096
 31
0.0
  0
LINE
  5
3D3
330
1E
100
AcDbEntity
  8
OBJECT
100
AcDbLine
 10
35.72397809244269
 20
31.38553767529097
 30
0.0
 11
36.24280715611927
 21
31.38553767529097
 31
0.0
  0
LINE
  5
3D4
330
1E
100
AcDbEntity
  8
OBJECT
100
AcDbLine
 10
36.70797809244268
 20
31.46553767529096
 30
0.0
 11
37.22680715611927
 21
31.46553767529096
 31
0.0
  0
LINE
  5
3D5
330
1E
100
AcDbEntity
  8
OBJECT
100
AcDbLine
 10
36.70797809244268
 20
31.38553767529097
 30
0.0
 11
37.22680715611927
 21
31.38553767529097
 31
0.0
  0
LINE
  5
3D6
330
1E
100
AcDbEntity
  8
OBJECT
100
AcDbLine
 10
37.69197809244268
 20
31.46553767529096
 30
0.0
 11
38.21080715611929
 21
31.46553767529096
 31
0.0
  0
LINE
  5
3D7
330
1E
100
AcDbEntity
  8
OBJECT
100
AcDbLine
 10
37.69197809244268
 20
31.38553767529097
 30
0.0
 11
38.21080715611929
 21
31.38553767529097
 31
0.0
  0
LINE
  5
3D8
330
1E
100
AcDbEntity
  8
OBJECT
100
AcDbLine
 10
38.67597809244269
 20
31.46553767529096
 30
0.0
 11
39.19480715611927
 21
31.46553767529096
 31
0.0
  0
LINE
  5
3D9
330
1E
100
AcDbEntity
  8
OBJECT
100
AcDbLine
 10
38.67597809244269
 20
31.38553767529097
 30
0.0
 11
39.19480715611927
 21
31.38553767529097
 31
0.0
  0
LINE
  5
3DA
330
1E
100
AcDbEntity
  8
OBJECT
100
AcDbLine
 10
39.65997809244268
 20
31.46553767529096
 30
0.0
 11
40.17880715611927
 21
31.46553767529096
 31
0.0
  0
LINE
  5
3DB
330
1E
100
AcDbEntity
  8
OBJECT
100
AcDbLine
 10
39.65997809244268
 20
31.38553767529097
 30
0.0
 11
40.17880715611927
 21
31.38553767529096
 31
0.0
  0
LINE
  5
3DC
330
1E
100
AcDbEntity
  8
OBJECT
100
AcDbLine
 10
29.81997809244269
 20
14.77553767529095
 30
0.0
 11
30.33880715611927
 21
14.77553767529095
 31
0.0
  0
LINE
  5
3DD
330
1E
100
AcDbEntity
  8
OBJECT
100
AcDbLine
 10
29.81997809244269
 20
14.69553767529096
 30
0.0
 11
30.33880715611928
 21
14.69553767529096
 31
0.0
  0
LINE
  5
3DE
330
1E
100
AcDbEntity
  8
OBJECT
100
AcDbLine
 10
30.8039780924427
 20
14.77553767529095
 30
0.0
 11
31.32280715611928
 21
14.77553767529095
 31
0.0
  0
LINE
  5
3DF
330
1E
100
AcDbEntity
  8
OBJECT
100
AcDbLine
 10
30.8039780924427
 20
14.69553767529096
 30
0.0
 11
31.32280715611928
 21
14.69553767529096
 31
0.0
  0
LINE
  5
3E0
330
1E
100
AcDbEntity
  8
OBJECT
100
AcDbLine
 10
31.78797809244268
 20
14.77553767529095
 30
0.0
 11
32.30680715611927
 21
14.77553767529095
 31
0.0
  0
LINE
  5
3E1
330
1E
100
AcDbEntity
  8
OBJECT
100
AcDbLine
 10
31.78797809244268
 20
14.69553767529096
 30
0.0
 11
32.30680715611929
 21
14.69553767529096
 31
0.0
  0
LINE
  5
3E2
330
1E
100
AcDbEntity
  8
OBJECT
100
AcDbLine
 10
32.77197809244269
 20
14.77553767529095
 30
0.0
 11
33.29080715611927
 21
14.77553767529095
 31
0.0
  0
LINE
  5
3E3
330
1E
100
AcDbEntity
  8
OBJECT
100
AcDbLine
 10
32.77197809244269
 20
14.69553767529096
 30
0.0
 11
33.29080715611928
 21
14.69553767529096
 31
0.0
  0
LINE
  5
3E4
330
1E
100
AcDbEntity
  8
OBJECT
100
AcDbLine
 10
33.75597809244268
 20
14.77553767529095
 30
0.0
 11
34.27480715611926
 21
14.77553767529095
 31
0.0
  0
LINE
  5
3E5
330
1E
100
AcDbEntity
  8
OBJECT
100
AcDbLine
 10
33.75597809244268
 20
14.69553767529096
 30
0.0
 11
34.27480715611928
 21
14.69553767529096
 31
0.0
  0
LINE
  5
3E6
330
1E
100
AcDbEntity
  8
OBJECT
100
AcDbLine
 10
34.73997809244268
 20
14.77553767529095
 30
0.0
 11
35.25880715611927
 21
14.77553767529095
 31
0.0
  0
LINE
  5
3E7
330
1E
100
AcDbEntity
  8
OBJECT
100
AcDbLine
 10
34.73997809244268
 20
14.69553767529096
 30
0.0
 11
35.25880715611929
 21
14.69553767529096
 31
0.0
  0
LINE
  5
3E8
330
1E
100
AcDbEntity
  8
OBJECT
100
AcDbLine
 10
35.72397809244269
 20
14.77553767529095
 30
0.0
 11
36.24280715611927
 21
14.77553767529095
 31
0.0
  0
LINE
  5
3E9
330
1E
100
AcDbEntity
  8
OBJECT
100
AcDbLine
 10
35.72397809244269
 20
14.69553767529096
 30
0.0
 11
36.24280715611928
 21
14.69553767529096
 31
0.0
  0
LINE
  5
3EA
330
1E
100
AcDbEntity
  8
OBJECT
100
AcDbLine
 10
36.70797809244268
 20
14.77553767529095
 30
0.0
 11
37.22680715611927
 21
14.77553767529095
 31
0.0
  0
LINE
  5
3EB
330
1E
100
AcDbEntity
  8
OBJECT
100
AcDbLine
 10
36.70797809244268
 20
14.69553767529096
 30
0.0
 11
37.22680715611927
 21
14.69553767529096
 31
0.0
  0
LINE
  5
3EC
330
1E
100
AcDbEntity
  8
OBJECT
100
AcDbLine
 10
37.69197809244268
 20
14.77553767529095
 30
0.0
 11
38.21080715611929
 21
14.77553767529095
 31
0.0
  0
LINE
  5
3ED
330
1E
100
AcDbEntity
  8
OBJECT
100
AcDbLine
 10
37.69197809244268
 20
14.69553767529096
 30
0.0
 11
38.21080715611929
 21
14.69553767529096
 31
0.0
  0
LINE
  5
3EE
330
1E
100
AcDbEntity
  8
OBJECT
100
AcDbLine
 10
38.67597809244269
 20
14.77553767529095
 30
0.0
 11
39.19480715611927
 21
14.77553767529095
 31
0.0
  0
LINE
  5
3EF
330
1E
100
AcDbEntity
  8
OBJECT
100
AcDbLine
 10
38.67597809244269
 20
14.69553767529096
 30
0.0
 11
39.19480715611927
 21
14.69553767529096
 31
0.0
  0
LINE
  5
3F0
330
1E
100
AcDbEntity
  8
OBJECT
100
AcDbLine
 10
39.65997809244268
 20
14.77553767529095
 30
0.0
 11
40.17880715611927
 21
14.77553767529096
 31
0.0
  0
LINE
  5
3F1
330
1E
100
AcDbEntity
  8
OBJECT
100
AcDbLine
 10
39.65997809244268
 20
14.69553767529096
 30
0.0
 11
40.17880715611927
 21
14.69553767529096
 31
0.0
  0
CIRCLE
  5
3F2
330
1E
100
AcDbEntity
  8
OBJECT
100
AcDbCircle
 10
63.30906700454677
 20
19.46353767529096
 30
0.0
 40
0.12
  0
LWPOLYLINE
  5
3F3
330
1E
100
AcDbEntity
  8
OBJECT
100
AcDbPolyline
 90
        4
 70
     0
 43
0.0
 10
63.15306700454677
 20
18.84914858929076
 42
-0.3106384182581576
 10
63.39384528239368
 20
19.19930502476248
 42
0.7051781285480231
 10
63.41053987453604
 20
19.7218195109979
 42
-0.3236437854432907
 10
63.15306700454677
 20
20.07792676129116
  0
LWPOLYLINE
  5
3F9
330
1E
100
AcDbEntity
  8
OBJECT
100
AcDbPolyline
 90
        8
 70
     0
 43
0.0
 10
48.74836884028759
 20
36.71721169004223
 42
-0.3989595459737116
 10
48.80734302430251
 20
36.66124727906129
 10
48.84306700454685
 20
35.99559312898415
 42
0.3989595459737131
 10
49.0199895565906
 20
35.82769989604186
 10
62.64614445250295
 20
35.82769989604233
 42
0.3989595459737131
 10
62.8230670045467
 20
35.99559312898415
 10
62.85879098479104
 20
36.66124727906129
 42
-0.3989595459737116
 10
62.91776516880595
 20
36.71721169004223
  0
LINE
  5
403
330
1E
100
AcDbEntity
  8
OBJECT
100
AcDbLine
 10
48.51289521581183
 20
37.01248727504219
 30
0.0
 11
48.51703739482925
 21
37.24979255202211
 31
0.0
  0
ARC
  5
404
330
1E
100
AcDbEntity
  8
OBJECT
100
AcDbCircle
 10
48.57401404632925
 20
36.7762668070419
 30
0.0
 40
0.059055117
100
AcDbArc
 50
180.4999999999984
 51
270.0000000000029
  0
LINE
  5
405
330
1E
100
AcDbEntity
  8
OBJECT
100
AcDbLine
 10
48.51289521581183
 20
37.01248727504219
 30
0.0
 11
48.51496117796684
 21
36.7757514604674
 31
0.0
  0
ARC
  5
406
330
1E
100
AcDbEntity
  8
OBJECT
100
AcDbCircle
 10
48.57602840884347
 20
37.24876286004231
 30
0.0
 40
0.059
100
AcDbArc
 50
90.0
 51
179.0000000000214
  0
LINE
  5
407
330
1E
100
AcDbEntity
  8
OBJECT
100
AcDbLine
 10
63.15306700454677
 20
37.01248727504221
 30
0.0
 11
63.13625721312617
 21
36.77209605809119
 31
0.0
  0
ARC
  5
408
330
1E
100
AcDbEntity
  8
OBJECT
100
AcDbCircle
 10
63.07740093416085
 20
36.77621169004209
 30
0.0
 40
0.059
100
AcDbArc
 50
270.0
 51
355.9999999999998
  0
ARC
  5
409
330
1E
100
AcDbEntity
  8
OBJECT
100
AcDbCircle
 10
63.07740093416085
 20
37.24876286004235
 30
0.0
 40
0.059
100
AcDbArc
 50
4.000000000000171
 51
90.0
  0
LINE
  5
40A
330
1E
100
AcDbEntity
  8
OBJECT
100
AcDbLine
 10
63.15306700454677
 20
37.01248727504221
 30
0.0
 11
63.13625721312617
 21
37.25287849199324
 31
0.0
  0
LWPOLYLINE
  5
40B
330
1E
100
AcDbEntity
  8
BEND
100
AcDbPolyline
 90
       14
 70
     0
 43
0.0
 10
66.1489470891551
 20
23.08053767529098
 10
66.8448425305446
 20
23.08053767529098
 10
66.93644938235987
 20
23.24205817152656
 10
66.9771635387222
 20
22.94698251371057
 10
67.04841331235629
 20
23.08053767529098
 10
70.26774036849149
 20
23.08053767529098
 10
70.35934722030676
 20
23.24205817152656
 10
70.40006137666911
 20
22.94698251371057
 10
70.47131115030321
 20
23.08053767529096
 10
73.77304297214663
 20
23.08053767529096
 10
73.8646498239619
 20
23.24205817152656
 10
73.90536398032425
 20
22.94698251371057
 10
73.97661375395834
 20
23.08053767529098
 10
74.68251722264132
 20
23.08053767529098
  0
LINE
  5
41B
330
1E
100
AcDbEntity
  8
OBJECT
100
AcDbLine
 10
67.65440196524718
 20
32.66553767529096
 30
0.0
 11
67.41401074829615
 21
32.64872788387036
 31
0.0
  0
ARC
  5
41C
330
1E
100
AcDbEntity
  8
OBJECT
100
AcDbCircle
 10
67.41812638024704
 20
32.58987160490504
 30
0.0
 40
0.059
100
AcDbArc
 50
94.00000000000018
 51
180.0
  0
ARC
  5
41D
330
1E
100
AcDbEntity
  8
OBJECT
100
AcDbCircle
 10
67.8906775502473
 20
32.58987160490504
 30
0.0
 40
0.059
100
AcDbArc
 50
0.0
 51
85.99999999999985
  0
LINE
  5
41E
330
1E
100
AcDbEntity
  8
OBJECT
100
AcDbLine
 10
67.65440196524718
 20
32.66553767529096
 30
0.0
 11
67.8947931821982
 21
32.64872788387036
 31
0.0
  0
LWPOLYLINE
  5
41F
330
1E
100
AcDbEntity
  8
OBJECT
100
AcDbPolyline
 90
        4
 70
     0
 43
0.0
 10
67.65420767290969
 20
13.83213124703994
 10
67.4967273609095
 20
13.82938241796924
 10
67.4967273609095
 20
13.6773997641109
 10
67.65420767290969
 20
13.67465093503975
  0
LINE
  5
425
330
1E
100
AcDbEntity
  8
OBJECT
100
AcDbLine
 10
67.6544019652472
 20
13.49553767529096
 30
0.0
 11
67.41401074829617
 21
13.51234746671157
 31
0.0
  0
ARC
  5
426
330
1E
100
AcDbEntity
  8
OBJECT
100
AcDbCircle
 10
67.41812638024708
 20
13.5712037456769
 30
0.0
 40
0.059
100
AcDbArc
 50
180.0
 51
265.9999999999998
  0
LWPOLYLINE
  5
427
330
1E
100
AcDbEntity
  8
OBJECT
100
AcDbPolyline
 90
        4
 70
     0
 43
0.0
 10
67.6544019652472
 20
13.80928041579477
 10
67.59740196524719
 20
13.80928041579477
 42
1.0
 10
67.59740196524719
 20
13.69928041579477
 10
67.6544019652472
 20
13.69928041579477
  0
LINE
  5
42D
330
1E
100
AcDbEntity
  8
OBJECT
100
AcDbLine
 10
67.6544019652472
 20
13.80928041579477
 30
0.0
 11
67.65440196524718
 21
29.73753767529098
 31
0.0
  0
LWPOLYLINE
  5
42E
330
1E
100
AcDbEntity
  8
OBJECT
100
AcDbPolyline
 90
        4
 70
     0
 43
0.0
 10
67.6544019652472
 20
15.38663216829087
 10
68.84240196524719
 20
15.38663216829089
 10
68.84240196524719
 20
15.89844318229103
 10
67.6544019652472
 20
15.89844318229105
  0
LWPOLYLINE
  5
434
330
1E
100
AcDbEntity
  8
HIDDEN
100
AcDbPolyline
 90
        3
 70
     0
 43
0.0
 10
67.6544019652472
 20
15.32757705129104
 10
68.84240196524719
 20
15.32757705129104
 10
68.84240196524719
 20
15.35572258588399
  0
LWPOLYLINE
  5
439
330
1E
100
AcDbEntity
  8
HIDDEN
100
AcDbPolyline
 90
        3
 70
     0
 43
0.0
 10
67.6544019652472
 20
15.95749829929087
 10
68.84240196524719
 20
15.95749829929087
 10
68.84240196524719
 20
15.92935276469794
  0
INSERT
  5
43E
330
1E
100
AcDbEntity
  8
OBJECT
100
AcDbBlockReference
  2
*X0
 10
41.48262775417655
 20
-21.70513195690848
 30
0.0
1001
ACAD
1000
HATCH
1002
{
1070
    16
1000
PLASTI
1040
2.0
1040
0.7853981633974483
1002
}
  0
LINE
  5
43F
330
1E
100
AcDbEntity
  8
OBJECT
100
AcDbLine
 10
66.96640196524715
 20
29.73753767529096
 30
0.0
 11
66.96640196524715
 21
31.29953767529096
 31
0.0
  0
LINE
  5
440
330
1E
100
AcDbEntity
  8
OBJECT
100
AcDbLine
 10
69.56040196524717
 20
31.29953767529098
 30
0.0
 11
66.96640196524715
 21
31.29953767529096
 31
0.0
  0
LINE
  5
441
330
1E
100
AcDbEntity
  8
OBJECT
100
AcDbLine
 10
69.56040196524717
 20
29.73753767529096
 30
0.0
 11
66.96640196524717
 21
29.73753767529096
 31
0.0
  0
LINE
  5
442
330
1E
100
AcDbEntity
  8
OBJECT
100
AcDbLine
 10
67.65440196524718
 20
31.29953767529096
 30
0.0
 11
67.65440196524718
 21
32.66553767529096
 31
0.0
  0
LINE
  5
443
330
1E
100
AcDbEntity
  8
OBJECT
100
AcDbLine
 10
67.65440196524718
 20
31.73103767529096
 30
0.0
 11
66.96640196524715
 21
31.73103767529096
 31
0.0
  0
LINE
  5
444
330
1E
100
AcDbEntity
  8
OBJECT
100
AcDbLine
 10
67.65440196524718
 20
29.30603767529096
 30
0.0
 11
66.96640196524715
 21
29.30603767529096
 31
0.0
  0
LINE
  5
445
330
1E
100
AcDbEntity
  8
OBJECT
100
AcDbLine
 10
66.96640196524715
 20
31.29953767529096
 30
0.0
 11
66.96640196524715
 21
31.73103767529096
 31
0.0
  0
LINE
  5
446
330
1E
100
AcDbEntity
  8
OBJECT
100
AcDbLine
 10
66.96640196524715
 20
29.73753767529096
 30
0.0
 11
66.96640196524715
 21
29.30603767529096
 31
0.0
  0
LINE
  5
447
330
1E
100
AcDbEntity
  8
OBJECT
100
AcDbLine
 10
69.56040196524717
 20
29.73753767529096
 30
0.0
 11
69.56040196524717
 21
31.29953767529098
 31
0.0
  0
LINE
  5
448
330
1E
100
AcDbEntity
  8
OBJECT
100
AcDbLine
 10
68.87240196524716
 20
29.73753767529096
 30
0.0
 11
68.87240196524716
 21
31.29953767529098
 31
0.0
  0
LINE
  5
449
330
1E
100
AcDbEntity
  8
OBJECT
100
AcDbLine
 10
67.24740196524717
 20
29.73753767529096
 30
0.0
 11
67.24740196524717
 21
31.29953767529096
 31
0.0
  0
LINE
  5
44A
330
1E
100
AcDbEntity
  8
OBJECT
100
AcDbLine
 10
63.43406700454678
 20
31.29953767529098
 30
0.0
 11
63.43406700454678
 21
31.73103767529096
 31
0.0
  0
LINE
  5
44B
330
1E
100
AcDbEntity
  8
OBJECT
100
AcDbLine
 10
63.43406700454678
 20
31.73103767529096
 30
0.0
 11
62.82306700454679
 21
31.73103767529096
 31
0.0
  0
LINE
  5
44C
330
1E
100
AcDbEntity
  8
OBJECT
100
AcDbLine
 10
63.63625721312617
 20
31.29953767529096
 30
0.0
 11
62.82306700454679
 21
31.29953767529096
 31
0.0
  0
LINE
  5
44D
330
1E
100
AcDbEntity
  8
OBJECT
100
AcDbLine
 10
63.43406700454678
 20
29.30603767529096
 30
0.0
 11
62.82306700454679
 21
29.30603767529096
 31
0.0
  0
LINE
  5
44E
330
1E
100
AcDbEntity
  8
OBJECT
100
AcDbLine
 10
63.63625721312617
 20
29.73753767529098
 30
0.0
 11
62.82306700454679
 21
29.73753767529096
 31
0.0
  0
LINE
  5
44F
330
1E
100
AcDbEntity
  8
OBJECT
100
AcDbLine
 10
63.01006700454678
 20
31.29953767529096
 30
0.0
 11
63.01006700454677
 21
29.73753767529096
 31
0.0
  0
LINE
  5
450
330
1E
100
AcDbEntity
  8
OBJECT
100
AcDbLine
 10
63.43406700454678
 20
29.73753767529095
 30
0.0
 11
63.43406700454678
 21
29.30603767529096
 31
0.0
  0
LINE
  5
451
330
1E
100
AcDbEntity
  8
OBJECT
100
AcDbLine
 10
63.43406700454678
 20
31.29953767529096
 30
0.0
 11
63.43406700454678
 21
29.73753767529096
 31
0.0
  0
LINE
  5
452
330
1E
100
AcDbEntity
  8
OBJECT
100
AcDbLine
 10
63.63625721312617
 20
31.29953767529096
 30
0.0
 11
63.63625721312617
 21
29.73753767529098
 31
0.0
  0
LINE
  5
453
330
1E
100
AcDbEntity
  8
OBJECT
100
AcDbLine
 10
63.43406700454676
 20
36.49856066432217
 30
0.0
 11
63.43406700454676
 21
37.01248727504221
 31
0.0
  0
LINE
  5
454
330
1E
100
AcDbEntity
  8
OBJECT
100
AcDbLine
 10
63.25692863668784
 20
36.32448727504221
 30
0.0
 11
62.84071792428467
 21
36.32448727504221
 31
0.0
  0
ARC
  5
455
330
1E
100
AcDbEntity
  8
OBJECT
100
AcDbCircle
 10
63.25692863668784
 20
36.50165262603441
 30
0.0
 40
0.177165351
100
AcDbArc
 50
269.9994624464301
 51
358.9999999999937
  0
ARC
  5
456
330
1E
100
AcDbEntity
  8
OBJECT
100
AcDbCircle
 10
63.60781942430159
 20
38.89004948621765
 30
0.0
 40
0.0284377888245715
100
AcDbArc
 50
339.8444292844859
 51
144.8498802005589
  0
LINE
  5
457
330
1E
100
AcDbEntity
  8
OBJECT
100
AcDbLine
 10
63.49051081894446
 20
38.23048727504222
 30
0.0
 11
63.43406700454676
 21
36.60548727504222
 31
0.0
  0
LINE
  5
458
330
1E
100
AcDbEntity
  8
OBJECT
100
AcDbLine
 10
63.43406700454676
 20
37.01248727504221
 30
0.0
 11
48.44071661454838
 21
37.0124872750422
 31
0.0
  0
LINE
  5
459
330
1E
100
AcDbEntity
  8
OBJECT
100
AcDbLine
 10
63.43406700454678
 20
14.86153767529095
 30
0.0
 11
63.43406700454678
 21
14.43003767529095
 31
0.0
  0
LINE
  5
45A
330
1E
100
AcDbEntity
  8
OBJECT
100
AcDbLine
 10
63.43406700454678
 20
14.43003767529095
 30
0.0
 11
62.82306700454679
 21
14.43003767529096
 31
0.0
  0
LINE
  5
45B
330
1E
100
AcDbEntity
  8
OBJECT
100
AcDbLine
 10
63.63625721312617
 20
16.42353767529096
 30
0.0
 11
63.63625721312617
 21
14.86153767529097
 31
0.0
  0
LINE
  5
45C
330
1E
100
AcDbEntity
  8
OBJECT
100
AcDbLine
 10
63.43406700454678
 20
16.42353767529096
 30
0.0
 11
63.43406700454678
 21
14.86153767529096
 31
0.0
  0
LINE
  5
45D
330
1E
100
AcDbEntity
  8
OBJECT
100
AcDbLine
 10
63.01006700454678
 20
16.42353767529096
 30
0.0
 11
63.01006700454677
 21
14.86153767529096
 31
0.0
  0
LINE
  5
45E
330
1E
100
AcDbEntity
  8
OBJECT
100
AcDbLine
 10
63.63625721312617
 20
14.86153767529097
 30
0.0
 11
62.82306700454679
 21
14.86153767529096
 31
0.0
  0
LINE
  5
45F
330
1E
100
AcDbEntity
  8
OBJECT
100
AcDbLine
 10
63.63625721312617
 20
16.42353767529096
 30
0.0
 11
62.82306700454679
 21
16.42353767529096
 31
0.0
  0
LINE
  5
460
330
1E
100
AcDbEntity
  8
OBJECT
100
AcDbLine
 10
63.43406700454678
 20
16.42353767529097
 30
0.0
 11
63.43406700454678
 21
16.85503767529096
 31
0.0
  0
LINE
  5
461
330
1E
100
AcDbEntity
  8
OBJECT
100
AcDbLine
 10
63.43406700454678
 20
16.85503767529096
 30
0.0
 11
62.82306700454679
 21
16.85503767529095
 31
0.0
  0
LWPOLYLINE
  5
462
330
1E
100
AcDbEntity
  8
OBJECT
100
AcDbPolyline
 90
        2
 70
     0
 43
0.0
 10
63.15306700454677
 20
16.85503767529096
 10
63.15306700454677
 20
29.30603767529095
  0
CIRCLE
  5
466
330
1E
100
AcDbEntity
  8
HIDDEN
100
AcDbCircle
 10
63.22206700454676
 20
36.57548727504222
 30
0.0
 40
0.069
  0
LWPOLYLINE
  5
467
330
1E
100
AcDbEntity
  8
OBJECT
100
AcDbPolyline
 90
        4
 70
     0
 43
0.0
 10
74.32040196524717
 20
23.48753767529096
 10
68.51167755024731
 20
23.48753767529096
 10
68.51167755024729
 20
23.70553767529097
 10
74.32040196524717
 20
23.70553767529097
  0
LINE
  5
46D
330
1E
100
AcDbEntity
  8
OBJECT
100
AcDbLine
 10
74.19440196524717
 20
22.29313611529093
 30
0.0
 11
68.5294019652472
 21
22.29313611529093
 31
0.0
  0
LINE
  5
46E
330
1E
100
AcDbEntity
  8
OBJECT
100
AcDbLine
 10
68.43540196524718
 20
22.38713611529093
 30
0.0
 11
68.43540196524718
 21
23.08053767529098
 31
0.0
  0
ARC
  5
46F
330
1E
100
AcDbEntity
  8
OBJECT
100
AcDbCircle
 10
68.5294019652472
 20
22.38713611529093
 30
0.0
 40
0.094
100
AcDbArc
 50
180.0000000000001
 51
269.9999999999999
  0
LINE
  5
470
330
1E
100
AcDbEntity
  8
OBJECT
100
AcDbLine
 10
74.06440196524717
 20
22.29313611529093
 30
0.0
 11
74.06440196524719
 21
23.08053767529096
 31
0.0
  0
LWPOLYLINE
  5
471
330
1E
100
AcDbEntity
  8
OBJECT
100
AcDbPolyline
 90
        2
 70
     0
 43
0.0
 10
74.32040196524717
 20
23.14353767529096
 10
73.87824355418799
 20
23.14353767529096
  0
LWPOLYLINE
  5
475
330
1E
100
AcDbEntity
  8
OBJECT
100
AcDbPolyline
 90
        2
 70
     0
 43
0.0
 10
73.80877361809474
 20
23.14353767529095
 10
70.37294095053285
 20
23.14353767529095
  0
LWPOLYLINE
  5
479
330
1E
100
AcDbEntity
  8
OBJECT
100
AcDbPolyline
 90
        4
 70
     0
 43
0.0
 10
70.30347101443964
 20
23.14353767529096
 10
68.51167755024731
 20
23.14353767529096
 10
68.51167755024729
 20
23.36153767529097
 10
74.32040196524717
 20
23.36153767529097
  0
LINE
  5
47F
330
1E
100
AcDbEntity
  8
OBJECT
100
AcDbLine
 10
48.92806700454677
 20
43.67848727504219
 30
0.0
 11
62.73806700454677
 21
43.67848727504219
 31
0.0
  0
LINE
  5
480
330
1E
100
AcDbEntity
  8
OBJECT
100
AcDbLine
 10
62.73806700454677
 20
43.67848727504219
 30
0.0
 11
62.8452417517203
 21
37.30776286004231
 31
0.0
  0
LINE
  5
481
330
1E
100
AcDbEntity
  8
OBJECT
100
AcDbLine
 10
48.92806700454677
 20
43.67848727504219
 30
0.0
 11
48.82089225737324
 21
37.30776286004231
 31
0.0
  0
LWPOLYLINE
  5
482
330
1E
100
AcDbEntity
  8
OBJECT
100
AcDbPolyline
 90
        4
 70
     0
 43
0.0
 10
74.32040196524717
 20
30.61053767529097
 10
74.37940196524717
 20
30.61053767529097
 10
74.37940196524717
 20
30.31053767529097
 10
74.32040196524717
 20
30.31053767529097
  0
LWPOLYLINE
  5
488
330
1E
100
AcDbEntity
  8
OBJECT
100
AcDbPolyline
 90
        4
 70
     0
 43
0.0
 10
74.32040196524717
 20
29.62653767529096
 10
74.37940196524717
 20
29.62653767529097
 10
74.37940196524717
 20
29.32653767529096
 10
74.32040196524717
 20
29.32653767529096
  0
LWPOLYLINE
  5
48E
330
1E
100
AcDbEntity
  8
OBJECT
100
AcDbPolyline
 90
        4
 70
     0
 43
0.0
 10
74.32040196524717
 20
28.64253767529096
 10
74.37940196524717
 20
28.64253767529096
 10
74.37940196524717
 20
28.34253767529096
 10
74.32040196524717
 20
28.34253767529096
  0
LWPOLYLINE
  5
494
330
1E
100
AcDbEntity
  8
OBJECT
100
AcDbPolyline
 90
        4
 70
     0
 43
0.0
 10
74.32040196524717
 20
27.65853767529097
 10
74.37940196524717
 20
27.65853767529097
 10
74.37940196524717
 20
27.35853767529097
 10
74.32040196524717
 20
27.35853767529097
  0
LWPOLYLINE
  5
49A
330
1E
100
AcDbEntity
  8
OBJECT
100
AcDbPolyline
 90
        4
 70
     0
 43
0.0
 10
74.32040196524717
 20
26.67453767529096
 10
74.37940196524717
 20
26.67453767529098
 10
74.37940196524717
 20
26.37453767529096
 10
74.32040196524717
 20
26.37453767529096
  0
LWPOLYLINE
  5
4A0
330
1E
100
AcDbEntity
  8
OBJECT
100
AcDbPolyline
 90
        4
 70
     0
 43
0.0
 10
74.32040196524717
 20
25.69053767529096
 10
74.37940196524717
 20
25.69053767529096
 10
74.37940196524717
 20
25.39053767529097
 10
74.32040196524717
 20
25.39053767529097
  0
LWPOLYLINE
  5
4A6
330
1E
100
AcDbEntity
  8
OBJECT
100
AcDbPolyline
 90
        4
 70
     0
 43
0.0
 10
74.32040196524717
 20
24.70653767529096
 10
74.37940196524717
 20
24.70653767529097
 10
74.37940196524717
 20
24.40653767529096
 10
74.32040196524717
 20
24.40653767529096
  0
LWPOLYLINE
  5
4AC
330
1E
100
AcDbEntity
  8
OBJECT
100
AcDbPolyline
 90
        4
 70
     0
 43
0.0
 10
74.32040196524717
 20
32.06403767529097
 10
74.37945708224704
 20
32.06403767529097
 10
74.37945708224704
 20
31.48903767529097
 10
74.32040196524717
 20
31.48903767529098
  0
LWPOLYLINE
  5
4B2
330
1E
100
AcDbEntity
  8
OBJECT
100
AcDbPolyline
 90
        4
 70
     0
 43
0.0
 10
74.32040196524717
 20
31.29953767529096
 10
74.37940196524717
 20
31.29953767529096
 10
74.37940196524717
 20
30.99953767529096
 10
74.32040196524717
 20
30.99953767529096
  0
LINE
  5
4B8
330
1E
100
AcDbEntity
  8
OBJECT
100
AcDbLine
 10
74.37940196524717
 20
31.57553767529097
 30
0.0
 11
74.37940196524717
 21
31.27553767529097
 31
0.0
  0
LINE
  5
4B9
330
1E
100
AcDbEntity
  8
OBJECT
100
AcDbLine
 10
74.07940196524719
 20
16.45254716569278
 30
0.0
 11
74.07940196524719
 21
15.93252818488909
 31
0.0
  0
LINE
  5
4BA
330
1E
100
AcDbEntity
  8
OBJECT
100
AcDbLine
 10
74.07940196524719
 20
17.43654716569278
 30
0.0
 11
74.07940196524719
 21
16.91652818488909
 31
0.0
  0
LINE
  5
4BB
330
1E
100
AcDbEntity
  8
OBJECT
100
AcDbLine
 10
74.07940196524716
 20
18.42054716569277
 30
0.0
 11
74.07940196524716
 21
17.90052818488909
 31
0.0
  0
LINE
  5
4BC
330
1E
100
AcDbEntity
  8
OBJECT
100
AcDbLine
 10
74.07940196524719
 20
19.40454716569277
 30
0.0
 11
74.07940196524719
 21
18.88452818488908
 31
0.0
  0
LINE
  5
4BD
330
1E
100
AcDbEntity
  8
OBJECT
100
AcDbLine
 10
74.07940196524719
 20
20.38854716569278
 30
0.0
 11
74.07940196524719
 21
19.86852818488909
 31
0.0
  0
LINE
  5
4BE
330
1E
100
AcDbEntity
  8
OBJECT
100
AcDbLine
 10
74.07940196524719
 20
21.37254716569278
 30
0.0
 11
74.07940196524719
 21
20.8525281848891
 31
0.0
  0
DIMENSION
  5
4BF
330
1E
100
AcDbEntity
  8
DIM
100
AcDbDimension
  2
*D22
 10
74.32040196524717
 20
21.28763122591002
 30
0.0
 11
78.55712071524717
 21
21.28763122591002
 31
0.0
 70
    32
  1
<>
 71
     5
 42
0.1260000000000048
  3
23NSTD
100
AcDbAlignedDimension
 13
74.19440196524717
 23
21.29047706724425
 33
0.0
 14
74.32040196524717
 24
21.35533540056605
 34
0.0
 50
180.0
100
AcDbRotatedDimension
  0
DIMENSION
  5
4C0
330
1E
100
AcDbEntity
  8
DIM
100
AcDbDimension
  2
*D23
 10
74.19440196524708
 20
16.10604572495981
 30
0.0
 11
80.57955821524707
 21
16.10604572495981
 31
0.0
 70
    32
  1
<> (INSIDE)
 71
     5
 42
0.3799999999998818
  3
23NSTD
100
AcDbAlignedDimension
 13
73.8144019652472
 23
15.1448944964827
 33
0.0
 14
74.19440196524708
 24
16.10604572495981
 34
0.0
100
AcDbRotatedDimension
  0
DIMENSION
  5
4C1
330
1E
100
AcDbEntity
  8
DIM
100
AcDbDimension
  2
*D24
 10
74.1944019652471
 20
18.13298019379108
 30
0.0
 11
80.4936207152471
 21
18.13298019379108
 31
0.0
 70
    32
  1
<> (INSIDE)
 71
     5
 42
0.2759999999999252
  3
23NSTD
100
AcDbAlignedDimension
 13
73.91840196524718
 23
17.81525174880692
 33
0.0
 14
74.1944019652471
 24
18.1506319398333
 34
0.0
100
AcDbRotatedDimension
  0
LWPOLYLINE
  5
4C2
330
1E
100
AcDbEntity
  8
OBJECT
100
AcDbPolyline
 90
       58
 70
     0
 43
0.0
 10
67.65440196524718
 20
13.91358921236073
 10
74.15618501629818
 20
14.04415984284678
 42
0.4083445433593239
 10
74.19440196524719
 20
14.08315198091398
 10
74.19440196524719
 20
14.09953767529097
 10
73.83370508599539
 20
14.11211342029377
 42
-0.404042385590171
 10
73.8144019652472
 20
14.13210127558913
 10
73.8144019652472
 20
14.63697407499283
 42
-0.4040423855901817
 10
73.83370508599539
 20
14.65696193028819
 10
74.19440196524719
 20
14.66953767529098
 10
74.19440196524719
 20
14.72653767529099
 10
73.83370508599539
 20
14.73911342029379
 42
-0.4040423855901765
 10
73.8144019652472
 20
14.75910127558915
 10
73.8144019652472
 20
15.26397407499282
 42
-0.4040423855901817
 10
73.83370508599539
 20
15.28396193028819
 10
74.19440196524719
 20
15.29653767529098
 10
74.19440196524719
 20
15.46453767529097
 10
73.9374000062938
 20
15.47349808300983
 42
-0.4040262258351634
 10
73.91840196524715
 20
15.49317113041611
 10
73.91840196524718
 20
15.90790422016582
 42
-0.4040262258351634
 10
73.93740000629349
 20
15.92757726757193
 10
74.19440196524719
 20
15.93653767529096
 10
74.19440196524719
 20
16.44853767529097
 10
73.9374000062938
 20
16.45749808300983
 42
-0.4040262258351634
 10
73.91840196524715
 20
16.47717113041612
 10
73.91840196524718
 20
16.89190422016582
 42
-0.4040262258351634
 10
73.93740000629349
 20
16.91157726757194
 10
74.19440196524719
 20
16.92053767529096
 10
74.19440196524719
 20
17.43253767529097
 10
73.9374000062938
 20
17.44149808300983
 42
-0.4040262258351634
 10
73.91840196524715
 20
17.46117113041612
 10
73.91840196524718
 20
17.87590422016582
 42
-0.4040262258351634
 10
73.93740000629349
 20
17.89557726757194
 10
74.19440196524719
 20
17.90453767529097
 10
74.19440196524719
 20
18.41653767529097
 10
73.9374000062938
 20
18.42549808300983
 42
-0.4040262258351634
 10
73.91840196524715
 20
18.44517113041611
 10
73.91840196524718
 20
18.85990422016582
 42
-0.4040262258351634
 10
73.93740000629349
 20
18.87957726757193
 10
74.19440196524719
 20
18.88853767529096
 10
74.19440196524719
 20
19.40053767529097
 10
73.9374000062938
 20
19.40949808300983
 42
-0.4040262258351634
 10
73.91840196524715
 20
19.42917113041612
 10
73.91840196524718
 20
19.84390422016582
 42
-0.4040262258351634
 10
73.93740000629349
 20
19.86357726757193
 10
74.19440196524719
 20
19.87253767529096
 10
74.19440196524719
 20
20.38453767529097
 10
73.9374000062938
 20
20.39349808300983
 42
-0.4040262258351634
 10
73.91840196524715
 20
20.41317113041612
 10
73.91840196524718
 20
20.82790422016582
 42
-0.4040262258351634
 10
73.93740000629349
 20
20.84757726757194
 10
74.19440196524719
 20
20.85653767529096
 10
74.19440196524719
 20
21.36853767529097
 10
73.9374000062938
 20
21.37749808300983
 42
-0.4040262258351634
 10
73.91840196524715
 20
21.39717113041612
 10
73.91840196524718
 20
21.81190422016582
 42
-0.4040262258351634
 10
73.93740000629349
 20
21.83157726757193
 10
74.19440196524719
 20
21.84053767529097
 10
74.19440196524717
 20
22.29313611529093
  0
LWPOLYLINE
  5
4FE
330
1E
100
AcDbEntity
  8
OBJECT
100
AcDbPolyline
 90
       42
 70
     0
 43
0.0
 10
67.6544019652472
 20
13.49553767529096
 10
67.89479318219822
 20
13.51234746671157
 42
0.3939104756149416
 10
67.94967755024733
 20
13.5712037456769
 10
67.94967755024727
 20
13.78453767529097
 10
74.3204019652472
 20
13.91303767529096
 10
74.3204019652472
 20
14.09703767529098
 10
74.37945708224704
 20
14.09703767529098
 10
74.37945708224704
 20
14.67203767529098
 10
74.3204019652472
 20
14.67203767529097
 10
74.32040196524717
 20
14.861537675291
 10
74.37940196524717
 20
14.86153767529099
 10
74.37940196524717
 20
15.16153767529099
 10
74.32040196524717
 20
15.16153767529099
 10
74.32040196524717
 20
15.55053767529099
 10
74.37940196524717
 20
15.55053767529098
 10
74.37940196524717
 20
15.85053767529099
 10
74.32040196524717
 20
15.85053767529099
 10
74.32040196524717
 20
16.53453767529099
 10
74.37940196524717
 20
16.53453767529098
 10
74.37940196524717
 20
16.83453767529099
 10
74.32040196524717
 20
16.83453767529099
 10
74.32040196524717
 20
17.51853767529099
 10
74.37940196524717
 20
17.51853767529099
 10
74.37940196524717
 20
17.81853767529099
 10
74.32040196524717
 20
17.81853767529099
 10
74.32040196524717
 20
18.50253767529099
 10
74.37940196524717
 20
18.50253767529098
 10
74.37940196524717
 20
18.80253767529098
 10
74.32040196524717
 20
18.80253767529098
 10
74.32040196524717
 20
19.48653767529099
 10
74.37940196524717
 20
19.48653767529098
 10
74.37940196524717
 20
19.78653767529099
 10
74.32040196524717
 20
19.78653767529099
 10
74.32040196524717
 20
20.47053767529098
 10
74.37940196524717
 20
20.47053767529098
 10
74.37940196524717
 20
20.77053767529098
 10
74.32040196524717
 20
20.77053767529098
 10
74.32040196524717
 20
21.45453767529099
 10
74.37940196524717
 20
21.45453767529098
 10
74.37940196524717
 20
21.75453767529098
 10
74.32040196524717
 20
21.75453767529098
 10
74.32040196524717
 20
32.24803767529095
  0
INSERT
  5
52A
330
1E
100
AcDbEntity
  8
OBJECT
100
AcDbBlockReference
  2
*X1
 10
41.48262775417655
 20
-21.70513195690848
 30
0.0
1001
ACAD
1000
HATCH
1002
{
1070
    16
1000
PLASTI
1040
2.0
1040
2.356194490192344
1002
}
  0
LWPOLYLINE
  5
52B
330
1E
100
AcDbEntity
  8
OBJECT
100
AcDbPolyline
 90
        4
 70
     0
 43
0.0
 10
49.73656700454677
 20
43.67848727504219
 10
49.73656700454677
 20
43.73754239204204
 10
49.16156700454677
 20
43.73754239204204
 10
49.16156700454677
 20
43.67848727504219
  0
LWPOLYLINE
  5
531
330
1E
100
AcDbEntity
  8
OBJECT
100
AcDbPolyline
 90
        4
 70
     0
 43
0.0
 10
50.57106700454676
 20
43.67848727504219
 10
50.57106700454678
 20
43.73754239204204
 10
50.27106700454677
 20
43.73754239204204
 10
50.27106700454677
 20
43.67848727504219
  0
LWPOLYLINE
  5
537
330
1E
100
AcDbEntity
  8
OBJECT
100
AcDbPolyline
 90
        4
 70
     0
 43
0.0
 10
51.55506700454676
 20
43.67848727504219
 10
51.55506700454679
 20
43.73754239204204
 10
51.25506700454677
 20
43.73754239204204
 10
51.25506700454677
 20
43.67848727504219
  0
LWPOLYLINE
  5
53D
330
1E
100
AcDbEntity
  8
OBJECT
100
AcDbPolyline
 90
        4
 70
     0
 43
0.0
 10
52.53906700454677
 20
43.67848727504219
 10
52.53906700454677
 20
43.73754239204204
 10
52.23906700454678
 20
43.73754239204204
 10
52.23906700454678
 20
43.67848727504219
  0
LWPOLYLINE
  5
543
330
1E
100
AcDbEntity
  8
OBJECT
100
AcDbPolyline
 90
        4
 70
     0
 43
0.0
 10
53.52306700454676
 20
43.67848727504219
 10
53.52306700454677
 20
43.73754239204204
 10
53.22306700454676
 20
43.73754239204204
 10
53.22306700454676
 20
43.67848727504219
  0
LWPOLYLINE
  5
549
330
1E
100
AcDbEntity
  8
OBJECT
100
AcDbPolyline
 90
        4
 70
     0
 43
0.0
 10
54.50706700454675
 20
43.67848727504219
 10
54.50706700454678
 20
43.73754239204204
 10
54.20706700454677
 20
43.73754239204204
 10
54.20706700454677
 20
43.67848727504219
  0
LWPOLYLINE
  5
54F
330
1E
100
AcDbEntity
  8
OBJECT
100
AcDbPolyline
 90
        4
 70
     0
 43
0.0
 10
55.49106700454676
 20
43.67848727504219
 10
55.49106700454678
 20
43.73754239204204
 10
55.19106700454678
 20
43.73754239204204
 10
55.19106700454678
 20
43.67848727504219
  0
LWPOLYLINE
  5
555
330
1E
100
AcDbEntity
  8
OBJECT
100
AcDbPolyline
 90
        4
 70
     0
 43
0.0
 10
50.16156700454676
 20
43.67848727504219
 10
50.16156700454676
 20
43.73754239204204
 10
49.86156700454677
 20
43.73754239204204
 10
49.86156700454677
 20
43.67848727504219
  0
LINE
  5
55B
330
1E
100
AcDbEntity
  8
OBJECT
100
AcDbLine
 10
49.90406700454677
 20
43.73754239204204
 30
0.0
 11
49.60406700454676
 21
43.73754239204204
 31
0.0
  0
LINE
  5
55C
330
1E
100
AcDbEntity
  8
OBJECT
100
AcDbLine
 10
61.76206700454677
 20
43.73754239204204
 30
0.0
 11
62.06206700454678
 21
43.73754239204204
 31
0.0
  0
LWPOLYLINE
  5
55D
330
1E
100
AcDbEntity
  8
OBJECT
100
AcDbPolyline
 90
        4
 70
     0
 43
0.0
 10
61.92956700454677
 20
43.67848727504219
 10
61.92956700454677
 20
43.73754239204204
 10
62.50456700454678
 20
43.73754239204204
 10
62.50456700454678
 20
43.67848727504219
  0
LWPOLYLINE
  5
563
330
1E
100
AcDbEntity
  8
OBJECT
100
AcDbPolyline
 90
        4
 70
     0
 43
0.0
 10
61.50456700454679
 20
43.67848727504219
 10
61.50456700454677
 20
43.73754239204204
 10
61.80456700454676
 20
43.73754239204204
 10
61.80456700454676
 20
43.67848727504219
  0
LWPOLYLINE
  5
569
330
1E
100
AcDbEntity
  8
OBJECT
100
AcDbPolyline
 90
        4
 70
     0
 43
0.0
 10
61.09506700454677
 20
43.67848727504219
 10
61.09506700454677
 20
43.73754239204204
 10
61.39506700454676
 20
43.73754239204204
 10
61.39506700454676
 20
43.67848727504219
  0
LWPOLYLINE
  5
56F
330
1E
100
AcDbEntity
  8
OBJECT
100
AcDbPolyline
 90
        4
 70
     0
 43
0.0
 10
60.11106700454679
 20
43.67848727504219
 10
60.11106700454677
 20
43.73754239204204
 10
60.41106700454678
 20
43.73754239204204
 10
60.41106700454678
 20
43.67848727504219
  0
LWPOLYLINE
  5
575
330
1E
100
AcDbEntity
  8
OBJECT
100
AcDbPolyline
 90
        4
 70
     0
 43
0.0
 10
59.12706700454679
 20
43.67848727504219
 10
59.12706700454676
 20
43.73754239204204
 10
59.42706700454677
 20
43.73754239204204
 10
59.42706700454677
 20
43.67848727504219
  0
LWPOLYLINE
  5
57B
330
1E
100
AcDbEntity
  8
OBJECT
100
AcDbPolyline
 90
        4
 70
     0
 43
0.0
 10
56.17506700454679
 20
43.67848727504219
 10
56.17506700454676
 20
43.73754239204204
 10
56.47506700454677
 20
43.73754239204204
 10
56.47506700454677
 20
43.67848727504219
  0
LWPOLYLINE
  5
581
330
1E
100
AcDbEntity
  8
OBJECT
100
AcDbPolyline
 90
        4
 70
     0
 43
0.0
 10
57.15906700454678
 20
43.67848727504219
 10
57.15906700454677
 20
43.73754239204204
 10
57.45906700454678
 20
43.73754239204204
 10
57.45906700454678
 20
43.67848727504219
  0
LWPOLYLINE
  5
587
330
1E
100
AcDbEntity
  8
OBJECT
100
AcDbPolyline
 90
        4
 70
     0
 43
0.0
 10
58.14306700454678
 20
43.67848727504219
 10
58.14306700454678
 20
43.73754239204204
 10
58.44306700454676
 20
43.73754239204204
 10
58.44306700454676
 20
43.67848727504219
  0
LINE
  5
58D
330
1E
100
AcDbEntity
  8
OBJECT
100
AcDbLine
 10
63.19925854438297
 20
37.68276286004232
 30
0.0
 11
63.58456736820595
 21
38.9064217102741
 31
0.0
  0
LINE
  5
58E
330
1E
100
AcDbEntity
  8
OBJECT
100
AcDbLine
 10
63.19925854438297
 20
37.68276286004232
 30
0.0
 11
62.84373303411972
 21
37.39744465829086
 31
0.0
  0
ARC
  5
58F
330
1E
100
AcDbEntity
  8
OBJECT
100
AcDbCircle
 10
48.44071661454838
 20
37.1899872750422
 30
0.0
 40
0.1775
100
AcDbArc
 50
90.0
 51
276.9596745962847
  0
ARC
  5
590
330
1E
100
AcDbEntity
  8
OBJECT
100
AcDbCircle
 10
46.80103951898117
 20
35.62560585615853
 30
0.0
 40
2.092502135900443
100
AcDbArc
 50
35.02863855348669
 51
44.61061196623757
  0
LINE
  5
591
330
1E
100
AcDbEntity
  8
OBJECT
100
AcDbLine
 10
48.82189700167872
 20
37.3674872750422
 30
0.0
 11
48.44071661454838
 21
37.3674872750422
 31
0.0
  0
LWPOLYLINE
  5
592
330
1E
100
AcDbEntity
  8
OBJECT
100
AcDbPolyline
 90
       10
 70
     0
 43
0.0
 10
63.15306700454677
 20
31.73103767529096
 10
63.15306700454677
 20
32.23253767529097
 42
0.4142135623730951
 10
62.72006700454678
 20
32.66553767529096
 10
48.94606700454677
 20
32.66553767529096
 42
0.4142135623730951
 10
48.51306700454678
 20
32.23253767529097
 10
48.51306700454678
 20
13.92853767529096
 42
0.4142135623730951
 10
48.94606700454677
 20
13.49553767529096
 10
62.72006700454678
 20
13.49553767529096
 42
0.4142135623730974
 10
63.15306700454677
 20
13.92853767529096
 10
63.15306700454677
 20
14.43003767529096
  0
ARC
  5
59E
330
1E
100
AcDbEntity
  8
OBJECT
100
AcDbCircle
 10
47.98825764307055
 20
17.02636532420684
 30
0.0
 40
0.5292610580390981
100
AcDbArc
 50
301.2997132443095
 51
352.5634702911331
  0
ARC
  5
59F
330
1E
100
AcDbEntity
  8
OBJECT
100
AcDbCircle
 10
47.98825764307049
 20
14.2468990029754
 30
0.0
 40
0.5292610580390336
100
AcDbArc
 50
7.436529708854267
 51
58.70028675567807
  0
LINE
  5
5A0
330
1E
100
AcDbEntity
  8
OBJECT
100
AcDbLine
 10
48.26321661454837
 20
16.22663216359107
 30
0.0
 11
48.26321661454837
 21
15.05844318699085
 31
0.0
  0
LINE
  5
5A1
330
1E
100
AcDbEntity
  8
OBJECT
100
AcDbLine
 10
48.26321661454837
 20
14.69913216359107
 30
0.0
 11
48.26321661454837
 21
15.04663216359106
 31
0.0
  0
LINE
  5
5A2
330
1E
100
AcDbEntity
  8
OBJECT
100
AcDbLine
 10
48.26321661454837
 20
15.04663216359106
 30
0.0
 11
48.51306700454852
 21
15.04663216359106
 31
0.0
  0
LINE
  5
5A3
330
1E
100
AcDbEntity
  8
OBJECT
100
AcDbLine
 10
48.5130670045486
 20
15.05844318699177
 30
0.0
 11
48.26321661454837
 21
15.05844318699177
 31
0.0
  0
LINE
  5
5A4
330
1E
100
AcDbEntity
  8
OBJECT
100
AcDbLine
 10
48.26321661454837
 20
16.23844318699087
 30
0.0
 11
48.26321661454837
 21
16.57413216359107
 31
0.0
  0
LINE
  5
5A5
330
1E
100
AcDbEntity
  8
OBJECT
100
AcDbLine
 10
48.5130670045486
 20
16.23844318699087
 30
0.0
 11
48.26321661454837
 21
16.23844318699087
 31
0.0
  0
LINE
  5
5A6
330
1E
100
AcDbEntity
  8
OBJECT
100
AcDbLine
 10
48.5130670045486
 20
16.22663216359105
 30
0.0
 11
48.26321661454837
 21
16.22663216359107
 31
0.0
  0
ARC
  5
5A7
330
1E
100
AcDbEntity
  8
OBJECT
100
AcDbCircle
 10
47.98825764307055
 20
24.46436532420685
 30
0.0
 40
0.5292610580390981
100
AcDbArc
 50
301.2997132443095
 51
352.5634702911331
  0
ARC
  5
5A8
330
1E
100
AcDbEntity
  8
OBJECT
100
AcDbCircle
 10
47.98825764307049
 20
21.68489900297541
 30
0.0
 40
0.5292610580390336
100
AcDbArc
 50
7.436529708854267
 51
58.70028675567807
  0
LINE
  5
5A9
330
1E
100
AcDbEntity
  8
OBJECT
100
AcDbLine
 10
48.26321661454837
 20
23.66463216359107
 30
0.0
 11
48.26321661454837
 21
22.49644318699085
 31
0.0
  0
LINE
  5
5AA
330
1E
100
AcDbEntity
  8
OBJECT
100
AcDbLine
 10
48.26321661454837
 20
22.13713216359107
 30
0.0
 11
48.26321661454837
 21
22.48463216359107
 31
0.0
  0
LINE
  5
5AB
330
1E
100
AcDbEntity
  8
OBJECT
100
AcDbLine
 10
48.5130670045486
 20
22.49644318699178
 30
0.0
 11
48.26321661454837
 21
22.49644318699178
 31
0.0
  0
LINE
  5
5AC
330
1E
100
AcDbEntity
  8
OBJECT
100
AcDbLine
 10
48.26321661454837
 20
22.48463216359107
 30
0.0
 11
48.51306700454852
 21
22.48463216359107
 31
0.0
  0
LINE
  5
5AD
330
1E
100
AcDbEntity
  8
OBJECT
100
AcDbLine
 10
48.26321661454837
 20
23.67644318699087
 30
0.0
 11
48.26321661454837
 21
24.01213216359107
 31
0.0
  0
LINE
  5
5AE
330
1E
100
AcDbEntity
  8
OBJECT
100
AcDbLine
 10
48.5130670045486
 20
23.66463216359106
 30
0.0
 11
48.26321661454837
 21
23.66463216359107
 31
0.0
  0
LINE
  5
5AF
330
1E
100
AcDbEntity
  8
OBJECT
100
AcDbLine
 10
48.5130670045486
 20
23.67644318699087
 30
0.0
 11
48.26321661454837
 21
23.67644318699087
 31
0.0
  0
ARC
  5
5B0
330
1E
100
AcDbEntity
  8
OBJECT
100
AcDbCircle
 10
47.98825764307049
 20
29.12880451467531
 30
0.0
 40
0.5292610580390336
100
AcDbArc
 50
7.436529708854267
 51
58.70028675567807
  0
ARC
  5
5B1
330
1E
100
AcDbEntity
  8
OBJECT
100
AcDbCircle
 10
47.98825764307055
 20
31.90827083590674
 30
0.0
 40
0.5292610580390981
100
AcDbArc
 50
301.2997132443095
 51
352.5634702911331
  0
LINE
  5
5B2
330
1E
100
AcDbEntity
  8
OBJECT
100
AcDbLine
 10
48.26321661454837
 20
31.10853767529097
 30
0.0
 11
48.26321661454837
 21
29.94034869869075
 31
0.0
  0
LINE
  5
5B3
330
1E
100
AcDbEntity
  8
OBJECT
100
AcDbLine
 10
48.26321661454837
 20
29.92853767529096
 30
0.0
 11
48.51306700454852
 21
29.92853767529096
 31
0.0
  0
LINE
  5
5B4
330
1E
100
AcDbEntity
  8
OBJECT
100
AcDbLine
 10
48.26321661454837
 20
29.58103767529097
 30
0.0
 11
48.26321661454837
 21
29.92853767529096
 31
0.0
  0
LINE
  5
5B5
330
1E
100
AcDbEntity
  8
OBJECT
100
AcDbLine
 10
48.5130670045486
 20
29.94034869869167
 30
0.0
 11
48.26321661454837
 21
29.94034869869167
 31
0.0
  0
LINE
  5
5B6
330
1E
100
AcDbEntity
  8
OBJECT
100
AcDbLine
 10
48.5130670045486
 20
31.12034869869077
 30
0.0
 11
48.26321661454837
 21
31.12034869869077
 31
0.0
  0
LINE
  5
5B7
330
1E
100
AcDbEntity
  8
OBJECT
100
AcDbLine
 10
48.26321661454837
 20
31.12034869869077
 30
0.0
 11
48.26321661454837
 21
31.45603767529097
 31
0.0
  0
LINE
  5
5B8
330
1E
100
AcDbEntity
  8
OBJECT
100
AcDbLine
 10
48.5130670045486
 20
31.10853767529096
 30
0.0
 11
48.26321661454837
 21
31.10853767529097
 31
0.0
  0
LWPOLYLINE
  5
5B9
330
1E
100
AcDbEntity
  8
OBJECT
100
AcDbPolyline
 90
       28
 70
     0
 43
0.0
 10
27.85739262428096
 20
31.11394318699088
 10
27.42954223428258
 20
31.11394318699088
 10
27.42954223428258
 20
31.44963216359107
 42
0.2274869964476954
 10
27.67939262428096
 20
31.83336421718218
 10
27.67939262428096
 20
32.23253767529097
 42
-0.4142135623730951
 10
28.11239262428095
 20
32.66553767529098
 10
41.88639262428097
 20
32.66553767529098
 42
-0.4142135623730951
 10
42.31939262428096
 20
32.23253767529097
 10
42.31939262428096
 20
31.34303767529097
 10
42.3692595035626
 20
31.34303767529097
 10
42.3692595035626
 20
29.69303767529096
 10
42.31939262428096
 20
29.69303767529096
 10
42.31939262428099
 20
20.07792676129116
 42
0.3236437854432907
 10
42.57686549427027
 20
19.7218195109979
 42
-0.7051781285480231
 10
42.5601709021279
 20
19.19930502476248
 42
0.3106384182581576
 10
42.31939262428096
 20
18.84914858929076
 10
42.31939262428096
 20
16.46803767529097
 10
42.3692595035626
 20
16.46803767529097
 10
42.3692595035626
 20
14.81803767529097
 10
42.31939262428096
 20
14.81803767529097
 10
42.31939262428099
 20
13.92853767529097
 42
-0.4142135623730953
 10
41.88639262428097
 20
13.49553767529096
 10
28.11239262428095
 20
13.49553767529096
 42
-0.4142135623730951
 10
27.67939262428096
 20
13.92853767529097
 10
27.67939262428269
 20
14.31590010998587
 42
0.2274869964476968
 10
27.42954223428258
 20
14.69963216359108
 10
27.42954223428258
 20
15.04713216359107
 10
27.85739262428096
 20
15.04713216359107
  0
LINE
  5
5D7
330
1E
100
AcDbEntity
  8
OBJECT
100
AcDbLine
 10
27.68923514378075
 20
29.92213216359107
 30
0.0
 11
27.68923514378075
 21
31.11394318699088
 31
0.0
  0
LINE
  5
5D8
330
1E
100
AcDbEntity
  8
OBJECT
100
AcDbLine
 10
27.55143987078081
 20
29.92213216359107
 30
0.0
 11
27.55143987078081
 21
31.11394318699088
 31
0.0
  0
LWPOLYLINE
  5
5D9
330
1E
100
AcDbEntity
  8
OBJECT
100
AcDbPolyline
 90
        8
 70
     0
 43
0.0
 10
27.85739262428096
 20
29.92213216359107
 10
27.42954223428258
 20
29.92213216359107
 10
27.42954223428258
 20
29.57463216359107
 42
-0.2274869964476968
 10
27.67939262428096
 20
29.19090010999912
 10
27.67939262428096
 20
24.39586421718215
 42
-0.2274869964476954
 10
27.42954223428258
 20
24.01213216359107
 10
27.42954223428258
 20
23.67644318699088
 10
27.85739262428096
 20
23.67644318699088
  0
LINE
  5
5E3
330
1E
100
AcDbEntity
  8
OBJECT
100
AcDbLine
 10
27.68923514378075
 20
22.48463216359107
 30
0.0
 11
27.68923514378075
 21
23.67644318699088
 31
0.0
  0
LINE
  5
5E4
330
1E
100
AcDbEntity
  8
OBJECT
100
AcDbLine
 10
27.55143987078081
 20
22.48463216359107
 30
0.0
 11
27.55143987078081
 21
23.67644318699088
 31
0.0
  0
LWPOLYLINE
  5
5E5
330
1E
100
AcDbEntity
  8
OBJECT
100
AcDbPolyline
 90
        8
 70
     0
 43
0.0
 10
27.85739262428096
 20
16.23894318699088
 10
27.42954223428258
 20
16.23894318699088
 10
27.42954223428258
 20
16.57463216359108
 42
0.2274869964476954
 10
27.67939262428096
 20
16.95836421718216
 10
27.67939262428269
 20
21.75340010998588
 42
0.2274869964476968
 10
27.42954223428258
 20
22.13713216359108
 10
27.42954223428258
 20
22.48463216359107
 10
27.85739262428096
 20
22.48463216359107
  0
LINE
  5
5EF
330
1E
100
AcDbEntity
  8
OBJECT
100
AcDbLine
 10
27.55143987078081
 20
15.04713216359107
 30
0.0
 11
27.55143987078081
 21
16.23894318699088
 31
0.0
  0
LINE
  5
5F0
330
1E
100
AcDbEntity
  8
OBJECT
100
AcDbLine
 10
27.68923514378075
 20
15.04713216359107
 30
0.0
 11
27.68923514378075
 21
16.23894318699088
 31
0.0
  0
LINE
  5
5F1
330
1E
100
AcDbEntity
  8
OBJECT
100
AcDbLine
 10
63.63451569709134
 20
38.88025066729058
 30
0.0
 11
63.49051081894446
 21
38.23048727504222
 31
0.0
  0
LWPOLYLINE
  5
5F2
330
1E
100
AcDbEntity
  8
DIM
100
AcDbPolyline
 90
        4
 70
     0
 10
40.97876705110343
 20
14.77426006287149
 40
0.0
 41
0.3712500000000001
 10
41.37393991438716
 20
13.86654953185174
 40
0.0
 41
0.0
 10
42.28590901808557
 20
11.77176004526362
 40
0.0
 41
0.0
 10
43.27169625207757
 20
11.77176004526362
 40
0.0
 41
0.0
  0
TEXT
  5
5F8
330
1E
100
AcDbEntity
  8
DIM
100
AcDbText
 10
43.76458986907358
 20
11.43426004526362
 30
0.0
 40
0.675
  1
0.570 [14] DIA. BOSS 
 41
0.75
  7
TXT
 11
43.76458986907358
 21
11.77176004526362
 31
0.0
100
AcDbText
 73
     2
  0
TEXT
  5
5F9
330
1E
100
AcDbEntity
  8
DIM
100
AcDbText
 10
43.76458986907358
 20
10.32593398149066
 30
0.0
 40
0.675
  1
WITH M5 x 0.8mm
 41
0.75
  7
TXT
 11
43.76458986907358
 21
10.66343398149066
 31
0.0
100
AcDbText
 73
     2
  0
TEXT
  5
5FA
330
1E
100
AcDbEntity
  8
DIM
100
AcDbText
 10
43.76458986907358
 20
9.217607917717714
 30
0.0
 40
0.675
  1
THREADED BRASS INSERT
 41
0.75
  7
TXT
 11
43.76458986907358
 21
9.555107917717714
 31
0.0
100
AcDbText
 73
     2
  0
TEXT
  5
5FB
330
1E
100
AcDbEntity
  8
DIM
100
AcDbText
 10
43.76458986907358
 20
8.109281853944782
 30
0.0
 40
0.675
  1
(4) PLACES
 41
0.75
  7
TXT
 11
43.76458986907358
 21
8.446781853944782
 31
0.0
100
AcDbText
 73
     2
  0
TEXT
  5
5FC
330
1E
100
AcDbEntity
  8
TEXT
100
AcDbText
 10
24.90434942194482
 20
2.87742423547332
 30
0.0
 40
0.6864000000000001
  1
A
 41
0.75
  7
TXT
 72
     4
 11
25.07594942194482
 21
3.220624235473319
 31
0.0
100
AcDbText
  0
TEXT
  5
5FD
330
1E
100
AcDbEntity
  8
TEXT
100
AcDbText
 10
28.28060315864714
 20
2.87742423547332
 30
0.0
 40
0.6864000000000001
  1
B
 41
0.75
  7
TXT
 72
     4
 11
28.45220315864715
 21
3.220624235473319
 31
0.0
100
AcDbText
  0
TEXT
  5
5FE
330
1E
100
AcDbEntity
  8
TEXT
100
AcDbText
 10
31.70359247899234
 20
2.87742423547332
 30
0.0
 40
0.6864000000000001
  1
C
 41
0.75
  7
TXT
 72
     4
 11
31.87519247899234
 21
3.220624235473319
 31
0.0
100
AcDbText
  0
TEXT
  5
5FF
330
1E
100
AcDbEntity
  8
TEXT
100
AcDbText
 10
35.1733187829944
 20
2.87742423547332
 30
0.0
 40
0.6864000000000001
  1
D
 41
0.75
  7
TXT
 72
     4
 11
35.34491878299439
 21
3.220624235473319
 31
0.0
100
AcDbText
  0
TEXT
  5
600
330
1E
100
AcDbEntity
  8
TEXT
100
AcDbText
 10
38.53696979880368
 20
2.87742423547332
 30
0.0
 40
0.6864000000000001
  1
E
 41
0.75
  7
TXT
 72
     4
 11
38.70856979880368
 21
3.220624235473319
 31
0.0
100
AcDbText
  0
TEXT
  5
601
330
1E
100
AcDbEntity
  8
TEXT
100
AcDbText
 10
41.95637118978182
 20
2.87742423547332
 30
0.0
 40
0.6864000000000001
  1
F
 41
0.75
  7
TXT
 72
     4
 11
42.12797118978182
 21
3.220624235473319
 31
0.0
100
AcDbText
  0
TEXT
  5
602
330
1E
100
AcDbEntity
  8
TEXT
100
AcDbText
 10
45.40272888476855
 20
2.87742423547332
 30
0.0
 40
0.6864000000000001
  1
G
 41
0.75
  7
TXT
 72
     4
 11
45.57432888476855
 21
3.220624235473319
 31
0.0
100
AcDbText
  0
TEXT
  5
603
330
1E
100
AcDbEntity
  8
TEXT
100
AcDbText
 10
48.83289593105233
 20
2.87742423547332
 30
0.0
 40
0.6864000000000001
  1
H
 41
0.75
  7
TXT
 72
     4
 11
49.00449593105233
 21
3.220624235473319
 31
0.0
100
AcDbText
  0
TEXT
  5
604
330
1E
100
AcDbEntity
  8
TEXT
100
AcDbText
 10
52.23610620613712
 20
2.87742423547332
 30
0.0
 40
0.6864000000000001
  1
J
 41
0.75
  7
TXT
 72
     4
 11
52.40770620613712
 21
3.220624235473319
 31
0.0
100
AcDbText
  0
TEXT
  5
605
330
1E
100
AcDbEntity
  8
TEXT
100
AcDbText
 10
55.66627325086376
 20
2.87742423547332
 30
0.0
 40
0.6864000000000001
  1
K
 41
0.75
  7
TXT
 72
     4
 11
55.83787325086375
 21
3.220624235473319
 31
0.0
100
AcDbText
  0
TEXT
  5
606
330
1E
100
AcDbEntity
  8
TEXT
100
AcDbText
 10
59.10186529210199
 20
2.87742423547332
 30
0.0
 40
0.6864000000000001
  1
L
 41
0.75
  7
TXT
 72
     4
 11
59.27346529210199
 21
3.220624235473319
 31
0.0
100
AcDbText
  0
TEXT
  5
607
330
1E
100
AcDbEntity
  8
TEXT
100
AcDbText
 10
62.49247307911033
 20
2.87742423547332
 30
0.0
 40
0.6864000000000001
  1
M
 41
0.75
  7
TXT
 72
     4
 11
62.66407307911034
 21
3.220624235473319
 31
0.0
100
AcDbText
  0
TEXT
  5
608
330
1E
100
AcDbEntity
  8
TEXT
100
AcDbText
 10
65.89209495763755
 20
2.87742423547332
 30
0.0
 40
0.6864000000000001
  1
N
 41
0.75
  7
TXT
 72
     4
 11
66.06369495763755
 21
3.220624235473319
 31
0.0
100
AcDbText
  0
TEXT
  5
609
330
1E
100
AcDbEntity
  8
TEXT
100
AcDbText
 10
69.31867314173077
 20
2.87742423547332
 30
0.0
 40
0.6864000000000001
  1
P
 41
0.75
  7
TXT
 72
     4
 11
69.49027314173076
 21
3.220624235473319
 31
0.0
100
AcDbText
  0
TEXT
  5
60A
330
1E
100
AcDbEntity
  8
TEXT
100
AcDbText
 10
72.74166316208291
 20
2.87742423547332
 30
0.0
 40
0.6864000000000001
  1
R
 41
0.75
  7
TXT
 72
     4
 11
72.91326316208291
 21
3.220624235473319
 31
0.0
100
AcDbText
  0
TEXT
  5
60B
330
1E
100
AcDbEntity
  8
TEXT
100
AcDbText
 10
76.16824134461881
 20
2.87742423547332
 30
0.0
 40
0.6864000000000001
  1
S
 41
0.75
  7
TXT
 72
     4
 11
76.3398413446188
 21
3.220624235473319
 31
0.0
100
AcDbText
  0
TEXT
  5
60C
330
1E
100
AcDbEntity
  8
TEXT
100
AcDbText
 10
79.56427412658164
 20
2.87742423547332
 30
0.0
 40
0.6864000000000001
  1
T
 41
0.75
  7
TXT
 72
     4
 11
79.73587412658163
 21
3.220624235473319
 31
0.0
100
AcDbText
  0
TEXT
  5
60D
330
1E
100
AcDbEntity
  8
TEXT
100
AcDbText
 10
83.06279380173675
 20
2.87742423547332
 30
0.0
 40
0.6864000000000001
  1
U
 41
0.75
  7
TXT
 72
     4
 11
83.23439380173674
 21
3.220624235473319
 31
0.0
100
AcDbText
  0
TEXT
  5
60E
330
1E
100
AcDbEntity
  8
TEXT
100
AcDbText
 10
64.11447490978108
 20
50.72806422018349
 30
0.0
 40
0.6864000000000001
  1
INTERNAL HINGED PANEL MOUNTING BRACKETS,
 41
0.75
  7
TXT
100
AcDbText
  0
TEXT
  5
60F
330
1E
100
AcDbEntity
  8
TEXT
100
AcDbText
 10
64.11447490978108
 20
49.58406422018351
 30
0.0
 40
0.6864000000000001
  1
STAINLESS STEEL LOCKING HASP,
 41
0.75
  7
TXT
100
AcDbText
  0
LINE
  5
610
330
1E
100
AcDbEntity
  8
TITLE
100
AcDbLine
 10
84.90899999999998
 20
2.645403287460405
 30
0.0
 11
0.340999999999994
 21
2.645403287460405
 31
0.0
  0
LINE
  5
611
330
1E
100
AcDbEntity
  8
TITLE
100
AcDbLine
 10
84.90899999999998
 20
3.797018348622488
 30
0.0
 11
23.34100000000001
 21
3.79701834862247
 31
0.0
  0
LINE
  5
612
330
1E
100
AcDbEntity
  8
TITLE
100
AcDbLine
 10
23.34100000000001
 20
4.948633409784553
 30
0.0
 11
0.3410000000000011
 21
4.948633409784557
 31
0.0
  0
TEXT
  5
613
330
1E
100
AcDbEntity
  8
TEXT
100
AcDbText
 10
0.687276913025078
 20
1.136503740303879
 30
0.0
 40
0.6880256116207951
  1
NBB-10253
 41
0.75
  7
TXT
 72
     1
 11
2.794355348613763
 21
1.136503740303879
 31
0.0
100
AcDbText
  0
TEXT
  5
614
330
1E
100
AcDbEntity
  8
TEXT
100
AcDbText
 10
1.504307326824772
 20
2.866964694850091
 30
0.0
 40
0.6880256116207951
  1
COVER
 41
0.75
  7
TXT
 72
     1
 11
2.794355348613763
 21
2.866964694850091
 31
0.0
100
AcDbText
  0
TEXT
  5
615
330
1E
100
AcDbEntity
  8
TEXT
100
AcDbText
 10
1.67631372972997
 20
4.041422189094481
 30
0.0
 40
0.6880256116207951
  1
SOLID
 41
0.75
  7
TXT
 72
     1
 11
2.794355348613763
 21
4.041422189094481
 31
0.0
100
AcDbText
  0
TEXT
  5
616
330
1E
100
AcDbEntity
  8
TEXT
100
AcDbText
 10
3.684352663452657
 20
5.187915976183576
 30
0.0
 40
0.6880256116207951
  1
PART NO.
 41
0.75
  7
TXT
 72
     1
 11
5.490419893957245
 21
5.187915976183576
 31
0.0
100
AcDbText
  0
TEXT
  5
617
330
1E
100
AcDbEntity
  8
TEXT
100
AcDbText
 10
6.545856544285442
 20
2.866964694850091
 30
0.0
 40
0.6880256116207951
  1
COVER
 41
0.75
  7
TXT
 72
     1
 11
7.835904566074432
 21
2.866964694850091
 31
0.0
100
AcDbText
  0
TEXT
  5
618
330
1E
100
AcDbEntity
  8
TEXT
100
AcDbText
 10
6.631859745738041
 20
4.041422189094481
 30
0.0
 40
0.6880256116207951
  1
CLEAR
 41
0.75
  7
TXT
 72
     1
 11
7.835904566074432
 21
4.041422189094481
 31
0.0
100
AcDbText
  0
TEXT
  5
619
330
1E
100
AcDbEntity
  8
TEXT
100
AcDbText
 10
5.728826130485748
 20
1.136503740303879
 30
0.0
 40
0.6880256116207951
  1
NBB-10273
 41
0.75
  7
TXT
 72
     1
 11
7.835904566074432
 21
1.136503740303879
 31
0.0
100
AcDbText
  0
LINE
  5
61A
330
1E
100
AcDbEntity
  8
TITLE
100
AcDbLine
 10
84.90899999999998
 20
6.100248470946645
 30
0.0
 11
0.340999999999994
 21
6.100248470946645
 31
0.0
  0
TEXT
  5
61B
330
1E
100
AcDbEntity
  8
TEXT
100
AcDbText
 10
47.97924999999995
 20
4.519633409784603
 30
0.0
 40
0.8580000000000001
  1
DIMENSIONS
 41
0.75
  7
TXT
 72
     4
 11
50.87499999999995
 21
4.948633409784603
 31
0.0
100
AcDbText
  0
TEXT
  5
61C
330
1E
100
AcDbEntity
  8
TEXT
100
AcDbText
 10
12.91858333333333
 20
53.71116666666665
 30
0.0
 40
0.9166666666666667
  1
NON-METALLIC ENCLOSURE (STYLE B)
 41
0.75
  7
TXT
 72
     4
 11
23.46025
 21
54.16949999999999
 31
0.0
100
AcDbText
  0
TEXT
  5
61D
330
1E
100
AcDbEntity
  8
TEXT
100
AcDbText
 10
51.01891666666663
 20
53.71116666666668
 30
0.0
 40
0.9166666666666667
  1
NBB-10253 & NBB-10273 & NBB-15253 & NBB-22253
 41
0.75
  7
TXT
 72
     4
 11
65.91474999999997
 21
54.16950000000001
 31
0.0
100
AcDbText
  0
TEXT
  5
61E
330
1E
100
AcDbEntity
  8
TEXT
100
AcDbText
 10
61.71611958555139
 20
9.766086748531618
 30
0.0
 40
0.6887614678899085
  1
DIMENSIONS =
 41
0.75
  7
TXT
100
AcDbText
  0
TEXT
  5
61F
330
1E
100
AcDbEntity
  8
TEXT
100
AcDbText
 10
69.3832387408125
 20
10.35714599840659
 30
0.0
 40
0.6887614678899085
  1
INCHES
 41
0.75
  7
TXT
 72
     1
 11
70.76076167659232
 21
10.35714599840659
 31
0.0
100
AcDbText
  0
TEXT
  5
620
330
1E
100
AcDbEntity
  8
TEXT
100
AcDbText
 10
67.83352543806021
 20
9.209210218590074
 30
0.0
 40
0.6887614678899085
  1
[MILLIMETERS]
 41
0.75
  7
TXT
 72
     1
 11
70.76076167659232
 21
9.209210218590074
 31
0.0
100
AcDbText
  0
TEXT
  5
621
330
1E
100
AcDbEntity
  8
TEXT
100
AcDbText
 10
69.32115055616981
 20
41.11183204712038
 30
0.0
 40
0.6887614678899085
  1
(4) WALL MOUNTING BRKTS.
 41
0.75
  7
TXT
100
AcDbText
  0
TEXT
  5
622
330
1E
100
AcDbEntity
  8
TEXT
100
AcDbText
 10
69.32115055616981
 20
38.81596048748736
 30
0.0
 40
0.6887614678899085
  1
HD. MACHINE SCREWS (NOT SHOWN)
 41
0.75
  7
TXT
100
AcDbText
  0
TEXT
  5
623
330
1E
100
AcDbEntity
  8
TEXT
100
AcDbText
 10
64.11447490978108
 20
48.4400642201835
 30
0.0
 40
0.6887614678899085
  1
AIR AND MOISTURE VENTS AND GALVANIZED
 41
0.75
  7
TXT
100
AcDbText
  0
TEXT
  5
624
330
1E
100
AcDbEntity
  8
TEXT
100
AcDbText
 10
64.11447490978108
 20
47.29507716472576
 30
0.0
 40
0.6887614678899085
  1
STEEL INTERNAL PANEL ARE NOT INCLUDED,
 41
0.75
  7
TXT
100
AcDbText
  0
TEXT
  5
625
330
1E
100
AcDbEntity
  8
TEXT
100
AcDbText
 10
64.11447490978108
 20
46.13977752293579
 30
0.0
 40
0.6887614678899085
  1
BUT CAN BE PURCHASED SEPARATELY.
 41
0.75
  7
TXT
100
AcDbText
  0
TEXT
  5
626
330
1E
100
AcDbEntity
  8
TEXT
100
AcDbText
 10
66.59007604748069
 20
42.20091610524364
 30
0.0
 40
0.6887614678899085
  1
%%UNOTE:%%u UNIT COMES COMPLETE WITH
 41
0.75
  7
TXT
100
AcDbText
  0
TEXT
  5
627
330
1E
100
AcDbEntity
  8
TEXT
100
AcDbText
 10
0.6938435485566288
 20
30.43669703746485
 30
0.0
 40
0.675
  1
%%UINDUSTRY STANDARDS:
 41
0.75
  7
TXT
100
AcDbText
  0
TEXT
  5
628
330
1E
100
AcDbEntity
  8
TEXT
100
AcDbText
 10
1.381343548556628
 20
28.14082547783181
 30
0.0
 40
0.675
  1
UL508 TYPE 1, 2, 3, 3R, 4, 4X INDOOR, 12 & 13
 41
0.75
  7
TXT
100
AcDbText
  0
TEXT
  5
629
330
1E
100
AcDbEntity
  8
TEXT
100
AcDbText
 10
1.381343548556628
 20
26.99288969801531
 30
0.0
 40
0.675
  1
NEMA TYPE 1, 2, 3, 3R, 4, 4X, 12 & 13
 41
0.75
  7
TXT
100
AcDbText
  0
TEXT
  5
62A
330
1E
100
AcDbEntity
  8
TEXT
100
AcDbText
 10
1.381343548556628
 20
25.8449539181988
 30
0.0
 40
0.675
  1
IEC529-IP65
 41
0.75
  7
TXT
100
AcDbText
  0
TEXT
  5
62B
330
1E
100
AcDbEntity
  8
TEXT
100
AcDbText
 10
13.77356232948182
 20
48.43530773539456
 30
0.0
 40
0.6887614678899085
  1
UL94-5VB FLAMMABILITY RATING
 41
0.75
  7
TXT
100
AcDbText
  0
TEXT
  5
62D
330
1E
100
AcDbEntity
  8
TEXT
100
AcDbText
 10
61.71611958555139
 20
7.549434620985719
 30
0.0
 40
0.6887614678899085
  1
%%UNOTE%%U: ALL DIMENSIONS HAVE %%P0.039 [%%P1] TOLERANCE
 41
0.75
  7
TXT
100
AcDbText
  0
TEXT
  5
62E
330
1E
100
AcDbEntity
  8
TEXT
100
AcDbText
 10
63.92362724315965
 20
6.433138453172258
 30
0.0
 40
0.6887614678899085
  1
 UNLESS OTHERWISE SPECIFIED
 41
0.75
  7
TXT
100
AcDbText
  0
LINE
  5
62F
330
1E
100
AcDbEntity
  8
TITLE
100
AcDbLine
 10
84.90899999999998
 20
1.493788226298317
 30
0.0
 11
23.34100000000001
 21
1.493788226298316
 31
0.0
  0
TEXT
  5
630
330
1E
100
AcDbEntity
  8
TEXT
100
AcDbText
 10
13.77356232948182
 20
45.4161726485232
 30
0.0
 40
0.6887614678899085
  1
UL94V-0 FLAMMABILITY RATING
 41
0.75
  7
TXT
100
AcDbText
  0
LINE
  5
631
330
1E
100
AcDbEntity
  8
TITLE
100
AcDbLine
 10
10.341
 20
0.3410000000000064
 30
0.0
 11
10.34100000000002
 21
8.403478593270788
 31
0.0
  0
LINE
  5
632
330
1E
100
AcDbEntity
  8
TITLE
100
AcDbLine
 10
5.341000000000008
 20
0.3410000000000064
 30
0.0
 11
5.341000000000029
 21
4.948633409784557
 31
0.0
  0
LINE
  5
633
330
1E
100
AcDbEntity
  8
TITLE
100
AcDbLine
 10
23.34100000000001
 20
8.403478593270783
 30
0.0
 11
0.3410000000000011
 21
8.403478593270788
 31
0.0
  0
TEXT
  5
634
330
1E
100
AcDbEntity
  8
TEXT
100
AcDbText
 10
3.171236375130388
 20
7.49626737258074
 30
0.0
 40
0.6880256116207951
  1
UL LISTED
 41
0.75
  7
TXT
 72
     1
 11
5.321316411445373
 21
7.49626737258074
 31
0.0
100
AcDbText
  0
TEXT
  5
635
330
1E
100
AcDbEntity
  8
TEXT
100
AcDbText
 10
1.881188353341398
 20
6.321809878336352
 30
0.0
 40
0.6880256116207951
  1
INDOOR VERSION
 41
0.75
  7
TXT
 72
     1
 11
5.321316411445373
 21
6.321809878336352
 31
0.0
100
AcDbText
  0
TEXT
  5
636
330
1E
100
AcDbEntity
  8
TEXT
100
AcDbText
 10
13.0774447015199
 20
2.866964694850071
 30
0.0
 40
0.6880256116207951
  1
COVER
 41
0.75
  7
TXT
 72
     1
 11
14.36749272330889
 21
2.866964694850071
 31
0.0
100
AcDbText
  0
TEXT
  5
637
330
1E
100
AcDbEntity
  8
TEXT
100
AcDbText
 10
12.21741268699388
 20
1.136503740303879
 30
0.0
 40
0.6880256116207951
  1
NBB-15253
 41
0.75
  7
TXT
 72
     1
 11
14.36749272330887
 21
1.136503740303879
 31
0.0
100
AcDbText
  0
TEXT
  5
638
330
1E
100
AcDbEntity
  8
TEXT
100
AcDbText
 10
13.2494511044251
 20
4.041422189094463
 30
0.0
 40
0.6880256116207951
  1
SOLID
 41
0.75
  7
TXT
 72
     1
 11
14.36749272330889
 21
4.041422189094463
 31
0.0
100
AcDbText
  0
TEXT
  5
639
330
1E
100
AcDbEntity
  8
TEXT
100
AcDbText
 10
10.58335185939452
 20
6.321809878336335
 30
0.0
 40
0.6880256116207951
  1
OUTDOOR VERSION
 41
0.75
  7
TXT
 72
     1
 11
14.36749272330889
 21
6.321809878336335
 31
0.0
100
AcDbText
  0
TEXT
  5
63A
330
1E
100
AcDbEntity
  8
TEXT
100
AcDbText
 10
12.2174126869939
 20
7.49626737258073
 30
0.0
 40
0.6880256116207951
  1
UL LISTED
 41
0.75
  7
TXT
 72
     1
 11
14.36749272330889
 21
7.49626737258073
 31
0.0
100
AcDbText
  0
TEXT
  5
63B
330
1E
100
AcDbEntity
  8
TEXT
100
AcDbText
 10
12.5614254928043
 20
5.187915976183537
 30
0.0
 40
0.6880256116207951
  1
PART NO.
 41
0.75
  7
TXT
 72
     1
 11
14.36749272330889
 21
5.187915976183537
 31
0.0
100
AcDbText
  0
TEXT
  5
63C
330
1E
100
AcDbEntity
  8
TEXT
100
AcDbText
 10
1.381343548556628
 20
29.28876125764834
 30
0.0
 40
0.675
  1
%%uUL LISTED INDOOR VERSION
 41
0.75
  7
TXT
100
AcDbText
  0
TEXT
  5
63D
330
1E
100
AcDbEntity
  8
TEXT
100
AcDbText
 10
1.381343548556628
 20
21.62012832987735
 30
0.0
 40
0.675
  1
NEMA TYPE 1, 2, 3, 3R, 4, 4X, 12 & 13
 41
0.75
  7
TXT
100
AcDbText
  0
TEXT
  5
63E
330
1E
100
AcDbEntity
  8
TEXT
100
AcDbText
 10
1.381343548556628
 20
22.76806410969386
 30
0.0
 40
0.675
  1
UL508 TYPE 1, 2, 3, 3R, 4, 4X, 12 & 13
 41
0.75
  7
TXT
100
AcDbText
  0
TEXT
  5
63F
330
1E
100
AcDbEntity
  8
TEXT
100
AcDbText
 10
1.381343548556628
 20
23.91599988951038
 30
0.0
 40
0.675
  1
%%uUL LISTED OUTDOOR VERSION
 41
0.75
  7
TXT
100
AcDbText
  0
TEXT
  5
640
330
1E
100
AcDbEntity
  8
TEXT
100
AcDbText
 10
1.381343548556628
 20
20.47219255006083
 30
0.0
 40
0.675
  1
IEC529-IP65
 41
0.75
  7
TXT
100
AcDbText
  0
TEXT
  5
641
330
1E
100
AcDbEntity
  8
TEXT
100
AcDbText
 10
13.77356232948182
 20
46.56410842833971
 30
0.0
 40
0.6887614678899085
  1
POLYCARBONATE PLASTIC
 41
0.75
  7
TXT
100
AcDbText
  0
LINE
  5
642
330
1E
100
AcDbEntity
  8
TEXT
100
AcDbLine
 10
45.22432928854302
 20
46.50746354527362
 30
0.0
 11
46.58001676911474
 21
46.50746354527361
 31
0.0
  0
LINE
  5
643
330
1E
100
AcDbEntity
  8
TEXT
100
AcDbLine
 10
42.01749030936619
 20
47.65539932509012
 30
0.0
 11
46.58001676911474
 21
47.65539932509012
 31
0.0
  0
LINE
  5
644
330
1E
100
AcDbEntity
  8
TEXT
100
AcDbLine
 10
36.67275905984321
 20
50.72412844036697
 30
0.0
 11
46.58001676911474
 21
50.72412844036697
 31
0.0
  0
TEXT
  5
645
330
1E
100
AcDbEntity
  8
TEXT
100
AcDbText
 10
46.92376676911473
 20
49.57619266055046
 30
0.0
 40
0.6887614678899085
  1
LIGHT GRAY OR CLEAR
 41
0.75
  7
TXT
100
AcDbText
  0
TEXT
  5
646
330
1E
100
AcDbEntity
  8
TEXT
100
AcDbText
 10
13.77356232948182
 20
49.58324351521108
 30
0.0
 40
0.6887614678899085
  1
ABS/PC BLENDED PLASTIC
 41
0.75
  7
TXT
100
AcDbText
  0
LINE
  5
647
330
1E
100
AcDbEntity
  8
TEXT
100
AcDbLine
 10
8.031677132717895
 20
46.56410842833971
 30
0.0
 11
13.42981232948182
 21
46.5641084283397
 31
0.0
  0
TEXT
  5
648
330
1E
100
AcDbEntity
  8
TEXT
100
AcDbText
 10
33.65160054455309
 20
46.50746354527362
 30
0.0
 40
0.6887614678899085
  1
WALL MOUNTING BRACKETS
 41
0.75
  7
TXT
100
AcDbText
  0
LINE
  5
649
330
1E
100
AcDbEntity
  8
TEXT
100
AcDbLine
 10
37.33448772168781
 20
49.57619266055046
 30
0.0
 11
46.58001676911474
 21
49.57619266055046
 31
0.0
  0
TEXT
  5
64A
330
1E
100
AcDbEntity
  8
TEXT
100
AcDbText
 10
33.65160054455309
 20
47.65539932509012
 30
0.0
 40
0.6887614678899085
  1
LATCHES & HINGES
 41
0.75
  7
TXT
100
AcDbText
  0
TEXT
  5
64B
330
1E
100
AcDbEntity
  8
TEXT
100
AcDbText
 10
2.035652050166568
 20
49.58324351521108
 30
0.0
 40
0.6887614678899085
  1
SOLID BODY & COVER
 41
0.75
  7
TXT
100
AcDbText
  0
TEXT
  5
64C
330
1E
100
AcDbEntity
  8
TEXT
100
AcDbText
 10
2.035652050166568
 20
46.56410842833971
 30
0.0
 40
0.6887614678899085
  1
CLEAR COVER
 41
0.75
  7
TXT
100
AcDbText
  0
TEXT
  5
64D
330
1E
100
AcDbEntity
  8
TEXT
100
AcDbText
 10
34.49835648979949
 20
49.57619266055046
 30
0.0
 40
0.6887614678899085
  1
COVER
 41
0.75
  7
TXT
100
AcDbText
  0
TEXT
  5
64E
330
1E
100
AcDbEntity
  8
TEXT
100
AcDbText
 10
1.188896104920161
 20
50.7311792950276
 30
0.0
 40
0.6887614678899085
  1
%%UUL LISTED INDOOR VERSION
 41
0.75
  7
TXT
100
AcDbText
  0
TEXT
  5
64F
330
1E
100
AcDbEntity
  8
TEXT
100
AcDbText
 10
34.49835648979949
 20
50.72412844036697
 30
0.0
 40
0.6887614678899085
  1
BODY
 41
0.75
  7
TXT
100
AcDbText
  0
TEXT
  5
650
330
1E
100
AcDbEntity
  8
TEXT
100
AcDbText
 10
33.65160054455309
 20
51.87206422018348
 30
0.0
 40
0.6887614678899085
  1
%%UFINISH:
 41
0.75
  7
TXT
100
AcDbText
  0
LINE
  5
651
330
1E
100
AcDbEntity
  8
TEXT
100
AcDbLine
 10
11.54029158594177
 20
49.58324351521108
 30
0.0
 11
13.42981232948182
 21
49.58324351521108
 31
0.0
  0
TEXT
  5
652
330
1E
100
AcDbEntity
  8
TEXT
100
AcDbText
 10
46.92376676911473
 20
46.50746354527355
 30
0.0
 40
0.6887614678899085
  1
STAINLESS STEEL
 41
0.75
  7
TXT
100
AcDbText
  0
TEXT
  5
653
330
1E
100
AcDbEntity
  8
TEXT
100
AcDbText
 10
46.92376676911473
 20
47.65539932509012
 30
0.0
 40
0.6887614678899085
  1
NON-METALLIC
 41
0.75
  7
TXT
100
AcDbText
  0
TEXT
  5
654
330
1E
100
AcDbEntity
  8
TEXT
100
AcDbText
 10
46.92376676911472
 20
50.72412844036697
 30
0.0
 40
0.6887614678899085
  1
LIGHT GRAY
 41
0.75
  7
TXT
100
AcDbText
  0
TEXT
  5
655
330
1E
100
AcDbEntity
  8
TEXT
100
AcDbText
 10
0.9521111111111224
 20
51.87206422018348
 30
0.0
 40
0.6887614678899085
  1
%%UMATERIAL:
 41
0.75
  7
TXT
100
AcDbText
  0
TEXT
  5
657
330
1E
100
AcDbEntity
  8
TEXT
100
AcDbText
 10
13.77356232948182
 20
44.27548111542668
 30
0.0
 40
0.6887614678899085
  1
UV STABILIZED
 41
0.75
  7
TXT
100
AcDbText
  0
TEXT
  5
658
330
1E
100
AcDbEntity
  8
TEXT
100
AcDbText
 10
13.77356232948182
 20
40.32814736528403
 30
0.0
 40
0.6887614678899085
  1
UL94-5VA FLAMMABILITY RATING
 41
0.75
  7
TXT
100
AcDbText
  0
TEXT
  5
65A
330
1E
100
AcDbEntity
  8
TEXT
100
AcDbText
 10
13.77356232948182
 20
39.1465147744347
 30
0.0
 40
0.6887614678899085
  1
UV STABILIZED
 41
0.75
  7
TXT
100
AcDbText
  0
TEXT
  5
65B
330
1E
100
AcDbEntity
  8
TEXT
100
AcDbText
 10
2.035652050166568
 20
41.47608314510054
 30
0.0
 40
0.6887614678899085
  1
SOLID BODY & COVER
 41
0.75
  7
TXT
100
AcDbText
  0
TEXT
  5
65C
330
1E
100
AcDbEntity
  8
TEXT
100
AcDbText
 10
1.188896104920161
 20
42.62401892491708
 30
0.0
 40
0.6887614678899085
  1
%%UUL LISTED OUTDOOR VERSION
 41
0.75
  7
TXT
100
AcDbText
  0
TEXT
  5
65D
330
1E
100
AcDbEntity
  8
TEXT
100
AcDbText
 10
13.77356232948182
 20
41.47608314510054
 30
0.0
 40
0.6887614678899085
  1
PBT/PC BLENDED PLASTIC
 41
0.75
  7
TXT
100
AcDbText
  0
LINE
  5
65E
330
1E
100
AcDbEntity
  8
TEXT
100
AcDbLine
 10
11.50081927086922
 20
41.47608314510054
 30
0.0
 11
13.42981232948182
 21
41.47608314510054
 31
0.0
  0
INSERT
  5
65F
330
1E
100
AcDbEntity
  8
TITLE
100
AcDbBlockReference
  2
HBS
 10
0.0
 20
0.0
 30
0.0
 41
5.5
 42
5.5
 43
5.5
  0
TEXT
  5
660
330
1E
100
AcDbEntity
  8
TEXT
100
AcDbText
 10
30.76058506407842
 20
7.116220184812712
 30
0.0
 40
0.7857142857142858
  1
%%uVIEW LESS COVER
 41
0.75
  7
TXT
 72
     4
 11
35.28826363550699
 21
7.430505899098426
 31
0.0
100
AcDbText
  0
LINE
  5
662
330
1E
100
AcDbEntity
  8
TITLE
100
AcDbLine
 10
18.34099999999999
 20
0.3410000000000064
 30
0.0
 11
18.341
 21
8.403478593270788
 31
0.0
  0
TEXT
  5
663
330
1E
100
AcDbEntity
  8
TEXT
100
AcDbText
 10
0.9521111111111224
 20
32.42464075521235
 30
0.0
 40
0.6887614678899085
  1
COVER INCLUDES GRAY POLYURETHANE GASKET.
 41
0.75
  7
TXT
100
AcDbText
  0
TEXT
  5
664
330
1E
100
AcDbEntity
  8
TEXT
100
AcDbText
 10
69.32115055616981
 20
39.96389626730387
 30
0.0
 40
0.6887614678899085
  1
& (4) M5 x 10mm LG. TRUSS
 41
0.75
  7
TXT
100
AcDbText
  0
TEXT
  5
675
330
1E
100
AcDbEntity
  8
DIM
100
AcDbText
 10
6.971530532085942
 20
8.762621040806871
 30
0.0
 40
0.675
  1
METAL SCREWS x 0.250 [6] LG.  (NOT SUPPLIED)
 41
0.75
  7
TXT
 72
     2
 11
27.55903053208594
 21
9.100121040806872
 31
0.0
100
AcDbText
 73
     2
  0
TEXT
  5
676
330
1E
100
AcDbEntity
  8
DIM
100
AcDbText
 10
7.730905532085948
 20
9.870947104579821
 30
0.0
 40
0.675
  1
BOSSES ACCEPT M5 METRIC OR #10 STD. SHEET
 41
0.75
  7
TXT
 72
     2
 11
27.55903053208594
 21
10.20844710457982
 31
0.0
100
AcDbText
 73
     2
  0
TEXT
  5
677
330
1E
100
AcDbEntity
  8
DIM
100
AcDbText
 10
12.20278053208595
 20
10.97927316835277
 30
0.0
 40
0.675
  1
HOLE x 0.340 [9] DEEP (52) PLACES
 41
0.75
  7
TXT
 72
     2
 11
27.55903053208594
 21
11.31677316835277
 31
0.0
100
AcDbText
 73
     2
  0
TEXT
  5
678
330
1E
100
AcDbEntity
  8
DIM
100
AcDbText
 10
10.34653053208595
 20
12.08759923212572
 30
0.0
 40
0.675
  1
0.472 [12] DIA. BOSS WITH 0.166 [4] DIA.
 41
0.75
  7
TXT
 72
     2
 11
27.55903053208594
 21
12.42509923212572
 31
0.0
100
AcDbText
 73
     2
  0
LWPOLYLINE
  5
679
330
1E
100
AcDbEntity
  8
DIM
100
AcDbPolyline
 90
        4
 70
     0
 10
30.45493234524073
 20
14.53027442138061
 40
0.0
 41
0.3712500000000001
 10
29.82255632977721
 20
13.76856543819446
 40
0.0
 41
0.0
 10
28.22455903958255
 20
11.84374719511769
 40
0.0
 41
0.0
 10
27.73166542258656
 20
11.84374719511769
 40
0.0
 41
0.0
  0
LWPOLYLINE
  5
67F
330
1E
100
AcDbEntity
  8
DIM
100
AcDbPolyline
 90
        4
 70
     0
 10
28.82260809176753
 20
31.97220767818954
 40
0.0
 41
0.3712500000000001
 10
29.35792051079193
 20
32.8049985367118
 40
0.0
 41
0.0
 10
35.13219848652145
 20
41.78810025797933
 40
0.0
 41
0.0
 10
36.11798572051345
 20
41.78810025797933
 40
0.0
 41
0.0
  0
LINE
  5
6B6
330
1E
100
AcDbEntity
  8
TITLE
100
AcDbLine
 10
23.341
 20
0.3410000000000064
 30
0.0
 11
23.34100000000001
 21
8.403478593270785
 31
0.0
  0
TEXT
  5
6BA
330
1E
100
AcDbEntity
  8
TEXT
100
AcDbText
 10
19.17338075149583
 20
6.321809878336335
 30
0.0
 40
0.6880256116207951
  1
VERSION
 41
0.75
  7
TXT
 72
     1
 11
20.89344478054781
 21
6.321809878336335
 31
0.0
100
AcDbText
  0
TEXT
  5
6BB
330
1E
100
AcDbEntity
  8
TEXT
100
AcDbText
 10
20.20541916892702
 20
7.49626737258073
 30
0.0
 40
0.6880256116207951
  1
ABS
 41
0.75
  7
TXT
 72
     1
 11
20.89344478054781
 21
7.49626737258073
 31
0.0
100
AcDbText
  0
TEXT
  5
6BC
330
1E
100
AcDbEntity
  8
TEXT
100
AcDbText
 10
19.08737755004322
 20
5.187915976183537
 30
0.0
 40
0.6880256116207951
  1
PART NO.
 41
0.75
  7
TXT
 72
     1
 11
20.89344478054781
 21
5.187915976183537
 31
0.0
100
AcDbText
  0
TEXT
  5
6BD
330
1E
100
AcDbEntity
  8
TEXT
100
AcDbText
 10
19.77540316166402
 20
4.041422189094463
 30
0.0
 40
0.6880256116207951
  1
SOLID
 41
0.75
  7
TXT
 72
     1
 11
20.89344478054781
 21
4.041422189094463
 31
0.0
100
AcDbText
  0
TEXT
  5
6BE
330
1E
100
AcDbEntity
  8
TEXT
100
AcDbText
 10
19.60339675875882
 20
2.866964694850071
 30
0.0
 40
0.6880256116207951
  1
COVER
 41
0.75
  7
TXT
 72
     1
 11
20.89344478054781
 21
2.866964694850071
 31
0.0
100
AcDbText
  0
TEXT
  5
6BF
330
1E
100
AcDbEntity
  8
TEXT
100
AcDbText
 10
18.65736154278021
 20
1.136503740303879
 30
0.0
 40
0.6880256116207951
  1
NBB-22253
 41
0.75
  7
TXT
 72
     1
 11
20.89344478054779
 21
1.136503740303879
 31
0.0
100
AcDbText
  0
TEXT
  5
6FD
330
1E
100
AcDbEntity
  8
TEXT
100
AcDbText
 10
13.78955513928409
 20
36.55903125171835
 30
0.0
 40
0.6887614678899085
  1
UL94-HB FLAMMABILITY RATING
 41
0.75
  7
TXT
100
AcDbText
  0
TEXT
  5
6FE
330
1E
100
AcDbEntity
  8
TEXT
100
AcDbText
 10
1.403331089671169
 20
38.43747161869085
 30
0.0
 40
0.6887614678899085
  1
%%UABS VERSION
 41
0.75
  7
TXT
100
AcDbText
  0
TEXT
  5
6FF
330
1E
100
AcDbEntity
  8
TEXT
100
AcDbText
 10
2.096131408509137
 20
37.49825143520459
 30
0.0
 40
0.6887614678899085
  1
SOLID BODY & COVER
 41
0.75
  7
TXT
100
AcDbText
  0
LINE
  5
700
330
1E
100
AcDbEntity
  8
TEXT
100
AcDbLine
 10
11.46053521127873
 20
37.49825143520459
 30
0.0
 11
13.42981232948182
 21
37.49825143520459
 31
0.0
  0
TEXT
  5
701
330
1E
100
AcDbEntity
  8
TEXT
100
AcDbText
 10
13.78955513928409
 20
37.49825143520459
 30
0.0
 40
0.6887614678899085
  1
ABS
 41
0.75
  7
TXT
100
AcDbText
  0
LINE
  5
719
330
1E
100
AcDbEntity
  8
TITLE
100
AcDbLine
 10
26.7614
 20
3.797018348622471
 30
0.0
 11
26.76140000000001
 21
0.3410000000000064
 31
0.0
  0
LINE
  5
71A
330
1E
100
AcDbEntity
  8
TITLE
100
AcDbLine
 10
30.1818
 20
3.797018348622472
 30
0.0
 11
30.1818
 21
0.3410000000000064
 31
0.0
  0
LINE
  5
71B
330
1E
100
AcDbEntity
  8
TITLE
100
AcDbLine
 10
33.6022
 20
3.797018348622474
 30
0.0
 11
33.60220000000001
 21
0.3410000000000064
 31
0.0
  0
LINE
  5
71C
330
1E
100
AcDbEntity
  8
TITLE
100
AcDbLine
 10
37.0226
 20
3.797018348622475
 30
0.0
 11
37.02260000000001
 21
0.3410000000000064
 31
0.0
  0
LINE
  5
71D
330
1E
100
AcDbEntity
  8
TITLE
100
AcDbLine
 10
40.44300000000001
 20
3.797018348622476
 30
0.0
 11
40.44300000000002
 21
0.3410000000000064
 31
0.0
  0
LINE
  5
71E
330
1E
100
AcDbEntity
  8
TITLE
100
AcDbLine
 10
43.8634
 20
3.797018348622476
 30
0.0
 11
43.86340000000001
 21
0.3410000000000064
 31
0.0
  0
LINE
  5
71F
330
1E
100
AcDbEntity
  8
TITLE
100
AcDbLine
 10
47.2838
 20
3.797018348622477
 30
0.0
 11
47.2838
 21
0.3410000000000064
 31
0.0
  0
LINE
  5
720
330
1E
100
AcDbEntity
  8
TITLE
100
AcDbLine
 10
50.70419999999999
 20
3.797018348622478
 30
0.0
 11
50.7042
 21
0.3410000000000064
 31
0.0
  0
LINE
  5
721
330
1E
100
AcDbEntity
  8
TITLE
100
AcDbLine
 10
54.1246
 20
3.797018348622479
 30
0.0
 11
54.12460000000001
 21
0.3410000000000064
 31
0.0
  0
LINE
  5
722
330
1E
100
AcDbEntity
  8
TITLE
100
AcDbLine
 10
57.545
 20
3.79701834862248
 30
0.0
 11
57.54500000000001
 21
0.3410000000000064
 31
0.0
  0
LINE
  5
723
330
1E
100
AcDbEntity
  8
TITLE
100
AcDbLine
 10
60.9654
 20
3.797018348622481
 30
0.0
 11
60.96540000000001
 21
0.3410000000000064
 31
0.0
  0
LINE
  5
724
330
1E
100
AcDbEntity
  8
TITLE
100
AcDbLine
 10
64.38579999999999
 20
3.797018348622482
 30
0.0
 11
64.3858
 21
0.3410000000000064
 31
0.0
  0
LINE
  5
725
330
1E
100
AcDbEntity
  8
TITLE
100
AcDbLine
 10
67.8062
 20
3.797018348622483
 30
0.0
 11
67.8062
 21
0.3410000000000064
 31
0.0
  0
LINE
  5
726
330
1E
100
AcDbEntity
  8
TITLE
100
AcDbLine
 10
71.22660000000002
 20
3.797018348622485
 30
0.0
 11
71.22660000000002
 21
0.3410000000000064
 31
0.0
  0
LINE
  5
727
330
1E
100
AcDbEntity
  8
TITLE
100
AcDbLine
 10
74.64699999999999
 20
3.797018348622485
 30
0.0
 11
74.647
 21
0.3410000000000064
 31
0.0
  0
LINE
  5
728
330
1E
100
AcDbEntity
  8
TITLE
100
AcDbLine
 10
78.06740000000001
 20
3.797018348622486
 30
0.0
 11
78.06740000000001
 21
0.3410000000000064
 31
0.0
  0
LINE
  5
729
330
1E
100
AcDbEntity
  8
TITLE
100
AcDbLine
 10
81.4878
 20
3.797018348622487
 30
0.0
 11
81.48780000000002
 21
0.3410000000000064
 31
0.0
  0
MTEXT
  5
72D
330
1E
100
AcDbEntity
  8
TEXT
100
AcDbMText
 10
1.400522945319693
 20
36.18135433874516
 30
0.0
 40
0.6887614678899085
 41
26.482
 71
     1
 72
     5
  1
{\LALL VERSIONS\P}   GASKET               MODIFIED POLYURETHANE
  7
TXT
 73
     1
 44
1.0
  0
LINE
  5
72E
330
1E
100
AcDbEntity
  8
TEXT
100
AcDbLine
 10
6.009343173539832
 20
34.39314928833627
 30
0.0
 11
13.51876153191162
 21
34.39314928833627
 31
0.0
  0
TEXT
  5
86D
330
1E
100
AcDbEntity
  8
TEXT
100
AcDbText
 10
77.8483099587954
 20
-0.8010880105221051
 30
0.0
 40
0.6380000000000001
  1
Revised 26JUN07
 41
0.75
  7
TXT
 72
     4
 11
81.1579349587954
 21
-0.4820880105221051
 31
0.0
100
AcDbText
  0
TEXT
  5
86E
330
1E
100
AcDbEntity
  8
TEXT
100
AcDbText
 10
1.263028228450423
 20
18.44010827373079
 30
0.0
 40
0.675
  1
%%UABS VERSION
 41
0.75
  7
TXT
100
AcDbText
  0
TEXT
  5
86F
330
1E
100
AcDbEntity
  8
TEXT
100
AcDbText
 10
1.263028228450423
 20
17.31510827373079
 30
0.0
 40
0.675
  1
NEMA TYPE 1, 2, 3, 3R, 4, 4X, 12, & 13
 41
0.75
  7
TXT
100
AcDbText
  0
TEXT
  5
870
330
1E
100
AcDbEntity
  8
TEXT
100
AcDbText
 10
1.263028228450423
 20
16.19010827373079
 30
0.0
 40
0.675
  1
IEC529-IP65
 41
0.75
  7
TXT
100
AcDbText
  0
VIEWPORT
  5
6E9
330
1A
100
AcDbEntity
 67
     1
  8
0
100
AcDbViewport
 10
5.302083773875799
 20
3.968749891115924
 30
0.0
 40
14.50588747418466
 41
8.992999745766947
 68
     2
 69
     1
 12
5.302083773875799
 22
3.968749891115924
 13
0.0
 23
0.0
 14
0.5
 24
0.5
 15
0.5
 25
0.5
 16
0.0
 26
0.0
 36
1.0
 17
0.0
 27
0.0
 37
0.0
 42
50.0
 43
0.0
 44
0.0
 45
8.992999745766947
 50
0.0
 51
0.0
 72
   100
 90
    32800
  1

281
     0
 71
     1
 74
     0
110
0.0
120
0.0
130
0.0
111
1.0
121
0.0
131
0.0
112
0.0
122
1.0
132
0.0
 79
     0
146
0.0
  0
VIEWPORT
  5
6EB
330
1A
100
AcDbEntity
 67
     1
  8
TITLE
100
AcDbViewport
 10
5.302083454732819
 20
3.968750125779879
 30
0.0
 40
8.483333527572511
 41
6.350000201247807
 68
     1
 69
     2
 12
42.62500019848812
 22
27.83000012959352
 13
0.0
 23
0.0
 14
1.0
 24
1.0
 15
0.0
 25
0.0
 16
0.0
 26
0.0
 36
1.0
 17
0.0
 27
0.0
 37
0.0
 42
50.0
 43
0.0
 44
0.0
 45
64.55070400711168
 50
0.0
 51
0.0
 72
   100
 90
    32768
  1

281
     0
 71
     1
 74
     0
110
0.0
120
0.0
130
0.0
111
1.0
121
0.0
131
0.0
112
0.0
122
1.0
132
0.0
 79
     0
146
0.0
  0
ENDSEC
  0
SECTION
  2
OBJECTS
  0
DICTIONARY
  5
C
330
0
100
AcDbDictionary
281
     1
  3
ACAD_GROUP
350
D
  3
ACAD_LAYOUT
350
19
  3
ACAD_MLINESTYLE
350
16
  3
ACAD_PLOTSETTINGS
350
18
  3
ACAD_PLOTSTYLENAME
350
E
  0
DICTIONARY
  5
D
102
{ACAD_REACTORS
330
C
102
}
330
C
100
AcDbDictionary
281
     1
  0
DICTIONARY
  5
19
102
{ACAD_REACTORS
330
C
102
}
330
C
100
AcDbDictionary
281
     1
  3
Layout1
350
1D
  3
Model
350
21
  0
DICTIONARY
  5
16
102
{ACAD_REACTORS
330
C
102
}
330
C
100
AcDbDictionary
281
     1
  3
Standard
350
17
  0
DICTIONARY
  5
18
102
{ACAD_REACTORS
330
C
102
}
330
C
100
AcDbDictionary
281
     1
  0
ACDBDICTIONARYWDFLT
  5
E
102
{ACAD_REACTORS
330
C
102
}
330
C
100
AcDbDictionary
281
     1
  3
Normal
350
F
100
AcDbDictionaryWithDefault
340
F
  0
LAYOUT
  5
1D
102
{ACAD_REACTORS
330
19
102
}
330
19
100
AcDbPlotSettings
  1

  2
RICOH Aficio 1060 PCL 5e
  4
Letter
  6

 40
7.143749713897705
 41
5.027085304260253
 42
7.14373779296875
 43
5.027069091796875
 44
215.8999938964843
 45
279.3999938964843
 46
0.0
 47
0.0
 48
0.0
 49
0.0
140
0.0
141
0.0
142
1.0
143
1.0
 70
   688
 72
     0
 73
     1
 74
     5
  7
monochrome.ctb
 75
    16
147
1.0
148
0.0
149
0.0
100
AcDbLayout
  1
Layout1
 70
     1
 71
     1
 10
-0.1979161059762549
 20
-0.2812499887361301
 11
10.80208365372785
 21
8.218749770967978
 12
0.0
 22
0.0
 32
0.0
 14
1.060416690946563
 24
0.7937500251559762
 34
0.0
 15
9.543750218519075
 25
7.143750226403783
 35
0.0
146
0.0
 13
0.0
 23
0.0
 33
0.0
 16
1.0
 26
0.0
 36
0.0
 17
0.0
 27
1.0
 37
0.0
 76
     0
330
1A
331
6EB
  0
LAYOUT
  5
21
102
{ACAD_REACTORS
330
19
102
}
330
19
100
AcDbPlotSettings
  1

  2
RICOH Aficio 1060 PCL 6
  4
Letter
  6

 40
5.027083396911621
 41
5.027085304260253
 42
5.027084350585937
 43
5.027069091796875
 44
215.8999938964843
 45
279.3999938964843
 46
13.71599999999999
 47
0.0
 48
0.0
 49
0.0
140
0.0
141
0.0
142
1.0
143
8.039537826611141
 70
 11956
 72
     0
 73
     1
 74
     1
  7
monochrome.ctb
 75
     0
147
0.1243852596463899
148
0.0330174262901494
149
20.36950291373278
100
AcDbLayout
  1
Model
 70
     1
 71
     0
 10
0.0
 20
0.0
 11
12.0
 21
9.0
 12
0.0
 22
0.0
 32
0.0
 14
0.0
 24
0.0
 34
0.0
 15
0.0
 25
0.0
 35
0.0
146
0.0
 13
0.0
 23
0.0
 33
0.0
 16
1.0
 26
0.0
 36
0.0
 17
0.0
 27
1.0
 37
0.0
 76
     0
330
1E
  0
MLINESTYLE
  5
17
102
{ACAD_REACTORS
330
16
102
}
330
16
100
AcDbMlineStyle
  2
STANDARD
 70
     0
  3

 62
   256
 51
90.0
 52
90.0
 71
     2
 49
0.5
 62
   256
  6
BYLAYER
 49
-0.5
 62
   256
  6
BYLAYER
  0
ACDBPLACEHOLDER
  5
F
102
{ACAD_REACTORS
330
E
102
}
330
E
  0
ENDSEC
  0
EOF
