  0
SECTION
  2
HEADER
  9
$ACADVER
  1
AC1015
  9
$ACADMAINTVER
 70
     6
  9
$DWGCODEPAGE
  3
ANSI_1252
  9
$INSBASE
 10
0.0
 20
0.0
 30
0.0
  9
$EXTMIN
 10
-0.0018919454909536
 20
-0.6582811775659537
 30
-0.0015258207003583
  9
$EXTMAX
 10
62.00189223420093
 20
40.48125549818189
 30
0.0000000349246037
  9
$LIMMIN
 10
0.0
 20
0.0
  9
$LIMMAX
 10
61.99991087502711
 20
40.47994181001769
  9
$ORTHOMODE
 70
     0
  9
$REGENMODE
 70
     1
  9
$FILLMODE
 70
     1
  9
$QTEXTMODE
 70
     0
  9
$MIRRTEXT
 70
     0
  9
$LTSCALE
 40
1.25
  9
$ATTMODE
 70
     1
  9
$TEXTSIZE
 40
0.2
  9
$TRACEWID
 40
0.05
  9
$TEXTSTYLE
  7
TXT
  9
$CLAYER
  8
OBJECT
  9
$CELTYPE
  6
ByLayer
  9
$CECOLOR
 62
   256
  9
$CELTSCALE
 40
1.0
  9
$DISPSILH
 70
     0
  9
$DIMSCALE
 40
4.0
  9
$DIMASZ
 40
0.18
  9
$DIMEXO
 40
0.063
  9
$DIMDLI
 40
0.25
  9
$DIMRND
 40
0.0
  9
$DIMDLE
 40
0.0
  9
$DIMEXE
 40
0.093
  9
$DIMTP
 40
0.0
  9
$DIMTM
 40
0.0
  9
$DIMTXT
 40
0.125
  9
$DIMCEN
 40
0.09
  9
$DIMTSZ
 40
0.0
  9
$DIMTOL
 70
     0
  9
$DIMLIM
 70
     0
  9
$DIMTIH
 70
     1
  9
$DIMTOH
 70
     1
  9
$DIMSE1
 70
     0
  9
$DIMSE2
 70
     0
  9
$DIMTAD
 70
     0
  9
$DIMZIN
 70
     0
  9
$DIMBLK
  1

  9
$DIMASO
 70
     1
  9
$DIMSHO
 70
     1
  9
$DIMPOST
  1

  9
$DIMAPOST
  1

  9
$DIMALT
 70
     1
  9
$DIMALTD
 70
     0
  9
$DIMALTF
 40
25.4
  9
$DIMLFAC
 40
1.0
  9
$DIMTOFL
 70
     0
  9
$DIMTVP
 40
0.0
  9
$DIMTIX
 70
     0
  9
$DIMSOXD
 70
     0
  9
$DIMSAH
 70
     0
  9
$DIMBLK1
  1

  9
$DIMBLK2
  1

  9
$DIMSTYLE
  2
23NSTD
  9
$DIMCLRD
 70
     0
  9
$DIMCLRE
 70
     0
  9
$DIMCLRT
 70
     0
  9
$DIMTFAC
 40
1.0
  9
$DIMGAP
 40
0.09
  9
$DIMJUST
 70
     0
  9
$DIMSD1
 70
     0
  9
$DIMSD2
 70
     0
  9
$DIMTOLJ
 70
     1
  9
$DIMTZIN
 70
     0
  9
$DIMALTZ
 70
     0
  9
$DIMALTTZ
 70
     0
  9
$DIMUPT
 70
     0
  9
$DIMDEC
 70
     3
  9
$DIMTDEC
 70
     3
  9
$DIMALTU
 70
     2
  9
$DIMALTTD
 70
     0
  9
$DIMTXSTY
  7
TXT
  9
$DIMAUNIT
 70
     0
  9
$DIMADEC
 70
     0
  9
$DIMALTRND
 40
0.0
  9
$DIMAZIN
 70
     0
  9
$DIMDSEP
 70
    46
  9
$DIMATFIT
 70
     1
  9
$DIMFRAC
 70
     0
  9
$DIMLDRBLK
  1

  9
$DIMLUNIT
 70
     2
  9
$DIMLWD
 70
    -2
  9
$DIMLWE
 70
    -2
  9
$DIMTMOVE
 70
     0
  9
$LUNITS
 70
     2
  9
$LUPREC
 70
     3
  9
$SKETCHINC
 40
0.1
  9
$FILLETRAD
 40
0.0
  9
$AUNITS
 70
     0
  9
$AUPREC
 70
     0
  9
$MENU
  1
acad
  9
$ELEVATION
 40
0.0
  9
$PELEVATION
 40
0.0
  9
$THICKNESS
 40
0.0
  9
$LIMCHECK
 70
     0
  9
$CHAMFERA
 40
0.0
  9
$CHAMFERB
 40
0.0
  9
$CHAMFERC
 40
0.0
  9
$CHAMFERD
 40
0.0
  9
$SKPOLY
 70
     0
  9
$TDCREATE
 40
2451099.398108680
  9
$TDUCREATE
 40
2451099.564775347
  9
$TDUPDATE
 40
2454306.463711111
  9
$TDUUPDATE
 40
2454306.630377778
  9
$TDINDWG
 40
0.7480784606
  9
$TDUSRTIMER
 40
0.7480784606
  9
$USRTIMER
 70
     1
  9
$ANGBASE
 50
0.0
  9
$ANGDIR
 70
     0
  9
$PDMODE
 70
     0
  9
$PDSIZE
 40
0.0
  9
$PLINEWID
 40
0.0
  9
$SPLFRAME
 70
     0
  9
$SPLINETYPE
 70
     6
  9
$SPLINESEGS
 70
     8
  9
$HANDSEED
  5
9AE
  9
$SURFTAB1
 70
     6
  9
$SURFTAB2
 70
     6
  9
$SURFTYPE
 70
     6
  9
$SURFU
 70
     6
  9
$SURFV
 70
     6
  9
$UCSBASE
  2

  9
$UCSNAME
  2

  9
$UCSORG
 10
0.0
 20
0.0
 30
0.0
  9
$UCSXDIR
 10
1.0
 20
0.0
 30
0.0
  9
$UCSYDIR
 10
0.0
 20
1.0
 30
0.0
  9
$UCSORTHOREF
  2

  9
$UCSORTHOVIEW
 70
     0
  9
$UCSORGTOP
 10
0.0
 20
0.0
 30
0.0
  9
$UCSORGBOTTOM
 10
0.0
 20
0.0
 30
0.0
  9
$UCSORGLEFT
 10
0.0
 20
0.0
 30
0.0
  9
$UCSORGRIGHT
 10
0.0
 20
0.0
 30
0.0
  9
$UCSORGFRONT
 10
0.0
 20
0.0
 30
0.0
  9
$UCSORGBACK
 10
0.0
 20
0.0
 30
0.0
  9
$PUCSBASE
  2

  9
$PUCSNAME
  2

  9
$PUCSORG
 10
0.0
 20
0.0
 30
0.0
  9
$PUCSXDIR
 10
1.0
 20
0.0
 30
0.0
  9
$PUCSYDIR
 10
0.0
 20
1.0
 30
0.0
  9
$PUCSORTHOREF
  2

  9
$PUCSORTHOVIEW
 70
     0
  9
$PUCSORGTOP
 10
0.0
 20
0.0
 30
0.0
  9
$PUCSORGBOTTOM
 10
0.0
 20
0.0
 30
0.0
  9
$PUCSORGLEFT
 10
0.0
 20
0.0
 30
0.0
  9
$PUCSORGRIGHT
 10
0.0
 20
0.0
 30
0.0
  9
$PUCSORGFRONT
 10
0.0
 20
0.0
 30
0.0
  9
$PUCSORGBACK
 10
0.0
 20
0.0
 30
0.0
  9
$USERI1
 70
     0
  9
$USERI2
 70
     0
  9
$USERI3
 70
     0
  9
$USERI4
 70
     0
  9
$USERI5
 70
     0
  9
$USERR1
 40
0.0
  9
$USERR2
 40
0.0
  9
$USERR3
 40
0.0
  9
$USERR4
 40
0.0
  9
$USERR5
 40
0.0
  9
$WORLDVIEW
 70
     1
  9
$SHADEDGE
 70
     3
  9
$SHADEDIF
 70
    70
  9
$TILEMODE
 70
     1
  9
$MAXACTVP
 70
    16
  9
$PINSBASE
 10
0.0
 20
0.0
 30
0.0
  9
$PLIMCHECK
 70
     0
  9
$PEXTMIN
 10
1.000000000000000E+20
 20
1.000000000000000E+20
 30
1.000000000000000E+20
  9
$PEXTMAX
 10
-1.000000000000000E+20
 20
-1.000000000000000E+20
 30
-1.000000000000000E+20
  9
$PLIMMIN
 10
0.0
 20
0.0
  9
$PLIMMAX
 10
12.0
 20
9.0
  9
$UNITMODE
 70
     0
  9
$VISRETAIN
 70
     0
  9
$PLINEGEN
 70
     0
  9
$PSLTSCALE
 70
     1
  9
$TREEDEPTH
 70
  3020
  9
$CMLSTYLE
  2
Standard
  9
$CMLJUST
 70
     0
  9
$CMLSCALE
 40
1.0
  9
$PROXYGRAPHICS
 70
     1
  9
$MEASUREMENT
 70
     0
  9
$CELWEIGHT
370
    -1
  9
$ENDCAPS
280
     0
  9
$JOINSTYLE
280
     0
  9
$LWDISPLAY
290
     0
  9
$INSUNITS
 70
     0
  9
$HYPERLINKBASE
  1

  9
$STYLESHEET
  1
monochrome.ctb
  9
$XEDIT
290
     1
  9
$CEPSNTYPE
380
     0
  9
$PSTYLEMODE
290
     1
  9
$FINGERPRINTGUID
  2
{252BB8F1-86A0-4D59-AF4E-99E222703ABB}
  9
$VERSIONGUID
  2
{0D803FD9-4A14-4B10-8CE2-46B55A45C5E7}
  9
$EXTNAMES
290
     1
  9
$PSVPSCALE
 40
0.0
  9
$OLESTARTUP
290
     0
  0
ENDSEC
  0
SECTION
  2
CLASSES
  0
CLASS
  1
ACDBDICTIONARYWDFLT
  2
AcDbDictionaryWithDefault
  3
AutoCAD 2000
 90
        0
280
     0
281
     0
  0
CLASS
  1
ACDBPLACEHOLDER
  2
AcDbPlaceHolder
  3
AutoCAD 2000
 90
        0
280
     0
281
     0
  0
CLASS
  1
LAYOUT
  2
AcDbLayout
  3
AutoCAD 2000
 90
        0
280
     0
281
     0
  0
ENDSEC
  0
SECTION
  2
TABLES
  0
TABLE
  2
VPORT
  5
8
330
0
100
AcDbSymbolTable
 70
     2
  0
VPORT
  5
9AD
330
8
100
AcDbSymbolTableRecord
100
AcDbViewportTableRecord
  2
*Active
 70
     0
 10
0.0
 20
0.0
 11
1.0
 21
1.0
 12
31.00000057745081
 22
19.91148744766727
 13
0.0
 23
0.0
 14
1.0
 24
1.0
 15
0.5
 25
0.5
 16
0.0
 26
0.0
 36
1.0
 17
0.0
 27
0.0
 37
0.0
 40
41.55219976672888
 41
1.824707846410684
 42
50.0
 43
0.0
 44
0.0
 50
0.0
 51
0.0
 71
     0
 72
   100
 73
     1
 74
     0
 75
     0
 76
     0
 77
     0
 78
     0
281
     0
 65
     1
110
0.0
120
0.0
130
0.0
111
1.0
121
0.0
131
0.0
112
0.0
122
1.0
132
0.0
 79
     0
146
0.0
  0
ENDTAB
  0
TABLE
  2
LTYPE
  5
5
330
0
100
AcDbSymbolTable
 70
     4
  0
LTYPE
  5
13
330
5
100
AcDbSymbolTableRecord
100
AcDbLinetypeTableRecord
  2
ByBlock
 70
     0
  3

 72
    65
 73
     0
 40
0.0
  0
LTYPE
  5
14
330
5
100
AcDbSymbolTableRecord
100
AcDbLinetypeTableRecord
  2
ByLayer
 70
     0
  3

 72
    65
 73
     0
 40
0.0
  0
LTYPE
  5
15
330
5
100
AcDbSymbolTableRecord
100
AcDbLinetypeTableRecord
  2
CONTINUOUS
 70
     0
  3
Solid line
 72
    65
 73
     0
 40
0.0
  0
LTYPE
  5
3E
330
5
100
AcDbSymbolTableRecord
100
AcDbLinetypeTableRecord
  2
PHANTOM
 70
     0
  3
_____ _ _ _____ _ _ _____ _ _ _____ _ _ ____
 72
    65
 73
     6
 40
2.5
 49
1.25
 74
     0
 49
-0.25
 74
     0
 49
0.25
 74
     0
 49
-0.25
 74
     0
 49
0.25
 74
     0
 49
-0.25
 74
     0
  0
LTYPE
  5
3F
330
5
100
AcDbSymbolTableRecord
100
AcDbLinetypeTableRecord
  2
CENTER
 70
     0
  3
____ _ ____ _ ____ _ ____ _ ____ _ ____ _ ____
 72
    65
 73
     4
 40
2.0
 49
1.25
 74
     0
 49
-0.25
 74
     0
 49
0.25
 74
     0
 49
-0.25
 74
     0
  0
LTYPE
  5
40
330
5
100
AcDbSymbolTableRecord
100
AcDbLinetypeTableRecord
  2
HIDDEN2
 70
     0
  3
_ _ _ _ _ _ _ _ _ _ _ _ _ _ _ _ _ _ _ _ _ _ _ _
 72
    65
 73
     2
 40
0.1875
 49
0.125
 74
     0
 49
-0.0625
 74
     0
  0
ENDTAB
  0
TABLE
  2
LAYER
  5
2
330
0
100
AcDbSymbolTable
 70
     9
  0
LAYER
  5
10
330
2
100
AcDbSymbolTableRecord
100
AcDbLayerTableRecord
  2
0
 70
     0
 62
     7
  6
CONTINUOUS
370
    -3
390
F
  0
LAYER
  5
46
330
2
100
AcDbSymbolTableRecord
100
AcDbLayerTableRecord
  2
OBJECT
 70
     0
 62
     7
  6
CONTINUOUS
370
    -3
390
F
  0
LAYER
  5
47
330
2
100
AcDbSymbolTableRecord
100
AcDbLayerTableRecord
  2
DIM
 70
     0
 62
     7
  6
CONTINUOUS
370
    -3
390
F
  0
LAYER
  5
48
330
2
100
AcDbSymbolTableRecord
100
AcDbLayerTableRecord
  2
HIDDEN
 70
     0
 62
     7
  6
HIDDEN2
370
    -3
390
F
  0
LAYER
  5
49
330
2
100
AcDbSymbolTableRecord
100
AcDbLayerTableRecord
  2
BEND
 70
     0
 62
     7
  6
PHANTOM
370
    -3
390
F
  0
LAYER
  5
4A
330
2
100
AcDbSymbolTableRecord
100
AcDbLayerTableRecord
  2
TEXT
 70
     0
 62
     7
  6
CONTINUOUS
370
    -3
390
F
  0
LAYER
  5
4B
330
2
100
AcDbSymbolTableRecord
100
AcDbLayerTableRecord
  2
TITLE
 70
     0
 62
     7
  6
CONTINUOUS
370
    -3
390
F
  0
LAYER
  5
4C
330
2
100
AcDbSymbolTableRecord
100
AcDbLayerTableRecord
  2
CENTER
 70
     0
 62
     7
  6
CENTER
370
    -3
390
F
  0
LAYER
  5
4D
330
2
100
AcDbSymbolTableRecord
100
AcDbLayerTableRecord
  2
DEFPOINTS
 70
     0
 62
     7
  6
CONTINUOUS
290
     0
370
    -3
390
F
  0
ENDTAB
  0
TABLE
  2
STYLE
  5
3
330
0
100
AcDbSymbolTable
 70
     1
  0
STYLE
  5
11
330
3
100
AcDbSymbolTableRecord
100
AcDbTextStyleTableRecord
  2
TXT
 70
     0
 40
0.0
 41
0.75
 50
0.0
 71
     0
 42
0.2
  3
TXT.shx
  4

  0
ENDTAB
  0
TABLE
  2
VIEW
  5
6
330
0
100
AcDbSymbolTable
 70
     0
  0
ENDTAB
  0
TABLE
  2
UCS
  5
7
330
0
100
AcDbSymbolTable
 70
     0
  0
ENDTAB
  0
TABLE
  2
APPID
  5
9
330
0
100
AcDbSymbolTable
 70
     1
  0
APPID
  5
12
330
9
100
AcDbSymbolTableRecord
100
AcDbRegAppTableRecord
  2
ACAD
 70
     0
  0
ENDTAB
  0
TABLE
  2
DIMSTYLE
  5
A
330
0
100
AcDbSymbolTable
 70
     2
100
AcDbDimStyleTable
 71
     2
340
45
340
44
  0
DIMSTYLE
105
44
102
{ACAD_REACTORS
330
275
330
277
330
279
330
27A
330
27B
330
27C
330
27D
330
45B
330
45C
330
45D
330
45E
330
489
330
48A
330
4B7
330
4B8
330
4E6
330
4E7
330
4E8
330
4E9
330
4EA
330
4EF
330
4F0
330
575
102
}
330
A
100
AcDbSymbolTableRecord
100
AcDbDimStyleTableRecord
  2
23NSTD
 70
     0
 40
4.0
 42
0.063
 43
0.25
 44
0.093
140
0.125
170
     1
171
     0
271
     3
272
     3
274
     0
289
     1
340
11
  0
DIMSTYLE
105
45
102
{ACAD_REACTORS
330
276
330
278
102
}
330
A
100
AcDbSymbolTableRecord
100
AcDbDimStyleTableRecord
  2
23NSTDI
 70
     0
 40
4.0
 42
0.063
 43
0.25
 44
0.093
140
0.125
170
     1
171
     0
174
     1
271
     3
272
     3
274
     0
340
11
  0
ENDTAB
  0
TABLE
  2
BLOCK_RECORD
  5
1
330
0
100
AcDbSymbolTable
 70
    28
  0
BLOCK_RECORD
  5
1E
330
1
100
AcDbSymbolTableRecord
100
AcDbBlockTableRecord
  2
*Model_Space
340
21
  0
BLOCK_RECORD
  5
1A
330
1
100
AcDbSymbolTableRecord
100
AcDbBlockTableRecord
  2
*Paper_Space
340
1D
  0
BLOCK_RECORD
  5
22
330
1
100
AcDbSymbolTableRecord
100
AcDbBlockTableRecord
  2
HBS
340
0
102
{BLKREFS
331
713
102
}
  0
BLOCK_RECORD
  5
23
330
1
100
AcDbSymbolTableRecord
100
AcDbBlockTableRecord
  2
*X1
340
0
102
{BLKREFS
331
72C
102
}
  0
BLOCK_RECORD
  5
24
330
1
100
AcDbSymbolTableRecord
100
AcDbBlockTableRecord
  2
*X2
340
0
102
{BLKREFS
331
72D
102
}
  0
BLOCK_RECORD
  5
7A6
330
1
100
AcDbSymbolTableRecord
100
AcDbBlockTableRecord
  2
*D3
340
0
  0
BLOCK_RECORD
  5
7B3
330
1
100
AcDbSymbolTableRecord
100
AcDbBlockTableRecord
  2
*D4
340
0
  0
BLOCK_RECORD
  5
7C0
330
1
100
AcDbSymbolTableRecord
100
AcDbBlockTableRecord
  2
*D5
340
0
  0
BLOCK_RECORD
  5
7CD
330
1
100
AcDbSymbolTableRecord
100
AcDbBlockTableRecord
  2
*D6
340
0
  0
BLOCK_RECORD
  5
7DA
330
1
100
AcDbSymbolTableRecord
100
AcDbBlockTableRecord
  2
*D7
340
0
  0
BLOCK_RECORD
  5
7E7
330
1
100
AcDbSymbolTableRecord
100
AcDbBlockTableRecord
  2
*D8
340
0
  0
BLOCK_RECORD
  5
7F4
330
1
100
AcDbSymbolTableRecord
100
AcDbBlockTableRecord
  2
*D9
340
0
  0
BLOCK_RECORD
  5
801
330
1
100
AcDbSymbolTableRecord
100
AcDbBlockTableRecord
  2
*D10
340
0
  0
BLOCK_RECORD
  5
80E
330
1
100
AcDbSymbolTableRecord
100
AcDbBlockTableRecord
  2
*D11
340
0
  0
BLOCK_RECORD
  5
81B
330
1
100
AcDbSymbolTableRecord
100
AcDbBlockTableRecord
  2
*D12
340
0
  0
BLOCK_RECORD
  5
828
330
1
100
AcDbSymbolTableRecord
100
AcDbBlockTableRecord
  2
*D13
340
0
  0
BLOCK_RECORD
  5
835
330
1
100
AcDbSymbolTableRecord
100
AcDbBlockTableRecord
  2
*D14
340
0
  0
BLOCK_RECORD
  5
842
330
1
100
AcDbSymbolTableRecord
100
AcDbBlockTableRecord
  2
*D15
340
0
  0
BLOCK_RECORD
  5
84F
330
1
100
AcDbSymbolTableRecord
100
AcDbBlockTableRecord
  2
*D16
340
0
  0
BLOCK_RECORD
  5
85C
330
1
100
AcDbSymbolTableRecord
100
AcDbBlockTableRecord
  2
*D17
340
0
  0
BLOCK_RECORD
  5
869
330
1
100
AcDbSymbolTableRecord
100
AcDbBlockTableRecord
  2
*D18
340
0
  0
BLOCK_RECORD
  5
876
330
1
100
AcDbSymbolTableRecord
100
AcDbBlockTableRecord
  2
*D19
340
0
  0
BLOCK_RECORD
  5
883
330
1
100
AcDbSymbolTableRecord
100
AcDbBlockTableRecord
  2
*D20
340
0
  0
BLOCK_RECORD
  5
890
330
1
100
AcDbSymbolTableRecord
100
AcDbBlockTableRecord
  2
*D21
340
0
  0
BLOCK_RECORD
  5
89D
330
1
100
AcDbSymbolTableRecord
100
AcDbBlockTableRecord
  2
*D22
340
0
  0
BLOCK_RECORD
  5
8AA
330
1
100
AcDbSymbolTableRecord
100
AcDbBlockTableRecord
  2
*D23
340
0
  0
BLOCK_RECORD
  5
8B7
330
1
100
AcDbSymbolTableRecord
100
AcDbBlockTableRecord
  2
*D24
340
0
  0
BLOCK_RECORD
  5
8C4
330
1
100
AcDbSymbolTableRecord
100
AcDbBlockTableRecord
  2
*D25
340
0
  0
BLOCK_RECORD
  5
8D1
330
1
100
AcDbSymbolTableRecord
100
AcDbBlockTableRecord
  2
*D26
340
0
  0
BLOCK_RECORD
  5
8DE
330
1
100
AcDbSymbolTableRecord
100
AcDbBlockTableRecord
  2
*D27
340
0
  0
ENDTAB
  0
ENDSEC
  0
SECTION
  2
BLOCKS
  0
BLOCK
  5
51
330
1E
100
AcDbEntity
  8
0
100
AcDbBlockBegin
  2
*Model_Space
 70
     0
 10
0.0
 20
0.0
 30
0.0
  3
*Model_Space
  1

  0
ENDBLK
  5
52
330
1E
100
AcDbEntity
  8
0
100
AcDbBlockEnd
  0
BLOCK
  5
4F
330
1A
100
AcDbEntity
 67
     1
  8
0
100
AcDbBlockBegin
  2
*Paper_Space
 70
     0
 10
0.0
 20
0.0
 30
0.0
  3
*Paper_Space
  1

  0
ENDBLK
  5
50
330
1A
100
AcDbEntity
 67
     1
  8
0
100
AcDbBlockEnd
  0
BLOCK
  5
53
330
22
100
AcDbEntity
  8
0
100
AcDbBlockBegin
  2
HBS
 70
     0
 10
0.0
 20
0.0
 30
0.0
  3
HBS
  1

  0
LINE
  5
54
330
22
100
AcDbEntity
  8
TITLE
100
AcDbLine
 10
0.0619999999999976
 20
9.64
 30
0.0
 11
15.43799999999999
 21
9.640000000000004
 31
0.0
  0
LWPOLYLINE
  5
55
330
22
100
AcDbEntity
  8
TITLE
100
AcDbPolyline
 90
        4
 70
     1
 43
0.0
 10
15.5
 20
10.11999999999999
 10
15.49999999999999
 20
0.0
 10
0.0
 20
0.0
 10
0.0
 20
10.11999999999999
  0
LWPOLYLINE
  5
5B
330
22
100
AcDbEntity
  8
TITLE
100
AcDbPolyline
 90
        4
 70
     1
 43
0.0
 10
15.43799999999999
 20
10.058
 10
15.43799999999999
 20
0.0620000000000012
 10
0.0620000000000012
 20
0.0620000000000012
 10
0.0620000000000012
 20
10.058
  0
TEXT
  5
61
330
22
100
AcDbEntity
  8
TEXT
100
AcDbText
 10
0.2078333333333345
 20
9.680079195640079
 30
0.0
 40
0.125
  1
NAME
 72
     1
 11
0.4370000000000012
 21
9.680079195640079
 31
0.0
100
AcDbText
  0
TEXT
  5
63
330
22
100
AcDbEntity
  8
TEXT
100
AcDbText
 10
0.2078333333333345
 20
9.888412528973411
 30
0.0
 40
0.125
  1
PART
 72
     1
 11
0.4370000000000012
 21
9.888412528973411
 31
0.0
100
AcDbText
  0
LINE
  5
64
330
22
100
AcDbEntity
  8
TITLE
100
AcDbLine
 10
0.8120000000000011
 20
9.64
 30
0.0
 11
0.8119999999999976
 21
10.058
 31
0.0
  0
TEXT
  5
65
330
22
100
AcDbEntity
  8
TEXT
100
AcDbText
 10
7.926833333333331
 20
9.888412528973411
 30
0.0
 40
0.125
  1
PART
 72
     1
 11
8.155999999999998
 21
9.888412528973411
 31
0.0
100
AcDbText
  0
TEXT
  5
66
330
22
100
AcDbEntity
  8
TEXT
100
AcDbText
 10
8.030999999999998
 20
9.680079195640079
 30
0.0
 40
0.125
  1
No.
 72
     1
 11
8.155999999999998
 21
9.680079195640079
 31
0.0
100
AcDbText
  0
LINE
  5
67
330
22
100
AcDbEntity
  8
TITLE
100
AcDbLine
 10
7.780999999999998
 20
10.058
 30
0.0
 11
7.780999999999998
 21
9.64
 31
0.0
  0
LINE
  5
68
330
22
100
AcDbEntity
  8
TITLE
100
AcDbLine
 10
7.719000000000001
 20
10.058
 30
0.0
 11
7.719000000000001
 21
9.64
 31
0.0
  0
LINE
  5
69
330
22
100
AcDbEntity
  8
TITLE
100
AcDbLine
 10
8.530999999999998
 20
10.058
 30
0.0
 11
8.530999999999998
 21
9.64
 31
0.0
  0
ENDBLK
  5
6A
330
22
100
AcDbEntity
  8
0
100
AcDbBlockEnd
  0
BLOCK
  5
6B
330
23
100
AcDbEntity
  8
0
100
AcDbBlockBegin
  2
*X1
 70
     1
 10
0.0
 20
0.0
 30
0.0
  3
*X1
  1

  0
LINE
  5
6C
330
23
100
AcDbEntity
  8
0
 62
     0
100
AcDbLine
 10
34.84953522156516
 20
15.22732204363847
 30
0.0
 11
34.96453522156517
 21
15.34232204363848
 31
0.0
  0
LINE
  5
6D
330
23
100
AcDbEntity
  8
0
 62
     0
100
AcDbLine
 10
34.84953522156516
 20
15.75765212952838
 30
0.0
 11
34.96453522156517
 21
15.87265212952839
 31
0.0
  0
LINE
  5
6E
330
23
100
AcDbEntity
  8
0
 62
     0
100
AcDbLine
 10
34.84953522156516
 20
16.28798221541829
 30
0.0
 11
34.96453522156517
 21
16.4029822154183
 31
0.0
  0
LINE
  5
6F
330
23
100
AcDbEntity
  8
0
 62
     0
100
AcDbLine
 10
34.84953522156516
 20
16.8183123013082
 30
0.0
 11
34.96453522156517
 21
16.93331230130821
 31
0.0
  0
LINE
  5
70
330
23
100
AcDbEntity
  8
0
 62
     0
100
AcDbLine
 10
34.84953522156516
 20
17.34864238719811
 30
0.0
 11
34.96453522156517
 21
17.46364238719812
 31
0.0
  0
LINE
  5
71
330
23
100
AcDbEntity
  8
0
 62
     0
100
AcDbLine
 10
34.84953522156516
 20
17.87897247308802
 30
0.0
 11
34.96453522156517
 21
17.99397247308804
 31
0.0
  0
LINE
  5
72
330
23
100
AcDbEntity
  8
0
 62
     0
100
AcDbLine
 10
34.84953522156516
 20
18.40930255897793
 30
0.0
 11
34.90946508045737
 21
18.46923241787014
 31
0.0
  0
LINE
  5
73
330
23
100
AcDbEntity
  8
0
 62
     0
100
AcDbLine
 10
34.84953522156517
 20
14.69699195774856
 30
0.0
 11
34.96453522156517
 21
14.81199195774856
 31
0.0
  0
LINE
  5
74
330
23
100
AcDbEntity
  8
0
 62
     0
100
AcDbLine
 10
34.84986137695444
 20
14.16698802724792
 30
0.0
 11
34.96453522156517
 21
14.28166187185865
 31
0.0
  0
LINE
  5
75
330
23
100
AcDbEntity
  8
0
 62
     0
100
AcDbLine
 10
35.16243585346654
 20
13.94923241787012
 30
0.0
 11
35.28465755997788
 21
14.07145412438146
 31
0.0
  0
LINE
  5
76
330
23
100
AcDbEntity
  8
0
 62
     0
100
AcDbLine
 10
35.69276593935645
 20
13.94923241787012
 30
0.0
 11
35.81498764586779
 21
14.07145412438146
 31
0.0
  0
LINE
  5
77
330
23
100
AcDbEntity
  8
0
 62
     0
100
AcDbLine
 10
35.24971704611102
 20
12.97585343873477
 30
0.0
 11
35.40409602524632
 21
13.13023241787008
 31
0.0
  0
LINE
  5
78
330
23
100
AcDbEntity
  8
0
 62
     0
100
AcDbLine
 10
35.9763251704884
 20
13.70246156311215
 30
0.0
 11
36.03053522156518
 21
13.75667161418893
 31
0.0
  0
LINE
  5
79
330
23
100
AcDbEntity
  8
0
 62
     0
100
AcDbLine
 10
35.77425569580556
 20
12.97006200253941
 30
0.0
 11
35.936276271152
 21
13.13208257788584
 31
0.0
  0
LINE
  5
7A
330
23
100
AcDbEntity
  8
0
 62
     0
100
AcDbLine
 10
34.84953522156516
 20
15.29361330437471
 30
0.0
 11
34.96453522156517
 21
15.40861330437472
 31
0.0
  0
LINE
  5
7B
330
23
100
AcDbEntity
  8
0
 62
     0
100
AcDbLine
 10
34.84953522156516
 20
15.82394339026462
 30
0.0
 11
34.96453522156517
 21
15.93894339026463
 31
0.0
  0
LINE
  5
7C
330
23
100
AcDbEntity
  8
0
 62
     0
100
AcDbLine
 10
34.84953522156516
 20
16.35427347615453
 30
0.0
 11
34.96453522156517
 21
16.46927347615454
 31
0.0
  0
LINE
  5
7D
330
23
100
AcDbEntity
  8
0
 62
     0
100
AcDbLine
 10
34.84953522156516
 20
16.88460356204444
 30
0.0
 11
34.96453522156517
 21
16.99960356204445
 31
0.0
  0
LINE
  5
7E
330
23
100
AcDbEntity
  8
0
 62
     0
100
AcDbLine
 10
34.84953522156516
 20
17.41493364793435
 30
0.0
 11
34.96453522156517
 21
17.52993364793436
 31
0.0
  0
LINE
  5
7F
330
23
100
AcDbEntity
  8
0
 62
     0
100
AcDbLine
 10
34.84953522156516
 20
17.94526373382426
 30
0.0
 11
34.96453522156517
 21
18.06026373382428
 31
0.0
  0
LINE
  5
80
330
23
100
AcDbEntity
  8
0
 62
     0
100
AcDbLine
 10
34.84953522156517
 20
14.7632832184848
 30
0.0
 11
34.96453522156517
 21
14.8782832184848
 31
0.0
  0
LINE
  5
81
330
23
100
AcDbEntity
  8
0
 62
     0
100
AcDbLine
 10
34.84953522156517
 20
14.23295313259489
 30
0.0
 11
34.96453522156517
 21
14.34795313259489
 31
0.0
  0
LINE
  5
82
330
23
100
AcDbEntity
  8
0
 62
     0
100
AcDbLine
 10
35.09614459273031
 20
13.94923241787012
 30
0.0
 11
35.21836629924165
 21
14.07145412438146
 31
0.0
  0
LINE
  5
83
330
23
100
AcDbEntity
  8
0
 62
     0
100
AcDbLine
 10
35.62647467862021
 20
13.94923241787012
 30
0.0
 11
35.74869638513156
 21
14.07145412438146
 31
0.0
  0
LINE
  5
84
330
23
100
AcDbEntity
  8
0
 62
     0
100
AcDbLine
 10
35.18414971489919
 20
12.97657736825919
 30
0.0
 11
35.33780476451009
 21
13.13023241787008
 31
0.0
  0
LINE
  5
85
330
23
100
AcDbEntity
  8
0
 62
     0
100
AcDbLine
 10
35.91003390975215
 20
13.70246156311215
 30
0.0
 11
36.02902647102146
 21
13.82145412438146
 31
0.0
  0
LINE
  5
86
330
23
100
AcDbEntity
  8
0
 62
     0
100
AcDbLine
 10
35.70868836459375
 20
12.97078593206383
 30
0.0
 11
35.86998501041576
 21
13.13208257788584
 31
0.0
  0
LINE
  5
87
330
23
100
AcDbEntity
  8
0
 62
     0
100
AcDbLine
 10
34.84953522156516
 20
15.35990456511095
 30
0.0
 11
34.96453522156517
 21
15.47490456511095
 31
0.0
  0
LINE
  5
88
330
23
100
AcDbEntity
  8
0
 62
     0
100
AcDbLine
 10
34.84953522156516
 20
15.89023465100086
 30
0.0
 11
34.96453522156517
 21
16.00523465100087
 31
0.0
  0
LINE
  5
89
330
23
100
AcDbEntity
  8
0
 62
     0
100
AcDbLine
 10
34.84953522156516
 20
16.42056473689077
 30
0.0
 11
34.96453522156517
 21
16.53556473689078
 31
0.0
  0
LINE
  5
8A
330
23
100
AcDbEntity
  8
0
 62
     0
100
AcDbLine
 10
34.84953522156516
 20
16.95089482278067
 30
0.0
 11
34.96453522156517
 21
17.06589482278069
 31
0.0
  0
LINE
  5
8B
330
23
100
AcDbEntity
  8
0
 62
     0
100
AcDbLine
 10
34.84953522156516
 20
17.48122490867059
 30
0.0
 11
34.96453522156517
 21
17.5962249086706
 31
0.0
  0
LINE
  5
8C
330
23
100
AcDbEntity
  8
0
 62
     0
100
AcDbLine
 10
34.84953522156516
 20
18.01155499456049
 30
0.0
 11
34.96453522156517
 21
18.12655499456051
 31
0.0
  0
LINE
  5
8D
330
23
100
AcDbEntity
  8
0
 62
     0
100
AcDbLine
 10
34.84953522156517
 20
14.82957447922104
 30
0.0
 11
34.96453522156517
 21
14.94457447922104
 31
0.0
  0
LINE
  5
8E
330
23
100
AcDbEntity
  8
0
 62
     0
100
AcDbLine
 10
34.84953522156517
 20
14.29924439333113
 30
0.0
 11
34.96453522156517
 21
14.41424439333113
 31
0.0
  0
LINE
  5
8F
330
23
100
AcDbEntity
  8
0
 62
     0
100
AcDbLine
 10
35.03433791467267
 20
13.95371700054872
 30
0.0
 11
35.15207503850541
 21
14.07145412438146
 31
0.0
  0
LINE
  5
90
330
23
100
AcDbEntity
  8
0
 62
     0
100
AcDbLine
 10
35.56018341788397
 20
13.94923241787012
 30
0.0
 11
35.68240512439531
 21
14.07145412438146
 31
0.0
  0
LINE
  5
91
330
23
100
AcDbEntity
  8
0
 62
     0
100
AcDbLine
 10
35.11858238368738
 20
12.97730129778361
 30
0.0
 11
35.27151350377384
 21
13.13023241787008
 31
0.0
  0
LINE
  5
92
330
23
100
AcDbEntity
  8
0
 62
     0
100
AcDbLine
 10
35.84374264901592
 20
13.70246156311215
 30
0.0
 11
35.96273521028523
 21
13.82145412438146
 31
0.0
  0
LINE
  5
93
330
23
100
AcDbEntity
  8
0
 62
     0
100
AcDbLine
 10
35.64312103338193
 20
12.97150986158825
 30
0.0
 11
35.80369374967952
 21
13.13208257788584
 31
0.0
  0
LINE
  5
94
330
23
100
AcDbEntity
  8
0
 62
     0
100
AcDbLine
 10
34.84953522156516
 20
15.55877834731966
 30
0.0
 11
34.96453522156517
 21
15.67377834731967
 31
0.0
  0
LINE
  5
95
330
23
100
AcDbEntity
  8
0
 62
     0
100
AcDbLine
 10
34.84953522156516
 20
16.08910843320957
 30
0.0
 11
34.96453522156517
 21
16.20410843320958
 31
0.0
  0
LINE
  5
96
330
23
100
AcDbEntity
  8
0
 62
     0
100
AcDbLine
 10
34.84953522156516
 20
16.61943851909948
 30
0.0
 11
34.96453522156517
 21
16.73443851909949
 31
0.0
  0
LINE
  5
97
330
23
100
AcDbEntity
  8
0
 62
     0
100
AcDbLine
 10
34.84953522156516
 20
17.14976860498939
 30
0.0
 11
34.96453522156517
 21
17.26476860498941
 31
0.0
  0
LINE
  5
98
330
23
100
AcDbEntity
  8
0
 62
     0
100
AcDbLine
 10
34.84953522156516
 20
17.6800986908793
 30
0.0
 11
34.96453522156517
 21
17.79509869087932
 31
0.0
  0
LINE
  5
99
330
23
100
AcDbEntity
  8
0
 62
     0
100
AcDbLine
 10
34.84953522156516
 20
18.21042877676921
 30
0.0
 11
34.96453522156517
 21
18.32542877676923
 31
0.0
  0
LINE
  5
9A
330
23
100
AcDbEntity
  8
0
 62
     0
100
AcDbLine
 10
34.84953522156516
 20
15.02844826142975
 30
0.0
 11
34.96453522156517
 21
15.14344826142976
 31
0.0
  0
LINE
  5
9B
330
23
100
AcDbEntity
  8
0
 62
     0
100
AcDbLine
 10
34.84953522156517
 20
14.49811817553984
 30
0.0
 11
34.96453522156517
 21
14.61311817553985
 31
0.0
  0
LINE
  5
9C
330
23
100
AcDbEntity
  8
0
 62
     0
100
AcDbLine
 10
34.9078876786447
 20
14.02614054672947
 30
0.0
 11
34.9927486647964
 21
14.11100153288117
 31
0.0
  0
LINE
  5
9D
330
23
100
AcDbEntity
  8
0
 62
     0
100
AcDbLine
 10
35.36130963567526
 20
13.94923241787012
 30
0.0
 11
35.4835313421866
 21
14.07145412438146
 31
0.0
  0
LINE
  5
9E
330
23
100
AcDbEntity
  8
0
 62
     0
100
AcDbLine
 10
35.78053522156518
 20
13.83812791787013
 30
0.0
 11
35.83053522156518
 21
13.88812791787013
 31
0.0
  0
LINE
  5
9F
330
23
100
AcDbEntity
  8
0
 62
     0
100
AcDbLine
 10
35.94286142807651
 20
14.00045412438146
 30
0.0
 11
36.01386142807651
 21
14.07145412438146
 31
0.0
  0
LINE
  5
A0
330
23
100
AcDbEntity
  8
0
 62
     0
100
AcDbLine
 10
35.44641903974647
 20
12.97368165016151
 30
0.0
 11
35.60296980745504
 21
13.13023241787008
 31
0.0
  0
LINE
  5
A1
330
23
100
AcDbEntity
  8
0
 62
     0
100
AcDbLine
 10
35.97095768944102
 20
12.96789021396615
 30
0.0
 11
36.03053522156518
 21
13.02746774609031
 31
0.0
  0
ENDBLK
  5
A2
330
23
100
AcDbEntity
  8
0
100
AcDbBlockEnd
  0
BLOCK
  5
A3
330
24
100
AcDbEntity
  8
0
100
AcDbBlockBegin
  2
*X2
 70
     1
 10
0.0
 20
0.0
 30
0.0
  3
*X2
  1

  0
LINE
  5
A4
330
24
100
AcDbEntity
  8
0
 62
     0
100
AcDbLine
 10
39.96053522156518
 20
13.60280345331578
 30
0.0
 11
39.61304202549953
 21
13.95029664938143
 31
0.0
  0
LINE
  5
A5
330
24
100
AcDbEntity
  8
0
 62
     0
100
AcDbLine
 10
39.45057803203881
 20
14.11276064284216
 30
0.0
 11
39.38417072156521
 21
14.17916795331576
 31
0.0
  0
LINE
  5
A6
330
24
100
AcDbEntity
  8
0
 62
     0
100
AcDbLine
 10
39.89441740642128
 20
13.13859118256977
 30
0.0
 11
39.67777617112091
 21
13.35523241787014
 31
0.0
  0
LINE
  5
A7
330
24
100
AcDbEntity
  8
0
 62
     0
100
AcDbLine
 10
39.27927937553671
 20
13.75372921345435
 30
0.0
 11
39.08271193960962
 21
13.95029664938143
 31
0.0
  0
LINE
  5
A8
330
24
100
AcDbEntity
  8
0
 62
     0
100
AcDbLine
 10
39.44824120088414
 20
13.054437302217
 30
0.0
 11
39.34720648414948
 21
13.15547201895165
 31
0.0
  0
LINE
  5
A9
330
24
100
AcDbEntity
  8
0
 62
     0
100
AcDbLine
 10
38.75013385845116
 20
13.75254464464997
 30
0.0
 11
38.55238185371971
 21
13.95029664938143
 31
0.0
  0
LINE
  5
AA
330
24
100
AcDbEntity
  8
0
 62
     0
100
AcDbLine
 10
38.93257739720283
 20
13.0397710200084
 30
0.0
 11
38.81806096706394
 21
13.15428745014729
 31
0.0
  0
LINE
  5
AB
330
24
100
AcDbEntity
  8
0
 62
     0
100
AcDbLine
 10
38.22098834136562
 20
13.75136007584561
 30
0.0
 11
38.0220517678298
 21
13.95029664938143
 31
0.0
  0
LINE
  5
AC
330
24
100
AcDbEntity
  8
0
 62
     0
100
AcDbLine
 10
38.41691359352152
 20
13.0251047377998
 30
0.0
 11
38.28891544997841
 21
13.15310288134292
 31
0.0
  0
LINE
  5
AD
330
24
100
AcDbEntity
  8
0
 62
     0
100
AcDbLine
 10
37.69184282428009
 20
13.75017550704124
 30
0.0
 11
37.49172168193989
 21
13.95029664938143
 31
0.0
  0
LINE
  5
AE
330
24
100
AcDbEntity
  8
0
 62
     0
100
AcDbLine
 10
37.90124978984021
 20
13.0104384555912
 30
0.0
 11
37.75976993289285
 21
13.15191831253855
 31
0.0
  0
LINE
  5
AF
330
24
100
AcDbEntity
  8
0
 62
     0
100
AcDbLine
 10
37.16269730719455
 20
13.74899093823687
 30
0.0
 11
36.96139159604998
 21
13.95029664938143
 31
0.0
  0
LINE
  5
B0
330
24
100
AcDbEntity
  8
0
 62
     0
100
AcDbLine
 10
37.3855859861589
 20
12.99577217338261
 30
0.0
 11
37.23062441580732
 21
13.15073374373418
 31
0.0
  0
LINE
  5
B1
330
24
100
AcDbEntity
  8
0
 62
     0
100
AcDbLine
 10
36.63355179010899
 20
13.74780636943251
 30
0.0
 11
36.43106151016007
 21
13.95029664938143
 31
0.0
  0
LINE
  5
B2
330
24
100
AcDbEntity
  8
0
 62
     0
100
AcDbLine
 10
36.86992218247759
 20
12.98110589117401
 30
0.0
 11
36.70147889872178
 21
13.14954917492982
 31
0.0
  0
LINE
  5
B3
330
24
100
AcDbEntity
  8
0
 62
     0
100
AcDbLine
 10
35.97947158127012
 20
13.87155649238146
 30
0.0
 11
35.91553522156519
 21
13.9354928520864
 31
0.0
  0
LINE
  5
B4
330
24
100
AcDbEntity
  8
0
 62
     0
100
AcDbLine
 10
36.10440627302346
 20
13.74662180062813
 30
0.0
 11
36.03053522156518
 21
13.82049285208641
 31
0.0
  0
LINE
  5
B5
330
24
100
AcDbEntity
  8
0
 62
     0
100
AcDbLine
 10
36.35425837879627
 20
12.96643960896541
 30
0.0
 11
36.17233338163623
 21
13.14836460612544
 31
0.0
  0
LINE
  5
B6
330
24
100
AcDbEntity
  8
0
 62
     0
100
AcDbLine
 10
39.9555124947802
 20
14.13815626599067
 30
0.0
 11
39.83843634290073
 21
14.25523241787014
 31
0.0
  0
LINE
  5
B7
330
24
100
AcDbEntity
  8
0
 62
     0
100
AcDbLine
 10
39.67343634290073
 20
14.42023241787014
 30
0.0
 11
39.53096456787273
 21
14.56270419289815
 31
0.0
  0
LINE
  5
B8
330
24
100
AcDbEntity
  8
0
 62
     0
100
AcDbLine
 10
39.88053522156519
 20
14.7434636250956
 30
0.0
 11
39.68876642879078
 21
14.93523241787
 31
0.0
  0
LINE
  5
B9
330
24
100
AcDbEntity
  8
0
 62
     0
100
AcDbLine
 10
39.52276642879079
 20
15.10123241787
 30
0.0
 11
39.48417072156516
 21
15.13982812509562
 31
0.0
  0
LINE
  5
BA
330
24
100
AcDbEntity
  8
0
 62
     0
100
AcDbLine
 10
39.88053522156518
 20
15.27379371098551
 30
0.0
 11
39.61817072156518
 21
15.53615821098552
 31
0.0
  0
LINE
  5
BB
330
24
100
AcDbEntity
  8
0
 62
     0
100
AcDbLine
 10
39.88053522156517
 20
15.80412379687543
 30
0.0
 11
39.7634266005706
 21
15.92123241787001
 31
0.0
  0
LINE
  5
BC
330
24
100
AcDbEntity
  8
0
 62
     0
100
AcDbLine
 10
39.5974266005706
 20
16.08723241787
 30
0.0
 11
39.48417072156517
 21
16.20048829687544
 31
0.0
  0
LINE
  5
BD
330
24
100
AcDbEntity
  8
0
 62
     0
100
AcDbLine
 10
39.88053522156519
 20
16.33445388276533
 30
0.0
 11
39.61817072156518
 21
16.59681838276534
 31
0.0
  0
LINE
  5
BE
330
24
100
AcDbEntity
  8
0
 62
     0
100
AcDbLine
 10
39.91249599891148
 20
16.83282319130894
 30
0.0
 11
39.83417072156517
 21
16.91114846865526
 31
0.0
  0
LINE
  5
BF
330
24
100
AcDbEntity
  8
0
 62
     0
100
AcDbLine
 10
39.67208677235042
 20
17.07323241787
 30
0.0
 11
39.55807046438673
 21
17.18724872583369
 31
0.0
  0
LINE
  5
C0
330
24
100
AcDbEntity
  8
0
 62
     0
100
AcDbLine
 10
39.88053522156519
 20
17.39511405454515
 30
0.0
 11
39.61817072156518
 21
17.65747855454516
 31
0.0
  0
LINE
  5
C1
330
24
100
AcDbEntity
  8
0
 62
     0
100
AcDbLine
 10
39.49643316620376
 20
17.77921610990659
 30
0.0
 11
39.48417072156518
 21
17.79147855454515
 31
0.0
  0
LINE
  5
C2
330
24
100
AcDbEntity
  8
0
 62
     0
100
AcDbLine
 10
39.88053522156519
 20
17.92544414043506
 30
0.0
 11
39.83417072156517
 21
17.97180864043508
 31
0.0
  0
LINE
  5
C3
330
24
100
AcDbEntity
  8
0
 62
     0
100
AcDbLine
 10
39.56171871915813
 20
18.24426064284213
 30
0.0
 11
39.3841707215652
 21
18.42180864043505
 31
0.0
  0
LINE
  5
C4
330
24
100
AcDbEntity
  8
0
 62
     0
100
AcDbLine
 10
39.74674694413024
 20
18.05923241787001
 30
0.0
 11
39.61817072156518
 21
18.18780864043507
 31
0.0
  0
LINE
  5
C5
330
24
100
AcDbEntity
  8
0
 62
     0
100
AcDbLine
 10
39.96053522156516
 20
18.375774226325
 30
0.0
 11
39.94957703002002
 21
18.38673241787013
 31
0.0
  0
LINE
  5
C6
330
24
100
AcDbEntity
  8
0
 62
     0
100
AcDbLine
 10
39.95281499627459
 20
13.54423241787014
 30
0.0
 11
39.54675076476329
 21
13.95029664938143
 31
0.0
  0
LINE
  5
C7
330
24
100
AcDbEntity
  8
0
 62
     0
100
AcDbLine
 10
39.38428677130257
 20
14.11276064284215
 30
0.0
 11
39.38417072156521
 21
14.11287669257951
 31
0.0
  0
LINE
  5
C8
330
24
100
AcDbEntity
  8
0
 62
     0
100
AcDbLine
 10
39.88053522156519
 20
13.08618210668963
 30
0.0
 11
39.66953522156517
 21
13.29718210668964
 31
0.0
  0
LINE
  5
C9
330
24
100
AcDbEntity
  8
0
 62
     0
100
AcDbLine
 10
39.24668925852672
 20
13.7200280697281
 30
0.0
 11
39.01642067887339
 21
13.95029664938143
 31
0.0
  0
LINE
  5
CA
330
24
100
AcDbEntity
  8
0
 62
     0
100
AcDbLine
 10
39.38378322542398
 20
13.05260401694092
 30
0.0
 11
39.26987893697189
 21
13.16650830539301
 31
0.0
  0
LINE
  5
CB
330
24
100
AcDbEntity
  8
0
 62
     0
100
AcDbLine
 10
38.71754374144117
 20
13.71884350092373
 30
0.0
 11
38.48609059298348
 21
13.95029664938143
 31
0.0
  0
LINE
  5
CC
330
24
100
AcDbEntity
  8
0
 62
     0
100
AcDbLine
 10
38.86811942174267
 20
13.03793773473232
 30
0.0
 11
38.74073341988635
 21
13.16532373658864
 31
0.0
  0
LINE
  5
CD
330
24
100
AcDbEntity
  8
0
 62
     0
100
AcDbLine
 10
38.18839822435563
 20
13.71765893211936
 30
0.0
 11
37.95576050709356
 21
13.95029664938143
 31
0.0
  0
LINE
  5
CE
330
24
100
AcDbEntity
  8
0
 62
     0
100
AcDbLine
 10
38.35245561806135
 20
13.02327145252373
 30
0.0
 11
38.21158790280082
 21
13.16413916778427
 31
0.0
  0
LINE
  5
CF
330
24
100
AcDbEntity
  8
0
 62
     0
100
AcDbLine
 10
37.61451527710249
 20
13.7612117934826
 30
0.0
 11
37.42543042120365
 21
13.95029664938143
 31
0.0
  0
LINE
  5
D0
330
24
100
AcDbEntity
  8
0
 62
     0
100
AcDbLine
 10
37.65925270727009
 20
13.71647436331499
 30
0.0
 11
37.61572524117168
 21
13.76000182941339
 31
0.0
  0
LINE
  5
D1
330
24
100
AcDbEntity
  8
0
 62
     0
100
AcDbLine
 10
37.83679181438005
 20
13.00860517031513
 30
0.0
 11
37.68244238571527
 21
13.16295459897991
 31
0.0
  0
LINE
  5
D2
330
24
100
AcDbEntity
  8
0
 62
     0
100
AcDbLine
 10
37.08536976001694
 20
13.76002722467823
 30
0.0
 11
36.89510033531374
 21
13.95029664938143
 31
0.0
  0
LINE
  5
D3
330
24
100
AcDbEntity
  8
0
 62
     0
100
AcDbLine
 10
37.32112801069873
 20
12.99393888810653
 30
0.0
 11
37.15329686862974
 21
13.16177003017553
 31
0.0
  0
LINE
  5
D4
330
24
100
AcDbEntity
  8
0
 62
     0
100
AcDbLine
 10
36.5562242429314
 20
13.75884265587386
 30
0.0
 11
36.36477024942383
 21
13.95029664938143
 31
0.0
  0
LINE
  5
D5
330
24
100
AcDbEntity
  8
0
 62
     0
100
AcDbLine
 10
36.80546420701742
 20
12.97927260589793
 30
0.0
 11
36.62415135154418
 21
13.16058546137117
 31
0.0
  0
LINE
  5
D6
330
24
100
AcDbEntity
  8
0
 62
     0
100
AcDbLine
 10
36.2898004033361
 20
12.96460632368933
 30
0.0
 11
36.09500583445865
 21
13.15940089256679
 31
0.0
  0
LINE
  5
D7
330
24
100
AcDbEntity
  8
0
 62
     0
100
AcDbLine
 10
39.91185727429535
 20
14.11552022573928
 30
0.0
 11
39.77214508216449
 21
14.25523241787014
 31
0.0
  0
LINE
  5
D8
330
24
100
AcDbEntity
  8
0
 62
     0
100
AcDbLine
 10
39.6071450821645
 20
14.42023241787014
 30
0.0
 11
39.46467330713648
 21
14.56270419289815
 31
0.0
  0
LINE
  5
D9
330
24
100
AcDbEntity
  8
0
 62
     0
100
AcDbLine
 10
39.88053522156519
 20
14.67717236435936
 30
0.0
 11
39.77017072156518
 21
14.78753686435936
 31
0.0
  0
LINE
  5
DA
330
24
100
AcDbEntity
  8
0
 62
     0
100
AcDbLine
 10
39.73649147601796
 20
14.82121610990659
 30
0.0
 11
39.62247516805454
 21
14.93523241787
 31
0.0
  0
LINE
  5
DB
330
24
100
AcDbEntity
  8
0
 62
     0
100
AcDbLine
 10
39.96053522156517
 20
15.12750245024929
 30
0.0
 11
39.91228836573725
 21
15.17574930607722
 31
0.0
  0
LINE
  5
DC
330
24
100
AcDbEntity
  8
0
 62
     0
100
AcDbLine
 10
39.88053522156518
 20
15.20750245024927
 30
0.0
 11
39.61817072156518
 21
15.46986695024928
 31
0.0
  0
LINE
  5
DD
330
24
100
AcDbEntity
  8
0
 62
     0
100
AcDbLine
 10
39.88053522156517
 20
15.73783253613919
 30
0.0
 11
39.69713533983436
 21
15.92123241787001
 31
0.0
  0
LINE
  5
DE
330
24
100
AcDbEntity
  8
0
 62
     0
100
AcDbLine
 10
39.53113533983437
 20
16.08723241787
 30
0.0
 11
39.48417072156517
 21
16.13419703613921
 31
0.0
  0
LINE
  5
DF
330
24
100
AcDbEntity
  8
0
 62
     0
100
AcDbLine
 10
39.88053522156519
 20
16.26816262202909
 30
0.0
 11
39.61817072156518
 21
16.5305271220291
 31
0.0
  0
LINE
  5
E0
330
24
100
AcDbEntity
  8
0
 62
     0
100
AcDbLine
 10
39.88053522156519
 20
16.798492707919
 30
0.0
 11
39.77179551161418
 21
16.90723241787001
 31
0.0
  0
LINE
  5
E1
330
24
100
AcDbEntity
  8
0
 62
     0
100
AcDbLine
 10
39.60579551161419
 20
17.07323241787
 30
0.0
 11
39.4917792036505
 21
17.18724872583369
 31
0.0
  0
LINE
  5
E2
330
24
100
AcDbEntity
  8
0
 62
     0
100
AcDbLine
 10
39.88053522156519
 20
17.32882279380891
 30
0.0
 11
39.61817072156518
 21
17.59118729380892
 31
0.0
  0
LINE
  5
E3
330
24
100
AcDbEntity
  8
0
 62
     0
100
AcDbLine
 10
39.88053522156519
 20
17.85915287969882
 30
0.0
 11
39.83417072156517
 21
17.90551737969884
 31
0.0
  0
LINE
  5
E4
330
24
100
AcDbEntity
  8
0
 62
     0
100
AcDbLine
 10
39.49542745842189
 20
18.24426064284213
 30
0.0
 11
39.3841707215652
 21
18.35551737969881
 31
0.0
  0
LINE
  5
E5
330
24
100
AcDbEntity
  8
0
 62
     0
100
AcDbLine
 10
39.680455683394
 20
18.05923241787001
 30
0.0
 11
39.56643937543033
 21
18.17324872583369
 31
0.0
  0
LINE
  5
E6
330
24
100
AcDbEntity
  8
0
 62
     0
100
AcDbLine
 10
39.96053522156516
 20
18.30948296558876
 30
0.0
 11
39.88328576928378
 21
18.38673241787013
 31
0.0
  0
LINE
  5
E7
330
24
100
AcDbEntity
  8
0
 62
     0
100
AcDbLine
 10
39.88652373553835
 20
13.54423241787014
 30
0.0
 11
39.48045950402706
 21
13.95029664938143
 31
0.0
  0
LINE
  5
E8
330
24
100
AcDbEntity
  8
0
 62
     0
100
AcDbLine
 10
39.83498905364513
 20
13.06543701387345
 30
0.0
 11
39.66953522156517
 21
13.2308908459534
 31
0.0
  0
LINE
  5
E9
330
24
100
AcDbEntity
  8
0
 62
     0
100
AcDbLine
 10
39.16936171134913
 20
13.73106435616945
 30
0.0
 11
38.95012941813715
 21
13.95029664938143
 31
0.0
  0
LINE
  5
EA
330
24
100
AcDbEntity
  8
0
 62
     0
100
AcDbLine
 10
39.31932524996382
 20
13.05077073166485
 30
0.0
 11
39.19255138979429
 21
13.17754459183437
 31
0.0
  0
LINE
  5
EB
330
24
100
AcDbEntity
  8
0
 62
     0
100
AcDbLine
 10
38.64021619426358
 20
13.72987978736508
 30
0.0
 11
38.41979933224724
 21
13.95029664938143
 31
0.0
  0
LINE
  5
EC
330
24
100
AcDbEntity
  8
0
 62
     0
100
AcDbLine
 10
38.8036614462825
 20
13.03610444945625
 30
0.0
 11
38.66340587270876
 21
13.17636002303
 31
0.0
  0
LINE
  5
ED
330
24
100
AcDbEntity
  8
0
 62
     0
100
AcDbLine
 10
38.11107067717803
 20
13.72869521856072
 30
0.0
 11
37.88946924635733
 21
13.95029664938143
 31
0.0
  0
LINE
  5
EE
330
24
100
AcDbEntity
  8
0
 62
     0
100
AcDbLine
 10
38.2879976426012
 20
13.02143816724765
 30
0.0
 11
38.13426035562322
 21
13.17517545422562
 31
0.0
  0
LINE
  5
EF
330
24
100
AcDbEntity
  8
0
 62
     0
100
AcDbLine
 10
37.5819251600925
 20
13.72751064975635
 30
0.0
 11
37.35913916046741
 21
13.95029664938143
 31
0.0
  0
LINE
  5
F0
330
24
100
AcDbEntity
  8
0
 62
     0
100
AcDbLine
 10
37.77233383891988
 20
13.00677188503905
 30
0.0
 11
37.60511483853767
 21
13.17399088542126
 31
0.0
  0
LINE
  5
F1
330
24
100
AcDbEntity
  8
0
 62
     0
100
AcDbLine
 10
37.05277964300695
 20
13.72632608095198
 30
0.0
 11
36.8288090745775
 21
13.95029664938143
 31
0.0
  0
LINE
  5
F2
330
24
100
AcDbEntity
  8
0
 62
     0
100
AcDbLine
 10
37.25667003523857
 20
12.99210560283046
 30
0.0
 11
37.07596932145213
 21
13.17280631661689
 31
0.0
  0
LINE
  5
F3
330
24
100
AcDbEntity
  8
0
 62
     0
100
AcDbLine
 10
36.52363412592141
 20
13.72514151214761
 30
0.0
 11
36.2984789886876
 21
13.95029664938143
 31
0.0
  0
LINE
  5
F4
330
24
100
AcDbEntity
  8
0
 62
     0
100
AcDbLine
 10
36.74100623155725
 20
12.97743932062186
 30
0.0
 11
36.54682380436659
 21
13.17162174781253
 31
0.0
  0
LINE
  5
F5
330
24
100
AcDbEntity
  8
0
 62
     0
100
AcDbLine
 10
36.22534242787594
 20
12.96277303841326
 30
0.0
 11
36.03053522156518
 21
13.15758024472402
 31
0.0
  0
LINE
  5
F6
330
24
100
AcDbEntity
  8
0
 62
     0
100
AcDbLine
 10
39.88053522156518
 20
14.08055101773321
 30
0.0
 11
39.70585382142825
 21
14.25523241787014
 31
0.0
  0
LINE
  5
F7
330
24
100
AcDbEntity
  8
0
 62
     0
100
AcDbLine
 10
39.54085382142825
 20
14.42023241787014
 30
0.0
 11
39.39838204640025
 21
14.56270419289815
 31
0.0
  0
LINE
  5
F8
330
24
100
AcDbEntity
  8
0
 62
     0
100
AcDbLine
 10
39.96053522156516
 20
14.53088110362314
 30
0.0
 11
39.95259495922475
 21
14.53882136596356
 31
0.0
  0
LINE
  5
F9
330
24
100
AcDbEntity
  8
0
 62
     0
100
AcDbLine
 10
39.67020021528172
 20
14.82121610990659
 30
0.0
 11
39.55618390731831
 21
14.93523241787
 31
0.0
  0
LINE
  5
FA
330
24
100
AcDbEntity
  8
0
 62
     0
100
AcDbLine
 10
39.88053522156519
 20
14.61088110362312
 30
0.0
 11
39.77017072156519
 21
14.72124560362312
 31
0.0
  0
LINE
  5
FB
330
24
100
AcDbEntity
  8
0
 62
     0
100
AcDbLine
 10
39.96053522156517
 20
15.06121118951305
 30
0.0
 11
39.61817072156518
 21
15.40357568951304
 31
0.0
  0
LINE
  5
FC
330
24
100
AcDbEntity
  8
0
 62
     0
100
AcDbLine
 10
39.88053522156518
 20
15.67154127540295
 30
0.0
 11
39.63084407909812
 21
15.92123241787
 31
0.0
  0
LINE
  5
FD
330
24
100
AcDbEntity
  8
0
 62
     0
100
AcDbLine
 10
39.96053522156516
 20
16.12187136129287
 30
0.0
 11
39.92966995021238
 21
16.15273663264566
 31
0.0
  0
LINE
  5
FE
330
24
100
AcDbEntity
  8
0
 62
     0
100
AcDbLine
 10
39.88053522156519
 20
16.20187136129285
 30
0.0
 11
39.61817072156518
 21
16.46423586129286
 31
0.0
  0
LINE
  5
FF
330
24
100
AcDbEntity
  8
0
 62
     0
100
AcDbLine
 10
39.88053522156519
 20
16.73220144718276
 30
0.0
 11
39.70550425087794
 21
16.90723241787001
 31
0.0
  0
LINE
  5
100
330
24
100
AcDbEntity
  8
0
 62
     0
100
AcDbLine
 10
39.53950425087795
 20
17.07323241787
 30
0.0
 11
39.48417072156517
 21
17.12856594718279
 31
0.0
  0
LINE
  5
101
330
24
100
AcDbEntity
  8
0
 62
     0
100
AcDbLine
 10
39.88053522156519
 20
17.26253153307267
 30
0.0
 11
39.61817072156518
 21
17.52489603307268
 31
0.0
  0
LINE
  5
102
330
24
100
AcDbEntity
  8
0
 62
     0
100
AcDbLine
 10
39.88053522156519
 20
17.79286161896258
 30
0.0
 11
39.78016442265777
 21
17.89323241787001
 31
0.0
  0
LINE
  5
103
330
24
100
AcDbEntity
  8
0
 62
     0
100
AcDbLine
 10
39.42913619768565
 20
18.24426064284213
 30
0.0
 11
39.3841707215652
 21
18.28922611896257
 31
0.0
  0
LINE
  5
104
330
24
100
AcDbEntity
  8
0
 62
     0
100
AcDbLine
 10
39.61416442265777
 20
18.05923241787
 30
0.0
 11
39.50014811469408
 21
18.17324872583369
 31
0.0
  0
LINE
  5
105
330
24
100
AcDbEntity
  8
0
 62
     0
100
AcDbLine
 10
39.94139226240129
 20
18.2623346640164
 30
0.0
 11
39.81699450854754
 21
18.38673241787014
 31
0.0
  0
LINE
  5
106
330
24
100
AcDbEntity
  8
0
 62
     0
100
AcDbLine
 10
39.96053522156518
 20
13.27134714963459
 30
0.0
 11
39.87664995332962
 21
13.35523241787014
 31
0.0
  0
LINE
  5
107
330
24
100
AcDbEntity
  8
0
 62
     0
100
AcDbLine
 10
39.51126201706949
 20
13.72062035413029
 30
0.0
 11
39.28158572181834
 21
13.95029664938143
 31
0.0
  0
LINE
  5
108
330
24
100
AcDbEntity
  8
0
 62
     0
100
AcDbLine
 10
39.68764995332963
 20
13.54423241787014
 30
0.0
 11
39.66953522156517
 21
13.5623471496346
 31
0.0
  0
LINE
  5
109
330
24
100
AcDbEntity
  8
0
 62
     0
100
AcDbLine
 10
39.64161512726464
 20
13.05993715804522
 30
0.0
 11
39.53445169551467
 21
13.16710058979519
 31
0.0
  0
LINE
  5
10A
330
24
100
AcDbEntity
  8
0
 62
     0
100
AcDbLine
 10
38.98211649998394
 20
13.71943578532591
 30
0.0
 11
38.75125563592843
 21
13.95029664938143
 31
0.0
  0
LINE
  5
10B
330
24
100
AcDbEntity
  8
0
 62
     0
100
AcDbLine
 10
39.12595132358333
 20
13.04527087583662
 30
0.0
 11
39.00530617842912
 21
13.16591602099083
 31
0.0
  0
LINE
  5
10C
330
24
100
AcDbEntity
  8
0
 62
     0
100
AcDbLine
 10
38.4529709828984
 20
13.71825121652154
 30
0.0
 11
38.22092555003852
 21
13.95029664938143
 31
0.0
  0
LINE
  5
10D
330
24
100
AcDbEntity
  8
0
 62
     0
100
AcDbLine
 10
38.61028751990201
 20
13.03060459362803
 30
0.0
 11
38.47616066134358
 21
13.16473145218646
 31
0.0
  0
LINE
  5
10E
330
24
100
AcDbEntity
  8
0
 62
     0
100
AcDbLine
 10
37.92382546581286
 20
13.71706664771717
 30
0.0
 11
37.6905954641486
 21
13.95029664938143
 31
0.0
  0
LINE
  5
10F
330
24
100
AcDbEntity
  8
0
 62
     0
100
AcDbLine
 10
38.0946237162207
 20
13.01593831141943
 30
0.0
 11
37.94701514425804
 21
13.16354688338209
 31
0.0
  0
LINE
  5
110
330
24
100
AcDbEntity
  8
0
 62
     0
100
AcDbLine
 10
37.34994251855972
 20
13.76061950908041
 30
0.0
 11
37.1602653782587
 21
13.95029664938143
 31
0.0
  0
LINE
  5
111
330
24
100
AcDbEntity
  8
0
 62
     0
100
AcDbLine
 10
37.39467994872732
 20
13.71588207891281
 30
0.0
 11
37.38589983422382
 21
13.7246621934163
 31
0.0
  0
LINE
  5
112
330
24
100
AcDbEntity
  8
0
 62
     0
100
AcDbLine
 10
37.57895991253938
 20
13.00127202921083
 30
0.0
 11
37.41786962717249
 21
13.16236231457772
 31
0.0
  0
LINE
  5
113
330
24
100
AcDbEntity
  8
0
 62
     0
100
AcDbLine
 10
36.82079700147417
 20
13.75943494027604
 30
0.0
 11
36.62993529236879
 21
13.95029664938143
 31
0.0
  0
LINE
  5
114
330
24
100
AcDbEntity
  8
0
 62
     0
100
AcDbLine
 10
37.06329610885807
 20
12.98660574700223
 30
0.0
 11
36.88872411008695
 21
13.16117774577335
 31
0.0
  0
LINE
  5
115
330
24
100
AcDbEntity
  8
0
 62
     0
100
AcDbLine
 10
36.29165148438863
 20
13.75825037147167
 30
0.0
 11
36.09960520647887
 21
13.95029664938143
 31
0.0
  0
LINE
  5
116
330
24
100
AcDbEntity
  8
0
 62
     0
100
AcDbLine
 10
36.54763230517676
 20
12.97193946479363
 30
0.0
 11
36.35957859300141
 21
13.15999317696899
 31
0.0
  0
LINE
  5
117
330
24
100
AcDbEntity
  8
0
 62
     0
100
AcDbLine
 10
36.03196850149545
 20
12.95727318258504
 30
0.0
 11
36.03053522156517
 21
12.95870646251531
 31
0.0
  0
LINE
  5
118
330
24
100
AcDbEntity
  8
0
 62
     0
100
AcDbLine
 10
39.88053522156518
 20
13.8816772355245
 30
0.0
 11
39.77017072156519
 21
13.99204173552449
 31
0.0
  0
LINE
  5
119
330
24
100
AcDbEntity
  8
0
 62
     0
100
AcDbLine
 10
39.64945181424752
 20
14.11276064284216
 30
0.0
 11
39.50698003921954
 21
14.25523241787014
 31
0.0
  0
LINE
  5
11A
330
24
100
AcDbEntity
  8
0
 62
     0
100
AcDbLine
 10
39.96053522156516
 20
14.33200732141442
 30
0.0
 11
39.72983835008144
 21
14.56270419289815
 31
0.0
  0
LINE
  5
11B
330
24
100
AcDbEntity
  8
0
 62
     0
100
AcDbLine
 10
39.94512875119258
 20
14.87774387767692
 30
0.0
 11
39.83417072156516
 21
14.98870190730433
 31
0.0
  0
LINE
  5
11C
330
24
100
AcDbEntity
  8
0
 62
     0
100
AcDbLine
 10
39.72164021099949
 20
15.10123241787
 30
0.0
 11
39.60762390303581
 21
15.21524872583368
 31
0.0
  0
LINE
  5
11D
330
24
100
AcDbEntity
  8
0
 62
     0
100
AcDbLine
 10
39.88053522156518
 20
15.47266749319423
 30
0.0
 11
39.61817072156518
 21
15.73503199319423
 31
0.0
  0
LINE
  5
11E
330
24
100
AcDbEntity
  8
0
 62
     0
100
AcDbLine
 10
39.54598660485283
 20
15.80721610990658
 30
0.0
 11
39.48417072156517
 21
15.86903199319424
 31
0.0
  0
LINE
  5
11F
330
24
100
AcDbEntity
  8
0
 62
     0
100
AcDbLine
 10
39.96053522156517
 20
15.92299757908415
 30
0.0
 11
39.83417072156516
 21
16.04936207908416
 31
0.0
  0
LINE
  5
120
330
24
100
AcDbEntity
  8
0
 62
     0
100
AcDbLine
 10
39.79630038277931
 20
16.08723241787001
 30
0.0
 11
39.61817072156518
 21
16.26536207908414
 31
0.0
  0
LINE
  5
121
330
24
100
AcDbEntity
  8
0
 62
     0
100
AcDbLine
 10
39.88053522156519
 20
16.53332766497404
 30
0.0
 11
39.50663046866923
 21
16.90723241787
 31
0.0
  0
LINE
  5
122
330
24
100
AcDbEntity
  8
0
 62
     0
100
AcDbLine
 10
39.96053522156517
 20
16.98365775086398
 30
0.0
 11
39.61817072156518
 21
17.32602225086397
 31
0.0
  0
LINE
  5
123
330
24
100
AcDbEntity
  8
0
 62
     0
100
AcDbLine
 10
39.88053522156519
 20
17.59398783675387
 30
0.0
 11
39.58129064044905
 21
17.89323241787
 31
0.0
  0
LINE
  5
124
330
24
100
AcDbEntity
  8
0
 62
     0
100
AcDbLine
 10
39.88053522156519
 20
18.12431792264378
 30
0.0
 11
39.61812072633883
 21
18.38673241787014
 31
0.0
  0
ENDBLK
  5
125
330
24
100
AcDbEntity
  8
0
100
AcDbBlockEnd
  0
BLOCK
  5
7B1
330
7A6
100
AcDbEntity
  8
0
100
AcDbBlockBegin
  2
*D3
 70
     1
 10
0.0
 20
0.0
 30
0.0
  3
*D3
  1

  0
LINE
  5
98C
330
7A6
100
AcDbEntity
  8
DIM
 62
     0
370
    -2
100
AcDbLine
 10
5.051790063668743
 20
23.07967265727054
 30
0.0
 11
5.051790063668743
 21
26.69167265727053
 31
0.0
  0
LINE
  5
98D
330
7A6
100
AcDbEntity
  8
DIM
 62
     0
370
    -2
100
AcDbLine
 10
12.53679006366874
 20
23.07967265727054
 30
0.0
 11
12.53679006366874
 21
26.69167265727053
 31
0.0
  0
LINE
  5
98E
330
7A6
100
AcDbEntity
  8
DIM
 62
     0
370
    -2
100
AcDbLine
 10
5.771790063668743
 20
26.31967265727053
 30
0.0
 11
8.309290063668743
 21
26.31967265727053
 31
0.0
  0
LINE
  5
98F
330
7A6
100
AcDbEntity
  8
DIM
 62
     0
370
    -2
100
AcDbLine
 10
11.81679006366874
 20
26.31967265727053
 30
0.0
 11
9.279290063668742
 21
26.31967265727053
 31
0.0
  0
SOLID
  5
990
330
7A6
100
AcDbEntity
  8
DIM
 62
     0
100
AcDbTrace
 10
5.771790063668743
 20
26.43967265727053
 30
0.0
 11
5.771790063668743
 21
26.19967265727053
 31
0.0
 12
5.051790063668743
 22
26.31967265727053
 32
0.0
 13
5.051790063668743
 23
26.31967265727053
 33
0.0
  0
SOLID
  5
991
330
7A6
100
AcDbEntity
  8
DIM
 62
     0
100
AcDbTrace
 10
11.81679006366874
 20
26.43967265727053
 30
0.0
 11
11.81679006366874
 21
26.19967265727053
 31
0.0
 12
12.53679006366874
 22
26.31967265727053
 32
0.0
 13
12.53679006366874
 23
26.31967265727053
 33
0.0
  0
MTEXT
  5
992
330
7A6
100
AcDbEntity
  8
DIM
 62
     0
100
AcDbMText
 10
8.794290063668743
 20
26.31967265727053
 30
0.0
 40
0.5
 41
0.0
 71
     5
 72
     1
  1
\A1;A
 73
     1
 44
1.0
  0
POINT
  5
993
330
7A6
100
AcDbEntity
  8
DEFPOINTS
 62
     0
100
AcDbPoint
 10
5.051790063668743
 20
22.82767265727054
 30
0.0
  0
POINT
  5
994
330
7A6
100
AcDbEntity
  8
DEFPOINTS
 62
     0
100
AcDbPoint
 10
12.53679006366874
 20
22.82767265727054
 30
0.0
  0
POINT
  5
995
330
7A6
100
AcDbEntity
  8
DEFPOINTS
 62
     0
100
AcDbPoint
 10
12.53679006366874
 20
26.31967265727053
 30
0.0
  0
ENDBLK
  5
7B2
330
7A6
100
AcDbEntity
  8
0
100
AcDbBlockEnd
  0
BLOCK
  5
7BE
330
7B3
100
AcDbEntity
  8
0
100
AcDbBlockBegin
  2
*D4
 70
     1
 10
0.0
 20
0.0
 30
0.0
  3
*D4
  1

  0
LINE
  5
96E
330
7B3
100
AcDbEntity
  8
DIM
 62
     0
370
    -2
100
AcDbLine
 10
8.301290063668748
 20
13.13067265727053
 30
0.0
 11
8.301290063668748
 21
10.88641915599708
 31
0.0
  0
LINE
  5
96F
330
7B3
100
AcDbEntity
  8
DIM
 62
     0
370
    -2
100
AcDbLine
 10
7.315290063668744
 20
13.13067265727053
 30
0.0
 11
7.315290063668744
 21
10.88641915599708
 31
0.0
  0
LINE
  5
970
330
7B3
100
AcDbEntity
  8
DIM
 62
     0
370
    -2
100
AcDbLine
 10
9.021290063668748
 20
11.25841915599709
 30
0.0
 11
9.741290063668747
 21
11.25841915599709
 31
0.0
  0
LINE
  5
971
330
7B3
100
AcDbEntity
  8
DIM
 62
     0
370
    -2
100
AcDbLine
 10
6.595290063668744
 20
11.25841915599709
 30
0.0
 11
5.875290063668744
 21
11.25841915599709
 31
0.0
  0
SOLID
  5
972
330
7B3
100
AcDbEntity
  8
DIM
 62
     0
100
AcDbTrace
 10
9.021290063668748
 20
11.37841915599708
 30
0.0
 11
9.021290063668748
 21
11.13841915599709
 31
0.0
 12
8.301290063668748
 22
11.25841915599709
 32
0.0
 13
8.301290063668748
 23
11.25841915599709
 33
0.0
  0
SOLID
  5
973
330
7B3
100
AcDbEntity
  8
DIM
 62
     0
100
AcDbTrace
 10
6.595290063668744
 20
11.37841915599708
 30
0.0
 11
6.595290063668744
 21
11.13841915599709
 31
0.0
 12
7.315290063668744
 22
11.25841915599709
 32
0.0
 13
7.315290063668744
 23
11.25841915599709
 33
0.0
  0
MTEXT
  5
974
330
7B3
100
AcDbEntity
  8
DIM
 62
     0
100
AcDbMText
 10
3.171540063668744
 20
11.25841915599709
 30
0.0
 40
0.5
 41
0.0
 71
     5
 72
     1
  1
\A1;0.986 [25] TYP.
 73
     1
 44
1.0
  0
POINT
  5
975
330
7B3
100
AcDbEntity
  8
DEFPOINTS
 62
     0
100
AcDbPoint
 10
8.301290063668748
 20
13.38267265727054
 30
0.0
  0
POINT
  5
976
330
7B3
100
AcDbEntity
  8
DEFPOINTS
 62
     0
100
AcDbPoint
 10
7.315290063668744
 20
13.38267265727054
 30
0.0
  0
POINT
  5
977
330
7B3
100
AcDbEntity
  8
DEFPOINTS
 62
     0
100
AcDbPoint
 10
7.315290063668744
 20
11.25841915599709
 30
0.0
  0
ENDBLK
  5
7BF
330
7B3
100
AcDbEntity
  8
0
100
AcDbBlockEnd
  0
BLOCK
  5
7CB
330
7C0
100
AcDbEntity
  8
0
100
AcDbBlockBegin
  2
*D5
 70
     1
 10
0.0
 20
0.0
 30
0.0
  3
*D5
  1

  0
LINE
  5
95A
330
7C0
100
AcDbEntity
  8
DIM
 62
     0
370
    -2
100
AcDbLine
 10
6.426290063668748
 20
13.42417265727053
 30
0.0
 11
6.426290063668748
 21
8.886419155997089
 31
0.0
  0
LINE
  5
95B
330
7C0
100
AcDbEntity
  8
DIM
 62
     0
370
    -2
100
AcDbLine
 10
11.16229006366874
 20
13.42417265727053
 30
0.0
 11
11.16229006366874
 21
8.886419155997089
 31
0.0
  0
LINE
  5
95C
330
7C0
100
AcDbEntity
  8
DIM
 62
     0
370
    -2
100
AcDbLine
 10
7.146290063668748
 20
9.258419155997088
 30
0.0
 11
8.309290063668747
 21
9.258419155997088
 31
0.0
  0
LINE
  5
95D
330
7C0
100
AcDbEntity
  8
DIM
 62
     0
370
    -2
100
AcDbLine
 10
10.44229006366874
 20
9.258419155997088
 30
0.0
 11
9.279290063668746
 21
9.258419155997088
 31
0.0
  0
SOLID
  5
95E
330
7C0
100
AcDbEntity
  8
DIM
 62
     0
100
AcDbTrace
 10
7.146290063668748
 20
9.378419155997088
 30
0.0
 11
7.146290063668748
 21
9.138419155997089
 31
0.0
 12
6.426290063668748
 22
9.258419155997088
 32
0.0
 13
6.426290063668748
 23
9.258419155997088
 33
0.0
  0
SOLID
  5
95F
330
7C0
100
AcDbEntity
  8
DIM
 62
     0
100
AcDbTrace
 10
10.44229006366874
 20
9.378419155997088
 30
0.0
 11
10.44229006366874
 21
9.138419155997089
 31
0.0
 12
11.16229006366874
 22
9.258419155997088
 32
0.0
 13
11.16229006366874
 23
9.258419155997088
 33
0.0
  0
MTEXT
  5
960
330
7C0
100
AcDbEntity
  8
DIM
 62
     0
100
AcDbMText
 10
8.794290063668746
 20
9.258419155997088
 30
0.0
 40
0.5
 41
0.0
 71
     5
 72
     1
  1
\A1;E
 73
     1
 44
1.0
  0
POINT
  5
961
330
7C0
100
AcDbEntity
  8
DEFPOINTS
 62
     0
100
AcDbPoint
 10
6.426290063668748
 20
13.67617265727053
 30
0.0
  0
POINT
  5
962
330
7C0
100
AcDbEntity
  8
DEFPOINTS
 62
     0
100
AcDbPoint
 10
11.16229006366874
 20
13.67617265727053
 30
0.0
  0
POINT
  5
963
330
7C0
100
AcDbEntity
  8
DEFPOINTS
 62
     0
100
AcDbPoint
 10
11.16229006366874
 20
9.258419155997088
 30
0.0
  0
ENDBLK
  5
7CC
330
7C0
100
AcDbEntity
  8
0
100
AcDbBlockEnd
  0
BLOCK
  5
7D8
330
7CD
100
AcDbEntity
  8
0
100
AcDbBlockBegin
  2
*D6
 70
     1
 10
0.0
 20
0.0
 30
0.0
  3
*D6
  1

  0
LINE
  5
950
330
7CD
100
AcDbEntity
  8
DIM
 62
     0
370
    -2
100
AcDbLine
 10
5.84929006366875
 20
14.10467265727053
 30
0.0
 11
5.84929006366875
 21
7.886419155997089
 31
0.0
  0
LINE
  5
951
330
7CD
100
AcDbEntity
  8
DIM
 62
     0
370
    -2
100
AcDbLine
 10
11.73929006366874
 20
14.10467265727053
 30
0.0
 11
11.73929006366874
 21
7.886419155997089
 31
0.0
  0
LINE
  5
952
330
7CD
100
AcDbEntity
  8
DIM
 62
     0
370
    -2
100
AcDbLine
 10
6.569290063668749
 20
8.258419155997088
 30
0.0
 11
8.309290063668747
 21
8.258419155997088
 31
0.0
  0
LINE
  5
953
330
7CD
100
AcDbEntity
  8
DIM
 62
     0
370
    -2
100
AcDbLine
 10
11.01929006366874
 20
8.258419155997088
 30
0.0
 11
9.279290063668746
 21
8.258419155997088
 31
0.0
  0
SOLID
  5
954
330
7CD
100
AcDbEntity
  8
DIM
 62
     0
100
AcDbTrace
 10
6.569290063668749
 20
8.378419155997088
 30
0.0
 11
6.569290063668749
 21
8.138419155997089
 31
0.0
 12
5.84929006366875
 22
8.258419155997088
 32
0.0
 13
5.84929006366875
 23
8.258419155997088
 33
0.0
  0
SOLID
  5
955
330
7CD
100
AcDbEntity
  8
DIM
 62
     0
100
AcDbTrace
 10
11.01929006366874
 20
8.378419155997088
 30
0.0
 11
11.01929006366874
 21
8.138419155997089
 31
0.0
 12
11.73929006366874
 22
8.258419155997088
 32
0.0
 13
11.73929006366874
 23
8.258419155997088
 33
0.0
  0
MTEXT
  5
956
330
7CD
100
AcDbEntity
  8
DIM
 62
     0
100
AcDbMText
 10
8.794290063668746
 20
8.258419155997088
 30
0.0
 40
0.5
 41
0.0
 71
     5
 72
     1
  1
\A1;D
 73
     1
 44
1.0
  0
POINT
  5
957
330
7CD
100
AcDbEntity
  8
DEFPOINTS
 62
     0
100
AcDbPoint
 10
5.84929006366875
 20
14.35667265727053
 30
0.0
  0
POINT
  5
958
330
7CD
100
AcDbEntity
  8
DEFPOINTS
 62
     0
100
AcDbPoint
 10
11.73929006366874
 20
14.35667265727053
 30
0.0
  0
POINT
  5
959
330
7CD
100
AcDbEntity
  8
DEFPOINTS
 62
     0
100
AcDbPoint
 10
11.73929006366874
 20
8.258419155997088
 30
0.0
  0
ENDBLK
  5
7D9
330
7CD
100
AcDbEntity
  8
0
100
AcDbBlockEnd
  0
BLOCK
  5
7E5
330
7DA
100
AcDbEntity
  8
0
100
AcDbBlockBegin
  2
*D7
 70
     1
 10
0.0
 20
0.0
 30
0.0
  3
*D7
  1

  0
LINE
  5
982
330
7DA
100
AcDbEntity
  8
DIM
 62
     0
370
    -2
100
AcDbLine
 10
5.546290063668738
 20
23.07917265727053
 30
0.0
 11
5.546290063668738
 21
24.69167265727053
 31
0.0
  0
LINE
  5
983
330
7DA
100
AcDbEntity
  8
DIM
 62
     0
370
    -2
100
AcDbLine
 10
12.04229006366874
 20
23.07917265727053
 30
0.0
 11
12.04229006366874
 21
24.69167265727053
 31
0.0
  0
LINE
  5
984
330
7DA
100
AcDbEntity
  8
DIM
 62
     0
370
    -2
100
AcDbLine
 10
6.266290063668738
 20
24.31967265727053
 30
0.0
 11
8.309290063668743
 21
24.31967265727053
 31
0.0
  0
LINE
  5
985
330
7DA
100
AcDbEntity
  8
DIM
 62
     0
370
    -2
100
AcDbLine
 10
11.32229006366874
 20
24.31967265727053
 30
0.0
 11
9.279290063668742
 21
24.31967265727053
 31
0.0
  0
SOLID
  5
986
330
7DA
100
AcDbEntity
  8
DIM
 62
     0
100
AcDbTrace
 10
6.266290063668738
 20
24.43967265727053
 30
0.0
 11
6.266290063668738
 21
24.19967265727053
 31
0.0
 12
5.546290063668738
 22
24.31967265727053
 32
0.0
 13
5.546290063668738
 23
24.31967265727053
 33
0.0
  0
SOLID
  5
987
330
7DA
100
AcDbEntity
  8
DIM
 62
     0
100
AcDbTrace
 10
11.32229006366874
 20
24.43967265727053
 30
0.0
 11
11.32229006366874
 21
24.19967265727053
 31
0.0
 12
12.04229006366874
 22
24.31967265727053
 32
0.0
 13
12.04229006366874
 23
24.31967265727053
 33
0.0
  0
MTEXT
  5
988
330
7DA
100
AcDbEntity
  8
DIM
 62
     0
100
AcDbMText
 10
8.794290063668743
 20
24.31967265727053
 30
0.0
 40
0.5
 41
0.0
 71
     5
 72
     1
  1
\A1;C
 73
     1
 44
1.0
  0
POINT
  5
989
330
7DA
100
AcDbEntity
  8
DEFPOINTS
 62
     0
100
AcDbPoint
 10
5.546290063668738
 20
22.82717265727054
 30
0.0
  0
POINT
  5
98A
330
7DA
100
AcDbEntity
  8
DEFPOINTS
 62
     0
100
AcDbPoint
 10
12.04229006366874
 20
22.82717265727054
 30
0.0
  0
POINT
  5
98B
330
7DA
100
AcDbEntity
  8
DEFPOINTS
 62
     0
100
AcDbPoint
 10
12.04229006366874
 20
24.31967265727053
 30
0.0
  0
ENDBLK
  5
7E6
330
7DA
100
AcDbEntity
  8
0
100
AcDbBlockEnd
  0
BLOCK
  5
7F2
330
7E7
100
AcDbEntity
  8
0
100
AcDbBlockBegin
  2
*D8
 70
     1
 10
0.0
 20
0.0
 30
0.0
  3
*D8
  1

  0
LINE
  5
978
330
7E7
100
AcDbEntity
  8
DIM
 62
     0
370
    -2
100
AcDbLine
 10
5.462790063668744
 20
22.5770156927685
 30
0.0
 11
5.462790063668744
 21
25.69167265727053
 31
0.0
  0
LINE
  5
979
330
7E7
100
AcDbEntity
  8
DIM
 62
     0
370
    -2
100
AcDbLine
 10
12.12579006366874
 20
22.57701569276856
 30
0.0
 11
12.12579006366874
 21
25.69167265727053
 31
0.0
  0
LINE
  5
97A
330
7E7
100
AcDbEntity
  8
DIM
 62
     0
370
    -2
100
AcDbLine
 10
6.182790063668744
 20
25.31967265727053
 30
0.0
 11
8.309290063668747
 21
25.31967265727053
 31
0.0
  0
LINE
  5
97B
330
7E7
100
AcDbEntity
  8
DIM
 62
     0
370
    -2
100
AcDbLine
 10
11.40579006366874
 20
25.31967265727053
 30
0.0
 11
9.279290063668746
 21
25.31967265727053
 31
0.0
  0
SOLID
  5
97C
330
7E7
100
AcDbEntity
  8
DIM
 62
     0
100
AcDbTrace
 10
6.182790063668744
 20
25.43967265727053
 30
0.0
 11
6.182790063668744
 21
25.19967265727053
 31
0.0
 12
5.462790063668744
 22
25.31967265727053
 32
0.0
 13
5.462790063668744
 23
25.31967265727053
 33
0.0
  0
SOLID
  5
97D
330
7E7
100
AcDbEntity
  8
DIM
 62
     0
100
AcDbTrace
 10
11.40579006366874
 20
25.43967265727053
 30
0.0
 11
11.40579006366874
 21
25.19967265727053
 31
0.0
 12
12.12579006366874
 22
25.31967265727053
 32
0.0
 13
12.12579006366874
 23
25.31967265727053
 33
0.0
  0
MTEXT
  5
97E
330
7E7
100
AcDbEntity
  8
DIM
 62
     0
100
AcDbMText
 10
8.794290063668746
 20
25.31967265727053
 30
0.0
 40
0.5
 41
0.0
 71
     5
 72
     1
  1
\A1;B
 73
     1
 44
1.0
  0
POINT
  5
97F
330
7E7
100
AcDbEntity
  8
DEFPOINTS
 62
     0
100
AcDbPoint
 10
5.462790063668744
 20
22.3250156927685
 30
0.0
  0
POINT
  5
980
330
7E7
100
AcDbEntity
  8
DEFPOINTS
 62
     0
100
AcDbPoint
 10
12.12579006366874
 20
22.32501569276856
 30
0.0
  0
POINT
  5
981
330
7E7
100
AcDbEntity
  8
DEFPOINTS
 62
     0
100
AcDbPoint
 10
12.12579006366874
 20
25.31967265727053
 30
0.0
  0
ENDBLK
  5
7F3
330
7E7
100
AcDbEntity
  8
0
100
AcDbBlockEnd
  0
BLOCK
  5
7FF
330
7F4
100
AcDbEntity
  8
0
100
AcDbBlockBegin
  2
*D9
 70
     1
 10
0.0
 20
0.0
 30
0.0
  3
*D9
  1

  0
LINE
  5
93C
330
7F4
100
AcDbEntity
  8
DIM
 62
     0
370
    -2
100
AcDbLine
 10
5.291790063668741
 20
12.29567265727053
 30
0.0
 11
1.207790063668736
 21
12.29567265727053
 31
0.0
  0
LINE
  5
93D
330
7F4
100
AcDbEntity
  8
DIM
 62
     0
370
    -2
100
AcDbLine
 10
5.291790063668741
 20
23.31967265727054
 30
0.0
 11
1.207790063668738
 21
23.31967265727054
 31
0.0
  0
LINE
  5
93E
330
7F4
100
AcDbEntity
  8
DIM
 62
     0
370
    -2
100
AcDbLine
 10
1.579790063668736
 20
13.01567265727054
 30
0.0
 11
1.579790063668737
 21
17.19767265727054
 31
0.0
  0
LINE
  5
93F
330
7F4
100
AcDbEntity
  8
DIM
 62
     0
370
    -2
100
AcDbLine
 10
1.579790063668738
 20
22.59967265727054
 30
0.0
 11
1.579790063668737
 21
18.41767265727054
 31
0.0
  0
SOLID
  5
940
330
7F4
100
AcDbEntity
  8
DIM
 62
     0
100
AcDbTrace
 10
1.459790063668736
 20
13.01567265727054
 30
0.0
 11
1.699790063668736
 21
13.01567265727054
 31
0.0
 12
1.579790063668736
 22
12.29567265727053
 32
0.0
 13
1.579790063668736
 23
12.29567265727053
 33
0.0
  0
SOLID
  5
941
330
7F4
100
AcDbEntity
  8
DIM
 62
     0
100
AcDbTrace
 10
1.459790063668738
 20
22.59967265727054
 30
0.0
 11
1.699790063668738
 21
22.59967265727054
 31
0.0
 12
1.579790063668738
 22
23.31967265727054
 32
0.0
 13
1.579790063668738
 23
23.31967265727054
 33
0.0
  0
MTEXT
  5
942
330
7F4
100
AcDbEntity
  8
DIM
 62
     0
100
AcDbMText
 10
1.579790063668734
 20
17.80767265727054
 30
0.0
 40
0.5
 41
0.0
 71
     5
 72
     1
  1
\A1;G
 73
     1
 44
1.0
  0
POINT
  5
943
330
7F4
100
AcDbEntity
  8
DEFPOINTS
 62
     0
100
AcDbPoint
 10
5.54379006366874
 20
12.29567265727053
 30
0.0
  0
POINT
  5
944
330
7F4
100
AcDbEntity
  8
DEFPOINTS
 62
     0
100
AcDbPoint
 10
5.54379006366874
 20
23.31967265727054
 30
0.0
  0
POINT
  5
945
330
7F4
100
AcDbEntity
  8
DEFPOINTS
 62
     0
100
AcDbPoint
 10
1.579790063668738
 20
23.31967265727054
 30
0.0
  0
ENDBLK
  5
800
330
7F4
100
AcDbEntity
  8
0
100
AcDbBlockEnd
  0
BLOCK
  5
80C
330
801
100
AcDbEntity
  8
0
100
AcDbBlockBegin
  2
*D10
 70
     1
 10
0.0
 20
0.0
 30
0.0
  3
*D10
  1

  0
LINE
  5
802
330
801
100
AcDbEntity
  8
DIM
 62
     0
370
    -2
100
AcDbLine
 10
41.52394045801376
 20
23.21017265727054
 30
0.0
 11
49.52798094917927
 21
23.21017265727054
 31
0.0
  0
LINE
  5
803
330
801
100
AcDbEntity
  8
DIM
 62
     0
370
    -2
100
AcDbLine
 10
41.52394045801376
 20
12.40517265727053
 30
0.0
 11
49.52798094917927
 21
12.40517265727053
 31
0.0
  0
LINE
  5
804
330
801
100
AcDbEntity
  8
DIM
 62
     0
370
    -2
100
AcDbLine
 10
49.15598094917927
 20
22.49017265727054
 30
0.0
 11
49.15598094917927
 21
18.41767265727053
 31
0.0
  0
LINE
  5
805
330
801
100
AcDbEntity
  8
DIM
 62
     0
370
    -2
100
AcDbLine
 10
49.15598094917926
 20
13.12517265727053
 30
0.0
 11
49.15598094917927
 21
17.19767265727053
 31
0.0
  0
SOLID
  5
806
330
801
100
AcDbEntity
  8
DIM
 62
     0
100
AcDbTrace
 10
49.03598094917928
 20
22.49017265727054
 30
0.0
 11
49.27598094917927
 21
22.49017265727054
 31
0.0
 12
49.15598094917927
 22
23.21017265727054
 32
0.0
 13
49.15598094917927
 23
23.21017265727054
 33
0.0
  0
SOLID
  5
807
330
801
100
AcDbEntity
  8
DIM
 62
     0
100
AcDbTrace
 10
49.03598094917927
 20
13.12517265727053
 30
0.0
 11
49.27598094917926
 21
13.12517265727053
 31
0.0
 12
49.15598094917926
 22
12.40517265727053
 32
0.0
 13
49.15598094917926
 23
12.40517265727053
 33
0.0
  0
MTEXT
  5
808
330
801
100
AcDbEntity
  8
DIM
 62
     0
100
AcDbMText
 10
49.15598094917926
 20
17.80767265727054
 30
0.0
 40
0.5
 41
0.0
 71
     5
 72
     1
  1
\A1;U
 73
     1
 44
1.0
  0
POINT
  5
809
330
801
100
AcDbEntity
  8
DEFPOINTS
 62
     0
100
AcDbPoint
 10
41.27194045801376
 20
23.21017265727054
 30
0.0
  0
POINT
  5
80A
330
801
100
AcDbEntity
  8
DEFPOINTS
 62
     0
100
AcDbPoint
 10
41.27194045801376
 20
12.40517265727053
 30
0.0
  0
POINT
  5
80B
330
801
100
AcDbEntity
  8
DEFPOINTS
 62
     0
100
AcDbPoint
 10
49.15598094917926
 20
12.40517265727053
 30
0.0
  0
ENDBLK
  5
80D
330
801
100
AcDbEntity
  8
0
100
AcDbBlockEnd
  0
BLOCK
  5
819
330
80E
100
AcDbEntity
  8
0
100
AcDbBlockBegin
  2
*D11
 70
     1
 10
0.0
 20
0.0
 30
0.0
  3
*D11
  1

  0
LINE
  5
80F
330
80E
100
AcDbEntity
  8
DIM
 62
     0
370
    -2
100
AcDbLine
 10
36.21894045801375
 20
12.31617265727053
 30
0.0
 11
34.02494045801373
 21
12.31617265727053
 31
0.0
  0
LINE
  5
810
330
80E
100
AcDbEntity
  8
DIM
 62
     0
370
    -2
100
AcDbLine
 10
36.21894045801375
 20
23.29967265727054
 30
0.0
 11
34.02494045801374
 21
23.29967265727054
 31
0.0
  0
LINE
  5
811
330
80E
100
AcDbEntity
  8
DIM
 62
     0
370
    -2
100
AcDbLine
 10
34.39694045801373
 20
13.03617265727053
 30
0.0
 11
34.39694045801374
 21
17.19792265727053
 31
0.0
  0
LINE
  5
812
330
80E
100
AcDbEntity
  8
DIM
 62
     0
370
    -2
100
AcDbLine
 10
34.39694045801374
 20
22.57967265727054
 30
0.0
 11
34.39694045801374
 21
18.41792265727053
 31
0.0
  0
SOLID
  5
813
330
80E
100
AcDbEntity
  8
DIM
 62
     0
100
AcDbTrace
 10
34.27694045801373
 20
13.03617265727053
 30
0.0
 11
34.51694045801373
 21
13.03617265727053
 31
0.0
 12
34.39694045801373
 22
12.31617265727053
 32
0.0
 13
34.39694045801373
 23
12.31617265727053
 33
0.0
  0
SOLID
  5
814
330
80E
100
AcDbEntity
  8
DIM
 62
     0
100
AcDbTrace
 10
34.27694045801374
 20
22.57967265727054
 30
0.0
 11
34.51694045801373
 21
22.57967265727054
 31
0.0
 12
34.39694045801374
 22
23.29967265727054
 32
0.0
 13
34.39694045801374
 23
23.29967265727054
 33
0.0
  0
MTEXT
  5
815
330
80E
100
AcDbEntity
  8
DIM
 62
     0
100
AcDbMText
 10
34.39694045801373
 20
17.80792265727054
 30
0.0
 40
0.5
 41
0.0
 71
     5
 72
     1
  1
\A1;T
 73
     1
 44
1.0
  0
POINT
  5
816
330
80E
100
AcDbEntity
  8
DEFPOINTS
 62
     0
100
AcDbPoint
 10
36.47094045801376
 20
12.31617265727053
 30
0.0
  0
POINT
  5
817
330
80E
100
AcDbEntity
  8
DEFPOINTS
 62
     0
100
AcDbPoint
 10
36.47094045801376
 20
23.29967265727054
 30
0.0
  0
POINT
  5
818
330
80E
100
AcDbEntity
  8
DEFPOINTS
 62
     0
100
AcDbPoint
 10
34.39694045801374
 20
23.29967265727054
 30
0.0
  0
ENDBLK
  5
81A
330
80E
100
AcDbEntity
  8
0
100
AcDbBlockEnd
  0
BLOCK
  5
826
330
81B
100
AcDbEntity
  8
0
100
AcDbBlockBegin
  2
*D12
 70
     1
 10
0.0
 20
0.0
 30
0.0
  3
*D12
  1

  0
LINE
  5
81C
330
81B
100
AcDbEntity
  8
DIM
 62
     0
370
    -2
100
AcDbLine
 10
37.42194045801375
 20
23.57167265727052
 30
0.0
 11
37.42194045801375
 21
25.41167265727055
 31
0.0
  0
LINE
  5
81D
330
81B
100
AcDbEntity
  8
DIM
 62
     0
370
    -2
100
AcDbLine
 10
36.24094045801374
 20
23.04317265727052
 30
0.0
 11
36.24094045801374
 21
25.41167265727055
 31
0.0
  0
LINE
  5
81E
330
81B
100
AcDbEntity
  8
DIM
 62
     0
370
    -2
100
AcDbLine
 10
38.14194045801375
 20
25.03967265727055
 30
0.0
 11
38.86194045801374
 21
25.03967265727055
 31
0.0
  0
LINE
  5
81F
330
81B
100
AcDbEntity
  8
DIM
 62
     0
370
    -2
100
AcDbLine
 10
35.52094045801374
 20
25.03967265727055
 30
0.0
 11
34.80094045801374
 21
25.03967265727055
 31
0.0
  0
SOLID
  5
820
330
81B
100
AcDbEntity
  8
DIM
 62
     0
100
AcDbTrace
 10
38.14194045801375
 20
25.15967265727055
 30
0.0
 11
38.14194045801375
 21
24.91967265727055
 31
0.0
 12
37.42194045801375
 22
25.03967265727055
 32
0.0
 13
37.42194045801375
 23
25.03967265727055
 33
0.0
  0
SOLID
  5
821
330
81B
100
AcDbEntity
  8
DIM
 62
     0
100
AcDbTrace
 10
35.52094045801374
 20
25.15967265727055
 30
0.0
 11
35.52094045801374
 21
24.91967265727055
 31
0.0
 12
36.24094045801374
 22
25.03967265727055
 32
0.0
 13
36.24094045801374
 23
25.03967265727055
 33
0.0
  0
MTEXT
  5
822
330
81B
100
AcDbEntity
  8
DIM
 62
     0
100
AcDbMText
 10
36.83144045801374
 20
25.03967265727055
 30
0.0
 40
0.5
 41
0.0
 71
     5
 72
     1
  1
\A1;R
 73
     1
 44
1.0
  0
POINT
  5
823
330
81B
100
AcDbEntity
  8
DEFPOINTS
 62
     0
100
AcDbPoint
 10
37.42194045801375
 20
23.31967265727052
 30
0.0
  0
POINT
  5
824
330
81B
100
AcDbEntity
  8
DEFPOINTS
 62
     0
100
AcDbPoint
 10
36.24094045801374
 20
22.79117265727052
 30
0.0
  0
POINT
  5
825
330
81B
100
AcDbEntity
  8
DEFPOINTS
 62
     0
100
AcDbPoint
 10
36.24094045801374
 20
25.03967265727055
 30
0.0
  0
ENDBLK
  5
827
330
81B
100
AcDbEntity
  8
0
100
AcDbBlockEnd
  0
BLOCK
  5
833
330
828
100
AcDbEntity
  8
0
100
AcDbBlockBegin
  2
*D13
 70
     1
 10
0.0
 20
0.0
 30
0.0
  3
*D13
  1

  0
LINE
  5
829
330
828
100
AcDbEntity
  8
DIM
 62
     0
370
    -2
100
AcDbLine
 10
37.42194045801375
 20
23.57167265727052
 30
0.0
 11
37.42194045801375
 21
25.41167265727055
 31
0.0
  0
LINE
  5
82A
330
828
100
AcDbEntity
  8
DIM
 62
     0
370
    -2
100
AcDbLine
 10
41.27194045801376
 20
23.46217265727053
 30
0.0
 11
41.27194045801376
 21
25.41167265727055
 31
0.0
  0
LINE
  5
82B
330
828
100
AcDbEntity
  8
DIM
 62
     0
370
    -2
100
AcDbLine
 10
38.14194045801375
 20
25.03967265727055
 30
0.0
 11
38.86194045801375
 21
25.03967265727055
 31
0.0
  0
LINE
  5
82C
330
828
100
AcDbEntity
  8
DIM
 62
     0
370
    -2
100
AcDbLine
 10
40.55194045801376
 20
25.03967265727055
 30
0.0
 11
39.83194045801375
 21
25.03967265727055
 31
0.0
  0
SOLID
  5
82D
330
828
100
AcDbEntity
  8
DIM
 62
     0
100
AcDbTrace
 10
38.14194045801375
 20
25.15967265727055
 30
0.0
 11
38.14194045801375
 21
24.91967265727055
 31
0.0
 12
37.42194045801375
 22
25.03967265727055
 32
0.0
 13
37.42194045801375
 23
25.03967265727055
 33
0.0
  0
SOLID
  5
82E
330
828
100
AcDbEntity
  8
DIM
 62
     0
100
AcDbTrace
 10
40.55194045801376
 20
25.15967265727055
 30
0.0
 11
40.55194045801376
 21
24.91967265727055
 31
0.0
 12
41.27194045801376
 22
25.03967265727055
 32
0.0
 13
41.27194045801376
 23
25.03967265727055
 33
0.0
  0
MTEXT
  5
82F
330
828
100
AcDbEntity
  8
DIM
 62
     0
100
AcDbMText
 10
39.34694045801375
 20
25.03967265727055
 30
0.0
 40
0.5
 41
0.0
 71
     5
 72
     1
  1
\A1;S
 73
     1
 44
1.0
  0
POINT
  5
830
330
828
100
AcDbEntity
  8
DEFPOINTS
 62
     0
100
AcDbPoint
 10
37.42194045801375
 20
23.31967265727052
 30
0.0
  0
POINT
  5
831
330
828
100
AcDbEntity
  8
DEFPOINTS
 62
     0
100
AcDbPoint
 10
41.27194045801376
 20
23.21017265727054
 30
0.0
  0
POINT
  5
832
330
828
100
AcDbEntity
  8
DEFPOINTS
 62
     0
100
AcDbPoint
 10
41.27194045801376
 20
25.03967265727055
 30
0.0
  0
ENDBLK
  5
834
330
828
100
AcDbEntity
  8
0
100
AcDbBlockEnd
  0
BLOCK
  5
840
330
835
100
AcDbEntity
  8
0
100
AcDbBlockBegin
  2
*D14
 70
     1
 10
0.0
 20
0.0
 30
0.0
  3
*D14
  1

  0
LINE
  5
836
330
835
100
AcDbEntity
  8
DIM
 62
     0
370
    -2
100
AcDbLine
 10
22.85587456210245
 20
30.95207534740101
 30
0.0
 11
22.85587456210245
 21
32.06807534740102
 31
0.0
  0
LINE
  5
837
330
835
100
AcDbEntity
  8
DIM
 62
     0
370
    -2
100
AcDbLine
 10
30.13587456210245
 20
30.95207534740103
 30
0.0
 11
30.13587456210245
 21
32.06807534740102
 31
0.0
  0
LINE
  5
838
330
835
100
AcDbEntity
  8
DIM
 62
     0
370
    -2
100
AcDbLine
 10
23.57587456210245
 20
31.69607534740102
 30
0.0
 11
26.01087456210245
 21
31.69607534740102
 31
0.0
  0
LINE
  5
839
330
835
100
AcDbEntity
  8
DIM
 62
     0
370
    -2
100
AcDbLine
 10
29.41587456210245
 20
31.69607534740102
 30
0.0
 11
26.98087456210245
 21
31.69607534740102
 31
0.0
  0
SOLID
  5
83A
330
835
100
AcDbEntity
  8
DIM
 62
     0
100
AcDbTrace
 10
23.57587456210245
 20
31.81607534740102
 30
0.0
 11
23.57587456210245
 21
31.57607534740101
 31
0.0
 12
22.85587456210245
 22
31.69607534740102
 32
0.0
 13
22.85587456210245
 23
31.69607534740102
 33
0.0
  0
SOLID
  5
83B
330
835
100
AcDbEntity
  8
DIM
 62
     0
100
AcDbTrace
 10
29.41587456210245
 20
31.81607534740102
 30
0.0
 11
29.41587456210245
 21
31.57607534740101
 31
0.0
 12
30.13587456210245
 22
31.69607534740102
 32
0.0
 13
30.13587456210245
 23
31.69607534740102
 33
0.0
  0
MTEXT
  5
83C
330
835
100
AcDbEntity
  8
DIM
 62
     0
100
AcDbMText
 10
26.49587456210245
 20
31.69607534740102
 30
0.0
 40
0.5
 41
0.0
 71
     5
 72
     1
  1
\A1;N
 73
     1
 44
1.0
  0
POINT
  5
83D
330
835
100
AcDbEntity
  8
DEFPOINTS
 62
     0
100
AcDbPoint
 10
22.85587456210245
 20
30.70007534740101
 30
0.0
  0
POINT
  5
83E
330
835
100
AcDbEntity
  8
DEFPOINTS
 62
     0
100
AcDbPoint
 10
30.13587456210245
 20
30.70007534740103
 30
0.0
  0
POINT
  5
83F
330
835
100
AcDbEntity
  8
DEFPOINTS
 62
     0
100
AcDbPoint
 10
30.13587456210245
 20
31.69607534740102
 30
0.0
  0
ENDBLK
  5
841
330
835
100
AcDbEntity
  8
0
100
AcDbBlockEnd
  0
BLOCK
  5
84D
330
842
100
AcDbEntity
  8
0
100
AcDbBlockBegin
  2
*D15
 70
     1
 10
0.0
 20
0.0
 30
0.0
  3
*D15
  1

  0
LINE
  5
843
330
842
100
AcDbEntity
  8
DIM
 62
     0
370
    -2
100
AcDbLine
 10
22.78587456210245
 20
25.64707534740102
 30
0.0
 11
22.78587456210245
 21
24.15907534740102
 31
0.0
  0
LINE
  5
844
330
842
100
AcDbEntity
  8
DIM
 62
     0
370
    -2
100
AcDbLine
 10
30.20587456210245
 20
25.64707534740102
 30
0.0
 11
30.20587456210245
 21
24.15907534740102
 31
0.0
  0
LINE
  5
845
330
842
100
AcDbEntity
  8
DIM
 62
     0
370
    -2
100
AcDbLine
 10
23.50587456210245
 20
24.53107534740102
 30
0.0
 11
26.01087456210245
 21
24.53107534740102
 31
0.0
  0
LINE
  5
846
330
842
100
AcDbEntity
  8
DIM
 62
     0
370
    -2
100
AcDbLine
 10
29.48587456210245
 20
24.53107534740102
 30
0.0
 11
26.98087456210245
 21
24.53107534740102
 31
0.0
  0
SOLID
  5
847
330
842
100
AcDbEntity
  8
DIM
 62
     0
100
AcDbTrace
 10
23.50587456210245
 20
24.65107534740102
 30
0.0
 11
23.50587456210245
 21
24.41107534740102
 31
0.0
 12
22.78587456210245
 22
24.53107534740102
 32
0.0
 13
22.78587456210245
 23
24.53107534740102
 33
0.0
  0
SOLID
  5
848
330
842
100
AcDbEntity
  8
DIM
 62
     0
100
AcDbTrace
 10
29.48587456210245
 20
24.65107534740102
 30
0.0
 11
29.48587456210245
 21
24.41107534740102
 31
0.0
 12
30.20587456210245
 22
24.53107534740102
 32
0.0
 13
30.20587456210245
 23
24.53107534740102
 33
0.0
  0
MTEXT
  5
849
330
842
100
AcDbEntity
  8
DIM
 62
     0
100
AcDbMText
 10
26.49587456210245
 20
24.53107534740102
 30
0.0
 40
0.5
 41
0.0
 71
     5
 72
     1
  1
\A1;P
 73
     1
 44
1.0
  0
POINT
  5
84A
330
842
100
AcDbEntity
  8
DEFPOINTS
 62
     0
100
AcDbPoint
 10
22.78587456210245
 20
25.89907534740102
 30
0.0
  0
POINT
  5
84B
330
842
100
AcDbEntity
  8
DEFPOINTS
 62
     0
100
AcDbPoint
 10
30.20587456210245
 20
25.89907534740102
 30
0.0
  0
POINT
  5
84C
330
842
100
AcDbEntity
  8
DEFPOINTS
 62
     0
100
AcDbPoint
 10
30.20587456210245
 20
24.53107534740102
 30
0.0
  0
ENDBLK
  5
84E
330
842
100
AcDbEntity
  8
0
100
AcDbBlockEnd
  0
BLOCK
  5
85A
330
84F
100
AcDbEntity
  8
0
100
AcDbBlockBegin
  2
*D16
 70
     1
 10
0.0
 20
0.0
 30
0.0
  3
*D16
  1

  0
LINE
  5
850
330
84F
100
AcDbEntity
  8
DIM
 62
     0
370
    -2
100
AcDbLine
 10
56.43318161387284
 20
12.88867265727054
 30
0.0
 11
51.59040055935178
 21
12.88867265727054
 31
0.0
  0
LINE
  5
851
330
84F
100
AcDbEntity
  8
DIM
 62
     0
370
    -2
100
AcDbLine
 10
56.43318161387284
 20
22.72667265727053
 30
0.0
 11
51.59040055935179
 21
22.72667265727053
 31
0.0
  0
LINE
  5
852
330
84F
100
AcDbEntity
  8
DIM
 62
     0
370
    -2
100
AcDbLine
 10
51.96240055935177
 20
13.60867265727054
 30
0.0
 11
51.96240055935178
 21
17.19767265727054
 31
0.0
  0
LINE
  5
853
330
84F
100
AcDbEntity
  8
DIM
 62
     0
370
    -2
100
AcDbLine
 10
51.96240055935178
 20
22.00667265727053
 30
0.0
 11
51.96240055935178
 21
18.41767265727053
 31
0.0
  0
SOLID
  5
854
330
84F
100
AcDbEntity
  8
DIM
 62
     0
100
AcDbTrace
 10
51.84240055935178
 20
13.60867265727054
 30
0.0
 11
52.08240055935178
 21
13.60867265727054
 31
0.0
 12
51.96240055935177
 22
12.88867265727054
 32
0.0
 13
51.96240055935177
 23
12.88867265727054
 33
0.0
  0
SOLID
  5
855
330
84F
100
AcDbEntity
  8
DIM
 62
     0
100
AcDbTrace
 10
51.84240055935179
 20
22.00667265727053
 30
0.0
 11
52.08240055935178
 21
22.00667265727053
 31
0.0
 12
51.96240055935178
 22
22.72667265727053
 32
0.0
 13
51.96240055935178
 23
22.72667265727053
 33
0.0
  0
MTEXT
  5
856
330
84F
100
AcDbEntity
  8
DIM
 62
     0
100
AcDbMText
 10
51.96240055935177
 20
17.80767265727054
 30
0.0
 40
0.5
 41
0.0
 71
     5
 72
     1
  1
\A1;V
 73
     1
 44
1.0
  0
POINT
  5
857
330
84F
100
AcDbEntity
  8
DEFPOINTS
 62
     0
100
AcDbPoint
 10
56.68518161387285
 20
12.88867265727054
 30
0.0
  0
POINT
  5
858
330
84F
100
AcDbEntity
  8
DEFPOINTS
 62
     0
100
AcDbPoint
 10
56.68518161387285
 20
22.72667265727053
 30
0.0
  0
POINT
  5
859
330
84F
100
AcDbEntity
  8
DEFPOINTS
 62
     0
100
AcDbPoint
 10
51.96240055935178
 20
22.72667265727053
 30
0.0
  0
ENDBLK
  5
85B
330
84F
100
AcDbEntity
  8
0
100
AcDbBlockEnd
  0
BLOCK
  5
867
330
85C
100
AcDbEntity
  8
0
100
AcDbBlockBegin
  2
*D17
 70
     1
 10
0.0
 20
0.0
 30
0.0
  3
*D17
  1

  0
LINE
  5
85D
330
85C
100
AcDbEntity
  8
DIM
 62
     0
370
    -2
100
AcDbLine
 10
53.67168161387285
 20
17.55567265727054
 30
0.0
 11
53.67168161387285
 21
10.97062786230206
 31
0.0
  0
LINE
  5
85E
330
85C
100
AcDbEntity
  8
DIM
 62
     0
370
    -2
100
AcDbLine
 10
59.69868161387284
 20
17.55567265727054
 30
0.0
 11
59.69868161387284
 21
10.97062786230206
 31
0.0
  0
LINE
  5
85F
330
85C
100
AcDbEntity
  8
DIM
 62
     0
370
    -2
100
AcDbLine
 10
54.39168161387285
 20
11.34262786230205
 30
0.0
 11
56.13768161387284
 21
11.34262786230205
 31
0.0
  0
LINE
  5
860
330
85C
100
AcDbEntity
  8
DIM
 62
     0
370
    -2
100
AcDbLine
 10
58.97868161387284
 20
11.34262786230205
 30
0.0
 11
57.23268161387284
 21
11.34262786230205
 31
0.0
  0
SOLID
  5
861
330
85C
100
AcDbEntity
  8
DIM
 62
     0
100
AcDbTrace
 10
54.39168161387285
 20
11.46262786230205
 30
0.0
 11
54.39168161387285
 21
11.22262786230206
 31
0.0
 12
53.67168161387285
 22
11.34262786230205
 32
0.0
 13
53.67168161387285
 23
11.34262786230205
 33
0.0
  0
SOLID
  5
862
330
85C
100
AcDbEntity
  8
DIM
 62
     0
100
AcDbTrace
 10
58.97868161387284
 20
11.46262786230205
 30
0.0
 11
58.97868161387284
 21
11.22262786230206
 31
0.0
 12
59.69868161387284
 22
11.34262786230205
 32
0.0
 13
59.69868161387284
 23
11.34262786230205
 33
0.0
  0
MTEXT
  5
863
330
85C
100
AcDbEntity
  8
DIM
 62
     0
100
AcDbMText
 10
56.68518161387284
 20
11.34262786230205
 30
0.0
 40
0.5
 41
0.0
 71
     5
 72
     1
  1
\A1;W
 73
     1
 44
1.0
  0
POINT
  5
864
330
85C
100
AcDbEntity
  8
DEFPOINTS
 62
     0
100
AcDbPoint
 10
53.67168161387285
 20
17.80767265727054
 30
0.0
  0
POINT
  5
865
330
85C
100
AcDbEntity
  8
DEFPOINTS
 62
     0
100
AcDbPoint
 10
59.69868161387284
 20
17.80767265727054
 30
0.0
  0
POINT
  5
866
330
85C
100
AcDbEntity
  8
DEFPOINTS
 62
     0
100
AcDbPoint
 10
59.69868161387284
 20
11.34262786230205
 30
0.0
  0
ENDBLK
  5
868
330
85C
100
AcDbEntity
  8
0
100
AcDbBlockEnd
  0
BLOCK
  5
874
330
869
100
AcDbEntity
  8
0
100
AcDbBlockBegin
  2
*D18
 70
     1
 10
0.0
 20
0.0
 30
0.0
  3
*D18
  1

  0
LINE
  5
932
330
869
100
AcDbEntity
  8
DIM
 62
     0
370
    -2
100
AcDbLine
 10
5.878328967609497
 20
12.57067265727053
 30
0.0
 11
2.207790063668736
 21
12.57067265727053
 31
0.0
  0
LINE
  5
933
330
869
100
AcDbEntity
  8
DIM
 62
     0
370
    -2
100
AcDbLine
 10
5.878328967609484
 20
23.04467265727053
 30
0.0
 11
2.207790063668738
 21
23.04467265727053
 31
0.0
  0
LINE
  5
934
330
869
100
AcDbEntity
  8
DIM
 62
     0
370
    -2
100
AcDbLine
 10
2.579790063668736
 20
13.29067265727053
 30
0.0
 11
2.579790063668737
 21
17.19767265727053
 31
0.0
  0
LINE
  5
935
330
869
100
AcDbEntity
  8
DIM
 62
     0
370
    -2
100
AcDbLine
 10
2.579790063668738
 20
22.32467265727053
 30
0.0
 11
2.579790063668737
 21
18.41767265727053
 31
0.0
  0
SOLID
  5
936
330
869
100
AcDbEntity
  8
DIM
 62
     0
100
AcDbTrace
 10
2.459790063668736
 20
13.29067265727053
 30
0.0
 11
2.699790063668736
 21
13.29067265727053
 31
0.0
 12
2.579790063668736
 22
12.57067265727053
 32
0.0
 13
2.579790063668736
 23
12.57067265727053
 33
0.0
  0
SOLID
  5
937
330
869
100
AcDbEntity
  8
DIM
 62
     0
100
AcDbTrace
 10
2.459790063668738
 20
22.32467265727053
 30
0.0
 11
2.699790063668738
 21
22.32467265727053
 31
0.0
 12
2.579790063668738
 22
23.04467265727053
 32
0.0
 13
2.579790063668738
 23
23.04467265727053
 33
0.0
  0
MTEXT
  5
938
330
869
100
AcDbEntity
  8
DIM
 62
     0
100
AcDbMText
 10
2.579790063668734
 20
17.80767265727053
 30
0.0
 40
0.5
 41
0.0
 71
     5
 72
     1
  1
\A1;H
 73
     1
 44
1.0
  0
POINT
  5
939
330
869
100
AcDbEntity
  8
DEFPOINTS
 62
     0
100
AcDbPoint
 10
6.130328967609496
 20
12.57067265727053
 30
0.0
  0
POINT
  5
93A
330
869
100
AcDbEntity
  8
DEFPOINTS
 62
     0
100
AcDbPoint
 10
6.130328967609484
 20
23.04467265727053
 30
0.0
  0
POINT
  5
93B
330
869
100
AcDbEntity
  8
DEFPOINTS
 62
     0
100
AcDbPoint
 10
2.579790063668738
 20
23.04467265727053
 30
0.0
  0
ENDBLK
  5
875
330
869
100
AcDbEntity
  8
0
100
AcDbBlockEnd
  0
BLOCK
  5
881
330
876
100
AcDbEntity
  8
0
100
AcDbBlockBegin
  2
*D19
 70
     1
 10
0.0
 20
0.0
 30
0.0
  3
*D19
  1

  0
LINE
  5
928
330
876
100
AcDbEntity
  8
DIM
 62
     0
370
    -2
100
AcDbLine
 10
5.294290063668738
 20
12.78817265727053
 30
0.0
 11
3.207790063668736
 21
12.78817265727053
 31
0.0
  0
LINE
  5
929
330
876
100
AcDbEntity
  8
DIM
 62
     0
370
    -2
100
AcDbLine
 10
5.294290063668738
 20
22.82717265727054
 30
0.0
 11
3.207790063668738
 21
22.82717265727054
 31
0.0
  0
LINE
  5
92A
330
876
100
AcDbEntity
  8
DIM
 62
     0
370
    -2
100
AcDbLine
 10
3.579790063668736
 20
13.50817265727053
 30
0.0
 11
3.579790063668737
 21
17.19767265727053
 31
0.0
  0
LINE
  5
92B
330
876
100
AcDbEntity
  8
DIM
 62
     0
370
    -2
100
AcDbLine
 10
3.579790063668738
 20
22.10717265727053
 30
0.0
 11
3.579790063668737
 21
18.41767265727053
 31
0.0
  0
SOLID
  5
92C
330
876
100
AcDbEntity
  8
DIM
 62
     0
100
AcDbTrace
 10
3.459790063668736
 20
13.50817265727053
 30
0.0
 11
3.699790063668737
 21
13.50817265727053
 31
0.0
 12
3.579790063668736
 22
12.78817265727053
 32
0.0
 13
3.579790063668736
 23
12.78817265727053
 33
0.0
  0
SOLID
  5
92D
330
876
100
AcDbEntity
  8
DIM
 62
     0
100
AcDbTrace
 10
3.459790063668738
 20
22.10717265727053
 30
0.0
 11
3.699790063668738
 21
22.10717265727053
 31
0.0
 12
3.579790063668738
 22
22.82717265727054
 32
0.0
 13
3.579790063668738
 23
22.82717265727054
 33
0.0
  0
MTEXT
  5
92E
330
876
100
AcDbEntity
  8
DIM
 62
     0
100
AcDbMText
 10
3.579790063668734
 20
17.80767265727053
 30
0.0
 40
0.5
 41
0.0
 71
     5
 72
     1
  1
\A1;J
 73
     1
 44
1.0
  0
POINT
  5
92F
330
876
100
AcDbEntity
  8
DEFPOINTS
 62
     0
100
AcDbPoint
 10
5.546290063668738
 20
12.78817265727053
 30
0.0
  0
POINT
  5
930
330
876
100
AcDbEntity
  8
DEFPOINTS
 62
     0
100
AcDbPoint
 10
5.546290063668738
 20
22.82717265727054
 30
0.0
  0
POINT
  5
931
330
876
100
AcDbEntity
  8
DEFPOINTS
 62
     0
100
AcDbPoint
 10
3.579790063668738
 20
22.82717265727054
 30
0.0
  0
ENDBLK
  5
882
330
876
100
AcDbEntity
  8
0
100
AcDbBlockEnd
  0
BLOCK
  5
88E
330
883
100
AcDbEntity
  8
0
100
AcDbBlockBegin
  2
*D20
 70
     1
 10
0.0
 20
0.0
 30
0.0
  3
*D20
  1

  0
LINE
  5
91E
330
883
100
AcDbEntity
  8
DIM
 62
     0
370
    -2
100
AcDbLine
 10
11.99129006366874
 20
21.25867265727053
 30
0.0
 11
18.33697539470059
 21
21.25867265727053
 31
0.0
  0
LINE
  5
91F
330
883
100
AcDbEntity
  8
DIM
 62
     0
370
    -2
100
AcDbLine
 10
11.99129006366874
 20
14.35667265727053
 30
0.0
 11
18.33697539470059
 21
14.35667265727053
 31
0.0
  0
LINE
  5
920
330
883
100
AcDbEntity
  8
DIM
 62
     0
370
    -2
100
AcDbLine
 10
17.9649753947006
 20
20.53867265727054
 30
0.0
 11
17.9649753947006
 21
18.41767265727053
 31
0.0
  0
LINE
  5
921
330
883
100
AcDbEntity
  8
DIM
 62
     0
370
    -2
100
AcDbLine
 10
17.9649753947006
 20
15.07667265727053
 30
0.0
 11
17.9649753947006
 21
17.19767265727053
 31
0.0
  0
SOLID
  5
922
330
883
100
AcDbEntity
  8
DIM
 62
     0
100
AcDbTrace
 10
17.84497539470059
 20
20.53867265727054
 30
0.0
 11
18.08497539470059
 21
20.53867265727054
 31
0.0
 12
17.9649753947006
 22
21.25867265727053
 32
0.0
 13
17.9649753947006
 23
21.25867265727053
 33
0.0
  0
SOLID
  5
923
330
883
100
AcDbEntity
  8
DIM
 62
     0
100
AcDbTrace
 10
17.84497539470059
 20
15.07667265727053
 30
0.0
 11
18.08497539470059
 21
15.07667265727053
 31
0.0
 12
17.9649753947006
 22
14.35667265727053
 32
0.0
 13
17.9649753947006
 23
14.35667265727053
 33
0.0
  0
MTEXT
  5
924
330
883
100
AcDbEntity
  8
DIM
 62
     0
100
AcDbMText
 10
17.96497539470059
 20
17.80767265727054
 30
0.0
 40
0.5
 41
0.0
 71
     5
 72
     1
  1
\A1;M
 73
     1
 44
1.0
  0
POINT
  5
925
330
883
100
AcDbEntity
  8
DEFPOINTS
 62
     0
100
AcDbPoint
 10
11.73929006366874
 20
21.25867265727053
 30
0.0
  0
POINT
  5
926
330
883
100
AcDbEntity
  8
DEFPOINTS
 62
     0
100
AcDbPoint
 10
11.73929006366874
 20
14.35667265727053
 30
0.0
  0
POINT
  5
927
330
883
100
AcDbEntity
  8
DEFPOINTS
 62
     0
100
AcDbPoint
 10
17.9649753947006
 20
14.35667265727053
 30
0.0
  0
ENDBLK
  5
88F
330
883
100
AcDbEntity
  8
0
100
AcDbBlockEnd
  0
BLOCK
  5
89B
330
890
100
AcDbEntity
  8
0
100
AcDbBlockBegin
  2
*D21
 70
     1
 10
0.0
 20
0.0
 30
0.0
  3
*D21
  1

  0
LINE
  5
914
330
890
100
AcDbEntity
  8
DIM
 62
     0
370
    -2
100
AcDbLine
 10
11.41429006366874
 20
13.67617265727053
 30
0.0
 11
19.3369753947006
 21
13.67617265727053
 31
0.0
  0
LINE
  5
915
330
890
100
AcDbEntity
  8
DIM
 62
     0
370
    -2
100
AcDbLine
 10
11.41429006366874
 20
21.93917265727054
 30
0.0
 11
19.3369753947006
 21
21.93917265727054
 31
0.0
  0
LINE
  5
916
330
890
100
AcDbEntity
  8
DIM
 62
     0
370
    -2
100
AcDbLine
 10
18.9649753947006
 20
14.39617265727053
 30
0.0
 11
18.9649753947006
 21
17.19767265727053
 31
0.0
  0
LINE
  5
917
330
890
100
AcDbEntity
  8
DIM
 62
     0
370
    -2
100
AcDbLine
 10
18.9649753947006
 20
21.21917265727053
 30
0.0
 11
18.9649753947006
 21
18.41767265727053
 31
0.0
  0
SOLID
  5
918
330
890
100
AcDbEntity
  8
DIM
 62
     0
100
AcDbTrace
 10
18.8449753947006
 20
14.39617265727053
 30
0.0
 11
19.0849753947006
 21
14.39617265727053
 31
0.0
 12
18.9649753947006
 22
13.67617265727053
 32
0.0
 13
18.9649753947006
 23
13.67617265727053
 33
0.0
  0
SOLID
  5
919
330
890
100
AcDbEntity
  8
DIM
 62
     0
100
AcDbTrace
 10
18.8449753947006
 20
21.21917265727053
 30
0.0
 11
19.0849753947006
 21
21.21917265727053
 31
0.0
 12
18.9649753947006
 22
21.93917265727054
 32
0.0
 13
18.9649753947006
 23
21.93917265727054
 33
0.0
  0
MTEXT
  5
91A
330
890
100
AcDbEntity
  8
DIM
 62
     0
100
AcDbMText
 10
18.96497539470059
 20
17.80767265727054
 30
0.0
 40
0.5
 41
0.0
 71
     5
 72
     1
  1
\A1;L
 73
     1
 44
1.0
  0
POINT
  5
91B
330
890
100
AcDbEntity
  8
DEFPOINTS
 62
     0
100
AcDbPoint
 10
11.16229006366874
 20
13.67617265727053
 30
0.0
  0
POINT
  5
91C
330
890
100
AcDbEntity
  8
DEFPOINTS
 62
     0
100
AcDbPoint
 10
11.16229006366874
 20
21.93917265727054
 30
0.0
  0
POINT
  5
91D
330
890
100
AcDbEntity
  8
DEFPOINTS
 62
     0
100
AcDbPoint
 10
18.9649753947006
 20
21.93917265727054
 30
0.0
  0
ENDBLK
  5
89C
330
890
100
AcDbEntity
  8
0
100
AcDbBlockEnd
  0
BLOCK
  5
8A8
330
89D
100
AcDbEntity
  8
0
100
AcDbBlockBegin
  2
*D22
 70
     1
 10
0.0
 20
0.0
 30
0.0
  3
*D22
  1

  0
LINE
  5
90A
330
89D
100
AcDbEntity
  8
DIM
 62
     0
370
    -2
100
AcDbLine
 10
10.52529006366874
 20
22.23267265727053
 30
0.0
 11
20.3369753947006
 21
22.23267265727053
 31
0.0
  0
LINE
  5
90B
330
89D
100
AcDbEntity
  8
DIM
 62
     0
370
    -2
100
AcDbLine
 10
10.52529006366874
 20
13.38267265727054
 30
0.0
 11
20.3369753947006
 21
13.38267265727053
 31
0.0
  0
LINE
  5
90C
330
89D
100
AcDbEntity
  8
DIM
 62
     0
370
    -2
100
AcDbLine
 10
19.9649753947006
 20
21.51267265727053
 30
0.0
 11
19.9649753947006
 21
18.41767265727053
 31
0.0
  0
LINE
  5
90D
330
89D
100
AcDbEntity
  8
DIM
 62
     0
370
    -2
100
AcDbLine
 10
19.9649753947006
 20
14.10267265727053
 30
0.0
 11
19.9649753947006
 21
17.19767265727053
 31
0.0
  0
SOLID
  5
90E
330
89D
100
AcDbEntity
  8
DIM
 62
     0
100
AcDbTrace
 10
19.8449753947006
 20
21.51267265727053
 30
0.0
 11
20.0849753947006
 21
21.51267265727053
 31
0.0
 12
19.9649753947006
 22
22.23267265727053
 32
0.0
 13
19.9649753947006
 23
22.23267265727053
 33
0.0
  0
SOLID
  5
90F
330
89D
100
AcDbEntity
  8
DIM
 62
     0
100
AcDbTrace
 10
19.8449753947006
 20
14.10267265727053
 30
0.0
 11
20.0849753947006
 21
14.10267265727053
 31
0.0
 12
19.9649753947006
 22
13.38267265727053
 32
0.0
 13
19.9649753947006
 23
13.38267265727053
 33
0.0
  0
MTEXT
  5
910
330
89D
100
AcDbEntity
  8
DIM
 62
     0
100
AcDbMText
 10
19.96497539470059
 20
17.80767265727054
 30
0.0
 40
0.5
 41
0.0
 71
     5
 72
     1
  1
\A1;K
 73
     1
 44
1.0
  0
POINT
  5
911
330
89D
100
AcDbEntity
  8
DEFPOINTS
 62
     0
100
AcDbPoint
 10
10.27329006366874
 20
22.23267265727053
 30
0.0
  0
POINT
  5
912
330
89D
100
AcDbEntity
  8
DEFPOINTS
 62
     0
100
AcDbPoint
 10
10.27329006366874
 20
13.38267265727054
 30
0.0
  0
POINT
  5
913
330
89D
100
AcDbEntity
  8
DEFPOINTS
 62
     0
100
AcDbPoint
 10
19.9649753947006
 20
13.38267265727053
 30
0.0
  0
ENDBLK
  5
8A9
330
89D
100
AcDbEntity
  8
0
100
AcDbBlockEnd
  0
BLOCK
  5
8B5
330
8AA
100
AcDbEntity
  8
0
100
AcDbBlockBegin
  2
*D23
 70
     1
 10
0.0
 20
0.0
 30
0.0
  3
*D23
  1

  0
LINE
  5
8AB
330
8AA
100
AcDbEntity
  8
DIM
 62
     0
370
    -2
100
AcDbLine
 10
40.87557595801373
 20
14.80568896523408
 30
0.0
 11
40.87557595801373
 21
15.37489853888177
 31
0.0
  0
LINE
  5
8AC
330
8AA
100
AcDbEntity
  8
DIM
 62
     0
370
    -2
100
AcDbLine
 10
41.16157595801374
 20
14.41165634930698
 30
0.0
 11
41.16157595801374
 21
15.37489853888177
 31
0.0
  0
LINE
  5
8AD
330
8AA
100
AcDbEntity
  8
DIM
 62
     0
370
    -2
100
AcDbLine
 10
40.15557595801373
 20
15.00289853888177
 30
0.0
 11
39.43557595801373
 21
15.00289853888177
 31
0.0
  0
LINE
  5
8AE
330
8AA
100
AcDbEntity
  8
DIM
 62
     0
370
    -2
100
AcDbLine
 10
41.88157595801374
 20
15.00289853888177
 30
0.0
 11
42.60157595801374
 21
15.00289853888177
 31
0.0
  0
SOLID
  5
8AF
330
8AA
100
AcDbEntity
  8
DIM
 62
     0
100
AcDbTrace
 10
40.15557595801373
 20
15.12289853888177
 30
0.0
 11
40.15557595801373
 21
14.88289853888177
 31
0.0
 12
40.87557595801373
 22
15.00289853888177
 32
0.0
 13
40.87557595801373
 23
15.00289853888177
 33
0.0
  0
SOLID
  5
8B0
330
8AA
100
AcDbEntity
  8
DIM
 62
     0
100
AcDbTrace
 10
41.88157595801374
 20
15.12289853888177
 30
0.0
 11
41.88157595801374
 21
14.88289853888177
 31
0.0
 12
41.16157595801374
 22
15.00289853888177
 32
0.0
 13
41.16157595801374
 23
15.00289853888177
 33
0.0
  0
MTEXT
  5
8B1
330
8AA
100
AcDbEntity
  8
DIM
 62
     0
100
AcDbMText
 10
45.74282595801374
 20
15.00289853888177
 30
0.0
 40
0.5
 41
0.0
 71
     5
 72
     1
  1
\A1;0.286 [7] (INSIDE)
 73
     1
 44
1.0
  0
POINT
  5
8B2
330
8AA
100
AcDbEntity
  8
DEFPOINTS
 62
     0
100
AcDbPoint
 10
40.87557595801373
 20
14.55368896523408
 30
0.0
  0
POINT
  5
8B3
330
8AA
100
AcDbEntity
  8
DEFPOINTS
 62
     0
100
AcDbPoint
 10
41.16157595801374
 20
14.15965634930698
 30
0.0
  0
POINT
  5
8B4
330
8AA
100
AcDbEntity
  8
DEFPOINTS
 62
     0
100
AcDbPoint
 10
41.16157595801374
 20
15.00289853888177
 30
0.0
  0
ENDBLK
  5
8B6
330
8AA
100
AcDbEntity
  8
0
100
AcDbBlockEnd
  0
BLOCK
  5
8C2
330
8B7
100
AcDbEntity
  8
0
100
AcDbBlockBegin
  2
*D24
 70
     1
 10
0.0
 20
0.0
 30
0.0
  3
*D24
  1

  0
LINE
  5
8B8
330
8B7
100
AcDbEntity
  8
DIM
 62
     0
370
    -2
100
AcDbLine
 10
41.27194045801376
 20
23.46217265727053
 30
0.0
 11
41.27194045801376
 21
24.41167265727055
 31
0.0
  0
LINE
  5
8B9
330
8B7
100
AcDbEntity
  8
DIM
 62
     0
370
    -2
100
AcDbLine
 10
41.35194045801376
 20
23.36717265727054
 30
0.0
 11
41.35194045801376
 21
24.41167265727055
 31
0.0
  0
LINE
  5
8BA
330
8B7
100
AcDbEntity
  8
DIM
 62
     0
370
    -2
100
AcDbLine
 10
40.55194045801376
 20
24.03967265727055
 30
0.0
 11
39.83194045801376
 21
24.03967265727055
 31
0.0
  0
LINE
  5
8BB
330
8B7
100
AcDbEntity
  8
DIM
 62
     0
370
    -2
100
AcDbLine
 10
42.07194045801375
 20
24.03967265727055
 30
0.0
 11
42.79194045801375
 21
24.03967265727055
 31
0.0
  0
SOLID
  5
8BC
330
8B7
100
AcDbEntity
  8
DIM
 62
     0
100
AcDbTrace
 10
40.55194045801376
 20
24.15967265727055
 30
0.0
 11
40.55194045801376
 21
23.91967265727055
 31
0.0
 12
41.27194045801376
 22
24.03967265727055
 32
0.0
 13
41.27194045801376
 23
24.03967265727055
 33
0.0
  0
SOLID
  5
8BD
330
8B7
100
AcDbEntity
  8
DIM
 62
     0
100
AcDbTrace
 10
42.07194045801375
 20
24.15967265727055
 30
0.0
 11
42.07194045801375
 21
23.91967265727055
 31
0.0
 12
41.35194045801376
 22
24.03967265727055
 32
0.0
 13
41.35194045801376
 23
24.03967265727055
 33
0.0
  0
MTEXT
  5
8BE
330
8B7
100
AcDbEntity
  8
DIM
 62
     0
100
AcDbMText
 10
44.43319045801375
 20
24.03967265727055
 30
0.0
 40
0.5
 41
0.0
 71
     5
 72
     1
  1
\A1;0.080 [2]
 73
     1
 44
1.0
  0
POINT
  5
8BF
330
8B7
100
AcDbEntity
  8
DEFPOINTS
 62
     0
100
AcDbPoint
 10
41.27194045801376
 20
23.21017265727054
 30
0.0
  0
POINT
  5
8C0
330
8B7
100
AcDbEntity
  8
DEFPOINTS
 62
     0
100
AcDbPoint
 10
41.35194045801376
 20
23.11517265727054
 30
0.0
  0
POINT
  5
8C1
330
8B7
100
AcDbEntity
  8
DEFPOINTS
 62
     0
100
AcDbPoint
 10
41.35194045801376
 20
24.03967265727055
 30
0.0
  0
ENDBLK
  5
8C3
330
8B7
100
AcDbEntity
  8
0
100
AcDbBlockEnd
  0
BLOCK
  5
8CF
330
8C4
100
AcDbEntity
  8
0
100
AcDbBlockBegin
  2
*D25
 70
     1
 10
0.0
 20
0.0
 30
0.0
  3
*D25
  1

  0
LINE
  5
8C5
330
8C4
100
AcDbEntity
  8
DIM
 62
     0
370
    -2
100
AcDbLine
 10
41.16157595801375
 20
13.80672595458987
 30
0.0
 11
41.16157595801375
 21
13.652926318261
 31
0.0
  0
LINE
  5
8C6
330
8C4
100
AcDbEntity
  8
DIM
 62
     0
370
    -2
100
AcDbLine
 10
41.27194045801376
 20
13.80672595458987
 30
0.0
 11
41.27194045801376
 21
13.652926318261
 31
0.0
  0
LINE
  5
8C7
330
8C4
100
AcDbEntity
  8
DIM
 62
     0
370
    -2
100
AcDbLine
 10
40.44157595801375
 20
14.024926318261
 30
0.0
 11
39.72157595801375
 21
14.024926318261
 31
0.0
  0
LINE
  5
8C8
330
8C4
100
AcDbEntity
  8
DIM
 62
     0
370
    -2
100
AcDbLine
 10
41.99194045801376
 20
14.024926318261
 30
0.0
 11
42.71194045801375
 21
14.024926318261
 31
0.0
  0
SOLID
  5
8C9
330
8C4
100
AcDbEntity
  8
DIM
 62
     0
100
AcDbTrace
 10
40.44157595801375
 20
14.14492631826099
 30
0.0
 11
40.44157595801375
 21
13.904926318261
 31
0.0
 12
41.16157595801375
 22
14.024926318261
 32
0.0
 13
41.16157595801375
 23
14.024926318261
 33
0.0
  0
SOLID
  5
8CA
330
8C4
100
AcDbEntity
  8
DIM
 62
     0
100
AcDbTrace
 10
41.99194045801376
 20
14.14492631826099
 30
0.0
 11
41.99194045801376
 21
13.904926318261
 31
0.0
 12
41.27194045801376
 22
14.024926318261
 32
0.0
 13
41.27194045801376
 23
14.024926318261
 33
0.0
  0
MTEXT
  5
8CB
330
8C4
100
AcDbEntity
  8
DIM
 62
     0
100
AcDbMText
 10
44.25944045801375
 20
14.024926318261
 30
0.0
 40
0.5
 41
0.0
 71
     5
 72
     1
  1
\A1;0.110 [3]
 73
     1
 44
1.0
  0
POINT
  5
8CC
330
8C4
100
AcDbEntity
  8
DEFPOINTS
 62
     0
100
AcDbPoint
 10
41.16157595801375
 20
14.05872595458987
 30
0.0
  0
POINT
  5
8CD
330
8C4
100
AcDbEntity
  8
DEFPOINTS
 62
     0
100
AcDbPoint
 10
41.27194045801376
 20
14.05872595458987
 30
0.0
  0
POINT
  5
8CE
330
8C4
100
AcDbEntity
  8
DEFPOINTS
 62
     0
100
AcDbPoint
 10
41.27194045801376
 20
14.024926318261
 30
0.0
  0
ENDBLK
  5
8D0
330
8C4
100
AcDbEntity
  8
0
100
AcDbBlockEnd
  0
BLOCK
  5
8DC
330
8D1
100
AcDbEntity
  8
0
100
AcDbBlockBegin
  2
*D26
 70
     1
 10
0.0
 20
0.0
 30
0.0
  3
*D26
  1

  0
LINE
  5
946
330
8D1
100
AcDbEntity
  8
DIM
 62
     0
370
    -2
100
AcDbLine
 10
11.99129006366874
 20
20.27267265727054
 30
0.0
 11
15.62879006366874
 21
20.27267265727054
 31
0.0
  0
LINE
  5
947
330
8D1
100
AcDbEntity
  8
DIM
 62
     0
370
    -2
100
AcDbLine
 10
11.99129006366874
 20
21.25867265727053
 30
0.0
 11
15.62879006366874
 21
21.25867265727053
 31
0.0
  0
LINE
  5
948
330
8D1
100
AcDbEntity
  8
DIM
 62
     0
370
    -2
100
AcDbLine
 10
15.25679006366874
 20
19.55267265727054
 30
0.0
 11
15.25679006366874
 21
18.83267265727053
 31
0.0
  0
LINE
  5
949
330
8D1
100
AcDbEntity
  8
DIM
 62
     0
370
    -2
100
AcDbLine
 10
15.25679006366874
 20
21.97867265727053
 30
0.0
 11
15.25679006366874
 21
22.69867265727053
 31
0.0
  0
SOLID
  5
94A
330
8D1
100
AcDbEntity
  8
DIM
 62
     0
100
AcDbTrace
 10
15.13679006366874
 20
19.55267265727054
 30
0.0
 11
15.37679006366874
 21
19.55267265727054
 31
0.0
 12
15.25679006366874
 22
20.27267265727054
 32
0.0
 13
15.25679006366874
 23
20.27267265727054
 33
0.0
  0
SOLID
  5
94B
330
8D1
100
AcDbEntity
  8
DIM
 62
     0
100
AcDbTrace
 10
15.13679006366874
 20
21.97867265727053
 30
0.0
 11
15.37679006366874
 21
21.97867265727053
 31
0.0
 12
15.25679006366874
 22
21.25867265727053
 32
0.0
 13
15.25679006366874
 23
21.25867265727053
 33
0.0
  0
MTEXT
  5
94C
330
8D1
100
AcDbEntity
  8
DIM
 62
     0
100
AcDbMText
 10
15.25679006366874
 20
20.76567265727054
 30
0.0
 40
0.5
 41
0.0
 71
     5
 72
     1
  1
\A1;0.986 [25] TYP.
 73
     1
 44
1.0
  0
POINT
  5
94D
330
8D1
100
AcDbEntity
  8
DEFPOINTS
 62
     0
100
AcDbPoint
 10
11.73929006366874
 20
20.27267265727054
 30
0.0
  0
POINT
  5
94E
330
8D1
100
AcDbEntity
  8
DEFPOINTS
 62
     0
100
AcDbPoint
 10
11.73929006366874
 20
21.25867265727053
 30
0.0
  0
POINT
  5
94F
330
8D1
100
AcDbEntity
  8
DEFPOINTS
 62
     0
100
AcDbPoint
 10
15.25679006366874
 20
21.25867265727053
 30
0.0
  0
ENDBLK
  5
8DD
330
8D1
100
AcDbEntity
  8
0
100
AcDbBlockEnd
  0
BLOCK
  5
8E9
330
8DE
100
AcDbEntity
  8
0
100
AcDbBlockBegin
  2
*D27
 70
     1
 10
0.0
 20
0.0
 30
0.0
  3
*D27
  1

  0
LINE
  5
964
330
8DE
100
AcDbEntity
  8
DIM
 62
     0
370
    -2
100
AcDbLine
 10
7.315290063668744
 20
13.13067265727053
 30
0.0
 11
7.315290063668744
 21
9.886419155997089
 31
0.0
  0
LINE
  5
965
330
8DE
100
AcDbEntity
  8
DIM
 62
     0
370
    -2
100
AcDbLine
 10
10.27329006366874
 20
13.13067265727053
 30
0.0
 11
10.27329006366874
 21
9.886419155997089
 31
0.0
  0
LINE
  5
966
330
8DE
100
AcDbEntity
  8
DIM
 62
     0
370
    -2
100
AcDbLine
 10
6.595290063668744
 20
10.25841915599708
 30
0.0
 11
5.875290063668744
 21
10.25841915599708
 31
0.0
  0
LINE
  5
967
330
8DE
100
AcDbEntity
  8
DIM
 62
     0
370
    -2
100
AcDbLine
 10
10.99329006366874
 20
10.25841915599708
 30
0.0
 11
11.71329006366874
 21
10.25841915599708
 31
0.0
  0
SOLID
  5
968
330
8DE
100
AcDbEntity
  8
DIM
 62
     0
100
AcDbTrace
 10
6.595290063668744
 20
10.37841915599708
 30
0.0
 11
6.595290063668744
 21
10.13841915599708
 31
0.0
 12
7.315290063668744
 22
10.25841915599708
 32
0.0
 13
7.315290063668744
 23
10.25841915599708
 33
0.0
  0
SOLID
  5
969
330
8DE
100
AcDbEntity
  8
DIM
 62
     0
100
AcDbTrace
 10
10.99329006366874
 20
10.37841915599708
 30
0.0
 11
10.99329006366874
 21
10.13841915599708
 31
0.0
 12
10.27329006366874
 22
10.25841915599708
 32
0.0
 13
10.27329006366874
 23
10.25841915599708
 33
0.0
  0
MTEXT
  5
96A
330
8DE
100
AcDbEntity
  8
DIM
 62
     0
100
AcDbMText
 10
8.794290063668743
 20
10.25841915599708
 30
0.0
 40
0.5
 41
0.0
 71
     5
 72
     1
  1
\A1;F
 73
     1
 44
1.0
  0
POINT
  5
96B
330
8DE
100
AcDbEntity
  8
DEFPOINTS
 62
     0
100
AcDbPoint
 10
7.315290063668744
 20
13.38267265727054
 30
0.0
  0
POINT
  5
96C
330
8DE
100
AcDbEntity
  8
DEFPOINTS
 62
     0
100
AcDbPoint
 10
10.27329006366874
 20
13.38267265727054
 30
0.0
  0
POINT
  5
96D
330
8DE
100
AcDbEntity
  8
DEFPOINTS
 62
     0
100
AcDbPoint
 10
10.27329006366874
 20
10.25841915599708
 30
0.0
  0
ENDBLK
  5
8EA
330
8DE
100
AcDbEntity
  8
0
100
AcDbBlockEnd
  0
ENDSEC
  0
SECTION
  2
ENTITIES
  0
LINE
  5
255
330
1E
100
AcDbEntity
  8
OBJECT
100
AcDbLine
 10
37.42194045801373
 20
23.30967265727053
 30
0.0
 11
36.47094045801376
 21
23.29967265727054
 31
0.0
  0
LINE
  5
256
330
1E
100
AcDbEntity
  8
OBJECT
100
AcDbLine
 10
36.24094045801374
 20
22.79117265727052
 30
0.0
 11
36.24094045801374
 21
12.82417265727055
 31
0.0
  0
LINE
  5
257
330
1E
100
AcDbEntity
  8
OBJECT
100
AcDbLine
 10
41.27194045801376
 20
17.80767265727053
 30
0.0
 11
41.27194045801376
 21
23.21017265727054
 31
0.0
  0
LINE
  5
258
330
1E
100
AcDbEntity
  8
OBJECT
100
AcDbLine
 10
37.42194045801375
 20
23.31967265727053
 30
0.0
 11
37.42194045801376
 21
13.28873688878183
 31
0.0
  0
LINE
  5
259
330
1E
100
AcDbEntity
  8
OBJECT
100
AcDbLine
 10
37.42194045801375
 20
12.29567265727053
 30
0.0
 11
41.27194045801376
 21
12.40517265727053
 31
0.0
  0
LINE
  5
25A
330
1E
100
AcDbEntity
  8
OBJECT
100
AcDbLine
 10
41.27194045801376
 20
13.91462591378003
 30
0.0
 11
41.27194045801376
 21
14.18269117578905
 31
0.0
  0
LINE
  5
25B
330
1E
100
AcDbEntity
  8
OBJECT
100
AcDbLine
 10
41.27194045801376
 20
12.40517265727053
 30
0.0
 11
41.27194045801376
 21
12.47217265727053
 31
0.0
  0
LINE
  5
25C
330
1E
100
AcDbEntity
  8
OBJECT
100
AcDbLine
 10
41.27194045801376
 20
13.43771940076107
 30
0.0
 11
41.35194045801374
 21
13.47920088224253
 31
0.0
  0
LINE
  5
25D
330
1E
100
AcDbEntity
  8
OBJECT
100
AcDbLine
 10
40.77557595801378
 20
13.45120088224255
 30
0.0
 11
41.16157595801376
 21
13.45120088224255
 31
0.0
  0
LINE
  5
25E
330
1E
100
AcDbEntity
  8
OBJECT
100
AcDbLine
 10
41.16157595801374
 20
13.28873688878183
 30
0.0
 11
41.16157595801376
 21
13.45120088224255
 31
0.0
  0
LINE
  5
25F
330
1E
100
AcDbEntity
  8
OBJECT
100
AcDbLine
 10
41.27194045801375
 20
13.11765413875201
 30
0.0
 11
41.27194045801376
 21
13.43771940076107
 31
0.0
  0
LINE
  5
260
330
1E
100
AcDbEntity
  8
OBJECT
100
AcDbLine
 10
41.27194045801376
 20
13.91462591378003
 30
0.0
 11
41.35194045801374
 21
13.87314443229855
 31
0.0
  0
LINE
  5
261
330
1E
100
AcDbEntity
  8
OBJECT
100
AcDbLine
 10
40.77557595801376
 20
13.90114443229854
 30
0.0
 11
41.16157595801376
 21
13.90114443229854
 31
0.0
  0
LINE
  5
262
330
1E
100
AcDbEntity
  8
OBJECT
100
AcDbLine
 10
41.27194045801376
 20
22.51117265727053
 30
0.0
 11
41.35194045801376
 21
22.53917265727053
 31
0.0
  0
LINE
  5
263
330
1E
100
AcDbEntity
  8
OBJECT
100
AcDbLine
 10
41.27194045801376
 20
23.14317265727053
 30
0.0
 11
41.35194045801376
 21
23.11517265727054
 31
0.0
  0
LINE
  5
264
330
1E
100
AcDbEntity
  8
OBJECT
100
AcDbLine
 10
41.27194045801376
 20
22.47321550727051
 30
0.0
 11
41.27194045801376
 21
22.25526263367052
 31
0.0
  0
LINE
  5
265
330
1E
100
AcDbEntity
  8
CENTER
100
AcDbLine
 10
8.794290063668739
 20
11.92067265727053
 30
0.0
 11
8.794290063668739
 21
23.69467265727054
 31
0.0
  0
CIRCLE
  5
266
330
1E
100
AcDbEntity
  8
OBJECT
100
AcDbCircle
 10
8.301290063668748
 20
13.38267265727054
 30
0.0
 40
0.083
  0
CIRCLE
  5
267
330
1E
100
AcDbEntity
  8
OBJECT
100
AcDbCircle
 10
8.301290063668748
 20
13.38267265727054
 30
0.0
 40
0.197016307963552
  0
CIRCLE
  5
268
330
1E
100
AcDbEntity
  8
OBJECT
100
AcDbCircle
 10
10.27329006366874
 20
13.38267265727054
 30
0.0
 40
0.083
  0
CIRCLE
  5
269
330
1E
100
AcDbEntity
  8
OBJECT
100
AcDbCircle
 10
10.27329006366874
 20
13.38267265727054
 30
0.0
 40
0.197016307963552
  0
CIRCLE
  5
26A
330
1E
100
AcDbEntity
  8
OBJECT
100
AcDbCircle
 10
9.287290063668745
 20
13.38267265727054
 30
0.0
 40
0.083
  0
CIRCLE
  5
26B
330
1E
100
AcDbEntity
  8
OBJECT
100
AcDbCircle
 10
9.287290063668745
 20
13.38267265727054
 30
0.0
 40
0.197
  0
LINE
  5
26C
330
1E
100
AcDbEntity
  8
OBJECT
100
AcDbLine
 10
10.07786246478854
 20
13.35770309180555
 30
0.0
 11
9.482701222000326
 21
13.35770309180555
 31
0.0
  0
LINE
  5
26D
330
1E
100
AcDbEntity
  8
OBJECT
100
AcDbLine
 10
10.07818824709265
 20
13.4100716859449
 30
0.0
 11
9.482375412241371
 21
13.4100716859449
 31
0.0
  0
LINE
  5
26E
330
1E
100
AcDbEntity
  8
OBJECT
100
AcDbLine
 10
9.091878905337164
 20
13.35770309180555
 30
0.0
 11
8.496717662548949
 21
13.35770309180555
 31
0.0
  0
LINE
  5
26F
330
1E
100
AcDbEntity
  8
OBJECT
100
AcDbLine
 10
9.092204715096119
 20
13.4100716859449
 30
0.0
 11
8.496391880244839
 21
13.4100716859449
 31
0.0
  0
CIRCLE
  5
270
330
1E
100
AcDbEntity
  8
OBJECT
100
AcDbCircle
 10
7.315290063668744
 20
13.38267265727054
 30
0.0
 40
0.197016307963552
  0
LINE
  5
271
330
1E
100
AcDbEntity
  8
OBJECT
100
AcDbLine
 10
8.105862464788547
 20
13.35770309180555
 30
0.0
 11
7.510717662548945
 21
13.35770309180555
 31
0.0
  0
LINE
  5
272
330
1E
100
AcDbEntity
  8
OBJECT
100
AcDbLine
 10
8.106188247092656
 20
13.4100716859449
 30
0.0
 11
7.510391880244842
 21
13.4100716859449
 31
0.0
  0
CIRCLE
  5
273
330
1E
100
AcDbEntity
  8
OBJECT
100
AcDbCircle
 10
7.315290063668744
 20
13.38267265727054
 30
0.0
 40
0.083
  0
LINE
  5
274
330
1E
100
AcDbEntity
  8
CENTER
100
AcDbLine
 10
4.676790063668741
 20
17.80767265727053
 30
0.0
 11
12.91179006366874
 21
17.80767265727053
 31
0.0
  0
DIMENSION
  5
275
330
1E
100
AcDbEntity
  8
DIM
100
AcDbDimension
  2
*D3
 10
12.53679006366874
 20
26.31967265727053
 30
0.0
 11
8.794290063668743
 21
26.31967265727053
 31
0.0
 70
    32
  1
A
 71
     5
 42
7.485000000000001
  3
23NSTD
100
AcDbAlignedDimension
 13
5.051790063668743
 23
22.82767265727054
 33
0.0
 14
12.53679006366874
 24
22.82767265727054
 34
0.0
100
AcDbRotatedDimension
  0
DIMENSION
  5
276
330
1E
100
AcDbEntity
  8
DIM
100
AcDbDimension
  2
*D26
 10
15.25679006366874
 20
21.25867265727053
 30
0.0
 11
15.25679006366874
 21
20.76567265727054
 31
0.0
 70
    32
  1
<> TYP.
 71
     5
 42
0.9859999999999971
  3
23NSTDI
100
AcDbAlignedDimension
 13
11.73929006366874
 23
20.27267265727054
 33
0.0
 14
11.73929006366874
 24
21.25867265727053
 34
0.0
 50
90.0
100
AcDbRotatedDimension
  0
DIMENSION
  5
277
330
1E
100
AcDbEntity
  8
DIM
100
AcDbDimension
  2
*D4
 10
7.315290063668744
 20
11.25841915599709
 30
0.0
 11
3.171540063668744
 21
11.25841915599709
 31
0.0
 70
    32
  1
<> TYP.
 71
     5
 42
0.9860000000000042
  3
23NSTD
100
AcDbAlignedDimension
 13
8.301290063668748
 23
13.38267265727054
 33
0.0
 14
7.315290063668744
 24
13.38267265727054
 34
0.0
100
AcDbRotatedDimension
  0
DIMENSION
  5
278
330
1E
100
AcDbEntity
  8
DIM
100
AcDbDimension
  2
*D27
 10
10.27329006366874
 20
10.25841915599708
 30
0.0
 11
8.794290063668743
 21
10.25841915599708
 31
0.0
 70
    32
  1
F
 71
     5
 42
2.957999999999998
  3
23NSTDI
100
AcDbAlignedDimension
 13
7.315290063668744
 23
13.38267265727054
 33
0.0
 14
10.27329006366874
 24
13.38267265727054
 34
0.0
100
AcDbRotatedDimension
  0
DIMENSION
  5
279
330
1E
100
AcDbEntity
  8
DIM
100
AcDbDimension
  2
*D5
 10
11.16229006366874
 20
9.258419155997088
 30
0.0
 11
8.794290063668746
 21
9.258419155997088
 31
0.0
 70
    32
  1
E
 71
     5
 42
4.735999999999997
  3
23NSTD
100
AcDbAlignedDimension
 13
6.426290063668748
 23
13.67617265727053
 33
0.0
 14
11.16229006366874
 24
13.67617265727053
 34
0.0
100
AcDbRotatedDimension
  0
DIMENSION
  5
27A
330
1E
100
AcDbEntity
  8
DIM
100
AcDbDimension
  2
*D6
 10
11.73929006366874
 20
8.258419155997088
 30
0.0
 11
8.794290063668746
 21
8.258419155997088
 31
0.0
 70
    32
  1
D
 71
     5
 42
5.889999999999993
  3
23NSTD
100
AcDbAlignedDimension
 13
5.84929006366875
 23
14.35667265727053
 33
0.0
 14
11.73929006366874
 24
14.35667265727053
 34
0.0
100
AcDbRotatedDimension
  0
DIMENSION
  5
27B
330
1E
100
AcDbEntity
  8
DIM
100
AcDbDimension
  2
*D7
 10
12.04229006366874
 20
24.31967265727053
 30
0.0
 11
8.794290063668743
 21
24.31967265727053
 31
0.0
 70
    32
  1
C
 71
     5
 42
6.496000000000009
  3
23NSTD
100
AcDbAlignedDimension
 13
5.546290063668738
 23
22.82717265727054
 33
0.0
 14
12.04229006366874
 24
22.82717265727054
 34
0.0
100
AcDbRotatedDimension
  0
DIMENSION
  5
27C
330
1E
100
AcDbEntity
  8
DIM
100
AcDbDimension
  2
*D8
 10
12.12579006366874
 20
25.31967265727053
 30
0.0
 11
8.794290063668746
 21
25.31967265727053
 31
0.0
 70
    32
  1
B
 71
     5
 42
6.663000000000003
  3
23NSTD
100
AcDbAlignedDimension
 13
5.462790063668744
 23
22.3250156927685
 33
0.0
 14
12.12579006366874
 24
22.32501569276856
 34
0.0
100
AcDbRotatedDimension
  0
DIMENSION
  5
27D
330
1E
100
AcDbEntity
  8
DIM
100
AcDbDimension
  2
*D9
 10
1.579790063668738
 20
23.31967265727054
 30
0.0
 11
1.579790063668734
 21
17.80767265727054
 31
0.0
 70
    32
  1
G
 71
     5
 42
11.024
  3
23NSTD
100
AcDbAlignedDimension
 13
5.54379006366874
 23
12.29567265727053
 33
0.0
 14
5.54379006366874
 24
23.31967265727054
 34
0.0
 50
90.0
100
AcDbRotatedDimension
  0
CIRCLE
  5
27E
330
1E
100
AcDbEntity
  8
OBJECT
100
AcDbCircle
 10
11.73929006366874
 20
15.34267265727053
 30
0.0
 40
0.083
  0
CIRCLE
  5
27F
330
1E
100
AcDbEntity
  8
OBJECT
100
AcDbCircle
 10
11.73929006366874
 20
15.34267265727053
 30
0.0
 40
0.197
  0
CIRCLE
  5
280
330
1E
100
AcDbEntity
  8
OBJECT
100
AcDbCircle
 10
11.73929006366874
 20
14.35667265727053
 30
0.0
 40
0.197016307963552
  0
LINE
  5
281
330
1E
100
AcDbEntity
  8
OBJECT
100
AcDbLine
 10
11.71432049820375
 20
14.55210025615072
 30
0.0
 11
11.71432049820375
 21
15.14726149893895
 31
0.0
  0
LINE
  5
282
330
1E
100
AcDbEntity
  8
OBJECT
100
AcDbLine
 10
11.76668909234311
 20
14.55177447384662
 30
0.0
 11
11.76668909234311
 21
15.14758730869791
 31
0.0
  0
CIRCLE
  5
283
330
1E
100
AcDbEntity
  8
OBJECT
100
AcDbCircle
 10
11.73929006366874
 20
14.35667265727053
 30
0.0
 40
0.083
  0
LINE
  5
284
330
1E
100
AcDbEntity
  8
OBJECT
100
AcDbLine
 10
11.71432049820375
 20
15.53810025615073
 30
0.0
 11
11.71432049820375
 21
16.13326149893895
 31
0.0
  0
LINE
  5
285
330
1E
100
AcDbEntity
  8
OBJECT
100
AcDbLine
 10
11.76668909234311
 20
15.53777447384662
 30
0.0
 11
11.76668909234311
 21
16.13358730869791
 31
0.0
  0
CIRCLE
  5
286
330
1E
100
AcDbEntity
  8
OBJECT
100
AcDbCircle
 10
11.73929006366874
 20
16.32867265727053
 30
0.0
 40
0.083
  0
CIRCLE
  5
287
330
1E
100
AcDbEntity
  8
OBJECT
100
AcDbCircle
 10
11.73929006366874
 20
16.32867265727053
 30
0.0
 40
0.197
  0
LINE
  5
288
330
1E
100
AcDbEntity
  8
OBJECT
100
AcDbLine
 10
11.71432049820375
 20
16.52410025615073
 30
0.0
 11
11.71432049820375
 21
17.11926149893895
 31
0.0
  0
LINE
  5
289
330
1E
100
AcDbEntity
  8
OBJECT
100
AcDbLine
 10
11.76668909234311
 20
16.52377447384663
 30
0.0
 11
11.76668909234311
 21
17.11958730869791
 31
0.0
  0
CIRCLE
  5
28A
330
1E
100
AcDbEntity
  8
OBJECT
100
AcDbCircle
 10
11.73929006366874
 20
17.31467265727053
 30
0.0
 40
0.083
  0
CIRCLE
  5
28B
330
1E
100
AcDbEntity
  8
OBJECT
100
AcDbCircle
 10
11.73929006366874
 20
17.31467265727053
 30
0.0
 40
0.197
  0
LINE
  5
28C
330
1E
100
AcDbEntity
  8
OBJECT
100
AcDbLine
 10
11.71432049820375
 20
17.51010025615073
 30
0.0
 11
11.71432049820375
 21
17.54161356546612
 31
0.0
  0
LINE
  5
28D
330
1E
100
AcDbEntity
  8
OBJECT
100
AcDbLine
 10
11.76668909234311
 20
17.50977447384662
 30
0.0
 11
11.76668909234311
 21
17.52868392961995
 31
0.0
  0
CIRCLE
  5
28E
330
1E
100
AcDbEntity
  8
OBJECT
100
AcDbCircle
 10
11.73929006366874
 20
18.30067265727054
 30
0.0
 40
0.083
  0
CIRCLE
  5
28F
330
1E
100
AcDbEntity
  8
OBJECT
100
AcDbCircle
 10
11.73929006366874
 20
18.30067265727054
 30
0.0
 40
0.197
  0
LINE
  5
290
330
1E
100
AcDbEntity
  8
OBJECT
100
AcDbLine
 10
11.71432049820375
 20
18.49610025615073
 30
0.0
 11
11.71432049820375
 21
19.09126149893895
 31
0.0
  0
LINE
  5
291
330
1E
100
AcDbEntity
  8
OBJECT
100
AcDbLine
 10
11.76668909234311
 20
18.49577447384663
 30
0.0
 11
11.76668909234311
 21
19.09158730869791
 31
0.0
  0
CIRCLE
  5
292
330
1E
100
AcDbEntity
  8
OBJECT
100
AcDbCircle
 10
11.73929006366874
 20
19.28667265727053
 30
0.0
 40
0.083
  0
CIRCLE
  5
293
330
1E
100
AcDbEntity
  8
OBJECT
100
AcDbCircle
 10
11.73929006366874
 20
19.28667265727053
 30
0.0
 40
0.197
  0
LINE
  5
294
330
1E
100
AcDbEntity
  8
OBJECT
100
AcDbLine
 10
11.71432049820375
 20
19.48210025615073
 30
0.0
 11
11.71432049820375
 21
20.07726149893895
 31
0.0
  0
LINE
  5
295
330
1E
100
AcDbEntity
  8
OBJECT
100
AcDbLine
 10
11.76668909234311
 20
19.48177447384662
 30
0.0
 11
11.76668909234311
 21
20.07758730869791
 31
0.0
  0
CIRCLE
  5
296
330
1E
100
AcDbEntity
  8
OBJECT
100
AcDbCircle
 10
11.73929006366874
 20
20.27267265727054
 30
0.0
 40
0.083
  0
CIRCLE
  5
297
330
1E
100
AcDbEntity
  8
OBJECT
100
AcDbCircle
 10
11.73929006366874
 20
20.27267265727054
 30
0.0
 40
0.197
  0
LINE
  5
298
330
1E
100
AcDbEntity
  8
OBJECT
100
AcDbLine
 10
11.71432049820375
 20
20.46810025615073
 30
0.0
 11
11.71432049820375
 21
21.06326149893895
 31
0.0
  0
LINE
  5
299
330
1E
100
AcDbEntity
  8
OBJECT
100
AcDbLine
 10
11.76668909234311
 20
20.46777447384662
 30
0.0
 11
11.76668909234311
 21
21.06358730869791
 31
0.0
  0
CIRCLE
  5
29A
330
1E
100
AcDbEntity
  8
OBJECT
100
AcDbCircle
 10
11.73929006366874
 20
21.25867265727053
 30
0.0
 40
0.083
  0
CIRCLE
  5
29B
330
1E
100
AcDbEntity
  8
OBJECT
100
AcDbCircle
 10
11.73929006366874
 20
21.25867265727053
 30
0.0
 40
0.197
  0
LINE
  5
29C
330
1E
100
AcDbEntity
  8
OBJECT
100
AcDbLine
 10
5.821891034994383
 20
18.49577447384663
 30
0.0
 11
5.821891034994383
 21
19.09158730869791
 31
0.0
  0
LINE
  5
29D
330
1E
100
AcDbEntity
  8
OBJECT
100
AcDbLine
 10
5.874259629133735
 20
18.49610025615073
 30
0.0
 11
5.874259629133735
 21
19.09126149893895
 31
0.0
  0
LINE
  5
29E
330
1E
100
AcDbEntity
  8
OBJECT
100
AcDbLine
 10
5.821891034994383
 20
15.53777447384662
 30
0.0
 11
5.821891034994383
 21
16.13358730869791
 31
0.0
  0
LINE
  5
29F
330
1E
100
AcDbEntity
  8
OBJECT
100
AcDbLine
 10
5.874259629133735
 20
15.53810025615073
 30
0.0
 11
5.874259629133735
 21
16.13326149893895
 31
0.0
  0
CIRCLE
  5
2A0
330
1E
100
AcDbEntity
  8
OBJECT
100
AcDbCircle
 10
5.84929006366875
 20
14.35667265727053
 30
0.0
 40
0.197016307963552
  0
CIRCLE
  5
2A1
330
1E
100
AcDbEntity
  8
OBJECT
100
AcDbCircle
 10
5.84929006366875
 20
14.35667265727053
 30
0.0
 40
0.083
  0
LINE
  5
2A2
330
1E
100
AcDbEntity
  8
OBJECT
100
AcDbLine
 10
5.874259629133735
 20
14.55210025615072
 30
0.0
 11
5.874259629133735
 21
15.14726149893895
 31
0.0
  0
LINE
  5
2A3
330
1E
100
AcDbEntity
  8
OBJECT
100
AcDbLine
 10
5.821891034994383
 20
14.55177447384662
 30
0.0
 11
5.821891034994383
 21
15.14758730869791
 31
0.0
  0
CIRCLE
  5
2A4
330
1E
100
AcDbEntity
  8
OBJECT
100
AcDbCircle
 10
5.84929006366875
 20
15.34267265727053
 30
0.0
 40
0.083
  0
CIRCLE
  5
2A5
330
1E
100
AcDbEntity
  8
OBJECT
100
AcDbCircle
 10
5.84929006366875
 20
15.34267265727053
 30
0.0
 40
0.197
  0
CIRCLE
  5
2A6
330
1E
100
AcDbEntity
  8
OBJECT
100
AcDbCircle
 10
5.84929006366875
 20
17.31467265727053
 30
0.0
 40
0.197
  0
CIRCLE
  5
2A7
330
1E
100
AcDbEntity
  8
OBJECT
100
AcDbCircle
 10
5.84929006366875
 20
17.31467265727053
 30
0.0
 40
0.083
  0
LINE
  5
2A8
330
1E
100
AcDbEntity
  8
OBJECT
100
AcDbLine
 10
5.821891034994383
 20
16.52377447384663
 30
0.0
 11
5.821891034994383
 21
17.11958730869791
 31
0.0
  0
LINE
  5
2A9
330
1E
100
AcDbEntity
  8
OBJECT
100
AcDbLine
 10
5.874259629133735
 20
16.52410025615073
 30
0.0
 11
5.874259629133735
 21
17.11926149893895
 31
0.0
  0
CIRCLE
  5
2AA
330
1E
100
AcDbEntity
  8
OBJECT
100
AcDbCircle
 10
5.84929006366875
 20
16.32867265727053
 30
0.0
 40
0.197
  0
CIRCLE
  5
2AB
330
1E
100
AcDbEntity
  8
OBJECT
100
AcDbCircle
 10
5.84929006366875
 20
16.32867265727053
 30
0.0
 40
0.083
  0
CIRCLE
  5
2AC
330
1E
100
AcDbEntity
  8
OBJECT
100
AcDbCircle
 10
5.84929006366875
 20
18.30067265727054
 30
0.0
 40
0.197
  0
LINE
  5
2AD
330
1E
100
AcDbEntity
  8
OBJECT
100
AcDbLine
 10
5.821891034994383
 20
17.50977447384662
 30
0.0
 11
5.821891034994383
 21
17.52868392961995
 31
0.0
  0
LINE
  5
2AE
330
1E
100
AcDbEntity
  8
OBJECT
100
AcDbLine
 10
5.874259629133735
 20
17.51010025615073
 30
0.0
 11
5.874259629133735
 21
17.54161356546612
 31
0.0
  0
CIRCLE
  5
2AF
330
1E
100
AcDbEntity
  8
OBJECT
100
AcDbCircle
 10
5.84929006366875
 20
18.30067265727054
 30
0.0
 40
0.083
  0
LINE
  5
2B0
330
1E
100
AcDbEntity
  8
OBJECT
100
AcDbLine
 10
5.821891034994383
 20
20.46777447384662
 30
0.0
 11
5.821891034994383
 21
21.06358730869791
 31
0.0
  0
LINE
  5
2B1
330
1E
100
AcDbEntity
  8
OBJECT
100
AcDbLine
 10
5.874259629133735
 20
20.46810025615073
 30
0.0
 11
5.874259629133735
 21
21.06326149893895
 31
0.0
  0
CIRCLE
  5
2B2
330
1E
100
AcDbEntity
  8
OBJECT
100
AcDbCircle
 10
5.84929006366875
 20
20.27267265727054
 30
0.0
 40
0.197
  0
LINE
  5
2B3
330
1E
100
AcDbEntity
  8
OBJECT
100
AcDbLine
 10
5.821891034994383
 20
19.48177447384662
 30
0.0
 11
5.821891034994383
 21
20.07758730869791
 31
0.0
  0
LINE
  5
2B4
330
1E
100
AcDbEntity
  8
OBJECT
100
AcDbLine
 10
5.874259629133735
 20
19.48210025615073
 30
0.0
 11
5.874259629133735
 21
20.07726149893895
 31
0.0
  0
CIRCLE
  5
2B5
330
1E
100
AcDbEntity
  8
OBJECT
100
AcDbCircle
 10
5.84929006366875
 20
19.28667265727053
 30
0.0
 40
0.197
  0
CIRCLE
  5
2B6
330
1E
100
AcDbEntity
  8
OBJECT
100
AcDbCircle
 10
5.84929006366875
 20
19.28667265727053
 30
0.0
 40
0.083
  0
CIRCLE
  5
2B7
330
1E
100
AcDbEntity
  8
OBJECT
100
AcDbCircle
 10
5.84929006366875
 20
20.27267265727054
 30
0.0
 40
0.083
  0
CIRCLE
  5
2B8
330
1E
100
AcDbEntity
  8
OBJECT
100
AcDbCircle
 10
5.84929006366875
 20
21.25867265727053
 30
0.0
 40
0.197
  0
CIRCLE
  5
2B9
330
1E
100
AcDbEntity
  8
OBJECT
100
AcDbCircle
 10
5.84929006366875
 20
21.25867265727053
 30
0.0
 40
0.083
  0
CIRCLE
  5
2BA
330
1E
100
AcDbEntity
  8
OBJECT
100
AcDbCircle
 10
9.287290063668745
 20
22.23267265727053
 30
0.0
 40
0.083
  0
CIRCLE
  5
2BB
330
1E
100
AcDbEntity
  8
OBJECT
100
AcDbCircle
 10
9.287290063668745
 20
22.23267265727053
 30
0.0
 40
0.197
  0
LINE
  5
2BC
330
1E
100
AcDbEntity
  8
OBJECT
100
AcDbLine
 10
8.106188247092656
 20
22.20527362859616
 30
0.0
 11
7.510391880244842
 21
22.20527362859616
 31
0.0
  0
LINE
  5
2BD
330
1E
100
AcDbEntity
  8
OBJECT
100
AcDbLine
 10
8.105862464788547
 20
22.25764222273551
 30
0.0
 11
7.510717662548945
 21
22.25764222273551
 31
0.0
  0
CIRCLE
  5
2BE
330
1E
100
AcDbEntity
  8
OBJECT
100
AcDbCircle
 10
7.315290063668744
 20
22.23267265727053
 30
0.0
 40
0.197016307963552
  0
CIRCLE
  5
2BF
330
1E
100
AcDbEntity
  8
OBJECT
100
AcDbCircle
 10
7.315290063668744
 20
22.23267265727053
 30
0.0
 40
0.083
  0
CIRCLE
  5
2C0
330
1E
100
AcDbEntity
  8
OBJECT
100
AcDbCircle
 10
8.301290063668748
 20
22.23267265727053
 30
0.0
 40
0.197016307963552
  0
LINE
  5
2C1
330
1E
100
AcDbEntity
  8
OBJECT
100
AcDbLine
 10
9.092204715096119
 20
22.20527362859616
 30
0.0
 11
8.496391880244839
 21
22.20527362859616
 31
0.0
  0
LINE
  5
2C2
330
1E
100
AcDbEntity
  8
OBJECT
100
AcDbLine
 10
9.091878905337164
 20
22.25764222273551
 30
0.0
 11
8.496717662548949
 21
22.25764222273551
 31
0.0
  0
CIRCLE
  5
2C3
330
1E
100
AcDbEntity
  8
OBJECT
100
AcDbCircle
 10
8.301290063668748
 20
22.23267265727053
 30
0.0
 40
0.083
  0
CIRCLE
  5
2C4
330
1E
100
AcDbEntity
  8
OBJECT
100
AcDbCircle
 10
10.27329006366874
 20
22.23267265727053
 30
0.0
 40
0.197016307963552
  0
LINE
  5
2C5
330
1E
100
AcDbEntity
  8
OBJECT
100
AcDbLine
 10
10.07786246478854
 20
22.25764222273551
 30
0.0
 11
9.482701222000326
 21
22.25764222273551
 31
0.0
  0
LINE
  5
2C6
330
1E
100
AcDbEntity
  8
OBJECT
100
AcDbLine
 10
10.07818824709265
 20
22.20527362859616
 30
0.0
 11
9.482375412241371
 21
22.20527362859616
 31
0.0
  0
CIRCLE
  5
2C7
330
1E
100
AcDbEntity
  8
OBJECT
100
AcDbCircle
 10
10.27329006366874
 20
22.23267265727053
 30
0.0
 40
0.083
  0
CIRCLE
  5
2C8
330
1E
100
AcDbEntity
  8
OBJECT
100
AcDbCircle
 10
11.16229006366874
 20
13.67617265727053
 30
0.0
 40
0.0825
  0
CIRCLE
  5
2C9
330
1E
100
AcDbEntity
  8
HIDDEN
100
AcDbCircle
 10
11.16229006366874
 20
13.67617265727053
 30
0.0
 40
0.095
  0
CIRCLE
  5
2CA
330
1E
100
AcDbEntity
  8
OBJECT
100
AcDbCircle
 10
11.16229006366874
 20
13.67617265727053
 30
0.0
 40
0.282
  0
CIRCLE
  5
2CB
330
1E
100
AcDbEntity
  8
OBJECT
100
AcDbCircle
 10
11.16229006366874
 20
21.93917265727054
 30
0.0
 40
0.282
  0
CIRCLE
  5
2CC
330
1E
100
AcDbEntity
  8
HIDDEN
100
AcDbCircle
 10
11.16229006366874
 20
21.93917265727054
 30
0.0
 40
0.095
  0
CIRCLE
  5
2CD
330
1E
100
AcDbEntity
  8
OBJECT
100
AcDbCircle
 10
11.16229006366874
 20
21.93917265727054
 30
0.0
 40
0.0825
  0
CIRCLE
  5
2CE
330
1E
100
AcDbEntity
  8
OBJECT
100
AcDbCircle
 10
6.426290063668748
 20
21.93917265727054
 30
0.0
 40
0.0825
  0
CIRCLE
  5
2CF
330
1E
100
AcDbEntity
  8
HIDDEN
100
AcDbCircle
 10
6.426290063668748
 20
21.93917265727054
 30
0.0
 40
0.095
  0
CIRCLE
  5
2D0
330
1E
100
AcDbEntity
  8
OBJECT
100
AcDbCircle
 10
6.426290063668748
 20
21.93917265727054
 30
0.0
 40
0.282
  0
CIRCLE
  5
2D1
330
1E
100
AcDbEntity
  8
OBJECT
100
AcDbCircle
 10
6.426290063668748
 20
13.67617265727053
 30
0.0
 40
0.282
  0
CIRCLE
  5
2D2
330
1E
100
AcDbEntity
  8
HIDDEN
100
AcDbCircle
 10
6.426290063668748
 20
13.67617265727053
 30
0.0
 40
0.095
  0
CIRCLE
  5
2D3
330
1E
100
AcDbEntity
  8
OBJECT
100
AcDbCircle
 10
6.426290063668748
 20
13.67617265727053
 30
0.0
 40
0.0825
  0
CIRCLE
  5
2D4
330
1E
100
AcDbEntity
  8
OBJECT
100
AcDbCircle
 10
8.794290063668743
 20
12.88867265727054
 30
0.0
 40
0.282
  0
CIRCLE
  5
2D5
330
1E
100
AcDbEntity
  8
OBJECT
100
AcDbCircle
 10
11.80779006366874
 20
17.80767265727053
 30
0.0
 40
0.282
  0
CIRCLE
  5
2D6
330
1E
100
AcDbEntity
  8
OBJECT
100
AcDbCircle
 10
8.794290063668743
 20
22.72667265727053
 30
0.0
 40
0.282
  0
CIRCLE
  5
2D7
330
1E
100
AcDbEntity
  8
OBJECT
100
AcDbCircle
 10
5.780790063668749
 20
17.80767265727053
 30
0.0
 40
0.282
  0
LINE
  5
2D8
330
1E
100
AcDbEntity
  8
OBJECT
100
AcDbLine
 10
5.874259629133735
 20
18.07373174907494
 30
0.0
 11
5.874259629133735
 21
18.10526149893895
 31
0.0
  0
LINE
  5
2D9
330
1E
100
AcDbEntity
  8
OBJECT
100
AcDbLine
 10
5.821891034994383
 20
18.08666138492111
 30
0.0
 11
5.821891034994383
 21
18.10558730869791
 31
0.0
  0
LINE
  5
2DA
330
1E
100
AcDbEntity
  8
OBJECT
100
AcDbLine
 10
11.76668909234311
 20
18.08666138492111
 30
0.0
 11
11.76668909234311
 21
18.10558730869791
 31
0.0
  0
LINE
  5
2DB
330
1E
100
AcDbEntity
  8
OBJECT
100
AcDbLine
 10
11.71432049820375
 20
18.07373174907494
 30
0.0
 11
11.71432049820375
 21
18.10526149893895
 31
0.0
  0
LINE
  5
2DC
330
1E
100
AcDbEntity
  8
OBJECT
100
AcDbLine
 10
5.462790063668744
 20
22.3250156927685
 30
0.0
 11
5.462790063668744
 21
13.29032962177265
 31
0.0
  0
CIRCLE
  5
2DD
330
1E
100
AcDbEntity
  8
OBJECT
100
AcDbCircle
 10
12.04229006366874
 20
12.78817265727053
 30
0.0
 40
0.266
  0
CIRCLE
  5
2DE
330
1E
100
AcDbEntity
  8
HIDDEN
100
AcDbCircle
 10
12.04229006366874
 20
12.78817265727053
 30
0.0
 40
0.3115
  0
LINE
  5
2DF
330
1E
100
AcDbEntity
  8
OBJECT
100
AcDbLine
 10
12.12579006366874
 20
22.32501569276856
 30
0.0
 11
12.12579006366874
 21
13.29032962177259
 31
0.0
  0
LINE
  5
2E0
330
1E
100
AcDbEntity
  8
OBJECT
100
AcDbLine
 10
5.994722095123041
 20
14.22376310219391
 30
0.0
 11
6.263676118808465
 21
13.9065651591819
 31
0.0
  0
LINE
  5
2E1
330
1E
100
AcDbEntity
  8
OBJECT
100
AcDbLine
 10
5.956632175822836
 20
14.19146643292687
 30
0.0
 11
6.22558619950826
 21
13.87426848991486
 31
0.0
  0
LINE
  5
2E2
330
1E
100
AcDbEntity
  8
OBJECT
100
AcDbLine
 10
6.7008499166846
 20
13.61182293223684
 30
0.0
 11
7.13754251988433
 21
13.46765051487
 31
0.0
  0
LINE
  5
2E3
330
1E
100
AcDbEntity
  8
OBJECT
100
AcDbLine
 10
6.685193865576753
 20
13.56440136687098
 30
0.0
 11
7.121886468776477
 21
13.42022894950414
 31
0.0
  0
LINE
  5
2E4
330
1E
100
AcDbEntity
  8
OBJECT
100
AcDbLine
 10
10.88773021065289
 20
13.61182293223684
 30
0.0
 11
10.45103760745316
 21
13.46765051487
 31
0.0
  0
LINE
  5
2E5
330
1E
100
AcDbEntity
  8
OBJECT
100
AcDbLine
 10
10.90338626176074
 20
13.56440136687098
 30
0.0
 11
10.46669365856101
 21
13.42022894950414
 31
0.0
  0
LINE
  5
2E6
330
1E
100
AcDbEntity
  8
OBJECT
100
AcDbLine
 10
11.59385803221444
 20
14.22376310219391
 30
0.0
 11
11.32490400852902
 21
13.9065651591819
 31
0.0
  0
LINE
  5
2E7
330
1E
100
AcDbEntity
  8
OBJECT
100
AcDbLine
 10
11.63194795151465
 20
14.19146643292687
 30
0.0
 11
11.36299392782922
 21
13.87426848991486
 31
0.0
  0
LINE
  5
2E8
330
1E
100
AcDbEntity
  8
OBJECT
100
AcDbLine
 10
5.994722095123041
 20
21.39158221234715
 30
0.0
 11
6.263676118808465
 21
21.70878015535917
 31
0.0
  0
LINE
  5
2E9
330
1E
100
AcDbEntity
  8
OBJECT
100
AcDbLine
 10
5.956632175822836
 20
21.4238788816142
 30
0.0
 11
6.22558619950826
 21
21.74107682462621
 31
0.0
  0
LINE
  5
2EA
330
1E
100
AcDbEntity
  8
OBJECT
100
AcDbLine
 10
6.7008499166846
 20
22.00352238230422
 30
0.0
 11
7.13754251988433
 21
22.14769479967106
 31
0.0
  0
LINE
  5
2EB
330
1E
100
AcDbEntity
  8
OBJECT
100
AcDbLine
 10
6.685193865576753
 20
22.05094394767009
 30
0.0
 11
7.121886468776477
 21
22.19511636503693
 31
0.0
  0
LINE
  5
2EC
330
1E
100
AcDbEntity
  8
OBJECT
100
AcDbLine
 10
10.90338626176074
 20
22.05094394767009
 30
0.0
 11
10.46669365856101
 21
22.19511636503693
 31
0.0
  0
LINE
  5
2ED
330
1E
100
AcDbEntity
  8
OBJECT
100
AcDbLine
 10
10.88773021065289
 20
22.00352238230422
 30
0.0
 11
10.45103760745316
 21
22.14769479967106
 31
0.0
  0
LINE
  5
2EE
330
1E
100
AcDbEntity
  8
OBJECT
100
AcDbLine
 10
11.59385803221444
 20
21.39158221234715
 30
0.0
 11
11.32490400852902
 21
21.70878015535917
 31
0.0
  0
LINE
  5
2EF
330
1E
100
AcDbEntity
  8
OBJECT
100
AcDbLine
 10
11.63194795151465
 20
21.4238788816142
 30
0.0
 11
11.36299392782922
 21
21.74107682462621
 31
0.0
  0
CIRCLE
  5
2F0
330
1E
100
AcDbEntity
  8
HIDDEN
100
AcDbCircle
 10
5.546290063668738
 20
12.78817265727053
 30
0.0
 40
0.3115
  0
CIRCLE
  5
2F1
330
1E
100
AcDbEntity
  8
OBJECT
100
AcDbCircle
 10
5.546290063668738
 20
12.78817265727053
 30
0.0
 40
0.266
  0
CIRCLE
  5
2F2
330
1E
100
AcDbEntity
  8
OBJECT
100
AcDbCircle
 10
5.546290063668738
 20
22.82717265727054
 30
0.0
 40
0.266
  0
CIRCLE
  5
2F3
330
1E
100
AcDbEntity
  8
HIDDEN
100
AcDbCircle
 10
5.546290063668738
 20
22.82717265727054
 30
0.0
 40
0.3115
  0
CIRCLE
  5
2F4
330
1E
100
AcDbEntity
  8
HIDDEN
100
AcDbCircle
 10
12.04229006366874
 20
22.82717265727054
 30
0.0
 40
0.3115
  0
CIRCLE
  5
2F5
330
1E
100
AcDbEntity
  8
OBJECT
100
AcDbCircle
 10
12.04229006366874
 20
22.82717265727054
 30
0.0
 40
0.266
  0
LINE
  5
2F6
330
1E
100
AcDbEntity
  8
OBJECT
100
AcDbLine
 10
37.71494045801375
 20
22.7928655297609
 30
0.0
 11
37.71494045801375
 21
17.80767265727053
 31
0.0
  0
LINE
  5
2F7
330
1E
100
AcDbEntity
  8
OBJECT
100
AcDbLine
 10
37.14594045801375
 20
22.7928655297609
 30
0.0
 11
37.14594045801375
 21
17.80767265727053
 31
0.0
  0
LINE
  5
2F8
330
1E
100
AcDbEntity
  8
OBJECT
100
AcDbLine
 10
36.47094045801376
 20
22.39368221023143
 30
0.0
 11
37.14594045801375
 21
22.39368221023143
 31
0.0
  0
LINE
  5
2F9
330
1E
100
AcDbEntity
  8
OBJECT
100
AcDbLine
 10
36.47094045801376
 20
23.29967265727054
 30
0.0
 11
36.47094045801376
 21
22.15116405827227
 31
0.0
  0
ARC
  5
2FA
330
1E
100
AcDbEntity
  8
OBJECT
100
AcDbCircle
 10
36.47094045801376
 20
22.09708708264532
 30
0.0
 40
0.2300000000000111
100
AcDbArc
 50
90.0
 51
180.0
  0
ARC
  5
2FB
330
1E
100
AcDbEntity
  8
OBJECT
100
AcDbCircle
 10
36.47094045801376
 20
22.79117265727052
 30
0.0
 40
0.2300000000000111
100
AcDbArc
 50
90.0
 51
180.0
  0
LINE
  5
2FC
330
1E
100
AcDbEntity
  8
OBJECT
100
AcDbLine
 10
36.47094045801376
 20
12.31617265727053
 30
0.0
 11
36.47094045801376
 21
13.28825823189558
 31
0.0
  0
ARC
  5
2FD
330
1E
100
AcDbEntity
  8
OBJECT
100
AcDbCircle
 10
36.47094045801376
 20
12.82417265727055
 30
0.0
 40
0.2300000000000111
100
AcDbArc
 50
180.0
 51
270.0
  0
LINE
  5
2FE
330
1E
100
AcDbEntity
  8
OBJECT
100
AcDbLine
 10
37.42194045801375
 20
12.30567265727053
 30
0.0
 11
36.47094045801376
 21
12.31617265727053
 31
0.0
  0
LINE
  5
2FF
330
1E
100
AcDbEntity
  8
OBJECT
100
AcDbLine
 10
36.35594045801374
 20
17.80767265727053
 30
0.0
 11
36.35594045801374
 21
13.52489436378185
 31
0.0
  0
LINE
  5
300
330
1E
100
AcDbEntity
  8
OBJECT
100
AcDbLine
 10
37.30694045801375
 20
13.28873688878183
 30
0.0
 11
41.16157595801374
 21
13.28873688878183
 31
0.0
  0
LINE
  5
301
330
1E
100
AcDbEntity
  8
OBJECT
100
AcDbLine
 10
37.30694045801375
 20
13.28873688878183
 30
0.0
 11
37.30694045801375
 21
13.20999673178186
 31
0.0
  0
LINE
  5
302
330
1E
100
AcDbEntity
  8
OBJECT
100
AcDbLine
 10
37.30694045801375
 20
13.20999673178186
 30
0.0
 11
37.42194045801375
 21
13.20999673178186
 31
0.0
  0
LINE
  5
303
330
1E
100
AcDbEntity
  8
OBJECT
100
AcDbLine
 10
37.22194045801375
 20
13.33889436378185
 30
0.0
 11
37.22194045801375
 21
13.15989436378185
 31
0.0
  0
LINE
  5
304
330
1E
100
AcDbEntity
  8
OBJECT
100
AcDbLine
 10
37.22194045801375
 20
13.33889436378185
 30
0.0
 11
37.42194045801375
 21
13.33889436378185
 31
0.0
  0
LINE
  5
305
330
1E
100
AcDbEntity
  8
OBJECT
100
AcDbLine
 10
37.22194045801375
 20
13.15989436378185
 30
0.0
 11
37.42194045801375
 21
13.15989436378185
 31
0.0
  0
LINE
  5
306
330
1E
100
AcDbEntity
  8
OBJECT
100
AcDbLine
 10
37.17194045801375
 20
13.28767265727051
 30
0.0
 11
37.17194045801375
 21
12.46867265727047
 31
0.0
  0
LWPOLYLINE
  5
307
330
1E
100
AcDbEntity
  8
OBJECT
100
AcDbPolyline
 90
        4
 70
     1
 43
0.0
 10
37.50294045801366
 20
21.45767265727053
 10
37.50294045801368
 20
21.04767265727053
 10
37.63394045801367
 20
21.04767265727053
 10
37.63394045801367
 20
21.45767265727053
  0
LINE
  5
30D
330
1E
100
AcDbEntity
  8
OBJECT
100
AcDbLine
 10
41.06094045801376
 20
12.88267265727053
 30
0.0
 11
41.35194045801376
 21
12.88267265727053
 31
0.0
  0
LINE
  5
30E
330
1E
100
AcDbEntity
  8
OBJECT
100
AcDbLine
 10
41.06094045801376
 20
12.69367265727054
 30
0.0
 11
41.35194045801376
 21
12.69367265727054
 31
0.0
  0
LINE
  5
30F
330
1E
100
AcDbEntity
  8
OBJECT
100
AcDbLine
 10
41.35194045801374
 20
12.50017265727052
 30
0.0
 11
41.35194045801376
 21
13.07617265727054
 31
0.0
  0
LINE
  5
310
330
1E
100
AcDbEntity
  8
OBJECT
100
AcDbLine
 10
37.46594045801375
 20
12.47667265727053
 30
0.0
 11
37.47375108819638
 21
12.58726408008383
 31
0.0
  0
LINE
  5
311
330
1E
100
AcDbEntity
  8
OBJECT
100
AcDbLine
 10
37.55394045801375
 20
13.05417265727053
 30
0.0
 11
37.54310079071549
 21
12.92311122539151
 31
0.0
  0
LINE
  5
312
330
1E
100
AcDbEntity
  8
OBJECT
100
AcDbLine
 10
37.55394045801374
 20
12.47667265727053
 30
0.0
 11
37.56175108819638
 21
12.58726408008383
 31
0.0
  0
LINE
  5
313
330
1E
100
AcDbEntity
  8
OBJECT
100
AcDbLine
 10
37.46594045801376
 20
13.05417265727053
 30
0.0
 11
37.4551007907155
 21
12.92311122539151
 31
0.0
  0
LINE
  5
314
330
1E
100
AcDbEntity
  8
OBJECT
100
AcDbLine
 10
37.72994045801374
 20
12.47667265727053
 30
0.0
 11
37.73775108819639
 21
12.58726408008383
 31
0.0
  0
LINE
  5
315
330
1E
100
AcDbEntity
  8
OBJECT
100
AcDbLine
 10
37.64194045801376
 20
13.05417265727053
 30
0.0
 11
37.6311007907155
 21
12.92311122539151
 31
0.0
  0
LINE
  5
316
330
1E
100
AcDbEntity
  8
OBJECT
100
AcDbLine
 10
37.72994045801375
 20
13.05417265727053
 30
0.0
 11
37.71910079071549
 21
12.92311122539151
 31
0.0
  0
LINE
  5
317
330
1E
100
AcDbEntity
  8
OBJECT
100
AcDbLine
 10
37.64194045801374
 20
12.47667265727053
 30
0.0
 11
37.64975108819639
 21
12.58726408008383
 31
0.0
  0
LINE
  5
318
330
1E
100
AcDbEntity
  8
OBJECT
100
AcDbLine
 10
37.90594045801374
 20
12.47667265727053
 30
0.0
 11
37.91375108819638
 21
12.58726408008383
 31
0.0
  0
LINE
  5
319
330
1E
100
AcDbEntity
  8
OBJECT
100
AcDbLine
 10
37.81794045801375
 20
13.05417265727053
 30
0.0
 11
37.80710079071548
 21
12.92311122539151
 31
0.0
  0
LINE
  5
31A
330
1E
100
AcDbEntity
  8
OBJECT
100
AcDbLine
 10
37.90594045801374
 20
13.05417265727053
 30
0.0
 11
37.89510079071548
 21
12.92311122539151
 31
0.0
  0
LINE
  5
31B
330
1E
100
AcDbEntity
  8
OBJECT
100
AcDbLine
 10
37.81794045801375
 20
12.47667265727053
 30
0.0
 11
37.82575108819639
 21
12.58726408008383
 31
0.0
  0
LINE
  5
31C
330
1E
100
AcDbEntity
  8
OBJECT
100
AcDbLine
 10
38.08194045801375
 20
12.47667265727053
 30
0.0
 11
38.08975108819638
 21
12.58726408008383
 31
0.0
  0
LINE
  5
31D
330
1E
100
AcDbEntity
  8
OBJECT
100
AcDbLine
 10
37.99394045801375
 20
13.05417265727053
 30
0.0
 11
37.98310079071549
 21
12.92311122539151
 31
0.0
  0
LINE
  5
31E
330
1E
100
AcDbEntity
  8
OBJECT
100
AcDbLine
 10
38.08194045801375
 20
13.05417265727053
 30
0.0
 11
38.07110079071548
 21
12.92311122539151
 31
0.0
  0
LINE
  5
31F
330
1E
100
AcDbEntity
  8
OBJECT
100
AcDbLine
 10
37.99394045801375
 20
12.47667265727053
 30
0.0
 11
38.00175108819639
 21
12.58726408008383
 31
0.0
  0
LINE
  5
320
330
1E
100
AcDbEntity
  8
OBJECT
100
AcDbLine
 10
38.25794045801375
 20
12.47667265727053
 30
0.0
 11
38.26575108819639
 21
12.58726408008383
 31
0.0
  0
LINE
  5
321
330
1E
100
AcDbEntity
  8
OBJECT
100
AcDbLine
 10
38.16994045801375
 20
13.05417265727053
 30
0.0
 11
38.15910079071549
 21
12.92311122539151
 31
0.0
  0
LINE
  5
322
330
1E
100
AcDbEntity
  8
OBJECT
100
AcDbLine
 10
38.25794045801375
 20
13.05417265727053
 30
0.0
 11
38.24710079071548
 21
12.92311122539151
 31
0.0
  0
LINE
  5
323
330
1E
100
AcDbEntity
  8
OBJECT
100
AcDbLine
 10
38.16994045801375
 20
12.47667265727053
 30
0.0
 11
38.17775108819639
 21
12.58726408008383
 31
0.0
  0
LINE
  5
324
330
1E
100
AcDbEntity
  8
OBJECT
100
AcDbLine
 10
38.43394045801375
 20
12.47667265727053
 30
0.0
 11
38.44175108819639
 21
12.58726408008383
 31
0.0
  0
LINE
  5
325
330
1E
100
AcDbEntity
  8
OBJECT
100
AcDbLine
 10
38.34594045801376
 20
13.05417265727053
 30
0.0
 11
38.33510079071549
 21
12.92311122539151
 31
0.0
  0
LINE
  5
326
330
1E
100
AcDbEntity
  8
OBJECT
100
AcDbLine
 10
38.43394045801375
 20
13.05417265727053
 30
0.0
 11
38.42310079071548
 21
12.92311122539151
 31
0.0
  0
LINE
  5
327
330
1E
100
AcDbEntity
  8
OBJECT
100
AcDbLine
 10
38.34594045801376
 20
12.47667265727053
 30
0.0
 11
38.3537510881964
 21
12.58726408008383
 31
0.0
  0
LINE
  5
328
330
1E
100
AcDbEntity
  8
OBJECT
100
AcDbLine
 10
38.60994045801374
 20
12.47667265727053
 30
0.0
 11
38.61775108819637
 21
12.58726408008383
 31
0.0
  0
LINE
  5
329
330
1E
100
AcDbEntity
  8
OBJECT
100
AcDbLine
 10
38.52194045801375
 20
13.05417265727053
 30
0.0
 11
38.51110079071549
 21
12.92311122539151
 31
0.0
  0
LINE
  5
32A
330
1E
100
AcDbEntity
  8
OBJECT
100
AcDbLine
 10
38.60994045801375
 20
13.05417265727053
 30
0.0
 11
38.59910079071548
 21
12.92311122539151
 31
0.0
  0
LINE
  5
32B
330
1E
100
AcDbEntity
  8
OBJECT
100
AcDbLine
 10
38.52194045801374
 20
12.47667265727053
 30
0.0
 11
38.52975108819638
 21
12.58726408008383
 31
0.0
  0
LINE
  5
32C
330
1E
100
AcDbEntity
  8
OBJECT
100
AcDbLine
 10
38.78594045801374
 20
12.47667265727053
 30
0.0
 11
38.79375108819639
 21
12.58726408008383
 31
0.0
  0
LINE
  5
32D
330
1E
100
AcDbEntity
  8
OBJECT
100
AcDbLine
 10
38.69794045801376
 20
13.05417265727053
 30
0.0
 11
38.68710079071549
 21
12.92311122539151
 31
0.0
  0
LINE
  5
32E
330
1E
100
AcDbEntity
  8
OBJECT
100
AcDbLine
 10
38.78594045801375
 20
13.05417265727053
 30
0.0
 11
38.77510079071548
 21
12.92311122539151
 31
0.0
  0
LINE
  5
32F
330
1E
100
AcDbEntity
  8
OBJECT
100
AcDbLine
 10
38.69794045801374
 20
12.47667265727053
 30
0.0
 11
38.70575108819639
 21
12.58726408008383
 31
0.0
  0
LINE
  5
330
330
1E
100
AcDbEntity
  8
OBJECT
100
AcDbLine
 10
38.96194045801374
 20
12.47667265727053
 30
0.0
 11
38.96975108819638
 21
12.58726408008383
 31
0.0
  0
LINE
  5
331
330
1E
100
AcDbEntity
  8
OBJECT
100
AcDbLine
 10
38.87394045801376
 20
13.05417265727053
 30
0.0
 11
38.86310079071549
 21
12.92311122539151
 31
0.0
  0
LINE
  5
332
330
1E
100
AcDbEntity
  8
OBJECT
100
AcDbLine
 10
38.96194045801376
 20
13.05417265727053
 30
0.0
 11
38.95110079071549
 21
12.92311122539151
 31
0.0
  0
LINE
  5
333
330
1E
100
AcDbEntity
  8
OBJECT
100
AcDbLine
 10
38.87394045801375
 20
12.47667265727053
 30
0.0
 11
38.88175108819639
 21
12.58726408008383
 31
0.0
  0
LINE
  5
334
330
1E
100
AcDbEntity
  8
OBJECT
100
AcDbLine
 10
39.13794045801374
 20
12.47667265727053
 30
0.0
 11
39.14575108819638
 21
12.58726408008383
 31
0.0
  0
LINE
  5
335
330
1E
100
AcDbEntity
  8
OBJECT
100
AcDbLine
 10
39.04994045801376
 20
13.05417265727053
 30
0.0
 11
39.0391007907155
 21
12.92311122539151
 31
0.0
  0
LINE
  5
336
330
1E
100
AcDbEntity
  8
OBJECT
100
AcDbLine
 10
39.13794045801376
 20
13.05417265727053
 30
0.0
 11
39.12710079071549
 21
12.92311122539151
 31
0.0
  0
LINE
  5
337
330
1E
100
AcDbEntity
  8
OBJECT
100
AcDbLine
 10
39.04994045801375
 20
12.47667265727053
 30
0.0
 11
39.05775108819639
 21
12.58726408008383
 31
0.0
  0
LINE
  5
338
330
1E
100
AcDbEntity
  8
OBJECT
100
AcDbLine
 10
39.31394045801374
 20
12.47667265727053
 30
0.0
 11
39.32175108819638
 21
12.58726408008383
 31
0.0
  0
LINE
  5
339
330
1E
100
AcDbEntity
  8
OBJECT
100
AcDbLine
 10
39.22594045801375
 20
13.05417265727053
 30
0.0
 11
39.21510079071548
 21
12.92311122539151
 31
0.0
  0
LINE
  5
33A
330
1E
100
AcDbEntity
  8
OBJECT
100
AcDbLine
 10
39.31394045801374
 20
13.05417265727053
 30
0.0
 11
39.30310079071548
 21
12.92311122539151
 31
0.0
  0
LINE
  5
33B
330
1E
100
AcDbEntity
  8
OBJECT
100
AcDbLine
 10
39.22594045801375
 20
12.47667265727053
 30
0.0
 11
39.23375108819639
 21
12.58726408008383
 31
0.0
  0
LINE
  5
33C
330
1E
100
AcDbEntity
  8
OBJECT
100
AcDbLine
 10
39.48994045801375
 20
12.47667265727053
 30
0.0
 11
39.49775108819638
 21
12.58726408008383
 31
0.0
  0
LINE
  5
33D
330
1E
100
AcDbEntity
  8
OBJECT
100
AcDbLine
 10
39.40194045801375
 20
13.05417265727053
 30
0.0
 11
39.39110079071549
 21
12.92311122539151
 31
0.0
  0
LINE
  5
33E
330
1E
100
AcDbEntity
  8
OBJECT
100
AcDbLine
 10
39.48994045801375
 20
13.05417265727053
 30
0.0
 11
39.47910079071548
 21
12.92311122539151
 31
0.0
  0
LINE
  5
33F
330
1E
100
AcDbEntity
  8
OBJECT
100
AcDbLine
 10
39.40194045801375
 20
12.47667265727053
 30
0.0
 11
39.40975108819639
 21
12.58726408008383
 31
0.0
  0
LINE
  5
340
330
1E
100
AcDbEntity
  8
OBJECT
100
AcDbLine
 10
39.66594045801375
 20
12.47667265727053
 30
0.0
 11
39.67375108819639
 21
12.58726408008383
 31
0.0
  0
LINE
  5
341
330
1E
100
AcDbEntity
  8
OBJECT
100
AcDbLine
 10
39.57794045801375
 20
13.05417265727053
 30
0.0
 11
39.56710079071549
 21
12.92311122539151
 31
0.0
  0
LINE
  5
342
330
1E
100
AcDbEntity
  8
OBJECT
100
AcDbLine
 10
39.66594045801375
 20
13.05417265727053
 30
0.0
 11
39.65510079071549
 21
12.92311122539151
 31
0.0
  0
LINE
  5
343
330
1E
100
AcDbEntity
  8
OBJECT
100
AcDbLine
 10
39.57794045801375
 20
12.47667265727053
 30
0.0
 11
39.58575108819639
 21
12.58726408008383
 31
0.0
  0
LINE
  5
344
330
1E
100
AcDbEntity
  8
OBJECT
100
AcDbLine
 10
39.84194045801373
 20
12.47667265727053
 30
0.0
 11
39.84975108819638
 21
12.58726408008383
 31
0.0
  0
LINE
  5
345
330
1E
100
AcDbEntity
  8
OBJECT
100
AcDbLine
 10
39.75394045801376
 20
13.05417265727053
 30
0.0
 11
39.74310079071549
 21
12.92311122539151
 31
0.0
  0
LINE
  5
346
330
1E
100
AcDbEntity
  8
OBJECT
100
AcDbLine
 10
39.84194045801375
 20
13.05417265727053
 30
0.0
 11
39.83110079071549
 21
12.92311122539151
 31
0.0
  0
LINE
  5
347
330
1E
100
AcDbEntity
  8
OBJECT
100
AcDbLine
 10
39.75394045801374
 20
12.47667265727053
 30
0.0
 11
39.76175108819639
 21
12.58726408008383
 31
0.0
  0
LINE
  5
348
330
1E
100
AcDbEntity
  8
OBJECT
100
AcDbLine
 10
40.01794045801374
 20
12.47667265727053
 30
0.0
 11
40.02575108819637
 21
12.58726408008383
 31
0.0
  0
LINE
  5
349
330
1E
100
AcDbEntity
  8
OBJECT
100
AcDbLine
 10
39.92994045801376
 20
13.05417265727053
 30
0.0
 11
39.9191007907155
 21
12.92311122539151
 31
0.0
  0
LINE
  5
34A
330
1E
100
AcDbEntity
  8
OBJECT
100
AcDbLine
 10
40.01794045801375
 20
13.05417265727053
 30
0.0
 11
40.00710079071549
 21
12.92311122539151
 31
0.0
  0
LINE
  5
34B
330
1E
100
AcDbEntity
  8
OBJECT
100
AcDbLine
 10
39.92994045801374
 20
12.47667265727053
 30
0.0
 11
39.93775108819638
 21
12.58726408008383
 31
0.0
  0
LINE
  5
34C
330
1E
100
AcDbEntity
  8
OBJECT
100
AcDbLine
 10
40.19394045801374
 20
12.47667265727053
 30
0.0
 11
40.20175108819638
 21
12.58726408008383
 31
0.0
  0
LINE
  5
34D
330
1E
100
AcDbEntity
  8
OBJECT
100
AcDbLine
 10
40.10594045801376
 20
13.05417265727053
 30
0.0
 11
40.09510079071548
 21
12.92311122539151
 31
0.0
  0
LINE
  5
34E
330
1E
100
AcDbEntity
  8
OBJECT
100
AcDbLine
 10
40.19394045801376
 20
13.05417265727053
 30
0.0
 11
40.18310079071548
 21
12.92311122539151
 31
0.0
  0
LINE
  5
34F
330
1E
100
AcDbEntity
  8
OBJECT
100
AcDbLine
 10
40.10594045801375
 20
12.47667265727053
 30
0.0
 11
40.11375108819638
 21
12.58726408008383
 31
0.0
  0
LINE
  5
350
330
1E
100
AcDbEntity
  8
OBJECT
100
AcDbLine
 10
40.36994045801374
 20
12.47667265727053
 30
0.0
 11
40.37775108819638
 21
12.58726408008383
 31
0.0
  0
LINE
  5
351
330
1E
100
AcDbEntity
  8
OBJECT
100
AcDbLine
 10
40.28194045801376
 20
13.05417265727053
 30
0.0
 11
40.27110079071549
 21
12.92311122539151
 31
0.0
  0
LINE
  5
352
330
1E
100
AcDbEntity
  8
OBJECT
100
AcDbLine
 10
40.36994045801375
 20
13.05417265727053
 30
0.0
 11
40.35910079071548
 21
12.92311122539151
 31
0.0
  0
LINE
  5
353
330
1E
100
AcDbEntity
  8
OBJECT
100
AcDbLine
 10
40.28194045801375
 20
12.47667265727053
 30
0.0
 11
40.28975108819639
 21
12.58726408008383
 31
0.0
  0
LINE
  5
354
330
1E
100
AcDbEntity
  8
OBJECT
100
AcDbLine
 10
40.54594045801374
 20
12.47667265727053
 30
0.0
 11
40.55375108819638
 21
12.58726408008383
 31
0.0
  0
LINE
  5
355
330
1E
100
AcDbEntity
  8
OBJECT
100
AcDbLine
 10
40.45794045801375
 20
13.05417265727053
 30
0.0
 11
40.44710079071548
 21
12.92311122539151
 31
0.0
  0
LINE
  5
356
330
1E
100
AcDbEntity
  8
OBJECT
100
AcDbLine
 10
40.54594045801374
 20
13.05417265727053
 30
0.0
 11
40.53510079071548
 21
12.92311122539151
 31
0.0
  0
LINE
  5
357
330
1E
100
AcDbEntity
  8
OBJECT
100
AcDbLine
 10
40.45794045801375
 20
12.47667265727053
 30
0.0
 11
40.46575108819639
 21
12.58726408008383
 31
0.0
  0
LINE
  5
358
330
1E
100
AcDbEntity
  8
OBJECT
100
AcDbLine
 10
40.72194045801374
 20
12.47667265727053
 30
0.0
 11
40.72975108819639
 21
12.58726408008383
 31
0.0
  0
LINE
  5
359
330
1E
100
AcDbEntity
  8
OBJECT
100
AcDbLine
 10
40.63394045801375
 20
13.05417265727053
 30
0.0
 11
40.62310079071549
 21
12.92311122539151
 31
0.0
  0
LINE
  5
35A
330
1E
100
AcDbEntity
  8
OBJECT
100
AcDbLine
 10
40.72194045801374
 20
13.05417265727053
 30
0.0
 11
40.71110079071548
 21
12.92311122539151
 31
0.0
  0
LINE
  5
35B
330
1E
100
AcDbEntity
  8
OBJECT
100
AcDbLine
 10
40.63394045801375
 20
12.47667265727053
 30
0.0
 11
40.64175108819639
 21
12.58726408008383
 31
0.0
  0
LINE
  5
35C
330
1E
100
AcDbEntity
  8
OBJECT
100
AcDbLine
 10
40.89794045801375
 20
12.47667265727053
 30
0.0
 11
40.90575108819638
 21
12.58726408008383
 31
0.0
  0
LINE
  5
35D
330
1E
100
AcDbEntity
  8
OBJECT
100
AcDbLine
 10
40.80994045801375
 20
13.05417265727053
 30
0.0
 11
40.79910079071549
 21
12.92311122539151
 31
0.0
  0
LINE
  5
35E
330
1E
100
AcDbEntity
  8
OBJECT
100
AcDbLine
 10
40.89794045801375
 20
13.05417265727053
 30
0.0
 11
40.88710079071549
 21
12.92311122539151
 31
0.0
  0
LINE
  5
35F
330
1E
100
AcDbEntity
  8
OBJECT
100
AcDbLine
 10
40.80994045801375
 20
12.47667265727053
 30
0.0
 11
40.81775108819639
 21
12.58726408008383
 31
0.0
  0
LINE
  5
360
330
1E
100
AcDbEntity
  8
OBJECT
100
AcDbLine
 10
40.98594045801376
 20
13.05417265727053
 30
0.0
 11
40.97510079071549
 21
12.92311122539151
 31
0.0
  0
LINE
  5
361
330
1E
100
AcDbEntity
  8
OBJECT
100
AcDbLine
 10
41.04078012531203
 20
12.65323408914956
 30
0.0
 11
41.02994045801375
 21
12.52217265727053
 31
0.0
  0
LINE
  5
362
330
1E
100
AcDbEntity
  8
OBJECT
100
AcDbLine
 10
40.98594045801376
 20
12.47667265727053
 30
0.0
 11
40.99375108819639
 21
12.58726408008383
 31
0.0
  0
LWPOLYLINE
  5
363
330
1E
100
AcDbEntity
  8
OBJECT
100
AcDbPolyline
 90
      168
 70
     0
 43
0.0
 10
37.42194045801376
 20
13.09967265727054
 10
37.46594045801376
 20
13.05417265727053
 10
37.50994045801375
 20
13.09967265727054
 10
37.55394045801375
 20
13.05417265727053
 10
37.59794045801375
 20
13.09967265727054
 10
37.64194045801374
 20
13.05417265727053
 10
37.68594045801374
 20
13.09967265727054
 10
37.72994045801374
 20
13.05417265727053
 10
37.77394045801374
 20
13.09967265727054
 10
37.81794045801375
 20
13.05417265727053
 10
37.86194045801375
 20
13.09967265727054
 10
37.90594045801374
 20
13.05417265727053
 10
37.94994045801374
 20
13.09967265727054
 10
37.99394045801374
 20
13.05417265727053
 10
38.03794045801373
 20
13.09967265727054
 10
38.08194045801373
 20
13.05417265727053
 10
38.12594045801373
 20
13.09967265727054
 10
38.16994045801374
 20
13.05417265727053
 10
38.21394045801373
 20
13.09967265727054
 10
38.25794045801373
 20
13.05417265727053
 10
38.30194045801373
 20
13.09967265727054
 10
38.34594045801374
 20
13.05417265727053
 10
38.38994045801374
 20
13.09967265727054
 10
38.43394045801373
 20
13.05417265727053
 10
38.47794045801373
 20
13.09967265727054
 10
38.52194045801374
 20
13.05417265727053
 10
38.56594045801374
 20
13.09967265727054
 10
38.60994045801374
 20
13.05417265727053
 10
38.65394045801373
 20
13.09967265727054
 10
38.69794045801374
 20
13.05417265727053
 10
38.74194045801374
 20
13.09967265727054
 10
38.78594045801374
 20
13.05417265727053
 10
38.82994045801373
 20
13.09967265727054
 10
38.87394045801375
 20
13.05417265727053
 10
38.91794045801374
 20
13.09967265727054
 10
38.96194045801374
 20
13.05417265727053
 10
39.00594045801374
 20
13.09967265727054
 10
39.04994045801375
 20
13.05417265727053
 10
39.09394045801374
 20
13.09967265727054
 10
39.13794045801374
 20
13.05417265727053
 10
39.18194045801374
 20
13.09967265727054
 10
39.22594045801375
 20
13.05417265727053
 10
39.26994045801375
 20
13.09967265727054
 10
39.31394045801374
 20
13.05417265727053
 10
39.35794045801374
 20
13.09967265727054
 10
39.40194045801374
 20
13.05417265727053
 10
39.44594045801373
 20
13.09967265727054
 10
39.48994045801373
 20
13.05417265727053
 10
39.53394045801373
 20
13.09967265727054
 10
39.57794045801374
 20
13.05417265727053
 10
39.62194045801373
 20
13.09967265727054
 10
39.66594045801373
 20
13.05417265727053
 10
39.70994045801373
 20
13.09967265727054
 10
39.75394045801374
 20
13.05417265727053
 10
39.79794045801374
 20
13.09967265727054
 10
39.84194045801373
 20
13.05417265727053
 10
39.88594045801373
 20
13.09967265727054
 10
39.92994045801374
 20
13.05417265727053
 10
39.97394045801374
 20
13.09967265727054
 10
40.01794045801374
 20
13.05417265727053
 10
40.06194045801374
 20
13.09967265727054
 10
40.10594045801375
 20
13.05417265727053
 10
40.14994045801374
 20
13.09967265727054
 10
40.19394045801374
 20
13.05417265727053
 10
40.23794045801373
 20
13.09967265727054
 10
40.28194045801375
 20
13.05417265727053
 10
40.32594045801374
 20
13.09967265727054
 10
40.36994045801374
 20
13.05417265727053
 10
40.41394045801374
 20
13.09967265727054
 10
40.45794045801375
 20
13.05417265727053
 10
40.50194045801375
 20
13.09967265727054
 10
40.54594045801374
 20
13.05417265727053
 10
40.58994045801374
 20
13.09967265727054
 10
40.63394045801373
 20
13.05417265727053
 10
40.67794045801373
 20
13.09967265727054
 10
40.72194045801373
 20
13.05417265727053
 10
40.76594045801373
 20
13.09967265727054
 10
40.80994045801374
 20
13.05417265727053
 10
40.85394045801374
 20
13.09967265727054
 10
40.89794045801373
 20
13.05417265727053
 10
40.94194045801373
 20
13.09967265727054
 10
40.98594045801374
 20
13.05417265727053
 10
41.02994045801374
 20
13.09967265727054
 10
41.06094045801374
 20
13.06761583908871
 10
41.06094045801374
 20
12.4901158390887
 10
41.02994045801374
 20
12.52217265727053
 10
40.98594045801374
 20
12.47667265727053
 10
40.94194045801373
 20
12.52217265727053
 10
40.89794045801373
 20
12.47667265727053
 10
40.85394045801374
 20
12.52217265727053
 10
40.80994045801374
 20
12.47667265727053
 10
40.76594045801373
 20
12.52217265727053
 10
40.72194045801373
 20
12.47667265727053
 10
40.67794045801373
 20
12.52217265727053
 10
40.63394045801373
 20
12.47667265727053
 10
40.58994045801372
 20
12.52217265727053
 10
40.54594045801373
 20
12.47667265727053
 10
40.50194045801373
 20
12.52217265727053
 10
40.45794045801374
 20
12.47667265727053
 10
40.41394045801372
 20
12.52217265727053
 10
40.36994045801373
 20
12.47667265727053
 10
40.32594045801373
 20
12.52217265727053
 10
40.28194045801373
 20
12.47667265727053
 10
40.23794045801373
 20
12.52217265727053
 10
40.19394045801372
 20
12.47667265727053
 10
40.14994045801373
 20
12.52217265727053
 10
40.10594045801373
 20
12.47667265727053
 10
40.06194045801372
 20
12.52217265727053
 10
40.01794045801372
 20
12.47667265727053
 10
39.97394045801373
 20
12.52217265727053
 10
39.92994045801373
 20
12.47667265727053
 10
39.88594045801373
 20
12.52217265727053
 10
39.84194045801373
 20
12.47667265727053
 10
39.79794045801374
 20
12.52217265727053
 10
39.75394045801374
 20
12.47667265727053
 10
39.70994045801373
 20
12.52217265727053
 10
39.66594045801373
 20
12.47667265727053
 10
39.62194045801373
 20
12.52217265727053
 10
39.57794045801374
 20
12.47667265727053
 10
39.53394045801373
 20
12.52217265727053
 10
39.48994045801373
 20
12.47667265727053
 10
39.44594045801373
 20
12.52217265727053
 10
39.40194045801374
 20
12.47667265727053
 10
39.35794045801372
 20
12.52217265727053
 10
39.31394045801373
 20
12.47667265727053
 10
39.26994045801373
 20
12.52217265727053
 10
39.22594045801373
 20
12.47667265727053
 10
39.18194045801373
 20
12.52217265727053
 10
39.13794045801373
 20
12.47667265727053
 10
39.09394045801373
 20
12.52217265727053
 10
39.04994045801373
 20
12.47667265727053
 10
39.00594045801372
 20
12.52217265727053
 10
38.96194045801372
 20
12.47667265727053
 10
38.91794045801373
 20
12.52217265727053
 10
38.87394045801373
 20
12.47667265727053
 10
38.82994045801372
 20
12.52217265727053
 10
38.78594045801373
 20
12.47667265727053
 10
38.74194045801372
 20
12.52217265727053
 10
38.69794045801373
 20
12.47667265727053
 10
38.65394045801373
 20
12.52217265727053
 10
38.60994045801374
 20
12.47667265727053
 10
38.56594045801374
 20
12.52217265727053
 10
38.52194045801374
 20
12.47667265727053
 10
38.47794045801373
 20
12.52217265727053
 10
38.43394045801373
 20
12.47667265727053
 10
38.38994045801374
 20
12.52217265727053
 10
38.34594045801374
 20
12.47667265727053
 10
38.30194045801373
 20
12.52217265727053
 10
38.25794045801373
 20
12.47667265727053
 10
38.21394045801373
 20
12.52217265727053
 10
38.16994045801374
 20
12.47667265727053
 10
38.12594045801373
 20
12.52217265727053
 10
38.08194045801373
 20
12.47667265727053
 10
38.03794045801373
 20
12.52217265727053
 10
37.99394045801374
 20
12.47667265727053
 10
37.94994045801372
 20
12.52217265727053
 10
37.90594045801373
 20
12.47667265727053
 10
37.86194045801373
 20
12.52217265727053
 10
37.81794045801373
 20
12.47667265727053
 10
37.77394045801372
 20
12.52217265727053
 10
37.72994045801373
 20
12.47667265727053
 10
37.68594045801373
 20
12.52217265727053
 10
37.64194045801373
 20
12.47667265727053
 10
37.59794045801374
 20
12.52217265727053
 10
37.55394045801374
 20
12.47667265727053
 10
37.50994045801374
 20
12.52217265727053
 10
37.46594045801375
 20
12.47667265727053
 10
37.42194045801375
 20
12.52217265727053
  0
LINE
  5
40D
330
1E
100
AcDbEntity
  8
OBJECT
100
AcDbLine
 10
37.42194045801375
 20
23.31967265727053
 30
0.0
 11
41.27194045801376
 21
23.21017265727054
 31
0.0
  0
LINE
  5
40E
330
1E
100
AcDbEntity
  8
OBJECT
100
AcDbLine
 10
41.35194045801376
 20
23.11517265727054
 30
0.0
 11
41.35194045801376
 21
22.52970088224252
 31
0.0
  0
LINE
  5
40F
330
1E
100
AcDbEntity
  8
OBJECT
100
AcDbLine
 10
37.50294045801364
 20
22.33630396173664
 30
0.0
 11
37.63394045801364
 21
22.33894224426826
 31
0.0
  0
LINE
  5
410
330
1E
100
AcDbEntity
  8
OBJECT
100
AcDbLine
 10
37.71494045801375
 20
22.34057354873437
 30
0.0
 11
41.27194045801376
 21
22.41220996831415
 31
0.0
  0
LINE
  5
411
330
1E
100
AcDbEntity
  8
OBJECT
100
AcDbLine
 10
41.27194045801375
 20
13.11765413875201
 30
0.0
 11
41.35194045801376
 21
13.07617265727054
 31
0.0
  0
LINE
  5
412
330
1E
100
AcDbEntity
  8
OBJECT
100
AcDbLine
 10
41.27194045801376
 20
12.47217265727054
 30
0.0
 11
41.35194045801374
 21
12.50017265727052
 31
0.0
  0
LINE
  5
413
330
1E
100
AcDbEntity
  8
OBJECT
100
AcDbLine
 10
41.00957595801374
 20
13.28873688878183
 30
0.0
 11
41.00957595801376
 21
13.45120088224255
 31
0.0
  0
LINE
  5
414
330
1E
100
AcDbEntity
  8
OBJECT
100
AcDbLine
 10
41.35194045801374
 20
13.47920088224253
 30
0.0
 11
41.35194045801374
 21
13.87314443229855
 31
0.0
  0
LINE
  5
415
330
1E
100
AcDbEntity
  8
OBJECT
100
AcDbLine
 10
41.00957595801374
 20
14.15965634930698
 30
0.0
 11
41.00957595801376
 21
13.90114443229852
 31
0.0
  0
LINE
  5
416
330
1E
100
AcDbEntity
  8
OBJECT
100
AcDbLine
 10
41.16157595801374
 20
14.15965634930698
 30
0.0
 11
41.16157595801376
 21
13.90114443229854
 31
0.0
  0
LINE
  5
417
330
1E
100
AcDbEntity
  8
OBJECT
100
AcDbLine
 10
41.26057595801376
 20
13.75867265727053
 30
0.0
 11
40.77557595801376
 21
13.75867265727053
 31
0.0
  0
LINE
  5
418
330
1E
100
AcDbEntity
  8
HIDDEN
100
AcDbLine
 10
41.26057595801376
 20
13.77117265727054
 30
0.0
 11
40.77557595801376
 21
13.77117265727054
 31
0.0
  0
LINE
  5
419
330
1E
100
AcDbEntity
  8
OBJECT
100
AcDbLine
 10
41.26057595801376
 20
13.59367265727053
 30
0.0
 11
40.77557595801378
 21
13.59367265727053
 31
0.0
  0
LINE
  5
41A
330
1E
100
AcDbEntity
  8
HIDDEN
100
AcDbLine
 10
41.26057595801376
 20
13.58117265727053
 30
0.0
 11
40.77557595801378
 21
13.58117265727053
 31
0.0
  0
LINE
  5
41B
330
1E
100
AcDbEntity
  8
OBJECT
100
AcDbLine
 10
40.77557595801376
 20
13.90114443229854
 30
0.0
 11
40.77557595801378
 21
13.45120088224255
 31
0.0
  0
LINE
  5
41C
330
1E
100
AcDbEntity
  8
OBJECT
100
AcDbLine
 10
41.26057595801376
 20
13.75867265727053
 30
0.0
 11
41.26057595801376
 21
13.59367265727053
 31
0.0
  0
LINE
  5
41D
330
1E
100
AcDbEntity
  8
OBJECT
100
AcDbLine
 10
40.87557595801373
 20
14.55368896523408
 30
0.0
 11
40.87557595801374
 21
14.15965634930698
 31
0.0
  0
LINE
  5
41E
330
1E
100
AcDbEntity
  8
OBJECT
100
AcDbLine
 10
41.16157595801374
 20
14.15965634930698
 30
0.0
 11
40.87557595801374
 21
14.15965634930698
 31
0.0
  0
LINE
  5
41F
330
1E
100
AcDbEntity
  8
OBJECT
100
AcDbLine
 10
41.00957595801374
 20
14.55368896523408
 30
0.0
 11
40.87557595801373
 21
14.55368896523408
 31
0.0
  0
LINE
  5
420
330
1E
100
AcDbEntity
  8
OBJECT
100
AcDbLine
 10
41.00957595801374
 20
14.55368896523408
 30
0.0
 11
41.00957595801374
 21
15.14565634930698
 31
0.0
  0
LINE
  5
421
330
1E
100
AcDbEntity
  8
OBJECT
100
AcDbLine
 10
41.22557595801374
 20
14.27367265727041
 30
0.0
 11
40.87557595801373
 21
14.27367265727039
 31
0.0
  0
LINE
  5
422
330
1E
100
AcDbEntity
  8
OBJECT
100
AcDbLine
 10
41.22557595801374
 20
14.4396726572704
 30
0.0
 11
40.87557595801373
 21
14.4396726572704
 31
0.0
  0
LINE
  5
423
330
1E
100
AcDbEntity
  8
OBJECT
100
AcDbLine
 10
41.22557595801374
 20
14.4396726572704
 30
0.0
 11
41.22557595801374
 21
14.27367265727041
 31
0.0
  0
LINE
  5
424
330
1E
100
AcDbEntity
  8
OBJECT
100
AcDbLine
 10
41.27194045801376
 20
14.53065413875201
 30
0.0
 11
41.35194045801374
 21
14.48917265727053
 31
0.0
  0
LINE
  5
425
330
1E
100
AcDbEntity
  8
OBJECT
100
AcDbLine
 10
41.27194045801376
 20
14.18269117578905
 30
0.0
 11
41.35194045801374
 21
14.22417265727051
 31
0.0
  0
LINE
  5
426
330
1E
100
AcDbEntity
  8
OBJECT
100
AcDbLine
 10
41.35194045801374
 20
14.22417265727051
 30
0.0
 11
41.35194045801374
 21
14.48917265727053
 31
0.0
  0
LINE
  5
427
330
1E
100
AcDbEntity
  8
OBJECT
100
AcDbLine
 10
41.27194045801376
 20
14.53065413875201
 30
0.0
 11
41.27194045801375
 21
15.16869117578904
 31
0.0
  0
LINE
  5
428
330
1E
100
AcDbEntity
  8
OBJECT
100
AcDbLine
 10
41.22557595801374
 20
15.2596726572704
 30
0.0
 11
40.87557595801373
 21
15.2596726572704
 31
0.0
  0
LINE
  5
429
330
1E
100
AcDbEntity
  8
OBJECT
100
AcDbLine
 10
41.22557595801374
 20
15.42567265727041
 30
0.0
 11
40.87557595801373
 21
15.42567265727039
 31
0.0
  0
LINE
  5
42A
330
1E
100
AcDbEntity
  8
OBJECT
100
AcDbLine
 10
41.00957595801374
 20
15.53968896523409
 30
0.0
 11
40.87557595801373
 21
15.53968896523409
 31
0.0
  0
LINE
  5
42B
330
1E
100
AcDbEntity
  8
OBJECT
100
AcDbLine
 10
41.00957595801374
 20
15.14565634930698
 30
0.0
 11
40.87557595801374
 21
15.14565634930698
 31
0.0
  0
LINE
  5
42C
330
1E
100
AcDbEntity
  8
OBJECT
100
AcDbLine
 10
40.87557595801373
 20
15.53968896523409
 30
0.0
 11
40.87557595801374
 21
15.14565634930698
 31
0.0
  0
LINE
  5
42D
330
1E
100
AcDbEntity
  8
OBJECT
100
AcDbLine
 10
41.27194045801375
 20
15.16869117578904
 30
0.0
 11
41.35194045801374
 21
15.21017265727051
 31
0.0
  0
LINE
  5
42E
330
1E
100
AcDbEntity
  8
OBJECT
100
AcDbLine
 10
41.35194045801374
 20
15.21017265727051
 30
0.0
 11
41.35194045801374
 21
15.47517265727054
 31
0.0
  0
LINE
  5
42F
330
1E
100
AcDbEntity
  8
OBJECT
100
AcDbLine
 10
41.27194045801376
 20
15.516654138752
 30
0.0
 11
41.35194045801374
 21
15.47517265727054
 31
0.0
  0
LINE
  5
430
330
1E
100
AcDbEntity
  8
OBJECT
100
AcDbLine
 10
41.22557595801374
 20
15.42567265727041
 30
0.0
 11
41.22557595801374
 21
15.2596726572704
 31
0.0
  0
LINE
  5
431
330
1E
100
AcDbEntity
  8
OBJECT
100
AcDbLine
 10
41.22557595801374
 20
16.24567265727041
 30
0.0
 11
40.87557595801373
 21
16.24567265727039
 31
0.0
  0
LINE
  5
432
330
1E
100
AcDbEntity
  8
OBJECT
100
AcDbLine
 10
41.22557595801374
 20
16.4116726572704
 30
0.0
 11
40.87557595801373
 21
16.41167265727039
 31
0.0
  0
LINE
  5
433
330
1E
100
AcDbEntity
  8
OBJECT
100
AcDbLine
 10
41.00957595801374
 20
16.52568896523408
 30
0.0
 11
40.87557595801373
 21
16.52568896523408
 31
0.0
  0
LINE
  5
434
330
1E
100
AcDbEntity
  8
OBJECT
100
AcDbLine
 10
41.00957595801374
 20
16.13165634930698
 30
0.0
 11
40.87557595801374
 21
16.13165634930698
 31
0.0
  0
LINE
  5
435
330
1E
100
AcDbEntity
  8
OBJECT
100
AcDbLine
 10
40.87557595801373
 20
16.52568896523408
 30
0.0
 11
40.87557595801374
 21
16.13165634930698
 31
0.0
  0
LINE
  5
436
330
1E
100
AcDbEntity
  8
OBJECT
100
AcDbLine
 10
41.27194045801376
 20
16.15469117578903
 30
0.0
 11
41.35194045801374
 21
16.19617265727051
 31
0.0
  0
LINE
  5
437
330
1E
100
AcDbEntity
  8
OBJECT
100
AcDbLine
 10
41.35194045801374
 20
16.19617265727051
 30
0.0
 11
41.35194045801374
 21
16.46117265727053
 31
0.0
  0
LINE
  5
438
330
1E
100
AcDbEntity
  8
OBJECT
100
AcDbLine
 10
41.27194045801376
 20
16.50265413875201
 30
0.0
 11
41.35194045801374
 21
16.46117265727053
 31
0.0
  0
LINE
  5
439
330
1E
100
AcDbEntity
  8
OBJECT
100
AcDbLine
 10
41.22557595801374
 20
16.4116726572704
 30
0.0
 11
41.22557595801374
 21
16.24567265727041
 31
0.0
  0
LINE
  5
43A
330
1E
100
AcDbEntity
  8
OBJECT
100
AcDbLine
 10
41.22557595801374
 20
17.2316726572704
 30
0.0
 11
40.87557595801373
 21
17.23167265727039
 31
0.0
  0
LINE
  5
43B
330
1E
100
AcDbEntity
  8
OBJECT
100
AcDbLine
 10
41.22557595801374
 20
17.39767265727041
 30
0.0
 11
40.87557595801373
 21
17.39767265727039
 31
0.0
  0
LINE
  5
43C
330
1E
100
AcDbEntity
  8
OBJECT
100
AcDbLine
 10
41.00957595801374
 20
17.51168896523408
 30
0.0
 11
40.87557595801373
 21
17.51168896523408
 31
0.0
  0
LINE
  5
43D
330
1E
100
AcDbEntity
  8
OBJECT
100
AcDbLine
 10
41.00957595801374
 20
17.11765634930698
 30
0.0
 11
40.87557595801374
 21
17.11765634930698
 31
0.0
  0
LINE
  5
43E
330
1E
100
AcDbEntity
  8
OBJECT
100
AcDbLine
 10
40.87557595801373
 20
17.51168896523408
 30
0.0
 11
40.87557595801374
 21
17.11765634930698
 31
0.0
  0
LINE
  5
43F
330
1E
100
AcDbEntity
  8
OBJECT
100
AcDbLine
 10
41.22557595801374
 20
17.39767265727041
 30
0.0
 11
41.22557595801374
 21
17.2316726572704
 31
0.0
  0
LINE
  5
440
330
1E
100
AcDbEntity
  8
OBJECT
100
AcDbLine
 10
41.00957595801374
 20
15.53968896523409
 30
0.0
 11
41.00957595801374
 21
16.13165634930698
 31
0.0
  0
LINE
  5
441
330
1E
100
AcDbEntity
  8
OBJECT
100
AcDbLine
 10
41.00957595801374
 20
16.52568896523408
 30
0.0
 11
41.00957595801374
 21
17.11765634930698
 31
0.0
  0
LINE
  5
442
330
1E
100
AcDbEntity
  8
OBJECT
100
AcDbLine
 10
40.86694045801375
 20
17.72517265727053
 30
0.0
 11
40.86694045801374
 21
17.80767265727053
 31
0.0
  0
LINE
  5
443
330
1E
100
AcDbEntity
  8
OBJECT
100
AcDbLine
 10
40.77557595801376
 20
17.58270088224252
 30
0.0
 11
40.77557595801376
 21
17.80767265727053
 31
0.0
  0
LINE
  5
444
330
1E
100
AcDbEntity
  8
OBJECT
100
AcDbLine
 10
41.35194045801374
 20
18.00464443229853
 30
0.0
 11
41.35194045801374
 21
17.61070088224252
 31
0.0
  0
LINE
  5
445
330
1E
100
AcDbEntity
  8
OBJECT
100
AcDbLine
 10
41.27194045801376
 20
18.03264443229851
 30
0.0
 11
41.35194045801374
 21
18.00464443229853
 31
0.0
  0
LINE
  5
446
330
1E
100
AcDbEntity
  8
HIDDEN
100
AcDbLine
 10
40.86694045801375
 20
17.71267265727053
 30
0.0
 11
41.35194045801374
 21
17.71267265727053
 31
0.0
  0
LINE
  5
447
330
1E
100
AcDbEntity
  8
OBJECT
100
AcDbLine
 10
40.86694045801375
 20
17.72517265727053
 30
0.0
 11
41.35194045801374
 21
17.72517265727053
 31
0.0
  0
LINE
  5
448
330
1E
100
AcDbEntity
  8
OBJECT
100
AcDbLine
 10
40.77557595801376
 20
17.58270088224252
 30
0.0
 11
41.00957595801374
 21
17.58270088224252
 31
0.0
  0
LINE
  5
449
330
1E
100
AcDbEntity
  8
OBJECT
100
AcDbLine
 10
41.27194045801376
 20
17.56921940076104
 30
0.0
 11
41.35194045801374
 21
17.61070088224252
 31
0.0
  0
LINE
  5
44A
330
1E
100
AcDbEntity
  8
OBJECT
100
AcDbLine
 10
41.27194045801376
 20
15.516654138752
 30
0.0
 11
41.27194045801376
 21
16.15469117578903
 31
0.0
  0
LINE
  5
44B
330
1E
100
AcDbEntity
  8
OBJECT
100
AcDbLine
 10
41.27194045801376
 20
17.56921940076104
 30
0.0
 11
41.27194045801376
 21
16.50265413875201
 31
0.0
  0
LINE
  5
44C
330
1E
100
AcDbEntity
  8
OBJECT
100
AcDbLine
 10
41.00957595801374
 20
17.51168896523408
 30
0.0
 11
41.00957595801374
 21
17.58270088224252
 31
0.0
  0
LINE
  5
44D
330
1E
100
AcDbEntity
  8
OBJECT
100
AcDbLine
 10
41.35194045801374
 20
22.13614443229853
 30
0.0
 11
41.35194045801374
 21
21.74220088224252
 31
0.0
  0
LINE
  5
44E
330
1E
100
AcDbEntity
  8
OBJECT
100
AcDbLine
 10
41.27194045801376
 20
22.16414443229852
 30
0.0
 11
41.35194045801374
 21
22.13614443229853
 31
0.0
  0
LINE
  5
44F
330
1E
100
AcDbEntity
  8
OBJECT
100
AcDbLine
 10
41.27194045801376
 20
21.41917265727054
 30
0.0
 11
41.35194045801374
 21
21.39117265727056
 31
0.0
  0
LINE
  5
450
330
1E
100
AcDbEntity
  8
OBJECT
100
AcDbLine
 10
41.35194045801374
 20
21.39117265727056
 30
0.0
 11
41.35194045801374
 21
21.12617265727053
 31
0.0
  0
LINE
  5
451
330
1E
100
AcDbEntity
  8
OBJECT
100
AcDbLine
 10
41.27194045801376
 20
21.09817265727054
 30
0.0
 11
41.35194045801374
 21
21.12617265727053
 31
0.0
  0
LINE
  5
452
330
1E
100
AcDbEntity
  8
OBJECT
100
AcDbLine
 10
41.27194045801376
 20
21.71420088224253
 30
0.0
 11
41.35194045801374
 21
21.74220088224252
 31
0.0
  0
LINE
  5
453
330
1E
100
AcDbEntity
  8
OBJECT
100
AcDbLine
 10
41.35194045801374
 20
19.41917265727055
 30
0.0
 11
41.35194045801374
 21
19.15417265727053
 31
0.0
  0
LINE
  5
454
330
1E
100
AcDbEntity
  8
OBJECT
100
AcDbLine
 10
41.27194045801376
 20
19.44717265727055
 30
0.0
 11
41.35194045801374
 21
19.41917265727055
 31
0.0
  0
LINE
  5
455
330
1E
100
AcDbEntity
  8
OBJECT
100
AcDbLine
 10
41.27194045801376
 20
20.11217265727054
 30
0.0
 11
41.35194045801374
 21
20.14017265727053
 31
0.0
  0
LINE
  5
456
330
1E
100
AcDbEntity
  8
OBJECT
100
AcDbLine
 10
41.35194045801374
 20
20.40517265727056
 30
0.0
 11
41.35194045801374
 21
20.14017265727053
 31
0.0
  0
LINE
  5
457
330
1E
100
AcDbEntity
  8
OBJECT
100
AcDbLine
 10
41.27194045801376
 20
20.43317265727054
 30
0.0
 11
41.35194045801374
 21
20.40517265727056
 31
0.0
  0
LINE
  5
458
330
1E
100
AcDbEntity
  8
OBJECT
100
AcDbLine
 10
41.27194045801376
 20
19.12617265727054
 30
0.0
 11
41.35194045801374
 21
19.15417265727053
 31
0.0
  0
LINE
  5
459
330
1E
100
AcDbEntity
  8
OBJECT
100
AcDbLine
 10
37.42194045801375
 20
13.20999673178186
 30
0.0
 11
37.42194045801375
 21
12.29567265727053
 31
0.0
  0
LINE
  5
45A
330
1E
100
AcDbEntity
  8
OBJECT
100
AcDbLine
 10
41.27194045801376
 20
22.50170088224253
 30
0.0
 11
41.35194045801376
 21
22.52970088224252
 31
0.0
  0
DIMENSION
  5
45B
330
1E
100
AcDbEntity
  8
DIM
100
AcDbDimension
  2
*D10
 10
49.15598094917926
 20
12.40517265727053
 30
0.0
 11
49.15598094917926
 21
17.80767265727054
 31
0.0
 70
    32
  1
U
 71
     5
 42
10.805
  3
23NSTD
100
AcDbAlignedDimension
 13
41.27194045801376
 23
23.21017265727054
 33
0.0
 14
41.27194045801376
 24
12.40517265727053
 34
0.0
 50
90.0
100
AcDbRotatedDimension
  0
DIMENSION
  5
45C
330
1E
100
AcDbEntity
  8
DIM
100
AcDbDimension
  2
*D11
 10
34.39694045801374
 20
23.29967265727054
 30
0.0
 11
34.39694045801373
 21
17.80792265727054
 31
0.0
 70
    32
  1
T
 71
     5
 42
10.9835
  3
23NSTD
100
AcDbAlignedDimension
 13
36.47094045801376
 23
12.31617265727053
 33
0.0
 14
36.47094045801376
 24
23.29967265727054
 34
0.0
 50
90.0
100
AcDbRotatedDimension
  0
DIMENSION
  5
45D
330
1E
100
AcDbEntity
  8
DIM
100
AcDbDimension
  2
*D12
 10
36.24094045801374
 20
25.03967265727055
 30
0.0
 11
36.83144045801374
 21
25.03967265727055
 31
0.0
 70
    32
  1
R
 71
     5
 42
1.181000000000011
  3
23NSTD
100
AcDbAlignedDimension
 13
37.42194045801375
 23
23.31967265727052
 33
0.0
 14
36.24094045801374
 24
22.79117265727052
 34
0.0
100
AcDbRotatedDimension
  0
DIMENSION
  5
45E
330
1E
100
AcDbEntity
  8
DIM
100
AcDbDimension
  2
*D13
 10
41.27194045801376
 20
25.03967265727055
 30
0.0
 11
39.34694045801375
 21
25.03967265727055
 31
0.0
 70
    32
  1
S
 71
     5
 42
3.850000000000008
  3
23NSTD
100
AcDbAlignedDimension
 13
37.42194045801375
 23
23.31967265727052
 33
0.0
 14
41.27194045801376
 24
23.21017265727054
 34
0.0
100
AcDbRotatedDimension
  0
LINE
  5
45F
330
1E
100
AcDbEntity
  8
OBJECT
100
AcDbLine
 10
23.29437456210247
 20
25.66907534740102
 30
0.0
 11
29.69737456210244
 21
25.66907534740102
 31
0.0
  0
LINE
  5
460
330
1E
100
AcDbEntity
  8
OBJECT
100
AcDbLine
 10
30.23837456210245
 20
26.85007534740103
 30
0.0
 11
22.75337456210246
 21
26.85007534740103
 31
0.0
  0
LINE
  5
461
330
1E
100
AcDbEntity
  8
OBJECT
100
AcDbLine
 10
23.29268168961209
 20
27.14307534740102
 30
0.0
 11
29.69906743459281
 21
27.14307534740103
 31
0.0
  0
LINE
  5
462
330
1E
100
AcDbEntity
  8
OBJECT
100
AcDbLine
 10
23.29268168961209
 20
26.57407534740103
 30
0.0
 11
29.69906743459281
 21
26.57407534740103
 31
0.0
  0
LINE
  5
463
330
1E
100
AcDbEntity
  8
OBJECT
100
AcDbLine
 10
30.13587456210245
 20
30.70007534740103
 30
0.0
 11
22.85587456210245
 21
30.70007534740101
 31
0.0
  0
LINE
  5
464
330
1E
100
AcDbEntity
  8
OBJECT
100
AcDbLine
 10
26.29890278707446
 20
30.78007534740101
 30
0.0
 11
26.69284633713047
 21
30.78007534740101
 31
0.0
  0
LINE
  5
465
330
1E
100
AcDbEntity
  8
OBJECT
100
AcDbLine
 10
26.27090278707447
 20
30.70007534740101
 30
0.0
 11
26.29890278707446
 21
30.78007534740101
 31
0.0
  0
LINE
  5
466
330
1E
100
AcDbEntity
  8
OBJECT
100
AcDbLine
 10
22.77587456210245
 20
26.85007534740103
 30
0.0
 11
22.78587456210245
 21
25.89907534740102
 31
0.0
  0
LINE
  5
467
330
1E
100
AcDbEntity
  8
OBJECT
100
AcDbLine
 10
23.69186500914156
 20
25.89907534740102
 30
0.0
 11
23.69186500914156
 21
26.57407534740103
 31
0.0
  0
LINE
  5
468
330
1E
100
AcDbEntity
  8
OBJECT
100
AcDbLine
 10
22.78587456210245
 20
25.89907534740102
 30
0.0
 11
23.93438316110071
 21
25.89907534740102
 31
0.0
  0
ARC
  5
469
330
1E
100
AcDbEntity
  8
OBJECT
100
AcDbCircle
 10
23.29437456210247
 20
25.89907534740102
 30
0.0
 40
0.2300000000000111
100
AcDbArc
 50
180.0
 51
270.0
  0
ARC
  5
46A
330
1E
100
AcDbEntity
  8
OBJECT
100
AcDbCircle
 10
23.98846013672767
 20
25.89907534740102
 30
0.0
 40
0.2300000000000111
100
AcDbArc
 50
180.0
 51
270.0
  0
LINE
  5
46B
330
1E
100
AcDbEntity
  8
OBJECT
100
AcDbLine
 10
23.74497367063861
 20
27.14307534740102
 30
0.0
 11
23.67333725105883
 21
30.70007534740101
 31
0.0
  0
LINE
  5
46C
330
1E
100
AcDbEntity
  8
OBJECT
100
AcDbLine
 10
22.75337456210246
 20
26.85007534740103
 30
0.0
 11
22.85587456210245
 21
30.70007534740101
 31
0.0
  0
LWPOLYLINE
  5
46D
330
1E
100
AcDbEntity
  8
OBJECT
100
AcDbPolyline
 90
        4
 70
     1
 43
0.0
 10
24.20387456210245
 20
26.9310753474009
 10
24.55587456210245
 20
26.93107534740092
 10
24.55587456210245
 20
27.06207534740092
 10
24.20387456210245
 20
27.06207534740092
  0
LINE
  5
473
330
1E
100
AcDbEntity
  8
OBJECT
100
AcDbLine
 10
23.74924325763634
 20
26.93107534740092
 30
0.0
 11
23.74660497510473
 21
27.06207534740092
 31
0.0
  0
LINE
  5
474
330
1E
100
AcDbEntity
  8
OBJECT
100
AcDbLine
 10
23.93090278707445
 20
30.78007534740101
 30
0.0
 11
24.32484633713047
 21
30.78007534740101
 31
0.0
  0
LINE
  5
475
330
1E
100
AcDbEntity
  8
OBJECT
100
AcDbLine
 10
26.16337456210246
 20
30.70007534740101
 30
0.0
 11
26.13537456210248
 21
30.78007534740101
 31
0.0
  0
LINE
  5
476
330
1E
100
AcDbEntity
  8
OBJECT
100
AcDbLine
 10
25.87037456210245
 20
30.78007534740101
 30
0.0
 11
26.13537456210248
 21
30.78007534740101
 31
0.0
  0
LINE
  5
477
330
1E
100
AcDbEntity
  8
OBJECT
100
AcDbLine
 10
25.84237456210246
 20
30.70007534740101
 30
0.0
 11
25.87037456210245
 21
30.78007534740101
 31
0.0
  0
LINE
  5
478
330
1E
100
AcDbEntity
  8
OBJECT
100
AcDbLine
 10
24.85637456210247
 20
30.70007534740101
 30
0.0
 11
24.88437456210245
 21
30.78007534740101
 31
0.0
  0
LINE
  5
479
330
1E
100
AcDbEntity
  8
OBJECT
100
AcDbLine
 10
24.88437456210245
 20
30.78007534740101
 30
0.0
 11
25.14937456210248
 21
30.78007534740101
 31
0.0
  0
LINE
  5
47A
330
1E
100
AcDbEntity
  8
OBJECT
100
AcDbLine
 10
25.17737456210247
 20
30.70007534740101
 30
0.0
 11
25.14937456210248
 21
30.78007534740101
 31
0.0
  0
LINE
  5
47B
330
1E
100
AcDbEntity
  8
OBJECT
100
AcDbLine
 10
24.35284633713045
 20
30.70007534740101
 30
0.0
 11
24.32484633713047
 21
30.78007534740101
 31
0.0
  0
LINE
  5
47C
330
1E
100
AcDbEntity
  8
OBJECT
100
AcDbLine
 10
22.95987456210246
 20
30.78007534740101
 30
0.0
 11
23.68337456210247
 21
30.78007534740103
 31
0.0
  0
LINE
  5
47D
330
1E
100
AcDbEntity
  8
OBJECT
100
AcDbLine
 10
23.56387456210247
 20
30.70007534740101
 30
0.0
 11
23.53587456210247
 21
30.78007534740102
 31
0.0
  0
LINE
  5
47E
330
1E
100
AcDbEntity
  8
OBJECT
100
AcDbLine
 10
23.90290278707446
 20
30.70007534740101
 30
0.0
 11
23.93090278707445
 21
30.78007534740101
 31
0.0
  0
LINE
  5
47F
330
1E
100
AcDbEntity
  8
OBJECT
100
AcDbLine
 10
22.93187456210247
 20
30.70007534740101
 30
0.0
 11
22.95987456210246
 21
30.78007534740101
 31
0.0
  0
LINE
  5
480
330
1E
100
AcDbEntity
  8
CENTER
100
AcDbLine
 10
26.49587456210245
 20
25.29407534740102
 30
0.0
 11
26.49587456210245
 21
31.07507534740102
 31
0.0
  0
LINE
  5
481
330
1E
100
AcDbEntity
  8
OBJECT
100
AcDbLine
 10
30.23837456210245
 20
26.85007534740103
 30
0.0
 11
30.13587456210245
 21
30.70007534740103
 31
0.0
  0
LINE
  5
482
330
1E
100
AcDbEntity
  8
OBJECT
100
AcDbLine
 10
29.24677545356629
 20
27.14307534740102
 30
0.0
 11
29.31841187314608
 21
30.70007534740101
 31
0.0
  0
LINE
  5
483
330
1E
100
AcDbEntity
  8
OBJECT
100
AcDbLine
 10
30.21587456210245
 20
26.85007534740103
 30
0.0
 11
30.20587456210245
 21
25.89907534740102
 31
0.0
  0
ARC
  5
484
330
1E
100
AcDbEntity
  8
OBJECT
100
AcDbCircle
 10
29.69737456210244
 20
25.89907534740102
 30
0.0
 40
0.2300000000000111
100
AcDbArc
 50
270.0
 51
0.0
  0
LINE
  5
485
330
1E
100
AcDbEntity
  8
OBJECT
100
AcDbLine
 10
30.20587456210245
 20
25.89907534740102
 30
0.0
 11
29.05736596310419
 21
25.89907534740102
 31
0.0
  0
LINE
  5
486
330
1E
100
AcDbEntity
  8
OBJECT
100
AcDbLine
 10
29.29988411506334
 20
25.89907534740102
 30
0.0
 11
29.29988411506334
 21
26.57407534740103
 31
0.0
  0
ARC
  5
487
330
1E
100
AcDbEntity
  8
OBJECT
100
AcDbCircle
 10
29.00328898747723
 20
25.89907534740102
 30
0.0
 40
0.2300000000000111
100
AcDbArc
 50
270.0
 51
0.0
  0
LINE
  5
488
330
1E
100
AcDbEntity
  8
OBJECT
100
AcDbLine
 10
26.72084633713044
 20
30.70007534740101
 30
0.0
 11
26.69284633713045
 21
30.78007534740101
 31
0.0
  0
DIMENSION
  5
489
330
1E
100
AcDbEntity
  8
DIM
100
AcDbDimension
  2
*D14
 10
30.13587456210245
 20
31.69607534740102
 30
0.0
 11
26.49587456210245
 21
31.69607534740102
 31
0.0
 70
    32
  1
N
 71
     5
 42
7.280000000000001
  3
23NSTD
100
AcDbAlignedDimension
 13
22.85587456210245
 23
30.70007534740101
 33
0.0
 14
30.13587456210245
 24
30.70007534740103
 34
0.0
100
AcDbRotatedDimension
  0
DIMENSION
  5
48A
330
1E
100
AcDbEntity
  8
DIM
100
AcDbDimension
  2
*D15
 10
30.20587456210245
 20
24.53107534740102
 30
0.0
 11
26.49587456210245
 21
24.53107534740102
 31
0.0
 70
    32
  1
P
 71
     5
 42
7.420000000000001
  3
23NSTD
100
AcDbAlignedDimension
 13
22.78587456210245
 23
25.89907534740102
 33
0.0
 14
30.20587456210245
 24
25.89907534740102
 34
0.0
100
AcDbRotatedDimension
  0
CIRCLE
  5
48B
330
1E
100
AcDbEntity
  8
OBJECT
100
AcDbCircle
 10
56.68518161387285
 20
12.88867265727054
 30
0.0
 40
0.3145
  0
CIRCLE
  5
48C
330
1E
100
AcDbEntity
  8
OBJECT
100
AcDbCircle
 10
58.16418161387285
 20
13.38267265727054
 30
0.0
 40
0.1635
  0
CIRCLE
  5
48D
330
1E
100
AcDbEntity
  8
OBJECT
100
AcDbCircle
 10
57.17818161387285
 20
13.38267265727054
 30
0.0
 40
0.1635
  0
CIRCLE
  5
48E
330
1E
100
AcDbEntity
  8
OBJECT
100
AcDbCircle
 10
56.19218161387284
 20
13.38267265727054
 30
0.0
 40
0.1635
  0
CIRCLE
  5
48F
330
1E
100
AcDbEntity
  8
OBJECT
100
AcDbCircle
 10
55.20618161387285
 20
13.38267265727054
 30
0.0
 40
0.1635
  0
CIRCLE
  5
490
330
1E
100
AcDbEntity
  8
OBJECT
100
AcDbCircle
 10
54.31718161387284
 20
13.67617265727053
 30
0.0
 40
0.25
  0
CIRCLE
  5
491
330
1E
100
AcDbEntity
  8
OBJECT
100
AcDbCircle
 10
59.05318161387285
 20
13.67617265727053
 30
0.0
 40
0.25
  0
CIRCLE
  5
492
330
1E
100
AcDbEntity
  8
OBJECT
100
AcDbCircle
 10
56.68518161387285
 20
12.88867265727054
 30
0.0
 40
0.0825
  0
CIRCLE
  5
493
330
1E
100
AcDbEntity
  8
HIDDEN
100
AcDbCircle
 10
56.68518161387285
 20
12.88867265727054
 30
0.0
 40
0.095
  0
CIRCLE
  5
494
330
1E
100
AcDbEntity
  8
OBJECT
100
AcDbCircle
 10
53.74018161387285
 20
14.35667265727053
 30
0.0
 40
0.1635
  0
CIRCLE
  5
495
330
1E
100
AcDbEntity
  8
OBJECT
100
AcDbCircle
 10
53.74018161387285
 20
15.34267265727053
 30
0.0
 40
0.1635
  0
CIRCLE
  5
496
330
1E
100
AcDbEntity
  8
OBJECT
100
AcDbCircle
 10
53.74018161387285
 20
16.32867265727053
 30
0.0
 40
0.1635
  0
CIRCLE
  5
497
330
1E
100
AcDbEntity
  8
OBJECT
100
AcDbCircle
 10
59.63018161387284
 20
14.35667265727053
 30
0.0
 40
0.1635
  0
CIRCLE
  5
498
330
1E
100
AcDbEntity
  8
OBJECT
100
AcDbCircle
 10
59.63018161387284
 20
15.34267265727053
 30
0.0
 40
0.1635
  0
CIRCLE
  5
499
330
1E
100
AcDbEntity
  8
OBJECT
100
AcDbCircle
 10
59.63018161387284
 20
16.32867265727053
 30
0.0
 40
0.1635
  0
CIRCLE
  5
49A
330
1E
100
AcDbEntity
  8
OBJECT
100
AcDbCircle
 10
59.69868161387284
 20
17.80767265727053
 30
0.0
 40
0.3145
  0
CIRCLE
  5
49B
330
1E
100
AcDbEntity
  8
OBJECT
100
AcDbCircle
 10
53.67168161387285
 20
17.80767265727053
 30
0.0
 40
0.3145
  0
CIRCLE
  5
49C
330
1E
100
AcDbEntity
  8
OBJECT
100
AcDbCircle
 10
53.67168161387285
 20
17.80767265727053
 30
0.0
 40
0.0825
  0
CIRCLE
  5
49D
330
1E
100
AcDbEntity
  8
HIDDEN
100
AcDbCircle
 10
53.67168161387285
 20
17.80767265727053
 30
0.0
 40
0.095
  0
CIRCLE
  5
49E
330
1E
100
AcDbEntity
  8
HIDDEN
100
AcDbCircle
 10
59.69868161387284
 20
17.80767265727053
 30
0.0
 40
0.095
  0
CIRCLE
  5
49F
330
1E
100
AcDbEntity
  8
OBJECT
100
AcDbCircle
 10
59.69868161387284
 20
17.80767265727053
 30
0.0
 40
0.0825
  0
CIRCLE
  5
4A0
330
1E
100
AcDbEntity
  8
OBJECT
100
AcDbCircle
 10
53.43718161387285
 20
12.78817265727053
 30
0.0
 40
0.0945
  0
CIRCLE
  5
4A1
330
1E
100
AcDbEntity
  8
OBJECT
100
AcDbCircle
 10
53.43718161387285
 20
12.78817265727053
 30
0.0
 40
0.315
  0
CIRCLE
  5
4A2
330
1E
100
AcDbEntity
  8
OBJECT
100
AcDbCircle
 10
59.93318161387286
 20
12.78817265727053
 30
0.0
 40
0.315
  0
CIRCLE
  5
4A3
330
1E
100
AcDbEntity
  8
OBJECT
100
AcDbCircle
 10
59.93318161387286
 20
12.78817265727053
 30
0.0
 40
0.0945
  0
CIRCLE
  5
4A4
330
1E
100
AcDbEntity
  8
OBJECT
100
AcDbCircle
 10
55.20618161387285
 20
22.23267265727053
 30
0.0
 40
0.1635
  0
CIRCLE
  5
4A5
330
1E
100
AcDbEntity
  8
OBJECT
100
AcDbCircle
 10
54.31718161387284
 20
21.93917265727054
 30
0.0
 40
0.25
  0
CIRCLE
  5
4A6
330
1E
100
AcDbEntity
  8
OBJECT
100
AcDbCircle
 10
53.43718161387285
 20
22.82717265727054
 30
0.0
 40
0.315
  0
CIRCLE
  5
4A7
330
1E
100
AcDbEntity
  8
OBJECT
100
AcDbCircle
 10
53.43718161387285
 20
22.82717265727054
 30
0.0
 40
0.0945
  0
CIRCLE
  5
4A8
330
1E
100
AcDbEntity
  8
OBJECT
100
AcDbCircle
 10
53.74018161387285
 20
21.25867265727053
 30
0.0
 40
0.1635
  0
CIRCLE
  5
4A9
330
1E
100
AcDbEntity
  8
OBJECT
100
AcDbCircle
 10
53.74018161387285
 20
20.27267265727054
 30
0.0
 40
0.1635
  0
CIRCLE
  5
4AA
330
1E
100
AcDbEntity
  8
OBJECT
100
AcDbCircle
 10
53.74018161387285
 20
19.28667265727053
 30
0.0
 40
0.1635
  0
CIRCLE
  5
4AB
330
1E
100
AcDbEntity
  8
OBJECT
100
AcDbCircle
 10
58.16418161387285
 20
22.23267265727053
 30
0.0
 40
0.1635
  0
CIRCLE
  5
4AC
330
1E
100
AcDbEntity
  8
OBJECT
100
AcDbCircle
 10
57.17818161387285
 20
22.23267265727053
 30
0.0
 40
0.1635
  0
CIRCLE
  5
4AD
330
1E
100
AcDbEntity
  8
OBJECT
100
AcDbCircle
 10
56.19218161387284
 20
22.23267265727053
 30
0.0
 40
0.1635
  0
CIRCLE
  5
4AE
330
1E
100
AcDbEntity
  8
OBJECT
100
AcDbCircle
 10
56.68518161387285
 20
22.72667265727053
 30
0.0
 40
0.3145
  0
CIRCLE
  5
4AF
330
1E
100
AcDbEntity
  8
OBJECT
100
AcDbCircle
 10
56.68518161387285
 20
22.72667265727053
 30
0.0
 40
0.0825
  0
CIRCLE
  5
4B0
330
1E
100
AcDbEntity
  8
HIDDEN
100
AcDbCircle
 10
56.68518161387285
 20
22.72667265727053
 30
0.0
 40
0.095
  0
CIRCLE
  5
4B1
330
1E
100
AcDbEntity
  8
OBJECT
100
AcDbCircle
 10
59.05318161387285
 20
21.93917265727054
 30
0.0
 40
0.25
  0
CIRCLE
  5
4B2
330
1E
100
AcDbEntity
  8
OBJECT
100
AcDbCircle
 10
59.93318161387286
 20
22.82717265727054
 30
0.0
 40
0.315
  0
CIRCLE
  5
4B3
330
1E
100
AcDbEntity
  8
OBJECT
100
AcDbCircle
 10
59.93318161387286
 20
22.82717265727054
 30
0.0
 40
0.0945
  0
CIRCLE
  5
4B4
330
1E
100
AcDbEntity
  8
OBJECT
100
AcDbCircle
 10
59.63018161387284
 20
20.27267265727054
 30
0.0
 40
0.1635
  0
CIRCLE
  5
4B5
330
1E
100
AcDbEntity
  8
OBJECT
100
AcDbCircle
 10
59.63018161387284
 20
21.25867265727053
 30
0.0
 40
0.1635
  0
CIRCLE
  5
4B6
330
1E
100
AcDbEntity
  8
OBJECT
100
AcDbCircle
 10
59.63018161387284
 20
19.28667265727053
 30
0.0
 40
0.1635
  0
DIMENSION
  5
4B7
330
1E
100
AcDbEntity
  8
DIM
100
AcDbDimension
  2
*D16
 10
51.96240055935178
 20
22.72667265727053
 30
0.0
 11
51.96240055935177
 21
17.80767265727054
 31
0.0
 70
    32
  1
V
 71
     5
 42
9.837999999999995
  3
23NSTD
100
AcDbAlignedDimension
 13
56.68518161387285
 23
12.88867265727054
 33
0.0
 14
56.68518161387285
 24
22.72667265727053
 34
0.0
 50
90.0
100
AcDbRotatedDimension
  0
DIMENSION
  5
4B8
330
1E
100
AcDbEntity
  8
DIM
100
AcDbDimension
  2
*D17
 10
59.69868161387284
 20
11.34262786230205
 30
0.0
 11
56.68518161387284
 21
11.34262786230205
 31
0.0
 70
    32
  1
W
 71
     5
 42
6.026999999999993
  3
23NSTD
100
AcDbAlignedDimension
 13
53.67168161387285
 23
17.80767265727054
 33
0.0
 14
59.69868161387284
 24
17.80767265727054
 34
0.0
100
AcDbRotatedDimension
  0
TEXT
  5
4B9
330
1E
100
AcDbEntity
  8
TEXT
100
AcDbText
 10
8.436984098382458
 20
39.02094374326722
 30
0.0
 40
0.74999925
  1
NON-METALLIC ENCLOSURE (STYLE D)
 41
0.75
 72
     4
 11
17.06197547338246
 21
39.39594336826722
 31
0.0
100
AcDbText
  0
TEXT
  5
4BA
330
1E
100
AcDbEntity
  8
TEXT
100
AcDbText
 10
39.12543990164595
 20
39.02094374326724
 30
0.0
 40
0.74999925
  1
NBD-10442 & NBD-10462 & NBD-15442
 41
0.75
 72
     4
 11
47.93793108914595
 21
39.39594336826724
 31
0.0
100
AcDbText
  0
TEXT
  5
4BB
330
1E
100
AcDbEntity
  8
TEXT
100
AcDbText
 10
30.92622897839317
 20
32.97153152821134
 30
0.0
 40
0.4999994999999998
  1
%%UNOTE:%%u COVER ATTACHES WITH PHILLIPS DRIVE
 41
0.75
100
AcDbText
  0
TEXT
  5
4BC
330
1E
100
AcDbEntity
  8
TEXT
100
AcDbText
 10
12.71705184861816
 20
1.256913739304797
 30
0.0
 40
0.4999995
  1
7.485
 41
0.75
 72
     4
 11
13.46705109861816
 21
1.506913489304797
 31
0.0
100
AcDbText
  0
TEXT
  5
4BD
330
1E
100
AcDbEntity
  8
TEXT
100
AcDbText
 10
12.81080175486816
 20
0.4235812393047976
 30
0.0
 40
0.4999995
  1
[190]
 41
0.75
 72
     4
 11
13.46705109861816
 21
0.6735809893047975
 31
0.0
100
AcDbText
  0
TEXT
  5
4BE
330
1E
100
AcDbEntity
  8
TEXT
100
AcDbText
 10
15.25571178611816
 20
0.4235812393047976
 30
0.0
 40
0.4999995
  1
[169]
 41
0.75
 72
     4
 11
15.94321109861816
 21
0.6735809893047975
 31
0.0
100
AcDbText
  0
TEXT
  5
4BF
330
1E
100
AcDbEntity
  8
TEXT
100
AcDbText
 10
15.19321184861816
 20
1.256913739304797
 30
0.0
 40
0.4999995
  1
6.663
 41
0.75
 72
     4
 11
15.94321109861816
 21
1.506913489304797
 31
0.0
100
AcDbText
  0
TEXT
  5
4C0
330
1E
100
AcDbEntity
  8
TEXT
100
AcDbText
 10
17.73187178611816
 20
0.4235812393047976
 30
0.0
 40
0.4999995
  1
[165]
 41
0.75
 72
     4
 11
18.41937109861816
 21
0.6735809893047975
 31
0.0
100
AcDbText
  0
TEXT
  5
4C1
330
1E
100
AcDbEntity
  8
TEXT
100
AcDbText
 10
17.66937184861816
 20
1.256913739304797
 30
0.0
 40
0.4999995
  1
6.496
 41
0.75
 72
     4
 11
18.41937109861816
 21
1.506913489304797
 31
0.0
100
AcDbText
  0
TEXT
  5
4C2
330
1E
100
AcDbEntity
  8
TEXT
100
AcDbText
 10
20.23928175486815
 20
0.4235812393047976
 30
0.0
 40
0.4999995
  1
[150]
 41
0.75
 72
     4
 11
20.89553109861816
 21
0.6735809893047975
 31
0.0
100
AcDbText
  0
TEXT
  5
4C3
330
1E
100
AcDbEntity
  8
TEXT
100
AcDbText
 10
20.17678181736816
 20
1.256913739304797
 30
0.0
 40
0.4999995
  1
5.890
 41
0.75
 72
     4
 11
20.89553109861816
 21
1.506913489304797
 31
0.0
100
AcDbText
  0
TEXT
  5
4C4
330
1E
100
AcDbEntity
  8
TEXT
100
AcDbText
 10
22.71544175486816
 20
0.4235812393047976
 30
0.0
 40
0.4999995
  1
[120]
 41
0.75
 72
     4
 11
23.37169109861816
 21
0.6735809893047975
 31
0.0
100
AcDbText
  0
TEXT
  5
4C5
330
1E
100
AcDbEntity
  8
TEXT
100
AcDbText
 10
22.62169184861816
 20
1.256913739304797
 30
0.0
 40
0.4999995
  1
4.736
 41
0.75
 72
     4
 11
23.37169109861816
 21
1.506913489304797
 31
0.0
100
AcDbText
  0
TEXT
  5
4C6
330
1E
100
AcDbEntity
  8
TEXT
100
AcDbText
 10
25.28535166111816
 20
0.4235812393047976
 30
0.0
 40
0.4999995
  1
[75]
 41
0.75
 72
     4
 11
25.84785109861816
 21
0.6735809893047975
 31
0.0
100
AcDbText
  0
TEXT
  5
4C7
330
1E
100
AcDbEntity
  8
TEXT
100
AcDbText
 10
25.09785184861816
 20
1.256913739304797
 30
0.0
 40
0.4999995
  1
2.958
 41
0.75
 72
     4
 11
25.84785109861816
 21
1.506913489304797
 31
0.0
100
AcDbText
  0
TEXT
  5
4C8
330
1E
100
AcDbEntity
  8
TEXT
100
AcDbText
 10
27.60526181736816
 20
0.4235812393047976
 30
0.0
 40
0.4999995
  1
[280]
 41
0.75
 72
     4
 11
28.32401109861816
 21
0.6735809893047975
 31
0.0
100
AcDbText
  0
TEXT
  5
4C9
330
1E
100
AcDbEntity
  8
TEXT
100
AcDbText
 10
27.54276187986816
 20
1.256913739304797
 30
0.0
 40
0.4999995
  1
11.024
 41
0.75
 72
     4
 11
28.32401109861816
 21
1.506913489304797
 31
0.0
100
AcDbText
  0
TEXT
  5
4CA
330
1E
100
AcDbEntity
  8
TEXT
100
AcDbText
 10
30.05017184861816
 20
0.4235812393047976
 30
0.0
 40
0.4999995
  1
[266]
 41
0.75
 72
     4
 11
30.80017109861816
 21
0.6735809893047975
 31
0.0
100
AcDbText
  0
TEXT
  5
4CB
330
1E
100
AcDbEntity
  8
TEXT
100
AcDbText
 10
29.95642194236816
 20
1.256913739304797
 30
0.0
 40
0.4999995
  1
10.474
 41
0.75
 72
     4
 11
30.80017109861816
 21
1.506913489304797
 31
0.0
100
AcDbText
  0
TEXT
  5
4CC
330
1E
100
AcDbEntity
  8
TEXT
100
AcDbText
 10
32.52633184861816
 20
0.4235812393047976
 30
0.0
 40
0.4999995
  1
[255]
 41
0.75
 72
     4
 11
33.27633109861816
 21
0.6735809893047975
 31
0.0
100
AcDbText
  0
TEXT
  5
4CD
330
1E
100
AcDbEntity
  8
TEXT
100
AcDbText
 10
32.46383191111816
 20
1.256913739304797
 30
0.0
 40
0.4999995
  1
10.039
 41
0.75
 72
     4
 11
33.27633109861816
 21
1.506913489304797
 31
0.0
100
AcDbText
  0
TEXT
  5
4CE
330
1E
100
AcDbEntity
  8
TEXT
100
AcDbText
 10
35.00249184861815
 20
0.4235812393047976
 30
0.0
 40
0.4999995
  1
[225]
 41
0.75
 72
     4
 11
35.75249109861815
 21
0.6735809893047975
 31
0.0
100
AcDbText
  0
TEXT
  5
4CF
330
1E
100
AcDbEntity
  8
TEXT
100
AcDbText
 10
35.03374181736816
 20
1.256913739304797
 30
0.0
 40
0.4999995
  1
8.850
 41
0.75
 72
     4
 11
35.75249109861815
 21
1.506913489304797
 31
0.0
100
AcDbText
  0
TEXT
  5
4D0
330
1E
100
AcDbEntity
  8
TEXT
100
AcDbText
 10
37.57240175486816
 20
0.4235812393047976
 30
0.0
 40
0.4999995
  1
[210]
 41
0.75
 72
     4
 11
38.22865109861816
 21
0.6735809893047975
 31
0.0
100
AcDbText
  0
TEXT
  5
4D1
330
1E
100
AcDbEntity
  8
TEXT
100
AcDbText
 10
37.47865184861816
 20
1.256913739304797
 30
0.0
 40
0.4999995
  1
8.263
 41
0.75
 72
     4
 11
38.22865109861816
 21
1.506913489304797
 31
0.0
100
AcDbText
  0
TEXT
  5
4D2
330
1E
100
AcDbEntity
  8
TEXT
100
AcDbText
 10
40.01731178611816
 20
0.4235812393047976
 30
0.0
 40
0.4999995
  1
[175]
 41
0.75
 72
     4
 11
40.70481109861816
 21
0.6735809893047975
 31
0.0
100
AcDbText
  0
TEXT
  5
4D3
330
1E
100
AcDbEntity
  8
TEXT
100
AcDbText
 10
39.98606181736816
 20
1.256913739304797
 30
0.0
 40
0.4999995
  1
6.902
 41
0.75
 72
     4
 11
40.70481109861816
 21
1.506913489304797
 31
0.0
100
AcDbText
  0
TEXT
  5
4D4
330
1E
100
AcDbEntity
  8
TEXT
100
AcDbText
 10
42.49347178611816
 20
0.4235812393047976
 30
0.0
 40
0.4999995
  1
[185]
 41
0.75
 72
     4
 11
43.18097109861816
 21
0.6735809893047975
 31
0.0
100
AcDbText
  0
TEXT
  5
4D5
330
1E
100
AcDbEntity
  8
TEXT
100
AcDbText
 10
42.46222181736816
 20
1.256913739304797
 30
0.0
 40
0.4999995
  1
7.280
 41
0.75
 72
     4
 11
43.18097109861816
 21
1.506913489304797
 31
0.0
100
AcDbText
  0
TEXT
  5
4D6
330
1E
100
AcDbEntity
  8
TEXT
100
AcDbText
 10
44.96963178611816
 20
0.4235812393047976
 30
0.0
 40
0.4999995
  1
[188]
 41
0.75
 72
     4
 11
45.65713109861817
 21
0.6735809893047975
 31
0.0
100
AcDbText
  0
TEXT
  5
4D7
330
1E
100
AcDbEntity
  8
TEXT
100
AcDbText
 10
44.93838181736816
 20
1.256913739304797
 30
0.0
 40
0.4999995
  1
7.420
 41
0.75
 72
     4
 11
45.65713109861817
 21
1.506913489304797
 31
0.0
100
AcDbText
  0
TEXT
  5
4D8
330
1E
100
AcDbEntity
  8
TEXT
100
AcDbText
 10
47.60204162986817
 20
0.4235812393047976
 30
0.0
 40
0.4999995
  1
[30]
 41
0.75
 72
     4
 11
48.13329109861817
 21
0.6735809893047975
 31
0.0
100
AcDbText
  0
TEXT
  5
4D9
330
1E
100
AcDbEntity
  8
TEXT
100
AcDbText
 10
47.57079166111817
 20
1.256913739304797
 30
0.0
 40
0.4999995
  1
1.181
 41
0.75
 72
     4
 11
48.13329109861817
 21
1.506913489304797
 31
0.0
100
AcDbText
  0
TEXT
  5
4DA
330
1E
100
AcDbEntity
  8
TEXT
100
AcDbText
 10
50.04695166111816
 20
0.4235812393047976
 30
0.0
 40
0.4999995
  1
[98]
 41
0.75
 72
     4
 11
50.60945109861816
 21
0.6735809893047975
 31
0.0
100
AcDbText
  0
TEXT
  5
4DB
330
1E
100
AcDbEntity
  8
TEXT
100
AcDbText
 10
49.89070181736817
 20
1.256913739304797
 30
0.0
 40
0.4999995
  1
3.850
 41
0.75
 72
     4
 11
50.60945109861816
 21
1.506913489304797
 31
0.0
100
AcDbText
  0
TEXT
  5
4DC
330
1E
100
AcDbEntity
  8
TEXT
100
AcDbText
 10
52.33561184861816
 20
0.4235812393047976
 30
0.0
 40
0.4999995
  1
[279]
 41
0.75
 72
     4
 11
53.08561109861816
 21
0.6735809893047975
 31
0.0
100
AcDbText
  0
TEXT
  5
4DD
330
1E
100
AcDbEntity
  8
TEXT
100
AcDbText
 10
52.24186194236817
 20
1.256913739304797
 30
0.0
 40
0.4999995
  1
10.984
 41
0.75
 72
     4
 11
53.08561109861816
 21
1.506913489304797
 31
0.0
100
AcDbText
  0
TEXT
  5
4DE
330
1E
100
AcDbEntity
  8
TEXT
100
AcDbText
 10
54.81177184861816
 20
0.4235812393047976
 30
0.0
 40
0.4999995
  1
[274]
 41
0.75
 72
     4
 11
55.56177109861816
 21
0.6735809893047975
 31
0.0
100
AcDbText
  0
TEXT
  5
4DF
330
1E
100
AcDbEntity
  8
TEXT
100
AcDbText
 10
54.74927191111816
 20
1.256913739304797
 30
0.0
 40
0.4999995
  1
10.805
 41
0.75
 72
     4
 11
55.56177109861816
 21
1.506913489304797
 31
0.0
100
AcDbText
  0
TEXT
  5
4E0
330
1E
100
AcDbEntity
  8
TEXT
100
AcDbText
 10
57.31918181736816
 20
0.4235812393047976
 30
0.0
 40
0.4999995
  1
[250]
 41
0.75
 72
     4
 11
58.03793109861817
 21
0.6735809893047975
 31
0.0
100
AcDbText
  0
TEXT
  5
4E1
330
1E
100
AcDbEntity
  8
TEXT
100
AcDbText
 10
57.28793184861816
 20
1.256913739304797
 30
0.0
 40
0.4999995
  1
9.838
 41
0.75
 72
     4
 11
58.03793109861817
 21
1.506913489304797
 31
0.0
100
AcDbText
  0
TEXT
  5
4E2
330
1E
100
AcDbEntity
  8
TEXT
100
AcDbText
 10
59.82659178611816
 20
0.4235812393047976
 30
0.0
 40
0.4999995
  1
[153]
 41
0.75
 72
     4
 11
60.51409109861817
 21
0.6735809893047975
 31
0.0
100
AcDbText
  0
TEXT
  5
4E3
330
1E
100
AcDbEntity
  8
TEXT
100
AcDbText
 10
59.79534181736816
 20
1.256913739304797
 30
0.0
 40
0.4999995
  1
6.027
 41
0.75
 72
     4
 11
60.51409109861817
 21
1.506913489304797
 31
0.0
100
AcDbText
  0
TEXT
  5
4E4
330
1E
100
AcDbEntity
  8
TEXT
100
AcDbText
 10
32.93798464435644
 20
32.13819986154464
 30
0.0
 40
0.4999995
  1
NON-METALLIC SCREWS.  (NOT SHOWN)
 41
0.75
100
AcDbText
  0
TEXT
  5
4E5
330
1E
100
AcDbEntity
  8
TEXT
100
AcDbText
 10
30.8571596830621
 20
10.17888246570113
 30
0.0
 40
0.4999995
  1
AIR AND MOISTURE VENTS, STAINLESS
 41
0.75
100
AcDbText
  0
DIMENSION
  5
4E6
330
1E
100
AcDbEntity
  8
DIM
100
AcDbDimension
  2
*D18
 10
2.579790063668738
 20
23.04467265727053
 30
0.0
 11
2.579790063668734
 21
17.80767265727053
 31
0.0
 70
    32
  1
H
 71
     5
 42
10.47399999999999
  3
23NSTD
100
AcDbAlignedDimension
 13
6.130328967609496
 23
12.57067265727053
 33
0.0
 14
6.130328967609484
 24
23.04467265727053
 34
0.0
 50
90.0
100
AcDbRotatedDimension
  0
DIMENSION
  5
4E7
330
1E
100
AcDbEntity
  8
DIM
100
AcDbDimension
  2
*D19
 10
3.579790063668738
 20
22.82717265727054
 30
0.0
 11
3.579790063668734
 21
17.80767265727053
 31
0.0
 70
    32
  1
J
 71
     5
 42
10.039
  3
23NSTD
100
AcDbAlignedDimension
 13
5.546290063668738
 23
12.78817265727053
 33
0.0
 14
5.546290063668738
 24
22.82717265727054
 34
0.0
 50
90.0
100
AcDbRotatedDimension
  0
DIMENSION
  5
4E8
330
1E
100
AcDbEntity
  8
DIM
100
AcDbDimension
  2
*D20
 10
17.9649753947006
 20
14.35667265727053
 30
0.0
 11
17.96497539470059
 21
17.80767265727054
 31
0.0
 70
    32
  1
M
 71
     5
 42
6.902000000000002
  3
23NSTD
100
AcDbAlignedDimension
 13
11.73929006366874
 23
21.25867265727053
 33
0.0
 14
11.73929006366874
 24
14.35667265727053
 34
0.0
 50
90.0
100
AcDbRotatedDimension
  0
DIMENSION
  5
4E9
330
1E
100
AcDbEntity
  8
DIM
100
AcDbDimension
  2
*D21
 10
18.9649753947006
 20
21.93917265727054
 30
0.0
 11
18.96497539470059
 21
17.80767265727054
 31
0.0
 70
    32
  1
L
 71
     5
 42
8.263000000000007
  3
23NSTD
100
AcDbAlignedDimension
 13
11.16229006366874
 23
13.67617265727053
 33
0.0
 14
11.16229006366874
 24
21.93917265727054
 34
0.0
 50
90.0
100
AcDbRotatedDimension
  0
DIMENSION
  5
4EA
330
1E
100
AcDbEntity
  8
DIM
100
AcDbDimension
  2
*D22
 10
19.9649753947006
 20
13.38267265727053
 30
0.0
 11
19.96497539470059
 21
17.80767265727054
 31
0.0
 70
    32
  1
K
 71
     5
 42
8.849999999999996
  3
23NSTD
100
AcDbAlignedDimension
 13
10.27329006366874
 23
22.23267265727053
 33
0.0
 14
10.27329006366874
 24
13.38267265727054
 34
0.0
 50
90.0
100
AcDbRotatedDimension
  0
LINE
  5
4EB
330
1E
100
AcDbEntity
  8
CENTER
100
AcDbLine
 10
22.37837456210246
 20
17.80767265727053
 30
0.0
 11
30.61337456210246
 21
17.80767265727053
 31
0.0
  0
LINE
  5
4EC
330
1E
100
AcDbEntity
  8
CENTER
100
AcDbLine
 10
26.49587456210246
 20
11.92067265727054
 30
0.0
 11
26.49587456210246
 21
23.69467265727053
 31
0.0
  0
LINE
  5
4ED
330
1E
100
AcDbEntity
  8
CENTER
100
AcDbLine
 10
52.56768161387284
 20
17.80767265727053
 30
0.0
 11
60.80268161387284
 21
17.80767265727053
 31
0.0
  0
LINE
  5
4EE
330
1E
100
AcDbEntity
  8
CENTER
100
AcDbLine
 10
56.68518161387283
 20
11.92067265727053
 30
0.0
 11
56.68518161387282
 21
23.69467265727053
 31
0.0
  0
DIMENSION
  5
4EF
330
1E
100
AcDbEntity
  8
DIM
100
AcDbDimension
  2
*D23
 10
41.16157595801374
 20
15.00289853888177
 30
0.0
 11
45.74282595801374
 21
15.00289853888177
 31
0.0
 70
    32
  1
<> (INSIDE)
 71
     5
 42
0.2860000000000156
  3
23NSTD
100
AcDbAlignedDimension
 13
40.87557595801373
 23
14.55368896523408
 33
0.0
 14
41.16157595801374
 24
14.15965634930698
 34
0.0
100
AcDbRotatedDimension
  0
DIMENSION
  5
4F0
330
1E
100
AcDbEntity
  8
DIM
100
AcDbDimension
  2
*D24
 10
41.35194045801376
 20
24.03967265727055
 30
0.0
 11
44.43319045801375
 21
24.03967265727055
 31
0.0
 70
    32
  1
<>
 71
     5
 42
0.0799999999999983
  3
23NSTD
100
AcDbAlignedDimension
 13
41.27194045801376
 23
23.21017265727054
 33
0.0
 14
41.35194045801376
 24
23.11517265727054
 34
0.0
100
AcDbRotatedDimension
  0
LWPOLYLINE
  5
4F1
330
1E
100
AcDbEntity
  8
DIM
100
AcDbPolyline
 90
        4
 70
     0
 10
11.85683076657533
 20
14.19856001146441
 40
0.0
 41
0.27
 10
12.27632682084458
 20
13.63426501062165
 40
0.0
 41
0.0
 10
13.71654278004313
 20
11.05889401055202
 40
0.0
 41
0.0
 10
14.43654278004314
 20
11.05889401055202
 40
0.0
 41
0.0
  0
TEXT
  5
4F7
330
1E
100
AcDbEntity
  8
DIM
100
AcDbText
 10
14.79654278004314
 20
10.80889401055202
 30
0.0
 40
0.5
  1
0.394 [10] DIA. BOSS WITH 0.166 [4] DIA.
 41
0.75
 11
14.79654278004314
 21
11.05889401055202
 31
0.0
100
AcDbText
 73
     2
  0
TEXT
  5
4F8
330
1E
100
AcDbEntity
  8
DIM
100
AcDbText
 10
14.79654278004314
 20
9.975560677218695
 30
0.0
 40
0.5
  1
HOLE x 0.350 [9] DEEP (24) PLACES
 41
0.75
 11
14.79654278004314
 21
10.22556067721869
 31
0.0
100
AcDbText
 73
     2
  0
TEXT
  5
4F9
330
1E
100
AcDbEntity
  8
DIM
100
AcDbText
 10
14.79654278004314
 20
9.142227343885362
 30
0.0
 40
0.5
  1
BOSSES ACCEPT M5 METRIC OR #10 STD. SHEET
 41
0.75
 11
14.79654278004314
 21
9.392227343885362
 31
0.0
100
AcDbText
 73
     2
  0
TEXT
  5
4FA
330
1E
100
AcDbEntity
  8
DIM
100
AcDbText
 10
14.79654278004314
 20
8.30889401055203
 30
0.0
 40
0.5
  1
METAL SCREWS x 0.250 [6] LG. (NOT SUPPLIED)
 41
0.75
 11
14.79654278004314
 21
8.55889401055203
 31
0.0
100
AcDbText
 73
     2
  0
TEXT
  5
505
330
1E
100
AcDbEntity
  8
TEXT
100
AcDbText
 10
5.16374123705547
 20
6.784708333624839
 30
0.0
 40
0.6249993749999999
  1
%%UVIEW LESS COVER
 41
0.75
 72
     4
 11
8.765300135492971
 21
7.034708083624838
 31
0.0
100
AcDbText
  0
LINE
  5
506
330
1E
100
AcDbEntity
  8
OBJECT
100
AcDbLine
 10
41.0221298278311
 20
12.98908123445723
 30
0.0
 11
41.02994045801375
 21
13.09967265727054
 31
0.0
  0
LINE
  5
507
330
1E
100
AcDbEntity
  8
OBJECT
100
AcDbLine
 10
40.9341298278311
 20
12.98908123445723
 30
0.0
 11
40.94194045801375
 21
13.09967265727054
 31
0.0
  0
LINE
  5
508
330
1E
100
AcDbEntity
  8
OBJECT
100
AcDbLine
 10
40.84612982783111
 20
12.98908123445723
 30
0.0
 11
40.85394045801375
 21
13.09967265727054
 31
0.0
  0
LINE
  5
509
330
1E
100
AcDbEntity
  8
OBJECT
100
AcDbLine
 10
40.75812982783109
 20
12.98908123445723
 30
0.0
 11
40.76594045801374
 21
13.09967265727054
 31
0.0
  0
LINE
  5
50A
330
1E
100
AcDbEntity
  8
OBJECT
100
AcDbLine
 10
40.6701298278311
 20
12.98908123445723
 30
0.0
 11
40.67794045801375
 21
13.09967265727054
 31
0.0
  0
LINE
  5
50B
330
1E
100
AcDbEntity
  8
OBJECT
100
AcDbLine
 10
40.5821298278311
 20
12.98908123445723
 30
0.0
 11
40.58994045801374
 21
13.09967265727054
 31
0.0
  0
LINE
  5
50C
330
1E
100
AcDbEntity
  8
OBJECT
100
AcDbLine
 10
40.49412982783111
 20
12.98908123445723
 30
0.0
 11
40.50194045801375
 21
13.09967265727054
 31
0.0
  0
LINE
  5
50D
330
1E
100
AcDbEntity
  8
OBJECT
100
AcDbLine
 10
40.40612982783111
 20
12.98908123445723
 30
0.0
 11
40.41394045801375
 21
13.09967265727054
 31
0.0
  0
LINE
  5
50E
330
1E
100
AcDbEntity
  8
OBJECT
100
AcDbLine
 10
40.31812982783111
 20
12.98908123445723
 30
0.0
 11
40.32594045801376
 21
13.09967265727054
 31
0.0
  0
LINE
  5
50F
330
1E
100
AcDbEntity
  8
OBJECT
100
AcDbLine
 10
40.2301298278311
 20
12.98908123445723
 30
0.0
 11
40.23794045801375
 21
13.09967265727054
 31
0.0
  0
LINE
  5
510
330
1E
100
AcDbEntity
  8
OBJECT
100
AcDbLine
 10
40.14212982783112
 20
12.98908123445723
 30
0.0
 11
40.14994045801375
 21
13.09967265727054
 31
0.0
  0
LINE
  5
511
330
1E
100
AcDbEntity
  8
OBJECT
100
AcDbLine
 10
40.0541298278311
 20
12.98908123445723
 30
0.0
 11
40.06194045801374
 21
13.09967265727054
 31
0.0
  0
LINE
  5
512
330
1E
100
AcDbEntity
  8
OBJECT
100
AcDbLine
 10
39.96612982783111
 20
12.98908123445723
 30
0.0
 11
39.97394045801375
 21
13.09967265727054
 31
0.0
  0
LINE
  5
513
330
1E
100
AcDbEntity
  8
OBJECT
100
AcDbLine
 10
39.87812982783111
 20
12.98908123445723
 30
0.0
 11
39.88594045801375
 21
13.09967265727054
 31
0.0
  0
LINE
  5
514
330
1E
100
AcDbEntity
  8
OBJECT
100
AcDbLine
 10
39.79012982783111
 20
12.98908123445723
 30
0.0
 11
39.79794045801375
 21
13.09967265727054
 31
0.0
  0
LINE
  5
515
330
1E
100
AcDbEntity
  8
OBJECT
100
AcDbLine
 10
39.7021298278311
 20
12.98908123445723
 30
0.0
 11
39.70994045801374
 21
13.09967265727054
 31
0.0
  0
LINE
  5
516
330
1E
100
AcDbEntity
  8
OBJECT
100
AcDbLine
 10
39.61412982783111
 20
12.98908123445723
 30
0.0
 11
39.62194045801375
 21
13.09967265727054
 31
0.0
  0
LINE
  5
517
330
1E
100
AcDbEntity
  8
OBJECT
100
AcDbLine
 10
39.5261298278311
 20
12.98908123445723
 30
0.0
 11
39.53394045801374
 21
13.09967265727054
 31
0.0
  0
LINE
  5
518
330
1E
100
AcDbEntity
  8
OBJECT
100
AcDbLine
 10
39.43812982783111
 20
12.98908123445723
 30
0.0
 11
39.44594045801375
 21
13.09967265727054
 31
0.0
  0
LINE
  5
519
330
1E
100
AcDbEntity
  8
OBJECT
100
AcDbLine
 10
39.3501298278311
 20
12.98908123445723
 30
0.0
 11
39.35794045801374
 21
13.09967265727054
 31
0.0
  0
LINE
  5
51A
330
1E
100
AcDbEntity
  8
OBJECT
100
AcDbLine
 10
39.26212982783111
 20
12.98908123445723
 30
0.0
 11
39.26994045801375
 21
13.09967265727054
 31
0.0
  0
LINE
  5
51B
330
1E
100
AcDbEntity
  8
OBJECT
100
AcDbLine
 10
39.1741298278311
 20
12.98908123445723
 30
0.0
 11
39.18194045801375
 21
13.09967265727054
 31
0.0
  0
LINE
  5
51C
330
1E
100
AcDbEntity
  8
OBJECT
100
AcDbLine
 10
39.08612982783111
 20
12.98908123445723
 30
0.0
 11
39.09394045801376
 21
13.09967265727054
 31
0.0
  0
LINE
  5
51D
330
1E
100
AcDbEntity
  8
OBJECT
100
AcDbLine
 10
38.9981298278311
 20
12.98908123445723
 30
0.0
 11
39.00594045801375
 21
13.09967265727054
 31
0.0
  0
LINE
  5
51E
330
1E
100
AcDbEntity
  8
OBJECT
100
AcDbLine
 10
38.91012982783111
 20
12.98908123445723
 30
0.0
 11
38.91794045801376
 21
13.09967265727054
 31
0.0
  0
LINE
  5
51F
330
1E
100
AcDbEntity
  8
OBJECT
100
AcDbLine
 10
38.82212982783111
 20
12.98908123445723
 30
0.0
 11
38.82994045801375
 21
13.09967265727054
 31
0.0
  0
LINE
  5
520
330
1E
100
AcDbEntity
  8
OBJECT
100
AcDbLine
 10
38.73412982783111
 20
12.98908123445723
 30
0.0
 11
38.74194045801376
 21
13.09967265727054
 31
0.0
  0
LINE
  5
521
330
1E
100
AcDbEntity
  8
OBJECT
100
AcDbLine
 10
38.6461298278311
 20
12.98908123445723
 30
0.0
 11
38.65394045801375
 21
13.09967265727054
 31
0.0
  0
LINE
  5
522
330
1E
100
AcDbEntity
  8
OBJECT
100
AcDbLine
 10
38.55812982783111
 20
12.98908123445723
 30
0.0
 11
38.56594045801375
 21
13.09967265727054
 31
0.0
  0
LINE
  5
523
330
1E
100
AcDbEntity
  8
OBJECT
100
AcDbLine
 10
38.47012982783111
 20
12.98908123445723
 30
0.0
 11
38.47794045801375
 21
13.09967265727054
 31
0.0
  0
LINE
  5
524
330
1E
100
AcDbEntity
  8
OBJECT
100
AcDbLine
 10
38.38212982783111
 20
12.98908123445723
 30
0.0
 11
38.38994045801375
 21
13.09967265727054
 31
0.0
  0
LINE
  5
525
330
1E
100
AcDbEntity
  8
OBJECT
100
AcDbLine
 10
38.29412982783111
 20
12.98908123445723
 30
0.0
 11
38.30194045801374
 21
13.09967265727054
 31
0.0
  0
LINE
  5
526
330
1E
100
AcDbEntity
  8
OBJECT
100
AcDbLine
 10
38.20612982783111
 20
12.98908123445723
 30
0.0
 11
38.21394045801375
 21
13.09967265727054
 31
0.0
  0
LINE
  5
527
330
1E
100
AcDbEntity
  8
OBJECT
100
AcDbLine
 10
38.1181298278311
 20
12.98908123445723
 30
0.0
 11
38.12594045801374
 21
13.09967265727054
 31
0.0
  0
LINE
  5
528
330
1E
100
AcDbEntity
  8
OBJECT
100
AcDbLine
 10
38.03012982783111
 20
12.98908123445723
 30
0.0
 11
38.03794045801375
 21
13.09967265727054
 31
0.0
  0
LINE
  5
529
330
1E
100
AcDbEntity
  8
OBJECT
100
AcDbLine
 10
37.9421298278311
 20
12.98908123445723
 30
0.0
 11
37.94994045801374
 21
13.09967265727054
 31
0.0
  0
LINE
  5
52A
330
1E
100
AcDbEntity
  8
OBJECT
100
AcDbLine
 10
37.8541298278311
 20
12.98908123445723
 30
0.0
 11
37.86194045801375
 21
13.09967265727054
 31
0.0
  0
LINE
  5
52B
330
1E
100
AcDbEntity
  8
OBJECT
100
AcDbLine
 10
37.76612982783111
 20
12.98908123445723
 30
0.0
 11
37.77394045801375
 21
13.09967265727054
 31
0.0
  0
LINE
  5
52C
330
1E
100
AcDbEntity
  8
OBJECT
100
AcDbLine
 10
37.67812982783112
 20
12.98908123445723
 30
0.0
 11
37.68594045801376
 21
13.09967265727054
 31
0.0
  0
LINE
  5
52D
330
1E
100
AcDbEntity
  8
OBJECT
100
AcDbLine
 10
37.5901298278311
 20
12.98908123445723
 30
0.0
 11
37.59794045801375
 21
13.09967265727054
 31
0.0
  0
LINE
  5
52E
330
1E
100
AcDbEntity
  8
OBJECT
100
AcDbLine
 10
37.50212982783111
 20
12.98908123445723
 30
0.0
 11
37.50994045801375
 21
13.09967265727054
 31
0.0
  0
LINE
  5
52F
330
1E
100
AcDbEntity
  8
OBJECT
100
AcDbLine
 10
37.43278012531202
 20
12.65323408914956
 30
0.0
 11
37.42194045801375
 21
12.52217265727053
 31
0.0
  0
LINE
  5
530
330
1E
100
AcDbEntity
  8
OBJECT
100
AcDbLine
 10
38.13678012531203
 20
12.65323408914956
 30
0.0
 11
38.12594045801375
 21
12.52217265727053
 31
0.0
  0
LINE
  5
531
330
1E
100
AcDbEntity
  8
OBJECT
100
AcDbLine
 10
38.04878012531201
 20
12.65323408914956
 30
0.0
 11
38.03794045801375
 21
12.52217265727053
 31
0.0
  0
LINE
  5
532
330
1E
100
AcDbEntity
  8
OBJECT
100
AcDbLine
 10
37.52078012531201
 20
12.65323408914956
 30
0.0
 11
37.50994045801374
 21
12.52217265727053
 31
0.0
  0
LINE
  5
533
330
1E
100
AcDbEntity
  8
OBJECT
100
AcDbLine
 10
37.60878012531202
 20
12.65323408914956
 30
0.0
 11
37.59794045801375
 21
12.52217265727053
 31
0.0
  0
LINE
  5
534
330
1E
100
AcDbEntity
  8
OBJECT
100
AcDbLine
 10
37.78478012531202
 20
12.65323408914956
 30
0.0
 11
37.77394045801375
 21
12.52217265727053
 31
0.0
  0
LINE
  5
535
330
1E
100
AcDbEntity
  8
OBJECT
100
AcDbLine
 10
37.87278012531201
 20
12.65323408914956
 30
0.0
 11
37.86194045801375
 21
12.52217265727053
 31
0.0
  0
LINE
  5
536
330
1E
100
AcDbEntity
  8
OBJECT
100
AcDbLine
 10
37.96078012531202
 20
12.65323408914956
 30
0.0
 11
37.94994045801376
 21
12.52217265727053
 31
0.0
  0
LINE
  5
537
330
1E
100
AcDbEntity
  8
OBJECT
100
AcDbLine
 10
37.69678012531201
 20
12.65323408914956
 30
0.0
 11
37.68594045801374
 21
12.52217265727053
 31
0.0
  0
LINE
  5
538
330
1E
100
AcDbEntity
  8
OBJECT
100
AcDbLine
 10
38.22478012531202
 20
12.65323408914956
 30
0.0
 11
38.21394045801375
 21
12.52217265727053
 31
0.0
  0
LINE
  5
539
330
1E
100
AcDbEntity
  8
OBJECT
100
AcDbLine
 10
39.36878012531202
 20
12.65323408914956
 30
0.0
 11
39.35794045801376
 21
12.52217265727053
 31
0.0
  0
LINE
  5
53A
330
1E
100
AcDbEntity
  8
OBJECT
100
AcDbLine
 10
39.45678012531201
 20
12.65323408914956
 30
0.0
 11
39.44594045801375
 21
12.52217265727053
 31
0.0
  0
LINE
  5
53B
330
1E
100
AcDbEntity
  8
OBJECT
100
AcDbLine
 10
39.28078012531201
 20
12.65323408914956
 30
0.0
 11
39.26994045801375
 21
12.52217265727053
 31
0.0
  0
LINE
  5
53C
330
1E
100
AcDbEntity
  8
OBJECT
100
AcDbLine
 10
39.19278012531202
 20
12.65323408914956
 30
0.0
 11
39.18194045801375
 21
12.52217265727053
 31
0.0
  0
LINE
  5
53D
330
1E
100
AcDbEntity
  8
OBJECT
100
AcDbLine
 10
38.75278012531201
 20
12.65323408914956
 30
0.0
 11
38.74194045801374
 21
12.52217265727053
 31
0.0
  0
LINE
  5
53E
330
1E
100
AcDbEntity
  8
OBJECT
100
AcDbLine
 10
38.84078012531201
 20
12.65323408914956
 30
0.0
 11
38.82994045801375
 21
12.52217265727053
 31
0.0
  0
LINE
  5
53F
330
1E
100
AcDbEntity
  8
OBJECT
100
AcDbLine
 10
38.92878012531202
 20
12.65323408914956
 30
0.0
 11
38.91794045801374
 21
12.52217265727053
 31
0.0
  0
LINE
  5
540
330
1E
100
AcDbEntity
  8
OBJECT
100
AcDbLine
 10
39.01678012531202
 20
12.65323408914956
 30
0.0
 11
39.00594045801375
 21
12.52217265727053
 31
0.0
  0
LINE
  5
541
330
1E
100
AcDbEntity
  8
OBJECT
100
AcDbLine
 10
38.66478012531202
 20
12.65323408914956
 30
0.0
 11
38.65394045801375
 21
12.52217265727053
 31
0.0
  0
LINE
  5
542
330
1E
100
AcDbEntity
  8
OBJECT
100
AcDbLine
 10
38.31278012531203
 20
12.65323408914956
 30
0.0
 11
38.30194045801376
 21
12.52217265727053
 31
0.0
  0
LINE
  5
543
330
1E
100
AcDbEntity
  8
OBJECT
100
AcDbLine
 10
38.48878012531201
 20
12.65323408914956
 30
0.0
 11
38.47794045801375
 21
12.52217265727053
 31
0.0
  0
LINE
  5
544
330
1E
100
AcDbEntity
  8
OBJECT
100
AcDbLine
 10
38.57678012531201
 20
12.65323408914956
 30
0.0
 11
38.56594045801374
 21
12.52217265727053
 31
0.0
  0
LINE
  5
545
330
1E
100
AcDbEntity
  8
OBJECT
100
AcDbLine
 10
38.40078012531201
 20
12.65323408914956
 30
0.0
 11
38.38994045801375
 21
12.52217265727053
 31
0.0
  0
LINE
  5
546
330
1E
100
AcDbEntity
  8
OBJECT
100
AcDbLine
 10
39.10478012531202
 20
12.65323408914956
 30
0.0
 11
39.09394045801374
 21
12.52217265727053
 31
0.0
  0
LINE
  5
547
330
1E
100
AcDbEntity
  8
OBJECT
100
AcDbLine
 10
40.68878012531201
 20
12.65323408914956
 30
0.0
 11
40.67794045801375
 21
12.52217265727053
 31
0.0
  0
LINE
  5
548
330
1E
100
AcDbEntity
  8
OBJECT
100
AcDbLine
 10
39.72078012531202
 20
12.65323408914956
 30
0.0
 11
39.70994045801374
 21
12.52217265727053
 31
0.0
  0
LINE
  5
549
330
1E
100
AcDbEntity
  8
OBJECT
100
AcDbLine
 10
40.60078012531202
 20
12.65323408914956
 30
0.0
 11
40.58994045801376
 21
12.52217265727053
 31
0.0
  0
LINE
  5
54A
330
1E
100
AcDbEntity
  8
OBJECT
100
AcDbLine
 10
40.51278012531201
 20
12.65323408914956
 30
0.0
 11
40.50194045801375
 21
12.52217265727053
 31
0.0
  0
LINE
  5
54B
330
1E
100
AcDbEntity
  8
OBJECT
100
AcDbLine
 10
40.24878012531202
 20
12.65323408914956
 30
0.0
 11
40.23794045801375
 21
12.52217265727053
 31
0.0
  0
LINE
  5
54C
330
1E
100
AcDbEntity
  8
OBJECT
100
AcDbLine
 10
40.16078012531202
 20
12.65323408914956
 30
0.0
 11
40.14994045801374
 21
12.52217265727053
 31
0.0
  0
LINE
  5
54D
330
1E
100
AcDbEntity
  8
OBJECT
100
AcDbLine
 10
40.33678012531201
 20
12.65323408914956
 30
0.0
 11
40.32594045801374
 21
12.52217265727053
 31
0.0
  0
LINE
  5
54E
330
1E
100
AcDbEntity
  8
OBJECT
100
AcDbLine
 10
39.98478012531201
 20
12.65323408914956
 30
0.0
 11
39.97394045801374
 21
12.52217265727053
 31
0.0
  0
LINE
  5
54F
330
1E
100
AcDbEntity
  8
OBJECT
100
AcDbLine
 10
40.07278012531202
 20
12.65323408914956
 30
0.0
 11
40.06194045801374
 21
12.52217265727053
 31
0.0
  0
LINE
  5
550
330
1E
100
AcDbEntity
  8
OBJECT
100
AcDbLine
 10
39.89678012531202
 20
12.65323408914956
 30
0.0
 11
39.88594045801375
 21
12.52217265727053
 31
0.0
  0
LINE
  5
551
330
1E
100
AcDbEntity
  8
OBJECT
100
AcDbLine
 10
39.54478012531202
 20
12.65323408914956
 30
0.0
 11
39.53394045801376
 21
12.52217265727053
 31
0.0
  0
LINE
  5
552
330
1E
100
AcDbEntity
  8
OBJECT
100
AcDbLine
 10
39.63278012531202
 20
12.65323408914956
 30
0.0
 11
39.62194045801375
 21
12.52217265727053
 31
0.0
  0
LINE
  5
553
330
1E
100
AcDbEntity
  8
OBJECT
100
AcDbLine
 10
39.80878012531201
 20
12.65323408914956
 30
0.0
 11
39.79794045801374
 21
12.52217265727053
 31
0.0
  0
LINE
  5
554
330
1E
100
AcDbEntity
  8
OBJECT
100
AcDbLine
 10
40.42478012531202
 20
12.65323408914956
 30
0.0
 11
40.41394045801375
 21
12.52217265727053
 31
0.0
  0
LINE
  5
555
330
1E
100
AcDbEntity
  8
OBJECT
100
AcDbLine
 10
40.77678012531202
 20
12.65323408914956
 30
0.0
 11
40.76594045801376
 21
12.52217265727053
 31
0.0
  0
LINE
  5
556
330
1E
100
AcDbEntity
  8
OBJECT
100
AcDbLine
 10
40.86478012531201
 20
12.65323408914956
 30
0.0
 11
40.85394045801375
 21
12.52217265727053
 31
0.0
  0
LINE
  5
557
330
1E
100
AcDbEntity
  8
OBJECT
100
AcDbLine
 10
40.95278012531202
 20
12.65323408914956
 30
0.0
 11
40.94194045801375
 21
12.52217265727053
 31
0.0
  0
TEXT
  5
558
330
1E
100
AcDbEntity
  8
TEXT
100
AcDbText
 10
30.8571596830621
 20
9.345383275201136
 30
0.0
 40
0.4999995000000001
  1
STEEL LOCKING HASP, PANEL MOUNTING
 41
0.75
100
AcDbText
  0
TEXT
  5
559
330
1E
100
AcDbEntity
  8
TEXT
100
AcDbText
 10
30.8571596830621
 20
8.511884084701136
 30
0.0
 40
0.4999995000000001
  1
RAILS, GALVANIZED STEEL INNER PANEL
 41
0.75
100
AcDbText
  0
TEXT
  5
55A
330
1E
100
AcDbEntity
  8
TEXT
100
AcDbText
 10
30.8571596830621
 20
7.679384894201138
 30
0.0
 40
0.4999995000000001
  1
AND STAINLESS STEEL WALL MOUNTING
 41
0.75
100
AcDbText
  0
TEXT
  5
55B
330
1E
100
AcDbEntity
  8
TEXT
100
AcDbText
 10
30.8571596830621
 20
6.845885703701139
 30
0.0
 40
0.4999995000000001
  1
BRACKETS ARE NOT INCLUDED, BUT CAN
 41
0.75
100
AcDbText
  0
TEXT
  5
55C
330
1E
100
AcDbEntity
  8
TEXT
100
AcDbText
 10
30.8571596830621
 20
6.01338651320114
 30
0.0
 40
0.4999995000000001
  1
BE PURCHASED SEPARATELY.
 41
0.75
100
AcDbText
  0
LWPOLYLINE
  5
55D
330
1E
100
AcDbEntity
  8
DIM
100
AcDbPolyline
 90
        4
 70
     0
 10
56.49925800150664
 20
22.98033120801286
 40
0.0
 41
0.27
 10
56.15059591537684
 20
23.61027941992842
 40
0.0
 41
0.0
 10
54.36492531127301
 20
26.83655508589402
 40
0.0
 41
0.0
 10
53.64552261757577
 20
26.83655508589402
 40
0.0
 41
0.0
  0
TEXT
  5
563
330
1E
100
AcDbEntity
  8
DIM
100
AcDbText
 10
45.6671469103917
 20
24.94529203211633
 30
0.0
 40
0.499585203956422
  1
THREADED BRASS INSERT
 41
0.75
 72
     2
 11
53.28582127072714
 21
25.19508463409454
 31
0.0
100
AcDbText
 73
     2
  0
TEXT
  5
564
330
1E
100
AcDbEntity
  8
DIM
100
AcDbText
 10
47.04100622127186
 20
26.5867624839158
 30
0.0
 40
0.499585203956422
  1
0.630 [16] DIA. BOSS
 41
0.75
 72
     2
 11
53.28582127072714
 21
26.83655508589402
 31
0.0
100
AcDbText
 73
     2
  0
TEXT
  5
565
330
1E
100
AcDbEntity
  8
DIM
100
AcDbText
 10
48.10262477967927
 20
25.75412047732176
 30
0.0
 40
0.499585203956422
  1
WITH M5 x 0.8mm
 41
0.75
 72
     2
 11
53.28582127072714
 21
26.00391307929998
 31
0.0
100
AcDbText
 73
     2
  0
TEXT
  5
566
330
1E
100
AcDbEntity
  8
DIM
100
AcDbText
 10
49.91362114402129
 20
24.13646358691088
 30
0.0
 40
0.499585203956422
  1
(4) PLACES
 41
0.75
 72
     2
 11
53.28582127072714
 21
24.38625618888909
 31
0.0
100
AcDbText
 73
     2
  0
LINE
  5
567
330
1E
100
AcDbEntity
  8
OBJECT
100
AcDbLine
 10
23.71137456210246
 20
30.70007534740101
 30
0.0
 11
23.68337456210247
 21
30.78007534740103
 31
0.0
  0
LINE
  5
568
330
1E
100
AcDbEntity
  8
OBJECT
100
AcDbLine
 10
30.03187456210245
 20
30.78007534740101
 30
0.0
 11
29.30837456210243
 21
30.78007534740103
 31
0.0
  0
LINE
  5
569
330
1E
100
AcDbEntity
  8
OBJECT
100
AcDbLine
 10
30.05987456210243
 20
30.70007534740101
 30
0.0
 11
30.03187456210245
 21
30.78007534740101
 31
0.0
  0
LINE
  5
56A
330
1E
100
AcDbEntity
  8
OBJECT
100
AcDbLine
 10
29.06084633713046
 20
30.78007534740101
 30
0.0
 11
28.66690278707444
 21
30.78007534740101
 31
0.0
  0
LINE
  5
56B
330
1E
100
AcDbEntity
  8
OBJECT
100
AcDbLine
 10
29.28037456210244
 20
30.70007534740101
 30
0.0
 11
29.30837456210243
 21
30.78007534740103
 31
0.0
  0
LINE
  5
56C
330
1E
100
AcDbEntity
  8
OBJECT
100
AcDbLine
 10
29.42787456210243
 20
30.70007534740101
 30
0.0
 11
29.45587456210243
 21
30.78007534740102
 31
0.0
  0
LINE
  5
56D
330
1E
100
AcDbEntity
  8
OBJECT
100
AcDbLine
 10
29.08884633713044
 20
30.70007534740101
 30
0.0
 11
29.06084633713046
 21
30.78007534740101
 31
0.0
  0
LINE
  5
56E
330
1E
100
AcDbEntity
  8
OBJECT
100
AcDbLine
 10
28.63890278707445
 20
30.70007534740101
 30
0.0
 11
28.66690278707444
 21
30.78007534740101
 31
0.0
  0
LINE
  5
56F
330
1E
100
AcDbEntity
  8
OBJECT
100
AcDbLine
 10
28.13537456210243
 20
30.70007534740101
 30
0.0
 11
28.10737456210245
 21
30.78007534740101
 31
0.0
  0
LINE
  5
570
330
1E
100
AcDbEntity
  8
OBJECT
100
AcDbLine
 10
28.10737456210245
 20
30.78007534740101
 30
0.0
 11
27.84237456210242
 21
30.78007534740101
 31
0.0
  0
LINE
  5
571
330
1E
100
AcDbEntity
  8
OBJECT
100
AcDbLine
 10
27.81437456210243
 20
30.70007534740101
 30
0.0
 11
27.84237456210242
 21
30.78007534740101
 31
0.0
  0
LINE
  5
572
330
1E
100
AcDbEntity
  8
OBJECT
100
AcDbLine
 10
26.82837456210244
 20
30.70007534740101
 30
0.0
 11
26.85637456210242
 21
30.78007534740101
 31
0.0
  0
LINE
  5
573
330
1E
100
AcDbEntity
  8
OBJECT
100
AcDbLine
 10
27.14937456210244
 20
30.70007534740101
 30
0.0
 11
27.12137456210245
 21
30.78007534740101
 31
0.0
  0
LINE
  5
574
330
1E
100
AcDbEntity
  8
OBJECT
100
AcDbLine
 10
27.12137456210245
 20
30.78007534740101
 30
0.0
 11
26.85637456210242
 21
30.78007534740101
 31
0.0
  0
DIMENSION
  5
575
330
1E
100
AcDbEntity
  8
DIM
100
AcDbDimension
  2
*D25
 10
41.27194045801376
 20
14.024926318261
 30
0.0
 11
44.25944045801375
 21
14.024926318261
 31
0.0
 70
    32
 71
     5
 42
0.1103645000000029
  3
23NSTD
100
AcDbAlignedDimension
 13
41.16157595801375
 23
14.05872595458987
 33
0.0
 14
41.27194045801376
 24
14.05872595458987
 34
0.0
100
AcDbRotatedDimension
  0
LWPOLYLINE
  5
576
330
1E
100
AcDbEntity
  8
OBJECT
100
AcDbPolyline
 90
        4
 70
     1
 43
0.0
 10
24.73287456210245
 20
26.9310753474009
 10
25.08487456210245
 20
26.93107534740092
 10
25.08487456210245
 20
27.06207534740092
 10
24.73287456210245
 20
27.06207534740092
  0
LWPOLYLINE
  5
57C
330
1E
100
AcDbEntity
  8
OBJECT
100
AcDbPolyline
 90
        4
 70
     1
 43
0.0
 10
25.26187456210245
 20
26.9310753474009
 10
25.61387456210245
 20
26.93107534740092
 10
25.61387456210245
 20
27.06207534740092
 10
25.26187456210245
 20
27.06207534740092
  0
LWPOLYLINE
  5
582
330
1E
100
AcDbEntity
  8
OBJECT
100
AcDbPolyline
 90
        4
 70
     1
 43
0.0
 10
25.79087456210245
 20
26.9310753474009
 10
26.14287456210245
 20
26.93107534740092
 10
26.14287456210245
 20
27.06207534740092
 10
25.79087456210245
 20
27.06207534740092
  0
LWPOLYLINE
  5
588
330
1E
100
AcDbEntity
  8
OBJECT
100
AcDbPolyline
 90
        4
 70
     1
 43
0.0
 10
26.31987456210245
 20
26.9310753474009
 10
26.67187456210245
 20
26.93107534740092
 10
26.67187456210245
 20
27.06207534740092
 10
26.31987456210245
 20
27.06207534740092
  0
LWPOLYLINE
  5
58E
330
1E
100
AcDbEntity
  8
OBJECT
100
AcDbPolyline
 90
        4
 70
     0
 43
0.0
 10
23.29268168961209
 20
26.93107534740089
 10
24.02687456210245
 20
26.93107534740092
 10
24.02687456210245
 20
27.06207534740092
 10
23.29268168961209
 20
27.06207534740092
  0
LWPOLYLINE
  5
594
330
1E
100
AcDbEntity
  8
OBJECT
100
AcDbPolyline
 90
        4
 70
     0
 43
0.0
 10
29.69906743459281
 20
26.93107534740089
 10
28.96487456210246
 20
26.93107534740092
 10
28.96487456210246
 20
27.06207534740092
 10
29.69906743459281
 20
27.06207534740092
  0
LINE
  5
59A
330
1E
100
AcDbEntity
  8
OBJECT
100
AcDbLine
 10
29.24250586656856
 20
26.93107534740092
 30
0.0
 11
29.24514414910017
 21
27.06207534740092
 31
0.0
  0
LWPOLYLINE
  5
59B
330
1E
100
AcDbEntity
  8
OBJECT
100
AcDbPolyline
 90
        4
 70
     1
 43
0.0
 10
28.78787456210245
 20
26.9310753474009
 10
28.43587456210245
 20
26.93107534740092
 10
28.43587456210245
 20
27.06207534740092
 10
28.78787456210245
 20
27.06207534740092
  0
LWPOLYLINE
  5
5A1
330
1E
100
AcDbEntity
  8
OBJECT
100
AcDbPolyline
 90
        4
 70
     1
 43
0.0
 10
27.20087456210245
 20
26.9310753474009
 10
26.84887456210246
 20
26.93107534740092
 10
26.84887456210246
 20
27.06207534740092
 10
27.20087456210245
 20
27.06207534740092
  0
LWPOLYLINE
  5
5A7
330
1E
100
AcDbEntity
  8
OBJECT
100
AcDbPolyline
 90
        4
 70
     1
 43
0.0
 10
28.25887456210246
 20
26.9310753474009
 10
27.90687456210246
 20
26.93107534740092
 10
27.90687456210246
 20
27.06207534740092
 10
28.25887456210246
 20
27.06207534740092
  0
LWPOLYLINE
  5
5AD
330
1E
100
AcDbEntity
  8
OBJECT
100
AcDbPolyline
 90
        4
 70
     1
 43
0.0
 10
27.72987456210246
 20
26.9310753474009
 10
27.37787456210245
 20
26.93107534740092
 10
27.37787456210245
 20
27.06207534740092
 10
27.72987456210246
 20
27.06207534740092
  0
LWPOLYLINE
  5
5B3
330
1E
100
AcDbEntity
  8
OBJECT
100
AcDbPolyline
 90
        4
 70
     1
 43
0.0
 10
37.50294045801366
 20
20.92767265727053
 10
37.50294045801368
 20
20.51767265727053
 10
37.63394045801367
 20
20.51767265727053
 10
37.63394045801367
 20
20.92767265727053
  0
LWPOLYLINE
  5
5B9
330
1E
100
AcDbEntity
  8
OBJECT
100
AcDbPolyline
 90
        4
 70
     1
 43
0.0
 10
37.50294045801366
 20
20.39767265727053
 10
37.50294045801368
 20
19.98767265727053
 10
37.63394045801367
 20
19.98767265727053
 10
37.63394045801367
 20
20.39767265727053
  0
LWPOLYLINE
  5
5BF
330
1E
100
AcDbEntity
  8
OBJECT
100
AcDbPolyline
 90
        4
 70
     1
 43
0.0
 10
37.50294045801366
 20
19.86767265727053
 10
37.50294045801368
 20
19.45767265727053
 10
37.63394045801367
 20
19.45767265727053
 10
37.63394045801367
 20
19.86767265727053
  0
LWPOLYLINE
  5
5C5
330
1E
100
AcDbEntity
  8
OBJECT
100
AcDbPolyline
 90
        4
 70
     1
 43
0.0
 10
37.50294045801366
 20
19.33767265727053
 10
37.50294045801368
 20
18.92767265727053
 10
37.63394045801367
 20
18.92767265727053
 10
37.63394045801367
 20
19.33767265727053
  0
LWPOLYLINE
  5
5CB
330
1E
100
AcDbEntity
  8
OBJECT
100
AcDbPolyline
 90
        4
 70
     1
 43
0.0
 10
37.50294045801366
 20
18.80767265727053
 10
37.50294045801368
 20
18.39767265727053
 10
37.63394045801367
 20
18.39767265727053
 10
37.63394045801367
 20
18.80767265727053
  0
LWPOLYLINE
  5
5D1
330
1E
100
AcDbEntity
  8
OBJECT
100
AcDbPolyline
 90
        4
 70
     1
 43
0.0
 10
37.50294045801366
 20
18.27767265727053
 10
37.50294045801368
 20
17.86767265727053
 10
37.63394045801367
 20
17.86767265727053
 10
37.63394045801367
 20
18.27767265727053
  0
LWPOLYLINE
  5
5D7
330
1E
100
AcDbEntity
  8
OBJECT
100
AcDbPolyline
 90
        4
 70
     0
 43
0.0
 10
37.50294045801362
 20
22.7928655297609
 10
37.50294045801365
 20
21.57767265727053
 10
37.63394045801364
 20
21.57767265727053
 10
37.63394045801364
 20
22.7928655297609
  0
CIRCLE
  5
5DD
330
1E
100
AcDbEntity
  8
OBJECT
100
AcDbCircle
 10
56.68518161387283
 20
17.80767265727053
 30
0.0
 40
0.3904999999999999
  0
LINE
  5
5DE
330
1E
100
AcDbEntity
  8
OBJECT
100
AcDbLine
 10
6.130328967609484
 20
23.04467265727053
 30
0.0
 11
11.45825115972789
 21
23.04467265727053
 31
0.0
  0
LINE
  5
5DF
330
1E
100
AcDbEntity
  8
OBJECT
100
AcDbLine
 10
6.130328967609496
 20
12.57067265727053
 30
0.0
 11
11.45825115972799
 21
12.57067265727053
 31
0.0
  0
LWPOLYLINE
  5
5E0
330
1E
100
AcDbEntity
  8
OBJECT
100
AcDbPolyline
 90
       24
 70
     1
 43
0.0
 10
5.546290063668743
 20
22.32660842575925
 10
5.487790063668747
 20
22.32660842575925
 42
0.4142135623730964
 10
5.290790063668742
 20
22.12960842575924
 10
5.290790063668742
 20
13.48573688878183
 42
0.4142135623730964
 10
5.487790063668747
 20
13.28873688878183
 10
5.546290063668743
 20
13.28873688878183
 42
-0.4142135623730951
 10
6.046854295180041
 20
12.78817265727053
 10
6.046854295180041
 20
12.73167265727053
 42
0.4142135623730951
 10
6.243854295180041
 20
12.53467265727053
 10
11.34472583215744
 20
12.53467265727053
 42
0.4142135623730956
 10
11.54172583215744
 20
12.73167265727053
 10
11.54172583215744
 20
12.78817265727053
 42
-0.4142135623730951
 10
12.04229006366874
 20
13.28873688878183
 10
12.10079006366874
 20
13.28873688878183
 42
0.4142135623730956
 10
12.29779006366874
 20
13.48573688878183
 10
12.29779006366874
 20
22.12960842575924
 42
0.4142135623730957
 10
12.10079006366874
 20
22.32660842575925
 10
12.04229006366874
 20
22.32660842575925
 42
-0.4142135623730951
 10
11.54172583215744
 20
22.82717265727054
 10
11.54172583215744
 20
22.88367265727054
 42
0.4142135623730957
 10
11.34472583215744
 20
23.08067265727054
 10
6.243854295180041
 20
23.08067265727054
 42
0.4142135623730964
 10
6.046854295180041
 20
22.88367265727054
 10
6.046854295180041
 20
22.82717265727054
 42
-0.4142135623730951
  0
LWPOLYLINE
  5
5FA
330
1E
100
AcDbEntity
  8
OBJECT
100
AcDbPolyline
 90
       24
 70
     1
 43
0.0
 10
5.967854295180041
 20
22.82717265727054
 10
5.967854295180041
 20
22.88367265727054
 42
-0.4142135623730951
 10
6.243854295180041
 20
23.15967265727054
 10
11.34472583215744
 20
23.15967265727054
 42
-0.4142135623730951
 10
11.62072583215744
 20
22.88367265727054
 10
11.62072583215744
 20
22.82717265727054
 42
0.4142135623730953
 10
12.04229006366874
 20
22.40560842575925
 10
12.10079006366874
 20
22.40560842575925
 42
-0.4142135623730951
 10
12.37679006366874
 20
22.12960842575924
 10
12.37679006366874
 20
13.48573688878183
 42
-0.4142135623730951
 10
12.10079006366874
 20
13.20973688878183
 10
12.04229006366874
 20
13.20973688878183
 42
0.4142135623730953
 10
11.62072583215744
 20
12.78817265727053
 10
11.62072583215744
 20
12.73167265727053
 42
-0.4142135623730951
 10
11.34472583215744
 20
12.45567265727053
 10
6.243854295180041
 20
12.45567265727053
 42
-0.4142135623730951
 10
5.967854295180041
 20
12.73167265727053
 10
5.967854295180041
 20
12.78817265727053
 42
0.4142135623730957
 10
5.546290063668743
 20
13.20973688878183
 10
5.487790063668747
 20
13.20973688878183
 42
-0.4142135623730951
 10
5.211790063668741
 20
13.48573688878183
 10
5.211790063668743
 20
22.12960842575924
 42
-0.4142135623730951
 10
5.487790063668747
 20
22.40560842575925
 10
5.546290063668743
 20
22.40560842575925
 42
0.4142135623730956
  0
LWPOLYLINE
  5
614
330
1E
100
AcDbEntity
  8
HIDDEN
100
AcDbPolyline
 90
        3
 70
     0
 43
0.0
 10
38.60994045801375
 20
14.00667265727054
 10
38.60994045801375
 20
14.06321434235896
 10
37.42194045801375
 20
14.06321434235897
  0
LWPOLYLINE
  5
619
330
1E
100
AcDbEntity
  8
OBJECT
100
AcDbPolyline
 90
        4
 70
     0
 43
0.0
 10
37.42194045801375
 20
13.99167265727053
 10
38.60994045801375
 20
13.99167265727053
 10
38.60994045801375
 20
13.49167265727054
 10
37.42194045801375
 20
13.49167265727053
  0
LWPOLYLINE
  5
61F
330
1E
100
AcDbEntity
  8
HIDDEN
100
AcDbPolyline
 90
        3
 70
     0
 43
0.0
 10
38.60994045801375
 20
13.47667265727053
 10
38.60994045801375
 20
13.42013097218229
 10
37.42194045801375
 20
13.42013097218229
  0
LWPOLYLINE
  5
624
330
1E
100
AcDbEntity
  8
OBJECT
100
AcDbPolyline
 90
        9
 70
     1
 43
0.0
 10
23.24537456210247
 20
12.29567265727053
 42
-0.4142135623730951
 10
22.75337456210246
 20
12.78767265727053
 10
22.75337456210246
 20
22.82767265727053
 42
-0.4142135623730951
 10
23.24537456210247
 20
23.31967265727053
 10
29.74637456210246
 20
23.31967265727053
 42
-0.4142135623730951
 10
30.23837456210247
 20
22.82767265727053
 10
30.23837456210246
 20
22.82767265727054
 10
30.23837456210246
 20
12.78767265727053
 42
-0.4142135623730951
 10
29.74637456210247
 20
12.29567265727053
  0
LWPOLYLINE
  5
62F
330
1E
100
AcDbEntity
  8
HIDDEN
100
AcDbPolyline
 90
       24
 70
     1
 43
0.0
 10
23.61959626861377
 20
22.82701518227054
 10
23.61959626861377
 20
22.88367265727053
 42
-0.4142135623730956
 10
23.94559626861377
 20
23.20967265727053
 10
29.04615285559117
 20
23.20967265727053
 42
-0.4142135623730964
 10
29.37215285559117
 20
22.88367265727053
 10
29.37215285559117
 20
22.82701518227054
 42
0.414213562373094
 10
29.74371708710247
 20
22.45545095075924
 10
29.78987456210246
 20
22.45545095075924
 42
-0.4142135623730964
 10
30.11587456210246
 20
22.12945095075924
 10
30.11587456210246
 20
13.48589436378185
 42
-0.4142135623730964
 10
29.78987456210246
 20
13.15989436378185
 10
29.74371708710247
 20
13.15989436378185
 42
0.414213562373094
 10
29.37215285559117
 20
12.78833013227056
 10
29.37215285559117
 20
12.73167265727053
 42
-0.4142135623730964
 10
29.04615285559117
 20
12.40567265727053
 10
23.94559626861377
 20
12.40567265727053
 42
-0.4142135623730956
 10
23.61959626861377
 20
12.73167265727053
 10
23.61959626861377
 20
12.78833013227056
 42
0.4142135623730933
 10
23.24803203710247
 20
13.15989436378184
 10
23.20187456210245
 20
13.15989436378186
 42
-0.4142135623730852
 10
22.87587456210246
 20
13.48589436378185
 10
22.87587456210246
 20
22.12945095075924
 42
-0.4142135623730956
 10
23.20187456210246
 20
22.45545095075924
 10
23.24803203710247
 20
22.45545095075924
 42
0.4142135623730946
  0
LWPOLYLINE
  5
649
330
1E
100
AcDbEntity
  8
HIDDEN
100
AcDbPolyline
 90
       24
 70
     1
 43
0.0
 10
23.24803203710247
 20
22.27645095075924
 10
23.20187456210246
 20
22.27645095075924
 42
0.414213562373094
 10
23.05487456210246
 20
22.12945095075924
 10
23.05487456210246
 20
13.48589436378185
 42
0.414213562373094
 10
23.20187456210246
 20
13.33889436378185
 10
23.24803203710247
 20
13.33889436378185
 42
-0.4142135623730953
 10
23.79859626861377
 20
12.78833013227056
 10
23.79859626861377
 20
12.73167265727053
 42
0.414213562373094
 10
23.94559626861377
 20
12.58467265727053
 10
29.04615285559117
 20
12.58467265727053
 42
0.4142135623730922
 10
29.19315285559117
 20
12.73167265727053
 10
29.19315285559117
 20
12.78833013227056
 42
-0.4142135623730958
 10
29.74371708710247
 20
13.33889436378185
 10
29.78987456210246
 20
13.33889436378185
 42
0.4142135623730922
 10
29.93687456210246
 20
13.48589436378185
 10
29.93687456210246
 20
22.12945095075924
 42
0.4142135623730922
 10
29.78987456210246
 20
22.27645095075924
 10
29.74371708710247
 20
22.27645095075924
 42
-0.4142135623730863
 10
29.19315285559117
 20
22.82701518227053
 10
29.19315285559117
 20
22.88367265727053
 42
0.4142135623730852
 10
29.04615285559117
 20
23.03067265727052
 10
23.94559626861377
 20
23.03067265727052
 42
0.414213562373094
 10
23.79859626861377
 20
22.88367265727053
 10
23.79859626861377
 20
22.82701518227054
 42
-0.4142135623730973
  0
LWPOLYLINE
  5
663
330
1E
100
AcDbEntity
  8
HIDDEN
100
AcDbPolyline
 90
       24
 70
     1
 43
0.0
 10
23.24803203710242
 20
22.20545095075923
 10
23.20187456210246
 20
22.20545095075924
 42
0.4142135623731108
 10
23.12587456210246
 20
22.12945095075924
 10
23.12587456210246
 20
13.48589436378185
 42
0.4142135623730971
 10
23.20187456210246
 20
13.40989436378186
 10
23.24803203710247
 20
13.40989436378186
 42
-0.4142135623730949
 10
23.86959626861377
 20
12.78833013227056
 10
23.86959626861377
 20
12.73167265727053
 42
0.4142135623730868
 10
23.94559626861377
 20
12.65567265727053
 10
29.04615285559117
 20
12.65567265727053
 42
0.4142135623730988
 10
29.12215285559117
 20
12.73167265727053
 10
29.12215285559117
 20
12.78833013227056
 42
-0.4142135623730953
 10
29.74371708710247
 20
13.40989436378186
 10
29.78987456210246
 20
13.40989436378185
 42
0.4142135623731065
 10
29.86587456210246
 20
13.48589436378185
 10
29.86587456210246
 20
22.12945095075924
 42
0.414213562373086
 10
29.78987456210246
 20
22.20545095075924
 10
29.74371708710247
 20
22.20545095075924
 42
-0.4142135623730856
 10
29.12215285559117
 20
22.82701518227053
 10
29.12215285559117
 20
22.88367265727053
 42
0.4142135623730713
 10
29.04615285559117
 20
22.95967265727053
 10
23.94559626861377
 20
22.95967265727053
 42
0.4142135623730936
 10
23.86959626861377
 20
22.88367265727053
 10
23.86959626861377
 20
22.82701518227054
 42
-0.4142135623731209
  0
LWPOLYLINE
  5
67D
330
1E
100
AcDbEntity
  8
OBJECT
100
AcDbPolyline
 90
       16
 70
     1
 43
0.0
 10
23.7018475342528
 20
12.57367265727054
 10
29.28990158995212
 20
12.57367265727054
 42
-0.2694610159966864
 10
29.32378602422585
 20
12.5539818549222
 42
1.310863030605352
 10
29.96756536445079
 20
13.19776119514715
 42
-0.269461015996677
 10
29.94787456210246
 20
13.23164562942085
 10
29.94787456210246
 20
22.38369968512021
 42
-0.269461015996677
 10
29.96756536445079
 20
22.41758411939391
 42
1.310863030605352
 10
29.32378602422585
 20
23.06136345961886
 42
-0.2694610159966864
 10
29.28990158995214
 20
23.04167265727053
 10
23.7018475342528
 20
23.04167265727053
 42
-0.2694610159966864
 10
23.66796309997907
 20
23.06136345961886
 42
1.310863030605352
 10
23.02418375975412
 20
22.41758411939391
 42
-0.269461015996677
 10
23.04387456210246
 20
22.38369968512021
 10
23.04387456210246
 20
13.23164562942085
 42
-0.269461015996677
 10
23.02418375975412
 20
13.19776119514715
 42
1.310863030605352
 10
23.66796309997907
 20
12.5539818549222
 42
-0.2694610159966864
  0
LWPOLYLINE
  5
68F
330
1E
100
AcDbEntity
  8
OBJECT
100
AcDbPolyline
 90
        8
 70
     1
 43
0.0
 10
30.21587456210246
 20
12.77367265727052
 10
30.21587456210246
 20
22.84167265727053
 42
0.4142135623730951
 10
29.74787456210247
 20
23.30967265727053
 10
23.24387456210246
 20
23.30967265727053
 42
0.4142135623730951
 10
22.77587456210246
 20
22.84167265727053
 10
22.77587456210246
 20
12.77367265727054
 42
0.4142135623730951
 10
23.24387456210246
 20
12.30567265727053
 10
29.74787456210247
 20
12.30567265727053
 42
0.4142135623730951
  0
LWPOLYLINE
  5
699
330
1E
100
AcDbEntity
  8
OBJECT
100
AcDbPolyline
 90
        4
 70
     1
 43
0.0
 10
23.51110370734444
 20
12.59367265727046
 42
-1.141167289897584
 10
23.06387456210244
 20
13.04090180251255
 10
23.27147868622897
 20
13.19994826630744
 42
-0.3950203796262801
 10
23.67015017113935
 20
12.80127678139706
  0
LWPOLYLINE
  5
69F
330
1E
100
AcDbEntity
  8
OBJECT
100
AcDbPolyline
 90
        6
 70
     0
 43
0.0
 10
23.04387456210246
 20
13.46367265727052
 42
0.4142135623730951
 10
23.21987456210246
 20
13.28767265727052
 10
23.25787456210246
 20
13.28767265727052
 42
-0.4142135623730951
 10
23.75787456210245
 20
12.78767265727052
 10
23.75787456210245
 20
12.74967265727054
 42
0.4142135623730951
 10
23.93387456210246
 20
12.57367265727054
  0
LWPOLYLINE
  5
6A7
330
1E
100
AcDbEntity
  8
OBJECT
100
AcDbPolyline
 90
        4
 70
     1
 43
0.0
 10
23.51110370734444
 20
23.0216726572706
 42
1.141167289897584
 10
23.06387456210244
 20
22.57444351202852
 10
23.27147868622897
 20
22.41539704823363
 42
0.3950203796262801
 10
23.67015017113935
 20
22.814068533144
  0
LWPOLYLINE
  5
6AD
330
1E
100
AcDbEntity
  8
OBJECT
100
AcDbPolyline
 90
        6
 70
     0
 43
0.0
 10
23.04387456210246
 20
22.15167265727055
 42
-0.4142135623730951
 10
23.21987456210246
 20
22.32767265727055
 10
23.25787456210246
 20
22.32767265727055
 42
0.4142135623730951
 10
23.75787456210245
 20
22.82767265727055
 10
23.75787456210245
 20
22.86567265727053
 42
-0.4142135623730951
 10
23.93387456210246
 20
23.04167265727053
  0
LWPOLYLINE
  5
6B5
330
1E
100
AcDbEntity
  8
OBJECT
100
AcDbPolyline
 90
        4
 70
     1
 43
0.0
 10
29.48064541686048
 20
23.0216726572706
 42
-1.141167289897584
 10
29.92787456210248
 20
22.57444351202852
 10
29.72027043797595
 20
22.41539704823363
 42
-0.3950203796262801
 10
29.32159895306558
 20
22.814068533144
  0
LWPOLYLINE
  5
6BB
330
1E
100
AcDbEntity
  8
OBJECT
100
AcDbPolyline
 90
        6
 70
     0
 43
0.0
 10
29.94787456210246
 20
22.15167265727055
 42
0.4142135623730951
 10
29.77187456210246
 20
22.32767265727055
 10
29.73387456210246
 20
22.32767265727055
 42
-0.4142135623730951
 10
29.23387456210246
 20
22.82767265727055
 10
29.23387456210246
 20
22.86567265727053
 42
0.4142135623730951
 10
29.05787456210246
 20
23.04167265727053
  0
LWPOLYLINE
  5
6C3
330
1E
100
AcDbEntity
  8
OBJECT
100
AcDbPolyline
 90
        4
 70
     1
 43
0.0
 10
29.48064541686048
 20
12.59367265727046
 42
1.141167289897584
 10
29.92787456210248
 20
13.04090180251255
 10
29.72027043797595
 20
13.19994826630744
 42
0.3950203796262801
 10
29.32159895306558
 20
12.80127678139706
  0
LWPOLYLINE
  5
6C9
330
1E
100
AcDbEntity
  8
OBJECT
100
AcDbPolyline
 90
        6
 70
     0
 43
0.0
 10
29.94787456210246
 20
13.46367265727052
 42
-0.4142135623730951
 10
29.77187456210246
 20
13.28767265727052
 10
29.73387456210246
 20
13.28767265727052
 42
0.4142135623730951
 10
29.23387456210246
 20
12.78767265727052
 10
29.23387456210246
 20
12.74967265727054
 42
-0.4142135623730951
 10
29.05787456210246
 20
12.57367265727054
  0
LWPOLYLINE
  5
6D1
330
1E
100
AcDbEntity
  8
OBJECT
100
AcDbPolyline
 90
        8
 70
     1
 43
0.0
 10
60.42768161387284
 20
12.78767265727054
 42
-0.4142135623730951
 10
59.93568161387283
 20
12.29567265727053
 10
53.43468161387284
 20
12.29567265727053
 42
-0.4142135623730951
 10
52.94268161387283
 20
12.78767265727054
 10
52.94268161387284
 20
22.82767265727053
 42
-0.4142135623730951
 10
53.43468161387284
 20
23.31967265727053
 10
59.93568161387283
 20
23.31967265727053
 42
-0.4142135623730951
 10
60.42768161387284
 20
22.82767265727053
  0
LWPOLYLINE
  5
6DB
330
1E
100
AcDbEntity
  8
OBJECT
100
AcDbPolyline
 90
        8
 70
     1
 43
0.0
 10
12.53679006366874
 20
12.78767265727053
 10
12.53679006366874
 20
22.82767265727054
 42
0.4142135623730951
 10
12.04479006366874
 20
23.31967265727054
 10
5.54379006366874
 20
23.31967265727053
 42
0.4142135623730951
 10
5.051790063668741
 20
22.82767265727053
 10
5.051790063668743
 20
12.78767265727053
 42
0.4142135623730951
 10
5.54379006366874
 20
12.29567265727053
 10
12.04479006366874
 20
12.29567265727053
 42
0.4142135623730951
  0
LWPOLYLINE
  5
6E5
330
1E
100
AcDbEntity
  8
OBJECT
100
AcDbPolyline
 90
        4
 70
     0
 43
0.0
 10
5.462790063668744
 20
13.99167265727053
 10
5.403790063668745
 20
14.06321434235896
 10
5.403790063668745
 20
13.42013097218229
 10
5.462790063668744
 20
13.49167265727053
  0
LWPOLYLINE
  5
6EB
330
1E
100
AcDbEntity
  8
OBJECT
100
AcDbPolyline
 90
        4
 70
     0
 43
0.0
 10
5.462790063668744
 20
21.62367265727053
 10
5.403790063668745
 20
21.5521309721821
 10
5.403790063668745
 20
22.19521434235877
 10
5.462790063668744
 20
22.12367265727053
  0
LWPOLYLINE
  5
6F1
330
1E
100
AcDbEntity
  8
OBJECT
100
AcDbPolyline
 90
        4
 70
     0
 43
0.0
 10
12.12579006366873
 20
21.62367265727053
 10
12.18479006366873
 20
21.5521309721821
 10
12.18479006366873
 20
22.19521434235877
 10
12.12579006366873
 20
22.12367265727053
  0
LWPOLYLINE
  5
6F7
330
1E
100
AcDbEntity
  8
OBJECT
100
AcDbPolyline
 90
        4
 70
     0
 43
0.0
 10
12.12579006366873
 20
13.99167265727053
 10
12.18479006366873
 20
14.06321434235896
 10
12.18479006366873
 20
13.42013097218229
 10
12.12579006366873
 20
13.49167265727053
  0
LINE
  5
6FD
330
1E
100
AcDbEntity
  8
OBJECT
100
AcDbLine
 10
36.47094045801374
 20
13.40989436378185
 30
0.0
 11
37.42194045801376
 21
13.40989436378185
 31
0.0
  0
ARC
  5
6FE
330
1E
100
AcDbEntity
  8
OBJECT
100
AcDbCircle
 10
36.47094045801374
 20
13.52489436378185
 30
0.0
 40
0.115
100
AcDbArc
 50
179.9999999999998
 51
270.0
  0
LINE
  5
6FF
330
1E
100
AcDbEntity
  8
OBJECT
100
AcDbLine
 10
36.47094045801373
 20
13.28767265727051
 30
0.0
 11
37.17194045801375
 21
13.28767265727051
 31
0.0
  0
ARC
  5
700
330
1E
100
AcDbEntity
  8
OBJECT
100
AcDbCircle
 10
36.47094045801373
 20
13.51767265727052
 30
0.0
 40
0.23
100
AcDbArc
 50
180.0
 51
270.0
  0
LINE
  5
701
330
1E
100
AcDbEntity
  8
OBJECT
100
AcDbLine
 10
29.76818168961205
 20
13.10482249725483
 30
0.0
 11
29.92787456210248
 21
13.04090180251255
 31
0.0
  0
LINE
  5
702
330
1E
100
AcDbEntity
  8
OBJECT
100
AcDbLine
 10
37.17194045801375
 20
13.04090180251255
 30
0.0
 11
37.42194045801376
 21
13.04090180251255
 31
0.0
  0
LINE
  5
703
330
1E
100
AcDbEntity
  8
OBJECT
100
AcDbLine
 10
37.17194045801375
 20
12.82197978478029
 30
0.0
 11
37.42194045801376
 21
12.82197978478029
 31
0.0
  0
LINE
  5
704
330
1E
100
AcDbEntity
  8
OBJECT
100
AcDbLine
 10
37.17194045801375
 20
12.75336552976094
 30
0.0
 11
37.42194045801375
 21
12.75336552976094
 31
0.0
  0
LINE
  5
705
330
1E
100
AcDbEntity
  8
OBJECT
100
AcDbLine
 10
37.17194045801375
 20
12.47052281728624
 30
0.0
 11
37.42194045801376
 21
12.47052281728624
 31
0.0
  0
LINE
  5
706
330
1E
100
AcDbEntity
  8
OBJECT
100
AcDbLine
 10
36.47094045801375
 20
13.19994826630744
 30
0.0
 11
37.17194045801375
 21
13.19994826630744
 31
0.0
  0
LINE
  5
707
330
1E
100
AcDbEntity
  8
OBJECT
100
AcDbLine
 10
36.47094045801376
 20
12.80127678139707
 30
0.0
 11
37.17194045801375
 21
12.80127678139707
 31
0.0
  0
LINE
  5
708
330
1E
100
AcDbEntity
  8
OBJECT
100
AcDbLine
 10
36.47094045801376
 20
12.46867265727047
 30
0.0
 11
37.17194045801375
 21
12.46867265727047
 31
0.0
  0
LWPOLYLINE
  5
709
330
1E
100
AcDbEntity
  8
OBJECT
100
AcDbPolyline
 90
        8
 70
     1
 43
0.0
 10
53.28168161387289
 20
22.46331130143559
 42
-1.157360864714663
 10
53.68301891011413
 20
23.12017265727053
 10
59.68734431763423
 20
23.12017265727053
 42
-1.15736086471242
 10
60.08868161387324
 20
22.46331130143578
 10
60.0886816138729
 20
13.15203401310346
 42
-1.157360864710033
 10
59.6873443176346
 20
12.49517265726914
 10
53.6830189101126
 20
12.49517265727053
 42
-1.15736086471445
 10
53.28168161387285
 20
13.15203401310547
  0
INSERT
  5
713
330
1E
100
AcDbEntity
  8
TITLE
100
AcDbBlockReference
  2
HBS
 10
0.0
 20
0.0
 30
0.0
 41
4.0
 42
4.0
 43
4.0
  0
LWPOLYLINE
  5
714
330
1E
100
AcDbEntity
  8
OBJECT
100
AcDbPolyline
 90
        4
 70
     1
 43
0.0
 10
29.78806873592663
 20
22.51781344050141
 10
29.43451534533335
 20
22.87136683109469
 42
-0.3333333333333333
 10
29.69968038827831
 20
23.13653187403964
 10
30.05323377887158
 20
22.78297848344637
 42
-0.3333333333333333
  0
LWPOLYLINE
  5
71A
330
1E
100
AcDbEntity
  8
OBJECT
100
AcDbPolyline
 90
        4
 70
     1
 43
0.0
 10
29.78806873592663
 20
13.09753187403964
 10
29.43451534533335
 20
12.74397848344638
 42
0.3333333333333333
 10
29.69968038827831
 20
12.47881344050143
 10
30.05323377887158
 20
12.83236683109469
 42
0.3333333333333333
  0
LWPOLYLINE
  5
720
330
1E
100
AcDbEntity
  8
OBJECT
100
AcDbPolyline
 90
        4
 70
     1
 43
0.0
 10
23.2036803882783
 20
13.09753187403964
 10
23.55723377887156
 20
12.74397848344638
 42
-0.3333333333333333
 10
23.29206873592661
 20
12.47881344050143
 10
22.93851534533334
 20
12.83236683109469
 42
-0.3333333333333333
  0
LWPOLYLINE
  5
726
330
1E
100
AcDbEntity
  8
OBJECT
100
AcDbPolyline
 90
        4
 70
     1
 43
0.0
 10
23.2036803882783
 20
22.51781344050141
 10
23.55723377887156
 20
22.87136683109469
 42
0.3333333333333333
 10
23.29206873592661
 20
23.13653187403964
 10
22.93851534533334
 20
22.78297848344637
 42
0.3333333333333333
  0
INSERT
  5
72C
330
1E
100
AcDbEntity
  8
OBJECT
100
AcDbBlockReference
  2
*X1
 10
1.391405236448569
 20
-0.6615597605996051
 30
0.0
1001
ACAD
1000
HATCH
1002
{
1070
    16
1000
PLASTI
1040
1.5
1040
0.7853981633974483
1002
}
  0
INSERT
  5
72D
330
1E
100
AcDbEntity
  8
OBJECT
100
AcDbBlockReference
  2
*X2
 10
1.391405236448569
 20
-0.6615597605996051
 30
0.0
1001
ACAD
1000
HATCH
1002
{
1070
    16
1000
PLASTI
1040
1.5
1040
2.356194490192344
1002
}
  0
TEXT
  5
72E
330
1E
100
AcDbEntity
  8
TEXT
100
AcDbText
 10
15.81821104393063
 20
2.090245879929749
 30
0.0
 40
0.5000002187500959
  1
B
 41
0.75
 72
     4
 11
15.94321109861816
 21
2.340245989304797
 31
0.0
100
AcDbText
  0
TEXT
  5
72F
330
1E
100
AcDbEntity
  8
TEXT
100
AcDbText
 10
18.29437104393063
 20
2.090245879929749
 30
0.0
 40
0.5000002187500959
  1
C
 41
0.75
 72
     4
 11
18.41937109861816
 21
2.340245989304797
 31
0.0
100
AcDbText
  0
TEXT
  5
730
330
1E
100
AcDbEntity
  8
TEXT
100
AcDbText
 10
20.77053104393063
 20
2.090245879929749
 30
0.0
 40
0.5000002187500959
  1
D
 41
0.75
 72
     4
 11
20.89553109861816
 21
2.340245989304797
 31
0.0
100
AcDbText
  0
TEXT
  5
731
330
1E
100
AcDbEntity
  8
TEXT
100
AcDbText
 10
23.24669104393063
 20
2.090245879929749
 30
0.0
 40
0.5000002187500959
  1
E
 41
0.75
 72
     4
 11
23.37169109861816
 21
2.340245989304797
 31
0.0
100
AcDbText
  0
TEXT
  5
732
330
1E
100
AcDbEntity
  8
TEXT
100
AcDbText
 10
25.72285104393063
 20
2.090245879929749
 30
0.0
 40
0.5000002187500959
  1
F
 41
0.75
 72
     4
 11
25.84785109861816
 21
2.340245989304797
 31
0.0
100
AcDbText
  0
TEXT
  5
733
330
1E
100
AcDbEntity
  8
TEXT
100
AcDbText
 10
28.19901104393063
 20
2.090245879929749
 30
0.0
 40
0.5000002187500959
  1
G
 41
0.75
 72
     4
 11
28.32401109861816
 21
2.340245989304797
 31
0.0
100
AcDbText
  0
TEXT
  5
734
330
1E
100
AcDbEntity
  8
TEXT
100
AcDbText
 10
30.67517104393063
 20
2.090245879929749
 30
0.0
 40
0.5000002187500959
  1
H
 41
0.75
 72
     4
 11
30.80017109861816
 21
2.340245989304797
 31
0.0
100
AcDbText
  0
TEXT
  5
735
330
1E
100
AcDbEntity
  8
TEXT
100
AcDbText
 10
33.15133104393064
 20
2.090245879929749
 30
0.0
 40
0.5000002187500959
  1
J
 41
0.75
 72
     4
 11
33.27633109861816
 21
2.340245989304797
 31
0.0
100
AcDbText
  0
TEXT
  5
736
330
1E
100
AcDbEntity
  8
TEXT
100
AcDbText
 10
35.62749104393063
 20
2.090245879929749
 30
0.0
 40
0.5000002187500959
  1
K
 41
0.75
 72
     4
 11
35.75249109861815
 21
2.340245989304797
 31
0.0
100
AcDbText
  0
TEXT
  5
737
330
1E
100
AcDbEntity
  8
TEXT
100
AcDbText
 10
38.10365104393063
 20
2.090245879929749
 30
0.0
 40
0.5000002187500959
  1
L
 41
0.75
 72
     4
 11
38.22865109861816
 21
2.340245989304797
 31
0.0
100
AcDbText
  0
TEXT
  5
738
330
1E
100
AcDbEntity
  8
TEXT
100
AcDbText
 10
40.57981104393063
 20
2.090245879929749
 30
0.0
 40
0.5000002187500959
  1
M
 41
0.75
 72
     4
 11
40.70481109861816
 21
2.340245989304797
 31
0.0
100
AcDbText
  0
TEXT
  5
739
330
1E
100
AcDbEntity
  8
TEXT
100
AcDbText
 10
43.05597104393063
 20
2.090245879929749
 30
0.0
 40
0.5000002187500959
  1
N
 41
0.75
 72
     4
 11
43.18097109861816
 21
2.340245989304797
 31
0.0
100
AcDbText
  0
TEXT
  5
73A
330
1E
100
AcDbEntity
  8
TEXT
100
AcDbText
 10
45.53213104393064
 20
2.090245879929749
 30
0.0
 40
0.5000002187500959
  1
P
 41
0.75
 72
     4
 11
45.65713109861817
 21
2.340245989304797
 31
0.0
100
AcDbText
  0
TEXT
  5
73B
330
1E
100
AcDbEntity
  8
TEXT
100
AcDbText
 10
48.00829104393065
 20
2.090245879929749
 30
0.0
 40
0.5000002187500959
  1
R
 41
0.75
 72
     4
 11
48.13329109861817
 21
2.340245989304797
 31
0.0
100
AcDbText
  0
TEXT
  5
73C
330
1E
100
AcDbEntity
  8
TEXT
100
AcDbText
 10
50.48445104393064
 20
2.090245879929749
 30
0.0
 40
0.5000002187500959
  1
S
 41
0.75
 72
     4
 11
50.60945109861816
 21
2.340245989304797
 31
0.0
100
AcDbText
  0
TEXT
  5
73D
330
1E
100
AcDbEntity
  8
TEXT
100
AcDbText
 10
52.96061104393064
 20
2.090245879929749
 30
0.0
 40
0.5000002187500959
  1
T
 41
0.75
 72
     4
 11
53.08561109861816
 21
2.340245989304797
 31
0.0
100
AcDbText
  0
TEXT
  5
73E
330
1E
100
AcDbEntity
  8
TEXT
100
AcDbText
 10
55.43677104393063
 20
2.090245879929749
 30
0.0
 40
0.5000002187500959
  1
U
 41
0.75
 72
     4
 11
55.56177109861816
 21
2.340245989304797
 31
0.0
100
AcDbText
  0
TEXT
  5
73F
330
1E
100
AcDbEntity
  8
TEXT
100
AcDbText
 10
57.85043101658688
 20
2.090245879929749
 30
0.0
 40
0.5000002187500959
  1
V
 41
0.75
 72
     4
 11
58.03793109861817
 21
2.340245989304797
 31
0.0
100
AcDbText
  0
TEXT
  5
740
330
1E
100
AcDbEntity
  8
TEXT
100
AcDbText
 10
60.32659101658688
 20
2.090245879929749
 30
0.0
 40
0.5000002187500959
  1
W
 41
0.75
 72
     4
 11
60.51409109861817
 21
2.340245989304797
 31
0.0
100
AcDbText
  0
TEXT
  5
741
330
1E
100
AcDbEntity
  8
TEXT
100
AcDbText
 10
13.34234643857232
 20
2.090836669213124
 30
0.0
 40
0.4988186401833463
  1
A
 41
0.75
 72
     4
 11
13.46705109861816
 21
2.340245989304797
 31
0.0
100
AcDbText
  0
LINE
  5
742
330
1E
100
AcDbEntity
  8
TITLE
100
AcDbLine
 10
61.75199999999995
 20
1.921796791443831
 30
0.0
 11
0.247999999999994
 21
1.921796791443831
 31
0.0
  0
LINE
  5
743
330
1E
100
AcDbEntity
  8
TITLE
100
AcDbLine
 10
61.75199999999995
 20
2.75869518716577
 30
0.0
 11
12.22897109861816
 21
2.75869518716577
 31
0.0
  0
LINE
  5
744
330
1E
100
AcDbEntity
  8
TITLE
100
AcDbLine
 10
12.22897109861816
 20
3.59559358288768
 30
0.0
 11
0.2480000000000047
 21
3.595593582887708
 31
0.0
  0
TEXT
  5
745
330
1E
100
AcDbEntity
  8
TEXT
100
AcDbText
 10
0.7053605180222656
 20
0.8252536383466946
 30
0.0
 40
0.5000000000000001
  1
NBD-10442
 41
0.75
 72
     1
 11
2.236610518022265
 21
0.8252536383466946
 31
0.0
100
AcDbText
  0
TEXT
  5
746
330
1E
100
AcDbEntity
  8
TEXT
100
AcDbText
 10
1.299110518022265
 20
2.082809262235265
 30
0.0
 40
0.5000000000000001
  1
COVER
 41
0.75
 72
     1
 11
2.236610518022265
 21
2.082809262235265
 31
0.0
100
AcDbText
  0
TEXT
  5
747
330
1E
100
AcDbEntity
  8
TEXT
100
AcDbText
 10
1.424110518022265
 20
2.936307645440571
 30
0.0
 40
0.5000000000000001
  1
SOLID
 41
0.75
 72
     1
 11
2.236610518022265
 21
2.936307645440571
 31
0.0
100
AcDbText
  0
TEXT
  5
748
330
1E
100
AcDbEntity
  8
TEXT
100
AcDbText
 10
2.922582634141463
 20
3.76948432355018
 30
0.0
 40
0.5000000000000001
  1
PART NO.
 41
0.75
 72
     1
 11
4.235082634141463
 21
3.76948432355018
 31
0.0
100
AcDbText
  0
TEXT
  5
749
330
1E
100
AcDbEntity
  8
TEXT
100
AcDbText
 10
5.296054750260616
 20
2.082809262235265
 30
0.0
 40
0.5000000000000001
  1
COVER
 41
0.75
 72
     1
 11
6.233554750260616
 21
2.082809262235265
 31
0.0
100
AcDbText
  0
TEXT
  5
74A
330
1E
100
AcDbEntity
  8
TEXT
100
AcDbText
 10
5.358554750260616
 20
2.936307645440571
 30
0.0
 40
0.5000000000000001
  1
CLEAR
 41
0.75
 72
     1
 11
6.233554750260616
 21
2.936307645440571
 31
0.0
100
AcDbText
  0
TEXT
  5
74B
330
1E
100
AcDbEntity
  8
TEXT
100
AcDbText
 10
4.702304750260616
 20
0.8252536383466946
 30
0.0
 40
0.5000000000000001
  1
NBD-10462
 41
0.75
 72
     1
 11
6.233554750260616
 21
0.8252536383466946
 31
0.0
100
AcDbText
  0
LINE
  5
74C
330
1E
100
AcDbEntity
  8
TITLE
100
AcDbLine
 10
61.75199999999995
 20
4.432491978609618
 30
0.0
 11
0.247999999999994
 21
4.432491978609618
 31
0.0
  0
TEXT
  5
74D
330
1E
100
AcDbEntity
  8
TEXT
100
AcDbText
 10
34.88187109861816
 20
3.28319358288773
 30
0.0
 40
0.6248000000000001
  1
DIMENSIONS
 41
0.75
 72
     4
 11
36.99057109861816
 21
3.59559358288773
 31
0.0
100
AcDbText
  0
TEXT
  5
74E
330
1E
100
AcDbEntity
  8
TEXT
100
AcDbText
 10
44.84048935288647
 20
7.587527771955876
 30
0.0
 40
0.5005347593582891
  1
DIMENSIONS =
 41
0.75
100
AcDbText
  0
TEXT
  5
74F
330
1E
100
AcDbEntity
  8
TEXT
100
AcDbText
 10
50.41231620479647
 20
8.017060655537491
 30
0.0
 40
0.5005347593582891
  1
INCHES
 41
0.75
 72
     1
 11
51.41338572351305
 21
8.017060655537491
 31
0.0
100
AcDbText
  0
TEXT
  5
750
330
1E
100
AcDbEntity
  8
TEXT
100
AcDbText
 10
49.28611299624033
 20
7.182836056607008
 30
0.0
 40
0.5005347593582891
  1
[MILLIMETERS]
 41
0.75
 72
     1
 11
51.41338572351305
 21
7.182836056607008
 31
0.0
100
AcDbText
  0
TEXT
  5
751
330
1E
100
AcDbEntity
  8
TEXT
100
AcDbText
 10
48.15232569832623
 20
37.69924696987068
 30
0.0
 40
0.4999999999999999
  1
%%UINDUSTRY STANDARDS:
 41
0.75
100
AcDbText
  0
TEXT
  5
752
330
1E
100
AcDbEntity
  8
TEXT
100
AcDbText
 10
48.65140994741047
 20
36.032580303204
 30
0.0
 40
0.4999999999999999
  1
UL508 TYPE 1, 2, 4, 4X INDOOR, 12 & 13
 41
0.75
100
AcDbText
  0
TEXT
  5
753
330
1E
100
AcDbEntity
  8
TEXT
100
AcDbText
 10
48.65140994741047
 20
35.19924696987068
 30
0.0
 40
0.4999999999999999
  1
NEMA TYPE 1, 2, 4, 4X, 12 & 13
 41
0.75
100
AcDbText
  0
TEXT
  5
754
330
1E
100
AcDbEntity
  8
TEXT
100
AcDbText
 10
48.65140994741047
 20
34.36591363653737
 30
0.0
 40
0.4999999999999999
  1
IEC529-IP65
 41
0.75
100
AcDbText
  0
TEXT
  5
755
330
1E
100
AcDbEntity
  8
TEXT
100
AcDbText
 10
10.3272504283087
 20
35.2043654724215
 30
0.0
 40
0.4999999999999999
  1
UL94-5VB FLAMMABILITY RATING
 41
0.75
100
AcDbText
  0
TEXT
  5
757
330
1E
100
AcDbEntity
  8
TEXT
100
AcDbText
 10
44.84048935288647
 20
5.560372955002698
 30
0.0
 40
0.5005347593582891
  1
%%UNOTE%%U: ALL DIMENSIONS HAVE %%P0.039 [%%P1] TOLERANCE
 41
0.75
100
AcDbText
  0
TEXT
  5
758
330
1E
100
AcDbEntity
  8
TEXT
100
AcDbText
 10
46.44472298919543
 20
4.749141404200543
 30
0.0
 40
0.5005347593582891
  1
 UNLESS OTHERWISE SPECIFIED
 41
0.75
100
AcDbText
  0
LINE
  5
759
330
1E
100
AcDbEntity
  8
TITLE
100
AcDbLine
 10
61.75199999999995
 20
1.084898395721914
 30
0.0
 11
12.22897109861814
 21
1.084898395721914
 31
0.0
  0
TEXT
  5
75A
330
1E
100
AcDbEntity
  8
TEXT
100
AcDbText
 10
10.3272504283087
 20
32.71460247752317
 30
0.0
 40
0.4999999999999999
  1
UL94V-0 FLAMMABILITY RATING
 41
0.75
100
AcDbText
  0
LINE
  5
75B
330
1E
100
AcDbEntity
  8
TITLE
100
AcDbLine
 10
4.235082634141441
 20
0.2480000000000047
 30
0.0
 11
4.235082634141463
 21
3.595593582887708
 31
0.0
  0
LINE
  5
75C
330
1E
100
AcDbEntity
  8
TITLE
100
AcDbLine
 10
12.22897109861817
 20
6.106288770053474
 30
0.0
 11
0.2480000000000047
 21
6.106288770053474
 31
0.0
  0
TEXT
  5
75D
330
1E
100
AcDbEntity
  8
TEXT
100
AcDbText
 10
3.112192236127416
 20
5.447002832606358
 30
0.0
 40
0.5000000000000001
  1
INDOOR
 41
0.75
 72
     1
 11
4.112192236127416
 21
5.447002832606358
 31
0.0
100
AcDbText
  0
TEXT
  5
75E
330
1E
100
AcDbEntity
  8
TEXT
100
AcDbText
 10
2.862192236127416
 20
4.593504449401052
 30
0.0
 40
0.5000000000000001
  1
VERSION
 41
0.75
 72
     1
 11
4.112192236127416
 21
4.593504449401052
 31
0.0
100
AcDbText
  0
TEXT
  5
75F
330
1E
100
AcDbEntity
  8
TEXT
100
AcDbText
 10
9.292998982498989
 20
2.082809262235244
 30
0.0
 40
0.5000000000000001
  1
COVER
 41
0.75
 72
     1
 11
10.23049898249899
 21
2.082809262235244
 31
0.0
100
AcDbText
  0
TEXT
  5
760
330
1E
100
AcDbEntity
  8
TEXT
100
AcDbText
 10
8.667998982498966
 20
0.8252536383466946
 30
0.0
 40
0.5000000000000001
  1
NBD-15442
 41
0.75
 72
     1
 11
10.23049898249896
 21
0.8252536383466946
 31
0.0
100
AcDbText
  0
TEXT
  5
761
330
1E
100
AcDbEntity
  8
TEXT
100
AcDbText
 10
9.417998982498989
 20
2.936307645440571
 30
0.0
 40
0.5000000000000001
  1
SOLID
 41
0.75
 72
     1
 11
10.23049898249899
 21
2.936307645440571
 31
0.0
100
AcDbText
  0
TEXT
  5
762
330
1E
100
AcDbEntity
  8
TEXT
100
AcDbText
 10
8.980498982498989
 20
4.593504449401052
 30
0.0
 40
0.5000000000000001
  1
VERSION
 41
0.75
 72
     1
 11
10.23049898249899
 21
4.593504449401052
 31
0.0
100
AcDbText
  0
TEXT
  5
763
330
1E
100
AcDbEntity
  8
TEXT
100
AcDbText
 10
8.980498982498989
 20
5.447002832606358
 30
0.0
 40
0.5000000000000001
  1
OUTDOOR
 41
0.75
 72
     1
 11
10.23049898249899
 21
5.447002832606358
 31
0.0
100
AcDbText
  0
TEXT
  5
764
330
1E
100
AcDbEntity
  8
TEXT
100
AcDbText
 10
8.917998982498989
 20
3.769484323550159
 30
0.0
 40
0.5000000000000001
  1
PART NO.
 41
0.75
 72
     1
 11
10.23049898249899
 21
3.769484323550159
 31
0.0
100
AcDbText
  0
TEXT
  5
765
330
1E
100
AcDbEntity
  8
TEXT
100
AcDbText
 10
48.65140994741047
 20
36.86591363653735
 30
0.0
 40
0.4999999999999999
  1
%%uINDOOR VERSION
 41
0.75
100
AcDbText
  0
TEXT
  5
766
330
1E
100
AcDbEntity
  8
TEXT
100
AcDbText
 10
48.65140994741047
 20
31.0754034160838
 30
0.0
 40
0.4999999999999999
  1
NEMA TYPE 1, 2, 4, 4X, 12 & 13
 41
0.75
100
AcDbText
  0
TEXT
  5
767
330
1E
100
AcDbEntity
  8
TEXT
100
AcDbText
 10
48.65140994741047
 20
31.90873674941713
 30
0.0
 40
0.4999999999999999
  1
UL508 TYPE 1, 2, 4, 4X, 12 & 13
 41
0.75
100
AcDbText
  0
TEXT
  5
768
330
1E
100
AcDbEntity
  8
TEXT
100
AcDbText
 10
48.65140994741047
 20
32.74207008275046
 30
0.0
 40
0.4999999999999999
  1
%%uOUTDOOR VERSION
 41
0.75
100
AcDbText
  0
TEXT
  5
769
330
1E
100
AcDbEntity
  8
TEXT
100
AcDbText
 10
48.65140994741047
 20
30.24207008275046
 30
0.0
 40
0.4999999999999999
  1
IEC529-IP65
 41
0.75
100
AcDbText
  0
TEXT
  5
76A
330
1E
100
AcDbEntity
  8
TEXT
100
AcDbText
 10
10.3272504283087
 20
33.54793581085651
 30
0.0
 40
0.4999999999999999
  1
POLYCARBONATE PLASTIC
 41
0.75
100
AcDbText
  0
LINE
  5
76B
330
1E
100
AcDbEntity
  8
TEXT
100
AcDbLine
 10
33.1194109841649
 20
36.86591363653734
 30
0.0
 11
40.31149283771532
 21
36.86591363653734
 31
0.0
  0
TEXT
  5
76C
330
1E
100
AcDbEntity
  8
TEXT
100
AcDbText
 10
40.56103496225744
 20
36.032580303204
 30
0.0
 40
0.4999999999999999
  1
LIGHT GRAY OR CLEAR
 41
0.75
100
AcDbText
  0
TEXT
  5
76D
330
1E
100
AcDbEntity
  8
TEXT
100
AcDbText
 10
10.3272504283087
 20
36.03769880575482
 30
0.0
 40
0.4999999999999999
  1
ABS/PC BLENDED PLASTIC
 41
0.75
100
AcDbText
  0
LINE
  5
76E
330
1E
100
AcDbEntity
  8
TEXT
100
AcDbLine
 10
6.158982120301601
 20
33.54793581085651
 30
0.0
 11
10.07770830376657
 21
33.54793581085651
 31
0.0
  0
LINE
  5
76F
330
1E
100
AcDbEntity
  8
TEXT
100
AcDbLine
 10
33.59978676932014
 20
36.032580303204
 30
0.0
 11
40.31149283771532
 21
36.032580303204
 31
0.0
  0
TEXT
  5
770
330
1E
100
AcDbEntity
  8
TEXT
100
AcDbText
 10
1.806223319115488
 20
36.03769880575482
 30
0.0
 40
0.4999999999999999
  1
SOLID BODY & COVER
 41
0.75
100
AcDbText
  0
TEXT
  5
771
330
1E
100
AcDbEntity
  8
TEXT
100
AcDbText
 10
1.806223319115488
 20
33.54793581085651
 30
0.0
 40
0.4999999999999999
  1
CLEAR COVER
 41
0.75
100
AcDbText
  0
TEXT
  5
772
330
1E
100
AcDbEntity
  8
TEXT
100
AcDbText
 10
31.54092360397998
 20
36.032580303204
 30
0.0
 40
0.4999999999999999
  1
COVER
 41
0.75
100
AcDbText
  0
TEXT
  5
773
330
1E
100
AcDbEntity
  8
TEXT
100
AcDbText
 10
1.191528693528681
 20
36.87103213908817
 30
0.0
 40
0.4999999999999999
  1
%%UINDOOR VERSION
 41
0.75
100
AcDbText
  0
TEXT
  5
774
330
1E
100
AcDbEntity
  8
TEXT
100
AcDbText
 10
31.54092360397998
 20
36.86591363653734
 30
0.0
 40
0.4999999999999999
  1
BODY
 41
0.75
100
AcDbText
  0
TEXT
  5
775
330
1E
100
AcDbEntity
  8
TEXT
100
AcDbText
 10
30.92622897839317
 20
37.69924696987068
 30
0.0
 40
0.4999999999999999
  1
%%UFINISH:
 41
0.75
100
AcDbText
  0
LINE
  5
776
330
1E
100
AcDbEntity
  8
TEXT
100
AcDbLine
 10
8.70602824352106
 20
36.03769880575482
 30
0.0
 11
10.07770830376657
 21
36.03769880575482
 31
0.0
  0
TEXT
  5
777
330
1E
100
AcDbEntity
  8
TEXT
100
AcDbText
 10
40.56103496225742
 20
36.86591363653734
 30
0.0
 40
0.4999999999999999
  1
LIGHT GRAY
 41
0.75
100
AcDbText
  0
TEXT
  5
778
330
1E
100
AcDbEntity
  8
TEXT
100
AcDbText
 10
0.6924444444444334
 20
37.69924696987068
 30
0.0
 40
0.4999999999999999
  1
%%UMATERIAL:
 41
0.75
100
AcDbText
  0
TEXT
  5
77A
330
1E
100
AcDbEntity
  8
TEXT
100
AcDbText
 10
10.3272504283087
 20
31.88767940060012
 30
0.0
 40
0.4999999999999999
  1
UV STABILIZED
 41
0.75
100
AcDbText
  0
TEXT
  5
77B
330
1E
100
AcDbEntity
  8
TEXT
100
AcDbText
 10
10.3272504283087
 20
29.38830102108636
 30
0.0
 40
0.4999999999999999
  1
UL94-5VA FLAMMABILITY RATING
 41
0.75
100
AcDbText
  0
TEXT
  5
77D
330
1E
100
AcDbEntity
  8
TEXT
100
AcDbText
 10
10.3272504283087
 20
28.5613779441633
 30
0.0
 40
0.4999999999999999
  1
UV STABILIZED
 41
0.75
100
AcDbText
  0
TEXT
  5
77E
330
1E
100
AcDbEntity
  8
TEXT
100
AcDbText
 10
1.806223319115488
 20
30.22163435441972
 30
0.0
 40
0.4999999999999999
  1
SOLID BODY & COVER
 41
0.75
100
AcDbText
  0
TEXT
  5
77F
330
1E
100
AcDbEntity
  8
TEXT
100
AcDbText
 10
1.191528693528681
 20
31.05496768775305
 30
0.0
 40
0.4999999999999999
  1
%%UOUTDOOR VERSION
 41
0.75
100
AcDbText
  0
TEXT
  5
780
330
1E
100
AcDbEntity
  8
TEXT
100
AcDbText
 10
10.3272504283087
 20
30.22163435441972
 30
0.0
 40
0.4999999999999999
  1
PBT/PC BLENDED PLASTIC
 41
0.75
100
AcDbText
  0
LINE
  5
781
330
1E
100
AcDbEntity
  8
TEXT
100
AcDbLine
 10
8.677373682462729
 20
30.22163435441972
 30
0.0
 11
10.07770830376657
 21
30.22163435441972
 31
0.0
  0
TEXT
  5
782
330
1E
100
AcDbEntity
  8
TEXT
100
AcDbText
 10
30.92622897839317
 20
34.63819819487791
 30
0.0
 40
0.4999999999999999
  1
COVER INCLUDES GRAY POLYURETHANE GASKET.
 41
0.75
100
AcDbText
  0
LINE
  5
783
330
1E
100
AcDbEntity
  8
TITLE
100
AcDbLine
 10
8.23202686637979
 20
0.2480000000000047
 30
0.0
 11
8.232026866379815
 21
6.106288770053474
 31
0.0
  0
LINE
  5
784
330
1E
100
AcDbEntity
  8
TITLE
100
AcDbLine
 10
12.22897109861815
 20
0.2480000000000047
 30
0.0
 11
12.22897109861817
 21
6.106288770053474
 31
0.0
  0
LINE
  5
785
330
1E
100
AcDbEntity
  8
TITLE
100
AcDbLine
 10
14.70513109861815
 20
0.2480000000000047
 30
0.0
 11
14.70513109861816
 21
2.75869518716577
 31
0.0
  0
LINE
  5
786
330
1E
100
AcDbEntity
  8
TITLE
100
AcDbLine
 10
17.18129109861815
 20
0.2480000000000047
 30
0.0
 11
17.18129109861816
 21
2.75869518716577
 31
0.0
  0
LINE
  5
787
330
1E
100
AcDbEntity
  8
TITLE
100
AcDbLine
 10
19.65745109861815
 20
0.2480000000000047
 30
0.0
 11
19.65745109861816
 21
2.75869518716577
 31
0.0
  0
LINE
  5
788
330
1E
100
AcDbEntity
  8
TITLE
100
AcDbLine
 10
22.13361109861816
 20
0.2480000000000047
 30
0.0
 11
22.13361109861816
 21
2.75869518716577
 31
0.0
  0
LINE
  5
789
330
1E
100
AcDbEntity
  8
TITLE
100
AcDbLine
 10
24.60977109861815
 20
0.2480000000000047
 30
0.0
 11
24.60977109861816
 21
2.75869518716577
 31
0.0
  0
LINE
  5
78A
330
1E
100
AcDbEntity
  8
TITLE
100
AcDbLine
 10
27.08593109861815
 20
0.2480000000000047
 30
0.0
 11
27.08593109861816
 21
2.75869518716577
 31
0.0
  0
LINE
  5
78B
330
1E
100
AcDbEntity
  8
TITLE
100
AcDbLine
 10
29.56209109861815
 20
0.2480000000000047
 30
0.0
 11
29.56209109861816
 21
2.75869518716577
 31
0.0
  0
LINE
  5
78C
330
1E
100
AcDbEntity
  8
TITLE
100
AcDbLine
 10
32.03825109861815
 20
0.2480000000000047
 30
0.0
 11
32.03825109861816
 21
2.75869518716577
 31
0.0
  0
LINE
  5
78D
330
1E
100
AcDbEntity
  8
TITLE
100
AcDbLine
 10
34.51441109861815
 20
0.2480000000000047
 30
0.0
 11
34.51441109861816
 21
2.75869518716577
 31
0.0
  0
LINE
  5
78E
330
1E
100
AcDbEntity
  8
TITLE
100
AcDbLine
 10
36.99057109861815
 20
0.2480000000000047
 30
0.0
 11
36.99057109861816
 21
2.75869518716577
 31
0.0
  0
LINE
  5
78F
330
1E
100
AcDbEntity
  8
TITLE
100
AcDbLine
 10
39.46673109861815
 20
0.2480000000000047
 30
0.0
 11
39.46673109861817
 21
2.75869518716577
 31
0.0
  0
LINE
  5
790
330
1E
100
AcDbEntity
  8
TITLE
100
AcDbLine
 10
41.94289109861816
 20
0.2480000000000047
 30
0.0
 11
41.94289109861816
 21
2.75869518716577
 31
0.0
  0
LINE
  5
791
330
1E
100
AcDbEntity
  8
TITLE
100
AcDbLine
 10
44.41905109861815
 20
0.2480000000000047
 30
0.0
 11
44.41905109861816
 21
2.75869518716577
 31
0.0
  0
LINE
  5
792
330
1E
100
AcDbEntity
  8
TITLE
100
AcDbLine
 10
46.89521109861815
 20
0.2480000000000047
 30
0.0
 11
46.89521109861817
 21
2.75869518716577
 31
0.0
  0
LINE
  5
793
330
1E
100
AcDbEntity
  8
TITLE
100
AcDbLine
 10
49.37137109861816
 20
0.2480000000000047
 30
0.0
 11
49.37137109861817
 21
2.75869518716577
 31
0.0
  0
LINE
  5
794
330
1E
100
AcDbEntity
  8
TITLE
100
AcDbLine
 10
51.84753109861816
 20
0.2480000000000047
 30
0.0
 11
51.84753109861816
 21
2.75869518716577
 31
0.0
  0
LINE
  5
795
330
1E
100
AcDbEntity
  8
TITLE
100
AcDbLine
 10
54.32369109861816
 20
0.2480000000000047
 30
0.0
 11
54.32369109861816
 21
2.75869518716577
 31
0.0
  0
LINE
  5
796
330
1E
100
AcDbEntity
  8
TITLE
100
AcDbLine
 10
56.79985109861816
 20
0.2480000000000047
 30
0.0
 11
56.79985109861816
 21
2.75869518716577
 31
0.0
  0
LINE
  5
797
330
1E
100
AcDbEntity
  8
TITLE
100
AcDbLine
 10
59.27601109861815
 20
0.2480000000000047
 30
0.0
 11
59.27601109861817
 21
2.75869518716577
 31
0.0
  0
LWPOLYLINE
  5
798
330
1E
100
AcDbEntity
  8
BEND
100
AcDbPolyline
 90
       10
 70
     0
 43
0.0
 10
35.86594045801374
 20
17.80767265727053
 10
36.72057345758561
 20
17.80767265727054
 10
36.81218030940087
 20
17.96919315350612
 10
36.85289446576321
 20
17.67411749569013
 10
36.92414423939732
 20
17.80767265727053
 10
40.30906482956068
 20
17.80767265727053
 10
40.40067168137594
 20
17.96919315350612
 10
40.44138583773829
 20
17.67411749569013
 10
40.51263561137239
 20
17.80767265727053
 10
41.64694045801375
 20
17.80767265727053
  0
TEXT
  5
8F9
330
1E
100
AcDbEntity
  8
TEXT
100
AcDbText
 10
56.23405892082079
 20
-0.6570258709432413
 30
0.0
 40
0.4999995
  1
Revised 26JUN07
 41
0.75
 72
     4
 11
58.82780632707079
 21
-0.4070261209432413
 31
0.0
100
AcDbText
  0
LWPOLYLINE
  5
905
330
1E
100
AcDbEntity
  8
DIM
100
AcDbPolyline
 90
        4
 70
     0
 10
11.28827391253258
 20
22.1914662755518
 40
0.0
 41
0.27
 10
11.60993480324876
 20
22.8356201945678
 40
0.0
 41
0.0
 10
13.38871273865085
 20
26.22160805881561
 40
0.0
 41
0.0
 10
14.1081154323481
 20
26.22160805881561
 40
0.0
 41
0.0
  0
TEXT
  5
906
330
1E
100
AcDbEntity
  8
DIM
100
AcDbText
 10
14.46781677919673
 20
24.33034500503793
 30
0.0
 40
0.499585203956422
  1
THREADED BRASS
 41
0.75
 11
14.46781677919673
 21
24.58013760701614
 31
0.0
100
AcDbText
 73
     2
  0
TEXT
  5
907
330
1E
100
AcDbEntity
  8
DIM
100
AcDbText
 10
14.46781677919673
 20
23.52151655983248
 30
0.0
 40
0.499585203956422
  1
INSERT (4) PLACES
 41
0.75
 11
14.46781677919673
 21
23.77130916181069
 31
0.0
100
AcDbText
 73
     2
  0
TEXT
  5
908
330
1E
100
AcDbEntity
  8
DIM
100
AcDbText
 10
14.46781677919673
 20
25.13917345024336
 30
0.0
 40
0.499585203956422
  1
WITH M5 x 0.8mm
 41
0.75
 11
14.46781677919673
 21
25.38896605222157
 31
0.0
100
AcDbText
 73
     2
  0
TEXT
  5
909
330
1E
100
AcDbEntity
  8
DIM
100
AcDbText
 10
14.46781677919673
 20
25.9718154568374
 30
0.0
 40
0.499585203956422
  1
0.564 [14] DIA. BOSS
 41
0.75
 11
14.46781677919673
 21
26.22160805881561
 31
0.0
100
AcDbText
 73
     2
  0
ENDSEC
  0
SECTION
  2
OBJECTS
  0
DICTIONARY
  5
C
330
0
100
AcDbDictionary
281
     1
  3
ACAD_GROUP
350
D
  3
ACAD_LAYOUT
350
19
  3
ACAD_MLINESTYLE
350
16
  3
ACAD_PLOTSETTINGS
350
18
  3
ACAD_PLOTSTYLENAME
350
E
  0
DICTIONARY
  5
D
102
{ACAD_REACTORS
330
C
102
}
330
C
100
AcDbDictionary
281
     1
  0
DICTIONARY
  5
19
102
{ACAD_REACTORS
330
C
102
}
330
C
100
AcDbDictionary
281
     1
  3
Layout1
350
1D
  3
Model
350
21
  0
DICTIONARY
  5
16
102
{ACAD_REACTORS
330
C
102
}
330
C
100
AcDbDictionary
281
     1
  3
Standard
350
17
  0
DICTIONARY
  5
18
102
{ACAD_REACTORS
330
C
102
}
330
C
100
AcDbDictionary
281
     1
  0
ACDBDICTIONARYWDFLT
  5
E
102
{ACAD_REACTORS
330
C
102
}
330
C
100
AcDbDictionary
281
     1
  3
Normal
350
F
100
AcDbDictionaryWithDefault
340
F
  0
LAYOUT
  5
1D
102
{ACAD_REACTORS
330
19
102
}
330
19
100
AcDbPlotSettings
  1

  2
None
  4

  6

 40
0.0
 41
0.0
 42
0.0
 43
0.0
 44
0.0
 45
0.0
 46
0.0
 47
0.0
 48
0.0
 49
0.0
140
0.0
141
0.0
142
1.0
143
1.0
 70
   688
 72
     0
 73
     0
 74
     5
  7
monochrome.ctb
 75
    16
147
1.0
148
0.0
149
0.0
100
AcDbLayout
  1
Layout1
 70
     1
 71
     1
 10
0.0
 20
0.0
 11
12.0
 21
9.0
 12
0.0
 22
0.0
 32
0.0
 14
1.000000000000000E+20
 24
1.000000000000000E+20
 34
1.000000000000000E+20
 15
-1.000000000000000E+20
 25
-1.000000000000000E+20
 35
-1.000000000000000E+20
146
0.0
 13
0.0
 23
0.0
 33
0.0
 16
1.0
 26
0.0
 36
0.0
 17
0.0
 27
1.0
 37
0.0
 76
     0
330
1A
  0
LAYOUT
  5
21
102
{ACAD_REACTORS
330
19
102
}
330
19
100
AcDbPlotSettings
  1

  2
RICOH Aficio 1060 PCL 6
  4
Letter
  6

 40
5.027083396911621
 41
5.027085304260253
 42
5.027084350585937
 43
5.027069091796875
 44
215.8999938964843
 45
279.3999938964843
 46
13.462
 47
0.0
 48
0.0
 49
0.0
140
0.0
141
0.0
142
1.0
143
5.847204247243436
 70
 11956
 72
     0
 73
     1
 74
     1
  7
monochrome.ctb
 75
     0
147
0.1710219034116061
148
0.1201293701195226
149
16.76816300915868
100
AcDbLayout
  1
Model
 70
     1
 71
     0
 10
0.0
 20
0.0
 11
12.0
 21
9.0
 12
0.0
 22
0.0
 32
0.0
 14
0.0
 24
0.0
 34
0.0
 15
0.0
 25
0.0
 35
0.0
146
0.0
 13
0.0
 23
0.0
 33
0.0
 16
1.0
 26
0.0
 36
0.0
 17
0.0
 27
1.0
 37
0.0
 76
     0
330
1E
  0
MLINESTYLE
  5
17
102
{ACAD_REACTORS
330
16
102
}
330
16
100
AcDbMlineStyle
  2
STANDARD
 70
     0
  3

 62
   256
 51
90.0
 52
90.0
 71
     2
 49
0.5
 62
   256
  6
BYLAYER
 49
-0.5
 62
   256
  6
BYLAYER
  0
ACDBPLACEHOLDER
  5
F
102
{ACAD_REACTORS
330
E
102
}
330
E
  0
ENDSEC
  0
EOF
