  0
SECTION
  2
HEADER
  9
$ACADVER
  1
AC1015
  9
$ACADMAINTVER
 70
     6
  9
$DWGCODEPAGE
  3
ANSI_1252
  9
$INSBASE
 10
0.0
 20
0.0
 30
0.0
  9
$EXTMIN
 10
0.0
 20
-0.6442547027812536
 30
0.0
  9
$EXTMAX
 10
62.0
 20
40.47999999999999
 30
0.0
  9
$LIMMIN
 10
0.0
 20
0.0
  9
$LIMMAX
 10
62.0
 20
40.47999999999999
  9
$ORTHOMODE
 70
     0
  9
$REGENMODE
 70
     1
  9
$FILLMODE
 70
     1
  9
$QTEXTMODE
 70
     0
  9
$MIRRTEXT
 70
     0
  9
$LTSCALE
 40
1.0
  9
$ATTMODE
 70
     1
  9
$TEXTSIZE
 40
0.5
  9
$TRACEWID
 40
0.05
  9
$TEXTSTYLE
  7
TXT
  9
$CLAYER
  8
OBJECT
  9
$CELTYPE
  6
ByLayer
  9
$CECOLOR
 62
   256
  9
$CELTSCALE
 40
1.0
  9
$DISPSILH
 70
     0
  9
$DIMSCALE
 40
4.0
  9
$DIMASZ
 40
0.18
  9
$DIMEXO
 40
0.063
  9
$DIMDLI
 40
0.25
  9
$DIMRND
 40
0.0
  9
$DIMDLE
 40
0.0
  9
$DIMEXE
 40
0.093
  9
$DIMTP
 40
0.0
  9
$DIMTM
 40
0.0
  9
$DIMTXT
 40
0.125
  9
$DIMCEN
 40
0.09
  9
$DIMTSZ
 40
0.0
  9
$DIMTOL
 70
     0
  9
$DIMLIM
 70
     0
  9
$DIMTIH
 70
     1
  9
$DIMTOH
 70
     1
  9
$DIMSE1
 70
     0
  9
$DIMSE2
 70
     0
  9
$DIMTAD
 70
     0
  9
$DIMZIN
 70
     0
  9
$DIMBLK
  1

  9
$DIMASO
 70
     1
  9
$DIMSHO
 70
     1
  9
$DIMPOST
  1

  9
$DIMAPOST
  1

  9
$DIMALT
 70
     1
  9
$DIMALTD
 70
     0
  9
$DIMALTF
 40
25.4
  9
$DIMLFAC
 40
1.0
  9
$DIMTOFL
 70
     0
  9
$DIMTVP
 40
0.0
  9
$DIMTIX
 70
     0
  9
$DIMSOXD
 70
     0
  9
$DIMSAH
 70
     0
  9
$DIMBLK1
  1

  9
$DIMBLK2
  1

  9
$DIMSTYLE
  2
23NSTD
  9
$DIMCLRD
 70
     0
  9
$DIMCLRE
 70
     0
  9
$DIMCLRT
 70
     0
  9
$DIMTFAC
 40
1.0
  9
$DIMGAP
 40
0.09
  9
$DIMJUST
 70
     0
  9
$DIMSD1
 70
     0
  9
$DIMSD2
 70
     0
  9
$DIMTOLJ
 70
     1
  9
$DIMTZIN
 70
     0
  9
$DIMALTZ
 70
     0
  9
$DIMALTTZ
 70
     0
  9
$DIMUPT
 70
     0
  9
$DIMDEC
 70
     3
  9
$DIMTDEC
 70
     3
  9
$DIMALTU
 70
     2
  9
$DIMALTTD
 70
     0
  9
$DIMTXSTY
  7
TXT
  9
$DIMAUNIT
 70
     0
  9
$DIMADEC
 70
     0
  9
$DIMALTRND
 40
0.0
  9
$DIMAZIN
 70
     0
  9
$DIMDSEP
 70
    46
  9
$DIMATFIT
 70
     3
  9
$DIMFRAC
 70
     0
  9
$DIMLDRBLK
  1

  9
$DIMLUNIT
 70
     2
  9
$DIMLWD
 70
    -2
  9
$DIMLWE
 70
    -2
  9
$DIMTMOVE
 70
     2
  9
$LUNITS
 70
     2
  9
$LUPREC
 70
     3
  9
$SKETCHINC
 40
0.1
  9
$FILLETRAD
 40
0.0
  9
$AUNITS
 70
     0
  9
$AUPREC
 70
     0
  9
$MENU
  1
acad
  9
$ELEVATION
 40
0.0
  9
$PELEVATION
 40
0.0
  9
$THICKNESS
 40
0.0
  9
$LIMCHECK
 70
     0
  9
$CHAMFERA
 40
0.0
  9
$CHAMFERB
 40
0.0
  9
$CHAMFERC
 40
0.0
  9
$CHAMFERD
 40
0.0
  9
$SKPOLY
 70
     0
  9
$TDCREATE
 40
2451099.398108680
  9
$TDUCREATE
 40
2451099.564775347
  9
$TDUPDATE
 40
2454306.464079491
  9
$TDUUPDATE
 40
2454306.630746157
  9
$TDINDWG
 40
0.8787995139
  9
$TDUSRTIMER
 40
0.8787995139
  9
$USRTIMER
 70
     1
  9
$ANGBASE
 50
0.0
  9
$ANGDIR
 70
     0
  9
$PDMODE
 70
     0
  9
$PDSIZE
 40
0.0
  9
$PLINEWID
 40
0.0
  9
$SPLFRAME
 70
     0
  9
$SPLINETYPE
 70
     6
  9
$SPLINESEGS
 70
     8
  9
$HANDSEED
  5
8AA
  9
$SURFTAB1
 70
     6
  9
$SURFTAB2
 70
     6
  9
$SURFTYPE
 70
     6
  9
$SURFU
 70
     6
  9
$SURFV
 70
     6
  9
$UCSBASE
  2

  9
$UCSNAME
  2

  9
$UCSORG
 10
0.0
 20
0.0
 30
0.0
  9
$UCSXDIR
 10
1.0
 20
0.0
 30
0.0
  9
$UCSYDIR
 10
0.0
 20
1.0
 30
0.0
  9
$UCSORTHOREF
  2

  9
$UCSORTHOVIEW
 70
     0
  9
$UCSORGTOP
 10
0.0
 20
0.0
 30
0.0
  9
$UCSORGBOTTOM
 10
0.0
 20
0.0
 30
0.0
  9
$UCSORGLEFT
 10
0.0
 20
0.0
 30
0.0
  9
$UCSORGRIGHT
 10
0.0
 20
0.0
 30
0.0
  9
$UCSORGFRONT
 10
0.0
 20
0.0
 30
0.0
  9
$UCSORGBACK
 10
0.0
 20
0.0
 30
0.0
  9
$PUCSBASE
  2

  9
$PUCSNAME
  2

  9
$PUCSORG
 10
0.0
 20
0.0
 30
0.0
  9
$PUCSXDIR
 10
1.0
 20
0.0
 30
0.0
  9
$PUCSYDIR
 10
0.0
 20
1.0
 30
0.0
  9
$PUCSORTHOREF
  2

  9
$PUCSORTHOVIEW
 70
     0
  9
$PUCSORGTOP
 10
0.0
 20
0.0
 30
0.0
  9
$PUCSORGBOTTOM
 10
0.0
 20
0.0
 30
0.0
  9
$PUCSORGLEFT
 10
0.0
 20
0.0
 30
0.0
  9
$PUCSORGRIGHT
 10
0.0
 20
0.0
 30
0.0
  9
$PUCSORGFRONT
 10
0.0
 20
0.0
 30
0.0
  9
$PUCSORGBACK
 10
0.0
 20
0.0
 30
0.0
  9
$USERI1
 70
     0
  9
$USERI2
 70
     0
  9
$USERI3
 70
     0
  9
$USERI4
 70
     0
  9
$USERI5
 70
     0
  9
$USERR1
 40
0.0
  9
$USERR2
 40
0.0
  9
$USERR3
 40
0.0
  9
$USERR4
 40
0.0
  9
$USERR5
 40
0.0
  9
$WORLDVIEW
 70
     1
  9
$SHADEDGE
 70
     3
  9
$SHADEDIF
 70
    70
  9
$TILEMODE
 70
     1
  9
$MAXACTVP
 70
    16
  9
$PINSBASE
 10
0.0
 20
0.0
 30
0.0
  9
$PLIMCHECK
 70
     0
  9
$PEXTMIN
 10
1.000000000000000E+20
 20
1.000000000000000E+20
 30
1.000000000000000E+20
  9
$PEXTMAX
 10
-1.000000000000000E+20
 20
-1.000000000000000E+20
 30
-1.000000000000000E+20
  9
$PLIMMIN
 10
0.0
 20
0.0
  9
$PLIMMAX
 10
12.0
 20
9.0
  9
$UNITMODE
 70
     0
  9
$VISRETAIN
 70
     0
  9
$PLINEGEN
 70
     0
  9
$PSLTSCALE
 70
     1
  9
$TREEDEPTH
 70
  3020
  9
$CMLSTYLE
  2
Standard
  9
$CMLJUST
 70
     0
  9
$CMLSCALE
 40
1.0
  9
$PROXYGRAPHICS
 70
     1
  9
$MEASUREMENT
 70
     0
  9
$CELWEIGHT
370
    -1
  9
$ENDCAPS
280
     0
  9
$JOINSTYLE
280
     0
  9
$LWDISPLAY
290
     0
  9
$INSUNITS
 70
     0
  9
$HYPERLINKBASE
  1

  9
$STYLESHEET
  1
monochrome.ctb
  9
$XEDIT
290
     1
  9
$CEPSNTYPE
380
     0
  9
$PSTYLEMODE
290
     1
  9
$FINGERPRINTGUID
  2
{01337053-DE65-4237-91CC-FC17C2A72A99}
  9
$VERSIONGUID
  2
{2AEE4655-3EAD-4702-9FAD-B6F90C547215}
  9
$EXTNAMES
290
     1
  9
$PSVPSCALE
 40
0.0
  9
$OLESTARTUP
290
     0
  0
ENDSEC
  0
SECTION
  2
CLASSES
  0
CLASS
  1
ACDBDICTIONARYWDFLT
  2
AcDbDictionaryWithDefault
  3
AutoCAD 2000
 90
        0
280
     0
281
     0
  0
CLASS
  1
ACDBPLACEHOLDER
  2
AcDbPlaceHolder
  3
AutoCAD 2000
 90
        0
280
     0
281
     0
  0
CLASS
  1
LAYOUT
  2
AcDbLayout
  3
AutoCAD 2000
 90
        0
280
     0
281
     0
  0
ENDSEC
  0
SECTION
  2
TABLES
  0
TABLE
  2
VPORT
  5
8
330
0
100
AcDbSymbolTable
 70
     2
  0
VPORT
  5
8A9
330
8
100
AcDbSymbolTableRecord
100
AcDbViewportTableRecord
  2
*Active
 70
     0
 10
0.0
 20
0.0
 11
1.0
 21
1.0
 12
30.99953477902117
 22
19.91879943413767
 13
0.0
 23
0.0
 14
1.0
 24
1.0
 15
0.5
 25
0.5
 16
0.0
 26
0.0
 36
1.0
 17
0.0
 27
0.0
 37
0.0
 40
41.53863687551535
 41
1.824707846410684
 42
50.0
 43
0.0
 44
0.0
 50
0.0
 51
0.0
 71
     0
 72
   100
 73
     1
 74
     0
 75
     0
 76
     0
 77
     0
 78
     0
281
     0
 65
     1
110
0.0
120
0.0
130
0.0
111
1.0
121
0.0
131
0.0
112
0.0
122
1.0
132
0.0
 79
     0
146
0.0
  0
ENDTAB
  0
TABLE
  2
LTYPE
  5
5
330
0
100
AcDbSymbolTable
 70
     5
  0
LTYPE
  5
13
330
5
100
AcDbSymbolTableRecord
100
AcDbLinetypeTableRecord
  2
ByBlock
 70
     0
  3

 72
    65
 73
     0
 40
0.0
  0
LTYPE
  5
14
330
5
100
AcDbSymbolTableRecord
100
AcDbLinetypeTableRecord
  2
ByLayer
 70
     0
  3

 72
    65
 73
     0
 40
0.0
  0
LTYPE
  5
15
330
5
100
AcDbSymbolTableRecord
100
AcDbLinetypeTableRecord
  2
CONTINUOUS
 70
     0
  3
Solid line
 72
    65
 73
     0
 40
0.0
  0
LTYPE
  5
3E
330
5
100
AcDbSymbolTableRecord
100
AcDbLinetypeTableRecord
  2
PHANTOM
 70
     0
  3
_____ _ _ _____ _ _ _____ _ _ _____ _ _ ____
 72
    65
 73
     6
 40
2.5
 49
1.25
 74
     0
 49
-0.25
 74
     0
 49
0.25
 74
     0
 49
-0.25
 74
     0
 49
0.25
 74
     0
 49
-0.25
 74
     0
  0
LTYPE
  5
3F
330
5
100
AcDbSymbolTableRecord
100
AcDbLinetypeTableRecord
  2
CENTER
 70
     0
  3
____ _ ____ _ ____ _ ____ _ ____ _ ____ _ ____
 72
    65
 73
     4
 40
2.0
 49
1.25
 74
     0
 49
-0.25
 74
     0
 49
0.25
 74
     0
 49
-0.25
 74
     0
  0
LTYPE
  5
40
330
5
100
AcDbSymbolTableRecord
100
AcDbLinetypeTableRecord
  2
HIDDEN2
 70
     0
  3
_ _ _ _ _ _ _ _ _ _ _ _ _ _ _ _ _ _ _ _ _ _ _ _
 72
    65
 73
     2
 40
0.1875
 49
0.125
 74
     0
 49
-0.0625
 74
     0
  0
LTYPE
  5
41
330
5
100
AcDbSymbolTableRecord
100
AcDbLinetypeTableRecord
  2
CENTER2
 70
     0
  3
___ _ ___ _ ___ _ ___ _ ___ _ ___ _ ___ _ ___ _
 72
    65
 73
     4
 40
1.125
 49
0.75
 74
     0
 49
-0.125
 74
     0
 49
0.125
 74
     0
 49
-0.125
 74
     0
  0
ENDTAB
  0
TABLE
  2
LAYER
  5
2
330
0
100
AcDbSymbolTable
 70
     9
  0
LAYER
  5
10
330
2
100
AcDbSymbolTableRecord
100
AcDbLayerTableRecord
  2
0
 70
     0
 62
     7
  6
CONTINUOUS
370
    -3
390
F
  0
LAYER
  5
46
330
2
100
AcDbSymbolTableRecord
100
AcDbLayerTableRecord
  2
OBJECT
 70
     0
 62
     7
  6
CONTINUOUS
370
    -3
390
F
  0
LAYER
  5
47
330
2
100
AcDbSymbolTableRecord
100
AcDbLayerTableRecord
  2
DIM
 70
     0
 62
     7
  6
CONTINUOUS
370
    -3
390
F
  0
LAYER
  5
48
330
2
100
AcDbSymbolTableRecord
100
AcDbLayerTableRecord
  2
HIDDEN
 70
     0
 62
     7
  6
HIDDEN2
370
    -3
390
F
  0
LAYER
  5
49
330
2
100
AcDbSymbolTableRecord
100
AcDbLayerTableRecord
  2
BEND
 70
     0
 62
     7
  6
PHANTOM
370
    -3
390
F
  0
LAYER
  5
4A
330
2
100
AcDbSymbolTableRecord
100
AcDbLayerTableRecord
  2
TEXT
 70
     0
 62
     7
  6
CONTINUOUS
370
    -3
390
F
  0
LAYER
  5
4B
330
2
100
AcDbSymbolTableRecord
100
AcDbLayerTableRecord
  2
TITLE
 70
     0
 62
     7
  6
CONTINUOUS
370
    -3
390
F
  0
LAYER
  5
4C
330
2
100
AcDbSymbolTableRecord
100
AcDbLayerTableRecord
  2
CENTER
 70
     0
 62
     7
  6
CENTER
370
    -3
390
F
  0
LAYER
  5
4D
330
2
100
AcDbSymbolTableRecord
100
AcDbLayerTableRecord
  2
DEFPOINTS
 70
     0
 62
     7
  6
CONTINUOUS
290
     0
370
    -3
390
F
  0
ENDTAB
  0
TABLE
  2
STYLE
  5
3
330
0
100
AcDbSymbolTable
 70
     1
  0
STYLE
  5
11
330
3
100
AcDbSymbolTableRecord
100
AcDbTextStyleTableRecord
  2
TXT
 70
     0
 40
0.0
 41
0.75
 50
0.0
 71
     0
 42
0.5
  3
TXT.shx
  4

  0
ENDTAB
  0
TABLE
  2
VIEW
  5
6
330
0
100
AcDbSymbolTable
 70
     0
  0
ENDTAB
  0
TABLE
  2
UCS
  5
7
330
0
100
AcDbSymbolTable
 70
     0
  0
ENDTAB
  0
TABLE
  2
APPID
  5
9
330
0
100
AcDbSymbolTable
 70
     1
  0
APPID
  5
12
330
9
100
AcDbSymbolTableRecord
100
AcDbRegAppTableRecord
  2
ACAD
 70
     0
  0
ENDTAB
  0
TABLE
  2
DIMSTYLE
  5
A
330
0
100
AcDbSymbolTable
 70
     2
100
AcDbDimStyleTable
 71
     0
  0
DIMSTYLE
105
44
102
{ACAD_REACTORS
330
2D6
330
2D7
330
2D8
330
2D9
330
2DA
330
2DE
330
2DF
330
2E2
330
2F2
330
2F3
330
2F4
330
303
330
39B
330
3AA
330
3AC
330
3B0
330
3B1
330
533
330
534
330
53D
330
53E
330
596
330
598
102
}
330
A
100
AcDbSymbolTableRecord
100
AcDbDimStyleTableRecord
  2
23NSTD
 70
     0
 40
4.0
 42
0.063
 43
0.25
 44
0.093
140
0.125
170
     1
171
     0
271
     3
272
     3
274
     0
279
     2
340
11
  0
DIMSTYLE
105
45
102
{ACAD_REACTORS
330
2E0
330
2FB
102
}
330
A
100
AcDbSymbolTableRecord
100
AcDbDimStyleTableRecord
  2
23NSTDI
 70
     0
 40
4.0
 42
0.063
 43
0.25
 44
0.093
140
0.125
170
     1
171
     0
174
     1
271
     3
272
     3
274
     0
279
     2
340
11
  0
ENDTAB
  0
TABLE
  2
BLOCK_RECORD
  5
1
330
0
100
AcDbSymbolTable
 70
    28
  0
BLOCK_RECORD
  5
1E
330
1
100
AcDbSymbolTableRecord
100
AcDbBlockTableRecord
  2
*Model_Space
340
21
  0
BLOCK_RECORD
  5
1A
330
1
100
AcDbSymbolTableRecord
100
AcDbBlockTableRecord
  2
*Paper_Space
340
1D
  0
BLOCK_RECORD
  5
22
330
1
100
AcDbSymbolTableRecord
100
AcDbBlockTableRecord
  2
HBS
340
0
102
{BLKREFS
331
7D1
102
}
  0
BLOCK_RECORD
  5
23
330
1
100
AcDbSymbolTableRecord
100
AcDbBlockTableRecord
  2
*X1
340
0
102
{BLKREFS
331
785
102
}
  0
BLOCK_RECORD
  5
24
330
1
100
AcDbSymbolTableRecord
100
AcDbBlockTableRecord
  2
*X2
340
0
102
{BLKREFS
331
786
102
}
  0
BLOCK_RECORD
  5
25
330
1
100
AcDbSymbolTableRecord
100
AcDbBlockTableRecord
  2
*D3
340
0
  0
BLOCK_RECORD
  5
26
330
1
100
AcDbSymbolTableRecord
100
AcDbBlockTableRecord
  2
*D4
340
0
  0
BLOCK_RECORD
  5
27
330
1
100
AcDbSymbolTableRecord
100
AcDbBlockTableRecord
  2
*D5
340
0
  0
BLOCK_RECORD
  5
28
330
1
100
AcDbSymbolTableRecord
100
AcDbBlockTableRecord
  2
*D6
340
0
  0
BLOCK_RECORD
  5
29
330
1
100
AcDbSymbolTableRecord
100
AcDbBlockTableRecord
  2
*D7
340
0
  0
BLOCK_RECORD
  5
2A
330
1
100
AcDbSymbolTableRecord
100
AcDbBlockTableRecord
  2
*D8
340
0
  0
BLOCK_RECORD
  5
2B
330
1
100
AcDbSymbolTableRecord
100
AcDbBlockTableRecord
  2
*D9
340
0
  0
BLOCK_RECORD
  5
2C
330
1
100
AcDbSymbolTableRecord
100
AcDbBlockTableRecord
  2
*D10
340
0
  0
BLOCK_RECORD
  5
2D
330
1
100
AcDbSymbolTableRecord
100
AcDbBlockTableRecord
  2
*D11
340
0
  0
BLOCK_RECORD
  5
2E
330
1
100
AcDbSymbolTableRecord
100
AcDbBlockTableRecord
  2
*D12
340
0
  0
BLOCK_RECORD
  5
2F
330
1
100
AcDbSymbolTableRecord
100
AcDbBlockTableRecord
  2
*D13
340
0
  0
BLOCK_RECORD
  5
30
330
1
100
AcDbSymbolTableRecord
100
AcDbBlockTableRecord
  2
*D14
340
0
  0
BLOCK_RECORD
  5
32
330
1
100
AcDbSymbolTableRecord
100
AcDbBlockTableRecord
  2
*D15
340
0
  0
BLOCK_RECORD
  5
33
330
1
100
AcDbSymbolTableRecord
100
AcDbBlockTableRecord
  2
*D16
340
0
  0
BLOCK_RECORD
  5
36
330
1
100
AcDbSymbolTableRecord
100
AcDbBlockTableRecord
  2
*D17
340
0
  0
BLOCK_RECORD
  5
37
330
1
100
AcDbSymbolTableRecord
100
AcDbBlockTableRecord
  2
*D18
340
0
  0
BLOCK_RECORD
  5
38
330
1
100
AcDbSymbolTableRecord
100
AcDbBlockTableRecord
  2
*D19
340
0
  0
BLOCK_RECORD
  5
39
330
1
100
AcDbSymbolTableRecord
100
AcDbBlockTableRecord
  2
*D20
340
0
  0
BLOCK_RECORD
  5
3A
330
1
100
AcDbSymbolTableRecord
100
AcDbBlockTableRecord
  2
*D21
340
0
  0
BLOCK_RECORD
  5
3B
330
1
100
AcDbSymbolTableRecord
100
AcDbBlockTableRecord
  2
*D22
340
0
  0
BLOCK_RECORD
  5
3C
330
1
100
AcDbSymbolTableRecord
100
AcDbBlockTableRecord
  2
*D23
340
0
  0
BLOCK_RECORD
  5
3D
330
1
100
AcDbSymbolTableRecord
100
AcDbBlockTableRecord
  2
*D24
340
0
  0
BLOCK_RECORD
  5
857
330
1
100
AcDbSymbolTableRecord
100
AcDbBlockTableRecord
  2
*D25
340
0
  0
BLOCK_RECORD
  5
874
330
1
100
AcDbSymbolTableRecord
100
AcDbBlockTableRecord
  2
*D26
340
0
  0
BLOCK_RECORD
  5
881
330
1
100
AcDbSymbolTableRecord
100
AcDbBlockTableRecord
  2
*D27
340
0
  0
ENDTAB
  0
ENDSEC
  0
SECTION
  2
BLOCKS
  0
BLOCK
  5
51
330
1E
100
AcDbEntity
  8
0
100
AcDbBlockBegin
  2
*Model_Space
 70
     0
 10
0.0
 20
0.0
 30
0.0
  3
*Model_Space
  1

  0
ENDBLK
  5
52
330
1E
100
AcDbEntity
  8
0
100
AcDbBlockEnd
  0
BLOCK
  5
4F
330
1A
100
AcDbEntity
 67
     1
  8
0
100
AcDbBlockBegin
  2
*Paper_Space
 70
     0
 10
0.0
 20
0.0
 30
0.0
  3
*Paper_Space
  1

  0
ENDBLK
  5
50
330
1A
100
AcDbEntity
 67
     1
  8
0
100
AcDbBlockEnd
  0
BLOCK
  5
53
330
22
100
AcDbEntity
  8
0
100
AcDbBlockBegin
  2
HBS
 70
     0
 10
0.0
 20
0.0
 30
0.0
  3
HBS
  1

  0
LINE
  5
54
330
22
100
AcDbEntity
  8
TITLE
100
AcDbLine
 10
0.0619999999999976
 20
9.64
 30
0.0
 11
15.43799999999999
 21
9.640000000000004
 31
0.0
  0
LWPOLYLINE
  5
55
330
22
100
AcDbEntity
  8
TITLE
100
AcDbPolyline
 90
        4
 70
     1
 43
0.0
 10
15.5
 20
10.11999999999999
 10
15.49999999999999
 20
0.0
 10
0.0
 20
0.0
 10
0.0
 20
10.11999999999999
  0
LWPOLYLINE
  5
5B
330
22
100
AcDbEntity
  8
TITLE
100
AcDbPolyline
 90
        4
 70
     1
 43
0.0
 10
15.43799999999999
 20
10.058
 10
15.43799999999999
 20
0.0620000000000012
 10
0.0620000000000012
 20
0.0620000000000012
 10
0.0620000000000012
 20
10.058
  0
TEXT
  5
61
330
22
100
AcDbEntity
  8
TEXT
100
AcDbText
 10
0.2078333333333345
 20
9.680079195640079
 30
0.0
 40
0.125
  1
NAME
 72
     1
 11
0.4370000000000012
 21
9.680079195640079
 31
0.0
100
AcDbText
  0
TEXT
  5
63
330
22
100
AcDbEntity
  8
TEXT
100
AcDbText
 10
0.2078333333333345
 20
9.888412528973411
 30
0.0
 40
0.125
  1
PART
 72
     1
 11
0.4370000000000012
 21
9.888412528973411
 31
0.0
100
AcDbText
  0
LINE
  5
64
330
22
100
AcDbEntity
  8
TITLE
100
AcDbLine
 10
0.8120000000000011
 20
9.64
 30
0.0
 11
0.8119999999999976
 21
10.058
 31
0.0
  0
TEXT
  5
65
330
22
100
AcDbEntity
  8
TEXT
100
AcDbText
 10
7.926833333333331
 20
9.888412528973411
 30
0.0
 40
0.125
  1
PART
 72
     1
 11
8.155999999999998
 21
9.888412528973411
 31
0.0
100
AcDbText
  0
TEXT
  5
66
330
22
100
AcDbEntity
  8
TEXT
100
AcDbText
 10
8.030999999999998
 20
9.680079195640079
 30
0.0
 40
0.125
  1
No.
 72
     1
 11
8.155999999999998
 21
9.680079195640079
 31
0.0
100
AcDbText
  0
LINE
  5
67
330
22
100
AcDbEntity
  8
TITLE
100
AcDbLine
 10
7.780999999999998
 20
10.058
 30
0.0
 11
7.780999999999998
 21
9.64
 31
0.0
  0
LINE
  5
68
330
22
100
AcDbEntity
  8
TITLE
100
AcDbLine
 10
7.719000000000001
 20
10.058
 30
0.0
 11
7.719000000000001
 21
9.64
 31
0.0
  0
LINE
  5
69
330
22
100
AcDbEntity
  8
TITLE
100
AcDbLine
 10
8.530999999999998
 20
10.058
 30
0.0
 11
8.530999999999998
 21
9.64
 31
0.0
  0
ENDBLK
  5
6A
330
22
100
AcDbEntity
  8
0
100
AcDbBlockEnd
  0
BLOCK
  5
6B
330
23
100
AcDbEntity
  8
0
100
AcDbBlockBegin
  2
*X1
 70
     1
 10
0.0
 20
0.0
 30
0.0
  3
*X1
  1

  0
LINE
  5
6C
330
23
100
AcDbEntity
  8
0
 62
     0
100
AcDbLine
 10
34.32255238512963
 20
14.17000912131302
 30
0.0
 11
34.43755238512964
 21
14.28500912131304
 31
0.0
  0
LINE
  5
6D
330
23
100
AcDbEntity
  8
0
 62
     0
100
AcDbLine
 10
34.32255238512963
 20
14.70033920720293
 30
0.0
 11
34.43755238512964
 21
14.81533920720295
 31
0.0
  0
LINE
  5
6E
330
23
100
AcDbEntity
  8
0
 62
     0
100
AcDbLine
 10
34.32255238512963
 20
15.23066929309285
 30
0.0
 11
34.43755238512964
 21
15.34566929309286
 31
0.0
  0
LINE
  5
6F
330
23
100
AcDbEntity
  8
0
 62
     0
100
AcDbLine
 10
34.32255238512963
 20
15.76099937898276
 30
0.0
 11
34.43755238512964
 21
15.87599937898277
 31
0.0
  0
LINE
  5
70
330
23
100
AcDbEntity
  8
0
 62
     0
100
AcDbLine
 10
34.32255238512963
 20
16.29132946487267
 30
0.0
 11
34.43755238512964
 21
16.40632946487268
 31
0.0
  0
LINE
  5
71
330
23
100
AcDbEntity
  8
0
 62
     0
100
AcDbLine
 10
34.32255238512963
 20
16.82165955076258
 30
0.0
 11
34.43755238512964
 21
16.93665955076259
 31
0.0
  0
LINE
  5
72
330
23
100
AcDbEntity
  8
0
 62
     0
100
AcDbLine
 10
34.32255238512963
 20
17.35198963665249
 30
0.0
 11
34.43755238512964
 21
17.4669896366525
 31
0.0
  0
LINE
  5
73
330
23
100
AcDbEntity
  8
0
 62
     0
100
AcDbLine
 10
34.32255238512963
 20
17.8823197225424
 30
0.0
 11
34.43755238512964
 21
17.99731972254241
 31
0.0
  0
LINE
  5
74
330
23
100
AcDbEntity
  8
0
 62
     0
100
AcDbLine
 10
34.32255238512963
 20
18.41264980843231
 30
0.0
 11
34.43755238512964
 21
18.52764980843232
 31
0.0
  0
LINE
  5
75
330
23
100
AcDbEntity
  8
0
 62
     0
100
AcDbLine
 10
34.32255238512963
 20
18.94297989432222
 30
0.0
 11
34.43755238512964
 21
19.05797989432223
 31
0.0
  0
LINE
  5
76
330
23
100
AcDbEntity
  8
0
 62
     0
100
AcDbLine
 10
34.32255238512963
 20
13.63967903542311
 30
0.0
 11
34.43755238512964
 21
13.75467903542312
 31
0.0
  0
LINE
  5
77
330
23
100
AcDbEntity
  8
0
 62
     0
100
AcDbLine
 10
34.32255238512963
 20
13.1093489495332
 30
0.0
 11
34.43755238512964
 21
13.22434894953322
 31
0.0
  0
LINE
  5
78
330
23
100
AcDbEntity
  8
0
 62
     0
100
AcDbLine
 10
34.49039612727101
 20
12.74686260578468
 30
0.0
 11
34.59683821814114
 21
12.85330469665481
 31
0.0
  0
LINE
  5
79
330
23
100
AcDbEntity
  8
0
 62
     0
100
AcDbLine
 10
35.01216830403105
 20
12.73830469665481
 30
0.0
 11
35.12716830403106
 21
12.85330469665481
 31
0.0
  0
LINE
  5
7A
330
23
100
AcDbEntity
  8
0
 62
     0
100
AcDbLine
 10
34.59267291076947
 20
11.78847921750332
 30
0.0
 11
34.69843415840963
 21
11.89424046514347
 31
0.0
  0
LINE
  5
7B
330
23
100
AcDbEntity
  8
0
 62
     0
100
AcDbLine
 10
35.54249838992096
 20
12.73830469665481
 30
0.0
 11
35.65749838992096
 21
12.85330469665481
 31
0.0
  0
LINE
  5
7C
330
23
100
AcDbEntity
  8
0
 62
     0
100
AcDbLine
 10
35.11312787398238
 20
11.77860409482631
 30
0.0
 11
35.22876424429954
 21
11.89424046514347
 31
0.0
  0
LINE
  5
7D
330
23
100
AcDbEntity
  8
0
 62
     0
100
AcDbLine
 10
36.07282847581088
 20
12.73830469665481
 30
0.0
 11
36.18782847581088
 21
12.85330469665481
 31
0.0
  0
LINE
  5
7E
330
23
100
AcDbEntity
  8
0
 62
     0
100
AcDbLine
 10
35.63358283719529
 20
11.76872897214931
 30
0.0
 11
35.75909433018945
 21
11.89424046514347
 31
0.0
  0
LINE
  5
7F
330
23
100
AcDbEntity
  8
0
 62
     0
100
AcDbLine
 10
36.60315856170079
 20
12.73830469665481
 30
0.0
 11
36.71815856170079
 21
12.85330469665481
 31
0.0
  0
LINE
  5
80
330
23
100
AcDbEntity
  8
0
 62
     0
100
AcDbLine
 10
36.1540378004082
 20
11.75885384947231
 30
0.0
 11
36.28942441607937
 21
11.89424046514347
 31
0.0
  0
LINE
  5
81
330
23
100
AcDbEntity
  8
0
 62
     0
100
AcDbLine
 10
37.1334886475907
 20
12.73830469665481
 30
0.0
 11
37.24848864759069
 21
12.85330469665481
 31
0.0
  0
LINE
  5
82
330
23
100
AcDbEntity
  8
0
 62
     0
100
AcDbLine
 10
36.67449276362111
 20
11.74897872679531
 30
0.0
 11
36.81975450196928
 21
11.89424046514347
 31
0.0
  0
LINE
  5
83
330
23
100
AcDbEntity
  8
0
 62
     0
100
AcDbLine
 10
37.19494772683402
 20
11.73910360411831
 30
0.0
 11
37.38072537109006
 21
11.92488124837435
 31
0.0
  0
LINE
  5
84
330
23
100
AcDbEntity
  8
0
 62
     0
100
AcDbLine
 10
34.32255238512963
 20
14.23630038204926
 30
0.0
 11
34.43755238512964
 21
14.35130038204928
 31
0.0
  0
LINE
  5
85
330
23
100
AcDbEntity
  8
0
 62
     0
100
AcDbLine
 10
34.32255238512963
 20
14.76663046793917
 30
0.0
 11
34.43755238512964
 21
14.88163046793919
 31
0.0
  0
LINE
  5
86
330
23
100
AcDbEntity
  8
0
 62
     0
100
AcDbLine
 10
34.32255238512963
 20
15.29696055382909
 30
0.0
 11
34.43755238512964
 21
15.4119605538291
 31
0.0
  0
LINE
  5
87
330
23
100
AcDbEntity
  8
0
 62
     0
100
AcDbLine
 10
34.32255238512963
 20
15.827290639719
 30
0.0
 11
34.43755238512964
 21
15.94229063971901
 31
0.0
  0
LINE
  5
88
330
23
100
AcDbEntity
  8
0
 62
     0
100
AcDbLine
 10
34.32255238512963
 20
16.35762072560891
 30
0.0
 11
34.43755238512964
 21
16.47262072560892
 31
0.0
  0
LINE
  5
89
330
23
100
AcDbEntity
  8
0
 62
     0
100
AcDbLine
 10
34.32255238512963
 20
16.88795081149882
 30
0.0
 11
34.43755238512964
 21
17.00295081149883
 31
0.0
  0
LINE
  5
8A
330
23
100
AcDbEntity
  8
0
 62
     0
100
AcDbLine
 10
34.32255238512963
 20
17.41828089738873
 30
0.0
 11
34.43755238512964
 21
17.53328089738874
 31
0.0
  0
LINE
  5
8B
330
23
100
AcDbEntity
  8
0
 62
     0
100
AcDbLine
 10
34.32255238512963
 20
17.94861098327864
 30
0.0
 11
34.43755238512964
 21
18.06361098327865
 31
0.0
  0
LINE
  5
8C
330
23
100
AcDbEntity
  8
0
 62
     0
100
AcDbLine
 10
34.32255238512963
 20
18.47894106916855
 30
0.0
 11
34.43755238512964
 21
18.59394106916856
 31
0.0
  0
LINE
  5
8D
330
23
100
AcDbEntity
  8
0
 62
     0
100
AcDbLine
 10
34.32255238512963
 20
19.00927115505846
 30
0.0
 11
34.43755238512964
 21
19.12427115505847
 31
0.0
  0
LINE
  5
8E
330
23
100
AcDbEntity
  8
0
 62
     0
100
AcDbLine
 10
34.32255238512963
 20
13.70597029615935
 30
0.0
 11
34.43755238512964
 21
13.82097029615936
 31
0.0
  0
LINE
  5
8F
330
23
100
AcDbEntity
  8
0
 62
     0
100
AcDbLine
 10
34.32255238512963
 20
13.17564021026944
 30
0.0
 11
34.43755238512964
 21
13.29064021026945
 31
0.0
  0
LINE
  5
90
330
23
100
AcDbEntity
  8
0
 62
     0
100
AcDbLine
 10
34.44320358571554
 20
12.76596132496544
 30
0.0
 11
34.53233758554178
 21
12.85509532479168
 31
0.0
  0
LINE
  5
91
330
23
100
AcDbEntity
  8
0
 62
     0
100
AcDbLine
 10
34.94587704329481
 20
12.73830469665481
 30
0.0
 11
35.06087704329481
 21
12.85330469665481
 31
0.0
  0
LINE
  5
92
330
23
100
AcDbEntity
  8
0
 62
     0
100
AcDbLine
 10
34.55255238512965
 20
11.81464995259973
 30
0.0
 11
34.63214289767339
 21
11.89424046514347
 31
0.0
  0
LINE
  5
93
330
23
100
AcDbEntity
  8
0
 62
     0
100
AcDbLine
 10
35.47620712918472
 20
12.73830469665481
 30
0.0
 11
35.59120712918473
 21
12.85330469665481
 31
0.0
  0
LINE
  5
94
330
23
100
AcDbEntity
  8
0
 62
     0
100
AcDbLine
 10
35.04807100358077
 20
11.77983848516094
 30
0.0
 11
35.1624729835633
 21
11.89424046514347
 31
0.0
  0
LINE
  5
95
330
23
100
AcDbEntity
  8
0
 62
     0
100
AcDbLine
 10
36.00653721507463
 20
12.73830469665481
 30
0.0
 11
36.12153721507464
 21
12.85330469665481
 31
0.0
  0
LINE
  5
96
330
23
100
AcDbEntity
  8
0
 62
     0
100
AcDbLine
 10
35.56852596679368
 20
11.76996336248394
 30
0.0
 11
35.69280306945322
 21
11.89424046514347
 31
0.0
  0
LINE
  5
97
330
23
100
AcDbEntity
  8
0
 62
     0
100
AcDbLine
 10
36.53686730096455
 20
12.73830469665481
 30
0.0
 11
36.65186730096455
 21
12.85330469665481
 31
0.0
  0
LINE
  5
98
330
23
100
AcDbEntity
  8
0
 62
     0
100
AcDbLine
 10
36.08898093000658
 20
11.76008823980694
 30
0.0
 11
36.22313315534313
 21
11.89424046514347
 31
0.0
  0
LINE
  5
99
330
23
100
AcDbEntity
  8
0
 62
     0
100
AcDbLine
 10
37.06719738685446
 20
12.73830469665481
 30
0.0
 11
37.18219738685446
 21
12.85330469665481
 31
0.0
  0
LINE
  5
9A
330
23
100
AcDbEntity
  8
0
 62
     0
100
AcDbLine
 10
36.60943589321949
 20
11.75021311712993
 30
0.0
 11
36.75346324123304
 21
11.89424046514347
 31
0.0
  0
LINE
  5
9B
330
23
100
AcDbEntity
  8
0
 62
     0
100
AcDbLine
 10
37.40282245800214
 20
12.54359968191259
 30
0.0
 11
37.45955238512964
 21
12.60032960904007
 31
0.0
  0
LINE
  5
9C
330
23
100
AcDbEntity
  8
0
 62
     0
100
AcDbLine
 10
37.1298908564324
 20
11.74033799445293
 30
0.0
 11
37.31443411035383
 21
11.92488124837435
 31
0.0
  0
LINE
  5
9D
330
23
100
AcDbEntity
  8
0
 62
     0
100
AcDbLine
 10
34.32255238512963
 20
14.3025916427855
 30
0.0
 11
34.43755238512964
 21
14.41759164278551
 31
0.0
  0
LINE
  5
9E
330
23
100
AcDbEntity
  8
0
 62
     0
100
AcDbLine
 10
34.32255238512963
 20
14.83292172867541
 30
0.0
 11
34.43755238512964
 21
14.94792172867542
 31
0.0
  0
LINE
  5
9F
330
23
100
AcDbEntity
  8
0
 62
     0
100
AcDbLine
 10
34.32255238512963
 20
15.36325181456533
 30
0.0
 11
34.43755238512964
 21
15.47825181456533
 31
0.0
  0
LINE
  5
A0
330
23
100
AcDbEntity
  8
0
 62
     0
100
AcDbLine
 10
34.32255238512963
 20
15.89358190045524
 30
0.0
 11
34.43755238512964
 21
16.00858190045525
 31
0.0
  0
LINE
  5
A1
330
23
100
AcDbEntity
  8
0
 62
     0
100
AcDbLine
 10
34.32255238512963
 20
16.42391198634514
 30
0.0
 11
34.43755238512964
 21
16.53891198634515
 31
0.0
  0
LINE
  5
A2
330
23
100
AcDbEntity
  8
0
 62
     0
100
AcDbLine
 10
34.32255238512963
 20
16.95424207223506
 30
0.0
 11
34.43755238512964
 21
17.06924207223507
 31
0.0
  0
LINE
  5
A3
330
23
100
AcDbEntity
  8
0
 62
     0
100
AcDbLine
 10
34.32255238512963
 20
17.48457215812497
 30
0.0
 11
34.43755238512964
 21
17.59957215812498
 31
0.0
  0
LINE
  5
A4
330
23
100
AcDbEntity
  8
0
 62
     0
100
AcDbLine
 10
34.32255238512963
 20
18.01490224401488
 30
0.0
 11
34.43755238512964
 21
18.12990224401489
 31
0.0
  0
LINE
  5
A5
330
23
100
AcDbEntity
  8
0
 62
     0
100
AcDbLine
 10
34.32255238512963
 20
18.54523232990479
 30
0.0
 11
34.43755238512964
 21
18.6602323299048
 31
0.0
  0
LINE
  5
A6
330
23
100
AcDbEntity
  8
0
 62
     0
100
AcDbLine
 10
34.32255238512963
 20
19.0755624157947
 30
0.0
 11
34.43755238512964
 21
19.19056241579471
 31
0.0
  0
LINE
  5
A7
330
23
100
AcDbEntity
  8
0
 62
     0
100
AcDbLine
 10
34.32255238512963
 20
13.77226155689559
 30
0.0
 11
34.43755238512964
 21
13.8872615568956
 31
0.0
  0
LINE
  5
A8
330
23
100
AcDbEntity
  8
0
 62
     0
100
AcDbLine
 10
34.32255238512963
 20
13.24193147100568
 30
0.0
 11
34.43755238512964
 21
13.35693147100569
 31
0.0
  0
LINE
  5
A9
330
23
100
AcDbEntity
  8
0
 62
     0
100
AcDbLine
 10
34.40381846693227
 20
12.79286746691841
 30
0.0
 11
34.4856903681979
 21
12.87473936818405
 31
0.0
  0
LINE
  5
AA
330
23
100
AcDbEntity
  8
0
 62
     0
100
AcDbLine
 10
34.87958578255858
 20
12.73830469665481
 30
0.0
 11
34.99458578255858
 21
12.85330469665481
 31
0.0
  0
LINE
  5
AB
330
23
100
AcDbEntity
  8
0
 62
     0
100
AcDbLine
 10
34.55255238512964
 20
11.88094121333596
 30
0.0
 11
34.56585163693715
 21
11.89424046514347
 31
0.0
  0
LINE
  5
AC
330
23
100
AcDbEntity
  8
0
 62
     0
100
AcDbLine
 10
35.40991586844848
 20
12.73830469665481
 30
0.0
 11
35.52491586844849
 21
12.85330469665481
 31
0.0
  0
LINE
  5
AD
330
23
100
AcDbEntity
  8
0
 62
     0
100
AcDbLine
 10
34.98301413317915
 20
11.78107287549557
 30
0.0
 11
35.09618172282706
 21
11.89424046514347
 31
0.0
  0
LINE
  5
AE
330
23
100
AcDbEntity
  8
0
 62
     0
100
AcDbLine
 10
35.9402459543384
 20
12.73830469665481
 30
0.0
 11
36.0552459543384
 21
12.85330469665481
 31
0.0
  0
LINE
  5
AF
330
23
100
AcDbEntity
  8
0
 62
     0
100
AcDbLine
 10
35.50346909639206
 20
11.77119775281856
 30
0.0
 11
35.62651180871697
 21
11.89424046514347
 31
0.0
  0
LINE
  5
B0
330
23
100
AcDbEntity
  8
0
 62
     0
100
AcDbLine
 10
36.47057604022831
 20
12.73830469665481
 30
0.0
 11
36.58557604022831
 21
12.85330469665481
 31
0.0
  0
LINE
  5
B1
330
23
100
AcDbEntity
  8
0
 62
     0
100
AcDbLine
 10
36.02392405960497
 20
11.76132263014156
 30
0.0
 11
36.15684189460689
 21
11.89424046514347
 31
0.0
  0
LINE
  5
B2
330
23
100
AcDbEntity
  8
0
 62
     0
100
AcDbLine
 10
37.00090612611822
 20
12.73830469665481
 30
0.0
 11
37.11590612611821
 21
12.85330469665481
 31
0.0
  0
LINE
  5
B3
330
23
100
AcDbEntity
  8
0
 62
     0
100
AcDbLine
 10
36.54437902281788
 20
11.75144750746456
 30
0.0
 11
36.6871719804968
 21
11.89424046514347
 31
0.0
  0
LINE
  5
B4
330
23
100
AcDbEntity
  8
0
 62
     0
100
AcDbLine
 10
37.33653119726591
 20
12.54359968191259
 30
0.0
 11
37.39623621200812
 21
12.60330469665481
 31
0.0
  0
LINE
  5
B5
330
23
100
AcDbEntity
  8
0
 62
     0
100
AcDbLine
 10
37.06483398603079
 20
11.74157238478756
 30
0.0
 11
37.24814284961758
 21
11.92488124837435
 31
0.0
  0
LINE
  5
B6
330
23
100
AcDbEntity
  8
0
 62
     0
100
AcDbLine
 10
34.32255238512963
 20
13.97113533910431
 30
0.0
 11
34.43755238512964
 21
14.08613533910432
 31
0.0
  0
LINE
  5
B7
330
23
100
AcDbEntity
  8
0
 62
     0
100
AcDbLine
 10
34.32255238512963
 20
14.50146542499422
 30
0.0
 11
34.43755238512964
 21
14.61646542499423
 31
0.0
  0
LINE
  5
B8
330
23
100
AcDbEntity
  8
0
 62
     0
100
AcDbLine
 10
34.32255238512963
 20
15.03179551088413
 30
0.0
 11
34.43755238512964
 21
15.14679551088414
 31
0.0
  0
LINE
  5
B9
330
23
100
AcDbEntity
  8
0
 62
     0
100
AcDbLine
 10
34.32255238512963
 20
15.56212559677404
 30
0.0
 11
34.43755238512964
 21
15.67712559677405
 31
0.0
  0
LINE
  5
BA
330
23
100
AcDbEntity
  8
0
 62
     0
100
AcDbLine
 10
34.32255238512963
 20
16.09245568266395
 30
0.0
 11
34.43755238512964
 21
16.20745568266396
 31
0.0
  0
LINE
  5
BB
330
23
100
AcDbEntity
  8
0
 62
     0
100
AcDbLine
 10
34.32255238512963
 20
16.62278576855386
 30
0.0
 11
34.43755238512964
 21
16.73778576855387
 31
0.0
  0
LINE
  5
BC
330
23
100
AcDbEntity
  8
0
 62
     0
100
AcDbLine
 10
34.32255238512963
 20
17.15311585444377
 30
0.0
 11
34.43755238512964
 21
17.26811585444378
 31
0.0
  0
LINE
  5
BD
330
23
100
AcDbEntity
  8
0
 62
     0
100
AcDbLine
 10
34.32255238512963
 20
17.68344594033368
 30
0.0
 11
34.43755238512964
 21
17.79844594033369
 31
0.0
  0
LINE
  5
BE
330
23
100
AcDbEntity
  8
0
 62
     0
100
AcDbLine
 10
34.32255238512963
 20
18.2137760262236
 30
0.0
 11
34.43755238512964
 21
18.3287760262236
 31
0.0
  0
LINE
  5
BF
330
23
100
AcDbEntity
  8
0
 62
     0
100
AcDbLine
 10
34.32255238512963
 20
18.7441061121135
 30
0.0
 11
34.43755238512964
 21
18.85910611211351
 31
0.0
  0
LINE
  5
C0
330
23
100
AcDbEntity
  8
0
 62
     0
100
AcDbLine
 10
34.32255238512963
 20
13.4408052532144
 30
0.0
 11
34.43755238512964
 21
13.55580525321441
 31
0.0
  0
LINE
  5
C1
330
23
100
AcDbEntity
  8
0
 62
     0
100
AcDbLine
 10
34.32848406294243
 20
12.91640684513729
 30
0.0
 11
34.43755238512964
 21
13.0254751673245
 31
0.0
  0
LINE
  5
C2
330
23
100
AcDbEntity
  8
0
 62
     0
100
AcDbLine
 10
34.68071200034986
 20
12.73830469665481
 30
0.0
 11
34.79571200034986
 21
12.85330469665481
 31
0.0
  0
LINE
  5
C3
330
23
100
AcDbEntity
  8
0
 62
     0
100
AcDbLine
 10
35.21104208623977
 20
12.73830469665481
 30
0.0
 11
35.32604208623977
 21
12.85330469665481
 31
0.0
  0
LINE
  5
C4
330
23
100
AcDbEntity
  8
0
 62
     0
100
AcDbLine
 10
34.78784352197431
 20
11.78477604649944
 30
0.0
 11
34.89730794061835
 21
11.89424046514347
 31
0.0
  0
LINE
  5
C5
330
23
100
AcDbEntity
  8
0
 62
     0
100
AcDbLine
 10
35.74137217212967
 20
12.73830469665481
 30
0.0
 11
35.85637217212968
 21
12.85330469665481
 31
0.0
  0
LINE
  5
C6
330
23
100
AcDbEntity
  8
0
 62
     0
100
AcDbLine
 10
35.30829848518722
 20
11.77490092382244
 30
0.0
 11
35.42763802650826
 21
11.89424046514347
 31
0.0
  0
LINE
  5
C7
330
23
100
AcDbEntity
  8
0
 62
     0
100
AcDbLine
 10
36.27170225801959
 20
12.73830469665481
 30
0.0
 11
36.38670225801959
 21
12.85330469665481
 31
0.0
  0
LINE
  5
C8
330
23
100
AcDbEntity
  8
0
 62
     0
100
AcDbLine
 10
35.82875344840013
 20
11.76502580114544
 30
0.0
 11
35.95796811239817
 21
11.89424046514347
 31
0.0
  0
LINE
  5
C9
330
23
100
AcDbEntity
  8
0
 62
     0
100
AcDbLine
 10
36.8020323439095
 20
12.73830469665481
 30
0.0
 11
36.9170323439095
 21
12.85330469665481
 31
0.0
  0
LINE
  5
CA
330
23
100
AcDbEntity
  8
0
 62
     0
100
AcDbLine
 10
36.34920841161304
 20
11.75515067846844
 30
0.0
 11
36.48829819828808
 21
11.89424046514347
 31
0.0
  0
LINE
  5
CB
330
23
100
AcDbEntity
  8
0
 62
     0
100
AcDbLine
 10
37.37636242979941
 20
12.78230469665481
 30
0.0
 11
37.44736242979942
 21
12.85330469665481
 31
0.0
  0
LINE
  5
CC
330
23
100
AcDbEntity
  8
0
 62
     0
100
AcDbLine
 10
37.20955238512963
 20
12.61549465198503
 30
0.0
 11
37.25955238512962
 21
12.66549465198502
 31
0.0
  0
LINE
  5
CD
330
23
100
AcDbEntity
  8
0
 62
     0
100
AcDbLine
 10
36.86966337482595
 20
11.74527555579143
 30
0.0
 11
37.01862828417799
 21
11.89424046514347
 31
0.0
  0
LINE
  5
CE
330
23
100
AcDbEntity
  8
0
 62
     0
100
AcDbLine
 10
37.39011833803886
 20
11.73540043311443
 30
0.0
 11
37.45955238512963
 21
11.8048344802052
 31
0.0
  0
ENDBLK
  5
CF
330
23
100
AcDbEntity
  8
0
100
AcDbBlockEnd
  0
BLOCK
  5
D0
330
24
100
AcDbEntity
  8
0
100
AcDbBlockBegin
  2
*X2
 70
     1
 10
0.0
 20
0.0
 30
0.0
  3
*X2
  1

  0
LINE
  5
D1
330
24
100
AcDbEntity
  8
0
 62
     0
100
AcDbLine
 10
41.39955238512961
 20
13.22444646153117
 30
0.0
 11
41.19655238512962
 21
13.42744646153117
 31
0.0
  0
LINE
  5
D2
330
24
100
AcDbEntity
  8
0
 62
     0
100
AcDbLine
 10
41.0217583815173
 20
13.60224046514349
 30
0.0
 11
40.93955238512962
 21
13.68444646153117
 31
0.0
  0
LINE
  5
D3
330
24
100
AcDbEntity
  8
0
 62
     0
100
AcDbLine
 10
41.31955238512963
 20
12.77411637564124
 30
0.0
 11
41.06292829562739
 21
13.03074046514349
 31
0.0
  0
LINE
  5
D4
330
24
100
AcDbEntity
  8
0
 62
     0
100
AcDbLine
 10
40.89792829562738
 20
13.19574046514349
 30
0.0
 11
40.84918788512965
 21
13.24448087564122
 31
0.0
  0
LINE
  5
D5
330
24
100
AcDbEntity
  8
0
 62
     0
100
AcDbLine
 10
41.25209820973747
 20
12.31124046514349
 30
0.0
 11
41.10855238512963
 21
12.45478628975135
 31
0.0
  0
LINE
  5
D6
330
24
100
AcDbEntity
  8
0
 62
     0
100
AcDbLine
 10
41.05668105867985
 20
12.50665761620112
 30
0.0
 11
40.84227705240021
 21
12.72106162248075
 31
0.0
  0
LINE
  5
D7
330
24
100
AcDbEntity
  8
0
 62
     0
100
AcDbLine
 10
41.24261355672765
 20
11.7903950322634
 30
0.0
 11
41.10855238512962
 21
11.92445620386144
 31
0.0
  0
LINE
  5
D8
330
24
100
AcDbEntity
  8
0
 62
     0
100
AcDbLine
 10
40.52753554159431
 20
12.50547304739675
 30
0.0
 11
40.3119469665103
 21
12.72106162248075
 31
0.0
  0
LINE
  5
D9
330
24
100
AcDbEntity
  8
0
 62
     0
100
AcDbLine
 10
40.72139799172827
 20
11.78128051137287
 30
0.0
 11
40.59546265020708
 21
11.90721585289406
 31
0.0
  0
LINE
  5
DA
330
24
100
AcDbEntity
  8
0
 62
     0
100
AcDbLine
 10
39.99839002450877
 20
12.50428847859238
 30
0.0
 11
39.78161688062039
 21
12.72106162248075
 31
0.0
  0
LINE
  5
DB
330
24
100
AcDbEntity
  8
0
 62
     0
100
AcDbLine
 10
40.2001824267289
 20
11.77216599048234
 30
0.0
 11
40.06631713312153
 21
11.90603128408969
 31
0.0
  0
LINE
  5
DC
330
24
100
AcDbEntity
  8
0
 62
     0
100
AcDbLine
 10
39.46924450742322
 20
12.50310390978802
 30
0.0
 11
39.25128679473048
 21
12.72106162248075
 31
0.0
  0
LINE
  5
DD
330
24
100
AcDbEntity
  8
0
 62
     0
100
AcDbLine
 10
39.67896686172952
 20
11.7630514695918
 30
0.0
 11
39.49243418586839
 21
11.94958414545292
 31
0.0
  0
LINE
  5
DE
330
24
100
AcDbEntity
  8
0
 62
     0
100
AcDbLine
 10
38.94009899033768
 20
12.50191934098364
 30
0.0
 11
38.72095670884057
 21
12.72106162248075
 31
0.0
  0
LINE
  5
DF
330
24
100
AcDbEntity
  8
0
 62
     0
100
AcDbLine
 10
39.15775129673015
 20
11.75393694870127
 30
0.0
 11
38.96328866878286
 21
11.94839957664856
 31
0.0
  0
LINE
  5
E0
330
24
100
AcDbEntity
  8
0
 62
     0
100
AcDbLine
 10
38.41095347325214
 20
12.50073477217927
 30
0.0
 11
38.19062662295065
 21
12.72106162248075
 31
0.0
  0
LINE
  5
E1
330
24
100
AcDbEntity
  8
0
 62
     0
100
AcDbLine
 10
38.63653573173076
 20
11.74482242781074
 30
0.0
 11
38.43414315169733
 21
11.94721500784418
 31
0.0
  0
LINE
  5
E2
330
24
100
AcDbEntity
  8
0
 62
     0
100
AcDbLine
 10
37.87672415728392
 20
12.50463400225758
 30
0.0
 11
37.66029653706075
 21
12.72106162248075
 31
0.0
  0
LINE
  5
E3
330
24
100
AcDbEntity
  8
0
 62
     0
100
AcDbLine
 10
38.11532016673139
 20
11.7357079069202
 30
0.0
 11
37.90422321600471
 21
11.94680485764688
 31
0.0
  0
LINE
  5
E4
330
24
100
AcDbEntity
  8
0
 62
     0
100
AcDbLine
 10
37.59410460173201
 20
11.72659338602967
 30
0.0
 11
37.45955238512962
 21
11.86114560263205
 31
0.0
  0
LINE
  5
E5
330
24
100
AcDbEntity
  8
0
 62
     0
100
AcDbLine
 10
41.39955238512961
 20
13.75477654742108
 30
0.0
 11
41.31455238512962
 21
13.83977654742108
 31
0.0
  0
LINE
  5
E6
330
24
100
AcDbEntity
  8
0
 62
     0
100
AcDbLine
 10
41.23958846740722
 20
13.91474046514348
 30
0.0
 11
41.13208846740722
 21
14.02224046514348
 31
0.0
  0
LINE
  5
E7
330
24
100
AcDbEntity
  8
0
 62
     0
100
AcDbLine
 10
41.31955238512963
 20
14.36510663331098
 30
0.0
 11
41.19655238512963
 21
14.48810663331098
 31
0.0
  0
LINE
  5
E8
330
24
100
AcDbEntity
  8
0
 62
     0
100
AcDbLine
 10
41.09841855329711
 20
14.58624046514349
 30
0.0
 11
40.99091855329713
 21
14.69374046514348
 31
0.0
  0
LINE
  5
E9
330
24
100
AcDbEntity
  8
0
 62
     0
100
AcDbLine
 10
41.39955238512961
 20
14.8154367192009
 30
0.0
 11
41.04455238512971
 21
15.17043671920081
 31
0.0
  0
LINE
  5
EA
330
24
100
AcDbEntity
  8
0
 62
     0
100
AcDbLine
 10
41.31955238512963
 20
15.4257668050908
 30
0.0
 11
41.06757872507694
 21
15.67774046514348
 31
0.0
  0
LINE
  5
EB
330
24
100
AcDbEntity
  8
0
 62
     0
100
AcDbLine
 10
41.39955238512962
 20
15.87609689098071
 30
0.0
 11
41.34356227103304
 21
15.93208700507729
 31
0.0
  0
LINE
  5
EC
330
24
100
AcDbEntity
  8
0
 62
     0
100
AcDbLine
 10
41.31955238512961
 20
15.95609689098072
 30
0.0
 11
41.04455238512971
 21
16.23109689098063
 31
0.0
  0
LINE
  5
ED
330
24
100
AcDbEntity
  8
0
 62
     0
100
AcDbLine
 10
41.31955238512961
 20
16.48642697687063
 30
0.0
 11
41.14423889685677
 21
16.66174046514348
 31
0.0
  0
LINE
  5
EE
330
24
100
AcDbEntity
  8
0
 62
     0
100
AcDbLine
 10
41.31955238512963
 20
17.01675706276053
 30
0.0
 11
41.04455238512971
 21
17.29175706276044
 31
0.0
  0
LINE
  5
EF
330
24
100
AcDbEntity
  8
0
 62
     0
100
AcDbLine
 10
41.31955238512963
 20
17.54708714865044
 30
0.0
 11
41.22089906863659
 21
17.64574046514348
 31
0.0
  0
LINE
  5
F0
330
24
100
AcDbEntity
  8
0
 62
     0
100
AcDbLine
 10
41.01589906863659
 20
17.85074046514348
 30
0.0
 11
40.93955238512962
 21
17.92708714865045
 31
0.0
  0
LINE
  5
F1
330
24
100
AcDbEntity
  8
0
 62
     0
100
AcDbLine
 10
41.31955238512963
 20
18.07741723454035
 30
0.0
 11
41.04455238512971
 21
18.35241723454027
 31
0.0
  0
LINE
  5
F2
330
24
100
AcDbEntity
  8
0
 62
     0
100
AcDbLine
 10
41.31955238512962
 20
18.60774732043027
 30
0.0
 11
41.27092927360004
 21
18.65637043195985
 31
0.0
  0
LINE
  5
F3
330
24
100
AcDbEntity
  8
0
 62
     0
100
AcDbLine
 10
41.09255924041642
 20
18.83474046514348
 30
0.0
 11
40.84918788512964
 21
19.07811182043025
 31
0.0
  0
LINE
  5
F4
330
24
100
AcDbEntity
  8
0
 62
     0
100
AcDbLine
 10
41.39955238512961
 20
19.05807740632019
 30
0.0
 11
41.31588932630632
 21
19.14174046514348
 31
0.0
  0
LINE
  5
F5
330
24
100
AcDbEntity
  8
0
 62
     0
100
AcDbLine
 10
41.39955238512961
 20
13.15815520079493
 30
0.0
 11
41.16246712078107
 21
13.39524046514347
 31
0.0
  0
LINE
  5
F6
330
24
100
AcDbEntity
  8
0
 62
     0
100
AcDbLine
 10
40.95546712078106
 20
13.60224046514349
 30
0.0
 11
40.93955238512962
 21
13.61815520079493
 31
0.0
  0
LINE
  5
F7
330
24
100
AcDbEntity
  8
0
 62
     0
100
AcDbLine
 10
41.31955238512963
 20
12.70782511490501
 30
0.0
 11
41.23518788512963
 21
12.79218961490501
 31
0.0
  0
LINE
  5
F8
330
24
100
AcDbEntity
  8
0
 62
     0
100
AcDbLine
 10
41.19613703489115
 20
12.83124046514349
 30
0.0
 11
40.99663703489115
 21
13.03074046514349
 31
0.0
  0
LINE
  5
F9
330
24
100
AcDbEntity
  8
0
 62
     0
100
AcDbLine
 10
41.39955238512962
 20
12.0974950290151
 30
0.0
 11
41.37480694900123
 21
12.12224046514349
 31
0.0
  0
LINE
  5
FA
330
24
100
AcDbEntity
  8
0
 62
     0
100
AcDbLine
 10
40.97935351150225
 20
12.51769390264247
 30
0.0
 11
40.77598579166397
 21
12.72106162248075
 31
0.0
  0
LINE
  5
FB
330
24
100
AcDbEntity
  8
0
 62
     0
100
AcDbLine
 10
41.18580694900123
 20
12.31124046514349
 30
0.0
 11
41.10855238512963
 21
12.3884950290151
 31
0.0
  0
LINE
  5
FC
330
24
100
AcDbEntity
  8
0
 62
     0
100
AcDbLine
 10
41.17746161110273
 20
11.78925571715209
 30
0.0
 11
41.04728062011504
 21
11.91943670813978
 31
0.0
  0
LINE
  5
FD
330
24
100
AcDbEntity
  8
0
 62
     0
100
AcDbLine
 10
40.45020799441672
 20
12.5165093338381
 30
0.0
 11
40.24565570577406
 21
12.72106162248075
 31
0.0
  0
LINE
  5
FE
330
24
100
AcDbEntity
  8
0
 62
     0
100
AcDbLine
 10
40.65624604610335
 20
11.78014119626155
 30
0.0
 11
40.51813510302949
 21
11.91825213933541
 31
0.0
  0
LINE
  5
FF
330
24
100
AcDbEntity
  8
0
 62
     0
100
AcDbLine
 10
39.92106247733117
 20
12.51532476503374
 30
0.0
 11
39.71532561988415
 21
12.72106162248075
 31
0.0
  0
LINE
  5
100
330
24
100
AcDbEntity
  8
0
 62
     0
100
AcDbLine
 10
40.13503048110397
 20
11.77102667537102
 30
0.0
 11
39.98898958594395
 21
11.91706757053105
 31
0.0
  0
LINE
  5
101
330
24
100
AcDbEntity
  8
0
 62
     0
100
AcDbLine
 10
39.39191696024563
 20
12.51414019622937
 30
0.0
 11
39.18499553399424
 21
12.72106162248075
 31
0.0
  0
LINE
  5
102
330
24
100
AcDbEntity
  8
0
 62
     0
100
AcDbLine
 10
39.6138149161046
 20
11.76191215448048
 30
0.0
 11
39.45984406885841
 21
11.91588300172667
 31
0.0
  0
LINE
  5
103
330
24
100
AcDbEntity
  8
0
 62
     0
100
AcDbLine
 10
38.86277144316008
 20
12.512955627425
 30
0.0
 11
38.65466544810433
 21
12.72106162248075
 31
0.0
  0
LINE
  5
104
330
24
100
AcDbEntity
  8
0
 62
     0
100
AcDbLine
 10
39.09259935110522
 20
11.75279763358995
 30
0.0
 11
38.93069855177286
 21
11.91469843292231
 31
0.0
  0
LINE
  5
105
330
24
100
AcDbEntity
  8
0
 62
     0
100
AcDbLine
 10
38.33362592607453
 20
12.51177105862063
 30
0.0
 11
38.12433536221442
 21
12.72106162248075
 31
0.0
  0
LINE
  5
106
330
24
100
AcDbEntity
  8
0
 62
     0
100
AcDbLine
 10
38.57138378610585
 20
11.74368311269942
 30
0.0
 11
38.40155303468733
 21
11.91351386411794
 31
0.0
  0
LINE
  5
107
330
24
100
AcDbEntity
  8
0
 62
     0
100
AcDbLine
 10
37.79939661010633
 20
12.51567028869894
 30
0.0
 11
37.5940052763245
 21
12.72106162248075
 31
0.0
  0
LINE
  5
108
330
24
100
AcDbEntity
  8
0
 62
     0
100
AcDbLine
 10
38.05016822110646
 20
11.73456859180888
 30
0.0
 11
37.8673237187191
 21
11.91741309419625
 31
0.0
  0
LINE
  5
109
330
24
100
AcDbEntity
  8
0
 62
     0
100
AcDbLine
 10
37.52895265610709
 20
11.72545407091835
 30
0.0
 11
37.45955238512962
 21
11.79485434189581
 31
0.0
  0
LINE
  5
10A
330
24
100
AcDbEntity
  8
0
 62
     0
100
AcDbLine
 10
41.39955238512961
 20
13.68848528668484
 30
0.0
 11
41.31455238512962
 21
13.77348528668485
 31
0.0
  0
LINE
  5
10B
330
24
100
AcDbEntity
  8
0
 62
     0
100
AcDbLine
 10
41.17329720667098
 20
13.91474046514348
 30
0.0
 11
41.06579720667098
 21
14.02224046514348
 31
0.0
  0
LINE
  5
10C
330
24
100
AcDbEntity
  8
0
 62
     0
100
AcDbLine
 10
41.31955238512963
 20
14.29881537257474
 30
0.0
 11
41.19655238512963
 21
14.42181537257474
 31
0.0
  0
LINE
  5
10D
330
24
100
AcDbEntity
  8
0
 62
     0
100
AcDbLine
 10
41.03212729256088
 20
14.58624046514349
 30
0.0
 11
40.93955238512962
 21
14.67881537257475
 31
0.0
  0
LINE
  5
10E
330
24
100
AcDbEntity
  8
0
 62
     0
100
AcDbLine
 10
41.39955238512961
 20
14.74914545846466
 30
0.0
 11
41.31455238512962
 21
14.83414545846466
 31
0.0
  0
LINE
  5
10F
330
24
100
AcDbEntity
  8
0
 62
     0
100
AcDbLine
 10
41.2499573784508
 20
14.89874046514348
 30
0.0
 11
41.04455238512971
 21
15.10414545846457
 31
0.0
  0
LINE
  5
110
330
24
100
AcDbEntity
  8
0
 62
     0
100
AcDbLine
 10
41.31955238512963
 20
15.35947554435456
 30
0.0
 11
41.0012874643407
 21
15.67774046514348
 31
0.0
  0
LINE
  5
111
330
24
100
AcDbEntity
  8
0
 62
     0
100
AcDbLine
 10
41.39955238512962
 20
15.80980563024448
 30
0.0
 11
41.04455238512971
 21
16.16480563024439
 31
0.0
  0
LINE
  5
112
330
24
100
AcDbEntity
  8
0
 62
     0
100
AcDbLine
 10
41.31955238512961
 20
16.42013571613439
 30
0.0
 11
41.07794763612053
 21
16.66174046514348
 31
0.0
  0
LINE
  5
113
330
24
100
AcDbEntity
  8
0
 62
     0
100
AcDbLine
 10
41.39955238512961
 20
16.87046580202431
 30
0.0
 11
41.35951444186932
 21
16.91050374528459
 31
0.0
  0
LINE
  5
114
330
24
100
AcDbEntity
  8
0
 62
     0
100
AcDbLine
 10
41.31955238512963
 20
16.95046580202429
 30
0.0
 11
41.04455238512971
 21
17.2254658020242
 31
0.0
  0
LINE
  5
115
330
24
100
AcDbEntity
  8
0
 62
     0
100
AcDbLine
 10
41.31955238512963
 20
17.4807958879142
 30
0.0
 11
41.15460780790035
 21
17.64574046514348
 31
0.0
  0
LINE
  5
116
330
24
100
AcDbEntity
  8
0
 62
     0
100
AcDbLine
 10
40.94960780790035
 20
17.85074046514348
 30
0.0
 11
40.93955238512963
 21
17.8607958879142
 31
0.0
  0
LINE
  5
117
330
24
100
AcDbEntity
  8
0
 62
     0
100
AcDbLine
 10
41.31955238512963
 20
18.01112597380411
 30
0.0
 11
41.04455238512971
 21
18.28612597380403
 31
0.0
  0
LINE
  5
118
330
24
100
AcDbEntity
  8
0
 62
     0
100
AcDbLine
 10
41.31955238512962
 20
18.54145605969403
 30
0.0
 11
41.23126797968017
 21
18.62974046514349
 31
0.0
  0
LINE
  5
119
330
24
100
AcDbEntity
  8
0
 62
     0
100
AcDbLine
 10
40.91926797968016
 20
18.9417404651435
 30
0.0
 11
40.84918788512965
 21
19.01182055969401
 31
0.0
  0
LINE
  5
11A
330
24
100
AcDbEntity
  8
0
 62
     0
100
AcDbLine
 10
41.02626797968017
 20
18.83474046514348
 30
0.0
 11
40.93955238512962
 21
18.92145605969403
 31
0.0
  0
LINE
  5
11B
330
24
100
AcDbEntity
  8
0
 62
     0
100
AcDbLine
 10
41.37326901880997
 20
19.0180695119036
 30
0.0
 11
41.24959806557007
 21
19.14174046514348
 31
0.0
  0
LINE
  5
11C
330
24
100
AcDbEntity
  8
0
 62
     0
100
AcDbLine
 10
41.39955238512961
 20
13.09186394005869
 30
0.0
 11
41.33418788512964
 21
13.15722844005867
 31
0.0
  0
LINE
  5
11D
330
24
100
AcDbEntity
  8
0
 62
     0
100
AcDbLine
 10
41.29567586004482
 20
13.19574046514349
 30
0.0
 11
41.09617586004484
 21
13.39524046514347
 31
0.0
  0
LINE
  5
11E
330
24
100
AcDbEntity
  8
0
 62
     0
100
AcDbLine
 10
41.31955238512963
 20
12.64153385416877
 30
0.0
 11
41.23518788512963
 21
12.72589835416877
 31
0.0
  0
LINE
  5
11F
330
24
100
AcDbEntity
  8
0
 62
     0
100
AcDbLine
 10
41.12984577415491
 20
12.83124046514349
 30
0.0
 11
40.93034577415491
 21
13.03074046514349
 31
0.0
  0
LINE
  5
120
330
24
100
AcDbEntity
  8
0
 62
     0
100
AcDbLine
 10
41.39955238512961
 20
12.03120376827886
 30
0.0
 11
41.30851568826499
 21
12.12224046514349
 31
0.0
  0
LINE
  5
121
330
24
100
AcDbEntity
  8
0
 62
     0
100
AcDbLine
 10
40.94676339449225
 20
12.48399275891623
 30
0.0
 11
40.70969453092773
 21
12.72106162248075
 31
0.0
  0
LINE
  5
122
330
24
100
AcDbEntity
  8
0
 62
     0
100
AcDbLine
 10
41.119515688265
 20
12.31124046514349
 30
0.0
 11
41.10855238512963
 21
12.32220376827886
 31
0.0
  0
LINE
  5
123
330
24
100
AcDbEntity
  8
0
 62
     0
100
AcDbLine
 10
41.11230966547781
 20
11.78811640204077
 30
0.0
 11
40.96995307293744
 21
11.93047299458113
 31
0.0
  0
LINE
  5
124
330
24
100
AcDbEntity
  8
0
 62
     0
100
AcDbLine
 10
40.37288044723912
 20
12.52754562027945
 30
0.0
 11
40.17936444503782
 21
12.72106162248075
 31
0.0
  0
LINE
  5
125
330
24
100
AcDbEntity
  8
0
 62
     0
100
AcDbLine
 10
40.41761787740671
 20
12.48280819011185
 30
0.0
 11
40.41364467926242
 21
12.48678138825615
 31
0.0
  0
LINE
  5
126
330
24
100
AcDbEntity
  8
0
 62
     0
100
AcDbLine
 10
40.59109410047843
 20
11.77900188115023
 30
0.0
 11
40.4408075558519
 21
11.92928842577677
 31
0.0
  0
LINE
  5
127
330
24
100
AcDbEntity
  8
0
 62
     0
100
AcDbLine
 10
39.84373493015358
 20
12.52636105147509
 30
0.0
 11
39.64903435914791
 21
12.72106162248075
 31
0.0
  0
LINE
  5
128
330
24
100
AcDbEntity
  8
0
 62
     0
100
AcDbLine
 10
40.06987853547905
 20
11.7698873602597
 30
0.0
 11
39.91166203876636
 21
11.92810385697239
 31
0.0
  0
LINE
  5
129
330
24
100
AcDbEntity
  8
0
 62
     0
100
AcDbLine
 10
39.31458941306804
 20
12.52517648267071
 30
0.0
 11
39.118704273258
 21
12.72106162248075
 31
0.0
  0
LINE
  5
12A
330
24
100
AcDbEntity
  8
0
 62
     0
100
AcDbLine
 10
39.54866297047967
 20
11.76077283936917
 30
0.0
 11
39.38251652168081
 21
11.92691928816803
 31
0.0
  0
LINE
  5
12B
330
24
100
AcDbEntity
  8
0
 62
     0
100
AcDbLine
 10
38.78544389598249
 20
12.52399191386635
 30
0.0
 11
38.58837418736809
 21
12.72106162248075
 31
0.0
  0
LINE
  5
12C
330
24
100
AcDbEntity
  8
0
 62
     0
100
AcDbLine
 10
39.0274474054803
 20
11.75165831847863
 30
0.0
 11
38.85337100459526
 21
11.92573471936367
 31
0.0
  0
LINE
  5
12D
330
24
100
AcDbEntity
  8
0
 62
     0
100
AcDbLine
 10
38.25629837889695
 20
12.52280734506198
 30
0.0
 11
38.05804410147818
 21
12.72106162248075
 31
0.0
  0
LINE
  5
12E
330
24
100
AcDbEntity
  8
0
 62
     0
100
AcDbLine
 10
38.50623184048092
 20
11.7425437975881
 30
0.0
 11
38.32422548750972
 21
11.92455015055929
 31
0.0
  0
LINE
  5
12F
330
24
100
AcDbEntity
  8
0
 62
     0
100
AcDbLine
 10
37.72206906292873
 20
12.52670657514029
 30
0.0
 11
37.52771401558827
 21
12.72106162248075
 31
0.0
  0
LINE
  5
130
330
24
100
AcDbEntity
  8
0
 62
     0
100
AcDbLine
 10
37.98501627548155
 20
11.73342927669757
 30
0.0
 11
37.7899961715415
 21
11.92844938063761
 31
0.0
  0
LINE
  5
131
330
24
100
AcDbEntity
  8
0
 62
     0
100
AcDbLine
 10
37.46380071048216
 20
11.72431475580703
 30
0.0
 11
37.45955238512962
 21
11.72856308115957
 31
0.0
  0
LINE
  5
132
330
24
100
AcDbEntity
  8
0
 62
     0
100
AcDbLine
 10
41.3571105783186
 20
13.66463583275962
 30
0.0
 11
41.31200594593473
 21
13.70974046514348
 31
0.0
  0
LINE
  5
133
330
24
100
AcDbEntity
  8
0
 62
     0
100
AcDbLine
 10
41.10700594593474
 20
13.91474046514348
 30
0.0
 11
40.99950594593474
 21
14.02224046514348
 31
0.0
  0
LINE
  5
134
330
24
100
AcDbEntity
  8
0
 62
     0
100
AcDbLine
 10
41.31955238512963
 20
14.2325241118385
 30
0.0
 11
41.19655238512963
 21
14.3555241118385
 31
0.0
  0
LINE
  5
135
330
24
100
AcDbEntity
  8
0
 62
     0
100
AcDbLine
 10
40.96583603182464
 20
14.58624046514349
 30
0.0
 11
40.93955238512962
 21
14.61252411183851
 31
0.0
  0
LINE
  5
136
330
24
100
AcDbEntity
  8
0
 62
     0
100
AcDbLine
 10
41.39955238512961
 20
14.68285419772842
 30
0.0
 11
41.31455238512961
 21
14.76785419772843
 31
0.0
  0
LINE
  5
137
330
24
100
AcDbEntity
  8
0
 62
     0
100
AcDbLine
 10
41.18366611771455
 20
14.89874046514348
 30
0.0
 11
41.04455238512971
 21
15.03785419772833
 31
0.0
  0
LINE
  5
138
330
24
100
AcDbEntity
  8
0
 62
     0
100
AcDbLine
 10
41.31955238512963
 20
15.29318428361832
 30
0.0
 11
41.04455238512971
 21
15.56818428361824
 31
0.0
  0
LINE
  5
139
330
24
100
AcDbEntity
  8
0
 62
     0
100
AcDbLine
 10
41.04249620360445
 20
15.57024046514349
 30
0.0
 11
40.93955238512962
 21
15.67318428361833
 31
0.0
  0
LINE
  5
13A
330
24
100
AcDbEntity
  8
0
 62
     0
100
AcDbLine
 10
41.39955238512962
 20
15.74351436950824
 30
0.0
 11
41.31455238512962
 21
15.82851436950824
 31
0.0
  0
LINE
  5
13B
330
24
100
AcDbEntity
  8
0
 62
     0
100
AcDbLine
 10
41.26032628949437
 20
15.88274046514348
 30
0.0
 11
41.04455238512971
 21
16.09851436950815
 31
0.0
  0
LINE
  5
13C
330
24
100
AcDbEntity
  8
0
 62
     0
100
AcDbLine
 10
41.31955238512961
 20
16.35384445539815
 30
0.0
 11
41.01165637538429
 21
16.66174046514348
 31
0.0
  0
LINE
  5
13D
330
24
100
AcDbEntity
  8
0
 62
     0
100
AcDbLine
 10
41.39955238512961
 20
16.80417454128807
 30
0.0
 11
41.04455238512971
 21
17.15917454128796
 31
0.0
  0
LINE
  5
13E
330
24
100
AcDbEntity
  8
0
 62
     0
100
AcDbLine
 10
41.31955238512963
 20
17.41450462717796
 30
0.0
 11
41.08831654716411
 21
17.64574046514348
 31
0.0
  0
LINE
  5
13F
330
24
100
AcDbEntity
  8
0
 62
     0
100
AcDbLine
 10
41.39955238512961
 20
17.86483471306789
 30
0.0
 11
41.3754666127056
 21
17.8889204854919
 31
0.0
  0
LINE
  5
140
330
24
100
AcDbEntity
  8
0
 62
     0
100
AcDbLine
 10
41.31955238512963
 20
17.94483471306787
 30
0.0
 11
41.04455238512971
 21
18.21983471306779
 31
0.0
  0
LINE
  5
141
330
24
100
AcDbEntity
  8
0
 62
     0
100
AcDbLine
 10
41.31955238512963
 20
18.47516479895779
 30
0.0
 11
41.16497671894392
 21
18.62974046514349
 31
0.0
  0
LINE
  5
142
330
24
100
AcDbEntity
  8
0
 62
     0
100
AcDbLine
 10
40.85297671894392
 20
18.9417404651435
 30
0.0
 11
40.84918788512965
 21
18.94552929895777
 31
0.0
  0
LINE
  5
143
330
24
100
AcDbEntity
  8
0
 62
     0
100
AcDbLine
 10
40.95997671894394
 20
18.83474046514348
 30
0.0
 11
40.93955238512962
 21
18.85516479895779
 31
0.0
  0
LINE
  5
144
330
24
100
AcDbEntity
  8
0
 62
     0
100
AcDbLine
 10
41.32416438122757
 20
19.00088288874976
 30
0.0
 11
41.18330680483384
 21
19.14174046514348
 31
0.0
  0
LINE
  5
145
330
24
100
AcDbEntity
  8
0
 62
     0
100
AcDbLine
 10
41.31955238512963
 20
13.50332024373987
 30
0.0
 11
41.11313216372601
 21
13.70974046514348
 31
0.0
  0
LINE
  5
146
330
24
100
AcDbEntity
  8
0
 62
     0
100
AcDbLine
 10
41.39955238512961
 20
12.89299015784997
 30
0.0
 11
41.26180207783611
 21
13.03074046514349
 31
0.0
  0
LINE
  5
147
330
24
100
AcDbEntity
  8
0
 62
     0
100
AcDbLine
 10
41.0968020778361
 20
13.19574046514349
 30
0.0
 11
40.89730207783611
 21
13.39524046514348
 31
0.0
  0
LINE
  5
148
330
24
100
AcDbEntity
  8
0
 62
     0
100
AcDbLine
 10
41.39955238512961
 20
12.36266007196006
 30
0.0
 11
41.04115083460892
 21
12.72106162248075
 31
0.0
  0
LINE
  5
149
330
24
100
AcDbEntity
  8
0
 62
     0
100
AcDbLine
 10
40.9309719919462
 20
12.83124046514349
 30
0.0
 11
40.84918788512965
 21
12.91302457196002
 31
0.0
  0
LINE
  5
14A
330
24
100
AcDbEntity
  8
0
 62
     0
100
AcDbLine
 10
41.32813721544566
 20
11.9037451557541
 30
0.0
 11
41.10964190605627
 21
12.12224046514349
 31
0.0
  0
LINE
  5
14B
330
24
100
AcDbEntity
  8
0
 62
     0
100
AcDbLine
 10
40.71478075295948
 20
12.51710161824029
 30
0.0
 11
40.51082074871902
 21
12.72106162248075
 31
0.0
  0
LINE
  5
14C
330
24
100
AcDbEntity
  8
0
 62
     0
100
AcDbLine
 10
40.91685382860304
 20
11.78469845670682
 30
0.0
 11
40.78270786157226
 21
11.9188444237376
 31
0.0
  0
LINE
  5
14D
330
24
100
AcDbEntity
  8
0
 62
     0
100
AcDbLine
 10
40.18563523587395
 20
12.51591704943591
 30
0.0
 11
39.98049066282911
 21
12.72106162248075
 31
0.0
  0
LINE
  5
14E
330
24
100
AcDbEntity
  8
0
 62
     0
100
AcDbLine
 10
40.39563826360367
 20
11.77558393581629
 30
0.0
 11
40.25356234448671
 21
11.91765985493323
 31
0.0
  0
LINE
  5
14F
330
24
100
AcDbEntity
  8
0
 62
     0
100
AcDbLine
 10
39.6564897187884
 20
12.51473248063155
 30
0.0
 11
39.45016057693919
 21
12.72106162248075
 31
0.0
  0
LINE
  5
150
330
24
100
AcDbEntity
  8
0
 62
     0
100
AcDbLine
 10
39.87442269860429
 20
11.76646941492575
 30
0.0
 11
39.72441682740118
 21
11.91647528612886
 31
0.0
  0
LINE
  5
151
330
24
100
AcDbEntity
  8
0
 62
     0
100
AcDbLine
 10
39.12734420170286
 20
12.51354791182718
 30
0.0
 11
38.91983049104929
 21
12.72106162248075
 31
0.0
  0
LINE
  5
152
330
24
100
AcDbEntity
  8
0
 62
     0
100
AcDbLine
 10
39.35320713360491
 20
11.75735489403522
 30
0.0
 11
39.19527131031563
 21
11.91529071732449
 31
0.0
  0
LINE
  5
153
330
24
100
AcDbEntity
  8
0
 62
     0
100
AcDbLine
 10
38.59819868461732
 20
12.51236334302281
 30
0.0
 11
38.38950040515937
 21
12.72106162248075
 31
0.0
  0
LINE
  5
154
330
24
100
AcDbEntity
  8
0
 62
     0
100
AcDbLine
 10
38.83199156860553
 20
11.74824037314468
 30
0.0
 11
38.66612579323009
 21
11.91410614852012
 31
0.0
  0
LINE
  5
155
330
24
100
AcDbEntity
  8
0
 62
     0
100
AcDbLine
 10
38.06905316753177
 20
12.51117877421845
 30
0.0
 11
37.85917031926946
 21
12.72106162248075
 31
0.0
  0
LINE
  5
156
330
24
100
AcDbEntity
  8
0
 62
     0
100
AcDbLine
 10
38.31077600360615
 20
11.73912585225415
 30
0.0
 11
38.13698027614455
 21
11.91292157971576
 31
0.0
  0
LINE
  5
157
330
24
100
AcDbEntity
  8
0
 62
     0
100
AcDbLine
 10
37.40758039037952
 20
12.64232146548079
 30
0.0
 11
37.34455238512964
 21
12.70534947073067
 31
0.0
  0
LINE
  5
158
330
24
100
AcDbEntity
  8
0
 62
     0
100
AcDbLine
 10
37.53482385156356
 20
12.51507800429675
 30
0.0
 11
37.45955238512963
 21
12.59034947073067
 31
0.0
  0
LINE
  5
159
330
24
100
AcDbEntity
  8
0
 62
     0
100
AcDbLine
 10
37.78956043860677
 20
11.73001133136362
 30
0.0
 11
37.60275096017633
 21
11.91682080979406
 31
0.0
  0
LINE
  5
15A
330
24
100
AcDbEntity
  8
0
 62
     0
100
AcDbLine
 10
41.31955238512963
 20
14.03365032962978
 30
0.0
 11
41.19655238512963
 21
14.15665032962978
 31
0.0
  0
LINE
  5
15B
330
24
100
AcDbEntity
  8
0
 62
     0
100
AcDbLine
 10
41.31955238512963
 20
14.56398041551969
 30
0.0
 11
41.18979233550584
 21
14.69374046514348
 31
0.0
  0
LINE
  5
15C
330
24
100
AcDbEntity
  8
0
 62
     0
100
AcDbLine
 10
40.98479233550584
 20
14.89874046514348
 30
0.0
 11
40.93955238512962
 21
14.9439804155197
 31
0.0
  0
LINE
  5
15D
330
24
100
AcDbEntity
  8
0
 62
     0
100
AcDbLine
 10
41.31955238512963
 20
15.0943105014096
 30
0.0
 11
41.04455238512971
 21
15.36931050140952
 31
0.0
  0
LINE
  5
15E
330
24
100
AcDbEntity
  8
0
 62
     0
100
AcDbLine
 10
41.32336729043039
 20
15.62082568199875
 30
0.0
 11
41.26645250728566
 21
15.67774046514348
 31
0.0
  0
LINE
  5
15F
330
24
100
AcDbEntity
  8
0
 62
     0
100
AcDbLine
 10
41.06145250728566
 20
15.88274046514348
 30
0.0
 11
40.95395250728566
 21
15.99024046514348
 31
0.0
  0
LINE
  5
160
330
24
100
AcDbEntity
  8
0
 62
     0
100
AcDbLine
 10
41.31955238512961
 20
16.15497067318944
 30
0.0
 11
41.04455238512971
 21
16.42997067318934
 31
0.0
  0
LINE
  5
161
330
24
100
AcDbEntity
  8
0
 62
     0
100
AcDbLine
 10
41.3801526028599
 20
16.62470054134907
 30
0.0
 11
41.31455238512961
 21
16.69030075907936
 31
0.0
  0
LINE
  5
162
330
24
100
AcDbEntity
  8
0
 62
     0
100
AcDbLine
 10
41.13811267906549
 20
16.86674046514348
 30
0.0
 11
41.03061267906549
 21
16.97424046514347
 31
0.0
  0
LINE
  5
163
330
24
100
AcDbEntity
  8
0
 62
     0
100
AcDbLine
 10
41.31955238512963
 20
17.21563084496924
 30
0.0
 11
41.04455238512971
 21
17.49063084496916
 31
0.0
  0
LINE
  5
164
330
24
100
AcDbEntity
  8
0
 62
     0
100
AcDbLine
 10
40.99694276495538
 20
17.53824046514349
 30
0.0
 11
40.93955238512962
 21
17.59563084496926
 31
0.0
  0
LINE
  5
165
330
24
100
AcDbEntity
  8
0
 62
     0
100
AcDbLine
 10
41.39955238512961
 20
17.66596093085917
 30
0.0
 11
41.31455238512961
 21
17.75096093085917
 31
0.0
  0
LINE
  5
166
330
24
100
AcDbEntity
  8
0
 62
     0
100
AcDbLine
 10
41.21477285084531
 20
17.85074046514348
 30
0.0
 11
41.04455238512971
 21
18.02096093085907
 31
0.0
  0
LINE
  5
167
330
24
100
AcDbEntity
  8
0
 62
     0
100
AcDbLine
 10
41.31955238512963
 20
18.27629101674907
 30
0.0
 11
40.96610293673521
 21
18.62974046514348
 31
0.0
  0
LINE
  5
168
330
24
100
AcDbEntity
  8
0
 62
     0
100
AcDbLine
 10
41.31955238512962
 20
18.80662110263899
 30
0.0
 11
40.98443302262512
 21
19.14174046514348
 31
0.0
  0
LINE
  5
169
330
24
100
AcDbEntity
  8
0
 62
     0
100
AcDbLine
 10
40.91455238512962
 20
19.21162110263899
 30
0.0
 11
40.90193302262512
 21
19.22424046514349
 31
0.0
  0
ENDBLK
  5
16A
330
24
100
AcDbEntity
  8
0
100
AcDbBlockEnd
  0
BLOCK
  5
16B
330
25
100
AcDbEntity
  8
0
100
AcDbBlockBegin
  2
*D3
 70
     1
 10
0.0
 20
0.0
 30
0.0
  3
*D3
  1

  0
LINE
  5
16C
330
25
100
AcDbEntity
  8
0
  6
ByBlock
 62
     0
100
AcDbLine
 10
22.77772397498935
 20
36.91351215798698
 30
0.0
 11
22.77772397498935
 21
38.02951215798698
 31
0.0
  0
LINE
  5
16D
330
25
100
AcDbEntity
  8
0
  6
ByBlock
 62
     0
100
AcDbLine
 10
30.16272397498935
 20
36.913512157987
 30
0.0
 11
30.16272397498935
 21
38.02951215798698
 31
0.0
  0
LINE
  5
16E
330
25
100
AcDbEntity
  8
0
  6
ByBlock
 62
     0
100
AcDbLine
 10
23.49772397498934
 20
37.65751215798698
 30
0.0
 11
25.98522397498935
 21
37.65751215798698
 31
0.0
  0
LINE
  5
16F
330
25
100
AcDbEntity
  8
0
  6
ByBlock
 62
     0
100
AcDbLine
 10
29.44272397498935
 20
37.65751215798698
 30
0.0
 11
26.95522397498935
 21
37.65751215798698
 31
0.0
  0
SOLID
  5
170
330
25
100
AcDbEntity
  8
0
  6
ByBlock
 62
     0
100
AcDbTrace
 10
23.49772397498934
 20
37.77751215798698
 30
0.0
 11
23.49772397498934
 21
37.53751215798699
 31
0.0
 12
22.77772397498935
 22
37.65751215798698
 32
0.0
 13
22.77772397498935
 23
37.65751215798698
 33
0.0
  0
SOLID
  5
171
330
25
100
AcDbEntity
  8
0
  6
ByBlock
 62
     0
100
AcDbTrace
 10
29.44272397498935
 20
37.77751215798698
 30
0.0
 11
29.44272397498935
 21
37.53751215798699
 31
0.0
 12
30.16272397498935
 22
37.65751215798698
 32
0.0
 13
30.16272397498935
 23
37.65751215798698
 33
0.0
  0
TEXT
  5
172
330
25
100
AcDbEntity
  8
0
  6
ByBlock
 62
     0
100
AcDbText
 10
26.34522397498935
 20
37.40751215798698
 30
0.0
 40
0.5
  1
N
 41
0.75
 72
     1
 11
26.47022397498935
 21
37.65751215798698
 31
0.0
100
AcDbText
 73
     2
  0
POINT
  5
173
330
25
100
AcDbEntity
  8
DEFPOINTS
  6
ByBlock
 62
     0
100
AcDbPoint
 10
22.77772397498935
 20
36.66151215798698
 30
0.0
  0
POINT
  5
174
330
25
100
AcDbEntity
  8
DEFPOINTS
  6
ByBlock
 62
     0
100
AcDbPoint
 10
30.16272397498935
 20
36.66151215798699
 30
0.0
  0
POINT
  5
175
330
25
100
AcDbEntity
  8
DEFPOINTS
  6
ByBlock
 62
     0
100
AcDbPoint
 10
30.16272397498935
 20
37.65751215798698
 30
0.0
  0
ENDBLK
  5
176
330
25
100
AcDbEntity
  8
0
100
AcDbBlockEnd
  0
BLOCK
  5
177
330
26
100
AcDbEntity
  8
0
100
AcDbBlockBegin
  2
*D4
 70
     1
 10
0.0
 20
0.0
 30
0.0
  3
*D4
  1

  0
LINE
  5
178
330
26
100
AcDbEntity
  8
0
  6
ByBlock
 62
     0
100
AcDbLine
 10
13.03584979630011
 20
23.65224046514348
 30
0.0
 11
16.66834979630012
 21
23.65224046514348
 31
0.0
  0
LINE
  5
179
330
26
100
AcDbEntity
  8
0
  6
ByBlock
 62
     0
100
AcDbLine
 10
13.03584979630011
 20
24.63624046514348
 30
0.0
 11
16.66834979630012
 21
24.63624046514348
 31
0.0
  0
LINE
  5
17A
330
26
100
AcDbEntity
  8
0
  6
ByBlock
 62
     0
100
AcDbLine
 10
16.29634979630012
 20
22.93224046514349
 30
0.0
 11
16.29634979630012
 21
22.21224046514348
 31
0.0
  0
LINE
  5
17B
330
26
100
AcDbEntity
  8
0
  6
ByBlock
 62
     0
100
AcDbLine
 10
16.29634979630012
 20
25.35624046514348
 30
0.0
 11
16.29634979630012
 21
26.07624046514348
 31
0.0
  0
SOLID
  5
17C
330
26
100
AcDbEntity
  8
0
  6
ByBlock
 62
     0
100
AcDbTrace
 10
16.17634979630012
 20
22.93224046514349
 30
0.0
 11
16.41634979630012
 21
22.93224046514349
 31
0.0
 12
16.29634979630012
 22
23.65224046514348
 32
0.0
 13
16.29634979630012
 23
23.65224046514348
 33
0.0
  0
SOLID
  5
17D
330
26
100
AcDbEntity
  8
0
  6
ByBlock
 62
     0
100
AcDbTrace
 10
16.17634979630012
 20
25.35624046514348
 30
0.0
 11
16.41634979630012
 21
25.35624046514348
 31
0.0
 12
16.29634979630012
 22
24.63624046514348
 32
0.0
 13
16.29634979630012
 23
24.63624046514348
 33
0.0
  0
TEXT
  5
17E
330
26
100
AcDbEntity
  8
0
  6
ByBlock
 62
     0
100
AcDbText
 10
16.95259979630012
 20
23.89424046514348
 30
0.0
 40
0.5
  1
 TYP.
 41
0.75
 72
     1
 11
17.89009979630012
 21
24.14424046514348
 31
0.0
100
AcDbText
 73
     2
  0
TEXT
  5
17F
330
26
100
AcDbEntity
  8
0
  6
ByBlock
 62
     0
100
AcDbText
 10
13.95259979630012
 20
23.89424046514348
 30
0.0
 40
0.5
  1
0.984 [25]
 41
0.75
 72
     1
 11
15.48384979630012
 21
24.14424046514348
 31
0.0
100
AcDbText
 73
     2
  0
POINT
  5
180
330
26
100
AcDbEntity
  8
DEFPOINTS
  6
ByBlock
 62
     0
100
AcDbPoint
 10
12.78384979630011
 20
23.65224046514348
 30
0.0
  0
POINT
  5
181
330
26
100
AcDbEntity
  8
DEFPOINTS
  6
ByBlock
 62
     0
100
AcDbPoint
 10
12.78384979630011
 20
24.63624046514348
 30
0.0
  0
POINT
  5
182
330
26
100
AcDbEntity
  8
DEFPOINTS
  6
ByBlock
 62
     0
100
AcDbPoint
 10
16.29634979630012
 20
24.63624046514348
 30
0.0
  0
ENDBLK
  5
183
330
26
100
AcDbEntity
  8
0
100
AcDbBlockEnd
  0
BLOCK
  5
184
330
27
100
AcDbEntity
  8
0
100
AcDbBlockBegin
  2
*D5
 70
     1
 10
0.0
 20
0.0
 30
0.0
  3
*D5
  1

  0
LINE
  5
185
330
27
100
AcDbEntity
  8
0
  6
ByBlock
 62
     0
100
AcDbLine
 10
6.331349796300112
 20
11.72424046514349
 30
0.0
 11
2.452061010053403
 21
11.72424046514349
 31
0.0
  0
LINE
  5
186
330
27
100
AcDbEntity
  8
0
  6
ByBlock
 62
     0
100
AcDbLine
 10
6.331349796300112
 20
26.72424046514349
 30
0.0
 11
2.452061010053403
 21
26.72424046514349
 31
0.0
  0
LINE
  5
187
330
27
100
AcDbEntity
  8
0
  6
ByBlock
 62
     0
100
AcDbLine
 10
2.824061010053403
 20
12.44424046514349
 30
0.0
 11
2.824061010053403
 21
18.61424046514349
 31
0.0
  0
LINE
  5
188
330
27
100
AcDbEntity
  8
0
  6
ByBlock
 62
     0
100
AcDbLine
 10
2.824061010053403
 20
26.00424046514349
 30
0.0
 11
2.824061010053403
 21
19.83424046514349
 31
0.0
  0
SOLID
  5
189
330
27
100
AcDbEntity
  8
0
  6
ByBlock
 62
     0
100
AcDbTrace
 10
2.704061010053403
 20
12.44424046514349
 30
0.0
 11
2.944061010053403
 21
12.44424046514349
 31
0.0
 12
2.824061010053403
 22
11.72424046514349
 32
0.0
 13
2.824061010053403
 23
11.72424046514349
 33
0.0
  0
SOLID
  5
18A
330
27
100
AcDbEntity
  8
0
  6
ByBlock
 62
     0
100
AcDbTrace
 10
2.704061010053403
 20
26.00424046514349
 30
0.0
 11
2.944061010053403
 21
26.00424046514349
 31
0.0
 12
2.824061010053403
 22
26.72424046514349
 32
0.0
 13
2.824061010053403
 23
26.72424046514349
 33
0.0
  0
TEXT
  5
18B
330
27
100
AcDbEntity
  8
0
  6
ByBlock
 62
     0
100
AcDbText
 10
2.699061010053403
 20
18.97424046514349
 30
0.0
 40
0.5
  1
G
 41
0.75
 72
     1
 11
2.824061010053403
 21
19.22424046514349
 31
0.0
100
AcDbText
 73
     2
  0
POINT
  5
18C
330
27
100
AcDbEntity
  8
DEFPOINTS
  6
ByBlock
 62
     0
100
AcDbPoint
 10
6.583349796300112
 20
11.72424046514349
 30
0.0
  0
POINT
  5
18D
330
27
100
AcDbEntity
  8
DEFPOINTS
  6
ByBlock
 62
     0
100
AcDbPoint
 10
6.583349796300112
 20
26.72424046514349
 30
0.0
  0
POINT
  5
18E
330
27
100
AcDbEntity
  8
DEFPOINTS
  6
ByBlock
 62
     0
100
AcDbPoint
 10
2.824061010053403
 20
26.72424046514349
 30
0.0
  0
ENDBLK
  5
18F
330
27
100
AcDbEntity
  8
0
100
AcDbBlockEnd
  0
BLOCK
  5
190
330
28
100
AcDbEntity
  8
0
100
AcDbBlockBegin
  2
*D6
 70
     1
 10
0.0
 20
0.0
 30
0.0
  3
*D6
  1

  0
LINE
  5
191
330
28
100
AcDbEntity
  8
0
  6
ByBlock
 62
     0
100
AcDbLine
 10
6.889318524671614
 20
12.02174046514349
 30
0.0
 11
3.452061010053403
 21
12.02174046514349
 31
0.0
  0
LINE
  5
192
330
28
100
AcDbEntity
  8
0
  6
ByBlock
 62
     0
100
AcDbLine
 10
6.889318524671449
 20
26.42674046514349
 30
0.0
 11
3.452061010053403
 21
26.42674046514349
 31
0.0
  0
LINE
  5
193
330
28
100
AcDbEntity
  8
0
  6
ByBlock
 62
     0
100
AcDbLine
 10
3.824061010053403
 20
12.74174046514349
 30
0.0
 11
3.824061010053403
 21
18.61424046514349
 31
0.0
  0
LINE
  5
194
330
28
100
AcDbEntity
  8
0
  6
ByBlock
 62
     0
100
AcDbLine
 10
3.824061010053403
 20
25.7067404651435
 30
0.0
 11
3.824061010053403
 21
19.83424046514349
 31
0.0
  0
SOLID
  5
195
330
28
100
AcDbEntity
  8
0
  6
ByBlock
 62
     0
100
AcDbTrace
 10
3.704061010053403
 20
12.74174046514349
 30
0.0
 11
3.944061010053403
 21
12.74174046514349
 31
0.0
 12
3.824061010053403
 22
12.02174046514349
 32
0.0
 13
3.824061010053403
 23
12.02174046514349
 33
0.0
  0
SOLID
  5
196
330
28
100
AcDbEntity
  8
0
  6
ByBlock
 62
     0
100
AcDbTrace
 10
3.704061010053403
 20
25.7067404651435
 30
0.0
 11
3.944061010053403
 21
25.7067404651435
 31
0.0
 12
3.824061010053403
 22
26.42674046514349
 32
0.0
 13
3.824061010053403
 23
26.42674046514349
 33
0.0
  0
TEXT
  5
197
330
28
100
AcDbEntity
  8
0
  6
ByBlock
 62
     0
100
AcDbText
 10
3.699061010053403
 20
18.97424046514349
 30
0.0
 40
0.5
  1
H
 41
0.75
 72
     1
 11
3.824061010053403
 21
19.22424046514349
 31
0.0
100
AcDbText
 73
     2
  0
POINT
  5
198
330
28
100
AcDbEntity
  8
DEFPOINTS
  6
ByBlock
 62
     0
100
AcDbPoint
 10
7.141318524671614
 20
12.02174046514349
 30
0.0
  0
POINT
  5
199
330
28
100
AcDbEntity
  8
DEFPOINTS
  6
ByBlock
 62
     0
100
AcDbPoint
 10
7.141318524671449
 20
26.42674046514349
 30
0.0
  0
POINT
  5
19A
330
28
100
AcDbEntity
  8
DEFPOINTS
  6
ByBlock
 62
     0
100
AcDbPoint
 10
3.824061010053403
 20
26.42674046514349
 30
0.0
  0
ENDBLK
  5
19B
330
28
100
AcDbEntity
  8
0
100
AcDbBlockEnd
  0
BLOCK
  5
19C
330
29
100
AcDbEntity
  8
0
100
AcDbBlockBegin
  2
*D7
 70
     1
 10
0.0
 20
0.0
 30
0.0
  3
*D7
  1

  0
LINE
  5
19D
330
29
100
AcDbEntity
  8
0
  6
ByBlock
 62
     0
100
AcDbLine
 10
6.331849796300114
 20
26.2142404651435
 30
0.0
 11
4.452061010053403
 21
26.2142404651435
 31
0.0
  0
LINE
  5
19E
330
29
100
AcDbEntity
  8
0
  6
ByBlock
 62
     0
100
AcDbLine
 10
6.331849796300114
 20
12.23424046514348
 30
0.0
 11
4.452061010053403
 21
12.23424046514348
 31
0.0
  0
LINE
  5
19F
330
29
100
AcDbEntity
  8
0
  6
ByBlock
 62
     0
100
AcDbLine
 10
4.824061010053403
 20
25.4942404651435
 30
0.0
 11
4.824061010053403
 21
19.83424046514349
 31
0.0
  0
LINE
  5
1A0
330
29
100
AcDbEntity
  8
0
  6
ByBlock
 62
     0
100
AcDbLine
 10
4.824061010053403
 20
12.95424046514348
 30
0.0
 11
4.824061010053403
 21
18.61424046514349
 31
0.0
  0
SOLID
  5
1A1
330
29
100
AcDbEntity
  8
0
  6
ByBlock
 62
     0
100
AcDbTrace
 10
4.704061010053403
 20
25.4942404651435
 30
0.0
 11
4.944061010053403
 21
25.4942404651435
 31
0.0
 12
4.824061010053403
 22
26.2142404651435
 32
0.0
 13
4.824061010053403
 23
26.2142404651435
 33
0.0
  0
SOLID
  5
1A2
330
29
100
AcDbEntity
  8
0
  6
ByBlock
 62
     0
100
AcDbTrace
 10
4.704061010053403
 20
12.95424046514348
 30
0.0
 11
4.944061010053403
 21
12.95424046514348
 31
0.0
 12
4.824061010053403
 22
12.23424046514348
 32
0.0
 13
4.824061010053403
 23
12.23424046514348
 33
0.0
  0
TEXT
  5
1A3
330
29
100
AcDbEntity
  8
0
  6
ByBlock
 62
     0
100
AcDbText
 10
4.699061010053403
 20
18.97424046514349
 30
0.0
 40
0.5
  1
J
 41
0.75
 72
     1
 11
4.824061010053403
 21
19.22424046514349
 31
0.0
100
AcDbText
 73
     2
  0
POINT
  5
1A4
330
29
100
AcDbEntity
  8
DEFPOINTS
  6
ByBlock
 62
     0
100
AcDbPoint
 10
6.583849796300114
 20
26.2142404651435
 30
0.0
  0
POINT
  5
1A5
330
29
100
AcDbEntity
  8
DEFPOINTS
  6
ByBlock
 62
     0
100
AcDbPoint
 10
6.583849796300114
 20
12.23424046514348
 30
0.0
  0
POINT
  5
1A6
330
29
100
AcDbEntity
  8
DEFPOINTS
  6
ByBlock
 62
     0
100
AcDbPoint
 10
4.824061010053403
 20
12.23424046514348
 30
0.0
  0
ENDBLK
  5
1A7
330
29
100
AcDbEntity
  8
0
100
AcDbBlockEnd
  0
BLOCK
  5
1A8
330
2A
100
AcDbEntity
  8
0
100
AcDbBlockBegin
  2
*D8
 70
     1
 10
0.0
 20
0.0
 30
0.0
  3
*D8
  1

  0
LINE
  5
1A9
330
2A
100
AcDbEntity
  8
0
  6
ByBlock
 62
     0
100
AcDbLine
 10
6.583849796300114
 20
26.4662404651435
 30
0.0
 11
6.583849796300114
 21
28.01443200602919
 31
0.0
  0
LINE
  5
1AA
330
2A
100
AcDbEntity
  8
0
  6
ByBlock
 62
     0
100
AcDbLine
 10
13.08384979630011
 20
26.46624046514349
 30
0.0
 11
13.08384979630011
 21
28.01443200602919
 31
0.0
  0
LINE
  5
1AB
330
2A
100
AcDbEntity
  8
0
  6
ByBlock
 62
     0
100
AcDbLine
 10
7.303849796300114
 20
27.64243200602919
 30
0.0
 11
9.348849796300115
 21
27.64243200602919
 31
0.0
  0
LINE
  5
1AC
330
2A
100
AcDbEntity
  8
0
  6
ByBlock
 62
     0
100
AcDbLine
 10
12.36384979630011
 20
27.64243200602919
 30
0.0
 11
10.31884979630011
 21
27.64243200602919
 31
0.0
  0
SOLID
  5
1AD
330
2A
100
AcDbEntity
  8
0
  6
ByBlock
 62
     0
100
AcDbTrace
 10
7.303849796300114
 20
27.76243200602919
 30
0.0
 11
7.303849796300114
 21
27.52243200602919
 31
0.0
 12
6.583849796300114
 22
27.64243200602919
 32
0.0
 13
6.583849796300114
 23
27.64243200602919
 33
0.0
  0
SOLID
  5
1AE
330
2A
100
AcDbEntity
  8
0
  6
ByBlock
 62
     0
100
AcDbTrace
 10
12.36384979630011
 20
27.76243200602919
 30
0.0
 11
12.36384979630011
 21
27.52243200602919
 31
0.0
 12
13.08384979630011
 22
27.64243200602919
 32
0.0
 13
13.08384979630011
 23
27.64243200602919
 33
0.0
  0
TEXT
  5
1AF
330
2A
100
AcDbEntity
  8
0
  6
ByBlock
 62
     0
100
AcDbText
 10
9.708849796300114
 20
27.39243200602919
 30
0.0
 40
0.5
  1
C
 41
0.75
 72
     1
 11
9.833849796300114
 21
27.64243200602919
 31
0.0
100
AcDbText
 73
     2
  0
POINT
  5
1B0
330
2A
100
AcDbEntity
  8
DEFPOINTS
  6
ByBlock
 62
     0
100
AcDbPoint
 10
6.583849796300114
 20
26.2142404651435
 30
0.0
  0
POINT
  5
1B1
330
2A
100
AcDbEntity
  8
DEFPOINTS
  6
ByBlock
 62
     0
100
AcDbPoint
 10
13.08384979630011
 20
26.21424046514349
 30
0.0
  0
POINT
  5
1B2
330
2A
100
AcDbEntity
  8
DEFPOINTS
  6
ByBlock
 62
     0
100
AcDbPoint
 10
13.08384979630011
 20
27.64243200602919
 30
0.0
  0
ENDBLK
  5
1B3
330
2A
100
AcDbEntity
  8
0
100
AcDbBlockEnd
  0
BLOCK
  5
1B4
330
2B
100
AcDbEntity
  8
0
100
AcDbBlockBegin
  2
*D9
 70
     1
 10
0.0
 20
0.0
 30
0.0
  3
*D9
  1

  0
LINE
  5
1B5
330
2B
100
AcDbEntity
  8
0
  6
ByBlock
 62
     0
100
AcDbLine
 10
6.483849796300113
 20
25.96235896388984
 30
0.0
 11
6.483849796300113
 21
29.01443200602919
 31
0.0
  0
LINE
  5
1B6
330
2B
100
AcDbEntity
  8
0
  6
ByBlock
 62
     0
100
AcDbLine
 10
13.18384979630011
 20
25.96235896388961
 30
0.0
 11
13.18384979630011
 21
29.01443200602919
 31
0.0
  0
LINE
  5
1B7
330
2B
100
AcDbEntity
  8
0
  6
ByBlock
 62
     0
100
AcDbLine
 10
7.203849796300112
 20
28.64243200602919
 30
0.0
 11
9.348849796300115
 21
28.64243200602919
 31
0.0
  0
LINE
  5
1B8
330
2B
100
AcDbEntity
  8
0
  6
ByBlock
 62
     0
100
AcDbLine
 10
12.46384979630011
 20
28.64243200602919
 30
0.0
 11
10.31884979630011
 21
28.64243200602919
 31
0.0
  0
SOLID
  5
1B9
330
2B
100
AcDbEntity
  8
0
  6
ByBlock
 62
     0
100
AcDbTrace
 10
7.203849796300112
 20
28.76243200602919
 30
0.0
 11
7.203849796300112
 21
28.52243200602918
 31
0.0
 12
6.483849796300113
 22
28.64243200602919
 32
0.0
 13
6.483849796300113
 23
28.64243200602919
 33
0.0
  0
SOLID
  5
1BA
330
2B
100
AcDbEntity
  8
0
  6
ByBlock
 62
     0
100
AcDbTrace
 10
12.46384979630011
 20
28.76243200602919
 30
0.0
 11
12.46384979630011
 21
28.52243200602918
 31
0.0
 12
13.18384979630011
 22
28.64243200602919
 32
0.0
 13
13.18384979630011
 23
28.64243200602919
 33
0.0
  0
TEXT
  5
1BB
330
2B
100
AcDbEntity
  8
0
  6
ByBlock
 62
     0
100
AcDbText
 10
9.708849796300114
 20
28.39243200602918
 30
0.0
 40
0.5
  1
B
 41
0.75
 72
     1
 11
9.833849796300114
 21
28.64243200602919
 31
0.0
100
AcDbText
 73
     2
  0
POINT
  5
1BC
330
2B
100
AcDbEntity
  8
DEFPOINTS
  6
ByBlock
 62
     0
100
AcDbPoint
 10
6.483849796300113
 20
25.71035896388984
 30
0.0
  0
POINT
  5
1BD
330
2B
100
AcDbEntity
  8
DEFPOINTS
  6
ByBlock
 62
     0
100
AcDbPoint
 10
13.18384979630011
 20
25.71035896388961
 30
0.0
  0
POINT
  5
1BE
330
2B
100
AcDbEntity
  8
DEFPOINTS
  6
ByBlock
 62
     0
100
AcDbPoint
 10
13.18384979630011
 20
28.64243200602919
 30
0.0
  0
ENDBLK
  5
1BF
330
2B
100
AcDbEntity
  8
0
100
AcDbBlockEnd
  0
BLOCK
  5
1C0
330
2C
100
AcDbEntity
  8
0
100
AcDbBlockBegin
  2
*D10
 70
     1
 10
0.0
 20
0.0
 30
0.0
  3
*D10
  1

  0
LINE
  5
1C1
330
2C
100
AcDbEntity
  8
0
  6
ByBlock
 62
     0
100
AcDbLine
 10
6.068849796300114
 20
26.48424046514349
 30
0.0
 11
6.068849796300114
 21
30.01443200602919
 31
0.0
  0
LINE
  5
1C2
330
2C
100
AcDbEntity
  8
0
  6
ByBlock
 62
     0
100
AcDbLine
 10
13.59884979630011
 20
26.48424046514349
 30
0.0
 11
13.59884979630011
 21
30.01443200602919
 31
0.0
  0
LINE
  5
1C3
330
2C
100
AcDbEntity
  8
0
  6
ByBlock
 62
     0
100
AcDbLine
 10
6.788849796300113
 20
29.64243200602918
 30
0.0
 11
9.348849796300115
 21
29.64243200602918
 31
0.0
  0
LINE
  5
1C4
330
2C
100
AcDbEntity
  8
0
  6
ByBlock
 62
     0
100
AcDbLine
 10
12.87884979630011
 20
29.64243200602918
 30
0.0
 11
10.31884979630011
 21
29.64243200602918
 31
0.0
  0
SOLID
  5
1C5
330
2C
100
AcDbEntity
  8
0
  6
ByBlock
 62
     0
100
AcDbTrace
 10
6.788849796300113
 20
29.76243200602919
 30
0.0
 11
6.788849796300113
 21
29.52243200602918
 31
0.0
 12
6.068849796300114
 22
29.64243200602918
 32
0.0
 13
6.068849796300114
 23
29.64243200602918
 33
0.0
  0
SOLID
  5
1C6
330
2C
100
AcDbEntity
  8
0
  6
ByBlock
 62
     0
100
AcDbTrace
 10
12.87884979630011
 20
29.76243200602919
 30
0.0
 11
12.87884979630011
 21
29.52243200602918
 31
0.0
 12
13.59884979630011
 22
29.64243200602918
 32
0.0
 13
13.59884979630011
 23
29.64243200602918
 33
0.0
  0
TEXT
  5
1C7
330
2C
100
AcDbEntity
  8
0
  6
ByBlock
 62
     0
100
AcDbText
 10
9.708849796300114
 20
29.39243200602918
 30
0.0
 40
0.5
  1
A
 41
0.75
 72
     1
 11
9.833849796300114
 21
29.64243200602918
 31
0.0
100
AcDbText
 73
     2
  0
POINT
  5
1C8
330
2C
100
AcDbEntity
  8
DEFPOINTS
  6
ByBlock
 62
     0
100
AcDbPoint
 10
6.068849796300114
 20
26.23224046514349
 30
0.0
  0
POINT
  5
1C9
330
2C
100
AcDbEntity
  8
DEFPOINTS
  6
ByBlock
 62
     0
100
AcDbPoint
 10
13.59884979630011
 20
26.23224046514349
 30
0.0
  0
POINT
  5
1CA
330
2C
100
AcDbEntity
  8
DEFPOINTS
  6
ByBlock
 62
     0
100
AcDbPoint
 10
13.59884979630011
 20
29.64243200602918
 30
0.0
  0
ENDBLK
  5
1CB
330
2C
100
AcDbEntity
  8
0
100
AcDbBlockEnd
  0
BLOCK
  5
1CC
330
2D
100
AcDbEntity
  8
0
100
AcDbBlockBegin
  2
*D11
 70
     1
 10
0.0
 20
0.0
 30
0.0
  3
*D11
  1

  0
LINE
  5
1CD
330
2D
100
AcDbEntity
  8
0
  6
ByBlock
 62
     0
100
AcDbLine
 10
22.77022397498936
 20
28.79259834998215
 30
0.0
 11
22.77022397498936
 21
27.42059834998215
 31
0.0
  0
LINE
  5
1CE
330
2D
100
AcDbEntity
  8
0
  6
ByBlock
 62
     0
100
AcDbLine
 10
30.17022397498937
 20
28.79259834998215
 30
0.0
 11
30.17022397498937
 21
27.42059834998215
 31
0.0
  0
LINE
  5
1CF
330
2D
100
AcDbEntity
  8
0
  6
ByBlock
 62
     0
100
AcDbLine
 10
23.49022397498936
 20
27.79259834998215
 30
0.0
 11
25.98522397498936
 21
27.79259834998215
 31
0.0
  0
LINE
  5
1D0
330
2D
100
AcDbEntity
  8
0
  6
ByBlock
 62
     0
100
AcDbLine
 10
29.45022397498937
 20
27.79259834998215
 30
0.0
 11
26.95522397498936
 21
27.79259834998215
 31
0.0
  0
SOLID
  5
1D1
330
2D
100
AcDbEntity
  8
0
  6
ByBlock
 62
     0
100
AcDbTrace
 10
23.49022397498936
 20
27.91259834998215
 30
0.0
 11
23.49022397498936
 21
27.67259834998215
 31
0.0
 12
22.77022397498936
 22
27.79259834998215
 32
0.0
 13
22.77022397498936
 23
27.79259834998215
 33
0.0
  0
SOLID
  5
1D2
330
2D
100
AcDbEntity
  8
0
  6
ByBlock
 62
     0
100
AcDbTrace
 10
29.45022397498937
 20
27.91259834998215
 30
0.0
 11
29.45022397498937
 21
27.67259834998215
 31
0.0
 12
30.17022397498937
 22
27.79259834998215
 32
0.0
 13
30.17022397498937
 23
27.79259834998215
 33
0.0
  0
TEXT
  5
1D3
330
2D
100
AcDbEntity
  8
0
  6
ByBlock
 62
     0
100
AcDbText
 10
26.34522397498936
 20
27.54259834998215
 30
0.0
 40
0.5
  1
P
 41
0.75
 72
     1
 11
26.47022397498936
 21
27.79259834998215
 31
0.0
100
AcDbText
 73
     2
  0
POINT
  5
1D4
330
2D
100
AcDbEntity
  8
DEFPOINTS
  6
ByBlock
 62
     0
100
AcDbPoint
 10
22.77022397498936
 20
29.04459834998215
 30
0.0
  0
POINT
  5
1D5
330
2D
100
AcDbEntity
  8
DEFPOINTS
  6
ByBlock
 62
     0
100
AcDbPoint
 10
30.17022397498937
 20
29.04459834998215
 30
0.0
  0
POINT
  5
1D6
330
2D
100
AcDbEntity
  8
DEFPOINTS
  6
ByBlock
 62
     0
100
AcDbPoint
 10
30.17022397498937
 20
27.79259834998215
 30
0.0
  0
ENDBLK
  5
1D7
330
2D
100
AcDbEntity
  8
0
100
AcDbBlockEnd
  0
BLOCK
  5
1D8
330
2E
100
AcDbEntity
  8
0
100
AcDbBlockBegin
  2
*D12
 70
     1
 10
0.0
 20
0.0
 30
0.0
  3
*D12
  1

  0
LINE
  5
1D9
330
2E
100
AcDbEntity
  8
0
  6
ByBlock
 62
     0
100
AcDbLine
 10
72.50378134309619
 20
14.27424046514348
 30
0.0
 11
72.50378134309619
 21
14.58494120690251
 31
0.0
  0
LINE
  5
1DA
330
2E
100
AcDbEntity
  8
0
  6
ByBlock
 62
     0
100
AcDbLine
 10
72.38078134309619
 20
14.22449046514349
 30
0.0
 11
72.38078134309619
 21
14.58494120690251
 31
0.0
  0
LINE
  5
1DB
330
2E
100
AcDbEntity
  8
0
  6
ByBlock
 62
     0
100
AcDbLine
 10
73.22378134309619
 20
14.21294120690251
 30
0.0
 11
73.94378134309619
 21
14.21294120690251
 31
0.0
  0
LINE
  5
1DC
330
2E
100
AcDbEntity
  8
0
  6
ByBlock
 62
     0
100
AcDbLine
 10
71.66078134309619
 20
14.21294120690251
 30
0.0
 11
70.94078134309619
 21
14.21294120690251
 31
0.0
  0
SOLID
  5
1DD
330
2E
100
AcDbEntity
  8
0
  6
ByBlock
 62
     0
100
AcDbTrace
 10
73.22378134309619
 20
14.3329412069025
 30
0.0
 11
73.22378134309619
 21
14.09294120690251
 31
0.0
 12
72.50378134309619
 22
14.21294120690251
 32
0.0
 13
72.50378134309619
 23
14.21294120690251
 33
0.0
  0
SOLID
  5
1DE
330
2E
100
AcDbEntity
  8
0
  6
ByBlock
 62
     0
100
AcDbTrace
 10
71.66078134309619
 20
14.3329412069025
 30
0.0
 11
71.66078134309619
 21
14.09294120690251
 31
0.0
 12
72.38078134309619
 22
14.21294120690251
 32
0.0
 13
72.38078134309619
 23
14.21294120690251
 33
0.0
  0
TEXT
  5
1DF
330
2E
100
AcDbEntity
  8
0
  6
ByBlock
 62
     0
100
AcDbText
 10
68.01828134309619
 20
13.96294120690251
 30
0.0
 40
0.5
  1
0.123 [3]
 41
0.75
 72
     1
 11
69.29953134309619
 21
14.21294120690251
 31
0.0
100
AcDbText
 73
     2
  0
POINT
  5
1E0
330
2E
100
AcDbEntity
  8
DEFPOINTS
  6
ByBlock
 62
     0
100
AcDbPoint
 10
72.50378134309619
 20
14.02224046514348
 30
0.0
  0
POINT
  5
1E1
330
2E
100
AcDbEntity
  8
DEFPOINTS
  6
ByBlock
 62
     0
100
AcDbPoint
 10
72.38078134309619
 20
13.97249046514349
 30
0.0
  0
POINT
  5
1E2
330
2E
100
AcDbEntity
  8
DEFPOINTS
  6
ByBlock
 62
     0
100
AcDbPoint
 10
72.38078134309619
 20
14.21294120690251
 30
0.0
  0
ENDBLK
  5
1E3
330
2E
100
AcDbEntity
  8
0
100
AcDbBlockEnd
  0
BLOCK
  5
1E4
330
2F
100
AcDbEntity
  8
0
100
AcDbBlockBegin
  2
*D13
 70
     1
 10
0.0
 20
0.0
 30
0.0
  3
*D13
  1

  0
LINE
  5
1E5
330
2F
100
AcDbEntity
  8
0
  6
ByBlock
 62
     0
100
AcDbLine
 10
79.39978134309616
 20
26.65924046514349
 30
0.0
 11
80.80309013964845
 21
26.65924046514349
 31
0.0
  0
LINE
  5
1E6
330
2F
100
AcDbEntity
  8
0
  6
ByBlock
 62
     0
100
AcDbLine
 10
79.39978134309616
 20
11.78924046514348
 30
0.0
 11
80.80309013964845
 21
11.78924046514348
 31
0.0
  0
LINE
  5
1E7
330
2F
100
AcDbEntity
  8
0
  6
ByBlock
 62
     0
100
AcDbLine
 10
80.43109013964844
 20
25.93924046514349
 30
0.0
 11
80.43109013964844
 21
19.83424046514349
 31
0.0
  0
LINE
  5
1E8
330
2F
100
AcDbEntity
  8
0
  6
ByBlock
 62
     0
100
AcDbLine
 10
80.43109013964844
 20
12.50924046514349
 30
0.0
 11
80.43109013964844
 21
18.61424046514349
 31
0.0
  0
SOLID
  5
1E9
330
2F
100
AcDbEntity
  8
0
  6
ByBlock
 62
     0
100
AcDbTrace
 10
80.31109013964844
 20
25.93924046514349
 30
0.0
 11
80.55109013964845
 21
25.93924046514349
 31
0.0
 12
80.43109013964844
 22
26.65924046514349
 32
0.0
 13
80.43109013964844
 23
26.65924046514349
 33
0.0
  0
SOLID
  5
1EA
330
2F
100
AcDbEntity
  8
0
  6
ByBlock
 62
     0
100
AcDbTrace
 10
80.31109013964844
 20
12.50924046514349
 30
0.0
 11
80.55109013964845
 21
12.50924046514349
 31
0.0
 12
80.43109013964844
 22
11.78924046514348
 32
0.0
 13
80.43109013964844
 23
11.78924046514348
 33
0.0
  0
TEXT
  5
1EB
330
2F
100
AcDbEntity
  8
0
  6
ByBlock
 62
     0
100
AcDbText
 10
80.30609013964845
 20
18.97424046514349
 30
0.0
 40
0.5
  1
T
 41
0.75
 72
     1
 11
80.43109013964844
 21
19.22424046514349
 31
0.0
100
AcDbText
 73
     2
  0
POINT
  5
1EC
330
2F
100
AcDbEntity
  8
DEFPOINTS
  6
ByBlock
 62
     0
100
AcDbPoint
 10
79.14778134309617
 20
26.65924046514349
 30
0.0
  0
POINT
  5
1ED
330
2F
100
AcDbEntity
  8
DEFPOINTS
  6
ByBlock
 62
     0
100
AcDbPoint
 10
79.14778134309617
 20
11.78924046514348
 30
0.0
  0
POINT
  5
1EE
330
2F
100
AcDbEntity
  8
DEFPOINTS
  6
ByBlock
 62
     0
100
AcDbPoint
 10
80.43109013964844
 20
11.78924046514348
 30
0.0
  0
ENDBLK
  5
1EF
330
2F
100
AcDbEntity
  8
0
100
AcDbBlockEnd
  0
BLOCK
  5
1F0
330
30
100
AcDbEntity
  8
0
100
AcDbBlockBegin
  2
*D14
 70
     1
 10
0.0
 20
0.0
 30
0.0
  3
*D14
  1

  0
LINE
  5
1F1
330
30
100
AcDbEntity
  8
0
  6
ByBlock
 62
     0
100
AcDbLine
 10
4.191814544313899
 20
18.97224046514349
 30
0.0
 11
4.191814544313899
 21
10.35224046514349
 31
0.0
  0
LINE
  5
1F2
330
30
100
AcDbEntity
  8
0
  6
ByBlock
 62
     0
100
AcDbLine
 10
10.2308145443139
 20
18.97224046514349
 30
0.0
 11
10.2308145443139
 21
10.35224046514349
 31
0.0
  0
LINE
  5
1F3
330
30
100
AcDbEntity
  8
0
  6
ByBlock
 62
     0
100
AcDbLine
 10
4.911814544313899
 20
10.72424046514349
 30
0.0
 11
6.6638145443139
 21
10.72424046514349
 31
0.0
  0
LINE
  5
1F4
330
30
100
AcDbEntity
  8
0
  6
ByBlock
 62
     0
100
AcDbLine
 10
9.5108145443139
 20
10.72424046514349
 30
0.0
 11
7.7588145443139
 21
10.72424046514349
 31
0.0
  0
SOLID
  5
1F5
330
30
100
AcDbEntity
  8
0
  6
ByBlock
 62
     0
100
AcDbTrace
 10
4.911814544313899
 20
10.84424046514349
 30
0.0
 11
4.911814544313899
 21
10.60424046514349
 31
0.0
 12
4.191814544313899
 22
10.72424046514349
 32
0.0
 13
4.191814544313899
 23
10.72424046514349
 33
0.0
  0
SOLID
  5
1F6
330
30
100
AcDbEntity
  8
0
  6
ByBlock
 62
     0
100
AcDbTrace
 10
9.5108145443139
 20
10.84424046514349
 30
0.0
 11
9.5108145443139
 21
10.60424046514349
 31
0.0
 12
10.2308145443139
 22
10.72424046514349
 32
0.0
 13
10.2308145443139
 23
10.72424046514349
 33
0.0
  0
TEXT
  5
1F7
330
30
100
AcDbEntity
  8
0
  6
ByBlock
 62
     0
100
AcDbText
 10
7.0238145443139
 20
10.47424046514349
 30
0.0
 40
0.5
  1
W
 41
0.75
 72
     1
 11
7.2113145443139
 21
10.72424046514349
 31
0.0
100
AcDbText
 73
     2
  0
POINT
  5
1F8
330
30
100
AcDbEntity
  8
DEFPOINTS
  6
ByBlock
 62
     0
100
AcDbPoint
 10
4.191814544313899
 20
19.22424046514349
 30
0.0
  0
POINT
  5
1F9
330
30
100
AcDbEntity
  8
DEFPOINTS
  6
ByBlock
 62
     0
100
AcDbPoint
 10
10.2308145443139
 20
19.22424046514349
 30
0.0
  0
POINT
  5
1FA
330
30
100
AcDbEntity
  8
DEFPOINTS
  6
ByBlock
 62
     0
100
AcDbPoint
 10
10.2308145443139
 20
10.72424046514349
 30
0.0
  0
ENDBLK
  5
1FB
330
30
100
AcDbEntity
  8
0
100
AcDbBlockEnd
  0
BLOCK
  5
208
330
32
100
AcDbEntity
  8
0
100
AcDbBlockBegin
  2
*D15
 70
     1
 10
0.0
 20
0.0
 30
0.0
  3
*D15
  1

  0
LINE
  5
209
330
32
100
AcDbEntity
  8
0
  6
ByBlock
 62
     0
100
AcDbLine
 10
18.16837466977697
 20
53.91441414860879
 30
0.0
 11
18.16837466977697
 21
55.17873368260893
 31
0.0
  0
LINE
  5
20A
330
32
100
AcDbEntity
  8
0
  6
ByBlock
 62
     0
100
AcDbLine
 10
17.91137466977696
 20
53.49491414860878
 30
0.0
 11
17.91137466977696
 21
55.17873368260893
 31
0.0
  0
LINE
  5
20B
330
32
100
AcDbEntity
  8
0
  6
ByBlock
 62
     0
100
AcDbLine
 10
18.88837466977697
 20
54.80673368260894
 30
0.0
 11
19.60837466977697
 21
54.80673368260894
 31
0.0
  0
LINE
  5
20C
330
32
100
AcDbEntity
  8
0
  6
ByBlock
 62
     0
100
AcDbLine
 10
17.19137466977697
 20
54.80673368260894
 30
0.0
 11
16.47137466977696
 21
54.80673368260894
 31
0.0
  0
SOLID
  5
20D
330
32
100
AcDbEntity
  8
0
  6
ByBlock
 62
     0
100
AcDbTrace
 10
18.88837466977697
 20
54.92673368260893
 30
0.0
 11
18.88837466977697
 21
54.68673368260894
 31
0.0
 12
18.16837466977697
 22
54.80673368260894
 32
0.0
 13
18.16837466977697
 23
54.80673368260894
 33
0.0
  0
SOLID
  5
20E
330
32
100
AcDbEntity
  8
0
  6
ByBlock
 62
     0
100
AcDbTrace
 10
17.19137466977697
 20
54.92673368260893
 30
0.0
 11
17.19137466977697
 21
54.68673368260894
 31
0.0
 12
17.91137466977696
 22
54.80673368260894
 32
0.0
 13
17.91137466977696
 23
54.80673368260894
 33
0.0
  0
TEXT
  5
20F
330
32
100
AcDbEntity
  8
0
  6
ByBlock
 62
     0
100
AcDbText
 10
13.42387466977696
 20
54.55673368260893
 30
0.0
 40
0.5
  1
0.257 [7]
 41
0.75
 72
     1
 11
14.76762466977696
 21
54.80673368260894
 31
0.0
100
AcDbText
 73
     2
  0
POINT
  5
210
330
32
100
AcDbEntity
  8
DEFPOINTS
  6
ByBlock
 62
     0
100
AcDbPoint
 10
18.16837466977697
 20
53.66241414860879
 30
0.0
  0
POINT
  5
211
330
32
100
AcDbEntity
  8
DEFPOINTS
  6
ByBlock
 62
     0
100
AcDbPoint
 10
17.91137466977696
 20
53.24291414860877
 30
0.0
  0
POINT
  5
212
330
32
100
AcDbEntity
  8
DEFPOINTS
  6
ByBlock
 62
     0
100
AcDbPoint
 10
17.91137466977696
 20
54.80673368260894
 30
0.0
  0
ENDBLK
  5
213
330
32
100
AcDbEntity
  8
0
100
AcDbBlockEnd
  0
BLOCK
  5
214
330
33
100
AcDbEntity
  8
0
100
AcDbBlockBegin
  2
*D16
 70
     1
 10
0.0
 20
0.0
 30
0.0
  3
*D16
  1

  0
LINE
  5
215
330
33
100
AcDbEntity
  8
0
  6
ByBlock
 62
     0
100
AcDbLine
 10
17.53637466977697
 20
65.31341414860875
 30
0.0
 11
15.96167008675205
 21
65.31341414860875
 31
0.0
  0
LINE
  5
216
330
33
100
AcDbEntity
  8
0
  6
ByBlock
 62
     0
100
AcDbLine
 10
17.53637466977696
 20
50.44841414860878
 30
0.0
 11
15.96167008675205
 21
50.44841414860878
 31
0.0
  0
LINE
  5
217
330
33
100
AcDbEntity
  8
0
  6
ByBlock
 62
     0
100
AcDbLine
 10
16.33367008675205
 20
64.59341414860876
 30
0.0
 11
16.33367008675205
 21
58.49091414860876
 31
0.0
  0
LINE
  5
218
330
33
100
AcDbEntity
  8
0
  6
ByBlock
 62
     0
100
AcDbLine
 10
16.33367008675205
 20
51.16841414860878
 30
0.0
 11
16.33367008675205
 21
57.27091414860876
 31
0.0
  0
SOLID
  5
219
330
33
100
AcDbEntity
  8
0
  6
ByBlock
 62
     0
100
AcDbTrace
 10
16.21367008675205
 20
64.59341414860876
 30
0.0
 11
16.45367008675205
 21
64.59341414860876
 31
0.0
 12
16.33367008675205
 22
65.31341414860875
 32
0.0
 13
16.33367008675205
 23
65.31341414860875
 33
0.0
  0
SOLID
  5
21A
330
33
100
AcDbEntity
  8
0
  6
ByBlock
 62
     0
100
AcDbTrace
 10
16.21367008675205
 20
51.16841414860878
 30
0.0
 11
16.45367008675205
 21
51.16841414860878
 31
0.0
 12
16.33367008675205
 22
50.44841414860878
 32
0.0
 13
16.33367008675205
 23
50.44841414860878
 33
0.0
  0
TEXT
  5
21B
330
33
100
AcDbEntity
  8
0
  6
ByBlock
 62
     0
100
AcDbText
 10
16.20867008675205
 20
57.63091414860877
 30
0.0
 40
0.5
  1
U
 41
0.75
 72
     1
 11
16.33367008675205
 21
57.88091414860876
 31
0.0
100
AcDbText
 73
     2
  0
POINT
  5
21C
330
33
100
AcDbEntity
  8
DEFPOINTS
  6
ByBlock
 62
     0
100
AcDbPoint
 10
17.78837466977697
 20
65.31341414860875
 30
0.0
  0
POINT
  5
21D
330
33
100
AcDbEntity
  8
DEFPOINTS
  6
ByBlock
 62
     0
100
AcDbPoint
 10
17.78837466977696
 20
50.44841414860878
 30
0.0
  0
POINT
  5
21E
330
33
100
AcDbEntity
  8
DEFPOINTS
  6
ByBlock
 62
     0
100
AcDbPoint
 10
16.33367008675205
 20
50.44841414860878
 30
0.0
  0
ENDBLK
  5
21F
330
33
100
AcDbEntity
  8
0
100
AcDbBlockEnd
  0
BLOCK
  5
238
330
36
100
AcDbEntity
  8
0
100
AcDbBlockBegin
  2
*D17
 70
     1
 10
0.0
 20
0.0
 30
0.0
  3
*D17
  1

  0
LINE
  5
239
330
36
100
AcDbEntity
  8
0
  6
ByBlock
 62
     0
100
AcDbLine
 10
43.71163853833645
 20
63.29291414860875
 30
0.0
 11
53.95567713007635
 21
63.29291414860875
 31
0.0
  0
LINE
  5
23A
330
36
100
AcDbEntity
  8
0
  6
ByBlock
 62
     0
100
AcDbLine
 10
43.71163853833645
 20
52.46891414860876
 30
0.0
 11
53.95567713007635
 21
52.46891414860876
 31
0.0
  0
LINE
  5
23B
330
36
100
AcDbEntity
  8
0
  6
ByBlock
 62
     0
100
AcDbLine
 10
53.58367713007635
 20
62.57291414860876
 30
0.0
 11
53.58367713007635
 21
58.49091414860875
 31
0.0
  0
LINE
  5
23C
330
36
100
AcDbEntity
  8
0
  6
ByBlock
 62
     0
100
AcDbLine
 10
53.58367713007635
 20
53.18891414860876
 30
0.0
 11
53.58367713007635
 21
57.27091414860876
 31
0.0
  0
SOLID
  5
23D
330
36
100
AcDbEntity
  8
0
  6
ByBlock
 62
     0
100
AcDbTrace
 10
53.46367713007635
 20
62.57291414860876
 30
0.0
 11
53.70367713007635
 21
62.57291414860876
 31
0.0
 12
53.58367713007635
 22
63.29291414860875
 32
0.0
 13
53.58367713007635
 23
63.29291414860875
 33
0.0
  0
SOLID
  5
23E
330
36
100
AcDbEntity
  8
0
  6
ByBlock
 62
     0
100
AcDbTrace
 10
53.46367713007635
 20
53.18891414860876
 30
0.0
 11
53.70367713007635
 21
53.18891414860876
 31
0.0
 12
53.58367713007635
 22
52.46891414860876
 32
0.0
 13
53.58367713007635
 23
52.46891414860876
 33
0.0
  0
TEXT
  5
23F
330
36
100
AcDbEntity
  8
0
  6
ByBlock
 62
     0
100
AcDbText
 10
53.45867713007635
 20
57.63091414860876
 30
0.0
 40
0.5
  1
M
 41
0.75
 72
     1
 11
53.58367713007635
 21
57.88091414860875
 31
0.0
100
AcDbText
 73
     2
  0
POINT
  5
240
330
36
100
AcDbEntity
  8
DEFPOINTS
  6
ByBlock
 62
     0
100
AcDbPoint
 10
43.45963853833645
 20
63.29291414860875
 30
0.0
  0
POINT
  5
241
330
36
100
AcDbEntity
  8
DEFPOINTS
  6
ByBlock
 62
     0
100
AcDbPoint
 10
43.45963853833645
 20
52.46891414860876
 30
0.0
  0
POINT
  5
242
330
36
100
AcDbEntity
  8
DEFPOINTS
  6
ByBlock
 62
     0
100
AcDbPoint
 10
53.58367713007635
 20
52.46891414860876
 30
0.0
  0
ENDBLK
  5
243
330
36
100
AcDbEntity
  8
0
100
AcDbBlockEnd
  0
BLOCK
  5
244
330
37
100
AcDbEntity
  8
0
100
AcDbBlockBegin
  2
*D18
 70
     1
 10
0.0
 20
0.0
 30
0.0
  3
*D18
  1

  0
LINE
  5
245
330
37
100
AcDbEntity
  8
0
  6
ByBlock
 62
     0
100
AcDbLine
 10
15.09503818746989
 20
25.08541414860876
 30
0.0
 11
15.09503818746989
 21
26.19110568949447
 31
0.0
  0
LINE
  5
246
330
37
100
AcDbEntity
  8
0
  6
ByBlock
 62
     0
100
AcDbLine
 10
15.01503818746989
 20
24.94841414860879
 30
0.0
 11
15.01503818746989
 21
26.19110568949447
 31
0.0
  0
LINE
  5
247
330
37
100
AcDbEntity
  8
0
  6
ByBlock
 62
     0
100
AcDbLine
 10
15.81503818746989
 20
25.81910568949447
 30
0.0
 11
16.53503818746989
 21
25.81910568949447
 31
0.0
  0
LINE
  5
248
330
37
100
AcDbEntity
  8
0
  6
ByBlock
 62
     0
100
AcDbLine
 10
14.29503818746989
 20
25.81910568949447
 30
0.0
 11
13.57503818746989
 21
25.81910568949447
 31
0.0
  0
SOLID
  5
249
330
37
100
AcDbEntity
  8
0
  6
ByBlock
 62
     0
100
AcDbTrace
 10
15.81503818746989
 20
25.93910568949447
 30
0.0
 11
15.81503818746989
 21
25.69910568949447
 31
0.0
 12
15.09503818746989
 22
25.81910568949447
 32
0.0
 13
15.09503818746989
 23
25.81910568949447
 33
0.0
  0
SOLID
  5
24A
330
37
100
AcDbEntity
  8
0
  6
ByBlock
 62
     0
100
AcDbTrace
 10
14.29503818746989
 20
25.93910568949447
 30
0.0
 11
14.29503818746989
 21
25.69910568949447
 31
0.0
 12
15.01503818746989
 22
25.81910568949447
 32
0.0
 13
15.01503818746989
 23
25.81910568949447
 33
0.0
  0
TEXT
  5
24B
330
37
100
AcDbEntity
  8
0
  6
ByBlock
 62
     0
100
AcDbText
 10
10.65253818746989
 20
25.56910568949447
 30
0.0
 40
0.5
  1
0.080 [2]
 41
0.75
 72
     1
 11
11.93378818746989
 21
25.81910568949447
 31
0.0
100
AcDbText
 73
     2
  0
POINT
  5
24C
330
37
100
AcDbEntity
  8
DEFPOINTS
  6
ByBlock
 62
     0
100
AcDbPoint
 10
15.09503818746989
 20
24.83341414860877
 30
0.0
  0
POINT
  5
24D
330
37
100
AcDbEntity
  8
DEFPOINTS
  6
ByBlock
 62
     0
100
AcDbPoint
 10
15.01503818746989
 20
24.69641414860879
 30
0.0
  0
POINT
  5
24E
330
37
100
AcDbEntity
  8
DEFPOINTS
  6
ByBlock
 62
     0
100
AcDbPoint
 10
15.01503818746989
 20
25.81910568949447
 30
0.0
  0
ENDBLK
  5
24F
330
37
100
AcDbEntity
  8
0
100
AcDbBlockEnd
  0
BLOCK
  5
250
330
38
100
AcDbEntity
  8
0
100
AcDbBlockBegin
  2
*D19
 70
     1
 10
0.0
 20
0.0
 30
0.0
  3
*D19
  1

  0
LINE
  5
251
330
38
100
AcDbEntity
  8
0
  6
ByBlock
 62
     0
100
AcDbLine
 10
18.95503818746987
 20
25.15291414860876
 30
0.0
 11
18.95503818746987
 21
26.19110568949447
 31
0.0
  0
LINE
  5
252
330
38
100
AcDbEntity
  8
0
  6
ByBlock
 62
     0
100
AcDbLine
 10
15.09503818746989
 20
25.08541414860876
 30
0.0
 11
15.09503818746989
 21
26.19110568949447
 31
0.0
  0
LINE
  5
253
330
38
100
AcDbEntity
  8
0
  6
ByBlock
 62
     0
100
AcDbLine
 10
18.23503818746988
 20
25.81910568949447
 30
0.0
 11
17.51003818746988
 21
25.81910568949447
 31
0.0
  0
LINE
  5
254
330
38
100
AcDbEntity
  8
0
  6
ByBlock
 62
     0
100
AcDbLine
 10
15.81503818746989
 20
25.81910568949447
 30
0.0
 11
16.54003818746988
 21
25.81910568949447
 31
0.0
  0
SOLID
  5
255
330
38
100
AcDbEntity
  8
0
  6
ByBlock
 62
     0
100
AcDbTrace
 10
18.23503818746988
 20
25.93910568949447
 30
0.0
 11
18.23503818746988
 21
25.69910568949447
 31
0.0
 12
18.95503818746987
 22
25.81910568949447
 32
0.0
 13
18.95503818746987
 23
25.81910568949447
 33
0.0
  0
SOLID
  5
256
330
38
100
AcDbEntity
  8
0
  6
ByBlock
 62
     0
100
AcDbTrace
 10
15.81503818746989
 20
25.93910568949447
 30
0.0
 11
15.81503818746989
 21
25.69910568949447
 31
0.0
 12
15.09503818746989
 22
25.81910568949447
 32
0.0
 13
15.09503818746989
 23
25.81910568949447
 33
0.0
  0
TEXT
  5
257
330
38
100
AcDbEntity
  8
0
  6
ByBlock
 62
     0
100
AcDbText
 10
16.90003818746988
 20
25.56910568949447
 30
0.0
 40
0.5
  1
S
 41
0.75
 72
     1
 11
17.02503818746988
 21
25.81910568949447
 31
0.0
100
AcDbText
 73
     2
  0
POINT
  5
258
330
38
100
AcDbEntity
  8
DEFPOINTS
  6
ByBlock
 62
     0
100
AcDbPoint
 10
18.95503818746987
 20
24.90091414860876
 30
0.0
  0
POINT
  5
259
330
38
100
AcDbEntity
  8
DEFPOINTS
  6
ByBlock
 62
     0
100
AcDbPoint
 10
15.09503818746989
 20
24.83341414860877
 30
0.0
  0
POINT
  5
25A
330
38
100
AcDbEntity
  8
DEFPOINTS
  6
ByBlock
 62
     0
100
AcDbPoint
 10
15.09503818746989
 20
25.81910568949447
 30
0.0
  0
ENDBLK
  5
25B
330
38
100
AcDbEntity
  8
0
100
AcDbBlockEnd
  0
BLOCK
  5
25C
330
39
100
AcDbEntity
  8
0
100
AcDbBlockBegin
  2
*D20
 70
     1
 10
0.0
 20
0.0
 30
0.0
  3
*D20
  1

  0
LINE
  5
25D
330
39
100
AcDbEntity
  8
0
  6
ByBlock
 62
     0
100
AcDbLine
 10
18.95503818746987
 20
25.14307162360878
 30
0.0
 11
18.95503818746987
 21
26.19110568949447
 31
0.0
  0
LINE
  5
25E
330
39
100
AcDbEntity
  8
0
  6
ByBlock
 62
     0
100
AcDbLine
 10
22.09203818746988
 20
24.62441414860875
 30
0.0
 11
22.09203818746988
 21
26.19110568949447
 31
0.0
  0
LINE
  5
25F
330
39
100
AcDbEntity
  8
0
  6
ByBlock
 62
     0
100
AcDbLine
 10
19.67503818746987
 20
25.81910568949447
 30
0.0
 11
20.03853818746987
 21
25.81910568949447
 31
0.0
  0
LINE
  5
260
330
39
100
AcDbEntity
  8
0
  6
ByBlock
 62
     0
100
AcDbLine
 10
21.37203818746987
 20
25.81910568949447
 30
0.0
 11
21.00853818746987
 21
25.81910568949447
 31
0.0
  0
SOLID
  5
261
330
39
100
AcDbEntity
  8
0
  6
ByBlock
 62
     0
100
AcDbTrace
 10
19.67503818746987
 20
25.93910568949447
 30
0.0
 11
19.67503818746987
 21
25.69910568949447
 31
0.0
 12
18.95503818746987
 22
25.81910568949447
 32
0.0
 13
18.95503818746987
 23
25.81910568949447
 33
0.0
  0
SOLID
  5
262
330
39
100
AcDbEntity
  8
0
  6
ByBlock
 62
     0
100
AcDbTrace
 10
21.37203818746987
 20
25.93910568949447
 30
0.0
 11
21.37203818746987
 21
25.69910568949447
 31
0.0
 12
22.09203818746988
 22
25.81910568949447
 32
0.0
 13
22.09203818746988
 23
25.81910568949447
 33
0.0
  0
TEXT
  5
263
330
39
100
AcDbEntity
  8
0
  6
ByBlock
 62
     0
100
AcDbText
 10
20.39853818746987
 20
25.56910568949447
 30
0.0
 40
0.5
  1
R
 41
0.75
 72
     1
 11
20.52353818746988
 21
25.81910568949447
 31
0.0
100
AcDbText
 73
     2
  0
POINT
  5
264
330
39
100
AcDbEntity
  8
DEFPOINTS
  6
ByBlock
 62
     0
100
AcDbPoint
 10
18.95503818746987
 20
24.89107162360878
 30
0.0
  0
POINT
  5
265
330
39
100
AcDbEntity
  8
DEFPOINTS
  6
ByBlock
 62
     0
100
AcDbPoint
 10
22.09203818746988
 20
24.37241414860875
 30
0.0
  0
POINT
  5
266
330
39
100
AcDbEntity
  8
DEFPOINTS
  6
ByBlock
 62
     0
100
AcDbPoint
 10
22.09203818746988
 20
25.81910568949447
 30
0.0
  0
ENDBLK
  5
267
330
39
100
AcDbEntity
  8
0
100
AcDbBlockEnd
  0
BLOCK
  5
268
330
3A
100
AcDbEntity
  8
0
100
AcDbBlockBegin
  2
*D21
 70
     1
 10
0.0
 20
0.0
 30
0.0
  3
*D21
  1

  0
LINE
  5
269
330
3A
100
AcDbEntity
  8
0
  6
ByBlock
 62
     0
100
AcDbLine
 10
40.01763853833646
 20
10.77891414860877
 30
0.0
 11
40.01763853833646
 21
8.784914148608777
 31
0.0
  0
LINE
  5
26A
330
3A
100
AcDbEntity
  8
0
  6
ByBlock
 62
     0
100
AcDbLine
 10
39.03363853833647
 20
10.77891414860877
 30
0.0
 11
39.03363853833647
 21
8.784914148608777
 31
0.0
  0
LINE
  5
26B
330
3A
100
AcDbEntity
  8
0
  6
ByBlock
 62
     0
100
AcDbLine
 10
40.73763853833646
 20
9.156914148608777
 30
0.0
 11
41.45763853833646
 21
9.156914148608777
 31
0.0
  0
LINE
  5
26C
330
3A
100
AcDbEntity
  8
0
  6
ByBlock
 62
     0
100
AcDbLine
 10
38.31363853833646
 20
9.156914148608777
 30
0.0
 11
37.59363853833647
 21
9.156914148608777
 31
0.0
  0
SOLID
  5
26D
330
3A
100
AcDbEntity
  8
0
  6
ByBlock
 62
     0
100
AcDbTrace
 10
40.73763853833646
 20
9.276914148608776
 30
0.0
 11
40.73763853833646
 21
9.036914148608778
 31
0.0
 12
40.01763853833646
 22
9.156914148608777
 32
0.0
 13
40.01763853833646
 23
9.156914148608777
 33
0.0
  0
SOLID
  5
26E
330
3A
100
AcDbEntity
  8
0
  6
ByBlock
 62
     0
100
AcDbTrace
 10
38.31363853833646
 20
9.276914148608776
 30
0.0
 11
38.31363853833646
 21
9.036914148608778
 31
0.0
 12
39.03363853833647
 22
9.156914148608777
 32
0.0
 13
39.03363853833647
 23
9.156914148608777
 33
0.0
  0
TEXT
  5
26F
330
3A
100
AcDbEntity
  8
0
  6
ByBlock
 62
     0
100
AcDbText
 10
35.54613853833647
 20
8.906914148608777
 30
0.0
 40
0.5
  1
 TYP.
 41
0.75
 72
     1
 11
36.48363853833647
 21
9.156914148608777
 31
0.0
100
AcDbText
 73
     2
  0
TEXT
  5
270
330
3A
100
AcDbEntity
  8
0
  6
ByBlock
 62
     0
100
AcDbText
 10
32.54613853833647
 20
8.906914148608777
 30
0.0
 40
0.5
  1
0.984 [25]
 41
0.75
 72
     1
 11
34.07738853833647
 21
9.156914148608777
 31
0.0
100
AcDbText
 73
     2
  0
POINT
  5
271
330
3A
100
AcDbEntity
  8
DEFPOINTS
  6
ByBlock
 62
     0
100
AcDbPoint
 10
40.01763853833646
 20
11.03091414860877
 30
0.0
  0
POINT
  5
272
330
3A
100
AcDbEntity
  8
DEFPOINTS
  6
ByBlock
 62
     0
100
AcDbPoint
 10
39.03363853833647
 20
11.03091414860877
 30
0.0
  0
POINT
  5
273
330
3A
100
AcDbEntity
  8
DEFPOINTS
  6
ByBlock
 62
     0
100
AcDbPoint
 10
39.03363853833647
 20
9.156914148608777
 30
0.0
  0
ENDBLK
  5
274
330
3A
100
AcDbEntity
  8
0
100
AcDbBlockEnd
  0
BLOCK
  5
275
330
3B
100
AcDbEntity
  8
0
100
AcDbBlockBegin
  2
*D22
 70
     1
 10
0.0
 20
0.0
 30
0.0
  3
*D22
  1

  0
LINE
  5
276
330
3B
100
AcDbEntity
  8
0
  6
ByBlock
 62
     0
100
AcDbLine
 10
39.03363853833647
 20
10.77891414860877
 30
0.0
 11
39.03363853833647
 21
7.784914148608777
 31
0.0
  0
LINE
  5
277
330
3B
100
AcDbEntity
  8
0
  6
ByBlock
 62
     0
100
AcDbLine
 10
41.98563853833646
 20
10.77891414860877
 30
0.0
 11
41.98563853833646
 21
7.784914148608777
 31
0.0
  0
LINE
  5
278
330
3B
100
AcDbEntity
  8
0
  6
ByBlock
 62
     0
100
AcDbLine
 10
38.31363853833646
 20
8.156914148608777
 30
0.0
 11
37.59363853833647
 21
8.156914148608777
 31
0.0
  0
LINE
  5
279
330
3B
100
AcDbEntity
  8
0
  6
ByBlock
 62
     0
100
AcDbLine
 10
42.70563853833646
 20
8.156914148608777
 30
0.0
 11
43.42563853833646
 21
8.156914148608777
 31
0.0
  0
SOLID
  5
27A
330
3B
100
AcDbEntity
  8
0
  6
ByBlock
 62
     0
100
AcDbTrace
 10
38.31363853833646
 20
8.276914148608776
 30
0.0
 11
38.31363853833646
 21
8.036914148608778
 31
0.0
 12
39.03363853833647
 22
8.156914148608777
 32
0.0
 13
39.03363853833647
 23
8.156914148608777
 33
0.0
  0
SOLID
  5
27B
330
3B
100
AcDbEntity
  8
0
  6
ByBlock
 62
     0
100
AcDbTrace
 10
42.70563853833646
 20
8.276914148608776
 30
0.0
 11
42.70563853833646
 21
8.036914148608778
 31
0.0
 12
41.98563853833646
 22
8.156914148608777
 32
0.0
 13
41.98563853833646
 23
8.156914148608777
 33
0.0
  0
TEXT
  5
27C
330
3B
100
AcDbEntity
  8
0
  6
ByBlock
 62
     0
100
AcDbText
 10
40.38463853833646
 20
7.906914148608777
 30
0.0
 40
0.5
  1
F
 41
0.75
 72
     1
 11
40.50963853833646
 21
8.156914148608777
 31
0.0
100
AcDbText
 73
     2
  0
POINT
  5
27D
330
3B
100
AcDbEntity
  8
DEFPOINTS
  6
ByBlock
 62
     0
100
AcDbPoint
 10
39.03363853833647
 20
11.03091414860877
 30
0.0
  0
POINT
  5
27E
330
3B
100
AcDbEntity
  8
DEFPOINTS
  6
ByBlock
 62
     0
100
AcDbPoint
 10
41.98563853833646
 20
11.03091414860877
 30
0.0
  0
POINT
  5
27F
330
3B
100
AcDbEntity
  8
DEFPOINTS
  6
ByBlock
 62
     0
100
AcDbPoint
 10
41.98563853833646
 20
8.156914148608777
 30
0.0
  0
ENDBLK
  5
280
330
3B
100
AcDbEntity
  8
0
100
AcDbBlockEnd
  0
BLOCK
  5
281
330
3C
100
AcDbEntity
  8
0
100
AcDbBlockBegin
  2
*D23
 70
     1
 10
0.0
 20
0.0
 30
0.0
  3
*D23
  1

  0
LINE
  5
282
330
3C
100
AcDbEntity
  8
0
  6
ByBlock
 62
     0
100
AcDbLine
 10
38.15713853833646
 20
11.03791414860877
 30
0.0
 11
38.15713853833646
 21
6.784914148608777
 31
0.0
  0
LINE
  5
283
330
3C
100
AcDbEntity
  8
0
  6
ByBlock
 62
     0
100
AcDbLine
 10
42.86213853833646
 20
11.03791414860877
 30
0.0
 11
42.86213853833646
 21
6.784914148608777
 31
0.0
  0
LINE
  5
284
330
3C
100
AcDbEntity
  8
0
  6
ByBlock
 62
     0
100
AcDbLine
 10
38.87713853833646
 20
7.156914148608777
 30
0.0
 11
40.02463853833646
 21
7.156914148608777
 31
0.0
  0
LINE
  5
285
330
3C
100
AcDbEntity
  8
0
  6
ByBlock
 62
     0
100
AcDbLine
 10
42.14213853833646
 20
7.156914148608777
 30
0.0
 11
40.99463853833646
 21
7.156914148608777
 31
0.0
  0
SOLID
  5
286
330
3C
100
AcDbEntity
  8
0
  6
ByBlock
 62
     0
100
AcDbTrace
 10
38.87713853833646
 20
7.276914148608777
 30
0.0
 11
38.87713853833646
 21
7.036914148608777
 31
0.0
 12
38.15713853833646
 22
7.156914148608777
 32
0.0
 13
38.15713853833646
 23
7.156914148608777
 33
0.0
  0
SOLID
  5
287
330
3C
100
AcDbEntity
  8
0
  6
ByBlock
 62
     0
100
AcDbTrace
 10
42.14213853833646
 20
7.276914148608777
 30
0.0
 11
42.14213853833646
 21
7.036914148608777
 31
0.0
 12
42.86213853833646
 22
7.156914148608777
 32
0.0
 13
42.86213853833646
 23
7.156914148608777
 33
0.0
  0
TEXT
  5
288
330
3C
100
AcDbEntity
  8
0
  6
ByBlock
 62
     0
100
AcDbText
 10
40.38463853833646
 20
6.906914148608777
 30
0.0
 40
0.5
  1
E
 41
0.75
 72
     1
 11
40.50963853833645
 21
7.156914148608777
 31
0.0
100
AcDbText
 73
     2
  0
POINT
  5
289
330
3C
100
AcDbEntity
  8
DEFPOINTS
  6
ByBlock
 62
     0
100
AcDbPoint
 10
38.15713853833646
 20
11.28991414860877
 30
0.0
  0
POINT
  5
28A
330
3C
100
AcDbEntity
  8
DEFPOINTS
  6
ByBlock
 62
     0
100
AcDbPoint
 10
42.86213853833646
 20
11.28991414860877
 30
0.0
  0
POINT
  5
28B
330
3C
100
AcDbEntity
  8
DEFPOINTS
  6
ByBlock
 62
     0
100
AcDbPoint
 10
42.86213853833646
 20
7.156914148608777
 30
0.0
  0
ENDBLK
  5
28C
330
3C
100
AcDbEntity
  8
0
100
AcDbBlockEnd
  0
BLOCK
  5
28D
330
3D
100
AcDbEntity
  8
0
100
AcDbBlockBegin
  2
*D24
 70
     1
 10
0.0
 20
0.0
 30
0.0
  3
*D24
  1

  0
LINE
  5
28E
330
3D
100
AcDbEntity
  8
0
  6
ByBlock
 62
     0
100
AcDbLine
 10
37.55963853833646
 20
11.73691414860877
 30
0.0
 11
37.55963853833646
 21
5.784914148608777
 31
0.0
  0
LINE
  5
28F
330
3D
100
AcDbEntity
  8
0
  6
ByBlock
 62
     0
100
AcDbLine
 10
43.45963853833645
 20
11.73691414860877
 30
0.0
 11
43.45963853833645
 21
5.784914148608777
 31
0.0
  0
LINE
  5
290
330
3D
100
AcDbEntity
  8
0
  6
ByBlock
 62
     0
100
AcDbLine
 10
38.27963853833646
 20
6.156914148608777
 30
0.0
 11
40.02463853833646
 21
6.156914148608777
 31
0.0
  0
LINE
  5
291
330
3D
100
AcDbEntity
  8
0
  6
ByBlock
 62
     0
100
AcDbLine
 10
42.73963853833645
 20
6.156914148608777
 30
0.0
 11
40.99463853833646
 21
6.156914148608777
 31
0.0
  0
SOLID
  5
292
330
3D
100
AcDbEntity
  8
0
  6
ByBlock
 62
     0
100
AcDbTrace
 10
38.27963853833646
 20
6.276914148608777
 30
0.0
 11
38.27963853833646
 21
6.036914148608777
 31
0.0
 12
37.55963853833646
 22
6.156914148608777
 32
0.0
 13
37.55963853833646
 23
6.156914148608777
 33
0.0
  0
SOLID
  5
293
330
3D
100
AcDbEntity
  8
0
  6
ByBlock
 62
     0
100
AcDbTrace
 10
42.73963853833645
 20
6.276914148608777
 30
0.0
 11
42.73963853833645
 21
6.036914148608777
 31
0.0
 12
43.45963853833645
 22
6.156914148608777
 32
0.0
 13
43.45963853833645
 23
6.156914148608777
 33
0.0
  0
TEXT
  5
294
330
3D
100
AcDbEntity
  8
0
  6
ByBlock
 62
     0
100
AcDbText
 10
40.38463853833646
 20
5.906914148608777
 30
0.0
 40
0.5
  1
D
 41
0.75
 72
     1
 11
40.50963853833645
 21
6.156914148608777
 31
0.0
100
AcDbText
 73
     2
  0
POINT
  5
295
330
3D
100
AcDbEntity
  8
DEFPOINTS
  6
ByBlock
 62
     0
100
AcDbPoint
 10
37.55963853833646
 20
11.98891414860877
 30
0.0
  0
POINT
  5
296
330
3D
100
AcDbEntity
  8
DEFPOINTS
  6
ByBlock
 62
     0
100
AcDbPoint
 10
43.45963853833645
 20
11.98891414860877
 30
0.0
  0
POINT
  5
297
330
3D
100
AcDbEntity
  8
DEFPOINTS
  6
ByBlock
 62
     0
100
AcDbPoint
 10
43.45963853833645
 20
6.156914148608777
 30
0.0
  0
ENDBLK
  5
298
330
3D
100
AcDbEntity
  8
0
100
AcDbBlockEnd
  0
BLOCK
  5
862
330
857
100
AcDbEntity
  8
0
100
AcDbBlockBegin
  2
*D25
 70
     1
 10
0.0
 20
0.0
 30
0.0
  3
*D25
  1

  0
LINE
  5
858
330
857
100
AcDbEntity
  8
DIM
 62
     0
370
    -2
100
AcDbLine
 10
5.818984779136355
 20
10.55091414860878
 30
0.0
 11
0.8446067668307644
 21
10.55091414860878
 31
0.0
  0
LINE
  5
859
330
857
100
AcDbEntity
  8
DIM
 62
     0
370
    -2
100
AcDbLine
 10
5.818984779136355
 20
24.25091414860878
 30
0.0
 11
0.8446067668307676
 21
24.25091414860878
 31
0.0
  0
LINE
  5
85A
330
857
100
AcDbEntity
  8
DIM
 62
     0
370
    -2
100
AcDbLine
 10
1.216606766830764
 20
11.27091414860878
 30
0.0
 11
1.216606766830765
 21
16.79091414860878
 31
0.0
  0
LINE
  5
85B
330
857
100
AcDbEntity
  8
DIM
 62
     0
370
    -2
100
AcDbLine
 10
1.216606766830767
 20
23.53091414860878
 30
0.0
 11
1.216606766830766
 21
18.01091414860878
 31
0.0
  0
SOLID
  5
85C
330
857
100
AcDbEntity
  8
DIM
 62
     0
100
AcDbTrace
 10
1.096606766830764
 20
11.27091414860878
 30
0.0
 11
1.336606766830764
 21
11.27091414860878
 31
0.0
 12
1.216606766830764
 22
10.55091414860878
 32
0.0
 13
1.216606766830764
 23
10.55091414860878
 33
0.0
  0
SOLID
  5
85D
330
857
100
AcDbEntity
  8
DIM
 62
     0
100
AcDbTrace
 10
1.096606766830767
 20
23.53091414860878
 30
0.0
 11
1.336606766830767
 21
23.53091414860878
 31
0.0
 12
1.216606766830767
 22
24.25091414860878
 32
0.0
 13
1.216606766830767
 23
24.25091414860878
 33
0.0
  0
MTEXT
  5
85E
330
857
100
AcDbEntity
  8
DIM
 62
     0
100
AcDbMText
 10
1.216606766830763
 20
17.40091414860878
 30
0.0
 40
0.5
 41
0.0
 71
     5
 72
     1
  1
\A1;V
 73
     1
 44
1.0
  0
POINT
  5
85F
330
857
100
AcDbEntity
  8
DEFPOINTS
 62
     0
100
AcDbPoint
 10
6.070984779136355
 20
10.55091414860878
 30
0.0
  0
POINT
  5
860
330
857
100
AcDbEntity
  8
DEFPOINTS
 62
     0
100
AcDbPoint
 10
6.070984779136355
 20
24.25091414860878
 30
0.0
  0
POINT
  5
861
330
857
100
AcDbEntity
  8
DEFPOINTS
 62
     0
100
AcDbPoint
 10
1.216606766830767
 20
24.25091414860878
 30
0.0
  0
ENDBLK
  5
863
330
857
100
AcDbEntity
  8
0
100
AcDbBlockEnd
  0
BLOCK
  5
87F
330
874
100
AcDbEntity
  8
0
100
AcDbBlockBegin
  2
*D26
 70
     1
 10
0.0
 20
0.0
 30
0.0
  3
*D26
  1

  0
LINE
  5
875
330
874
100
AcDbEntity
  8
DIM
 62
     0
370
    -2
100
AcDbLine
 10
43.11413853833646
 20
11.28991414860877
 30
0.0
 11
55.03079369362243
 21
11.28991414860877
 31
0.0
  0
LINE
  5
876
330
874
100
AcDbEntity
  8
DIM
 62
     0
370
    -2
100
AcDbLine
 10
43.11413853833646
 20
23.51191414860879
 30
0.0
 11
55.03079369362244
 21
23.51191414860879
 31
0.0
  0
LINE
  5
877
330
874
100
AcDbEntity
  8
DIM
 62
     0
370
    -2
100
AcDbLine
 10
54.65879369362244
 20
12.00991414860877
 30
0.0
 11
54.65879369362244
 21
16.79091414860878
 31
0.0
  0
LINE
  5
878
330
874
100
AcDbEntity
  8
DIM
 62
     0
370
    -2
100
AcDbLine
 10
54.65879369362244
 20
22.79191414860878
 30
0.0
 11
54.65879369362244
 21
18.01091414860878
 31
0.0
  0
SOLID
  5
879
330
874
100
AcDbEntity
  8
DIM
 62
     0
100
AcDbTrace
 10
54.53879369362244
 20
12.00991414860877
 30
0.0
 11
54.77879369362243
 21
12.00991414860877
 31
0.0
 12
54.65879369362244
 22
11.28991414860877
 32
0.0
 13
54.65879369362244
 23
11.28991414860877
 33
0.0
  0
SOLID
  5
87A
330
874
100
AcDbEntity
  8
DIM
 62
     0
100
AcDbTrace
 10
54.53879369362244
 20
22.79191414860878
 30
0.0
 11
54.77879369362244
 21
22.79191414860878
 31
0.0
 12
54.65879369362244
 22
23.51191414860879
 32
0.0
 13
54.65879369362244
 23
23.51191414860879
 33
0.0
  0
MTEXT
  5
87B
330
874
100
AcDbEntity
  8
DIM
 62
     0
100
AcDbMText
 10
54.65879369362244
 20
17.40091414860878
 30
0.0
 40
0.5
 41
0.0
 71
     5
 72
     1
  1
\A1;L
 73
     1
 44
1.0
  0
POINT
  5
87C
330
874
100
AcDbEntity
  8
DEFPOINTS
 62
     0
100
AcDbPoint
 10
42.86213853833646
 20
11.28991414860877
 30
0.0
  0
POINT
  5
87D
330
874
100
AcDbEntity
  8
DEFPOINTS
 62
     0
100
AcDbPoint
 10
42.86213853833646
 20
23.51191414860879
 30
0.0
  0
POINT
  5
87E
330
874
100
AcDbEntity
  8
DEFPOINTS
 62
     0
100
AcDbPoint
 10
54.65879369362244
 20
23.51191414860879
 30
0.0
  0
ENDBLK
  5
880
330
874
100
AcDbEntity
  8
0
100
AcDbBlockEnd
  0
BLOCK
  5
88C
330
881
100
AcDbEntity
  8
0
100
AcDbBlockBegin
  2
*D27
 70
     1
 10
0.0
 20
0.0
 30
0.0
  3
*D27
  1

  0
LINE
  5
88E
330
881
100
AcDbEntity
  8
DIM
 62
     0
370
    -2
100
AcDbLine
 10
42.23763853833647
 20
23.77091414860878
 30
0.0
 11
56.06835188803378
 21
23.77091414860877
 31
0.0
  0
LINE
  5
88F
330
881
100
AcDbEntity
  8
DIM
 62
     0
370
    -2
100
AcDbLine
 10
42.23763853833647
 20
11.03091414860877
 30
0.0
 11
56.06835188803377
 21
11.03091414860877
 31
0.0
  0
LINE
  5
890
330
881
100
AcDbEntity
  8
DIM
 62
     0
370
    -2
100
AcDbLine
 10
55.69635188803378
 20
23.05091414860878
 30
0.0
 11
55.69635188803378
 21
18.01091414860877
 31
0.0
  0
LINE
  5
891
330
881
100
AcDbEntity
  8
DIM
 62
     0
370
    -2
100
AcDbLine
 10
55.69635188803378
 20
11.75091414860877
 30
0.0
 11
55.69635188803378
 21
16.79091414860877
 31
0.0
  0
SOLID
  5
892
330
881
100
AcDbEntity
  8
DIM
 62
     0
100
AcDbTrace
 10
55.57635188803378
 20
23.05091414860878
 30
0.0
 11
55.81635188803378
 21
23.05091414860878
 31
0.0
 12
55.69635188803378
 22
23.77091414860878
 32
0.0
 13
55.69635188803378
 23
23.77091414860878
 33
0.0
  0
SOLID
  5
893
330
881
100
AcDbEntity
  8
DIM
 62
     0
100
AcDbTrace
 10
55.57635188803377
 20
11.75091414860877
 30
0.0
 11
55.81635188803377
 21
11.75091414860877
 31
0.0
 12
55.69635188803378
 22
11.03091414860877
 32
0.0
 13
55.69635188803378
 23
11.03091414860877
 33
0.0
  0
MTEXT
  5
894
330
881
100
AcDbEntity
  8
DIM
 62
     0
100
AcDbMText
 10
55.69635188803378
 20
17.40091414860878
 30
0.0
 40
0.5
 41
0.0
 71
     5
 72
     1
  1
\A1;K
 73
     1
 44
1.0
  0
POINT
  5
895
330
881
100
AcDbEntity
  8
DEFPOINTS
 62
     0
100
AcDbPoint
 10
41.98563853833646
 20
23.77091414860878
 30
0.0
  0
POINT
  5
896
330
881
100
AcDbEntity
  8
DEFPOINTS
 62
     0
100
AcDbPoint
 10
41.98563853833646
 20
11.03091414860877
 30
0.0
  0
POINT
  5
897
330
881
100
AcDbEntity
  8
DEFPOINTS
 62
     0
100
AcDbPoint
 10
55.69635188803378
 20
11.03091414860877
 30
0.0
  0
ENDBLK
  5
88D
330
881
100
AcDbEntity
  8
0
100
AcDbBlockEnd
  0
ENDSEC
  0
SECTION
  2
ENTITIES
  0
TEXT
  5
299
330
1E
100
AcDbEntity
  8
TEXT
100
AcDbText
 10
12.74830181736815
 20
1.256913739304798
 30
0.0
 40
0.4999995
  1
7.530
 41
0.75
 72
     4
 11
13.46705109861815
 21
1.506913489304798
 31
0.0
100
AcDbText
  0
TEXT
  5
29A
330
1E
100
AcDbEntity
  8
TEXT
100
AcDbText
 10
12.84205172361815
 20
0.4235812393047994
 30
0.0
 40
0.4999995
  1
[191]
 41
0.75
 72
     4
 11
13.46705109861815
 21
0.6735809893047993
 31
0.0
100
AcDbText
  0
TEXT
  5
29B
330
1E
100
AcDbEntity
  8
TEXT
100
AcDbText
 10
15.28696175486816
 20
0.4235812393047994
 30
0.0
 40
0.4999995
  1
[170]
 41
0.75
 72
     4
 11
15.94321109861816
 21
0.6735809893047993
 31
0.0
100
AcDbText
  0
TEXT
  5
29C
330
1E
100
AcDbEntity
  8
TEXT
100
AcDbText
 10
15.25571178611816
 20
1.256913739304798
 30
0.0
 40
0.4999995
  1
6.700
 41
0.75
 72
     4
 11
15.94321109861816
 21
1.506913489304798
 31
0.0
100
AcDbText
  0
TEXT
  5
29D
330
1E
100
AcDbEntity
  8
TEXT
100
AcDbText
 10
17.73187178611815
 20
0.4235812393047994
 30
0.0
 40
0.4999995
  1
[165]
 41
0.75
 72
     4
 11
18.41937109861815
 21
0.6735809893047993
 31
0.0
100
AcDbText
  0
TEXT
  5
29E
330
1E
100
AcDbEntity
  8
TEXT
100
AcDbText
 10
17.73187178611816
 20
1.256913739304798
 30
0.0
 40
0.4999995
  1
6.500
 41
0.75
 72
     4
 11
18.41937109861815
 21
1.506913489304798
 31
0.0
100
AcDbText
  0
TEXT
  5
29F
330
1E
100
AcDbEntity
  8
TEXT
100
AcDbText
 10
20.23928175486816
 20
0.4235812393047994
 30
0.0
 40
0.4999995
  1
[150]
 41
0.75
 72
     4
 11
20.89553109861816
 21
0.6735809893047993
 31
0.0
100
AcDbText
  0
TEXT
  5
2A0
330
1E
100
AcDbEntity
  8
TEXT
100
AcDbText
 10
20.20803178611816
 20
1.256913739304798
 30
0.0
 40
0.4999995
  1
5.900
 41
0.75
 72
     4
 11
20.89553109861816
 21
1.506913489304798
 31
0.0
100
AcDbText
  0
TEXT
  5
2A1
330
1E
100
AcDbEntity
  8
TEXT
100
AcDbText
 10
22.71544175486816
 20
0.4235812393047994
 30
0.0
 40
0.4999995
  1
[120]
 41
0.75
 72
     4
 11
23.37169109861815
 21
0.6735809893047993
 31
0.0
100
AcDbText
  0
TEXT
  5
2A2
330
1E
100
AcDbEntity
  8
TEXT
100
AcDbText
 10
22.65294181736816
 20
1.256913739304798
 30
0.0
 40
0.4999995
  1
4.705
 41
0.75
 72
     4
 11
23.37169109861815
 21
1.506913489304798
 31
0.0
100
AcDbText
  0
TEXT
  5
2A3
330
1E
100
AcDbEntity
  8
TEXT
100
AcDbText
 10
25.28535166111816
 20
0.4235812393047994
 30
0.0
 40
0.4999995
  1
[75]
 41
0.75
 72
     4
 11
25.84785109861816
 21
0.6735809893047993
 31
0.0
100
AcDbText
  0
TEXT
  5
2A4
330
1E
100
AcDbEntity
  8
TEXT
100
AcDbText
 10
25.09785184861816
 20
1.256913739304798
 30
0.0
 40
0.4999995
  1
2.952
 41
0.75
 72
     4
 11
25.84785109861816
 21
1.506913489304798
 31
0.0
100
AcDbText
  0
TEXT
  5
2A5
330
1E
100
AcDbEntity
  8
TEXT
100
AcDbText
 10
27.63651178611816
 20
0.4235812393047994
 30
0.0
 40
0.4999995
  1
[381]
 41
0.75
 72
     4
 11
28.32401109861816
 21
0.6735809893047993
 31
0.0
100
AcDbText
  0
TEXT
  5
2A6
330
1E
100
AcDbEntity
  8
TEXT
100
AcDbText
 10
27.54276187986816
 20
1.256913739304798
 30
0.0
 40
0.4999995
  1
15.000
 41
0.75
 72
     4
 11
28.32401109861816
 21
1.506913489304798
 31
0.0
100
AcDbText
  0
TEXT
  5
2A7
330
1E
100
AcDbEntity
  8
TEXT
100
AcDbText
 10
30.05017184861816
 20
0.4235812393047994
 30
0.0
 40
0.4999995
  1
[366]
 41
0.75
 72
     4
 11
30.80017109861816
 21
0.6735809893047993
 31
0.0
100
AcDbText
  0
TEXT
  5
2A8
330
1E
100
AcDbEntity
  8
TEXT
100
AcDbText
 10
29.95642194236816
 20
1.256913739304798
 30
0.0
 40
0.4999995
  1
14.405
 41
0.75
 72
     4
 11
30.80017109861816
 21
1.506913489304798
 31
0.0
100
AcDbText
  0
TEXT
  5
2A9
330
1E
100
AcDbEntity
  8
TEXT
100
AcDbText
 10
32.52633184861816
 20
0.4235812393047994
 30
0.0
 40
0.4999995
  1
[355]
 41
0.75
 72
     4
 11
33.27633109861816
 21
0.6735809893047993
 31
0.0
100
AcDbText
  0
TEXT
  5
2AA
330
1E
100
AcDbEntity
  8
TEXT
100
AcDbText
 10
32.43258194236816
 20
1.256913739304798
 30
0.0
 40
0.4999995
  1
13.980
 41
0.75
 72
     4
 11
33.27633109861816
 21
1.506913489304798
 31
0.0
100
AcDbText
  0
TEXT
  5
2AB
330
1E
100
AcDbEntity
  8
TEXT
100
AcDbText
 10
35.00249184861815
 20
0.4235812393047994
 30
0.0
 40
0.4999995
  1
[325]
 41
0.75
 72
     4
 11
35.75249109861815
 21
0.6735809893047993
 31
0.0
100
AcDbText
  0
TEXT
  5
2AC
330
1E
100
AcDbEntity
  8
TEXT
100
AcDbText
 10
34.90874194236816
 20
1.256913739304798
 30
0.0
 40
0.4999995
  1
12.790
 41
0.75
 72
     4
 11
35.75249109861815
 21
1.506913489304798
 31
0.0
100
AcDbText
  0
TEXT
  5
2AD
330
1E
100
AcDbEntity
  8
TEXT
100
AcDbText
 10
37.57240175486816
 20
0.4235812393047994
 30
0.0
 40
0.4999995
  1
[310]
 41
0.75
 72
     4
 11
38.22865109861816
 21
0.6735809893047993
 31
0.0
100
AcDbText
  0
TEXT
  5
2AE
330
1E
100
AcDbEntity
  8
TEXT
100
AcDbText
 10
37.35365197361816
 20
1.256913739304798
 30
0.0
 40
0.4999995
  1
12.222
 41
0.75
 72
     4
 11
38.22865109861816
 21
1.506913489304798
 31
0.0
100
AcDbText
  0
TEXT
  5
2AF
330
1E
100
AcDbEntity
  8
TEXT
100
AcDbText
 10
39.95481184861816
 20
0.4235812393047994
 30
0.0
 40
0.4999995
  1
[275]
 41
0.75
 72
     4
 11
40.70481109861816
 21
0.6735809893047993
 31
0.0
100
AcDbText
  0
TEXT
  5
2B0
330
1E
100
AcDbEntity
  8
TEXT
100
AcDbText
 10
39.86106194236816
 20
1.256913739304798
 30
0.0
 40
0.4999995
  1
10.824
 41
0.75
 72
     4
 11
40.70481109861816
 21
1.506913489304798
 31
0.0
100
AcDbText
  0
TEXT
  5
2B1
330
1E
100
AcDbEntity
  8
TEXT
100
AcDbText
 10
42.49347178611816
 20
0.4235812393047994
 30
0.0
 40
0.4999995
  1
[188]
 41
0.75
 72
     4
 11
43.18097109861816
 21
0.6735809893047993
 31
0.0
100
AcDbText
  0
TEXT
  5
2B2
330
1E
100
AcDbEntity
  8
TEXT
100
AcDbText
 10
42.43097184861816
 20
1.256913739304798
 30
0.0
 40
0.4999995
  1
7.385
 41
0.75
 72
     4
 11
43.18097109861816
 21
1.506913489304798
 31
0.0
100
AcDbText
  0
TEXT
  5
2B3
330
1E
100
AcDbEntity
  8
TEXT
100
AcDbText
 10
44.96963178611816
 20
0.4235812393047994
 30
0.0
 40
0.4999995
  1
[188]
 41
0.75
 72
     4
 11
45.65713109861817
 21
0.6735809893047993
 31
0.0
100
AcDbText
  0
TEXT
  5
2B4
330
1E
100
AcDbEntity
  8
TEXT
100
AcDbText
 10
44.96963178611816
 20
1.256913739304798
 30
0.0
 40
0.4999995
  1
7.400
 41
0.75
 72
     4
 11
45.65713109861817
 21
1.506913489304798
 31
0.0
100
AcDbText
  0
TEXT
  5
2B5
330
1E
100
AcDbEntity
  8
TEXT
100
AcDbText
 10
47.60204162986817
 20
0.4235812393047994
 30
0.0
 40
0.4999995
  1
[80]
 41
0.75
 72
     4
 11
48.13329109861817
 21
0.6735809893047993
 31
0.0
100
AcDbText
  0
TEXT
  5
2B6
330
1E
100
AcDbEntity
  8
TEXT
100
AcDbText
 10
47.44579178611817
 20
1.256913739304798
 30
0.0
 40
0.4999995
  1
3.137
 41
0.75
 72
     4
 11
48.13329109861817
 21
1.506913489304798
 31
0.0
100
AcDbText
  0
TEXT
  5
2B7
330
1E
100
AcDbEntity
  8
TEXT
100
AcDbText
 10
50.04695166111816
 20
0.4235812393047994
 30
0.0
 40
0.4999995
  1
[98]
 41
0.75
 72
     4
 11
50.60945109861816
 21
0.6735809893047993
 31
0.0
100
AcDbText
  0
TEXT
  5
2B8
330
1E
100
AcDbEntity
  8
TEXT
100
AcDbText
 10
49.89070181736817
 20
1.256913739304798
 30
0.0
 40
0.4999995
  1
3.860
 41
0.75
 72
     4
 11
50.60945109861816
 21
1.506913489304798
 31
0.0
100
AcDbText
  0
TEXT
  5
2B9
330
1E
100
AcDbEntity
  8
TEXT
100
AcDbText
 10
52.33561184861816
 20
0.4235812393047994
 30
0.0
 40
0.4999995
  1
[378]
 41
0.75
 72
     4
 11
53.08561109861816
 21
0.6735809893047993
 31
0.0
100
AcDbText
  0
TEXT
  5
2BA
330
1E
100
AcDbEntity
  8
TEXT
100
AcDbText
 10
52.24186194236817
 20
1.256913739304798
 30
0.0
 40
0.4999995
  1
14.870
 41
0.75
 72
     4
 11
53.08561109861816
 21
1.506913489304798
 31
0.0
100
AcDbText
  0
TEXT
  5
2BB
330
1E
100
AcDbEntity
  8
TEXT
100
AcDbText
 10
54.81177184861816
 20
0.4235812393047994
 30
0.0
 40
0.4999995
  1
[378]
 41
0.75
 72
     4
 11
55.56177109861816
 21
0.6735809893047993
 31
0.0
100
AcDbText
  0
TEXT
  5
2BC
330
1E
100
AcDbEntity
  8
TEXT
100
AcDbText
 10
54.68677197361816
 20
1.256913739304798
 30
0.0
 40
0.4999995
  1
14.865
 41
0.75
 72
     4
 11
55.56177109861816
 21
1.506913489304798
 31
0.0
100
AcDbText
  0
TEXT
  5
2BD
330
1E
100
AcDbEntity
  8
TEXT
100
AcDbText
 10
57.28793184861816
 20
0.4235812393047994
 30
0.0
 40
0.4999995
  1
[348]
 41
0.75
 72
     4
 11
58.03793109861817
 21
0.6735809893047993
 31
0.0
100
AcDbText
  0
TEXT
  5
2BE
330
1E
100
AcDbEntity
  8
TEXT
100
AcDbText
 10
57.22543191111816
 20
1.256913739304798
 30
0.0
 40
0.4999995
  1
13.700
 41
0.75
 72
     4
 11
58.03793109861817
 21
1.506913489304798
 31
0.0
100
AcDbText
  0
TEXT
  5
2BF
330
1E
100
AcDbEntity
  8
TEXT
100
AcDbText
 10
59.82659178611816
 20
0.4235812393047994
 30
0.0
 40
0.4999995
  1
[153]
 41
0.75
 72
     4
 11
60.51409109861817
 21
0.6735809893047993
 31
0.0
100
AcDbText
  0
TEXT
  5
2C0
330
1E
100
AcDbEntity
  8
TEXT
100
AcDbText
 10
59.79534181736816
 20
1.256913739304798
 30
0.0
 40
0.4999995
  1
6.039
 41
0.75
 72
     4
 11
60.51409109861817
 21
1.506913489304798
 31
0.0
100
AcDbText
  0
TEXT
  5
2D5
330
1E
100
AcDbEntity
  8
TEXT
100
AcDbText
 10
36.87908971172319
 20
4.910314562973939
 30
0.0
 40
0.6249993749999999
  1
%%UVIEW LESS COVER
 41
0.75
 72
     4
 11
40.48064861016069
 21
5.160314312973939
 31
0.0
100
AcDbText
  0
DIMENSION
  5
2D6
330
1E
100
AcDbEntity
  8
DIM
100
AcDbDimension
  2
*D27
 10
55.69635188803378
 20
11.03091414860877
 30
0.0
 11
55.69635188803378
 21
17.40091414860878
 31
0.0
 70
    32
  1
K
 71
     5
 42
12.74000000000001
  3
23NSTD
100
AcDbAlignedDimension
 13
41.98563853833646
 23
23.77091414860878
 33
0.0
 14
41.98563853833646
 24
11.03091414860877
 34
0.0
 50
90.0
100
AcDbRotatedDimension
  0
DIMENSION
  5
2D7
330
1E
100
AcDbEntity
  8
DIM
100
AcDbDimension
  2
*D26
 10
54.65879369362244
 20
23.51191414860879
 30
0.0
 11
54.65879369362244
 21
17.40091414860878
 31
0.0
 70
    32
  1
L
 71
     5
 42
12.22200000000001
  3
23NSTD
100
AcDbAlignedDimension
 13
42.86213853833646
 23
11.28991414860877
 33
0.0
 14
42.86213853833646
 24
23.51191414860879
 34
0.0
 50
90.0
100
AcDbRotatedDimension
  0
DIMENSION
  5
2D8
330
1E
100
AcDbEntity
  8
DIM
100
AcDbDimension
  2
*D17
 10
53.58367713007635
 20
11.98891414860877
 30
0.0
 11
53.58367713007635
 21
17.40091414860876
 31
0.0
 12
0.0
 22
-40.47999999999999
 32
0.0
  1
M
 71
     5
 42
-1.0
  3
23NSTD
100
AcDbAlignedDimension
 13
43.45963853833645
 23
22.81291414860877
 33
0.0
 14
43.45963853833645
 24
11.98891414860877
 34
0.0
 50
90.0
100
AcDbRotatedDimension
  0
DIMENSION
  5
2D9
330
1E
100
AcDbEntity
  8
DIM
100
AcDbDimension
  2
*D6
 10
34.49984975208975
 20
24.60341414860877
 30
0.0
 11
34.49984975208975
 21
17.40091414860878
 31
0.0
 12
30.67578874203634
 22
-1.823326316534711
 32
0.0
  1
H
 71
     5
 42
-1.0
  3
23NSTD
100
AcDbAlignedDimension
 13
37.81710726670795
 23
10.19841414860877
 33
0.0
 14
37.8171072667078
 24
24.60341414860877
 34
0.0
 50
90.0
100
AcDbRotatedDimension
  0
DIMENSION
  5
2DA
330
1E
100
AcDbEntity
  8
DIM
100
AcDbDimension
  2
*D5
 10
33.49984975208975
 20
24.90091414860877
 30
0.0
 11
33.49984975208975
 21
17.40091414860877
 31
0.0
 12
30.67578874203634
 22
-1.823326316534711
 32
0.0
  1
G
 71
     5
 42
-1.0
  3
23NSTD
100
AcDbAlignedDimension
 13
37.25913853833645
 23
9.900914148608777
 33
0.0
 14
37.25913853833645
 24
24.90091414860877
 34
0.0
 50
90.0
100
AcDbRotatedDimension
  0
LINE
  5
2DB
330
1E
100
AcDbEntity
  8
OBJECT
100
AcDbLine
 10
43.85963853833646
 20
23.88703264735489
 30
0.0
 11
43.85963853833646
 21
10.91479564986248
 31
0.0
  0
LINE
  5
2DC
330
1E
100
AcDbEntity
  8
OBJECT
100
AcDbLine
 10
37.15963853833645
 20
23.88703264735514
 30
0.0
 11
37.15963853833645
 21
10.91479564986254
 31
0.0
  0
LINE
  5
2DD
330
1E
100
AcDbEntity
  8
CENTER
100
AcDbLine
 10
40.50963853833646
 20
9.525914148608777
 30
0.0
 11
40.50963853833646
 21
25.27591414860879
 31
0.0
  0
DIMENSION
  5
2DE
330
1E
100
AcDbEntity
  8
DIM
100
AcDbDimension
  2
*D23
 10
42.86213853833646
 20
7.156914148608777
 30
0.0
 11
40.50963853833645
 21
7.156914148608777
 31
0.0
  1
E
 71
     5
 42
-1.0
  3
23NSTD
100
AcDbAlignedDimension
 13
38.15713853833646
 23
11.28991414860877
 33
0.0
 14
42.86213853833646
 24
11.28991414860877
 34
0.0
100
AcDbRotatedDimension
  0
DIMENSION
  5
2DF
330
1E
100
AcDbEntity
  8
DIM
100
AcDbDimension
  2
*D24
 10
43.45963853833645
 20
6.156914148608777
 30
0.0
 11
40.50963853833645
 21
6.156914148608777
 31
0.0
  1
D
 71
     5
 42
-1.0
  3
23NSTD
100
AcDbAlignedDimension
 13
37.55963853833646
 23
11.98891414860877
 33
0.0
 14
43.45963853833645
 24
11.98891414860877
 34
0.0
100
AcDbRotatedDimension
  0
DIMENSION
  5
2E0
330
1E
100
AcDbEntity
  8
DIM
100
AcDbDimension
  2
*D22
 10
41.98563853833646
 20
8.156914148608777
 30
0.0
 11
40.50963853833646
 21
8.156914148608777
 31
0.0
  1
F
 71
     5
 42
-1.0
  3
23NSTDI
100
AcDbAlignedDimension
 13
39.03363853833647
 23
11.03091414860877
 33
0.0
 14
41.98563853833646
 24
11.03091414860877
 34
0.0
100
AcDbRotatedDimension
  0
LINE
  5
2E1
330
1E
100
AcDbEntity
  8
CENTER
100
AcDbLine
 10
36.36963853833645
 20
17.40091414860877
 30
0.0
 11
44.64963853833645
 21
17.40091414860877
 31
0.0
  0
DIMENSION
  5
2E2
330
1E
100
AcDbEntity
  8
DIM
100
AcDbDimension
  2
*D21
 10
39.03363853833647
 20
9.156914148608777
 30
0.0
 11
34.88988853833647
 21
9.156914148608777
 31
0.0
  1
<> TYP.
 71
     5
 42
-1.0
  3
23NSTD
100
AcDbAlignedDimension
 13
40.01763853833646
 23
11.03091414860877
 33
0.0
 14
39.03363853833647
 24
11.03091414860877
 34
0.0
100
AcDbRotatedDimension
  0
CIRCLE
  5
2E3
330
1E
100
AcDbEntity
  8
OBJECT
100
AcDbCircle
 10
37.49013853833646
 20
17.40091414860877
 30
0.0
 40
0.2825
  0
CIRCLE
  5
2E4
330
1E
100
AcDbEntity
  8
OBJECT
100
AcDbCircle
 10
37.25963853833647
 20
10.41091414860876
 30
0.0
 40
0.266
  0
CIRCLE
  5
2E5
330
1E
100
AcDbEntity
  8
HIDDEN
100
AcDbCircle
 10
37.25963853833647
 20
10.41091414860876
 30
0.0
 40
0.3115
  0
CIRCLE
  5
2E6
330
1E
100
AcDbEntity
  8
OBJECT
100
AcDbCircle
 10
38.15713853833646
 20
11.28991414860877
 30
0.0
 40
0.0825
  0
CIRCLE
  5
2E7
330
1E
100
AcDbEntity
  8
HIDDEN
100
AcDbCircle
 10
38.15713853833646
 20
11.28991414860877
 30
0.0
 40
0.095
  0
CIRCLE
  5
2E8
330
1E
100
AcDbEntity
  8
OBJECT
100
AcDbCircle
 10
38.15713853833646
 20
11.28991414860877
 30
0.0
 40
0.282
  0
CIRCLE
  5
2E9
330
1E
100
AcDbEntity
  8
OBJECT
100
AcDbCircle
 10
40.50963853833646
 20
10.55091414860878
 30
0.0
 40
0.2825
  0
CIRCLE
  5
2EA
330
1E
100
AcDbEntity
  8
OBJECT
100
AcDbCircle
 10
41.00163853833645
 20
11.03091414860877
 30
0.0
 40
0.1025
  0
CIRCLE
  5
2EB
330
1E
100
AcDbEntity
  8
OBJECT
100
AcDbCircle
 10
41.00163853833645
 20
11.03091414860877
 30
0.0
 40
0.21
  0
CIRCLE
  5
2EC
330
1E
100
AcDbEntity
  8
OBJECT
100
AcDbCircle
 10
42.86213853833646
 20
11.28991414860877
 30
0.0
 40
0.282
  0
CIRCLE
  5
2ED
330
1E
100
AcDbEntity
  8
HIDDEN
100
AcDbCircle
 10
42.86213853833646
 20
11.28991414860877
 30
0.0
 40
0.095
  0
CIRCLE
  5
2EE
330
1E
100
AcDbEntity
  8
OBJECT
100
AcDbCircle
 10
42.86213853833646
 20
11.28991414860877
 30
0.0
 40
0.0825
  0
CIRCLE
  5
2EF
330
1E
100
AcDbEntity
  8
HIDDEN
100
AcDbCircle
 10
43.75963853833646
 20
10.41091414860878
 30
0.0
 40
0.3115
  0
CIRCLE
  5
2F0
330
1E
100
AcDbEntity
  8
OBJECT
100
AcDbCircle
 10
43.75963853833646
 20
10.41091414860878
 30
0.0
 40
0.266
  0
CIRCLE
  5
2F1
330
1E
100
AcDbEntity
  8
OBJECT
100
AcDbCircle
 10
43.52913853833646
 20
17.40091414860877
 30
0.0
 40
0.2825
  0
DIMENSION
  5
2F2
330
1E
100
AcDbEntity
  8
DIM
100
AcDbDimension
  2
*D9
 10
43.85963853833646
 20
26.81910568949447
 30
0.0
 11
40.50963853833646
 21
26.81910568949447
 31
0.0
 12
30.67578874203634
 22
-1.823326316534711
 32
0.0
  1
B
 71
     5
 42
-1.0
  3
23NSTD
100
AcDbAlignedDimension
 13
37.15963853833645
 23
23.88703264735514
 33
0.0
 14
43.85963853833646
 24
23.88703264735489
 34
0.0
100
AcDbRotatedDimension
  0
DIMENSION
  5
2F3
330
1E
100
AcDbEntity
  8
DIM
100
AcDbDimension
  2
*D8
 10
43.75963853833646
 20
25.81910568949448
 30
0.0
 11
40.50963853833646
 21
25.81910568949448
 31
0.0
 12
30.67578874203634
 22
-1.823326316534711
 32
0.0
  1
C
 71
     5
 42
-1.0
  3
23NSTD
100
AcDbAlignedDimension
 13
37.25963853833647
 23
24.39091414860878
 33
0.0
 14
43.75963853833646
 24
24.39091414860877
 34
0.0
100
AcDbRotatedDimension
  0
DIMENSION
  5
2F4
330
1E
100
AcDbEntity
  8
DIM
100
AcDbDimension
  2
*D10
 10
44.27463853833645
 20
27.81910568949447
 30
0.0
 11
40.50963853833646
 21
27.81910568949447
 31
0.0
 12
30.67578874203634
 22
-1.823326316534711
 32
0.0
  1
A
 71
     5
 42
-1.0
  3
23NSTD
100
AcDbAlignedDimension
 13
36.74463853833645
 23
24.40891414860877
 33
0.0
 14
44.27463853833645
 24
24.40891414860877
 34
0.0
100
AcDbRotatedDimension
  0
CIRCLE
  5
2F5
330
1E
100
AcDbEntity
  8
HIDDEN
100
AcDbCircle
 10
37.25963853833647
 20
24.39091414860878
 30
0.0
 40
0.3115
  0
CIRCLE
  5
2F6
330
1E
100
AcDbEntity
  8
OBJECT
100
AcDbCircle
 10
37.25963853833647
 20
24.39091414860878
 30
0.0
 40
0.266
  0
CIRCLE
  5
2F7
330
1E
100
AcDbEntity
  8
OBJECT
100
AcDbCircle
 10
38.15713853833646
 20
23.51191414860878
 30
0.0
 40
0.282
  0
CIRCLE
  5
2F8
330
1E
100
AcDbEntity
  8
HIDDEN
100
AcDbCircle
 10
38.15713853833646
 20
23.51191414860878
 30
0.0
 40
0.095
  0
CIRCLE
  5
2F9
330
1E
100
AcDbEntity
  8
OBJECT
100
AcDbCircle
 10
38.15713853833646
 20
23.51191414860878
 30
0.0
 40
0.0825
  0
CIRCLE
  5
2FA
330
1E
100
AcDbEntity
  8
OBJECT
100
AcDbCircle
 10
40.50963853833646
 20
24.25091414860878
 30
0.0
 40
0.2825
  0
DIMENSION
  5
2FB
330
1E
100
AcDbEntity
  8
DIM
100
AcDbDimension
  2
*D4
 10
46.97213853833647
 20
22.81291414860877
 30
0.0
 11
46.97213853833647
 21
22.32091414860877
 31
0.0
 12
30.67578874203634
 22
-1.823326316534711
 32
0.0
  1
<> TYP.
 71
     5
 42
-1.0
  3
23NSTDI
100
AcDbAlignedDimension
 13
43.45963853833645
 23
21.82891414860877
 33
0.0
 14
43.45963853833645
 24
22.81291414860877
 34
0.0
 50
90.0
100
AcDbRotatedDimension
  0
CIRCLE
  5
2FC
330
1E
100
AcDbEntity
  8
OBJECT
100
AcDbCircle
 10
42.86213853833646
 20
23.51191414860879
 30
0.0
 40
0.282
  0
CIRCLE
  5
2FD
330
1E
100
AcDbEntity
  8
OBJECT
100
AcDbCircle
 10
43.75963853833646
 20
24.39091414860877
 30
0.0
 40
0.266
  0
CIRCLE
  5
2FE
330
1E
100
AcDbEntity
  8
HIDDEN
100
AcDbCircle
 10
43.75963853833646
 20
24.39091414860877
 30
0.0
 40
0.3115
  0
CIRCLE
  5
2FF
330
1E
100
AcDbEntity
  8
OBJECT
100
AcDbCircle
 10
42.86213853833646
 20
23.51191414860879
 30
0.0
 40
0.0825
  0
CIRCLE
  5
300
330
1E
100
AcDbEntity
  8
HIDDEN
100
AcDbCircle
 10
42.86213853833646
 20
23.51191414860879
 30
0.0
 40
0.095
  0
LINE
  5
301
330
1E
100
AcDbEntity
  8
OBJECT
100
AcDbLine
 10
37.8171072667078
 20
24.60341414860877
 30
0.0
 11
43.19816980996486
 21
24.60341414860877
 31
0.0
  0
LINE
  5
302
330
1E
100
AcDbEntity
  8
OBJECT
100
AcDbLine
 10
43.19816980996507
 20
10.19841414860877
 30
0.0
 11
37.81710726670795
 21
10.19841414860877
 31
0.0
  0
DIMENSION
  5
303
330
1E
100
AcDbEntity
  8
DIM
100
AcDbDimension
  2
*D7
 10
35.49984975208975
 20
10.41091414860876
 30
0.0
 11
35.49984975208975
 21
17.40091414860877
 31
0.0
 12
30.67578874203634
 22
-1.823326316534711
 32
0.0
  1
J
 71
     5
 42
-1.0
  3
23NSTD
100
AcDbAlignedDimension
 13
37.25963853833647
 23
24.39091414860878
 33
0.0
 14
37.25963853833647
 24
10.41091414860876
 34
0.0
 50
270.0
100
AcDbRotatedDimension
  0
CIRCLE
  5
304
330
1E
100
AcDbEntity
  8
OBJECT
100
AcDbCircle
 10
40.01763853833646
 20
11.03091414860877
 30
0.0
 40
0.21
  0
CIRCLE
  5
305
330
1E
100
AcDbEntity
  8
OBJECT
100
AcDbCircle
 10
40.01763853833646
 20
11.03091414860877
 30
0.0
 40
0.1025
  0
LINE
  5
306
330
1E
100
AcDbEntity
  8
OBJECT
100
AcDbLine
 10
40.22379381961726
 20
11.07091414860876
 30
0.0
 11
40.33776353833647
 21
11.07091414860876
 31
0.0
  0
LINE
  5
307
330
1E
100
AcDbEntity
  8
OBJECT
100
AcDbLine
 10
40.22379381961726
 20
10.99091414860878
 30
0.0
 11
40.33776353833647
 21
10.99091414860878
 31
0.0
  0
CIRCLE
  5
308
330
1E
100
AcDbEntity
  8
OBJECT
100
AcDbCircle
 10
39.03363853833647
 20
11.03091414860877
 30
0.0
 40
0.21
  0
CIRCLE
  5
309
330
1E
100
AcDbEntity
  8
OBJECT
100
AcDbCircle
 10
39.03363853833647
 20
11.03091414860877
 30
0.0
 40
0.1025
  0
LINE
  5
30A
330
1E
100
AcDbEntity
  8
OBJECT
100
AcDbLine
 10
39.23979381961728
 20
11.07091414860876
 30
0.0
 11
39.81148325705557
 21
11.07091414860877
 31
0.0
  0
LINE
  5
30B
330
1E
100
AcDbEntity
  8
OBJECT
100
AcDbLine
 10
39.23979381961728
 20
10.99091414860878
 30
0.0
 11
39.81148325705557
 21
10.99091414860878
 31
0.0
  0
CIRCLE
  5
30C
330
1E
100
AcDbEntity
  8
OBJECT
100
AcDbCircle
 10
41.98563853833646
 20
11.03091414860877
 30
0.0
 40
0.21
  0
LINE
  5
30D
330
1E
100
AcDbEntity
  8
OBJECT
100
AcDbLine
 10
41.20779381961727
 20
10.99091414860878
 30
0.0
 11
41.77948325705556
 21
10.99091414860878
 31
0.0
  0
LINE
  5
30E
330
1E
100
AcDbEntity
  8
OBJECT
100
AcDbLine
 10
41.20779381961727
 20
11.07091414860876
 30
0.0
 11
41.77948325705556
 21
11.07091414860877
 31
0.0
  0
CIRCLE
  5
30F
330
1E
100
AcDbEntity
  8
OBJECT
100
AcDbCircle
 10
41.98563853833646
 20
11.03091414860877
 30
0.0
 40
0.1025
  0
LINE
  5
310
330
1E
100
AcDbEntity
  8
OBJECT
100
AcDbLine
 10
40.33776353833647
 20
10.19841414860877
 30
0.0
 11
40.33776353833647
 21
10.32671505321586
 31
0.0
  0
LINE
  5
311
330
1E
100
AcDbEntity
  8
OBJECT
100
AcDbLine
 10
40.68151353833647
 20
10.19841414860877
 30
0.0
 11
40.68151353833647
 21
10.32671505321586
 31
0.0
  0
LINE
  5
312
330
1E
100
AcDbEntity
  8
OBJECT
100
AcDbLine
 10
40.68151353833647
 20
10.77511324400168
 30
0.0
 11
40.68151353833647
 21
24.02671505321587
 31
0.0
  0
LINE
  5
313
330
1E
100
AcDbEntity
  8
OBJECT
100
AcDbLine
 10
40.33776353833647
 20
10.77511324400168
 30
0.0
 11
40.33776353833647
 21
24.02671505321587
 31
0.0
  0
LINE
  5
314
330
1E
100
AcDbEntity
  8
OBJECT
100
AcDbLine
 10
40.68151353833647
 20
11.07091414860877
 30
0.0
 11
40.79548325705558
 21
11.07091414860877
 31
0.0
  0
LINE
  5
315
330
1E
100
AcDbEntity
  8
OBJECT
100
AcDbLine
 10
40.68151353833647
 20
10.99091414860878
 30
0.0
 11
40.79548325705558
 21
10.99091414860878
 31
0.0
  0
CIRCLE
  5
316
330
1E
100
AcDbEntity
  8
OBJECT
100
AcDbCircle
 10
41.98563853833646
 20
23.77091414860878
 30
0.0
 40
0.21
  0
CIRCLE
  5
317
330
1E
100
AcDbEntity
  8
OBJECT
100
AcDbCircle
 10
39.03363853833647
 20
23.77091414860878
 30
0.0
 40
0.21
  0
CIRCLE
  5
318
330
1E
100
AcDbEntity
  8
OBJECT
100
AcDbCircle
 10
40.01763853833646
 20
23.77091414860878
 30
0.0
 40
0.21
  0
CIRCLE
  5
319
330
1E
100
AcDbEntity
  8
OBJECT
100
AcDbCircle
 10
41.00163853833645
 20
23.77091414860878
 30
0.0
 40
0.21
  0
CIRCLE
  5
31A
330
1E
100
AcDbEntity
  8
OBJECT
100
AcDbCircle
 10
40.01763853833646
 20
23.77091414860878
 30
0.0
 40
0.1025
  0
LINE
  5
31B
330
1E
100
AcDbEntity
  8
OBJECT
100
AcDbLine
 10
39.23979381961728
 20
23.81091414860879
 30
0.0
 11
39.81148325705557
 21
23.81091414860879
 31
0.0
  0
LINE
  5
31C
330
1E
100
AcDbEntity
  8
OBJECT
100
AcDbLine
 10
39.23979381961728
 20
23.73091414860879
 30
0.0
 11
39.81148325705557
 21
23.73091414860877
 31
0.0
  0
CIRCLE
  5
31D
330
1E
100
AcDbEntity
  8
OBJECT
100
AcDbCircle
 10
39.03363853833647
 20
23.77091414860878
 30
0.0
 40
0.1025
  0
LINE
  5
31E
330
1E
100
AcDbEntity
  8
OBJECT
100
AcDbLine
 10
41.20779381961727
 20
23.73091414860879
 30
0.0
 11
41.77948325705556
 21
23.73091414860877
 31
0.0
  0
LINE
  5
31F
330
1E
100
AcDbEntity
  8
OBJECT
100
AcDbLine
 10
41.20779381961727
 20
23.81091414860879
 30
0.0
 11
41.77948325705556
 21
23.81091414860879
 31
0.0
  0
LINE
  5
320
330
1E
100
AcDbEntity
  8
OBJECT
100
AcDbLine
 10
40.68151353833647
 20
23.81091414860877
 30
0.0
 11
40.79548325705558
 21
23.81091414860879
 31
0.0
  0
LINE
  5
321
330
1E
100
AcDbEntity
  8
OBJECT
100
AcDbLine
 10
40.68151353833647
 20
23.73091414860877
 30
0.0
 11
40.79548325705558
 21
23.73091414860877
 31
0.0
  0
LINE
  5
322
330
1E
100
AcDbEntity
  8
OBJECT
100
AcDbLine
 10
40.22379381961726
 20
23.81091414860879
 30
0.0
 11
40.33776353833647
 21
23.81091414860877
 31
0.0
  0
LINE
  5
323
330
1E
100
AcDbEntity
  8
OBJECT
100
AcDbLine
 10
40.22379381961726
 20
23.73091414860879
 30
0.0
 11
40.33776353833647
 21
23.73091414860879
 31
0.0
  0
CIRCLE
  5
324
330
1E
100
AcDbEntity
  8
OBJECT
100
AcDbCircle
 10
41.00163853833645
 20
23.77091414860878
 30
0.0
 40
0.1025
  0
CIRCLE
  5
325
330
1E
100
AcDbEntity
  8
OBJECT
100
AcDbCircle
 10
41.98563853833646
 20
23.77091414860878
 30
0.0
 40
0.1025
  0
LINE
  5
326
330
1E
100
AcDbEntity
  8
OBJECT
100
AcDbLine
 10
40.33776353833647
 20
24.47511324400169
 30
0.0
 11
40.33776353833647
 21
24.60341414860877
 31
0.0
  0
LINE
  5
327
330
1E
100
AcDbEntity
  8
OBJECT
100
AcDbLine
 10
40.68151353833647
 20
24.47511324400169
 30
0.0
 11
40.68151353833647
 21
24.60341414860877
 31
0.0
  0
CIRCLE
  5
328
330
1E
100
AcDbEntity
  8
OBJECT
100
AcDbCircle
 10
43.45963853833645
 20
11.98891414860877
 30
0.0
 40
0.21
  0
CIRCLE
  5
329
330
1E
100
AcDbEntity
  8
OBJECT
100
AcDbCircle
 10
43.45963853833645
 20
11.98891414860877
 30
0.0
 40
0.1025
  0
LINE
  5
32A
330
1E
100
AcDbEntity
  8
OBJECT
100
AcDbLine
 10
43.49963853833645
 20
13.17906942988959
 30
0.0
 11
43.49963853833645
 21
13.75075886732789
 31
0.0
  0
LINE
  5
32B
330
1E
100
AcDbEntity
  8
OBJECT
100
AcDbLine
 10
43.41963853833646
 20
13.17906942988959
 30
0.0
 11
43.41963853833646
 21
13.75075886732789
 31
0.0
  0
CIRCLE
  5
32C
330
1E
100
AcDbEntity
  8
OBJECT
100
AcDbCircle
 10
43.45963853833645
 20
12.97291414860878
 30
0.0
 40
0.21
  0
CIRCLE
  5
32D
330
1E
100
AcDbEntity
  8
OBJECT
100
AcDbCircle
 10
43.45963853833645
 20
12.97291414860878
 30
0.0
 40
0.1025
  0
LINE
  5
32E
330
1E
100
AcDbEntity
  8
OBJECT
100
AcDbLine
 10
43.49963853833645
 20
14.16306942988958
 30
0.0
 11
43.49963853833645
 21
14.73475886732789
 31
0.0
  0
LINE
  5
32F
330
1E
100
AcDbEntity
  8
OBJECT
100
AcDbLine
 10
43.41963853833646
 20
14.16306942988958
 30
0.0
 11
43.41963853833646
 21
14.73475886732789
 31
0.0
  0
CIRCLE
  5
330
330
1E
100
AcDbEntity
  8
OBJECT
100
AcDbCircle
 10
43.45963853833645
 20
13.95691414860877
 30
0.0
 40
0.21
  0
CIRCLE
  5
331
330
1E
100
AcDbEntity
  8
OBJECT
100
AcDbCircle
 10
43.45963853833645
 20
13.95691414860877
 30
0.0
 40
0.1025
  0
LINE
  5
332
330
1E
100
AcDbEntity
  8
OBJECT
100
AcDbLine
 10
43.49963853833645
 20
15.14706942988958
 30
0.0
 11
43.49963853833645
 21
15.71875886732789
 31
0.0
  0
LINE
  5
333
330
1E
100
AcDbEntity
  8
OBJECT
100
AcDbLine
 10
43.41963853833646
 20
15.14706942988958
 30
0.0
 11
43.41963853833646
 21
15.71875886732789
 31
0.0
  0
CIRCLE
  5
334
330
1E
100
AcDbEntity
  8
OBJECT
100
AcDbCircle
 10
43.45963853833645
 20
14.94091414860877
 30
0.0
 40
0.21
  0
CIRCLE
  5
335
330
1E
100
AcDbEntity
  8
OBJECT
100
AcDbCircle
 10
43.45963853833645
 20
14.94091414860877
 30
0.0
 40
0.1025
  0
LINE
  5
336
330
1E
100
AcDbEntity
  8
OBJECT
100
AcDbLine
 10
43.49963853833645
 20
16.13106942988959
 30
0.0
 11
43.49963853833645
 21
16.70275886732788
 31
0.0
  0
LINE
  5
337
330
1E
100
AcDbEntity
  8
OBJECT
100
AcDbLine
 10
43.41963853833646
 20
16.13106942988959
 30
0.0
 11
43.41963853833646
 21
16.70275886732788
 31
0.0
  0
CIRCLE
  5
338
330
1E
100
AcDbEntity
  8
OBJECT
100
AcDbCircle
 10
43.45963853833645
 20
15.92491414860877
 30
0.0
 40
0.21
  0
CIRCLE
  5
339
330
1E
100
AcDbEntity
  8
OBJECT
100
AcDbCircle
 10
43.45963853833645
 20
15.92491414860877
 30
0.0
 40
0.1025
  0
CIRCLE
  5
33A
330
1E
100
AcDbEntity
  8
OBJECT
100
AcDbCircle
 10
43.45963853833645
 20
16.90891414860877
 30
0.0
 40
0.21
  0
CIRCLE
  5
33B
330
1E
100
AcDbEntity
  8
OBJECT
100
AcDbCircle
 10
43.45963853833645
 20
16.90891414860877
 30
0.0
 40
0.1025
  0
LINE
  5
33C
330
1E
100
AcDbEntity
  8
OBJECT
100
AcDbLine
 10
43.49963853833645
 20
18.09906942988959
 30
0.0
 11
43.49963853833645
 21
18.67075886732789
 31
0.0
  0
LINE
  5
33D
330
1E
100
AcDbEntity
  8
OBJECT
100
AcDbLine
 10
43.41963853833646
 20
18.09906942988959
 30
0.0
 11
43.41963853833646
 21
18.67075886732789
 31
0.0
  0
CIRCLE
  5
33E
330
1E
100
AcDbEntity
  8
OBJECT
100
AcDbCircle
 10
43.45963853833645
 20
17.89291414860878
 30
0.0
 40
0.21
  0
CIRCLE
  5
33F
330
1E
100
AcDbEntity
  8
OBJECT
100
AcDbCircle
 10
43.45963853833645
 20
17.89291414860878
 30
0.0
 40
0.1025
  0
LINE
  5
340
330
1E
100
AcDbEntity
  8
OBJECT
100
AcDbLine
 10
43.49963853833645
 20
19.08306942988959
 30
0.0
 11
43.49963853833645
 21
19.65475886732788
 31
0.0
  0
LINE
  5
341
330
1E
100
AcDbEntity
  8
OBJECT
100
AcDbLine
 10
43.41963853833646
 20
19.08306942988959
 30
0.0
 11
43.41963853833646
 21
19.65475886732788
 31
0.0
  0
CIRCLE
  5
342
330
1E
100
AcDbEntity
  8
OBJECT
100
AcDbCircle
 10
43.45963853833645
 20
18.87691414860877
 30
0.0
 40
0.21
  0
CIRCLE
  5
343
330
1E
100
AcDbEntity
  8
OBJECT
100
AcDbCircle
 10
43.45963853833645
 20
18.87691414860877
 30
0.0
 40
0.1025
  0
LINE
  5
344
330
1E
100
AcDbEntity
  8
OBJECT
100
AcDbLine
 10
43.49963853833645
 20
20.06706942988958
 30
0.0
 11
43.49963853833645
 21
20.63875886732789
 31
0.0
  0
LINE
  5
345
330
1E
100
AcDbEntity
  8
OBJECT
100
AcDbLine
 10
43.41963853833646
 20
20.06706942988958
 30
0.0
 11
43.41963853833646
 21
20.63875886732789
 31
0.0
  0
CIRCLE
  5
346
330
1E
100
AcDbEntity
  8
OBJECT
100
AcDbCircle
 10
43.45963853833645
 20
19.86091414860877
 30
0.0
 40
0.21
  0
CIRCLE
  5
347
330
1E
100
AcDbEntity
  8
OBJECT
100
AcDbCircle
 10
43.45963853833645
 20
19.86091414860877
 30
0.0
 40
0.1025
  0
LINE
  5
348
330
1E
100
AcDbEntity
  8
OBJECT
100
AcDbLine
 10
43.49963853833645
 20
21.05106942988959
 30
0.0
 11
43.49963853833645
 21
21.62275886732789
 31
0.0
  0
LINE
  5
349
330
1E
100
AcDbEntity
  8
OBJECT
100
AcDbLine
 10
43.41963853833646
 20
21.05106942988959
 30
0.0
 11
43.41963853833646
 21
21.62275886732789
 31
0.0
  0
CIRCLE
  5
34A
330
1E
100
AcDbEntity
  8
OBJECT
100
AcDbCircle
 10
43.45963853833645
 20
20.84491414860877
 30
0.0
 40
0.21
  0
CIRCLE
  5
34B
330
1E
100
AcDbEntity
  8
OBJECT
100
AcDbCircle
 10
43.45963853833645
 20
20.84491414860877
 30
0.0
 40
0.1025
  0
CIRCLE
  5
34C
330
1E
100
AcDbEntity
  8
OBJECT
100
AcDbCircle
 10
43.45963853833645
 20
21.82891414860877
 30
0.0
 40
0.21
  0
CIRCLE
  5
34D
330
1E
100
AcDbEntity
  8
OBJECT
100
AcDbCircle
 10
43.45963853833645
 20
21.82891414860877
 30
0.0
 40
0.1025
  0
CIRCLE
  5
34E
330
1E
100
AcDbEntity
  8
OBJECT
100
AcDbCircle
 10
43.45963853833645
 20
22.81291414860877
 30
0.0
 40
0.21
  0
CIRCLE
  5
34F
330
1E
100
AcDbEntity
  8
OBJECT
100
AcDbCircle
 10
43.45963853833645
 20
22.81291414860877
 30
0.0
 40
0.1025
  0
LINE
  5
350
330
1E
100
AcDbEntity
  8
OBJECT
100
AcDbLine
 10
43.41276353833645
 20
12.1936157225524
 30
0.0
 11
43.41276353833645
 21
12.28327179484826
 31
0.0
  0
LINE
  5
351
330
1E
100
AcDbEntity
  8
OBJECT
100
AcDbLine
 10
43.50651353833645
 20
12.1936157225524
 30
0.0
 11
43.50651353833645
 21
12.28327179484826
 31
0.0
  0
ARC
  5
352
330
1E
100
AcDbEntity
  8
OBJECT
100
AcDbCircle
 10
43.45963853833645
 20
12.48091414860877
 30
0.0
 40
0.203125
100
AcDbArc
 50
103.3423637970888
 51
256.657636202912
  0
CIRCLE
  5
353
330
1E
100
AcDbEntity
  8
OBJECT
100
AcDbCircle
 10
43.45963853833645
 20
12.48091414860877
 30
0.0
 40
0.109375
  0
LINE
  5
354
330
1E
100
AcDbEntity
  8
OBJECT
100
AcDbLine
 10
43.50651353833645
 20
12.6785565023693
 30
0.0
 11
43.50651353833645
 21
12.76821257466514
 31
0.0
  0
LINE
  5
355
330
1E
100
AcDbEntity
  8
OBJECT
100
AcDbLine
 10
43.41276353833645
 20
12.6785565023693
 30
0.0
 11
43.41276353833645
 21
12.76821257466514
 31
0.0
  0
ARC
  5
356
330
1E
100
AcDbEntity
  8
OBJECT
100
AcDbCircle
 10
43.45963853833645
 20
12.48091414860877
 30
0.0
 40
0.203125
100
AcDbArc
 50
283.3423637970879
 51
76.6576362029121
  0
LINE
  5
357
330
1E
100
AcDbEntity
  8
OBJECT
100
AcDbLine
 10
43.41276353833645
 20
22.12327179484825
 30
0.0
 11
43.41276353833645
 21
22.03361572255241
 31
0.0
  0
LINE
  5
358
330
1E
100
AcDbEntity
  8
OBJECT
100
AcDbLine
 10
43.50651353833645
 20
22.12327179484825
 30
0.0
 11
43.50651353833645
 21
22.03361572255241
 31
0.0
  0
ARC
  5
359
330
1E
100
AcDbEntity
  8
OBJECT
100
AcDbCircle
 10
43.45963853833645
 20
22.32091414860878
 30
0.0
 40
0.203125
100
AcDbArc
 50
283.3423637970879
 51
76.65763620291208
  0
ARC
  5
35A
330
1E
100
AcDbEntity
  8
OBJECT
100
AcDbCircle
 10
43.45963853833645
 20
22.32091414860878
 30
0.0
 40
0.203125
100
AcDbArc
 50
103.3423637970879
 51
256.6576362029111
  0
LINE
  5
35B
330
1E
100
AcDbEntity
  8
OBJECT
100
AcDbLine
 10
43.41276353833645
 20
22.60821257466515
 30
0.0
 11
43.41276353833645
 21
22.5185565023693
 31
0.0
  0
LINE
  5
35C
330
1E
100
AcDbEntity
  8
OBJECT
100
AcDbLine
 10
43.50651353833645
 20
22.60821257466515
 30
0.0
 11
43.50651353833645
 21
22.5185565023693
 31
0.0
  0
CIRCLE
  5
35D
330
1E
100
AcDbEntity
  8
OBJECT
100
AcDbCircle
 10
43.45963853833645
 20
22.32091414860878
 30
0.0
 40
0.109375
  0
CIRCLE
  5
35E
330
1E
100
AcDbEntity
  8
OBJECT
100
AcDbCircle
 10
37.55963853833646
 20
20.84491414860877
 30
0.0
 40
0.1025
  0
CIRCLE
  5
35F
330
1E
100
AcDbEntity
  8
OBJECT
100
AcDbCircle
 10
37.55963853833646
 20
20.84491414860877
 30
0.0
 40
0.21
  0
LINE
  5
360
330
1E
100
AcDbEntity
  8
OBJECT
100
AcDbLine
 10
37.59963853833645
 20
14.16306942988958
 30
0.0
 11
37.59963853833647
 21
14.73475886732789
 31
0.0
  0
LINE
  5
361
330
1E
100
AcDbEntity
  8
OBJECT
100
AcDbLine
 10
37.51963853833645
 20
14.16306942988958
 30
0.0
 11
37.51963853833645
 21
14.73475886732789
 31
0.0
  0
LINE
  5
362
330
1E
100
AcDbEntity
  8
OBJECT
100
AcDbLine
 10
37.60651353833646
 20
12.6785565023693
 30
0.0
 11
37.60651353833646
 21
12.76821257466514
 31
0.0
  0
LINE
  5
363
330
1E
100
AcDbEntity
  8
OBJECT
100
AcDbLine
 10
37.51276353833646
 20
12.6785565023693
 30
0.0
 11
37.51276353833646
 21
12.76821257466514
 31
0.0
  0
CIRCLE
  5
364
330
1E
100
AcDbEntity
  8
OBJECT
100
AcDbCircle
 10
37.55963853833646
 20
11.98891414860877
 30
0.0
 40
0.21
  0
CIRCLE
  5
365
330
1E
100
AcDbEntity
  8
OBJECT
100
AcDbCircle
 10
37.55963853833646
 20
11.98891414860877
 30
0.0
 40
0.1025
  0
ARC
  5
366
330
1E
100
AcDbEntity
  8
OBJECT
100
AcDbCircle
 10
37.55963853833645
 20
12.48091414860877
 30
0.0
 40
0.203125
100
AcDbArc
 50
103.3423637970879
 51
256.657636202912
  0
ARC
  5
367
330
1E
100
AcDbEntity
  8
OBJECT
100
AcDbCircle
 10
37.55963853833645
 20
12.48091414860877
 30
0.0
 40
0.203125
100
AcDbArc
 50
283.3423637970879
 51
76.65763620291112
  0
LINE
  5
368
330
1E
100
AcDbEntity
  8
OBJECT
100
AcDbLine
 10
37.60651353833645
 20
12.1936157225524
 30
0.0
 11
37.60651353833645
 21
12.28327179484826
 31
0.0
  0
LINE
  5
369
330
1E
100
AcDbEntity
  8
OBJECT
100
AcDbLine
 10
37.51276353833646
 20
12.1936157225524
 30
0.0
 11
37.51276353833646
 21
12.28327179484826
 31
0.0
  0
CIRCLE
  5
36A
330
1E
100
AcDbEntity
  8
OBJECT
100
AcDbCircle
 10
37.55963853833645
 20
12.48091414860877
 30
0.0
 40
0.109375
  0
LINE
  5
36B
330
1E
100
AcDbEntity
  8
OBJECT
100
AcDbLine
 10
37.59963853833645
 20
13.17906942988959
 30
0.0
 11
37.59963853833647
 21
13.75075886732789
 31
0.0
  0
LINE
  5
36C
330
1E
100
AcDbEntity
  8
OBJECT
100
AcDbLine
 10
37.51963853833645
 20
13.17906942988959
 30
0.0
 11
37.51963853833645
 21
13.75075886732789
 31
0.0
  0
CIRCLE
  5
36D
330
1E
100
AcDbEntity
  8
OBJECT
100
AcDbCircle
 10
37.55963853833646
 20
12.97291414860878
 30
0.0
 40
0.1025
  0
CIRCLE
  5
36E
330
1E
100
AcDbEntity
  8
OBJECT
100
AcDbCircle
 10
37.55963853833646
 20
12.97291414860878
 30
0.0
 40
0.21
  0
CIRCLE
  5
36F
330
1E
100
AcDbEntity
  8
OBJECT
100
AcDbCircle
 10
37.55963853833646
 20
13.95691414860877
 30
0.0
 40
0.1025
  0
CIRCLE
  5
370
330
1E
100
AcDbEntity
  8
OBJECT
100
AcDbCircle
 10
37.55963853833646
 20
13.95691414860877
 30
0.0
 40
0.21
  0
CIRCLE
  5
371
330
1E
100
AcDbEntity
  8
OBJECT
100
AcDbCircle
 10
37.55963853833646
 20
15.92491414860877
 30
0.0
 40
0.1025
  0
CIRCLE
  5
372
330
1E
100
AcDbEntity
  8
OBJECT
100
AcDbCircle
 10
37.55963853833646
 20
15.92491414860877
 30
0.0
 40
0.21
  0
LINE
  5
373
330
1E
100
AcDbEntity
  8
OBJECT
100
AcDbLine
 10
37.59963853833645
 20
15.14706942988958
 30
0.0
 11
37.59963853833647
 21
15.71875886732789
 31
0.0
  0
LINE
  5
374
330
1E
100
AcDbEntity
  8
OBJECT
100
AcDbLine
 10
37.51963853833645
 20
15.14706942988958
 30
0.0
 11
37.51963853833645
 21
15.71875886732789
 31
0.0
  0
CIRCLE
  5
375
330
1E
100
AcDbEntity
  8
OBJECT
100
AcDbCircle
 10
37.55963853833646
 20
14.94091414860877
 30
0.0
 40
0.1025
  0
CIRCLE
  5
376
330
1E
100
AcDbEntity
  8
OBJECT
100
AcDbCircle
 10
37.55963853833646
 20
14.94091414860877
 30
0.0
 40
0.21
  0
CIRCLE
  5
377
330
1E
100
AcDbEntity
  8
OBJECT
100
AcDbCircle
 10
37.55963853833646
 20
16.90891414860877
 30
0.0
 40
0.21
  0
LINE
  5
378
330
1E
100
AcDbEntity
  8
OBJECT
100
AcDbLine
 10
37.59963853833645
 20
16.13106942988959
 30
0.0
 11
37.59963853833647
 21
16.70275886732788
 31
0.0
  0
LINE
  5
379
330
1E
100
AcDbEntity
  8
OBJECT
100
AcDbLine
 10
37.51963853833645
 20
16.13106942988959
 30
0.0
 11
37.51963853833645
 21
16.70275886732788
 31
0.0
  0
CIRCLE
  5
37A
330
1E
100
AcDbEntity
  8
OBJECT
100
AcDbCircle
 10
37.55963853833646
 20
16.90891414860877
 30
0.0
 40
0.1025
  0
LINE
  5
37B
330
1E
100
AcDbEntity
  8
OBJECT
100
AcDbLine
 10
37.59963853833645
 20
19.08306942988959
 30
0.0
 11
37.59963853833647
 21
19.65475886732788
 31
0.0
  0
LINE
  5
37C
330
1E
100
AcDbEntity
  8
OBJECT
100
AcDbLine
 10
37.51963853833645
 20
19.08306942988959
 30
0.0
 11
37.51963853833645
 21
19.65475886732788
 31
0.0
  0
LINE
  5
37D
330
1E
100
AcDbEntity
  8
OBJECT
100
AcDbLine
 10
37.59963853833645
 20
18.09906942988959
 30
0.0
 11
37.59963853833647
 21
18.67075886732789
 31
0.0
  0
LINE
  5
37E
330
1E
100
AcDbEntity
  8
OBJECT
100
AcDbLine
 10
37.51963853833645
 20
18.09906942988959
 30
0.0
 11
37.51963853833645
 21
18.67075886732789
 31
0.0
  0
CIRCLE
  5
37F
330
1E
100
AcDbEntity
  8
OBJECT
100
AcDbCircle
 10
37.55963853833646
 20
17.89291414860878
 30
0.0
 40
0.1025
  0
CIRCLE
  5
380
330
1E
100
AcDbEntity
  8
OBJECT
100
AcDbCircle
 10
37.55963853833646
 20
17.89291414860878
 30
0.0
 40
0.21
  0
CIRCLE
  5
381
330
1E
100
AcDbEntity
  8
OBJECT
100
AcDbCircle
 10
37.55963853833646
 20
18.87691414860877
 30
0.0
 40
0.1025
  0
CIRCLE
  5
382
330
1E
100
AcDbEntity
  8
OBJECT
100
AcDbCircle
 10
37.55963853833646
 20
18.87691414860877
 30
0.0
 40
0.21
  0
CIRCLE
  5
383
330
1E
100
AcDbEntity
  8
OBJECT
100
AcDbCircle
 10
37.55963853833646
 20
19.86091414860877
 30
0.0
 40
0.21
  0
CIRCLE
  5
384
330
1E
100
AcDbEntity
  8
OBJECT
100
AcDbCircle
 10
37.55963853833646
 20
19.86091414860877
 30
0.0
 40
0.1025
  0
LINE
  5
385
330
1E
100
AcDbEntity
  8
OBJECT
100
AcDbLine
 10
37.59963853833645
 20
20.06706942988958
 30
0.0
 11
37.59963853833647
 21
20.63875886732789
 31
0.0
  0
LINE
  5
386
330
1E
100
AcDbEntity
  8
OBJECT
100
AcDbLine
 10
37.51963853833645
 20
20.06706942988958
 30
0.0
 11
37.51963853833645
 21
20.63875886732789
 31
0.0
  0
ARC
  5
387
330
1E
100
AcDbEntity
  8
OBJECT
100
AcDbCircle
 10
37.55963853833645
 20
22.32091414860878
 30
0.0
 40
0.203125
100
AcDbArc
 50
283.3423637970888
 51
76.65763620291208
  0
ARC
  5
388
330
1E
100
AcDbEntity
  8
OBJECT
100
AcDbCircle
 10
37.55963853833645
 20
22.32091414860878
 30
0.0
 40
0.203125
100
AcDbArc
 50
103.3423637970879
 51
256.657636202912
  0
CIRCLE
  5
389
330
1E
100
AcDbEntity
  8
OBJECT
100
AcDbCircle
 10
37.55963853833646
 20
21.82891414860877
 30
0.0
 40
0.21
  0
LINE
  5
38A
330
1E
100
AcDbEntity
  8
OBJECT
100
AcDbLine
 10
37.59963853833645
 20
21.05106942988959
 30
0.0
 11
37.59963853833647
 21
21.62275886732789
 31
0.0
  0
LINE
  5
38B
330
1E
100
AcDbEntity
  8
OBJECT
100
AcDbLine
 10
37.51963853833645
 20
21.05106942988959
 30
0.0
 11
37.51963853833645
 21
21.62275886732789
 31
0.0
  0
CIRCLE
  5
38C
330
1E
100
AcDbEntity
  8
OBJECT
100
AcDbCircle
 10
37.55963853833645
 20
22.32091414860878
 30
0.0
 40
0.109375
  0
LINE
  5
38D
330
1E
100
AcDbEntity
  8
OBJECT
100
AcDbLine
 10
37.51276353833646
 20
22.12327179484825
 30
0.0
 11
37.51276353833646
 21
22.03361572255241
 31
0.0
  0
LINE
  5
38E
330
1E
100
AcDbEntity
  8
OBJECT
100
AcDbLine
 10
37.60651353833646
 20
22.12327179484825
 30
0.0
 11
37.60651353833646
 21
22.03361572255241
 31
0.0
  0
CIRCLE
  5
38F
330
1E
100
AcDbEntity
  8
OBJECT
100
AcDbCircle
 10
37.55963853833646
 20
21.82891414860877
 30
0.0
 40
0.1025
  0
LINE
  5
390
330
1E
100
AcDbEntity
  8
OBJECT
100
AcDbLine
 10
37.51276353833646
 20
22.60821257466515
 30
0.0
 11
37.51276353833646
 21
22.5185565023693
 31
0.0
  0
LINE
  5
391
330
1E
100
AcDbEntity
  8
OBJECT
100
AcDbLine
 10
37.60651353833645
 20
22.60821257466515
 30
0.0
 11
37.60651353833645
 21
22.5185565023693
 31
0.0
  0
CIRCLE
  5
392
330
1E
100
AcDbEntity
  8
OBJECT
100
AcDbCircle
 10
37.55963853833646
 20
22.81291414860877
 30
0.0
 40
0.1025
  0
CIRCLE
  5
393
330
1E
100
AcDbEntity
  8
OBJECT
100
AcDbCircle
 10
37.55963853833646
 20
22.81291414860877
 30
0.0
 40
0.21
  0
LINE
  5
394
330
1E
100
AcDbEntity
  8
CENTER
100
AcDbLine
 10
28.42657567113239
 20
9.525914148608777
 30
0.0
 11
28.42657567113239
 21
25.27591414860877
 31
0.0
  0
LINE
  5
395
330
1E
100
AcDbEntity
  8
CENTER
100
AcDbLine
 10
24.2865756711324
 20
17.40091414860877
 30
0.0
 11
32.56657567113238
 21
17.40091414860877
 31
0.0
  0
LINE
  5
396
330
1E
100
AcDbEntity
  8
OBJECT
100
AcDbLine
 10
31.1999765625962
 20
30.42127203344742
 30
0.0
 11
31.271612982176
 21
33.98827203344743
 31
0.0
  0
LINE
  5
397
330
1E
100
AcDbEntity
  8
OBJECT
100
AcDbLine
 10
32.17907567113236
 20
30.12827203344741
 30
0.0
 11
32.11907567113238
 21
33.98827203344743
 31
0.0
  0
LINE
  5
398
330
1E
100
AcDbEntity
  8
CENTER
100
AcDbLine
 10
28.42657567113238
 20
26.7034554862749
 30
0.0
 11
28.42657567113237
 21
34.35608858061995
 31
0.0
  0
LINE
  5
399
330
1E
100
AcDbEntity
  8
OBJECT
100
AcDbLine
 10
24.67407567113237
 20
30.12827203344741
 30
0.0
 11
24.73407567113238
 21
33.98827203344743
 31
0.0
  0
LINE
  5
39A
330
1E
100
AcDbEntity
  8
OBJECT
100
AcDbLine
 10
25.65317477966853
 20
30.42127203344742
 30
0.0
 11
25.58153836008875
 21
33.98827203344743
 31
0.0
  0
DIMENSION
  5
39B
330
1E
100
AcDbEntity
  8
DIM
100
AcDbDimension
  2
*D11
 10
32.12657567113238
 20
25.96927203344744
 30
0.0
 11
28.42657567113239
 21
25.96927203344744
 31
0.0
 12
1.956351696143027
 22
-1.823326316534711
 32
0.0
  1
P
 71
     5
 42
-1.0
  3
23NSTD
100
AcDbAlignedDimension
 13
24.72657567113238
 23
27.22127203344743
 33
0.0
 14
32.12657567113238
 24
27.22127203344743
 34
0.0
100
AcDbRotatedDimension
  0
LINE
  5
39C
330
1E
100
AcDbEntity
  8
OBJECT
100
AcDbLine
 10
25.20088279864201
 20
29.83627203344741
 30
0.0
 11
31.65226854362273
 21
29.83627203344741
 31
0.0
  0
LINE
  5
39D
330
1E
100
AcDbEntity
  8
OBJECT
100
AcDbLine
 10
25.20257567113241
 20
26.99127203344741
 30
0.0
 11
31.65057567113237
 21
26.99127203344741
 31
0.0
  0
ARC
  5
39E
330
1E
100
AcDbEntity
  8
OBJECT
100
AcDbCircle
 10
25.8966612457576
 20
27.22127203344743
 30
0.0
 40
0.2300000000000111
100
AcDbArc
 50
180.0
 51
270.0
  0
ARC
  5
39F
330
1E
100
AcDbEntity
  8
OBJECT
100
AcDbCircle
 10
25.20257567113241
 20
27.22127203344743
 30
0.0
 40
0.2300000000000111
100
AcDbArc
 50
180.0
 51
270.0
  0
LINE
  5
3A0
330
1E
100
AcDbEntity
  8
OBJECT
100
AcDbLine
 10
24.72657567113238
 20
27.22127203344743
 30
0.0
 11
25.84258427013064
 21
27.22127203344743
 31
0.0
  0
LINE
  5
3A1
330
1E
100
AcDbEntity
  8
OBJECT
100
AcDbLine
 10
24.68391819613238
 20
30.12827203344741
 30
0.0
 11
24.72657567113238
 21
27.22127203344743
 31
0.0
  0
LINE
  5
3A2
330
1E
100
AcDbEntity
  8
OBJECT
100
AcDbLine
 10
25.60006611817148
 20
27.22127203344743
 30
0.0
 11
25.60006611817148
 21
29.83627203344741
 31
0.0
  0
LINE
  5
3A3
330
1E
100
AcDbEntity
  8
OBJECT
100
AcDbLine
 10
25.65744436666626
 20
30.20927203344732
 30
0.0
 11
25.65480608413464
 21
30.34027203344732
 31
0.0
  0
ARC
  5
3A4
330
1E
100
AcDbEntity
  8
OBJECT
100
AcDbCircle
 10
30.95649009650717
 20
27.22127203344743
 30
0.0
 40
0.2300000000000111
100
AcDbArc
 50
270.0
 51
0.0
  0
ARC
  5
3A5
330
1E
100
AcDbEntity
  8
OBJECT
100
AcDbCircle
 10
31.65057567113237
 20
27.22127203344743
 30
0.0
 40
0.2300000000000111
100
AcDbArc
 50
270.0
 51
0.0
  0
LINE
  5
3A6
330
1E
100
AcDbEntity
  8
OBJECT
100
AcDbLine
 10
32.12657567113238
 20
27.22127203344743
 30
0.0
 11
31.01056707213412
 21
27.22127203344743
 31
0.0
  0
LINE
  5
3A7
330
1E
100
AcDbEntity
  8
OBJECT
100
AcDbLine
 10
31.25308522409327
 20
27.22127203344743
 30
0.0
 11
31.25308522409325
 21
29.83627203344741
 31
0.0
  0
LINE
  5
3A8
330
1E
100
AcDbEntity
  8
OBJECT
100
AcDbLine
 10
31.19570697559848
 20
30.20927203344732
 30
0.0
 11
31.19834525813009
 21
30.34027203344732
 31
0.0
  0
LINE
  5
3A9
330
1E
100
AcDbEntity
  8
OBJECT
100
AcDbLine
 10
32.16923314613238
 20
30.12827203344741
 30
0.0
 11
32.12657567113238
 21
27.22127203344743
 31
0.0
  0
DIMENSION
  5
3AA
330
1E
100
AcDbEntity
  8
DIM
100
AcDbDimension
  2
*D3
 10
32.11907567113238
 20
34.98427203344742
 30
0.0
 11
28.42657567113237
 21
34.98427203344742
 31
0.0
 12
1.956351696143027
 22
-2.67324012453956
 32
0.0
  1
N
 71
     5
 42
-1.0
  3
23NSTD
100
AcDbAlignedDimension
 13
24.73407567113238
 23
33.98827203344743
 33
0.0
 14
32.11907567113238
 24
33.98827203344743
 34
0.0
100
AcDbRotatedDimension
  0
LINE
  5
3AB
330
1E
100
AcDbEntity
  8
OBJECT
100
AcDbLine
 10
32.11907567113238
 20
33.98827203344743
 30
0.0
 11
24.73407567113238
 21
33.98827203344743
 31
0.0
  0
DIMENSION
  5
3AC
330
1E
100
AcDbEntity
  8
DIM
100
AcDbDimension
  2
*D16
 10
13.64033360444497
 20
9.968414148608786
 30
0.0
 11
13.64033360444497
 21
17.40091414860877
 31
0.0
 12
-2.693336482307085
 22
-40.47999999999999
 32
0.0
  1
U
 71
     5
 42
-1.0
  3
23NSTD
100
AcDbAlignedDimension
 13
15.09503818746989
 23
24.83341414860877
 33
0.0
 14
15.09503818746988
 24
9.968414148608786
 34
0.0
 50
270.0
100
AcDbRotatedDimension
  0
LINE
  5
3AD
330
1E
100
AcDbEntity
  8
OBJECT
100
AcDbLine
 10
18.66203818746987
 20
24.37410702109914
 30
0.0
 11
18.66203818746987
 21
17.40091414860877
 31
0.0
  0
LINE
  5
3AE
330
1E
100
AcDbEntity
  8
OBJECT
100
AcDbLine
 10
15.09503818746988
 20
17.40091414860877
 30
0.0
 11
15.09503818746989
 21
24.83341414860877
 31
0.0
  0
LINE
  5
3AF
330
1E
100
AcDbEntity
  8
OBJECT
100
AcDbLine
 10
22.09203818746988
 20
24.37241414860875
 30
0.0
 11
22.09203818746988
 21
10.42941414860879
 31
0.0
  0
DIMENSION
  5
3B0
330
1E
100
AcDbEntity
  8
DIM
100
AcDbDimension
  2
*D15
 10
15.21803818746988
 20
14.32673368260894
 30
0.0
 11
12.07428818746988
 21
14.32673368260894
 31
0.0
 12
-2.693336482307085
 22
-40.47999999999999
 32
0.0
  1
<>
 71
     5
 42
-1.0
  3
23NSTD
100
AcDbAlignedDimension
 13
15.47503818746988
 23
13.1824141486088
 33
0.0
 14
15.21803818746988
 24
12.76291414860878
 34
0.0
100
AcDbRotatedDimension
  0
DIMENSION
  5
3B1
330
1E
100
AcDbEntity
  8
DIM
100
AcDbDimension
  2
*D12
 10
15.09503818746988
 20
12.38961489036779
 30
0.0
 11
12.01378818746988
 21
12.38961489036779
 31
0.0
 12
-57.28574315562631
 22
-1.823326316534711
 32
0.0
  1
<>
 71
     5
 42
-1.0
  3
23NSTD
100
AcDbAlignedDimension
 13
15.21803818746988
 23
12.19891414860876
 33
0.0
 14
15.09503818746988
 24
12.14916414860877
 34
0.0
100
AcDbRotatedDimension
  0
LINE
  5
3B2
330
1E
100
AcDbEntity
  8
OBJECT
100
AcDbLine
 10
18.91103818746988
 20
10.08191414860877
 30
0.0
 11
18.90322755728725
 21
10.19250557142207
 31
0.0
  0
LWPOLYLINE
  5
3B3
330
1E
100
AcDbEntity
  8
OBJECT
100
AcDbPolyline
 90
      168
 70
     0
 43
0.0
 10
18.95503818746986
 20
10.70491414860877
 10
18.91103818746986
 20
10.65941414860877
 10
18.86703818746987
 20
10.70491414860877
 10
18.82303818746987
 20
10.65941414860877
 10
18.77903818746987
 20
10.70491414860877
 10
18.73503818746987
 20
10.65941414860877
 10
18.69103818746988
 20
10.70491414860877
 10
18.64703818746988
 20
10.65941414860877
 10
18.60303818746988
 20
10.70491414860877
 10
18.55903818746987
 20
10.65941414860877
 10
18.51503818746988
 20
10.70491414860877
 10
18.46103818746989
 20
10.65941414860877
 10
18.41703818746989
 20
10.70491414860877
 10
18.37303818746989
 20
10.65941414860877
 10
18.3290381874699
 20
10.70491414860877
 10
18.2850381874699
 20
10.65941414860877
 10
18.2410381874699
 20
10.70491414860877
 10
18.19703818746989
 20
10.65941414860877
 10
18.1530381874699
 20
10.70491414860877
 10
18.1090381874699
 20
10.65941414860877
 10
18.0650381874699
 20
10.70491414860877
 10
18.02103818746989
 20
10.65941414860877
 10
17.97703818746989
 20
10.70491414860877
 10
17.9330381874699
 20
10.65941414860877
 10
17.8890381874699
 20
10.70491414860877
 10
17.84503818746989
 20
10.65941414860877
 10
17.80103818746989
 20
10.70491414860877
 10
17.7570381874699
 20
10.65941414860877
 10
17.7130381874699
 20
10.70491414860877
 10
17.66903818746989
 20
10.65941414860877
 10
17.62503818746989
 20
10.70491414860877
 10
17.58103818746989
 20
10.65941414860877
 10
17.53703818746989
 20
10.70491414860877
 10
17.49303818746988
 20
10.65941414860877
 10
17.44903818746989
 20
10.70491414860877
 10
17.40503818746989
 20
10.65941414860877
 10
17.36103818746989
 20
10.70491414860877
 10
17.31703818746988
 20
10.65941414860877
 10
17.27303818746989
 20
10.70491414860877
 10
17.22903818746989
 20
10.65941414860877
 10
17.18503818746989
 20
10.70491414860877
 10
17.14103818746988
 20
10.65941414860877
 10
17.09703818746988
 20
10.70491414860877
 10
17.05303818746989
 20
10.65941414860877
 10
17.00903818746989
 20
10.70491414860877
 10
16.96503818746989
 20
10.65941414860877
 10
16.9210381874699
 20
10.70491414860877
 10
16.8770381874699
 20
10.65941414860877
 10
16.8330381874699
 20
10.70491414860877
 10
16.78903818746989
 20
10.65941414860877
 10
16.74503818746989
 20
10.70491414860877
 10
16.7010381874699
 20
10.65941414860877
 10
16.6570381874699
 20
10.70491414860877
 10
16.61303818746989
 20
10.65941414860877
 10
16.56903818746989
 20
10.70491414860877
 10
16.5250381874699
 20
10.65941414860877
 10
16.4810381874699
 20
10.70491414860877
 10
16.43703818746989
 20
10.65941414860877
 10
16.39303818746989
 20
10.70491414860877
 10
16.34903818746989
 20
10.65941414860877
 10
16.3050381874699
 20
10.70491414860877
 10
16.26103818746988
 20
10.65941414860877
 10
16.21703818746989
 20
10.70491414860877
 10
16.17303818746989
 20
10.65941414860877
 10
16.12903818746989
 20
10.70491414860877
 10
16.08503818746988
 20
10.65941414860877
 10
16.04103818746989
 20
10.70491414860877
 10
15.99703818746989
 20
10.65941414860877
 10
15.95303818746989
 20
10.70491414860877
 10
15.90903818746988
 20
10.65941414860877
 10
15.86503818746988
 20
10.70491414860877
 10
15.82103818746989
 20
10.65941414860877
 10
15.77703818746989
 20
10.70491414860877
 10
15.73303818746989
 20
10.65941414860877
 10
15.6890381874699
 20
10.70491414860877
 10
15.6450381874699
 20
10.65941414860877
 10
15.6010381874699
 20
10.70491414860877
 10
15.55703818746989
 20
10.65941414860877
 10
15.5130381874699
 20
10.70491414860877
 10
15.4690381874699
 20
10.65941414860877
 10
15.4250381874699
 20
10.70491414860877
 10
15.38103818746989
 20
10.65941414860877
 10
15.33703818746989
 20
10.70491414860877
 10
15.30603818746989
 20
10.67285733042695
 10
15.30603818746989
 20
10.09535733042695
 10
15.33703818746989
 20
10.12741414860877
 10
15.38103818746989
 20
10.08191414860877
 10
15.4250381874699
 20
10.12741414860877
 10
15.4690381874699
 20
10.08191414860877
 10
15.5130381874699
 20
10.12741414860877
 10
15.55703818746989
 20
10.08191414860877
 10
15.6010381874699
 20
10.12741414860877
 10
15.6450381874699
 20
10.08191414860877
 10
15.6890381874699
 20
10.12741414860877
 10
15.73303818746989
 20
10.08191414860877
 10
15.7770381874699
 20
10.12741414860877
 10
15.8210381874699
 20
10.08191414860877
 10
15.8650381874699
 20
10.12741414860877
 10
15.9090381874699
 20
10.08191414860877
 10
15.95303818746991
 20
10.12741414860877
 10
15.9970381874699
 20
10.08191414860877
 10
16.0410381874699
 20
10.12741414860877
 10
16.0850381874699
 20
10.08191414860877
 10
16.12903818746991
 20
10.12741414860877
 10
16.1730381874699
 20
10.08191414860877
 10
16.2170381874699
 20
10.12741414860877
 10
16.2610381874699
 20
10.08191414860877
 10
16.30503818746991
 20
10.12741414860877
 10
16.34903818746991
 20
10.08191414860877
 10
16.39303818746991
 20
10.12741414860877
 10
16.4370381874699
 20
10.08191414860877
 10
16.4810381874699
 20
10.12741414860877
 10
16.5250381874699
 20
10.08191414860877
 10
16.56903818746989
 20
10.12741414860877
 10
16.61303818746989
 20
10.08191414860877
 10
16.6570381874699
 20
10.12741414860877
 10
16.7010381874699
 20
10.08191414860877
 10
16.74503818746989
 20
10.12741414860877
 10
16.78903818746989
 20
10.08191414860877
 10
16.8330381874699
 20
10.12741414860877
 10
16.8770381874699
 20
10.08191414860877
 10
16.9210381874699
 20
10.12741414860877
 10
16.96503818746989
 20
10.08191414860877
 10
17.0090381874699
 20
10.12741414860877
 10
17.0530381874699
 20
10.08191414860877
 10
17.0970381874699
 20
10.12741414860877
 10
17.14103818746989
 20
10.08191414860877
 10
17.18503818746991
 20
10.12741414860877
 10
17.2290381874699
 20
10.08191414860877
 10
17.2730381874699
 20
10.12741414860877
 10
17.3170381874699
 20
10.08191414860877
 10
17.36103818746991
 20
10.12741414860877
 10
17.40503818746991
 20
10.08191414860877
 10
17.4490381874699
 20
10.12741414860877
 10
17.4930381874699
 20
10.08191414860877
 10
17.53703818746991
 20
10.12741414860877
 10
17.58103818746991
 20
10.08191414860877
 10
17.6250381874699
 20
10.12741414860877
 10
17.6690381874699
 20
10.08191414860877
 10
17.7130381874699
 20
10.12741414860877
 10
17.7570381874699
 20
10.08191414860877
 10
17.80103818746989
 20
10.12741414860877
 10
17.84503818746989
 20
10.08191414860877
 10
17.8890381874699
 20
10.12741414860877
 10
17.9330381874699
 20
10.08191414860877
 10
17.97703818746989
 20
10.12741414860877
 10
18.02103818746989
 20
10.08191414860877
 10
18.0650381874699
 20
10.12741414860877
 10
18.1090381874699
 20
10.08191414860877
 10
18.1530381874699
 20
10.12741414860877
 10
18.19703818746989
 20
10.08191414860877
 10
18.2410381874699
 20
10.12741414860877
 10
18.2850381874699
 20
10.08191414860877
 10
18.3290381874699
 20
10.12741414860877
 10
18.37303818746989
 20
10.08191414860877
 10
18.4170381874699
 20
10.12741414860877
 10
18.4610381874699
 20
10.08191414860877
 10
18.51503818746989
 20
10.12741414860877
 10
18.55903818746989
 20
10.08191414860877
 10
18.6030381874699
 20
10.12741414860877
 10
18.64703818746989
 20
10.08191414860877
 10
18.69103818746989
 20
10.12741414860877
 10
18.73503818746989
 20
10.08191414860877
 10
18.77903818746989
 20
10.12741414860877
 10
18.82303818746988
 20
10.08191414860877
 10
18.86703818746988
 20
10.12741414860877
 10
18.91103818746988
 20
10.08191414860877
 10
18.95503818746987
 20
10.12741414860877
  0
LINE
  5
45D
330
1E
100
AcDbEntity
  8
OBJECT
100
AcDbLine
 10
19.07003818746987
 20
10.89773530594604
 30
0.0
 11
15.17940268746988
 21
10.89773530594604
 31
0.0
  0
LINE
  5
45E
330
1E
100
AcDbEntity
  8
OBJECT
100
AcDbLine
 10
18.95503818746987
 20
9.900914148608777
 30
0.0
 11
15.09503818746988
 21
9.968414148608786
 31
0.0
  0
LINE
  5
45F
330
1E
100
AcDbEntity
  8
OBJECT
100
AcDbLine
 10
18.95503818746987
 20
24.90091414860876
 30
0.0
 11
18.95503818746987
 21
10.89773530594604
 31
0.0
  0
LINE
  5
460
330
1E
100
AcDbEntity
  8
OBJECT
100
AcDbLine
 10
21.97703818746986
 20
17.40091414860877
 30
0.0
 11
21.97703818746986
 21
11.14497838012027
 31
0.0
  0
ARC
  5
461
330
1E
100
AcDbEntity
  8
OBJECT
100
AcDbCircle
 10
21.86203818746986
 20
11.14497838012027
 30
0.0
 40
0.2300000000000111
100
AcDbArc
 50
270.0
 51
0.0
  0
ARC
  5
462
330
1E
100
AcDbEntity
  8
OBJECT
100
AcDbCircle
 10
21.86203818746986
 20
10.42941414860879
 30
0.0
 40
0.2300000000000111
100
AcDbArc
 50
270.0
 51
0.0
  0
LINE
  5
463
330
1E
100
AcDbEntity
  8
OBJECT
100
AcDbLine
 10
19.20503818746987
 20
10.9149783801201
 30
0.0
 11
19.20503818746987
 21
10.07091414860876
 31
0.0
  0
LINE
  5
464
330
1E
100
AcDbEntity
  8
OBJECT
100
AcDbLine
 10
21.86203818746986
 20
9.965914148608774
 30
0.0
 11
21.86203818746986
 21
10.9149783801201
 31
0.0
  0
LINE
  5
465
330
1E
100
AcDbEntity
  8
OBJECT
100
AcDbLine
 10
21.86203818746986
 20
10.07091414860876
 30
0.0
 11
19.20503818746987
 21
10.07091414860876
 31
0.0
  0
LINE
  5
466
330
1E
100
AcDbEntity
  8
OBJECT
100
AcDbLine
 10
18.95503818746987
 20
9.910756673608773
 30
0.0
 11
21.86203818746986
 21
9.965914148608774
 31
0.0
  0
LINE
  5
467
330
1E
100
AcDbEntity
  8
OBJECT
100
AcDbLine
 10
18.9441985201716
 20
10.25847558048781
 30
0.0
 11
18.95503818746987
 21
10.12741414860877
 31
0.0
  0
LINE
  5
468
330
1E
100
AcDbEntity
  8
OBJECT
100
AcDbLine
 10
21.86203818746986
 20
10.75091414860877
 30
0.0
 11
19.20503818746987
 21
10.75091414860877
 31
0.0
  0
LINE
  5
469
330
1E
100
AcDbEntity
  8
OBJECT
100
AcDbLine
 10
18.95503818746987
 20
11.0299783801201
 30
0.0
 11
21.86203818746986
 21
11.0299783801201
 31
0.0
  0
LINE
  5
46A
330
1E
100
AcDbEntity
  8
OBJECT
100
AcDbLine
 10
18.91103818746986
 20
10.65941414860877
 30
0.0
 11
18.92187785476813
 21
10.52835271672975
 31
0.0
  0
LINE
  5
46B
330
1E
100
AcDbEntity
  8
OBJECT
100
AcDbLine
 10
19.07003818746987
 20
10.81899514894607
 30
0.0
 11
18.95503818746987
 21
10.81899514894607
 31
0.0
  0
LINE
  5
46C
330
1E
100
AcDbEntity
  8
OBJECT
100
AcDbLine
 10
19.07003818746987
 20
10.89773530594604
 30
0.0
 11
19.07003818746987
 21
10.81899514894607
 31
0.0
  0
LINE
  5
46D
330
1E
100
AcDbEntity
  8
OBJECT
100
AcDbLine
 10
18.40619852017162
 20
10.25847558048781
 30
0.0
 11
18.41703818746988
 21
10.12741414860877
 31
0.0
  0
LINE
  5
46E
330
1E
100
AcDbEntity
  8
OBJECT
100
AcDbLine
 10
18.31819852017163
 20
10.25847558048781
 30
0.0
 11
18.32903818746988
 21
10.12741414860877
 31
0.0
  0
LINE
  5
46F
330
1E
100
AcDbEntity
  8
OBJECT
100
AcDbLine
 10
18.37303818746988
 20
10.08191414860877
 30
0.0
 11
18.36522755728725
 21
10.19250557142207
 31
0.0
  0
LINE
  5
470
330
1E
100
AcDbEntity
  8
OBJECT
100
AcDbLine
 10
18.28503818746989
 20
10.08191414860877
 30
0.0
 11
18.27722755728725
 21
10.19250557142207
 31
0.0
  0
LINE
  5
471
330
1E
100
AcDbEntity
  8
OBJECT
100
AcDbLine
 10
18.46103818746989
 20
10.08191414860877
 30
0.0
 11
18.45322755728726
 21
10.19250557142207
 31
0.0
  0
LINE
  5
472
330
1E
100
AcDbEntity
  8
OBJECT
100
AcDbLine
 10
18.68019852017161
 20
10.25847558048781
 30
0.0
 11
18.69103818746988
 21
10.12741414860877
 31
0.0
  0
LINE
  5
473
330
1E
100
AcDbEntity
  8
OBJECT
100
AcDbLine
 10
18.59219852017161
 20
10.25847558048781
 30
0.0
 11
18.60303818746987
 21
10.12741414860877
 31
0.0
  0
LINE
  5
474
330
1E
100
AcDbEntity
  8
OBJECT
100
AcDbLine
 10
18.7681985201716
 20
10.25847558048781
 30
0.0
 11
18.77903818746987
 21
10.12741414860877
 31
0.0
  0
LINE
  5
475
330
1E
100
AcDbEntity
  8
OBJECT
100
AcDbLine
 10
18.85619852017161
 20
10.25847558048781
 30
0.0
 11
18.86703818746988
 21
10.12741414860877
 31
0.0
  0
LINE
  5
476
330
1E
100
AcDbEntity
  8
OBJECT
100
AcDbLine
 10
18.55903818746987
 20
10.08191414860877
 30
0.0
 11
18.55122755728724
 21
10.19250557142207
 31
0.0
  0
LINE
  5
477
330
1E
100
AcDbEntity
  8
OBJECT
100
AcDbLine
 10
18.73503818746987
 20
10.08191414860877
 30
0.0
 11
18.72722755728723
 21
10.19250557142207
 31
0.0
  0
LINE
  5
478
330
1E
100
AcDbEntity
  8
OBJECT
100
AcDbLine
 10
18.64703818746988
 20
10.08191414860877
 30
0.0
 11
18.63922755728723
 21
10.19250557142207
 31
0.0
  0
LINE
  5
479
330
1E
100
AcDbEntity
  8
OBJECT
100
AcDbLine
 10
18.82303818746988
 20
10.08191414860877
 30
0.0
 11
18.81522755728725
 21
10.19250557142207
 31
0.0
  0
LINE
  5
47A
330
1E
100
AcDbEntity
  8
OBJECT
100
AcDbLine
 10
18.50419852017162
 20
10.25847558048781
 30
0.0
 11
18.51503818746988
 21
10.12741414860877
 31
0.0
  0
LINE
  5
47B
330
1E
100
AcDbEntity
  8
OBJECT
100
AcDbLine
 10
17.79019852017162
 20
10.25847558048781
 30
0.0
 11
17.80103818746989
 21
10.12741414860877
 31
0.0
  0
LINE
  5
47C
330
1E
100
AcDbEntity
  8
OBJECT
100
AcDbLine
 10
17.87819852017161
 20
10.25847558048781
 30
0.0
 11
17.88903818746988
 21
10.12741414860877
 31
0.0
  0
LINE
  5
47D
330
1E
100
AcDbEntity
  8
OBJECT
100
AcDbLine
 10
17.70219852017161
 20
10.25847558048781
 30
0.0
 11
17.71303818746988
 21
10.12741414860877
 31
0.0
  0
LINE
  5
47E
330
1E
100
AcDbEntity
  8
OBJECT
100
AcDbLine
 10
17.66903818746989
 20
10.08191414860877
 30
0.0
 11
17.66122755728724
 21
10.19250557142207
 31
0.0
  0
LINE
  5
47F
330
1E
100
AcDbEntity
  8
OBJECT
100
AcDbLine
 10
17.84503818746989
 20
10.08191414860877
 30
0.0
 11
17.83722755728726
 21
10.19250557142207
 31
0.0
  0
LINE
  5
480
330
1E
100
AcDbEntity
  8
OBJECT
100
AcDbLine
 10
17.7570381874699
 20
10.08191414860877
 30
0.0
 11
17.74922755728726
 21
10.19250557142207
 31
0.0
  0
LINE
  5
481
330
1E
100
AcDbEntity
  8
OBJECT
100
AcDbLine
 10
17.96619852017162
 20
10.25847558048781
 30
0.0
 11
17.97703818746988
 21
10.12741414860877
 31
0.0
  0
LINE
  5
482
330
1E
100
AcDbEntity
  8
OBJECT
100
AcDbLine
 10
18.0541985201716
 20
10.25847558048781
 30
0.0
 11
18.06503818746987
 21
10.12741414860877
 31
0.0
  0
LINE
  5
483
330
1E
100
AcDbEntity
  8
OBJECT
100
AcDbLine
 10
18.14219852017161
 20
10.25847558048781
 30
0.0
 11
18.15303818746988
 21
10.12741414860877
 31
0.0
  0
LINE
  5
484
330
1E
100
AcDbEntity
  8
OBJECT
100
AcDbLine
 10
18.23019852017161
 20
10.25847558048781
 30
0.0
 11
18.24103818746987
 21
10.12741414860877
 31
0.0
  0
LINE
  5
485
330
1E
100
AcDbEntity
  8
OBJECT
100
AcDbLine
 10
18.02103818746988
 20
10.08191414860877
 30
0.0
 11
18.01322755728724
 21
10.19250557142207
 31
0.0
  0
LINE
  5
486
330
1E
100
AcDbEntity
  8
OBJECT
100
AcDbLine
 10
17.93303818746988
 20
10.08191414860877
 30
0.0
 11
17.92522755728725
 21
10.19250557142207
 31
0.0
  0
LINE
  5
487
330
1E
100
AcDbEntity
  8
OBJECT
100
AcDbLine
 10
18.19703818746988
 20
10.08191414860877
 30
0.0
 11
18.18922755728724
 21
10.19250557142207
 31
0.0
  0
LINE
  5
488
330
1E
100
AcDbEntity
  8
OBJECT
100
AcDbLine
 10
18.10903818746989
 20
10.08191414860877
 30
0.0
 11
18.10122755728725
 21
10.19250557142207
 31
0.0
  0
LINE
  5
489
330
1E
100
AcDbEntity
  8
OBJECT
100
AcDbLine
 10
18.42484881765254
 20
10.59432272579547
 30
0.0
 11
18.41703818746989
 21
10.70491414860877
 31
0.0
  0
LINE
  5
48A
330
1E
100
AcDbEntity
  8
OBJECT
100
AcDbLine
 10
18.33684881765253
 20
10.59432272579547
 30
0.0
 11
18.32903818746988
 21
10.70491414860877
 31
0.0
  0
LINE
  5
48B
330
1E
100
AcDbEntity
  8
OBJECT
100
AcDbLine
 10
18.28503818746989
 20
10.65941414860877
 30
0.0
 11
18.29587785476816
 21
10.52835271672975
 31
0.0
  0
LINE
  5
48C
330
1E
100
AcDbEntity
  8
OBJECT
100
AcDbLine
 10
18.37303818746988
 20
10.65941414860877
 30
0.0
 11
18.38387785476815
 21
10.52835271672975
 31
0.0
  0
LINE
  5
48D
330
1E
100
AcDbEntity
  8
OBJECT
100
AcDbLine
 10
18.46103818746989
 20
10.65941414860877
 30
0.0
 11
18.47187785476816
 21
10.52835271672975
 31
0.0
  0
LINE
  5
48E
330
1E
100
AcDbEntity
  8
OBJECT
100
AcDbLine
 10
18.87484881765251
 20
10.59432272579547
 30
0.0
 11
18.86703818746987
 21
10.70491414860877
 31
0.0
  0
LINE
  5
48F
330
1E
100
AcDbEntity
  8
OBJECT
100
AcDbLine
 10
18.78684881765252
 20
10.59432272579547
 30
0.0
 11
18.77903818746987
 21
10.70491414860877
 31
0.0
  0
LINE
  5
490
330
1E
100
AcDbEntity
  8
OBJECT
100
AcDbLine
 10
18.69884881765251
 20
10.59432272579547
 30
0.0
 11
18.69103818746986
 21
10.70491414860877
 31
0.0
  0
LINE
  5
491
330
1E
100
AcDbEntity
  8
OBJECT
100
AcDbLine
 10
18.61084881765252
 20
10.59432272579547
 30
0.0
 11
18.60303818746987
 21
10.70491414860877
 31
0.0
  0
LINE
  5
492
330
1E
100
AcDbEntity
  8
OBJECT
100
AcDbLine
 10
18.52284881765252
 20
10.59432272579547
 30
0.0
 11
18.51503818746988
 21
10.70491414860877
 31
0.0
  0
LINE
  5
493
330
1E
100
AcDbEntity
  8
OBJECT
100
AcDbLine
 10
18.55903818746987
 20
10.65941414860877
 30
0.0
 11
18.56987785476814
 21
10.52835271672975
 31
0.0
  0
LINE
  5
494
330
1E
100
AcDbEntity
  8
OBJECT
100
AcDbLine
 10
18.64703818746987
 20
10.65941414860877
 30
0.0
 11
18.65787785476814
 21
10.52835271672975
 31
0.0
  0
LINE
  5
495
330
1E
100
AcDbEntity
  8
OBJECT
100
AcDbLine
 10
18.73503818746986
 20
10.65941414860877
 30
0.0
 11
18.74587785476813
 21
10.52835271672975
 31
0.0
  0
LINE
  5
496
330
1E
100
AcDbEntity
  8
OBJECT
100
AcDbLine
 10
18.82303818746987
 20
10.65941414860877
 30
0.0
 11
18.83387785476814
 21
10.52835271672975
 31
0.0
  0
LINE
  5
497
330
1E
100
AcDbEntity
  8
OBJECT
100
AcDbLine
 10
17.89684881765253
 20
10.59432272579547
 30
0.0
 11
17.88903818746988
 21
10.70491414860877
 31
0.0
  0
LINE
  5
498
330
1E
100
AcDbEntity
  8
OBJECT
100
AcDbLine
 10
17.80884881765252
 20
10.59432272579547
 30
0.0
 11
17.80103818746988
 21
10.70491414860877
 31
0.0
  0
LINE
  5
499
330
1E
100
AcDbEntity
  8
OBJECT
100
AcDbLine
 10
17.72084881765253
 20
10.59432272579547
 30
0.0
 11
17.71303818746988
 21
10.70491414860877
 31
0.0
  0
LINE
  5
49A
330
1E
100
AcDbEntity
  8
OBJECT
100
AcDbLine
 10
17.66903818746987
 20
10.65941414860877
 30
0.0
 11
17.67987785476814
 21
10.52835271672975
 31
0.0
  0
LINE
  5
49B
330
1E
100
AcDbEntity
  8
OBJECT
100
AcDbLine
 10
17.75703818746988
 20
10.65941414860877
 30
0.0
 11
17.76787785476815
 21
10.52835271672975
 31
0.0
  0
LINE
  5
49C
330
1E
100
AcDbEntity
  8
OBJECT
100
AcDbLine
 10
17.84503818746987
 20
10.65941414860877
 30
0.0
 11
17.85587785476814
 21
10.52835271672975
 31
0.0
  0
LINE
  5
49D
330
1E
100
AcDbEntity
  8
OBJECT
100
AcDbLine
 10
18.24884881765254
 20
10.59432272579547
 30
0.0
 11
18.24103818746989
 21
10.70491414860877
 31
0.0
  0
LINE
  5
49E
330
1E
100
AcDbEntity
  8
OBJECT
100
AcDbLine
 10
18.16084881765253
 20
10.59432272579547
 30
0.0
 11
18.15303818746988
 21
10.70491414860877
 31
0.0
  0
LINE
  5
49F
330
1E
100
AcDbEntity
  8
OBJECT
100
AcDbLine
 10
18.07284881765253
 20
10.59432272579547
 30
0.0
 11
18.06503818746989
 21
10.70491414860877
 31
0.0
  0
LINE
  5
4A0
330
1E
100
AcDbEntity
  8
OBJECT
100
AcDbLine
 10
17.98484881765253
 20
10.59432272579547
 30
0.0
 11
17.97703818746988
 21
10.70491414860877
 31
0.0
  0
LINE
  5
4A1
330
1E
100
AcDbEntity
  8
OBJECT
100
AcDbLine
 10
17.93303818746988
 20
10.65941414860877
 30
0.0
 11
17.94387785476815
 21
10.52835271672975
 31
0.0
  0
LINE
  5
4A2
330
1E
100
AcDbEntity
  8
OBJECT
100
AcDbLine
 10
18.02103818746988
 20
10.65941414860877
 30
0.0
 11
18.03187785476815
 21
10.52835271672975
 31
0.0
  0
LINE
  5
4A3
330
1E
100
AcDbEntity
  8
OBJECT
100
AcDbLine
 10
18.10903818746989
 20
10.65941414860877
 30
0.0
 11
18.11987785476816
 21
10.52835271672975
 31
0.0
  0
LINE
  5
4A4
330
1E
100
AcDbEntity
  8
OBJECT
100
AcDbLine
 10
18.19703818746988
 20
10.65941414860877
 30
0.0
 11
18.20787785476815
 21
10.52835271672975
 31
0.0
  0
LINE
  5
4A5
330
1E
100
AcDbEntity
  8
OBJECT
100
AcDbLine
 10
17.26219852017162
 20
10.25847558048781
 30
0.0
 11
17.27303818746989
 21
10.12741414860877
 31
0.0
  0
LINE
  5
4A6
330
1E
100
AcDbEntity
  8
OBJECT
100
AcDbLine
 10
17.17419852017162
 20
10.25847558048781
 30
0.0
 11
17.18503818746988
 21
10.12741414860877
 31
0.0
  0
LINE
  5
4A7
330
1E
100
AcDbEntity
  8
OBJECT
100
AcDbLine
 10
17.08619852017163
 20
10.25847558048781
 30
0.0
 11
17.09703818746988
 21
10.12741414860877
 31
0.0
  0
LINE
  5
4A8
330
1E
100
AcDbEntity
  8
OBJECT
100
AcDbLine
 10
17.14103818746988
 20
10.08191414860877
 30
0.0
 11
17.13322755728725
 21
10.19250557142207
 31
0.0
  0
LINE
  5
4A9
330
1E
100
AcDbEntity
  8
OBJECT
100
AcDbLine
 10
17.05303818746989
 20
10.08191414860877
 30
0.0
 11
17.04522755728725
 21
10.19250557142207
 31
0.0
  0
LINE
  5
4AA
330
1E
100
AcDbEntity
  8
OBJECT
100
AcDbLine
 10
17.22903818746989
 20
10.08191414860877
 30
0.0
 11
17.22122755728726
 21
10.19250557142207
 31
0.0
  0
LINE
  5
4AB
330
1E
100
AcDbEntity
  8
OBJECT
100
AcDbLine
 10
17.35019852017161
 20
10.25847558048781
 30
0.0
 11
17.36103818746988
 21
10.12741414860877
 31
0.0
  0
LINE
  5
4AC
330
1E
100
AcDbEntity
  8
OBJECT
100
AcDbLine
 10
17.43819852017162
 20
10.25847558048781
 30
0.0
 11
17.44903818746989
 21
10.12741414860877
 31
0.0
  0
LINE
  5
4AD
330
1E
100
AcDbEntity
  8
OBJECT
100
AcDbLine
 10
17.52619852017162
 20
10.25847558048781
 30
0.0
 11
17.53703818746988
 21
10.12741414860877
 31
0.0
  0
LINE
  5
4AE
330
1E
100
AcDbEntity
  8
OBJECT
100
AcDbLine
 10
17.61419852017162
 20
10.25847558048781
 30
0.0
 11
17.62503818746989
 21
10.12741414860877
 31
0.0
  0
LINE
  5
4AF
330
1E
100
AcDbEntity
  8
OBJECT
100
AcDbLine
 10
17.31703818746988
 20
10.08191414860877
 30
0.0
 11
17.30922755728725
 21
10.19250557142207
 31
0.0
  0
LINE
  5
4B0
330
1E
100
AcDbEntity
  8
OBJECT
100
AcDbLine
 10
17.49303818746988
 20
10.08191414860877
 30
0.0
 11
17.48522755728725
 21
10.19250557142207
 31
0.0
  0
LINE
  5
4B1
330
1E
100
AcDbEntity
  8
OBJECT
100
AcDbLine
 10
17.40503818746989
 20
10.08191414860877
 30
0.0
 11
17.39722755728726
 21
10.19250557142207
 31
0.0
  0
LINE
  5
4B2
330
1E
100
AcDbEntity
  8
OBJECT
100
AcDbLine
 10
17.58103818746989
 20
10.08191414860877
 30
0.0
 11
17.57322755728725
 21
10.19250557142207
 31
0.0
  0
LINE
  5
4B3
330
1E
100
AcDbEntity
  8
OBJECT
100
AcDbLine
 10
16.55819852017162
 20
10.25847558048781
 30
0.0
 11
16.56903818746989
 21
10.12741414860877
 31
0.0
  0
LINE
  5
4B4
330
1E
100
AcDbEntity
  8
OBJECT
100
AcDbLine
 10
16.47019852017161
 20
10.25847558048781
 30
0.0
 11
16.48103818746989
 21
10.12741414860877
 31
0.0
  0
LINE
  5
4B5
330
1E
100
AcDbEntity
  8
OBJECT
100
AcDbLine
 10
16.64619852017161
 20
10.25847558048781
 30
0.0
 11
16.65703818746989
 21
10.12741414860877
 31
0.0
  0
LINE
  5
4B6
330
1E
100
AcDbEntity
  8
OBJECT
100
AcDbLine
 10
16.43703818746989
 20
10.08191414860877
 30
0.0
 11
16.42922755728726
 21
10.19250557142207
 31
0.0
  0
LINE
  5
4B7
330
1E
100
AcDbEntity
  8
OBJECT
100
AcDbLine
 10
16.61303818746989
 20
10.08191414860877
 30
0.0
 11
16.60522755728724
 21
10.19250557142207
 31
0.0
  0
LINE
  5
4B8
330
1E
100
AcDbEntity
  8
OBJECT
100
AcDbLine
 10
16.5250381874699
 20
10.08191414860877
 30
0.0
 11
16.51722755728725
 21
10.19250557142207
 31
0.0
  0
LINE
  5
4B9
330
1E
100
AcDbEntity
  8
OBJECT
100
AcDbLine
 10
16.73419852017161
 20
10.25847558048781
 30
0.0
 11
16.74503818746988
 21
10.12741414860877
 31
0.0
  0
LINE
  5
4BA
330
1E
100
AcDbEntity
  8
OBJECT
100
AcDbLine
 10
16.82219852017162
 20
10.25847558048781
 30
0.0
 11
16.83303818746987
 21
10.12741414860877
 31
0.0
  0
LINE
  5
4BB
330
1E
100
AcDbEntity
  8
OBJECT
100
AcDbLine
 10
16.91019852017163
 20
10.25847558048781
 30
0.0
 11
16.92103818746988
 21
10.12741414860877
 31
0.0
  0
LINE
  5
4BC
330
1E
100
AcDbEntity
  8
OBJECT
100
AcDbLine
 10
16.99819852017162
 20
10.25847558048781
 30
0.0
 11
17.00903818746987
 21
10.12741414860877
 31
0.0
  0
LINE
  5
4BD
330
1E
100
AcDbEntity
  8
OBJECT
100
AcDbLine
 10
16.78903818746988
 20
10.08191414860877
 30
0.0
 11
16.78122755728725
 21
10.19250557142207
 31
0.0
  0
LINE
  5
4BE
330
1E
100
AcDbEntity
  8
OBJECT
100
AcDbLine
 10
16.70103818746988
 20
10.08191414860877
 30
0.0
 11
16.69322755728725
 21
10.19250557142207
 31
0.0
  0
LINE
  5
4BF
330
1E
100
AcDbEntity
  8
OBJECT
100
AcDbLine
 10
16.96503818746988
 20
10.08191414860877
 30
0.0
 11
16.95722755728725
 21
10.19250557142207
 31
0.0
  0
LINE
  5
4C0
330
1E
100
AcDbEntity
  8
OBJECT
100
AcDbLine
 10
16.87703818746989
 20
10.08191414860877
 30
0.0
 11
16.86922755728725
 21
10.19250557142207
 31
0.0
  0
LINE
  5
4C1
330
1E
100
AcDbEntity
  8
OBJECT
100
AcDbLine
 10
17.28084881765252
 20
10.59432272579547
 30
0.0
 11
17.27303818746987
 21
10.70491414860877
 31
0.0
  0
LINE
  5
4C2
330
1E
100
AcDbEntity
  8
OBJECT
100
AcDbLine
 10
17.19284881765252
 20
10.59432272579547
 30
0.0
 11
17.18503818746988
 21
10.70491414860877
 31
0.0
  0
LINE
  5
4C3
330
1E
100
AcDbEntity
  8
OBJECT
100
AcDbLine
 10
17.10484881765253
 20
10.59432272579547
 30
0.0
 11
17.09703818746988
 21
10.70491414860877
 31
0.0
  0
LINE
  5
4C4
330
1E
100
AcDbEntity
  8
OBJECT
100
AcDbLine
 10
17.05303818746989
 20
10.65941414860877
 30
0.0
 11
17.06387785476816
 21
10.52835271672975
 31
0.0
  0
LINE
  5
4C5
330
1E
100
AcDbEntity
  8
OBJECT
100
AcDbLine
 10
17.14103818746988
 20
10.65941414860877
 30
0.0
 11
17.15187785476815
 21
10.52835271672975
 31
0.0
  0
LINE
  5
4C6
330
1E
100
AcDbEntity
  8
OBJECT
100
AcDbLine
 10
17.22903818746988
 20
10.65941414860877
 30
0.0
 11
17.23987785476815
 21
10.52835271672975
 31
0.0
  0
LINE
  5
4C7
330
1E
100
AcDbEntity
  8
OBJECT
100
AcDbLine
 10
17.63284881765252
 20
10.59432272579547
 30
0.0
 11
17.62503818746988
 21
10.70491414860877
 31
0.0
  0
LINE
  5
4C8
330
1E
100
AcDbEntity
  8
OBJECT
100
AcDbLine
 10
17.54484881765253
 20
10.59432272579547
 30
0.0
 11
17.53703818746988
 21
10.70491414860877
 31
0.0
  0
LINE
  5
4C9
330
1E
100
AcDbEntity
  8
OBJECT
100
AcDbLine
 10
17.45684881765252
 20
10.59432272579547
 30
0.0
 11
17.44903818746987
 21
10.70491414860877
 31
0.0
  0
LINE
  5
4CA
330
1E
100
AcDbEntity
  8
OBJECT
100
AcDbLine
 10
17.36884881765253
 20
10.59432272579547
 30
0.0
 11
17.36103818746988
 21
10.70491414860877
 31
0.0
  0
LINE
  5
4CB
330
1E
100
AcDbEntity
  8
OBJECT
100
AcDbLine
 10
17.31703818746987
 20
10.65941414860877
 30
0.0
 11
17.32787785476814
 21
10.52835271672975
 31
0.0
  0
LINE
  5
4CC
330
1E
100
AcDbEntity
  8
OBJECT
100
AcDbLine
 10
17.40503818746988
 20
10.65941414860877
 30
0.0
 11
17.41587785476815
 21
10.52835271672975
 31
0.0
  0
LINE
  5
4CD
330
1E
100
AcDbEntity
  8
OBJECT
100
AcDbLine
 10
17.49303818746987
 20
10.65941414860877
 30
0.0
 11
17.50387785476814
 21
10.52835271672975
 31
0.0
  0
LINE
  5
4CE
330
1E
100
AcDbEntity
  8
OBJECT
100
AcDbLine
 10
17.58103818746988
 20
10.65941414860877
 30
0.0
 11
17.59187785476815
 21
10.52835271672975
 31
0.0
  0
LINE
  5
4CF
330
1E
100
AcDbEntity
  8
OBJECT
100
AcDbLine
 10
16.66484881765253
 20
10.59432272579547
 30
0.0
 11
16.65703818746989
 21
10.70491414860877
 31
0.0
  0
LINE
  5
4D0
330
1E
100
AcDbEntity
  8
OBJECT
100
AcDbLine
 10
16.57684881765252
 20
10.59432272579547
 30
0.0
 11
16.56903818746988
 21
10.70491414860877
 31
0.0
  0
LINE
  5
4D1
330
1E
100
AcDbEntity
  8
OBJECT
100
AcDbLine
 10
16.48884881765253
 20
10.59432272579547
 30
0.0
 11
16.48103818746989
 21
10.70491414860877
 31
0.0
  0
LINE
  5
4D2
330
1E
100
AcDbEntity
  8
OBJECT
100
AcDbLine
 10
16.43703818746987
 20
10.65941414860877
 30
0.0
 11
16.44787785476814
 21
10.52835271672975
 31
0.0
  0
LINE
  5
4D3
330
1E
100
AcDbEntity
  8
OBJECT
100
AcDbLine
 10
16.52503818746988
 20
10.65941414860877
 30
0.0
 11
16.53587785476815
 21
10.52835271672975
 31
0.0
  0
LINE
  5
4D4
330
1E
100
AcDbEntity
  8
OBJECT
100
AcDbLine
 10
16.61303818746987
 20
10.65941414860877
 30
0.0
 11
16.62387785476814
 21
10.52835271672975
 31
0.0
  0
LINE
  5
4D5
330
1E
100
AcDbEntity
  8
OBJECT
100
AcDbLine
 10
17.01684881765254
 20
10.59432272579547
 30
0.0
 11
17.00903818746989
 21
10.70491414860877
 31
0.0
  0
LINE
  5
4D6
330
1E
100
AcDbEntity
  8
OBJECT
100
AcDbLine
 10
16.92884881765253
 20
10.59432272579547
 30
0.0
 11
16.92103818746988
 21
10.70491414860877
 31
0.0
  0
LINE
  5
4D7
330
1E
100
AcDbEntity
  8
OBJECT
100
AcDbLine
 10
16.84084881765254
 20
10.59432272579547
 30
0.0
 11
16.83303818746989
 21
10.70491414860877
 31
0.0
  0
LINE
  5
4D8
330
1E
100
AcDbEntity
  8
OBJECT
100
AcDbLine
 10
16.75284881765253
 20
10.59432272579547
 30
0.0
 11
16.74503818746988
 21
10.70491414860877
 31
0.0
  0
LINE
  5
4D9
330
1E
100
AcDbEntity
  8
OBJECT
100
AcDbLine
 10
16.70103818746988
 20
10.65941414860877
 30
0.0
 11
16.71187785476815
 21
10.52835271672975
 31
0.0
  0
LINE
  5
4DA
330
1E
100
AcDbEntity
  8
OBJECT
100
AcDbLine
 10
16.78903818746988
 20
10.65941414860877
 30
0.0
 11
16.79987785476815
 21
10.52835271672975
 31
0.0
  0
LINE
  5
4DB
330
1E
100
AcDbEntity
  8
OBJECT
100
AcDbLine
 10
16.87703818746989
 20
10.65941414860877
 30
0.0
 11
16.88787785476816
 21
10.52835271672975
 31
0.0
  0
LINE
  5
4DC
330
1E
100
AcDbEntity
  8
OBJECT
100
AcDbLine
 10
16.96503818746988
 20
10.65941414860877
 30
0.0
 11
16.97587785476815
 21
10.52835271672975
 31
0.0
  0
LINE
  5
4DD
330
1E
100
AcDbEntity
  8
OBJECT
100
AcDbLine
 10
15.08040268746986
 20
11.37241414860878
 30
0.0
 11
15.08040268746986
 21
11.20741414860877
 31
0.0
  0
LINE
  5
4DE
330
1E
100
AcDbEntity
  8
OBJECT
100
AcDbLine
 10
15.56540268746986
 20
11.57191414860877
 30
0.0
 11
15.56540268746985
 21
11.00791414860877
 31
0.0
  0
LINE
  5
4DF
330
1E
100
AcDbEntity
  8
OBJECT
100
AcDbLine
 10
15.01503818746989
 20
11.03591414860876
 30
0.0
 11
15.01503818746989
 21
11.54391414860877
 31
0.0
  0
LINE
  5
4E0
330
1E
100
AcDbEntity
  8
OBJECT
100
AcDbLine
 10
15.30603818746987
 20
10.48791414860878
 30
0.0
 11
15.01503818746988
 21
10.48791414860878
 31
0.0
  0
LINE
  5
4E1
330
1E
100
AcDbEntity
  8
HIDDEN
100
AcDbLine
 10
15.08040268746986
 20
11.19491414860877
 30
0.0
 11
15.56540268746985
 21
11.19491414860877
 31
0.0
  0
LINE
  5
4E2
330
1E
100
AcDbEntity
  8
OBJECT
100
AcDbLine
 10
15.08040268746986
 20
11.20741414860877
 30
0.0
 11
15.56540268746985
 21
11.20741414860877
 31
0.0
  0
LINE
  5
4E3
330
1E
100
AcDbEntity
  8
OBJECT
100
AcDbLine
 10
15.30603818746987
 20
10.29891414860878
 30
0.0
 11
15.01503818746988
 21
10.29891414860878
 31
0.0
  0
LINE
  5
4E4
330
1E
100
AcDbEntity
  8
OBJECT
100
AcDbLine
 10
15.94219852017161
 20
10.25847558048781
 30
0.0
 11
15.95303818746988
 21
10.12741414860877
 31
0.0
  0
LINE
  5
4E5
330
1E
100
AcDbEntity
  8
OBJECT
100
AcDbLine
 10
16.03019852017163
 20
10.25847558048781
 30
0.0
 11
16.04103818746989
 21
10.12741414860877
 31
0.0
  0
LINE
  5
4E6
330
1E
100
AcDbEntity
  8
OBJECT
100
AcDbLine
 10
15.85419852017161
 20
10.25847558048781
 30
0.0
 11
15.86503818746988
 21
10.12741414860877
 31
0.0
  0
LINE
  5
4E7
330
1E
100
AcDbEntity
  8
OBJECT
100
AcDbLine
 10
15.90903818746988
 20
10.08191414860877
 30
0.0
 11
15.90122755728725
 21
10.19250557142207
 31
0.0
  0
LINE
  5
4E8
330
1E
100
AcDbEntity
  8
OBJECT
100
AcDbLine
 10
15.82103818746989
 20
10.08191414860877
 30
0.0
 11
15.81322755728725
 21
10.19250557142207
 31
0.0
  0
LINE
  5
4E9
330
1E
100
AcDbEntity
  8
OBJECT
100
AcDbLine
 10
15.99703818746989
 20
10.08191414860877
 30
0.0
 11
15.98922755728726
 21
10.19250557142207
 31
0.0
  0
LINE
  5
4EA
330
1E
100
AcDbEntity
  8
OBJECT
100
AcDbLine
 10
16.29419852017161
 20
10.25847558048781
 30
0.0
 11
16.30503818746988
 21
10.12741414860877
 31
0.0
  0
LINE
  5
4EB
330
1E
100
AcDbEntity
  8
OBJECT
100
AcDbLine
 10
16.38219852017162
 20
10.25847558048781
 30
0.0
 11
16.39303818746989
 21
10.12741414860877
 31
0.0
  0
LINE
  5
4EC
330
1E
100
AcDbEntity
  8
OBJECT
100
AcDbLine
 10
16.20619852017162
 20
10.25847558048781
 30
0.0
 11
16.21703818746989
 21
10.12741414860877
 31
0.0
  0
LINE
  5
4ED
330
1E
100
AcDbEntity
  8
OBJECT
100
AcDbLine
 10
16.11819852017162
 20
10.25847558048781
 30
0.0
 11
16.12903818746988
 21
10.12741414860877
 31
0.0
  0
LINE
  5
4EE
330
1E
100
AcDbEntity
  8
OBJECT
100
AcDbLine
 10
16.26103818746988
 20
10.08191414860877
 30
0.0
 11
16.25322755728725
 21
10.19250557142207
 31
0.0
  0
LINE
  5
4EF
330
1E
100
AcDbEntity
  8
OBJECT
100
AcDbLine
 10
16.17303818746989
 20
10.08191414860877
 30
0.0
 11
16.16522755728726
 21
10.19250557142207
 31
0.0
  0
LINE
  5
4F0
330
1E
100
AcDbEntity
  8
OBJECT
100
AcDbLine
 10
16.34903818746989
 20
10.08191414860877
 30
0.0
 11
16.34122755728726
 21
10.19250557142207
 31
0.0
  0
LINE
  5
4F1
330
1E
100
AcDbEntity
  8
OBJECT
100
AcDbLine
 10
16.08503818746988
 20
10.08191414860877
 30
0.0
 11
16.07722755728725
 21
10.19250557142207
 31
0.0
  0
LINE
  5
4F2
330
1E
100
AcDbEntity
  8
OBJECT
100
AcDbLine
 10
15.41419852017162
 20
10.25847558048781
 30
0.0
 11
15.42503818746987
 21
10.12741414860877
 31
0.0
  0
LINE
  5
4F3
330
1E
100
AcDbEntity
  8
OBJECT
100
AcDbLine
 10
15.38103818746987
 20
10.08191414860877
 30
0.0
 11
15.37322755728724
 21
10.19250557142207
 31
0.0
  0
LINE
  5
4F4
330
1E
100
AcDbEntity
  8
OBJECT
100
AcDbLine
 10
15.32619852017161
 20
10.25847558048781
 30
0.0
 11
15.33703818746988
 21
10.12741414860877
 31
0.0
  0
LINE
  5
4F5
330
1E
100
AcDbEntity
  8
OBJECT
100
AcDbLine
 10
15.46903818746988
 20
10.08191414860877
 30
0.0
 11
15.46122755728725
 21
10.19250557142207
 31
0.0
  0
LINE
  5
4F6
330
1E
100
AcDbEntity
  8
OBJECT
100
AcDbLine
 10
15.50219852017162
 20
10.25847558048781
 30
0.0
 11
15.51303818746988
 21
10.12741414860877
 31
0.0
  0
LINE
  5
4F7
330
1E
100
AcDbEntity
  8
OBJECT
100
AcDbLine
 10
15.59019852017162
 20
10.25847558048781
 30
0.0
 11
15.60103818746988
 21
10.12741414860877
 31
0.0
  0
LINE
  5
4F8
330
1E
100
AcDbEntity
  8
OBJECT
100
AcDbLine
 10
15.76619852017162
 20
10.25847558048781
 30
0.0
 11
15.77703818746988
 21
10.12741414860877
 31
0.0
  0
LINE
  5
4F9
330
1E
100
AcDbEntity
  8
OBJECT
100
AcDbLine
 10
15.67819852017163
 20
10.25847558048781
 30
0.0
 11
15.68903818746988
 21
10.12741414860877
 31
0.0
  0
LINE
  5
4FA
330
1E
100
AcDbEntity
  8
OBJECT
100
AcDbLine
 10
15.55703818746988
 20
10.08191414860877
 30
0.0
 11
15.54922755728725
 21
10.19250557142207
 31
0.0
  0
LINE
  5
4FB
330
1E
100
AcDbEntity
  8
OBJECT
100
AcDbLine
 10
15.73303818746988
 20
10.08191414860877
 30
0.0
 11
15.72522755728725
 21
10.19250557142207
 31
0.0
  0
LINE
  5
4FC
330
1E
100
AcDbEntity
  8
OBJECT
100
AcDbLine
 10
15.64503818746989
 20
10.08191414860877
 30
0.0
 11
15.63722755728725
 21
10.19250557142207
 31
0.0
  0
LINE
  5
4FD
330
1E
100
AcDbEntity
  8
OBJECT
100
AcDbLine
 10
16.04884881765252
 20
10.59432272579547
 30
0.0
 11
16.04103818746987
 21
10.70491414860877
 31
0.0
  0
LINE
  5
4FE
330
1E
100
AcDbEntity
  8
OBJECT
100
AcDbLine
 10
15.96084881765253
 20
10.59432272579547
 30
0.0
 11
15.95303818746988
 21
10.70491414860877
 31
0.0
  0
LINE
  5
4FF
330
1E
100
AcDbEntity
  8
OBJECT
100
AcDbLine
 10
15.87284881765253
 20
10.59432272579547
 30
0.0
 11
15.86503818746988
 21
10.70491414860877
 31
0.0
  0
LINE
  5
500
330
1E
100
AcDbEntity
  8
OBJECT
100
AcDbLine
 10
15.82103818746989
 20
10.65941414860877
 30
0.0
 11
15.83187785476816
 21
10.52835271672975
 31
0.0
  0
LINE
  5
501
330
1E
100
AcDbEntity
  8
OBJECT
100
AcDbLine
 10
15.90903818746988
 20
10.65941414860877
 30
0.0
 11
15.91987785476815
 21
10.52835271672975
 31
0.0
  0
LINE
  5
502
330
1E
100
AcDbEntity
  8
OBJECT
100
AcDbLine
 10
15.99703818746988
 20
10.65941414860877
 30
0.0
 11
16.00787785476815
 21
10.52835271672975
 31
0.0
  0
LINE
  5
503
330
1E
100
AcDbEntity
  8
OBJECT
100
AcDbLine
 10
16.40084881765252
 20
10.59432272579547
 30
0.0
 11
16.39303818746988
 21
10.70491414860877
 31
0.0
  0
LINE
  5
504
330
1E
100
AcDbEntity
  8
OBJECT
100
AcDbLine
 10
16.31284881765253
 20
10.59432272579547
 30
0.0
 11
16.30503818746988
 21
10.70491414860877
 31
0.0
  0
LINE
  5
505
330
1E
100
AcDbEntity
  8
OBJECT
100
AcDbLine
 10
16.22484881765252
 20
10.59432272579547
 30
0.0
 11
16.21703818746987
 21
10.70491414860877
 31
0.0
  0
LINE
  5
506
330
1E
100
AcDbEntity
  8
OBJECT
100
AcDbLine
 10
16.13684881765253
 20
10.59432272579547
 30
0.0
 11
16.12903818746988
 21
10.70491414860877
 31
0.0
  0
LINE
  5
507
330
1E
100
AcDbEntity
  8
OBJECT
100
AcDbLine
 10
16.08503818746987
 20
10.65941414860877
 30
0.0
 11
16.09587785476814
 21
10.52835271672975
 31
0.0
  0
LINE
  5
508
330
1E
100
AcDbEntity
  8
OBJECT
100
AcDbLine
 10
16.17303818746988
 20
10.65941414860877
 30
0.0
 11
16.18387785476815
 21
10.52835271672975
 31
0.0
  0
LINE
  5
509
330
1E
100
AcDbEntity
  8
OBJECT
100
AcDbLine
 10
16.26103818746987
 20
10.65941414860877
 30
0.0
 11
16.27187785476814
 21
10.52835271672975
 31
0.0
  0
LINE
  5
50A
330
1E
100
AcDbEntity
  8
OBJECT
100
AcDbLine
 10
16.34903818746988
 20
10.65941414860877
 30
0.0
 11
16.35987785476815
 21
10.52835271672975
 31
0.0
  0
LINE
  5
50B
330
1E
100
AcDbEntity
  8
OBJECT
100
AcDbLine
 10
15.43284881765253
 20
10.59432272579547
 30
0.0
 11
15.42503818746989
 21
10.70491414860877
 31
0.0
  0
LINE
  5
50C
330
1E
100
AcDbEntity
  8
OBJECT
100
AcDbLine
 10
15.34484881765252
 20
10.59432272579547
 30
0.0
 11
15.33703818746988
 21
10.70491414860877
 31
0.0
  0
LINE
  5
50D
330
1E
100
AcDbEntity
  8
OBJECT
100
AcDbLine
 10
15.38103818746987
 20
10.65941414860877
 30
0.0
 11
15.39187785476815
 21
10.52835271672975
 31
0.0
  0
LINE
  5
50E
330
1E
100
AcDbEntity
  8
OBJECT
100
AcDbLine
 10
15.17940268746988
 20
10.89773530594604
 30
0.0
 11
15.17940268746987
 21
11.00791414860877
 31
0.0
  0
LINE
  5
50F
330
1E
100
AcDbEntity
  8
OBJECT
100
AcDbLine
 10
15.78484881765254
 20
10.59432272579547
 30
0.0
 11
15.77703818746989
 21
10.70491414860877
 31
0.0
  0
LINE
  5
510
330
1E
100
AcDbEntity
  8
OBJECT
100
AcDbLine
 10
15.69684881765253
 20
10.59432272579547
 30
0.0
 11
15.68903818746988
 21
10.70491414860877
 31
0.0
  0
LINE
  5
511
330
1E
100
AcDbEntity
  8
OBJECT
100
AcDbLine
 10
15.60884881765254
 20
10.59432272579547
 30
0.0
 11
15.60103818746989
 21
10.70491414860877
 31
0.0
  0
LINE
  5
512
330
1E
100
AcDbEntity
  8
OBJECT
100
AcDbLine
 10
15.52084881765253
 20
10.59432272579547
 30
0.0
 11
15.51303818746988
 21
10.70491414860877
 31
0.0
  0
LINE
  5
513
330
1E
100
AcDbEntity
  8
OBJECT
100
AcDbLine
 10
15.55703818746988
 20
10.65941414860877
 30
0.0
 11
15.56787785476815
 21
10.52835271672975
 31
0.0
  0
LINE
  5
514
330
1E
100
AcDbEntity
  8
OBJECT
100
AcDbLine
 10
15.64503818746989
 20
10.65941414860877
 30
0.0
 11
15.65587785476816
 21
10.52835271672975
 31
0.0
  0
LINE
  5
515
330
1E
100
AcDbEntity
  8
OBJECT
100
AcDbLine
 10
15.73303818746988
 20
10.65941414860877
 30
0.0
 11
15.74387785476815
 21
10.52835271672975
 31
0.0
  0
LINE
  5
516
330
1E
100
AcDbEntity
  8
OBJECT
100
AcDbLine
 10
15.46903818746988
 20
10.65941414860877
 30
0.0
 11
15.47987785476816
 21
10.52835271672975
 31
0.0
  0
LINE
  5
517
330
1E
100
AcDbEntity
  8
OBJECT
100
AcDbLine
 10
15.56540268746985
 20
11.00791414860877
 30
0.0
 11
15.17940268746987
 21
11.00791414860877
 31
0.0
  0
LINE
  5
518
330
1E
100
AcDbEntity
  8
OBJECT
100
AcDbLine
 10
15.01503818746989
 20
10.10541414860877
 30
0.0
 11
15.01503818746988
 21
10.68141414860879
 31
0.0
  0
LINE
  5
519
330
1E
100
AcDbEntity
  8
OBJECT
100
AcDbLine
 10
15.09503818746988
 20
10.07741414860878
 30
0.0
 11
15.01503818746989
 21
10.10541414860877
 31
0.0
  0
LINE
  5
51A
330
1E
100
AcDbEntity
  8
OBJECT
100
AcDbLine
 10
15.09503818746988
 20
9.968414148608786
 30
0.0
 11
15.09503818746988
 21
10.07741414860878
 31
0.0
  0
LINE
  5
51B
330
1E
100
AcDbEntity
  8
OBJECT
100
AcDbLine
 10
15.09503818746988
 20
10.70941414860878
 30
0.0
 11
15.01503818746988
 21
10.68141414860879
 31
0.0
  0
LINE
  5
51C
330
1E
100
AcDbEntity
  8
OBJECT
100
AcDbLine
 10
15.09503818746988
 20
10.70941414860878
 30
0.0
 11
15.09503818746988
 21
11.00791414860877
 31
0.0
  0
LINE
  5
51D
330
1E
100
AcDbEntity
  8
OBJECT
100
AcDbLine
 10
15.09503818746988
 20
11.00791414860877
 30
0.0
 11
15.01503818746989
 21
11.03591414860876
 31
0.0
  0
LINE
  5
51E
330
1E
100
AcDbEntity
  8
HIDDEN
100
AcDbLine
 10
15.08040268746986
 20
11.38491414860878
 30
0.0
 11
15.56540268746986
 21
11.38491414860878
 31
0.0
  0
LINE
  5
51F
330
1E
100
AcDbEntity
  8
OBJECT
100
AcDbLine
 10
15.08040268746986
 20
11.37241414860878
 30
0.0
 11
15.56540268746986
 21
11.37241414860878
 31
0.0
  0
LINE
  5
520
330
1E
100
AcDbEntity
  8
OBJECT
100
AcDbLine
 10
15.56540268746986
 20
11.57191414860877
 30
0.0
 11
15.21803818746988
 21
11.57191414860877
 31
0.0
  0
LINE
  5
521
330
1E
100
AcDbEntity
  8
OBJECT
100
AcDbLine
 10
15.09503818746988
 20
11.57191414860877
 30
0.0
 11
15.01503818746989
 21
11.54391414860877
 31
0.0
  0
LINE
  5
522
330
1E
100
AcDbEntity
  8
OBJECT
100
AcDbLine
 10
15.09503818746988
 20
11.57191414860877
 30
0.0
 11
15.09503818746988
 21
11.82816414860877
 31
0.0
  0
LWPOLYLINE
  5
523
330
1E
100
AcDbEntity
  8
OBJECT
100
AcDbPolyline
 90
        4
 70
     0
 43
0.0
 10
18.87403818746987
 20
17.40091414860877
 10
18.87403818746986
 20
17.58591414860878
 10
18.74303818746987
 20
17.58591414860878
 10
18.74303818746987
 20
17.40091414860877
  0
LINE
  5
529
330
1E
100
AcDbEntity
  8
OBJECT
100
AcDbLine
 10
15.09503818746988
 20
16.08516414860878
 30
0.0
 11
15.01503818746989
 21
16.05716414860879
 31
0.0
  0
LINE
  5
52A
330
1E
100
AcDbEntity
  8
OBJECT
100
AcDbLine
 10
15.01503818746989
 20
15.79216414860876
 30
0.0
 11
15.01503818746989
 21
16.05716414860879
 31
0.0
  0
LINE
  5
52B
330
1E
100
AcDbEntity
  8
OBJECT
100
AcDbLine
 10
15.09503818746988
 20
15.76416414860877
 30
0.0
 11
15.01503818746989
 21
15.79216414860876
 31
0.0
  0
LINE
  5
52C
330
1E
100
AcDbEntity
  8
OBJECT
100
AcDbLine
 10
15.50003818746987
 20
17.31841414860878
 30
0.0
 11
15.01503818746989
 21
17.31841414860878
 31
0.0
  0
LINE
  5
52D
330
1E
100
AcDbEntity
  8
HIDDEN
100
AcDbLine
 10
15.50003818746987
 20
17.30591414860877
 30
0.0
 11
15.01503818746989
 21
17.30591414860877
 31
0.0
  0
LINE
  5
52E
330
1E
100
AcDbEntity
  8
OBJECT
100
AcDbLine
 10
15.56540268746986
 20
17.11841414860879
 30
0.0
 11
15.56540268746986
 21
17.40091414860877
 31
0.0
  0
LINE
  5
52F
330
1E
100
AcDbEntity
  8
OBJECT
100
AcDbLine
 10
15.50003818746987
 20
17.31841414860878
 30
0.0
 11
15.50003818746989
 21
17.40091414860877
 31
0.0
  0
LINE
  5
530
330
1E
100
AcDbEntity
  8
OBJECT
100
AcDbLine
 10
15.01503818746989
 20
17.59788592363678
 30
0.0
 11
15.01503818746989
 21
17.20394237358076
 31
0.0
  0
LINE
  5
531
330
1E
100
AcDbEntity
  8
OBJECT
100
AcDbLine
 10
15.09503818746988
 20
17.17594237358076
 30
0.0
 11
15.01503818746989
 21
17.20394237358076
 31
0.0
  0
LINE
  5
532
330
1E
100
AcDbEntity
  8
OBJECT
100
AcDbLine
 10
15.09503818746988
 20
17.62588592363675
 30
0.0
 11
15.01503818746989
 21
17.59788592363678
 31
0.0
  0
DIMENSION
  5
533
330
1E
100
AcDbEntity
  8
DIM
100
AcDbDimension
  2
*D19
 10
15.09503818746989
 20
25.81910568949447
 30
0.0
 11
17.02503818746988
 21
25.81910568949447
 31
0.0
  1
S
 71
     5
 42
-1.0
  3
23NSTD
100
AcDbAlignedDimension
 13
18.95503818746987
 23
24.90091414860876
 33
0.0
 14
15.09503818746989
 24
24.83341414860877
 34
0.0
100
AcDbRotatedDimension
  0
DIMENSION
  5
534
330
1E
100
AcDbEntity
  8
DIM
100
AcDbDimension
  2
*D18
 10
15.01503818746989
 20
25.81910568949447
 30
0.0
 11
11.93378818746989
 21
25.81910568949447
 31
0.0
  1
<>
 71
     5
 42
-1.0
  3
23NSTD
100
AcDbAlignedDimension
 13
15.09503818746989
 23
24.83341414860877
 33
0.0
 14
15.01503818746989
 24
24.69641414860879
 34
0.0
100
AcDbRotatedDimension
  0
LINE
  5
535
330
1E
100
AcDbEntity
  8
OBJECT
100
AcDbLine
 10
18.95503818746987
 20
24.90091414860876
 30
0.0
 11
15.09503818746989
 21
24.83341414860877
 31
0.0
  0
LINE
  5
536
330
1E
100
AcDbEntity
  8
OBJECT
100
AcDbLine
 10
21.86203818746986
 20
24.83591414860878
 30
0.0
 11
21.86203818746986
 21
23.73240554961051
 31
0.0
  0
ARC
  5
537
330
1E
100
AcDbEntity
  8
OBJECT
100
AcDbCircle
 10
21.86203818746986
 20
24.37241414860875
 30
0.0
 40
0.2300000000000111
100
AcDbArc
 50
0.0
 51
90.0
  0
ARC
  5
538
330
1E
100
AcDbEntity
  8
OBJECT
100
AcDbCircle
 10
21.86203818746986
 20
23.67832857398356
 30
0.0
 40
0.2300000000000111
100
AcDbArc
 50
0.0
 51
90.0
  0
LINE
  5
539
330
1E
100
AcDbEntity
  8
OBJECT
100
AcDbLine
 10
21.86203818746986
 20
23.97492370156967
 30
0.0
 11
19.24703818746987
 21
23.97492370156967
 31
0.0
  0
LINE
  5
53A
330
1E
100
AcDbEntity
  8
OBJECT
100
AcDbLine
 10
18.95503818746987
 20
24.89107162360878
 30
0.0
 11
21.86203818746986
 21
24.83591414860878
 31
0.0
  0
LINE
  5
53B
330
1E
100
AcDbEntity
  8
OBJECT
100
AcDbLine
 10
18.66203818746987
 20
23.92181504007261
 30
0.0
 11
15.09503818746988
 21
23.99345145965239
 31
0.0
  0
LINE
  5
53C
330
1E
100
AcDbEntity
  8
OBJECT
100
AcDbLine
 10
18.87403818746999
 20
23.91754545307489
 30
0.0
 11
18.74303818746998
 21
23.9201837356065
 31
0.0
  0
DIMENSION
  5
53D
330
1E
100
AcDbEntity
  8
DIM
100
AcDbDimension
  2
*D20
 10
22.09203818746988
 20
25.81910568949447
 30
0.0
 11
20.52353818746988
 21
25.81910568949447
 31
0.0
  1
R
 71
     5
 42
-1.0
  3
23NSTD
100
AcDbAlignedDimension
 13
18.95503818746987
 23
24.89107162360878
 33
0.0
 14
22.09203818746988
 24
24.37241414860875
 34
0.0
100
AcDbRotatedDimension
  0
DIMENSION
  5
53E
330
1E
100
AcDbEntity
  8
DIM
100
AcDbDimension
  2
*D13
 10
23.14534698402213
 20
9.965914148608774
 30
0.0
 11
23.14534698402213
 21
17.40091414860877
 31
0.0
 12
-57.28574315562631
 22
-1.823326316534711
 32
0.0
  1
T
 71
     5
 42
-1.0
  3
23NSTD
100
AcDbAlignedDimension
 13
21.86203818746986
 23
24.83591414860878
 33
0.0
 14
21.86203818746986
 24
9.965914148608774
 34
0.0
 50
270.0
100
AcDbRotatedDimension
  0
LINE
  5
53F
330
1E
100
AcDbEntity
  8
OBJECT
100
AcDbLine
 10
15.47503818746988
 20
17.11841414860879
 30
0.0
 11
15.56540268746986
 21
17.11841414860879
 31
0.0
  0
LINE
  5
540
330
1E
100
AcDbEntity
  8
OBJECT
100
AcDbLine
 10
15.37003818746979
 20
16.69891414860879
 30
0.0
 11
15.47503818746988
 21
16.69891414860877
 31
0.0
  0
LINE
  5
541
330
1E
100
AcDbEntity
  8
OBJECT
100
AcDbLine
 10
15.14366129899947
 20
16.80641414860878
 30
0.0
 11
15.47503818746988
 21
16.80641414860878
 31
0.0
  0
LINE
  5
542
330
1E
100
AcDbEntity
  8
OBJECT
100
AcDbLine
 10
15.14366129899945
 20
17.01141414860876
 30
0.0
 11
15.47503818746988
 21
17.01141414860877
 31
0.0
  0
LINE
  5
543
330
1E
100
AcDbEntity
  8
OBJECT
100
AcDbLine
 10
15.47503818746988
 20
17.11841414860879
 30
0.0
 11
15.47503818746988
 21
16.69891414860877
 31
0.0
  0
LINE
  5
544
330
1E
100
AcDbEntity
  8
OBJECT
100
AcDbLine
 10
15.14366129899945
 20
17.01141414860876
 30
0.0
 11
15.14366129899947
 21
16.80641414860878
 31
0.0
  0
LINE
  5
545
330
1E
100
AcDbEntity
  8
OBJECT
100
AcDbLine
 10
15.47503818746988
 20
16.13441414860879
 30
0.0
 11
15.47503818746988
 21
15.71491414860878
 31
0.0
  0
LINE
  5
546
330
1E
100
AcDbEntity
  8
OBJECT
100
AcDbLine
 10
15.10003818746988
 20
15.82241414860877
 30
0.0
 11
15.47503818746988
 21
15.82241414860877
 31
0.0
  0
LINE
  5
547
330
1E
100
AcDbEntity
  8
OBJECT
100
AcDbLine
 10
15.37003818746979
 20
15.71491414860878
 30
0.0
 11
15.47503818746988
 21
15.71491414860878
 31
0.0
  0
LINE
  5
548
330
1E
100
AcDbEntity
  8
OBJECT
100
AcDbLine
 10
15.37003818746979
 20
16.13491414860877
 30
0.0
 11
15.47503818746988
 21
16.13491414860877
 31
0.0
  0
LINE
  5
549
330
1E
100
AcDbEntity
  8
OBJECT
100
AcDbLine
 10
15.10003818746988
 20
16.02741414860877
 30
0.0
 11
15.47503818746988
 21
16.02741414860877
 31
0.0
  0
LINE
  5
54A
330
1E
100
AcDbEntity
  8
OBJECT
100
AcDbLine
 10
15.37003818746979
 20
16.69891414860879
 30
0.0
 11
15.37003818746979
 21
16.13491414860877
 31
0.0
  0
LINE
  5
54B
330
1E
100
AcDbEntity
  8
OBJECT
100
AcDbLine
 10
15.37003818746979
 20
15.71491414860878
 30
0.0
 11
15.37003818746979
 21
15.15091414860876
 31
0.0
  0
LINE
  5
54C
330
1E
100
AcDbEntity
  8
OBJECT
100
AcDbLine
 10
15.10003818746988
 20
16.02741414860877
 30
0.0
 11
15.1000381874699
 21
15.82241414860878
 31
0.0
  0
LINE
  5
54D
330
1E
100
AcDbEntity
  8
OBJECT
100
AcDbLine
 10
15.09503818746989
 20
17.17594237358076
 30
0.0
 11
15.09503818746988
 21
16.08516414860878
 31
0.0
  0
LINE
  5
54E
330
1E
100
AcDbEntity
  8
OBJECT
100
AcDbLine
 10
15.09503818746988
 20
15.76416414860877
 30
0.0
 11
15.09503818746988
 21
15.10116414860877
 31
0.0
  0
LINE
  5
54F
330
1E
100
AcDbEntity
  8
OBJECT
100
AcDbLine
 10
15.10003818746988
 20
15.04341414860877
 30
0.0
 11
15.1000381874699
 21
14.83841414860877
 31
0.0
  0
LINE
  5
550
330
1E
100
AcDbEntity
  8
OBJECT
100
AcDbLine
 10
15.01503818746989
 20
14.80816414860876
 30
0.0
 11
15.01503818746989
 21
15.07316414860878
 31
0.0
  0
LINE
  5
551
330
1E
100
AcDbEntity
  8
OBJECT
100
AcDbLine
 10
15.09503818746988
 20
14.78016414860877
 30
0.0
 11
15.01503818746989
 21
14.80816414860876
 31
0.0
  0
LINE
  5
552
330
1E
100
AcDbEntity
  8
OBJECT
100
AcDbLine
 10
15.09503818746988
 20
15.10116414860877
 30
0.0
 11
15.01503818746989
 21
15.07316414860878
 31
0.0
  0
LINE
  5
553
330
1E
100
AcDbEntity
  8
OBJECT
100
AcDbLine
 10
15.10003818746988
 20
15.04341414860877
 30
0.0
 11
15.47503818746988
 21
15.04341414860877
 31
0.0
  0
LINE
  5
554
330
1E
100
AcDbEntity
  8
OBJECT
100
AcDbLine
 10
15.37003818746979
 20
15.15091414860876
 30
0.0
 11
15.47503818746988
 21
15.15091414860876
 31
0.0
  0
LINE
  5
555
330
1E
100
AcDbEntity
  8
OBJECT
100
AcDbLine
 10
15.37003818746979
 20
14.73091414860877
 30
0.0
 11
15.47503818746988
 21
14.73091414860877
 31
0.0
  0
LINE
  5
556
330
1E
100
AcDbEntity
  8
OBJECT
100
AcDbLine
 10
15.10003818746988
 20
14.83841414860877
 30
0.0
 11
15.47503818746988
 21
14.83841414860877
 31
0.0
  0
LINE
  5
557
330
1E
100
AcDbEntity
  8
OBJECT
100
AcDbLine
 10
15.47503818746988
 20
15.15041414860879
 30
0.0
 11
15.47503818746988
 21
14.73091414860877
 31
0.0
  0
LINE
  5
558
330
1E
100
AcDbEntity
  8
OBJECT
100
AcDbLine
 10
15.10003818746988
 20
14.05941414860878
 30
0.0
 11
15.1000381874699
 21
13.85441414860878
 31
0.0
  0
LINE
  5
559
330
1E
100
AcDbEntity
  8
OBJECT
100
AcDbLine
 10
15.01503818746989
 20
13.82416414860877
 30
0.0
 11
15.01503818746989
 21
14.08916414860878
 31
0.0
  0
LINE
  5
55A
330
1E
100
AcDbEntity
  8
OBJECT
100
AcDbLine
 10
15.09503818746988
 20
13.79616414860878
 30
0.0
 11
15.01503818746989
 21
13.82416414860877
 31
0.0
  0
LINE
  5
55B
330
1E
100
AcDbEntity
  8
OBJECT
100
AcDbLine
 10
15.09503818746989
 20
14.11716414860878
 30
0.0
 11
15.01503818746989
 21
14.08916414860878
 31
0.0
  0
LINE
  5
55C
330
1E
100
AcDbEntity
  8
OBJECT
100
AcDbLine
 10
15.10003818746988
 20
14.05941414860878
 30
0.0
 11
15.47503818746988
 21
14.05941414860878
 31
0.0
  0
LINE
  5
55D
330
1E
100
AcDbEntity
  8
OBJECT
100
AcDbLine
 10
15.37003818746979
 20
14.16691414860876
 30
0.0
 11
15.47503818746988
 21
14.16691414860876
 31
0.0
  0
LINE
  5
55E
330
1E
100
AcDbEntity
  8
OBJECT
100
AcDbLine
 10
15.37003818746979
 20
13.74691414860878
 30
0.0
 11
15.47503818746988
 21
13.74691414860878
 31
0.0
  0
LINE
  5
55F
330
1E
100
AcDbEntity
  8
OBJECT
100
AcDbLine
 10
15.10003818746988
 20
13.85441414860878
 30
0.0
 11
15.47503818746988
 21
13.85441414860878
 31
0.0
  0
LINE
  5
560
330
1E
100
AcDbEntity
  8
OBJECT
100
AcDbLine
 10
15.47503818746988
 20
14.16641414860879
 30
0.0
 11
15.47503818746988
 21
13.74691414860878
 31
0.0
  0
LINE
  5
561
330
1E
100
AcDbEntity
  8
OBJECT
100
AcDbLine
 10
15.10003818746988
 20
13.07541414860877
 30
0.0
 11
15.1000381874699
 21
12.87041414860878
 31
0.0
  0
LINE
  5
562
330
1E
100
AcDbEntity
  8
OBJECT
100
AcDbLine
 10
15.01503818746989
 20
12.84016414860876
 30
0.0
 11
15.01503818746989
 21
13.10516414860879
 31
0.0
  0
LINE
  5
563
330
1E
100
AcDbEntity
  8
OBJECT
100
AcDbLine
 10
15.09503818746988
 20
12.81216414860877
 30
0.0
 11
15.01503818746989
 21
12.84016414860876
 31
0.0
  0
LINE
  5
564
330
1E
100
AcDbEntity
  8
OBJECT
100
AcDbLine
 10
15.09503818746988
 20
13.13316414860878
 30
0.0
 11
15.01503818746989
 21
13.10516414860879
 31
0.0
  0
LINE
  5
565
330
1E
100
AcDbEntity
  8
OBJECT
100
AcDbLine
 10
15.10003818746988
 20
13.07541414860877
 30
0.0
 11
15.47503818746988
 21
13.07541414860877
 31
0.0
  0
LINE
  5
566
330
1E
100
AcDbEntity
  8
OBJECT
100
AcDbLine
 10
15.37003818746979
 20
13.18291414860875
 30
0.0
 11
15.47503818746988
 21
13.18291414860877
 31
0.0
  0
LINE
  5
567
330
1E
100
AcDbEntity
  8
OBJECT
100
AcDbLine
 10
15.21803818746988
 20
12.76291414860878
 30
0.0
 11
15.47503818746988
 21
12.76291414860878
 31
0.0
  0
LINE
  5
568
330
1E
100
AcDbEntity
  8
OBJECT
100
AcDbLine
 10
15.10003818746988
 20
12.87041414860877
 30
0.0
 11
15.47503818746988
 21
12.87041414860877
 31
0.0
  0
LINE
  5
569
330
1E
100
AcDbEntity
  8
OBJECT
100
AcDbLine
 10
15.47503818746988
 20
13.1824141486088
 30
0.0
 11
15.47503818746988
 21
12.76291414860878
 31
0.0
  0
LINE
  5
56A
330
1E
100
AcDbEntity
  8
OBJECT
100
AcDbLine
 10
15.10003818746988
 20
12.09141414860877
 30
0.0
 11
15.1000381874699
 21
11.88641414860877
 31
0.0
  0
LINE
  5
56B
330
1E
100
AcDbEntity
  8
OBJECT
100
AcDbLine
 10
15.01503818746989
 20
11.85616414860876
 30
0.0
 11
15.01503818746989
 21
12.12116414860878
 31
0.0
  0
LINE
  5
56C
330
1E
100
AcDbEntity
  8
OBJECT
100
AcDbLine
 10
15.09503818746988
 20
11.82816414860877
 30
0.0
 11
15.01503818746989
 21
11.85616414860876
 31
0.0
  0
LINE
  5
56D
330
1E
100
AcDbEntity
  8
OBJECT
100
AcDbLine
 10
15.09503818746988
 20
12.14916414860877
 30
0.0
 11
15.01503818746989
 21
12.12116414860878
 31
0.0
  0
LINE
  5
56E
330
1E
100
AcDbEntity
  8
OBJECT
100
AcDbLine
 10
15.10003818746988
 20
12.09141414860877
 30
0.0
 11
15.47503818746988
 21
12.09141414860877
 31
0.0
  0
LINE
  5
56F
330
1E
100
AcDbEntity
  8
OBJECT
100
AcDbLine
 10
15.21803818746988
 20
12.19891414860876
 30
0.0
 11
15.47503818746988
 21
12.19891414860876
 31
0.0
  0
LINE
  5
570
330
1E
100
AcDbEntity
  8
OBJECT
100
AcDbLine
 10
15.21803818746988
 20
11.77891414860877
 30
0.0
 11
15.47503818746988
 21
11.77891414860877
 31
0.0
  0
LINE
  5
571
330
1E
100
AcDbEntity
  8
OBJECT
100
AcDbLine
 10
15.10003818746988
 20
11.88641414860877
 30
0.0
 11
15.47503818746988
 21
11.88641414860877
 31
0.0
  0
LINE
  5
572
330
1E
100
AcDbEntity
  8
OBJECT
100
AcDbLine
 10
15.47503818746988
 20
12.19841414860879
 30
0.0
 11
15.47503818746988
 21
11.77891414860877
 31
0.0
  0
LINE
  5
573
330
1E
100
AcDbEntity
  8
OBJECT
100
AcDbLine
 10
15.37003818746979
 20
14.73091414860877
 30
0.0
 11
15.37003818746979
 21
14.16691414860876
 31
0.0
  0
LINE
  5
574
330
1E
100
AcDbEntity
  8
OBJECT
100
AcDbLine
 10
15.37003818746979
 20
13.74691414860878
 30
0.0
 11
15.37003818746979
 21
13.18291414860875
 31
0.0
  0
LINE
  5
575
330
1E
100
AcDbEntity
  8
OBJECT
100
AcDbLine
 10
15.09503818746989
 20
14.78016414860877
 30
0.0
 11
15.09503818746989
 21
14.11716414860878
 31
0.0
  0
LINE
  5
576
330
1E
100
AcDbEntity
  8
OBJECT
100
AcDbLine
 10
15.21803818746988
 20
11.57191414860877
 30
0.0
 11
15.21803818746988
 21
11.77891414860877
 31
0.0
  0
LINE
  5
577
330
1E
100
AcDbEntity
  8
OBJECT
100
AcDbLine
 10
15.09503818746988
 20
12.14916414860877
 30
0.0
 11
15.09503818746988
 21
12.81216414860877
 31
0.0
  0
LINE
  5
578
330
1E
100
AcDbEntity
  8
OBJECT
100
AcDbLine
 10
15.21803818746988
 20
12.19891414860876
 30
0.0
 11
15.21803818746988
 21
12.76291414860878
 31
0.0
  0
LINE
  5
579
330
1E
100
AcDbEntity
  8
OBJECT
100
AcDbLine
 10
15.09503818746988
 20
13.79616414860878
 30
0.0
 11
15.09503818746988
 21
13.13316414860878
 31
0.0
  0
LINE
  5
57A
330
1E
100
AcDbEntity
  8
OBJECT
100
AcDbLine
 10
15.09503818746988
 20
19.70066414860878
 30
0.0
 11
15.01503818746989
 21
19.72866414860877
 31
0.0
  0
LINE
  5
57B
330
1E
100
AcDbEntity
  8
OBJECT
100
AcDbLine
 10
15.09503818746988
 20
20.02166414860879
 30
0.0
 11
15.01503818746989
 21
19.9936641486088
 31
0.0
  0
LINE
  5
57C
330
1E
100
AcDbEntity
  8
OBJECT
100
AcDbLine
 10
15.01503818746989
 20
19.9936641486088
 30
0.0
 11
15.01503818746989
 21
19.72866414860877
 31
0.0
  0
LINE
  5
57D
330
1E
100
AcDbEntity
  8
OBJECT
100
AcDbLine
 10
15.01503818746989
 20
19.00966414860879
 30
0.0
 11
15.01503818746989
 21
18.74466414860877
 31
0.0
  0
LINE
  5
57E
330
1E
100
AcDbEntity
  8
OBJECT
100
AcDbLine
 10
15.09503818746988
 20
19.03766414860878
 30
0.0
 11
15.01503818746989
 21
19.00966414860879
 31
0.0
  0
LINE
  5
57F
330
1E
100
AcDbEntity
  8
OBJECT
100
AcDbLine
 10
15.09503818746988
 20
18.71666414860878
 30
0.0
 11
15.01503818746989
 21
18.74466414860877
 31
0.0
  0
LINE
  5
580
330
1E
100
AcDbEntity
  8
OBJECT
100
AcDbLine
 10
15.09503818746988
 20
24.09241414860878
 30
0.0
 11
15.01503818746988
 21
24.12041414860877
 31
0.0
  0
LINE
  5
581
330
1E
100
AcDbEntity
  8
OBJECT
100
AcDbLine
 10
15.09503818746988
 20
24.72441414860877
 30
0.0
 11
15.01503818746989
 21
24.69641414860879
 31
0.0
  0
LINE
  5
582
330
1E
100
AcDbEntity
  8
OBJECT
100
AcDbLine
 10
15.01503818746989
 20
24.69641414860879
 30
0.0
 11
15.01503818746988
 21
24.12041414860877
 31
0.0
  0
LINE
  5
583
330
1E
100
AcDbEntity
  8
OBJECT
100
AcDbLine
 10
15.09503818746988
 20
23.79391414860877
 30
0.0
 11
15.01503818746989
 21
23.7659141486088
 31
0.0
  0
LINE
  5
584
330
1E
100
AcDbEntity
  8
OBJECT
100
AcDbLine
 10
15.01503818746989
 20
23.7659141486088
 30
0.0
 11
15.01503818746989
 21
23.25791414860877
 31
0.0
  0
LINE
  5
585
330
1E
100
AcDbEntity
  8
OBJECT
100
AcDbLine
 10
15.09503818746988
 20
23.22991414860878
 30
0.0
 11
15.01503818746989
 21
23.25791414860877
 31
0.0
  0
LINE
  5
586
330
1E
100
AcDbEntity
  8
OBJECT
100
AcDbLine
 10
15.09503818746988
 20
22.97366414860877
 30
0.0
 11
15.01503818746989
 21
22.94566414860879
 31
0.0
  0
LINE
  5
587
330
1E
100
AcDbEntity
  8
OBJECT
100
AcDbLine
 10
15.09503818746988
 20
22.65266414860878
 30
0.0
 11
15.01503818746989
 21
22.68066414860876
 31
0.0
  0
LINE
  5
588
330
1E
100
AcDbEntity
  8
OBJECT
100
AcDbLine
 10
15.01503818746989
 20
22.94566414860879
 30
0.0
 11
15.01503818746989
 21
22.68066414860876
 31
0.0
  0
LINE
  5
589
330
1E
100
AcDbEntity
  8
OBJECT
100
AcDbLine
 10
15.09503818746988
 20
21.66866414860878
 30
0.0
 11
15.01503818746989
 21
21.69666414860877
 31
0.0
  0
LINE
  5
58A
330
1E
100
AcDbEntity
  8
OBJECT
100
AcDbLine
 10
15.09503818746988
 20
21.98966414860878
 30
0.0
 11
15.01503818746989
 21
21.96166414860879
 31
0.0
  0
LINE
  5
58B
330
1E
100
AcDbEntity
  8
OBJECT
100
AcDbLine
 10
15.01503818746989
 20
21.96166414860879
 30
0.0
 11
15.01503818746989
 21
21.69666414860877
 31
0.0
  0
LINE
  5
58C
330
1E
100
AcDbEntity
  8
OBJECT
100
AcDbLine
 10
15.01503818746989
 20
20.97766414860879
 30
0.0
 11
15.01503818746989
 21
20.71266414860876
 31
0.0
  0
LINE
  5
58D
330
1E
100
AcDbEntity
  8
OBJECT
100
AcDbLine
 10
15.09503818746988
 20
21.00566414860878
 30
0.0
 11
15.01503818746989
 21
20.97766414860879
 31
0.0
  0
LINE
  5
58E
330
1E
100
AcDbEntity
  8
OBJECT
100
AcDbLine
 10
15.09503818746989
 20
20.68466414860877
 30
0.0
 11
15.01503818746989
 21
20.71266414860876
 31
0.0
  0
LWPOLYLINE
  5
58F
330
1E
100
AcDbEntity
  8
OBJECT
100
AcDbPolyline
 90
        4
 70
     1
 43
0.0
 10
18.87403818746981
 20
18.11591414860878
 10
18.8740381874698
 20
17.74591414860877
 10
18.74303818746981
 20
17.74591414860877
 10
18.74303818746981
 20
18.11591414860878
  0
TEXT
  5
595
330
1E
100
AcDbEntity
  8
DIM
100
AcDbText
 10
10.86541039942999
 20
6.451591081740158
 30
0.0
 40
0.499585203956422
  1
(4) PLACES
 41
0.75
 11
10.86541039942999
 21
6.701383683718368
 31
0.0
100
AcDbText
 73
     2
  0
DIMENSION
  5
596
330
1E
100
AcDbEntity
  8
DIM
100
AcDbDimension
  2
*D25
 10
1.216606766830767
 20
24.25091414860878
 30
0.0
 11
1.216606766830763
 21
17.40091414860878
 31
0.0
 70
    32
  1
V
 71
     5
 42
13.7
  3
23NSTD
100
AcDbAlignedDimension
 13
6.070984779136355
 23
10.55091414860878
 33
0.0
 14
6.070984779136355
 24
24.25091414860878
 34
0.0
 50
90.0
100
AcDbRotatedDimension
  0
LINE
  5
597
330
1E
100
AcDbEntity
  8
CENTER
100
AcDbLine
 10
6.070984779136327
 20
9.525914148608777
 30
0.0
 11
6.070984779136327
 21
25.27591414860877
 31
0.0
  0
DIMENSION
  5
598
330
1E
100
AcDbEntity
  8
DIM
100
AcDbDimension
  2
*D14
 10
9.090484779136335
 20
8.900914148608777
 30
0.0
 11
6.070984779136327
 21
8.900914148608777
 31
0.0
 12
-1.140329765177566
 22
-1.823326316534711
 32
0.0
  1
W
 71
     5
 42
-1.0
  3
23NSTD
100
AcDbAlignedDimension
 13
3.051484779136333
 23
17.40091414860877
 33
0.0
 14
9.090484779136335
 24
17.40091414860877
 34
0.0
100
AcDbRotatedDimension
  0
LINE
  5
599
330
1E
100
AcDbEntity
  8
CENTER
100
AcDbLine
 10
1.93098477913634
 20
17.40091414860877
 30
0.0
 11
10.21098477913632
 21
17.40091414860877
 31
0.0
  0
CIRCLE
  5
59A
330
1E
100
AcDbEntity
  8
HIDDEN
100
AcDbCircle
 10
6.070984779136355
 20
24.25091414860878
 30
0.0
 40
0.095
  0
CIRCLE
  5
59B
330
1E
100
AcDbEntity
  8
OBJECT
100
AcDbCircle
 10
6.070984779136355
 20
24.25091414860878
 30
0.0
 40
0.0825
  0
CIRCLE
  5
59C
330
1E
100
AcDbEntity
  8
OBJECT
100
AcDbCircle
 10
6.070984779136355
 20
24.25091414860878
 30
0.0
 40
0.3145
  0
CIRCLE
  5
59D
330
1E
100
AcDbEntity
  8
HIDDEN
100
AcDbCircle
 10
6.070984779136355
 20
10.55091414860878
 30
0.0
 40
0.095
  0
CIRCLE
  5
59E
330
1E
100
AcDbEntity
  8
OBJECT
100
AcDbCircle
 10
6.070984779136355
 20
10.55091414860878
 30
0.0
 40
0.0825
  0
CIRCLE
  5
59F
330
1E
100
AcDbEntity
  8
OBJECT
100
AcDbCircle
 10
6.070984779136355
 20
10.55091414860878
 30
0.0
 40
0.3145
  0
CIRCLE
  5
5A0
330
1E
100
AcDbEntity
  8
HIDDEN
100
AcDbCircle
 10
3.051484779136333
 20
17.40091414860877
 30
0.0
 40
0.095
  0
CIRCLE
  5
5A1
330
1E
100
AcDbEntity
  8
OBJECT
100
AcDbCircle
 10
3.051484779136333
 20
17.40091414860877
 30
0.0
 40
0.0825
  0
CIRCLE
  5
5A2
330
1E
100
AcDbEntity
  8
OBJECT
100
AcDbCircle
 10
3.051484779136333
 20
17.40091414860877
 30
0.0
 40
0.3145
  0
CIRCLE
  5
5A3
330
1E
100
AcDbEntity
  8
OBJECT
100
AcDbCircle
 10
3.702984779136332
 20
11.28991414860877
 30
0.0
 40
0.25
  0
CIRCLE
  5
5A4
330
1E
100
AcDbEntity
  8
OBJECT
100
AcDbCircle
 10
3.125984779136348
 20
11.98891414860877
 30
0.0
 40
0.1635
  0
CIRCLE
  5
5A5
330
1E
100
AcDbEntity
  8
OBJECT
100
AcDbCircle
 10
4.591984779136342
 20
11.03091414860877
 30
0.0
 40
0.1635
  0
CIRCLE
  5
5A6
330
1E
100
AcDbEntity
  8
OBJECT
100
AcDbCircle
 10
5.577984779136346
 20
11.03091414860877
 30
0.0
 40
0.1635
  0
CIRCLE
  5
5A7
330
1E
100
AcDbEntity
  8
OBJECT
100
AcDbCircle
 10
2.820984779136327
 20
24.39091414860877
 30
0.0
 40
0.315
  0
CIRCLE
  5
5A8
330
1E
100
AcDbEntity
  8
OBJECT
100
AcDbCircle
 10
2.820984779136327
 20
24.39091414860877
 30
0.0
 40
0.0945
  0
CIRCLE
  5
5A9
330
1E
100
AcDbEntity
  8
OBJECT
100
AcDbCircle
 10
9.090484779136335
 20
17.40091414860877
 30
0.0
 40
0.0825
  0
CIRCLE
  5
5AA
330
1E
100
AcDbEntity
  8
HIDDEN
100
AcDbCircle
 10
9.090484779136335
 20
17.40091414860877
 30
0.0
 40
0.095
  0
CIRCLE
  5
5AB
330
1E
100
AcDbEntity
  8
OBJECT
100
AcDbCircle
 10
9.090484779136335
 20
17.40091414860877
 30
0.0
 40
0.3145
  0
CIRCLE
  5
5AC
330
1E
100
AcDbEntity
  8
OBJECT
100
AcDbCircle
 10
8.438984779136337
 20
11.28991414860877
 30
0.0
 40
0.25
  0
CIRCLE
  5
5AD
330
1E
100
AcDbEntity
  8
OBJECT
100
AcDbCircle
 10
6.56398477913635
 20
11.03091414860877
 30
0.0
 40
0.1635
  0
CIRCLE
  5
5AE
330
1E
100
AcDbEntity
  8
OBJECT
100
AcDbCircle
 10
7.54998477913634
 20
11.03091414860877
 30
0.0
 40
0.1635
  0
CIRCLE
  5
5AF
330
1E
100
AcDbEntity
  8
OBJECT
100
AcDbCircle
 10
9.015984779136335
 20
11.98891414860877
 30
0.0
 40
0.1635
  0
CIRCLE
  5
5B0
330
1E
100
AcDbEntity
  8
OBJECT
100
AcDbCircle
 10
9.320984779136328
 20
24.39091414860877
 30
0.0
 40
0.315
  0
CIRCLE
  5
5B1
330
1E
100
AcDbEntity
  8
OBJECT
100
AcDbCircle
 10
9.320984779136328
 20
24.39091414860877
 30
0.0
 40
0.0945
  0
TEXT
  5
5B2
330
1E
100
AcDbEntity
  8
DIM
100
AcDbText
 10
10.86541039942999
 20
8.069247972151043
 30
0.0
 40
0.499585203956422
  1
WITH M5 x 0.8mm
 41
0.75
 11
10.86541039942999
 21
8.319040574129253
 31
0.0
100
AcDbText
 73
     2
  0
TEXT
  5
5B3
330
1E
100
AcDbEntity
  8
DIM
100
AcDbText
 10
10.86541039942999
 20
8.901889978745085
 30
0.0
 40
0.499585203956422
  1
0.630 [16] DIA. BOSS
 41
0.75
 11
10.86541039942999
 21
9.151682580723296
 31
0.0
100
AcDbText
 73
     2
  0
TEXT
  5
5B4
330
1E
100
AcDbEntity
  8
DIM
100
AcDbText
 10
10.86541039942999
 20
7.260419526945607
 30
0.0
 40
0.499585203956422
  1
THREADED BRASS INSERT
 41
0.75
 11
10.86541039942999
 21
7.510212128923818
 31
0.0
100
AcDbText
 73
     2
  0
CIRCLE
  5
5B5
330
1E
100
AcDbEntity
  8
OBJECT
100
AcDbCircle
 10
3.125984779136348
 20
12.97291414860878
 30
0.0
 40
0.1635
  0
CIRCLE
  5
5B6
330
1E
100
AcDbEntity
  8
OBJECT
100
AcDbCircle
 10
9.015984779136335
 20
12.97291414860878
 30
0.0
 40
0.1635
  0
CIRCLE
  5
5B7
330
1E
100
AcDbEntity
  8
OBJECT
100
AcDbCircle
 10
3.125984779136348
 20
13.95691414860877
 30
0.0
 40
0.1635
  0
CIRCLE
  5
5B8
330
1E
100
AcDbEntity
  8
OBJECT
100
AcDbCircle
 10
9.015984779136335
 20
13.95691414860877
 30
0.0
 40
0.1635
  0
CIRCLE
  5
5B9
330
1E
100
AcDbEntity
  8
OBJECT
100
AcDbCircle
 10
3.125984779136348
 20
14.94091414860877
 30
0.0
 40
0.1635
  0
CIRCLE
  5
5BA
330
1E
100
AcDbEntity
  8
OBJECT
100
AcDbCircle
 10
9.015984779136335
 20
14.94091414860877
 30
0.0
 40
0.1635
  0
CIRCLE
  5
5BB
330
1E
100
AcDbEntity
  8
OBJECT
100
AcDbCircle
 10
3.125984779136348
 20
15.92491414860877
 30
0.0
 40
0.1635
  0
CIRCLE
  5
5BC
330
1E
100
AcDbEntity
  8
OBJECT
100
AcDbCircle
 10
9.015984779136335
 20
15.92491414860877
 30
0.0
 40
0.1635
  0
CIRCLE
  5
5BD
330
1E
100
AcDbEntity
  8
OBJECT
100
AcDbCircle
 10
4.591984779136342
 20
23.77091414860878
 30
0.0
 40
0.1635
  0
CIRCLE
  5
5BE
330
1E
100
AcDbEntity
  8
OBJECT
100
AcDbCircle
 10
5.577984779136346
 20
23.77091414860878
 30
0.0
 40
0.1635
  0
CIRCLE
  5
5BF
330
1E
100
AcDbEntity
  8
OBJECT
100
AcDbCircle
 10
6.56398477913635
 20
23.77091414860878
 30
0.0
 40
0.1635
  0
CIRCLE
  5
5C0
330
1E
100
AcDbEntity
  8
OBJECT
100
AcDbCircle
 10
7.54998477913634
 20
23.77091414860878
 30
0.0
 40
0.1635
  0
CIRCLE
  5
5C1
330
1E
100
AcDbEntity
  8
OBJECT
100
AcDbCircle
 10
3.702984779136332
 20
23.51191414860878
 30
0.0
 40
0.25
  0
CIRCLE
  5
5C2
330
1E
100
AcDbEntity
  8
OBJECT
100
AcDbCircle
 10
3.125984779136348
 20
20.84491414860877
 30
0.0
 40
0.1635
  0
CIRCLE
  5
5C3
330
1E
100
AcDbEntity
  8
OBJECT
100
AcDbCircle
 10
3.125984779136348
 20
22.81291414860878
 30
0.0
 40
0.1635
  0
CIRCLE
  5
5C4
330
1E
100
AcDbEntity
  8
OBJECT
100
AcDbCircle
 10
3.125984779136348
 20
21.82891414860878
 30
0.0
 40
0.1635
  0
CIRCLE
  5
5C5
330
1E
100
AcDbEntity
  8
OBJECT
100
AcDbCircle
 10
3.125984779136348
 20
19.86091414860878
 30
0.0
 40
0.1635
  0
CIRCLE
  5
5C6
330
1E
100
AcDbEntity
  8
OBJECT
100
AcDbCircle
 10
3.125984779136348
 20
18.87691414860879
 30
0.0
 40
0.1635
  0
CIRCLE
  5
5C7
330
1E
100
AcDbEntity
  8
OBJECT
100
AcDbCircle
 10
8.438984779136337
 20
23.51191414860878
 30
0.0
 40
0.25
  0
CIRCLE
  5
5C8
330
1E
100
AcDbEntity
  8
OBJECT
100
AcDbCircle
 10
9.015984779136335
 20
20.84491414860877
 30
0.0
 40
0.1635
  0
CIRCLE
  5
5C9
330
1E
100
AcDbEntity
  8
OBJECT
100
AcDbCircle
 10
9.015984779136335
 20
22.81291414860878
 30
0.0
 40
0.1635
  0
CIRCLE
  5
5CA
330
1E
100
AcDbEntity
  8
OBJECT
100
AcDbCircle
 10
9.015984779136335
 20
21.82891414860878
 30
0.0
 40
0.1635
  0
CIRCLE
  5
5CB
330
1E
100
AcDbEntity
  8
OBJECT
100
AcDbCircle
 10
9.015984779136335
 20
19.86091414860878
 30
0.0
 40
0.1635
  0
CIRCLE
  5
5CC
330
1E
100
AcDbEntity
  8
OBJECT
100
AcDbCircle
 10
9.015984779136335
 20
18.87691414860879
 30
0.0
 40
0.1635
  0
CIRCLE
  5
5CD
330
1E
100
AcDbEntity
  8
OBJECT
100
AcDbCircle
 10
2.820984779136327
 20
10.41091414860878
 30
0.0
 40
0.315
  0
CIRCLE
  5
5CE
330
1E
100
AcDbEntity
  8
OBJECT
100
AcDbCircle
 10
2.820984779136327
 20
10.41091414860878
 30
0.0
 40
0.0945
  0
CIRCLE
  5
5CF
330
1E
100
AcDbEntity
  8
OBJECT
100
AcDbCircle
 10
9.320984779136328
 20
10.41091414860878
 30
0.0
 40
0.315
  0
CIRCLE
  5
5D0
330
1E
100
AcDbEntity
  8
OBJECT
100
AcDbCircle
 10
9.320984779136328
 20
10.41091414860878
 30
0.0
 40
0.0945
  0
LWPOLYLINE
  5
5D1
330
1E
100
AcDbEntity
  8
DIM
100
AcDbPolyline
 90
        4
 70
     0
 10
6.393575590033438
 20
10.52109528219908
 40
0.0
 41
0.27
 10
7.061239484489067
 20
10.25160516356699
 40
0.0
 41
0.0
 10
9.786306358884122
 20
9.151682580723296
 40
0.0
 41
0.0
 10
10.50630635888412
 20
9.151682580723296
 40
0.0
 41
0.0
  0
LWPOLYLINE
  5
5D7
330
1E
100
AcDbEntity
  8
OBJECT
100
AcDbPolyline
 90
        4
 70
     0
 43
0.0
 10
37.15963853833645
 20
23.13191414860888
 10
37.09963853833645
 20
23.05915989258675
 10
37.09963853833645
 20
23.72266840463081
 10
37.15963853833645
 20
23.64991414860887
  0
LINE
  5
5DD
330
1E
100
AcDbEntity
  8
OBJECT
100
AcDbLine
 10
25.21846153614201
 20
30.42127203344742
 30
0.0
 11
31.62484728112274
 21
30.42127203344742
 31
0.0
  0
LWPOLYLINE
  5
5DE
330
1E
100
AcDbEntity
  8
OBJECT
100
AcDbPolyline
 90
        4
 70
     0
 43
0.0
 10
25.21846153614201
 20
30.20927203344729
 10
25.95265440863236
 20
30.20927203344732
 10
25.95265440863236
 20
30.34027203344732
 10
25.21846153614201
 20
30.34027203344732
  0
LWPOLYLINE
  5
5E4
330
1E
100
AcDbEntity
  8
OBJECT
100
AcDbPolyline
 90
        4
 70
     1
 43
0.0
 10
26.12965440863237
 20
30.20927203344729
 10
26.48165440863238
 20
30.20927203344732
 10
26.48165440863238
 20
30.34027203344732
 10
26.12965440863237
 20
30.34027203344732
  0
LWPOLYLINE
  5
5EA
330
1E
100
AcDbEntity
  8
OBJECT
100
AcDbPolyline
 90
        4
 70
     1
 43
0.0
 10
27.71665440863237
 20
30.20927203344729
 10
28.06865440863238
 20
30.20927203344732
 10
28.06865440863238
 20
30.34027203344732
 10
27.71665440863237
 20
30.34027203344732
  0
LWPOLYLINE
  5
5F0
330
1E
100
AcDbEntity
  8
OBJECT
100
AcDbPolyline
 90
        4
 70
     1
 43
0.0
 10
26.65865440863237
 20
30.20927203344729
 10
27.01065440863237
 20
30.20927203344732
 10
27.01065440863237
 20
30.34027203344732
 10
26.65865440863237
 20
30.34027203344732
  0
LWPOLYLINE
  5
5F6
330
1E
100
AcDbEntity
  8
OBJECT
100
AcDbPolyline
 90
        4
 70
     1
 43
0.0
 10
27.18765440863238
 20
30.20927203344729
 10
27.53965440863237
 20
30.20927203344732
 10
27.53965440863237
 20
30.34027203344732
 10
27.18765440863238
 20
30.34027203344732
  0
LWPOLYLINE
  5
5FC
330
1E
100
AcDbEntity
  8
OBJECT
100
AcDbPolyline
 90
        4
 70
     1
 43
0.0
 10
28.24565440863237
 20
30.20927203344729
 10
28.59765440863238
 20
30.20927203344732
 10
28.59765440863238
 20
30.34027203344732
 10
28.24565440863237
 20
30.34027203344732
  0
LWPOLYLINE
  5
602
330
1E
100
AcDbEntity
  8
OBJECT
100
AcDbPolyline
 90
        4
 70
     1
 43
0.0
 10
29.12665440863237
 20
30.20927203344729
 10
28.77465440863238
 20
30.20927203344732
 10
28.77465440863238
 20
30.34027203344732
 10
29.12665440863237
 20
30.34027203344732
  0
LWPOLYLINE
  5
608
330
1E
100
AcDbEntity
  8
OBJECT
100
AcDbPolyline
 90
        4
 70
     0
 43
0.0
 10
31.62484728112274
 20
30.20927203344729
 10
30.89065440863238
 20
30.20927203344732
 10
30.89065440863238
 20
30.34027203344732
 10
31.62484728112274
 20
30.34027203344732
  0
LWPOLYLINE
  5
60E
330
1E
100
AcDbEntity
  8
OBJECT
100
AcDbPolyline
 90
        4
 70
     1
 43
0.0
 10
30.18465440863238
 20
30.20927203344729
 10
29.83265440863238
 20
30.20927203344732
 10
29.83265440863238
 20
30.34027203344732
 10
30.18465440863238
 20
30.34027203344732
  0
LWPOLYLINE
  5
614
330
1E
100
AcDbEntity
  8
OBJECT
100
AcDbPolyline
 90
        4
 70
     1
 43
0.0
 10
29.65565440863239
 20
30.20927203344729
 10
29.30365440863238
 20
30.20927203344732
 10
29.30365440863238
 20
30.34027203344732
 10
29.65565440863239
 20
30.34027203344732
  0
LWPOLYLINE
  5
61A
330
1E
100
AcDbEntity
  8
OBJECT
100
AcDbPolyline
 90
        4
 70
     1
 43
0.0
 10
30.71365440863238
 20
30.20927203344729
 10
30.36165440863239
 20
30.20927203344732
 10
30.36165440863239
 20
30.34027203344732
 10
30.71365440863238
 20
30.34027203344732
  0
LWPOLYLINE
  5
620
330
1E
100
AcDbEntity
  8
OBJECT
100
AcDbPolyline
 90
        4
 70
     0
 43
0.0
 10
18.87403818747
 20
24.37410702109914
 10
18.87403818746997
 20
23.04591414860877
 10
18.74303818747
 20
23.04591414860877
 10
18.74303818746998
 20
24.37410702109914
  0
LWPOLYLINE
  5
626
330
1E
100
AcDbEntity
  8
OBJECT
100
AcDbPolyline
 90
        4
 70
     1
 43
0.0
 10
18.87403818746981
 20
18.64591414860878
 10
18.8740381874698
 20
18.27591414860877
 10
18.74303818746981
 20
18.27591414860877
 10
18.74303818746981
 20
18.64591414860878
  0
LWPOLYLINE
  5
62C
330
1E
100
AcDbEntity
  8
OBJECT
100
AcDbPolyline
 90
        4
 70
     1
 43
0.0
 10
18.87403818746981
 20
19.17591414860878
 10
18.8740381874698
 20
18.80591414860877
 10
18.74303818746981
 20
18.80591414860877
 10
18.74303818746981
 20
19.17591414860878
  0
LWPOLYLINE
  5
632
330
1E
100
AcDbEntity
  8
OBJECT
100
AcDbPolyline
 90
        4
 70
     1
 43
0.0
 10
18.87403818746981
 20
19.70591414860878
 10
18.8740381874698
 20
19.33591414860877
 10
18.74303818746981
 20
19.33591414860877
 10
18.74303818746981
 20
19.70591414860878
  0
LWPOLYLINE
  5
638
330
1E
100
AcDbEntity
  8
OBJECT
100
AcDbPolyline
 90
        4
 70
     1
 43
0.0
 10
18.87403818746981
 20
20.23591414860878
 10
18.8740381874698
 20
19.86591414860878
 10
18.74303818746981
 20
19.86591414860878
 10
18.74303818746981
 20
20.23591414860878
  0
LWPOLYLINE
  5
63E
330
1E
100
AcDbEntity
  8
OBJECT
100
AcDbPolyline
 90
        4
 70
     1
 43
0.0
 10
18.87403818746981
 20
20.76591414860878
 10
18.8740381874698
 20
20.39591414860878
 10
18.74303818746981
 20
20.39591414860878
 10
18.74303818746981
 20
20.76591414860878
  0
LWPOLYLINE
  5
644
330
1E
100
AcDbEntity
  8
OBJECT
100
AcDbPolyline
 90
        4
 70
     1
 43
0.0
 10
18.87403818746981
 20
21.29591414860878
 10
18.8740381874698
 20
20.92591414860878
 10
18.74303818746981
 20
20.92591414860878
 10
18.74303818746981
 20
21.29591414860878
  0
LWPOLYLINE
  5
64A
330
1E
100
AcDbEntity
  8
OBJECT
100
AcDbPolyline
 90
        4
 70
     1
 43
0.0
 10
18.87403818746981
 20
21.82591414860878
 10
18.8740381874698
 20
21.45591414860878
 10
18.74303818746981
 20
21.45591414860878
 10
18.74303818746981
 20
21.82591414860878
  0
LWPOLYLINE
  5
650
330
1E
100
AcDbEntity
  8
OBJECT
100
AcDbPolyline
 90
        4
 70
     1
 43
0.0
 10
18.87403818746981
 20
22.35591414860878
 10
18.8740381874698
 20
21.98591414860878
 10
18.74303818746981
 20
21.98591414860878
 10
18.74303818746981
 20
22.35591414860878
  0
LWPOLYLINE
  5
656
330
1E
100
AcDbEntity
  8
OBJECT
100
AcDbPolyline
 90
        4
 70
     1
 43
0.0
 10
18.87403818746981
 20
22.88591414860878
 10
18.8740381874698
 20
22.51591414860877
 10
18.74303818746981
 20
22.51591414860877
 10
18.74303818746981
 20
22.88591414860878
  0
LWPOLYLINE
  5
65C
330
1E
100
AcDbEntity
  8
OBJECT
100
AcDbPolyline
 90
        8
 70
     1
 43
0.0
 10
24.68391819613238
 20
24.37007162360877
 10
24.68391819613238
 20
10.43175667360878
 42
0.4142135623730951
 10
25.20491819613238
 20
9.91075667360878
 10
31.64823314613238
 20
9.910756673608773
 42
0.4142135623730951
 10
32.16923314613238
 20
10.43175667360877
 10
32.16923314613238
 20
24.37007162360879
 42
0.4142135623730951
 10
31.64823314613238
 20
24.89107162360878
 10
25.20491819613238
 20
24.89107162360878
 42
0.4142135623730951
  0
LWPOLYLINE
  5
666
330
1E
100
AcDbEntity
  8
OBJECT
100
AcDbPolyline
 90
        8
 70
     1
 43
0.0
 10
25.1535756711324
 20
24.90091414860877
 42
0.4142135623730951
 10
24.66157567113238
 20
24.40891414860878
 10
24.6615756711324
 20
10.39291414860878
 42
0.4142135623730951
 10
25.1535756711324
 20
9.900914148608777
 10
31.6995756711324
 20
9.900914148608777
 42
0.4142135623730951
 10
32.19157567113238
 20
10.39291414860878
 10
32.19157567113238
 20
24.40891414860878
 42
0.4142135623730951
 10
31.6995756711324
 20
24.90091414860877
  0
LWPOLYLINE
  5
670
330
1E
100
AcDbEntity
  8
HIDDEN
100
AcDbPolyline
 90
       24
 70
     1
 43
0.0
 10
25.17107567113239
 20
23.84284991709749
 10
25.12491819613238
 20
23.84284991709749
 42
0.414213562373094
 10
24.97791819613238
 20
23.6958499170975
 10
24.97791819613238
 20
11.1059783801201
 42
0.414213562373094
 10
25.12491819613238
 20
10.9589783801201
 10
25.17107567113239
 20
10.9589783801201
 42
-0.4142135623730953
 10
25.72163990264368
 20
10.40841414860879
 10
25.72163990264368
 20
10.35175667360877
 42
0.414213562373094
 10
25.86863990264367
 20
10.20475667360877
 10
30.9845114396211
 20
10.20475667360877
 42
0.4142135623730922
 10
31.1315114396211
 20
10.35175667360877
 10
31.1315114396211
 20
10.40841414860879
 42
-0.4142135623730958
 10
31.6820756711324
 20
10.9589783801201
 10
31.72823314613238
 20
10.9589783801201
 42
0.4142135623730922
 10
31.87523314613239
 20
11.1059783801201
 10
31.87523314613239
 20
23.6958499170975
 42
0.4142135623730922
 10
31.72823314613238
 20
23.84284991709749
 10
31.6820756711324
 20
23.84284991709749
 42
-0.4142135623730863
 10
31.1315114396211
 20
24.39341414860878
 10
31.1315114396211
 20
24.45007162360879
 42
0.4142135623730852
 10
30.9845114396211
 20
24.59707162360878
 10
25.86863990264367
 20
24.59707162360878
 42
0.414213562373094
 10
25.72163990264368
 20
24.45007162360879
 10
25.72163990264368
 20
24.3934141486088
 42
-0.4142135623730973
  0
LWPOLYLINE
  5
68A
330
1E
100
AcDbEntity
  8
HIDDEN
100
AcDbPolyline
 90
       24
 70
     1
 43
0.0
 10
25.54263990264368
 20
24.3934141486088
 10
25.54263990264368
 20
24.45007162360879
 42
-0.4142135623730956
 10
25.86863990264367
 20
24.77607162360878
 10
30.9845114396211
 20
24.77607162360878
 42
-0.4142135623730964
 10
31.3105114396211
 20
24.45007162360879
 10
31.3105114396211
 20
24.3934141486088
 42
0.414213562373094
 10
31.6820756711324
 20
24.02184991709749
 10
31.72823314613238
 20
24.02184991709749
 42
-0.4142135623730964
 10
32.05423314613239
 20
23.6958499170975
 10
32.05423314613239
 20
11.1059783801201
 42
-0.4142135623730964
 10
31.72823314613238
 20
10.77997838012009
 10
31.6820756711324
 20
10.77997838012009
 42
0.414213562373094
 10
31.3105114396211
 20
10.40841414860879
 10
31.3105114396211
 20
10.35175667360877
 42
-0.4142135623730964
 10
30.9845114396211
 20
10.02575667360877
 10
25.86863990264367
 20
10.02575667360877
 42
-0.4142135623730956
 10
25.54263990264368
 20
10.35175667360877
 10
25.54263990264368
 20
10.40841414860879
 42
0.4142135623730933
 10
25.17107567113239
 20
10.77997838012009
 10
25.12491819613237
 20
10.77997838012009
 42
-0.4142135623730852
 10
24.79891819613238
 20
11.1059783801201
 10
24.79891819613238
 20
23.6958499170975
 42
-0.4142135623730956
 10
25.12491819613238
 20
24.02184991709749
 10
25.17107567113239
 20
24.02184991709749
 42
0.4142135623730946
  0
LWPOLYLINE
  5
6A4
330
1E
100
AcDbEntity
  8
OBJECT
100
AcDbPolyline
 90
        8
 70
     1
 43
0.0
 10
9.835984779136328
 20
10.39291414860878
 10
9.835984779136342
 20
24.40891414860877
 42
0.414213562373095
 10
9.343984779136338
 20
24.90091414860879
 10
2.797984779136331
 20
24.90091414860879
 42
0.4142135623730951
 10
2.30598477913634
 20
24.40891414860877
 10
2.30598477913634
 20
10.39291414860878
 42
0.4142135623730951
 10
2.797984779136331
 20
9.900914148608777
 10
9.343984779136338
 20
9.900914148608777
 42
0.4142135623730951
  0
LWPOLYLINE
  5
6AE
330
1E
100
AcDbEntity
  8
OBJECT
100
AcDbPolyline
 90
        8
 70
     1
 43
0.0
 10
8.997212313698941
 20
24.68191414860878
 10
3.144757244573201
 20
24.68191414860865
 42
1.238152245166022
 10
2.649984779136334
 20
23.97216508658843
 10
2.649984779136334
 20
10.82966321062913
 42
1.238152245165829
 10
3.144757244573102
 20
10.11991414860879
 10
8.997212313699836
 20
10.11991414860877
 42
1.238152245165546
 10
9.491984779136334
 20
10.82966321062913
 10
9.491984779136334
 20
23.97216508658841
 42
1.238152245166425
  0
LWPOLYLINE
  5
6B8
330
1E
100
AcDbEntity
  8
OBJECT
100
AcDbPolyline
 90
       24
 70
     1
 43
0.0
 10
37.25963853833647
 20
23.89034991709749
 10
37.19563853833646
 20
23.89034991709749
 42
0.4142135623730964
 10
36.99863853833646
 20
23.69334991709749
 10
36.99863853833646
 20
11.10847838012006
 42
0.4142135623730964
 10
37.19563853833646
 20
10.91147838012005
 10
37.25963853833647
 20
10.91147838012005
 42
-0.4142135623730951
 10
37.76020276984775
 20
10.41091414860875
 10
37.76020276984775
 20
10.33691414860877
 42
0.4142135623730951
 10
37.95720276984776
 20
10.13991414860878
 10
43.05807430682516
 20
10.13991414860878
 42
0.4142135623730956
 10
43.25507430682517
 20
10.33691414860877
 10
43.25507430682517
 20
10.41091414860875
 42
-0.4142135623730951
 10
43.75563853833646
 20
10.91147838012005
 10
43.82363853833646
 20
10.91147838012005
 42
0.4142135623730956
 10
44.02063853833646
 20
11.10847838012006
 10
44.02063853833646
 20
23.69334991709749
 42
0.4142135623730957
 10
43.82363853833646
 20
23.89034991709749
 10
43.75563853833646
 20
23.89034991709749
 42
-0.4142135623730951
 10
43.25507430682517
 20
24.3909141486088
 10
43.25507430682517
 20
24.46491414860877
 42
0.4142135623730957
 10
43.05807430682516
 20
24.66191414860877
 10
37.95720276984776
 20
24.66191414860877
 42
0.4142135623730964
 10
37.76020276984775
 20
24.46491414860877
 10
37.76020276984775
 20
24.3909141486088
 42
-0.4142135623730951
  0
LWPOLYLINE
  5
6D2
330
1E
100
AcDbEntity
  8
OBJECT
100
AcDbPolyline
 90
       24
 70
     1
 43
0.0
 10
37.68120276984776
 20
24.3909141486088
 10
37.68120276984776
 20
24.46491414860877
 42
-0.4142135623730951
 10
37.95720276984776
 20
24.74091414860878
 10
43.05807430682516
 20
24.74091414860878
 42
-0.4142135623730951
 10
43.33407430682516
 20
24.46491414860877
 10
43.33407430682516
 20
24.3909141486088
 42
0.4142135623730953
 10
43.75563853833646
 20
23.9693499170975
 10
43.82363853833646
 20
23.9693499170975
 42
-0.4142135623730951
 10
44.09963853833645
 20
23.69334991709749
 10
44.09963853833645
 20
11.10847838012006
 42
-0.4142135623730951
 10
43.82363853833646
 20
10.83247838012005
 10
43.75563853833646
 20
10.83247838012005
 42
0.4142135623730953
 10
43.33407430682516
 20
10.41091414860875
 10
43.33407430682516
 20
10.33691414860877
 42
-0.4142135623730951
 10
43.05807430682516
 20
10.06091414860878
 10
37.95720276984776
 20
10.06091414860878
 42
-0.4142135623730951
 10
37.68120276984776
 20
10.33691414860877
 10
37.68120276984776
 20
10.41091414860875
 42
0.4142135623730957
 10
37.25963853833647
 20
10.83247838012005
 10
37.19563853833646
 20
10.83247838012005
 42
-0.4142135623730951
 10
36.91963853833646
 20
11.10847838012006
 10
36.91963853833646
 20
23.69334991709749
 42
-0.4142135623730951
 10
37.19563853833646
 20
23.9693499170975
 10
37.25963853833647
 20
23.9693499170975
 42
0.4142135623730956
  0
LWPOLYLINE
  5
6EC
330
1E
100
AcDbEntity
  8
OBJECT
100
AcDbPolyline
 90
        4
 70
     0
 43
0.0
 10
43.85963853833646
 20
23.13191414860888
 10
43.91963853833646
 20
23.05915989258675
 10
43.91963853833646
 20
23.72266840463081
 10
43.85963853833646
 20
23.64991414860887
  0
LWPOLYLINE
  5
6F2
330
1E
100
AcDbEntity
  8
OBJECT
100
AcDbPolyline
 90
        4
 70
     0
 43
0.0
 10
37.15963853833645
 20
11.66991414860868
 10
37.09963853833645
 20
11.7426684046308
 10
37.09963853833645
 20
11.07915989258674
 10
37.15963853833645
 20
11.15191414860868
  0
LWPOLYLINE
  5
6F8
330
1E
100
AcDbEntity
  8
OBJECT
100
AcDbPolyline
 90
        4
 70
     0
 43
0.0
 10
43.85963853833646
 20
11.66991414860868
 10
43.91963853833646
 20
11.7426684046308
 10
43.91963853833646
 20
11.07915989258674
 10
43.85963853833646
 20
11.15191414860868
  0
CIRCLE
  5
6FE
330
1E
100
AcDbEntity
  8
OBJECT
100
AcDbCircle
 10
25.1765756711324
 20
24.39091414860878
 30
0.0
 40
0.34
  0
LWPOLYLINE
  5
6FF
330
1E
100
AcDbEntity
  8
OBJECT
100
AcDbPolyline
 90
        4
 70
     1
 43
0.0
 10
25.13238149730823
 20
24.08155493183967
 42
-0.3333333333333333
 10
24.86721645436327
 20
24.34671997478463
 10
25.22076984495654
 20
24.70027336537791
 42
-0.3333333333333333
 10
25.4859348879015
 20
24.43510832243295
  0
CIRCLE
  5
705
330
1E
100
AcDbEntity
  8
OBJECT
100
AcDbCircle
 10
31.6765756711324
 20
24.39091414860878
 30
0.0
 40
0.34
  0
LWPOLYLINE
  5
706
330
1E
100
AcDbEntity
  8
OBJECT
100
AcDbPolyline
 90
        4
 70
     1
 43
0.0
 10
31.72076984495655
 20
24.08155493183967
 42
0.3333333333333333
 10
31.98593488790151
 20
24.34671997478463
 10
31.63238149730823
 20
24.70027336537791
 42
0.3333333333333333
 10
31.36721645436328
 20
24.43510832243295
  0
CIRCLE
  5
70C
330
1E
100
AcDbEntity
  8
OBJECT
100
AcDbCircle
 10
25.1765756711324
 20
10.41091414860876
 30
0.0
 40
0.34
  0
LWPOLYLINE
  5
70D
330
1E
100
AcDbEntity
  8
OBJECT
100
AcDbPolyline
 90
        4
 70
     1
 43
0.0
 10
25.13238149730823
 20
10.72027336537787
 42
0.3333333333333333
 10
24.86721645436327
 20
10.45510832243291
 10
25.22076984495654
 20
10.10155493183964
 42
0.3333333333333333
 10
25.4859348879015
 20
10.3667199747846
  0
LWPOLYLINE
  5
713
330
1E
100
AcDbEntity
  8
OBJECT
100
AcDbPolyline
 90
        4
 70
     1
 43
0.0
 10
31.72076984495655
 20
10.72027336537787
 42
-0.3333333333333333
 10
31.98593488790151
 20
10.45510832243291
 10
31.63238149730823
 20
10.10155493183964
 42
-0.3333333333333333
 10
31.36721645436328
 20
10.3667199747846
  0
CIRCLE
  5
719
330
1E
100
AcDbEntity
  8
OBJECT
100
AcDbCircle
 10
31.6765756711324
 20
10.41091414860876
 30
0.0
 40
0.34
  0
LWPOLYLINE
  5
71A
330
1E
100
AcDbEntity
  8
HIDDEN
100
AcDbPolyline
 90
        3
 70
     0
 43
0.0
 10
17.76703818746987
 20
11.13570157767498
 10
17.76703818746987
 20
11.07915989258674
 10
18.95503818746987
 20
11.07915989258674
  0
LWPOLYLINE
  5
71F
330
1E
100
AcDbEntity
  8
OBJECT
100
AcDbPolyline
 90
        4
 70
     0
 43
0.0
 10
18.95503818746987
 20
11.67112671954237
 10
17.76703818746987
 20
11.67112671954237
 10
17.76703818746987
 20
11.15070157767498
 10
18.95503818746987
 20
11.15070157767498
  0
LWPOLYLINE
  5
725
330
1E
100
AcDbEntity
  8
HIDDEN
100
AcDbPolyline
 90
        3
 70
     0
 43
0.0
 10
17.76703818746987
 20
11.68612671954237
 10
17.76703818746987
 20
11.7426684046308
 10
18.95503818746987
 20
11.7426684046308
  0
LWPOLYLINE
  5
72A
330
1E
100
AcDbEntity
  8
HIDDEN
100
AcDbPolyline
 90
       24
 70
     1
 43
0.0
 10
25.17107567113234
 20
23.77184991709748
 10
25.12491819613237
 20
23.7718499170975
 42
0.4142135623731109
 10
25.04891819613238
 20
23.69584991709749
 10
25.04891819613238
 20
11.1059783801201
 42
0.4142135623731039
 10
25.12491819613238
 20
11.0299783801201
 10
25.17107567113239
 20
11.0299783801201
 42
-0.4142135623730949
 10
25.79263990264368
 20
10.40841414860879
 10
25.79263990264368
 20
10.35175667360877
 42
0.4142135623730903
 10
25.86863990264367
 20
10.27575667360878
 10
30.9845114396211
 20
10.27575667360878
 42
0.4142135623730903
 10
31.0605114396211
 20
10.35175667360877
 10
31.0605114396211
 20
10.40841414860879
 42
-0.4142135623730957
 10
31.6820756711324
 20
11.0299783801201
 10
31.72823314613238
 20
11.0299783801201
 42
0.4142135623730903
 10
31.80423314613237
 20
11.1059783801201
 10
31.80423314613237
 20
23.69584991709749
 42
0.4142135623730834
 10
31.72823314613238
 20
23.77184991709748
 10
31.6820756711324
 20
23.77184991709748
 42
-0.4142135623730982
 10
31.0605114396211
 20
24.3934141486088
 10
31.0605114396211
 20
24.45007162360878
 42
0.4142135623730833
 10
30.9845114396211
 20
24.52607162360877
 10
25.86863990264367
 20
24.52607162360877
 42
0.4142135623730834
 10
25.79263990264368
 20
24.45007162360878
 10
25.79263990264368
 20
24.3934141486088
 42
-0.4142135623731183
  0
LWPOLYLINE
  5
744
330
1E
100
AcDbEntity
  8
OBJECT
100
AcDbPolyline
 90
        4
 70
     0
 43
0.0
 10
18.95503818746987
 20
10.9589783801201
 10
19.15503818746988
 20
10.9589783801201
 10
19.15503818746988
 20
10.77997838012009
 10
18.95503818746987
 20
10.77997838012009
  0
LINE
  5
74A
330
1E
100
AcDbEntity
  8
OBJECT
100
AcDbLine
 10
19.24703818746987
 20
24.37410702109914
 30
0.0
 11
19.24703818746987
 21
17.40091414860877
 31
0.0
  0
LINE
  5
74B
330
1E
100
AcDbEntity
  8
OBJECT
100
AcDbLine
 10
18.95503818746987
 20
10.81899514894607
 30
0.0
 11
18.95503818746987
 21
9.900914148608777
 31
0.0
  0
LINE
  5
74C
330
1E
100
AcDbEntity
  8
OBJECT
100
AcDbLine
 10
24.67407567113237
 20
30.12827203344741
 30
0.0
 11
32.17907567113236
 21
30.12827203344741
 31
0.0
  0
LWPOLYLINE
  5
74D
330
1E
100
AcDbEntity
  8
OBJECT
100
AcDbPolyline
 90
        6
 70
     0
 43
0.0
 10
30.99951143962109
 20
10.18591414860877
 42
0.4142135623730979
 10
31.17551143962109
 20
10.36191414860877
 10
31.17551143962109
 20
10.40841414860879
 42
-0.4142135623730931
 10
31.6820756711324
 20
10.9149783801201
 10
31.73057567113239
 20
10.9149783801201
 42
0.4142135623730951
 10
31.90657567113239
 20
11.0909783801201
 42
0.4142135623730951
  0
LWPOLYLINE
  5
755
330
1E
100
AcDbEntity
  8
OBJECT
100
AcDbPolyline
 90
        6
 70
     0
 43
0.0
 10
25.85363990264367
 20
10.18591414860877
 42
-0.4142135623730979
 10
25.67763990264369
 20
10.36191414860877
 10
25.67763990264369
 20
10.40841414860879
 42
0.4142135623730931
 10
25.17107567113239
 20
10.9149783801201
 10
25.12257567113239
 20
10.9149783801201
 42
-0.4142135623730951
 10
24.9465756711324
 20
11.0909783801201
 42
-0.4142135623730951
  0
LWPOLYLINE
  5
75D
330
1E
100
AcDbEntity
  8
OBJECT
100
AcDbPolyline
 90
        6
 70
     0
 43
0.0
 10
25.85363990264367
 20
24.61591414860878
 42
0.4142135623730979
 10
25.67763990264369
 20
24.43991414860878
 10
25.67763990264369
 20
24.39341414860875
 42
-0.4142135623730931
 10
25.17107567113239
 20
23.88684991709745
 10
25.12257567113239
 20
23.88684991709745
 42
0.4142135623730951
 10
24.9465756711324
 20
23.71084991709744
 42
0.4142135623730951
  0
LWPOLYLINE
  5
765
330
1E
100
AcDbEntity
  8
OBJECT
100
AcDbPolyline
 90
        6
 70
     0
 43
0.0
 10
30.99951143962109
 20
24.61591414860878
 42
-0.4142135623730979
 10
31.17551143962109
 20
24.43991414860878
 10
31.17551143962109
 20
24.39341414860875
 42
0.4142135623730931
 10
31.6820756711324
 20
23.88684991709745
 10
31.73057567113239
 20
23.88684991709745
 42
-0.4142135623730951
 10
31.90657567113239
 20
23.71084991709744
 42
-0.4142135623730951
  0
LINE
  5
76D
330
1E
100
AcDbEntity
  8
OBJECT
100
AcDbLine
 10
19.20503818746987
 20
10.72027336537787
 30
0.0
 11
18.95503818746987
 21
10.72027336537787
 31
0.0
  0
LINE
  5
76E
330
1E
100
AcDbEntity
  8
OBJECT
100
AcDbLine
 10
19.20503818746987
 20
10.45510832243292
 30
0.0
 11
18.95503818746987
 21
10.45510832243292
 31
0.0
  0
LINE
  5
76F
330
1E
100
AcDbEntity
  8
OBJECT
100
AcDbLine
 10
19.20503818746987
 20
10.3667199747846
 30
0.0
 11
18.95503818746987
 21
10.3667199747846
 31
0.0
  0
LINE
  5
770
330
1E
100
AcDbEntity
  8
OBJECT
100
AcDbLine
 10
19.20503818746987
 20
10.10155493183964
 30
0.0
 11
18.95503818746987
 21
10.10155493183964
 31
0.0
  0
LWPOLYLINE
  5
771
330
1E
100
AcDbEntity
  8
OBJECT
100
AcDbPolyline
 90
       16
 70
     1
 43
0.0
 10
31.90657567113239
 20
23.98525419248799
 10
31.90657567113239
 20
10.81657410472956
 42
0.2537088048817064
 10
31.9243029438597
 20
10.7838866289265
 42
-1.23366988388395
 10
31.30860319081474
 20
10.16818687588151
 42
0.2537088048816992
 10
31.27591571501161
 20
10.18591414860878
 10
25.57723562725317
 20
10.18591414860878
 42
0.2537088048816992
 10
25.54454815145004
 20
10.16818687588151
 42
-1.23366988388395
 10
24.92884839840508
 20
10.7838866289265
 42
0.2537088048817064
 10
24.9465756711324
 20
10.81657410472956
 10
24.9465756711324
 20
23.98525419248799
 42
0.2537088048817064
 10
24.92884839840508
 20
24.01794166829105
 42
-1.23366988388395
 10
25.54454815145004
 20
24.63364142133605
 42
0.2537088048816992
 10
25.57723562725317
 20
24.61591414860878
 10
31.27591571501161
 20
24.61591414860878
 42
0.2537088048816992
 10
31.30860319081474
 20
24.63364142133605
 42
-1.23366988388395
 10
31.9243029438597
 20
24.01794166829105
 42
0.2537088048817064
  0
ARC
  5
783
330
1E
100
AcDbEntity
  8
OBJECT
100
AcDbCircle
 10
21.86203818746986
 20
11.14497838012027
 30
0.0
 40
0.1150000000000111
100
AcDbArc
 50
270.0
 51
0.0
  0
LINE
  5
784
330
1E
100
AcDbEntity
  8
OBJECT
100
AcDbLine
 10
19.20503818746987
 20
10.9149783801201
 30
0.0
 11
21.86203818746986
 21
10.9149783801201
 31
0.0
  0
INSERT
  5
785
330
1E
100
AcDbEntity
  8
OBJECT
100
AcDbBlockReference
  2
*X1
 10
56.41459057259952
 20
-1.823326316534711
 30
0.0
 41
-1.0
1001
ACAD
1000
HATCH
1002
{
1070
    16
1000
PLASTI
1040
1.5
1040
0.7853981633974483
1002
}
  0
INSERT
  5
786
330
1E
100
AcDbEntity
  8
OBJECT
100
AcDbBlockReference
  2
*X2
 10
56.41459057259952
 20
-1.823326316534711
 30
0.0
 41
-1.0
1001
ACAD
1000
HATCH
1002
{
1070
    16
1000
PLASTI
1040
1.5
1040
2.356194490192344
1002
}
  0
LWPOLYLINE
  5
787
330
1E
100
AcDbEntity
  8
OBJECT
100
AcDbPolyline
 90
        4
 70
     0
 43
0.0
 10
31.36057567113238
 20
33.98827203344746
 10
31.38857567113237
 20
34.06827203344745
 10
31.9645756711324
 20
34.06827203344744
 10
31.99257567113237
 20
33.98827203344746
  0
LWPOLYLINE
  5
78D
330
1E
100
AcDbEntity
  8
OBJECT
100
AcDbPolyline
 90
        4
 70
     0
 43
0.0
 10
31.02354744616036
 20
33.98827203344743
 10
30.99554744616039
 20
34.06827203344741
 10
30.60160389610437
 20
34.06827203344741
 10
30.57360389610437
 20
33.98827203344743
  0
LWPOLYLINE
  5
793
330
1E
100
AcDbEntity
  8
OBJECT
100
AcDbPolyline
 90
        4
 70
     0
 43
0.0
 10
29.74207567113241
 20
33.98827203344746
 10
29.7700756711324
 20
34.06827203344744
 10
30.03507567113242
 20
34.06827203344744
 10
30.06307567113241
 20
33.98827203344746
  0
LWPOLYLINE
  5
799
330
1E
100
AcDbEntity
  8
OBJECT
100
AcDbPolyline
 90
        4
 70
     0
 43
0.0
 10
28.75807567113237
 20
33.98827203344746
 10
28.78607567113236
 20
34.06827203344744
 10
29.05107567113238
 20
34.06827203344744
 10
29.07907567113237
 20
33.98827203344746
  0
LWPOLYLINE
  5
79F
330
1E
100
AcDbEntity
  8
OBJECT
100
AcDbPolyline
 90
        4
 70
     0
 43
0.0
 10
28.2016038961044
 20
33.98827203344743
 10
28.22960389610439
 20
34.06827203344741
 10
28.6235474461604
 20
34.06827203344741
 10
28.65154744616036
 20
33.98827203344743
  0
LWPOLYLINE
  5
7A5
330
1E
100
AcDbEntity
  8
OBJECT
100
AcDbPolyline
 90
        4
 70
     0
 43
0.0
 10
28.09507567113239
 20
33.98827203344746
 10
28.0670756711324
 20
34.06827203344744
 10
27.80207567113238
 20
34.06827203344744
 10
27.77407567113239
 20
33.98827203344746
  0
LWPOLYLINE
  5
7AB
330
1E
100
AcDbEntity
  8
OBJECT
100
AcDbPolyline
 90
        4
 70
     0
 43
0.0
 10
27.11107567113235
 20
33.98827203344746
 10
27.08307567113236
 20
34.06827203344744
 10
26.81807567113235
 20
34.06827203344744
 10
26.79007567113235
 20
33.98827203344746
  0
LWPOLYLINE
  5
7B1
330
1E
100
AcDbEntity
  8
OBJECT
100
AcDbPolyline
 90
        4
 70
     0
 43
0.0
 10
25.8296038961044
 20
33.98827203344743
 10
25.85760389610438
 20
34.06827203344741
 10
26.2515474461604
 20
34.06827203344741
 10
26.27954744616039
 20
33.98827203344743
  0
LWPOLYLINE
  5
7B7
330
1E
100
AcDbEntity
  8
OBJECT
100
AcDbPolyline
 90
        4
 70
     0
 43
0.0
 10
25.49257567113238
 20
33.98827203344746
 10
25.46457567113239
 20
34.06827203344745
 10
24.88857567113237
 20
34.06827203344744
 10
24.8605756711324
 20
33.98827203344746
  0
LWPOLYLINE
  5
7BD
330
1E
100
AcDbEntity
  8
OBJECT
100
AcDbPolyline
 90
        8
 70
     1
 43
0.0
 10
44.27463853833645
 20
24.40891414860877
 10
44.27463853833646
 20
10.39291414860878
 42
-0.4142135623730951
 10
43.78263853833646
 20
9.900914148608777
 10
37.23663853833645
 20
9.900914148608777
 42
-0.4142135623730951
 10
36.74463853833645
 20
10.39291414860878
 10
36.74463853833645
 20
24.40891414860877
 42
-0.4142135623730951
 10
37.23663853833645
 20
24.90091414860877
 10
43.78263853833646
 20
24.90091414860877
 42
-0.4142135623730951
  0
TEXT
  5
7C7
330
1E
100
AcDbEntity
  8
TEXT
100
AcDbText
 10
8.436984098382458
 20
39.02094374326722
 30
0.0
 40
0.74999925
  1
NON-METALLIC ENCLOSURE (STYLE D)
 41
0.75
 72
     4
 11
17.06197547338246
 21
39.39594336826722
 31
0.0
100
AcDbText
  0
TEXT
  5
7C8
330
1E
100
AcDbEntity
  8
TEXT
100
AcDbText
 10
39.12543990164595
 20
39.02094374326724
 30
0.0
 40
0.74999925
  1
NBD-10445 & NBD-10465 & NBD-15445
 41
0.75
 72
     4
 11
47.93793108914595
 21
39.39594336826724
 31
0.0
100
AcDbText
  0
TEXT
  5
7C9
330
1E
100
AcDbEntity
  8
TEXT
100
AcDbText
 10
46.51643688458245
 20
27.72522803034054
 30
0.0
 40
0.4999994999999998
  1
%%UNOTE:%%u COVER ATTACHES WITH PHILLIPS DRIVE
 41
0.75
100
AcDbText
  0
TEXT
  5
7CA
330
1E
100
AcDbEntity
  8
TEXT
100
AcDbText
 10
48.52819255054571
 20
26.89189636367385
 30
0.0
 40
0.4999995
  1
NON-METALLIC SCREWS.  (NOT SHOWN)
 41
0.75
100
AcDbText
  0
TEXT
  5
7CB
330
1E
100
AcDbEntity
  8
TEXT
100
AcDbText
 10
34.12399999999999
 20
32.69908111270424
 30
0.0
 40
0.4999995
  1
AIR AND MOISTURE VENTS, STAINLESS
 41
0.75
100
AcDbText
  0
TEXT
  5
7CC
330
1E
100
AcDbEntity
  8
TEXT
100
AcDbText
 10
34.12399999999999
 20
31.86558192220426
 30
0.0
 40
0.4999995000000001
  1
STEEL LOCKING HASP, PANEL MOUNTING
 41
0.75
100
AcDbText
  0
TEXT
  5
7CD
330
1E
100
AcDbEntity
  8
TEXT
100
AcDbText
 10
34.12399999999999
 20
31.03208273170425
 30
0.0
 40
0.4999995000000001
  1
RAILS, GALVANIZED STEEL INNER PANEL
 41
0.75
100
AcDbText
  0
TEXT
  5
7CE
330
1E
100
AcDbEntity
  8
TEXT
100
AcDbText
 10
34.12399999999999
 20
30.19958354120424
 30
0.0
 40
0.4999995000000001
  1
AND STAINLESS STEEL WALL MOUNTING
 41
0.75
100
AcDbText
  0
TEXT
  5
7CF
330
1E
100
AcDbEntity
  8
TEXT
100
AcDbText
 10
34.12399999999999
 20
29.36608435070425
 30
0.0
 40
0.4999995000000001
  1
BRACKETS ARE NOT INCLUDED, BUT CAN
 41
0.75
100
AcDbText
  0
TEXT
  5
7D0
330
1E
100
AcDbEntity
  8
TEXT
100
AcDbText
 10
34.12399999999999
 20
28.53358516020425
 30
0.0
 40
0.4999995000000001
  1
BE PURCHASED SEPARATELY.
 41
0.75
100
AcDbText
  0
INSERT
  5
7D1
330
1E
100
AcDbEntity
  8
TITLE
100
AcDbBlockReference
  2
HBS
 10
0.0
 20
0.0
 30
0.0
 41
4.0
 42
4.0
 43
4.0
  0
TEXT
  5
7D2
330
1E
100
AcDbEntity
  8
TEXT
100
AcDbText
 10
15.81821104393064
 20
2.090245879929749
 30
0.0
 40
0.5000002187500959
  1
B
 41
0.75
 72
     4
 11
15.94321109861816
 21
2.340245989304797
 31
0.0
100
AcDbText
  0
TEXT
  5
7D3
330
1E
100
AcDbEntity
  8
TEXT
100
AcDbText
 10
18.29437104393063
 20
2.090245879929749
 30
0.0
 40
0.5000002187500959
  1
C
 41
0.75
 72
     4
 11
18.41937109861815
 21
2.340245989304797
 31
0.0
100
AcDbText
  0
TEXT
  5
7D4
330
1E
100
AcDbEntity
  8
TEXT
100
AcDbText
 10
20.77053104393063
 20
2.090245879929749
 30
0.0
 40
0.5000002187500959
  1
D
 41
0.75
 72
     4
 11
20.89553109861816
 21
2.340245989304797
 31
0.0
100
AcDbText
  0
TEXT
  5
7D5
330
1E
100
AcDbEntity
  8
TEXT
100
AcDbText
 10
23.24669104393063
 20
2.090245879929749
 30
0.0
 40
0.5000002187500959
  1
E
 41
0.75
 72
     4
 11
23.37169109861815
 21
2.340245989304797
 31
0.0
100
AcDbText
  0
TEXT
  5
7D6
330
1E
100
AcDbEntity
  8
TEXT
100
AcDbText
 10
25.72285104393063
 20
2.090245879929749
 30
0.0
 40
0.5000002187500959
  1
F
 41
0.75
 72
     4
 11
25.84785109861816
 21
2.340245989304797
 31
0.0
100
AcDbText
  0
TEXT
  5
7D7
330
1E
100
AcDbEntity
  8
TEXT
100
AcDbText
 10
28.19901104393063
 20
2.090245879929749
 30
0.0
 40
0.5000002187500959
  1
G
 41
0.75
 72
     4
 11
28.32401109861816
 21
2.340245989304797
 31
0.0
100
AcDbText
  0
TEXT
  5
7D8
330
1E
100
AcDbEntity
  8
TEXT
100
AcDbText
 10
30.67517104393063
 20
2.090245879929749
 30
0.0
 40
0.5000002187500959
  1
H
 41
0.75
 72
     4
 11
30.80017109861816
 21
2.340245989304797
 31
0.0
100
AcDbText
  0
TEXT
  5
7D9
330
1E
100
AcDbEntity
  8
TEXT
100
AcDbText
 10
33.15133104393064
 20
2.090245879929749
 30
0.0
 40
0.5000002187500959
  1
J
 41
0.75
 72
     4
 11
33.27633109861816
 21
2.340245989304797
 31
0.0
100
AcDbText
  0
TEXT
  5
7DA
330
1E
100
AcDbEntity
  8
TEXT
100
AcDbText
 10
35.62749104393063
 20
2.090245879929749
 30
0.0
 40
0.5000002187500959
  1
K
 41
0.75
 72
     4
 11
35.75249109861815
 21
2.340245989304797
 31
0.0
100
AcDbText
  0
TEXT
  5
7DB
330
1E
100
AcDbEntity
  8
TEXT
100
AcDbText
 10
38.10365104393063
 20
2.090245879929749
 30
0.0
 40
0.5000002187500959
  1
L
 41
0.75
 72
     4
 11
38.22865109861816
 21
2.340245989304797
 31
0.0
100
AcDbText
  0
TEXT
  5
7DC
330
1E
100
AcDbEntity
  8
TEXT
100
AcDbText
 10
40.57981104393063
 20
2.090245879929749
 30
0.0
 40
0.5000002187500959
  1
M
 41
0.75
 72
     4
 11
40.70481109861816
 21
2.340245989304797
 31
0.0
100
AcDbText
  0
TEXT
  5
7DD
330
1E
100
AcDbEntity
  8
TEXT
100
AcDbText
 10
43.05597104393063
 20
2.090245879929749
 30
0.0
 40
0.5000002187500959
  1
N
 41
0.75
 72
     4
 11
43.18097109861816
 21
2.340245989304797
 31
0.0
100
AcDbText
  0
TEXT
  5
7DE
330
1E
100
AcDbEntity
  8
TEXT
100
AcDbText
 10
45.53213104393064
 20
2.090245879929749
 30
0.0
 40
0.5000002187500959
  1
P
 41
0.75
 72
     4
 11
45.65713109861817
 21
2.340245989304797
 31
0.0
100
AcDbText
  0
TEXT
  5
7DF
330
1E
100
AcDbEntity
  8
TEXT
100
AcDbText
 10
48.00829104393065
 20
2.090245879929749
 30
0.0
 40
0.5000002187500959
  1
R
 41
0.75
 72
     4
 11
48.13329109861817
 21
2.340245989304797
 31
0.0
100
AcDbText
  0
TEXT
  5
7E0
330
1E
100
AcDbEntity
  8
TEXT
100
AcDbText
 10
50.48445104393064
 20
2.090245879929749
 30
0.0
 40
0.5000002187500959
  1
S
 41
0.75
 72
     4
 11
50.60945109861816
 21
2.340245989304797
 31
0.0
100
AcDbText
  0
TEXT
  5
7E1
330
1E
100
AcDbEntity
  8
TEXT
100
AcDbText
 10
52.96061104393064
 20
2.090245879929749
 30
0.0
 40
0.5000002187500959
  1
T
 41
0.75
 72
     4
 11
53.08561109861816
 21
2.340245989304797
 31
0.0
100
AcDbText
  0
TEXT
  5
7E2
330
1E
100
AcDbEntity
  8
TEXT
100
AcDbText
 10
55.43677104393063
 20
2.090245879929749
 30
0.0
 40
0.5000002187500959
  1
U
 41
0.75
 72
     4
 11
55.56177109861816
 21
2.340245989304797
 31
0.0
100
AcDbText
  0
TEXT
  5
7E3
330
1E
100
AcDbEntity
  8
TEXT
100
AcDbText
 10
57.85043101658688
 20
2.090245879929749
 30
0.0
 40
0.5000002187500959
  1
V
 41
0.75
 72
     4
 11
58.03793109861817
 21
2.340245989304797
 31
0.0
100
AcDbText
  0
TEXT
  5
7E4
330
1E
100
AcDbEntity
  8
TEXT
100
AcDbText
 10
60.32659101658688
 20
2.090245879929749
 30
0.0
 40
0.5000002187500959
  1
W
 41
0.75
 72
     4
 11
60.51409109861817
 21
2.340245989304797
 31
0.0
100
AcDbText
  0
TEXT
  5
7E5
330
1E
100
AcDbEntity
  8
TEXT
100
AcDbText
 10
13.34234643857232
 20
2.090836669213124
 30
0.0
 40
0.4988186401833463
  1
A
 41
0.75
 72
     4
 11
13.46705109861815
 21
2.340245989304797
 31
0.0
100
AcDbText
  0
LINE
  5
7E6
330
1E
100
AcDbEntity
  8
TITLE
100
AcDbLine
 10
61.75199999999995
 20
1.921796791443831
 30
0.0
 11
0.2479999999999904
 21
1.921796791443831
 31
0.0
  0
LINE
  5
7E7
330
1E
100
AcDbEntity
  8
TITLE
100
AcDbLine
 10
61.75199999999995
 20
2.75869518716577
 30
0.0
 11
12.22897109861816
 21
2.75869518716577
 31
0.0
  0
LINE
  5
7E8
330
1E
100
AcDbEntity
  8
TITLE
100
AcDbLine
 10
12.22897109861816
 20
3.59559358288768
 30
0.0
 11
0.2480000000000047
 21
3.595593582887708
 31
0.0
  0
TEXT
  5
7E9
330
1E
100
AcDbEntity
  8
TEXT
100
AcDbText
 10
0.7053605180222674
 20
0.8252536383466946
 30
0.0
 40
0.5000000000000001
  1
NBD-10445
 41
0.75
 72
     1
 11
2.236610518022267
 21
0.8252536383466946
 31
0.0
100
AcDbText
  0
TEXT
  5
7EA
330
1E
100
AcDbEntity
  8
TEXT
100
AcDbText
 10
1.299110518022267
 20
2.082809262235265
 30
0.0
 40
0.5000000000000001
  1
COVER
 41
0.75
 72
     1
 11
2.236610518022267
 21
2.082809262235265
 31
0.0
100
AcDbText
  0
TEXT
  5
7EB
330
1E
100
AcDbEntity
  8
TEXT
100
AcDbText
 10
1.424110518022267
 20
2.936307645440571
 30
0.0
 40
0.5000000000000001
  1
SOLID
 41
0.75
 72
     1
 11
2.236610518022267
 21
2.936307645440571
 31
0.0
100
AcDbText
  0
TEXT
  5
7EC
330
1E
100
AcDbEntity
  8
TEXT
100
AcDbText
 10
2.922582634141463
 20
3.76948432355018
 30
0.0
 40
0.5000000000000001
  1
PART NO.
 41
0.75
 72
     1
 11
4.235082634141463
 21
3.76948432355018
 31
0.0
100
AcDbText
  0
TEXT
  5
7ED
330
1E
100
AcDbEntity
  8
TEXT
100
AcDbText
 10
5.296054750260616
 20
2.082809262235265
 30
0.0
 40
0.5000000000000001
  1
COVER
 41
0.75
 72
     1
 11
6.233554750260616
 21
2.082809262235265
 31
0.0
100
AcDbText
  0
TEXT
  5
7EE
330
1E
100
AcDbEntity
  8
TEXT
100
AcDbText
 10
5.358554750260616
 20
2.936307645440571
 30
0.0
 40
0.5000000000000001
  1
CLEAR
 41
0.75
 72
     1
 11
6.233554750260616
 21
2.936307645440571
 31
0.0
100
AcDbText
  0
TEXT
  5
7EF
330
1E
100
AcDbEntity
  8
TEXT
100
AcDbText
 10
4.702304750260616
 20
0.8252536383466946
 30
0.0
 40
0.5000000000000001
  1
NBD-10465
 41
0.75
 72
     1
 11
6.233554750260616
 21
0.8252536383466946
 31
0.0
100
AcDbText
  0
LINE
  5
7F0
330
1E
100
AcDbEntity
  8
TITLE
100
AcDbLine
 10
61.75199999999995
 20
4.432491978609618
 30
0.0
 11
0.2479999999999904
 21
4.432491978609618
 31
0.0
  0
TEXT
  5
7F1
330
1E
100
AcDbEntity
  8
TEXT
100
AcDbText
 10
34.88187109861816
 20
3.28319358288773
 30
0.0
 40
0.6248000000000001
  1
DIMENSIONS
 41
0.75
 72
     4
 11
36.99057109861816
 21
3.59559358288773
 31
0.0
100
AcDbText
  0
TEXT
  5
7F2
330
1E
100
AcDbEntity
  8
TEXT
100
AcDbText
 10
52.68096695343065
 20
5.124672147875031
 30
0.0
 40
0.5005347593582891
  1
DIMENSIONS =
 41
0.75
100
AcDbText
  0
TEXT
  5
7F3
330
1E
100
AcDbEntity
  8
TEXT
100
AcDbText
 10
58.25279380534066
 20
5.554205031456646
 30
0.0
 40
0.5005347593582891
  1
INCHES
 41
0.75
 72
     1
 11
59.25386332405724
 21
5.554205031456646
 31
0.0
100
AcDbText
  0
TEXT
  5
7F4
330
1E
100
AcDbEntity
  8
TEXT
100
AcDbText
 10
57.12659059678451
 20
4.719980432526163
 30
0.0
 40
0.5005347593582891
  1
[MILLIMETERS]
 41
0.75
 72
     1
 11
59.25386332405724
 21
4.719980432526163
 31
0.0
100
AcDbText
  0
TEXT
  5
7F5
330
1E
100
AcDbEntity
  8
TEXT
100
AcDbText
 10
48.19260059668136
 20
37.69924696987068
 30
0.0
 40
0.4999999999999999
  1
%%UINDUSTRY STANDARDS:
 41
0.75
100
AcDbText
  0
TEXT
  5
7F6
330
1E
100
AcDbEntity
  8
TEXT
100
AcDbText
 10
48.6916848457656
 20
36.032580303204
 30
0.0
 40
0.4999999999999999
  1
UL508 TYPE 1, 2, 4, 4X INDOOR, 12 & 13
 41
0.75
100
AcDbText
  0
TEXT
  5
7F7
330
1E
100
AcDbEntity
  8
TEXT
100
AcDbText
 10
48.6916848457656
 20
35.19924696987064
 30
0.0
 40
0.4999999999999999
  1
NEMA TYPE 1, 2, 4, 4X, 12 & 13
 41
0.75
100
AcDbText
  0
TEXT
  5
7F8
330
1E
100
AcDbEntity
  8
TEXT
100
AcDbText
 10
48.6916848457656
 20
34.36591363653732
 30
0.0
 40
0.4999999999999999
  1
IEC529-IP65
 41
0.75
100
AcDbText
  0
TEXT
  5
7F9
330
1E
100
AcDbEntity
  8
TEXT
100
AcDbText
 10
10.3272504283087
 20
35.2043654724215
 30
0.0
 40
0.4999999999999999
  1
UL94-5VB FLAMMABILITY RATING
 41
0.75
100
AcDbText
  0
TEXT
  5
7FB
330
1E
100
AcDbEntity
  8
TEXT
100
AcDbText
 10
16.67117512453432
 20
5.560372955002698
 30
0.0
 40
0.5005347593582891
  1
%%UNOTE%%U: ALL DIMENSIONS HAVE %%P0.039 [%%P1] TOLERANCE
 41
0.75
100
AcDbText
  0
TEXT
  5
7FC
330
1E
100
AcDbEntity
  8
TEXT
100
AcDbText
 10
18.27540876084329
 20
4.749141404200543
 30
0.0
 40
0.5005347593582891
  1
 UNLESS OTHERWISE SPECIFIED
 41
0.75
100
AcDbText
  0
LINE
  5
7FD
330
1E
100
AcDbEntity
  8
TITLE
100
AcDbLine
 10
61.75199999999995
 20
1.084898395721914
 30
0.0
 11
12.22897109861814
 21
1.084898395721914
 31
0.0
  0
TEXT
  5
7FE
330
1E
100
AcDbEntity
  8
TEXT
100
AcDbText
 10
10.3272504283087
 20
32.71460247752317
 30
0.0
 40
0.4999999999999999
  1
UL94V-0 FLAMMABILITY RATING
 41
0.75
100
AcDbText
  0
LINE
  5
7FF
330
1E
100
AcDbEntity
  8
TITLE
100
AcDbLine
 10
4.235082634141441
 20
0.2480000000000047
 30
0.0
 11
4.235082634141463
 21
3.595593582887708
 31
0.0
  0
LINE
  5
800
330
1E
100
AcDbEntity
  8
TITLE
100
AcDbLine
 10
12.22897109861817
 20
6.106288770053474
 30
0.0
 11
0.2480000000000047
 21
6.106288770053474
 31
0.0
  0
TEXT
  5
801
330
1E
100
AcDbEntity
  8
TEXT
100
AcDbText
 10
3.11219223612742
 20
5.447002832606358
 30
0.0
 40
0.5000000000000001
  1
INDOOR
 41
0.75
 72
     1
 11
4.11219223612742
 21
5.447002832606358
 31
0.0
100
AcDbText
  0
TEXT
  5
802
330
1E
100
AcDbEntity
  8
TEXT
100
AcDbText
 10
2.86219223612742
 20
4.593504449401052
 30
0.0
 40
0.5000000000000001
  1
VERSION
 41
0.75
 72
     1
 11
4.11219223612742
 21
4.593504449401052
 31
0.0
100
AcDbText
  0
TEXT
  5
803
330
1E
100
AcDbEntity
  8
TEXT
100
AcDbText
 10
9.292998982498986
 20
2.082809262235244
 30
0.0
 40
0.5000000000000001
  1
COVER
 41
0.75
 72
     1
 11
10.23049898249898
 21
2.082809262235244
 31
0.0
100
AcDbText
  0
TEXT
  5
804
330
1E
100
AcDbEntity
  8
TEXT
100
AcDbText
 10
8.667998982498964
 20
0.8252536383466946
 30
0.0
 40
0.5000000000000001
  1
NBD-15445
 41
0.75
 72
     1
 11
10.23049898249896
 21
0.8252536383466946
 31
0.0
100
AcDbText
  0
TEXT
  5
805
330
1E
100
AcDbEntity
  8
TEXT
100
AcDbText
 10
9.417998982498986
 20
2.936307645440571
 30
0.0
 40
0.5000000000000001
  1
SOLID
 41
0.75
 72
     1
 11
10.23049898249898
 21
2.936307645440571
 31
0.0
100
AcDbText
  0
TEXT
  5
806
330
1E
100
AcDbEntity
  8
TEXT
100
AcDbText
 10
8.980498982498986
 20
4.593504449401052
 30
0.0
 40
0.5000000000000001
  1
VERSION
 41
0.75
 72
     1
 11
10.23049898249898
 21
4.593504449401052
 31
0.0
100
AcDbText
  0
TEXT
  5
807
330
1E
100
AcDbEntity
  8
TEXT
100
AcDbText
 10
8.980498982498986
 20
5.447002832606358
 30
0.0
 40
0.5000000000000001
  1
OUTDOOR
 41
0.75
 72
     1
 11
10.23049898249898
 21
5.447002832606358
 31
0.0
100
AcDbText
  0
TEXT
  5
808
330
1E
100
AcDbEntity
  8
TEXT
100
AcDbText
 10
8.917998982498986
 20
3.769484323550159
 30
0.0
 40
0.5000000000000001
  1
PART NO.
 41
0.75
 72
     1
 11
10.23049898249898
 21
3.769484323550159
 31
0.0
100
AcDbText
  0
TEXT
  5
809
330
1E
100
AcDbEntity
  8
TEXT
100
AcDbText
 10
48.6916848457656
 20
36.86591363653735
 30
0.0
 40
0.4999999999999999
  1
%%uINDOOR VERSION
 41
0.75
100
AcDbText
  0
TEXT
  5
80A
330
1E
100
AcDbEntity
  8
TEXT
100
AcDbText
 10
48.6916848457656
 20
31.07540341608375
 30
0.0
 40
0.4999999999999999
  1
NEMA TYPE 1, 2, 4, 4X, 12 & 13
 41
0.75
100
AcDbText
  0
TEXT
  5
80B
330
1E
100
AcDbEntity
  8
TEXT
100
AcDbText
 10
48.6916848457656
 20
31.90873674941709
 30
0.0
 40
0.4999999999999999
  1
UL508 TYPE 1, 2, 4, 4X, 12 & 13
 41
0.75
100
AcDbText
  0
TEXT
  5
80C
330
1E
100
AcDbEntity
  8
TEXT
100
AcDbText
 10
48.6916848457656
 20
32.74207008275041
 30
0.0
 40
0.4999999999999999
  1
%%uOUTDOOR VERSION
 41
0.75
100
AcDbText
  0
TEXT
  5
80D
330
1E
100
AcDbEntity
  8
TEXT
100
AcDbText
 10
48.6916848457656
 20
30.24207008275041
 30
0.0
 40
0.4999999999999999
  1
IEC529-IP65
 41
0.75
100
AcDbText
  0
TEXT
  5
80E
330
1E
100
AcDbEntity
  8
TEXT
100
AcDbText
 10
10.3272504283087
 20
33.54793581085651
 30
0.0
 40
0.4999999999999999
  1
POLYCARBONATE PLASTIC
 41
0.75
100
AcDbText
  0
LINE
  5
80F
330
1E
100
AcDbEntity
  8
TEXT
100
AcDbLine
 10
36.31718200577171
 20
36.86591363653734
 30
0.0
 11
37.97481980345799
 21
36.86591363653734
 31
0.0
  0
TEXT
  5
810
330
1E
100
AcDbEntity
  8
TEXT
100
AcDbText
 10
38.2243619280001
 20
36.032580303204
 30
0.0
 40
0.4999999999999999
  1
LIGHT GRAY OR CLEAR
 41
0.75
100
AcDbText
  0
TEXT
  5
811
330
1E
100
AcDbEntity
  8
TEXT
100
AcDbText
 10
10.3272504283087
 20
36.03769880575482
 30
0.0
 40
0.4999999999999999
  1
ABS/PC BLENDED PLASTIC
 41
0.75
100
AcDbText
  0
LINE
  5
812
330
1E
100
AcDbEntity
  8
TEXT
100
AcDbLine
 10
6.158982120301601
 20
33.54793581085651
 30
0.0
 11
10.07770830376657
 21
33.54793581085651
 31
0.0
  0
LINE
  5
813
330
1E
100
AcDbEntity
  8
TEXT
100
AcDbLine
 10
36.79755779092696
 20
36.032580303204
 30
0.0
 11
37.97481980345799
 21
36.032580303204
 31
0.0
  0
TEXT
  5
814
330
1E
100
AcDbEntity
  8
TEXT
100
AcDbText
 10
1.806223319115488
 20
36.03769880575482
 30
0.0
 40
0.4999999999999999
  1
SOLID BODY & COVER
 41
0.75
100
AcDbText
  0
TEXT
  5
815
330
1E
100
AcDbEntity
  8
TEXT
100
AcDbText
 10
1.806223319115488
 20
33.54793581085651
 30
0.0
 40
0.4999999999999999
  1
CLEAR COVER
 41
0.75
100
AcDbText
  0
TEXT
  5
816
330
1E
100
AcDbEntity
  8
TEXT
100
AcDbText
 10
34.73869462558679
 20
36.032580303204
 30
0.0
 40
0.4999999999999999
  1
COVER
 41
0.75
100
AcDbText
  0
TEXT
  5
817
330
1E
100
AcDbEntity
  8
TEXT
100
AcDbText
 10
1.191528693528681
 20
36.87103213908817
 30
0.0
 40
0.4999999999999999
  1
%%UINDOOR VERSION
 41
0.75
100
AcDbText
  0
TEXT
  5
818
330
1E
100
AcDbEntity
  8
TEXT
100
AcDbText
 10
34.73869462558679
 20
36.86591363653734
 30
0.0
 40
0.4999999999999999
  1
BODY
 41
0.75
100
AcDbText
  0
TEXT
  5
819
330
1E
100
AcDbEntity
  8
TEXT
100
AcDbText
 10
34.12399999999999
 20
37.69924696987068
 30
0.0
 40
0.4999999999999999
  1
%%UFINISH:
 41
0.75
100
AcDbText
  0
LINE
  5
81A
330
1E
100
AcDbEntity
  8
TEXT
100
AcDbLine
 10
8.70602824352106
 20
36.03769880575482
 30
0.0
 11
10.07770830376657
 21
36.03769880575482
 31
0.0
  0
TEXT
  5
81B
330
1E
100
AcDbEntity
  8
TEXT
100
AcDbText
 10
38.22436192800009
 20
36.86591363653734
 30
0.0
 40
0.4999999999999999
  1
LIGHT GRAY
 41
0.75
100
AcDbText
  0
TEXT
  5
81C
330
1E
100
AcDbEntity
  8
TEXT
100
AcDbText
 10
0.6924444444444334
 20
37.69924696987068
 30
0.0
 40
0.4999999999999999
  1
%%UMATERIAL:
 41
0.75
100
AcDbText
  0
TEXT
  5
81E
330
1E
100
AcDbEntity
  8
TEXT
100
AcDbText
 10
10.3272504283087
 20
31.88767940060012
 30
0.0
 40
0.4999999999999999
  1
UV STABILIZED
 41
0.75
100
AcDbText
  0
TEXT
  5
81F
330
1E
100
AcDbEntity
  8
TEXT
100
AcDbText
 10
10.3272504283087
 20
29.38830102108636
 30
0.0
 40
0.4999999999999999
  1
UL94-5VA FLAMMABILITY RATING
 41
0.75
100
AcDbText
  0
TEXT
  5
821
330
1E
100
AcDbEntity
  8
TEXT
100
AcDbText
 10
10.3272504283087
 20
28.5613779441633
 30
0.0
 40
0.4999999999999999
  1
UV STABILIZED
 41
0.75
100
AcDbText
  0
TEXT
  5
822
330
1E
100
AcDbEntity
  8
TEXT
100
AcDbText
 10
1.806223319115488
 20
30.22163435441972
 30
0.0
 40
0.4999999999999999
  1
SOLID BODY & COVER
 41
0.75
100
AcDbText
  0
TEXT
  5
823
330
1E
100
AcDbEntity
  8
TEXT
100
AcDbText
 10
1.191528693528681
 20
31.05496768775305
 30
0.0
 40
0.4999999999999999
  1
%%UOUTDOOR VERSION
 41
0.75
100
AcDbText
  0
TEXT
  5
824
330
1E
100
AcDbEntity
  8
TEXT
100
AcDbText
 10
10.3272504283087
 20
30.22163435441972
 30
0.0
 40
0.4999999999999999
  1
PBT/PC BLENDED PLASTIC
 41
0.75
100
AcDbText
  0
LINE
  5
825
330
1E
100
AcDbEntity
  8
TEXT
100
AcDbLine
 10
8.677373682462729
 20
30.22163435441972
 30
0.0
 11
10.07770830376657
 21
30.22163435441972
 31
0.0
  0
TEXT
  5
826
330
1E
100
AcDbEntity
  8
TEXT
100
AcDbText
 10
34.12399999999999
 20
34.81723920527966
 30
0.0
 40
0.4999999999999999
  1
COVER INCLUDES GRAY POLY-
 41
0.75
100
AcDbText
  0
LINE
  5
827
330
1E
100
AcDbEntity
  8
TITLE
100
AcDbLine
 10
8.23202686637979
 20
0.2480000000000047
 30
0.0
 11
8.232026866379811
 21
6.106288770053474
 31
0.0
  0
LINE
  5
828
330
1E
100
AcDbEntity
  8
TITLE
100
AcDbLine
 10
12.22897109861815
 20
0.2480000000000047
 30
0.0
 11
12.22897109861817
 21
6.106288770053474
 31
0.0
  0
LINE
  5
829
330
1E
100
AcDbEntity
  8
TITLE
100
AcDbLine
 10
14.70513109861815
 20
0.2480000000000047
 30
0.0
 11
14.70513109861816
 21
2.75869518716577
 31
0.0
  0
LINE
  5
82A
330
1E
100
AcDbEntity
  8
TITLE
100
AcDbLine
 10
17.18129109861815
 20
0.2480000000000047
 30
0.0
 11
17.18129109861816
 21
2.75869518716577
 31
0.0
  0
LINE
  5
82B
330
1E
100
AcDbEntity
  8
TITLE
100
AcDbLine
 10
19.65745109861815
 20
0.2480000000000047
 30
0.0
 11
19.65745109861816
 21
2.75869518716577
 31
0.0
  0
LINE
  5
82C
330
1E
100
AcDbEntity
  8
TITLE
100
AcDbLine
 10
22.13361109861816
 20
0.2480000000000047
 30
0.0
 11
22.13361109861816
 21
2.75869518716577
 31
0.0
  0
LINE
  5
82D
330
1E
100
AcDbEntity
  8
TITLE
100
AcDbLine
 10
24.60977109861815
 20
0.2480000000000047
 30
0.0
 11
24.60977109861817
 21
2.75869518716577
 31
0.0
  0
LINE
  5
82E
330
1E
100
AcDbEntity
  8
TITLE
100
AcDbLine
 10
27.08593109861815
 20
0.2480000000000047
 30
0.0
 11
27.08593109861816
 21
2.75869518716577
 31
0.0
  0
LINE
  5
82F
330
1E
100
AcDbEntity
  8
TITLE
100
AcDbLine
 10
29.56209109861815
 20
0.2480000000000047
 30
0.0
 11
29.56209109861816
 21
2.75869518716577
 31
0.0
  0
LINE
  5
830
330
1E
100
AcDbEntity
  8
TITLE
100
AcDbLine
 10
32.03825109861815
 20
0.2480000000000047
 30
0.0
 11
32.03825109861816
 21
2.75869518716577
 31
0.0
  0
LINE
  5
831
330
1E
100
AcDbEntity
  8
TITLE
100
AcDbLine
 10
34.51441109861815
 20
0.2480000000000047
 30
0.0
 11
34.51441109861816
 21
2.75869518716577
 31
0.0
  0
LINE
  5
832
330
1E
100
AcDbEntity
  8
TITLE
100
AcDbLine
 10
36.99057109861815
 20
0.2480000000000047
 30
0.0
 11
36.99057109861816
 21
2.75869518716577
 31
0.0
  0
LINE
  5
833
330
1E
100
AcDbEntity
  8
TITLE
100
AcDbLine
 10
39.46673109861815
 20
0.2480000000000047
 30
0.0
 11
39.46673109861817
 21
2.75869518716577
 31
0.0
  0
LINE
  5
834
330
1E
100
AcDbEntity
  8
TITLE
100
AcDbLine
 10
41.94289109861816
 20
0.2480000000000047
 30
0.0
 11
41.94289109861816
 21
2.75869518716577
 31
0.0
  0
LINE
  5
835
330
1E
100
AcDbEntity
  8
TITLE
100
AcDbLine
 10
44.41905109861815
 20
0.2480000000000047
 30
0.0
 11
44.41905109861816
 21
2.75869518716577
 31
0.0
  0
LINE
  5
836
330
1E
100
AcDbEntity
  8
TITLE
100
AcDbLine
 10
46.89521109861815
 20
0.2480000000000047
 30
0.0
 11
46.89521109861817
 21
2.75869518716577
 31
0.0
  0
LINE
  5
837
330
1E
100
AcDbEntity
  8
TITLE
100
AcDbLine
 10
49.37137109861816
 20
0.2480000000000047
 30
0.0
 11
49.37137109861817
 21
2.75869518716577
 31
0.0
  0
LINE
  5
838
330
1E
100
AcDbEntity
  8
TITLE
100
AcDbLine
 10
51.84753109861816
 20
0.2480000000000047
 30
0.0
 11
51.84753109861816
 21
2.75869518716577
 31
0.0
  0
LINE
  5
839
330
1E
100
AcDbEntity
  8
TITLE
100
AcDbLine
 10
54.32369109861816
 20
0.2480000000000047
 30
0.0
 11
54.32369109861816
 21
2.75869518716577
 31
0.0
  0
LINE
  5
83A
330
1E
100
AcDbEntity
  8
TITLE
100
AcDbLine
 10
56.79985109861816
 20
0.2480000000000047
 30
0.0
 11
56.79985109861816
 21
2.75869518716577
 31
0.0
  0
LINE
  5
83B
330
1E
100
AcDbEntity
  8
TITLE
100
AcDbLine
 10
59.27601109861815
 20
0.2480000000000047
 30
0.0
 11
59.27601109861817
 21
2.75869518716577
 31
0.0
  0
LWPOLYLINE
  5
83D
330
1E
100
AcDbEntity
  8
BEND
100
AcDbPolyline
 90
       10
 70
     0
 43
0.0
 10
22.46703818746988
 20
17.40091414860877
 10
19.65640518789801
 20
17.40091414860879
 10
19.56479833608275
 20
17.56243464484436
 10
19.52408417972041
 20
17.26735898702837
 10
19.4528344060863
 20
17.40091414860877
 10
16.05791381592295
 20
17.40091414860877
 10
15.96630696410769
 20
17.56243464484436
 10
15.92559280774534
 20
17.26735898702837
 10
15.85434303411124
 20
17.40091414860877
 10
14.72003818746987
 20
17.40091414860877
  0
TEXT
  5
849
330
1E
100
AcDbEntity
  8
DIM
100
AcDbText
 10
10.88678818746988
 20
13.26723368260894
 30
0.0
 40
0.5
  1
(INSIDE)
 41
0.75
 72
     1
 11
12.07428818746988
 21
13.51723368260894
 31
0.0
100
AcDbText
 73
     2
  0
TEXT
  5
84B
330
1E
100
AcDbEntity
  8
TEXT
100
AcDbText
 10
34.12399999999999
 20
33.98374001477967
 30
0.0
 40
0.4999999999999999
  1
  URETHANE GASKET.
 41
0.75
100
AcDbText
  0
TEXT
  5
855
330
1E
100
AcDbEntity
  8
TEXT
100
AcDbText
 10
56.53155587129825
 20
-0.6442547027812531
 30
0.0
 40
0.4999995
  1
Revised 26JUN07
 41
0.75
 72
     4
 11
59.12530327754826
 21
-0.3942549527812531
 31
0.0
100
AcDbText
  0
TEXT
  5
864
330
1E
100
AcDbEntity
  8
DIM
100
AcDbText
 10
45.59541108825932
 20
7.360399938762498
 30
0.0
 40
0.5
  1
BOSSES ACCEPT M6 METRIC OR 0.250" STD. SHEET
 41
0.75
 11
45.59541108825932
 21
7.610399938762498
 31
0.0
100
AcDbText
 73
     2
  0
TEXT
  5
865
330
1E
100
AcDbEntity
  8
DIM
100
AcDbText
 10
45.59541108825932
 20
8.193733272095826
 30
0.0
 40
0.5
  1
HOLE x 0.375 [10] DEEP (32) PLACES
 41
0.75
 11
45.59541108825932
 21
8.443733272095826
 31
0.0
100
AcDbText
 73
     2
  0
TEXT
  5
866
330
1E
100
AcDbEntity
  8
DIM
100
AcDbText
 10
45.59541108825932
 20
9.027066605429169
 30
0.0
 40
0.5
  1
0.420 [11] DIA. BOSS WITH 0.205 [5] DIA.
 41
0.75
 11
45.59541108825932
 21
9.277066605429169
 31
0.0
100
AcDbText
 73
     2
  0
LWPOLYLINE
  5
867
330
1E
100
AcDbEntity
  8
DIM
100
AcDbPolyline
 90
        4
 70
     0
 10
42.12876035562478
 20
10.8772386937824
 40
0.0
 41
0.27
 10
42.62680629659741
 20
10.52618335232443
 40
0.0
 41
0.0
 10
44.51541108825932
 20
9.277066605429169
 40
0.0
 41
0.0
 10
45.23541108825932
 20
9.277066605429169
 40
0.0
 41
0.0
  0
TEXT
  5
868
330
1E
100
AcDbEntity
  8
DIM
100
AcDbText
 10
45.59541108825932
 20
6.527066605429169
 30
0.0
 40
0.5
  1
METAL SCREWS x 0.375 [9] LG. (NOT SUPPLIED)
 41
0.75
 11
45.59541108825932
 21
6.777066605429169
 31
0.0
100
AcDbText
 73
     2
  0
LWPOLYLINE
  5
86E
330
1E
100
AcDbEntity
  8
DIM
100
AcDbPolyline
 90
        4
 70
     0
 10
43.0108126615702
 20
11.52953886578267
 40
0.0
 41
0.27
 10
43.29684470624036
 20
12.14959354006188
 40
0.0
 41
0.0
 10
44.69063561641445
 20
15.60195393640678
 40
0.0
 41
0.0
 10
45.41003831011169
 20
15.60195393640678
 40
0.0
 41
0.0
  0
TEXT
  5
86F
330
1E
100
AcDbEntity
  8
DIM
100
AcDbText
 10
45.70326246706329
 20
15.35491657260187
 30
0.0
 40
0.499585203956422
  1
0.564 [14] DIA. BOSS
 41
0.75
 11
45.70326246706329
 21
15.60470917458008
 31
0.0
100
AcDbText
 73
     2
  0
TEXT
  5
870
330
1E
100
AcDbEntity
  8
DIM
100
AcDbText
 10
45.70326246706329
 20
13.71344612080239
 30
0.0
 40
0.499585203956422
  1
THREADED BRASS INSERT
 41
0.75
 11
45.70326246706329
 21
13.96323872278061
 31
0.0
100
AcDbText
 73
     2
  0
TEXT
  5
871
330
1E
100
AcDbEntity
  8
DIM
100
AcDbText
 10
45.70326246706329
 20
12.90461767559694
 30
0.0
 40
0.499585203956422
  1
(4) PLACES
 41
0.75
 11
45.70326246706329
 21
13.15441027757516
 31
0.0
100
AcDbText
 73
     2
  0
TEXT
  5
872
330
1E
100
AcDbEntity
  8
DIM
100
AcDbText
 10
45.70326246706329
 20
14.52227456600783
 30
0.0
 40
0.499585203956422
  1
WITH M5 x 0.8mm
 41
0.75
 11
45.70326246706329
 21
14.77206716798604
 31
0.0
100
AcDbText
 73
     2
  0
ENDSEC
  0
SECTION
  2
OBJECTS
  0
DICTIONARY
  5
C
330
0
100
AcDbDictionary
281
     1
  3
ACAD_GROUP
350
D
  3
ACAD_LAYOUT
350
19
  3
ACAD_MLINESTYLE
350
16
  3
ACAD_PLOTSETTINGS
350
18
  3
ACAD_PLOTSTYLENAME
350
E
  0
DICTIONARY
  5
D
102
{ACAD_REACTORS
330
C
102
}
330
C
100
AcDbDictionary
281
     1
  0
DICTIONARY
  5
19
102
{ACAD_REACTORS
330
C
102
}
330
C
100
AcDbDictionary
281
     1
  3
Layout1
350
1D
  3
Model
350
21
  0
DICTIONARY
  5
16
102
{ACAD_REACTORS
330
C
102
}
330
C
100
AcDbDictionary
281
     1
  3
Standard
350
17
  0
DICTIONARY
  5
18
102
{ACAD_REACTORS
330
C
102
}
330
C
100
AcDbDictionary
281
     1
  0
ACDBDICTIONARYWDFLT
  5
E
102
{ACAD_REACTORS
330
C
102
}
330
C
100
AcDbDictionary
281
     1
  3
Normal
350
F
100
AcDbDictionaryWithDefault
340
F
  0
LAYOUT
  5
1D
102
{ACAD_REACTORS
330
19
102
}
330
19
100
AcDbPlotSettings
  1

  2
None
  4

  6

 40
0.0
 41
0.0
 42
0.0
 43
0.0
 44
0.0
 45
0.0
 46
0.0
 47
0.0
 48
0.0
 49
0.0
140
0.0
141
0.0
142
1.0
143
1.0
 70
   688
 72
     0
 73
     0
 74
     5
  7
monochrome.ctb
 75
    16
147
1.0
148
0.0
149
0.0
100
AcDbLayout
  1
Layout1
 70
     1
 71
     1
 10
0.0
 20
0.0
 11
12.0
 21
9.0
 12
0.0
 22
0.0
 32
0.0
 14
1.000000000000000E+20
 24
1.000000000000000E+20
 34
1.000000000000000E+20
 15
-1.000000000000000E+20
 25
-1.000000000000000E+20
 35
-1.000000000000000E+20
146
0.0
 13
0.0
 23
0.0
 33
0.0
 16
1.0
 26
0.0
 36
0.0
 17
0.0
 27
1.0
 37
0.0
 76
     0
330
1A
  0
LAYOUT
  5
21
102
{ACAD_REACTORS
330
19
102
}
330
19
100
AcDbPlotSettings
  1

  2
RICOH Aficio 1060 PCL 6
  4
Letter
  6

 40
5.027083396911621
 41
5.027085304260253
 42
5.027084350585937
 43
5.027069091796875
 44
215.8999938964843
 45
279.3999938964843
 46
13.71599999999999
 47
0.0
 48
0.0
 49
0.0
140
0.0
141
0.0
142
1.0
143
5.847215766860556
 70
 11956
 72
     0
 73
     1
 74
     1
  7
monochrome.ctb
 75
     0
147
0.1710215664808471
148
0.0133532079360237
149
16.4118848589122
100
AcDbLayout
  1
Model
 70
     1
 71
     0
 10
0.0
 20
0.0
 11
12.0
 21
9.0
 12
0.0
 22
0.0
 32
0.0
 14
0.0
 24
0.0
 34
0.0
 15
0.0
 25
0.0
 35
0.0
146
0.0
 13
0.0
 23
0.0
 33
0.0
 16
1.0
 26
0.0
 36
0.0
 17
0.0
 27
1.0
 37
0.0
 76
     0
330
1E
  0
MLINESTYLE
  5
17
102
{ACAD_REACTORS
330
16
102
}
330
16
100
AcDbMlineStyle
  2
STANDARD
 70
     0
  3

 62
   256
 51
90.0
 52
90.0
 71
     2
 49
0.5
 62
   256
  6
BYLAYER
 49
-0.5
 62
   256
  6
BYLAYER
  0
ACDBPLACEHOLDER
  5
F
102
{ACAD_REACTORS
330
E
102
}
330
E
  0
ENDSEC
  0
EOF
