  0
SECTION
  2
HEADER
  9
$ACADVER
  1
AC1015
  9
$ACADMAINTVER
 70
     6
  9
$DWGCODEPAGE
  3
ANSI_1252
  9
$INSBASE
 10
0.0
 20
0.0
 30
0.0
  9
$EXTMIN
 10
0.0
 20
-0.7187231682026703
 30
0.0
  9
$EXTMAX
 10
69.75
 20
45.53999999999999
 30
0.0
  9
$LIMMIN
 10
0.0
 20
0.0
  9
$LIMMAX
 10
69.75
 20
45.53999999999999
  9
$ORTHOMODE
 70
     0
  9
$REGENMODE
 70
     1
  9
$FILLMODE
 70
     1
  9
$QTEXTMODE
 70
     0
  9
$MIRRTEXT
 70
     0
  9
$LTSCALE
 40
1.25
  9
$ATTMODE
 70
     1
  9
$TEXTSIZE
 40
0.5
  9
$TRACEWID
 40
0.05
  9
$TEXTSTYLE
  7
TXT
  9
$CLAYER
  8
OBJECT
  9
$CELTYPE
  6
ByLayer
  9
$CECOLOR
 62
   256
  9
$CELTSCALE
 40
1.0
  9
$DISPSILH
 70
     0
  9
$DIMSCALE
 40
4.5
  9
$DIMASZ
 40
0.18
  9
$DIMEXO
 40
0.063
  9
$DIMDLI
 40
0.25
  9
$DIMRND
 40
0.0
  9
$DIMDLE
 40
0.0
  9
$DIMEXE
 40
0.093
  9
$DIMTP
 40
0.0
  9
$DIMTM
 40
0.0
  9
$DIMTXT
 40
0.125
  9
$DIMCEN
 40
0.09
  9
$DIMTSZ
 40
0.0
  9
$DIMTOL
 70
     0
  9
$DIMLIM
 70
     0
  9
$DIMTIH
 70
     1
  9
$DIMTOH
 70
     1
  9
$DIMSE1
 70
     0
  9
$DIMSE2
 70
     0
  9
$DIMTAD
 70
     0
  9
$DIMZIN
 70
     0
  9
$DIMBLK
  1

  9
$DIMASO
 70
     1
  9
$DIMSHO
 70
     1
  9
$DIMPOST
  1

  9
$DIMAPOST
  1

  9
$DIMALT
 70
     1
  9
$DIMALTD
 70
     0
  9
$DIMALTF
 40
25.4
  9
$DIMLFAC
 40
1.0
  9
$DIMTOFL
 70
     0
  9
$DIMTVP
 40
0.0
  9
$DIMTIX
 70
     0
  9
$DIMSOXD
 70
     0
  9
$DIMSAH
 70
     0
  9
$DIMBLK1
  1

  9
$DIMBLK2
  1

  9
$DIMSTYLE
  2
23NSTD
  9
$DIMCLRD
 70
     0
  9
$DIMCLRE
 70
     0
  9
$DIMCLRT
 70
     0
  9
$DIMTFAC
 40
1.0
  9
$DIMGAP
 40
0.09
  9
$DIMJUST
 70
     0
  9
$DIMSD1
 70
     0
  9
$DIMSD2
 70
     0
  9
$DIMTOLJ
 70
     1
  9
$DIMTZIN
 70
     0
  9
$DIMALTZ
 70
     0
  9
$DIMALTTZ
 70
     0
  9
$DIMUPT
 70
     0
  9
$DIMDEC
 70
     3
  9
$DIMTDEC
 70
     3
  9
$DIMALTU
 70
     2
  9
$DIMALTTD
 70
     0
  9
$DIMTXSTY
  7
TXT
  9
$DIMAUNIT
 70
     0
  9
$DIMADEC
 70
     0
  9
$DIMALTRND
 40
0.0
  9
$DIMAZIN
 70
     0
  9
$DIMDSEP
 70
    46
  9
$DIMATFIT
 70
     1
  9
$DIMFRAC
 70
     0
  9
$DIMLDRBLK
  1

  9
$DIMLUNIT
 70
     2
  9
$DIMLWD
 70
    -2
  9
$DIMLWE
 70
    -2
  9
$DIMTMOVE
 70
     0
  9
$LUNITS
 70
     2
  9
$LUPREC
 70
     3
  9
$SKETCHINC
 40
0.1
  9
$FILLETRAD
 40
0.0
  9
$AUNITS
 70
     0
  9
$AUPREC
 70
     0
  9
$MENU
  1
acad
  9
$ELEVATION
 40
0.0
  9
$PELEVATION
 40
0.0
  9
$THICKNESS
 40
0.0
  9
$LIMCHECK
 70
     0
  9
$CHAMFERA
 40
0.0
  9
$CHAMFERB
 40
0.0
  9
$CHAMFERC
 40
0.0
  9
$CHAMFERD
 40
0.0
  9
$SKPOLY
 70
     0
  9
$TDCREATE
 40
2451066.431661574
  9
$TDUCREATE
 40
2451066.598328240
  9
$TDUPDATE
 40
2454306.464561632
  9
$TDUUPDATE
 40
2454306.631228298
  9
$TDINDWG
 40
1.1404541435
  9
$TDUSRTIMER
 40
1.1404541435
  9
$USRTIMER
 70
     1
  9
$ANGBASE
 50
0.0
  9
$ANGDIR
 70
     0
  9
$PDMODE
 70
     0
  9
$PDSIZE
 40
0.0
  9
$PLINEWID
 40
0.0
  9
$SPLFRAME
 70
     0
  9
$SPLINETYPE
 70
     6
  9
$SPLINESEGS
 70
     8
  9
$HANDSEED
  5
A2E
  9
$SURFTAB1
 70
     6
  9
$SURFTAB2
 70
     6
  9
$SURFTYPE
 70
     6
  9
$SURFU
 70
     6
  9
$SURFV
 70
     6
  9
$UCSBASE
  2

  9
$UCSNAME
  2

  9
$UCSORG
 10
0.0
 20
0.0
 30
0.0
  9
$UCSXDIR
 10
1.0
 20
0.0
 30
0.0
  9
$UCSYDIR
 10
0.0
 20
1.0
 30
0.0
  9
$UCSORTHOREF
  2

  9
$UCSORTHOVIEW
 70
     0
  9
$UCSORGTOP
 10
0.0
 20
0.0
 30
0.0
  9
$UCSORGBOTTOM
 10
0.0
 20
0.0
 30
0.0
  9
$UCSORGLEFT
 10
0.0
 20
0.0
 30
0.0
  9
$UCSORGRIGHT
 10
0.0
 20
0.0
 30
0.0
  9
$UCSORGFRONT
 10
0.0
 20
0.0
 30
0.0
  9
$UCSORGBACK
 10
0.0
 20
0.0
 30
0.0
  9
$PUCSBASE
  2

  9
$PUCSNAME
  2

  9
$PUCSORG
 10
0.0
 20
0.0
 30
0.0
  9
$PUCSXDIR
 10
1.0
 20
0.0
 30
0.0
  9
$PUCSYDIR
 10
0.0
 20
1.0
 30
0.0
  9
$PUCSORTHOREF
  2

  9
$PUCSORTHOVIEW
 70
     0
  9
$PUCSORGTOP
 10
0.0
 20
0.0
 30
0.0
  9
$PUCSORGBOTTOM
 10
0.0
 20
0.0
 30
0.0
  9
$PUCSORGLEFT
 10
0.0
 20
0.0
 30
0.0
  9
$PUCSORGRIGHT
 10
0.0
 20
0.0
 30
0.0
  9
$PUCSORGFRONT
 10
0.0
 20
0.0
 30
0.0
  9
$PUCSORGBACK
 10
0.0
 20
0.0
 30
0.0
  9
$USERI1
 70
     0
  9
$USERI2
 70
     0
  9
$USERI3
 70
     0
  9
$USERI4
 70
     0
  9
$USERI5
 70
     0
  9
$USERR1
 40
0.0
  9
$USERR2
 40
0.0
  9
$USERR3
 40
0.0
  9
$USERR4
 40
0.0
  9
$USERR5
 40
0.0
  9
$WORLDVIEW
 70
     0
  9
$SHADEDGE
 70
     3
  9
$SHADEDIF
 70
    70
  9
$TILEMODE
 70
     1
  9
$MAXACTVP
 70
    16
  9
$PINSBASE
 10
0.0
 20
0.0
 30
0.0
  9
$PLIMCHECK
 70
     0
  9
$PEXTMIN
 10
1.000000000000000E+20
 20
1.000000000000000E+20
 30
1.000000000000000E+20
  9
$PEXTMAX
 10
-1.000000000000000E+20
 20
-1.000000000000000E+20
 30
-1.000000000000000E+20
  9
$PLIMMIN
 10
0.0
 20
0.0
  9
$PLIMMAX
 10
12.0
 20
9.0
  9
$UNITMODE
 70
     0
  9
$VISRETAIN
 70
     0
  9
$PLINEGEN
 70
     0
  9
$PSLTSCALE
 70
     1
  9
$TREEDEPTH
 70
  3020
  9
$CMLSTYLE
  2
Standard
  9
$CMLJUST
 70
     0
  9
$CMLSCALE
 40
1.0
  9
$PROXYGRAPHICS
 70
     1
  9
$MEASUREMENT
 70
     0
  9
$CELWEIGHT
370
    -1
  9
$ENDCAPS
280
     0
  9
$JOINSTYLE
280
     0
  9
$LWDISPLAY
290
     0
  9
$INSUNITS
 70
     0
  9
$HYPERLINKBASE
  1

  9
$STYLESHEET
  1
monochrome.ctb
  9
$XEDIT
290
     1
  9
$CEPSNTYPE
380
     0
  9
$PSTYLEMODE
290
     1
  9
$FINGERPRINTGUID
  2
{A2FF7FB4-8128-4FA3-91DB-D896A0DFBD16}
  9
$VERSIONGUID
  2
{0F6E47EF-9E46-49E8-80B7-C8DB49C35A06}
  9
$EXTNAMES
290
     1
  9
$PSVPSCALE
 40
0.0
  9
$OLESTARTUP
290
     0
  0
ENDSEC
  0
SECTION
  2
CLASSES
  0
CLASS
  1
ACDBDICTIONARYWDFLT
  2
AcDbDictionaryWithDefault
  3
AutoCAD 2000
 90
        0
280
     0
281
     0
  0
CLASS
  1
ACDBPLACEHOLDER
  2
AcDbPlaceHolder
  3
AutoCAD 2000
 90
        0
280
     0
281
     0
  0
CLASS
  1
LAYOUT
  2
AcDbLayout
  3
AutoCAD 2000
 90
        0
280
     0
281
     0
  0
ENDSEC
  0
SECTION
  2
TABLES
  0
TABLE
  2
VPORT
  5
8
330
0
100
AcDbSymbolTable
 70
     2
  0
VPORT
  5
A2D
330
8
100
AcDbSymbolTableRecord
100
AcDbViewportTableRecord
  2
*Active
 70
     0
 10
0.0
 20
0.0
 11
1.0
 21
1.0
 12
34.87500048722784
 22
22.41063873903183
 13
0.0
 23
0.0
 14
0.125
 24
0.125
 15
1.0
 25
1.0
 16
0.0
 26
0.0
 36
1.0
 17
0.0
 27
0.0
 37
0.0
 40
46.72273587300975
 41
1.824707846410684
 42
50.0
 43
0.0
 44
0.0
 50
0.0
 51
0.0
 71
     0
 72
   100
 73
     1
 74
     0
 75
     0
 76
     0
 77
     0
 78
     0
281
     0
 65
     1
110
0.0
120
0.0
130
0.0
111
1.0
121
0.0
131
0.0
112
0.0
122
1.0
132
0.0
 79
     0
146
0.0
  0
ENDTAB
  0
TABLE
  2
LTYPE
  5
5
330
0
100
AcDbSymbolTable
 70
     7
  0
LTYPE
  5
13
330
5
100
AcDbSymbolTableRecord
100
AcDbLinetypeTableRecord
  2
ByBlock
 70
     0
  3

 72
    65
 73
     0
 40
0.0
  0
LTYPE
  5
14
330
5
100
AcDbSymbolTableRecord
100
AcDbLinetypeTableRecord
  2
ByLayer
 70
     0
  3

 72
    65
 73
     0
 40
0.0
  0
LTYPE
  5
15
330
5
100
AcDbSymbolTableRecord
100
AcDbLinetypeTableRecord
  2
CONTINUOUS
 70
     0
  3
Solid line
 72
    65
 73
     0
 40
0.0
  0
LTYPE
  5
44
330
5
100
AcDbSymbolTableRecord
100
AcDbLinetypeTableRecord
  2
HIDDEN
 70
     0
  3
_ _ _ _ _ _ _ _ _ _ _ _ _ _ _ _ _ _ _ _ _ _ _
 72
    65
 73
     2
 40
0.375
 49
0.25
 74
     0
 49
-0.125
 74
     0
  0
LTYPE
  5
45
330
5
100
AcDbSymbolTableRecord
100
AcDbLinetypeTableRecord
  2
PHANTOM
 70
     0
  3
_____ _ _ _____ _ _ _____ _ _ _____ _ _ ____
 72
    65
 73
     6
 40
2.5
 49
1.25
 74
     0
 49
-0.25
 74
     0
 49
0.25
 74
     0
 49
-0.25
 74
     0
 49
0.25
 74
     0
 49
-0.25
 74
     0
  0
LTYPE
  5
46
330
5
100
AcDbSymbolTableRecord
100
AcDbLinetypeTableRecord
  2
CENTER
 70
     0
  3
____ _ ____ _ ____ _ ____ _ ____ _ ____ _ ____
 72
    65
 73
     4
 40
2.0
 49
1.25
 74
     0
 49
-0.25
 74
     0
 49
0.25
 74
     0
 49
-0.25
 74
     0
  0
LTYPE
  5
47
330
5
100
AcDbSymbolTableRecord
100
AcDbLinetypeTableRecord
  2
HIDDEN2
 70
     0
  3
_ _ _ _ _ _ _ _ _ _ _ _ _ _ _ _ _ _ _ _ _ _ _ _
 72
    65
 73
     2
 40
0.1875
 49
0.125
 74
     0
 49
-0.0625
 74
     0
  0
LTYPE
  5
48
330
5
100
AcDbSymbolTableRecord
100
AcDbLinetypeTableRecord
  2
PHANTOM2
 70
     0
  3
___ _ _ ___ _ _ ___ _ _ ___ _ _ ___ _ _ ___ _ _
 72
    65
 73
     6
 40
1.25
 49
0.625
 74
     0
 49
-0.125
 74
     0
 49
0.125
 74
     0
 49
-0.125
 74
     0
 49
0.125
 74
     0
 49
-0.125
 74
     0
  0
LTYPE
  5
49
330
5
100
AcDbSymbolTableRecord
100
AcDbLinetypeTableRecord
  2
CENTER2
 70
     0
  3
___ _ ___ _ ___ _ ___ _ ___ _ ___ _ ___ _ ___ _
 72
    65
 73
     4
 40
1.125
 49
0.75
 74
     0
 49
-0.125
 74
     0
 49
0.125
 74
     0
 49
-0.125
 74
     0
  0
ENDTAB
  0
TABLE
  2
LAYER
  5
2
330
0
100
AcDbSymbolTable
 70
     9
  0
LAYER
  5
10
330
2
100
AcDbSymbolTableRecord
100
AcDbLayerTableRecord
  2
0
 70
     0
 62
     7
  6
CONTINUOUS
370
    -3
390
F
  0
LAYER
  5
4E
330
2
100
AcDbSymbolTableRecord
100
AcDbLayerTableRecord
  2
OBJECT
 70
     0
 62
     7
  6
CONTINUOUS
370
    -3
390
F
  0
LAYER
  5
4F
330
2
100
AcDbSymbolTableRecord
100
AcDbLayerTableRecord
  2
DIM
 70
     0
 62
     7
  6
CONTINUOUS
370
    -3
390
F
  0
LAYER
  5
50
330
2
100
AcDbSymbolTableRecord
100
AcDbLayerTableRecord
  2
HIDDEN
 70
     0
 62
     7
  6
HIDDEN2
370
    -3
390
F
  0
LAYER
  5
51
330
2
100
AcDbSymbolTableRecord
100
AcDbLayerTableRecord
  2
BEND
 70
     0
 62
     7
  6
PHANTOM
370
    -3
390
F
  0
LAYER
  5
52
330
2
100
AcDbSymbolTableRecord
100
AcDbLayerTableRecord
  2
TEXT
 70
     0
 62
     7
  6
CONTINUOUS
370
    -3
390
F
  0
LAYER
  5
53
330
2
100
AcDbSymbolTableRecord
100
AcDbLayerTableRecord
  2
TITLE
 70
     0
 62
     7
  6
CONTINUOUS
370
    -3
390
F
  0
LAYER
  5
54
330
2
100
AcDbSymbolTableRecord
100
AcDbLayerTableRecord
  2
CENTER
 70
     0
 62
     7
  6
CENTER
370
    -3
390
F
  0
LAYER
  5
55
330
2
100
AcDbSymbolTableRecord
100
AcDbLayerTableRecord
  2
DEFPOINTS
 70
     0
 62
     7
  6
CONTINUOUS
290
     0
370
    -3
390
F
  0
ENDTAB
  0
TABLE
  2
STYLE
  5
3
330
0
100
AcDbSymbolTable
 70
     1
  0
STYLE
  5
11
330
3
100
AcDbSymbolTableRecord
100
AcDbTextStyleTableRecord
  2
TXT
 70
     0
 40
0.0
 41
0.75
 50
0.0
 71
     0
 42
0.5
  3
txt
  4

  0
ENDTAB
  0
TABLE
  2
VIEW
  5
6
330
0
100
AcDbSymbolTable
 70
     0
  0
ENDTAB
  0
TABLE
  2
UCS
  5
7
330
0
100
AcDbSymbolTable
 70
     0
  0
ENDTAB
  0
TABLE
  2
APPID
  5
9
330
0
100
AcDbSymbolTable
 70
     1
  0
APPID
  5
12
330
9
100
AcDbSymbolTableRecord
100
AcDbRegAppTableRecord
  2
ACAD
 70
     0
  0
ENDTAB
  0
TABLE
  2
DIMSTYLE
  5
A
330
0
100
AcDbSymbolTable
 70
     2
100
AcDbDimStyleTable
 71
     2
340
4D
340
4C
  0
DIMSTYLE
105
4C
102
{ACAD_REACTORS
330
2A8
330
2A9
330
2AA
330
2AB
330
2AC
330
2AD
330
2AE
330
2AF
330
2B0
330
2B1
330
2B2
330
2B3
330
2B6
330
2B7
330
2CB
330
2EC
330
2ED
330
2EE
330
3F2
330
3F3
330
43F
330
440
330
457
330
458
330
459
102
}
330
A
100
AcDbSymbolTableRecord
100
AcDbDimStyleTableRecord
  2
23NSTD
 70
     0
 40
4.5
 42
0.063
 43
0.25
 44
0.093
140
0.125
170
     1
171
     0
271
     3
272
     3
274
     0
289
     1
340
11
  0
DIMSTYLE
105
4D
102
{ACAD_REACTORS
330
2B4
330
2B5
330
2EB
330
2EF
330
2F0
330
456
102
}
330
A
100
AcDbSymbolTableRecord
100
AcDbDimStyleTableRecord
  2
23NSTDI
 70
     0
 40
4.5
 42
0.063
 43
0.25
 44
0.093
140
0.125
170
     1
171
     0
174
     1
271
     3
272
     3
274
     0
340
11
  0
ENDTAB
  0
TABLE
  2
BLOCK_RECORD
  5
1
330
0
100
AcDbSymbolTable
 70
    34
  0
BLOCK_RECORD
  5
1E
330
1
100
AcDbSymbolTableRecord
100
AcDbBlockTableRecord
  2
*Model_Space
340
21
  0
BLOCK_RECORD
  5
1A
330
1
100
AcDbSymbolTableRecord
100
AcDbBlockTableRecord
  2
*Paper_Space
340
1D
  0
BLOCK_RECORD
  5
22
330
1
100
AcDbSymbolTableRecord
100
AcDbBlockTableRecord
  2
HBS
340
0
102
{BLKREFS
331
803
102
}
  0
BLOCK_RECORD
  5
33
330
1
100
AcDbSymbolTableRecord
100
AcDbBlockTableRecord
  2
*X1
340
0
102
{BLKREFS
331
7F7
102
}
  0
BLOCK_RECORD
  5
34
330
1
100
AcDbSymbolTableRecord
100
AcDbBlockTableRecord
  2
*X2
340
0
102
{BLKREFS
331
7F8
102
}
  0
BLOCK_RECORD
  5
871
330
1
100
AcDbSymbolTableRecord
100
AcDbBlockTableRecord
  2
*D3
340
0
  0
BLOCK_RECORD
  5
87E
330
1
100
AcDbSymbolTableRecord
100
AcDbBlockTableRecord
  2
*D4
340
0
  0
BLOCK_RECORD
  5
88B
330
1
100
AcDbSymbolTableRecord
100
AcDbBlockTableRecord
  2
*D5
340
0
  0
BLOCK_RECORD
  5
898
330
1
100
AcDbSymbolTableRecord
100
AcDbBlockTableRecord
  2
*D6
340
0
  0
BLOCK_RECORD
  5
8A5
330
1
100
AcDbSymbolTableRecord
100
AcDbBlockTableRecord
  2
*D7
340
0
  0
BLOCK_RECORD
  5
8B2
330
1
100
AcDbSymbolTableRecord
100
AcDbBlockTableRecord
  2
*D8
340
0
  0
BLOCK_RECORD
  5
8BF
330
1
100
AcDbSymbolTableRecord
100
AcDbBlockTableRecord
  2
*D9
340
0
  0
BLOCK_RECORD
  5
8CC
330
1
100
AcDbSymbolTableRecord
100
AcDbBlockTableRecord
  2
*D10
340
0
  0
BLOCK_RECORD
  5
8D9
330
1
100
AcDbSymbolTableRecord
100
AcDbBlockTableRecord
  2
*D11
340
0
  0
BLOCK_RECORD
  5
8E6
330
1
100
AcDbSymbolTableRecord
100
AcDbBlockTableRecord
  2
*D12
340
0
  0
BLOCK_RECORD
  5
8F3
330
1
100
AcDbSymbolTableRecord
100
AcDbBlockTableRecord
  2
*D13
340
0
  0
BLOCK_RECORD
  5
900
330
1
100
AcDbSymbolTableRecord
100
AcDbBlockTableRecord
  2
*D14
340
0
  0
BLOCK_RECORD
  5
90D
330
1
100
AcDbSymbolTableRecord
100
AcDbBlockTableRecord
  2
*D15
340
0
  0
BLOCK_RECORD
  5
91A
330
1
100
AcDbSymbolTableRecord
100
AcDbBlockTableRecord
  2
*D16
340
0
  0
BLOCK_RECORD
  5
927
330
1
100
AcDbSymbolTableRecord
100
AcDbBlockTableRecord
  2
*D17
340
0
  0
BLOCK_RECORD
  5
934
330
1
100
AcDbSymbolTableRecord
100
AcDbBlockTableRecord
  2
*D18
340
0
  0
BLOCK_RECORD
  5
941
330
1
100
AcDbSymbolTableRecord
100
AcDbBlockTableRecord
  2
*D19
340
0
  0
BLOCK_RECORD
  5
94E
330
1
100
AcDbSymbolTableRecord
100
AcDbBlockTableRecord
  2
*D20
340
0
  0
BLOCK_RECORD
  5
95B
330
1
100
AcDbSymbolTableRecord
100
AcDbBlockTableRecord
  2
*D21
340
0
  0
BLOCK_RECORD
  5
968
330
1
100
AcDbSymbolTableRecord
100
AcDbBlockTableRecord
  2
*D22
340
0
  0
BLOCK_RECORD
  5
975
330
1
100
AcDbSymbolTableRecord
100
AcDbBlockTableRecord
  2
*D23
340
0
  0
BLOCK_RECORD
  5
982
330
1
100
AcDbSymbolTableRecord
100
AcDbBlockTableRecord
  2
*D24
340
0
  0
BLOCK_RECORD
  5
98F
330
1
100
AcDbSymbolTableRecord
100
AcDbBlockTableRecord
  2
*D25
340
0
  0
BLOCK_RECORD
  5
99C
330
1
100
AcDbSymbolTableRecord
100
AcDbBlockTableRecord
  2
*D26
340
0
  0
BLOCK_RECORD
  5
9A9
330
1
100
AcDbSymbolTableRecord
100
AcDbBlockTableRecord
  2
*D27
340
0
  0
BLOCK_RECORD
  5
9B6
330
1
100
AcDbSymbolTableRecord
100
AcDbBlockTableRecord
  2
*D28
340
0
  0
BLOCK_RECORD
  5
9C3
330
1
100
AcDbSymbolTableRecord
100
AcDbBlockTableRecord
  2
*D29
340
0
  0
BLOCK_RECORD
  5
9D0
330
1
100
AcDbSymbolTableRecord
100
AcDbBlockTableRecord
  2
*D30
340
0
  0
BLOCK_RECORD
  5
9DD
330
1
100
AcDbSymbolTableRecord
100
AcDbBlockTableRecord
  2
*D31
340
0
  0
BLOCK_RECORD
  5
9EA
330
1
100
AcDbSymbolTableRecord
100
AcDbBlockTableRecord
  2
*D32
340
0
  0
BLOCK_RECORD
  5
9F7
330
1
100
AcDbSymbolTableRecord
100
AcDbBlockTableRecord
  2
*D33
340
0
  0
ENDTAB
  0
ENDSEC
  0
SECTION
  2
BLOCKS
  0
BLOCK
  5
59
330
1E
100
AcDbEntity
  8
0
100
AcDbBlockBegin
  2
*Model_Space
 70
     0
 10
0.0
 20
0.0
 30
0.0
  3
*Model_Space
  1

  0
ENDBLK
  5
5A
330
1E
100
AcDbEntity
  8
0
100
AcDbBlockEnd
  0
BLOCK
  5
57
330
1A
100
AcDbEntity
 67
     1
  8
0
100
AcDbBlockBegin
  2
*Paper_Space
 70
     0
 10
0.0
 20
0.0
 30
0.0
  3
*Paper_Space
  1

  0
ENDBLK
  5
58
330
1A
100
AcDbEntity
 67
     1
  8
0
100
AcDbBlockEnd
  0
BLOCK
  5
5B
330
22
100
AcDbEntity
  8
0
100
AcDbBlockBegin
  2
HBS
 70
     0
 10
0.0
 20
0.0
 30
0.0
  3
HBS
  1

  0
LINE
  5
5C
330
22
100
AcDbEntity
  8
TITLE
100
AcDbLine
 10
0.0619999999999976
 20
9.64
 30
0.0
 11
15.43799999999999
 21
9.640000000000004
 31
0.0
  0
LWPOLYLINE
  5
5D
330
22
100
AcDbEntity
  8
TITLE
100
AcDbPolyline
 90
        4
 70
     1
 43
0.0
 10
15.5
 20
10.11999999999999
 10
15.49999999999999
 20
0.0
 10
0.0
 20
0.0
 10
0.0
 20
10.11999999999999
  0
LWPOLYLINE
  5
63
330
22
100
AcDbEntity
  8
TITLE
100
AcDbPolyline
 90
        4
 70
     1
 43
0.0
 10
15.43799999999999
 20
10.058
 10
15.43799999999999
 20
0.0620000000000012
 10
0.0620000000000012
 20
0.0620000000000012
 10
0.0620000000000012
 20
10.058
  0
TEXT
  5
69
330
22
100
AcDbEntity
  8
TEXT
100
AcDbText
 10
0.2078333333333345
 20
9.680079195640079
 30
0.0
 40
0.125
  1
NAME
 72
     1
 11
0.4370000000000012
 21
9.680079195640079
 31
0.0
100
AcDbText
  0
TEXT
  5
6B
330
22
100
AcDbEntity
  8
TEXT
100
AcDbText
 10
0.2078333333333345
 20
9.888412528973411
 30
0.0
 40
0.125
  1
PART
 72
     1
 11
0.4370000000000012
 21
9.888412528973411
 31
0.0
100
AcDbText
  0
LINE
  5
6C
330
22
100
AcDbEntity
  8
TITLE
100
AcDbLine
 10
0.8120000000000011
 20
9.64
 30
0.0
 11
0.8119999999999976
 21
10.058
 31
0.0
  0
TEXT
  5
6D
330
22
100
AcDbEntity
  8
TEXT
100
AcDbText
 10
7.926833333333331
 20
9.888412528973411
 30
0.0
 40
0.125
  1
PART
 72
     1
 11
8.155999999999998
 21
9.888412528973411
 31
0.0
100
AcDbText
  0
TEXT
  5
6E
330
22
100
AcDbEntity
  8
TEXT
100
AcDbText
 10
8.030999999999998
 20
9.680079195640079
 30
0.0
 40
0.125
  1
No.
 72
     1
 11
8.155999999999998
 21
9.680079195640079
 31
0.0
100
AcDbText
  0
LINE
  5
6F
330
22
100
AcDbEntity
  8
TITLE
100
AcDbLine
 10
7.780999999999998
 20
10.058
 30
0.0
 11
7.780999999999998
 21
9.64
 31
0.0
  0
LINE
  5
70
330
22
100
AcDbEntity
  8
TITLE
100
AcDbLine
 10
7.719000000000001
 20
10.058
 30
0.0
 11
7.719000000000001
 21
9.64
 31
0.0
  0
LINE
  5
71
330
22
100
AcDbEntity
  8
TITLE
100
AcDbLine
 10
8.530999999999998
 20
10.058
 30
0.0
 11
8.530999999999998
 21
9.64
 31
0.0
  0
ENDBLK
  5
72
330
22
100
AcDbEntity
  8
0
100
AcDbBlockEnd
  0
BLOCK
  5
135
330
33
100
AcDbEntity
  8
0
100
AcDbBlockBegin
  2
*X1
 70
     1
 10
0.0
 20
0.0
 30
0.0
  3
*X1
  1

  0
LINE
  5
136
330
33
100
AcDbEntity
  8
0
 62
     0
100
AcDbLine
 10
0.0
 20
2.651650429449553
 30
0.0
 11
0.1181102355001258
 21
2.769760664949679
 31
0.0
  0
LINE
  5
137
330
33
100
AcDbEntity
  8
0
 62
     0
100
AcDbLine
 10
0.0
 20
3.535533905932737
 30
0.0
 11
0.1181102355001258
 21
3.653644141432863
 31
0.0
  0
LINE
  5
138
330
33
100
AcDbEntity
  8
0
 62
     0
100
AcDbLine
 10
0.0
 20
4.419417382415922
 30
0.0
 11
0.1181102355001258
 21
4.537527617916047
 31
0.0
  0
LINE
  5
139
330
33
100
AcDbEntity
  8
0
 62
     0
100
AcDbLine
 10
0.0
 20
5.303300858899106
 30
0.0
 11
0.1181102355001258
 21
5.421411094399232
 31
0.0
  0
LINE
  5
13A
330
33
100
AcDbEntity
  8
0
 62
     0
100
AcDbLine
 10
0.0
 20
6.18718433538229
 30
0.0
 11
0.1181102355001258
 21
6.305294570882415
 31
0.0
  0
LINE
  5
13B
330
33
100
AcDbEntity
  8
0
 62
     0
100
AcDbLine
 10
0.0
 20
1.767766952966368
 30
0.0
 11
0.1181102355001258
 21
1.885877188466494
 31
0.0
  0
LINE
  5
13C
330
33
100
AcDbEntity
  8
0
 62
     0
100
AcDbLine
 10
0.1598100028510301
 20
1.043693479334214
 30
0.0
 11
0.2644540526100103
 21
1.148337529093194
 31
0.0
  0
LINE
  5
13D
330
33
100
AcDbEntity
  8
0
 62
     0
100
AcDbLine
 10
0.7709999999997237
 20
0.7709999999997237
 30
0.0
 11
0.9910000000000065
 21
0.9910000000000065
 31
0.0
  0
LINE
  5
13E
330
33
100
AcDbEntity
  8
0
 62
     0
100
AcDbLine
 10
1.013221706511131
 20
1.013221706511131
 30
0.0
 11
1.091132418449646
 21
1.091132418449646
 31
0.0
  0
LINE
  5
13F
330
33
100
AcDbEntity
  8
0
 62
     0
100
AcDbLine
 10
0.8673042808318143
 20
-0.01657919565137
 30
0.0
 11
0.9798834764829054
 21
0.0959999999997212
 31
0.0
  0
LINE
  5
140
330
33
100
AcDbEntity
  8
0
 62
     0
100
AcDbLine
 10
0.0
 20
1.878252387526766
 30
0.0
 11
0.1181102355001258
 21
1.996362623026892
 31
0.0
  0
LINE
  5
141
330
33
100
AcDbEntity
  8
0
 62
     0
100
AcDbLine
 10
0.0
 20
2.76213586400995
 30
0.0
 11
0.1181102355001258
 21
2.880246099510076
 31
0.0
  0
LINE
  5
142
330
33
100
AcDbEntity
  8
0
 62
     0
100
AcDbLine
 10
0.0
 20
3.646019340493135
 30
0.0
 11
0.1181102355001258
 21
3.764129575993261
 31
0.0
  0
LINE
  5
143
330
33
100
AcDbEntity
  8
0
 62
     0
100
AcDbLine
 10
0.0
 20
4.52990281697632
 30
0.0
 11
0.1181102355001258
 21
4.648013052476446
 31
0.0
  0
LINE
  5
144
330
33
100
AcDbEntity
  8
0
 62
     0
100
AcDbLine
 10
0.0
 20
5.413786293459503
 30
0.0
 11
0.1181102355001258
 21
5.531896528959629
 31
0.0
  0
LINE
  5
145
330
33
100
AcDbEntity
  8
0
 62
     0
100
AcDbLine
 10
0.0
 20
6.297669769942688
 30
0.0
 11
0.1181102355001258
 21
6.415780005442814
 31
0.0
  0
LINE
  5
146
330
33
100
AcDbEntity
  8
0
 62
     0
100
AcDbLine
 10
0.0876763489103446
 20
1.082045259953926
 30
0.0
 11
0.1723371774750946
 21
1.166706088518676
 31
0.0
  0
LINE
  5
147
330
33
100
AcDbEntity
  8
0
 62
     0
100
AcDbLine
 10
0.6605145654393258
 20
0.7709999999997237
 30
0.0
 11
0.9877976227196924
 21
1.09828305728009
 31
0.0
  0
LINE
  5
148
330
33
100
AcDbEntity
  8
0
 62
     0
100
AcDbLine
 10
0.7596202011030987
 20
-0.0137778408196876
 30
0.0
 11
0.8693980419225074
 21
0.0959999999997212
 31
0.0
  0
LINE
  5
149
330
33
100
AcDbEntity
  8
0
 62
     0
100
AcDbLine
 10
0.0
 20
1.988737822087164
 30
0.0
 11
0.1181102355001258
 21
2.10684805758729
 31
0.0
  0
LINE
  5
14A
330
33
100
AcDbEntity
  8
0
 62
     0
100
AcDbLine
 10
0.0
 20
2.872621298570349
 30
0.0
 11
0.1181102355001258
 21
2.990731534070474
 31
0.0
  0
LINE
  5
14B
330
33
100
AcDbEntity
  8
0
 62
     0
100
AcDbLine
 10
0.0
 20
3.756504775053533
 30
0.0
 11
0.1181102355001258
 21
3.874615010553659
 31
0.0
  0
LINE
  5
14C
330
33
100
AcDbEntity
  8
0
 62
     0
100
AcDbLine
 10
0.0
 20
4.640388251536718
 30
0.0
 11
0.1181102355001258
 21
4.758498487036844
 31
0.0
  0
LINE
  5
14D
330
33
100
AcDbEntity
  8
0
 62
     0
100
AcDbLine
 10
0.0
 20
5.524271728019901
 30
0.0
 11
0.1181102355001258
 21
5.642381963520027
 31
0.0
  0
LINE
  5
14E
330
33
100
AcDbEntity
  8
0
 62
     0
100
AcDbLine
 10
0.0
 20
6.408155204503086
 30
0.0
 11
0.1181102355001258
 21
6.526265440003212
 31
0.0
  0
LINE
  5
14F
330
33
100
AcDbEntity
  8
0
 62
     0
100
AcDbLine
 10
0.03534862253706
 20
1.14020296814104
 30
0.0
 11
0.1234267971415478
 21
1.228281142745528
 31
0.0
  0
LINE
  5
150
330
33
100
AcDbEntity
  8
0
 62
     0
100
AcDbLine
 10
0.5500291308789277
 20
0.7709999999997237
 30
0.0
 11
0.8844628269897377
 21
1.105433696110533
 31
0.0
  0
LINE
  5
151
330
33
100
AcDbEntity
  8
0
 62
     0
100
AcDbLine
 10
0.6519361213743831
 20
-0.0109764859880052
 30
0.0
 11
0.7589126073621096
 21
0.0959999999997212
 31
0.0
  0
LINE
  5
152
330
33
100
AcDbEntity
  8
0
 62
     0
100
AcDbLine
 10
0.0
 20
2.320194125768359
 30
0.0
 11
0.1181102355001258
 21
2.438304361268484
 31
0.0
  0
LINE
  5
153
330
33
100
AcDbEntity
  8
0
 62
     0
100
AcDbLine
 10
0.0
 20
3.204077602251543
 30
0.0
 11
0.1181102355001258
 21
3.322187837751668
 31
0.0
  0
LINE
  5
154
330
33
100
AcDbEntity
  8
0
 62
     0
100
AcDbLine
 10
0.0
 20
4.087961078734728
 30
0.0
 11
0.1181102355001258
 21
4.206071314234853
 31
0.0
  0
LINE
  5
155
330
33
100
AcDbEntity
  8
0
 62
     0
100
AcDbLine
 10
0.0
 20
4.971844555217912
 30
0.0
 11
0.1181102355001258
 21
5.089954790718038
 31
0.0
  0
LINE
  5
156
330
33
100
AcDbEntity
  8
0
 62
     0
100
AcDbLine
 10
0.0
 20
5.855728031701096
 30
0.0
 11
0.1181102355001258
 21
5.973838267201221
 31
0.0
  0
LINE
  5
157
330
33
100
AcDbEntity
  8
0
 62
     0
100
AcDbLine
 10
0.0
 20
1.436310649285174
 30
0.0
 11
0.1181102355001258
 21
1.5544208847853
 31
0.0
  0
LINE
  5
158
330
33
100
AcDbEntity
  8
0
 62
     0
100
AcDbLine
 10
0.2299999999999897
 20
0.7824271728019799
 30
0.0
 11
0.5744584397998742
 21
1.126885612601864
 31
0.0
  0
LINE
  5
159
330
33
100
AcDbEntity
  8
0
 62
     0
100
AcDbLine
 10
0.3288838821882361
 20
-0.0025724214929581
 30
0.0
 11
0.4274563036809154
 21
0.0959999999997212
 31
0.0
  0
LINE
  5
15A
330
33
100
AcDbEntity
  8
0
 62
     0
100
AcDbLine
 10
1.102456303680917
 20
0.7709999999997237
 30
0.0
 11
1.165678010192324
 21
0.8342217065111299
 31
0.0
  0
LINE
  5
15B
330
33
100
AcDbEntity
  8
0
 62
     0
100
AcDbLine
 10
1.190356520017961
 20
-0.0249832601464172
 30
0.0
 11
1.191000000000002
 21
-0.024339780164376
 31
0.0
  0
ENDBLK
  5
15C
330
33
100
AcDbEntity
  8
0
100
AcDbBlockEnd
  0
BLOCK
  5
15D
330
34
100
AcDbEntity
  8
0
100
AcDbBlockBegin
  2
*X2
 70
     1
 10
0.0
 20
0.0
 30
0.0
  3
*X2
  1

  0
LINE
  5
15E
330
34
100
AcDbEntity
  8
0
 62
     0
100
AcDbLine
 10
5.147622218277193
 20
1.039562117105097
 30
0.0
 11
4.931684335382377
 21
1.255499999999912
 31
0.0
  0
LINE
  5
15F
330
34
100
AcDbEntity
  8
0
 62
     0
100
AcDbLine
 10
4.76968433538237
 20
1.417499999999918
 30
0.0
 11
4.597000000000001
 21
1.590184335382288
 31
0.0
  0
LINE
  5
160
330
34
100
AcDbEntity
  8
0
 62
     0
100
AcDbLine
 10
5.191000000000001
 20
0.1123008588991042
 30
0.0
 11
5.004964776727792
 21
0.2983360821713142
 31
0.0
  0
LINE
  5
161
330
34
100
AcDbEntity
  8
0
 62
     0
100
AcDbLine
 10
4.584075282587288
 20
0.7192255763118182
 30
0.0
 11
4.3667366273882
 21
0.9365642315109059
 31
0.0
  0
LINE
  5
162
330
34
100
AcDbEntity
  8
0
 62
     0
100
AcDbLine
 10
4.396994308246161
 20
0.02242307416976
 30
0.0
 11
4.254501282975438
 21
0.1649160994404821
 31
0.0
  0
LINE
  5
163
330
34
100
AcDbEntity
  8
0
 62
     0
100
AcDbLine
 10
3.702166087444719
 20
0.7172512949712023
 30
0.0
 11
3.482853150905017
 21
0.9365642315109043
 31
0.0
  0
LINE
  5
164
330
34
100
AcDbEntity
  8
0
 62
     0
100
AcDbLine
 10
3.534346921761888
 20
0.0011869841708489
 30
0.0
 11
3.37259208783287
 21
0.1629418180998665
 31
0.0
  0
LINE
  5
165
330
34
100
AcDbEntity
  8
0
 62
     0
100
AcDbLine
 10
2.82025689230215
 20
0.7152770136305864
 30
0.0
 11
2.598969674421834
 21
0.9365642315109028
 31
0.0
  0
LINE
  5
166
330
34
100
AcDbEntity
  8
0
 62
     0
100
AcDbLine
 10
2.671699535277615
 20
-0.0200491058280622
 30
0.0
 11
2.490682892690295
 21
0.1609675367592578
 31
0.0
  0
LINE
  5
167
330
34
100
AcDbEntity
  8
0
 62
     0
100
AcDbLine
 10
1.938347697159571
 20
0.7133027322899819
 30
0.0
 11
1.715086197938652
 21
0.936564231510901
 31
0.0
  0
LINE
  5
168
330
34
100
AcDbEntity
  8
0
 62
     0
100
AcDbLine
 10
1.809052148793341
 20
-0.0412851958269732
 30
0.0
 11
1.608773697547722
 21
0.1589932554186457
 31
0.0
  0
LINE
  5
169
330
34
100
AcDbEntity
  8
0
 62
     0
100
AcDbLine
 10
5.190999999999989
 20
1.880067811865486
 30
0.0
 11
5.010999999999981
 21
2.060067811865493
 31
0.0
  0
LINE
  5
16A
330
34
100
AcDbEntity
  8
0
 62
     0
100
AcDbLine
 10
4.965067811865551
 20
2.105999999999923
 30
0.0
 11
4.838067811865553
 21
2.232999999999921
 31
0.0
  0
LINE
  5
16B
330
34
100
AcDbEntity
  8
0
 62
     0
100
AcDbLine
 10
5.131753633128751
 20
2.823197655219907
 30
0.0
 11
5.010999999999981
 21
2.943951288348677
 31
0.0
  0
LINE
  5
16C
330
34
100
AcDbEntity
  8
0
 62
     0
100
AcDbLine
 10
4.86495128834874
 20
3.089999999999918
 30
0.0
 11
4.737951288348734
 21
3.216999999999925
 31
0.0
  0
LINE
  5
16D
330
34
100
AcDbEntity
  8
0
 62
     0
100
AcDbLine
 10
5.111000000000004
 20
3.727834764831839
 30
0.0
 11
4.930834764831913
 21
3.90799999999993
 31
0.0
  0
LINE
  5
16E
330
34
100
AcDbEntity
  8
0
 62
     0
100
AcDbLine
 10
4.764834764831916
 20
4.073999999999927
 30
0.0
 11
4.707999999999997
 21
4.130834764831845
 31
0.0
  0
LINE
  5
16F
330
34
100
AcDbEntity
  8
0
 62
     0
100
AcDbLine
 10
5.111000000000004
 20
4.611718241315023
 30
0.0
 11
4.830718241315102
 21
4.891999999999924
 31
0.0
  0
LINE
  5
170
330
34
100
AcDbEntity
  8
0
 62
     0
100
AcDbLine
 10
5.111000000000004
 20
5.495601717798208
 30
0.0
 11
4.983000000000004
 21
5.623601717798208
 31
0.0
  0
LINE
  5
171
330
34
100
AcDbEntity
  8
0
 62
     0
100
AcDbLine
 10
5.137462373001787
 20
6.353022821279607
 30
0.0
 11
4.916485194281462
 21
6.573999999999933
 31
0.0
  0
LINE
  5
172
330
34
100
AcDbEntity
  8
0
 62
     0
100
AcDbLine
 10
5.111000000000005
 20
0.965698900821887
 30
0.0
 11
4.821198900821979
 21
1.255499999999912
 31
0.0
  0
LINE
  5
173
330
34
100
AcDbEntity
  8
0
 62
     0
100
AcDbLine
 10
4.659198900821972
 20
1.417499999999918
 30
0.0
 11
4.597000000000001
 21
1.47969890082189
 31
0.0
  0
LINE
  5
174
330
34
100
AcDbEntity
  8
0
 62
     0
100
AcDbLine
 10
5.111000000000005
 20
0.0818154243387039
 30
0.0
 11
4.894479342167396
 21
0.2983360821713121
 31
0.0
  0
LINE
  5
175
330
34
100
AcDbEntity
  8
0
 62
     0
100
AcDbLine
 10
4.485020990736362
 20
0.7077944336023452
 30
0.0
 11
4.256251192827802
 21
0.9365642315109056
 31
0.0
  0
LINE
  5
176
330
34
100
AcDbEntity
  8
0
 62
     0
100
AcDbLine
 10
4.289163384935627
 20
0.0197685629198961
 30
0.0
 11
4.155446991124514
 21
0.1534849567310093
 31
0.0
  0
LINE
  5
177
330
34
100
AcDbEntity
  8
0
 62
     0
100
AcDbLine
 10
3.603111795593794
 20
0.7058201522617296
 30
0.0
 11
3.372367716344619
 21
0.9365642315109042
 31
0.0
  0
LINE
  5
178
330
34
100
AcDbEntity
  8
0
 62
     0
100
AcDbLine
 10
3.426515998451354
 20
-0.001467527079015
 30
0.0
 11
3.273537795981945
 21
0.1515106753903936
 31
0.0
  0
LINE
  5
179
330
34
100
AcDbEntity
  8
0
 62
     0
100
AcDbLine
 10
2.721202600451225
 20
0.7038458709211139
 30
0.0
 11
2.488484239861436
 21
0.9365642315109024
 31
0.0
  0
LINE
  5
17A
330
34
100
AcDbEntity
  8
0
 62
     0
100
AcDbLine
 10
2.56386861196708
 20
-0.022703617077926
 30
0.0
 11
2.391628600839377
 21
0.1495363940497778
 31
0.0
  0
LINE
  5
17B
330
34
100
AcDbEntity
  8
0
 62
     0
100
AcDbLine
 10
1.839293405308646
 20
0.7018715895805088
 30
0.0
 11
1.604600763378254
 21
0.936564231510901
 31
0.0
  0
LINE
  5
17C
330
34
100
AcDbEntity
  8
0
 62
     0
100
AcDbLine
 10
1.701221225482807
 20
-0.0439397070768371
 30
0.0
 11
1.509719405696797
 21
0.1475621127091728
 31
0.0
  0
LINE
  5
17D
330
34
100
AcDbEntity
  8
0
 62
     0
100
AcDbLine
 10
5.124804547613279
 20
1.835777829691797
 30
0.0
 11
5.010999999999981
 21
1.949582377305095
 31
0.0
  0
LINE
  5
17E
330
34
100
AcDbEntity
  8
0
 62
     0
100
AcDbLine
 10
4.854582377305153
 20
2.105999999999923
 30
0.0
 11
4.727582377305145
 21
2.232999999999931
 31
0.0
  0
LINE
  5
17F
330
34
100
AcDbEntity
  8
0
 62
     0
100
AcDbLine
 10
5.111000000000002
 20
2.733465853788258
 30
0.0
 11
4.920465853788339
 21
2.923999999999921
 31
0.0
  0
LINE
  5
180
330
34
100
AcDbEntity
  8
0
 62
     0
100
AcDbLine
 10
4.754465853788342
 20
3.089999999999918
 30
0.0
 11
4.707999999999998
 21
3.136465853788262
 31
0.0
  0
LINE
  5
181
330
34
100
AcDbEntity
  8
0
 62
     0
100
AcDbLine
 10
5.111000000000004
 20
3.617349330271441
 30
0.0
 11
4.820349330271515
 21
3.907999999999929
 31
0.0
  0
LINE
  5
182
330
34
100
AcDbEntity
  8
0
 62
     0
100
AcDbLine
 10
5.111000000000004
 20
4.501232806754625
 30
0.0
 11
4.872862769607046
 21
4.739370037147583
 31
0.0
  0
LINE
  5
183
330
34
100
AcDbEntity
  8
0
 62
     0
100
AcDbLine
 10
4.8472328067547
 20
4.764999999999929
 30
0.0
 11
4.720232806754705
 21
4.891999999999924
 31
0.0
  0
LINE
  5
184
330
34
100
AcDbEntity
  8
0
 62
     0
100
AcDbLine
 10
5.111000000000004
 20
5.38511628323781
 30
0.0
 11
4.983000000000004
 21
5.51311628323781
 31
0.0
  0
LINE
  5
185
330
34
100
AcDbEntity
  8
0
 62
     0
100
AcDbLine
 10
5.111000000000004
 20
6.268999759720993
 30
0.0
 11
4.805999759721063
 21
6.573999999999934
 31
0.0
  0
LINE
  5
186
330
34
100
AcDbEntity
  8
0
 62
     0
100
AcDbLine
 10
4.776999999999993
 20
6.602999759721003
 30
0.0
 11
4.724999759721066
 21
6.654999999999929
 31
0.0
  0
LINE
  5
187
330
34
100
AcDbEntity
  8
0
 62
     0
100
AcDbLine
 10
5.111000000000004
 20
0.8552134662614896
 30
0.0
 11
4.983000000000279
 21
0.9832134662612142
 31
0.0
  0
LINE
  5
188
330
34
100
AcDbEntity
  8
0
 62
     0
100
AcDbLine
 10
4.926713466261575
 20
1.039499999999918
 30
0.0
 11
4.710713466261581
 21
1.255499999999912
 31
0.0
  0
LINE
  5
189
330
34
100
AcDbEntity
  8
0
 62
     0
100
AcDbLine
 10
5.043979848109366
 20
0.0383501416689433
 30
0.0
 11
4.815999999999995
 21
0.2663299897783147
 31
0.0
  0
LINE
  5
18A
330
34
100
AcDbEntity
  8
0
 62
     0
100
AcDbLine
 10
4.341229268717847
 20
0.7411007210604634
 30
0.0
 11
4.145765758267404
 21
0.9365642315109054
 31
0.0
  0
LINE
  5
18B
330
34
100
AcDbEntity
  8
0
 62
     0
100
AcDbLine
 10
4.181332461625093
 20
0.0171140516700322
 30
0.0
 11
4.056392699273596
 21
0.1420538140215291
 31
0.0
  0
LINE
  5
18C
330
34
100
AcDbEntity
  8
0
 62
     0
100
AcDbLine
 10
3.459320073575271
 20
0.7391264397198549
 30
0.0
 11
3.261882281784221
 21
0.9365642315109038
 31
0.0
  0
LINE
  5
18D
330
34
100
AcDbEntity
  8
0
 62
     0
100
AcDbLine
 10
3.31868507514082
 20
-0.0041220383288788
 30
0.0
 11
3.174483504131027
 21
0.1400795326809131
 31
0.0
  0
LINE
  5
18E
330
34
100
AcDbEntity
  8
0
 62
     0
100
AcDbLine
 10
2.577410878432702
 20
0.7371521583792389
 30
0.0
 11
2.377998805301039
 21
0.9365642315109022
 31
0.0
  0
LINE
  5
18F
330
34
100
AcDbEntity
  8
0
 62
     0
100
AcDbLine
 10
2.456037688656546
 20
-0.0253581283277899
 30
0.0
 11
2.292574308988459
 21
0.1381052513402977
 31
0.0
  0
LINE
  5
190
330
34
100
AcDbEntity
  8
0
 62
     0
100
AcDbLine
 10
1.695501683290129
 20
0.7351778770386269
 30
0.0
 11
1.494115328817856
 21
0.9365642315109006
 31
0.0
  0
LINE
  5
191
330
34
100
AcDbEntity
  8
0
 62
     0
100
AcDbLine
 10
1.593390302172273
 20
-0.046594218326701
 30
0.0
 11
1.410665113845879
 21
0.1361309699996927
 31
0.0
  0
LINE
  5
192
330
34
100
AcDbEntity
  8
0
 62
     0
100
AcDbLine
 10
5.110999999999997
 20
1.73909694274468
 30
0.0
 11
4.910096942744751
 21
1.939999999999926
 31
0.0
  0
LINE
  5
193
330
34
100
AcDbEntity
  8
0
 62
     0
100
AcDbLine
 10
4.744096942744755
 20
2.105999999999923
 30
0.0
 11
4.707999999999998
 21
2.14209694274468
 31
0.0
  0
LINE
  5
194
330
34
100
AcDbEntity
  8
0
 62
     0
100
AcDbLine
 10
5.110999999999999
 20
2.622980419227863
 30
0.0
 11
4.809980419227941
 21
2.923999999999921
 31
0.0
  0
LINE
  5
195
330
34
100
AcDbEntity
  8
0
 62
     0
100
AcDbLine
 10
5.111000000000004
 20
3.506863895711043
 30
0.0
 11
4.872862769607035
 21
3.745001126104011
 31
0.0
  0
LINE
  5
196
330
34
100
AcDbEntity
  8
0
 62
     0
100
AcDbLine
 10
4.836863895711127
 20
3.78099999999992
 30
0.0
 11
4.709863895711118
 21
3.907999999999929
 31
0.0
  0
LINE
  5
197
330
34
100
AcDbEntity
  8
0
 62
     0
100
AcDbLine
 10
5.111000000000004
 20
4.390747372194227
 30
0.0
 11
4.872862769607046
 21
4.628884602587185
 31
0.0
  0
LINE
  5
198
330
34
100
AcDbEntity
  8
0
 62
     0
100
AcDbLine
 10
4.736747372194302
 20
4.764999999999929
 30
0.0
 11
4.707999999999997
 21
4.793747372194234
 31
0.0
  0
LINE
  5
199
330
34
100
AcDbEntity
  8
0
 62
     0
100
AcDbLine
 10
5.111000000000004
 20
5.274630848677412
 30
0.0
 11
4.983000000000004
 21
5.402630848677412
 31
0.0
  0
LINE
  5
19A
330
34
100
AcDbEntity
  8
0
 62
     0
100
AcDbLine
 10
5.111000000000004
 20
6.158514325160595
 30
0.0
 11
4.614514325160668
 21
6.654999999999929
 31
0.0
  0
LINE
  5
19B
330
34
100
AcDbEntity
  8
0
 62
     0
100
AcDbLine
 10
5.066093244751658
 20
0.5686639178286418
 30
0.0
 11
4.698192931069393
 21
0.9365642315109067
 31
0.0
  0
LINE
  5
19C
330
34
100
AcDbEntity
  8
0
 62
     0
100
AcDbLine
 10
4.720487078177764
 20
0.0303866079193517
 30
0.0
 11
4.596401588695806
 21
0.1544720974013098
 31
0.0
  0
LINE
  5
19D
330
34
100
AcDbEntity
  8
0
 62
     0
100
AcDbLine
 10
4.044066393165085
 20
0.7068072929320304
 30
0.0
 11
3.814309454586211
 21
0.9365642315109049
 31
0.0
  0
LINE
  5
19E
330
34
100
AcDbEntity
  8
0
 62
     0
100
AcDbLine
 10
3.85783969169349
 20
0.0091505179204406
 30
0.0
 11
3.714492393553229
 21
0.1524978160607014
 31
0.0
  0
LINE
  5
19F
330
34
100
AcDbEntity
  8
0
 62
     0
100
AcDbLine
 10
3.162157198022509
 20
0.7048330115914215
 30
0.0
 11
2.930425978103028
 21
0.9365642315109033
 31
0.0
  0
LINE
  5
1A0
330
34
100
AcDbEntity
  8
0
 62
     0
100
AcDbLine
 10
2.995192305209217
 20
-0.0120855720784705
 30
0.0
 11
2.832583198410661
 21
0.1505235347200856
 31
0.0
  0
LINE
  5
1A1
330
34
100
AcDbEntity
  8
0
 62
     0
100
AcDbLine
 10
2.280248002879941
 20
0.702858730250806
 30
0.0
 11
2.046542501619845
 21
0.9365642315109017
 31
0.0
  0
LINE
  5
1A2
330
34
100
AcDbEntity
  8
0
 62
     0
100
AcDbLine
 10
2.132544918724944
 20
-0.0333216620773816
 30
0.0
 11
1.950674003268089
 21
0.1485492533794735
 31
0.0
  0
LINE
  5
1A3
330
34
100
AcDbEntity
  8
0
 62
     0
100
AcDbLine
 10
1.398338807737369
 20
0.7008844489101938
 30
0.0
 11
1.162659025136662
 21
0.9365642315109001
 31
0.0
  0
LINE
  5
1A4
330
34
100
AcDbEntity
  8
0
 62
     0
100
AcDbLine
 10
1.269897532240671
 20
-0.0545577520762927
 30
0.0
 11
1.191000000000002
 21
0.0243397801643759
 31
0.0
  0
LINE
  5
1A5
330
34
100
AcDbEntity
  8
0
 62
     0
100
AcDbLine
 10
5.191000000000001
 20
1.327640639063482
 30
0.0
 11
4.885140639063571
 21
1.633499999999912
 31
0.0
  0
LINE
  5
1A6
330
34
100
AcDbEntity
  8
0
 62
     0
100
AcDbLine
 10
5.110999999999992
 20
2.291524115546676
 30
0.0
 11
4.872862769606985
 21
2.529661345939682
 31
0.0
  0
LINE
  5
1A7
330
34
100
AcDbEntity
  8
0
 62
     0
100
AcDbLine
 10
5.191000000000002
 20
3.095407592029851
 30
0.0
 11
4.872862769607007
 21
3.413544822422846
 31
0.0
  0
LINE
  5
1A8
330
34
100
AcDbEntity
  8
0
 62
     0
100
AcDbLine
 10
5.191000000000002
 20
3.979291068513035
 30
0.0
 11
4.872862769607046
 21
4.297428298905991
 31
0.0
  0
LINE
  5
1A9
330
34
100
AcDbEntity
  8
0
 62
     0
100
AcDbLine
 10
5.191000000000002
 20
4.86317454499622
 30
0.0
 11
5.010999999999981
 21
5.04317454499624
 31
0.0
  0
LINE
  5
1AA
330
34
100
AcDbEntity
  8
0
 62
     0
100
AcDbLine
 10
4.9961745449963
 20
5.057999999999921
 30
0.0
 11
4.869174544996316
 21
5.184999999999905
 31
0.0
  0
LINE
  5
1AB
330
34
100
AcDbEntity
  8
0
 62
     0
100
AcDbLine
 10
5.111000000000004
 20
5.827058021479401
 30
0.0
 11
4.840000000000002
 21
6.098058021479403
 31
0.0
  0
ENDBLK
  5
1AC
330
34
100
AcDbEntity
  8
0
100
AcDbBlockEnd
  0
BLOCK
  5
87C
330
871
100
AcDbEntity
  8
0
100
AcDbBlockBegin
  2
*D3
 70
     1
 10
0.0
 20
0.0
 30
0.0
  3
*D3
  1

  0
LINE
  5
872
330
871
100
AcDbEntity
  8
DIM
 62
     0
370
    -2
100
AcDbLine
 10
55.38721360281773
 20
26.21565645824692
 30
0.0
 11
55.38721360281773
 21
28.02806096697802
 31
0.0
  0
LINE
  5
873
330
871
100
AcDbEntity
  8
DIM
 62
     0
370
    -2
100
AcDbLine
 10
45.30121360281772
 20
26.21565645824692
 30
0.0
 11
45.30121360281772
 21
28.02806096697802
 31
0.0
  0
LINE
  5
874
330
871
100
AcDbEntity
  8
DIM
 62
     0
370
    -2
100
AcDbLine
 10
54.57721360281773
 20
27.60956096697802
 30
0.0
 11
50.88983860281773
 21
27.60956096697802
 31
0.0
  0
LINE
  5
875
330
871
100
AcDbEntity
  8
DIM
 62
     0
370
    -2
100
AcDbLine
 10
46.11121360281773
 20
27.60956096697802
 30
0.0
 11
49.79858860281773
 21
27.60956096697802
 31
0.0
  0
SOLID
  5
876
330
871
100
AcDbEntity
  8
DIM
 62
     0
100
AcDbTrace
 10
54.57721360281773
 20
27.74456096697802
 30
0.0
 11
54.57721360281773
 21
27.47456096697802
 31
0.0
 12
55.38721360281773
 22
27.60956096697802
 32
0.0
 13
55.38721360281773
 23
27.60956096697802
 33
0.0
  0
SOLID
  5
877
330
871
100
AcDbEntity
  8
DIM
 62
     0
100
AcDbTrace
 10
46.11121360281773
 20
27.74456096697802
 30
0.0
 11
46.11121360281773
 21
27.47456096697802
 31
0.0
 12
45.30121360281772
 22
27.60956096697802
 32
0.0
 13
45.30121360281772
 23
27.60956096697802
 33
0.0
  0
MTEXT
  5
878
330
871
100
AcDbEntity
  8
DIM
 62
     0
100
AcDbMText
 10
50.34421360281773
 20
27.60956096697802
 30
0.0
 40
0.5625
 41
0.0
 71
     5
 72
     1
  1
\A1;C
 73
     1
 44
1.0
  0
POINT
  5
879
330
871
100
AcDbEntity
  8
DEFPOINTS
 62
     0
100
AcDbPoint
 10
55.38721360281773
 20
25.93215645824692
 30
0.0
  0
POINT
  5
87A
330
871
100
AcDbEntity
  8
DEFPOINTS
 62
     0
100
AcDbPoint
 10
45.30121360281772
 20
25.93215645824692
 30
0.0
  0
POINT
  5
87B
330
871
100
AcDbEntity
  8
DEFPOINTS
 62
     0
100
AcDbPoint
 10
45.30121360281772
 20
27.60956096697802
 30
0.0
  0
ENDBLK
  5
87D
330
871
100
AcDbEntity
  8
0
100
AcDbBlockEnd
  0
BLOCK
  5
889
330
87E
100
AcDbEntity
  8
0
100
AcDbBlockBegin
  2
*D4
 70
     1
 10
0.0
 20
0.0
 30
0.0
  3
*D4
  1

  0
LINE
  5
87F
330
87E
100
AcDbEntity
  8
DIM
 62
     0
370
    -2
100
AcDbLine
 10
55.87021360281768
 20
26.21353047699696
 30
0.0
 11
55.87021360281768
 21
30.27806096697802
 31
0.0
  0
LINE
  5
880
330
87E
100
AcDbEntity
  8
DIM
 62
     0
370
    -2
100
AcDbLine
 10
44.81821360281775
 20
26.21353047699696
 30
0.0
 11
44.81821360281775
 21
30.27806096697802
 31
0.0
  0
LINE
  5
881
330
87E
100
AcDbEntity
  8
DIM
 62
     0
370
    -2
100
AcDbLine
 10
55.06021360281768
 20
29.85956096697802
 30
0.0
 11
50.88983860281771
 21
29.85956096697802
 31
0.0
  0
LINE
  5
882
330
87E
100
AcDbEntity
  8
DIM
 62
     0
370
    -2
100
AcDbLine
 10
45.62821360281775
 20
29.85956096697802
 30
0.0
 11
49.79858860281772
 21
29.85956096697802
 31
0.0
  0
SOLID
  5
883
330
87E
100
AcDbEntity
  8
DIM
 62
     0
100
AcDbTrace
 10
55.06021360281768
 20
29.99456096697802
 30
0.0
 11
55.06021360281768
 21
29.72456096697802
 31
0.0
 12
55.87021360281768
 22
29.85956096697802
 32
0.0
 13
55.87021360281768
 23
29.85956096697802
 33
0.0
  0
SOLID
  5
884
330
87E
100
AcDbEntity
  8
DIM
 62
     0
100
AcDbTrace
 10
45.62821360281775
 20
29.99456096697802
 30
0.0
 11
45.62821360281775
 21
29.72456096697802
 31
0.0
 12
44.81821360281775
 22
29.85956096697802
 32
0.0
 13
44.81821360281775
 23
29.85956096697802
 33
0.0
  0
MTEXT
  5
885
330
87E
100
AcDbEntity
  8
DIM
 62
     0
100
AcDbMText
 10
50.34421360281772
 20
29.85956096697802
 30
0.0
 40
0.5625
 41
0.0
 71
     5
 72
     1
  1
\A1;A
 73
     1
 44
1.0
  0
POINT
  5
886
330
87E
100
AcDbEntity
  8
DEFPOINTS
 62
     0
100
AcDbPoint
 10
55.87021360281768
 20
25.93003047699696
 30
0.0
  0
POINT
  5
887
330
87E
100
AcDbEntity
  8
DEFPOINTS
 62
     0
100
AcDbPoint
 10
44.81821360281775
 20
25.93003047699696
 30
0.0
  0
POINT
  5
888
330
87E
100
AcDbEntity
  8
DEFPOINTS
 62
     0
100
AcDbPoint
 10
44.81821360281775
 20
29.85956096697802
 30
0.0
  0
ENDBLK
  5
88A
330
87E
100
AcDbEntity
  8
0
100
AcDbBlockEnd
  0
BLOCK
  5
896
330
88B
100
AcDbEntity
  8
0
100
AcDbBlockBegin
  2
*D5
 70
     1
 10
0.0
 20
0.0
 30
0.0
  3
*D5
  1

  0
LINE
  5
88C
330
88B
100
AcDbEntity
  8
DIM
 62
     0
370
    -2
100
AcDbLine
 10
55.38921360281775
 20
25.69528030827731
 30
0.0
 11
55.38921360281775
 21
29.15306096697802
 31
0.0
  0
LINE
  5
88D
330
88B
100
AcDbEntity
  8
DIM
 62
     0
370
    -2
100
AcDbLine
 10
45.29921360281774
 20
25.69528030827731
 30
0.0
 11
45.29921360281774
 21
29.15306096697802
 31
0.0
  0
LINE
  5
88E
330
88B
100
AcDbEntity
  8
DIM
 62
     0
370
    -2
100
AcDbLine
 10
54.57921360281774
 20
28.73456096697802
 30
0.0
 11
50.88983860281775
 21
28.73456096697802
 31
0.0
  0
LINE
  5
88F
330
88B
100
AcDbEntity
  8
DIM
 62
     0
370
    -2
100
AcDbLine
 10
46.10921360281774
 20
28.73456096697802
 30
0.0
 11
49.79858860281774
 21
28.73456096697802
 31
0.0
  0
SOLID
  5
890
330
88B
100
AcDbEntity
  8
DIM
 62
     0
100
AcDbTrace
 10
54.57921360281774
 20
28.86956096697802
 30
0.0
 11
54.57921360281774
 21
28.59956096697802
 31
0.0
 12
55.38921360281775
 22
28.73456096697802
 32
0.0
 13
55.38921360281775
 23
28.73456096697802
 33
0.0
  0
SOLID
  5
891
330
88B
100
AcDbEntity
  8
DIM
 62
     0
100
AcDbTrace
 10
46.10921360281774
 20
28.86956096697802
 30
0.0
 11
46.10921360281774
 21
28.59956096697802
 31
0.0
 12
45.29921360281774
 22
28.73456096697802
 32
0.0
 13
45.29921360281774
 23
28.73456096697802
 33
0.0
  0
MTEXT
  5
892
330
88B
100
AcDbEntity
  8
DIM
 62
     0
100
AcDbMText
 10
50.34421360281775
 20
28.73456096697802
 30
0.0
 40
0.5625
 41
0.0
 71
     5
 72
     1
  1
\A1;B
 73
     1
 44
1.0
  0
POINT
  5
893
330
88B
100
AcDbEntity
  8
DEFPOINTS
 62
     0
100
AcDbPoint
 10
55.38921360281775
 20
25.41178030827731
 30
0.0
  0
POINT
  5
894
330
88B
100
AcDbEntity
  8
DEFPOINTS
 62
     0
100
AcDbPoint
 10
45.29921360281774
 20
25.41178030827731
 30
0.0
  0
POINT
  5
895
330
88B
100
AcDbEntity
  8
DEFPOINTS
 62
     0
100
AcDbPoint
 10
45.29921360281774
 20
28.73456096697802
 30
0.0
  0
ENDBLK
  5
897
330
88B
100
AcDbEntity
  8
0
100
AcDbBlockEnd
  0
BLOCK
  5
8A3
330
898
100
AcDbEntity
  8
0
100
AcDbBlockBegin
  2
*D6
 70
     1
 10
0.0
 20
0.0
 30
0.0
  3
*D6
  1

  0
LINE
  5
899
330
898
100
AcDbEntity
  8
DIM
 62
     0
370
    -2
100
AcDbLine
 10
45.02683958406771
 20
12.99915645824698
 30
0.0
 11
40.63180649769893
 21
12.99915645824698
 31
0.0
  0
LINE
  5
89A
330
898
100
AcDbEntity
  8
DIM
 62
     0
370
    -2
100
AcDbLine
 10
45.02683958406771
 20
26.42215645824691
 30
0.0
 11
40.63180649769893
 21
26.42215645824691
 31
0.0
  0
LINE
  5
89B
330
898
100
AcDbEntity
  8
DIM
 62
     0
370
    -2
100
AcDbLine
 10
41.05030649769893
 20
13.80915645824698
 30
0.0
 11
41.05030649769894
 21
19.02440645824695
 31
0.0
  0
LINE
  5
89C
330
898
100
AcDbEntity
  8
DIM
 62
     0
370
    -2
100
AcDbLine
 10
41.05030649769894
 20
25.61215645824692
 30
0.0
 11
41.05030649769894
 21
20.39690645824695
 31
0.0
  0
SOLID
  5
89D
330
898
100
AcDbEntity
  8
DIM
 62
     0
100
AcDbTrace
 10
40.91530649769893
 20
13.80915645824698
 30
0.0
 11
41.18530649769893
 21
13.80915645824698
 31
0.0
 12
41.05030649769893
 22
12.99915645824698
 32
0.0
 13
41.05030649769893
 23
12.99915645824698
 33
0.0
  0
SOLID
  5
89E
330
898
100
AcDbEntity
  8
DIM
 62
     0
100
AcDbTrace
 10
40.91530649769894
 20
25.61215645824692
 30
0.0
 11
41.18530649769893
 21
25.61215645824692
 31
0.0
 12
41.05030649769894
 22
26.42215645824691
 32
0.0
 13
41.05030649769894
 23
26.42215645824691
 33
0.0
  0
MTEXT
  5
89F
330
898
100
AcDbEntity
  8
DIM
 62
     0
100
AcDbMText
 10
41.05030649769893
 20
19.71065645824696
 30
0.0
 40
0.5625
 41
0.0
 71
     5
 72
     1
  1
\A1;G
 73
     1
 44
1.0
  0
POINT
  5
8A0
330
898
100
AcDbEntity
  8
DEFPOINTS
 62
     0
100
AcDbPoint
 10
45.3103395840677
 20
12.99915645824698
 30
0.0
  0
POINT
  5
8A1
330
898
100
AcDbEntity
  8
DEFPOINTS
 62
     0
100
AcDbPoint
 10
45.3103395840677
 20
26.42215645824691
 30
0.0
  0
POINT
  5
8A2
330
898
100
AcDbEntity
  8
DEFPOINTS
 62
     0
100
AcDbPoint
 10
41.05030649769894
 20
26.42215645824691
 30
0.0
  0
ENDBLK
  5
8A4
330
898
100
AcDbEntity
  8
0
100
AcDbBlockEnd
  0
BLOCK
  5
8B0
330
8A5
100
AcDbEntity
  8
0
100
AcDbBlockBegin
  2
*D7
 70
     1
 10
0.0
 20
0.0
 30
0.0
  3
*D7
  1

  0
LINE
  5
8A6
330
8A5
100
AcDbEntity
  8
DIM
 62
     0
370
    -2
100
AcDbLine
 10
45.54491634519993
 20
25.94065645824692
 30
0.0
 11
41.89630649769894
 21
25.94065645824692
 31
0.0
  0
LINE
  5
8A7
330
8A5
100
AcDbEntity
  8
DIM
 62
     0
370
    -2
100
AcDbLine
 10
45.54491634520004
 20
13.48065645824692
 30
0.0
 11
41.89630649769894
 21
13.48065645824692
 31
0.0
  0
LINE
  5
8A8
330
8A5
100
AcDbEntity
  8
DIM
 62
     0
370
    -2
100
AcDbLine
 10
42.31480649769895
 20
25.13065645824692
 30
0.0
 11
42.31480649769895
 21
20.39690645824692
 31
0.0
  0
LINE
  5
8A9
330
8A5
100
AcDbEntity
  8
DIM
 62
     0
370
    -2
100
AcDbLine
 10
42.31480649769894
 20
14.29065645824692
 30
0.0
 11
42.31480649769895
 21
19.02440645824691
 31
0.0
  0
SOLID
  5
8AA
330
8A5
100
AcDbEntity
  8
DIM
 62
     0
100
AcDbTrace
 10
42.17980649769894
 20
25.13065645824692
 30
0.0
 11
42.44980649769894
 21
25.13065645824692
 31
0.0
 12
42.31480649769895
 22
25.94065645824692
 32
0.0
 13
42.31480649769895
 23
25.94065645824692
 33
0.0
  0
SOLID
  5
8AB
330
8A5
100
AcDbEntity
  8
DIM
 62
     0
100
AcDbTrace
 10
42.17980649769894
 20
14.29065645824692
 30
0.0
 11
42.44980649769893
 21
14.29065645824692
 31
0.0
 12
42.31480649769894
 22
13.48065645824692
 32
0.0
 13
42.31480649769894
 23
13.48065645824692
 33
0.0
  0
MTEXT
  5
8AC
330
8A5
100
AcDbEntity
  8
DIM
 62
     0
100
AcDbMText
 10
42.31480649769894
 20
19.71065645824692
 30
0.0
 40
0.5625
 41
0.0
 71
     5
 72
     1
  1
\A1;H
 73
     1
 44
1.0
  0
POINT
  5
8AD
330
8A5
100
AcDbEntity
  8
DEFPOINTS
 62
     0
100
AcDbPoint
 10
45.82841634519993
 20
25.94065645824692
 30
0.0
  0
POINT
  5
8AE
330
8A5
100
AcDbEntity
  8
DEFPOINTS
 62
     0
100
AcDbPoint
 10
45.82841634520003
 20
13.48065645824692
 30
0.0
  0
POINT
  5
8AF
330
8A5
100
AcDbEntity
  8
DEFPOINTS
 62
     0
100
AcDbPoint
 10
42.31480649769894
 20
13.48065645824692
 30
0.0
  0
ENDBLK
  5
8B1
330
8A5
100
AcDbEntity
  8
0
100
AcDbBlockEnd
  0
BLOCK
  5
8BD
330
8B2
100
AcDbEntity
  8
0
100
AcDbBlockBegin
  2
*D8
 70
     1
 10
0.0
 20
0.0
 30
0.0
  3
*D8
  1

  0
LINE
  5
8B3
330
8B2
100
AcDbEntity
  8
DIM
 62
     0
370
    -2
100
AcDbLine
 10
45.01771360281773
 20
25.93215645824692
 30
0.0
 11
43.16080649769894
 21
25.93215645824692
 31
0.0
  0
LINE
  5
8B4
330
8B2
100
AcDbEntity
  8
DIM
 62
     0
370
    -2
100
AcDbLine
 10
45.01771360281775
 20
13.48915645824691
 30
0.0
 11
43.16080649769893
 21
13.48915645824692
 31
0.0
  0
LINE
  5
8B5
330
8B2
100
AcDbEntity
  8
DIM
 62
     0
370
    -2
100
AcDbLine
 10
43.57930649769894
 20
25.12215645824692
 30
0.0
 11
43.57930649769894
 21
20.39690645824692
 31
0.0
  0
LINE
  5
8B6
330
8B2
100
AcDbEntity
  8
DIM
 62
     0
370
    -2
100
AcDbLine
 10
43.57930649769893
 20
14.29915645824691
 30
0.0
 11
43.57930649769894
 21
19.02440645824691
 31
0.0
  0
SOLID
  5
8B7
330
8B2
100
AcDbEntity
  8
DIM
 62
     0
100
AcDbTrace
 10
43.44430649769894
 20
25.12215645824692
 30
0.0
 11
43.71430649769894
 21
25.12215645824692
 31
0.0
 12
43.57930649769894
 22
25.93215645824692
 32
0.0
 13
43.57930649769894
 23
25.93215645824692
 33
0.0
  0
SOLID
  5
8B8
330
8B2
100
AcDbEntity
  8
DIM
 62
     0
100
AcDbTrace
 10
43.44430649769893
 20
14.29915645824691
 30
0.0
 11
43.71430649769894
 21
14.29915645824691
 31
0.0
 12
43.57930649769893
 22
13.48915645824692
 32
0.0
 13
43.57930649769893
 23
13.48915645824692
 33
0.0
  0
MTEXT
  5
8B9
330
8B2
100
AcDbEntity
  8
DIM
 62
     0
100
AcDbMText
 10
43.57930649769893
 20
19.71065645824692
 30
0.0
 40
0.5625
 41
0.0
 71
     5
 72
     1
  1
\A1;J
 73
     1
 44
1.0
  0
POINT
  5
8BA
330
8B2
100
AcDbEntity
  8
DEFPOINTS
 62
     0
100
AcDbPoint
 10
45.30121360281772
 20
25.93215645824692
 30
0.0
  0
POINT
  5
8BB
330
8B2
100
AcDbEntity
  8
DEFPOINTS
 62
     0
100
AcDbPoint
 10
45.30121360281775
 20
13.48915645824691
 30
0.0
  0
POINT
  5
8BC
330
8B2
100
AcDbEntity
  8
DEFPOINTS
 62
     0
100
AcDbPoint
 10
43.57930649769893
 20
13.48915645824692
 30
0.0
  0
ENDBLK
  5
8BE
330
8B2
100
AcDbEntity
  8
0
100
AcDbBlockEnd
  0
BLOCK
  5
8CA
330
8BF
100
AcDbEntity
  8
0
100
AcDbBlockBegin
  2
*D9
 70
     1
 10
0.0
 20
0.0
 30
0.0
  3
*D9
  1

  0
LINE
  5
8C0
330
8BF
100
AcDbEntity
  8
DIM
 62
     0
370
    -2
100
AcDbLine
 10
54.07171360281775
 20
14.10065645824691
 30
0.0
 11
67.41552460381766
 21
14.10065645824691
 31
0.0
  0
LINE
  5
8C1
330
8BF
100
AcDbEntity
  8
DIM
 62
     0
370
    -2
100
AcDbLine
 10
54.07171360281775
 20
25.32065645824691
 30
0.0
 11
67.41552460381766
 21
25.32065645824691
 31
0.0
  0
LINE
  5
8C2
330
8BF
100
AcDbEntity
  8
DIM
 62
     0
370
    -2
100
AcDbLine
 10
66.99702460381766
 20
14.91065645824691
 30
0.0
 11
66.99702460381766
 21
19.02440645824691
 31
0.0
  0
LINE
  5
8C3
330
8BF
100
AcDbEntity
  8
DIM
 62
     0
370
    -2
100
AcDbLine
 10
66.99702460381766
 20
24.51065645824691
 30
0.0
 11
66.99702460381766
 21
20.39690645824691
 31
0.0
  0
SOLID
  5
8C4
330
8BF
100
AcDbEntity
  8
DIM
 62
     0
100
AcDbTrace
 10
66.86202460381766
 20
14.91065645824691
 30
0.0
 11
67.13202460381767
 21
14.91065645824691
 31
0.0
 12
66.99702460381766
 22
14.10065645824691
 32
0.0
 13
66.99702460381766
 23
14.10065645824691
 33
0.0
  0
SOLID
  5
8C5
330
8BF
100
AcDbEntity
  8
DIM
 62
     0
100
AcDbTrace
 10
66.86202460381766
 20
24.51065645824691
 30
0.0
 11
67.13202460381767
 21
24.51065645824691
 31
0.0
 12
66.99702460381766
 22
25.32065645824691
 32
0.0
 13
66.99702460381766
 23
25.32065645824691
 33
0.0
  0
MTEXT
  5
8C6
330
8BF
100
AcDbEntity
  8
DIM
 62
     0
100
AcDbMText
 10
66.99702460381766
 20
19.71065645824692
 30
0.0
 40
0.5625
 41
0.0
 71
     5
 72
     1
  1
\A1;K
 73
     1
 44
1.0
  0
POINT
  5
8C7
330
8BF
100
AcDbEntity
  8
DEFPOINTS
 62
     0
100
AcDbPoint
 10
53.78821360281775
 20
14.10065645824691
 30
0.0
  0
POINT
  5
8C8
330
8BF
100
AcDbEntity
  8
DEFPOINTS
 62
     0
100
AcDbPoint
 10
53.78821360281775
 20
25.32065645824691
 30
0.0
  0
POINT
  5
8C9
330
8BF
100
AcDbEntity
  8
DEFPOINTS
 62
     0
100
AcDbPoint
 10
66.99702460381766
 20
25.32065645824691
 30
0.0
  0
ENDBLK
  5
8CB
330
8BF
100
AcDbEntity
  8
0
100
AcDbBlockEnd
  0
BLOCK
  5
8D7
330
8CC
100
AcDbEntity
  8
0
100
AcDbBlockBegin
  2
*D10
 70
     1
 10
0.0
 20
0.0
 30
0.0
  3
*D10
  1

  0
LINE
  5
8CD
330
8CC
100
AcDbEntity
  8
DIM
 62
     0
370
    -2
100
AcDbLine
 10
54.76021360281772
 20
14.39215645824691
 30
0.0
 11
66.15102460381766
 21
14.39215645824691
 31
0.0
  0
LINE
  5
8CE
330
8CC
100
AcDbEntity
  8
DIM
 62
     0
370
    -2
100
AcDbLine
 10
54.76021360281772
 20
25.02915645824691
 30
0.0
 11
66.15102460381766
 21
25.02915645824691
 31
0.0
  0
LINE
  5
8CF
330
8CC
100
AcDbEntity
  8
DIM
 62
     0
370
    -2
100
AcDbLine
 10
65.73252460381766
 20
15.20215645824691
 30
0.0
 11
65.73252460381766
 21
19.02440645824691
 31
0.0
  0
LINE
  5
8D0
330
8CC
100
AcDbEntity
  8
DIM
 62
     0
370
    -2
100
AcDbLine
 10
65.73252460381766
 20
24.21915645824691
 30
0.0
 11
65.73252460381766
 21
20.39690645824691
 31
0.0
  0
SOLID
  5
8D1
330
8CC
100
AcDbEntity
  8
DIM
 62
     0
100
AcDbTrace
 10
65.59752460381766
 20
15.20215645824691
 30
0.0
 11
65.86752460381767
 21
15.20215645824691
 31
0.0
 12
65.73252460381766
 22
14.39215645824691
 32
0.0
 13
65.73252460381766
 23
14.39215645824691
 33
0.0
  0
SOLID
  5
8D2
330
8CC
100
AcDbEntity
  8
DIM
 62
     0
100
AcDbTrace
 10
65.59752460381766
 20
24.21915645824691
 30
0.0
 11
65.86752460381767
 21
24.21915645824691
 31
0.0
 12
65.73252460381766
 22
25.02915645824691
 32
0.0
 13
65.73252460381766
 23
25.02915645824691
 33
0.0
  0
MTEXT
  5
8D3
330
8CC
100
AcDbEntity
  8
DIM
 62
     0
100
AcDbMText
 10
65.73252460381766
 20
19.71065645824692
 30
0.0
 40
0.5625
 41
0.0
 71
     5
 72
     1
  1
\A1;L
 73
     1
 44
1.0
  0
POINT
  5
8D4
330
8CC
100
AcDbEntity
  8
DEFPOINTS
 62
     0
100
AcDbPoint
 10
54.47671360281773
 20
14.39215645824691
 30
0.0
  0
POINT
  5
8D5
330
8CC
100
AcDbEntity
  8
DEFPOINTS
 62
     0
100
AcDbPoint
 10
54.47671360281773
 20
25.02915645824691
 30
0.0
  0
POINT
  5
8D6
330
8CC
100
AcDbEntity
  8
DEFPOINTS
 62
     0
100
AcDbPoint
 10
65.73252460381766
 20
25.02915645824691
 30
0.0
  0
ENDBLK
  5
8D8
330
8CC
100
AcDbEntity
  8
0
100
AcDbBlockEnd
  0
BLOCK
  5
8E4
330
8D9
100
AcDbEntity
  8
0
100
AcDbBlockBegin
  2
*D11
 70
     1
 10
0.0
 20
0.0
 30
0.0
  3
*D11
  1

  0
LINE
  5
8DA
330
8D9
100
AcDbEntity
  8
DIM
 62
     0
370
    -2
100
AcDbLine
 10
55.06271360281773
 20
15.07865645824692
 30
0.0
 11
64.88652460381766
 21
15.07865645824691
 31
0.0
  0
LINE
  5
8DB
330
8D9
100
AcDbEntity
  8
DIM
 62
     0
370
    -2
100
AcDbLine
 10
55.06271360281773
 20
24.34265645824692
 30
0.0
 11
64.88652460381766
 21
24.34265645824691
 31
0.0
  0
LINE
  5
8DC
330
8D9
100
AcDbEntity
  8
DIM
 62
     0
370
    -2
100
AcDbLine
 10
64.46802460381767
 20
15.88865645824691
 30
0.0
 11
64.46802460381767
 21
19.02440645824691
 31
0.0
  0
LINE
  5
8DD
330
8D9
100
AcDbEntity
  8
DIM
 62
     0
370
    -2
100
AcDbLine
 10
64.46802460381767
 20
23.53265645824691
 30
0.0
 11
64.46802460381767
 21
20.39690645824691
 31
0.0
  0
SOLID
  5
8DE
330
8D9
100
AcDbEntity
  8
DIM
 62
     0
100
AcDbTrace
 10
64.33302460381766
 20
15.88865645824691
 30
0.0
 11
64.60302460381767
 21
15.88865645824691
 31
0.0
 12
64.46802460381767
 22
15.07865645824691
 32
0.0
 13
64.46802460381767
 23
15.07865645824691
 33
0.0
  0
SOLID
  5
8DF
330
8D9
100
AcDbEntity
  8
DIM
 62
     0
100
AcDbTrace
 10
64.33302460381766
 20
23.53265645824691
 30
0.0
 11
64.60302460381767
 21
23.53265645824691
 31
0.0
 12
64.46802460381767
 22
24.34265645824691
 32
0.0
 13
64.46802460381767
 23
24.34265645824691
 33
0.0
  0
MTEXT
  5
8E0
330
8D9
100
AcDbEntity
  8
DIM
 62
     0
100
AcDbMText
 10
64.46802460381767
 20
19.71065645824692
 30
0.0
 40
0.5625
 41
0.0
 71
     5
 72
     1
  1
\A1;M
 73
     1
 44
1.0
  0
POINT
  5
8E1
330
8D9
100
AcDbEntity
  8
DEFPOINTS
 62
     0
100
AcDbPoint
 10
54.77921360281773
 20
15.07865645824692
 30
0.0
  0
POINT
  5
8E2
330
8D9
100
AcDbEntity
  8
DEFPOINTS
 62
     0
100
AcDbPoint
 10
54.77921360281773
 20
24.34265645824692
 30
0.0
  0
POINT
  5
8E3
330
8D9
100
AcDbEntity
  8
DEFPOINTS
 62
     0
100
AcDbPoint
 10
64.46802460381767
 20
24.34265645824691
 30
0.0
  0
ENDBLK
  5
8E5
330
8D9
100
AcDbEntity
  8
0
100
AcDbBlockEnd
  0
BLOCK
  5
8F1
330
8E6
100
AcDbEntity
  8
0
100
AcDbBlockBegin
  2
*D12
 70
     1
 10
0.0
 20
0.0
 30
0.0
  3
*D12
  1

  0
LINE
  5
8E7
330
8E6
100
AcDbEntity
  8
DIM
 62
     0
370
    -2
100
AcDbLine
 10
53.78821360281775
 20
13.81715645824691
 30
0.0
 11
53.78821360281775
 21
8.884728612804417
 31
0.0
  0
LINE
  5
8E8
330
8E6
100
AcDbEntity
  8
DIM
 62
     0
370
    -2
100
AcDbLine
 10
46.90021360281774
 20
13.81715645824691
 30
0.0
 11
46.90021360281774
 21
8.884728612804417
 31
0.0
  0
LINE
  5
8E9
330
8E6
100
AcDbEntity
  8
DIM
 62
     0
370
    -2
100
AcDbLine
 10
52.97821360281774
 20
9.303228612804417
 30
0.0
 11
50.88983860281775
 21
9.303228612804417
 31
0.0
  0
LINE
  5
8EA
330
8E6
100
AcDbEntity
  8
DIM
 62
     0
370
    -2
100
AcDbLine
 10
47.71021360281774
 20
9.303228612804417
 30
0.0
 11
49.79858860281774
 21
9.303228612804417
 31
0.0
  0
SOLID
  5
8EB
330
8E6
100
AcDbEntity
  8
DIM
 62
     0
100
AcDbTrace
 10
52.97821360281774
 20
9.438228612804417
 30
0.0
 11
52.97821360281774
 21
9.168228612804417
 31
0.0
 12
53.78821360281775
 22
9.303228612804417
 32
0.0
 13
53.78821360281775
 23
9.303228612804417
 33
0.0
  0
SOLID
  5
8EC
330
8E6
100
AcDbEntity
  8
DIM
 62
     0
100
AcDbTrace
 10
47.71021360281774
 20
9.438228612804417
 30
0.0
 11
47.71021360281774
 21
9.168228612804417
 31
0.0
 12
46.90021360281774
 22
9.303228612804417
 32
0.0
 13
46.90021360281774
 23
9.303228612804417
 33
0.0
  0
MTEXT
  5
8ED
330
8E6
100
AcDbEntity
  8
DIM
 62
     0
100
AcDbMText
 10
50.34421360281775
 20
9.303228612804417
 30
0.0
 40
0.5625
 41
0.0
 71
     5
 72
     1
  1
\A1;F
 73
     1
 44
1.0
  0
POINT
  5
8EE
330
8E6
100
AcDbEntity
  8
DEFPOINTS
 62
     0
100
AcDbPoint
 10
53.78821360281775
 20
14.10065645824691
 30
0.0
  0
POINT
  5
8EF
330
8E6
100
AcDbEntity
  8
DEFPOINTS
 62
     0
100
AcDbPoint
 10
46.90021360281774
 20
14.10065645824691
 30
0.0
  0
POINT
  5
8F0
330
8E6
100
AcDbEntity
  8
DEFPOINTS
 62
     0
100
AcDbPoint
 10
46.90021360281774
 20
9.303228612804417
 30
0.0
  0
ENDBLK
  5
8F2
330
8E6
100
AcDbEntity
  8
0
100
AcDbBlockEnd
  0
BLOCK
  5
8FE
330
8F3
100
AcDbEntity
  8
0
100
AcDbBlockBegin
  2
*D13
 70
     1
 10
0.0
 20
0.0
 30
0.0
  3
*D13
  1

  0
LINE
  5
8F4
330
8F3
100
AcDbEntity
  8
DIM
 62
     0
370
    -2
100
AcDbLine
 10
54.47671360281773
 20
14.10865645824691
 30
0.0
 11
54.47671360281773
 21
7.759728612804417
 31
0.0
  0
LINE
  5
8F5
330
8F3
100
AcDbEntity
  8
DIM
 62
     0
370
    -2
100
AcDbLine
 10
46.21171360281773
 20
14.10865645824691
 30
0.0
 11
46.21171360281773
 21
7.759728612804417
 31
0.0
  0
LINE
  5
8F6
330
8F3
100
AcDbEntity
  8
DIM
 62
     0
370
    -2
100
AcDbLine
 10
53.66671360281772
 20
8.178228612804417
 30
0.0
 11
50.88983860281773
 21
8.178228612804417
 31
0.0
  0
LINE
  5
8F7
330
8F3
100
AcDbEntity
  8
DIM
 62
     0
370
    -2
100
AcDbLine
 10
47.02171360281774
 20
8.178228612804417
 30
0.0
 11
49.79858860281773
 21
8.178228612804417
 31
0.0
  0
SOLID
  5
8F8
330
8F3
100
AcDbEntity
  8
DIM
 62
     0
100
AcDbTrace
 10
53.66671360281772
 20
8.313228612804417
 30
0.0
 11
53.66671360281772
 21
8.043228612804417
 31
0.0
 12
54.47671360281773
 22
8.178228612804417
 32
0.0
 13
54.47671360281773
 23
8.178228612804417
 33
0.0
  0
SOLID
  5
8F9
330
8F3
100
AcDbEntity
  8
DIM
 62
     0
100
AcDbTrace
 10
47.02171360281774
 20
8.313228612804417
 30
0.0
 11
47.02171360281774
 21
8.043228612804417
 31
0.0
 12
46.21171360281773
 22
8.178228612804417
 32
0.0
 13
46.21171360281773
 23
8.178228612804417
 33
0.0
  0
MTEXT
  5
8FA
330
8F3
100
AcDbEntity
  8
DIM
 62
     0
100
AcDbMText
 10
50.34421360281773
 20
8.178228612804417
 30
0.0
 40
0.5625
 41
0.0
 71
     5
 72
     1
  1
\A1;E
 73
     1
 44
1.0
  0
POINT
  5
8FB
330
8F3
100
AcDbEntity
  8
DEFPOINTS
 62
     0
100
AcDbPoint
 10
54.47671360281773
 20
14.39215645824691
 30
0.0
  0
POINT
  5
8FC
330
8F3
100
AcDbEntity
  8
DEFPOINTS
 62
     0
100
AcDbPoint
 10
46.21171360281773
 20
14.39215645824691
 30
0.0
  0
POINT
  5
8FD
330
8F3
100
AcDbEntity
  8
DEFPOINTS
 62
     0
100
AcDbPoint
 10
46.21171360281773
 20
8.178228612804417
 30
0.0
  0
ENDBLK
  5
8FF
330
8F3
100
AcDbEntity
  8
0
100
AcDbBlockEnd
  0
BLOCK
  5
90B
330
900
100
AcDbEntity
  8
0
100
AcDbBlockBegin
  2
*D14
 70
     1
 10
0.0
 20
0.0
 30
0.0
  3
*D14
  1

  0
LINE
  5
901
330
900
100
AcDbEntity
  8
DIM
 62
     0
370
    -2
100
AcDbLine
 10
54.77921360281773
 20
14.79515645824691
 30
0.0
 11
54.77921360281773
 21
6.634728612804417
 31
0.0
  0
LINE
  5
902
330
900
100
AcDbEntity
  8
DIM
 62
     0
370
    -2
100
AcDbLine
 10
45.90921360281775
 20
14.79515645824691
 30
0.0
 11
45.90921360281775
 21
6.634728612804417
 31
0.0
  0
LINE
  5
903
330
900
100
AcDbEntity
  8
DIM
 62
     0
370
    -2
100
AcDbLine
 10
53.96921360281773
 20
7.053228612804417
 30
0.0
 11
50.88983860281775
 21
7.053228612804417
 31
0.0
  0
LINE
  5
904
330
900
100
AcDbEntity
  8
DIM
 62
     0
370
    -2
100
AcDbLine
 10
46.71921360281776
 20
7.053228612804417
 30
0.0
 11
49.79858860281774
 21
7.053228612804417
 31
0.0
  0
SOLID
  5
905
330
900
100
AcDbEntity
  8
DIM
 62
     0
100
AcDbTrace
 10
53.96921360281773
 20
7.188228612804417
 30
0.0
 11
53.96921360281773
 21
6.918228612804417
 31
0.0
 12
54.77921360281773
 22
7.053228612804417
 32
0.0
 13
54.77921360281773
 23
7.053228612804417
 33
0.0
  0
SOLID
  5
906
330
900
100
AcDbEntity
  8
DIM
 62
     0
100
AcDbTrace
 10
46.71921360281776
 20
7.188228612804417
 30
0.0
 11
46.71921360281776
 21
6.918228612804417
 31
0.0
 12
45.90921360281775
 22
7.053228612804417
 32
0.0
 13
45.90921360281775
 23
7.053228612804417
 33
0.0
  0
MTEXT
  5
907
330
900
100
AcDbEntity
  8
DIM
 62
     0
100
AcDbMText
 10
50.34421360281775
 20
7.053228612804417
 30
0.0
 40
0.5625
 41
0.0
 71
     5
 72
     1
  1
\A1;D
 73
     1
 44
1.0
  0
POINT
  5
908
330
900
100
AcDbEntity
  8
DEFPOINTS
 62
     0
100
AcDbPoint
 10
54.77921360281773
 20
15.07865645824692
 30
0.0
  0
POINT
  5
909
330
900
100
AcDbEntity
  8
DEFPOINTS
 62
     0
100
AcDbPoint
 10
45.90921360281775
 20
15.07865645824692
 30
0.0
  0
POINT
  5
90A
330
900
100
AcDbEntity
  8
DEFPOINTS
 62
     0
100
AcDbPoint
 10
45.90921360281775
 20
7.053228612804417
 30
0.0
  0
ENDBLK
  5
90C
330
900
100
AcDbEntity
  8
0
100
AcDbBlockEnd
  0
BLOCK
  5
918
330
90D
100
AcDbEntity
  8
0
100
AcDbBlockBegin
  2
*D15
 70
     1
 10
0.0
 20
0.0
 30
0.0
  3
*D15
  1

  0
LINE
  5
90E
330
90D
100
AcDbEntity
  8
DIM
 62
     0
370
    -2
100
AcDbLine
 10
20.83954043515463
 20
13.0956564582471
 30
0.0
 11
15.05229965246874
 21
13.0956564582471
 31
0.0
  0
LINE
  5
90F
330
90D
100
AcDbEntity
  8
DIM
 62
     0
370
    -2
100
AcDbLine
 10
20.83954043515463
 20
26.32565645824711
 30
0.0
 11
15.05229965246874
 21
26.32565645824711
 31
0.0
  0
LINE
  5
910
330
90D
100
AcDbEntity
  8
DIM
 62
     0
370
    -2
100
AcDbLine
 10
15.47079965246874
 20
13.9056564582471
 30
0.0
 11
15.47079965246874
 21
19.02440645824711
 31
0.0
  0
LINE
  5
911
330
90D
100
AcDbEntity
  8
DIM
 62
     0
370
    -2
100
AcDbLine
 10
15.47079965246874
 20
25.51565645824711
 30
0.0
 11
15.47079965246874
 21
20.39690645824711
 31
0.0
  0
SOLID
  5
912
330
90D
100
AcDbEntity
  8
DIM
 62
     0
100
AcDbTrace
 10
15.33579965246874
 20
13.9056564582471
 30
0.0
 11
15.60579965246874
 21
13.9056564582471
 31
0.0
 12
15.47079965246874
 22
13.0956564582471
 32
0.0
 13
15.47079965246874
 23
13.0956564582471
 33
0.0
  0
SOLID
  5
913
330
90D
100
AcDbEntity
  8
DIM
 62
     0
100
AcDbTrace
 10
15.33579965246874
 20
25.51565645824711
 30
0.0
 11
15.60579965246874
 21
25.51565645824711
 31
0.0
 12
15.47079965246874
 22
26.32565645824711
 32
0.0
 13
15.47079965246874
 23
26.32565645824711
 33
0.0
  0
MTEXT
  5
914
330
90D
100
AcDbEntity
  8
DIM
 62
     0
100
AcDbMText
 10
15.47079965246873
 20
19.71065645824711
 30
0.0
 40
0.5625
 41
0.0
 71
     5
 72
     1
  1
\A1;S
 73
     1
 44
1.0
  0
POINT
  5
915
330
90D
100
AcDbEntity
  8
DEFPOINTS
 62
     0
100
AcDbPoint
 10
21.12304043515462
 20
13.0956564582471
 30
0.0
  0
POINT
  5
916
330
90D
100
AcDbEntity
  8
DEFPOINTS
 62
     0
100
AcDbPoint
 10
21.12304043515462
 20
26.32565645824711
 30
0.0
  0
POINT
  5
917
330
90D
100
AcDbEntity
  8
DEFPOINTS
 62
     0
100
AcDbPoint
 10
15.47079965246874
 20
26.32565645824711
 30
0.0
  0
ENDBLK
  5
919
330
90D
100
AcDbEntity
  8
0
100
AcDbBlockEnd
  0
BLOCK
  5
925
330
91A
100
AcDbEntity
  8
0
100
AcDbBlockBegin
  2
*D16
 70
     1
 10
0.0
 20
0.0
 30
0.0
  3
*D16
  1

  0
LINE
  5
91B
330
91A
100
AcDbEntity
  8
DIM
 62
     0
370
    -2
100
AcDbLine
 10
26.28754043515465
 20
26.36565645824707
 30
0.0
 11
27.82079239765462
 21
26.36565645824707
 31
0.0
  0
LINE
  5
91C
330
91A
100
AcDbEntity
  8
DIM
 62
     0
370
    -2
100
AcDbLine
 10
26.28754043515465
 20
13.05565645824718
 30
0.0
 11
27.82079239765462
 21
13.05565645824718
 31
0.0
  0
LINE
  5
91D
330
91A
100
AcDbEntity
  8
DIM
 62
     0
370
    -2
100
AcDbLine
 10
27.40229239765462
 20
25.55565645824707
 30
0.0
 11
27.40229239765461
 21
20.39690645824713
 31
0.0
  0
LINE
  5
91E
330
91A
100
AcDbEntity
  8
DIM
 62
     0
370
    -2
100
AcDbLine
 10
27.40229239765461
 20
13.86565645824718
 30
0.0
 11
27.40229239765461
 21
19.02440645824712
 31
0.0
  0
SOLID
  5
91F
330
91A
100
AcDbEntity
  8
DIM
 62
     0
100
AcDbTrace
 10
27.26729239765462
 20
25.55565645824707
 30
0.0
 11
27.53729239765462
 21
25.55565645824707
 31
0.0
 12
27.40229239765462
 22
26.36565645824707
 32
0.0
 13
27.40229239765462
 23
26.36565645824707
 33
0.0
  0
SOLID
  5
920
330
91A
100
AcDbEntity
  8
DIM
 62
     0
100
AcDbTrace
 10
27.26729239765461
 20
13.86565645824718
 30
0.0
 11
27.53729239765462
 21
13.86565645824718
 31
0.0
 12
27.40229239765461
 22
13.05565645824718
 32
0.0
 13
27.40229239765461
 23
13.05565645824718
 33
0.0
  0
MTEXT
  5
921
330
91A
100
AcDbEntity
  8
DIM
 62
     0
100
AcDbMText
 10
27.40229239765461
 20
19.71065645824713
 30
0.0
 40
0.5625
 41
0.0
 71
     5
 72
     1
  1
\A1;R
 73
     1
 44
1.0
  0
POINT
  5
922
330
91A
100
AcDbEntity
  8
DEFPOINTS
 62
     0
100
AcDbPoint
 10
26.00404043515465
 20
26.36565645824707
 30
0.0
  0
POINT
  5
923
330
91A
100
AcDbEntity
  8
DEFPOINTS
 62
     0
100
AcDbPoint
 10
26.00404043515465
 20
13.05565645824718
 30
0.0
  0
POINT
  5
924
330
91A
100
AcDbEntity
  8
DEFPOINTS
 62
     0
100
AcDbPoint
 10
27.40229239765461
 20
13.05565645824718
 30
0.0
  0
ENDBLK
  5
926
330
91A
100
AcDbEntity
  8
0
100
AcDbBlockEnd
  0
BLOCK
  5
932
330
927
100
AcDbEntity
  8
0
100
AcDbBlockBegin
  2
*D17
 70
     1
 10
0.0
 20
0.0
 30
0.0
  3
*D17
  1

  0
LINE
  5
928
330
927
100
AcDbEntity
  8
DIM
 62
     0
370
    -2
100
AcDbLine
 10
21.12304043515462
 20
26.60915645824711
 30
0.0
 11
21.12304043515462
 21
28.02806096697802
 31
0.0
  0
LINE
  5
929
330
927
100
AcDbEntity
  8
DIM
 62
     0
370
    -2
100
AcDbLine
 10
21.04304043515464
 20
26.55270790209607
 30
0.0
 11
21.04304043515464
 21
28.02806096697802
 31
0.0
  0
LINE
  5
92A
330
927
100
AcDbEntity
  8
DIM
 62
     0
370
    -2
100
AcDbLine
 10
21.93304043515462
 20
27.60956096697802
 30
0.0
 11
22.74304043515463
 21
27.60956096697802
 31
0.0
  0
LINE
  5
92B
330
927
100
AcDbEntity
  8
DIM
 62
     0
370
    -2
100
AcDbLine
 10
20.23304043515464
 20
27.60956096697802
 30
0.0
 11
19.42304043515464
 21
27.60956096697802
 31
0.0
  0
SOLID
  5
92C
330
927
100
AcDbEntity
  8
DIM
 62
     0
100
AcDbTrace
 10
21.93304043515462
 20
27.74456096697802
 30
0.0
 11
21.93304043515462
 21
27.47456096697802
 31
0.0
 12
21.12304043515462
 22
27.60956096697802
 32
0.0
 13
21.12304043515462
 23
27.60956096697802
 33
0.0
  0
SOLID
  5
92D
330
927
100
AcDbEntity
  8
DIM
 62
     0
100
AcDbTrace
 10
20.23304043515464
 20
27.74456096697802
 30
0.0
 11
20.23304043515464
 21
27.47456096697802
 31
0.0
 12
21.04304043515464
 22
27.60956096697802
 32
0.0
 13
21.04304043515464
 23
27.60956096697802
 33
0.0
  0
MTEXT
  5
92E
330
927
100
AcDbEntity
  8
DIM
 62
     0
100
AcDbMText
 10
17.57663418515464
 20
27.60956096697802
 30
0.0
 40
0.5625
 41
0.0
 71
     5
 72
     1
  1
\A1;0.080 [2]
 73
     1
 44
1.0
  0
POINT
  5
92F
330
927
100
AcDbEntity
  8
DEFPOINTS
 62
     0
100
AcDbPoint
 10
21.12304043515462
 20
26.32565645824711
 30
0.0
  0
POINT
  5
930
330
927
100
AcDbEntity
  8
DEFPOINTS
 62
     0
100
AcDbPoint
 10
21.04304043515464
 20
26.26920790209607
 30
0.0
  0
POINT
  5
931
330
927
100
AcDbEntity
  8
DEFPOINTS
 62
     0
100
AcDbPoint
 10
21.04304043515464
 20
27.60956096697802
 30
0.0
  0
ENDBLK
  5
933
330
927
100
AcDbEntity
  8
0
100
AcDbBlockEnd
  0
BLOCK
  5
93F
330
934
100
AcDbEntity
  8
0
100
AcDbBlockBegin
  2
*D18
 70
     1
 10
0.0
 20
0.0
 30
0.0
  3
*D18
  1

  0
LINE
  5
935
330
934
100
AcDbEntity
  8
DIM
 62
     0
370
    -2
100
AcDbLine
 10
47.88421360281775
 20
13.81715645824691
 30
0.0
 11
47.88421360281775
 21
11.55322861280442
 31
0.0
  0
LINE
  5
936
330
934
100
AcDbEntity
  8
DIM
 62
     0
370
    -2
100
AcDbLine
 10
46.90021360281774
 20
13.81715645824691
 30
0.0
 11
46.90021360281774
 21
11.55322861280442
 31
0.0
  0
LINE
  5
937
330
934
100
AcDbEntity
  8
DIM
 62
     0
370
    -2
100
AcDbLine
 10
48.69421360281775
 20
11.97172861280441
 30
0.0
 11
49.50421360281775
 21
11.97172861280441
 31
0.0
  0
LINE
  5
938
330
934
100
AcDbEntity
  8
DIM
 62
     0
370
    -2
100
AcDbLine
 10
46.09021360281774
 20
11.97172861280441
 30
0.0
 11
45.28021360281774
 21
11.97172861280441
 31
0.0
  0
SOLID
  5
939
330
934
100
AcDbEntity
  8
DIM
 62
     0
100
AcDbTrace
 10
48.69421360281775
 20
12.10672861280442
 30
0.0
 11
48.69421360281775
 21
11.83672861280441
 31
0.0
 12
47.88421360281775
 22
11.97172861280441
 32
0.0
 13
47.88421360281775
 23
11.97172861280441
 33
0.0
  0
SOLID
  5
93A
330
934
100
AcDbEntity
  8
DIM
 62
     0
100
AcDbTrace
 10
46.09021360281774
 20
12.10672861280442
 30
0.0
 11
46.09021360281774
 21
11.83672861280441
 31
0.0
 12
46.90021360281774
 22
11.97172861280441
 32
0.0
 13
46.90021360281774
 23
11.97172861280441
 33
0.0
  0
MTEXT
  5
93B
330
934
100
AcDbEntity
  8
DIM
 62
     0
100
AcDbMText
 10
42.23849485281774
 20
11.97172861280441
 30
0.0
 40
0.5625
 41
0.0
 71
     5
 72
     1
  1
\A1;0.984 [25] TYP.
 73
     1
 44
1.0
  0
POINT
  5
93C
330
934
100
AcDbEntity
  8
DEFPOINTS
 62
     0
100
AcDbPoint
 10
47.88421360281775
 20
14.10065645824691
 30
0.0
  0
POINT
  5
93D
330
934
100
AcDbEntity
  8
DEFPOINTS
 62
     0
100
AcDbPoint
 10
46.90021360281774
 20
14.10065645824691
 30
0.0
  0
POINT
  5
93E
330
934
100
AcDbEntity
  8
DEFPOINTS
 62
     0
100
AcDbPoint
 10
46.90021360281774
 20
11.97172861280441
 30
0.0
  0
ENDBLK
  5
940
330
934
100
AcDbEntity
  8
0
100
AcDbBlockEnd
  0
BLOCK
  5
94C
330
941
100
AcDbEntity
  8
0
100
AcDbBlockBegin
  2
*D19
 70
     1
 10
0.0
 20
0.0
 30
0.0
  3
*D19
  1

  0
LINE
  5
942
330
941
100
AcDbEntity
  8
DIM
 62
     0
370
    -2
100
AcDbLine
 10
49.85221360281774
 20
13.81715645824691
 30
0.0
 11
49.85221360281774
 21
10.00972861280441
 31
0.0
  0
LINE
  5
943
330
941
100
AcDbEntity
  8
DIM
 62
     0
370
    -2
100
AcDbLine
 10
46.90021360281774
 20
13.81715645824691
 30
0.0
 11
46.90021360281774
 21
10.00972861280441
 31
0.0
  0
LINE
  5
944
330
941
100
AcDbEntity
  8
DIM
 62
     0
370
    -2
100
AcDbLine
 10
50.66221360281774
 20
10.42822861280441
 30
0.0
 11
51.47221360281774
 21
10.42822861280441
 31
0.0
  0
LINE
  5
945
330
941
100
AcDbEntity
  8
DIM
 62
     0
370
    -2
100
AcDbLine
 10
46.09021360281774
 20
10.42822861280441
 30
0.0
 11
45.28021360281774
 21
10.42822861280441
 31
0.0
  0
SOLID
  5
946
330
941
100
AcDbEntity
  8
DIM
 62
     0
100
AcDbTrace
 10
50.66221360281774
 20
10.56322861280441
 30
0.0
 11
50.66221360281774
 21
10.29322861280441
 31
0.0
 12
49.85221360281774
 22
10.42822861280441
 32
0.0
 13
49.85221360281774
 23
10.42822861280441
 33
0.0
  0
SOLID
  5
947
330
941
100
AcDbEntity
  8
DIM
 62
     0
100
AcDbTrace
 10
46.09021360281774
 20
10.56322861280441
 30
0.0
 11
46.09021360281774
 21
10.29322861280441
 31
0.0
 12
46.90021360281774
 22
10.42822861280441
 32
0.0
 13
46.90021360281774
 23
10.42822861280441
 33
0.0
  0
MTEXT
  5
948
330
941
100
AcDbEntity
  8
DIM
 62
     0
100
AcDbMText
 10
43.11740110281774
 20
10.42822861280441
 30
0.0
 40
0.5625
 41
0.0
 71
     5
 72
     1
  1
\A1;2.952 [75]
 73
     1
 44
1.0
  0
POINT
  5
949
330
941
100
AcDbEntity
  8
DEFPOINTS
 62
     0
100
AcDbPoint
 10
49.85221360281774
 20
14.10065645824691
 30
0.0
  0
POINT
  5
94A
330
941
100
AcDbEntity
  8
DEFPOINTS
 62
     0
100
AcDbPoint
 10
46.90021360281774
 20
14.10065645824691
 30
0.0
  0
POINT
  5
94B
330
941
100
AcDbEntity
  8
DEFPOINTS
 62
     0
100
AcDbPoint
 10
46.90021360281774
 20
10.42822861280441
 30
0.0
  0
ENDBLK
  5
94D
330
941
100
AcDbEntity
  8
0
100
AcDbBlockEnd
  0
BLOCK
  5
959
330
94E
100
AcDbEntity
  8
0
100
AcDbBlockBegin
  2
*D20
 70
     1
 10
0.0
 20
0.0
 30
0.0
  3
*D20
  1

  0
LINE
  5
94F
330
94E
100
AcDbEntity
  8
DIM
 62
     0
370
    -2
100
AcDbLine
 10
50.83621360281775
 20
13.81715645824691
 30
0.0
 11
50.83621360281775
 21
10.82577600074338
 31
0.0
  0
LINE
  5
950
330
94E
100
AcDbEntity
  8
DIM
 62
     0
370
    -2
100
AcDbLine
 10
53.78821360281775
 20
13.81715645824691
 30
0.0
 11
53.78821360281775
 21
10.82577600074338
 31
0.0
  0
LINE
  5
951
330
94E
100
AcDbEntity
  8
DIM
 62
     0
370
    -2
100
AcDbLine
 10
50.02621360281775
 20
11.24427600074338
 30
0.0
 11
49.21621360281775
 21
11.24427600074338
 31
0.0
  0
LINE
  5
952
330
94E
100
AcDbEntity
  8
DIM
 62
     0
370
    -2
100
AcDbLine
 10
54.59821360281775
 20
11.24427600074338
 30
0.0
 11
55.40821360281775
 21
11.24427600074338
 31
0.0
  0
SOLID
  5
953
330
94E
100
AcDbEntity
  8
DIM
 62
     0
100
AcDbTrace
 10
50.02621360281775
 20
11.37927600074338
 30
0.0
 11
50.02621360281775
 21
11.10927600074338
 31
0.0
 12
50.83621360281775
 22
11.24427600074338
 32
0.0
 13
50.83621360281775
 23
11.24427600074338
 33
0.0
  0
SOLID
  5
954
330
94E
100
AcDbEntity
  8
DIM
 62
     0
100
AcDbTrace
 10
54.59821360281775
 20
11.37927600074338
 30
0.0
 11
54.59821360281775
 21
11.10927600074338
 31
0.0
 12
53.78821360281775
 22
11.24427600074338
 32
0.0
 13
53.78821360281775
 23
11.24427600074338
 33
0.0
  0
MTEXT
  5
955
330
94E
100
AcDbEntity
  8
DIM
 62
     0
100
AcDbMText
 10
57.57102610281775
 20
11.24427600074338
 30
0.0
 40
0.5625
 41
0.0
 71
     5
 72
     1
  1
\A1;2.952 [75]
 73
     1
 44
1.0
  0
POINT
  5
956
330
94E
100
AcDbEntity
  8
DEFPOINTS
 62
     0
100
AcDbPoint
 10
50.83621360281775
 20
14.10065645824691
 30
0.0
  0
POINT
  5
957
330
94E
100
AcDbEntity
  8
DEFPOINTS
 62
     0
100
AcDbPoint
 10
53.78821360281775
 20
14.10065645824691
 30
0.0
  0
POINT
  5
958
330
94E
100
AcDbEntity
  8
DEFPOINTS
 62
     0
100
AcDbPoint
 10
53.78821360281775
 20
11.24427600074338
 30
0.0
  0
ENDBLK
  5
95A
330
94E
100
AcDbEntity
  8
0
100
AcDbBlockEnd
  0
BLOCK
  5
966
330
95B
100
AcDbEntity
  8
0
100
AcDbBlockBegin
  2
*D21
 70
     1
 10
0.0
 20
0.0
 30
0.0
  3
*D21
  1

  0
LINE
  5
95C
330
95B
100
AcDbEntity
  8
DIM
 62
     0
370
    -2
100
AcDbLine
 10
2.596067892329656
 20
19.9941564582471
 30
0.0
 11
2.596067892329657
 21
28.02806096697802
 31
0.0
  0
LINE
  5
95D
330
95B
100
AcDbEntity
  8
DIM
 62
     0
370
    -2
100
AcDbLine
 10
11.87606789232967
 20
19.9941564582471
 30
0.0
 11
11.87606789232967
 21
28.02806096697802
 31
0.0
  0
LINE
  5
95E
330
95B
100
AcDbEntity
  8
DIM
 62
     0
370
    -2
100
AcDbLine
 10
3.406067892329657
 20
27.60956096697802
 30
0.0
 11
6.620130392329664
 21
27.60956096697802
 31
0.0
  0
LINE
  5
95F
330
95B
100
AcDbEntity
  8
DIM
 62
     0
370
    -2
100
AcDbLine
 10
11.06606789232967
 20
27.60956096697802
 30
0.0
 11
7.852005392329664
 21
27.60956096697802
 31
0.0
  0
SOLID
  5
960
330
95B
100
AcDbEntity
  8
DIM
 62
     0
100
AcDbTrace
 10
3.406067892329657
 20
27.74456096697802
 30
0.0
 11
3.406067892329657
 21
27.47456096697802
 31
0.0
 12
2.596067892329657
 22
27.60956096697802
 32
0.0
 13
2.596067892329657
 23
27.60956096697802
 33
0.0
  0
SOLID
  5
961
330
95B
100
AcDbEntity
  8
DIM
 62
     0
100
AcDbTrace
 10
11.06606789232967
 20
27.74456096697802
 30
0.0
 11
11.06606789232967
 21
27.47456096697802
 31
0.0
 12
11.87606789232967
 22
27.60956096697802
 32
0.0
 13
11.87606789232967
 23
27.60956096697802
 33
0.0
  0
MTEXT
  5
962
330
95B
100
AcDbEntity
  8
DIM
 62
     0
100
AcDbMText
 10
7.236067892329664
 20
27.60956096697802
 30
0.0
 40
0.5625
 41
0.0
 71
     5
 72
     1
  1
\A1;W
 73
     1
 44
1.0
  0
POINT
  5
963
330
95B
100
AcDbEntity
  8
DEFPOINTS
 62
     0
100
AcDbPoint
 10
2.596067892329656
 20
19.7106564582471
 30
0.0
  0
POINT
  5
964
330
95B
100
AcDbEntity
  8
DEFPOINTS
 62
     0
100
AcDbPoint
 10
11.87606789232967
 20
19.7106564582471
 30
0.0
  0
POINT
  5
965
330
95B
100
AcDbEntity
  8
DEFPOINTS
 62
     0
100
AcDbPoint
 10
11.87606789232967
 20
27.60956096697802
 30
0.0
  0
ENDBLK
  5
967
330
95B
100
AcDbEntity
  8
0
100
AcDbBlockEnd
  0
BLOCK
  5
973
330
968
100
AcDbEntity
  8
0
100
AcDbBlockBegin
  2
*D22
 70
     1
 10
0.0
 20
0.0
 30
0.0
  3
*D22
  1

  0
LINE
  5
969
330
968
100
AcDbEntity
  8
DIM
 62
     0
370
    -2
100
AcDbLine
 10
7.519567892329643
 20
13.8936564582471
 30
0.0
 11
14.3055678923296
 21
13.8936564582471
 31
0.0
  0
LINE
  5
96A
330
968
100
AcDbEntity
  8
DIM
 62
     0
370
    -2
100
AcDbLine
 10
7.519567892329643
 20
25.5276564582471
 30
0.0
 11
14.30556789232961
 21
25.5276564582471
 31
0.0
  0
LINE
  5
96B
330
968
100
AcDbEntity
  8
DIM
 62
     0
370
    -2
100
AcDbLine
 10
13.8870678923296
 20
14.7036564582471
 30
0.0
 11
13.8870678923296
 21
19.0244064582471
 31
0.0
  0
LINE
  5
96C
330
968
100
AcDbEntity
  8
DIM
 62
     0
370
    -2
100
AcDbLine
 10
13.88706789232961
 20
24.7176564582471
 30
0.0
 11
13.88706789232961
 21
20.3969064582471
 31
0.0
  0
SOLID
  5
96D
330
968
100
AcDbEntity
  8
DIM
 62
     0
100
AcDbTrace
 10
13.75206789232961
 20
14.7036564582471
 30
0.0
 11
14.02206789232961
 21
14.7036564582471
 31
0.0
 12
13.8870678923296
 22
13.8936564582471
 32
0.0
 13
13.8870678923296
 23
13.8936564582471
 33
0.0
  0
SOLID
  5
96E
330
968
100
AcDbEntity
  8
DIM
 62
     0
100
AcDbTrace
 10
13.75206789232961
 20
24.7176564582471
 30
0.0
 11
14.02206789232961
 21
24.7176564582471
 31
0.0
 12
13.88706789232961
 22
25.5276564582471
 32
0.0
 13
13.88706789232961
 23
25.5276564582471
 33
0.0
  0
MTEXT
  5
96F
330
968
100
AcDbEntity
  8
DIM
 62
     0
100
AcDbMText
 10
13.8870678923296
 20
19.7106564582471
 30
0.0
 40
0.5625
 41
0.0
 71
     5
 72
     1
  1
\A1;V
 73
     1
 44
1.0
  0
POINT
  5
970
330
968
100
AcDbEntity
  8
DEFPOINTS
 62
     0
100
AcDbPoint
 10
7.236067892329643
 20
13.8936564582471
 30
0.0
  0
POINT
  5
971
330
968
100
AcDbEntity
  8
DEFPOINTS
 62
     0
100
AcDbPoint
 10
7.236067892329643
 20
25.5276564582471
 30
0.0
  0
POINT
  5
972
330
968
100
AcDbEntity
  8
DEFPOINTS
 62
     0
100
AcDbPoint
 10
13.88706789232961
 20
25.5276564582471
 30
0.0
  0
ENDBLK
  5
974
330
968
100
AcDbEntity
  8
0
100
AcDbBlockEnd
  0
BLOCK
  5
980
330
975
100
AcDbEntity
  8
0
100
AcDbBlockBegin
  2
*D23
 70
     1
 10
0.0
 20
0.0
 30
0.0
  3
*D23
  1

  0
LINE
  5
976
330
975
100
AcDbEntity
  8
DIM
 62
     0
370
    -2
100
AcDbLine
 10
28.74130620487658
 20
35.04711241745349
 30
0.0
 11
28.74130620487658
 21
36.33558517642228
 31
0.0
  0
LINE
  5
977
330
975
100
AcDbEntity
  8
DIM
 62
     0
370
    -2
100
AcDbLine
 10
39.63130620487659
 20
35.04711241745349
 30
0.0
 11
39.63130620487659
 21
36.33558517642228
 31
0.0
  0
LINE
  5
978
330
975
100
AcDbEntity
  8
DIM
 62
     0
370
    -2
100
AcDbLine
 10
29.55130620487658
 20
35.91708517642227
 30
0.0
 11
33.64068120487658
 21
35.91708517642227
 31
0.0
  0
LINE
  5
979
330
975
100
AcDbEntity
  8
DIM
 62
     0
370
    -2
100
AcDbLine
 10
38.82130620487659
 20
35.91708517642227
 30
0.0
 11
34.73193120487659
 21
35.91708517642227
 31
0.0
  0
SOLID
  5
97A
330
975
100
AcDbEntity
  8
DIM
 62
     0
100
AcDbTrace
 10
29.55130620487658
 20
36.05208517642227
 30
0.0
 11
29.55130620487658
 21
35.78208517642227
 31
0.0
 12
28.74130620487658
 22
35.91708517642227
 32
0.0
 13
28.74130620487658
 23
35.91708517642227
 33
0.0
  0
SOLID
  5
97B
330
975
100
AcDbEntity
  8
DIM
 62
     0
100
AcDbTrace
 10
38.82130620487659
 20
36.05208517642227
 30
0.0
 11
38.82130620487659
 21
35.78208517642227
 31
0.0
 12
39.63130620487659
 22
35.91708517642227
 32
0.0
 13
39.63130620487659
 23
35.91708517642227
 33
0.0
  0
MTEXT
  5
97C
330
975
100
AcDbEntity
  8
DIM
 62
     0
100
AcDbMText
 10
34.18630620487658
 20
35.91708517642227
 30
0.0
 40
0.5625
 41
0.0
 71
     5
 72
     1
  1
\A1;U
 73
     1
 44
1.0
  0
POINT
  5
97D
330
975
100
AcDbEntity
  8
DEFPOINTS
 62
     0
100
AcDbPoint
 10
28.74130620487658
 20
34.7636124174535
 30
0.0
  0
POINT
  5
97E
330
975
100
AcDbEntity
  8
DEFPOINTS
 62
     0
100
AcDbPoint
 10
39.63130620487659
 20
34.7636124174535
 30
0.0
  0
POINT
  5
97F
330
975
100
AcDbEntity
  8
DEFPOINTS
 62
     0
100
AcDbPoint
 10
39.63130620487659
 20
35.91708517642227
 30
0.0
  0
ENDBLK
  5
981
330
975
100
AcDbEntity
  8
0
100
AcDbBlockEnd
  0
BLOCK
  5
98D
330
982
100
AcDbEntity
  8
0
100
AcDbBlockBegin
  2
*D24
 70
     1
 10
0.0
 20
0.0
 30
0.0
  3
*D24
  1

  0
LINE
  5
983
330
982
100
AcDbEntity
  8
DIM
 62
     0
370
    -2
100
AcDbLine
 10
28.70630620487668
 20
29.59911241745349
 30
0.0
 11
28.70630620487668
 21
27.93747273646392
 31
0.0
  0
LINE
  5
984
330
982
100
AcDbEntity
  8
DIM
 62
     0
370
    -2
100
AcDbLine
 10
39.66630620487666
 20
29.59911241745349
 30
0.0
 11
39.66630620487666
 21
27.93747273646392
 31
0.0
  0
LINE
  5
985
330
982
100
AcDbEntity
  8
DIM
 62
     0
370
    -2
100
AcDbLine
 10
29.51630620487668
 20
28.35597273646392
 30
0.0
 11
33.64068120487667
 21
28.35597273646392
 31
0.0
  0
LINE
  5
986
330
982
100
AcDbEntity
  8
DIM
 62
     0
370
    -2
100
AcDbLine
 10
38.85630620487665
 20
28.35597273646392
 30
0.0
 11
34.73193120487667
 21
28.35597273646392
 31
0.0
  0
SOLID
  5
987
330
982
100
AcDbEntity
  8
DIM
 62
     0
100
AcDbTrace
 10
29.51630620487668
 20
28.49097273646393
 30
0.0
 11
29.51630620487668
 21
28.22097273646392
 31
0.0
 12
28.70630620487668
 22
28.35597273646392
 32
0.0
 13
28.70630620487668
 23
28.35597273646392
 33
0.0
  0
SOLID
  5
988
330
982
100
AcDbEntity
  8
DIM
 62
     0
100
AcDbTrace
 10
38.85630620487665
 20
28.49097273646393
 30
0.0
 11
38.85630620487665
 21
28.22097273646392
 31
0.0
 12
39.66630620487666
 22
28.35597273646392
 32
0.0
 13
39.66630620487666
 23
28.35597273646392
 33
0.0
  0
MTEXT
  5
989
330
982
100
AcDbEntity
  8
DIM
 62
     0
100
AcDbMText
 10
34.18630620487667
 20
28.35597273646392
 30
0.0
 40
0.5625
 41
0.0
 71
     5
 72
     1
  1
\A1;T
 73
     1
 44
1.0
  0
POINT
  5
98A
330
982
100
AcDbEntity
  8
DEFPOINTS
 62
     0
100
AcDbPoint
 10
28.70630620487668
 20
29.88261241745348
 30
0.0
  0
POINT
  5
98B
330
982
100
AcDbEntity
  8
DEFPOINTS
 62
     0
100
AcDbPoint
 10
39.66630620487666
 20
29.88261241745348
 30
0.0
  0
POINT
  5
98C
330
982
100
AcDbEntity
  8
DEFPOINTS
 62
     0
100
AcDbPoint
 10
39.66630620487666
 20
28.35597273646392
 30
0.0
  0
ENDBLK
  5
98E
330
982
100
AcDbEntity
  8
0
100
AcDbBlockEnd
  0
BLOCK
  5
99A
330
98F
100
AcDbEntity
  8
0
100
AcDbBlockBegin
  2
*D25
 70
     1
 10
0.0
 20
0.0
 30
0.0
  3
*D25
  1

  0
LINE
  5
990
330
98F
100
AcDbEntity
  8
DIM
 62
     0
370
    -2
100
AcDbLine
 10
21.25104043515463
 20
18.8259072655698
 30
0.0
 11
21.25104043515463
 21
19.03882666415729
 31
0.0
  0
LINE
  5
991
330
98F
100
AcDbEntity
  8
DIM
 62
     0
370
    -2
100
AcDbLine
 10
21.12304043515462
 20
18.8259072655698
 30
0.0
 11
21.12304043515462
 21
19.03882666415729
 31
0.0
  0
LINE
  5
992
330
98F
100
AcDbEntity
  8
DIM
 62
     0
370
    -2
100
AcDbLine
 10
22.06104043515462
 20
18.62032666415728
 30
0.0
 11
22.87104043515463
 21
18.62032666415728
 31
0.0
  0
LINE
  5
993
330
98F
100
AcDbEntity
  8
DIM
 62
     0
370
    -2
100
AcDbLine
 10
20.31304043515463
 20
18.62032666415728
 30
0.0
 11
19.50304043515463
 21
18.62032666415728
 31
0.0
  0
SOLID
  5
994
330
98F
100
AcDbEntity
  8
DIM
 62
     0
100
AcDbTrace
 10
22.06104043515462
 20
18.75532666415729
 30
0.0
 11
22.06104043515462
 21
18.48532666415728
 31
0.0
 12
21.25104043515463
 22
18.62032666415728
 32
0.0
 13
21.25104043515463
 23
18.62032666415728
 33
0.0
  0
SOLID
  5
995
330
98F
100
AcDbEntity
  8
DIM
 62
     0
100
AcDbTrace
 10
20.31304043515463
 20
18.75532666415729
 30
0.0
 11
20.31304043515463
 21
18.48532666415728
 31
0.0
 12
21.12304043515462
 22
18.62032666415728
 32
0.0
 13
21.12304043515462
 23
18.62032666415728
 33
0.0
  0
MTEXT
  5
996
330
98F
100
AcDbEntity
  8
DIM
 62
     0
100
AcDbMText
 10
17.65663418515463
 20
18.62032666415728
 30
0.0
 40
0.5625
 41
0.0
 71
     5
 72
     1
  1
\A1;0.128 [3]
 73
     1
 44
1.0
  0
POINT
  5
997
330
98F
100
AcDbEntity
  8
DEFPOINTS
 62
     0
100
AcDbPoint
 10
21.25104043515463
 20
18.5424072655698
 30
0.0
  0
POINT
  5
998
330
98F
100
AcDbEntity
  8
DEFPOINTS
 62
     0
100
AcDbPoint
 10
21.12304043515462
 20
18.5424072655698
 30
0.0
  0
POINT
  5
999
330
98F
100
AcDbEntity
  8
DEFPOINTS
 62
     0
100
AcDbPoint
 10
21.12304043515462
 20
18.62032666415728
 30
0.0
  0
ENDBLK
  5
99B
330
98F
100
AcDbEntity
  8
0
100
AcDbBlockEnd
  0
BLOCK
  5
9A7
330
99C
100
AcDbEntity
  8
0
100
AcDbBlockBegin
  2
*D26
 70
     1
 10
0.0
 20
0.0
 30
0.0
  3
*D26
  1

  0
LINE
  5
99D
330
99C
100
AcDbEntity
  8
DIM
 62
     0
370
    -2
100
AcDbLine
 10
21.36117766554758
 20
17.83892750155756
 30
0.0
 11
21.36117766554758
 21
17.97392750155756
 31
0.0
  0
LINE
  5
99E
330
99C
100
AcDbEntity
  8
DIM
 62
     0
370
    -2
100
AcDbLine
 10
21.12304043515462
 20
17.83892750155756
 30
0.0
 11
21.12304043515462
 21
17.97392750155756
 31
0.0
  0
LINE
  5
99F
330
99C
100
AcDbEntity
  8
DIM
 62
     0
370
    -2
100
AcDbLine
 10
22.17117766554758
 20
17.55542750155756
 30
0.0
 11
22.98117766554758
 21
17.55542750155756
 31
0.0
  0
LINE
  5
9A0
330
99C
100
AcDbEntity
  8
DIM
 62
     0
370
    -2
100
AcDbLine
 10
20.31304043515463
 20
17.55542750155756
 30
0.0
 11
19.50304043515463
 21
17.55542750155756
 31
0.0
  0
SOLID
  5
9A1
330
99C
100
AcDbEntity
  8
DIM
 62
     0
100
AcDbTrace
 10
22.17117766554758
 20
17.69042750155756
 30
0.0
 11
22.17117766554758
 21
17.42042750155756
 31
0.0
 12
21.36117766554758
 22
17.55542750155756
 32
0.0
 13
21.36117766554758
 23
17.55542750155756
 33
0.0
  0
SOLID
  5
9A2
330
99C
100
AcDbEntity
  8
DIM
 62
     0
100
AcDbTrace
 10
20.31304043515463
 20
17.69042750155756
 30
0.0
 11
20.31304043515463
 21
17.42042750155756
 31
0.0
 12
21.12304043515462
 22
17.55542750155756
 32
0.0
 13
21.12304043515462
 23
17.55542750155756
 33
0.0
  0
MTEXT
  5
9A3
330
99C
100
AcDbEntity
  8
DIM
 62
     0
100
AcDbMText
 10
17.58632168515463
 20
17.55542750155756
 30
0.0
 40
0.5625
 41
0.0
 71
     5
 72
     1
  1
\A1;0.238 [6]
 73
     1
 44
1.0
  0
POINT
  5
9A4
330
99C
100
AcDbEntity
  8
DEFPOINTS
 62
     0
100
AcDbPoint
 10
21.36117766554758
 20
17.55542750155756
 30
0.0
  0
POINT
  5
9A5
330
99C
100
AcDbEntity
  8
DEFPOINTS
 62
     0
100
AcDbPoint
 10
21.12304043515462
 20
17.55542750155756
 30
0.0
  0
POINT
  5
9A6
330
99C
100
AcDbEntity
  8
DEFPOINTS
 62
     0
100
AcDbPoint
 10
21.12304043515462
 20
17.55542750155756
 30
0.0
  0
ENDBLK
  5
9A8
330
99C
100
AcDbEntity
  8
0
100
AcDbBlockEnd
  0
BLOCK
  5
9B4
330
9A9
100
AcDbEntity
  8
0
100
AcDbBlockBegin
  2
*D27
 70
     1
 10
0.0
 20
0.0
 30
0.0
  3
*D27
  1

  0
LINE
  5
9AA
330
9A9
100
AcDbEntity
  8
DIM
 62
     0
370
    -2
100
AcDbLine
 10
21.52604043515463
 20
16.55615645824711
 30
0.0
 11
21.52604043515463
 21
16.97500017272057
 31
0.0
  0
LINE
  5
9AB
330
9A9
100
AcDbEntity
  8
DIM
 62
     0
370
    -2
100
AcDbLine
 10
21.36117766554764
 20
16.78078322395696
 30
0.0
 11
21.36117766554764
 21
16.97500017272057
 31
0.0
  0
LINE
  5
9AC
330
9A9
100
AcDbEntity
  8
DIM
 62
     0
370
    -2
100
AcDbLine
 10
22.33604043515463
 20
16.55650017272057
 30
0.0
 11
23.14604043515463
 21
16.55650017272057
 31
0.0
  0
LINE
  5
9AD
330
9A9
100
AcDbEntity
  8
DIM
 62
     0
370
    -2
100
AcDbLine
 10
20.55117766554764
 20
16.55650017272057
 30
0.0
 11
19.74117766554764
 21
16.55650017272057
 31
0.0
  0
SOLID
  5
9AE
330
9A9
100
AcDbEntity
  8
DIM
 62
     0
100
AcDbTrace
 10
22.33604043515463
 20
16.69150017272057
 30
0.0
 11
22.33604043515463
 21
16.42150017272057
 31
0.0
 12
21.52604043515463
 22
16.55650017272057
 32
0.0
 13
21.52604043515463
 23
16.55650017272057
 33
0.0
  0
SOLID
  5
9AF
330
9A9
100
AcDbEntity
  8
DIM
 62
     0
100
AcDbTrace
 10
20.55117766554764
 20
16.69150017272057
 30
0.0
 11
20.55117766554764
 21
16.42150017272057
 31
0.0
 12
21.36117766554764
 22
16.55650017272057
 32
0.0
 13
21.36117766554764
 23
16.55650017272057
 33
0.0
  0
MTEXT
  5
9B0
330
9A9
100
AcDbEntity
  8
DIM
 62
     0
100
AcDbMText
 10
17.89477141554764
 20
16.55650017272057
 30
0.0
 40
0.5625
 41
0.0
 71
     5
 72
     1
  1
\A1;0.165 [4]
 73
     1
 44
1.0
  0
POINT
  5
9B1
330
9A9
100
AcDbEntity
  8
DEFPOINTS
 62
     0
100
AcDbPoint
 10
21.52604043515463
 20
16.27265645824711
 30
0.0
  0
POINT
  5
9B2
330
9A9
100
AcDbEntity
  8
DEFPOINTS
 62
     0
100
AcDbPoint
 10
21.36117766554764
 20
16.49728322395697
 30
0.0
  0
POINT
  5
9B3
330
9A9
100
AcDbEntity
  8
DEFPOINTS
 62
     0
100
AcDbPoint
 10
21.36117766554764
 20
16.55650017272057
 30
0.0
  0
ENDBLK
  5
9B5
330
9A9
100
AcDbEntity
  8
0
100
AcDbBlockEnd
  0
BLOCK
  5
9C1
330
9B6
100
AcDbEntity
  8
0
100
AcDbBlockBegin
  2
*D28
 70
     1
 10
0.0
 20
0.0
 30
0.0
  3
*D28
  1

  0
LINE
  5
9B7
330
9B6
100
AcDbEntity
  8
DIM
 62
     0
370
    -2
100
AcDbLine
 10
25.04304043515463
 20
26.66774310724695
 30
0.0
 11
25.04304043515463
 21
28.02806096697802
 31
0.0
  0
LINE
  5
9B8
330
9B6
100
AcDbEntity
  8
DIM
 62
     0
370
    -2
100
AcDbLine
 10
26.23404043515465
 20
26.13215645824706
 30
0.0
 11
26.23404043515465
 21
28.02806096697802
 31
0.0
  0
LINE
  5
9B9
330
9B6
100
AcDbEntity
  8
DIM
 62
     0
370
    -2
100
AcDbLine
 10
24.23304043515464
 20
27.60956096697802
 30
0.0
 11
23.42304043515463
 21
27.60956096697802
 31
0.0
  0
LINE
  5
9BA
330
9B6
100
AcDbEntity
  8
DIM
 62
     0
370
    -2
100
AcDbLine
 10
27.04404043515465
 20
27.60956096697802
 30
0.0
 11
27.85404043515465
 21
27.60956096697802
 31
0.0
  0
SOLID
  5
9BB
330
9B6
100
AcDbEntity
  8
DIM
 62
     0
100
AcDbTrace
 10
24.23304043515464
 20
27.74456096697802
 30
0.0
 11
24.23304043515464
 21
27.47456096697802
 31
0.0
 12
25.04304043515463
 22
27.60956096697802
 32
0.0
 13
25.04304043515463
 23
27.60956096697802
 33
0.0
  0
SOLID
  5
9BC
330
9B6
100
AcDbEntity
  8
DIM
 62
     0
100
AcDbTrace
 10
27.04404043515465
 20
27.74456096697802
 30
0.0
 11
27.04404043515465
 21
27.47456096697802
 31
0.0
 12
26.23404043515465
 22
27.60956096697802
 32
0.0
 13
26.23404043515465
 23
27.60956096697802
 33
0.0
  0
MTEXT
  5
9BD
330
9B6
100
AcDbEntity
  8
DIM
 62
     0
100
AcDbMText
 10
25.63854043515464
 20
27.60956096697802
 30
0.0
 40
0.5625
 41
0.0
 71
     5
 72
     1
  1
\A1;P
 73
     1
 44
1.0
  0
POINT
  5
9BE
330
9B6
100
AcDbEntity
  8
DEFPOINTS
 62
     0
100
AcDbPoint
 10
25.04304043515463
 20
26.38424310724696
 30
0.0
  0
POINT
  5
9BF
330
9B6
100
AcDbEntity
  8
DEFPOINTS
 62
     0
100
AcDbPoint
 10
26.23404043515465
 20
25.84865645824706
 30
0.0
  0
POINT
  5
9C0
330
9B6
100
AcDbEntity
  8
DEFPOINTS
 62
     0
100
AcDbPoint
 10
26.23404043515465
 20
27.60956096697802
 30
0.0
  0
ENDBLK
  5
9C2
330
9B6
100
AcDbEntity
  8
0
100
AcDbBlockEnd
  0
BLOCK
  5
9CE
330
9C3
100
AcDbEntity
  8
0
100
AcDbBlockBegin
  2
*D29
 70
     1
 10
0.0
 20
0.0
 30
0.0
  3
*D29
  1

  0
LINE
  5
9C4
330
9C3
100
AcDbEntity
  8
DIM
 62
     0
370
    -2
100
AcDbLine
 10
25.04304043515463
 20
26.66774310724695
 30
0.0
 11
25.04304043515463
 21
28.02806096697802
 31
0.0
  0
LINE
  5
9C5
330
9C3
100
AcDbEntity
  8
DIM
 62
     0
370
    -2
100
AcDbLine
 10
21.12304043515462
 20
26.60915645824711
 30
0.0
 11
21.12304043515462
 21
28.02806096697802
 31
0.0
  0
LINE
  5
9C6
330
9C3
100
AcDbEntity
  8
DIM
 62
     0
370
    -2
100
AcDbLine
 10
24.23304043515464
 20
27.60956096697802
 30
0.0
 11
23.62866543515463
 21
27.60956096697802
 31
0.0
  0
LINE
  5
9C7
330
9C3
100
AcDbEntity
  8
DIM
 62
     0
370
    -2
100
AcDbLine
 10
21.93304043515462
 20
27.60956096697802
 30
0.0
 11
22.53741543515463
 21
27.60956096697802
 31
0.0
  0
SOLID
  5
9C8
330
9C3
100
AcDbEntity
  8
DIM
 62
     0
100
AcDbTrace
 10
24.23304043515464
 20
27.74456096697802
 30
0.0
 11
24.23304043515464
 21
27.47456096697802
 31
0.0
 12
25.04304043515463
 22
27.60956096697802
 32
0.0
 13
25.04304043515463
 23
27.60956096697802
 33
0.0
  0
SOLID
  5
9C9
330
9C3
100
AcDbEntity
  8
DIM
 62
     0
100
AcDbTrace
 10
21.93304043515462
 20
27.74456096697802
 30
0.0
 11
21.93304043515462
 21
27.47456096697802
 31
0.0
 12
21.12304043515462
 22
27.60956096697802
 32
0.0
 13
21.12304043515462
 23
27.60956096697802
 33
0.0
  0
MTEXT
  5
9CA
330
9C3
100
AcDbEntity
  8
DIM
 62
     0
100
AcDbMText
 10
23.08304043515463
 20
27.60956096697802
 30
0.0
 40
0.5625
 41
0.0
 71
     5
 72
     1
  1
\A1;N
 73
     1
 44
1.0
  0
POINT
  5
9CB
330
9C3
100
AcDbEntity
  8
DEFPOINTS
 62
     0
100
AcDbPoint
 10
25.04304043515463
 20
26.38424310724696
 30
0.0
  0
POINT
  5
9CC
330
9C3
100
AcDbEntity
  8
DEFPOINTS
 62
     0
100
AcDbPoint
 10
21.12304043515462
 20
26.32565645824711
 30
0.0
  0
POINT
  5
9CD
330
9C3
100
AcDbEntity
  8
DEFPOINTS
 62
     0
100
AcDbPoint
 10
21.12304043515462
 20
27.60956096697802
 30
0.0
  0
ENDBLK
  5
9CF
330
9C3
100
AcDbEntity
  8
0
100
AcDbBlockEnd
  0
BLOCK
  5
9DB
330
9D0
100
AcDbEntity
  8
0
100
AcDbBlockBegin
  2
*D30
 70
     1
 10
0.0
 20
0.0
 30
0.0
  3
*D30
  1

  0
LINE
  5
9D1
330
9D0
100
AcDbEntity
  8
DIM
 62
     0
370
    -2
100
AcDbLine
 10
55.06271360281773
 20
24.34265645824692
 30
0.0
 11
59.52670938290029
 21
24.34265645824691
 31
0.0
  0
LINE
  5
9D2
330
9D0
100
AcDbEntity
  8
DIM
 62
     0
370
    -2
100
AcDbLine
 10
55.06271360281773
 20
23.35865645824691
 30
0.0
 11
59.52670938290029
 21
23.35865645824691
 31
0.0
  0
LINE
  5
9D3
330
9D0
100
AcDbEntity
  8
DIM
 62
     0
370
    -2
100
AcDbLine
 10
59.10820938290028
 20
25.15265645824691
 30
0.0
 11
59.10820938290028
 21
25.96265645824692
 31
0.0
  0
LINE
  5
9D4
330
9D0
100
AcDbEntity
  8
DIM
 62
     0
370
    -2
100
AcDbLine
 10
59.10820938290028
 20
22.54865645824691
 30
0.0
 11
59.10820938290028
 21
21.7386564582469
 31
0.0
  0
SOLID
  5
9D5
330
9D0
100
AcDbEntity
  8
DIM
 62
     0
100
AcDbTrace
 10
58.97320938290029
 20
25.15265645824691
 30
0.0
 11
59.24320938290028
 21
25.15265645824691
 31
0.0
 12
59.10820938290028
 22
24.34265645824691
 32
0.0
 13
59.10820938290028
 23
24.34265645824691
 33
0.0
  0
SOLID
  5
9D6
330
9D0
100
AcDbEntity
  8
DIM
 62
     0
100
AcDbTrace
 10
58.97320938290029
 20
22.54865645824691
 30
0.0
 11
59.24320938290028
 21
22.54865645824691
 31
0.0
 12
59.10820938290028
 22
23.35865645824691
 32
0.0
 13
59.10820938290028
 23
23.35865645824691
 33
0.0
  0
MTEXT
  5
9D7
330
9D0
100
AcDbEntity
  8
DIM
 62
     0
100
AcDbMText
 10
59.10820938290028
 20
23.85065645824692
 30
0.0
 40
0.5625
 41
0.0
 71
     5
 72
     1
  1
\A1;0.984 [25] TYP.
 73
     1
 44
1.0
  0
POINT
  5
9D8
330
9D0
100
AcDbEntity
  8
DEFPOINTS
 62
     0
100
AcDbPoint
 10
54.77921360281773
 20
24.34265645824692
 30
0.0
  0
POINT
  5
9D9
330
9D0
100
AcDbEntity
  8
DEFPOINTS
 62
     0
100
AcDbPoint
 10
54.77921360281773
 20
23.35865645824691
 30
0.0
  0
POINT
  5
9DA
330
9D0
100
AcDbEntity
  8
DEFPOINTS
 62
     0
100
AcDbPoint
 10
59.10820938290028
 20
23.35865645824691
 30
0.0
  0
ENDBLK
  5
9DC
330
9D0
100
AcDbEntity
  8
0
100
AcDbBlockEnd
  0
BLOCK
  5
9E8
330
9DD
100
AcDbEntity
  8
0
100
AcDbBlockBegin
  2
*D31
 70
     1
 10
0.0
 20
0.0
 30
0.0
  3
*D31
  1

  0
LINE
  5
9DE
330
9DD
100
AcDbEntity
  8
DIM
 62
     0
370
    -2
100
AcDbLine
 10
55.06271360281773
 20
15.07865645824692
 30
0.0
 11
61.44972604971299
 21
15.07865645824691
 31
0.0
  0
LINE
  5
9DF
330
9DD
100
AcDbEntity
  8
DIM
 62
     0
370
    -2
100
AcDbLine
 10
55.06271360281773
 20
18.03065645824691
 30
0.0
 11
61.449726049713
 21
18.03065645824691
 31
0.0
  0
LINE
  5
9E0
330
9DD
100
AcDbEntity
  8
DIM
 62
     0
370
    -2
100
AcDbLine
 10
61.03122604971299
 20
14.26865645824691
 30
0.0
 11
61.03122604971299
 21
13.45865645824691
 31
0.0
  0
LINE
  5
9E1
330
9DD
100
AcDbEntity
  8
DIM
 62
     0
370
    -2
100
AcDbLine
 10
61.031226049713
 20
18.84065645824691
 30
0.0
 11
61.031226049713
 21
19.65065645824691
 31
0.0
  0
SOLID
  5
9E2
330
9DD
100
AcDbEntity
  8
DIM
 62
     0
100
AcDbTrace
 10
60.896226049713
 20
14.26865645824691
 30
0.0
 11
61.16622604971299
 21
14.26865645824691
 31
0.0
 12
61.03122604971299
 22
15.07865645824691
 32
0.0
 13
61.03122604971299
 23
15.07865645824691
 33
0.0
  0
SOLID
  5
9E3
330
9DD
100
AcDbEntity
  8
DIM
 62
     0
100
AcDbTrace
 10
60.896226049713
 20
18.84065645824691
 30
0.0
 11
61.166226049713
 21
18.84065645824691
 31
0.0
 12
61.031226049713
 22
18.03065645824691
 32
0.0
 13
61.031226049713
 23
18.03065645824691
 33
0.0
  0
MTEXT
  5
9E4
330
9DD
100
AcDbEntity
  8
DIM
 62
     0
100
AcDbMText
 10
61.03122604971299
 20
16.55465645824692
 30
0.0
 40
0.5625
 41
0.0
 71
     5
 72
     1
  1
\A1;2.952 [75]
 73
     1
 44
1.0
  0
POINT
  5
9E5
330
9DD
100
AcDbEntity
  8
DEFPOINTS
 62
     0
100
AcDbPoint
 10
54.77921360281773
 20
15.07865645824692
 30
0.0
  0
POINT
  5
9E6
330
9DD
100
AcDbEntity
  8
DEFPOINTS
 62
     0
100
AcDbPoint
 10
54.77921360281773
 20
18.03065645824691
 30
0.0
  0
POINT
  5
9E7
330
9DD
100
AcDbEntity
  8
DEFPOINTS
 62
     0
100
AcDbPoint
 10
61.031226049713
 20
18.03065645824691
 30
0.0
  0
ENDBLK
  5
9E9
330
9DD
100
AcDbEntity
  8
0
100
AcDbBlockEnd
  0
BLOCK
  5
9F5
330
9EA
100
AcDbEntity
  8
0
100
AcDbBlockBegin
  2
*D32
 70
     1
 10
0.0
 20
0.0
 30
0.0
  3
*D32
  1

  0
LINE
  5
9EB
330
9EA
100
AcDbEntity
  8
DIM
 62
     0
370
    -2
100
AcDbLine
 10
55.06271360281773
 20
24.34265645824692
 30
0.0
 11
62.63852460381766
 21
24.34265645824691
 31
0.0
  0
LINE
  5
9EC
330
9EA
100
AcDbEntity
  8
DIM
 62
     0
370
    -2
100
AcDbLine
 10
55.06271360281773
 20
21.39065645824692
 30
0.0
 11
62.63852460381766
 21
21.39065645824691
 31
0.0
  0
LINE
  5
9ED
330
9EA
100
AcDbEntity
  8
DIM
 62
     0
370
    -2
100
AcDbLine
 10
62.22002460381766
 20
25.15265645824691
 30
0.0
 11
62.22002460381766
 21
25.96265645824692
 31
0.0
  0
LINE
  5
9EE
330
9EA
100
AcDbEntity
  8
DIM
 62
     0
370
    -2
100
AcDbLine
 10
62.22002460381766
 20
20.58065645824691
 30
0.0
 11
62.22002460381766
 21
19.77065645824692
 31
0.0
  0
SOLID
  5
9EF
330
9EA
100
AcDbEntity
  8
DIM
 62
     0
100
AcDbTrace
 10
62.08502460381766
 20
25.15265645824691
 30
0.0
 11
62.35502460381766
 21
25.15265645824691
 31
0.0
 12
62.22002460381766
 22
24.34265645824691
 32
0.0
 13
62.22002460381766
 23
24.34265645824691
 33
0.0
  0
SOLID
  5
9F0
330
9EA
100
AcDbEntity
  8
DIM
 62
     0
100
AcDbTrace
 10
62.08502460381766
 20
20.58065645824691
 30
0.0
 11
62.35502460381766
 21
20.58065645824691
 31
0.0
 12
62.22002460381766
 22
21.39065645824691
 32
0.0
 13
62.22002460381766
 23
21.39065645824691
 33
0.0
  0
MTEXT
  5
9F1
330
9EA
100
AcDbEntity
  8
DIM
 62
     0
100
AcDbMText
 10
62.22002460381766
 20
22.86665645824693
 30
0.0
 40
0.5625
 41
0.0
 71
     5
 72
     1
  1
\A1;2.952 [75]
 73
     1
 44
1.0
  0
POINT
  5
9F2
330
9EA
100
AcDbEntity
  8
DEFPOINTS
 62
     0
100
AcDbPoint
 10
54.77921360281773
 20
24.34265645824692
 30
0.0
  0
POINT
  5
9F3
330
9EA
100
AcDbEntity
  8
DEFPOINTS
 62
     0
100
AcDbPoint
 10
54.77921360281773
 20
21.39065645824692
 30
0.0
  0
POINT
  5
9F4
330
9EA
100
AcDbEntity
  8
DEFPOINTS
 62
     0
100
AcDbPoint
 10
62.22002460381766
 20
21.39065645824691
 30
0.0
  0
ENDBLK
  5
9F6
330
9EA
100
AcDbEntity
  8
0
100
AcDbBlockEnd
  0
BLOCK
  5
A02
330
9F7
100
AcDbEntity
  8
0
100
AcDbBlockBegin
  2
*D33
 70
     1
 10
0.0
 20
0.0
 30
0.0
  3
*D33
  1

  0
LINE
  5
9F8
330
9F7
100
AcDbEntity
  8
DIM
 62
     0
370
    -2
100
AcDbLine
 10
55.06271360281773
 20
18.03065645824691
 30
0.0
 11
58.81619816388038
 21
18.03065645824691
 31
0.0
  0
LINE
  5
9F9
330
9F7
100
AcDbEntity
  8
DIM
 62
     0
370
    -2
100
AcDbLine
 10
55.06271360281773
 20
21.39065645824692
 30
0.0
 11
58.81619816388038
 21
21.39065645824691
 31
0.0
  0
LINE
  5
9FA
330
9F7
100
AcDbEntity
  8
DIM
 62
     0
370
    -2
100
AcDbLine
 10
58.39769816388038
 20
17.22065645824691
 30
0.0
 11
58.39769816388038
 21
16.41065645824691
 31
0.0
  0
LINE
  5
9FB
330
9F7
100
AcDbEntity
  8
DIM
 62
     0
370
    -2
100
AcDbLine
 10
58.39769816388038
 20
22.20065645824691
 30
0.0
 11
58.39769816388038
 21
23.01065645824692
 31
0.0
  0
SOLID
  5
9FC
330
9F7
100
AcDbEntity
  8
DIM
 62
     0
100
AcDbTrace
 10
58.26269816388037
 20
17.22065645824691
 30
0.0
 11
58.53269816388038
 21
17.22065645824691
 31
0.0
 12
58.39769816388038
 22
18.03065645824691
 32
0.0
 13
58.39769816388038
 23
18.03065645824691
 33
0.0
  0
SOLID
  5
9FD
330
9F7
100
AcDbEntity
  8
DIM
 62
     0
100
AcDbTrace
 10
58.26269816388037
 20
22.20065645824691
 30
0.0
 11
58.53269816388038
 21
22.20065645824691
 31
0.0
 12
58.39769816388038
 22
21.39065645824691
 32
0.0
 13
58.39769816388038
 23
21.39065645824691
 33
0.0
  0
MTEXT
  5
9FE
330
9F7
100
AcDbEntity
  8
DIM
 62
     0
100
AcDbMText
 10
58.39769816388037
 20
19.71065645824692
 30
0.0
 40
0.5625
 41
0.0
 71
     5
 72
     1
  1
\A1;3.360 [85]
 73
     1
 44
1.0
  0
POINT
  5
9FF
330
9F7
100
AcDbEntity
  8
DEFPOINTS
 62
     0
100
AcDbPoint
 10
54.77921360281773
 20
18.03065645824691
 30
0.0
  0
POINT
  5
A00
330
9F7
100
AcDbEntity
  8
DEFPOINTS
 62
     0
100
AcDbPoint
 10
54.77921360281773
 20
21.39065645824692
 30
0.0
  0
POINT
  5
A01
330
9F7
100
AcDbEntity
  8
DEFPOINTS
 62
     0
100
AcDbPoint
 10
58.39769816388038
 20
21.39065645824691
 30
0.0
  0
ENDBLK
  5
A03
330
9F7
100
AcDbEntity
  8
0
100
AcDbBlockEnd
  0
ENDSEC
  0
SECTION
  2
ENTITIES
  0
TEXT
  5
261
330
1E
100
AcDbEntity
  8
TEXT
100
AcDbText
 10
14.27152623594541
 20
1.410016042780734
 30
0.0
 40
0.5625
  1
11.052
 41
0.75
 72
     4
 11
15.15043248594541
 21
1.691266042780734
 31
0.0
100
AcDbText
  0
TEXT
  5
262
330
1E
100
AcDbEntity
  8
TEXT
100
AcDbText
 10
14.37699498594541
 20
0.4685053475935792
 30
0.0
 40
0.5625
  1
[281]
 41
0.75
 72
     4
 11
15.15043248594541
 21
0.7497553475935792
 31
0.0
100
AcDbText
  0
TEXT
  5
263
330
1E
100
AcDbEntity
  8
TEXT
100
AcDbText
 10
17.09236248594542
 20
0.4685053475935792
 30
0.0
 40
0.5625
  1
[256]
 41
0.75
 72
     4
 11
17.93611248594542
 21
0.7497553475935792
 31
0.0
100
AcDbText
  0
TEXT
  5
264
330
1E
100
AcDbEntity
  8
TEXT
100
AcDbText
 10
17.05720623594542
 20
1.410016042780734
 30
0.0
 40
0.5625
  1
10.090
 41
0.75
 72
     4
 11
17.93611248594542
 21
1.691266042780734
 31
0.0
100
AcDbText
  0
TEXT
  5
265
330
1E
100
AcDbEntity
  8
TEXT
100
AcDbText
 10
19.87804248594541
 20
0.4685053475935792
 30
0.0
 40
0.5625
  1
[256]
 41
0.75
 72
     4
 11
20.72179248594541
 21
0.7497553475935792
 31
0.0
100
AcDbText
  0
TEXT
  5
266
330
1E
100
AcDbEntity
  8
TEXT
100
AcDbText
 10
19.80772998594541
 20
1.410016042780734
 30
0.0
 40
0.5625
  1
10.086
 41
0.75
 72
     4
 11
20.72179248594541
 21
1.691266042780734
 31
0.0
100
AcDbText
  0
TEXT
  5
267
330
1E
100
AcDbEntity
  8
TEXT
100
AcDbText
 10
22.66372248594541
 20
0.4685053475935792
 30
0.0
 40
0.5625
  1
[225]
 41
0.75
 72
     4
 11
23.50747248594541
 21
0.7497553475935792
 31
0.0
100
AcDbText
  0
TEXT
  5
268
330
1E
100
AcDbEntity
  8
TEXT
100
AcDbText
 10
22.69887873594541
 20
1.410016042780734
 30
0.0
 40
0.5625
  1
8.870
 41
0.75
 72
     4
 11
23.50747248594541
 21
1.691266042780734
 31
0.0
100
AcDbText
  0
TEXT
  5
269
330
1E
100
AcDbEntity
  8
TEXT
100
AcDbText
 10
25.55487123594541
 20
0.4685053475935792
 30
0.0
 40
0.5625
  1
[210]
 41
0.75
 72
     4
 11
26.29315248594541
 21
0.7497553475935792
 31
0.0
100
AcDbText
  0
TEXT
  5
26A
330
1E
100
AcDbEntity
  8
TEXT
100
AcDbText
 10
25.44940248594541
 20
1.410016042780734
 30
0.0
 40
0.5625
  1
8.265
 41
0.75
 72
     4
 11
26.29315248594541
 21
1.691266042780734
 31
0.0
100
AcDbText
  0
TEXT
  5
26B
330
1E
100
AcDbEntity
  8
TEXT
100
AcDbText
 10
28.30539498594541
 20
0.4685053475935792
 30
0.0
 40
0.5625
  1
[175]
 41
0.75
 72
     4
 11
29.07883248594542
 21
0.7497553475935792
 31
0.0
100
AcDbText
  0
TEXT
  5
26C
330
1E
100
AcDbEntity
  8
TEXT
100
AcDbText
 10
28.23508248594542
 20
1.410016042780734
 30
0.0
 40
0.5625
  1
6.888
 41
0.75
 72
     4
 11
29.07883248594542
 21
1.691266042780734
 31
0.0
100
AcDbText
  0
TEXT
  5
26D
330
1E
100
AcDbEntity
  8
TEXT
100
AcDbText
 10
31.09107498594541
 20
0.4685053475935792
 30
0.0
 40
0.5625
  1
[341]
 41
0.75
 72
     4
 11
31.86451248594542
 21
0.7497553475935792
 31
0.0
100
AcDbText
  0
TEXT
  5
26E
330
1E
100
AcDbEntity
  8
TEXT
100
AcDbText
 10
30.88013748594542
 20
1.410016042780734
 30
0.0
 40
0.5625
  1
13.423
 41
0.75
 72
     4
 11
31.86451248594542
 21
1.691266042780734
 31
0.0
100
AcDbText
  0
TEXT
  5
26F
330
1E
100
AcDbEntity
  8
TEXT
100
AcDbText
 10
33.87675498594541
 20
0.4685053475935792
 30
0.0
 40
0.5625
  1
[316]
 41
0.75
 72
     4
 11
34.65019248594541
 21
0.7497553475935792
 31
0.0
100
AcDbText
  0
TEXT
  5
270
330
1E
100
AcDbEntity
  8
TEXT
100
AcDbText
 10
33.70097373594541
 20
1.410016042780734
 30
0.0
 40
0.5625
  1
12.460
 41
0.75
 72
     4
 11
34.65019248594541
 21
1.691266042780734
 31
0.0
100
AcDbText
  0
TEXT
  5
271
330
1E
100
AcDbEntity
  8
TEXT
100
AcDbText
 10
36.66243498594542
 20
0.4685053475935792
 30
0.0
 40
0.5625
  1
[316]
 41
0.75
 72
     4
 11
37.43587248594542
 21
0.7497553475935792
 31
0.0
100
AcDbText
  0
TEXT
  5
272
330
1E
100
AcDbEntity
  8
TEXT
100
AcDbText
 10
36.45149748594542
 20
1.410016042780734
 30
0.0
 40
0.5625
  1
12.443
 41
0.75
 72
     4
 11
37.43587248594542
 21
1.691266042780734
 31
0.0
100
AcDbText
  0
TEXT
  5
273
330
1E
100
AcDbEntity
  8
TEXT
100
AcDbText
 10
39.37780248594541
 20
0.4685053475935792
 30
0.0
 40
0.5625
  1
[285]
 41
0.75
 72
     4
 11
40.22155248594541
 21
0.7497553475935792
 31
0.0
100
AcDbText
  0
TEXT
  5
274
330
1E
100
AcDbEntity
  8
TEXT
100
AcDbText
 10
39.34264623594541
 20
1.410016042780734
 30
0.0
 40
0.5625
  1
11.220
 41
0.75
 72
     4
 11
40.22155248594541
 21
1.691266042780734
 31
0.0
100
AcDbText
  0
TEXT
  5
275
330
1E
100
AcDbEntity
  8
TEXT
100
AcDbText
 10
42.19863873594542
 20
0.4685053475935792
 30
0.0
 40
0.5625
  1
[270]
 41
0.75
 72
     4
 11
43.00723248594542
 21
0.7497553475935792
 31
0.0
100
AcDbText
  0
TEXT
  5
276
330
1E
100
AcDbEntity
  8
TEXT
100
AcDbText
 10
42.05801373594542
 20
1.410016042780734
 30
0.0
 40
0.5625
  1
10.637
 41
0.75
 72
     4
 11
43.00723248594542
 21
1.691266042780734
 31
0.0
100
AcDbText
  0
TEXT
  5
277
330
1E
100
AcDbEntity
  8
TEXT
100
AcDbText
 10
44.94916248594542
 20
0.4685053475935792
 30
0.0
 40
0.5625
  1
[235]
 41
0.75
 72
     4
 11
45.79291248594542
 21
0.7497553475935792
 31
0.0
100
AcDbText
  0
TEXT
  5
278
330
1E
100
AcDbEntity
  8
TEXT
100
AcDbText
 10
44.94916248594542
 20
1.410016042780734
 30
0.0
 40
0.5625
  1
9.264
 41
0.75
 72
     4
 11
45.79291248594542
 21
1.691266042780734
 31
0.0
100
AcDbText
  0
TEXT
  5
279
330
1E
100
AcDbEntity
  8
TEXT
100
AcDbText
 10
47.87546748594541
 20
0.4685053475935792
 30
0.0
 40
0.5625
  1
[100]
 41
0.75
 72
     4
 11
48.57859248594541
 21
0.7497553475935792
 31
0.0
100
AcDbText
  0
TEXT
  5
27A
330
1E
100
AcDbEntity
  8
TEXT
100
AcDbText
 10
47.76999873594541
 20
1.410016042780734
 30
0.0
 40
0.5625
  1
3.920
 41
0.75
 72
     4
 11
48.57859248594541
 21
1.691266042780734
 31
0.0
100
AcDbText
  0
TEXT
  5
27B
330
1E
100
AcDbEntity
  8
TEXT
100
AcDbText
 10
50.76661623594542
 20
0.4685053475935792
 30
0.0
 40
0.5625
  1
[30]
 41
0.75
 72
     4
 11
51.36427248594542
 21
0.7497553475935792
 31
0.0
100
AcDbText
  0
TEXT
  5
27C
330
1E
100
AcDbEntity
  8
TEXT
100
AcDbText
 10
50.73145998594542
 20
1.410016042780734
 30
0.0
 40
0.5625
  1
1.191
 41
0.75
 72
     4
 11
51.36427248594542
 21
1.691266042780734
 31
0.0
100
AcDbText
  0
TEXT
  5
27D
330
1E
100
AcDbEntity
  8
TEXT
100
AcDbText
 10
53.34014251830487
 20
0.4685053475935792
 30
0.0
 40
0.5625
  1
[338]
 41
0.75
 72
     4
 11
54.18389251830487
 21
0.7497553475935792
 31
0.0
100
AcDbText
  0
TEXT
  5
27E
330
1E
100
AcDbEntity
  8
TEXT
100
AcDbText
 10
53.3219563978818
 20
1.410016042780734
 30
0.0
 40
0.5625
  1
13.310
 41
0.75
 72
     4
 11
54.2008626478818
 21
1.691266042780734
 31
0.0
100
AcDbText
  0
TEXT
  5
27F
330
1E
100
AcDbEntity
  8
TEXT
100
AcDbText
 10
56.14279242108715
 20
0.4685053475935792
 30
0.0
 40
0.5625
  1
[336]
 41
0.75
 72
     4
 11
56.98654242108714
 21
0.7497553475935792
 31
0.0
100
AcDbText
  0
TEXT
  5
280
330
1E
100
AcDbEntity
  8
TEXT
100
AcDbText
 10
56.03732367108714
 20
1.410016042780734
 30
0.0
 40
0.5625
  1
13.230
 41
0.75
 72
     4
 11
56.98654242108714
 21
1.691266042780734
 31
0.0
100
AcDbText
  0
TEXT
  5
281
330
1E
100
AcDbEntity
  8
TEXT
100
AcDbText
 10
58.87756248594542
 20
0.4685053475935792
 30
0.0
 40
0.5625
  1
[278]
 41
0.75
 72
     4
 11
59.72131248594543
 21
0.7497553475935792
 31
0.0
100
AcDbText
  0
TEXT
  5
282
330
1E
100
AcDbEntity
  8
TEXT
100
AcDbText
 10
58.80724998594542
 20
1.410016042780734
 30
0.0
 40
0.5625
  1
10.960
 41
0.75
 72
     4
 11
59.72131248594543
 21
1.691266042780734
 31
0.0
100
AcDbText
  0
TEXT
  5
283
330
1E
100
AcDbEntity
  8
TEXT
100
AcDbText
 10
61.66324248594541
 20
0.4685053475935792
 30
0.0
 40
0.5625
  1
[277]
 41
0.75
 72
     4
 11
62.50699248594542
 21
0.7497553475935792
 31
0.0
100
AcDbText
  0
TEXT
  5
284
330
1E
100
AcDbEntity
  8
TEXT
100
AcDbText
 10
61.59292998594541
 20
1.410016042780734
 30
0.0
 40
0.5625
  1
10.890
 41
0.75
 72
     4
 11
62.50699248594542
 21
1.691266042780734
 31
0.0
100
AcDbText
  0
LINE
  5
285
330
1E
100
AcDbEntity
  8
OBJECT
100
AcDbLine
 10
25.04304043515463
 20
26.42215645824711
 30
0.0
 11
25.04304043515463
 21
13.99222068975808
 31
0.0
  0
LINE
  5
286
330
1E
100
AcDbEntity
  8
OBJECT
100
AcDbLine
 10
26.23404043515463
 20
25.84865645824706
 30
0.0
 11
26.23404043515463
 21
13.56415645824719
 31
0.0
  0
LINE
  5
287
330
1E
100
AcDbEntity
  8
OBJECT
100
AcDbLine
 10
26.11593019965451
 20
19.7106564582471
 30
0.0
 11
26.11593019965451
 21
14.31341020741555
 31
0.0
  0
LINE
  5
288
330
1E
100
AcDbEntity
  8
OBJECT
100
AcDbLine
 10
26.00404043515465
 20
13.1516564582469
 30
0.0
 11
25.04304043515463
 21
13.1516564582469
 31
0.0
  0
LINE
  5
289
330
1E
100
AcDbEntity
  8
CENTER
100
AcDbLine
 10
50.34421360281773
 20
12.51774310724686
 30
0.0
 11
50.34421360281773
 21
26.90356980924686
 31
0.0
  0
LINE
  5
28A
330
1E
100
AcDbEntity
  8
CENTER
100
AcDbLine
 10
44.33240260181777
 20
19.71065645824691
 30
0.0
 11
56.35602460381768
 21
19.71065645824691
 31
0.0
  0
LINE
  5
28B
330
1E
100
AcDbEntity
  8
OBJECT
100
AcDbLine
 10
21.12304043515462
 20
16.25667220509508
 30
0.0
 11
21.12304043515462
 21
16.85264071139913
 31
0.0
  0
LINE
  5
28C
330
1E
100
AcDbEntity
  8
OBJECT
100
AcDbLine
 10
25.04304043515463
 20
26.42215645824711
 30
0.0
 11
21.12304043515462
 21
26.32565645824711
 31
0.0
  0
LINE
  5
28D
330
1E
100
AcDbEntity
  8
OBJECT
100
AcDbLine
 10
21.12304043515462
 20
16.25667220509508
 30
0.0
 11
21.04304043515463
 21
16.21730212659504
 31
0.0
  0
LINE
  5
28E
330
1E
100
AcDbEntity
  8
OBJECT
100
AcDbLine
 10
21.12304043515464
 20
15.27267220509514
 30
0.0
 11
21.04304043515464
 21
15.2333021265951
 31
0.0
  0
LINE
  5
28F
330
1E
100
AcDbEntity
  8
OBJECT
100
AcDbLine
 10
21.12304043515462
 20
15.86864071139912
 30
0.0
 11
21.04304043515463
 21
15.90801078989905
 31
0.0
  0
LINE
  5
290
330
1E
100
AcDbEntity
  8
OBJECT
100
AcDbLine
 10
21.12304043515464
 20
15.27267220509514
 30
0.0
 11
21.12304043515462
 21
15.86864071139912
 31
0.0
  0
LINE
  5
291
330
1E
100
AcDbEntity
  8
OBJECT
100
AcDbLine
 10
21.04304043515463
 20
16.21730212659504
 30
0.0
 11
21.04304043515463
 21
15.90801078989905
 31
0.0
  0
LINE
  5
292
330
1E
100
AcDbEntity
  8
OBJECT
100
AcDbLine
 10
21.12304043515462
 20
14.70711708624715
 30
0.0
 11
21.04304043515463
 21
14.66774700774711
 31
0.0
  0
LINE
  5
293
330
1E
100
AcDbEntity
  8
OBJECT
100
AcDbLine
 10
21.12304043515464
 20
14.88464071139907
 30
0.0
 11
21.04304043515464
 21
14.92401078989911
 31
0.0
  0
LINE
  5
294
330
1E
100
AcDbEntity
  8
OBJECT
100
AcDbLine
 10
21.12304043515462
 20
14.70711708624715
 30
0.0
 11
21.12304043515464
 21
14.88464071139907
 31
0.0
  0
LINE
  5
295
330
1E
100
AcDbEntity
  8
OBJECT
100
AcDbLine
 10
21.04304043515463
 20
13.82620790209613
 30
0.0
 11
21.12304043515462
 21
13.82620790209613
 31
0.0
  0
LINE
  5
296
330
1E
100
AcDbEntity
  8
OBJECT
100
AcDbLine
 10
21.12304043515462
 20
13.82620790209613
 30
0.0
 11
21.12304043515462
 21
14.07719583024705
 31
0.0
  0
LINE
  5
297
330
1E
100
AcDbEntity
  8
OBJECT
100
AcDbLine
 10
21.12304043515462
 20
14.07719583024705
 30
0.0
 11
21.04304043515463
 21
14.11656590874709
 31
0.0
  0
LINE
  5
298
330
1E
100
AcDbEntity
  8
OBJECT
100
AcDbLine
 10
21.22304043515465
 20
14.31115645824709
 30
0.0
 11
21.22304043515465
 21
14.4731564582471
 31
0.0
  0
LINE
  5
299
330
1E
100
AcDbEntity
  8
OBJECT
100
AcDbLine
 10
21.04304043515463
 20
14.66774700774711
 30
0.0
 11
21.04304043515463
 21
14.11656590874709
 31
0.0
  0
LINE
  5
29A
330
1E
100
AcDbEntity
  8
OBJECT
100
AcDbLine
 10
21.63704043515463
 20
14.68915645824709
 30
0.0
 11
21.25104043515457
 21
14.68915645824709
 31
0.0
  0
LINE
  5
29B
330
1E
100
AcDbEntity
  8
OBJECT
100
AcDbLine
 10
21.63704043515463
 20
14.0951564582471
 30
0.0
 11
21.25104043515437
 21
14.0951564582471
 31
0.0
  0
LINE
  5
29C
330
1E
100
AcDbEntity
  8
OBJECT
100
AcDbLine
 10
21.63704043515463
 20
14.0951564582471
 30
0.0
 11
21.63704043515463
 21
14.68915645824709
 31
0.0
  0
LINE
  5
29D
330
1E
100
AcDbEntity
  8
OBJECT
100
AcDbLine
 10
21.52604043515463
 20
14.86865645824711
 30
0.0
 11
21.52604043515463
 21
15.28865645824711
 31
0.0
  0
LINE
  5
29E
330
1E
100
AcDbEntity
  8
OBJECT
100
AcDbLine
 10
21.22304043515465
 20
14.99565645824711
 30
0.0
 11
21.22304043515465
 21
15.16165645824711
 31
0.0
  0
LINE
  5
29F
330
1E
100
AcDbEntity
  8
OBJECT
100
AcDbLine
 10
21.04304043515464
 20
15.2333021265951
 30
0.0
 11
21.04304043515464
 21
14.92401078989911
 31
0.0
  0
LINE
  5
2A0
330
1E
100
AcDbEntity
  8
OBJECT
100
AcDbLine
 10
21.04304043515463
 20
13.1521050143982
 30
0.0
 11
21.12304043515462
 21
13.1521050143982
 31
0.0
  0
LINE
  5
2A1
330
1E
100
AcDbEntity
  8
OBJECT
100
AcDbLine
 10
21.12304043515462
 20
13.0956564582471
 30
0.0
 11
21.12304043515462
 21
13.1521050143982
 31
0.0
  0
LINE
  5
2A2
330
1E
100
AcDbEntity
  8
OBJECT
100
AcDbLine
 10
25.04304043515463
 20
12.99915645824711
 30
0.0
 11
21.12304043515462
 21
13.0956564582471
 31
0.0
  0
LINE
  5
2A3
330
1E
100
AcDbEntity
  8
OBJECT
100
AcDbLine
 10
21.04304043515463
 20
13.82620790209613
 30
0.0
 11
21.04304043515463
 21
13.1521050143982
 31
0.0
  0
LINE
  5
2A4
330
1E
100
AcDbEntity
  8
OBJECT
100
AcDbLine
 10
21.04304043515463
 20
17.20130212659505
 30
0.0
 11
21.04304043515463
 21
16.89201078989906
 31
0.0
  0
LINE
  5
2A5
330
1E
100
AcDbEntity
  8
OBJECT
100
AcDbLine
 10
21.12304043515462
 20
16.85264071139913
 30
0.0
 11
21.04304043515463
 21
16.89201078989906
 31
0.0
  0
LINE
  5
2A6
330
1E
100
AcDbEntity
  8
OBJECT
100
AcDbLine
 10
21.12304043515462
 20
17.24067220509509
 30
0.0
 11
21.04304043515463
 21
17.20130212659505
 31
0.0
  0
LINE
  5
2A7
330
1E
100
AcDbEntity
  8
OBJECT
100
AcDbLine
 10
21.12304043515462
 20
17.24067220509498
 30
0.0
 11
21.12304043515462
 21
17.83664071139912
 31
0.0
  0
DIMENSION
  5
2A8
330
1E
100
AcDbEntity
  8
DIM
100
AcDbDimension
  2
*D3
 10
45.30121360281772
 20
27.60956096697802
 30
0.0
 11
50.34421360281773
 21
27.60956096697802
 31
0.0
 70
    32
  1
C
 71
     5
 42
10.08600000000001
  3
23NSTD
100
AcDbAlignedDimension
 13
55.38721360281773
 23
25.93215645824692
 33
0.0
 14
45.30121360281772
 24
25.93215645824692
 34
0.0
100
AcDbRotatedDimension
  0
DIMENSION
  5
2A9
330
1E
100
AcDbEntity
  8
DIM
100
AcDbDimension
  2
*D4
 10
44.81821360281775
 20
29.85956096697802
 30
0.0
 11
50.34421360281772
 21
29.85956096697802
 31
0.0
 70
    32
  1
A
 71
     5
 42
11.05199999999993
  3
23NSTD
100
AcDbAlignedDimension
 13
55.87021360281768
 23
25.93003047699696
 33
0.0
 14
44.81821360281775
 24
25.93003047699696
 34
0.0
100
AcDbRotatedDimension
  0
DIMENSION
  5
2AA
330
1E
100
AcDbEntity
  8
DIM
100
AcDbDimension
  2
*D5
 10
45.29921360281774
 20
28.73456096697802
 30
0.0
 11
50.34421360281775
 21
28.73456096697802
 31
0.0
 70
    32
  1
B
 71
     5
 42
10.09
  3
23NSTD
100
AcDbAlignedDimension
 13
55.38921360281775
 23
25.41178030827731
 33
0.0
 14
45.29921360281774
 24
25.41178030827731
 34
0.0
100
AcDbRotatedDimension
  0
DIMENSION
  5
2AB
330
1E
100
AcDbEntity
  8
DIM
100
AcDbDimension
  2
*D6
 10
41.05030649769894
 20
26.42215645824691
 30
0.0
 11
41.05030649769893
 21
19.71065645824696
 31
0.0
 70
    32
  1
G
 71
     5
 42
13.42299999999993
  3
23NSTD
100
AcDbAlignedDimension
 13
45.3103395840677
 23
12.99915645824698
 33
0.0
 14
45.3103395840677
 24
26.42215645824691
 34
0.0
 50
90.0
100
AcDbRotatedDimension
  0
DIMENSION
  5
2AC
330
1E
100
AcDbEntity
  8
DIM
100
AcDbDimension
  2
*D7
 10
42.31480649769894
 20
13.48065645824692
 30
0.0
 11
42.31480649769894
 21
19.71065645824692
 31
0.0
 70
    32
  1
H
 71
     5
 42
12.46
  3
23NSTD
100
AcDbAlignedDimension
 13
45.82841634519993
 23
25.94065645824692
 33
0.0
 14
45.82841634520003
 24
13.48065645824692
 34
0.0
 50
90.0
100
AcDbRotatedDimension
  0
DIMENSION
  5
2AD
330
1E
100
AcDbEntity
  8
DIM
100
AcDbDimension
  2
*D8
 10
43.57930649769893
 20
13.48915645824692
 30
0.0
 11
43.57930649769893
 21
19.71065645824692
 31
0.0
 70
    32
  1
J
 71
     5
 42
12.443
  3
23NSTD
100
AcDbAlignedDimension
 13
45.30121360281772
 23
25.93215645824692
 33
0.0
 14
45.30121360281775
 24
13.48915645824691
 34
0.0
 50
90.0
100
AcDbRotatedDimension
  0
DIMENSION
  5
2AE
330
1E
100
AcDbEntity
  8
DIM
100
AcDbDimension
  2
*D9
 10
66.99702460381766
 20
25.32065645824691
 30
0.0
 11
66.99702460381766
 21
19.71065645824692
 31
0.0
 70
    32
  1
K
 71
     5
 42
11.21999999999999
  3
23NSTD
100
AcDbAlignedDimension
 13
53.78821360281775
 23
14.10065645824691
 33
0.0
 14
53.78821360281775
 24
25.32065645824691
 34
0.0
 50
90.0
100
AcDbRotatedDimension
  0
DIMENSION
  5
2AF
330
1E
100
AcDbEntity
  8
DIM
100
AcDbDimension
  2
*D10
 10
65.73252460381766
 20
25.02915645824691
 30
0.0
 11
65.73252460381766
 21
19.71065645824692
 31
0.0
 70
    32
  1
L
 71
     5
 42
10.63699999999999
  3
23NSTD
100
AcDbAlignedDimension
 13
54.47671360281773
 23
14.39215645824691
 33
0.0
 14
54.47671360281773
 24
25.02915645824691
 34
0.0
 50
90.0
100
AcDbRotatedDimension
  0
DIMENSION
  5
2B0
330
1E
100
AcDbEntity
  8
DIM
100
AcDbDimension
  2
*D11
 10
64.46802460381767
 20
24.34265645824691
 30
0.0
 11
64.46802460381767
 21
19.71065645824692
 31
0.0
 70
    32
  1
M
 71
     5
 42
9.264000000000001
  3
23NSTD
100
AcDbAlignedDimension
 13
54.77921360281773
 23
15.07865645824692
 33
0.0
 14
54.77921360281773
 24
24.34265645824692
 34
0.0
 50
90.0
100
AcDbRotatedDimension
  0
DIMENSION
  5
2B1
330
1E
100
AcDbEntity
  8
DIM
100
AcDbDimension
  2
*D12
 10
46.90021360281774
 20
9.303228612804417
 30
0.0
 11
50.34421360281775
 21
9.303228612804417
 31
0.0
 70
    32
  1
F
 71
     5
 42
6.888000000000005
  3
23NSTD
100
AcDbAlignedDimension
 13
53.78821360281775
 23
14.10065645824691
 33
0.0
 14
46.90021360281774
 24
14.10065645824691
 34
0.0
100
AcDbRotatedDimension
  0
DIMENSION
  5
2B2
330
1E
100
AcDbEntity
  8
DIM
100
AcDbDimension
  2
*D13
 10
46.21171360281773
 20
8.178228612804417
 30
0.0
 11
50.34421360281773
 21
8.178228612804417
 31
0.0
 70
    32
  1
E
 71
     5
 42
8.264999999999986
  3
23NSTD
100
AcDbAlignedDimension
 13
54.47671360281773
 23
14.39215645824691
 33
0.0
 14
46.21171360281773
 24
14.39215645824691
 34
0.0
100
AcDbRotatedDimension
  0
DIMENSION
  5
2B3
330
1E
100
AcDbEntity
  8
DIM
100
AcDbDimension
  2
*D14
 10
45.90921360281775
 20
7.053228612804417
 30
0.0
 11
50.34421360281775
 21
7.053228612804417
 31
0.0
 70
    32
  1
D
 71
     5
 42
8.869999999999976
  3
23NSTD
100
AcDbAlignedDimension
 13
54.77921360281773
 23
15.07865645824692
 33
0.0
 14
45.90921360281775
 24
15.07865645824692
 34
0.0
100
AcDbRotatedDimension
  0
DIMENSION
  5
2B4
330
1E
100
AcDbEntity
  8
DIM
100
AcDbDimension
  2
*D28
 10
26.23404043515465
 20
27.60956096697802
 30
0.0
 11
25.63854043515464
 21
27.60956096697802
 31
0.0
 70
    32
  1
P
 71
     5
 42
1.191000000000016
  3
23NSTDI
100
AcDbAlignedDimension
 13
25.04304043515463
 23
26.38424310724696
 33
0.0
 14
26.23404043515465
 24
25.84865645824706
 34
0.0
100
AcDbRotatedDimension
  0
DIMENSION
  5
2B5
330
1E
100
AcDbEntity
  8
DIM
100
AcDbDimension
  2
*D29
 10
21.12304043515462
 20
27.60956096697802
 30
0.0
 11
23.08304043515463
 21
27.60956096697802
 31
0.0
 70
    32
  1
N
 71
     5
 42
3.920000000000008
  3
23NSTDI
100
AcDbAlignedDimension
 13
25.04304043515463
 23
26.38424310724696
 33
0.0
 14
21.12304043515462
 24
26.32565645824711
 34
0.0
100
AcDbRotatedDimension
  0
DIMENSION
  5
2B6
330
1E
100
AcDbEntity
  8
DIM
100
AcDbDimension
  2
*D15
 10
15.47079965246874
 20
26.32565645824711
 30
0.0
 11
15.47079965246873
 21
19.71065645824711
 31
0.0
 70
    32
  1
S
 71
     5
 42
13.23
  3
23NSTD
100
AcDbAlignedDimension
 13
21.12304043515462
 23
13.0956564582471
 33
0.0
 14
21.12304043515462
 24
26.32565645824711
 34
0.0
 50
270.0
100
AcDbRotatedDimension
  0
DIMENSION
  5
2B7
330
1E
100
AcDbEntity
  8
DIM
100
AcDbDimension
  2
*D16
 10
27.40229239765461
 20
13.05565645824718
 30
0.0
 11
27.40229239765461
 21
19.71065645824713
 31
0.0
 70
    32
  1
R
 71
     5
 42
13.30999999999989
  3
23NSTD
100
AcDbAlignedDimension
 13
26.00404043515465
 23
26.36565645824707
 33
0.0
 14
26.00404043515465
 24
13.05565645824718
 34
0.0
 50
270.0
100
AcDbRotatedDimension
  0
LWPOLYLINE
  5
2B8
330
1E
100
AcDbEntity
  8
DIM
100
AcDbPolyline
 90
        4
 70
     0
 10
54.67322382228492
 20
25.23624758558806
 40
0.0
 41
0.30375
 10
55.21160640817277
 20
25.84142870823871
 40
0.0
 41
0.0
 10
57.9774637976007
 20
29.63997154831365
 40
0.0
 41
0.0
 10
58.78746379760068
 20
29.63997154831365
 40
0.0
 41
0.0
  0
TEXT
  5
2BE
330
1E
100
AcDbEntity
  8
DIM
100
AcDbText
 10
59.19246379760062
 20
29.35872154831365
 30
0.0
 40
0.5625
  1
0.594 [15] DIA. BOSS
 41
0.75
 11
59.19246379760062
 21
29.63997154831365
 31
0.0
100
AcDbText
 73
     2
  0
TEXT
  5
2BF
330
1E
100
AcDbEntity
  8
DIM
100
AcDbText
 10
59.19246379760062
 20
28.42122154831365
 30
0.0
 40
0.5625
  1
WITH M5 x 0.8mm
 41
0.75
 11
59.19246379760062
 21
28.70247154831365
 31
0.0
100
AcDbText
 73
     2
  0
TEXT
  5
2C0
330
1E
100
AcDbEntity
  8
DIM
100
AcDbText
 10
59.19246379760062
 20
27.48372154831367
 30
0.0
 40
0.5625
  1
THREADED BRASS INSERT
 41
0.75
 11
59.19246379760062
 21
27.76497154831366
 31
0.0
100
AcDbText
 73
     2
  0
LWPOLYLINE
  5
2C1
330
1E
100
AcDbEntity
  8
DIM
100
AcDbPolyline
 90
        4
 70
     0
 10
54.94535731888586
 20
15.93421866937199
 40
0.0
 41
0.30375
 10
55.51985371272827
 20
15.36320737923664
 40
0.0
 41
0.0
 10
58.44367668386057
 20
12.72822020921662
 40
0.0
 41
0.0
 10
59.25367668386063
 20
12.72822020921662
 40
0.0
 41
0.0
  0
TEXT
  5
2C7
330
1E
100
AcDbEntity
  8
DIM
100
AcDbText
 10
59.6586766838606
 20
12.44697020921662
 30
0.0
 40
0.5625
  1
0.420 [11] DIA. BOSS WITH
 41
0.75
 11
59.6586766838606
 21
12.72822020921662
 31
0.0
100
AcDbText
 73
     2
  0
TEXT
  5
2C8
330
1E
100
AcDbEntity
  8
DIM
100
AcDbText
 10
59.6586766838606
 20
11.50947020921663
 30
0.0
 40
0.5625
  1
0.166 [4] DIA. HOLE x
 41
0.75
 11
59.6586766838606
 21
11.79072020921662
 31
0.0
100
AcDbText
 73
     2
  0
TEXT
  5
2C9
330
1E
100
AcDbEntity
  8
DIM
100
AcDbText
 10
59.6586766838606
 20
10.57197020921663
 30
0.0
 40
0.5625
  1
0.310 [8] DEEP (32) PLACES
 41
0.75
 11
59.6586766838606
 21
10.85322020921663
 31
0.0
100
AcDbText
 73
     2
  0
TEXT
  5
2CA
330
1E
100
AcDbEntity
  8
DIM
100
AcDbText
 10
59.6586766838606
 20
9.634470209216623
 30
0.0
 40
0.5625
  1
BOSSES ACCEPT M5 METRIC
 41
0.75
 11
59.6586766838606
 21
9.915720209216623
 31
0.0
100
AcDbText
 73
     2
  0
DIMENSION
  5
2CB
330
1E
100
AcDbEntity
  8
DIM
100
AcDbDimension
  2
*D17
 10
21.04304043515464
 20
27.60956096697802
 30
0.0
 11
17.57663418515464
 21
27.60956096697802
 31
0.0
 70
    32
  1
<>
 71
     5
 42
0.0799999999999841
  3
23NSTD
100
AcDbAlignedDimension
 13
21.12304043515462
 23
26.32565645824711
 33
0.0
 14
21.04304043515464
 24
26.26920790209607
 34
0.0
100
AcDbRotatedDimension
  0
LINE
  5
2CC
330
1E
100
AcDbEntity
  8
OBJECT
100
AcDbLine
 10
54.87514937130635
 20
13.48065645824692
 30
0.0
 11
45.81327783432896
 21
13.48065645824692
 31
0.0
  0
LINE
  5
2CD
330
1E
100
AcDbEntity
  8
OBJECT
100
AcDbLine
 10
45.81327783432901
 20
25.94065645824693
 30
0.0
 11
54.87514937130639
 21
25.94065645824692
 31
0.0
  0
LINE
  5
2CE
330
1E
100
AcDbEntity
  8
OBJECT
100
AcDbLine
 10
50.63203252249049
 20
25.27156382706465
 30
0.0
 11
50.44442120858716
 21
25.27156382706465
 31
0.0
  0
LINE
  5
2CF
330
1E
100
AcDbEntity
  8
OBJECT
100
AcDbLine
 10
50.63285388634311
 20
25.37304754255862
 30
0.0
 11
50.57163629999114
 21
25.37304754255862
 31
0.0
  0
LINE
  5
2D0
330
1E
100
AcDbEntity
  8
OBJECT
100
AcDbLine
 10
54.83160468712942
 20
21.59401617472155
 30
0.0
 11
54.83160468712942
 21
22.17129674177228
 31
0.0
  0
LINE
  5
2D1
330
1E
100
AcDbEntity
  8
OBJECT
100
AcDbLine
 10
54.72682251850604
 20
21.59401617472155
 30
0.0
 11
54.72682251850604
 21
22.17129674177228
 31
0.0
  0
LINE
  5
2D2
330
1E
100
AcDbEntity
  8
OBJECT
100
AcDbLine
 10
21.12304043515462
 20
18.22467220509508
 30
0.0
 11
21.12304043515462
 21
19.3956564582471
 31
0.0
  0
LINE
  5
2D3
330
1E
100
AcDbEntity
  8
OBJECT
100
AcDbLine
 10
21.36117766554765
 20
15.2886564582471
 30
0.0
 11
21.36117766554764
 21
15.85265645824711
 31
0.0
  0
LINE
  5
2D4
330
1E
100
AcDbEntity
  8
OBJECT
100
AcDbLine
 10
21.36117766554764
 20
16.27265645824709
 30
0.0
 11
21.36117766554759
 21
16.8366564582471
 31
0.0
  0
LINE
  5
2D5
330
1E
100
AcDbEntity
  8
OBJECT
100
AcDbLine
 10
21.36117766554758
 20
17.25665645824709
 30
0.0
 11
21.36117766554758
 21
17.82065645824711
 31
0.0
  0
LINE
  5
2D6
330
1E
100
AcDbEntity
  8
OBJECT
100
AcDbLine
 10
21.25104043515463
 20
14.8686564582471
 30
0.0
 11
21.25104043515457
 21
14.68915645824709
 31
0.0
  0
LINE
  5
2D7
330
1E
100
AcDbEntity
  8
CENTER
100
AcDbLine
 10
7.236067892329657
 20
12.51774310724705
 30
0.0
 11
7.236067892329643
 21
26.90356980924704
 31
0.0
  0
LINE
  5
2D8
330
1E
100
AcDbEntity
  8
CENTER
100
AcDbLine
 10
1.224256891329702
 20
19.71065645824711
 30
0.0
 11
13.24787889332961
 21
19.71065645824711
 31
0.0
  0
CIRCLE
  5
2D9
330
1E
100
AcDbEntity
  8
OBJECT
100
AcDbCircle
 10
2.801067892329655
 20
21.39065645824711
 30
0.0
 40
0.155
  0
CIRCLE
  5
2DA
330
1E
100
AcDbEntity
  8
OBJECT
100
AcDbCircle
 10
3.792067892329654
 20
25.32065645824711
 30
0.0
 40
0.155
  0
CIRCLE
  5
2DB
330
1E
100
AcDbEntity
  8
OBJECT
100
AcDbCircle
 10
3.10356789232965
 20
25.02915645824711
 30
0.0
 40
0.276
  0
CIRCLE
  5
2DC
330
1E
100
AcDbEntity
  8
OBJECT
100
AcDbCircle
 10
11.36856789232965
 20
25.02915645824711
 30
0.0
 40
0.276
  0
CIRCLE
  5
2DD
330
1E
100
AcDbEntity
  8
OBJECT
100
AcDbCircle
 10
2.193067892329651
 20
25.9321564582471
 30
0.0
 40
0.1352220390557018
  0
CIRCLE
  5
2DE
330
1E
100
AcDbEntity
  8
OBJECT
100
AcDbCircle
 10
2.193067892329651
 20
25.9321564582471
 30
0.0
 40
0.3371963778210965
  0
CIRCLE
  5
2DF
330
1E
100
AcDbEntity
  8
OBJECT
100
AcDbCircle
 10
12.27906789232965
 20
25.93215645824712
 30
0.0
 40
0.3371963778210965
  0
CIRCLE
  5
2E0
330
1E
100
AcDbEntity
  8
OBJECT
100
AcDbCircle
 10
12.27906789232965
 20
25.93215645824712
 30
0.0
 40
0.1352220390557018
  0
CIRCLE
  5
2E1
330
1E
100
AcDbEntity
  8
OBJECT
100
AcDbCircle
 10
2.202193873579616
 20
13.49128243949719
 30
0.0
 40
0.3371963778210965
  0
CIRCLE
  5
2E2
330
1E
100
AcDbEntity
  8
OBJECT
100
AcDbCircle
 10
2.202193873579616
 20
13.49128243949719
 30
0.0
 40
0.1352220390557018
  0
CIRCLE
  5
2E3
330
1E
100
AcDbEntity
  8
OBJECT
100
AcDbCircle
 10
12.27906789232966
 20
13.4891564582471
 30
0.0
 40
0.1352220390557018
  0
CIRCLE
  5
2E4
330
1E
100
AcDbEntity
  8
OBJECT
100
AcDbCircle
 10
12.27906789232966
 20
13.4891564582471
 30
0.0
 40
0.3371963778210965
  0
CIRCLE
  5
2E5
330
1E
100
AcDbEntity
  8
OBJECT
100
AcDbCircle
 10
11.36856789232965
 20
25.02915645824711
 30
0.0
 40
0.315
  0
CIRCLE
  5
2E6
330
1E
100
AcDbEntity
  8
OBJECT
100
AcDbCircle
 10
3.10356789232965
 20
25.02915645824711
 30
0.0
 40
0.315
  0
CIRCLE
  5
2E7
330
1E
100
AcDbEntity
  8
OBJECT
100
AcDbCircle
 10
2.801067892329655
 20
21.39065645824711
 30
0.0
 40
0.194
  0
CIRCLE
  5
2E8
330
1E
100
AcDbEntity
  8
OBJECT
100
AcDbCircle
 10
3.792067892329654
 20
25.32065645824711
 30
0.0
 40
0.194
  0
CIRCLE
  5
2E9
330
1E
100
AcDbEntity
  8
OBJECT
100
AcDbCircle
 10
11.67106789232964
 20
21.39065645824711
 30
0.0
 40
0.194
  0
CIRCLE
  5
2EA
330
1E
100
AcDbEntity
  8
OBJECT
100
AcDbCircle
 10
11.67106789232964
 20
21.39065645824711
 30
0.0
 40
0.155
  0
DIMENSION
  5
2EB
330
1E
100
AcDbEntity
  8
DIM
100
AcDbDimension
  2
*D30
 10
59.10820938290028
 20
23.35865645824691
 30
0.0
 11
59.10820938290028
 21
23.85065645824692
 31
0.0
 70
    32
  1
<> TYP.
 71
     5
 42
0.9840000000000088
  3
23NSTDI
100
AcDbAlignedDimension
 13
54.77921360281773
 23
24.34265645824692
 33
0.0
 14
54.77921360281773
 24
23.35865645824691
 34
0.0
 50
90.0
100
AcDbRotatedDimension
  0
DIMENSION
  5
2EC
330
1E
100
AcDbEntity
  8
DIM
100
AcDbDimension
  2
*D18
 10
46.90021360281774
 20
11.97172861280441
 30
0.0
 11
42.23849485281774
 21
11.97172861280441
 31
0.0
 70
    32
  1
<> TYP.
 71
     5
 42
0.9840000000000088
  3
23NSTD
100
AcDbAlignedDimension
 13
47.88421360281775
 23
14.10065645824691
 33
0.0
 14
46.90021360281774
 24
14.10065645824691
 34
0.0
100
AcDbRotatedDimension
  0
DIMENSION
  5
2ED
330
1E
100
AcDbEntity
  8
DIM
100
AcDbDimension
  2
*D19
 10
46.90021360281774
 20
10.42822861280441
 30
0.0
 11
43.11740110281774
 21
10.42822861280441
 31
0.0
 70
    32
 71
     5
 42
2.951999999999998
  3
23NSTD
100
AcDbAlignedDimension
 13
49.85221360281774
 23
14.10065645824691
 33
0.0
 14
46.90021360281774
 24
14.10065645824691
 34
0.0
100
AcDbRotatedDimension
  0
DIMENSION
  5
2EE
330
1E
100
AcDbEntity
  8
DIM
100
AcDbDimension
  2
*D20
 10
53.78821360281775
 20
11.24427600074338
 30
0.0
 11
57.57102610281775
 21
11.24427600074338
 31
0.0
 70
    32
 71
     5
 42
2.951999999999998
  3
23NSTD
100
AcDbAlignedDimension
 13
50.83621360281775
 23
14.10065645824691
 33
0.0
 14
53.78821360281775
 24
14.10065645824691
 34
0.0
100
AcDbRotatedDimension
  0
DIMENSION
  5
2EF
330
1E
100
AcDbEntity
  8
DIM
100
AcDbDimension
  2
*D31
 10
61.031226049713
 20
18.03065645824691
 30
0.0
 11
61.03122604971299
 21
16.55465645824692
 31
0.0
 70
    32
 71
     5
 42
2.951999999999996
  3
23NSTDI
100
AcDbAlignedDimension
 13
54.77921360281773
 23
15.07865645824692
 33
0.0
 14
54.77921360281773
 24
18.03065645824691
 34
0.0
 50
90.0
100
AcDbRotatedDimension
  0
DIMENSION
  5
2F0
330
1E
100
AcDbEntity
  8
DIM
100
AcDbDimension
  2
*D32
 10
62.22002460381766
 20
21.39065645824691
 30
0.0
 11
62.22002460381766
 21
22.86665645824693
 31
0.0
 70
    32
 71
     5
 42
2.951999999999998
  3
23NSTDI
100
AcDbAlignedDimension
 13
54.77921360281773
 23
24.34265645824692
 33
0.0
 14
54.77921360281773
 24
21.39065645824692
 34
0.0
 50
90.0
100
AcDbRotatedDimension
  0
LINE
  5
2F1
330
1E
100
AcDbEntity
  8
CENTER
100
AcDbLine
 10
28.17449520387672
 20
19.71065645824691
 30
0.0
 11
40.19811720587663
 21
19.71065645824691
 31
0.0
  0
LINE
  5
2F2
330
1E
100
AcDbEntity
  8
CENTER
100
AcDbLine
 10
34.18630620487667
 20
12.51774310724685
 30
0.0
 11
34.18630620487665
 21
26.90356980924685
 31
0.0
  0
LINE
  5
2F3
330
1E
100
AcDbEntity
  8
OBJECT
100
AcDbLine
 10
24.74304043515464
 20
25.42146183815744
 30
0.0
 11
21.12304043515462
 21
25.50973499563457
 31
0.0
  0
CIRCLE
  5
2F4
330
1E
100
AcDbEntity
  8
OBJECT
100
AcDbCircle
 10
2.801067892329655
 20
22.37465645824711
 30
0.0
 40
0.194
  0
CIRCLE
  5
2F5
330
1E
100
AcDbEntity
  8
OBJECT
100
AcDbCircle
 10
2.801067892329655
 20
22.37465645824711
 30
0.0
 40
0.155
  0
CIRCLE
  5
2F6
330
1E
100
AcDbEntity
  8
OBJECT
100
AcDbCircle
 10
11.67106789232964
 20
22.37465645824711
 30
0.0
 40
0.194
  0
CIRCLE
  5
2F7
330
1E
100
AcDbEntity
  8
OBJECT
100
AcDbCircle
 10
11.67106789232964
 20
22.37465645824711
 30
0.0
 40
0.155
  0
CIRCLE
  5
2F8
330
1E
100
AcDbEntity
  8
OBJECT
100
AcDbCircle
 10
2.801067892329655
 20
23.35865645824711
 30
0.0
 40
0.194
  0
CIRCLE
  5
2F9
330
1E
100
AcDbEntity
  8
OBJECT
100
AcDbCircle
 10
2.801067892329655
 20
23.35865645824711
 30
0.0
 40
0.155
  0
CIRCLE
  5
2FA
330
1E
100
AcDbEntity
  8
OBJECT
100
AcDbCircle
 10
11.67106789232964
 20
23.35865645824711
 30
0.0
 40
0.194
  0
CIRCLE
  5
2FB
330
1E
100
AcDbEntity
  8
OBJECT
100
AcDbCircle
 10
11.67106789232964
 20
23.35865645824711
 30
0.0
 40
0.155
  0
CIRCLE
  5
2FC
330
1E
100
AcDbEntity
  8
OBJECT
100
AcDbCircle
 10
2.801067892329655
 20
24.3426564582471
 30
0.0
 40
0.194
  0
CIRCLE
  5
2FD
330
1E
100
AcDbEntity
  8
OBJECT
100
AcDbCircle
 10
2.801067892329655
 20
24.3426564582471
 30
0.0
 40
0.155
  0
CIRCLE
  5
2FE
330
1E
100
AcDbEntity
  8
OBJECT
100
AcDbCircle
 10
11.67106789232964
 20
24.3426564582471
 30
0.0
 40
0.194
  0
CIRCLE
  5
2FF
330
1E
100
AcDbEntity
  8
OBJECT
100
AcDbCircle
 10
11.67106789232964
 20
24.3426564582471
 30
0.0
 40
0.155
  0
CIRCLE
  5
300
330
1E
100
AcDbEntity
  8
OBJECT
100
AcDbCircle
 10
4.776067892329649
 20
25.32065645824711
 30
0.0
 40
0.194
  0
CIRCLE
  5
301
330
1E
100
AcDbEntity
  8
OBJECT
100
AcDbCircle
 10
4.776067892329649
 20
25.32065645824711
 30
0.0
 40
0.155
  0
CIRCLE
  5
302
330
1E
100
AcDbEntity
  8
OBJECT
100
AcDbCircle
 10
5.760067892329658
 20
25.32065645824711
 30
0.0
 40
0.194
  0
CIRCLE
  5
303
330
1E
100
AcDbEntity
  8
OBJECT
100
AcDbCircle
 10
5.760067892329658
 20
25.32065645824711
 30
0.0
 40
0.155
  0
CIRCLE
  5
304
330
1E
100
AcDbEntity
  8
OBJECT
100
AcDbCircle
 10
10.68006789232964
 20
25.32065645824711
 30
0.0
 40
0.194
  0
CIRCLE
  5
305
330
1E
100
AcDbEntity
  8
OBJECT
100
AcDbCircle
 10
10.68006789232964
 20
25.32065645824711
 30
0.0
 40
0.155
  0
CIRCLE
  5
306
330
1E
100
AcDbEntity
  8
OBJECT
100
AcDbCircle
 10
9.696067892329651
 20
25.32065645824711
 30
0.0
 40
0.155
  0
CIRCLE
  5
307
330
1E
100
AcDbEntity
  8
OBJECT
100
AcDbCircle
 10
9.696067892329651
 20
25.32065645824711
 30
0.0
 40
0.194
  0
CIRCLE
  5
308
330
1E
100
AcDbEntity
  8
OBJECT
100
AcDbCircle
 10
8.712067892329642
 20
25.32065645824711
 30
0.0
 40
0.194
  0
CIRCLE
  5
309
330
1E
100
AcDbEntity
  8
OBJECT
100
AcDbCircle
 10
8.712067892329642
 20
25.32065645824711
 30
0.0
 40
0.155
  0
CIRCLE
  5
30A
330
1E
100
AcDbEntity
  8
OBJECT
100
AcDbCircle
 10
2.596067892329656
 20
19.7106564582471
 30
0.0
 40
0.315
  0
CIRCLE
  5
30B
330
1E
100
AcDbEntity
  8
OBJECT
100
AcDbCircle
 10
2.596067892329656
 20
19.7106564582471
 30
0.0
 40
0.098
  0
CIRCLE
  5
30C
330
1E
100
AcDbEntity
  8
OBJECT
100
AcDbCircle
 10
7.236067892329643
 20
25.5276564582471
 30
0.0
 40
0.315
  0
CIRCLE
  5
30D
330
1E
100
AcDbEntity
  8
OBJECT
100
AcDbCircle
 10
7.236067892329643
 20
25.5276564582471
 30
0.0
 40
0.098
  0
CIRCLE
  5
30E
330
1E
100
AcDbEntity
  8
OBJECT
100
AcDbCircle
 10
11.87606789232967
 20
19.7106564582471
 30
0.0
 40
0.315
  0
CIRCLE
  5
30F
330
1E
100
AcDbEntity
  8
OBJECT
100
AcDbCircle
 10
11.87606789232967
 20
19.7106564582471
 30
0.0
 40
0.098
  0
CIRCLE
  5
310
330
1E
100
AcDbEntity
  8
OBJECT
100
AcDbCircle
 10
7.236067892329643
 20
13.8936564582471
 30
0.0
 40
0.315
  0
CIRCLE
  5
311
330
1E
100
AcDbEntity
  8
OBJECT
100
AcDbCircle
 10
7.236067892329643
 20
13.8936564582471
 30
0.0
 40
0.098
  0
CIRCLE
  5
312
330
1E
100
AcDbEntity
  8
OBJECT
100
AcDbCircle
 10
3.792067892329654
 20
14.10065645824711
 30
0.0
 40
0.194
  0
CIRCLE
  5
313
330
1E
100
AcDbEntity
  8
OBJECT
100
AcDbCircle
 10
3.792067892329654
 20
14.10065645824711
 30
0.0
 40
0.155
  0
CIRCLE
  5
314
330
1E
100
AcDbEntity
  8
OBJECT
100
AcDbCircle
 10
4.776067892329649
 20
14.10065645824711
 30
0.0
 40
0.155
  0
CIRCLE
  5
315
330
1E
100
AcDbEntity
  8
OBJECT
100
AcDbCircle
 10
4.776067892329649
 20
14.10065645824711
 30
0.0
 40
0.194
  0
CIRCLE
  5
316
330
1E
100
AcDbEntity
  8
OBJECT
100
AcDbCircle
 10
5.760067892329658
 20
14.10065645824711
 30
0.0
 40
0.194
  0
CIRCLE
  5
317
330
1E
100
AcDbEntity
  8
OBJECT
100
AcDbCircle
 10
5.760067892329658
 20
14.10065645824711
 30
0.0
 40
0.155
  0
CIRCLE
  5
318
330
1E
100
AcDbEntity
  8
OBJECT
100
AcDbCircle
 10
8.712067892329642
 20
14.10065645824711
 30
0.0
 40
0.155
  0
CIRCLE
  5
319
330
1E
100
AcDbEntity
  8
OBJECT
100
AcDbCircle
 10
8.712067892329642
 20
14.10065645824711
 30
0.0
 40
0.194
  0
CIRCLE
  5
31A
330
1E
100
AcDbEntity
  8
OBJECT
100
AcDbCircle
 10
9.696067892329651
 20
14.10065645824711
 30
0.0
 40
0.194
  0
CIRCLE
  5
31B
330
1E
100
AcDbEntity
  8
OBJECT
100
AcDbCircle
 10
9.696067892329651
 20
14.10065645824711
 30
0.0
 40
0.155
  0
CIRCLE
  5
31C
330
1E
100
AcDbEntity
  8
OBJECT
100
AcDbCircle
 10
10.68006789232964
 20
14.10065645824711
 30
0.0
 40
0.155
  0
CIRCLE
  5
31D
330
1E
100
AcDbEntity
  8
OBJECT
100
AcDbCircle
 10
10.68006789232964
 20
14.10065645824711
 30
0.0
 40
0.194
  0
CIRCLE
  5
31E
330
1E
100
AcDbEntity
  8
OBJECT
100
AcDbCircle
 10
11.67106789232964
 20
16.0626564582471
 30
0.0
 40
0.155
  0
CIRCLE
  5
31F
330
1E
100
AcDbEntity
  8
OBJECT
100
AcDbCircle
 10
11.67106789232964
 20
16.0626564582471
 30
0.0
 40
0.194
  0
CIRCLE
  5
320
330
1E
100
AcDbEntity
  8
OBJECT
100
AcDbCircle
 10
11.67106789232964
 20
17.04665645824711
 30
0.0
 40
0.155
  0
CIRCLE
  5
321
330
1E
100
AcDbEntity
  8
OBJECT
100
AcDbCircle
 10
11.67106789232964
 20
17.04665645824711
 30
0.0
 40
0.194
  0
CIRCLE
  5
322
330
1E
100
AcDbEntity
  8
OBJECT
100
AcDbCircle
 10
11.67106789232964
 20
18.03065645824711
 30
0.0
 40
0.194
  0
CIRCLE
  5
323
330
1E
100
AcDbEntity
  8
OBJECT
100
AcDbCircle
 10
11.67106789232964
 20
18.03065645824711
 30
0.0
 40
0.155
  0
CIRCLE
  5
324
330
1E
100
AcDbEntity
  8
OBJECT
100
AcDbCircle
 10
11.67106789232964
 20
15.07865645824711
 30
0.0
 40
0.194
  0
CIRCLE
  5
325
330
1E
100
AcDbEntity
  8
OBJECT
100
AcDbCircle
 10
11.67106789232964
 20
15.07865645824711
 30
0.0
 40
0.155
  0
CIRCLE
  5
326
330
1E
100
AcDbEntity
  8
OBJECT
100
AcDbCircle
 10
2.801067892329655
 20
16.0626564582471
 30
0.0
 40
0.155
  0
CIRCLE
  5
327
330
1E
100
AcDbEntity
  8
OBJECT
100
AcDbCircle
 10
2.801067892329655
 20
16.0626564582471
 30
0.0
 40
0.194
  0
CIRCLE
  5
328
330
1E
100
AcDbEntity
  8
OBJECT
100
AcDbCircle
 10
2.801067892329655
 20
17.04665645824711
 30
0.0
 40
0.155
  0
CIRCLE
  5
329
330
1E
100
AcDbEntity
  8
OBJECT
100
AcDbCircle
 10
2.801067892329655
 20
17.04665645824711
 30
0.0
 40
0.194
  0
CIRCLE
  5
32A
330
1E
100
AcDbEntity
  8
OBJECT
100
AcDbCircle
 10
2.801067892329655
 20
18.03065645824711
 30
0.0
 40
0.194
  0
CIRCLE
  5
32B
330
1E
100
AcDbEntity
  8
OBJECT
100
AcDbCircle
 10
2.801067892329655
 20
18.03065645824711
 30
0.0
 40
0.155
  0
CIRCLE
  5
32C
330
1E
100
AcDbEntity
  8
OBJECT
100
AcDbCircle
 10
2.801067892329655
 20
15.07865645824711
 30
0.0
 40
0.155
  0
CIRCLE
  5
32D
330
1E
100
AcDbEntity
  8
OBJECT
100
AcDbCircle
 10
2.801067892329655
 20
15.07865645824711
 30
0.0
 40
0.194
  0
LINE
  5
32E
330
1E
100
AcDbEntity
  8
OBJECT
100
AcDbLine
 10
21.52604043515463
 20
15.28865645824711
 30
0.0
 11
21.36117766554765
 21
15.2886564582471
 31
0.0
  0
LINE
  5
32F
330
1E
100
AcDbEntity
  8
OBJECT
100
AcDbLine
 10
21.52604043515463
 20
14.86865645824711
 30
0.0
 11
21.25104043515463
 21
14.8686564582471
 31
0.0
  0
LINE
  5
330
330
1E
100
AcDbEntity
  8
OBJECT
100
AcDbLine
 10
21.52604043515463
 20
15.16165645824711
 30
0.0
 11
21.22304043515465
 21
15.16165645824711
 31
0.0
  0
LINE
  5
331
330
1E
100
AcDbEntity
  8
OBJECT
100
AcDbLine
 10
21.52604043515463
 20
14.99565645824711
 30
0.0
 11
21.22304043515465
 21
14.99565645824711
 31
0.0
  0
LINE
  5
332
330
1E
100
AcDbEntity
  8
HIDDEN
100
AcDbLine
 10
21.63704043515463
 20
14.4901564582471
 30
0.0
 11
21.22304043515465
 21
14.4901564582471
 31
0.0
  0
LINE
  5
333
330
1E
100
AcDbEntity
  8
HIDDEN
100
AcDbLine
 10
21.63704043515463
 20
14.2941564582471
 30
0.0
 11
21.22304043515465
 21
14.2941564582471
 31
0.0
  0
LINE
  5
334
330
1E
100
AcDbEntity
  8
OBJECT
100
AcDbLine
 10
21.63704043515463
 20
14.4731564582471
 30
0.0
 11
21.22304043515465
 21
14.4731564582471
 31
0.0
  0
LINE
  5
335
330
1E
100
AcDbEntity
  8
OBJECT
100
AcDbLine
 10
21.63704043515463
 20
14.31115645824709
 30
0.0
 11
21.22304043515465
 21
14.31115645824709
 31
0.0
  0
LINE
  5
336
330
1E
100
AcDbEntity
  8
OBJECT
100
AcDbLine
 10
21.52604043515463
 20
15.85265645824711
 30
0.0
 11
21.36117766554764
 21
15.85265645824711
 31
0.0
  0
LINE
  5
337
330
1E
100
AcDbEntity
  8
OBJECT
100
AcDbLine
 10
21.52604043515463
 20
15.9796564582471
 30
0.0
 11
21.22304043515465
 21
15.9796564582471
 31
0.0
  0
LINE
  5
338
330
1E
100
AcDbEntity
  8
OBJECT
100
AcDbLine
 10
21.52604043515463
 20
16.1456564582471
 30
0.0
 11
21.22304043515465
 21
16.1456564582471
 31
0.0
  0
LINE
  5
339
330
1E
100
AcDbEntity
  8
OBJECT
100
AcDbLine
 10
21.52604043515463
 20
15.85265645824711
 30
0.0
 11
21.52604043515463
 21
16.27265645824711
 31
0.0
  0
LINE
  5
33A
330
1E
100
AcDbEntity
  8
OBJECT
100
AcDbLine
 10
21.52604043515463
 20
16.27265645824711
 30
0.0
 11
21.36117766554764
 21
16.27265645824709
 31
0.0
  0
LINE
  5
33B
330
1E
100
AcDbEntity
  8
OBJECT
100
AcDbLine
 10
21.22304043515465
 20
15.9796564582471
 30
0.0
 11
21.22304043515465
 21
16.1456564582471
 31
0.0
  0
LINE
  5
33C
330
1E
100
AcDbEntity
  8
OBJECT
100
AcDbLine
 10
21.04304043515464
 20
17.20130212659511
 30
0.0
 11
21.04304043515464
 21
16.89201078989911
 31
0.0
  0
LINE
  5
33D
330
1E
100
AcDbEntity
  8
OBJECT
100
AcDbLine
 10
21.52604043515463
 20
16.8366564582471
 30
0.0
 11
21.52604043515463
 21
17.2566564582471
 31
0.0
  0
LINE
  5
33E
330
1E
100
AcDbEntity
  8
OBJECT
100
AcDbLine
 10
21.04304043515463
 20
17.20130212659505
 30
0.0
 11
21.04304043515463
 21
16.89201078989906
 31
0.0
  0
LINE
  5
33F
330
1E
100
AcDbEntity
  8
OBJECT
100
AcDbLine
 10
21.52604043515463
 20
17.12965645824711
 30
0.0
 11
21.22304043515465
 21
17.12965645824711
 31
0.0
  0
LINE
  5
340
330
1E
100
AcDbEntity
  8
OBJECT
100
AcDbLine
 10
21.52604043515463
 20
16.96365645824711
 30
0.0
 11
21.22304043515465
 21
16.96365645824711
 31
0.0
  0
LINE
  5
341
330
1E
100
AcDbEntity
  8
OBJECT
100
AcDbLine
 10
21.52604043515463
 20
16.8366564582471
 30
0.0
 11
21.36117766554759
 21
16.8366564582471
 31
0.0
  0
LINE
  5
342
330
1E
100
AcDbEntity
  8
OBJECT
100
AcDbLine
 10
21.22304043515465
 20
16.96365645824711
 30
0.0
 11
21.22304043515465
 21
17.12965645824711
 31
0.0
  0
LINE
  5
343
330
1E
100
AcDbEntity
  8
OBJECT
100
AcDbLine
 10
21.12304043515464
 20
16.85264071139907
 30
0.0
 11
21.04304043515464
 21
16.89201078989911
 31
0.0
  0
LINE
  5
344
330
1E
100
AcDbEntity
  8
OBJECT
100
AcDbLine
 10
21.12304043515462
 20
16.85264071139913
 30
0.0
 11
21.04304043515463
 21
16.89201078989906
 31
0.0
  0
LINE
  5
345
330
1E
100
AcDbEntity
  8
OBJECT
100
AcDbLine
 10
21.52604043515463
 20
17.2566564582471
 30
0.0
 11
21.36117766554758
 21
17.25665645824709
 31
0.0
  0
LINE
  5
346
330
1E
100
AcDbEntity
  8
OBJECT
100
AcDbLine
 10
21.12304043515464
 20
17.24067220509515
 30
0.0
 11
21.04304043515464
 21
17.20130212659511
 31
0.0
  0
LINE
  5
347
330
1E
100
AcDbEntity
  8
OBJECT
100
AcDbLine
 10
21.12304043515462
 20
17.24067220509509
 30
0.0
 11
21.04304043515463
 21
17.20130212659505
 31
0.0
  0
LINE
  5
348
330
1E
100
AcDbEntity
  8
OBJECT
100
AcDbLine
 10
21.04304043515463
 20
19.98628637974705
 30
0.0
 11
21.04304043515464
 21
19.43502653674703
 31
0.0
  0
LINE
  5
349
330
1E
100
AcDbEntity
  8
OBJECT
100
AcDbLine
 10
21.12304043515464
 20
19.3956564582471
 30
0.0
 11
21.04304043515464
 21
19.43502653674703
 31
0.0
  0
LINE
  5
34A
330
1E
100
AcDbEntity
  8
OBJECT
100
AcDbLine
 10
21.12304043515462
 20
20.02565645824709
 30
0.0
 11
21.04304043515463
 21
19.98628637974705
 31
0.0
  0
CIRCLE
  5
34B
330
1E
100
AcDbEntity
  8
OBJECT
100
AcDbCircle
 10
2.596067892329656
 20
19.7106564582471
 30
0.0
 40
0.2756299214999558
  0
CIRCLE
  5
34C
330
1E
100
AcDbEntity
  8
OBJECT
100
AcDbCircle
 10
7.236067892329643
 20
25.5276564582471
 30
0.0
 40
0.2756299214999558
  0
CIRCLE
  5
34D
330
1E
100
AcDbEntity
  8
OBJECT
100
AcDbCircle
 10
11.87606789232967
 20
19.7106564582471
 30
0.0
 40
0.2756299214999558
  0
CIRCLE
  5
34E
330
1E
100
AcDbEntity
  8
OBJECT
100
AcDbCircle
 10
7.236067892329643
 20
13.8936564582471
 30
0.0
 40
0.2756299214999558
  0
CIRCLE
  5
34F
330
1E
100
AcDbEntity
  8
OBJECT
100
AcDbCircle
 10
3.10356789232965
 20
14.3921564582471
 30
0.0
 40
0.315
  0
CIRCLE
  5
350
330
1E
100
AcDbEntity
  8
OBJECT
100
AcDbCircle
 10
3.10356789232965
 20
14.3921564582471
 30
0.0
 40
0.276
  0
CIRCLE
  5
351
330
1E
100
AcDbEntity
  8
OBJECT
100
AcDbCircle
 10
11.36856789232965
 20
14.3921564582471
 30
0.0
 40
0.315
  0
CIRCLE
  5
352
330
1E
100
AcDbEntity
  8
OBJECT
100
AcDbCircle
 10
11.36856789232965
 20
14.3921564582471
 30
0.0
 40
0.276
  0
LINE
  5
353
330
1E
100
AcDbEntity
  8
OBJECT
100
AcDbLine
 10
21.25104043515463
 20
18.24065645824707
 30
0.0
 11
21.25104043515463
 21
18.92965645824691
 31
0.0
  0
LINE
  5
354
330
1E
100
AcDbEntity
  8
OBJECT
100
AcDbLine
 10
21.52604043515463
 20
18.1136564582471
 30
0.0
 11
21.22304043515465
 21
18.1136564582471
 31
0.0
  0
LINE
  5
355
330
1E
100
AcDbEntity
  8
OBJECT
100
AcDbLine
 10
21.52604043515463
 20
17.9476564582471
 30
0.0
 11
21.22304043515465
 21
17.9476564582471
 31
0.0
  0
LINE
  5
356
330
1E
100
AcDbEntity
  8
OBJECT
100
AcDbLine
 10
21.52604043515463
 20
17.82065645824711
 30
0.0
 11
21.52604043515463
 21
18.24065645824711
 31
0.0
  0
LINE
  5
357
330
1E
100
AcDbEntity
  8
OBJECT
100
AcDbLine
 10
21.52604043515463
 20
17.82065645824711
 30
0.0
 11
21.36117766554759
 21
17.82065645824711
 31
0.0
  0
LINE
  5
358
330
1E
100
AcDbEntity
  8
OBJECT
100
AcDbLine
 10
21.52604043515463
 20
18.24065645824711
 30
0.0
 11
21.25104043515463
 21
18.24065645824707
 31
0.0
  0
LINE
  5
359
330
1E
100
AcDbEntity
  8
OBJECT
100
AcDbLine
 10
21.12304043515462
 20
18.22467220509508
 30
0.0
 11
21.04304043515463
 21
18.18530212659504
 31
0.0
  0
LINE
  5
35A
330
1E
100
AcDbEntity
  8
OBJECT
100
AcDbLine
 10
21.12304043515462
 20
17.83664071139912
 30
0.0
 11
21.04304043515463
 21
17.87601078989905
 31
0.0
  0
LINE
  5
35B
330
1E
100
AcDbEntity
  8
OBJECT
100
AcDbLine
 10
21.04304043515463
 20
18.18530212659504
 30
0.0
 11
21.04304043515463
 21
17.87601078989905
 31
0.0
  0
LINE
  5
35C
330
1E
100
AcDbEntity
  8
OBJECT
100
AcDbLine
 10
21.22304043515465
 20
17.9476564582471
 30
0.0
 11
21.22304043515465
 21
18.1136564582471
 31
0.0
  0
LWPOLYLINE
  5
35D
330
1E
100
AcDbEntity
  8
OBJECT
100
AcDbPolyline
 90
        8
 70
     1
 43
0.0
 10
2.202193873579616
 20
26.42215645824711
 10
12.26994191107965
 20
26.42215645824716
 42
-0.4142135623730951
 10
12.76206789232961
 20
25.93003047699716
 10
12.76206789232964
 20
13.49128243949718
 42
-0.4142135623730951
 10
12.26994191107965
 20
12.99915645824711
 10
2.202193873579616
 20
12.99915645824718
 42
-0.4142135623730951
 10
1.710067892329661
 20
13.49128243949718
 10
1.710067892329661
 20
25.93003047699716
 42
-0.4142135623730951
  0
LWPOLYLINE
  5
367
330
1E
100
AcDbEntity
  8
OBJECT
100
AcDbPolyline
 90
        8
 70
     1
 43
0.0
 10
45.3103395840677
 20
26.42215645824691
 10
55.37808762156773
 20
26.42215645824696
 42
-0.4142135623730951
 10
55.87021360281768
 20
25.93003047699696
 10
55.87021360281774
 20
13.49128243949698
 42
-0.4142135623730951
 10
55.37808762156773
 20
12.99915645824691
 10
45.3103395840677
 20
12.99915645824698
 42
-0.4142135623730951
 10
44.81821360281775
 20
13.49128243949698
 10
44.81821360281775
 20
25.93003047699696
 42
-0.4142135623730951
  0
CIRCLE
  5
371
330
1E
100
AcDbEntity
  8
OBJECT
100
AcDbCircle
 10
54.77921360281773
 20
21.39065645824692
 30
0.0
 40
0.21
  0
CIRCLE
  5
372
330
1E
100
AcDbEntity
  8
OBJECT
100
AcDbCircle
 10
54.77921360281773
 20
21.39065645824692
 30
0.0
 40
0.083
  0
CIRCLE
  5
373
330
1E
100
AcDbEntity
  8
OBJECT
100
AcDbCircle
 10
54.77921360281773
 20
22.37465645824691
 30
0.0
 40
0.21
  0
CIRCLE
  5
374
330
1E
100
AcDbEntity
  8
OBJECT
100
AcDbCircle
 10
54.77921360281773
 20
22.37465645824691
 30
0.0
 40
0.083
  0
CIRCLE
  5
375
330
1E
100
AcDbEntity
  8
OBJECT
100
AcDbCircle
 10
54.77921360281773
 20
23.35865645824691
 30
0.0
 40
0.21
  0
CIRCLE
  5
376
330
1E
100
AcDbEntity
  8
OBJECT
100
AcDbCircle
 10
54.77921360281773
 20
23.35865645824691
 30
0.0
 40
0.083
  0
CIRCLE
  5
377
330
1E
100
AcDbEntity
  8
OBJECT
100
AcDbCircle
 10
54.77921360281773
 20
24.34265645824692
 30
0.0
 40
0.21
  0
CIRCLE
  5
378
330
1E
100
AcDbEntity
  8
OBJECT
100
AcDbCircle
 10
54.77921360281773
 20
24.34265645824692
 30
0.0
 40
0.083
  0
LINE
  5
379
330
1E
100
AcDbEntity
  8
OBJECT
100
AcDbLine
 10
54.72682251850604
 20
23.56201617472155
 30
0.0
 11
54.72682251850604
 21
24.13929674177201
 31
0.0
  0
LINE
  5
37A
330
1E
100
AcDbEntity
  8
OBJECT
100
AcDbLine
 10
54.83160468712942
 20
23.56201617472155
 30
0.0
 11
54.83160468712942
 21
24.13929674177201
 31
0.0
  0
LINE
  5
37B
330
1E
100
AcDbEntity
  8
OBJECT
100
AcDbLine
 10
54.72682251850604
 20
22.57801617472155
 30
0.0
 11
54.72682251850604
 21
23.15529674177227
 31
0.0
  0
LINE
  5
37C
330
1E
100
AcDbEntity
  8
OBJECT
100
AcDbLine
 10
54.83160468712942
 20
22.57801617472155
 30
0.0
 11
54.83160468712942
 21
23.15529674177227
 31
0.0
  0
CIRCLE
  5
37D
330
1E
100
AcDbEntity
  8
OBJECT
100
AcDbCircle
 10
54.47671360281773
 20
25.02915645824691
 30
0.0
 40
0.297
  0
CIRCLE
  5
37E
330
1E
100
AcDbEntity
  8
OBJECT
100
AcDbCircle
 10
54.47671360281773
 20
25.02915645824691
 30
0.0
 40
0.098
  0
LINE
  5
37F
330
1E
100
AcDbEntity
  8
OBJECT
100
AcDbLine
 10
48.66485388634309
 20
25.37304754255861
 30
0.0
 11
48.08757331929239
 21
25.37304754255861
 31
0.0
  0
LINE
  5
380
330
1E
100
AcDbEntity
  8
OBJECT
100
AcDbLine
 10
48.66485388634309
 20
25.26826537393523
 30
0.0
 11
48.08757331929239
 21
25.26826537393523
 31
0.0
  0
CIRCLE
  5
381
330
1E
100
AcDbEntity
  8
OBJECT
100
AcDbCircle
 10
48.86821360281773
 20
25.32065645824691
 30
0.0
 40
0.21
  0
CIRCLE
  5
382
330
1E
100
AcDbEntity
  8
OBJECT
100
AcDbCircle
 10
49.85221360281774
 20
25.32065645824691
 30
0.0
 40
0.21
  0
LINE
  5
383
330
1E
100
AcDbEntity
  8
OBJECT
100
AcDbLine
 10
49.64885388634311
 20
25.37304754255861
 30
0.0
 11
49.07157331929237
 21
25.37304754255861
 31
0.0
  0
LINE
  5
384
330
1E
100
AcDbEntity
  8
OBJECT
100
AcDbLine
 10
49.64885388634311
 20
25.26826537393522
 30
0.0
 11
49.07157331929237
 21
25.26826537393522
 31
0.0
  0
CIRCLE
  5
385
330
1E
100
AcDbEntity
  8
OBJECT
100
AcDbCircle
 10
49.85221360281774
 20
25.32065645824691
 30
0.0
 40
0.083
  0
CIRCLE
  5
386
330
1E
100
AcDbEntity
  8
OBJECT
100
AcDbCircle
 10
48.86821360281773
 20
25.32065645824691
 30
0.0
 40
0.083
  0
CIRCLE
  5
387
330
1E
100
AcDbEntity
  8
OBJECT
100
AcDbCircle
 10
46.90021360281774
 20
25.32065645824691
 30
0.0
 40
0.21
  0
CIRCLE
  5
388
330
1E
100
AcDbEntity
  8
OBJECT
100
AcDbCircle
 10
47.88421360281775
 20
25.32065645824691
 30
0.0
 40
0.21
  0
CIRCLE
  5
389
330
1E
100
AcDbEntity
  8
OBJECT
100
AcDbCircle
 10
46.90021360281774
 20
25.32065645824691
 30
0.0
 40
0.083
  0
LINE
  5
38A
330
1E
100
AcDbEntity
  8
OBJECT
100
AcDbLine
 10
47.68085388634311
 20
25.37304754255861
 30
0.0
 11
47.10357331929263
 21
25.37304754255861
 31
0.0
  0
LINE
  5
38B
330
1E
100
AcDbEntity
  8
OBJECT
100
AcDbLine
 10
47.68085388634311
 20
25.26826537393523
 30
0.0
 11
47.10357331929263
 21
25.26826537393523
 31
0.0
  0
CIRCLE
  5
38C
330
1E
100
AcDbEntity
  8
OBJECT
100
AcDbCircle
 10
47.88421360281775
 20
25.32065645824691
 30
0.0
 40
0.083
  0
LINE
  5
38D
330
1E
100
AcDbEntity
  8
OBJECT
100
AcDbLine
 10
53.00757331929237
 20
25.37304754255861
 30
0.0
 11
53.58485388634282
 21
25.37304754255861
 31
0.0
  0
LINE
  5
38E
330
1E
100
AcDbEntity
  8
OBJECT
100
AcDbLine
 10
53.00757331929237
 20
25.26826537393523
 30
0.0
 11
53.58485388634282
 21
25.26826537393523
 31
0.0
  0
CIRCLE
  5
38F
330
1E
100
AcDbEntity
  8
OBJECT
100
AcDbCircle
 10
53.78821360281775
 20
25.32065645824691
 30
0.0
 40
0.21
  0
CIRCLE
  5
390
330
1E
100
AcDbEntity
  8
OBJECT
100
AcDbCircle
 10
53.78821360281775
 20
25.32065645824691
 30
0.0
 40
0.083
  0
LINE
  5
391
330
1E
100
AcDbEntity
  8
OBJECT
100
AcDbLine
 10
51.03957331929239
 20
25.37304754255861
 30
0.0
 11
51.61685388634312
 21
25.37304754255861
 31
0.0
  0
LINE
  5
392
330
1E
100
AcDbEntity
  8
OBJECT
100
AcDbLine
 10
51.03957331929239
 20
25.26826537393522
 30
0.0
 11
51.61685388634312
 21
25.26826537393522
 31
0.0
  0
LINE
  5
393
330
1E
100
AcDbEntity
  8
OBJECT
100
AcDbLine
 10
52.02357331929239
 20
25.37304754255861
 30
0.0
 11
52.6008538863431
 21
25.37304754255861
 31
0.0
  0
LINE
  5
394
330
1E
100
AcDbEntity
  8
OBJECT
100
AcDbLine
 10
52.02357331929239
 20
25.26826537393523
 30
0.0
 11
52.6008538863431
 21
25.26826537393523
 31
0.0
  0
CIRCLE
  5
395
330
1E
100
AcDbEntity
  8
OBJECT
100
AcDbCircle
 10
52.80421360281774
 20
25.32065645824691
 30
0.0
 40
0.083
  0
CIRCLE
  5
396
330
1E
100
AcDbEntity
  8
OBJECT
100
AcDbCircle
 10
52.80421360281774
 20
25.32065645824691
 30
0.0
 40
0.21
  0
CIRCLE
  5
397
330
1E
100
AcDbEntity
  8
OBJECT
100
AcDbCircle
 10
51.82021360281776
 20
25.32065645824691
 30
0.0
 40
0.21
  0
CIRCLE
  5
398
330
1E
100
AcDbEntity
  8
OBJECT
100
AcDbCircle
 10
51.82021360281776
 20
25.32065645824691
 30
0.0
 40
0.083
  0
CIRCLE
  5
399
330
1E
100
AcDbEntity
  8
OBJECT
100
AcDbCircle
 10
50.83621360281775
 20
25.32065645824691
 30
0.0
 40
0.083
  0
CIRCLE
  5
39A
330
1E
100
AcDbEntity
  8
OBJECT
100
AcDbCircle
 10
50.83621360281775
 20
25.32065645824691
 30
0.0
 40
0.21
  0
CIRCLE
  5
39B
330
1E
100
AcDbEntity
  8
OBJECT
100
AcDbCircle
 10
46.21171360281773
 20
25.02915645824691
 30
0.0
 40
0.297
  0
CIRCLE
  5
39C
330
1E
100
AcDbEntity
  8
OBJECT
100
AcDbCircle
 10
46.21171360281773
 20
25.02915645824691
 30
0.0
 40
0.098
  0
LINE
  5
39D
330
1E
100
AcDbEntity
  8
OBJECT
100
AcDbLine
 10
45.85682251850606
 20
22.57801617472155
 30
0.0
 11
45.85682251850606
 21
23.15529674177227
 31
0.0
  0
LINE
  5
39E
330
1E
100
AcDbEntity
  8
OBJECT
100
AcDbLine
 10
45.96160468712945
 20
22.57801617472155
 30
0.0
 11
45.96160468712945
 21
23.15529674177227
 31
0.0
  0
CIRCLE
  5
39F
330
1E
100
AcDbEntity
  8
OBJECT
100
AcDbCircle
 10
45.90921360281775
 20
22.37465645824691
 30
0.0
 40
0.21
  0
CIRCLE
  5
3A0
330
1E
100
AcDbEntity
  8
OBJECT
100
AcDbCircle
 10
45.90921360281775
 20
21.39065645824692
 30
0.0
 40
0.21
  0
LINE
  5
3A1
330
1E
100
AcDbEntity
  8
OBJECT
100
AcDbLine
 10
45.85682251850606
 20
21.59401617472155
 30
0.0
 11
45.85682251850606
 21
22.17129674177228
 31
0.0
  0
LINE
  5
3A2
330
1E
100
AcDbEntity
  8
OBJECT
100
AcDbLine
 10
45.96160468712945
 20
21.59401617472155
 30
0.0
 11
45.96160468712945
 21
22.17129674177228
 31
0.0
  0
CIRCLE
  5
3A3
330
1E
100
AcDbEntity
  8
OBJECT
100
AcDbCircle
 10
45.90921360281775
 20
21.39065645824692
 30
0.0
 40
0.083
  0
CIRCLE
  5
3A4
330
1E
100
AcDbEntity
  8
OBJECT
100
AcDbCircle
 10
45.90921360281775
 20
22.37465645824691
 30
0.0
 40
0.083
  0
CIRCLE
  5
3A5
330
1E
100
AcDbEntity
  8
OBJECT
100
AcDbCircle
 10
45.90921360281775
 20
24.34265645824692
 30
0.0
 40
0.21
  0
CIRCLE
  5
3A6
330
1E
100
AcDbEntity
  8
OBJECT
100
AcDbCircle
 10
45.90921360281775
 20
23.35865645824691
 30
0.0
 40
0.21
  0
CIRCLE
  5
3A7
330
1E
100
AcDbEntity
  8
OBJECT
100
AcDbCircle
 10
45.90921360281775
 20
24.34265645824692
 30
0.0
 40
0.083
  0
LINE
  5
3A8
330
1E
100
AcDbEntity
  8
OBJECT
100
AcDbLine
 10
45.85682251850606
 20
23.56201617472155
 30
0.0
 11
45.85682251850606
 21
24.13929674177201
 31
0.0
  0
LINE
  5
3A9
330
1E
100
AcDbEntity
  8
OBJECT
100
AcDbLine
 10
45.96160468712945
 20
23.56201617472155
 30
0.0
 11
45.96160468712945
 21
24.13929674177201
 31
0.0
  0
CIRCLE
  5
3AA
330
1E
100
AcDbEntity
  8
OBJECT
100
AcDbCircle
 10
45.90921360281775
 20
23.35865645824691
 30
0.0
 40
0.083
  0
LINE
  5
3AB
330
1E
100
AcDbEntity
  8
OBJECT
100
AcDbLine
 10
47.68085388634311
 20
14.04826537393522
 30
0.0
 11
47.10357331929263
 21
14.04826537393522
 31
0.0
  0
LINE
  5
3AC
330
1E
100
AcDbEntity
  8
OBJECT
100
AcDbLine
 10
47.68085388634311
 20
14.15304754255861
 30
0.0
 11
47.10357331929263
 21
14.15304754255861
 31
0.0
  0
CIRCLE
  5
3AD
330
1E
100
AcDbEntity
  8
OBJECT
100
AcDbCircle
 10
45.90921360281775
 20
16.06265645824692
 30
0.0
 40
0.083
  0
CIRCLE
  5
3AE
330
1E
100
AcDbEntity
  8
OBJECT
100
AcDbCircle
 10
45.90921360281775
 20
15.07865645824692
 30
0.0
 40
0.083
  0
CIRCLE
  5
3AF
330
1E
100
AcDbEntity
  8
OBJECT
100
AcDbCircle
 10
45.90921360281775
 20
16.06265645824692
 30
0.0
 40
0.21
  0
CIRCLE
  5
3B0
330
1E
100
AcDbEntity
  8
OBJECT
100
AcDbCircle
 10
45.90921360281775
 20
15.07865645824692
 30
0.0
 40
0.21
  0
CIRCLE
  5
3B1
330
1E
100
AcDbEntity
  8
OBJECT
100
AcDbCircle
 10
45.90921360281775
 20
17.04665645824691
 30
0.0
 40
0.083
  0
CIRCLE
  5
3B2
330
1E
100
AcDbEntity
  8
OBJECT
100
AcDbCircle
 10
45.90921360281775
 20
18.03065645824691
 30
0.0
 40
0.083
  0
CIRCLE
  5
3B3
330
1E
100
AcDbEntity
  8
OBJECT
100
AcDbCircle
 10
45.90921360281775
 20
18.03065645824691
 30
0.0
 40
0.21
  0
CIRCLE
  5
3B4
330
1E
100
AcDbEntity
  8
OBJECT
100
AcDbCircle
 10
45.90921360281775
 20
17.04665645824691
 30
0.0
 40
0.21
  0
CIRCLE
  5
3B5
330
1E
100
AcDbEntity
  8
OBJECT
100
AcDbCircle
 10
46.21171360281773
 20
14.39215645824691
 30
0.0
 40
0.297
  0
LINE
  5
3B6
330
1E
100
AcDbEntity
  8
OBJECT
100
AcDbLine
 10
45.85682251850606
 20
16.84329674177227
 30
0.0
 11
45.85682251850606
 21
16.26601617472155
 31
0.0
  0
LINE
  5
3B7
330
1E
100
AcDbEntity
  8
OBJECT
100
AcDbLine
 10
45.85682251850606
 20
17.82729674177228
 30
0.0
 11
45.85682251850606
 21
17.25001617472155
 31
0.0
  0
LINE
  5
3B8
330
1E
100
AcDbEntity
  8
OBJECT
100
AcDbLine
 10
45.85682251850606
 20
15.85929674177228
 30
0.0
 11
45.85682251850606
 21
15.28201617472181
 31
0.0
  0
LINE
  5
3B9
330
1E
100
AcDbEntity
  8
OBJECT
100
AcDbLine
 10
45.96160468712945
 20
16.84329674177227
 30
0.0
 11
45.96160468712945
 21
16.26601617472155
 31
0.0
  0
LINE
  5
3BA
330
1E
100
AcDbEntity
  8
OBJECT
100
AcDbLine
 10
45.96160468712945
 20
17.82729674177228
 30
0.0
 11
45.96160468712945
 21
17.25001617472155
 31
0.0
  0
CIRCLE
  5
3BB
330
1E
100
AcDbEntity
  8
OBJECT
100
AcDbCircle
 10
46.90021360281774
 20
14.10065645824691
 30
0.0
 40
0.21
  0
LINE
  5
3BC
330
1E
100
AcDbEntity
  8
OBJECT
100
AcDbLine
 10
45.96160468712945
 20
15.85929674177228
 30
0.0
 11
45.96160468712945
 21
15.28201617472181
 31
0.0
  0
CIRCLE
  5
3BD
330
1E
100
AcDbEntity
  8
OBJECT
100
AcDbCircle
 10
46.21171360281773
 20
14.39215645824691
 30
0.0
 40
0.098
  0
CIRCLE
  5
3BE
330
1E
100
AcDbEntity
  8
OBJECT
100
AcDbCircle
 10
46.90021360281774
 20
14.10065645824691
 30
0.0
 40
0.083
  0
LINE
  5
3BF
330
1E
100
AcDbEntity
  8
OBJECT
100
AcDbLine
 10
49.64885388634311
 20
14.04826537393522
 30
0.0
 11
49.07157331929237
 21
14.04826537393523
 31
0.0
  0
LINE
  5
3C0
330
1E
100
AcDbEntity
  8
OBJECT
100
AcDbLine
 10
49.64885388634311
 20
14.15304754255861
 30
0.0
 11
49.07157331929237
 21
14.15304754255861
 31
0.0
  0
LINE
  5
3C1
330
1E
100
AcDbEntity
  8
OBJECT
100
AcDbLine
 10
48.66485388634309
 20
14.04826537393523
 30
0.0
 11
48.08757331929239
 21
14.04826537393522
 31
0.0
  0
LINE
  5
3C2
330
1E
100
AcDbEntity
  8
OBJECT
100
AcDbLine
 10
48.66485388634309
 20
14.15304754255861
 30
0.0
 11
48.08757331929239
 21
14.15304754255861
 31
0.0
  0
CIRCLE
  5
3C3
330
1E
100
AcDbEntity
  8
OBJECT
100
AcDbCircle
 10
47.88421360281775
 20
14.10065645824691
 30
0.0
 40
0.083
  0
CIRCLE
  5
3C4
330
1E
100
AcDbEntity
  8
OBJECT
100
AcDbCircle
 10
47.88421360281775
 20
14.10065645824691
 30
0.0
 40
0.21
  0
CIRCLE
  5
3C5
330
1E
100
AcDbEntity
  8
OBJECT
100
AcDbCircle
 10
48.86821360281773
 20
14.10065645824691
 30
0.0
 40
0.21
  0
CIRCLE
  5
3C6
330
1E
100
AcDbEntity
  8
OBJECT
100
AcDbCircle
 10
48.86821360281773
 20
14.10065645824691
 30
0.0
 40
0.083
  0
CIRCLE
  5
3C7
330
1E
100
AcDbEntity
  8
OBJECT
100
AcDbCircle
 10
49.85221360281774
 20
14.10065645824691
 30
0.0
 40
0.083
  0
CIRCLE
  5
3C8
330
1E
100
AcDbEntity
  8
OBJECT
100
AcDbCircle
 10
49.85221360281774
 20
14.10065645824691
 30
0.0
 40
0.21
  0
CIRCLE
  5
3C9
330
1E
100
AcDbEntity
  8
OBJECT
100
AcDbCircle
 10
50.83621360281775
 20
14.10065645824691
 30
0.0
 40
0.21
  0
LINE
  5
3CA
330
1E
100
AcDbEntity
  8
OBJECT
100
AcDbLine
 10
50.63203252249049
 20
14.14974908942919
 30
0.0
 11
50.44442120858716
 21
14.14974908942919
 31
0.0
  0
LINE
  5
3CB
330
1E
100
AcDbEntity
  8
OBJECT
100
AcDbLine
 10
50.63285388634311
 20
14.04826537393522
 30
0.0
 11
50.57163629999114
 21
14.04826537393522
 31
0.0
  0
CIRCLE
  5
3CC
330
1E
100
AcDbEntity
  8
OBJECT
100
AcDbCircle
 10
53.78821360281775
 20
14.10065645824691
 30
0.0
 40
0.083
  0
CIRCLE
  5
3CD
330
1E
100
AcDbEntity
  8
OBJECT
100
AcDbCircle
 10
53.78821360281775
 20
14.10065645824691
 30
0.0
 40
0.21
  0
LINE
  5
3CE
330
1E
100
AcDbEntity
  8
OBJECT
100
AcDbLine
 10
52.02357331929239
 20
14.15304754255861
 30
0.0
 11
52.6008538863431
 21
14.15304754255861
 31
0.0
  0
LINE
  5
3CF
330
1E
100
AcDbEntity
  8
OBJECT
100
AcDbLine
 10
52.02357331929239
 20
14.04826537393523
 30
0.0
 11
52.6008538863431
 21
14.04826537393522
 31
0.0
  0
LINE
  5
3D0
330
1E
100
AcDbEntity
  8
OBJECT
100
AcDbLine
 10
51.03957331929239
 20
14.15304754255861
 30
0.0
 11
51.61685388634312
 21
14.15304754255861
 31
0.0
  0
LINE
  5
3D1
330
1E
100
AcDbEntity
  8
OBJECT
100
AcDbLine
 10
51.03957331929239
 20
14.04826537393522
 30
0.0
 11
51.61685388634312
 21
14.04826537393523
 31
0.0
  0
CIRCLE
  5
3D2
330
1E
100
AcDbEntity
  8
OBJECT
100
AcDbCircle
 10
50.83621360281775
 20
14.10065645824691
 30
0.0
 40
0.083
  0
CIRCLE
  5
3D3
330
1E
100
AcDbEntity
  8
OBJECT
100
AcDbCircle
 10
51.82021360281776
 20
14.10065645824691
 30
0.0
 40
0.083
  0
CIRCLE
  5
3D4
330
1E
100
AcDbEntity
  8
OBJECT
100
AcDbCircle
 10
51.82021360281776
 20
14.10065645824691
 30
0.0
 40
0.21
  0
LINE
  5
3D5
330
1E
100
AcDbEntity
  8
OBJECT
100
AcDbLine
 10
53.00757331929237
 20
14.15304754255861
 30
0.0
 11
53.58485388634282
 21
14.15304754255861
 31
0.0
  0
LINE
  5
3D6
330
1E
100
AcDbEntity
  8
OBJECT
100
AcDbLine
 10
53.00757331929237
 20
14.04826537393522
 30
0.0
 11
53.58485388634282
 21
14.04826537393522
 31
0.0
  0
CIRCLE
  5
3D7
330
1E
100
AcDbEntity
  8
OBJECT
100
AcDbCircle
 10
52.80421360281774
 20
14.10065645824691
 30
0.0
 40
0.21
  0
CIRCLE
  5
3D8
330
1E
100
AcDbEntity
  8
OBJECT
100
AcDbCircle
 10
52.80421360281774
 20
14.10065645824691
 30
0.0
 40
0.083
  0
LINE
  5
3D9
330
1E
100
AcDbEntity
  8
OBJECT
100
AcDbLine
 10
54.83160468712942
 20
16.84329674177227
 30
0.0
 11
54.83160468712942
 21
16.26601617472155
 31
0.0
  0
LINE
  5
3DA
330
1E
100
AcDbEntity
  8
OBJECT
100
AcDbLine
 10
54.72682251850604
 20
16.84329674177227
 30
0.0
 11
54.72682251850604
 21
16.26601617472155
 31
0.0
  0
CIRCLE
  5
3DB
330
1E
100
AcDbEntity
  8
OBJECT
100
AcDbCircle
 10
54.77921360281773
 20
17.04665645824691
 30
0.0
 40
0.21
  0
CIRCLE
  5
3DC
330
1E
100
AcDbEntity
  8
OBJECT
100
AcDbCircle
 10
54.77921360281773
 20
18.03065645824691
 30
0.0
 40
0.21
  0
LINE
  5
3DD
330
1E
100
AcDbEntity
  8
OBJECT
100
AcDbLine
 10
54.83160468712942
 20
17.82729674177228
 30
0.0
 11
54.83160468712942
 21
17.25001617472155
 31
0.0
  0
LINE
  5
3DE
330
1E
100
AcDbEntity
  8
OBJECT
100
AcDbLine
 10
54.72682251850604
 20
17.82729674177228
 30
0.0
 11
54.72682251850604
 21
17.25001617472155
 31
0.0
  0
CIRCLE
  5
3DF
330
1E
100
AcDbEntity
  8
OBJECT
100
AcDbCircle
 10
54.77921360281773
 20
18.03065645824691
 30
0.0
 40
0.083
  0
CIRCLE
  5
3E0
330
1E
100
AcDbEntity
  8
OBJECT
100
AcDbCircle
 10
54.77921360281773
 20
17.04665645824691
 30
0.0
 40
0.083
  0
CIRCLE
  5
3E1
330
1E
100
AcDbEntity
  8
OBJECT
100
AcDbCircle
 10
54.47671360281773
 20
14.39215645824691
 30
0.0
 40
0.297
  0
CIRCLE
  5
3E2
330
1E
100
AcDbEntity
  8
OBJECT
100
AcDbCircle
 10
54.77921360281773
 20
15.07865645824692
 30
0.0
 40
0.21
  0
CIRCLE
  5
3E3
330
1E
100
AcDbEntity
  8
OBJECT
100
AcDbCircle
 10
54.77921360281773
 20
16.06265645824692
 30
0.0
 40
0.21
  0
CIRCLE
  5
3E4
330
1E
100
AcDbEntity
  8
OBJECT
100
AcDbCircle
 10
54.47671360281773
 20
14.39215645824691
 30
0.0
 40
0.098
  0
CIRCLE
  5
3E5
330
1E
100
AcDbEntity
  8
OBJECT
100
AcDbCircle
 10
54.77921360281773
 20
15.07865645824692
 30
0.0
 40
0.083
  0
LINE
  5
3E6
330
1E
100
AcDbEntity
  8
OBJECT
100
AcDbLine
 10
54.83160468712942
 20
15.85929674177228
 30
0.0
 11
54.83160468712942
 21
15.28201617472181
 31
0.0
  0
LINE
  5
3E7
330
1E
100
AcDbEntity
  8
OBJECT
100
AcDbLine
 10
54.72682251850604
 20
15.85929674177228
 30
0.0
 11
54.72682251850604
 21
15.28201617472181
 31
0.0
  0
CIRCLE
  5
3E8
330
1E
100
AcDbEntity
  8
OBJECT
100
AcDbCircle
 10
54.77921360281773
 20
16.06265645824692
 30
0.0
 40
0.083
  0
TEXT
  5
3E9
330
1E
100
AcDbEntity
  8
DIM
100
AcDbText
 10
4.841502262553291
 20
10.24728932057793
 30
0.0
 40
0.5625
  1
WITH M5 x 0.8mm
 41
0.75
 11
4.841502262553291
 21
10.52853932057793
 31
0.0
100
AcDbText
 73
     2
  0
TEXT
  5
3EA
330
1E
100
AcDbEntity
  8
DIM
100
AcDbText
 10
4.841502262553291
 20
11.18478932057794
 30
0.0
 40
0.5625
  1
0.630 [16] DIA. BOSS
 41
0.75
 11
4.841502262553291
 21
11.46603932057794
 31
0.0
100
AcDbText
 73
     2
  0
LWPOLYLINE
  5
3EB
330
1E
100
AcDbEntity
  8
DIM
100
AcDbPolyline
 90
        4
 70
     0
 10
6.984318516157571
 20
13.70432275391274
 40
0.0
 41
0.30375
 10
6.310333624015527
 20
13.25505182767305
 40
0.0
 41
0.0
 10
3.626502262553373
 20
11.46603932057794
 40
0.0
 41
0.0
 10
4.436502262553347
 20
11.46603932057794
 40
0.0
 41
0.0
  0
TEXT
  5
3F1
330
1E
100
AcDbEntity
  8
DIM
100
AcDbText
 10
4.841502262553291
 20
9.309789320577962
 30
0.0
 40
0.5625
  1
THREADED BRASS INSERT
 41
0.75
 11
4.841502262553291
 21
9.591039320577962
 31
0.0
100
AcDbText
 73
     2
  0
DIMENSION
  5
3F2
330
1E
100
AcDbEntity
  8
DIM
100
AcDbDimension
  2
*D21
 10
11.87606789232967
 20
27.60956096697802
 30
0.0
 11
7.236067892329664
 21
27.60956096697802
 31
0.0
 70
    32
  1
W
 71
     5
 42
9.280000000000015
  3
23NSTD
100
AcDbAlignedDimension
 13
2.596067892329656
 23
19.7106564582471
 33
0.0
 14
11.87606789232967
 24
19.7106564582471
 34
0.0
100
AcDbRotatedDimension
  0
DIMENSION
  5
3F3
330
1E
100
AcDbEntity
  8
DIM
100
AcDbDimension
  2
*D22
 10
13.88706789232961
 20
25.5276564582471
 30
0.0
 11
13.8870678923296
 21
19.7106564582471
 31
0.0
 70
    32
  1
V
 71
     5
 42
11.63399999999999
  3
23NSTD
100
AcDbAlignedDimension
 13
7.236067892329643
 23
13.8936564582471
 33
0.0
 14
7.236067892329643
 24
25.5276564582471
 34
0.0
 50
90.0
100
AcDbRotatedDimension
  0
LINE
  5
3F4
330
1E
100
AcDbEntity
  8
OBJECT
100
AcDbLine
 10
2.361067892329657
 20
20.36865645824711
 30
0.0
 11
12.11106789232965
 21
20.36865645824711
 31
0.0
  0
LINE
  5
3F5
330
1E
100
AcDbEntity
  8
OBJECT
100
AcDbLine
 10
2.361067892329657
 20
19.05265645824711
 30
0.0
 11
12.11106789232965
 21
19.05265645824711
 31
0.0
  0
LINE
  5
3F6
330
1E
100
AcDbEntity
  8
OBJECT
100
AcDbLine
 10
2.905682168486293
 20
19.7686564582471
 30
0.0
 11
11.56645361617304
 21
19.7686564582471
 31
0.0
  0
LINE
  5
3F7
330
1E
100
AcDbEntity
  8
OBJECT
100
AcDbLine
 10
2.905682168486293
 20
19.65265645824712
 30
0.0
 11
11.56645361617303
 21
19.65265645824712
 31
0.0
  0
LINE
  5
3F8
330
1E
100
AcDbEntity
  8
OBJECT
100
AcDbLine
 10
2.361067892329657
 20
19.05265645824711
 30
0.0
 11
2.361067892329657
 21
19.50089468861307
 31
0.0
  0
LINE
  5
3F9
330
1E
100
AcDbEntity
  8
OBJECT
100
AcDbLine
 10
12.11106789232965
 20
19.05265645824711
 30
0.0
 11
12.11106789232965
 21
19.50089468861304
 31
0.0
  0
LINE
  5
3FA
330
1E
100
AcDbEntity
  8
OBJECT
100
AcDbLine
 10
2.361067892329657
 20
20.01065645824711
 30
0.0
 11
12.11106789232965
 21
20.01065645824711
 31
0.0
  0
LINE
  5
3FB
330
1E
100
AcDbEntity
  8
OBJECT
100
AcDbLine
 10
2.361067892329657
 20
19.41065645824711
 30
0.0
 11
12.11106789232965
 21
19.41065645824711
 31
0.0
  0
LINE
  5
3FC
330
1E
100
AcDbEntity
  8
OBJECT
100
AcDbLine
 10
2.361067892329657
 20
20.12665645824711
 30
0.0
 11
12.11106789232965
 21
20.12665645824711
 31
0.0
  0
LINE
  5
3FD
330
1E
100
AcDbEntity
  8
OBJECT
100
AcDbLine
 10
2.361067892329657
 20
19.29465645824711
 30
0.0
 11
12.11106789232965
 21
19.29465645824711
 31
0.0
  0
LINE
  5
3FE
330
1E
100
AcDbEntity
  8
OBJECT
100
AcDbLine
 10
2.361067892329657
 20
19.92041822788112
 30
0.0
 11
2.361067892329657
 21
20.36865645824711
 31
0.0
  0
LINE
  5
3FF
330
1E
100
AcDbEntity
  8
OBJECT
100
AcDbLine
 10
12.11106789232965
 20
19.92041822788115
 30
0.0
 11
12.11106789232965
 21
20.36865645824711
 31
0.0
  0
LINE
  5
400
330
1E
100
AcDbEntity
  8
OBJECT
100
AcDbLine
 10
46.04621904425515
 20
24.78253822881898
 30
0.0
 11
45.94366966270165
 21
24.54981045878101
 31
0.0
  0
LINE
  5
401
330
1E
100
AcDbEntity
  8
OBJECT
100
AcDbLine
 10
46.14138930816493
 20
24.74060231500585
 30
0.0
 11
46.03883992661143
 21
24.50787454496789
 31
0.0
  0
LINE
  5
402
330
1E
100
AcDbEntity
  8
OBJECT
100
AcDbLine
 10
46.46071237355752
 20
25.19104719970572
 30
0.0
 11
46.69258044741129
 21
25.28921647135186
 31
0.0
  0
LINE
  5
403
330
1E
100
AcDbEntity
  8
OBJECT
100
AcDbLine
 10
46.50125988886237
 20
25.09527716784501
 30
0.0
 11
46.73312796271615
 21
25.19344643949115
 31
0.0
  0
LINE
  5
404
330
1E
100
AcDbEntity
  8
OBJECT
100
AcDbLine
 10
54.64220816138032
 20
24.78253822881898
 30
0.0
 11
54.74475754293384
 21
24.54981045878101
 31
0.0
  0
LINE
  5
405
330
1E
100
AcDbEntity
  8
OBJECT
100
AcDbLine
 10
54.54703789747053
 20
24.74060231500585
 30
0.0
 11
54.64958727902406
 21
24.50787454496789
 31
0.0
  0
LINE
  5
406
330
1E
100
AcDbEntity
  8
OBJECT
100
AcDbLine
 10
54.22771483207795
 20
25.19104719970572
 30
0.0
 11
53.99584675822419
 21
25.28921647135186
 31
0.0
  0
LINE
  5
407
330
1E
100
AcDbEntity
  8
OBJECT
100
AcDbLine
 10
54.18716731677308
 20
25.09527716784501
 30
0.0
 11
53.95529924291934
 21
25.19344643949115
 31
0.0
  0
LINE
  5
408
330
1E
100
AcDbEntity
  8
OBJECT
100
AcDbLine
 10
46.04621904425515
 20
14.63877468767486
 30
0.0
 11
45.94366966270165
 21
14.87150245771283
 31
0.0
  0
LINE
  5
409
330
1E
100
AcDbEntity
  8
OBJECT
100
AcDbLine
 10
46.14138930816493
 20
14.68071060148798
 30
0.0
 11
46.03883992661143
 21
14.91343837152594
 31
0.0
  0
LINE
  5
40A
330
1E
100
AcDbEntity
  8
OBJECT
100
AcDbLine
 10
46.46071237355752
 20
14.23026571678812
 30
0.0
 11
46.69258044741129
 21
14.13209644514197
 31
0.0
  0
LINE
  5
40B
330
1E
100
AcDbEntity
  8
OBJECT
100
AcDbLine
 10
46.50125988886237
 20
14.32603574864883
 30
0.0
 11
46.73312796271615
 21
14.22786647700268
 31
0.0
  0
LINE
  5
40C
330
1E
100
AcDbEntity
  8
OBJECT
100
AcDbLine
 10
54.18716731677308
 20
14.32603574864883
 30
0.0
 11
53.95529924291934
 21
14.22786647700268
 31
0.0
  0
LINE
  5
40D
330
1E
100
AcDbEntity
  8
OBJECT
100
AcDbLine
 10
54.22771483207795
 20
14.23026571678812
 30
0.0
 11
53.99584675822419
 21
14.13209644514197
 31
0.0
  0
LINE
  5
40E
330
1E
100
AcDbEntity
  8
OBJECT
100
AcDbLine
 10
54.54703789747053
 20
14.68071060148798
 30
0.0
 11
54.64958727902406
 21
14.91343837152594
 31
0.0
  0
LINE
  5
40F
330
1E
100
AcDbEntity
  8
OBJECT
100
AcDbLine
 10
54.64220816138032
 20
14.63877468767486
 30
0.0
 11
54.74475754293384
 21
14.87150245771283
 31
0.0
  0
CIRCLE
  5
410
330
1E
100
AcDbEntity
  8
OBJECT
100
AcDbCircle
 10
45.70421360281774
 20
19.71065645824691
 30
0.0
 40
0.098
  0
CIRCLE
  5
411
330
1E
100
AcDbEntity
  8
OBJECT
100
AcDbCircle
 10
54.98421360281778
 20
19.71065645824691
 30
0.0
 40
0.098
  0
CIRCLE
  5
412
330
1E
100
AcDbEntity
  8
OBJECT
100
AcDbCircle
 10
45.70421360281774
 20
19.71065645824691
 30
0.0
 40
0.275
  0
CIRCLE
  5
413
330
1E
100
AcDbEntity
  8
OBJECT
100
AcDbCircle
 10
54.98421360281778
 20
19.71065645824691
 30
0.0
 40
0.275
  0
LINE
  5
414
330
1E
100
AcDbEntity
  8
OBJECT
100
AcDbLine
 10
21.39404043515463
 20
18.92965645824691
 30
0.0
 11
21.39404043515463
 21
19.43565645824691
 31
0.0
  0
LINE
  5
415
330
1E
100
AcDbEntity
  8
OBJECT
100
AcDbLine
 10
45.29921360281777
 20
20.49165645824692
 30
0.0
 11
55.38921360281775
 21
20.49165645824692
 31
0.0
  0
LINE
  5
416
330
1E
100
AcDbEntity
  8
OBJECT
100
AcDbLine
 10
45.29921360281777
 20
18.92965645824691
 30
0.0
 11
55.38921360281775
 21
18.92965645824691
 31
0.0
  0
LINE
  5
417
330
1E
100
AcDbEntity
  8
OBJECT
100
AcDbLine
 10
21.25104043515463
 20
18.92965645824691
 30
0.0
 11
21.39404043515463
 21
18.92965645824691
 31
0.0
  0
LINE
  5
418
330
1E
100
AcDbEntity
  8
OBJECT
100
AcDbLine
 10
21.63704043515463
 20
19.43565645824691
 30
0.0
 11
21.63704043515463
 21
19.71065645824711
 31
0.0
  0
LINE
  5
419
330
1E
100
AcDbEntity
  8
OBJECT
100
AcDbLine
 10
21.63704043515463
 20
19.43565645824691
 30
0.0
 11
21.39404043515463
 21
19.43565645824691
 31
0.0
  0
LINE
  5
41A
330
1E
100
AcDbEntity
  8
OBJECT
100
AcDbLine
 10
21.04304043515464
 20
19.62965645824711
 30
0.0
 11
21.45704043515463
 21
19.62965645824712
 31
0.0
  0
LINE
  5
41B
330
1E
100
AcDbEntity
  8
HIDDEN
100
AcDbLine
 10
21.04304043515464
 20
19.61265645824711
 30
0.0
 11
21.45704043515463
 21
19.61265645824713
 31
0.0
  0
LINE
  5
41C
330
1E
100
AcDbEntity
  8
OBJECT
100
AcDbLine
 10
21.45704043515463
 20
19.62965645824712
 30
0.0
 11
21.45704043515463
 21
19.71065645824711
 31
0.0
  0
LINE
  5
41D
330
1E
100
AcDbEntity
  8
OBJECT
100
AcDbLine
 10
21.12304043515462
 20
19.71065645824711
 30
0.0
 11
21.12304043515462
 21
26.32565645824711
 31
0.0
  0
LWPOLYLINE
  5
41E
330
1E
100
AcDbEntity
  8
OBJECT
100
AcDbPolyline
 90
        4
 70
     1
 43
0.0
 10
24.95554043515464
 20
20.5406564582469
 10
24.83054043515464
 20
20.54065645824688
 10
24.83054043515464
 20
20.05065645824689
 10
24.95554043515464
 20
20.05065645824689
  0
LWPOLYLINE
  5
424
330
1E
100
AcDbEntity
  8
OBJECT
100
AcDbPolyline
 90
        4
 70
     0
 43
0.0
 10
24.95554043515464
 20
25.9216564582469
 10
24.95554043515464
 20
24.73065645824689
 10
24.83054043515464
 20
24.73065645824689
 10
24.83054043515464
 20
25.9216564582469
  0
LINE
  5
42A
330
1E
100
AcDbEntity
  8
OBJECT
100
AcDbLine
 10
24.74304043515464
 20
19.71065645824704
 30
0.0
 11
24.74304043515464
 21
25.9216564582469
 31
0.0
  0
LWPOLYLINE
  5
42B
330
1E
100
AcDbEntity
  8
OBJECT
100
AcDbPolyline
 90
        3
 70
     0
 43
0.0
 10
24.95554043515464
 20
19.95565645824689
 10
24.83054043515464
 20
19.95565645824687
 10
24.83054043515464
 20
19.71065645824706
  0
LWPOLYLINE
  5
430
330
1E
100
AcDbEntity
  8
OBJECT
100
AcDbPolyline
 90
        2
 70
     0
 43
0.0
 10
24.95554043515464
 20
19.71065645824706
 10
24.95554043515464
 20
19.95565645824689
  0
CIRCLE
  5
434
330
1E
100
AcDbEntity
  8
OBJECT
100
AcDbCircle
 10
50.34421360281773
 20
25.52765645824712
 30
0.0
 40
0.275
  0
CIRCLE
  5
435
330
1E
100
AcDbEntity
  8
OBJECT
100
AcDbCircle
 10
50.34421360281773
 20
25.52765645824712
 30
0.0
 40
0.098
  0
LINE
  5
436
330
1E
100
AcDbEntity
  8
OBJECT
100
AcDbLine
 10
50.11679090564434
 20
25.37304754255861
 30
0.0
 11
50.05557331929238
 21
25.37304754255861
 31
0.0
  0
LINE
  5
437
330
1E
100
AcDbEntity
  8
OBJECT
100
AcDbLine
 10
50.24400599704832
 20
25.27156382706465
 30
0.0
 11
50.056394683145
 21
25.27156382706465
 31
0.0
  0
CIRCLE
  5
438
330
1E
100
AcDbEntity
  8
OBJECT
100
AcDbCircle
 10
50.34421360281773
 20
13.89365645824672
 30
0.0
 40
0.275
  0
CIRCLE
  5
439
330
1E
100
AcDbEntity
  8
OBJECT
100
AcDbCircle
 10
50.34421360281773
 20
13.89365645824672
 30
0.0
 40
0.098
  0
LINE
  5
43A
330
1E
100
AcDbEntity
  8
OBJECT
100
AcDbLine
 10
50.24400599704832
 20
14.14974908942919
 30
0.0
 11
50.056394683145
 21
14.14974908942919
 31
0.0
  0
LINE
  5
43B
330
1E
100
AcDbEntity
  8
OBJECT
100
AcDbLine
 10
50.11679090564434
 20
14.04826537393522
 30
0.0
 11
50.05557331929238
 21
14.04826537393522
 31
0.0
  0
LINE
  5
43C
330
1E
100
AcDbEntity
  8
OBJECT
100
AcDbLine
 10
39.22930620487663
 20
31.14361241745349
 30
0.0
 11
29.14330620487665
 21
31.14361241745349
 31
0.0
  0
LINE
  5
43D
330
1E
100
AcDbEntity
  8
OBJECT
100
AcDbLine
 10
39.63130620487659
 20
34.7636124174535
 30
0.0
 11
28.74130620487658
 21
34.7636124174535
 31
0.0
  0
LINE
  5
43E
330
1E
100
AcDbEntity
  8
OBJECT
100
AcDbLine
 10
39.71230620487662
 20
30.84361241745348
 30
0.0
 11
28.66030620487661
 21
30.84361241745348
 31
0.0
  0
DIMENSION
  5
43F
330
1E
100
AcDbEntity
  8
DIM
100
AcDbDimension
  2
*D23
 10
39.63130620487659
 20
35.91708517642227
 30
0.0
 11
34.18630620487658
 21
35.91708517642227
 31
0.0
 70
    32
  1
U
 71
     5
 42
10.89000000000001
  3
23NSTD
100
AcDbAlignedDimension
 13
28.74130620487658
 23
34.7636124174535
 33
0.0
 14
39.63130620487659
 24
34.7636124174535
 34
0.0
100
AcDbRotatedDimension
  0
DIMENSION
  5
440
330
1E
100
AcDbEntity
  8
DIM
100
AcDbDimension
  2
*D24
 10
39.66630620487666
 20
28.35597273646392
 30
0.0
 11
34.18630620487667
 21
28.35597273646392
 31
0.0
 70
    32
  1
T
 71
     5
 42
10.95999999999998
  3
23NSTD
100
AcDbAlignedDimension
 13
28.70630620487668
 23
29.88261241745348
 33
0.0
 14
39.66630620487666
 24
29.88261241745348
 34
0.0
100
AcDbRotatedDimension
  0
LWPOLYLINE
  5
441
330
1E
100
AcDbEntity
  8
OBJECT
100
AcDbPolyline
 90
        4
 70
     1
 43
0.0
 10
30.92130620487663
 20
30.93111241745349
 10
30.92130620487661
 20
31.05611241745349
 10
30.43130620487662
 20
31.05611241745349
 10
30.43130620487663
 20
30.93111241745349
  0
LINE
  5
447
330
1E
100
AcDbEntity
  8
OBJECT
100
AcDbLine
 10
29.60572970252478
 20
31.14361241745349
 30
0.0
 11
29.56481138702824
 21
34.7636124174535
 31
0.0
  0
LINE
  5
448
330
1E
100
AcDbEntity
  8
OBJECT
100
AcDbLine
 10
28.66030620487661
 20
30.84361241745348
 30
0.0
 11
28.74130620487658
 21
34.7636124174535
 31
0.0
  0
LWPOLYLINE
  5
449
330
1E
100
AcDbEntity
  8
OBJECT
100
AcDbPolyline
 90
        4
 70
     0
 43
0.0
 10
29.14330620487665
 20
30.93111241745349
 10
30.33630620487662
 20
30.93111241745349
 10
30.3363062048766
 20
31.05611241745349
 10
29.14330620487665
 20
31.05611241745347
  0
LINE
  5
44F
330
1E
100
AcDbEntity
  8
CENTER
100
AcDbLine
 10
34.18630620487664
 20
29.15261241745348
 30
0.0
 11
34.18630620487658
 21
35.26487226045349
 31
0.0
  0
LINE
  5
450
330
1E
100
AcDbEntity
  8
OBJECT
100
AcDbLine
 10
39.71230620487662
 20
30.84361241745348
 30
0.0
 11
39.63130620487659
 21
34.7636124174535
 31
0.0
  0
LINE
  5
451
330
1E
100
AcDbEntity
  8
OBJECT
100
AcDbLine
 10
38.76778373172845
 20
31.14361241745349
 30
0.0
 11
38.808702047225
 21
34.7636124174535
 31
0.0
  0
TEXT
  5
452
330
1E
100
AcDbEntity
  8
TEXT
100
AcDbText
 10
67.26975873594543
 20
1.410016042780734
 30
0.0
 40
0.5625
  1
9.280
 41
0.75
 72
     4
 11
68.07835248594543
 21
1.691266042780734
 31
0.0
100
AcDbText
  0
TEXT
  5
453
330
1E
100
AcDbEntity
  8
TEXT
100
AcDbText
 10
67.23460248594543
 20
0.4685053475935792
 30
0.0
 40
0.5625
  1
[236]
 41
0.75
 72
     4
 11
68.07835248594543
 21
0.7497553475935792
 31
0.0
100
AcDbText
  0
TEXT
  5
454
330
1E
100
AcDbEntity
  8
TEXT
100
AcDbText
 10
64.44892248594541
 20
0.4685053475935792
 30
0.0
 40
0.5625
  1
[296]
 41
0.75
 72
     4
 11
65.29267248594542
 21
0.7497553475935792
 31
0.0
100
AcDbText
  0
TEXT
  5
455
330
1E
100
AcDbEntity
  8
TEXT
100
AcDbText
 10
64.37860998594541
 20
1.410016042780734
 30
0.0
 40
0.5625
  1
11.634
 41
0.75
 72
     4
 11
65.29267248594542
 21
1.691266042780734
 31
0.0
100
AcDbText
  0
DIMENSION
  5
456
330
1E
100
AcDbEntity
  8
DIM
100
AcDbDimension
  2
*D33
 10
58.39769816388038
 20
21.39065645824691
 30
0.0
 11
58.39769816388037
 21
19.71065645824692
 31
0.0
 70
    32
 71
     5
 42
3.360000000000006
  3
23NSTDI
100
AcDbAlignedDimension
 13
54.77921360281773
 23
18.03065645824691
 33
0.0
 14
54.77921360281773
 24
21.39065645824692
 34
0.0
 50
90.0
100
AcDbRotatedDimension
  0
DIMENSION
  5
457
330
1E
100
AcDbEntity
  8
DIM
100
AcDbDimension
  2
*D25
 10
21.12304043515462
 20
18.62032666415728
 30
0.0
 11
17.65663418515463
 21
18.62032666415728
 31
0.0
 70
    32
 71
     5
 42
0.1280000000000001
  3
23NSTD
100
AcDbAlignedDimension
 13
21.25104043515463
 23
18.5424072655698
 33
0.0
 14
21.12304043515462
 24
18.5424072655698
 34
0.0
100
AcDbRotatedDimension
  0
DIMENSION
  5
458
330
1E
100
AcDbEntity
  8
DIM
100
AcDbDimension
  2
*D26
 10
21.12304043515462
 20
17.55542750155756
 30
0.0
 11
17.58632168515463
 21
17.55542750155756
 31
0.0
 70
    32
 71
     5
 42
0.2381372303929581
  3
23NSTD
100
AcDbAlignedDimension
 13
21.36117766554758
 23
17.55542750155756
 33
0.0
 14
21.12304043515462
 24
17.55542750155756
 34
0.0
100
AcDbRotatedDimension
  0
DIMENSION
  5
459
330
1E
100
AcDbEntity
  8
DIM
100
AcDbDimension
  2
*D27
 10
21.36117766554764
 20
16.55650017272057
 30
0.0
 11
17.89477141554764
 21
16.55650017272057
 31
0.0
 70
    32
 71
     5
 42
0.1648627696069909
  3
23NSTD
100
AcDbAlignedDimension
 13
21.52604043515463
 23
16.27265645824711
 33
0.0
 14
21.36117766554764
 24
16.49728322395697
 34
0.0
100
AcDbRotatedDimension
  0
LINE
  5
45A
330
1E
100
AcDbEntity
  8
OBJECT
100
AcDbLine
 10
55.38921360281773
 20
25.42909222673576
 30
0.0
 11
55.38921360281775
 21
13.99222068975808
 31
0.0
  0
LWPOLYLINE
  5
45B
330
1E
100
AcDbEntity
  8
OBJECT
100
AcDbPolyline
 90
        4
 70
     0
 43
0.0
 10
55.38921360281775
 20
15.07765645824692
 10
55.44821360281774
 20
15.14919814333535
 10
55.44821360281774
 20
14.50611477315868
 10
55.38921360281775
 20
14.57765645824692
  0
LWPOLYLINE
  5
461
330
1E
100
AcDbEntity
  8
OBJECT
100
AcDbPolyline
 90
        4
 70
     0
 43
0.0
 10
55.38921360281775
 20
24.34365645824692
 10
55.44821360281774
 20
24.27211477315849
 10
55.44821360281774
 20
24.91519814333516
 10
55.38921360281775
 20
24.84365645824692
  0
LWPOLYLINE
  5
467
330
1E
100
AcDbEntity
  8
OBJECT
100
AcDbPolyline
 90
        4
 70
     0
 43
0.0
 10
45.29921360281774
 20
24.34365645824692
 10
45.24021360281771
 20
24.27211477315849
 10
45.24021360281771
 20
24.91519814333516
 10
45.29921360281774
 20
24.84365645824692
  0
LWPOLYLINE
  5
46D
330
1E
100
AcDbEntity
  8
OBJECT
100
AcDbPolyline
 90
        4
 70
     0
 43
0.0
 10
45.29921360281774
 20
15.07765645824692
 10
45.24021360281771
 20
15.14919814333535
 10
45.24021360281771
 20
14.50611477315868
 10
45.29921360281774
 20
14.57765645824692
  0
LINE
  5
473
330
1E
100
AcDbEntity
  8
OBJECT
100
AcDbLine
 10
45.29921360281774
 20
25.42909222673576
 30
0.0
 11
45.29921360281773
 21
13.99222068975808
 31
0.0
  0
TEXT
  5
474
330
1E
100
AcDbEntity
  8
TEXT
100
AcDbText
 10
46.26994867464196
 20
5.514063085779647
 30
0.0
 40
0.702
  1
%%UVIEW LESS COVER
 41
0.75
 72
     4
 11
50.31522367464195
 21
5.794863085779647
 31
0.0
100
AcDbText
  0
LWPOLYLINE
  5
475
330
1E
100
AcDbEntity
  8
HIDDEN
100
AcDbPolyline
 90
        3
 70
     0
 43
0.0
 10
23.85504043515461
 20
15.09265645824692
 10
23.85504043515461
 20
15.14919814333535
 10
25.04304043515463
 20
15.14919814333535
  0
LWPOLYLINE
  5
47A
330
1E
100
AcDbEntity
  8
HIDDEN
100
AcDbPolyline
 90
        3
 70
     0
 43
0.0
 10
23.85504043515461
 20
14.56265645824692
 10
23.85504043515461
 20
14.50611477315867
 10
25.04304043515463
 20
14.50611477315867
  0
LWPOLYLINE
  5
47F
330
1E
100
AcDbEntity
  8
OBJECT
100
AcDbPolyline
 90
        4
 70
     0
 43
0.0
 10
25.04304043515463
 20
15.07765645824692
 10
23.85504043515461
 20
15.07765645824692
 10
23.85504043515461
 20
14.57765645824692
 10
25.04304043515463
 20
14.57765645824692
  0
LWPOLYLINE
  5
485
330
1E
100
AcDbEntity
  8
OBJECT
100
AcDbPolyline
 90
        4
 70
     0
 43
0.0
 10
39.22930620487662
 20
30.93111241745349
 10
38.03630620487665
 20
30.93111241745349
 10
38.03630620487666
 20
31.05611241745349
 10
39.22930620487662
 20
31.05611241745347
  0
LWPOLYLINE
  5
48B
330
1E
100
AcDbEntity
  8
OBJECT
100
AcDbPolyline
 90
        4
 70
     1
 43
0.0
 10
31.50630620487663
 20
30.93111241745349
 10
31.50630620487662
 20
31.05611241745349
 10
31.01630620487663
 20
31.05611241745349
 10
31.01630620487664
 20
30.93111241745349
  0
LWPOLYLINE
  5
491
330
1E
100
AcDbEntity
  8
OBJECT
100
AcDbPolyline
 90
        4
 70
     1
 43
0.0
 10
32.09130620487663
 20
30.93111241745349
 10
32.09130620487661
 20
31.05611241745349
 10
31.60130620487662
 20
31.05611241745349
 10
31.60130620487663
 20
30.93111241745349
  0
LWPOLYLINE
  5
497
330
1E
100
AcDbEntity
  8
OBJECT
100
AcDbPolyline
 90
        4
 70
     1
 43
0.0
 10
32.67630620487662
 20
30.93111241745349
 10
32.67630620487662
 20
31.05611241745349
 10
32.18630620487661
 20
31.05611241745349
 10
32.18630620487664
 20
30.93111241745349
  0
LWPOLYLINE
  5
49D
330
1E
100
AcDbEntity
  8
OBJECT
100
AcDbPolyline
 90
        4
 70
     1
 43
0.0
 10
33.26130620487663
 20
30.93111241745349
 10
33.26130620487662
 20
31.05611241745349
 10
32.77130620487662
 20
31.05611241745349
 10
32.77130620487664
 20
30.93111241745349
  0
LWPOLYLINE
  5
4A3
330
1E
100
AcDbEntity
  8
OBJECT
100
AcDbPolyline
 90
        4
 70
     1
 43
0.0
 10
33.84630620487664
 20
30.93111241745349
 10
33.84630620487661
 20
31.05611241745349
 10
33.35630620487663
 20
31.05611241745349
 10
33.35630620487663
 20
30.93111241745349
  0
LWPOLYLINE
  5
4A9
330
1E
100
AcDbEntity
  8
OBJECT
100
AcDbPolyline
 90
        4
 70
     1
 43
0.0
 10
34.43130620487663
 20
30.93111241745349
 10
34.43130620487662
 20
31.05611241745349
 10
33.94130620487662
 20
31.05611241745349
 10
33.94130620487664
 20
30.93111241745349
  0
LWPOLYLINE
  5
4AF
330
1E
100
AcDbEntity
  8
OBJECT
100
AcDbPolyline
 90
        4
 70
     1
 43
0.0
 10
35.01630620487663
 20
30.93111241745349
 10
35.01630620487663
 20
31.05611241745349
 10
34.52630620487662
 20
31.05611241745349
 10
34.52630620487664
 20
30.93111241745349
  0
LWPOLYLINE
  5
4B5
330
1E
100
AcDbEntity
  8
OBJECT
100
AcDbPolyline
 90
        4
 70
     1
 43
0.0
 10
35.60130620487663
 20
30.93111241745349
 10
35.60130620487662
 20
31.05611241745349
 10
35.11130620487662
 20
31.05611241745349
 10
35.11130620487664
 20
30.93111241745349
  0
LWPOLYLINE
  5
4BB
330
1E
100
AcDbEntity
  8
OBJECT
100
AcDbPolyline
 90
        4
 70
     1
 43
0.0
 10
36.18630620487663
 20
30.93111241745349
 10
36.18630620487661
 20
31.05611241745349
 10
35.69630620487662
 20
31.05611241745349
 10
35.69630620487663
 20
30.93111241745349
  0
LWPOLYLINE
  5
4C1
330
1E
100
AcDbEntity
  8
OBJECT
100
AcDbPolyline
 90
        4
 70
     1
 43
0.0
 10
36.77130620487662
 20
30.93111241745349
 10
36.77130620487662
 20
31.05611241745349
 10
36.28130620487661
 20
31.05611241745349
 10
36.28130620487664
 20
30.93111241745349
  0
LWPOLYLINE
  5
4C7
330
1E
100
AcDbEntity
  8
OBJECT
100
AcDbPolyline
 90
        4
 70
     1
 43
0.0
 10
37.35630620487663
 20
30.93111241745349
 10
37.35630620487661
 20
31.05611241745349
 10
36.86630620487662
 20
31.05611241745349
 10
36.86630620487663
 20
30.93111241745349
  0
LWPOLYLINE
  5
4CD
330
1E
100
AcDbEntity
  8
OBJECT
100
AcDbPolyline
 90
        4
 70
     1
 43
0.0
 10
37.94130620487663
 20
30.93111241745349
 10
37.94130620487661
 20
31.05611241745349
 10
37.45130620487663
 20
31.05611241745349
 10
37.45130620487663
 20
30.93111241745349
  0
LWPOLYLINE
  5
4D3
330
1E
100
AcDbEntity
  8
OBJECT
100
AcDbPolyline
 90
        4
 70
     1
 43
0.0
 10
24.95554043515464
 20
21.12565645824689
 10
24.83054043515464
 20
21.12565645824687
 10
24.83054043515464
 20
20.63565645824689
 10
24.95554043515464
 20
20.63565645824689
  0
LWPOLYLINE
  5
4D9
330
1E
100
AcDbEntity
  8
OBJECT
100
AcDbPolyline
 90
        4
 70
     1
 43
0.0
 10
24.95554043515464
 20
21.71065645824688
 10
24.83054043515464
 20
21.71065645824688
 10
24.83054043515464
 20
21.22065645824689
 10
24.95554043515464
 20
21.22065645824689
  0
LWPOLYLINE
  5
4DF
330
1E
100
AcDbEntity
  8
OBJECT
100
AcDbPolyline
 90
        4
 70
     1
 43
0.0
 10
24.95554043515464
 20
22.29565645824689
 10
24.83054043515464
 20
22.29565645824688
 10
24.83054043515464
 20
21.80565645824688
 10
24.95554043515464
 20
21.8056564582469
  0
LWPOLYLINE
  5
4E5
330
1E
100
AcDbEntity
  8
OBJECT
100
AcDbPolyline
 90
        4
 70
     1
 43
0.0
 10
24.95554043515464
 20
22.88065645824688
 10
24.83054043515464
 20
22.88065645824688
 10
24.83054043515464
 20
22.39065645824689
 10
24.95554043515464
 20
22.39065645824689
  0
LWPOLYLINE
  5
4EB
330
1E
100
AcDbEntity
  8
OBJECT
100
AcDbPolyline
 90
        4
 70
     1
 43
0.0
 10
24.95554043515464
 20
23.46565645824689
 10
24.83054043515464
 20
23.46565645824688
 10
24.83054043515464
 20
22.97565645824688
 10
24.95554043515464
 20
22.9756564582469
  0
LWPOLYLINE
  5
4F1
330
1E
100
AcDbEntity
  8
OBJECT
100
AcDbPolyline
 90
        4
 70
     1
 43
0.0
 10
24.95554043515464
 20
24.05065645824689
 10
24.83054043515464
 20
24.05065645824689
 10
24.83054043515464
 20
23.56065645824689
 10
24.95554043515464
 20
23.56065645824689
  0
LWPOLYLINE
  5
4F7
330
1E
100
AcDbEntity
  8
OBJECT
100
AcDbPolyline
 90
        4
 70
     1
 43
0.0
 10
24.95554043515464
 20
24.6356564582469
 10
24.83054043515464
 20
24.63565645824688
 10
24.83054043515464
 20
24.14565645824689
 10
24.95554043515464
 20
24.14565645824689
  0
CIRCLE
  5
4FD
330
1E
100
AcDbEntity
  8
OBJECT
100
AcDbCircle
 10
55.38721360281773
 20
13.48915645824691
 30
0.0
 40
0.266
  0
CIRCLE
  5
4FE
330
1E
100
AcDbEntity
  8
HIDDEN
100
AcDbCircle
 10
55.38721360281773
 20
13.48915645824691
 30
0.0
 40
0.3115
  0
LWPOLYLINE
  5
4FF
330
1E
100
AcDbEntity
  8
OBJECT
100
AcDbPolyline
 90
       24
 70
     1
 43
0.0
 10
45.3127136028177
 20
25.42909222673576
 10
45.2542136028177
 20
25.42909222673576
 42
0.4142135623730964
 10
45.0572136028177
 20
25.23209222673576
 10
45.05721360281767
 20
14.18922068975808
 42
0.4142135623730964
 10
45.25421360281767
 20
13.99222068975808
 10
45.31271360281768
 20
13.99222068975808
 42
-0.4142135623730951
 10
45.81327783432896
 20
13.49165645824678
 10
45.81327783432896
 20
13.43515645824678
 42
0.4142135623730951
 10
46.01027783432896
 20
13.23815645824679
 10
54.67814937130633
 20
13.23815645824679
 42
0.4142135623730956
 10
54.87514937130633
 20
13.43515645824678
 10
54.87514937130633
 20
13.49165645824678
 42
-0.4142135623730951
 10
55.37571360281764
 20
13.99222068975808
 10
55.43421360281762
 20
13.99222068975808
 42
0.4142135623730956
 10
55.63121360281762
 20
14.18922068975808
 10
55.63121360281768
 20
25.23209222673576
 42
0.4142135623730957
 10
55.43421360281768
 20
25.42909222673576
 10
55.37571360281766
 20
25.42909222673576
 42
-0.4142135623730951
 10
54.87514937130639
 20
25.92965645824707
 10
54.87514937130637
 20
25.98615645824706
 42
0.4142135623730957
 10
54.67814937130639
 20
26.18315645824706
 10
46.01027783432901
 20
26.18315645824706
 42
0.4142135623730964
 10
45.81327783432901
 20
25.98615645824706
 10
45.81327783432901
 20
25.92965645824707
 42
-0.4142135623730951
  0
LWPOLYLINE
  5
519
330
1E
100
AcDbEntity
  8
OBJECT
100
AcDbPolyline
 90
       24
 70
     1
 43
0.0
 10
45.734277834329
 20
25.92965645824707
 10
45.734277834329
 20
25.98615645824706
 42
-0.4142135623730951
 10
46.01027783432901
 20
26.26215645824706
 10
54.67814937130639
 20
26.26215645824706
 42
-0.4142135623730951
 10
54.95414937130637
 20
25.98615645824706
 10
54.95414937130637
 20
25.92965645824707
 42
0.4142135623730953
 10
55.37571360281766
 20
25.50809222673577
 10
55.43421360281768
 20
25.50809222673577
 42
-0.4142135623730951
 10
55.71021360281768
 20
25.23209222673576
 10
55.71021360281763
 20
14.18922068975808
 42
-0.4142135623730951
 10
55.43421360281762
 20
13.91322068975808
 10
55.37571360281764
 20
13.91322068975808
 42
0.4142135623730953
 10
54.95414937130634
 20
13.49165645824678
 10
54.95414937130634
 20
13.43515645824678
 42
-0.4142135623730951
 10
54.67814937130633
 20
13.15915645824679
 10
46.01027783432896
 20
13.15915645824679
 42
-0.4142135623730951
 10
45.73427783432897
 20
13.43515645824678
 10
45.73427783432897
 20
13.49165645824678
 42
0.4142135623730957
 10
45.31271360281768
 20
13.91322068975808
 10
45.25421360281767
 20
13.91322068975808
 42
-0.4142135623730951
 10
44.97821360281766
 20
14.18922068975808
 10
44.97821360281771
 20
25.23209222673576
 42
-0.4142135623730951
 10
45.2542136028177
 20
25.50809222673577
 10
45.3127136028177
 20
25.50809222673577
 42
0.4142135623730956
  0
CIRCLE
  5
533
330
1E
100
AcDbEntity
  8
HIDDEN
100
AcDbCircle
 10
45.30121360281772
 20
13.48915645824691
 30
0.0
 40
0.3115
  0
CIRCLE
  5
534
330
1E
100
AcDbEntity
  8
OBJECT
100
AcDbCircle
 10
45.30121360281772
 20
13.48915645824691
 30
0.0
 40
0.266
  0
CIRCLE
  5
535
330
1E
100
AcDbEntity
  8
OBJECT
100
AcDbCircle
 10
45.30121360281772
 20
25.93215645824692
 30
0.0
 40
0.266
  0
CIRCLE
  5
536
330
1E
100
AcDbEntity
  8
HIDDEN
100
AcDbCircle
 10
45.30121360281772
 20
25.93215645824692
 30
0.0
 40
0.3115
  0
CIRCLE
  5
537
330
1E
100
AcDbEntity
  8
HIDDEN
100
AcDbCircle
 10
55.38721360281773
 20
25.93215645824692
 30
0.0
 40
0.3115
  0
CIRCLE
  5
538
330
1E
100
AcDbEntity
  8
OBJECT
100
AcDbCircle
 10
55.38721360281773
 20
25.93215645824692
 30
0.0
 40
0.266
  0
LWPOLYLINE
  5
539
330
1E
100
AcDbEntity
  8
OBJECT
100
AcDbPolyline
 90
        8
 70
     1
 43
0.0
 10
29.15430620487666
 20
26.39065645824691
 10
39.21830620487668
 20
26.39065645824692
 42
-0.4142135623730953
 10
39.6863062048767
 20
25.92265645824692
 10
39.68630620487667
 20
13.49865645824691
 42
-0.4142135623730948
 10
39.21830620487665
 20
13.03065645824691
 10
29.15430620487668
 20
13.03065645824691
 42
-0.4142135623730951
 10
28.68630620487667
 20
13.49865645824691
 10
28.68630620487667
 20
25.9226564582469
 42
-0.4142135623730951
  0
LWPOLYLINE
  5
543
330
1E
100
AcDbEntity
  8
HIDDEN
100
AcDbPolyline
 90
       24
 70
     1
 43
0.0
 10
29.53002791138797
 20
25.90299898324706
 10
29.53002791138797
 20
25.95965645824705
 42
-0.4142135623730956
 10
29.85602791138797
 20
26.28565645824704
 10
38.51658449836532
 20
26.28565645824704
 42
-0.4142135623730964
 10
38.84258449836531
 20
25.95965645824705
 10
38.84258449836531
 20
25.90299898324706
 42
0.414213562373094
 10
39.21414872987663
 20
25.53143475173575
 10
39.2603062048766
 20
25.53143475173575
 42
-0.4142135623730964
 10
39.58630620487662
 20
25.20543475173576
 10
39.58630620487662
 20
14.21587816475811
 42
-0.4142135623730964
 10
39.2603062048766
 20
13.8898781647581
 10
39.21414872987663
 20
13.8898781647581
 42
0.414213562373094
 10
38.84258449836531
 20
13.51831393324681
 10
38.84258449836531
 20
13.46165645824678
 42
-0.4142135623730964
 10
38.51658449836532
 20
13.13565645824678
 10
29.85602791138797
 20
13.13565645824678
 42
-0.4142135623730956
 10
29.53002791138797
 20
13.46165645824678
 10
29.53002791138797
 20
13.51831393324681
 42
0.4142135623730933
 10
29.15846367987668
 20
13.8898781647581
 10
29.11230620487666
 20
13.8898781647581
 42
-0.4142135623730852
 10
28.78630620487666
 20
14.21587816475811
 10
28.78630620487666
 20
25.20543475173576
 42
-0.4142135623730956
 10
29.11230620487669
 20
25.53143475173575
 10
29.15846367987668
 20
25.53143475173575
 42
0.4142135623730946
  0
LWPOLYLINE
  5
55D
330
1E
100
AcDbEntity
  8
HIDDEN
100
AcDbPolyline
 90
       24
 70
     1
 43
0.0
 10
29.15846367987668
 20
25.35243475173575
 10
29.11230620487669
 20
25.35243475173575
 42
0.414213562373094
 10
28.96530620487666
 20
25.20543475173576
 10
28.96530620487666
 20
14.21587816475811
 42
0.414213562373094
 10
29.11230620487669
 20
14.06887816475811
 10
29.15846367987668
 20
14.06887816475811
 42
-0.4142135623730953
 10
29.70902791138797
 20
13.51831393324681
 10
29.70902791138797
 20
13.46165645824678
 42
0.414213562373094
 10
29.85602791138797
 20
13.31465645824678
 10
38.51658449836532
 20
13.31465645824678
 42
0.4142135623730922
 10
38.66358449836531
 20
13.46165645824678
 10
38.66358449836531
 20
13.51831393324681
 42
-0.4142135623730958
 10
39.21414872987663
 20
14.06887816475811
 10
39.2603062048766
 20
14.06887816475811
 42
0.4142135623730922
 10
39.40730620487661
 20
14.21587816475811
 10
39.40730620487661
 20
25.20543475173576
 42
0.4142135623730922
 10
39.2603062048766
 20
25.35243475173575
 10
39.21414872987663
 20
25.35243475173575
 42
-0.4142135623730863
 10
38.66358449836531
 20
25.90299898324704
 10
38.66358449836531
 20
25.95965645824705
 42
0.4142135623730852
 10
38.51658449836532
 20
26.10665645824704
 10
29.85602791138797
 20
26.10665645824704
 42
0.414213562373094
 10
29.70902791138797
 20
25.95965645824705
 10
29.70902791138797
 20
25.90299898324706
 42
-0.4142135623730973
  0
LWPOLYLINE
  5
577
330
1E
100
AcDbEntity
  8
HIDDEN
100
AcDbPolyline
 90
       24
 70
     1
 43
0.0
 10
29.15846367987663
 20
25.28143475173576
 10
29.11230620487669
 20
25.28143475173576
 42
0.4142135623731108
 10
29.03630620487666
 20
25.20543475173576
 10
29.03630620487666
 20
14.21587816475811
 42
0.4142135623730971
 10
29.11230620487669
 20
14.13987816475811
 10
29.15846367987668
 20
14.13987816475811
 42
-0.4142135623730949
 10
29.78002791138797
 20
13.51831393324681
 10
29.78002791138797
 20
13.46165645824678
 42
0.4142135623730868
 10
29.85602791138797
 20
13.38565645824679
 10
38.51658449836532
 20
13.38565645824679
 42
0.4142135623730988
 10
38.59258449836531
 20
13.46165645824678
 10
38.59258449836531
 20
13.51831393324681
 42
-0.4142135623730953
 10
39.21414872987663
 20
14.13987816475811
 10
39.2603062048766
 20
14.13987816475811
 42
0.4142135623731065
 10
39.33630620487662
 20
14.21587816475811
 10
39.33630620487662
 20
25.20543475173576
 42
0.414213562373086
 10
39.2603062048766
 20
25.28143475173576
 10
39.21414872987663
 20
25.28143475173576
 42
-0.4142135623730856
 10
38.59258449836531
 20
25.90299898324704
 10
38.59258449836531
 20
25.95965645824705
 42
0.4142135623730713
 10
38.51658449836532
 20
26.03565645824704
 10
29.85602791138797
 20
26.03565645824704
 42
0.4142135623730936
 10
29.78002791138797
 20
25.95965645824705
 10
29.78002791138797
 20
25.90299898324706
 42
-0.4142135623731209
  0
LWPOLYLINE
  5
591
330
1E
100
AcDbEntity
  8
OBJECT
100
AcDbPolyline
 90
        4
 70
     1
 43
0.0
 10
29.09911203105252
 20
13.798515675016
 10
29.4526654216458
 20
13.44496228442274
 42
-0.3333333333333333
 10
29.18750037870083
 20
13.17979724147778
 10
28.83394698810758
 20
13.53335063207104
 42
-0.3333333333333333
  0
LWPOLYLINE
  5
597
330
1E
100
AcDbEntity
  8
OBJECT
100
AcDbPolyline
 90
        4
 70
     1
 43
0.0
 10
29.09146296322106
 20
13.82265087843207
 42
1.999750968419506
 10
29.47796826040982
 20
13.44548085193937
 10
29.57962652832833
 20
13.5471391198579
 42
0.3807055609927504
 10
29.19778886648837
 20
13.92897678169939
  0
LWPOLYLINE
  5
59D
330
1E
100
AcDbEntity
  8
OBJECT
100
AcDbPolyline
 90
        4
 70
     0
 43
0.0
 10
29.81828679464621
 20
13.3426564582469
 42
-0.4164894335387139
 10
29.64229209930545
 20
13.52002291787423
 42
0.4164894335387157
 10
29.17430620487661
 20
13.9916564582469
 42
-0.4142135623730714
 10
28.99830620487662
 20
14.1676564582469
  0
LWPOLYLINE
  5
5A3
330
1E
100
AcDbEntity
  8
OBJECT
100
AcDbPolyline
 90
        4
 70
     1
 43
0.0
 10
29.09146296322106
 20
25.59866203806176
 42
-1.999750968419506
 10
29.47796826040982
 20
25.97583206455445
 10
29.57962652832833
 20
25.87417379663593
 42
-0.3807055609927504
 10
29.19778886648837
 20
25.49233613479444
  0
LWPOLYLINE
  5
5A9
330
1E
100
AcDbEntity
  8
OBJECT
100
AcDbPolyline
 90
        4
 70
     1
 43
0.0
 10
29.09911203105252
 20
25.62279724147782
 10
29.4526654216458
 20
25.97635063207107
 42
0.3333333333333333
 10
29.18750037870083
 20
26.24151567501604
 10
28.83394698810758
 20
25.88796228442276
 42
0.3333333333333333
  0
LWPOLYLINE
  5
5AF
330
1E
100
AcDbEntity
  8
OBJECT
100
AcDbPolyline
 90
        4
 70
     0
 43
0.0
 10
29.81828679464621
 20
26.07865645824691
 42
0.4164894335387139
 10
29.64229209930545
 20
25.90128999861958
 42
-0.4164894335387157
 10
29.17430620487661
 20
25.42965645824692
 42
0.4142135623730714
 10
28.99830620487662
 20
25.25365645824692
  0
LWPOLYLINE
  5
5B5
330
1E
100
AcDbEntity
  8
OBJECT
100
AcDbPolyline
 90
        4
 70
     1
 43
0.0
 10
39.28114944653228
 20
13.82265087843207
 42
-1.999750968419506
 10
38.89464414934352
 20
13.44548085193937
 10
38.79298588142498
 20
13.5471391198579
 42
-0.3807055609927504
 10
39.17482354326494
 20
13.92897678169939
  0
LWPOLYLINE
  5
5BB
330
1E
100
AcDbEntity
  8
OBJECT
100
AcDbPolyline
 90
        4
 70
     0
 43
0.0
 10
38.5543256151071
 20
13.3426564582469
 42
0.4164894335387139
 10
38.73032031044786
 20
13.52002291787423
 42
-0.4164894335387157
 10
39.1983062048767
 20
13.9916564582469
 42
0.4142135623730714
 10
39.37430620487669
 20
14.1676564582469
  0
LWPOLYLINE
  5
5C1
330
1E
100
AcDbEntity
  8
OBJECT
100
AcDbPolyline
 90
        4
 70
     1
 43
0.0
 10
39.27350037870079
 20
13.798515675016
 10
38.91994698810754
 20
13.44496228442274
 42
0.3333333333333333
 10
39.18511203105248
 20
13.17979724147778
 10
39.53866542164576
 20
13.53335063207104
 42
0.3333333333333333
  0
LWPOLYLINE
  5
5C7
330
1E
100
AcDbEntity
  8
OBJECT
100
AcDbPolyline
 90
        4
 70
     1
 43
0.0
 10
39.27350037870079
 20
25.62279724147782
 10
38.91994698810754
 20
25.97635063207107
 42
-0.3333333333333333
 10
39.18511203105248
 20
26.24151567501604
 10
39.53866542164576
 20
25.88796228442276
 42
-0.3333333333333333
  0
LWPOLYLINE
  5
5CD
330
1E
100
AcDbEntity
  8
OBJECT
100
AcDbPolyline
 90
        4
 70
     0
 43
0.0
 10
38.5543256151071
 20
26.07865645824691
 42
-0.4164894335387139
 10
38.73032031044786
 20
25.90128999861958
 42
0.4164894335387157
 10
39.1983062048767
 20
25.42965645824692
 42
-0.4142135623730714
 10
39.37430620487669
 20
25.25365645824692
  0
LWPOLYLINE
  5
5D3
330
1E
100
AcDbEntity
  8
OBJECT
100
AcDbPolyline
 90
        4
 70
     1
 43
0.0
 10
39.28114944653228
 20
25.59866203806176
 42
1.999750968419506
 10
38.89464414934352
 20
25.97583206455445
 10
38.79298588142498
 20
25.87417379663593
 42
0.3807055609927504
 10
39.17482354326494
 20
25.49233613479444
  0
LWPOLYLINE
  5
5D9
330
1E
100
AcDbEntity
  8
OBJECT
100
AcDbPolyline
 90
        6
 70
     0
 43
0.0
 10
38.55439728607478
 20
29.88261241745348
 10
39.66630620487666
 20
29.88261241745348
 10
39.68630620487661
 20
30.84361241745348
 10
28.68630620487661
 20
30.8436124174535
 10
28.70630620487668
 20
29.88261241745348
 10
29.81821512367847
 20
29.88261241745348
  0
LWPOLYLINE
  5
5E1
330
1E
100
AcDbEntity
  8
OBJECT
100
AcDbPolyline
 90
        4
 70
     0
 43
0.0
 10
28.99830620487657
 20
29.88261241745348
 42
0.4142135623730951
 10
29.22830620487658
 20
29.65261241745348
 10
39.14430620487664
 20
29.65261241745348
 42
0.4142135623730951
 10
39.37430620487666
 20
29.88261241745348
  0
LINE
  5
5E7
330
1E
100
AcDbEntity
  8
OBJECT
100
AcDbLine
 10
29.21311333238631
 20
30.53361241745348
 30
0.0
 11
39.159499077367
 21
30.53361241745348
 31
0.0
  0
ARC
  5
5E8
330
1E
100
AcDbEntity
  8
OBJECT
100
AcDbCircle
 10
29.87229209930541
 20
29.88261241745348
 30
0.0
 40
0.2300000000000111
100
AcDbArc
 50
180.0
 51
270.0
  0
LINE
  5
5E9
330
1E
100
AcDbEntity
  8
OBJECT
100
AcDbLine
 10
29.56479167319105
 20
29.88261241745348
 30
0.0
 11
29.56479167319105
 21
30.53361241745348
 31
0.0
  0
ARC
  5
5EA
330
1E
100
AcDbEntity
  8
OBJECT
100
AcDbCircle
 10
38.50032031044781
 20
29.88261241745348
 30
0.0
 40
0.2300000000000111
100
AcDbArc
 50
270.0
 51
0.0
  0
LINE
  5
5EB
330
1E
100
AcDbEntity
  8
OBJECT
100
AcDbLine
 10
38.80782073656217
 20
29.88261241745348
 30
0.0
 11
38.80782073656217
 21
30.53361241745348
 31
0.0
  0
LWPOLYLINE
  5
5EC
330
1E
100
AcDbEntity
  8
OBJECT
100
AcDbPolyline
 90
        8
 70
     1
 43
0.0
 10
2.616699385582592
 20
26.00765645824711
 42
1.898861727091124
 10
2.111067892329657
 20
25.50973499563456
 10
2.111067892329657
 20
13.91182963972204
 42
1.868534737924172
 10
2.625440963481821
 20
13.41365645824711
 10
11.8554363990767
 20
13.41365645824711
 42
1.898861727091157
 10
12.36106789232964
 20
13.91157792085966
 10
12.3610678923296
 20
25.50973499563457
 42
1.898861727091274
 10
11.85543639907669
 20
26.00765645824711
  0
ARC
  5
5F6
330
1E
100
AcDbEntity
  8
OBJECT
100
AcDbCircle
 10
26.00404043515465
 20
25.84865645824706
 30
0.0
 40
0.2300000000000075
100
AcDbArc
 50
359.999999999999
 51
90.0
  0
ARC
  5
5F7
330
1E
100
AcDbEntity
  8
OBJECT
100
AcDbCircle
 10
26.00404043515465
 20
25.19965645824706
 30
0.0
 40
0.2300000000000111
100
AcDbArc
 50
0.0
 51
90.0
  0
LINE
  5
5F8
330
1E
100
AcDbEntity
  8
OBJECT
100
AcDbLine
 10
26.00404043515465
 20
26.36565645824707
 30
0.0
 11
26.00404043515465
 21
25.25373343387402
 31
0.0
  0
LINE
  5
5F9
330
1E
100
AcDbEntity
  8
OBJECT
100
AcDbLine
 10
25.04304043515463
 20
26.39065645824692
 30
0.0
 11
26.00404043515465
 21
26.36565645824707
 31
0.0
  0
LINE
  5
5FA
330
1E
100
AcDbEntity
  8
OBJECT
100
AcDbLine
 10
26.00404043515465
 20
25.51001400598687
 30
0.0
 11
25.35304043515464
 21
25.51001400598687
 31
0.0
  0
LINE
  5
5FB
330
1E
100
AcDbEntity
  8
OBJECT
100
AcDbLine
 10
26.00404043515465
 20
13.05565645824718
 30
0.0
 11
26.00404043515465
 21
13.34265645824718
 31
0.0
  0
LINE
  5
5FC
330
1E
100
AcDbEntity
  8
OBJECT
100
AcDbLine
 10
25.04304043515463
 20
13.03065645824691
 30
0.0
 11
26.00404043515465
 21
13.05565645824718
 31
0.0
  0
LWPOLYLINE
  5
5FD
330
1E
100
AcDbEntity
  8
OBJECT
100
AcDbPolyline
 90
       24
 70
     1
 43
0.0
 10
28.97488926676594
 20
13.87554743246556
 42
0.2983456215584756
 10
28.99830620487664
 20
13.91129891050709
 10
28.99830620487664
 20
25.51001400598673
 42
0.2983456215584756
 10
28.97488926676595
 20
25.54576548402826
 42
-0.2514216356777864
 10
28.70630620487672
 20
25.8976564582469
 42
-0.414213562373144
 10
29.17430620487675
 20
26.3656564582469
 42
-0.2510243690469924
 10
29.52909583548374
 20
26.10194636052701
 42
0.2973777299769027
 10
29.56479167319112
 20
26.07865645824691
 10
38.80782073656225
 20
26.07865645824691
 42
0.2973777299769076
 10
38.84351657426957
 20
26.10194636052692
 42
-0.2510243690470099
 10
39.19830620487658
 20
26.3656564582469
 42
-0.414213562373144
 10
39.66630620487663
 20
25.8976564582469
 42
-0.2514216356777864
 10
39.39772314298743
 20
25.54576548402826
 42
0.2983456215584756
 10
39.3743062048767
 20
25.51001400598673
 10
39.3743062048767
 20
13.91129891050709
 42
0.2983456215584756
 10
39.39772314298743
 20
13.87554743246556
 42
-0.2514216356777864
 10
39.66630620487665
 20
13.52365645824692
 42
-0.414213562373144
 10
39.19830620487658
 20
13.05565645824692
 42
-0.2510243690469923
 10
38.84351657426958
 20
13.31936655596688
 42
0.2973777299769027
 10
38.80782073656225
 20
13.34265645824691
 10
29.56479167319112
 20
13.34265645824691
 42
0.2973777299768977
 10
29.52909583548374
 20
13.31936655596682
 42
-0.2510243690469747
 10
29.17430620487678
 20
13.05565645824692
 42
-0.414213562373144
 10
28.70630620487672
 20
13.52365645824692
 42
-0.2514216356777864
  0
LWPOLYLINE
  5
617
330
1E
100
AcDbEntity
  8
OBJECT
100
AcDbPolyline
 90
        8
 70
     1
 43
0.0
 10
29.15243218612664
 20
26.42215645824691
 10
39.22018022362667
 20
26.42215645824696
 42
-0.4142135623730951
 10
39.71230620487662
 20
25.93003047699696
 10
39.71230620487665
 20
13.49128243949698
 42
-0.4142135623730951
 10
39.22018022362667
 20
12.99915645824691
 10
29.15243218612664
 20
12.99915645824698
 42
-0.4142135623730951
 10
28.66030620487669
 20
13.49128243949698
 10
28.66030620487669
 20
25.93003047699696
 42
-0.4142135623730951
  0
LWPOLYLINE
  5
621
330
1E
100
AcDbEntity
  8
OBJECT
100
AcDbPolyline
 90
        4
 70
     0
 43
0.0
 10
21.12304043515462
 20
21.19664071139912
 10
21.04304043515463
 20
21.23601078989917
 10
21.04304043515463
 20
21.54530212659516
 10
21.12304043515462
 20
21.58467220509508
  0
LWPOLYLINE
  5
627
330
1E
100
AcDbEntity
  8
OBJECT
100
AcDbPolyline
 90
        4
 70
     0
 43
0.0
 10
21.12304043515464
 20
24.14864071139906
 10
21.04304043515464
 20
24.18801078989911
 10
21.04304043515464
 20
24.4973021265951
 10
21.12304043515464
 20
24.53667220509514
  0
LWPOLYLINE
  5
62D
330
1E
100
AcDbEntity
  8
OBJECT
100
AcDbPolyline
 90
        4
 70
     0
 43
0.0
 10
21.12304043515462
 20
22.18064071139912
 10
21.04304043515463
 20
22.22001078989916
 10
21.04304043515463
 20
22.52930212659515
 10
21.12304043515462
 20
22.56867220509508
  0
LWPOLYLINE
  5
633
330
1E
100
AcDbEntity
  8
OBJECT
100
AcDbPolyline
 90
        4
 70
     0
 43
0.0
 10
21.12304043515464
 20
23.16464071139918
 10
21.04304043515464
 20
23.20401078989922
 10
21.04304043515464
 20
23.51330212659522
 10
21.12304043515464
 20
23.55267220509515
  0
LWPOLYLINE
  5
639
330
1E
100
AcDbEntity
  8
BEND
100
AcDbPolyline
 90
        6
 70
     0
 43
0.0
 10
26.73404043515464
 20
19.71065645824713
 10
23.6997091244459
 20
19.710656458247
 10
23.47235398143703
 20
20.24244790351332
 10
23.33873624833887
 20
19.09754612467651
 10
23.10601988637037
 20
19.71065645824711
 10
20.62304043515462
 20
19.71065645824711
  0
LWPOLYLINE
  5
641
330
1E
100
AcDbEntity
  8
OBJECT
100
AcDbPolyline
 90
        4
 70
     0
 43
0.0
 10
29.48035764872554
 20
34.7636124174535
 10
29.48035764872554
 20
34.84361241745348
 10
28.80625476102761
 20
34.84361241745348
 10
28.80625476102761
 20
34.7636124174535
  0
LWPOLYLINE
  5
647
330
1E
100
AcDbEntity
  8
OBJECT
100
AcDbPolyline
 90
        4
 70
     0
 43
0.0
 10
30.36876683287663
 20
34.7636124174535
 10
30.32939675437658
 20
34.84361241745348
 10
29.77821565537657
 20
34.84361241745348
 10
29.73884557687652
 20
34.7636124174535
  0
LWPOLYLINE
  5
64D
330
1E
100
AcDbEntity
  8
OBJECT
100
AcDbPolyline
 90
        4
 70
     0
 43
0.0
 10
30.93632195172462
 20
34.7636124174535
 10
30.89695187322458
 20
34.84361241745348
 10
30.58766053652858
 20
34.84361241745348
 10
30.54829045802854
 20
34.7636124174535
  0
LWPOLYLINE
  5
653
330
1E
100
AcDbEntity
  8
OBJECT
100
AcDbPolyline
 90
        4
 70
     0
 43
0.0
 10
31.92032195172461
 20
34.7636124174535
 10
31.88095187322457
 20
34.84361241745348
 10
31.57166053652858
 20
34.84361241745348
 10
31.53229045802854
 20
34.7636124174535
  0
LWPOLYLINE
  5
659
330
1E
100
AcDbEntity
  8
OBJECT
100
AcDbPolyline
 90
        4
 70
     0
 43
0.0
 10
32.90432195172462
 20
34.7636124174535
 10
32.86495187322458
 20
34.84361241745348
 10
32.55566053652859
 20
34.84361241745348
 10
32.51629045802855
 20
34.7636124174535
  0
LWPOLYLINE
  5
65F
330
1E
100
AcDbEntity
  8
OBJECT
100
AcDbPolyline
 90
        4
 70
     0
 43
0.0
 10
33.8713062048766
 20
34.7636124174535
 10
33.91067628337664
 20
34.84361241745348
 10
34.46193612637667
 20
34.84361241745348
 10
34.5013062048766
 20
34.76361241745348
  0
LWPOLYLINE
  5
665
330
1E
100
AcDbEntity
  8
OBJECT
100
AcDbPolyline
 90
        4
 70
     0
 43
0.0
 10
35.85632195172461
 20
34.7636124174535
 10
35.81695187322456
 20
34.84361241745348
 10
35.50766053652857
 20
34.84361241745348
 10
35.46829045802853
 20
34.7636124174535
  0
LWPOLYLINE
  5
66B
330
1E
100
AcDbEntity
  8
OBJECT
100
AcDbPolyline
 90
        4
 70
     0
 43
0.0
 10
36.84032195172461
 20
34.7636124174535
 10
36.80095187322457
 20
34.84361241745348
 10
36.49166053652858
 20
34.84361241745348
 10
36.45229045802854
 20
34.7636124174535
  0
LWPOLYLINE
  5
671
330
1E
100
AcDbEntity
  8
OBJECT
100
AcDbPolyline
 90
        4
 70
     0
 43
0.0
 10
37.82432195172461
 20
34.7636124174535
 10
37.78495187322457
 20
34.84361241745348
 10
37.47566053652858
 20
34.84361241745348
 10
37.43629045802853
 20
34.7636124174535
  0
LWPOLYLINE
  5
677
330
1E
100
AcDbEntity
  8
OBJECT
100
AcDbPolyline
 90
        4
 70
     0
 43
0.0
 10
38.63376683287663
 20
34.7636124174535
 10
38.59439675437659
 20
34.84361241745348
 10
38.04321565537657
 20
34.84361241745348
 10
38.00384557687653
 20
34.7636124174535
  0
LWPOLYLINE
  5
67D
330
1E
100
AcDbEntity
  8
OBJECT
100
AcDbPolyline
 90
        4
 70
     0
 43
0.0
 10
38.89225476102761
 20
34.7636124174535
 10
38.89225476102761
 20
34.84361241745348
 10
39.56635764872554
 20
34.84361241745348
 10
39.56635764872554
 20
34.7636124174535
  0
LINE
  5
683
330
1E
100
AcDbEntity
  8
OBJECT
100
AcDbLine
 10
25.35304043515464
 20
25.85884933073744
 30
0.0
 11
25.35304043515464
 21
19.71065645824707
 31
0.0
  0
LWPOLYLINE
  5
684
330
1E
100
AcDbEntity
  8
OBJECT
100
AcDbPolyline
 90
        4
 70
     0
 43
0.0
 10
21.12304043515462
 20
25.34411708624716
 10
21.04304043515463
 20
25.30474700774712
 10
21.04304043515463
 20
24.7535659087471
 10
21.12304043515462
 20
24.71419583024706
  0
LWPOLYLINE
  5
68A
330
1E
100
AcDbEntity
  8
OBJECT
100
AcDbPolyline
 90
        4
 70
     0
 43
0.0
 10
21.12304043515464
 20
25.59510501439814
 10
21.04304043515464
 20
25.59510501439814
 10
21.04304043515464
 20
26.26920790209607
 10
21.12304043515464
 20
26.26920790209607
  0
LINE
  5
690
330
1E
100
AcDbEntity
  8
OBJECT
100
AcDbLine
 10
23.86904043515464
 20
13.75515645824713
 30
0.0
 11
23.8798801024529
 21
13.6240950263681
 31
0.0
  0
LINE
  5
691
330
1E
100
AcDbEntity
  8
OBJECT
100
AcDbLine
 10
25.14304043515464
 20
13.99222068975808
 30
0.0
 11
21.25104043515463
 21
13.99222068975809
 31
0.0
  0
LWPOLYLINE
  5
692
330
1E
100
AcDbEntity
  8
OBJECT
100
AcDbPolyline
 90
      168
 70
     0
 43
0.0
 10
25.04304043515463
 20
13.78617918551986
 10
25.01304043515463
 20
13.75515645824713
 10
24.96904043515463
 20
13.80065645824714
 10
24.92504043515464
 20
13.75515645824713
 10
24.88104043515464
 20
13.80065645824714
 10
24.83704043515464
 20
13.75515645824713
 10
24.79304043515465
 20
13.80065645824714
 10
24.74904043515465
 20
13.75515645824713
 10
24.70504043515465
 20
13.80065645824714
 10
24.66104043515464
 20
13.75515645824713
 10
24.61704043515465
 20
13.80065645824714
 10
24.57304043515465
 20
13.75515645824713
 10
24.52904043515465
 20
13.80065645824714
 10
24.48504043515466
 20
13.75515645824713
 10
24.44104043515466
 20
13.80065645824714
 10
24.39704043515466
 20
13.75515645824713
 10
24.35304043515467
 20
13.80065645824714
 10
24.30904043515465
 20
13.75515645824713
 10
24.26504043515466
 20
13.80065645824714
 10
24.22104043515466
 20
13.75515645824713
 10
24.17704043515466
 20
13.80065645824714
 10
24.13304043515465
 20
13.75515645824713
 10
24.08904043515466
 20
13.80065645824714
 10
24.04504043515466
 20
13.75515645824713
 10
24.00104043515466
 20
13.80065645824714
 10
23.95704043515464
 20
13.75515645824713
 10
23.91304043515464
 20
13.80065645824714
 10
23.86904043515465
 20
13.75515645824713
 10
23.82504043515465
 20
13.80065645824714
 10
23.78104043515464
 20
13.75515645824713
 10
23.73704043515464
 20
13.80065645824714
 10
23.69304043515465
 20
13.75515645824713
 10
23.64904043515465
 20
13.80065645824714
 10
23.60504043515464
 20
13.75515645824713
 10
23.56104043515464
 20
13.80065645824714
 10
23.51704043515464
 20
13.75515645824713
 10
23.47304043515465
 20
13.80065645824714
 10
23.42904043515463
 20
13.75515645824713
 10
23.38504043515464
 20
13.80065645824714
 10
23.34104043515464
 20
13.75515645824713
 10
23.29704043515465
 20
13.80065645824714
 10
23.25304043515463
 20
13.75515645824713
 10
23.20904043515464
 20
13.80065645824714
 10
23.16504043515464
 20
13.75515645824713
 10
23.12104043515464
 20
13.80065645824714
 10
23.07704043515465
 20
13.75515645824713
 10
23.03304043515465
 20
13.80065645824714
 10
22.98904043515465
 20
13.75515645824713
 10
22.94504043515466
 20
13.80065645824714
 10
22.90104043515464
 20
13.75515645824713
 10
22.85704043515465
 20
13.80065645824714
 10
22.81304043515465
 20
13.75515645824713
 10
22.76904043515465
 20
13.80065645824714
 10
22.72504043515464
 20
13.75515645824713
 10
22.68104043515465
 20
13.80065645824714
 10
22.63704043515465
 20
13.75515645824713
 10
22.59304043515465
 20
13.80065645824714
 10
22.54904043515464
 20
13.75515645824713
 10
22.50504043515464
 20
13.80065645824714
 10
22.46104043515465
 20
13.75515645824713
 10
22.41704043515464
 20
13.80065645824714
 10
22.37304043515463
 20
13.75515645824713
 10
22.32904043515464
 20
13.80065645824714
 10
22.28504043515464
 20
13.75515645824713
 10
22.24104043515464
 20
13.80065645824714
 10
22.19704043515463
 20
13.75515645824713
 10
22.15304043515463
 20
13.80065645824714
 10
22.10904043515463
 20
13.75515645824713
 10
22.06504043515464
 20
13.80065645824714
 10
22.02104043515463
 20
13.75515645824713
 10
21.97704043515463
 20
13.80065645824714
 10
21.93304043515464
 20
13.75515645824713
 10
21.88904043515464
 20
13.80065645824714
 10
21.84504043515464
 20
13.75515645824713
 10
21.80104043515464
 20
13.80065645824714
 10
21.75704043515465
 20
13.75515645824713
 10
21.71304043515465
 20
13.80065645824714
 10
21.66904043515464
 20
13.75515645824713
 10
21.62504043515464
 20
13.80065645824714
 10
21.58104043515464
 20
13.75515645824713
 10
21.53704043515465
 20
13.80065645824714
 10
21.49304043515464
 20
13.75515645824713
 10
21.44904043515464
 20
13.80065645824714
 10
21.41804043515463
 20
13.76859964006531
 10
21.41804043515463
 20
13.19109964006531
 10
21.44904043515464
 20
13.22315645824714
 10
21.49304043515464
 20
13.17765645824713
 10
21.53704043515465
 20
13.22315645824714
 10
21.58104043515464
 20
13.17765645824713
 10
21.62504043515464
 20
13.22315645824714
 10
21.66904043515464
 20
13.17765645824713
 10
21.71304043515465
 20
13.22315645824714
 10
21.75704043515465
 20
13.17765645824713
 10
21.80104043515464
 20
13.22315645824714
 10
21.84504043515464
 20
13.17765645824713
 10
21.88904043515465
 20
13.22315645824714
 10
21.93304043515465
 20
13.17765645824713
 10
21.97704043515464
 20
13.22315645824714
 10
22.02104043515464
 20
13.17765645824713
 10
22.06504043515465
 20
13.22315645824714
 10
22.10904043515465
 20
13.17765645824713
 10
22.15304043515465
 20
13.22315645824714
 10
22.19704043515464
 20
13.17765645824713
 10
22.24104043515465
 20
13.22315645824714
 10
22.28504043515465
 20
13.17765645824713
 10
22.32904043515465
 20
13.22315645824714
 10
22.37304043515464
 20
13.17765645824713
 10
22.41704043515466
 20
13.22315645824714
 10
22.46104043515466
 20
13.17765645824713
 10
22.50504043515466
 20
13.22315645824714
 10
22.54904043515466
 20
13.17765645824713
 10
22.59304043515465
 20
13.22315645824714
 10
22.63704043515465
 20
13.17765645824713
 10
22.68104043515465
 20
13.22315645824714
 10
22.72504043515464
 20
13.17765645824713
 10
22.76904043515465
 20
13.22315645824714
 10
22.81304043515465
 20
13.17765645824713
 10
22.85704043515465
 20
13.22315645824714
 10
22.90104043515464
 20
13.17765645824713
 10
22.94504043515466
 20
13.22315645824714
 10
22.98904043515465
 20
13.17765645824713
 10
23.03304043515465
 20
13.22315645824714
 10
23.07704043515465
 20
13.17765645824713
 10
23.12104043515466
 20
13.22315645824714
 10
23.16504043515466
 20
13.17765645824713
 10
23.20904043515465
 20
13.22315645824714
 10
23.25304043515465
 20
13.17765645824713
 10
23.29704043515466
 20
13.22315645824714
 10
23.34104043515466
 20
13.17765645824713
 10
23.38504043515465
 20
13.22315645824714
 10
23.42904043515465
 20
13.17765645824713
 10
23.47304043515466
 20
13.22315645824714
 10
23.51704043515466
 20
13.17765645824713
 10
23.56104043515466
 20
13.22315645824714
 10
23.60504043515465
 20
13.17765645824713
 10
23.64904043515466
 20
13.22315645824714
 10
23.69304043515466
 20
13.17765645824713
 10
23.73704043515466
 20
13.22315645824714
 10
23.78104043515465
 20
13.17765645824713
 10
23.82504043515465
 20
13.22315645824714
 10
23.86904043515465
 20
13.17765645824713
 10
23.91304043515464
 20
13.22315645824714
 10
23.95704043515464
 20
13.17765645824713
 10
24.00104043515466
 20
13.22315645824714
 10
24.04504043515466
 20
13.17765645824713
 10
24.08904043515466
 20
13.22315645824714
 10
24.13304043515465
 20
13.17765645824713
 10
24.17704043515466
 20
13.22315645824714
 10
24.22104043515466
 20
13.17765645824713
 10
24.26504043515466
 20
13.22315645824714
 10
24.30904043515465
 20
13.17765645824713
 10
24.35304043515467
 20
13.22315645824714
 10
24.39704043515466
 20
13.17765645824713
 10
24.44104043515466
 20
13.22315645824714
 10
24.48504043515466
 20
13.17765645824713
 10
24.52904043515466
 20
13.22315645824714
 10
24.57304043515466
 20
13.17765645824713
 10
24.61704043515466
 20
13.22315645824714
 10
24.66104043515466
 20
13.17765645824713
 10
24.70504043515467
 20
13.22315645824714
 10
24.74904043515467
 20
13.17765645824713
 10
24.79304043515466
 20
13.22315645824714
 10
24.83704043515466
 20
13.17765645824713
 10
24.88104043515466
 20
13.22315645824714
 10
24.92504043515465
 20
13.17765645824713
 10
24.96904043515465
 20
13.22315645824714
 10
25.01304043515465
 20
13.17765645824713
 10
25.04304043515463
 20
13.20867918551984
  0
LINE
  5
73C
330
1E
100
AcDbEntity
  8
OBJECT
100
AcDbLine
 10
25.14304043515464
 20
13.91322068975809
 30
0.0
 11
25.04304043515463
 21
13.91322068975809
 31
0.0
  0
LINE
  5
73D
330
1E
100
AcDbEntity
  8
OBJECT
100
AcDbLine
 10
25.01304043515465
 20
13.17765645824713
 30
0.0
 11
25.00522980497201
 21
13.28824788106043
 31
0.0
  0
LINE
  5
73E
330
1E
100
AcDbEntity
  8
OBJECT
100
AcDbLine
 10
24.92504043515464
 20
13.75515645824713
 30
0.0
 11
24.93588010245291
 21
13.6240950263681
 31
0.0
  0
LINE
  5
73F
330
1E
100
AcDbEntity
  8
OBJECT
100
AcDbLine
 10
24.92504043515465
 20
13.17765645824713
 30
0.0
 11
24.91722980497202
 21
13.28824788106043
 31
0.0
  0
LINE
  5
740
330
1E
100
AcDbEntity
  8
OBJECT
100
AcDbLine
 10
25.01304043515463
 20
13.75515645824713
 30
0.0
 11
25.0238801024529
 21
13.6240950263681
 31
0.0
  0
LINE
  5
741
330
1E
100
AcDbEntity
  8
OBJECT
100
AcDbLine
 10
24.88885106533729
 20
13.69006503543383
 30
0.0
 11
24.88104043515464
 21
13.80065645824714
 31
0.0
  0
LINE
  5
742
330
1E
100
AcDbEntity
  8
OBJECT
100
AcDbLine
 10
24.97685106533728
 20
13.69006503543383
 30
0.0
 11
24.96904043515463
 21
13.80065645824714
 31
0.0
  0
LINE
  5
743
330
1E
100
AcDbEntity
  8
OBJECT
100
AcDbLine
 10
24.95820076785638
 20
13.35421789012616
 30
0.0
 11
24.96904043515465
 21
13.22315645824714
 31
0.0
  0
LINE
  5
744
330
1E
100
AcDbEntity
  8
OBJECT
100
AcDbLine
 10
24.87020076785637
 20
13.35421789012616
 30
0.0
 11
24.88104043515464
 21
13.22315645824714
 31
0.0
  0
LINE
  5
745
330
1E
100
AcDbEntity
  8
OBJECT
100
AcDbLine
 10
23.95704043515463
 20
13.75515645824713
 30
0.0
 11
23.9678801024529
 21
13.6240950263681
 31
0.0
  0
LINE
  5
746
330
1E
100
AcDbEntity
  8
OBJECT
100
AcDbLine
 10
23.95704043515464
 20
13.17765645824713
 30
0.0
 11
23.94922980497201
 21
13.28824788106043
 31
0.0
  0
LINE
  5
747
330
1E
100
AcDbEntity
  8
OBJECT
100
AcDbLine
 10
23.92085106533728
 20
13.69006503543383
 30
0.0
 11
23.91304043515463
 21
13.80065645824714
 31
0.0
  0
LINE
  5
748
330
1E
100
AcDbEntity
  8
OBJECT
100
AcDbLine
 10
24.00885106533729
 20
13.69006503543383
 30
0.0
 11
24.00104043515465
 21
13.80065645824714
 31
0.0
  0
LINE
  5
749
330
1E
100
AcDbEntity
  8
OBJECT
100
AcDbLine
 10
23.99020076785638
 20
13.35421789012616
 30
0.0
 11
24.00104043515465
 21
13.22315645824714
 31
0.0
  0
LINE
  5
74A
330
1E
100
AcDbEntity
  8
OBJECT
100
AcDbLine
 10
23.90220076785638
 20
13.35421789012616
 30
0.0
 11
23.91304043515464
 21
13.22315645824714
 31
0.0
  0
LINE
  5
74B
330
1E
100
AcDbEntity
  8
OBJECT
100
AcDbLine
 10
24.57304043515465
 20
13.17765645824713
 30
0.0
 11
24.56522980497202
 21
13.28824788106043
 31
0.0
  0
LINE
  5
74C
330
1E
100
AcDbEntity
  8
OBJECT
100
AcDbLine
 10
24.57304043515465
 20
13.75515645824713
 30
0.0
 11
24.58388010245292
 21
13.6240950263681
 31
0.0
  0
LINE
  5
74D
330
1E
100
AcDbEntity
  8
OBJECT
100
AcDbLine
 10
24.62485106533729
 20
13.69006503543383
 30
0.0
 11
24.61704043515465
 21
13.80065645824714
 31
0.0
  0
LINE
  5
74E
330
1E
100
AcDbEntity
  8
OBJECT
100
AcDbLine
 10
24.60620076785639
 20
13.35421789012616
 30
0.0
 11
24.61704043515465
 21
13.22315645824714
 31
0.0
  0
LINE
  5
74F
330
1E
100
AcDbEntity
  8
OBJECT
100
AcDbLine
 10
24.48504043515464
 20
13.75515645824713
 30
0.0
 11
24.49588010245291
 21
13.6240950263681
 31
0.0
  0
LINE
  5
750
330
1E
100
AcDbEntity
  8
OBJECT
100
AcDbLine
 10
24.48504043515464
 20
13.17765645824713
 30
0.0
 11
24.47722980497201
 21
13.28824788106043
 31
0.0
  0
LINE
  5
751
330
1E
100
AcDbEntity
  8
OBJECT
100
AcDbLine
 10
24.5368510653373
 20
13.69006503543383
 30
0.0
 11
24.52904043515465
 21
13.80065645824714
 31
0.0
  0
LINE
  5
752
330
1E
100
AcDbEntity
  8
OBJECT
100
AcDbLine
 10
24.51820076785638
 20
13.35421789012616
 30
0.0
 11
24.52904043515464
 21
13.22315645824714
 31
0.0
  0
LINE
  5
753
330
1E
100
AcDbEntity
  8
OBJECT
100
AcDbLine
 10
24.39704043515465
 20
13.17765645824713
 30
0.0
 11
24.38922980497201
 21
13.28824788106043
 31
0.0
  0
LINE
  5
754
330
1E
100
AcDbEntity
  8
OBJECT
100
AcDbLine
 10
24.39704043515465
 20
13.75515645824713
 30
0.0
 11
24.40788010245292
 21
13.6240950263681
 31
0.0
  0
LINE
  5
755
330
1E
100
AcDbEntity
  8
OBJECT
100
AcDbLine
 10
24.3608510653373
 20
13.69006503543383
 30
0.0
 11
24.35304043515465
 21
13.80065645824714
 31
0.0
  0
LINE
  5
756
330
1E
100
AcDbEntity
  8
OBJECT
100
AcDbLine
 10
24.34220076785637
 20
13.35421789012616
 30
0.0
 11
24.35304043515464
 21
13.22315645824714
 31
0.0
  0
LINE
  5
757
330
1E
100
AcDbEntity
  8
OBJECT
100
AcDbLine
 10
24.44885106533729
 20
13.69006503543383
 30
0.0
 11
24.44104043515464
 21
13.80065645824714
 31
0.0
  0
LINE
  5
758
330
1E
100
AcDbEntity
  8
OBJECT
100
AcDbLine
 10
24.43020076785639
 20
13.35421789012616
 30
0.0
 11
24.44104043515464
 21
13.22315645824714
 31
0.0
  0
LINE
  5
759
330
1E
100
AcDbEntity
  8
OBJECT
100
AcDbLine
 10
24.30904043515464
 20
13.17765645824713
 30
0.0
 11
24.30122980497201
 21
13.28824788106043
 31
0.0
  0
LINE
  5
75A
330
1E
100
AcDbEntity
  8
OBJECT
100
AcDbLine
 10
24.30904043515464
 20
13.75515645824713
 30
0.0
 11
24.31988010245291
 21
13.6240950263681
 31
0.0
  0
LINE
  5
75B
330
1E
100
AcDbEntity
  8
OBJECT
100
AcDbLine
 10
24.22104043515465
 20
13.17765645824713
 30
0.0
 11
24.21322980497201
 21
13.28824788106043
 31
0.0
  0
LINE
  5
75C
330
1E
100
AcDbEntity
  8
OBJECT
100
AcDbLine
 10
24.22104043515465
 20
13.75515645824713
 30
0.0
 11
24.23188010245292
 21
13.6240950263681
 31
0.0
  0
LINE
  5
75D
330
1E
100
AcDbEntity
  8
OBJECT
100
AcDbLine
 10
24.04504043515464
 20
13.17765645824713
 30
0.0
 11
24.03722980497201
 21
13.28824788106043
 31
0.0
  0
LINE
  5
75E
330
1E
100
AcDbEntity
  8
OBJECT
100
AcDbLine
 10
24.13304043515464
 20
13.75515645824713
 30
0.0
 11
24.14388010245291
 21
13.6240950263681
 31
0.0
  0
LINE
  5
75F
330
1E
100
AcDbEntity
  8
OBJECT
100
AcDbLine
 10
24.04504043515464
 20
13.75515645824713
 30
0.0
 11
24.05588010245292
 21
13.6240950263681
 31
0.0
  0
LINE
  5
760
330
1E
100
AcDbEntity
  8
OBJECT
100
AcDbLine
 10
24.13304043515464
 20
13.17765645824713
 30
0.0
 11
24.125229804972
 21
13.28824788106043
 31
0.0
  0
LINE
  5
761
330
1E
100
AcDbEntity
  8
OBJECT
100
AcDbLine
 10
24.09685106533729
 20
13.69006503543383
 30
0.0
 11
24.08904043515464
 21
13.80065645824714
 31
0.0
  0
LINE
  5
762
330
1E
100
AcDbEntity
  8
OBJECT
100
AcDbLine
 10
24.18485106533729
 20
13.69006503543383
 30
0.0
 11
24.17704043515465
 21
13.80065645824714
 31
0.0
  0
LINE
  5
763
330
1E
100
AcDbEntity
  8
OBJECT
100
AcDbLine
 10
24.27285106533729
 20
13.69006503543383
 30
0.0
 11
24.26504043515464
 21
13.80065645824714
 31
0.0
  0
LINE
  5
764
330
1E
100
AcDbEntity
  8
OBJECT
100
AcDbLine
 10
24.25420076785637
 20
13.35421789012616
 30
0.0
 11
24.26504043515464
 21
13.22315645824714
 31
0.0
  0
LINE
  5
765
330
1E
100
AcDbEntity
  8
OBJECT
100
AcDbLine
 10
24.16620076785636
 20
13.35421789012616
 30
0.0
 11
24.17704043515463
 21
13.22315645824714
 31
0.0
  0
LINE
  5
766
330
1E
100
AcDbEntity
  8
OBJECT
100
AcDbLine
 10
24.07820076785638
 20
13.35421789012616
 30
0.0
 11
24.08904043515464
 21
13.22315645824714
 31
0.0
  0
LINE
  5
767
330
1E
100
AcDbEntity
  8
OBJECT
100
AcDbLine
 10
24.66104043515464
 20
13.75515645824713
 30
0.0
 11
24.67188010245291
 21
13.6240950263681
 31
0.0
  0
LINE
  5
768
330
1E
100
AcDbEntity
  8
OBJECT
100
AcDbLine
 10
24.66104043515464
 20
13.17765645824713
 30
0.0
 11
24.65322980497201
 21
13.28824788106043
 31
0.0
  0
LINE
  5
769
330
1E
100
AcDbEntity
  8
OBJECT
100
AcDbLine
 10
24.74904043515465
 20
13.17765645824713
 30
0.0
 11
24.74122980497201
 21
13.28824788106043
 31
0.0
  0
LINE
  5
76A
330
1E
100
AcDbEntity
  8
OBJECT
100
AcDbLine
 10
24.74904043515464
 20
13.75515645824713
 30
0.0
 11
24.75988010245291
 21
13.6240950263681
 31
0.0
  0
LINE
  5
76B
330
1E
100
AcDbEntity
  8
OBJECT
100
AcDbLine
 10
24.71285106533729
 20
13.69006503543383
 30
0.0
 11
24.70504043515464
 21
13.80065645824714
 31
0.0
  0
LINE
  5
76C
330
1E
100
AcDbEntity
  8
OBJECT
100
AcDbLine
 10
24.78220076785638
 20
13.35421789012616
 30
0.0
 11
24.79304043515465
 21
13.22315645824714
 31
0.0
  0
LINE
  5
76D
330
1E
100
AcDbEntity
  8
OBJECT
100
AcDbLine
 10
24.83704043515463
 20
13.75515645824713
 30
0.0
 11
24.8478801024529
 21
13.6240950263681
 31
0.0
  0
LINE
  5
76E
330
1E
100
AcDbEntity
  8
OBJECT
100
AcDbLine
 10
24.83704043515464
 20
13.17765645824713
 30
0.0
 11
24.829229804972
 21
13.28824788106043
 31
0.0
  0
LINE
  5
76F
330
1E
100
AcDbEntity
  8
OBJECT
100
AcDbLine
 10
24.80085106533728
 20
13.69006503543383
 30
0.0
 11
24.79304043515464
 21
13.80065645824714
 31
0.0
  0
LINE
  5
770
330
1E
100
AcDbEntity
  8
OBJECT
100
AcDbLine
 10
24.69420076785638
 20
13.35421789012616
 30
0.0
 11
24.70504043515464
 21
13.22315645824714
 31
0.0
  0
LINE
  5
771
330
1E
100
AcDbEntity
  8
OBJECT
100
AcDbLine
 10
23.25304043515463
 20
13.75515645824713
 30
0.0
 11
23.2638801024529
 21
13.6240950263681
 31
0.0
  0
LINE
  5
772
330
1E
100
AcDbEntity
  8
OBJECT
100
AcDbLine
 10
23.30485106533728
 20
13.69006503543383
 30
0.0
 11
23.29704043515463
 21
13.80065645824714
 31
0.0
  0
LINE
  5
773
330
1E
100
AcDbEntity
  8
OBJECT
100
AcDbLine
 10
23.28620076785637
 20
13.35421789012616
 30
0.0
 11
23.29704043515463
 21
13.22315645824714
 31
0.0
  0
LINE
  5
774
330
1E
100
AcDbEntity
  8
OBJECT
100
AcDbLine
 10
22.90104043515463
 20
13.75515645824713
 30
0.0
 11
22.9118801024529
 21
13.6240950263681
 31
0.0
  0
LINE
  5
775
330
1E
100
AcDbEntity
  8
OBJECT
100
AcDbLine
 10
22.90104043515463
 20
13.17765645824713
 30
0.0
 11
22.893229804972
 21
13.28824788106043
 31
0.0
  0
LINE
  5
776
330
1E
100
AcDbEntity
  8
OBJECT
100
AcDbLine
 10
22.95285106533729
 20
13.69006503543383
 30
0.0
 11
22.94504043515464
 21
13.80065645824714
 31
0.0
  0
LINE
  5
777
330
1E
100
AcDbEntity
  8
OBJECT
100
AcDbLine
 10
22.93420076785637
 20
13.35421789012616
 30
0.0
 11
22.94504043515463
 21
13.22315645824714
 31
0.0
  0
LINE
  5
778
330
1E
100
AcDbEntity
  8
OBJECT
100
AcDbLine
 10
22.98904043515464
 20
13.17765645824713
 30
0.0
 11
22.981229804972
 21
13.28824788106043
 31
0.0
  0
LINE
  5
779
330
1E
100
AcDbEntity
  8
OBJECT
100
AcDbLine
 10
23.07704043515463
 20
13.75515645824713
 30
0.0
 11
23.0878801024529
 21
13.6240950263681
 31
0.0
  0
LINE
  5
77A
330
1E
100
AcDbEntity
  8
OBJECT
100
AcDbLine
 10
22.98904043515464
 20
13.75515645824713
 30
0.0
 11
22.99988010245291
 21
13.6240950263681
 31
0.0
  0
LINE
  5
77B
330
1E
100
AcDbEntity
  8
OBJECT
100
AcDbLine
 10
23.07704043515463
 20
13.17765645824713
 30
0.0
 11
23.069229804972
 21
13.28824788106043
 31
0.0
  0
LINE
  5
77C
330
1E
100
AcDbEntity
  8
OBJECT
100
AcDbLine
 10
23.04085106533728
 20
13.69006503543383
 30
0.0
 11
23.03304043515463
 21
13.80065645824714
 31
0.0
  0
LINE
  5
77D
330
1E
100
AcDbEntity
  8
OBJECT
100
AcDbLine
 10
23.02220076785638
 20
13.35421789012616
 30
0.0
 11
23.03304043515463
 21
13.22315645824714
 31
0.0
  0
LINE
  5
77E
330
1E
100
AcDbEntity
  8
OBJECT
100
AcDbLine
 10
23.16504043515464
 20
13.17765645824713
 30
0.0
 11
23.15722980497201
 21
13.28824788106043
 31
0.0
  0
LINE
  5
77F
330
1E
100
AcDbEntity
  8
OBJECT
100
AcDbLine
 10
23.16504043515464
 20
13.75515645824713
 30
0.0
 11
23.17588010245291
 21
13.6240950263681
 31
0.0
  0
LINE
  5
780
330
1E
100
AcDbEntity
  8
OBJECT
100
AcDbLine
 10
23.25304043515463
 20
13.17765645824713
 30
0.0
 11
23.245229804972
 21
13.28824788106043
 31
0.0
  0
LINE
  5
781
330
1E
100
AcDbEntity
  8
OBJECT
100
AcDbLine
 10
23.12885106533729
 20
13.69006503543383
 30
0.0
 11
23.12104043515464
 21
13.80065645824714
 31
0.0
  0
LINE
  5
782
330
1E
100
AcDbEntity
  8
OBJECT
100
AcDbLine
 10
23.21685106533728
 20
13.69006503543383
 30
0.0
 11
23.20904043515464
 21
13.80065645824714
 31
0.0
  0
LINE
  5
783
330
1E
100
AcDbEntity
  8
OBJECT
100
AcDbLine
 10
23.11020076785637
 20
13.35421789012616
 30
0.0
 11
23.12104043515463
 21
13.22315645824714
 31
0.0
  0
LINE
  5
784
330
1E
100
AcDbEntity
  8
OBJECT
100
AcDbLine
 10
23.19820076785638
 20
13.35421789012616
 30
0.0
 11
23.20904043515464
 21
13.22315645824714
 31
0.0
  0
LINE
  5
785
330
1E
100
AcDbEntity
  8
OBJECT
100
AcDbLine
 10
23.34104043515463
 20
13.75515645824713
 30
0.0
 11
23.3518801024529
 21
13.6240950263681
 31
0.0
  0
LINE
  5
786
330
1E
100
AcDbEntity
  8
OBJECT
100
AcDbLine
 10
23.42904043515462
 20
13.75515645824713
 30
0.0
 11
23.43988010245289
 21
13.6240950263681
 31
0.0
  0
LINE
  5
787
330
1E
100
AcDbEntity
  8
OBJECT
100
AcDbLine
 10
23.42904043515463
 20
13.17765645824713
 30
0.0
 11
23.42122980497201
 21
13.28824788106043
 31
0.0
  0
LINE
  5
788
330
1E
100
AcDbEntity
  8
OBJECT
100
AcDbLine
 10
23.39285106533727
 20
13.69006503543383
 30
0.0
 11
23.38504043515463
 21
13.80065645824714
 31
0.0
  0
LINE
  5
789
330
1E
100
AcDbEntity
  8
OBJECT
100
AcDbLine
 10
23.37420076785637
 20
13.35421789012616
 30
0.0
 11
23.38504043515464
 21
13.22315645824714
 31
0.0
  0
LINE
  5
78A
330
1E
100
AcDbEntity
  8
OBJECT
100
AcDbLine
 10
23.60504043515464
 20
13.17765645824713
 30
0.0
 11
23.597229804972
 21
13.28824788106043
 31
0.0
  0
LINE
  5
78B
330
1E
100
AcDbEntity
  8
OBJECT
100
AcDbLine
 10
23.51704043515464
 20
13.17765645824713
 30
0.0
 11
23.50922980497201
 21
13.28824788106043
 31
0.0
  0
LINE
  5
78C
330
1E
100
AcDbEntity
  8
OBJECT
100
AcDbLine
 10
23.51704043515463
 20
13.75515645824713
 30
0.0
 11
23.5278801024529
 21
13.6240950263681
 31
0.0
  0
LINE
  5
78D
330
1E
100
AcDbEntity
  8
OBJECT
100
AcDbLine
 10
23.48085106533728
 20
13.69006503543383
 30
0.0
 11
23.47304043515463
 21
13.80065645824714
 31
0.0
  0
LINE
  5
78E
330
1E
100
AcDbEntity
  8
OBJECT
100
AcDbLine
 10
23.56885106533727
 20
13.69006503543383
 30
0.0
 11
23.56104043515462
 21
13.80065645824714
 31
0.0
  0
LINE
  5
78F
330
1E
100
AcDbEntity
  8
OBJECT
100
AcDbLine
 10
23.55020076785637
 20
13.35421789012616
 30
0.0
 11
23.56104043515464
 21
13.22315645824714
 31
0.0
  0
LINE
  5
790
330
1E
100
AcDbEntity
  8
OBJECT
100
AcDbLine
 10
23.65685106533728
 20
13.69006503543383
 30
0.0
 11
23.64904043515463
 21
13.80065645824714
 31
0.0
  0
LINE
  5
791
330
1E
100
AcDbEntity
  8
OBJECT
100
AcDbLine
 10
23.63820076785638
 20
13.35421789012616
 30
0.0
 11
23.64904043515463
 21
13.22315645824714
 31
0.0
  0
LINE
  5
792
330
1E
100
AcDbEntity
  8
OBJECT
100
AcDbLine
 10
23.78104043515463
 20
13.75515645824713
 30
0.0
 11
23.7918801024529
 21
13.6240950263681
 31
0.0
  0
LINE
  5
793
330
1E
100
AcDbEntity
  8
OBJECT
100
AcDbLine
 10
23.69304043515463
 20
13.75515645824713
 30
0.0
 11
23.7038801024529
 21
13.6240950263681
 31
0.0
  0
LINE
  5
794
330
1E
100
AcDbEntity
  8
OBJECT
100
AcDbLine
 10
23.78104043515464
 20
13.17765645824713
 30
0.0
 11
23.77322980497199
 21
13.28824788106043
 31
0.0
  0
LINE
  5
795
330
1E
100
AcDbEntity
  8
OBJECT
100
AcDbLine
 10
23.74485106533728
 20
13.69006503543383
 30
0.0
 11
23.73704043515463
 21
13.80065645824714
 31
0.0
  0
LINE
  5
796
330
1E
100
AcDbEntity
  8
OBJECT
100
AcDbLine
 10
23.72620076785637
 20
13.35421789012616
 30
0.0
 11
23.73704043515464
 21
13.22315645824714
 31
0.0
  0
LINE
  5
797
330
1E
100
AcDbEntity
  8
OBJECT
100
AcDbLine
 10
23.83285106533728
 20
13.69006503543383
 30
0.0
 11
23.82504043515464
 21
13.80065645824714
 31
0.0
  0
LINE
  5
798
330
1E
100
AcDbEntity
  8
OBJECT
100
AcDbLine
 10
23.81420076785637
 20
13.35421789012616
 30
0.0
 11
23.82504043515464
 21
13.22315645824714
 31
0.0
  0
LINE
  5
799
330
1E
100
AcDbEntity
  8
OBJECT
100
AcDbLine
 10
23.69304043515465
 20
13.17765645824713
 30
0.0
 11
23.685229804972
 21
13.28824788106043
 31
0.0
  0
LINE
  5
79A
330
1E
100
AcDbEntity
  8
OBJECT
100
AcDbLine
 10
23.86904043515465
 20
13.17765645824713
 30
0.0
 11
23.86122980497201
 21
13.28824788106043
 31
0.0
  0
LINE
  5
79B
330
1E
100
AcDbEntity
  8
OBJECT
100
AcDbLine
 10
23.60504043515462
 20
13.75515645824713
 30
0.0
 11
23.61588010245289
 21
13.6240950263681
 31
0.0
  0
LINE
  5
79C
330
1E
100
AcDbEntity
  8
OBJECT
100
AcDbLine
 10
23.46220076785636
 20
13.35421789012616
 30
0.0
 11
23.47304043515463
 21
13.22315645824714
 31
0.0
  0
LINE
  5
79D
330
1E
100
AcDbEntity
  8
OBJECT
100
AcDbLine
 10
23.34104043515464
 20
13.17765645824713
 30
0.0
 11
23.33322980497201
 21
13.28824788106043
 31
0.0
  0
LINE
  5
79E
330
1E
100
AcDbEntity
  8
OBJECT
100
AcDbLine
 10
21.93304043515464
 20
13.17765645824713
 30
0.0
 11
21.925229804972
 21
13.28824788106043
 31
0.0
  0
LINE
  5
79F
330
1E
100
AcDbEntity
  8
OBJECT
100
AcDbLine
 10
21.93304043515464
 20
13.75515645824713
 30
0.0
 11
21.9438801024529
 21
13.6240950263681
 31
0.0
  0
LINE
  5
7A0
330
1E
100
AcDbEntity
  8
OBJECT
100
AcDbLine
 10
21.89685106533728
 20
13.69006503543383
 30
0.0
 11
21.88904043515464
 21
13.80065645824714
 31
0.0
  0
LINE
  5
7A1
330
1E
100
AcDbEntity
  8
OBJECT
100
AcDbLine
 10
21.87820076785637
 20
13.35421789012616
 30
0.0
 11
21.88904043515462
 21
13.22315645824714
 31
0.0
  0
LINE
  5
7A2
330
1E
100
AcDbEntity
  8
OBJECT
100
AcDbLine
 10
22.07285106533727
 20
13.69006503543383
 30
0.0
 11
22.06504043515463
 21
13.80065645824714
 31
0.0
  0
LINE
  5
7A3
330
1E
100
AcDbEntity
  8
OBJECT
100
AcDbLine
 10
22.16085106533726
 20
13.69006503543383
 30
0.0
 11
22.15304043515462
 21
13.80065645824714
 31
0.0
  0
LINE
  5
7A4
330
1E
100
AcDbEntity
  8
OBJECT
100
AcDbLine
 10
22.19704043515462
 20
13.75515645824713
 30
0.0
 11
22.20788010245289
 21
13.6240950263681
 31
0.0
  0
LINE
  5
7A5
330
1E
100
AcDbEntity
  8
OBJECT
100
AcDbLine
 10
22.19704043515463
 20
13.17765645824713
 30
0.0
 11
22.189229804972
 21
13.28824788106043
 31
0.0
  0
LINE
  5
7A6
330
1E
100
AcDbEntity
  8
OBJECT
100
AcDbLine
 10
22.23020076785637
 20
13.35421789012616
 30
0.0
 11
22.24104043515463
 21
13.22315645824714
 31
0.0
  0
LINE
  5
7A7
330
1E
100
AcDbEntity
  8
OBJECT
100
AcDbLine
 10
22.24885106533727
 20
13.69006503543383
 30
0.0
 11
22.24104043515463
 21
13.80065645824714
 31
0.0
  0
LINE
  5
7A8
330
1E
100
AcDbEntity
  8
OBJECT
100
AcDbLine
 10
22.14220076785637
 20
13.35421789012616
 30
0.0
 11
22.15304043515463
 21
13.22315645824714
 31
0.0
  0
LINE
  5
7A9
330
1E
100
AcDbEntity
  8
OBJECT
100
AcDbLine
 10
22.10904043515463
 20
13.17765645824713
 30
0.0
 11
22.101229804972
 21
13.28824788106043
 31
0.0
  0
LINE
  5
7AA
330
1E
100
AcDbEntity
  8
OBJECT
100
AcDbLine
 10
22.10904043515462
 20
13.75515645824713
 30
0.0
 11
22.11988010245289
 21
13.6240950263681
 31
0.0
  0
LINE
  5
7AB
330
1E
100
AcDbEntity
  8
OBJECT
100
AcDbLine
 10
22.02104043515463
 20
13.75515645824713
 30
0.0
 11
22.0318801024529
 21
13.6240950263681
 31
0.0
  0
LINE
  5
7AC
330
1E
100
AcDbEntity
  8
OBJECT
100
AcDbLine
 10
22.02104043515463
 20
13.17765645824713
 30
0.0
 11
22.013229804972
 21
13.28824788106043
 31
0.0
  0
LINE
  5
7AD
330
1E
100
AcDbEntity
  8
OBJECT
100
AcDbLine
 10
21.98485106533728
 20
13.69006503543383
 30
0.0
 11
21.97704043515463
 21
13.80065645824714
 31
0.0
  0
LINE
  5
7AE
330
1E
100
AcDbEntity
  8
OBJECT
100
AcDbLine
 10
22.05420076785635
 20
13.35421789012616
 30
0.0
 11
22.06504043515463
 21
13.22315645824714
 31
0.0
  0
LINE
  5
7AF
330
1E
100
AcDbEntity
  8
OBJECT
100
AcDbLine
 10
22.28504043515464
 20
13.17765645824713
 30
0.0
 11
22.27722980497201
 21
13.28824788106043
 31
0.0
  0
LINE
  5
7B0
330
1E
100
AcDbEntity
  8
OBJECT
100
AcDbLine
 10
22.28504043515462
 20
13.75515645824713
 30
0.0
 11
22.2958801024529
 21
13.6240950263681
 31
0.0
  0
LINE
  5
7B1
330
1E
100
AcDbEntity
  8
OBJECT
100
AcDbLine
 10
22.33685106533727
 20
13.69006503543383
 30
0.0
 11
22.32904043515462
 21
13.80065645824714
 31
0.0
  0
LINE
  5
7B2
330
1E
100
AcDbEntity
  8
OBJECT
100
AcDbLine
 10
22.31820076785636
 20
13.35421789012616
 30
0.0
 11
22.32904043515464
 21
13.22315645824714
 31
0.0
  0
LINE
  5
7B3
330
1E
100
AcDbEntity
  8
OBJECT
100
AcDbLine
 10
22.37304043515462
 20
13.75515645824713
 30
0.0
 11
22.38388010245289
 21
13.6240950263681
 31
0.0
  0
LINE
  5
7B4
330
1E
100
AcDbEntity
  8
OBJECT
100
AcDbLine
 10
22.37304043515463
 20
13.17765645824713
 30
0.0
 11
22.365229804972
 21
13.28824788106043
 31
0.0
  0
LINE
  5
7B5
330
1E
100
AcDbEntity
  8
OBJECT
100
AcDbLine
 10
22.63704043515465
 20
13.17765645824713
 30
0.0
 11
22.629229804972
 21
13.28824788106043
 31
0.0
  0
LINE
  5
7B6
330
1E
100
AcDbEntity
  8
OBJECT
100
AcDbLine
 10
22.63704043515463
 20
13.75515645824713
 30
0.0
 11
22.64788010245291
 21
13.6240950263681
 31
0.0
  0
LINE
  5
7B7
330
1E
100
AcDbEntity
  8
OBJECT
100
AcDbLine
 10
22.46104043515465
 20
13.17765645824713
 30
0.0
 11
22.45322980497201
 21
13.28824788106043
 31
0.0
  0
LINE
  5
7B8
330
1E
100
AcDbEntity
  8
OBJECT
100
AcDbLine
 10
22.54904043515463
 20
13.75515645824713
 30
0.0
 11
22.5598801024529
 21
13.6240950263681
 31
0.0
  0
LINE
  5
7B9
330
1E
100
AcDbEntity
  8
OBJECT
100
AcDbLine
 10
22.46104043515463
 20
13.75515645824713
 30
0.0
 11
22.4718801024529
 21
13.6240950263681
 31
0.0
  0
LINE
  5
7BA
330
1E
100
AcDbEntity
  8
OBJECT
100
AcDbLine
 10
22.54904043515464
 20
13.17765645824713
 30
0.0
 11
22.54122980497201
 21
13.28824788106043
 31
0.0
  0
LINE
  5
7BB
330
1E
100
AcDbEntity
  8
OBJECT
100
AcDbLine
 10
22.42485106533727
 20
13.69006503543383
 30
0.0
 11
22.41704043515463
 21
13.80065645824714
 31
0.0
  0
LINE
  5
7BC
330
1E
100
AcDbEntity
  8
OBJECT
100
AcDbLine
 10
22.51285106533728
 20
13.69006503543383
 30
0.0
 11
22.50504043515463
 21
13.80065645824714
 31
0.0
  0
LINE
  5
7BD
330
1E
100
AcDbEntity
  8
OBJECT
100
AcDbLine
 10
22.60085106533729
 20
13.69006503543383
 30
0.0
 11
22.59304043515464
 21
13.80065645824714
 31
0.0
  0
LINE
  5
7BE
330
1E
100
AcDbEntity
  8
OBJECT
100
AcDbLine
 10
22.49420076785637
 20
13.35421789012616
 30
0.0
 11
22.50504043515464
 21
13.22315645824714
 31
0.0
  0
LINE
  5
7BF
330
1E
100
AcDbEntity
  8
OBJECT
100
AcDbLine
 10
22.58220076785637
 20
13.35421789012616
 30
0.0
 11
22.59304043515464
 21
13.22315645824714
 31
0.0
  0
LINE
  5
7C0
330
1E
100
AcDbEntity
  8
OBJECT
100
AcDbLine
 10
22.40620076785636
 20
13.35421789012616
 30
0.0
 11
22.41704043515463
 21
13.22315645824714
 31
0.0
  0
LINE
  5
7C1
330
1E
100
AcDbEntity
  8
OBJECT
100
AcDbLine
 10
21.96620076785636
 20
13.35421789012616
 30
0.0
 11
21.97704043515463
 21
13.22315645824714
 31
0.0
  0
LINE
  5
7C2
330
1E
100
AcDbEntity
  8
OBJECT
100
AcDbLine
 10
22.86485106533728
 20
13.69006503543383
 30
0.0
 11
22.85704043515463
 21
13.80065645824714
 31
0.0
  0
LINE
  5
7C3
330
1E
100
AcDbEntity
  8
OBJECT
100
AcDbLine
 10
22.81304043515464
 20
13.17765645824713
 30
0.0
 11
22.805229804972
 21
13.28824788106043
 31
0.0
  0
LINE
  5
7C4
330
1E
100
AcDbEntity
  8
OBJECT
100
AcDbLine
 10
22.81304043515464
 20
13.75515645824713
 30
0.0
 11
22.82388010245291
 21
13.6240950263681
 31
0.0
  0
LINE
  5
7C5
330
1E
100
AcDbEntity
  8
OBJECT
100
AcDbLine
 10
22.72504043515463
 20
13.75515645824713
 30
0.0
 11
22.7358801024529
 21
13.6240950263681
 31
0.0
  0
LINE
  5
7C6
330
1E
100
AcDbEntity
  8
OBJECT
100
AcDbLine
 10
22.72504043515464
 20
13.17765645824713
 30
0.0
 11
22.71722980497199
 21
13.28824788106043
 31
0.0
  0
LINE
  5
7C7
330
1E
100
AcDbEntity
  8
OBJECT
100
AcDbLine
 10
22.68885106533728
 20
13.69006503543383
 30
0.0
 11
22.68104043515463
 21
13.80065645824714
 31
0.0
  0
LINE
  5
7C8
330
1E
100
AcDbEntity
  8
OBJECT
100
AcDbLine
 10
22.77685106533728
 20
13.69006503543383
 30
0.0
 11
22.76904043515464
 21
13.80065645824714
 31
0.0
  0
LINE
  5
7C9
330
1E
100
AcDbEntity
  8
OBJECT
100
AcDbLine
 10
22.75820076785637
 20
13.35421789012616
 30
0.0
 11
22.76904043515464
 21
13.22315645824714
 31
0.0
  0
LINE
  5
7CA
330
1E
100
AcDbEntity
  8
OBJECT
100
AcDbLine
 10
22.84620076785636
 20
13.35421789012616
 30
0.0
 11
22.85704043515463
 21
13.22315645824714
 31
0.0
  0
LINE
  5
7CB
330
1E
100
AcDbEntity
  8
OBJECT
100
AcDbLine
 10
22.67020076785637
 20
13.35421789012616
 30
0.0
 11
22.68104043515465
 21
13.22315645824714
 31
0.0
  0
LINE
  5
7CC
330
1E
100
AcDbEntity
  8
OBJECT
100
AcDbLine
 10
21.43820076785635
 20
13.35421789012616
 30
0.0
 11
21.44904043515463
 21
13.22315645824714
 31
0.0
  0
LINE
  5
7CD
330
1E
100
AcDbEntity
  8
OBJECT
100
AcDbLine
 10
21.45685106533727
 20
13.69006503543383
 30
0.0
 11
21.44904043515463
 21
13.80065645824714
 31
0.0
  0
LINE
  5
7CE
330
1E
100
AcDbEntity
  8
OBJECT
100
AcDbLine
 10
21.49304043515462
 20
13.75515645824713
 30
0.0
 11
21.50388010245289
 21
13.6240950263681
 31
0.0
  0
LINE
  5
7CF
330
1E
100
AcDbEntity
  8
OBJECT
100
AcDbLine
 10
21.49304043515462
 20
13.17765645824713
 30
0.0
 11
21.48522980497199
 21
13.28824788106043
 31
0.0
  0
LINE
  5
7D0
330
1E
100
AcDbEntity
  8
OBJECT
100
AcDbLine
 10
21.58104043515463
 20
13.17765645824713
 30
0.0
 11
21.573229804972
 21
13.28824788106043
 31
0.0
  0
LINE
  5
7D1
330
1E
100
AcDbEntity
  8
OBJECT
100
AcDbLine
 10
21.58104043515463
 20
13.75515645824713
 30
0.0
 11
21.5918801024529
 21
13.6240950263681
 31
0.0
  0
LINE
  5
7D2
330
1E
100
AcDbEntity
  8
OBJECT
100
AcDbLine
 10
21.54485106533728
 20
13.69006503543383
 30
0.0
 11
21.53704043515463
 21
13.80065645824714
 31
0.0
  0
LINE
  5
7D3
330
1E
100
AcDbEntity
  8
OBJECT
100
AcDbLine
 10
21.63285106533727
 20
13.69006503543383
 30
0.0
 11
21.62504043515462
 21
13.80065645824714
 31
0.0
  0
LINE
  5
7D4
330
1E
100
AcDbEntity
  8
OBJECT
100
AcDbLine
 10
21.61420076785637
 20
13.35421789012616
 30
0.0
 11
21.62504043515462
 21
13.22315645824714
 31
0.0
  0
LINE
  5
7D5
330
1E
100
AcDbEntity
  8
OBJECT
100
AcDbLine
 10
21.52620076785636
 20
13.35421789012616
 30
0.0
 11
21.53704043515462
 21
13.22315645824714
 31
0.0
  0
LINE
  5
7D6
330
1E
100
AcDbEntity
  8
OBJECT
100
AcDbLine
 10
21.66904043515462
 20
13.17765645824713
 30
0.0
 11
21.66122980497199
 21
13.28824788106043
 31
0.0
  0
LINE
  5
7D7
330
1E
100
AcDbEntity
  8
OBJECT
100
AcDbLine
 10
21.75704043515463
 20
13.17765645824713
 30
0.0
 11
21.749229804972
 21
13.28824788106043
 31
0.0
  0
LINE
  5
7D8
330
1E
100
AcDbEntity
  8
OBJECT
100
AcDbLine
 10
21.84504043515463
 20
13.75515645824713
 30
0.0
 11
21.8558801024529
 21
13.6240950263681
 31
0.0
  0
LINE
  5
7D9
330
1E
100
AcDbEntity
  8
OBJECT
100
AcDbLine
 10
21.75704043515463
 20
13.75515645824713
 30
0.0
 11
21.7678801024529
 21
13.6240950263681
 31
0.0
  0
LINE
  5
7DA
330
1E
100
AcDbEntity
  8
OBJECT
100
AcDbLine
 10
21.84504043515463
 20
13.17765645824713
 30
0.0
 11
21.83722980497199
 21
13.28824788106043
 31
0.0
  0
LINE
  5
7DB
330
1E
100
AcDbEntity
  8
OBJECT
100
AcDbLine
 10
21.66904043515462
 20
13.75515645824713
 30
0.0
 11
21.67988010245289
 21
13.6240950263681
 31
0.0
  0
LINE
  5
7DC
330
1E
100
AcDbEntity
  8
OBJECT
100
AcDbLine
 10
21.72085106533728
 20
13.69006503543383
 30
0.0
 11
21.71304043515463
 21
13.80065645824714
 31
0.0
  0
LINE
  5
7DD
330
1E
100
AcDbEntity
  8
OBJECT
100
AcDbLine
 10
21.80885106533728
 20
13.69006503543383
 30
0.0
 11
21.80104043515463
 21
13.80065645824714
 31
0.0
  0
LINE
  5
7DE
330
1E
100
AcDbEntity
  8
OBJECT
100
AcDbLine
 10
21.79020076785637
 20
13.35421789012616
 30
0.0
 11
21.80104043515463
 21
13.22315645824714
 31
0.0
  0
LINE
  5
7DF
330
1E
100
AcDbEntity
  8
OBJECT
100
AcDbLine
 10
21.70220076785636
 20
13.35421789012616
 30
0.0
 11
21.71304043515462
 21
13.22315645824714
 31
0.0
  0
LINE
  5
7E0
330
1E
100
AcDbEntity
  8
OBJECT
100
AcDbLine
 10
21.04304043515463
 20
13.3539925404185
 30
0.0
 11
21.41804043515463
 21
13.35399254041849
 31
0.0
  0
LINE
  5
7E1
330
1E
100
AcDbEntity
  8
OBJECT
100
AcDbLine
 10
21.04304043515463
 20
13.62432037607582
 30
0.0
 11
21.41804043515463
 21
13.62432037607582
 31
0.0
  0
LINE
  5
7E2
330
1E
100
AcDbEntity
  8
OBJECT
100
AcDbLine
 10
21.25104043515437
 20
14.0951564582471
 30
0.0
 11
21.25104043515433
 21
13.99222068975809
 31
0.0
  0
LWPOLYLINE
  5
7E3
330
1E
100
AcDbEntity
  8
OBJECT
100
AcDbPolyline
 90
        2
 70
     0
 43
0.0
 10
25.14304043515464
 20
13.99222068975808
 10
25.14304043515463
 20
13.91322068975809
  0
LINE
  5
7E7
330
1E
100
AcDbEntity
  8
OBJECT
100
AcDbLine
 10
25.04304043515463
 20
13.91322068975809
 30
0.0
 11
25.04304043515463
 21
12.99915645824711
 31
0.0
  0
LINE
  5
7E8
330
1E
100
AcDbEntity
  8
OBJECT
100
AcDbLine
 10
25.35304043515467
 20
13.8266564582469
 30
0.0
 11
25.35304043515463
 21
13.1516564582469
 31
0.0
  0
LWPOLYLINE
  5
7E9
330
1E
100
AcDbEntity
  8
OBJECT
100
AcDbPolyline
 90
        4
 70
     0
 43
0.0
 10
25.03990278464488
 20
14.06887816475831
 10
25.24304043515463
 20
14.06887816475831
 10
25.24304043515463
 20
13.88987816475831
 10
25.04191984568687
 20
13.88987816475831
  0
LINE
  5
7EF
330
1E
100
AcDbEntity
  8
OBJECT
100
AcDbLine
 10
26.00404043515465
 20
14.08837816475823
 30
0.0
 11
26.00404043515465
 21
13.05565645824718
 31
0.0
  0
ARC
  5
7F0
330
1E
100
AcDbEntity
  8
OBJECT
100
AcDbCircle
 10
26.00404043515464
 20
13.56415645824719
 30
0.0
 40
0.2300000000000111
100
AcDbArc
 50
270.0000000000017
 51
0.0000000000017811
  0
ARC
  5
7F1
330
1E
100
AcDbEntity
  8
OBJECT
100
AcDbCircle
 10
26.00404043515461
 20
14.31837816475824
 30
0.0
 40
0.2300000000000111
100
AcDbArc
 50
270.0
 51
0.0
  0
ARC
  5
7F2
330
1E
100
AcDbEntity
  8
OBJECT
100
AcDbCircle
 10
26.00404043515462
 20
14.31837816475824
 30
0.0
 40
0.1120000000000019
100
AcDbArc
 50
269.9999999999963
 51
359.9999999999981
  0
LINE
  5
7F3
330
1E
100
AcDbEntity
  8
OBJECT
100
AcDbLine
 10
25.04304043515463
 20
14.13987816475811
 30
0.0
 11
26.00404043515461
 21
14.20637816475824
 31
0.0
  0
LINE
  5
7F4
330
1E
100
AcDbEntity
  8
OBJECT
100
AcDbLine
 10
25.35304043515466
 20
13.44496228442274
 30
0.0
 11
25.04304043515463
 21
13.44496228442274
 31
0.0
  0
LINE
  5
7F5
330
1E
100
AcDbEntity
  8
OBJECT
100
AcDbLine
 10
25.35304043515467
 20
13.798515675016
 30
0.0
 11
25.04304043515463
 21
13.798515675016
 31
0.0
  0
LINE
  5
7F6
330
1E
100
AcDbEntity
  8
OBJECT
100
AcDbLine
 10
26.00404043515465
 20
13.8266564582469
 30
0.0
 11
25.04304043515463
 21
13.8266564582469
 31
0.0
  0
INSERT
  5
7F7
330
1E
100
AcDbEntity
  8
OBJECT
100
AcDbBlockReference
  2
*X1
 10
26.23404043515463
 20
13.05565645824718
 30
0.0
 41
-1.0
1001
ACAD
1000
HATCH
1002
{
1070
    16
1000
PLASTI
1040
2.5
1040
0.7853981633974483
1002
}
  0
INSERT
  5
7F8
330
1E
100
AcDbEntity
  8
OBJECT
100
AcDbBlockReference
  2
*X2
 10
26.23404043515463
 20
13.05565645824718
 30
0.0
 41
-1.0
1001
ACAD
1000
HATCH
1002
{
1070
    16
1000
PLASTI
1040
2.5
1040
2.356194490192344
1002
}
  0
TEXT
  5
7F9
330
1E
100
AcDbEntity
  8
TEXT
100
AcDbText
 10
9.491607110680275
 20
43.89856171117563
 30
0.0
 40
0.8437491562499999
  1
NON-METALLIC ENCLOSURE (STYLE D)
 41
0.75
 72
     4
 11
19.19472240755526
 21
44.32043628930062
 31
0.0
100
AcDbText
  0
TEXT
  5
7FA
330
1E
100
AcDbEntity
  8
TEXT
100
AcDbText
 10
44.01611988935171
 20
43.89856171117564
 30
0.0
 40
0.8437491562499999
  1
NBD-10449 & NBD-10469 & NBD-15449
 41
0.75
 72
     4
 11
53.9301724752892
 21
44.32043628930064
 31
0.0
100
AcDbText
  0
TEXT
  5
7FB
330
1E
100
AcDbEntity
  8
TEXT
100
AcDbText
 10
20.24457291897558
 20
10.91725024380851
 30
0.0
 40
0.5624994374999998
  1
%%UNOTE:%%u COVER ATTACHES WITH PHILLIPS DRIVE
 41
0.75
100
AcDbText
  0
TEXT
  5
7FC
330
1E
100
AcDbEntity
  8
TEXT
100
AcDbText
 10
22.50779804318426
 20
9.979752118808484
 30
0.0
 40
0.5624994374999999
  1
NON-METALLIC SCREWS.  (NOT SHOWN)
 41
0.75
100
AcDbText
  0
TEXT
  5
7FD
330
1E
100
AcDbEntity
  8
TEXT
100
AcDbText
 10
41.38797399230928
 20
35.76057835982076
 30
0.0
 40
0.5624994374999999
  1
AIR AND MOISTURE VENTS, STAINLESS
 41
0.75
100
AcDbText
  0
TEXT
  5
7FE
330
1E
100
AcDbEntity
  8
TEXT
100
AcDbText
 10
41.38797399230928
 20
34.82289177050827
 30
0.0
 40
0.5624994375
  1
STEEL LOCKING HASP, PANEL MOUNTING
 41
0.75
100
AcDbText
  0
TEXT
  5
7FF
330
1E
100
AcDbEntity
  8
TEXT
100
AcDbText
 10
41.38797399230928
 20
33.88520518119577
 30
0.0
 40
0.5624994375
  1
RAILS, GALVANIZED STEEL INNER PANEL
 41
0.75
100
AcDbText
  0
TEXT
  5
800
330
1E
100
AcDbEntity
  8
TEXT
100
AcDbText
 10
41.38797399230928
 20
32.94864359188327
 30
0.0
 40
0.5624994375
  1
AND STAINLESS STEEL WALL MOUNTING
 41
0.75
100
AcDbText
  0
TEXT
  5
801
330
1E
100
AcDbEntity
  8
TEXT
100
AcDbText
 10
41.38797399230928
 20
32.01095700257077
 30
0.0
 40
0.5624994375
  1
BRACKETS ARE NOT INCLUDED, BUT CAN
 41
0.75
100
AcDbText
  0
TEXT
  5
802
330
1E
100
AcDbEntity
  8
TEXT
100
AcDbText
 10
41.38797399230928
 20
31.07439541325827
 30
0.0
 40
0.5624994375
  1
BE PURCHASED SEPARATELY.
 41
0.75
100
AcDbText
  0
INSERT
  5
803
330
1E
100
AcDbEntity
  8
TITLE
100
AcDbBlockReference
  2
HBS
 10
0.0
 20
0.0
 30
0.0
 41
4.5
 42
4.5
 43
4.5
  0
TEXT
  5
804
330
1E
100
AcDbEntity
  8
TEXT
100
AcDbText
 10
17.79548742442197
 20
2.351526614920967
 30
0.0
 40
0.562500246093858
  1
B
 41
0.75
 72
     4
 11
17.93611248594543
 21
2.632776737967896
 31
0.0
100
AcDbText
  0
TEXT
  5
805
330
1E
100
AcDbEntity
  8
TEXT
100
AcDbText
 10
20.58116742442196
 20
2.351526614920967
 30
0.0
 40
0.562500246093858
  1
C
 41
0.75
 72
     4
 11
20.72179248594542
 21
2.632776737967896
 31
0.0
100
AcDbText
  0
TEXT
  5
806
330
1E
100
AcDbEntity
  8
TEXT
100
AcDbText
 10
23.36684742442196
 20
2.351526614920967
 30
0.0
 40
0.562500246093858
  1
D
 41
0.75
 72
     4
 11
23.50747248594542
 21
2.632776737967896
 31
0.0
100
AcDbText
  0
TEXT
  5
807
330
1E
100
AcDbEntity
  8
TEXT
100
AcDbText
 10
26.15252742442196
 20
2.351526614920967
 30
0.0
 40
0.562500246093858
  1
E
 41
0.75
 72
     4
 11
26.29315248594542
 21
2.632776737967896
 31
0.0
100
AcDbText
  0
TEXT
  5
808
330
1E
100
AcDbEntity
  8
TEXT
100
AcDbText
 10
28.93820742442196
 20
2.351526614920967
 30
0.0
 40
0.562500246093858
  1
F
 41
0.75
 72
     4
 11
29.07883248594543
 21
2.632776737967896
 31
0.0
100
AcDbText
  0
TEXT
  5
809
330
1E
100
AcDbEntity
  8
TEXT
100
AcDbText
 10
31.72388742442196
 20
2.351526614920967
 30
0.0
 40
0.562500246093858
  1
G
 41
0.75
 72
     4
 11
31.86451248594543
 21
2.632776737967896
 31
0.0
100
AcDbText
  0
TEXT
  5
80A
330
1E
100
AcDbEntity
  8
TEXT
100
AcDbText
 10
34.50956742442196
 20
2.351526614920967
 30
0.0
 40
0.562500246093858
  1
H
 41
0.75
 72
     4
 11
34.65019248594542
 21
2.632776737967896
 31
0.0
100
AcDbText
  0
TEXT
  5
80B
330
1E
100
AcDbEntity
  8
TEXT
100
AcDbText
 10
37.29524742442197
 20
2.351526614920967
 30
0.0
 40
0.562500246093858
  1
J
 41
0.75
 72
     4
 11
37.43587248594543
 21
2.632776737967896
 31
0.0
100
AcDbText
  0
TEXT
  5
80C
330
1E
100
AcDbEntity
  8
TEXT
100
AcDbText
 10
40.08092742442197
 20
2.351526614920967
 30
0.0
 40
0.562500246093858
  1
K
 41
0.75
 72
     4
 11
40.22155248594542
 21
2.632776737967896
 31
0.0
100
AcDbText
  0
TEXT
  5
80D
330
1E
100
AcDbEntity
  8
TEXT
100
AcDbText
 10
42.86660742442196
 20
2.351526614920967
 30
0.0
 40
0.562500246093858
  1
L
 41
0.75
 72
     4
 11
43.00723248594543
 21
2.632776737967896
 31
0.0
100
AcDbText
  0
TEXT
  5
80E
330
1E
100
AcDbEntity
  8
TEXT
100
AcDbText
 10
45.65228742442196
 20
2.351526614920967
 30
0.0
 40
0.562500246093858
  1
M
 41
0.75
 72
     4
 11
45.79291248594543
 21
2.632776737967896
 31
0.0
100
AcDbText
  0
TEXT
  5
80F
330
1E
100
AcDbEntity
  8
TEXT
100
AcDbText
 10
48.43796742442196
 20
2.351526614920967
 30
0.0
 40
0.562500246093858
  1
N
 41
0.75
 72
     4
 11
48.57859248594543
 21
2.632776737967896
 31
0.0
100
AcDbText
  0
TEXT
  5
810
330
1E
100
AcDbEntity
  8
TEXT
100
AcDbText
 10
51.22364742442197
 20
2.351526614920967
 30
0.0
 40
0.562500246093858
  1
P
 41
0.75
 72
     4
 11
51.36427248594543
 21
2.632776737967896
 31
0.0
100
AcDbText
  0
TEXT
  5
811
330
1E
100
AcDbEntity
  8
TEXT
100
AcDbText
 10
54.00932742442198
 20
2.351526614920967
 30
0.0
 40
0.562500246093858
  1
R
 41
0.75
 72
     4
 11
54.14995248594545
 21
2.632776737967896
 31
0.0
100
AcDbText
  0
TEXT
  5
812
330
1E
100
AcDbEntity
  8
TEXT
100
AcDbText
 10
56.79500742442197
 20
2.351526614920967
 30
0.0
 40
0.562500246093858
  1
S
 41
0.75
 72
     4
 11
56.93563248594543
 21
2.632776737967896
 31
0.0
100
AcDbText
  0
TEXT
  5
813
330
1E
100
AcDbEntity
  8
TEXT
100
AcDbText
 10
59.58068742442197
 20
2.351526614920967
 30
0.0
 40
0.562500246093858
  1
T
 41
0.75
 72
     4
 11
59.72131248594544
 21
2.632776737967896
 31
0.0
100
AcDbText
  0
TEXT
  5
814
330
1E
100
AcDbEntity
  8
TEXT
100
AcDbText
 10
62.36636742442197
 20
2.351526614920967
 30
0.0
 40
0.562500246093858
  1
U
 41
0.75
 72
     4
 11
62.50699248594543
 21
2.632776737967896
 31
0.0
100
AcDbText
  0
TEXT
  5
815
330
1E
100
AcDbEntity
  8
TEXT
100
AcDbText
 10
65.08173489366024
 20
2.351526614920967
 30
0.0
 40
0.562500246093858
  1
V
 41
0.75
 72
     4
 11
65.29267248594543
 21
2.632776737967896
 31
0.0
100
AcDbText
  0
TEXT
  5
816
330
1E
100
AcDbEntity
  8
TEXT
100
AcDbText
 10
67.86741489366026
 20
2.351526614920967
 30
0.0
 40
0.562500246093858
  1
W
 41
0.75
 72
     4
 11
68.07835248594544
 21
2.632776737967896
 31
0.0
100
AcDbText
  0
TEXT
  5
817
330
1E
100
AcDbEntity
  8
TEXT
100
AcDbText
 10
15.01013974339386
 20
2.352191252864764
 30
0.0
 40
0.5611709702062645
  1
A
 41
0.75
 72
     4
 11
15.15043248594543
 21
2.632776737967896
 31
0.0
100
AcDbText
  0
LINE
  5
818
330
1E
100
AcDbEntity
  8
TITLE
100
AcDbLine
 10
69.47099999999996
 20
2.162021390374315
 30
0.0
 11
0.2789999999999964
 21
2.162021390374315
 31
0.0
  0
LINE
  5
819
330
1E
100
AcDbEntity
  8
TITLE
100
AcDbLine
 10
69.47099999999996
 20
3.103532085561491
 30
0.0
 11
13.75759248594543
 21
3.103532085561491
 31
0.0
  0
LINE
  5
81A
330
1E
100
AcDbEntity
  8
TITLE
100
AcDbLine
 10
13.75759248594543
 20
4.045042780748639
 30
0.0
 11
0.2790000000000106
 21
4.045042780748675
 31
0.0
  0
TEXT
  5
81B
330
1E
100
AcDbEntity
  8
TEXT
100
AcDbText
 10
0.7935305827750481
 20
0.9284103431400314
 30
0.0
 40
0.5625000000000001
  1
NBD-10449
 41
0.75
 72
     1
 11
2.516186832775048
 21
0.9284103431400314
 31
0.0
100
AcDbText
  0
TEXT
  5
81C
330
1E
100
AcDbEntity
  8
TEXT
100
AcDbText
 10
1.461499332775048
 20
2.343160420014678
 30
0.0
 40
0.5625000000000001
  1
COVER
 41
0.75
 72
     1
 11
2.516186832775048
 21
2.343160420014678
 31
0.0
100
AcDbText
  0
TEXT
  5
81D
330
1E
100
AcDbEntity
  8
TEXT
100
AcDbText
 10
1.602124332775048
 20
3.303346101120647
 30
0.0
 40
0.5625000000000001
  1
SOLID
 41
0.75
 72
     1
 11
2.516186832775048
 21
3.303346101120647
 31
0.0
100
AcDbText
  0
TEXT
  5
81E
330
1E
100
AcDbEntity
  8
TEXT
100
AcDbText
 10
3.287905463409146
 20
4.240669863993952
 30
0.0
 40
0.5625000000000001
  1
PART NO.
 41
0.75
 72
     1
 11
4.764467963409146
 21
4.240669863993952
 31
0.0
100
AcDbText
  0
TEXT
  5
81F
330
1E
100
AcDbEntity
  8
TEXT
100
AcDbText
 10
5.958061594043194
 20
2.343160420014678
 30
0.0
 40
0.5625000000000001
  1
COVER
 41
0.75
 72
     1
 11
7.012749094043194
 21
2.343160420014678
 31
0.0
100
AcDbText
  0
TEXT
  5
820
330
1E
100
AcDbEntity
  8
TEXT
100
AcDbText
 10
6.028374094043194
 20
3.303346101120647
 30
0.0
 40
0.5625000000000001
  1
CLEAR
 41
0.75
 72
     1
 11
7.012749094043194
 21
3.303346101120647
 31
0.0
100
AcDbText
  0
TEXT
  5
821
330
1E
100
AcDbEntity
  8
TEXT
100
AcDbText
 10
5.290092844043194
 20
0.9284103431400314
 30
0.0
 40
0.5625000000000001
  1
NBD-10469
 41
0.75
 72
     1
 11
7.012749094043194
 21
0.9284103431400314
 31
0.0
100
AcDbText
  0
LINE
  5
822
330
1E
100
AcDbEntity
  8
TITLE
100
AcDbLine
 10
69.47099999999996
 20
4.986553475935822
 30
0.0
 11
0.2789999999999964
 21
4.986553475935822
 31
0.0
  0
TEXT
  5
823
330
1E
100
AcDbEntity
  8
TEXT
100
AcDbText
 10
39.24210498594543
 20
3.693592780748696
 30
0.0
 40
0.7029000000000001
  1
DIMENSIONS
 41
0.75
 72
     4
 11
41.61439248594542
 21
4.045042780748696
 31
0.0
100
AcDbText
  0
TEXT
  5
824
330
1E
100
AcDbEntity
  8
TEXT
100
AcDbText
 10
34.32495385361236
 20
5.998903163281349
 30
0.0
 40
0.5631016042780752
  1
DIMENSIONS =
 41
0.75
100
AcDbText
  0
TEXT
  5
825
330
1E
100
AcDbEntity
  8
TEXT
100
AcDbText
 10
40.59325906201112
 20
6.482127657310664
 30
0.0
 40
0.5631016042780752
  1
INCHES
 41
0.75
 72
     1
 11
41.71946227056728
 21
6.482127657310664
 31
0.0
100
AcDbText
  0
TEXT
  5
826
330
1E
100
AcDbEntity
  8
TEXT
100
AcDbText
 10
39.32628045238546
 20
5.543624983513874
 30
0.0
 40
0.5631016042780752
  1
[MILLIMETERS]
 41
0.75
 72
     1
 11
41.71946227056728
 21
5.543624983513874
 31
0.0
100
AcDbText
  0
TEXT
  5
827
330
1E
100
AcDbEntity
  8
TEXT
100
AcDbText
 10
56.87945392310614
 20
42.41165284110451
 30
0.0
 40
0.5624999999999999
  1
%%UINDUSTRY STANDARDS:
 41
0.75
100
AcDbText
  0
TEXT
  5
828
330
1E
100
AcDbEntity
  8
TEXT
100
AcDbText
 10
57.4409237033259
 20
40.5366528411045
 30
0.0
 40
0.5624999999999999
  1
UL508 TYPE 1, 2, 4, 4X INDOOR,
 41
0.75
100
AcDbText
  0
TEXT
  5
829
330
1E
100
AcDbEntity
  8
TEXT
100
AcDbText
 10
57.4409237033259
 20
38.66165284110449
 30
0.0
 40
0.5624999999999999
  1
NEMA TYPE 1, 2, 4, 4X, 12 & 13
 41
0.75
100
AcDbText
  0
TEXT
  5
82A
330
1E
100
AcDbEntity
  8
TEXT
100
AcDbText
 10
57.4409237033259
 20
37.72415284110451
 30
0.0
 40
0.5624999999999999
  1
IEC529-IP65
 41
0.75
100
AcDbText
  0
TEXT
  5
82B
330
1E
100
AcDbEntity
  8
TEXT
100
AcDbText
 10
11.61815673184728
 20
39.60491115647418
 30
0.0
 40
0.5624999999999999
  1
UL94-5VB FLAMMABILITY RATING
 41
0.75
100
AcDbText
  0
TEXT
  5
82D
330
1E
100
AcDbEntity
  8
TEXT
100
AcDbText
 10
14.54625560133072
 20
7.890948552831547
 30
0.0
 40
0.5631016042780752
  1
%%UNOTE%%U: ALL DIMENSIONS HAVE %%P0.039 [%%P1] TOLERANCE
 41
0.75
100
AcDbText
  0
TEXT
  5
82E
330
1E
100
AcDbEntity
  8
TEXT
100
AcDbText
 10
16.35101844217831
 20
6.97831305817912
 30
0.0
 40
0.5631016042780752
  1
 UNLESS OTHERWISE SPECIFIED
 41
0.75
100
AcDbText
  0
LINE
  5
82F
330
1E
100
AcDbEntity
  8
TITLE
100
AcDbLine
 10
69.47099999999996
 20
1.220510695187153
 30
0.0
 11
13.7575924859454
 21
1.220510695187153
 31
0.0
  0
TEXT
  5
830
330
1E
100
AcDbEntity
  8
TEXT
100
AcDbText
 10
11.61815673184728
 20
36.80392778721357
 30
0.0
 40
0.5624999999999999
  1
UL94V-0 FLAMMABILITY RATING
 41
0.75
100
AcDbText
  0
LINE
  5
831
330
1E
100
AcDbEntity
  8
TITLE
100
AcDbLine
 10
4.764467963409117
 20
0.2790000000000052
 30
0.0
 11
4.764467963409146
 21
4.045042780748675
 31
0.0
  0
LINE
  5
832
330
1E
100
AcDbEntity
  8
TITLE
100
AcDbLine
 10
13.75759248594545
 20
6.869574866310162
 30
0.0
 11
0.2790000000000106
 21
6.869574866310161
 31
0.0
  0
TEXT
  5
833
330
1E
100
AcDbEntity
  8
TEXT
100
AcDbText
 10
3.501216265643343
 20
6.127878186682155
 30
0.0
 40
0.5625000000000001
  1
INDOOR
 41
0.75
 72
     1
 11
4.626216265643343
 21
6.127878186682155
 31
0.0
100
AcDbText
  0
TEXT
  5
834
330
1E
100
AcDbEntity
  8
TEXT
100
AcDbText
 10
3.219966265643343
 20
5.167692505576185
 30
0.0
 40
0.5625000000000001
  1
VERSION
 41
0.75
 72
     1
 11
4.626216265643343
 21
5.167692505576185
 31
0.0
100
AcDbText
  0
TEXT
  5
835
330
1E
100
AcDbEntity
  8
TEXT
100
AcDbText
 10
10.45462385531136
 20
2.343160420014649
 30
0.0
 40
0.5625000000000001
  1
COVER
 41
0.75
 72
     1
 11
11.50931135531136
 21
2.343160420014649
 31
0.0
100
AcDbText
  0
TEXT
  5
836
330
1E
100
AcDbEntity
  8
TEXT
100
AcDbText
 10
9.751498855311339
 20
0.9284103431400314
 30
0.0
 40
0.5625000000000001
  1
NBD-15449
 41
0.75
 72
     1
 11
11.50931135531134
 21
0.9284103431400314
 31
0.0
100
AcDbText
  0
TEXT
  5
837
330
1E
100
AcDbEntity
  8
TEXT
100
AcDbText
 10
10.59524885531136
 20
3.303346101120647
 30
0.0
 40
0.5625000000000001
  1
SOLID
 41
0.75
 72
     1
 11
11.50931135531136
 21
3.303346101120647
 31
0.0
100
AcDbText
  0
TEXT
  5
838
330
1E
100
AcDbEntity
  8
TEXT
100
AcDbText
 10
10.10306135531136
 20
5.167692505576185
 30
0.0
 40
0.5625000000000001
  1
VERSION
 41
0.75
 72
     1
 11
11.50931135531136
 21
5.167692505576185
 31
0.0
100
AcDbText
  0
TEXT
  5
839
330
1E
100
AcDbEntity
  8
TEXT
100
AcDbText
 10
10.10306135531136
 20
6.127878186682155
 30
0.0
 40
0.5625000000000001
  1
OUTDOOR
 41
0.75
 72
     1
 11
11.50931135531136
 21
6.127878186682155
 31
0.0
100
AcDbText
  0
TEXT
  5
83A
330
1E
100
AcDbEntity
  8
TEXT
100
AcDbText
 10
10.03274885531136
 20
4.240669863993931
 30
0.0
 40
0.5625000000000001
  1
PART NO.
 41
0.75
 72
     1
 11
11.50931135531136
 21
4.240669863993931
 31
0.0
100
AcDbText
  0
TEXT
  5
83B
330
1E
100
AcDbEntity
  8
TEXT
100
AcDbText
 10
57.4409237033259
 20
41.47415284110453
 30
0.0
 40
0.5624999999999999
  1
%%uINDOOR VERSION
 41
0.75
100
AcDbText
  0
TEXT
  5
83C
330
1E
100
AcDbEntity
  8
TEXT
100
AcDbText
 10
57.4409237033259
 20
34.02232884309424
 30
0.0
 40
0.5624999999999999
  1
NEMA TYPE 1, 2, 4, 4X, 12 & 13
 41
0.75
100
AcDbText
  0
TEXT
  5
83D
330
1E
100
AcDbEntity
  8
TEXT
100
AcDbText
 10
57.4409237033259
 20
34.95982884309424
 30
0.0
 40
0.5624999999999999
  1
UL508 TYPE 1, 2, 4, 4X, 12 & 13
 41
0.75
100
AcDbText
  0
TEXT
  5
83E
330
1E
100
AcDbEntity
  8
TEXT
100
AcDbText
 10
57.4409237033259
 20
35.89732884309423
 30
0.0
 40
0.5624999999999999
  1
%%uOUTDOOR VERSION
 41
0.75
100
AcDbText
  0
TEXT
  5
83F
330
1E
100
AcDbEntity
  8
TEXT
100
AcDbText
 10
57.4409237033259
 20
33.08482884309424
 30
0.0
 40
0.5624999999999999
  1
IEC529-IP65
 41
0.75
100
AcDbText
  0
TEXT
  5
840
330
1E
100
AcDbEntity
  8
TEXT
100
AcDbText
 10
11.61815673184728
 20
37.74142778721358
 30
0.0
 40
0.5624999999999999
  1
POLYCARBONATE PLASTIC
 41
0.75
100
AcDbText
  0
LINE
  5
841
330
1E
100
AcDbEntity
  8
TEXT
100
AcDbLine
 10
43.85530374880246
 20
41.47415284110451
 30
0.0
 11
45.72014627119952
 21
41.47415284110451
 31
0.0
  0
TEXT
  5
842
330
1E
100
AcDbEntity
  8
TEXT
100
AcDbText
 10
46.0008811613094
 20
40.5366528411045
 30
0.0
 40
0.5624999999999999
  1
LIGHT GRAY OR CLEAR
 41
0.75
100
AcDbText
  0
TEXT
  5
843
330
1E
100
AcDbEntity
  8
TEXT
100
AcDbText
 10
11.61815673184728
 20
40.54241115647417
 30
0.0
 40
0.5624999999999999
  1
ABS/PC BLENDED PLASTIC
 41
0.75
100
AcDbText
  0
LINE
  5
844
330
1E
100
AcDbEntity
  8
TEXT
100
AcDbLine
 10
6.928854885339301
 20
37.74142778721358
 30
0.0
 11
11.33742184173739
 21
37.74142778721358
 31
0.0
  0
LINE
  5
845
330
1E
100
AcDbEntity
  8
TEXT
100
AcDbLine
 10
44.39572650710212
 20
40.5366528411045
 30
0.0
 11
45.72014627119952
 21
40.5366528411045
 31
0.0
  0
TEXT
  5
846
330
1E
100
AcDbEntity
  8
TEXT
100
AcDbText
 10
2.032001234004924
 20
40.54241115647417
 30
0.0
 40
0.5624999999999999
  1
SOLID BODY & COVER
 41
0.75
100
AcDbText
  0
TEXT
  5
847
330
1E
100
AcDbEntity
  8
TEXT
100
AcDbText
 10
2.032001234004924
 20
37.74142778721358
 30
0.0
 40
0.5624999999999999
  1
CLEAR COVER
 41
0.75
100
AcDbText
  0
TEXT
  5
848
330
1E
100
AcDbEntity
  8
TEXT
100
AcDbText
 10
42.07950544609444
 20
40.5366528411045
 30
0.0
 40
0.5624999999999999
  1
COVER
 41
0.75
100
AcDbText
  0
TEXT
  5
849
330
1E
100
AcDbEntity
  8
TEXT
100
AcDbText
 10
1.340469780219766
 20
41.4799111564742
 30
0.0
 40
0.5624999999999999
  1
%%UINDOOR VERSION
 41
0.75
100
AcDbText
  0
TEXT
  5
84A
330
1E
100
AcDbEntity
  8
TEXT
100
AcDbText
 10
42.07950544609444
 20
41.47415284110451
 30
0.0
 40
0.5624999999999999
  1
BODY
 41
0.75
100
AcDbText
  0
TEXT
  5
84B
330
1E
100
AcDbEntity
  8
TEXT
100
AcDbText
 10
41.38797399230928
 20
42.41165284110451
 30
0.0
 40
0.5624999999999999
  1
%%UFINISH:
 41
0.75
100
AcDbText
  0
LINE
  5
84C
330
1E
100
AcDbEntity
  8
TEXT
100
AcDbLine
 10
9.794281773961193
 20
40.54241115647417
 30
0.0
 11
11.33742184173739
 21
40.54241115647417
 31
0.0
  0
TEXT
  5
84D
330
1E
100
AcDbEntity
  8
TEXT
100
AcDbText
 10
46.00088116130939
 20
41.47415284110451
 30
0.0
 40
0.5624999999999999
  1
LIGHT GRAY
 41
0.75
100
AcDbText
  0
TEXT
  5
84E
330
1E
100
AcDbEntity
  8
TEXT
100
AcDbText
 10
0.7789999999999875
 20
42.41165284110451
 30
0.0
 40
0.5624999999999999
  1
%%UMATERIAL:
 41
0.75
100
AcDbText
  0
TEXT
  5
850
330
1E
100
AcDbEntity
  8
TEXT
100
AcDbText
 10
11.61815673184728
 20
35.87363932567514
 30
0.0
 40
0.5624999999999999
  1
UV STABILIZED
 41
0.75
100
AcDbText
  0
TEXT
  5
851
330
1E
100
AcDbEntity
  8
TEXT
100
AcDbText
 10
11.61815673184728
 20
33.06183864872215
 30
0.0
 40
0.5624999999999999
  1
UL94-5VA FLAMMABILITY RATING
 41
0.75
100
AcDbText
  0
TEXT
  5
853
330
1E
100
AcDbEntity
  8
TEXT
100
AcDbText
 10
11.61815673184728
 20
32.1315501871837
 30
0.0
 40
0.5624999999999999
  1
UV STABILIZED
 41
0.75
100
AcDbText
  0
TEXT
  5
854
330
1E
100
AcDbEntity
  8
TEXT
100
AcDbText
 10
2.032001234004924
 20
33.99933864872217
 30
0.0
 40
0.5624999999999999
  1
SOLID BODY & COVER
 41
0.75
100
AcDbText
  0
TEXT
  5
855
330
1E
100
AcDbEntity
  8
TEXT
100
AcDbText
 10
1.340469780219766
 20
34.93683864872217
 30
0.0
 40
0.5624999999999999
  1
%%UOUTDOOR VERSION
 41
0.75
100
AcDbText
  0
TEXT
  5
856
330
1E
100
AcDbEntity
  8
TEXT
100
AcDbText
 10
11.61815673184728
 20
33.99933864872217
 30
0.0
 40
0.5624999999999999
  1
PBT/PC BLENDED PLASTIC
 41
0.75
100
AcDbText
  0
LINE
  5
857
330
1E
100
AcDbEntity
  8
TEXT
100
AcDbLine
 10
9.76204539277057
 20
33.99933864872217
 30
0.0
 11
11.33742184173739
 21
33.99933864872217
 31
0.0
  0
TEXT
  5
858
330
1E
100
AcDbEntity
  8
TEXT
100
AcDbText
 10
41.38797399230928
 20
38.66146625179217
 30
0.0
 40
0.5624999999999999
  1
COVER INCLUDES GRAY POLY-
 41
0.75
100
AcDbText
  0
LINE
  5
859
330
1E
100
AcDbEntity
  8
TITLE
100
AcDbLine
 10
9.261030224677263
 20
0.2790000000000052
 30
0.0
 11
9.261030224677291
 21
6.869574866310162
 31
0.0
  0
LINE
  5
85A
330
1E
100
AcDbEntity
  8
TITLE
100
AcDbLine
 10
13.75759248594542
 20
0.2790000000000052
 30
0.0
 11
13.75759248594545
 21
6.869574866310162
 31
0.0
  0
LINE
  5
85B
330
1E
100
AcDbEntity
  8
TITLE
100
AcDbLine
 10
16.54327248594542
 20
0.2790000000000052
 30
0.0
 11
16.54327248594543
 21
3.103532085561491
 31
0.0
  0
LINE
  5
85C
330
1E
100
AcDbEntity
  8
TITLE
100
AcDbLine
 10
19.32895248594542
 20
0.2790000000000052
 30
0.0
 11
19.32895248594543
 21
3.103532085561491
 31
0.0
  0
LINE
  5
85D
330
1E
100
AcDbEntity
  8
TITLE
100
AcDbLine
 10
22.11463248594542
 20
0.2790000000000052
 30
0.0
 11
22.11463248594543
 21
3.103532085561491
 31
0.0
  0
LINE
  5
85E
330
1E
100
AcDbEntity
  8
TITLE
100
AcDbLine
 10
24.90031248594542
 20
0.2790000000000052
 30
0.0
 11
24.90031248594543
 21
3.103532085561491
 31
0.0
  0
LINE
  5
85F
330
1E
100
AcDbEntity
  8
TITLE
100
AcDbLine
 10
27.68599248594542
 20
0.2790000000000052
 30
0.0
 11
27.68599248594543
 21
3.103532085561491
 31
0.0
  0
LINE
  5
860
330
1E
100
AcDbEntity
  8
TITLE
100
AcDbLine
 10
30.47167248594542
 20
0.2790000000000052
 30
0.0
 11
30.47167248594543
 21
3.103532085561491
 31
0.0
  0
LINE
  5
861
330
1E
100
AcDbEntity
  8
TITLE
100
AcDbLine
 10
33.25735248594543
 20
0.2790000000000052
 30
0.0
 11
33.25735248594543
 21
3.103532085561491
 31
0.0
  0
LINE
  5
862
330
1E
100
AcDbEntity
  8
TITLE
100
AcDbLine
 10
36.04303248594542
 20
0.2790000000000052
 30
0.0
 11
36.04303248594543
 21
3.103532085561491
 31
0.0
  0
LINE
  5
863
330
1E
100
AcDbEntity
  8
TITLE
100
AcDbLine
 10
38.82871248594542
 20
0.2790000000000052
 30
0.0
 11
38.82871248594543
 21
3.103532085561491
 31
0.0
  0
LINE
  5
864
330
1E
100
AcDbEntity
  8
TITLE
100
AcDbLine
 10
41.61439248594542
 20
0.2790000000000052
 30
0.0
 11
41.61439248594542
 21
3.103532085561491
 31
0.0
  0
LINE
  5
865
330
1E
100
AcDbEntity
  8
TITLE
100
AcDbLine
 10
44.40007248594542
 20
0.2790000000000052
 30
0.0
 11
44.40007248594544
 21
3.103532085561491
 31
0.0
  0
LINE
  5
866
330
1E
100
AcDbEntity
  8
TITLE
100
AcDbLine
 10
47.18575248594542
 20
0.2790000000000052
 30
0.0
 11
47.18575248594544
 21
3.103532085561491
 31
0.0
  0
LINE
  5
867
330
1E
100
AcDbEntity
  8
TITLE
100
AcDbLine
 10
49.97143248594543
 20
0.2790000000000052
 30
0.0
 11
49.97143248594543
 21
3.103532085561491
 31
0.0
  0
LINE
  5
868
330
1E
100
AcDbEntity
  8
TITLE
100
AcDbLine
 10
52.75711248594543
 20
0.2790000000000052
 30
0.0
 11
52.75711248594544
 21
3.103532085561491
 31
0.0
  0
LINE
  5
869
330
1E
100
AcDbEntity
  8
TITLE
100
AcDbLine
 10
55.54279248594543
 20
0.2790000000000052
 30
0.0
 11
55.54279248594544
 21
3.103532085561491
 31
0.0
  0
LINE
  5
86A
330
1E
100
AcDbEntity
  8
TITLE
100
AcDbLine
 10
58.32847248594543
 20
0.2790000000000052
 30
0.0
 11
58.32847248594543
 21
3.103532085561491
 31
0.0
  0
LINE
  5
86B
330
1E
100
AcDbEntity
  8
TITLE
100
AcDbLine
 10
61.11415248594543
 20
0.2790000000000052
 30
0.0
 11
61.11415248594544
 21
3.103532085561491
 31
0.0
  0
LINE
  5
86C
330
1E
100
AcDbEntity
  8
TITLE
100
AcDbLine
 10
63.89983248594543
 20
0.2790000000000052
 30
0.0
 11
63.89983248594543
 21
3.103532085561491
 31
0.0
  0
LINE
  5
86D
330
1E
100
AcDbEntity
  8
TITLE
100
AcDbLine
 10
66.68551248594543
 20
0.2790000000000052
 30
0.0
 11
66.68551248594543
 21
3.103532085561491
 31
0.0
  0
TEXT
  5
86F
330
1E
100
AcDbEntity
  8
TEXT
100
AcDbText
 10
58.00239348354566
 20
39.59915284110451
 30
0.0
 40
0.5624999999999999
  1
12 & 13
 41
0.75
100
AcDbText
  0
TEXT
  5
A04
330
1E
100
AcDbEntity
  8
TEXT
100
AcDbText
 10
41.38797399230928
 20
37.72377966247968
 30
0.0
 40
0.5624999999999999
  1
   URETHANE GASKET.
 41
0.75
100
AcDbText
  0
TEXT
  5
A0F
330
1E
100
AcDbEntity
  8
TEXT
100
AcDbText
 10
63.58482860721005
 20
-0.7187231682026703
 30
0.0
 40
0.5625
  1
Revised 26JUN07
 41
0.75
 72
     4
 11
66.50279735721006
 21
-0.4374731682026703
 31
0.0
100
AcDbText
  0
TEXT
  5
A16
330
1E
100
AcDbEntity
  8
DIM
100
AcDbText
 10
4.841502262553291
 20
8.372289320577991
 30
0.0
 40
0.5625
  1
(4) PLACES
 41
0.75
 11
4.841502262553291
 21
8.653539320577991
 31
0.0
100
AcDbText
 73
     2
  0
TEXT
  5
A17
330
1E
100
AcDbEntity
  8
DIM
100
AcDbText
 10
59.19246379760062
 20
26.54622154831368
 30
0.0
 40
0.5625
  1
(4) PLACES
 41
0.75
 11
59.19246379760062
 21
26.82747154831368
 31
0.0
100
AcDbText
 73
     2
  0
TEXT
  5
A18
330
1E
100
AcDbEntity
  8
DIM
100
AcDbText
 10
59.6586766838606
 20
8.696970209216608
 30
0.0
 40
0.5625
  1
OR #10 STD. SHEET METAL
 41
0.75
 11
59.6586766838606
 21
8.978220209216608
 31
0.0
100
AcDbText
 73
     2
  0
TEXT
  5
A19
330
1E
100
AcDbEntity
  8
DIM
100
AcDbText
 10
59.6586766838606
 20
7.759470209216594
 30
0.0
 40
0.5625
  1
SCREWS x 0.250 [6] LG.
 41
0.75
 11
59.6586766838606
 21
8.040720209216594
 31
0.0
100
AcDbText
 73
     2
  0
TEXT
  5
A1B
330
1E
100
AcDbEntity
  8
DIM
100
AcDbText
 10
59.6586766838606
 20
6.82197020921658
 30
0.0
 40
0.5625
  1
(NOT SUPPLIED)
 41
0.75
 11
59.6586766838606
 21
7.10322020921658
 31
0.0
100
AcDbText
 73
     2
  0
ENDSEC
  0
SECTION
  2
OBJECTS
  0
DICTIONARY
  5
C
330
0
100
AcDbDictionary
281
     1
  3
ACAD_GROUP
350
D
  3
ACAD_LAYOUT
350
19
  3
ACAD_MLINESTYLE
350
16
  3
ACAD_PLOTSETTINGS
350
18
  3
ACAD_PLOTSTYLENAME
350
E
  0
DICTIONARY
  5
D
102
{ACAD_REACTORS
330
C
102
}
330
C
100
AcDbDictionary
281
     1
  0
DICTIONARY
  5
19
102
{ACAD_REACTORS
330
C
102
}
330
C
100
AcDbDictionary
281
     1
  3
Layout1
350
1D
  3
Model
350
21
  0
DICTIONARY
  5
16
102
{ACAD_REACTORS
330
C
102
}
330
C
100
AcDbDictionary
281
     1
  3
Standard
350
17
  0
DICTIONARY
  5
18
102
{ACAD_REACTORS
330
C
102
}
330
C
100
AcDbDictionary
281
     1
  0
ACDBDICTIONARYWDFLT
  5
E
102
{ACAD_REACTORS
330
C
102
}
330
C
100
AcDbDictionary
281
     1
  3
Normal
350
F
100
AcDbDictionaryWithDefault
340
F
  0
LAYOUT
  5
1D
102
{ACAD_REACTORS
330
19
102
}
330
19
100
AcDbPlotSettings
  1

  2
None
  4

  6

 40
0.0
 41
0.0
 42
0.0
 43
0.0
 44
0.0
 45
0.0
 46
0.0
 47
0.0
 48
0.0
 49
0.0
140
0.0
141
0.0
142
1.0
143
1.0
 70
   688
 72
     0
 73
     0
 74
     5
  7
monochrome.ctb
 75
    16
147
1.0
148
0.0
149
0.0
100
AcDbLayout
  1
Layout1
 70
     1
 71
     1
 10
0.0
 20
0.0
 11
12.0
 21
9.0
 12
0.0
 22
0.0
 32
0.0
 14
1.000000000000000E+20
 24
1.000000000000000E+20
 34
1.000000000000000E+20
 15
-1.000000000000000E+20
 25
-1.000000000000000E+20
 35
-1.000000000000000E+20
146
0.0
 13
0.0
 23
0.0
 33
0.0
 16
1.0
 26
0.0
 36
0.0
 17
0.0
 27
1.0
 37
0.0
 76
     0
330
1A
  0
LAYOUT
  5
21
102
{ACAD_REACTORS
330
19
102
}
330
19
100
AcDbPlotSettings
  1

  2
RICOH Aficio 1060 PCL 6
  4
Letter
  6

 40
5.027083396911621
 41
5.027085304260253
 42
5.027084350585937
 43
5.027069091796875
 44
215.8999938964843
 45
279.3999938964843
 46
13.71599999999999
 47
0.0
 48
0.0
 49
0.0
140
0.0
141
0.0
142
1.0
143
6.57820515359383
 70
 11956
 72
     0
 73
     1
 74
     1
  7
monochrome.ctb
 75
     0
147
0.1520171500661812
148
0.0810782497269543
149
18.30934017570374
100
AcDbLayout
  1
Model
 70
     1
 71
     0
 10
0.0
 20
0.0
 11
12.0
 21
9.0
 12
0.0
 22
0.0
 32
0.0
 14
0.0
 24
0.0
 34
0.0
 15
0.0
 25
0.0
 35
0.0
146
0.0
 13
0.0
 23
0.0
 33
0.0
 16
1.0
 26
0.0
 36
0.0
 17
0.0
 27
1.0
 37
0.0
 76
     0
330
1E
  0
MLINESTYLE
  5
17
102
{ACAD_REACTORS
330
16
102
}
330
16
100
AcDbMlineStyle
  2
STANDARD
 70
     0
  3

 62
   256
 51
90.0
 52
90.0
 71
     2
 49
0.5
 62
   256
  6
BYLAYER
 49
-0.5
 62
   256
  6
BYLAYER
  0
ACDBPLACEHOLDER
  5
F
102
{ACAD_REACTORS
330
E
102
}
330
E
  0
ENDSEC
  0
EOF
