  0
SECTION
  2
HEADER
  9
$ACADVER
  1
AC1015
  9
$ACADMAINTVER
 70
     6
  9
$DWGCODEPAGE
  3
ANSI_1252
  9
$INSBASE
 10
0.0
 20
0.0
 30
0.0
  9
$EXTMIN
 10
0.0000000000000142
 20
-0.7456825316375984
 30
0.0
  9
$EXTMAX
 10
69.75000000000001
 20
45.53999999999999
 30
0.0
  9
$LIMMIN
 10
0.0
 20
0.0
  9
$LIMMAX
 10
69.75
 20
45.53999999999999
  9
$ORTHOMODE
 70
     1
  9
$REGENMODE
 70
     1
  9
$FILLMODE
 70
     1
  9
$QTEXTMODE
 70
     0
  9
$MIRRTEXT
 70
     0
  9
$LTSCALE
 40
1.75
  9
$ATTMODE
 70
     1
  9
$TEXTSIZE
 40
0.5
  9
$TRACEWID
 40
0.05
  9
$TEXTSTYLE
  7
TXT
  9
$CLAYER
  8
OBJECT
  9
$CELTYPE
  6
ByLayer
  9
$CECOLOR
 62
   256
  9
$CELTSCALE
 40
1.0
  9
$DISPSILH
 70
     0
  9
$DIMSCALE
 40
4.5
  9
$DIMASZ
 40
0.18
  9
$DIMEXO
 40
0.063
  9
$DIMDLI
 40
0.25
  9
$DIMRND
 40
0.0
  9
$DIMDLE
 40
0.0
  9
$DIMEXE
 40
0.093
  9
$DIMTP
 40
0.0
  9
$DIMTM
 40
0.0
  9
$DIMTXT
 40
0.125
  9
$DIMCEN
 40
0.09
  9
$DIMTSZ
 40
0.0
  9
$DIMTOL
 70
     0
  9
$DIMLIM
 70
     0
  9
$DIMTIH
 70
     1
  9
$DIMTOH
 70
     1
  9
$DIMSE1
 70
     0
  9
$DIMSE2
 70
     0
  9
$DIMTAD
 70
     0
  9
$DIMZIN
 70
     0
  9
$DIMBLK
  1

  9
$DIMASO
 70
     1
  9
$DIMSHO
 70
     1
  9
$DIMPOST
  1

  9
$DIMAPOST
  1

  9
$DIMALT
 70
     1
  9
$DIMALTD
 70
     0
  9
$DIMALTF
 40
25.4
  9
$DIMLFAC
 40
1.0
  9
$DIMTOFL
 70
     0
  9
$DIMTVP
 40
0.0
  9
$DIMTIX
 70
     0
  9
$DIMSOXD
 70
     0
  9
$DIMSAH
 70
     0
  9
$DIMBLK1
  1

  9
$DIMBLK2
  1

  9
$DIMSTYLE
  2
23NSTD
  9
$DIMCLRD
 70
     0
  9
$DIMCLRE
 70
     0
  9
$DIMCLRT
 70
     0
  9
$DIMTFAC
 40
1.0
  9
$DIMGAP
 40
0.09
  9
$DIMJUST
 70
     0
  9
$DIMSD1
 70
     0
  9
$DIMSD2
 70
     0
  9
$DIMTOLJ
 70
     1
  9
$DIMTZIN
 70
     0
  9
$DIMALTZ
 70
     0
  9
$DIMALTTZ
 70
     0
  9
$DIMUPT
 70
     0
  9
$DIMDEC
 70
     3
  9
$DIMTDEC
 70
     3
  9
$DIMALTU
 70
     2
  9
$DIMALTTD
 70
     0
  9
$DIMTXSTY
  7
TXT
  9
$DIMAUNIT
 70
     0
  9
$DIMADEC
 70
     0
  9
$DIMALTRND
 40
0.0
  9
$DIMAZIN
 70
     0
  9
$DIMDSEP
 70
    46
  9
$DIMATFIT
 70
     1
  9
$DIMFRAC
 70
     0
  9
$DIMLDRBLK
  1

  9
$DIMLUNIT
 70
     2
  9
$DIMLWD
 70
    -2
  9
$DIMLWE
 70
    -2
  9
$DIMTMOVE
 70
     0
  9
$LUNITS
 70
     2
  9
$LUPREC
 70
     3
  9
$SKETCHINC
 40
0.1
  9
$FILLETRAD
 40
0.0
  9
$AUNITS
 70
     0
  9
$AUPREC
 70
     0
  9
$MENU
  1
acad
  9
$ELEVATION
 40
0.0
  9
$PELEVATION
 40
0.0
  9
$THICKNESS
 40
0.0
  9
$LIMCHECK
 70
     0
  9
$CHAMFERA
 40
0.0
  9
$CHAMFERB
 40
0.0
  9
$CHAMFERC
 40
0.0
  9
$CHAMFERD
 40
0.0
  9
$SKPOLY
 70
     0
  9
$TDCREATE
 40
2451066.431661574
  9
$TDUCREATE
 40
2451066.598328240
  9
$TDUPDATE
 40
2454306.465207060
  9
$TDUUPDATE
 40
2454306.631873726
  9
$TDINDWG
 40
1.0362299884
  9
$TDUSRTIMER
 40
1.0362299884
  9
$USRTIMER
 70
     1
  9
$ANGBASE
 50
0.0
  9
$ANGDIR
 70
     0
  9
$PDMODE
 70
     0
  9
$PDSIZE
 40
0.0
  9
$PLINEWID
 40
0.0
  9
$SPLFRAME
 70
     0
  9
$SPLINETYPE
 70
     6
  9
$SPLINESEGS
 70
     8
  9
$HANDSEED
  5
CD5
  9
$SURFTAB1
 70
     6
  9
$SURFTAB2
 70
     6
  9
$SURFTYPE
 70
     6
  9
$SURFU
 70
     6
  9
$SURFV
 70
     6
  9
$UCSBASE
  2

  9
$UCSNAME
  2

  9
$UCSORG
 10
0.0
 20
0.0
 30
0.0
  9
$UCSXDIR
 10
1.0
 20
0.0
 30
0.0
  9
$UCSYDIR
 10
0.0
 20
1.0
 30
0.0
  9
$UCSORTHOREF
  2

  9
$UCSORTHOVIEW
 70
     0
  9
$UCSORGTOP
 10
0.0
 20
0.0
 30
0.0
  9
$UCSORGBOTTOM
 10
0.0
 20
0.0
 30
0.0
  9
$UCSORGLEFT
 10
0.0
 20
0.0
 30
0.0
  9
$UCSORGRIGHT
 10
0.0
 20
0.0
 30
0.0
  9
$UCSORGFRONT
 10
0.0
 20
0.0
 30
0.0
  9
$UCSORGBACK
 10
0.0
 20
0.0
 30
0.0
  9
$PUCSBASE
  2

  9
$PUCSNAME
  2

  9
$PUCSORG
 10
0.0
 20
0.0
 30
0.0
  9
$PUCSXDIR
 10
1.0
 20
0.0
 30
0.0
  9
$PUCSYDIR
 10
0.0
 20
1.0
 30
0.0
  9
$PUCSORTHOREF
  2

  9
$PUCSORTHOVIEW
 70
     0
  9
$PUCSORGTOP
 10
0.0
 20
0.0
 30
0.0
  9
$PUCSORGBOTTOM
 10
0.0
 20
0.0
 30
0.0
  9
$PUCSORGLEFT
 10
0.0
 20
0.0
 30
0.0
  9
$PUCSORGRIGHT
 10
0.0
 20
0.0
 30
0.0
  9
$PUCSORGFRONT
 10
0.0
 20
0.0
 30
0.0
  9
$PUCSORGBACK
 10
0.0
 20
0.0
 30
0.0
  9
$USERI1
 70
     0
  9
$USERI2
 70
     0
  9
$USERI3
 70
     0
  9
$USERI4
 70
     0
  9
$USERI5
 70
     0
  9
$USERR1
 40
0.0
  9
$USERR2
 40
0.0
  9
$USERR3
 40
0.0
  9
$USERR4
 40
0.0
  9
$USERR5
 40
0.0
  9
$WORLDVIEW
 70
     1
  9
$SHADEDGE
 70
     3
  9
$SHADEDIF
 70
    70
  9
$TILEMODE
 70
     1
  9
$MAXACTVP
 70
    16
  9
$PINSBASE
 10
0.0
 20
0.0
 30
0.0
  9
$PLIMCHECK
 70
     0
  9
$PEXTMIN
 10
1.000000000000000E+20
 20
1.000000000000000E+20
 30
1.000000000000000E+20
  9
$PEXTMAX
 10
-1.000000000000000E+20
 20
-1.000000000000000E+20
 30
-1.000000000000000E+20
  9
$PLIMMIN
 10
0.0
 20
0.0
  9
$PLIMMAX
 10
12.0
 20
9.0
  9
$UNITMODE
 70
     0
  9
$VISRETAIN
 70
     0
  9
$PLINEGEN
 70
     0
  9
$PSLTSCALE
 70
     1
  9
$TREEDEPTH
 70
  3020
  9
$CMLSTYLE
  2
Standard
  9
$CMLJUST
 70
     0
  9
$CMLSCALE
 40
1.0
  9
$PROXYGRAPHICS
 70
     1
  9
$MEASUREMENT
 70
     0
  9
$CELWEIGHT
370
    -1
  9
$ENDCAPS
280
     0
  9
$JOINSTYLE
280
     0
  9
$LWDISPLAY
290
     0
  9
$INSUNITS
 70
     0
  9
$HYPERLINKBASE
  1

  9
$STYLESHEET
  1
monochrome.ctb
  9
$XEDIT
290
     1
  9
$CEPSNTYPE
380
     0
  9
$PSTYLEMODE
290
     1
  9
$FINGERPRINTGUID
  2
{647CD436-CE23-454D-9DFC-DC893DEBA72A}
  9
$VERSIONGUID
  2
{C0596ADD-0E48-485A-85FF-0B0D74605C13}
  9
$EXTNAMES
290
     1
  9
$PSVPSCALE
 40
0.0
  9
$OLESTARTUP
290
     0
  0
ENDSEC
  0
SECTION
  2
CLASSES
  0
CLASS
  1
ACDBDICTIONARYWDFLT
  2
AcDbDictionaryWithDefault
  3
AutoCAD 2000
 90
        0
280
     0
281
     0
  0
CLASS
  1
ACDBPLACEHOLDER
  2
AcDbPlaceHolder
  3
AutoCAD 2000
 90
        0
280
     0
281
     0
  0
CLASS
  1
LAYOUT
  2
AcDbLayout
  3
AutoCAD 2000
 90
        0
280
     0
281
     0
  0
ENDSEC
  0
SECTION
  2
TABLES
  0
TABLE
  2
VPORT
  5
8
330
0
100
AcDbSymbolTable
 70
     2
  0
VPORT
  5
CD4
330
8
100
AcDbSymbolTableRecord
100
AcDbViewportTableRecord
  2
*Active
 70
     0
 10
0.0
 20
0.0
 11
1.0
 21
1.0
 12
34.91225068124157
 22
22.39649928162165
 13
0.0
 23
0.0
 14
0.125
 24
0.125
 15
1.0
 25
1.0
 16
0.0
 26
0.0
 36
1.0
 17
0.0
 27
0.0
 37
0.0
 40
46.75267900173607
 41
1.824707846410684
 42
50.0
 43
0.0
 44
0.0
 50
0.0
 51
0.0
 71
     0
 72
   100
 73
     1
 74
     0
 75
     0
 76
     0
 77
     0
 78
     0
281
     0
 65
     1
110
0.0
120
0.0
130
0.0
111
1.0
121
0.0
131
0.0
112
0.0
122
1.0
132
0.0
 79
     0
146
0.0
  0
ENDTAB
  0
TABLE
  2
LTYPE
  5
5
330
0
100
AcDbSymbolTable
 70
     7
  0
LTYPE
  5
13
330
5
100
AcDbSymbolTableRecord
100
AcDbLinetypeTableRecord
  2
ByBlock
 70
     0
  3

 72
    65
 73
     0
 40
0.0
  0
LTYPE
  5
14
330
5
100
AcDbSymbolTableRecord
100
AcDbLinetypeTableRecord
  2
ByLayer
 70
     0
  3

 72
    65
 73
     0
 40
0.0
  0
LTYPE
  5
15
330
5
100
AcDbSymbolTableRecord
100
AcDbLinetypeTableRecord
  2
CONTINUOUS
 70
     0
  3
Solid line
 72
    65
 73
     0
 40
0.0
  0
LTYPE
  5
44
330
5
100
AcDbSymbolTableRecord
100
AcDbLinetypeTableRecord
  2
HIDDEN
 70
     0
  3
_ _ _ _ _ _ _ _ _ _ _ _ _ _ _ _ _ _ _ _ _ _ _
 72
    65
 73
     2
 40
0.375
 49
0.25
 74
     0
 49
-0.125
 74
     0
  0
LTYPE
  5
45
330
5
100
AcDbSymbolTableRecord
100
AcDbLinetypeTableRecord
  2
PHANTOM
 70
     0
  3
_____ _ _ _____ _ _ _____ _ _ _____ _ _ ____
 72
    65
 73
     6
 40
2.5
 49
1.25
 74
     0
 49
-0.25
 74
     0
 49
0.25
 74
     0
 49
-0.25
 74
     0
 49
0.25
 74
     0
 49
-0.25
 74
     0
  0
LTYPE
  5
46
330
5
100
AcDbSymbolTableRecord
100
AcDbLinetypeTableRecord
  2
CENTER
 70
     0
  3
____ _ ____ _ ____ _ ____ _ ____ _ ____ _ ____
 72
    65
 73
     4
 40
2.0
 49
1.25
 74
     0
 49
-0.25
 74
     0
 49
0.25
 74
     0
 49
-0.25
 74
     0
  0
LTYPE
  5
47
330
5
100
AcDbSymbolTableRecord
100
AcDbLinetypeTableRecord
  2
HIDDEN2
 70
     0
  3
_ _ _ _ _ _ _ _ _ _ _ _ _ _ _ _ _ _ _ _ _ _ _ _
 72
    65
 73
     2
 40
0.1875
 49
0.125
 74
     0
 49
-0.0625
 74
     0
  0
LTYPE
  5
48
330
5
100
AcDbSymbolTableRecord
100
AcDbLinetypeTableRecord
  2
PHANTOM2
 70
     0
  3
___ _ _ ___ _ _ ___ _ _ ___ _ _ ___ _ _ ___ _ _
 72
    65
 73
     6
 40
1.25
 49
0.625
 74
     0
 49
-0.125
 74
     0
 49
0.125
 74
     0
 49
-0.125
 74
     0
 49
0.125
 74
     0
 49
-0.125
 74
     0
  0
LTYPE
  5
49
330
5
100
AcDbSymbolTableRecord
100
AcDbLinetypeTableRecord
  2
CENTER2
 70
     0
  3
___ _ ___ _ ___ _ ___ _ ___ _ ___ _ ___ _ ___ _
 72
    65
 73
     4
 40
1.125
 49
0.75
 74
     0
 49
-0.125
 74
     0
 49
0.125
 74
     0
 49
-0.125
 74
     0
  0
ENDTAB
  0
TABLE
  2
LAYER
  5
2
330
0
100
AcDbSymbolTable
 70
     9
  0
LAYER
  5
10
330
2
100
AcDbSymbolTableRecord
100
AcDbLayerTableRecord
  2
0
 70
     0
 62
     7
  6
CONTINUOUS
370
    -3
390
F
  0
LAYER
  5
4E
330
2
100
AcDbSymbolTableRecord
100
AcDbLayerTableRecord
  2
OBJECT
 70
     0
 62
     7
  6
CONTINUOUS
370
    -3
390
F
  0
LAYER
  5
4F
330
2
100
AcDbSymbolTableRecord
100
AcDbLayerTableRecord
  2
DIM
 70
     0
 62
     7
  6
CONTINUOUS
370
    -3
390
F
  0
LAYER
  5
50
330
2
100
AcDbSymbolTableRecord
100
AcDbLayerTableRecord
  2
HIDDEN
 70
     0
 62
     7
  6
HIDDEN2
370
    -3
390
F
  0
LAYER
  5
51
330
2
100
AcDbSymbolTableRecord
100
AcDbLayerTableRecord
  2
BEND
 70
     0
 62
     7
  6
PHANTOM
370
    -3
390
F
  0
LAYER
  5
52
330
2
100
AcDbSymbolTableRecord
100
AcDbLayerTableRecord
  2
TEXT
 70
     0
 62
     7
  6
CONTINUOUS
370
    -3
390
F
  0
LAYER
  5
53
330
2
100
AcDbSymbolTableRecord
100
AcDbLayerTableRecord
  2
TITLE
 70
     4
 62
     7
  6
CONTINUOUS
370
    -3
390
F
  0
LAYER
  5
54
330
2
100
AcDbSymbolTableRecord
100
AcDbLayerTableRecord
  2
CENTER
 70
     0
 62
     7
  6
CENTER
370
    -3
390
F
  0
LAYER
  5
55
330
2
100
AcDbSymbolTableRecord
100
AcDbLayerTableRecord
  2
DEFPOINTS
 70
     0
 62
     7
  6
CONTINUOUS
290
     0
370
    -3
390
F
  0
ENDTAB
  0
TABLE
  2
STYLE
  5
3
330
0
100
AcDbSymbolTable
 70
     1
  0
STYLE
  5
11
330
3
100
AcDbSymbolTableRecord
100
AcDbTextStyleTableRecord
  2
TXT
 70
     0
 40
0.0
 41
0.75
 50
0.0
 71
     0
 42
0.5
  3
txt
  4

  0
ENDTAB
  0
TABLE
  2
VIEW
  5
6
330
0
100
AcDbSymbolTable
 70
     0
  0
ENDTAB
  0
TABLE
  2
UCS
  5
7
330
0
100
AcDbSymbolTable
 70
     0
  0
ENDTAB
  0
TABLE
  2
APPID
  5
9
330
0
100
AcDbSymbolTable
 70
     1
  0
APPID
  5
12
330
9
100
AcDbSymbolTableRecord
100
AcDbRegAppTableRecord
  2
ACAD
 70
     0
  0
ENDTAB
  0
TABLE
  2
DIMSTYLE
  5
A
330
0
100
AcDbSymbolTable
 70
     2
100
AcDbDimStyleTable
 71
     2
340
4D
340
4C
  0
DIMSTYLE
105
4C
102
{ACAD_REACTORS
330
2E6
330
2E7
330
2E8
330
2E9
330
2EA
330
2EB
330
2EC
330
2ED
330
2EE
330
2EF
330
2F0
330
2F1
330
2F4
330
2F5
330
309
330
310
330
311
330
312
330
3AD
330
3AE
330
4BE
330
4BF
330
4C0
330
65C
330
699
102
}
330
A
100
AcDbSymbolTableRecord
100
AcDbDimStyleTableRecord
  2
23NSTD
 70
     0
 40
4.5
 42
0.063
 43
0.25
 44
0.093
140
0.125
170
     1
171
     0
271
     3
272
     3
274
     0
289
     1
340
11
  0
DIMSTYLE
105
4D
102
{ACAD_REACTORS
330
2F2
330
2F3
330
30F
330
313
330
314
330
3C8
102
}
330
A
100
AcDbSymbolTableRecord
100
AcDbDimStyleTableRecord
  2
23NSTDI
 70
     0
 40
4.5
 42
0.063
 43
0.25
 44
0.093
140
0.125
170
     1
171
     0
174
     1
271
     3
272
     3
274
     0
340
11
  0
ENDTAB
  0
TABLE
  2
BLOCK_RECORD
  5
1
330
0
100
AcDbSymbolTable
 70
    34
  0
BLOCK_RECORD
  5
1E
330
1
100
AcDbSymbolTableRecord
100
AcDbBlockTableRecord
  2
*Model_Space
340
21
  0
BLOCK_RECORD
  5
1A
330
1
100
AcDbSymbolTableRecord
100
AcDbBlockTableRecord
  2
*Paper_Space
340
1D
  0
BLOCK_RECORD
  5
22
330
1
100
AcDbSymbolTableRecord
100
AcDbBlockTableRecord
  2
HBS
340
0
102
{BLKREFS
331
88F
102
}
  0
BLOCK_RECORD
  5
31
330
1
100
AcDbSymbolTableRecord
100
AcDbBlockTableRecord
  2
*X1
340
0
102
{BLKREFS
331
881
102
}
  0
BLOCK_RECORD
  5
32
330
1
100
AcDbSymbolTableRecord
100
AcDbBlockTableRecord
  2
*X2
340
0
102
{BLKREFS
331
884
102
}
  0
BLOCK_RECORD
  5
8FD
330
1
100
AcDbSymbolTableRecord
100
AcDbBlockTableRecord
  2
*D3
340
0
  0
BLOCK_RECORD
  5
90A
330
1
100
AcDbSymbolTableRecord
100
AcDbBlockTableRecord
  2
*D4
340
0
  0
BLOCK_RECORD
  5
917
330
1
100
AcDbSymbolTableRecord
100
AcDbBlockTableRecord
  2
*D5
340
0
  0
BLOCK_RECORD
  5
924
330
1
100
AcDbSymbolTableRecord
100
AcDbBlockTableRecord
  2
*D6
340
0
  0
BLOCK_RECORD
  5
931
330
1
100
AcDbSymbolTableRecord
100
AcDbBlockTableRecord
  2
*D7
340
0
  0
BLOCK_RECORD
  5
93E
330
1
100
AcDbSymbolTableRecord
100
AcDbBlockTableRecord
  2
*D8
340
0
  0
BLOCK_RECORD
  5
94B
330
1
100
AcDbSymbolTableRecord
100
AcDbBlockTableRecord
  2
*D9
340
0
  0
BLOCK_RECORD
  5
958
330
1
100
AcDbSymbolTableRecord
100
AcDbBlockTableRecord
  2
*D10
340
0
  0
BLOCK_RECORD
  5
965
330
1
100
AcDbSymbolTableRecord
100
AcDbBlockTableRecord
  2
*D11
340
0
  0
BLOCK_RECORD
  5
972
330
1
100
AcDbSymbolTableRecord
100
AcDbBlockTableRecord
  2
*D12
340
0
  0
BLOCK_RECORD
  5
97F
330
1
100
AcDbSymbolTableRecord
100
AcDbBlockTableRecord
  2
*D13
340
0
  0
BLOCK_RECORD
  5
98C
330
1
100
AcDbSymbolTableRecord
100
AcDbBlockTableRecord
  2
*D14
340
0
  0
BLOCK_RECORD
  5
999
330
1
100
AcDbSymbolTableRecord
100
AcDbBlockTableRecord
  2
*D15
340
0
  0
BLOCK_RECORD
  5
9A6
330
1
100
AcDbSymbolTableRecord
100
AcDbBlockTableRecord
  2
*D16
340
0
  0
BLOCK_RECORD
  5
9B3
330
1
100
AcDbSymbolTableRecord
100
AcDbBlockTableRecord
  2
*D17
340
0
  0
BLOCK_RECORD
  5
9C0
330
1
100
AcDbSymbolTableRecord
100
AcDbBlockTableRecord
  2
*D18
340
0
  0
BLOCK_RECORD
  5
9CD
330
1
100
AcDbSymbolTableRecord
100
AcDbBlockTableRecord
  2
*D19
340
0
  0
BLOCK_RECORD
  5
9DA
330
1
100
AcDbSymbolTableRecord
100
AcDbBlockTableRecord
  2
*D20
340
0
  0
BLOCK_RECORD
  5
9E7
330
1
100
AcDbSymbolTableRecord
100
AcDbBlockTableRecord
  2
*D21
340
0
  0
BLOCK_RECORD
  5
9F4
330
1
100
AcDbSymbolTableRecord
100
AcDbBlockTableRecord
  2
*D22
340
0
  0
BLOCK_RECORD
  5
A01
330
1
100
AcDbSymbolTableRecord
100
AcDbBlockTableRecord
  2
*D23
340
0
  0
BLOCK_RECORD
  5
A0E
330
1
100
AcDbSymbolTableRecord
100
AcDbBlockTableRecord
  2
*D24
340
0
  0
BLOCK_RECORD
  5
A1B
330
1
100
AcDbSymbolTableRecord
100
AcDbBlockTableRecord
  2
*D25
340
0
  0
BLOCK_RECORD
  5
A28
330
1
100
AcDbSymbolTableRecord
100
AcDbBlockTableRecord
  2
*D26
340
0
  0
BLOCK_RECORD
  5
A35
330
1
100
AcDbSymbolTableRecord
100
AcDbBlockTableRecord
  2
*D27
340
0
  0
BLOCK_RECORD
  5
A42
330
1
100
AcDbSymbolTableRecord
100
AcDbBlockTableRecord
  2
*D28
340
0
  0
BLOCK_RECORD
  5
A4F
330
1
100
AcDbSymbolTableRecord
100
AcDbBlockTableRecord
  2
*D29
340
0
  0
BLOCK_RECORD
  5
A5C
330
1
100
AcDbSymbolTableRecord
100
AcDbBlockTableRecord
  2
*D30
340
0
  0
BLOCK_RECORD
  5
A69
330
1
100
AcDbSymbolTableRecord
100
AcDbBlockTableRecord
  2
*D31
340
0
  0
BLOCK_RECORD
  5
A76
330
1
100
AcDbSymbolTableRecord
100
AcDbBlockTableRecord
  2
*D32
340
0
  0
BLOCK_RECORD
  5
A83
330
1
100
AcDbSymbolTableRecord
100
AcDbBlockTableRecord
  2
*D33
340
0
  0
ENDTAB
  0
ENDSEC
  0
SECTION
  2
BLOCKS
  0
BLOCK
  5
59
330
1E
100
AcDbEntity
  8
0
100
AcDbBlockBegin
  2
*Model_Space
 70
     0
 10
0.0
 20
0.0
 30
0.0
  3
*Model_Space
  1

  0
ENDBLK
  5
5A
330
1E
100
AcDbEntity
  8
0
100
AcDbBlockEnd
  0
BLOCK
  5
57
330
1A
100
AcDbEntity
 67
     1
  8
0
100
AcDbBlockBegin
  2
*Paper_Space
 70
     0
 10
0.0
 20
0.0
 30
0.0
  3
*Paper_Space
  1

  0
ENDBLK
  5
58
330
1A
100
AcDbEntity
 67
     1
  8
0
100
AcDbBlockEnd
  0
BLOCK
  5
5B
330
22
100
AcDbEntity
  8
0
100
AcDbBlockBegin
  2
HBS
 70
     0
 10
0.0
 20
0.0
 30
0.0
  3
HBS
  1

  0
LINE
  5
5C
330
22
100
AcDbEntity
  8
TITLE
100
AcDbLine
 10
0.0619999999999976
 20
9.64
 30
0.0
 11
15.43799999999999
 21
9.640000000000004
 31
0.0
  0
LWPOLYLINE
  5
5D
330
22
100
AcDbEntity
  8
TITLE
100
AcDbPolyline
 90
        4
 70
     1
 43
0.0
 10
15.5
 20
10.11999999999999
 10
15.49999999999999
 20
0.0
 10
0.0
 20
0.0
 10
0.0
 20
10.11999999999999
  0
LWPOLYLINE
  5
63
330
22
100
AcDbEntity
  8
TITLE
100
AcDbPolyline
 90
        4
 70
     1
 43
0.0
 10
15.43799999999999
 20
10.058
 10
15.43799999999999
 20
0.0620000000000012
 10
0.0620000000000012
 20
0.0620000000000012
 10
0.0620000000000012
 20
10.058
  0
TEXT
  5
69
330
22
100
AcDbEntity
  8
TEXT
100
AcDbText
 10
0.2078333333333345
 20
9.680079195640079
 30
0.0
 40
0.125
  1
NAME
 72
     1
 11
0.4370000000000012
 21
9.680079195640079
 31
0.0
100
AcDbText
  0
TEXT
  5
6B
330
22
100
AcDbEntity
  8
TEXT
100
AcDbText
 10
0.2078333333333345
 20
9.888412528973411
 30
0.0
 40
0.125
  1
PART
 72
     1
 11
0.4370000000000012
 21
9.888412528973411
 31
0.0
100
AcDbText
  0
LINE
  5
6C
330
22
100
AcDbEntity
  8
TITLE
100
AcDbLine
 10
0.8120000000000011
 20
9.64
 30
0.0
 11
0.8119999999999976
 21
10.058
 31
0.0
  0
TEXT
  5
6D
330
22
100
AcDbEntity
  8
TEXT
100
AcDbText
 10
7.926833333333331
 20
9.888412528973411
 30
0.0
 40
0.125
  1
PART
 72
     1
 11
8.155999999999998
 21
9.888412528973411
 31
0.0
100
AcDbText
  0
TEXT
  5
6E
330
22
100
AcDbEntity
  8
TEXT
100
AcDbText
 10
8.030999999999998
 20
9.680079195640079
 30
0.0
 40
0.125
  1
No.
 72
     1
 11
8.155999999999998
 21
9.680079195640079
 31
0.0
100
AcDbText
  0
LINE
  5
6F
330
22
100
AcDbEntity
  8
TITLE
100
AcDbLine
 10
7.780999999999998
 20
10.058
 30
0.0
 11
7.780999999999998
 21
9.64
 31
0.0
  0
LINE
  5
70
330
22
100
AcDbEntity
  8
TITLE
100
AcDbLine
 10
7.719000000000001
 20
10.058
 30
0.0
 11
7.719000000000001
 21
9.64
 31
0.0
  0
LINE
  5
71
330
22
100
AcDbEntity
  8
TITLE
100
AcDbLine
 10
8.530999999999998
 20
10.058
 30
0.0
 11
8.530999999999998
 21
9.64
 31
0.0
  0
ENDBLK
  5
72
330
22
100
AcDbEntity
  8
0
100
AcDbBlockEnd
  0
BLOCK
  5
11C
330
31
100
AcDbEntity
  8
0
100
AcDbBlockBegin
  2
*X1
 70
     1
 10
0.0
 20
0.0
 30
0.0
  3
*X1
  1

  0
LINE
  5
11D
330
31
100
AcDbEntity
  8
0
 62
     0
100
AcDbLine
 10
4.03500000000001
 20
1.621854249492368
 30
0.0
 11
3.9794029444993
 21
1.677451304993078
 31
0.0
  0
LINE
  5
11E
330
31
100
AcDbEntity
  8
0
 62
     0
100
AcDbLine
 10
3.802854249492435
 20
1.853999999999943
 30
0.0
 11
3.675854249492427
 21
1.980999999999951
 31
0.0
  0
LINE
  5
11F
330
31
100
AcDbEntity
  8
0
 62
     0
100
AcDbLine
 10
3.954999999999998
 20
1.701854249492381
 30
0.0
 11
3.835000000000018
 21
1.821854249492361
 31
0.0
  0
LINE
  5
120
330
31
100
AcDbEntity
  8
0
 62
     0
100
AcDbLine
 10
3.954999999999994
 20
0.9947474683058379
 30
0.0
 11
3.656247468305688
 21
1.293500000000143
 31
0.0
  0
LINE
  5
121
330
31
100
AcDbEntity
  8
0
 62
     0
100
AcDbLine
 10
3.494247468305682
 20
1.455500000000149
 30
0.0
 11
3.439000000000099
 21
1.510747468305732
 31
0.0
  0
LINE
  5
122
330
31
100
AcDbEntity
  8
0
 62
     0
100
AcDbLine
 10
4.035000000000009
 20
0.2076406871192757
 30
0.0
 11
3.890640687119334
 21
0.3519999999999506
 31
0.0
  0
LINE
  5
123
330
31
100
AcDbEntity
  8
0
 62
     0
100
AcDbLine
 10
3.448725168912998
 20
0.7939155182062862
 30
0.0
 11
3.273640687119336
 21
0.9689999999999479
 31
0.0
  0
LINE
  5
124
330
31
100
AcDbEntity
  8
0
 62
     0
100
AcDbLine
 10
3.445284972813888
 20
0.0902489331188495
 30
0.0
 11
3.340270438497256
 21
0.1952634674354808
 31
0.0
  0
LINE
  5
125
330
31
100
AcDbEntity
  8
0
 62
     0
100
AcDbLine
 10
2.743197812798945
 20
0.7923360931337922
 30
0.0
 11
2.566533905932789
 21
0.9689999999999479
 31
0.0
  0
LINE
  5
126
330
31
100
AcDbEntity
  8
0
 62
     0
100
AcDbLine
 10
2.756753363449393
 20
0.0716737612967964
 30
0.0
 11
2.634743082383195
 21
0.193684042362994
 31
0.0
  0
LINE
  5
127
330
31
100
AcDbEntity
  8
0
 62
     0
100
AcDbLine
 10
2.037670456684884
 20
0.7907566680613052
 30
0.0
 11
1.859427124746241
 21
0.9689999999999479
 31
0.0
  0
LINE
  5
128
330
31
100
AcDbEntity
  8
0
 62
     0
100
AcDbLine
 10
2.068221754084899
 20
0.0530985894747433
 30
0.0
 11
1.929215726269142
 21
0.1921046172905
 31
0.0
  0
LINE
  5
129
330
31
100
AcDbEntity
  8
0
 62
     0
100
AcDbLine
 10
1.332143100570831
 20
0.7891772429888114
 30
0.0
 11
1.152320343559694
 21
0.9689999999999479
 31
0.0
  0
LINE
  5
12A
330
31
100
AcDbEntity
  8
0
 62
     0
100
AcDbLine
 10
1.379690144720404
 20
0.0345234176526902
 30
0.0
 11
1.223688370155089
 21
0.1905251922180058
 31
0.0
  0
LINE
  5
12B
330
31
100
AcDbEntity
  8
0
 62
     0
100
AcDbLine
 10
0.6266157444567668
 20
0.7875978179163282
 30
0.0
 11
0.445213562373147
 21
0.9689999999999479
 31
0.0
  0
LINE
  5
12C
330
31
100
AcDbEntity
  8
0
 62
     0
100
AcDbLine
 10
0.6911585353559105
 20
0.0159482458306371
 30
0.0
 11
0.5181610140410249
 21
0.1889457671455226
 31
0.0
  0
LINE
  5
12D
330
31
100
AcDbEntity
  8
0
 62
     0
100
AcDbLine
 10
3.954999999999998
 20
2.408961030678928
 30
0.0
 11
3.683999999999952
 21
2.679961030678974
 31
0.0
  0
LINE
  5
12E
330
31
100
AcDbEntity
  8
0
 62
     0
100
AcDbLine
 10
4.034999999999996
 20
3.036067811865478
 30
0.0
 11
3.68399999999997
 21
3.387067811865503
 31
0.0
  0
LINE
  5
12F
330
31
100
AcDbEntity
  8
0
 62
     0
100
AcDbLine
 10
3.954999999999998
 20
3.823174593052023
 30
0.0
 11
3.825174593052061
 21
3.95299999999996
 31
0.0
  0
LINE
  5
130
330
31
100
AcDbEntity
  8
0
 62
     0
100
AcDbLine
 10
3.659174593052065
 20
4.118999999999956
 30
0.0
 11
3.544999999999994
 21
4.233174593052027
 31
0.0
  0
LINE
  5
131
330
31
100
AcDbEntity
  8
0
 62
     0
100
AcDbLine
 10
3.954999999999998
 20
4.530281374238571
 30
0.0
 11
3.683999999999989
 21
4.801281374238579
 31
0.0
  0
LINE
  5
132
330
31
100
AcDbEntity
  8
0
 62
     0
100
AcDbLine
 10
3.673281374238622
 20
4.811999999999947
 30
0.0
 11
3.546281374238626
 21
4.938999999999943
 31
0.0
  0
LINE
  5
133
330
31
100
AcDbEntity
  8
0
 62
     0
100
AcDbLine
 10
4.034999999999996
 20
5.15738815542512
 30
0.0
 11
3.997082106562214
 21
5.195306048862902
 31
0.0
  0
LINE
  5
134
330
31
100
AcDbEntity
  8
0
 62
     0
100
AcDbLine
 10
3.954999999999997
 20
5.23738815542512
 30
0.0
 11
3.684000000000005
 21
5.508388155425112
 31
0.0
  0
LINE
  5
135
330
31
100
AcDbEntity
  8
0
 62
     0
100
AcDbLine
 10
4.034999999999996
 20
5.864494936611668
 30
0.0
 11
3.854999999999975
 21
6.044494936611688
 31
0.0
  0
LINE
  5
136
330
31
100
AcDbEntity
  8
0
 62
     0
100
AcDbLine
 10
3.808494936611721
 20
6.090999999999944
 30
0.0
 11
3.681494936611731
 21
6.217999999999933
 31
0.0
  0
LINE
  5
137
330
31
100
AcDbEntity
  8
0
 62
     0
100
AcDbLine
 10
3.954999999999998
 20
6.651601717798214
 30
0.0
 11
3.684000000000011
 21
6.922601717798201
 31
0.0
  0
LINE
  5
138
330
31
100
AcDbEntity
  8
0
 62
     0
100
AcDbLine
 10
4.034999999999998
 20
7.27870849898476
 30
0.0
 11
3.914208498984599
 21
7.399500000000159
 31
0.0
  0
LINE
  5
139
330
31
100
AcDbEntity
  8
0
 62
     0
100
AcDbLine
 10
4.03500000000001
 20
1.533465901844049
 30
0.0
 11
3.835000000000045
 21
1.733465901844015
 31
0.0
  0
LINE
  5
13A
330
31
100
AcDbEntity
  8
0
 62
     0
100
AcDbLine
 10
3.714465901844112
 20
1.853999999999948
 30
0.0
 11
3.587465901844109
 21
1.980999999999951
 31
0.0
  0
LINE
  5
13B
330
31
100
AcDbEntity
  8
0
 62
     0
100
AcDbLine
 10
3.954999999999989
 20
0.9063591206575242
 30
0.0
 11
3.83500000000028
 21
1.026359120657233
 31
0.0
  0
LINE
  5
13C
330
31
100
AcDbEntity
  8
0
 62
     0
100
AcDbLine
 10
3.783859120657364
 20
1.077500000000149
 30
0.0
 11
3.56785912065737
 21
1.293500000000143
 31
0.0
  0
LINE
  5
13D
330
31
100
AcDbEntity
  8
0
 62
     0
100
AcDbLine
 10
3.983252339471013
 20
0.1709999999999532
 30
0.0
 11
3.802252339471015
 21
0.3519999999999506
 31
0.0
  0
LINE
  5
13E
330
31
100
AcDbEntity
  8
0
 62
     0
100
AcDbLine
 10
3.360534249398737
 20
0.793718090072229
 30
0.0
 11
3.185252339471018
 21
0.9689999999999479
 31
0.0
  0
LINE
  5
13F
330
31
100
AcDbEntity
  8
0
 62
     0
100
AcDbLine
 10
3.359218521643326
 20
0.0879270366410928
 30
0.0
 11
3.252079518983002
 21
0.1950660393014164
 31
0.0
  0
LINE
  5
140
330
31
100
AcDbEntity
  8
0
 62
     0
100
AcDbLine
 10
2.655006893284683
 20
0.7921386649997348
 30
0.0
 11
2.478145558284471
 21
0.9689999999999479
 31
0.0
  0
LINE
  5
141
330
31
100
AcDbEntity
  8
0
 62
     0
100
AcDbLine
 10
2.670686912278831
 20
0.0693518648190397
 30
0.0
 11
2.546552162868942
 21
0.1934866142289293
 31
0.0
  0
LINE
  5
142
330
31
100
AcDbEntity
  8
0
 62
     0
100
AcDbLine
 10
1.94947953717063
 20
0.7905592399272408
 30
0.0
 11
1.771038777097923
 21
0.9689999999999479
 31
0.0
  0
LINE
  5
143
330
31
100
AcDbEntity
  8
0
 62
     0
100
AcDbLine
 10
1.982155302914337
 20
0.0507766929969866
 30
0.0
 11
1.841024806754888
 21
0.1919071891564354
 31
0.0
  0
LINE
  5
144
330
31
100
AcDbEntity
  8
0
 62
     0
100
AcDbLine
 10
1.243952181056569
 20
0.7889798148547542
 30
0.0
 11
1.063931995911376
 21
0.9689999999999479
 31
0.0
  0
LINE
  5
145
330
31
100
AcDbEntity
  8
0
 62
     0
100
AcDbLine
 10
1.293623693549843
 20
0.0322015211749335
 30
0.0
 11
1.135497450640835
 21
0.1903277640839414
 31
0.0
  0
LINE
  5
146
330
31
100
AcDbEntity
  8
0
 62
     0
100
AcDbLine
 10
0.5384248249425129
 20
0.7874003897822638
 30
0.0
 11
0.3568252147248287
 21
0.9689999999999479
 31
0.0
  0
LINE
  5
147
330
31
100
AcDbEntity
  8
0
 62
     0
100
AcDbLine
 10
0.6050920841853486
 20
0.0136263493528804
 30
0.0
 11
0.4299700945267709
 21
0.1887483390114582
 31
0.0
  0
LINE
  5
148
330
31
100
AcDbEntity
  8
0
 62
     0
100
AcDbLine
 10
3.954999999999998
 20
2.32057268303061
 30
0.0
 11
3.683999999999951
 21
2.591572683030657
 31
0.0
  0
LINE
  5
149
330
31
100
AcDbEntity
  8
0
 62
     0
100
AcDbLine
 10
4.034999999999996
 20
2.947679464217159
 30
0.0
 11
3.854999999999989
 21
3.127679464217166
 31
0.0
  0
LINE
  5
14A
330
31
100
AcDbEntity
  8
0
 62
     0
100
AcDbLine
 10
3.84967946421721
 20
3.132999999999945
 30
0.0
 11
3.683999999999969
 21
3.298679464217186
 31
0.0
  0
LINE
  5
14B
330
31
100
AcDbEntity
  8
0
 62
     0
100
AcDbLine
 10
3.954999999999998
 20
3.734786245403705
 30
0.0
 11
3.736786245403743
 21
3.95299999999996
 31
0.0
  0
LINE
  5
14C
330
31
100
AcDbEntity
  8
0
 62
     0
100
AcDbLine
 10
3.570786245403747
 20
4.118999999999956
 30
0.0
 11
3.544999999999995
 21
4.144786245403707
 31
0.0
  0
LINE
  5
14D
330
31
100
AcDbEntity
  8
0
 62
     0
100
AcDbLine
 10
3.954999999999998
 20
4.441893026590252
 30
0.0
 11
3.683999999999987
 21
4.712893026590262
 31
0.0
  0
LINE
  5
14E
330
31
100
AcDbEntity
  8
0
 62
     0
100
AcDbLine
 10
3.584893026590304
 20
4.811999999999947
 30
0.0
 11
3.545000000000001
 21
4.851893026590249
 31
0.0
  0
LINE
  5
14F
330
31
100
AcDbEntity
  8
0
 62
     0
100
AcDbLine
 10
4.034999999999996
 20
5.068999807776802
 30
0.0
 11
3.684000000000002
 21
5.419999807776796
 31
0.0
  0
LINE
  5
150
330
31
100
AcDbEntity
  8
0
 62
     0
100
AcDbLine
 10
3.983229744901345
 20
5.827876844062
 30
0.0
 11
3.854999999999975
 21
5.95610658896337
 31
0.0
  0
LINE
  5
151
330
31
100
AcDbEntity
  8
0
 62
     0
100
AcDbLine
 10
3.720106588963402
 20
6.090999999999944
 30
0.0
 11
3.593106588963399
 21
6.217999999999946
 31
0.0
  0
LINE
  5
152
330
31
100
AcDbEntity
  8
0
 62
     0
100
AcDbLine
 10
3.954999999999998
 20
6.563213370149894
 30
0.0
 11
3.835000000000007
 21
6.683213370149887
 31
0.0
  0
LINE
  5
153
330
31
100
AcDbEntity
  8
0
 62
     0
100
AcDbLine
 10
3.818713370149936
 20
6.699499999999956
 30
0.0
 11
3.684000000000011
 21
6.834213370149883
 31
0.0
  0
LINE
  5
154
330
31
100
AcDbEntity
  8
0
 62
     0
100
AcDbLine
 10
4.025248861459102
 20
7.200071289877338
 30
0.0
 11
3.82582015133628
 21
7.399500000000159
 31
0.0
  0
LINE
  5
155
330
31
100
AcDbEntity
  8
0
 62
     0
100
AcDbLine
 10
4.03500000000001
 20
1.445077554195731
 30
0.0
 11
3.808577554195598
 21
1.671500000000143
 31
0.0
  0
LINE
  5
156
330
31
100
AcDbEntity
  8
0
 62
     0
100
AcDbLine
 10
3.62607755419579
 20
1.853999999999952
 30
0.0
 11
3.545000000000002
 21
1.93507755419574
 31
0.0
  0
LINE
  5
157
330
31
100
AcDbEntity
  8
0
 62
     0
100
AcDbLine
 10
4.034999999999997
 20
0.737970773009198
 30
0.0
 11
3.969970773009244
 21
0.8029999999999509
 31
0.0
  0
LINE
  5
158
330
31
100
AcDbEntity
  8
0
 62
     0
100
AcDbLine
 10
3.695470773009045
 20
1.077500000000149
 30
0.0
 11
3.479470773009051
 21
1.293500000000143
 31
0.0
  0
LINE
  5
159
330
31
100
AcDbEntity
  8
0
 62
     0
100
AcDbLine
 10
3.954999999999984
 20
0.8179707730092104
 30
0.0
 11
3.803970773009247
 21
0.9689999999999479
 31
0.0
  0
LINE
  5
15A
330
31
100
AcDbEntity
  8
0
 62
     0
100
AcDbLine
 10
3.954999999999998
 20
0.1108639918226495
 30
0.0
 11
3.713863991822697
 21
0.3519999999999506
 31
0.0
  0
LINE
  5
15B
330
31
100
AcDbEntity
  8
0
 62
     0
100
AcDbLine
 10
3.272343329884483
 20
0.7935206619381646
 30
0.0
 11
3.0968639918227
 21
0.9689999999999479
 31
0.0
  0
LINE
  5
15C
330
31
100
AcDbEntity
  8
0
 62
     0
100
AcDbLine
 10
3.273152070472764
 20
0.0856051401633362
 30
0.0
 11
3.163888599468741
 21
0.194868611167359
 31
0.0
  0
LINE
  5
15D
330
31
100
AcDbEntity
  8
0
 62
     0
100
AcDbLine
 10
2.56681597377043
 20
0.7919412368656705
 30
0.0
 11
2.389757210636152
 21
0.9689999999999479
 31
0.0
  0
LINE
  5
15E
330
31
100
AcDbEntity
  8
0
 62
     0
100
AcDbLine
 10
2.584620461108269
 20
0.0670299683412831
 30
0.0
 11
2.458361243354687
 21
0.193289186094865
 31
0.0
  0
LINE
  5
15F
330
31
100
AcDbEntity
  8
0
 62
     0
100
AcDbLine
 10
1.861288617656376
 20
0.7903618117931766
 30
0.0
 11
1.682650429449605
 21
0.9689999999999479
 31
0.0
  0
LINE
  5
160
330
31
100
AcDbEntity
  8
0
 62
     0
100
AcDbLine
 10
1.896088851743775
 20
0.04845479651923
 30
0.0
 11
1.752833887240627
 21
0.1917097610223782
 31
0.0
  0
LINE
  5
161
330
31
100
AcDbEntity
  8
0
 62
     0
100
AcDbLine
 10
1.155761261542316
 20
0.7887823867206897
 30
0.0
 11
0.9755436482630576
 21
0.9689999999999479
 31
0.0
  0
LINE
  5
162
330
31
100
AcDbEntity
  8
0
 62
     0
100
AcDbLine
 10
1.207557242379281
 20
0.0298796246971769
 30
0.0
 11
1.04730653112657
 21
0.1901303359498878
 31
0.0
  0
LINE
  5
163
330
31
100
AcDbEntity
  8
0
 62
     0
100
AcDbLine
 10
0.450233905428259
 20
0.7872029616481992
 30
0.0
 11
0.2684368670765102
 21
0.9689999999999479
 31
0.0
  0
LINE
  5
164
330
31
100
AcDbEntity
  8
0
 62
     0
100
AcDbLine
 10
0.5190256330147869
 20
0.0113044528751238
 30
0.0
 11
0.3417791750125096
 21
0.1885509108774009
 31
0.0
  0
LINE
  5
165
330
31
100
AcDbEntity
  8
0
 62
     0
100
AcDbLine
 10
4.034999999999996
 20
2.152184335382293
 30
0.0
 11
3.68399999999995
 21
2.503184335382339
 31
0.0
  0
LINE
  5
166
330
31
100
AcDbEntity
  8
0
 62
     0
100
AcDbLine
 10
4.010830985093532
 20
2.883460131475305
 30
0.0
 11
3.854999999999989
 21
3.039291116568847
 31
0.0
  0
LINE
  5
167
330
31
100
AcDbEntity
  8
0
 62
     0
100
AcDbLine
 10
3.761291116568891
 20
3.132999999999945
 30
0.0
 11
3.634291116568888
 21
3.259999999999948
 31
0.0
  0
LINE
  5
168
330
31
100
AcDbEntity
  8
0
 62
     0
100
AcDbLine
 10
3.954999999999998
 20
3.646397897755387
 30
0.0
 11
3.648397897755425
 21
3.95299999999996
 31
0.0
  0
LINE
  5
169
330
31
100
AcDbEntity
  8
0
 62
     0
100
AcDbLine
 10
3.954999999999998
 20
4.353504678941934
 30
0.0
 11
3.683999999999985
 21
4.624504678941947
 31
0.0
  0
LINE
  5
16A
330
31
100
AcDbEntity
  8
0
 62
     0
100
AcDbLine
 10
4.034999999999996
 20
4.980611460128484
 30
0.0
 11
3.684
 21
5.33161146012848
 31
0.0
  0
LINE
  5
16B
330
31
100
AcDbEntity
  8
0
 62
     0
100
AcDbLine
 10
3.954999999999998
 20
5.767718241315029
 30
0.0
 11
3.79771824131508
 21
5.924999999999947
 31
0.0
  0
LINE
  5
16C
330
31
100
AcDbEntity
  8
0
 62
     0
100
AcDbLine
 10
3.631718241315084
 20
6.090999999999944
 30
0.0
 11
3.545000000000001
 21
6.177718241315026
 31
0.0
  0
LINE
  5
16D
330
31
100
AcDbEntity
  8
0
 62
     0
100
AcDbLine
 10
3.954999999999998
 20
6.474825022501576
 30
0.0
 11
3.835000000000004
 21
6.59482502250157
 31
0.0
  0
LINE
  5
16E
330
31
100
AcDbEntity
  8
0
 62
     0
100
AcDbLine
 10
3.730325022501618
 20
6.699499999999956
 30
0.0
 11
3.684000000000011
 21
6.745825022501564
 31
0.0
  0
LINE
  5
16F
330
31
100
AcDbEntity
  8
0
 62
     0
100
AcDbLine
 10
3.966012343390886
 20
7.170919460297236
 30
0.0
 11
3.737431803687962
 21
7.399500000000159
 31
0.0
  0
LINE
  5
170
330
31
100
AcDbEntity
  8
0
 62
     0
100
AcDbLine
 10
3.725000000000008
 20
7.411931803688113
 30
0.0
 11
3.656431803687965
 21
7.480500000000156
 31
0.0
  0
LINE
  5
171
330
31
100
AcDbEntity
  8
0
 62
     0
100
AcDbLine
 10
4.03500000000001
 20
1.179912511250776
 30
0.0
 11
3.543412511250644
 21
1.671500000000143
 31
0.0
  0
LINE
  5
172
330
31
100
AcDbEntity
  8
0
 62
     0
100
AcDbLine
 10
3.885805730064286
 20
0.6219999999999537
 30
0.0
 11
3.538805730064292
 21
0.9689999999999479
 31
0.0
  0
LINE
  5
173
330
31
100
AcDbEntity
  8
0
 62
     0
100
AcDbLine
 10
3.703484326325573
 20
0.0972146225521194
 30
0.0
 11
3.604843197040032
 21
0.1958557518376595
 31
0.0
  0
LINE
  5
174
330
31
100
AcDbEntity
  8
0
 62
     0
100
AcDbLine
 10
3.007770571341714
 20
0.7929283775359783
 30
0.0
 11
2.831698948877744
 21
0.9689999999999479
 31
0.0
  0
LINE
  5
175
330
31
100
AcDbEntity
  8
0
 62
     0
100
AcDbLine
 10
3.014952716961079
 20
0.0786394507300663
 30
0.0
 11
2.899315840925972
 21
0.1942763267651727
 31
0.0
  0
LINE
  5
176
330
31
100
AcDbEntity
  8
0
 62
     0
100
AcDbLine
 10
2.302243215227653
 20
0.7913489524634917
 30
0.0
 11
2.124592167691197
 21
0.9689999999999479
 31
0.0
  0
LINE
  5
177
330
31
100
AcDbEntity
  8
0
 62
     0
100
AcDbLine
 10
2.326421107596584
 20
0.0600642789080132
 30
0.0
 11
2.193788484811919
 21
0.1926969016926789
 31
0.0
  0
LINE
  5
178
330
31
100
AcDbEntity
  8
0
 62
     0
100
AcDbLine
 10
1.5967158591136
 20
0.7897695273909977
 30
0.0
 11
1.417485386504649
 21
0.9689999999999479
 31
0.0
  0
LINE
  5
179
330
31
100
AcDbEntity
  8
0
 62
     0
100
AcDbLine
 10
1.63788949823209
 20
0.0414891070859601
 30
0.0
 11
1.488261128697858
 21
0.191117476620192
 31
0.0
  0
LINE
  5
17A
330
31
100
AcDbEntity
  8
0
 62
     0
100
AcDbLine
 10
0.8911885029995358
 20
0.7881901023185142
 30
0.0
 11
0.7103786053181023
 21
0.9689999999999479
 31
0.0
  0
LINE
  5
17B
330
31
100
AcDbEntity
  8
0
 62
     0
100
AcDbLine
 10
0.9493578888675958
 20
0.022913935263907
 30
0.0
 11
0.7827337725838012
 21
0.1895380515477016
 31
0.0
  0
LINE
  5
17C
330
31
100
AcDbEntity
  8
0
 62
     0
100
AcDbLine
 10
0.082271824131555
 20
0.8899999999999478
 30
0.0
 11
0.0032718241315549
 21
0.9689999999999479
 31
0.0
  0
LINE
  5
17D
330
31
100
AcDbEntity
  8
0
 62
     0
100
AcDbLine
 10
0.1856611468854897
 20
0.7866106772460131
 30
0.0
 11
0.1000000000000085
 21
0.8722718241314941
 31
0.0
  0
LINE
  5
17E
330
31
100
AcDbEntity
  8
0
 62
     0
100
AcDbLine
 10
0.2608262795031014
 20
0.0043387634418539
 30
0.0
 11
0.1000000000000085
 21
0.1651650429449468
 31
0.0
  0
LINE
  5
17F
330
31
100
AcDbEntity
  8
0
 62
     0
100
AcDbLine
 10
4.020031398490962
 20
1.901987893946372
 30
0.0
 11
3.854999999999989
 21
2.067019292437345
 31
0.0
  0
LINE
  5
180
330
31
100
AcDbEntity
  8
0
 62
     0
100
AcDbLine
 10
3.775019292437386
 20
2.146999999999948
 30
0.0
 11
3.648019292437386
 21
2.273999999999947
 31
0.0
  0
LINE
  5
181
330
31
100
AcDbEntity
  8
0
 62
     0
100
AcDbLine
 10
3.954999999999998
 20
2.674126073623884
 30
0.0
 11
3.662126073623933
 21
2.966999999999949
 31
0.0
  0
LINE
  5
182
330
31
100
AcDbEntity
  8
0
 62
     0
100
AcDbLine
 10
3.954999999999997
 20
3.381232854810432
 30
0.0
 11
3.683999999999973
 21
3.652232854810455
 31
0.0
  0
LINE
  5
183
330
31
100
AcDbEntity
  8
0
 62
     0
100
AcDbLine
 10
4.034999999999996
 20
4.00833963599698
 30
0.0
 11
3.683999999999978
 21
4.359339635996997
 31
0.0
  0
LINE
  5
184
330
31
100
AcDbEntity
  8
0
 62
     0
100
AcDbLine
 10
3.954999999999999
 20
4.795446417183526
 30
0.0
 11
3.811446417183582
 21
4.938999999999943
 31
0.0
  0
LINE
  5
185
330
31
100
AcDbEntity
  8
0
 62
     0
100
AcDbLine
 10
3.645446417183585
 20
5.10499999999994
 30
0.0
 11
3.545000000000001
 21
5.205446417183523
 31
0.0
  0
LINE
  5
186
330
31
100
AcDbEntity
  8
0
 62
     0
100
AcDbLine
 10
3.954999999999997
 20
5.502553198370074
 30
0.0
 11
3.684000000000011
 21
5.773553198370061
 31
0.0
  0
LINE
  5
187
330
31
100
AcDbEntity
  8
0
 62
     0
100
AcDbLine
 10
3.659553198370117
 20
5.797999999999955
 30
0.0
 11
3.545000000000001
 21
5.91255319837007
 31
0.0
  0
LINE
  5
188
330
31
100
AcDbEntity
  8
0
 62
     0
100
AcDbLine
 10
4.034999999999996
 20
6.129659979556623
 30
0.0
 11
3.97005143485661
 21
6.19460854470001
 31
0.0
  0
LINE
  5
189
330
31
100
AcDbEntity
  8
0
 62
     0
100
AcDbLine
 10
3.954999999999998
 20
6.20965997955662
 30
0.0
 11
3.834999999999996
 21
6.329659979556623
 31
0.0
  0
LINE
  5
18A
330
31
100
AcDbEntity
  8
0
 62
     0
100
AcDbLine
 10
3.954999999999997
 20
6.916766760743167
 30
0.0
 11
3.684000000000011
 21
7.187766760743155
 31
0.0
  0
LINE
  5
18B
330
31
100
AcDbEntity
  8
0
 62
     0
100
AcDbLine
 10
3.666266760743209
 20
7.205499999999957
 30
0.0
 11
3.434000000000011
 21
7.437766760743154
 31
0.0
  0
ENDBLK
  5
18C
330
31
100
AcDbEntity
  8
0
100
AcDbBlockEnd
  0
BLOCK
  5
18D
330
32
100
AcDbEntity
  8
0
100
AcDbBlockBegin
  2
*X2
 70
     1
 10
0.0
 20
0.0
 30
0.0
  3
*X2
  1

  0
LINE
  5
18E
330
32
100
AcDbEntity
  8
0
 62
     0
100
AcDbLine
 10
-0.0000000000000853
 20
2.121320343559557
 30
0.0
 11
0.1359999999999187
 21
2.257320343559561
 31
0.0
  0
LINE
  5
18F
330
32
100
AcDbEntity
  8
0
 62
     0
100
AcDbLine
 10
-0.0000000000000853
 20
2.828427124746104
 30
0.0
 11
0.1359999999999195
 21
2.964427124746109
 31
0.0
  0
LINE
  5
190
330
32
100
AcDbEntity
  8
0
 62
     0
100
AcDbLine
 10
-0.0000000000000853
 20
3.535533905932652
 30
0.0
 11
0.1359999999999204
 21
3.671533905932657
 31
0.0
  0
LINE
  5
191
330
32
100
AcDbEntity
  8
0
 62
     0
100
AcDbLine
 10
-0.0000000000000853
 20
4.242640687119199
 30
0.0
 11
0.1359999999999212
 21
4.378640687119205
 31
0.0
  0
LINE
  5
192
330
32
100
AcDbEntity
  8
0
 62
     0
100
AcDbLine
 10
-0.0000000000000853
 20
4.949747468305746
 30
0.0
 11
0.1359999999999219
 21
5.085747468305754
 31
0.0
  0
LINE
  5
193
330
32
100
AcDbEntity
  8
0
 62
     0
100
AcDbLine
 10
-0.0000000000000853
 20
5.656854249492293
 30
0.0
 11
0.1359999999999227
 21
5.792854249492301
 31
0.0
  0
LINE
  5
194
330
32
100
AcDbEntity
  8
0
 62
     0
100
AcDbLine
 10
-0.0000000000000853
 20
6.363961030678841
 30
0.0
 11
0.1359999999999235
 21
6.49996103067885
 31
0.0
  0
LINE
  5
195
330
32
100
AcDbEntity
  8
0
 62
     0
100
AcDbLine
 10
-0.0000000000000853
 20
7.071067811865389
 30
0.0
 11
0.1359999999999244
 21
7.207067811865398
 31
0.0
  0
LINE
  5
196
330
32
100
AcDbEntity
  8
0
 62
     0
100
AcDbLine
 10
-0.0000000000000853
 20
1.414213562373009
 30
0.0
 11
0.135999999999918
 21
1.550213562373012
 31
0.0
  0
LINE
  5
197
330
32
100
AcDbEntity
  8
0
 62
     0
100
AcDbLine
 10
0.196850392499904
 20
0.9039571736864514
 30
0.0
 11
0.3891153137852194
 21
1.096222094971766
 31
0.0
  0
LINE
  5
198
330
32
100
AcDbEntity
  8
0
 62
     0
100
AcDbLine
 10
0.7904944201851719
 20
0.7904944201851719
 30
0.0
 11
1.0879425704945
 21
1.0879425704945
 31
0.0
  0
LINE
  5
199
330
32
100
AcDbEntity
  8
0
 62
     0
100
AcDbLine
 10
0.7198626109638821
 20
0.0127558297773345
 30
0.0
 11
0.8266067811865603
 21
0.1195000000000128
 31
0.0
  0
LINE
  5
19A
330
32
100
AcDbEntity
  8
0
 62
     0
100
AcDbLine
 10
1.497601201371718
 20
0.790494420185171
 30
0.0
 11
1.786769827203781
 21
1.079663046017233
 31
0.0
  0
LINE
  5
19B
330
32
100
AcDbEntity
  8
0
 62
     0
100
AcDbLine
 10
1.423278668813673
 20
0.0090651064405784
 30
0.0
 11
1.533713562373107
 21
0.1195000000000128
 31
0.0
  0
LINE
  5
19C
330
32
100
AcDbEntity
  8
0
 62
     0
100
AcDbLine
 10
2.204707982558264
 20
0.7904944201851701
 30
0.0
 11
2.485597083913062
 21
1.071383521539967
 31
0.0
  0
LINE
  5
19D
330
32
100
AcDbEntity
  8
0
 62
     0
100
AcDbLine
 10
2.126694726663465
 20
0.0053743831038222
 30
0.0
 11
2.240820343559655
 21
0.1195000000000128
 31
0.0
  0
LINE
  5
19E
330
32
100
AcDbEntity
  8
0
 62
     0
100
AcDbLine
 10
3.102820343559646
 20
0.981500000000004
 30
0.0
 11
3.150999999999896
 21
1.029679656440254
 31
0.0
  0
LINE
  5
19F
330
32
100
AcDbEntity
  8
0
 62
     0
100
AcDbLine
 10
2.887679560328764
 20
0.7663592167691214
 30
0.0
 11
2.950999999999901
 21
0.8296796564402589
 31
0.0
  0
LINE
  5
1A0
330
32
100
AcDbEntity
  8
0
 62
     0
100
AcDbLine
 10
2.830110784513255
 20
0.0016836597670661
 30
0.0
 11
2.976067907977091
 21
0.1476407832309015
 31
0.0
  0
LINE
  5
1A1
330
32
100
AcDbEntity
  8
0
 62
     0
100
AcDbLine
 10
-0.0000000000000853
 20
1.502601910021327
 30
0.0
 11
0.135999999999918
 21
1.638601910021331
 31
0.0
  0
LINE
  5
1A2
330
32
100
AcDbEntity
  8
0
 62
     0
100
AcDbLine
 10
-0.0000000000000853
 20
2.209708691207875
 30
0.0
 11
0.1359999999999188
 21
2.345708691207879
 31
0.0
  0
LINE
  5
1A3
330
32
100
AcDbEntity
  8
0
 62
     0
100
AcDbLine
 10
-0.0000000000000853
 20
2.916815472394422
 30
0.0
 11
0.1359999999999196
 21
3.052815472394427
 31
0.0
  0
LINE
  5
1A4
330
32
100
AcDbEntity
  8
0
 62
     0
100
AcDbLine
 10
-0.0000000000000853
 20
3.62392225358097
 30
0.0
 11
0.1359999999999204
 21
3.759922253580976
 31
0.0
  0
LINE
  5
1A5
330
32
100
AcDbEntity
  8
0
 62
     0
100
AcDbLine
 10
-0.0000000000000853
 20
4.331029034767517
 30
0.0
 11
0.1359999999999212
 21
4.467029034767524
 31
0.0
  0
LINE
  5
1A6
330
32
100
AcDbEntity
  8
0
 62
     0
100
AcDbLine
 10
-0.0000000000000853
 20
5.038135815954065
 30
0.0
 11
0.135999999999922
 21
5.174135815954072
 31
0.0
  0
LINE
  5
1A7
330
32
100
AcDbEntity
  8
0
 62
     0
100
AcDbLine
 10
-0.0000000000000853
 20
5.745242597140612
 30
0.0
 11
0.1359999999999228
 21
5.88124259714062
 31
0.0
  0
LINE
  5
1A8
330
32
100
AcDbEntity
  8
0
 62
     0
100
AcDbLine
 10
-0.0000000000000853
 20
6.452349378327159
 30
0.0
 11
0.1359999999999236
 21
6.588349378327168
 31
0.0
  0
LINE
  5
1A9
330
32
100
AcDbEntity
  8
0
 62
     0
100
AcDbLine
 10
-0.0000000000000853
 20
7.159456159513707
 30
0.0
 11
0.1359999999999244
 21
7.295456159513717
 31
0.0
  0
LINE
  5
1AA
330
32
100
AcDbEntity
  8
0
 62
     0
100
AcDbLine
 10
0.1689868468967032
 20
0.9644819757315691
 30
0.0
 11
0.3017619066965593
 21
1.097257035531425
 31
0.0
  0
LINE
  5
1AB
330
32
100
AcDbEntity
  8
0
 62
     0
100
AcDbLine
 10
0.7021060725368537
 20
0.7904944201851722
 30
0.0
 11
1.00058916340584
 21
1.088977511054158
 31
0.0
  0
LINE
  5
1AC
330
32
100
AcDbEntity
  8
0
 62
     0
100
AcDbLine
 10
0.6319356037326581
 20
0.0132171701944291
 30
0.0
 11
0.738218433538242
 21
0.1195000000000128
 31
0.0
  0
LINE
  5
1AD
330
32
100
AcDbEntity
  8
0
 62
     0
100
AcDbLine
 10
1.4092128537234
 20
0.7904944201851711
 30
0.0
 11
1.699416420115121
 21
1.080697986576892
 31
0.0
  0
LINE
  5
1AE
330
32
100
AcDbEntity
  8
0
 62
     0
100
AcDbLine
 10
1.335351661582449
 20
0.0095264468576729
 30
0.0
 11
1.445325214724789
 21
0.1195000000000128
 31
0.0
  0
LINE
  5
1AF
330
32
100
AcDbEntity
  8
0
 62
     0
100
AcDbLine
 10
2.116319634909946
 20
0.7904944201851701
 30
0.0
 11
2.398243676824402
 21
1.072418462099625
 31
0.0
  0
LINE
  5
1B0
330
32
100
AcDbEntity
  8
0
 62
     0
100
AcDbLine
 10
2.03876771943224
 20
0.0058357235209167
 30
0.0
 11
2.152431995911336
 21
0.1195000000000128
 31
0.0
  0
LINE
  5
1B1
330
32
100
AcDbEntity
  8
0
 62
     0
100
AcDbLine
 10
3.014431995911328
 20
0.981500000000004
 30
0.0
 11
3.097070933533682
 21
1.064138937622359
 31
0.0
  0
LINE
  5
1B2
330
32
100
AcDbEntity
  8
0
 62
     0
100
AcDbLine
 10
2.823426416096493
 20
0.7904944201851693
 30
0.0
 11
2.950999999999901
 21
0.9180680040885771
 31
0.0
  0
LINE
  5
1B3
330
32
100
AcDbEntity
  8
0
 62
     0
100
AcDbLine
 10
2.742183777282031
 20
0.0021450001841606
 30
0.0
 11
2.887679560328772
 21
0.1476407832309015
 31
0.0
  0
LINE
  5
1B4
330
32
100
AcDbEntity
  8
0
 62
     0
100
AcDbLine
 10
-0.0000000000000853
 20
1.590990257669646
 30
0.0
 11
0.1359999999999182
 21
1.726990257669649
 31
0.0
  0
LINE
  5
1B5
330
32
100
AcDbEntity
  8
0
 62
     0
100
AcDbLine
 10
-0.0000000000000853
 20
2.298097038856194
 30
0.0
 11
0.135999999999919
 21
2.434097038856198
 31
0.0
  0
LINE
  5
1B6
330
32
100
AcDbEntity
  8
0
 62
     0
100
AcDbLine
 10
-0.0000000000000853
 20
3.005203820042741
 30
0.0
 11
0.1359999999999197
 21
3.141203820042746
 31
0.0
  0
LINE
  5
1B7
330
32
100
AcDbEntity
  8
0
 62
     0
100
AcDbLine
 10
-0.0000000000000853
 20
3.712310601229288
 30
0.0
 11
0.1359999999999205
 21
3.848310601229294
 31
0.0
  0
LINE
  5
1B8
330
32
100
AcDbEntity
  8
0
 62
     0
100
AcDbLine
 10
-0.0000000000000853
 20
4.419417382415836
 30
0.0
 11
0.1359999999999213
 21
4.555417382415843
 31
0.0
  0
LINE
  5
1B9
330
32
100
AcDbEntity
  8
0
 62
     0
100
AcDbLine
 10
-0.0000000000000853
 20
5.126524163602383
 30
0.0
 11
0.1359999999999222
 21
5.262524163602391
 31
0.0
  0
LINE
  5
1BA
330
32
100
AcDbEntity
  8
0
 62
     0
100
AcDbLine
 10
-0.0000000000000853
 20
5.83363094478893
 30
0.0
 11
0.1359999999999229
 21
5.969630944788939
 31
0.0
  0
LINE
  5
1BB
330
32
100
AcDbEntity
  8
0
 62
     0
100
AcDbLine
 10
-0.0000000000000853
 20
6.540737725975477
 30
0.0
 11
0.1359999999999237
 21
6.676737725975486
 31
0.0
  0
LINE
  5
1BC
330
32
100
AcDbEntity
  8
0
 62
     0
100
AcDbLine
 10
-0.0000000000000853
 20
7.247844507162025
 30
0.0
 11
0.1359999999999245
 21
7.383844507162035
 31
0.0
  0
LINE
  5
1BD
330
32
100
AcDbEntity
  8
0
 62
     0
100
AcDbLine
 10
0.1026300091246824
 20
0.9865134856078668
 30
0.0
 11
0.2144084996078991
 21
1.098291976091083
 31
0.0
  0
LINE
  5
1BE
330
32
100
AcDbEntity
  8
0
 62
     0
100
AcDbLine
 10
0.6137177248885354
 20
0.7904944201851723
 30
0.0
 11
0.9132357563171799
 21
1.090012451613816
 31
0.0
  0
LINE
  5
1BF
330
32
100
AcDbEntity
  8
0
 62
     0
100
AcDbLine
 10
0.5440085965014342
 20
0.0136785106115236
 30
0.0
 11
0.6498300858899235
 21
0.1195000000000128
 31
0.0
  0
LINE
  5
1C0
330
32
100
AcDbEntity
  8
0
 62
     0
100
AcDbLine
 10
1.320824506075081
 20
0.7904944201851713
 30
0.0
 11
1.612063013026461
 21
1.08173292713655
 31
0.0
  0
LINE
  5
1C1
330
32
100
AcDbEntity
  8
0
 62
     0
100
AcDbLine
 10
1.247424654351225
 20
0.0099877872747674
 30
0.0
 11
1.35693686707647
 21
0.1195000000000128
 31
0.0
  0
LINE
  5
1C2
330
32
100
AcDbEntity
  8
0
 62
     0
100
AcDbLine
 10
2.027931287261628
 20
0.7904944201851702
 30
0.0
 11
2.310890269735741
 21
1.073453402659283
 31
0.0
  0
LINE
  5
1C3
330
32
100
AcDbEntity
  8
0
 62
     0
100
AcDbLine
 10
1.950840712201016
 20
0.0062970639380113
 30
0.0
 11
2.064043648263018
 21
0.1195000000000128
 31
0.0
  0
LINE
  5
1C4
330
32
100
AcDbEntity
  8
0
 62
     0
100
AcDbLine
 10
2.735038068448174
 20
0.7904944201851693
 30
0.0
 11
3.009717526445022
 21
1.065173878182017
 31
0.0
  0
LINE
  5
1C5
330
32
100
AcDbEntity
  8
0
 62
     0
100
AcDbLine
 10
2.654256770050808
 20
0.0026063406012551
 30
0.0
 11
2.771150429449566
 21
0.1195000000000128
 31
0.0
  0
LINE
  5
1C6
330
32
100
AcDbEntity
  8
0
 62
     0
100
AcDbLine
 10
-0.0000000000000853
 20
1.856155300614601
 30
0.0
 11
0.1359999999999184
 21
1.992155300614605
 31
0.0
  0
LINE
  5
1C7
330
32
100
AcDbEntity
  8
0
 62
     0
100
AcDbLine
 10
-0.0000000000000853
 20
2.563262081801149
 30
0.0
 11
0.1359999999999192
 21
2.699262081801153
 31
0.0
  0
LINE
  5
1C8
330
32
100
AcDbEntity
  8
0
 62
     0
100
AcDbLine
 10
-0.0000000000000853
 20
3.270368862987696
 30
0.0
 11
0.13599999999992
 21
3.406368862987701
 31
0.0
  0
LINE
  5
1C9
330
32
100
AcDbEntity
  8
0
 62
     0
100
AcDbLine
 10
-0.0000000000000853
 20
3.977475644174244
 30
0.0
 11
0.1359999999999208
 21
4.11347564417425
 31
0.0
  0
LINE
  5
1CA
330
32
100
AcDbEntity
  8
0
 62
     0
100
AcDbLine
 10
-0.0000000000000853
 20
4.684582425360791
 30
0.0
 11
0.1359999999999216
 21
4.820582425360798
 31
0.0
  0
LINE
  5
1CB
330
32
100
AcDbEntity
  8
0
 62
     0
100
AcDbLine
 10
-0.0000000000000853
 20
5.391689206547338
 30
0.0
 11
0.1359999999999224
 21
5.527689206547345
 31
0.0
  0
LINE
  5
1CC
330
32
100
AcDbEntity
  8
0
 62
     0
100
AcDbLine
 10
-0.0000000000000853
 20
6.098795987733885
 30
0.0
 11
0.1359999999999232
 21
6.234795987733894
 31
0.0
  0
LINE
  5
1CD
330
32
100
AcDbEntity
  8
0
 62
     0
100
AcDbLine
 10
-0.0000000000000853
 20
6.805902768920433
 30
0.0
 11
0.135999999999924
 21
6.941902768920442
 31
0.0
  0
LINE
  5
1CE
330
32
100
AcDbEntity
  8
0
 62
     0
100
AcDbLine
 10
0.0002564783705605
 20
1.1493049977987
 30
0.0
 11
0.1359999999999176
 21
1.285048519428057
 31
0.0
  0
LINE
  5
1CF
330
32
100
AcDbEntity
  8
0
 62
     0
100
AcDbLine
 10
0.3485526819435804
 20
0.7904944201851726
 30
0.0
 11
0.6511755350511998
 21
1.093117273292791
 31
0.0
  0
LINE
  5
1D0
330
32
100
AcDbEntity
  8
0
 62
     0
100
AcDbLine
 10
0.2802275748077624
 20
0.0150625318628071
 30
0.0
 11
0.3846650429449681
 21
0.1195000000000128
 31
0.0
  0
LINE
  5
1D1
330
32
100
AcDbEntity
  8
0
 62
     0
100
AcDbLine
 10
1.055659463130126
 20
0.7904944201851717
 30
0.0
 11
1.35000279176048
 21
1.084837748815525
 31
0.0
  0
LINE
  5
1D2
330
32
100
AcDbEntity
  8
0
 62
     0
100
AcDbLine
 10
0.9836436326575539
 20
0.011371808526051
 30
0.0
 11
1.091771824131515
 21
0.1195000000000128
 31
0.0
  0
LINE
  5
1D3
330
32
100
AcDbEntity
  8
0
 62
     0
100
AcDbLine
 10
1.762766244316673
 20
0.7904944201851708
 30
0.0
 11
2.048830048469761
 21
1.076558224338258
 31
0.0
  0
LINE
  5
1D4
330
32
100
AcDbEntity
  8
0
 62
     0
100
AcDbLine
 10
1.687059690507345
 20
0.0076810851892948
 30
0.0
 11
1.798878605318063
 21
0.1195000000000128
 31
0.0
  0
LINE
  5
1D5
330
32
100
AcDbEntity
  8
0
 62
     0
100
AcDbLine
 10
2.46987302550322
 20
0.7904944201851697
 30
0.0
 11
2.747657305179042
 21
1.068278699860992
 31
0.0
  0
LINE
  5
1D6
330
32
100
AcDbEntity
  8
0
 62
     0
100
AcDbLine
 10
2.390475748357136
 20
0.0039903618525387
 30
0.0
 11
2.50598538650461
 21
0.1195000000000128
 31
0.0
  0
LINE
  5
1D7
330
32
100
AcDbEntity
  8
0
 62
     0
100
AcDbLine
 10
3.093891806206927
 20
0.0002996385157825
 30
0.0
 11
3.150999999999896
 21
0.0574078323087517
 31
0.0
  0
ENDBLK
  5
1D8
330
32
100
AcDbEntity
  8
0
100
AcDbBlockEnd
  0
BLOCK
  5
908
330
8FD
100
AcDbEntity
  8
0
100
AcDbBlockBegin
  2
*D3
 70
     1
 10
0.0
 20
0.0
 30
0.0
  3
*D3
  1

  0
LINE
  5
CA3
330
8FD
100
AcDbEntity
  8
DIM
 62
     0
370
    -2
100
AcDbLine
 10
55.22829611494175
 20
27.84653018267752
 30
0.0
 11
55.22829611494175
 21
29.56594353367744
 31
0.0
  0
LINE
  5
CA4
330
8FD
100
AcDbEntity
  8
DIM
 62
     0
370
    -2
100
AcDbLine
 10
45.19029611494175
 20
27.84653018267749
 30
0.0
 11
45.19029611494175
 21
29.56594353367744
 31
0.0
  0
LINE
  5
CA5
330
8FD
100
AcDbEntity
  8
DIM
 62
     0
370
    -2
100
AcDbLine
 10
54.41829611494175
 20
29.14744353367744
 30
0.0
 11
50.75492111494176
 21
29.14744353367744
 31
0.0
  0
LINE
  5
CA6
330
8FD
100
AcDbEntity
  8
DIM
 62
     0
370
    -2
100
AcDbLine
 10
46.00029611494176
 20
29.14744353367744
 30
0.0
 11
49.66367111494175
 21
29.14744353367744
 31
0.0
  0
SOLID
  5
CA7
330
8FD
100
AcDbEntity
  8
DIM
 62
     0
100
AcDbTrace
 10
54.41829611494175
 20
29.28244353367745
 30
0.0
 11
54.41829611494175
 21
29.01244353367744
 31
0.0
 12
55.22829611494175
 22
29.14744353367744
 32
0.0
 13
55.22829611494175
 23
29.14744353367744
 33
0.0
  0
SOLID
  5
CA8
330
8FD
100
AcDbEntity
  8
DIM
 62
     0
100
AcDbTrace
 10
46.00029611494176
 20
29.28244353367745
 30
0.0
 11
46.00029611494176
 21
29.01244353367744
 31
0.0
 12
45.19029611494175
 22
29.14744353367744
 32
0.0
 13
45.19029611494175
 23
29.14744353367744
 33
0.0
  0
MTEXT
  5
CA9
330
8FD
100
AcDbEntity
  8
DIM
 62
     0
100
AcDbMText
 10
50.20929611494175
 20
29.14744353367744
 30
0.0
 40
0.5625
 41
0.0
 71
     5
 72
     1
  1
\A1;C
 73
     1
 44
1.0
  0
POINT
  5
CAA
330
8FD
100
AcDbEntity
  8
DEFPOINTS
 62
     0
100
AcDbPoint
 10
55.22829611494175
 20
27.56303018267752
 30
0.0
  0
POINT
  5
CAB
330
8FD
100
AcDbEntity
  8
DEFPOINTS
 62
     0
100
AcDbPoint
 10
45.19029611494175
 20
27.56303018267749
 30
0.0
  0
POINT
  5
CAC
330
8FD
100
AcDbEntity
  8
DEFPOINTS
 62
     0
100
AcDbPoint
 10
45.19029611494175
 20
29.14744353367744
 30
0.0
  0
ENDBLK
  5
909
330
8FD
100
AcDbEntity
  8
0
100
AcDbBlockEnd
  0
BLOCK
  5
915
330
90A
100
AcDbEntity
  8
0
100
AcDbBlockBegin
  2
*D4
 70
     1
 10
0.0
 20
0.0
 30
0.0
  3
*D4
  1

  0
LINE
  5
CB7
330
90A
100
AcDbEntity
  8
DIM
 62
     0
370
    -2
100
AcDbLine
 10
55.72129611494172
 20
27.84440420142754
 30
0.0
 11
55.72129611494172
 21
31.81594353367744
 31
0.0
  0
LINE
  5
CB8
330
90A
100
AcDbEntity
  8
DIM
 62
     0
370
    -2
100
AcDbLine
 10
44.69729611494178
 20
27.84440420142754
 30
0.0
 11
44.69729611494178
 21
31.81594353367744
 31
0.0
  0
LINE
  5
CB9
330
90A
100
AcDbEntity
  8
DIM
 62
     0
370
    -2
100
AcDbLine
 10
54.91129611494172
 20
31.39744353367744
 30
0.0
 11
50.75492111494175
 21
31.39744353367744
 31
0.0
  0
LINE
  5
CBA
330
90A
100
AcDbEntity
  8
DIM
 62
     0
370
    -2
100
AcDbLine
 10
45.50729611494178
 20
31.39744353367744
 30
0.0
 11
49.66367111494175
 21
31.39744353367744
 31
0.0
  0
SOLID
  5
CBB
330
90A
100
AcDbEntity
  8
DIM
 62
     0
100
AcDbTrace
 10
54.91129611494172
 20
31.53244353367744
 30
0.0
 11
54.91129611494172
 21
31.26244353367744
 31
0.0
 12
55.72129611494172
 22
31.39744353367744
 32
0.0
 13
55.72129611494172
 23
31.39744353367744
 33
0.0
  0
SOLID
  5
CBC
330
90A
100
AcDbEntity
  8
DIM
 62
     0
100
AcDbTrace
 10
45.50729611494178
 20
31.53244353367744
 30
0.0
 11
45.50729611494178
 21
31.26244353367744
 31
0.0
 12
44.69729611494178
 22
31.39744353367744
 32
0.0
 13
44.69729611494178
 23
31.39744353367744
 33
0.0
  0
MTEXT
  5
CBD
330
90A
100
AcDbEntity
  8
DIM
 62
     0
100
AcDbMText
 10
50.20929611494175
 20
31.39744353367744
 30
0.0
 40
0.5625
 41
0.0
 71
     5
 72
     1
  1
\A1;A
 73
     1
 44
1.0
  0
POINT
  5
CBE
330
90A
100
AcDbEntity
  8
DEFPOINTS
 62
     0
100
AcDbPoint
 10
55.72129611494172
 20
27.56090420142754
 30
0.0
  0
POINT
  5
CBF
330
90A
100
AcDbEntity
  8
DEFPOINTS
 62
     0
100
AcDbPoint
 10
44.69729611494178
 20
27.56090420142754
 30
0.0
  0
POINT
  5
CC0
330
90A
100
AcDbEntity
  8
DEFPOINTS
 62
     0
100
AcDbPoint
 10
44.69729611494178
 20
31.39744353367744
 30
0.0
  0
ENDBLK
  5
916
330
90A
100
AcDbEntity
  8
0
100
AcDbBlockEnd
  0
BLOCK
  5
922
330
917
100
AcDbEntity
  8
0
100
AcDbBlockBegin
  2
*D5
 70
     1
 10
0.0
 20
0.0
 30
0.0
  3
*D5
  1

  0
LINE
  5
CAD
330
917
100
AcDbEntity
  8
DIM
 62
     0
370
    -2
100
AcDbLine
 10
55.30929611494177
 20
27.36215482140536
 30
0.0
 11
55.30929611494177
 21
30.69094353367745
 31
0.0
  0
LINE
  5
CAE
330
917
100
AcDbEntity
  8
DIM
 62
     0
370
    -2
100
AcDbLine
 10
45.10929611494176
 20
27.36215482140547
 30
0.0
 11
45.10929611494176
 21
30.69094353367745
 31
0.0
  0
LINE
  5
CAF
330
917
100
AcDbEntity
  8
DIM
 62
     0
370
    -2
100
AcDbLine
 10
54.49929611494177
 20
30.27244353367744
 30
0.0
 11
50.75492111494177
 21
30.27244353367744
 31
0.0
  0
LINE
  5
CB0
330
917
100
AcDbEntity
  8
DIM
 62
     0
370
    -2
100
AcDbLine
 10
45.91929611494175
 20
30.27244353367744
 30
0.0
 11
49.66367111494176
 21
30.27244353367744
 31
0.0
  0
SOLID
  5
CB1
330
917
100
AcDbEntity
  8
DIM
 62
     0
100
AcDbTrace
 10
54.49929611494177
 20
30.40744353367744
 30
0.0
 11
54.49929611494177
 21
30.13744353367744
 31
0.0
 12
55.30929611494177
 22
30.27244353367744
 32
0.0
 13
55.30929611494177
 23
30.27244353367744
 33
0.0
  0
SOLID
  5
CB2
330
917
100
AcDbEntity
  8
DIM
 62
     0
100
AcDbTrace
 10
45.91929611494175
 20
30.40744353367744
 30
0.0
 11
45.91929611494175
 21
30.13744353367744
 31
0.0
 12
45.10929611494176
 22
30.27244353367744
 32
0.0
 13
45.10929611494176
 23
30.27244353367744
 33
0.0
  0
MTEXT
  5
CB3
330
917
100
AcDbEntity
  8
DIM
 62
     0
100
AcDbMText
 10
50.20929611494176
 20
30.27244353367744
 30
0.0
 40
0.5625
 41
0.0
 71
     5
 72
     1
  1
\A1;B
 73
     1
 44
1.0
  0
POINT
  5
CB4
330
917
100
AcDbEntity
  8
DEFPOINTS
 62
     0
100
AcDbPoint
 10
55.30929611494177
 20
27.07865482140536
 30
0.0
  0
POINT
  5
CB5
330
917
100
AcDbEntity
  8
DEFPOINTS
 62
     0
100
AcDbPoint
 10
45.10929611494176
 20
27.07865482140547
 30
0.0
  0
POINT
  5
CB6
330
917
100
AcDbEntity
  8
DEFPOINTS
 62
     0
100
AcDbPoint
 10
45.10929611494176
 20
30.27244353367744
 30
0.0
  0
ENDBLK
  5
923
330
917
100
AcDbEntity
  8
0
100
AcDbBlockEnd
  0
BLOCK
  5
92F
330
924
100
AcDbEntity
  8
0
100
AcDbBlockBegin
  2
*D6
 70
     1
 10
0.0
 20
0.0
 30
0.0
  3
*D6
  1

  0
LINE
  5
C03
330
924
100
AcDbEntity
  8
DIM
 62
     0
370
    -2
100
AcDbLine
 10
44.90592209619173
 20
13.08903018267757
 30
0.0
 11
40.49688900982295
 21
13.08903018267757
 31
0.0
  0
LINE
  5
C04
330
924
100
AcDbEntity
  8
DIM
 62
     0
370
    -2
100
AcDbLine
 10
44.90592209619173
 20
28.05003018267751
 30
0.0
 11
40.49688900982295
 21
28.05003018267751
 31
0.0
  0
LINE
  5
C05
330
924
100
AcDbEntity
  8
DIM
 62
     0
370
    -2
100
AcDbLine
 10
40.91538900982295
 20
13.89903018267757
 30
0.0
 11
40.91538900982295
 21
19.88328018267754
 31
0.0
  0
LINE
  5
C06
330
924
100
AcDbEntity
  8
DIM
 62
     0
370
    -2
100
AcDbLine
 10
40.91538900982295
 20
27.24003018267751
 30
0.0
 11
40.91538900982295
 21
21.25578018267754
 31
0.0
  0
SOLID
  5
C07
330
924
100
AcDbEntity
  8
DIM
 62
     0
100
AcDbTrace
 10
40.78038900982295
 20
13.89903018267757
 30
0.0
 11
41.05038900982295
 21
13.89903018267757
 31
0.0
 12
40.91538900982295
 22
13.08903018267757
 32
0.0
 13
40.91538900982295
 23
13.08903018267757
 33
0.0
  0
SOLID
  5
C08
330
924
100
AcDbEntity
  8
DIM
 62
     0
100
AcDbTrace
 10
40.78038900982296
 20
27.24003018267751
 30
0.0
 11
41.05038900982296
 21
27.24003018267751
 31
0.0
 12
40.91538900982295
 22
28.05003018267751
 32
0.0
 13
40.91538900982295
 23
28.05003018267751
 33
0.0
  0
MTEXT
  5
C09
330
924
100
AcDbEntity
  8
DIM
 62
     0
100
AcDbMText
 10
40.91538900982295
 20
20.56953018267754
 30
0.0
 40
0.5625
 41
0.0
 71
     5
 72
     1
  1
\A1;G
 73
     1
 44
1.0
  0
POINT
  5
C0A
330
924
100
AcDbEntity
  8
DEFPOINTS
 62
     0
100
AcDbPoint
 10
45.18942209619173
 20
13.08903018267757
 30
0.0
  0
POINT
  5
C0B
330
924
100
AcDbEntity
  8
DEFPOINTS
 62
     0
100
AcDbPoint
 10
45.18942209619173
 20
28.05003018267751
 30
0.0
  0
POINT
  5
C0C
330
924
100
AcDbEntity
  8
DEFPOINTS
 62
     0
100
AcDbPoint
 10
40.91538900982295
 20
28.05003018267751
 30
0.0
  0
ENDBLK
  5
930
330
924
100
AcDbEntity
  8
0
100
AcDbBlockEnd
  0
BLOCK
  5
93C
330
931
100
AcDbEntity
  8
0
100
AcDbBlockBegin
  2
*D7
 70
     1
 10
0.0
 20
0.0
 30
0.0
  3
*D7
  1

  0
LINE
  5
C0D
330
931
100
AcDbEntity
  8
DIM
 62
     0
370
    -2
100
AcDbLine
 10
45.3850937780269
 20
27.63703018267752
 30
0.0
 11
41.76138900982296
 21
27.63703018267752
 31
0.0
  0
LINE
  5
C0E
330
931
100
AcDbEntity
  8
DIM
 62
     0
370
    -2
100
AcDbLine
 10
45.385093778027
 20
13.50203018267756
 30
0.0
 11
41.76138900982295
 21
13.50203018267756
 31
0.0
  0
LINE
  5
C0F
330
931
100
AcDbEntity
  8
DIM
 62
     0
370
    -2
100
AcDbLine
 10
42.17988900982296
 20
26.82703018267752
 30
0.0
 11
42.17988900982296
 21
21.25578018267754
 31
0.0
  0
LINE
  5
C10
330
931
100
AcDbEntity
  8
DIM
 62
     0
370
    -2
100
AcDbLine
 10
42.17988900982295
 20
14.31203018267756
 30
0.0
 11
42.17988900982296
 21
19.88328018267754
 31
0.0
  0
SOLID
  5
C11
330
931
100
AcDbEntity
  8
DIM
 62
     0
100
AcDbTrace
 10
42.04488900982297
 20
26.82703018267752
 30
0.0
 11
42.31488900982296
 21
26.82703018267752
 31
0.0
 12
42.17988900982296
 22
27.63703018267752
 32
0.0
 13
42.17988900982296
 23
27.63703018267752
 33
0.0
  0
SOLID
  5
C12
330
931
100
AcDbEntity
  8
DIM
 62
     0
100
AcDbTrace
 10
42.04488900982296
 20
14.31203018267756
 30
0.0
 11
42.31488900982295
 21
14.31203018267756
 31
0.0
 12
42.17988900982295
 22
13.50203018267756
 32
0.0
 13
42.17988900982295
 23
13.50203018267756
 33
0.0
  0
MTEXT
  5
C13
330
931
100
AcDbEntity
  8
DIM
 62
     0
100
AcDbMText
 10
42.17988900982295
 20
20.56953018267754
 30
0.0
 40
0.5625
 41
0.0
 71
     5
 72
     1
  1
\A1;H
 73
     1
 44
1.0
  0
POINT
  5
C14
330
931
100
AcDbEntity
  8
DEFPOINTS
 62
     0
100
AcDbPoint
 10
45.6685937780269
 20
27.63703018267752
 30
0.0
  0
POINT
  5
C15
330
931
100
AcDbEntity
  8
DEFPOINTS
 62
     0
100
AcDbPoint
 10
45.668593778027
 20
13.50203018267756
 30
0.0
  0
POINT
  5
C16
330
931
100
AcDbEntity
  8
DEFPOINTS
 62
     0
100
AcDbPoint
 10
42.17988900982295
 20
13.50203018267756
 30
0.0
  0
ENDBLK
  5
93D
330
931
100
AcDbEntity
  8
0
100
AcDbBlockEnd
  0
BLOCK
  5
949
330
93E
100
AcDbEntity
  8
0
100
AcDbBlockBegin
  2
*D8
 70
     1
 10
0.0
 20
0.0
 30
0.0
  3
*D8
  1

  0
LINE
  5
C17
330
93E
100
AcDbEntity
  8
DIM
 62
     0
370
    -2
100
AcDbLine
 10
44.90679611494176
 20
27.56303018267749
 30
0.0
 11
43.02588900982295
 21
27.56303018267749
 31
0.0
  0
LINE
  5
C18
330
93E
100
AcDbEntity
  8
DIM
 62
     0
370
    -2
100
AcDbLine
 10
44.90679611494178
 20
13.5760301826775
 30
0.0
 11
43.02588900982295
 21
13.5760301826775
 31
0.0
  0
LINE
  5
C19
330
93E
100
AcDbEntity
  8
DIM
 62
     0
370
    -2
100
AcDbLine
 10
43.44438900982296
 20
26.75303018267749
 30
0.0
 11
43.44438900982296
 21
21.25578018267749
 31
0.0
  0
LINE
  5
C1A
330
93E
100
AcDbEntity
  8
DIM
 62
     0
370
    -2
100
AcDbLine
 10
43.44438900982296
 20
14.3860301826775
 30
0.0
 11
43.44438900982296
 21
19.88328018267749
 31
0.0
  0
SOLID
  5
C1B
330
93E
100
AcDbEntity
  8
DIM
 62
     0
100
AcDbTrace
 10
43.30938900982296
 20
26.75303018267749
 30
0.0
 11
43.57938900982296
 21
26.75303018267749
 31
0.0
 12
43.44438900982296
 22
27.56303018267749
 32
0.0
 13
43.44438900982296
 23
27.56303018267749
 33
0.0
  0
SOLID
  5
C1C
330
93E
100
AcDbEntity
  8
DIM
 62
     0
100
AcDbTrace
 10
43.30938900982295
 20
14.3860301826775
 30
0.0
 11
43.57938900982295
 21
14.3860301826775
 31
0.0
 12
43.44438900982296
 22
13.5760301826775
 32
0.0
 13
43.44438900982296
 23
13.5760301826775
 33
0.0
  0
MTEXT
  5
C1D
330
93E
100
AcDbEntity
  8
DIM
 62
     0
100
AcDbMText
 10
43.44438900982296
 20
20.5695301826775
 30
0.0
 40
0.5625
 41
0.0
 71
     5
 72
     1
  1
\A1;J
 73
     1
 44
1.0
  0
POINT
  5
C1E
330
93E
100
AcDbEntity
  8
DEFPOINTS
 62
     0
100
AcDbPoint
 10
45.19029611494175
 20
27.56303018267749
 30
0.0
  0
POINT
  5
C1F
330
93E
100
AcDbEntity
  8
DEFPOINTS
 62
     0
100
AcDbPoint
 10
45.19029611494177
 20
13.5760301826775
 30
0.0
  0
POINT
  5
C20
330
93E
100
AcDbEntity
  8
DEFPOINTS
 62
     0
100
AcDbPoint
 10
43.44438900982296
 20
13.5760301826775
 30
0.0
  0
ENDBLK
  5
94A
330
93E
100
AcDbEntity
  8
0
100
AcDbBlockEnd
  0
BLOCK
  5
956
330
94B
100
AcDbEntity
  8
0
100
AcDbBlockBegin
  2
*D9
 70
     1
 10
0.0
 20
0.0
 30
0.0
  3
*D9
  1

  0
LINE
  5
C21
330
94B
100
AcDbEntity
  8
DIM
 62
     0
370
    -2
100
AcDbLine
 10
53.94379611494175
 20
14.17203018267749
 30
0.0
 11
67.28060711594171
 21
14.17203018267749
 31
0.0
  0
LINE
  5
C22
330
94B
100
AcDbEntity
  8
DIM
 62
     0
370
    -2
100
AcDbLine
 10
53.94379611494175
 20
26.96703018267749
 30
0.0
 11
67.28060711594171
 21
26.96703018267748
 31
0.0
  0
LINE
  5
C23
330
94B
100
AcDbEntity
  8
DIM
 62
     0
370
    -2
100
AcDbLine
 10
66.86210711594171
 20
14.98203018267749
 30
0.0
 11
66.86210711594171
 21
19.88328018267749
 31
0.0
  0
LINE
  5
C24
330
94B
100
AcDbEntity
  8
DIM
 62
     0
370
    -2
100
AcDbLine
 10
66.86210711594171
 20
26.15703018267748
 30
0.0
 11
66.86210711594171
 21
21.25578018267749
 31
0.0
  0
SOLID
  5
C25
330
94B
100
AcDbEntity
  8
DIM
 62
     0
100
AcDbTrace
 10
66.7271071159417
 20
14.98203018267749
 30
0.0
 11
66.99710711594171
 21
14.98203018267749
 31
0.0
 12
66.86210711594171
 22
14.17203018267749
 32
0.0
 13
66.86210711594171
 23
14.17203018267749
 33
0.0
  0
SOLID
  5
C26
330
94B
100
AcDbEntity
  8
DIM
 62
     0
100
AcDbTrace
 10
66.7271071159417
 20
26.15703018267748
 30
0.0
 11
66.99710711594171
 21
26.15703018267748
 31
0.0
 12
66.86210711594171
 22
26.96703018267748
 32
0.0
 13
66.86210711594171
 23
26.96703018267748
 33
0.0
  0
MTEXT
  5
C27
330
94B
100
AcDbEntity
  8
DIM
 62
     0
100
AcDbMText
 10
66.86210711594171
 20
20.5695301826775
 30
0.0
 40
0.5625
 41
0.0
 71
     5
 72
     1
  1
\A1;K
 73
     1
 44
1.0
  0
POINT
  5
C28
330
94B
100
AcDbEntity
  8
DEFPOINTS
 62
     0
100
AcDbPoint
 10
53.66029611494176
 20
14.17203018267749
 30
0.0
  0
POINT
  5
C29
330
94B
100
AcDbEntity
  8
DEFPOINTS
 62
     0
100
AcDbPoint
 10
53.66029611494176
 20
26.96703018267749
 30
0.0
  0
POINT
  5
C2A
330
94B
100
AcDbEntity
  8
DEFPOINTS
 62
     0
100
AcDbPoint
 10
66.86210711594171
 20
26.96703018267748
 30
0.0
  0
ENDBLK
  5
957
330
94B
100
AcDbEntity
  8
0
100
AcDbBlockEnd
  0
BLOCK
  5
963
330
958
100
AcDbEntity
  8
0
100
AcDbBlockBegin
  2
*D10
 70
     1
 10
0.0
 20
0.0
 30
0.0
  3
*D10
  1

  0
LINE
  5
C2B
330
958
100
AcDbEntity
  8
DIM
 62
     0
370
    -2
100
AcDbLine
 10
54.62229611494174
 20
14.46353018267749
 30
0.0
 11
66.01610711594171
 21
14.46353018267749
 31
0.0
  0
LINE
  5
C2C
330
958
100
AcDbEntity
  8
DIM
 62
     0
370
    -2
100
AcDbLine
 10
54.62229611494174
 20
26.6755301826775
 30
0.0
 11
66.01610711594171
 21
26.6755301826775
 31
0.0
  0
LINE
  5
C2D
330
958
100
AcDbEntity
  8
DIM
 62
     0
370
    -2
100
AcDbLine
 10
65.59760711594171
 20
15.27353018267749
 30
0.0
 11
65.59760711594171
 21
19.88328018267749
 31
0.0
  0
LINE
  5
C2E
330
958
100
AcDbEntity
  8
DIM
 62
     0
370
    -2
100
AcDbLine
 10
65.59760711594171
 20
25.8655301826775
 30
0.0
 11
65.59760711594171
 21
21.25578018267749
 31
0.0
  0
SOLID
  5
C2F
330
958
100
AcDbEntity
  8
DIM
 62
     0
100
AcDbTrace
 10
65.46260711594171
 20
15.27353018267749
 30
0.0
 11
65.73260711594172
 21
15.27353018267749
 31
0.0
 12
65.59760711594171
 22
14.46353018267749
 32
0.0
 13
65.59760711594171
 23
14.46353018267749
 33
0.0
  0
SOLID
  5
C30
330
958
100
AcDbEntity
  8
DIM
 62
     0
100
AcDbTrace
 10
65.46260711594171
 20
25.8655301826775
 30
0.0
 11
65.73260711594172
 21
25.8655301826775
 31
0.0
 12
65.59760711594171
 22
26.6755301826775
 32
0.0
 13
65.59760711594171
 23
26.6755301826775
 33
0.0
  0
MTEXT
  5
C31
330
958
100
AcDbEntity
  8
DIM
 62
     0
100
AcDbMText
 10
65.59760711594171
 20
20.5695301826775
 30
0.0
 40
0.5625
 41
0.0
 71
     5
 72
     1
  1
\A1;L
 73
     1
 44
1.0
  0
POINT
  5
C32
330
958
100
AcDbEntity
  8
DEFPOINTS
 62
     0
100
AcDbPoint
 10
54.33879611494174
 20
14.46353018267749
 30
0.0
  0
POINT
  5
C33
330
958
100
AcDbEntity
  8
DEFPOINTS
 62
     0
100
AcDbPoint
 10
54.33879611494174
 20
26.6755301826775
 30
0.0
  0
POINT
  5
C34
330
958
100
AcDbEntity
  8
DEFPOINTS
 62
     0
100
AcDbPoint
 10
65.59760711594171
 20
26.6755301826775
 30
0.0
  0
ENDBLK
  5
964
330
958
100
AcDbEntity
  8
0
100
AcDbBlockEnd
  0
BLOCK
  5
970
330
965
100
AcDbEntity
  8
0
100
AcDbBlockBegin
  2
*D11
 70
     1
 10
0.0
 20
0.0
 30
0.0
  3
*D11
  1

  0
LINE
  5
C35
330
965
100
AcDbEntity
  8
DIM
 62
     0
370
    -2
100
AcDbLine
 10
54.92079611494174
 20
15.15303018267749
 30
0.0
 11
64.7516071159417
 21
15.15303018267749
 31
0.0
  0
LINE
  5
C36
330
965
100
AcDbEntity
  8
DIM
 62
     0
370
    -2
100
AcDbLine
 10
54.92079611494174
 20
25.98603018267749
 30
0.0
 11
64.7516071159417
 21
25.98603018267749
 31
0.0
  0
LINE
  5
C37
330
965
100
AcDbEntity
  8
DIM
 62
     0
370
    -2
100
AcDbLine
 10
64.33310711594171
 20
15.96303018267749
 30
0.0
 11
64.33310711594171
 21
19.88328018267749
 31
0.0
  0
LINE
  5
C38
330
965
100
AcDbEntity
  8
DIM
 62
     0
370
    -2
100
AcDbLine
 10
64.33310711594171
 20
25.17603018267749
 30
0.0
 11
64.33310711594171
 21
21.25578018267749
 31
0.0
  0
SOLID
  5
C39
330
965
100
AcDbEntity
  8
DIM
 62
     0
100
AcDbTrace
 10
64.19810711594171
 20
15.96303018267749
 30
0.0
 11
64.46810711594172
 21
15.96303018267749
 31
0.0
 12
64.33310711594171
 22
15.15303018267749
 32
0.0
 13
64.33310711594171
 23
15.15303018267749
 33
0.0
  0
SOLID
  5
C3A
330
965
100
AcDbEntity
  8
DIM
 62
     0
100
AcDbTrace
 10
64.19810711594171
 20
25.17603018267749
 30
0.0
 11
64.46810711594172
 21
25.17603018267749
 31
0.0
 12
64.33310711594171
 22
25.98603018267749
 32
0.0
 13
64.33310711594171
 23
25.98603018267749
 33
0.0
  0
MTEXT
  5
C3B
330
965
100
AcDbEntity
  8
DIM
 62
     0
100
AcDbMText
 10
64.33310711594171
 20
20.5695301826775
 30
0.0
 40
0.5625
 41
0.0
 71
     5
 72
     1
  1
\A1;M
 73
     1
 44
1.0
  0
POINT
  5
C3C
330
965
100
AcDbEntity
  8
DEFPOINTS
 62
     0
100
AcDbPoint
 10
54.63729611494175
 20
15.15303018267749
 30
0.0
  0
POINT
  5
C3D
330
965
100
AcDbEntity
  8
DEFPOINTS
 62
     0
100
AcDbPoint
 10
54.63729611494175
 20
25.98603018267749
 30
0.0
  0
POINT
  5
C3E
330
965
100
AcDbEntity
  8
DEFPOINTS
 62
     0
100
AcDbPoint
 10
64.33310711594171
 20
25.98603018267749
 30
0.0
  0
ENDBLK
  5
971
330
965
100
AcDbEntity
  8
0
100
AcDbBlockEnd
  0
BLOCK
  5
97D
330
972
100
AcDbEntity
  8
0
100
AcDbBlockBegin
  2
*D12
 70
     1
 10
0.0
 20
0.0
 30
0.0
  3
*D12
  1

  0
LINE
  5
C8F
330
972
100
AcDbEntity
  8
DIM
 62
     0
370
    -2
100
AcDbLine
 10
53.66029611494176
 20
13.88853018267749
 30
0.0
 11
53.66029611494176
 21
8.877030182677566
 31
0.0
  0
LINE
  5
C90
330
972
100
AcDbEntity
  8
DIM
 62
     0
370
    -2
100
AcDbLine
 10
46.75829611494177
 20
13.88853018267749
 30
0.0
 11
46.75829611494177
 21
8.877030182677566
 31
0.0
  0
LINE
  5
C91
330
972
100
AcDbEntity
  8
DIM
 62
     0
370
    -2
100
AcDbLine
 10
52.85029611494175
 20
9.295530182677566
 30
0.0
 11
50.75492111494177
 21
9.295530182677566
 31
0.0
  0
LINE
  5
C92
330
972
100
AcDbEntity
  8
DIM
 62
     0
370
    -2
100
AcDbLine
 10
47.56829611494177
 20
9.295530182677566
 30
0.0
 11
49.66367111494176
 21
9.295530182677566
 31
0.0
  0
SOLID
  5
C93
330
972
100
AcDbEntity
  8
DIM
 62
     0
100
AcDbTrace
 10
52.85029611494175
 20
9.430530182677566
 30
0.0
 11
52.85029611494175
 21
9.160530182677566
 31
0.0
 12
53.66029611494176
 22
9.295530182677566
 32
0.0
 13
53.66029611494176
 23
9.295530182677566
 33
0.0
  0
SOLID
  5
C94
330
972
100
AcDbEntity
  8
DIM
 62
     0
100
AcDbTrace
 10
47.56829611494177
 20
9.430530182677566
 30
0.0
 11
47.56829611494177
 21
9.160530182677566
 31
0.0
 12
46.75829611494177
 22
9.295530182677566
 32
0.0
 13
46.75829611494177
 23
9.295530182677566
 33
0.0
  0
MTEXT
  5
C95
330
972
100
AcDbEntity
  8
DIM
 62
     0
100
AcDbMText
 10
50.20929611494176
 20
9.295530182677566
 30
0.0
 40
0.5625
 41
0.0
 71
     5
 72
     1
  1
\A1;F
 73
     1
 44
1.0
  0
POINT
  5
C96
330
972
100
AcDbEntity
  8
DEFPOINTS
 62
     0
100
AcDbPoint
 10
53.66029611494176
 20
14.17203018267749
 30
0.0
  0
POINT
  5
C97
330
972
100
AcDbEntity
  8
DEFPOINTS
 62
     0
100
AcDbPoint
 10
46.75829611494177
 20
14.17203018267749
 30
0.0
  0
POINT
  5
C98
330
972
100
AcDbEntity
  8
DEFPOINTS
 62
     0
100
AcDbPoint
 10
46.75829611494177
 20
9.295530182677566
 30
0.0
  0
ENDBLK
  5
97E
330
972
100
AcDbEntity
  8
0
100
AcDbBlockEnd
  0
BLOCK
  5
98A
330
97F
100
AcDbEntity
  8
0
100
AcDbBlockBegin
  2
*D13
 70
     1
 10
0.0
 20
0.0
 30
0.0
  3
*D13
  1

  0
LINE
  5
C67
330
97F
100
AcDbEntity
  8
DIM
 62
     0
370
    -2
100
AcDbLine
 10
54.33279611494175
 20
14.1800301826775
 30
0.0
 11
54.33279611494175
 21
7.752030182677566
 31
0.0
  0
LINE
  5
C68
330
97F
100
AcDbEntity
  8
DIM
 62
     0
370
    -2
100
AcDbLine
 10
46.07979611494179
 20
14.18003018267749
 30
0.0
 11
46.07979611494179
 21
7.752030182677566
 31
0.0
  0
LINE
  5
C69
330
97F
100
AcDbEntity
  8
DIM
 62
     0
370
    -2
100
AcDbLine
 10
53.52279611494175
 20
8.170530182677566
 30
0.0
 11
50.75192111494177
 21
8.170530182677566
 31
0.0
  0
LINE
  5
C6A
330
97F
100
AcDbEntity
  8
DIM
 62
     0
370
    -2
100
AcDbLine
 10
46.88979611494178
 20
8.170530182677566
 30
0.0
 11
49.66067111494177
 21
8.170530182677566
 31
0.0
  0
SOLID
  5
C6B
330
97F
100
AcDbEntity
  8
DIM
 62
     0
100
AcDbTrace
 10
53.52279611494175
 20
8.305530182677566
 30
0.0
 11
53.52279611494175
 21
8.035530182677566
 31
0.0
 12
54.33279611494175
 22
8.170530182677566
 32
0.0
 13
54.33279611494175
 23
8.170530182677566
 33
0.0
  0
SOLID
  5
C6C
330
97F
100
AcDbEntity
  8
DIM
 62
     0
100
AcDbTrace
 10
46.88979611494178
 20
8.305530182677566
 30
0.0
 11
46.88979611494178
 21
8.035530182677566
 31
0.0
 12
46.07979611494179
 22
8.170530182677566
 32
0.0
 13
46.07979611494179
 23
8.170530182677566
 33
0.0
  0
MTEXT
  5
C6D
330
97F
100
AcDbEntity
  8
DIM
 62
     0
100
AcDbMText
 10
50.20629611494177
 20
8.170530182677566
 30
0.0
 40
0.5625
 41
0.0
 71
     5
 72
     1
  1
\A1;E
 73
     1
 44
1.0
  0
POINT
  5
C6E
330
97F
100
AcDbEntity
  8
DEFPOINTS
 62
     0
100
AcDbPoint
 10
54.33279611494175
 20
14.4635301826775
 30
0.0
  0
POINT
  5
C6F
330
97F
100
AcDbEntity
  8
DEFPOINTS
 62
     0
100
AcDbPoint
 10
46.07979611494179
 20
14.46353018267749
 30
0.0
  0
POINT
  5
C70
330
97F
100
AcDbEntity
  8
DEFPOINTS
 62
     0
100
AcDbPoint
 10
46.07979611494179
 20
8.170530182677566
 30
0.0
  0
ENDBLK
  5
98B
330
97F
100
AcDbEntity
  8
0
100
AcDbBlockEnd
  0
BLOCK
  5
997
330
98C
100
AcDbEntity
  8
0
100
AcDbBlockBegin
  2
*D14
 70
     1
 10
0.0
 20
0.0
 30
0.0
  3
*D14
  1

  0
LINE
  5
C71
330
98C
100
AcDbEntity
  8
DIM
 62
     0
370
    -2
100
AcDbLine
 10
54.63129611494176
 20
14.86953018267749
 30
0.0
 11
54.63129611494176
 21
6.627030182677566
 31
0.0
  0
LINE
  5
C72
330
98C
100
AcDbEntity
  8
DIM
 62
     0
370
    -2
100
AcDbLine
 10
45.78129611494179
 20
14.86953018267749
 30
0.0
 11
45.78129611494179
 21
6.627030182677566
 31
0.0
  0
LINE
  5
C73
330
98C
100
AcDbEntity
  8
DIM
 62
     0
370
    -2
100
AcDbLine
 10
53.82129611494176
 20
7.045530182677566
 30
0.0
 11
50.75192111494178
 21
7.045530182677566
 31
0.0
  0
LINE
  5
C74
330
98C
100
AcDbEntity
  8
DIM
 62
     0
370
    -2
100
AcDbLine
 10
46.59129611494179
 20
7.045530182677566
 30
0.0
 11
49.66067111494178
 21
7.045530182677566
 31
0.0
  0
SOLID
  5
C75
330
98C
100
AcDbEntity
  8
DIM
 62
     0
100
AcDbTrace
 10
53.82129611494176
 20
7.180530182677566
 30
0.0
 11
53.82129611494176
 21
6.910530182677566
 31
0.0
 12
54.63129611494176
 22
7.045530182677566
 32
0.0
 13
54.63129611494176
 23
7.045530182677566
 33
0.0
  0
SOLID
  5
C76
330
98C
100
AcDbEntity
  8
DIM
 62
     0
100
AcDbTrace
 10
46.59129611494179
 20
7.180530182677566
 30
0.0
 11
46.59129611494179
 21
6.910530182677566
 31
0.0
 12
45.78129611494179
 22
7.045530182677566
 32
0.0
 13
45.78129611494179
 23
7.045530182677566
 33
0.0
  0
MTEXT
  5
C77
330
98C
100
AcDbEntity
  8
DIM
 62
     0
100
AcDbMText
 10
50.20629611494178
 20
7.045530182677566
 30
0.0
 40
0.5625
 41
0.0
 71
     5
 72
     1
  1
\A1;D
 73
     1
 44
1.0
  0
POINT
  5
C78
330
98C
100
AcDbEntity
  8
DEFPOINTS
 62
     0
100
AcDbPoint
 10
54.63129611494176
 20
15.15303018267749
 30
0.0
  0
POINT
  5
C79
330
98C
100
AcDbEntity
  8
DEFPOINTS
 62
     0
100
AcDbPoint
 10
45.78129611494179
 20
15.15303018267749
 30
0.0
  0
POINT
  5
C7A
330
98C
100
AcDbEntity
  8
DEFPOINTS
 62
     0
100
AcDbPoint
 10
45.78129611494179
 20
7.045530182677566
 30
0.0
  0
ENDBLK
  5
998
330
98C
100
AcDbEntity
  8
0
100
AcDbBlockEnd
  0
BLOCK
  5
9A4
330
999
100
AcDbEntity
  8
0
100
AcDbBlockBegin
  2
*D15
 70
     1
 10
0.0
 20
0.0
 30
0.0
  3
*D15
  1

  0
LINE
  5
BBD
330
999
100
AcDbEntity
  8
DIM
 62
     0
370
    -2
100
AcDbLine
 10
19.36385831031216
 20
13.19303018267769
 30
0.0
 11
13.89767682683026
 21
13.19303018267769
 31
0.0
  0
LINE
  5
BBE
330
999
100
AcDbEntity
  8
DIM
 62
     0
370
    -2
100
AcDbLine
 10
19.36385831031216
 20
27.9460301826777
 30
0.0
 11
13.89767682683026
 21
27.9460301826777
 31
0.0
  0
LINE
  5
BBF
330
999
100
AcDbEntity
  8
DIM
 62
     0
370
    -2
100
AcDbLine
 10
14.31617682683025
 20
14.00303018267769
 30
0.0
 11
14.31617682683025
 21
19.88328018267769
 31
0.0
  0
LINE
  5
BC0
330
999
100
AcDbEntity
  8
DIM
 62
     0
370
    -2
100
AcDbLine
 10
14.31617682683026
 20
27.1360301826777
 30
0.0
 11
14.31617682683026
 21
21.25578018267769
 31
0.0
  0
SOLID
  5
BC1
330
999
100
AcDbEntity
  8
DIM
 62
     0
100
AcDbTrace
 10
14.18117682683026
 20
14.00303018267769
 30
0.0
 11
14.45117682683026
 21
14.00303018267769
 31
0.0
 12
14.31617682683025
 22
13.19303018267769
 32
0.0
 13
14.31617682683025
 23
13.19303018267769
 33
0.0
  0
SOLID
  5
BC2
330
999
100
AcDbEntity
  8
DIM
 62
     0
100
AcDbTrace
 10
14.18117682683026
 20
27.1360301826777
 30
0.0
 11
14.45117682683026
 21
27.1360301826777
 31
0.0
 12
14.31617682683026
 22
27.9460301826777
 32
0.0
 13
14.31617682683026
 23
27.9460301826777
 33
0.0
  0
MTEXT
  5
BC3
330
999
100
AcDbEntity
  8
DIM
 62
     0
100
AcDbMText
 10
14.31617682683025
 20
20.5695301826777
 30
0.0
 40
0.5625
 41
0.0
 71
     5
 72
     1
  1
\A1;S
 73
     1
 44
1.0
  0
POINT
  5
BC4
330
999
100
AcDbEntity
  8
DEFPOINTS
 62
     0
100
AcDbPoint
 10
19.64735831031216
 20
13.19303018267769
 30
0.0
  0
POINT
  5
BC5
330
999
100
AcDbEntity
  8
DEFPOINTS
 62
     0
100
AcDbPoint
 10
19.64735831031216
 20
27.9460301826777
 30
0.0
  0
POINT
  5
BC6
330
999
100
AcDbEntity
  8
DEFPOINTS
 62
     0
100
AcDbPoint
 10
14.31617682683026
 20
27.9460301826777
 30
0.0
  0
ENDBLK
  5
9A5
330
999
100
AcDbEntity
  8
0
100
AcDbBlockEnd
  0
BLOCK
  5
9B1
330
9A6
100
AcDbEntity
  8
0
100
AcDbBlockBegin
  2
*D16
 70
     1
 10
0.0
 20
0.0
 30
0.0
  3
*D16
  1

  0
LINE
  5
BB3
330
9A6
100
AcDbEntity
  8
DIM
 62
     0
370
    -2
100
AcDbLine
 10
26.74000791781203
 20
28.00453018267751
 30
0.0
 11
28.24011027281213
 21
28.00453018267751
 31
0.0
  0
LINE
  5
BB4
330
9A6
100
AcDbEntity
  8
DIM
 62
     0
370
    -2
100
AcDbLine
 10
26.74000791781203
 20
13.13453018267749
 30
0.0
 11
28.24011027281212
 21
13.13453018267749
 31
0.0
  0
LINE
  5
BB5
330
9A6
100
AcDbEntity
  8
DIM
 62
     0
370
    -2
100
AcDbLine
 10
27.82161027281213
 20
27.19453018267751
 30
0.0
 11
27.82161027281212
 21
21.2557801826775
 31
0.0
  0
LINE
  5
BB6
330
9A6
100
AcDbEntity
  8
DIM
 62
     0
370
    -2
100
AcDbLine
 10
27.82161027281212
 20
13.94453018267749
 30
0.0
 11
27.82161027281212
 21
19.8832801826775
 31
0.0
  0
SOLID
  5
BB7
330
9A6
100
AcDbEntity
  8
DIM
 62
     0
100
AcDbTrace
 10
27.68661027281213
 20
27.19453018267751
 30
0.0
 11
27.95661027281213
 21
27.19453018267751
 31
0.0
 12
27.82161027281213
 22
28.00453018267751
 32
0.0
 13
27.82161027281213
 23
28.00453018267751
 33
0.0
  0
SOLID
  5
BB8
330
9A6
100
AcDbEntity
  8
DIM
 62
     0
100
AcDbTrace
 10
27.68661027281212
 20
13.94453018267749
 30
0.0
 11
27.95661027281212
 21
13.94453018267749
 31
0.0
 12
27.82161027281212
 22
13.13453018267749
 32
0.0
 13
27.82161027281212
 23
13.13453018267749
 33
0.0
  0
MTEXT
  5
BB9
330
9A6
100
AcDbEntity
  8
DIM
 62
     0
100
AcDbMText
 10
27.82161027281212
 20
20.56953018267751
 30
0.0
 40
0.5625
 41
0.0
 71
     5
 72
     1
  1
\A1;R
 73
     1
 44
1.0
  0
POINT
  5
BBA
330
9A6
100
AcDbEntity
  8
DEFPOINTS
 62
     0
100
AcDbPoint
 10
26.45650791781203
 20
28.00453018267751
 30
0.0
  0
POINT
  5
BBB
330
9A6
100
AcDbEntity
  8
DEFPOINTS
 62
     0
100
AcDbPoint
 10
26.45650791781203
 20
13.13453018267749
 30
0.0
  0
POINT
  5
BBC
330
9A6
100
AcDbEntity
  8
DEFPOINTS
 62
     0
100
AcDbPoint
 10
27.82161027281212
 20
13.13453018267749
 30
0.0
  0
ENDBLK
  5
9B2
330
9A6
100
AcDbEntity
  8
0
100
AcDbBlockEnd
  0
BLOCK
  5
9BE
330
9B3
100
AcDbEntity
  8
0
100
AcDbBlockBegin
  2
*D17
 70
     1
 10
0.0
 20
0.0
 30
0.0
  3
*D17
  1

  0
LINE
  5
BEF
330
9B3
100
AcDbEntity
  8
DIM
 62
     0
370
    -2
100
AcDbLine
 10
19.64735831031216
 20
28.2295301826777
 30
0.0
 11
19.64735831031216
 21
29.67443469140861
 31
0.0
  0
LINE
  5
BF0
330
9B3
100
AcDbEntity
  8
DIM
 62
     0
370
    -2
100
AcDbLine
 10
19.56735831031214
 20
28.16253018267749
 30
0.0
 11
19.56735831031214
 21
29.67443469140861
 31
0.0
  0
LINE
  5
BF1
330
9B3
100
AcDbEntity
  8
DIM
 62
     0
370
    -2
100
AcDbLine
 10
20.45735831031215
 20
29.25593469140861
 30
0.0
 11
21.26735831031216
 21
29.25593469140861
 31
0.0
  0
LINE
  5
BF2
330
9B3
100
AcDbEntity
  8
DIM
 62
     0
370
    -2
100
AcDbLine
 10
18.75735831031215
 20
29.25593469140861
 30
0.0
 11
17.94735831031215
 21
29.25593469140861
 31
0.0
  0
SOLID
  5
BF3
330
9B3
100
AcDbEntity
  8
DIM
 62
     0
100
AcDbTrace
 10
20.45735831031215
 20
29.39093469140861
 30
0.0
 11
20.45735831031215
 21
29.12093469140861
 31
0.0
 12
19.64735831031216
 22
29.25593469140861
 32
0.0
 13
19.64735831031216
 23
29.25593469140861
 33
0.0
  0
SOLID
  5
BF4
330
9B3
100
AcDbEntity
  8
DIM
 62
     0
100
AcDbTrace
 10
18.75735831031215
 20
29.39093469140861
 30
0.0
 11
18.75735831031215
 21
29.12093469140861
 31
0.0
 12
19.56735831031214
 22
29.25593469140861
 32
0.0
 13
19.56735831031214
 23
29.25593469140861
 33
0.0
  0
MTEXT
  5
BF5
330
9B3
100
AcDbEntity
  8
DIM
 62
     0
100
AcDbMText
 10
16.10095206031215
 20
29.25593469140861
 30
0.0
 40
0.5625
 41
0.0
 71
     5
 72
     1
  1
\A1;0.080 [2]
 73
     1
 44
1.0
  0
POINT
  5
BF6
330
9B3
100
AcDbEntity
  8
DEFPOINTS
 62
     0
100
AcDbPoint
 10
19.64735831031216
 20
27.9460301826777
 30
0.0
  0
POINT
  5
BF7
330
9B3
100
AcDbEntity
  8
DEFPOINTS
 62
     0
100
AcDbPoint
 10
19.56735831031214
 20
27.87903018267749
 30
0.0
  0
POINT
  5
BF8
330
9B3
100
AcDbEntity
  8
DEFPOINTS
 62
     0
100
AcDbPoint
 10
19.56735831031214
 20
29.25593469140861
 30
0.0
  0
ENDBLK
  5
9BF
330
9B3
100
AcDbEntity
  8
0
100
AcDbBlockEnd
  0
BLOCK
  5
9CB
330
9C0
100
AcDbEntity
  8
0
100
AcDbBlockBegin
  2
*D18
 70
     1
 10
0.0
 20
0.0
 30
0.0
  3
*D18
  1

  0
LINE
  5
C7B
330
9C0
100
AcDbEntity
  8
DIM
 62
     0
370
    -2
100
AcDbLine
 10
47.74429611494177
 20
13.88853018267749
 30
0.0
 11
47.74429611494177
 21
11.54553018267756
 31
0.0
  0
LINE
  5
C7C
330
9C0
100
AcDbEntity
  8
DIM
 62
     0
370
    -2
100
AcDbLine
 10
46.75829611494177
 20
13.88853018267749
 30
0.0
 11
46.75829611494177
 21
11.54553018267756
 31
0.0
  0
LINE
  5
C7D
330
9C0
100
AcDbEntity
  8
DIM
 62
     0
370
    -2
100
AcDbLine
 10
48.55429611494177
 20
11.96403018267756
 30
0.0
 11
49.36429611494177
 21
11.96403018267756
 31
0.0
  0
LINE
  5
C7E
330
9C0
100
AcDbEntity
  8
DIM
 62
     0
370
    -2
100
AcDbLine
 10
45.94829611494176
 20
11.96403018267756
 30
0.0
 11
45.13829611494177
 21
11.96403018267756
 31
0.0
  0
SOLID
  5
C7F
330
9C0
100
AcDbEntity
  8
DIM
 62
     0
100
AcDbTrace
 10
48.55429611494177
 20
12.09903018267756
 30
0.0
 11
48.55429611494177
 21
11.82903018267756
 31
0.0
 12
47.74429611494177
 22
11.96403018267756
 32
0.0
 13
47.74429611494177
 23
11.96403018267756
 33
0.0
  0
SOLID
  5
C80
330
9C0
100
AcDbEntity
  8
DIM
 62
     0
100
AcDbTrace
 10
45.94829611494176
 20
12.09903018267756
 30
0.0
 11
45.94829611494176
 21
11.82903018267756
 31
0.0
 12
46.75829611494177
 22
11.96403018267756
 32
0.0
 13
46.75829611494177
 23
11.96403018267756
 33
0.0
  0
MTEXT
  5
C81
330
9C0
100
AcDbEntity
  8
DIM
 62
     0
100
AcDbMText
 10
42.09657736494177
 20
11.96403018267756
 30
0.0
 40
0.5625
 41
0.0
 71
     5
 72
     1
  1
\A1;0.986 [25] TYP.
 73
     1
 44
1.0
  0
POINT
  5
C82
330
9C0
100
AcDbEntity
  8
DEFPOINTS
 62
     0
100
AcDbPoint
 10
47.74429611494177
 20
14.17203018267749
 30
0.0
  0
POINT
  5
C83
330
9C0
100
AcDbEntity
  8
DEFPOINTS
 62
     0
100
AcDbPoint
 10
46.75829611494177
 20
14.17203018267749
 30
0.0
  0
POINT
  5
C84
330
9C0
100
AcDbEntity
  8
DEFPOINTS
 62
     0
100
AcDbPoint
 10
46.75829611494177
 20
11.96403018267756
 30
0.0
  0
ENDBLK
  5
9CC
330
9C0
100
AcDbEntity
  8
0
100
AcDbBlockEnd
  0
BLOCK
  5
9D8
330
9CD
100
AcDbEntity
  8
0
100
AcDbBlockBegin
  2
*D19
 70
     1
 10
0.0
 20
0.0
 30
0.0
  3
*D19
  1

  0
LINE
  5
C85
330
9CD
100
AcDbEntity
  8
DIM
 62
     0
370
    -2
100
AcDbLine
 10
49.71629611494177
 20
13.88853018267749
 30
0.0
 11
49.71629611494177
 21
10.00203018267756
 31
0.0
  0
LINE
  5
C86
330
9CD
100
AcDbEntity
  8
DIM
 62
     0
370
    -2
100
AcDbLine
 10
46.75829611494177
 20
13.88853018267749
 30
0.0
 11
46.75829611494177
 21
10.00203018267756
 31
0.0
  0
LINE
  5
C87
330
9CD
100
AcDbEntity
  8
DIM
 62
     0
370
    -2
100
AcDbLine
 10
50.52629611494177
 20
10.42053018267756
 30
0.0
 11
51.33629611494177
 21
10.42053018267756
 31
0.0
  0
LINE
  5
C88
330
9CD
100
AcDbEntity
  8
DIM
 62
     0
370
    -2
100
AcDbLine
 10
45.94829611494176
 20
10.42053018267756
 30
0.0
 11
45.13829611494177
 21
10.42053018267756
 31
0.0
  0
SOLID
  5
C89
330
9CD
100
AcDbEntity
  8
DIM
 62
     0
100
AcDbTrace
 10
50.52629611494177
 20
10.55553018267756
 30
0.0
 11
50.52629611494177
 21
10.28553018267756
 31
0.0
 12
49.71629611494177
 22
10.42053018267756
 32
0.0
 13
49.71629611494177
 23
10.42053018267756
 33
0.0
  0
SOLID
  5
C8A
330
9CD
100
AcDbEntity
  8
DIM
 62
     0
100
AcDbTrace
 10
45.94829611494176
 20
10.55553018267756
 30
0.0
 11
45.94829611494176
 21
10.28553018267756
 31
0.0
 12
46.75829611494177
 22
10.42053018267756
 32
0.0
 13
46.75829611494177
 23
10.42053018267756
 33
0.0
  0
MTEXT
  5
C8B
330
9CD
100
AcDbEntity
  8
DIM
 62
     0
100
AcDbMText
 10
42.97548361494177
 20
10.42053018267756
 30
0.0
 40
0.5625
 41
0.0
 71
     5
 72
     1
  1
\A1;2.958 [75]
 73
     1
 44
1.0
  0
POINT
  5
C8C
330
9CD
100
AcDbEntity
  8
DEFPOINTS
 62
     0
100
AcDbPoint
 10
49.71629611494177
 20
14.17203018267749
 30
0.0
  0
POINT
  5
C8D
330
9CD
100
AcDbEntity
  8
DEFPOINTS
 62
     0
100
AcDbPoint
 10
46.75829611494177
 20
14.17203018267749
 30
0.0
  0
POINT
  5
C8E
330
9CD
100
AcDbEntity
  8
DEFPOINTS
 62
     0
100
AcDbPoint
 10
46.75829611494177
 20
10.42053018267756
 30
0.0
  0
ENDBLK
  5
9D9
330
9CD
100
AcDbEntity
  8
0
100
AcDbBlockEnd
  0
BLOCK
  5
9E5
330
9DA
100
AcDbEntity
  8
0
100
AcDbBlockBegin
  2
*D20
 70
     1
 10
0.0
 20
0.0
 30
0.0
  3
*D20
  1

  0
LINE
  5
C53
330
9DA
100
AcDbEntity
  8
DIM
 62
     0
370
    -2
100
AcDbLine
 10
50.70229611494177
 20
13.88853018267749
 30
0.0
 11
50.70229611494177
 21
11.12607347641871
 31
0.0
  0
LINE
  5
C54
330
9DA
100
AcDbEntity
  8
DIM
 62
     0
370
    -2
100
AcDbLine
 10
53.66029611494176
 20
13.88853018267749
 30
0.0
 11
53.66029611494176
 21
11.12607347641871
 31
0.0
  0
LINE
  5
C55
330
9DA
100
AcDbEntity
  8
DIM
 62
     0
370
    -2
100
AcDbLine
 10
49.89229611494177
 20
11.54457347641871
 30
0.0
 11
49.08229611494178
 21
11.54457347641871
 31
0.0
  0
LINE
  5
C56
330
9DA
100
AcDbEntity
  8
DIM
 62
     0
370
    -2
100
AcDbLine
 10
54.47029611494176
 20
11.54457347641871
 30
0.0
 11
55.28029611494176
 21
11.54457347641871
 31
0.0
  0
SOLID
  5
C57
330
9DA
100
AcDbEntity
  8
DIM
 62
     0
100
AcDbTrace
 10
49.89229611494177
 20
11.67957347641871
 30
0.0
 11
49.89229611494177
 21
11.40957347641871
 31
0.0
 12
50.70229611494177
 22
11.54457347641871
 32
0.0
 13
50.70229611494177
 23
11.54457347641871
 33
0.0
  0
SOLID
  5
C58
330
9DA
100
AcDbEntity
  8
DIM
 62
     0
100
AcDbTrace
 10
54.47029611494176
 20
11.67957347641871
 30
0.0
 11
54.47029611494176
 21
11.40957347641871
 31
0.0
 12
53.66029611494176
 22
11.54457347641871
 32
0.0
 13
53.66029611494176
 23
11.54457347641871
 33
0.0
  0
MTEXT
  5
C59
330
9DA
100
AcDbEntity
  8
DIM
 62
     0
100
AcDbMText
 10
57.44310861494176
 20
11.54457347641871
 30
0.0
 40
0.5625
 41
0.0
 71
     5
 72
     1
  1
\A1;2.958 [75]
 73
     1
 44
1.0
  0
POINT
  5
C5A
330
9DA
100
AcDbEntity
  8
DEFPOINTS
 62
     0
100
AcDbPoint
 10
50.70229611494177
 20
14.17203018267749
 30
0.0
  0
POINT
  5
C5B
330
9DA
100
AcDbEntity
  8
DEFPOINTS
 62
     0
100
AcDbPoint
 10
53.66029611494176
 20
14.17203018267749
 30
0.0
  0
POINT
  5
C5C
330
9DA
100
AcDbEntity
  8
DEFPOINTS
 62
     0
100
AcDbPoint
 10
53.66029611494176
 20
11.54457347641871
 30
0.0
  0
ENDBLK
  5
9E6
330
9DA
100
AcDbEntity
  8
0
100
AcDbBlockEnd
  0
BLOCK
  5
9F2
330
9E7
100
AcDbEntity
  8
0
100
AcDbBlockBegin
  2
*D21
 70
     1
 10
0.0
 20
0.0
 30
0.0
  3
*D21
  1

  0
LINE
  5
CC1
330
9E7
100
AcDbEntity
  8
DIM
 62
     0
370
    -2
100
AcDbLine
 10
28.86963996598238
 20
37.82004248651218
 30
0.0
 11
28.86963996598238
 21
39.07554248651218
 31
0.0
  0
LINE
  5
CC2
330
9E7
100
AcDbEntity
  8
DIM
 62
     0
370
    -2
100
AcDbLine
 10
39.70463996598239
 20
37.82004248651218
 30
0.0
 11
39.70463996598239
 21
39.07554248651218
 31
0.0
  0
LINE
  5
CC3
330
9E7
100
AcDbEntity
  8
DIM
 62
     0
370
    -2
100
AcDbLine
 10
29.67963996598237
 20
38.65704248651218
 30
0.0
 11
33.74151496598238
 21
38.65704248651218
 31
0.0
  0
LINE
  5
CC4
330
9E7
100
AcDbEntity
  8
DIM
 62
     0
370
    -2
100
AcDbLine
 10
38.89463996598238
 20
38.65704248651218
 30
0.0
 11
34.83276496598238
 21
38.65704248651218
 31
0.0
  0
SOLID
  5
CC5
330
9E7
100
AcDbEntity
  8
DIM
 62
     0
100
AcDbTrace
 10
29.67963996598237
 20
38.79204248651218
 30
0.0
 11
29.67963996598237
 21
38.52204248651218
 31
0.0
 12
28.86963996598238
 22
38.65704248651218
 32
0.0
 13
28.86963996598238
 23
38.65704248651218
 33
0.0
  0
SOLID
  5
CC6
330
9E7
100
AcDbEntity
  8
DIM
 62
     0
100
AcDbTrace
 10
38.89463996598238
 20
38.79204248651218
 30
0.0
 11
38.89463996598238
 21
38.52204248651218
 31
0.0
 12
39.70463996598239
 22
38.65704248651218
 32
0.0
 13
39.70463996598239
 23
38.65704248651218
 33
0.0
  0
MTEXT
  5
CC7
330
9E7
100
AcDbEntity
  8
DIM
 62
     0
100
AcDbMText
 10
34.28713996598238
 20
38.65704248651218
 30
0.0
 40
0.5625
 41
0.0
 71
     5
 72
     1
  1
\A1;U
 73
     1
 44
1.0
  0
POINT
  5
CC8
330
9E7
100
AcDbEntity
  8
DEFPOINTS
 62
     0
100
AcDbPoint
 10
28.86963996598238
 20
37.53654248651219
 30
0.0
  0
POINT
  5
CC9
330
9E7
100
AcDbEntity
  8
DEFPOINTS
 62
     0
100
AcDbPoint
 10
39.70463996598239
 20
37.53654248651219
 30
0.0
  0
POINT
  5
CCA
330
9E7
100
AcDbEntity
  8
DEFPOINTS
 62
     0
100
AcDbPoint
 10
39.70463996598239
 20
38.65704248651218
 30
0.0
  0
ENDBLK
  5
9F3
330
9E7
100
AcDbEntity
  8
0
100
AcDbBlockEnd
  0
BLOCK
  5
9FF
330
9F4
100
AcDbEntity
  8
0
100
AcDbBlockBegin
  2
*D22
 70
     1
 10
0.0
 20
0.0
 30
0.0
  3
*D22
  1

  0
LINE
  5
B95
330
9F4
100
AcDbEntity
  8
DIM
 62
     0
370
    -2
100
AcDbLine
 10
28.81863996598246
 20
30.44389287901217
 30
0.0
 11
28.81863996598246
 21
28.90039287901216
 31
0.0
  0
LINE
  5
B96
330
9F4
100
AcDbEntity
  8
DIM
 62
     0
370
    -2
100
AcDbLine
 10
39.75563996598247
 20
30.44389287901217
 30
0.0
 11
39.75563996598247
 21
28.90039287901216
 31
0.0
  0
LINE
  5
B97
330
9F4
100
AcDbEntity
  8
DIM
 62
     0
370
    -2
100
AcDbLine
 10
29.62863996598246
 20
29.31889287901217
 30
0.0
 11
33.74151496598246
 21
29.31889287901217
 31
0.0
  0
LINE
  5
B98
330
9F4
100
AcDbEntity
  8
DIM
 62
     0
370
    -2
100
AcDbLine
 10
38.94563996598247
 20
29.31889287901217
 30
0.0
 11
34.83276496598247
 21
29.31889287901217
 31
0.0
  0
SOLID
  5
B99
330
9F4
100
AcDbEntity
  8
DIM
 62
     0
100
AcDbTrace
 10
29.62863996598246
 20
29.45389287901217
 30
0.0
 11
29.62863996598246
 21
29.18389287901216
 31
0.0
 12
28.81863996598246
 22
29.31889287901217
 32
0.0
 13
28.81863996598246
 23
29.31889287901217
 33
0.0
  0
SOLID
  5
B9A
330
9F4
100
AcDbEntity
  8
DIM
 62
     0
100
AcDbTrace
 10
38.94563996598247
 20
29.45389287901217
 30
0.0
 11
38.94563996598247
 21
29.18389287901216
 31
0.0
 12
39.75563996598247
 22
29.31889287901217
 32
0.0
 13
39.75563996598247
 23
29.31889287901217
 33
0.0
  0
MTEXT
  5
B9B
330
9F4
100
AcDbEntity
  8
DIM
 62
     0
100
AcDbMText
 10
34.28713996598247
 20
29.31889287901217
 30
0.0
 40
0.5625
 41
0.0
 71
     5
 72
     1
  1
\A1;T
 73
     1
 44
1.0
  0
POINT
  5
B9C
330
9F4
100
AcDbEntity
  8
DEFPOINTS
 62
     0
100
AcDbPoint
 10
28.81863996598246
 20
30.72739287901217
 30
0.0
  0
POINT
  5
B9D
330
9F4
100
AcDbEntity
  8
DEFPOINTS
 62
     0
100
AcDbPoint
 10
39.75563996598247
 20
30.72739287901217
 30
0.0
  0
POINT
  5
B9E
330
9F4
100
AcDbEntity
  8
DEFPOINTS
 62
     0
100
AcDbPoint
 10
39.75563996598247
 20
29.31889287901217
 30
0.0
  0
ENDBLK
  5
A00
330
9F4
100
AcDbEntity
  8
0
100
AcDbBlockEnd
  0
BLOCK
  5
A0C
330
A01
100
AcDbEntity
  8
0
100
AcDbBlockBegin
  2
*D23
 70
     1
 10
0.0
 20
0.0
 30
0.0
  3
*D23
  1

  0
LINE
  5
BDB
330
A01
100
AcDbEntity
  8
DIM
 62
     0
370
    -2
100
AcDbLine
 10
19.76735831031216
 20
19.30984829446845
 30
0.0
 11
19.76735831031216
 21
19.10004566228797
 31
0.0
  0
LINE
  5
BDC
330
A01
100
AcDbEntity
  8
DIM
 62
     0
370
    -2
100
AcDbLine
 10
19.64735831031216
 20
19.30984829446845
 30
0.0
 11
19.64735831031216
 21
19.10004566228797
 31
0.0
  0
LINE
  5
BDD
330
A01
100
AcDbEntity
  8
DIM
 62
     0
370
    -2
100
AcDbLine
 10
20.57735831031216
 20
19.51854566228797
 30
0.0
 11
21.38735831031216
 21
19.51854566228797
 31
0.0
  0
LINE
  5
BDE
330
A01
100
AcDbEntity
  8
DIM
 62
     0
370
    -2
100
AcDbLine
 10
18.83735831031216
 20
19.51854566228797
 30
0.0
 11
18.02735831031216
 21
19.51854566228797
 31
0.0
  0
SOLID
  5
BDF
330
A01
100
AcDbEntity
  8
DIM
 62
     0
100
AcDbTrace
 10
20.57735831031216
 20
19.65354566228797
 30
0.0
 11
20.57735831031216
 21
19.38354566228797
 31
0.0
 12
19.76735831031216
 22
19.51854566228797
 32
0.0
 13
19.76735831031216
 23
19.51854566228797
 33
0.0
  0
SOLID
  5
BE0
330
A01
100
AcDbEntity
  8
DIM
 62
     0
100
AcDbTrace
 10
18.83735831031216
 20
19.65354566228797
 30
0.0
 11
18.83735831031216
 21
19.38354566228797
 31
0.0
 12
19.64735831031216
 22
19.51854566228797
 32
0.0
 13
19.64735831031216
 23
19.51854566228797
 33
0.0
  0
MTEXT
  5
BE1
330
A01
100
AcDbEntity
  8
DIM
 62
     0
100
AcDbMText
 10
16.21610831031216
 20
19.51854566228797
 30
0.0
 40
0.5625
 41
0.0
 71
     5
 72
     1
  1
\A1;0.120 [3]
 73
     1
 44
1.0
  0
POINT
  5
BE2
330
A01
100
AcDbEntity
  8
DEFPOINTS
 62
     0
100
AcDbPoint
 10
19.76735831031216
 20
19.59334829446845
 30
0.0
  0
POINT
  5
BE3
330
A01
100
AcDbEntity
  8
DEFPOINTS
 62
     0
100
AcDbPoint
 10
19.64735831031216
 20
19.59334829446845
 30
0.0
  0
POINT
  5
BE4
330
A01
100
AcDbEntity
  8
DEFPOINTS
 62
     0
100
AcDbPoint
 10
19.64735831031216
 20
19.51854566228797
 30
0.0
  0
ENDBLK
  5
A0D
330
A01
100
AcDbEntity
  8
0
100
AcDbBlockEnd
  0
BLOCK
  5
A19
330
A0E
100
AcDbEntity
  8
0
100
AcDbBlockBegin
  2
*D24
 70
     1
 10
0.0
 20
0.0
 30
0.0
  3
*D24
  1

  0
LINE
  5
BD1
330
A0E
100
AcDbEntity
  8
DIM
 62
     0
370
    -2
100
AcDbLine
 10
19.91835831031217
 20
17.61853018267747
 30
0.0
 11
19.91835831031217
 21
18.03703018267747
 31
0.0
  0
LINE
  5
BD2
330
A0E
100
AcDbEntity
  8
DIM
 62
     0
370
    -2
100
AcDbLine
 10
19.64735831031216
 20
17.60254592952536
 30
0.0
 11
19.64735831031216
 21
18.03703018267747
 31
0.0
  0
LINE
  5
BD3
330
A0E
100
AcDbEntity
  8
DIM
 62
     0
370
    -2
100
AcDbLine
 10
20.72835831031217
 20
17.61853018267747
 30
0.0
 11
21.53835831031217
 21
17.61853018267747
 31
0.0
  0
LINE
  5
BD4
330
A0E
100
AcDbEntity
  8
DIM
 62
     0
370
    -2
100
AcDbLine
 10
18.83735831031216
 20
17.61853018267747
 30
0.0
 11
18.02735831031216
 21
17.61853018267747
 31
0.0
  0
SOLID
  5
BD5
330
A0E
100
AcDbEntity
  8
DIM
 62
     0
100
AcDbTrace
 10
20.72835831031217
 20
17.75353018267747
 30
0.0
 11
20.72835831031217
 21
17.48353018267747
 31
0.0
 12
19.91835831031217
 22
17.61853018267747
 32
0.0
 13
19.91835831031217
 23
17.61853018267747
 33
0.0
  0
SOLID
  5
BD6
330
A0E
100
AcDbEntity
  8
DIM
 62
     0
100
AcDbTrace
 10
18.83735831031216
 20
17.75353018267747
 30
0.0
 11
18.83735831031216
 21
17.48353018267747
 31
0.0
 12
19.64735831031216
 22
17.61853018267747
 32
0.0
 13
19.64735831031216
 23
17.61853018267747
 33
0.0
  0
MTEXT
  5
BD7
330
A0E
100
AcDbEntity
  8
DIM
 62
     0
100
AcDbMText
 10
16.18095206031216
 20
17.61853018267747
 30
0.0
 40
0.5625
 41
0.0
 71
     5
 72
     1
  1
\A1;0.271 [7]
 73
     1
 44
1.0
  0
POINT
  5
BD8
330
A0E
100
AcDbEntity
  8
DEFPOINTS
 62
     0
100
AcDbPoint
 10
19.91835831031217
 20
17.33503018267747
 30
0.0
  0
POINT
  5
BD9
330
A0E
100
AcDbEntity
  8
DEFPOINTS
 62
     0
100
AcDbPoint
 10
19.64735831031216
 20
17.31904592952536
 30
0.0
  0
POINT
  5
BDA
330
A0E
100
AcDbEntity
  8
DEFPOINTS
 62
     0
100
AcDbPoint
 10
19.64735831031216
 20
17.61853018267747
 30
0.0
  0
ENDBLK
  5
A1A
330
A0E
100
AcDbEntity
  8
0
100
AcDbBlockEnd
  0
BLOCK
  5
A26
330
A1B
100
AcDbEntity
  8
0
100
AcDbBlockBegin
  2
*D25
 70
     1
 10
0.0
 20
0.0
 30
0.0
  3
*D25
  1

  0
LINE
  5
BC7
330
A1B
100
AcDbEntity
  8
DIM
 62
     0
370
    -2
100
AcDbLine
 10
20.05735831031215
 20
16.6325301826775
 30
0.0
 11
20.05735831031215
 21
17.01652670362994
 31
0.0
  0
LINE
  5
BC8
330
A1B
100
AcDbEntity
  8
DIM
 62
     0
370
    -2
100
AcDbLine
 10
19.91835831031218
 20
16.63253018267748
 30
0.0
 11
19.91835831031218
 21
17.01652670362994
 31
0.0
  0
LINE
  5
BC9
330
A1B
100
AcDbEntity
  8
DIM
 62
     0
370
    -2
100
AcDbLine
 10
20.86735831031215
 20
16.59802670362994
 30
0.0
 11
21.67735831031215
 21
16.59802670362994
 31
0.0
  0
LINE
  5
BCA
330
A1B
100
AcDbEntity
  8
DIM
 62
     0
370
    -2
100
AcDbLine
 10
19.10835831031219
 20
16.59802670362994
 30
0.0
 11
18.29835831031219
 21
16.59802670362994
 31
0.0
  0
SOLID
  5
BCB
330
A1B
100
AcDbEntity
  8
DIM
 62
     0
100
AcDbTrace
 10
20.86735831031215
 20
16.73302670362994
 30
0.0
 11
20.86735831031215
 21
16.46302670362993
 31
0.0
 12
20.05735831031215
 22
16.59802670362994
 32
0.0
 13
20.05735831031215
 23
16.59802670362994
 33
0.0
  0
SOLID
  5
BCC
330
A1B
100
AcDbEntity
  8
DIM
 62
     0
100
AcDbTrace
 10
19.10835831031219
 20
16.73302670362994
 30
0.0
 11
19.10835831031219
 21
16.46302670362993
 31
0.0
 12
19.91835831031218
 22
16.59802670362994
 32
0.0
 13
19.91835831031218
 23
16.59802670362994
 33
0.0
  0
MTEXT
  5
BCD
330
A1B
100
AcDbEntity
  8
DIM
 62
     0
100
AcDbMText
 10
16.45195206031219
 20
16.59802670362994
 30
0.0
 40
0.5625
 41
0.0
 71
     5
 72
     1
  1
\A1;0.139 [4]
 73
     1
 44
1.0
  0
POINT
  5
BCE
330
A1B
100
AcDbEntity
  8
DEFPOINTS
 62
     0
100
AcDbPoint
 10
20.05735831031215
 20
16.3490301826775
 30
0.0
  0
POINT
  5
BCF
330
A1B
100
AcDbEntity
  8
DEFPOINTS
 62
     0
100
AcDbPoint
 10
19.91835831031218
 20
16.34903018267748
 30
0.0
  0
POINT
  5
BD0
330
A1B
100
AcDbEntity
  8
DEFPOINTS
 62
     0
100
AcDbPoint
 10
19.91835831031218
 20
16.59802670362994
 30
0.0
  0
ENDBLK
  5
A27
330
A1B
100
AcDbEntity
  8
0
100
AcDbBlockEnd
  0
BLOCK
  5
A33
330
A28
100
AcDbEntity
  8
0
100
AcDbBlockBegin
  2
*D26
 70
     1
 10
0.0
 20
0.0
 30
0.0
  3
*D26
  1

  0
LINE
  5
BA9
330
A28
100
AcDbEntity
  8
DIM
 62
     0
370
    -2
100
AcDbLine
 10
1.626485558247306
 20
20.85303018267748
 30
0.0
 11
1.626485558247307
 21
29.67443469140861
 31
0.0
  0
LINE
  5
BAA
330
A28
100
AcDbEntity
  8
DIM
 62
     0
370
    -2
100
AcDbLine
 10
11.10248555824729
 20
20.85303018267748
 30
0.0
 11
11.10248555824729
 21
29.67443469140861
 31
0.0
  0
LINE
  5
BAB
330
A28
100
AcDbEntity
  8
DIM
 62
     0
370
    -2
100
AcDbLine
 10
2.436485558247307
 20
29.25593469140861
 30
0.0
 11
5.748548058247298
 21
29.25593469140861
 31
0.0
  0
LINE
  5
BAC
330
A28
100
AcDbEntity
  8
DIM
 62
     0
370
    -2
100
AcDbLine
 10
10.29248555824729
 20
29.25593469140861
 30
0.0
 11
6.980423058247299
 21
29.25593469140861
 31
0.0
  0
SOLID
  5
BAD
330
A28
100
AcDbEntity
  8
DIM
 62
     0
100
AcDbTrace
 10
2.436485558247307
 20
29.39093469140861
 30
0.0
 11
2.436485558247307
 21
29.12093469140861
 31
0.0
 12
1.626485558247307
 22
29.25593469140861
 32
0.0
 13
1.626485558247307
 23
29.25593469140861
 33
0.0
  0
SOLID
  5
BAE
330
A28
100
AcDbEntity
  8
DIM
 62
     0
100
AcDbTrace
 10
10.29248555824729
 20
29.39093469140861
 30
0.0
 11
10.29248555824729
 21
29.12093469140861
 31
0.0
 12
11.10248555824729
 22
29.25593469140861
 32
0.0
 13
11.10248555824729
 23
29.25593469140861
 33
0.0
  0
MTEXT
  5
BAF
330
A28
100
AcDbEntity
  8
DIM
 62
     0
100
AcDbMText
 10
6.364485558247299
 20
29.25593469140861
 30
0.0
 40
0.5625
 41
0.0
 71
     5
 72
     1
  1
\A1;W
 73
     1
 44
1.0
  0
POINT
  5
BB0
330
A28
100
AcDbEntity
  8
DEFPOINTS
 62
     0
100
AcDbPoint
 10
1.626485558247306
 20
20.56953018267748
 30
0.0
  0
POINT
  5
BB1
330
A28
100
AcDbEntity
  8
DEFPOINTS
 62
     0
100
AcDbPoint
 10
11.10248555824729
 20
20.56953018267748
 30
0.0
  0
POINT
  5
BB2
330
A28
100
AcDbEntity
  8
DEFPOINTS
 62
     0
100
AcDbPoint
 10
11.10248555824729
 20
29.25593469140861
 30
0.0
  0
ENDBLK
  5
A34
330
A28
100
AcDbEntity
  8
0
100
AcDbBlockEnd
  0
BLOCK
  5
A40
330
A35
100
AcDbEntity
  8
0
100
AcDbBlockBegin
  2
*D27
 70
     1
 10
0.0
 20
0.0
 30
0.0
  3
*D27
  1

  0
LINE
  5
B9F
330
A35
100
AcDbEntity
  8
DIM
 62
     0
370
    -2
100
AcDbLine
 10
6.647985558247292
 20
13.86753018267769
 30
0.0
 11
13.30033371403408
 21
13.86753018267769
 31
0.0
  0
LINE
  5
BA0
330
A35
100
AcDbEntity
  8
DIM
 62
     0
370
    -2
100
AcDbLine
 10
6.647985558247292
 20
27.2715301826777
 30
0.0
 11
13.30033371403408
 21
27.2715301826777
 31
0.0
  0
LINE
  5
BA1
330
A35
100
AcDbEntity
  8
DIM
 62
     0
370
    -2
100
AcDbLine
 10
12.88183371403408
 20
14.67753018267769
 30
0.0
 11
12.88183371403408
 21
19.88328018267769
 31
0.0
  0
LINE
  5
BA2
330
A35
100
AcDbEntity
  8
DIM
 62
     0
370
    -2
100
AcDbLine
 10
12.88183371403408
 20
26.4615301826777
 30
0.0
 11
12.88183371403408
 21
21.25578018267769
 31
0.0
  0
SOLID
  5
BA3
330
A35
100
AcDbEntity
  8
DIM
 62
     0
100
AcDbTrace
 10
12.74683371403408
 20
14.67753018267769
 30
0.0
 11
13.01683371403408
 21
14.67753018267769
 31
0.0
 12
12.88183371403408
 22
13.86753018267769
 32
0.0
 13
12.88183371403408
 23
13.86753018267769
 33
0.0
  0
SOLID
  5
BA4
330
A35
100
AcDbEntity
  8
DIM
 62
     0
100
AcDbTrace
 10
12.74683371403408
 20
26.4615301826777
 30
0.0
 11
13.01683371403408
 21
26.4615301826777
 31
0.0
 12
12.88183371403408
 22
27.2715301826777
 32
0.0
 13
12.88183371403408
 23
27.2715301826777
 33
0.0
  0
MTEXT
  5
BA5
330
A35
100
AcDbEntity
  8
DIM
 62
     0
100
AcDbMText
 10
12.88183371403408
 20
20.5695301826777
 30
0.0
 40
0.5625
 41
0.0
 71
     5
 72
     1
  1
\A1;V
 73
     1
 44
1.0
  0
POINT
  5
BA6
330
A35
100
AcDbEntity
  8
DEFPOINTS
 62
     0
100
AcDbPoint
 10
6.364485558247292
 20
13.86753018267769
 30
0.0
  0
POINT
  5
BA7
330
A35
100
AcDbEntity
  8
DEFPOINTS
 62
     0
100
AcDbPoint
 10
6.364485558247292
 20
27.2715301826777
 30
0.0
  0
POINT
  5
BA8
330
A35
100
AcDbEntity
  8
DEFPOINTS
 62
     0
100
AcDbPoint
 10
12.88183371403408
 20
27.2715301826777
 30
0.0
  0
ENDBLK
  5
A41
330
A35
100
AcDbEntity
  8
0
100
AcDbBlockEnd
  0
BLOCK
  5
A4D
330
A42
100
AcDbEntity
  8
0
100
AcDbBlockBegin
  2
*D28
 70
     1
 10
0.0
 20
0.0
 30
0.0
  3
*D28
  1

  0
LINE
  5
BE5
330
A42
100
AcDbEntity
  8
DIM
 62
     0
370
    -2
100
AcDbLine
 10
23.50235831031215
 20
28.33353018267759
 30
0.0
 11
23.50235831031215
 21
29.67443469140861
 31
0.0
  0
LINE
  5
BE6
330
A42
100
AcDbEntity
  8
DIM
 62
     0
370
    -2
100
AcDbLine
 10
26.65335831031213
 20
27.79317979017751
 30
0.0
 11
26.65335831031213
 21
29.67443469140861
 31
0.0
  0
LINE
  5
BE7
330
A42
100
AcDbEntity
  8
DIM
 62
     0
370
    -2
100
AcDbLine
 10
22.69235831031215
 20
29.25593469140861
 30
0.0
 11
21.88235831031215
 21
29.25593469140861
 31
0.0
  0
LINE
  5
BE8
330
A42
100
AcDbEntity
  8
DIM
 62
     0
370
    -2
100
AcDbLine
 10
27.46335831031213
 20
29.25593469140861
 30
0.0
 11
28.27335831031213
 21
29.25593469140861
 31
0.0
  0
SOLID
  5
BE9
330
A42
100
AcDbEntity
  8
DIM
 62
     0
100
AcDbTrace
 10
22.69235831031215
 20
29.39093469140861
 30
0.0
 11
22.69235831031215
 21
29.12093469140861
 31
0.0
 12
23.50235831031215
 22
29.25593469140861
 32
0.0
 13
23.50235831031215
 23
29.25593469140861
 33
0.0
  0
SOLID
  5
BEA
330
A42
100
AcDbEntity
  8
DIM
 62
     0
100
AcDbTrace
 10
27.46335831031213
 20
29.39093469140861
 30
0.0
 11
27.46335831031213
 21
29.12093469140861
 31
0.0
 12
26.65335831031213
 22
29.25593469140861
 32
0.0
 13
26.65335831031213
 23
29.25593469140861
 33
0.0
  0
MTEXT
  5
BEB
330
A42
100
AcDbEntity
  8
DIM
 62
     0
100
AcDbMText
 10
25.07785831031214
 20
29.25593469140861
 30
0.0
 40
0.5625
 41
0.0
 71
     5
 72
     1
  1
\A1;P
 73
     1
 44
1.0
  0
POINT
  5
BEC
330
A42
100
AcDbEntity
  8
DEFPOINTS
 62
     0
100
AcDbPoint
 10
23.50235831031215
 20
28.05003018267758
 30
0.0
  0
POINT
  5
BED
330
A42
100
AcDbEntity
  8
DEFPOINTS
 62
     0
100
AcDbPoint
 10
26.65335831031213
 20
27.50967979017751
 30
0.0
  0
POINT
  5
BEE
330
A42
100
AcDbEntity
  8
DEFPOINTS
 62
     0
100
AcDbPoint
 10
26.65335831031213
 20
29.25593469140861
 30
0.0
  0
ENDBLK
  5
A4E
330
A42
100
AcDbEntity
  8
0
100
AcDbBlockEnd
  0
BLOCK
  5
A5A
330
A4F
100
AcDbEntity
  8
0
100
AcDbBlockBegin
  2
*D29
 70
     1
 10
0.0
 20
0.0
 30
0.0
  3
*D29
  1

  0
LINE
  5
BF9
330
A4F
100
AcDbEntity
  8
DIM
 62
     0
370
    -2
100
AcDbLine
 10
23.50235831031215
 20
28.33353018267759
 30
0.0
 11
23.50235831031215
 21
29.67443469140861
 31
0.0
  0
LINE
  5
BFA
330
A4F
100
AcDbEntity
  8
DIM
 62
     0
370
    -2
100
AcDbLine
 10
19.64735831031216
 20
28.2295301826777
 30
0.0
 11
19.64735831031216
 21
29.67443469140861
 31
0.0
  0
LINE
  5
BFB
330
A4F
100
AcDbEntity
  8
DIM
 62
     0
370
    -2
100
AcDbLine
 10
22.69235831031215
 20
29.25593469140861
 30
0.0
 11
22.12048331031215
 21
29.25593469140861
 31
0.0
  0
LINE
  5
BFC
330
A4F
100
AcDbEntity
  8
DIM
 62
     0
370
    -2
100
AcDbLine
 10
20.45735831031215
 20
29.25593469140861
 30
0.0
 11
21.02923331031215
 21
29.25593469140861
 31
0.0
  0
SOLID
  5
BFD
330
A4F
100
AcDbEntity
  8
DIM
 62
     0
100
AcDbTrace
 10
22.69235831031215
 20
29.39093469140861
 30
0.0
 11
22.69235831031215
 21
29.12093469140861
 31
0.0
 12
23.50235831031215
 22
29.25593469140861
 32
0.0
 13
23.50235831031215
 23
29.25593469140861
 33
0.0
  0
SOLID
  5
BFE
330
A4F
100
AcDbEntity
  8
DIM
 62
     0
100
AcDbTrace
 10
20.45735831031215
 20
29.39093469140861
 30
0.0
 11
20.45735831031215
 21
29.12093469140861
 31
0.0
 12
19.64735831031216
 22
29.25593469140861
 32
0.0
 13
19.64735831031216
 23
29.25593469140861
 33
0.0
  0
MTEXT
  5
BFF
330
A4F
100
AcDbEntity
  8
DIM
 62
     0
100
AcDbMText
 10
21.57485831031215
 20
29.25593469140861
 30
0.0
 40
0.5625
 41
0.0
 71
     5
 72
     1
  1
\A1;N
 73
     1
 44
1.0
  0
POINT
  5
C00
330
A4F
100
AcDbEntity
  8
DEFPOINTS
 62
     0
100
AcDbPoint
 10
23.50235831031215
 20
28.05003018267758
 30
0.0
  0
POINT
  5
C01
330
A4F
100
AcDbEntity
  8
DEFPOINTS
 62
     0
100
AcDbPoint
 10
19.64735831031216
 20
27.9460301826777
 30
0.0
  0
POINT
  5
C02
330
A4F
100
AcDbEntity
  8
DEFPOINTS
 62
     0
100
AcDbPoint
 10
19.64735831031216
 20
29.25593469140861
 30
0.0
  0
ENDBLK
  5
A5B
330
A4F
100
AcDbEntity
  8
0
100
AcDbBlockEnd
  0
BLOCK
  5
A67
330
A5C
100
AcDbEntity
  8
0
100
AcDbBlockBegin
  2
*D30
 70
     1
 10
0.0
 20
0.0
 30
0.0
  3
*D30
  1

  0
LINE
  5
C99
330
A5C
100
AcDbEntity
  8
DIM
 62
     0
370
    -2
100
AcDbLine
 10
54.92079611494174
 20
25.98603018267749
 30
0.0
 11
59.3917918950243
 21
25.98603018267749
 31
0.0
  0
LINE
  5
C9A
330
A5C
100
AcDbEntity
  8
DIM
 62
     0
370
    -2
100
AcDbLine
 10
54.92079611494174
 20
25.0000301826775
 30
0.0
 11
59.3917918950243
 21
25.0000301826775
 31
0.0
  0
LINE
  5
C9B
330
A5C
100
AcDbEntity
  8
DIM
 62
     0
370
    -2
100
AcDbLine
 10
58.9732918950243
 20
26.79603018267749
 30
0.0
 11
58.9732918950243
 21
27.60603018267749
 31
0.0
  0
LINE
  5
C9C
330
A5C
100
AcDbEntity
  8
DIM
 62
     0
370
    -2
100
AcDbLine
 10
58.9732918950243
 20
24.1900301826775
 30
0.0
 11
58.9732918950243
 21
23.3800301826775
 31
0.0
  0
SOLID
  5
C9D
330
A5C
100
AcDbEntity
  8
DIM
 62
     0
100
AcDbTrace
 10
58.83829189502431
 20
26.79603018267749
 30
0.0
 11
59.1082918950243
 21
26.79603018267749
 31
0.0
 12
58.9732918950243
 22
25.98603018267749
 32
0.0
 13
58.9732918950243
 23
25.98603018267749
 33
0.0
  0
SOLID
  5
C9E
330
A5C
100
AcDbEntity
  8
DIM
 62
     0
100
AcDbTrace
 10
58.83829189502431
 20
24.1900301826775
 30
0.0
 11
59.1082918950243
 21
24.1900301826775
 31
0.0
 12
58.9732918950243
 22
25.0000301826775
 32
0.0
 13
58.9732918950243
 23
25.0000301826775
 33
0.0
  0
MTEXT
  5
C9F
330
A5C
100
AcDbEntity
  8
DIM
 62
     0
100
AcDbMText
 10
58.97329189502429
 20
25.4930301826775
 30
0.0
 40
0.5625
 41
0.0
 71
     5
 72
     1
  1
\A1;0.986 [25] TYP.
 73
     1
 44
1.0
  0
POINT
  5
CA0
330
A5C
100
AcDbEntity
  8
DEFPOINTS
 62
     0
100
AcDbPoint
 10
54.63729611494175
 20
25.98603018267749
 30
0.0
  0
POINT
  5
CA1
330
A5C
100
AcDbEntity
  8
DEFPOINTS
 62
     0
100
AcDbPoint
 10
54.63729611494175
 20
25.0000301826775
 30
0.0
  0
POINT
  5
CA2
330
A5C
100
AcDbEntity
  8
DEFPOINTS
 62
     0
100
AcDbPoint
 10
58.9732918950243
 20
25.0000301826775
 30
0.0
  0
ENDBLK
  5
A68
330
A5C
100
AcDbEntity
  8
0
100
AcDbBlockEnd
  0
BLOCK
  5
A74
330
A69
100
AcDbEntity
  8
0
100
AcDbBlockBegin
  2
*D31
 70
     1
 10
0.0
 20
0.0
 30
0.0
  3
*D31
  1

  0
LINE
  5
C5D
330
A69
100
AcDbEntity
  8
DIM
 62
     0
370
    -2
100
AcDbLine
 10
54.92079611494174
 20
15.15303018267749
 30
0.0
 11
61.31480856183701
 21
15.15303018267749
 31
0.0
  0
LINE
  5
C5E
330
A69
100
AcDbEntity
  8
DIM
 62
     0
370
    -2
100
AcDbLine
 10
54.92079611494174
 20
19.09703018267748
 30
0.0
 11
61.31480856183702
 21
19.09703018267748
 31
0.0
  0
LINE
  5
C5F
330
A69
100
AcDbEntity
  8
DIM
 62
     0
370
    -2
100
AcDbLine
 10
60.89630856183701
 20
15.96303018267749
 30
0.0
 11
60.89630856183702
 21
16.43878018267749
 31
0.0
  0
LINE
  5
C60
330
A69
100
AcDbEntity
  8
DIM
 62
     0
370
    -2
100
AcDbLine
 10
60.89630856183702
 20
18.28703018267748
 30
0.0
 11
60.89630856183702
 21
17.81128018267749
 31
0.0
  0
SOLID
  5
C61
330
A69
100
AcDbEntity
  8
DIM
 62
     0
100
AcDbTrace
 10
60.76130856183701
 20
15.96303018267749
 30
0.0
 11
61.031308561837
 21
15.96303018267749
 31
0.0
 12
60.89630856183701
 22
15.15303018267749
 32
0.0
 13
60.89630856183701
 23
15.15303018267749
 33
0.0
  0
SOLID
  5
C62
330
A69
100
AcDbEntity
  8
DIM
 62
     0
100
AcDbTrace
 10
60.76130856183702
 20
18.28703018267748
 30
0.0
 11
61.03130856183701
 21
18.28703018267748
 31
0.0
 12
60.89630856183702
 22
19.09703018267748
 32
0.0
 13
60.89630856183702
 23
19.09703018267748
 33
0.0
  0
MTEXT
  5
C63
330
A69
100
AcDbEntity
  8
DIM
 62
     0
100
AcDbMText
 10
60.89630856183701
 20
17.1250301826775
 30
0.0
 40
0.5625
 41
0.0
 71
     5
 72
     1
  1
\A1;3.944 [100]
 73
     1
 44
1.0
  0
POINT
  5
C64
330
A69
100
AcDbEntity
  8
DEFPOINTS
 62
     0
100
AcDbPoint
 10
54.63729611494175
 20
15.15303018267749
 30
0.0
  0
POINT
  5
C65
330
A69
100
AcDbEntity
  8
DEFPOINTS
 62
     0
100
AcDbPoint
 10
54.63729611494175
 20
19.09703018267748
 30
0.0
  0
POINT
  5
C66
330
A69
100
AcDbEntity
  8
DEFPOINTS
 62
     0
100
AcDbPoint
 10
60.89630856183702
 20
19.09703018267748
 30
0.0
  0
ENDBLK
  5
A75
330
A69
100
AcDbEntity
  8
0
100
AcDbBlockEnd
  0
BLOCK
  5
A81
330
A76
100
AcDbEntity
  8
0
100
AcDbBlockBegin
  2
*D32
 70
     1
 10
0.0
 20
0.0
 30
0.0
  3
*D32
  1

  0
LINE
  5
C3F
330
A76
100
AcDbEntity
  8
DIM
 62
     0
370
    -2
100
AcDbLine
 10
54.92079611494174
 20
25.98603018267749
 30
0.0
 11
62.50360711594169
 21
25.98603018267749
 31
0.0
  0
LINE
  5
C40
330
A76
100
AcDbEntity
  8
DIM
 62
     0
370
    -2
100
AcDbLine
 10
54.92079611494174
 20
22.04203018267751
 30
0.0
 11
62.50360711594169
 21
22.0420301826775
 31
0.0
  0
LINE
  5
C41
330
A76
100
AcDbEntity
  8
DIM
 62
     0
370
    -2
100
AcDbLine
 10
62.08510711594169
 20
25.17603018267749
 30
0.0
 11
62.08510711594169
 21
24.7002801826775
 31
0.0
  0
LINE
  5
C42
330
A76
100
AcDbEntity
  8
DIM
 62
     0
370
    -2
100
AcDbLine
 10
62.08510711594169
 20
22.8520301826775
 30
0.0
 11
62.08510711594169
 21
23.32778018267749
 31
0.0
  0
SOLID
  5
C43
330
A76
100
AcDbEntity
  8
DIM
 62
     0
100
AcDbTrace
 10
61.9501071159417
 20
25.17603018267749
 30
0.0
 11
62.22010711594169
 21
25.17603018267749
 31
0.0
 12
62.08510711594169
 22
25.98603018267749
 32
0.0
 13
62.08510711594169
 23
25.98603018267749
 33
0.0
  0
SOLID
  5
C44
330
A76
100
AcDbEntity
  8
DIM
 62
     0
100
AcDbTrace
 10
61.9501071159417
 20
22.8520301826775
 30
0.0
 11
62.22010711594169
 21
22.8520301826775
 31
0.0
 12
62.08510711594169
 22
22.0420301826775
 32
0.0
 13
62.08510711594169
 23
22.0420301826775
 33
0.0
  0
MTEXT
  5
C45
330
A76
100
AcDbEntity
  8
DIM
 62
     0
100
AcDbMText
 10
62.08510711594168
 20
24.01403018267751
 30
0.0
 40
0.5625
 41
0.0
 71
     5
 72
     1
  1
\A1;3.944 [100]
 73
     1
 44
1.0
  0
POINT
  5
C46
330
A76
100
AcDbEntity
  8
DEFPOINTS
 62
     0
100
AcDbPoint
 10
54.63729611494175
 20
25.98603018267749
 30
0.0
  0
POINT
  5
C47
330
A76
100
AcDbEntity
  8
DEFPOINTS
 62
     0
100
AcDbPoint
 10
54.63729611494175
 20
22.04203018267751
 30
0.0
  0
POINT
  5
C48
330
A76
100
AcDbEntity
  8
DEFPOINTS
 62
     0
100
AcDbPoint
 10
62.08510711594169
 20
22.0420301826775
 30
0.0
  0
ENDBLK
  5
A82
330
A76
100
AcDbEntity
  8
0
100
AcDbBlockEnd
  0
BLOCK
  5
A8E
330
A83
100
AcDbEntity
  8
0
100
AcDbBlockBegin
  2
*D33
 70
     1
 10
0.0
 20
0.0
 30
0.0
  3
*D33
  1

  0
LINE
  5
C49
330
A83
100
AcDbEntity
  8
DIM
 62
     0
370
    -2
100
AcDbLine
 10
54.92079611494174
 20
19.09703018267748
 30
0.0
 11
58.6812806760044
 21
19.09703018267748
 31
0.0
  0
LINE
  5
C4A
330
A83
100
AcDbEntity
  8
DIM
 62
     0
370
    -2
100
AcDbLine
 10
54.92079611494174
 20
22.04203018267751
 30
0.0
 11
58.6812806760044
 21
22.0420301826775
 31
0.0
  0
LINE
  5
C4B
330
A83
100
AcDbEntity
  8
DIM
 62
     0
370
    -2
100
AcDbLine
 10
58.2627806760044
 20
18.28703018267748
 30
0.0
 11
58.2627806760044
 21
17.47703018267748
 31
0.0
  0
LINE
  5
C4C
330
A83
100
AcDbEntity
  8
DIM
 62
     0
370
    -2
100
AcDbLine
 10
58.2627806760044
 20
22.8520301826775
 30
0.0
 11
58.2627806760044
 21
23.6620301826775
 31
0.0
  0
SOLID
  5
C4D
330
A83
100
AcDbEntity
  8
DIM
 62
     0
100
AcDbTrace
 10
58.1277806760044
 20
18.28703018267748
 30
0.0
 11
58.39778067600439
 21
18.28703018267748
 31
0.0
 12
58.2627806760044
 22
19.09703018267748
 32
0.0
 13
58.2627806760044
 23
19.09703018267748
 33
0.0
  0
SOLID
  5
C4E
330
A83
100
AcDbEntity
  8
DIM
 62
     0
100
AcDbTrace
 10
58.1277806760044
 20
22.8520301826775
 30
0.0
 11
58.39778067600439
 21
22.8520301826775
 31
0.0
 12
58.2627806760044
 22
22.0420301826775
 32
0.0
 13
58.2627806760044
 23
22.0420301826775
 33
0.0
  0
MTEXT
  5
C4F
330
A83
100
AcDbEntity
  8
DIM
 62
     0
100
AcDbMText
 10
58.26278067600439
 20
20.5695301826775
 30
0.0
 40
0.5625
 41
0.0
 71
     5
 72
     1
  1
\A1;2.945 [75]
 73
     1
 44
1.0
  0
POINT
  5
C50
330
A83
100
AcDbEntity
  8
DEFPOINTS
 62
     0
100
AcDbPoint
 10
54.63729611494175
 20
19.09703018267748
 30
0.0
  0
POINT
  5
C51
330
A83
100
AcDbEntity
  8
DEFPOINTS
 62
     0
100
AcDbPoint
 10
54.63729611494175
 20
22.04203018267751
 30
0.0
  0
POINT
  5
C52
330
A83
100
AcDbEntity
  8
DEFPOINTS
 62
     0
100
AcDbPoint
 10
58.2627806760044
 20
22.0420301826775
 30
0.0
  0
ENDBLK
  5
A8F
330
A83
100
AcDbEntity
  8
0
100
AcDbBlockEnd
  0
ENDSEC
  0
SECTION
  2
ENTITIES
  0
TEXT
  5
2A6
330
1E
100
AcDbEntity
  8
TEXT
100
AcDbText
 10
14.27152623594543
 20
1.410016042780725
 30
0.0
 40
0.5625
  1
11.024
 41
0.75
 72
     4
 11
15.15043248594543
 21
1.691266042780725
 31
0.0
100
AcDbText
  0
TEXT
  5
2A7
330
1E
100
AcDbEntity
  8
TEXT
100
AcDbText
 10
14.34183873594543
 20
0.4685053475935775
 30
0.0
 40
0.5625
  1
[280]
 41
0.75
 72
     4
 11
15.15043248594543
 21
0.7497553475935775
 31
0.0
100
AcDbText
  0
TEXT
  5
2A8
330
1E
100
AcDbEntity
  8
TEXT
100
AcDbText
 10
17.09236248594543
 20
0.4685053475935775
 30
0.0
 40
0.5625
  1
[259]
 41
0.75
 72
     4
 11
17.93611248594543
 21
0.7497553475935775
 31
0.0
100
AcDbText
  0
TEXT
  5
2A9
330
1E
100
AcDbEntity
  8
TEXT
100
AcDbText
 10
17.05720623594543
 20
1.410016042780725
 30
0.0
 40
0.5625
  1
10.200
 41
0.75
 72
     4
 11
17.93611248594543
 21
1.691266042780725
 31
0.0
100
AcDbText
  0
TEXT
  5
2AA
330
1E
100
AcDbEntity
  8
TEXT
100
AcDbText
 10
19.87804248594542
 20
0.4685053475935775
 30
0.0
 40
0.5625
  1
[255]
 41
0.75
 72
     4
 11
20.72179248594542
 21
0.7497553475935775
 31
0.0
100
AcDbText
  0
TEXT
  5
2AB
330
1E
100
AcDbEntity
  8
TEXT
100
AcDbText
 10
19.80772998594543
 20
1.410016042780725
 30
0.0
 40
0.5625
  1
10.038
 41
0.75
 72
     4
 11
20.72179248594542
 21
1.691266042780725
 31
0.0
100
AcDbText
  0
TEXT
  5
2AC
330
1E
100
AcDbEntity
  8
TEXT
100
AcDbText
 10
22.66372248594542
 20
0.4685053475935775
 30
0.0
 40
0.5625
  1
[225]
 41
0.75
 72
     4
 11
23.50747248594542
 21
0.7497553475935775
 31
0.0
100
AcDbText
  0
TEXT
  5
2AD
330
1E
100
AcDbEntity
  8
TEXT
100
AcDbText
 10
22.69887873594542
 20
1.410016042780725
 30
0.0
 40
0.5625
  1
8.850
 41
0.75
 72
     4
 11
23.50747248594542
 21
1.691266042780725
 31
0.0
100
AcDbText
  0
TEXT
  5
2AE
330
1E
100
AcDbEntity
  8
TEXT
100
AcDbText
 10
25.55487123594542
 20
0.4685053475935775
 30
0.0
 40
0.5625
  1
[210]
 41
0.75
 72
     4
 11
26.29315248594542
 21
0.7497553475935775
 31
0.0
100
AcDbText
  0
TEXT
  5
2AF
330
1E
100
AcDbEntity
  8
TEXT
100
AcDbText
 10
25.44940248594542
 20
1.410016042780725
 30
0.0
 40
0.5625
  1
8.253
 41
0.75
 72
     4
 11
26.29315248594542
 21
1.691266042780725
 31
0.0
100
AcDbText
  0
TEXT
  5
2B0
330
1E
100
AcDbEntity
  8
TEXT
100
AcDbText
 10
28.30539498594543
 20
0.4685053475935775
 30
0.0
 40
0.5625
  1
[175]
 41
0.75
 72
     4
 11
29.07883248594543
 21
0.7497553475935775
 31
0.0
100
AcDbText
  0
TEXT
  5
2B1
330
1E
100
AcDbEntity
  8
TEXT
100
AcDbText
 10
28.27023873594543
 20
1.410016042780725
 30
0.0
 40
0.5625
  1
6.902
 41
0.75
 72
     4
 11
29.07883248594543
 21
1.691266042780725
 31
0.0
100
AcDbText
  0
TEXT
  5
2B2
330
1E
100
AcDbEntity
  8
TEXT
100
AcDbText
 10
31.05591873594543
 20
0.4685053475935775
 30
0.0
 40
0.5625
  1
[380]
 41
0.75
 72
     4
 11
31.86451248594543
 21
0.7497553475935775
 31
0.0
100
AcDbText
  0
TEXT
  5
2B3
330
1E
100
AcDbEntity
  8
TEXT
100
AcDbText
 10
30.95044998594543
 20
1.410016042780725
 30
0.0
 40
0.5625
  1
14.961
 41
0.75
 72
     4
 11
31.86451248594543
 21
1.691266042780725
 31
0.0
100
AcDbText
  0
TEXT
  5
2B4
330
1E
100
AcDbEntity
  8
TEXT
100
AcDbText
 10
33.80644248594542
 20
0.4685053475935775
 30
0.0
 40
0.5625
  1
[359]
 41
0.75
 72
     4
 11
34.65019248594542
 21
0.7497553475935775
 31
0.0
100
AcDbText
  0
TEXT
  5
2B5
330
1E
100
AcDbEntity
  8
TEXT
100
AcDbText
 10
33.73612998594542
 20
1.410016042780725
 30
0.0
 40
0.5625
  1
14.135
 41
0.75
 72
     4
 11
34.65019248594542
 21
1.691266042780725
 31
0.0
100
AcDbText
  0
TEXT
  5
2B6
330
1E
100
AcDbEntity
  8
TEXT
100
AcDbText
 10
36.59212248594544
 20
0.4685053475935775
 30
0.0
 40
0.5625
  1
[355]
 41
0.75
 72
     4
 11
37.43587248594543
 21
0.7497553475935775
 31
0.0
100
AcDbText
  0
TEXT
  5
2B7
330
1E
100
AcDbEntity
  8
TEXT
100
AcDbText
 10
36.45149748594544
 20
1.410016042780725
 30
0.0
 40
0.5625
  1
13.987
 41
0.75
 72
     4
 11
37.43587248594543
 21
1.691266042780725
 31
0.0
100
AcDbText
  0
TEXT
  5
2B8
330
1E
100
AcDbEntity
  8
TEXT
100
AcDbText
 10
39.37780248594543
 20
0.4685053475935775
 30
0.0
 40
0.5625
  1
[325]
 41
0.75
 72
     4
 11
40.22155248594542
 21
0.7497553475935775
 31
0.0
100
AcDbText
  0
TEXT
  5
2B9
330
1E
100
AcDbEntity
  8
TEXT
100
AcDbText
 10
39.23717748594543
 20
1.410016042780725
 30
0.0
 40
0.5625
  1
12.795
 41
0.75
 72
     4
 11
40.22155248594542
 21
1.691266042780725
 31
0.0
100
AcDbText
  0
TEXT
  5
2BA
330
1E
100
AcDbEntity
  8
TEXT
100
AcDbText
 10
42.26895123594544
 20
0.4685053475935775
 30
0.0
 40
0.5625
  1
[310]
 41
0.75
 72
     4
 11
43.00723248594543
 21
0.7497553475935775
 31
0.0
100
AcDbText
  0
TEXT
  5
2BB
330
1E
100
AcDbEntity
  8
TEXT
100
AcDbText
 10
42.09316998594544
 20
1.410016042780725
 30
0.0
 40
0.5625
  1
12.212
 41
0.75
 72
     4
 11
43.00723248594543
 21
1.691266042780725
 31
0.0
100
AcDbText
  0
TEXT
  5
2BC
330
1E
100
AcDbEntity
  8
TEXT
100
AcDbText
 10
44.94916248594543
 20
0.4685053475935775
 30
0.0
 40
0.5625
  1
[275]
 41
0.75
 72
     4
 11
45.79291248594543
 21
0.7497553475935775
 31
0.0
100
AcDbText
  0
TEXT
  5
2BD
330
1E
100
AcDbEntity
  8
TEXT
100
AcDbText
 10
44.84369373594543
 20
1.410016042780725
 30
0.0
 40
0.5625
  1
10.833
 41
0.75
 72
     4
 11
45.79291248594543
 21
1.691266042780725
 31
0.0
100
AcDbText
  0
TEXT
  5
2BE
330
1E
100
AcDbEntity
  8
TEXT
100
AcDbText
 10
47.94577998594543
 20
0.4685053475935775
 30
0.0
 40
0.5625
  1
[98]
 41
0.75
 72
     4
 11
48.57859248594543
 21
0.7497553475935775
 31
0.0
100
AcDbText
  0
TEXT
  5
2BF
330
1E
100
AcDbEntity
  8
TEXT
100
AcDbText
 10
47.73484248594543
 20
1.410016042780725
 30
0.0
 40
0.5625
  1
3.855
 41
0.75
 72
     4
 11
48.57859248594543
 21
1.691266042780725
 31
0.0
100
AcDbText
  0
TEXT
  5
2C0
330
1E
100
AcDbEntity
  8
TEXT
100
AcDbText
 10
50.76661623594543
 20
0.4685053475935775
 30
0.0
 40
0.5625
  1
[80]
 41
0.75
 72
     4
 11
51.36427248594543
 21
0.7497553475935775
 31
0.0
100
AcDbText
  0
TEXT
  5
2C1
330
1E
100
AcDbEntity
  8
TEXT
100
AcDbText
 10
50.66114748594543
 20
1.410016042780725
 30
0.0
 40
0.5625
  1
3.151
 41
0.75
 72
     4
 11
51.36427248594543
 21
1.691266042780725
 31
0.0
100
AcDbText
  0
TEXT
  5
2C2
330
1E
100
AcDbEntity
  8
TEXT
100
AcDbText
 10
53.34014251830487
 20
0.4685053475935775
 30
0.0
 40
0.5625
  1
[378]
 41
0.75
 72
     4
 11
54.18389251830487
 21
0.7497553475935775
 31
0.0
100
AcDbText
  0
TEXT
  5
2C3
330
1E
100
AcDbEntity
  8
TEXT
100
AcDbText
 10
53.25164389788181
 20
1.410016042780725
 30
0.0
 40
0.5625
  1
14.870
 41
0.75
 72
     4
 11
54.20086264788181
 21
1.691266042780725
 31
0.0
100
AcDbText
  0
TEXT
  5
2C4
330
1E
100
AcDbEntity
  8
TEXT
100
AcDbText
 10
56.14279242108715
 20
0.4685053475935775
 30
0.0
 40
0.5625
  1
[375]
 41
0.75
 72
     4
 11
56.98654242108715
 21
0.7497553475935775
 31
0.0
100
AcDbText
  0
TEXT
  5
2C5
330
1E
100
AcDbEntity
  8
TEXT
100
AcDbText
 10
56.00216742108715
 20
1.410016042780725
 30
0.0
 40
0.5625
  1
14.753
 41
0.75
 72
     4
 11
56.98654242108715
 21
1.691266042780725
 31
0.0
100
AcDbText
  0
TEXT
  5
2C6
330
1E
100
AcDbEntity
  8
TEXT
100
AcDbText
 10
58.87756248594544
 20
0.4685053475935775
 30
0.0
 40
0.5625
  1
[278]
 41
0.75
 72
     4
 11
59.72131248594544
 21
0.7497553475935775
 31
0.0
100
AcDbText
  0
TEXT
  5
2C7
330
1E
100
AcDbEntity
  8
TEXT
100
AcDbText
 10
58.77209373594544
 20
1.410016042780725
 30
0.0
 40
0.5625
  1
10.937
 41
0.75
 72
     4
 11
59.72131248594544
 21
1.691266042780725
 31
0.0
100
AcDbText
  0
TEXT
  5
2C8
330
1E
100
AcDbEntity
  8
TEXT
100
AcDbText
 10
61.66324248594543
 20
0.4685053475935775
 30
0.0
 40
0.5625
  1
[275]
 41
0.75
 72
     4
 11
62.50699248594543
 21
0.7497553475935775
 31
0.0
100
AcDbText
  0
TEXT
  5
2C9
330
1E
100
AcDbEntity
  8
TEXT
100
AcDbText
 10
61.55777373594543
 20
1.410016042780725
 30
0.0
 40
0.5625
  1
10.835
 41
0.75
 72
     4
 11
62.50699248594543
 21
1.691266042780725
 31
0.0
100
AcDbText
  0
LINE
  5
2CA
330
1E
100
AcDbEntity
  8
OBJECT
100
AcDbLine
 10
26.45650791781215
 20
27.05753018267751
 30
0.0
 11
26.45650791781203
 21
28.00453018267751
 31
0.0
  0
LINE
  5
2CB
330
1E
100
AcDbEntity
  8
OBJECT
100
AcDbLine
 10
26.65335831031213
 20
27.50967979017751
 30
0.0
 11
26.65335831031213
 21
13.62938057517747
 31
0.0
  0
LINE
  5
2CC
330
1E
100
AcDbEntity
  8
OBJECT
100
AcDbLine
 10
23.50235831031215
 20
13.1190301826775
 30
0.0
 11
26.45650791781203
 21
13.13453018267749
 31
0.0
  0
ARC
  5
2CD
330
1E
100
AcDbEntity
  8
OBJECT
100
AcDbCircle
 10
26.45650791781203
 20
26.86067979017753
 30
0.0
 40
0.1968503925
100
AcDbArc
 50
0.0
 51
90.00000000000007
  0
LINE
  5
2CE
330
1E
100
AcDbEntity
  8
OBJECT
100
AcDbLine
 10
23.50235831031215
 20
28.0200301826775
 30
0.0
 11
26.45650791781203
 21
28.00453018267751
 31
0.0
  0
ARC
  5
2CF
330
1E
100
AcDbEntity
  8
OBJECT
100
AcDbCircle
 10
26.45650791781203
 20
27.50967979017751
 30
0.0
 40
0.1968503925
100
AcDbArc
 50
0.0
 51
90.00000000000007
  0
LINE
  5
2D0
330
1E
100
AcDbEntity
  8
OBJECT
100
AcDbLine
 10
23.83204865333879
 20
20.56953018267765
 30
0.0
 11
23.83204865333879
 21
27.52408924067725
 31
0.0
  0
LINE
  5
2D1
330
1E
100
AcDbEntity
  8
CENTER
100
AcDbLine
 10
50.20929611494176
 20
12.71403018267753
 30
0.0
 11
50.20929611494176
 21
28.42503018267752
 31
0.0
  0
LINE
  5
2D2
330
1E
100
AcDbEntity
  8
CENTER
100
AcDbLine
 10
44.32229611494178
 20
20.56953018267749
 30
0.0
 11
56.09629611494174
 21
20.56953018267749
 31
0.0
  0
LINE
  5
2D3
330
1E
100
AcDbEntity
  8
OBJECT
100
AcDbLine
 10
19.56735831031214
 20
27.2470301826775
 30
0.0
 11
19.56735831031214
 21
27.87903018267749
 31
0.0
  0
LINE
  5
2D4
330
1E
100
AcDbEntity
  8
OBJECT
100
AcDbLine
 10
23.50235831031215
 20
13.08903018267754
 30
0.0
 11
23.50235831031215
 21
13.97903018267749
 31
0.0
  0
LINE
  5
2D5
330
1E
100
AcDbEntity
  8
OBJECT
100
AcDbLine
 10
19.64735831031216
 20
16.33304592952546
 30
0.0
 11
19.64735831031216
 21
16.93101443582951
 31
0.0
  0
LINE
  5
2D6
330
1E
100
AcDbEntity
  8
OBJECT
100
AcDbLine
 10
19.56735831031214
 20
27.87903018267749
 30
0.0
 11
19.64735831031214
 21
27.87903018267749
 31
0.0
  0
LINE
  5
2D7
330
1E
100
AcDbEntity
  8
OBJECT
100
AcDbLine
 10
23.50235831031215
 20
28.05003018267758
 30
0.0
 11
19.64735831031216
 21
27.9460301826777
 31
0.0
  0
LINE
  5
2D8
330
1E
100
AcDbEntity
  8
OBJECT
100
AcDbLine
 10
19.56735831031214
 20
27.2470301826775
 30
0.0
 11
19.64735831031214
 21
27.2470301826775
 31
0.0
  0
LINE
  5
2D9
330
1E
100
AcDbEntity
  8
OBJECT
100
AcDbLine
 10
19.64735831031216
 20
15.34704592952552
 30
0.0
 11
19.64735831031216
 21
15.9450144358295
 31
0.0
  0
LINE
  5
2DA
330
1E
100
AcDbEntity
  8
OBJECT
100
AcDbLine
 10
19.64735831031216
 20
14.77849081067773
 30
0.0
 11
19.64735831031216
 21
14.95901443582945
 31
0.0
  0
LINE
  5
2DB
330
1E
100
AcDbEntity
  8
OBJECT
100
AcDbLine
 10
19.64735831031217
 20
13.89203018267748
 30
0.0
 11
19.64735831031216
 21
14.14856955467763
 31
0.0
  0
LINE
  5
2DC
330
1E
100
AcDbEntity
  8
OBJECT
100
AcDbLine
 10
19.85335831031212
 20
14.38253018267768
 30
0.0
 11
19.85335831031212
 21
14.54453018267769
 31
0.0
  0
LINE
  5
2DD
330
1E
100
AcDbEntity
  8
OBJECT
100
AcDbLine
 10
20.16335831031211
 20
14.76053018267768
 30
0.0
 11
19.76735831031209
 21
14.76053018267768
 31
0.0
  0
LINE
  5
2DE
330
1E
100
AcDbEntity
  8
OBJECT
100
AcDbLine
 10
20.16335831031189
 20
14.16653018267768
 30
0.0
 11
19.76735831031189
 21
14.16653018267768
 31
0.0
  0
LINE
  5
2DF
330
1E
100
AcDbEntity
  8
OBJECT
100
AcDbLine
 10
19.56735831031214
 20
13.71103018267749
 30
0.0
 11
19.94235831031214
 21
13.71103018267749
 31
0.0
  0
LINE
  5
2E0
330
1E
100
AcDbEntity
  8
OBJECT
100
AcDbLine
 10
20.05735831031215
 20
14.94303018267749
 30
0.0
 11
20.05735831031215
 21
15.36303018267749
 31
0.0
  0
LINE
  5
2E1
330
1E
100
AcDbEntity
  8
OBJECT
100
AcDbLine
 10
19.74735831031217
 20
15.07003018267749
 30
0.0
 11
19.74735831031217
 21
15.23603018267748
 31
0.0
  0
LINE
  5
2E2
330
1E
100
AcDbEntity
  8
OBJECT
100
AcDbLine
 10
19.64735831031216
 20
13.19303018267769
 30
0.0
 11
19.64735831031216
 21
13.26003018267749
 31
0.0
  0
LINE
  5
2E3
330
1E
100
AcDbEntity
  8
OBJECT
100
AcDbLine
 10
19.56735831031214
 20
13.44103018267749
 30
0.0
 11
19.94235831031213
 21
13.44103018267749
 31
0.0
  0
LINE
  5
2E4
330
1E
100
AcDbEntity
  8
OBJECT
100
AcDbLine
 10
23.50235831031215
 20
13.08903018267754
 30
0.0
 11
19.64735831031216
 21
13.19303018267769
 31
0.0
  0
LINE
  5
2E5
330
1E
100
AcDbEntity
  8
OBJECT
100
AcDbLine
 10
19.64735831031216
 20
17.31904592952536
 30
0.0
 11
19.64735831031216
 21
17.9170144358295
 31
0.0
  0
DIMENSION
  5
2E6
330
1E
100
AcDbEntity
  8
DIM
100
AcDbDimension
  2
*D3
 10
45.19029611494175
 20
29.14744353367744
 30
0.0
 11
50.20929611494175
 21
29.14744353367744
 31
0.0
 70
    32
  1
C
 71
     5
 42
10.03799999999999
  3
23NSTD
100
AcDbAlignedDimension
 13
55.22829611494175
 23
27.56303018267752
 33
0.0
 14
45.19029611494175
 24
27.56303018267749
 34
0.0
100
AcDbRotatedDimension
  0
DIMENSION
  5
2E7
330
1E
100
AcDbEntity
  8
DIM
100
AcDbDimension
  2
*D4
 10
44.69729611494178
 20
31.39744353367744
 30
0.0
 11
50.20929611494175
 21
31.39744353367744
 31
0.0
 70
    32
  1
A
 71
     5
 42
11.02399999999994
  3
23NSTD
100
AcDbAlignedDimension
 13
55.72129611494172
 23
27.56090420142754
 33
0.0
 14
44.69729611494178
 24
27.56090420142754
 34
0.0
100
AcDbRotatedDimension
  0
DIMENSION
  5
2E8
330
1E
100
AcDbEntity
  8
DIM
100
AcDbDimension
  2
*D5
 10
45.10929611494176
 20
30.27244353367744
 30
0.0
 11
50.20929611494176
 21
30.27244353367744
 31
0.0
 70
    32
  1
B
 71
     5
 42
10.20000000000001
  3
23NSTD
100
AcDbAlignedDimension
 13
55.30929611494177
 23
27.07865482140536
 33
0.0
 14
45.10929611494176
 24
27.07865482140547
 34
0.0
100
AcDbRotatedDimension
  0
DIMENSION
  5
2E9
330
1E
100
AcDbEntity
  8
DIM
100
AcDbDimension
  2
*D6
 10
40.91538900982295
 20
28.05003018267751
 30
0.0
 11
40.91538900982295
 21
20.56953018267754
 31
0.0
 70
    32
  1
G
 71
     5
 42
14.96099999999994
  3
23NSTD
100
AcDbAlignedDimension
 13
45.18942209619173
 23
13.08903018267757
 33
0.0
 14
45.18942209619173
 24
28.05003018267751
 34
0.0
 50
90.0
100
AcDbRotatedDimension
  0
DIMENSION
  5
2EA
330
1E
100
AcDbEntity
  8
DIM
100
AcDbDimension
  2
*D7
 10
42.17988900982295
 20
13.50203018267756
 30
0.0
 11
42.17988900982295
 21
20.56953018267754
 31
0.0
 70
    32
  1
H
 71
     5
 42
14.13499999999995
  3
23NSTD
100
AcDbAlignedDimension
 13
45.6685937780269
 23
27.63703018267752
 33
0.0
 14
45.668593778027
 24
13.50203018267756
 34
0.0
 50
90.0
100
AcDbRotatedDimension
  0
DIMENSION
  5
2EB
330
1E
100
AcDbEntity
  8
DIM
100
AcDbDimension
  2
*D8
 10
43.44438900982296
 20
13.5760301826775
 30
0.0
 11
43.44438900982296
 21
20.5695301826775
 31
0.0
 70
    32
  1
J
 71
     5
 42
13.98699999999999
  3
23NSTD
100
AcDbAlignedDimension
 13
45.19029611494175
 23
27.56303018267749
 33
0.0
 14
45.19029611494177
 24
13.5760301826775
 34
0.0
 50
90.0
100
AcDbRotatedDimension
  0
DIMENSION
  5
2EC
330
1E
100
AcDbEntity
  8
DIM
100
AcDbDimension
  2
*D9
 10
66.86210711594171
 20
26.96703018267748
 30
0.0
 11
66.86210711594171
 21
20.5695301826775
 31
0.0
 70
    32
  1
K
 71
     5
 42
12.79499999999999
  3
23NSTD
100
AcDbAlignedDimension
 13
53.66029611494176
 23
14.17203018267749
 33
0.0
 14
53.66029611494176
 24
26.96703018267749
 34
0.0
 50
90.0
100
AcDbRotatedDimension
  0
DIMENSION
  5
2ED
330
1E
100
AcDbEntity
  8
DIM
100
AcDbDimension
  2
*D10
 10
65.59760711594171
 20
26.6755301826775
 30
0.0
 11
65.59760711594171
 21
20.5695301826775
 31
0.0
 70
    32
  1
L
 71
     5
 42
12.212
  3
23NSTD
100
AcDbAlignedDimension
 13
54.33879611494174
 23
14.46353018267749
 33
0.0
 14
54.33879611494174
 24
26.6755301826775
 34
0.0
 50
90.0
100
AcDbRotatedDimension
  0
DIMENSION
  5
2EE
330
1E
100
AcDbEntity
  8
DIM
100
AcDbDimension
  2
*D11
 10
64.33310711594171
 20
25.98603018267749
 30
0.0
 11
64.33310711594171
 21
20.5695301826775
 31
0.0
 70
    32
  1
M
 71
     5
 42
10.83299999999999
  3
23NSTD
100
AcDbAlignedDimension
 13
54.63729611494175
 23
15.15303018267749
 33
0.0
 14
54.63729611494175
 24
25.98603018267749
 34
0.0
 50
90.0
100
AcDbRotatedDimension
  0
DIMENSION
  5
2EF
330
1E
100
AcDbEntity
  8
DIM
100
AcDbDimension
  2
*D12
 10
46.75829611494177
 20
9.295530182677566
 30
0.0
 11
50.20929611494176
 21
9.295530182677566
 31
0.0
 70
    32
  1
F
 71
     5
 42
6.901999999999986
  3
23NSTD
100
AcDbAlignedDimension
 13
53.66029611494176
 23
14.17203018267749
 33
0.0
 14
46.75829611494177
 24
14.17203018267749
 34
0.0
100
AcDbRotatedDimension
  0
DIMENSION
  5
2F0
330
1E
100
AcDbEntity
  8
DIM
100
AcDbDimension
  2
*D13
 10
46.07979611494179
 20
8.170530182677566
 30
0.0
 11
50.20629611494177
 21
8.170530182677566
 31
0.0
 70
    32
  1
E
 71
     5
 42
8.252999999999971
  3
23NSTD
100
AcDbAlignedDimension
 13
54.33279611494175
 23
14.4635301826775
 33
0.0
 14
46.07979611494179
 24
14.46353018267749
 34
0.0
100
AcDbRotatedDimension
  0
DIMENSION
  5
2F1
330
1E
100
AcDbEntity
  8
DIM
100
AcDbDimension
  2
*D14
 10
45.78129611494179
 20
7.045530182677566
 30
0.0
 11
50.20629611494178
 21
7.045530182677566
 31
0.0
 70
    32
  1
D
 71
     5
 42
8.849999999999965
  3
23NSTD
100
AcDbAlignedDimension
 13
54.63129611494176
 23
15.15303018267749
 33
0.0
 14
45.78129611494179
 24
15.15303018267749
 34
0.0
100
AcDbRotatedDimension
  0
DIMENSION
  5
2F2
330
1E
100
AcDbEntity
  8
DIM
100
AcDbDimension
  2
*D28
 10
26.65335831031213
 20
29.25593469140861
 30
0.0
 11
25.07785831031214
 21
29.25593469140861
 31
0.0
 70
    32
  1
P
 71
     5
 42
3.150999999999982
  3
23NSTDI
100
AcDbAlignedDimension
 13
23.50235831031215
 23
28.05003018267758
 33
0.0
 14
26.65335831031213
 24
27.50967979017751
 34
0.0
100
AcDbRotatedDimension
  0
DIMENSION
  5
2F3
330
1E
100
AcDbEntity
  8
DIM
100
AcDbDimension
  2
*D29
 10
19.64735831031216
 20
29.25593469140861
 30
0.0
 11
21.57485831031215
 21
29.25593469140861
 31
0.0
 70
    32
  1
N
 71
     5
 42
3.854999999999989
  3
23NSTDI
100
AcDbAlignedDimension
 13
23.50235831031215
 23
28.05003018267758
 33
0.0
 14
19.64735831031216
 24
27.9460301826777
 34
0.0
100
AcDbRotatedDimension
  0
DIMENSION
  5
2F4
330
1E
100
AcDbEntity
  8
DIM
100
AcDbDimension
  2
*D15
 10
14.31617682683026
 20
27.9460301826777
 30
0.0
 11
14.31617682683025
 21
20.5695301826777
 31
0.0
 70
    32
  1
S
 71
     5
 42
14.753
  3
23NSTD
100
AcDbAlignedDimension
 13
19.64735831031216
 23
13.19303018267769
 33
0.0
 14
19.64735831031216
 24
27.9460301826777
 34
0.0
 50
270.0
100
AcDbRotatedDimension
  0
DIMENSION
  5
2F5
330
1E
100
AcDbEntity
  8
DIM
100
AcDbDimension
  2
*D16
 10
27.82161027281212
 20
13.13453018267749
 30
0.0
 11
27.82161027281212
 21
20.56953018267751
 31
0.0
 70
    32
  1
R
 71
     5
 42
14.87000000000002
  3
23NSTD
100
AcDbAlignedDimension
 13
26.45650791781203
 23
28.00453018267751
 33
0.0
 14
26.45650791781203
 24
13.13453018267749
 34
0.0
 50
270.0
100
AcDbRotatedDimension
  0
LWPOLYLINE
  5
2F6
330
1E
100
AcDbEntity
  8
DIM
100
AcDbPolyline
 90
        4
 70
     0
 10
54.58538842596021
 20
26.84106335804296
 40
0.0
 41
0.30375
 10
55.11092887222236
 20
27.45132468169059
 40
0.0
 41
0.0
 10
57.5403996628173
 20
30.27244353367744
 40
0.0
 41
0.0
 10
58.35039966281728
 20
30.27244353367744
 40
0.0
 41
0.0
  0
TEXT
  5
2FC
330
1E
100
AcDbEntity
  8
DIM
100
AcDbText
 10
58.75539966281722
 20
29.99119353367744
 30
0.0
 40
0.5625
  1
0.594 [15] DIA. BOSS WITH
 41
0.75
 11
58.75539966281722
 21
30.27244353367744
 31
0.0
100
AcDbText
 73
     2
  0
TEXT
  5
2FD
330
1E
100
AcDbEntity
  8
DIM
100
AcDbText
 10
58.75539966281722
 20
29.05369353367744
 30
0.0
 40
0.5625
  1
M5 x 0.8 THREADED INSERT
 41
0.75
 11
58.75539966281722
 21
29.33494353367744
 31
0.0
100
AcDbText
 73
     2
  0
TEXT
  5
2FE
330
1E
100
AcDbEntity
  8
DIM
100
AcDbText
 10
58.75539966281722
 20
28.11619353367747
 30
0.0
 40
0.5625
  1
(4) PLACES
 41
0.75
 11
58.75539966281722
 21
28.39744353367747
 31
0.0
100
AcDbText
 73
     2
  0
LWPOLYLINE
  5
2FF
330
1E
100
AcDbEntity
  8
DIM
100
AcDbPolyline
 90
        4
 70
     0
 10
54.80720726533743
 20
17.00161948228559
 40
0.0
 41
0.30375
 10
55.33752424375377
 20
16.3875046877871
 40
0.0
 41
0.0
 10
58.36664258988721
 20
12.69552582120098
 40
0.0
 41
0.0
 10
59.17664258988727
 20
12.69552582120098
 40
0.0
 41
0.0
  0
TEXT
  5
305
330
1E
100
AcDbEntity
  8
DIM
100
AcDbText
 10
59.58164258988722
 20
12.41427582120098
 30
0.0
 40
0.5625
  1
0.420 [11] DIA. BOSS WITH
 41
0.75
 11
59.58164258988722
 21
12.69552582120098
 31
0.0
100
AcDbText
 73
     2
  0
TEXT
  5
306
330
1E
100
AcDbEntity
  8
DIM
100
AcDbText
 10
59.58164258988722
 20
11.47677582120099
 30
0.0
 40
0.5625
  1
0.166 [4] DIA. HOLE x
 41
0.75
 11
59.58164258988722
 21
11.75802582120099
 31
0.0
100
AcDbText
 73
     2
  0
TEXT
  5
307
330
1E
100
AcDbEntity
  8
DIM
100
AcDbText
 10
59.58164258988722
 20
10.53927582120099
 30
0.0
 40
0.5625
  1
0.310 [8] DEEP (36) PLACES
 41
0.75
 11
59.58164258988722
 21
10.82052582120099
 31
0.0
100
AcDbText
 73
     2
  0
TEXT
  5
308
330
1E
100
AcDbEntity
  8
DIM
100
AcDbText
 10
59.58164258988722
 20
9.60177582120098
 30
0.0
 40
0.5625
  1
BOSSES ACCEPT M5 METRIC
 41
0.75
 11
59.58164258988722
 21
9.88302582120098
 31
0.0
100
AcDbText
 73
     2
  0
DIMENSION
  5
309
330
1E
100
AcDbEntity
  8
DIM
100
AcDbDimension
  2
*D17
 10
19.56735831031214
 20
29.25593469140861
 30
0.0
 11
16.10095206031215
 21
29.25593469140861
 31
0.0
 70
    32
  1
<>
 71
     5
 42
0.0800000000000125
  3
23NSTD
100
AcDbAlignedDimension
 13
19.64735831031216
 23
27.9460301826777
 33
0.0
 14
19.56735831031214
 24
27.87903018267749
 34
0.0
100
AcDbRotatedDimension
  0
LINE
  5
30A
330
1E
100
AcDbEntity
  8
OBJECT
100
AcDbLine
 10
50.49893639846714
 20
27.01942126698921
 30
0.0
 11
50.3191418915144
 21
27.01942126698921
 31
0.0
  0
LINE
  5
30B
330
1E
100
AcDbEntity
  8
OBJECT
100
AcDbLine
 10
54.68968719925344
 20
23.23138989915213
 30
0.0
 11
54.68968719925342
 21
23.81067046620286
 31
0.0
  0
LINE
  5
30C
330
1E
100
AcDbEntity
  8
OBJECT
100
AcDbLine
 10
54.58490503063005
 20
23.23138989915213
 30
0.0
 11
54.58490503063005
 21
23.81067046620286
 31
0.0
  0
LINE
  5
30D
330
1E
100
AcDbEntity
  8
OBJECT
100
AcDbLine
 10
19.64735831031216
 20
18.30504592952546
 30
0.0
 11
19.64735831031216
 21
18.9030144358295
 31
0.0
  0
LINE
  5
30E
330
1E
100
AcDbEntity
  8
OBJECT
100
AcDbLine
 10
19.76735831031215
 20
14.94303018267748
 30
0.0
 11
19.76735831031209
 21
14.76053018267768
 31
0.0
  0
DIMENSION
  5
30F
330
1E
100
AcDbEntity
  8
DIM
100
AcDbDimension
  2
*D30
 10
58.9732918950243
 20
25.0000301826775
 30
0.0
 11
58.97329189502429
 21
25.4930301826775
 31
0.0
 70
    32
  1
<> TYP.
 71
     5
 42
0.9859999999999899
  3
23NSTDI
100
AcDbAlignedDimension
 13
54.63729611494175
 23
25.98603018267749
 33
0.0
 14
54.63729611494175
 24
25.0000301826775
 34
0.0
 50
90.0
100
AcDbRotatedDimension
  0
DIMENSION
  5
310
330
1E
100
AcDbEntity
  8
DIM
100
AcDbDimension
  2
*D18
 10
46.75829611494177
 20
11.96403018267756
 30
0.0
 11
42.09657736494177
 21
11.96403018267756
 31
0.0
 70
    32
  1
<> TYP.
 71
     5
 42
0.9860000000000042
  3
23NSTD
100
AcDbAlignedDimension
 13
47.74429611494177
 23
14.17203018267749
 33
0.0
 14
46.75829611494177
 24
14.17203018267749
 34
0.0
100
AcDbRotatedDimension
  0
DIMENSION
  5
311
330
1E
100
AcDbEntity
  8
DIM
100
AcDbDimension
  2
*D19
 10
46.75829611494177
 20
10.42053018267756
 30
0.0
 11
42.97548361494177
 21
10.42053018267756
 31
0.0
 70
    32
 71
     5
 42
2.957999999999998
  3
23NSTD
100
AcDbAlignedDimension
 13
49.71629611494177
 23
14.17203018267749
 33
0.0
 14
46.75829611494177
 24
14.17203018267749
 34
0.0
100
AcDbRotatedDimension
  0
DIMENSION
  5
312
330
1E
100
AcDbEntity
  8
DIM
100
AcDbDimension
  2
*D20
 10
53.66029611494176
 20
11.54457347641871
 30
0.0
 11
57.44310861494176
 21
11.54457347641871
 31
0.0
 70
    32
 71
     5
 42
2.957999999999984
  3
23NSTD
100
AcDbAlignedDimension
 13
50.70229611494177
 23
14.17203018267749
 33
0.0
 14
53.66029611494176
 24
14.17203018267749
 34
0.0
100
AcDbRotatedDimension
  0
DIMENSION
  5
313
330
1E
100
AcDbEntity
  8
DIM
100
AcDbDimension
  2
*D31
 10
60.89630856183702
 20
19.09703018267748
 30
0.0
 11
60.89630856183701
 21
17.1250301826775
 31
0.0
 70
    32
 71
     5
 42
3.943999999999986
  3
23NSTDI
100
AcDbAlignedDimension
 13
54.63729611494175
 23
15.15303018267749
 33
0.0
 14
54.63729611494175
 24
19.09703018267748
 34
0.0
 50
90.0
100
AcDbRotatedDimension
  0
DIMENSION
  5
314
330
1E
100
AcDbEntity
  8
DIM
100
AcDbDimension
  2
*D32
 10
62.08510711594169
 20
22.0420301826775
 30
0.0
 11
62.08510711594168
 21
24.01403018267751
 31
0.0
 70
    32
 71
     5
 42
3.943999999999988
  3
23NSTDI
100
AcDbAlignedDimension
 13
54.63729611494175
 23
25.98603018267749
 33
0.0
 14
54.63729611494175
 24
22.04203018267751
 34
0.0
 50
90.0
100
AcDbRotatedDimension
  0
LINE
  5
315
330
1E
100
AcDbEntity
  8
CENTER
100
AcDbLine
 10
28.44363996598243
 20
20.56953018267749
 30
0.0
 11
40.13063996598239
 21
20.56953018267749
 31
0.0
  0
LINE
  5
316
330
1E
100
AcDbEntity
  8
CENTER
100
AcDbLine
 10
34.28713996598248
 20
12.75953018267747
 30
0.0
 11
34.28713996598245
 21
28.37953018267751
 31
0.0
  0
LINE
  5
317
330
1E
100
AcDbEntity
  8
OBJECT
100
AcDbLine
 10
23.20235831031213
 20
27.11653018267753
 30
0.0
 11
19.64735831031216
 21
27.2100301826775
 31
0.0
  0
LINE
  5
318
330
1E
100
AcDbEntity
  8
OBJECT
100
AcDbLine
 10
20.05735831031215
 20
15.36303018267749
 30
0.0
 11
19.9183583103122
 21
15.36303018267748
 31
0.0
  0
LINE
  5
319
330
1E
100
AcDbEntity
  8
OBJECT
100
AcDbLine
 10
20.05735831031215
 20
14.94303018267749
 30
0.0
 11
19.76735831031215
 21
14.94303018267748
 31
0.0
  0
LINE
  5
31A
330
1E
100
AcDbEntity
  8
OBJECT
100
AcDbLine
 10
20.05735831031215
 20
15.23603018267748
 30
0.0
 11
19.74735831031217
 21
15.23603018267748
 31
0.0
  0
LINE
  5
31B
330
1E
100
AcDbEntity
  8
OBJECT
100
AcDbLine
 10
20.05735831031215
 20
15.07003018267749
 30
0.0
 11
19.74735831031217
 21
15.07003018267749
 31
0.0
  0
LINE
  5
31C
330
1E
100
AcDbEntity
  8
HIDDEN
100
AcDbLine
 10
20.16335831031211
 20
14.56153018267768
 30
0.0
 11
19.85335831031212
 21
14.56153018267768
 31
0.0
  0
LINE
  5
31D
330
1E
100
AcDbEntity
  8
HIDDEN
100
AcDbLine
 10
20.16335831031211
 20
14.36553018267768
 30
0.0
 11
19.85335831031212
 21
14.36553018267768
 31
0.0
  0
LINE
  5
31E
330
1E
100
AcDbEntity
  8
OBJECT
100
AcDbLine
 10
20.16335831031211
 20
14.54453018267769
 30
0.0
 11
19.85335831031212
 21
14.54453018267769
 31
0.0
  0
LINE
  5
31F
330
1E
100
AcDbEntity
  8
OBJECT
100
AcDbLine
 10
20.16335831031211
 20
14.38253018267768
 30
0.0
 11
19.85335831031212
 21
14.38253018267768
 31
0.0
  0
LINE
  5
320
330
1E
100
AcDbEntity
  8
OBJECT
100
AcDbLine
 10
20.05735831031215
 20
15.92903018267749
 30
0.0
 11
19.91835831031218
 21
15.92903018267749
 31
0.0
  0
LINE
  5
321
330
1E
100
AcDbEntity
  8
OBJECT
100
AcDbLine
 10
20.05735831031215
 20
16.05603018267748
 30
0.0
 11
19.74735831031217
 21
16.05603018267748
 31
0.0
  0
LINE
  5
322
330
1E
100
AcDbEntity
  8
OBJECT
100
AcDbLine
 10
20.05735831031215
 20
16.22203018267748
 30
0.0
 11
19.74735831031217
 21
16.22203018267748
 31
0.0
  0
LINE
  5
323
330
1E
100
AcDbEntity
  8
OBJECT
100
AcDbLine
 10
20.05735831031215
 20
15.92903018267749
 30
0.0
 11
20.05735831031215
 21
16.34903018267749
 31
0.0
  0
LINE
  5
324
330
1E
100
AcDbEntity
  8
OBJECT
100
AcDbLine
 10
20.05735831031215
 20
16.3490301826775
 30
0.0
 11
19.91835831031218
 21
16.34903018267748
 31
0.0
  0
LINE
  5
325
330
1E
100
AcDbEntity
  8
OBJECT
100
AcDbLine
 10
19.74735831031217
 20
16.05603018267748
 30
0.0
 11
19.74735831031217
 21
16.22203018267748
 31
0.0
  0
LINE
  5
326
330
1E
100
AcDbEntity
  8
OBJECT
100
AcDbLine
 10
20.05735831031215
 20
16.91503018267749
 30
0.0
 11
20.05735831031215
 21
17.33503018267749
 31
0.0
  0
LINE
  5
327
330
1E
100
AcDbEntity
  8
OBJECT
100
AcDbLine
 10
20.05735831031215
 20
17.20803018267749
 30
0.0
 11
19.74735831031217
 21
17.20803018267749
 31
0.0
  0
LINE
  5
328
330
1E
100
AcDbEntity
  8
OBJECT
100
AcDbLine
 10
20.05735831031215
 20
17.0420301826775
 30
0.0
 11
19.74735831031217
 21
17.0420301826775
 31
0.0
  0
LINE
  5
329
330
1E
100
AcDbEntity
  8
OBJECT
100
AcDbLine
 10
20.05735831031215
 20
16.91503018267749
 30
0.0
 11
19.91835831031217
 21
16.91503018267749
 31
0.0
  0
LINE
  5
32A
330
1E
100
AcDbEntity
  8
OBJECT
100
AcDbLine
 10
19.74735831031217
 20
17.0420301826775
 30
0.0
 11
19.74735831031217
 21
17.20803018267749
 31
0.0
  0
LINE
  5
32B
330
1E
100
AcDbEntity
  8
OBJECT
100
AcDbLine
 10
20.05735831031215
 20
17.33503018267749
 30
0.0
 11
19.91835831031217
 21
17.33503018267747
 31
0.0
  0
LINE
  5
32C
330
1E
100
AcDbEntity
  8
OBJECT
100
AcDbLine
 10
19.76735831031189
 20
14.16653018267768
 30
0.0
 11
19.76735831031185
 21
14.05803018267748
 31
0.0
  0
LINE
  5
32D
330
1E
100
AcDbEntity
  8
OBJECT
100
AcDbLine
 10
19.76735831031216
 20
19.30703018267745
 30
0.0
 11
19.76735831031215
 21
19.7885301826775
 31
0.0
  0
LINE
  5
32E
330
1E
100
AcDbEntity
  8
OBJECT
100
AcDbLine
 10
20.05735831031215
 20
18.19403018267747
 30
0.0
 11
19.74735831031217
 21
18.19403018267747
 31
0.0
  0
LINE
  5
32F
330
1E
100
AcDbEntity
  8
OBJECT
100
AcDbLine
 10
20.05735831031215
 20
18.02803018267748
 30
0.0
 11
19.74735831031217
 21
18.02803018267748
 31
0.0
  0
LINE
  5
330
330
1E
100
AcDbEntity
  8
OBJECT
100
AcDbLine
 10
20.05735831031215
 20
17.90103018267748
 30
0.0
 11
20.05735831031215
 21
18.32103018267749
 31
0.0
  0
LINE
  5
331
330
1E
100
AcDbEntity
  8
OBJECT
100
AcDbLine
 10
20.05735831031215
 20
17.90103018267748
 30
0.0
 11
19.91835831031216
 21
17.90103018267748
 31
0.0
  0
LINE
  5
332
330
1E
100
AcDbEntity
  8
OBJECT
100
AcDbLine
 10
20.05735831031215
 20
18.3210301826775
 30
0.0
 11
19.91835831031214
 21
18.32103018267747
 31
0.0
  0
LINE
  5
333
330
1E
100
AcDbEntity
  8
OBJECT
100
AcDbLine
 10
19.74735831031217
 20
18.02803018267748
 30
0.0
 11
19.74735831031217
 21
18.19403018267747
 31
0.0
  0
LWPOLYLINE
  5
334
330
1E
100
AcDbEntity
  8
OBJECT
100
AcDbPolyline
 90
        8
 70
     1
 43
0.0
 10
45.18942209619173
 20
28.05003018267751
 10
55.22917013369177
 20
28.05003018267754
 42
-0.4142135623730951
 10
55.72129611494172
 20
27.55790420142756
 10
55.72129611494176
 20
13.58115616392756
 42
-0.4142135623730951
 10
55.22917013369177
 20
13.08903018267749
 10
45.18942209619173
 20
13.08903018267757
 42
-0.4142135623730951
 10
44.69729611494178
 20
13.58115616392756
 10
44.69729611494178
 20
27.55790420142756
 42
-0.4142135623730951
  0
CIRCLE
  5
33E
330
1E
100
AcDbEntity
  8
OBJECT
100
AcDbCircle
 10
54.63729611494175
 20
23.02803018267749
 30
0.0
 40
0.21
  0
CIRCLE
  5
33F
330
1E
100
AcDbEntity
  8
OBJECT
100
AcDbCircle
 10
54.63729611494175
 20
23.02803018267749
 30
0.0
 40
0.083
  0
CIRCLE
  5
340
330
1E
100
AcDbEntity
  8
OBJECT
100
AcDbCircle
 10
54.63729611494175
 20
24.0140301826775
 30
0.0
 40
0.21
  0
CIRCLE
  5
341
330
1E
100
AcDbEntity
  8
OBJECT
100
AcDbCircle
 10
54.63729611494175
 20
24.0140301826775
 30
0.0
 40
0.083
  0
CIRCLE
  5
342
330
1E
100
AcDbEntity
  8
OBJECT
100
AcDbCircle
 10
54.63729611494175
 20
25.0000301826775
 30
0.0
 40
0.21
  0
CIRCLE
  5
343
330
1E
100
AcDbEntity
  8
OBJECT
100
AcDbCircle
 10
54.63729611494175
 20
25.0000301826775
 30
0.0
 40
0.083
  0
CIRCLE
  5
344
330
1E
100
AcDbEntity
  8
OBJECT
100
AcDbCircle
 10
54.63729611494175
 20
25.98603018267749
 30
0.0
 40
0.21
  0
CIRCLE
  5
345
330
1E
100
AcDbEntity
  8
OBJECT
100
AcDbCircle
 10
54.63729611494175
 20
25.98603018267749
 30
0.0
 40
0.083
  0
LINE
  5
346
330
1E
100
AcDbEntity
  8
OBJECT
100
AcDbLine
 10
54.58490503063005
 20
25.20338989915214
 30
0.0
 11
54.58490503063005
 21
25.7826704662026
 31
0.0
  0
LINE
  5
347
330
1E
100
AcDbEntity
  8
OBJECT
100
AcDbLine
 10
54.68968719925344
 20
25.20338989915214
 30
0.0
 11
54.68968719925344
 21
25.7826704662026
 31
0.0
  0
LINE
  5
348
330
1E
100
AcDbEntity
  8
OBJECT
100
AcDbLine
 10
54.58490503063005
 20
24.21738989915214
 30
0.0
 11
54.58490503063005
 21
24.79667046620287
 31
0.0
  0
LINE
  5
349
330
1E
100
AcDbEntity
  8
OBJECT
100
AcDbLine
 10
54.68968719925342
 20
24.21738989915214
 30
0.0
 11
54.68968719925344
 21
24.79667046620287
 31
0.0
  0
CIRCLE
  5
34A
330
1E
100
AcDbEntity
  8
OBJECT
100
AcDbCircle
 10
54.33879611494174
 20
26.6755301826775
 30
0.0
 40
0.297
  0
CIRCLE
  5
34B
330
1E
100
AcDbEntity
  8
OBJECT
100
AcDbCircle
 10
54.33879611494174
 20
26.6755301826775
 30
0.0
 40
0.098
  0
LINE
  5
34C
330
1E
100
AcDbEntity
  8
OBJECT
100
AcDbLine
 10
48.52693639846712
 20
27.01942126698918
 30
0.0
 11
47.94765583141641
 21
27.01942126698918
 31
0.0
  0
LINE
  5
34D
330
1E
100
AcDbEntity
  8
OBJECT
100
AcDbLine
 10
48.52693639846712
 20
26.91463909836582
 30
0.0
 11
47.94765583141641
 21
26.91463909836582
 31
0.0
  0
CIRCLE
  5
34E
330
1E
100
AcDbEntity
  8
OBJECT
100
AcDbCircle
 10
48.73029611494176
 20
26.96703018267749
 30
0.0
 40
0.21
  0
CIRCLE
  5
34F
330
1E
100
AcDbEntity
  8
OBJECT
100
AcDbCircle
 10
49.71629611494177
 20
26.96703018267749
 30
0.0
 40
0.21
  0
LINE
  5
350
330
1E
100
AcDbEntity
  8
OBJECT
100
AcDbLine
 10
49.51293639846714
 20
27.01942126698918
 30
0.0
 11
48.9336558314164
 21
27.01942126698918
 31
0.0
  0
LINE
  5
351
330
1E
100
AcDbEntity
  8
OBJECT
100
AcDbLine
 10
49.51293639846714
 20
26.9146390983658
 30
0.0
 11
48.9336558314164
 21
26.9146390983658
 31
0.0
  0
CIRCLE
  5
352
330
1E
100
AcDbEntity
  8
OBJECT
100
AcDbCircle
 10
49.71629611494177
 20
26.96703018267749
 30
0.0
 40
0.083
  0
CIRCLE
  5
353
330
1E
100
AcDbEntity
  8
OBJECT
100
AcDbCircle
 10
48.73029611494176
 20
26.96703018267749
 30
0.0
 40
0.083
  0
CIRCLE
  5
354
330
1E
100
AcDbEntity
  8
OBJECT
100
AcDbCircle
 10
46.75829611494177
 20
26.96703018267749
 30
0.0
 40
0.21
  0
CIRCLE
  5
355
330
1E
100
AcDbEntity
  8
OBJECT
100
AcDbCircle
 10
47.74429611494177
 20
26.96703018267749
 30
0.0
 40
0.21
  0
CIRCLE
  5
356
330
1E
100
AcDbEntity
  8
OBJECT
100
AcDbCircle
 10
46.75829611494177
 20
26.96703018267749
 30
0.0
 40
0.083
  0
LINE
  5
357
330
1E
100
AcDbEntity
  8
OBJECT
100
AcDbLine
 10
47.54093639846714
 20
27.01942126698918
 30
0.0
 11
46.96165583141667
 21
27.01942126698918
 31
0.0
  0
LINE
  5
358
330
1E
100
AcDbEntity
  8
OBJECT
100
AcDbLine
 10
47.54093639846714
 20
26.91463909836582
 30
0.0
 11
46.96165583141667
 21
26.91463909836582
 31
0.0
  0
CIRCLE
  5
359
330
1E
100
AcDbEntity
  8
OBJECT
100
AcDbCircle
 10
47.74429611494177
 20
26.96703018267749
 30
0.0
 40
0.083
  0
LINE
  5
35A
330
1E
100
AcDbEntity
  8
OBJECT
100
AcDbLine
 10
52.87765583141641
 20
27.01942126698918
 30
0.0
 11
53.45693639846685
 21
27.01942126698918
 31
0.0
  0
LINE
  5
35B
330
1E
100
AcDbEntity
  8
OBJECT
100
AcDbLine
 10
52.87765583141641
 20
26.91463909836582
 30
0.0
 11
53.45693639846685
 21
26.91463909836582
 31
0.0
  0
CIRCLE
  5
35C
330
1E
100
AcDbEntity
  8
OBJECT
100
AcDbCircle
 10
53.66029611494176
 20
26.96703018267749
 30
0.0
 40
0.21
  0
CIRCLE
  5
35D
330
1E
100
AcDbEntity
  8
OBJECT
100
AcDbCircle
 10
53.66029611494176
 20
26.96703018267749
 30
0.0
 40
0.083
  0
LINE
  5
35E
330
1E
100
AcDbEntity
  8
OBJECT
100
AcDbLine
 10
50.90565583141641
 20
27.01942126698918
 30
0.0
 11
51.48493639846714
 21
27.01942126698918
 31
0.0
  0
LINE
  5
35F
330
1E
100
AcDbEntity
  8
OBJECT
100
AcDbLine
 10
50.90565583141641
 20
26.9146390983658
 30
0.0
 11
51.48493639846714
 21
26.9146390983658
 31
0.0
  0
LINE
  5
360
330
1E
100
AcDbEntity
  8
OBJECT
100
AcDbLine
 10
51.89165583141641
 20
27.01942126698918
 30
0.0
 11
52.47093639846713
 21
27.01942126698918
 31
0.0
  0
LINE
  5
361
330
1E
100
AcDbEntity
  8
OBJECT
100
AcDbLine
 10
51.89165583141641
 20
26.91463909836582
 30
0.0
 11
52.47093639846713
 21
26.91463909836582
 31
0.0
  0
CIRCLE
  5
362
330
1E
100
AcDbEntity
  8
OBJECT
100
AcDbCircle
 10
52.67429611494176
 20
26.96703018267749
 30
0.0
 40
0.083
  0
CIRCLE
  5
363
330
1E
100
AcDbEntity
  8
OBJECT
100
AcDbCircle
 10
52.67429611494176
 20
26.96703018267749
 30
0.0
 40
0.21
  0
CIRCLE
  5
364
330
1E
100
AcDbEntity
  8
OBJECT
100
AcDbCircle
 10
51.68829611494178
 20
26.96703018267749
 30
0.0
 40
0.21
  0
CIRCLE
  5
365
330
1E
100
AcDbEntity
  8
OBJECT
100
AcDbCircle
 10
51.68829611494178
 20
26.96703018267749
 30
0.0
 40
0.083
  0
CIRCLE
  5
366
330
1E
100
AcDbEntity
  8
OBJECT
100
AcDbCircle
 10
50.70229611494177
 20
26.96703018267749
 30
0.0
 40
0.083
  0
CIRCLE
  5
367
330
1E
100
AcDbEntity
  8
OBJECT
100
AcDbCircle
 10
50.70229611494177
 20
26.96703018267749
 30
0.0
 40
0.21
  0
CIRCLE
  5
368
330
1E
100
AcDbEntity
  8
OBJECT
100
AcDbCircle
 10
46.07979611494179
 20
26.6755301826775
 30
0.0
 40
0.297
  0
CIRCLE
  5
369
330
1E
100
AcDbEntity
  8
OBJECT
100
AcDbCircle
 10
46.07979611494179
 20
26.6755301826775
 30
0.0
 40
0.098
  0
LINE
  5
36A
330
1E
100
AcDbEntity
  8
OBJECT
100
AcDbLine
 10
45.73090503063009
 20
24.21738989915214
 30
0.0
 11
45.73090503063009
 21
24.79667046620287
 31
0.0
  0
LINE
  5
36B
330
1E
100
AcDbEntity
  8
OBJECT
100
AcDbLine
 10
45.83368719925348
 20
24.21738989915214
 30
0.0
 11
45.83368719925348
 21
24.79667046620287
 31
0.0
  0
CIRCLE
  5
36C
330
1E
100
AcDbEntity
  8
OBJECT
100
AcDbCircle
 10
45.78129611494179
 20
24.0140301826775
 30
0.0
 40
0.21
  0
CIRCLE
  5
36D
330
1E
100
AcDbEntity
  8
OBJECT
100
AcDbCircle
 10
45.78129611494179
 20
23.02803018267749
 30
0.0
 40
0.21
  0
LINE
  5
36E
330
1E
100
AcDbEntity
  8
OBJECT
100
AcDbLine
 10
45.73090503063009
 20
23.23138989915213
 30
0.0
 11
45.73090503063009
 21
23.81067046620286
 31
0.0
  0
LINE
  5
36F
330
1E
100
AcDbEntity
  8
OBJECT
100
AcDbLine
 10
45.83368719925348
 20
23.23138989915213
 30
0.0
 11
45.83368719925348
 21
23.81067046620286
 31
0.0
  0
CIRCLE
  5
370
330
1E
100
AcDbEntity
  8
OBJECT
100
AcDbCircle
 10
45.78129611494179
 20
23.02803018267749
 30
0.0
 40
0.083
  0
CIRCLE
  5
371
330
1E
100
AcDbEntity
  8
OBJECT
100
AcDbCircle
 10
45.78129611494179
 20
24.0140301826775
 30
0.0
 40
0.083
  0
CIRCLE
  5
372
330
1E
100
AcDbEntity
  8
OBJECT
100
AcDbCircle
 10
45.78129611494179
 20
25.98603018267749
 30
0.0
 40
0.21
  0
CIRCLE
  5
373
330
1E
100
AcDbEntity
  8
OBJECT
100
AcDbCircle
 10
45.78129611494179
 20
25.0000301826775
 30
0.0
 40
0.21
  0
CIRCLE
  5
374
330
1E
100
AcDbEntity
  8
OBJECT
100
AcDbCircle
 10
45.78129611494179
 20
25.98603018267749
 30
0.0
 40
0.083
  0
LINE
  5
375
330
1E
100
AcDbEntity
  8
OBJECT
100
AcDbLine
 10
45.73090503063009
 20
25.20338989915214
 30
0.0
 11
45.73090503063009
 21
25.7826704662026
 31
0.0
  0
LINE
  5
376
330
1E
100
AcDbEntity
  8
OBJECT
100
AcDbLine
 10
45.83368719925348
 20
25.20338989915214
 30
0.0
 11
45.83368719925348
 21
25.7826704662026
 31
0.0
  0
CIRCLE
  5
377
330
1E
100
AcDbEntity
  8
OBJECT
100
AcDbCircle
 10
45.78129611494179
 20
25.0000301826775
 30
0.0
 40
0.083
  0
TEXT
  5
378
330
1E
100
AcDbEntity
  8
DIM
100
AcDbText
 10
3.367658495552486
 20
9.784897321222665
 30
0.0
 40
0.5625
  1
M5 x 0.8 THREADED INSERT
 41
0.75
 11
3.367658495552486
 21
10.06614732122266
 31
0.0
100
AcDbText
 73
     2
  0
TEXT
  5
379
330
1E
100
AcDbEntity
  8
DIM
100
AcDbText
 10
3.367658495552486
 20
10.72239732122267
 30
0.0
 40
0.5625
  1
0.630 [16] DIA. BOSS WITH
 41
0.75
 11
3.367658495552486
 21
11.00364732122267
 31
0.0
100
AcDbText
 73
     2
  0
LWPOLYLINE
  5
37A
330
1E
100
AcDbEntity
  8
DIM
100
AcDbPolyline
 90
        4
 70
     0
 10
6.089545990028749
 20
13.71379913887742
 40
0.0
 41
0.30375
 10
5.4223523620422
 20
13.25450330526457
 40
0.0
 41
0.0
 10
2.152658495552568
 20
11.00364732122267
 40
0.0
 41
0.0
 10
2.962658495552542
 20
11.00364732122267
 40
0.0
 41
0.0
  0
TEXT
  5
380
330
1E
100
AcDbEntity
  8
DIM
100
AcDbText
 10
3.367658495552486
 20
8.847397321222686
 30
0.0
 40
0.5625
  1
(4) PLACES
 41
0.75
 11
3.367658495552486
 21
9.128647321222686
 31
0.0
100
AcDbText
 73
     2
  0
LINE
  5
381
330
1E
100
AcDbEntity
  8
OBJECT
100
AcDbLine
 10
45.91430155637918
 20
26.42891195324955
 30
0.0
 11
45.81575217482568
 21
26.1931841832116
 31
0.0
  0
LINE
  5
382
330
1E
100
AcDbEntity
  8
OBJECT
100
AcDbLine
 10
46.00947182028898
 20
26.38697603943643
 30
0.0
 11
45.91092243873546
 21
26.15124826939847
 31
0.0
  0
LINE
  5
383
330
1E
100
AcDbEntity
  8
OBJECT
100
AcDbLine
 10
46.32879488568157
 20
26.83742092413629
 30
0.0
 11
46.55066295953531
 21
26.93559019578245
 31
0.0
  0
LINE
  5
384
330
1E
100
AcDbEntity
  8
OBJECT
100
AcDbLine
 10
46.36934240098642
 20
26.7416508922756
 30
0.0
 11
46.59121047484018
 21
26.83982016392173
 31
0.0
  0
LINE
  5
385
330
1E
100
AcDbEntity
  8
OBJECT
100
AcDbLine
 10
54.50429067350434
 20
26.42891195324955
 30
0.0
 11
54.60284005505783
 21
26.1931841832116
 31
0.0
  0
LINE
  5
386
330
1E
100
AcDbEntity
  8
OBJECT
100
AcDbLine
 10
54.40912040959455
 20
26.38697603943643
 30
0.0
 11
54.50766979114806
 21
26.15124826939847
 31
0.0
  0
LINE
  5
387
330
1E
100
AcDbEntity
  8
OBJECT
100
AcDbLine
 10
54.08979734420196
 20
26.83742092413629
 30
0.0
 11
53.86792927034822
 21
26.93559019578245
 31
0.0
  0
LINE
  5
388
330
1E
100
AcDbEntity
  8
OBJECT
100
AcDbLine
 10
54.0492498288971
 20
26.7416508922756
 30
0.0
 11
53.82738175504335
 21
26.83982016392173
 31
0.0
  0
CIRCLE
  5
389
330
1E
100
AcDbEntity
  8
OBJECT
100
AcDbCircle
 10
45.47129611494177
 20
20.56953018267748
 30
0.0
 40
0.098
  0
CIRCLE
  5
38A
330
1E
100
AcDbEntity
  8
OBJECT
100
AcDbCircle
 10
54.94729611494179
 20
20.56953018267748
 30
0.0
 40
0.098
  0
CIRCLE
  5
38B
330
1E
100
AcDbEntity
  8
OBJECT
100
AcDbCircle
 10
45.47129611494177
 20
20.56953018267748
 30
0.0
 40
0.275
  0
CIRCLE
  5
38C
330
1E
100
AcDbEntity
  8
OBJECT
100
AcDbCircle
 10
54.94729611494179
 20
20.56953018267748
 30
0.0
 40
0.275
  0
LINE
  5
38D
330
1E
100
AcDbEntity
  8
OBJECT
100
AcDbLine
 10
19.91835831031214
 20
19.7885301826775
 30
0.0
 11
19.91835831031214
 21
20.2945301826775
 31
0.0
  0
LINE
  5
38E
330
1E
100
AcDbEntity
  8
OBJECT
100
AcDbLine
 10
45.10929611494177
 20
21.35053018267748
 30
0.0
 11
55.30929611494177
 21
21.35053018267748
 31
0.0
  0
LINE
  5
38F
330
1E
100
AcDbEntity
  8
OBJECT
100
AcDbLine
 10
45.10929611494178
 20
19.7885301826775
 30
0.0
 11
55.30929611494179
 21
19.7885301826775
 31
0.0
  0
LINE
  5
390
330
1E
100
AcDbEntity
  8
OBJECT
100
AcDbLine
 10
19.76735831031215
 20
19.7885301826775
 30
0.0
 11
19.91835831031214
 21
19.7885301826775
 31
0.0
  0
LINE
  5
391
330
1E
100
AcDbEntity
  8
OBJECT
100
AcDbLine
 10
20.16835831031214
 20
20.29453018267749
 30
0.0
 11
20.16835831031214
 21
20.5695301826777
 31
0.0
  0
LINE
  5
392
330
1E
100
AcDbEntity
  8
OBJECT
100
AcDbLine
 10
20.16835831031214
 20
20.29453018267749
 30
0.0
 11
19.91835831031214
 21
20.2945301826775
 31
0.0
  0
LINE
  5
393
330
1E
100
AcDbEntity
  8
OBJECT
100
AcDbLine
 10
19.56735831031216
 20
20.48853018267769
 30
0.0
 11
19.87735831031215
 21
20.48853018267769
 31
0.0
  0
LINE
  5
394
330
1E
100
AcDbEntity
  8
HIDDEN
100
AcDbLine
 10
19.56735831031216
 20
20.47153018267769
 30
0.0
 11
19.87735831031215
 21
20.47153018267769
 31
0.0
  0
LINE
  5
395
330
1E
100
AcDbEntity
  8
OBJECT
100
AcDbLine
 10
19.87735831031215
 20
20.48853018267769
 30
0.0
 11
19.87735831031215
 21
20.56953018267769
 31
0.0
  0
LINE
  5
396
330
1E
100
AcDbEntity
  8
OBJECT
100
AcDbLine
 10
19.64735831031216
 20
20.56953018267769
 30
0.0
 11
19.64735831031216
 21
27.9460301826777
 31
0.0
  0
LWPOLYLINE
  5
397
330
1E
100
AcDbEntity
  8
OBJECT
100
AcDbPolyline
 90
        4
 70
     1
 43
0.0
 10
33.82213996598242
 20
33.7690424865122
 10
33.82213996598244
 20
33.8940424865122
 10
34.20213996598243
 20
33.8940424865122
 10
34.20213996598242
 20
33.7690424865122
  0
LWPOLYLINE
  5
39D
330
1E
100
AcDbEntity
  8
OBJECT
100
AcDbPolyline
 90
        4
 70
     0
 43
0.0
 10
23.41485831031214
 20
27.55253018267728
 10
23.41485831031214
 20
26.42953018267764
 10
23.28985831031214
 20
26.42953018267764
 10
23.28985831031214
 20
27.55253018267728
  0
LINE
  5
3A3
330
1E
100
AcDbEntity
  8
OBJECT
100
AcDbLine
 10
23.20235831031216
 20
20.56953018267761
 30
0.0
 11
23.20235831031213
 21
27.55253018267728
 31
0.0
  0
CIRCLE
  5
3A4
330
1E
100
AcDbEntity
  8
OBJECT
100
AcDbCircle
 10
50.20929611494176
 20
27.2715301826777
 30
0.0
 40
0.275
  0
CIRCLE
  5
3A5
330
1E
100
AcDbEntity
  8
OBJECT
100
AcDbCircle
 10
50.20929611494176
 20
27.2715301826777
 30
0.0
 40
0.098
  0
LINE
  5
3A6
330
1E
100
AcDbEntity
  8
OBJECT
100
AcDbLine
 10
50.09945033836913
 20
27.01942126698918
 30
0.0
 11
49.91965583141641
 21
27.01942126698918
 31
0.0
  0
LINE
  5
3A7
330
1E
100
AcDbEntity
  8
OBJECT
100
AcDbLine
 10
50.49811503461653
 20
26.91793755149524
 30
0.0
 11
49.92047719526901
 21
26.91793755149524
 31
0.0
  0
LINE
  5
3A8
330
1E
100
AcDbEntity
  8
OBJECT
100
AcDbLine
 10
39.30613996598252
 20
33.98154248651218
 30
0.0
 11
29.26813996598252
 21
33.98154248651218
 31
0.0
  0
LINE
  5
3A9
330
1E
100
AcDbEntity
  8
OBJECT
100
AcDbLine
 10
39.70463996598239
 20
37.53654248651219
 30
0.0
 11
28.86963996598238
 21
37.53654248651219
 31
0.0
  0
LINE
  5
3AA
330
1E
100
AcDbEntity
  8
OBJECT
100
AcDbLine
 10
39.27069902398259
 20
33.35185214348566
 30
0.0
 11
29.30358090798258
 21
33.35185214348566
 31
0.0
  0
LINE
  5
3AB
330
1E
100
AcDbEntity
  8
OBJECT
100
AcDbLine
 10
39.26428957348237
 20
30.53054248651219
 30
0.0
 11
29.30999035848244
 21
30.53054248651219
 31
0.0
  0
LINE
  5
3AC
330
1E
100
AcDbEntity
  8
OBJECT
100
AcDbLine
 10
39.79913996598241
 20
33.68154248651218
 30
0.0
 11
28.77513996598247
 21
33.68154248651218
 31
0.0
  0
DIMENSION
  5
3AD
330
1E
100
AcDbEntity
  8
DIM
100
AcDbDimension
  2
*D21
 10
39.70463996598239
 20
38.65704248651218
 30
0.0
 11
34.28713996598238
 21
38.65704248651218
 31
0.0
 70
    32
  1
U
 71
     5
 42
10.835
  3
23NSTD
100
AcDbAlignedDimension
 13
28.86963996598238
 23
37.53654248651219
 33
0.0
 14
39.70463996598239
 24
37.53654248651219
 34
0.0
100
AcDbRotatedDimension
  0
DIMENSION
  5
3AE
330
1E
100
AcDbEntity
  8
DIM
100
AcDbDimension
  2
*D22
 10
39.75563996598247
 20
29.31889287901217
 30
0.0
 11
34.28713996598247
 21
29.31889287901217
 31
0.0
 70
    32
  1
T
 71
     5
 42
10.93700000000001
  3
23NSTD
100
AcDbAlignedDimension
 13
28.81863996598246
 23
30.72739287901217
 33
0.0
 14
39.75563996598247
 24
30.72739287901217
 34
0.0
100
AcDbRotatedDimension
  0
LINE
  5
3AF
330
1E
100
AcDbEntity
  8
OBJECT
100
AcDbLine
 10
28.80313996598246
 20
33.68154248651218
 30
0.0
 11
28.81863996598246
 21
30.72739287901217
 31
0.0
  0
LINE
  5
3B0
330
1E
100
AcDbEntity
  8
OBJECT
100
AcDbLine
 10
29.75712586041126
 20
30.72739287901217
 30
0.0
 11
28.81863996598246
 21
30.72739287901217
 31
0.0
  0
ARC
  5
3B1
330
1E
100
AcDbEntity
  8
OBJECT
100
AcDbCircle
 10
29.30999035848244
 20
30.72739287901217
 30
0.0
 40
0.1968503925
100
AcDbArc
 50
179.9999999999999
 51
270.0
  0
ARC
  5
3B2
330
1E
100
AcDbEntity
  8
OBJECT
100
AcDbCircle
 10
29.95397625291124
 20
30.72739287901217
 30
0.0
 40
0.1968503925
100
AcDbArc
 50
179.9999999999999
 51
270.0
  0
LINE
  5
3B3
330
1E
100
AcDbEntity
  8
OBJECT
100
AcDbLine
 10
29.69313996598241
 20
33.98154248651218
 30
0.0
 11
29.63113996598239
 21
37.53654248651219
 31
0.0
  0
LINE
  5
3B4
330
1E
100
AcDbEntity
  8
OBJECT
100
AcDbLine
 10
28.77513996598247
 20
33.68154248651218
 30
0.0
 11
28.86963996598238
 21
37.53654248651219
 31
0.0
  0
LWPOLYLINE
  5
3B5
330
1E
100
AcDbEntity
  8
OBJECT
100
AcDbPolyline
 90
        4
 70
     0
 43
0.0
 10
29.26813996598252
 20
33.76904248651217
 10
30.35213996598246
 20
33.76904248651219
 10
30.35213996598244
 20
33.89404248651219
 10
29.26813996598252
 20
33.89404248651217
  0
LINE
  5
3BB
330
1E
100
AcDbEntity
  8
OBJECT
100
AcDbLine
 10
38.89465449766797
 20
30.72739287901217
 30
0.0
 11
38.89465449766797
 21
33.35185214348566
 31
0.0
  0
LINE
  5
3BC
330
1E
100
AcDbEntity
  8
OBJECT
100
AcDbLine
 10
39.77113996598248
 20
33.68154248651218
 30
0.0
 11
39.75563996598247
 21
30.72739287901217
 31
0.0
  0
LINE
  5
3BD
330
1E
100
AcDbEntity
  8
CENTER
100
AcDbLine
 10
34.28713996598245
 20
30.15554248651219
 30
0.0
 11
34.28713996598238
 21
37.99154248651218
 31
0.0
  0
ARC
  5
3BE
330
1E
100
AcDbEntity
  8
OBJECT
100
AcDbCircle
 10
38.6203036790537
 20
30.72739287901217
 30
0.0
 40
0.1968503925
100
AcDbArc
 50
270.0
 51
0.0000000000001018
  0
ARC
  5
3BF
330
1E
100
AcDbEntity
  8
OBJECT
100
AcDbCircle
 10
39.26428957348237
 20
30.72739287901217
 30
0.0
 40
0.1968503925
100
AcDbArc
 50
270.0
 51
0.0000000000001018
  0
LINE
  5
3C0
330
1E
100
AcDbEntity
  8
OBJECT
100
AcDbLine
 10
38.81715407155368
 20
30.72739287901217
 30
0.0
 11
39.75563996598236
 21
30.72739287901217
 31
0.0
  0
LINE
  5
3C1
330
1E
100
AcDbEntity
  8
OBJECT
100
AcDbLine
 10
39.46113996598247
 20
30.72739287901217
 30
0.0
 11
39.75563996598247
 21
30.72739287901217
 31
0.0
  0
LINE
  5
3C2
330
1E
100
AcDbEntity
  8
OBJECT
100
AcDbLine
 10
39.79913996598241
 20
33.68154248651218
 30
0.0
 11
39.70463996598239
 21
37.53654248651219
 31
0.0
  0
LINE
  5
3C3
330
1E
100
AcDbEntity
  8
OBJECT
100
AcDbLine
 10
38.88113996598243
 20
33.98154248651218
 30
0.0
 11
38.94313996598238
 21
37.53654248651219
 31
0.0
  0
TEXT
  5
3C4
330
1E
100
AcDbEntity
  8
TEXT
100
AcDbText
 10
67.23460248594545
 20
1.410016042780725
 30
0.0
 40
0.5625
  1
9.476
 41
0.75
 72
     4
 11
68.07835248594544
 21
1.691266042780725
 31
0.0
100
AcDbText
  0
TEXT
  5
3C5
330
1E
100
AcDbEntity
  8
TEXT
100
AcDbText
 10
67.30491498594544
 20
0.4685053475935775
 30
0.0
 40
0.5625
  1
[241]
 41
0.75
 72
     4
 11
68.07835248594544
 21
0.7497553475935775
 31
0.0
100
AcDbText
  0
TEXT
  5
3C6
330
1E
100
AcDbEntity
  8
TEXT
100
AcDbText
 10
64.48407873594543
 20
0.4685053475935775
 30
0.0
 40
0.5625
  1
[340]
 41
0.75
 72
     4
 11
65.29267248594543
 21
0.7497553475935775
 31
0.0
100
AcDbText
  0
TEXT
  5
3C7
330
1E
100
AcDbEntity
  8
TEXT
100
AcDbText
 10
64.34345373594543
 20
1.410016042780725
 30
0.0
 40
0.5625
  1
13.404
 41
0.75
 72
     4
 11
65.29267248594543
 21
1.691266042780725
 31
0.0
100
AcDbText
  0
DIMENSION
  5
3C8
330
1E
100
AcDbEntity
  8
DIM
100
AcDbDimension
  2
*D33
 10
58.2627806760044
 20
22.0420301826775
 30
0.0
 11
58.26278067600439
 21
20.5695301826775
 31
0.0
 70
    32
 71
     5
 42
2.945000000000021
  3
23NSTDI
100
AcDbAlignedDimension
 13
54.63729611494175
 23
19.09703018267748
 33
0.0
 14
54.63729611494175
 24
22.04203018267751
 34
0.0
 50
90.0
100
AcDbRotatedDimension
  0
CIRCLE
  5
3C9
330
1E
100
AcDbEntity
  8
OBJECT
100
AcDbCircle
 10
45.78129611494179
 20
22.04203018267751
 30
0.0
 40
0.083
  0
CIRCLE
  5
3CA
330
1E
100
AcDbEntity
  8
OBJECT
100
AcDbCircle
 10
45.78129611494179
 20
22.04203018267751
 30
0.0
 40
0.21
  0
LINE
  5
3CB
330
1E
100
AcDbEntity
  8
OBJECT
100
AcDbLine
 10
45.83368719925348
 20
22.24538989915214
 30
0.0
 11
45.83368719925348
 21
22.82467046620286
 31
0.0
  0
LINE
  5
3CC
330
1E
100
AcDbEntity
  8
OBJECT
100
AcDbLine
 10
45.73090503063009
 20
22.24538989915214
 30
0.0
 11
45.73090503063009
 21
22.82467046620286
 31
0.0
  0
CIRCLE
  5
3CD
330
1E
100
AcDbEntity
  8
OBJECT
100
AcDbCircle
 10
54.63729611494175
 20
22.04203018267751
 30
0.0
 40
0.083
  0
CIRCLE
  5
3CE
330
1E
100
AcDbEntity
  8
OBJECT
100
AcDbCircle
 10
54.63729611494175
 20
22.04203018267751
 30
0.0
 40
0.21
  0
LINE
  5
3CF
330
1E
100
AcDbEntity
  8
OBJECT
100
AcDbLine
 10
54.58490503063005
 20
22.24538989915214
 30
0.0
 11
54.58490503063005
 21
22.82467046620286
 31
0.0
  0
LINE
  5
3D0
330
1E
100
AcDbEntity
  8
OBJECT
100
AcDbLine
 10
54.68968719925344
 20
22.24538989915214
 30
0.0
 11
54.68968719925342
 21
22.82467046620286
 31
0.0
  0
LINE
  5
3D1
330
1E
100
AcDbEntity
  8
OBJECT
100
AcDbLine
 10
49.51293639846714
 20
14.1196390983658
 30
0.0
 11
48.9336558314164
 21
14.1196390983658
 31
0.0
  0
LINE
  5
3D2
330
1E
100
AcDbEntity
  8
OBJECT
100
AcDbLine
 10
49.51293639846714
 20
14.22442126698919
 30
0.0
 11
48.9336558314164
 21
14.22442126698919
 31
0.0
  0
CIRCLE
  5
3D3
330
1E
100
AcDbEntity
  8
OBJECT
100
AcDbCircle
 10
45.78129611494179
 20
18.11103018267749
 30
0.0
 40
0.083
  0
CIRCLE
  5
3D4
330
1E
100
AcDbEntity
  8
OBJECT
100
AcDbCircle
 10
45.78129611494179
 20
18.11103018267749
 30
0.0
 40
0.21
  0
CIRCLE
  5
3D5
330
1E
100
AcDbEntity
  8
OBJECT
100
AcDbCircle
 10
45.78129611494179
 20
19.09703018267748
 30
0.0
 40
0.21
  0
LINE
  5
3D6
330
1E
100
AcDbEntity
  8
OBJECT
100
AcDbLine
 10
45.73090503063009
 20
18.89367046620284
 30
0.0
 11
45.73090503063009
 21
18.31438989915213
 31
0.0
  0
LINE
  5
3D7
330
1E
100
AcDbEntity
  8
OBJECT
100
AcDbLine
 10
45.83368719925348
 20
18.89367046620284
 30
0.0
 11
45.83368719925348
 21
18.31438989915213
 31
0.0
  0
CIRCLE
  5
3D8
330
1E
100
AcDbEntity
  8
OBJECT
100
AcDbCircle
 10
45.78129611494179
 20
19.09703018267748
 30
0.0
 40
0.083
  0
LINE
  5
3D9
330
1E
100
AcDbEntity
  8
OBJECT
100
AcDbLine
 10
45.83368719925348
 20
15.93567046620285
 30
0.0
 11
45.83368719925348
 21
15.35638989915239
 31
0.0
  0
LINE
  5
3DA
330
1E
100
AcDbEntity
  8
OBJECT
100
AcDbLine
 10
45.73090503063009
 20
15.93567046620285
 30
0.0
 11
45.73090503063009
 21
15.35638989915239
 31
0.0
  0
LINE
  5
3DB
330
1E
100
AcDbEntity
  8
OBJECT
100
AcDbLine
 10
45.83368719925348
 20
16.92167046620285
 30
0.0
 11
45.83368719925348
 21
16.34238989915213
 31
0.0
  0
LINE
  5
3DC
330
1E
100
AcDbEntity
  8
OBJECT
100
AcDbLine
 10
45.73090503063009
 20
16.92167046620285
 30
0.0
 11
45.73090503063009
 21
16.34238989915213
 31
0.0
  0
CIRCLE
  5
3DD
330
1E
100
AcDbEntity
  8
OBJECT
100
AcDbCircle
 10
45.78129611494179
 20
17.12503018267749
 30
0.0
 40
0.21
  0
CIRCLE
  5
3DE
330
1E
100
AcDbEntity
  8
OBJECT
100
AcDbCircle
 10
45.78129611494179
 20
17.12503018267749
 30
0.0
 40
0.083
  0
LINE
  5
3DF
330
1E
100
AcDbEntity
  8
OBJECT
100
AcDbLine
 10
45.83368719925348
 20
17.90767046620286
 30
0.0
 11
45.83368719925348
 21
17.32838989915213
 31
0.0
  0
LINE
  5
3E0
330
1E
100
AcDbEntity
  8
OBJECT
100
AcDbLine
 10
45.73090503063009
 20
17.90767046620286
 30
0.0
 11
45.73090503063009
 21
17.32838989915213
 31
0.0
  0
CIRCLE
  5
3E1
330
1E
100
AcDbEntity
  8
OBJECT
100
AcDbCircle
 10
45.78129611494179
 20
16.13903018267749
 30
0.0
 40
0.21
  0
CIRCLE
  5
3E2
330
1E
100
AcDbEntity
  8
OBJECT
100
AcDbCircle
 10
45.78129611494179
 20
16.13903018267749
 30
0.0
 40
0.083
  0
LINE
  5
3E3
330
1E
100
AcDbEntity
  8
OBJECT
100
AcDbLine
 10
47.54093639846714
 20
14.1196390983658
 30
0.0
 11
46.96165583141667
 21
14.1196390983658
 31
0.0
  0
LINE
  5
3E4
330
1E
100
AcDbEntity
  8
OBJECT
100
AcDbLine
 10
47.54093639846714
 20
14.22442126698918
 30
0.0
 11
46.96165583141667
 21
14.22442126698918
 31
0.0
  0
CIRCLE
  5
3E5
330
1E
100
AcDbEntity
  8
OBJECT
100
AcDbCircle
 10
46.07979611494179
 20
14.46353018267749
 30
0.0
 40
0.297
  0
CIRCLE
  5
3E6
330
1E
100
AcDbEntity
  8
OBJECT
100
AcDbCircle
 10
46.07979611494179
 20
14.46353018267749
 30
0.0
 40
0.098
  0
CIRCLE
  5
3E7
330
1E
100
AcDbEntity
  8
OBJECT
100
AcDbCircle
 10
45.78129611494179
 20
15.15303018267749
 30
0.0
 40
0.21
  0
LINE
  5
3E8
330
1E
100
AcDbEntity
  8
OBJECT
100
AcDbLine
 10
45.91430155637918
 20
14.71014841210543
 30
0.0
 11
45.81575217482568
 21
14.9458761821434
 31
0.0
  0
LINE
  5
3E9
330
1E
100
AcDbEntity
  8
OBJECT
100
AcDbLine
 10
46.00947182028898
 20
14.75208432591855
 30
0.0
 11
45.91092243873546
 21
14.98781209595652
 31
0.0
  0
CIRCLE
  5
3EA
330
1E
100
AcDbEntity
  8
OBJECT
100
AcDbCircle
 10
45.78129611494179
 20
15.15303018267749
 30
0.0
 40
0.083
  0
CIRCLE
  5
3EB
330
1E
100
AcDbEntity
  8
OBJECT
100
AcDbCircle
 10
46.75829611494177
 20
14.17203018267749
 30
0.0
 40
0.21
  0
CIRCLE
  5
3EC
330
1E
100
AcDbEntity
  8
OBJECT
100
AcDbCircle
 10
46.75829611494177
 20
14.17203018267749
 30
0.0
 40
0.083
  0
LINE
  5
3ED
330
1E
100
AcDbEntity
  8
OBJECT
100
AcDbLine
 10
46.32879488568157
 20
14.30163944121869
 30
0.0
 11
46.55066295953531
 21
14.20347016957255
 31
0.0
  0
LINE
  5
3EE
330
1E
100
AcDbEntity
  8
OBJECT
100
AcDbLine
 10
46.36934240098642
 20
14.3974094730794
 30
0.0
 11
46.59121047484018
 21
14.29924020143326
 31
0.0
  0
LINE
  5
3EF
330
1E
100
AcDbEntity
  8
OBJECT
100
AcDbLine
 10
48.52693639846712
 20
14.22442126698918
 30
0.0
 11
47.94765583141641
 21
14.22442126698918
 31
0.0
  0
LINE
  5
3F0
330
1E
100
AcDbEntity
  8
OBJECT
100
AcDbLine
 10
48.52693639846712
 20
14.1196390983658
 30
0.0
 11
47.94765583141641
 21
14.1196390983658
 31
0.0
  0
CIRCLE
  5
3F1
330
1E
100
AcDbEntity
  8
OBJECT
100
AcDbCircle
 10
47.74429611494177
 20
14.17203018267749
 30
0.0
 40
0.083
  0
CIRCLE
  5
3F2
330
1E
100
AcDbEntity
  8
OBJECT
100
AcDbCircle
 10
47.74429611494177
 20
14.17203018267749
 30
0.0
 40
0.21
  0
CIRCLE
  5
3F3
330
1E
100
AcDbEntity
  8
OBJECT
100
AcDbCircle
 10
48.73029611494176
 20
14.17203018267749
 30
0.0
 40
0.21
  0
CIRCLE
  5
3F4
330
1E
100
AcDbEntity
  8
OBJECT
100
AcDbCircle
 10
48.73029611494176
 20
14.17203018267749
 30
0.0
 40
0.083
  0
CIRCLE
  5
3F5
330
1E
100
AcDbEntity
  8
OBJECT
100
AcDbCircle
 10
54.63729611494175
 20
18.11103018267749
 30
0.0
 40
0.083
  0
CIRCLE
  5
3F6
330
1E
100
AcDbEntity
  8
OBJECT
100
AcDbCircle
 10
54.63729611494175
 20
18.11103018267749
 30
0.0
 40
0.21
  0
CIRCLE
  5
3F7
330
1E
100
AcDbEntity
  8
OBJECT
100
AcDbCircle
 10
54.63729611494175
 20
19.09703018267748
 30
0.0
 40
0.21
  0
LINE
  5
3F8
330
1E
100
AcDbEntity
  8
OBJECT
100
AcDbLine
 10
54.68968719925344
 20
18.89367046620284
 30
0.0
 11
54.68968719925342
 21
18.31438989915213
 31
0.0
  0
LINE
  5
3F9
330
1E
100
AcDbEntity
  8
OBJECT
100
AcDbLine
 10
54.58490503063005
 20
18.89367046620284
 30
0.0
 11
54.58490503063005
 21
18.31438989915213
 31
0.0
  0
CIRCLE
  5
3FA
330
1E
100
AcDbEntity
  8
OBJECT
100
AcDbCircle
 10
54.63729611494175
 20
19.09703018267748
 30
0.0
 40
0.083
  0
LINE
  5
3FB
330
1E
100
AcDbEntity
  8
OBJECT
100
AcDbLine
 10
52.87765583141641
 20
14.22442126698918
 30
0.0
 11
53.45693639846685
 21
14.22442126698918
 31
0.0
  0
LINE
  5
3FC
330
1E
100
AcDbEntity
  8
OBJECT
100
AcDbLine
 10
50.90565583141641
 20
14.1196390983658
 30
0.0
 11
51.48493639846714
 21
14.1196390983658
 31
0.0
  0
LINE
  5
3FD
330
1E
100
AcDbEntity
  8
OBJECT
100
AcDbLine
 10
50.90565583141641
 20
14.22442126698919
 30
0.0
 11
51.48493639846714
 21
14.22442126698919
 31
0.0
  0
CIRCLE
  5
3FE
330
1E
100
AcDbEntity
  8
OBJECT
100
AcDbCircle
 10
50.20929611494176
 20
13.8675301826773
 30
0.0
 40
0.098
  0
CIRCLE
  5
3FF
330
1E
100
AcDbEntity
  8
OBJECT
100
AcDbCircle
 10
50.20929611494176
 20
13.8675301826773
 30
0.0
 40
0.275
  0
LINE
  5
400
330
1E
100
AcDbEntity
  8
OBJECT
100
AcDbLine
 10
50.49711503461272
 20
14.22112281385976
 30
0.0
 11
49.92047719526901
 21
14.22112281385976
 31
0.0
  0
LINE
  5
401
330
1E
100
AcDbEntity
  8
OBJECT
100
AcDbLine
 10
50.09945033837445
 20
14.1196390983658
 30
0.0
 11
49.91965583141641
 21
14.1196390983658
 31
0.0
  0
CIRCLE
  5
402
330
1E
100
AcDbEntity
  8
OBJECT
100
AcDbCircle
 10
49.71629611494177
 20
14.17203018267749
 30
0.0
 40
0.083
  0
CIRCLE
  5
403
330
1E
100
AcDbEntity
  8
OBJECT
100
AcDbCircle
 10
49.71629611494177
 20
14.17203018267749
 30
0.0
 40
0.21
  0
CIRCLE
  5
404
330
1E
100
AcDbEntity
  8
OBJECT
100
AcDbCircle
 10
50.70229611494177
 20
14.17203018267749
 30
0.0
 40
0.21
  0
CIRCLE
  5
405
330
1E
100
AcDbEntity
  8
OBJECT
100
AcDbCircle
 10
50.70229611494177
 20
14.17203018267749
 30
0.0
 40
0.083
  0
LINE
  5
406
330
1E
100
AcDbEntity
  8
OBJECT
100
AcDbLine
 10
50.49793639846713
 20
14.11963909836579
 30
0.0
 11
50.31914189150909
 21
14.11963909836579
 31
0.0
  0
LINE
  5
407
330
1E
100
AcDbEntity
  8
OBJECT
100
AcDbLine
 10
51.89165583141641
 20
14.22442126698918
 30
0.0
 11
52.47093639846713
 21
14.22442126698918
 31
0.0
  0
LINE
  5
408
330
1E
100
AcDbEntity
  8
OBJECT
100
AcDbLine
 10
51.89165583141641
 20
14.1196390983658
 30
0.0
 11
52.47093639846713
 21
14.1196390983658
 31
0.0
  0
CIRCLE
  5
409
330
1E
100
AcDbEntity
  8
OBJECT
100
AcDbCircle
 10
51.68829611494178
 20
14.17203018267749
 30
0.0
 40
0.21
  0
CIRCLE
  5
40A
330
1E
100
AcDbEntity
  8
OBJECT
100
AcDbCircle
 10
51.68829611494178
 20
14.17203018267749
 30
0.0
 40
0.083
  0
CIRCLE
  5
40B
330
1E
100
AcDbEntity
  8
OBJECT
100
AcDbCircle
 10
52.67429611494176
 20
14.17203018267749
 30
0.0
 40
0.21
  0
CIRCLE
  5
40C
330
1E
100
AcDbEntity
  8
OBJECT
100
AcDbCircle
 10
52.67429611494176
 20
14.17203018267749
 30
0.0
 40
0.083
  0
LINE
  5
40D
330
1E
100
AcDbEntity
  8
OBJECT
100
AcDbLine
 10
54.68968719925344
 20
15.93567046620285
 30
0.0
 11
54.68968719925344
 21
15.35638989915239
 31
0.0
  0
LINE
  5
40E
330
1E
100
AcDbEntity
  8
OBJECT
100
AcDbLine
 10
54.58490503063005
 20
15.93567046620285
 30
0.0
 11
54.58490503063005
 21
15.35638989915239
 31
0.0
  0
LINE
  5
40F
330
1E
100
AcDbEntity
  8
OBJECT
100
AcDbLine
 10
54.58490503063005
 20
16.92167046620285
 30
0.0
 11
54.58490503063005
 21
16.34238989915213
 31
0.0
  0
LINE
  5
410
330
1E
100
AcDbEntity
  8
OBJECT
100
AcDbLine
 10
54.68968719925342
 20
16.92167046620285
 30
0.0
 11
54.68968719925344
 21
16.34238989915213
 31
0.0
  0
CIRCLE
  5
411
330
1E
100
AcDbEntity
  8
OBJECT
100
AcDbCircle
 10
54.63729611494175
 20
17.12503018267749
 30
0.0
 40
0.21
  0
CIRCLE
  5
412
330
1E
100
AcDbEntity
  8
OBJECT
100
AcDbCircle
 10
54.63729611494175
 20
17.12503018267749
 30
0.0
 40
0.083
  0
LINE
  5
413
330
1E
100
AcDbEntity
  8
OBJECT
100
AcDbLine
 10
54.58490503063005
 20
17.90767046620286
 30
0.0
 11
54.58490503063005
 21
17.32838989915213
 31
0.0
  0
LINE
  5
414
330
1E
100
AcDbEntity
  8
OBJECT
100
AcDbLine
 10
54.68968719925344
 20
17.90767046620286
 30
0.0
 11
54.68968719925342
 21
17.32838989915213
 31
0.0
  0
CIRCLE
  5
415
330
1E
100
AcDbEntity
  8
OBJECT
100
AcDbCircle
 10
54.63729611494175
 20
16.13903018267749
 30
0.0
 40
0.21
  0
CIRCLE
  5
416
330
1E
100
AcDbEntity
  8
OBJECT
100
AcDbCircle
 10
54.63729611494175
 20
16.13903018267749
 30
0.0
 40
0.083
  0
CIRCLE
  5
417
330
1E
100
AcDbEntity
  8
OBJECT
100
AcDbCircle
 10
54.33879611494174
 20
14.46353018267749
 30
0.0
 40
0.297
  0
CIRCLE
  5
418
330
1E
100
AcDbEntity
  8
OBJECT
100
AcDbCircle
 10
54.33879611494174
 20
14.46353018267749
 30
0.0
 40
0.098
  0
LINE
  5
419
330
1E
100
AcDbEntity
  8
OBJECT
100
AcDbLine
 10
54.40912040959455
 20
14.75208432591855
 30
0.0
 11
54.50766979114806
 21
14.98781209595652
 31
0.0
  0
CIRCLE
  5
41A
330
1E
100
AcDbEntity
  8
OBJECT
100
AcDbCircle
 10
54.63729611494175
 20
15.15303018267749
 30
0.0
 40
0.21
  0
LINE
  5
41B
330
1E
100
AcDbEntity
  8
OBJECT
100
AcDbLine
 10
54.50429067350434
 20
14.71014841210543
 30
0.0
 11
54.60284005505783
 21
14.9458761821434
 31
0.0
  0
CIRCLE
  5
41C
330
1E
100
AcDbEntity
  8
OBJECT
100
AcDbCircle
 10
54.63729611494175
 20
15.15303018267749
 30
0.0
 40
0.083
  0
CIRCLE
  5
41D
330
1E
100
AcDbEntity
  8
OBJECT
100
AcDbCircle
 10
53.66029611494176
 20
14.17203018267749
 30
0.0
 40
0.21
  0
CIRCLE
  5
41E
330
1E
100
AcDbEntity
  8
OBJECT
100
AcDbCircle
 10
53.66029611494176
 20
14.17203018267749
 30
0.0
 40
0.083
  0
LINE
  5
41F
330
1E
100
AcDbEntity
  8
OBJECT
100
AcDbLine
 10
54.08979734420196
 20
14.30163944121869
 30
0.0
 11
53.86792927034822
 21
14.20347016957255
 31
0.0
  0
LINE
  5
420
330
1E
100
AcDbEntity
  8
OBJECT
100
AcDbLine
 10
54.0492498288971
 20
14.3974094730794
 30
0.0
 11
53.82738175504335
 21
14.29924020143326
 31
0.0
  0
LINE
  5
421
330
1E
100
AcDbEntity
  8
OBJECT
100
AcDbLine
 10
20.05735831031215
 20
18.88703018267749
 30
0.0
 11
20.05735831031215
 21
19.30703018267749
 31
0.0
  0
LINE
  5
422
330
1E
100
AcDbEntity
  8
OBJECT
100
AcDbLine
 10
20.05735831031215
 20
18.88703018267749
 30
0.0
 11
19.91835831031214
 21
18.88703018267749
 31
0.0
  0
LINE
  5
423
330
1E
100
AcDbEntity
  8
OBJECT
100
AcDbLine
 10
19.74735831031218
 20
19.01403018267748
 30
0.0
 11
19.74735831031218
 21
19.18003018267748
 31
0.0
  0
LINE
  5
424
330
1E
100
AcDbEntity
  8
OBJECT
100
AcDbLine
 10
20.05735831031215
 20
19.01403018267748
 30
0.0
 11
19.74735831031218
 21
19.01403018267748
 31
0.0
  0
LINE
  5
425
330
1E
100
AcDbEntity
  8
OBJECT
100
AcDbLine
 10
20.05735831031215
 20
19.18003018267748
 30
0.0
 11
19.74735831031218
 21
19.18003018267748
 31
0.0
  0
LINE
  5
426
330
1E
100
AcDbEntity
  8
OBJECT
100
AcDbLine
 10
20.05735831031215
 20
19.30703018267749
 30
0.0
 11
19.76735831031216
 21
19.30703018267745
 31
0.0
  0
LINE
  5
427
330
1E
100
AcDbEntity
  8
OBJECT
100
AcDbLine
 10
19.64735831031216
 20
19.29104592952546
 30
0.0
 11
19.64735831031216
 21
20.25453018267768
 31
0.0
  0
LWPOLYLINE
  5
428
330
1E
100
AcDbEntity
  8
OBJECT
100
AcDbPolyline
 90
        4
 70
     1
 43
0.0
 10
33.27213996598242
 20
33.7690424865122
 10
33.27213996598244
 20
33.8940424865122
 10
33.65213996598243
 20
33.8940424865122
 10
33.65213996598242
 20
33.7690424865122
  0
LWPOLYLINE
  5
42E
330
1E
100
AcDbEntity
  8
OBJECT
100
AcDbPolyline
 90
        4
 70
     1
 43
0.0
 10
32.72213996598242
 20
33.7690424865122
 10
32.72213996598242
 20
33.8940424865122
 10
33.10213996598242
 20
33.8940424865122
 10
33.10213996598242
 20
33.7690424865122
  0
LWPOLYLINE
  5
434
330
1E
100
AcDbEntity
  8
OBJECT
100
AcDbPolyline
 90
        4
 70
     1
 43
0.0
 10
32.17213996598243
 20
33.7690424865122
 10
32.17213996598243
 20
33.8940424865122
 10
32.55213996598244
 20
33.8940424865122
 10
32.55213996598242
 20
33.7690424865122
  0
LWPOLYLINE
  5
43A
330
1E
100
AcDbEntity
  8
OBJECT
100
AcDbPolyline
 90
        4
 70
     1
 43
0.0
 10
31.62213996598243
 20
33.7690424865122
 10
31.62213996598243
 20
33.8940424865122
 10
32.00213996598243
 20
33.8940424865122
 10
32.00213996598243
 20
33.7690424865122
  0
LWPOLYLINE
  5
440
330
1E
100
AcDbEntity
  8
OBJECT
100
AcDbPolyline
 90
        4
 70
     1
 43
0.0
 10
31.07213996598242
 20
33.7690424865122
 10
31.07213996598243
 20
33.8940424865122
 10
31.45213996598243
 20
33.8940424865122
 10
31.45213996598242
 20
33.7690424865122
  0
LWPOLYLINE
  5
446
330
1E
100
AcDbEntity
  8
OBJECT
100
AcDbPolyline
 90
        4
 70
     1
 43
0.0
 10
30.52213996598242
 20
33.7690424865122
 10
30.52213996598243
 20
33.8940424865122
 10
30.90213996598243
 20
33.8940424865122
 10
30.90213996598242
 20
33.7690424865122
  0
LWPOLYLINE
  5
44C
330
1E
100
AcDbEntity
  8
OBJECT
100
AcDbPolyline
 90
        4
 70
     1
 43
0.0
 10
36.40213996598248
 20
33.7690424865122
 10
36.40213996598248
 20
33.8940424865122
 10
36.02213996598246
 20
33.8940424865122
 10
36.02213996598248
 20
33.7690424865122
  0
LWPOLYLINE
  5
452
330
1E
100
AcDbEntity
  8
OBJECT
100
AcDbPolyline
 90
        4
 70
     0
 43
0.0
 10
39.30613996598254
 20
33.76904248651217
 10
38.22213996598244
 20
33.76904248651219
 10
38.22213996598247
 20
33.89404248651219
 10
39.30613996598254
 20
33.89404248651217
  0
LWPOLYLINE
  5
458
330
1E
100
AcDbEntity
  8
OBJECT
100
AcDbPolyline
 90
        4
 70
     1
 43
0.0
 10
37.50213996598248
 20
33.7690424865122
 10
37.50213996598247
 20
33.8940424865122
 10
37.12213996598247
 20
33.8940424865122
 10
37.12213996598249
 20
33.7690424865122
  0
LWPOLYLINE
  5
45E
330
1E
100
AcDbEntity
  8
OBJECT
100
AcDbPolyline
 90
        4
 70
     1
 43
0.0
 10
38.05213996598248
 20
33.7690424865122
 10
38.05213996598247
 20
33.8940424865122
 10
37.67213996598247
 20
33.8940424865122
 10
37.67213996598249
 20
33.7690424865122
  0
LWPOLYLINE
  5
464
330
1E
100
AcDbEntity
  8
OBJECT
100
AcDbPolyline
 90
        4
 70
     1
 43
0.0
 10
36.95213996598247
 20
33.7690424865122
 10
36.95213996598247
 20
33.8940424865122
 10
36.57213996598247
 20
33.8940424865122
 10
36.57213996598247
 20
33.7690424865122
  0
LWPOLYLINE
  5
46A
330
1E
100
AcDbEntity
  8
OBJECT
100
AcDbPolyline
 90
        4
 70
     1
 43
0.0
 10
35.30213996598248
 20
33.7690424865122
 10
35.30213996598247
 20
33.8940424865122
 10
34.92213996598247
 20
33.8940424865122
 10
34.92213996598248
 20
33.7690424865122
  0
LWPOLYLINE
  5
470
330
1E
100
AcDbEntity
  8
OBJECT
100
AcDbPolyline
 90
        4
 70
     1
 43
0.0
 10
35.85213996598248
 20
33.7690424865122
 10
35.85213996598248
 20
33.8940424865122
 10
35.47213996598248
 20
33.8940424865122
 10
35.47213996598248
 20
33.7690424865122
  0
LWPOLYLINE
  5
476
330
1E
100
AcDbEntity
  8
OBJECT
100
AcDbPolyline
 90
        4
 70
     1
 43
0.0
 10
34.75213996598248
 20
33.7690424865122
 10
34.75213996598247
 20
33.8940424865122
 10
34.37213996598247
 20
33.8940424865122
 10
34.37213996598249
 20
33.7690424865122
  0
LWPOLYLINE
  5
47C
330
1E
100
AcDbEntity
  8
OBJECT
100
AcDbPolyline
 90
        4
 70
     1
 43
0.0
 10
23.41485831031211
 20
24.60953018267764
 10
23.28985831031211
 20
24.60953018267764
 10
23.28985831031211
 20
24.22953018267763
 10
23.41485831031211
 20
24.22953018267765
  0
LWPOLYLINE
  5
482
330
1E
100
AcDbEntity
  8
OBJECT
100
AcDbPolyline
 90
        4
 70
     1
 43
0.0
 10
23.41485831031211
 20
25.70953018267765
 10
23.28985831031211
 20
25.70953018267764
 10
23.28985831031211
 20
25.32953018267764
 10
23.41485831031211
 20
25.32953018267765
  0
LWPOLYLINE
  5
488
330
1E
100
AcDbEntity
  8
OBJECT
100
AcDbPolyline
 90
        4
 70
     1
 43
0.0
 10
23.41485831031211
 20
26.25953018267765
 10
23.28985831031211
 20
26.25953018267763
 10
23.28985831031211
 20
25.87953018267764
 10
23.41485831031211
 20
25.87953018267765
  0
LWPOLYLINE
  5
48E
330
1E
100
AcDbEntity
  8
OBJECT
100
AcDbPolyline
 90
        4
 70
     1
 43
0.0
 10
23.41485831031211
 20
25.15953018267764
 10
23.28985831031211
 20
25.15953018267764
 10
23.28985831031211
 20
24.77953018267764
 10
23.41485831031211
 20
24.77953018267764
  0
LWPOLYLINE
  5
494
330
1E
100
AcDbEntity
  8
OBJECT
100
AcDbPolyline
 90
        4
 70
     1
 43
0.0
 10
23.41485831031211
 20
22.02953018267759
 10
23.28985831031211
 20
22.0295301826776
 10
23.28985831031211
 20
22.40953018267759
 10
23.41485831031211
 20
22.40953018267758
  0
LWPOLYLINE
  5
49A
330
1E
100
AcDbEntity
  8
OBJECT
100
AcDbPolyline
 90
        4
 70
     1
 43
0.0
 10
23.41485831031211
 20
23.50953018267765
 10
23.28985831031211
 20
23.50953018267763
 10
23.28985831031211
 20
23.12953018267764
 10
23.41485831031211
 20
23.12953018267765
  0
LWPOLYLINE
  5
4A0
330
1E
100
AcDbEntity
  8
OBJECT
100
AcDbPolyline
 90
        4
 70
     1
 43
0.0
 10
23.41485831031211
 20
24.05953018267764
 10
23.28985831031211
 20
24.05953018267764
 10
23.28985831031211
 20
23.67953018267765
 10
23.41485831031211
 20
23.67953018267765
  0
LWPOLYLINE
  5
4A6
330
1E
100
AcDbEntity
  8
OBJECT
100
AcDbPolyline
 90
        4
 70
     1
 43
0.0
 10
23.41485831031211
 20
22.95953018267765
 10
23.28985831031211
 20
22.95953018267764
 10
23.28985831031211
 20
22.57953018267764
 10
23.41485831031211
 20
22.57953018267766
  0
LWPOLYLINE
  5
4AC
330
1E
100
AcDbEntity
  8
OBJECT
100
AcDbPolyline
 90
        4
 70
     1
 43
0.0
 10
23.41485831031211
 20
20.92953018267759
 10
23.28985831031211
 20
20.92953018267759
 10
23.28985831031211
 20
21.30953018267759
 10
23.41485831031211
 20
21.30953018267759
  0
LWPOLYLINE
  5
4B2
330
1E
100
AcDbEntity
  8
OBJECT
100
AcDbPolyline
 90
        4
 70
     1
 43
0.0
 10
23.41485831031211
 20
21.47953018267759
 10
23.28985831031211
 20
21.4795301826776
 10
23.28985831031211
 20
21.8595301826776
 10
23.41485831031211
 20
21.85953018267758
  0
LWPOLYLINE
  5
4B8
330
1E
100
AcDbEntity
  8
OBJECT
100
AcDbPolyline
 90
        4
 70
     0
 43
0.0
 10
23.28985831031211
 20
20.56953018267762
 10
23.28985831031211
 20
20.7595301826776
 10
23.41485831031211
 20
20.75953018267759
 10
23.41485831031211
 20
20.56953018267762
  0
DIMENSION
  5
4BE
330
1E
100
AcDbEntity
  8
DIM
100
AcDbDimension
  2
*D23
 10
19.64735831031216
 20
19.51854566228797
 30
0.0
 11
16.21610831031216
 21
19.51854566228797
 31
0.0
 70
   160
 71
     5
 42
0.1200000000000045
  3
23NSTD
100
AcDbAlignedDimension
 13
19.76735831031216
 23
19.59334829446845
 33
0.0
 14
19.64735831031216
 24
19.59334829446845
 34
0.0
100
AcDbRotatedDimension
  0
DIMENSION
  5
4BF
330
1E
100
AcDbEntity
  8
DIM
100
AcDbDimension
  2
*D24
 10
19.64735831031216
 20
17.61853018267747
 30
0.0
 11
16.18095206031216
 21
17.61853018267747
 31
0.0
 70
   160
 71
     5
 42
0.271000000000015
  3
23NSTD
100
AcDbAlignedDimension
 13
19.91835831031217
 23
17.33503018267747
 33
0.0
 14
19.64735831031216
 24
17.31904592952536
 34
0.0
100
AcDbRotatedDimension
  0
DIMENSION
  5
4C0
330
1E
100
AcDbEntity
  8
DIM
100
AcDbDimension
  2
*D25
 10
19.91835831031218
 20
16.59802670362994
 30
0.0
 11
16.45195206031219
 21
16.59802670362994
 31
0.0
 70
   160
 71
     5
 42
0.1389999999999674
  3
23NSTD
100
AcDbAlignedDimension
 13
20.05735831031215
 23
16.3490301826775
 33
0.0
 14
19.91835831031218
 24
16.34903018267748
 34
0.0
100
AcDbRotatedDimension
  0
TEXT
  5
4C1
330
1E
100
AcDbEntity
  8
TEXT
100
AcDbText
 10
47.06897030266447
 20
5.473678772084979
 30
0.0
 40
0.702
  1
%%UVIEW LESS COVER
 41
0.75
 72
     4
 11
51.11424530266447
 21
5.754478772084979
 31
0.0
100
AcDbText
  0
LWPOLYLINE
  5
4C2
330
1E
100
AcDbEntity
  8
OBJECT
100
AcDbPolyline
 90
        4
 70
     0
 43
0.0
 10
19.64735831031216
 20
25.79201443582987
 10
19.56735831031216
 20
25.83138451432991
 10
19.56735831031216
 20
26.1406758510259
 10
19.64735831031216
 20
26.18004592952594
  0
LWPOLYLINE
  5
4C8
330
1E
100
AcDbEntity
  8
OBJECT
100
AcDbPolyline
 90
        4
 70
     0
 43
0.0
 10
19.64735831031216
 20
26.36056955467765
 10
19.56735831031214
 20
26.39993963317769
 10
19.56735831031214
 20
26.95112073217771
 10
19.64735831031216
 20
26.99049081067775
  0
LWPOLYLINE
  5
4CE
330
1E
100
AcDbEntity
  8
OBJECT
100
AcDbPolyline
 90
        4
 70
     0
 43
0.0
 10
19.64735831031216
 20
20.88453018267768
 10
19.56735831031214
 20
20.84516010417763
 10
19.56735831031216
 20
20.29390026117761
 10
19.64735831031216
 20
20.25453018267768
  0
LWPOLYLINE
  5
4D4
330
1E
100
AcDbEntity
  8
OBJECT
100
AcDbPolyline
 90
        4
 70
     0
 43
0.0
 10
19.64735831031216
 20
14.77849081067773
 10
19.56735831031214
 20
14.73912073217769
 10
19.56735831031214
 20
14.18793963317767
 10
19.64735831031216
 20
14.14856955467763
  0
LWPOLYLINE
  5
4DA
330
1E
100
AcDbEntity
  8
OBJECT
100
AcDbPolyline
 90
        4
 70
     0
 43
0.0
 10
19.64735831031216
 20
15.34704592952552
 10
19.56735831031216
 20
15.30767585102548
 10
19.56735831031216
 20
14.99838451432949
 10
19.64735831031216
 20
14.95901443582945
  0
LWPOLYLINE
  5
4E0
330
1E
100
AcDbEntity
  8
OBJECT
100
AcDbPolyline
 90
        4
 70
     0
 43
0.0
 10
19.64735831031216
 20
16.33304592952558
 10
19.56735831031216
 20
16.29367585102554
 10
19.56735831031216
 20
15.98438451432954
 10
19.64735831031216
 20
15.9450144358295
  0
LWPOLYLINE
  5
4E6
330
1E
100
AcDbEntity
  8
OBJECT
100
AcDbPolyline
 90
        4
 70
     0
 43
0.0
 10
19.64735831031216
 20
17.31904592952536
 10
19.56735831031216
 20
17.27967585102532
 10
19.56735831031216
 20
16.97038451432933
 10
19.64735831031216
 20
16.93101443582929
  0
LWPOLYLINE
  5
4EC
330
1E
100
AcDbEntity
  8
OBJECT
100
AcDbPolyline
 90
        4
 70
     0
 43
0.0
 10
19.64735831031216
 20
18.30504592952546
 10
19.56735831031216
 20
18.26567585102542
 10
19.56735831031216
 20
17.95638451432942
 10
19.64735831031216
 20
17.91701443582938
  0
LWPOLYLINE
  5
4F2
330
1E
100
AcDbEntity
  8
OBJECT
100
AcDbPolyline
 90
        4
 70
     0
 43
0.0
 10
19.64735831031216
 20
19.29104592952558
 10
19.56735831031216
 20
19.25167585102554
 10
19.56735831031216
 20
18.94238451432954
 10
19.64735831031216
 20
18.9030144358295
  0
LWPOLYLINE
  5
4F8
330
1E
100
AcDbEntity
  8
OBJECT
100
AcDbPolyline
 90
        4
 70
     0
 43
0.0
 10
19.64735831031217
 20
13.89203018267748
 10
19.56735831031216
 20
13.89203018267748
 10
19.56735831031214
 20
13.26003018267749
 10
19.64735831031216
 20
13.26003018267749
  0
LWPOLYLINE
  5
4FE
330
1E
100
AcDbEntity
  8
OBJECT
100
AcDbPolyline
 90
        4
 70
     0
 43
0.0
 10
33.97213996598234
 20
37.53654248651219
 10
34.01151004448238
 20
37.61654248651218
 10
34.56276988748241
 20
37.61654248651217
 10
34.60213996598245
 20
37.53654248651219
  0
LWPOLYLINE
  5
504
330
1E
100
AcDbEntity
  8
OBJECT
100
AcDbPolyline
 90
        4
 70
     0
 43
0.0
 10
33.00315571283044
 20
37.53654248651219
 10
32.9637856343304
 20
37.61654248651218
 10
32.65449429763441
 20
37.61654248651218
 10
32.61512421913436
 20
37.53654248651219
  0
LWPOLYLINE
  5
50A
330
1E
100
AcDbEntity
  8
OBJECT
100
AcDbPolyline
 90
        4
 70
     0
 43
0.0
 10
32.01715571283044
 20
37.53654248651219
 10
31.97778563433039
 20
37.61654248651218
 10
31.6684942976344
 20
37.61654248651218
 10
31.62912421913436
 20
37.53654248651219
  0
LWPOLYLINE
  5
510
330
1E
100
AcDbEntity
  8
OBJECT
100
AcDbPolyline
 90
        4
 70
     0
 43
0.0
 10
31.03115571283043
 20
37.53654248651219
 10
30.99178563433039
 20
37.61654248651218
 10
30.6824942976344
 20
37.61654248651218
 10
30.64312421913435
 20
37.53654248651219
  0
LWPOLYLINE
  5
516
330
1E
100
AcDbEntity
  8
OBJECT
100
AcDbPolyline
 90
        4
 70
     0
 43
0.0
 10
30.36560059398244
 20
37.53654248651219
 10
30.3262305154824
 20
37.61654248651218
 10
29.77504941648238
 20
37.61654248651218
 10
29.73567933798234
 20
37.53654248651219
  0
LWPOLYLINE
  5
51C
330
1E
100
AcDbEntity
  8
OBJECT
100
AcDbPolyline
 90
        4
 70
     0
 43
0.0
 10
29.58413996598246
 20
37.53654248651219
 10
29.58413996598246
 20
37.61654248651218
 10
28.95213996598246
 20
37.61654248651218
 10
28.95213996598246
 20
37.53654248651219
  0
LWPOLYLINE
  5
522
330
1E
100
AcDbEntity
  8
OBJECT
100
AcDbPolyline
 90
        4
 70
     0
 43
0.0
 10
35.57112421913432
 20
37.53654248651219
 10
35.61049429763436
 20
37.61654248651218
 10
35.91978563433036
 20
37.61654248651218
 10
35.9591557128304
 20
37.53654248651219
  0
LWPOLYLINE
  5
528
330
1E
100
AcDbEntity
  8
OBJECT
100
AcDbPolyline
 90
        4
 70
     0
 43
0.0
 10
36.9451557128304
 20
37.53654248651219
 10
36.90578563433036
 20
37.61654248651218
 10
36.59649429763437
 20
37.61654248651218
 10
36.55712421913433
 20
37.53654248651219
  0
LWPOLYLINE
  5
52E
330
1E
100
AcDbEntity
  8
OBJECT
100
AcDbPolyline
 90
        4
 70
     0
 43
0.0
 10
37.54312421913433
 20
37.53654248651219
 10
37.58249429763437
 20
37.61654248651218
 10
37.89178563433036
 20
37.61654248651218
 10
37.93115571283041
 20
37.53654248651219
  0
LWPOLYLINE
  5
534
330
1E
100
AcDbEntity
  8
OBJECT
100
AcDbPolyline
 90
        4
 70
     0
 43
0.0
 10
38.20867933798232
 20
37.53654248651219
 10
38.24804941648237
 20
37.61654248651218
 10
38.79923051548238
 20
37.61654248651218
 10
38.83860059398243
 20
37.53654248651219
  0
LWPOLYLINE
  5
53A
330
1E
100
AcDbEntity
  8
OBJECT
100
AcDbPolyline
 90
        4
 70
     0
 43
0.0
 10
55.30929611494177
 20
15.1945301826774
 10
55.36829611494178
 20
15.26607186776583
 10
55.36829611494178
 20
14.62298849758915
 10
55.30929611494177
 20
14.6945301826774
  0
LWPOLYLINE
  5
540
330
1E
100
AcDbEntity
  8
OBJECT
100
AcDbPolyline
 90
        4
 70
     0
 43
0.0
 10
23.50235831031215
 20
15.1945301826774
 10
22.31435831031213
 20
15.1945301826774
 10
22.31435831031213
 20
14.6945301826774
 10
23.50235831031215
 20
14.6945301826774
  0
LWPOLYLINE
  5
546
330
1E
100
AcDbEntity
  8
HIDDEN
100
AcDbPolyline
 90
        3
 70
     0
 43
0.0
 10
22.31435831031213
 20
14.6795301826774
 10
22.31435831031213
 20
14.62298849758915
 10
23.50235831031215
 20
14.62298849758915
  0
LWPOLYLINE
  5
54B
330
1E
100
AcDbEntity
  8
HIDDEN
100
AcDbPolyline
 90
        3
 70
     0
 43
0.0
 10
22.31435831031213
 20
15.2095301826774
 10
22.31435831031213
 20
15.26607186776583
 10
23.50235831031215
 20
15.26607186776583
  0
LWPOLYLINE
  5
550
330
1E
100
AcDbEntity
  8
OBJECT
100
AcDbPolyline
 90
        4
 70
     0
 43
0.0
 10
55.30929611494177
 20
26.44453018267739
 10
55.36829611494178
 20
26.51607186776584
 10
55.36829611494178
 20
25.87298849758914
 10
55.30929611494177
 20
25.94453018267739
  0
LWPOLYLINE
  5
556
330
1E
100
AcDbEntity
  8
OBJECT
100
AcDbPolyline
 90
        4
 70
     0
 43
0.0
 10
45.10929611494176
 20
15.1945301826774
 10
45.05029611494174
 20
15.26607186776583
 10
45.05029611494174
 20
14.62298849758915
 10
45.10929611494176
 20
14.6945301826774
  0
LWPOLYLINE
  5
55C
330
1E
100
AcDbEntity
  8
OBJECT
100
AcDbPolyline
 90
        4
 70
     0
 43
0.0
 10
45.10929611494176
 20
26.44453018267739
 10
45.05029611494174
 20
26.51607186776584
 10
45.05029611494174
 20
25.87298849758914
 10
45.10929611494176
 20
25.94453018267739
  0
LINE
  5
562
330
1E
100
AcDbEntity
  8
OBJECT
100
AcDbLine
 10
54.74999845185632
 20
13.5020301826775
 30
0.0
 11
45.668593778027
 21
13.50203018267756
 31
0.0
  0
LINE
  5
563
330
1E
100
AcDbEntity
  8
OBJECT
100
AcDbLine
 10
45.6685937780269
 20
27.63703018267752
 30
0.0
 11
54.74999845185653
 21
27.63703018267753
 31
0.0
  0
LINE
  5
564
330
1E
100
AcDbEntity
  8
OBJECT
100
AcDbLine
 10
45.10929611494176
 20
27.07865482140547
 30
0.0
 11
45.10929611494176
 21
14.06040554394922
 31
0.0
  0
LINE
  5
565
330
1E
100
AcDbEntity
  8
OBJECT
100
AcDbLine
 10
55.30929611494177
 20
27.07865482140536
 30
0.0
 11
55.30929611494177
 21
14.06040554394972
 31
0.0
  0
CIRCLE
  5
566
330
1E
100
AcDbEntity
  8
HIDDEN
100
AcDbCircle
 10
45.19029611494175
 20
27.56303018267749
 30
0.0
 40
0.3115
  0
CIRCLE
  5
567
330
1E
100
AcDbEntity
  8
OBJECT
100
AcDbCircle
 10
45.19029611494175
 20
27.56303018267749
 30
0.0
 40
0.266
  0
CIRCLE
  5
568
330
1E
100
AcDbEntity
  8
HIDDEN
100
AcDbCircle
 10
55.22829611494177
 20
27.56303018267749
 30
0.0
 40
0.3115
  0
CIRCLE
  5
569
330
1E
100
AcDbEntity
  8
OBJECT
100
AcDbCircle
 10
55.22829611494177
 20
27.56303018267749
 30
0.0
 40
0.266
  0
CIRCLE
  5
56A
330
1E
100
AcDbEntity
  8
HIDDEN
100
AcDbCircle
 10
45.19029611494175
 20
13.57603018267749
 30
0.0
 40
0.3115
  0
CIRCLE
  5
56B
330
1E
100
AcDbEntity
  8
OBJECT
100
AcDbCircle
 10
45.19029611494175
 20
13.57603018267749
 30
0.0
 40
0.266
  0
CIRCLE
  5
56C
330
1E
100
AcDbEntity
  8
OBJECT
100
AcDbCircle
 10
55.22829611494177
 20
13.57603018267749
 30
0.0
 40
0.266
  0
CIRCLE
  5
56D
330
1E
100
AcDbEntity
  8
HIDDEN
100
AcDbCircle
 10
55.22829611494177
 20
13.57603018267749
 30
0.0
 40
0.3115
  0
LWPOLYLINE
  5
56E
330
1E
100
AcDbEntity
  8
OBJECT
100
AcDbPolyline
 90
       24
 70
     1
 43
0.0
 10
44.86379611494178
 20
14.25503018267749
 42
0.4142135623730951
 10
45.13979611494176
 20
13.97903018267748
 10
45.16529611494177
 20
13.97903018267749
 42
-0.4142135623730951
 10
45.58729611494176
 20
13.55703018267748
 10
45.58729611494178
 20
13.53203018267747
 42
0.4142135623730951
 10
45.86329611494178
 20
13.25603018267747
 10
54.55529611494177
 20
13.25603018267747
 42
0.4142135623730951
 10
54.83129611494175
 20
13.53203018267747
 10
54.83129611494177
 20
13.55703018267748
 42
-0.4142135623730951
 10
55.25329611494178
 20
13.97903018267749
 10
55.27879611494177
 20
13.97903018267748
 42
0.4142135623730951
 10
55.55479611494177
 20
14.25503018267749
 10
55.55479611494177
 20
26.88403018267749
 42
0.4142135623730951
 10
55.27879611494177
 20
27.1600301826775
 10
55.25329611494178
 20
27.1600301826775
 42
-0.4142135623730951
 10
54.83129611494177
 20
27.58203018267751
 10
54.83129611494175
 20
27.60703018267752
 42
0.4142135623730951
 10
54.55529611494177
 20
27.88303018267751
 10
45.86329611494178
 20
27.88303018267751
 42
0.4142135623730951
 10
45.58729611494178
 20
27.60703018267752
 10
45.58729611494176
 20
27.58203018267751
 42
-0.4142135623730951
 10
45.16529611494177
 20
27.1600301826775
 10
45.13979611494176
 20
27.1600301826775
 42
0.4142135623730951
 10
44.86379611494178
 20
26.88403018267749
  0
LWPOLYLINE
  5
588
330
1E
100
AcDbEntity
  8
OBJECT
100
AcDbPolyline
 90
       24
 70
     1
 43
0.0
 10
44.94279611494175
 20
14.25503018267748
 42
0.4142135623731461
 10
45.1397961149418
 20
14.05803018267748
 10
45.1652961149417
 20
14.05803018267748
 42
-0.4142135623729692
 10
45.66629611494176
 20
13.55703018267777
 10
45.66629611494177
 20
13.53203018267736
 42
0.4142135623729348
 10
45.86329611494178
 20
13.33503018267748
 10
54.55529611494177
 20
13.33503018267748
 42
0.4142135623729243
 10
54.75229611494175
 20
13.53203018267736
 10
54.75229611494177
 20
13.55703018267777
 42
-0.4142135623729734
 10
55.25329611494183
 20
14.05803018267748
 10
55.27879611494174
 20
14.05803018267748
 42
0.4142135623731355
 10
55.47579611494177
 20
14.25503018267748
 10
55.47579611494177
 20
26.88403018267752
 42
0.4142135623731355
 10
55.27879611494174
 20
27.08103018267752
 10
55.25329611494183
 20
27.08103018267749
 42
-0.4142135623729712
 10
54.75229611494177
 20
27.58203018267721
 10
54.75229611494175
 20
27.60703018267763
 42
0.4142135623729243
 10
54.55529611494177
 20
27.80403018267751
 10
45.86329611494178
 20
27.80403018267751
 42
0.4142135623729137
 10
45.66629611494178
 20
27.60703018267763
 10
45.66629611494176
 20
27.58203018267707
 42
-0.4142135623728882
 10
45.1652961149417
 20
27.08103018267752
 10
45.13979611494177
 20
27.08103018267752
 42
0.4142135623730933
 10
44.94279611494177
 20
26.88403018267752
  0
LWPOLYLINE
  5
5A2
330
1E
100
AcDbEntity
  8
HIDDEN
100
AcDbPolyline
 90
       24
 70
     1
 43
0.0
 10
39.67313996598246
 20
26.8945301826775
 42
0.414213562373094
 10
39.35013996598247
 20
27.21753018267749
 10
39.33613996598246
 20
27.21753018267749
 42
-0.4142135623730974
 10
38.97213996598246
 20
27.5815301826775
 10
38.97213996598246
 20
27.5855301826775
 42
0.4142135623730908
 10
38.64913996598246
 20
27.90853018267749
 10
29.92513996598247
 20
27.90853018267749
 42
0.4142135623730908
 10
29.60213996598247
 20
27.5855301826775
 10
29.60213996598247
 20
27.5815301826775
 42
-0.4142135623730974
 10
29.23813996598246
 20
27.21753018267749
 10
29.22413996598245
 20
27.21753018267749
 42
0.414213562373094
 10
28.90113996598247
 20
26.8945301826775
 10
28.90113996598246
 20
14.24453018267749
 42
0.414213562373094
 10
29.22413996598245
 20
13.9215301826775
 10
29.23813996598246
 20
13.9215301826775
 42
-0.4142135623730974
 10
29.60213996598247
 20
13.55753018267749
 10
29.60213996598247
 20
13.5535301826775
 42
0.4142135623730908
 10
29.92513996598247
 20
13.23053018267749
 10
38.64913996598246
 20
13.23053018267749
 42
0.4142135623730908
 10
38.97213996598246
 20
13.5535301826775
 10
38.97213996598246
 20
13.55753018267749
 42
-0.4142135623730974
 10
39.33613996598246
 20
13.9215301826775
 10
39.35013996598247
 20
13.9215301826775
 42
0.414213562373094
 10
39.67313996598246
 20
14.24453018267749
  0
LWPOLYLINE
  5
5BC
330
1E
100
AcDbEntity
  8
HIDDEN
100
AcDbPolyline
 90
       24
 70
     1
 43
0.0
 10
29.08013996598247
 20
26.8945301826775
 10
29.08013996598246
 20
14.24453018267749
 42
0.4142135623730982
 10
29.22413996598245
 20
14.1005301826775
 10
29.2381399659826
 20
14.1005301826775
 42
-0.4142135623730224
 10
29.78113996598247
 20
13.55753018267749
 10
29.78113996598247
 20
13.5535301826775
 42
0.4142135623730946
 10
29.92513996598247
 20
13.4095301826775
 10
38.64913996598246
 20
13.4095301826775
 42
0.4142135623730946
 10
38.79313996598247
 20
13.5535301826775
 10
38.79313996598247
 20
13.55753018267749
 42
-0.4142135623730224
 10
39.33613996598232
 20
14.1005301826775
 10
39.35013996598247
 20
14.1005301826775
 42
0.4142135623730982
 10
39.49413996598246
 20
14.24453018267749
 10
39.49413996598246
 20
26.8945301826775
 42
0.4142135623730982
 10
39.35013996598247
 20
27.03853018267749
 10
39.33613996598232
 20
27.03853018267749
 42
-0.4142135623730224
 10
38.79313996598247
 20
27.5815301826775
 10
38.79313996598247
 20
27.5855301826775
 42
0.4142135623730946
 10
38.64913996598246
 20
27.72953018267749
 10
29.92513996598247
 20
27.72953018267749
 42
0.4142135623730946
 10
29.78113996598247
 20
27.5855301826775
 10
29.78113996598247
 20
27.5815301826775
 42
-0.4142135623730224
 10
29.2381399659826
 20
27.03853018267749
 10
29.22413996598245
 20
27.03853018267749
 42
0.4142135623730982
  0
LWPOLYLINE
  5
5D6
330
1E
100
AcDbEntity
  8
HIDDEN
100
AcDbPolyline
 90
       24
 70
     1
 43
0.0
 10
39.41213996598246
 20
26.8945301826775
 42
0.4142135623731156
 10
39.35013996598245
 20
26.9565301826775
 10
39.33613996598246
 20
26.9565301826775
 42
-0.4142135623730951
 10
38.71113996598246
 20
27.5815301826775
 10
38.71113996598246
 20
27.5855301826775
 42
0.4142135623730951
 10
38.64913996598246
 20
27.6475301826775
 10
29.92513996598247
 20
27.6475301826775
 42
0.4142135623730951
 10
29.86313996598246
 20
27.5855301826775
 10
29.86313996598246
 20
27.5815301826775
 42
-0.4142135623730951
 10
29.23813996598246
 20
26.9565301826775
 10
29.22413996598246
 20
26.9565301826775
 42
0.4142135623731156
 10
29.16213996598246
 20
26.8945301826775
 10
29.16213996598246
 20
14.24453018267749
 42
0.4142135623731156
 10
29.22413996598246
 20
14.18253018267749
 10
29.23813996598246
 20
14.18253018267749
 42
-0.4142135623730951
 10
29.86313996598246
 20
13.55753018267749
 10
29.86313996598246
 20
13.5535301826775
 42
0.4142135623730951
 10
29.92513996598247
 20
13.49153018267749
 10
38.64913996598246
 20
13.49153018267749
 42
0.4142135623730951
 10
38.71113996598246
 20
13.5535301826775
 10
38.71113996598246
 20
13.55753018267749
 42
-0.4142135623730951
 10
39.33613996598246
 20
14.18253018267749
 10
39.35013996598245
 20
14.18253018267749
 42
0.4142135623731156
 10
39.41213996598246
 20
14.24453018267749
  0
LWPOLYLINE
  5
5F0
330
1E
100
AcDbEntity
  8
OBJECT
100
AcDbPolyline
 90
        4
 70
     0
 43
0.0
 10
38.64115937621292
 20
27.70653018267751
 42
-0.4164894335387139
 10
38.81715407155368
 20
27.52916372305017
 42
0.4164894335387157
 10
39.28513996598251
 20
27.05753018267751
 42
-0.4142135623730714
 10
39.4611399659825
 20
26.88153018267751
  0
LWPOLYLINE
  5
5F6
330
1E
100
AcDbEntity
  8
OBJECT
100
AcDbPolyline
 90
        4
 70
     0
 43
0.0
 10
38.64115937621292
 20
13.43253018267748
 42
0.4164894335387139
 10
38.81715407155368
 20
13.60989664230482
 42
-0.4164894335387157
 10
39.28513996598251
 20
14.08153018267749
 42
0.4142135623730714
 10
39.4611399659825
 20
14.25753018267747
  0
LWPOLYLINE
  5
5FC
330
1E
100
AcDbEntity
  8
OBJECT
100
AcDbPolyline
 90
       24
 70
     1
 43
0.0
 10
29.11313996598245
 20
27.13788773041732
 10
29.11313996598245
 20
14.00117263493767
 42
-0.2983456215584748
 10
29.08972302787176
 20
13.96542115689614
 42
0.2345806707682975
 10
28.81863996598246
 20
13.5760301826775
 42
0.435115900828332
 10
29.26813996598246
 20
13.13453018267749
 42
0.2383889036035053
 10
29.64392959658956
 20
13.40924028039742
 42
-0.2973777299769129
 10
29.67962543429693
 20
13.43253018267748
 10
38.89465449766799
 20
13.43253018267748
 42
-0.2973777299769129
 10
38.93035033537536
 20
13.40924028039742
 42
0.2383889036035053
 10
39.30613996598246
 20
13.13453018267749
 42
0.435115900828332
 10
39.75563996598246
 20
13.5760301826775
 42
0.2345806707682975
 10
39.48455690409316
 20
13.96542115689614
 42
-0.2983456215584748
 10
39.46113996598247
 20
14.00117263493767
 10
39.46113996598247
 20
27.13788773041732
 42
-0.2983456215584748
 10
39.48455690409316
 20
27.17363920845885
 42
0.2345806707682975
 10
39.75563996598246
 20
27.56303018267749
 42
0.435115900828332
 10
39.30613996598246
 20
28.0045301826775
 42
0.2383889036035053
 10
38.93035033537536
 20
27.72982008495756
 42
-0.2973777299769129
 10
38.89465449766799
 20
27.70653018267751
 10
29.67962543429693
 20
27.70653018267751
 42
-0.2973777299769129
 10
29.64392959658956
 20
27.72982008495756
 42
0.2383889036035053
 10
29.26813996598246
 20
28.0045301826775
 42
0.435115900828332
 10
28.81863996598246
 20
27.56303018267749
 42
0.2345806707682975
 10
29.08972302787176
 20
27.17363920845885
 42
-0.2983456215584748
  0
LWPOLYLINE
  5
616
330
1E
100
AcDbEntity
  8
OBJECT
100
AcDbPolyline
 90
        8
 70
     1
 43
0.0
 10
29.26913996598246
 20
28.01853018267749
 10
39.3051399659825
 20
28.01853018267751
 42
-0.4142135623730953
 10
39.77313996598248
 20
27.5505301826775
 10
39.77313996598246
 20
13.58853018267749
 42
-0.4142135623730948
 10
39.30513996598246
 20
13.1205301826775
 10
29.2691399659825
 20
13.1205301826775
 42
-0.4142135623730951
 10
28.80113996598248
 20
13.58853018267749
 10
28.80113996598246
 20
27.58503018267752
 42
-0.4297507469003654
  0
LWPOLYLINE
  5
620
330
1E
100
AcDbEntity
  8
OBJECT
100
AcDbPolyline
 90
        4
 70
     0
 43
0.0
 10
29.93312055575202
 20
13.43253018267748
 42
-0.4164894335387139
 10
29.75712586041126
 20
13.60989664230482
 42
0.4164894335387157
 10
29.28913996598242
 20
14.08153018267749
 42
-0.4142135623730714
 10
29.11313996598243
 20
14.25753018267747
  0
LWPOLYLINE
  5
626
330
1E
100
AcDbEntity
  8
OBJECT
100
AcDbPolyline
 90
        4
 70
     1
 43
0.0
 10
29.22394579215829
 20
13.88538939944662
 10
29.57749918275156
 20
13.53183600885334
 42
-0.3333333333333333
 10
29.3123341398066
 20
13.2666709659084
 10
28.95878074921334
 20
13.62022435650165
 42
-0.3333333333333333
  0
LWPOLYLINE
  5
62C
330
1E
100
AcDbEntity
  8
OBJECT
100
AcDbPolyline
 90
        4
 70
     1
 43
0.0
 10
29.21629672432681
 20
13.90952460286267
 42
1.999750968419506
 10
29.60280202151558
 20
13.53235457636998
 10
29.7044602894341
 20
13.6340128442885
 42
0.3807055609927504
 10
29.32262262759413
 20
14.01585050612999
  0
LWPOLYLINE
  5
632
330
1E
100
AcDbEntity
  8
OBJECT
100
AcDbPolyline
 90
        4
 70
     1
 43
0.0
 10
29.22394579215829
 20
27.25367096590836
 10
29.57749918275156
 20
27.60722435650164
 42
0.3333333333333333
 10
29.3123341398066
 20
27.87238939944659
 10
28.95878074921334
 20
27.51883600885334
 42
0.3333333333333333
  0
LWPOLYLINE
  5
638
330
1E
100
AcDbEntity
  8
OBJECT
100
AcDbPolyline
 90
        4
 70
     1
 43
0.0
 10
29.21629672432681
 20
27.22953576249231
 42
-1.999750968419506
 10
29.60280202151558
 20
27.60670578898501
 10
29.7044602894341
 20
27.50504752106648
 42
-0.3807055609927504
 10
29.32262262759413
 20
27.123209859225
  0
LWPOLYLINE
  5
63E
330
1E
100
AcDbEntity
  8
OBJECT
100
AcDbPolyline
 90
        4
 70
     0
 43
0.0
 10
29.93312055575202
 20
27.70653018267751
 42
0.4164894335387139
 10
29.75712586041126
 20
27.52916372305017
 42
-0.4164894335387157
 10
29.28913996598242
 20
27.05753018267751
 42
0.4142135623730714
 10
29.11313996598243
 20
26.88153018267751
  0
LWPOLYLINE
  5
644
330
1E
100
AcDbEntity
  8
OBJECT
100
AcDbPolyline
 90
        4
 70
     1
 43
0.0
 10
39.35033413980662
 20
13.88538939944662
 10
38.99678074921336
 20
13.53183600885334
 42
0.3333333333333333
 10
39.26194579215832
 20
13.2666709659084
 10
39.61549918275158
 20
13.62022435650165
 42
0.3333333333333333
  0
LWPOLYLINE
  5
64A
330
1E
100
AcDbEntity
  8
OBJECT
100
AcDbPolyline
 90
        4
 70
     1
 43
0.0
 10
39.3579832076381
 20
13.90952460286267
 42
-1.999750968419506
 10
38.97147791044934
 20
13.53235457636998
 10
38.86981964253082
 20
13.6340128442885
 42
-0.3807055609927504
 10
39.25165730437079
 20
14.01585050612999
  0
LWPOLYLINE
  5
650
330
1E
100
AcDbEntity
  8
OBJECT
100
AcDbPolyline
 90
        4
 70
     1
 43
0.0
 10
39.35033413980662
 20
27.25367096590836
 10
38.99678074921336
 20
27.60722435650164
 42
-0.3333333333333333
 10
39.26194579215832
 20
27.87238939944659
 10
39.61549918275158
 20
27.51883600885334
 42
-0.3333333333333333
  0
LWPOLYLINE
  5
656
330
1E
100
AcDbEntity
  8
OBJECT
100
AcDbPolyline
 90
        4
 70
     1
 43
0.0
 10
39.3579832076381
 20
27.22953576249231
 42
1.999750968419506
 10
38.97147791044934
 20
27.60670578898501
 10
38.86981964253082
 20
27.50504752106648
 42
0.3807055609927504
 10
39.25165730437079
 20
27.123209859225
  0
DIMENSION
  5
65C
330
1E
100
AcDbEntity
  8
DIM
100
AcDbDimension
  2
*D26
 10
11.10248555824729
 20
29.25593469140861
 30
0.0
 11
6.364485558247299
 21
29.25593469140861
 31
0.0
 70
    32
  1
W
 71
     5
 42
9.475999999999984
  3
23NSTD
100
AcDbAlignedDimension
 13
1.626485558247306
 23
20.56953018267748
 33
0.0
 14
11.10248555824729
 24
20.56953018267748
 34
0.0
100
AcDbRotatedDimension
  0
LINE
  5
65D
330
1E
100
AcDbEntity
  8
OBJECT
100
AcDbLine
 10
1.731442692354502
 20
20.86653018267749
 30
0.0
 11
10.99752842414011
 21
20.86653018267749
 31
0.0
  0
LINE
  5
65E
330
1E
100
AcDbEntity
  8
OBJECT
100
AcDbLine
 10
1.937959473688064
 20
20.61653018267749
 30
0.0
 11
10.79101164280652
 21
20.61653018267749
 31
0.0
  0
LINE
  5
65F
330
1E
100
AcDbEntity
  8
OBJECT
100
AcDbLine
 10
1.937959473688078
 20
20.52253018267749
 30
0.0
 11
10.79101164280652
 21
20.52253018267749
 31
0.0
  0
LINE
  5
660
330
1E
100
AcDbEntity
  8
OBJECT
100
AcDbLine
 10
1.731442692354544
 20
20.27253018267749
 30
0.0
 11
10.99752842414005
 21
20.27253018267749
 31
0.0
  0
LINE
  5
661
330
1E
100
AcDbEntity
  8
OBJECT
100
AcDbLine
 10
1.3484855582473
 20
20.17853018267749
 30
0.0
 11
11.38048555824729
 21
20.17853018267749
 31
0.0
  0
LINE
  5
662
330
1E
100
AcDbEntity
  8
OBJECT
100
AcDbLine
 10
1.3484855582473
 20
20.9605301826775
 30
0.0
 11
11.38048555824729
 21
20.9605301826775
 31
0.0
  0
CIRCLE
  5
663
330
1E
100
AcDbEntity
  8
OBJECT
100
AcDbCircle
 10
4.885485558247307
 20
14.19053018267749
 30
0.0
 40
0.194
  0
CIRCLE
  5
664
330
1E
100
AcDbEntity
  8
OBJECT
100
AcDbCircle
 10
4.885485558247307
 20
26.9485301826775
 30
0.0
 40
0.194
  0
LINE
  5
665
330
1E
100
AcDbEntity
  8
CENTER
100
AcDbLine
 10
0.4774855582473059
 20
20.56953018267749
 30
0.0
 11
12.25148555824727
 21
20.56953018267749
 31
0.0
  0
LWPOLYLINE
  5
666
330
1E
100
AcDbEntity
  8
OBJECT
100
AcDbPolyline
 90
        8
 70
     1
 43
0.0
 10
1.344611539497261
 20
28.05003018267751
 10
11.38435957699729
 20
28.05003018267754
 42
-0.4142135623730951
 10
11.87648555824726
 20
27.55790420142756
 10
11.8764855582473
 20
13.58115616392756
 42
-0.4142135623730951
 10
11.38435957699729
 20
13.08903018267749
 10
1.344611539497261
 20
13.08903018267757
 42
-0.4142135623730951
 10
0.8524855582473058
 20
13.58115616392756
 10
0.8524855582473058
 20
27.55790420142756
 42
-0.4142135623730951
  0
CIRCLE
  5
670
330
1E
100
AcDbEntity
  8
OBJECT
100
AcDbCircle
 10
1.936485558247323
 20
24.01403018267751
 30
0.0
 40
0.194
  0
CIRCLE
  5
671
330
1E
100
AcDbEntity
  8
OBJECT
100
AcDbCircle
 10
1.936485558247323
 20
24.01403018267751
 30
0.0
 40
0.155
  0
CIRCLE
  5
672
330
1E
100
AcDbEntity
  8
OBJECT
100
AcDbCircle
 10
2.234985558247313
 20
14.46353018267748
 30
0.0
 40
0.315
  0
CIRCLE
  5
673
330
1E
100
AcDbEntity
  8
OBJECT
100
AcDbCircle
 10
2.234985558247313
 20
14.46353018267748
 30
0.0
 40
0.276
  0
CIRCLE
  5
674
330
1E
100
AcDbEntity
  8
OBJECT
100
AcDbCircle
 10
1.345485558247286
 20
13.57603018267749
 30
0.0
 40
0.316
  0
CIRCLE
  5
675
330
1E
100
AcDbEntity
  8
OBJECT
100
AcDbCircle
 10
1.345485558247286
 20
13.57603018267749
 30
0.0
 40
0.135
  0
CIRCLE
  5
676
330
1E
100
AcDbEntity
  8
OBJECT
100
AcDbCircle
 10
2.913485558247298
 20
14.19053018267749
 30
0.0
 40
0.155
  0
CIRCLE
  5
677
330
1E
100
AcDbEntity
  8
OBJECT
100
AcDbCircle
 10
2.913485558247298
 20
14.19053018267749
 30
0.0
 40
0.194
  0
CIRCLE
  5
678
330
1E
100
AcDbEntity
  8
OBJECT
100
AcDbCircle
 10
3.899485558247288
 20
14.19053018267749
 30
0.0
 40
0.155
  0
CIRCLE
  5
679
330
1E
100
AcDbEntity
  8
OBJECT
100
AcDbCircle
 10
3.899485558247288
 20
14.19053018267749
 30
0.0
 40
0.194
  0
CIRCLE
  5
67A
330
1E
100
AcDbEntity
  8
OBJECT
100
AcDbCircle
 10
1.936485558247323
 20
15.15303018267748
 30
0.0
 40
0.194
  0
CIRCLE
  5
67B
330
1E
100
AcDbEntity
  8
OBJECT
100
AcDbCircle
 10
1.936485558247323
 20
15.15303018267748
 30
0.0
 40
0.155
  0
CIRCLE
  5
67C
330
1E
100
AcDbEntity
  8
OBJECT
100
AcDbCircle
 10
1.936485558247323
 20
16.13903018267748
 30
0.0
 40
0.194
  0
CIRCLE
  5
67D
330
1E
100
AcDbEntity
  8
OBJECT
100
AcDbCircle
 10
1.936485558247323
 20
16.13903018267748
 30
0.0
 40
0.155
  0
CIRCLE
  5
67E
330
1E
100
AcDbEntity
  8
OBJECT
100
AcDbCircle
 10
1.936485558247323
 20
17.12503018267747
 30
0.0
 40
0.155
  0
CIRCLE
  5
67F
330
1E
100
AcDbEntity
  8
OBJECT
100
AcDbCircle
 10
1.936485558247323
 20
17.12503018267747
 30
0.0
 40
0.194
  0
CIRCLE
  5
680
330
1E
100
AcDbEntity
  8
OBJECT
100
AcDbCircle
 10
1.936485558247323
 20
18.11103018267748
 30
0.0
 40
0.194
  0
CIRCLE
  5
681
330
1E
100
AcDbEntity
  8
OBJECT
100
AcDbCircle
 10
1.936485558247323
 20
18.11103018267748
 30
0.0
 40
0.155
  0
CIRCLE
  5
682
330
1E
100
AcDbEntity
  8
OBJECT
100
AcDbCircle
 10
1.936485558247323
 20
19.09703018267748
 30
0.0
 40
0.194
  0
CIRCLE
  5
683
330
1E
100
AcDbEntity
  8
OBJECT
100
AcDbCircle
 10
1.936485558247323
 20
19.09703018267748
 30
0.0
 40
0.155
  0
LINE
  5
684
330
1E
100
AcDbEntity
  8
OBJECT
100
AcDbLine
 10
1.3484855582473
 20
20.86653018267749
 30
0.0
 11
1.521528424140111
 21
20.86653018267749
 31
0.0
  0
LINE
  5
685
330
1E
100
AcDbEntity
  8
OBJECT
100
AcDbLine
 10
1.3484855582473
 20
20.27253018267749
 30
0.0
 11
1.521528424140068
 21
20.27253018267749
 31
0.0
  0
CIRCLE
  5
686
330
1E
100
AcDbEntity
  8
OBJECT
100
AcDbCircle
 10
1.626485558247306
 20
20.56953018267748
 30
0.0
 40
0.098
  0
CIRCLE
  5
687
330
1E
100
AcDbEntity
  8
OBJECT
100
AcDbCircle
 10
1.626485558247306
 20
20.56953018267748
 30
0.0
 40
0.2756299214999558
  0
CIRCLE
  5
688
330
1E
100
AcDbEntity
  8
OBJECT
100
AcDbCircle
 10
1.626485558247306
 20
20.56953018267748
 30
0.0
 40
0.315
  0
CIRCLE
  5
689
330
1E
100
AcDbEntity
  8
OBJECT
100
AcDbCircle
 10
1.936485558247323
 20
22.04203018267751
 30
0.0
 40
0.155
  0
CIRCLE
  5
68A
330
1E
100
AcDbEntity
  8
OBJECT
100
AcDbCircle
 10
1.936485558247323
 20
22.04203018267751
 30
0.0
 40
0.194
  0
CIRCLE
  5
68B
330
1E
100
AcDbEntity
  8
OBJECT
100
AcDbCircle
 10
1.936485558247323
 20
23.02803018267752
 30
0.0
 40
0.155
  0
CIRCLE
  5
68C
330
1E
100
AcDbEntity
  8
OBJECT
100
AcDbCircle
 10
1.936485558247323
 20
23.02803018267752
 30
0.0
 40
0.194
  0
CIRCLE
  5
68D
330
1E
100
AcDbEntity
  8
OBJECT
100
AcDbCircle
 10
3.899485558247288
 20
26.9485301826775
 30
0.0
 40
0.194
  0
CIRCLE
  5
68E
330
1E
100
AcDbEntity
  8
OBJECT
100
AcDbCircle
 10
3.899485558247288
 20
26.9485301826775
 30
0.0
 40
0.155
  0
CIRCLE
  5
68F
330
1E
100
AcDbEntity
  8
OBJECT
100
AcDbCircle
 10
2.913485558247298
 20
26.9485301826775
 30
0.0
 40
0.194
  0
CIRCLE
  5
690
330
1E
100
AcDbEntity
  8
OBJECT
100
AcDbCircle
 10
2.913485558247298
 20
26.9485301826775
 30
0.0
 40
0.155
  0
CIRCLE
  5
691
330
1E
100
AcDbEntity
  8
OBJECT
100
AcDbCircle
 10
1.936485558247323
 20
25.0000301826775
 30
0.0
 40
0.155
  0
CIRCLE
  5
692
330
1E
100
AcDbEntity
  8
OBJECT
100
AcDbCircle
 10
1.936485558247323
 20
25.0000301826775
 30
0.0
 40
0.194
  0
CIRCLE
  5
693
330
1E
100
AcDbEntity
  8
OBJECT
100
AcDbCircle
 10
1.936485558247323
 20
25.98603018267752
 30
0.0
 40
0.155
  0
CIRCLE
  5
694
330
1E
100
AcDbEntity
  8
OBJECT
100
AcDbCircle
 10
1.936485558247323
 20
25.98603018267752
 30
0.0
 40
0.194
  0
CIRCLE
  5
695
330
1E
100
AcDbEntity
  8
OBJECT
100
AcDbCircle
 10
2.234985558247313
 20
26.6755301826775
 30
0.0
 40
0.276
  0
CIRCLE
  5
696
330
1E
100
AcDbEntity
  8
OBJECT
100
AcDbCircle
 10
2.234985558247313
 20
26.6755301826775
 30
0.0
 40
0.315
  0
CIRCLE
  5
697
330
1E
100
AcDbEntity
  8
OBJECT
100
AcDbCircle
 10
1.345485558247286
 20
27.56303018267749
 30
0.0
 40
0.316
  0
CIRCLE
  5
698
330
1E
100
AcDbEntity
  8
OBJECT
100
AcDbCircle
 10
1.345485558247286
 20
27.56303018267749
 30
0.0
 40
0.135
  0
DIMENSION
  5
699
330
1E
100
AcDbEntity
  8
DIM
100
AcDbDimension
  2
*D27
 10
12.88183371403408
 20
27.2715301826777
 30
0.0
 11
12.88183371403408
 21
20.5695301826777
 31
0.0
 70
    32
  1
V
 71
     5
 42
13.404
  3
23NSTD
100
AcDbAlignedDimension
 13
6.364485558247292
 23
13.86753018267769
 33
0.0
 14
6.364485558247292
 24
27.2715301826777
 34
0.0
 50
90.0
100
AcDbRotatedDimension
  0
CIRCLE
  5
69A
330
1E
100
AcDbEntity
  8
OBJECT
100
AcDbCircle
 10
10.7864855582473
 20
24.01403018267751
 30
0.0
 40
0.155
  0
CIRCLE
  5
69B
330
1E
100
AcDbEntity
  8
OBJECT
100
AcDbCircle
 10
10.7864855582473
 20
24.01403018267751
 30
0.0
 40
0.194
  0
LINE
  5
69C
330
1E
100
AcDbEntity
  8
CENTER
100
AcDbLine
 10
6.364485558247306
 20
12.71403018267753
 30
0.0
 11
6.364485558247306
 21
28.42503018267752
 31
0.0
  0
CIRCLE
  5
69D
330
1E
100
AcDbEntity
  8
OBJECT
100
AcDbCircle
 10
4.885485558247307
 20
14.19053018267749
 30
0.0
 40
0.155
  0
CIRCLE
  5
69E
330
1E
100
AcDbEntity
  8
OBJECT
100
AcDbCircle
 10
6.364485558247292
 20
13.8675301826773
 30
0.0
 40
0.098
  0
CIRCLE
  5
69F
330
1E
100
AcDbEntity
  8
OBJECT
100
AcDbCircle
 10
6.364485558247292
 20
13.8675301826773
 30
0.0
 40
0.2756299214999558
  0
CIRCLE
  5
6A0
330
1E
100
AcDbEntity
  8
OBJECT
100
AcDbCircle
 10
6.364485558247292
 20
13.8675301826773
 30
0.0
 40
0.315
  0
CIRCLE
  5
6A1
330
1E
100
AcDbEntity
  8
OBJECT
100
AcDbCircle
 10
8.829485558247309
 20
14.1720301826775
 30
0.0
 40
0.194
  0
CIRCLE
  5
6A2
330
1E
100
AcDbEntity
  8
OBJECT
100
AcDbCircle
 10
8.829485558247309
 20
14.1720301826775
 30
0.0
 40
0.155
  0
CIRCLE
  5
6A3
330
1E
100
AcDbEntity
  8
OBJECT
100
AcDbCircle
 10
7.843485558247277
 20
14.1720301826775
 30
0.0
 40
0.194
  0
CIRCLE
  5
6A4
330
1E
100
AcDbEntity
  8
OBJECT
100
AcDbCircle
 10
7.843485558247277
 20
14.1720301826775
 30
0.0
 40
0.155
  0
CIRCLE
  5
6A5
330
1E
100
AcDbEntity
  8
OBJECT
100
AcDbCircle
 10
9.815485558247299
 20
14.1720301826775
 30
0.0
 40
0.194
  0
CIRCLE
  5
6A6
330
1E
100
AcDbEntity
  8
OBJECT
100
AcDbCircle
 10
9.815485558247299
 20
14.1720301826775
 30
0.0
 40
0.155
  0
CIRCLE
  5
6A7
330
1E
100
AcDbEntity
  8
OBJECT
100
AcDbCircle
 10
11.38348555824731
 20
13.57603018267749
 30
0.0
 40
0.316
  0
CIRCLE
  5
6A8
330
1E
100
AcDbEntity
  8
OBJECT
100
AcDbCircle
 10
11.38348555824731
 20
13.57603018267749
 30
0.0
 40
0.135
  0
CIRCLE
  5
6A9
330
1E
100
AcDbEntity
  8
OBJECT
100
AcDbCircle
 10
10.48798555824728
 20
14.46353018267748
 30
0.0
 40
0.315
  0
CIRCLE
  5
6AA
330
1E
100
AcDbEntity
  8
OBJECT
100
AcDbCircle
 10
10.48798555824728
 20
14.46353018267748
 30
0.0
 40
0.276
  0
CIRCLE
  5
6AB
330
1E
100
AcDbEntity
  8
OBJECT
100
AcDbCircle
 10
10.7864855582473
 20
16.13903018267748
 30
0.0
 40
0.194
  0
CIRCLE
  5
6AC
330
1E
100
AcDbEntity
  8
OBJECT
100
AcDbCircle
 10
10.7864855582473
 20
15.15303018267748
 30
0.0
 40
0.155
  0
CIRCLE
  5
6AD
330
1E
100
AcDbEntity
  8
OBJECT
100
AcDbCircle
 10
10.7864855582473
 20
15.15303018267748
 30
0.0
 40
0.194
  0
CIRCLE
  5
6AE
330
1E
100
AcDbEntity
  8
OBJECT
100
AcDbCircle
 10
10.7864855582473
 20
16.13903018267748
 30
0.0
 40
0.155
  0
CIRCLE
  5
6AF
330
1E
100
AcDbEntity
  8
OBJECT
100
AcDbCircle
 10
10.7864855582473
 20
17.12503018267749
 30
0.0
 40
0.194
  0
CIRCLE
  5
6B0
330
1E
100
AcDbEntity
  8
OBJECT
100
AcDbCircle
 10
10.7864855582473
 20
17.12503018267749
 30
0.0
 40
0.155
  0
CIRCLE
  5
6B1
330
1E
100
AcDbEntity
  8
OBJECT
100
AcDbCircle
 10
10.7864855582473
 20
18.11103018267748
 30
0.0
 40
0.194
  0
CIRCLE
  5
6B2
330
1E
100
AcDbEntity
  8
OBJECT
100
AcDbCircle
 10
10.7864855582473
 20
18.11103018267748
 30
0.0
 40
0.155
  0
CIRCLE
  5
6B3
330
1E
100
AcDbEntity
  8
OBJECT
100
AcDbCircle
 10
10.7864855582473
 20
19.09703018267748
 30
0.0
 40
0.194
  0
CIRCLE
  5
6B4
330
1E
100
AcDbEntity
  8
OBJECT
100
AcDbCircle
 10
10.7864855582473
 20
19.09703018267748
 30
0.0
 40
0.155
  0
LINE
  5
6B5
330
1E
100
AcDbEntity
  8
OBJECT
100
AcDbLine
 10
11.20744269235447
 20
20.86653018267749
 30
0.0
 11
11.38048555824729
 21
20.86653018267749
 31
0.0
  0
LINE
  5
6B6
330
1E
100
AcDbEntity
  8
OBJECT
100
AcDbLine
 10
11.20744269235453
 20
20.27253018267749
 30
0.0
 11
11.38048555824729
 21
20.27253018267749
 31
0.0
  0
CIRCLE
  5
6B7
330
1E
100
AcDbEntity
  8
OBJECT
100
AcDbCircle
 10
11.10248555824729
 20
20.56953018267748
 30
0.0
 40
0.315
  0
CIRCLE
  5
6B8
330
1E
100
AcDbEntity
  8
OBJECT
100
AcDbCircle
 10
11.10248555824729
 20
20.56953018267748
 30
0.0
 40
0.2756299214999558
  0
CIRCLE
  5
6B9
330
1E
100
AcDbEntity
  8
OBJECT
100
AcDbCircle
 10
11.10248555824729
 20
20.56953018267748
 30
0.0
 40
0.098
  0
CIRCLE
  5
6BA
330
1E
100
AcDbEntity
  8
OBJECT
100
AcDbCircle
 10
10.7864855582473
 20
22.04203018267751
 30
0.0
 40
0.155
  0
CIRCLE
  5
6BB
330
1E
100
AcDbEntity
  8
OBJECT
100
AcDbCircle
 10
10.7864855582473
 20
22.04203018267751
 30
0.0
 40
0.194
  0
CIRCLE
  5
6BC
330
1E
100
AcDbEntity
  8
OBJECT
100
AcDbCircle
 10
10.7864855582473
 20
23.02803018267751
 30
0.0
 40
0.155
  0
CIRCLE
  5
6BD
330
1E
100
AcDbEntity
  8
OBJECT
100
AcDbCircle
 10
10.7864855582473
 20
23.02803018267751
 30
0.0
 40
0.194
  0
CIRCLE
  5
6BE
330
1E
100
AcDbEntity
  8
OBJECT
100
AcDbCircle
 10
7.843485558247277
 20
26.96703018267749
 30
0.0
 40
0.155
  0
CIRCLE
  5
6BF
330
1E
100
AcDbEntity
  8
OBJECT
100
AcDbCircle
 10
7.843485558247277
 20
26.96703018267749
 30
0.0
 40
0.194
  0
CIRCLE
  5
6C0
330
1E
100
AcDbEntity
  8
OBJECT
100
AcDbCircle
 10
8.829485558247309
 20
26.96703018267749
 30
0.0
 40
0.155
  0
CIRCLE
  5
6C1
330
1E
100
AcDbEntity
  8
OBJECT
100
AcDbCircle
 10
8.829485558247309
 20
26.96703018267749
 30
0.0
 40
0.194
  0
CIRCLE
  5
6C2
330
1E
100
AcDbEntity
  8
OBJECT
100
AcDbCircle
 10
9.815485558247299
 20
26.96703018267749
 30
0.0
 40
0.155
  0
CIRCLE
  5
6C3
330
1E
100
AcDbEntity
  8
OBJECT
100
AcDbCircle
 10
9.815485558247299
 20
26.96703018267749
 30
0.0
 40
0.194
  0
CIRCLE
  5
6C4
330
1E
100
AcDbEntity
  8
OBJECT
100
AcDbCircle
 10
4.885485558247307
 20
26.9485301826775
 30
0.0
 40
0.155
  0
CIRCLE
  5
6C5
330
1E
100
AcDbEntity
  8
OBJECT
100
AcDbCircle
 10
6.364485558247292
 20
27.2715301826777
 30
0.0
 40
0.315
  0
CIRCLE
  5
6C6
330
1E
100
AcDbEntity
  8
OBJECT
100
AcDbCircle
 10
6.364485558247292
 20
27.2715301826777
 30
0.0
 40
0.2756299214999558
  0
CIRCLE
  5
6C7
330
1E
100
AcDbEntity
  8
OBJECT
100
AcDbCircle
 10
6.364485558247292
 20
27.2715301826777
 30
0.0
 40
0.098
  0
CIRCLE
  5
6C8
330
1E
100
AcDbEntity
  8
OBJECT
100
AcDbCircle
 10
10.7864855582473
 20
25.0000301826775
 30
0.0
 40
0.155
  0
CIRCLE
  5
6C9
330
1E
100
AcDbEntity
  8
OBJECT
100
AcDbCircle
 10
10.7864855582473
 20
25.0000301826775
 30
0.0
 40
0.194
  0
CIRCLE
  5
6CA
330
1E
100
AcDbEntity
  8
OBJECT
100
AcDbCircle
 10
10.7864855582473
 20
25.98603018267751
 30
0.0
 40
0.194
  0
CIRCLE
  5
6CB
330
1E
100
AcDbEntity
  8
OBJECT
100
AcDbCircle
 10
10.7864855582473
 20
25.98603018267751
 30
0.0
 40
0.155
  0
CIRCLE
  5
6CC
330
1E
100
AcDbEntity
  8
OBJECT
100
AcDbCircle
 10
10.48798555824728
 20
26.6755301826775
 30
0.0
 40
0.276
  0
CIRCLE
  5
6CD
330
1E
100
AcDbEntity
  8
OBJECT
100
AcDbCircle
 10
10.48798555824728
 20
26.6755301826775
 30
0.0
 40
0.315
  0
CIRCLE
  5
6CE
330
1E
100
AcDbEntity
  8
OBJECT
100
AcDbCircle
 10
11.38348555824731
 20
27.56303018267749
 30
0.0
 40
0.316
  0
CIRCLE
  5
6CF
330
1E
100
AcDbEntity
  8
OBJECT
100
AcDbCircle
 10
11.38348555824731
 20
27.56303018267749
 30
0.0
 40
0.135
  0
LINE
  5
6D0
330
1E
100
AcDbEntity
  8
OBJECT
100
AcDbLine
 10
11.38048555824729
 20
21.2105301826775
 30
0.0
 11
1.3484855582473
 21
21.2105301826775
 31
0.0
  0
LINE
  5
6D1
330
1E
100
AcDbEntity
  8
OBJECT
100
AcDbLine
 10
1.3484855582473
 20
21.2105301826775
 30
0.0
 11
1.3484855582473
 21
20.9605301826775
 31
0.0
  0
LINE
  5
6D2
330
1E
100
AcDbEntity
  8
OBJECT
100
AcDbLine
 10
1.3484855582473
 20
20.4214052354201
 30
0.0
 11
1.348485558247315
 21
20.27253018267749
 31
0.0
  0
LINE
  5
6D3
330
1E
100
AcDbEntity
  8
OBJECT
100
AcDbLine
 10
1.3484855582473
 20
19.92853018267749
 30
0.0
 11
11.38048555824731
 21
19.92853018267749
 31
0.0
  0
LINE
  5
6D4
330
1E
100
AcDbEntity
  8
OBJECT
100
AcDbLine
 10
11.38048555824731
 20
19.92853018267749
 30
0.0
 11
11.38048555824729
 21
20.17853018267749
 31
0.0
  0
LINE
  5
6D5
330
1E
100
AcDbEntity
  8
OBJECT
100
AcDbLine
 10
1.3484855582473
 20
20.86653018267749
 30
0.0
 11
1.3484855582473
 21
20.71765512993485
 31
0.0
  0
LINE
  5
6D6
330
1E
100
AcDbEntity
  8
OBJECT
100
AcDbLine
 10
1.348485558247315
 20
20.17853018267749
 30
0.0
 11
1.3484855582473
 21
19.92853018267749
 31
0.0
  0
LINE
  5
6D7
330
1E
100
AcDbEntity
  8
OBJECT
100
AcDbLine
 10
11.38048555824729
 20
20.27253018267749
 30
0.0
 11
11.38048555824729
 21
20.42140523542014
 31
0.0
  0
LINE
  5
6D8
330
1E
100
AcDbEntity
  8
OBJECT
100
AcDbLine
 10
11.38048555824731
 20
20.9605301826775
 30
0.0
 11
11.38048555824729
 21
21.2105301826775
 31
0.0
  0
LINE
  5
6D9
330
1E
100
AcDbEntity
  8
OBJECT
100
AcDbLine
 10
11.38048555824729
 20
20.71765512993484
 30
0.0
 11
11.38048555824729
 21
20.8665301826775
 31
0.0
  0
LWPOLYLINE
  5
6DA
330
1E
100
AcDbEntity
  8
OBJECT
100
AcDbPolyline
 90
       16
 70
     1
 43
0.0
 10
11.5364855582473
 20
13.92903018267749
 42
-0.3075977139034228
 10
11.78198555824729
 20
13.56772761906138
 42
-0.4012676469679045
 10
11.39027037815428
 20
13.19303018267749
 42
-0.2916329401293484
 10
11.02048555824729
 20
13.44453018267749
 10
1.708485558247314
 20
13.44453018267749
 42
-0.2916329401293484
 10
1.338700738340317
 20
13.19303018267749
 42
-0.4012676469679045
 10
0.9469855582473165
 20
13.56772761906138
 42
-0.3075977139034228
 10
1.192485558247295
 20
13.92903018267749
 10
1.192485558247295
 20
27.21003018267748
 42
-0.3075977139034228
 10
0.9469855582473165
 20
27.57133274629362
 42
-0.4012676469679045
 10
1.338700738340317
 20
27.9460301826775
 42
-0.2916329401293484
 10
1.708485558247314
 20
27.69453018267749
 10
11.02048555824728
 20
27.69453018267749
 42
-0.2916329401293484
 10
11.39027037815428
 20
27.9460301826775
 42
-0.4012676469679045
 10
11.78198555824729
 20
27.57133274629362
 42
-0.3075977139034228
 10
11.5364855582473
 20
27.21003018267748
  0
LWPOLYLINE
  5
6EC
330
1E
100
AcDbEntity
  8
OBJECT
100
AcDbPolyline
 90
        4
 70
     0
 43
0.0
 10
38.99013996598231
 20
37.53654248651219
 10
38.99013996598231
 20
37.61654248651218
 10
39.62213996598232
 20
37.61654248651218
 10
39.62213996598232
 20
37.53654248651219
  0
LWPOLYLINE
  5
6F2
330
1E
100
AcDbEntity
  8
OBJECT
100
AcDbPolyline
 90
        8
 70
     1
 43
0.0
 10
29.26726594723242
 20
28.05003018267754
 10
39.30701398473246
 20
28.05003018267758
 42
-0.4142135623730951
 10
39.79913996598241
 20
27.55790420142758
 10
39.79913996598245
 20
13.58115616392761
 42
-0.4142135623730951
 10
39.30701398473246
 20
13.08903018267754
 10
29.26726594723242
 20
13.08903018267761
 42
-0.4142135623730951
 10
28.77513996598247
 20
13.58115616392761
 10
28.77513996598247
 20
27.55790420142758
 42
-0.4142135623730951
  0
LWPOLYLINE
  5
6FC
330
1E
100
AcDbEntity
  8
OBJECT
100
AcDbPolyline
 90
        4
 70
     0
 43
0.0
 10
19.64735831031216
 20
24.80601443582986
 10
19.56735831031216
 20
24.84538451432991
 10
19.56735831031216
 20
25.1546758510259
 10
19.64735831031216
 20
25.19404592952594
  0
LWPOLYLINE
  5
702
330
1E
100
AcDbEntity
  8
OBJECT
100
AcDbPolyline
 90
        4
 70
     0
 43
0.0
 10
19.64735831031216
 20
23.82001443582987
 10
19.56735831031216
 20
23.85938451432991
 10
19.56735831031216
 20
24.16867585102591
 10
19.64735831031216
 20
24.20804592952595
  0
LWPOLYLINE
  5
708
330
1E
100
AcDbEntity
  8
OBJECT
100
AcDbPolyline
 90
        4
 70
     0
 43
0.0
 10
19.64735831031216
 20
22.83401443582987
 10
19.56735831031216
 20
22.87338451432991
 10
19.56735831031216
 20
23.1826758510259
 10
19.64735831031216
 20
23.22204592952594
  0
LWPOLYLINE
  5
70E
330
1E
100
AcDbEntity
  8
OBJECT
100
AcDbPolyline
 90
        4
 70
     0
 43
0.0
 10
19.64735831031216
 20
21.84801443582987
 10
19.56735831031216
 20
21.8873845143299
 10
19.56735831031216
 20
22.1966758510259
 10
19.64735831031216
 20
22.23604592952594
  0
LINE
  5
714
330
1E
100
AcDbEntity
  8
OBJECT
100
AcDbLine
 10
19.9183583103122
 20
15.36303018267748
 30
0.0
 11
19.9183583103122
 21
15.92903018267749
 31
0.0
  0
LINE
  5
715
330
1E
100
AcDbEntity
  8
OBJECT
100
AcDbLine
 10
20.16335831031211
 20
14.76053018267768
 30
0.0
 11
20.16335831031189
 21
14.16653018267768
 31
0.0
  0
LINE
  5
716
330
1E
100
AcDbEntity
  8
OBJECT
100
AcDbLine
 10
19.91835831031216
 20
18.32103018267747
 30
0.0
 11
19.91835831031214
 21
18.88703018267749
 31
0.0
  0
LINE
  5
717
330
1E
100
AcDbEntity
  8
OBJECT
100
AcDbLine
 10
19.91835831031217
 20
17.33503018267747
 30
0.0
 11
19.91835831031216
 21
17.90103018267748
 31
0.0
  0
LINE
  5
718
330
1E
100
AcDbEntity
  8
OBJECT
100
AcDbLine
 10
19.91835831031218
 20
16.34903018267748
 30
0.0
 11
19.91835831031217
 21
16.91503018267749
 31
0.0
  0
LINE
  5
719
330
1E
100
AcDbEntity
  8
OBJECT
100
AcDbLine
 10
29.67962543429693
 20
30.72739287901217
 30
0.0
 11
29.67962543429693
 21
33.35185214348566
 31
0.0
  0
LINE
  5
71A
330
1E
100
AcDbEntity
  8
OBJECT
100
AcDbLine
 10
26.45650791781213
 20
27.13788773041732
 30
0.0
 11
23.83204865333879
 21
27.13788773041732
 31
0.0
  0
LINE
  5
71B
330
1E
100
AcDbEntity
  8
OBJECT
100
AcDbLine
 10
26.45650791781215
 20
14.08153018267748
 30
0.0
 11
26.45650791781203
 21
13.13453018267748
 31
0.0
  0
ARC
  5
71C
330
1E
100
AcDbEntity
  8
OBJECT
100
AcDbCircle
 10
26.45650791781203
 20
14.27838057517746
 30
0.0
 40
0.1968503925
100
AcDbArc
 50
269.9999999999998
 51
0.0
  0
ARC
  5
71D
330
1E
100
AcDbEntity
  8
OBJECT
100
AcDbCircle
 10
26.45650791781203
 20
13.62938057517747
 30
0.0
 40
0.1968503925
100
AcDbArc
 50
269.9999999999998
 51
0.0
  0
LINE
  5
71E
330
1E
100
AcDbEntity
  8
OBJECT
100
AcDbLine
 10
23.60235831031214
 20
13.97903018267749
 30
0.0
 11
23.50235831031215
 21
13.97903018267749
 31
0.0
  0
LINE
  5
71F
330
1E
100
AcDbEntity
  8
OBJECT
100
AcDbLine
 10
23.60235831031214
 20
14.05803018267748
 30
0.0
 11
19.76735831031185
 21
14.05803018267748
 31
0.0
  0
LINE
  5
720
330
1E
100
AcDbEntity
  8
OBJECT
100
AcDbLine
 10
20.28135831031214
 20
13.2643662648488
 30
0.0
 11
20.27354768012951
 21
13.37495768766209
 31
0.0
  0
LINE
  5
721
330
1E
100
AcDbEntity
  8
OBJECT
100
AcDbLine
 10
23.21851864301388
 20
13.44092769672782
 30
0.0
 11
23.22935831031214
 21
13.3098662648488
 31
0.0
  0
LINE
  5
722
330
1E
100
AcDbEntity
  8
OBJECT
100
AcDbLine
 10
23.32516894049478
 20
13.77677484203549
 30
0.0
 11
23.31735831031213
 21
13.88736626484879
 31
0.0
  0
LINE
  5
723
330
1E
100
AcDbEntity
  8
OBJECT
100
AcDbLine
 10
23.30651864301387
 20
13.44092769672782
 30
0.0
 11
23.31735831031215
 21
13.3098662648488
 31
0.0
  0
LINE
  5
724
330
1E
100
AcDbEntity
  8
OBJECT
100
AcDbLine
 10
23.23716894049478
 20
13.77677484203549
 30
0.0
 11
23.22935831031214
 21
13.88736626484879
 31
0.0
  0
LINE
  5
725
330
1E
100
AcDbEntity
  8
OBJECT
100
AcDbLine
 10
23.27335831031213
 20
13.84186626484878
 30
0.0
 11
23.28419797761041
 21
13.71080483296975
 31
0.0
  0
LINE
  5
726
330
1E
100
AcDbEntity
  8
OBJECT
100
AcDbLine
 10
23.27335831031215
 20
13.2643662648488
 30
0.0
 11
23.2655476801295
 21
13.37495768766209
 31
0.0
  0
LINE
  5
727
330
1E
100
AcDbEntity
  8
OBJECT
100
AcDbLine
 10
23.18535831031214
 20
13.2643662648488
 30
0.0
 11
23.17754768012951
 21
13.37495768766209
 31
0.0
  0
LINE
  5
728
330
1E
100
AcDbEntity
  8
OBJECT
100
AcDbLine
 10
23.18535831031214
 20
13.84186626484878
 30
0.0
 11
23.19619797761041
 21
13.71080483296975
 31
0.0
  0
LINE
  5
729
330
1E
100
AcDbEntity
  8
OBJECT
100
AcDbLine
 10
22.95451864301389
 20
13.44092769672782
 30
0.0
 11
22.96535831031214
 21
13.3098662648488
 31
0.0
  0
LINE
  5
72A
330
1E
100
AcDbEntity
  8
OBJECT
100
AcDbLine
 10
22.97316894049479
 20
13.77677484203549
 30
0.0
 11
22.96535831031214
 21
13.88736626484879
 31
0.0
  0
LINE
  5
72B
330
1E
100
AcDbEntity
  8
OBJECT
100
AcDbLine
 10
23.04251864301388
 20
13.44092769672782
 30
0.0
 11
23.05335831031213
 21
13.3098662648488
 31
0.0
  0
LINE
  5
72C
330
1E
100
AcDbEntity
  8
OBJECT
100
AcDbLine
 10
23.0611689404948
 20
13.77677484203549
 30
0.0
 11
23.05335831031215
 21
13.88736626484879
 31
0.0
  0
LINE
  5
72D
330
1E
100
AcDbEntity
  8
OBJECT
100
AcDbLine
 10
23.00935831031214
 20
13.2643662648488
 30
0.0
 11
23.00154768012951
 21
13.37495768766209
 31
0.0
  0
LINE
  5
72E
330
1E
100
AcDbEntity
  8
OBJECT
100
AcDbLine
 10
23.00935831031214
 20
13.84186626484878
 30
0.0
 11
23.02019797761041
 21
13.71080483296975
 31
0.0
  0
LINE
  5
72F
330
1E
100
AcDbEntity
  8
OBJECT
100
AcDbLine
 10
23.13051864301388
 20
13.44092769672782
 30
0.0
 11
23.14135831031214
 21
13.3098662648488
 31
0.0
  0
LINE
  5
730
330
1E
100
AcDbEntity
  8
OBJECT
100
AcDbLine
 10
23.14916894049479
 20
13.77677484203549
 30
0.0
 11
23.14135831031214
 21
13.88736626484879
 31
0.0
  0
LINE
  5
731
330
1E
100
AcDbEntity
  8
OBJECT
100
AcDbLine
 10
23.09735831031214
 20
13.84186626484878
 30
0.0
 11
23.10819797761042
 21
13.71080483296975
 31
0.0
  0
LINE
  5
732
330
1E
100
AcDbEntity
  8
OBJECT
100
AcDbLine
 10
23.09735831031214
 20
13.2643662648488
 30
0.0
 11
23.08954768012951
 21
13.37495768766209
 31
0.0
  0
LINE
  5
733
330
1E
100
AcDbEntity
  8
OBJECT
100
AcDbLine
 10
23.36135831031214
 20
13.2643662648488
 30
0.0
 11
23.35354768012949
 21
13.37495768766209
 31
0.0
  0
LINE
  5
734
330
1E
100
AcDbEntity
  8
OBJECT
100
AcDbLine
 10
23.36135831031213
 20
13.84186626484878
 30
0.0
 11
23.3721979776104
 21
13.71080483296975
 31
0.0
  0
LINE
  5
735
330
1E
100
AcDbEntity
  8
OBJECT
100
AcDbLine
 10
23.39451864301387
 20
13.44092769672782
 30
0.0
 11
23.40535831031214
 21
13.3098662648488
 31
0.0
  0
LINE
  5
736
330
1E
100
AcDbEntity
  8
OBJECT
100
AcDbLine
 10
23.48251864301388
 20
13.44092769672782
 30
0.0
 11
23.49335831031214
 21
13.3098662648488
 31
0.0
  0
LINE
  5
737
330
1E
100
AcDbEntity
  8
OBJECT
100
AcDbLine
 10
23.41316894049478
 20
13.77677484203549
 30
0.0
 11
23.40535831031214
 21
13.88736626484879
 31
0.0
  0
LINE
  5
738
330
1E
100
AcDbEntity
  8
OBJECT
100
AcDbLine
 10
23.44935831031215
 20
13.2643662648488
 30
0.0
 11
23.44154768012951
 21
13.37495768766209
 31
0.0
  0
LINE
  5
739
330
1E
100
AcDbEntity
  8
OBJECT
100
AcDbLine
 10
23.44935831031214
 20
13.84186626484878
 30
0.0
 11
23.4601979776104
 21
13.71080483296975
 31
0.0
  0
LINE
  5
73A
330
1E
100
AcDbEntity
  8
OBJECT
100
AcDbLine
 10
21.60135831031213
 20
13.84186626484878
 30
0.0
 11
21.61219797761041
 21
13.71080483296975
 31
0.0
  0
LINE
  5
73B
330
1E
100
AcDbEntity
  8
OBJECT
100
AcDbLine
 10
21.86535831031215
 20
13.2643662648488
 30
0.0
 11
21.85754768012951
 21
13.37495768766209
 31
0.0
  0
LINE
  5
73C
330
1E
100
AcDbEntity
  8
OBJECT
100
AcDbLine
 10
21.98651864301387
 20
13.44092769672782
 30
0.0
 11
21.99735831031214
 21
13.3098662648488
 31
0.0
  0
LINE
  5
73D
330
1E
100
AcDbEntity
  8
OBJECT
100
AcDbLine
 10
22.00516894049478
 20
13.77677484203549
 30
0.0
 11
21.99735831031214
 21
13.88736626484879
 31
0.0
  0
LINE
  5
73E
330
1E
100
AcDbEntity
  8
OBJECT
100
AcDbLine
 10
21.89851864301387
 20
13.44092769672782
 30
0.0
 11
21.90935831031214
 21
13.3098662648488
 31
0.0
  0
LINE
  5
73F
330
1E
100
AcDbEntity
  8
OBJECT
100
AcDbLine
 10
21.91716894049478
 20
13.77677484203549
 30
0.0
 11
21.90935831031213
 21
13.88736626484879
 31
0.0
  0
LINE
  5
740
330
1E
100
AcDbEntity
  8
OBJECT
100
AcDbLine
 10
21.95335831031214
 20
13.2643662648488
 30
0.0
 11
21.94554768012951
 21
13.37495768766209
 31
0.0
  0
LINE
  5
741
330
1E
100
AcDbEntity
  8
OBJECT
100
AcDbLine
 10
21.95335831031213
 20
13.84186626484878
 30
0.0
 11
21.9641979776104
 21
13.71080483296975
 31
0.0
  0
LINE
  5
742
330
1E
100
AcDbEntity
  8
OBJECT
100
AcDbLine
 10
21.86535831031213
 20
13.84186626484878
 30
0.0
 11
21.8761979776104
 21
13.71080483296975
 31
0.0
  0
LINE
  5
743
330
1E
100
AcDbEntity
  8
OBJECT
100
AcDbLine
 10
21.72251864301388
 20
13.44092769672782
 30
0.0
 11
21.73335831031214
 21
13.3098662648488
 31
0.0
  0
LINE
  5
744
330
1E
100
AcDbEntity
  8
OBJECT
100
AcDbLine
 10
21.63451864301388
 20
13.44092769672782
 30
0.0
 11
21.64535831031213
 21
13.3098662648488
 31
0.0
  0
LINE
  5
745
330
1E
100
AcDbEntity
  8
OBJECT
100
AcDbLine
 10
21.74116894049479
 20
13.77677484203549
 30
0.0
 11
21.73335831031214
 21
13.88736626484879
 31
0.0
  0
LINE
  5
746
330
1E
100
AcDbEntity
  8
OBJECT
100
AcDbLine
 10
21.6531689404948
 20
13.77677484203549
 30
0.0
 11
21.64535831031215
 21
13.88736626484879
 31
0.0
  0
LINE
  5
747
330
1E
100
AcDbEntity
  8
OBJECT
100
AcDbLine
 10
21.77735831031214
 20
13.2643662648488
 30
0.0
 11
21.7695476801295
 21
13.37495768766209
 31
0.0
  0
LINE
  5
748
330
1E
100
AcDbEntity
  8
OBJECT
100
AcDbLine
 10
21.68935831031214
 20
13.84186626484878
 30
0.0
 11
21.70019797761042
 21
13.71080483296975
 31
0.0
  0
LINE
  5
749
330
1E
100
AcDbEntity
  8
OBJECT
100
AcDbLine
 10
21.68935831031214
 20
13.2643662648488
 30
0.0
 11
21.68154768012951
 21
13.37495768766209
 31
0.0
  0
LINE
  5
74A
330
1E
100
AcDbEntity
  8
OBJECT
100
AcDbLine
 10
21.81051864301388
 20
13.44092769672782
 30
0.0
 11
21.82135831031213
 21
13.3098662648488
 31
0.0
  0
LINE
  5
74B
330
1E
100
AcDbEntity
  8
OBJECT
100
AcDbLine
 10
21.82916894049478
 20
13.77677484203549
 30
0.0
 11
21.82135831031213
 21
13.88736626484879
 31
0.0
  0
LINE
  5
74C
330
1E
100
AcDbEntity
  8
OBJECT
100
AcDbLine
 10
21.77735831031214
 20
13.84186626484878
 30
0.0
 11
21.78819797761041
 21
13.71080483296975
 31
0.0
  0
LINE
  5
74D
330
1E
100
AcDbEntity
  8
OBJECT
100
AcDbLine
 10
22.12935831031213
 20
13.84186626484878
 30
0.0
 11
22.1401979776104
 21
13.71080483296975
 31
0.0
  0
LINE
  5
74E
330
1E
100
AcDbEntity
  8
OBJECT
100
AcDbLine
 10
22.39335831031215
 20
13.2643662648488
 30
0.0
 11
22.38554768012952
 21
13.37495768766209
 31
0.0
  0
LINE
  5
74F
330
1E
100
AcDbEntity
  8
OBJECT
100
AcDbLine
 10
22.21735831031215
 20
13.2643662648488
 30
0.0
 11
22.2095476801295
 21
13.37495768766209
 31
0.0
  0
LINE
  5
750
330
1E
100
AcDbEntity
  8
OBJECT
100
AcDbLine
 10
22.33851864301387
 20
13.44092769672782
 30
0.0
 11
22.34935831031214
 21
13.3098662648488
 31
0.0
  0
LINE
  5
751
330
1E
100
AcDbEntity
  8
OBJECT
100
AcDbLine
 10
22.35716894049479
 20
13.77677484203549
 30
0.0
 11
22.34935831031214
 21
13.88736626484879
 31
0.0
  0
LINE
  5
752
330
1E
100
AcDbEntity
  8
OBJECT
100
AcDbLine
 10
22.25051864301387
 20
13.44092769672782
 30
0.0
 11
22.26135831031215
 21
13.3098662648488
 31
0.0
  0
LINE
  5
753
330
1E
100
AcDbEntity
  8
OBJECT
100
AcDbLine
 10
22.26916894049478
 20
13.77677484203549
 30
0.0
 11
22.26135831031213
 21
13.88736626484879
 31
0.0
  0
LINE
  5
754
330
1E
100
AcDbEntity
  8
OBJECT
100
AcDbLine
 10
22.30535831031214
 20
13.2643662648488
 30
0.0
 11
22.2975476801295
 21
13.37495768766209
 31
0.0
  0
LINE
  5
755
330
1E
100
AcDbEntity
  8
OBJECT
100
AcDbLine
 10
22.21735831031213
 20
13.84186626484878
 30
0.0
 11
22.22819797761041
 21
13.71080483296975
 31
0.0
  0
LINE
  5
756
330
1E
100
AcDbEntity
  8
OBJECT
100
AcDbLine
 10
22.30535831031213
 20
13.84186626484878
 30
0.0
 11
22.3161979776104
 21
13.71080483296975
 31
0.0
  0
LINE
  5
757
330
1E
100
AcDbEntity
  8
OBJECT
100
AcDbLine
 10
22.16251864301388
 20
13.44092769672782
 30
0.0
 11
22.17335831031214
 21
13.3098662648488
 31
0.0
  0
LINE
  5
758
330
1E
100
AcDbEntity
  8
OBJECT
100
AcDbLine
 10
22.18116894049479
 20
13.77677484203549
 30
0.0
 11
22.17335831031214
 21
13.88736626484879
 31
0.0
  0
LINE
  5
759
330
1E
100
AcDbEntity
  8
OBJECT
100
AcDbLine
 10
22.07451864301388
 20
13.44092769672782
 30
0.0
 11
22.08535831031214
 21
13.3098662648488
 31
0.0
  0
LINE
  5
75A
330
1E
100
AcDbEntity
  8
OBJECT
100
AcDbLine
 10
22.09316894049478
 20
13.77677484203549
 30
0.0
 11
22.08535831031213
 21
13.88736626484879
 31
0.0
  0
LINE
  5
75B
330
1E
100
AcDbEntity
  8
OBJECT
100
AcDbLine
 10
22.04135831031214
 20
13.84186626484878
 30
0.0
 11
22.0521979776104
 21
13.71080483296975
 31
0.0
  0
LINE
  5
75C
330
1E
100
AcDbEntity
  8
OBJECT
100
AcDbLine
 10
22.04135831031215
 20
13.2643662648488
 30
0.0
 11
22.03354768012951
 21
13.37495768766209
 31
0.0
  0
LINE
  5
75D
330
1E
100
AcDbEntity
  8
OBJECT
100
AcDbLine
 10
22.12935831031214
 20
13.2643662648488
 30
0.0
 11
22.12154768012951
 21
13.37495768766209
 31
0.0
  0
LINE
  5
75E
330
1E
100
AcDbEntity
  8
OBJECT
100
AcDbLine
 10
22.60251864301388
 20
13.44092769672782
 30
0.0
 11
22.61335831031213
 21
13.3098662648488
 31
0.0
  0
LINE
  5
75F
330
1E
100
AcDbEntity
  8
OBJECT
100
AcDbLine
 10
22.69051864301386
 20
13.44092769672782
 30
0.0
 11
22.70135831031213
 21
13.3098662648488
 31
0.0
  0
LINE
  5
760
330
1E
100
AcDbEntity
  8
OBJECT
100
AcDbLine
 10
22.77851864301387
 20
13.44092769672782
 30
0.0
 11
22.78935831031214
 21
13.3098662648488
 31
0.0
  0
LINE
  5
761
330
1E
100
AcDbEntity
  8
OBJECT
100
AcDbLine
 10
22.79716894049478
 20
13.77677484203549
 30
0.0
 11
22.78935831031214
 21
13.88736626484879
 31
0.0
  0
LINE
  5
762
330
1E
100
AcDbEntity
  8
OBJECT
100
AcDbLine
 10
22.70916894049479
 20
13.77677484203549
 30
0.0
 11
22.70135831031214
 21
13.88736626484879
 31
0.0
  0
LINE
  5
763
330
1E
100
AcDbEntity
  8
OBJECT
100
AcDbLine
 10
22.62116894049478
 20
13.77677484203549
 30
0.0
 11
22.61335831031213
 21
13.88736626484879
 31
0.0
  0
LINE
  5
764
330
1E
100
AcDbEntity
  8
OBJECT
100
AcDbLine
 10
22.65735831031213
 20
13.2643662648488
 30
0.0
 11
22.6495476801295
 21
13.37495768766209
 31
0.0
  0
LINE
  5
765
330
1E
100
AcDbEntity
  8
OBJECT
100
AcDbLine
 10
22.56935831031214
 20
13.84186626484878
 30
0.0
 11
22.58019797761041
 21
13.71080483296975
 31
0.0
  0
LINE
  5
766
330
1E
100
AcDbEntity
  8
OBJECT
100
AcDbLine
 10
22.65735831031213
 20
13.84186626484878
 30
0.0
 11
22.6681979776104
 21
13.71080483296975
 31
0.0
  0
LINE
  5
767
330
1E
100
AcDbEntity
  8
OBJECT
100
AcDbLine
 10
22.56935831031214
 20
13.2643662648488
 30
0.0
 11
22.56154768012951
 21
13.37495768766209
 31
0.0
  0
LINE
  5
768
330
1E
100
AcDbEntity
  8
OBJECT
100
AcDbLine
 10
22.74535831031214
 20
13.84186626484878
 30
0.0
 11
22.75619797761041
 21
13.71080483296975
 31
0.0
  0
LINE
  5
769
330
1E
100
AcDbEntity
  8
OBJECT
100
AcDbLine
 10
22.74535831031214
 20
13.2643662648488
 30
0.0
 11
22.73754768012951
 21
13.37495768766209
 31
0.0
  0
LINE
  5
76A
330
1E
100
AcDbEntity
  8
OBJECT
100
AcDbLine
 10
22.83335831031214
 20
13.84186626484878
 30
0.0
 11
22.8441979776104
 21
13.71080483296975
 31
0.0
  0
LINE
  5
76B
330
1E
100
AcDbEntity
  8
OBJECT
100
AcDbLine
 10
22.83335831031214
 20
13.2643662648488
 30
0.0
 11
22.8255476801295
 21
13.37495768766209
 31
0.0
  0
LINE
  5
76C
330
1E
100
AcDbEntity
  8
OBJECT
100
AcDbLine
 10
22.86651864301386
 20
13.44092769672782
 30
0.0
 11
22.87735831031213
 21
13.3098662648488
 31
0.0
  0
LINE
  5
76D
330
1E
100
AcDbEntity
  8
OBJECT
100
AcDbLine
 10
22.88516894049479
 20
13.77677484203549
 30
0.0
 11
22.87735831031215
 21
13.88736626484879
 31
0.0
  0
LINE
  5
76E
330
1E
100
AcDbEntity
  8
OBJECT
100
AcDbLine
 10
22.92135831031214
 20
13.84186626484878
 30
0.0
 11
22.93219797761041
 21
13.71080483296975
 31
0.0
  0
LINE
  5
76F
330
1E
100
AcDbEntity
  8
OBJECT
100
AcDbLine
 10
22.92135831031214
 20
13.2643662648488
 30
0.0
 11
22.91354768012951
 21
13.37495768766209
 31
0.0
  0
LINE
  5
770
330
1E
100
AcDbEntity
  8
OBJECT
100
AcDbLine
 10
22.42651864301388
 20
13.44092769672782
 30
0.0
 11
22.43735831031215
 21
13.3098662648488
 31
0.0
  0
LINE
  5
771
330
1E
100
AcDbEntity
  8
OBJECT
100
AcDbLine
 10
22.51451864301387
 20
13.44092769672782
 30
0.0
 11
22.52535831031214
 21
13.3098662648488
 31
0.0
  0
LINE
  5
772
330
1E
100
AcDbEntity
  8
OBJECT
100
AcDbLine
 10
22.53316894049479
 20
13.77677484203549
 30
0.0
 11
22.52535831031214
 21
13.88736626484879
 31
0.0
  0
LINE
  5
773
330
1E
100
AcDbEntity
  8
OBJECT
100
AcDbLine
 10
22.44516894049478
 20
13.77677484203549
 30
0.0
 11
22.43735831031214
 21
13.88736626484879
 31
0.0
  0
LINE
  5
774
330
1E
100
AcDbEntity
  8
OBJECT
100
AcDbLine
 10
22.48135831031214
 20
13.2643662648488
 30
0.0
 11
22.47354768012951
 21
13.37495768766209
 31
0.0
  0
LINE
  5
775
330
1E
100
AcDbEntity
  8
OBJECT
100
AcDbLine
 10
22.48135831031213
 20
13.84186626484878
 30
0.0
 11
22.4921979776104
 21
13.71080483296975
 31
0.0
  0
LINE
  5
776
330
1E
100
AcDbEntity
  8
OBJECT
100
AcDbLine
 10
22.39335831031214
 20
13.84186626484878
 30
0.0
 11
22.40419797761041
 21
13.71080483296975
 31
0.0
  0
LINE
  5
777
330
1E
100
AcDbEntity
  8
OBJECT
100
AcDbLine
 10
20.31451864301388
 20
13.44092769672782
 30
0.0
 11
20.32535831031214
 21
13.3098662648488
 31
0.0
  0
LINE
  5
778
330
1E
100
AcDbEntity
  8
OBJECT
100
AcDbLine
 10
20.33316894049479
 20
13.77677484203549
 30
0.0
 11
20.32535831031214
 21
13.88736626484879
 31
0.0
  0
LINE
  5
779
330
1E
100
AcDbEntity
  8
OBJECT
100
AcDbLine
 10
20.36935831031214
 20
13.2643662648488
 30
0.0
 11
20.3615476801295
 21
13.37495768766209
 31
0.0
  0
LINE
  5
77A
330
1E
100
AcDbEntity
  8
OBJECT
100
AcDbLine
 10
20.28135831031214
 20
13.84186626484878
 30
0.0
 11
20.29219797761041
 21
13.71080483296975
 31
0.0
  0
LINE
  5
77B
330
1E
100
AcDbEntity
  8
OBJECT
100
AcDbLine
 10
20.36935831031214
 20
13.84186626484878
 30
0.0
 11
20.38019797761041
 21
13.71080483296975
 31
0.0
  0
LINE
  5
77C
330
1E
100
AcDbEntity
  8
OBJECT
100
AcDbLine
 10
20.49051864301387
 20
13.44092769672782
 30
0.0
 11
20.50135831031214
 21
13.3098662648488
 31
0.0
  0
LINE
  5
77D
330
1E
100
AcDbEntity
  8
OBJECT
100
AcDbLine
 10
20.57851864301386
 20
13.44092769672782
 30
0.0
 11
20.58935831031214
 21
13.3098662648488
 31
0.0
  0
LINE
  5
77E
330
1E
100
AcDbEntity
  8
OBJECT
100
AcDbLine
 10
20.50916894049479
 20
13.77677484203549
 30
0.0
 11
20.50135831031214
 21
13.88736626484879
 31
0.0
  0
LINE
  5
77F
330
1E
100
AcDbEntity
  8
OBJECT
100
AcDbLine
 10
20.54535831031214
 20
13.2643662648488
 30
0.0
 11
20.53754768012951
 21
13.37495768766209
 31
0.0
  0
LINE
  5
780
330
1E
100
AcDbEntity
  8
OBJECT
100
AcDbLine
 10
20.54535831031214
 20
13.84186626484878
 30
0.0
 11
20.55619797761041
 21
13.71080483296975
 31
0.0
  0
LINE
  5
781
330
1E
100
AcDbEntity
  8
OBJECT
100
AcDbLine
 10
20.63335831031213
 20
13.84186626484878
 30
0.0
 11
20.6441979776104
 21
13.71080483296975
 31
0.0
  0
LINE
  5
782
330
1E
100
AcDbEntity
  8
OBJECT
100
AcDbLine
 10
20.63335831031215
 20
13.2643662648488
 30
0.0
 11
20.62554768012951
 21
13.37495768766209
 31
0.0
  0
LINE
  5
783
330
1E
100
AcDbEntity
  8
OBJECT
100
AcDbLine
 10
20.66651864301389
 20
13.44092769672782
 30
0.0
 11
20.67735831031214
 21
13.3098662648488
 31
0.0
  0
LINE
  5
784
330
1E
100
AcDbEntity
  8
OBJECT
100
AcDbLine
 10
20.68516894049478
 20
13.77677484203549
 30
0.0
 11
20.67735831031213
 21
13.88736626484879
 31
0.0
  0
LINE
  5
785
330
1E
100
AcDbEntity
  8
OBJECT
100
AcDbLine
 10
20.59716894049478
 20
13.77677484203549
 30
0.0
 11
20.58935831031214
 21
13.88736626484879
 31
0.0
  0
LINE
  5
786
330
1E
100
AcDbEntity
  8
OBJECT
100
AcDbLine
 10
20.40251864301388
 20
13.44092769672782
 30
0.0
 11
20.41335831031213
 21
13.3098662648488
 31
0.0
  0
LINE
  5
787
330
1E
100
AcDbEntity
  8
OBJECT
100
AcDbLine
 10
20.42116894049479
 20
13.77677484203549
 30
0.0
 11
20.41335831031215
 21
13.88736626484879
 31
0.0
  0
LINE
  5
788
330
1E
100
AcDbEntity
  8
OBJECT
100
AcDbLine
 10
20.45735831031215
 20
13.84186626484878
 30
0.0
 11
20.46819797761041
 21
13.71080483296975
 31
0.0
  0
LINE
  5
789
330
1E
100
AcDbEntity
  8
OBJECT
100
AcDbLine
 10
20.45735831031215
 20
13.2643662648488
 30
0.0
 11
20.44954768012951
 21
13.37495768766209
 31
0.0
  0
LINE
  5
78A
330
1E
100
AcDbEntity
  8
OBJECT
100
AcDbLine
 10
21.19451864301388
 20
13.44092769672782
 30
0.0
 11
21.20535831031215
 21
13.3098662648488
 31
0.0
  0
LINE
  5
78B
330
1E
100
AcDbEntity
  8
OBJECT
100
AcDbLine
 10
21.37051864301386
 20
13.44092769672782
 30
0.0
 11
21.38135831031214
 21
13.3098662648488
 31
0.0
  0
LINE
  5
78C
330
1E
100
AcDbEntity
  8
OBJECT
100
AcDbLine
 10
21.28251864301387
 20
13.44092769672782
 30
0.0
 11
21.29335831031214
 21
13.3098662648488
 31
0.0
  0
LINE
  5
78D
330
1E
100
AcDbEntity
  8
OBJECT
100
AcDbLine
 10
21.30116894049479
 20
13.77677484203549
 30
0.0
 11
21.29335831031214
 21
13.88736626484879
 31
0.0
  0
LINE
  5
78E
330
1E
100
AcDbEntity
  8
OBJECT
100
AcDbLine
 10
21.21316894049478
 20
13.77677484203549
 30
0.0
 11
21.20535831031213
 21
13.88736626484879
 31
0.0
  0
LINE
  5
78F
330
1E
100
AcDbEntity
  8
OBJECT
100
AcDbLine
 10
21.24935831031215
 20
13.2643662648488
 30
0.0
 11
21.2415476801295
 21
13.37495768766209
 31
0.0
  0
LINE
  5
790
330
1E
100
AcDbEntity
  8
OBJECT
100
AcDbLine
 10
21.24935831031213
 20
13.84186626484878
 30
0.0
 11
21.2601979776104
 21
13.71080483296975
 31
0.0
  0
LINE
  5
791
330
1E
100
AcDbEntity
  8
OBJECT
100
AcDbLine
 10
21.33735831031214
 20
13.84186626484878
 30
0.0
 11
21.34819797761041
 21
13.71080483296975
 31
0.0
  0
LINE
  5
792
330
1E
100
AcDbEntity
  8
OBJECT
100
AcDbLine
 10
21.33735831031214
 20
13.2643662648488
 30
0.0
 11
21.32954768012951
 21
13.37495768766209
 31
0.0
  0
LINE
  5
793
330
1E
100
AcDbEntity
  8
OBJECT
100
AcDbLine
 10
21.38916894049478
 20
13.77677484203549
 30
0.0
 11
21.38135831031214
 21
13.88736626484879
 31
0.0
  0
LINE
  5
794
330
1E
100
AcDbEntity
  8
OBJECT
100
AcDbLine
 10
20.93051864301387
 20
13.44092769672782
 30
0.0
 11
20.94135831031214
 21
13.3098662648488
 31
0.0
  0
LINE
  5
795
330
1E
100
AcDbEntity
  8
OBJECT
100
AcDbLine
 10
21.10651864301387
 20
13.44092769672782
 30
0.0
 11
21.11735831031214
 21
13.3098662648488
 31
0.0
  0
LINE
  5
796
330
1E
100
AcDbEntity
  8
OBJECT
100
AcDbLine
 10
21.01851864301388
 20
13.44092769672782
 30
0.0
 11
21.02935831031215
 21
13.3098662648488
 31
0.0
  0
LINE
  5
797
330
1E
100
AcDbEntity
  8
OBJECT
100
AcDbLine
 10
21.12516894049479
 20
13.77677484203549
 30
0.0
 11
21.11735831031214
 21
13.88736626484879
 31
0.0
  0
LINE
  5
798
330
1E
100
AcDbEntity
  8
OBJECT
100
AcDbLine
 10
21.03716894049478
 20
13.77677484203549
 30
0.0
 11
21.02935831031213
 21
13.88736626484879
 31
0.0
  0
LINE
  5
799
330
1E
100
AcDbEntity
  8
OBJECT
100
AcDbLine
 10
20.94916894049478
 20
13.77677484203549
 30
0.0
 11
20.94135831031214
 21
13.88736626484879
 31
0.0
  0
LINE
  5
79A
330
1E
100
AcDbEntity
  8
OBJECT
100
AcDbLine
 10
21.07335831031214
 20
13.2643662648488
 30
0.0
 11
21.06554768012951
 21
13.37495768766209
 31
0.0
  0
LINE
  5
79B
330
1E
100
AcDbEntity
  8
OBJECT
100
AcDbLine
 10
20.98535831031214
 20
13.84186626484878
 30
0.0
 11
20.99619797761041
 21
13.71080483296975
 31
0.0
  0
LINE
  5
79C
330
1E
100
AcDbEntity
  8
OBJECT
100
AcDbLine
 10
21.07335831031213
 20
13.84186626484878
 30
0.0
 11
21.0841979776104
 21
13.71080483296975
 31
0.0
  0
LINE
  5
79D
330
1E
100
AcDbEntity
  8
OBJECT
100
AcDbLine
 10
20.98535831031215
 20
13.2643662648488
 30
0.0
 11
20.97754768012952
 21
13.37495768766209
 31
0.0
  0
LINE
  5
79E
330
1E
100
AcDbEntity
  8
OBJECT
100
AcDbLine
 10
21.16135831031214
 20
13.84186626484878
 30
0.0
 11
21.17219797761041
 21
13.71080483296975
 31
0.0
  0
LINE
  5
79F
330
1E
100
AcDbEntity
  8
OBJECT
100
AcDbLine
 10
21.16135831031215
 20
13.2643662648488
 30
0.0
 11
21.1535476801295
 21
13.37495768766209
 31
0.0
  0
LINE
  5
7A0
330
1E
100
AcDbEntity
  8
OBJECT
100
AcDbLine
 10
20.89735831031214
 20
13.2643662648488
 30
0.0
 11
20.88954768012951
 21
13.37495768766209
 31
0.0
  0
LINE
  5
7A1
330
1E
100
AcDbEntity
  8
OBJECT
100
AcDbLine
 10
20.89735831031213
 20
13.84186626484878
 30
0.0
 11
20.9081979776104
 21
13.71080483296975
 31
0.0
  0
LINE
  5
7A2
330
1E
100
AcDbEntity
  8
OBJECT
100
AcDbLine
 10
20.84251864301387
 20
13.44092769672782
 30
0.0
 11
20.85335831031215
 21
13.3098662648488
 31
0.0
  0
LINE
  5
7A3
330
1E
100
AcDbEntity
  8
OBJECT
100
AcDbLine
 10
20.86116894049478
 20
13.77677484203549
 30
0.0
 11
20.85335831031213
 21
13.88736626484879
 31
0.0
  0
LINE
  5
7A4
330
1E
100
AcDbEntity
  8
OBJECT
100
AcDbLine
 10
20.80935831031213
 20
13.84186626484878
 30
0.0
 11
20.82019797761041
 21
13.71080483296975
 31
0.0
  0
LINE
  5
7A5
330
1E
100
AcDbEntity
  8
OBJECT
100
AcDbLine
 10
20.80935831031215
 20
13.2643662648488
 30
0.0
 11
20.80154768012952
 21
13.37495768766209
 31
0.0
  0
LINE
  5
7A6
330
1E
100
AcDbEntity
  8
OBJECT
100
AcDbLine
 10
20.77316894049479
 20
13.77677484203549
 30
0.0
 11
20.76535831031214
 21
13.88736626484879
 31
0.0
  0
LINE
  5
7A7
330
1E
100
AcDbEntity
  8
OBJECT
100
AcDbLine
 10
20.75451864301388
 20
13.44092769672782
 30
0.0
 11
20.76535831031214
 21
13.3098662648488
 31
0.0
  0
LINE
  5
7A8
330
1E
100
AcDbEntity
  8
OBJECT
100
AcDbLine
 10
20.72135831031214
 20
13.2643662648488
 30
0.0
 11
20.71354768012951
 21
13.37495768766209
 31
0.0
  0
LINE
  5
7A9
330
1E
100
AcDbEntity
  8
OBJECT
100
AcDbLine
 10
20.72135831031213
 20
13.84186626484878
 30
0.0
 11
20.7321979776104
 21
13.71080483296975
 31
0.0
  0
LINE
  5
7AA
330
1E
100
AcDbEntity
  8
OBJECT
100
AcDbLine
 10
21.54651864301388
 20
13.44092769672782
 30
0.0
 11
21.55735831031214
 21
13.3098662648488
 31
0.0
  0
LINE
  5
7AB
330
1E
100
AcDbEntity
  8
OBJECT
100
AcDbLine
 10
21.56516894049479
 20
13.77677484203549
 30
0.0
 11
21.55735831031214
 21
13.88736626484879
 31
0.0
  0
LINE
  5
7AC
330
1E
100
AcDbEntity
  8
OBJECT
100
AcDbLine
 10
21.60135831031213
 20
13.2643662648488
 30
0.0
 11
21.59354768012951
 21
13.37495768766209
 31
0.0
  0
LINE
  5
7AD
330
1E
100
AcDbEntity
  8
OBJECT
100
AcDbLine
 10
21.51335831031214
 20
13.84186626484878
 30
0.0
 11
21.52419797761041
 21
13.71080483296975
 31
0.0
  0
LINE
  5
7AE
330
1E
100
AcDbEntity
  8
OBJECT
100
AcDbLine
 10
21.51335831031214
 20
13.2643662648488
 30
0.0
 11
21.50554768012951
 21
13.37495768766209
 31
0.0
  0
LINE
  5
7AF
330
1E
100
AcDbEntity
  8
OBJECT
100
AcDbLine
 10
21.45851864301387
 20
13.44092769672782
 30
0.0
 11
21.46935831031213
 21
13.3098662648488
 31
0.0
  0
LINE
  5
7B0
330
1E
100
AcDbEntity
  8
OBJECT
100
AcDbLine
 10
21.47716894049479
 20
13.77677484203549
 30
0.0
 11
21.46935831031214
 21
13.88736626484879
 31
0.0
  0
LINE
  5
7B1
330
1E
100
AcDbEntity
  8
OBJECT
100
AcDbLine
 10
21.42535831031213
 20
13.2643662648488
 30
0.0
 11
21.4175476801295
 21
13.37495768766209
 31
0.0
  0
LINE
  5
7B2
330
1E
100
AcDbEntity
  8
OBJECT
100
AcDbLine
 10
21.42535831031213
 20
13.84186626484878
 30
0.0
 11
21.4361979776104
 21
13.71080483296975
 31
0.0
  0
LINE
  5
7B3
330
1E
100
AcDbEntity
  8
OBJECT
100
AcDbLine
 10
20.22651864301387
 20
13.44092769672782
 30
0.0
 11
20.23735831031213
 21
13.3098662648488
 31
0.0
  0
LINE
  5
7B4
330
1E
100
AcDbEntity
  8
OBJECT
100
AcDbLine
 10
20.24516894049479
 20
13.77677484203549
 30
0.0
 11
20.23735831031215
 21
13.88736626484879
 31
0.0
  0
LINE
  5
7B5
330
1E
100
AcDbEntity
  8
OBJECT
100
AcDbLine
 10
20.19335831031213
 20
13.84186626484878
 30
0.0
 11
20.20419797761041
 21
13.71080483296975
 31
0.0
  0
LINE
  5
7B6
330
1E
100
AcDbEntity
  8
OBJECT
100
AcDbLine
 10
20.19335831031213
 20
13.2643662648488
 30
0.0
 11
20.1855476801295
 21
13.37495768766209
 31
0.0
  0
LINE
  5
7B7
330
1E
100
AcDbEntity
  8
OBJECT
100
AcDbLine
 10
20.05051864301387
 20
13.44092769672782
 30
0.0
 11
20.06135831031213
 21
13.3098662648488
 31
0.0
  0
LINE
  5
7B8
330
1E
100
AcDbEntity
  8
OBJECT
100
AcDbLine
 10
20.13851864301388
 20
13.44092769672782
 30
0.0
 11
20.14935831031214
 21
13.3098662648488
 31
0.0
  0
LINE
  5
7B9
330
1E
100
AcDbEntity
  8
OBJECT
100
AcDbLine
 10
20.15716894049478
 20
13.77677484203549
 30
0.0
 11
20.14935831031214
 21
13.88736626484879
 31
0.0
  0
LINE
  5
7BA
330
1E
100
AcDbEntity
  8
OBJECT
100
AcDbLine
 10
20.06916894049479
 20
13.77677484203549
 30
0.0
 11
20.06135831031214
 21
13.88736626484879
 31
0.0
  0
LINE
  5
7BB
330
1E
100
AcDbEntity
  8
OBJECT
100
AcDbLine
 10
20.10535831031214
 20
13.84186626484878
 30
0.0
 11
20.11619797761041
 21
13.71080483296975
 31
0.0
  0
LINE
  5
7BC
330
1E
100
AcDbEntity
  8
OBJECT
100
AcDbLine
 10
20.10535831031214
 20
13.2643662648488
 30
0.0
 11
20.09754768012951
 21
13.37495768766209
 31
0.0
  0
LINE
  5
7BD
330
1E
100
AcDbEntity
  8
OBJECT
100
AcDbLine
 10
20.01735831031213
 20
13.2643662648488
 30
0.0
 11
20.0095476801295
 21
13.37495768766209
 31
0.0
  0
LINE
  5
7BE
330
1E
100
AcDbEntity
  8
OBJECT
100
AcDbLine
 10
20.01735831031213
 20
13.84186626484878
 30
0.0
 11
20.0281979776104
 21
13.71080483296975
 31
0.0
  0
LINE
  5
7BF
330
1E
100
AcDbEntity
  8
OBJECT
100
AcDbLine
 10
19.98116894049478
 20
13.77677484203549
 30
0.0
 11
19.97335831031214
 21
13.88736626484879
 31
0.0
  0
LINE
  5
7C0
330
1E
100
AcDbEntity
  8
OBJECT
100
AcDbLine
 10
19.96251864301386
 20
13.44092769672782
 30
0.0
 11
19.97335831031214
 21
13.3098662648488
 31
0.0
  0
LWPOLYLINE
  5
7C1
330
1E
100
AcDbEntity
  8
OBJECT
100
AcDbPolyline
 90
      166
 70
     0
 43
0.0
 10
23.50235831031215
 20
13.87805944666697
 10
23.49335831031213
 20
13.88736626484879
 10
23.44935831031214
 20
13.84186626484878
 10
23.40535831031214
 20
13.88736626484879
 10
23.36135831031214
 20
13.84186626484878
 10
23.31735831031215
 20
13.88736626484879
 10
23.27335831031215
 20
13.84186626484878
 10
23.22935831031215
 20
13.88736626484879
 10
23.18535831031214
 20
13.84186626484878
 10
23.14135831031214
 20
13.88736626484879
 10
23.09735831031214
 20
13.84186626484878
 10
23.05335831031215
 20
13.88736626484879
 10
23.00935831031215
 20
13.84186626484878
 10
22.96535831031215
 20
13.88736626484879
 10
22.92135831031216
 20
13.84186626484878
 10
22.87735831031216
 20
13.88736626484879
 10
22.83335831031215
 20
13.84186626484878
 10
22.78935831031215
 20
13.88736626484879
 10
22.74535831031216
 20
13.84186626484878
 10
22.70135831031216
 20
13.88736626484879
 10
22.65735831031215
 20
13.84186626484878
 10
22.61335831031215
 20
13.88736626484879
 10
22.56935831031215
 20
13.84186626484878
 10
22.52535831031216
 20
13.88736626484879
 10
22.48135831031214
 20
13.84186626484878
 10
22.43735831031215
 20
13.88736626484879
 10
22.39335831031215
 20
13.84186626484878
 10
22.34935831031215
 20
13.88736626484879
 10
22.30535831031214
 20
13.84186626484878
 10
22.26135831031215
 20
13.88736626484879
 10
22.21735831031215
 20
13.84186626484878
 10
22.17335831031215
 20
13.88736626484879
 10
22.12935831031214
 20
13.84186626484878
 10
22.08535831031214
 20
13.88736626484879
 10
22.04135831031215
 20
13.84186626484878
 10
21.99735831031215
 20
13.88736626484879
 10
21.95335831031214
 20
13.84186626484878
 10
21.90935831031214
 20
13.88736626484879
 10
21.86535831031215
 20
13.84186626484878
 10
21.82135831031215
 20
13.88736626484879
 10
21.77735831031214
 20
13.84186626484878
 10
21.73335831031214
 20
13.88736626484879
 10
21.68935831031214
 20
13.84186626484878
 10
21.64535831031215
 20
13.88736626484879
 10
21.60135831031215
 20
13.84186626484878
 10
21.55735831031215
 20
13.88736626484879
 10
21.51335831031216
 20
13.84186626484878
 10
21.46935831031216
 20
13.88736626484879
 10
21.42535831031215
 20
13.84186626484878
 10
21.38135831031215
 20
13.88736626484879
 10
21.33735831031216
 20
13.84186626484878
 10
21.29335831031216
 20
13.88736626484879
 10
21.24935831031215
 20
13.84186626484878
 10
21.20535831031215
 20
13.88736626484879
 10
21.16135831031215
 20
13.84186626484878
 10
21.11735831031216
 20
13.88736626484879
 10
21.07335831031214
 20
13.84186626484878
 10
21.02935831031215
 20
13.88736626484879
 10
20.98535831031215
 20
13.84186626484878
 10
20.94135831031215
 20
13.88736626484879
 10
20.89735831031214
 20
13.84186626484878
 10
20.85335831031215
 20
13.88736626484879
 10
20.80935831031215
 20
13.84186626484878
 10
20.76535831031215
 20
13.88736626484879
 10
20.72135831031214
 20
13.84186626484878
 10
20.67735831031214
 20
13.88736626484879
 10
20.63335831031215
 20
13.84186626484878
 10
20.58935831031215
 20
13.88736626484879
 10
20.54535831031214
 20
13.84186626484878
 10
20.50135831031214
 20
13.88736626484879
 10
20.45735831031215
 20
13.84186626484878
 10
20.41335831031215
 20
13.88736626484879
 10
20.36935831031215
 20
13.84186626484878
 10
20.32535831031216
 20
13.88736626484879
 10
20.28135831031216
 20
13.84186626484878
 10
20.23735831031216
 20
13.88736626484879
 10
20.19335831031215
 20
13.84186626484878
 10
20.14935831031215
 20
13.88736626484879
 10
20.10535831031215
 20
13.84186626484878
 10
20.06135831031216
 20
13.88736626484879
 10
20.01735831031214
 20
13.84186626484878
 10
19.97335831031215
 20
13.88736626484879
 10
19.94235831031214
 20
13.85530944666697
 10
19.94235831031214
 20
13.27780944666696
 10
19.97335831031215
 20
13.3098662648488
 10
20.01735831031214
 20
13.2643662648488
 10
20.06135831031216
 20
13.3098662648488
 10
20.10535831031215
 20
13.2643662648488
 10
20.14935831031215
 20
13.3098662648488
 10
20.19335831031215
 20
13.2643662648488
 10
20.23735831031216
 20
13.3098662648488
 10
20.28135831031216
 20
13.2643662648488
 10
20.32535831031216
 20
13.3098662648488
 10
20.36935831031215
 20
13.2643662648488
 10
20.41335831031216
 20
13.3098662648488
 10
20.45735831031216
 20
13.2643662648488
 10
20.50135831031215
 20
13.3098662648488
 10
20.54535831031215
 20
13.2643662648488
 10
20.58935831031216
 20
13.3098662648488
 10
20.63335831031216
 20
13.2643662648488
 10
20.67735831031216
 20
13.3098662648488
 10
20.72135831031216
 20
13.2643662648488
 10
20.76535831031216
 20
13.3098662648488
 10
20.80935831031216
 20
13.2643662648488
 10
20.85335831031216
 20
13.3098662648488
 10
20.89735831031215
 20
13.2643662648488
 10
20.94135831031217
 20
13.3098662648488
 10
20.98535831031216
 20
13.2643662648488
 10
21.02935831031216
 20
13.3098662648488
 10
21.07335831031216
 20
13.2643662648488
 10
21.11735831031216
 20
13.3098662648488
 10
21.16135831031215
 20
13.2643662648488
 10
21.20535831031215
 20
13.3098662648488
 10
21.24935831031215
 20
13.2643662648488
 10
21.29335831031216
 20
13.3098662648488
 10
21.33735831031216
 20
13.2643662648488
 10
21.38135831031215
 20
13.3098662648488
 10
21.42535831031215
 20
13.2643662648488
 10
21.46935831031216
 20
13.3098662648488
 10
21.51335831031216
 20
13.2643662648488
 10
21.55735831031215
 20
13.3098662648488
 10
21.60135831031215
 20
13.2643662648488
 10
21.64535831031216
 20
13.3098662648488
 10
21.68935831031216
 20
13.2643662648488
 10
21.73335831031216
 20
13.3098662648488
 10
21.77735831031215
 20
13.2643662648488
 10
21.82135831031216
 20
13.3098662648488
 10
21.86535831031216
 20
13.2643662648488
 10
21.90935831031216
 20
13.3098662648488
 10
21.95335831031215
 20
13.2643662648488
 10
21.99735831031217
 20
13.3098662648488
 10
22.04135831031216
 20
13.2643662648488
 10
22.08535831031216
 20
13.3098662648488
 10
22.12935831031216
 20
13.2643662648488
 10
22.17335831031217
 20
13.3098662648488
 10
22.21735831031216
 20
13.2643662648488
 10
22.26135831031216
 20
13.3098662648488
 10
22.30535831031216
 20
13.2643662648488
 10
22.34935831031215
 20
13.3098662648488
 10
22.39335831031215
 20
13.2643662648488
 10
22.43735831031215
 20
13.3098662648488
 10
22.48135831031214
 20
13.2643662648488
 10
22.52535831031216
 20
13.3098662648488
 10
22.56935831031215
 20
13.2643662648488
 10
22.61335831031215
 20
13.3098662648488
 10
22.65735831031215
 20
13.2643662648488
 10
22.70135831031216
 20
13.3098662648488
 10
22.74535831031216
 20
13.2643662648488
 10
22.78935831031215
 20
13.3098662648488
 10
22.83335831031215
 20
13.2643662648488
 10
22.87735831031216
 20
13.3098662648488
 10
22.92135831031216
 20
13.2643662648488
 10
22.96535831031215
 20
13.3098662648488
 10
23.00935831031215
 20
13.2643662648488
 10
23.05335831031216
 20
13.3098662648488
 10
23.09735831031216
 20
13.2643662648488
 10
23.14135831031216
 20
13.3098662648488
 10
23.18535831031215
 20
13.2643662648488
 10
23.22935831031216
 20
13.3098662648488
 10
23.27335831031216
 20
13.2643662648488
 10
23.31735831031216
 20
13.3098662648488
 10
23.36135831031215
 20
13.2643662648488
 10
23.40535831031215
 20
13.3098662648488
 10
23.44935831031215
 20
13.2643662648488
 10
23.49335831031214
 20
13.3098662648488
 10
23.50235831031215
 20
13.30055944666699
  0
LINE
  5
869
330
1E
100
AcDbEntity
  8
OBJECT
100
AcDbLine
 10
23.60235831031214
 20
13.97903018267749
 30
0.0
 11
23.60235831031214
 21
14.05803018267748
 31
0.0
  0
LINE
  5
86A
330
1E
100
AcDbEntity
  8
OBJECT
100
AcDbLine
 10
23.50235831031215
 20
14.05803018267748
 30
0.0
 11
23.50235831031215
 21
28.05003018267758
 31
0.0
  0
LINE
  5
86B
330
1E
100
AcDbEntity
  8
OBJECT
100
AcDbLine
 10
23.50235831031215
 20
14.18253018267749
 30
0.0
 11
26.45650791781203
 21
14.21753018267746
 31
0.0
  0
LWPOLYLINE
  5
86C
330
1E
100
AcDbEntity
  8
OBJECT
100
AcDbPolyline
 90
        4
 70
     0
 43
0.0
 10
23.50235831031213
 20
14.1005301826775
 10
23.70235831031214
 20
14.1005301826775
 10
23.70235831031214
 20
13.9215301826775
 10
23.50235831031215
 20
13.9215301826775
  0
LINE
  5
872
330
1E
100
AcDbEntity
  8
OBJECT
100
AcDbLine
 10
26.45650791781212
 20
13.90952460286267
 30
0.0
 11
23.81235831031218
 21
13.90952460286266
 31
0.0
  0
LINE
  5
873
330
1E
100
AcDbEntity
  8
OBJECT
100
AcDbLine
 10
26.45650791781205
 20
13.2385301826775
 30
0.0
 11
23.81235831031218
 21
13.2385301826775
 31
0.0
  0
LINE
  5
874
330
1E
100
AcDbEntity
  8
OBJECT
100
AcDbLine
 10
26.45650791781209
 20
13.6340128442885
 30
0.0
 11
23.81235831031218
 21
13.6340128442885
 31
0.0
  0
LINE
  5
875
330
1E
100
AcDbEntity
  8
OBJECT
100
AcDbLine
 10
23.81235831031218
 20
13.2385301826775
 30
0.0
 11
23.81235831031218
 21
13.90952460286266
 31
0.0
  0
LINE
  5
876
330
1E
100
AcDbEntity
  8
OBJECT
100
AcDbLine
 10
23.81235831031218
 20
13.88538939944662
 30
0.0
 11
23.50235831031215
 21
13.88538939944662
 31
0.0
  0
LINE
  5
877
330
1E
100
AcDbEntity
  8
OBJECT
100
AcDbLine
 10
23.81235831031218
 20
13.53183600885334
 30
0.0
 11
23.50235831031215
 21
13.53183600885334
 31
0.0
  0
LINE
  5
878
330
1E
100
AcDbEntity
  8
OBJECT
100
AcDbLine
 10
23.81235831031218
 20
13.2666709659084
 30
0.0
 11
23.50235831031215
 21
13.2666709659084
 31
0.0
  0
LWPOLYLINE
  5
879
330
1E
100
AcDbEntity
  8
BEND
  6
PHANTOM2
100
AcDbPolyline
 90
        6
 70
     0
 43
0.0
 10
27.02835831031213
 20
20.5695301826777
 10
22.15902699960341
 20
20.56953018267758
 10
21.93167185659455
 20
21.1013216279439
 10
21.79805412349638
 20
19.95641984910709
 10
21.56533776152789
 20
20.56953018267769
 10
19.19235831031216
 20
20.56953018267769
  0
INSERT
  5
881
330
1E
100
AcDbEntity
  8
OBJECT
100
AcDbBlockReference
  2
*X1
 10
23.60235831031216
 20
13.08903018267754
 30
0.0
 41
-1.0
1001
ACAD
1000
HATCH
1002
{
1070
    16
1000
PLASTI
1040
2.0
1040
2.356194490192344
1002
}
  0
LINE
  5
882
330
1E
100
AcDbEntity
  8
OBJECT
100
AcDbLine
 10
26.51735831031212
 20
20.56953018267769
 30
0.0
 11
26.51735831031212
 21
14.27838057517746
 31
0.0
  0
ARC
  5
883
330
1E
100
AcDbEntity
  8
OBJECT
100
AcDbCircle
 10
26.45650791781203
 20
14.27838057517746
 30
0.0
 40
0.0608503925
100
AcDbArc
 50
269.9999999999998
 51
0.0
  0
INSERT
  5
884
330
1E
100
AcDbEntity
  8
OBJECT
100
AcDbBlockReference
  2
*X2
 10
26.65335831031204
 20
13.1190301826775
 30
0.0
 41
-1.0
1001
ACAD
1000
HATCH
1002
{
1070
    16
1000
PLASTI
1040
2.0
1040
0.7853981633974483
1002
}
  0
TEXT
  5
885
330
1E
100
AcDbEntity
  8
TEXT
100
AcDbText
 10
9.491607110680289
 20
43.89856171117563
 30
0.0
 40
0.8437491562499999
  1
NON-METALLIC ENCLOSURE (STYLE D)
 41
0.75
 72
     4
 11
19.19472240755528
 21
44.32043628930062
 31
0.0
100
AcDbText
  0
TEXT
  5
886
330
1E
100
AcDbEntity
  8
TEXT
100
AcDbText
 10
44.01611988935171
 20
43.89856171117564
 30
0.0
 40
0.8437491562499999
  1
NBD-10452 & NBD-10472 & NBD-15452
 41
0.75
 72
     4
 11
53.93017247528921
 21
44.32043628930064
 31
0.0
100
AcDbText
  0
TEXT
  5
887
330
1E
100
AcDbEntity
  8
TEXT
100
AcDbText
 10
20.17852472942093
 20
9.749015259198877
 30
0.0
 40
0.5624994374999998
  1
%%UNOTE:%%u COVER ATTACHES WITH PHILLIPS DRIVE
 41
0.75
100
AcDbText
  0
TEXT
  5
888
330
1E
100
AcDbEntity
  8
TEXT
100
AcDbText
 10
22.44174985362961
 20
8.811517134198844
 30
0.0
 40
0.5624994374999999
  1
NON-METALLIC SCREWS.  (NOT SHOWN)
 41
0.75
100
AcDbText
  0
TEXT
  5
889
330
1E
100
AcDbEntity
  8
TEXT
100
AcDbText
 10
41.3879739923093
 20
39.59896625179228
 30
0.0
 40
0.5624994374999999
  1
AIR AND MOISTURE VENTS, STAINLESS
 41
0.75
100
AcDbText
  0
TEXT
  5
88A
330
1E
100
AcDbEntity
  8
TEXT
100
AcDbText
 10
41.3879739923093
 20
38.66127966247978
 30
0.0
 40
0.5624994375
  1
STEEL LOCKING HASP, PANEL MOUNTING
 41
0.75
100
AcDbText
  0
TEXT
  5
88B
330
1E
100
AcDbEntity
  8
TEXT
100
AcDbText
 10
41.3879739923093
 20
37.72359307316728
 30
0.0
 40
0.5624994375
  1
RAILS, GALVANIZED STEEL INNER PANEL
 41
0.75
100
AcDbText
  0
TEXT
  5
88C
330
1E
100
AcDbEntity
  8
TEXT
100
AcDbText
 10
41.3879739923093
 20
36.78703148385477
 30
0.0
 40
0.5624994375
  1
AND STAINLESS STEEL WALL MOUNTING
 41
0.75
100
AcDbText
  0
TEXT
  5
88D
330
1E
100
AcDbEntity
  8
TEXT
100
AcDbText
 10
41.3879739923093
 20
35.84934489454228
 30
0.0
 40
0.5624994375
  1
BRACKETS ARE NOT INCLUDED, BUT CAN
 41
0.75
100
AcDbText
  0
TEXT
  5
88E
330
1E
100
AcDbEntity
  8
TEXT
100
AcDbText
 10
41.3879739923093
 20
34.91278330522978
 30
0.0
 40
0.5624994375
  1
BE PURCHASED SEPARATELY.
 41
0.75
100
AcDbText
  0
INSERT
  5
88F
330
1E
100
AcDbEntity
  8
TITLE
100
AcDbBlockReference
  2
HBS
 10
0.0000000000000142
 20
0.0
 30
0.0
 41
4.5
 42
4.5
 43
4.5
  0
TEXT
  5
890
330
1E
100
AcDbEntity
  8
TEXT
100
AcDbText
 10
17.79548742442198
 20
2.351526614920965
 30
0.0
 40
0.562500246093858
  1
B
 41
0.75
 72
     4
 11
17.93611248594545
 21
2.632776737967894
 31
0.0
100
AcDbText
  0
TEXT
  5
891
330
1E
100
AcDbEntity
  8
TEXT
100
AcDbText
 10
20.58116742442197
 20
2.351526614920965
 30
0.0
 40
0.562500246093858
  1
C
 41
0.75
 72
     4
 11
20.72179248594544
 21
2.632776737967894
 31
0.0
100
AcDbText
  0
TEXT
  5
892
330
1E
100
AcDbEntity
  8
TEXT
100
AcDbText
 10
23.36684742442197
 20
2.351526614920965
 30
0.0
 40
0.562500246093858
  1
D
 41
0.75
 72
     4
 11
23.50747248594544
 21
2.632776737967894
 31
0.0
100
AcDbText
  0
TEXT
  5
893
330
1E
100
AcDbEntity
  8
TEXT
100
AcDbText
 10
26.15252742442197
 20
2.351526614920965
 30
0.0
 40
0.562500246093858
  1
E
 41
0.75
 72
     4
 11
26.29315248594544
 21
2.632776737967894
 31
0.0
100
AcDbText
  0
TEXT
  5
894
330
1E
100
AcDbEntity
  8
TEXT
100
AcDbText
 10
28.93820742442198
 20
2.351526614920965
 30
0.0
 40
0.562500246093858
  1
F
 41
0.75
 72
     4
 11
29.07883248594544
 21
2.632776737967894
 31
0.0
100
AcDbText
  0
TEXT
  5
895
330
1E
100
AcDbEntity
  8
TEXT
100
AcDbText
 10
31.72388742442198
 20
2.351526614920965
 30
0.0
 40
0.562500246093858
  1
G
 41
0.75
 72
     4
 11
31.86451248594544
 21
2.632776737967894
 31
0.0
100
AcDbText
  0
TEXT
  5
896
330
1E
100
AcDbEntity
  8
TEXT
100
AcDbText
 10
34.50956742442197
 20
2.351526614920965
 30
0.0
 40
0.562500246093858
  1
H
 41
0.75
 72
     4
 11
34.65019248594543
 21
2.632776737967894
 31
0.0
100
AcDbText
  0
TEXT
  5
897
330
1E
100
AcDbEntity
  8
TEXT
100
AcDbText
 10
37.29524742442198
 20
2.351526614920965
 30
0.0
 40
0.562500246093858
  1
J
 41
0.75
 72
     4
 11
37.43587248594545
 21
2.632776737967894
 31
0.0
100
AcDbText
  0
TEXT
  5
898
330
1E
100
AcDbEntity
  8
TEXT
100
AcDbText
 10
40.08092742442197
 20
2.351526614920965
 30
0.0
 40
0.562500246093858
  1
K
 41
0.75
 72
     4
 11
40.22155248594544
 21
2.632776737967894
 31
0.0
100
AcDbText
  0
TEXT
  5
899
330
1E
100
AcDbEntity
  8
TEXT
100
AcDbText
 10
42.86660742442198
 20
2.351526614920965
 30
0.0
 40
0.562500246093858
  1
L
 41
0.75
 72
     4
 11
43.00723248594545
 21
2.632776737967894
 31
0.0
100
AcDbText
  0
TEXT
  5
89A
330
1E
100
AcDbEntity
  8
TEXT
100
AcDbText
 10
45.65228742442198
 20
2.351526614920965
 30
0.0
 40
0.562500246093858
  1
M
 41
0.75
 72
     4
 11
45.79291248594545
 21
2.632776737967894
 31
0.0
100
AcDbText
  0
TEXT
  5
89B
330
1E
100
AcDbEntity
  8
TEXT
100
AcDbText
 10
48.43796742442197
 20
2.351526614920965
 30
0.0
 40
0.562500246093858
  1
N
 41
0.75
 72
     4
 11
48.57859248594544
 21
2.632776737967894
 31
0.0
100
AcDbText
  0
TEXT
  5
89C
330
1E
100
AcDbEntity
  8
TEXT
100
AcDbText
 10
51.22364742442198
 20
2.351526614920965
 30
0.0
 40
0.562500246093858
  1
P
 41
0.75
 72
     4
 11
51.36427248594545
 21
2.632776737967894
 31
0.0
100
AcDbText
  0
TEXT
  5
89D
330
1E
100
AcDbEntity
  8
TEXT
100
AcDbText
 10
54.009327424422
 20
2.351526614920965
 30
0.0
 40
0.562500246093858
  1
R
 41
0.75
 72
     4
 11
54.14995248594546
 21
2.632776737967894
 31
0.0
100
AcDbText
  0
TEXT
  5
89E
330
1E
100
AcDbEntity
  8
TEXT
100
AcDbText
 10
56.79500742442198
 20
2.351526614920965
 30
0.0
 40
0.562500246093858
  1
S
 41
0.75
 72
     4
 11
56.93563248594545
 21
2.632776737967894
 31
0.0
100
AcDbText
  0
TEXT
  5
89F
330
1E
100
AcDbEntity
  8
TEXT
100
AcDbText
 10
59.58068742442199
 20
2.351526614920965
 30
0.0
 40
0.562500246093858
  1
T
 41
0.75
 72
     4
 11
59.72131248594545
 21
2.632776737967894
 31
0.0
100
AcDbText
  0
TEXT
  5
8A0
330
1E
100
AcDbEntity
  8
TEXT
100
AcDbText
 10
62.36636742442198
 20
2.351526614920965
 30
0.0
 40
0.562500246093858
  1
U
 41
0.75
 72
     4
 11
62.50699248594544
 21
2.632776737967894
 31
0.0
100
AcDbText
  0
TEXT
  5
8A1
330
1E
100
AcDbEntity
  8
TEXT
100
AcDbText
 10
65.08173489366026
 20
2.351526614920965
 30
0.0
 40
0.562500246093858
  1
V
 41
0.75
 72
     4
 11
65.29267248594544
 21
2.632776737967894
 31
0.0
100
AcDbText
  0
TEXT
  5
8A2
330
1E
100
AcDbEntity
  8
TEXT
100
AcDbText
 10
67.86741489366026
 20
2.351526614920965
 30
0.0
 40
0.562500246093858
  1
W
 41
0.75
 72
     4
 11
68.07835248594546
 21
2.632776737967894
 31
0.0
100
AcDbText
  0
TEXT
  5
8A3
330
1E
100
AcDbEntity
  8
TEXT
100
AcDbText
 10
15.01013974339388
 20
2.352191252864762
 30
0.0
 40
0.5611709702062645
  1
A
 41
0.75
 72
     4
 11
15.15043248594544
 21
2.632776737967894
 31
0.0
100
AcDbText
  0
LINE
  5
8A4
330
1E
100
AcDbEntity
  8
TITLE
100
AcDbLine
 10
69.47099999999998
 20
2.162021390374313
 30
0.0
 11
0.2790000000000106
 21
2.162021390374313
 31
0.0
  0
LINE
  5
8A5
330
1E
100
AcDbEntity
  8
TITLE
100
AcDbLine
 10
69.47099999999998
 20
3.103532085561489
 30
0.0
 11
13.75759248594545
 21
3.103532085561489
 31
0.0
  0
LINE
  5
8A6
330
1E
100
AcDbEntity
  8
TITLE
100
AcDbLine
 10
13.75759248594545
 20
4.045042780748637
 30
0.0
 11
0.2790000000000248
 21
4.045042780748673
 31
0.0
  0
TEXT
  5
8A7
330
1E
100
AcDbEntity
  8
TEXT
100
AcDbText
 10
0.7935305827750624
 20
0.9284103431400296
 30
0.0
 40
0.5625000000000001
  1
NBD-10452
 41
0.75
 72
     1
 11
2.516186832775062
 21
0.9284103431400296
 31
0.0
100
AcDbText
  0
TEXT
  5
8A8
330
1E
100
AcDbEntity
  8
TEXT
100
AcDbText
 10
1.461499332775062
 20
2.343160420014676
 30
0.0
 40
0.5625000000000001
  1
COVER
 41
0.75
 72
     1
 11
2.516186832775062
 21
2.343160420014676
 31
0.0
100
AcDbText
  0
TEXT
  5
8A9
330
1E
100
AcDbEntity
  8
TEXT
100
AcDbText
 10
1.602124332775062
 20
3.303346101120645
 30
0.0
 40
0.5625000000000001
  1
SOLID
 41
0.75
 72
     1
 11
2.516186832775062
 21
3.303346101120645
 31
0.0
100
AcDbText
  0
TEXT
  5
8AA
330
1E
100
AcDbEntity
  8
TEXT
100
AcDbText
 10
3.28790546340916
 20
4.24066986399395
 30
0.0
 40
0.5625000000000001
  1
PART NO.
 41
0.75
 72
     1
 11
4.76446796340916
 21
4.24066986399395
 31
0.0
100
AcDbText
  0
TEXT
  5
8AB
330
1E
100
AcDbEntity
  8
TEXT
100
AcDbText
 10
5.958061594043208
 20
2.343160420014676
 30
0.0
 40
0.5625000000000001
  1
COVER
 41
0.75
 72
     1
 11
7.012749094043208
 21
2.343160420014676
 31
0.0
100
AcDbText
  0
TEXT
  5
8AC
330
1E
100
AcDbEntity
  8
TEXT
100
AcDbText
 10
6.028374094043208
 20
3.303346101120645
 30
0.0
 40
0.5625000000000001
  1
CLEAR
 41
0.75
 72
     1
 11
7.012749094043208
 21
3.303346101120645
 31
0.0
100
AcDbText
  0
TEXT
  5
8AD
330
1E
100
AcDbEntity
  8
TEXT
100
AcDbText
 10
5.290092844043208
 20
0.9284103431400296
 30
0.0
 40
0.5625000000000001
  1
NBD-10472
 41
0.75
 72
     1
 11
7.012749094043208
 21
0.9284103431400296
 31
0.0
100
AcDbText
  0
LINE
  5
8AE
330
1E
100
AcDbEntity
  8
TITLE
100
AcDbLine
 10
69.47099999999998
 20
4.986553475935821
 30
0.0
 11
0.2790000000000106
 21
4.986553475935821
 31
0.0
  0
TEXT
  5
8AF
330
1E
100
AcDbEntity
  8
TEXT
100
AcDbText
 10
39.24210498594544
 20
3.693592780748694
 30
0.0
 40
0.7029000000000001
  1
DIMENSIONS
 41
0.75
 72
     4
 11
41.61439248594544
 21
4.045042780748694
 31
0.0
100
AcDbText
  0
TEXT
  5
8B0
330
1E
100
AcDbEntity
  8
TEXT
100
AcDbText
 10
35.63818649518713
 20
5.765256166359414
 30
0.0
 40
0.5631016042780752
  1
DIMENSIONS =
 41
0.75
100
AcDbText
  0
TEXT
  5
8B1
330
1E
100
AcDbEntity
  8
TEXT
100
AcDbText
 10
41.90649170358589
 20
6.248480660388729
 30
0.0
 40
0.5631016042780752
  1
INCHES
 41
0.75
 72
     1
 11
43.03269491214204
 21
6.248480660388729
 31
0.0
100
AcDbText
  0
TEXT
  5
8B2
330
1E
100
AcDbEntity
  8
TEXT
100
AcDbText
 10
40.63951309396023
 20
5.309977986591938
 30
0.0
 40
0.5631016042780752
  1
[MILLIMETERS]
 41
0.75
 72
     1
 11
43.03269491214204
 21
5.309977986591938
 31
0.0
100
AcDbText
  0
TEXT
  5
8B3
330
1E
100
AcDbEntity
  8
TEXT
100
AcDbText
 10
56.87945392310616
 20
42.41165284110451
 30
0.0
 40
0.5624999999999999
  1
%%UINDUSTRY STANDARDS:
 41
0.75
100
AcDbText
  0
TEXT
  5
8B4
330
1E
100
AcDbEntity
  8
TEXT
100
AcDbText
 10
57.44092370332591
 20
40.5366528411045
 30
0.0
 40
0.5624999999999999
  1
UL508 TYPE 1, 2, 4, 4X INDOOR,
 41
0.75
100
AcDbText
  0
TEXT
  5
8B5
330
1E
100
AcDbEntity
  8
TEXT
100
AcDbText
 10
57.44092370332591
 20
38.66165284110449
 30
0.0
 40
0.5624999999999999
  1
NEMA TYPE 1, 2, 4, 4X, 12 & 13
 41
0.75
100
AcDbText
  0
TEXT
  5
8B6
330
1E
100
AcDbEntity
  8
TEXT
100
AcDbText
 10
57.44092370332591
 20
37.72415284110451
 30
0.0
 40
0.5624999999999999
  1
IEC529-IP65
 41
0.75
100
AcDbText
  0
TEXT
  5
8B7
330
1E
100
AcDbEntity
  8
TEXT
100
AcDbText
 10
11.6181567318473
 20
39.60491115647418
 30
0.0
 40
0.5624999999999999
  1
UL94-5VB FLAMMABILITY RATING
 41
0.75
100
AcDbText
  0
TEXT
  5
8B9
330
1E
100
AcDbEntity
  8
TEXT
100
AcDbText
 10
14.77809855917676
 20
6.255419574378038
 30
0.0
 40
0.5631016042780752
  1
%%UNOTE%%U: ALL DIMENSIONS HAVE %%P0.039 [%%P1] TOLERANCE
 41
0.75
100
AcDbText
  0
TEXT
  5
8BA
330
1E
100
AcDbEntity
  8
TEXT
100
AcDbText
 10
16.58286140002435
 20
5.34278407972561
 30
0.0
 40
0.5631016042780752
  1
 UNLESS OTHERWISE SPECIFIED
 41
0.75
100
AcDbText
  0
LINE
  5
8BB
330
1E
100
AcDbEntity
  8
TITLE
100
AcDbLine
 10
69.47099999999998
 20
1.220510695187151
 30
0.0
 11
13.75759248594542
 21
1.220510695187151
 31
0.0
  0
TEXT
  5
8BC
330
1E
100
AcDbEntity
  8
TEXT
100
AcDbText
 10
11.6181567318473
 20
36.80392778721357
 30
0.0
 40
0.5624999999999999
  1
UL94V-0 FLAMMABILITY RATING
 41
0.75
100
AcDbText
  0
LINE
  5
8BD
330
1E
100
AcDbEntity
  8
TITLE
100
AcDbLine
 10
4.764467963409131
 20
0.2790000000000052
 30
0.0
 11
4.76446796340916
 21
4.045042780748673
 31
0.0
  0
LINE
  5
8BE
330
1E
100
AcDbEntity
  8
TITLE
100
AcDbLine
 10
13.75759248594546
 20
6.869574866310158
 30
0.0
 11
0.2790000000000248
 21
6.869574866310159
 31
0.0
  0
TEXT
  5
8BF
330
1E
100
AcDbEntity
  8
TEXT
100
AcDbText
 10
3.501216265643357
 20
6.127878186682153
 30
0.0
 40
0.5625000000000001
  1
INDOOR
 41
0.75
 72
     1
 11
4.626216265643357
 21
6.127878186682153
 31
0.0
100
AcDbText
  0
TEXT
  5
8C0
330
1E
100
AcDbEntity
  8
TEXT
100
AcDbText
 10
3.219966265643357
 20
5.167692505576184
 30
0.0
 40
0.5625000000000001
  1
VERSION
 41
0.75
 72
     1
 11
4.626216265643357
 21
5.167692505576184
 31
0.0
100
AcDbText
  0
TEXT
  5
8C1
330
1E
100
AcDbEntity
  8
TEXT
100
AcDbText
 10
10.45462385531137
 20
2.343160420014648
 30
0.0
 40
0.5625000000000001
  1
COVER
 41
0.75
 72
     1
 11
11.50931135531137
 21
2.343160420014648
 31
0.0
100
AcDbText
  0
TEXT
  5
8C2
330
1E
100
AcDbEntity
  8
TEXT
100
AcDbText
 10
9.751498855311353
 20
0.9284103431400296
 30
0.0
 40
0.5625000000000001
  1
NBD-15452
 41
0.75
 72
     1
 11
11.50931135531135
 21
0.9284103431400296
 31
0.0
100
AcDbText
  0
TEXT
  5
8C3
330
1E
100
AcDbEntity
  8
TEXT
100
AcDbText
 10
10.59524885531137
 20
3.303346101120645
 30
0.0
 40
0.5625000000000001
  1
SOLID
 41
0.75
 72
     1
 11
11.50931135531137
 21
3.303346101120645
 31
0.0
100
AcDbText
  0
TEXT
  5
8C4
330
1E
100
AcDbEntity
  8
TEXT
100
AcDbText
 10
10.10306135531137
 20
5.167692505576184
 30
0.0
 40
0.5625000000000001
  1
VERSION
 41
0.75
 72
     1
 11
11.50931135531137
 21
5.167692505576184
 31
0.0
100
AcDbText
  0
TEXT
  5
8C5
330
1E
100
AcDbEntity
  8
TEXT
100
AcDbText
 10
10.10306135531137
 20
6.127878186682153
 30
0.0
 40
0.5625000000000001
  1
OUTDOOR
 41
0.75
 72
     1
 11
11.50931135531137
 21
6.127878186682153
 31
0.0
100
AcDbText
  0
TEXT
  5
8C6
330
1E
100
AcDbEntity
  8
TEXT
100
AcDbText
 10
10.03274885531137
 20
4.240669863993929
 30
0.0
 40
0.5625000000000001
  1
PART NO.
 41
0.75
 72
     1
 11
11.50931135531137
 21
4.240669863993929
 31
0.0
100
AcDbText
  0
TEXT
  5
8C7
330
1E
100
AcDbEntity
  8
TEXT
100
AcDbText
 10
57.44092370332591
 20
41.47415284110453
 30
0.0
 40
0.5624999999999999
  1
%%uINDOOR VERSION
 41
0.75
100
AcDbText
  0
TEXT
  5
8C8
330
1E
100
AcDbEntity
  8
TEXT
100
AcDbText
 10
57.44092370332591
 20
34.02232884309424
 30
0.0
 40
0.5624999999999999
  1
NEMA TYPE 1, 2, 4, 4X, 12 & 13
 41
0.75
100
AcDbText
  0
TEXT
  5
8C9
330
1E
100
AcDbEntity
  8
TEXT
100
AcDbText
 10
57.44092370332591
 20
34.95982884309424
 30
0.0
 40
0.5624999999999999
  1
UL508 TYPE 1, 2, 4, 4X, 12 & 13
 41
0.75
100
AcDbText
  0
TEXT
  5
8CA
330
1E
100
AcDbEntity
  8
TEXT
100
AcDbText
 10
57.44092370332591
 20
35.89732884309423
 30
0.0
 40
0.5624999999999999
  1
%%uOUTDOOR VERSION
 41
0.75
100
AcDbText
  0
TEXT
  5
8CB
330
1E
100
AcDbEntity
  8
TEXT
100
AcDbText
 10
57.44092370332591
 20
33.08482884309424
 30
0.0
 40
0.5624999999999999
  1
IEC529-IP65
 41
0.75
100
AcDbText
  0
TEXT
  5
8CC
330
1E
100
AcDbEntity
  8
TEXT
100
AcDbText
 10
11.6181567318473
 20
37.74142778721358
 30
0.0
 40
0.5624999999999999
  1
POLYCARBONATE PLASTIC
 41
0.75
100
AcDbText
  0
LINE
  5
8CD
330
1E
100
AcDbEntity
  8
TEXT
100
AcDbLine
 10
27.99713724747839
 20
41.47415284110451
 30
0.0
 11
29.86197976987545
 21
41.47415284110451
 31
0.0
  0
TEXT
  5
8CE
330
1E
100
AcDbEntity
  8
TEXT
100
AcDbText
 10
30.14271465998533
 20
40.5366528411045
 30
0.0
 40
0.5624999999999999
  1
LIGHT GRAY OR CLEAR
 41
0.75
100
AcDbText
  0
TEXT
  5
8CF
330
1E
100
AcDbEntity
  8
TEXT
100
AcDbText
 10
11.6181567318473
 20
40.54241115647417
 30
0.0
 40
0.5624999999999999
  1
ABS/PC BLENDED PLASTIC
 41
0.75
100
AcDbText
  0
LINE
  5
8D0
330
1E
100
AcDbEntity
  8
TEXT
100
AcDbLine
 10
6.928854885339315
 20
37.74142778721358
 30
0.0
 11
11.33742184173741
 21
37.74142778721358
 31
0.0
  0
LINE
  5
8D1
330
1E
100
AcDbEntity
  8
TEXT
100
AcDbLine
 10
28.53756000577804
 20
40.5366528411045
 30
0.0
 11
29.86197976987545
 21
40.5366528411045
 31
0.0
  0
TEXT
  5
8D2
330
1E
100
AcDbEntity
  8
TEXT
100
AcDbText
 10
2.032001234004939
 20
40.54241115647417
 30
0.0
 40
0.5624999999999999
  1
SOLID BODY & COVER
 41
0.75
100
AcDbText
  0
TEXT
  5
8D3
330
1E
100
AcDbEntity
  8
TEXT
100
AcDbText
 10
2.032001234004939
 20
37.74142778721358
 30
0.0
 40
0.5624999999999999
  1
CLEAR COVER
 41
0.75
100
AcDbText
  0
TEXT
  5
8D4
330
1E
100
AcDbEntity
  8
TEXT
100
AcDbText
 10
26.22133894477036
 20
40.5366528411045
 30
0.0
 40
0.5624999999999999
  1
COVER
 41
0.75
100
AcDbText
  0
TEXT
  5
8D5
330
1E
100
AcDbEntity
  8
TEXT
100
AcDbText
 10
1.34046978021978
 20
41.4799111564742
 30
0.0
 40
0.5624999999999999
  1
%%UINDOOR VERSION
 41
0.75
100
AcDbText
  0
TEXT
  5
8D6
330
1E
100
AcDbEntity
  8
TEXT
100
AcDbText
 10
26.22133894477036
 20
41.47415284110451
 30
0.0
 40
0.5624999999999999
  1
BODY
 41
0.75
100
AcDbText
  0
TEXT
  5
8D7
330
1E
100
AcDbEntity
  8
TEXT
100
AcDbText
 10
25.5298074909852
 20
42.41165284110451
 30
0.0
 40
0.5624999999999999
  1
%%UFINISH:
 41
0.75
100
AcDbText
  0
LINE
  5
8D8
330
1E
100
AcDbEntity
  8
TEXT
100
AcDbLine
 10
9.794281773961207
 20
40.54241115647417
 30
0.0
 11
11.33742184173741
 21
40.54241115647417
 31
0.0
  0
TEXT
  5
8D9
330
1E
100
AcDbEntity
  8
TEXT
100
AcDbText
 10
30.14271465998531
 20
41.47415284110451
 30
0.0
 40
0.5624999999999999
  1
LIGHT GRAY
 41
0.75
100
AcDbText
  0
TEXT
  5
8DA
330
1E
100
AcDbEntity
  8
TEXT
100
AcDbText
 10
0.7790000000000017
 20
42.41165284110451
 30
0.0
 40
0.5624999999999999
  1
%%UMATERIAL:
 41
0.75
100
AcDbText
  0
TEXT
  5
8DC
330
1E
100
AcDbEntity
  8
TEXT
100
AcDbText
 10
11.6181567318473
 20
35.87363932567514
 30
0.0
 40
0.5624999999999999
  1
UV STABILIZED
 41
0.75
100
AcDbText
  0
TEXT
  5
8DD
330
1E
100
AcDbEntity
  8
TEXT
100
AcDbText
 10
11.6181567318473
 20
33.06183864872215
 30
0.0
 40
0.5624999999999999
  1
UL94-5VA FLAMMABILITY RATING
 41
0.75
100
AcDbText
  0
TEXT
  5
8DF
330
1E
100
AcDbEntity
  8
TEXT
100
AcDbText
 10
11.6181567318473
 20
32.1315501871837
 30
0.0
 40
0.5624999999999999
  1
UV STABILIZED
 41
0.75
100
AcDbText
  0
TEXT
  5
8E0
330
1E
100
AcDbEntity
  8
TEXT
100
AcDbText
 10
2.032001234004939
 20
33.99933864872217
 30
0.0
 40
0.5624999999999999
  1
SOLID BODY & COVER
 41
0.75
100
AcDbText
  0
TEXT
  5
8E1
330
1E
100
AcDbEntity
  8
TEXT
100
AcDbText
 10
1.34046978021978
 20
34.93683864872217
 30
0.0
 40
0.5624999999999999
  1
%%UOUTDOOR VERSION
 41
0.75
100
AcDbText
  0
TEXT
  5
8E2
330
1E
100
AcDbEntity
  8
TEXT
100
AcDbText
 10
11.6181567318473
 20
33.99933864872217
 30
0.0
 40
0.5624999999999999
  1
PBT/PC BLENDED PLASTIC
 41
0.75
100
AcDbText
  0
LINE
  5
8E3
330
1E
100
AcDbEntity
  8
TEXT
100
AcDbLine
 10
9.762045392770584
 20
33.99933864872217
 30
0.0
 11
11.33742184173741
 21
33.99933864872217
 31
0.0
  0
TEXT
  5
8E4
330
1E
100
AcDbEntity
  8
TEXT
100
AcDbText
 10
41.3879739923093
 20
42.15412866330544
 30
0.0
 40
0.5624999999999999
  1
COVER INCLUDES GRAY POLY-
 41
0.75
100
AcDbText
  0
LINE
  5
8E5
330
1E
100
AcDbEntity
  8
TITLE
100
AcDbLine
 10
9.261030224677277
 20
0.2790000000000035
 30
0.0
 11
9.261030224677305
 21
6.869574866310159
 31
0.0
  0
LINE
  5
8E6
330
1E
100
AcDbEntity
  8
TITLE
100
AcDbLine
 10
13.75759248594543
 20
0.2790000000000035
 30
0.0
 11
13.75759248594546
 21
6.869574866310158
 31
0.0
  0
LINE
  5
8E7
330
1E
100
AcDbEntity
  8
TITLE
100
AcDbLine
 10
16.54327248594543
 20
0.2790000000000035
 30
0.0
 11
16.54327248594544
 21
3.103532085561489
 31
0.0
  0
LINE
  5
8E8
330
1E
100
AcDbEntity
  8
TITLE
100
AcDbLine
 10
19.32895248594543
 20
0.2790000000000035
 30
0.0
 11
19.32895248594545
 21
3.103532085561489
 31
0.0
  0
LINE
  5
8E9
330
1E
100
AcDbEntity
  8
TITLE
100
AcDbLine
 10
22.11463248594543
 20
0.2790000000000035
 30
0.0
 11
22.11463248594545
 21
3.103532085561489
 31
0.0
  0
LINE
  5
8EA
330
1E
100
AcDbEntity
  8
TITLE
100
AcDbLine
 10
24.90031248594544
 20
0.2790000000000035
 30
0.0
 11
24.90031248594545
 21
3.103532085561489
 31
0.0
  0
LINE
  5
8EB
330
1E
100
AcDbEntity
  8
TITLE
100
AcDbLine
 10
27.68599248594543
 20
0.2790000000000035
 30
0.0
 11
27.68599248594544
 21
3.103532085561489
 31
0.0
  0
LINE
  5
8EC
330
1E
100
AcDbEntity
  8
TITLE
100
AcDbLine
 10
30.47167248594543
 20
0.2790000000000035
 30
0.0
 11
30.47167248594544
 21
3.103532085561489
 31
0.0
  0
LINE
  5
8ED
330
1E
100
AcDbEntity
  8
TITLE
100
AcDbLine
 10
33.25735248594544
 20
0.2790000000000035
 30
0.0
 11
33.25735248594544
 21
3.103532085561489
 31
0.0
  0
LINE
  5
8EE
330
1E
100
AcDbEntity
  8
TITLE
100
AcDbLine
 10
36.04303248594543
 20
0.2790000000000035
 30
0.0
 11
36.04303248594544
 21
3.103532085561489
 31
0.0
  0
LINE
  5
8EF
330
1E
100
AcDbEntity
  8
TITLE
100
AcDbLine
 10
38.82871248594543
 20
0.2790000000000035
 30
0.0
 11
38.82871248594545
 21
3.103532085561489
 31
0.0
  0
LINE
  5
8F0
330
1E
100
AcDbEntity
  8
TITLE
100
AcDbLine
 10
41.61439248594543
 20
0.2790000000000035
 30
0.0
 11
41.61439248594544
 21
3.103532085561489
 31
0.0
  0
LINE
  5
8F1
330
1E
100
AcDbEntity
  8
TITLE
100
AcDbLine
 10
44.40007248594543
 20
0.2790000000000035
 30
0.0
 11
44.40007248594546
 21
3.103532085561489
 31
0.0
  0
LINE
  5
8F2
330
1E
100
AcDbEntity
  8
TITLE
100
AcDbLine
 10
47.18575248594544
 20
0.2790000000000035
 30
0.0
 11
47.18575248594546
 21
3.103532085561489
 31
0.0
  0
LINE
  5
8F3
330
1E
100
AcDbEntity
  8
TITLE
100
AcDbLine
 10
49.97143248594544
 20
0.2790000000000035
 30
0.0
 11
49.97143248594545
 21
3.103532085561489
 31
0.0
  0
LINE
  5
8F4
330
1E
100
AcDbEntity
  8
TITLE
100
AcDbLine
 10
52.75711248594544
 20
0.2790000000000035
 30
0.0
 11
52.75711248594546
 21
3.103532085561489
 31
0.0
  0
LINE
  5
8F5
330
1E
100
AcDbEntity
  8
TITLE
100
AcDbLine
 10
55.54279248594545
 20
0.2790000000000035
 30
0.0
 11
55.54279248594546
 21
3.103532085561489
 31
0.0
  0
LINE
  5
8F6
330
1E
100
AcDbEntity
  8
TITLE
100
AcDbLine
 10
58.32847248594544
 20
0.2790000000000035
 30
0.0
 11
58.32847248594545
 21
3.103532085561489
 31
0.0
  0
LINE
  5
8F7
330
1E
100
AcDbEntity
  8
TITLE
100
AcDbLine
 10
61.11415248594544
 20
0.2790000000000035
 30
0.0
 11
61.11415248594545
 21
3.103532085561489
 31
0.0
  0
LINE
  5
8F8
330
1E
100
AcDbEntity
  8
TITLE
100
AcDbLine
 10
63.89983248594544
 20
0.2790000000000035
 30
0.0
 11
63.89983248594544
 21
3.103532085561489
 31
0.0
  0
LINE
  5
8F9
330
1E
100
AcDbEntity
  8
TITLE
100
AcDbLine
 10
66.68551248594543
 20
0.2790000000000035
 30
0.0
 11
66.68551248594545
 21
3.103532085561489
 31
0.0
  0
TEXT
  5
8FB
330
1E
100
AcDbEntity
  8
TEXT
100
AcDbText
 10
58.00239348354568
 20
39.59915284110451
 30
0.0
 40
0.5624999999999999
  1
12 & 13
 41
0.75
100
AcDbText
  0
TEXT
  5
A92
330
1E
100
AcDbEntity
  8
TEXT
100
AcDbText
 10
41.3879739923093
 20
41.21662866330541
 30
0.0
 40
0.5624999999999999
  1
   URETHANE GASKET.
 41
0.75
100
AcDbText
  0
TEXT
  5
A9C
330
1E
100
AcDbEntity
  8
DIM
100
AcDbText
 10
59.58164258988722
 20
8.664275821200966
 30
0.0
 40
0.5625
  1
OR #10 STD. SHEET METAL
 41
0.75
 11
59.58164258988722
 21
8.945525821200966
 31
0.0
100
AcDbText
 73
     2
  0
TEXT
  5
A9D
330
1E
100
AcDbEntity
  8
DIM
100
AcDbText
 10
59.58164258988722
 20
7.726775821200952
 30
0.0
 40
0.5625
  1
SCREWS x 0.250 [6] LG.
 41
0.75
 11
59.58164258988722
 21
8.008025821200952
 31
0.0
100
AcDbText
 73
     2
  0
TEXT
  5
A9F
330
1E
100
AcDbEntity
  8
DIM
100
AcDbText
 10
59.58164258988722
 20
6.789275821200938
 30
0.0
 40
0.5625
  1
(NOT SUPPLIED)
 41
0.75
 11
59.58164258988722
 21
7.070525821200938
 31
0.0
100
AcDbText
 73
     2
  0
TEXT
  5
AA1
330
1E
100
AcDbEntity
  8
TEXT
100
AcDbText
 10
63.60505173350968
 20
-0.7456825316375984
 30
0.0
 40
0.5625
  1
Revised 26JUN07
 41
0.75
 72
     4
 11
66.52302048350968
 21
-0.4644325316375984
 31
0.0
100
AcDbText
  0
ENDSEC
  0
SECTION
  2
OBJECTS
  0
DICTIONARY
  5
C
330
0
100
AcDbDictionary
281
     1
  3
ACAD_GROUP
350
D
  3
ACAD_LAYOUT
350
19
  3
ACAD_MLINESTYLE
350
16
  3
ACAD_PLOTSETTINGS
350
18
  3
ACAD_PLOTSTYLENAME
350
E
  0
DICTIONARY
  5
D
102
{ACAD_REACTORS
330
C
102
}
330
C
100
AcDbDictionary
281
     1
  0
DICTIONARY
  5
19
102
{ACAD_REACTORS
330
C
102
}
330
C
100
AcDbDictionary
281
     1
  3
Layout1
350
1D
  3
Model
350
21
  0
DICTIONARY
  5
16
102
{ACAD_REACTORS
330
C
102
}
330
C
100
AcDbDictionary
281
     1
  3
Standard
350
17
  0
DICTIONARY
  5
18
102
{ACAD_REACTORS
330
C
102
}
330
C
100
AcDbDictionary
281
     1
  0
ACDBDICTIONARYWDFLT
  5
E
102
{ACAD_REACTORS
330
C
102
}
330
C
100
AcDbDictionary
281
     1
  3
Normal
350
F
100
AcDbDictionaryWithDefault
340
F
  0
LAYOUT
  5
1D
102
{ACAD_REACTORS
330
19
102
}
330
19
100
AcDbPlotSettings
  1

  2
None
  4

  6

 40
0.0
 41
0.0
 42
0.0
 43
0.0
 44
0.0
 45
0.0
 46
0.0
 47
0.0
 48
0.0
 49
0.0
140
0.0
141
0.0
142
1.0
143
1.0
 70
   688
 72
     0
 73
     0
 74
     5
  7
monochrome.ctb
 75
    16
147
1.0
148
0.0
149
0.0
100
AcDbLayout
  1
Layout1
 70
     1
 71
     1
 10
0.0
 20
0.0
 11
12.0
 21
9.0
 12
0.0
 22
0.0
 32
0.0
 14
1.000000000000000E+20
 24
1.000000000000000E+20
 34
1.000000000000000E+20
 15
-1.000000000000000E+20
 25
-1.000000000000000E+20
 35
-1.000000000000000E+20
146
0.0
 13
0.0
 23
0.0
 33
0.0
 16
1.0
 26
0.0
 36
0.0
 17
0.0
 27
1.0
 37
0.0
 76
     0
330
1A
  0
LAYOUT
  5
21
102
{ACAD_REACTORS
330
19
102
}
330
19
100
AcDbPlotSettings
  1

  2
RICOH Aficio 1060 PCL 6
  4
Letter
  6

 40
5.027083396911621
 41
5.027085304260253
 42
5.027084350585937
 43
5.027069091796875
 44
215.8999938964843
 45
279.3999938964843
 46
13.462
 47
0.0
 48
0.0
 49
0.0
140
0.0
141
0.0
142
1.0
143
6.578398443180258
 70
 11956
 72
     0
 73
     1
 74
     1
  7
monochrome.ctb
 75
     0
147
0.1520126834270258
148
0.1081857293233327
149
18.95531457842782
100
AcDbLayout
  1
Model
 70
     1
 71
     0
 10
0.0
 20
0.0
 11
12.0
 21
9.0
 12
0.0
 22
0.0
 32
0.0
 14
0.0
 24
0.0
 34
0.0
 15
0.0
 25
0.0
 35
0.0
146
0.0
 13
0.0
 23
0.0
 33
0.0
 16
1.0
 26
0.0
 36
0.0
 17
0.0
 27
1.0
 37
0.0
 76
     0
330
1E
  0
MLINESTYLE
  5
17
102
{ACAD_REACTORS
330
16
102
}
330
16
100
AcDbMlineStyle
  2
STANDARD
 70
     0
  3

 62
   256
 51
90.0
 52
90.0
 71
     2
 49
0.5
 62
   256
  6
BYLAYER
 49
-0.5
 62
   256
  6
BYLAYER
  0
ACDBPLACEHOLDER
  5
F
102
{ACAD_REACTORS
330
E
102
}
330
E
  0
ENDSEC
  0
EOF
