  0
SECTION
  2
HEADER
  9
$ACADVER
  1
AC1015
  9
$ACADMAINTVER
 70
     6
  9
$DWGCODEPAGE
  3
ANSI_1252
  9
$INSBASE
 10
0.0
 20
0.0
 30
0.0
  9
$EXTMIN
 10
0.0000000000000142
 20
-1.137193747409888
 30
0.0
  9
$EXTMAX
 10
108.5
 20
70.83999999999997
 30
0.0
  9
$LIMMIN
 10
0.0
 20
0.0
  9
$LIMMAX
 10
108.4998440312974
 20
70.83989816753096
  9
$ORTHOMODE
 70
     0
  9
$REGENMODE
 70
     1
  9
$FILLMODE
 70
     1
  9
$QTEXTMODE
 70
     0
  9
$MIRRTEXT
 70
     0
  9
$LTSCALE
 40
3.0
  9
$ATTMODE
 70
     1
  9
$TEXTSIZE
 40
0.2
  9
$TRACEWID
 40
0.05
  9
$TEXTSTYLE
  7
TXT
  9
$CLAYER
  8
OBJECT
  9
$CELTYPE
  6
ByLayer
  9
$CECOLOR
 62
   256
  9
$CELTSCALE
 40
1.0
  9
$DISPSILH
 70
     0
  9
$DIMSCALE
 40
7.0
  9
$DIMASZ
 40
0.18
  9
$DIMEXO
 40
0.063
  9
$DIMDLI
 40
0.25
  9
$DIMRND
 40
0.0
  9
$DIMDLE
 40
0.0
  9
$DIMEXE
 40
0.093
  9
$DIMTP
 40
0.0
  9
$DIMTM
 40
0.0
  9
$DIMTXT
 40
0.125
  9
$DIMCEN
 40
0.09
  9
$DIMTSZ
 40
0.0
  9
$DIMTOL
 70
     0
  9
$DIMLIM
 70
     0
  9
$DIMTIH
 70
     1
  9
$DIMTOH
 70
     1
  9
$DIMSE1
 70
     0
  9
$DIMSE2
 70
     0
  9
$DIMTAD
 70
     0
  9
$DIMZIN
 70
     0
  9
$DIMBLK
  1

  9
$DIMASO
 70
     1
  9
$DIMSHO
 70
     1
  9
$DIMPOST
  1

  9
$DIMAPOST
  1

  9
$DIMALT
 70
     1
  9
$DIMALTD
 70
     0
  9
$DIMALTF
 40
25.4
  9
$DIMLFAC
 40
1.0
  9
$DIMTOFL
 70
     0
  9
$DIMTVP
 40
0.0
  9
$DIMTIX
 70
     0
  9
$DIMSOXD
 70
     0
  9
$DIMSAH
 70
     0
  9
$DIMBLK1
  1

  9
$DIMBLK2
  1

  9
$DIMSTYLE
  2
23NSTD
  9
$DIMCLRD
 70
     0
  9
$DIMCLRE
 70
     0
  9
$DIMCLRT
 70
     0
  9
$DIMTFAC
 40
1.0
  9
$DIMGAP
 40
0.09
  9
$DIMJUST
 70
     0
  9
$DIMSD1
 70
     0
  9
$DIMSD2
 70
     0
  9
$DIMTOLJ
 70
     1
  9
$DIMTZIN
 70
     0
  9
$DIMALTZ
 70
     0
  9
$DIMALTTZ
 70
     0
  9
$DIMUPT
 70
     0
  9
$DIMDEC
 70
     3
  9
$DIMTDEC
 70
     3
  9
$DIMALTU
 70
     2
  9
$DIMALTTD
 70
     0
  9
$DIMTXSTY
  7
TXT
  9
$DIMAUNIT
 70
     0
  9
$DIMADEC
 70
     0
  9
$DIMALTRND
 40
0.0
  9
$DIMAZIN
 70
     0
  9
$DIMDSEP
 70
    46
  9
$DIMATFIT
 70
     1
  9
$DIMFRAC
 70
     0
  9
$DIMLDRBLK
  1

  9
$DIMLUNIT
 70
     2
  9
$DIMLWD
 70
    -2
  9
$DIMLWE
 70
    -2
  9
$DIMTMOVE
 70
     0
  9
$LUNITS
 70
     2
  9
$LUPREC
 70
     3
  9
$SKETCHINC
 40
0.1
  9
$FILLETRAD
 40
0.0
  9
$AUNITS
 70
     0
  9
$AUPREC
 70
     0
  9
$MENU
  1
acad
  9
$ELEVATION
 40
0.0
  9
$PELEVATION
 40
0.0
  9
$THICKNESS
 40
0.0
  9
$LIMCHECK
 70
     0
  9
$CHAMFERA
 40
0.0
  9
$CHAMFERB
 40
0.0
  9
$CHAMFERC
 40
0.0
  9
$CHAMFERD
 40
0.0
  9
$SKPOLY
 70
     0
  9
$TDCREATE
 40
2451099.398108680
  9
$TDUCREATE
 40
2451099.564775347
  9
$TDUPDATE
 40
2454306.466143657
  9
$TDUUPDATE
 40
2454306.632810324
  9
$TDINDWG
 40
1.2110445139
  9
$TDUSRTIMER
 40
1.2110445139
  9
$USRTIMER
 70
     1
  9
$ANGBASE
 50
0.0
  9
$ANGDIR
 70
     0
  9
$PDMODE
 70
     0
  9
$PDSIZE
 40
0.0
  9
$PLINEWID
 40
0.0
  9
$SPLFRAME
 70
     0
  9
$SPLINETYPE
 70
     6
  9
$SPLINESEGS
 70
     8
  9
$HANDSEED
  5
A8D
  9
$SURFTAB1
 70
     6
  9
$SURFTAB2
 70
     6
  9
$SURFTYPE
 70
     6
  9
$SURFU
 70
     6
  9
$SURFV
 70
     6
  9
$UCSBASE
  2

  9
$UCSNAME
  2

  9
$UCSORG
 10
0.0
 20
0.0
 30
0.0
  9
$UCSXDIR
 10
1.0
 20
0.0
 30
0.0
  9
$UCSYDIR
 10
0.0
 20
1.0
 30
0.0
  9
$UCSORTHOREF
  2

  9
$UCSORTHOVIEW
 70
     0
  9
$UCSORGTOP
 10
0.0
 20
0.0
 30
0.0
  9
$UCSORGBOTTOM
 10
0.0
 20
0.0
 30
0.0
  9
$UCSORGLEFT
 10
0.0
 20
0.0
 30
0.0
  9
$UCSORGRIGHT
 10
0.0
 20
0.0
 30
0.0
  9
$UCSORGFRONT
 10
0.0
 20
0.0
 30
0.0
  9
$UCSORGBACK
 10
0.0
 20
0.0
 30
0.0
  9
$PUCSBASE
  2

  9
$PUCSNAME
  2

  9
$PUCSORG
 10
0.0
 20
0.0
 30
0.0
  9
$PUCSXDIR
 10
1.0
 20
0.0
 30
0.0
  9
$PUCSYDIR
 10
0.0
 20
1.0
 30
0.0
  9
$PUCSORTHOREF
  2

  9
$PUCSORTHOVIEW
 70
     0
  9
$PUCSORGTOP
 10
0.0
 20
0.0
 30
0.0
  9
$PUCSORGBOTTOM
 10
0.0
 20
0.0
 30
0.0
  9
$PUCSORGLEFT
 10
0.0
 20
0.0
 30
0.0
  9
$PUCSORGRIGHT
 10
0.0
 20
0.0
 30
0.0
  9
$PUCSORGFRONT
 10
0.0
 20
0.0
 30
0.0
  9
$PUCSORGBACK
 10
0.0
 20
0.0
 30
0.0
  9
$USERI1
 70
     0
  9
$USERI2
 70
     0
  9
$USERI3
 70
     0
  9
$USERI4
 70
     0
  9
$USERI5
 70
     0
  9
$USERR1
 40
0.0
  9
$USERR2
 40
0.0
  9
$USERR3
 40
0.0
  9
$USERR4
 40
0.0
  9
$USERR5
 40
0.0
  9
$WORLDVIEW
 70
     1
  9
$SHADEDGE
 70
     3
  9
$SHADEDIF
 70
    70
  9
$TILEMODE
 70
     1
  9
$MAXACTVP
 70
    16
  9
$PINSBASE
 10
0.0
 20
0.0
 30
0.0
  9
$PLIMCHECK
 70
     0
  9
$PEXTMIN
 10
1.000000000000000E+20
 20
1.000000000000000E+20
 30
1.000000000000000E+20
  9
$PEXTMAX
 10
-1.000000000000000E+20
 20
-1.000000000000000E+20
 30
-1.000000000000000E+20
  9
$PLIMMIN
 10
0.0
 20
0.0
  9
$PLIMMAX
 10
12.0
 20
9.0
  9
$UNITMODE
 70
     0
  9
$VISRETAIN
 70
     0
  9
$PLINEGEN
 70
     0
  9
$PSLTSCALE
 70
     1
  9
$TREEDEPTH
 70
  3020
  9
$CMLSTYLE
  2
Standard
  9
$CMLJUST
 70
     0
  9
$CMLSCALE
 40
1.0
  9
$PROXYGRAPHICS
 70
     1
  9
$MEASUREMENT
 70
     0
  9
$CELWEIGHT
370
    -1
  9
$ENDCAPS
280
     0
  9
$JOINSTYLE
280
     0
  9
$LWDISPLAY
290
     0
  9
$INSUNITS
 70
     0
  9
$HYPERLINKBASE
  1

  9
$STYLESHEET
  1
monochrome.ctb
  9
$XEDIT
290
     1
  9
$CEPSNTYPE
380
     0
  9
$PSTYLEMODE
290
     1
  9
$FINGERPRINTGUID
  2
{4A2941B0-A281-45F9-825C-9E530EBFC0BC}
  9
$VERSIONGUID
  2
{6F4D3BCE-DF71-481B-91C3-637ADFC5685C}
  9
$EXTNAMES
290
     1
  9
$PSVPSCALE
 40
0.0
  9
$OLESTARTUP
290
     0
  0
ENDSEC
  0
SECTION
  2
CLASSES
  0
CLASS
  1
ACDBDICTIONARYWDFLT
  2
AcDbDictionaryWithDefault
  3
AutoCAD 2000
 90
        0
280
     0
281
     0
  0
CLASS
  1
ACDBPLACEHOLDER
  2
AcDbPlaceHolder
  3
AutoCAD 2000
 90
        0
280
     0
281
     0
  0
CLASS
  1
LAYOUT
  2
AcDbLayout
  3
AutoCAD 2000
 90
        0
280
     0
281
     0
  0
ENDSEC
  0
SECTION
  2
TABLES
  0
TABLE
  2
VPORT
  5
8
330
0
100
AcDbSymbolTable
 70
     2
  0
VPORT
  5
A8C
330
8
100
AcDbSymbolTableRecord
100
AcDbViewportTableRecord
  2
*Active
 70
     0
 10
0.0
 20
0.0
 11
1.0
 21
1.0
 12
54.25000025262128
 22
34.84980820870701
 13
0.0
 23
0.0
 14
1.0
 24
1.0
 15
0.0
 25
0.0
 16
0.0
 26
0.0
 36
1.0
 17
0.0
 27
0.0
 37
0.0
 40
72.70455471936347
 41
1.824707846410684
 42
50.0
 43
0.0
 44
0.0
 50
0.0
 51
0.0
 71
     0
 72
   100
 73
     1
 74
     0
 75
     0
 76
     0
 77
     0
 78
     0
281
     0
 65
     1
110
0.0
120
0.0
130
0.0
111
1.0
121
0.0
131
0.0
112
0.0
122
1.0
132
0.0
 79
     0
146
0.0
  0
ENDTAB
  0
TABLE
  2
LTYPE
  5
5
330
0
100
AcDbSymbolTable
 70
     7
  0
LTYPE
  5
13
330
5
100
AcDbSymbolTableRecord
100
AcDbLinetypeTableRecord
  2
ByBlock
 70
     0
  3

 72
    65
 73
     0
 40
0.0
  0
LTYPE
  5
14
330
5
100
AcDbSymbolTableRecord
100
AcDbLinetypeTableRecord
  2
ByLayer
 70
     0
  3

 72
    65
 73
     0
 40
0.0
  0
LTYPE
  5
15
330
5
100
AcDbSymbolTableRecord
100
AcDbLinetypeTableRecord
  2
CONTINUOUS
 70
     0
  3
Solid line
 72
    65
 73
     0
 40
0.0
  0
LTYPE
  5
3B
330
5
100
AcDbSymbolTableRecord
100
AcDbLinetypeTableRecord
  2
PHANTOM
 70
     0
  3
_____ _ _ _____ _ _ _____ _ _ _____ _ _ ____
 72
    65
 73
     6
 40
2.5
 49
1.25
 74
     0
 49
-0.25
 74
     0
 49
0.25
 74
     0
 49
-0.25
 74
     0
 49
0.25
 74
     0
 49
-0.25
 74
     0
  0
LTYPE
  5
3C
330
5
100
AcDbSymbolTableRecord
100
AcDbLinetypeTableRecord
  2
CENTER
 70
     0
  3
____ _ ____ _ ____ _ ____ _ ____ _ ____ _ ____
 72
    65
 73
     4
 40
2.0
 49
1.25
 74
     0
 49
-0.25
 74
     0
 49
0.25
 74
     0
 49
-0.25
 74
     0
  0
LTYPE
  5
3D
330
5
100
AcDbSymbolTableRecord
100
AcDbLinetypeTableRecord
  2
HIDDEN2
 70
     0
  3
_ _ _ _ _ _ _ _ _ _ _ _ _ _ _ _ _ _ _ _ _ _ _ _
 72
    65
 73
     2
 40
0.1875
 49
0.125
 74
     0
 49
-0.0625
 74
     0
  0
LTYPE
  5
3E
330
5
100
AcDbSymbolTableRecord
100
AcDbLinetypeTableRecord
  2
HIDDEN
 70
     0
  3
_ _ _ _ _ _ _ _ _ _ _ _ _ _ _ _ _ _ _ _ _ _ _
 72
    65
 73
     2
 40
0.375
 49
0.25
 74
     0
 49
-0.125
 74
     0
  0
LTYPE
  5
3F
330
5
100
AcDbSymbolTableRecord
100
AcDbLinetypeTableRecord
  2
PHANTOM2
 70
     0
  3
___ _ _ ___ _ _ ___ _ _ ___ _ _ ___ _ _ ___ _ _
 72
    65
 73
     6
 40
1.25
 49
0.625
 74
     0
 49
-0.125
 74
     0
 49
0.125
 74
     0
 49
-0.125
 74
     0
 49
0.125
 74
     0
 49
-0.125
 74
     0
  0
LTYPE
  5
40
330
5
100
AcDbSymbolTableRecord
100
AcDbLinetypeTableRecord
  2
CENTER2
 70
     0
  3
___ _ ___ _ ___ _ ___ _ ___ _ ___ _ ___ _ ___ _
 72
    65
 73
     4
 40
1.125
 49
0.75
 74
     0
 49
-0.125
 74
     0
 49
0.125
 74
     0
 49
-0.125
 74
     0
  0
ENDTAB
  0
TABLE
  2
LAYER
  5
2
330
0
100
AcDbSymbolTable
 70
     9
  0
LAYER
  5
10
330
2
100
AcDbSymbolTableRecord
100
AcDbLayerTableRecord
  2
0
 70
     0
 62
     7
  6
CONTINUOUS
370
    -3
390
F
  0
LAYER
  5
45
330
2
100
AcDbSymbolTableRecord
100
AcDbLayerTableRecord
  2
OBJECT
 70
     0
 62
     7
  6
CONTINUOUS
370
    -3
390
F
  0
LAYER
  5
46
330
2
100
AcDbSymbolTableRecord
100
AcDbLayerTableRecord
  2
DIM
 70
     0
 62
     7
  6
CONTINUOUS
370
    -3
390
F
  0
LAYER
  5
47
330
2
100
AcDbSymbolTableRecord
100
AcDbLayerTableRecord
  2
HIDDEN
 70
     0
 62
     7
  6
HIDDEN2
370
    -3
390
F
  0
LAYER
  5
48
330
2
100
AcDbSymbolTableRecord
100
AcDbLayerTableRecord
  2
BEND
 70
     0
 62
     7
  6
PHANTOM
370
    -3
390
F
  0
LAYER
  5
49
330
2
100
AcDbSymbolTableRecord
100
AcDbLayerTableRecord
  2
TEXT
 70
     0
 62
     7
  6
CONTINUOUS
370
    -3
390
F
  0
LAYER
  5
4A
330
2
100
AcDbSymbolTableRecord
100
AcDbLayerTableRecord
  2
TITLE
 70
     0
 62
     7
  6
CONTINUOUS
370
    -3
390
F
  0
LAYER
  5
4B
330
2
100
AcDbSymbolTableRecord
100
AcDbLayerTableRecord
  2
CENTER
 70
     0
 62
     7
  6
CENTER
370
    -3
390
F
  0
LAYER
  5
4C
330
2
100
AcDbSymbolTableRecord
100
AcDbLayerTableRecord
  2
DEFPOINTS
 70
     0
 62
     7
  6
CONTINUOUS
290
     0
370
    -3
390
F
  0
ENDTAB
  0
TABLE
  2
STYLE
  5
3
330
0
100
AcDbSymbolTable
 70
     1
  0
STYLE
  5
11
330
3
100
AcDbSymbolTableRecord
100
AcDbTextStyleTableRecord
  2
TXT
 70
     0
 40
0.0
 41
0.75
 50
0.0
 71
     0
 42
0.2
  3
TXT.shx
  4

  0
ENDTAB
  0
TABLE
  2
VIEW
  5
6
330
0
100
AcDbSymbolTable
 70
     0
  0
ENDTAB
  0
TABLE
  2
UCS
  5
7
330
0
100
AcDbSymbolTable
 70
     0
  0
ENDTAB
  0
TABLE
  2
APPID
  5
9
330
0
100
AcDbSymbolTable
 70
     1
  0
APPID
  5
12
330
9
100
AcDbSymbolTableRecord
100
AcDbRegAppTableRecord
  2
ACAD
 70
     0
  0
ENDTAB
  0
TABLE
  2
DIMSTYLE
  5
A
330
0
100
AcDbSymbolTable
 70
     2
100
AcDbDimStyleTable
 71
     2
340
44
340
43
  0
DIMSTYLE
105
43
102
{ACAD_REACTORS
330
277
330
278
330
279
330
27C
330
27D
330
27E
330
284
330
28B
330
29A
330
29C
330
2A2
330
2A3
330
34B
330
34C
330
355
330
356
330
359
330
35A
330
35E
330
446
330
447
102
}
330
A
100
AcDbSymbolTableRecord
100
AcDbDimStyleTableRecord
  2
23NSTD
 70
     0
 40
7.0
 42
0.063
 43
0.25
 44
0.093
140
0.125
170
     1
171
     0
271
     3
272
     3
274
     0
289
     1
340
11
  0
DIMSTYLE
105
44
102
{ACAD_REACTORS
330
3FD
102
}
330
A
100
AcDbSymbolTableRecord
100
AcDbDimStyleTableRecord
  2
23NSTDI
 70
     0
 40
7.0
 42
0.063
 43
0.25
 44
0.093
140
0.125
170
     1
171
     0
174
     1
271
     3
272
     3
274
     0
340
11
  0
ENDTAB
  0
TABLE
  2
BLOCK_RECORD
  5
1
330
0
100
AcDbSymbolTable
 70
    25
  0
BLOCK_RECORD
  5
1E
330
1
100
AcDbSymbolTableRecord
100
AcDbBlockTableRecord
  2
*Model_Space
340
21
  0
BLOCK_RECORD
  5
1A
330
1
100
AcDbSymbolTableRecord
100
AcDbBlockTableRecord
  2
*Paper_Space
340
1D
  0
BLOCK_RECORD
  5
22
330
1
100
AcDbSymbolTableRecord
100
AcDbBlockTableRecord
  2
HBS
340
0
102
{BLKREFS
331
8F7
102
}
  0
BLOCK_RECORD
  5
2A
330
1
100
AcDbSymbolTableRecord
100
AcDbBlockTableRecord
  2
*X1
340
0
102
{BLKREFS
331
887
102
}
  0
BLOCK_RECORD
  5
2B
330
1
100
AcDbSymbolTableRecord
100
AcDbBlockTableRecord
  2
*X2
340
0
102
{BLKREFS
331
8CE
102
}
  0
BLOCK_RECORD
  5
95A
330
1
100
AcDbSymbolTableRecord
100
AcDbBlockTableRecord
  2
*D3
340
0
  0
BLOCK_RECORD
  5
967
330
1
100
AcDbSymbolTableRecord
100
AcDbBlockTableRecord
  2
*D4
340
0
  0
BLOCK_RECORD
  5
974
330
1
100
AcDbSymbolTableRecord
100
AcDbBlockTableRecord
  2
*D5
340
0
  0
BLOCK_RECORD
  5
981
330
1
100
AcDbSymbolTableRecord
100
AcDbBlockTableRecord
  2
*D6
340
0
  0
BLOCK_RECORD
  5
98E
330
1
100
AcDbSymbolTableRecord
100
AcDbBlockTableRecord
  2
*D7
340
0
  0
BLOCK_RECORD
  5
99B
330
1
100
AcDbSymbolTableRecord
100
AcDbBlockTableRecord
  2
*D8
340
0
  0
BLOCK_RECORD
  5
9A8
330
1
100
AcDbSymbolTableRecord
100
AcDbBlockTableRecord
  2
*D9
340
0
  0
BLOCK_RECORD
  5
9B5
330
1
100
AcDbSymbolTableRecord
100
AcDbBlockTableRecord
  2
*D10
340
0
  0
BLOCK_RECORD
  5
9C2
330
1
100
AcDbSymbolTableRecord
100
AcDbBlockTableRecord
  2
*D11
340
0
  0
BLOCK_RECORD
  5
9CF
330
1
100
AcDbSymbolTableRecord
100
AcDbBlockTableRecord
  2
*D12
340
0
  0
BLOCK_RECORD
  5
9DC
330
1
100
AcDbSymbolTableRecord
100
AcDbBlockTableRecord
  2
*D13
340
0
  0
BLOCK_RECORD
  5
9E9
330
1
100
AcDbSymbolTableRecord
100
AcDbBlockTableRecord
  2
*D14
340
0
  0
BLOCK_RECORD
  5
9F6
330
1
100
AcDbSymbolTableRecord
100
AcDbBlockTableRecord
  2
*D15
340
0
  0
BLOCK_RECORD
  5
A03
330
1
100
AcDbSymbolTableRecord
100
AcDbBlockTableRecord
  2
*D16
340
0
  0
BLOCK_RECORD
  5
A10
330
1
100
AcDbSymbolTableRecord
100
AcDbBlockTableRecord
  2
*D17
340
0
  0
BLOCK_RECORD
  5
A1D
330
1
100
AcDbSymbolTableRecord
100
AcDbBlockTableRecord
  2
*D18
340
0
  0
BLOCK_RECORD
  5
A2A
330
1
100
AcDbSymbolTableRecord
100
AcDbBlockTableRecord
  2
*D19
340
0
  0
BLOCK_RECORD
  5
A37
330
1
100
AcDbSymbolTableRecord
100
AcDbBlockTableRecord
  2
*D20
340
0
  0
BLOCK_RECORD
  5
A44
330
1
100
AcDbSymbolTableRecord
100
AcDbBlockTableRecord
  2
*D21
340
0
  0
BLOCK_RECORD
  5
A51
330
1
100
AcDbSymbolTableRecord
100
AcDbBlockTableRecord
  2
*D22
340
0
  0
BLOCK_RECORD
  5
A5E
330
1
100
AcDbSymbolTableRecord
100
AcDbBlockTableRecord
  2
*D23
340
0
  0
BLOCK_RECORD
  5
A6B
330
1
100
AcDbSymbolTableRecord
100
AcDbBlockTableRecord
  2
*D24
340
0
  0
ENDTAB
  0
ENDSEC
  0
SECTION
  2
BLOCKS
  0
BLOCK
  5
50
330
1E
100
AcDbEntity
  8
0
100
AcDbBlockBegin
  2
*Model_Space
 70
     0
 10
0.0
 20
0.0
 30
0.0
  3
*Model_Space
  1

  0
ENDBLK
  5
51
330
1E
100
AcDbEntity
  8
0
100
AcDbBlockEnd
  0
BLOCK
  5
4E
330
1A
100
AcDbEntity
 67
     1
  8
0
100
AcDbBlockBegin
  2
*Paper_Space
 70
     0
 10
0.0
 20
0.0
 30
0.0
  3
*Paper_Space
  1

  0
ENDBLK
  5
4F
330
1A
100
AcDbEntity
 67
     1
  8
0
100
AcDbBlockEnd
  0
BLOCK
  5
52
330
22
100
AcDbEntity
  8
0
100
AcDbBlockBegin
  2
HBS
 70
     0
 10
0.0
 20
0.0
 30
0.0
  3
HBS
  1

  0
LINE
  5
53
330
22
100
AcDbEntity
  8
TITLE
100
AcDbLine
 10
0.0619999999999976
 20
9.64
 30
0.0
 11
15.43799999999999
 21
9.640000000000004
 31
0.0
  0
LWPOLYLINE
  5
54
330
22
100
AcDbEntity
  8
TITLE
100
AcDbPolyline
 90
        4
 70
     1
 43
0.0
 10
15.5
 20
10.11999999999999
 10
15.49999999999999
 20
0.0
 10
0.0
 20
0.0
 10
0.0
 20
10.11999999999999
  0
LWPOLYLINE
  5
5A
330
22
100
AcDbEntity
  8
TITLE
100
AcDbPolyline
 90
        4
 70
     1
 43
0.0
 10
15.43799999999999
 20
10.058
 10
15.43799999999999
 20
0.0620000000000012
 10
0.0620000000000012
 20
0.0620000000000012
 10
0.0620000000000012
 20
10.058
  0
TEXT
  5
60
330
22
100
AcDbEntity
  8
TEXT
100
AcDbText
 10
0.2078333333333345
 20
9.680079195640079
 30
0.0
 40
0.125
  1
NAME
 72
     1
 11
0.4370000000000012
 21
9.680079195640079
 31
0.0
100
AcDbText
  0
TEXT
  5
62
330
22
100
AcDbEntity
  8
TEXT
100
AcDbText
 10
0.2078333333333345
 20
9.888412528973411
 30
0.0
 40
0.125
  1
PART
 72
     1
 11
0.4370000000000012
 21
9.888412528973411
 31
0.0
100
AcDbText
  0
LINE
  5
63
330
22
100
AcDbEntity
  8
TITLE
100
AcDbLine
 10
0.8120000000000011
 20
9.64
 30
0.0
 11
0.8119999999999976
 21
10.058
 31
0.0
  0
TEXT
  5
64
330
22
100
AcDbEntity
  8
TEXT
100
AcDbText
 10
7.926833333333331
 20
9.888412528973411
 30
0.0
 40
0.125
  1
PART
 72
     1
 11
8.155999999999998
 21
9.888412528973411
 31
0.0
100
AcDbText
  0
TEXT
  5
65
330
22
100
AcDbEntity
  8
TEXT
100
AcDbText
 10
8.030999999999998
 20
9.680079195640079
 30
0.0
 40
0.125
  1
No.
 72
     1
 11
8.155999999999998
 21
9.680079195640079
 31
0.0
100
AcDbText
  0
LINE
  5
66
330
22
100
AcDbEntity
  8
TITLE
100
AcDbLine
 10
7.780999999999998
 20
10.058
 30
0.0
 11
7.780999999999998
 21
9.64
 31
0.0
  0
LINE
  5
67
330
22
100
AcDbEntity
  8
TITLE
100
AcDbLine
 10
7.719000000000001
 20
10.058
 30
0.0
 11
7.719000000000001
 21
9.64
 31
0.0
  0
LINE
  5
68
330
22
100
AcDbEntity
  8
TITLE
100
AcDbLine
 10
8.530999999999998
 20
10.058
 30
0.0
 11
8.530999999999998
 21
9.64
 31
0.0
  0
ENDBLK
  5
69
330
22
100
AcDbEntity
  8
0
100
AcDbBlockEnd
  0
BLOCK
  5
BE
330
2A
100
AcDbEntity
  8
0
100
AcDbBlockBegin
  2
*X1
 70
     1
 10
0.0
 20
0.0
 30
0.0
  3
*X1
  1

  0
LINE
  5
BF
330
2A
100
AcDbEntity
  8
0
 62
     0
100
AcDbLine
 10
66.68427746133194
 20
24.35572061643603
 30
0.0
 11
66.44427746133195
 21
24.59572061643603
 31
0.0
  0
LINE
  5
C0
330
2A
100
AcDbEntity
  8
0
 62
     0
100
AcDbLine
 10
66.68427746133196
 20
23.47183713995283
 30
0.0
 11
66.28018963721058
 21
23.87592496407421
 31
0.0
  0
LINE
  5
C1
330
2A
100
AcDbEntity
  8
0
 62
     0
100
AcDbLine
 10
66.27491376706107
 20
23.88120083422374
 30
0.0
 11
66.07741376706103
 21
24.07870083422377
 31
0.0
  0
LINE
  5
C2
330
2A
100
AcDbEntity
  8
0
 62
     0
100
AcDbLine
 10
66.39342162152705
 20
22.87880950327456
 30
0.0
 11
66.29308890811199
 21
22.97914221668961
 31
0.0
  0
LINE
  5
C3
330
2A
100
AcDbEntity
  8
0
 62
     0
100
AcDbLine
 10
65.69601628241368
 20
23.57621484238792
 30
0.0
 11
65.39238823751603
 21
23.87984288728558
 31
0.0
  0
LINE
  5
C4
330
2A
100
AcDbEntity
  8
0
 62
     0
100
AcDbLine
 10
65.5255545755069
 20
22.86279307281153
 30
0.0
 11
65.41117971296944
 21
22.97716793534898
 31
0.0
  0
LINE
  5
C5
330
2A
100
AcDbEntity
  8
0
 62
     0
100
AcDbLine
 10
64.81410708727111
 20
23.57424056104731
 30
0.0
 11
64.50458683782149
 21
23.88376081049694
 31
0.0
  0
LINE
  5
C6
330
2A
100
AcDbEntity
  8
0
 62
     0
100
AcDbLine
 10
64.65768752948675
 20
22.8467766423485
 30
0.0
 11
64.48453308765927
 21
23.01993108417596
 31
0.0
  0
LINE
  5
C7
330
2A
100
AcDbEntity
  8
0
 62
     0
100
AcDbLine
 10
63.93219789212856
 20
23.57226627970668
 30
0.0
 11
63.61678543812693
 21
23.8876787337083
 31
0.0
  0
LINE
  5
C8
330
2A
100
AcDbEntity
  8
0
 62
     0
100
AcDbLine
 10
63.7898204834666
 20
22.83076021188546
 30
0.0
 11
63.6026238925167
 21
23.01795680283535
 31
0.0
  0
LINE
  5
C9
330
2A
100
AcDbEntity
  8
0
 62
     0
100
AcDbLine
 10
63.05028869698599
 20
23.57029199836606
 30
0.0
 11
62.72898403843239
 21
23.89159665691967
 31
0.0
  0
LINE
  5
CA
330
2A
100
AcDbEntity
  8
0
 62
     0
100
AcDbLine
 10
62.92195343744644
 20
22.81474378142243
 30
0.0
 11
62.72071469737415
 21
23.01598252149472
 31
0.0
  0
LINE
  5
CB
330
2A
100
AcDbEntity
  8
0
 62
     0
100
AcDbLine
 10
62.16837950184342
 20
23.56831771702544
 30
0.0
 11
61.84118263873784
 21
23.89551458013103
 31
0.0
  0
LINE
  5
CC
330
2A
100
AcDbEntity
  8
0
 62
     0
100
AcDbLine
 10
62.0540863914263
 20
22.7987273509594
 30
0.0
 11
61.83880550223158
 21
23.01400824015411
 31
0.0
  0
LINE
  5
CD
330
2A
100
AcDbEntity
  8
0
 62
     0
100
AcDbLine
 10
61.28647030670086
 20
23.56634343568483
 30
0.0
 11
60.9533812390433
 21
23.8994325033424
 31
0.0
  0
LINE
  5
CE
330
2A
100
AcDbEntity
  8
0
 62
     0
100
AcDbLine
 10
61.18621934540615
 20
22.78271092049637
 30
0.0
 11
60.95181250820633
 21
23.01711775769617
 31
0.0
  0
LINE
  5
CF
330
2A
100
AcDbEntity
  8
0
 62
     0
100
AcDbLine
 10
66.60427746133196
 20
25.3196040929192
 30
0.0
 11
66.44427746133195
 21
25.47960409291921
 31
0.0
  0
LINE
  5
D0
330
2A
100
AcDbEntity
  8
0
 62
     0
100
AcDbLine
 10
66.60427746133196
 20
26.20348756940238
 30
0.0
 11
66.44427746133195
 21
26.36348756940239
 31
0.0
  0
LINE
  5
D1
330
2A
100
AcDbEntity
  8
0
 62
     0
100
AcDbLine
 10
66.60427746133196
 20
27.08737104588557
 30
0.0
 11
66.44427746133195
 21
27.24737104588558
 31
0.0
  0
LINE
  5
D2
330
2A
100
AcDbEntity
  8
0
 62
     0
100
AcDbLine
 10
66.60427746133196
 20
27.97125452236875
 30
0.0
 11
66.44427746133195
 21
28.13125452236876
 31
0.0
  0
LINE
  5
D3
330
2A
100
AcDbEntity
  8
0
 62
     0
100
AcDbLine
 10
61.31771736354391
 20
33.25781462015681
 30
0.0
 11
61.03371726332508
 21
33.54181472037562
 31
0.0
  0
LINE
  5
D4
330
2A
100
AcDbEntity
  8
0
 62
     0
100
AcDbLine
 10
66.60427746133196
 20
28.85513799885194
 30
0.0
 11
66.44427746133195
 21
29.01513799885194
 31
0.0
  0
LINE
  5
D5
330
2A
100
AcDbEntity
  8
0
 62
     0
100
AcDbLine
 10
62.19733087154166
 20
33.26208458864224
 30
0.0
 11
61.92071025735034
 21
33.53870520283356
 31
0.0
  0
LINE
  5
D6
330
2A
100
AcDbEntity
  8
0
 62
     0
100
AcDbLine
 10
66.60427746133196
 20
29.73902147533512
 30
0.0
 11
66.44427746133196
 21
29.89902147533512
 31
0.0
  0
LINE
  5
D7
330
2A
100
AcDbEntity
  8
0
 62
     0
100
AcDbLine
 10
63.07694437953942
 20
33.26635455712767
 30
0.0
 11
62.80261945249291
 21
33.54067948417417
 31
0.0
  0
LINE
  5
D8
330
2A
100
AcDbEntity
  8
0
 62
     0
100
AcDbLine
 10
66.60427746133196
 20
30.6229049518183
 30
0.0
 11
66.44427746133196
 21
30.78290495181831
 31
0.0
  0
LINE
  5
D9
330
2A
100
AcDbEntity
  8
0
 62
     0
100
AcDbLine
 10
63.95655788753717
 20
33.27062452561309
 30
0.0
 11
63.68452864763547
 21
33.5426537655148
 31
0.0
  0
LINE
  5
DA
330
2A
100
AcDbEntity
  8
0
 62
     0
100
AcDbLine
 10
66.60427746133196
 20
31.50678842830149
 30
0.0
 11
66.44427746133196
 21
31.66678842830149
 31
0.0
  0
LINE
  5
DB
330
2A
100
AcDbEntity
  8
0
 62
     0
100
AcDbLine
 10
64.83617139553493
 20
33.27489449409852
 30
0.0
 11
64.56643784277805
 21
33.54462804685541
 31
0.0
  0
LINE
  5
DC
330
2A
100
AcDbEntity
  8
0
 62
     0
100
AcDbLine
 10
66.68427746133194
 20
32.31067190478469
 30
0.0
 11
66.25924853189289
 21
32.73570083422374
 31
0.0
  0
LINE
  5
DD
330
2A
100
AcDbEntity
  8
0
 62
     0
100
AcDbLine
 10
65.71578490353269
 20
33.27916446258395
 30
0.0
 11
65.44834703792059
 21
33.54660232819604
 31
0.0
  0
LINE
  5
DE
330
2A
100
AcDbEntity
  8
0
 62
     0
100
AcDbLine
 10
66.60427746133198
 20
33.27455538126786
 30
0.0
 11
66.33025623306316
 21
33.54857660953666
 31
0.0
  0
LINE
  5
DF
330
2A
100
AcDbEntity
  8
0
 62
     0
100
AcDbLine
 10
66.60427746133196
 20
25.2091186583588
 30
0.0
 11
66.44427746133195
 21
25.36911865835881
 31
0.0
  0
LINE
  5
E0
330
2A
100
AcDbEntity
  8
0
 62
     0
100
AcDbLine
 10
66.68427746133194
 20
24.24523518187563
 30
0.0
 11
66.44427746133195
 21
24.48523518187563
 31
0.0
  0
LINE
  5
E1
330
2A
100
AcDbEntity
  8
0
 62
     0
100
AcDbLine
 10
66.62992833250061
 20
23.41570083422377
 30
0.0
 11
66.16921446224876
 21
23.87641470447563
 31
0.0
  0
LINE
  5
E2
330
2A
100
AcDbEntity
  8
0
 62
     0
100
AcDbLine
 10
66.16442833250066
 20
23.88120083422374
 30
0.0
 11
66.05127746133198
 21
23.99435170539241
 31
0.0
  0
LINE
  5
E3
330
2A
100
AcDbEntity
  8
0
 62
     0
100
AcDbLine
 10
66.28493824077454
 20
22.87680744946668
 30
0.0
 11
66.14929718609348
 21
23.01244850414773
 31
0.0
  0
LINE
  5
E4
330
2A
100
AcDbEntity
  8
0
 62
     0
100
AcDbLine
 10
65.59696199056277
 20
23.56478369967844
 30
0.0
 11
65.28141306255422
 21
23.880332627687
 31
0.0
  0
LINE
  5
E5
330
2A
100
AcDbEntity
  8
0
 62
     0
100
AcDbLine
 10
65.41707119475439
 20
22.86079101900365
 30
0.0
 11
65.26738799095092
 21
23.0104742228071
 31
0.0
  0
LINE
  5
E6
330
2A
100
AcDbEntity
  8
0
 62
     0
100
AcDbLine
 10
64.71505279542019
 20
23.56280941833783
 30
0.0
 11
64.39361166285967
 21
23.88425055089836
 31
0.0
  0
LINE
  5
E7
330
2A
100
AcDbEntity
  8
0
 62
     0
100
AcDbLine
 10
64.54920414873424
 20
22.84477458854062
 30
0.0
 11
64.38547879580835
 21
23.00849994146648
 31
0.0
  0
LINE
  5
E8
330
2A
100
AcDbEntity
  8
0
 62
     0
100
AcDbLine
 10
63.83314360027763
 20
23.56083513699721
 30
0.0
 11
63.50581026316511
 21
23.88816847410973
 31
0.0
  0
LINE
  5
E9
330
2A
100
AcDbEntity
  8
0
 62
     0
100
AcDbLine
 10
63.68133710271408
 20
22.82875815807759
 30
0.0
 11
63.5035696006658
 21
23.00652566012586
 31
0.0
  0
LINE
  5
EA
330
2A
100
AcDbEntity
  8
0
 62
     0
100
AcDbLine
 10
62.95123440513507
 20
23.55886085565658
 30
0.0
 11
62.61800886347057
 21
23.89208639732109
 31
0.0
  0
LINE
  5
EB
330
2A
100
AcDbEntity
  8
0
 62
     0
100
AcDbLine
 10
62.81347005669392
 20
22.81274172761456
 30
0.0
 11
62.62166040552322
 21
23.00455137878524
 31
0.0
  0
LINE
  5
EC
330
2A
100
AcDbEntity
  8
0
 62
     0
100
AcDbLine
 10
62.0693252099925
 20
23.55688657431596
 30
0.0
 11
61.73020746377602
 21
23.89600432053245
 31
0.0
  0
LINE
  5
ED
330
2A
100
AcDbEntity
  8
0
 62
     0
100
AcDbLine
 10
61.94560301067379
 20
22.79672529715152
 30
0.0
 11
61.73975121038066
 21
23.00257709744463
 31
0.0
  0
LINE
  5
EE
330
2A
100
AcDbEntity
  8
0
 62
     0
100
AcDbLine
 10
61.18233221596726
 20
23.55999609185803
 30
0.0
 11
60.84240606408148
 21
23.89992224374382
 31
0.0
  0
LINE
  5
EF
330
2A
100
AcDbEntity
  8
0
 62
     0
100
AcDbLine
 10
61.07773596465363
 20
22.78070886668849
 30
0.0
 11
60.85275821635542
 21
23.0056866149867
 31
0.0
  0
LINE
  5
F0
330
2A
100
AcDbEntity
  8
0
 62
     0
100
AcDbLine
 10
66.60427746133196
 20
26.09300213484198
 30
0.0
 11
66.44427746133195
 21
26.253002134842
 31
0.0
  0
LINE
  5
F1
330
2A
100
AcDbEntity
  8
0
 62
     0
100
AcDbLine
 10
66.60427746133196
 20
26.97688561132517
 30
0.0
 11
66.44427746133195
 21
27.13688561132518
 31
0.0
  0
LINE
  5
F2
330
2A
100
AcDbEntity
  8
0
 62
     0
100
AcDbLine
 10
66.60427746133196
 20
27.86076908780835
 30
0.0
 11
66.44427746133195
 21
28.02076908780836
 31
0.0
  0
LINE
  5
F3
330
2A
100
AcDbEntity
  8
0
 62
     0
100
AcDbLine
 10
61.20776567504418
 20
33.25728087409614
 30
0.0
 11
60.93466297147418
 21
33.53038357766614
 31
0.0
  0
LINE
  5
F4
330
2A
100
AcDbEntity
  8
0
 62
     0
100
AcDbLine
 10
66.60427746133196
 20
28.74465256429154
 30
0.0
 11
66.44427746133195
 21
28.90465256429154
 31
0.0
  0
LINE
  5
F5
330
2A
100
AcDbEntity
  8
0
 62
     0
100
AcDbLine
 10
62.08737918304194
 20
33.26155084258156
 30
0.0
 11
61.82165596549942
 21
33.52727406012408
 31
0.0
  0
LINE
  5
F6
330
2A
100
AcDbEntity
  8
0
 62
     0
100
AcDbLine
 10
66.60427746133196
 20
29.62853604077472
 30
0.0
 11
66.44427746133196
 21
29.78853604077473
 31
0.0
  0
LINE
  5
F7
330
2A
100
AcDbEntity
  8
0
 62
     0
100
AcDbLine
 10
62.9669926910397
 20
33.26582081106698
 30
0.0
 11
62.70356516064198
 21
33.5292483414647
 31
0.0
  0
LINE
  5
F8
330
2A
100
AcDbEntity
  8
0
 62
     0
100
AcDbLine
 10
66.60427746133196
 20
30.51241951725791
 30
0.0
 11
66.44427746133196
 21
30.67241951725791
 31
0.0
  0
LINE
  5
F9
330
2A
100
AcDbEntity
  8
0
 62
     0
100
AcDbLine
 10
63.84660619903746
 20
33.27009077955242
 30
0.0
 11
63.58547435578454
 21
33.53122262280532
 31
0.0
  0
LINE
  5
FA
330
2A
100
AcDbEntity
  8
0
 62
     0
100
AcDbLine
 10
66.60427746133196
 20
31.39630299374109
 30
0.0
 11
66.44427746133196
 21
31.55630299374109
 31
0.0
  0
LINE
  5
FB
330
2A
100
AcDbEntity
  8
0
 62
     0
100
AcDbLine
 10
64.72621970703521
 20
33.27436074803784
 30
0.0
 11
64.46738355092712
 21
33.53319690414593
 31
0.0
  0
LINE
  5
FC
330
2A
100
AcDbEntity
  8
0
 62
     0
100
AcDbLine
 10
66.68427746133194
 20
32.20018647022429
 30
0.0
 11
66.44427746133196
 21
32.44018647022429
 31
0.0
  0
LINE
  5
FD
330
2A
100
AcDbEntity
  8
0
 62
     0
100
AcDbLine
 10
65.60583321503298
 20
33.27863071652326
 30
0.0
 11
65.34929274606968
 21
33.53517118548656
 31
0.0
  0
LINE
  5
FE
330
2A
100
AcDbEntity
  8
0
 62
     0
100
AcDbLine
 10
66.34626309733251
 20
32.53820083422374
 30
0.0
 11
66.14876309733249
 21
32.73570083422375
 31
0.0
  0
LINE
  5
FF
330
2A
100
AcDbEntity
  8
0
 62
     0
100
AcDbLine
 10
66.60427746133198
 20
33.16406994670745
 30
0.0
 11
66.23120194121224
 21
33.53714546682719
 31
0.0
  0
LINE
  5
100
330
2A
100
AcDbEntity
  8
0
 62
     0
100
AcDbLine
 10
66.60427746133196
 20
25.0986332237984
 30
0.0
 11
66.44427746133195
 21
25.25863322379841
 31
0.0
  0
LINE
  5
101
330
2A
100
AcDbEntity
  8
0
 62
     0
100
AcDbLine
 10
66.68427746133194
 20
24.13474974731523
 30
0.0
 11
66.37782637442345
 21
24.44120083422374
 31
0.0
  0
LINE
  5
102
330
2A
100
AcDbEntity
  8
0
 62
     0
100
AcDbLine
 10
66.51944289794021
 20
23.41570083422378
 30
0.0
 11
66.39327746133194
 21
23.54186627083205
 31
0.0
  0
LINE
  5
103
330
2A
100
AcDbEntity
  8
0
 62
     0
100
AcDbLine
 10
66.05394289794026
 20
23.88120083422374
 30
0.0
 11
66.05127746133198
 21
23.88386627083202
 31
0.0
  0
LINE
  5
104
330
2A
100
AcDbEntity
  8
0
 62
     0
100
AcDbLine
 10
66.3798168938544
 20
23.5553268383096
 30
0.0
 11
66.05823928728695
 21
23.87690444487705
 31
0.0
  0
LINE
  5
105
330
2A
100
AcDbEntity
  8
0
 62
     0
100
AcDbLine
 10
66.17645486002202
 20
22.8748053956588
 30
0.0
 11
66.05024289424254
 21
23.00101736143826
 31
0.0
  0
LINE
  5
106
330
2A
100
AcDbEntity
  8
0
 62
     0
100
AcDbLine
 10
65.45317026854424
 20
23.59808998713657
 30
0.0
 11
65.1704378875924
 21
23.88082236808842
 31
0.0
  0
LINE
  5
107
330
2A
100
AcDbEntity
  8
0
 62
     0
100
AcDbLine
 10
65.49790769871184
 20
23.55335255696897
 30
0.0
 11
65.4596732976605
 21
23.59158695802031
 31
0.0
  0
LINE
  5
108
330
2A
100
AcDbEntity
  8
0
 62
     0
100
AcDbLine
 10
65.30858781400187
 20
22.85878896519577
 30
0.0
 11
65.1683336991
 21
22.99904308009763
 31
0.0
  0
LINE
  5
109
330
2A
100
AcDbEntity
  8
0
 62
     0
100
AcDbLine
 10
64.57126107340169
 20
23.59611570579593
 30
0.0
 11
64.28263648789784
 21
23.88474029129978
 31
0.0
  0
LINE
  5
10A
330
2A
100
AcDbEntity
  8
0
 62
     0
100
AcDbLine
 10
64.44072076798171
 20
22.84277253473274
 30
0.0
 11
64.28642450395743
 21
22.997068798757
 31
0.0
  0
LINE
  5
10B
330
2A
100
AcDbEntity
  8
0
 62
     0
100
AcDbLine
 10
63.68935187825911
 20
23.59414142445533
 30
0.0
 11
63.3948350882033
 21
23.88865821451115
 31
0.0
  0
LINE
  5
10C
330
2A
100
AcDbEntity
  8
0
 62
     0
100
AcDbLine
 10
63.57285372196155
 20
22.8267561042697
 30
0.0
 11
63.40451530881487
 21
22.99509451741639
 31
0.0
  0
LINE
  5
10D
330
2A
100
AcDbEntity
  8
0
 62
     0
100
AcDbLine
 10
62.80744268311654
 20
23.5921671431147
 30
0.0
 11
62.50703368850875
 21
23.89257613772251
 31
0.0
  0
LINE
  5
10E
330
2A
100
AcDbEntity
  8
0
 62
     0
100
AcDbLine
 10
62.7049866759414
 20
22.81073967380668
 30
0.0
 11
62.5226061136723
 21
22.99312023607577
 31
0.0
  0
LINE
  5
10F
330
2A
100
AcDbEntity
  8
0
 62
     0
100
AcDbLine
 10
61.92553348797399
 20
23.59019286177408
 30
0.0
 11
61.6192322888142
 21
23.89649406093388
 31
0.0
  0
LINE
  5
110
330
2A
100
AcDbEntity
  8
0
 62
     0
100
AcDbLine
 10
61.83711962992126
 20
22.79472324334365
 30
0.0
 11
61.64069691852974
 21
22.99114595473516
 31
0.0
  0
LINE
  5
111
330
2A
100
AcDbEntity
  8
0
 62
     0
100
AcDbLine
 10
61.03854049394874
 20
23.59330237931616
 30
0.0
 11
60.77927746133195
 21
23.85256541193295
 31
0.0
  0
LINE
  5
112
330
2A
100
AcDbEntity
  8
0
 62
     0
100
AcDbLine
 10
60.96925258390111
 20
22.77870681288062
 30
0.0
 11
60.77927746133195
 21
22.96868193544977
 31
0.0
  0
LINE
  5
113
330
2A
100
AcDbEntity
  8
0
 62
     0
100
AcDbLine
 10
66.60427746133196
 20
25.98251670028159
 30
0.0
 11
66.44427746133195
 21
26.1425167002816
 31
0.0
  0
LINE
  5
114
330
2A
100
AcDbEntity
  8
0
 62
     0
100
AcDbLine
 10
66.60427746133196
 20
26.86640017676477
 30
0.0
 11
66.44427746133195
 21
27.02640017676478
 31
0.0
  0
LINE
  5
115
330
2A
100
AcDbEntity
  8
0
 62
     0
100
AcDbLine
 10
66.60427746133196
 20
27.75028365324796
 30
0.0
 11
66.44427746133195
 21
27.91028365324796
 31
0.0
  0
LINE
  5
116
330
2A
100
AcDbEntity
  8
0
 62
     0
100
AcDbLine
 10
61.09781398654447
 20
33.25674712803545
 30
0.0
 11
60.83560867962326
 21
33.51895243495666
 31
0.0
  0
LINE
  5
117
330
2A
100
AcDbEntity
  8
0
 62
     0
100
AcDbLine
 10
66.60427746133196
 20
28.63416712973114
 30
0.0
 11
66.44427746133195
 21
28.79416712973115
 31
0.0
  0
LINE
  5
118
330
2A
100
AcDbEntity
  8
0
 62
     0
100
AcDbLine
 10
61.97742749454222
 20
33.26101709652089
 30
0.0
 11
61.7226016736485
 21
33.5158429174146
 31
0.0
  0
LINE
  5
119
330
2A
100
AcDbEntity
  8
0
 62
     0
100
AcDbLine
 10
66.60427746133196
 20
29.51805060621433
 30
0.0
 11
66.44427746133195
 21
29.67805060621433
 31
0.0
  0
LINE
  5
11A
330
2A
100
AcDbEntity
  8
0
 62
     0
100
AcDbLine
 10
62.85704100253997
 20
33.26528706500631
 30
0.0
 11
62.60451086879107
 21
33.51781719875521
 31
0.0
  0
LINE
  5
11B
330
2A
100
AcDbEntity
  8
0
 62
     0
100
AcDbLine
 10
66.60427746133196
 20
30.40193408269751
 30
0.0
 11
66.44427746133196
 21
30.56193408269751
 31
0.0
  0
LINE
  5
11C
330
2A
100
AcDbEntity
  8
0
 62
     0
100
AcDbLine
 10
63.73665451053774
 20
33.26955703349173
 30
0.0
 11
63.48642006393364
 21
33.51979148009583
 31
0.0
  0
LINE
  5
11D
330
2A
100
AcDbEntity
  8
0
 62
     0
100
AcDbLine
 10
66.60427746133196
 20
31.28581755918069
 30
0.0
 11
66.44427746133196
 21
31.44581755918069
 31
0.0
  0
LINE
  5
11E
330
2A
100
AcDbEntity
  8
0
 62
     0
100
AcDbLine
 10
64.61626801853549
 20
33.27382700197716
 30
0.0
 11
64.36832925907619
 21
33.52176576143646
 31
0.0
  0
LINE
  5
11F
330
2A
100
AcDbEntity
  8
0
 62
     0
100
AcDbLine
 10
66.64575909202834
 20
32.1282194049675
 30
0.0
 11
66.40077766277207
 21
32.37320083422377
 31
0.0
  0
LINE
  5
120
330
2A
100
AcDbEntity
  8
0
 62
     0
100
AcDbLine
 10
65.49588152653325
 20
33.27809697046259
 30
0.0
 11
65.25023845421876
 21
33.52374004277708
 31
0.0
  0
LINE
  5
121
330
2A
100
AcDbEntity
  8
0
 62
     0
100
AcDbLine
 10
66.23577766277211
 20
32.53820083422374
 30
0.0
 11
66.05127746133198
 21
32.72270103566387
 31
0.0
  0
LINE
  5
122
330
2A
100
AcDbEntity
  8
0
 62
     0
100
AcDbLine
 10
66.60427746133199
 20
33.05358451214704
 30
0.0
 11
66.44427746133196
 21
33.21358451214707
 31
0.0
  0
LINE
  5
123
330
2A
100
AcDbEntity
  8
0
 62
     0
100
AcDbLine
 10
66.37549503453101
 20
33.28236693894801
 30
0.0
 11
66.13214764936131
 21
33.52571432411771
 31
0.0
  0
LINE
  5
124
330
2A
100
AcDbEntity
  8
0
 62
     0
100
AcDbLine
 10
66.60427746133196
 20
24.76717692011721
 30
0.0
 11
66.44427746133195
 21
24.92717692011722
 31
0.0
  0
LINE
  5
125
330
2A
100
AcDbEntity
  8
0
 62
     0
100
AcDbLine
 10
66.65175346830253
 20
23.83581743666347
 30
0.0
 11
66.40887007074223
 21
24.07870083422377
 31
0.0
  0
LINE
  5
126
330
2A
100
AcDbEntity
  8
0
 62
     0
100
AcDbLine
 10
66.24387007074225
 20
24.24370083422374
 30
0.0
 11
66.05127746133198
 21
24.43629344363401
 31
0.0
  0
LINE
  5
127
330
2A
100
AcDbEntity
  8
0
 62
     0
100
AcDbLine
 10
66.64480274498163
 20
22.95888468350117
 30
0.0
 11
66.44598659425902
 21
23.15770083422378
 31
0.0
  0
LINE
  5
128
330
2A
100
AcDbEntity
  8
0
 62
     0
100
AcDbLine
 10
66.03791658813404
 20
23.56577084034876
 30
0.0
 11
65.72531376240148
 21
23.87837366608132
 31
0.0
  0
LINE
  5
129
330
2A
100
AcDbEntity
  8
0
 62
     0
100
AcDbLine
 10
65.85100471776446
 20
22.86879923423516
 30
0.0
 11
65.70834258852219
 21
23.01146136347742
 31
0.0
  0
LINE
  5
12A
330
2A
100
AcDbEntity
  8
0
 62
     0
100
AcDbLine
 10
65.15600739299149
 20
23.56379655900814
 30
0.0
 11
64.83751236270695
 21
23.88229158929268
 31
0.0
  0
LINE
  5
12B
330
2A
100
AcDbEntity
  8
0
 62
     0
100
AcDbLine
 10
64.98313767174431
 20
22.85278280377213
 30
0.0
 11
64.82643339337963
 21
23.0094870821368
 31
0.0
  0
LINE
  5
12C
330
2A
100
AcDbEntity
  8
0
 62
     0
100
AcDbLine
 10
64.27409819784893
 20
23.56182227766751
 30
0.0
 11
63.94971096301239
 21
23.88620951250405
 31
0.0
  0
LINE
  5
12D
330
2A
100
AcDbEntity
  8
0
 62
     0
100
AcDbLine
 10
64.11527062572415
 20
22.8367663733091
 30
0.0
 11
63.94452419823707
 21
23.00751280079617
 31
0.0
  0
LINE
  5
12E
330
2A
100
AcDbEntity
  8
0
 62
     0
100
AcDbLine
 10
63.39218900270636
 20
23.55984799632689
 30
0.0
 11
63.06190956331785
 21
23.89012743571541
 31
0.0
  0
LINE
  5
12F
330
2A
100
AcDbEntity
  8
0
 62
     0
100
AcDbLine
 10
63.24740357970401
 20
22.82074994284607
 30
0.0
 11
63.06261500309451
 21
23.00553851945555
 31
0.0
  0
LINE
  5
130
330
2A
100
AcDbEntity
  8
0
 62
     0
100
AcDbLine
 10
62.51027980756379
 20
23.55787371498627
 30
0.0
 11
62.17410816362329
 21
23.89404535892677
 31
0.0
  0
LINE
  5
131
330
2A
100
AcDbEntity
  8
0
 62
     0
100
AcDbLine
 10
62.37953653368386
 20
22.80473351238304
 30
0.0
 11
62.18070580795195
 21
23.00356423811495
 31
0.0
  0
LINE
  5
132
330
2A
100
AcDbEntity
  8
0
 62
     0
100
AcDbLine
 10
61.62837061242122
 20
23.55589943364567
 30
0.0
 11
61.28630676392876
 21
23.89796328213813
 31
0.0
  0
LINE
  5
133
330
2A
100
AcDbEntity
  8
0
 62
     0
100
AcDbLine
 10
61.5116694876637
 20
22.78871708192001
 30
0.0
 11
61.29879661280938
 21
23.00158995677433
 31
0.0
  0
LINE
  5
134
330
2A
100
AcDbEntity
  8
0
 62
     0
100
AcDbLine
 10
66.60427746133196
 20
25.65106039660039
 30
0.0
 11
66.44427746133195
 21
25.8110603966004
 31
0.0
  0
LINE
  5
135
330
2A
100
AcDbEntity
  8
0
 62
     0
100
AcDbLine
 10
66.60427746133196
 20
26.53494387308358
 30
0.0
 11
66.44427746133195
 21
26.69494387308358
 31
0.0
  0
LINE
  5
136
330
2A
100
AcDbEntity
  8
0
 62
     0
100
AcDbLine
 10
66.60427746133196
 20
27.41882734956676
 30
0.0
 11
66.44427746133195
 21
27.57882734956677
 31
0.0
  0
LINE
  5
137
330
2A
100
AcDbEntity
  8
0
 62
     0
100
AcDbLine
 10
60.70536937340147
 20
33.31773543749724
 30
0.0
 11
60.66427746133194
 21
33.35882734956678
 31
0.0
  0
LINE
  5
138
330
2A
100
AcDbEntity
  8
0
 62
     0
100
AcDbLine
 10
66.60427746133196
 20
28.30271082604994
 30
0.0
 11
66.44427746133195
 21
28.46271082604995
 31
0.0
  0
LINE
  5
139
330
2A
100
AcDbEntity
  8
0
 62
     0
100
AcDbLine
 10
61.64757242904307
 20
33.25941585833884
 30
0.0
 11
61.38070136792813
 21
33.52628691945377
 31
0.0
  0
LINE
  5
13A
330
2A
100
AcDbEntity
  8
0
 62
     0
100
AcDbLine
 10
66.60427746133196
 20
29.18659430253313
 30
0.0
 11
66.44427746133195
 21
29.34659430253313
 31
0.0
  0
LINE
  5
13B
330
2A
100
AcDbEntity
  8
0
 62
     0
100
AcDbLine
 10
62.52718593704082
 20
33.26368582682428
 30
0.0
 11
62.26261056307071
 21
33.52826120079439
 31
0.0
  0
LINE
  5
13C
330
2A
100
AcDbEntity
  8
0
 62
     0
100
AcDbLine
 10
66.60427746133196
 20
30.07047777901632
 30
0.0
 11
66.44427746133196
 21
30.23047777901632
 31
0.0
  0
LINE
  5
13D
330
2A
100
AcDbEntity
  8
0
 62
     0
100
AcDbLine
 10
63.40679944503857
 20
33.2679557953097
 30
0.0
 11
63.14451975821327
 21
33.530235482135
 31
0.0
  0
LINE
  5
13E
330
2A
100
AcDbEntity
  8
0
 62
     0
100
AcDbLine
 10
66.60427746133196
 20
30.9543612554995
 30
0.0
 11
66.44427746133196
 21
31.1143612554995
 31
0.0
  0
LINE
  5
13F
330
2A
100
AcDbEntity
  8
0
 62
     0
100
AcDbLine
 10
64.28641295303633
 20
33.27222576379512
 30
0.0
 11
64.02642895335583
 21
33.53220976347563
 31
0.0
  0
LINE
  5
140
330
2A
100
AcDbEntity
  8
0
 62
     0
100
AcDbLine
 10
66.60427746133196
 20
31.83824473198269
 30
0.0
 11
66.44427746133196
 21
31.99824473198269
 31
0.0
  0
LINE
  5
141
330
2A
100
AcDbEntity
  8
0
 62
     0
100
AcDbLine
 10
65.16602646103409
 20
33.27649573228056
 30
0.0
 11
64.90833814849839
 21
33.53418404481625
 31
0.0
  0
LINE
  5
142
330
2A
100
AcDbEntity
  8
0
 62
     0
100
AcDbLine
 10
66.26682135909092
 20
32.17570083422374
 30
0.0
 11
66.06932135909088
 21
32.37320083422377
 31
0.0
  0
LINE
  5
143
330
2A
100
AcDbEntity
  8
0
 62
     0
100
AcDbLine
 10
66.68427746133194
 20
32.64212820846589
 30
0.0
 11
66.44427746133199
 21
32.88212820846584
 31
0.0
  0
LINE
  5
144
330
2A
100
AcDbEntity
  8
0
 62
     0
100
AcDbLine
 10
66.04563996903185
 20
33.28076570076598
 30
0.0
 11
65.79024734364094
 21
33.53615832615688
 31
0.0
  0
LINE
  5
145
330
2A
100
AcDbEntity
  8
0
 62
     0
100
AcDbLine
 10
66.68427746133207
 20
33.52601168494896
 30
0.0
 11
66.5215883120573
 21
33.68870083422371
 31
0.0
  0
ENDBLK
  5
146
330
2A
100
AcDbEntity
  8
0
100
AcDbBlockEnd
  0
BLOCK
  5
147
330
2B
100
AcDbEntity
  8
0
100
AcDbBlockBegin
  2
*X2
 70
     1
 10
0.0
 20
0.0
 30
0.0
  3
*X2
  1

  0
LINE
  5
148
330
2B
100
AcDbEntity
  8
0
 62
     0
100
AcDbLine
 10
59.56927746133195
 20
27.74947230793731
 30
0.0
 11
59.68427746133196
 21
27.86447230793732
 31
0.0
  0
LINE
  5
149
330
2B
100
AcDbEntity
  8
0
 62
     0
100
AcDbLine
 10
59.56927746133195
 20
28.63335578442049
 30
0.0
 11
59.68427746133196
 21
28.7483557844205
 31
0.0
  0
LINE
  5
14A
330
2B
100
AcDbEntity
  8
0
 62
     0
100
AcDbLine
 10
59.56927746133195
 20
29.51723926090368
 30
0.0
 11
59.68427746133196
 21
29.63223926090368
 31
0.0
  0
LINE
  5
14B
330
2B
100
AcDbEntity
  8
0
 62
     0
100
AcDbLine
 10
59.56927746133195
 20
30.40112273738686
 30
0.0
 11
59.68427746133196
 21
30.51612273738687
 31
0.0
  0
LINE
  5
14C
330
2B
100
AcDbEntity
  8
0
 62
     0
100
AcDbLine
 10
59.56927746133195
 20
31.28500621387004
 30
0.0
 11
59.68427746133196
 21
31.40000621387005
 31
0.0
  0
LINE
  5
14D
330
2B
100
AcDbEntity
  8
0
 62
     0
100
AcDbLine
 10
59.56927746133195
 20
32.16888969035323
 30
0.0
 11
59.68427746133196
 21
32.28388969035324
 31
0.0
  0
LINE
  5
14E
330
2B
100
AcDbEntity
  8
0
 62
     0
100
AcDbLine
 10
60.58108860520245
 20
33.18070083422374
 30
0.0
 11
60.64608860520245
 21
33.24570083422373
 31
0.0
  0
LINE
  5
14F
330
2B
100
AcDbEntity
  8
0
 62
     0
100
AcDbLine
 10
59.56927746133195
 20
33.05277316683641
 30
0.0
 11
59.98920512871928
 21
33.47270083422374
 31
0.0
  0
LINE
  5
150
330
2B
100
AcDbEntity
  8
0
 62
     0
100
AcDbLine
 10
59.56927746133195
 20
26.86558883145412
 30
0.0
 11
59.68427746133196
 21
26.98058883145413
 31
0.0
  0
LINE
  5
151
330
2B
100
AcDbEntity
  8
0
 62
     0
100
AcDbLine
 10
59.56927746133195
 20
25.98170535497094
 30
0.0
 11
59.68427746133196
 21
26.09670535497095
 31
0.0
  0
LINE
  5
152
330
2B
100
AcDbEntity
  8
0
 62
     0
100
AcDbLine
 10
59.56927746133195
 20
25.09782187848776
 30
0.0
 11
59.68427746133196
 21
25.21282187848776
 31
0.0
  0
LINE
  5
153
330
2B
100
AcDbEntity
  8
0
 62
     0
100
AcDbLine
 10
59.56927746133195
 20
24.21393840200457
 30
0.0
 11
59.68427746133196
 21
24.32893840200458
 31
0.0
  0
LINE
  5
154
330
2B
100
AcDbEntity
  8
0
 62
     0
100
AcDbLine
 10
59.87092337003432
 20
23.63170083422376
 30
0.0
 11
60.14409534380304
 21
23.90487280799247
 31
0.0
  0
LINE
  5
155
330
2B
100
AcDbEntity
  8
0
 62
     0
100
AcDbLine
 10
59.9559708184218
 20
22.83286480612805
 30
0.0
 11
60.0648068465175
 21
22.94170083422375
 31
0.0
  0
LINE
  5
156
330
2B
100
AcDbEntity
  8
0
 62
     0
100
AcDbLine
 10
60.71916606328658
 20
23.59606005099283
 30
0.0
 11
60.77927746133195
 21
23.65617144903821
 31
0.0
  0
LINE
  5
157
330
2B
100
AcDbEntity
  8
0
 62
     0
100
AcDbLine
 10
59.56927746133195
 20
27.85995774249771
 30
0.0
 11
59.68427746133196
 21
27.97495774249771
 31
0.0
  0
LINE
  5
158
330
2B
100
AcDbEntity
  8
0
 62
     0
100
AcDbLine
 10
59.56927746133195
 20
28.74384121898089
 30
0.0
 11
59.68427746133196
 21
28.8588412189809
 31
0.0
  0
LINE
  5
159
330
2B
100
AcDbEntity
  8
0
 62
     0
100
AcDbLine
 10
59.56927746133195
 20
29.62772469546408
 30
0.0
 11
59.68427746133196
 21
29.74272469546408
 31
0.0
  0
LINE
  5
15A
330
2B
100
AcDbEntity
  8
0
 62
     0
100
AcDbLine
 10
59.56927746133195
 20
30.51160817194726
 30
0.0
 11
59.68427746133196
 21
30.62660817194727
 31
0.0
  0
LINE
  5
15B
330
2B
100
AcDbEntity
  8
0
 62
     0
100
AcDbLine
 10
59.56927746133195
 20
31.39549164843044
 30
0.0
 11
59.68427746133196
 21
31.51049164843045
 31
0.0
  0
LINE
  5
15C
330
2B
100
AcDbEntity
  8
0
 62
     0
100
AcDbLine
 10
59.56927746133195
 20
32.27937512491363
 30
0.0
 11
59.68427746133196
 21
32.39437512491364
 31
0.0
  0
LINE
  5
15D
330
2B
100
AcDbEntity
  8
0
 62
     0
100
AcDbLine
 10
60.71760317064206
 20
33.42770083422374
 30
0.0
 11
60.77927746133195
 21
33.48937512491363
 31
0.0
  0
LINE
  5
15E
330
2B
100
AcDbEntity
  8
0
 62
     0
100
AcDbLine
 10
60.47060317064206
 20
33.18070083422374
 30
0.0
 11
60.62227746133194
 21
33.33237512491362
 31
0.0
  0
LINE
  5
15F
330
2B
100
AcDbEntity
  8
0
 62
     0
100
AcDbLine
 10
59.59074364316501
 20
33.18472478322988
 30
0.0
 11
59.70225351232581
 21
33.29623465239068
 31
0.0
  0
LINE
  5
160
330
2B
100
AcDbEntity
  8
0
 62
     0
100
AcDbLine
 10
59.79927746133196
 20
33.39325860139684
 30
0.0
 11
59.87871969415888
 21
33.47270083422375
 31
0.0
  0
LINE
  5
161
330
2B
100
AcDbEntity
  8
0
 62
     0
100
AcDbLine
 10
59.56927746133195
 20
26.97607426601452
 30
0.0
 11
59.68427746133196
 21
27.09107426601453
 31
0.0
  0
LINE
  5
162
330
2B
100
AcDbEntity
  8
0
 62
     0
100
AcDbLine
 10
59.56927746133195
 20
26.09219078953134
 30
0.0
 11
59.68427746133196
 21
26.20719078953134
 31
0.0
  0
LINE
  5
163
330
2B
100
AcDbEntity
  8
0
 62
     0
100
AcDbLine
 10
59.56927746133195
 20
25.20830731304815
 30
0.0
 11
59.68427746133196
 21
25.32330731304816
 31
0.0
  0
LINE
  5
164
330
2B
100
AcDbEntity
  8
0
 62
     0
100
AcDbLine
 10
59.56927746133195
 20
24.32442383656497
 30
0.0
 11
59.68427746133196
 21
24.43942383656498
 31
0.0
  0
LINE
  5
165
330
2B
100
AcDbEntity
  8
0
 62
     0
100
AcDbLine
 10
59.79927746133196
 20
23.67054036008179
 30
0.0
 11
60.03360990924264
 21
23.90487280799247
 31
0.0
  0
LINE
  5
166
330
2B
100
AcDbEntity
  8
0
 62
     0
100
AcDbLine
 10
59.84945264245604
 20
22.83683206472269
 30
0.0
 11
59.9543214119571
 21
22.94170083422375
 31
0.0
  0
LINE
  5
167
330
2B
100
AcDbEntity
  8
0
 62
     0
100
AcDbLine
 10
60.60868062872618
 20
23.59606005099283
 30
0.0
 11
60.67049338572581
 21
23.65787280799247
 31
0.0
  0
LINE
  5
168
330
2B
100
AcDbEntity
  8
0
 62
     0
100
AcDbLine
 10
60.70159805018207
 20
22.80509399596555
 30
0.0
 11
60.77927746133195
 21
22.88277340711541
 31
0.0
  0
LINE
  5
169
330
2B
100
AcDbEntity
  8
0
 62
     0
100
AcDbLine
 10
59.56927746133195
 20
27.97044317705811
 30
0.0
 11
59.68427746133196
 21
28.08544317705811
 31
0.0
  0
LINE
  5
16A
330
2B
100
AcDbEntity
  8
0
 62
     0
100
AcDbLine
 10
59.56927746133195
 20
28.85432665354129
 30
0.0
 11
59.68427746133196
 21
28.9693266535413
 31
0.0
  0
LINE
  5
16B
330
2B
100
AcDbEntity
  8
0
 62
     0
100
AcDbLine
 10
59.56927746133195
 20
29.73821013002448
 30
0.0
 11
59.68427746133196
 21
29.85321013002448
 31
0.0
  0
LINE
  5
16C
330
2B
100
AcDbEntity
  8
0
 62
     0
100
AcDbLine
 10
59.56927746133195
 20
30.62209360650766
 30
0.0
 11
59.68427746133196
 21
30.73709360650767
 31
0.0
  0
LINE
  5
16D
330
2B
100
AcDbEntity
  8
0
 62
     0
100
AcDbLine
 10
59.56927746133195
 20
31.50597708299084
 30
0.0
 11
59.68427746133196
 21
31.62097708299085
 31
0.0
  0
LINE
  5
16E
330
2B
100
AcDbEntity
  8
0
 62
     0
100
AcDbLine
 10
59.56927746133195
 20
32.38986055947403
 30
0.0
 11
59.68427746133196
 21
32.50486055947404
 31
0.0
  0
LINE
  5
16F
330
2B
100
AcDbEntity
  8
0
 62
     0
100
AcDbLine
 10
60.36011773608166
 20
33.18070083422374
 30
0.0
 11
60.68461773608168
 21
33.50520083422376
 31
0.0
  0
LINE
  5
170
330
2B
100
AcDbEntity
  8
0
 62
     0
100
AcDbLine
 10
59.56927746133195
 20
27.08655970057492
 30
0.0
 11
59.68427746133196
 21
27.20155970057493
 31
0.0
  0
LINE
  5
171
330
2B
100
AcDbEntity
  8
0
 62
     0
100
AcDbLine
 10
59.56927746133195
 20
26.20267622409174
 30
0.0
 11
59.68427746133196
 21
26.31767622409174
 31
0.0
  0
LINE
  5
172
330
2B
100
AcDbEntity
  8
0
 62
     0
100
AcDbLine
 10
59.56927746133195
 20
25.31879274760855
 30
0.0
 11
59.68427746133196
 21
25.43379274760856
 31
0.0
  0
LINE
  5
173
330
2B
100
AcDbEntity
  8
0
 62
     0
100
AcDbLine
 10
59.56927746133195
 20
24.43490927112537
 30
0.0
 11
59.68427746133196
 21
24.54990927112538
 31
0.0
  0
LINE
  5
174
330
2B
100
AcDbEntity
  8
0
 62
     0
100
AcDbLine
 10
59.78917449902387
 20
23.7709228323341
 30
0.0
 11
59.92312447468224
 21
23.90487280799247
 31
0.0
  0
LINE
  5
175
330
2B
100
AcDbEntity
  8
0
 62
     0
100
AcDbLine
 10
59.79927746133197
 20
22.89714231815902
 30
0.0
 11
59.8438359773967
 21
22.94170083422375
 31
0.0
  0
LINE
  5
176
330
2B
100
AcDbEntity
  8
0
 62
     0
100
AcDbLine
 10
60.74200795116541
 20
23.83987280799245
 30
0.0
 11
60.77927746133195
 21
23.87714231815901
 31
0.0
  0
LINE
  5
177
330
2B
100
AcDbEntity
  8
0
 62
     0
100
AcDbLine
 10
60.52927746133192
 20
23.62714231815898
 30
0.0
 11
60.62227746133193
 21
23.72014231815899
 31
0.0
  0
LINE
  5
178
330
2B
100
AcDbEntity
  8
0
 62
     0
100
AcDbLine
 10
60.59507987421632
 20
22.80906125456019
 30
0.0
 11
60.76336023711075
 21
22.97734161745461
 31
0.0
  0
LINE
  5
179
330
2B
100
AcDbEntity
  8
0
 62
     0
100
AcDbLine
 10
59.56927746133195
 20
28.3018994807393
 30
0.0
 11
59.68427746133196
 21
28.41689948073931
 31
0.0
  0
LINE
  5
17A
330
2B
100
AcDbEntity
  8
0
 62
     0
100
AcDbLine
 10
59.56927746133195
 20
29.18578295722248
 30
0.0
 11
59.68427746133196
 21
29.30078295722249
 31
0.0
  0
LINE
  5
17B
330
2B
100
AcDbEntity
  8
0
 62
     0
100
AcDbLine
 10
59.56927746133195
 20
30.06966643370567
 30
0.0
 11
59.68427746133196
 21
30.18466643370568
 31
0.0
  0
LINE
  5
17C
330
2B
100
AcDbEntity
  8
0
 62
     0
100
AcDbLine
 10
59.56927746133195
 20
30.95354991018885
 30
0.0
 11
59.68427746133196
 21
31.06854991018886
 31
0.0
  0
LINE
  5
17D
330
2B
100
AcDbEntity
  8
0
 62
     0
100
AcDbLine
 10
59.56927746133195
 20
31.83743338667204
 30
0.0
 11
59.68427746133196
 21
31.95243338667205
 31
0.0
  0
LINE
  5
17E
330
2B
100
AcDbEntity
  8
0
 62
     0
100
AcDbLine
 10
59.56927746133195
 20
32.72131686315522
 30
0.0
 11
59.68427746133196
 21
32.83631686315523
 31
0.0
  0
LINE
  5
17F
330
2B
100
AcDbEntity
  8
0
 62
     0
100
AcDbLine
 10
60.02866143240046
 20
33.18070083422374
 30
0.0
 11
60.32066143240046
 21
33.47270083422374
 31
0.0
  0
LINE
  5
180
330
2B
100
AcDbEntity
  8
0
 62
     0
100
AcDbLine
 10
59.56927746133195
 20
27.41801600425612
 30
0.0
 11
59.68427746133196
 21
27.53301600425612
 31
0.0
  0
LINE
  5
181
330
2B
100
AcDbEntity
  8
0
 62
     0
100
AcDbLine
 10
59.56927746133195
 20
26.53413252777293
 30
0.0
 11
59.68427746133196
 21
26.64913252777294
 31
0.0
  0
LINE
  5
182
330
2B
100
AcDbEntity
  8
0
 62
     0
100
AcDbLine
 10
59.56927746133195
 20
25.65024905128975
 30
0.0
 11
59.68427746133196
 21
25.76524905128975
 31
0.0
  0
LINE
  5
183
330
2B
100
AcDbEntity
  8
0
 62
     0
100
AcDbLine
 10
59.56927746133195
 20
24.76636557480656
 30
0.0
 11
59.68427746133196
 21
24.88136557480657
 31
0.0
  0
LINE
  5
184
330
2B
100
AcDbEntity
  8
0
 62
     0
100
AcDbLine
 10
59.59065753527149
 20
23.90386217226292
 30
0.0
 11
59.68612687510773
 21
23.99933151209917
 31
0.0
  0
LINE
  5
185
330
2B
100
AcDbEntity
  8
0
 62
     0
100
AcDbLine
 10
60.20237967371552
 20
23.63170083422376
 30
0.0
 11
60.47555164748423
 21
23.90487280799247
 31
0.0
  0
LINE
  5
186
330
2B
100
AcDbEntity
  8
0
 62
     0
100
AcDbLine
 10
60.27552534631906
 20
22.82096303034412
 30
0.0
 11
60.39626315019869
 21
22.94170083422375
 31
0.0
  0
ENDBLK
  5
187
330
2B
100
AcDbEntity
  8
0
100
AcDbBlockEnd
  0
BLOCK
  5
965
330
95A
100
AcDbEntity
  8
0
100
AcDbBlockBegin
  2
*D3
 70
     1
 10
0.0
 20
0.0
 30
0.0
  3
*D3
  1

  0
LINE
  5
95B
330
95A
100
AcDbEntity
  8
DIM
 62
     0
370
    -2
100
AcDbLine
 10
77.87799790058159
 20
16.8503818528653
 30
0.0
 11
72.55649790058157
 21
16.8503818528653
 31
0.0
  0
LINE
  5
95C
330
95A
100
AcDbEntity
  8
DIM
 62
     0
370
    -2
100
AcDbLine
 10
77.87799790058159
 20
36.16338185286528
 30
0.0
 11
72.55649790058159
 21
36.16338185286528
 31
0.0
  0
LINE
  5
95D
330
95A
100
AcDbEntity
  8
DIM
 62
     0
370
    -2
100
AcDbLine
 10
73.20749790058157
 20
18.1103818528653
 30
0.0
 11
73.20749790058157
 21
25.43938185286529
 31
0.0
  0
LINE
  5
95E
330
95A
100
AcDbEntity
  8
DIM
 62
     0
370
    -2
100
AcDbLine
 10
73.20749790058158
 20
34.90338185286528
 30
0.0
 11
73.20749790058157
 21
27.57438185286528
 31
0.0
  0
SOLID
  5
95F
330
95A
100
AcDbEntity
  8
DIM
 62
     0
100
AcDbTrace
 10
72.99749790058157
 20
18.1103818528653
 30
0.0
 11
73.41749790058156
 21
18.1103818528653
 31
0.0
 12
73.20749790058157
 22
16.8503818528653
 32
0.0
 13
73.20749790058157
 23
16.8503818528653
 33
0.0
  0
SOLID
  5
960
330
95A
100
AcDbEntity
  8
DIM
 62
     0
100
AcDbTrace
 10
72.99749790058159
 20
34.90338185286528
 30
0.0
 11
73.41749790058158
 21
34.90338185286528
 31
0.0
 12
73.20749790058158
 22
36.16338185286528
 32
0.0
 13
73.20749790058158
 23
36.16338185286528
 33
0.0
  0
MTEXT
  5
961
330
95A
100
AcDbEntity
  8
DIM
 62
     0
100
AcDbMText
 10
73.20749790058157
 20
26.5068818528653
 30
0.0
 40
0.875
 41
0.0
 71
     5
 72
     1
  1
\A1;H
 73
     1
 44
1.0
  0
POINT
  5
962
330
95A
100
AcDbEntity
  8
DEFPOINTS
 62
     0
100
AcDbPoint
 10
78.31899790058159
 20
16.8503818528653
 30
0.0
  0
POINT
  5
963
330
95A
100
AcDbEntity
  8
DEFPOINTS
 62
     0
100
AcDbPoint
 10
78.31899790058159
 20
36.16338185286528
 30
0.0
  0
POINT
  5
964
330
95A
100
AcDbEntity
  8
DEFPOINTS
 62
     0
100
AcDbPoint
 10
73.20749790058158
 20
36.16338185286528
 30
0.0
  0
ENDBLK
  5
966
330
95A
100
AcDbEntity
  8
0
100
AcDbBlockEnd
  0
BLOCK
  5
972
330
967
100
AcDbEntity
  8
0
100
AcDbBlockBegin
  2
*D4
 70
     1
 10
0.0
 20
0.0
 30
0.0
  3
*D4
  1

  0
LINE
  5
968
330
967
100
AcDbEntity
  8
DIM
 62
     0
370
    -2
100
AcDbLine
 10
77.62112911163663
 20
15.87688185286527
 30
0.0
 11
69.05649790058157
 21
15.87688185286527
 31
0.0
  0
LINE
  5
969
330
967
100
AcDbEntity
  8
DIM
 62
     0
370
    -2
100
AcDbLine
 10
77.62112911163663
 20
37.13688185286526
 30
0.0
 11
69.05649790058159
 21
37.13688185286526
 31
0.0
  0
LINE
  5
96A
330
967
100
AcDbEntity
  8
DIM
 62
     0
370
    -2
100
AcDbLine
 10
69.70749790058157
 20
17.13688185286527
 30
0.0
 11
69.70749790058157
 21
25.43938185286527
 31
0.0
  0
LINE
  5
96B
330
967
100
AcDbEntity
  8
DIM
 62
     0
370
    -2
100
AcDbLine
 10
69.70749790058158
 20
35.87688185286526
 30
0.0
 11
69.70749790058157
 21
27.57438185286527
 31
0.0
  0
SOLID
  5
96C
330
967
100
AcDbEntity
  8
DIM
 62
     0
100
AcDbTrace
 10
69.49749790058158
 20
17.13688185286527
 30
0.0
 11
69.91749790058157
 21
17.13688185286527
 31
0.0
 12
69.70749790058157
 22
15.87688185286527
 32
0.0
 13
69.70749790058157
 23
15.87688185286527
 33
0.0
  0
SOLID
  5
96D
330
967
100
AcDbEntity
  8
DIM
 62
     0
100
AcDbTrace
 10
69.49749790058159
 20
35.87688185286526
 30
0.0
 11
69.91749790058157
 21
35.87688185286526
 31
0.0
 12
69.70749790058158
 22
37.13688185286526
 32
0.0
 13
69.70749790058158
 23
37.13688185286526
 33
0.0
  0
MTEXT
  5
96E
330
967
100
AcDbEntity
  8
DIM
 62
     0
100
AcDbMText
 10
69.70749790058157
 20
26.50688185286528
 30
0.0
 40
0.875
 41
0.0
 71
     5
 72
     1
  1
\A1;F
 73
     1
 44
1.0
  0
POINT
  5
96F
330
967
100
AcDbEntity
  8
DEFPOINTS
 62
     0
100
AcDbPoint
 10
78.06212911163664
 20
15.87688185286527
 30
0.0
  0
POINT
  5
970
330
967
100
AcDbEntity
  8
DEFPOINTS
 62
     0
100
AcDbPoint
 10
78.06212911163664
 20
37.13688185286526
 30
0.0
  0
POINT
  5
971
330
967
100
AcDbEntity
  8
DEFPOINTS
 62
     0
100
AcDbPoint
 10
69.70749790058158
 20
37.13688185286526
 30
0.0
  0
ENDBLK
  5
973
330
967
100
AcDbEntity
  8
0
100
AcDbBlockEnd
  0
BLOCK
  5
97F
330
974
100
AcDbEntity
  8
0
100
AcDbBlockBegin
  2
*D5
 70
     1
 10
0.0
 20
0.0
 30
0.0
  3
*D5
  1

  0
LINE
  5
975
330
974
100
AcDbEntity
  8
DIM
 62
     0
370
    -2
100
AcDbLine
 10
77.07899790058158
 20
15.46438185286527
 30
0.0
 11
67.30649790058158
 21
15.46438185286528
 31
0.0
  0
LINE
  5
976
330
974
100
AcDbEntity
  8
DIM
 62
     0
370
    -2
100
AcDbLine
 10
77.07899790058158
 20
37.54938185286527
 30
0.0
 11
67.30649790058158
 21
37.54938185286527
 31
0.0
  0
LINE
  5
977
330
974
100
AcDbEntity
  8
DIM
 62
     0
370
    -2
100
AcDbLine
 10
67.95749790058157
 20
16.72438185286528
 30
0.0
 11
67.95749790058157
 21
25.43938185286528
 31
0.0
  0
LINE
  5
978
330
974
100
AcDbEntity
  8
DIM
 62
     0
370
    -2
100
AcDbLine
 10
67.95749790058159
 20
36.28938185286527
 30
0.0
 11
67.95749790058157
 21
27.57438185286527
 31
0.0
  0
SOLID
  5
979
330
974
100
AcDbEntity
  8
DIM
 62
     0
100
AcDbTrace
 10
67.74749790058158
 20
16.72438185286528
 30
0.0
 11
68.16749790058157
 21
16.72438185286528
 31
0.0
 12
67.95749790058157
 22
15.46438185286528
 32
0.0
 13
67.95749790058157
 23
15.46438185286528
 33
0.0
  0
SOLID
  5
97A
330
974
100
AcDbEntity
  8
DIM
 62
     0
100
AcDbTrace
 10
67.74749790058159
 20
36.28938185286527
 30
0.0
 11
68.16749790058158
 21
36.28938185286527
 31
0.0
 12
67.95749790058159
 22
37.54938185286527
 32
0.0
 13
67.95749790058159
 23
37.54938185286527
 33
0.0
  0
MTEXT
  5
97B
330
974
100
AcDbEntity
  8
DIM
 62
     0
100
AcDbMText
 10
67.95749790058157
 20
26.50688185286528
 30
0.0
 40
0.875
 41
0.0
 71
     5
 72
     1
  1
\A1;E
 73
     1
 44
1.0
  0
POINT
  5
97C
330
974
100
AcDbEntity
  8
DEFPOINTS
 62
     0
100
AcDbPoint
 10
77.51999790058158
 20
15.46438185286527
 30
0.0
  0
POINT
  5
97D
330
974
100
AcDbEntity
  8
DEFPOINTS
 62
     0
100
AcDbPoint
 10
77.51999790058158
 20
37.54938185286527
 30
0.0
  0
POINT
  5
97E
330
974
100
AcDbEntity
  8
DEFPOINTS
 62
     0
100
AcDbPoint
 10
67.95749790058159
 20
37.54938185286527
 30
0.0
  0
ENDBLK
  5
980
330
974
100
AcDbEntity
  8
0
100
AcDbBlockEnd
  0
BLOCK
  5
98C
330
981
100
AcDbEntity
  8
0
100
AcDbBlockBegin
  2
*D6
 70
     1
 10
0.0
 20
0.0
 30
0.0
  3
*D6
  1

  0
LINE
  5
982
330
981
100
AcDbEntity
  8
DIM
 62
     0
370
    -2
100
AcDbLine
 10
77.35999790058158
 20
36.88861730739616
 30
0.0
 11
77.35999790058158
 21
43.0493818528653
 31
0.0
  0
LINE
  5
983
330
981
100
AcDbEntity
  8
DIM
 62
     0
370
    -2
100
AcDbLine
 10
91.52999790058158
 20
36.88861730739616
 30
0.0
 11
91.52999790058158
 21
43.0493818528653
 31
0.0
  0
LINE
  5
984
330
981
100
AcDbEntity
  8
DIM
 62
     0
370
    -2
100
AcDbLine
 10
78.6199979005816
 20
42.39838185286529
 30
0.0
 11
83.59624790058159
 21
42.39838185286529
 31
0.0
  0
LINE
  5
985
330
981
100
AcDbEntity
  8
DIM
 62
     0
370
    -2
100
AcDbLine
 10
90.26999790058157
 20
42.39838185286529
 30
0.0
 11
85.29374790058158
 21
42.39838185286529
 31
0.0
  0
SOLID
  5
986
330
981
100
AcDbEntity
  8
DIM
 62
     0
100
AcDbTrace
 10
78.6199979005816
 20
42.60838185286529
 30
0.0
 11
78.6199979005816
 21
42.18838185286529
 31
0.0
 12
77.35999790058158
 22
42.39838185286529
 32
0.0
 13
77.35999790058158
 23
42.39838185286529
 33
0.0
  0
SOLID
  5
987
330
981
100
AcDbEntity
  8
DIM
 62
     0
100
AcDbTrace
 10
90.26999790058157
 20
42.60838185286529
 30
0.0
 11
90.26999790058157
 21
42.18838185286529
 31
0.0
 12
91.52999790058158
 22
42.39838185286529
 32
0.0
 13
91.52999790058158
 23
42.39838185286529
 33
0.0
  0
MTEXT
  5
988
330
981
100
AcDbEntity
  8
DIM
 62
     0
100
AcDbMText
 10
84.44499790058157
 20
42.39838185286529
 30
0.0
 40
0.875
 41
0.0
 71
     5
 72
     1
  1
\A1;B
 73
     1
 44
1.0
  0
POINT
  5
989
330
981
100
AcDbEntity
  8
DEFPOINTS
 62
     0
100
AcDbPoint
 10
77.35999790058158
 20
36.44761730739616
 30
0.0
  0
POINT
  5
98A
330
981
100
AcDbEntity
  8
DEFPOINTS
 62
     0
100
AcDbPoint
 10
91.52999790058158
 20
36.44761730739616
 30
0.0
  0
POINT
  5
98B
330
981
100
AcDbEntity
  8
DEFPOINTS
 62
     0
100
AcDbPoint
 10
91.52999790058158
 20
42.39838185286529
 30
0.0
  0
ENDBLK
  5
98D
330
981
100
AcDbEntity
  8
0
100
AcDbBlockEnd
  0
BLOCK
  5
999
330
98E
100
AcDbEntity
  8
0
100
AcDbBlockBegin
  2
*D7
 70
     1
 10
0.0
 20
0.0
 30
0.0
  3
*D7
  1

  0
LINE
  5
98F
330
98E
100
AcDbEntity
  8
DIM
 62
     0
370
    -2
100
AcDbLine
 10
77.45299790058158
 20
37.47888185286526
 30
0.0
 11
77.45299790058158
 21
41.29938185286529
 31
0.0
  0
LINE
  5
990
330
98E
100
AcDbEntity
  8
DIM
 62
     0
370
    -2
100
AcDbLine
 10
91.43699790058159
 20
37.47888185286526
 30
0.0
 11
91.43699790058159
 21
41.29938185286529
 31
0.0
  0
LINE
  5
991
330
98E
100
AcDbEntity
  8
DIM
 62
     0
370
    -2
100
AcDbLine
 10
78.71299790058158
 20
40.64838185286529
 30
0.0
 11
83.59624790058159
 21
40.64838185286529
 31
0.0
  0
LINE
  5
992
330
98E
100
AcDbEntity
  8
DIM
 62
     0
370
    -2
100
AcDbLine
 10
90.17699790058157
 20
40.64838185286529
 30
0.0
 11
85.29374790058158
 21
40.64838185286529
 31
0.0
  0
SOLID
  5
993
330
98E
100
AcDbEntity
  8
DIM
 62
     0
100
AcDbTrace
 10
78.71299790058158
 20
40.85838185286529
 30
0.0
 11
78.71299790058158
 21
40.43838185286529
 31
0.0
 12
77.45299790058158
 22
40.64838185286529
 32
0.0
 13
77.45299790058158
 23
40.64838185286529
 33
0.0
  0
SOLID
  5
994
330
98E
100
AcDbEntity
  8
DIM
 62
     0
100
AcDbTrace
 10
90.17699790058157
 20
40.85838185286529
 30
0.0
 11
90.17699790058157
 21
40.43838185286529
 31
0.0
 12
91.43699790058159
 22
40.64838185286529
 32
0.0
 13
91.43699790058159
 23
40.64838185286529
 33
0.0
  0
MTEXT
  5
995
330
98E
100
AcDbEntity
  8
DIM
 62
     0
100
AcDbMText
 10
84.44499790058157
 20
40.64838185286529
 30
0.0
 40
0.875
 41
0.0
 71
     5
 72
     1
  1
\A1;C
 73
     1
 44
1.0
  0
POINT
  5
996
330
98E
100
AcDbEntity
  8
DEFPOINTS
 62
     0
100
AcDbPoint
 10
77.45299790058158
 20
37.03788185286526
 30
0.0
  0
POINT
  5
997
330
98E
100
AcDbEntity
  8
DEFPOINTS
 62
     0
100
AcDbPoint
 10
91.43699790058159
 20
37.03788185286526
 30
0.0
  0
POINT
  5
998
330
98E
100
AcDbEntity
  8
DEFPOINTS
 62
     0
100
AcDbPoint
 10
91.43699790058159
 20
40.64838185286529
 30
0.0
  0
ENDBLK
  5
99A
330
98E
100
AcDbEntity
  8
0
100
AcDbBlockEnd
  0
BLOCK
  5
9A6
330
99B
100
AcDbEntity
  8
0
100
AcDbBlockBegin
  2
*D8
 70
     1
 10
0.0
 20
0.0
 30
0.0
  3
*D8
  1

  0
LINE
  5
99C
330
99B
100
AcDbEntity
  8
DIM
 62
     0
370
    -2
100
AcDbLine
 10
76.95749790058158
 20
37.42788185286527
 30
0.0
 11
76.95749790058158
 21
44.79938185286529
 31
0.0
  0
LINE
  5
99D
330
99B
100
AcDbEntity
  8
DIM
 62
     0
370
    -2
100
AcDbLine
 10
91.9324979005816
 20
37.42788185286527
 30
0.0
 11
91.9324979005816
 21
44.79938185286529
 31
0.0
  0
LINE
  5
99E
330
99B
100
AcDbEntity
  8
DIM
 62
     0
370
    -2
100
AcDbLine
 10
78.21749790058159
 20
44.14838185286529
 30
0.0
 11
83.59624790058161
 21
44.14838185286529
 31
0.0
  0
LINE
  5
99F
330
99B
100
AcDbEntity
  8
DIM
 62
     0
370
    -2
100
AcDbLine
 10
90.67249790058161
 20
44.14838185286529
 30
0.0
 11
85.2937479005816
 21
44.14838185286529
 31
0.0
  0
SOLID
  5
9A0
330
99B
100
AcDbEntity
  8
DIM
 62
     0
100
AcDbTrace
 10
78.21749790058159
 20
44.35838185286529
 30
0.0
 11
78.21749790058159
 21
43.93838185286528
 31
0.0
 12
76.95749790058158
 22
44.14838185286529
 32
0.0
 13
76.95749790058158
 23
44.14838185286529
 33
0.0
  0
SOLID
  5
9A1
330
99B
100
AcDbEntity
  8
DIM
 62
     0
100
AcDbTrace
 10
90.67249790058161
 20
44.35838185286529
 30
0.0
 11
90.67249790058161
 21
43.93838185286528
 31
0.0
 12
91.9324979005816
 22
44.14838185286529
 32
0.0
 13
91.9324979005816
 23
44.14838185286529
 33
0.0
  0
MTEXT
  5
9A2
330
99B
100
AcDbEntity
  8
DIM
 62
     0
100
AcDbMText
 10
84.44499790058159
 20
44.14838185286529
 30
0.0
 40
0.875
 41
0.0
 71
     5
 72
     1
  1
\A1;A
 73
     1
 44
1.0
  0
POINT
  5
9A3
330
99B
100
AcDbEntity
  8
DEFPOINTS
 62
     0
100
AcDbPoint
 10
76.95749790058158
 20
36.98688185286527
 30
0.0
  0
POINT
  5
9A4
330
99B
100
AcDbEntity
  8
DEFPOINTS
 62
     0
100
AcDbPoint
 10
91.9324979005816
 20
36.98688185286527
 30
0.0
  0
POINT
  5
9A5
330
99B
100
AcDbEntity
  8
DEFPOINTS
 62
     0
100
AcDbPoint
 10
91.9324979005816
 20
44.14838185286529
 30
0.0
  0
ENDBLK
  5
9A7
330
99B
100
AcDbEntity
  8
0
100
AcDbBlockEnd
  0
BLOCK
  5
9B3
330
9A8
100
AcDbEntity
  8
0
100
AcDbBlockBegin
  2
*D9
 70
     1
 10
0.0
 20
0.0
 30
0.0
  3
*D9
  1

  0
LINE
  5
9A9
330
9A8
100
AcDbEntity
  8
DIM
 62
     0
370
    -2
100
AcDbLine
 10
77.01199790058158
 20
37.03788185286526
 30
0.0
 11
70.8064979005816
 21
37.03788185286526
 31
0.0
  0
LINE
  5
9AA
330
9A8
100
AcDbEntity
  8
DIM
 62
     0
370
    -2
100
AcDbLine
 10
77.01199790058158
 20
15.97588185286529
 30
0.0
 11
70.80649790058159
 21
15.97588185286529
 31
0.0
  0
LINE
  5
9AB
330
9A8
100
AcDbEntity
  8
DIM
 62
     0
370
    -2
100
AcDbLine
 10
71.4574979005816
 20
35.77788185286526
 30
0.0
 11
71.45749790058158
 21
27.57438185286527
 31
0.0
  0
LINE
  5
9AC
330
9A8
100
AcDbEntity
  8
DIM
 62
     0
370
    -2
100
AcDbLine
 10
71.45749790058158
 20
17.23588185286529
 30
0.0
 11
71.45749790058158
 21
25.43938185286528
 31
0.0
  0
SOLID
  5
9AD
330
9A8
100
AcDbEntity
  8
DIM
 62
     0
100
AcDbTrace
 10
71.2474979005816
 20
35.77788185286526
 30
0.0
 11
71.66749790058159
 21
35.77788185286526
 31
0.0
 12
71.4574979005816
 22
37.03788185286526
 32
0.0
 13
71.4574979005816
 23
37.03788185286526
 33
0.0
  0
SOLID
  5
9AE
330
9A8
100
AcDbEntity
  8
DIM
 62
     0
100
AcDbTrace
 10
71.24749790058159
 20
17.23588185286529
 30
0.0
 11
71.66749790058158
 21
17.23588185286529
 31
0.0
 12
71.45749790058158
 22
15.97588185286529
 32
0.0
 13
71.45749790058158
 23
15.97588185286529
 33
0.0
  0
MTEXT
  5
9AF
330
9A8
100
AcDbEntity
  8
DIM
 62
     0
100
AcDbMText
 10
71.45749790058158
 20
26.50688185286528
 30
0.0
 40
0.875
 41
0.0
 71
     5
 72
     1
  1
\A1;G
 73
     1
 44
1.0
  0
POINT
  5
9B0
330
9A8
100
AcDbEntity
  8
DEFPOINTS
 62
     0
100
AcDbPoint
 10
77.45299790058158
 20
37.03788185286526
 30
0.0
  0
POINT
  5
9B1
330
9A8
100
AcDbEntity
  8
DEFPOINTS
 62
     0
100
AcDbPoint
 10
77.45299790058158
 20
15.97588185286529
 30
0.0
  0
POINT
  5
9B2
330
9A8
100
AcDbEntity
  8
DEFPOINTS
 62
     0
100
AcDbPoint
 10
71.45749790058158
 20
15.97588185286529
 30
0.0
  0
ENDBLK
  5
9B4
330
9A8
100
AcDbEntity
  8
0
100
AcDbBlockEnd
  0
BLOCK
  5
9C0
330
9B5
100
AcDbEntity
  8
0
100
AcDbBlockBegin
  2
*D10
 70
     1
 10
0.0
 20
0.0
 30
0.0
  3
*D10
  1

  0
LINE
  5
9B6
330
9B5
100
AcDbEntity
  8
DIM
 62
     0
370
    -2
100
AcDbLine
 10
49.80873249663515
 20
41.74981779633185
 30
0.0
 11
49.80873249663515
 21
39.30981779633183
 31
0.0
  0
LINE
  5
9B7
330
9B5
100
AcDbEntity
  8
DIM
 62
     0
370
    -2
100
AcDbLine
 10
64.69873249663513
 20
41.74981779633185
 30
0.0
 11
64.69873249663513
 21
39.30981779633183
 31
0.0
  0
LINE
  5
9B8
330
9B5
100
AcDbEntity
  8
DIM
 62
     0
370
    -2
100
AcDbLine
 10
51.06873249663514
 20
39.96081779633184
 30
0.0
 11
56.40498249663513
 21
39.96081779633184
 31
0.0
  0
LINE
  5
9B9
330
9B5
100
AcDbEntity
  8
DIM
 62
     0
370
    -2
100
AcDbLine
 10
63.43873249663513
 20
39.96081779633184
 30
0.0
 11
58.10248249663514
 21
39.96081779633184
 31
0.0
  0
SOLID
  5
9BA
330
9B5
100
AcDbEntity
  8
DIM
 62
     0
100
AcDbTrace
 10
51.06873249663514
 20
40.17081779633183
 30
0.0
 11
51.06873249663514
 21
39.75081779633184
 31
0.0
 12
49.80873249663515
 22
39.96081779633184
 32
0.0
 13
49.80873249663515
 23
39.96081779633184
 33
0.0
  0
SOLID
  5
9BB
330
9B5
100
AcDbEntity
  8
DIM
 62
     0
100
AcDbTrace
 10
63.43873249663513
 20
40.17081779633183
 30
0.0
 11
63.43873249663513
 21
39.75081779633184
 31
0.0
 12
64.69873249663513
 22
39.96081779633184
 32
0.0
 13
64.69873249663513
 23
39.96081779633184
 33
0.0
  0
MTEXT
  5
9BC
330
9B5
100
AcDbEntity
  8
DIM
 62
     0
100
AcDbMText
 10
57.25373249663514
 20
39.96081779633184
 30
0.0
 40
0.875
 41
0.0
 71
     5
 72
     1
  1
\A1;L
 73
     1
 44
1.0
  0
POINT
  5
9BD
330
9B5
100
AcDbEntity
  8
DEFPOINTS
 62
     0
100
AcDbPoint
 10
49.80873249663515
 20
42.19081779633185
 30
0.0
  0
POINT
  5
9BE
330
9B5
100
AcDbEntity
  8
DEFPOINTS
 62
     0
100
AcDbPoint
 10
64.69873249663513
 20
42.19081779633185
 30
0.0
  0
POINT
  5
9BF
330
9B5
100
AcDbEntity
  8
DEFPOINTS
 62
     0
100
AcDbPoint
 10
64.69873249663513
 20
39.96081779633184
 30
0.0
  0
ENDBLK
  5
9C1
330
9B5
100
AcDbEntity
  8
0
100
AcDbBlockEnd
  0
BLOCK
  5
9CD
330
9C2
100
AcDbEntity
  8
0
100
AcDbBlockBegin
  2
*D11
 70
     1
 10
0.0
 20
0.0
 30
0.0
  3
*D11
  1

  0
LINE
  5
9C3
330
9C2
100
AcDbEntity
  8
DIM
 62
     0
370
    -2
100
AcDbLine
 10
49.83473249663513
 20
49.43681779633184
 30
0.0
 11
49.83473249663513
 21
51.64681779633184
 31
0.0
  0
LINE
  5
9C4
330
9C2
100
AcDbEntity
  8
DIM
 62
     0
370
    -2
100
AcDbLine
 10
64.67273249663515
 20
49.43681779633184
 30
0.0
 11
64.67273249663515
 21
51.64681779633184
 31
0.0
  0
LINE
  5
9C5
330
9C2
100
AcDbEntity
  8
DIM
 62
     0
370
    -2
100
AcDbLine
 10
51.09473249663513
 20
50.99581779633183
 30
0.0
 11
56.40498249663513
 21
50.99581779633183
 31
0.0
  0
LINE
  5
9C6
330
9C2
100
AcDbEntity
  8
DIM
 62
     0
370
    -2
100
AcDbLine
 10
63.41273249663515
 20
50.99581779633183
 30
0.0
 11
58.10248249663514
 21
50.99581779633183
 31
0.0
  0
SOLID
  5
9C7
330
9C2
100
AcDbEntity
  8
DIM
 62
     0
100
AcDbTrace
 10
51.09473249663513
 20
51.20581779633184
 30
0.0
 11
51.09473249663513
 21
50.78581779633183
 31
0.0
 12
49.83473249663513
 22
50.99581779633183
 32
0.0
 13
49.83473249663513
 23
50.99581779633183
 33
0.0
  0
SOLID
  5
9C8
330
9C2
100
AcDbEntity
  8
DIM
 62
     0
100
AcDbTrace
 10
63.41273249663515
 20
51.20581779633184
 30
0.0
 11
63.41273249663515
 21
50.78581779633183
 31
0.0
 12
64.67273249663515
 22
50.99581779633183
 32
0.0
 13
64.67273249663515
 23
50.99581779633183
 33
0.0
  0
MTEXT
  5
9C9
330
9C2
100
AcDbEntity
  8
DIM
 62
     0
100
AcDbMText
 10
57.25373249663514
 20
50.99581779633183
 30
0.0
 40
0.875
 41
0.0
 71
     5
 72
     1
  1
\A1;K
 73
     1
 44
1.0
  0
POINT
  5
9CA
330
9C2
100
AcDbEntity
  8
DEFPOINTS
 62
     0
100
AcDbPoint
 10
49.83473249663513
 20
48.99581779633184
 30
0.0
  0
POINT
  5
9CB
330
9C2
100
AcDbEntity
  8
DEFPOINTS
 62
     0
100
AcDbPoint
 10
64.67273249663515
 20
48.99581779633184
 30
0.0
  0
POINT
  5
9CC
330
9C2
100
AcDbEntity
  8
DEFPOINTS
 62
     0
100
AcDbPoint
 10
64.67273249663515
 20
50.99581779633183
 30
0.0
  0
ENDBLK
  5
9CE
330
9C2
100
AcDbEntity
  8
0
100
AcDbBlockEnd
  0
BLOCK
  5
9DA
330
9CF
100
AcDbEntity
  8
0
100
AcDbBlockBegin
  2
*D12
 70
     1
 10
0.0
 20
0.0
 30
0.0
  3
*D12
  1

  0
LINE
  5
9D0
330
9CF
100
AcDbEntity
  8
DIM
 62
     0
370
    -2
100
AcDbLine
 10
37.22672354672975
 20
37.44188185286528
 30
0.0
 11
34.27077787660312
 21
37.44188185286528
 31
0.0
  0
LINE
  5
9D1
330
9CF
100
AcDbEntity
  8
DIM
 62
     0
370
    -2
100
AcDbLine
 10
37.22672354672975
 20
15.57188185286529
 30
0.0
 11
34.27077787660312
 21
15.57188185286529
 31
0.0
  0
LINE
  5
9D2
330
9CF
100
AcDbEntity
  8
DIM
 62
     0
370
    -2
100
AcDbLine
 10
34.92177787660313
 20
36.18188185286529
 30
0.0
 11
34.92177787660313
 21
27.57438185286529
 31
0.0
  0
LINE
  5
9D3
330
9CF
100
AcDbEntity
  8
DIM
 62
     0
370
    -2
100
AcDbLine
 10
34.92177787660313
 20
16.83188185286529
 30
0.0
 11
34.92177787660313
 21
25.43938185286529
 31
0.0
  0
SOLID
  5
9D4
330
9CF
100
AcDbEntity
  8
DIM
 62
     0
100
AcDbTrace
 10
34.71177787660312
 20
36.18188185286529
 30
0.0
 11
35.13177787660313
 21
36.18188185286529
 31
0.0
 12
34.92177787660313
 22
37.44188185286528
 32
0.0
 13
34.92177787660313
 23
37.44188185286528
 33
0.0
  0
SOLID
  5
9D5
330
9CF
100
AcDbEntity
  8
DIM
 62
     0
100
AcDbTrace
 10
34.71177787660312
 20
16.83188185286529
 30
0.0
 11
35.13177787660313
 21
16.83188185286529
 31
0.0
 12
34.92177787660312
 22
15.57188185286529
 32
0.0
 13
34.92177787660312
 23
15.57188185286529
 33
0.0
  0
MTEXT
  5
9D6
330
9CF
100
AcDbEntity
  8
DIM
 62
     0
100
AcDbMText
 10
34.92177787660312
 20
26.50688185286529
 30
0.0
 40
0.875
 41
0.0
 71
     5
 72
     1
  1
\A1;R
 73
     1
 44
1.0
  0
POINT
  5
9D7
330
9CF
100
AcDbEntity
  8
DEFPOINTS
 62
     0
100
AcDbPoint
 10
37.66772354672975
 20
37.44188185286528
 30
0.0
  0
POINT
  5
9D8
330
9CF
100
AcDbEntity
  8
DEFPOINTS
 62
     0
100
AcDbPoint
 10
37.66772354672975
 20
15.57188185286529
 30
0.0
  0
POINT
  5
9D9
330
9CF
100
AcDbEntity
  8
DEFPOINTS
 62
     0
100
AcDbPoint
 10
34.92177787660312
 20
15.57188185286529
 30
0.0
  0
ENDBLK
  5
9DB
330
9CF
100
AcDbEntity
  8
0
100
AcDbBlockEnd
  0
BLOCK
  5
9E7
330
9DC
100
AcDbEntity
  8
0
100
AcDbBlockBegin
  2
*D13
 70
     1
 10
0.0
 20
0.0
 30
0.0
  3
*D13
  1

  0
LINE
  5
9DD
330
9DC
100
AcDbEntity
  8
DIM
 62
     0
370
    -2
100
AcDbLine
 10
38.22072354672972
 20
24.42388185286527
 30
0.0
 11
38.22072354672972
 21
22.96527512956772
 31
0.0
  0
LINE
  5
9DE
330
9DC
100
AcDbEntity
  8
DIM
 62
     0
370
    -2
100
AcDbLine
 10
37.82772354672973
 20
24.42388185286527
 30
0.0
 11
37.82772354672973
 21
22.96527512956772
 31
0.0
  0
LINE
  5
9DF
330
9DC
100
AcDbEntity
  8
DIM
 62
     0
370
    -2
100
AcDbLine
 10
39.48072354672972
 20
23.61627512956772
 30
0.0
 11
40.74072354672972
 21
23.61627512956772
 31
0.0
  0
LINE
  5
9E0
330
9DC
100
AcDbEntity
  8
DIM
 62
     0
370
    -2
100
AcDbLine
 10
36.56772354672973
 20
23.61627512956772
 30
0.0
 11
35.30772354672974
 21
23.61627512956772
 31
0.0
  0
SOLID
  5
9E1
330
9DC
100
AcDbEntity
  8
DIM
 62
     0
100
AcDbTrace
 10
39.48072354672972
 20
23.82627512956772
 30
0.0
 11
39.48072354672972
 21
23.40627512956773
 31
0.0
 12
38.22072354672972
 22
23.61627512956772
 32
0.0
 13
38.22072354672972
 23
23.61627512956772
 33
0.0
  0
SOLID
  5
9E2
330
9DC
100
AcDbEntity
  8
DIM
 62
     0
100
AcDbTrace
 10
36.56772354672973
 20
23.82627512956772
 30
0.0
 11
36.56772354672973
 21
23.40627512956773
 31
0.0
 12
37.82772354672973
 22
23.61627512956772
 32
0.0
 13
37.82772354672973
 23
23.61627512956772
 33
0.0
  0
MTEXT
  5
9E3
330
9DC
100
AcDbEntity
  8
DIM
 62
     0
100
AcDbMText
 10
29.64647354672973
 20
23.61627512956772
 30
0.0
 40
0.875
 41
0.0
 71
     5
 72
     1
  1
\A1;0.393 [10] (INSIDE)
 73
     1
 44
1.0
  0
POINT
  5
9E4
330
9DC
100
AcDbEntity
  8
DEFPOINTS
 62
     0
100
AcDbPoint
 10
38.22072354672972
 20
24.86488185286527
 30
0.0
  0
POINT
  5
9E5
330
9DC
100
AcDbEntity
  8
DEFPOINTS
 62
     0
100
AcDbPoint
 10
37.82772354672973
 20
24.86488185286527
 30
0.0
  0
POINT
  5
9E6
330
9DC
100
AcDbEntity
  8
DEFPOINTS
 62
     0
100
AcDbPoint
 10
37.82772354672973
 20
23.61627512956772
 30
0.0
  0
ENDBLK
  5
9E8
330
9DC
100
AcDbEntity
  8
0
100
AcDbBlockEnd
  0
BLOCK
  5
9F4
330
9E9
100
AcDbEntity
  8
0
100
AcDbBlockBegin
  2
*D14
 70
     1
 10
0.0
 20
0.0
 30
0.0
  3
*D14
  1

  0
LINE
  5
9EA
330
9E9
100
AcDbEntity
  8
DIM
 62
     0
370
    -2
100
AcDbLine
 10
37.82772354672973
 20
24.42388185286527
 30
0.0
 11
37.82772354672973
 21
20.99827512956771
 31
0.0
  0
LINE
  5
9EB
330
9E9
100
AcDbEntity
  8
DIM
 62
     0
370
    -2
100
AcDbLine
 10
37.66772354672974
 20
24.36188185286531
 30
0.0
 11
37.66772354672974
 21
20.99827512956771
 31
0.0
  0
LINE
  5
9EC
330
9E9
100
AcDbEntity
  8
DIM
 62
     0
370
    -2
100
AcDbLine
 10
39.08772354672973
 20
21.64927512956771
 30
0.0
 11
40.34772354672973
 21
21.64927512956771
 31
0.0
  0
LINE
  5
9ED
330
9E9
100
AcDbEntity
  8
DIM
 62
     0
370
    -2
100
AcDbLine
 10
36.40772354672974
 20
21.64927512956771
 30
0.0
 11
35.14772354672974
 21
21.64927512956771
 31
0.0
  0
SOLID
  5
9EE
330
9E9
100
AcDbEntity
  8
DIM
 62
     0
100
AcDbTrace
 10
39.08772354672973
 20
21.85927512956771
 30
0.0
 11
39.08772354672973
 21
21.43927512956771
 31
0.0
 12
37.82772354672973
 22
21.64927512956771
 32
0.0
 13
37.82772354672973
 23
21.64927512956771
 33
0.0
  0
SOLID
  5
9EF
330
9E9
100
AcDbEntity
  8
DIM
 62
     0
100
AcDbTrace
 10
36.40772354672974
 20
21.85927512956771
 30
0.0
 11
36.40772354672974
 21
21.43927512956771
 31
0.0
 12
37.66772354672974
 22
21.64927512956771
 32
0.0
 13
37.66772354672974
 23
21.64927512956771
 33
0.0
  0
MTEXT
  5
9F0
330
9E9
100
AcDbEntity
  8
DIM
 62
     0
100
AcDbMText
 10
32.33022354672974
 20
21.64927512956771
 30
0.0
 40
0.875
 41
0.0
 71
     5
 72
     1
  1
\A1;0.160 [4]
 73
     1
 44
1.0
  0
POINT
  5
9F1
330
9E9
100
AcDbEntity
  8
DEFPOINTS
 62
     0
100
AcDbPoint
 10
37.82772354672973
 20
24.86488185286527
 30
0.0
  0
POINT
  5
9F2
330
9E9
100
AcDbEntity
  8
DEFPOINTS
 62
     0
100
AcDbPoint
 10
37.66772354672974
 20
24.80288185286531
 30
0.0
  0
POINT
  5
9F3
330
9E9
100
AcDbEntity
  8
DEFPOINTS
 62
     0
100
AcDbPoint
 10
37.66772354672974
 20
21.64927512956771
 30
0.0
  0
ENDBLK
  5
9F5
330
9E9
100
AcDbEntity
  8
0
100
AcDbBlockEnd
  0
BLOCK
  5
A01
330
9F6
100
AcDbEntity
  8
0
100
AcDbBlockBegin
  2
*D15
 70
     1
 10
0.0
 20
0.0
 30
0.0
  3
*D15
  1

  0
LINE
  5
9F7
330
9F6
100
AcDbEntity
  8
DIM
 62
     0
370
    -2
100
AcDbLine
 10
43.49272354672975
 20
37.99038185286525
 30
0.0
 11
43.49272354672975
 21
40.20038185286529
 31
0.0
  0
LINE
  5
9F8
330
9F6
100
AcDbEntity
  8
DIM
 62
     0
370
    -2
100
AcDbLine
 10
37.66772354672975
 20
37.88288185286528
 30
0.0
 11
37.66772354672975
 21
40.20038185286529
 31
0.0
  0
LINE
  5
9F9
330
9F6
100
AcDbEntity
  8
DIM
 62
     0
370
    -2
100
AcDbLine
 10
42.23272354672976
 20
39.54938185286529
 30
0.0
 11
41.42897354672975
 21
39.54938185286529
 31
0.0
  0
LINE
  5
9FA
330
9F6
100
AcDbEntity
  8
DIM
 62
     0
370
    -2
100
AcDbLine
 10
38.92772354672975
 20
39.54938185286529
 30
0.0
 11
39.73147354672975
 21
39.54938185286529
 31
0.0
  0
SOLID
  5
9FB
330
9F6
100
AcDbEntity
  8
DIM
 62
     0
100
AcDbTrace
 10
42.23272354672976
 20
39.75938185286528
 30
0.0
 11
42.23272354672976
 21
39.33938185286528
 31
0.0
 12
43.49272354672975
 22
39.54938185286529
 32
0.0
 13
43.49272354672975
 23
39.54938185286529
 33
0.0
  0
SOLID
  5
9FC
330
9F6
100
AcDbEntity
  8
DIM
 62
     0
100
AcDbTrace
 10
38.92772354672975
 20
39.75938185286528
 30
0.0
 11
38.92772354672975
 21
39.33938185286528
 31
0.0
 12
37.66772354672975
 22
39.54938185286529
 32
0.0
 13
37.66772354672975
 23
39.54938185286529
 33
0.0
  0
MTEXT
  5
9FD
330
9F6
100
AcDbEntity
  8
DIM
 62
     0
100
AcDbMText
 10
40.58022354672975
 20
39.54938185286529
 30
0.0
 40
0.875
 41
0.0
 71
     5
 72
     1
  1
\A1;N
 73
     1
 44
1.0
  0
POINT
  5
9FE
330
9F6
100
AcDbEntity
  8
DEFPOINTS
 62
     0
100
AcDbPoint
 10
43.49272354672975
 20
37.54938185286524
 30
0.0
  0
POINT
  5
9FF
330
9F6
100
AcDbEntity
  8
DEFPOINTS
 62
     0
100
AcDbPoint
 10
37.66772354672975
 20
37.44188185286528
 30
0.0
  0
POINT
  5
A00
330
9F6
100
AcDbEntity
  8
DEFPOINTS
 62
     0
100
AcDbPoint
 10
37.66772354672975
 20
39.54938185286529
 30
0.0
  0
ENDBLK
  5
A02
330
9F6
100
AcDbEntity
  8
0
100
AcDbBlockEnd
  0
BLOCK
  5
A0E
330
A03
100
AcDbEntity
  8
0
100
AcDbBlockBegin
  2
*D16
 70
     1
 10
0.0
 20
0.0
 30
0.0
  3
*D16
  1

  0
LINE
  5
A04
330
A03
100
AcDbEntity
  8
DIM
 62
     0
370
    -2
100
AcDbLine
 10
37.66772354672975
 20
37.88288185286528
 30
0.0
 11
37.66772354672975
 21
40.20038185286529
 31
0.0
  0
LINE
  5
A05
330
A03
100
AcDbEntity
  8
DIM
 62
     0
370
    -2
100
AcDbLine
 10
37.58772354672975
 20
37.78588185286528
 30
0.0
 11
37.58772354672975
 21
40.20038185286529
 31
0.0
  0
LINE
  5
A06
330
A03
100
AcDbEntity
  8
DIM
 62
     0
370
    -2
100
AcDbLine
 10
38.92772354672975
 20
39.54938185286529
 30
0.0
 11
40.18772354672975
 21
39.54938185286529
 31
0.0
  0
LINE
  5
A07
330
A03
100
AcDbEntity
  8
DIM
 62
     0
370
    -2
100
AcDbLine
 10
36.32772354672975
 20
39.54938185286529
 30
0.0
 11
35.06772354672976
 21
39.54938185286529
 31
0.0
  0
SOLID
  5
A08
330
A03
100
AcDbEntity
  8
DIM
 62
     0
100
AcDbTrace
 10
38.92772354672975
 20
39.75938185286528
 30
0.0
 11
38.92772354672975
 21
39.33938185286528
 31
0.0
 12
37.66772354672975
 22
39.54938185286529
 32
0.0
 13
37.66772354672975
 23
39.54938185286529
 33
0.0
  0
SOLID
  5
A09
330
A03
100
AcDbEntity
  8
DIM
 62
     0
100
AcDbTrace
 10
36.32772354672975
 20
39.75938185286528
 30
0.0
 11
36.32772354672975
 21
39.33938185286528
 31
0.0
 12
37.58772354672975
 22
39.54938185286529
 32
0.0
 13
37.58772354672975
 23
39.54938185286529
 33
0.0
  0
MTEXT
  5
A0A
330
A03
100
AcDbEntity
  8
DIM
 62
     0
100
AcDbMText
 10
32.19553604672976
 20
39.54938185286529
 30
0.0
 40
0.875
 41
0.0
 71
     5
 72
     1
  1
\A1;0.080 [2]
 73
     1
 44
1.0
  0
POINT
  5
A0B
330
A03
100
AcDbEntity
  8
DEFPOINTS
 62
     0
100
AcDbPoint
 10
37.66772354672975
 20
37.44188185286528
 30
0.0
  0
POINT
  5
A0C
330
A03
100
AcDbEntity
  8
DEFPOINTS
 62
     0
100
AcDbPoint
 10
37.58772354672975
 20
37.34488185286528
 30
0.0
  0
POINT
  5
A0D
330
A03
100
AcDbEntity
  8
DEFPOINTS
 62
     0
100
AcDbPoint
 10
37.58772354672975
 20
39.54938185286529
 30
0.0
  0
ENDBLK
  5
A0F
330
A03
100
AcDbEntity
  8
0
100
AcDbBlockEnd
  0
BLOCK
  5
A1B
330
A10
100
AcDbEntity
  8
0
100
AcDbBlockBegin
  2
*D17
 70
     1
 10
0.0
 20
0.0
 30
0.0
  3
*D17
  1

  0
LINE
  5
A11
330
A10
100
AcDbEntity
  8
DIM
 62
     0
370
    -2
100
AcDbLine
 10
43.49272354672975
 20
37.98053932786526
 30
0.0
 11
43.49272354672975
 21
40.20038185286529
 31
0.0
  0
LINE
  5
A12
330
A10
100
AcDbEntity
  8
DIM
 62
     0
370
    -2
100
AcDbLine
 10
44.70272354672975
 20
37.49138185286529
 30
0.0
 11
44.70272354672975
 21
40.20038185286529
 31
0.0
  0
LINE
  5
A13
330
A10
100
AcDbEntity
  8
DIM
 62
     0
370
    -2
100
AcDbLine
 10
42.23272354672976
 20
39.54938185286529
 30
0.0
 11
40.97272354672975
 21
39.54938185286529
 31
0.0
  0
LINE
  5
A14
330
A10
100
AcDbEntity
  8
DIM
 62
     0
370
    -2
100
AcDbLine
 10
45.96272354672975
 20
39.54938185286529
 30
0.0
 11
47.22272354672974
 21
39.54938185286529
 31
0.0
  0
SOLID
  5
A15
330
A10
100
AcDbEntity
  8
DIM
 62
     0
100
AcDbTrace
 10
42.23272354672976
 20
39.75938185286528
 30
0.0
 11
42.23272354672976
 21
39.33938185286528
 31
0.0
 12
43.49272354672975
 22
39.54938185286529
 32
0.0
 13
43.49272354672975
 23
39.54938185286529
 33
0.0
  0
SOLID
  5
A16
330
A10
100
AcDbEntity
  8
DIM
 62
     0
100
AcDbTrace
 10
45.96272354672975
 20
39.75938185286528
 30
0.0
 11
45.96272354672975
 21
39.33938185286528
 31
0.0
 12
44.70272354672975
 22
39.54938185286529
 32
0.0
 13
44.70272354672975
 23
39.54938185286529
 33
0.0
  0
MTEXT
  5
A17
330
A10
100
AcDbEntity
  8
DIM
 62
     0
100
AcDbMText
 10
48.07147354672975
 20
39.54938185286529
 30
0.0
 40
0.875
 41
0.0
 71
     5
 72
     1
  1
\A1;M
 73
     1
 44
1.0
  0
POINT
  5
A18
330
A10
100
AcDbEntity
  8
DEFPOINTS
 62
     0
100
AcDbPoint
 10
43.49272354672975
 20
37.53953932786526
 30
0.0
  0
POINT
  5
A19
330
A10
100
AcDbEntity
  8
DEFPOINTS
 62
     0
100
AcDbPoint
 10
44.70272354672975
 20
37.05038185286529
 30
0.0
  0
POINT
  5
A1A
330
A10
100
AcDbEntity
  8
DEFPOINTS
 62
     0
100
AcDbPoint
 10
44.70272354672975
 20
39.54938185286529
 30
0.0
  0
ENDBLK
  5
A1C
330
A10
100
AcDbEntity
  8
0
100
AcDbBlockEnd
  0
BLOCK
  5
A28
330
A1D
100
AcDbEntity
  8
0
100
AcDbBlockBegin
  2
*D18
 70
     1
 10
0.0
 20
0.0
 30
0.0
  3
*D18
  1

  0
LINE
  5
A1E
330
A1D
100
AcDbEntity
  8
DIM
 62
     0
370
    -2
100
AcDbLine
 10
44.91372354672976
 20
37.48588185286528
 30
0.0
 11
47.73522848758982
 21
37.48588185286528
 31
0.0
  0
LINE
  5
A1F
330
A1D
100
AcDbEntity
  8
DIM
 62
     0
370
    -2
100
AcDbLine
 10
44.91372354672973
 20
15.52788185286528
 30
0.0
 11
47.73522848758982
 21
15.52788185286528
 31
0.0
  0
LINE
  5
A20
330
A1D
100
AcDbEntity
  8
DIM
 62
     0
370
    -2
100
AcDbLine
 10
47.08422848758982
 20
36.22588185286528
 30
0.0
 11
47.08422848758982
 21
27.57438185286527
 31
0.0
  0
LINE
  5
A21
330
A1D
100
AcDbEntity
  8
DIM
 62
     0
370
    -2
100
AcDbLine
 10
47.08422848758982
 20
16.78788185286528
 30
0.0
 11
47.08422848758982
 21
25.43938185286528
 31
0.0
  0
SOLID
  5
A22
330
A1D
100
AcDbEntity
  8
DIM
 62
     0
100
AcDbTrace
 10
46.87422848758982
 20
36.22588185286528
 30
0.0
 11
47.29422848758982
 21
36.22588185286528
 31
0.0
 12
47.08422848758982
 22
37.48588185286528
 32
0.0
 13
47.08422848758982
 23
37.48588185286528
 33
0.0
  0
SOLID
  5
A23
330
A1D
100
AcDbEntity
  8
DIM
 62
     0
100
AcDbTrace
 10
46.87422848758982
 20
16.78788185286528
 30
0.0
 11
47.29422848758982
 21
16.78788185286528
 31
0.0
 12
47.08422848758981
 22
15.52788185286528
 32
0.0
 13
47.08422848758981
 23
15.52788185286528
 33
0.0
  0
MTEXT
  5
A24
330
A1D
100
AcDbEntity
  8
DIM
 62
     0
100
AcDbMText
 10
47.08422848758981
 20
26.50688185286528
 30
0.0
 40
0.875
 41
0.0
 71
     5
 72
     1
  1
\A1;P
 73
     1
 44
1.0
  0
POINT
  5
A25
330
A1D
100
AcDbEntity
  8
DEFPOINTS
 62
     0
100
AcDbPoint
 10
44.47272354672976
 20
37.48588185286528
 30
0.0
  0
POINT
  5
A26
330
A1D
100
AcDbEntity
  8
DEFPOINTS
 62
     0
100
AcDbPoint
 10
44.47272354672973
 20
15.52788185286528
 30
0.0
  0
POINT
  5
A27
330
A1D
100
AcDbEntity
  8
DEFPOINTS
 62
     0
100
AcDbPoint
 10
47.08422848758981
 20
15.52788185286528
 30
0.0
  0
ENDBLK
  5
A29
330
A1D
100
AcDbEntity
  8
0
100
AcDbBlockEnd
  0
BLOCK
  5
A35
330
A2A
100
AcDbEntity
  8
0
100
AcDbBlockBegin
  2
*D19
 70
     1
 10
0.0
 20
0.0
 30
0.0
  3
*D19
  1

  0
LINE
  5
A2B
330
A2A
100
AcDbEntity
  8
DIM
 62
     0
370
    -2
100
AcDbLine
 10
13.40502436847298
 20
16.27938185286527
 30
0.0
 11
2.412024368472948
 21
16.27938185286527
 31
0.0
  0
LINE
  5
A2C
330
A2A
100
AcDbEntity
  8
DIM
 62
     0
370
    -2
100
AcDbLine
 10
13.40502436847298
 20
36.73438185286529
 30
0.0
 11
2.412024368472951
 21
36.73438185286529
 31
0.0
  0
LINE
  5
A2D
330
A2A
100
AcDbEntity
  8
DIM
 62
     0
370
    -2
100
AcDbLine
 10
3.063024368472948
 20
17.53938185286528
 30
0.0
 11
3.063024368472949
 21
25.43938185286528
 31
0.0
  0
LINE
  5
A2E
330
A2A
100
AcDbEntity
  8
DIM
 62
     0
370
    -2
100
AcDbLine
 10
3.063024368472952
 20
35.47438185286529
 30
0.0
 11
3.06302436847295
 21
27.57438185286528
 31
0.0
  0
SOLID
  5
A2F
330
A2A
100
AcDbEntity
  8
DIM
 62
     0
100
AcDbTrace
 10
2.853024368472948
 20
17.53938185286528
 30
0.0
 11
3.273024368472948
 21
17.53938185286528
 31
0.0
 12
3.063024368472947
 22
16.27938185286527
 32
0.0
 13
3.063024368472947
 23
16.27938185286527
 33
0.0
  0
SOLID
  5
A30
330
A2A
100
AcDbEntity
  8
DIM
 62
     0
100
AcDbTrace
 10
2.853024368472952
 20
35.47438185286529
 30
0.0
 11
3.273024368472952
 21
35.47438185286529
 31
0.0
 12
3.063024368472952
 22
36.73438185286529
 32
0.0
 13
3.063024368472952
 23
36.73438185286529
 33
0.0
  0
MTEXT
  5
A31
330
A2A
100
AcDbEntity
  8
DIM
 62
     0
100
AcDbMText
 10
3.063024368472945
 20
26.50688185286528
 30
0.0
 40
0.875
 41
0.0
 71
     5
 72
     1
  1
\A1;U
 73
     1
 44
1.0
  0
POINT
  5
A32
330
A2A
100
AcDbEntity
  8
DEFPOINTS
 62
     0
100
AcDbPoint
 10
13.84602436847298
 20
16.27938185286527
 30
0.0
  0
POINT
  5
A33
330
A2A
100
AcDbEntity
  8
DEFPOINTS
 62
     0
100
AcDbPoint
 10
13.84602436847298
 20
36.73438185286529
 30
0.0
  0
POINT
  5
A34
330
A2A
100
AcDbEntity
  8
DEFPOINTS
 62
     0
100
AcDbPoint
 10
3.063024368472952
 20
36.73438185286529
 30
0.0
  0
ENDBLK
  5
A36
330
A2A
100
AcDbEntity
  8
0
100
AcDbBlockEnd
  0
BLOCK
  5
A42
330
A37
100
AcDbEntity
  8
0
100
AcDbBlockBegin
  2
*D20
 70
     1
 10
0.0
 20
0.0
 30
0.0
  3
*D20
  1

  0
LINE
  5
A38
330
A37
100
AcDbEntity
  8
DIM
 62
     0
370
    -2
100
AcDbLine
 10
7.753524368472952
 20
25.19838185286526
 30
0.0
 11
7.753524368472951
 21
11.80338185286534
 31
0.0
  0
LINE
  5
A39
330
A37
100
AcDbEntity
  8
DIM
 62
     0
370
    -2
100
AcDbLine
 10
21.13152436847296
 20
25.19838185286526
 30
0.0
 11
21.13152436847296
 21
11.80338185286534
 31
0.0
  0
LINE
  5
A3A
330
A37
100
AcDbEntity
  8
DIM
 62
     0
370
    -2
100
AcDbLine
 10
9.013524368472952
 20
12.45438185286533
 30
0.0
 11
13.59377436847295
 21
12.45438185286533
 31
0.0
  0
LINE
  5
A3B
330
A37
100
AcDbEntity
  8
DIM
 62
     0
370
    -2
100
AcDbLine
 10
19.87152436847296
 20
12.45438185286533
 30
0.0
 11
15.29127436847296
 21
12.45438185286533
 31
0.0
  0
SOLID
  5
A3C
330
A37
100
AcDbEntity
  8
DIM
 62
     0
100
AcDbTrace
 10
9.013524368472952
 20
12.66438185286534
 30
0.0
 11
9.013524368472952
 21
12.24438185286533
 31
0.0
 12
7.753524368472951
 22
12.45438185286533
 32
0.0
 13
7.753524368472951
 23
12.45438185286533
 33
0.0
  0
SOLID
  5
A3D
330
A37
100
AcDbEntity
  8
DIM
 62
     0
100
AcDbTrace
 10
19.87152436847296
 20
12.66438185286534
 30
0.0
 11
19.87152436847296
 21
12.24438185286533
 31
0.0
 12
21.13152436847296
 22
12.45438185286533
 32
0.0
 13
21.13152436847296
 23
12.45438185286533
 33
0.0
  0
MTEXT
  5
A3E
330
A37
100
AcDbEntity
  8
DIM
 62
     0
100
AcDbMText
 10
14.44252436847295
 20
12.45438185286533
 30
0.0
 40
0.875
 41
0.0
 71
     5
 72
     1
  1
\A1;S
 73
     1
 44
1.0
  0
POINT
  5
A3F
330
A37
100
AcDbEntity
  8
DEFPOINTS
 62
     0
100
AcDbPoint
 10
7.753524368472952
 20
25.63938185286525
 30
0.0
  0
POINT
  5
A40
330
A37
100
AcDbEntity
  8
DEFPOINTS
 62
     0
100
AcDbPoint
 10
21.13152436847296
 20
25.63938185286525
 30
0.0
  0
POINT
  5
A41
330
A37
100
AcDbEntity
  8
DEFPOINTS
 62
     0
100
AcDbPoint
 10
21.13152436847296
 20
12.45438185286533
 30
0.0
  0
ENDBLK
  5
A43
330
A37
100
AcDbEntity
  8
0
100
AcDbBlockEnd
  0
BLOCK
  5
A4F
330
A44
100
AcDbEntity
  8
0
100
AcDbBlockBegin
  2
*D21
 70
     1
 10
0.0
 20
0.0
 30
0.0
  3
*D21
  1

  0
LINE
  5
A45
330
A44
100
AcDbEntity
  8
DIM
 62
     0
370
    -2
100
AcDbLine
 10
78.31899790058159
 20
36.60438185286528
 30
0.0
 11
78.31899790058159
 21
39.54938185286529
 31
0.0
  0
LINE
  5
A46
330
A44
100
AcDbEntity
  8
DIM
 62
     0
370
    -2
100
AcDbLine
 10
90.5709979005816
 20
36.60438185286528
 30
0.0
 11
90.5709979005816
 21
39.54938185286529
 31
0.0
  0
LINE
  5
A47
330
A44
100
AcDbEntity
  8
DIM
 62
     0
370
    -2
100
AcDbLine
 10
79.5789979005816
 20
38.89838185286529
 30
0.0
 11
83.59624790058161
 21
38.89838185286529
 31
0.0
  0
LINE
  5
A48
330
A44
100
AcDbEntity
  8
DIM
 62
     0
370
    -2
100
AcDbLine
 10
89.3109979005816
 20
38.89838185286529
 30
0.0
 11
85.2937479005816
 21
38.89838185286529
 31
0.0
  0
SOLID
  5
A49
330
A44
100
AcDbEntity
  8
DIM
 62
     0
100
AcDbTrace
 10
79.5789979005816
 20
39.10838185286529
 30
0.0
 11
79.5789979005816
 21
38.68838185286529
 31
0.0
 12
78.31899790058159
 22
38.89838185286529
 32
0.0
 13
78.31899790058159
 23
38.89838185286529
 33
0.0
  0
SOLID
  5
A4A
330
A44
100
AcDbEntity
  8
DIM
 62
     0
100
AcDbTrace
 10
89.3109979005816
 20
39.10838185286529
 30
0.0
 11
89.3109979005816
 21
38.68838185286529
 31
0.0
 12
90.5709979005816
 22
38.89838185286529
 32
0.0
 13
90.5709979005816
 23
38.89838185286529
 33
0.0
  0
MTEXT
  5
A4B
330
A44
100
AcDbEntity
  8
DIM
 62
     0
100
AcDbMText
 10
84.44499790058159
 20
38.89838185286529
 30
0.0
 40
0.875
 41
0.0
 71
     5
 72
     1
  1
\A1;D
 73
     1
 44
1.0
  0
POINT
  5
A4C
330
A44
100
AcDbEntity
  8
DEFPOINTS
 62
     0
100
AcDbPoint
 10
78.31899790058159
 20
36.16338185286528
 30
0.0
  0
POINT
  5
A4D
330
A44
100
AcDbEntity
  8
DEFPOINTS
 62
     0
100
AcDbPoint
 10
90.5709979005816
 20
36.16338185286528
 30
0.0
  0
POINT
  5
A4E
330
A44
100
AcDbEntity
  8
DEFPOINTS
 62
     0
100
AcDbPoint
 10
90.5709979005816
 20
38.89838185286529
 30
0.0
  0
ENDBLK
  5
A50
330
A44
100
AcDbEntity
  8
0
100
AcDbBlockEnd
  0
BLOCK
  5
A5C
330
A51
100
AcDbEntity
  8
0
100
AcDbBlockBegin
  2
*D22
 70
     1
 10
0.0
 20
0.0
 30
0.0
  3
*D22
  1

  0
LINE
  5
A52
330
A51
100
AcDbEntity
  8
DIM
 62
     0
370
    -2
100
AcDbLine
 10
13.84602436847298
 20
15.83838185286528
 30
0.0
 11
13.84602436847298
 21
13.55338185286534
 31
0.0
  0
LINE
  5
A53
330
A51
100
AcDbEntity
  8
DIM
 62
     0
370
    -2
100
AcDbLine
 10
7.753524368472952
 20
25.19838185286526
 30
0.0
 11
7.753524368472951
 21
13.55338185286534
 31
0.0
  0
LINE
  5
A54
330
A51
100
AcDbEntity
  8
DIM
 62
     0
370
    -2
100
AcDbLine
 10
12.58602436847298
 20
14.20438185286533
 30
0.0
 11
11.64852436847296
 21
14.20438185286533
 31
0.0
  0
LINE
  5
A55
330
A51
100
AcDbEntity
  8
DIM
 62
     0
370
    -2
100
AcDbLine
 10
9.013524368472952
 20
14.20438185286533
 30
0.0
 11
9.951024368472966
 21
14.20438185286533
 31
0.0
  0
SOLID
  5
A56
330
A51
100
AcDbEntity
  8
DIM
 62
     0
100
AcDbTrace
 10
12.58602436847298
 20
14.41438185286534
 30
0.0
 11
12.58602436847298
 21
13.99438185286533
 31
0.0
 12
13.84602436847298
 22
14.20438185286533
 32
0.0
 13
13.84602436847298
 23
14.20438185286533
 33
0.0
  0
SOLID
  5
A57
330
A51
100
AcDbEntity
  8
DIM
 62
     0
100
AcDbTrace
 10
9.013524368472952
 20
14.41438185286534
 30
0.0
 11
9.013524368472952
 21
13.99438185286533
 31
0.0
 12
7.753524368472951
 22
14.20438185286533
 32
0.0
 13
7.753524368472951
 23
14.20438185286533
 33
0.0
  0
MTEXT
  5
A58
330
A51
100
AcDbEntity
  8
DIM
 62
     0
100
AcDbMText
 10
10.79977436847296
 20
14.20438185286533
 30
0.0
 40
0.875
 41
0.0
 71
     5
 72
     1
  1
\A1;T
 73
     1
 44
1.0
  0
POINT
  5
A59
330
A51
100
AcDbEntity
  8
DEFPOINTS
 62
     0
100
AcDbPoint
 10
13.84602436847298
 20
16.27938185286528
 30
0.0
  0
POINT
  5
A5A
330
A51
100
AcDbEntity
  8
DEFPOINTS
 62
     0
100
AcDbPoint
 10
7.753524368472952
 20
25.63938185286525
 30
0.0
  0
POINT
  5
A5B
330
A51
100
AcDbEntity
  8
DEFPOINTS
 62
     0
100
AcDbPoint
 10
7.753524368472951
 20
14.20438185286533
 30
0.0
  0
ENDBLK
  5
A5D
330
A51
100
AcDbEntity
  8
0
100
AcDbBlockEnd
  0
BLOCK
  5
A69
330
A5E
100
AcDbEntity
  8
0
100
AcDbBlockBegin
  2
*D23
 70
     1
 10
0.0
 20
0.0
 30
0.0
  3
*D23
  1

  0
LINE
  5
A5F
330
A5E
100
AcDbEntity
  8
DIM
 62
     0
370
    -2
100
AcDbLine
 10
7.312524368472952
 20
27.3743818528653
 30
0.0
 11
4.379024368472948
 21
27.3743818528653
 31
0.0
  0
LINE
  5
A60
330
A5E
100
AcDbEntity
  8
DIM
 62
     0
370
    -2
100
AcDbLine
 10
13.40502436847298
 20
36.73438185286529
 30
0.0
 11
4.37902436847295
 21
36.73438185286529
 31
0.0
  0
LINE
  5
A61
330
A5E
100
AcDbEntity
  8
DIM
 62
     0
370
    -2
100
AcDbLine
 10
5.030024368472949
 20
28.6343818528653
 30
0.0
 11
5.030024368472949
 21
30.9868818528653
 31
0.0
  0
LINE
  5
A62
330
A5E
100
AcDbEntity
  8
DIM
 62
     0
370
    -2
100
AcDbLine
 10
5.03002436847295
 20
35.47438185286529
 30
0.0
 11
5.030024368472949
 21
33.1218818528653
 31
0.0
  0
SOLID
  5
A63
330
A5E
100
AcDbEntity
  8
DIM
 62
     0
100
AcDbTrace
 10
4.820024368472949
 20
28.6343818528653
 30
0.0
 11
5.240024368472949
 21
28.6343818528653
 31
0.0
 12
5.030024368472949
 22
27.3743818528653
 32
0.0
 13
5.030024368472949
 23
27.3743818528653
 33
0.0
  0
SOLID
  5
A64
330
A5E
100
AcDbEntity
  8
DIM
 62
     0
100
AcDbTrace
 10
4.82002436847295
 20
35.47438185286529
 30
0.0
 11
5.24002436847295
 21
35.47438185286529
 31
0.0
 12
5.03002436847295
 22
36.73438185286529
 32
0.0
 13
5.03002436847295
 23
36.73438185286529
 33
0.0
  0
MTEXT
  5
A65
330
A5E
100
AcDbEntity
  8
DIM
 62
     0
100
AcDbMText
 10
5.030024368472944
 20
32.0543818528653
 30
0.0
 40
0.875
 41
0.0
 71
     5
 72
     1
  1
\A1;V
 73
     1
 44
1.0
  0
POINT
  5
A66
330
A5E
100
AcDbEntity
  8
DEFPOINTS
 62
     0
100
AcDbPoint
 10
7.753524368472952
 20
27.3743818528653
 30
0.0
  0
POINT
  5
A67
330
A5E
100
AcDbEntity
  8
DEFPOINTS
 62
     0
100
AcDbPoint
 10
13.84602436847298
 20
36.73438185286529
 30
0.0
  0
POINT
  5
A68
330
A5E
100
AcDbEntity
  8
DEFPOINTS
 62
     0
100
AcDbPoint
 10
5.03002436847295
 20
36.73438185286529
 30
0.0
  0
ENDBLK
  5
A6A
330
A5E
100
AcDbEntity
  8
0
100
AcDbBlockEnd
  0
BLOCK
  5
A76
330
A6B
100
AcDbEntity
  8
0
100
AcDbBlockBegin
  2
*D24
 70
     1
 10
0.0
 20
0.0
 30
0.0
  3
*D24
  1

  0
LINE
  5
A6C
330
A6B
100
AcDbEntity
  8
DIM
 62
     0
370
    -2
100
AcDbLine
 10
77.87799790058159
 20
25.1448818528653
 30
0.0
 11
74.30649790058159
 21
25.1448818528653
 31
0.0
  0
LINE
  5
A6D
330
A6B
100
AcDbEntity
  8
DIM
 62
     0
370
    -2
100
AcDbLine
 10
77.87799790058159
 20
27.86888185286529
 30
0.0
 11
74.30649790058159
 21
27.86888185286529
 31
0.0
  0
LINE
  5
A6E
330
A6B
100
AcDbEntity
  8
DIM
 62
     0
370
    -2
100
AcDbLine
 10
74.95749790058159
 20
23.88488185286529
 30
0.0
 11
74.95749790058159
 21
22.62488185286529
 31
0.0
  0
LINE
  5
A6F
330
A6B
100
AcDbEntity
  8
DIM
 62
     0
370
    -2
100
AcDbLine
 10
74.95749790058159
 20
29.12888185286529
 30
0.0
 11
74.95749790058159
 21
30.38888185286529
 31
0.0
  0
SOLID
  5
A70
330
A6B
100
AcDbEntity
  8
DIM
 62
     0
100
AcDbTrace
 10
74.74749790058159
 20
23.88488185286529
 30
0.0
 11
75.16749790058158
 21
23.88488185286529
 31
0.0
 12
74.95749790058159
 22
25.1448818528653
 32
0.0
 13
74.95749790058159
 23
25.1448818528653
 33
0.0
  0
SOLID
  5
A71
330
A6B
100
AcDbEntity
  8
DIM
 62
     0
100
AcDbTrace
 10
74.74749790058159
 20
29.12888185286529
 30
0.0
 11
75.16749790058158
 21
29.12888185286529
 31
0.0
 12
74.95749790058159
 22
27.86888185286529
 32
0.0
 13
74.95749790058159
 23
27.86888185286529
 33
0.0
  0
MTEXT
  5
A72
330
A6B
100
AcDbEntity
  8
DIM
 62
     0
100
AcDbMText
 10
74.95749790058159
 20
26.50688185286531
 30
0.0
 40
0.875
 41
0.0
 71
     5
 72
     1
  1
\A1;J
 73
     1
 44
1.0
  0
POINT
  5
A73
330
A6B
100
AcDbEntity
  8
DEFPOINTS
 62
     0
100
AcDbPoint
 10
78.31899790058159
 20
25.1448818528653
 30
0.0
  0
POINT
  5
A74
330
A6B
100
AcDbEntity
  8
DEFPOINTS
 62
     0
100
AcDbPoint
 10
78.31899790058159
 20
27.86888185286529
 30
0.0
  0
POINT
  5
A75
330
A6B
100
AcDbEntity
  8
DEFPOINTS
 62
     0
100
AcDbPoint
 10
74.95749790058159
 20
27.86888185286529
 30
0.0
  0
ENDBLK
  5
A77
330
A6B
100
AcDbEntity
  8
0
100
AcDbBlockEnd
  0
ENDSEC
  0
SECTION
  2
ENTITIES
  0
TEXT
  5
23D
330
1E
100
AcDbEntity
  8
TEXT
100
AcDbText
 10
23.48725021875002
 20
3.6579309187834
 30
0.0
 40
0.874999125
  1
A
 41
0.75
 72
     4
 11
23.70600000000002
 21
4.095430481283401
 31
0.0
100
AcDbText
  0
TEXT
  5
23E
330
1E
100
AcDbEntity
  8
TEXT
100
AcDbText
 10
22.17475153125002
 20
2.192930918783397
 30
0.0
 40
0.874999125
  1
14.975
 41
0.75
 72
     4
 11
23.70600000000002
 21
2.630430481283397
 31
0.0
100
AcDbText
  0
TEXT
  5
23F
330
1E
100
AcDbEntity
  8
TEXT
100
AcDbText
 10
22.44818875781252
 20
0.7279309187833942
 30
0.0
 40
0.874999125
  1
[380]
 41
0.75
 72
     4
 11
23.70600000000002
 21
1.165430481283394
 31
0.0
100
AcDbText
  0
TEXT
  5
240
330
1E
100
AcDbEntity
  8
TEXT
100
AcDbText
 10
27.00818875781252
 20
0.7279309187833942
 30
0.0
 40
0.874999125
  1
[360]
 41
0.75
 72
     4
 11
28.26600000000002
 21
1.165430481283394
 31
0.0
100
AcDbText
  0
TEXT
  5
241
330
1E
100
AcDbEntity
  8
TEXT
100
AcDbText
 10
28.04725021875002
 20
3.657930918783401
 30
0.0
 40
0.874999125
  1
B
 41
0.75
 72
     4
 11
28.26600000000002
 21
4.095430481283401
 31
0.0
100
AcDbText
  0
TEXT
  5
242
330
1E
100
AcDbEntity
  8
TEXT
100
AcDbText
 10
26.89881386718752
 20
2.192930918783397
 30
0.0
 40
0.874999125
  1
14.170
 41
0.75
 72
     4
 11
28.26600000000002
 21
2.630430481283397
 31
0.0
100
AcDbText
  0
TEXT
  5
243
330
1E
100
AcDbEntity
  8
TEXT
100
AcDbText
 10
31.51350131250003
 20
0.7279309187833942
 30
0.0
 40
0.874999125
  1
[355]
 41
0.75
 72
     4
 11
32.82600000000003
 21
1.165430481283394
 31
0.0
100
AcDbText
  0
TEXT
  5
244
330
1E
100
AcDbEntity
  8
TEXT
100
AcDbText
 10
32.60725021875003
 20
3.657930918783401
 30
0.0
 40
0.874999125
  1
C
 41
0.75
 72
     4
 11
32.82600000000003
 21
4.095430481283401
 31
0.0
100
AcDbText
  0
TEXT
  5
245
330
1E
100
AcDbEntity
  8
TEXT
100
AcDbText
 10
31.29475153125003
 20
2.192930918783397
 30
0.0
 40
0.874999125
  1
13.984
 41
0.75
 72
     4
 11
32.82600000000003
 21
2.630430481283397
 31
0.0
100
AcDbText
  0
TEXT
  5
246
330
1E
100
AcDbEntity
  8
TEXT
100
AcDbText
 10
36.29225109375002
 20
0.7279309187833944
 30
0.0
 40
0.874999125
  1
[311]
 41
0.75
 72
     4
 11
37.38600000000002
 21
1.165430481283394
 31
0.0
100
AcDbText
  0
TEXT
  5
247
330
1E
100
AcDbEntity
  8
TEXT
100
AcDbText
 10
37.16725021875002
 20
3.657930918783401
 30
0.0
 40
0.874999125
  1
D
 41
0.75
 72
     4
 11
37.38600000000002
 21
4.095430481283401
 31
0.0
100
AcDbText
  0
TEXT
  5
248
330
1E
100
AcDbEntity
  8
TEXT
100
AcDbText
 10
35.85475153125002
 20
2.192930918783397
 30
0.0
 40
0.874999125
  1
12.252
 41
0.75
 72
     4
 11
37.38600000000002
 21
2.630430481283397
 31
0.0
100
AcDbText
  0
TEXT
  5
249
330
1E
100
AcDbEntity
  8
TEXT
100
AcDbText
 10
40.74287620312502
 20
0.7279309187833942
 30
0.0
 40
0.874999125
  1
[561]
 41
0.75
 72
     4
 11
41.94600000000002
 21
1.165430481283394
 31
0.0
100
AcDbText
  0
TEXT
  5
24A
330
1E
100
AcDbEntity
  8
TEXT
100
AcDbText
 10
41.72725021875002
 20
3.6579309187834
 30
0.0
 40
0.874999125
  1
E
 41
0.75
 72
     4
 11
41.94600000000002
 21
4.095430481283401
 31
0.0
100
AcDbText
  0
TEXT
  5
24B
330
1E
100
AcDbEntity
  8
TEXT
100
AcDbText
 10
40.36006408593752
 20
2.192930918783397
 30
0.0
 40
0.874999125
  1
22.085
 41
0.75
 72
     4
 11
41.94600000000002
 21
2.630430481283397
 31
0.0
100
AcDbText
  0
TEXT
  5
24C
330
1E
100
AcDbEntity
  8
TEXT
100
AcDbText
 10
45.24818875781252
 20
0.7279309187833942
 30
0.0
 40
0.874999125
  1
[540]
 41
0.75
 72
     4
 11
46.50600000000003
 21
1.165430481283394
 31
0.0
100
AcDbText
  0
TEXT
  5
24D
330
1E
100
AcDbEntity
  8
TEXT
100
AcDbText
 10
46.28725021875003
 20
3.6579309187834
 30
0.0
 40
0.874999125
  1
F
 41
0.75
 72
     4
 11
46.50600000000003
 21
4.095430481283401
 31
0.0
100
AcDbText
  0
TEXT
  5
24E
330
1E
100
AcDbEntity
  8
TEXT
100
AcDbText
 10
45.02943897656253
 20
2.192930918783397
 30
0.0
 40
0.874999125
  1
21.260
 41
0.75
 72
     4
 11
46.50600000000003
 21
2.630430481283397
 31
0.0
100
AcDbText
  0
TEXT
  5
24F
330
1E
100
AcDbEntity
  8
TEXT
100
AcDbText
 10
49.75350131250003
 20
0.7279309187833942
 30
0.0
 40
0.874999125
  1
[535]
 41
0.75
 72
     4
 11
51.06600000000003
 21
1.165430481283394
 31
0.0
100
AcDbText
  0
TEXT
  5
250
330
1E
100
AcDbEntity
  8
TEXT
100
AcDbText
 10
50.84725021875003
 20
3.657930918783401
 30
0.0
 40
0.874999125
  1
G
 41
0.75
 72
     4
 11
51.06600000000003
 21
4.095430481283401
 31
0.0
100
AcDbText
  0
TEXT
  5
251
330
1E
100
AcDbEntity
  8
TEXT
100
AcDbText
 10
49.58943897656253
 20
2.192930918783397
 30
0.0
 40
0.874999125
  1
21.062
 41
0.75
 72
     4
 11
51.06600000000003
 21
2.630430481283397
 31
0.0
100
AcDbText
  0
TEXT
  5
252
330
1E
100
AcDbEntity
  8
TEXT
100
AcDbText
 10
54.42287620312503
 20
0.7279309187833942
 30
0.0
 40
0.874999125
  1
[491]
 41
0.75
 72
     4
 11
55.62600000000003
 21
1.165430481283394
 31
0.0
100
AcDbText
  0
TEXT
  5
253
330
1E
100
AcDbEntity
  8
TEXT
100
AcDbText
 10
55.40725021875003
 20
3.6579309187834
 30
0.0
 40
0.874999125
  1
H
 41
0.75
 72
     4
 11
55.62600000000003
 21
4.095430481283401
 31
0.0
100
AcDbText
  0
TEXT
  5
254
330
1E
100
AcDbEntity
  8
TEXT
100
AcDbText
 10
54.20412642187502
 20
2.192930918783397
 30
0.0
 40
0.874999125
  1
19.313
 41
0.75
 72
     4
 11
55.62600000000003
 21
2.630430481283397
 31
0.0
100
AcDbText
  0
TEXT
  5
255
330
1E
100
AcDbEntity
  8
TEXT
100
AcDbText
 10
59.20162598437502
 20
0.7279309187833942
 30
0.0
 40
0.874999125
  1
[69]
 41
0.75
 72
     4
 11
60.18600000000002
 21
1.165430481283394
 31
0.0
100
AcDbText
  0
TEXT
  5
256
330
1E
100
AcDbEntity
  8
TEXT
100
AcDbText
 10
59.96725021875002
 20
3.657930918783401
 30
0.0
 40
0.874999125
  1
J
 41
0.75
 72
     4
 11
60.18600000000002
 21
4.095430481283401
 31
0.0
100
AcDbText
  0
TEXT
  5
257
330
1E
100
AcDbEntity
  8
TEXT
100
AcDbText
 10
58.87350131250002
 20
2.192930918783397
 30
0.0
 40
0.874999125
  1
2.724
 41
0.75
 72
     4
 11
60.18600000000002
 21
2.630430481283397
 31
0.0
100
AcDbText
  0
TEXT
  5
258
330
1E
100
AcDbEntity
  8
TEXT
100
AcDbText
 10
63.43350131250002
 20
0.7279309187833942
 30
0.0
 40
0.874999125
  1
[377]
 41
0.75
 72
     4
 11
64.74600000000002
 21
1.165430481283394
 31
0.0
100
AcDbText
  0
TEXT
  5
259
330
1E
100
AcDbEntity
  8
TEXT
100
AcDbText
 10
64.52725021875003
 20
3.6579309187834
 30
0.0
 40
0.874999125
  1
K
 41
0.75
 72
     4
 11
64.74600000000002
 21
4.095430481283401
 31
0.0
100
AcDbText
  0
TEXT
  5
25A
330
1E
100
AcDbEntity
  8
TEXT
100
AcDbText
 10
63.21475153125002
 20
2.192930918783397
 30
0.0
 40
0.874999125
  1
14.838
 41
0.75
 72
     4
 11
64.74600000000002
 21
2.630430481283397
 31
0.0
100
AcDbText
  0
TEXT
  5
25B
330
1E
100
AcDbEntity
  8
TEXT
100
AcDbText
 10
67.99350131250003
 20
0.7279309187833942
 30
0.0
 40
0.874999125
  1
[378]
 41
0.75
 72
     4
 11
69.30600000000002
 21
1.165430481283394
 31
0.0
100
AcDbText
  0
TEXT
  5
25C
330
1E
100
AcDbEntity
  8
TEXT
100
AcDbText
 10
69.08725021875003
 20
3.6579309187834
 30
0.0
 40
0.874999125
  1
L
 41
0.75
 72
     4
 11
69.30600000000002
 21
4.095430481283401
 31
0.0
100
AcDbText
  0
TEXT
  5
25D
330
1E
100
AcDbEntity
  8
TEXT
100
AcDbText
 10
67.82943897656252
 20
2.192930918783397
 30
0.0
 40
0.874999125
  1
14.890
 41
0.75
 72
     4
 11
69.30600000000002
 21
2.630430481283397
 31
0.0
100
AcDbText
  0
TEXT
  5
25E
330
1E
100
AcDbEntity
  8
TEXT
100
AcDbText
 10
72.99100087500002
 20
0.7279309187833942
 30
0.0
 40
0.874999125
  1
[31]
 41
0.75
 72
     4
 11
73.86600000000003
 21
1.165430481283394
 31
0.0
100
AcDbText
  0
TEXT
  5
25F
330
1E
100
AcDbEntity
  8
TEXT
100
AcDbText
 10
73.64725021875003
 20
3.6579309187834
 30
0.0
 40
0.874999125
  1
M
 41
0.75
 72
     4
 11
73.86600000000003
 21
4.095430481283401
 31
0.0
100
AcDbText
  0
TEXT
  5
260
330
1E
100
AcDbEntity
  8
TEXT
100
AcDbText
 10
72.82693853906252
 20
2.192930918783397
 30
0.0
 40
0.874999125
  1
1.210
 41
0.75
 72
     4
 11
73.86600000000003
 21
2.630430481283397
 31
0.0
100
AcDbText
  0
TEXT
  5
261
330
1E
100
AcDbEntity
  8
TEXT
100
AcDbText
 10
77.22287620312503
 20
0.7279309187833944
 30
0.0
 40
0.874999125
  1
[148]
 41
0.75
 72
     4
 11
78.42600000000003
 21
1.165430481283394
 31
0.0
100
AcDbText
  0
TEXT
  5
262
330
1E
100
AcDbEntity
  8
TEXT
100
AcDbText
 10
78.20725021875003
 20
3.6579309187834
 30
0.0
 40
0.874999125
  1
N
 41
0.75
 72
     4
 11
78.42600000000003
 21
4.095430481283401
 31
0.0
100
AcDbText
  0
TEXT
  5
263
330
1E
100
AcDbEntity
  8
TEXT
100
AcDbText
 10
77.11350131250004
 20
2.192930918783397
 30
0.0
 40
0.874999125
  1
5.825
 41
0.75
 72
     4
 11
78.42600000000003
 21
2.630430481283397
 31
0.0
100
AcDbText
  0
TEXT
  5
264
330
1E
100
AcDbEntity
  8
TEXT
100
AcDbText
 10
81.67350131250001
 20
0.7279309187833942
 30
0.0
 40
0.874999125
  1
[558]
 41
0.75
 72
     4
 11
82.98600000000002
 21
1.165430481283394
 31
0.0
100
AcDbText
  0
TEXT
  5
265
330
1E
100
AcDbEntity
  8
TEXT
100
AcDbText
 10
82.76725021875002
 20
3.6579309187834
 30
0.0
 40
0.874999125
  1
P
 41
0.75
 72
     4
 11
82.98600000000002
 21
4.095430481283401
 31
0.0
100
AcDbText
  0
TEXT
  5
266
330
1E
100
AcDbEntity
  8
TEXT
100
AcDbText
 10
81.45475153125003
 20
2.192930918783397
 30
0.0
 40
0.874999125
  1
21.958
 41
0.75
 72
     4
 11
82.98600000000002
 21
2.630430481283397
 31
0.0
100
AcDbText
  0
TEXT
  5
267
330
1E
100
AcDbEntity
  8
TEXT
100
AcDbText
 10
86.23350131250001
 20
0.7279309187833942
 30
0.0
 40
0.874999125
  1
[555]
 41
0.75
 72
     4
 11
87.54600000000001
 21
1.165430481283394
 31
0.0
100
AcDbText
  0
TEXT
  5
268
330
1E
100
AcDbEntity
  8
TEXT
100
AcDbText
 10
87.32725021875003
 20
3.6579309187834
 30
0.0
 40
0.874999125
  1
R
 41
0.75
 72
     4
 11
87.54600000000001
 21
4.095430481283401
 31
0.0
100
AcDbText
  0
TEXT
  5
269
330
1E
100
AcDbEntity
  8
TEXT
100
AcDbText
 10
86.0694389765625
 20
2.192930918783397
 30
0.0
 40
0.874999125
  1
21.870
 41
0.75
 72
     4
 11
87.54600000000001
 21
2.630430481283397
 31
0.0
100
AcDbText
  0
TEXT
  5
26A
330
1E
100
AcDbEntity
  8
TEXT
100
AcDbText
 10
90.8481887578125
 20
0.7279309187833942
 30
0.0
 40
0.874999125
  1
[340]
 41
0.75
 72
     4
 11
92.10600000000001
 21
1.165430481283394
 31
0.0
100
AcDbText
  0
TEXT
  5
26B
330
1E
100
AcDbEntity
  8
TEXT
100
AcDbText
 10
91.88725021875002
 20
3.657930918783401
 30
0.0
 40
0.874999125
  1
S
 41
0.75
 72
     4
 11
92.10600000000003
 21
4.095430481283401
 31
0.0
100
AcDbText
  0
TEXT
  5
26C
330
1E
100
AcDbEntity
  8
TEXT
100
AcDbText
 10
90.57475153125002
 20
2.192930918783397
 30
0.0
 40
0.874999125
  1
13.378
 41
0.75
 72
     4
 11
92.10600000000001
 21
2.630430481283397
 31
0.0
100
AcDbText
  0
TEXT
  5
26D
330
1E
100
AcDbEntity
  8
TEXT
100
AcDbText
 10
95.46287620312503
 20
0.7279309187833944
 30
0.0
 40
0.874999125
  1
[155]
 41
0.75
 72
     4
 11
96.66600000000002
 21
1.165430481283394
 31
0.0
100
AcDbText
  0
TEXT
  5
26E
330
1E
100
AcDbEntity
  8
TEXT
100
AcDbText
 10
96.44725021875004
 20
3.6579309187834
 30
0.0
 40
0.874999125
  1
T
 41
0.75
 72
     4
 11
96.66600000000002
 21
4.095430481283401
 31
0.0
100
AcDbText
  0
TEXT
  5
26F
330
1E
100
AcDbEntity
  8
TEXT
100
AcDbText
 10
95.40818875781253
 20
2.192930918783397
 30
0.0
 40
0.874999125
  1
6.093
 41
0.75
 72
     4
 11
96.66600000000002
 21
2.630430481283397
 31
0.0
100
AcDbText
  0
TEXT
  5
270
330
1E
100
AcDbEntity
  8
TEXT
100
AcDbText
 10
99.96818875781251
 20
0.7279309187833942
 30
0.0
 40
0.874999125
  1
[520]
 41
0.75
 72
     4
 11
101.226
 21
1.165430481283394
 31
0.0
100
AcDbText
  0
TEXT
  5
271
330
1E
100
AcDbEntity
  8
TEXT
100
AcDbText
 10
101.00725021875
 20
3.6579309187834
 30
0.0
 40
0.874999125
  1
U
 41
0.75
 72
     4
 11
101.226
 21
4.095430481283401
 31
0.0
100
AcDbText
  0
TEXT
  5
272
330
1E
100
AcDbEntity
  8
TEXT
100
AcDbText
 10
99.64006408593752
 20
2.192930918783397
 30
0.0
 40
0.874999125
  1
20.455
 41
0.75
 72
     4
 11
101.226
 21
2.630430481283397
 31
0.0
100
AcDbText
  0
TEXT
  5
273
330
1E
100
AcDbEntity
  8
TEXT
100
AcDbText
 10
104.4735013125
 20
0.7279309187833942
 30
0.0
 40
0.874999125
  1
[238]
 41
0.75
 72
     4
 11
105.786
 21
1.165430481283394
 31
0.0
100
AcDbText
  0
TEXT
  5
274
330
1E
100
AcDbEntity
  8
TEXT
100
AcDbText
 10
105.457875328125
 20
3.6579309187834
 30
0.0
 40
0.874999125
  1
V
 41
0.75
 72
     4
 11
105.786
 21
4.095430481283401
 31
0.0
100
AcDbText
  0
TEXT
  5
275
330
1E
100
AcDbEntity
  8
TEXT
100
AcDbText
 10
104.5281887578125
 20
2.192930918783397
 30
0.0
 40
0.874999125
  1
9.360
 41
0.75
 72
     4
 11
105.786
 21
2.630430481283397
 31
0.0
100
AcDbText
  0
TEXT
  5
276
330
1E
100
AcDbEntity
  8
TEXT
100
AcDbText
 10
78.14226982831598
 20
12.56975072550504
 30
0.0
 40
1.093748906249999
  1
%%UVIEW LESS COVER
 41
0.75
 72
     4
 11
84.44499790058159
 21
13.00725028800504
 31
0.0
100
AcDbText
  0
DIMENSION
  5
277
330
1E
100
AcDbEntity
  8
DIM
100
AcDbDimension
  2
*D3
 10
73.20749790058158
 20
36.16338185286528
 30
0.0
 11
73.20749790058157
 21
26.5068818528653
 31
0.0
 70
    32
  1
H
 71
     5
 42
19.31299999999997
  3
23NSTD
100
AcDbAlignedDimension
 13
78.31899790058159
 23
16.8503818528653
 33
0.0
 14
78.31899790058159
 24
36.16338185286528
 34
0.0
 50
270.0
100
AcDbRotatedDimension
  0
DIMENSION
  5
278
330
1E
100
AcDbEntity
  8
DIM
100
AcDbDimension
  2
*D4
 10
69.70749790058158
 20
37.13688185286526
 30
0.0
 11
69.70749790058157
 21
26.50688185286528
 31
0.0
 70
    32
  1
F
 71
     5
 42
21.25999999999999
  3
23NSTD
100
AcDbAlignedDimension
 13
78.06212911163664
 23
15.87688185286527
 33
0.0
 14
78.06212911163664
 24
37.13688185286526
 34
0.0
 50
90.0
100
AcDbRotatedDimension
  0
DIMENSION
  5
279
330
1E
100
AcDbEntity
  8
DIM
100
AcDbDimension
  2
*D5
 10
67.95749790058159
 20
37.54938185286527
 30
0.0
 11
67.95749790058157
 21
26.50688185286528
 31
0.0
 70
    32
  1
E
 71
     5
 42
22.08499999999999
  3
23NSTD
100
AcDbAlignedDimension
 13
77.51999790058158
 23
15.46438185286527
 33
0.0
 14
77.51999790058158
 24
37.54938185286527
 34
0.0
 50
90.0
100
AcDbRotatedDimension
  0
LINE
  5
27A
330
1E
100
AcDbEntity
  8
CENTER
100
AcDbLine
 10
84.44499790058159
 20
14.96438185286529
 30
0.0
 11
84.44499790058159
 21
38.04938185286527
 31
0.0
  0
LINE
  5
27B
330
1E
100
AcDbEntity
  8
CENTER
100
AcDbLine
 10
76.45749790058158
 20
26.50688185286528
 30
0.0
 11
92.43249790058163
 21
26.50688185286528
 31
0.0
  0
DIMENSION
  5
27C
330
1E
100
AcDbEntity
  8
DIM
100
AcDbDimension
  2
*D6
 10
91.52999790058158
 20
42.39838185286529
 30
0.0
 11
84.44499790058157
 21
42.39838185286529
 31
0.0
 70
    32
  1
B
 71
     5
 42
14.16999999999998
  3
23NSTD
100
AcDbAlignedDimension
 13
77.35999790058158
 23
36.44761730739616
 33
0.0
 14
91.52999790058158
 24
36.44761730739616
 34
0.0
100
AcDbRotatedDimension
  0
DIMENSION
  5
27D
330
1E
100
AcDbEntity
  8
DIM
100
AcDbDimension
  2
*D7
 10
91.43699790058159
 20
40.64838185286529
 30
0.0
 11
84.44499790058157
 21
40.64838185286529
 31
0.0
 70
    32
  1
C
 71
     5
 42
13.984
  3
23NSTD
100
AcDbAlignedDimension
 13
77.45299790058158
 23
37.03788185286526
 33
0.0
 14
91.43699790058159
 24
37.03788185286526
 34
0.0
100
AcDbRotatedDimension
  0
DIMENSION
  5
27E
330
1E
100
AcDbEntity
  8
DIM
100
AcDbDimension
  2
*D8
 10
91.9324979005816
 20
44.14838185286529
 30
0.0
 11
84.44499790058159
 21
44.14838185286529
 31
0.0
 70
    32
  1
A
 71
     5
 42
14.97500000000002
  3
23NSTD
100
AcDbAlignedDimension
 13
76.95749790058158
 23
36.98688185286527
 33
0.0
 14
91.9324979005816
 24
36.98688185286527
 34
0.0
100
AcDbRotatedDimension
  0
CIRCLE
  5
27F
330
1E
100
AcDbEntity
  8
HIDDEN
100
AcDbCircle
 10
77.45299790058158
 20
37.03788185286526
 30
0.0
 40
0.3115
  0
CIRCLE
  5
280
330
1E
100
AcDbEntity
  8
OBJECT
100
AcDbCircle
 10
77.45299790058158
 20
37.03788185286526
 30
0.0
 40
0.266
  0
CIRCLE
  5
281
330
1E
100
AcDbEntity
  8
OBJECT
100
AcDbCircle
 10
78.31899790058159
 20
36.16338185286528
 30
0.0
 40
0.28
  0
CIRCLE
  5
282
330
1E
100
AcDbEntity
  8
HIDDEN
100
AcDbCircle
 10
78.31899790058159
 20
36.16338185286528
 30
0.0
 40
0.095
  0
CIRCLE
  5
283
330
1E
100
AcDbEntity
  8
OBJECT
100
AcDbCircle
 10
78.31899790058159
 20
36.16338185286528
 30
0.0
 40
0.0825
  0
DIMENSION
  5
284
330
1E
100
AcDbEntity
  8
DIM
100
AcDbDimension
  2
*D9
 10
71.45749790058158
 20
15.97588185286529
 30
0.0
 11
71.45749790058158
 21
26.50688185286528
 31
0.0
 70
    32
  1
G
 71
     5
 42
21.06199999999997
  3
23NSTD
100
AcDbAlignedDimension
 13
77.45299790058158
 23
37.03788185286526
 33
0.0
 14
77.45299790058158
 24
15.97588185286529
 34
0.0
 50
270.0
100
AcDbRotatedDimension
  0
LINE
  5
285
330
1E
100
AcDbEntity
  8
CENTER
100
AcDbLine
 10
49.29323249663514
 20
26.50688185286529
 30
0.0
 11
65.21423249663516
 21
26.50688185286529
 31
0.0
  0
LINE
  5
286
330
1E
100
AcDbEntity
  8
OBJECT
100
AcDbLine
 10
63.749633388099
 20
43.46381779633185
 30
0.0
 11
63.82126980767876
 21
48.99581779633184
 31
0.0
  0
LINE
  5
287
330
1E
100
AcDbEntity
  8
OBJECT
100
AcDbLine
 10
64.74123249663515
 20
43.17081779633183
 30
0.0
 11
64.67273249663515
 21
48.99581779633184
 31
0.0
  0
LINE
  5
288
330
1E
100
AcDbEntity
  8
CENTER
100
AcDbLine
 10
57.25373249663513
 20
41.46081779633182
 30
0.0
 11
57.25373249663515
 21
49.49581779633184
 31
0.0
  0
LINE
  5
289
330
1E
100
AcDbEntity
  8
OBJECT
100
AcDbLine
 10
49.76623249663516
 20
43.17081779633183
 30
0.0
 11
49.83473249663513
 21
48.99581779633184
 31
0.0
  0
LINE
  5
28A
330
1E
100
AcDbEntity
  8
OBJECT
100
AcDbLine
 10
50.75783160517128
 20
43.46381779633185
 30
0.0
 11
50.68619518559152
 21
48.99581779633184
 31
0.0
  0
DIMENSION
  5
28B
330
1E
100
AcDbEntity
  8
DIM
100
AcDbDimension
  2
*D10
 10
64.69873249663513
 20
39.96081779633184
 30
0.0
 11
57.25373249663514
 21
39.96081779633184
 31
0.0
 70
    32
  1
L
 71
     5
 42
14.88999999999998
  3
23NSTD
100
AcDbAlignedDimension
 13
49.80873249663515
 23
42.19081779633185
 33
0.0
 14
64.69873249663513
 24
42.19081779633185
 34
0.0
100
AcDbRotatedDimension
  0
LINE
  5
28C
330
1E
100
AcDbEntity
  8
OBJECT
100
AcDbLine
 10
50.30553962414476
 20
42.86481779633183
 30
0.0
 11
64.20192536912551
 21
42.86481779633183
 31
0.0
  0
LINE
  5
28D
330
1E
100
AcDbEntity
  8
OBJECT
100
AcDbLine
 10
50.30553962414476
 20
43.46381779633183
 30
0.0
 11
64.20192536912551
 21
43.46381779633185
 31
0.0
  0
LINE
  5
28E
330
1E
100
AcDbEntity
  8
OBJECT
100
AcDbLine
 10
50.26523249663514
 20
41.96081779633184
 30
0.0
 11
64.24223249663516
 21
41.96081779633184
 31
0.0
  0
LINE
  5
28F
330
1E
100
AcDbEntity
  8
OBJECT
100
AcDbLine
 10
49.76623249663516
 20
43.17081779633183
 30
0.0
 11
64.74123249663515
 21
43.17081779633183
 31
0.0
  0
ARC
  5
290
330
1E
100
AcDbEntity
  8
OBJECT
100
AcDbCircle
 10
50.99173249663513
 20
42.19081779633185
 30
0.0
 40
0.2300000000000111
100
AcDbArc
 50
180.0
 51
270.0
  0
ARC
  5
291
330
1E
100
AcDbEntity
  8
OBJECT
100
AcDbCircle
 10
50.26523249663514
 20
42.19081779633185
 30
0.0
 40
0.2300000000000111
100
AcDbArc
 50
180.0
 51
270.0
  0
LINE
  5
292
330
1E
100
AcDbEntity
  8
OBJECT
100
AcDbLine
 10
49.80873249663515
 20
42.19081779633185
 30
0.0
 11
50.94724109563339
 21
42.19081779633185
 31
0.0
  0
LINE
  5
293
330
1E
100
AcDbEntity
  8
OBJECT
100
AcDbLine
 10
49.79323249663515
 20
43.17081779633184
 30
0.0
 11
49.80873249663515
 21
42.19081779633185
 31
0.0
  0
LINE
  5
294
330
1E
100
AcDbEntity
  8
OBJECT
100
AcDbLine
 10
50.76173249663512
 20
42.19081779633185
 30
0.0
 11
50.76173249663512
 21
42.86481779633183
 31
0.0
  0
ARC
  5
295
330
1E
100
AcDbEntity
  8
OBJECT
100
AcDbCircle
 10
63.5157324966352
 20
42.19081779633185
 30
0.0
 40
0.2300000000000111
100
AcDbArc
 50
270.0
 51
0.0
  0
ARC
  5
296
330
1E
100
AcDbEntity
  8
OBJECT
100
AcDbCircle
 10
64.24223249663516
 20
42.19081779633185
 30
0.0
 40
0.2300000000000111
100
AcDbArc
 50
270.0
 51
0.0
  0
LINE
  5
297
330
1E
100
AcDbEntity
  8
OBJECT
100
AcDbLine
 10
64.69873249663513
 20
42.19081779633185
 30
0.0
 11
63.56022389763689
 21
42.19081779633185
 31
0.0
  0
LINE
  5
298
330
1E
100
AcDbEntity
  8
OBJECT
100
AcDbLine
 10
63.74573249663521
 20
42.19081779633185
 30
0.0
 11
63.74573249663521
 21
42.86481779633183
 31
0.0
  0
LINE
  5
299
330
1E
100
AcDbEntity
  8
OBJECT
100
AcDbLine
 10
64.71423249663516
 20
43.17081779633184
 30
0.0
 11
64.69873249663513
 21
42.19081779633185
 31
0.0
  0
DIMENSION
  5
29A
330
1E
100
AcDbEntity
  8
DIM
100
AcDbDimension
  2
*D11
 10
64.67273249663515
 20
50.99581779633183
 30
0.0
 11
57.25373249663514
 21
50.99581779633183
 31
0.0
 70
    32
  1
K
 71
     5
 42
14.83800000000001
  3
23NSTD
100
AcDbAlignedDimension
 13
49.83473249663513
 23
48.99581779633184
 33
0.0
 14
64.67273249663515
 24
48.99581779633184
 34
0.0
100
AcDbRotatedDimension
  0
LINE
  5
29B
330
1E
100
AcDbEntity
  8
OBJECT
100
AcDbLine
 10
64.67273249663515
 20
48.99581779633184
 30
0.0
 11
49.83473249663513
 21
48.99581779633184
 31
0.0
  0
DIMENSION
  5
29C
330
1E
100
AcDbEntity
  8
DIM
100
AcDbDimension
  2
*D12
 10
34.92177787660312
 20
15.57188185286529
 30
0.0
 11
34.92177787660312
 21
26.50688185286529
 31
0.0
 70
    32
  1
R
 71
     5
 42
21.86999999999998
  3
23NSTD
100
AcDbAlignedDimension
 13
37.66772354672975
 23
37.44188185286528
 33
0.0
 14
37.66772354672975
 24
15.57188185286529
 34
0.0
 50
270.0
100
AcDbRotatedDimension
  0
LINE
  5
29D
330
1E
100
AcDbEntity
  8
OBJECT
100
AcDbLine
 10
43.79872354672975
 20
37.02257472535563
 30
0.0
 11
43.79872354672975
 21
26.50688185286529
 31
0.0
  0
LINE
  5
29E
330
1E
100
AcDbEntity
  8
OBJECT
100
AcDbLine
 10
43.19972354672975
 20
37.02257472535563
 30
0.0
 11
43.19972354672975
 21
26.50688185286529
 31
0.0
  0
LINE
  5
29F
330
1E
100
AcDbEntity
  8
OBJECT
100
AcDbLine
 10
43.49272354672975
 20
26.08891078120193
 30
0.0
 11
43.49272354672975
 21
37.54938185286524
 31
0.0
  0
LINE
  5
2A0
330
1E
100
AcDbEntity
  8
OBJECT
100
AcDbLine
 10
37.66772354672974
 20
26.50688185286529
 30
0.0
 11
37.66772354672975
 21
37.44188185286528
 31
0.0
  0
LINE
  5
2A1
330
1E
100
AcDbEntity
  8
OBJECT
100
AcDbLine
 10
44.70272354672975
 20
37.05038185286529
 30
0.0
 11
44.70272354672975
 21
15.9633818528653
 31
0.0
  0
DIMENSION
  5
2A2
330
1E
100
AcDbEntity
  8
DIM
100
AcDbDimension
  2
*D13
 10
37.82772354672973
 20
23.61627512956772
 30
0.0
 11
29.64647354672973
 21
23.61627512956772
 31
0.0
 70
    32
  1
<> (INSIDE)
 71
     5
 42
0.3929999999999865
  3
23NSTD
100
AcDbAlignedDimension
 13
38.22072354672972
 23
24.86488185286527
 33
0.0
 14
37.82772354672973
 24
24.86488185286527
 34
0.0
100
AcDbRotatedDimension
  0
DIMENSION
  5
2A3
330
1E
100
AcDbEntity
  8
DIM
100
AcDbDimension
  2
*D14
 10
37.66772354672974
 20
21.64927512956771
 30
0.0
 11
32.33022354672974
 21
21.64927512956771
 31
0.0
 70
    32
  1
<>
 71
     5
 42
0.1599999999999966
  3
23NSTD
100
AcDbAlignedDimension
 13
37.82772354672973
 23
24.86488185286527
 33
0.0
 14
37.66772354672974
 24
24.80288185286531
 34
0.0
100
AcDbRotatedDimension
  0
LINE
  5
2A4
330
1E
100
AcDbEntity
  8
OBJECT
100
AcDbLine
 10
43.44872354672975
 20
15.66438185286532
 30
0.0
 11
43.44091291654712
 21
15.7749732756786
 31
0.0
  0
LINE
  5
2A5
330
1E
100
AcDbEntity
  8
OBJECT
100
AcDbLine
 10
43.49272354672975
 20
15.4643818528653
 30
0.0
 11
37.66772354672975
 21
15.57188185286529
 31
0.0
  0
LINE
  5
2A6
330
1E
100
AcDbEntity
  8
OBJECT
100
AcDbLine
 10
44.58772354672974
 20
25.75488185286527
 30
0.0
 11
44.58772354672974
 21
16.709053826634
 31
0.0
  0
ARC
  5
2A7
330
1E
100
AcDbEntity
  8
OBJECT
100
AcDbCircle
 10
44.47272354672973
 20
16.68988185286544
 30
0.0
 40
0.2300000000000111
100
AcDbArc
 50
270.0
 51
0.0
  0
ARC
  5
2A8
330
1E
100
AcDbEntity
  8
OBJECT
100
AcDbCircle
 10
44.47272354672973
 20
15.9633818528653
 30
0.0
 40
0.2300000000000111
100
AcDbArc
 50
270.0
 51
0.0
  0
LINE
  5
2A9
330
1E
100
AcDbEntity
  8
OBJECT
100
AcDbLine
 10
43.49272354672975
 20
16.3863818528653
 30
0.0
 11
43.49272354672975
 21
15.4643818528653
 31
0.0
  0
LINE
  5
2AA
330
1E
100
AcDbEntity
  8
OBJECT
100
AcDbLine
 10
43.74272354672975
 20
16.3208818528653
 30
0.0
 11
43.74272354672975
 21
15.63088185286528
 31
0.0
  0
LINE
  5
2AB
330
1E
100
AcDbEntity
  8
OBJECT
100
AcDbLine
 10
44.47272354672973
 20
15.52788185286528
 30
0.0
 11
44.47272354672973
 21
16.45988185286527
 31
0.0
  0
LINE
  5
2AC
330
1E
100
AcDbEntity
  8
OBJECT
100
AcDbLine
 10
43.49272354672975
 20
15.49138185286529
 30
0.0
 11
44.47272354672973
 21
15.52788185286528
 31
0.0
  0
LINE
  5
2AD
330
1E
100
AcDbEntity
  8
OBJECT
100
AcDbLine
 10
43.48188387943149
 20
15.84094328474435
 30
0.0
 11
43.49272354672975
 21
15.70988185286532
 31
0.0
  0
ARC
  5
2AE
330
1E
100
AcDbEntity
  8
OBJECT
100
AcDbCircle
 10
44.47272354672973
 20
16.709053826634
 30
0.0
 40
0.1150000000000091
100
AcDbArc
 50
270.0
 51
0.0
  0
LINE
  5
2AF
330
1E
100
AcDbEntity
  8
OBJECT
100
AcDbLine
 10
43.44872354672975
 20
16.24188185286531
 30
0.0
 11
43.45956321402801
 21
16.11082042098627
 31
0.0
  0
LINE
  5
2B0
330
1E
100
AcDbEntity
  8
OBJECT
100
AcDbLine
 10
43.64972354672975
 20
16.34705382663399
 30
0.0
 11
43.49272354672975
 21
16.34705382663399
 31
0.0
  0
LINE
  5
2B1
330
1E
100
AcDbEntity
  8
OBJECT
100
AcDbLine
 10
43.64972354672977
 20
16.529053826634
 30
0.0
 11
43.49272354672975
 21
16.529053826634
 31
0.0
  0
LINE
  5
2B2
330
1E
100
AcDbEntity
  8
OBJECT
100
AcDbLine
 10
43.64972354672977
 20
16.529053826634
 30
0.0
 11
43.64972354672975
 21
16.34705382663399
 31
0.0
  0
LINE
  5
2B3
330
1E
100
AcDbEntity
  8
OBJECT
100
AcDbLine
 10
43.60772354672977
 20
16.46838185286529
 30
0.0
 11
43.60772354672975
 21
16.3863818528653
 31
0.0
  0
LINE
  5
2B4
330
1E
100
AcDbEntity
  8
OBJECT
100
AcDbLine
 10
42.9438838794315
 20
15.84094328474435
 30
0.0
 11
42.95472354672976
 21
15.70988185286532
 31
0.0
  0
LINE
  5
2B5
330
1E
100
AcDbEntity
  8
OBJECT
100
AcDbLine
 10
42.85588387943151
 20
15.84094328474435
 30
0.0
 11
42.86672354672976
 21
15.70988185286532
 31
0.0
  0
LINE
  5
2B6
330
1E
100
AcDbEntity
  8
OBJECT
100
AcDbLine
 10
42.91072354672976
 20
15.66438185286532
 30
0.0
 11
42.90291291654713
 21
15.7749732756786
 31
0.0
  0
LINE
  5
2B7
330
1E
100
AcDbEntity
  8
OBJECT
100
AcDbLine
 10
42.82272354672977
 20
15.66438185286532
 30
0.0
 11
42.81491291654713
 21
15.7749732756786
 31
0.0
  0
LINE
  5
2B8
330
1E
100
AcDbEntity
  8
OBJECT
100
AcDbLine
 10
42.99872354672976
 20
15.66438185286532
 30
0.0
 11
42.99091291654714
 21
15.7749732756786
 31
0.0
  0
LINE
  5
2B9
330
1E
100
AcDbEntity
  8
OBJECT
100
AcDbLine
 10
43.21788387943149
 20
15.84094328474435
 30
0.0
 11
43.22872354672976
 21
15.70988185286532
 31
0.0
  0
LINE
  5
2BA
330
1E
100
AcDbEntity
  8
OBJECT
100
AcDbLine
 10
43.12988387943149
 20
15.84094328474435
 30
0.0
 11
43.14072354672975
 21
15.70988185286532
 31
0.0
  0
LINE
  5
2BB
330
1E
100
AcDbEntity
  8
OBJECT
100
AcDbLine
 10
43.30588387943148
 20
15.84094328474435
 30
0.0
 11
43.31672354672975
 21
15.70988185286532
 31
0.0
  0
LINE
  5
2BC
330
1E
100
AcDbEntity
  8
OBJECT
100
AcDbLine
 10
43.39388387943149
 20
15.84094328474435
 30
0.0
 11
43.40472354672976
 21
15.70988185286532
 31
0.0
  0
LINE
  5
2BD
330
1E
100
AcDbEntity
  8
OBJECT
100
AcDbLine
 10
43.09672354672975
 20
15.66438185286532
 30
0.0
 11
43.08891291654712
 21
15.7749732756786
 31
0.0
  0
LINE
  5
2BE
330
1E
100
AcDbEntity
  8
OBJECT
100
AcDbLine
 10
43.27272354672976
 20
15.66438185286532
 30
0.0
 11
43.2649129165471
 21
15.7749732756786
 31
0.0
  0
LINE
  5
2BF
330
1E
100
AcDbEntity
  8
OBJECT
100
AcDbLine
 10
43.18472354672976
 20
15.66438185286532
 30
0.0
 11
43.17691291654711
 21
15.7749732756786
 31
0.0
  0
LINE
  5
2C0
330
1E
100
AcDbEntity
  8
OBJECT
100
AcDbLine
 10
43.36072354672976
 20
15.66438185286532
 30
0.0
 11
43.35291291654713
 21
15.7749732756786
 31
0.0
  0
LINE
  5
2C1
330
1E
100
AcDbEntity
  8
OBJECT
100
AcDbLine
 10
43.0418838794315
 20
15.84094328474435
 30
0.0
 11
43.05272354672975
 21
15.70988185286532
 31
0.0
  0
LINE
  5
2C2
330
1E
100
AcDbEntity
  8
OBJECT
100
AcDbLine
 10
42.3278838794315
 20
15.84094328474435
 30
0.0
 11
42.33872354672977
 21
15.70988185286532
 31
0.0
  0
LINE
  5
2C3
330
1E
100
AcDbEntity
  8
OBJECT
100
AcDbLine
 10
42.41588387943149
 20
15.84094328474435
 30
0.0
 11
42.42672354672976
 21
15.70988185286532
 31
0.0
  0
LINE
  5
2C4
330
1E
100
AcDbEntity
  8
OBJECT
100
AcDbLine
 10
42.23988387943149
 20
15.84094328474435
 30
0.0
 11
42.25072354672977
 21
15.70988185286532
 31
0.0
  0
LINE
  5
2C5
330
1E
100
AcDbEntity
  8
OBJECT
100
AcDbLine
 10
42.20672354672976
 20
15.66438185286532
 30
0.0
 11
42.19891291654712
 21
15.7749732756786
 31
0.0
  0
LINE
  5
2C6
330
1E
100
AcDbEntity
  8
OBJECT
100
AcDbLine
 10
42.38272354672977
 20
15.66438185286532
 30
0.0
 11
42.37491291654714
 21
15.7749732756786
 31
0.0
  0
LINE
  5
2C7
330
1E
100
AcDbEntity
  8
OBJECT
100
AcDbLine
 10
42.29472354672977
 20
15.66438185286532
 30
0.0
 11
42.28691291654715
 21
15.7749732756786
 31
0.0
  0
LINE
  5
2C8
330
1E
100
AcDbEntity
  8
OBJECT
100
AcDbLine
 10
42.5038838794315
 20
15.84094328474435
 30
0.0
 11
42.51472354672976
 21
15.70988185286532
 31
0.0
  0
LINE
  5
2C9
330
1E
100
AcDbEntity
  8
OBJECT
100
AcDbLine
 10
42.59188387943148
 20
15.84094328474435
 30
0.0
 11
42.60272354672975
 21
15.70988185286532
 31
0.0
  0
LINE
  5
2CA
330
1E
100
AcDbEntity
  8
OBJECT
100
AcDbLine
 10
42.67988387943149
 20
15.84094328474435
 30
0.0
 11
42.69072354672976
 21
15.70988185286532
 31
0.0
  0
LINE
  5
2CB
330
1E
100
AcDbEntity
  8
OBJECT
100
AcDbLine
 10
42.76788387943148
 20
15.84094328474435
 30
0.0
 11
42.77872354672975
 21
15.70988185286532
 31
0.0
  0
LINE
  5
2CC
330
1E
100
AcDbEntity
  8
OBJECT
100
AcDbLine
 10
42.55872354672976
 20
15.66438185286532
 30
0.0
 11
42.55091291654713
 21
15.7749732756786
 31
0.0
  0
LINE
  5
2CD
330
1E
100
AcDbEntity
  8
OBJECT
100
AcDbLine
 10
42.47072354672976
 20
15.66438185286532
 30
0.0
 11
42.46291291654713
 21
15.7749732756786
 31
0.0
  0
LINE
  5
2CE
330
1E
100
AcDbEntity
  8
OBJECT
100
AcDbLine
 10
42.73472354672976
 20
15.66438185286532
 30
0.0
 11
42.72691291654712
 21
15.7749732756786
 31
0.0
  0
LINE
  5
2CF
330
1E
100
AcDbEntity
  8
OBJECT
100
AcDbLine
 10
42.64672354672977
 20
15.66438185286532
 30
0.0
 11
42.63891291654713
 21
15.7749732756786
 31
0.0
  0
LINE
  5
2D0
330
1E
100
AcDbEntity
  8
OBJECT
100
AcDbLine
 10
42.96253417691242
 20
16.17679043005202
 30
0.0
 11
42.95472354672977
 21
16.28738185286531
 31
0.0
  0
LINE
  5
2D1
330
1E
100
AcDbEntity
  8
OBJECT
100
AcDbLine
 10
42.87453417691241
 20
16.17679043005202
 30
0.0
 11
42.86672354672976
 21
16.28738185286531
 31
0.0
  0
LINE
  5
2D2
330
1E
100
AcDbEntity
  8
OBJECT
100
AcDbLine
 10
42.82272354672977
 20
16.24188185286531
 30
0.0
 11
42.83356321402804
 21
16.11082042098627
 31
0.0
  0
LINE
  5
2D3
330
1E
100
AcDbEntity
  8
OBJECT
100
AcDbLine
 10
42.91072354672976
 20
16.24188185286531
 30
0.0
 11
42.92156321402803
 21
16.11082042098627
 31
0.0
  0
LINE
  5
2D4
330
1E
100
AcDbEntity
  8
OBJECT
100
AcDbLine
 10
42.99872354672976
 20
16.24188185286531
 30
0.0
 11
43.00956321402804
 21
16.11082042098627
 31
0.0
  0
LINE
  5
2D5
330
1E
100
AcDbEntity
  8
OBJECT
100
AcDbLine
 10
43.41253417691239
 20
16.17679043005202
 30
0.0
 11
43.40472354672974
 21
16.28738185286531
 31
0.0
  0
LINE
  5
2D6
330
1E
100
AcDbEntity
  8
OBJECT
100
AcDbLine
 10
43.32453417691239
 20
16.17679043005202
 30
0.0
 11
43.31672354672975
 21
16.28738185286531
 31
0.0
  0
LINE
  5
2D7
330
1E
100
AcDbEntity
  8
OBJECT
100
AcDbLine
 10
43.23653417691239
 20
16.17679043005202
 30
0.0
 11
43.22872354672974
 21
16.28738185286531
 31
0.0
  0
LINE
  5
2D8
330
1E
100
AcDbEntity
  8
OBJECT
100
AcDbLine
 10
43.1485341769124
 20
16.17679043005202
 30
0.0
 11
43.14072354672975
 21
16.28738185286531
 31
0.0
  0
LINE
  5
2D9
330
1E
100
AcDbEntity
  8
OBJECT
100
AcDbLine
 10
43.06053417691241
 20
16.17679043005202
 30
0.0
 11
43.05272354672975
 21
16.28738185286531
 31
0.0
  0
LINE
  5
2DA
330
1E
100
AcDbEntity
  8
OBJECT
100
AcDbLine
 10
43.09672354672975
 20
16.24188185286531
 30
0.0
 11
43.10756321402802
 21
16.11082042098627
 31
0.0
  0
LINE
  5
2DB
330
1E
100
AcDbEntity
  8
OBJECT
100
AcDbLine
 10
43.18472354672975
 20
16.24188185286531
 30
0.0
 11
43.19556321402802
 21
16.11082042098627
 31
0.0
  0
LINE
  5
2DC
330
1E
100
AcDbEntity
  8
OBJECT
100
AcDbLine
 10
43.27272354672974
 20
16.24188185286531
 30
0.0
 11
43.28356321402801
 21
16.11082042098627
 31
0.0
  0
LINE
  5
2DD
330
1E
100
AcDbEntity
  8
OBJECT
100
AcDbLine
 10
43.36072354672975
 20
16.24188185286531
 30
0.0
 11
43.37156321402802
 21
16.11082042098627
 31
0.0
  0
LINE
  5
2DE
330
1E
100
AcDbEntity
  8
OBJECT
100
AcDbLine
 10
42.43453417691241
 20
16.17679043005202
 30
0.0
 11
42.42672354672976
 21
16.28738185286531
 31
0.0
  0
LINE
  5
2DF
330
1E
100
AcDbEntity
  8
OBJECT
100
AcDbLine
 10
42.3465341769124
 20
16.17679043005202
 30
0.0
 11
42.33872354672976
 21
16.28738185286531
 31
0.0
  0
LINE
  5
2E0
330
1E
100
AcDbEntity
  8
OBJECT
100
AcDbLine
 10
42.25853417691241
 20
16.17679043005202
 30
0.0
 11
42.25072354672977
 21
16.28738185286531
 31
0.0
  0
LINE
  5
2E1
330
1E
100
AcDbEntity
  8
OBJECT
100
AcDbLine
 10
42.20672354672975
 20
16.24188185286531
 30
0.0
 11
42.21756321402803
 21
16.11082042098627
 31
0.0
  0
LINE
  5
2E2
330
1E
100
AcDbEntity
  8
OBJECT
100
AcDbLine
 10
42.29472354672976
 20
16.24188185286531
 30
0.0
 11
42.30556321402803
 21
16.11082042098627
 31
0.0
  0
LINE
  5
2E3
330
1E
100
AcDbEntity
  8
OBJECT
100
AcDbLine
 10
42.38272354672975
 20
16.24188185286531
 30
0.0
 11
42.39356321402802
 21
16.11082042098627
 31
0.0
  0
LINE
  5
2E4
330
1E
100
AcDbEntity
  8
OBJECT
100
AcDbLine
 10
42.78653417691241
 20
16.17679043005202
 30
0.0
 11
42.77872354672977
 21
16.28738185286531
 31
0.0
  0
LINE
  5
2E5
330
1E
100
AcDbEntity
  8
OBJECT
100
AcDbLine
 10
42.69853417691241
 20
16.17679043005202
 30
0.0
 11
42.69072354672976
 21
16.28738185286531
 31
0.0
  0
LINE
  5
2E6
330
1E
100
AcDbEntity
  8
OBJECT
100
AcDbLine
 10
42.61053417691242
 20
16.17679043005202
 30
0.0
 11
42.60272354672976
 21
16.28738185286531
 31
0.0
  0
LINE
  5
2E7
330
1E
100
AcDbEntity
  8
OBJECT
100
AcDbLine
 10
42.52253417691241
 20
16.17679043005202
 30
0.0
 11
42.51472354672976
 21
16.28738185286531
 31
0.0
  0
LINE
  5
2E8
330
1E
100
AcDbEntity
  8
OBJECT
100
AcDbLine
 10
42.47072354672976
 20
16.24188185286531
 30
0.0
 11
42.48156321402803
 21
16.11082042098627
 31
0.0
  0
LINE
  5
2E9
330
1E
100
AcDbEntity
  8
OBJECT
100
AcDbLine
 10
42.55872354672976
 20
16.24188185286531
 30
0.0
 11
42.56956321402802
 21
16.11082042098627
 31
0.0
  0
LINE
  5
2EA
330
1E
100
AcDbEntity
  8
OBJECT
100
AcDbLine
 10
42.64672354672977
 20
16.24188185286531
 30
0.0
 11
42.65756321402803
 21
16.11082042098627
 31
0.0
  0
LINE
  5
2EB
330
1E
100
AcDbEntity
  8
OBJECT
100
AcDbLine
 10
42.73472354672976
 20
16.24188185286531
 30
0.0
 11
42.74556321402803
 21
16.11082042098627
 31
0.0
  0
LINE
  5
2EC
330
1E
100
AcDbEntity
  8
OBJECT
100
AcDbLine
 10
41.7998838794315
 20
15.84094328474435
 30
0.0
 11
41.81072354672976
 21
15.70988185286532
 31
0.0
  0
LINE
  5
2ED
330
1E
100
AcDbEntity
  8
OBJECT
100
AcDbLine
 10
41.7118838794315
 20
15.84094328474435
 30
0.0
 11
41.72272354672975
 21
15.70988185286532
 31
0.0
  0
LINE
  5
2EE
330
1E
100
AcDbEntity
  8
OBJECT
100
AcDbLine
 10
41.62388387943151
 20
15.84094328474435
 30
0.0
 11
41.63472354672976
 21
15.70988185286532
 31
0.0
  0
LINE
  5
2EF
330
1E
100
AcDbEntity
  8
OBJECT
100
AcDbLine
 10
41.67872354672976
 20
15.66438185286532
 30
0.0
 11
41.67091291654712
 21
15.7749732756786
 31
0.0
  0
LINE
  5
2F0
330
1E
100
AcDbEntity
  8
OBJECT
100
AcDbLine
 10
41.59072354672977
 20
15.66438185286532
 30
0.0
 11
41.58291291654713
 21
15.7749732756786
 31
0.0
  0
LINE
  5
2F1
330
1E
100
AcDbEntity
  8
OBJECT
100
AcDbLine
 10
41.76672354672977
 20
15.66438185286532
 30
0.0
 11
41.75891291654713
 21
15.7749732756786
 31
0.0
  0
LINE
  5
2F2
330
1E
100
AcDbEntity
  8
OBJECT
100
AcDbLine
 10
41.88788387943149
 20
15.84094328474435
 30
0.0
 11
41.89872354672976
 21
15.70988185286532
 31
0.0
  0
LINE
  5
2F3
330
1E
100
AcDbEntity
  8
OBJECT
100
AcDbLine
 10
41.9758838794315
 20
15.84094328474435
 30
0.0
 11
41.98672354672977
 21
15.70988185286532
 31
0.0
  0
LINE
  5
2F4
330
1E
100
AcDbEntity
  8
OBJECT
100
AcDbLine
 10
42.0638838794315
 20
15.84094328474435
 30
0.0
 11
42.07472354672976
 21
15.70988185286532
 31
0.0
  0
LINE
  5
2F5
330
1E
100
AcDbEntity
  8
OBJECT
100
AcDbLine
 10
42.15188387943149
 20
15.84094328474435
 30
0.0
 11
42.16272354672977
 21
15.70988185286532
 31
0.0
  0
LINE
  5
2F6
330
1E
100
AcDbEntity
  8
OBJECT
100
AcDbLine
 10
41.85472354672977
 20
15.66438185286532
 30
0.0
 11
41.84691291654713
 21
15.7749732756786
 31
0.0
  0
LINE
  5
2F7
330
1E
100
AcDbEntity
  8
OBJECT
100
AcDbLine
 10
42.03072354672976
 20
15.66438185286532
 30
0.0
 11
42.02291291654713
 21
15.7749732756786
 31
0.0
  0
LINE
  5
2F8
330
1E
100
AcDbEntity
  8
OBJECT
100
AcDbLine
 10
41.94272354672977
 20
15.66438185286532
 30
0.0
 11
41.93491291654714
 21
15.7749732756786
 31
0.0
  0
LINE
  5
2F9
330
1E
100
AcDbEntity
  8
OBJECT
100
AcDbLine
 10
42.11872354672977
 20
15.66438185286532
 30
0.0
 11
42.11091291654713
 21
15.7749732756786
 31
0.0
  0
LINE
  5
2FA
330
1E
100
AcDbEntity
  8
OBJECT
100
AcDbLine
 10
41.0958838794315
 20
15.84094328474435
 30
0.0
 11
41.10672354672977
 21
15.70988185286532
 31
0.0
  0
LINE
  5
2FB
330
1E
100
AcDbEntity
  8
OBJECT
100
AcDbLine
 10
41.0078838794315
 20
15.84094328474435
 30
0.0
 11
41.01872354672976
 21
15.70988185286532
 31
0.0
  0
LINE
  5
2FC
330
1E
100
AcDbEntity
  8
OBJECT
100
AcDbLine
 10
41.18388387943149
 20
15.84094328474435
 30
0.0
 11
41.19472354672977
 21
15.70988185286532
 31
0.0
  0
LINE
  5
2FD
330
1E
100
AcDbEntity
  8
OBJECT
100
AcDbLine
 10
40.97472354672976
 20
15.66438185286532
 30
0.0
 11
40.96691291654713
 21
15.7749732756786
 31
0.0
  0
LINE
  5
2FE
330
1E
100
AcDbEntity
  8
OBJECT
100
AcDbLine
 10
41.15072354672977
 20
15.66438185286532
 30
0.0
 11
41.14291291654712
 21
15.7749732756786
 31
0.0
  0
LINE
  5
2FF
330
1E
100
AcDbEntity
  8
OBJECT
100
AcDbLine
 10
41.06272354672977
 20
15.66438185286532
 30
0.0
 11
41.05491291654713
 21
15.7749732756786
 31
0.0
  0
LINE
  5
300
330
1E
100
AcDbEntity
  8
OBJECT
100
AcDbLine
 10
41.27188387943149
 20
15.84094328474435
 30
0.0
 11
41.28272354672976
 21
15.70988185286532
 31
0.0
  0
LINE
  5
301
330
1E
100
AcDbEntity
  8
OBJECT
100
AcDbLine
 10
41.35988387943149
 20
15.84094328474435
 30
0.0
 11
41.37072354672976
 21
15.70988185286532
 31
0.0
  0
LINE
  5
302
330
1E
100
AcDbEntity
  8
OBJECT
100
AcDbLine
 10
41.4478838794315
 20
15.84094328474435
 30
0.0
 11
41.45872354672976
 21
15.70988185286532
 31
0.0
  0
LINE
  5
303
330
1E
100
AcDbEntity
  8
OBJECT
100
AcDbLine
 10
41.5358838794315
 20
15.84094328474435
 30
0.0
 11
41.54672354672976
 21
15.70988185286532
 31
0.0
  0
LINE
  5
304
330
1E
100
AcDbEntity
  8
OBJECT
100
AcDbLine
 10
41.32672354672975
 20
15.66438185286532
 30
0.0
 11
41.31891291654713
 21
15.7749732756786
 31
0.0
  0
LINE
  5
305
330
1E
100
AcDbEntity
  8
OBJECT
100
AcDbLine
 10
41.23872354672976
 20
15.66438185286532
 30
0.0
 11
41.23091291654713
 21
15.7749732756786
 31
0.0
  0
LINE
  5
306
330
1E
100
AcDbEntity
  8
OBJECT
100
AcDbLine
 10
41.50272354672976
 20
15.66438185286532
 30
0.0
 11
41.49491291654713
 21
15.7749732756786
 31
0.0
  0
LINE
  5
307
330
1E
100
AcDbEntity
  8
OBJECT
100
AcDbLine
 10
41.41472354672976
 20
15.66438185286532
 30
0.0
 11
41.40691291654714
 21
15.7749732756786
 31
0.0
  0
LINE
  5
308
330
1E
100
AcDbEntity
  8
OBJECT
100
AcDbLine
 10
41.8185341769124
 20
16.17679043005202
 30
0.0
 11
41.81072354672975
 21
16.28738185286531
 31
0.0
  0
LINE
  5
309
330
1E
100
AcDbEntity
  8
OBJECT
100
AcDbLine
 10
41.73053417691241
 20
16.17679043005202
 30
0.0
 11
41.72272354672975
 21
16.28738185286531
 31
0.0
  0
LINE
  5
30A
330
1E
100
AcDbEntity
  8
OBJECT
100
AcDbLine
 10
41.64253417691241
 20
16.17679043005202
 30
0.0
 11
41.63472354672976
 21
16.28738185286531
 31
0.0
  0
LINE
  5
30B
330
1E
100
AcDbEntity
  8
OBJECT
100
AcDbLine
 10
41.59072354672977
 20
16.24188185286531
 30
0.0
 11
41.60156321402804
 21
16.11082042098627
 31
0.0
  0
LINE
  5
30C
330
1E
100
AcDbEntity
  8
OBJECT
100
AcDbLine
 10
41.67872354672976
 20
16.24188185286531
 30
0.0
 11
41.68956321402803
 21
16.11082042098627
 31
0.0
  0
LINE
  5
30D
330
1E
100
AcDbEntity
  8
OBJECT
100
AcDbLine
 10
41.76672354672976
 20
16.24188185286531
 30
0.0
 11
41.77756321402802
 21
16.11082042098627
 31
0.0
  0
LINE
  5
30E
330
1E
100
AcDbEntity
  8
OBJECT
100
AcDbLine
 10
42.1705341769124
 20
16.17679043005202
 30
0.0
 11
42.16272354672976
 21
16.28738185286531
 31
0.0
  0
LINE
  5
30F
330
1E
100
AcDbEntity
  8
OBJECT
100
AcDbLine
 10
42.08253417691241
 20
16.17679043005202
 30
0.0
 11
42.07472354672976
 21
16.28738185286531
 31
0.0
  0
LINE
  5
310
330
1E
100
AcDbEntity
  8
OBJECT
100
AcDbLine
 10
41.9945341769124
 20
16.17679043005202
 30
0.0
 11
41.98672354672975
 21
16.28738185286531
 31
0.0
  0
LINE
  5
311
330
1E
100
AcDbEntity
  8
OBJECT
100
AcDbLine
 10
41.9065341769124
 20
16.17679043005202
 30
0.0
 11
41.89872354672976
 21
16.28738185286531
 31
0.0
  0
LINE
  5
312
330
1E
100
AcDbEntity
  8
OBJECT
100
AcDbLine
 10
41.85472354672975
 20
16.24188185286531
 30
0.0
 11
41.86556321402802
 21
16.11082042098627
 31
0.0
  0
LINE
  5
313
330
1E
100
AcDbEntity
  8
OBJECT
100
AcDbLine
 10
41.94272354672976
 20
16.24188185286531
 30
0.0
 11
41.95356321402803
 21
16.11082042098627
 31
0.0
  0
LINE
  5
314
330
1E
100
AcDbEntity
  8
OBJECT
100
AcDbLine
 10
42.03072354672975
 20
16.24188185286531
 30
0.0
 11
42.04156321402802
 21
16.11082042098627
 31
0.0
  0
LINE
  5
315
330
1E
100
AcDbEntity
  8
OBJECT
100
AcDbLine
 10
42.11872354672975
 20
16.24188185286531
 30
0.0
 11
42.12956321402803
 21
16.11082042098627
 31
0.0
  0
LINE
  5
316
330
1E
100
AcDbEntity
  8
OBJECT
100
AcDbLine
 10
41.20253417691241
 20
16.17679043005202
 30
0.0
 11
41.19472354672977
 21
16.28738185286531
 31
0.0
  0
LINE
  5
317
330
1E
100
AcDbEntity
  8
OBJECT
100
AcDbLine
 10
41.1145341769124
 20
16.17679043005202
 30
0.0
 11
41.10672354672976
 21
16.28738185286531
 31
0.0
  0
LINE
  5
318
330
1E
100
AcDbEntity
  8
OBJECT
100
AcDbLine
 10
41.02653417691241
 20
16.17679043005202
 30
0.0
 11
41.01872354672976
 21
16.28738185286531
 31
0.0
  0
LINE
  5
319
330
1E
100
AcDbEntity
  8
OBJECT
100
AcDbLine
 10
40.97472354672976
 20
16.24188185286531
 30
0.0
 11
40.98556321402802
 21
16.11082042098627
 31
0.0
  0
LINE
  5
31A
330
1E
100
AcDbEntity
  8
OBJECT
100
AcDbLine
 10
41.06272354672976
 20
16.24188185286531
 30
0.0
 11
41.07356321402803
 21
16.11082042098627
 31
0.0
  0
LINE
  5
31B
330
1E
100
AcDbEntity
  8
OBJECT
100
AcDbLine
 10
41.15072354672975
 20
16.24188185286531
 30
0.0
 11
41.16156321402803
 21
16.11082042098627
 31
0.0
  0
LINE
  5
31C
330
1E
100
AcDbEntity
  8
OBJECT
100
AcDbLine
 10
41.55453417691242
 20
16.17679043005202
 30
0.0
 11
41.54672354672977
 21
16.28738185286531
 31
0.0
  0
LINE
  5
31D
330
1E
100
AcDbEntity
  8
OBJECT
100
AcDbLine
 10
41.46653417691241
 20
16.17679043005202
 30
0.0
 11
41.45872354672976
 21
16.28738185286531
 31
0.0
  0
LINE
  5
31E
330
1E
100
AcDbEntity
  8
OBJECT
100
AcDbLine
 10
41.37853417691242
 20
16.17679043005202
 30
0.0
 11
41.37072354672977
 21
16.28738185286531
 31
0.0
  0
LINE
  5
31F
330
1E
100
AcDbEntity
  8
OBJECT
100
AcDbLine
 10
41.29053417691241
 20
16.17679043005202
 30
0.0
 11
41.28272354672976
 21
16.28738185286531
 31
0.0
  0
LINE
  5
320
330
1E
100
AcDbEntity
  8
OBJECT
100
AcDbLine
 10
41.23872354672976
 20
16.24188185286531
 30
0.0
 11
41.24956321402803
 21
16.11082042098627
 31
0.0
  0
LINE
  5
321
330
1E
100
AcDbEntity
  8
OBJECT
100
AcDbLine
 10
41.32672354672975
 20
16.24188185286531
 30
0.0
 11
41.33756321402803
 21
16.11082042098627
 31
0.0
  0
LINE
  5
322
330
1E
100
AcDbEntity
  8
OBJECT
100
AcDbLine
 10
41.41472354672976
 20
16.24188185286531
 30
0.0
 11
41.42556321402803
 21
16.11082042098627
 31
0.0
  0
LINE
  5
323
330
1E
100
AcDbEntity
  8
OBJECT
100
AcDbLine
 10
41.50272354672976
 20
16.24188185286531
 30
0.0
 11
41.51356321402803
 21
16.11082042098627
 31
0.0
  0
LINE
  5
324
330
1E
100
AcDbEntity
  8
OBJECT
100
AcDbLine
 10
40.65588387943152
 20
15.84094328474435
 30
0.0
 11
40.66672354672979
 21
15.70988185286532
 31
0.0
  0
LINE
  5
325
330
1E
100
AcDbEntity
  8
OBJECT
100
AcDbLine
 10
40.71072354672979
 20
15.66438185286532
 30
0.0
 11
40.70291291654715
 21
15.7749732756786
 31
0.0
  0
LINE
  5
326
330
1E
100
AcDbEntity
  8
OBJECT
100
AcDbLine
 10
40.62272354672979
 20
15.66438185286532
 30
0.0
 11
40.61491291654716
 21
15.7749732756786
 31
0.0
  0
LINE
  5
327
330
1E
100
AcDbEntity
  8
OBJECT
100
AcDbLine
 10
40.83188387943149
 20
15.84094328474435
 30
0.0
 11
40.84272354672976
 21
15.70988185286532
 31
0.0
  0
LINE
  5
328
330
1E
100
AcDbEntity
  8
OBJECT
100
AcDbLine
 10
40.9198838794315
 20
15.84094328474435
 30
0.0
 11
40.93072354672977
 21
15.70988185286532
 31
0.0
  0
LINE
  5
329
330
1E
100
AcDbEntity
  8
OBJECT
100
AcDbLine
 10
40.7438838794315
 20
15.84094328474435
 30
0.0
 11
40.75472354672977
 21
15.70988185286532
 31
0.0
  0
LINE
  5
32A
330
1E
100
AcDbEntity
  8
OBJECT
100
AcDbLine
 10
40.79872354672977
 20
15.66438185286532
 30
0.0
 11
40.79091291654713
 21
15.7749732756786
 31
0.0
  0
LINE
  5
32B
330
1E
100
AcDbEntity
  8
OBJECT
100
AcDbLine
 10
40.88672354672977
 20
15.66438185286532
 30
0.0
 11
40.87891291654714
 21
15.7749732756786
 31
0.0
  0
LINE
  5
32C
330
1E
100
AcDbEntity
  8
OBJECT
100
AcDbLine
 10
40.21588387943152
 20
15.84094328474435
 30
0.0
 11
40.22672354672978
 21
15.70988185286532
 31
0.0
  0
LINE
  5
32D
330
1E
100
AcDbEntity
  8
OBJECT
100
AcDbLine
 10
40.27072354672979
 20
15.66438185286532
 30
0.0
 11
40.26291291654715
 21
15.7749732756786
 31
0.0
  0
LINE
  5
32E
330
1E
100
AcDbEntity
  8
OBJECT
100
AcDbLine
 10
40.30388387943153
 20
15.84094328474435
 30
0.0
 11
40.31472354672978
 21
15.70988185286532
 31
0.0
  0
LINE
  5
32F
330
1E
100
AcDbEntity
  8
OBJECT
100
AcDbLine
 10
40.39188387943152
 20
15.84094328474435
 30
0.0
 11
40.40272354672977
 21
15.70988185286532
 31
0.0
  0
LINE
  5
330
330
1E
100
AcDbEntity
  8
OBJECT
100
AcDbLine
 10
40.56788387943153
 20
15.84094328474435
 30
0.0
 11
40.57872354672978
 21
15.70988185286532
 31
0.0
  0
LINE
  5
331
330
1E
100
AcDbEntity
  8
OBJECT
100
AcDbLine
 10
40.47988387943153
 20
15.84094328474435
 30
0.0
 11
40.49072354672978
 21
15.70988185286532
 31
0.0
  0
LINE
  5
332
330
1E
100
AcDbEntity
  8
OBJECT
100
AcDbLine
 10
40.35872354672978
 20
15.66438185286532
 30
0.0
 11
40.35091291654715
 21
15.7749732756786
 31
0.0
  0
LINE
  5
333
330
1E
100
AcDbEntity
  8
OBJECT
100
AcDbLine
 10
40.53472354672979
 20
15.66438185286532
 30
0.0
 11
40.52691291654715
 21
15.7749732756786
 31
0.0
  0
LINE
  5
334
330
1E
100
AcDbEntity
  8
OBJECT
100
AcDbLine
 10
40.44672354672979
 20
15.66438185286532
 30
0.0
 11
40.43891291654715
 21
15.7749732756786
 31
0.0
  0
LINE
  5
335
330
1E
100
AcDbEntity
  8
OBJECT
100
AcDbLine
 10
40.67453417691243
 20
16.17679043005202
 30
0.0
 11
40.66672354672979
 21
16.28738185286531
 31
0.0
  0
LINE
  5
336
330
1E
100
AcDbEntity
  8
OBJECT
100
AcDbLine
 10
40.62272354672979
 20
16.24188185286531
 30
0.0
 11
40.63356321402806
 21
16.11082042098627
 31
0.0
  0
LINE
  5
337
330
1E
100
AcDbEntity
  8
OBJECT
100
AcDbLine
 10
40.9385341769124
 20
16.17679043005202
 30
0.0
 11
40.93072354672975
 21
16.28738185286531
 31
0.0
  0
LINE
  5
338
330
1E
100
AcDbEntity
  8
OBJECT
100
AcDbLine
 10
40.8505341769124
 20
16.17679043005202
 30
0.0
 11
40.84272354672976
 21
16.28738185286531
 31
0.0
  0
LINE
  5
339
330
1E
100
AcDbEntity
  8
OBJECT
100
AcDbLine
 10
40.7625341769124
 20
16.17679043005202
 30
0.0
 11
40.75472354672975
 21
16.28738185286531
 31
0.0
  0
LINE
  5
33A
330
1E
100
AcDbEntity
  8
OBJECT
100
AcDbLine
 10
40.71072354672976
 20
16.24188185286531
 30
0.0
 11
40.72156321402803
 21
16.11082042098627
 31
0.0
  0
LINE
  5
33B
330
1E
100
AcDbEntity
  8
OBJECT
100
AcDbLine
 10
40.79872354672975
 20
16.24188185286531
 30
0.0
 11
40.80956321402802
 21
16.11082042098627
 31
0.0
  0
LINE
  5
33C
330
1E
100
AcDbEntity
  8
OBJECT
100
AcDbLine
 10
40.88672354672976
 20
16.24188185286531
 30
0.0
 11
40.89756321402803
 21
16.11082042098627
 31
0.0
  0
LINE
  5
33D
330
1E
100
AcDbEntity
  8
OBJECT
100
AcDbLine
 10
40.23453417691244
 20
16.17679043005202
 30
0.0
 11
40.22672354672979
 21
16.28738185286531
 31
0.0
  0
LINE
  5
33E
330
1E
100
AcDbEntity
  8
OBJECT
100
AcDbLine
 10
40.58653417691244
 20
16.17679043005202
 30
0.0
 11
40.57872354672979
 21
16.28738185286531
 31
0.0
  0
LINE
  5
33F
330
1E
100
AcDbEntity
  8
OBJECT
100
AcDbLine
 10
40.49853417691243
 20
16.17679043005202
 30
0.0
 11
40.49072354672978
 21
16.28738185286531
 31
0.0
  0
LINE
  5
340
330
1E
100
AcDbEntity
  8
OBJECT
100
AcDbLine
 10
40.41053417691244
 20
16.17679043005202
 30
0.0
 11
40.40272354672979
 21
16.28738185286531
 31
0.0
  0
LINE
  5
341
330
1E
100
AcDbEntity
  8
OBJECT
100
AcDbLine
 10
40.32253417691243
 20
16.17679043005202
 30
0.0
 11
40.31472354672978
 21
16.28738185286531
 31
0.0
  0
LINE
  5
342
330
1E
100
AcDbEntity
  8
OBJECT
100
AcDbLine
 10
40.35872354672978
 20
16.24188185286531
 30
0.0
 11
40.36956321402805
 21
16.11082042098627
 31
0.0
  0
LINE
  5
343
330
1E
100
AcDbEntity
  8
OBJECT
100
AcDbLine
 10
40.44672354672979
 20
16.24188185286531
 30
0.0
 11
40.45756321402806
 21
16.11082042098627
 31
0.0
  0
LINE
  5
344
330
1E
100
AcDbEntity
  8
OBJECT
100
AcDbLine
 10
40.53472354672979
 20
16.24188185286531
 30
0.0
 11
40.54556321402805
 21
16.11082042098627
 31
0.0
  0
LINE
  5
345
330
1E
100
AcDbEntity
  8
OBJECT
100
AcDbLine
 10
40.27072354672979
 20
16.24188185286531
 30
0.0
 11
40.28156321402806
 21
16.11082042098627
 31
0.0
  0
LINE
  5
346
330
1E
100
AcDbEntity
  8
OBJECT
100
AcDbLine
 10
37.58772354672975
 20
15.66188185286532
 30
0.0
 11
37.58772354672974
 21
16.28988185286531
 31
0.0
  0
LINE
  5
347
330
1E
100
AcDbEntity
  8
OBJECT
100
AcDbLine
 10
37.66772354672974
 20
15.63388185286533
 30
0.0
 11
37.58772354672975
 21
15.66188185286532
 31
0.0
  0
LINE
  5
348
330
1E
100
AcDbEntity
  8
OBJECT
100
AcDbLine
 10
37.66772354672975
 20
15.57188185286529
 30
0.0
 11
37.66772354672974
 21
15.63388185286533
 31
0.0
  0
LINE
  5
349
330
1E
100
AcDbEntity
  8
OBJECT
100
AcDbLine
 10
37.66772354672974
 20
16.3178818528653
 30
0.0
 11
37.58772354672974
 21
16.28988185286531
 31
0.0
  0
LINE
  5
34A
330
1E
100
AcDbEntity
  8
OBJECT
100
AcDbLine
 10
37.66772354672974
 20
16.3178818528653
 30
0.0
 11
37.66772354672974
 21
16.50838185286531
 31
0.0
  0
DIMENSION
  5
34B
330
1E
100
AcDbEntity
  8
DIM
100
AcDbDimension
  2
*D15
 10
37.66772354672975
 20
39.54938185286529
 30
0.0
 11
40.58022354672975
 21
39.54938185286529
 31
0.0
 70
    32
  1
N
 71
     5
 42
5.825000000000002
  3
23NSTD
100
AcDbAlignedDimension
 13
43.49272354672975
 23
37.54938185286524
 33
0.0
 14
37.66772354672975
 24
37.44188185286528
 34
0.0
100
AcDbRotatedDimension
  0
DIMENSION
  5
34C
330
1E
100
AcDbEntity
  8
DIM
100
AcDbDimension
  2
*D16
 10
37.58772354672975
 20
39.54938185286529
 30
0.0
 11
32.19553604672976
 21
39.54938185286529
 31
0.0
 70
    32
  1
<>
 71
     5
 42
0.0799999999999983
  3
23NSTD
100
AcDbAlignedDimension
 13
37.66772354672975
 23
37.44188185286528
 33
0.0
 14
37.58772354672975
 24
37.34488185286528
 34
0.0
100
AcDbRotatedDimension
  0
LINE
  5
34D
330
1E
100
AcDbEntity
  8
OBJECT
100
AcDbLine
 10
43.49272354672975
 20
37.54938185286524
 30
0.0
 11
37.66772354672975
 21
37.44188185286528
 31
0.0
  0
LINE
  5
34E
330
1E
100
AcDbEntity
  8
OBJECT
100
AcDbLine
 10
44.47272354672976
 20
37.48588185286528
 30
0.0
 11
44.47272354672973
 21
36.380873253867
 31
0.0
  0
ARC
  5
34F
330
1E
100
AcDbEntity
  8
OBJECT
100
AcDbCircle
 10
44.47272354672973
 20
37.05038185286529
 30
0.0
 40
0.2300000000000111
100
AcDbArc
 50
0.0
 51
90.0
  0
ARC
  5
350
330
1E
100
AcDbEntity
  8
OBJECT
100
AcDbCircle
 10
44.47272354672973
 20
36.32679627824006
 30
0.0
 40
0.2300000000000111
100
AcDbArc
 50
0.0
 51
90.0
  0
LINE
  5
351
330
1E
100
AcDbEntity
  8
OBJECT
100
AcDbLine
 10
44.47272354672973
 20
36.55679627824006
 30
0.0
 11
43.79872354672975
 21
36.55679627824006
 31
0.0
  0
LINE
  5
352
330
1E
100
AcDbEntity
  8
OBJECT
100
AcDbLine
 10
43.49272354672975
 20
37.52238185286528
 30
0.0
 11
44.47272354672976
 21
37.48588185286528
 31
0.0
  0
LINE
  5
353
330
1E
100
AcDbEntity
  8
OBJECT
100
AcDbLine
 10
43.19972354672975
 20
36.57028274432911
 30
0.0
 11
37.66772354672974
 21
36.6419191639089
 31
0.0
  0
LINE
  5
354
330
1E
100
AcDbEntity
  8
OBJECT
100
AcDbLine
 10
43.41172354672987
 20
36.56601315733137
 30
0.0
 11
43.28072354672986
 21
36.568651439863
 31
0.0
  0
DIMENSION
  5
355
330
1E
100
AcDbEntity
  8
DIM
100
AcDbDimension
  2
*D17
 10
44.70272354672975
 20
39.54938185286529
 30
0.0
 11
48.07147354672975
 21
39.54938185286529
 31
0.0
 70
    32
  1
M
 71
     5
 42
1.209999999999993
  3
23NSTD
100
AcDbAlignedDimension
 13
43.49272354672975
 23
37.53953932786526
 33
0.0
 14
44.70272354672975
 24
37.05038185286529
 34
0.0
100
AcDbRotatedDimension
  0
DIMENSION
  5
356
330
1E
100
AcDbEntity
  8
DIM
100
AcDbDimension
  2
*D18
 10
47.08422848758981
 20
15.52788185286528
 30
0.0
 11
47.08422848758981
 21
26.50688185286528
 31
0.0
 70
    32
  1
P
 71
     5
 42
21.95799999999999
  3
23NSTD
100
AcDbAlignedDimension
 13
44.47272354672976
 23
37.48588185286528
 33
0.0
 14
44.47272354672973
 24
15.52788185286528
 34
0.0
 50
270.0
100
AcDbRotatedDimension
  0
LINE
  5
357
330
1E
100
AcDbEntity
  8
OBJECT
100
AcDbLine
 10
37.66772354672975
 20
26.16488185286522
 30
0.0
 11
37.66772354672969
 21
25.48688185286525
 31
0.0
  0
TEXT
  5
358
330
1E
100
AcDbEntity
  8
DIM
100
AcDbText
 10
18.03630951670876
 20
39.38581297029219
 30
0.0
 40
0.8742741069237384
  1
(4) PLACES
 41
0.75
 11
18.03630951670876
 21
39.82295002375407
 31
0.0
100
AcDbText
 73
     2
  0
DIMENSION
  5
359
330
1E
100
AcDbEntity
  8
DIM
100
AcDbDimension
  2
*D19
 10
3.063024368472952
 20
36.73438185286529
 30
0.0
 11
3.063024368472945
 21
26.50688185286528
 31
0.0
 70
    32
  1
U
 71
     5
 42
20.45500000000001
  3
23NSTD
100
AcDbAlignedDimension
 13
13.84602436847298
 23
16.27938185286527
 33
0.0
 14
13.84602436847298
 24
36.73438185286529
 34
0.0
 50
90.0
100
AcDbRotatedDimension
  0
DIMENSION
  5
35A
330
1E
100
AcDbEntity
  8
DIM
100
AcDbDimension
  2
*D20
 10
21.13152436847296
 20
12.45438185286533
 30
0.0
 11
14.44252436847295
 21
12.45438185286533
 31
0.0
 70
    32
  1
S
 71
     5
 42
13.37800000000001
  3
23NSTD
100
AcDbAlignedDimension
 13
7.753524368472952
 23
25.63938185286525
 33
0.0
 14
21.13152436847296
 24
25.63938185286525
 34
0.0
100
AcDbRotatedDimension
  0
TEXT
  5
35B
330
1E
100
AcDbEntity
  8
DIM
100
AcDbText
 10
18.03630951670876
 20
42.21671252851125
 30
0.0
 40
0.8742741069237384
  1
WITH M5 x 0.8mm
 41
0.75
 11
18.03630951670876
 21
42.65384958197311
 31
0.0
100
AcDbText
 73
     2
  0
TEXT
  5
35C
330
1E
100
AcDbEntity
  8
DIM
100
AcDbText
 10
18.03630951670876
 20
43.67383604005083
 30
0.0
 40
0.8742741069237384
  1
0.630 [16] DIA. BOSS
 41
0.75
 11
18.03630951670876
 21
44.11097309351269
 31
0.0
100
AcDbText
 73
     2
  0
TEXT
  5
35D
330
1E
100
AcDbEntity
  8
DIM
100
AcDbText
 10
18.03630951670876
 20
40.80126274940174
 30
0.0
 40
0.8742741069237384
  1
THREADED BRASS INSERT
 41
0.75
 11
18.03630951670876
 21
41.23839980286361
 31
0.0
100
AcDbText
 73
     2
  0
DIMENSION
  5
35E
330
1E
100
AcDbEntity
  8
DIM
100
AcDbDimension
  2
*D21
 10
90.5709979005816
 20
38.89838185286529
 30
0.0
 11
84.44499790058159
 21
38.89838185286529
 31
0.0
 70
    32
  1
D
 71
     5
 42
12.252
  3
23NSTD
100
AcDbAlignedDimension
 13
78.31899790058159
 23
36.16338185286528
 33
0.0
 14
90.5709979005816
 24
36.16338185286528
 34
0.0
 50
180.0
100
AcDbRotatedDimension
  0
LINE
  5
35F
330
1E
100
AcDbEntity
  8
OBJECT
100
AcDbLine
 10
37.87872354672975
 20
16.25842730741087
 30
0.0
 11
37.87872354672976
 21
15.68092730741088
 31
0.0
  0
LINE
  5
360
330
1E
100
AcDbEntity
  8
OBJECT
100
AcDbLine
 10
39.59988387943154
 20
15.84094328474435
 30
0.0
 11
39.6107235467298
 21
15.70988185286532
 31
0.0
  0
LINE
  5
361
330
1E
100
AcDbEntity
  8
OBJECT
100
AcDbLine
 10
39.6547235467298
 20
15.66438185286532
 30
0.0
 11
39.64691291654717
 21
15.7749732756786
 31
0.0
  0
LINE
  5
362
330
1E
100
AcDbEntity
  8
OBJECT
100
AcDbLine
 10
39.61853417691245
 20
16.17679043005202
 30
0.0
 11
39.6107235467298
 21
16.28738185286531
 31
0.0
  0
LINE
  5
363
330
1E
100
AcDbEntity
  8
OBJECT
100
AcDbLine
 10
40.05853417691242
 20
16.17679043005202
 30
0.0
 11
40.05072354672978
 21
16.28738185286531
 31
0.0
  0
LINE
  5
364
330
1E
100
AcDbEntity
  8
OBJECT
100
AcDbLine
 10
40.14653417691243
 20
16.17679043005202
 30
0.0
 11
40.13872354672979
 21
16.28738185286531
 31
0.0
  0
LINE
  5
365
330
1E
100
AcDbEntity
  8
OBJECT
100
AcDbLine
 10
39.88253417691242
 20
16.17679043005202
 30
0.0
 11
39.87472354672977
 21
16.28738185286531
 31
0.0
  0
LINE
  5
366
330
1E
100
AcDbEntity
  8
OBJECT
100
AcDbLine
 10
39.97053417691243
 20
16.17679043005202
 30
0.0
 11
39.96272354672978
 21
16.28738185286531
 31
0.0
  0
LINE
  5
367
330
1E
100
AcDbEntity
  8
OBJECT
100
AcDbLine
 10
39.70653417691242
 20
16.17679043005202
 30
0.0
 11
39.69872354672977
 21
16.28738185286531
 31
0.0
  0
LINE
  5
368
330
1E
100
AcDbEntity
  8
OBJECT
100
AcDbLine
 10
39.79453417691242
 20
16.17679043005202
 30
0.0
 11
39.78672354672978
 21
16.28738185286531
 31
0.0
  0
LINE
  5
369
330
1E
100
AcDbEntity
  8
OBJECT
100
AcDbLine
 10
40.09472354672977
 20
16.24188185286531
 30
0.0
 11
40.10556321402805
 21
16.11082042098627
 31
0.0
  0
LINE
  5
36A
330
1E
100
AcDbEntity
  8
OBJECT
100
AcDbLine
 10
39.83072354672978
 20
16.24188185286531
 30
0.0
 11
39.84156321402805
 21
16.11082042098627
 31
0.0
  0
LINE
  5
36B
330
1E
100
AcDbEntity
  8
OBJECT
100
AcDbLine
 10
40.00672354672977
 20
16.24188185286531
 30
0.0
 11
40.01756321402805
 21
16.11082042098627
 31
0.0
  0
LINE
  5
36C
330
1E
100
AcDbEntity
  8
OBJECT
100
AcDbLine
 10
39.91872354672977
 20
16.24188185286531
 30
0.0
 11
39.92956321402804
 21
16.11082042098627
 31
0.0
  0
LINE
  5
36D
330
1E
100
AcDbEntity
  8
OBJECT
100
AcDbLine
 10
39.74272354672977
 20
16.24188185286531
 30
0.0
 11
39.75356321402804
 21
16.11082042098627
 31
0.0
  0
LINE
  5
36E
330
1E
100
AcDbEntity
  8
OBJECT
100
AcDbLine
 10
39.65472354672977
 20
16.24188185286531
 30
0.0
 11
39.66556321402805
 21
16.11082042098627
 31
0.0
  0
LINE
  5
36F
330
1E
100
AcDbEntity
  8
OBJECT
100
AcDbLine
 10
40.09472354672978
 20
15.66438185286532
 30
0.0
 11
40.08691291654714
 21
15.7749732756786
 31
0.0
  0
LINE
  5
370
330
1E
100
AcDbEntity
  8
OBJECT
100
AcDbLine
 10
40.18272354672978
 20
15.66438185286532
 30
0.0
 11
40.17491291654715
 21
15.7749732756786
 31
0.0
  0
LINE
  5
371
330
1E
100
AcDbEntity
  8
OBJECT
100
AcDbLine
 10
40.12788387943151
 20
15.84094328474435
 30
0.0
 11
40.13872354672979
 21
15.70988185286532
 31
0.0
  0
LINE
  5
372
330
1E
100
AcDbEntity
  8
OBJECT
100
AcDbLine
 10
39.83072354672979
 20
15.66438185286532
 30
0.0
 11
39.82291291654716
 21
15.7749732756786
 31
0.0
  0
LINE
  5
373
330
1E
100
AcDbEntity
  8
OBJECT
100
AcDbLine
 10
39.86388387943152
 20
15.84094328474435
 30
0.0
 11
39.87472354672979
 21
15.70988185286532
 31
0.0
  0
LINE
  5
374
330
1E
100
AcDbEntity
  8
OBJECT
100
AcDbLine
 10
40.00672354672979
 20
15.66438185286532
 30
0.0
 11
39.99891291654714
 21
15.7749732756786
 31
0.0
  0
LINE
  5
375
330
1E
100
AcDbEntity
  8
OBJECT
100
AcDbLine
 10
39.91872354672978
 20
15.66438185286532
 30
0.0
 11
39.91091291654715
 21
15.7749732756786
 31
0.0
  0
LINE
  5
376
330
1E
100
AcDbEntity
  8
OBJECT
100
AcDbLine
 10
39.95188387943151
 20
15.84094328474435
 30
0.0
 11
39.96272354672978
 21
15.70988185286532
 31
0.0
  0
LINE
  5
377
330
1E
100
AcDbEntity
  8
OBJECT
100
AcDbLine
 10
40.03988387943151
 20
15.84094328474435
 30
0.0
 11
40.05072354672979
 21
15.70988185286532
 31
0.0
  0
LINE
  5
378
330
1E
100
AcDbEntity
  8
OBJECT
100
AcDbLine
 10
39.74272354672978
 20
15.66438185286532
 30
0.0
 11
39.73491291654715
 21
15.7749732756786
 31
0.0
  0
LINE
  5
379
330
1E
100
AcDbEntity
  8
OBJECT
100
AcDbLine
 10
39.68788387943151
 20
15.84094328474435
 30
0.0
 11
39.69872354672979
 21
15.70988185286532
 31
0.0
  0
LINE
  5
37A
330
1E
100
AcDbEntity
  8
OBJECT
100
AcDbLine
 10
39.77588387943151
 20
15.84094328474435
 30
0.0
 11
39.78672354672978
 21
15.70988185286532
 31
0.0
  0
LINE
  5
37B
330
1E
100
AcDbEntity
  8
OBJECT
100
AcDbLine
 10
39.15988387943153
 20
15.84094328474435
 30
0.0
 11
39.17072354672979
 21
15.70988185286532
 31
0.0
  0
LINE
  5
37C
330
1E
100
AcDbEntity
  8
OBJECT
100
AcDbLine
 10
39.2147235467298
 20
15.66438185286532
 30
0.0
 11
39.20691291654717
 21
15.7749732756786
 31
0.0
  0
LINE
  5
37D
330
1E
100
AcDbEntity
  8
OBJECT
100
AcDbLine
 10
39.42388387943155
 20
15.84094328474435
 30
0.0
 11
39.4347235467298
 21
15.70988185286532
 31
0.0
  0
LINE
  5
37E
330
1E
100
AcDbEntity
  8
OBJECT
100
AcDbLine
 10
39.24788387943154
 20
15.84094328474435
 30
0.0
 11
39.2587235467298
 21
15.70988185286532
 31
0.0
  0
LINE
  5
37F
330
1E
100
AcDbEntity
  8
OBJECT
100
AcDbLine
 10
39.33588387943154
 20
15.84094328474435
 30
0.0
 11
39.34672354672979
 21
15.70988185286532
 31
0.0
  0
LINE
  5
380
330
1E
100
AcDbEntity
  8
OBJECT
100
AcDbLine
 10
39.3027235467298
 20
15.66438185286532
 30
0.0
 11
39.29491291654716
 21
15.7749732756786
 31
0.0
  0
LINE
  5
381
330
1E
100
AcDbEntity
  8
OBJECT
100
AcDbLine
 10
39.39072354672981
 20
15.66438185286532
 30
0.0
 11
39.38291291654717
 21
15.7749732756786
 31
0.0
  0
LINE
  5
382
330
1E
100
AcDbEntity
  8
OBJECT
100
AcDbLine
 10
39.56672354672981
 20
15.66438185286532
 30
0.0
 11
39.55891291654717
 21
15.7749732756786
 31
0.0
  0
LINE
  5
383
330
1E
100
AcDbEntity
  8
OBJECT
100
AcDbLine
 10
39.51188387943154
 20
15.84094328474435
 30
0.0
 11
39.5227235467298
 21
15.70988185286532
 31
0.0
  0
LINE
  5
384
330
1E
100
AcDbEntity
  8
OBJECT
100
AcDbLine
 10
39.4787235467298
 20
15.66438185286532
 30
0.0
 11
39.47091291654717
 21
15.7749732756786
 31
0.0
  0
LINE
  5
385
330
1E
100
AcDbEntity
  8
OBJECT
100
AcDbLine
 10
39.3027235467298
 20
16.24188185286531
 30
0.0
 11
39.31356321402807
 21
16.11082042098627
 31
0.0
  0
LINE
  5
386
330
1E
100
AcDbEntity
  8
OBJECT
100
AcDbLine
 10
39.39072354672981
 20
16.24188185286531
 30
0.0
 11
39.40156321402808
 21
16.11082042098627
 31
0.0
  0
LINE
  5
387
330
1E
100
AcDbEntity
  8
OBJECT
100
AcDbLine
 10
39.56672354672981
 20
16.24188185286531
 30
0.0
 11
39.57756321402808
 21
16.11082042098627
 31
0.0
  0
LINE
  5
388
330
1E
100
AcDbEntity
  8
OBJECT
100
AcDbLine
 10
39.4787235467298
 20
16.24188185286531
 30
0.0
 11
39.48956321402807
 21
16.11082042098627
 31
0.0
  0
LINE
  5
389
330
1E
100
AcDbEntity
  8
OBJECT
100
AcDbLine
 10
39.2147235467298
 20
16.24188185286531
 30
0.0
 11
39.22556321402808
 21
16.11082042098627
 31
0.0
  0
LINE
  5
38A
330
1E
100
AcDbEntity
  8
OBJECT
100
AcDbLine
 10
39.17853417691246
 20
16.17679043005202
 30
0.0
 11
39.17072354672981
 21
16.28738185286531
 31
0.0
  0
LINE
  5
38B
330
1E
100
AcDbEntity
  8
OBJECT
100
AcDbLine
 10
39.35453417691245
 20
16.17679043005202
 30
0.0
 11
39.34672354672981
 21
16.28738185286531
 31
0.0
  0
LINE
  5
38C
330
1E
100
AcDbEntity
  8
OBJECT
100
AcDbLine
 10
39.26653417691245
 20
16.17679043005202
 30
0.0
 11
39.2587235467298
 21
16.28738185286531
 31
0.0
  0
LINE
  5
38D
330
1E
100
AcDbEntity
  8
OBJECT
100
AcDbLine
 10
39.53053417691246
 20
16.17679043005202
 30
0.0
 11
39.52272354672981
 21
16.28738185286531
 31
0.0
  0
LINE
  5
38E
330
1E
100
AcDbEntity
  8
OBJECT
100
AcDbLine
 10
39.44253417691245
 20
16.17679043005202
 30
0.0
 11
39.4347235467298
 21
16.28738185286531
 31
0.0
  0
LINE
  5
38F
330
1E
100
AcDbEntity
  8
OBJECT
100
AcDbLine
 10
40.18272354672978
 20
16.24188185286531
 30
0.0
 11
40.19356321402805
 21
16.11082042098627
 31
0.0
  0
LINE
  5
390
330
1E
100
AcDbEntity
  8
OBJECT
100
AcDbLine
 10
38.6867235467298
 20
16.24188185286531
 30
0.0
 11
38.69756321402807
 21
16.11082042098627
 31
0.0
  0
LINE
  5
391
330
1E
100
AcDbEntity
  8
OBJECT
100
AcDbLine
 10
39.12672354672981
 20
16.24188185286531
 30
0.0
 11
39.13756321402808
 21
16.11082042098627
 31
0.0
  0
LINE
  5
392
330
1E
100
AcDbEntity
  8
OBJECT
100
AcDbLine
 10
38.71988387943154
 20
15.84094328474435
 30
0.0
 11
38.73072354672981
 21
15.70988185286532
 31
0.0
  0
LINE
  5
393
330
1E
100
AcDbEntity
  8
OBJECT
100
AcDbLine
 10
38.98388387943155
 20
15.84094328474435
 30
0.0
 11
38.99472354672982
 21
15.70988185286532
 31
0.0
  0
LINE
  5
394
330
1E
100
AcDbEntity
  8
OBJECT
100
AcDbLine
 10
38.89588387943154
 20
15.84094328474435
 30
0.0
 11
38.90672354672981
 21
15.70988185286532
 31
0.0
  0
LINE
  5
395
330
1E
100
AcDbEntity
  8
OBJECT
100
AcDbLine
 10
38.86272354672982
 20
15.66438185286532
 30
0.0
 11
38.85491291654718
 21
15.7749732756786
 31
0.0
  0
LINE
  5
396
330
1E
100
AcDbEntity
  8
OBJECT
100
AcDbLine
 10
38.95072354672982
 20
15.66438185286532
 30
0.0
 11
38.94291291654718
 21
15.7749732756786
 31
0.0
  0
LINE
  5
397
330
1E
100
AcDbEntity
  8
OBJECT
100
AcDbLine
 10
38.80788387943155
 20
15.84094328474435
 30
0.0
 11
38.81872354672982
 21
15.70988185286532
 31
0.0
  0
LINE
  5
398
330
1E
100
AcDbEntity
  8
OBJECT
100
AcDbLine
 10
38.77472354672982
 20
15.66438185286532
 30
0.0
 11
38.76691291654719
 21
15.7749732756786
 31
0.0
  0
LINE
  5
399
330
1E
100
AcDbEntity
  8
OBJECT
100
AcDbLine
 10
39.07188387943154
 20
15.84094328474435
 30
0.0
 11
39.08272354672981
 21
15.70988185286532
 31
0.0
  0
LINE
  5
39A
330
1E
100
AcDbEntity
  8
OBJECT
100
AcDbLine
 10
39.12672354672981
 20
15.66438185286532
 30
0.0
 11
39.11891291654718
 21
15.7749732756786
 31
0.0
  0
LINE
  5
39B
330
1E
100
AcDbEntity
  8
OBJECT
100
AcDbLine
 10
39.03872354672982
 20
15.66438185286532
 30
0.0
 11
39.03091291654717
 21
15.7749732756786
 31
0.0
  0
LINE
  5
39C
330
1E
100
AcDbEntity
  8
OBJECT
100
AcDbLine
 10
38.8627235467298
 20
16.24188185286531
 30
0.0
 11
38.87356321402807
 21
16.11082042098627
 31
0.0
  0
LINE
  5
39D
330
1E
100
AcDbEntity
  8
OBJECT
100
AcDbLine
 10
38.95072354672981
 20
16.24188185286531
 30
0.0
 11
38.96156321402808
 21
16.11082042098627
 31
0.0
  0
LINE
  5
39E
330
1E
100
AcDbEntity
  8
OBJECT
100
AcDbLine
 10
38.77472354672981
 20
16.24188185286531
 30
0.0
 11
38.78556321402808
 21
16.11082042098627
 31
0.0
  0
LINE
  5
39F
330
1E
100
AcDbEntity
  8
OBJECT
100
AcDbLine
 10
39.0387235467298
 20
16.24188185286531
 30
0.0
 11
39.04956321402807
 21
16.11082042098627
 31
0.0
  0
LINE
  5
3A0
330
1E
100
AcDbEntity
  8
OBJECT
100
AcDbLine
 10
38.73853417691245
 20
16.17679043005202
 30
0.0
 11
38.73072354672981
 21
16.28738185286531
 31
0.0
  0
LINE
  5
3A1
330
1E
100
AcDbEntity
  8
OBJECT
100
AcDbLine
 10
38.91453417691246
 20
16.17679043005202
 30
0.0
 11
38.90672354672981
 21
16.28738185286531
 31
0.0
  0
LINE
  5
3A2
330
1E
100
AcDbEntity
  8
OBJECT
100
AcDbLine
 10
38.82653417691245
 20
16.17679043005202
 30
0.0
 11
38.8187235467298
 21
16.28738185286531
 31
0.0
  0
LINE
  5
3A3
330
1E
100
AcDbEntity
  8
OBJECT
100
AcDbLine
 10
39.09053417691246
 20
16.17679043005202
 30
0.0
 11
39.08272354672981
 21
16.28738185286531
 31
0.0
  0
LINE
  5
3A4
330
1E
100
AcDbEntity
  8
OBJECT
100
AcDbLine
 10
39.00253417691245
 20
16.17679043005202
 30
0.0
 11
38.99472354672981
 21
16.28738185286531
 31
0.0
  0
LINE
  5
3A5
330
1E
100
AcDbEntity
  8
OBJECT
100
AcDbLine
 10
38.38653417691248
 20
16.17679043005202
 30
0.0
 11
38.37872354672983
 21
16.28738185286531
 31
0.0
  0
LINE
  5
3A6
330
1E
100
AcDbEntity
  8
OBJECT
100
AcDbLine
 10
38.47453417691249
 20
16.17679043005202
 30
0.0
 11
38.46672354672984
 21
16.28738185286531
 31
0.0
  0
LINE
  5
3A7
330
1E
100
AcDbEntity
  8
OBJECT
100
AcDbLine
 10
38.21053417691248
 20
16.17679043005202
 30
0.0
 11
38.20272354672983
 21
16.28738185286531
 31
0.0
  0
LINE
  5
3A8
330
1E
100
AcDbEntity
  8
OBJECT
100
AcDbLine
 10
38.29853417691249
 20
16.17679043005202
 30
0.0
 11
38.29072354672984
 21
16.28738185286531
 31
0.0
  0
LINE
  5
3A9
330
1E
100
AcDbEntity
  8
OBJECT
100
AcDbLine
 10
38.12253417691248
 20
16.17679043005202
 30
0.0
 11
38.11472354672984
 21
16.28738185286531
 31
0.0
  0
LINE
  5
3AA
330
1E
100
AcDbEntity
  8
OBJECT
100
AcDbLine
 10
38.15872354672984
 20
16.24188185286531
 30
0.0
 11
38.16956321402811
 21
16.11082042098627
 31
0.0
  0
LINE
  5
3AB
330
1E
100
AcDbEntity
  8
OBJECT
100
AcDbLine
 10
38.42272354672983
 20
16.24188185286531
 30
0.0
 11
38.4335632140281
 21
16.11082042098627
 31
0.0
  0
LINE
  5
3AC
330
1E
100
AcDbEntity
  8
OBJECT
100
AcDbLine
 10
38.51072354672984
 20
16.24188185286531
 30
0.0
 11
38.52156321402811
 21
16.11082042098627
 31
0.0
  0
LINE
  5
3AD
330
1E
100
AcDbEntity
  8
OBJECT
100
AcDbLine
 10
38.33472354672984
 20
16.24188185286531
 30
0.0
 11
38.34556321402811
 21
16.11082042098627
 31
0.0
  0
LINE
  5
3AE
330
1E
100
AcDbEntity
  8
OBJECT
100
AcDbLine
 10
38.24672354672983
 20
16.24188185286531
 30
0.0
 11
38.2575632140281
 21
16.11082042098627
 31
0.0
  0
LINE
  5
3AF
330
1E
100
AcDbEntity
  8
OBJECT
100
AcDbLine
 10
38.42272354672983
 20
15.66438185286532
 30
0.0
 11
38.4149129165472
 21
15.7749732756786
 31
0.0
  0
LINE
  5
3B0
330
1E
100
AcDbEntity
  8
OBJECT
100
AcDbLine
 10
38.45588387943157
 20
15.84094328474435
 30
0.0
 11
38.46672354672983
 21
15.70988185286532
 31
0.0
  0
LINE
  5
3B1
330
1E
100
AcDbEntity
  8
OBJECT
100
AcDbLine
 10
38.51072354672984
 20
15.66438185286532
 30
0.0
 11
38.50291291654721
 21
15.7749732756786
 31
0.0
  0
LINE
  5
3B2
330
1E
100
AcDbEntity
  8
OBJECT
100
AcDbLine
 10
38.33472354672984
 20
15.66438185286532
 30
0.0
 11
38.3269129165472
 21
15.7749732756786
 31
0.0
  0
LINE
  5
3B3
330
1E
100
AcDbEntity
  8
OBJECT
100
AcDbLine
 10
38.24672354672983
 20
15.66438185286532
 30
0.0
 11
38.23891291654719
 21
15.7749732756786
 31
0.0
  0
LINE
  5
3B4
330
1E
100
AcDbEntity
  8
OBJECT
100
AcDbLine
 10
38.27988387943157
 20
15.84094328474435
 30
0.0
 11
38.29072354672982
 21
15.70988185286532
 31
0.0
  0
LINE
  5
3B5
330
1E
100
AcDbEntity
  8
OBJECT
100
AcDbLine
 10
38.19188387943158
 20
15.84094328474435
 30
0.0
 11
38.20272354672983
 21
15.70988185286532
 31
0.0
  0
LINE
  5
3B6
330
1E
100
AcDbEntity
  8
OBJECT
100
AcDbLine
 10
38.36788387943158
 20
15.84094328474435
 30
0.0
 11
38.37872354672983
 21
15.70988185286532
 31
0.0
  0
LINE
  5
3B7
330
1E
100
AcDbEntity
  8
OBJECT
100
AcDbLine
 10
38.15872354672984
 20
15.66438185286532
 30
0.0
 11
38.1509129165472
 21
15.7749732756786
 31
0.0
  0
LINE
  5
3B8
330
1E
100
AcDbEntity
  8
OBJECT
100
AcDbLine
 10
38.10388387943157
 20
15.84094328474435
 30
0.0
 11
38.11472354672982
 21
15.70988185286532
 31
0.0
  0
LINE
  5
3B9
330
1E
100
AcDbEntity
  8
OBJECT
100
AcDbLine
 10
38.63188387943154
 20
15.84094328474435
 30
0.0
 11
38.64272354672982
 21
15.70988185286532
 31
0.0
  0
LINE
  5
3BA
330
1E
100
AcDbEntity
  8
OBJECT
100
AcDbLine
 10
38.68672354672981
 20
15.66438185286532
 30
0.0
 11
38.67891291654718
 21
15.7749732756786
 31
0.0
  0
LINE
  5
3BB
330
1E
100
AcDbEntity
  8
OBJECT
100
AcDbLine
 10
38.5987235467298
 20
16.24188185286531
 30
0.0
 11
38.60956321402808
 21
16.11082042098627
 31
0.0
  0
LINE
  5
3BC
330
1E
100
AcDbEntity
  8
OBJECT
100
AcDbLine
 10
38.65053417691245
 20
16.17679043005202
 30
0.0
 11
38.6427235467298
 21
16.28738185286531
 31
0.0
  0
LINE
  5
3BD
330
1E
100
AcDbEntity
  8
OBJECT
100
AcDbLine
 10
38.56253417691248
 20
16.17679043005202
 30
0.0
 11
38.55472354672984
 21
16.28738185286531
 31
0.0
  0
LINE
  5
3BE
330
1E
100
AcDbEntity
  8
OBJECT
100
AcDbLine
 10
38.59872354672983
 20
15.66438185286532
 30
0.0
 11
38.5909129165472
 21
15.7749732756786
 31
0.0
  0
LINE
  5
3BF
330
1E
100
AcDbEntity
  8
OBJECT
100
AcDbLine
 10
38.54388387943156
 20
15.84094328474435
 30
0.0
 11
38.55472354672984
 21
15.70988185286532
 31
0.0
  0
LINE
  5
3C0
330
1E
100
AcDbEntity
  8
OBJECT
100
AcDbLine
 10
37.89472354672984
 20
15.66438185286532
 30
0.0
 11
37.88691291654721
 21
15.7749732756786
 31
0.0
  0
LINE
  5
3C1
330
1E
100
AcDbEntity
  8
OBJECT
100
AcDbLine
 10
37.92788387943158
 20
15.84094328474435
 30
0.0
 11
37.93872354672984
 21
15.70988185286532
 31
0.0
  0
LINE
  5
3C2
330
1E
100
AcDbEntity
  8
OBJECT
100
AcDbLine
 10
38.01588387943157
 20
15.84094328474435
 30
0.0
 11
38.02672354672983
 21
15.70988185286532
 31
0.0
  0
LINE
  5
3C3
330
1E
100
AcDbEntity
  8
OBJECT
100
AcDbLine
 10
37.98272354672983
 20
15.66438185286532
 30
0.0
 11
37.9749129165472
 21
15.7749732756786
 31
0.0
  0
LINE
  5
3C4
330
1E
100
AcDbEntity
  8
OBJECT
100
AcDbLine
 10
38.07072354672984
 20
15.66438185286532
 30
0.0
 11
38.06291291654721
 21
15.7749732756786
 31
0.0
  0
LINE
  5
3C5
330
1E
100
AcDbEntity
  8
OBJECT
100
AcDbLine
 10
37.98272354672983
 20
16.24188185286531
 30
0.0
 11
37.9935632140281
 21
16.11082042098627
 31
0.0
  0
LINE
  5
3C6
330
1E
100
AcDbEntity
  8
OBJECT
100
AcDbLine
 10
37.89472354672984
 20
16.24188185286531
 30
0.0
 11
37.90556321402811
 21
16.11082042098627
 31
0.0
  0
LINE
  5
3C7
330
1E
100
AcDbEntity
  8
OBJECT
100
AcDbLine
 10
38.03453417691249
 20
16.17679043005202
 30
0.0
 11
38.02672354672985
 21
16.28738185286531
 31
0.0
  0
LINE
  5
3C8
330
1E
100
AcDbEntity
  8
OBJECT
100
AcDbLine
 10
37.94653417691248
 20
16.17679043005202
 30
0.0
 11
37.93872354672984
 21
16.28738185286531
 31
0.0
  0
LINE
  5
3C9
330
1E
100
AcDbEntity
  8
OBJECT
100
AcDbLine
 10
38.07072354672984
 20
16.24188185286531
 30
0.0
 11
38.08156321402811
 21
16.11082042098627
 31
0.0
  0
LINE
  5
3CA
330
1E
100
AcDbEntity
  8
OBJECT
100
AcDbLine
 10
77.35999790058158
 20
27.28813185286529
 30
0.0
 11
77.49111295825187
 21
27.28813185286529
 31
0.0
  0
LINE
  5
3CB
330
1E
100
AcDbEntity
  8
OBJECT
100
AcDbLine
 10
77.35999790058158
 20
25.72563185286526
 30
0.0
 11
84.3199979005816
 21
25.72563185286529
 31
0.0
  0
LINE
  5
3CC
330
1E
100
AcDbEntity
  8
OBJECT
100
AcDbLine
 10
84.3199979005816
 20
27.28813185286529
 30
0.0
 11
84.3199979005816
 21
31.1688105295047
 31
0.0
  0
LINE
  5
3CD
330
1E
100
AcDbEntity
  8
OBJECT
100
AcDbLine
 10
84.5699979005816
 20
25.72563185286529
 30
0.0
 11
91.52999790058158
 21
25.72563185286529
 31
0.0
  0
LINE
  5
3CE
330
1E
100
AcDbEntity
  8
OBJECT
100
AcDbLine
 10
84.5699979005816
 20
27.28813185286529
 30
0.0
 11
90.86611295825187
 21
27.28813185286529
 31
0.0
  0
LINE
  5
3CF
330
1E
100
AcDbEntity
  8
OBJECT
100
AcDbLine
 10
84.3199979005816
 20
31.51895317622587
 30
0.0
 11
78.59508321519285
 21
36.11672460202672
 31
0.0
  0
LINE
  5
3D0
330
1E
100
AcDbEntity
  8
OBJECT
100
AcDbLine
 10
84.3199979005816
 20
31.1688105295047
 30
0.0
 11
78.42413733384055
 21
35.90387135293552
 31
0.0
  0
LINE
  5
3D1
330
1E
100
AcDbEntity
  8
OBJECT
100
AcDbLine
 10
84.3199979005816
 20
31.51895317622588
 30
0.0
 11
84.3199979005816
 21
37.13688185286528
 31
0.0
  0
LINE
  5
3D2
330
1E
100
AcDbEntity
  8
OBJECT
100
AcDbLine
 10
84.5699979005816
 20
27.28813185286529
 30
0.0
 11
84.5699979005816
 21
31.1688105295047
 31
0.0
  0
LINE
  5
3D3
330
1E
100
AcDbEntity
  8
OBJECT
100
AcDbLine
 10
84.5699979005816
 20
31.51895317622588
 30
0.0
 11
84.5699979005816
 21
37.13688185286528
 31
0.0
  0
LINE
  5
3D4
330
1E
100
AcDbEntity
  8
OBJECT
100
AcDbLine
 10
84.5699979005816
 20
31.1688105295047
 30
0.0
 11
90.46585846732261
 21
35.90387135293552
 31
0.0
  0
LINE
  5
3D5
330
1E
100
AcDbEntity
  8
OBJECT
100
AcDbLine
 10
84.5699979005816
 20
31.51895317622587
 30
0.0
 11
90.29491258597033
 21
36.11672460202672
 31
0.0
  0
CIRCLE
  5
3D6
330
1E
100
AcDbEntity
  8
OBJECT
100
AcDbCircle
 10
90.5709979005816
 20
36.16338185286528
 30
0.0
 40
0.28
  0
CIRCLE
  5
3D7
330
1E
100
AcDbEntity
  8
OBJECT
100
AcDbCircle
 10
90.5709979005816
 20
36.16338185286528
 30
0.0
 40
0.0825
  0
CIRCLE
  5
3D8
330
1E
100
AcDbEntity
  8
HIDDEN
100
AcDbCircle
 10
90.5709979005816
 20
36.16338185286528
 30
0.0
 40
0.095
  0
LINE
  5
3D9
330
1E
100
AcDbEntity
  8
OBJECT
100
AcDbLine
 10
84.3199979005816
 20
25.72563185286529
 30
0.0
 11
84.3199979005816
 21
21.84495317622586
 31
0.0
  0
LINE
  5
3DA
330
1E
100
AcDbEntity
  8
OBJECT
100
AcDbLine
 10
84.5699979005816
 20
25.72563185286529
 30
0.0
 11
84.5699979005816
 21
21.84495317622586
 31
0.0
  0
CIRCLE
  5
3DB
330
1E
100
AcDbEntity
  8
OBJECT
100
AcDbCircle
 10
78.31899790058159
 20
25.1448818528653
 30
0.0
 40
0.28
  0
CIRCLE
  5
3DC
330
1E
100
AcDbEntity
  8
HIDDEN
100
AcDbCircle
 10
78.31899790058159
 20
25.1448818528653
 30
0.0
 40
0.095
  0
CIRCLE
  5
3DD
330
1E
100
AcDbEntity
  8
OBJECT
100
AcDbCircle
 10
78.31899790058159
 20
25.1448818528653
 30
0.0
 40
0.0825
  0
CIRCLE
  5
3DE
330
1E
100
AcDbEntity
  8
OBJECT
100
AcDbCircle
 10
90.5709979005816
 20
25.1448818528653
 30
0.0
 40
0.28
  0
CIRCLE
  5
3DF
330
1E
100
AcDbEntity
  8
OBJECT
100
AcDbCircle
 10
90.5709979005816
 20
25.1448818528653
 30
0.0
 40
0.0825
  0
CIRCLE
  5
3E0
330
1E
100
AcDbEntity
  8
HIDDEN
100
AcDbCircle
 10
90.5709979005816
 20
25.1448818528653
 30
0.0
 40
0.095
  0
CIRCLE
  5
3E1
330
1E
100
AcDbEntity
  8
OBJECT
100
AcDbCircle
 10
78.31899790058159
 20
27.86888185286529
 30
0.0
 40
0.28
  0
CIRCLE
  5
3E2
330
1E
100
AcDbEntity
  8
OBJECT
100
AcDbCircle
 10
78.31899790058159
 20
27.86888185286529
 30
0.0
 40
0.0825
  0
CIRCLE
  5
3E3
330
1E
100
AcDbEntity
  8
HIDDEN
100
AcDbCircle
 10
78.31899790058159
 20
27.86888185286529
 30
0.0
 40
0.095
  0
CIRCLE
  5
3E4
330
1E
100
AcDbEntity
  8
HIDDEN
100
AcDbCircle
 10
90.5709979005816
 20
27.86888185286529
 30
0.0
 40
0.095
  0
CIRCLE
  5
3E5
330
1E
100
AcDbEntity
  8
OBJECT
100
AcDbCircle
 10
90.5709979005816
 20
27.86888185286529
 30
0.0
 40
0.0825
  0
CIRCLE
  5
3E6
330
1E
100
AcDbEntity
  8
OBJECT
100
AcDbCircle
 10
90.5709979005816
 20
27.86888185286529
 30
0.0
 40
0.28
  0
CIRCLE
  5
3E7
330
1E
100
AcDbEntity
  8
HIDDEN
100
AcDbCircle
 10
91.43699790058159
 20
37.03788185286526
 30
0.0
 40
0.3115
  0
CIRCLE
  5
3E8
330
1E
100
AcDbEntity
  8
OBJECT
100
AcDbCircle
 10
91.43699790058159
 20
37.03788185286526
 30
0.0
 40
0.266
  0
LINE
  5
3E9
330
1E
100
AcDbEntity
  8
OBJECT
100
AcDbLine
 10
84.3199979005816
 20
21.49481052950466
 30
0.0
 11
84.3199979005816
 21
15.87688185286527
 31
0.0
  0
LINE
  5
3EA
330
1E
100
AcDbEntity
  8
OBJECT
100
AcDbLine
 10
84.3199979005816
 20
21.84495317622586
 30
0.0
 11
78.42413733384055
 21
17.10989235279504
 31
0.0
  0
LINE
  5
3EB
330
1E
100
AcDbEntity
  8
OBJECT
100
AcDbLine
 10
84.3199979005816
 20
21.49481052950469
 30
0.0
 11
78.59508321519285
 21
16.89703910370383
 31
0.0
  0
CIRCLE
  5
3EC
330
1E
100
AcDbEntity
  8
HIDDEN
100
AcDbCircle
 10
77.45299790058158
 20
15.97588185286529
 30
0.0
 40
0.3115
  0
CIRCLE
  5
3ED
330
1E
100
AcDbEntity
  8
OBJECT
100
AcDbCircle
 10
77.45299790058158
 20
15.97588185286529
 30
0.0
 40
0.266
  0
CIRCLE
  5
3EE
330
1E
100
AcDbEntity
  8
OBJECT
100
AcDbCircle
 10
78.31899790058159
 20
16.85038185286527
 30
0.0
 40
0.28
  0
CIRCLE
  5
3EF
330
1E
100
AcDbEntity
  8
OBJECT
100
AcDbCircle
 10
78.31899790058159
 20
16.85038185286527
 30
0.0
 40
0.0825
  0
CIRCLE
  5
3F0
330
1E
100
AcDbEntity
  8
HIDDEN
100
AcDbCircle
 10
78.31899790058159
 20
16.85038185286527
 30
0.0
 40
0.095
  0
LINE
  5
3F1
330
1E
100
AcDbEntity
  8
OBJECT
100
AcDbLine
 10
84.5699979005816
 20
21.49481052950466
 30
0.0
 11
84.5699979005816
 21
15.87688185286527
 31
0.0
  0
LINE
  5
3F2
330
1E
100
AcDbEntity
  8
OBJECT
100
AcDbLine
 10
84.5699979005816
 20
21.49481052950469
 30
0.0
 11
90.29491258597033
 21
16.89703910370383
 31
0.0
  0
LINE
  5
3F3
330
1E
100
AcDbEntity
  8
OBJECT
100
AcDbLine
 10
84.5699979005816
 20
21.84495317622586
 30
0.0
 11
90.46585846732261
 21
17.10989235279504
 31
0.0
  0
CIRCLE
  5
3F4
330
1E
100
AcDbEntity
  8
HIDDEN
100
AcDbCircle
 10
90.5709979005816
 20
16.85038185286527
 30
0.0
 40
0.095
  0
CIRCLE
  5
3F5
330
1E
100
AcDbEntity
  8
OBJECT
100
AcDbCircle
 10
90.5709979005816
 20
16.85038185286527
 30
0.0
 40
0.0825
  0
CIRCLE
  5
3F6
330
1E
100
AcDbEntity
  8
OBJECT
100
AcDbCircle
 10
90.5709979005816
 20
16.85038185286527
 30
0.0
 40
0.28
  0
CIRCLE
  5
3F7
330
1E
100
AcDbEntity
  8
OBJECT
100
AcDbCircle
 10
91.43699790058159
 20
15.97588185286529
 30
0.0
 40
0.266
  0
CIRCLE
  5
3F8
330
1E
100
AcDbEntity
  8
HIDDEN
100
AcDbCircle
 10
91.43699790058159
 20
15.97588185286529
 30
0.0
 40
0.3115
  0
CIRCLE
  5
3F9
330
1E
100
AcDbEntity
  8
HIDDEN
100
AcDbCircle
 10
77.45299790058158
 20
26.50688185286529
 30
0.0
 40
0.3115
  0
CIRCLE
  5
3FA
330
1E
100
AcDbEntity
  8
OBJECT
100
AcDbCircle
 10
77.45299790058158
 20
26.50688185286529
 30
0.0
 40
0.266
  0
CIRCLE
  5
3FB
330
1E
100
AcDbEntity
  8
OBJECT
100
AcDbCircle
 10
91.43699790058159
 20
26.50688185286529
 30
0.0
 40
0.266
  0
CIRCLE
  5
3FC
330
1E
100
AcDbEntity
  8
HIDDEN
100
AcDbCircle
 10
91.43699790058159
 20
26.50688185286529
 30
0.0
 40
0.3115
  0
DIMENSION
  5
3FD
330
1E
100
AcDbEntity
  8
DIM
100
AcDbDimension
  2
*D24
 10
74.95749790058159
 20
27.86888185286529
 30
0.0
 11
74.95749790058159
 21
26.50688185286531
 31
0.0
 70
    32
  1
J
 71
     5
 42
2.723999999999989
  3
23NSTDI
100
AcDbAlignedDimension
 13
78.31899790058159
 23
25.1448818528653
 33
0.0
 14
78.31899790058159
 24
27.86888185286529
 34
0.0
 50
270.0
100
AcDbRotatedDimension
  0
CIRCLE
  5
3FE
330
1E
100
AcDbEntity
  8
OBJECT
100
AcDbCircle
 10
77.7574979005816
 20
27.3743818528653
 30
0.0
 40
0.28
  0
CIRCLE
  5
3FF
330
1E
100
AcDbEntity
  8
OBJECT
100
AcDbCircle
 10
85.04249790058159
 20
36.73438185286529
 30
0.0
 40
0.28
  0
CIRCLE
  5
400
330
1E
100
AcDbEntity
  8
OBJECT
100
AcDbCircle
 10
91.1324979005816
 20
27.3743818528653
 30
0.0
 40
0.28
  0
CIRCLE
  5
401
330
1E
100
AcDbEntity
  8
OBJECT
100
AcDbCircle
 10
85.04249790058159
 20
16.27938185286527
 30
0.0
 40
0.28
  0
LINE
  5
402
330
1E
100
AcDbEntity
  8
OBJECT
100
AcDbLine
 10
78.02388284291129
 20
27.28813185286529
 30
0.0
 11
84.3199979005816
 21
27.28813185286529
 31
0.0
  0
LINE
  5
403
330
1E
100
AcDbEntity
  8
OBJECT
100
AcDbLine
 10
91.3988828429113
 20
27.28813185286529
 30
0.0
 11
91.52999790058158
 21
27.28813185286529
 31
0.0
  0
CIRCLE
  5
404
330
1E
100
AcDbEntity
  8
OBJECT
100
AcDbCircle
 10
20.56852436847298
 20
36.16338185286528
 30
0.0
 40
0.314
  0
CIRCLE
  5
405
330
1E
100
AcDbEntity
  8
OBJECT
100
AcDbCircle
 10
8.316524368472968
 20
25.1448818528653
 30
0.0
 40
0.314
  0
CIRCLE
  5
406
330
1E
100
AcDbEntity
  8
OBJECT
100
AcDbCircle
 10
7.753524368472952
 20
27.3743818528653
 30
0.0
 40
0.28
  0
ARC
  5
407
330
1E
100
AcDbEntity
  8
OBJECT
100
AcDbCircle
 10
8.316524368472968
 20
27.86888185286529
 30
0.0
 40
0.314
100
AcDbArc
 50
270.5218716359502
 51
179.478128364047
  0
CIRCLE
  5
408
330
1E
100
AcDbEntity
  8
OBJECT
100
AcDbCircle
 10
7.753524368472952
 20
27.3743818528653
 30
0.0
 40
0.0825
  0
CIRCLE
  5
409
330
1E
100
AcDbEntity
  8
HIDDEN
100
AcDbCircle
 10
7.753524368472952
 20
27.3743818528653
 30
0.0
 40
0.095
  0
CIRCLE
  5
40A
330
1E
100
AcDbEntity
  8
OBJECT
100
AcDbCircle
 10
13.84602436847298
 20
36.73438185286529
 30
0.0
 40
0.28
  0
CIRCLE
  5
40B
330
1E
100
AcDbEntity
  8
HIDDEN
100
AcDbCircle
 10
13.84602436847298
 20
36.73438185286529
 30
0.0
 40
0.095
  0
CIRCLE
  5
40C
330
1E
100
AcDbEntity
  8
OBJECT
100
AcDbCircle
 10
13.84602436847298
 20
36.73438185286529
 30
0.0
 40
0.0825
  0
CIRCLE
  5
40D
330
1E
100
AcDbEntity
  8
OBJECT
100
AcDbCircle
 10
8.316524368472968
 20
36.16338185286528
 30
0.0
 40
0.314
  0
LINE
  5
40E
330
1E
100
AcDbEntity
  8
OBJECT
100
AcDbLine
 10
20.91917147821715
 20
27.1918818528653
 30
0.0
 11
14.54652436847297
 21
27.1918818528653
 31
0.0
  0
LINE
  5
40F
330
1E
100
AcDbEntity
  8
OBJECT
100
AcDbLine
 10
21.27652436847296
 20
25.82188185286529
 30
0.0
 11
14.54652436847297
 21
25.82188185286529
 31
0.0
  0
LINE
  5
410
330
1E
100
AcDbEntity
  8
OBJECT
100
AcDbLine
 10
21.27652436847296
 20
26.10063185286529
 30
0.0
 11
14.54652436847297
 21
26.10063185286529
 31
0.0
  0
LINE
  5
411
330
1E
100
AcDbEntity
  8
OBJECT
100
AcDbLine
 10
21.27652436847297
 20
26.91313185286529
 30
0.0
 11
14.54652436847297
 21
26.91313185286529
 31
0.0
  0
LINE
  5
412
330
1E
100
AcDbEntity
  8
OBJECT
100
AcDbLine
 10
21.15322837223416
 20
26.82813185286528
 30
0.0
 11
14.54652436847297
 21
26.82813185286528
 31
0.0
  0
LINE
  5
413
330
1E
100
AcDbEntity
  8
OBJECT
100
AcDbLine
 10
21.15322837223415
 20
26.1856318528653
 30
0.0
 11
14.54652436847297
 21
26.18563185286527
 31
0.0
  0
LINE
  5
414
330
1E
100
AcDbEntity
  8
OBJECT
100
AcDbLine
 10
21.00964467961979
 20
26.46438185286527
 30
0.0
 11
14.54652436847297
 21
26.46438185286527
 31
0.0
  0
LINE
  5
415
330
1E
100
AcDbEntity
  8
OBJECT
100
AcDbLine
 10
21.00964467961979
 20
26.54938185286528
 30
0.0
 11
14.54652436847297
 21
26.54938185286528
 31
0.0
  0
LINE
  5
416
330
1E
100
AcDbEntity
  8
OBJECT
100
AcDbLine
 10
14.33852436847297
 20
22.51302570482397
 30
0.0
 11
14.33852436847297
 21
30.5007380009066
 31
0.0
  0
LINE
  5
417
330
1E
100
AcDbEntity
  8
OBJECT
100
AcDbLine
 10
14.54652436847297
 20
22.51302570482397
 30
0.0
 11
14.54652436847297
 21
30.5007380009066
 31
0.0
  0
LINE
  5
418
330
1E
100
AcDbEntity
  8
OBJECT
100
AcDbLine
 10
14.33852436847297
 20
25.82188185286529
 30
0.0
 11
7.60852436847297
 21
25.82188185286529
 31
0.0
  0
LINE
  5
419
330
1E
100
AcDbEntity
  8
OBJECT
100
AcDbLine
 10
14.33852436847297
 20
26.10063185286529
 30
0.0
 11
7.60852436847297
 21
26.10063185286529
 31
0.0
  0
LINE
  5
41A
330
1E
100
AcDbEntity
  8
OBJECT
100
AcDbLine
 10
14.33852436847297
 20
26.18563185286527
 30
0.0
 11
7.731820364711794
 21
26.1856318528653
 31
0.0
  0
LINE
  5
41B
330
1E
100
AcDbEntity
  8
OBJECT
100
AcDbLine
 10
14.33852436847297
 20
26.46438185286527
 30
0.0
 11
7.875404057326164
 21
26.46438185286527
 31
0.0
  0
LINE
  5
41C
330
1E
100
AcDbEntity
  8
OBJECT
100
AcDbLine
 10
14.33852436847297
 20
26.54938185286528
 30
0.0
 11
7.875404057326164
 21
26.54938185286531
 31
0.0
  0
LINE
  5
41D
330
1E
100
AcDbEntity
  8
OBJECT
100
AcDbLine
 10
14.33852436847297
 20
26.82813185286528
 30
0.0
 11
7.731820364711794
 21
26.82813185286528
 31
0.0
  0
LINE
  5
41E
330
1E
100
AcDbEntity
  8
OBJECT
100
AcDbLine
 10
14.33852436847297
 20
26.91313185286529
 30
0.0
 11
7.60852436847297
 21
26.91313185286529
 31
0.0
  0
LINE
  5
41F
330
1E
100
AcDbEntity
  8
OBJECT
100
AcDbLine
 10
14.33852436847297
 20
27.1918818528653
 30
0.0
 11
7.965877258728767
 21
27.1918818528653
 31
0.0
  0
LINE
  5
420
330
1E
100
AcDbEntity
  8
OBJECT
100
AcDbLine
 10
8.319384359720828
 20
27.55489487789538
 30
0.0
 11
8.002537393504155
 21
27.87174184411205
 31
0.0
  0
CIRCLE
  5
421
330
1E
100
AcDbEntity
  8
OBJECT
100
AcDbCircle
 10
7.450524368472969
 20
26.50688185286529
 30
0.0
 40
0.129
  0
CIRCLE
  5
422
330
1E
100
AcDbEntity
  8
OBJECT
100
AcDbCircle
 10
20.56852436847298
 20
25.1448818528653
 30
0.0
 40
0.314
  0
CIRCLE
  5
423
330
1E
100
AcDbEntity
  8
OBJECT
100
AcDbCircle
 10
21.13152436847296
 20
27.3743818528653
 30
0.0
 40
0.28
  0
CIRCLE
  5
424
330
1E
100
AcDbEntity
  8
OBJECT
100
AcDbCircle
 10
21.43452436847297
 20
26.50688185286529
 30
0.0
 40
0.129
  0
ARC
  5
425
330
1E
100
AcDbEntity
  8
OBJECT
100
AcDbCircle
 10
20.56852436847298
 20
27.86888185286529
 30
0.0
 40
0.314
100
AcDbArc
 50
0.5218716359529131
 51
269.4781283640497
  0
LINE
  5
426
330
1E
100
AcDbEntity
  8
OBJECT
100
AcDbLine
 10
20.56566437722512
 20
27.55489487789538
 30
0.0
 11
20.88251134344179
 21
27.87174184411205
 31
0.0
  0
CIRCLE
  5
427
330
1E
100
AcDbEntity
  8
OBJECT
100
AcDbCircle
 10
21.13152436847296
 20
27.3743818528653
 30
0.0
 40
0.0825
  0
CIRCLE
  5
428
330
1E
100
AcDbEntity
  8
HIDDEN
100
AcDbCircle
 10
21.13152436847296
 20
27.3743818528653
 30
0.0
 40
0.095
  0
LINE
  5
429
330
1E
100
AcDbEntity
  8
OBJECT
100
AcDbLine
 10
7.60852436847297
 20
25.82188185286529
 30
0.0
 11
7.60852436847297
 21
26.10063185286529
 31
0.0
  0
LINE
  5
42A
330
1E
100
AcDbEntity
  8
OBJECT
100
AcDbLine
 10
21.27652436847296
 20
25.82188185286529
 30
0.0
 11
21.27652436847296
 21
26.10063185286529
 31
0.0
  0
LINE
  5
42B
330
1E
100
AcDbEntity
  8
OBJECT
100
AcDbLine
 10
7.60852436847297
 20
26.91313185286529
 30
0.0
 11
7.60852436847297
 21
27.1357655290314
 31
0.0
  0
ARC
  5
42C
330
1E
100
AcDbEntity
  8
OBJECT
100
AcDbCircle
 10
21.43452436847299
 20
26.50688185286529
 30
0.0
 40
0.4269999999999925
100
AcDbArc
 50
131.2063484689428
 51
174.2878005133896
  0
LINE
  5
42D
330
1E
100
AcDbEntity
  8
OBJECT
100
AcDbLine
 10
21.27652436847297
 20
26.91313185286529
 30
0.0
 11
21.27652436847297
 21
27.1357655290314
 31
0.0
  0
CIRCLE
  5
42E
330
1E
100
AcDbEntity
  8
OBJECT
100
AcDbCircle
 10
21.43452436847299
 20
26.50688185286529
 30
0.0
 40
0.314
  0
CIRCLE
  5
42F
330
1E
100
AcDbEntity
  8
OBJECT
100
AcDbCircle
 10
7.450524368472969
 20
26.50688185286529
 30
0.0
 40
0.314
  0
CIRCLE
  5
430
330
1E
100
AcDbEntity
  8
OBJECT
100
AcDbCircle
 10
7.450524368472969
 20
37.03788185286526
 30
0.0
 40
0.314
  0
CIRCLE
  5
431
330
1E
100
AcDbEntity
  8
OBJECT
100
AcDbCircle
 10
7.450524368472969
 20
37.03788185286526
 30
0.0
 40
0.129
  0
CIRCLE
  5
432
330
1E
100
AcDbEntity
  8
OBJECT
100
AcDbCircle
 10
21.43452436847297
 20
37.03788185286526
 30
0.0
 40
0.129
  0
CIRCLE
  5
433
330
1E
100
AcDbEntity
  8
OBJECT
100
AcDbCircle
 10
21.43452436847299
 20
37.03788185286526
 30
0.0
 40
0.314
  0
ARC
  5
434
330
1E
100
AcDbEntity
  8
OBJECT
100
AcDbCircle
 10
7.450524368472969
 20
26.50688185286529
 30
0.0
 40
0.4269999999999925
100
AcDbArc
 50
5.712199486612262
 51
48.79365153105593
  0
ARC
  5
435
330
1E
100
AcDbEntity
  8
OBJECT
100
AcDbCircle
 10
7.450524368472969
 20
26.50688185286529
 30
0.0
 40
0.4269999999999925
100
AcDbArc
 50
311.2063484689495
 51
354.2878005133896
  0
ARC
  5
436
330
1E
100
AcDbEntity
  8
OBJECT
100
AcDbCircle
 10
21.43452436847299
 20
26.50688185286529
 30
0.0
 40
0.4269999999999925
100
AcDbArc
 50
185.7121994866103
 51
228.7936515310464
  0
CIRCLE
  5
437
330
1E
100
AcDbEntity
  8
OBJECT
100
AcDbCircle
 10
20.56852436847298
 20
16.8503818528653
 30
0.0
 40
0.314
  0
CIRCLE
  5
438
330
1E
100
AcDbEntity
  8
OBJECT
100
AcDbCircle
 10
7.450524368472969
 20
15.97588185286531
 30
0.0
 40
0.314
  0
CIRCLE
  5
439
330
1E
100
AcDbEntity
  8
OBJECT
100
AcDbCircle
 10
7.450524368472969
 20
15.97588185286531
 30
0.0
 40
0.129
  0
CIRCLE
  5
43A
330
1E
100
AcDbEntity
  8
OBJECT
100
AcDbCircle
 10
8.316524368472968
 20
16.8503818528653
 30
0.0
 40
0.314
  0
CIRCLE
  5
43B
330
1E
100
AcDbEntity
  8
OBJECT
100
AcDbCircle
 10
13.84602436847298
 20
16.27938185286527
 30
0.0
 40
0.28
  0
CIRCLE
  5
43C
330
1E
100
AcDbEntity
  8
HIDDEN
100
AcDbCircle
 10
13.84602436847298
 20
16.27938185286527
 30
0.0
 40
0.095
  0
CIRCLE
  5
43D
330
1E
100
AcDbEntity
  8
OBJECT
100
AcDbCircle
 10
13.84602436847298
 20
16.27938185286527
 30
0.0
 40
0.0825
  0
CIRCLE
  5
43E
330
1E
100
AcDbEntity
  8
OBJECT
100
AcDbCircle
 10
21.43452436847299
 20
15.97588185286531
 30
0.0
 40
0.314
  0
CIRCLE
  5
43F
330
1E
100
AcDbEntity
  8
OBJECT
100
AcDbCircle
 10
21.43452436847297
 20
15.97588185286531
 30
0.0
 40
0.129
  0
CIRCLE
  5
440
330
1E
100
AcDbEntity
  8
OBJECT
100
AcDbCircle
 10
14.44252436847295
 20
31.24349233445168
 30
0.0
 40
0.75
  0
CIRCLE
  5
441
330
1E
100
AcDbEntity
  8
OBJECT
100
AcDbCircle
 10
14.44252436847295
 20
31.24349233445168
 30
0.0
 40
0.27
  0
CIRCLE
  5
442
330
1E
100
AcDbEntity
  8
OBJECT
100
AcDbCircle
 10
14.44252436847295
 20
31.24349233445168
 30
0.0
 40
0.105
  0
CIRCLE
  5
443
330
1E
100
AcDbEntity
  8
OBJECT
100
AcDbCircle
 10
14.44252436847295
 20
21.77027137127888
 30
0.0
 40
0.27
  0
CIRCLE
  5
444
330
1E
100
AcDbEntity
  8
OBJECT
100
AcDbCircle
 10
14.44252436847295
 20
21.77027137127888
 30
0.0
 40
0.75
  0
CIRCLE
  5
445
330
1E
100
AcDbEntity
  8
OBJECT
100
AcDbCircle
 10
14.44252436847295
 20
21.77027137127888
 30
0.0
 40
0.105
  0
DIMENSION
  5
446
330
1E
100
AcDbEntity
  8
DIM
100
AcDbDimension
  2
*D22
 10
7.753524368472951
 20
14.20438185286533
 30
0.0
 11
10.79977436847296
 21
14.20438185286533
 31
0.0
 70
    32
  1
T
 71
     5
 42
6.092500000000029
  3
23NSTD
100
AcDbAlignedDimension
 13
13.84602436847298
 23
16.27938185286528
 33
0.0
 14
7.753524368472952
 24
25.63938185286525
 34
0.0
100
AcDbRotatedDimension
  0
DIMENSION
  5
447
330
1E
100
AcDbEntity
  8
DIM
100
AcDbDimension
  2
*D23
 10
5.03002436847295
 20
36.73438185286529
 30
0.0
 11
5.030024368472944
 21
32.0543818528653
 31
0.0
 70
    32
  1
V
 71
     5
 42
9.359999999999988
  3
23NSTD
100
AcDbAlignedDimension
 13
7.753524368472952
 23
27.3743818528653
 33
0.0
 14
13.84602436847298
 24
36.73438185286529
 34
0.0
 50
90.0
100
AcDbRotatedDimension
  0
ARC
  5
448
330
1E
100
AcDbEntity
  8
OBJECT
100
AcDbCircle
 10
44.47272354672973
 20
27.23688185286528
 30
0.0
 40
0.2300000000000111
100
AcDbArc
 50
270.0
 51
0.0
  0
LINE
  5
449
330
1E
100
AcDbEntity
  8
OBJECT
100
AcDbLine
 10
44.47272354672976
 20
26.50688185286529
 30
0.0
 11
44.47272354672973
 21
27.16389045186355
 31
0.0
  0
LINE
  5
44A
330
1E
100
AcDbEntity
  8
OBJECT
100
AcDbLine
 10
43.49272354672975
 20
25.86988185286528
 30
0.0
 11
44.47272354672973
 21
25.86988185286528
 31
0.0
  0
LINE
  5
44B
330
1E
100
AcDbEntity
  8
OBJECT
100
AcDbLine
 10
43.64972354672975
 20
25.93488185286526
 30
0.0
 11
43.49272354672975
 21
25.93488185286528
 31
0.0
  0
LINE
  5
44C
330
1E
100
AcDbEntity
  8
OBJECT
100
AcDbLine
 10
43.64972354672975
 20
26.11688185286528
 30
0.0
 11
43.49272354672977
 21
26.11688185286528
 31
0.0
  0
LINE
  5
44D
330
1E
100
AcDbEntity
  8
OBJECT
100
AcDbLine
 10
43.64972354672975
 20
25.93488185286526
 30
0.0
 11
43.64972354672975
 21
26.11688185286528
 31
0.0
  0
LINE
  5
44E
330
1E
100
AcDbEntity
  8
OBJECT
100
AcDbLine
 10
43.60772354672977
 20
26.00691645613878
 30
0.0
 11
43.60772354672975
 21
26.08891078120193
 31
0.0
  0
LINE
  5
44F
330
1E
100
AcDbEntity
  8
OBJECT
100
AcDbLine
 10
44.47272354672973
 20
26.50688185286529
 30
0.0
 11
44.47272354672973
 21
26.00688185286521
 31
0.0
  0
LINE
  5
450
330
1E
100
AcDbEntity
  8
OBJECT
100
AcDbLine
 10
43.74272354672973
 20
26.16188185286528
 30
0.0
 11
43.74272354672975
 21
26.50688185286529
 31
0.0
  0
LINE
  5
451
330
1E
100
AcDbEntity
  8
OBJECT
100
AcDbLine
 10
43.49272354672975
 20
26.00691645613878
 30
0.0
 11
43.49272354672974
 21
16.46838185286529
 31
0.0
  0
LINE
  5
452
330
1E
100
AcDbEntity
  8
OBJECT
100
AcDbLine
 10
43.49272354672975
 20
25.94438185286529
 30
0.0
 11
37.82772354672975
 21
25.9718818528653
 31
0.0
  0
LINE
  5
453
330
1E
100
AcDbEntity
  8
OBJECT
100
AcDbLine
 10
37.58772354672975
 20
15.84688185286532
 30
0.0
 11
37.87872354672976
 21
15.84688185286532
 31
0.0
  0
LINE
  5
454
330
1E
100
AcDbEntity
  8
OBJECT
100
AcDbLine
 10
37.58772354672975
 20
16.1048818528653
 30
0.0
 11
37.87872354672975
 21
16.10488185286533
 31
0.0
  0
LINE
  5
455
330
1E
100
AcDbEntity
  8
OBJECT
100
AcDbLine
 10
43.44872354672964
 20
26.19538185286524
 30
0.0
 11
43.44091291654701
 21
26.30597327567855
 31
0.0
  0
LINE
  5
456
330
1E
100
AcDbEntity
  8
OBJECT
100
AcDbLine
 10
43.39388387943137
 20
26.37194328474428
 30
0.0
 11
43.40472354672966
 21
26.24088185286524
 31
0.0
  0
LINE
  5
457
330
1E
100
AcDbEntity
  8
OBJECT
100
AcDbLine
 10
42.76788387943137
 20
26.37194328474428
 30
0.0
 11
42.77872354672966
 21
26.24088185286524
 31
0.0
  0
LINE
  5
458
330
1E
100
AcDbEntity
  8
OBJECT
100
AcDbLine
 10
43.21788387943139
 20
26.37194328474428
 30
0.0
 11
43.22872354672965
 21
26.24088185286524
 31
0.0
  0
LINE
  5
459
330
1E
100
AcDbEntity
  8
OBJECT
100
AcDbLine
 10
43.30588387943138
 20
26.37194328474428
 30
0.0
 11
43.31672354672964
 21
26.24088185286524
 31
0.0
  0
LINE
  5
45A
330
1E
100
AcDbEntity
  8
OBJECT
100
AcDbLine
 10
43.27272354672966
 20
26.19538185286524
 30
0.0
 11
43.264912916547
 21
26.30597327567855
 31
0.0
  0
LINE
  5
45B
330
1E
100
AcDbEntity
  8
OBJECT
100
AcDbLine
 10
43.36072354672965
 20
26.19538185286524
 30
0.0
 11
43.35291291654701
 21
26.30597327567855
 31
0.0
  0
LINE
  5
45C
330
1E
100
AcDbEntity
  8
OBJECT
100
AcDbLine
 10
43.18472354672966
 20
26.19538185286524
 30
0.0
 11
43.176912916547
 21
26.30597327567855
 31
0.0
  0
LINE
  5
45D
330
1E
100
AcDbEntity
  8
OBJECT
100
AcDbLine
 10
42.94388387943139
 20
26.37194328474428
 30
0.0
 11
42.95472354672964
 21
26.24088185286524
 31
0.0
  0
LINE
  5
45E
330
1E
100
AcDbEntity
  8
OBJECT
100
AcDbLine
 10
42.85588387943139
 20
26.37194328474428
 30
0.0
 11
42.86672354672965
 21
26.24088185286524
 31
0.0
  0
LINE
  5
45F
330
1E
100
AcDbEntity
  8
OBJECT
100
AcDbLine
 10
42.91072354672966
 20
26.19538185286524
 30
0.0
 11
42.90291291654702
 21
26.30597327567855
 31
0.0
  0
LINE
  5
460
330
1E
100
AcDbEntity
  8
OBJECT
100
AcDbLine
 10
42.82272354672967
 20
26.19538185286524
 30
0.0
 11
42.81491291654703
 21
26.30597327567855
 31
0.0
  0
LINE
  5
461
330
1E
100
AcDbEntity
  8
OBJECT
100
AcDbLine
 10
42.99872354672966
 20
26.19538185286524
 30
0.0
 11
42.99091291654702
 21
26.30597327567855
 31
0.0
  0
LINE
  5
462
330
1E
100
AcDbEntity
  8
OBJECT
100
AcDbLine
 10
43.0418838794314
 20
26.37194328474428
 30
0.0
 11
43.05272354672966
 21
26.24088185286524
 31
0.0
  0
LINE
  5
463
330
1E
100
AcDbEntity
  8
OBJECT
100
AcDbLine
 10
43.12988387943139
 20
26.37194328474428
 30
0.0
 11
43.14072354672965
 21
26.24088185286524
 31
0.0
  0
LINE
  5
464
330
1E
100
AcDbEntity
  8
OBJECT
100
AcDbLine
 10
43.09672354672964
 20
26.19538185286524
 30
0.0
 11
43.08891291654701
 21
26.30597327567855
 31
0.0
  0
LINE
  5
465
330
1E
100
AcDbEntity
  8
OBJECT
100
AcDbLine
 10
42.50388387943139
 20
26.37194328474428
 30
0.0
 11
42.51472354672965
 21
26.24088185286524
 31
0.0
  0
LINE
  5
466
330
1E
100
AcDbEntity
  8
OBJECT
100
AcDbLine
 10
42.59188387943138
 20
26.37194328474428
 30
0.0
 11
42.60272354672964
 21
26.24088185286524
 31
0.0
  0
LINE
  5
467
330
1E
100
AcDbEntity
  8
OBJECT
100
AcDbLine
 10
42.67988387943137
 20
26.37194328474428
 30
0.0
 11
42.69072354672966
 21
26.24088185286524
 31
0.0
  0
LINE
  5
468
330
1E
100
AcDbEntity
  8
OBJECT
100
AcDbLine
 10
42.55872354672965
 20
26.19538185286524
 30
0.0
 11
42.55091291654703
 21
26.30597327567855
 31
0.0
  0
LINE
  5
469
330
1E
100
AcDbEntity
  8
OBJECT
100
AcDbLine
 10
42.73472354672964
 20
26.19538185286524
 30
0.0
 11
42.72691291654701
 21
26.30597327567855
 31
0.0
  0
LINE
  5
46A
330
1E
100
AcDbEntity
  8
OBJECT
100
AcDbLine
 10
42.64672354672965
 20
26.19538185286524
 30
0.0
 11
42.63891291654702
 21
26.30597327567855
 31
0.0
  0
LINE
  5
46B
330
1E
100
AcDbEntity
  8
OBJECT
100
AcDbLine
 10
40.6558838794314
 20
26.37194328474428
 30
0.0
 11
40.66672354672969
 21
26.24088185286524
 31
0.0
  0
LINE
  5
46C
330
1E
100
AcDbEntity
  8
OBJECT
100
AcDbLine
 10
42.29472354672967
 20
26.19538185286524
 30
0.0
 11
42.28691291654704
 21
26.30597327567855
 31
0.0
  0
LINE
  5
46D
330
1E
100
AcDbEntity
  8
OBJECT
100
AcDbLine
 10
42.3278838794314
 20
26.37194328474428
 30
0.0
 11
42.33872354672966
 21
26.24088185286524
 31
0.0
  0
LINE
  5
46E
330
1E
100
AcDbEntity
  8
OBJECT
100
AcDbLine
 10
42.41588387943139
 20
26.37194328474428
 30
0.0
 11
42.42672354672965
 21
26.24088185286524
 31
0.0
  0
LINE
  5
46F
330
1E
100
AcDbEntity
  8
OBJECT
100
AcDbLine
 10
42.38272354672967
 20
26.19538185286524
 30
0.0
 11
42.37491291654704
 21
26.30597327567855
 31
0.0
  0
LINE
  5
470
330
1E
100
AcDbEntity
  8
OBJECT
100
AcDbLine
 10
42.47072354672966
 20
26.19538185286524
 30
0.0
 11
42.46291291654703
 21
26.30597327567855
 31
0.0
  0
LINE
  5
471
330
1E
100
AcDbEntity
  8
OBJECT
100
AcDbLine
 10
42.23988387943138
 20
26.37194328474428
 30
0.0
 11
42.25072354672966
 21
26.24088185286524
 31
0.0
  0
LINE
  5
472
330
1E
100
AcDbEntity
  8
OBJECT
100
AcDbLine
 10
42.20672354672966
 20
26.19538185286524
 30
0.0
 11
42.19891291654702
 21
26.30597327567855
 31
0.0
  0
LINE
  5
473
330
1E
100
AcDbEntity
  8
OBJECT
100
AcDbLine
 10
42.15188387943139
 20
26.37194328474428
 30
0.0
 11
42.16272354672967
 21
26.24088185286524
 31
0.0
  0
LINE
  5
474
330
1E
100
AcDbEntity
  8
OBJECT
100
AcDbLine
 10
41.76672354672965
 20
26.19538185286524
 30
0.0
 11
41.75891291654703
 21
26.30597327567855
 31
0.0
  0
LINE
  5
475
330
1E
100
AcDbEntity
  8
OBJECT
100
AcDbLine
 10
41.88788387943137
 20
26.37194328474428
 30
0.0
 11
41.89872354672966
 21
26.24088185286524
 31
0.0
  0
LINE
  5
476
330
1E
100
AcDbEntity
  8
OBJECT
100
AcDbLine
 10
41.85472354672965
 20
26.19538185286524
 30
0.0
 11
41.84691291654702
 21
26.30597327567855
 31
0.0
  0
LINE
  5
477
330
1E
100
AcDbEntity
  8
OBJECT
100
AcDbLine
 10
41.94272354672967
 20
26.19538185286524
 30
0.0
 11
41.93491291654704
 21
26.30597327567855
 31
0.0
  0
LINE
  5
478
330
1E
100
AcDbEntity
  8
OBJECT
100
AcDbLine
 10
41.79988387943138
 20
26.37194328474428
 30
0.0
 11
41.81072354672966
 21
26.24088185286524
 31
0.0
  0
LINE
  5
479
330
1E
100
AcDbEntity
  8
OBJECT
100
AcDbLine
 10
41.9758838794314
 20
26.37194328474428
 30
0.0
 11
41.98672354672965
 21
26.24088185286524
 31
0.0
  0
LINE
  5
47A
330
1E
100
AcDbEntity
  8
OBJECT
100
AcDbLine
 10
42.06388387943139
 20
26.37194328474428
 30
0.0
 11
42.07472354672964
 21
26.24088185286524
 31
0.0
  0
LINE
  5
47B
330
1E
100
AcDbEntity
  8
OBJECT
100
AcDbLine
 10
42.03072354672967
 20
26.19538185286524
 30
0.0
 11
42.02291291654703
 21
26.30597327567855
 31
0.0
  0
LINE
  5
47C
330
1E
100
AcDbEntity
  8
OBJECT
100
AcDbLine
 10
42.11872354672966
 20
26.19538185286524
 30
0.0
 11
42.11091291654702
 21
26.30597327567855
 31
0.0
  0
LINE
  5
47D
330
1E
100
AcDbEntity
  8
OBJECT
100
AcDbLine
 10
41.71188387943138
 20
26.37194328474428
 30
0.0
 11
41.72272354672965
 21
26.24088185286524
 31
0.0
  0
LINE
  5
47E
330
1E
100
AcDbEntity
  8
OBJECT
100
AcDbLine
 10
41.62388387943139
 20
26.37194328474428
 30
0.0
 11
41.63472354672965
 21
26.24088185286524
 31
0.0
  0
LINE
  5
47F
330
1E
100
AcDbEntity
  8
OBJECT
100
AcDbLine
 10
41.67872354672966
 20
26.19538185286524
 30
0.0
 11
41.67091291654703
 21
26.30597327567855
 31
0.0
  0
LINE
  5
480
330
1E
100
AcDbEntity
  8
OBJECT
100
AcDbLine
 10
41.59072354672967
 20
26.19538185286524
 30
0.0
 11
41.58291291654704
 21
26.30597327567855
 31
0.0
  0
LINE
  5
481
330
1E
100
AcDbEntity
  8
OBJECT
100
AcDbLine
 10
41.35988387943139
 20
26.37194328474428
 30
0.0
 11
41.37072354672964
 21
26.24088185286524
 31
0.0
  0
LINE
  5
482
330
1E
100
AcDbEntity
  8
OBJECT
100
AcDbLine
 10
41.4478838794314
 20
26.37194328474428
 30
0.0
 11
41.45872354672966
 21
26.24088185286524
 31
0.0
  0
LINE
  5
483
330
1E
100
AcDbEntity
  8
OBJECT
100
AcDbLine
 10
41.41472354672965
 20
26.19538185286524
 30
0.0
 11
41.40691291654702
 21
26.30597327567855
 31
0.0
  0
LINE
  5
484
330
1E
100
AcDbEntity
  8
OBJECT
100
AcDbLine
 10
41.5358838794314
 20
26.37194328474428
 30
0.0
 11
41.54672354672966
 21
26.24088185286524
 31
0.0
  0
LINE
  5
485
330
1E
100
AcDbEntity
  8
OBJECT
100
AcDbLine
 10
41.50272354672964
 20
26.19538185286524
 30
0.0
 11
41.49491291654701
 21
26.30597327567855
 31
0.0
  0
LINE
  5
486
330
1E
100
AcDbEntity
  8
OBJECT
100
AcDbLine
 10
41.0958838794314
 20
26.37194328474428
 30
0.0
 11
41.10672354672966
 21
26.24088185286524
 31
0.0
  0
LINE
  5
487
330
1E
100
AcDbEntity
  8
OBJECT
100
AcDbLine
 10
41.1838838794314
 20
26.37194328474428
 30
0.0
 11
41.19472354672965
 21
26.24088185286524
 31
0.0
  0
LINE
  5
488
330
1E
100
AcDbEntity
  8
OBJECT
100
AcDbLine
 10
41.27188387943139
 20
26.37194328474428
 30
0.0
 11
41.28272354672964
 21
26.24088185286524
 31
0.0
  0
LINE
  5
489
330
1E
100
AcDbEntity
  8
OBJECT
100
AcDbLine
 10
41.32672354672966
 20
26.19538185286524
 30
0.0
 11
41.31891291654702
 21
26.30597327567855
 31
0.0
  0
LINE
  5
48A
330
1E
100
AcDbEntity
  8
OBJECT
100
AcDbLine
 10
41.23872354672966
 20
26.19538185286524
 30
0.0
 11
41.23091291654703
 21
26.30597327567855
 31
0.0
  0
LINE
  5
48B
330
1E
100
AcDbEntity
  8
OBJECT
100
AcDbLine
 10
41.15072354672967
 20
26.19538185286524
 30
0.0
 11
41.142912916547
 21
26.30597327567855
 31
0.0
  0
LINE
  5
48C
330
1E
100
AcDbEntity
  8
OBJECT
100
AcDbLine
 10
40.83188387943139
 20
26.37194328474428
 30
0.0
 11
40.84272354672965
 21
26.24088185286524
 31
0.0
  0
LINE
  5
48D
330
1E
100
AcDbEntity
  8
OBJECT
100
AcDbLine
 10
40.7438838794314
 20
26.37194328474428
 30
0.0
 11
40.75472354672966
 21
26.24088185286524
 31
0.0
  0
LINE
  5
48E
330
1E
100
AcDbEntity
  8
OBJECT
100
AcDbLine
 10
40.79872354672967
 20
26.19538185286524
 30
0.0
 11
40.79091291654703
 21
26.30597327567855
 31
0.0
  0
LINE
  5
48F
330
1E
100
AcDbEntity
  8
OBJECT
100
AcDbLine
 10
41.00788387943138
 20
26.37194328474428
 30
0.0
 11
41.01872354672966
 21
26.24088185286524
 31
0.0
  0
LINE
  5
490
330
1E
100
AcDbEntity
  8
OBJECT
100
AcDbLine
 10
40.97472354672965
 20
26.19538185286524
 30
0.0
 11
40.96691291654702
 21
26.30597327567855
 31
0.0
  0
LINE
  5
491
330
1E
100
AcDbEntity
  8
OBJECT
100
AcDbLine
 10
41.06272354672968
 20
26.19538185286524
 30
0.0
 11
41.05491291654701
 21
26.30597327567855
 31
0.0
  0
LINE
  5
492
330
1E
100
AcDbEntity
  8
OBJECT
100
AcDbLine
 10
40.91988387943138
 20
26.37194328474428
 30
0.0
 11
40.93072354672967
 21
26.24088185286524
 31
0.0
  0
LINE
  5
493
330
1E
100
AcDbEntity
  8
OBJECT
100
AcDbLine
 10
40.88672354672966
 20
26.19538185286524
 30
0.0
 11
40.87891291654702
 21
26.30597327567855
 31
0.0
  0
LINE
  5
494
330
1E
100
AcDbEntity
  8
OBJECT
100
AcDbLine
 10
40.71072354672967
 20
26.19538185286524
 30
0.0
 11
40.70291291654704
 21
26.30597327567855
 31
0.0
  0
LINE
  5
495
330
1E
100
AcDbEntity
  8
OBJECT
100
AcDbLine
 10
40.53472354672968
 20
26.19538185286524
 30
0.0
 11
40.52691291654705
 21
26.30597327567855
 31
0.0
  0
LINE
  5
496
330
1E
100
AcDbEntity
  8
OBJECT
100
AcDbLine
 10
40.56788387943141
 20
26.37194328474428
 30
0.0
 11
40.57872354672967
 21
26.24088185286524
 31
0.0
  0
LINE
  5
497
330
1E
100
AcDbEntity
  8
OBJECT
100
AcDbLine
 10
40.62272354672968
 20
26.19538185286524
 30
0.0
 11
40.61491291654705
 21
26.30597327567855
 31
0.0
  0
LINE
  5
498
330
1E
100
AcDbEntity
  8
OBJECT
100
AcDbLine
 10
40.44672354672969
 20
26.19538185286524
 30
0.0
 11
40.43891291654706
 21
26.30597327567855
 31
0.0
  0
LINE
  5
499
330
1E
100
AcDbEntity
  8
OBJECT
100
AcDbLine
 10
40.47988387943141
 20
26.37194328474428
 30
0.0
 11
40.49072354672968
 21
26.24088185286524
 31
0.0
  0
LINE
  5
49A
330
1E
100
AcDbEntity
  8
OBJECT
100
AcDbLine
 10
40.35872354672966
 20
26.19538185286524
 30
0.0
 11
40.35091291654704
 21
26.30597327567855
 31
0.0
  0
LINE
  5
49B
330
1E
100
AcDbEntity
  8
OBJECT
100
AcDbLine
 10
40.39188387943142
 20
26.37194328474428
 30
0.0
 11
40.40272354672968
 21
26.24088185286524
 31
0.0
  0
LINE
  5
49C
330
1E
100
AcDbEntity
  8
OBJECT
100
AcDbLine
 10
40.30388387943143
 20
26.37194328474428
 30
0.0
 11
40.31472354672969
 21
26.24088185286524
 31
0.0
  0
LINE
  5
49D
330
1E
100
AcDbEntity
  8
OBJECT
100
AcDbLine
 10
40.27072354672967
 20
26.19538185286524
 30
0.0
 11
40.26291291654704
 21
26.30597327567855
 31
0.0
  0
LINE
  5
49E
330
1E
100
AcDbEntity
  8
OBJECT
100
AcDbLine
 10
40.21588387943141
 20
26.37194328474428
 30
0.0
 11
40.22672354672966
 21
26.24088185286524
 31
0.0
  0
LINE
  5
49F
330
1E
100
AcDbEntity
  8
OBJECT
100
AcDbLine
 10
40.09472354672968
 20
26.19538185286524
 30
0.0
 11
40.08691291654702
 21
26.30597327567855
 31
0.0
  0
LINE
  5
4A0
330
1E
100
AcDbEntity
  8
OBJECT
100
AcDbLine
 10
40.18272354672968
 20
26.19538185286524
 30
0.0
 11
40.17491291654705
 21
26.30597327567855
 31
0.0
  0
LINE
  5
4A1
330
1E
100
AcDbEntity
  8
OBJECT
100
AcDbLine
 10
40.12788387943142
 20
26.37194328474428
 30
0.0
 11
40.13872354672967
 21
26.24088185286524
 31
0.0
  0
LINE
  5
4A2
330
1E
100
AcDbEntity
  8
OBJECT
100
AcDbLine
 10
40.03988387943142
 20
26.37194328474428
 30
0.0
 11
40.05072354672967
 21
26.24088185286524
 31
0.0
  0
LINE
  5
4A3
330
1E
100
AcDbEntity
  8
OBJECT
100
AcDbLine
 10
39.83072354672968
 20
26.19538185286524
 30
0.0
 11
39.82291291654704
 21
26.30597327567855
 31
0.0
  0
LINE
  5
4A4
330
1E
100
AcDbEntity
  8
OBJECT
100
AcDbLine
 10
39.8638838794314
 20
26.37194328474428
 30
0.0
 11
39.87472354672969
 21
26.24088185286524
 31
0.0
  0
LINE
  5
4A5
330
1E
100
AcDbEntity
  8
OBJECT
100
AcDbLine
 10
40.00672354672969
 20
26.19538185286524
 30
0.0
 11
39.99891291654703
 21
26.30597327567855
 31
0.0
  0
LINE
  5
4A6
330
1E
100
AcDbEntity
  8
OBJECT
100
AcDbLine
 10
39.91872354672967
 20
26.19538185286524
 30
0.0
 11
39.91091291654704
 21
26.30597327567855
 31
0.0
  0
LINE
  5
4A7
330
1E
100
AcDbEntity
  8
OBJECT
100
AcDbLine
 10
39.95188387943139
 20
26.37194328474428
 30
0.0
 11
39.96272354672968
 21
26.24088185286524
 31
0.0
  0
LINE
  5
4A8
330
1E
100
AcDbEntity
  8
OBJECT
100
AcDbLine
 10
39.77588387943141
 20
26.37194328474428
 30
0.0
 11
39.78672354672966
 21
26.24088185286524
 31
0.0
  0
LINE
  5
4A9
330
1E
100
AcDbEntity
  8
OBJECT
100
AcDbLine
 10
39.65472354672969
 20
26.19538185286524
 30
0.0
 11
39.64691291654705
 21
26.30597327567855
 31
0.0
  0
LINE
  5
4AA
330
1E
100
AcDbEntity
  8
OBJECT
100
AcDbLine
 10
39.74272354672968
 20
26.19538185286524
 30
0.0
 11
39.73491291654705
 21
26.30597327567855
 31
0.0
  0
LINE
  5
4AB
330
1E
100
AcDbEntity
  8
OBJECT
100
AcDbLine
 10
39.68788387943142
 20
26.37194328474428
 30
0.0
 11
39.69872354672967
 21
26.24088185286524
 31
0.0
  0
LINE
  5
4AC
330
1E
100
AcDbEntity
  8
OBJECT
100
AcDbLine
 10
39.59988387943142
 20
26.37194328474428
 30
0.0
 11
39.61072354672971
 21
26.24088185286524
 31
0.0
  0
LINE
  5
4AD
330
1E
100
AcDbEntity
  8
OBJECT
100
AcDbLine
 10
39.56672354672969
 20
26.19538185286524
 30
0.0
 11
39.55891291654706
 21
26.30597327567855
 31
0.0
  0
LINE
  5
4AE
330
1E
100
AcDbEntity
  8
OBJECT
100
AcDbLine
 10
39.51188387943142
 20
26.37194328474428
 30
0.0
 11
39.52272354672969
 21
26.24088185286524
 31
0.0
  0
LINE
  5
4AF
330
1E
100
AcDbEntity
  8
OBJECT
100
AcDbLine
 10
39.15988387943142
 20
26.37194328474428
 30
0.0
 11
39.17072354672968
 21
26.24088185286524
 31
0.0
  0
LINE
  5
4B0
330
1E
100
AcDbEntity
  8
OBJECT
100
AcDbLine
 10
39.21472354672969
 20
26.19538185286524
 30
0.0
 11
39.20691291654706
 21
26.30597327567855
 31
0.0
  0
LINE
  5
4B1
330
1E
100
AcDbEntity
  8
OBJECT
100
AcDbLine
 10
39.42388387943143
 20
26.37194328474428
 30
0.0
 11
39.43472354672969
 21
26.24088185286524
 31
0.0
  0
LINE
  5
4B2
330
1E
100
AcDbEntity
  8
OBJECT
100
AcDbLine
 10
39.24788387943145
 20
26.37194328474428
 30
0.0
 11
39.2587235467297
 21
26.24088185286524
 31
0.0
  0
LINE
  5
4B3
330
1E
100
AcDbEntity
  8
OBJECT
100
AcDbLine
 10
39.33588387943144
 20
26.37194328474428
 30
0.0
 11
39.3467235467297
 21
26.24088185286524
 31
0.0
  0
LINE
  5
4B4
330
1E
100
AcDbEntity
  8
OBJECT
100
AcDbLine
 10
39.30272354672968
 20
26.19538185286524
 30
0.0
 11
39.29491291654705
 21
26.30597327567855
 31
0.0
  0
LINE
  5
4B5
330
1E
100
AcDbEntity
  8
OBJECT
100
AcDbLine
 10
39.39072354672971
 20
26.19538185286524
 30
0.0
 11
39.38291291654707
 21
26.30597327567855
 31
0.0
  0
LINE
  5
4B6
330
1E
100
AcDbEntity
  8
OBJECT
100
AcDbLine
 10
39.4787235467297
 20
26.19538185286524
 30
0.0
 11
39.47091291654707
 21
26.30597327567855
 31
0.0
  0
LINE
  5
4B7
330
1E
100
AcDbEntity
  8
OBJECT
100
AcDbLine
 10
38.98388387943144
 20
26.37194328474428
 30
0.0
 11
38.99472354672972
 21
26.24088185286524
 31
0.0
  0
LINE
  5
4B8
330
1E
100
AcDbEntity
  8
OBJECT
100
AcDbLine
 10
39.07188387943143
 20
26.37194328474428
 30
0.0
 11
39.08272354672972
 21
26.24088185286524
 31
0.0
  0
LINE
  5
4B9
330
1E
100
AcDbEntity
  8
OBJECT
100
AcDbLine
 10
39.1267235467297
 20
26.19538185286524
 30
0.0
 11
39.11891291654706
 21
26.30597327567855
 31
0.0
  0
LINE
  5
4BA
330
1E
100
AcDbEntity
  8
OBJECT
100
AcDbLine
 10
39.0387235467297
 20
26.19538185286524
 30
0.0
 11
39.03091291654707
 21
26.30597327567855
 31
0.0
  0
LINE
  5
4BB
330
1E
100
AcDbEntity
  8
OBJECT
100
AcDbLine
 10
38.89588387943144
 20
26.37194328474428
 30
0.0
 11
38.9067235467297
 21
26.24088185286524
 31
0.0
  0
LINE
  5
4BC
330
1E
100
AcDbEntity
  8
OBJECT
100
AcDbLine
 10
38.86272354672971
 20
26.19538185286524
 30
0.0
 11
38.85491291654708
 21
26.30597327567855
 31
0.0
  0
LINE
  5
4BD
330
1E
100
AcDbEntity
  8
OBJECT
100
AcDbLine
 10
38.95072354672971
 20
26.19538185286524
 30
0.0
 11
38.94291291654708
 21
26.30597327567855
 31
0.0
  0
LINE
  5
4BE
330
1E
100
AcDbEntity
  8
OBJECT
100
AcDbLine
 10
37.92788387943148
 20
26.37194328474428
 30
0.0
 11
37.93872354672974
 21
26.24088185286524
 31
0.0
  0
LINE
  5
4BF
330
1E
100
AcDbEntity
  8
OBJECT
100
AcDbLine
 10
38.59872354672973
 20
26.19538185286524
 30
0.0
 11
38.5909129165471
 21
26.30597327567855
 31
0.0
  0
LINE
  5
4C0
330
1E
100
AcDbEntity
  8
OBJECT
100
AcDbLine
 10
38.71988387943142
 20
26.37194328474428
 30
0.0
 11
38.73072354672971
 21
26.24088185286524
 31
0.0
  0
LINE
  5
4C1
330
1E
100
AcDbEntity
  8
OBJECT
100
AcDbLine
 10
38.80788387943145
 20
26.37194328474428
 30
0.0
 11
38.81872354672971
 21
26.24088185286524
 31
0.0
  0
LINE
  5
4C2
330
1E
100
AcDbEntity
  8
OBJECT
100
AcDbLine
 10
38.77472354672972
 20
26.19538185286524
 30
0.0
 11
38.76691291654709
 21
26.30597327567855
 31
0.0
  0
LINE
  5
4C3
330
1E
100
AcDbEntity
  8
OBJECT
100
AcDbLine
 10
38.63188387943143
 20
26.37194328474428
 30
0.0
 11
38.64272354672971
 21
26.24088185286524
 31
0.0
  0
LINE
  5
4C4
330
1E
100
AcDbEntity
  8
OBJECT
100
AcDbLine
 10
38.6867235467297
 20
26.19538185286524
 30
0.0
 11
38.67891291654707
 21
26.30597327567855
 31
0.0
  0
LINE
  5
4C5
330
1E
100
AcDbEntity
  8
OBJECT
100
AcDbLine
 10
38.42272354672972
 20
26.19538185286524
 30
0.0
 11
38.41491291654708
 21
26.30597327567855
 31
0.0
  0
LINE
  5
4C6
330
1E
100
AcDbEntity
  8
OBJECT
100
AcDbLine
 10
38.45588387943147
 20
26.37194328474428
 30
0.0
 11
38.46672354672973
 21
26.24088185286524
 31
0.0
  0
LINE
  5
4C7
330
1E
100
AcDbEntity
  8
OBJECT
100
AcDbLine
 10
38.33472354672972
 20
26.19538185286524
 30
0.0
 11
38.32691291654709
 21
26.30597327567855
 31
0.0
  0
LINE
  5
4C8
330
1E
100
AcDbEntity
  8
OBJECT
100
AcDbLine
 10
38.24672354672973
 20
26.19538185286524
 30
0.0
 11
38.2389129165471
 21
26.30597327567855
 31
0.0
  0
LINE
  5
4C9
330
1E
100
AcDbEntity
  8
OBJECT
100
AcDbLine
 10
38.27988387943145
 20
26.37194328474428
 30
0.0
 11
38.29072354672971
 21
26.24088185286524
 31
0.0
  0
LINE
  5
4CA
330
1E
100
AcDbEntity
  8
OBJECT
100
AcDbLine
 10
38.19188387943146
 20
26.37194328474428
 30
0.0
 11
38.20272354672972
 21
26.24088185286524
 31
0.0
  0
LINE
  5
4CB
330
1E
100
AcDbEntity
  8
OBJECT
100
AcDbLine
 10
38.36788387943148
 20
26.37194328474428
 30
0.0
 11
38.37872354672974
 21
26.24088185286524
 31
0.0
  0
LINE
  5
4CC
330
1E
100
AcDbEntity
  8
OBJECT
100
AcDbLine
 10
38.15872354672974
 20
26.19538185286524
 30
0.0
 11
38.1509129165471
 21
26.30597327567855
 31
0.0
  0
LINE
  5
4CD
330
1E
100
AcDbEntity
  8
OBJECT
100
AcDbLine
 10
38.10388387943147
 20
26.37194328474428
 30
0.0
 11
38.11472354672972
 21
26.24088185286524
 31
0.0
  0
LINE
  5
4CE
330
1E
100
AcDbEntity
  8
OBJECT
100
AcDbLine
 10
38.01588387943148
 20
26.37194328474428
 30
0.0
 11
38.02672354672973
 21
26.24088185286524
 31
0.0
  0
LINE
  5
4CF
330
1E
100
AcDbEntity
  8
OBJECT
100
AcDbLine
 10
37.98272354672972
 20
26.19538185286524
 30
0.0
 11
37.97491291654709
 21
26.30597327567855
 31
0.0
  0
LINE
  5
4D0
330
1E
100
AcDbEntity
  8
OBJECT
100
AcDbLine
 10
38.07072354672974
 20
26.19538185286524
 30
0.0
 11
38.06291291654711
 21
26.30597327567855
 31
0.0
  0
LINE
  5
4D1
330
1E
100
AcDbEntity
  8
OBJECT
100
AcDbLine
 10
37.58772354672965
 20
26.37788185286524
 30
0.0
 11
37.87872354672965
 21
26.37788185286524
 31
0.0
  0
LINE
  5
4D2
330
1E
100
AcDbEntity
  8
OBJECT
100
AcDbLine
 10
37.89472354672973
 20
26.19538185286524
 30
0.0
 11
37.88691291654709
 21
26.30597327567855
 31
0.0
  0
LINE
  5
4D3
330
1E
100
AcDbEntity
  8
OBJECT
100
AcDbLine
 10
37.87872354672965
 20
26.50688185286526
 30
0.0
 11
37.87872354672965
 21
26.2119273074108
 31
0.0
  0
LINE
  5
4D4
330
1E
100
AcDbEntity
  8
OBJECT
100
AcDbLine
 10
43.49272354672974
 20
16.58938185286527
 30
0.0
 11
37.82772354672975
 21
16.56438185286527
 31
0.0
  0
LINE
  5
4D5
330
1E
100
AcDbEntity
  8
OBJECT
100
AcDbLine
 10
37.82772354672975
 20
16.56438185286527
 30
0.0
 11
37.82772354672975
 21
16.57038185286527
 31
0.0
  0
LINE
  5
4D6
330
1E
100
AcDbEntity
  8
OBJECT
100
AcDbLine
 10
37.82772354672975
 20
25.9718818528653
 30
0.0
 11
37.82772354672969
 21
25.42488185286527
 31
0.0
  0
LINE
  5
4D7
330
1E
100
AcDbEntity
  8
OBJECT
100
AcDbLine
 10
43.41172354672968
 20
27.01688700307977
 30
0.0
 11
43.28072354672969
 21
27.01446940651326
 31
0.0
  0
LINE
  5
4D8
330
1E
100
AcDbEntity
  8
OBJECT
100
AcDbLine
 10
43.19972354672973
 20
27.01297455672784
 30
0.0
 11
37.66772354672975
 21
26.9108818528652
 31
0.0
  0
LINE
  5
4D9
330
1E
100
AcDbEntity
  8
OBJECT
100
AcDbLine
 10
37.66772354672964
 20
26.84888185286522
 30
0.0
 11
37.58772354672963
 21
26.82088185286523
 31
0.0
  0
LINE
  5
4DA
330
1E
100
AcDbEntity
  8
OBJECT
100
AcDbLine
 10
37.58772354672965
 20
26.19288185286524
 30
0.0
 11
37.58772354672963
 21
26.82088185286523
 31
0.0
  0
LINE
  5
4DB
330
1E
100
AcDbEntity
  8
OBJECT
100
AcDbLine
 10
37.66772354672975
 20
26.16488185286522
 30
0.0
 11
37.58772354672965
 21
26.19288185286524
 31
0.0
  0
LINE
  5
4DC
330
1E
100
AcDbEntity
  8
OBJECT
100
AcDbLine
 10
37.66772354672974
 20
16.50838185286531
 30
0.0
 11
37.58772354672975
 21
16.5363818528653
 31
0.0
  0
LINE
  5
4DD
330
1E
100
AcDbEntity
  8
OBJECT
100
AcDbLine
 10
37.66772354672974
 20
17.19238185286528
 30
0.0
 11
37.58772354672975
 21
17.16438185286529
 31
0.0
  0
LINE
  5
4DE
330
1E
100
AcDbEntity
  8
OBJECT
100
AcDbLine
 10
37.58772354672975
 20
17.16438185286529
 30
0.0
 11
37.58772354672975
 21
16.5363818528653
 31
0.0
  0
LINE
  5
4DF
330
1E
100
AcDbEntity
  8
OBJECT
100
AcDbLine
 10
37.66772354672974
 20
17.19238185286528
 30
0.0
 11
37.66772354672974
 21
24.80288185286531
 31
0.0
  0
LINE
  5
4E0
330
1E
100
AcDbEntity
  8
OBJECT
100
AcDbLine
 10
38.22072354672972
 20
17.13038185286527
 30
0.0
 11
37.82772354672975
 21
17.13038185286527
 31
0.0
  0
LINE
  5
4E1
330
1E
100
AcDbEntity
  8
OBJECT
100
AcDbLine
 10
38.22072354672972
 20
16.57038185286527
 30
0.0
 11
37.82772354672975
 21
16.57038185286527
 31
0.0
  0
LINE
  5
4E2
330
1E
100
AcDbEntity
  8
OBJECT
100
AcDbLine
 10
38.22072354672972
 20
16.57038185286527
 30
0.0
 11
38.22072354672972
 21
17.13038185286527
 31
0.0
  0
LINE
  5
4E3
330
1E
100
AcDbEntity
  8
OBJECT
100
AcDbLine
 10
37.82772354672975
 20
17.13038185286527
 30
0.0
 11
37.82772354672973
 21
24.86488185286527
 31
0.0
  0
LINE
  5
4E4
330
1E
100
AcDbEntity
  8
HIDDEN
100
AcDbLine
 10
38.22072354672974
 20
16.94538185286527
 30
0.0
 11
37.82772354672975
 21
16.94538185286527
 31
0.0
  0
LINE
  5
4E5
330
1E
100
AcDbEntity
  8
HIDDEN
100
AcDbLine
 10
38.22072354672974
 20
16.75538185286533
 30
0.0
 11
37.82772354672973
 21
16.75538185286533
 31
0.0
  0
LINE
  5
4E6
330
1E
100
AcDbEntity
  8
HIDDEN
100
AcDbLine
 10
38.22072354672974
 20
25.23988185286527
 30
0.0
 11
37.82772354672975
 21
25.23988185286527
 31
0.0
  0
LINE
  5
4E7
330
1E
100
AcDbEntity
  8
OBJECT
100
AcDbLine
 10
38.22072354672972
 20
25.42488185286527
 30
0.0
 11
37.82772354672969
 21
25.42488185286527
 31
0.0
  0
LINE
  5
4E8
330
1E
100
AcDbEntity
  8
OBJECT
100
AcDbLine
 10
38.22072354672972
 20
24.86488185286527
 30
0.0
 11
38.22072354672972
 21
25.42488185286527
 31
0.0
  0
LINE
  5
4E9
330
1E
100
AcDbEntity
  8
HIDDEN
100
AcDbLine
 10
38.22072354672974
 20
25.04988185286533
 30
0.0
 11
37.82772354672973
 21
25.04988185286533
 31
0.0
  0
LINE
  5
4EA
330
1E
100
AcDbEntity
  8
OBJECT
100
AcDbLine
 10
38.22072354672972
 20
24.86488185286527
 30
0.0
 11
37.82772354672973
 21
24.86488185286527
 31
0.0
  0
LINE
  5
4EB
330
1E
100
AcDbEntity
  8
OBJECT
100
AcDbLine
 10
37.66772354672974
 20
24.80288185286531
 30
0.0
 11
37.58772354672975
 21
24.8308818528653
 31
0.0
  0
LINE
  5
4EC
330
1E
100
AcDbEntity
  8
OBJECT
100
AcDbLine
 10
37.58772354672975
 20
25.45888185286529
 30
0.0
 11
37.58772354672975
 21
24.8308818528653
 31
0.0
  0
LINE
  5
4ED
330
1E
100
AcDbEntity
  8
OBJECT
100
AcDbLine
 10
37.66772354672969
 20
25.48688185286525
 30
0.0
 11
37.58772354672975
 21
25.45888185286529
 31
0.0
  0
LINE
  5
4EE
330
1E
100
AcDbEntity
  8
OBJECT
100
AcDbLine
 10
37.66772354672974
 20
35.82138185286522
 30
0.0
 11
37.58772354672971
 21
35.84938185286521
 31
0.0
  0
LINE
  5
4EF
330
1E
100
AcDbEntity
  8
OBJECT
100
AcDbLine
 10
37.66772354672974
 20
36.50538185286517
 30
0.0
 11
37.58772354672975
 21
36.4773818528652
 31
0.0
  0
LINE
  5
4F0
330
1E
100
AcDbEntity
  8
OBJECT
100
AcDbLine
 10
37.66772354672974
 20
36.6958818528652
 30
0.0
 11
37.58772354672974
 21
36.7238818528652
 31
0.0
  0
LINE
  5
4F1
330
1E
100
AcDbEntity
  8
OBJECT
100
AcDbLine
 10
37.66772354672974
 20
37.37988185286516
 30
0.0
 11
37.58772354672975
 21
37.35188185286518
 31
0.0
  0
LINE
  5
4F2
330
1E
100
AcDbEntity
  8
OBJECT
100
AcDbLine
 10
37.58772354672975
 20
37.35188185286518
 30
0.0
 11
37.58772354672971
 21
35.84938185286521
 31
0.0
  0
LINE
  5
4F3
330
1E
100
AcDbEntity
  8
OBJECT
100
AcDbLine
 10
37.66772354672974
 20
28.21088185286519
 30
0.0
 11
37.58772354672975
 21
28.18288185286519
 31
0.0
  0
LINE
  5
4F4
330
1E
100
AcDbEntity
  8
OBJECT
100
AcDbLine
 10
37.66772354672969
 20
27.06638185286533
 30
0.0
 11
37.58772354672975
 21
27.0943818528653
 31
0.0
  0
LINE
  5
4F5
330
1E
100
AcDbEntity
  8
OBJECT
100
AcDbLine
 10
37.58772354672975
 20
27.0943818528653
 30
0.0
 11
37.58772354672975
 21
28.18288185286519
 31
0.0
  0
LINE
  5
4F6
330
1E
100
AcDbEntity
  8
OBJECT
100
AcDbLine
 10
37.66772354672974
 20
27.68238185286529
 30
0.0
 11
37.58772354672975
 21
27.6543818528653
 31
0.0
  0
LINE
  5
4F7
330
1E
100
AcDbEntity
  8
OBJECT
100
AcDbLine
 10
37.98772354672975
 20
17.13038185286527
 30
0.0
 11
37.98772354672973
 21
24.86488185286527
 31
0.0
  0
LINE
  5
4F8
330
1E
100
AcDbEntity
  8
OBJECT
100
AcDbLine
 10
37.98772354672975
 20
25.97188185286527
 30
0.0
 11
37.98772354672969
 21
25.42488185286526
 31
0.0
  0
LWPOLYLINE
  5
4F9
330
1E
100
AcDbEntity
  8
OBJECT
100
AcDbPolyline
 90
        4
 70
     0
 43
0.0
 10
38.22072354672974
 20
25.06238185286532
 10
37.82772354672973
 20
25.06238185286532
 10
37.82772354672976
 20
25.22738185286528
 10
38.22072354672974
 20
25.22738185286528
  0
LWPOLYLINE
  5
4FF
330
1E
100
AcDbEntity
  8
OBJECT
100
AcDbPolyline
 90
        4
 70
     0
 43
0.0
 10
38.22072354672974
 20
16.76788185286532
 10
37.82772354672973
 20
16.76788185286532
 10
37.82772354672975
 20
16.93288185286528
 10
38.22072354672974
 20
16.93288185286528
  0
LWPOLYLINE
  5
505
330
1E
100
AcDbEntity
  8
OBJECT
100
AcDbPolyline
 90
       32
 70
     1
 43
0.0
 10
77.11949790058159
 20
25.74193479587373
 10
77.11949790058159
 20
16.6363818528653
 42
0.4142135623730968
 10
77.36949790058159
 20
16.3863818528653
 10
77.46149790058158
 20
16.3863818528653
 42
-0.414213562373094
 10
77.87949790058158
 20
15.96838185286529
 10
77.87949790058158
 20
15.87638185286529
 42
0.4142135623730968
 10
78.12949790058159
 20
15.62638185286529
 10
90.76049790058162
 20
15.62638185286529
 42
0.4142135623730948
 10
91.0104979005816
 20
15.87638185286529
 10
91.0104979005816
 20
15.96838185286529
 42
-0.4142135623730921
 10
91.42849790058162
 20
16.3863818528653
 10
91.5204979005816
 20
16.3863818528653
 42
0.4142135623730958
 10
91.77049790058161
 20
16.6363818528653
 10
91.77049790058161
 20
25.74193479587373
 42
0.4107718634144434
 10
91.42758025352277
 20
26.08891078120193
 42
-0.9883036912034885
 10
91.42758025352279
 20
26.92485292452866
 42
0.4107718634144521
 10
91.77049790058161
 20
27.27182890985684
 10
91.77049790058161
 20
36.37738185286528
 42
0.4142135623730958
 10
91.5204979005816
 20
36.62738185286527
 10
91.42849790058162
 20
36.62738185286527
 42
-0.4142135623730952
 10
91.0104979005816
 20
37.04538185286528
 10
91.0104979005816
 20
37.13738185286528
 42
0.4142135623731041
 10
90.76049790058162
 20
37.38738185286528
 10
78.12949790058159
 20
37.38738185286528
 42
0.4142135623730968
 10
77.87949790058158
 20
37.13738185286528
 10
77.87949790058158
 20
37.04538185286528
 42
-0.414213562373094
 10
77.46149790058158
 20
36.62738185286527
 10
77.36949790058159
 20
36.62738185286527
 42
0.4142135623730968
 10
77.11949790058159
 20
36.37738185286528
 10
77.11949790058159
 20
27.27182890985684
 42
0.4107718634144572
 10
77.4624155476404
 20
26.92485292452865
 42
-0.9883036912034883
 10
77.4624155476404
 20
26.08891078120193
 42
0.4107718634144542
  0
LWPOLYLINE
  5
527
330
1E
100
AcDbEntity
  8
OBJECT
100
AcDbPolyline
 90
       32
 70
     1
 43
0.0
 10
77.20149790058158
 20
25.74193479587373
 10
77.20149790058158
 20
16.6363818528653
 42
0.4142135623730951
 10
77.36949790058159
 20
16.46838185286529
 10
77.46149790058158
 20
16.46838185286529
 42
-0.4142135623730951
 10
77.96149790058158
 20
15.96838185286529
 10
77.96149790058158
 20
15.87638185286529
 42
0.4142135623730951
 10
78.12949790058159
 20
15.7083818528653
 10
90.76049790058162
 20
15.7083818528653
 42
0.4142135623730951
 10
90.92849790058162
 20
15.87638185286529
 10
90.92849790058162
 20
15.96838185286529
 42
-0.4142135623730951
 10
91.42849790058162
 20
16.46838185286529
 10
91.5204979005816
 20
16.46838185286529
 42
0.4142135623730951
 10
91.6884979005816
 20
16.6363818528653
 10
91.6884979005816
 20
25.7419347958737
 42
0.4107718634144561
 10
91.42661554764044
 20
26.00691645613878
 42
-0.988303691203521
 10
91.42661554764044
 20
27.0068472495918
 42
0.4107718634144561
 10
91.6884979005816
 20
27.27182890985684
 10
91.6884979005816
 20
36.37738185286528
 42
0.4142135623730951
 10
91.5204979005816
 20
36.54538185286528
 10
91.42849790058162
 20
36.54538185286528
 42
-0.4142135623730951
 10
90.92849790058162
 20
37.04538185286528
 10
90.92849790058162
 20
37.13738185286528
 42
0.4142135623730951
 10
90.76049790058162
 20
37.30538185286527
 10
78.12949790058159
 20
37.30538185286527
 42
0.4142135623730951
 10
77.96149790058158
 20
37.13738185286528
 10
77.96149790058158
 20
37.04538185286528
 42
-0.4142135623730951
 10
77.46149790058158
 20
36.54538185286528
 10
77.36949790058159
 20
36.54538185286528
 42
0.4142135623730951
 10
77.20149790058158
 20
36.37738185286528
 10
77.20149790058158
 20
27.27182890985684
 42
0.4107718634144561
 10
77.46338025352276
 20
27.0068472495918
 42
-0.988303691203521
 10
77.46338025352276
 20
26.00691645613878
 42
0.4107718634144561
  0
LWPOLYLINE
  5
549
330
1E
100
AcDbEntity
  8
OBJECT
100
AcDbPolyline
 90
       12
 70
     1
 43
0.0
 10
77.35999790058158
 20
27.04614639833443
 10
77.35999790058158
 20
36.44761730739616
 42
0.5889959608686523
 10
78.06212911163664
 20
37.13688185286526
 10
90.82786668952667
 20
37.13688185286528
 42
0.5889959608686519
 10
91.52999790058158
 20
36.44761730739616
 10
91.52999790058158
 20
27.0461463983344
 42
1.339787690606422
 10
91.52999790058158
 20
25.96761730739618
 10
91.52999790058158
 20
16.56614639833438
 42
0.5889959608686619
 10
90.82786668952655
 20
15.87688185286527
 10
78.06212911163664
 20
15.87688185286527
 42
0.5889959608686608
 10
77.35999790058158
 20
16.56614639833438
 10
77.35999790058158
 20
25.96761730739615
 42
1.339787690606425
  0
LWPOLYLINE
  5
557
330
1E
100
AcDbEntity
  8
OBJECT
100
AcDbPolyline
 90
        8
 70
     1
 43
0.0
 10
77.51999790058158
 20
37.54938185286527
 10
91.3699979005816
 20
37.54938185286527
 42
-0.4142135623730951
 10
91.9324979005816
 20
36.98688185286527
 10
91.9324979005816
 20
16.02688185286527
 42
-0.4142135623730951
 10
91.3699979005816
 20
15.46438185286527
 10
77.51999790058158
 20
15.46438185286527
 42
-0.4142135623730951
 10
76.95749790058158
 20
16.02688185286527
 10
76.95749790058158
 20
36.98688185286527
 42
-0.4142135623730951
  0
LWPOLYLINE
  5
561
330
1E
100
AcDbEntity
  8
OBJECT
100
AcDbPolyline
 90
        4
 70
     0
 43
0.0
 10
43.49272354672975
 20
19.03888185286529
 10
42.30472354672974
 20
19.03888185286529
 10
42.30472354672974
 20
18.53888185286529
 10
43.49272354672975
 20
18.53888185286529
  0
LWPOLYLINE
  5
567
330
1E
100
AcDbEntity
  8
HIDDEN
100
AcDbPolyline
 90
        3
 70
     0
 43
0.0
 10
42.30472354672974
 20
18.52388185286527
 10
42.30472354672974
 20
18.46734016777704
 10
43.49272354672975
 20
18.46734016777704
  0
LWPOLYLINE
  5
56C
330
1E
100
AcDbEntity
  8
HIDDEN
100
AcDbPolyline
 90
        3
 70
     0
 43
0.0
 10
42.30472354672974
 20
19.05388185286527
 10
42.30472354672974
 20
19.11042353795371
 10
43.49272354672975
 20
19.11042353795371
  0
LWPOLYLINE
  5
571
330
1E
100
AcDbEntity
  8
OBJECT
100
AcDbPolyline
 90
        4
 70
     0
 43
0.0
 10
91.52999790058158
 20
19.03888185286527
 10
91.58899790058161
 20
19.11042353795369
 10
91.58899790058161
 20
18.46734016777702
 10
91.52999790058158
 20
18.53888185286527
  0
LWPOLYLINE
  5
577
330
1E
100
AcDbEntity
  8
OBJECT
100
AcDbPolyline
 90
        4
 70
     0
 43
0.0
 10
91.52999790058158
 20
33.9748818528653
 10
91.58899790058161
 20
33.90334016777688
 10
91.58899790058161
 20
34.54642353795355
 10
91.52999790058158
 20
34.4748818528653
  0
LWPOLYLINE
  5
57D
330
1E
100
AcDbEntity
  8
OBJECT
100
AcDbPolyline
 90
        4
 70
     0
 43
0.0
 10
77.35999790058158
 20
33.9748818528653
 10
77.30099790058159
 20
33.90334016777688
 10
77.30099790058159
 20
34.54642353795355
 10
77.35999790058158
 20
34.4748818528653
  0
LWPOLYLINE
  5
583
330
1E
100
AcDbEntity
  8
OBJECT
100
AcDbPolyline
 90
        4
 70
     0
 43
0.0
 10
77.35999790058158
 20
19.03888185286527
 10
77.30099790058159
 20
19.11042353795369
 10
77.30099790058159
 20
18.46734016777702
 10
77.35999790058158
 20
18.53888185286527
  0
LWPOLYLINE
  5
589
330
1E
100
AcDbEntity
  8
OBJECT
100
AcDbPolyline
 90
        4
 70
     0
 43
0.0
 10
84.69499790058151
 20
15.87688185286527
 10
84.76653958566993
 20
15.81788185286527
 10
84.12345621549325
 20
15.81788185286527
 10
84.19499790058152
 20
15.87688185286527
  0
LWPOLYLINE
  5
58F
330
1E
100
AcDbEntity
  8
OBJECT
100
AcDbPolyline
 90
        4
 70
     0
 43
0.0
 10
84.69499790058151
 20
37.13688185286529
 10
84.76653958566993
 20
37.1958818528653
 10
84.12345621549325
 20
37.1958818528653
 10
84.19499790058152
 20
37.13688185286529
  0
LWPOLYLINE
  5
595
330
1E
100
AcDbEntity
  8
OBJECT
100
AcDbPolyline
 90
        8
 70
     1
 43
0.0
 10
49.79323249663515
 20
37.08438185286528
 10
49.79323249663515
 20
15.92938185286527
 42
0.4142135623730951
 10
50.23123249663516
 20
15.49138185286528
 10
64.27623249663517
 20
15.49138185286528
 42
0.4142135623730951
 10
64.71423249663516
 20
15.92938185286527
 10
64.71423249663516
 20
37.08438185286528
 42
0.4142135623730951
 10
64.27623249663517
 20
37.52238185286528
 10
50.23123249663515
 20
37.52238185286528
 42
0.4142135623730951
  0
CIRCLE
  5
59F
330
1E
100
AcDbEntity
  8
OBJECT
100
AcDbCircle
 10
64.24573249663521
 20
26.50688185286528
 30
0.0
 40
0.345
  0
LWPOLYLINE
  5
5A0
330
1E
100
AcDbEntity
  8
OBJECT
100
AcDbPolyline
 90
        4
 70
     1
 43
0.0
 10
64.05823249663521
 20
26.75688185286529
 10
64.05823249663521
 20
26.25688185286529
 42
0.3333333333333333
 10
64.43323249663521
 20
26.25688185286531
 10
64.43323249663521
 20
26.75688185286528
 42
0.3333333333333333
  0
LWPOLYLINE
  5
5A6
330
1E
100
AcDbEntity
  8
OBJECT
100
AcDbPolyline
 90
        6
 70
     0
 43
0.0
 10
63.62073249663521
 20
37.28038185286529
 42
-0.4142135623730951
 10
63.74573249663521
 20
37.15538185286529
 10
63.74573249663521
 20
37.05388185286531
 42
0.4142135623730951
 10
64.24573249663518
 20
36.55388185286531
 10
64.34723249663517
 20
36.55388185286531
 42
-0.4142135623730951
 10
64.47223249663517
 20
36.42888185286531
  0
LWPOLYLINE
  5
5AE
330
1E
100
AcDbEntity
  8
OBJECT
100
AcDbPolyline
 90
        6
 70
     0
 43
0.0
 10
50.88673249663511
 20
37.28038185286529
 42
0.4142135623730951
 10
50.76173249663512
 20
37.15538185286529
 10
50.76173249663512
 20
37.05388185286531
 42
-0.4142135623730951
 10
50.26173249663512
 20
36.55388185286531
 10
50.16023249663514
 20
36.55388185286531
 42
0.4142135623730951
 10
50.03523249663514
 20
36.42888185286531
  0
LWPOLYLINE
  5
5B6
330
1E
100
AcDbEntity
  8
OBJECT
100
AcDbPolyline
 90
        6
 70
     0
 43
0.0
 10
64.47223249663517
 20
27.13188185286528
 42
-0.4142135623730951
 10
64.34723249663517
 20
27.00688185286528
 10
64.24573249663518
 20
27.00688185286528
 42
0.9999999999999714
 10
64.24573249663518
 20
26.00688185286528
 10
64.34723249663517
 20
26.00688185286528
 42
-0.4142135623730951
 10
64.47223249663517
 20
25.88188185286528
  0
LWPOLYLINE
  5
5BE
330
1E
100
AcDbEntity
  8
OBJECT
100
AcDbPolyline
 90
        6
 70
     0
 43
0.0
 10
50.88673249663511
 20
15.73338185286528
 42
-0.4142135623730951
 10
50.76173249663512
 20
15.85838185286528
 10
50.76173249663512
 20
15.95988185286526
 42
0.4142135623730951
 10
50.26173249663512
 20
16.45988185286526
 10
50.16023249663514
 20
16.45988185286526
 42
-0.4142135623730951
 10
50.03523249663514
 20
16.58488185286526
  0
LWPOLYLINE
  5
5C6
330
1E
100
AcDbEntity
  8
OBJECT
100
AcDbPolyline
 90
        6
 70
     0
 43
0.0
 10
63.62073249663521
 20
15.73338185286528
 42
0.4142135623730951
 10
63.74573249663521
 20
15.85838185286528
 10
63.74573249663521
 20
15.95988185286526
 42
-0.4142135623730951
 10
64.24573249663518
 20
16.45988185286526
 10
64.34723249663517
 20
16.45988185286526
 42
0.4142135623730951
 10
64.47223249663517
 20
16.58488185286526
  0
LWPOLYLINE
  5
5CE
330
1E
100
AcDbEntity
  8
OBJECT
100
AcDbPolyline
 90
        6
 70
     0
 43
0.0
 10
50.03523249663514
 20
27.13188185286528
 42
0.4142135623730951
 10
50.16023249663514
 20
27.00688185286528
 10
50.26173249663512
 20
27.00688185286528
 42
-0.9999999999999714
 10
50.26173249663512
 20
26.00688185286528
 10
50.16023249663514
 20
26.00688185286528
 42
0.4142135623730951
 10
50.03523249663514
 20
25.88188185286528
  0
CIRCLE
  5
5D6
330
1E
100
AcDbEntity
  8
OBJECT
100
AcDbCircle
 10
50.2617324966351
 20
26.50688185286528
 30
0.0
 40
0.345
  0
LWPOLYLINE
  5
5D7
330
1E
100
AcDbEntity
  8
OBJECT
100
AcDbPolyline
 90
        4
 70
     1
 43
0.0
 10
50.4492324966351
 20
26.75688185286529
 10
50.4492324966351
 20
26.25688185286529
 42
-0.3333333333333333
 10
50.0742324966351
 20
26.25688185286531
 10
50.0742324966351
 20
26.75688185286528
 42
-0.3333333333333333
  0
CIRCLE
  5
5DD
330
1E
100
AcDbEntity
  8
HIDDEN
100
AcDbCircle
 10
50.2617324966351
 20
26.50688185286528
 30
0.0
 40
0.39
  0
LWPOLYLINE
  5
5DE
330
1E
100
AcDbEntity
  8
HIDDEN
100
AcDbPolyline
 90
       36
 70
     1
 43
0.0
 10
50.2617324966352
 20
27.14388185286528
 10
50.23723249663515
 20
27.14388185286528
 42
-0.4142135623730951
 10
50.14323249663515
 20
27.23788185286527
 10
50.14323249663514
 20
36.32570987909657
 42
-0.4142135623731173
 10
50.23723249663515
 20
36.41970987909658
 10
50.26173249663512
 20
36.41970987909658
 42
0.4142135623730951
 10
50.89590447040394
 20
37.05388185286531
 10
50.89590447040394
 20
37.07838185286528
 42
-0.4142135623731173
 10
50.98990447040393
 20
37.17238185286529
 10
63.51756052286638
 20
37.17238185286527
 42
-0.4142135623731173
 10
63.61156052286637
 20
37.07838185286528
 10
63.61156052286637
 20
37.05388185286531
 42
0.4142135623730951
 10
64.24573249663518
 20
36.41970987909658
 10
64.27023249663514
 20
36.41970987909658
 42
-0.4142135623731173
 10
64.36423249663514
 20
36.32570987909657
 10
64.36423249663514
 20
27.23788185286527
 42
-0.4142135623730951
 10
64.27023249663514
 20
27.14388185286528
 10
64.24573249663509
 20
27.14388185286528
 42
0.9999999999998603
 10
64.24573249663521
 20
25.86988185286528
 10
64.27023249663514
 20
25.86988185286528
 42
-0.4142135623731061
 10
64.36423249663514
 20
25.7758818528653
 10
64.36423249663514
 20
16.688053826634
 42
-0.4142135623731173
 10
64.27023249663514
 20
16.59405382663399
 10
64.24573249663518
 20
16.59405382663399
 42
0.4142135623730951
 10
63.61156052286637
 20
15.95988185286526
 10
63.61156052286637
 20
15.93538185286529
 42
-0.4142135623731173
 10
63.51756052286638
 20
15.84138185286529
 10
50.98990447040393
 20
15.84138185286528
 42
-0.4142135623731173
 10
50.89590447040394
 20
15.93538185286529
 10
50.89590447040394
 20
15.95988185286526
 42
0.4142135623730951
 10
50.26173249663512
 20
16.59405382663399
 10
50.23723249663515
 20
16.59405382663399
 42
-0.4142135623731173
 10
50.14323249663514
 20
16.688053826634
 10
50.14323249663515
 20
25.7758818528653
 42
-0.4142135623731061
 10
50.23723249663515
 20
25.86988185286528
 10
50.2617324966351
 20
25.86988185286528
 42
0.9999999999998605
  0
LWPOLYLINE
  5
604
330
1E
100
AcDbEntity
  8
HIDDEN
100
AcDbPolyline
 90
       36
 70
     1
 43
0.0
 10
50.26173249663515
 20
27.07888185286528
 10
50.23723249663514
 20
27.07888185286528
 42
-0.414213562373054
 10
50.07823249663516
 20
27.23788185286527
 10
50.07823249663514
 20
36.32570987909657
 42
-0.4142135623730867
 10
50.23723249663515
 20
36.48470987909657
 10
50.26173249663515
 20
36.48470987909657
 42
0.4142135623730791
 10
50.83090447040394
 20
37.05388185286531
 10
50.83090447040394
 20
37.07838185286528
 42
-0.4142135623730998
 10
50.98990447040393
 20
37.23738185286529
 10
63.51756052286638
 20
37.23738185286529
 42
-0.4142135623730998
 10
63.67656052286637
 20
37.07838185286528
 10
63.67656052286637
 20
37.05388185286535
 42
0.4142135623730974
 10
64.24573249663516
 20
36.48470987909657
 10
64.27023249663514
 20
36.48470987909657
 42
-0.4142135623730867
 10
64.42923249663514
 20
36.32570987909657
 10
64.42923249663514
 20
27.23788185286527
 42
-0.4142135623730606
 10
64.27023249663517
 20
27.07888185286528
 10
64.24573249663524
 20
27.07888185286528
 42
0.9999999317483524
 10
64.24573249663524
 20
25.93488185286528
 10
64.27023249663517
 20
25.93488185286528
 42
-0.4142135623730868
 10
64.42923249663514
 20
25.77588185286528
 10
64.42923249663514
 20
16.688053826634
 42
-0.4142135623730932
 10
64.27023249663514
 20
16.52905382663399
 10
64.24573249663516
 20
16.52905382663399
 42
0.4142135623730956
 10
63.67656052286637
 20
15.95988185286522
 10
63.67656052286637
 20
15.93538185286529
 42
-0.4142135623730933
 10
63.51756052286638
 20
15.77638185286528
 10
50.98990447040393
 20
15.77638185286528
 42
-0.4142135623730868
 10
50.83090447040394
 20
15.93538185286527
 10
50.83090447040394
 20
15.95988185286522
 42
0.4142135623730956
 10
50.26173249663515
 20
16.52905382663399
 10
50.23723249663515
 20
16.52905382663399
 42
-0.4142135623730932
 10
50.07823249663514
 20
16.688053826634
 10
50.07823249663516
 20
25.77588185286528
 42
-0.4142135623730998
 10
50.23723249663514
 20
25.93488185286528
 10
50.26173249663507
 20
25.93488185286528
 42
1.0
  0
LWPOLYLINE
  5
62A
330
1E
100
AcDbEntity
  8
HIDDEN
100
AcDbPolyline
 90
       36
 70
     1
 43
0.0
 10
50.26173249663515
 20
26.89688185286528
 10
50.23723249663511
 20
26.89688185286528
 42
-0.41421356237305
 10
49.89623249663516
 20
27.23788185286527
 10
49.89623249663516
 20
36.32570987909657
 42
-0.4142135623730987
 10
50.23723249663515
 20
36.66670987909657
 10
50.26173249663517
 20
36.66670987909657
 42
0.4142135623730758
 10
50.64890447040394
 20
37.05388185286531
 10
50.64890447040394
 20
37.07838185286529
 42
-0.4142135623730988
 10
50.98990447040393
 20
37.41938185286529
 10
63.51756052286638
 20
37.41938185286529
 42
-0.4142135623731049
 10
63.85856052286638
 20
37.07838185286529
 10
63.85856052286635
 20
37.05388185286546
 42
0.4142135623731779
 10
64.24573249663516
 20
36.66670987909657
 10
64.27023249663514
 20
36.66670987909657
 42
-0.4142135623730987
 10
64.61123249663515
 20
36.32570987909657
 10
64.61123249663515
 20
27.23788185286527
 42
-0.4142135623730988
 10
64.27023249663514
 20
26.89688185286528
 10
64.24573253567519
 20
26.89688185286528
 42
1.0
 10
64.24573253567519
 20
26.11688185286528
 10
64.27023249663514
 20
26.11688185286528
 42
-0.4142135623730958
 10
64.61123249663515
 20
25.77588185286528
 10
64.61123249663515
 20
16.688053826634
 42
-0.4142135623730987
 10
64.27023249663514
 20
16.34705382663399
 10
64.24573249663516
 20
16.34705382663399
 42
0.4142135623730918
 10
63.85856052286638
 20
15.95988185286522
 10
63.85856052286635
 20
15.93538185286519
 42
-0.4142135623730133
 10
63.51756052286638
 20
15.59438185286529
 10
50.98990447040393
 20
15.59438185286528
 42
-0.4142135623730958
 10
50.64890447040394
 20
15.93538185286527
 10
50.64890447040394
 20
15.95988185286522
 42
0.4142135623730919
 10
50.26173249663515
 20
16.34705382663399
 10
50.23723249663515
 20
16.34705382663399
 42
-0.4142135623730927
 10
49.89623249663516
 20
16.688053826634
 10
49.89623249663516
 20
25.7758818528653
 42
-0.4142135623731415
 10
50.23723249663519
 20
26.11688185286528
 10
50.26173249663504
 20
26.11688185286528
 42
1.0
  0
LINE
  5
650
330
1E
100
AcDbEntity
  8
CENTER
100
AcDbLine
 10
14.44252436847295
 20
14.96438185286529
 30
0.0
 11
14.44252436847295
 21
38.04938185286527
 31
0.0
  0
LWPOLYLINE
  5
651
330
1E
100
AcDbEntity
  8
OBJECT
100
AcDbPolyline
 90
        8
 70
     1
 43
0.0
 10
7.517524368472948
 20
37.54938185286527
 10
21.36752436847296
 20
37.54938185286527
 42
-0.4142135623730951
 10
21.93002436847297
 20
36.98688185286527
 10
21.93002436847297
 20
16.02688185286527
 42
-0.4142135623730951
 10
21.36752436847296
 20
15.46438185286527
 10
7.517524368472948
 20
15.46438185286527
 42
-0.4142135623730951
 10
6.955024368472948
 20
16.02688185286527
 10
6.955024368472948
 20
36.98688185286527
 42
-0.4142135623730951
  0
LINE
  5
65B
330
1E
100
AcDbEntity
  8
CENTER
100
AcDbLine
 10
6.455024368472948
 20
26.50688185286528
 30
0.0
 11
22.43002436847298
 21
26.50688185286528
 31
0.0
  0
LWPOLYLINE
  5
65C
330
1E
100
AcDbEntity
  8
OBJECT
100
AcDbPolyline
 90
       12
 70
     1
 43
0.0
 10
7.333524368472978
 20
26.88206180968599
 10
7.333524368472978
 20
36.66270189604453
 42
-1.559043244605161
 10
7.811236164786848
 20
37.19388185286528
 10
21.07381257215905
 20
37.19388185286528
 42
-1.559043244605172
 10
21.55152436847294
 20
36.66270189604453
 10
21.55152436847292
 20
26.88206180968599
 42
-0.7356469741582992
 10
21.55152436847292
 20
26.13170189604456
 10
21.55152436847294
 20
16.35106180968603
 42
-1.559043244605172
 10
21.07381257215905
 20
15.81988185286528
 10
7.811236164786848
 20
15.81988185286528
 42
-1.559043244605161
 10
7.333524368472978
 20
16.35106180968603
 10
7.333524368472978
 20
26.13170189604456
 42
-0.7356469741582992
  0
LWPOLYLINE
  5
66A
330
1E
100
AcDbEntity
  8
OBJECT
100
AcDbPolyline
 90
        4
 70
     1
 43
0.0
 10
43.41172354672968
 20
27.93688185286527
 10
43.41172354672968
 20
27.56988185286528
 10
43.28072354672969
 20
27.56988185286528
 10
43.28072354672968
 20
27.93688185286527
  0
LWPOLYLINE
  5
670
330
1E
100
AcDbEntity
  8
OBJECT
100
AcDbPolyline
 90
        4
 70
     1
 43
0.0
 10
43.41172354672968
 20
28.46688185286527
 10
43.41172354672968
 20
28.09988185286528
 10
43.28072354672969
 20
28.09988185286528
 10
43.28072354672968
 20
28.46688185286527
  0
LWPOLYLINE
  5
676
330
1E
100
AcDbEntity
  8
OBJECT
100
AcDbPolyline
 90
        4
 70
     1
 43
0.0
 10
43.41172354672968
 20
28.99688185286527
 10
43.41172354672968
 20
28.62988185286528
 10
43.28072354672969
 20
28.62988185286528
 10
43.28072354672968
 20
28.99688185286527
  0
LWPOLYLINE
  5
67C
330
1E
100
AcDbEntity
  8
OBJECT
100
AcDbPolyline
 90
        4
 70
     1
 43
0.0
 10
43.41172354672968
 20
29.52688185286528
 10
43.41172354672968
 20
29.15988185286528
 10
43.28072354672969
 20
29.15988185286528
 10
43.28072354672968
 20
29.52688185286528
  0
LWPOLYLINE
  5
682
330
1E
100
AcDbEntity
  8
OBJECT
100
AcDbPolyline
 90
        4
 70
     1
 43
0.0
 10
43.41172354672968
 20
30.05688185286528
 10
43.41172354672968
 20
29.68988185286529
 10
43.28072354672969
 20
29.68988185286529
 10
43.28072354672968
 20
30.05688185286528
  0
LWPOLYLINE
  5
688
330
1E
100
AcDbEntity
  8
OBJECT
100
AcDbPolyline
 90
        4
 70
     1
 43
0.0
 10
43.41172354672968
 20
30.58688185286528
 10
43.41172354672968
 20
30.21988185286529
 10
43.28072354672969
 20
30.21988185286529
 10
43.28072354672968
 20
30.58688185286528
  0
LWPOLYLINE
  5
68E
330
1E
100
AcDbEntity
  8
OBJECT
100
AcDbPolyline
 90
        4
 70
     1
 43
0.0
 10
43.41172354672968
 20
31.11688185286528
 10
43.41172354672968
 20
30.74988185286529
 10
43.28072354672969
 20
30.74988185286529
 10
43.28072354672968
 20
31.11688185286528
  0
LWPOLYLINE
  5
694
330
1E
100
AcDbEntity
  8
OBJECT
100
AcDbPolyline
 90
        4
 70
     1
 43
0.0
 10
43.41172354672968
 20
31.64688185286528
 10
43.41172354672968
 20
31.27988185286529
 10
43.28072354672969
 20
31.27988185286529
 10
43.28072354672968
 20
31.64688185286528
  0
LWPOLYLINE
  5
69A
330
1E
100
AcDbEntity
  8
OBJECT
100
AcDbPolyline
 90
        4
 70
     1
 43
0.0
 10
43.41172354672968
 20
32.17688185286528
 10
43.41172354672968
 20
31.80988185286529
 10
43.28072354672969
 20
31.80988185286529
 10
43.28072354672968
 20
32.17688185286528
  0
LWPOLYLINE
  5
6A0
330
1E
100
AcDbEntity
  8
OBJECT
100
AcDbPolyline
 90
        4
 70
     1
 43
0.0
 10
43.41172354672968
 20
32.70688185286529
 10
43.41172354672968
 20
32.33988185286529
 10
43.28072354672969
 20
32.33988185286529
 10
43.28072354672968
 20
32.70688185286529
  0
LWPOLYLINE
  5
6A6
330
1E
100
AcDbEntity
  8
OBJECT
100
AcDbPolyline
 90
        4
 70
     1
 43
0.0
 10
43.41172354672968
 20
33.23688185286528
 10
43.41172354672968
 20
32.8698818528653
 10
43.28072354672969
 20
32.8698818528653
 10
43.28072354672968
 20
33.23688185286528
  0
LWPOLYLINE
  5
6AC
330
1E
100
AcDbEntity
  8
OBJECT
100
AcDbPolyline
 90
        4
 70
     1
 43
0.0
 10
43.41172354672968
 20
33.76688185286528
 10
43.41172354672968
 20
33.39988185286528
 10
43.28072354672969
 20
33.39988185286528
 10
43.28072354672968
 20
33.76688185286528
  0
LWPOLYLINE
  5
6B2
330
1E
100
AcDbEntity
  8
OBJECT
100
AcDbPolyline
 90
        4
 70
     1
 43
0.0
 10
43.41172354672968
 20
34.29688185286529
 10
43.41172354672968
 20
33.92988185286528
 10
43.28072354672969
 20
33.92988185286528
 10
43.28072354672968
 20
34.29688185286529
  0
LWPOLYLINE
  5
6B8
330
1E
100
AcDbEntity
  8
OBJECT
100
AcDbPolyline
 90
        4
 70
     1
 43
0.0
 10
43.41172354672968
 20
34.82688185286529
 10
43.41172354672968
 20
34.45988185286529
 10
43.28072354672969
 20
34.45988185286529
 10
43.28072354672968
 20
34.82688185286529
  0
LWPOLYLINE
  5
6BE
330
1E
100
AcDbEntity
  8
OBJECT
100
AcDbPolyline
 90
        4
 70
     1
 43
0.0
 10
43.41172354672968
 20
35.35688185286529
 10
43.41172354672968
 20
34.98988185286528
 10
43.28072354672969
 20
34.98988185286528
 10
43.28072354672968
 20
35.35688185286529
  0
LWPOLYLINE
  5
6C4
330
1E
100
AcDbEntity
  8
OBJECT
100
AcDbPolyline
 90
        4
 70
     1
 43
0.0
 10
43.41172354672968
 20
35.88688185286529
 10
43.41172354672968
 20
35.51988185286528
 10
43.28072354672969
 20
35.51988185286528
 10
43.28072354672968
 20
35.88688185286529
  0
LWPOLYLINE
  5
6CA
330
1E
100
AcDbEntity
  8
OBJECT
100
AcDbPolyline
 90
        4
 70
     0
 43
0.0
 10
43.41172354672988
 20
37.02257472535563
 10
43.41172354672968
 20
36.04988185286529
 10
43.28072354672969
 20
36.04988185286529
 10
43.28072354672986
 20
37.02257472535563
  0
LWPOLYLINE
  5
6D0
330
1E
100
AcDbEntity
  8
OBJECT
100
AcDbPolyline
 90
        4
 70
     0
 43
0.0
 10
43.28072354672969
 20
26.61925731031036
 10
43.28072354672969
 20
27.40688185286528
 10
43.41172354672969
 20
27.40688185286528
 10
43.41172354672964
 20
26.61925731031036
  0
LWPOLYLINE
  5
6D6
330
1E
100
AcDbEntity
  8
BEND
100
AcDbPolyline
 90
       10
 70
     0
 43
0.0
 10
45.20272354672974
 20
26.50688185286529
 10
42.65827678963547
 20
26.50688185286529
 10
42.52993471241482
 20
26.73317361586999
 10
42.47289378920563
 20
26.31976979169178
 10
42.37307217358954
 20
26.50688185286529
 10
38.95447596930379
 20
26.50688185286526
 10
38.82613389208314
 20
26.73317361586996
 10
38.76909296887392
 20
26.31976979169175
 10
38.66927135325786
 20
26.50688185286526
 10
37.16772354672974
 20
26.50688185286526
  0
LINE
  5
6E2
330
1E
100
AcDbEntity
  8
OBJECT
100
AcDbLine
 10
38.51072354672975
 20
26.19538185286527
 30
0.0
 11
38.50291291654712
 21
26.30597327567855
 31
0.0
  0
LINE
  5
6E3
330
1E
100
AcDbEntity
  8
OBJECT
100
AcDbLine
 10
38.54388387943145
 20
26.3719432847443
 30
0.0
 11
38.55472354672974
 21
26.24088185286527
 31
0.0
  0
LWPOLYLINE
  5
6E4
330
1E
100
AcDbEntity
  8
OBJECT
100
AcDbPolyline
 90
      129
 70
     0
 43
0.0
 10
37.87872354672965
 20
26.2119273074108
 10
37.89472354672975
 20
26.19538185286524
 10
37.93872354672974
 20
26.24088185286524
 10
37.98272354672975
 20
26.19538185286524
 10
38.02672354672976
 20
26.24088185286524
 10
38.07072354672974
 20
26.19538185286524
 10
38.11472354672975
 20
26.24088185286524
 10
38.15872354672974
 20
26.19538185286524
 10
38.20272354672975
 20
26.24088185286524
 10
38.24672354672973
 20
26.19538185286524
 10
38.29072354672974
 20
26.24088185286524
 10
38.33472354672975
 20
26.19538185286524
 10
38.37872354672974
 20
26.24088185286524
 10
38.42272354672974
 20
26.19538185286524
 10
38.46672354672976
 20
26.24088185286524
 10
38.51072354672974
 20
26.19538185286524
 10
38.55472354672974
 20
26.24088185286527
 10
38.59872354672973
 20
26.19538185286524
 10
38.64272354672971
 20
26.24088185286524
 10
38.68672354672973
 20
26.19538185286524
 10
38.73072354672974
 20
26.24088185286524
 10
38.77472354672972
 20
26.19538185286524
 10
38.81872354672973
 20
26.24088185286524
 10
38.86272354672971
 20
26.19538185286524
 10
38.90672354672973
 20
26.24088185286524
 10
38.95072354672971
 20
26.19538185286524
 10
38.99472354672972
 20
26.24088185286524
 10
39.0387235467297
 20
26.19538185286524
 10
39.08272354672972
 20
26.24088185286524
 10
39.1267235467297
 20
26.19538185286524
 10
39.17072354672971
 20
26.24088185286524
 10
39.21472354672972
 20
26.19538185286524
 10
39.2587235467297
 20
26.24088185286524
 10
39.30272354672971
 20
26.19538185286524
 10
39.34672354672972
 20
26.24088185286524
 10
39.39072354672971
 20
26.19538185286524
 10
39.43472354672972
 20
26.24088185286524
 10
39.4787235467297
 20
26.19538185286524
 10
39.52272354672971
 20
26.24088185286524
 10
39.56672354672972
 20
26.19538185286524
 10
39.61072354672971
 20
26.24088185286524
 10
39.65472354672971
 20
26.19538185286524
 10
39.6987235467297
 20
26.24088185286524
 10
39.74272354672968
 20
26.19538185286524
 10
39.78672354672969
 20
26.24088185286524
 10
39.8307235467297
 20
26.19538185286524
 10
39.87472354672969
 20
26.24088185286524
 10
39.9187235467297
 20
26.19538185286524
 10
39.96272354672968
 20
26.24088185286524
 10
40.00672354672969
 20
26.19538185286524
 10
40.05072354672967
 20
26.24088185286524
 10
40.09472354672968
 20
26.19538185286524
 10
40.1387235467297
 20
26.24088185286524
 10
40.18272354672968
 20
26.19538185286524
 10
40.22672354672969
 20
26.24088185286524
 10
40.2707235467297
 20
26.19538185286524
 10
40.31472354672969
 20
26.24088185286524
 10
40.3587235467297
 20
26.19538185286524
 10
40.4027235467297
 20
26.24088185286524
 10
40.44672354672969
 20
26.19538185286524
 10
40.4907235467297
 20
26.24088185286524
 10
40.53472354672968
 20
26.19538185286524
 10
40.57872354672969
 20
26.24088185286524
 10
40.62272354672971
 20
26.19538185286524
 10
40.66672354672969
 20
26.24088185286524
 10
40.7107235467297
 20
26.19538185286524
 10
40.75472354672968
 20
26.24088185286524
 10
40.79872354672967
 20
26.19538185286524
 10
40.84272354672967
 20
26.24088185286524
 10
40.88672354672969
 20
26.19538185286524
 10
40.93072354672967
 20
26.24088185286524
 10
40.97472354672968
 20
26.19538185286524
 10
41.01872354672966
 20
26.24088185286524
 10
41.06272354672968
 20
26.19538185286524
 10
41.10672354672966
 20
26.24088185286524
 10
41.15072354672967
 20
26.19538185286524
 10
41.19472354672968
 20
26.24088185286524
 10
41.23872354672966
 20
26.19538185286524
 10
41.28272354672968
 20
26.24088185286524
 10
41.32672354672966
 20
26.19538185286524
 10
41.37072354672967
 20
26.24088185286524
 10
41.41472354672968
 20
26.19538185286524
 10
41.45872354672966
 20
26.24088185286524
 10
41.50272354672967
 20
26.19538185286524
 10
41.54672354672968
 20
26.24088185286524
 10
41.59072354672967
 20
26.19538185286524
 10
41.63472354672967
 20
26.24088185286524
 10
41.67872354672966
 20
26.19538185286524
 10
41.72272354672967
 20
26.24088185286524
 10
41.76672354672969
 20
26.19538185286524
 10
41.81072354672966
 20
26.24088185286524
 10
41.85472354672968
 20
26.19538185286524
 10
41.89872354672969
 20
26.24088185286524
 10
41.94272354672967
 20
26.19538185286524
 10
41.98672354672968
 20
26.24088185286524
 10
42.03072354672967
 20
26.19538185286524
 10
42.07472354672968
 20
26.24088185286524
 10
42.11872354672968
 20
26.19538185286524
 10
42.16272354672967
 20
26.24088185286524
 10
42.20672354672968
 20
26.19538185286524
 10
42.25072354672966
 20
26.24088185286524
 10
42.29472354672967
 20
26.19538185286524
 10
42.33872354672966
 20
26.24088185286524
 10
42.38272354672967
 20
26.19538185286524
 10
42.42672354672968
 20
26.24088185286524
 10
42.47072354672966
 20
26.19538185286524
 10
42.51472354672968
 20
26.24088185286524
 10
42.55872354672965
 20
26.19538185286524
 10
42.60272354672967
 20
26.24088185286524
 10
42.64672354672968
 20
26.19538185286524
 10
42.69072354672966
 20
26.24088185286524
 10
42.73472354672967
 20
26.19538185286524
 10
42.77872354672968
 20
26.24088185286524
 10
42.82272354672967
 20
26.19538185286524
 10
42.86672354672968
 20
26.24088185286524
 10
42.91072354672966
 20
26.19538185286524
 10
42.95472354672967
 20
26.24088185286524
 10
42.99872354672968
 20
26.19538185286524
 10
43.05272354672966
 20
26.24088185286524
 10
43.09672354672967
 20
26.19538185286524
 10
43.14072354672968
 20
26.24088185286524
 10
43.18472354672966
 20
26.19538185286524
 10
43.22872354672967
 20
26.24088185286524
 10
43.27272354672966
 20
26.19538185286524
 10
43.31672354672966
 20
26.24088185286524
 10
43.36072354672965
 20
26.19538185286524
 10
43.40472354672966
 20
26.24088185286524
 10
43.44872354672964
 20
26.19538185286524
 10
43.49272354672975
 20
26.24088185286536
  0
LINE
  5
767
330
1E
100
AcDbEntity
  8
OBJECT
100
AcDbLine
 10
44.47272354672973
 20
27.00688185286528
 30
0.0
 11
43.79872354672975
 21
27.00688185286528
 31
0.0
  0
ARC
  5
768
330
1E
100
AcDbEntity
  8
OBJECT
100
AcDbCircle
 10
44.47272354672973
 20
25.77688185286527
 30
0.0
 40
0.2300000000000111
100
AcDbArc
 50
0.0
 51
90.0
  0
LWPOLYLINE
  5
769
330
1E
100
AcDbEntity
  8
OBJECT
100
AcDbPolyline
 90
      129
 70
     0
 43
0.0
 10
37.87872354672976
 20
15.68092730741088
 10
37.89472354672986
 20
15.66438185286532
 10
37.93872354672985
 20
15.70988185286532
 10
37.98272354672985
 20
15.66438185286532
 10
38.02672354672986
 20
15.70988185286532
 10
38.07072354672984
 20
15.66438185286532
 10
38.11472354672985
 20
15.70988185286532
 10
38.15872354672985
 20
15.66438185286532
 10
38.20272354672985
 20
15.70988185286532
 10
38.24672354672984
 20
15.66438185286532
 10
38.29072354672986
 20
15.70988185286532
 10
38.33472354672985
 20
15.66438185286532
 10
38.37872354672985
 20
15.70988185286532
 10
38.42272354672985
 20
15.66438185286532
 10
38.46672354672985
 20
15.70988185286532
 10
38.51072354672986
 20
15.66438185286532
 10
38.55472354672985
 20
15.70988185286532
 10
38.59872354672983
 20
15.66438185286532
 10
38.64272354672983
 20
15.70988185286532
 10
38.68672354672983
 20
15.66438185286532
 10
38.73072354672984
 20
15.70988185286532
 10
38.77472354672983
 20
15.66438185286532
 10
38.81872354672983
 20
15.70988185286532
 10
38.86272354672983
 20
15.66438185286532
 10
38.90672354672982
 20
15.70988185286532
 10
38.95072354672982
 20
15.66438185286532
 10
38.99472354672982
 20
15.70988185286532
 10
39.03872354672982
 20
15.66438185286532
 10
39.08272354672983
 20
15.70988185286532
 10
39.12672354672981
 20
15.66438185286532
 10
39.17072354672982
 20
15.70988185286532
 10
39.21472354672982
 20
15.66438185286532
 10
39.25872354672982
 20
15.70988185286532
 10
39.30272354672981
 20
15.66438185286532
 10
39.34672354672983
 20
15.70988185286532
 10
39.39072354672982
 20
15.66438185286532
 10
39.43472354672982
 20
15.70988185286532
 10
39.47872354672981
 20
15.66438185286532
 10
39.52272354672983
 20
15.70988185286532
 10
39.56672354672982
 20
15.66438185286532
 10
39.61072354672982
 20
15.70988185286532
 10
39.6547235467298
 20
15.66438185286532
 10
39.6987235467298
 20
15.70988185286532
 10
39.74272354672979
 20
15.66438185286532
 10
39.78672354672981
 20
15.70988185286532
 10
39.8307235467298
 20
15.66438185286532
 10
39.8747235467298
 20
15.70988185286532
 10
39.9187235467298
 20
15.66438185286532
 10
39.9627235467298
 20
15.70988185286532
 10
40.00672354672979
 20
15.66438185286532
 10
40.05072354672979
 20
15.70988185286532
 10
40.09472354672978
 20
15.66438185286532
 10
40.13872354672979
 20
15.70988185286532
 10
40.18272354672979
 20
15.66438185286532
 10
40.2267235467298
 20
15.70988185286532
 10
40.2707235467298
 20
15.66438185286532
 10
40.3147235467298
 20
15.70988185286532
 10
40.3587235467298
 20
15.66438185286532
 10
40.40272354672981
 20
15.70988185286532
 10
40.44672354672981
 20
15.66438185286532
 10
40.4907235467298
 20
15.70988185286532
 10
40.5347235467298
 20
15.66438185286532
 10
40.57872354672981
 20
15.70988185286532
 10
40.6227235467298
 20
15.66438185286532
 10
40.6667235467298
 20
15.70988185286532
 10
40.71072354672979
 20
15.66438185286532
 10
40.75472354672978
 20
15.70988185286532
 10
40.79872354672978
 20
15.66438185286532
 10
40.84272354672979
 20
15.70988185286532
 10
40.88672354672978
 20
15.66438185286532
 10
40.93072354672979
 20
15.70988185286532
 10
40.97472354672978
 20
15.66438185286532
 10
41.01872354672978
 20
15.70988185286532
 10
41.06272354672977
 20
15.66438185286532
 10
41.10672354672977
 20
15.70988185286532
 10
41.15072354672977
 20
15.66438185286532
 10
41.19472354672978
 20
15.70988185286532
 10
41.23872354672978
 20
15.66438185286532
 10
41.28272354672978
 20
15.70988185286532
 10
41.32672354672977
 20
15.66438185286532
 10
41.37072354672978
 20
15.70988185286532
 10
41.41472354672978
 20
15.66438185286532
 10
41.45872354672977
 20
15.70988185286532
 10
41.50272354672977
 20
15.66438185286532
 10
41.54672354672978
 20
15.70988185286532
 10
41.59072354672978
 20
15.66438185286532
 10
41.63472354672978
 20
15.70988185286532
 10
41.67872354672978
 20
15.66438185286532
 10
41.72272354672979
 20
15.70988185286532
 10
41.76672354672978
 20
15.66438185286532
 10
41.81072354672978
 20
15.70988185286532
 10
41.85472354672977
 20
15.66438185286532
 10
41.89872354672979
 20
15.70988185286532
 10
41.94272354672978
 20
15.66438185286532
 10
41.98672354672978
 20
15.70988185286532
 10
42.03072354672978
 20
15.66438185286532
 10
42.07472354672979
 20
15.70988185286532
 10
42.11872354672979
 20
15.66438185286532
 10
42.16272354672979
 20
15.70988185286532
 10
42.20672354672978
 20
15.66438185286532
 10
42.25072354672978
 20
15.70988185286532
 10
42.29472354672977
 20
15.66438185286532
 10
42.33872354672977
 20
15.70988185286532
 10
42.38272354672977
 20
15.66438185286532
 10
42.42672354672978
 20
15.70988185286532
 10
42.47072354672978
 20
15.66438185286532
 10
42.51472354672977
 20
15.70988185286532
 10
42.55872354672977
 20
15.66438185286532
 10
42.60272354672978
 20
15.70988185286532
 10
42.64672354672978
 20
15.66438185286532
 10
42.69072354672977
 20
15.70988185286532
 10
42.73472354672978
 20
15.66438185286532
 10
42.77872354672978
 20
15.70988185286532
 10
42.82272354672978
 20
15.66438185286532
 10
42.86672354672978
 20
15.70988185286532
 10
42.91072354672977
 20
15.66438185286532
 10
42.95472354672979
 20
15.70988185286532
 10
42.99872354672978
 20
15.66438185286532
 10
43.05272354672977
 20
15.70988185286532
 10
43.09672354672977
 20
15.66438185286532
 10
43.14072354672978
 20
15.70988185286532
 10
43.18472354672977
 20
15.66438185286532
 10
43.22872354672977
 20
15.70988185286532
 10
43.27272354672976
 20
15.66438185286532
 10
43.31672354672977
 20
15.70988185286532
 10
43.36072354672976
 20
15.66438185286532
 10
43.40472354672976
 20
15.70988185286532
 10
43.44872354672975
 20
15.66438185286532
 10
43.49272354672975
 20
15.70988185286532
  0
LWPOLYLINE
  5
7EC
330
1E
100
AcDbEntity
  8
OBJECT
100
AcDbPolyline
 90
      129
 70
     0
 43
0.0
 10
43.49272354672975
 20
16.28738185286532
 10
43.44872354672975
 20
16.24188185286531
 10
43.40472354672974
 20
16.28738185286531
 10
43.36072354672975
 20
16.24188185286531
 10
43.31672354672975
 20
16.28738185286531
 10
43.27272354672976
 20
16.24188185286531
 10
43.22872354672976
 20
16.28738185286531
 10
43.18472354672976
 20
16.24188185286531
 10
43.14072354672976
 20
16.28738185286531
 10
43.09672354672975
 20
16.24188185286531
 10
43.05272354672975
 20
16.28738185286531
 10
42.99872354672976
 20
16.24188185286531
 10
42.95472354672977
 20
16.28738185286531
 10
42.91072354672977
 20
16.24188185286531
 10
42.86672354672978
 20
16.28738185286531
 10
42.82272354672978
 20
16.24188185286531
 10
42.77872354672978
 20
16.28738185286531
 10
42.73472354672978
 20
16.24188185286531
 10
42.69072354672977
 20
16.28738185286531
 10
42.64672354672978
 20
16.24188185286531
 10
42.60272354672978
 20
16.28738185286531
 10
42.55872354672977
 20
16.24188185286531
 10
42.51472354672977
 20
16.28738185286531
 10
42.47072354672978
 20
16.24188185286531
 10
42.42672354672978
 20
16.28738185286531
 10
42.38272354672977
 20
16.24188185286531
 10
42.33872354672977
 20
16.28738185286531
 10
42.29472354672977
 20
16.24188185286531
 10
42.25072354672978
 20
16.28738185286531
 10
42.20672354672976
 20
16.24188185286531
 10
42.16272354672977
 20
16.28738185286531
 10
42.11872354672977
 20
16.24188185286531
 10
42.07472354672978
 20
16.28738185286531
 10
42.03072354672976
 20
16.24188185286531
 10
41.98672354672977
 20
16.28738185286531
 10
41.94272354672977
 20
16.24188185286531
 10
41.89872354672977
 20
16.28738185286531
 10
41.85472354672977
 20
16.24188185286531
 10
41.81072354672976
 20
16.28738185286531
 10
41.76672354672977
 20
16.24188185286531
 10
41.72272354672977
 20
16.28738185286531
 10
41.67872354672976
 20
16.24188185286531
 10
41.63472354672976
 20
16.28738185286531
 10
41.59072354672977
 20
16.24188185286531
 10
41.54672354672977
 20
16.28738185286531
 10
41.50272354672977
 20
16.24188185286531
 10
41.45872354672977
 20
16.28738185286531
 10
41.41472354672978
 20
16.24188185286531
 10
41.37072354672978
 20
16.28738185286531
 10
41.32672354672977
 20
16.24188185286531
 10
41.28272354672978
 20
16.28738185286531
 10
41.23872354672978
 20
16.24188185286531
 10
41.19472354672978
 20
16.28738185286531
 10
41.15072354672977
 20
16.24188185286531
 10
41.10672354672977
 20
16.28738185286531
 10
41.06272354672977
 20
16.24188185286531
 10
41.01872354672978
 20
16.28738185286531
 10
40.97472354672976
 20
16.24188185286531
 10
40.93072354672977
 20
16.28738185286531
 10
40.88672354672977
 20
16.24188185286531
 10
40.84272354672978
 20
16.28738185286531
 10
40.79872354672977
 20
16.24188185286531
 10
40.75472354672977
 20
16.28738185286531
 10
40.71072354672979
 20
16.24188185286531
 10
40.66672354672979
 20
16.28738185286531
 10
40.62272354672979
 20
16.24188185286531
 10
40.57872354672979
 20
16.28738185286531
 10
40.5347235467298
 20
16.24188185286531
 10
40.4907235467298
 20
16.28738185286531
 10
40.44672354672981
 20
16.24188185286531
 10
40.40272354672981
 20
16.28738185286531
 10
40.3587235467298
 20
16.24188185286531
 10
40.3147235467298
 20
16.28738185286531
 10
40.2707235467298
 20
16.24188185286531
 10
40.2267235467298
 20
16.28738185286531
 10
40.18272354672979
 20
16.24188185286531
 10
40.13872354672979
 20
16.28738185286531
 10
40.09472354672978
 20
16.24188185286531
 10
40.05072354672979
 20
16.28738185286531
 10
40.00672354672979
 20
16.24188185286531
 10
39.9627235467298
 20
16.28738185286531
 10
39.91872354672978
 20
16.24188185286531
 10
39.87472354672979
 20
16.28738185286531
 10
39.83072354672979
 20
16.24188185286531
 10
39.78672354672979
 20
16.28738185286531
 10
39.74272354672978
 20
16.24188185286531
 10
39.69872354672979
 20
16.28738185286531
 10
39.6547235467298
 20
16.24188185286531
 10
39.6107235467298
 20
16.28738185286531
 10
39.56672354672981
 20
16.24188185286531
 10
39.52272354672981
 20
16.28738185286531
 10
39.47872354672981
 20
16.24188185286531
 10
39.43472354672982
 20
16.28738185286531
 10
39.39072354672982
 20
16.24188185286531
 10
39.34672354672983
 20
16.28738185286531
 10
39.30272354672981
 20
16.24188185286531
 10
39.25872354672982
 20
16.28738185286531
 10
39.21472354672982
 20
16.24188185286531
 10
39.17072354672982
 20
16.28738185286531
 10
39.12672354672981
 20
16.24188185286531
 10
39.08272354672983
 20
16.28738185286531
 10
39.03872354672982
 20
16.24188185286531
 10
38.99472354672982
 20
16.28738185286531
 10
38.95072354672982
 20
16.24188185286531
 10
38.90672354672982
 20
16.28738185286531
 10
38.86272354672982
 20
16.24188185286531
 10
38.81872354672982
 20
16.28738185286531
 10
38.77472354672982
 20
16.24188185286531
 10
38.73072354672983
 20
16.28738185286531
 10
38.68672354672981
 20
16.24188185286531
 10
38.64272354672982
 20
16.28738185286531
 10
38.59872354672982
 20
16.24188185286531
 10
38.55472354672984
 20
16.28738185286531
 10
38.51072354672984
 20
16.24188185286531
 10
38.46672354672984
 20
16.28738185286531
 10
38.42272354672985
 20
16.24188185286531
 10
38.37872354672985
 20
16.28738185286531
 10
38.33472354672985
 20
16.24188185286531
 10
38.29072354672986
 20
16.28738185286531
 10
38.24672354672984
 20
16.24188185286531
 10
38.20272354672985
 20
16.28738185286531
 10
38.15872354672985
 20
16.24188185286531
 10
38.11472354672985
 20
16.28738185286531
 10
38.07072354672984
 20
16.24188185286531
 10
38.02672354672986
 20
16.28738185286531
 10
37.98272354672985
 20
16.24188185286531
 10
37.93872354672985
 20
16.28738185286531
 10
37.89472354672986
 20
16.24188185286531
 10
37.87872354672975
 20
16.25842730741087
  0
LWPOLYLINE
  5
86F
330
1E
100
AcDbEntity
  8
OBJECT
100
AcDbPolyline
 90
        8
 70
     1
 43
0.0
 10
50.32873249663513
 20
37.54938185286527
 10
64.17873249663514
 20
37.54938185286527
 42
-0.4142135623730951
 10
64.74123249663515
 20
36.98688185286527
 10
64.74123249663515
 20
16.02688185286527
 42
-0.4142135623730951
 10
64.17873249663514
 20
15.46438185286527
 10
50.32873249663513
 20
15.46438185286527
 42
-0.4142135623730951
 10
49.76623249663513
 20
16.02688185286527
 10
49.76623249663513
 20
36.98688185286527
 42
-0.4142135623730951
  0
LINE
  5
879
330
1E
100
AcDbEntity
  8
OBJECT
100
AcDbLine
 10
43.60772354672977
 20
16.46838185286529
 30
0.0
 11
43.49272354672974
 21
16.46838185286529
 31
0.0
  0
LINE
  5
87A
330
1E
100
AcDbEntity
  8
OBJECT
100
AcDbLine
 10
43.60772354672975
 20
16.3863818528653
 30
0.0
 11
43.49272354672975
 21
16.3863818528653
 31
0.0
  0
LINE
  5
87B
330
1E
100
AcDbEntity
  8
OBJECT
100
AcDbLine
 10
43.74272354672974
 20
26.25688185286531
 30
0.0
 11
43.49272354672977
 21
26.25688185286531
 31
0.0
  0
LINE
  5
87C
330
1E
100
AcDbEntity
  8
OBJECT
100
AcDbLine
 10
43.74272354672973
 20
26.19438185286531
 30
0.0
 11
43.49272354672975
 21
26.19438185286529
 31
0.0
  0
LINE
  5
87D
330
1E
100
AcDbEntity
  8
OBJECT
100
AcDbLine
 10
44.47272354672973
 20
26.16188185286529
 30
0.0
 11
43.74272354672973
 21
26.16188185286528
 31
0.0
  0
LINE
  5
87E
330
1E
100
AcDbEntity
  8
OBJECT
100
AcDbLine
 10
43.74272354672975
 20
16.28524106963437
 30
0.0
 11
43.49272354672975
 21
16.28524106963437
 31
0.0
  0
LINE
  5
87F
330
1E
100
AcDbEntity
  8
OBJECT
100
AcDbLine
 10
43.74272354672975
 20
16.02007602668942
 30
0.0
 11
43.49272354672975
 21
16.02007602668942
 31
0.0
  0
LINE
  5
880
330
1E
100
AcDbEntity
  8
OBJECT
100
AcDbLine
 10
43.74272354672975
 20
15.9316876790411
 30
0.0
 11
43.49272354672975
 21
15.9316876790411
 31
0.0
  0
LINE
  5
881
330
1E
100
AcDbEntity
  8
OBJECT
100
AcDbLine
 10
43.74272354672975
 20
15.66652263609615
 30
0.0
 11
43.49272354672975
 21
15.66652263609615
 31
0.0
  0
LINE
  5
882
330
1E
100
AcDbEntity
  8
OBJECT
100
AcDbLine
 10
44.47272354672973
 20
15.63088185286528
 30
0.0
 11
43.74272354672975
 21
15.63088185286528
 31
0.0
  0
LINE
  5
883
330
1E
100
AcDbEntity
  8
OBJECT
100
AcDbLine
 10
44.47272354672973
 20
16.3208818528653
 30
0.0
 11
43.74272354672975
 21
16.3208818528653
 31
0.0
  0
LINE
  5
884
330
1E
100
AcDbEntity
  8
OBJECT
100
AcDbLine
 10
43.49272354672975
 20
16.594053826634
 30
0.0
 11
44.47272354672973
 21
16.59405382663401
 31
0.0
  0
LINE
  5
885
330
1E
100
AcDbEntity
  8
OBJECT
100
AcDbLine
 10
43.60772354672975
 20
26.08891078120193
 30
0.0
 11
43.49272354672975
 21
26.08891078120193
 31
0.0
  0
LINE
  5
886
330
1E
100
AcDbEntity
  8
OBJECT
100
AcDbLine
 10
43.60772354672977
 20
26.00691645613878
 30
0.0
 11
43.49272354672975
 21
26.00691645613878
 31
0.0
  0
INSERT
  5
887
330
1E
100
AcDbEntity
  8
OBJECT
100
AcDbBlockReference
  2
*X1
 10
104.2720010080617
 20
-7.310818981358465
 30
0.0
 41
-1.0
1001
ACAD
1000
HATCH
1002
{
1070
    16
1000
PLASTI
1040
2.5
1040
2.356194490192344
1002
}
  0
LINE
  5
888
330
1E
100
AcDbEntity
  8
CENTER
100
AcDbLine
 10
57.25373249663515
 20
14.9643818528653
 30
0.0
 11
57.25373249663515
 21
38.04938185286529
 31
0.0
  0
CIRCLE
  5
889
330
1E
100
AcDbEntity
  8
OBJECT
100
AcDbCircle
 10
50.26173249663514
 20
37.03788185286527
 30
0.0
 40
0.345
  0
LWPOLYLINE
  5
88A
330
1E
100
AcDbEntity
  8
OBJECT
100
AcDbPolyline
 90
        4
 70
     1
 43
0.0
 10
50.57109171340425
 20
37.08207602668944
 10
50.21753832281097
 20
36.72852263609618
 42
-0.3333333333333333
 10
49.95237327986603
 20
36.99368767904113
 10
50.30592667045928
 20
37.3472410696344
 42
-0.3333333333333333
  0
CIRCLE
  5
890
330
1E
100
AcDbEntity
  8
OBJECT
100
AcDbCircle
 10
64.24573249663518
 20
37.03788185286527
 30
0.0
 40
0.345
  0
LWPOLYLINE
  5
891
330
1E
100
AcDbEntity
  8
OBJECT
100
AcDbPolyline
 90
        4
 70
     1
 43
0.0
 10
63.93637327986607
 20
37.08207602668944
 10
64.28992667045935
 20
36.72852263609618
 42
0.3333333333333333
 10
64.5550917134043
 20
36.99368767904113
 10
64.20153832281105
 20
37.3472410696344
 42
0.3333333333333333
  0
CIRCLE
  5
897
330
1E
100
AcDbEntity
  8
OBJECT
100
AcDbCircle
 10
50.26173249663514
 20
15.97588185286528
 30
0.0
 40
0.345
  0
LWPOLYLINE
  5
898
330
1E
100
AcDbEntity
  8
OBJECT
100
AcDbPolyline
 90
        4
 70
     1
 43
0.0
 10
50.57109171340425
 20
15.93168767904112
 10
50.21753832281097
 20
16.28524106963439
 42
0.3333333333333333
 10
49.95237327986603
 20
16.02007602668942
 10
50.30592667045928
 20
15.66652263609617
 42
0.3333333333333333
  0
LWPOLYLINE
  5
89E
330
1E
100
AcDbEntity
  8
OBJECT
100
AcDbPolyline
 90
        4
 70
     1
 43
0.0
 10
63.93637327986607
 20
15.93168767904112
 10
64.28992667045935
 20
16.28524106963439
 42
-0.3333333333333333
 10
64.5550917134043
 20
16.02007602668942
 10
64.20153832281105
 20
15.66652263609617
 42
-0.3333333333333333
  0
CIRCLE
  5
8A4
330
1E
100
AcDbEntity
  8
OBJECT
100
AcDbCircle
 10
64.24573249663518
 20
15.97588185286528
 30
0.0
 40
0.345
  0
LWPOLYLINE
  5
8A5
330
1E
100
AcDbEntity
  8
OBJECT
100
AcDbPolyline
 90
        2
 70
     0
 43
0.0
 10
64.47223249663517
 20
36.63966723458151
 42
-0.2555533301704608
 10
64.49018676492764
 20
36.67250132017705
 42
0.2555533301724711
  0
LWPOLYLINE
  5
8A9
330
1E
100
AcDbEntity
  8
OBJECT
100
AcDbPolyline
 90
       28
 70
     0
 43
0.0
 10
64.49018676492787
 20
36.67250132017718
 42
0.767742145605248
 10
64.24573249663521
 20
37.48588185286528
 42
0.2164657876001224
 10
63.86435196394709
 20
37.29833612115798
 42
-0.2555533301719988
 10
63.8315178783514
 20
37.28038185286529
 10
50.6759471149189
 20
37.28038185286529
 42
-0.255553330172118
 10
50.64311302932324
 20
37.29833612115798
 42
0.2164657876001224
 10
50.26173249663512
 20
37.48588185286528
 42
0.767742145605248
 10
50.01727822834247
 20
36.67250132017718
 42
-0.2555533301719988
 10
50.03523249663514
 20
36.63966723458151
 10
50.03523249663514
 20
26.92109647114907
 42
-0.2555533301719988
 10
50.01727822834244
 20
26.8882623855534
 42
0.5468179779324368
 10
50.01727822834245
 20
26.12550132017715
 42
-0.2555533301719988
 10
50.03523249663514
 20
26.09266723458148
 10
50.03523249663514
 20
16.37409647114905
 42
-0.2555533301738359
 10
50.01727822834247
 20
16.34126238555339
 42
0.767742145605248
 10
50.26173249663512
 20
15.52788185286527
 42
0.2164657876001224
 10
50.64311302932324
 20
15.71542758457259
 42
-0.2555533301719988
 10
50.6759471149189
 20
15.73338185286528
 10
63.8315178783514
 20
15.73338185286528
 42
-0.2555533301717647
 10
63.86435196394709
 20
15.71542758457258
 42
0.2164657876001224
 10
64.24573249663521
 20
15.52788185286527
 42
0.767742145605248
 10
64.49018676492784
 20
16.34126238555339
 42
-0.2555533301719988
 10
64.47223249663517
 20
16.37409647114905
 10
64.47223249663517
 20
26.09266723458148
 42
-0.2555533301719988
 10
64.49018676492784
 20
26.12550132017715
 42
0.5468179779324368
 10
64.49018676492787
 20
26.8882623855534
 42
-0.2555533301719988
 10
64.47223249663517
 20
26.92109647114907
 10
64.47223249663517
 20
36.63966723458151
 42
-0.2555533301719988
  0
LWPOLYLINE
  5
8C7
330
1E
100
AcDbEntity
  8
DIM
100
AcDbPolyline
 90
        4
 70
     0
 10
13.98858506197644
 20
36.97537241008239
 40
0.0
 41
0.4725000000000001
 10
14.35352828449029
 20
38.18136430240222
 40
0.0
 41
0.0
 10
16.14787744575348
 20
44.11097309351269
 40
0.0
 41
0.0
 10
17.40683215972367
 20
44.11097309351269
 40
0.0
 41
0.0
  0
ARC
  5
8CD
330
1E
100
AcDbEntity
  8
OBJECT
100
AcDbCircle
 10
44.47272354672973
 20
25.75488185286527
 30
0.0
 40
0.1150000000000111
100
AcDbArc
 50
0.0
 51
90.0
  0
INSERT
  5
8CE
330
1E
100
AcDbEntity
  8
OBJECT
100
AcDbBlockReference
  2
*X2
 10
104.2720010080617
 20
-7.310818981358465
 30
0.0
 41
-1.0
1001
ACAD
1000
HATCH
1002
{
1070
    16
1000
PLASTI
1040
2.5
1040
0.7853981633974483
1002
}
  0
LWPOLYLINE
  5
8CF
330
1E
100
AcDbEntity
  8
OBJECT
100
AcDbPolyline
 90
        4
 70
     0
 43
0.0
 10
49.94099660912115
 20
48.99581779633184
 10
49.96899660912114
 20
49.07581779633182
 10
50.55446838414916
 20
49.07581779633185
 10
50.58246838414916
 20
48.99581779633184
  0
LWPOLYLINE
  5
8D5
330
1E
100
AcDbEntity
  8
OBJECT
100
AcDbPolyline
 90
        4
 70
     0
 43
0.0
 10
51.46973249663512
 20
48.99581779633184
 10
51.44173249663513
 20
49.07581779633182
 10
50.81373249663514
 20
49.07581779633182
 10
50.78573249663516
 20
48.99581779633184
  0
LWPOLYLINE
  5
8DB
330
1E
100
AcDbEntity
  8
OBJECT
100
AcDbPolyline
 90
        4
 70
     0
 43
0.0
 10
57.54323249663516
 20
48.99581779633189
 10
57.57123249663512
 20
49.07581779633182
 10
58.13123249663516
 20
49.07581779633182
 10
58.15923249663516
 20
48.99581779633184
  0
LWPOLYLINE
  5
8E1
330
1E
100
AcDbEntity
  8
OBJECT
100
AcDbPolyline
 90
        4
 70
     0
 43
0.0
 10
63.03773249663518
 20
48.99581779633184
 10
63.06573249663521
 20
49.07581779633182
 10
63.69373249663519
 20
49.07581779633182
 10
63.72173249663515
 20
48.99581779633184
  0
LWPOLYLINE
  5
8E7
330
1E
100
AcDbEntity
  8
OBJECT
100
AcDbPolyline
 90
        4
 70
     0
 43
0.0
 10
64.56646838414918
 20
48.99581779633184
 10
64.53846838414918
 20
49.07581779633182
 10
63.95299660912115
 20
49.07581779633185
 10
63.92499660912116
 20
48.99581779633184
  0
TEXT
  5
8ED
330
1E
100
AcDbEntity
  8
TEXT
100
AcDbText
 10
14.76472217216931
 20
68.28665155071764
 30
0.0
 40
1.312498687499999
  1
NON-METALLIC ENCLOSURE (STYLE D)
 41
0.75
 72
     4
 11
29.85845707841932
 21
68.94290089446764
 31
0.0
100
AcDbText
  0
TEXT
  5
8EE
330
1E
100
AcDbEntity
  8
TEXT
100
AcDbText
 10
68.46951982788041
 20
68.28665155071766
 30
0.0
 40
1.312498687499999
  1
NBD-10456 & NBD-10476 & NBD-15456
 41
0.75
 72
     4
 11
83.89137940600543
 21
68.94290089446767
 31
0.0
100
AcDbText
  0
TEXT
  5
8EF
330
1E
100
AcDbEntity
  8
TEXT
100
AcDbText
 10
43.15958526159125
 20
11.22397932187794
 30
0.0
 40
0.8749991249999997
  1
%%UNOTE:%%u COVER ATTACHES WITH PHILLIPS DRIVE
 41
0.75
100
AcDbText
  0
TEXT
  5
8F0
330
1E
100
AcDbEntity
  8
TEXT
100
AcDbText
 10
46.68015767702697
 20
9.765648905211246
 30
0.0
 40
0.8749991249999997
  1
NON-METALLIC SCREWS.  (NOT SHOWN)
 41
0.75
100
AcDbText
  0
TEXT
  5
8F1
330
1E
100
AcDbEntity
  8
TEXT
100
AcDbText
 10
61.20827425105985
 20
61.59868219727409
 30
0.0
 40
0.8749991249999997
  1
AIR AND MOISTURE VENTS, STAINLESS
 41
0.75
100
AcDbText
  0
TEXT
  5
8F2
330
1E
100
AcDbEntity
  8
TEXT
100
AcDbText
 10
61.20827425105985
 20
60.14005861389907
 30
0.0
 40
0.874999125
  1
STEEL LOCKING HASP, PANEL MOUNTING
 41
0.75
100
AcDbText
  0
TEXT
  5
8F3
330
1E
100
AcDbEntity
  8
TEXT
100
AcDbText
 10
61.20827425105985
 20
58.68143503052408
 30
0.0
 40
0.874999125
  1
RAILS, GALVANIZED STEEL INNER PANEL
 41
0.75
100
AcDbText
  0
TEXT
  5
8F4
330
1E
100
AcDbEntity
  8
TEXT
100
AcDbText
 10
61.20827425105985
 20
57.22456144714907
 30
0.0
 40
0.874999125
  1
AND STAINLESS STEEL WALL MOUNTING
 41
0.75
100
AcDbText
  0
TEXT
  5
8F5
330
1E
100
AcDbEntity
  8
TEXT
100
AcDbText
 10
61.20827425105985
 20
55.76593786377408
 30
0.0
 40
0.874999125
  1
BRACKETS ARE NOT INCLUDED, BUT CAN
 41
0.75
100
AcDbText
  0
TEXT
  5
8F6
330
1E
100
AcDbEntity
  8
TEXT
100
AcDbText
 10
61.20827425105985
 20
54.30906428039907
 30
0.0
 40
0.874999125
  1
BE PURCHASED SEPARATELY.
 41
0.75
100
AcDbText
  0
INSERT
  5
8F7
330
1E
100
AcDbEntity
  8
TITLE
100
AcDbBlockReference
  2
HBS
 10
0.0000000000000142
 20
0.0
 30
0.0
 41
7.0
 42
7.0
 43
7.0
  0
LINE
  5
8F8
330
1E
100
AcDbEntity
  8
TITLE
100
AcDbLine
 10
108.0659999999999
 20
3.363144385026714
 30
0.0
 11
0.4340000000000086
 21
3.363144385026714
 31
0.0
  0
LINE
  5
8F9
330
1E
100
AcDbEntity
  8
TITLE
100
AcDbLine
 10
108.0659999999999
 20
4.827716577540087
 30
0.0
 11
21.42600000000003
 21
4.827716577540087
 31
0.0
  0
LINE
  5
8FA
330
1E
100
AcDbEntity
  8
TITLE
100
AcDbLine
 10
21.42600000000003
 20
6.292288770053446
 30
0.0
 11
0.4340000000000224
 21
6.292288770053488
 31
0.0
  0
TEXT
  5
8FB
330
1E
100
AcDbEntity
  8
TEXT
100
AcDbText
 10
1.252312500000023
 20
1.444193867106719
 30
0.0
 40
0.8750000000000001
  1
NBD-10456
 41
0.75
 72
     1
 11
3.932000000000023
 21
1.444193867106719
 31
0.0
100
AcDbText
  0
TEXT
  5
8FC
330
1E
100
AcDbEntity
  8
TEXT
100
AcDbText
 10
2.291375000000023
 20
3.644916208911709
 30
0.0
 40
0.8750000000000001
  1
COVER
 41
0.75
 72
     1
 11
3.932000000000023
 21
3.644916208911709
 31
0.0
100
AcDbText
  0
TEXT
  5
8FD
330
1E
100
AcDbEntity
  8
TEXT
100
AcDbText
 10
2.510125000000023
 20
5.138538379520994
 30
0.0
 40
0.8750000000000001
  1
SOLID
 41
0.75
 72
     1
 11
3.932000000000023
 21
5.138538379520994
 31
0.0
100
AcDbText
  0
TEXT
  5
8FE
330
1E
100
AcDbEntity
  8
TEXT
100
AcDbText
 10
5.133125000000022
 20
6.596597566212821
 30
0.0
 40
0.8750000000000001
  1
PART NO.
 41
0.75
 72
     1
 11
7.430000000000022
 21
6.596597566212821
 31
0.0
100
AcDbText
  0
TEXT
  5
8FF
330
1E
100
AcDbEntity
  8
TEXT
100
AcDbText
 10
9.287374999999986
 20
3.644916208911709
 30
0.0
 40
0.8750000000000001
  1
COVER
 41
0.75
 72
     1
 11
10.92799999999998
 21
3.644916208911709
 31
0.0
100
AcDbText
  0
TEXT
  5
900
330
1E
100
AcDbEntity
  8
TEXT
100
AcDbText
 10
9.396749999999986
 20
5.138538379520994
 30
0.0
 40
0.8750000000000001
  1
CLEAR
 41
0.75
 72
     1
 11
10.92799999999998
 21
5.138538379520994
 31
0.0
100
AcDbText
  0
TEXT
  5
901
330
1E
100
AcDbEntity
  8
TEXT
100
AcDbText
 10
8.248312499999986
 20
1.444193867106719
 30
0.0
 40
0.8750000000000001
  1
NBD-10476
 41
0.75
 72
     1
 11
10.92799999999998
 21
1.444193867106719
 31
0.0
100
AcDbText
  0
LINE
  5
902
330
1E
100
AcDbEntity
  8
TITLE
100
AcDbLine
 10
108.0659999999999
 20
7.756860962566832
 30
0.0
 11
0.4340000000000086
 21
7.756860962566832
 31
0.0
  0
TEXT
  5
903
330
1E
100
AcDbEntity
  8
TEXT
100
AcDbText
 10
61.05577500000002
 20
5.74558877005353
 30
0.0
 40
1.0934
  1
DIMENSIONS
 41
0.75
 72
     4
 11
64.74600000000002
 21
6.292288770053531
 31
0.0
100
AcDbText
  0
TEXT
  5
904
330
1E
100
AcDbEntity
  8
TEXT
100
AcDbText
 10
84.52227319628697
 20
65.97368219727369
 30
0.0
 40
0.8749999999999996
  1
%%UINDUSTRY STANDARDS:
 41
0.75
100
AcDbText
  0
TEXT
  5
905
330
1E
100
AcDbEntity
  8
TEXT
100
AcDbText
 10
85.39567063218438
 20
63.057015530607
 30
0.0
 40
0.8749999999999996
  1
UL508 TYPE 1, 2, 4, 4X INDOOR, 12 & 13
 41
0.75
100
AcDbText
  0
TEXT
  5
906
330
1E
100
AcDbEntity
  8
TEXT
100
AcDbText
 10
85.39567063218438
 20
61.59868219727363
 30
0.0
 40
0.8749999999999996
  1
NEMA TYPE 1, 2, 4, 4X, 12 & 13
 41
0.75
100
AcDbText
  0
TEXT
  5
907
330
1E
100
AcDbEntity
  8
TEXT
100
AcDbText
 10
85.39567063218438
 20
60.14034886394032
 30
0.0
 40
0.8749999999999996
  1
IEC529-IP65
 41
0.75
100
AcDbText
  0
TEXT
  5
908
330
1E
100
AcDbEntity
  8
TEXT
100
AcDbText
 10
18.07268824954024
 20
61.60763957673762
 30
0.0
 40
0.8749999999999996
  1
UL94-5VB FLAMMABILITY RATING
 41
0.75
100
AcDbText
  0
TEXT
  5
90A
330
1E
100
AcDbEntity
  8
TEXT
100
AcDbText
 10
77.92817911941089
 20
9.73065267125473
 30
0.0
 40
0.8759358288770059
  1
%%UNOTE%%U: ALL DIMENSIONS HAVE %%P0.039 [%%P1] TOLERANCE
 41
0.75
100
AcDbText
  0
TEXT
  5
90B
330
1E
100
AcDbEntity
  8
TEXT
100
AcDbText
 10
80.73558798295158
 20
8.310997457350964
 30
0.0
 40
0.8759358288770059
  1
 UNLESS OTHERWISE SPECIFIED
 41
0.75
100
AcDbText
  0
LINE
  5
90C
330
1E
100
AcDbEntity
  8
TITLE
100
AcDbLine
 10
108.0659999999999
 20
1.898572192513356
 30
0.0
 11
21.42600000000002
 21
1.898572192513356
 31
0.0
  0
TEXT
  5
90D
330
1E
100
AcDbEntity
  8
TEXT
100
AcDbText
 10
18.07268824954024
 20
57.25055433566556
 30
0.0
 40
0.8749999999999996
  1
UL94V-0 FLAMMABILITY RATING
 41
0.75
100
AcDbText
  0
LINE
  5
90E
330
1E
100
AcDbEntity
  8
TITLE
100
AcDbLine
 10
7.429999999999978
 20
0.4340000000000117
 30
0.0
 11
7.430000000000022
 21
6.292288770053488
 31
0.0
  0
LINE
  5
90F
330
1E
100
AcDbEntity
  8
TITLE
100
AcDbLine
 10
21.42600000000005
 20
10.68600534759357
 30
0.0
 11
0.4340000000000224
 21
10.68600534759357
 31
0.0
  0
TEXT
  5
910
330
1E
100
AcDbEntity
  8
TEXT
100
AcDbText
 10
5.46494180347544
 20
9.532254957061127
 30
0.0
 40
0.8750000000000001
  1
INDOOR
 41
0.75
 72
     1
 11
7.21494180347544
 21
9.532254957061127
 31
0.0
100
AcDbText
  0
TEXT
  5
911
330
1E
100
AcDbEntity
  8
TEXT
100
AcDbText
 10
5.02744180347544
 20
8.038632786451842
 30
0.0
 40
0.8750000000000001
  1
VERSION
 41
0.75
 72
     1
 11
7.21494180347544
 21
8.038632786451842
 31
0.0
100
AcDbText
  0
TEXT
  5
912
330
1E
100
AcDbEntity
  8
TEXT
100
AcDbText
 10
16.28537500000005
 20
3.644916208911666
 30
0.0
 40
0.8750000000000001
  1
COVER
 41
0.75
 72
     1
 11
17.92600000000005
 21
3.644916208911666
 31
0.0
100
AcDbText
  0
TEXT
  5
913
330
1E
100
AcDbEntity
  8
TEXT
100
AcDbText
 10
15.19162500000002
 20
1.444193867106719
 30
0.0
 40
0.8750000000000001
  1
NBD-15456
 41
0.75
 72
     1
 11
17.92600000000002
 21
1.444193867106719
 31
0.0
100
AcDbText
  0
TEXT
  5
914
330
1E
100
AcDbEntity
  8
TEXT
100
AcDbText
 10
16.50412500000006
 20
5.138538379520994
 30
0.0
 40
0.8750000000000001
  1
SOLID
 41
0.75
 72
     1
 11
17.92600000000005
 21
5.138538379520994
 31
0.0
100
AcDbText
  0
TEXT
  5
915
330
1E
100
AcDbEntity
  8
TEXT
100
AcDbText
 10
15.73850000000005
 20
8.038632786451842
 30
0.0
 40
0.8750000000000001
  1
VERSION
 41
0.75
 72
     1
 11
17.92600000000005
 21
8.038632786451842
 31
0.0
100
AcDbText
  0
TEXT
  5
916
330
1E
100
AcDbEntity
  8
TEXT
100
AcDbText
 10
15.73850000000005
 20
9.532254957061127
 30
0.0
 40
0.8750000000000001
  1
OUTDOOR
 41
0.75
 72
     1
 11
17.92600000000005
 21
9.532254957061127
 31
0.0
100
AcDbText
  0
TEXT
  5
917
330
1E
100
AcDbEntity
  8
TEXT
100
AcDbText
 10
15.62912500000005
 20
6.596597566212778
 30
0.0
 40
0.8750000000000001
  1
PART NO.
 41
0.75
 72
     1
 11
17.92600000000005
 21
6.596597566212778
 31
0.0
100
AcDbText
  0
TEXT
  5
918
330
1E
100
AcDbEntity
  8
TEXT
100
AcDbText
 10
85.39567063218438
 20
64.51534886394037
 30
0.0
 40
0.8749999999999996
  1
%%uINDOOR VERSION
 41
0.75
100
AcDbText
  0
TEXT
  5
919
330
1E
100
AcDbEntity
  8
TEXT
100
AcDbText
 10
85.39567063218438
 20
54.38195597814656
 30
0.0
 40
0.8749999999999996
  1
NEMA TYPE 1, 2, 4, 4X, 12 & 13
 41
0.75
100
AcDbText
  0
TEXT
  5
91A
330
1E
100
AcDbEntity
  8
TEXT
100
AcDbText
 10
85.39567063218438
 20
55.84028931147989
 30
0.0
 40
0.8749999999999996
  1
UL508 TYPE 1, 2, 4, 4X, 12 & 13
 41
0.75
100
AcDbText
  0
TEXT
  5
91B
330
1E
100
AcDbEntity
  8
TEXT
100
AcDbText
 10
85.39567063218438
 20
57.29862264481321
 30
0.0
 40
0.8749999999999996
  1
%%uOUTDOOR VERSION
 41
0.75
100
AcDbText
  0
TEXT
  5
91C
330
1E
100
AcDbEntity
  8
TEXT
100
AcDbText
 10
85.39567063218438
 20
52.92362264481322
 30
0.0
 40
0.8749999999999996
  1
IEC529-IP65
 41
0.75
100
AcDbText
  0
TEXT
  5
91D
330
1E
100
AcDbEntity
  8
TEXT
100
AcDbText
 10
18.07268824954024
 20
58.7088876689989
 30
0.0
 40
0.8749999999999996
  1
POLYCARBONATE PLASTIC
 41
0.75
100
AcDbText
  0
LINE
  5
91E
330
1E
100
AcDbEntity
  8
TEXT
100
AcDbLine
 10
43.55110238496638
 20
64.51534886394035
 30
0.0
 11
46.45196853091736
 21
64.51534886394035
 31
0.0
  0
TEXT
  5
91F
330
1E
100
AcDbEntity
  8
TEXT
100
AcDbText
 10
46.88866724886607
 20
63.057015530607
 30
0.0
 40
0.8749999999999996
  1
LIGHT GRAY OR CLEAR
 41
0.75
100
AcDbText
  0
TEXT
  5
920
330
1E
100
AcDbEntity
  8
TEXT
100
AcDbText
 10
18.07268824954024
 20
63.06597291007093
 30
0.0
 40
0.8749999999999996
  1
ABS/PC BLENDED PLASTIC
 41
0.75
100
AcDbText
  0
LINE
  5
921
330
1E
100
AcDbEntity
  8
TEXT
100
AcDbLine
 10
10.77821871052781
 20
58.7088876689989
 30
0.0
 11
17.63598953159152
 21
58.7088876689989
 31
0.0
  0
LINE
  5
922
330
1E
100
AcDbEntity
  8
TEXT
100
AcDbLine
 10
44.39176000898806
 20
63.057015530607
 30
0.0
 11
46.45196853091736
 21
63.057015530607
 31
0.0
  0
TEXT
  5
923
330
1E
100
AcDbEntity
  8
TEXT
100
AcDbText
 10
3.160890808452119
 20
63.06597291007093
 30
0.0
 40
0.8749999999999996
  1
SOLID BODY & COVER
 41
0.75
100
AcDbText
  0
TEXT
  5
924
330
1E
100
AcDbEntity
  8
TEXT
100
AcDbText
 10
3.160890808452119
 20
58.7088876689989
 30
0.0
 40
0.8749999999999996
  1
CLEAR COVER
 41
0.75
100
AcDbText
  0
TEXT
  5
925
330
1E
100
AcDbEntity
  8
TEXT
100
AcDbText
 10
40.78874946964277
 20
63.057015530607
 30
0.0
 40
0.8749999999999996
  1
COVER
 41
0.75
100
AcDbText
  0
TEXT
  5
926
330
1E
100
AcDbEntity
  8
TEXT
100
AcDbText
 10
2.085175213675206
 20
64.52430624340431
 30
0.0
 40
0.8749999999999996
  1
%%UINDOOR VERSION
 41
0.75
100
AcDbText
  0
TEXT
  5
927
330
1E
100
AcDbEntity
  8
TEXT
100
AcDbText
 10
40.78874946964277
 20
64.51534886394035
 30
0.0
 40
0.8749999999999996
  1
BODY
 41
0.75
100
AcDbText
  0
TEXT
  5
928
330
1E
100
AcDbEntity
  8
TEXT
100
AcDbText
 10
39.71303387486587
 20
65.97368219727369
 30
0.0
 40
0.8749999999999996
  1
%%UFINISH:
 41
0.75
100
AcDbText
  0
LINE
  5
929
330
1E
100
AcDbEntity
  8
TEXT
100
AcDbLine
 10
15.23554942616187
 20
63.06597291007093
 30
0.0
 11
17.63598953159152
 21
63.06597291007093
 31
0.0
  0
TEXT
  5
92A
330
1E
100
AcDbEntity
  8
TEXT
100
AcDbText
 10
46.88866724886604
 20
64.51534886394035
 30
0.0
 40
0.8749999999999996
  1
LIGHT GRAY
 41
0.75
100
AcDbText
  0
TEXT
  5
92B
330
1E
100
AcDbEntity
  8
TEXT
100
AcDbText
 10
1.211777777777772
 20
65.97368219727369
 30
0.0
 40
0.8749999999999996
  1
%%UMATERIAL:
 41
0.75
100
AcDbText
  0
TEXT
  5
92D
330
1E
100
AcDbEntity
  8
TEXT
100
AcDbText
 10
18.07268824954024
 20
55.80343895105021
 30
0.0
 40
0.8749999999999996
  1
UV STABILIZED
 41
0.75
100
AcDbText
  0
TEXT
  5
92E
330
1E
100
AcDbEntity
  8
TEXT
100
AcDbText
 10
18.07268824954024
 20
51.42952678690114
 30
0.0
 40
0.8749999999999996
  1
UL94-5VA FLAMMABILITY RATING
 41
0.75
100
AcDbText
  0
TEXT
  5
930
330
1E
100
AcDbEntity
  8
TEXT
100
AcDbText
 10
18.07268824954024
 20
49.98241140228576
 30
0.0
 40
0.8749999999999996
  1
UV STABILIZED
 41
0.75
100
AcDbText
  0
TEXT
  5
931
330
1E
100
AcDbEntity
  8
TEXT
100
AcDbText
 10
3.160890808452119
 20
52.8878601202345
 30
0.0
 40
0.8749999999999996
  1
SOLID BODY & COVER
 41
0.75
100
AcDbText
  0
TEXT
  5
932
330
1E
100
AcDbEntity
  8
TEXT
100
AcDbText
 10
2.085175213675206
 20
54.34619345356783
 30
0.0
 40
0.8749999999999996
  1
%%UOUTDOOR VERSION
 41
0.75
100
AcDbText
  0
TEXT
  5
933
330
1E
100
AcDbEntity
  8
TEXT
100
AcDbText
 10
18.07268824954024
 20
52.8878601202345
 30
0.0
 40
0.8749999999999996
  1
PBT/PC BLENDED PLASTIC
 41
0.75
100
AcDbText
  0
LINE
  5
934
330
1E
100
AcDbEntity
  8
TEXT
100
AcDbLine
 10
15.18540394430979
 20
52.8878601202345
 30
0.0
 11
17.63598953159152
 21
52.8878601202345
 31
0.0
  0
TEXT
  5
935
330
1E
100
AcDbEntity
  8
TEXT
100
AcDbText
 10
61.20827425105985
 20
65.6387256979358
 30
0.0
 40
0.8749999999999996
  1
COVER INCLUDES GRAY POLY-
 41
0.75
100
AcDbText
  0
LINE
  5
936
330
1E
100
AcDbEntity
  8
TITLE
100
AcDbLine
 10
21.42600000000001
 20
0.4339999999999975
 30
0.0
 11
21.42600000000005
 21
10.68600534759357
 31
0.0
  0
LINE
  5
939
330
1E
100
AcDbEntity
  8
TITLE
100
AcDbLine
 10
14.42599999999997
 20
0.4339999999999549
 30
0.0
 11
14.42600000000005
 21
10.68600534759357
 31
0.0
  0
LINE
  5
93A
330
1E
100
AcDbEntity
  8
TITLE
100
AcDbLine
 10
25.98600000000001
 20
0.4339999999999833
 30
0.0
 11
25.98600000000002
 21
4.827716577540087
 31
0.0
  0
LINE
  5
93B
330
1E
100
AcDbEntity
  8
TITLE
100
AcDbLine
 10
30.54600000000001
 20
0.4339999999999833
 30
0.0
 11
30.54600000000002
 21
4.827716577540087
 31
0.0
  0
LINE
  5
93C
330
1E
100
AcDbEntity
  8
TITLE
100
AcDbLine
 10
35.10600000000001
 20
0.4339999999999833
 30
0.0
 11
35.10600000000003
 21
4.827716577540087
 31
0.0
  0
LINE
  5
93D
330
1E
100
AcDbEntity
  8
TITLE
100
AcDbLine
 10
39.66600000000001
 20
0.4339999999999833
 30
0.0
 11
39.66600000000002
 21
4.827716577540087
 31
0.0
  0
LINE
  5
93E
330
1E
100
AcDbEntity
  8
TITLE
100
AcDbLine
 10
44.22600000000001
 20
0.4339999999999833
 30
0.0
 11
44.22600000000002
 21
4.827716577540087
 31
0.0
  0
LINE
  5
93F
330
1E
100
AcDbEntity
  8
TITLE
100
AcDbLine
 10
48.78600000000002
 20
0.4339999999999833
 30
0.0
 11
48.78600000000003
 21
4.827716577540087
 31
0.0
  0
LINE
  5
940
330
1E
100
AcDbEntity
  8
TITLE
100
AcDbLine
 10
53.34600000000001
 20
0.4339999999999833
 30
0.0
 11
53.34600000000003
 21
4.827716577540087
 31
0.0
  0
LINE
  5
941
330
1E
100
AcDbEntity
  8
TITLE
100
AcDbLine
 10
57.90600000000001
 20
0.4339999999999833
 30
0.0
 11
57.90600000000003
 21
4.827716577540087
 31
0.0
  0
LINE
  5
942
330
1E
100
AcDbEntity
  8
TITLE
100
AcDbLine
 10
62.466
 20
0.4339999999999833
 30
0.0
 11
62.46600000000002
 21
4.827716577540087
 31
0.0
  0
LINE
  5
943
330
1E
100
AcDbEntity
  8
TITLE
100
AcDbLine
 10
67.02600000000001
 20
0.4339999999999833
 30
0.0
 11
67.02600000000002
 21
4.827716577540087
 31
0.0
  0
LINE
  5
944
330
1E
100
AcDbEntity
  8
TITLE
100
AcDbLine
 10
71.58600000000001
 20
0.4339999999999833
 30
0.0
 11
71.58600000000003
 21
4.827716577540087
 31
0.0
  0
LINE
  5
945
330
1E
100
AcDbEntity
  8
TITLE
100
AcDbLine
 10
76.14600000000002
 20
0.4339999999999833
 30
0.0
 11
76.14600000000002
 21
4.827716577540087
 31
0.0
  0
LINE
  5
946
330
1E
100
AcDbEntity
  8
TITLE
100
AcDbLine
 10
80.70600000000002
 20
0.4339999999999833
 30
0.0
 11
80.70600000000004
 21
4.827716577540087
 31
0.0
  0
LINE
  5
947
330
1E
100
AcDbEntity
  8
TITLE
100
AcDbLine
 10
85.266
 20
0.4339999999999833
 30
0.0
 11
85.26600000000001
 21
4.827716577540087
 31
0.0
  0
LINE
  5
948
330
1E
100
AcDbEntity
  8
TITLE
100
AcDbLine
 10
89.82600000000001
 20
0.4339999999999833
 30
0.0
 11
89.82600000000003
 21
4.827716577540087
 31
0.0
  0
LINE
  5
949
330
1E
100
AcDbEntity
  8
TITLE
100
AcDbLine
 10
94.386
 20
0.4339999999999833
 30
0.0
 11
94.38600000000002
 21
4.827716577540087
 31
0.0
  0
LINE
  5
94A
330
1E
100
AcDbEntity
  8
TITLE
100
AcDbLine
 10
98.94600000000002
 20
0.4339999999999833
 30
0.0
 11
98.94600000000004
 21
4.827716577540087
 31
0.0
  0
LINE
  5
94B
330
1E
100
AcDbEntity
  8
TITLE
100
AcDbLine
 10
103.506
 20
0.4339999999999833
 30
0.0
 11
103.506
 21
4.827716577540087
 31
0.0
  0
TEXT
  5
94C
330
1E
100
AcDbEntity
  8
TEXT
100
AcDbText
 10
22.60347093073562
 20
9.018451324059924
 30
0.0
 40
0.8750000000000003
  1
DIMENSIONS =
 41
0.75
100
AcDbText
  0
TEXT
  5
94D
330
1E
100
AcDbEntity
  8
TEXT
100
AcDbText
 10
32.34375051026312
 20
9.769330790684307
 30
0.0
 40
0.8750000000000003
  1
INCHES
 41
0.75
 72
     1
 11
34.09375051026312
 21
9.769330790684307
 31
0.0
100
AcDbText
  0
TEXT
  5
94E
330
1E
100
AcDbEntity
  8
TEXT
100
AcDbText
 10
30.37500051026313
 20
8.310997457350964
 30
0.0
 40
0.8750000000000003
  1
[MILLIMETERS]
 41
0.75
 72
     1
 11
34.09375051026312
 21
8.310997457350964
 31
0.0
100
AcDbText
  0
TEXT
  5
94F
330
1E
100
AcDbEntity
  8
DIM
100
AcDbText
 10
94.17676812629851
 20
32.02641760114947
 30
0.0
 40
0.8742741069237384
  1
0.564 [14] DIA. BOSS
 41
0.75
 11
94.17676812629851
 21
32.46355465461134
 31
0.0
100
AcDbText
 73
     2
  0
TEXT
  5
950
330
1E
100
AcDbEntity
  8
DIM
100
AcDbText
 10
94.17676812629851
 20
30.56929408960989
 30
0.0
 40
0.8742741069237384
  1
WITH M5 x 0.8mm
 41
0.75
 11
94.17676812629851
 21
31.00643114307176
 31
0.0
100
AcDbText
 73
     2
  0
TEXT
  5
951
330
1E
100
AcDbEntity
  8
DIM
100
AcDbText
 10
94.17676812629851
 20
29.15384431050039
 30
0.0
 40
0.8742741069237384
  1
THREADED BRASS INSERT
 41
0.75
 11
94.17676812629851
 21
29.59098136396225
 31
0.0
100
AcDbText
 73
     2
  0
TEXT
  5
952
330
1E
100
AcDbEntity
  8
DIM
100
AcDbText
 10
94.17676812629851
 20
27.73839453139085
 30
0.0
 40
0.8742741069237384
  1
(8) PLACES
 41
0.75
 11
94.17676812629851
 21
28.17553158485272
 31
0.0
100
AcDbText
 73
     2
  0
LWPOLYLINE
  5
953
330
1E
100
AcDbEntity
  8
DIM
100
AcDbPolyline
 90
        4
 70
     0
 10
90.77379138771497
 20
35.97031502097463
 40
0.0
 41
0.4725000000000001
 10
91.27337354679077
 20
34.81358788533151
 40
0.0
 41
0.0
 10
92.28833605534324
 20
32.46355465461134
 40
0.0
 41
0.0
 10
93.54729076931342
 20
32.46355465461134
 40
0.0
 41
0.0
  0
TEXT
  5
A79
330
1E
100
AcDbEntity
  8
TEXT
100
AcDbText
 10
61.20827425105985
 20
64.18039236460242
 30
0.0
 40
0.8749999999999996
  1
  URETHANE GASKET.
 41
0.75
100
AcDbText
  0
TEXT
  5
A83
330
1E
100
AcDbEntity
  8
TEXT
100
AcDbText
 10
98.80114294596445
 20
-1.137193747409887
 30
0.0
 40
0.874999125
  1
Revised 26JUN07
 41
0.75
 72
     4
 11
103.3402009069019
 21
-0.6996941849098875
 31
0.0
100
AcDbText
  0
ENDSEC
  0
SECTION
  2
OBJECTS
  0
DICTIONARY
  5
C
330
0
100
AcDbDictionary
281
     1
  3
ACAD_GROUP
350
D
  3
ACAD_LAYOUT
350
19
  3
ACAD_MLINESTYLE
350
16
  3
ACAD_PLOTSETTINGS
350
18
  3
ACAD_PLOTSTYLENAME
350
E
  0
DICTIONARY
  5
D
102
{ACAD_REACTORS
330
C
102
}
330
C
100
AcDbDictionary
281
     1
  0
DICTIONARY
  5
19
102
{ACAD_REACTORS
330
C
102
}
330
C
100
AcDbDictionary
281
     1
  3
Layout1
350
1D
  3
Model
350
21
  0
DICTIONARY
  5
16
102
{ACAD_REACTORS
330
C
102
}
330
C
100
AcDbDictionary
281
     1
  3
Standard
350
17
  0
DICTIONARY
  5
18
102
{ACAD_REACTORS
330
C
102
}
330
C
100
AcDbDictionary
281
     1
  0
ACDBDICTIONARYWDFLT
  5
E
102
{ACAD_REACTORS
330
C
102
}
330
C
100
AcDbDictionary
281
     1
  3
Normal
350
F
100
AcDbDictionaryWithDefault
340
F
  0
LAYOUT
  5
1D
102
{ACAD_REACTORS
330
19
102
}
330
19
100
AcDbPlotSettings
  1

  2
None
  4

  6

 40
0.0
 41
0.0
 42
0.0
 43
0.0
 44
0.0
 45
0.0
 46
0.0
 47
0.0
 48
0.0
 49
0.0
140
0.0
141
0.0
142
1.0
143
1.0
 70
   688
 72
     0
 73
     0
 74
     5
  7
monochrome.ctb
 75
    16
147
1.0
148
0.0
149
0.0
100
AcDbLayout
  1
Layout1
 70
     1
 71
     1
 10
0.0
 20
0.0
 11
12.0
 21
9.0
 12
0.0
 22
0.0
 32
0.0
 14
1.000000000000000E+20
 24
1.000000000000000E+20
 34
1.000000000000000E+20
 15
-1.000000000000000E+20
 25
-1.000000000000000E+20
 35
-1.000000000000000E+20
146
0.0
 13
0.0
 23
0.0
 33
0.0
 16
1.0
 26
0.0
 36
0.0
 17
0.0
 27
1.0
 37
0.0
 76
     0
330
1A
  0
LAYOUT
  5
21
102
{ACAD_REACTORS
330
19
102
}
330
19
100
AcDbPlotSettings
  1

  2
RICOH Aficio 1060 PCL 6
  4
Letter
  6

 40
5.027083396911621
 41
5.027085304260253
 42
5.027084350585937
 43
5.027069091796875
 44
215.8999938964843
 45
279.3999938964843
 46
13.462
 47
0.0
 48
0.0
 49
0.0
140
0.0
141
0.0
142
1.0
143
10.233075918133
 70
 11956
 72
     0
 73
     1
 74
     1
  7
monochrome.ctb
 75
     0
147
0.0977223278709387
148
0.1681990870173649
149
28.9369562673174
100
AcDbLayout
  1
Model
 70
     1
 71
     0
 10
0.0
 20
0.0
 11
12.0
 21
9.0
 12
0.0
 22
0.0
 32
0.0
 14
0.0
 24
0.0
 34
0.0
 15
0.0
 25
0.0
 35
0.0
146
0.0
 13
0.0
 23
0.0
 33
0.0
 16
1.0
 26
0.0
 36
0.0
 17
0.0
 27
1.0
 37
0.0
 76
     0
330
1E
  0
MLINESTYLE
  5
17
102
{ACAD_REACTORS
330
16
102
}
330
16
100
AcDbMlineStyle
  2
STANDARD
 70
     0
  3

 62
   256
 51
90.0
 52
90.0
 71
     2
 49
0.5
 62
   256
  6
BYLAYER
 49
-0.5
 62
   256
  6
BYLAYER
  0
ACDBPLACEHOLDER
  5
F
102
{ACAD_REACTORS
330
E
102
}
330
E
  0
ENDSEC
  0
EOF
