  0
SECTION
  2
HEADER
  9
$ACADVER
  1
AC1015
  9
$ACADMAINTVER
 70
     6
  9
$DWGCODEPAGE
  3
ANSI_1252
  9
$INSBASE
 10
0.0
 20
0.0
 30
0.0
  9
$EXTMIN
 10
0.0
 20
-0.4578297681335782
 30
0.0
  9
$EXTMAX
 10
46.5
 20
30.35999999999999
 30
0.0
  9
$LIMMIN
 10
0.0
 20
0.0
  9
$LIMMAX
 10
46.49999999981401
 20
30.35999999987855
  9
$ORTHOMODE
 70
     0
  9
$REGENMODE
 70
     1
  9
$FILLMODE
 70
     1
  9
$QTEXTMODE
 70
     0
  9
$MIRRTEXT
 70
     0
  9
$LTSCALE
 40
0.75
  9
$ATTMODE
 70
     1
  9
$TEXTSIZE
 40
0.375
  9
$TRACEWID
 40
0.05
  9
$TEXTSTYLE
  7
TXT
  9
$CLAYER
  8
OBJECT
  9
$CELTYPE
  6
ByLayer
  9
$CECOLOR
 62
   256
  9
$CELTSCALE
 40
1.0
  9
$DISPSILH
 70
     0
  9
$DIMSCALE
 40
3.0
  9
$DIMASZ
 40
0.18
  9
$DIMEXO
 40
0.063
  9
$DIMDLI
 40
0.25
  9
$DIMRND
 40
0.0
  9
$DIMDLE
 40
0.0
  9
$DIMEXE
 40
0.093
  9
$DIMTP
 40
0.0
  9
$DIMTM
 40
0.0
  9
$DIMTXT
 40
0.125
  9
$DIMCEN
 40
0.09
  9
$DIMTSZ
 40
0.0
  9
$DIMTOL
 70
     0
  9
$DIMLIM
 70
     0
  9
$DIMTIH
 70
     1
  9
$DIMTOH
 70
     1
  9
$DIMSE1
 70
     0
  9
$DIMSE2
 70
     0
  9
$DIMTAD
 70
     0
  9
$DIMZIN
 70
     0
  9
$DIMBLK
  1

  9
$DIMASO
 70
     1
  9
$DIMSHO
 70
     1
  9
$DIMPOST
  1

  9
$DIMAPOST
  1

  9
$DIMALT
 70
     1
  9
$DIMALTD
 70
     0
  9
$DIMALTF
 40
25.4
  9
$DIMLFAC
 40
1.0
  9
$DIMTOFL
 70
     0
  9
$DIMTVP
 40
0.0
  9
$DIMTIX
 70
     0
  9
$DIMSOXD
 70
     0
  9
$DIMSAH
 70
     0
  9
$DIMBLK1
  1

  9
$DIMBLK2
  1

  9
$DIMSTYLE
  2
23NSTD
  9
$DIMCLRD
 70
     0
  9
$DIMCLRE
 70
     0
  9
$DIMCLRT
 70
     0
  9
$DIMTFAC
 40
1.0
  9
$DIMGAP
 40
0.09
  9
$DIMJUST
 70
     0
  9
$DIMSD1
 70
     0
  9
$DIMSD2
 70
     0
  9
$DIMTOLJ
 70
     1
  9
$DIMTZIN
 70
     0
  9
$DIMALTZ
 70
     0
  9
$DIMALTTZ
 70
     0
  9
$DIMUPT
 70
     0
  9
$DIMDEC
 70
     3
  9
$DIMTDEC
 70
     3
  9
$DIMALTU
 70
     2
  9
$DIMALTTD
 70
     0
  9
$DIMTXSTY
  7
TXT
  9
$DIMAUNIT
 70
     0
  9
$DIMADEC
 70
     0
  9
$DIMALTRND
 40
0.0
  9
$DIMAZIN
 70
     0
  9
$DIMDSEP
 70
    46
  9
$DIMATFIT
 70
     1
  9
$DIMFRAC
 70
     0
  9
$DIMLDRBLK
  1

  9
$DIMLUNIT
 70
     2
  9
$DIMLWD
 70
    -2
  9
$DIMLWE
 70
    -2
  9
$DIMTMOVE
 70
     0
  9
$LUNITS
 70
     2
  9
$LUPREC
 70
     3
  9
$SKETCHINC
 40
0.1
  9
$FILLETRAD
 40
0.0
  9
$AUNITS
 70
     0
  9
$AUPREC
 70
     0
  9
$MENU
  1
acad
  9
$ELEVATION
 40
0.0
  9
$PELEVATION
 40
0.0
  9
$THICKNESS
 40
0.0
  9
$LIMCHECK
 70
     0
  9
$CHAMFERA
 40
0.0
  9
$CHAMFERB
 40
0.0
  9
$CHAMFERC
 40
0.0
  9
$CHAMFERD
 40
0.0
  9
$SKPOLY
 70
     0
  9
$TDCREATE
 40
2451018.434002199
  9
$TDUCREATE
 40
2451018.600668866
  9
$TDUPDATE
 40
2454306.466502453
  9
$TDUUPDATE
 40
2454306.633169120
  9
$TDINDWG
 40
0.8629599421
  9
$TDUSRTIMER
 40
0.8629599421
  9
$USRTIMER
 70
     1
  9
$ANGBASE
 50
0.0
  9
$ANGDIR
 70
     0
  9
$PDMODE
 70
     0
  9
$PDSIZE
 40
0.0
  9
$PLINEWID
 40
0.0
  9
$SPLFRAME
 70
     0
  9
$SPLINETYPE
 70
     6
  9
$SPLINESEGS
 70
     8
  9
$HANDSEED
  5
950
  9
$SURFTAB1
 70
     6
  9
$SURFTAB2
 70
     6
  9
$SURFTYPE
 70
     6
  9
$SURFU
 70
     6
  9
$SURFV
 70
     6
  9
$UCSBASE
  2

  9
$UCSNAME
  2

  9
$UCSORG
 10
0.0
 20
0.0
 30
0.0
  9
$UCSXDIR
 10
1.0
 20
0.0
 30
0.0
  9
$UCSYDIR
 10
0.0
 20
1.0
 30
0.0
  9
$UCSORTHOREF
  2

  9
$UCSORTHOVIEW
 70
     0
  9
$UCSORGTOP
 10
0.0
 20
0.0
 30
0.0
  9
$UCSORGBOTTOM
 10
0.0
 20
0.0
 30
0.0
  9
$UCSORGLEFT
 10
0.0
 20
0.0
 30
0.0
  9
$UCSORGRIGHT
 10
0.0
 20
0.0
 30
0.0
  9
$UCSORGFRONT
 10
0.0
 20
0.0
 30
0.0
  9
$UCSORGBACK
 10
0.0
 20
0.0
 30
0.0
  9
$PUCSBASE
  2

  9
$PUCSNAME
  2

  9
$PUCSORG
 10
0.0
 20
0.0
 30
0.0
  9
$PUCSXDIR
 10
1.0
 20
0.0
 30
0.0
  9
$PUCSYDIR
 10
0.0
 20
1.0
 30
0.0
  9
$PUCSORTHOREF
  2

  9
$PUCSORTHOVIEW
 70
     0
  9
$PUCSORGTOP
 10
0.0
 20
0.0
 30
0.0
  9
$PUCSORGBOTTOM
 10
0.0
 20
0.0
 30
0.0
  9
$PUCSORGLEFT
 10
0.0
 20
0.0
 30
0.0
  9
$PUCSORGRIGHT
 10
0.0
 20
0.0
 30
0.0
  9
$PUCSORGFRONT
 10
0.0
 20
0.0
 30
0.0
  9
$PUCSORGBACK
 10
0.0
 20
0.0
 30
0.0
  9
$USERI1
 70
     0
  9
$USERI2
 70
     0
  9
$USERI3
 70
     0
  9
$USERI4
 70
     0
  9
$USERI5
 70
     0
  9
$USERR1
 40
0.0
  9
$USERR2
 40
0.0
  9
$USERR3
 40
0.0
  9
$USERR4
 40
0.0
  9
$USERR5
 40
0.0
  9
$WORLDVIEW
 70
     0
  9
$SHADEDGE
 70
     3
  9
$SHADEDIF
 70
    70
  9
$TILEMODE
 70
     1
  9
$MAXACTVP
 70
    16
  9
$PINSBASE
 10
0.0
 20
0.0
 30
0.0
  9
$PLIMCHECK
 70
     0
  9
$PEXTMIN
 10
1.000000000000000E+20
 20
1.000000000000000E+20
 30
1.000000000000000E+20
  9
$PEXTMAX
 10
-1.000000000000000E+20
 20
-1.000000000000000E+20
 30
-1.000000000000000E+20
  9
$PLIMMIN
 10
0.0
 20
0.0
  9
$PLIMMAX
 10
12.0
 20
9.0
  9
$UNITMODE
 70
     0
  9
$VISRETAIN
 70
     0
  9
$PLINEGEN
 70
     0
  9
$PSLTSCALE
 70
     1
  9
$TREEDEPTH
 70
  3020
  9
$CMLSTYLE
  2
Standard
  9
$CMLJUST
 70
     0
  9
$CMLSCALE
 40
1.0
  9
$PROXYGRAPHICS
 70
     1
  9
$MEASUREMENT
 70
     0
  9
$CELWEIGHT
370
    -1
  9
$ENDCAPS
280
     0
  9
$JOINSTYLE
280
     0
  9
$LWDISPLAY
290
     0
  9
$INSUNITS
 70
     0
  9
$HYPERLINKBASE
  1

  9
$STYLESHEET
  1
monochrome.ctb
  9
$XEDIT
290
     1
  9
$CEPSNTYPE
380
     0
  9
$PSTYLEMODE
290
     1
  9
$FINGERPRINTGUID
  2
{E786FAD5-A20C-4A22-9D35-AEE44E5B7FE9}
  9
$VERSIONGUID
  2
{2C936F43-1481-417C-9E69-46AB74100EC1}
  9
$EXTNAMES
290
     1
  9
$PSVPSCALE
 40
0.0
  9
$OLESTARTUP
290
     0
  0
ENDSEC
  0
SECTION
  2
CLASSES
  0
CLASS
  1
ACDBDICTIONARYWDFLT
  2
AcDbDictionaryWithDefault
  3
AutoCAD 2000
 90
        0
280
     0
281
     0
  0
CLASS
  1
ACDBPLACEHOLDER
  2
AcDbPlaceHolder
  3
AutoCAD 2000
 90
        0
280
     0
281
     0
  0
CLASS
  1
LAYOUT
  2
AcDbLayout
  3
AutoCAD 2000
 90
        0
280
     0
281
     0
  0
ENDSEC
  0
SECTION
  2
TABLES
  0
TABLE
  2
VPORT
  5
8
330
0
100
AcDbSymbolTable
 70
     2
  0
VPORT
  5
94F
330
8
100
AcDbSymbolTableRecord
100
AcDbViewportTableRecord
  2
*Active
 70
     0
 10
0.0
 20
0.0
 11
1.0
 21
1.0
 12
23.25000083912214
 22
14.95065694211665
 13
0.0
 23
0.0
 14
1.0
 24
1.0
 15
0.5
 25
0.5
 16
0.0
 26
0.0
 36
1.0
 17
0.0
 27
0.0
 37
0.0
 40
31.12776718962459
 41
1.824707846410684
 42
50.0
 43
0.0
 44
0.0
 50
0.0
 51
0.0
 71
     0
 72
   100
 73
     1
 74
     0
 75
     0
 76
     0
 77
     0
 78
     0
281
     0
 65
     1
110
0.0
120
0.0
130
0.0
111
1.0
121
0.0
131
0.0
112
0.0
122
1.0
132
0.0
 79
     0
146
0.0
  0
ENDTAB
  0
TABLE
  2
LTYPE
  5
5
330
0
100
AcDbSymbolTable
 70
     5
  0
LTYPE
  5
13
330
5
100
AcDbSymbolTableRecord
100
AcDbLinetypeTableRecord
  2
ByBlock
 70
     0
  3

 72
    65
 73
     0
 40
0.0
  0
LTYPE
  5
14
330
5
100
AcDbSymbolTableRecord
100
AcDbLinetypeTableRecord
  2
ByLayer
 70
     0
  3

 72
    65
 73
     0
 40
0.0
  0
LTYPE
  5
15
330
5
100
AcDbSymbolTableRecord
100
AcDbLinetypeTableRecord
  2
CONTINUOUS
 70
     0
  3
Solid line
 72
    65
 73
     0
 40
0.0
  0
LTYPE
  5
42
330
5
100
AcDbSymbolTableRecord
100
AcDbLinetypeTableRecord
  2
PHANTOM
 70
     0
  3
_____ _ _ _____ _ _ _____ _ _ _____ _ _ ____
 72
    65
 73
     6
 40
2.5
 49
1.25
 74
     0
 49
-0.25
 74
     0
 49
0.25
 74
     0
 49
-0.25
 74
     0
 49
0.25
 74
     0
 49
-0.25
 74
     0
  0
LTYPE
  5
43
330
5
100
AcDbSymbolTableRecord
100
AcDbLinetypeTableRecord
  2
CENTER
 70
     0
  3
____ _ ____ _ ____ _ ____ _ ____ _ ____ _ ____
 72
    65
 73
     4
 40
2.0
 49
1.25
 74
     0
 49
-0.25
 74
     0
 49
0.25
 74
     0
 49
-0.25
 74
     0
  0
LTYPE
  5
44
330
5
100
AcDbSymbolTableRecord
100
AcDbLinetypeTableRecord
  2
HIDDEN2
 70
     0
  3
_ _ _ _ _ _ _ _ _ _ _ _ _ _ _ _ _ _ _ _ _ _ _ _
 72
    65
 73
     2
 40
0.1875
 49
0.125
 74
     0
 49
-0.0625
 74
     0
  0
LTYPE
  5
45
330
5
100
AcDbSymbolTableRecord
100
AcDbLinetypeTableRecord
  2
HIDDEN
 70
     0
  3
__ __ __ __ __ __ __ __ __ __ __ __ __ __ __ __
 72
    65
 73
     2
 40
0.375
 49
0.25
 74
     0
 49
-0.125
 74
     0
  0
ENDTAB
  0
TABLE
  2
LAYER
  5
2
330
0
100
AcDbSymbolTable
 70
     9
  0
LAYER
  5
10
330
2
100
AcDbSymbolTableRecord
100
AcDbLayerTableRecord
  2
0
 70
     0
 62
     7
  6
CONTINUOUS
370
    -3
390
F
  0
LAYER
  5
4A
330
2
100
AcDbSymbolTableRecord
100
AcDbLayerTableRecord
  2
OBJECT
 70
     0
 62
     7
  6
CONTINUOUS
370
    -3
390
F
  0
LAYER
  5
4B
330
2
100
AcDbSymbolTableRecord
100
AcDbLayerTableRecord
  2
DIM
 70
     0
 62
     7
  6
CONTINUOUS
370
    -3
390
F
  0
LAYER
  5
4C
330
2
100
AcDbSymbolTableRecord
100
AcDbLayerTableRecord
  2
HIDDEN
 70
     0
 62
     7
  6
HIDDEN2
370
    -3
390
F
  0
LAYER
  5
4D
330
2
100
AcDbSymbolTableRecord
100
AcDbLayerTableRecord
  2
BEND
 70
     0
 62
     7
  6
PHANTOM
370
    -3
390
F
  0
LAYER
  5
4E
330
2
100
AcDbSymbolTableRecord
100
AcDbLayerTableRecord
  2
TEXT
 70
     0
 62
     7
  6
CONTINUOUS
370
    -3
390
F
  0
LAYER
  5
4F
330
2
100
AcDbSymbolTableRecord
100
AcDbLayerTableRecord
  2
TITLE
 70
     0
 62
     7
  6
CONTINUOUS
370
    -3
390
F
  0
LAYER
  5
50
330
2
100
AcDbSymbolTableRecord
100
AcDbLayerTableRecord
  2
CENTER
 70
     0
 62
     7
  6
CENTER
370
    -3
390
F
  0
LAYER
  5
51
330
2
100
AcDbSymbolTableRecord
100
AcDbLayerTableRecord
  2
DEFPOINTS
 70
     0
 62
     7
  6
CONTINUOUS
290
     0
370
    -3
390
F
  0
ENDTAB
  0
TABLE
  2
STYLE
  5
3
330
0
100
AcDbSymbolTable
 70
     2
  0
STYLE
  5
11
330
3
100
AcDbSymbolTableRecord
100
AcDbTextStyleTableRecord
  2
STANDARD
 70
     0
 40
0.0
 41
0.75
 50
0.0
 71
     0
 42
0.2
  3
TXT.shx
  4

  0
STYLE
  5
41
330
3
100
AcDbSymbolTableRecord
100
AcDbTextStyleTableRecord
  2
TXT
 70
     0
 40
0.0
 41
0.75
 50
0.0
 71
     0
 42
0.375
  3
TXT.shx
  4

  0
ENDTAB
  0
TABLE
  2
VIEW
  5
6
330
0
100
AcDbSymbolTable
 70
     0
  0
ENDTAB
  0
TABLE
  2
UCS
  5
7
330
0
100
AcDbSymbolTable
 70
     0
  0
ENDTAB
  0
TABLE
  2
APPID
  5
9
330
0
100
AcDbSymbolTable
 70
     1
  0
APPID
  5
12
330
9
100
AcDbSymbolTableRecord
100
AcDbRegAppTableRecord
  2
ACAD
 70
     0
  0
ENDTAB
  0
TABLE
  2
DIMSTYLE
  5
A
330
0
100
AcDbSymbolTable
 70
     2
100
AcDbDimStyleTable
 71
     2
340
48
340
49
  0
DIMSTYLE
105
48
102
{ACAD_REACTORS
330
269
330
26E
330
26F
330
270
330
271
330
272
330
273
330
274
330
275
330
276
330
277
330
29A
330
29B
330
29C
330
2AB
330
2AD
330
2C4
330
2C6
330
33E
330
33F
330
340
330
341
330
342
330
6C3
330
6C4
102
}
330
A
100
AcDbSymbolTableRecord
100
AcDbDimStyleTableRecord
  2
23NSTD
 70
     0
 40
3.0
 42
0.063
 43
0.25
 44
0.093
140
0.125
170
     1
171
     0
271
     3
272
     3
274
     0
289
     1
340
41
  0
DIMSTYLE
105
49
102
{ACAD_REACTORS
330
26D
330
2AC
102
}
330
A
100
AcDbSymbolTableRecord
100
AcDbDimStyleTableRecord
  2
23NSTDI
 70
     0
 40
3.0
 42
0.063
 43
0.25
 44
0.093
140
0.125
170
     1
171
     0
174
     1
271
     3
272
     3
274
     0
340
41
  0
ENDTAB
  0
TABLE
  2
BLOCK_RECORD
  5
1
330
0
100
AcDbSymbolTable
 70
    31
  0
BLOCK_RECORD
  5
1E
330
1
100
AcDbSymbolTableRecord
100
AcDbBlockTableRecord
  2
*Model_Space
340
21
  0
BLOCK_RECORD
  5
1A
330
1
100
AcDbSymbolTableRecord
100
AcDbBlockTableRecord
  2
*Paper_Space
340
1D
  0
BLOCK_RECORD
  5
22
330
1
100
AcDbSymbolTableRecord
100
AcDbBlockTableRecord
  2
*X0
340
0
102
{BLKREFS
331
33D
102
}
  0
BLOCK_RECORD
  5
23
330
1
100
AcDbSymbolTableRecord
100
AcDbBlockTableRecord
  2
*X1
340
0
102
{BLKREFS
331
472
102
}
  0
BLOCK_RECORD
  5
24
330
1
100
AcDbSymbolTableRecord
100
AcDbBlockTableRecord
  2
*X2
340
0
102
{BLKREFS
331
410
102
}
  0
BLOCK_RECORD
  5
3E
330
1
100
AcDbSymbolTableRecord
100
AcDbBlockTableRecord
  2
HBS
340
0
102
{BLKREFS
331
6FE
102
}
  0
BLOCK_RECORD
  5
70B
330
1
100
AcDbSymbolTableRecord
100
AcDbBlockTableRecord
  2
*D4
340
0
  0
BLOCK_RECORD
  5
718
330
1
100
AcDbSymbolTableRecord
100
AcDbBlockTableRecord
  2
*D5
340
0
  0
BLOCK_RECORD
  5
725
330
1
100
AcDbSymbolTableRecord
100
AcDbBlockTableRecord
  2
*D6
340
0
  0
BLOCK_RECORD
  5
732
330
1
100
AcDbSymbolTableRecord
100
AcDbBlockTableRecord
  2
*D7
340
0
  0
BLOCK_RECORD
  5
73F
330
1
100
AcDbSymbolTableRecord
100
AcDbBlockTableRecord
  2
*D8
340
0
  0
BLOCK_RECORD
  5
74C
330
1
100
AcDbSymbolTableRecord
100
AcDbBlockTableRecord
  2
*D9
340
0
  0
BLOCK_RECORD
  5
759
330
1
100
AcDbSymbolTableRecord
100
AcDbBlockTableRecord
  2
*D10
340
0
  0
BLOCK_RECORD
  5
766
330
1
100
AcDbSymbolTableRecord
100
AcDbBlockTableRecord
  2
*D11
340
0
  0
BLOCK_RECORD
  5
773
330
1
100
AcDbSymbolTableRecord
100
AcDbBlockTableRecord
  2
*D12
340
0
  0
BLOCK_RECORD
  5
780
330
1
100
AcDbSymbolTableRecord
100
AcDbBlockTableRecord
  2
*D13
340
0
  0
BLOCK_RECORD
  5
78D
330
1
100
AcDbSymbolTableRecord
100
AcDbBlockTableRecord
  2
*D14
340
0
  0
BLOCK_RECORD
  5
79A
330
1
100
AcDbSymbolTableRecord
100
AcDbBlockTableRecord
  2
*D15
340
0
  0
BLOCK_RECORD
  5
7A7
330
1
100
AcDbSymbolTableRecord
100
AcDbBlockTableRecord
  2
*D16
340
0
  0
BLOCK_RECORD
  5
7B4
330
1
100
AcDbSymbolTableRecord
100
AcDbBlockTableRecord
  2
*D17
340
0
  0
BLOCK_RECORD
  5
7C1
330
1
100
AcDbSymbolTableRecord
100
AcDbBlockTableRecord
  2
*D18
340
0
  0
BLOCK_RECORD
  5
7CE
330
1
100
AcDbSymbolTableRecord
100
AcDbBlockTableRecord
  2
*D19
340
0
  0
BLOCK_RECORD
  5
7DB
330
1
100
AcDbSymbolTableRecord
100
AcDbBlockTableRecord
  2
*D20
340
0
  0
BLOCK_RECORD
  5
7E8
330
1
100
AcDbSymbolTableRecord
100
AcDbBlockTableRecord
  2
*D21
340
0
  0
BLOCK_RECORD
  5
7F5
330
1
100
AcDbSymbolTableRecord
100
AcDbBlockTableRecord
  2
*D22
340
0
  0
BLOCK_RECORD
  5
802
330
1
100
AcDbSymbolTableRecord
100
AcDbBlockTableRecord
  2
*D23
340
0
  0
BLOCK_RECORD
  5
80F
330
1
100
AcDbSymbolTableRecord
100
AcDbBlockTableRecord
  2
*D24
340
0
  0
BLOCK_RECORD
  5
81C
330
1
100
AcDbSymbolTableRecord
100
AcDbBlockTableRecord
  2
*D25
340
0
  0
BLOCK_RECORD
  5
829
330
1
100
AcDbSymbolTableRecord
100
AcDbBlockTableRecord
  2
*D26
340
0
  0
BLOCK_RECORD
  5
836
330
1
100
AcDbSymbolTableRecord
100
AcDbBlockTableRecord
  2
*D27
340
0
  0
BLOCK_RECORD
  5
843
330
1
100
AcDbSymbolTableRecord
100
AcDbBlockTableRecord
  2
*D28
340
0
  0
BLOCK_RECORD
  5
850
330
1
100
AcDbSymbolTableRecord
100
AcDbBlockTableRecord
  2
*D29
340
0
  0
BLOCK_RECORD
  5
85D
330
1
100
AcDbSymbolTableRecord
100
AcDbBlockTableRecord
  2
*D30
340
0
  0
ENDTAB
  0
ENDSEC
  0
SECTION
  2
BLOCKS
  0
BLOCK
  5
54
330
1E
100
AcDbEntity
  8
0
100
AcDbBlockBegin
  2
*Model_Space
 70
     0
 10
0.0
 20
0.0
 30
0.0
  3
*Model_Space
  1

  0
ENDBLK
  5
55
330
1E
100
AcDbEntity
  8
0
100
AcDbBlockEnd
  0
BLOCK
  5
52
330
1A
100
AcDbEntity
 67
     1
  8
0
100
AcDbBlockBegin
  2
*Paper_Space
 70
     0
 10
0.0
 20
0.0
 30
0.0
  3
*Paper_Space
  1

  0
ENDBLK
  5
53
330
1A
100
AcDbEntity
 67
     1
  8
0
100
AcDbBlockEnd
  0
BLOCK
  5
56
330
22
100
AcDbEntity
  8
0
100
AcDbBlockBegin
  2
*X0
 70
     1
 10
0.0
 20
0.0
 30
0.0
  3
*X0
  1

  0
LINE
  5
57
330
22
100
AcDbEntity
  8
0
 62
     0
100
AcDbLine
 10
94.82170693347129
 20
8.377902933415866
 30
0.0
 11
94.8997069334713
 21
8.45590293341587
 31
0.0
  0
LINE
  5
58
330
22
100
AcDbEntity
  8
0
 62
     0
100
AcDbLine
 10
94.82170693347129
 20
8.908233019305777
 30
0.0
 11
94.8997069334713
 21
8.986233019305782
 31
0.0
  0
LINE
  5
59
330
22
100
AcDbEntity
  8
0
 62
     0
100
AcDbLine
 10
94.82170693347129
 20
9.438563105195688
 30
0.0
 11
94.8997069334713
 21
9.516563105195693
 31
0.0
  0
LINE
  5
5A
330
22
100
AcDbEntity
  8
0
 62
     0
100
AcDbLine
 10
94.82170693347129
 20
9.968893191085587
 30
0.0
 11
94.8997069334713
 21
10.04689319108559
 31
0.0
  0
LINE
  5
5B
330
22
100
AcDbEntity
  8
0
 62
     0
100
AcDbLine
 10
94.82170693347129
 20
10.4992232769755
 30
0.0
 11
94.87490109175817
 21
10.55241743526239
 31
0.0
  0
LINE
  5
5C
330
22
100
AcDbEntity
  8
0
 62
     0
100
AcDbLine
 10
94.82170693347129
 20
7.847572847525955
 30
0.0
 11
94.8997069334713
 21
7.925572847525961
 31
0.0
  0
LINE
  5
5D
330
22
100
AcDbEntity
  8
0
 62
     0
100
AcDbLine
 10
94.82170693347129
 20
7.317242761636045
 30
0.0
 11
94.8997069334713
 21
7.395242761636049
 31
0.0
  0
LINE
  5
5E
330
22
100
AcDbEntity
  8
0
 62
     0
100
AcDbLine
 10
94.82170693347129
 20
6.786912675746134
 30
0.0
 11
94.8997069334713
 21
6.864912675746139
 31
0.0
  0
LINE
  5
5F
330
22
100
AcDbEntity
  8
0
 62
     0
100
AcDbLine
 10
94.82170693347129
 20
6.256582589856224
 30
0.0
 11
94.8997069334713
 21
6.334582589856228
 31
0.0
  0
LINE
  5
60
330
22
100
AcDbEntity
  8
0
 62
     0
100
AcDbLine
 10
94.82170693347129
 20
5.726252503966312
 30
0.0
 11
94.8997069334713
 21
5.804252503966318
 31
0.0
  0
LINE
  5
61
330
22
100
AcDbEntity
  8
0
 62
     0
100
AcDbLine
 10
94.82170693347129
 20
8.201126238415863
 30
0.0
 11
94.8997069334713
 21
8.279126238415869
 31
0.0
  0
LINE
  5
62
330
22
100
AcDbEntity
  8
0
 62
     0
100
AcDbLine
 10
94.82170693347129
 20
8.731456324305774
 30
0.0
 11
94.8997069334713
 21
8.809456324305779
 31
0.0
  0
LINE
  5
63
330
22
100
AcDbEntity
  8
0
 62
     0
100
AcDbLine
 10
94.82170693347129
 20
9.261786410195686
 30
0.0
 11
94.8997069334713
 21
9.33978641019569
 31
0.0
  0
LINE
  5
64
330
22
100
AcDbEntity
  8
0
 62
     0
100
AcDbLine
 10
94.82170693347129
 20
9.792116496085595
 30
0.0
 11
94.8997069334713
 21
9.8701164960856
 31
0.0
  0
LINE
  5
65
330
22
100
AcDbEntity
  8
0
 62
     0
100
AcDbLine
 10
94.82170693347129
 20
10.3224465819755
 30
0.0
 11
94.8997069334713
 21
10.40044658197551
 31
0.0
  0
LINE
  5
66
330
22
100
AcDbEntity
  8
0
 62
     0
100
AcDbLine
 10
94.82170693347129
 20
7.670796152525953
 30
0.0
 11
94.8997069334713
 21
7.748796152525958
 31
0.0
  0
LINE
  5
67
330
22
100
AcDbEntity
  8
0
 62
     0
100
AcDbLine
 10
94.82170693347129
 20
7.140466066636042
 30
0.0
 11
94.8997069334713
 21
7.218466066636048
 31
0.0
  0
LINE
  5
68
330
22
100
AcDbEntity
  8
0
 62
     0
100
AcDbLine
 10
94.82170693347129
 20
6.610135980746131
 30
0.0
 11
94.8997069334713
 21
6.688135980746136
 31
0.0
  0
LINE
  5
69
330
22
100
AcDbEntity
  8
0
 62
     0
100
AcDbLine
 10
94.82170693347129
 20
6.079805894856221
 30
0.0
 11
94.8997069334713
 21
6.157805894856226
 31
0.0
  0
LINE
  5
6A
330
22
100
AcDbEntity
  8
0
 62
     0
100
AcDbLine
 10
94.82170693347129
 20
5.54947580896631
 30
0.0
 11
94.8997069334713
 21
5.627475808966315
 31
0.0
  0
ENDBLK
  5
6B
330
22
100
AcDbEntity
  8
0
100
AcDbBlockEnd
  0
BLOCK
  5
6C
330
23
100
AcDbEntity
  8
0
100
AcDbBlockBegin
  2
*X1
 70
     1
 10
0.0
 20
0.0
 30
0.0
  3
*X1
  1

  0
LINE
  5
6D
330
23
100
AcDbEntity
  8
0
 62
     0
100
AcDbLine
 10
13.17199065049241
 20
20.59661185295115
 30
0.0
 11
13.30499065049241
 21
20.72961185295115
 31
0.0
  0
LINE
  5
6E
330
23
100
AcDbEntity
  8
0
 62
     0
100
AcDbLine
 10
13.17199065049241
 20
21.12694193884107
 30
0.0
 11
13.30499065049241
 21
21.25994193884106
 31
0.0
  0
LINE
  5
6F
330
23
100
AcDbEntity
  8
0
 62
     0
100
AcDbLine
 10
13.17199065049241
 20
21.65727202473098
 30
0.0
 11
13.30499065049241
 21
21.79027202473097
 31
0.0
  0
LINE
  5
70
330
23
100
AcDbEntity
  8
0
 62
     0
100
AcDbLine
 10
13.17199065049241
 20
22.18760211062089
 30
0.0
 11
13.30499065049241
 21
22.32060211062088
 31
0.0
  0
LINE
  5
71
330
23
100
AcDbEntity
  8
0
 62
     0
100
AcDbLine
 10
13.17199065049241
 20
22.7179321965108
 30
0.0
 11
13.30499065049241
 21
22.8509321965108
 31
0.0
  0
LINE
  5
72
330
23
100
AcDbEntity
  8
0
 62
     0
100
AcDbLine
 10
13.17199065049241
 20
23.24826228240071
 30
0.0
 11
13.30499065049241
 21
23.38126228240071
 31
0.0
  0
LINE
  5
73
330
23
100
AcDbEntity
  8
0
 62
     0
100
AcDbLine
 10
13.17199065049241
 20
23.77859236829062
 30
0.0
 11
13.30499065049241
 21
23.91159236829062
 31
0.0
  0
LINE
  5
74
330
23
100
AcDbEntity
  8
0
 62
     0
100
AcDbLine
 10
13.17199065049241
 20
20.06628176706124
 30
0.0
 11
13.30499065049241
 21
20.19928176706125
 31
0.0
  0
LINE
  5
75
330
23
100
AcDbEntity
  8
0
 62
     0
100
AcDbLine
 10
13.17199065049241
 20
19.53595168117134
 30
0.0
 11
13.30499065049241
 21
19.66895168117133
 31
0.0
  0
LINE
  5
76
330
23
100
AcDbEntity
  8
0
 62
     0
100
AcDbLine
 10
13.17199065049241
 20
19.00562159528142
 30
0.0
 11
13.30499065049241
 21
19.13862159528142
 31
0.0
  0
LINE
  5
77
330
23
100
AcDbEntity
  8
0
 62
     0
100
AcDbLine
 10
13.49905170798111
 20
18.80235256688021
 30
0.0
 11
13.63466509576162
 21
18.93796595466072
 31
0.0
  0
LINE
  5
78
330
23
100
AcDbEntity
  8
0
 62
     0
100
AcDbLine
 10
13.97232310180724
 20
18.74529387481643
 30
0.0
 11
14.13231286694283
 21
18.90528363995203
 31
0.0
  0
LINE
  5
79
330
23
100
AcDbEntity
  8
0
 62
     0
100
AcDbLine
 10
14.24660553175125
 20
18.48924621887054
 30
0.0
 11
14.35677802949225
 21
18.59941871661154
 31
0.0
  0
LINE
  5
7A
330
23
100
AcDbEntity
  8
0
 62
     0
100
AcDbLine
 10
13.17199065049241
 20
20.6629031136874
 30
0.0
 11
13.30499065049241
 21
20.79590311368739
 31
0.0
  0
LINE
  5
7B
330
23
100
AcDbEntity
  8
0
 62
     0
100
AcDbLine
 10
13.17199065049241
 20
21.19323319957731
 30
0.0
 11
13.30499065049241
 21
21.32623319957731
 31
0.0
  0
LINE
  5
7C
330
23
100
AcDbEntity
  8
0
 62
     0
100
AcDbLine
 10
13.17199065049241
 20
21.72356328546722
 30
0.0
 11
13.30499065049241
 21
21.85656328546721
 31
0.0
  0
LINE
  5
7D
330
23
100
AcDbEntity
  8
0
 62
     0
100
AcDbLine
 10
13.17199065049241
 20
22.25389337135713
 30
0.0
 11
13.30499065049241
 21
22.38689337135713
 31
0.0
  0
LINE
  5
7E
330
23
100
AcDbEntity
  8
0
 62
     0
100
AcDbLine
 10
13.17199065049241
 20
22.78422345724704
 30
0.0
 11
13.30499065049241
 21
22.91722345724704
 31
0.0
  0
LINE
  5
7F
330
23
100
AcDbEntity
  8
0
 62
     0
100
AcDbLine
 10
13.17199065049241
 20
23.31455354313695
 30
0.0
 11
13.30499065049241
 21
23.44755354313695
 31
0.0
  0
LINE
  5
80
330
23
100
AcDbEntity
  8
0
 62
     0
100
AcDbLine
 10
13.17199065049241
 20
23.84488362902686
 30
0.0
 11
13.30499065049241
 21
23.97788362902685
 31
0.0
  0
LINE
  5
81
330
23
100
AcDbEntity
  8
0
 62
     0
100
AcDbLine
 10
13.17199065049241
 20
20.13257302779748
 30
0.0
 11
13.30499065049241
 21
20.26557302779748
 31
0.0
  0
LINE
  5
82
330
23
100
AcDbEntity
  8
0
 62
     0
100
AcDbLine
 10
13.17199065049241
 20
19.60224294190758
 30
0.0
 11
13.30499065049241
 21
19.73524294190757
 31
0.0
  0
LINE
  5
83
330
23
100
AcDbEntity
  8
0
 62
     0
100
AcDbLine
 10
13.17199065049241
 20
19.07191285601767
 30
0.0
 11
13.30499065049241
 21
19.20491285601766
 31
0.0
  0
LINE
  5
84
330
23
100
AcDbEntity
  8
0
 62
     0
100
AcDbLine
 10
13.43989278375284
 20
18.80948490338818
 30
0.0
 11
13.57245912436396
 21
18.94205124399931
 31
0.0
  0
LINE
  5
85
330
23
100
AcDbEntity
  8
0
 62
     0
100
AcDbLine
 10
13.91316417757897
 20
18.75242621132441
 30
0.0
 11
14.07010689554518
 21
18.90936892929062
 31
0.0
  0
LINE
  5
86
330
23
100
AcDbEntity
  8
0
 62
     0
100
AcDbLine
 10
14.18464684448757
 20
18.49357879234309
 30
0.0
 11
14.29691501626654
 21
18.60584696412207
 31
0.0
  0
LINE
  5
87
330
23
100
AcDbEntity
  8
0
 62
     0
100
AcDbLine
 10
13.17199065049241
 20
20.19886428853372
 30
0.0
 11
13.30499065049241
 21
20.33186428853372
 31
0.0
  0
LINE
  5
88
330
23
100
AcDbEntity
  8
0
 62
     0
100
AcDbLine
 10
13.17199065049241
 20
20.72919437442363
 30
0.0
 11
13.30499065049241
 21
20.86219437442363
 31
0.0
  0
LINE
  5
89
330
23
100
AcDbEntity
  8
0
 62
     0
100
AcDbLine
 10
13.17199065049241
 20
21.25952446031355
 30
0.0
 11
13.30499065049241
 21
21.39252446031354
 31
0.0
  0
LINE
  5
8A
330
23
100
AcDbEntity
  8
0
 62
     0
100
AcDbLine
 10
13.17199065049241
 20
21.78985454620346
 30
0.0
 11
13.30499065049241
 21
21.92285454620345
 31
0.0
  0
LINE
  5
8B
330
23
100
AcDbEntity
  8
0
 62
     0
100
AcDbLine
 10
13.17199065049241
 20
22.32018463209337
 30
0.0
 11
13.30499065049241
 21
22.45318463209336
 31
0.0
  0
LINE
  5
8C
330
23
100
AcDbEntity
  8
0
 62
     0
100
AcDbLine
 10
13.17199065049241
 20
22.85051471798328
 30
0.0
 11
13.30499065049241
 21
22.98351471798328
 31
0.0
  0
LINE
  5
8D
330
23
100
AcDbEntity
  8
0
 62
     0
100
AcDbLine
 10
13.17199065049241
 20
23.38084480387319
 30
0.0
 11
13.30499065049241
 21
23.51384480387319
 31
0.0
  0
LINE
  5
8E
330
23
100
AcDbEntity
  8
0
 62
     0
100
AcDbLine
 10
13.17199065049241
 20
23.9111748897631
 30
0.0
 11
13.30499065049241
 21
24.0441748897631
 31
0.0
  0
LINE
  5
8F
330
23
100
AcDbEntity
  8
0
 62
     0
100
AcDbLine
 10
13.17199065049241
 20
19.66853420264381
 30
0.0
 11
13.30499065049241
 21
19.80153420264381
 31
0.0
  0
LINE
  5
90
330
23
100
AcDbEntity
  8
0
 62
     0
100
AcDbLine
 10
13.17199065049241
 20
19.1382041167539
 30
0.0
 11
13.30499065049241
 21
19.2712041167539
 31
0.0
  0
LINE
  5
91
330
23
100
AcDbEntity
  8
0
 62
     0
100
AcDbLine
 10
13.38073385952457
 20
18.81661723989616
 30
0.0
 11
13.51025315296631
 21
18.9461365333379
 31
0.0
  0
LINE
  5
92
330
23
100
AcDbEntity
  8
0
 62
     0
100
AcDbLine
 10
13.85400525335071
 20
18.75955854783238
 30
0.0
 11
14.00790092414753
 21
18.9134542186292
 31
0.0
  0
LINE
  5
93
330
23
100
AcDbEntity
  8
0
 62
     0
100
AcDbLine
 10
14.12268815722388
 20
18.49791136581565
 30
0.0
 11
14.23176102271813
 21
18.6069842313099
 31
0.0
  0
LINE
  5
94
330
23
100
AcDbEntity
  8
0
 62
     0
100
AcDbLine
 10
13.17199065049241
 20
20.39773807074244
 30
0.0
 11
13.30499065049241
 21
20.53073807074244
 31
0.0
  0
LINE
  5
95
330
23
100
AcDbEntity
  8
0
 62
     0
100
AcDbLine
 10
13.17199065049241
 20
20.92806815663235
 30
0.0
 11
13.30499065049241
 21
21.06106815663235
 31
0.0
  0
LINE
  5
96
330
23
100
AcDbEntity
  8
0
 62
     0
100
AcDbLine
 10
13.17199065049241
 20
21.45839824252226
 30
0.0
 11
13.30499065049241
 21
21.59139824252226
 31
0.0
  0
LINE
  5
97
330
23
100
AcDbEntity
  8
0
 62
     0
100
AcDbLine
 10
13.17199065049241
 20
21.98872832841217
 30
0.0
 11
13.30499065049241
 21
22.12172832841217
 31
0.0
  0
LINE
  5
98
330
23
100
AcDbEntity
  8
0
 62
     0
100
AcDbLine
 10
13.17199065049241
 20
22.51905841430208
 30
0.0
 11
13.30499065049241
 21
22.65205841430208
 31
0.0
  0
LINE
  5
99
330
23
100
AcDbEntity
  8
0
 62
     0
100
AcDbLine
 10
13.17199065049241
 20
23.04938850019199
 30
0.0
 11
13.30499065049241
 21
23.18238850019199
 31
0.0
  0
LINE
  5
9A
330
23
100
AcDbEntity
  8
0
 62
     0
100
AcDbLine
 10
13.17199065049241
 20
23.57971858608191
 30
0.0
 11
13.30499065049241
 21
23.7127185860819
 31
0.0
  0
LINE
  5
9B
330
23
100
AcDbEntity
  8
0
 62
     0
100
AcDbLine
 10
13.17199065049241
 20
24.11004867197181
 30
0.0
 11
13.18348418586024
 21
24.12154220733965
 31
0.0
  0
LINE
  5
9C
330
23
100
AcDbEntity
  8
0
 62
     0
100
AcDbLine
 10
13.17199065049241
 20
19.86740798485253
 30
0.0
 11
13.30499065049241
 21
20.00040798485253
 31
0.0
  0
LINE
  5
9D
330
23
100
AcDbEntity
  8
0
 62
     0
100
AcDbLine
 10
13.17199065049241
 20
19.33707789896262
 30
0.0
 11
13.30499065049241
 21
19.47007789896262
 31
0.0
  0
LINE
  5
9E
330
23
100
AcDbEntity
  8
0
 62
     0
100
AcDbLine
 10
13.23136844094088
 20
18.86612560352117
 30
0.0
 11
13.32651629225089
 21
18.96127345483119
 31
0.0
  0
LINE
  5
9F
330
23
100
AcDbEntity
  8
0
 62
     0
100
AcDbLine
 10
13.67652848066591
 20
18.7809555573563
 30
0.0
 11
13.82128300995457
 21
18.92571008664496
 31
0.0
  0
LINE
  5
A0
330
23
100
AcDbEntity
  8
0
 62
     0
100
AcDbLine
 10
14.06150244449213
 20
18.6355994352926
 30
0.0
 11
14.31893078113579
 21
18.89302777193627
 31
0.0
  0
ENDBLK
  5
A1
330
23
100
AcDbEntity
  8
0
100
AcDbBlockEnd
  0
BLOCK
  5
A2
330
24
100
AcDbEntity
  8
0
100
AcDbBlockBegin
  2
*X2
 70
     1
 10
0.0
 20
0.0
 30
0.0
  3
*X2
  1

  0
LINE
  5
A3
330
24
100
AcDbEntity
  8
0
 62
     0
100
AcDbLine
 10
18.76654172649273
 20
18.88689437169091
 30
0.0
 11
18.59155459197279
 21
19.06188150621085
 31
0.0
  0
LINE
  5
A4
330
24
100
AcDbEntity
  8
0
 62
     0
100
AcDbLine
 10
18.42863814666424
 20
19.2247979515194
 30
0.0
 11
18.27348660949313
 21
19.37994948869051
 31
0.0
  0
LINE
  5
A5
330
24
100
AcDbEntity
  8
0
 62
     0
100
AcDbLine
 10
18.76654172649274
 20
19.41722445758081
 30
0.0
 11
18.75488224526531
 21
19.42888393880825
 31
0.0
  0
LINE
  5
A6
330
24
100
AcDbEntity
  8
0
 62
     0
100
AcDbLine
 10
18.48641783375438
 20
19.69734835031918
 30
0.0
 11
18.28896586628321
 21
19.89480031779035
 31
0.0
  0
LINE
  5
A7
330
24
100
AcDbEntity
  8
0
 62
     0
100
AcDbLine
 10
18.68648660949289
 20
19.49727957458067
 30
0.0
 11
18.55348660949291
 21
19.63027957458065
 31
0.0
  0
LINE
  5
A8
330
24
100
AcDbEntity
  8
0
 62
     0
100
AcDbLine
 10
18.76654172649273
 20
19.94755454347073
 30
0.0
 11
18.44769179084549
 21
20.26640447911797
 31
0.0
  0
LINE
  5
A9
330
24
100
AcDbEntity
  8
0
 62
     0
100
AcDbLine
 10
18.72249216617515
 20
20.52193418967822
 30
0.0
 11
18.58881731149288
 21
20.6556090443605
 31
0.0
  0
LINE
  5
AA
330
24
100
AcDbEntity
  8
0
 62
     0
100
AcDbLine
 10
18.48888414851375
 20
20.75554220733963
 30
0.0
 11
18.35858576501489
 21
20.88584059083849
 31
0.0
  0
LINE
  5
AB
330
24
100
AcDbEntity
  8
0
 62
     0
100
AcDbLine
 10
18.68648660949289
 20
21.0882698322504
 30
0.0
 11
18.5534866094929
 21
21.22126983225039
 31
0.0
  0
LINE
  5
AC
330
24
100
AcDbEntity
  8
0
 62
     0
100
AcDbLine
 10
18.33261978418485
 20
21.44213665755843
 30
0.0
 11
18.27348660949292
 21
21.50126983225037
 31
0.0
  0
LINE
  5
AD
330
24
100
AcDbEntity
  8
0
 62
     0
100
AcDbLine
 10
18.76654172649274
 20
21.53854480114045
 30
0.0
 11
18.58881731149288
 21
21.71626921614032
 31
0.0
  0
LINE
  5
AE
330
24
100
AcDbEntity
  8
0
 62
     0
100
AcDbLine
 10
18.56354432029356
 20
21.74154220733963
 30
0.0
 11
18.43076410280941
 21
21.87432242482379
 31
0.0
  0
LINE
  5
AF
330
24
100
AcDbEntity
  8
0
 62
     0
100
AcDbLine
 10
18.6864866094929
 20
22.14893000403022
 30
0.0
 11
18.5534866094929
 21
22.28193000403021
 31
0.0
  0
LINE
  5
B0
330
24
100
AcDbEntity
  8
0
 62
     0
100
AcDbLine
 10
18.40993854199895
 20
22.42547807152415
 30
0.0
 11
18.27787440618348
 21
22.55754220733963
 31
0.0
  0
LINE
  5
B1
330
24
100
AcDbEntity
  8
0
 62
     0
100
AcDbLine
 10
18.76654172649274
 20
22.59920497292028
 30
0.0
 11
18.50294244060393
 21
22.86280425880908
 31
0.0
  0
LINE
  5
B2
330
24
100
AcDbEntity
  8
0
 62
     0
100
AcDbLine
 10
18.6864866094929
 20
23.20959017581003
 30
0.0
 11
18.5534866094929
 21
23.34259017581003
 31
0.0
  0
LINE
  5
B3
330
24
100
AcDbEntity
  8
0
 62
     0
100
AcDbLine
 10
18.48725729981305
 20
23.40881948548988
 30
0.0
 11
18.35253457796331
 21
23.54354220733962
 31
0.0
  0
LINE
  5
B4
330
24
100
AcDbEntity
  8
0
 62
     0
100
AcDbLine
 10
18.76654172649274
 20
23.6598651447001
 30
0.0
 11
18.5534866094929
 21
23.87292026169994
 31
0.0
  0
LINE
  5
B5
330
24
100
AcDbEntity
  8
0
 62
     0
100
AcDbLine
 10
18.32752509407766
 20
18.79558091821607
 30
0.0
 11
18.19356842180381
 21
18.92953759048993
 31
0.0
  0
LINE
  5
B6
330
24
100
AcDbEntity
  8
0
 62
     0
100
AcDbLine
 10
17.80585834995097
 20
18.78691757645286
 30
0.0
 11
17.6685741377599
 21
18.92420178864393
 31
0.0
  0
LINE
  5
B7
330
24
100
AcDbEntity
  8
0
 62
     0
100
AcDbLine
 10
17.28419160582428
 20
18.77825423468964
 30
0.0
 11
17.14357985371599
 21
18.91886598679793
 31
0.0
  0
LINE
  5
B8
330
24
100
AcDbEntity
  8
0
 62
     0
100
AcDbLine
 10
16.76252486169758
 20
18.76959089292642
 30
0.0
 11
16.61858556967207
 21
18.91353018495193
 31
0.0
  0
LINE
  5
B9
330
24
100
AcDbEntity
  8
0
 62
     0
100
AcDbLine
 10
16.24085811757089
 20
18.7609275511632
 30
0.0
 11
16.09359128562816
 21
18.90819438310593
 31
0.0
  0
LINE
  5
BA
330
24
100
AcDbEntity
  8
0
 62
     0
100
AcDbLine
 10
15.7191913734442
 20
18.75226420939998
 30
0.0
 11
15.56859700158425
 21
18.90285858125993
 31
0.0
  0
LINE
  5
BB
330
24
100
AcDbEntity
  8
0
 62
     0
100
AcDbLine
 10
15.1975246293175
 20
18.74360086763677
 30
0.0
 11
15.04360271754034
 21
18.89752277941393
 31
0.0
  0
LINE
  5
BC
330
24
100
AcDbEntity
  8
0
 62
     0
100
AcDbLine
 10
14.67585788519081
 20
18.73493752587355
 30
0.0
 11
14.51860843349643
 21
18.89218697756794
 31
0.0
  0
LINE
  5
BD
330
24
100
AcDbEntity
  8
0
 62
     0
100
AcDbLine
 10
14.39616865684365
 20
18.48429666833079
 30
0.0
 11
14.35677802949226
 21
18.52368729568219
 31
0.0
  0
LINE
  5
BE
330
24
100
AcDbEntity
  8
0
 62
     0
100
AcDbLine
 10
18.76654172649274
 20
18.95318563242715
 30
0.0
 11
18.65842250746186
 21
19.06130485145802
 31
0.0
  0
LINE
  5
BF
330
24
100
AcDbEntity
  8
0
 62
     0
100
AcDbLine
 10
18.49436261350671
 20
19.22536474541318
 30
0.0
 11
18.29700423354726
 21
19.42272312537263
 31
0.0
  0
LINE
  5
C0
330
24
100
AcDbEntity
  8
0
 62
     0
100
AcDbLine
 10
18.68648660949289
 20
19.56357083531691
 30
0.0
 11
18.35052066522196
 21
19.89953677958784
 31
0.0
  0
LINE
  5
C1
330
24
100
AcDbEntity
  8
0
 62
     0
100
AcDbLine
 10
18.76654172649273
 20
20.01384580420697
 30
0.0
 11
18.51177941475769
 21
20.26860811594202
 31
0.0
  0
LINE
  5
C2
330
24
100
AcDbEntity
  8
0
 62
     0
100
AcDbLine
 10
18.32395286324534
 20
20.45643466745437
 30
0.0
 11
18.27348660949291
 21
20.50690092120679
 31
0.0
  0
LINE
  5
C3
330
24
100
AcDbEntity
  8
0
 62
     0
100
AcDbLine
 10
18.76654172649273
 20
20.54417589009688
 30
0.0
 11
18.58881731149288
 21
20.72190030509674
 31
0.0
  0
LINE
  5
C4
330
24
100
AcDbEntity
  8
0
 62
     0
100
AcDbLine
 10
18.55517540924998
 20
20.75554220733963
 30
0.0
 11
18.42267338892709
 21
20.88804422766253
 31
0.0
  0
LINE
  5
C5
330
24
100
AcDbEntity
  8
0
 62
     0
100
AcDbLine
 10
18.68648660949289
 20
21.15456109298663
 30
0.0
 11
18.5534866094929
 21
21.28756109298663
 31
0.0
  0
LINE
  5
C6
330
24
100
AcDbEntity
  8
0
 62
     0
100
AcDbLine
 10
18.40127162105943
 20
21.43977608142009
 30
0.0
 11
18.27348660949296
 21
21.56756109298656
 31
0.0
  0
LINE
  5
C7
330
24
100
AcDbEntity
  8
0
 62
     0
100
AcDbLine
 10
18.76654172649274
 20
21.60483606187669
 30
0.0
 11
18.4948517267216
 21
21.87652606164783
 31
0.0
  0
LINE
  5
C8
330
24
100
AcDbEntity
  8
0
 62
     0
100
AcDbLine
 10
18.6864866094929
 20
22.21522126476645
 30
0.0
 11
18.5534866094929
 21
22.34822126476645
 31
0.0
  0
LINE
  5
C9
330
24
100
AcDbEntity
  8
0
 62
     0
100
AcDbLine
 10
18.47859037887354
 20
22.42311749538581
 30
0.0
 11
18.34416566691972
 21
22.55754220733963
 31
0.0
  0
LINE
  5
CA
330
24
100
AcDbEntity
  8
0
 62
     0
100
AcDbLine
 10
18.76654172649275
 20
22.66549623365651
 30
0.0
 11
18.5534866094929
 21
22.87855135065636
 31
0.0
  0
LINE
  5
CB
330
24
100
AcDbEntity
  8
0
 62
     0
100
AcDbLine
 10
18.6864866094929
 20
23.27588143654627
 30
0.0
 11
18.41882583869955
 21
23.54354220733962
 31
0.0
  0
LINE
  5
CC
330
24
100
AcDbEntity
  8
0
 62
     0
100
AcDbLine
 10
18.76654172649275
 20
23.72615640543633
 30
0.0
 11
18.71526864405476
 21
23.77742948787433
 31
0.0
  0
LINE
  5
CD
330
24
100
AcDbEntity
  8
0
 62
     0
100
AcDbLine
 10
18.6864866094929
 20
23.80621152243619
 30
0.0
 11
18.5534866094929
 21
23.93921152243618
 31
0.0
  0
LINE
  5
CE
330
24
100
AcDbEntity
  8
0
 62
     0
100
AcDbLine
 10
18.3927334370935
 20
18.79666383593647
 30
0.0
 11
18.2591927073093
 21
18.93020456572068
 31
0.0
  0
LINE
  5
CF
330
24
100
AcDbEntity
  8
0
 62
     0
100
AcDbLine
 10
17.87106669296681
 20
18.78800049417326
 30
0.0
 11
17.73419842326538
 21
18.92486876387468
 31
0.0
  0
LINE
  5
D0
330
24
100
AcDbEntity
  8
0
 62
     0
100
AcDbLine
 10
17.34939994884012
 20
18.77933715241004
 30
0.0
 11
17.20920413922148
 21
18.91953296202868
 31
0.0
  0
LINE
  5
D1
330
24
100
AcDbEntity
  8
0
 62
     0
100
AcDbLine
 10
16.82773320471342
 20
18.77067381064682
 30
0.0
 11
16.68420985517756
 21
18.91419716018268
 31
0.0
  0
LINE
  5
D2
330
24
100
AcDbEntity
  8
0
 62
     0
100
AcDbLine
 10
16.30606646058673
 20
18.7620104688836
 30
0.0
 11
16.15921557113365
 21
18.90886135833668
 31
0.0
  0
LINE
  5
D3
330
24
100
AcDbEntity
  8
0
 62
     0
100
AcDbLine
 10
15.78439971646004
 20
18.75334712712039
 30
0.0
 11
15.63422128708974
 21
18.90352555649069
 31
0.0
  0
LINE
  5
D4
330
24
100
AcDbEntity
  8
0
 62
     0
100
AcDbLine
 10
15.26273297233334
 20
18.74468378535717
 30
0.0
 11
15.10922700304583
 21
18.89818975464468
 31
0.0
  0
LINE
  5
D5
330
24
100
AcDbEntity
  8
0
 62
     0
100
AcDbLine
 10
14.74106622820665
 20
18.73602044359395
 30
0.0
 11
14.58423271900192
 21
18.89285395279868
 31
0.0
  0
LINE
  5
D6
330
24
100
AcDbEntity
  8
0
 62
     0
100
AcDbLine
 10
14.45812734410734
 20
18.48862924180335
 30
0.0
 11
14.35677802949226
 21
18.58997855641843
 31
0.0
  0
LINE
  5
D7
330
24
100
AcDbEntity
  8
0
 62
     0
100
AcDbLine
 10
14.31321437857106
 20
18.63354220733963
 30
0.0
 11
14.25714746834081
 21
18.68960911756988
 31
0.0
  0
LINE
  5
D8
330
24
100
AcDbEntity
  8
0
 62
     0
100
AcDbLine
 10
18.76654172649274
 20
19.01947689316338
 30
0.0
 11
18.72529042295094
 21
19.06072819670518
 31
0.0
  0
LINE
  5
D9
330
24
100
AcDbEntity
  8
0
 62
     0
100
AcDbLine
 10
18.56008708034918
 20
19.22593153930694
 30
0.0
 11
18.36109185745945
 21
19.42492676219667
 31
0.0
  0
LINE
  5
DA
330
24
100
AcDbEntity
  8
0
 62
     0
100
AcDbLine
 10
18.68648660949289
 20
19.62986209605315
 30
0.0
 11
18.41624513206452
 21
19.90010357348152
 31
0.0
  0
LINE
  5
DB
330
24
100
AcDbEntity
  8
0
 62
     0
100
AcDbLine
 10
18.76654172649274
 20
20.08013706494321
 30
0.0
 11
18.55348660949291
 21
20.29319218194304
 31
0.0
  0
LINE
  5
DC
330
24
100
AcDbEntity
  8
0
 62
     0
100
AcDbLine
 10
18.39260470011992
 20
20.45407409131603
 30
0.0
 11
18.27348660949295
 21
20.57319218194299
 31
0.0
  0
LINE
  5
DD
330
24
100
AcDbEntity
  8
0
 62
     0
100
AcDbLine
 10
18.76654172649274
 20
20.61046715083312
 30
0.0
 11
18.48676101283928
 21
20.89024786448657
 31
0.0
  0
LINE
  5
DE
330
24
100
AcDbEntity
  8
0
 62
     0
100
AcDbLine
 10
18.68648660949289
 20
21.22085235372288
 30
0.0
 11
18.5534866094929
 21
21.35385235372287
 31
0.0
  0
LINE
  5
DF
330
24
100
AcDbEntity
  8
0
 62
     0
100
AcDbLine
 10
18.46992345793402
 20
21.43741550528174
 30
0.0
 11
18.33579675587614
 21
21.57154220733962
 31
0.0
  0
LINE
  5
E0
330
24
100
AcDbEntity
  8
0
 62
     0
100
AcDbLine
 10
18.76654172649275
 20
21.67112732261293
 30
0.0
 11
18.5534866094929
 21
21.88418243961278
 31
0.0
  0
LINE
  5
E1
330
24
100
AcDbEntity
  8
0
 62
     0
100
AcDbLine
 10
18.6864866094929
 20
22.28151252550269
 30
0.0
 11
18.5534866094929
 21
22.41451252550269
 31
0.0
  0
LINE
  5
E2
330
24
100
AcDbEntity
  8
0
 62
     0
100
AcDbLine
 10
18.54724221574812
 20
22.42075691924747
 30
0.0
 11
18.41045692765596
 21
22.55754220733963
 31
0.0
  0
LINE
  5
E3
330
24
100
AcDbEntity
  8
0
 62
     0
100
AcDbLine
 10
18.76654172649275
 20
22.73178749439275
 30
0.0
 11
18.70656317787097
 21
22.79176604301452
 31
0.0
  0
LINE
  5
E4
330
24
100
AcDbEntity
  8
0
 62
     0
100
AcDbLine
 10
18.6864866094929
 20
22.8118426113926
 30
0.0
 11
18.5534866094929
 21
22.9448426113926
 31
0.0
  0
LINE
  5
E5
330
24
100
AcDbEntity
  8
0
 62
     0
100
AcDbLine
 10
18.6864866094929
 20
23.34217269728251
 30
0.0
 11
18.48511709943579
 21
23.54354220733962
 31
0.0
  0
LINE
  5
E6
330
24
100
AcDbEntity
  8
0
 62
     0
100
AcDbLine
 10
18.31511709943578
 20
23.71354220733963
 30
0.0
 11
18.27348660949311
 21
23.7551726972823
 31
0.0
  0
LINE
  5
E7
330
24
100
AcDbEntity
  8
0
 62
     0
100
AcDbLine
 10
18.6864866094929
 20
23.87250278317242
 30
0.0
 11
18.5534866094929
 21
24.00550278317242
 31
0.0
  0
LINE
  5
E8
330
24
100
AcDbEntity
  8
0
 62
     0
100
AcDbLine
 10
18.45794178010934
 20
18.79774675365688
 30
0.0
 11
18.27348660949292
 21
18.98220192427329
 31
0.0
  0
LINE
  5
E9
330
24
100
AcDbEntity
  8
0
 62
     0
100
AcDbLine
 10
17.93627503598264
 20
18.78908341189366
 30
0.0
 11
17.79982270877088
 21
18.92553573910543
 31
0.0
  0
LINE
  5
EA
330
24
100
AcDbEntity
  8
0
 62
     0
100
AcDbLine
 10
17.41460829185595
 20
18.78042007013044
 30
0.0
 11
17.27482842472697
 21
18.92019993725943
 31
0.0
  0
LINE
  5
EB
330
24
100
AcDbEntity
  8
0
 62
     0
100
AcDbLine
 10
16.89294154772926
 20
18.77175672836722
 30
0.0
 11
16.74983414068305
 21
18.91486413541343
 31
0.0
  0
LINE
  5
EC
330
24
100
AcDbEntity
  8
0
 62
     0
100
AcDbLine
 10
16.37127480360256
 20
18.76309338660401
 30
0.0
 11
16.22483985663914
 21
18.90952833356743
 31
0.0
  0
LINE
  5
ED
330
24
100
AcDbEntity
  8
0
 62
     0
100
AcDbLine
 10
15.84960805947587
 20
18.75443004484079
 30
0.0
 11
15.69984557259523
 21
18.90419253172144
 31
0.0
  0
LINE
  5
EE
330
24
100
AcDbEntity
  8
0
 62
     0
100
AcDbLine
 10
15.32794131534918
 20
18.74576670307757
 30
0.0
 11
15.17485128855132
 21
18.89885672987543
 31
0.0
  0
LINE
  5
EF
330
24
100
AcDbEntity
  8
0
 62
     0
100
AcDbLine
 10
14.80627457122248
 20
18.73710336131436
 30
0.0
 11
14.64985700450741
 21
18.89352092802943
 31
0.0
  0
LINE
  5
F0
330
24
100
AcDbEntity
  8
0
 62
     0
100
AcDbLine
 10
14.52008603137103
 20
18.4929618152759
 30
0.0
 11
14.28466252828393
 21
18.728385318363
 31
0.0
  0
LINE
  5
F1
330
24
100
AcDbEntity
  8
0
 62
     0
100
AcDbLine
 10
18.65356680915684
 20
18.80099550681808
 30
0.0
 11
18.27348660949303
 21
19.1810757064819
 31
0.0
  0
LINE
  5
F2
330
24
100
AcDbEntity
  8
0
 62
     0
100
AcDbLine
 10
18.75208092399068
 20
19.23281147787416
 30
0.0
 11
18.55335472919604
 21
19.4315376726688
 31
0.0
  0
LINE
  5
F3
330
24
100
AcDbEntity
  8
0
 62
     0
100
AcDbLine
 10
18.76654172649273
 20
19.74868076126202
 30
0.0
 11
18.61341853259219
 21
19.90180395516257
 31
0.0
  0
LINE
  5
F4
330
24
100
AcDbEntity
  8
0
 62
     0
100
AcDbLine
 10
18.45053737560875
 20
20.064685112146
 30
0.0
 11
18.27348951662267
 21
20.24173297113208
 31
0.0
  0
LINE
  5
F5
330
24
100
AcDbEntity
  8
0
 62
     0
100
AcDbLine
 10
18.68648660949289
 20
20.35906596415177
 30
0.0
 11
18.46001036630504
 21
20.58554220733963
 31
0.0
  0
LINE
  5
F6
330
24
100
AcDbEntity
  8
0
 62
     0
100
AcDbLine
 10
18.29001036630503
 20
20.75554220733963
 30
0.0
 11
18.27348660949309
 21
20.77206596415157
 31
0.0
  0
LINE
  5
F7
330
24
100
AcDbEntity
  8
0
 62
     0
100
AcDbLine
 10
18.76654172649275
 20
20.80934093304183
 30
0.0
 11
18.75810940439951
 21
20.81777325513506
 31
0.0
  0
LINE
  5
F8
330
24
100
AcDbEntity
  8
0
 62
     0
100
AcDbLine
 10
18.68648660949289
 20
20.88939605004168
 30
0.0
 11
18.5534866094929
 21
21.02239605004167
 31
0.0
  0
LINE
  5
F9
330
24
100
AcDbEntity
  8
0
 62
     0
100
AcDbLine
 10
18.68648660949289
 20
21.41972613593159
 30
0.0
 11
18.53467053808486
 21
21.57154220733962
 31
0.0
  0
LINE
  5
FA
330
24
100
AcDbEntity
  8
0
 62
     0
100
AcDbLine
 10
18.36467053808485
 20
21.74154220733963
 30
0.0
 11
18.27348660949314
 21
21.83272613593134
 31
0.0
  0
LINE
  5
FB
330
24
100
AcDbEntity
  8
0
 62
     0
100
AcDbLine
 10
18.6864866094929
 20
21.9500562218215
 30
0.0
 11
18.5534866094929
 21
22.08305622182149
 31
0.0
  0
LINE
  5
FC
330
24
100
AcDbEntity
  8
0
 62
     0
100
AcDbLine
 10
18.6864866094929
 20
22.48038630771141
 30
0.0
 11
18.58881731149288
 21
22.57805560571143
 31
0.0
  0
LINE
  5
FD
330
24
100
AcDbEntity
  8
0
 62
     0
100
AcDbLine
 10
18.43933070986467
 20
22.72754220733963
 30
0.0
 11
18.31067956886735
 21
22.85619334833695
 31
0.0
  0
LINE
  5
FE
330
24
100
AcDbEntity
  8
0
 62
     0
100
AcDbLine
 10
18.6864866094929
 20
23.01071639360132
 30
0.0
 11
18.5534866094929
 21
23.14371639360131
 31
0.0
  0
LINE
  5
FF
330
24
100
AcDbEntity
  8
0
 62
     0
100
AcDbLine
 10
18.74666439585961
 20
23.48086869312452
 30
0.0
 11
18.58881731149288
 21
23.63871577749125
 31
0.0
  0
LINE
  5
100
330
24
100
AcDbEntity
  8
0
 62
     0
100
AcDbLine
 10
18.51399088164449
 20
23.71354220733963
 30
0.0
 11
18.38285790666187
 21
23.84467518232225
 31
0.0
  0
LINE
  5
101
330
24
100
AcDbEntity
  8
0
 62
     0
100
AcDbLine
 10
18.6864866094929
 20
24.07137656538114
 30
0.0
 11
18.63632096753439
 21
24.12154220733965
 31
0.0
  0
LINE
  5
102
330
24
100
AcDbEntity
  8
0
 62
     0
100
AcDbLine
 10
18.13190006503015
 20
18.79233216505486
 30
0.0
 11
17.99669556528734
 21
18.92753666479768
 31
0.0
  0
LINE
  5
103
330
24
100
AcDbEntity
  8
0
 62
     0
100
AcDbLine
 10
17.61023332090346
 20
18.78366882329165
 30
0.0
 11
17.47170128124343
 21
18.92220086295168
 31
0.0
  0
LINE
  5
104
330
24
100
AcDbEntity
  8
0
 62
     0
100
AcDbLine
 10
17.08856657677677
 20
18.77500548152843
 30
0.0
 11
16.94670699719952
 21
18.91686506110568
 31
0.0
  0
LINE
  5
105
330
24
100
AcDbEntity
  8
0
 62
     0
100
AcDbLine
 10
16.56689983265008
 20
18.76634213976521
 30
0.0
 11
16.42171271315561
 21
18.91152925925968
 31
0.0
  0
LINE
  5
106
330
24
100
AcDbEntity
  8
0
 62
     0
100
AcDbLine
 10
16.04523308852338
 20
18.757678798002
 30
0.0
 11
15.8967184291117
 21
18.90619345741368
 31
0.0
  0
LINE
  5
107
330
24
100
AcDbEntity
  8
0
 62
     0
100
AcDbLine
 10
15.52356634439669
 20
18.74901545623878
 30
0.0
 11
15.37172414506778
 21
18.90085765556768
 31
0.0
  0
LINE
  5
108
330
24
100
AcDbEntity
  8
0
 62
     0
100
AcDbLine
 10
15.00189960026999
 20
18.74035211447556
 30
0.0
 11
14.84672986102387
 21
18.89552185372169
 31
0.0
  0
LINE
  5
109
330
24
100
AcDbEntity
  8
0
 62
     0
100
AcDbLine
 10
14.65205361449238
 20
18.55986801436327
 30
0.0
 11
14.35677802949225
 21
18.85514359936339
 31
0.0
  0
ENDBLK
  5
10A
330
24
100
AcDbEntity
  8
0
100
AcDbBlockEnd
  0
BLOCK
  5
239
330
3E
100
AcDbEntity
  8
0
100
AcDbBlockBegin
  2
HBS
 70
     0
 10
0.0
 20
0.0
 30
0.0
  3
HBS
  1

  0
LINE
  5
23A
330
3E
100
AcDbEntity
  8
TITLE
100
AcDbLine
 10
0.0619999999999976
 20
9.64
 30
0.0
 11
15.43799999999999
 21
9.640000000000004
 31
0.0
  0
LWPOLYLINE
  5
23B
330
3E
100
AcDbEntity
  8
TITLE
100
AcDbPolyline
 90
        4
 70
     1
 43
0.0
 10
15.5
 20
10.11999999999999
 10
15.49999999999999
 20
0.0
 10
0.0
 20
0.0
 10
0.0
 20
10.11999999999999
  0
LWPOLYLINE
  5
241
330
3E
100
AcDbEntity
  8
TITLE
100
AcDbPolyline
 90
        4
 70
     1
 43
0.0
 10
15.43799999999999
 20
10.058
 10
15.43799999999999
 20
0.0620000000000012
 10
0.0620000000000012
 20
0.0620000000000012
 10
0.0620000000000012
 20
10.058
  0
TEXT
  5
247
330
3E
100
AcDbEntity
  8
TEXT
100
AcDbText
 10
0.2078333333333345
 20
9.680079195640079
 30
0.0
 40
0.125
  1
NAME
  7
TXT
 72
     1
 11
0.4370000000000012
 21
9.680079195640079
 31
0.0
100
AcDbText
  0
TEXT
  5
248
330
3E
100
AcDbEntity
  8
TEXT
100
AcDbText
 10
0.2078333333333345
 20
9.888412528973411
 30
0.0
 40
0.125
  1
PART
  7
TXT
 72
     1
 11
0.4370000000000012
 21
9.888412528973411
 31
0.0
100
AcDbText
  0
LINE
  5
249
330
3E
100
AcDbEntity
  8
TITLE
100
AcDbLine
 10
0.8120000000000011
 20
9.64
 30
0.0
 11
0.8119999999999976
 21
10.058
 31
0.0
  0
TEXT
  5
24A
330
3E
100
AcDbEntity
  8
TEXT
100
AcDbText
 10
7.926833333333331
 20
9.888412528973411
 30
0.0
 40
0.125
  1
PART
  7
TXT
 72
     1
 11
8.155999999999998
 21
9.888412528973411
 31
0.0
100
AcDbText
  0
TEXT
  5
24B
330
3E
100
AcDbEntity
  8
TEXT
100
AcDbText
 10
8.030999999999998
 20
9.680079195640079
 30
0.0
 40
0.125
  1
No.
  7
TXT
 72
     1
 11
8.155999999999998
 21
9.680079195640079
 31
0.0
100
AcDbText
  0
LINE
  5
24C
330
3E
100
AcDbEntity
  8
TITLE
100
AcDbLine
 10
7.780999999999998
 20
10.058
 30
0.0
 11
7.780999999999998
 21
9.64
 31
0.0
  0
LINE
  5
24D
330
3E
100
AcDbEntity
  8
TITLE
100
AcDbLine
 10
7.719000000000001
 20
10.058
 30
0.0
 11
7.719000000000001
 21
9.64
 31
0.0
  0
LINE
  5
24E
330
3E
100
AcDbEntity
  8
TITLE
100
AcDbLine
 10
8.530999999999998
 20
10.058
 30
0.0
 11
8.530999999999998
 21
9.64
 31
0.0
  0
ENDBLK
  5
24F
330
3E
100
AcDbEntity
  8
0
100
AcDbBlockEnd
  0
BLOCK
  5
716
330
70B
100
AcDbEntity
  8
0
100
AcDbBlockBegin
  2
*D4
 70
     1
 10
0.0
 20
0.0
 30
0.0
  3
*D4
  1

  0
LINE
  5
70C
330
70B
100
AcDbEntity
  8
DIM
 62
     0
370
    -2
100
AcDbLine
 10
36.46491835581616
 20
7.889313956662336
 30
0.0
 11
35.42222914419845
 21
7.889313956662336
 31
0.0
  0
LINE
  5
70D
330
70B
100
AcDbEntity
  8
DIM
 62
     0
370
    -2
100
AcDbLine
 10
36.46491835581616
 20
18.48931395666234
 30
0.0
 11
35.42222914419846
 21
18.48931395666234
 31
0.0
  0
LINE
  5
70E
330
70B
100
AcDbEntity
  8
DIM
 62
     0
370
    -2
100
AcDbLine
 10
35.70122914419845
 20
8.429313956662337
 30
0.0
 11
35.70122914419845
 21
12.73181395666234
 31
0.0
  0
LINE
  5
70F
330
70B
100
AcDbEntity
  8
DIM
 62
     0
370
    -2
100
AcDbLine
 10
35.70122914419846
 20
17.94931395666234
 30
0.0
 11
35.70122914419845
 21
13.64681395666234
 31
0.0
  0
SOLID
  5
710
330
70B
100
AcDbEntity
  8
DIM
 62
     0
100
AcDbTrace
 10
35.61122914419844
 20
8.429313956662337
 30
0.0
 11
35.79122914419845
 21
8.429313956662337
 31
0.0
 12
35.70122914419845
 22
7.889313956662336
 32
0.0
 13
35.70122914419845
 23
7.889313956662336
 33
0.0
  0
SOLID
  5
711
330
70B
100
AcDbEntity
  8
DIM
 62
     0
100
AcDbTrace
 10
35.61122914419845
 20
17.94931395666234
 30
0.0
 11
35.79122914419846
 21
17.94931395666234
 31
0.0
 12
35.70122914419846
 22
18.48931395666234
 32
0.0
 13
35.70122914419846
 23
18.48931395666234
 33
0.0
  0
MTEXT
  5
712
330
70B
100
AcDbEntity
  8
DIM
 62
     0
100
AcDbMText
 10
35.70122914419845
 20
13.18931395666234
 30
0.0
 40
0.375
 41
0.0
 71
     5
 72
     1
  1
\A1;R
  7
TXT
 73
     1
 44
1.0
  0
POINT
  5
713
330
70B
100
AcDbEntity
  8
DEFPOINTS
 62
     0
100
AcDbPoint
 10
36.65391835581616
 20
7.889313956662336
 30
0.0
  0
POINT
  5
714
330
70B
100
AcDbEntity
  8
DEFPOINTS
 62
     0
100
AcDbPoint
 10
36.65391835581616
 20
18.48931395666234
 30
0.0
  0
POINT
  5
715
330
70B
100
AcDbEntity
  8
DEFPOINTS
 62
     0
100
AcDbPoint
 10
35.70122914419846
 20
18.48931395666234
 30
0.0
  0
ENDBLK
  5
717
330
70B
100
AcDbEntity
  8
0
100
AcDbBlockEnd
  0
BLOCK
  5
723
330
718
100
AcDbEntity
  8
0
100
AcDbBlockBegin
  2
*D5
 70
     1
 10
0.0
 20
0.0
 30
0.0
  3
*D5
  1

  0
LINE
  5
8E2
330
718
100
AcDbEntity
  8
DIM
 62
     0
370
    -2
100
AcDbLine
 10
17.41164446279855
 20
8.570313956662333
 30
0.0
 11
17.41164446279855
 21
6.63255256852679
 31
0.0
  0
LINE
  5
8E3
330
718
100
AcDbEntity
  8
DIM
 62
     0
370
    -2
100
AcDbLine
 10
16.42564446279854
 20
8.570313956662333
 30
0.0
 11
16.42564446279854
 21
6.63255256852679
 31
0.0
  0
LINE
  5
8E4
330
718
100
AcDbEntity
  8
DIM
 62
     0
370
    -2
100
AcDbLine
 10
17.95164446279854
 20
6.91155256852679
 30
0.0
 11
18.49164446279854
 21
6.91155256852679
 31
0.0
  0
LINE
  5
8E5
330
718
100
AcDbEntity
  8
DIM
 62
     0
370
    -2
100
AcDbLine
 10
15.88564446279854
 20
6.91155256852679
 30
0.0
 11
15.34564446279854
 21
6.91155256852679
 31
0.0
  0
SOLID
  5
8E6
330
718
100
AcDbEntity
  8
DIM
 62
     0
100
AcDbTrace
 10
17.95164446279854
 20
7.00155256852679
 30
0.0
 11
17.95164446279854
 21
6.82155256852679
 31
0.0
 12
17.41164446279855
 22
6.91155256852679
 32
0.0
 13
17.41164446279855
 23
6.91155256852679
 33
0.0
  0
SOLID
  5
8E7
330
718
100
AcDbEntity
  8
DIM
 62
     0
100
AcDbTrace
 10
15.88564446279854
 20
7.00155256852679
 30
0.0
 11
15.88564446279854
 21
6.82155256852679
 31
0.0
 12
16.42564446279854
 22
6.91155256852679
 32
0.0
 13
16.42564446279854
 23
6.91155256852679
 33
0.0
  0
MTEXT
  5
8E8
330
718
100
AcDbEntity
  8
DIM
 62
     0
100
AcDbMText
 10
13.31783196279854
 20
6.91155256852679
 30
0.0
 40
0.375
 41
0.0
 71
     5
 72
     1
  1
\A1;0.986 [25] TYP.
  7
TXT
 73
     1
 44
1.0
  0
POINT
  5
8E9
330
718
100
AcDbEntity
  8
DEFPOINTS
 62
     0
100
AcDbPoint
 10
17.41164446279855
 20
8.759313956662333
 30
0.0
  0
POINT
  5
8EA
330
718
100
AcDbEntity
  8
DEFPOINTS
 62
     0
100
AcDbPoint
 10
16.42564446279854
 20
8.759313956662333
 30
0.0
  0
POINT
  5
8EB
330
718
100
AcDbEntity
  8
DEFPOINTS
 62
     0
100
AcDbPoint
 10
16.42564446279854
 20
6.91155256852679
 30
0.0
  0
ENDBLK
  5
724
330
718
100
AcDbEntity
  8
0
100
AcDbBlockEnd
  0
BLOCK
  5
730
330
725
100
AcDbEntity
  8
0
100
AcDbBlockBegin
  2
*D6
 70
     1
 10
0.0
 20
0.0
 30
0.0
  3
*D6
  1

  0
LINE
  5
8EC
330
725
100
AcDbEntity
  8
DIM
 62
     0
370
    -2
100
AcDbLine
 10
16.42564446279854
 20
8.570313956662333
 30
0.0
 11
16.42564446279854
 21
5.966693939221766
 31
0.0
  0
LINE
  5
8ED
330
725
100
AcDbEntity
  8
DIM
 62
     0
370
    -2
100
AcDbLine
 10
19.38364446279854
 20
8.570313956662333
 30
0.0
 11
19.38364446279854
 21
5.966693939221766
 31
0.0
  0
LINE
  5
8EE
330
725
100
AcDbEntity
  8
DIM
 62
     0
370
    -2
100
AcDbLine
 10
16.96564446279854
 20
6.245693939221766
 30
0.0
 11
17.54089446279854
 21
6.245693939221766
 31
0.0
  0
LINE
  5
8EF
330
725
100
AcDbEntity
  8
DIM
 62
     0
370
    -2
100
AcDbLine
 10
18.84364446279854
 20
6.245693939221766
 30
0.0
 11
18.26839446279854
 21
6.245693939221766
 31
0.0
  0
SOLID
  5
8F0
330
725
100
AcDbEntity
  8
DIM
 62
     0
100
AcDbTrace
 10
16.96564446279854
 20
6.335693939221766
 30
0.0
 11
16.96564446279854
 21
6.155693939221766
 31
0.0
 12
16.42564446279854
 22
6.245693939221766
 32
0.0
 13
16.42564446279854
 23
6.245693939221766
 33
0.0
  0
SOLID
  5
8F1
330
725
100
AcDbEntity
  8
DIM
 62
     0
100
AcDbTrace
 10
18.84364446279854
 20
6.335693939221766
 30
0.0
 11
18.84364446279854
 21
6.155693939221766
 31
0.0
 12
19.38364446279854
 22
6.245693939221766
 32
0.0
 13
19.38364446279854
 23
6.245693939221766
 33
0.0
  0
MTEXT
  5
8F2
330
725
100
AcDbEntity
  8
DIM
 62
     0
100
AcDbMText
 10
17.90464446279854
 20
6.245693939221766
 30
0.0
 40
0.375
 41
0.0
 71
     5
 72
     1
  1
\A1;F
  7
TXT
 73
     1
 44
1.0
  0
POINT
  5
8F3
330
725
100
AcDbEntity
  8
DEFPOINTS
 62
     0
100
AcDbPoint
 10
16.42564446279854
 20
8.759313956662333
 30
0.0
  0
POINT
  5
8F4
330
725
100
AcDbEntity
  8
DEFPOINTS
 62
     0
100
AcDbPoint
 10
19.38364446279854
 20
8.759313956662333
 30
0.0
  0
POINT
  5
8F5
330
725
100
AcDbEntity
  8
DEFPOINTS
 62
     0
100
AcDbPoint
 10
19.38364446279854
 20
6.245693939221766
 30
0.0
  0
ENDBLK
  5
731
330
725
100
AcDbEntity
  8
0
100
AcDbBlockEnd
  0
BLOCK
  5
73D
330
732
100
AcDbEntity
  8
0
100
AcDbBlockBegin
  2
*D7
 70
     1
 10
0.0
 20
0.0
 30
0.0
  3
*D7
  1

  0
LINE
  5
8D8
330
732
100
AcDbEntity
  8
DIM
 62
     0
370
    -2
100
AcDbLine
 10
14.95464446279854
 20
9.549313956662333
 30
0.0
 11
14.95464446279854
 21
4.608253237520113
 31
0.0
  0
LINE
  5
8D9
330
732
100
AcDbEntity
  8
DIM
 62
     0
370
    -2
100
AcDbLine
 10
20.85464446279854
 20
9.549313956662333
 30
0.0
 11
20.85464446279854
 21
4.608253237520113
 31
0.0
  0
LINE
  5
8DA
330
732
100
AcDbEntity
  8
DIM
 62
     0
370
    -2
100
AcDbLine
 10
15.49464446279854
 20
4.887253237520113
 30
0.0
 11
17.54089446279854
 21
4.887253237520113
 31
0.0
  0
LINE
  5
8DB
330
732
100
AcDbEntity
  8
DIM
 62
     0
370
    -2
100
AcDbLine
 10
20.31464446279855
 20
4.887253237520113
 30
0.0
 11
18.26839446279854
 21
4.887253237520113
 31
0.0
  0
SOLID
  5
8DC
330
732
100
AcDbEntity
  8
DIM
 62
     0
100
AcDbTrace
 10
15.49464446279854
 20
4.977253237520113
 30
0.0
 11
15.49464446279854
 21
4.797253237520113
 31
0.0
 12
14.95464446279854
 22
4.887253237520113
 32
0.0
 13
14.95464446279854
 23
4.887253237520113
 33
0.0
  0
SOLID
  5
8DD
330
732
100
AcDbEntity
  8
DIM
 62
     0
100
AcDbTrace
 10
20.31464446279855
 20
4.977253237520113
 30
0.0
 11
20.31464446279855
 21
4.797253237520113
 31
0.0
 12
20.85464446279854
 22
4.887253237520113
 32
0.0
 13
20.85464446279854
 23
4.887253237520113
 33
0.0
  0
MTEXT
  5
8DE
330
732
100
AcDbEntity
  8
DIM
 62
     0
100
AcDbMText
 10
17.90464446279854
 20
4.887253237520113
 30
0.0
 40
0.375
 41
0.0
 71
     5
 72
     1
  1
\A1;D
  7
TXT
 73
     1
 44
1.0
  0
POINT
  5
8DF
330
732
100
AcDbEntity
  8
DEFPOINTS
 62
     0
100
AcDbPoint
 10
14.95464446279854
 20
9.738313956662333
 30
0.0
  0
POINT
  5
8E0
330
732
100
AcDbEntity
  8
DEFPOINTS
 62
     0
100
AcDbPoint
 10
20.85464446279854
 20
9.738313956662333
 30
0.0
  0
POINT
  5
8E1
330
732
100
AcDbEntity
  8
DEFPOINTS
 62
     0
100
AcDbPoint
 10
20.85464446279854
 20
4.887253237520113
 30
0.0
  0
ENDBLK
  5
73E
330
732
100
AcDbEntity
  8
0
100
AcDbBlockEnd
  0
BLOCK
  5
74A
330
73F
100
AcDbEntity
  8
0
100
AcDbBlockBegin
  2
*D8
 70
     1
 10
0.0
 20
0.0
 30
0.0
  3
*D8
  1

  0
LINE
  5
90A
330
73F
100
AcDbEntity
  8
DIM
 62
     0
370
    -2
100
AcDbLine
 10
14.82964446279853
 20
18.35581395666233
 30
0.0
 11
14.82964446279853
 21
19.89859222021642
 31
0.0
  0
LINE
  5
90B
330
73F
100
AcDbEntity
  8
DIM
 62
     0
370
    -2
100
AcDbLine
 10
20.97964446279854
 20
18.35581395666233
 30
0.0
 11
20.97964446279854
 21
19.89859222021642
 31
0.0
  0
LINE
  5
90C
330
73F
100
AcDbEntity
  8
DIM
 62
     0
370
    -2
100
AcDbLine
 10
15.36964446279853
 20
19.61959222021643
 30
0.0
 11
17.54089446279854
 21
19.61959222021643
 31
0.0
  0
LINE
  5
90D
330
73F
100
AcDbEntity
  8
DIM
 62
     0
370
    -2
100
AcDbLine
 10
20.43964446279854
 20
19.61959222021643
 30
0.0
 11
18.26839446279854
 21
19.61959222021643
 31
0.0
  0
SOLID
  5
90E
330
73F
100
AcDbEntity
  8
DIM
 62
     0
100
AcDbTrace
 10
15.36964446279853
 20
19.70959222021642
 30
0.0
 11
15.36964446279853
 21
19.52959222021642
 31
0.0
 12
14.82964446279853
 22
19.61959222021643
 32
0.0
 13
14.82964446279853
 23
19.61959222021643
 33
0.0
  0
SOLID
  5
90F
330
73F
100
AcDbEntity
  8
DIM
 62
     0
100
AcDbTrace
 10
20.43964446279854
 20
19.70959222021642
 30
0.0
 11
20.43964446279854
 21
19.52959222021642
 31
0.0
 12
20.97964446279854
 22
19.61959222021643
 32
0.0
 13
20.97964446279854
 23
19.61959222021643
 33
0.0
  0
MTEXT
  5
910
330
73F
100
AcDbEntity
  8
DIM
 62
     0
100
AcDbMText
 10
17.90464446279854
 20
19.61959222021643
 30
0.0
 40
0.375
 41
0.0
 71
     5
 72
     1
  1
\A1;C
  7
TXT
 73
     1
 44
1.0
  0
POINT
  5
911
330
73F
100
AcDbEntity
  8
DEFPOINTS
 62
     0
100
AcDbPoint
 10
14.82964446279853
 20
18.16681395666233
 30
0.0
  0
POINT
  5
912
330
73F
100
AcDbEntity
  8
DEFPOINTS
 62
     0
100
AcDbPoint
 10
20.97964446279854
 20
18.16681395666233
 30
0.0
  0
POINT
  5
913
330
73F
100
AcDbEntity
  8
DEFPOINTS
 62
     0
100
AcDbPoint
 10
20.97964446279854
 20
19.61959222021643
 30
0.0
  0
ENDBLK
  5
74B
330
73F
100
AcDbEntity
  8
0
100
AcDbBlockEnd
  0
BLOCK
  5
757
330
74C
100
AcDbEntity
  8
0
100
AcDbBlockBegin
  2
*D9
 70
     1
 10
0.0
 20
0.0
 30
0.0
  3
*D9
  1

  0
LINE
  5
900
330
74C
100
AcDbEntity
  8
DIM
 62
     0
370
    -2
100
AcDbLine
 10
14.57964446279853
 20
18.56994387866274
 30
0.0
 11
14.57964446279853
 21
20.5017128108597
 31
0.0
  0
LINE
  5
901
330
74C
100
AcDbEntity
  8
DIM
 62
     0
370
    -2
100
AcDbLine
 10
21.22964446279854
 20
18.56994387866274
 30
0.0
 11
21.22964446279854
 21
20.5017128108597
 31
0.0
  0
LINE
  5
902
330
74C
100
AcDbEntity
  8
DIM
 62
     0
370
    -2
100
AcDbLine
 10
15.11964446279853
 20
20.22271281085969
 30
0.0
 11
17.54089446279854
 21
20.22271281085969
 31
0.0
  0
LINE
  5
903
330
74C
100
AcDbEntity
  8
DIM
 62
     0
370
    -2
100
AcDbLine
 10
20.68964446279854
 20
20.22271281085969
 30
0.0
 11
18.26839446279854
 21
20.22271281085969
 31
0.0
  0
SOLID
  5
904
330
74C
100
AcDbEntity
  8
DIM
 62
     0
100
AcDbTrace
 10
15.11964446279853
 20
20.3127128108597
 30
0.0
 11
15.11964446279853
 21
20.1327128108597
 31
0.0
 12
14.57964446279853
 22
20.22271281085969
 32
0.0
 13
14.57964446279853
 23
20.22271281085969
 33
0.0
  0
SOLID
  5
905
330
74C
100
AcDbEntity
  8
DIM
 62
     0
100
AcDbTrace
 10
20.68964446279854
 20
20.3127128108597
 30
0.0
 11
20.68964446279854
 21
20.1327128108597
 31
0.0
 12
21.22964446279854
 22
20.22271281085969
 32
0.0
 13
21.22964446279854
 23
20.22271281085969
 33
0.0
  0
MTEXT
  5
906
330
74C
100
AcDbEntity
  8
DIM
 62
     0
100
AcDbMText
 10
17.90464446279854
 20
20.22271281085969
 30
0.0
 40
0.375
 41
0.0
 71
     5
 72
     1
  1
\A1;B
  7
TXT
 73
     1
 44
1.0
  0
POINT
  5
907
330
74C
100
AcDbEntity
  8
DEFPOINTS
 62
     0
100
AcDbPoint
 10
14.57964446279853
 20
18.38094387866274
 30
0.0
  0
POINT
  5
908
330
74C
100
AcDbEntity
  8
DEFPOINTS
 62
     0
100
AcDbPoint
 10
21.22964446279854
 20
18.38094387866274
 30
0.0
  0
POINT
  5
909
330
74C
100
AcDbEntity
  8
DEFPOINTS
 62
     0
100
AcDbPoint
 10
21.22964446279854
 20
20.22271281085969
 30
0.0
  0
ENDBLK
  5
758
330
74C
100
AcDbEntity
  8
0
100
AcDbBlockEnd
  0
BLOCK
  5
764
330
759
100
AcDbEntity
  8
0
100
AcDbBlockBegin
  2
*D10
 70
     1
 10
0.0
 20
0.0
 30
0.0
  3
*D10
  1

  0
LINE
  5
8CE
330
759
100
AcDbEntity
  8
DIM
 62
     0
370
    -2
100
AcDbLine
 10
15.54614446279854
 20
8.861313956662337
 30
0.0
 11
15.54614446279854
 21
5.274111866825133
 31
0.0
  0
LINE
  5
8CF
330
759
100
AcDbEntity
  8
DIM
 62
     0
370
    -2
100
AcDbLine
 10
20.26314446279855
 20
8.861313956662337
 30
0.0
 11
20.26314446279855
 21
5.274111866825133
 31
0.0
  0
LINE
  5
8D0
330
759
100
AcDbEntity
  8
DIM
 62
     0
370
    -2
100
AcDbLine
 10
16.08614446279855
 20
5.553111866825133
 30
0.0
 11
17.54089446279855
 21
5.553111866825133
 31
0.0
  0
LINE
  5
8D1
330
759
100
AcDbEntity
  8
DIM
 62
     0
370
    -2
100
AcDbLine
 10
19.72314446279855
 20
5.553111866825133
 30
0.0
 11
18.26839446279855
 21
5.553111866825133
 31
0.0
  0
SOLID
  5
8D2
330
759
100
AcDbEntity
  8
DIM
 62
     0
100
AcDbTrace
 10
16.08614446279855
 20
5.643111866825133
 30
0.0
 11
16.08614446279855
 21
5.463111866825133
 31
0.0
 12
15.54614446279854
 22
5.553111866825133
 32
0.0
 13
15.54614446279854
 23
5.553111866825133
 33
0.0
  0
SOLID
  5
8D3
330
759
100
AcDbEntity
  8
DIM
 62
     0
100
AcDbTrace
 10
19.72314446279855
 20
5.643111866825133
 30
0.0
 11
19.72314446279855
 21
5.463111866825133
 31
0.0
 12
20.26314446279855
 22
5.553111866825133
 32
0.0
 13
20.26314446279855
 23
5.553111866825133
 33
0.0
  0
MTEXT
  5
8D4
330
759
100
AcDbEntity
  8
DIM
 62
     0
100
AcDbMText
 10
17.90464446279855
 20
5.553111866825133
 30
0.0
 40
0.375
 41
0.0
 71
     5
 72
     1
  1
\A1;E
  7
TXT
 73
     1
 44
1.0
  0
POINT
  5
8D5
330
759
100
AcDbEntity
  8
DEFPOINTS
 62
     0
100
AcDbPoint
 10
15.54614446279854
 20
9.050313956662337
 30
0.0
  0
POINT
  5
8D6
330
759
100
AcDbEntity
  8
DEFPOINTS
 62
     0
100
AcDbPoint
 10
20.26314446279855
 20
9.050313956662337
 30
0.0
  0
POINT
  5
8D7
330
759
100
AcDbEntity
  8
DEFPOINTS
 62
     0
100
AcDbPoint
 10
20.26314446279855
 20
5.553111866825133
 30
0.0
  0
ENDBLK
  5
765
330
759
100
AcDbEntity
  8
0
100
AcDbBlockEnd
  0
BLOCK
  5
771
330
766
100
AcDbEntity
  8
0
100
AcDbBlockBegin
  2
*D11
 70
     1
 10
0.0
 20
0.0
 30
0.0
  3
*D11
  1

  0
LINE
  5
8F6
330
766
100
AcDbEntity
  8
DIM
 62
     0
370
    -2
100
AcDbLine
 10
21.64214446279854
 20
18.58524309866233
 30
0.0
 11
21.64214446279854
 21
21.1358178124097
 31
0.0
  0
LINE
  5
8F7
330
766
100
AcDbEntity
  8
DIM
 62
     0
370
    -2
100
AcDbLine
 10
14.16714446279854
 20
18.58524309866233
 30
0.0
 11
14.16714446279854
 21
21.1358178124097
 31
0.0
  0
LINE
  5
8F8
330
766
100
AcDbEntity
  8
DIM
 62
     0
370
    -2
100
AcDbLine
 10
21.10214446279854
 20
20.8568178124097
 30
0.0
 11
18.26839446279854
 21
20.8568178124097
 31
0.0
  0
LINE
  5
8F9
330
766
100
AcDbEntity
  8
DIM
 62
     0
370
    -2
100
AcDbLine
 10
14.70714446279854
 20
20.8568178124097
 30
0.0
 11
17.54089446279854
 21
20.8568178124097
 31
0.0
  0
SOLID
  5
8FA
330
766
100
AcDbEntity
  8
DIM
 62
     0
100
AcDbTrace
 10
21.10214446279854
 20
20.9468178124097
 30
0.0
 11
21.10214446279854
 21
20.7668178124097
 31
0.0
 12
21.64214446279854
 22
20.8568178124097
 32
0.0
 13
21.64214446279854
 23
20.8568178124097
 33
0.0
  0
SOLID
  5
8FB
330
766
100
AcDbEntity
  8
DIM
 62
     0
100
AcDbTrace
 10
14.70714446279854
 20
20.9468178124097
 30
0.0
 11
14.70714446279854
 21
20.7668178124097
 31
0.0
 12
14.16714446279854
 22
20.8568178124097
 32
0.0
 13
14.16714446279854
 23
20.8568178124097
 33
0.0
  0
MTEXT
  5
8FC
330
766
100
AcDbEntity
  8
DIM
 62
     0
100
AcDbMText
 10
17.90464446279854
 20
20.8568178124097
 30
0.0
 40
0.375
 41
0.0
 71
     5
 72
     1
  1
\A1;A
  7
TXT
 73
     1
 44
1.0
  0
POINT
  5
8FD
330
766
100
AcDbEntity
  8
DEFPOINTS
 62
     0
100
AcDbPoint
 10
21.64214446279854
 20
18.39624309866233
 30
0.0
  0
POINT
  5
8FE
330
766
100
AcDbEntity
  8
DEFPOINTS
 62
     0
100
AcDbPoint
 10
14.16714446279854
 20
18.39624309866233
 30
0.0
  0
POINT
  5
8FF
330
766
100
AcDbEntity
  8
DEFPOINTS
 62
     0
100
AcDbPoint
 10
14.16714446279854
 20
20.8568178124097
 30
0.0
  0
ENDBLK
  5
772
330
766
100
AcDbEntity
  8
0
100
AcDbBlockEnd
  0
BLOCK
  5
77E
330
773
100
AcDbEntity
  8
0
100
AcDbBlockBegin
  2
*D12
 70
     1
 10
0.0
 20
0.0
 30
0.0
  3
*D12
  1

  0
LINE
  5
8BA
330
773
100
AcDbEntity
  8
DIM
 62
     0
370
    -2
100
AcDbLine
 10
14.64064446279853
 20
8.211813956662334
 30
0.0
 11
12.96587396137902
 21
8.211813956662334
 31
0.0
  0
LINE
  5
8BB
330
773
100
AcDbEntity
  8
DIM
 62
     0
370
    -2
100
AcDbLine
 10
14.64064446279853
 20
18.16681395666233
 30
0.0
 11
12.96587396137902
 21
18.16681395666233
 31
0.0
  0
LINE
  5
8BC
330
773
100
AcDbEntity
  8
DIM
 62
     0
370
    -2
100
AcDbLine
 10
13.24487396137902
 20
8.751813956662335
 30
0.0
 11
13.24487396137902
 21
12.73181395666233
 31
0.0
  0
LINE
  5
8BD
330
773
100
AcDbEntity
  8
DIM
 62
     0
370
    -2
100
AcDbLine
 10
13.24487396137902
 20
17.62681395666233
 30
0.0
 11
13.24487396137902
 21
13.64681395666233
 31
0.0
  0
SOLID
  5
8BE
330
773
100
AcDbEntity
  8
DIM
 62
     0
100
AcDbTrace
 10
13.15487396137902
 20
8.751813956662335
 30
0.0
 11
13.33487396137902
 21
8.751813956662335
 31
0.0
 12
13.24487396137902
 22
8.211813956662334
 32
0.0
 13
13.24487396137902
 23
8.211813956662334
 33
0.0
  0
SOLID
  5
8BF
330
773
100
AcDbEntity
  8
DIM
 62
     0
100
AcDbTrace
 10
13.15487396137902
 20
17.62681395666233
 30
0.0
 11
13.33487396137902
 21
17.62681395666233
 31
0.0
 12
13.24487396137902
 22
18.16681395666233
 32
0.0
 13
13.24487396137902
 23
18.16681395666233
 33
0.0
  0
MTEXT
  5
8C0
330
773
100
AcDbEntity
  8
DIM
 62
     0
100
AcDbMText
 10
13.24487396137902
 20
13.18931395666234
 30
0.0
 40
0.375
 41
0.0
 71
     5
 72
     1
  1
\A1;J
  7
TXT
 73
     1
 44
1.0
  0
POINT
  5
8C1
330
773
100
AcDbEntity
  8
DEFPOINTS
 62
     0
100
AcDbPoint
 10
14.82964446279853
 20
8.211813956662334
 30
0.0
  0
POINT
  5
8C2
330
773
100
AcDbEntity
  8
DEFPOINTS
 62
     0
100
AcDbPoint
 10
14.82964446279853
 20
18.16681395666233
 30
0.0
  0
POINT
  5
8C3
330
773
100
AcDbEntity
  8
DEFPOINTS
 62
     0
100
AcDbPoint
 10
13.24487396137902
 20
18.16681395666233
 30
0.0
  0
ENDBLK
  5
77F
330
773
100
AcDbEntity
  8
0
100
AcDbBlockEnd
  0
BLOCK
  5
78B
330
780
100
AcDbEntity
  8
0
100
AcDbBlockBegin
  2
*D13
 70
     1
 10
0.0
 20
0.0
 30
0.0
  3
*D13
  1

  0
LINE
  5
8B0
330
780
100
AcDbEntity
  8
DIM
 62
     0
370
    -2
100
AcDbLine
 10
14.43001454079858
 20
7.958313956662331
 30
0.0
 11
12.17943766612145
 21
7.958313956662332
 31
0.0
  0
LINE
  5
8B1
330
780
100
AcDbEntity
  8
DIM
 62
     0
370
    -2
100
AcDbLine
 10
14.43001454079858
 20
18.42031395666233
 30
0.0
 11
12.17943766612145
 21
18.42031395666233
 31
0.0
  0
LINE
  5
8B2
330
780
100
AcDbEntity
  8
DIM
 62
     0
370
    -2
100
AcDbLine
 10
12.45843766612145
 20
8.498313956662332
 30
0.0
 11
12.45843766612145
 21
12.73181395666233
 31
0.0
  0
LINE
  5
8B3
330
780
100
AcDbEntity
  8
DIM
 62
     0
370
    -2
100
AcDbLine
 10
12.45843766612145
 20
17.88031395666233
 30
0.0
 11
12.45843766612145
 21
13.64681395666233
 31
0.0
  0
SOLID
  5
8B4
330
780
100
AcDbEntity
  8
DIM
 62
     0
100
AcDbTrace
 10
12.36843766612145
 20
8.498313956662332
 30
0.0
 11
12.54843766612145
 21
8.498313956662332
 31
0.0
 12
12.45843766612145
 22
7.958313956662332
 32
0.0
 13
12.45843766612145
 23
7.958313956662332
 33
0.0
  0
SOLID
  5
8B5
330
780
100
AcDbEntity
  8
DIM
 62
     0
100
AcDbTrace
 10
12.36843766612145
 20
17.88031395666233
 30
0.0
 11
12.54843766612145
 21
17.88031395666233
 31
0.0
 12
12.45843766612145
 22
18.42031395666233
 32
0.0
 13
12.45843766612145
 23
18.42031395666233
 33
0.0
  0
MTEXT
  5
8B6
330
780
100
AcDbEntity
  8
DIM
 62
     0
100
AcDbMText
 10
12.45843766612144
 20
13.18931395666234
 30
0.0
 40
0.375
 41
0.0
 71
     5
 72
     1
  1
\A1;H
  7
TXT
 73
     1
 44
1.0
  0
POINT
  5
8B7
330
780
100
AcDbEntity
  8
DEFPOINTS
 62
     0
100
AcDbPoint
 10
14.61901454079858
 20
7.958313956662331
 30
0.0
  0
POINT
  5
8B8
330
780
100
AcDbEntity
  8
DEFPOINTS
 62
     0
100
AcDbPoint
 10
14.61901454079858
 20
18.42031395666233
 30
0.0
  0
POINT
  5
8B9
330
780
100
AcDbEntity
  8
DEFPOINTS
 62
     0
100
AcDbPoint
 10
12.45843766612145
 20
18.42031395666233
 30
0.0
  0
ENDBLK
  5
78C
330
780
100
AcDbEntity
  8
0
100
AcDbBlockEnd
  0
BLOCK
  5
798
330
78D
100
AcDbEntity
  8
0
100
AcDbBlockBegin
  2
*D14
 70
     1
 10
0.0
 20
0.0
 30
0.0
  3
*D14
  1

  0
LINE
  5
8A6
330
78D
100
AcDbEntity
  8
DIM
 62
     0
370
    -2
100
AcDbLine
 10
14.41121532079854
 20
7.549313956662333
 30
0.0
 11
11.38853830641979
 21
7.549313956662333
 31
0.0
  0
LINE
  5
8A7
330
78D
100
AcDbEntity
  8
DIM
 62
     0
370
    -2
100
AcDbLine
 10
14.41121532079854
 20
18.82931395666233
 30
0.0
 11
11.38853830641979
 21
18.82931395666233
 31
0.0
  0
LINE
  5
8A8
330
78D
100
AcDbEntity
  8
DIM
 62
     0
370
    -2
100
AcDbLine
 10
11.66753830641979
 20
8.089313956662335
 30
0.0
 11
11.66753830641979
 21
12.73181395666233
 31
0.0
  0
LINE
  5
8A9
330
78D
100
AcDbEntity
  8
DIM
 62
     0
370
    -2
100
AcDbLine
 10
11.66753830641979
 20
18.28931395666233
 30
0.0
 11
11.66753830641979
 21
13.64681395666233
 31
0.0
  0
SOLID
  5
8AA
330
78D
100
AcDbEntity
  8
DIM
 62
     0
100
AcDbTrace
 10
11.57753830641979
 20
8.089313956662335
 30
0.0
 11
11.75753830641979
 21
8.089313956662335
 31
0.0
 12
11.66753830641979
 22
7.549313956662333
 32
0.0
 13
11.66753830641979
 23
7.549313956662333
 33
0.0
  0
SOLID
  5
8AB
330
78D
100
AcDbEntity
  8
DIM
 62
     0
100
AcDbTrace
 10
11.57753830641979
 20
18.28931395666233
 30
0.0
 11
11.75753830641979
 21
18.28931395666233
 31
0.0
 12
11.66753830641979
 22
18.82931395666233
 32
0.0
 13
11.66753830641979
 23
18.82931395666233
 33
0.0
  0
MTEXT
  5
8AC
330
78D
100
AcDbEntity
  8
DIM
 62
     0
100
AcDbMText
 10
11.66753830641979
 20
13.18931395666234
 30
0.0
 40
0.375
 41
0.0
 71
     5
 72
     1
  1
\A1;G
  7
TXT
 73
     1
 44
1.0
  0
POINT
  5
8AD
330
78D
100
AcDbEntity
  8
DEFPOINTS
 62
     0
100
AcDbPoint
 10
14.60021532079855
 20
7.549313956662333
 30
0.0
  0
POINT
  5
8AE
330
78D
100
AcDbEntity
  8
DEFPOINTS
 62
     0
100
AcDbPoint
 10
14.60021532079855
 20
18.82931395666233
 30
0.0
  0
POINT
  5
8AF
330
78D
100
AcDbEntity
  8
DEFPOINTS
 62
     0
100
AcDbPoint
 10
11.66753830641979
 20
18.82931395666233
 30
0.0
  0
ENDBLK
  5
799
330
78D
100
AcDbEntity
  8
0
100
AcDbBlockEnd
  0
BLOCK
  5
7A5
330
79A
100
AcDbEntity
  8
0
100
AcDbBlockBegin
  2
*D15
 70
     1
 10
0.0
 20
0.0
 30
0.0
  3
*D15
  1

  0
LINE
  5
892
330
79A
100
AcDbEntity
  8
DIM
 62
     0
370
    -2
100
AcDbLine
 10
19.57264446279854
 20
8.759313956662333
 30
0.0
 11
24.42241687382821
 21
8.759313956662332
 31
0.0
  0
LINE
  5
893
330
79A
100
AcDbEntity
  8
DIM
 62
     0
370
    -2
100
AcDbLine
 10
19.57002238779828
 20
17.61931395666233
 30
0.0
 11
24.42241687382821
 21
17.61931395666233
 31
0.0
  0
LINE
  5
894
330
79A
100
AcDbEntity
  8
DIM
 62
     0
370
    -2
100
AcDbLine
 10
24.14341687382821
 20
9.299313956662333
 30
0.0
 11
24.14341687382821
 21
12.73181395666233
 31
0.0
  0
LINE
  5
895
330
79A
100
AcDbEntity
  8
DIM
 62
     0
370
    -2
100
AcDbLine
 10
24.14341687382821
 20
17.07931395666233
 30
0.0
 11
24.14341687382821
 21
13.64681395666233
 31
0.0
  0
SOLID
  5
896
330
79A
100
AcDbEntity
  8
DIM
 62
     0
100
AcDbTrace
 10
24.05341687382821
 20
9.299313956662333
 30
0.0
 11
24.23341687382821
 21
9.299313956662333
 31
0.0
 12
24.14341687382821
 22
8.759313956662332
 32
0.0
 13
24.14341687382821
 23
8.759313956662332
 33
0.0
  0
SOLID
  5
897
330
79A
100
AcDbEntity
  8
DIM
 62
     0
100
AcDbTrace
 10
24.05341687382821
 20
17.07931395666233
 30
0.0
 11
24.23341687382821
 21
17.07931395666233
 31
0.0
 12
24.14341687382821
 22
17.61931395666233
 32
0.0
 13
24.14341687382821
 23
17.61931395666233
 33
0.0
  0
MTEXT
  5
898
330
79A
100
AcDbEntity
  8
DIM
 62
     0
100
AcDbMText
 10
24.14341687382821
 20
13.18931395666233
 30
0.0
 40
0.375
 41
0.0
 71
     5
 72
     1
  1
\A1;K
  7
TXT
 73
     1
 44
1.0
  0
POINT
  5
899
330
79A
100
AcDbEntity
  8
DEFPOINTS
 62
     0
100
AcDbPoint
 10
19.38364446279854
 20
8.759313956662333
 30
0.0
  0
POINT
  5
89A
330
79A
100
AcDbEntity
  8
DEFPOINTS
 62
     0
100
AcDbPoint
 10
19.38102238779828
 20
17.61931395666233
 30
0.0
  0
POINT
  5
89B
330
79A
100
AcDbEntity
  8
DEFPOINTS
 62
     0
100
AcDbPoint
 10
24.14341687382821
 20
17.61931395666233
 30
0.0
  0
ENDBLK
  5
7A6
330
79A
100
AcDbEntity
  8
0
100
AcDbBlockEnd
  0
BLOCK
  5
7B2
330
7A7
100
AcDbEntity
  8
0
100
AcDbBlockBegin
  2
*D16
 70
     1
 10
0.0
 20
0.0
 30
0.0
  3
*D16
  1

  0
LINE
  5
89C
330
7A7
100
AcDbEntity
  8
DIM
 62
     0
370
    -2
100
AcDbLine
 10
21.04364446279854
 20
16.64031395666233
 30
0.0
 11
22.79497627151254
 21
16.64031395666233
 31
0.0
  0
LINE
  5
89D
330
7A7
100
AcDbEntity
  8
DIM
 62
     0
370
    -2
100
AcDbLine
 10
21.04364446279854
 20
9.738313956662333
 30
0.0
 11
22.79497627151254
 21
9.738313956662333
 31
0.0
  0
LINE
  5
89E
330
7A7
100
AcDbEntity
  8
DIM
 62
     0
370
    -2
100
AcDbLine
 10
22.51597627151254
 20
16.10031395666233
 30
0.0
 11
22.51597627151254
 21
13.64681395666233
 31
0.0
  0
LINE
  5
89F
330
7A7
100
AcDbEntity
  8
DIM
 62
     0
370
    -2
100
AcDbLine
 10
22.51597627151254
 20
10.27831395666233
 30
0.0
 11
22.51597627151254
 21
12.73181395666233
 31
0.0
  0
SOLID
  5
8A0
330
7A7
100
AcDbEntity
  8
DIM
 62
     0
100
AcDbTrace
 10
22.42597627151254
 20
16.10031395666233
 30
0.0
 11
22.60597627151254
 21
16.10031395666233
 31
0.0
 12
22.51597627151254
 22
16.64031395666233
 32
0.0
 13
22.51597627151254
 23
16.64031395666233
 33
0.0
  0
SOLID
  5
8A1
330
7A7
100
AcDbEntity
  8
DIM
 62
     0
100
AcDbTrace
 10
22.42597627151254
 20
10.27831395666233
 30
0.0
 11
22.60597627151254
 21
10.27831395666233
 31
0.0
 12
22.51597627151254
 22
9.738313956662333
 32
0.0
 13
22.51597627151254
 23
9.738313956662333
 33
0.0
  0
MTEXT
  5
8A2
330
7A7
100
AcDbEntity
  8
DIM
 62
     0
100
AcDbMText
 10
22.51597627151253
 20
13.18931395666233
 30
0.0
 40
0.375
 41
0.0
 71
     5
 72
     1
  1
\A1;M
  7
TXT
 73
     1
 44
1.0
  0
POINT
  5
8A3
330
7A7
100
AcDbEntity
  8
DEFPOINTS
 62
     0
100
AcDbPoint
 10
20.85464446279854
 20
16.64031395666233
 30
0.0
  0
POINT
  5
8A4
330
7A7
100
AcDbEntity
  8
DEFPOINTS
 62
     0
100
AcDbPoint
 10
20.85464446279854
 20
9.738313956662333
 30
0.0
  0
POINT
  5
8A5
330
7A7
100
AcDbEntity
  8
DEFPOINTS
 62
     0
100
AcDbPoint
 10
22.51597627151254
 20
9.738313956662333
 30
0.0
  0
ENDBLK
  5
7B3
330
7A7
100
AcDbEntity
  8
0
100
AcDbBlockEnd
  0
BLOCK
  5
7BF
330
7B4
100
AcDbEntity
  8
0
100
AcDbBlockBegin
  2
*D17
 70
     1
 10
0.0
 20
0.0
 30
0.0
  3
*D17
  1

  0
LINE
  5
888
330
7B4
100
AcDbEntity
  8
DIM
 62
     0
370
    -2
100
AcDbLine
 10
20.45214446279854
 20
9.050313956662337
 30
0.0
 11
23.60323917819547
 21
9.050313956662337
 31
0.0
  0
LINE
  5
889
330
7B4
100
AcDbEntity
  8
DIM
 62
     0
370
    -2
100
AcDbLine
 10
20.45214446279854
 20
17.32831395666234
 30
0.0
 11
23.60323917819547
 21
17.32831395666234
 31
0.0
  0
LINE
  5
88A
330
7B4
100
AcDbEntity
  8
DIM
 62
     0
370
    -2
100
AcDbLine
 10
23.32423917819546
 20
9.590313956662336
 30
0.0
 11
23.32423917819546
 21
12.73181395666233
 31
0.0
  0
LINE
  5
88B
330
7B4
100
AcDbEntity
  8
DIM
 62
     0
370
    -2
100
AcDbLine
 10
23.32423917819546
 20
16.78831395666233
 30
0.0
 11
23.32423917819546
 21
13.64681395666233
 31
0.0
  0
SOLID
  5
88C
330
7B4
100
AcDbEntity
  8
DIM
 62
     0
100
AcDbTrace
 10
23.23423917819547
 20
9.590313956662336
 30
0.0
 11
23.41423917819546
 21
9.590313956662336
 31
0.0
 12
23.32423917819546
 22
9.050313956662337
 32
0.0
 13
23.32423917819546
 23
9.050313956662337
 33
0.0
  0
SOLID
  5
88D
330
7B4
100
AcDbEntity
  8
DIM
 62
     0
100
AcDbTrace
 10
23.23423917819547
 20
16.78831395666233
 30
0.0
 11
23.41423917819546
 21
16.78831395666233
 31
0.0
 12
23.32423917819546
 22
17.32831395666234
 32
0.0
 13
23.32423917819546
 23
17.32831395666234
 33
0.0
  0
MTEXT
  5
88E
330
7B4
100
AcDbEntity
  8
DIM
 62
     0
100
AcDbMText
 10
23.32423917819546
 20
13.18931395666234
 30
0.0
 40
0.375
 41
0.0
 71
     5
 72
     1
  1
\A1;L
  7
TXT
 73
     1
 44
1.0
  0
POINT
  5
88F
330
7B4
100
AcDbEntity
  8
DEFPOINTS
 62
     0
100
AcDbPoint
 10
20.26314446279855
 20
9.050313956662337
 30
0.0
  0
POINT
  5
890
330
7B4
100
AcDbEntity
  8
DEFPOINTS
 62
     0
100
AcDbPoint
 10
20.26314446279855
 20
17.32831395666234
 30
0.0
  0
POINT
  5
891
330
7B4
100
AcDbEntity
  8
DEFPOINTS
 62
     0
100
AcDbPoint
 10
23.32423917819546
 20
17.32831395666234
 30
0.0
  0
ENDBLK
  5
7C0
330
7B4
100
AcDbEntity
  8
0
100
AcDbBlockEnd
  0
BLOCK
  5
7CC
330
7C1
100
AcDbEntity
  8
0
100
AcDbBlockBegin
  2
*D18
 70
     1
 10
0.0
 20
0.0
 30
0.0
  3
*D18
  1

  0
LINE
  5
916
330
7C1
100
AcDbEntity
  8
DIM
 62
     0
370
    -2
100
AcDbLine
 10
26.77015635482838
 20
22.03017369767036
 30
0.0
 11
26.77015635482838
 21
21.19317369767036
 31
0.0
  0
LINE
  5
917
330
7C1
100
AcDbEntity
  8
DIM
 62
     0
370
    -2
100
AcDbLine
 10
33.57015635482839
 20
22.03017369767036
 30
0.0
 11
33.57015635482839
 21
21.19317369767036
 31
0.0
  0
LINE
  5
918
330
7C1
100
AcDbEntity
  8
DIM
 62
     0
370
    -2
100
AcDbLine
 10
27.31015635482838
 20
21.47217369767036
 30
0.0
 11
29.80640635482838
 21
21.47217369767036
 31
0.0
  0
LINE
  5
919
330
7C1
100
AcDbEntity
  8
DIM
 62
     0
370
    -2
100
AcDbLine
 10
33.03015635482839
 20
21.47217369767036
 30
0.0
 11
30.53390635482838
 21
21.47217369767036
 31
0.0
  0
SOLID
  5
91A
330
7C1
100
AcDbEntity
  8
DIM
 62
     0
100
AcDbTrace
 10
27.31015635482838
 20
21.56217369767036
 30
0.0
 11
27.31015635482838
 21
21.38217369767036
 31
0.0
 12
26.77015635482838
 22
21.47217369767036
 32
0.0
 13
26.77015635482838
 23
21.47217369767036
 33
0.0
  0
SOLID
  5
91B
330
7C1
100
AcDbEntity
  8
DIM
 62
     0
100
AcDbTrace
 10
33.03015635482839
 20
21.56217369767036
 30
0.0
 11
33.03015635482839
 21
21.38217369767036
 31
0.0
 12
33.57015635482839
 22
21.47217369767036
 32
0.0
 13
33.57015635482839
 23
21.47217369767036
 33
0.0
  0
MTEXT
  5
91C
330
7C1
100
AcDbEntity
  8
DIM
 62
     0
100
AcDbMText
 10
30.17015635482838
 20
21.47217369767036
 30
0.0
 40
0.375
 41
0.0
 71
     5
 72
     1
  1
\A1;T
  7
TXT
 73
     1
 44
1.0
  0
POINT
  5
91D
330
7C1
100
AcDbEntity
  8
DEFPOINTS
 62
     0
100
AcDbPoint
 10
26.77015635482838
 20
22.21917369767036
 30
0.0
  0
POINT
  5
91E
330
7C1
100
AcDbEntity
  8
DEFPOINTS
 62
     0
100
AcDbPoint
 10
33.57015635482839
 20
22.21917369767036
 30
0.0
  0
POINT
  5
91F
330
7C1
100
AcDbEntity
  8
DEFPOINTS
 62
     0
100
AcDbPoint
 10
33.57015635482839
 20
21.47217369767036
 30
0.0
  0
ENDBLK
  5
7CD
330
7C1
100
AcDbEntity
  8
0
100
AcDbBlockEnd
  0
BLOCK
  5
7D9
330
7CE
100
AcDbEntity
  8
0
100
AcDbBlockBegin
  2
*D19
 70
     1
 10
0.0
 20
0.0
 30
0.0
  3
*D19
  1

  0
LINE
  5
7CF
330
7CE
100
AcDbEntity
  8
DIM
 62
     0
370
    -2
100
AcDbLine
 10
42.18952108187433
 20
7.869313956662333
 30
0.0
 11
45.86458135366561
 21
7.869313956662333
 31
0.0
  0
LINE
  5
7D0
330
7CE
100
AcDbEntity
  8
DIM
 62
     0
370
    -2
100
AcDbLine
 10
42.18952108187433
 20
18.50931395666233
 30
0.0
 11
45.86458135366561
 21
18.50931395666233
 31
0.0
  0
LINE
  5
7D1
330
7CE
100
AcDbEntity
  8
DIM
 62
     0
370
    -2
100
AcDbLine
 10
45.58558135366561
 20
8.409313956662332
 30
0.0
 11
45.58558135366561
 21
12.73181395666233
 31
0.0
  0
LINE
  5
7D2
330
7CE
100
AcDbEntity
  8
DIM
 62
     0
370
    -2
100
AcDbLine
 10
45.58558135366562
 20
17.96931395666233
 30
0.0
 11
45.58558135366561
 21
13.64681395666233
 31
0.0
  0
SOLID
  5
7D3
330
7CE
100
AcDbEntity
  8
DIM
 62
     0
100
AcDbTrace
 10
45.4955813536656
 20
8.409313956662332
 30
0.0
 11
45.67558135366561
 21
8.409313956662332
 31
0.0
 12
45.58558135366561
 22
7.869313956662333
 32
0.0
 13
45.58558135366561
 23
7.869313956662333
 33
0.0
  0
SOLID
  5
7D4
330
7CE
100
AcDbEntity
  8
DIM
 62
     0
100
AcDbTrace
 10
45.49558135366561
 20
17.96931395666233
 30
0.0
 11
45.67558135366562
 21
17.96931395666233
 31
0.0
 12
45.58558135366562
 22
18.50931395666233
 32
0.0
 13
45.58558135366562
 23
18.50931395666233
 33
0.0
  0
MTEXT
  5
7D5
330
7CE
100
AcDbEntity
  8
DIM
 62
     0
100
AcDbMText
 10
45.58558135366561
 20
13.18931395666234
 30
0.0
 40
0.375
 41
0.0
 71
     5
 72
     1
  1
\A1;S
  7
TXT
 73
     1
 44
1.0
  0
POINT
  5
7D6
330
7CE
100
AcDbEntity
  8
DEFPOINTS
 62
     0
100
AcDbPoint
 10
42.00052108187433
 20
7.869313956662333
 30
0.0
  0
POINT
  5
7D7
330
7CE
100
AcDbEntity
  8
DEFPOINTS
 62
     0
100
AcDbPoint
 10
42.00052108187433
 20
18.50931395666233
 30
0.0
  0
POINT
  5
7D8
330
7CE
100
AcDbEntity
  8
DEFPOINTS
 62
     0
100
AcDbPoint
 10
45.58558135366562
 20
18.50931395666233
 30
0.0
  0
ENDBLK
  5
7DA
330
7CE
100
AcDbEntity
  8
0
100
AcDbBlockEnd
  0
BLOCK
  5
7E6
330
7DB
100
AcDbEntity
  8
0
100
AcDbBlockBegin
  2
*D20
 70
     1
 10
0.0
 20
0.0
 30
0.0
  3
*D20
  1

  0
LINE
  5
920
330
7DB
100
AcDbEntity
  8
DIM
 62
     0
370
    -2
100
AcDbLine
 10
26.75015635482838
 20
27.77177642372854
 30
0.0
 11
26.75015635482838
 21
28.66669088497425
 31
0.0
  0
LINE
  5
921
330
7DB
100
AcDbEntity
  8
DIM
 62
     0
370
    -2
100
AcDbLine
 10
33.59015635482839
 20
27.77177642372854
 30
0.0
 11
33.59015635482839
 21
28.66669088497425
 31
0.0
  0
LINE
  5
922
330
7DB
100
AcDbEntity
  8
DIM
 62
     0
370
    -2
100
AcDbLine
 10
27.29015635482838
 20
28.38769088497425
 30
0.0
 11
29.80640635482838
 21
28.38769088497425
 31
0.0
  0
LINE
  5
923
330
7DB
100
AcDbEntity
  8
DIM
 62
     0
370
    -2
100
AcDbLine
 10
33.05015635482838
 20
28.38769088497425
 30
0.0
 11
30.53390635482838
 21
28.38769088497425
 31
0.0
  0
SOLID
  5
924
330
7DB
100
AcDbEntity
  8
DIM
 62
     0
100
AcDbTrace
 10
27.29015635482838
 20
28.47769088497425
 30
0.0
 11
27.29015635482838
 21
28.29769088497425
 31
0.0
 12
26.75015635482838
 22
28.38769088497425
 32
0.0
 13
26.75015635482838
 23
28.38769088497425
 33
0.0
  0
SOLID
  5
925
330
7DB
100
AcDbEntity
  8
DIM
 62
     0
100
AcDbTrace
 10
33.05015635482838
 20
28.47769088497425
 30
0.0
 11
33.05015635482838
 21
28.29769088497425
 31
0.0
 12
33.59015635482839
 22
28.38769088497425
 32
0.0
 13
33.59015635482839
 23
28.38769088497425
 33
0.0
  0
MTEXT
  5
926
330
7DB
100
AcDbEntity
  8
DIM
 62
     0
100
AcDbMText
 10
30.17015635482838
 20
28.38769088497425
 30
0.0
 40
0.375
 41
0.0
 71
     5
 72
     1
  1
\A1;U
  7
TXT
 73
     1
 44
1.0
  0
POINT
  5
927
330
7DB
100
AcDbEntity
  8
DEFPOINTS
 62
     0
100
AcDbPoint
 10
26.75015635482838
 20
27.58277642372854
 30
0.0
  0
POINT
  5
928
330
7DB
100
AcDbEntity
  8
DEFPOINTS
 62
     0
100
AcDbPoint
 10
33.59015635482839
 20
27.58277642372854
 30
0.0
  0
POINT
  5
929
330
7DB
100
AcDbEntity
  8
DEFPOINTS
 62
     0
100
AcDbPoint
 10
33.59015635482839
 20
28.38769088497425
 30
0.0
  0
ENDBLK
  5
7E7
330
7DB
100
AcDbEntity
  8
0
100
AcDbBlockEnd
  0
BLOCK
  5
7F3
330
7E8
100
AcDbEntity
  8
0
100
AcDbBlockBegin
  2
*D21
 70
     1
 10
0.0
 20
0.0
 30
0.0
  3
*D21
  1

  0
LINE
  5
7E9
330
7E8
100
AcDbEntity
  8
DIM
 62
     0
370
    -2
100
AcDbLine
 10
37.67081250187366
 20
19.01831395666234
 30
0.0
 11
37.67081250187366
 21
19.85531395666234
 31
0.0
  0
LINE
  5
7EA
330
7E8
100
AcDbEntity
  8
DIM
 62
     0
370
    -2
100
AcDbLine
 10
42.00052108187433
 20
18.69831395666233
 30
0.0
 11
42.00052108187433
 21
19.85531395666234
 31
0.0
  0
LINE
  5
7EB
330
7E8
100
AcDbEntity
  8
DIM
 62
     0
370
    -2
100
AcDbLine
 10
38.21081250187366
 20
19.57631395666234
 30
0.0
 11
39.47191679187399
 21
19.57631395666234
 31
0.0
  0
LINE
  5
7EC
330
7E8
100
AcDbEntity
  8
DIM
 62
     0
370
    -2
100
AcDbLine
 10
41.46052108187433
 20
19.57631395666234
 30
0.0
 11
40.19941679187399
 21
19.57631395666234
 31
0.0
  0
SOLID
  5
7ED
330
7E8
100
AcDbEntity
  8
DIM
 62
     0
100
AcDbTrace
 10
38.21081250187366
 20
19.66631395666234
 30
0.0
 11
38.21081250187366
 21
19.48631395666234
 31
0.0
 12
37.67081250187366
 22
19.57631395666234
 32
0.0
 13
37.67081250187366
 23
19.57631395666234
 33
0.0
  0
SOLID
  5
7EE
330
7E8
100
AcDbEntity
  8
DIM
 62
     0
100
AcDbTrace
 10
41.46052108187433
 20
19.66631395666234
 30
0.0
 11
41.46052108187433
 21
19.48631395666234
 31
0.0
 12
42.00052108187433
 22
19.57631395666234
 32
0.0
 13
42.00052108187433
 23
19.57631395666234
 33
0.0
  0
MTEXT
  5
7EF
330
7E8
100
AcDbEntity
  8
DIM
 62
     0
100
AcDbMText
 10
39.83566679187399
 20
19.57631395666234
 30
0.0
 40
0.375
 41
0.0
 71
     5
 72
     1
  1
\A1;N
  7
TXT
 73
     1
 44
1.0
  0
POINT
  5
7F0
330
7E8
100
AcDbEntity
  8
DEFPOINTS
 62
     0
100
AcDbPoint
 10
37.67081250187366
 20
18.82931395666234
 30
0.0
  0
POINT
  5
7F1
330
7E8
100
AcDbEntity
  8
DEFPOINTS
 62
     0
100
AcDbPoint
 10
42.00052108187433
 20
18.50931395666233
 30
0.0
  0
POINT
  5
7F2
330
7E8
100
AcDbEntity
  8
DEFPOINTS
 62
     0
100
AcDbPoint
 10
42.00052108187433
 20
19.57631395666234
 30
0.0
  0
ENDBLK
  5
7F4
330
7E8
100
AcDbEntity
  8
0
100
AcDbBlockEnd
  0
BLOCK
  5
800
330
7F5
100
AcDbEntity
  8
0
100
AcDbBlockBegin
  2
*D22
 70
     1
 10
0.0
 20
0.0
 30
0.0
  3
*D22
  1

  0
LINE
  5
7F6
330
7F5
100
AcDbEntity
  8
DIM
 62
     0
370
    -2
100
AcDbLine
 10
7.709349786169073
 20
17.79931395666233
 30
0.0
 11
9.82776753743702
 21
17.79931395666233
 31
0.0
  0
LINE
  5
7F7
330
7F5
100
AcDbEntity
  8
DIM
 62
     0
370
    -2
100
AcDbLine
 10
7.709349786169073
 20
8.579313956662334
 30
0.0
 11
9.827767537437019
 21
8.579313956662334
 31
0.0
  0
LINE
  5
7F8
330
7F5
100
AcDbEntity
  8
DIM
 62
     0
370
    -2
100
AcDbLine
 10
9.54876753743702
 20
17.25931395666233
 30
0.0
 11
9.54876753743702
 21
13.64681395666233
 31
0.0
  0
LINE
  5
7F9
330
7F5
100
AcDbEntity
  8
DIM
 62
     0
370
    -2
100
AcDbLine
 10
9.548767537437019
 20
9.119313956662333
 30
0.0
 11
9.54876753743702
 21
12.73181395666233
 31
0.0
  0
SOLID
  5
7FA
330
7F5
100
AcDbEntity
  8
DIM
 62
     0
100
AcDbTrace
 10
9.458767537437021
 20
17.25931395666233
 30
0.0
 11
9.63876753743702
 21
17.25931395666233
 31
0.0
 12
9.54876753743702
 22
17.79931395666233
 32
0.0
 13
9.54876753743702
 23
17.79931395666233
 33
0.0
  0
SOLID
  5
7FB
330
7F5
100
AcDbEntity
  8
DIM
 62
     0
100
AcDbTrace
 10
9.458767537437019
 20
9.119313956662333
 30
0.0
 11
9.638767537437018
 21
9.119313956662333
 31
0.0
 12
9.548767537437019
 22
8.579313956662334
 32
0.0
 13
9.548767537437019
 23
8.579313956662334
 33
0.0
  0
MTEXT
  5
7FC
330
7F5
100
AcDbEntity
  8
DIM
 62
     0
100
AcDbMText
 10
9.548767537437017
 20
13.18931395666233
 30
0.0
 40
0.375
 41
0.0
 71
     5
 72
     1
  1
\A1;Y
  7
TXT
 73
     1
 44
1.0
  0
POINT
  5
7FD
330
7F5
100
AcDbEntity
  8
DEFPOINTS
 62
     0
100
AcDbPoint
 10
7.520349786169073
 20
17.79931395666233
 30
0.0
  0
POINT
  5
7FE
330
7F5
100
AcDbEntity
  8
DEFPOINTS
 62
     0
100
AcDbPoint
 10
7.520349786169073
 20
8.579313956662334
 30
0.0
  0
POINT
  5
7FF
330
7F5
100
AcDbEntity
  8
DEFPOINTS
 62
     0
100
AcDbPoint
 10
9.548767537437019
 20
8.579313956662334
 30
0.0
  0
ENDBLK
  5
801
330
7F5
100
AcDbEntity
  8
0
100
AcDbBlockEnd
  0
BLOCK
  5
80D
330
802
100
AcDbEntity
  8
0
100
AcDbBlockBegin
  2
*D23
 70
     1
 10
0.0
 20
0.0
 30
0.0
  3
*D23
  1

  0
LINE
  5
803
330
802
100
AcDbEntity
  8
DIM
 62
     0
370
    -2
100
AcDbLine
 10
8.241849786169051
 20
8.021813956662336
 30
0.0
 11
10.69960820522706
 21
8.021813956662336
 31
0.0
  0
LINE
  5
804
330
802
100
AcDbEntity
  8
DIM
 62
     0
370
    -2
100
AcDbLine
 10
8.241849786169051
 20
18.35681395666234
 30
0.0
 11
10.69960820522706
 21
18.35681395666234
 31
0.0
  0
LINE
  5
805
330
802
100
AcDbEntity
  8
DIM
 62
     0
370
    -2
100
AcDbLine
 10
10.42060820522706
 20
8.561813956662335
 30
0.0
 11
10.42060820522706
 21
12.73181395666234
 31
0.0
  0
LINE
  5
806
330
802
100
AcDbEntity
  8
DIM
 62
     0
370
    -2
100
AcDbLine
 10
10.42060820522706
 20
17.81681395666234
 30
0.0
 11
10.42060820522706
 21
13.64681395666234
 31
0.0
  0
SOLID
  5
807
330
802
100
AcDbEntity
  8
DIM
 62
     0
100
AcDbTrace
 10
10.33060820522706
 20
8.561813956662335
 30
0.0
 11
10.51060820522706
 21
8.561813956662335
 31
0.0
 12
10.42060820522706
 22
8.021813956662336
 32
0.0
 13
10.42060820522706
 23
8.021813956662336
 33
0.0
  0
SOLID
  5
808
330
802
100
AcDbEntity
  8
DIM
 62
     0
100
AcDbTrace
 10
10.33060820522706
 20
17.81681395666234
 30
0.0
 11
10.51060820522706
 21
17.81681395666234
 31
0.0
 12
10.42060820522706
 22
18.35681395666234
 32
0.0
 13
10.42060820522706
 23
18.35681395666234
 33
0.0
  0
MTEXT
  5
809
330
802
100
AcDbEntity
  8
DIM
 62
     0
100
AcDbMText
 10
10.42060820522706
 20
13.18931395666234
 30
0.0
 40
0.375
 41
0.0
 71
     5
 72
     1
  1
\A1;X
  7
TXT
 73
     1
 44
1.0
  0
POINT
  5
80A
330
802
100
AcDbEntity
  8
DEFPOINTS
 62
     0
100
AcDbPoint
 10
8.052849786169051
 20
8.021813956662336
 30
0.0
  0
POINT
  5
80B
330
802
100
AcDbEntity
  8
DEFPOINTS
 62
     0
100
AcDbPoint
 10
8.052849786169051
 20
18.35681395666234
 30
0.0
  0
POINT
  5
80C
330
802
100
AcDbEntity
  8
DEFPOINTS
 62
     0
100
AcDbPoint
 10
10.42060820522706
 20
18.35681395666234
 30
0.0
  0
ENDBLK
  5
80E
330
802
100
AcDbEntity
  8
0
100
AcDbBlockEnd
  0
BLOCK
  5
81A
330
80F
100
AcDbEntity
  8
0
100
AcDbBlockBegin
  2
*D24
 70
     1
 10
0.0
 20
0.0
 30
0.0
  3
*D24
  1

  0
LINE
  5
810
330
80F
100
AcDbEntity
  8
DIM
 62
     0
370
    -2
100
AcDbLine
 10
7.520349786169073
 20
17.98831395666233
 30
0.0
 11
7.520349786169073
 21
19.89859222021642
 31
0.0
  0
LINE
  5
811
330
80F
100
AcDbEntity
  8
DIM
 62
     0
370
    -2
100
AcDbLine
 10
2.060349786169093
 20
17.98831395666234
 30
0.0
 11
2.060349786169093
 21
19.89859222021642
 31
0.0
  0
LINE
  5
812
330
80F
100
AcDbEntity
  8
DIM
 62
     0
370
    -2
100
AcDbLine
 10
6.980349786169073
 20
19.61959222021643
 30
0.0
 11
5.200974786169084
 21
19.61959222021643
 31
0.0
  0
LINE
  5
813
330
80F
100
AcDbEntity
  8
DIM
 62
     0
370
    -2
100
AcDbLine
 10
2.600349786169093
 20
19.61959222021643
 30
0.0
 11
4.379724786169083
 21
19.61959222021643
 31
0.0
  0
SOLID
  5
814
330
80F
100
AcDbEntity
  8
DIM
 62
     0
100
AcDbTrace
 10
6.980349786169073
 20
19.70959222021642
 30
0.0
 11
6.980349786169073
 21
19.52959222021642
 31
0.0
 12
7.520349786169073
 22
19.61959222021643
 32
0.0
 13
7.520349786169073
 23
19.61959222021643
 33
0.0
  0
SOLID
  5
815
330
80F
100
AcDbEntity
  8
DIM
 62
     0
100
AcDbTrace
 10
2.600349786169093
 20
19.70959222021642
 30
0.0
 11
2.600349786169093
 21
19.52959222021642
 31
0.0
 12
2.060349786169093
 22
19.61959222021643
 32
0.0
 13
2.060349786169093
 23
19.61959222021643
 33
0.0
  0
MTEXT
  5
816
330
80F
100
AcDbEntity
  8
DIM
 62
     0
100
AcDbMText
 10
4.790349786169083
 20
19.61959222021643
 30
0.0
 40
0.375
 41
0.0
 71
     5
 72
     1
  1
\A1;W
  7
TXT
 73
     1
 44
1.0
  0
POINT
  5
817
330
80F
100
AcDbEntity
  8
DEFPOINTS
 62
     0
100
AcDbPoint
 10
7.520349786169073
 20
17.79931395666233
 30
0.0
  0
POINT
  5
818
330
80F
100
AcDbEntity
  8
DEFPOINTS
 62
     0
100
AcDbPoint
 10
2.060349786169093
 20
17.79931395666234
 30
0.0
  0
POINT
  5
819
330
80F
100
AcDbEntity
  8
DEFPOINTS
 62
     0
100
AcDbPoint
 10
2.060349786169093
 20
19.61959222021643
 30
0.0
  0
ENDBLK
  5
81B
330
80F
100
AcDbEntity
  8
0
100
AcDbBlockEnd
  0
BLOCK
  5
827
330
81C
100
AcDbEntity
  8
0
100
AcDbBlockBegin
  2
*D25
 70
     1
 10
0.0
 20
0.0
 30
0.0
  3
*D25
  1

  0
LINE
  5
81D
330
81C
100
AcDbEntity
  8
DIM
 62
     0
370
    -2
100
AcDbLine
 10
1.825849786169057
 20
18.54581395666233
 30
0.0
 11
1.825849786169057
 21
20.5017128108597
 31
0.0
  0
LINE
  5
81E
330
81C
100
AcDbEntity
  8
DIM
 62
     0
370
    -2
100
AcDbLine
 10
8.052849786169051
 20
18.54581395666233
 30
0.0
 11
8.052849786169051
 21
20.5017128108597
 31
0.0
  0
LINE
  5
81F
330
81C
100
AcDbEntity
  8
DIM
 62
     0
370
    -2
100
AcDbLine
 10
2.365849786169057
 20
20.22271281085969
 30
0.0
 11
4.528724786169055
 21
20.22271281085969
 31
0.0
  0
LINE
  5
820
330
81C
100
AcDbEntity
  8
DIM
 62
     0
370
    -2
100
AcDbLine
 10
7.512849786169051
 20
20.22271281085969
 30
0.0
 11
5.349974786169054
 21
20.22271281085969
 31
0.0
  0
SOLID
  5
821
330
81C
100
AcDbEntity
  8
DIM
 62
     0
100
AcDbTrace
 10
2.365849786169057
 20
20.3127128108597
 30
0.0
 11
2.365849786169057
 21
20.1327128108597
 31
0.0
 12
1.825849786169057
 22
20.22271281085969
 32
0.0
 13
1.825849786169057
 23
20.22271281085969
 33
0.0
  0
SOLID
  5
822
330
81C
100
AcDbEntity
  8
DIM
 62
     0
100
AcDbTrace
 10
7.512849786169051
 20
20.3127128108597
 30
0.0
 11
7.512849786169051
 21
20.1327128108597
 31
0.0
 12
8.052849786169051
 22
20.22271281085969
 32
0.0
 13
8.052849786169051
 23
20.22271281085969
 33
0.0
  0
MTEXT
  5
823
330
81C
100
AcDbEntity
  8
DIM
 62
     0
100
AcDbMText
 10
4.939349786169055
 20
20.22271281085969
 30
0.0
 40
0.375
 41
0.0
 71
     5
 72
     1
  1
\A1;V
  7
TXT
 73
     1
 44
1.0
  0
POINT
  5
824
330
81C
100
AcDbEntity
  8
DEFPOINTS
 62
     0
100
AcDbPoint
 10
1.825849786169057
 20
18.35681395666234
 30
0.0
  0
POINT
  5
825
330
81C
100
AcDbEntity
  8
DEFPOINTS
 62
     0
100
AcDbPoint
 10
8.052849786169051
 20
18.35681395666234
 30
0.0
  0
POINT
  5
826
330
81C
100
AcDbEntity
  8
DEFPOINTS
 62
     0
100
AcDbPoint
 10
8.052849786169051
 20
20.22271281085969
 30
0.0
  0
ENDBLK
  5
828
330
81C
100
AcDbEntity
  8
0
100
AcDbBlockEnd
  0
BLOCK
  5
834
330
829
100
AcDbEntity
  8
0
100
AcDbBlockBegin
  2
*D26
 70
     1
 10
0.0
 20
0.0
 30
0.0
  3
*D26
  1

  0
LINE
  5
82A
330
829
100
AcDbEntity
  8
DIM
 62
     0
370
    -2
100
AcDbLine
 10
37.63981250187367
 20
9.006729953507946
 30
0.0
 11
37.63981250187367
 21
9.096729953507946
 31
0.0
  0
LINE
  5
82B
330
829
100
AcDbEntity
  8
DIM
 62
     0
370
    -2
100
AcDbLine
 10
37.71781250187367
 20
9.006729953507946
 30
0.0
 11
37.71781250187367
 21
9.096729953507946
 31
0.0
  0
LINE
  5
82C
330
829
100
AcDbEntity
  8
DIM
 62
     0
370
    -2
100
AcDbLine
 10
37.09981250187367
 20
8.817729953507946
 30
0.0
 11
36.55981250187367
 21
8.817729953507946
 31
0.0
  0
LINE
  5
82D
330
829
100
AcDbEntity
  8
DIM
 62
     0
370
    -2
100
AcDbLine
 10
38.25781250187367
 20
8.817729953507946
 30
0.0
 11
38.79781250187367
 21
8.817729953507946
 31
0.0
  0
SOLID
  5
82E
330
829
100
AcDbEntity
  8
DIM
 62
     0
100
AcDbTrace
 10
37.09981250187367
 20
8.907729953507946
 30
0.0
 11
37.09981250187367
 21
8.727729953507946
 31
0.0
 12
37.63981250187367
 22
8.817729953507946
 32
0.0
 13
37.63981250187367
 23
8.817729953507946
 33
0.0
  0
SOLID
  5
82F
330
829
100
AcDbEntity
  8
DIM
 62
     0
100
AcDbTrace
 10
38.25781250187367
 20
8.907729953507946
 30
0.0
 11
38.25781250187367
 21
8.727729953507946
 31
0.0
 12
37.71781250187367
 22
8.817729953507946
 32
0.0
 13
37.71781250187367
 23
8.817729953507946
 33
0.0
  0
MTEXT
  5
830
330
829
100
AcDbEntity
  8
DIM
 62
     0
100
AcDbMText
 10
40.05218750187367
 20
8.817729953507946
 30
0.0
 40
0.375
 41
0.0
 71
     5
 72
     1
  1
\A1;0.078 [2]
  7
TXT
 73
     1
 44
1.0
  0
POINT
  5
831
330
829
100
AcDbEntity
  8
DEFPOINTS
 62
     0
100
AcDbPoint
 10
37.63981250187367
 20
8.817729953507946
 30
0.0
  0
POINT
  5
832
330
829
100
AcDbEntity
  8
DEFPOINTS
 62
     0
100
AcDbPoint
 10
37.71781250187367
 20
8.817729953507946
 30
0.0
  0
POINT
  5
833
330
829
100
AcDbEntity
  8
DEFPOINTS
 62
     0
100
AcDbPoint
 10
37.71781250187367
 20
8.817729953507946
 30
0.0
  0
ENDBLK
  5
835
330
829
100
AcDbEntity
  8
0
100
AcDbBlockEnd
  0
BLOCK
  5
841
330
836
100
AcDbEntity
  8
0
100
AcDbBlockBegin
  2
*D27
 70
     1
 10
0.0
 20
0.0
 30
0.0
  3
*D27
  1

  0
LINE
  5
837
330
836
100
AcDbEntity
  8
DIM
 62
     0
370
    -2
100
AcDbLine
 10
41.86752108187432
 20
12.12131395666234
 30
0.0
 11
41.86752108187432
 21
12.49698600011623
 31
0.0
  0
LINE
  5
838
330
836
100
AcDbEntity
  8
DIM
 62
     0
370
    -2
100
AcDbLine
 10
42.00052108187431
 20
12.04931395666233
 30
0.0
 11
42.00052108187431
 21
12.49698600011623
 31
0.0
  0
LINE
  5
839
330
836
100
AcDbEntity
  8
DIM
 62
     0
370
    -2
100
AcDbLine
 10
41.32752108187432
 20
12.21798600011623
 30
0.0
 11
40.78752108187432
 21
12.21798600011623
 31
0.0
  0
LINE
  5
83A
330
836
100
AcDbEntity
  8
DIM
 62
     0
370
    -2
100
AcDbLine
 10
42.54052108187432
 20
12.21798600011623
 30
0.0
 11
43.08052108187431
 21
12.21798600011623
 31
0.0
  0
SOLID
  5
83B
330
836
100
AcDbEntity
  8
DIM
 62
     0
100
AcDbTrace
 10
41.32752108187432
 20
12.30798600011623
 30
0.0
 11
41.32752108187432
 21
12.12798600011623
 31
0.0
 12
41.86752108187432
 22
12.21798600011623
 32
0.0
 13
41.86752108187432
 23
12.21798600011623
 33
0.0
  0
SOLID
  5
83C
330
836
100
AcDbEntity
  8
DIM
 62
     0
100
AcDbTrace
 10
42.54052108187432
 20
12.30798600011623
 30
0.0
 11
42.54052108187432
 21
12.12798600011623
 31
0.0
 12
42.00052108187431
 22
12.21798600011623
 32
0.0
 13
42.00052108187431
 23
12.21798600011623
 33
0.0
  0
MTEXT
  5
83D
330
836
100
AcDbEntity
  8
DIM
 62
     0
100
AcDbMText
 10
44.31145858187432
 20
12.21798600011623
 30
0.0
 40
0.375
 41
0.0
 71
     5
 72
     1
  1
\A1;0.133 [3]
  7
TXT
 73
     1
 44
1.0
  0
POINT
  5
83E
330
836
100
AcDbEntity
  8
DEFPOINTS
 62
     0
100
AcDbPoint
 10
41.86752108187432
 20
11.93231395666233
 30
0.0
  0
POINT
  5
83F
330
836
100
AcDbEntity
  8
DEFPOINTS
 62
     0
100
AcDbPoint
 10
42.00052108187431
 20
11.86031395666233
 30
0.0
  0
POINT
  5
840
330
836
100
AcDbEntity
  8
DEFPOINTS
 62
     0
100
AcDbPoint
 10
42.00052108187431
 20
12.21798600011623
 30
0.0
  0
ENDBLK
  5
842
330
836
100
AcDbEntity
  8
0
100
AcDbBlockEnd
  0
BLOCK
  5
84E
330
843
100
AcDbEntity
  8
0
100
AcDbBlockBegin
  2
*D28
 70
     1
 10
0.0
 20
0.0
 30
0.0
  3
*D28
  1

  0
LINE
  5
844
330
843
100
AcDbEntity
  8
DIM
 62
     0
370
    -2
100
AcDbLine
 10
41.58752108187432
 20
10.45031395666234
 30
0.0
 11
41.58752108187432
 21
9.968236147620482
 31
0.0
  0
LINE
  5
845
330
843
100
AcDbEntity
  8
DIM
 62
     0
370
    -2
100
AcDbLine
 10
41.86752108187432
 20
10.31331395666233
 30
0.0
 11
41.86752108187432
 21
9.968236147620482
 31
0.0
  0
LINE
  5
846
330
843
100
AcDbEntity
  8
DIM
 62
     0
370
    -2
100
AcDbLine
 10
41.04752108187432
 20
10.24723614762048
 30
0.0
 11
40.50752108187432
 21
10.24723614762048
 31
0.0
  0
LINE
  5
847
330
843
100
AcDbEntity
  8
DIM
 62
     0
370
    -2
100
AcDbLine
 10
42.40752108187431
 20
10.24723614762048
 30
0.0
 11
42.94752108187432
 21
10.24723614762048
 31
0.0
  0
SOLID
  5
848
330
843
100
AcDbEntity
  8
DIM
 62
     0
100
AcDbTrace
 10
41.04752108187432
 20
10.33723614762048
 30
0.0
 11
41.04752108187432
 21
10.15723614762048
 31
0.0
 12
41.58752108187432
 22
10.24723614762048
 32
0.0
 13
41.58752108187432
 23
10.24723614762048
 33
0.0
  0
SOLID
  5
849
330
843
100
AcDbEntity
  8
DIM
 62
     0
100
AcDbTrace
 10
42.40752108187431
 20
10.33723614762048
 30
0.0
 11
42.40752108187431
 21
10.15723614762048
 31
0.0
 12
41.86752108187432
 22
10.24723614762048
 32
0.0
 13
41.86752108187432
 23
10.24723614762048
 33
0.0
  0
MTEXT
  5
84A
330
843
100
AcDbEntity
  8
DIM
 62
     0
100
AcDbMText
 10
44.20189608187432
 20
10.24723614762048
 30
0.0
 40
0.375
 41
0.0
 71
     5
 72
     1
  1
\A1;0.280 [7]
  7
TXT
 73
     1
 44
1.0
  0
POINT
  5
84B
330
843
100
AcDbEntity
  8
DEFPOINTS
 62
     0
100
AcDbPoint
 10
41.58752108187432
 20
10.63931395666233
 30
0.0
  0
POINT
  5
84C
330
843
100
AcDbEntity
  8
DEFPOINTS
 62
     0
100
AcDbPoint
 10
41.86752108187432
 20
10.50231395666233
 30
0.0
  0
POINT
  5
84D
330
843
100
AcDbEntity
  8
DEFPOINTS
 62
     0
100
AcDbPoint
 10
41.86752108187432
 20
10.24723614762048
 30
0.0
  0
ENDBLK
  5
84F
330
843
100
AcDbEntity
  8
0
100
AcDbBlockEnd
  0
BLOCK
  5
85B
330
850
100
AcDbEntity
  8
0
100
AcDbBlockBegin
  2
*D29
 70
     1
 10
0.0
 20
0.0
 30
0.0
  3
*D29
  1

  0
LINE
  5
8C4
330
850
100
AcDbEntity
  8
DIM
 62
     0
370
    -2
100
AcDbLine
 10
20.66564446279854
 20
16.64031395666233
 30
0.0
 11
18.20961729905581
 21
16.64031395666233
 31
0.0
  0
LINE
  5
8C5
330
850
100
AcDbEntity
  8
DIM
 62
     0
370
    -2
100
AcDbLine
 10
20.66564446279854
 20
15.65431395666234
 30
0.0
 11
18.20961729905581
 21
15.65431395666234
 31
0.0
  0
LINE
  5
8C6
330
850
100
AcDbEntity
  8
DIM
 62
     0
370
    -2
100
AcDbLine
 10
18.48861729905581
 20
17.18031395666233
 30
0.0
 11
18.48861729905581
 21
17.72031395666233
 31
0.0
  0
LINE
  5
8C7
330
850
100
AcDbEntity
  8
DIM
 62
     0
370
    -2
100
AcDbLine
 10
18.48861729905581
 20
15.11431395666233
 30
0.0
 11
18.48861729905581
 21
14.57431395666234
 31
0.0
  0
SOLID
  5
8C8
330
850
100
AcDbEntity
  8
DIM
 62
     0
100
AcDbTrace
 10
18.39861729905581
 20
17.18031395666233
 30
0.0
 11
18.57861729905581
 21
17.18031395666233
 31
0.0
 12
18.48861729905581
 22
16.64031395666233
 32
0.0
 13
18.48861729905581
 23
16.64031395666233
 33
0.0
  0
SOLID
  5
8C9
330
850
100
AcDbEntity
  8
DIM
 62
     0
100
AcDbTrace
 10
18.39861729905581
 20
15.11431395666233
 30
0.0
 11
18.57861729905581
 21
15.11431395666233
 31
0.0
 12
18.48861729905581
 22
15.65431395666234
 32
0.0
 13
18.48861729905581
 23
15.65431395666234
 33
0.0
  0
MTEXT
  5
8CA
330
850
100
AcDbEntity
  8
DIM
 62
     0
100
AcDbMText
 10
18.4886172990558
 20
16.14731395666234
 30
0.0
 40
0.375
 41
0.0
 71
     5
 72
     1
  1
\A1;0.986 [25] TYP.
  7
TXT
 73
     1
 44
1.0
  0
POINT
  5
8CB
330
850
100
AcDbEntity
  8
DEFPOINTS
 62
     0
100
AcDbPoint
 10
20.85464446279854
 20
16.64031395666233
 30
0.0
  0
POINT
  5
8CC
330
850
100
AcDbEntity
  8
DEFPOINTS
 62
     0
100
AcDbPoint
 10
20.85464446279854
 20
15.65431395666234
 30
0.0
  0
POINT
  5
8CD
330
850
100
AcDbEntity
  8
DEFPOINTS
 62
     0
100
AcDbPoint
 10
18.48861729905581
 20
15.65431395666234
 30
0.0
  0
ENDBLK
  5
85C
330
850
100
AcDbEntity
  8
0
100
AcDbBlockEnd
  0
BLOCK
  5
868
330
85D
100
AcDbEntity
  8
0
100
AcDbBlockBegin
  2
*D30
 70
     1
 10
0.0
 20
0.0
 30
0.0
  3
*D30
  1

  0
LINE
  5
85E
330
85D
100
AcDbEntity
  8
DIM
 62
     0
370
    -2
100
AcDbLine
 10
37.67081250187366
 20
19.01831395666234
 30
0.0
 11
37.67081250187366
 21
19.85531395666234
 31
0.0
  0
LINE
  5
85F
330
85D
100
AcDbEntity
  8
DIM
 62
     0
370
    -2
100
AcDbLine
 10
36.48602512287383
 20
18.5013914046185
 30
0.0
 11
36.48602512287383
 21
19.85531395666234
 31
0.0
  0
LINE
  5
860
330
85D
100
AcDbEntity
  8
DIM
 62
     0
370
    -2
100
AcDbLine
 10
38.21081250187366
 20
19.57631395666234
 30
0.0
 11
38.75081250187366
 21
19.57631395666234
 31
0.0
  0
LINE
  5
861
330
85D
100
AcDbEntity
  8
DIM
 62
     0
370
    -2
100
AcDbLine
 10
35.94602512287383
 20
19.57631395666234
 30
0.0
 11
35.40602512287383
 21
19.57631395666234
 31
0.0
  0
SOLID
  5
862
330
85D
100
AcDbEntity
  8
DIM
 62
     0
100
AcDbTrace
 10
38.21081250187366
 20
19.66631395666234
 30
0.0
 11
38.21081250187366
 21
19.48631395666234
 31
0.0
 12
37.67081250187366
 22
19.57631395666234
 32
0.0
 13
37.67081250187366
 23
19.57631395666234
 33
0.0
  0
SOLID
  5
863
330
85D
100
AcDbEntity
  8
DIM
 62
     0
100
AcDbTrace
 10
35.94602512287383
 20
19.66631395666234
 30
0.0
 11
35.94602512287383
 21
19.48631395666234
 31
0.0
 12
36.48602512287383
 22
19.57631395666234
 32
0.0
 13
36.48602512287383
 23
19.57631395666234
 33
0.0
  0
MTEXT
  5
864
330
85D
100
AcDbEntity
  8
DIM
 62
     0
100
AcDbMText
 10
37.07841881237374
 20
19.57631395666234
 30
0.0
 40
0.375
 41
0.0
 71
     5
 72
     1
  1
\A1;P
  7
TXT
 73
     1
 44
1.0
  0
POINT
  5
865
330
85D
100
AcDbEntity
  8
DEFPOINTS
 62
     0
100
AcDbPoint
 10
37.67081250187366
 20
18.82931395666234
 30
0.0
  0
POINT
  5
866
330
85D
100
AcDbEntity
  8
DEFPOINTS
 62
     0
100
AcDbPoint
 10
36.48602512287383
 20
18.3123914046185
 30
0.0
  0
POINT
  5
867
330
85D
100
AcDbEntity
  8
DEFPOINTS
 62
     0
100
AcDbPoint
 10
36.48602512287383
 20
19.57631395666234
 30
0.0
  0
ENDBLK
  5
869
330
85D
100
AcDbEntity
  8
0
100
AcDbBlockEnd
  0
ENDSEC
  0
SECTION
  2
ENTITIES
  0
DIMENSION
  5
269
330
1E
100
AcDbEntity
  8
DIM
100
AcDbDimension
  2
*D4
 10
35.70122914419846
 20
18.48931395666234
 30
0.0
 11
35.70122914419845
 21
13.18931395666234
 31
0.0
 70
    32
  1
R
 71
     5
 42
10.6
  3
23NSTD
100
AcDbAlignedDimension
 13
36.65391835581616
 23
7.889313956662336
 33
0.0
 14
36.65391835581616
 24
18.48931395666234
 34
0.0
 50
90.0
100
AcDbRotatedDimension
  0
TEXT
  5
26A
330
1E
100
AcDbEntity
  8
TEXT
100
AcDbText
 10
25.22073420597081
 20
2.419466269467008
 30
0.0
 40
0.3744
  1
DIMENSIONS
 41
0.75
  7
TXT
 72
     1
 11
26.48433420597081
 21
2.419466269467008
 31
0.0
100
AcDbText
  0
TEXT
  5
26B
330
1E
100
AcDbEntity
  8
TEXT
100
AcDbText
 10
21.42200734235535
 20
0.9497663332806796
 30
0.0
 40
0.3744
  1
9.955
 41
0.75
  7
TXT
 72
     1
 11
21.98360734235535
 21
0.9497663332806796
 31
0.0
100
AcDbText
  0
TEXT
  5
26C
330
1E
100
AcDbEntity
  8
TEXT
100
AcDbText
 10
21.42200734235535
 20
0.3088187676646898
 30
0.0
 40
0.3744
  1
[253]
 41
0.75
  7
TXT
 72
     1
 11
21.98360734235535
 21
0.3088187676646898
 31
0.0
100
AcDbText
  0
DIMENSION
  5
26D
330
1E
100
AcDbEntity
  8
DIM
100
AcDbDimension
  2
*D29
 10
18.48861729905581
 20
15.65431395666234
 30
0.0
 11
18.4886172990558
 21
16.14731395666234
 31
0.0
 70
    32
  1
<> TYP.
 71
     5
 42
0.9859999999999953
  3
23NSTDI
100
AcDbAlignedDimension
 13
20.85464446279854
 23
16.64031395666233
 33
0.0
 14
20.85464446279854
 24
15.65431395666234
 34
0.0
 50
90.0
100
AcDbRotatedDimension
  0
DIMENSION
  5
26E
330
1E
100
AcDbEntity
  8
DIM
100
AcDbDimension
  2
*D5
 10
16.42564446279854
 20
6.91155256852679
 30
0.0
 11
13.31783196279854
 21
6.91155256852679
 31
0.0
 70
    32
  1
<> TYP.
 71
     5
 42
0.9860000000000042
  3
23NSTD
100
AcDbAlignedDimension
 13
17.41164446279855
 23
8.759313956662333
 33
0.0
 14
16.42564446279854
 24
8.759313956662333
 34
0.0
100
AcDbRotatedDimension
  0
DIMENSION
  5
26F
330
1E
100
AcDbEntity
  8
DIM
100
AcDbDimension
  2
*D6
 10
19.38364446279854
 20
6.245693939221766
 30
0.0
 11
17.90464446279854
 21
6.245693939221766
 31
0.0
 70
    32
  1
F
 71
     5
 42
2.957999999999998
  3
23NSTD
100
AcDbAlignedDimension
 13
16.42564446279854
 23
8.759313956662333
 33
0.0
 14
19.38364446279854
 24
8.759313956662333
 34
0.0
 50
180.0
100
AcDbRotatedDimension
  0
DIMENSION
  5
270
330
1E
100
AcDbEntity
  8
DIM
100
AcDbDimension
  2
*D7
 10
20.85464446279854
 20
4.887253237520113
 30
0.0
 11
17.90464446279854
 21
4.887253237520113
 31
0.0
 70
    32
  1
D
 71
     5
 42
5.900000000000007
  3
23NSTD
100
AcDbAlignedDimension
 13
14.95464446279854
 23
9.738313956662333
 33
0.0
 14
20.85464446279854
 24
9.738313956662333
 34
0.0
 50
180.0
100
AcDbRotatedDimension
  0
DIMENSION
  5
271
330
1E
100
AcDbEntity
  8
DIM
100
AcDbDimension
  2
*D8
 10
20.97964446279854
 20
19.61959222021643
 30
0.0
 11
17.90464446279854
 21
19.61959222021643
 31
0.0
 70
    32
  1
C
 71
     5
 42
6.150000000000011
  3
23NSTD
100
AcDbAlignedDimension
 13
14.82964446279853
 23
18.16681395666233
 33
0.0
 14
20.97964446279854
 24
18.16681395666233
 34
0.0
 50
180.0
100
AcDbRotatedDimension
  0
DIMENSION
  5
272
330
1E
100
AcDbEntity
  8
DIM
100
AcDbDimension
  2
*D9
 10
21.22964446279854
 20
20.22271281085969
 30
0.0
 11
17.90464446279854
 21
20.22271281085969
 31
0.0
 70
    32
  1
B
 71
     5
 42
6.650000000000011
  3
23NSTD
100
AcDbAlignedDimension
 13
14.57964446279853
 23
18.38094387866274
 33
0.0
 14
21.22964446279854
 24
18.38094387866274
 34
0.0
 50
180.0
100
AcDbRotatedDimension
  0
DIMENSION
  5
273
330
1E
100
AcDbEntity
  8
DIM
100
AcDbDimension
  2
*D10
 10
20.26314446279855
 20
5.553111866825133
 30
0.0
 11
17.90464446279855
 21
5.553111866825133
 31
0.0
 70
    32
  1
E
 71
     5
 42
4.717
  3
23NSTD
100
AcDbAlignedDimension
 13
15.54614446279854
 23
9.050313956662337
 33
0.0
 14
20.26314446279855
 24
9.050313956662337
 34
0.0
 50
180.0
100
AcDbRotatedDimension
  0
DIMENSION
  5
274
330
1E
100
AcDbEntity
  8
DIM
100
AcDbDimension
  2
*D11
 10
14.16714446279854
 20
20.8568178124097
 30
0.0
 11
17.90464446279854
 21
20.8568178124097
 31
0.0
 70
    32
  1
A
 71
     5
 42
7.474999999999999
  3
23NSTD
100
AcDbAlignedDimension
 13
21.64214446279854
 23
18.39624309866233
 33
0.0
 14
14.16714446279854
 24
18.39624309866233
 34
0.0
 50
180.0
100
AcDbRotatedDimension
  0
DIMENSION
  5
275
330
1E
100
AcDbEntity
  8
DIM
100
AcDbDimension
  2
*D12
 10
13.24487396137902
 20
18.16681395666233
 30
0.0
 11
13.24487396137902
 21
13.18931395666234
 31
0.0
 70
    32
  1
J
 71
     5
 42
9.955
  3
23NSTD
100
AcDbAlignedDimension
 13
14.82964446279853
 23
8.211813956662334
 33
0.0
 14
14.82964446279853
 24
18.16681395666233
 34
0.0
 50
90.0
100
AcDbRotatedDimension
  0
DIMENSION
  5
276
330
1E
100
AcDbEntity
  8
DIM
100
AcDbDimension
  2
*D13
 10
12.45843766612145
 20
18.42031395666233
 30
0.0
 11
12.45843766612144
 21
13.18931395666234
 31
0.0
 70
    32
  1
H
 71
     5
 42
10.462
  3
23NSTD
100
AcDbAlignedDimension
 13
14.61901454079858
 23
7.958313956662331
 33
0.0
 14
14.61901454079858
 24
18.42031395666233
 34
0.0
 50
90.0
100
AcDbRotatedDimension
  0
DIMENSION
  5
277
330
1E
100
AcDbEntity
  8
DIM
100
AcDbDimension
  2
*D14
 10
11.66753830641979
 20
18.82931395666233
 30
0.0
 11
11.66753830641979
 21
13.18931395666234
 31
0.0
 70
    32
  1
G
 71
     5
 42
11.28
  3
23NSTD
100
AcDbAlignedDimension
 13
14.60021532079855
 23
7.549313956662333
 33
0.0
 14
14.60021532079855
 24
18.82931395666233
 34
0.0
 50
90.0
100
AcDbRotatedDimension
  0
TEXT
  5
278
330
1E
100
AcDbEntity
  8
TEXT
100
AcDbText
 10
2.514226238594316
 20
2.681684527122486
 30
0.0
 40
0.3744
  1
PART NO.
 41
0.75
  7
TXT
 72
     1
 11
3.497026238594315
 21
2.681684527122486
 31
0.0
100
AcDbText
  0
TEXT
  5
279
330
1E
100
AcDbEntity
  8
TEXT
100
AcDbText
 10
0.6216311896669352
 20
0.6321601450949414
 30
0.0
 40
0.3744
  1
NBE-10543
 41
0.75
  7
TXT
 72
     1
 11
1.768231189666934
 21
0.6321601450949414
 31
0.0
100
AcDbText
  0
LINE
  5
27A
330
1E
100
AcDbEntity
  8
TITLE
100
AcDbLine
 10
6.637137681518467
 20
2.553528810003885
 30
0.0
 11
0.185999999999261
 21
2.553528810003885
 31
0.0
  0
TEXT
  5
27B
330
1E
100
AcDbEntity
  8
TEXT
100
AcDbText
 10
1.066231189666934
 20
1.573840386180192
 30
0.0
 40
0.3744
  1
COVER
 41
0.75
  7
TXT
 72
     1
 11
1.768231189666934
 21
1.573840386180192
 31
0.0
100
AcDbText
  0
TEXT
  5
27C
330
1E
100
AcDbEntity
  8
TEXT
100
AcDbText
 10
1.159831189666934
 20
2.073214239151418
 30
0.0
 40
0.3744
  1
SOLID
 41
0.75
  7
TXT
 72
     1
 11
1.768231189666934
 21
2.073214239151418
 31
0.0
100
AcDbText
  0
TEXT
  5
27D
330
1E
100
AcDbEntity
  8
TEXT
100
AcDbText
 10
20.05058771703009
 20
1.576827560267374
 30
0.0
 40
0.3744
  1
H
 41
0.75
  7
TXT
 72
     1
 11
20.14418771703009
 21
1.576827560267374
 31
0.0
100
AcDbText
  0
TEXT
  5
27E
330
1E
100
AcDbEntity
  8
TEXT
100
AcDbText
 10
18.30745338180942
 20
1.576827560267374
 30
0.0
 40
0.3744
  1
G
 41
0.75
  7
TXT
 72
     1
 11
18.40105338180942
 21
1.576827560267374
 31
0.0
100
AcDbText
  0
TEXT
  5
27F
330
1E
100
AcDbEntity
  8
TEXT
100
AcDbText
 10
16.48721852575378
 20
1.576827560267374
 30
0.0
 40
0.3744
  1
F
 41
0.75
  7
TXT
 72
     1
 11
16.58081852575378
 21
1.576827560267374
 31
0.0
100
AcDbText
  0
TEXT
  5
280
330
1E
100
AcDbEntity
  8
TEXT
100
AcDbText
 10
14.6669836696981
 20
1.576827560267374
 30
0.0
 40
0.3744
  1
E
 41
0.75
  7
TXT
 72
     1
 11
14.7605836696981
 21
1.576827560267374
 31
0.0
100
AcDbText
  0
TEXT
  5
281
330
1E
100
AcDbEntity
  8
TEXT
100
AcDbText
 10
12.86299292508801
 20
1.576827560267374
 30
0.0
 40
0.3744
  1
D
 41
0.75
  7
TXT
 72
     1
 11
12.95659292508801
 21
1.576827560267374
 31
0.0
100
AcDbText
  0
TEXT
  5
282
330
1E
100
AcDbEntity
  8
TEXT
100
AcDbText
 10
11.02651422160708
 20
1.576827560267374
 30
0.0
 40
0.3744
  1
C
 41
0.75
  7
TXT
 72
     1
 11
11.12011422160708
 21
1.576827560267374
 31
0.0
100
AcDbText
  0
TEXT
  5
283
330
1E
100
AcDbEntity
  8
TEXT
100
AcDbText
 10
9.271255811333711
 20
1.576827560267374
 30
0.0
 40
0.3744
  1
B
 41
0.75
  7
TXT
 72
     1
 11
9.364855811333711
 21
1.576827560267374
 31
0.0
100
AcDbText
  0
TEXT
  5
284
330
1E
100
AcDbEntity
  8
TEXT
100
AcDbText
 10
7.499753289614739
 20
1.576827560267374
 30
0.0
 40
0.3744
  1
A
 41
0.75
  7
TXT
 72
     1
 11
7.593353289614739
 21
1.576827560267374
 31
0.0
100
AcDbText
  0
LINE
  5
285
330
1E
100
AcDbEntity
  8
TITLE
100
AcDbLine
 10
6.637137681518467
 20
0.185999999999251
 30
0.0
 11
6.637137681518467
 21
3.179928810003883
 31
0.0
  0
LINE
  5
286
330
1E
100
AcDbEntity
  8
TITLE
100
AcDbLine
 10
3.41156884075886
 20
0.1859999999992592
 30
0.0
 11
3.41156884075886
 21
2.553528810003885
 31
0.0
  0
TEXT
  5
287
330
1E
100
AcDbEntity
  8
TEXT
100
AcDbText
 10
4.407881958067035
 20
1.573840386180192
 30
0.0
 40
0.3744
  1
COVER
 41
0.75
  7
TXT
 72
     1
 11
5.109881958067035
 21
1.573840386180192
 31
0.0
100
AcDbText
  0
TEXT
  5
288
330
1E
100
AcDbEntity
  8
TEXT
100
AcDbText
 10
7.031753289614739
 20
0.9497663332806796
 30
0.0
 40
0.3744
  1
7.475
 41
0.75
  7
TXT
 72
     1
 11
7.593353289614739
 21
0.9497663332806796
 31
0.0
100
AcDbText
  0
TEXT
  5
289
330
1E
100
AcDbEntity
  8
TEXT
100
AcDbText
 10
7.10195328961474
 20
0.3088187676646898
 30
0.0
 40
0.3744
  1
[190]
 41
0.75
  7
TXT
 72
     1
 11
7.593353289614739
 21
0.3088187676646898
 31
0.0
100
AcDbText
  0
TEXT
  5
28A
330
1E
100
AcDbEntity
  8
TEXT
100
AcDbText
 10
3.963281958067035
 20
0.6321601450949375
 30
0.0
 40
0.3744
  1
NBE-10563
 41
0.75
  7
TXT
 72
     1
 11
5.109881958067035
 21
0.6321601450949375
 31
0.0
100
AcDbText
  0
TEXT
  5
28B
330
1E
100
AcDbEntity
  8
TEXT
100
AcDbText
 10
8.826655811333711
 20
0.9497663332806796
 30
0.0
 40
0.3744
  1
6.650
 41
0.75
  7
TXT
 72
     1
 11
9.364855811333711
 21
0.9497663332806796
 31
0.0
100
AcDbText
  0
TEXT
  5
28C
330
1E
100
AcDbEntity
  8
TEXT
100
AcDbText
 10
8.850055811333712
 20
0.3088187676646898
 30
0.0
 40
0.3744
  1
[169]
 41
0.75
  7
TXT
 72
     1
 11
9.364855811333711
 21
0.3088187676646898
 31
0.0
100
AcDbText
  0
TEXT
  5
28D
330
1E
100
AcDbEntity
  8
TEXT
100
AcDbText
 10
10.60531422160708
 20
0.3088187676646898
 30
0.0
 40
0.3744
  1
[156]
 41
0.75
  7
TXT
 72
     1
 11
11.12011422160708
 21
0.3088187676646898
 31
0.0
100
AcDbText
  0
TEXT
  5
28E
330
1E
100
AcDbEntity
  8
TEXT
100
AcDbText
 10
10.62871422160708
 20
0.9497663332806796
 30
0.0
 40
0.3744
  1
6.150
 41
0.75
  7
TXT
 72
     1
 11
11.12011422160708
 21
0.9497663332806796
 31
0.0
100
AcDbText
  0
TEXT
  5
28F
330
1E
100
AcDbEntity
  8
TEXT
100
AcDbText
 10
16.04261852575378
 20
0.9497663332806796
 30
0.0
 40
0.3744
  1
2.960
 41
0.75
  7
TXT
 72
     1
 11
16.58081852575378
 21
0.9497663332806796
 31
0.0
100
AcDbText
  0
TEXT
  5
290
330
1E
100
AcDbEntity
  8
TEXT
100
AcDbText
 10
16.15961852575378
 20
0.3088187676646898
 30
0.0
 40
0.3744
  1
[75]
 41
0.75
  7
TXT
 72
     1
 11
16.58081852575378
 21
0.3088187676646898
 31
0.0
100
AcDbText
  0
TEXT
  5
291
330
1E
100
AcDbEntity
  8
TEXT
100
AcDbText
 10
14.2457836696981
 20
0.9497663332806796
 30
0.0
 40
0.3744
  1
4.717
 41
0.75
  7
TXT
 72
     1
 11
14.7605836696981
 21
0.9497663332806796
 31
0.0
100
AcDbText
  0
TEXT
  5
292
330
1E
100
AcDbEntity
  8
TEXT
100
AcDbText
 10
14.2691836696981
 20
0.3088187676646898
 30
0.0
 40
0.3744
  1
[120]
 41
0.75
  7
TXT
 72
     1
 11
14.7605836696981
 21
0.3088187676646898
 31
0.0
100
AcDbText
  0
TEXT
  5
293
330
1E
100
AcDbEntity
  8
TEXT
100
AcDbText
 10
12.46519292508801
 20
0.3088187676646898
 30
0.0
 40
0.3744
  1
[150]
 41
0.75
  7
TXT
 72
     1
 11
12.95659292508801
 21
0.3088187676646898
 31
0.0
100
AcDbText
  0
TEXT
  5
294
330
1E
100
AcDbEntity
  8
TEXT
100
AcDbText
 10
12.44179292508801
 20
0.9497663332806796
 30
0.0
 40
0.3744
  1
5.900
 41
0.75
  7
TXT
 72
     1
 11
12.95659292508801
 21
0.9497663332806796
 31
0.0
100
AcDbText
  0
TEXT
  5
295
330
1E
100
AcDbEntity
  8
TEXT
100
AcDbText
 10
17.81605338180941
 20
0.9497663332806796
 30
0.0
 40
0.3744
  1
11.280
 41
0.75
  7
TXT
 72
     1
 11
18.40105338180942
 21
0.9497663332806796
 31
0.0
100
AcDbText
  0
TEXT
  5
296
330
1E
100
AcDbEntity
  8
TEXT
100
AcDbText
 10
17.83945338180942
 20
0.3088187676646898
 30
0.0
 40
0.3744
  1
[287]
 41
0.75
  7
TXT
 72
     1
 11
18.40105338180942
 21
0.3088187676646898
 31
0.0
100
AcDbText
  0
TEXT
  5
297
330
1E
100
AcDbEntity
  8
TEXT
100
AcDbText
 10
19.6076898168234
 20
0.3088187676646898
 30
0.0
 40
0.3744
  1
[266]
 41
0.75
  7
TXT
 72
     1
 11
20.1692898168234
 21
0.3088187676646898
 31
0.0
100
AcDbText
  0
TEXT
  5
298
330
1E
100
AcDbEntity
  8
TEXT
100
AcDbText
 10
19.5374898168234
 20
0.9497663332806796
 30
0.0
 40
0.3744
  1
10.462
 41
0.75
  7
TXT
 72
     1
 11
20.1692898168234
 21
0.9497663332806796
 31
0.0
100
AcDbText
  0
TEXT
  5
299
330
1E
100
AcDbEntity
  8
TEXT
100
AcDbText
 10
4.454681958067035
 20
2.073214239151418
 30
0.0
 40
0.3744
  1
CLEAR
 41
0.75
  7
TXT
 72
     1
 11
5.109881958067035
 21
2.073214239151418
 31
0.0
100
AcDbText
  0
DIMENSION
  5
29A
330
1E
100
AcDbEntity
  8
DIM
100
AcDbDimension
  2
*D15
 10
24.14341687382821
 20
17.61931395666233
 30
0.0
 11
24.14341687382821
 21
13.18931395666233
 31
0.0
 70
    32
  1
K
 71
     5
 42
8.860000000000001
  3
23NSTD
100
AcDbAlignedDimension
 13
19.38364446279854
 23
8.759313956662333
 33
0.0
 14
19.38102238779828
 24
17.61931395666233
 34
0.0
 50
90.0
100
AcDbRotatedDimension
  0
DIMENSION
  5
29B
330
1E
100
AcDbEntity
  8
DIM
100
AcDbDimension
  2
*D16
 10
22.51597627151254
 20
9.738313956662333
 30
0.0
 11
22.51597627151253
 21
13.18931395666233
 31
0.0
 70
    32
  1
M
 71
     5
 42
6.902000000000001
  3
23NSTD
100
AcDbAlignedDimension
 13
20.85464446279854
 23
16.64031395666233
 33
0.0
 14
20.85464446279854
 24
9.738313956662333
 34
0.0
 50
90.0
100
AcDbRotatedDimension
  0
DIMENSION
  5
29C
330
1E
100
AcDbEntity
  8
DIM
100
AcDbDimension
  2
*D17
 10
23.32423917819546
 20
17.32831395666234
 30
0.0
 11
23.32423917819546
 21
13.18931395666234
 31
0.0
 70
    32
  1
L
 71
     5
 42
8.277999999999998
  3
23NSTD
100
AcDbAlignedDimension
 13
20.26314446279855
 23
9.050313956662337
 33
0.0
 14
20.26314446279855
 24
17.32831395666234
 34
0.0
 50
90.0
100
AcDbRotatedDimension
  0
TEXT
  5
29D
330
1E
100
AcDbEntity
  8
TEXT
100
AcDbText
 10
30.92045771948276
 20
1.576827560267374
 30
0.0
 40
0.3744
  1
P
 41
0.75
  7
TXT
 72
     1
 11
31.01405771948276
 21
1.576827560267374
 31
0.0
100
AcDbText
  0
TEXT
  5
29E
330
1E
100
AcDbEntity
  8
TEXT
100
AcDbText
 10
29.07363126935999
 20
1.576827560267374
 30
0.0
 40
0.3744
  1
N
 41
0.75
  7
TXT
 72
     1
 11
29.16723126935998
 21
1.576827560267374
 31
0.0
100
AcDbText
  0
TEXT
  5
29F
330
1E
100
AcDbEntity
  8
TEXT
100
AcDbText
 10
27.26383815116409
 20
1.576827560267374
 30
0.0
 40
0.3744
  1
M
 41
0.75
  7
TXT
 72
     1
 11
27.35743815116409
 21
1.576827560267374
 31
0.0
100
AcDbText
  0
TEXT
  5
2A0
330
1E
100
AcDbEntity
  8
TEXT
100
AcDbText
 10
25.45404476894795
 20
1.576827560267374
 30
0.0
 40
0.3744
  1
L
 41
0.75
  7
TXT
 72
     1
 11
25.54764476894794
 21
1.576827560267374
 31
0.0
100
AcDbText
  0
TEXT
  5
2A1
330
1E
100
AcDbEntity
  8
TEXT
100
AcDbText
 10
23.66276792068513
 20
1.576827560267374
 30
0.0
 40
0.3744
  1
K
 41
0.75
  7
TXT
 72
     1
 11
23.75636792068513
 21
1.576827560267374
 31
0.0
100
AcDbText
  0
TEXT
  5
2A2
330
1E
100
AcDbEntity
  8
TEXT
100
AcDbText
 10
21.89000734235535
 20
1.576827560267374
 30
0.0
 40
0.3744
  1
J
 41
0.75
  7
TXT
 72
     1
 11
21.98360734235535
 21
1.576827560267374
 31
0.0
100
AcDbText
  0
TEXT
  5
2A3
330
1E
100
AcDbEntity
  8
TEXT
100
AcDbText
 10
24.98604476894795
 20
0.9497663332806796
 30
0.0
 40
0.3744
  1
8.278
 41
0.75
  7
TXT
 72
     1
 11
25.54764476894794
 21
0.9497663332806796
 31
0.0
100
AcDbText
  0
TEXT
  5
2A4
330
1E
100
AcDbEntity
  8
TEXT
100
AcDbText
 10
23.21816792068513
 20
0.9497663332806796
 30
0.0
 40
0.3744
  1
8.860
 41
0.75
  7
TXT
 72
     1
 11
23.75636792068513
 21
0.9497663332806796
 31
0.0
100
AcDbText
  0
TEXT
  5
2A5
330
1E
100
AcDbEntity
  8
TEXT
100
AcDbText
 10
23.19476792068513
 20
0.3088187676646898
 30
0.0
 40
0.3744
  1
[225]
 41
0.75
  7
TXT
 72
     1
 11
23.75636792068513
 21
0.3088187676646898
 31
0.0
100
AcDbText
  0
TEXT
  5
2A6
330
1E
100
AcDbEntity
  8
TEXT
100
AcDbText
 10
25.05624476894794
 20
0.3088187676646898
 30
0.0
 40
0.3744
  1
[210]
 41
0.75
  7
TXT
 72
     1
 11
25.54764476894794
 21
0.3088187676646898
 31
0.0
100
AcDbText
  0
TEXT
  5
2A7
330
1E
100
AcDbEntity
  8
TEXT
100
AcDbText
 10
28.62903126935998
 20
0.9497663332806796
 30
0.0
 40
0.3744
  1
4.330
 41
0.75
  7
TXT
 72
     1
 11
29.16723126935998
 21
0.9497663332806796
 31
0.0
100
AcDbText
  0
TEXT
  5
2A8
330
1E
100
AcDbEntity
  8
TEXT
100
AcDbText
 10
28.72263126935998
 20
0.3088187676646898
 30
0.0
 40
0.3744
  1
[110]
 41
0.75
  7
TXT
 72
     1
 11
29.16723126935998
 21
0.3088187676646898
 31
0.0
100
AcDbText
  0
TEXT
  5
2A9
330
1E
100
AcDbEntity
  8
TEXT
100
AcDbText
 10
26.84263815116409
 20
0.3088187676646898
 30
0.0
 40
0.3744
  1
[175]
 41
0.75
  7
TXT
 72
     1
 11
27.35743815116409
 21
0.3088187676646898
 31
0.0
100
AcDbText
  0
TEXT
  5
2AA
330
1E
100
AcDbEntity
  8
TEXT
100
AcDbText
 10
26.81923815116409
 20
0.9497663332806796
 30
0.0
 40
0.3744
  1
6.902
 41
0.75
  7
TXT
 72
     1
 11
27.35743815116409
 21
0.9497663332806796
 31
0.0
100
AcDbText
  0
DIMENSION
  5
2AB
330
1E
100
AcDbEntity
  8
DIM
100
AcDbDimension
  2
*D18
 10
33.57015635482839
 20
21.47217369767036
 30
0.0
 11
30.17015635482838
 21
21.47217369767036
 31
0.0
 70
    32
  1
T
 71
     5
 42
6.800000000000011
  3
23NSTD
100
AcDbAlignedDimension
 13
26.77015635482838
 23
22.21917369767036
 33
0.0
 14
33.57015635482839
 24
22.21917369767036
 34
0.0
100
AcDbRotatedDimension
  0
DIMENSION
  5
2AC
330
1E
100
AcDbEntity
  8
DIM
100
AcDbDimension
  2
*D30
 10
36.48602512287383
 20
19.57631395666234
 30
0.0
 11
37.07841881237374
 21
19.57631395666234
 31
0.0
 70
    32
  1
P
 71
     5
 42
1.184787378999828
  3
23NSTDI
100
AcDbAlignedDimension
 13
37.67081250187366
 23
18.82931395666234
 33
0.0
 14
36.48602512287383
 24
18.3123914046185
 34
0.0
100
AcDbRotatedDimension
  0
DIMENSION
  5
2AD
330
1E
100
AcDbEntity
  8
DIM
100
AcDbDimension
  2
*D19
 10
45.58558135366562
 20
18.50931395666233
 30
0.0
 11
45.58558135366561
 21
13.18931395666234
 31
0.0
 70
    32
  1
S
 71
     5
 42
10.64
  3
23NSTD
100
AcDbAlignedDimension
 13
42.00052108187433
 23
7.869313956662333
 33
0.0
 14
42.00052108187433
 24
18.50931395666233
 34
0.0
 50
90.0
100
AcDbRotatedDimension
  0
LINE
  5
2AE
330
1E
100
AcDbEntity
  8
TITLE
100
AcDbLine
 10
46.31399999981474
 20
3.179928810003883
 30
0.0
 11
0.185999999999261
 21
3.179928810003883
 31
0.0
  0
LINE
  5
2AF
330
1E
100
AcDbEntity
  8
TITLE
100
AcDbLine
 10
46.31399999981474
 20
2.065199999999253
 30
0.0
 11
6.637137681518467
 21
2.065199999999253
 31
0.0
  0
LINE
  5
2B0
330
1E
100
AcDbEntity
  8
TITLE
100
AcDbLine
 10
46.31399999981474
 20
1.438799999999255
 30
0.0
 11
0.185999999999261
 21
1.438799999999255
 31
0.0
  0
LINE
  5
2B1
330
1E
100
AcDbEntity
  8
TITLE
100
AcDbLine
 10
46.31399999981474
 20
0.8123999999992536
 30
0.0
 11
6.637137681518467
 21
0.8123999999992534
 31
0.0
  0
TEXT
  5
2B2
330
1E
100
AcDbEntity
  8
TEXT
100
AcDbText
 10
38.11380762538139
 20
1.576827560267374
 30
0.0
 40
0.3744
  1
U
 41
0.75
  7
TXT
 72
     1
 11
38.20740762538139
 21
1.576827560267374
 31
0.0
100
AcDbText
  0
TEXT
  5
2B3
330
1E
100
AcDbEntity
  8
TEXT
100
AcDbText
 10
36.28400150631295
 20
1.576827560267374
 30
0.0
 40
0.3744
  1
T
 41
0.75
  7
TXT
 72
     1
 11
36.37760150631295
 21
1.576827560267374
 31
0.0
100
AcDbText
  0
TEXT
  5
2B4
330
1E
100
AcDbEntity
  8
TEXT
100
AcDbText
 10
34.52564244192883
 20
1.576827560267374
 30
0.0
 40
0.3744
  1
S
 41
0.75
  7
TXT
 72
     1
 11
34.61924244192883
 21
1.576827560267374
 31
0.0
100
AcDbText
  0
TEXT
  5
2B5
330
1E
100
AcDbEntity
  8
TEXT
100
AcDbText
 10
32.66011305953851
 20
1.576827560267374
 30
0.0
 40
0.3744
  1
R
 41
0.75
  7
TXT
 72
     1
 11
32.75371305953851
 21
1.576827560267374
 31
0.0
100
AcDbText
  0
TEXT
  5
2B6
330
1E
100
AcDbEntity
  8
TEXT
100
AcDbText
 10
30.54605771948276
 20
0.9497663332806796
 30
0.0
 40
0.3744
  1
1.185
 41
0.75
  7
TXT
 72
     1
 11
31.01405771948276
 21
0.9497663332806796
 31
0.0
100
AcDbText
  0
TEXT
  5
2B7
330
1E
100
AcDbEntity
  8
TEXT
100
AcDbText
 10
30.61625771948276
 20
0.3088187676646898
 30
0.0
 40
0.3744
  1
[30]
 41
0.75
  7
TXT
 72
     1
 11
31.01405771948276
 21
0.3088187676646898
 31
0.0
100
AcDbText
  0
TEXT
  5
2B8
330
1E
100
AcDbEntity
  8
TEXT
100
AcDbText
 10
35.86280150631295
 20
0.9497663332806796
 30
0.0
 40
0.3744
  1
6.800
 41
0.75
  7
TXT
 72
     1
 11
36.37760150631295
 21
0.9497663332806796
 31
0.0
100
AcDbText
  0
TEXT
  5
2B9
330
1E
100
AcDbEntity
  8
TEXT
100
AcDbText
 10
35.86280150631295
 20
0.3088187676646898
 30
0.0
 40
0.3744
  1
[173]
 41
0.75
  7
TXT
 72
     1
 11
36.37760150631295
 21
0.3088187676646898
 31
0.0
100
AcDbText
  0
TEXT
  5
2BA
330
1E
100
AcDbEntity
  8
TEXT
100
AcDbText
 10
32.16871305953851
 20
0.9497663332806796
 30
0.0
 40
0.3744
  1
10.600
 41
0.75
  7
TXT
 72
     1
 11
32.75371305953851
 21
0.9497663332806796
 31
0.0
100
AcDbText
  0
TEXT
  5
2BB
330
1E
100
AcDbEntity
  8
TEXT
100
AcDbText
 10
32.19211305953851
 20
0.3088187676646898
 30
0.0
 40
0.3744
  1
[269]
 41
0.75
  7
TXT
 72
     1
 11
32.75371305953851
 21
0.3088187676646898
 31
0.0
100
AcDbText
  0
TEXT
  5
2BC
330
1E
100
AcDbEntity
  8
TEXT
100
AcDbText
 10
34.08104244192883
 20
0.3088187676646898
 30
0.0
 40
0.3744
  1
[270]
 41
0.75
  7
TXT
 72
     1
 11
34.61924244192883
 21
0.3088187676646898
 31
0.0
100
AcDbText
  0
TEXT
  5
2BD
330
1E
100
AcDbEntity
  8
TEXT
100
AcDbText
 10
34.01084244192883
 20
0.9497663332806796
 30
0.0
 40
0.3744
  1
10.640
 41
0.75
  7
TXT
 72
     1
 11
34.61924244192883
 21
0.9497663332806796
 31
0.0
100
AcDbText
  0
TEXT
  5
2BE
330
1E
100
AcDbEntity
  8
TEXT
100
AcDbText
 10
37.66920762538139
 20
0.9497663332806796
 30
0.0
 40
0.3744
  1
6.840
 41
0.75
  7
TXT
 72
     1
 11
38.20740762538139
 21
0.9497663332806796
 31
0.0
100
AcDbText
  0
TEXT
  5
2BF
330
1E
100
AcDbEntity
  8
TEXT
100
AcDbText
 10
37.69260762538139
 20
0.3088187676646898
 30
0.0
 40
0.3744
  1
[175]
 41
0.75
  7
TXT
 72
     1
 11
38.20740762538139
 21
0.3088187676646898
 31
0.0
100
AcDbText
  0
TEXT
  5
2C0
330
1E
100
AcDbEntity
  8
DIM
100
AcDbText
 10
22.20577969278667
 20
4.701800319305108
 30
0.0
 40
0.3734042553
  1
METAL SCREWS x 0.250 [6] LG. (NOT SUPPLIED)
 41
0.75
  7
TXT
 11
22.20577969278667
 21
4.888502446955108
 31
0.0
100
AcDbText
 73
     2
  0
TEXT
  5
2C1
330
1E
100
AcDbEntity
  8
DIM
100
AcDbText
 10
22.20577969278667
 20
5.910883297966507
 30
0.0
 40
0.3734042553
  1
HOLE x 0.315 [8] DEEP (24) PLACES
 41
0.75
  7
TXT
 11
22.20577969278667
 21
6.097585425616507
 31
0.0
100
AcDbText
 73
     2
  0
TEXT
  5
2C2
330
1E
100
AcDbEntity
  8
DIM
100
AcDbText
 10
22.20577969278667
 20
6.533223723466512
 30
0.0
 40
0.3734042553
  1
0.444 [11] DIA. BOSS WITH 0.170 [4] DIA.
 41
0.75
  7
TXT
 11
22.20577969278667
 21
6.719925851116512
 31
0.0
100
AcDbText
 73
     2
  0
TEXT
  5
2C3
330
1E
100
AcDbEntity
  8
DIM
100
AcDbText
 10
22.20577969278667
 20
5.306341808635807
 30
0.0
 40
0.3734042553
  1
BOSSES ACCEPT M5 METRIC OR #10 STD. SHEET
 41
0.75
  7
TXT
 11
22.20577969278667
 21
5.493043936285808
 31
0.0
100
AcDbText
 73
     2
  0
DIMENSION
  5
2C4
330
1E
100
AcDbEntity
  8
DIM
100
AcDbDimension
  2
*D20
 10
33.59015635482839
 20
28.38769088497425
 30
0.0
 11
30.17015635482838
 21
28.38769088497425
 31
0.0
 70
    32
  1
U
 71
     5
 42
6.840000000000003
  3
23NSTD
100
AcDbAlignedDimension
 13
26.75015635482838
 23
27.58277642372854
 33
0.0
 14
33.59015635482839
 24
27.58277642372854
 34
0.0
100
AcDbRotatedDimension
  0
TEXT
  5
2C5
330
1E
100
AcDbEntity
  8
TEXT
100
AcDbText
 10
6.376323162927462
 20
29.25499992808955
 30
0.0
 40
0.5256
  1
NON-METALLIC ENCLOSURE (STYLE E)
 41
0.75
  7
TXT
 72
     1
 11
12.42072316292746
 21
29.25499992808955
 31
0.0
100
AcDbText
  0
DIMENSION
  5
2C6
330
1E
100
AcDbEntity
  8
DIM
100
AcDbDimension
  2
*D21
 10
42.00052108187433
 20
19.57631395666234
 30
0.0
 11
39.83566679187399
 21
19.57631395666234
 31
0.0
 70
    32
  1
N
 71
     5
 42
4.329708580000669
  3
23NSTD
100
AcDbAlignedDimension
 13
37.67081250187366
 23
18.82931395666234
 33
0.0
 14
42.00052108187433
 24
18.50931395666233
 34
0.0
100
AcDbRotatedDimension
  0
TEXT
  5
2C7
330
1E
100
AcDbEntity
  8
TEXT
100
AcDbText
 10
31.94140152964771
 20
29.28130123225018
 30
0.0
 40
0.5256
  1
NBE-10543  AND  NBE-10563
 41
0.75
  7
TXT
 72
     1
 11
36.60610152964771
 21
29.28130123225018
 31
0.0
100
AcDbText
  0
LINE
  5
2C8
330
1E
100
AcDbEntity
  8
HIDDEN
  6
HIDDEN
100
AcDbLine
 10
7.520349786169073
 20
8.579313956662334
 30
0.0
 11
7.520349786169073
 21
17.79931395666233
 31
0.0
  0
LINE
  5
2C9
330
1E
100
AcDbEntity
  8
HIDDEN
  6
HIDDEN
100
AcDbLine
 10
7.520349786169073
 20
17.79931395666233
 30
0.0
 11
2.060349786169093
 21
17.79931395666234
 31
0.0
  0
LINE
  5
2CA
330
1E
100
AcDbEntity
  8
HIDDEN
  6
HIDDEN
100
AcDbLine
 10
7.520349786169073
 20
8.579313956662334
 30
0.0
 11
5.850117867741803
 21
8.579313956662334
 31
0.0
  0
LINE
  5
2CB
330
1E
100
AcDbEntity
  8
HIDDEN
  6
HIDDEN
100
AcDbLine
 10
2.060349786169093
 20
17.79931395666234
 30
0.0
 11
2.060349786169086
 21
11.19528266499799
 31
0.0
  0
LINE
  5
2CC
330
1E
100
AcDbEntity
  8
OBJECT
100
AcDbLine
 10
1.825849786169057
 20
18.35681395666234
 30
0.0
 11
8.052849786169051
 21
18.35681395666234
 31
0.0
  0
LINE
  5
2CD
330
1E
100
AcDbEntity
  8
OBJECT
100
AcDbLine
 10
8.052849786169051
 20
18.35681395666234
 30
0.0
 11
8.052849786169051
 21
8.021813956662336
 31
0.0
  0
LINE
  5
2CE
330
1E
100
AcDbEntity
  8
OBJECT
100
AcDbLine
 10
8.052849786169051
 20
8.021813956662336
 30
0.0
 11
5.636447936164389
 21
8.021813956662336
 31
0.0
  0
LINE
  5
2CF
330
1E
100
AcDbEntity
  8
OBJECT
100
AcDbLine
 10
1.825849786169057
 20
11.25079841277359
 30
0.0
 11
1.825849786169057
 21
18.35681395666234
 31
0.0
  0
LINE
  5
2D0
330
1E
100
AcDbEntity
  8
OBJECT
100
AcDbLine
 10
2.089254175921026
 20
16.98871834641431
 30
0.0
 11
2.186445396417091
 21
17.08590956691037
 31
0.0
  0
LINE
  5
2D1
330
1E
100
AcDbEntity
  8
OBJECT
100
AcDbLine
 10
2.186445396417091
 20
16.98871834641431
 30
0.0
 11
2.089254175921026
 21
17.08590956691037
 31
0.0
  0
CIRCLE
  5
2D2
330
1E
100
AcDbEntity
  8
OBJECT
100
AcDbCircle
 10
2.137849786169055
 20
17.03731395666234
 30
0.0
 40
0.172
  0
CIRCLE
  5
2D3
330
1E
100
AcDbEntity
  8
OBJECT
100
AcDbCircle
 10
2.137849786169055
 20
16.40331395666234
 30
0.0
 40
0.172
  0
LINE
  5
2D4
330
1E
100
AcDbEntity
  8
OBJECT
100
AcDbLine
 10
2.186445396417091
 20
16.35471834641432
 30
0.0
 11
2.089254175921026
 21
16.45190956691038
 31
0.0
  0
LINE
  5
2D5
330
1E
100
AcDbEntity
  8
OBJECT
100
AcDbLine
 10
2.089254175921026
 20
16.35471834641432
 30
0.0
 11
2.186445396417091
 21
16.45190956691038
 31
0.0
  0
LINE
  5
2D6
330
1E
100
AcDbEntity
  8
OBJECT
100
AcDbLine
 10
1.825849786169064
 20
17.23531395666235
 30
0.0
 11
1.763849786169067
 21
17.23531395666235
 31
0.0
  0
LINE
  5
2D7
330
1E
100
AcDbEntity
  8
OBJECT
100
AcDbLine
 10
1.825849786169064
 20
16.20531395666234
 30
0.0
 11
1.763849786169067
 21
16.20531395666234
 31
0.0
  0
LINE
  5
2D8
330
1E
100
AcDbEntity
  8
OBJECT
100
AcDbLine
 10
1.763849786169067
 20
16.14231395666235
 30
0.0
 11
1.465349786169091
 21
16.14231395666235
 31
0.0
  0
LINE
  5
2D9
330
1E
100
AcDbEntity
  8
OBJECT
100
AcDbLine
 10
1.763849786169067
 20
17.29831395666234
 30
0.0
 11
1.465349786169084
 21
17.29831395666234
 31
0.0
  0
LINE
  5
2DA
330
1E
100
AcDbEntity
  8
OBJECT
100
AcDbLine
 10
1.763849786169067
 20
16.20531395666234
 30
0.0
 11
1.763849786169067
 21
16.14231395666235
 31
0.0
  0
LINE
  5
2DB
330
1E
100
AcDbEntity
  8
OBJECT
100
AcDbLine
 10
1.763849786169067
 20
17.29831395666234
 30
0.0
 11
1.763849786169067
 21
17.23531395666235
 31
0.0
  0
LINE
  5
2DC
330
1E
100
AcDbEntity
  8
OBJECT
100
AcDbLine
 10
1.825849786169057
 20
17.20431395666234
 30
0.0
 11
1.559349786169092
 21
17.20431395666234
 31
0.0
  0
LINE
  5
2DD
330
1E
100
AcDbEntity
  8
OBJECT
100
AcDbLine
 10
1.825849786169057
 20
16.23631395666234
 30
0.0
 11
1.559349786169092
 21
16.23631395666234
 31
0.0
  0
LINE
  5
2DE
330
1E
100
AcDbEntity
  8
OBJECT
100
AcDbLine
 10
1.559349786169092
 20
16.23631395666234
 30
0.0
 11
1.559349786169092
 21
17.20431395666234
 31
0.0
  0
LINE
  5
2DF
330
1E
100
AcDbEntity
  8
OBJECT
100
AcDbLine
 10
1.777349786169096
 20
16.47031395666234
 30
0.0
 11
1.559349786169092
 21
16.47031395666235
 31
0.0
  0
LINE
  5
2E0
330
1E
100
AcDbEntity
  8
OBJECT
100
AcDbLine
 10
1.777349786169096
 20
16.97031395666234
 30
0.0
 11
1.559349786169092
 21
16.97031395666234
 31
0.0
  0
LINE
  5
2E1
330
1E
100
AcDbEntity
  8
OBJECT
100
AcDbLine
 10
1.777349786169096
 20
16.47031395666234
 30
0.0
 11
1.777349786169096
 21
16.97031395666234
 31
0.0
  0
CIRCLE
  5
2E2
330
1E
100
AcDbEntity
  8
OBJECT
100
AcDbCircle
 10
7.747849786169044
 20
18.05181395666234
 30
0.0
 40
0.1875
  0
LINE
  5
2E3
330
1E
100
AcDbEntity
  8
OBJECT
100
AcDbLine
 10
7.862769843830309
 20
18.19996803303937
 30
0.0
 11
7.599695709792004
 21
17.93689389900106
 31
0.0
  0
LINE
  5
2E4
330
1E
100
AcDbEntity
  8
OBJECT
100
AcDbLine
 10
7.896003862546083
 20
18.1667340143236
 30
0.0
 11
7.632929728507778
 21
17.9036598802853
 31
0.0
  0
CIRCLE
  5
2E5
330
1E
100
AcDbEntity
  8
OBJECT
100
AcDbCircle
 10
7.747849786169044
 20
8.326813956662336
 30
0.0
 40
0.1875
  0
LINE
  5
2E6
330
1E
100
AcDbEntity
  8
OBJECT
100
AcDbLine
 10
7.896003862546083
 20
8.441734014323609
 30
0.0
 11
7.632929728507778
 21
8.178659880285303
 31
0.0
  0
LINE
  5
2E7
330
1E
100
AcDbEntity
  8
OBJECT
100
AcDbLine
 10
7.862769843830309
 20
8.474968033039383
 30
0.0
 11
7.599695709792004
 21
8.21189389900107
 31
0.0
  0
POLYLINE
  5
2E8
330
1E
100
AcDbEntity
  8
OBJECT
100
AcDb2dPolyline
 66
     1
 10
0.0
 20
0.0
 30
0.0
 70
     4
 75
     6
  0
VERTEX
  5
2E9
330
2E8
100
AcDbEntity
  8
OBJECT
100
AcDbVertex
100
AcDb2dVertex
 10
5.636447936164389
 20
8.021813956662336
 30
0.0
 70
    16
  0
VERTEX
  5
2EA
330
2E8
100
AcDbEntity
  8
OBJECT
100
AcDbVertex
100
AcDb2dVertex
 10
5.636447936164389
 20
8.021813956662336
 30
0.0
 70
     8
  0
VERTEX
  5
2EB
330
2E8
100
AcDbEntity
  8
OBJECT
100
AcDbVertex
100
AcDb2dVertex
 10
5.707694606527016
 20
8.345580524847493
 30
0.0
 70
     8
  0
VERTEX
  5
2EC
330
2E8
100
AcDbEntity
  8
OBJECT
100
AcDbVertex
100
AcDb2dVertex
 10
5.746192298810174
 20
8.620080425731098
 30
0.0
 70
     8
  0
VERTEX
  5
2ED
330
2E8
100
AcDbEntity
  8
OBJECT
100
AcDbVertex
100
AcDb2dVertex
 10
5.758042533541103
 20
8.851551540771462
 30
0.0
 70
     8
  0
VERTEX
  5
2EE
330
2E8
100
AcDbEntity
  8
OBJECT
100
AcDbVertex
100
AcDb2dVertex
 10
5.749346831246984
 20
9.046231751426882
 30
0.0
 70
     8
  0
VERTEX
  5
2EF
330
2E8
100
AcDbEntity
  8
OBJECT
100
AcDbVertex
100
AcDb2dVertex
 10
5.726206712455055
 20
9.210358939155662
 30
0.0
 70
     8
  0
VERTEX
  5
2F0
330
2E8
100
AcDbEntity
  8
OBJECT
100
AcDbVertex
100
AcDb2dVertex
 10
5.694723697692555
 20
9.350170985416101
 30
0.0
 70
     8
  0
VERTEX
  5
2F1
330
2E8
100
AcDbEntity
  8
OBJECT
100
AcDbVertex
100
AcDb2dVertex
 10
5.660999307486636
 20
9.471905771666493
 30
0.0
 70
     8
  0
VERTEX
  5
2F2
330
2E8
100
AcDbEntity
  8
OBJECT
100
AcDbVertex
100
AcDb2dVertex
 10
5.631135062364537
 20
9.581801179365159
 30
0.0
 70
     8
  0
VERTEX
  5
2F3
330
2E8
100
AcDbEntity
  8
OBJECT
100
AcDbVertex
100
AcDb2dVertex
 10
5.609800493396678
 20
9.685094342353936
 30
0.0
 70
     8
  0
VERTEX
  5
2F4
330
2E8
100
AcDbEntity
  8
OBJECT
100
AcDbVertex
100
AcDb2dVertex
 10
5.595937173826231
 20
9.783019404008891
 30
0.0
 70
     8
  0
VERTEX
  5
2F5
330
2E8
100
AcDbEntity
  8
OBJECT
100
AcDbVertex
100
AcDb2dVertex
 10
5.587054687439578
 20
9.875809760089632
 30
0.0
 70
     8
  0
VERTEX
  5
2F6
330
2E8
100
AcDbEntity
  8
OBJECT
100
AcDbVertex
100
AcDb2dVertex
 10
5.5806626180231
 20
9.963698806355766
 30
0.0
 70
     8
  0
VERTEX
  5
2F7
330
2E8
100
AcDbEntity
  8
OBJECT
100
AcDbVertex
100
AcDb2dVertex
 10
5.574270549363208
 20
10.04691993856691
 30
0.0
 70
     8
  0
VERTEX
  5
2F8
330
2E8
100
AcDbEntity
  8
OBJECT
100
AcDbVertex
100
AcDb2dVertex
 10
5.565388065246255
 20
10.12570655248267
 30
0.0
 70
     8
  0
VERTEX
  5
2F9
330
2E8
100
AcDbEntity
  8
OBJECT
100
AcDbVertex
100
AcDb2dVertex
 10
5.551524749458624
 20
10.20029204386266
 30
0.0
 70
     8
  0
VERTEX
  5
2FA
330
2E8
100
AcDbEntity
  8
OBJECT
100
AcDbVertex
100
AcDb2dVertex
 10
5.530190185786696
 20
10.2709098084665
 30
0.0
 70
     8
  0
VERTEX
  5
2FB
330
2E8
100
AcDbEntity
  8
OBJECT
100
AcDbVertex
100
AcDb2dVertex
 10
5.499392041259599
 20
10.33765579789055
 30
0.0
 70
     8
  0
VERTEX
  5
2FC
330
2E8
100
AcDbEntity
  8
OBJECT
100
AcDbVertex
100
AcDb2dVertex
 10
5.459130315877305
 20
10.40007618707829
 30
0.0
 70
     8
  0
VERTEX
  5
2FD
330
2E8
100
AcDbEntity
  8
OBJECT
100
AcDbVertex
100
AcDb2dVertex
 10
5.409903092882561
 20
10.45757970680992
 30
0.0
 70
     8
  0
VERTEX
  5
2FE
330
2E8
100
AcDbEntity
  8
OBJECT
100
AcDbVertex
100
AcDb2dVertex
 10
5.352208455518083
 20
10.50957508786569
 30
0.0
 70
     8
  0
VERTEX
  5
2FF
330
2E8
100
AcDbEntity
  8
OBJECT
100
AcDbVertex
100
AcDb2dVertex
 10
5.286544487026591
 20
10.55547106102582
 30
0.0
 70
     8
  0
VERTEX
  5
300
330
2E8
100
AcDbEntity
  8
OBJECT
100
AcDbVertex
100
AcDb2dVertex
 10
5.213409270650802
 20
10.59467635707053
 30
0.0
 70
     8
  0
VERTEX
  5
301
330
2E8
100
AcDbEntity
  8
OBJECT
100
AcDbVertex
100
AcDb2dVertex
 10
5.133300889633434
 20
10.62659970678005
 30
0.0
 70
     8
  0
VERTEX
  5
302
330
2E8
100
AcDbEntity
  8
OBJECT
100
AcDbVertex
100
AcDb2dVertex
 10
5.046717427217234
 20
10.65064984093462
 30
0.0
 70
     8
  0
VERTEX
  5
303
330
2E8
100
AcDbEntity
  8
OBJECT
100
AcDbVertex
100
AcDb2dVertex
 10
4.954224415427208
 20
10.66669190859719
 30
0.0
 70
     8
  0
VERTEX
  5
304
330
2E8
100
AcDbEntity
  8
OBJECT
100
AcDbVertex
100
AcDb2dVertex
 10
4.856657181417634
 20
10.67641673196168
 30
0.0
 70
     8
  0
VERTEX
  5
305
330
2E8
100
AcDbEntity
  8
OBJECT
100
AcDbVertex
100
AcDb2dVertex
 10
4.754918501124993
 20
10.68197155150478
 30
0.0
 70
     8
  0
VERTEX
  5
306
330
2E8
100
AcDbEntity
  8
OBJECT
100
AcDbVertex
100
AcDb2dVertex
 10
4.64991115048588
 20
10.68550360770316
 30
0.0
 70
     8
  0
VERTEX
  5
307
330
2E8
100
AcDbEntity
  8
OBJECT
100
AcDbVertex
100
AcDb2dVertex
 10
4.542537905436804
 20
10.68916014103348
 30
0.0
 70
     8
  0
VERTEX
  5
308
330
2E8
100
AcDbEntity
  8
OBJECT
100
AcDbVertex
100
AcDb2dVertex
 10
4.433701541914333
 20
10.6950883919724
 30
0.0
 70
     8
  0
VERTEX
  5
309
330
2E8
100
AcDbEntity
  8
OBJECT
100
AcDbVertex
100
AcDb2dVertex
 10
4.324304835855005
 20
10.7054356009966
 30
0.0
 70
     8
  0
VERTEX
  5
30A
330
2E8
100
AcDbEntity
  8
OBJECT
100
AcDbVertex
100
AcDb2dVertex
 10
4.215250563195353
 20
10.72234900858274
 30
0.0
 70
     8
  0
VERTEX
  5
30B
330
2E8
100
AcDbEntity
  8
OBJECT
100
AcDbVertex
100
AcDb2dVertex
 10
4.107083502468326
 20
10.74720564941164
 30
0.0
 70
     8
  0
VERTEX
  5
30C
330
2E8
100
AcDbEntity
  8
OBJECT
100
AcDbVertex
100
AcDb2dVertex
 10
3.998916442592416
 20
10.7783017349807
 30
0.0
 70
     8
  0
VERTEX
  5
30D
330
2E8
100
AcDbEntity
  8
OBJECT
100
AcDbVertex
100
AcDb2dVertex
 10
3.889504175082548
 20
10.81316327099144
 30
0.0
 70
     8
  0
VERTEX
  5
30E
330
2E8
100
AcDbEntity
  8
OBJECT
100
AcDbVertex
100
AcDb2dVertex
 10
3.777601491453657
 20
10.8493162631454
 30
0.0
 70
     8
  0
VERTEX
  5
30F
330
2E8
100
AcDbEntity
  8
OBJECT
100
AcDbVertex
100
AcDb2dVertex
 10
3.661963183220612
 20
10.88428671714413
 30
0.0
 70
     8
  0
VERTEX
  5
310
330
2E8
100
AcDbEntity
  8
OBJECT
100
AcDbVertex
100
AcDb2dVertex
 10
3.541344041898333
 20
10.91560063868915
 30
0.0
 70
     8
  0
VERTEX
  5
311
330
2E8
100
AcDbEntity
  8
OBJECT
100
AcDbVertex
100
AcDb2dVertex
 10
3.414498859001759
 20
10.94078403348199
 30
0.0
 70
     8
  0
VERTEX
  5
312
330
2E8
100
AcDbEntity
  8
OBJECT
100
AcDbVertex
100
AcDb2dVertex
 10
3.280182426045747
 20
10.95736290722422
 30
0.0
 70
     8
  0
VERTEX
  5
313
330
2E8
100
AcDbEntity
  8
OBJECT
100
AcDbVertex
100
AcDb2dVertex
 10
3.137224903381421
 20
10.96436218473697
 30
0.0
 70
     8
  0
VERTEX
  5
314
330
2E8
100
AcDbEntity
  8
OBJECT
100
AcDbVertex
100
AcDb2dVertex
 10
2.984757926704545
 20
10.96680246731994
 30
0.0
 70
     8
  0
VERTEX
  5
315
330
2E8
100
AcDbEntity
  8
OBJECT
100
AcDbVertex
100
AcDb2dVertex
 10
2.821988500547077
 20
10.97120327539243
 30
0.0
 70
     8
  0
VERTEX
  5
316
330
2E8
100
AcDbEntity
  8
OBJECT
100
AcDbVertex
100
AcDb2dVertex
 10
2.648123629440958
 20
10.98408412937376
 30
0.0
 70
     8
  0
VERTEX
  5
317
330
2E8
100
AcDbEntity
  8
OBJECT
100
AcDbVertex
100
AcDb2dVertex
 10
2.462370317918142
 20
11.01196454968323
 30
0.0
 70
     8
  0
VERTEX
  5
318
330
2E8
100
AcDbEntity
  8
OBJECT
100
AcDbVertex
100
AcDb2dVertex
 10
2.263935570510589
 20
11.06136405674015
 30
0.0
 70
     8
  0
VERTEX
  5
319
330
2E8
100
AcDbEntity
  8
OBJECT
100
AcDbVertex
100
AcDb2dVertex
 10
2.052026391750238
 20
11.13880217096384
 30
0.0
 70
     8
  0
VERTEX
  5
31A
330
2E8
100
AcDbEntity
  8
OBJECT
100
AcDbVertex
100
AcDb2dVertex
 10
1.82584978616905
 20
11.25079841277359
 30
0.0
 70
     8
  0
VERTEX
  5
31B
330
2E8
100
AcDbEntity
  8
OBJECT
100
AcDbVertex
100
AcDb2dVertex
 10
5.875527935039261
 20
8.956425145076638
 30
0.0
 70
    16
  0
VERTEX
  5
31C
330
2E8
100
AcDbEntity
  8
OBJECT
100
AcDbVertex
100
AcDb2dVertex
 10
5.524877295846837
 20
9.641550481695135
 30
0.0
 70
    16
  0
VERTEX
  5
31D
330
2E8
100
AcDbEntity
  8
OBJECT
100
AcDbVertex
100
AcDb2dVertex
 10
5.636447936164389
 20
10.31074267264302
 30
0.0
 70
    16
  0
VERTEX
  5
31E
330
2E8
100
AcDbEntity
  8
OBJECT
100
AcDbVertex
100
AcDb2dVertex
 10
5.110472074215837
 20
10.74093767853178
 30
0.0
 70
    16
  0
VERTEX
  5
31F
330
2E8
100
AcDbEntity
  8
OBJECT
100
AcDbVertex
100
AcDb2dVertex
 10
4.201968330275632
 20
10.62940565883752
 30
0.0
 70
    16
  0
VERTEX
  5
320
330
2E8
100
AcDbEntity
  8
OBJECT
100
AcDbVertex
100
AcDb2dVertex
 10
3.373157983853764
 20
11.07553373761456
 30
0.0
 70
    16
  0
VERTEX
  5
321
330
2E8
100
AcDbEntity
  8
OBJECT
100
AcDbVertex
100
AcDb2dVertex
 10
2.448715521673825
 20
10.90026913523787
 30
0.0
 70
    16
  0
VERTEX
  5
322
330
2E8
100
AcDbEntity
  8
OBJECT
100
AcDbVertex
100
AcDb2dVertex
 10
1.82584978616905
 20
11.25079841277359
 30
0.0
 70
    16
  0
SEQEND
  5
323
330
2E8
100
AcDbEntity
  8
OBJECT
  0
LINE
  5
324
330
1E
100
AcDbEntity
  8
OBJECT
100
AcDbLine
 10
1.777349786169096
 20
9.908313956662333
 30
0.0
 11
1.559349786169092
 21
9.90831395666234
 31
0.0
  0
LINE
  5
325
330
1E
100
AcDbEntity
  8
OBJECT
100
AcDbLine
 10
1.777349786169096
 20
9.40831395666234
 30
0.0
 11
1.559349786169092
 21
9.40831395666234
 31
0.0
  0
LINE
  5
326
330
1E
100
AcDbEntity
  8
OBJECT
100
AcDbLine
 10
2.371349786169097
 20
9.174313956662331
 30
0.0
 11
1.559349786169092
 21
9.174313956662338
 31
0.0
  0
LINE
  5
327
330
1E
100
AcDbEntity
  8
OBJECT
100
AcDbLine
 10
2.371349786169097
 20
10.14231395666233
 30
0.0
 11
1.559349786169092
 21
10.14231395666233
 31
0.0
  0
LINE
  5
328
330
1E
100
AcDbEntity
  8
OBJECT
100
AcDbLine
 10
1.559349786169092
 20
9.174313956662338
 30
0.0
 11
1.559349786169092
 21
10.14231395666233
 31
0.0
  0
LINE
  5
329
330
1E
100
AcDbEntity
  8
OBJECT
100
AcDbLine
 10
1.777349786169096
 20
9.40831395666234
 30
0.0
 11
1.777349786169096
 21
9.908313956662333
 31
0.0
  0
LINE
  5
32A
330
1E
100
AcDbEntity
  8
OBJECT
100
AcDbLine
 10
2.060349786169079
 20
11.12753835713694
 30
0.0
 11
2.060349786169093
 21
10.14231395666233
 31
0.0
  0
LINE
  5
32B
330
1E
100
AcDbEntity
  8
OBJECT
100
AcDbLine
 10
5.740474937978237
 20
8.579313956662334
 30
0.0
 11
2.060349786169086
 21
8.579313956662334
 31
0.0
  0
LINE
  5
32C
330
1E
100
AcDbEntity
  8
OBJECT
100
AcDbLine
 10
2.371349786169097
 20
9.174313956662331
 30
0.0
 11
2.371349786169097
 21
10.14231395666233
 31
0.0
  0
LINE
  5
32D
330
1E
100
AcDbEntity
  8
OBJECT
100
AcDbLine
 10
2.060349786169093
 20
9.174313956662333
 30
0.0
 11
2.060349786169086
 21
8.579313956662334
 31
0.0
  0
LINE
  5
32E
330
1E
100
AcDbEntity
  8
OBJECT
100
AcDbLine
 10
1.763849786169067
 20
9.080313956662337
 30
0.0
 11
1.465349786169091
 21
9.080313956662337
 31
0.0
  0
LINE
  5
32F
330
1E
100
AcDbEntity
  8
OBJECT
100
AcDbLine
 10
1.763849786169067
 20
9.143313956662339
 30
0.0
 11
1.763849786169067
 21
9.080313956662337
 31
0.0
  0
LINE
  5
330
330
1E
100
AcDbEntity
  8
OBJECT
100
AcDbLine
 10
2.06034978616909
 20
9.143313956662339
 30
0.0
 11
1.763849786169067
 21
9.143313956662339
 31
0.0
  0
LINE
  5
331
330
1E
100
AcDbEntity
  8
OBJECT
100
AcDbLine
 10
1.763849786169067
 20
10.23631395666233
 30
0.0
 11
1.465349786169084
 21
10.23631395666233
 31
0.0
  0
LINE
  5
332
330
1E
100
AcDbEntity
  8
OBJECT
100
AcDbLine
 10
1.763849786169067
 20
10.23631395666233
 30
0.0
 11
1.763849786169067
 21
10.17331395666234
 31
0.0
  0
LINE
  5
333
330
1E
100
AcDbEntity
  8
OBJECT
100
AcDbLine
 10
2.060349786169093
 20
10.17331395666233
 30
0.0
 11
1.763849786169067
 21
10.17331395666234
 31
0.0
  0
CIRCLE
  5
334
330
1E
100
AcDbEntity
  8
OBJECT
100
AcDbCircle
 10
2.137849786169055
 20
9.975313956662333
 30
0.0
 40
0.078
  0
CIRCLE
  5
335
330
1E
100
AcDbEntity
  8
OBJECT
100
AcDbCircle
 10
2.137849786169055
 20
9.341313956662339
 30
0.0
 40
0.078
  0
LINE
  5
336
330
1E
100
AcDbEntity
  8
OBJECT
100
AcDbLine
 10
38.14081250187368
 20
8.579313956662334
 30
0.0
 11
37.71781250187367
 21
8.579313956662334
 31
0.0
  0
LINE
  5
337
330
1E
100
AcDbEntity
  8
OBJECT
100
AcDbLine
 10
37.71781250187367
 20
8.021813956662336
 30
0.0
 11
37.63981250187367
 21
8.021813956662336
 31
0.0
  0
LINE
  5
338
330
1E
100
AcDbEntity
  8
OBJECT
100
AcDbLine
 10
37.71781250187367
 20
13.18931395666234
 30
0.0
 11
37.71781250187367
 21
7.958791643171283
 31
0.0
  0
LINE
  5
339
330
1E
100
AcDbEntity
  8
OBJECT
100
AcDbLine
 10
37.63981250187367
 20
13.18931395666234
 30
0.0
 11
37.63981250187367
 21
8.021813956662336
 31
0.0
  0
LINE
  5
33A
330
1E
100
AcDbEntity
  8
OBJECT
100
AcDbLine
 10
37.29581250187365
 20
8.514313956662336
 30
0.0
 11
37.29581250187365
 21
8.139313956662336
 31
0.0
  0
LINE
  5
33B
330
1E
100
AcDbEntity
  8
OBJECT
100
AcDbLine
 10
37.29581250187365
 20
8.514313956662336
 30
0.0
 11
37.63981250187367
 21
8.514313956662336
 31
0.0
  0
LINE
  5
33C
330
1E
100
AcDbEntity
  8
OBJECT
100
AcDbLine
 10
37.29581250187365
 20
8.139313956662336
 30
0.0
 11
37.63981250187367
 21
8.139313956662336
 31
0.0
  0
INSERT
  5
33D
330
1E
100
AcDbEntity
  8
OBJECT
100
AcDbBlockReference
  2
*X0
 10
-57.18189443159762
 20
2.636896521399947
 30
0.0
1001
ACAD
1000
HATCH
1002
{
1070
    16
1000
ANSI32
1040
1.0
1040
0.0
1002
}
  0
DIMENSION
  5
33E
330
1E
100
AcDbEntity
  8
DIM
100
AcDbDimension
  2
*D22
 10
9.548767537437019
 20
8.579313956662334
 30
0.0
 11
9.548767537437017
 21
13.18931395666233
 31
0.0
 70
    32
  1
Y
 71
     5
 42
9.219999999999998
  3
23NSTD
100
AcDbAlignedDimension
 13
7.520349786169073
 23
17.79931395666233
 33
0.0
 14
7.520349786169073
 24
8.579313956662334
 34
0.0
 50
90.0
100
AcDbRotatedDimension
  0
DIMENSION
  5
33F
330
1E
100
AcDbEntity
  8
DIM
100
AcDbDimension
  2
*D23
 10
10.42060820522706
 20
18.35681395666234
 30
0.0
 11
10.42060820522706
 21
13.18931395666234
 31
0.0
 70
    32
  1
X
 71
     5
 42
10.335
  3
23NSTD
100
AcDbAlignedDimension
 13
8.052849786169051
 23
8.021813956662336
 33
0.0
 14
8.052849786169051
 24
18.35681395666234
 34
0.0
 50
90.0
100
AcDbRotatedDimension
  0
DIMENSION
  5
340
330
1E
100
AcDbEntity
  8
DIM
100
AcDbDimension
  2
*D24
 10
2.060349786169093
 20
19.61959222021643
 30
0.0
 11
4.790349786169083
 21
19.61959222021643
 31
0.0
 70
    32
  1
W
 71
     5
 42
5.459999999999979
  3
23NSTD
100
AcDbAlignedDimension
 13
7.520349786169073
 23
17.79931395666233
 33
0.0
 14
2.060349786169093
 24
17.79931395666234
 34
0.0
100
AcDbRotatedDimension
  0
DIMENSION
  5
341
330
1E
100
AcDbEntity
  8
DIM
100
AcDbDimension
  2
*D25
 10
8.052849786169051
 20
20.22271281085969
 30
0.0
 11
4.939349786169055
 21
20.22271281085969
 31
0.0
 70
    32
  1
V
 71
     5
 42
6.226999999999994
  3
23NSTD
100
AcDbAlignedDimension
 13
1.825849786169057
 23
18.35681395666234
 33
0.0
 14
8.052849786169051
 24
18.35681395666234
 34
0.0
100
AcDbRotatedDimension
  0
DIMENSION
  5
342
330
1E
100
AcDbEntity
  8
DIM
100
AcDbDimension
  2
*D26
 10
37.71781250187367
 20
8.817729953507946
 30
0.0
 11
40.05218750187367
 21
8.817729953507946
 31
0.0
 70
    32
 71
     5
 42
0.078000000000003
  3
23NSTD
100
AcDbAlignedDimension
 13
37.63981250187367
 23
8.817729953507946
 33
0.0
 14
37.71781250187367
 24
8.817729953507946
 34
0.0
100
AcDbRotatedDimension
  0
LINE
  5
343
330
1E
100
AcDbEntity
  8
TITLE
100
AcDbLine
 10
8.441137681518469
 20
0.185999999999251
 30
0.0
 11
8.441137681518469
 21
2.065199999999253
 31
0.0
  0
LINE
  5
344
330
1E
100
AcDbEntity
  8
TITLE
100
AcDbLine
 10
10.24513768151847
 20
0.185999999999251
 30
0.0
 11
10.24513768151847
 21
2.065199999999253
 31
0.0
  0
LINE
  5
345
330
1E
100
AcDbEntity
  8
TITLE
100
AcDbLine
 10
12.04913768151847
 20
0.185999999999251
 30
0.0
 11
12.04913768151847
 21
2.065199999999253
 31
0.0
  0
LINE
  5
346
330
1E
100
AcDbEntity
  8
TITLE
100
AcDbLine
 10
13.85313768151846
 20
0.185999999999251
 30
0.0
 11
13.85313768151846
 21
2.065199999999253
 31
0.0
  0
LINE
  5
347
330
1E
100
AcDbEntity
  8
TITLE
100
AcDbLine
 10
15.65713768151846
 20
0.185999999999251
 30
0.0
 11
15.65713768151846
 21
2.065199999999253
 31
0.0
  0
LINE
  5
348
330
1E
100
AcDbEntity
  8
TITLE
100
AcDbLine
 10
17.46113768151846
 20
0.185999999999251
 30
0.0
 11
17.46113768151846
 21
2.065199999999253
 31
0.0
  0
LINE
  5
349
330
1E
100
AcDbEntity
  8
TITLE
100
AcDbLine
 10
19.26513768151846
 20
0.185999999999251
 30
0.0
 11
19.26513768151846
 21
2.065199999999253
 31
0.0
  0
LINE
  5
34A
330
1E
100
AcDbEntity
  8
TITLE
100
AcDbLine
 10
21.06913768151847
 20
0.185999999999251
 30
0.0
 11
21.06913768151847
 21
2.065199999999253
 31
0.0
  0
LINE
  5
34B
330
1E
100
AcDbEntity
  8
TITLE
100
AcDbLine
 10
22.87313768151847
 20
0.185999999999251
 30
0.0
 11
22.87313768151847
 21
2.065199999999253
 31
0.0
  0
LINE
  5
34C
330
1E
100
AcDbEntity
  8
TITLE
100
AcDbLine
 10
24.67713768151847
 20
0.185999999999251
 30
0.0
 11
24.67713768151847
 21
2.065199999999253
 31
0.0
  0
LINE
  5
34D
330
1E
100
AcDbEntity
  8
TITLE
100
AcDbLine
 10
26.48113768151847
 20
0.185999999999251
 30
0.0
 11
26.48113768151847
 21
2.065199999999253
 31
0.0
  0
LINE
  5
34E
330
1E
100
AcDbEntity
  8
TITLE
100
AcDbLine
 10
28.28513768151846
 20
0.185999999999251
 30
0.0
 11
28.28513768151846
 21
2.065199999999253
 31
0.0
  0
LINE
  5
34F
330
1E
100
AcDbEntity
  8
TITLE
100
AcDbLine
 10
30.08913768151846
 20
0.185999999999251
 30
0.0
 11
30.08913768151848
 21
2.065199999999253
 31
0.0
  0
LINE
  5
350
330
1E
100
AcDbEntity
  8
TITLE
100
AcDbLine
 10
31.89313768151846
 20
0.185999999999251
 30
0.0
 11
31.89313768151846
 21
2.065199999999253
 31
0.0
  0
LINE
  5
351
330
1E
100
AcDbEntity
  8
TITLE
100
AcDbLine
 10
33.69713768151846
 20
0.185999999999251
 30
0.0
 11
33.69713768151846
 21
2.065199999999253
 31
0.0
  0
LINE
  5
352
330
1E
100
AcDbEntity
  8
TITLE
100
AcDbLine
 10
35.50113768151847
 20
0.185999999999251
 30
0.0
 11
35.50113768151847
 21
2.065199999999253
 31
0.0
  0
LINE
  5
353
330
1E
100
AcDbEntity
  8
TITLE
100
AcDbLine
 10
37.30513768151846
 20
0.185999999999251
 30
0.0
 11
37.30513768151846
 21
2.065199999999253
 31
0.0
  0
LINE
  5
354
330
1E
100
AcDbEntity
  8
TITLE
100
AcDbLine
 10
39.10913768151846
 20
0.185999999999251
 30
0.0
 11
39.10913768151847
 21
2.065199999999253
 31
0.0
  0
LINE
  5
355
330
1E
100
AcDbEntity
  8
TITLE
100
AcDbLine
 10
40.91313768151846
 20
0.185999999999251
 30
0.0
 11
40.91313768151846
 21
2.065199999999253
 31
0.0
  0
LINE
  5
356
330
1E
100
AcDbEntity
  8
TITLE
100
AcDbLine
 10
42.71713768151847
 20
0.185999999999251
 30
0.0
 11
42.71713768151847
 21
2.065199999999253
 31
0.0
  0
LINE
  5
357
330
1E
100
AcDbEntity
  8
TITLE
100
AcDbLine
 10
44.52113768151846
 20
0.185999999999251
 30
0.0
 11
44.52113768151846
 21
2.065199999999253
 31
0.0
  0
TEXT
  5
358
330
1E
100
AcDbEntity
  8
TEXT
100
AcDbText
 10
41.32044244192882
 20
0.3088187676646898
 30
0.0
 40
0.3744
  1
[139]
 41
0.75
  7
TXT
 72
     1
 11
41.83524244192883
 21
0.3088187676646898
 31
0.0
100
AcDbText
  0
TEXT
  5
359
330
1E
100
AcDbEntity
  8
TEXT
100
AcDbText
 10
41.29704244192882
 20
0.9497663332806796
 30
0.0
 40
0.3744
  1
5.460
 41
0.75
  7
TXT
 72
     1
 11
41.83524244192883
 21
0.9497663332806796
 31
0.0
100
AcDbText
  0
TEXT
  5
35A
330
1E
100
AcDbEntity
  8
TEXT
100
AcDbText
 10
39.4081130595385
 20
0.9497663332806796
 30
0.0
 40
0.3744
  1
6.227
 41
0.75
  7
TXT
 72
     1
 11
39.9697130595385
 21
0.9497663332806796
 31
0.0
100
AcDbText
  0
TEXT
  5
35B
330
1E
100
AcDbEntity
  8
TEXT
100
AcDbText
 10
39.4549130595385
 20
0.3088187676646898
 30
0.0
 40
0.3744
  1
[158]
 41
0.75
  7
TXT
 72
     1
 11
39.9697130595385
 21
0.3088187676646898
 31
0.0
100
AcDbText
  0
TEXT
  5
35C
330
1E
100
AcDbEntity
  8
TEXT
100
AcDbText
 10
43.03200150631295
 20
0.3088187676646898
 30
0.0
 40
0.3744
  1
[263]
 41
0.75
  7
TXT
 72
     1
 11
43.59360150631295
 21
0.3088187676646898
 31
0.0
100
AcDbText
  0
TEXT
  5
35D
330
1E
100
AcDbEntity
  8
TEXT
100
AcDbText
 10
42.96180150631295
 20
0.9497663332806796
 30
0.0
 40
0.3744
  1
10.335
 41
0.75
  7
TXT
 72
     1
 11
43.59360150631295
 21
0.9497663332806796
 31
0.0
100
AcDbText
  0
TEXT
  5
35E
330
1E
100
AcDbEntity
  8
TEXT
100
AcDbText
 10
44.86180762538139
 20
0.3088187676646898
 30
0.0
 40
0.3744
  1
[234]
 41
0.75
  7
TXT
 72
     1
 11
45.42340762538138
 21
0.3088187676646898
 31
0.0
100
AcDbText
  0
TEXT
  5
35F
330
1E
100
AcDbEntity
  8
TEXT
100
AcDbText
 10
44.88520762538138
 20
0.9497663332806796
 30
0.0
 40
0.3744
  1
9.220
 41
0.75
  7
TXT
 72
     1
 11
45.42340762538138
 21
0.9497663332806796
 31
0.0
100
AcDbText
  0
TEXT
  5
360
330
1E
100
AcDbEntity
  8
TEXT
100
AcDbText
 10
39.82931305953851
 20
1.576827560267374
 30
0.0
 40
0.3744
  1
V
 41
0.75
  7
TXT
 72
     1
 11
39.9697130595385
 21
1.576827560267374
 31
0.0
100
AcDbText
  0
TEXT
  5
361
330
1E
100
AcDbEntity
  8
TEXT
100
AcDbText
 10
41.69484244192882
 20
1.576827560267374
 30
0.0
 40
0.3744
  1
W
 41
0.75
  7
TXT
 72
     1
 11
41.83524244192883
 21
1.576827560267374
 31
0.0
100
AcDbText
  0
TEXT
  5
362
330
1E
100
AcDbEntity
  8
TEXT
100
AcDbText
 10
43.50000150631294
 20
1.576827560267374
 30
0.0
 40
0.3744
  1
X
 41
0.75
  7
TXT
 72
     1
 11
43.59360150631295
 21
1.576827560267374
 31
0.0
100
AcDbText
  0
TEXT
  5
363
330
1E
100
AcDbEntity
  8
TEXT
100
AcDbText
 10
45.32980762538138
 20
1.576827560267374
 30
0.0
 40
0.3744
  1
Y
 41
0.75
  7
TXT
 72
     1
 11
45.42340762538138
 21
1.576827560267374
 31
0.0
100
AcDbText
  0
LWPOLYLINE
  5
364
330
1E
100
AcDbEntity
  8
DIM
100
AcDbPolyline
 90
        4
 70
     0
 10
19.54787434506129
 20
8.609940110986592
 40
0.0
 41
0.2025
 10
19.90357905178568
 20
8.223506788215132
 40
0.0
 41
0.0
 10
21.2698798937572
 20
6.729572730080866
 40
0.0
 41
0.0
 10
21.81736965031235
 20
6.729572730080866
 40
0.0
 41
0.0
  0
TEXT
  5
36A
330
1E
100
AcDbEntity
  8
TEXT
100
AcDbText
 10
2.662795860003144
 20
6.486225496627398
 30
0.0
 40
0.3744
  1
%%UVIEW LESS COVER
 41
0.75
  7
TXT
 72
     1
 11
4.820275860003145
 21
6.486225496627398
 31
0.0
100
AcDbText
  0
TEXT
  5
36B
330
1E
100
AcDbEntity
  8
TEXT
100
AcDbText
 10
15.9089966596467
 20
4.03560704963608
 30
0.0
 40
0.3744
  1
%%UVIEW LESS COVER
 41
0.75
  7
TXT
 72
     1
 11
18.0664766596467
 21
4.03560704963608
 31
0.0
100
AcDbText
  0
TEXT
  5
36C
330
1E
100
AcDbEntity
  8
TEXT
100
AcDbText
 10
15.3005966596467
 20
3.429453449636081
 30
0.0
 40
0.3744
  1
%%UAND SWINGFRAME PANEL
 41
0.75
  7
TXT
 72
     1
 11
18.0664766596467
 21
3.429453449636081
 31
0.0
100
AcDbText
  0
TEXT
  5
36D
330
1E
100
AcDbEntity
  8
DIM
100
AcDbText
 10
43.31364608187432
 20
9.506887838564008
 30
0.0
 40
0.374
  1
(INSIDE)
 41
0.75
  7
TXT
 72
     4
 11
44.20189608187432
 21
9.693887838564007
 31
0.0
100
AcDbText
  0
LINE
  5
36E
330
1E
100
AcDbEntity
  8
OBJECT
100
AcDbLine
 10
34.34115635482839
 20
23.25206784372789
 30
0.0
 11
26.4347223169837
 21
23.25206784372789
 31
0.0
  0
LINE
  5
36F
330
1E
100
AcDbEntity
  8
OBJECT
100
AcDbLine
 10
26.94707890687222
 20
22.05128046472803
 30
0.0
 11
33.39323380278463
 21
22.05128046472803
 31
0.0
  0
LINE
  5
370
330
1E
100
AcDbEntity
  8
OBJECT
100
AcDbLine
 10
26.51038838736964
 20
23.54734342872802
 30
0.0
 11
33.82992432228713
 21
23.54734342872802
 31
0.0
  0
LINE
  5
371
330
1E
100
AcDbEntity
  8
OBJECT
100
AcDbLine
 10
33.59015635482839
 20
27.58277642372854
 30
0.0
 11
26.75015635482838
 21
27.58277642372854
 31
0.0
  0
LINE
  5
372
330
1E
100
AcDbEntity
  8
OBJECT
100
AcDbLine
 10
33.82992432228713
 20
22.95679225872757
 30
0.0
 11
26.51038838736964
 21
22.95679225872776
 31
0.0
  0
LWPOLYLINE
  5
373
330
1E
100
AcDbEntity
  8
OBJECT
100
AcDbPolyline
 90
        4
 70
     0
 43
0.0
 10
26.80790635482838
 20
27.58277642372854
 10
26.81100130236557
 20
27.66283154072837
 10
27.3793114072912
 20
27.66283154072837
 10
27.38240635482839
 20
27.58277642372854
  0
LINE
  5
379
330
1E
100
AcDbEntity
  8
OBJECT
100
AcDbLine
 10
26.77015635482845
 20
22.21917369766985
 30
0.0
 11
26.68594961603317
 21
22.90498254998866
 31
0.0
  0
ARC
  5
37A
330
1E
100
AcDbEntity
  8
OBJECT
100
AcDbCircle
 10
26.94707890687222
 20
22.22844581572755
 30
0.0
 40
0.177165351
100
AcDbArc
 50
183.0000000000012
 51
270.0
  0
LINE
  5
37B
330
1E
100
AcDbEntity
  8
OBJECT
100
AcDbLine
 10
26.67971760988718
 20
23.54734342872802
 30
0.0
 11
26.75015635482838
 21
27.58277642372854
 31
0.0
  0
ARC
  5
37C
330
1E
100
AcDbEntity
  8
OBJECT
100
AcDbCircle
 10
26.41330596482815
 20
23.42956784372789
 30
0.0
 40
0.1775
100
AcDbArc
 50
90.0
 51
276.9596745962847
  0
LINE
  5
37D
330
1E
100
AcDbEntity
  8
OBJECT
100
AcDbLine
 10
26.6807601034288
 20
23.60706784372788
 30
0.0
 11
26.41330596482815
 21
23.60706784372788
 31
0.0
  0
ARC
  5
37E
330
1E
100
AcDbEntity
  8
OBJECT
100
AcDbCircle
 10
26.51038838736964
 20
23.48834342872802
 30
0.0
 40
0.059
100
AcDbArc
 50
90.0
 51
175.9999999999998
  0
ARC
  5
37F
330
1E
100
AcDbEntity
  8
OBJECT
100
AcDbCircle
 10
26.51038838736964
 20
23.01579225872776
 30
0.0
 40
0.059
100
AcDbArc
 50
184.0000000000001
 51
269.9999999999999
  0
ARC
  5
380
330
1E
100
AcDbEntity
  8
OBJECT
100
AcDbCircle
 10
24.88709748540546
 20
22.25851655456813
 30
0.0
 40
1.747017539050701
100
AcDbArc
 50
26.57463255936538
 51
38.02627328486201
  0
LINE
  5
381
330
1E
100
AcDbEntity
  8
OBJECT
100
AcDbLine
 10
26.4347223169837
 20
23.25206784372789
 30
0.0
 11
26.4515321084043
 21
23.01167662677686
 31
0.0
  0
LINE
  5
382
330
1E
100
AcDbEntity
  8
OBJECT
100
AcDbLine
 10
26.4347223169837
 20
23.25206784372789
 30
0.0
 11
26.4515321084043
 21
23.49245906067892
 31
0.0
  0
ARC
  5
383
330
1E
100
AcDbEntity
  8
OBJECT
100
AcDbCircle
 10
26.62738939308633
 20
22.89779225872776
 30
0.0
 40
0.059
100
AcDbArc
 50
6.999999999999971
 51
90.0
  0
LWPOLYLINE
  5
384
330
1E
100
AcDbEntity
  8
OBJECT
100
AcDbPolyline
 90
        4
 70
     0
 43
0.0
 10
33.53240635482839
 20
27.58277642372854
 10
33.52931140729119
 20
27.66283154072837
 10
32.96100130236558
 20
27.66283154072837
 10
32.95790635482839
 20
27.58277642372854
  0
LWPOLYLINE
  5
38A
330
1E
100
AcDbEntity
  8
OBJECT
100
AcDbPolyline
 90
        4
 70
     0
 43
0.0
 10
31.79915635482839
 20
27.58277642372854
 10
31.7960614072912
 20
27.66283154072837
 10
31.50225130236558
 20
27.66283154072837
 10
31.49915635482838
 20
27.58277642372854
  0
LWPOLYLINE
  5
390
330
1E
100
AcDbEntity
  8
OBJECT
100
AcDbPolyline
 90
        4
 70
     0
 43
0.0
 10
32.81590635482839
 20
27.58277642372854
 10
32.8128114072912
 20
27.66283154072837
 10
32.24450130236558
 20
27.66283154072837
 10
32.24140635482838
 20
27.58277642372854
  0
LWPOLYLINE
  5
396
330
1E
100
AcDbEntity
  8
OBJECT
100
AcDbPolyline
 90
        4
 70
     0
 43
0.0
 10
30.81315635482838
 20
27.58277642372854
 10
30.81006140729119
 20
27.66283154072837
 10
30.51625130236558
 20
27.66283154072837
 10
30.51315635482839
 20
27.58277642372854
  0
LWPOLYLINE
  5
39C
330
1E
100
AcDbEntity
  8
OBJECT
100
AcDbPolyline
 90
        4
 70
     0
 43
0.0
 10
29.82715635482838
 20
27.58277642372854
 10
29.8240614072912
 20
27.66283154072837
 10
29.53025130236557
 20
27.66283154072837
 10
29.52715635482838
 20
27.58277642372854
  0
LWPOLYLINE
  5
3A2
330
1E
100
AcDbEntity
  8
OBJECT
100
AcDbPolyline
 90
        4
 70
     0
 43
0.0
 10
28.84115635482839
 20
27.58277642372854
 10
28.8380614072912
 20
27.66283154072837
 10
28.54425130236558
 20
27.66283154072837
 10
28.54115635482838
 20
27.58277642372854
  0
LWPOLYLINE
  5
3A8
330
1E
100
AcDbEntity
  8
OBJECT
100
AcDbPolyline
 90
        4
 70
     0
 43
0.0
 10
27.52440635482839
 20
27.58277642372854
 10
27.52750130236558
 20
27.66283154072837
 10
28.0958114072912
 20
27.66283154072837
 10
28.09890635482839
 20
27.58277642372854
  0
LINE
  5
3AE
330
1E
100
AcDbEntity
  8
CENTER
100
AcDbLine
 10
30.17015635482838
 20
21.85318588973295
 30
0.0
 11
30.17015635482838
 21
27.8210857082449
 31
0.0
  0
LINE
  5
3AF
330
1E
100
AcDbEntity
  8
OBJECT
100
AcDbLine
 10
33.57015635482831
 20
22.21917369766985
 30
0.0
 11
33.6543630936236
 21
22.90498254998866
 31
0.0
  0
ARC
  5
3B0
330
1E
100
AcDbEntity
  8
OBJECT
100
AcDbCircle
 10
33.39323380278455
 20
22.22844581572755
 30
0.0
 40
0.177165351
100
AcDbArc
 50
270.0
 51
356.9999999999987
  0
LINE
  5
3B1
330
1E
100
AcDbEntity
  8
OBJECT
100
AcDbLine
 10
33.66059509976959
 20
23.54734342872802
 30
0.0
 11
33.59015635482839
 21
27.58277642372854
 31
0.0
  0
LINE
  5
3B2
330
1E
100
AcDbEntity
  8
OBJECT
100
AcDbLine
 10
33.62446924291205
 20
22.63051667372762
 30
0.0
 11
33.92051798696946
 21
22.63051667372762
 31
0.0
  0
LINE
  5
3B3
330
1E
100
AcDbEntity
  8
OBJECT
100
AcDbLine
 10
33.8638971226574
 20
23.61872656668646
 30
0.0
 11
33.72657423765468
 21
23.54734342872802
 31
0.0
  0
ARC
  5
3B4
330
1E
100
AcDbEntity
  8
OBJECT
100
AcDbCircle
 10
33.71292331657044
 20
22.89779225872776
 30
0.0
 40
0.059
100
AcDbArc
 50
90.0
 51
173.0
  0
LINE
  5
3B5
330
1E
100
AcDbEntity
  8
OBJECT
100
AcDbLine
 10
34.19638876656984
 20
24.46146281631985
 30
0.0
 11
34.02922714682847
 21
23.44116565858018
 31
0.0
  0
LINE
  5
3B6
330
1E
100
AcDbEntity
  8
OBJECT
100
AcDbLine
 10
34.34115635482839
 20
23.11906784372788
 30
0.0
 11
34.09765635482838
 21
23.11906784372788
 31
0.0
  0
LINE
  5
3B7
330
1E
100
AcDbEntity
  8
OBJECT
100
AcDbLine
 10
34.34115635482839
 20
23.38506784372789
 30
0.0
 11
34.02922714682847
 21
23.38506784372789
 31
0.0
  0
LINE
  5
3B8
330
1E
100
AcDbEntity
  8
OBJECT
100
AcDbLine
 10
34.09765635482838
 20
22.80459006300762
 30
0.0
 11
34.09765635482838
 21
23.25206784372789
 31
0.0
  0
LINE
  5
3B9
330
1E
100
AcDbEntity
  8
OBJECT
100
AcDbLine
 10
33.90559039267307
 20
23.25206784372789
 30
0.0
 11
33.88878060125246
 21
23.49245906067892
 31
0.0
  0
ARC
  5
3BA
330
1E
100
AcDbEntity
  8
OBJECT
100
AcDbCircle
 10
33.82992432228713
 20
23.48834342872802
 30
0.0
 40
0.059
100
AcDbArc
 50
4.000000000000171
 51
90.0
  0
ARC
  5
3BB
330
1E
100
AcDbEntity
  8
OBJECT
100
AcDbCircle
 10
33.82992432228713
 20
23.01579225872776
 30
0.0
 40
0.059
100
AcDbArc
 50
270.0
 51
355.9999999999998
  0
LINE
  5
3BC
330
1E
100
AcDbEntity
  8
OBJECT
100
AcDbLine
 10
33.90559039267307
 20
23.25206784372789
 30
0.0
 11
33.88878060125246
 21
23.01167662677686
 31
0.0
  0
CIRCLE
  5
3BD
330
1E
100
AcDbEntity
  8
HIDDEN
100
AcDbCircle
 10
33.82253423732857
 20
22.83868202472806
 30
0.0
 40
0.0688976365
  0
ARC
  5
3BE
330
1E
100
AcDbEntity
  8
OBJECT
100
AcDbCircle
 10
33.92051798696946
 20
22.80768202471982
 30
0.0
 40
0.177165351
100
AcDbArc
 50
269.9994624464301
 51
358.9999999999937
  0
LINE
  5
3BF
330
1E
100
AcDbEntity
  8
OBJECT
100
AcDbLine
 10
34.02922714682847
 20
23.25206784372789
 30
0.0
 11
34.02922714682847
 21
23.44116565858018
 31
0.0
  0
LINE
  5
3C0
330
1E
100
AcDbEntity
  8
OBJECT
100
AcDbLine
 10
34.34115635482839
 20
23.11906784372788
 30
0.0
 11
34.34115635482839
 21
23.38506784372789
 31
0.0
  0
ARC
  5
3C1
330
1E
100
AcDbEntity
  8
OBJECT
100
AcDbCircle
 10
34.16796270009426
 20
24.46227925857581
 30
0.0
 40
0.0284377888245715
100
AcDbArc
 50
343.0362544530527
 51
148.0417053691257
  0
LINE
  5
3C2
330
1E
100
AcDbEntity
  8
OBJECT
100
AcDbLine
 10
34.14383512461469
 20
24.4773314323294
 30
0.0
 11
33.8638971226574
 21
23.61872656668646
 31
0.0
  0
LWPOLYLINE
  5
3C3
330
1E
100
AcDbEntity
  8
OBJECT
100
AcDbPolyline
 90
       10
 70
     0
 43
0.0
 10
33.90765635482839
 20
8.85122735766159
 10
33.90765635482839
 20
7.982384814662344
 42
-0.4142135623730951
 10
33.47458549682839
 20
7.549313956662336
 10
26.86572721282839
 20
7.549313956662336
 42
-0.4142135623730951
 10
26.43265635482839
 20
7.982384814662344
 10
26.43265635482627
 20
18.39624309866225
 42
-0.4142135623730948
 10
26.86572721282839
 20
18.82931395666233
 10
33.47458549682839
 20
18.82931395666233
 42
-0.4142135623730951
 10
33.90765635482839
 20
18.39624309866234
 10
33.90765635482839
 20
17.52740055566264
  0
LWPOLYLINE
  5
3CF
330
1E
100
AcDbEntity
  8
OBJECT
100
AcDbPolyline
 90
        8
 70
     1
 43
0.0
 10
33.5701563548282
 20
8.046794268661619
 42
-0.4142135623730956
 10
33.41267604282819
 20
7.88931395666234
 10
26.92763666682857
 20
7.889313956661615
 42
-0.4142135623730956
 10
26.77015635482838
 20
8.046794268661619
 10
26.77015635482838
 20
18.33183364466215
 42
-0.4142135623730956
 10
26.92763666682857
 20
18.48931395666214
 10
33.41267604282819
 20
18.48931395666234
 42
-0.4142135623730957
 10
33.5701563548282
 20
18.33183364466215
  0
LWPOLYLINE
  5
3D9
330
1E
100
AcDbEntity
  8
OBJECT
100
AcDbPolyline
 90
        2
 70
     0
 43
0.0
 10
33.90765635482839
 20
15.91322735766207
 10
33.90765635482839
 20
10.46540055566216
  0
LINE
  5
3DD
330
1E
100
AcDbEntity
  8
CENTER
100
AcDbLine
 10
30.17015635482839
 20
7.284741779973776
 30
0.0
 11
30.17015635482839
 21
19.07750444807808
 31
0.0
  0
LINE
  5
3DE
330
1E
100
AcDbEntity
  8
CENTER
100
AcDbLine
 10
34.38848734485135
 20
13.18931395666233
 30
0.0
 11
26.03836765286753
 21
13.18931395666233
 31
0.0
  0
LINE
  5
3DF
330
1E
100
AcDbEntity
  8
OBJECT
100
AcDbLine
 10
26.23580596482815
 20
9.177999005062224
 30
0.0
 11
26.23580596482815
 21
10.13862890826246
 31
0.0
  0
LINE
  5
3E0
330
1E
100
AcDbEntity
  8
OBJECT
100
AcDbLine
 10
26.23580596482815
 20
9.166187981661513
 30
0.0
 11
26.43265635482828
 21
9.166187981661513
 31
0.0
  0
LINE
  5
3E1
330
1E
100
AcDbEntity
  8
OBJECT
100
AcDbLine
 10
26.23580596482815
 20
8.910348380463544
 30
0.0
 11
26.23580596482815
 21
9.166187981661513
 31
0.0
  0
ARC
  5
3E2
330
1E
100
AcDbEntity
  8
OBJECT
100
AcDbCircle
 10
25.96021541882827
 20
8.526616326858365
 30
0.0
 40
0.4724409359999995
100
AcDbArc
 50
0.0
 51
54.31466528736626
  0
LINE
  5
3E3
330
1E
100
AcDbEntity
  8
OBJECT
100
AcDbLine
 10
26.43265635482814
 20
9.177999005062224
 30
0.0
 11
26.23580596482815
 21
9.177999005062224
 31
0.0
  0
LWPOLYLINE
  5
3E4
330
1E
100
AcDbEntity
  8
OBJECT
100
AcDbPolyline
 90
        4
 70
     0
 43
0.0
 10
26.43265635482827
 20
10.79001158646538
 42
-0.2415313610589563
 10
26.23580596482815
 20
10.40627953286021
 10
26.23580596482815
 20
10.15043993166224
 10
26.43265635482829
 20
10.15043993166224
  0
LINE
  5
3EA
330
1E
100
AcDbEntity
  8
OBJECT
100
AcDbLine
 10
26.43265635482794
 20
10.13862890826153
 30
0.0
 11
26.23580596482815
 21
10.13862890826153
 31
0.0
  0
LINE
  5
3EB
330
1E
100
AcDbEntity
  8
OBJECT
100
AcDbLine
 10
33.73395156182835
 20
10.15043993166178
 30
0.0
 11
33.73395156182835
 21
9.166187981661968
 31
0.0
  0
LINE
  5
3EC
330
1E
100
AcDbEntity
  8
OBJECT
100
AcDbLine
 10
34.19638876656984
 20
10.15043993166178
 30
0.0
 11
34.19638876656984
 21
9.166187981661968
 31
0.0
  0
LINE
  5
3ED
330
1E
100
AcDbEntity
  8
OBJECT
100
AcDbLine
 10
34.02922714682847
 20
10.15043993166178
 30
0.0
 11
34.02922714682847
 21
9.166187981661968
 31
0.0
  0
LINE
  5
3EE
330
1E
100
AcDbEntity
  8
OBJECT
100
AcDbLine
 10
33.57015635482838
 20
9.166187981661968
 30
0.0
 11
34.19638876656984
 21
9.166187981661968
 31
0.0
  0
LINE
  5
3EF
330
1E
100
AcDbEntity
  8
OBJECT
100
AcDbLine
 10
33.57015635482838
 20
8.85122735766159
 30
0.0
 11
34.02922714682847
 21
8.85122735766159
 31
0.0
  0
LINE
  5
3F0
330
1E
100
AcDbEntity
  8
OBJECT
100
AcDbLine
 10
34.02922714682847
 20
9.166187981661968
 30
0.0
 11
34.02922714682847
 21
8.85122735766159
 31
0.0
  0
LWPOLYLINE
  5
3F1
330
1E
100
AcDbEntity
  8
OBJECT
100
AcDbPolyline
 90
        4
 70
     0
 43
0.0
 10
33.90765635482839
 20
12.03870304266255
 42
0.3236437854432934
 10
34.16512922481765
 20
11.68259579236927
 42
-0.7051781285480232
 10
34.14843463267529
 20
11.16008130613383
 42
0.3106384182581596
 10
33.90765635482839
 20
10.80992487066213
  0
CIRCLE
  5
3F7
330
1E
100
AcDbEntity
  8
OBJECT
100
AcDbCircle
 10
34.06365635482838
 20
11.42431395666233
 30
0.0
 40
0.1125
  0
LINE
  5
3F8
330
1E
100
AcDbEntity
  8
OBJECT
100
AcDbLine
 10
33.57015635482838
 20
10.15043993166178
 30
0.0
 11
34.19638876656984
 21
10.15043993166178
 31
0.0
  0
LINE
  5
3F9
330
1E
100
AcDbEntity
  8
OBJECT
100
AcDbLine
 10
33.57015635482838
 20
10.46540055566216
 30
0.0
 11
34.02922714682847
 21
10.46540055566216
 31
0.0
  0
LINE
  5
3FA
330
1E
100
AcDbEntity
  8
OBJECT
100
AcDbLine
 10
34.02922714682847
 20
10.46540055566216
 30
0.0
 11
34.02922714682847
 21
10.15043993166178
 31
0.0
  0
ARC
  5
3FB
330
1E
100
AcDbEntity
  8
OBJECT
100
AcDbCircle
 10
25.96021541882832
 20
17.85201158646551
 30
0.0
 40
0.4724409360000578
100
AcDbArc
 50
305.6853347126199
 51
359.9999999999866
  0
LWPOLYLINE
  5
3FC
330
1E
100
AcDbEntity
  8
OBJECT
100
AcDbPolyline
 90
        4
 70
     0
 43
0.0
 10
26.43265635482827
 20
15.58861632685929
 42
0.2415313610589563
 10
26.23580596482815
 20
15.97234838046447
 10
26.23580596482815
 20
16.22818798166244
 10
26.43265635482829
 20
16.22818798166244
  0
LINE
  5
402
330
1E
100
AcDbEntity
  8
OBJECT
100
AcDbLine
 10
26.23580596482815
 20
17.21243993166226
 30
0.0
 11
26.23580596482814
 21
17.46827953286022
 31
0.0
  0
LINE
  5
403
330
1E
100
AcDbEntity
  8
OBJECT
100
AcDbLine
 10
26.43265635482837
 20
17.21243993166226
 30
0.0
 11
26.23580596482815
 21
17.21243993166226
 31
0.0
  0
LINE
  5
404
330
1E
100
AcDbEntity
  8
OBJECT
100
AcDbLine
 10
26.43265635482836
 20
16.23999900506314
 30
0.0
 11
26.23580596482815
 21
16.23999900506314
 31
0.0
  0
LINE
  5
405
330
1E
100
AcDbEntity
  8
OBJECT
100
AcDbLine
 10
26.43265635482837
 20
17.20062890826245
 30
0.0
 11
26.23580596482815
 21
17.20062890826246
 31
0.0
  0
LINE
  5
406
330
1E
100
AcDbEntity
  8
OBJECT
100
AcDbLine
 10
26.23580596482815
 20
17.20062890826246
 30
0.0
 11
26.23580596482815
 21
16.23999900506222
 31
0.0
  0
LINE
  5
407
330
1E
100
AcDbEntity
  8
OBJECT
100
AcDbLine
 10
34.09765635482838
 20
17.52740055566264
 30
0.0
 11
34.09765635482838
 21
17.21243993166226
 31
0.0
  0
LINE
  5
408
330
1E
100
AcDbEntity
  8
OBJECT
100
AcDbLine
 10
33.57015635482838
 20
17.21243993166226
 30
0.0
 11
34.19638876656984
 21
17.21243993166226
 31
0.0
  0
LINE
  5
409
330
1E
100
AcDbEntity
  8
OBJECT
100
AcDbLine
 10
33.57015635482838
 20
16.22818798166244
 30
0.0
 11
34.19638876656984
 21
16.22818798166244
 31
0.0
  0
LINE
  5
40A
330
1E
100
AcDbEntity
  8
OBJECT
100
AcDbLine
 10
33.57015635482838
 20
15.91322735766207
 30
0.0
 11
34.09765635482838
 21
15.91322735766207
 31
0.0
  0
LINE
  5
40B
330
1E
100
AcDbEntity
  8
OBJECT
100
AcDbLine
 10
33.73395156182835
 20
16.22818798166244
 30
0.0
 11
33.73395156182835
 21
17.21243993166226
 31
0.0
  0
LINE
  5
40C
330
1E
100
AcDbEntity
  8
OBJECT
100
AcDbLine
 10
34.09765635482838
 20
15.91322735766207
 30
0.0
 11
34.09765635482838
 21
16.22818798166244
 31
0.0
  0
LINE
  5
40D
330
1E
100
AcDbEntity
  8
OBJECT
100
AcDbLine
 10
34.19638876656984
 20
17.21243993166226
 30
0.0
 11
34.19638876656984
 21
16.22818798166244
 31
0.0
  0
LINE
  5
40E
330
1E
100
AcDbEntity
  8
OBJECT
100
AcDbLine
 10
34.02922714682847
 20
17.21243993166226
 30
0.0
 11
34.02922714682847
 21
16.22818798166244
 31
0.0
  0
LINE
  5
40F
330
1E
100
AcDbEntity
  8
OBJECT
100
AcDbLine
 10
33.57015635482838
 20
17.52740055566264
 30
0.0
 11
34.09765635482838
 21
17.52740055566264
 31
0.0
  0
INSERT
  5
410
330
1E
100
AcDbEntity
  8
OBJECT
100
AcDbBlockReference
  2
*X2
 10
23.31403447238142
 20
-10.93222825067729
 30
0.0
1001
ACAD
1000
HATCH
1002
{
1070
    16
1000
PLASTI
1040
1.5
1040
5.497787143782137
1002
}
  0
LWPOLYLINE
  5
411
330
1E
100
AcDbEntity
  8
OBJECT
100
AcDbPolyline
 90
        6
 70
     1
 43
0.0
 10
42.08057619887416
 20
7.927422983172268
 10
42.00052108187433
 20
7.924328035635104
 10
42.08057619887416
 20
7.927422983172297
 10
42.08057619887416
 20
8.496204930152428
 10
42.00052108187431
 20
8.499299877689621
 10
42.08057619887416
 20
8.4962049301524
  0
LWPOLYLINE
  5
419
330
1E
100
AcDbEntity
  8
OBJECT
100
AcDbPolyline
 90
        4
 70
     0
 43
0.0
 10
42.00052108187431
 20
9.588313956662323
 10
42.08057619887416
 20
9.591408904199516
 10
42.08057619887417
 20
9.885219009125142
 10
42.00052108187432
 20
9.888313956662335
  0
LWPOLYLINE
  5
41F
330
1E
100
AcDbEntity
  8
OBJECT
100
AcDbPolyline
 90
        4
 70
     0
 43
0.0
 10
42.00052108187431
 20
10.57431395666232
 10
42.08057619887416
 20
10.57740890419952
 10
42.08057619887417
 20
10.87121900912514
 10
42.00052108187432
 20
10.87431395666234
  0
LWPOLYLINE
  5
425
330
1E
100
AcDbEntity
  8
OBJECT
100
AcDbPolyline
 90
        4
 70
     0
 43
0.0
 10
42.00052108187431
 20
11.56031395666233
 10
42.08057619887416
 20
11.56340890419952
 10
42.08057619887417
 20
11.85721900912514
 10
42.00052108187432
 20
11.86031395666233
  0
LWPOLYLINE
  5
42B
330
1E
100
AcDbEntity
  8
OBJECT
100
AcDbPolyline
 90
        6
 70
     1
 43
0.0
 10
42.08057619887416
 20
8.765922983172307
 10
42.00052108187433
 20
8.762828035635143
 10
42.08057619887416
 20
8.765922983172336
 10
42.08057619887416
 20
9.33470493015246
 10
42.00052108187431
 20
9.337799877689652
 10
42.08057619887416
 20
9.334704930152431
  0
LWPOLYLINE
  5
433
330
1E
100
AcDbEntity
  8
OBJECT
100
AcDbPolyline
 90
        3
 70
     0
 43
0.0
 10
42.00052108187431
 20
8.60931395666236
 10
42.08057619887416
 20
8.612408904199552
 10
42.08057619887416
 20
8.906219009125171
  0
LWPOLYLINE
  5
438
330
1E
100
AcDbEntity
  8
OBJECT
100
AcDbPolyline
 90
        4
 70
     0
 43
0.0
 10
42.00052108187431
 20
12.54631395666232
 10
42.08057619887416
 20
12.54940890419951
 10
42.08057619887417
 20
12.84321900912514
 10
42.00052108187432
 20
12.84631395666233
  0
LWPOLYLINE
  5
43E
330
1E
100
AcDbEntity
  8
OBJECT
100
AcDbPolyline
 90
        3
 70
     0
 43
0.0
 10
42.00052108187431
 20
17.76931395666234
 10
42.08057619887416
 20
17.76621900912515
 10
42.08057619887416
 20
17.47240890419953
  0
LWPOLYLINE
  5
443
330
1E
100
AcDbEntity
  8
OBJECT
100
AcDbPolyline
 90
        4
 70
     0
 43
0.0
 10
42.00052108187431
 20
13.83231395666238
 10
42.08057619887416
 20
13.82921900912518
 10
42.08057619887417
 20
13.53540890419956
 10
42.00052108187432
 20
13.53231395666236
  0
LWPOLYLINE
  5
449
330
1E
100
AcDbEntity
  8
OBJECT
100
AcDbPolyline
 90
        4
 70
     0
 43
0.0
 10
42.00052108187431
 20
14.81831395666238
 10
42.08057619887416
 20
14.81521900912518
 10
42.08057619887417
 20
14.52140890419956
 10
42.00052108187432
 20
14.51831395666237
  0
LWPOLYLINE
  5
44F
330
1E
100
AcDbEntity
  8
OBJECT
100
AcDbPolyline
 90
        4
 70
     0
 43
0.0
 10
42.00052108187431
 20
15.80431395666237
 10
42.08057619887416
 20
15.80121900912518
 10
42.08057619887417
 20
15.50740890419956
 10
42.00052108187432
 20
15.50431395666237
  0
LWPOLYLINE
  5
455
330
1E
100
AcDbEntity
  8
OBJECT
100
AcDbPolyline
 90
        6
 70
     1
 43
0.0
 10
42.08057619887416
 20
17.6127049301524
 10
42.00052108187433
 20
17.61579987768956
 10
42.08057619887416
 20
17.61270493015237
 10
42.08057619887416
 20
17.04392298317224
 10
42.00052108187431
 20
17.04082803563504
 10
42.08057619887416
 20
17.04392298317227
  0
LWPOLYLINE
  5
45D
330
1E
100
AcDbEntity
  8
OBJECT
100
AcDbPolyline
 90
        4
 70
     0
 43
0.0
 10
42.00052108187431
 20
16.79031395666237
 10
42.08057619887416
 20
16.78721900912518
 10
42.08057619887417
 20
16.49340890419956
 10
42.00052108187432
 20
16.49031395666236
  0
LWPOLYLINE
  5
463
330
1E
100
AcDbEntity
  8
OBJECT
100
AcDbPolyline
 90
        6
 70
     1
 43
0.0
 10
42.08057619887416
 20
18.45120493015243
 10
42.00052108187433
 20
18.45429987768959
 10
42.08057619887416
 20
18.4512049301524
 10
42.08057619887416
 20
17.88242298317228
 10
42.00052108187431
 20
17.87932803563508
 10
42.08057619887416
 20
17.8824229831723
  0
LINE
  5
46B
330
1E
100
AcDbEntity
  8
OBJECT
100
AcDbLine
 10
42.08057619887417
 20
8.108457135470585
 30
0.0
 11
42.06089190941942
 21
8.128313956662337
 31
0.0
  0
LINE
  5
46C
330
1E
100
AcDbEntity
  8
OBJECT
100
AcDbLine
 10
42.06089190941941
 20
8.295313956662345
 30
0.0
 11
42.08057619887416
 21
8.315170777854097
 31
0.0
  0
LINE
  5
46D
330
1E
100
AcDbEntity
  8
OBJECT
100
AcDbLine
 10
37.67081250187367
 20
16.22818798166244
 30
0.0
 11
37.67081250187367
 21
13.18931395666234
 31
0.0
  0
LINE
  5
46E
330
1E
100
AcDbEntity
  8
OBJECT
100
AcDbLine
 10
42.00052108187431
 20
12.84631395666233
 30
0.0
 11
42.00052108187433
 21
18.50931395666234
 31
0.0
  0
LINE
  5
46F
330
1E
100
AcDbEntity
  8
OBJECT
100
AcDbLine
 10
37.37553691687355
 20
13.18931395666235
 30
0.0
 11
37.37553691687355
 21
15.91322735766207
 31
0.0
  0
LINE
  5
470
330
1E
100
AcDbEntity
  8
OBJECT
100
AcDbLine
 10
37.9660880868738
 20
16.22818798166244
 30
0.0
 11
37.96608808687381
 21
13.18931395666235
 31
0.0
  0
LINE
  5
471
330
1E
100
AcDbEntity
  8
OBJECT
100
AcDbLine
 10
36.48602512287383
 20
18.31239140461896
 30
0.0
 11
36.48602512287383
 21
8.066236508705719
 31
0.0
  0
INSERT
  5
472
330
1E
100
AcDbEntity
  8
OBJECT
100
AcDbBlockReference
  2
*X1
 10
23.31403447238142
 20
-10.93222825067729
 30
0.0
1001
ACAD
1000
HATCH
1002
{
1070
    16
1000
PLASTI
1040
1.5
1040
0.7853981633974483
1002
}
  0
LWPOLYLINE
  5
473
330
1E
100
AcDbEntity
  8
OBJECT
100
AcDbPolyline
 90
        4
 70
     0
 43
0.0
 10
36.61902512287383
 20
13.18931395666233
 10
36.61902512287383
 20
8.063911331039973
 42
0.3954269326290927
 10
36.65550884319439
 20
8.024992590867986
 10
37.67081250187367
 20
7.958313956662342
  0
LINE
  5
479
330
1E
100
AcDbEntity
  8
OBJECT
100
AcDbLine
 10
37.32359895396031
 20
7.80857571740035
 30
0.0
 11
36.65391835581617
 21
7.88931395666234
 31
0.0
  0
ARC
  5
47A
330
1E
100
AcDbEntity
  8
OBJECT
100
AcDbCircle
 10
36.66319047387337
 20
8.066236508705719
 30
0.0
 40
0.177165351
100
AcDbArc
 50
180.0
 51
266.9999999999987
  0
LINE
  5
47B
330
1E
100
AcDbEntity
  8
OBJECT
100
AcDbLine
 10
41.75252108187432
 20
9.520268202728692
 30
0.0
 11
41.75252108187432
 21
9.333859710595865
 31
0.0
  0
LINE
  5
47C
330
1E
100
AcDbEntity
  8
OBJECT
100
AcDbLine
 10
42.00052108187431
 20
9.337799877689652
 30
0.0
 11
42.00052108187431
 21
9.588313956662323
 31
0.0
  0
LWPOLYLINE
  5
47D
330
1E
100
AcDbEntity
  8
OBJECT
100
AcDbPolyline
 90
       36
 70
     0
 43
0.0
 10
37.67081250187367
 20
7.958313956662342
 10
41.58752108187431
 20
7.998121591729207
 10
41.58752108187456
 20
8.470666422564454
 42
-0.4040262258351634
 10
41.60651912292118
 20
8.49033946997074
 10
41.86752108187433
 20
8.499313956662339
 10
41.86752108187433
 20
8.762813956662339
 10
41.60651912292119
 20
8.771788443353946
 42
-0.4040262258351634
 10
41.58752108187457
 20
8.791461490759777
 10
41.58752108187457
 20
9.30916642256445
 42
-0.4040262258351634
 10
41.60651912292119
 20
9.328839469970736
 10
41.86752108187433
 20
9.337813956662342
 10
41.86752108187432
 20
9.516313956662335
 10
41.6065191229209
 20
9.525288443353664
 42
-0.4040262258351634
 10
41.58752108187431
 20
9.54496149075978
 10
41.58752108187457
 20
9.931666422564452
 42
-0.4040262258351634
 10
41.60651912292119
 20
9.951339469970738
 10
41.86752108187432
 20
9.960313956662337
 10
41.86752108187432
 20
10.50231395666233
 10
41.6065191229209
 20
10.51128844335367
 42
-0.4040262258351634
 10
41.58752108187431
 20
10.53096149075978
 10
41.58752108187457
 20
10.91766642256445
 42
-0.4040262258351634
 10
41.60651912292119
 20
10.93733946997074
 10
41.86752108187432
 20
10.94631395666234
 10
41.86752108187432
 20
11.48831395666233
 10
41.6065191229209
 20
11.49728844335366
 42
-0.4040262258351634
 10
41.58752108187431
 20
11.51696149075977
 10
41.58752108187457
 20
11.90366642256444
 42
-0.4040262258351634
 10
41.60651912292119
 20
11.92333946997073
 10
41.86752108187432
 20
11.93231395666233
 10
41.86752108187432
 20
12.47431395666233
 10
41.6065191229209
 20
12.48328844335367
 42
-0.4040262258351634
 10
41.58752108187431
 20
12.50296149075977
 10
41.58752108187457
 20
12.88966642256445
 42
-0.4040262258351634
 10
41.60651912292119
 20
12.90933946997073
 10
41.86752108187432
 20
12.91831395666234
 10
41.86752108187432
 20
13.18931395666233
  0
LWPOLYLINE
  5
4A3
330
1E
100
AcDbEntity
  8
OBJECT
100
AcDbPolyline
 90
        5
 70
     0
 43
0.0
 10
37.67081250187367
 20
7.549313956662365
 10
37.9112037188247
 20
7.56612374808297
 42
0.3939104756149413
 10
37.9660880868738
 20
7.6249800270483
 10
37.96608808687381
 20
7.802313956662336
 10
42.00052108187433
 20
7.869313956662344
  0
LINE
  5
4AA
330
1E
100
AcDbEntity
  8
OBJECT
100
AcDbLine
 10
37.67081250187367
 20
7.701313956662337
 30
0.0
 11
37.67081250187367
 21
7.549313956662365
 31
0.0
  0
LINE
  5
4AB
330
1E
100
AcDbEntity
  8
OBJECT
100
AcDbLine
 10
37.67081250187367
 20
7.801313956662346
 30
0.0
 11
37.62081250187367
 21
7.801313956662346
 31
0.0
  0
ARC
  5
4AC
330
1E
100
AcDbEntity
  8
OBJECT
100
AcDbCircle
 10
37.62081250187367
 20
7.751313956662341
 30
0.0
 40
0.05
100
AcDbArc
 50
90.0
 51
270.0
  0
LINE
  5
4AD
330
1E
100
AcDbEntity
  8
OBJECT
100
AcDbLine
 10
37.67081250187367
 20
7.701313956662337
 30
0.0
 11
37.62081250187367
 21
7.701313956662337
 31
0.0
  0
LINE
  5
4AE
330
1E
100
AcDbEntity
  8
OBJECT
100
AcDbLine
 10
37.37553691687355
 20
7.6249800270483
 30
0.0
 11
37.37553691687355
 21
7.749999889346574
 31
0.0
  0
ARC
  5
4AF
330
1E
100
AcDbEntity
  8
OBJECT
100
AcDbCircle
 10
37.43453691687355
 20
7.6249800270483
 30
0.0
 40
0.059
100
AcDbArc
 50
180.0
 51
265.9999999999998
  0
LINE
  5
4B0
330
1E
100
AcDbEntity
  8
OBJECT
100
AcDbLine
 10
37.67081250187367
 20
7.549313956662365
 30
0.0
 11
37.43042128492265
 21
7.56612374808297
 31
0.0
  0
ARC
  5
4B1
330
1E
100
AcDbEntity
  8
OBJECT
100
AcDbCircle
 10
37.31653691687355
 20
7.749999889346574
 30
0.0
 40
0.059
100
AcDbArc
 50
0.0000000000008142
 51
83.12546811821464
  0
LINE
  5
4B2
330
1E
100
AcDbEntity
  8
OBJECT
100
AcDbLine
 10
37.51333218987348
 20
7.827305283591512
 30
0.0
 11
37.51333218987348
 21
7.675322629733171
 31
0.0
  0
LINE
  5
4B3
330
1E
100
AcDbEntity
  8
OBJECT
100
AcDbLine
 10
37.67081250187367
 20
7.830054112662208
 30
0.0
 11
37.51333218987348
 21
7.827305283591512
 31
0.0
  0
LINE
  5
4B4
330
1E
100
AcDbEntity
  8
OBJECT
100
AcDbLine
 10
37.67081250187367
 20
7.67257380066202
 30
0.0
 11
37.51333218987348
 21
7.675322629733171
 31
0.0
  0
LINE
  5
4B5
330
1E
100
AcDbEntity
  8
OBJECT
100
AcDbLine
 10
42.0005210818743
 20
7.869313956662344
 30
0.0
 11
42.0005210818743
 21
7.924328035635104
 31
0.0
  0
LINE
  5
4B6
330
1E
100
AcDbEntity
  8
OBJECT
100
AcDbLine
 10
41.75252108187432
 20
8.54126820272882
 30
0.0
 11
41.75252108187432
 21
8.495359710595861
 31
0.0
  0
LINE
  5
4B7
330
1E
100
AcDbEntity
  8
OBJECT
100
AcDbLine
 10
42.0005210818743
 20
8.499299877689628
 30
0.0
 11
42.0005210818743
 21
8.762828035635143
 31
0.0
  0
LINE
  5
4B8
330
1E
100
AcDbEntity
  8
OBJECT
100
AcDbLine
 10
41.58752108187457
 20
8.791461490759777
 30
0.0
 11
41.58752108187456
 21
8.56596149075978
 31
0.0
  0
LINE
  5
4B9
330
1E
100
AcDbEntity
  8
OBJECT
100
AcDbLine
 10
41.60651912292117
 20
8.546288443353949
 30
0.0
 11
41.86752108187431
 21
8.537313956662336
 31
0.0
  0
ARC
  5
4BA
330
1E
100
AcDbEntity
  8
OBJECT
100
AcDbCircle
 10
41.60720612087455
 20
8.56596149075978
 30
0.0
 40
0.019685039
100
AcDbArc
 50
180.0
 51
268.0000000000013
  0
LINE
  5
4BB
330
1E
100
AcDbEntity
  8
OBJECT
100
AcDbLine
 10
42.06089190941942
 20
8.128313956662337
 30
0.0
 11
41.72224549687419
 21
8.131234371661035
 31
0.0
  0
LINE
  5
4BC
330
1E
100
AcDbEntity
  8
OBJECT
100
AcDbLine
 10
41.72224549687419
 20
8.131234371661035
 30
0.0
 11
41.72224549687419
 21
8.292393541663193
 31
0.0
  0
LINE
  5
4BD
330
1E
100
AcDbEntity
  8
OBJECT
100
AcDbLine
 10
42.06089190941942
 20
8.128313956662337
 30
0.0
 11
42.06089190941941
 21
8.295313956662345
 31
0.0
  0
LINE
  5
4BE
330
1E
100
AcDbEntity
  8
OBJECT
100
AcDbLine
 10
42.06089190941941
 20
8.295313956662345
 30
0.0
 11
41.72224549687419
 21
8.292393541663193
 31
0.0
  0
LINE
  5
4BF
330
1E
100
AcDbEntity
  8
OBJECT
100
AcDbLine
 10
41.60720537132906
 20
9.133813956662342
 30
0.0
 11
41.9458517838743
 21
9.130893541663189
 31
0.0
  0
LINE
  5
4C0
330
1E
100
AcDbEntity
  8
OBJECT
100
AcDbLine
 10
41.60720537132905
 20
8.96681395666234
 30
0.0
 11
41.94585178387429
 21
8.969734371661038
 31
0.0
  0
LINE
  5
4C1
330
1E
100
AcDbEntity
  8
OBJECT
100
AcDbLine
 10
41.60720537132906
 20
9.133813956662342
 30
0.0
 11
41.58752108187432
 21
9.153670777854093
 31
0.0
  0
LINE
  5
4C2
330
1E
100
AcDbEntity
  8
OBJECT
100
AcDbLine
 10
41.58752108187431
 20
8.946957135470588
 30
0.0
 11
41.60720537132905
 21
8.96681395666234
 31
0.0
  0
LINE
  5
4C3
330
1E
100
AcDbEntity
  8
OBJECT
100
AcDbLine
 10
41.60720537132905
 20
8.96681395666234
 30
0.0
 11
41.60720537132906
 21
9.133813956662342
 31
0.0
  0
LINE
  5
4C4
330
1E
100
AcDbEntity
  8
OBJECT
100
AcDbLine
 10
41.94585178387429
 20
8.969734371661038
 30
0.0
 11
41.9458517838743
 21
9.130893541663189
 31
0.0
  0
LINE
  5
4C5
330
1E
100
AcDbEntity
  8
OBJECT
100
AcDbLine
 10
41.75252108187432
 20
12.47826820272869
 30
0.0
 11
41.75252108187432
 21
11.92835971059586
 31
0.0
  0
LINE
  5
4C6
330
1E
100
AcDbEntity
  8
OBJECT
100
AcDbLine
 10
42.00052108187431
 20
11.86031395666233
 30
0.0
 11
42.00052108187432
 21
12.54631395666232
 31
0.0
  0
LWPOLYLINE
  5
4C7
330
1E
100
AcDbEntity
  8
OBJECT
100
AcDbPolyline
 90
        4
 70
     0
 43
0.0
 10
41.58752108187432
 20
10.63931395666233
 10
41.90285178387429
 20
10.63931395666233
 10
41.90285178387429
 20
10.80931395666234
 10
41.58752108187432
 20
10.80931395666234
  0
LINE
  5
4CD
330
1E
100
AcDbEntity
  8
OBJECT
100
AcDbLine
 10
41.75252108187432
 20
10.50626820272869
 30
0.0
 11
41.75252108187432
 21
9.95635971059586
 31
0.0
  0
LWPOLYLINE
  5
4CE
330
1E
100
AcDbEntity
  8
OBJECT
100
AcDbPolyline
 90
        4
 70
     0
 43
0.0
 10
41.58752108187432
 20
9.653313956662335
 10
41.90285178387429
 20
9.653313956662335
 10
41.90285178387429
 20
9.823313956662344
 10
41.58752108187432
 20
9.823313956662344
  0
LINE
  5
4D4
330
1E
100
AcDbEntity
  8
OBJECT
100
AcDbLine
 10
42.00052108187431
 20
9.888313956662335
 30
0.0
 11
42.00052108187431
 21
10.57431395666232
 31
0.0
  0
LINE
  5
4D5
330
1E
100
AcDbEntity
  8
OBJECT
100
AcDbLine
 10
41.75252108187432
 20
11.49226820272869
 30
0.0
 11
41.75252108187432
 21
10.94235971059586
 31
0.0
  0
LWPOLYLINE
  5
4D6
330
1E
100
AcDbEntity
  8
OBJECT
100
AcDbPolyline
 90
        4
 70
     0
 43
0.0
 10
41.58752108187432
 20
11.62531395666233
 10
41.90285178387429
 20
11.62531395666233
 10
41.90285178387429
 20
11.79531395666234
 10
41.58752108187432
 20
11.79531395666234
  0
LINE
  5
4DC
330
1E
100
AcDbEntity
  8
OBJECT
100
AcDbLine
 10
42.00052108187431
 20
10.87431395666234
 30
0.0
 11
42.00052108187431
 21
11.56031395666233
 31
0.0
  0
LINE
  5
4DD
330
1E
100
AcDbEntity
  8
OBJECT
100
AcDbLine
 10
41.75252108187432
 20
13.18931395666233
 30
0.0
 11
41.75252108187432
 21
12.91435971059586
 31
0.0
  0
LWPOLYLINE
  5
4DE
330
1E
100
AcDbEntity
  8
OBJECT
100
AcDbPolyline
 90
        4
 70
     0
 43
0.0
 10
41.58752108187432
 20
12.61131395666233
 10
41.90285178387429
 20
12.61131395666233
 10
41.90285178387429
 20
12.78131395666234
 10
41.58752108187432
 20
12.78131395666234
  0
LINE
  5
4E4
330
1E
100
AcDbEntity
  8
OBJECT
100
AcDbLine
 10
37.3235989539603
 20
18.57005219592433
 30
0.0
 11
36.65391835581617
 21
18.48931395666234
 31
0.0
  0
LINE
  5
4E5
330
1E
100
AcDbEntity
  8
OBJECT
100
AcDbLine
 10
37.04926133187343
 20
17.52740055566264
 30
0.0
 11
37.67081250187367
 21
17.52740055566264
 31
0.0
  0
LINE
  5
4E6
330
1E
100
AcDbEntity
  8
OBJECT
100
AcDbLine
 10
37.04926133187342
 20
17.21243993166226
 30
0.0
 11
38.90946170554617
 21
17.21243993166226
 31
0.0
  0
LINE
  5
4E7
330
1E
100
AcDbEntity
  8
OBJECT
100
AcDbLine
 10
37.04926133187343
 20
15.91322735766206
 30
0.0
 11
37.67081250187367
 21
15.91322735766207
 31
0.0
  0
LINE
  5
4E8
330
1E
100
AcDbEntity
  8
OBJECT
100
AcDbLine
 10
37.04926133187342
 20
16.22818798166244
 30
0.0
 11
38.90946170554617
 21
16.22818798166244
 31
0.0
  0
LINE
  5
4E9
330
1E
100
AcDbEntity
  8
OBJECT
100
AcDbLine
 10
37.04926133187343
 20
17.52740055566264
 30
0.0
 11
37.04926133187342
 21
17.21243993166226
 31
0.0
  0
LINE
  5
4EA
330
1E
100
AcDbEntity
  8
OBJECT
100
AcDbLine
 10
37.04926133187343
 20
15.91322735766206
 30
0.0
 11
37.04926133187342
 21
16.22818798166244
 31
0.0
  0
LINE
  5
4EB
330
1E
100
AcDbEntity
  8
OBJECT
100
AcDbLine
 10
37.08026133187342
 20
17.21243993166226
 30
0.0
 11
37.08026133187342
 21
16.22818798166244
 31
0.0
  0
ARC
  5
4EC
330
1E
100
AcDbEntity
  8
OBJECT
100
AcDbCircle
 10
36.66319047387337
 20
18.31239140461896
 30
0.0
 40
0.177165351
100
AcDbArc
 50
93.00000000000123
 51
180.0
  0
LINE
  5
4ED
330
1E
100
AcDbEntity
  8
OBJECT
100
AcDbLine
 10
37.9660880868738
 20
18.57631395666234
 30
0.0
 11
42.00052108187433
 21
18.50931395666234
 31
0.0
  0
LINE
  5
4EE
330
1E
100
AcDbEntity
  8
OBJECT
100
AcDbLine
 10
37.9660880868738
 20
18.7536478862764
 30
0.0
 11
37.9660880868738
 21
17.21243993166226
 31
0.0
  0
LINE
  5
4EF
330
1E
100
AcDbEntity
  8
OBJECT
100
AcDbLine
 10
37.67081250187368
 20
17.21243993166226
 30
0.0
 11
37.67081250187367
 21
18.82931395666234
 31
0.0
  0
LINE
  5
4F0
330
1E
100
AcDbEntity
  8
OBJECT
100
AcDbLine
 10
37.37553691687355
 20
16.22818798166244
 30
0.0
 11
37.37553691687355
 21
17.21243993166226
 31
0.0
  0
LINE
  5
4F1
330
1E
100
AcDbEntity
  8
OBJECT
100
AcDbLine
 10
37.85991031672596
 20
17.21243993166226
 30
0.0
 11
37.85991031672596
 21
16.22818798166244
 31
0.0
  0
LINE
  5
4F2
330
1E
100
AcDbEntity
  8
OBJECT
100
AcDbLine
 10
38.90946170554617
 20
17.21243993166226
 30
0.0
 11
38.90946170554617
 21
16.22818798166244
 31
0.0
  0
LINE
  5
4F3
330
1E
100
AcDbEntity
  8
OBJECT
100
AcDbLine
 10
37.67081250187367
 20
18.82931395666234
 30
0.0
 11
37.9112037188247
 21
18.81250416524173
 31
0.0
  0
ARC
  5
4F4
330
1E
100
AcDbEntity
  8
OBJECT
100
AcDbCircle
 10
37.43453691687355
 20
18.7536478862764
 30
0.0
 40
0.059
100
AcDbArc
 50
94.00000000000018
 51
180.0
  0
LINE
  5
4F5
330
1E
100
AcDbEntity
  8
OBJECT
100
AcDbLine
 10
37.67081250187367
 20
18.82931395666234
 30
0.0
 11
37.43042128492265
 21
18.81250416524173
 31
0.0
  0
ARC
  5
4F6
330
1E
100
AcDbEntity
  8
OBJECT
100
AcDbCircle
 10
37.31653691687355
 20
18.6286280239781
 30
0.0
 40
0.059
100
AcDbArc
 50
276.8745318817853
 51
0.0000000000004962
  0
LINE
  5
4F7
330
1E
100
AcDbEntity
  8
OBJECT
100
AcDbLine
 10
37.37553691687355
 20
17.52740055566264
 30
0.0
 11
37.37553691687355
 21
18.7536478862764
 31
0.0
  0
ARC
  5
4F8
330
1E
100
AcDbEntity
  8
OBJECT
100
AcDbCircle
 10
37.9070880868738
 20
18.7536478862764
 30
0.0
 40
0.059
100
AcDbArc
 50
0.0000000000000509
 51
85.99999999999985
  0
LINE
  5
4F9
330
1E
100
AcDbEntity
  8
OBJECT
100
AcDbLine
 10
42.00052108187433
 20
18.50931395666234
 30
0.0
 11
42.00052108187433
 21
18.45429987768959
 31
0.0
  0
LWPOLYLINE
  5
4FA
330
1E
100
AcDbEntity
  8
BEND
100
AcDbPolyline
 90
       14
 70
     0
 43
0.0
 10
36.19179761237883
 20
13.18931395666235
 10
36.87169305376833
 20
13.18931395666235
 10
36.9632999055836
 20
13.35083445289793
 10
37.00401406194594
 20
13.05575879508194
 10
37.07526383558004
 20
13.18931395666235
 10
38.97127307138224
 20
13.18931395666235
 10
39.0628799231975
 20
13.35083445289793
 10
39.10359407955985
 20
13.05575879508194
 10
39.17484385319395
 20
13.18931395666235
 10
41.26531538335718
 20
13.18931395666233
 10
41.35692223517245
 20
13.35083445289793
 10
41.3976363915348
 20
13.05575879508194
 10
41.46888616516889
 20
13.18931395666235
 10
42.3550682985722
 20
13.18931395666235
  0
LINE
  5
50A
330
1E
100
AcDbEntity
  8
OBJECT
100
AcDbLine
 10
37.67081250187367
 20
8.021813956662336
 30
0.0
 11
37.67081250187367
 21
7.801313956662346
 31
0.0
  0
LINE
  5
50B
330
1E
100
AcDbEntity
  8
OBJECT
100
AcDbLine
 10
38.54781250187368
 20
13.18931395666235
 30
0.0
 11
38.54781250187366
 21
7.967227383648435
 31
0.0
  0
LINE
  5
50C
330
1E
100
AcDbEntity
  8
OBJECT
100
AcDbLine
 10
38.39981250187367
 20
8.969313956662334
 30
0.0
 11
38.39981250187367
 21
8.891313956662335
 31
0.0
  0
LWPOLYLINE
  5
50D
330
1E
100
AcDbEntity
  8
HIDDEN
100
AcDbPolyline
 90
        3
 70
     0
 43
0.0
 10
38.54781250187367
 20
9.948313956662337
 10
38.85881250187368
 20
9.948313956662337
 10
38.85881250187368
 20
9.92297640774545
  0
LWPOLYLINE
  5
512
330
1E
100
AcDbEntity
  8
OBJECT
100
AcDbPolyline
 90
        4
 70
     0
 43
0.0
 10
38.54781250187367
 20
9.40240844966226
 10
38.85881250187368
 20
9.402408449662258
 10
38.85881250187368
 20
9.914219463662425
 10
38.54781250187367
 20
9.914219463662425
  0
LWPOLYLINE
  5
518
330
1E
100
AcDbEntity
  8
HIDDEN
100
AcDbPolyline
 90
        3
 70
     0
 43
0.0
 10
38.54781250187367
 20
9.368313956662339
 10
38.85881250187368
 20
9.368313956662339
 10
38.85881250187368
 20
9.393651505579226
  0
LINE
  5
51D
330
1E
100
AcDbEntity
  8
OBJECT
100
AcDbLine
 10
38.14081250187368
 20
13.18931395666235
 30
0.0
 11
38.14081250187368
 21
8.459313956662334
 31
0.0
  0
LINE
  5
51E
330
1E
100
AcDbEntity
  8
OBJECT
100
AcDbLine
 10
38.14081250187368
 20
8.459313956662334
 30
0.0
 11
37.84481250187368
 21
8.459313956662334
 31
0.0
  0
LINE
  5
51F
330
1E
100
AcDbEntity
  8
OBJECT
100
AcDbLine
 10
37.84481250187368
 20
8.459313956662334
 30
0.0
 11
37.84481250187368
 21
8.133313956662336
 31
0.0
  0
LINE
  5
520
330
1E
100
AcDbEntity
  8
OBJECT
100
AcDbLine
 10
38.54781250187366
 20
8.133313956662334
 30
0.0
 11
37.84481250187368
 21
8.133313956662336
 31
0.0
  0
LINE
  5
521
330
1E
100
AcDbEntity
  8
OBJECT
100
AcDbLine
 10
38.39981250187367
 20
8.133313956662334
 30
0.0
 11
38.14081250187368
 21
8.459313956662334
 31
0.0
  0
LINE
  5
522
330
1E
100
AcDbEntity
  8
OBJECT
100
AcDbLine
 10
37.95581250187367
 20
10.17331395666235
 30
0.0
 11
37.71781250187367
 21
10.17331395666235
 31
0.0
  0
LINE
  5
523
330
1E
100
AcDbEntity
  8
OBJECT
100
AcDbLine
 10
37.95581250187367
 20
9.143313956662343
 30
0.0
 11
37.71781250187367
 21
9.143313956662343
 31
0.0
  0
LINE
  5
524
330
1E
100
AcDbEntity
  8
OBJECT
100
AcDbLine
 10
37.95581250187367
 20
10.17331395666235
 30
0.0
 11
37.95581250187367
 21
9.143313956662343
 31
0.0
  0
LINE
  5
525
330
1E
100
AcDbEntity
  8
OBJECT
100
AcDbLine
 10
38.39981250187367
 20
8.891313956662335
 30
0.0
 11
38.14081250187368
 21
8.891313956662335
 31
0.0
  0
LINE
  5
526
330
1E
100
AcDbEntity
  8
OBJECT
100
AcDbLine
 10
38.39981250187367
 20
8.969313956662334
 30
0.0
 11
38.14081250187368
 21
8.969313956662332
 31
0.0
  0
LINE
  5
527
330
1E
100
AcDbEntity
  8
OBJECT
100
AcDbLine
 10
38.39981250187367
 20
9.657313956662335
 30
0.0
 11
38.14081250187368
 21
9.657313956662333
 31
0.0
  0
LINE
  5
528
330
1E
100
AcDbEntity
  8
OBJECT
100
AcDbLine
 10
38.39981250187367
 20
9.579313956662335
 30
0.0
 11
38.14081250187368
 21
9.579313956662335
 31
0.0
  0
LINE
  5
529
330
1E
100
AcDbEntity
  8
OBJECT
100
AcDbLine
 10
38.39981250187367
 20
9.657313956662335
 30
0.0
 11
38.39981250187367
 21
9.579313956662335
 31
0.0
  0
LINE
  5
52A
330
1E
100
AcDbEntity
  8
OBJECT
100
AcDbLine
 10
38.39981250187367
 20
10.46931395666233
 30
0.0
 11
38.39981250187367
 21
10.39131395666233
 31
0.0
  0
LINE
  5
52B
330
1E
100
AcDbEntity
  8
OBJECT
100
AcDbLine
 10
38.39981250187367
 20
10.39131395666233
 30
0.0
 11
38.14081250187368
 21
10.39131395666233
 31
0.0
  0
LINE
  5
52C
330
1E
100
AcDbEntity
  8
OBJECT
100
AcDbLine
 10
38.39981250187367
 20
10.46931395666233
 30
0.0
 11
38.14081250187368
 21
10.46931395666233
 31
0.0
  0
LINE
  5
52D
330
1E
100
AcDbEntity
  8
OBJECT
100
AcDbLine
 10
38.39981250187367
 20
11.28131395666233
 30
0.0
 11
38.39981250187367
 21
11.20331395666233
 31
0.0
  0
LINE
  5
52E
330
1E
100
AcDbEntity
  8
OBJECT
100
AcDbLine
 10
38.39981250187367
 20
11.20331395666233
 30
0.0
 11
38.14081250187368
 21
11.20331395666233
 31
0.0
  0
LINE
  5
52F
330
1E
100
AcDbEntity
  8
OBJECT
100
AcDbLine
 10
38.39981250187367
 20
11.28131395666233
 30
0.0
 11
38.14081250187368
 21
11.28131395666233
 31
0.0
  0
LINE
  5
530
330
1E
100
AcDbEntity
  8
OBJECT
100
AcDbLine
 10
38.39981250187367
 20
12.09331395666233
 30
0.0
 11
38.14081250187368
 21
12.09331395666233
 31
0.0
  0
LINE
  5
531
330
1E
100
AcDbEntity
  8
OBJECT
100
AcDbLine
 10
38.39981250187367
 20
12.01531395666233
 30
0.0
 11
38.14081250187368
 21
12.01531395666233
 31
0.0
  0
LINE
  5
532
330
1E
100
AcDbEntity
  8
OBJECT
100
AcDbLine
 10
38.39981250187367
 20
12.09331395666233
 30
0.0
 11
38.39981250187367
 21
12.01531395666233
 31
0.0
  0
LINE
  5
533
330
1E
100
AcDbEntity
  8
OBJECT
100
AcDbLine
 10
38.39981250187367
 20
12.90531395666233
 30
0.0
 11
38.39981250187367
 21
12.82731395666233
 31
0.0
  0
LINE
  5
534
330
1E
100
AcDbEntity
  8
OBJECT
100
AcDbLine
 10
38.39981250187367
 20
12.82731395666233
 30
0.0
 11
38.14081250187368
 21
12.82731395666233
 31
0.0
  0
LINE
  5
535
330
1E
100
AcDbEntity
  8
OBJECT
100
AcDbLine
 10
38.39981250187367
 20
12.90531395666233
 30
0.0
 11
38.14081250187368
 21
12.90531395666233
 31
0.0
  0
CIRCLE
  5
536
330
1E
100
AcDbEntity
  8
OBJECT
100
AcDbCircle
 10
17.41164446279854
 20
17.61931395666233
 30
0.0
 40
0.222
  0
CIRCLE
  5
537
330
1E
100
AcDbEntity
  8
OBJECT
100
AcDbCircle
 10
17.41164446279854
 20
8.759313956662337
 30
0.0
 40
0.222
  0
LWPOLYLINE
  5
538
330
1E
100
AcDbEntity
  8
OBJECT
100
AcDbPolyline
 90
        8
 70
     1
 43
0.0
 10
14.61901454079858
 20
18.42031395666274
 42
0.4142135623730948
 10
14.57964446279853
 20
18.38094387866274
 10
14.57964446279858
 20
7.997684034662837
 42
0.4142135623730951
 10
14.61901454079858
 20
7.958313956662335
 10
21.19027438479849
 20
7.958313956662335
 42
0.4142135623730951
 10
21.22964446279849
 20
7.997684034662837
 10
21.22964446279854
 20
18.38094387866274
 42
0.4142135623730951
 10
21.19027438479849
 20
18.42031395666274
  0
LWPOLYLINE
  5
542
330
1E
100
AcDbEntity
  8
OBJECT
100
AcDbPolyline
 90
        8
 70
     1
 43
0.0
 10
21.38712477479849
 20
18.38094387866274
 42
0.4142135623730951
 10
21.19027438479849
 20
18.57779426866251
 10
14.61901454079858
 20
18.57779426866273
 42
0.4142135623730948
 10
14.42216415079834
 20
18.38094387866274
 10
14.42216415079834
 20
7.997684034662837
 42
0.4142135623730951
 10
14.61901454079858
 20
7.800833644662843
 10
21.19027438479849
 20
7.800833644663056
 42
0.4142135623730951
 10
21.38712477479849
 20
7.997684034662837
  0
LWPOLYLINE
  5
54C
330
1E
100
AcDbEntity
  8
OBJECT
100
AcDbPolyline
 90
        8
 70
     1
 43
0.0
 10
21.48712477479849
 20
18.38094387866263
 42
0.4142135623730857
 10
21.19027438479861
 20
18.67779426866252
 10
14.61901454079847
 20
18.67779426866274
 42
0.4142135623731049
 10
14.32216415079834
 20
18.38094387866262
 10
14.32216415079834
 20
7.997684034662958
 42
0.4142135623731058
 10
14.61901454079847
 20
7.700833644662841
 10
21.19027438479861
 20
7.700833644663061
 42
0.4142135623729219
 10
21.48712477479849
 20
7.997684034662837
  0
LWPOLYLINE
  5
556
330
1E
100
AcDbEntity
  8
OBJECT
100
AcDbPolyline
 90
       28
 70
     0
 43
0.0
 10
14.32216415079835
 20
17.21243993166269
 10
13.97029407279829
 20
17.21243993166269
 10
13.9702940727983
 20
17.46827953286067
 42
0.241531361058956
 10
14.16714446279842
 20
17.85201158646584
 10
14.16714446279853
 20
18.39624309866233
 42
-0.4142135623730951
 10
14.60021532079853
 20
18.82931395666233
 10
21.20907360479854
 20
18.82931395666233
 42
-0.4142135623730951
 10
21.64214446279854
 20
18.39624309866233
 10
21.64214446279854
 20
17.21243993166224
 10
21.61708934579869
 20
17.21243993166224
 10
21.61708934579869
 20
16.22818798166242
 10
21.64214446279854
 20
16.22818798166243
 10
21.64214446279853
 20
12.03870304266254
 42
0.3236437854432928
 10
21.89961733278779
 20
11.68259579236926
 42
-0.7051781285480231
 10
21.88292274064544
 20
11.16008130613384
 42
0.31063841825816
 10
21.64214446279853
 20
10.80992487066212
 10
21.64214446279853
 20
10.1934399316627
 10
21.61708934579869
 20
10.1934399316627
 10
21.61708934579869
 20
9.123187981661976
 10
21.64214446279853
 20
9.123187981661976
 10
21.64214446279854
 20
7.982384814662337
 42
-0.4142135623730951
 10
21.20907360479854
 20
7.549313956662336
 10
14.60021532079853
 20
7.549313956662336
 42
-0.4142135623730951
 10
14.16714446279853
 20
7.982384814662337
 10
14.16714446279842
 20
8.526616326858826
 42
0.241531361058956
 10
13.9702940727983
 20
8.910348380463998
 10
13.97029407279829
 20
9.166187981661975
 10
14.32216415079835
 20
9.166187981661975
  0
LINE
  5
574
330
1E
100
AcDbEntity
  8
CENTER
100
AcDbLine
 10
13.81555214424177
 20
13.18931395666234
 30
0.0
 11
21.90456797180675
 21
13.18931395666234
 31
0.0
  0
LINE
  5
575
330
1E
100
AcDbEntity
  8
OBJECT
100
AcDbLine
 10
14.91961690429861
 20
11.92953318516553
 30
0.0
 11
14.91961690429861
 21
12.47709472815914
 31
0.0
  0
LINE
  5
576
330
1E
100
AcDbEntity
  8
OBJECT
100
AcDbLine
 10
14.98967202129844
 20
11.92953318516553
 30
0.0
 11
14.98967202129845
 21
12.47709472815914
 31
0.0
  0
LWPOLYLINE
  5
577
330
1E
100
AcDbEntity
  8
OBJECT
100
AcDbPolyline
 90
        8
 70
     0
 43
0.0
 10
14.32216415079835
 20
10.1504399316627
 10
13.97029407279829
 20
10.1504399316627
 10
13.97029407279829
 20
10.40627953285976
 42
0.2415313610589597
 10
14.16714446279853
 20
10.79001158646494
 10
14.16714446279853
 20
15.58861632685963
 42
0.2415313610589597
 10
13.97029407279829
 20
15.97234838046491
 10
13.97029407279829
 20
16.22818798166197
 10
14.32216415079835
 20
16.22818798166197
  0
ARC
  5
581
330
1E
100
AcDbEntity
  8
OBJECT
100
AcDbCircle
 10
14.82964446279853
 20
8.211813956662338
 30
0.0
 40
0.2875
100
AcDbArc
 50
298.1471294189713
 51
150.4081542060492
  0
LWPOLYLINE
  5
582
330
1E
100
AcDbEntity
  8
OBJECT
100
AcDbPolyline
 90
        4
 70
     0
 43
0.0
 10
14.57964446279857
 20
9.402408449662258
 10
14.52058934579873
 20
9.368313956662339
 10
14.52058934579873
 20
9.948313956662337
 10
14.57964446279857
 20
9.914219463662417
  0
LINE
  5
588
330
1E
100
AcDbEntity
  8
OBJECT
100
AcDbLine
 10
14.03919170929826
 20
10.1504399316627
 30
0.0
 11
14.03919170929826
 21
9.166187981661975
 31
0.0
  0
LINE
  5
589
330
1E
100
AcDbEntity
  8
OBJECT
100
AcDbLine
 10
14.1769869822982
 20
10.1504399316627
 30
0.0
 11
14.1769869822982
 21
9.166187981661975
 31
0.0
  0
CIRCLE
  5
58A
330
1E
100
AcDbEntity
  8
OBJECT
100
AcDbCircle
 10
14.95464446279854
 20
9.738313956662336
 30
0.0
 40
0.222
  0
CIRCLE
  5
58B
330
1E
100
AcDbEntity
  8
OBJECT
100
AcDbCircle
 10
14.95464446279854
 20
9.738313956662336
 30
0.0
 40
0.085
  0
LINE
  5
58C
330
1E
100
AcDbEntity
  8
OBJECT
100
AcDbLine
 10
15.8060675438419
 20
8.927447191664944
 30
0.0
 11
16.20652308905497
 21
8.794948540548395
 31
0.0
  0
LINE
  5
58D
330
1E
100
AcDbEntity
  8
OBJECT
100
AcDbLine
 10
15.82805608706621
 20
8.993903974365222
 30
0.0
 11
16.22851163227928
 21
8.861405323248673
 31
0.0
  0
ARC
  5
58F
330
1E
100
AcDbEntity
  8
OBJECT
100
AcDbCircle
 10
14.82964446279853
 20
8.211813956662338
 30
0.0
 40
0.2875
100
AcDbArc
 50
209.5918457939506
 51
241.8528705810286
  0
LINE
  5
590
330
1E
100
AcDbEntity
  8
OBJECT
100
AcDbLine
 10
15.0710219616482
 20
9.549262964172219
 30
0.0
 11
15.33357011667219
 21
9.243881509131638
 31
0.0
  0
LINE
  5
591
330
1E
100
AcDbEntity
  8
OBJECT
100
AcDbLine
 10
15.12410179013881
 20
9.594897729509709
 30
0.0
 11
15.38664994516279
 21
9.289516274469127
 31
0.0
  0
CIRCLE
  5
592
330
1E
100
AcDbEntity
  8
HIDDEN
100
AcDbCircle
 10
15.54614446279854
 20
9.050313956662334
 30
0.0
 40
0.0985
  0
CIRCLE
  5
593
330
1E
100
AcDbEntity
  8
OBJECT
100
AcDbCircle
 10
15.54614446279854
 20
9.050313956662334
 30
0.0
 40
0.0835
  0
CIRCLE
  5
594
330
1E
100
AcDbEntity
  8
OBJECT
100
AcDbCircle
 10
15.54614446279854
 20
9.050313956662334
 30
0.0
 40
0.2875
  0
CIRCLE
  5
595
330
1E
100
AcDbEntity
  8
OBJECT
100
AcDbCircle
 10
16.42564446279853
 20
8.759313956662337
 30
0.0
 40
0.222
  0
CIRCLE
  5
596
330
1E
100
AcDbEntity
  8
OBJECT
100
AcDbCircle
 10
16.42564446279853
 20
8.759313956662337
 30
0.0
 40
0.085
  0
LINE
  5
597
330
1E
100
AcDbEntity
  8
OBJECT
100
AcDbLine
 10
17.19242523429542
 20
8.794341515162711
 30
0.0
 11
16.64486369130165
 21
8.794341515162711
 31
0.0
  0
LINE
  5
598
330
1E
100
AcDbEntity
  8
OBJECT
100
AcDbLine
 10
17.19242523429527
 20
8.724286398162865
 30
0.0
 11
16.6448636913018
 21
8.724286398162865
 31
0.0
  0
LINE
  5
599
330
1E
100
AcDbEntity
  8
OBJECT
100
AcDbLine
 10
14.91961690429861
 20
10.94353318516552
 30
0.0
 11
14.91961690429861
 21
11.49109472815914
 31
0.0
  0
LINE
  5
59A
330
1E
100
AcDbEntity
  8
OBJECT
100
AcDbLine
 10
14.98967202129844
 20
10.94353318516553
 30
0.0
 11
14.98967202129844
 21
11.49109472815913
 31
0.0
  0
LINE
  5
59B
330
1E
100
AcDbEntity
  8
OBJECT
100
AcDbLine
 10
14.98967202129843
 20
9.957533185165514
 30
0.0
 11
14.98967202129844
 21
10.50509472815914
 31
0.0
  0
LINE
  5
59C
330
1E
100
AcDbEntity
  8
OBJECT
100
AcDbLine
 10
14.91961690429861
 20
9.957533185165514
 30
0.0
 11
14.91961690429861
 21
10.50509472815914
 31
0.0
  0
CIRCLE
  5
59D
330
1E
100
AcDbEntity
  8
OBJECT
100
AcDbCircle
 10
14.95464446279854
 20
10.72431395666233
 30
0.0
 40
0.085
  0
CIRCLE
  5
59E
330
1E
100
AcDbEntity
  8
OBJECT
100
AcDbCircle
 10
14.95464446279854
 20
10.72431395666233
 30
0.0
 40
0.222
  0
CIRCLE
  5
59F
330
1E
100
AcDbEntity
  8
OBJECT
100
AcDbCircle
 10
14.95464446279854
 20
11.71031395666233
 30
0.0
 40
0.222
  0
CIRCLE
  5
5A0
330
1E
100
AcDbEntity
  8
OBJECT
100
AcDbCircle
 10
14.95464446279854
 20
11.71031395666233
 30
0.0
 40
0.085
  0
LWPOLYLINE
  5
5A1
330
1E
100
AcDbEntity
  8
OBJECT
100
AcDbPolyline
 90
        4
 70
     0
 43
0.0
 10
14.57964446279857
 20
16.97621946366241
 10
14.52058934579873
 20
17.01031395666234
 10
14.52058934579873
 20
16.43031395666234
 10
14.57964446279857
 20
16.46440844966225
  0
LINE
  5
5A7
330
1E
100
AcDbEntity
  8
OBJECT
100
AcDbLine
 10
14.03919170929826
 20
16.22818798166197
 30
0.0
 11
14.03919170929826
 21
17.21243993166269
 31
0.0
  0
LINE
  5
5A8
330
1E
100
AcDbEntity
  8
OBJECT
100
AcDbLine
 10
14.1769869822982
 20
16.22818798166197
 30
0.0
 11
14.1769869822982
 21
17.21243993166269
 31
0.0
  0
LINE
  5
5A9
330
1E
100
AcDbEntity
  8
OBJECT
100
AcDbLine
 10
14.91961690429861
 20
14.88753318516553
 30
0.0
 11
14.91961690429861
 21
15.43509472815915
 31
0.0
  0
LINE
  5
5AA
330
1E
100
AcDbEntity
  8
OBJECT
100
AcDbLine
 10
14.98967202129845
 20
14.88753318516553
 30
0.0
 11
14.98967202129845
 21
15.43509472815915
 31
0.0
  0
CIRCLE
  5
5AB
330
1E
100
AcDbEntity
  8
OBJECT
100
AcDbCircle
 10
14.95464446279854
 20
13.68231395666234
 30
0.0
 40
0.222
  0
LINE
  5
5AC
330
1E
100
AcDbEntity
  8
OBJECT
100
AcDbLine
 10
14.98967202129845
 20
12.91553318516553
 30
0.0
 11
14.98967202129845
 21
13.46309472815915
 31
0.0
  0
LINE
  5
5AD
330
1E
100
AcDbEntity
  8
OBJECT
100
AcDbLine
 10
14.91961690429861
 20
12.91553318516553
 30
0.0
 11
14.91961690429861
 21
13.46309472815915
 31
0.0
  0
CIRCLE
  5
5AE
330
1E
100
AcDbEntity
  8
OBJECT
100
AcDbCircle
 10
14.95464446279854
 20
13.68231395666234
 30
0.0
 40
0.085
  0
CIRCLE
  5
5AF
330
1E
100
AcDbEntity
  8
OBJECT
100
AcDbCircle
 10
14.95464446279854
 20
12.69631395666233
 30
0.0
 40
0.222
  0
CIRCLE
  5
5B0
330
1E
100
AcDbEntity
  8
OBJECT
100
AcDbCircle
 10
14.95464446279854
 20
12.69631395666233
 30
0.0
 40
0.085
  0
LINE
  5
5B1
330
1E
100
AcDbEntity
  8
OBJECT
100
AcDbLine
 10
14.98967202129845
 20
13.90153318516553
 30
0.0
 11
14.98967202129845
 21
14.44909472815914
 31
0.0
  0
LINE
  5
5B2
330
1E
100
AcDbEntity
  8
OBJECT
100
AcDbLine
 10
14.91961690429861
 20
13.90153318516553
 30
0.0
 11
14.91961690429861
 21
14.44909472815914
 31
0.0
  0
CIRCLE
  5
5B3
330
1E
100
AcDbEntity
  8
OBJECT
100
AcDbCircle
 10
14.95464446279854
 20
14.66831395666233
 30
0.0
 40
0.222
  0
CIRCLE
  5
5B4
330
1E
100
AcDbEntity
  8
OBJECT
100
AcDbCircle
 10
14.95464446279854
 20
14.66831395666233
 30
0.0
 40
0.085
  0
LINE
  5
5B5
330
1E
100
AcDbEntity
  8
OBJECT
100
AcDbLine
 10
15.82805608706621
 20
17.38472393895944
 30
0.0
 11
16.22851163227928
 21
17.51722259007599
 31
0.0
  0
LINE
  5
5B6
330
1E
100
AcDbEntity
  8
OBJECT
100
AcDbLine
 10
15.8060675438419
 20
17.45118072165972
 30
0.0
 11
16.20652308905497
 21
17.58367937277627
 31
0.0
  0
CIRCLE
  5
5B7
330
1E
100
AcDbEntity
  8
OBJECT
100
AcDbCircle
 10
14.95464446279854
 20
16.64031395666233
 30
0.0
 40
0.222
  0
LINE
  5
5B8
330
1E
100
AcDbEntity
  8
OBJECT
100
AcDbLine
 10
14.98967202129845
 20
15.87353318516553
 30
0.0
 11
14.98967202129846
 21
16.42109472815914
 31
0.0
  0
LINE
  5
5B9
330
1E
100
AcDbEntity
  8
OBJECT
100
AcDbLine
 10
14.91961690429861
 20
15.87353318516553
 30
0.0
 11
14.91961690429861
 21
16.42109472815914
 31
0.0
  0
CIRCLE
  5
5BA
330
1E
100
AcDbEntity
  8
OBJECT
100
AcDbCircle
 10
14.95464446279854
 20
15.65431395666234
 30
0.0
 40
0.222
  0
CIRCLE
  5
5BB
330
1E
100
AcDbEntity
  8
OBJECT
100
AcDbCircle
 10
14.95464446279854
 20
15.65431395666234
 30
0.0
 40
0.085
  0
LINE
  5
5BC
330
1E
100
AcDbEntity
  8
OBJECT
100
AcDbLine
 10
15.12410179013881
 20
16.78373018381495
 30
0.0
 11
15.38664994516279
 21
17.08911163885553
 31
0.0
  0
LINE
  5
5BD
330
1E
100
AcDbEntity
  8
OBJECT
100
AcDbLine
 10
15.0710219616482
 20
16.82936494915244
 30
0.0
 11
15.33357011667219
 21
17.13474640419303
 31
0.0
  0
CIRCLE
  5
5BE
330
1E
100
AcDbEntity
  8
OBJECT
100
AcDbCircle
 10
14.95464446279854
 20
16.64031395666233
 30
0.0
 40
0.085
  0
CIRCLE
  5
5BF
330
1E
100
AcDbEntity
  8
HIDDEN
100
AcDbCircle
 10
15.54614446279854
 20
17.32831395666234
 30
0.0
 40
0.0985
  0
CIRCLE
  5
5C0
330
1E
100
AcDbEntity
  8
OBJECT
100
AcDbCircle
 10
15.54614446279854
 20
17.32831395666234
 30
0.0
 40
0.0835
  0
CIRCLE
  5
5C1
330
1E
100
AcDbEntity
  8
OBJECT
100
AcDbCircle
 10
15.54614446279854
 20
17.32831395666234
 30
0.0
 40
0.2875
  0
CIRCLE
  5
5C2
330
1E
100
AcDbEntity
  8
OBJECT
100
AcDbCircle
 10
16.42564446279853
 20
17.61931395666233
 30
0.0
 40
0.222
  0
CIRCLE
  5
5C3
330
1E
100
AcDbEntity
  8
OBJECT
100
AcDbCircle
 10
16.42564446279853
 20
17.61931395666233
 30
0.0
 40
0.085
  0
LINE
  5
5C4
330
1E
100
AcDbEntity
  8
OBJECT
100
AcDbLine
 10
17.19242523429527
 20
17.65434151516179
 30
0.0
 11
16.6448636913018
 21
17.65434151516179
 31
0.0
  0
LINE
  5
5C5
330
1E
100
AcDbEntity
  8
OBJECT
100
AcDbLine
 10
17.19242523429542
 20
17.58428639816196
 30
0.0
 11
16.64486369130165
 21
17.58428639816196
 31
0.0
  0
ARC
  5
5C6
330
1E
100
AcDbEntity
  8
OBJECT
100
AcDbCircle
 10
14.82964446279853
 20
18.16681395666233
 30
0.0
 40
0.2875
100
AcDbArc
 50
209.5918457939506
 51
61.85287058102786
  0
ARC
  5
5C7
330
1E
100
AcDbEntity
  8
OBJECT
100
AcDbCircle
 10
14.82964446279853
 20
18.16681395666233
 30
0.0
 40
0.2875
100
AcDbArc
 50
118.1471294189721
 51
150.4081542060492
  0
LINE
  5
5C9
330
1E
100
AcDbEntity
  8
CENTER
100
AcDbLine
 10
17.90464446279854
 20
7.242443085177475
 30
0.0
 11
17.90464446279854
 21
19.23488516231905
 31
0.0
  0
LINE
  5
5CA
330
1E
100
AcDbEntity
  8
OBJECT
100
AcDbLine
 10
20.81961690429863
 20
11.92953318516553
 30
0.0
 11
20.81961690429863
 21
12.47709472815914
 31
0.0
  0
LINE
  5
5CB
330
1E
100
AcDbEntity
  8
OBJECT
100
AcDbLine
 10
20.88967202129846
 20
11.92953318516553
 30
0.0
 11
20.88967202129846
 21
12.47709472815914
 31
0.0
  0
CIRCLE
  5
5CC
330
1E
100
AcDbEntity
  8
OBJECT
100
AcDbCircle
 10
20.26314446279853
 20
9.050313956662334
 30
0.0
 40
0.2875
  0
LINE
  5
5CD
330
1E
100
AcDbEntity
  8
OBJECT
100
AcDbLine
 10
19.16442523429545
 20
8.794341515162711
 30
0.0
 11
18.61686369130166
 21
8.794341515162711
 31
0.0
  0
LINE
  5
5CE
330
1E
100
AcDbEntity
  8
OBJECT
100
AcDbLine
 10
19.1644252342953
 20
8.724286398162865
 30
0.0
 11
18.61686369130181
 21
8.724286398162865
 31
0.0
  0
LWPOLYLINE
  5
5CF
330
1E
100
AcDbEntity
  8
OBJECT
100
AcDbPolyline
 90
        4
 70
     0
 43
0.0
 10
17.64873895579846
 20
7.958313956662335
 10
17.61464446279854
 20
7.899258839662492
 10
18.19464446279854
 20
7.899258839662492
 10
18.16054996979862
 20
7.958313956662335
  0
LINE
  5
5D5
330
1E
100
AcDbEntity
  8
OBJECT
100
AcDbLine
 10
18.17842523429542
 20
8.794341515162711
 30
0.0
 11
17.63086369130166
 21
8.794341515162711
 31
0.0
  0
LINE
  5
5D6
330
1E
100
AcDbEntity
  8
OBJECT
100
AcDbLine
 10
18.17842523429527
 20
8.724286398162865
 30
0.0
 11
17.6308636913018
 21
8.724286398162865
 31
0.0
  0
CIRCLE
  5
5D7
330
1E
100
AcDbEntity
  8
OBJECT
100
AcDbCircle
 10
17.41164446279854
 20
8.759313956662337
 30
0.0
 40
0.085
  0
CIRCLE
  5
5D8
330
1E
100
AcDbEntity
  8
OBJECT
100
AcDbCircle
 10
18.39764446279853
 20
8.759313956662337
 30
0.0
 40
0.085
  0
CIRCLE
  5
5D9
330
1E
100
AcDbEntity
  8
OBJECT
100
AcDbCircle
 10
18.39764446279853
 20
8.759313956662337
 30
0.0
 40
0.222
  0
CIRCLE
  5
5DA
330
1E
100
AcDbEntity
  8
OBJECT
100
AcDbCircle
 10
19.38364446279854
 20
8.759313956662337
 30
0.0
 40
0.085
  0
CIRCLE
  5
5DB
330
1E
100
AcDbEntity
  8
OBJECT
100
AcDbCircle
 10
19.38364446279854
 20
8.759313956662337
 30
0.0
 40
0.222
  0
LINE
  5
5DC
330
1E
100
AcDbEntity
  8
OBJECT
100
AcDbLine
 10
19.98123283853086
 20
8.993903974365222
 30
0.0
 11
19.58077729331779
 21
8.861405323248673
 31
0.0
  0
LINE
  5
5DD
330
1E
100
AcDbEntity
  8
OBJECT
100
AcDbLine
 10
20.00322138175517
 20
8.927447191664944
 30
0.0
 11
19.60276583654211
 21
8.794948540548395
 31
0.0
  0
LWPOLYLINE
  5
5DE
330
1E
100
AcDbEntity
  8
OBJECT
100
AcDbPolyline
 90
        4
 70
     0
 43
0.0
 10
21.2296444627985
 20
9.402408449662258
 10
21.28869957979834
 20
9.368313956662339
 10
21.28869957979834
 20
9.948313956662337
 10
21.2296444627985
 20
9.914219463662417
  0
CIRCLE
  5
5E4
330
1E
100
AcDbEntity
  8
OBJECT
100
AcDbCircle
 10
20.85464446279853
 20
9.738313956662336
 30
0.0
 40
0.085
  0
CIRCLE
  5
5E5
330
1E
100
AcDbEntity
  8
OBJECT
100
AcDbCircle
 10
20.85464446279853
 20
9.738313956662336
 30
0.0
 40
0.222
  0
ARC
  5
5E6
330
1E
100
AcDbEntity
  8
OBJECT
100
AcDbCircle
 10
20.97964446279854
 20
8.211813956662338
 30
0.0
 40
0.2875
100
AcDbArc
 50
29.59184579394958
 51
241.852870581029
  0
ARC
  5
5E7
330
1E
100
AcDbEntity
  8
OBJECT
100
AcDbCircle
 10
20.97964446279854
 20
8.211813956662338
 30
0.0
 40
0.2875
100
AcDbArc
 50
298.1471294189709
 51
330.4081542060504
  0
LINE
  5
5E9
330
1E
100
AcDbEntity
  8
OBJECT
100
AcDbLine
 10
20.73826696394887
 20
9.549262964172219
 30
0.0
 11
20.47571880892488
 21
9.243881509131638
 31
0.0
  0
LINE
  5
5EA
330
1E
100
AcDbEntity
  8
OBJECT
100
AcDbLine
 10
20.68518713545827
 20
9.594897729509709
 30
0.0
 11
20.42263898043427
 21
9.289516274469127
 31
0.0
  0
CIRCLE
  5
5EB
330
1E
100
AcDbEntity
  8
HIDDEN
100
AcDbCircle
 10
20.26314446279853
 20
9.050313956662334
 30
0.0
 40
0.0985
  0
CIRCLE
  5
5EC
330
1E
100
AcDbEntity
  8
OBJECT
100
AcDbCircle
 10
20.26314446279853
 20
9.050313956662334
 30
0.0
 40
0.0835
  0
LINE
  5
5ED
330
1E
100
AcDbEntity
  8
OBJECT
100
AcDbLine
 10
20.81961690429864
 20
10.94353318516553
 30
0.0
 11
20.81961690429863
 21
11.49109472815913
 31
0.0
  0
LINE
  5
5EE
330
1E
100
AcDbEntity
  8
OBJECT
100
AcDbLine
 10
20.88967202129846
 20
10.94353318516552
 30
0.0
 11
20.88967202129846
 21
11.49109472815914
 31
0.0
  0
CIRCLE
  5
5EF
330
1E
100
AcDbEntity
  8
OBJECT
100
AcDbCircle
 10
20.85464446279853
 20
10.72431395666233
 30
0.0
 40
0.085
  0
CIRCLE
  5
5F0
330
1E
100
AcDbEntity
  8
OBJECT
100
AcDbCircle
 10
20.85464446279853
 20
10.72431395666233
 30
0.0
 40
0.222
  0
LINE
  5
5F1
330
1E
100
AcDbEntity
  8
OBJECT
100
AcDbLine
 10
20.81961690429864
 20
9.957533185165514
 30
0.0
 11
20.81961690429864
 21
10.50509472815914
 31
0.0
  0
LINE
  5
5F2
330
1E
100
AcDbEntity
  8
OBJECT
100
AcDbLine
 10
20.88967202129846
 20
9.957533185165514
 30
0.0
 11
20.88967202129846
 21
10.50509472815914
 31
0.0
  0
CIRCLE
  5
5F3
330
1E
100
AcDbEntity
  8
OBJECT
100
AcDbCircle
 10
20.85464446279853
 20
11.71031395666233
 30
0.0
 40
0.085
  0
CIRCLE
  5
5F4
330
1E
100
AcDbEntity
  8
OBJECT
100
AcDbCircle
 10
20.85464446279853
 20
11.71031395666233
 30
0.0
 40
0.222
  0
CIRCLE
  5
5F5
330
1E
100
AcDbEntity
  8
OBJECT
100
AcDbCircle
 10
21.79814446279853
 20
11.42431395666233
 30
0.0
 40
0.1125
  0
CIRCLE
  5
5F6
330
1E
100
AcDbEntity
  8
OBJECT
100
AcDbCircle
 10
20.26314446279853
 20
17.32831395666234
 30
0.0
 40
0.2875
  0
LINE
  5
5F7
330
1E
100
AcDbEntity
  8
OBJECT
100
AcDbLine
 10
19.16442523429545
 20
17.58428639816196
 30
0.0
 11
18.61686369130166
 21
17.58428639816196
 31
0.0
  0
LINE
  5
5F8
330
1E
100
AcDbEntity
  8
OBJECT
100
AcDbLine
 10
19.1644252342953
 20
17.65434151516179
 30
0.0
 11
18.61686369130181
 21
17.65434151516179
 31
0.0
  0
LINE
  5
5F9
330
1E
100
AcDbEntity
  8
OBJECT
100
AcDbLine
 10
18.17842523429527
 20
17.65434151516179
 30
0.0
 11
17.6308636913018
 21
17.65434151516179
 31
0.0
  0
LINE
  5
5FA
330
1E
100
AcDbEntity
  8
OBJECT
100
AcDbLine
 10
18.17842523429542
 20
17.58428639816196
 30
0.0
 11
17.63086369130166
 21
17.58428639816196
 31
0.0
  0
CIRCLE
  5
5FB
330
1E
100
AcDbEntity
  8
OBJECT
100
AcDbCircle
 10
17.41164446279854
 20
17.61931395666233
 30
0.0
 40
0.085
  0
CIRCLE
  5
5FC
330
1E
100
AcDbEntity
  8
OBJECT
100
AcDbCircle
 10
18.39764446279853
 20
17.61931395666233
 30
0.0
 40
0.085
  0
CIRCLE
  5
5FD
330
1E
100
AcDbEntity
  8
OBJECT
100
AcDbCircle
 10
18.39764446279853
 20
17.61931395666233
 30
0.0
 40
0.222
  0
CIRCLE
  5
5FE
330
1E
100
AcDbEntity
  8
OBJECT
100
AcDbCircle
 10
19.38364446279854
 20
17.61931395666233
 30
0.0
 40
0.085
  0
CIRCLE
  5
5FF
330
1E
100
AcDbEntity
  8
OBJECT
100
AcDbCircle
 10
19.38364446279854
 20
17.61931395666233
 30
0.0
 40
0.222
  0
LINE
  5
600
330
1E
100
AcDbEntity
  8
OBJECT
100
AcDbLine
 10
20.00322138175517
 20
17.45118072165972
 30
0.0
 11
19.60276583654211
 21
17.58367937277627
 31
0.0
  0
LINE
  5
601
330
1E
100
AcDbEntity
  8
OBJECT
100
AcDbLine
 10
19.98123283853086
 20
17.38472393895944
 30
0.0
 11
19.58077729331779
 21
17.51722259007599
 31
0.0
  0
LINE
  5
602
330
1E
100
AcDbEntity
  8
OBJECT
100
AcDbLine
 10
20.81961690429862
 20
14.88753318516553
 30
0.0
 11
20.81961690429861
 21
15.43509472815915
 31
0.0
  0
LINE
  5
603
330
1E
100
AcDbEntity
  8
OBJECT
100
AcDbLine
 10
20.88967202129846
 20
14.88753318516553
 30
0.0
 11
20.88967202129846
 21
15.43509472815915
 31
0.0
  0
CIRCLE
  5
604
330
1E
100
AcDbEntity
  8
OBJECT
100
AcDbCircle
 10
20.85464446279853
 20
13.68231395666234
 30
0.0
 40
0.222
  0
CIRCLE
  5
605
330
1E
100
AcDbEntity
  8
OBJECT
100
AcDbCircle
 10
20.85464446279853
 20
12.69631395666233
 30
0.0
 40
0.085
  0
CIRCLE
  5
606
330
1E
100
AcDbEntity
  8
OBJECT
100
AcDbCircle
 10
20.85464446279853
 20
13.68231395666234
 30
0.0
 40
0.085
  0
CIRCLE
  5
607
330
1E
100
AcDbEntity
  8
OBJECT
100
AcDbCircle
 10
20.85464446279853
 20
12.69631395666233
 30
0.0
 40
0.222
  0
LINE
  5
608
330
1E
100
AcDbEntity
  8
OBJECT
100
AcDbLine
 10
20.81961690429863
 20
12.91553318516553
 30
0.0
 11
20.81961690429862
 21
13.46309472815915
 31
0.0
  0
LINE
  5
609
330
1E
100
AcDbEntity
  8
OBJECT
100
AcDbLine
 10
20.88967202129846
 20
12.91553318516553
 30
0.0
 11
20.88967202129846
 21
13.46309472815915
 31
0.0
  0
CIRCLE
  5
60A
330
1E
100
AcDbEntity
  8
OBJECT
100
AcDbCircle
 10
20.85464446279853
 20
14.66831395666233
 30
0.0
 40
0.085
  0
CIRCLE
  5
60B
330
1E
100
AcDbEntity
  8
OBJECT
100
AcDbCircle
 10
20.85464446279853
 20
14.66831395666233
 30
0.0
 40
0.222
  0
LINE
  5
60C
330
1E
100
AcDbEntity
  8
OBJECT
100
AcDbLine
 10
20.81961690429862
 20
13.90153318516553
 30
0.0
 11
20.81961690429862
 21
14.44909472815914
 31
0.0
  0
LINE
  5
60D
330
1E
100
AcDbEntity
  8
OBJECT
100
AcDbLine
 10
20.88967202129846
 20
13.90153318516553
 30
0.0
 11
20.88967202129846
 21
14.44909472815914
 31
0.0
  0
LWPOLYLINE
  5
60E
330
1E
100
AcDbEntity
  8
OBJECT
100
AcDbPolyline
 90
        4
 70
     0
 43
0.0
 10
21.2296444627985
 20
16.97621946366241
 10
21.28869957979834
 20
17.01031395666234
 10
21.28869957979834
 20
16.43031395666234
 10
21.2296444627985
 20
16.46440844966225
  0
CIRCLE
  5
614
330
1E
100
AcDbEntity
  8
OBJECT
100
AcDbCircle
 10
20.85464446279853
 20
16.64031395666233
 30
0.0
 40
0.222
  0
CIRCLE
  5
615
330
1E
100
AcDbEntity
  8
OBJECT
100
AcDbCircle
 10
20.85464446279853
 20
15.65431395666234
 30
0.0
 40
0.085
  0
CIRCLE
  5
616
330
1E
100
AcDbEntity
  8
OBJECT
100
AcDbCircle
 10
20.85464446279853
 20
15.65431395666234
 30
0.0
 40
0.222
  0
LINE
  5
617
330
1E
100
AcDbEntity
  8
OBJECT
100
AcDbLine
 10
20.88967202129846
 20
15.87353318516553
 30
0.0
 11
20.88967202129846
 21
16.42109472815914
 31
0.0
  0
LINE
  5
618
330
1E
100
AcDbEntity
  8
OBJECT
100
AcDbLine
 10
20.81961690429861
 20
15.87353318516553
 30
0.0
 11
20.81961690429861
 21
16.42109472815914
 31
0.0
  0
CIRCLE
  5
619
330
1E
100
AcDbEntity
  8
OBJECT
100
AcDbCircle
 10
20.85464446279853
 20
16.64031395666233
 30
0.0
 40
0.085
  0
LINE
  5
61A
330
1E
100
AcDbEntity
  8
OBJECT
100
AcDbLine
 10
20.73826696394887
 20
16.82936494915244
 30
0.0
 11
20.47571880892488
 21
17.13474640419303
 31
0.0
  0
LINE
  5
61B
330
1E
100
AcDbEntity
  8
OBJECT
100
AcDbLine
 10
20.68518713545827
 20
16.78373018381495
 30
0.0
 11
20.42263898043427
 21
17.08911163885553
 31
0.0
  0
CIRCLE
  5
61C
330
1E
100
AcDbEntity
  8
HIDDEN
100
AcDbCircle
 10
20.26314446279853
 20
17.32831395666234
 30
0.0
 40
0.0985
  0
CIRCLE
  5
61D
330
1E
100
AcDbEntity
  8
OBJECT
100
AcDbCircle
 10
20.26314446279853
 20
17.32831395666234
 30
0.0
 40
0.0835
  0
LWPOLYLINE
  5
61E
330
1E
100
AcDbEntity
  8
OBJECT
100
AcDbPolyline
 90
        4
 70
     0
 43
0.0
 10
17.64873895579846
 20
18.42031395666233
 10
17.61464446279854
 20
18.47936907366218
 10
18.19464446279854
 20
18.47936907366218
 10
18.16054996979862
 20
18.42031395666233
  0
ARC
  5
624
330
1E
100
AcDbEntity
  8
OBJECT
100
AcDbCircle
 10
20.97964446279854
 20
18.16681395666233
 30
0.0
 40
0.2875
100
AcDbArc
 50
118.1471294189721
 51
330.4081542060492
  0
ARC
  5
625
330
1E
100
AcDbEntity
  8
OBJECT
100
AcDbCircle
 10
20.97964446279854
 20
18.16681395666233
 30
0.0
 40
0.2875
100
AcDbArc
 50
29.5918457939507
 51
61.85287058102786
  0
LINE
  5
627
330
1E
100
AcDbEntity
  8
CENTER
100
AcDbLine
 10
4.79034978616909
 20
7.242443085177473
 30
0.0
 11
4.79034978616909
 21
19.14313327623711
 31
0.0
  0
LINE
  5
628
330
1E
100
AcDbEntity
  8
CENTER
100
AcDbLine
 10
0.7012574676123249
 20
13.18931395666233
 30
0.0
 11
8.790273295177303
 21
13.18931395666233
 31
0.0
  0
LWPOLYLINE
  5
629
330
1E
100
AcDbEntity
  8
OBJECT
100
AcDbPolyline
 90
       28
 70
     0
 43
0.0
 10
1.207869474168901
 20
17.21243993166269
 10
0.8559993961688467
 20
17.21243993166269
 10
0.8559993961688503
 20
17.46827953286067
 42
0.241531361058956
 10
1.052849786168972
 20
17.85201158646584
 10
1.052849786169082
 20
18.39624309866233
 42
-0.4142135623730951
 10
1.485920644169083
 20
18.82931395666233
 10
8.094778928169088
 20
18.82931395666233
 42
-0.4142135623730951
 10
8.527849786169088
 20
18.39624309866233
 10
8.527849786169088
 20
17.21243993166224
 10
8.502794669169244
 20
17.21243993166224
 10
8.502794669169244
 20
16.22818798166242
 10
8.527849786169088
 20
16.22818798166243
 10
8.527849786169081
 20
12.03870304266254
 42
0.3236437854432928
 10
8.785322656158346
 20
11.68259579236926
 42
-0.7051781285480231
 10
8.768628064015988
 20
11.16008130613384
 42
0.31063841825816
 10
8.527849786169081
 20
10.80992487066212
 10
8.527849786169081
 20
10.1934399316627
 10
8.502794669169237
 20
10.1934399316627
 10
8.502794669169237
 20
9.123187981661974
 10
8.527849786169081
 20
9.123187981661974
 10
8.527849786169088
 20
7.982384814662335
 42
-0.4142135623730951
 10
8.094778928169088
 20
7.549313956662334
 10
1.485920644169083
 20
7.549313956662334
 42
-0.4142135623730951
 10
1.052849786169082
 20
7.982384814662335
 10
1.052849786168972
 20
8.526616326858825
 42
0.241531361058956
 10
0.8559993961688503
 20
8.910348380463997
 10
0.8559993961688467
 20
9.166187981661973
 10
1.207869474168901
 20
9.166187981661973
  0
LINE
  5
647
330
1E
100
AcDbEntity
  8
OBJECT
100
AcDbLine
 10
1.062692305668753
 20
10.1504399316627
 30
0.0
 11
1.062692305668753
 21
9.166187981661973
 31
0.0
  0
LINE
  5
648
330
1E
100
AcDbEntity
  8
OBJECT
100
AcDbLine
 10
0.9248970326688157
 20
10.1504399316627
 30
0.0
 11
0.9248970326688157
 21
9.166187981661973
 31
0.0
  0
LWPOLYLINE
  5
649
330
1E
100
AcDbEntity
  8
OBJECT
100
AcDbPolyline
 90
        4
 70
     0
 43
0.0
 10
1.465349786169126
 20
9.402408449662257
 10
1.406294669169283
 20
9.368313956662337
 10
1.406294669169283
 20
9.948313956662335
 10
1.465349786169126
 20
9.914219463662416
  0
LWPOLYLINE
  5
64F
330
1E
100
AcDbEntity
  8
OBJECT
100
AcDbPolyline
 90
        8
 70
     0
 43
0.0
 10
1.207869474168901
 20
10.1504399316627
 10
0.8559993961688467
 20
10.1504399316627
 10
0.8559993961688467
 20
10.40627953285975
 42
0.2415313610589597
 10
1.052849786169082
 20
10.79001158646493
 10
1.052849786169082
 20
15.58861632685963
 42
0.2415313610589597
 10
0.8559993961688467
 20
15.97234838046491
 10
0.8559993961688467
 20
16.22818798166197
 10
1.207869474168901
 20
16.22818798166197
  0
LWPOLYLINE
  5
659
330
1E
100
AcDbEntity
  8
OBJECT
100
AcDbPolyline
 90
        8
 70
     1
 43
0.0
 10
8.372830098169043
 20
18.38094387866263
 42
0.4142135623730857
 10
8.07597970816916
 20
18.67779426866252
 10
1.504719864169024
 20
18.67779426866274
 42
0.4142135623731049
 10
1.207869474168897
 20
18.38094387866262
 10
1.207869474168897
 20
7.997684034662956
 42
0.4142135623731058
 10
1.504719864169024
 20
7.700833644662839
 10
8.07597970816916
 20
7.70083364466306
 42
0.4142135623729219
 10
8.372830098169043
 20
7.997684034662835
  0
LWPOLYLINE
  5
663
330
1E
100
AcDbEntity
  8
OBJECT
100
AcDbPolyline
 90
        8
 70
     1
 43
0.0
 10
8.272830098169041
 20
18.38094387866274
 42
0.4142135623730951
 10
8.07597970816904
 20
18.57779426866251
 10
1.504719864169131
 20
18.57779426866273
 42
0.4142135623730948
 10
1.307869474168895
 20
18.38094387866274
 10
1.307869474168895
 20
7.997684034662835
 42
0.4142135623730951
 10
1.504719864169131
 20
7.800833644662841
 10
8.07597970816904
 20
7.800833644663054
 42
0.4142135623730951
 10
8.272830098169041
 20
7.997684034662835
  0
LWPOLYLINE
  5
66D
330
1E
100
AcDbEntity
  8
OBJECT
100
AcDbPolyline
 90
        8
 70
     1
 43
0.0
 10
1.504719864169131
 20
18.42031395666274
 42
0.4142135623730948
 10
1.465349786169084
 20
18.38094387866274
 10
1.465349786169134
 20
7.997684034662835
 42
0.4142135623730951
 10
1.504719864169131
 20
7.958313956662333
 10
8.07597970816904
 20
7.958313956662333
 42
0.4142135623730951
 10
8.115349786169044
 20
7.997684034662835
 10
8.115349786169094
 20
18.38094387866274
 42
0.4142135623730951
 10
8.07597970816904
 20
18.42031395666274
  0
LINE
  5
677
330
1E
100
AcDbEntity
  8
OBJECT
100
AcDbLine
 10
1.062692305668753
 20
16.22818798166197
 30
0.0
 11
1.062692305668753
 21
17.21243993166269
 31
0.0
  0
LINE
  5
678
330
1E
100
AcDbEntity
  8
OBJECT
100
AcDbLine
 10
0.9248970326688157
 20
16.22818798166197
 30
0.0
 11
0.9248970326688157
 21
17.21243993166269
 31
0.0
  0
LWPOLYLINE
  5
679
330
1E
100
AcDbEntity
  8
OBJECT
100
AcDbPolyline
 90
        4
 70
     0
 43
0.0
 10
1.465349786169126
 20
16.97621946366241
 10
1.406294669169283
 20
17.01031395666234
 10
1.406294669169283
 20
16.43031395666234
 10
1.465349786169126
 20
16.46440844966225
  0
LWPOLYLINE
  5
67F
330
1E
100
AcDbEntity
  8
OBJECT
100
AcDbPolyline
 90
        4
 70
     0
 43
0.0
 10
4.534444279169011
 20
18.42031395666233
 10
4.500349786169091
 20
18.47936907366218
 10
5.080349786169089
 20
18.47936907366218
 10
5.04625529316917
 20
18.42031395666233
  0
LWPOLYLINE
  5
685
330
1E
100
AcDbEntity
  8
OBJECT
100
AcDbPolyline
 90
        4
 70
     0
 43
0.0
 10
8.115349786169051
 20
16.97621946366241
 10
8.174404903168895
 20
17.01031395666234
 10
8.174404903168895
 20
16.43031395666234
 10
8.115349786169051
 20
16.46440844966225
  0
LWPOLYLINE
  5
68B
330
1E
100
AcDbEntity
  8
OBJECT
100
AcDbPolyline
 90
        4
 70
     0
 43
0.0
 10
8.115349786169051
 20
9.402408449662257
 10
8.174404903168895
 20
9.368313956662337
 10
8.174404903168895
 20
9.948313956662335
 10
8.115349786169051
 20
9.914219463662416
  0
CIRCLE
  5
691
330
1E
100
AcDbEntity
  8
OBJECT
100
AcDbCircle
 10
8.68384978616908
 20
11.42431395666233
 30
0.0
 40
0.1125
  0
LWPOLYLINE
  5
692
330
1E
100
AcDbEntity
  8
OBJECT
100
AcDbPolyline
 90
        4
 70
     0
 43
0.0
 10
4.534444279169011
 20
7.958313956662333
 10
4.500349786169091
 20
7.89925883966249
 10
5.080349786169089
 20
7.89925883966249
 10
5.04625529316917
 20
7.958313956662333
  0
LINE
  5
698
330
1E
100
AcDbEntity
  8
OBJECT
100
AcDbLine
 10
5.064130557665822
 20
8.724286398162863
 30
0.0
 11
4.516569014672351
 21
8.724286398162863
 31
0.0
  0
LINE
  5
699
330
1E
100
AcDbEntity
  8
OBJECT
100
AcDbLine
 10
5.064130557665971
 20
8.79434151516271
 30
0.0
 11
4.516569014672209
 21
8.79434151516271
 31
0.0
  0
ARC
  5
69A
330
1E
100
AcDbEntity
  8
OBJECT
100
AcDbCircle
 10
2.431849786169087
 20
9.050313956662332
 30
0.0
 40
0.2875
100
AcDbArc
 50
154.4496341539187
 51
102.1478328255609
  0
CIRCLE
  5
69B
330
1E
100
AcDbEntity
  8
OBJECT
100
AcDbCircle
 10
2.431849786169087
 20
9.050313956662332
 30
0.0
 40
0.0835
  0
CIRCLE
  5
69C
330
1E
100
AcDbEntity
  8
HIDDEN
100
AcDbCircle
 10
2.431849786169087
 20
9.050313956662332
 30
0.0
 40
0.0985
  0
CIRCLE
  5
69D
330
1E
100
AcDbEntity
  8
OBJECT
100
AcDbCircle
 10
3.311349786169084
 20
8.759313956662335
 30
0.0
 40
0.085
  0
ARC
  5
69E
330
1E
100
AcDbEntity
  8
OBJECT
100
AcDbCircle
 10
3.311349786169084
 20
8.759313956662335
 30
0.0
 40
0.222
100
AcDbArc
 50
305.8247743686492
 51
234.1752256313507
  0
LINE
  5
69F
330
1E
100
AcDbEntity
  8
OBJECT
100
AcDbLine
 10
2.713761410436762
 20
8.99390397436522
 30
0.0
 11
3.114216955649829
 21
8.861405323248671
 31
0.0
  0
LINE
  5
6A0
330
1E
100
AcDbEntity
  8
OBJECT
100
AcDbLine
 10
2.691772867212452
 20
8.927447191664942
 30
0.0
 11
3.092228412425519
 21
8.794948540548393
 31
0.0
  0
LINE
  5
6A1
330
1E
100
AcDbEntity
  8
OBJECT
100
AcDbLine
 10
4.078130557665821
 20
8.724286398162863
 30
0.0
 11
3.530569014672351
 21
8.724286398162863
 31
0.0
  0
LINE
  5
6A2
330
1E
100
AcDbEntity
  8
OBJECT
100
AcDbLine
 10
4.078130557665963
 20
8.79434151516271
 30
0.0
 11
3.530569014672201
 21
8.79434151516271
 31
0.0
  0
CIRCLE
  5
6A3
330
1E
100
AcDbEntity
  8
OBJECT
100
AcDbCircle
 10
4.297349786169088
 20
8.759313956662335
 30
0.0
 40
0.085
  0
ARC
  5
6A4
330
1E
100
AcDbEntity
  8
OBJECT
100
AcDbCircle
 10
4.297349786169088
 20
8.759313956662335
 30
0.0
 40
0.222
100
AcDbArc
 50
305.8247743686492
 51
234.1752256313507
  0
LINE
  5
6A5
330
1E
100
AcDbEntity
  8
OBJECT
100
AcDbLine
 10
5.751527155530697
 20
8.724286398162865
 30
0.0
 11
5.502569014672356
 21
8.724286398162863
 31
0.0
  0
LINE
  5
6A6
330
1E
100
AcDbEntity
  8
OBJECT
100
AcDbLine
 10
5.755113648732698
 20
8.79434151516271
 30
0.0
 11
5.502569014672206
 21
8.79434151516271
 31
0.0
  0
ARC
  5
6A7
330
1E
100
AcDbEntity
  8
OBJECT
100
AcDbCircle
 10
5.283349786169085
 20
8.759313956662335
 30
0.0
 40
0.222
100
AcDbArc
 50
305.8247743686492
 51
234.1752256313507
  0
CIRCLE
  5
6A8
330
1E
100
AcDbEntity
  8
OBJECT
100
AcDbCircle
 10
5.283349786169085
 20
8.759313956662335
 30
0.0
 40
0.085
  0
LINE
  5
6A9
330
1E
100
AcDbEntity
  8
OBJECT
100
AcDbLine
 10
37.82728204362821
 20
9.908313956662338
 30
0.0
 11
37.73781250187367
 21
9.90831395666234
 31
0.0
  0
LINE
  5
6AA
330
1E
100
AcDbEntity
  8
OBJECT
100
AcDbLine
 10
37.82728204362821
 20
9.40831395666234
 30
0.0
 11
37.73781250187367
 21
9.40831395666234
 31
0.0
  0
LINE
  5
6AB
330
1E
100
AcDbEntity
  8
OBJECT
100
AcDbLine
 10
37.73781250187367
 20
9.174313956662338
 30
0.0
 11
37.73781250187367
 21
10.14231395666233
 31
0.0
  0
LINE
  5
6AC
330
1E
100
AcDbEntity
  8
OBJECT
100
AcDbLine
 10
37.95581250187367
 20
10.14231395666233
 30
0.0
 11
37.73781250187367
 21
10.14231395666233
 31
0.0
  0
LINE
  5
6AD
330
1E
100
AcDbEntity
  8
OBJECT
100
AcDbLine
 10
37.95581250187367
 20
9.174313956662329
 30
0.0
 11
37.73781250187367
 21
9.174313956662331
 31
0.0
  0
LINE
  5
6AE
330
1E
100
AcDbEntity
  8
OBJECT
100
AcDbLine
 10
37.90881250187367
 20
10.14231395666233
 30
0.0
 11
37.90881250187367
 21
9.174313956662331
 31
0.0
  0
LINE
  5
6AF
330
1E
100
AcDbEntity
  8
OBJECT
100
AcDbLine
 10
38.39081250187368
 20
10.10031395666233
 30
0.0
 11
38.39081250187368
 21
9.850313956662335
 31
0.0
  0
LINE
  5
6B0
330
1E
100
AcDbEntity
  8
OBJECT
100
AcDbLine
 10
38.14081250187368
 20
10.10031395666233
 30
0.0
 11
38.39081250187368
 21
10.10031395666233
 31
0.0
  0
LINE
  5
6B1
330
1E
100
AcDbEntity
  8
OBJECT
100
AcDbLine
 10
38.14081250187368
 20
9.850313956662333
 30
0.0
 11
38.39081250187368
 21
9.850313956662335
 31
0.0
  0
LINE
  5
6B2
330
1E
100
AcDbEntity
  8
OBJECT
100
AcDbLine
 10
38.14081250187368
 20
9.466313956662339
 30
0.0
 11
38.39081250187368
 21
9.466313956662339
 31
0.0
  0
LINE
  5
6B3
330
1E
100
AcDbEntity
  8
OBJECT
100
AcDbLine
 10
38.14081250187368
 20
9.216313956662339
 30
0.0
 11
38.39081250187368
 21
9.216313956662339
 31
0.0
  0
LINE
  5
6B4
330
1E
100
AcDbEntity
  8
OBJECT
100
AcDbLine
 10
38.39081250187368
 20
9.466313956662339
 30
0.0
 11
38.39081250187368
 21
9.216313956662339
 31
0.0
  0
ARC
  5
6B5
330
1E
100
AcDbEntity
  8
OBJECT
100
AcDbCircle
 10
37.75017420400132
 20
9.975313956662331
 30
0.0
 40
0.204361702127659
100
AcDbArc
 50
122.6857650868822
 51
237.3142349131172
  0
ARC
  5
6B6
330
1E
100
AcDbEntity
  8
OBJECT
100
AcDbCircle
 10
37.75017420400132
 20
9.341313956662336
 30
0.0
 40
0.204361702127659
100
AcDbArc
 50
122.6857650868822
 51
237.3142349131172
  0
LWPOLYLINE
  5
6B7
330
1E
100
AcDbEntity
  8
OBJECT
100
AcDbPolyline
 90
        4
 70
     0
 43
0.0
 10
37.90881250187368
 20
9.466313956662341
 10
37.86299563560326
 20
9.466313956662339
 42
0.3854650698366987
 10
37.86299563560326
 20
9.216313956662339
 10
37.90881250187368
 20
9.216313956662341
  0
LWPOLYLINE
  5
6BD
330
1E
100
AcDbEntity
  8
OBJECT
100
AcDbPolyline
 90
        4
 70
     0
 43
0.0
 10
37.90881250187368
 20
10.10031395666233
 10
37.86299563560326
 20
10.10031395666233
 42
0.3854650698366987
 10
37.86299563560326
 20
9.850313956662335
 10
37.90881250187368
 20
9.850313956662336
  0
DIMENSION
  5
6C3
330
1E
100
AcDbEntity
  8
DIM
100
AcDbDimension
  2
*D27
 10
42.00052108187431
 20
12.21798600011623
 30
0.0
 11
44.31145858187432
 21
12.21798600011623
 31
0.0
 70
    32
 71
     5
 42
0.1329999999999956
  3
23NSTD
100
AcDbAlignedDimension
 13
41.86752108187432
 23
11.93231395666233
 33
0.0
 14
42.00052108187431
 24
11.86031395666233
 34
0.0
100
AcDbRotatedDimension
  0
DIMENSION
  5
6C4
330
1E
100
AcDbEntity
  8
DIM
100
AcDbDimension
  2
*D28
 10
41.86752108187432
 20
10.24723614762048
 30
0.0
 11
44.20189608187432
 21
10.24723614762048
 31
0.0
 70
    32
 71
     5
 42
0.2800000000000011
  3
23NSTD
100
AcDbAlignedDimension
 13
41.58752108187432
 23
10.63931395666233
 33
0.0
 14
41.86752108187432
 24
10.50231395666233
 34
0.0
100
AcDbRotatedDimension
  0
TEXT
  5
6C5
330
1E
100
AcDbEntity
  8
TEXT
100
AcDbText
 10
33.94186623343884
 20
5.581589737682275
 30
0.0
 40
0.3749999999999993
  1
DIMENSIONS =
 41
0.75
  7
TXT
100
AcDbText
  0
TEXT
  5
6C6
330
1E
100
AcDbEntity
  8
TEXT
100
AcDbText
 10
38.11627176752206
 20
5.903395223378442
 30
0.0
 40
0.3749999999999993
  1
INCHES
 41
0.75
  7
TXT
 72
     1
 11
38.86627176752206
 21
5.903395223378442
 31
0.0
100
AcDbText
  0
TEXT
  5
6C7
330
1E
100
AcDbEntity
  8
TEXT
100
AcDbText
 10
37.27252176752206
 20
5.278395223378449
 30
0.0
 40
0.3749999999999993
  1
[MILLIMETERS]
 41
0.75
  7
TXT
 72
     1
 11
38.86627176752206
 21
5.278395223378449
 31
0.0
100
AcDbText
  0
TEXT
  5
6C8
330
1E
100
AcDbEntity
  8
TEXT
100
AcDbText
 10
36.01560579891768
 20
20.75327225504665
 30
0.0
 40
0.3749999999999993
  1
TRUSS HD. MACHINE SCREWS (NOT SHOWN)
 41
0.75
  7
TXT
100
AcDbText
  0
TEXT
  5
6C9
330
1E
100
AcDbEntity
  8
TEXT
100
AcDbText
 10
36.01560579891768
 20
25.1314744980281
 30
0.0
 40
0.3749999999999993
  1
AIR AND MOISTURE VENTS, GALVANIZED
 41
0.75
  7
TXT
100
AcDbText
  0
TEXT
  5
6CA
330
1E
100
AcDbEntity
  8
TEXT
100
AcDbText
 10
36.01560579891768
 20
24.50807994735431
 30
0.0
 40
0.3749999999999993
  1
STEEL INTERNAL PANEL AND STAINLESS
 41
0.75
  7
TXT
100
AcDbText
  0
TEXT
  5
6CB
330
1E
100
AcDbEntity
  8
TEXT
100
AcDbText
 10
36.01560579891768
 20
23.25567610120047
 30
0.0
 40
0.3749999999999993
  1
BUT CAN BE PURCHASED SEPARATELY.
 41
0.75
  7
TXT
100
AcDbText
  0
TEXT
  5
6CC
330
1E
100
AcDbEntity
  8
TEXT
100
AcDbText
 10
36.01560579891768
 20
28.25245654687713
 30
0.0
 40
0.3749999999999993
  1
%%UINDUSTRY STANDARDS:
 41
0.75
  7
TXT
100
AcDbText
  0
TEXT
  5
6CD
330
1E
100
AcDbEntity
  8
TEXT
100
AcDbText
 10
36.38991898573086
 20
27.62745654687712
 30
0.0
 40
0.3749999999999993
  1
UL508 TYPE 1, 2, 4, 4X INDOOR, 12 & 13
 41
0.75
  7
TXT
100
AcDbText
  0
TEXT
  5
6CE
330
1E
100
AcDbEntity
  8
TEXT
100
AcDbText
 10
36.38991898573086
 20
27.00245654687713
 30
0.0
 40
0.3749999999999993
  1
NEMA TYPE 1, 2, 4, 4X, 12 & 13
 41
0.75
  7
TXT
100
AcDbText
  0
TEXT
  5
6CF
330
1E
100
AcDbEntity
  8
TEXT
100
AcDbText
 10
36.38991898573086
 20
26.37745654687712
 30
0.0
 40
0.3749999999999993
  1
IEC529-IP65
 41
0.75
  7
TXT
100
AcDbText
  0
TEXT
  5
6D0
330
1E
100
AcDbEntity
  8
TEXT
100
AcDbText
 10
8.149326895380845
 20
27.00629542379024
 30
0.0
 40
0.3749999999999993
  1
UL94-5VB FLAMMABILITY RATING
 41
0.75
  7
TXT
100
AcDbText
  0
TEXT
  5
6D2
330
1E
100
AcDbEntity
  8
TEXT
100
AcDbText
 10
33.94186623343884
 20
4.02599137722461
 30
0.0
 40
0.3749999999999993
  1
%%UNOTE%%U: ALL DIMENSIONS HAVE %%P0.039 [%%P1] TOLERANCE
 41
0.75
  7
TXT
100
AcDbText
  0
TEXT
  5
6D3
330
1E
100
AcDbEntity
  8
TEXT
100
AcDbText
 10
35.14375601705174
 20
3.418217739404095
 30
0.0
 40
0.3749999999999993
  1
 UNLESS OTHERWISE SPECIFIED
 41
0.75
  7
TXT
100
AcDbText
  0
TEXT
  5
6D4
330
1E
100
AcDbEntity
  8
TEXT
100
AcDbText
 10
17.60278037670171
 20
25.12745654687712
 30
0.0
 40
0.3749999999999993
  1
COVER INCLUDES GRAY POLY-
 41
0.75
  7
TXT
100
AcDbText
  0
TEXT
  5
6D5
330
1E
100
AcDbEntity
  8
TEXT
100
AcDbText
 10
8.149326895380845
 20
25.13897317761652
 30
0.0
 40
0.3749999999999993
  1
UL94V-0 FLAMMABILITY RATING
 41
0.75
  7
TXT
100
AcDbText
  0
TEXT
  5
6D6
330
1E
100
AcDbEntity
  8
TEXT
100
AcDbText
 10
8.149326895380845
 20
25.76397317761653
 30
0.0
 40
0.3749999999999993
  1
POLYCARBONATE PLASTIC
 41
0.75
  7
TXT
100
AcDbText
  0
LINE
  5
6D7
330
1E
100
AcDbEntity
  8
TEXT
100
AcDbLine
 10
7.224058736628013
 20
22.03747265446013
 30
0.0
 11
7.962170301974254
 21
22.03747265446013
 31
0.0
  0
LINE
  5
6D8
330
1E
100
AcDbEntity
  8
TEXT
100
AcDbLine
 10
5.478077474239043
 20
22.66247265446014
 30
0.0
 11
7.962170301974254
 21
22.66247265446014
 31
0.0
  0
LINE
  5
6D9
330
1E
100
AcDbEntity
  8
TEXT
100
AcDbLine
 10
18.78664591184039
 20
27.62745654687712
 30
0.0
 11
20.31530217881431
 21
27.62745654687712
 31
0.0
  0
TEXT
  5
6DA
330
1E
100
AcDbEntity
  8
TEXT
100
AcDbText
 10
20.5024587722209
 20
27.00245654687712
 30
0.0
 40
0.3749999999999993
  1
LIGHT GRAY OR CLEAR
 41
0.75
  7
TXT
100
AcDbText
  0
TEXT
  5
6DB
330
1E
100
AcDbEntity
  8
TEXT
100
AcDbText
 10
8.149326895380845
 20
27.63129542379024
 30
0.0
 40
0.3749999999999993
  1
ABS/PC BLENDED PLASTIC
 41
0.75
  7
TXT
100
AcDbText
  0
LINE
  5
6DC
330
1E
100
AcDbEntity
  8
TEXT
100
AcDbLine
 10
4.187791508372214
 20
25.76397317761653
 30
0.0
 11
7.962170301974254
 21
25.76397317761651
 31
0.0
  0
TEXT
  5
6DD
330
1E
100
AcDbEntity
  8
TEXT
100
AcDbText
 10
0.9232224074826476
 20
22.03747265446013
 30
0.0
 40
0.3749999999999993
  1
WALL MOUNTING BRACKETS
 41
0.75
  7
TXT
100
AcDbText
  0
LINE
  5
6DE
330
1E
100
AcDbEntity
  8
TEXT
100
AcDbLine
 10
19.14692775070683
 20
27.00245654687712
 30
0.0
 11
20.31530217881431
 21
27.00245654687712
 31
0.0
  0
TEXT
  5
6DF
330
1E
100
AcDbEntity
  8
TEXT
100
AcDbText
 10
0.9232224074826476
 20
22.66247265446014
 30
0.0
 40
0.3749999999999993
  1
LATCHES & HINGES
 41
0.75
  7
TXT
100
AcDbText
  0
TEXT
  5
6E0
330
1E
100
AcDbEntity
  8
TEXT
100
AcDbText
 10
0.9232224074826476
 20
27.63129542379024
 30
0.0
 40
0.3749999999999993
  1
SOLID BODY & COVER
 41
0.75
  7
TXT
100
AcDbText
  0
TEXT
  5
6E1
330
1E
100
AcDbEntity
  8
TEXT
100
AcDbText
 10
0.9232224074826476
 20
25.76397317761653
 30
0.0
 40
0.3749999999999993
  1
CLEAR COVER
 41
0.75
  7
TXT
100
AcDbText
  0
TEXT
  5
6E2
330
1E
100
AcDbEntity
  8
TEXT
100
AcDbText
 10
17.6027803767017
 20
27.00245654687712
 30
0.0
 40
0.3749999999999993
  1
COVER
 41
0.75
  7
TXT
100
AcDbText
  0
TEXT
  5
6E3
330
1E
100
AcDbEntity
  8
TEXT
100
AcDbText
 10
17.6027803767017
 20
27.62745654687712
 30
0.0
 40
0.3749999999999993
  1
BODY
 41
0.75
  7
TXT
100
AcDbText
  0
TEXT
  5
6E4
330
1E
100
AcDbEntity
  8
TEXT
100
AcDbText
 10
17.1417594075116
 20
28.25245654687712
 30
0.0
 40
0.3749999999999993
  1
%%UFINISH:
 41
0.75
  7
TXT
100
AcDbText
  0
LINE
  5
6E5
330
1E
100
AcDbEntity
  8
TEXT
100
AcDbLine
 10
6.098076100786812
 20
27.63129542379024
 30
0.0
 11
7.962170301974254
 21
27.63129542379024
 31
0.0
  0
TEXT
  5
6E6
330
1E
100
AcDbEntity
  8
TEXT
100
AcDbText
 10
8.149326895380848
 20
22.03747265446011
 30
0.0
 40
0.3749999999999993
  1
STAINLESS STEEL
 41
0.75
  7
TXT
100
AcDbText
  0
TEXT
  5
6E7
330
1E
100
AcDbEntity
  8
TEXT
100
AcDbText
 10
8.149326895380848
 20
22.66247265446014
 30
0.0
 40
0.3749999999999993
  1
NON-METALLIC
 41
0.75
  7
TXT
100
AcDbText
  0
TEXT
  5
6E8
330
1E
100
AcDbEntity
  8
TEXT
100
AcDbText
 10
20.5024587722209
 20
27.62745654687712
 30
0.0
 40
0.3749999999999993
  1
LIGHT GRAY
 41
0.75
  7
TXT
100
AcDbText
  0
TEXT
  5
6E9
330
1E
100
AcDbEntity
  8
TEXT
100
AcDbText
 10
0.5489092206694651
 20
28.25245654687712
 30
0.0
 40
0.3749999999999993
  1
%%UMATERIAL:
 41
0.75
  7
TXT
100
AcDbText
  0
TEXT
  5
6EB
330
1E
100
AcDbEntity
  8
TEXT
100
AcDbText
 10
8.149326895380845
 20
23.2793286852691
 30
0.0
 40
0.3749999999999993
  1
0.078 THICK ALUMINUM
 41
0.75
  7
TXT
100
AcDbText
  0
TEXT
  5
6EC
330
1E
100
AcDbEntity
  8
TEXT
100
AcDbText
 10
36.01560579891768
 20
22.00327225504663
 30
0.0
 40
0.3749999999999993
  1
UNIT COMES COMPLETE WITH (4) WALL
 41
0.75
  7
TXT
100
AcDbText
  0
TEXT
  5
6ED
330
1E
100
AcDbEntity
  8
TEXT
100
AcDbText
 10
36.01560579891768
 20
21.37827225504662
 30
0.0
 40
0.3749999999999993
  1
MOUNTING BRKTS. & (4) M5 x 10mm LG.
 41
0.75
  7
TXT
100
AcDbText
  0
TEXT
  5
6EE
330
1E
100
AcDbEntity
  8
TEXT
100
AcDbText
 10
36.01560579891768
 20
23.88468539668051
 30
0.0
 40
0.3749999999999993
  1
STEEL LOCKING HASP ARE NOT INCLUDED,
 41
0.75
  7
TXT
100
AcDbText
  0
LINE
  5
6EF
330
1E
100
AcDbEntity
  8
TEXT
100
AcDbLine
 10
2.491172841748991
 20
23.2821987467877
 30
0.0
 11
7.962170301974254
 21
23.28219874678768
 31
0.0
  0
TEXT
  5
6F0
330
1E
100
AcDbEntity
  8
TEXT
100
AcDbText
 10
0.9232224074826476
 20
23.2821987467877
 30
0.0
 40
0.3749999999999993
  1
PANEL
 41
0.75
  7
TXT
100
AcDbText
  0
TEXT
  5
6F1
330
1E
100
AcDbEntity
  8
TEXT
100
AcDbText
 10
20.5024587722209
 20
26.37745654687712
 30
0.0
 40
0.3749999999999993
  1
ANODIZED
 41
0.75
  7
TXT
100
AcDbText
  0
LINE
  5
6F2
330
1E
100
AcDbEntity
  8
TEXT
100
AcDbLine
 10
19.14692775070683
 20
26.37745654687712
 30
0.0
 11
20.31530217881431
 21
26.37745654687712
 31
0.0
  0
TEXT
  5
6F3
330
1E
100
AcDbEntity
  8
TEXT
100
AcDbText
 10
17.6027803767017
 20
26.37745654687712
 30
0.0
 40
0.3749999999999993
  1
PANEL
 41
0.75
  7
TXT
100
AcDbText
  0
TEXT
  5
6F4
330
1E
100
AcDbEntity
  8
DIM
100
AcDbText
 10
22.92917202301252
 20
19.23230055813222
 30
0.0
 40
0.3734042553
  1
THREADED BRASS INSERT
 41
0.75
  7
TXT
 11
22.92917202301252
 21
19.41900268578222
 31
0.0
100
AcDbText
 73
     2
  0
TEXT
  5
6F5
330
1E
100
AcDbEntity
  8
DIM
100
AcDbText
 10
22.92917202301252
 20
18.62775906880152
 30
0.0
 40
0.3734042553
  1
(4) PLACES
 41
0.75
  7
TXT
 11
22.92917202301252
 21
18.81446119645152
 31
0.0
100
AcDbText
 73
     2
  0
TEXT
  5
6F6
330
1E
100
AcDbEntity
  8
DIM
100
AcDbText
 10
22.92917202301252
 20
19.83684204746292
 30
0.0
 40
0.3734042553
  1
WITH M5 x 0.8mm
 41
0.75
  7
TXT
 11
22.92917202301252
 21
20.02354417511293
 31
0.0
100
AcDbText
 73
     2
  0
TEXT
  5
6F7
330
1E
100
AcDbEntity
  8
DIM
100
AcDbText
 10
22.92917202301252
 20
20.46616452832745
 30
0.0
 40
0.3734042553
  1
0.575 [15] DIA. BOSS
 41
0.75
  7
TXT
 11
22.92917202301252
 21
20.65286665597745
 31
0.0
100
AcDbText
 73
     2
  0
LWPOLYLINE
  5
6F8
330
1E
100
AcDbEntity
  8
DIM
100
AcDbPolyline
 90
        4
 70
     0
 10
20.37774291703739
 20
17.59198694406542
 40
0.0
 41
0.2025
 10
20.6125140732561
 20
18.07828161215025
 40
0.0
 41
0.0
 10
22.10717094169595
 20
20.64937562829518
 40
0.0
 41
0.0
 10
22.64717094169596
 20
20.64937562829518
 40
0.0
 41
0.0
  0
INSERT
  5
6FE
330
1E
100
AcDbEntity
  8
TITLE
100
AcDbBlockReference
  2
HBS
 10
0.0
 20
0.0
 30
0.0
 41
3.0
 42
3.0
 43
3.0
  0
TEXT
  5
6FF
330
1E
100
AcDbEntity
  8
TEXT
100
AcDbText
 10
8.149326895380845
 20
24.52452099296142
 30
0.0
 40
0.3749999999999993
  1
UV STABILIZED
 41
0.75
  7
TXT
100
AcDbText
  0
LWPOLYLINE
  5
700
330
1E
100
AcDbEntity
  8
DIM
100
AcDbPolyline
 90
        4
 70
     0
 10
15.07167828588283
 20
18.32197799400088
 40
0.0
 41
0.2025
 10
15.30324036746064
 20
18.80980890976509
 40
0.0
 41
0.0
 10
17.51705881925006
 20
23.50856440597379
 40
0.0
 41
0.0
 10
18.05705881925006
 20
23.50856440597379
 40
0.0
 41
0.0
  0
TEXT
  5
706
330
1E
100
AcDbEntity
  8
DIM
100
AcDbText
 10
18.33905990056663
 20
22.69603082514153
 30
0.0
 40
0.3734042553
  1
WITH M5 x 0.8mm
 41
0.75
  7
TXT
 11
18.33905990056663
 21
22.88273295279153
 31
0.0
100
AcDbText
 73
     2
  0
TEXT
  5
707
330
1E
100
AcDbEntity
  8
DIM
100
AcDbText
 10
18.33905990056663
 20
22.09148933581083
 30
0.0
 40
0.3734042553
  1
THREADED BRASS INSERT
 41
0.75
  7
TXT
 11
18.33905990056663
 21
22.27819146346083
 31
0.0
100
AcDbText
 73
     2
  0
TEXT
  5
708
330
1E
100
AcDbEntity
  8
DIM
100
AcDbText
 10
18.33905990056663
 20
21.48694784648014
 30
0.0
 40
0.3734042553
  1
(4) PLACES (FAR SIDE)
 41
0.75
  7
TXT
 11
18.33905990056663
 21
21.67364997413014
 31
0.0
100
AcDbText
 73
     2
  0
TEXT
  5
709
330
1E
100
AcDbEntity
  8
DIM
100
AcDbText
 10
18.33905990056663
 20
23.32535330600606
 30
0.0
 40
0.3734042553
  1
0.575 [15] DIA. BOSS
 41
0.75
  7
TXT
 11
18.33905990056663
 21
23.51205543365606
 31
0.0
100
AcDbText
 73
     2
  0
TEXT
  5
86B
330
1E
100
AcDbEntity
  8
TEXT
100
AcDbText
 10
17.60278037670171
 20
24.51300436222203
 30
0.0
 40
0.3749999999999993
  1
  URETHANE GASKET.
 41
0.75
  7
TXT
100
AcDbText
  0
TEXT
  5
946
330
1E
100
AcDbEntity
  8
TEXT
100
AcDbText
 10
42.45823917059536
 20
-0.4578297681335782
 30
0.0
 40
0.3744
  1
Revised 26JUN07
 41
0.75
  7
TXT
 72
     1
 11
44.40043917059536
 21
-0.4578297681335782
 31
0.0
100
AcDbText
  0
ENDSEC
  0
SECTION
  2
OBJECTS
  0
DICTIONARY
  5
C
330
0
100
AcDbDictionary
281
     1
  3
ACAD_GROUP
350
D
  3
ACAD_LAYOUT
350
19
  3
ACAD_MLINESTYLE
350
16
  3
ACAD_PLOTSETTINGS
350
18
  3
ACAD_PLOTSTYLENAME
350
E
  0
DICTIONARY
  5
D
102
{ACAD_REACTORS
330
C
102
}
330
C
100
AcDbDictionary
281
     1
  0
DICTIONARY
  5
19
102
{ACAD_REACTORS
330
C
102
}
330
C
100
AcDbDictionary
281
     1
  3
Layout1
350
1D
  3
Model
350
21
  0
DICTIONARY
  5
16
102
{ACAD_REACTORS
330
C
102
}
330
C
100
AcDbDictionary
281
     1
  3
Standard
350
17
  0
DICTIONARY
  5
18
102
{ACAD_REACTORS
330
C
102
}
330
C
100
AcDbDictionary
281
     1
  0
ACDBDICTIONARYWDFLT
  5
E
102
{ACAD_REACTORS
330
C
102
}
330
C
100
AcDbDictionary
281
     1
  3
Normal
350
F
100
AcDbDictionaryWithDefault
340
F
  0
LAYOUT
  5
1D
102
{ACAD_REACTORS
330
19
102
}
330
19
100
AcDbPlotSettings
  1

  2
None
  4

  6

 40
0.0
 41
0.0
 42
0.0
 43
0.0
 44
0.0
 45
0.0
 46
0.0
 47
0.0
 48
0.0
 49
0.0
140
0.0
141
0.0
142
1.0
143
1.0
 70
   688
 72
     0
 73
     0
 74
     5
  7
monochrome.ctb
 75
    16
147
1.0
148
0.0
149
0.0
100
AcDbLayout
  1
Layout1
 70
     1
 71
     1
 10
0.0
 20
0.0
 11
12.0
 21
9.0
 12
0.0
 22
0.0
 32
0.0
 14
1.000000000000000E+20
 24
1.000000000000000E+20
 34
1.000000000000000E+20
 15
-1.000000000000000E+20
 25
-1.000000000000000E+20
 35
-1.000000000000000E+20
146
0.0
 13
0.0
 23
0.0
 33
0.0
 16
1.0
 26
0.0
 36
0.0
 17
0.0
 27
1.0
 37
0.0
 76
     0
330
1A
  0
LAYOUT
  5
21
102
{ACAD_REACTORS
330
19
102
}
330
19
100
AcDbPlotSettings
  1

  2
RICOH Aficio 1060 PCL 6
  4
Letter
  6

 40
5.027083396911621
 41
5.027085304260253
 42
5.027084350585937
 43
5.027069091796875
 44
215.8999938964843
 45
279.3999938964843
 46
14.98599999999999
 47
0.0
 48
0.0
 49
0.0
140
0.0
141
0.0
142
1.0
143
4.385336269490345
 70
 11956
 72
     0
 73
     1
 74
     1
  7
monochrome.ctb
 75
     0
147
0.2280326840514371
148
0.0360236855013398
149
0.0235199804701964
100
AcDbLayout
  1
Model
 70
     1
 71
     0
 10
0.0
 20
0.0
 11
12.0
 21
9.0
 12
0.0
 22
0.0
 32
0.0
 14
0.0
 24
0.0
 34
0.0
 15
0.0
 25
0.0
 35
0.0
146
0.0
 13
0.0
 23
0.0
 33
0.0
 16
1.0
 26
0.0
 36
0.0
 17
0.0
 27
1.0
 37
0.0
 76
     0
330
1E
  0
MLINESTYLE
  5
17
102
{ACAD_REACTORS
330
16
102
}
330
16
100
AcDbMlineStyle
  2
STANDARD
 70
     0
  3

 62
   256
 51
90.0
 52
90.0
 71
     2
 49
0.5
 62
   256
  6
BYLAYER
 49
-0.5
 62
   256
  6
BYLAYER
  0
ACDBPLACEHOLDER
  5
F
102
{ACAD_REACTORS
330
E
102
}
330
E
  0
ENDSEC
  0
EOF
