  0
SECTION
  2
HEADER
  9
$ACADVER
  1
AC1015
  9
$ACADMAINTVER
 70
     6
  9
$DWGCODEPAGE
  3
ANSI_1252
  9
$INSBASE
 10
0.0
 20
0.0
 30
0.0
  9
$EXTMIN
 10
0.0
 20
-0.6002504952607817
 30
0.0
  9
$EXTMAX
 10
62.0
 20
40.47999999999999
 30
0.0
  9
$LIMMIN
 10
0.0
 20
0.0
  9
$LIMMAX
 10
62.0
 20
40.47999999999999
  9
$ORTHOMODE
 70
     0
  9
$REGENMODE
 70
     1
  9
$FILLMODE
 70
     1
  9
$QTEXTMODE
 70
     0
  9
$MIRRTEXT
 70
     0
  9
$LTSCALE
 40
1.0
  9
$ATTMODE
 70
     1
  9
$TEXTSIZE
 40
0.5
  9
$TRACEWID
 40
0.05
  9
$TEXTSTYLE
  7
TXT
  9
$CLAYER
  8
OBJECT
  9
$CELTYPE
  6
ByLayer
  9
$CECOLOR
 62
   256
  9
$CELTSCALE
 40
1.0
  9
$DISPSILH
 70
     0
  9
$DIMSCALE
 40
4.0
  9
$DIMASZ
 40
0.18
  9
$DIMEXO
 40
0.063
  9
$DIMDLI
 40
0.25
  9
$DIMRND
 40
0.0
  9
$DIMDLE
 40
0.0
  9
$DIMEXE
 40
0.093
  9
$DIMTP
 40
0.0
  9
$DIMTM
 40
0.0
  9
$DIMTXT
 40
0.125
  9
$DIMCEN
 40
0.09
  9
$DIMTSZ
 40
0.0
  9
$DIMTOL
 70
     0
  9
$DIMLIM
 70
     0
  9
$DIMTIH
 70
     1
  9
$DIMTOH
 70
     1
  9
$DIMSE1
 70
     0
  9
$DIMSE2
 70
     0
  9
$DIMTAD
 70
     0
  9
$DIMZIN
 70
     0
  9
$DIMBLK
  1

  9
$DIMASO
 70
     1
  9
$DIMSHO
 70
     1
  9
$DIMPOST
  1

  9
$DIMAPOST
  1

  9
$DIMALT
 70
     1
  9
$DIMALTD
 70
     0
  9
$DIMALTF
 40
25.4
  9
$DIMLFAC
 40
1.0
  9
$DIMTOFL
 70
     0
  9
$DIMTVP
 40
0.0
  9
$DIMTIX
 70
     0
  9
$DIMSOXD
 70
     0
  9
$DIMSAH
 70
     0
  9
$DIMBLK1
  1

  9
$DIMBLK2
  1

  9
$DIMSTYLE
  2
23NSTD
  9
$DIMCLRD
 70
     0
  9
$DIMCLRE
 70
     0
  9
$DIMCLRT
 70
     0
  9
$DIMTFAC
 40
1.0
  9
$DIMGAP
 40
0.09
  9
$DIMJUST
 70
     0
  9
$DIMSD1
 70
     0
  9
$DIMSD2
 70
     0
  9
$DIMTOLJ
 70
     1
  9
$DIMTZIN
 70
     0
  9
$DIMALTZ
 70
     0
  9
$DIMALTTZ
 70
     0
  9
$DIMUPT
 70
     0
  9
$DIMDEC
 70
     3
  9
$DIMTDEC
 70
     3
  9
$DIMALTU
 70
     2
  9
$DIMALTTD
 70
     0
  9
$DIMTXSTY
  7
TXT
  9
$DIMAUNIT
 70
     0
  9
$DIMADEC
 70
     0
  9
$DIMALTRND
 40
0.0
  9
$DIMAZIN
 70
     0
  9
$DIMDSEP
 70
    46
  9
$DIMATFIT
 70
     1
  9
$DIMFRAC
 70
     0
  9
$DIMLDRBLK
  1

  9
$DIMLUNIT
 70
     2
  9
$DIMLWD
 70
    -2
  9
$DIMLWE
 70
    -2
  9
$DIMTMOVE
 70
     0
  9
$LUNITS
 70
     2
  9
$LUPREC
 70
     3
  9
$SKETCHINC
 40
0.1
  9
$FILLETRAD
 40
0.0
  9
$AUNITS
 70
     0
  9
$AUPREC
 70
     0
  9
$MENU
  1
acad
  9
$ELEVATION
 40
0.0
  9
$PELEVATION
 40
0.0
  9
$THICKNESS
 40
0.0
  9
$LIMCHECK
 70
     0
  9
$CHAMFERA
 40
0.0
  9
$CHAMFERB
 40
0.0
  9
$CHAMFERC
 40
0.0
  9
$CHAMFERD
 40
0.0
  9
$SKPOLY
 70
     0
  9
$TDCREATE
 40
2451095.630225462
  9
$TDUCREATE
 40
2451095.796892130
  9
$TDUPDATE
 40
2454306.467281539
  9
$TDUUPDATE
 40
2454306.633948206
  9
$TDINDWG
 40
0.2250141204
  9
$TDUSRTIMER
 40
0.2250141204
  9
$USRTIMER
 70
     1
  9
$ANGBASE
 50
0.0
  9
$ANGDIR
 70
     0
  9
$PDMODE
 70
     0
  9
$PDSIZE
 40
0.0
  9
$PLINEWID
 40
0.0
  9
$SPLFRAME
 70
     0
  9
$SPLINETYPE
 70
     6
  9
$SPLINESEGS
 70
     8
  9
$HANDSEED
  5
947
  9
$SURFTAB1
 70
     6
  9
$SURFTAB2
 70
     6
  9
$SURFTYPE
 70
     6
  9
$SURFU
 70
     6
  9
$SURFV
 70
     6
  9
$UCSBASE
  2

  9
$UCSNAME
  2

  9
$UCSORG
 10
0.0
 20
0.0
 30
0.0
  9
$UCSXDIR
 10
1.0
 20
0.0
 30
0.0
  9
$UCSYDIR
 10
0.0
 20
1.0
 30
0.0
  9
$UCSORTHOREF
  2

  9
$UCSORTHOVIEW
 70
     0
  9
$UCSORGTOP
 10
0.0
 20
0.0
 30
0.0
  9
$UCSORGBOTTOM
 10
0.0
 20
0.0
 30
0.0
  9
$UCSORGLEFT
 10
0.0
 20
0.0
 30
0.0
  9
$UCSORGRIGHT
 10
0.0
 20
0.0
 30
0.0
  9
$UCSORGFRONT
 10
0.0
 20
0.0
 30
0.0
  9
$UCSORGBACK
 10
0.0
 20
0.0
 30
0.0
  9
$PUCSBASE
  2

  9
$PUCSNAME
  2

  9
$PUCSORG
 10
0.0
 20
0.0
 30
0.0
  9
$PUCSXDIR
 10
1.0
 20
0.0
 30
0.0
  9
$PUCSYDIR
 10
0.0
 20
1.0
 30
0.0
  9
$PUCSORTHOREF
  2

  9
$PUCSORTHOVIEW
 70
     0
  9
$PUCSORGTOP
 10
0.0
 20
0.0
 30
0.0
  9
$PUCSORGBOTTOM
 10
0.0
 20
0.0
 30
0.0
  9
$PUCSORGLEFT
 10
0.0
 20
0.0
 30
0.0
  9
$PUCSORGRIGHT
 10
0.0
 20
0.0
 30
0.0
  9
$PUCSORGFRONT
 10
0.0
 20
0.0
 30
0.0
  9
$PUCSORGBACK
 10
0.0
 20
0.0
 30
0.0
  9
$USERI1
 70
     0
  9
$USERI2
 70
     0
  9
$USERI3
 70
     0
  9
$USERI4
 70
     0
  9
$USERI5
 70
     0
  9
$USERR1
 40
0.0
  9
$USERR2
 40
0.0
  9
$USERR3
 40
0.0
  9
$USERR4
 40
0.0
  9
$USERR5
 40
0.0
  9
$WORLDVIEW
 70
     0
  9
$SHADEDGE
 70
     3
  9
$SHADEDIF
 70
    70
  9
$TILEMODE
 70
     1
  9
$MAXACTVP
 70
    16
  9
$PINSBASE
 10
0.0
 20
0.0
 30
0.0
  9
$PLIMCHECK
 70
     0
  9
$PEXTMIN
 10
1.000000000000000E+20
 20
1.000000000000000E+20
 30
1.000000000000000E+20
  9
$PEXTMAX
 10
-1.000000000000000E+20
 20
-1.000000000000000E+20
 30
-1.000000000000000E+20
  9
$PLIMMIN
 10
0.0
 20
0.0
  9
$PLIMMAX
 10
12.0
 20
9.0
  9
$UNITMODE
 70
     0
  9
$VISRETAIN
 70
     0
  9
$PLINEGEN
 70
     0
  9
$PSLTSCALE
 70
     1
  9
$TREEDEPTH
 70
  3020
  9
$CMLSTYLE
  2
Standard
  9
$CMLJUST
 70
     0
  9
$CMLSCALE
 40
1.0
  9
$PROXYGRAPHICS
 70
     1
  9
$MEASUREMENT
 70
     0
  9
$CELWEIGHT
370
    -1
  9
$ENDCAPS
280
     0
  9
$JOINSTYLE
280
     0
  9
$LWDISPLAY
290
     0
  9
$INSUNITS
 70
     0
  9
$HYPERLINKBASE
  1

  9
$STYLESHEET
  1
monochrome.ctb
  9
$XEDIT
290
     1
  9
$CEPSNTYPE
380
     0
  9
$PSTYLEMODE
290
     1
  9
$FINGERPRINTGUID
  2
{F565B2B9-AEE0-4065-AA7C-DA281BFBB4D6}
  9
$VERSIONGUID
  2
{40EAECF8-BD85-4637-85FB-D08288FF0BEC}
  9
$EXTNAMES
290
     1
  9
$PSVPSCALE
 40
0.0
  9
$OLESTARTUP
290
     0
  0
ENDSEC
  0
SECTION
  2
CLASSES
  0
CLASS
  1
ACDBDICTIONARYWDFLT
  2
AcDbDictionaryWithDefault
  3
AutoCAD 2000
 90
        0
280
     0
281
     0
  0
CLASS
  1
ACDBPLACEHOLDER
  2
AcDbPlaceHolder
  3
AutoCAD 2000
 90
        0
280
     0
281
     0
  0
CLASS
  1
LAYOUT
  2
AcDbLayout
  3
AutoCAD 2000
 90
        0
280
     0
281
     0
  0
ENDSEC
  0
SECTION
  2
TABLES
  0
TABLE
  2
VPORT
  5
8
330
0
100
AcDbSymbolTable
 70
     2
  0
VPORT
  5
946
330
8
100
AcDbSymbolTableRecord
100
AcDbViewportTableRecord
  2
*Active
 70
     0
 10
0.0
 20
0.0
 11
1.0
 21
1.0
 12
31.00000043309139
 22
19.93884201049425
 13
0.0
 23
0.0
 14
1.0
 24
1.0
 15
0.0
 25
0.0
 16
0.0
 26
0.0
 36
1.0
 17
0.0
 27
0.0
 37
0.0
 40
41.49433170793345
 41
1.824707846410684
 42
50.0
 43
0.0
 44
0.0
 50
0.0
 51
0.0
 71
     0
 72
   100
 73
     1
 74
     0
 75
     0
 76
     0
 77
     0
 78
     0
281
     0
 65
     1
110
0.0
120
0.0
130
0.0
111
1.0
121
0.0
131
0.0
112
0.0
122
1.0
132
0.0
 79
     0
146
0.0
  0
ENDTAB
  0
TABLE
  2
LTYPE
  5
5
330
0
100
AcDbSymbolTable
 70
     5
  0
LTYPE
  5
13
330
5
100
AcDbSymbolTableRecord
100
AcDbLinetypeTableRecord
  2
ByBlock
 70
     0
  3

 72
    65
 73
     0
 40
0.0
  0
LTYPE
  5
14
330
5
100
AcDbSymbolTableRecord
100
AcDbLinetypeTableRecord
  2
ByLayer
 70
     0
  3

 72
    65
 73
     0
 40
0.0
  0
LTYPE
  5
15
330
5
100
AcDbSymbolTableRecord
100
AcDbLinetypeTableRecord
  2
CONTINUOUS
 70
     0
  3
Solid line
 72
    65
 73
     0
 40
0.0
  0
LTYPE
  5
43
330
5
100
AcDbSymbolTableRecord
100
AcDbLinetypeTableRecord
  2
PHANTOM
 70
     0
  3
_____ _ _ _____ _ _ _____ _ _ _____ _ _ ____
 72
    65
 73
     6
 40
2.5
 49
1.25
 74
     0
 49
-0.25
 74
     0
 49
0.25
 74
     0
 49
-0.25
 74
     0
 49
0.25
 74
     0
 49
-0.25
 74
     0
  0
LTYPE
  5
44
330
5
100
AcDbSymbolTableRecord
100
AcDbLinetypeTableRecord
  2
CENTER
 70
     0
  3
____ _ ____ _ ____ _ ____ _ ____ _ ____ _ ____
 72
    65
 73
     4
 40
2.0
 49
1.25
 74
     0
 49
-0.25
 74
     0
 49
0.25
 74
     0
 49
-0.25
 74
     0
  0
LTYPE
  5
45
330
5
100
AcDbSymbolTableRecord
100
AcDbLinetypeTableRecord
  2
HIDDEN2
 70
     0
  3
_ _ _ _ _ _ _ _ _ _ _ _ _ _ _ _ _ _ _ _ _ _ _ _
 72
    65
 73
     2
 40
0.1875
 49
0.125
 74
     0
 49
-0.0625
 74
     0
  0
LTYPE
  5
46
330
5
100
AcDbSymbolTableRecord
100
AcDbLinetypeTableRecord
  2
HIDDEN
 70
     0
  3
_ _ _ _ _ _ _ _ _ _ _ _ _ _ _ _ _ _ _ _ _ _ _
 72
    65
 73
     2
 40
0.375
 49
0.25
 74
     0
 49
-0.125
 74
     0
  0
ENDTAB
  0
TABLE
  2
LAYER
  5
2
330
0
100
AcDbSymbolTable
 70
     9
  0
LAYER
  5
10
330
2
100
AcDbSymbolTableRecord
100
AcDbLayerTableRecord
  2
0
 70
     0
 62
     7
  6
CONTINUOUS
370
    -3
390
F
  0
LAYER
  5
4B
330
2
100
AcDbSymbolTableRecord
100
AcDbLayerTableRecord
  2
OBJECT
 70
     0
 62
     7
  6
CONTINUOUS
370
    -3
390
F
  0
LAYER
  5
4C
330
2
100
AcDbSymbolTableRecord
100
AcDbLayerTableRecord
  2
DIM
 70
     0
 62
     7
  6
CONTINUOUS
370
    -3
390
F
  0
LAYER
  5
4D
330
2
100
AcDbSymbolTableRecord
100
AcDbLayerTableRecord
  2
HIDDEN
 70
     0
 62
     7
  6
HIDDEN2
370
    -3
390
F
  0
LAYER
  5
4E
330
2
100
AcDbSymbolTableRecord
100
AcDbLayerTableRecord
  2
BEND
 70
     0
 62
     7
  6
PHANTOM
370
    -3
390
F
  0
LAYER
  5
4F
330
2
100
AcDbSymbolTableRecord
100
AcDbLayerTableRecord
  2
TEXT
 70
     0
 62
     7
  6
CONTINUOUS
370
    -3
390
F
  0
LAYER
  5
50
330
2
100
AcDbSymbolTableRecord
100
AcDbLayerTableRecord
  2
TITLE
 70
     0
 62
     7
  6
CONTINUOUS
370
    -3
390
F
  0
LAYER
  5
51
330
2
100
AcDbSymbolTableRecord
100
AcDbLayerTableRecord
  2
CENTER
 70
     0
 62
     7
  6
CENTER
370
    -3
390
F
  0
LAYER
  5
52
330
2
100
AcDbSymbolTableRecord
100
AcDbLayerTableRecord
  2
DEFPOINTS
 70
     0
 62
     7
  6
CONTINUOUS
290
     0
370
    -3
390
F
  0
ENDTAB
  0
TABLE
  2
STYLE
  5
3
330
0
100
AcDbSymbolTable
 70
     2
  0
STYLE
  5
11
330
3
100
AcDbSymbolTableRecord
100
AcDbTextStyleTableRecord
  2
STANDARD
 70
     0
 40
0.0
 41
1.0
 50
0.0
 71
     0
 42
0.2
  3
txt
  4

  0
STYLE
  5
42
330
3
100
AcDbSymbolTableRecord
100
AcDbTextStyleTableRecord
  2
TXT
 70
     0
 40
0.0
 41
0.75
 50
0.0
 71
     0
 42
0.5
  3
TXT.shx
  4

  0
ENDTAB
  0
TABLE
  2
VIEW
  5
6
330
0
100
AcDbSymbolTable
 70
     0
  0
ENDTAB
  0
TABLE
  2
UCS
  5
7
330
0
100
AcDbSymbolTable
 70
     0
  0
ENDTAB
  0
TABLE
  2
APPID
  5
9
330
0
100
AcDbSymbolTable
 70
     1
  0
APPID
  5
12
330
9
100
AcDbSymbolTableRecord
100
AcDbRegAppTableRecord
  2
ACAD
 70
     0
  0
ENDTAB
  0
TABLE
  2
DIMSTYLE
  5
A
330
0
100
AcDbSymbolTable
 70
     2
100
AcDbDimStyleTable
 71
     2
340
49
340
4A
  0
DIMSTYLE
105
49
102
{ACAD_REACTORS
330
28D
330
28E
330
28F
330
290
330
291
330
292
330
293
330
294
330
295
330
296
330
297
330
298
330
299
330
29A
330
29B
330
29C
330
29D
330
2D9
330
2DA
330
2DB
330
353
330
354
330
355
330
356
330
379
330
66D
330
66E
102
}
330
A
100
AcDbSymbolTableRecord
100
AcDbDimStyleTableRecord
  2
23NSTD
 70
     0
 40
4.0
 42
0.063
 43
0.25
 44
0.093
140
0.125
170
     1
171
     0
271
     3
272
     3
274
     0
289
     1
340
42
  0
DIMSTYLE
105
4A
102
{ACAD_REACTORS
330
29E
102
}
330
A
100
AcDbSymbolTableRecord
100
AcDbDimStyleTableRecord
  2
23NSTDI
 70
     0
 40
4.0
 42
0.063
 43
0.25
 44
0.093
140
0.125
170
     1
171
     0
174
     1
271
     3
272
     3
274
     0
340
42
  0
ENDTAB
  0
TABLE
  2
BLOCK_RECORD
  5
1
330
0
100
AcDbSymbolTable
 70
    32
  0
BLOCK_RECORD
  5
1E
330
1
100
AcDbSymbolTableRecord
100
AcDbBlockTableRecord
  2
*Model_Space
340
21
  0
BLOCK_RECORD
  5
1A
330
1
100
AcDbSymbolTableRecord
100
AcDbBlockTableRecord
  2
*Paper_Space
340
1D
  0
BLOCK_RECORD
  5
22
330
1
100
AcDbSymbolTableRecord
100
AcDbBlockTableRecord
  2
*X0
340
0
102
{BLKREFS
331
378
102
}
  0
BLOCK_RECORD
  5
23
330
1
100
AcDbSymbolTableRecord
100
AcDbBlockTableRecord
  2
*X1
340
0
102
{BLKREFS
331
56F
102
}
  0
BLOCK_RECORD
  5
24
330
1
100
AcDbSymbolTableRecord
100
AcDbBlockTableRecord
  2
*X2
340
0
102
{BLKREFS
331
5A1
102
}
  0
BLOCK_RECORD
  5
25
330
1
100
AcDbSymbolTableRecord
100
AcDbBlockTableRecord
  2
HBS
340
0
102
{BLKREFS
331
767
102
}
  0
BLOCK_RECORD
  5
7B9
330
1
100
AcDbSymbolTableRecord
100
AcDbBlockTableRecord
  2
*D4
340
0
  0
BLOCK_RECORD
  5
7C6
330
1
100
AcDbSymbolTableRecord
100
AcDbBlockTableRecord
  2
*D5
340
0
  0
BLOCK_RECORD
  5
7D3
330
1
100
AcDbSymbolTableRecord
100
AcDbBlockTableRecord
  2
*D6
340
0
  0
BLOCK_RECORD
  5
7E0
330
1
100
AcDbSymbolTableRecord
100
AcDbBlockTableRecord
  2
*D7
340
0
  0
BLOCK_RECORD
  5
7ED
330
1
100
AcDbSymbolTableRecord
100
AcDbBlockTableRecord
  2
*D8
340
0
  0
BLOCK_RECORD
  5
7FA
330
1
100
AcDbSymbolTableRecord
100
AcDbBlockTableRecord
  2
*D9
340
0
  0
BLOCK_RECORD
  5
807
330
1
100
AcDbSymbolTableRecord
100
AcDbBlockTableRecord
  2
*D10
340
0
  0
BLOCK_RECORD
  5
814
330
1
100
AcDbSymbolTableRecord
100
AcDbBlockTableRecord
  2
*D11
340
0
  0
BLOCK_RECORD
  5
821
330
1
100
AcDbSymbolTableRecord
100
AcDbBlockTableRecord
  2
*D12
340
0
  0
BLOCK_RECORD
  5
82E
330
1
100
AcDbSymbolTableRecord
100
AcDbBlockTableRecord
  2
*D13
340
0
  0
BLOCK_RECORD
  5
83B
330
1
100
AcDbSymbolTableRecord
100
AcDbBlockTableRecord
  2
*D14
340
0
  0
BLOCK_RECORD
  5
848
330
1
100
AcDbSymbolTableRecord
100
AcDbBlockTableRecord
  2
*D15
340
0
  0
BLOCK_RECORD
  5
855
330
1
100
AcDbSymbolTableRecord
100
AcDbBlockTableRecord
  2
*D16
340
0
  0
BLOCK_RECORD
  5
862
330
1
100
AcDbSymbolTableRecord
100
AcDbBlockTableRecord
  2
*D17
340
0
  0
BLOCK_RECORD
  5
86F
330
1
100
AcDbSymbolTableRecord
100
AcDbBlockTableRecord
  2
*D18
340
0
  0
BLOCK_RECORD
  5
87C
330
1
100
AcDbSymbolTableRecord
100
AcDbBlockTableRecord
  2
*D19
340
0
  0
BLOCK_RECORD
  5
889
330
1
100
AcDbSymbolTableRecord
100
AcDbBlockTableRecord
  2
*D20
340
0
  0
BLOCK_RECORD
  5
896
330
1
100
AcDbSymbolTableRecord
100
AcDbBlockTableRecord
  2
*D21
340
0
  0
BLOCK_RECORD
  5
8A3
330
1
100
AcDbSymbolTableRecord
100
AcDbBlockTableRecord
  2
*D22
340
0
  0
BLOCK_RECORD
  5
8B0
330
1
100
AcDbSymbolTableRecord
100
AcDbBlockTableRecord
  2
*D23
340
0
  0
BLOCK_RECORD
  5
8BD
330
1
100
AcDbSymbolTableRecord
100
AcDbBlockTableRecord
  2
*D24
340
0
  0
BLOCK_RECORD
  5
8CA
330
1
100
AcDbSymbolTableRecord
100
AcDbBlockTableRecord
  2
*D25
340
0
  0
BLOCK_RECORD
  5
8D7
330
1
100
AcDbSymbolTableRecord
100
AcDbBlockTableRecord
  2
*D26
340
0
  0
BLOCK_RECORD
  5
8E4
330
1
100
AcDbSymbolTableRecord
100
AcDbBlockTableRecord
  2
*D27
340
0
  0
BLOCK_RECORD
  5
8F1
330
1
100
AcDbSymbolTableRecord
100
AcDbBlockTableRecord
  2
*D28
340
0
  0
BLOCK_RECORD
  5
8FE
330
1
100
AcDbSymbolTableRecord
100
AcDbBlockTableRecord
  2
*D29
340
0
  0
BLOCK_RECORD
  5
90B
330
1
100
AcDbSymbolTableRecord
100
AcDbBlockTableRecord
  2
*D30
340
0
  0
BLOCK_RECORD
  5
918
330
1
100
AcDbSymbolTableRecord
100
AcDbBlockTableRecord
  2
*D31
340
0
  0
ENDTAB
  0
ENDSEC
  0
SECTION
  2
BLOCKS
  0
BLOCK
  5
55
330
1E
100
AcDbEntity
  8
0
100
AcDbBlockBegin
  2
*Model_Space
 70
     0
 10
0.0
 20
0.0
 30
0.0
  3
*Model_Space
  1

  0
ENDBLK
  5
56
330
1E
100
AcDbEntity
  8
0
100
AcDbBlockEnd
  0
BLOCK
  5
53
330
1A
100
AcDbEntity
 67
     1
  8
0
100
AcDbBlockBegin
  2
*Paper_Space
 70
     0
 10
0.0
 20
0.0
 30
0.0
  3
*Paper_Space
  1

  0
ENDBLK
  5
54
330
1A
100
AcDbEntity
 67
     1
  8
0
100
AcDbBlockEnd
  0
BLOCK
  5
57
330
22
100
AcDbEntity
  8
0
100
AcDbBlockBegin
  2
*X0
 70
     1
 10
0.0
 20
0.0
 30
0.0
  3
*X0
  1

  0
LINE
  5
58
330
22
100
AcDbEntity
  8
0
 62
     0
100
AcDbLine
 10
50.16608222459144
 20
15.16429655585733
 30
0.0
 11
50.24408222459143
 21
15.24229655585734
 31
0.0
  0
LINE
  5
59
330
22
100
AcDbEntity
  8
0
 62
     0
100
AcDbLine
 10
50.16608222459144
 20
15.69462664174725
 30
0.0
 11
50.24408222459143
 21
15.77262664174725
 31
0.0
  0
LINE
  5
5A
330
22
100
AcDbEntity
  8
0
 62
     0
100
AcDbLine
 10
50.16608222459144
 20
16.22495672763716
 30
0.0
 11
50.24408222459143
 21
16.30295672763716
 31
0.0
  0
LINE
  5
5B
330
22
100
AcDbEntity
  8
0
 62
     0
100
AcDbLine
 10
50.16608222459144
 20
16.75528681352707
 30
0.0
 11
50.24408222459143
 21
16.83328681352707
 31
0.0
  0
LINE
  5
5C
330
22
100
AcDbEntity
  8
0
 62
     0
100
AcDbLine
 10
50.16608222459144
 20
17.28561689941699
 30
0.0
 11
50.24408222459143
 21
17.36361689941698
 31
0.0
  0
LINE
  5
5D
330
22
100
AcDbEntity
  8
0
 62
     0
100
AcDbLine
 10
50.16608222459145
 20
17.8159469853069
 30
0.0
 11
50.24408222459143
 21
17.89394698530688
 31
0.0
  0
LINE
  5
5E
330
22
100
AcDbEntity
  8
0
 62
     0
100
AcDbLine
 10
50.16608222459145
 20
18.34627707119681
 30
0.0
 11
50.24408222459143
 21
18.4242770711968
 31
0.0
  0
LINE
  5
5F
330
22
100
AcDbEntity
  8
0
 62
     0
100
AcDbLine
 10
50.16608222459144
 20
14.63396646996742
 30
0.0
 11
50.24408222459144
 21
14.71196646996743
 31
0.0
  0
LINE
  5
60
330
22
100
AcDbEntity
  8
0
 62
     0
100
AcDbLine
 10
50.16608222459144
 20
14.10363638407751
 30
0.0
 11
50.24408222459144
 21
14.18163638407752
 31
0.0
  0
LINE
  5
61
330
22
100
AcDbEntity
  8
0
 62
     0
100
AcDbLine
 10
50.16608222459143
 20
13.57330629818759
 30
0.0
 11
50.24408222459144
 21
13.65130629818761
 31
0.0
  0
LINE
  5
62
330
22
100
AcDbEntity
  8
0
 62
     0
100
AcDbLine
 10
50.16608222459143
 20
13.04297621229768
 30
0.0
 11
50.24408222459144
 21
13.1209762122977
 31
0.0
  0
LINE
  5
63
330
22
100
AcDbEntity
  8
0
 62
     0
100
AcDbLine
 10
50.16608222459143
 20
12.51264612640777
 30
0.0
 11
50.24408222459144
 21
12.59064612640779
 31
0.0
  0
LINE
  5
64
330
22
100
AcDbEntity
  8
0
 62
     0
100
AcDbLine
 10
50.16608222459142
 20
11.98231604051786
 30
0.0
 11
50.24408222459144
 21
12.06031604051787
 31
0.0
  0
LINE
  5
65
330
22
100
AcDbEntity
  8
0
 62
     0
100
AcDbLine
 10
50.16608222459142
 20
11.45198595462795
 30
0.0
 11
50.24408222459144
 21
11.52998595462797
 31
0.0
  0
LINE
  5
66
330
22
100
AcDbEntity
  8
0
 62
     0
100
AcDbLine
 10
50.16608222459144
 20
14.98751986085734
 30
0.0
 11
50.24408222459143
 21
15.06551986085734
 31
0.0
  0
LINE
  5
67
330
22
100
AcDbEntity
  8
0
 62
     0
100
AcDbLine
 10
50.16608222459144
 20
15.51784994674725
 30
0.0
 11
50.24408222459143
 21
15.59584994674725
 31
0.0
  0
LINE
  5
68
330
22
100
AcDbEntity
  8
0
 62
     0
100
AcDbLine
 10
50.16608222459144
 20
16.04818003263716
 30
0.0
 11
50.24408222459143
 21
16.12618003263716
 31
0.0
  0
LINE
  5
69
330
22
100
AcDbEntity
  8
0
 62
     0
100
AcDbLine
 10
50.16608222459144
 20
16.57851011852707
 30
0.0
 11
50.24408222459143
 21
16.65651011852707
 31
0.0
  0
LINE
  5
6A
330
22
100
AcDbEntity
  8
0
 62
     0
100
AcDbLine
 10
50.16608222459144
 20
17.10884020441699
 30
0.0
 11
50.24408222459143
 21
17.18684020441698
 31
0.0
  0
LINE
  5
6B
330
22
100
AcDbEntity
  8
0
 62
     0
100
AcDbLine
 10
50.16608222459144
 20
17.6391702903069
 30
0.0
 11
50.24408222459143
 21
17.71717029030689
 31
0.0
  0
LINE
  5
6C
330
22
100
AcDbEntity
  8
0
 62
     0
100
AcDbLine
 10
50.16608222459145
 20
18.16950037619681
 30
0.0
 11
50.24408222459143
 21
18.2475003761968
 31
0.0
  0
LINE
  5
6D
330
22
100
AcDbEntity
  8
0
 62
     0
100
AcDbLine
 10
50.16608222459144
 20
14.45718977496742
 30
0.0
 11
50.24408222459144
 21
14.53518977496743
 31
0.0
  0
LINE
  5
6E
330
22
100
AcDbEntity
  8
0
 62
     0
100
AcDbLine
 10
50.16608222459143
 20
13.92685968907751
 30
0.0
 11
50.24408222459144
 21
14.00485968907752
 31
0.0
  0
LINE
  5
6F
330
22
100
AcDbEntity
  8
0
 62
     0
100
AcDbLine
 10
50.16608222459143
 20
13.3965296031876
 30
0.0
 11
50.24408222459144
 21
13.47452960318761
 31
0.0
  0
LINE
  5
70
330
22
100
AcDbEntity
  8
0
 62
     0
100
AcDbLine
 10
50.16608222459143
 20
12.86619951729768
 30
0.0
 11
50.24408222459144
 21
12.9441995172977
 31
0.0
  0
LINE
  5
71
330
22
100
AcDbEntity
  8
0
 62
     0
100
AcDbLine
 10
50.16608222459143
 20
12.33586943140777
 30
0.0
 11
50.24408222459144
 21
12.41386943140779
 31
0.0
  0
LINE
  5
72
330
22
100
AcDbEntity
  8
0
 62
     0
100
AcDbLine
 10
50.16608222459142
 20
11.80553934551786
 30
0.0
 11
50.24408222459144
 21
11.88353934551788
 31
0.0
  0
LINE
  5
73
330
22
100
AcDbEntity
  8
0
 62
     0
100
AcDbLine
 10
50.16608222459142
 20
11.27520925962794
 30
0.0
 11
50.24408222459144
 21
11.35320925962797
 31
0.0
  0
ENDBLK
  5
74
330
22
100
AcDbEntity
  8
0
100
AcDbBlockEnd
  0
BLOCK
  5
75
330
23
100
AcDbEntity
  8
0
100
AcDbBlockBegin
  2
*X1
 70
     1
 10
0.0
 20
0.0
 30
0.0
  3
*X1
  1

  0
LINE
  5
76
330
23
100
AcDbEntity
  8
0
 62
     0
100
AcDbLine
 10
21.20250748454357
 20
28.98068207759559
 30
0.0
 11
21.33650748454357
 21
29.11468207759559
 31
0.0
  0
LINE
  5
77
330
23
100
AcDbEntity
  8
0
 62
     0
100
AcDbLine
 10
21.20250748454357
 20
29.68778885878214
 30
0.0
 11
21.33650748454357
 21
29.82178885878214
 31
0.0
  0
LINE
  5
78
330
23
100
AcDbEntity
  8
0
 62
     0
100
AcDbLine
 10
21.20250748454357
 20
30.39489563996869
 30
0.0
 11
21.33650748454356
 21
30.52889563996869
 31
0.0
  0
LINE
  5
79
330
23
100
AcDbEntity
  8
0
 62
     0
100
AcDbLine
 10
21.20250748454357
 20
31.10200242115523
 30
0.0
 11
21.33650748454356
 21
31.23600242115523
 31
0.0
  0
LINE
  5
7A
330
23
100
AcDbEntity
  8
0
 62
     0
100
AcDbLine
 10
21.20250748454357
 20
31.80910920234178
 30
0.0
 11
21.33650748454356
 21
31.94310920234178
 31
0.0
  0
LINE
  5
7B
330
23
100
AcDbEntity
  8
0
 62
     0
100
AcDbLine
 10
21.20250748454357
 20
32.51621598352832
 30
0.0
 11
21.33650748454356
 21
32.65021598352833
 31
0.0
  0
LINE
  5
7C
330
23
100
AcDbEntity
  8
0
 62
     0
100
AcDbLine
 10
21.20250748454356
 20
33.22332276471487
 30
0.0
 11
21.33650748454356
 21
33.35732276471487
 31
0.0
  0
LINE
  5
7D
330
23
100
AcDbEntity
  8
0
 62
     0
100
AcDbLine
 10
21.20250748454356
 20
33.93042954590141
 30
0.0
 11
21.33650748454356
 21
34.06442954590142
 31
0.0
  0
LINE
  5
7E
330
23
100
AcDbEntity
  8
0
 62
     0
100
AcDbLine
 10
21.20250748454358
 20
28.27357529640904
 30
0.0
 11
21.33650748454357
 21
28.40757529640905
 31
0.0
  0
LINE
  5
7F
330
23
100
AcDbEntity
  8
0
 62
     0
100
AcDbLine
 10
21.20250748454358
 20
27.5664685152225
 30
0.0
 11
21.33650748454357
 21
27.7004685152225
 31
0.0
  0
LINE
  5
80
330
23
100
AcDbEntity
  8
0
 62
     0
100
AcDbLine
 10
21.20250748454358
 20
26.85936173403595
 30
0.0
 11
21.33650748454358
 21
26.99336173403596
 31
0.0
  0
LINE
  5
81
330
23
100
AcDbEntity
  8
0
 62
     0
100
AcDbLine
 10
21.58504145408458
 20
26.53478892239041
 30
0.0
 11
21.71565731269872
 21
26.66540478100456
 31
0.0
  0
LINE
  5
82
330
23
100
AcDbEntity
  8
0
 62
     0
100
AcDbLine
 10
22.09201927854332
 20
26.33465996566261
 30
0.0
 11
22.22981455154326
 21
26.47245523866255
 31
0.0
  0
LINE
  5
83
330
23
100
AcDbEntity
  8
0
 62
     0
100
AcDbLine
 10
22.28257981048497
 20
26.52522049760425
 30
0.0
 11
22.38674833064764
 21
26.62938901776692
 31
0.0
  0
LINE
  5
84
330
23
100
AcDbEntity
  8
0
 62
     0
100
AcDbLine
 10
21.20250748454357
 20
29.06907042524391
 30
0.0
 11
21.33650748454357
 21
29.20307042524391
 31
0.0
  0
LINE
  5
85
330
23
100
AcDbEntity
  8
0
 62
     0
100
AcDbLine
 10
21.20250748454357
 20
29.77617720643046
 30
0.0
 11
21.33650748454357
 21
29.91017720643046
 31
0.0
  0
LINE
  5
86
330
23
100
AcDbEntity
  8
0
 62
     0
100
AcDbLine
 10
21.20250748454357
 20
30.483283987617
 30
0.0
 11
21.33650748454356
 21
30.617283987617
 31
0.0
  0
LINE
  5
87
330
23
100
AcDbEntity
  8
0
 62
     0
100
AcDbLine
 10
21.20250748454357
 20
31.19039076880355
 30
0.0
 11
21.33650748454356
 21
31.32439076880355
 31
0.0
  0
LINE
  5
88
330
23
100
AcDbEntity
  8
0
 62
     0
100
AcDbLine
 10
21.20250748454357
 20
31.89749754999009
 30
0.0
 11
21.33650748454356
 21
32.0314975499901
 31
0.0
  0
LINE
  5
89
330
23
100
AcDbEntity
  8
0
 62
     0
100
AcDbLine
 10
21.20250748454357
 20
32.60460433117664
 30
0.0
 11
21.33650748454356
 21
32.73860433117664
 31
0.0
  0
LINE
  5
8A
330
23
100
AcDbEntity
  8
0
 62
     0
100
AcDbLine
 10
21.20250748454356
 20
33.31171111236319
 30
0.0
 11
21.33650748454356
 21
33.44571111236319
 31
0.0
  0
LINE
  5
8B
330
23
100
AcDbEntity
  8
0
 62
     0
100
AcDbLine
 10
21.20250748454356
 20
34.01881789354973
 30
0.0
 11
21.28249774064819
 21
34.09880814965436
 31
0.0
  0
LINE
  5
8C
330
23
100
AcDbEntity
  8
0
 62
     0
100
AcDbLine
 10
21.20250748454358
 20
28.36196364405736
 30
0.0
 11
21.33650748454357
 21
28.49596364405737
 31
0.0
  0
LINE
  5
8D
330
23
100
AcDbEntity
  8
0
 62
     0
100
AcDbLine
 10
21.20250748454358
 20
27.65485686287082
 30
0.0
 11
21.33650748454357
 21
27.78885686287082
 31
0.0
  0
LINE
  5
8E
330
23
100
AcDbEntity
  8
0
 62
     0
100
AcDbLine
 10
21.20250748454358
 20
26.94775008168427
 30
0.0
 11
21.33650748454358
 21
27.08175008168427
 31
0.0
  0
LINE
  5
8F
330
23
100
AcDbEntity
  8
0
 62
     0
100
AcDbLine
 10
21.50115507684097
 20
26.53929089279512
 30
0.0
 11
21.63177093545511
 21
26.66990675140926
 31
0.0
  0
LINE
  5
90
330
23
100
AcDbEntity
  8
0
 62
     0
100
AcDbLine
 10
22.09201927854332
 20
26.42304831331093
 30
0.0
 11
22.30286195340402
 21
26.63389098817163
 31
0.0
  0
LINE
  5
91
330
23
100
AcDbEntity
  8
0
 62
     0
100
AcDbLine
 10
21.20250748454357
 20
29.15745877289223
 30
0.0
 11
21.33650748454357
 21
29.29145877289223
 31
0.0
  0
LINE
  5
92
330
23
100
AcDbEntity
  8
0
 62
     0
100
AcDbLine
 10
21.20250748454357
 20
29.86456555407878
 30
0.0
 11
21.33650748454357
 21
29.99856555407878
 31
0.0
  0
LINE
  5
93
330
23
100
AcDbEntity
  8
0
 62
     0
100
AcDbLine
 10
21.20250748454357
 20
30.57167233526532
 30
0.0
 11
21.33650748454356
 21
30.70567233526532
 31
0.0
  0
LINE
  5
94
330
23
100
AcDbEntity
  8
0
 62
     0
100
AcDbLine
 10
21.20250748454357
 20
31.27877911645187
 30
0.0
 11
21.33650748454356
 21
31.41277911645187
 31
0.0
  0
LINE
  5
95
330
23
100
AcDbEntity
  8
0
 62
     0
100
AcDbLine
 10
21.20250748454357
 20
31.98588589763842
 30
0.0
 11
21.33650748454356
 21
32.11988589763842
 31
0.0
  0
LINE
  5
96
330
23
100
AcDbEntity
  8
0
 62
     0
100
AcDbLine
 10
21.20250748454356
 20
32.69299267882496
 30
0.0
 11
21.33650748454356
 21
32.82699267882496
 31
0.0
  0
LINE
  5
97
330
23
100
AcDbEntity
  8
0
 62
     0
100
AcDbLine
 10
21.20250748454356
 20
33.40009946001151
 30
0.0
 11
21.33650748454356
 21
33.53409946001151
 31
0.0
  0
LINE
  5
98
330
23
100
AcDbEntity
  8
0
 62
     0
100
AcDbLine
 10
21.20250748454358
 20
28.45035199170569
 30
0.0
 11
21.33650748454357
 21
28.58435199170568
 31
0.0
  0
LINE
  5
99
330
23
100
AcDbEntity
  8
0
 62
     0
100
AcDbLine
 10
21.20250748454358
 20
27.74324521051914
 30
0.0
 11
21.33650748454357
 21
27.87724521051914
 31
0.0
  0
LINE
  5
9A
330
23
100
AcDbEntity
  8
0
 62
     0
100
AcDbLine
 10
21.20250748454358
 20
27.03613842933259
 30
0.0
 11
21.33650748454357
 21
27.17013842933259
 31
0.0
  0
LINE
  5
9B
330
23
100
AcDbEntity
  8
0
 62
     0
100
AcDbLine
 10
21.41726869959736
 20
26.54379286319983
 30
0.0
 11
21.5478845582115
 21
26.67440872181396
 31
0.0
  0
LINE
  5
9C
330
23
100
AcDbEntity
  8
0
 62
     0
100
AcDbLine
 10
22.07433487392735
 20
26.49375225634327
 30
0.0
 11
22.21897557616041
 21
26.63839295857633
 31
0.0
  0
LINE
  5
9D
330
23
100
AcDbEntity
  8
0
 62
     0
100
AcDbLine
 10
21.20250748454357
 20
29.42262381583718
 30
0.0
 11
21.33650748454357
 21
29.55662381583719
 31
0.0
  0
LINE
  5
9E
330
23
100
AcDbEntity
  8
0
 62
     0
100
AcDbLine
 10
21.20250748454357
 20
30.12973059702373
 30
0.0
 11
21.33650748454356
 21
30.26373059702373
 31
0.0
  0
LINE
  5
9F
330
23
100
AcDbEntity
  8
0
 62
     0
100
AcDbLine
 10
21.20250748454357
 20
30.83683737821028
 30
0.0
 11
21.33650748454356
 21
30.97083737821028
 31
0.0
  0
LINE
  5
A0
330
23
100
AcDbEntity
  8
0
 62
     0
100
AcDbLine
 10
21.20250748454357
 20
31.54394415939682
 30
0.0
 11
21.33650748454356
 21
31.67794415939682
 31
0.0
  0
LINE
  5
A1
330
23
100
AcDbEntity
  8
0
 62
     0
100
AcDbLine
 10
21.20250748454357
 20
32.25105094058337
 30
0.0
 11
21.33650748454356
 21
32.38505094058337
 31
0.0
  0
LINE
  5
A2
330
23
100
AcDbEntity
  8
0
 62
     0
100
AcDbLine
 10
21.20250748454356
 20
32.95815772176991
 30
0.0
 11
21.33650748454356
 21
33.09215772176991
 31
0.0
  0
LINE
  5
A3
330
23
100
AcDbEntity
  8
0
 62
     0
100
AcDbLine
 10
21.20250748454356
 20
33.66526450295646
 30
0.0
 11
21.33650748454356
 21
33.79926450295646
 31
0.0
  0
LINE
  5
A4
330
23
100
AcDbEntity
  8
0
 62
     0
100
AcDbLine
 10
21.20250748454358
 20
28.71551703465064
 30
0.0
 11
21.33650748454357
 21
28.84951703465064
 31
0.0
  0
LINE
  5
A5
330
23
100
AcDbEntity
  8
0
 62
     0
100
AcDbLine
 10
21.20250748454358
 20
28.00841025346409
 30
0.0
 11
21.33650748454357
 21
28.14241025346409
 31
0.0
  0
LINE
  5
A6
330
23
100
AcDbEntity
  8
0
 62
     0
100
AcDbLine
 10
21.20250748454358
 20
27.30130347227754
 30
0.0
 11
21.33650748454357
 21
27.43530347227755
 31
0.0
  0
LINE
  5
A7
330
23
100
AcDbEntity
  8
0
 62
     0
100
AcDbLine
 10
21.23266561697789
 20
26.62435482352532
 30
0.0
 11
21.33650748454358
 21
26.728196691091
 31
0.0
  0
LINE
  5
A8
330
23
100
AcDbEntity
  8
0
 62
     0
100
AcDbLine
 10
21.83670058581543
 20
26.52128301117631
 30
0.0
 11
21.96731644442956
 21
26.65189886979044
 31
0.0
  0
LINE
  5
A9
330
23
100
AcDbEntity
  8
0
 62
     0
100
AcDbLine
 10
22.2882578482256
 20
26.26573349239993
 30
0.0
 11
22.38729486354345
 21
26.36477050771778
 31
0.0
  0
ENDBLK
  5
AA
330
23
100
AcDbEntity
  8
0
100
AcDbBlockEnd
  0
BLOCK
  5
AB
330
24
100
AcDbEntity
  8
0
100
AcDbBlockBegin
  2
*X2
 70
     1
 10
0.0
 20
0.0
 30
0.0
  3
*X2
  1

  0
LINE
  5
AC
330
24
100
AcDbEntity
  8
0
 62
     0
100
AcDbLine
 10
27.57746013454391
 20
26.86976201682024
 30
0.0
 11
27.5269140017098
 21
26.92030814965434
 31
0.0
  0
LINE
  5
AD
330
24
100
AcDbEntity
  8
0
 62
     0
100
AcDbLine
 10
27.10500015017593
 20
27.34222200118821
 30
0.0
 11
26.98340501754408
 21
27.46381713382007
 31
0.0
  0
LINE
  5
AE
330
24
100
AcDbEntity
  8
0
 62
     0
100
AcDbLine
 10
27.33691400170981
 20
27.11030814965435
 30
0.0
 11
27.1517919206734
 21
27.29543023069075
 31
0.0
  0
LINE
  5
AF
330
24
100
AcDbEntity
  8
0
 62
     0
100
AcDbLine
 10
27.16440921159794
 20
26.57570615857967
 30
0.0
 11
27.0326075513995
 21
26.7075078187781
 31
0.0
  0
LINE
  5
B0
330
24
100
AcDbEntity
  8
0
 62
     0
100
AcDbLine
 10
26.46900128348105
 20
26.56400730551
 30
0.0
 11
26.33719962328262
 21
26.69580896570844
 31
0.0
  0
LINE
  5
B1
330
24
100
AcDbEntity
  8
0
 62
     0
100
AcDbLine
 10
25.77359335536417
 20
26.55230845244034
 30
0.0
 11
25.64179169516573
 21
26.68411011263877
 31
0.0
  0
LINE
  5
B2
330
24
100
AcDbEntity
  8
0
 62
     0
100
AcDbLine
 10
25.07818542724728
 20
26.54060959937067
 30
0.0
 11
24.94638376704885
 21
26.67241125956911
 31
0.0
  0
LINE
  5
B3
330
24
100
AcDbEntity
  8
0
 62
     0
100
AcDbLine
 10
24.38277749913039
 20
26.52891074630101
 30
0.0
 11
24.25097583893196
 21
26.66071240649944
 31
0.0
  0
LINE
  5
B4
330
24
100
AcDbEntity
  8
0
 62
     0
100
AcDbLine
 10
23.68736957101351
 20
26.51721189323135
 30
0.0
 11
23.55556791081508
 21
26.64901355342978
 31
0.0
  0
LINE
  5
B5
330
24
100
AcDbEntity
  8
0
 62
     0
100
AcDbLine
 10
22.99196164289663
 20
26.50551304016169
 30
0.0
 11
22.86015998269819
 21
26.63731470036012
 31
0.0
  0
LINE
  5
B6
330
24
100
AcDbEntity
  8
0
 62
     0
100
AcDbLine
 10
22.52213108510884
 20
26.26823681676292
 30
0.0
 11
22.29773388388268
 21
26.49263401798909
 31
0.0
  0
LINE
  5
B7
330
24
100
AcDbEntity
  8
0
 62
     0
100
AcDbLine
 10
27.57746013454391
 20
27.57686879800679
 30
0.0
 11
27.44214517354353
 21
27.71218375900716
 31
0.0
  0
LINE
  5
B8
330
24
100
AcDbEntity
  8
0
 62
     0
100
AcDbLine
 10
27.36102078289635
 20
27.79330814965435
 30
0.0
 11
27.10005732011534
 21
28.05427161243535
 31
0.0
  0
LINE
  5
B9
330
24
100
AcDbEntity
  8
0
 62
     0
100
AcDbLine
 10
27.49740501754413
 20
28.36403069619311
 30
0.0
 11
27.25962756408289
 21
28.60180814965435
 31
0.0
  0
LINE
  5
BA
330
24
100
AcDbEntity
  8
0
 62
     0
100
AcDbLine
 10
27.09362756408289
 20
28.76780814965435
 30
0.0
 11
27.08740501754408
 21
28.77403069619316
 31
0.0
  0
LINE
  5
BB
330
24
100
AcDbEntity
  8
0
 62
     0
100
AcDbLine
 10
27.49740501754412
 20
29.07113747737967
 30
0.0
 11
27.36340501754408
 21
29.2051374773797
 31
0.0
  0
LINE
  5
BC
330
24
100
AcDbEntity
  8
0
 62
     0
100
AcDbLine
 10
27.12750982788897
 20
29.44103266703482
 30
0.0
 11
27.08740501754407
 21
29.48113747737972
 31
0.0
  0
LINE
  5
BD
330
24
100
AcDbEntity
  8
0
 62
     0
100
AcDbLine
 10
27.57746013454393
 20
29.69818914156642
 30
0.0
 11
27.36340501754408
 21
29.91224425856625
 31
0.0
  0
LINE
  5
BE
330
24
100
AcDbEntity
  8
0
 62
     0
100
AcDbLine
 10
27.4974050175441
 20
30.48535103975279
 30
0.0
 11
27.40894790764253
 21
30.57380814965435
 31
0.0
  0
LINE
  5
BF
330
24
100
AcDbEntity
  8
0
 62
     0
100
AcDbLine
 10
27.24294790764254
 20
30.73980814965435
 30
0.0
 11
27.09875025375063
 21
30.88400580354626
 31
0.0
  0
LINE
  5
C0
330
24
100
AcDbEntity
  8
0
 62
     0
100
AcDbLine
 10
27.4974050175441
 20
31.19245782093934
 30
0.0
 11
27.36340501754407
 21
31.32645782093936
 31
0.0
  0
LINE
  5
C1
330
24
100
AcDbEntity
  8
0
 62
     0
100
AcDbLine
 10
27.28222431268162
 20
31.40763852580181
 30
0.0
 11
27.13005468882908
 21
31.55980814965435
 31
0.0
  0
LINE
  5
C2
330
24
100
AcDbEntity
  8
0
 62
     0
100
AcDbLine
 10
27.49740501754409
 20
31.89956460212589
 30
0.0
 11
27.36340501754408
 21
32.0335646021259
 31
0.0
  0
LINE
  5
C3
330
24
100
AcDbEntity
  8
0
 62
     0
100
AcDbLine
 10
27.57746013454392
 20
32.5266162663126
 30
0.0
 11
27.41242196795218
 21
32.69165443290435
 31
0.0
  0
LINE
  5
C4
330
24
100
AcDbEntity
  8
0
 62
     0
100
AcDbLine
 10
27.39226825120218
 20
32.71180814965435
 30
0.0
 11
27.24151786316391
 21
32.86255853769261
 31
0.0
  0
LINE
  5
C5
330
24
100
AcDbEntity
  8
0
 62
     0
100
AcDbLine
 10
27.49740501754408
 20
33.31377816449899
 30
0.0
 11
27.38437503238873
 21
33.42680814965435
 31
0.0
  0
LINE
  5
C6
330
24
100
AcDbEntity
  8
0
 62
     0
100
AcDbLine
 10
27.37240501754409
 20
33.43877816449899
 30
0.0
 11
27.22540501754407
 21
33.585778164499
 31
0.0
  0
LINE
  5
C7
330
24
100
AcDbEntity
  8
0
 62
     0
100
AcDbLine
 10
27.5774601345439
 20
27.48848045035847
 30
0.0
 11
27.44214517354354
 21
27.62379541135884
 31
0.0
  0
LINE
  5
C8
330
24
100
AcDbEntity
  8
0
 62
     0
100
AcDbLine
 10
27.27263243524803
 20
27.79330814965435
 30
0.0
 11
27.01380971894257
 21
28.0521308659598
 31
0.0
  0
LINE
  5
C9
330
24
100
AcDbEntity
  8
0
 62
     0
100
AcDbLine
 10
27.57746013454391
 20
26.78137366917192
 30
0.0
 11
27.43852565406148
 21
26.92030814965434
 31
0.0
  0
LINE
  5
CA
330
24
100
AcDbEntity
  8
0
 62
     0
100
AcDbLine
 10
27.01436208049978
 20
27.34447172321604
 30
0.0
 11
26.98340501754408
 21
27.37542878617175
 31
0.0
  0
LINE
  5
CB
330
24
100
AcDbEntity
  8
0
 62
     0
100
AcDbLine
 10
27.24852565406149
 20
27.11030814965435
 30
0.0
 11
27.08740501754408
 21
27.27142878617176
 31
0.0
  0
LINE
  5
CC
330
24
100
AcDbEntity
  8
0
 62
     0
100
AcDbLine
 10
27.07748322058332
 20
26.57424380194596
 30
0.0
 11
26.94568156038489
 21
26.70604546214439
 31
0.0
  0
LINE
  5
CD
330
24
100
AcDbEntity
  8
0
 62
     0
100
AcDbLine
 10
26.38207529246644
 20
26.5625449488763
 30
0.0
 11
26.250273632268
 21
26.69434660907473
 31
0.0
  0
LINE
  5
CE
330
24
100
AcDbEntity
  8
0
 62
     0
100
AcDbLine
 10
25.68666736434956
 20
26.55084609580663
 30
0.0
 11
25.55486570415112
 21
26.68264775600507
 31
0.0
  0
LINE
  5
CF
330
24
100
AcDbEntity
  8
0
 62
     0
100
AcDbLine
 10
24.99125943623267
 20
26.53914724273697
 30
0.0
 11
24.85945777603424
 21
26.6709489029354
 31
0.0
  0
LINE
  5
D0
330
24
100
AcDbEntity
  8
0
 62
     0
100
AcDbLine
 10
24.29585150811579
 20
26.5274483896673
 30
0.0
 11
24.16404984791735
 21
26.65925004986574
 31
0.0
  0
LINE
  5
D1
330
24
100
AcDbEntity
  8
0
 62
     0
100
AcDbLine
 10
23.6004435799989
 20
26.51574953659764
 30
0.0
 11
23.46864191980047
 21
26.64755119679607
 31
0.0
  0
LINE
  5
D2
330
24
100
AcDbEntity
  8
0
 62
     0
100
AcDbLine
 10
22.90503565188202
 20
26.50405068352798
 30
0.0
 11
22.77323399168358
 21
26.63585234372641
 31
0.0
  0
LINE
  5
D3
330
24
100
AcDbEntity
  8
0
 62
     0
100
AcDbLine
 10
22.4395195020906
 20
26.26246005213285
 30
0.0
 11
22.38729486354345
 21
26.31468469067999
 31
0.0
  0
LINE
  5
D4
330
24
100
AcDbEntity
  8
0
 62
     0
100
AcDbLine
 10
22.29866979119937
 20
26.40330976302408
 30
0.0
 11
22.28529647691317
 21
26.41668307731027
 31
0.0
  0
LINE
  5
D5
330
24
100
AcDbEntity
  8
0
 62
     0
100
AcDbLine
 10
27.49740501754413
 20
28.27564234854479
 30
0.0
 11
27.36340501754408
 21
28.40964234854483
 31
0.0
  0
LINE
  5
D6
330
24
100
AcDbEntity
  8
0
 62
     0
100
AcDbLine
 10
27.3248966158522
 20
28.44815075023672
 30
0.0
 11
27.17123921643457
 21
28.60180814965435
 31
0.0
  0
LINE
  5
D7
330
24
100
AcDbEntity
  8
0
 62
     0
100
AcDbLine
 10
27.49740501754412
 20
28.98274912973135
 30
0.0
 11
27.36340501754408
 21
29.11674912973138
 31
0.0
  0
LINE
  5
D8
330
24
100
AcDbEntity
  8
0
 62
     0
100
AcDbLine
 10
27.57746013454392
 20
29.6098007939181
 30
0.0
 11
27.28131486303878
 21
29.90594606542324
 31
0.0
  0
LINE
  5
D9
330
24
100
AcDbEntity
  8
0
 62
     0
100
AcDbLine
 10
27.4974050175441
 20
30.39696269210446
 30
0.0
 11
27.32055955999422
 21
30.57380814965435
 31
0.0
  0
LINE
  5
DA
330
24
100
AcDbEntity
  8
0
 62
     0
100
AcDbLine
 10
27.15455955999422
 20
30.73980814965435
 30
0.0
 11
27.08740501754408
 21
30.80696269210449
 31
0.0
  0
LINE
  5
DB
330
24
100
AcDbEntity
  8
0
 62
     0
100
AcDbLine
 10
27.4974050175441
 20
31.10406947329102
 30
0.0
 11
27.36340501754408
 21
31.23806947329104
 31
0.0
  0
LINE
  5
DC
330
24
100
AcDbEntity
  8
0
 62
     0
100
AcDbLine
 10
27.19064296922844
 20
31.41083152160668
 30
0.0
 11
27.08740501754407
 21
31.51406947329104
 31
0.0
  0
LINE
  5
DD
330
24
100
AcDbEntity
  8
0
 62
     0
100
AcDbLine
 10
27.57746013454393
 20
31.73112113747773
 30
0.0
 11
27.51577312236731
 21
31.79280814965435
 31
0.0
  0
LINE
  5
DE
330
24
100
AcDbEntity
  8
0
 62
     0
100
AcDbLine
 10
27.49740501754409
 20
31.81117625447758
 30
0.0
 11
27.36340501754408
 21
31.94517625447758
 31
0.0
  0
LINE
  5
DF
330
24
100
AcDbEntity
  8
0
 62
     0
100
AcDbLine
 10
27.53687990355385
 20
32.47880814965436
 30
0.0
 11
27.41242196795218
 21
32.60326608525603
 31
0.0
  0
LINE
  5
E0
330
24
100
AcDbEntity
  8
0
 62
     0
100
AcDbLine
 10
27.30387990355386
 20
32.71180814965435
 30
0.0
 11
27.15610736400766
 21
32.85958068920056
 31
0.0
  0
LINE
  5
E1
330
24
100
AcDbEntity
  8
0
 62
     0
100
AcDbLine
 10
27.49740501754408
 20
33.22538981685068
 30
0.0
 11
27.22540501754407
 21
33.49738981685068
 31
0.0
  0
LINE
  5
E2
330
24
100
AcDbEntity
  8
0
 62
     0
100
AcDbLine
 10
27.49740501754408
 20
33.93249659803722
 30
0.0
 11
27.44009346592696
 21
33.98980814965435
 31
0.0
  0
LINE
  5
E3
330
24
100
AcDbEntity
  8
0
 62
     0
100
AcDbLine
 10
27.37240501754409
 20
34.05749659803722
 30
0.0
 11
27.33109346592694
 21
34.09880814965436
 31
0.0
  0
LINE
  5
E4
330
24
100
AcDbEntity
  8
0
 62
     0
100
AcDbLine
 10
27.56674408759971
 20
27.41080814965434
 30
0.0
 11
27.37424408759971
 21
27.60330814965435
 31
0.0
  0
LINE
  5
E5
330
24
100
AcDbEntity
  8
0
 62
     0
100
AcDbLine
 10
27.18424408759971
 20
27.79330814965435
 30
0.0
 11
26.98340501754408
 21
27.99414721970998
 31
0.0
  0
LINE
  5
E6
330
24
100
AcDbEntity
  8
0
 62
     0
100
AcDbLine
 10
27.54263730641317
 20
26.72780814965435
 30
0.0
 11
27.35013730641317
 21
26.92030814965434
 31
0.0
  0
LINE
  5
E7
330
24
100
AcDbEntity
  8
0
 62
     0
100
AcDbLine
 10
27.20171997854448
 20
27.06872547752303
 30
0.0
 11
27.08740501754408
 21
27.18304043852343
 31
0.0
  0
LINE
  5
E8
330
24
100
AcDbEntity
  8
0
 62
     0
100
AcDbLine
 10
26.99055722956872
 20
26.57278144531225
 30
0.0
 11
26.85875556937028
 21
26.70458310551068
 31
0.0
  0
LINE
  5
E9
330
24
100
AcDbEntity
  8
0
 62
     0
100
AcDbLine
 10
26.29514930145183
 20
26.56108259224259
 30
0.0
 11
26.1633476412534
 21
26.69288425244102
 31
0.0
  0
LINE
  5
EA
330
24
100
AcDbEntity
  8
0
 62
     0
100
AcDbLine
 10
25.59974137333494
 20
26.54938373917292
 30
0.0
 11
25.46793971313651
 21
26.68118539937136
 31
0.0
  0
LINE
  5
EB
330
24
100
AcDbEntity
  8
0
 62
     0
100
AcDbLine
 10
24.90433344521806
 20
26.53768488610326
 30
0.0
 11
24.77253178501963
 21
26.6694865463017
 31
0.0
  0
LINE
  5
EC
330
24
100
AcDbEntity
  8
0
 62
     0
100
AcDbLine
 10
24.20892551710117
 20
26.5259860330336
 30
0.0
 11
24.07712385690274
 21
26.65778769323203
 31
0.0
  0
LINE
  5
ED
330
24
100
AcDbEntity
  8
0
 62
     0
100
AcDbLine
 10
23.51351758898429
 20
26.51428717996394
 30
0.0
 11
23.38171592878585
 21
26.64608884016237
 31
0.0
  0
LINE
  5
EE
330
24
100
AcDbEntity
  8
0
 62
     0
100
AcDbLine
 10
22.8181096608674
 20
26.50258832689427
 30
0.0
 11
22.68630800066897
 21
26.63438998709271
 31
0.0
  0
LINE
  5
EF
330
24
100
AcDbEntity
  8
0
 62
     0
100
AcDbLine
 10
27.49740501754413
 20
28.18725400089647
 30
0.0
 11
27.36340501754408
 21
28.32125400089651
 31
0.0
  0
LINE
  5
F0
330
24
100
AcDbEntity
  8
0
 62
     0
100
AcDbLine
 10
27.23331527239901
 20
28.45134374604159
 30
0.0
 11
27.08740501754408
 21
28.59725400089653
 31
0.0
  0
LINE
  5
F1
330
24
100
AcDbEntity
  8
0
 62
     0
100
AcDbLine
 10
27.57746013454394
 20
28.81430566508322
 30
0.0
 11
27.5569576499728
 21
28.83480814965436
 31
0.0
  0
LINE
  5
F2
330
24
100
AcDbEntity
  8
0
 62
     0
100
AcDbLine
 10
27.49740501754412
 20
28.89436078208303
 30
0.0
 11
27.36340501754408
 21
29.02836078208307
 31
0.0
  0
LINE
  5
F3
330
24
100
AcDbEntity
  8
0
 62
     0
100
AcDbLine
 10
27.57746013454392
 20
29.52141244626978
 30
0.0
 11
27.41242196795218
 21
29.68645061286152
 31
0.0
  0
LINE
  5
F4
330
24
100
AcDbEntity
  8
0
 62
     0
100
AcDbLine
 10
27.34506443115935
 20
29.75380814965435
 30
0.0
 11
27.19590436388252
 21
29.90296821693118
 31
0.0
  0
LINE
  5
F5
330
24
100
AcDbEntity
  8
0
 62
     0
100
AcDbLine
 10
27.4974050175441
 20
30.30857434445614
 30
0.0
 11
27.2321712123459
 21
30.57380814965435
 31
0.0
  0
LINE
  5
F6
330
24
100
AcDbEntity
  8
0
 62
     0
100
AcDbLine
 10
27.4974050175441
 20
31.0156811256427
 30
0.0
 11
27.36340501754408
 21
31.14968112564272
 31
0.0
  0
LINE
  5
F7
330
24
100
AcDbEntity
  8
0
 62
     0
100
AcDbLine
 10
27.09569887703201
 20
31.41738726615479
 30
0.0
 11
27.09103571788913
 21
31.42205042529766
 31
0.0
  0
LINE
  5
F8
330
24
100
AcDbEntity
  8
0
 62
     0
100
AcDbLine
 10
27.57746013454393
 20
31.64273278982942
 30
0.0
 11
27.34019402894513
 21
31.87999889542822
 31
0.0
  0
LINE
  5
F9
330
24
100
AcDbEntity
  8
0
 62
     0
100
AcDbLine
 10
27.49740501754408
 20
32.42989468801581
 30
0.0
 11
27.38149155590554
 21
32.54580814965435
 31
0.0
  0
LINE
  5
FA
330
24
100
AcDbEntity
  8
0
 62
     0
100
AcDbLine
 10
27.21549155590554
 20
32.71180814965435
 30
0.0
 11
27.08747434682022
 21
32.83982535873967
 31
0.0
  0
LINE
  5
FB
330
24
100
AcDbEntity
  8
0
 62
     0
100
AcDbLine
 10
27.49740501754408
 20
33.13700146920236
 30
0.0
 11
27.36340501754408
 21
33.27100146920236
 31
0.0
  0
LINE
  5
FC
330
24
100
AcDbEntity
  8
0
 62
     0
100
AcDbLine
 10
27.32299989709211
 20
33.31140658965433
 30
0.0
 11
27.22540501754407
 21
33.40900146920236
 31
0.0
  0
LINE
  5
FD
330
24
100
AcDbEntity
  8
0
 62
     0
100
AcDbLine
 10
27.41520511827864
 20
33.92630814965434
 30
0.0
 11
27.24270511827862
 21
34.09880814965436
 31
0.0
  0
LINE
  5
FE
330
24
100
AcDbEntity
  8
0
 62
     0
100
AcDbLine
 10
27.57746013454391
 20
27.13492705976519
 30
0.0
 11
27.10907904465475
 21
27.60330814965436
 31
0.0
  0
LINE
  5
FF
330
24
100
AcDbEntity
  8
0
 62
     0
100
AcDbLine
 10
27.42518718464177
 20
26.58009322848079
 30
0.0
 11
27.29338552444333
 21
26.71189488867922
 31
0.0
  0
LINE
  5
100
330
24
100
AcDbEntity
  8
0
 62
     0
100
AcDbLine
 10
27.27436767370293
 20
26.73091273941962
 30
0.0
 11
27.08740501754408
 21
26.91787539557848
 31
0.0
  0
LINE
  5
101
330
24
100
AcDbEntity
  8
0
 62
     0
100
AcDbLine
 10
26.72977925652488
 20
26.56839437541112
 30
0.0
 11
26.59797759632645
 21
26.70019603560956
 31
0.0
  0
LINE
  5
102
330
24
100
AcDbEntity
  8
0
 62
     0
100
AcDbLine
 10
26.034371328408
 20
26.55669552234146
 30
0.0
 11
25.90256966820956
 21
26.6884971825399
 31
0.0
  0
LINE
  5
103
330
24
100
AcDbEntity
  8
0
 62
     0
100
AcDbLine
 10
25.33896340029111
 20
26.5449966692718
 30
0.0
 11
25.20716174009268
 21
26.67679832947023
 31
0.0
  0
LINE
  5
104
330
24
100
AcDbEntity
  8
0
 62
     0
100
AcDbLine
 10
24.64355547217423
 20
26.53329781620214
 30
0.0
 11
24.51175381197579
 21
26.66509947640057
 31
0.0
  0
LINE
  5
105
330
24
100
AcDbEntity
  8
0
 62
     0
100
AcDbLine
 10
23.94814754405734
 20
26.52159896313247
 30
0.0
 11
23.81634588385891
 21
26.65340062333091
 31
0.0
  0
LINE
  5
106
330
24
100
AcDbEntity
  8
0
 62
     0
100
AcDbLine
 10
23.25273961594046
 20
26.50990011006281
 30
0.0
 11
23.12093795574202
 21
26.64170177026124
 31
0.0
  0
LINE
  5
107
330
24
100
AcDbEntity
  8
0
 62
     0
100
AcDbLine
 10
22.68257044854356
 20
26.37296249627316
 30
0.0
 11
22.42553002762514
 21
26.63000291719158
 31
0.0
  0
LINE
  5
108
330
24
100
AcDbEntity
  8
0
 62
     0
100
AcDbLine
 10
27.57746013454391
 20
27.84203384095174
 30
0.0
 11
27.35880012363364
 21
28.06069385186201
 31
0.0
  0
LINE
  5
109
330
24
100
AcDbEntity
  8
0
 62
     0
100
AcDbLine
 10
27.57746013454392
 20
28.54914062213827
 30
0.0
 11
27.41242196795218
 21
28.71417878873002
 31
0.0
  0
LINE
  5
10A
330
24
100
AcDbEntity
  8
0
 62
     0
100
AcDbLine
 10
27.35879260702785
 20
28.76780814965435
 30
0.0
 11
27.20917003050747
 21
28.91743072617472
 31
0.0
  0
LINE
  5
10B
330
24
100
AcDbEntity
  8
0
 62
     0
100
AcDbLine
 10
27.49740501754412
 20
29.33630252032463
 30
0.0
 11
27.24589938821439
 21
29.58780814965435
 31
0.0
  0
LINE
  5
10C
330
24
100
AcDbEntity
  8
0
 62
     0
100
AcDbLine
 10
27.49740501754411
 20
30.04340930151118
 30
0.0
 11
27.36340501754408
 21
30.17740930151122
 31
0.0
  0
LINE
  5
10D
330
24
100
AcDbEntity
  8
0
 62
     0
100
AcDbLine
 10
27.11328572683211
 20
30.42752859222319
 30
0.0
 11
27.08740501754407
 21
30.45340930151122
 31
0.0
  0
LINE
  5
10E
330
24
100
AcDbEntity
  8
0
 62
     0
100
AcDbLine
 10
27.57746013454393
 20
30.67046096569791
 30
0.0
 11
27.35345969557008
 21
30.89446140467176
 31
0.0
  0
LINE
  5
10F
330
24
100
AcDbEntity
  8
0
 62
     0
100
AcDbLine
 10
27.49740501754409
 20
31.4576228638843
 30
0.0
 11
27.39521973177403
 21
31.55980814965435
 31
0.0
  0
LINE
  5
110
330
24
100
AcDbEntity
  8
0
 62
     0
100
AcDbLine
 10
27.22921973177404
 20
31.72580814965435
 30
0.0
 11
27.09121434678068
 21
31.86381353464771
 31
0.0
  0
LINE
  5
111
330
24
100
AcDbEntity
  8
0
 62
     0
100
AcDbLine
 10
27.49740501754409
 20
32.16472964507085
 30
0.0
 11
27.36340501754407
 21
32.29872964507086
 31
0.0
  0
LINE
  5
112
330
24
100
AcDbEntity
  8
0
 62
     0
100
AcDbLine
 10
27.26800021162476
 20
32.39413445099017
 30
0.0
 11
27.11632651296058
 21
32.54580814965435
 31
0.0
  0
LINE
  5
113
330
24
100
AcDbEntity
  8
0
 62
     0
100
AcDbLine
 10
27.49740501754408
 20
32.8718364262574
 30
0.0
 11
27.36340501754408
 21
33.0058364262574
 31
0.0
  0
LINE
  5
114
330
24
100
AcDbEntity
  8
0
 62
     0
100
AcDbLine
 10
27.43154007533368
 20
33.64480814965435
 30
0.0
 11
27.22540501754408
 21
33.85094320744395
 31
0.0
  0
ENDBLK
  5
115
330
24
100
AcDbEntity
  8
0
100
AcDbBlockEnd
  0
BLOCK
  5
116
330
25
100
AcDbEntity
  8
0
100
AcDbBlockBegin
  2
HBS
 70
     0
 10
0.0
 20
0.0
 30
0.0
  3
HBS
  1

  0
LINE
  5
117
330
25
100
AcDbEntity
  8
TITLE
100
AcDbLine
 10
0.0619999999999976
 20
9.64
 30
0.0
 11
15.43799999999999
 21
9.640000000000004
 31
0.0
  0
LWPOLYLINE
  5
118
330
25
100
AcDbEntity
  8
TITLE
100
AcDbPolyline
 90
        4
 70
     1
 43
0.0
 10
15.5
 20
10.11999999999999
 10
15.49999999999999
 20
0.0
 10
0.0
 20
0.0
 10
0.0
 20
10.11999999999999
  0
LWPOLYLINE
  5
11E
330
25
100
AcDbEntity
  8
TITLE
100
AcDbPolyline
 90
        4
 70
     1
 43
0.0
 10
15.43799999999999
 20
10.058
 10
15.43799999999999
 20
0.0620000000000012
 10
0.0620000000000012
 20
0.0620000000000012
 10
0.0620000000000012
 20
10.058
  0
TEXT
  5
124
330
25
100
AcDbEntity
  8
TEXT
100
AcDbText
 10
0.2078333333333345
 20
9.680079195640079
 30
0.0
 40
0.125
  1
NAME
  7
TXT
 72
     1
 11
0.4370000000000012
 21
9.680079195640079
 31
0.0
100
AcDbText
  0
TEXT
  5
126
330
25
100
AcDbEntity
  8
TEXT
100
AcDbText
 10
0.2078333333333345
 20
9.888412528973411
 30
0.0
 40
0.125
  1
PART
  7
TXT
 72
     1
 11
0.4370000000000012
 21
9.888412528973411
 31
0.0
100
AcDbText
  0
LINE
  5
127
330
25
100
AcDbEntity
  8
TITLE
100
AcDbLine
 10
0.8120000000000011
 20
9.64
 30
0.0
 11
0.8119999999999976
 21
10.058
 31
0.0
  0
TEXT
  5
128
330
25
100
AcDbEntity
  8
TEXT
100
AcDbText
 10
7.926833333333331
 20
9.888412528973411
 30
0.0
 40
0.125
  1
PART
  7
TXT
 72
     1
 11
8.155999999999998
 21
9.888412528973411
 31
0.0
100
AcDbText
  0
TEXT
  5
129
330
25
100
AcDbEntity
  8
TEXT
100
AcDbText
 10
8.030999999999998
 20
9.680079195640079
 30
0.0
 40
0.125
  1
No.
  7
TXT
 72
     1
 11
8.155999999999998
 21
9.680079195640079
 31
0.0
100
AcDbText
  0
LINE
  5
12A
330
25
100
AcDbEntity
  8
TITLE
100
AcDbLine
 10
7.780999999999998
 20
10.058
 30
0.0
 11
7.780999999999998
 21
9.64
 31
0.0
  0
LINE
  5
12B
330
25
100
AcDbEntity
  8
TITLE
100
AcDbLine
 10
7.719000000000001
 20
10.058
 30
0.0
 11
7.719000000000001
 21
9.64
 31
0.0
  0
LINE
  5
12C
330
25
100
AcDbEntity
  8
TITLE
100
AcDbLine
 10
8.530999999999998
 20
10.058
 30
0.0
 11
8.530999999999998
 21
9.64
 31
0.0
  0
ENDBLK
  5
12D
330
25
100
AcDbEntity
  8
0
100
AcDbBlockEnd
  0
BLOCK
  5
7C4
330
7B9
100
AcDbEntity
  8
0
100
AcDbBlockBegin
  2
*D4
 70
     1
 10
0.0
 20
0.0
 30
0.0
  3
*D4
  1

  0
LINE
  5
7BA
330
7B9
100
AcDbEntity
  8
DIM
 62
     0
370
    -2
100
AcDbLine
 10
19.55644172417518
 20
9.636411984794596
 30
0.0
 11
16.32761490107615
 21
9.636411984794596
 31
0.0
  0
LINE
  5
7BB
330
7B9
100
AcDbEntity
  8
DIM
 62
     0
370
    -2
100
AcDbLine
 10
19.55644172417518
 20
25.3164119847946
 30
0.0
 11
16.32761490107615
 21
25.3164119847946
 31
0.0
  0
LINE
  5
7BC
330
7B9
100
AcDbEntity
  8
DIM
 62
     0
370
    -2
100
AcDbLine
 10
16.69961490107614
 20
10.35641198479459
 30
0.0
 11
16.69961490107614
 21
16.8664119847946
 31
0.0
  0
LINE
  5
7BD
330
7B9
100
AcDbEntity
  8
DIM
 62
     0
370
    -2
100
AcDbLine
 10
16.69961490107615
 20
24.5964119847946
 30
0.0
 11
16.69961490107614
 21
18.08641198479459
 31
0.0
  0
SOLID
  5
7BE
330
7B9
100
AcDbEntity
  8
DIM
 62
     0
100
AcDbTrace
 10
16.57961490107614
 20
10.35641198479459
 30
0.0
 11
16.81961490107615
 21
10.35641198479459
 31
0.0
 12
16.69961490107614
 22
9.636411984794596
 32
0.0
 13
16.69961490107614
 23
9.636411984794596
 33
0.0
  0
SOLID
  5
7BF
330
7B9
100
AcDbEntity
  8
DIM
 62
     0
100
AcDbTrace
 10
16.57961490107615
 20
24.5964119847946
 30
0.0
 11
16.81961490107615
 21
24.5964119847946
 31
0.0
 12
16.69961490107615
 22
25.3164119847946
 32
0.0
 13
16.69961490107615
 23
25.3164119847946
 33
0.0
  0
MTEXT
  5
7C0
330
7B9
100
AcDbEntity
  8
DIM
 62
     0
100
AcDbMText
 10
16.69961490107614
 20
17.4764119847946
 30
0.0
 40
0.5
 41
0.0
 71
     5
 72
     1
  1
\A1;G
  7
TXT
 73
     1
 44
1.0
  0
POINT
  5
7C1
330
7B9
100
AcDbEntity
  8
DEFPOINTS
 62
     0
100
AcDbPoint
 10
19.80844172417518
 20
9.636411984794596
 30
0.0
  0
POINT
  5
7C2
330
7B9
100
AcDbEntity
  8
DEFPOINTS
 62
     0
100
AcDbPoint
 10
19.80844172417518
 20
25.3164119847946
 30
0.0
  0
POINT
  5
7C3
330
7B9
100
AcDbEntity
  8
DEFPOINTS
 62
     0
100
AcDbPoint
 10
16.69961490107615
 20
25.3164119847946
 30
0.0
  0
ENDBLK
  5
7C5
330
7B9
100
AcDbEntity
  8
0
100
AcDbBlockEnd
  0
BLOCK
  5
7D1
330
7C6
100
AcDbEntity
  8
0
100
AcDbBlockBegin
  2
*D5
 70
     1
 10
0.0
 20
0.0
 30
0.0
  3
*D5
  1

  0
LINE
  5
7C7
330
7C6
100
AcDbEntity
  8
DIM
 62
     0
370
    -2
100
AcDbLine
 10
19.37544172417518
 20
25.1354119847946
 30
0.0
 11
19.37544172417518
 21
28.45831930105013
 31
0.0
  0
LINE
  5
7C8
330
7C6
100
AcDbEntity
  8
DIM
 62
     0
370
    -2
100
AcDbLine
 10
31.10244172417518
 20
25.1354119847946
 30
0.0
 11
31.10244172417518
 21
28.45831930105013
 31
0.0
  0
LINE
  5
7C9
330
7C6
100
AcDbEntity
  8
DIM
 62
     0
370
    -2
100
AcDbLine
 10
20.09544172417518
 20
28.08631930105013
 30
0.0
 11
24.75394172417518
 21
28.08631930105013
 31
0.0
  0
LINE
  5
7CA
330
7C6
100
AcDbEntity
  8
DIM
 62
     0
370
    -2
100
AcDbLine
 10
30.38244172417518
 20
28.08631930105013
 30
0.0
 11
25.72394172417518
 21
28.08631930105013
 31
0.0
  0
SOLID
  5
7CB
330
7C6
100
AcDbEntity
  8
DIM
 62
     0
100
AcDbTrace
 10
20.09544172417518
 20
28.20631930105014
 30
0.0
 11
20.09544172417518
 21
27.96631930105013
 31
0.0
 12
19.37544172417518
 22
28.08631930105013
 32
0.0
 13
19.37544172417518
 23
28.08631930105013
 33
0.0
  0
SOLID
  5
7CC
330
7C6
100
AcDbEntity
  8
DIM
 62
     0
100
AcDbTrace
 10
30.38244172417518
 20
28.20631930105014
 30
0.0
 11
30.38244172417518
 21
27.96631930105013
 31
0.0
 12
31.10244172417518
 22
28.08631930105013
 32
0.0
 13
31.10244172417518
 23
28.08631930105013
 33
0.0
  0
MTEXT
  5
7CD
330
7C6
100
AcDbEntity
  8
DIM
 62
     0
100
AcDbMText
 10
25.23894172417518
 20
28.08631930105013
 30
0.0
 40
0.5
 41
0.0
 71
     5
 72
     1
  1
\A1;A
  7
TXT
 73
     1
 44
1.0
  0
POINT
  5
7CE
330
7C6
100
AcDbEntity
  8
DEFPOINTS
 62
     0
100
AcDbPoint
 10
19.37544172417518
 20
24.8834119847946
 30
0.0
  0
POINT
  5
7CF
330
7C6
100
AcDbEntity
  8
DEFPOINTS
 62
     0
100
AcDbPoint
 10
31.10244172417518
 20
24.8834119847946
 30
0.0
  0
POINT
  5
7D0
330
7C6
100
AcDbEntity
  8
DEFPOINTS
 62
     0
100
AcDbPoint
 10
31.10244172417518
 20
28.08631930105013
 30
0.0
  0
ENDBLK
  5
7D2
330
7C6
100
AcDbEntity
  8
0
100
AcDbBlockEnd
  0
BLOCK
  5
7DE
330
7D3
100
AcDbEntity
  8
0
100
AcDbBlockBegin
  2
*D6
 70
     1
 10
0.0
 20
0.0
 30
0.0
  3
*D6
  1

  0
LINE
  5
7D4
330
7D3
100
AcDbEntity
  8
DIM
 62
     0
370
    -2
100
AcDbLine
 10
19.79194172417518
 20
25.1275419067941
 30
0.0
 11
19.79194172417518
 21
27.45831930105013
 31
0.0
  0
LINE
  5
7D5
330
7D3
100
AcDbEntity
  8
DIM
 62
     0
370
    -2
100
AcDbLine
 10
30.68594172417519
 20
25.1275419067941
 30
0.0
 11
30.68594172417519
 21
27.45831930105013
 31
0.0
  0
LINE
  5
7D6
330
7D3
100
AcDbEntity
  8
DIM
 62
     0
370
    -2
100
AcDbLine
 10
20.51194172417518
 20
27.08631930105013
 30
0.0
 11
24.75394172417519
 21
27.08631930105013
 31
0.0
  0
LINE
  5
7D7
330
7D3
100
AcDbEntity
  8
DIM
 62
     0
370
    -2
100
AcDbLine
 10
29.96594172417519
 20
27.08631930105013
 30
0.0
 11
25.72394172417518
 21
27.08631930105013
 31
0.0
  0
SOLID
  5
7D8
330
7D3
100
AcDbEntity
  8
DIM
 62
     0
100
AcDbTrace
 10
20.51194172417518
 20
27.20631930105013
 30
0.0
 11
20.51194172417518
 21
26.96631930105013
 31
0.0
 12
19.79194172417518
 22
27.08631930105013
 32
0.0
 13
19.79194172417518
 23
27.08631930105013
 33
0.0
  0
SOLID
  5
7D9
330
7D3
100
AcDbEntity
  8
DIM
 62
     0
100
AcDbTrace
 10
29.96594172417519
 20
27.20631930105013
 30
0.0
 11
29.96594172417519
 21
26.96631930105013
 31
0.0
 12
30.68594172417519
 22
27.08631930105013
 32
0.0
 13
30.68594172417519
 23
27.08631930105013
 33
0.0
  0
MTEXT
  5
7DA
330
7D3
100
AcDbEntity
  8
DIM
 62
     0
100
AcDbMText
 10
25.23894172417518
 20
27.08631930105013
 30
0.0
 40
0.5
 41
0.0
 71
     5
 72
     1
  1
\A1;B
  7
TXT
 73
     1
 44
1.0
  0
POINT
  5
7DB
330
7D3
100
AcDbEntity
  8
DEFPOINTS
 62
     0
100
AcDbPoint
 10
19.79194172417518
 20
24.8755419067941
 30
0.0
  0
POINT
  5
7DC
330
7D3
100
AcDbEntity
  8
DEFPOINTS
 62
     0
100
AcDbPoint
 10
30.68594172417519
 20
24.8755419067941
 30
0.0
  0
POINT
  5
7DD
330
7D3
100
AcDbEntity
  8
DEFPOINTS
 62
     0
100
AcDbPoint
 10
30.68594172417519
 20
27.08631930105013
 30
0.0
  0
ENDBLK
  5
7DF
330
7D3
100
AcDbEntity
  8
0
100
AcDbBlockEnd
  0
BLOCK
  5
7EB
330
7E0
100
AcDbEntity
  8
0
100
AcDbBlockBegin
  2
*D7
 70
     1
 10
0.0
 20
0.0
 30
0.0
  3
*D7
  1

  0
LINE
  5
7E1
330
7E0
100
AcDbEntity
  8
DIM
 62
     0
370
    -2
100
AcDbLine
 10
29.97544172417517
 20
11.07591198479459
 30
0.0
 11
33.3081270109041
 21
11.07591198479459
 31
0.0
  0
LINE
  5
7E2
330
7E0
100
AcDbEntity
  8
DIM
 62
     0
370
    -2
100
AcDbLine
 10
29.97544172417517
 20
23.8769119847946
 30
0.0
 11
33.30812701090411
 21
23.8769119847946
 31
0.0
  0
LINE
  5
7E3
330
7E0
100
AcDbEntity
  8
DIM
 62
     0
370
    -2
100
AcDbLine
 10
32.93612701090411
 20
11.79591198479459
 30
0.0
 11
32.93612701090411
 21
16.8664119847946
 31
0.0
  0
LINE
  5
7E4
330
7E0
100
AcDbEntity
  8
DIM
 62
     0
370
    -2
100
AcDbLine
 10
32.93612701090411
 20
23.1569119847946
 30
0.0
 11
32.93612701090411
 21
18.08641198479459
 31
0.0
  0
SOLID
  5
7E5
330
7E0
100
AcDbEntity
  8
DIM
 62
     0
100
AcDbTrace
 10
32.81612701090411
 20
11.79591198479459
 30
0.0
 11
33.0561270109041
 21
11.79591198479459
 31
0.0
 12
32.93612701090411
 22
11.07591198479459
 32
0.0
 13
32.93612701090411
 23
11.07591198479459
 33
0.0
  0
SOLID
  5
7E6
330
7E0
100
AcDbEntity
  8
DIM
 62
     0
100
AcDbTrace
 10
32.81612701090411
 20
23.1569119847946
 30
0.0
 11
33.05612701090411
 21
23.1569119847946
 31
0.0
 12
32.93612701090411
 22
23.8769119847946
 32
0.0
 13
32.93612701090411
 23
23.8769119847946
 33
0.0
  0
MTEXT
  5
7E7
330
7E0
100
AcDbEntity
  8
DIM
 62
     0
100
AcDbMText
 10
32.93612701090411
 20
17.4764119847946
 30
0.0
 40
0.5
 41
0.0
 71
     5
 72
     1
  1
\A1;L
  7
TXT
 73
     1
 44
1.0
  0
POINT
  5
7E8
330
7E0
100
AcDbEntity
  8
DEFPOINTS
 62
     0
100
AcDbPoint
 10
29.72344172417517
 20
11.07591198479459
 30
0.0
  0
POINT
  5
7E9
330
7E0
100
AcDbEntity
  8
DEFPOINTS
 62
     0
100
AcDbPoint
 10
29.72344172417517
 20
23.8769119847946
 30
0.0
  0
POINT
  5
7EA
330
7E0
100
AcDbEntity
  8
DEFPOINTS
 62
     0
100
AcDbPoint
 10
32.93612701090411
 20
23.8769119847946
 30
0.0
  0
ENDBLK
  5
7EC
330
7E0
100
AcDbEntity
  8
0
100
AcDbBlockEnd
  0
BLOCK
  5
7F8
330
7ED
100
AcDbEntity
  8
0
100
AcDbBlockBegin
  2
*D8
 70
     1
 10
0.0
 20
0.0
 30
0.0
  3
*D8
  1

  0
LINE
  5
7EE
330
7ED
100
AcDbEntity
  8
DIM
 62
     0
370
    -2
100
AcDbLine
 10
20.75444172417519
 20
10.82391198479459
 30
0.0
 11
20.75444172417519
 21
7.530173947778786
 31
0.0
  0
LINE
  5
7EF
330
7ED
100
AcDbEntity
  8
DIM
 62
     0
370
    -2
100
AcDbLine
 10
29.72344172417517
 20
10.82391198479459
 30
0.0
 11
29.72344172417517
 21
7.530173947778786
 31
0.0
  0
LINE
  5
7F0
330
7ED
100
AcDbEntity
  8
DIM
 62
     0
370
    -2
100
AcDbLine
 10
21.47444172417519
 20
7.902173947778786
 30
0.0
 11
24.75394172417518
 21
7.902173947778786
 31
0.0
  0
LINE
  5
7F1
330
7ED
100
AcDbEntity
  8
DIM
 62
     0
370
    -2
100
AcDbLine
 10
29.00344172417517
 20
7.902173947778786
 30
0.0
 11
25.72394172417518
 21
7.902173947778786
 31
0.0
  0
SOLID
  5
7F2
330
7ED
100
AcDbEntity
  8
DIM
 62
     0
100
AcDbTrace
 10
21.47444172417519
 20
8.022173947778785
 30
0.0
 11
21.47444172417519
 21
7.782173947778786
 31
0.0
 12
20.75444172417519
 22
7.902173947778786
 32
0.0
 13
20.75444172417519
 23
7.902173947778786
 33
0.0
  0
SOLID
  5
7F3
330
7ED
100
AcDbEntity
  8
DIM
 62
     0
100
AcDbTrace
 10
29.00344172417517
 20
8.022173947778785
 30
0.0
 11
29.00344172417517
 21
7.782173947778786
 31
0.0
 12
29.72344172417517
 22
7.902173947778786
 32
0.0
 13
29.72344172417517
 23
7.902173947778786
 33
0.0
  0
MTEXT
  5
7F4
330
7ED
100
AcDbEntity
  8
DIM
 62
     0
100
AcDbMText
 10
25.23894172417518
 20
7.902173947778786
 30
0.0
 40
0.5
 41
0.0
 71
     5
 72
     1
  1
\A1;E
  7
TXT
 73
     1
 44
1.0
  0
POINT
  5
7F5
330
7ED
100
AcDbEntity
  8
DEFPOINTS
 62
     0
100
AcDbPoint
 10
20.75444172417519
 20
11.07591198479459
 30
0.0
  0
POINT
  5
7F6
330
7ED
100
AcDbEntity
  8
DEFPOINTS
 62
     0
100
AcDbPoint
 10
29.72344172417517
 20
11.07591198479459
 30
0.0
  0
POINT
  5
7F7
330
7ED
100
AcDbEntity
  8
DEFPOINTS
 62
     0
100
AcDbPoint
 10
29.72344172417517
 20
7.902173947778786
 30
0.0
  0
ENDBLK
  5
7F9
330
7ED
100
AcDbEntity
  8
0
100
AcDbBlockEnd
  0
BLOCK
  5
805
330
7FA
100
AcDbEntity
  8
0
100
AcDbBlockBegin
  2
*D9
 70
     1
 10
0.0
 20
0.0
 30
0.0
  3
*D9
  1

  0
LINE
  5
7FB
330
7FA
100
AcDbEntity
  8
DIM
 62
     0
370
    -2
100
AcDbLine
 10
20.02694172417518
 20
24.81191198479459
 30
0.0
 11
20.02694172417518
 21
26.45831930105013
 31
0.0
  0
LINE
  5
7FC
330
7FA
100
AcDbEntity
  8
DIM
 62
     0
370
    -2
100
AcDbLine
 10
30.45094172417518
 20
24.81191198479459
 30
0.0
 11
30.45094172417518
 21
26.45831930105013
 31
0.0
  0
LINE
  5
7FD
330
7FA
100
AcDbEntity
  8
DIM
 62
     0
370
    -2
100
AcDbLine
 10
20.74694172417518
 20
26.08631930105013
 30
0.0
 11
24.75394172417518
 21
26.08631930105013
 31
0.0
  0
LINE
  5
7FE
330
7FA
100
AcDbEntity
  8
DIM
 62
     0
370
    -2
100
AcDbLine
 10
29.73094172417518
 20
26.08631930105013
 30
0.0
 11
25.72394172417518
 21
26.08631930105013
 31
0.0
  0
SOLID
  5
7FF
330
7FA
100
AcDbEntity
  8
DIM
 62
     0
100
AcDbTrace
 10
20.74694172417518
 20
26.20631930105013
 30
0.0
 11
20.74694172417518
 21
25.96631930105013
 31
0.0
 12
20.02694172417518
 22
26.08631930105013
 32
0.0
 13
20.02694172417518
 23
26.08631930105013
 33
0.0
  0
SOLID
  5
800
330
7FA
100
AcDbEntity
  8
DIM
 62
     0
100
AcDbTrace
 10
29.73094172417518
 20
26.20631930105013
 30
0.0
 11
29.73094172417518
 21
25.96631930105013
 31
0.0
 12
30.45094172417518
 22
26.08631930105013
 32
0.0
 13
30.45094172417518
 23
26.08631930105013
 33
0.0
  0
MTEXT
  5
801
330
7FA
100
AcDbEntity
  8
DIM
 62
     0
100
AcDbMText
 10
25.23894172417518
 20
26.08631930105013
 30
0.0
 40
0.5
 41
0.0
 71
     5
 72
     1
  1
\A1;C
  7
TXT
 73
     1
 44
1.0
  0
POINT
  5
802
330
7FA
100
AcDbEntity
  8
DEFPOINTS
 62
     0
100
AcDbPoint
 10
20.02694172417518
 20
24.5599119847946
 30
0.0
  0
POINT
  5
803
330
7FA
100
AcDbEntity
  8
DEFPOINTS
 62
     0
100
AcDbPoint
 10
30.45094172417518
 20
24.5599119847946
 30
0.0
  0
POINT
  5
804
330
7FA
100
AcDbEntity
  8
DEFPOINTS
 62
     0
100
AcDbPoint
 10
30.45094172417518
 20
26.08631930105013
 30
0.0
  0
ENDBLK
  5
806
330
7FA
100
AcDbEntity
  8
0
100
AcDbBlockEnd
  0
BLOCK
  5
812
330
807
100
AcDbEntity
  8
0
100
AcDbBlockBegin
  2
*D10
 70
     1
 10
0.0
 20
0.0
 30
0.0
  3
*D10
  1

  0
LINE
  5
808
330
807
100
AcDbEntity
  8
DIM
 62
     0
370
    -2
100
AcDbLine
 10
19.57931180217522
 20
24.9149119847946
 30
0.0
 11
17.22241253411867
 21
24.9149119847946
 31
0.0
  0
LINE
  5
809
330
807
100
AcDbEntity
  8
DIM
 62
     0
370
    -2
100
AcDbLine
 10
19.57931180217522
 20
10.03791198479459
 30
0.0
 11
17.22241253411866
 21
10.03791198479459
 31
0.0
  0
LINE
  5
80A
330
807
100
AcDbEntity
  8
DIM
 62
     0
370
    -2
100
AcDbLine
 10
17.59441253411867
 20
24.1949119847946
 30
0.0
 11
17.59441253411866
 21
18.08641198479459
 31
0.0
  0
LINE
  5
80B
330
807
100
AcDbEntity
  8
DIM
 62
     0
370
    -2
100
AcDbLine
 10
17.59441253411866
 20
10.75791198479459
 30
0.0
 11
17.59441253411866
 21
16.8664119847946
 31
0.0
  0
SOLID
  5
80C
330
807
100
AcDbEntity
  8
DIM
 62
     0
100
AcDbTrace
 10
17.47441253411867
 20
24.1949119847946
 30
0.0
 11
17.71441253411867
 21
24.1949119847946
 31
0.0
 12
17.59441253411867
 22
24.9149119847946
 32
0.0
 13
17.59441253411867
 23
24.9149119847946
 33
0.0
  0
SOLID
  5
80D
330
807
100
AcDbEntity
  8
DIM
 62
     0
100
AcDbTrace
 10
17.47441253411866
 20
10.75791198479459
 30
0.0
 11
17.71441253411866
 21
10.75791198479459
 31
0.0
 12
17.59441253411866
 22
10.03791198479459
 32
0.0
 13
17.59441253411866
 23
10.03791198479459
 33
0.0
  0
MTEXT
  5
80E
330
807
100
AcDbEntity
  8
DIM
 62
     0
100
AcDbMText
 10
17.59441253411866
 20
17.4764119847946
 30
0.0
 40
0.5
 41
0.0
 71
     5
 72
     1
  1
\A1;H
  7
TXT
 73
     1
 44
1.0
  0
POINT
  5
80F
330
807
100
AcDbEntity
  8
DEFPOINTS
 62
     0
100
AcDbPoint
 10
19.83131180217522
 20
24.9149119847946
 30
0.0
  0
POINT
  5
810
330
807
100
AcDbEntity
  8
DEFPOINTS
 62
     0
100
AcDbPoint
 10
19.83131180217522
 20
10.03791198479459
 30
0.0
  0
POINT
  5
811
330
807
100
AcDbEntity
  8
DEFPOINTS
 62
     0
100
AcDbPoint
 10
17.59441253411866
 20
10.03791198479459
 30
0.0
  0
ENDBLK
  5
813
330
807
100
AcDbEntity
  8
0
100
AcDbBlockEnd
  0
BLOCK
  5
81F
330
814
100
AcDbEntity
  8
0
100
AcDbBlockBegin
  2
*D11
 70
     1
 10
0.0
 20
0.0
 30
0.0
  3
*D11
  1

  0
LINE
  5
815
330
814
100
AcDbEntity
  8
DIM
 62
     0
370
    -2
100
AcDbLine
 10
28.94194172417518
 20
24.10891198479459
 30
0.0
 11
34.16995492906456
 21
24.10891198479459
 31
0.0
  0
LINE
  5
816
330
814
100
AcDbEntity
  8
DIM
 62
     0
370
    -2
100
AcDbLine
 10
28.94194172417518
 20
10.84391198479459
 30
0.0
 11
34.16995492906456
 21
10.84391198479459
 31
0.0
  0
LINE
  5
817
330
814
100
AcDbEntity
  8
DIM
 62
     0
370
    -2
100
AcDbLine
 10
33.79795492906456
 20
23.3889119847946
 30
0.0
 11
33.79795492906456
 21
18.08641198479459
 31
0.0
  0
LINE
  5
818
330
814
100
AcDbEntity
  8
DIM
 62
     0
370
    -2
100
AcDbLine
 10
33.79795492906456
 20
11.56391198479459
 30
0.0
 11
33.79795492906456
 21
16.8664119847946
 31
0.0
  0
SOLID
  5
819
330
814
100
AcDbEntity
  8
DIM
 62
     0
100
AcDbTrace
 10
33.67795492906457
 20
23.3889119847946
 30
0.0
 11
33.91795492906456
 21
23.3889119847946
 31
0.0
 12
33.79795492906456
 22
24.10891198479459
 32
0.0
 13
33.79795492906456
 23
24.10891198479459
 33
0.0
  0
SOLID
  5
81A
330
814
100
AcDbEntity
  8
DIM
 62
     0
100
AcDbTrace
 10
33.67795492906456
 20
11.56391198479459
 30
0.0
 11
33.91795492906455
 21
11.56391198479459
 31
0.0
 12
33.79795492906456
 22
10.84391198479459
 32
0.0
 13
33.79795492906456
 23
10.84391198479459
 33
0.0
  0
MTEXT
  5
81B
330
814
100
AcDbEntity
  8
DIM
 62
     0
100
AcDbMText
 10
33.79795492906456
 20
17.4764119847946
 30
0.0
 40
0.5
 41
0.0
 71
     5
 72
     1
  1
\A1;K
  7
TXT
 73
     1
 44
1.0
  0
POINT
  5
81C
330
814
100
AcDbEntity
  8
DEFPOINTS
 62
     0
100
AcDbPoint
 10
28.68994172417518
 20
24.10891198479459
 30
0.0
  0
POINT
  5
81D
330
814
100
AcDbEntity
  8
DEFPOINTS
 62
     0
100
AcDbPoint
 10
28.68994172417518
 20
10.84391198479459
 30
0.0
  0
POINT
  5
81E
330
814
100
AcDbEntity
  8
DEFPOINTS
 62
     0
100
AcDbPoint
 10
33.79795492906456
 20
10.84391198479459
 30
0.0
  0
ENDBLK
  5
820
330
814
100
AcDbEntity
  8
0
100
AcDbBlockEnd
  0
BLOCK
  5
82C
330
821
100
AcDbEntity
  8
0
100
AcDbBlockBegin
  2
*D12
 70
     1
 10
0.0
 20
0.0
 30
0.0
  3
*D12
  1

  0
LINE
  5
822
330
821
100
AcDbEntity
  8
DIM
 62
     0
370
    -2
100
AcDbLine
 10
30.15844172417518
 20
22.8904119847946
 30
0.0
 11
32.41203466087783
 21
22.8904119847946
 31
0.0
  0
LINE
  5
823
330
821
100
AcDbEntity
  8
DIM
 62
     0
370
    -2
100
AcDbLine
 10
30.15844172417518
 20
12.06241198479459
 30
0.0
 11
32.41203466087782
 21
12.06241198479459
 31
0.0
  0
LINE
  5
824
330
821
100
AcDbEntity
  8
DIM
 62
     0
370
    -2
100
AcDbLine
 10
32.04003466087783
 20
22.1704119847946
 30
0.0
 11
32.04003466087783
 21
18.0864119847946
 31
0.0
  0
LINE
  5
825
330
821
100
AcDbEntity
  8
DIM
 62
     0
370
    -2
100
AcDbLine
 10
32.04003466087782
 20
12.78241198479459
 30
0.0
 11
32.04003466087783
 21
16.8664119847946
 31
0.0
  0
SOLID
  5
826
330
821
100
AcDbEntity
  8
DIM
 62
     0
100
AcDbTrace
 10
31.92003466087782
 20
22.1704119847946
 30
0.0
 11
32.16003466087782
 21
22.1704119847946
 31
0.0
 12
32.04003466087783
 22
22.8904119847946
 32
0.0
 13
32.04003466087783
 23
22.8904119847946
 33
0.0
  0
SOLID
  5
827
330
821
100
AcDbEntity
  8
DIM
 62
     0
100
AcDbTrace
 10
31.92003466087782
 20
12.78241198479459
 30
0.0
 11
32.16003466087782
 21
12.78241198479459
 31
0.0
 12
32.04003466087782
 22
12.06241198479459
 32
0.0
 13
32.04003466087782
 23
12.06241198479459
 33
0.0
  0
MTEXT
  5
828
330
821
100
AcDbEntity
  8
DIM
 62
     0
100
AcDbMText
 10
32.04003466087782
 20
17.4764119847946
 30
0.0
 40
0.5
 41
0.0
 71
     5
 72
     1
  1
\A1;M
  7
TXT
 73
     1
 44
1.0
  0
POINT
  5
829
330
821
100
AcDbEntity
  8
DEFPOINTS
 62
     0
100
AcDbPoint
 10
29.90644172417518
 20
22.8904119847946
 30
0.0
  0
POINT
  5
82A
330
821
100
AcDbEntity
  8
DEFPOINTS
 62
     0
100
AcDbPoint
 10
29.90644172417518
 20
12.06241198479459
 30
0.0
  0
POINT
  5
82B
330
821
100
AcDbEntity
  8
DEFPOINTS
 62
     0
100
AcDbPoint
 10
32.04003466087782
 20
12.06241198479459
 30
0.0
  0
ENDBLK
  5
82D
330
821
100
AcDbEntity
  8
0
100
AcDbBlockEnd
  0
BLOCK
  5
839
330
82E
100
AcDbEntity
  8
0
100
AcDbBlockBegin
  2
*D13
 70
     1
 10
0.0
 20
0.0
 30
0.0
  3
*D13
  1

  0
LINE
  5
82F
330
82E
100
AcDbEntity
  8
DIM
 62
     0
370
    -2
100
AcDbLine
 10
21.78794172417518
 20
10.59191198479459
 30
0.0
 11
21.78794172417518
 21
8.530173947778786
 31
0.0
  0
LINE
  5
830
330
82E
100
AcDbEntity
  8
DIM
 62
     0
370
    -2
100
AcDbLine
 10
28.68994172417518
 20
10.59191198479459
 30
0.0
 11
28.68994172417518
 21
8.530173947778786
 31
0.0
  0
LINE
  5
831
330
82E
100
AcDbEntity
  8
DIM
 62
     0
370
    -2
100
AcDbLine
 10
22.50794172417518
 20
8.902173947778786
 30
0.0
 11
24.75394172417518
 21
8.902173947778786
 31
0.0
  0
LINE
  5
832
330
82E
100
AcDbEntity
  8
DIM
 62
     0
370
    -2
100
AcDbLine
 10
27.96994172417518
 20
8.902173947778786
 30
0.0
 11
25.72394172417518
 21
8.902173947778786
 31
0.0
  0
SOLID
  5
833
330
82E
100
AcDbEntity
  8
DIM
 62
     0
100
AcDbTrace
 10
22.50794172417518
 20
9.022173947778785
 30
0.0
 11
22.50794172417518
 21
8.782173947778787
 31
0.0
 12
21.78794172417518
 22
8.902173947778786
 32
0.0
 13
21.78794172417518
 23
8.902173947778786
 33
0.0
  0
SOLID
  5
834
330
82E
100
AcDbEntity
  8
DIM
 62
     0
100
AcDbTrace
 10
27.96994172417518
 20
9.022173947778785
 30
0.0
 11
27.96994172417518
 21
8.782173947778787
 31
0.0
 12
28.68994172417518
 22
8.902173947778786
 32
0.0
 13
28.68994172417518
 23
8.902173947778786
 33
0.0
  0
MTEXT
  5
835
330
82E
100
AcDbEntity
  8
DIM
 62
     0
100
AcDbMText
 10
25.23894172417518
 20
8.902173947778786
 30
0.0
 40
0.5
 41
0.0
 71
     5
 72
     1
  1
\A1;F
  7
TXT
 73
     1
 44
1.0
  0
POINT
  5
836
330
82E
100
AcDbEntity
  8
DEFPOINTS
 62
     0
100
AcDbPoint
 10
21.78794172417518
 20
10.84391198479459
 30
0.0
  0
POINT
  5
837
330
82E
100
AcDbEntity
  8
DEFPOINTS
 62
     0
100
AcDbPoint
 10
28.68994172417518
 20
10.84391198479459
 30
0.0
  0
POINT
  5
838
330
82E
100
AcDbEntity
  8
DEFPOINTS
 62
     0
100
AcDbPoint
 10
28.68994172417518
 20
8.902173947778786
 30
0.0
  0
ENDBLK
  5
83A
330
82E
100
AcDbEntity
  8
0
100
AcDbBlockEnd
  0
BLOCK
  5
846
330
83B
100
AcDbEntity
  8
0
100
AcDbBlockBegin
  2
*D14
 70
     1
 10
0.0
 20
0.0
 30
0.0
  3
*D14
  1

  0
LINE
  5
83C
330
83B
100
AcDbEntity
  8
DIM
 62
     0
370
    -2
100
AcDbLine
 10
20.57144172417518
 20
11.81041198479459
 30
0.0
 11
20.57144172417518
 21
6.530173947778786
 31
0.0
  0
LINE
  5
83D
330
83B
100
AcDbEntity
  8
DIM
 62
     0
370
    -2
100
AcDbLine
 10
29.90644172417518
 20
11.81041198479459
 30
0.0
 11
29.90644172417518
 21
6.530173947778786
 31
0.0
  0
LINE
  5
83E
330
83B
100
AcDbEntity
  8
DIM
 62
     0
370
    -2
100
AcDbLine
 10
21.29144172417518
 20
6.902173947778786
 30
0.0
 11
24.75394172417518
 21
6.902173947778786
 31
0.0
  0
LINE
  5
83F
330
83B
100
AcDbEntity
  8
DIM
 62
     0
370
    -2
100
AcDbLine
 10
29.18644172417518
 20
6.902173947778786
 30
0.0
 11
25.72394172417518
 21
6.902173947778786
 31
0.0
  0
SOLID
  5
840
330
83B
100
AcDbEntity
  8
DIM
 62
     0
100
AcDbTrace
 10
21.29144172417518
 20
7.022173947778786
 30
0.0
 11
21.29144172417518
 21
6.782173947778786
 31
0.0
 12
20.57144172417518
 22
6.902173947778786
 32
0.0
 13
20.57144172417518
 23
6.902173947778786
 33
0.0
  0
SOLID
  5
841
330
83B
100
AcDbEntity
  8
DIM
 62
     0
100
AcDbTrace
 10
29.18644172417518
 20
7.022173947778786
 30
0.0
 11
29.18644172417518
 21
6.782173947778786
 31
0.0
 12
29.90644172417518
 22
6.902173947778786
 32
0.0
 13
29.90644172417518
 23
6.902173947778786
 33
0.0
  0
MTEXT
  5
842
330
83B
100
AcDbEntity
  8
DIM
 62
     0
100
AcDbMText
 10
25.23894172417518
 20
6.902173947778786
 30
0.0
 40
0.5
 41
0.0
 71
     5
 72
     1
  1
\A1;D
  7
TXT
 73
     1
 44
1.0
  0
POINT
  5
843
330
83B
100
AcDbEntity
  8
DEFPOINTS
 62
     0
100
AcDbPoint
 10
20.57144172417518
 20
12.06241198479459
 30
0.0
  0
POINT
  5
844
330
83B
100
AcDbEntity
  8
DEFPOINTS
 62
     0
100
AcDbPoint
 10
29.90644172417518
 20
12.06241198479459
 30
0.0
  0
POINT
  5
845
330
83B
100
AcDbEntity
  8
DEFPOINTS
 62
     0
100
AcDbPoint
 10
29.90644172417518
 20
6.902173947778786
 30
0.0
  0
ENDBLK
  5
847
330
83B
100
AcDbEntity
  8
0
100
AcDbBlockEnd
  0
BLOCK
  5
853
330
848
100
AcDbEntity
  8
0
100
AcDbBlockBegin
  2
*D15
 70
     1
 10
0.0
 20
0.0
 30
0.0
  3
*D15
  1

  0
LINE
  5
849
330
848
100
AcDbEntity
  8
DIM
 62
     0
370
    -2
100
AcDbLine
 10
51.70061196551056
 20
25.56458377352759
 30
0.0
 11
51.70061196551056
 21
26.59001814313189
 31
0.0
  0
LINE
  5
84A
330
848
100
AcDbEntity
  8
DIM
 62
     0
370
    -2
100
AcDbLine
 10
50.51582458651067
 20
25.10398943275083
 30
0.0
 11
50.51582458651067
 21
26.59001814313189
 31
0.0
  0
LINE
  5
84B
330
848
100
AcDbEntity
  8
DIM
 62
     0
370
    -2
100
AcDbLine
 10
52.42061196551056
 20
26.21801814313188
 30
0.0
 11
53.14061196551056
 21
26.21801814313188
 31
0.0
  0
LINE
  5
84C
330
848
100
AcDbEntity
  8
DIM
 62
     0
370
    -2
100
AcDbLine
 10
49.79582458651067
 20
26.21801814313188
 30
0.0
 11
49.07582458651067
 21
26.21801814313188
 31
0.0
  0
SOLID
  5
84D
330
848
100
AcDbEntity
  8
DIM
 62
     0
100
AcDbTrace
 10
52.42061196551056
 20
26.33801814313189
 30
0.0
 11
52.42061196551056
 21
26.09801814313188
 31
0.0
 12
51.70061196551056
 22
26.21801814313188
 32
0.0
 13
51.70061196551056
 23
26.21801814313188
 33
0.0
  0
SOLID
  5
84E
330
848
100
AcDbEntity
  8
DIM
 62
     0
100
AcDbTrace
 10
49.79582458651067
 20
26.33801814313189
 30
0.0
 11
49.79582458651067
 21
26.09801814313188
 31
0.0
 12
50.51582458651067
 22
26.21801814313188
 32
0.0
 13
50.51582458651067
 23
26.21801814313188
 33
0.0
  0
MTEXT
  5
84F
330
848
100
AcDbEntity
  8
DIM
 62
     0
100
AcDbMText
 10
51.10821827601061
 20
26.21801814313188
 30
0.0
 40
0.5
 41
0.0
 71
     5
 72
     1
  1
\A1;P
  7
TXT
 73
     1
 44
1.0
  0
POINT
  5
850
330
848
100
AcDbEntity
  8
DEFPOINTS
 62
     0
100
AcDbPoint
 10
51.70061196551056
 20
25.31258377352759
 30
0.0
  0
POINT
  5
851
330
848
100
AcDbEntity
  8
DEFPOINTS
 62
     0
100
AcDbPoint
 10
50.51582458651067
 20
24.85198943275083
 30
0.0
  0
POINT
  5
852
330
848
100
AcDbEntity
  8
DEFPOINTS
 62
     0
100
AcDbPoint
 10
50.51582458651067
 20
26.21801814313188
 30
0.0
  0
ENDBLK
  5
854
330
848
100
AcDbEntity
  8
0
100
AcDbBlockEnd
  0
BLOCK
  5
860
330
855
100
AcDbEntity
  8
0
100
AcDbBlockBegin
  2
*D16
 70
     1
 10
0.0
 20
0.0
 30
0.0
  3
*D16
  1

  0
LINE
  5
856
330
855
100
AcDbEntity
  8
DIM
 62
     0
370
    -2
100
AcDbLine
 10
35.59650950592364
 20
30.11600931671654
 30
0.0
 11
35.59650950592364
 21
29.21678323829618
 31
0.0
  0
LINE
  5
857
330
855
100
AcDbEntity
  8
DIM
 62
     0
370
    -2
100
AcDbLine
 10
46.7435095059237
 20
30.11600931671654
 30
0.0
 11
46.7435095059237
 21
29.21678323829618
 31
0.0
  0
LINE
  5
858
330
855
100
AcDbEntity
  8
DIM
 62
     0
370
    -2
100
AcDbLine
 10
36.31650950592364
 20
29.58878323829618
 30
0.0
 11
40.68500950592367
 21
29.58878323829618
 31
0.0
  0
LINE
  5
859
330
855
100
AcDbEntity
  8
DIM
 62
     0
370
    -2
100
AcDbLine
 10
46.0235095059237
 20
29.58878323829618
 30
0.0
 11
41.65500950592367
 21
29.58878323829618
 31
0.0
  0
SOLID
  5
85A
330
855
100
AcDbEntity
  8
DIM
 62
     0
100
AcDbTrace
 10
36.31650950592364
 20
29.70878323829618
 30
0.0
 11
36.31650950592364
 21
29.46878323829618
 31
0.0
 12
35.59650950592364
 22
29.58878323829618
 32
0.0
 13
35.59650950592364
 23
29.58878323829618
 33
0.0
  0
SOLID
  5
85B
330
855
100
AcDbEntity
  8
DIM
 62
     0
100
AcDbTrace
 10
46.0235095059237
 20
29.70878323829618
 30
0.0
 11
46.0235095059237
 21
29.46878323829618
 31
0.0
 12
46.7435095059237
 22
29.58878323829618
 32
0.0
 13
46.7435095059237
 23
29.58878323829618
 33
0.0
  0
MTEXT
  5
85C
330
855
100
AcDbEntity
  8
DIM
 62
     0
100
AcDbMText
 10
41.17000950592367
 20
29.58878323829618
 30
0.0
 40
0.5
 41
0.0
 71
     5
 72
     1
  1
\A1;T
  7
TXT
 73
     1
 44
1.0
  0
POINT
  5
85D
330
855
100
AcDbEntity
  8
DEFPOINTS
 62
     0
100
AcDbPoint
 10
35.59650950592364
 20
30.36800931671653
 30
0.0
  0
POINT
  5
85E
330
855
100
AcDbEntity
  8
DEFPOINTS
 62
     0
100
AcDbPoint
 10
46.7435095059237
 20
30.36800931671653
 30
0.0
  0
POINT
  5
85F
330
855
100
AcDbEntity
  8
DEFPOINTS
 62
     0
100
AcDbPoint
 10
46.7435095059237
 20
29.58878323829618
 30
0.0
  0
ENDBLK
  5
861
330
855
100
AcDbEntity
  8
0
100
AcDbBlockEnd
  0
BLOCK
  5
86D
330
862
100
AcDbEntity
  8
0
100
AcDbBlockBegin
  2
*D17
 70
     1
 10
0.0
 20
0.0
 30
0.0
  3
*D17
  1

  0
LINE
  5
863
330
862
100
AcDbEntity
  8
DIM
 62
     0
370
    -2
100
AcDbLine
 10
56.67672211951121
 20
17.12463322102442
 30
0.0
 11
56.67672211951121
 21
16.20823755681321
 31
0.0
  0
LINE
  5
864
330
862
100
AcDbEntity
  8
DIM
 62
     0
370
    -2
100
AcDbLine
 10
56.8107221195112
 20
16.39663322102442
 30
0.0
 11
56.8107221195112
 21
16.95223755681321
 31
0.0
  0
LINE
  5
865
330
862
100
AcDbEntity
  8
DIM
 62
     0
370
    -2
100
AcDbLine
 10
55.95672211951121
 20
16.58023755681321
 30
0.0
 11
55.23672211951121
 21
16.58023755681321
 31
0.0
  0
LINE
  5
866
330
862
100
AcDbEntity
  8
DIM
 62
     0
370
    -2
100
AcDbLine
 10
57.53072211951121
 20
16.58023755681321
 30
0.0
 11
58.2507221195112
 21
16.58023755681321
 31
0.0
  0
SOLID
  5
867
330
862
100
AcDbEntity
  8
DIM
 62
     0
100
AcDbTrace
 10
55.95672211951121
 20
16.70023755681321
 30
0.0
 11
55.95672211951121
 21
16.46023755681321
 31
0.0
 12
56.67672211951121
 22
16.58023755681321
 32
0.0
 13
56.67672211951121
 23
16.58023755681321
 33
0.0
  0
SOLID
  5
868
330
862
100
AcDbEntity
  8
DIM
 62
     0
100
AcDbTrace
 10
57.53072211951121
 20
16.70023755681321
 30
0.0
 11
57.53072211951121
 21
16.46023755681321
 31
0.0
 12
56.8107221195112
 22
16.58023755681321
 32
0.0
 13
56.8107221195112
 23
16.58023755681321
 33
0.0
  0
MTEXT
  5
869
330
862
100
AcDbEntity
  8
DIM
 62
     0
100
AcDbMText
 10
59.8919721195112
 20
16.58023755681321
 30
0.0
 40
0.5
 41
0.0
 71
     5
 72
     1
  1
\A1;0.134 [3]
  7
TXT
 73
     1
 44
1.0
  0
POINT
  5
86A
330
862
100
AcDbEntity
  8
DEFPOINTS
 62
     0
100
AcDbPoint
 10
56.67672211951121
 20
17.37663322102442
 30
0.0
  0
POINT
  5
86B
330
862
100
AcDbEntity
  8
DEFPOINTS
 62
     0
100
AcDbPoint
 10
56.8107221195112
 20
16.14463322102442
 30
0.0
  0
POINT
  5
86C
330
862
100
AcDbEntity
  8
DEFPOINTS
 62
     0
100
AcDbPoint
 10
56.8107221195112
 20
16.58023755681321
 30
0.0
  0
ENDBLK
  5
86E
330
862
100
AcDbEntity
  8
0
100
AcDbBlockEnd
  0
BLOCK
  5
87A
330
86F
100
AcDbEntity
  8
0
100
AcDbBlockBegin
  2
*D18
 70
     1
 10
0.0
 20
0.0
 30
0.0
  3
*D18
  1

  0
LINE
  5
870
330
86F
100
AcDbEntity
  8
DIM
 62
     0
370
    -2
100
AcDbLine
 10
35.6250095059236
 20
36.74701361677498
 30
0.0
 11
35.6250095059236
 21
37.83829551217199
 31
0.0
  0
LINE
  5
871
330
86F
100
AcDbEntity
  8
DIM
 62
     0
370
    -2
100
AcDbLine
 10
46.71500950592362
 20
36.74701361677498
 30
0.0
 11
46.71500950592362
 21
37.83829551217199
 31
0.0
  0
LINE
  5
872
330
86F
100
AcDbEntity
  8
DIM
 62
     0
370
    -2
100
AcDbLine
 10
36.3450095059236
 20
37.46629551217199
 30
0.0
 11
40.68500950592361
 21
37.46629551217199
 31
0.0
  0
LINE
  5
873
330
86F
100
AcDbEntity
  8
DIM
 62
     0
370
    -2
100
AcDbLine
 10
45.99500950592362
 20
37.46629551217199
 30
0.0
 11
41.65500950592361
 21
37.46629551217199
 31
0.0
  0
SOLID
  5
874
330
86F
100
AcDbEntity
  8
DIM
 62
     0
100
AcDbTrace
 10
36.3450095059236
 20
37.58629551217199
 30
0.0
 11
36.3450095059236
 21
37.34629551217199
 31
0.0
 12
35.6250095059236
 22
37.46629551217199
 32
0.0
 13
35.6250095059236
 23
37.46629551217199
 33
0.0
  0
SOLID
  5
875
330
86F
100
AcDbEntity
  8
DIM
 62
     0
100
AcDbTrace
 10
45.99500950592362
 20
37.58629551217199
 30
0.0
 11
45.99500950592362
 21
37.34629551217199
 31
0.0
 12
46.71500950592362
 22
37.46629551217199
 32
0.0
 13
46.71500950592362
 23
37.46629551217199
 33
0.0
  0
MTEXT
  5
876
330
86F
100
AcDbEntity
  8
DIM
 62
     0
100
AcDbMText
 10
41.17000950592361
 20
37.46629551217199
 30
0.0
 40
0.5
 41
0.0
 71
     5
 72
     1
  1
\A1;U
  7
TXT
 73
     1
 44
1.0
  0
POINT
  5
877
330
86F
100
AcDbEntity
  8
DEFPOINTS
 62
     0
100
AcDbPoint
 10
35.6250095059236
 20
36.49501361677498
 30
0.0
  0
POINT
  5
878
330
86F
100
AcDbEntity
  8
DEFPOINTS
 62
     0
100
AcDbPoint
 10
46.71500950592362
 20
36.49501361677498
 30
0.0
  0
POINT
  5
879
330
86F
100
AcDbEntity
  8
DEFPOINTS
 62
     0
100
AcDbPoint
 10
46.71500950592362
 20
37.46629551217199
 30
0.0
  0
ENDBLK
  5
87B
330
86F
100
AcDbEntity
  8
0
100
AcDbBlockEnd
  0
BLOCK
  5
887
330
87C
100
AcDbEntity
  8
0
100
AcDbBlockBegin
  2
*D19
 70
     1
 10
0.0
 20
0.0
 30
0.0
  3
*D19
  1

  0
LINE
  5
87D
330
87C
100
AcDbEntity
  8
DIM
 62
     0
370
    -2
100
AcDbLine
 10
51.70061196551056
 20
25.56458373552768
 30
0.0
 11
51.70061196551056
 21
26.59001814313189
 31
0.0
  0
LINE
  5
87E
330
87C
100
AcDbEntity
  8
DIM
 62
     0
370
    -2
100
AcDbLine
 10
56.8107221195112
 20
25.24591198479459
 30
0.0
 11
56.8107221195112
 21
26.59001814313189
 31
0.0
  0
LINE
  5
87F
330
87C
100
AcDbEntity
  8
DIM
 62
     0
370
    -2
100
AcDbLine
 10
52.42061196551056
 20
26.21801814313188
 30
0.0
 11
53.77066704251088
 21
26.21801814313188
 31
0.0
  0
LINE
  5
880
330
87C
100
AcDbEntity
  8
DIM
 62
     0
370
    -2
100
AcDbLine
 10
56.0907221195112
 20
26.21801814313188
 30
0.0
 11
54.74066704251089
 21
26.21801814313188
 31
0.0
  0
SOLID
  5
881
330
87C
100
AcDbEntity
  8
DIM
 62
     0
100
AcDbTrace
 10
52.42061196551056
 20
26.33801814313189
 30
0.0
 11
52.42061196551056
 21
26.09801814313188
 31
0.0
 12
51.70061196551056
 22
26.21801814313188
 32
0.0
 13
51.70061196551056
 23
26.21801814313188
 33
0.0
  0
SOLID
  5
882
330
87C
100
AcDbEntity
  8
DIM
 62
     0
100
AcDbTrace
 10
56.0907221195112
 20
26.33801814313189
 30
0.0
 11
56.0907221195112
 21
26.09801814313188
 31
0.0
 12
56.8107221195112
 22
26.21801814313188
 32
0.0
 13
56.8107221195112
 23
26.21801814313188
 33
0.0
  0
MTEXT
  5
883
330
87C
100
AcDbEntity
  8
DIM
 62
     0
100
AcDbMText
 10
54.25566704251089
 20
26.21801814313188
 30
0.0
 40
0.5
 41
0.0
 71
     5
 72
     1
  1
\A1;N
  7
TXT
 73
     1
 44
1.0
  0
POINT
  5
884
330
87C
100
AcDbEntity
  8
DEFPOINTS
 62
     0
100
AcDbPoint
 10
51.70061196551056
 20
25.31258373552768
 30
0.0
  0
POINT
  5
885
330
87C
100
AcDbEntity
  8
DEFPOINTS
 62
     0
100
AcDbPoint
 10
56.8107221195112
 20
24.99391198479459
 30
0.0
  0
POINT
  5
886
330
87C
100
AcDbEntity
  8
DEFPOINTS
 62
     0
100
AcDbPoint
 10
56.8107221195112
 20
26.21801814313188
 30
0.0
  0
ENDBLK
  5
888
330
87C
100
AcDbEntity
  8
0
100
AcDbBlockEnd
  0
BLOCK
  5
894
330
889
100
AcDbEntity
  8
0
100
AcDbBlockBegin
  2
*D20
 70
     1
 10
0.0
 20
0.0
 30
0.0
  3
*D20
  1

  0
LINE
  5
88A
330
889
100
AcDbEntity
  8
DIM
 62
     0
370
    -2
100
AcDbLine
 10
21.78794172417518
 20
11.09591198479459
 30
0.0
 11
21.78794172417518
 21
12.95479667340204
 31
0.0
  0
LINE
  5
88B
330
889
100
AcDbEntity
  8
DIM
 62
     0
370
    -2
100
AcDbLine
 10
22.77394172417518
 20
11.09591198479459
 30
0.0
 11
22.77394172417518
 21
12.95479667340204
 31
0.0
  0
LINE
  5
88C
330
889
100
AcDbEntity
  8
DIM
 62
     0
370
    -2
100
AcDbLine
 10
21.06794172417518
 20
12.58279667340204
 30
0.0
 11
20.34794172417518
 21
12.58279667340204
 31
0.0
  0
LINE
  5
88D
330
889
100
AcDbEntity
  8
DIM
 62
     0
370
    -2
100
AcDbLine
 10
23.49394172417518
 20
12.58279667340204
 30
0.0
 11
24.21394172417518
 21
12.58279667340204
 31
0.0
  0
SOLID
  5
88E
330
889
100
AcDbEntity
  8
DIM
 62
     0
100
AcDbTrace
 10
21.06794172417518
 20
12.70279667340204
 30
0.0
 11
21.06794172417518
 21
12.46279667340204
 31
0.0
 12
21.78794172417518
 22
12.58279667340204
 32
0.0
 13
21.78794172417518
 23
12.58279667340204
 33
0.0
  0
SOLID
  5
88F
330
889
100
AcDbEntity
  8
DIM
 62
     0
100
AcDbTrace
 10
23.49394172417518
 20
12.70279667340204
 30
0.0
 11
23.49394172417518
 21
12.46279667340204
 31
0.0
 12
22.77394172417518
 22
12.58279667340204
 32
0.0
 13
22.77394172417518
 23
12.58279667340204
 33
0.0
  0
MTEXT
  5
890
330
889
100
AcDbEntity
  8
DIM
 62
     0
100
AcDbMText
 10
26.91769172417518
 20
12.58279667340204
 30
0.0
 40
0.5
 41
0.0
 71
     5
 72
     1
  1
\A1;0.986 [25] TYP.
  7
TXT
 73
     1
 44
1.0
  0
POINT
  5
891
330
889
100
AcDbEntity
  8
DEFPOINTS
 62
     0
100
AcDbPoint
 10
21.78794172417518
 20
10.84391198479459
 30
0.0
  0
POINT
  5
892
330
889
100
AcDbEntity
  8
DEFPOINTS
 62
     0
100
AcDbPoint
 10
22.77394172417518
 20
10.84391198479459
 30
0.0
  0
POINT
  5
893
330
889
100
AcDbEntity
  8
DEFPOINTS
 62
     0
100
AcDbPoint
 10
22.77394172417518
 20
12.58279667340204
 30
0.0
  0
ENDBLK
  5
895
330
889
100
AcDbEntity
  8
0
100
AcDbBlockEnd
  0
BLOCK
  5
8A1
330
896
100
AcDbEntity
  8
0
100
AcDbBlockBegin
  2
*D21
 70
     1
 10
0.0
 20
0.0
 30
0.0
  3
*D21
  1

  0
LINE
  5
897
330
896
100
AcDbEntity
  8
DIM
 62
     0
370
    -2
100
AcDbLine
 10
19.77494172417518
 20
24.5599119847946
 30
0.0
 11
18.11228463542801
 21
24.5599119847946
 31
0.0
  0
LINE
  5
898
330
896
100
AcDbEntity
  8
DIM
 62
     0
370
    -2
100
AcDbLine
 10
19.77494172417518
 20
10.39291198479459
 30
0.0
 11
18.11228463542801
 21
10.39291198479459
 31
0.0
  0
LINE
  5
899
330
896
100
AcDbEntity
  8
DIM
 62
     0
370
    -2
100
AcDbLine
 10
18.48428463542801
 20
23.83991198479459
 30
0.0
 11
18.48428463542801
 21
18.08641198479459
 31
0.0
  0
LINE
  5
89A
330
896
100
AcDbEntity
  8
DIM
 62
     0
370
    -2
100
AcDbLine
 10
18.48428463542801
 20
11.11291198479459
 30
0.0
 11
18.48428463542801
 21
16.8664119847946
 31
0.0
  0
SOLID
  5
89B
330
896
100
AcDbEntity
  8
DIM
 62
     0
100
AcDbTrace
 10
18.36428463542801
 20
23.83991198479459
 30
0.0
 11
18.60428463542801
 21
23.83991198479459
 31
0.0
 12
18.48428463542801
 22
24.5599119847946
 32
0.0
 13
18.48428463542801
 23
24.5599119847946
 33
0.0
  0
SOLID
  5
89C
330
896
100
AcDbEntity
  8
DIM
 62
     0
100
AcDbTrace
 10
18.36428463542801
 20
11.11291198479459
 30
0.0
 11
18.60428463542801
 21
11.11291198479459
 31
0.0
 12
18.48428463542801
 22
10.39291198479459
 32
0.0
 13
18.48428463542801
 23
10.39291198479459
 33
0.0
  0
MTEXT
  5
89D
330
896
100
AcDbEntity
  8
DIM
 62
     0
100
AcDbMText
 10
18.484284635428
 20
17.4764119847946
 30
0.0
 40
0.5
 41
0.0
 71
     5
 72
     1
  1
\A1;J
  7
TXT
 73
     1
 44
1.0
  0
POINT
  5
89E
330
896
100
AcDbEntity
  8
DEFPOINTS
 62
     0
100
AcDbPoint
 10
20.02694172417518
 20
24.5599119847946
 30
0.0
  0
POINT
  5
89F
330
896
100
AcDbEntity
  8
DEFPOINTS
 62
     0
100
AcDbPoint
 10
20.02694172417518
 20
10.39291198479459
 30
0.0
  0
POINT
  5
8A0
330
896
100
AcDbEntity
  8
DEFPOINTS
 62
     0
100
AcDbPoint
 10
18.48428463542801
 20
10.39291198479459
 30
0.0
  0
ENDBLK
  5
8A2
330
896
100
AcDbEntity
  8
0
100
AcDbBlockEnd
  0
BLOCK
  5
8AE
330
8A3
100
AcDbEntity
  8
0
100
AcDbBlockBegin
  2
*D22
 70
     1
 10
0.0
 20
0.0
 30
0.0
  3
*D22
  1

  0
LINE
  5
8A4
330
8A3
100
AcDbEntity
  8
DIM
 62
     0
370
    -2
100
AcDbLine
 10
57.0627221195112
 20
24.99391198479459
 30
0.0
 11
58.60725310398061
 21
24.99391198479459
 31
0.0
  0
LINE
  5
8A5
330
8A3
100
AcDbEntity
  8
DIM
 62
     0
370
    -2
100
AcDbLine
 10
57.0627221195112
 20
9.9589119847946
 30
0.0
 11
58.6072531039806
 21
9.9589119847946
 31
0.0
  0
LINE
  5
8A6
330
8A3
100
AcDbEntity
  8
DIM
 62
     0
370
    -2
100
AcDbLine
 10
58.23525310398061
 20
24.2739119847946
 30
0.0
 11
58.23525310398061
 21
18.08641198479459
 31
0.0
  0
LINE
  5
8A7
330
8A3
100
AcDbEntity
  8
DIM
 62
     0
370
    -2
100
AcDbLine
 10
58.23525310398061
 20
10.6789119847946
 30
0.0
 11
58.23525310398061
 21
16.8664119847946
 31
0.0
  0
SOLID
  5
8A8
330
8A3
100
AcDbEntity
  8
DIM
 62
     0
100
AcDbTrace
 10
58.11525310398061
 20
24.2739119847946
 30
0.0
 11
58.35525310398061
 21
24.2739119847946
 31
0.0
 12
58.23525310398061
 22
24.99391198479459
 32
0.0
 13
58.23525310398061
 23
24.99391198479459
 33
0.0
  0
SOLID
  5
8A9
330
8A3
100
AcDbEntity
  8
DIM
 62
     0
100
AcDbTrace
 10
58.1152531039806
 20
10.6789119847946
 30
0.0
 11
58.3552531039806
 21
10.6789119847946
 31
0.0
 12
58.23525310398061
 22
9.9589119847946
 32
0.0
 13
58.23525310398061
 23
9.9589119847946
 33
0.0
  0
MTEXT
  5
8AA
330
8A3
100
AcDbEntity
  8
DIM
 62
     0
100
AcDbMText
 10
58.23525310398061
 20
17.47641198479461
 30
0.0
 40
0.5
 41
0.0
 71
     5
 72
     1
  1
\A1;S
  7
TXT
 73
     1
 44
1.0
  0
POINT
  5
8AB
330
8A3
100
AcDbEntity
  8
DEFPOINTS
 62
     0
100
AcDbPoint
 10
56.8107221195112
 20
24.99391198479459
 30
0.0
  0
POINT
  5
8AC
330
8A3
100
AcDbEntity
  8
DEFPOINTS
 62
     0
100
AcDbPoint
 10
56.8107221195112
 20
9.9589119847946
 30
0.0
  0
POINT
  5
8AD
330
8A3
100
AcDbEntity
  8
DEFPOINTS
 62
     0
100
AcDbPoint
 10
58.23525310398061
 20
9.9589119847946
 30
0.0
  0
ENDBLK
  5
8AF
330
8A3
100
AcDbEntity
  8
0
100
AcDbBlockEnd
  0
BLOCK
  5
8BB
330
8B0
100
AcDbEntity
  8
0
100
AcDbBlockBegin
  2
*D23
 70
     1
 10
0.0
 20
0.0
 30
0.0
  3
*D23
  1

  0
LINE
  5
8B1
330
8B0
100
AcDbEntity
  8
DIM
 62
     0
370
    -2
100
AcDbLine
 10
50.43171781945249
 20
25.0289119847946
 30
0.0
 11
49.17739426523827
 21
25.0289119847946
 31
0.0
  0
LINE
  5
8B2
330
8B0
100
AcDbEntity
  8
DIM
 62
     0
370
    -2
100
AcDbLine
 10
50.43171781945251
 20
9.923911984794596
 30
0.0
 11
49.17739426523827
 21
9.923911984794596
 31
0.0
  0
LINE
  5
8B3
330
8B0
100
AcDbEntity
  8
DIM
 62
     0
370
    -2
100
AcDbLine
 10
49.54939426523828
 20
24.3089119847946
 30
0.0
 11
49.54939426523828
 21
18.08641198479459
 31
0.0
  0
LINE
  5
8B4
330
8B0
100
AcDbEntity
  8
DIM
 62
     0
370
    -2
100
AcDbLine
 10
49.54939426523827
 20
10.64391198479459
 30
0.0
 11
49.54939426523828
 21
16.8664119847946
 31
0.0
  0
SOLID
  5
8B5
330
8B0
100
AcDbEntity
  8
DIM
 62
     0
100
AcDbTrace
 10
49.42939426523828
 20
24.3089119847946
 30
0.0
 11
49.66939426523827
 21
24.3089119847946
 31
0.0
 12
49.54939426523828
 22
25.0289119847946
 32
0.0
 13
49.54939426523828
 23
25.0289119847946
 33
0.0
  0
SOLID
  5
8B6
330
8B0
100
AcDbEntity
  8
DIM
 62
     0
100
AcDbTrace
 10
49.42939426523827
 20
10.64391198479459
 30
0.0
 11
49.66939426523826
 21
10.64391198479459
 31
0.0
 12
49.54939426523827
 22
9.923911984794596
 32
0.0
 13
49.54939426523827
 23
9.923911984794596
 33
0.0
  0
MTEXT
  5
8B7
330
8B0
100
AcDbEntity
  8
DIM
 62
     0
100
AcDbMText
 10
49.54939426523827
 20
17.4764119847946
 30
0.0
 40
0.5
 41
0.0
 71
     5
 72
     1
  1
\A1;R
  7
TXT
 73
     1
 44
1.0
  0
POINT
  5
8B8
330
8B0
100
AcDbEntity
  8
DEFPOINTS
 62
     0
100
AcDbPoint
 10
50.68371781945248
 20
25.0289119847946
 30
0.0
  0
POINT
  5
8B9
330
8B0
100
AcDbEntity
  8
DEFPOINTS
 62
     0
100
AcDbPoint
 10
50.68371781945252
 20
9.923911984794596
 30
0.0
  0
POINT
  5
8BA
330
8B0
100
AcDbEntity
  8
DEFPOINTS
 62
     0
100
AcDbPoint
 10
49.54939426523827
 20
9.923911984794596
 30
0.0
  0
ENDBLK
  5
8BC
330
8B0
100
AcDbEntity
  8
0
100
AcDbBlockEnd
  0
BLOCK
  5
8C8
330
8BD
100
AcDbEntity
  8
0
100
AcDbBlockBegin
  2
*D24
 70
     1
 10
0.0
 20
0.0
 30
0.0
  3
*D24
  1

  0
LINE
  5
8BE
330
8BD
100
AcDbEntity
  8
DIM
 62
     0
370
    -2
100
AcDbLine
 10
12.36423191359209
 20
10.6589119847951
 30
0.0
 11
14.5653950994102
 21
10.6589119847951
 31
0.0
  0
LINE
  5
8BF
330
8BD
100
AcDbEntity
  8
DIM
 62
     0
370
    -2
100
AcDbLine
 10
12.36423191359209
 20
24.29391198479369
 30
0.0
 11
14.56539509941021
 21
24.29391198479369
 31
0.0
  0
LINE
  5
8C0
330
8BD
100
AcDbEntity
  8
DIM
 62
     0
370
    -2
100
AcDbLine
 10
14.1933950994102
 20
11.37891198479511
 30
0.0
 11
14.1933950994102
 21
16.8664119847944
 31
0.0
  0
LINE
  5
8C1
330
8BD
100
AcDbEntity
  8
DIM
 62
     0
370
    -2
100
AcDbLine
 10
14.19339509941021
 20
23.57391198479369
 30
0.0
 11
14.1933950994102
 21
18.08641198479439
 31
0.0
  0
SOLID
  5
8C2
330
8BD
100
AcDbEntity
  8
DIM
 62
     0
100
AcDbTrace
 10
14.0733950994102
 20
11.37891198479511
 30
0.0
 11
14.3133950994102
 21
11.37891198479511
 31
0.0
 12
14.1933950994102
 22
10.6589119847951
 32
0.0
 13
14.1933950994102
 23
10.6589119847951
 33
0.0
  0
SOLID
  5
8C3
330
8BD
100
AcDbEntity
  8
DIM
 62
     0
100
AcDbTrace
 10
14.07339509941021
 20
23.57391198479369
 30
0.0
 11
14.31339509941021
 21
23.57391198479369
 31
0.0
 12
14.19339509941021
 22
24.29391198479369
 32
0.0
 13
14.19339509941021
 23
24.29391198479369
 33
0.0
  0
MTEXT
  5
8C4
330
8BD
100
AcDbEntity
  8
DIM
 62
     0
100
AcDbMText
 10
14.1933950994102
 20
17.4764119847944
 30
0.0
 40
0.5
 41
0.0
 71
     5
 72
     1
  1
\A1;Y
  7
TXT
 73
     1
 44
1.0
  0
POINT
  5
8C5
330
8BD
100
AcDbEntity
  8
DEFPOINTS
 62
     0
100
AcDbPoint
 10
12.11223191359209
 20
10.6589119847951
 30
0.0
  0
POINT
  5
8C6
330
8BD
100
AcDbEntity
  8
DEFPOINTS
 62
     0
100
AcDbPoint
 10
12.11223191359209
 20
24.29391198479369
 30
0.0
  0
POINT
  5
8C7
330
8BD
100
AcDbEntity
  8
DEFPOINTS
 62
     0
100
AcDbPoint
 10
14.19339509941021
 20
24.29391198479369
 30
0.0
  0
ENDBLK
  5
8C9
330
8BD
100
AcDbEntity
  8
0
100
AcDbBlockEnd
  0
BLOCK
  5
8D5
330
8CA
100
AcDbEntity
  8
0
100
AcDbBlockBegin
  2
*D25
 70
     1
 10
0.0
 20
0.0
 30
0.0
  3
*D25
  1

  0
LINE
  5
8CB
330
8CA
100
AcDbEntity
  8
DIM
 62
     0
370
    -2
100
AcDbLine
 10
12.91923191359207
 20
10.10141198479511
 30
0.0
 11
15.54045291086598
 21
10.10141198479511
 31
0.0
  0
LINE
  5
8CC
330
8CA
100
AcDbEntity
  8
DIM
 62
     0
370
    -2
100
AcDbLine
 10
12.91923191359207
 20
24.84141198479511
 30
0.0
 11
15.54045291086598
 21
24.84141198479511
 31
0.0
  0
LINE
  5
8CD
330
8CA
100
AcDbEntity
  8
DIM
 62
     0
370
    -2
100
AcDbLine
 10
15.16845291086598
 20
10.82141198479511
 30
0.0
 11
15.16845291086598
 21
16.86141198479511
 31
0.0
  0
LINE
  5
8CE
330
8CA
100
AcDbEntity
  8
DIM
 62
     0
370
    -2
100
AcDbLine
 10
15.16845291086598
 20
24.12141198479511
 30
0.0
 11
15.16845291086598
 21
18.08141198479511
 31
0.0
  0
SOLID
  5
8CF
330
8CA
100
AcDbEntity
  8
DIM
 62
     0
100
AcDbTrace
 10
15.04845291086598
 20
10.82141198479511
 30
0.0
 11
15.28845291086598
 21
10.82141198479511
 31
0.0
 12
15.16845291086598
 22
10.10141198479511
 32
0.0
 13
15.16845291086598
 23
10.10141198479511
 33
0.0
  0
SOLID
  5
8D0
330
8CA
100
AcDbEntity
  8
DIM
 62
     0
100
AcDbTrace
 10
15.04845291086598
 20
24.12141198479511
 30
0.0
 11
15.28845291086598
 21
24.12141198479511
 31
0.0
 12
15.16845291086598
 22
24.84141198479511
 32
0.0
 13
15.16845291086598
 23
24.84141198479511
 33
0.0
  0
MTEXT
  5
8D1
330
8CA
100
AcDbEntity
  8
DIM
 62
     0
100
AcDbMText
 10
15.16845291086598
 20
17.47141198479511
 30
0.0
 40
0.5
 41
0.0
 71
     5
 72
     1
  1
\A1;X
  7
TXT
 73
     1
 44
1.0
  0
POINT
  5
8D2
330
8CA
100
AcDbEntity
  8
DEFPOINTS
 62
     0
100
AcDbPoint
 10
12.66723191359206
 20
10.10141198479511
 30
0.0
  0
POINT
  5
8D3
330
8CA
100
AcDbEntity
  8
DEFPOINTS
 62
     0
100
AcDbPoint
 10
12.66723191359206
 20
24.84141198479511
 30
0.0
  0
POINT
  5
8D4
330
8CA
100
AcDbEntity
  8
DEFPOINTS
 62
     0
100
AcDbPoint
 10
15.16845291086598
 20
24.84141198479511
 30
0.0
  0
ENDBLK
  5
8D6
330
8CA
100
AcDbEntity
  8
0
100
AcDbBlockEnd
  0
BLOCK
  5
8E2
330
8D7
100
AcDbEntity
  8
0
100
AcDbBlockBegin
  2
*D26
 70
     1
 10
0.0
 20
0.0
 30
0.0
  3
*D26
  1

  0
LINE
  5
8D8
330
8D7
100
AcDbEntity
  8
DIM
 62
     0
370
    -2
100
AcDbLine
 10
12.11223191359209
 20
24.54591198479369
 30
0.0
 11
12.11223191359209
 21
26.45831930105013
 31
0.0
  0
LINE
  5
8D9
330
8D7
100
AcDbEntity
  8
DIM
 62
     0
370
    -2
100
AcDbLine
 10
2.453231913591885
 20
24.54591198479369
 30
0.0
 11
2.453231913591885
 21
26.45831930105013
 31
0.0
  0
LINE
  5
8DA
330
8D7
100
AcDbEntity
  8
DIM
 62
     0
370
    -2
100
AcDbLine
 10
11.39223191359209
 20
26.08631930105013
 30
0.0
 11
7.830231913591991
 21
26.08631930105013
 31
0.0
  0
LINE
  5
8DB
330
8D7
100
AcDbEntity
  8
DIM
 62
     0
370
    -2
100
AcDbLine
 10
3.173231913591885
 20
26.08631930105013
 30
0.0
 11
6.735231913591991
 21
26.08631930105013
 31
0.0
  0
SOLID
  5
8DC
330
8D7
100
AcDbEntity
  8
DIM
 62
     0
100
AcDbTrace
 10
11.39223191359209
 20
26.20631930105013
 30
0.0
 11
11.39223191359209
 21
25.96631930105013
 31
0.0
 12
12.11223191359209
 22
26.08631930105013
 32
0.0
 13
12.11223191359209
 23
26.08631930105013
 33
0.0
  0
SOLID
  5
8DD
330
8D7
100
AcDbEntity
  8
DIM
 62
     0
100
AcDbTrace
 10
3.173231913591885
 20
26.20631930105013
 30
0.0
 11
3.173231913591885
 21
25.96631930105013
 31
0.0
 12
2.453231913591885
 22
26.08631930105013
 32
0.0
 13
2.453231913591885
 23
26.08631930105013
 33
0.0
  0
MTEXT
  5
8DE
330
8D7
100
AcDbEntity
  8
DIM
 62
     0
100
AcDbMText
 10
7.282731913591991
 20
26.08631930105013
 30
0.0
 40
0.5
 41
0.0
 71
     5
 72
     1
  1
\A1;W
  7
TXT
 73
     1
 44
1.0
  0
POINT
  5
8DF
330
8D7
100
AcDbEntity
  8
DEFPOINTS
 62
     0
100
AcDbPoint
 10
12.11223191359209
 20
24.29391198479369
 30
0.0
  0
POINT
  5
8E0
330
8D7
100
AcDbEntity
  8
DEFPOINTS
 62
     0
100
AcDbPoint
 10
2.453231913591885
 20
24.29391198479369
 30
0.0
  0
POINT
  5
8E1
330
8D7
100
AcDbEntity
  8
DEFPOINTS
 62
     0
100
AcDbPoint
 10
2.453231913591885
 20
26.08631930105013
 30
0.0
  0
ENDBLK
  5
8E3
330
8D7
100
AcDbEntity
  8
0
100
AcDbBlockEnd
  0
BLOCK
  5
8EF
330
8E4
100
AcDbEntity
  8
0
100
AcDbBlockBegin
  2
*D27
 70
     1
 10
0.0
 20
0.0
 30
0.0
  3
*D27
  1

  0
LINE
  5
8E5
330
8E4
100
AcDbEntity
  8
DIM
 62
     0
370
    -2
100
AcDbLine
 10
2.26723191359207
 20
25.09341198479511
 30
0.0
 11
2.26723191359207
 21
27.45831930105013
 31
0.0
  0
LINE
  5
8E6
330
8E4
100
AcDbEntity
  8
DIM
 62
     0
370
    -2
100
AcDbLine
 10
12.66723191359206
 20
25.09341198479511
 30
0.0
 11
12.66723191359206
 21
27.45831930105013
 31
0.0
  0
LINE
  5
8E7
330
8E4
100
AcDbEntity
  8
DIM
 62
     0
370
    -2
100
AcDbLine
 10
2.987231913592069
 20
27.08631930105013
 30
0.0
 11
6.919731913592069
 21
27.08631930105013
 31
0.0
  0
LINE
  5
8E8
330
8E4
100
AcDbEntity
  8
DIM
 62
     0
370
    -2
100
AcDbLine
 10
11.94723191359206
 20
27.08631930105013
 30
0.0
 11
8.014731913592068
 21
27.08631930105013
 31
0.0
  0
SOLID
  5
8E9
330
8E4
100
AcDbEntity
  8
DIM
 62
     0
100
AcDbTrace
 10
2.987231913592069
 20
27.20631930105013
 30
0.0
 11
2.987231913592069
 21
26.96631930105013
 31
0.0
 12
2.26723191359207
 22
27.08631930105013
 32
0.0
 13
2.26723191359207
 23
27.08631930105013
 33
0.0
  0
SOLID
  5
8EA
330
8E4
100
AcDbEntity
  8
DIM
 62
     0
100
AcDbTrace
 10
11.94723191359206
 20
27.20631930105013
 30
0.0
 11
11.94723191359206
 21
26.96631930105013
 31
0.0
 12
12.66723191359206
 22
27.08631930105013
 32
0.0
 13
12.66723191359206
 23
27.08631930105013
 33
0.0
  0
MTEXT
  5
8EB
330
8E4
100
AcDbEntity
  8
DIM
 62
     0
100
AcDbMText
 10
7.467231913592069
 20
27.08631930105013
 30
0.0
 40
0.5
 41
0.0
 71
     5
 72
     1
  1
\A1;V
  7
TXT
 73
     1
 44
1.0
  0
POINT
  5
8EC
330
8E4
100
AcDbEntity
  8
DEFPOINTS
 62
     0
100
AcDbPoint
 10
2.26723191359207
 20
24.84141198479511
 30
0.0
  0
POINT
  5
8ED
330
8E4
100
AcDbEntity
  8
DEFPOINTS
 62
     0
100
AcDbPoint
 10
12.66723191359206
 20
24.84141198479511
 30
0.0
  0
POINT
  5
8EE
330
8E4
100
AcDbEntity
  8
DEFPOINTS
 62
     0
100
AcDbPoint
 10
12.66723191359206
 20
27.08631930105013
 30
0.0
  0
ENDBLK
  5
8F0
330
8E4
100
AcDbEntity
  8
0
100
AcDbBlockEnd
  0
BLOCK
  5
8FC
330
8F1
100
AcDbEntity
  8
0
100
AcDbBlockBegin
  2
*D28
 70
     1
 10
0.0
 20
0.0
 30
0.0
  3
*D28
  1

  0
LINE
  5
8F2
330
8F1
100
AcDbEntity
  8
DIM
 62
     0
370
    -2
100
AcDbLine
 10
51.66961196553078
 20
15.67123291637257
 30
0.0
 11
51.66961196553078
 21
15.82590280716989
 31
0.0
  0
LINE
  5
8F3
330
8F1
100
AcDbEntity
  8
DIM
 62
     0
370
    -2
100
AcDbLine
 10
51.74761196553077
 20
15.67123291637257
 30
0.0
 11
51.74761196553077
 21
15.82590280716989
 31
0.0
  0
LINE
  5
8F4
330
8F1
100
AcDbEntity
  8
DIM
 62
     0
370
    -2
100
AcDbLine
 10
50.94961196553079
 20
15.4539028071699
 30
0.0
 11
50.22961196553079
 21
15.4539028071699
 31
0.0
  0
LINE
  5
8F5
330
8F1
100
AcDbEntity
  8
DIM
 62
     0
370
    -2
100
AcDbLine
 10
52.46761196553078
 20
15.4539028071699
 30
0.0
 11
53.18761196553078
 21
15.4539028071699
 31
0.0
  0
SOLID
  5
8F6
330
8F1
100
AcDbEntity
  8
DIM
 62
     0
100
AcDbTrace
 10
50.94961196553079
 20
15.57390280716989
 30
0.0
 11
50.94961196553079
 21
15.3339028071699
 31
0.0
 12
51.66961196553078
 22
15.4539028071699
 32
0.0
 13
51.66961196553078
 23
15.4539028071699
 33
0.0
  0
SOLID
  5
8F7
330
8F1
100
AcDbEntity
  8
DIM
 62
     0
100
AcDbTrace
 10
52.46761196553078
 20
15.57390280716989
 30
0.0
 11
52.46761196553078
 21
15.3339028071699
 31
0.0
 12
51.74761196553077
 22
15.4539028071699
 32
0.0
 13
51.74761196553077
 23
15.4539028071699
 33
0.0
  0
MTEXT
  5
8F8
330
8F1
100
AcDbEntity
  8
DIM
 62
     0
100
AcDbMText
 10
54.86011196553078
 20
15.4539028071699
 30
0.0
 40
0.5
 41
0.0
 71
     5
 72
     1
  1
\A1;0.078 [2]
  7
TXT
 73
     1
 44
1.0
  0
POINT
  5
8F9
330
8F1
100
AcDbEntity
  8
DEFPOINTS
 62
     0
100
AcDbPoint
 10
51.66961196553078
 20
15.41923291637257
 30
0.0
  0
POINT
  5
8FA
330
8F1
100
AcDbEntity
  8
DEFPOINTS
 62
     0
100
AcDbPoint
 10
51.74761196553077
 20
15.41923291637257
 30
0.0
  0
POINT
  5
8FB
330
8F1
100
AcDbEntity
  8
DEFPOINTS
 62
     0
100
AcDbPoint
 10
51.74761196553077
 20
15.4539028071699
 30
0.0
  0
ENDBLK
  5
8FD
330
8F1
100
AcDbEntity
  8
0
100
AcDbBlockEnd
  0
BLOCK
  5
909
330
8FE
100
AcDbEntity
  8
0
100
AcDbBlockBegin
  2
*D29
 70
     1
 10
0.0
 20
0.0
 30
0.0
  3
*D29
  1

  0
LINE
  5
8FF
330
8FE
100
AcDbEntity
  8
DIM
 62
     0
370
    -2
100
AcDbLine
 10
56.40072211951119
 20
14.39789015811876
 30
0.0
 11
56.40072211951119
 21
14.80913620354316
 31
0.0
  0
LINE
  5
900
330
8FE
100
AcDbEntity
  8
DIM
 62
     0
370
    -2
100
AcDbLine
 10
56.67672211951121
 20
14.68913620354316
 30
0.0
 11
56.67672211951121
 21
14.80913620354316
 31
0.0
  0
LINE
  5
901
330
8FE
100
AcDbEntity
  8
DIM
 62
     0
370
    -2
100
AcDbLine
 10
55.68072211951119
 20
14.43713620354316
 30
0.0
 11
54.96072211951119
 21
14.43713620354316
 31
0.0
  0
LINE
  5
902
330
8FE
100
AcDbEntity
  8
DIM
 62
     0
370
    -2
100
AcDbLine
 10
57.3967221195112
 20
14.43713620354316
 30
0.0
 11
58.1167221195112
 21
14.43713620354316
 31
0.0
  0
SOLID
  5
903
330
8FE
100
AcDbEntity
  8
DIM
 62
     0
100
AcDbTrace
 10
55.68072211951119
 20
14.55713620354316
 30
0.0
 11
55.68072211951119
 21
14.31713620354316
 31
0.0
 12
56.40072211951119
 22
14.43713620354316
 32
0.0
 13
56.40072211951119
 23
14.43713620354316
 33
0.0
  0
SOLID
  5
904
330
8FE
100
AcDbEntity
  8
DIM
 62
     0
100
AcDbTrace
 10
57.3967221195112
 20
14.55713620354316
 30
0.0
 11
57.3967221195112
 21
14.31713620354316
 31
0.0
 12
56.67672211951121
 22
14.43713620354316
 32
0.0
 13
56.67672211951121
 23
14.43713620354316
 33
0.0
  0
MTEXT
  5
905
330
8FE
100
AcDbEntity
  8
DIM
 62
     0
100
AcDbMText
 10
59.8204721195112
 20
14.43713620354316
 30
0.0
 40
0.5
 41
0.0
 71
     5
 72
     1
  1
\A1;0.276 [7]
  7
TXT
 73
     1
 44
1.0
  0
POINT
  5
906
330
8FE
100
AcDbEntity
  8
DEFPOINTS
 62
     0
100
AcDbPoint
 10
56.40072211951119
 20
14.14589015811876
 30
0.0
  0
POINT
  5
907
330
8FE
100
AcDbEntity
  8
DEFPOINTS
 62
     0
100
AcDbPoint
 10
56.67672211951121
 20
14.43713620354316
 30
0.0
  0
POINT
  5
908
330
8FE
100
AcDbEntity
  8
DEFPOINTS
 62
     0
100
AcDbPoint
 10
56.67672211951121
 20
14.43713620354316
 30
0.0
  0
ENDBLK
  5
90A
330
8FE
100
AcDbEntity
  8
0
100
AcDbBlockEnd
  0
BLOCK
  5
916
330
90B
100
AcDbEntity
  8
0
100
AcDbBlockBegin
  2
*D30
 70
     1
 10
0.0
 20
0.0
 30
0.0
  3
*D30
  1

  0
LINE
  5
90C
330
90B
100
AcDbEntity
  8
DIM
 62
     0
370
    -2
100
AcDbLine
 10
56.29672211951119
 20
11.62507024626818
 30
0.0
 11
56.29672211951119
 21
11.91813148319933
 31
0.0
  0
LINE
  5
90D
330
90B
100
AcDbEntity
  8
DIM
 62
     0
370
    -2
100
AcDbLine
 10
56.67672211951121
 20
11.62507024626818
 30
0.0
 11
56.67672211951121
 21
11.91813148319933
 31
0.0
  0
LINE
  5
90E
330
90B
100
AcDbEntity
  8
DIM
 62
     0
370
    -2
100
AcDbLine
 10
55.57672211951119
 20
11.54613148319933
 30
0.0
 11
54.85672211951119
 21
11.54613148319933
 31
0.0
  0
LINE
  5
90F
330
90B
100
AcDbEntity
  8
DIM
 62
     0
370
    -2
100
AcDbLine
 10
57.3967221195112
 20
11.54613148319933
 30
0.0
 11
58.1167221195112
 21
11.54613148319933
 31
0.0
  0
SOLID
  5
910
330
90B
100
AcDbEntity
  8
DIM
 62
     0
100
AcDbTrace
 10
55.57672211951119
 20
11.66613148319933
 30
0.0
 11
55.57672211951119
 21
11.42613148319933
 31
0.0
 12
56.29672211951119
 22
11.54613148319933
 32
0.0
 13
56.29672211951119
 23
11.54613148319933
 33
0.0
  0
SOLID
  5
911
330
90B
100
AcDbEntity
  8
DIM
 62
     0
100
AcDbTrace
 10
57.3967221195112
 20
11.66613148319933
 30
0.0
 11
57.3967221195112
 21
11.42613148319933
 31
0.0
 12
56.67672211951121
 22
11.54613148319933
 32
0.0
 13
56.67672211951121
 23
11.54613148319933
 33
0.0
  0
MTEXT
  5
912
330
90B
100
AcDbEntity
  8
DIM
 62
     0
100
AcDbMText
 10
59.8829721195112
 20
11.54613148319933
 30
0.0
 40
0.5
 41
0.0
 71
     5
 72
     1
  1
\A1;0.380 [10]
  7
TXT
 73
     1
 44
1.0
  0
POINT
  5
913
330
90B
100
AcDbEntity
  8
DEFPOINTS
 62
     0
100
AcDbPoint
 10
56.29672211951119
 20
11.37307024626818
 30
0.0
  0
POINT
  5
914
330
90B
100
AcDbEntity
  8
DEFPOINTS
 62
     0
100
AcDbPoint
 10
56.67672211951121
 20
11.37307024626818
 30
0.0
  0
POINT
  5
915
330
90B
100
AcDbEntity
  8
DEFPOINTS
 62
     0
100
AcDbPoint
 10
56.67672211951121
 20
11.54613148319933
 30
0.0
  0
ENDBLK
  5
917
330
90B
100
AcDbEntity
  8
0
100
AcDbBlockEnd
  0
BLOCK
  5
923
330
918
100
AcDbEntity
  8
0
100
AcDbBlockBegin
  2
*D31
 70
     1
 10
0.0
 20
0.0
 30
0.0
  3
*D31
  1

  0
LINE
  5
919
330
918
100
AcDbEntity
  8
DIM
 62
     0
370
    -2
100
AcDbLine
 10
29.65444172417518
 20
22.8904119847946
 30
0.0
 11
27.13877868429586
 21
22.8904119847946
 31
0.0
  0
LINE
  5
91A
330
918
100
AcDbEntity
  8
DIM
 62
     0
370
    -2
100
AcDbLine
 10
29.65444172417518
 20
21.9044119847946
 30
0.0
 11
27.13877868429586
 21
21.9044119847946
 31
0.0
  0
LINE
  5
91B
330
918
100
AcDbEntity
  8
DIM
 62
     0
370
    -2
100
AcDbLine
 10
27.51077868429586
 20
23.6104119847946
 30
0.0
 11
27.51077868429586
 21
24.3304119847946
 31
0.0
  0
LINE
  5
91C
330
918
100
AcDbEntity
  8
DIM
 62
     0
370
    -2
100
AcDbLine
 10
27.51077868429586
 20
21.1844119847946
 30
0.0
 11
27.51077868429586
 21
20.4644119847946
 31
0.0
  0
SOLID
  5
91D
330
918
100
AcDbEntity
  8
DIM
 62
     0
100
AcDbTrace
 10
27.39077868429586
 20
23.6104119847946
 30
0.0
 11
27.63077868429586
 21
23.6104119847946
 31
0.0
 12
27.51077868429586
 22
22.8904119847946
 32
0.0
 13
27.51077868429586
 23
22.8904119847946
 33
0.0
  0
SOLID
  5
91E
330
918
100
AcDbEntity
  8
DIM
 62
     0
100
AcDbTrace
 10
27.39077868429586
 20
21.1844119847946
 30
0.0
 11
27.63077868429586
 21
21.1844119847946
 31
0.0
 12
27.51077868429586
 22
21.9044119847946
 32
0.0
 13
27.51077868429586
 23
21.9044119847946
 33
0.0
  0
MTEXT
  5
91F
330
918
100
AcDbEntity
  8
DIM
 62
     0
100
AcDbMText
 10
27.51077868429585
 20
22.3974119847946
 30
0.0
 40
0.5
 41
0.0
 71
     5
 72
     1
  1
\A1;0.986 [25] TYP.
  7
TXT
 73
     1
 44
1.0
  0
POINT
  5
920
330
918
100
AcDbEntity
  8
DEFPOINTS
 62
     0
100
AcDbPoint
 10
29.90644172417518
 20
22.8904119847946
 30
0.0
  0
POINT
  5
921
330
918
100
AcDbEntity
  8
DEFPOINTS
 62
     0
100
AcDbPoint
 10
29.90644172417518
 20
21.9044119847946
 30
0.0
  0
POINT
  5
922
330
918
100
AcDbEntity
  8
DEFPOINTS
 62
     0
100
AcDbPoint
 10
27.51077868429586
 20
21.9044119847946
 30
0.0
  0
ENDBLK
  5
924
330
918
100
AcDbEntity
  8
0
100
AcDbBlockEnd
  0
ENDSEC
  0
SECTION
  2
ENTITIES
  0
TEXT
  5
280
330
1E
100
AcDbEntity
  8
TEXT
100
AcDbText
 10
8.895375096030974
 20
38.99543537514184
 30
0.0
 40
0.7007999997196799
  1
NON-METALLIC ENCLOSURE (STYLE E)
 41
0.75
  7
TXT
 72
     1
 11
16.95457509280728
 21
38.99543537514184
 31
0.0
100
AcDbText
  0
TEXT
  5
281
330
1E
100
AcDbEntity
  8
TEXT
100
AcDbText
 10
42.22158905207996
 20
38.99776207795695
 30
0.0
 40
0.7007999997196799
  1
NBE-10547  AND  NBE-10567
 41
0.75
  7
TXT
 72
     1
 11
48.44118904959213
 21
38.99776207795695
 31
0.0
100
AcDbText
  0
LINE
  5
282
330
1E
100
AcDbEntity
  8
TITLE
100
AcDbLine
 10
8.17341125408083
 20
3.404705078642293
 30
0.0
 11
0.2479999998998134
 21
3.404705078642295
 31
0.0
  0
LINE
  5
283
330
1E
100
AcDbEntity
  8
TITLE
100
AcDbLine
 10
61.75199997505218
 20
4.147544118016092
 30
0.0
 11
0.2479999998998141
 21
4.147544118016092
 31
0.0
  0
TEXT
  5
284
330
1E
100
AcDbEntity
  8
TEXT
100
AcDbText
 10
0.7309599946376842
 20
0.8428801931217639
 30
0.0
 40
0.4991999998003199
  1
NBE-10547
 41
0.75
  7
TXT
 72
     1
 11
2.259759994026163
 21
0.8428801931217639
 31
0.0
100
AcDbText
  0
TEXT
  5
285
330
1E
100
AcDbEntity
  8
TEXT
100
AcDbText
 10
1.323759994400564
 20
2.098453847399872
 30
0.0
 40
0.4991999998003199
  1
COVER
 41
0.75
  7
TXT
 72
     1
 11
2.259759994026163
 21
2.098453847399872
 31
0.0
100
AcDbText
  0
TEXT
  5
286
330
1E
100
AcDbEntity
  8
TEXT
100
AcDbText
 10
1.448559994350643
 20
2.764285651095172
 30
0.0
 40
0.4991999998003199
  1
SOLID
 41
0.75
  7
TXT
 72
     1
 11
2.259759994026163
 21
2.764285651095172
 31
0.0
100
AcDbText
  0
TEXT
  5
287
330
1E
100
AcDbEntity
  8
TEXT
100
AcDbText
 10
2.96111998867666
 20
3.530028578177324
 30
0.0
 40
0.4991999998003199
  1
PART NO.
 41
0.75
  7
TXT
 72
     1
 11
4.271519988152499
 21
3.530028578177324
 31
0.0
100
AcDbText
  0
TEXT
  5
288
330
1E
100
AcDbEntity
  8
TEXT
100
AcDbText
 10
4.632851260566
 20
0.8428801931217634
 30
0.0
 40
0.4991999998003199
  1
NBE-10567
 41
0.75
  7
TXT
 72
     1
 11
6.16165125995448
 21
0.8428801931217634
 31
0.0
100
AcDbText
  0
TEXT
  5
289
330
1E
100
AcDbEntity
  8
TEXT
100
AcDbText
 10
5.22565126032888
 20
2.098453847399872
 30
0.0
 40
0.4991999998003199
  1
COVER
 41
0.75
  7
TXT
 72
     1
 11
6.16165125995448
 21
2.098453847399872
 31
0.0
100
AcDbText
  0
TEXT
  5
28A
330
1E
100
AcDbEntity
  8
TEXT
100
AcDbText
 10
5.28805126030392
 20
2.764285651095172
 30
0.0
 40
0.4991999998003199
  1
CLEAR
 41
0.75
  7
TXT
 72
     1
 11
6.16165125995448
 21
2.764285651095172
 31
0.0
100
AcDbText
  0
LINE
  5
28B
330
1E
100
AcDbEntity
  8
TITLE
100
AcDbLine
 10
4.210705626990321
 20
0.2479999998988073
 30
0.0
 11
4.210705626990321
 21
3.404705078642294
 31
0.0
  0
TEXT
  5
28C
330
1E
100
AcDbEntity
  8
TEXT
100
AcDbText
 10
33.40388004748192
 20
3.225955024664626
 30
0.0
 40
0.4991999998003199
  1
DIMENSIONS
 41
0.75
  7
TXT
 72
     1
 11
35.08868004680801
 21
3.225955024664626
 31
0.0
100
AcDbText
  0
DIMENSION
  5
28D
330
1E
100
AcDbEntity
  8
DIM
100
AcDbDimension
  2
*D4
 10
16.69961490107615
 20
25.3164119847946
 30
0.0
 11
16.69961490107614
 21
17.4764119847946
 31
0.0
 70
    32
  1
G
 71
     5
 42
15.68
  3
23NSTD
100
AcDbAlignedDimension
 13
19.80844172417518
 23
9.636411984794596
 33
0.0
 14
19.80844172417518
 24
25.3164119847946
 34
0.0
 50
90.0
100
AcDbRotatedDimension
  0
DIMENSION
  5
28E
330
1E
100
AcDbEntity
  8
DIM
100
AcDbDimension
  2
*D5
 10
31.10244172417518
 20
28.08631930105013
 30
0.0
 11
25.23894172417518
 21
28.08631930105013
 31
0.0
 70
    32
  1
A
 71
     5
 42
11.72699999999999
  3
23NSTD
100
AcDbAlignedDimension
 13
19.37544172417518
 23
24.8834119847946
 33
0.0
 14
31.10244172417518
 24
24.8834119847946
 34
0.0
 50
180.0
100
AcDbRotatedDimension
  0
DIMENSION
  5
28F
330
1E
100
AcDbEntity
  8
DIM
100
AcDbDimension
  2
*D6
 10
30.68594172417519
 20
27.08631930105013
 30
0.0
 11
25.23894172417518
 21
27.08631930105013
 31
0.0
 70
    32
  1
B
 71
     5
 42
10.89400000000001
  3
23NSTD
100
AcDbAlignedDimension
 13
19.79194172417518
 23
24.8755419067941
 33
0.0
 14
30.68594172417519
 24
24.8755419067941
 34
0.0
 50
180.0
100
AcDbRotatedDimension
  0
DIMENSION
  5
290
330
1E
100
AcDbEntity
  8
DIM
100
AcDbDimension
  2
*D7
 10
32.93612701090411
 20
23.8769119847946
 30
0.0
 11
32.93612701090411
 21
17.4764119847946
 31
0.0
 70
    32
  1
L
 71
     5
 42
12.801
  3
23NSTD
100
AcDbAlignedDimension
 13
29.72344172417517
 23
11.07591198479459
 33
0.0
 14
29.72344172417517
 24
23.8769119847946
 34
0.0
 50
90.0
100
AcDbRotatedDimension
  0
DIMENSION
  5
291
330
1E
100
AcDbEntity
  8
DIM
100
AcDbDimension
  2
*D8
 10
29.72344172417517
 20
7.902173947778786
 30
0.0
 11
25.23894172417518
 21
7.902173947778786
 31
0.0
 70
    32
  1
E
 71
     5
 42
8.968999999999979
  3
23NSTD
100
AcDbAlignedDimension
 13
20.75444172417519
 23
11.07591198479459
 33
0.0
 14
29.72344172417517
 24
11.07591198479459
 34
0.0
 50
180.0
100
AcDbRotatedDimension
  0
DIMENSION
  5
292
330
1E
100
AcDbEntity
  8
DIM
100
AcDbDimension
  2
*D9
 10
30.45094172417518
 20
26.08631930105013
 30
0.0
 11
25.23894172417518
 21
26.08631930105013
 31
0.0
 70
    32
  1
C
 71
     5
 42
10.42399999999999
  3
23NSTD
100
AcDbAlignedDimension
 13
20.02694172417518
 23
24.5599119847946
 33
0.0
 14
30.45094172417518
 24
24.5599119847946
 34
0.0
100
AcDbRotatedDimension
  0
DIMENSION
  5
293
330
1E
100
AcDbEntity
  8
DIM
100
AcDbDimension
  2
*D10
 10
17.59441253411866
 20
10.03791198479459
 30
0.0
 11
17.59441253411866
 21
17.4764119847946
 31
0.0
 70
    32
  1
H
 71
     5
 42
14.877
  3
23NSTD
100
AcDbAlignedDimension
 13
19.83131180217522
 23
24.9149119847946
 33
0.0
 14
19.83131180217522
 24
10.03791198479459
 34
0.0
 50
90.0
100
AcDbRotatedDimension
  0
DIMENSION
  5
294
330
1E
100
AcDbEntity
  8
DIM
100
AcDbDimension
  2
*D11
 10
33.79795492906456
 20
10.84391198479459
 30
0.0
 11
33.79795492906456
 21
17.4764119847946
 31
0.0
 70
    32
  1
K
 71
     5
 42
13.265
  3
23NSTD
100
AcDbAlignedDimension
 13
28.68994172417518
 23
24.10891198479459
 33
0.0
 14
28.68994172417518
 24
10.84391198479459
 34
0.0
 50
90.0
100
AcDbRotatedDimension
  0
DIMENSION
  5
295
330
1E
100
AcDbEntity
  8
DIM
100
AcDbDimension
  2
*D12
 10
32.04003466087782
 20
12.06241198479459
 30
0.0
 11
32.04003466087782
 21
17.4764119847946
 31
0.0
 70
    32
  1
M
 71
     5
 42
10.828
  3
23NSTD
100
AcDbAlignedDimension
 13
29.90644172417518
 23
22.8904119847946
 33
0.0
 14
29.90644172417518
 24
12.06241198479459
 34
0.0
 50
90.0
100
AcDbRotatedDimension
  0
DIMENSION
  5
296
330
1E
100
AcDbEntity
  8
DIM
100
AcDbDimension
  2
*D13
 10
28.68994172417518
 20
8.902173947778786
 30
0.0
 11
25.23894172417518
 21
8.902173947778786
 31
0.0
 70
    32
  1
F
 71
     5
 42
6.902000000000001
  3
23NSTD
100
AcDbAlignedDimension
 13
21.78794172417518
 23
10.84391198479459
 33
0.0
 14
28.68994172417518
 24
10.84391198479459
 34
0.0
100
AcDbRotatedDimension
  0
DIMENSION
  5
297
330
1E
100
AcDbEntity
  8
DIM
100
AcDbDimension
  2
*D14
 10
29.90644172417518
 20
6.902173947778786
 30
0.0
 11
25.23894172417518
 21
6.902173947778786
 31
0.0
 70
    32
  1
D
 71
     5
 42
9.335
  3
23NSTD
100
AcDbAlignedDimension
 13
20.57144172417518
 23
12.06241198479459
 33
0.0
 14
29.90644172417518
 24
12.06241198479459
 34
0.0
100
AcDbRotatedDimension
  0
DIMENSION
  5
298
330
1E
100
AcDbEntity
  8
DIM
100
AcDbDimension
  2
*D15
 10
50.51582458651067
 20
26.21801814313188
 30
0.0
 11
51.10821827601061
 21
26.21801814313188
 31
0.0
 70
    32
  1
P
 71
     5
 42
1.184787378999899
  3
23NSTD
100
AcDbAlignedDimension
 13
51.70061196551056
 23
25.31258377352759
 33
0.0
 14
50.51582458651067
 24
24.85198943275083
 34
0.0
100
AcDbRotatedDimension
  0
DIMENSION
  5
299
330
1E
100
AcDbEntity
  8
DIM
100
AcDbDimension
  2
*D16
 10
46.7435095059237
 20
29.58878323829618
 30
0.0
 11
41.17000950592367
 21
29.58878323829618
 31
0.0
 70
    32
  1
T
 71
     5
 42
11.14700000000006
  3
23NSTD
100
AcDbAlignedDimension
 13
35.59650950592364
 23
30.36800931671653
 33
0.0
 14
46.7435095059237
 24
30.36800931671653
 34
0.0
100
AcDbRotatedDimension
  0
DIMENSION
  5
29A
330
1E
100
AcDbEntity
  8
DIM
100
AcDbDimension
  2
*D17
 10
56.8107221195112
 20
16.58023755681321
 30
0.0
 11
59.8919721195112
 21
16.58023755681321
 31
0.0
 70
    32
  1
<>
 71
     5
 42
0.1340000000000003
  3
23NSTD
100
AcDbAlignedDimension
 13
56.67672211951121
 23
17.37663322102442
 33
0.0
 14
56.8107221195112
 24
16.14463322102442
 34
0.0
100
AcDbRotatedDimension
  0
DIMENSION
  5
29B
330
1E
100
AcDbEntity
  8
DIM
100
AcDbDimension
  2
*D18
 10
46.71500950592362
 20
37.46629551217199
 30
0.0
 11
41.17000950592361
 21
37.46629551217199
 31
0.0
 70
    32
  1
U
 71
     5
 42
11.09000000000001
  3
23NSTD
100
AcDbAlignedDimension
 13
35.6250095059236
 23
36.49501361677498
 33
0.0
 14
46.71500950592362
 24
36.49501361677498
 34
0.0
100
AcDbRotatedDimension
  0
DIMENSION
  5
29C
330
1E
100
AcDbEntity
  8
DIM
100
AcDbDimension
  2
*D19
 10
56.8107221195112
 20
26.21801814313188
 30
0.0
 11
54.25566704251089
 21
26.21801814313188
 31
0.0
 70
    32
  1
N
 71
     5
 42
5.110110154000636
  3
23NSTD
100
AcDbAlignedDimension
 13
51.70061196551056
 23
25.31258373552768
 33
0.0
 14
56.8107221195112
 24
24.99391198479459
 34
0.0
100
AcDbRotatedDimension
  0
DIMENSION
  5
29D
330
1E
100
AcDbEntity
  8
DIM
100
AcDbDimension
  2
*D20
 10
22.77394172417518
 20
12.58279667340204
 30
0.0
 11
26.91769172417518
 21
12.58279667340204
 31
0.0
 70
    32
  1
<> TYP.
 71
     5
 42
0.9859999999999971
  3
23NSTD
100
AcDbAlignedDimension
 13
21.78794172417518
 23
10.84391198479459
 33
0.0
 14
22.77394172417518
 24
10.84391198479459
 34
0.0
 50
180.0
100
AcDbRotatedDimension
  0
DIMENSION
  5
29E
330
1E
100
AcDbEntity
  8
DIM
100
AcDbDimension
  2
*D31
 10
27.51077868429586
 20
21.9044119847946
 30
0.0
 11
27.51077868429585
 21
22.3974119847946
 31
0.0
 70
    32
  1
<> TYP.
 71
     5
 42
0.9859999999999971
  3
23NSTDI
100
AcDbAlignedDimension
 13
29.90644172417518
 23
22.8904119847946
 33
0.0
 14
29.90644172417518
 24
21.9044119847946
 34
0.0
 50
90.0
100
AcDbRotatedDimension
  0
LINE
  5
29F
330
1E
100
AcDbEntity
  8
TITLE
100
AcDbLine
 10
61.75199997505218
 20
1.083428570994193
 30
0.0
 11
8.17341125408083
 21
1.083428570994193
 31
0.0
  0
LINE
  5
2A0
330
1E
100
AcDbEntity
  8
TITLE
100
AcDbLine
 10
61.75199997505218
 20
1.918857142088593
 30
0.0
 11
0.2479999999008063
 21
1.918857142088593
 31
0.0
  0
LINE
  5
2A1
330
1E
100
AcDbEntity
  8
TITLE
100
AcDbLine
 10
61.75199997505218
 20
2.754285713182993
 30
0.0
 11
8.17341125408083
 21
2.754285713182993
 31
0.0
  0
LINE
  5
2A2
330
1E
100
AcDbEntity
  8
TITLE
100
AcDbLine
 10
8.17341125408083
 20
0.2479999998997997
 30
0.0
 11
8.173411254080829
 21
4.147544118016092
 31
0.0
  0
TEXT
  5
2A3
330
1E
100
AcDbEntity
  8
TEXT
100
AcDbText
 10
9.279038204757409
 20
2.097510348215185
 30
0.0
 40
0.4994285712288001
  1
A
 41
0.75
  7
TXT
 72
     1
 11
9.403895347564608
 21
2.097510348215185
 31
0.0
100
AcDbText
  0
TEXT
  5
2A4
330
1E
100
AcDbEntity
  8
TEXT
100
AcDbText
 10
8.649895347866207
 20
1.265129396167185
 30
0.0
 40
0.4639999998144001
  1
11.727
 41
0.75
  7
TXT
 72
     1
 11
9.403895347564608
 21
1.265129396167185
 31
0.0
100
AcDbText
  0
TEXT
  5
2A5
330
1E
100
AcDbEntity
  8
TEXT
100
AcDbText
 10
8.707895347843008
 20
0.4327484441191852
 30
0.0
 40
0.4639999998144001
  1
[298]
 41
0.75
  7
TXT
 72
     1
 11
9.403895347564608
 21
0.4327484441191852
 31
0.0
100
AcDbText
  0
TEXT
  5
2A6
330
1E
100
AcDbEntity
  8
TEXT
100
AcDbText
 10
11.17199268306154
 20
0.4327484441191852
 30
0.0
 40
0.4639999998144001
  1
[277]
 41
0.75
  7
TXT
 72
     1
 11
11.86799268278314
 21
0.4327484441191852
 31
0.0
100
AcDbText
  0
TEXT
  5
2A7
330
1E
100
AcDbEntity
  8
TEXT
100
AcDbText
 10
11.08499268309634
 20
1.265129396167185
 30
0.0
 40
0.4639999998144001
  1
10.894
 41
0.75
  7
TXT
 72
     1
 11
11.86799268278314
 21
1.265129396167185
 31
0.0
100
AcDbText
  0
TEXT
  5
2A8
330
1E
100
AcDbEntity
  8
TEXT
100
AcDbText
 10
11.74313553997594
 20
2.097510348215185
 30
0.0
 40
0.4994285712288001
  1
B
 41
0.75
  7
TXT
 72
     1
 11
11.86799268278314
 21
2.097510348215185
 31
0.0
100
AcDbText
  0
TEXT
  5
2A9
330
1E
100
AcDbEntity
  8
TEXT
100
AcDbText
 10
14.12366647607185
 20
2.086808445998786
 30
0.0
 40
0.4994285712288001
  1
C
 41
0.75
  7
TXT
 72
     1
 11
14.24852361887904
 21
2.086808445998786
 31
0.0
100
AcDbText
  0
TEXT
  5
2AA
330
1E
100
AcDbEntity
  8
TEXT
100
AcDbText
 10
13.46552361919225
 20
1.254427493950786
 30
0.0
 40
0.4639999998144001
  1
10.424
 41
0.75
  7
TXT
 72
     1
 11
14.24852361887904
 21
1.254427493950786
 31
0.0
100
AcDbText
  0
TEXT
  5
2AB
330
1E
100
AcDbEntity
  8
TEXT
100
AcDbText
 10
13.55252361915744
 20
0.4220465419027866
 30
0.0
 40
0.4639999998144001
  1
[265]
 41
0.75
  7
TXT
 72
     1
 11
14.24852361887904
 21
0.4220465419027866
 31
0.0
100
AcDbText
  0
TEXT
  5
2AC
330
1E
100
AcDbEntity
  8
TEXT
100
AcDbText
 10
16.03600993707833
 20
0.4220465419027866
 30
0.0
 40
0.4639999998144001
  1
[237]
 41
0.75
  7
TXT
 72
     1
 11
16.73200993679993
 21
0.4220465419027866
 31
0.0
100
AcDbText
  0
TEXT
  5
2AD
330
1E
100
AcDbEntity
  8
TEXT
100
AcDbText
 10
16.03600993707833
 20
1.254427493950786
 30
0.0
 40
0.4639999998144001
  1
9.335
 41
0.75
  7
TXT
 72
     1
 11
16.73200993679993
 21
1.254427493950786
 31
0.0
100
AcDbText
  0
TEXT
  5
2AE
330
1E
100
AcDbEntity
  8
TEXT
100
AcDbText
 10
16.60715279399273
 20
2.086808445998786
 30
0.0
 40
0.4994285712288001
  1
D
 41
0.75
  7
TXT
 72
     1
 11
16.73200993679993
 21
2.086808445998786
 31
0.0
100
AcDbText
  0
TEXT
  5
2AF
330
1E
100
AcDbEntity
  8
TEXT
100
AcDbText
 10
18.45001696861982
 20
1.254427493950786
 30
0.0
 40
0.4639999998144001
  1
8.969
 41
0.75
  7
TXT
 72
     1
 11
19.14601696834142
 21
1.254427493950786
 31
0.0
100
AcDbText
  0
TEXT
  5
2B0
330
1E
100
AcDbEntity
  8
TEXT
100
AcDbText
 10
18.45001696861982
 20
0.4220465419027866
 30
0.0
 40
0.4639999998144001
  1
[228]
 41
0.75
  7
TXT
 72
     1
 11
19.14601696834142
 21
0.4220465419027866
 31
0.0
100
AcDbText
  0
TEXT
  5
2B1
330
1E
100
AcDbEntity
  8
TEXT
100
AcDbText
 10
19.02115982553422
 20
2.086808445998786
 30
0.0
 40
0.4994285712288001
  1
E
 41
0.75
  7
TXT
 72
     1
 11
19.14601696834142
 21
2.086808445998786
 31
0.0
100
AcDbText
  0
TEXT
  5
2B2
330
1E
100
AcDbEntity
  8
TEXT
100
AcDbText
 10
20.93116405795174
 20
1.254427493950786
 30
0.0
 40
0.4639999998144001
  1
6.902
 41
0.75
  7
TXT
 72
     1
 11
21.59816405768494
 21
1.254427493950786
 31
0.0
100
AcDbText
  0
TEXT
  5
2B3
330
1E
100
AcDbEntity
  8
TEXT
100
AcDbText
 10
20.96016405794014
 20
0.4220465419027866
 30
0.0
 40
0.4639999998144001
  1
[175]
 41
0.75
  7
TXT
 72
     1
 11
21.59816405768494
 21
0.4220465419027866
 31
0.0
100
AcDbText
  0
TEXT
  5
2B4
330
1E
100
AcDbEntity
  8
TEXT
100
AcDbText
 10
21.47330691487774
 20
2.086808445998786
 30
0.0
 40
0.4994285712288001
  1
F
 41
0.75
  7
TXT
 72
     1
 11
21.59816405768494
 21
2.086808445998786
 31
0.0
100
AcDbText
  0
TEXT
  5
2B5
330
1E
100
AcDbEntity
  8
TEXT
100
AcDbText
 10
23.14242906881383
 20
1.254427493950786
 30
0.0
 40
0.4639999998144001
  1
15.680
 41
0.75
  7
TXT
 72
     1
 11
23.92542906850064
 21
1.254427493950786
 31
0.0
100
AcDbText
  0
TEXT
  5
2B6
330
1E
100
AcDbEntity
  8
TEXT
100
AcDbText
 10
23.22942906877904
 20
0.4220465419027866
 30
0.0
 40
0.4639999998144001
  1
[398]
 41
0.75
  7
TXT
 72
     1
 11
23.92542906850064
 21
0.4220465419027866
 31
0.0
100
AcDbText
  0
TEXT
  5
2B7
330
1E
100
AcDbEntity
  8
TEXT
100
AcDbText
 10
23.80057192569343
 20
2.086808445998786
 30
0.0
 40
0.4994285712288001
  1
G
 41
0.75
  7
TXT
 72
     1
 11
23.92542906850064
 21
2.086808445998786
 31
0.0
100
AcDbText
  0
TEXT
  5
2B8
330
1E
100
AcDbEntity
  8
TEXT
100
AcDbText
 10
25.60945907795908
 20
1.254427493950786
 30
0.0
 40
0.4639999998144001
  1
14.877
 41
0.75
  7
TXT
 72
     1
 11
26.42145907763428
 21
1.254427493950786
 31
0.0
100
AcDbText
  0
TEXT
  5
2B9
330
1E
100
AcDbEntity
  8
TEXT
100
AcDbText
 10
25.72545907791268
 20
0.4220465419027866
 30
0.0
 40
0.4639999998144001
  1
[378]
 41
0.75
  7
TXT
 72
     1
 11
26.42145907763428
 21
0.4220465419027866
 31
0.0
100
AcDbText
  0
TEXT
  5
2BA
330
1E
100
AcDbEntity
  8
TEXT
100
AcDbText
 10
26.29660193482708
 20
2.086808445998786
 30
0.0
 40
0.4994285712288001
  1
H
 41
0.75
  7
TXT
 72
     1
 11
26.42145907763428
 21
2.086808445998786
 31
0.0
100
AcDbText
  0
TEXT
  5
2BB
330
1E
100
AcDbEntity
  8
TEXT
100
AcDbText
 10
28.08619240980905
 20
1.254427493950786
 30
0.0
 40
0.4639999998144001
  1
14.167
 41
0.75
  7
TXT
 72
     1
 11
28.84019240950745
 21
1.254427493950786
 31
0.0
100
AcDbText
  0
TEXT
  5
2BC
330
1E
100
AcDbEntity
  8
TEXT
100
AcDbText
 10
28.17319240977425
 20
0.4220465419027866
 30
0.0
 40
0.4639999998144001
  1
[360]
 41
0.75
  7
TXT
 72
     1
 11
28.84019240950745
 21
0.4220465419027866
 31
0.0
100
AcDbText
  0
TEXT
  5
2BD
330
1E
100
AcDbEntity
  8
TEXT
100
AcDbText
 10
28.71533526670025
 20
2.086808445998786
 30
0.0
 40
0.4994285712288001
  1
J
 41
0.75
  7
TXT
 72
     1
 11
28.84019240950745
 21
2.086808445998786
 31
0.0
100
AcDbText
  0
TEXT
  5
2BE
330
1E
100
AcDbEntity
  8
TEXT
100
AcDbText
 10
30.5008082067032
 20
1.254427493950786
 30
0.0
 40
0.4639999998144001
  1
13.265
 41
0.75
  7
TXT
 72
     1
 11
31.3128082063784
 21
1.254427493950786
 31
0.0
100
AcDbText
  0
TEXT
  5
2BF
330
1E
100
AcDbEntity
  8
TEXT
100
AcDbText
 10
30.6168082066568
 20
0.4220465419027866
 30
0.0
 40
0.4639999998144001
  1
[337]
 41
0.75
  7
TXT
 72
     1
 11
31.3128082063784
 21
0.4220465419027866
 31
0.0
100
AcDbText
  0
TEXT
  5
2C0
330
1E
100
AcDbEntity
  8
TEXT
100
AcDbText
 10
31.1879510635712
 20
2.086808445998786
 30
0.0
 40
0.4994285712288001
  1
K
 41
0.75
  7
TXT
 72
     1
 11
31.3128082063784
 21
2.086808445998786
 31
0.0
100
AcDbText
  0
TEXT
  5
2C1
330
1E
100
AcDbEntity
  8
TEXT
100
AcDbText
 10
33.04017365216238
 20
1.254427493950786
 30
0.0
 40
0.4639999998144001
  1
12.801
 41
0.75
  7
TXT
 72
     1
 11
33.76517365187238
 21
1.254427493950786
 31
0.0
100
AcDbText
  0
TEXT
  5
2C2
330
1E
100
AcDbEntity
  8
TEXT
100
AcDbText
 10
33.06917365215078
 20
0.4220465419027866
 30
0.0
 40
0.4639999998144001
  1
[325]
 41
0.75
  7
TXT
 72
     1
 11
33.76517365187238
 21
0.4220465419027866
 31
0.0
100
AcDbText
  0
TEXT
  5
2C3
330
1E
100
AcDbEntity
  8
TEXT
100
AcDbText
 10
33.64031650906518
 20
2.086808445998786
 30
0.0
 40
0.4994285712288001
  1
L
 41
0.75
  7
TXT
 72
     1
 11
33.76517365187238
 21
2.086808445998786
 31
0.0
100
AcDbText
  0
TEXT
  5
2C4
330
1E
100
AcDbEntity
  8
TEXT
100
AcDbText
 10
35.39831077748672
 20
1.254427493950786
 30
0.0
 40
0.4639999998144001
  1
10.828
 41
0.75
  7
TXT
 72
     1
 11
36.18131077717352
 21
1.254427493950786
 31
0.0
100
AcDbText
  0
TEXT
  5
2C5
330
1E
100
AcDbEntity
  8
TEXT
100
AcDbText
 10
35.48531077745192
 20
0.4220465419027866
 30
0.0
 40
0.4639999998144001
  1
[275]
 41
0.75
  7
TXT
 72
     1
 11
36.18131077717352
 21
0.4220465419027866
 31
0.0
100
AcDbText
  0
TEXT
  5
2C6
330
1E
100
AcDbEntity
  8
TEXT
100
AcDbText
 10
36.05645363436632
 20
2.086808445998786
 30
0.0
 40
0.4994285712288001
  1
M
 41
0.75
  7
TXT
 72
     1
 11
36.18131077717352
 21
2.086808445998786
 31
0.0
100
AcDbText
  0
TEXT
  5
2C7
330
1E
100
AcDbEntity
  8
TEXT
100
AcDbText
 10
37.99646065292824
 20
1.254427493950786
 30
0.0
 40
0.4639999998144001
  1
5.110
 41
0.75
  7
TXT
 72
     1
 11
38.54746065270784
 21
1.254427493950786
 31
0.0
100
AcDbText
  0
TEXT
  5
2C8
330
1E
100
AcDbEntity
  8
TEXT
100
AcDbText
 10
37.93846065295144
 20
0.4220465419027866
 30
0.0
 40
0.4639999998144001
  1
[130]
 41
0.75
  7
TXT
 72
     1
 11
38.54746065270784
 21
0.4220465419027866
 31
0.0
100
AcDbText
  0
TEXT
  5
2C9
330
1E
100
AcDbEntity
  8
TEXT
100
AcDbText
 10
38.42260350990064
 20
2.086808445998786
 30
0.0
 40
0.4994285712288001
  1
N
 41
0.75
  7
TXT
 72
     1
 11
38.54746065270784
 21
2.086808445998786
 31
0.0
100
AcDbText
  0
TEXT
  5
2CA
330
1E
100
AcDbEntity
  8
TEXT
100
AcDbText
 10
40.4501644207255
 20
1.254427493950786
 30
0.0
 40
0.4639999998144001
  1
1.185
 41
0.75
  7
TXT
 72
     1
 11
41.0301644204935
 21
1.254427493950786
 31
0.0
100
AcDbText
  0
TEXT
  5
2CB
330
1E
100
AcDbEntity
  8
TEXT
100
AcDbText
 10
40.53716442069069
 20
0.4220465419027866
 30
0.0
 40
0.4639999998144001
  1
[30]
 41
0.75
  7
TXT
 72
     1
 11
41.0301644204935
 21
0.4220465419027866
 31
0.0
100
AcDbText
  0
TEXT
  5
2CC
330
1E
100
AcDbEntity
  8
TEXT
100
AcDbText
 10
40.90530727768629
 20
2.086808445998786
 30
0.0
 40
0.4994285712288001
  1
P
 41
0.75
  7
TXT
 72
     1
 11
41.0301644204935
 21
2.086808445998786
 31
0.0
100
AcDbText
  0
TEXT
  5
2CD
330
1E
100
AcDbEntity
  8
TEXT
100
AcDbText
 10
42.74335722899972
 20
1.254427493950786
 30
0.0
 40
0.4639999998144001
  1
15.105
 41
0.75
  7
TXT
 72
     1
 11
43.46835722870972
 21
1.254427493950786
 31
0.0
100
AcDbText
  0
TEXT
  5
2CE
330
1E
100
AcDbEntity
  8
TEXT
100
AcDbText
 10
42.77235722898812
 20
0.4220465419027866
 30
0.0
 40
0.4639999998144001
  1
[384]
 41
0.75
  7
TXT
 72
     1
 11
43.46835722870972
 21
0.4220465419027866
 31
0.0
100
AcDbText
  0
TEXT
  5
2CF
330
1E
100
AcDbEntity
  8
TEXT
100
AcDbText
 10
43.34350008590251
 20
2.086808445998786
 30
0.0
 40
0.4994285712288001
  1
R
 41
0.75
  7
TXT
 72
     1
 11
43.46835722870972
 21
2.086808445998786
 31
0.0
100
AcDbText
  0
TEXT
  5
2D0
330
1E
100
AcDbEntity
  8
TEXT
100
AcDbText
 10
45.16641536830749
 20
1.254427493950786
 30
0.0
 40
0.4639999998144001
  1
15.035
 41
0.75
  7
TXT
 72
     1
 11
45.94941536799429
 21
1.254427493950786
 31
0.0
100
AcDbText
  0
TEXT
  5
2D1
330
1E
100
AcDbEntity
  8
TEXT
100
AcDbText
 10
45.25341536827268
 20
0.4220465419027866
 30
0.0
 40
0.4639999998144001
  1
[382]
 41
0.75
  7
TXT
 72
     1
 11
45.94941536799429
 21
0.4220465419027866
 31
0.0
100
AcDbText
  0
TEXT
  5
2D2
330
1E
100
AcDbEntity
  8
TEXT
100
AcDbText
 10
45.82455822518709
 20
2.086808445998786
 30
0.0
 40
0.4994285712288001
  1
S
 41
0.75
  7
TXT
 72
     1
 11
45.94941536799429
 21
2.086808445998786
 31
0.0
100
AcDbText
  0
TEXT
  5
2D3
330
1E
100
AcDbEntity
  8
TEXT
100
AcDbText
 10
47.59785262371424
 20
1.254427493950786
 30
0.0
 40
0.4639999998144001
  1
11.147
 41
0.75
  7
TXT
 72
     1
 11
48.29385262343585
 21
1.254427493950786
 31
0.0
100
AcDbText
  0
TEXT
  5
2D4
330
1E
100
AcDbEntity
  8
TEXT
100
AcDbText
 10
47.59785262371424
 20
0.4220465419027866
 30
0.0
 40
0.4639999998144001
  1
[283]
 41
0.75
  7
TXT
 72
     1
 11
48.29385262343585
 21
0.4220465419027866
 31
0.0
100
AcDbText
  0
TEXT
  5
2D5
330
1E
100
AcDbEntity
  8
TEXT
100
AcDbText
 10
48.16899548062864
 20
2.086808445998786
 30
0.0
 40
0.4994285712288001
  1
T
 41
0.75
  7
TXT
 72
     1
 11
48.29385262343585
 21
2.086808445998786
 31
0.0
100
AcDbText
  0
TEXT
  5
2D6
330
1E
100
AcDbEntity
  8
TEXT
100
AcDbText
 10
50.11273870413391
 20
1.254427493950786
 30
0.0
 40
0.4639999998144001
  1
11.090
 41
0.75
  7
TXT
 72
     1
 11
50.80873870385551
 21
1.254427493950786
 31
0.0
100
AcDbText
  0
TEXT
  5
2D7
330
1E
100
AcDbEntity
  8
TEXT
100
AcDbText
 10
50.11273870413391
 20
0.4220465419027866
 30
0.0
 40
0.4639999998144001
  1
[282]
 41
0.75
  7
TXT
 72
     1
 11
50.80873870385551
 21
0.4220465419027866
 31
0.0
100
AcDbText
  0
TEXT
  5
2D8
330
1E
100
AcDbEntity
  8
TEXT
100
AcDbText
 10
50.6838815610483
 20
2.086808445998786
 30
0.0
 40
0.4994285712288001
  1
U
 41
0.75
  7
TXT
 72
     1
 11
50.80873870385551
 21
2.086808445998786
 31
0.0
100
AcDbText
  0
DIMENSION
  5
2D9
330
1E
100
AcDbEntity
  8
DIM
100
AcDbDimension
  2
*D21
 10
18.48428463542801
 20
10.39291198479459
 30
0.0
 11
18.484284635428
 21
17.4764119847946
 31
0.0
 70
    32
  1
J
 71
     5
 42
14.167
  3
23NSTD
100
AcDbAlignedDimension
 13
20.02694172417518
 23
24.5599119847946
 33
0.0
 14
20.02694172417518
 24
10.39291198479459
 34
0.0
 50
90.0
100
AcDbRotatedDimension
  0
DIMENSION
  5
2DA
330
1E
100
AcDbEntity
  8
DIM
100
AcDbDimension
  2
*D22
 10
58.23525310398061
 20
9.9589119847946
 30
0.0
 11
58.23525310398061
 21
17.47641198479461
 31
0.0
 70
    32
  1
S
 71
     5
 42
15.03499999999999
  3
23NSTD
100
AcDbAlignedDimension
 13
56.8107221195112
 23
24.99391198479459
 33
0.0
 14
56.8107221195112
 24
9.9589119847946
 34
0.0
 50
270.0
100
AcDbRotatedDimension
  0
DIMENSION
  5
2DB
330
1E
100
AcDbEntity
  8
DIM
100
AcDbDimension
  2
*D23
 10
49.54939426523827
 20
9.923911984794596
 30
0.0
 11
49.54939426523827
 21
17.4764119847946
 31
0.0
 70
    32
  1
R
 71
     5
 42
15.105
  3
23NSTD
100
AcDbAlignedDimension
 13
50.68371781945248
 23
25.0289119847946
 33
0.0
 14
50.68371781945252
 24
9.923911984794596
 34
0.0
 50
90.0
100
AcDbRotatedDimension
  0
LINE
  5
2DC
330
1E
100
AcDbEntity
  8
CENTER
100
AcDbLine
 10
7.282731913591852
 20
25.57437578016876
 30
0.0
 11
7.282731913591852
 21
9.378448189420437
 31
0.0
  0
LINE
  5
2DD
330
1E
100
AcDbEntity
  8
CENTER
100
AcDbLine
 10
1.035938440714609
 20
17.4764119847946
 30
0.0
 11
13.5295253864691
 21
17.4764119847946
 31
0.0
  0
LINE
  5
2DE
330
1E
100
AcDbEntity
  8
OBJECT
100
AcDbLine
 10
51.6696119655308
 20
17.47641198479461
 30
0.0
 11
51.66961196553077
 21
10.10141198479511
 31
0.0
  0
LINE
  5
2DF
330
1E
100
AcDbEntity
  8
OBJECT
100
AcDbLine
 10
51.74761196553077
 20
17.47641198479461
 30
0.0
 11
51.74761196553078
 21
10.00775420323608
 31
0.0
  0
LINE
  5
2E0
330
1E
100
AcDbEntity
  8
OBJECT
100
AcDbLine
 10
51.32561196553075
 20
10.21494097606099
 30
0.0
 11
51.66961196553078
 21
10.21494097606099
 31
0.0
  0
LINE
  5
2E1
330
1E
100
AcDbEntity
  8
OBJECT
100
AcDbLine
 10
51.32561196553075
 20
10.58994097606099
 30
0.0
 11
51.66961196553078
 21
10.58994097606099
 31
0.0
  0
LINE
  5
2E2
330
1E
100
AcDbEntity
  8
OBJECT
100
AcDbLine
 10
51.32561196553075
 20
10.58994097606099
 30
0.0
 11
51.32561196553075
 21
10.21494097606099
 31
0.0
  0
LINE
  5
2E3
330
1E
100
AcDbEntity
  8
OBJECT
100
AcDbLine
 10
52.11261196553078
 20
10.65891198479511
 30
0.0
 11
51.74761196553078
 21
10.65891198479511
 31
0.0
  0
LINE
  5
2E4
330
1E
100
AcDbEntity
  8
OBJECT
100
AcDbLine
 10
51.74761196553077
 20
10.10141198479511
 30
0.0
 11
51.66961196553077
 21
10.10141198479511
 31
0.0
  0
LINE
  5
2E5
330
1E
100
AcDbEntity
  8
HIDDEN
  6
HIDDEN
100
AcDbLine
 10
2.453231913591885
 20
24.29391198479369
 30
0.0
 11
2.453231913591871
 21
14.44842906025985
 31
0.0
  0
LINE
  5
2E6
330
1E
100
AcDbEntity
  8
HIDDEN
  6
HIDDEN
100
AcDbLine
 10
12.11223191359209
 20
24.29391198479369
 30
0.0
 11
2.453231913591885
 21
24.29391198479369
 31
0.0
  0
LINE
  5
2E7
330
1E
100
AcDbEntity
  8
OBJECT
100
AcDbLine
 10
1.929731913591886
 20
21.68741198479512
 30
0.0
 11
1.929731913591886
 21
22.65541198479511
 31
0.0
  0
LINE
  5
2E8
330
1E
100
AcDbEntity
  8
OBJECT
100
AcDbLine
 10
2.14773191359189
 20
21.92141198479511
 30
0.0
 11
2.14773191359189
 21
22.42141198479511
 31
0.0
  0
LINE
  5
2E9
330
1E
100
AcDbEntity
  8
OBJECT
100
AcDbLine
 10
2.14773191359189
 20
22.42141198479511
 30
0.0
 11
1.929731913591886
 21
22.42141198479511
 31
0.0
  0
LINE
  5
2EA
330
1E
100
AcDbEntity
  8
OBJECT
100
AcDbLine
 10
2.14773191359189
 20
21.92141198479511
 30
0.0
 11
1.929731913591886
 21
21.92141198479511
 31
0.0
  0
LINE
  5
2EB
330
1E
100
AcDbEntity
  8
OBJECT
100
AcDbLine
 10
2.26723191359207
 20
21.68741198479512
 30
0.0
 11
1.929731913591886
 21
21.68741198479512
 31
0.0
  0
LINE
  5
2EC
330
1E
100
AcDbEntity
  8
OBJECT
100
AcDbLine
 10
2.134231913591861
 20
21.65641198479511
 30
0.0
 11
2.134231913591861
 21
21.59341198479511
 31
0.0
  0
LINE
  5
2ED
330
1E
100
AcDbEntity
  8
OBJECT
100
AcDbLine
 10
2.134231913591861
 20
21.59341198479511
 30
0.0
 11
1.835731913591885
 21
21.59341198479511
 31
0.0
  0
LINE
  5
2EE
330
1E
100
AcDbEntity
  8
OBJECT
100
AcDbLine
 10
2.26723191359207
 20
21.65641198479511
 30
0.0
 11
2.134231913591861
 21
21.65641198479511
 31
0.0
  0
LINE
  5
2EF
330
1E
100
AcDbEntity
  8
OBJECT
100
AcDbLine
 10
2.26723191359207
 20
22.65541198479511
 30
0.0
 11
1.929731913591886
 21
22.65541198479511
 31
0.0
  0
LINE
  5
2F0
330
1E
100
AcDbEntity
  8
OBJECT
100
AcDbLine
 10
2.134231913591861
 20
22.74941198479512
 30
0.0
 11
2.134231913591861
 21
22.68641198479512
 31
0.0
  0
LINE
  5
2F1
330
1E
100
AcDbEntity
  8
OBJECT
100
AcDbLine
 10
2.134231913591861
 20
22.74941198479512
 30
0.0
 11
1.835731913591878
 21
22.74941198479512
 31
0.0
  0
LINE
  5
2F2
330
1E
100
AcDbEntity
  8
OBJECT
100
AcDbLine
 10
2.26723191359207
 20
22.68641198479512
 30
0.0
 11
2.134231913591861
 21
22.68641198479512
 31
0.0
  0
LINE
  5
2F3
330
1E
100
AcDbEntity
  8
HIDDEN
  6
HIDDEN
100
AcDbLine
 10
12.11223191359209
 20
10.6589119847951
 30
0.0
 11
6.894994859246303
 21
10.6589119847951
 31
0.0
  0
LINE
  5
2F4
330
1E
100
AcDbEntity
  8
HIDDEN
  6
HIDDEN
100
AcDbLine
 10
12.11223191359209
 20
10.6589119847951
 30
0.0
 11
12.11223191359209
 21
24.29391198479369
 31
0.0
  0
LINE
  5
2F5
330
1E
100
AcDbEntity
  8
OBJECT
100
AcDbLine
 10
12.47715197125333
 20
10.55456606117215
 30
0.0
 11
12.21407783721502
 21
10.29149192713384
 31
0.0
  0
LINE
  5
2F6
330
1E
100
AcDbEntity
  8
OBJECT
100
AcDbLine
 10
12.51038598996911
 20
10.52133204245637
 30
0.0
 11
12.2473118559308
 21
10.25825790841807
 31
0.0
  0
CIRCLE
  5
2F7
330
1E
100
AcDbEntity
  8
OBJECT
100
AcDbCircle
 10
12.36223191359206
 20
10.40641198479511
 30
0.0
 40
0.1875
  0
LINE
  5
2F8
330
1E
100
AcDbEntity
  8
OBJECT
100
AcDbLine
 10
12.66723191359206
 20
24.84141198479511
 30
0.0
 11
2.26723191359207
 21
24.84141198479511
 31
0.0
  0
LINE
  5
2F9
330
1E
100
AcDbEntity
  8
OBJECT
100
AcDbLine
 10
6.623968960241334
 20
10.10141198479511
 30
0.0
 11
12.66723191359206
 21
10.10141198479511
 31
0.0
  0
LINE
  5
2FA
330
1E
100
AcDbEntity
  8
OBJECT
100
AcDbLine
 10
2.26723191359207
 20
24.84141198479511
 30
0.0
 11
2.26723191359207
 21
14.43236499497882
 31
0.0
  0
LINE
  5
2FB
330
1E
100
AcDbEntity
  8
OBJECT
100
AcDbLine
 10
2.637827523840108
 20
22.43981637454708
 30
0.0
 11
2.540636303344037
 21
22.53700759504315
 31
0.0
  0
LINE
  5
2FC
330
1E
100
AcDbEntity
  8
OBJECT
100
AcDbLine
 10
2.540636303344037
 20
22.43981637454708
 30
0.0
 11
2.637827523840108
 21
22.53700759504315
 31
0.0
  0
CIRCLE
  5
2FD
330
1E
100
AcDbEntity
  8
OBJECT
100
AcDbCircle
 10
2.589231913592065
 20
22.48841198479511
 30
0.0
 40
0.172
  0
CIRCLE
  5
2FE
330
1E
100
AcDbEntity
  8
OBJECT
100
AcDbCircle
 10
2.589231913592065
 20
21.85441198479512
 30
0.0
 40
0.172
  0
LINE
  5
2FF
330
1E
100
AcDbEntity
  8
OBJECT
100
AcDbLine
 10
2.540636303344037
 20
21.80581637454709
 30
0.0
 11
2.637827523840108
 21
21.90300759504315
 31
0.0
  0
LINE
  5
300
330
1E
100
AcDbEntity
  8
OBJECT
100
AcDbLine
 10
2.637827523840108
 20
21.80581637454709
 30
0.0
 11
2.540636303344037
 21
21.90300759504315
 31
0.0
  0
LINE
  5
301
330
1E
100
AcDbEntity
  8
OBJECT
100
AcDbLine
 10
12.66723191359206
 20
10.10141198479511
 30
0.0
 11
12.66723191359206
 21
24.84141198479511
 31
0.0
  0
CIRCLE
  5
302
330
1E
100
AcDbEntity
  8
OBJECT
100
AcDbCircle
 10
12.36223191359206
 20
24.53641198479511
 30
0.0
 40
0.1875
  0
LINE
  5
303
330
1E
100
AcDbEntity
  8
OBJECT
100
AcDbLine
 10
12.51038598996911
 20
24.65133204245637
 30
0.0
 11
12.2473118559308
 21
24.38825790841807
 31
0.0
  0
LINE
  5
304
330
1E
100
AcDbEntity
  8
OBJECT
100
AcDbLine
 10
12.47715197125333
 20
24.68456606117215
 30
0.0
 11
12.21407783721502
 21
24.42149192713384
 31
0.0
  0
LINE
  5
305
330
1E
100
AcDbEntity
  8
OBJECT
100
AcDbLine
 10
6.790466919536171
 20
10.6589119847951
 30
0.0
 11
2.453231913591871
 21
10.6589119847951
 31
0.0
  0
LINE
  5
306
330
1E
100
AcDbEntity
  8
OBJECT
100
AcDbLine
 10
2.453231913591871
 20
14.37041134920149
 30
0.0
 11
2.453231913591871
 21
13.26541198479406
 31
0.0
  0
LINE
  5
307
330
1E
100
AcDbEntity
  8
OBJECT
100
AcDbLine
 10
1.929731913591886
 20
13.26541198479406
 30
0.0
 11
1.929731913591886
 21
12.29741198479407
 31
0.0
  0
LINE
  5
308
330
1E
100
AcDbEntity
  8
OBJECT
100
AcDbLine
 10
2.14773191359189
 20
13.03141198479407
 30
0.0
 11
2.14773191359189
 21
12.53141198479407
 31
0.0
  0
LINE
  5
309
330
1E
100
AcDbEntity
  8
OBJECT
100
AcDbLine
 10
2.14773191359189
 20
12.53141198479407
 30
0.0
 11
1.929731913591886
 21
12.53141198479407
 31
0.0
  0
LINE
  5
30A
330
1E
100
AcDbEntity
  8
OBJECT
100
AcDbLine
 10
2.14773191359189
 20
13.03141198479407
 30
0.0
 11
1.929731913591886
 21
13.03141198479407
 31
0.0
  0
LINE
  5
30B
330
1E
100
AcDbEntity
  8
OBJECT
100
AcDbLine
 10
2.134231913591861
 20
13.29641198479407
 30
0.0
 11
2.134231913591861
 21
13.35941198479407
 31
0.0
  0
LINE
  5
30C
330
1E
100
AcDbEntity
  8
OBJECT
100
AcDbLine
 10
2.134231913591861
 20
13.35941198479407
 30
0.0
 11
1.835731913591885
 21
13.35941198479407
 31
0.0
  0
LINE
  5
30D
330
1E
100
AcDbEntity
  8
OBJECT
100
AcDbLine
 10
2.453231913591871
 20
13.29641198479407
 30
0.0
 11
2.134231913591861
 21
13.29641198479407
 31
0.0
  0
LINE
  5
30E
330
1E
100
AcDbEntity
  8
OBJECT
100
AcDbLine
 10
2.134231913591861
 20
12.20341198479407
 30
0.0
 11
2.134231913591861
 21
12.26641198479407
 31
0.0
  0
LINE
  5
30F
330
1E
100
AcDbEntity
  8
OBJECT
100
AcDbLine
 10
2.134231913591861
 20
12.20341198479407
 30
0.0
 11
1.835731913591878
 21
12.20341198479407
 31
0.0
  0
LINE
  5
310
330
1E
100
AcDbEntity
  8
OBJECT
100
AcDbLine
 10
2.453231913591871
 20
12.26641198479408
 30
0.0
 11
2.134231913591861
 21
12.26641198479407
 31
0.0
  0
POLYLINE
  5
311
330
1E
100
AcDbEntity
  8
OBJECT
100
AcDb2dPolyline
 66
     1
 10
0.0
 20
0.0
 30
0.0
 70
     4
 75
     6
  0
VERTEX
  5
312
330
311
100
AcDbEntity
  8
OBJECT
100
AcDbVertex
100
AcDb2dVertex
 10
6.623968960241334
 20
10.10141198479511
 30
0.0
 70
    16
  0
VERTEX
  5
313
330
311
100
AcDbEntity
  8
OBJECT
100
AcDbVertex
100
AcDb2dVertex
 10
6.623968960241334
 20
10.10141198479511
 30
0.0
 70
     8
  0
VERTEX
  5
314
330
311
100
AcDbEntity
  8
OBJECT
100
AcDbVertex
100
AcDb2dVertex
 10
6.755999971077727
 20
10.50310815465412
 30
0.0
 70
     8
  0
VERTEX
  5
315
330
311
100
AcDbEntity
  8
OBJECT
100
AcDbVertex
100
AcDb2dVertex
 10
6.834360273496599
 20
10.85732678420831
 30
0.0
 70
     8
  0
VERTEX
  5
316
330
311
100
AcDbEntity
  8
OBJECT
100
AcDbVertex
100
AcDb2dVertex
 10
6.869108096127256
 20
11.16933354857122
 30
0.0
 70
     8
  0
VERTEX
  5
317
330
311
100
AcDbEntity
  8
OBJECT
100
AcDbVertex
100
AcDb2dVertex
 10
6.870301667599001
 20
11.44439412285637
 30
0.0
 70
     8
  0
VERTEX
  5
318
330
311
100
AcDbEntity
  8
OBJECT
100
AcDbVertex
100
AcDb2dVertex
 10
6.847999216541126
 20
11.68777418217729
 30
0.0
 70
     8
  0
VERTEX
  5
319
330
311
100
AcDbEntity
  8
OBJECT
100
AcDbVertex
100
AcDb2dVertex
 10
6.812258971582942
 20
11.90473940164753
 30
0.0
 70
     8
  0
VERTEX
  5
31A
330
311
100
AcDbEntity
  8
OBJECT
100
AcDbVertex
100
AcDb2dVertex
 10
6.773139161353746
 20
12.1005554563806
 30
0.0
 70
     8
  0
VERTEX
  5
31B
330
311
100
AcDbEntity
  8
OBJECT
100
AcDbVertex
100
AcDb2dVertex
 10
6.740698014482852
 20
12.28048802149005
 30
0.0
 70
     8
  0
VERTEX
  5
31C
330
311
100
AcDbEntity
  8
OBJECT
100
AcDbVertex
100
AcDb2dVertex
 10
6.722620017705402
 20
12.44903911341162
 30
0.0
 70
     8
  0
VERTEX
  5
31D
330
311
100
AcDbEntity
  8
OBJECT
100
AcDbVertex
100
AcDb2dVertex
 10
6.717094690179976
 20
12.60765611387
 30
0.0
 70
     8
  0
VERTEX
  5
31E
330
311
100
AcDbEntity
  8
OBJECT
100
AcDbVertex
100
AcDb2dVertex
 10
6.719937809170993
 20
12.75702274591207
 30
0.0
 70
     8
  0
VERTEX
  5
31F
330
311
100
AcDbEntity
  8
OBJECT
100
AcDbVertex
100
AcDb2dVertex
 10
6.726965151942863
 20
12.89782273258473
 30
0.0
 70
     8
  0
VERTEX
  5
320
330
311
100
AcDbEntity
  8
OBJECT
100
AcDbVertex
100
AcDb2dVertex
 10
6.73399249576002
 20
13.03073979693489
 30
0.0
 70
     8
  0
VERTEX
  5
321
330
311
100
AcDbEntity
  8
OBJECT
100
AcDbVertex
100
AcDb2dVertex
 10
6.736835617886882
 20
13.15645766200943
 30
0.0
 70
     8
  0
VERTEX
  5
322
330
311
100
AcDbEntity
  8
OBJECT
100
AcDbVertex
100
AcDb2dVertex
 10
6.731310295587867
 20
13.27566005085525
 30
0.0
 70
     8
  0
VERTEX
  5
323
330
311
100
AcDbEntity
  8
OBJECT
100
AcDbVertex
100
AcDb2dVertex
 10
6.713232306127395
 20
13.38903068651926
 30
0.0
 70
     8
  0
VERTEX
  5
324
330
311
100
AcDbEntity
  8
OBJECT
100
AcDbVertex
100
AcDb2dVertex
 10
6.679376311152246
 20
13.49694494636245
 30
0.0
 70
     8
  0
VERTEX
  5
325
330
311
100
AcDbEntity
  8
OBJECT
100
AcDbVertex
100
AcDb2dVertex
 10
6.630352509838573
 20
13.59854482500227
 30
0.0
 70
     8
  0
VERTEX
  5
326
330
311
100
AcDbEntity
  8
OBJECT
100
AcDbVertex
100
AcDb2dVertex
 10
6.567729985744882
 20
13.69266397137027
 30
0.0
 70
     8
  0
VERTEX
  5
327
330
311
100
AcDbEntity
  8
OBJECT
100
AcDbVertex
100
AcDb2dVertex
 10
6.493077822429675
 20
13.778136034398
 30
0.0
 70
     8
  0
VERTEX
  5
328
330
311
100
AcDbEntity
  8
OBJECT
100
AcDbVertex
100
AcDb2dVertex
 10
6.407965103451473
 20
13.85379466301703
 30
0.0
 70
     8
  0
VERTEX
  5
329
330
311
100
AcDbEntity
  8
OBJECT
100
AcDbVertex
100
AcDb2dVertex
 10
6.31396091236877
 20
13.91847350615889
 30
0.0
 70
     8
  0
VERTEX
  5
32A
330
311
100
AcDbEntity
  8
OBJECT
100
AcDbVertex
100
AcDb2dVertex
 10
6.21263433274008
 20
13.97100621275515
 30
0.0
 70
     8
  0
VERTEX
  5
32B
330
311
100
AcDbEntity
  8
OBJECT
100
AcDbVertex
100
AcDb2dVertex
 10
6.105554448123911
 20
14.01022643173735
 30
0.0
 70
     8
  0
VERTEX
  5
32C
330
311
100
AcDbEntity
  8
OBJECT
100
AcDbVertex
100
AcDb2dVertex
 10
5.994028828065239
 20
14.03568505085605
 30
0.0
 70
     8
  0
VERTEX
  5
32D
330
311
100
AcDbEntity
  8
OBJECT
100
AcDbVertex
100
AcDb2dVertex
 10
5.878318986054949
 20
14.04980191313771
 30
0.0
 70
     8
  0
VERTEX
  5
32E
330
311
100
AcDbEntity
  8
OBJECT
100
AcDbVertex
100
AcDb2dVertex
 10
5.758424921570409
 20
14.05571410042783
 30
0.0
 70
     8
  0
VERTEX
  5
32F
330
311
100
AcDbEntity
  8
OBJECT
100
AcDbVertex
100
AcDb2dVertex
 10
5.634346634088963
 20
14.05655869457187
 30
0.0
 70
     8
  0
VERTEX
  5
330
330
311
100
AcDbEntity
  8
OBJECT
100
AcDbVertex
100
AcDb2dVertex
 10
5.506084123087973
 20
14.05547277741532
 30
0.0
 70
     8
  0
VERTEX
  5
331
330
311
100
AcDbEntity
  8
OBJECT
100
AcDbVertex
100
AcDb2dVertex
 10
5.373637388044805
 20
14.05559343080365
 30
0.0
 70
     8
  0
VERTEX
  5
332
330
311
100
AcDbEntity
  8
OBJECT
100
AcDbVertex
100
AcDb2dVertex
 10
5.237006428436814
 20
14.06005773658233
 30
0.0
 70
     8
  0
VERTEX
  5
333
330
311
100
AcDbEntity
  8
OBJECT
100
AcDbVertex
100
AcDb2dVertex
 10
5.096191243741358
 20
14.07200277659685
 30
0.0
 70
     8
  0
VERTEX
  5
334
330
311
100
AcDbEntity
  8
OBJECT
100
AcDbVertex
100
AcDb2dVertex
 10
4.951342707042492
 20
14.09350653244844
 30
0.0
 70
     8
  0
VERTEX
  5
335
330
311
100
AcDbEntity
  8
OBJECT
100
AcDbVertex
100
AcDb2dVertex
 10
4.803215185851101
 20
14.1224105847614
 30
0.0
 70
     8
  0
VERTEX
  5
336
330
311
100
AcDbEntity
  8
OBJECT
100
AcDbVertex
100
AcDb2dVertex
 10
4.652713921284735
 20
14.15549741391581
 30
0.0
 70
     8
  0
VERTEX
  5
337
330
311
100
AcDbEntity
  8
OBJECT
100
AcDbVertex
100
AcDb2dVertex
 10
4.500744154460981
 20
14.18954950029173
 30
0.0
 70
     8
  0
VERTEX
  5
338
330
311
100
AcDbEntity
  8
OBJECT
100
AcDbVertex
100
AcDb2dVertex
 10
4.348211126497403
 20
14.22134932426922
 30
0.0
 70
     8
  0
VERTEX
  5
339
330
311
100
AcDbEntity
  8
OBJECT
100
AcDbVertex
100
AcDb2dVertex
 10
4.19602007851158
 20
14.24767936622836
 30
0.0
 70
     8
  0
VERTEX
  5
33A
330
311
100
AcDbEntity
  8
OBJECT
100
AcDbVertex
100
AcDb2dVertex
 10
4.045076251621068
 20
14.26532210654921
 30
0.0
 70
     8
  0
VERTEX
  5
33B
330
311
100
AcDbEntity
  8
OBJECT
100
AcDbVertex
100
AcDb2dVertex
 10
3.896284886943462
 20
14.27106002561183
 30
0.0
 70
     8
  0
VERTEX
  5
33C
330
311
100
AcDbEntity
  8
OBJECT
100
AcDbVertex
100
AcDb2dVertex
 10
3.749330835694543
 20
14.26349216148488
 30
0.0
 70
     8
  0
VERTEX
  5
33D
330
311
100
AcDbEntity
  8
OBJECT
100
AcDbVertex
100
AcDb2dVertex
 10
3.599017389483073
 20
14.24848378299134
 30
0.0
 70
     8
  0
VERTEX
  5
33E
330
311
100
AcDbEntity
  8
OBJECT
100
AcDbVertex
100
AcDb2dVertex
 10
3.438927450016045
 20
14.23371671664276
 30
0.0
 70
     8
  0
VERTEX
  5
33F
330
311
100
AcDbEntity
  8
OBJECT
100
AcDbVertex
100
AcDb2dVertex
 10
3.262643919000446
 20
14.2268727889507
 30
0.0
 70
     8
  0
VERTEX
  5
340
330
311
100
AcDbEntity
  8
OBJECT
100
AcDbVertex
100
AcDb2dVertex
 10
3.063749698143261
 20
14.23563382642671
 30
0.0
 70
     8
  0
VERTEX
  5
341
330
311
100
AcDbEntity
  8
OBJECT
100
AcDbVertex
100
AcDb2dVertex
 10
2.835827689151479
 20
14.26768165558237
 30
0.0
 70
     8
  0
VERTEX
  5
342
330
311
100
AcDbEntity
  8
OBJECT
100
AcDbVertex
100
AcDb2dVertex
 10
2.572460793732084
 20
14.33069810292922
 30
0.0
 70
     8
  0
VERTEX
  5
343
330
311
100
AcDbEntity
  8
OBJECT
100
AcDbVertex
100
AcDb2dVertex
 10
2.26723191359207
 20
14.43236499497882
 30
0.0
 70
     8
  0
VERTEX
  5
344
330
311
100
AcDbEntity
  8
OBJECT
100
AcDbVertex
100
AcDb2dVertex
 10
7.056553248032237
 20
11.24058575825982
 30
0.0
 70
    16
  0
VERTEX
  5
345
330
311
100
AcDbEntity
  8
OBJECT
100
AcDbVertex
100
AcDb2dVertex
 10
6.562171166615151
 20
12.39374470959775
 30
0.0
 70
    16
  0
VERTEX
  5
346
330
311
100
AcDbEntity
  8
OBJECT
100
AcDbVertex
100
AcDb2dVertex
 10
6.891759131695735
 20
13.44394300795844
 30
0.0
 70
    16
  0
VERTEX
  5
347
330
311
100
AcDbEntity
  8
OBJECT
100
AcDbVertex
100
AcDb2dVertex
 10
6.150186143366312
 20
14.16466737768403
 30
0.0
 70
    16
  0
VERTEX
  5
348
330
311
100
AcDbEntity
  8
OBJECT
100
AcDbVertex
100
AcDb2dVertex
 10
5.140822983582495
 20
13.95874607172956
 30
0.0
 70
    16
  0
VERTEX
  5
349
330
311
100
AcDbEntity
  8
OBJECT
100
AcDbVertex
100
AcDb2dVertex
 10
3.863669384751858
 20
14.43236499497882
 30
0.0
 70
    16
  0
VERTEX
  5
34A
330
311
100
AcDbEntity
  8
OBJECT
100
AcDbVertex
100
AcDb2dVertex
 10
3.142695660964498
 20
14.10289106634371
 30
0.0
 70
    16
  0
VERTEX
  5
34B
330
311
100
AcDbEntity
  8
OBJECT
100
AcDbVertex
100
AcDb2dVertex
 10
2.26723191359207
 20
14.43236499497882
 30
0.0
 70
    16
  0
SEQEND
  5
34C
330
311
100
AcDbEntity
  8
OBJECT
  0
CIRCLE
  5
34D
330
1E
100
AcDbEntity
  8
OBJECT
100
AcDbCircle
 10
2.508231913591849
 20
13.09841198479406
 30
0.0
 40
0.078
  0
LINE
  5
34E
330
1E
100
AcDbEntity
  8
OBJECT
100
AcDbLine
 10
2.741731913591891
 20
12.29741198479406
 30
0.0
 11
2.741731913591891
 21
13.26541198479406
 31
0.0
  0
LINE
  5
34F
330
1E
100
AcDbEntity
  8
OBJECT
100
AcDbLine
 10
2.741731913591891
 20
13.26541198479406
 30
0.0
 11
1.929731913591886
 21
13.26541198479406
 31
0.0
  0
CIRCLE
  5
350
330
1E
100
AcDbEntity
  8
OBJECT
100
AcDbCircle
 10
2.508231913591849
 20
12.46441198479408
 30
0.0
 40
0.078
  0
LINE
  5
351
330
1E
100
AcDbEntity
  8
OBJECT
100
AcDbLine
 10
2.741731913591891
 20
12.29741198479406
 30
0.0
 11
1.929731913591886
 21
12.29741198479407
 31
0.0
  0
LINE
  5
352
330
1E
100
AcDbEntity
  8
OBJECT
100
AcDbLine
 10
2.453231913591871
 20
12.29741198479406
 30
0.0
 11
2.453231913591871
 21
10.6589119847951
 31
0.0
  0
DIMENSION
  5
353
330
1E
100
AcDbEntity
  8
DIM
100
AcDbDimension
  2
*D24
 10
14.19339509941021
 20
24.29391198479369
 30
0.0
 11
14.1933950994102
 21
17.4764119847944
 31
0.0
 70
    32
  1
Y
 71
     5
 42
13.63499999999858
  3
23NSTD
100
AcDbAlignedDimension
 13
12.11223191359209
 23
10.6589119847951
 33
0.0
 14
12.11223191359209
 24
24.29391198479369
 34
0.0
 50
90.0
100
AcDbRotatedDimension
  0
DIMENSION
  5
354
330
1E
100
AcDbEntity
  8
DIM
100
AcDbDimension
  2
*D25
 10
15.16845291086598
 20
24.84141198479511
 30
0.0
 11
15.16845291086598
 21
17.47141198479511
 31
0.0
 70
    32
  1
X
 71
     5
 42
14.74
  3
23NSTD
100
AcDbAlignedDimension
 13
12.66723191359206
 23
10.10141198479511
 33
0.0
 14
12.66723191359206
 24
24.84141198479511
 34
0.0
 50
90.0
100
AcDbRotatedDimension
  0
DIMENSION
  5
355
330
1E
100
AcDbEntity
  8
DIM
100
AcDbDimension
  2
*D26
 10
2.453231913591885
 20
26.08631930105013
 30
0.0
 11
7.282731913591991
 21
26.08631930105013
 31
0.0
 70
    32
  1
W
 71
     5
 42
9.659000000000212
  3
23NSTD
100
AcDbAlignedDimension
 13
12.11223191359209
 23
24.29391198479369
 33
0.0
 14
2.453231913591885
 24
24.29391198479369
 34
0.0
100
AcDbRotatedDimension
  0
DIMENSION
  5
356
330
1E
100
AcDbEntity
  8
DIM
100
AcDbDimension
  2
*D27
 10
12.66723191359206
 20
27.08631930105013
 30
0.0
 11
7.467231913592069
 21
27.08631930105013
 31
0.0
 70
    32
  1
V
 71
     5
 42
10.39999999999999
  3
23NSTD
100
AcDbAlignedDimension
 13
2.26723191359207
 23
24.84141198479511
 33
0.0
 14
12.66723191359206
 24
24.84141198479511
 34
0.0
100
AcDbRotatedDimension
  0
LINE
  5
357
330
1E
100
AcDbEntity
  8
TITLE
100
AcDbLine
 10
10.60880519328083
 20
0.2479999998997997
 30
0.0
 11
10.60880519328083
 21
2.754285713182993
 31
0.0
  0
LINE
  5
358
330
1E
100
AcDbEntity
  8
TITLE
100
AcDbLine
 10
13.04419913248082
 20
0.2479999998997997
 30
0.0
 11
13.04419913248082
 21
2.754285713182993
 31
0.0
  0
LINE
  5
359
330
1E
100
AcDbEntity
  8
TITLE
100
AcDbLine
 10
15.47959307168083
 20
0.2479999998997997
 30
0.0
 11
15.47959307168083
 21
2.754285713182993
 31
0.0
  0
LINE
  5
35A
330
1E
100
AcDbEntity
  8
TITLE
100
AcDbLine
 10
17.91498701088082
 20
0.2479999998997997
 30
0.0
 11
17.91498701088082
 21
2.754285713182993
 31
0.0
  0
LINE
  5
35B
330
1E
100
AcDbEntity
  8
TITLE
100
AcDbLine
 10
20.35038095008082
 20
0.2479999998997997
 30
0.0
 11
20.35038095008082
 21
2.754285713182993
 31
0.0
  0
LINE
  5
35C
330
1E
100
AcDbEntity
  8
TITLE
100
AcDbLine
 10
22.78577488928083
 20
0.2479999998997997
 30
0.0
 11
22.78577488928083
 21
2.754285713182993
 31
0.0
  0
LINE
  5
35D
330
1E
100
AcDbEntity
  8
TITLE
100
AcDbLine
 10
25.22116882848083
 20
0.2479999998997997
 30
0.0
 11
25.22116882848083
 21
2.754285713182993
 31
0.0
  0
LINE
  5
35E
330
1E
100
AcDbEntity
  8
TITLE
100
AcDbLine
 10
27.65656276768083
 20
0.2479999998997997
 30
0.0
 11
27.65656276768083
 21
2.754285713182993
 31
0.0
  0
LINE
  5
35F
330
1E
100
AcDbEntity
  8
TITLE
100
AcDbLine
 10
30.09195670688082
 20
0.2479999998997997
 30
0.0
 11
30.09195670688082
 21
2.754285713182993
 31
0.0
  0
LINE
  5
360
330
1E
100
AcDbEntity
  8
TITLE
100
AcDbLine
 10
32.52735064608083
 20
0.2479999998997997
 30
0.0
 11
32.52735064608083
 21
2.754285713182993
 31
0.0
  0
LINE
  5
361
330
1E
100
AcDbEntity
  8
TITLE
100
AcDbLine
 10
34.96274458528083
 20
0.2479999998997997
 30
0.0
 11
34.96274458528083
 21
2.754285713182993
 31
0.0
  0
LINE
  5
362
330
1E
100
AcDbEntity
  8
TITLE
100
AcDbLine
 10
37.39813852448083
 20
0.2479999998997997
 30
0.0
 11
37.39813852448083
 21
2.754285713182993
 31
0.0
  0
LINE
  5
363
330
1E
100
AcDbEntity
  8
TITLE
100
AcDbLine
 10
39.83353246368084
 20
0.2479999998997997
 30
0.0
 11
39.83353246368084
 21
2.754285713182993
 31
0.0
  0
LINE
  5
364
330
1E
100
AcDbEntity
  8
TITLE
100
AcDbLine
 10
42.26892640288084
 20
0.2479999998997997
 30
0.0
 11
42.26892640288085
 21
2.754285713182993
 31
0.0
  0
LINE
  5
365
330
1E
100
AcDbEntity
  8
TITLE
100
AcDbLine
 10
44.70432034208083
 20
0.2479999998997997
 30
0.0
 11
44.70432034208083
 21
2.754285713182993
 31
0.0
  0
LINE
  5
366
330
1E
100
AcDbEntity
  8
TITLE
100
AcDbLine
 10
47.13971428128083
 20
0.2479999998997997
 30
0.0
 11
47.13971428128083
 21
2.754285713182993
 31
0.0
  0
LINE
  5
367
330
1E
100
AcDbEntity
  8
TITLE
100
AcDbLine
 10
49.57510822048083
 20
0.2479999998997997
 30
0.0
 11
49.57510822048083
 21
2.754285713182993
 31
0.0
  0
LINE
  5
368
330
1E
100
AcDbEntity
  8
TITLE
100
AcDbLine
 10
52.01050215968082
 20
0.2479999998997997
 30
0.0
 11
52.01050215968082
 21
2.754285713182993
 31
0.0
  0
LINE
  5
369
330
1E
100
AcDbEntity
  8
TITLE
100
AcDbLine
 10
54.44589609888082
 20
0.2479999998997997
 30
0.0
 11
54.44589609888082
 21
2.754285713182993
 31
0.0
  0
LINE
  5
36A
330
1E
100
AcDbEntity
  8
TITLE
100
AcDbLine
 10
56.88129003808083
 20
0.2479999998997997
 30
0.0
 11
56.88129003808083
 21
2.754285713182993
 31
0.0
  0
LINE
  5
36B
330
1E
100
AcDbEntity
  8
TITLE
100
AcDbLine
 10
59.31668397728083
 20
0.2479999998997997
 30
0.0
 11
59.31668397728083
 21
2.754285713182993
 31
0.0
  0
TEXT
  5
36C
330
1E
100
AcDbEntity
  8
TEXT
100
AcDbText
 10
52.51393298578808
 20
0.4220465419027866
 30
0.0
 40
0.4639999998144001
  1
[264]
 41
0.75
  7
TXT
 72
     1
 11
53.20993298550968
 21
0.4220465419027866
 31
0.0
100
AcDbText
  0
TEXT
  5
36D
330
1E
100
AcDbEntity
  8
TEXT
100
AcDbText
 10
52.48493298579968
 20
1.254427493950786
 30
0.0
 40
0.4639999998144001
  1
10.400
 41
0.75
  7
TXT
 72
     1
 11
53.20993298550968
 21
1.254427493950786
 31
0.0
100
AcDbText
  0
TEXT
  5
36E
330
1E
100
AcDbEntity
  8
TEXT
100
AcDbText
 10
54.99499112507266
 20
1.254427493950786
 30
0.0
 40
0.4639999998144001
  1
9.659
 41
0.75
  7
TXT
 72
     1
 11
55.69099112479427
 21
1.254427493950786
 31
0.0
100
AcDbText
  0
TEXT
  5
36F
330
1E
100
AcDbEntity
  8
TEXT
100
AcDbText
 10
57.252428380549
 20
1.254427493950786
 30
0.0
 40
0.4639999998144001
  1
14.740
 41
0.75
  7
TXT
 72
     1
 11
58.03542838023581
 21
1.254427493950786
 31
0.0
100
AcDbText
  0
TEXT
  5
370
330
1E
100
AcDbEntity
  8
TEXT
100
AcDbText
 10
59.73831446098028
 20
1.254427493950786
 30
0.0
 40
0.4639999998144001
  1
13.635
 41
0.75
  7
TXT
 72
     1
 11
60.55031446065548
 21
1.254427493950786
 31
0.0
100
AcDbText
  0
TEXT
  5
371
330
1E
100
AcDbEntity
  8
TEXT
100
AcDbText
 10
59.85431446093388
 20
0.4220465419027866
 30
0.0
 40
0.4639999998144001
  1
[346]
 41
0.75
  7
TXT
 72
     1
 11
60.55031446065548
 21
0.4220465419027866
 31
0.0
100
AcDbText
  0
TEXT
  5
372
330
1E
100
AcDbEntity
  8
TEXT
100
AcDbText
 10
54.99499112507266
 20
0.4220465419027866
 30
0.0
 40
0.4639999998144001
  1
[245]
 41
0.75
  7
TXT
 72
     1
 11
55.69099112479427
 21
0.4220465419027866
 31
0.0
100
AcDbText
  0
TEXT
  5
373
330
1E
100
AcDbEntity
  8
TEXT
100
AcDbText
 10
57.33942838051421
 20
0.4220465419027866
 30
0.0
 40
0.4639999998144001
  1
[374]
 41
0.75
  7
TXT
 72
     1
 11
58.03542838023581
 21
0.4220465419027866
 31
0.0
100
AcDbText
  0
TEXT
  5
374
330
1E
100
AcDbEntity
  8
TEXT
100
AcDbText
 10
60.42545731784827
 20
2.086808445998786
 30
0.0
 40
0.4994285712288001
  1
Y
 41
0.75
  7
TXT
 72
     1
 11
60.55031446065548
 21
2.086808445998786
 31
0.0
100
AcDbText
  0
TEXT
  5
375
330
1E
100
AcDbEntity
  8
TEXT
100
AcDbText
 10
57.9105712374286
 20
2.086808445998786
 30
0.0
 40
0.4994285712288001
  1
X
 41
0.75
  7
TXT
 72
     1
 11
58.03542838023581
 21
2.086808445998786
 31
0.0
100
AcDbText
  0
TEXT
  5
376
330
1E
100
AcDbEntity
  8
TEXT
100
AcDbText
 10
55.50370541058346
 20
2.086808445998786
 30
0.0
 40
0.4994285712288001
  1
W
 41
0.75
  7
TXT
 72
     1
 11
55.69099112479427
 21
2.086808445998786
 31
0.0
100
AcDbText
  0
TEXT
  5
377
330
1E
100
AcDbEntity
  8
TEXT
100
AcDbText
 10
53.02264727129887
 20
2.086808445998786
 30
0.0
 40
0.4994285712288001
  1
V
 41
0.75
  7
TXT
 72
     1
 11
53.20993298550968
 21
2.086808445998786
 31
0.0
100
AcDbText
  0
INSERT
  5
378
330
1E
100
AcDbEntity
  8
OBJECT
100
AcDbBlockReference
  2
*X0
 10
1.503529740939342
 20
-1.151559058685002
 30
0.0
1001
ACAD
1000
HATCH
1002
{
1070
    16
1000
ANSI32
1040
1.0
1040
0.0
1002
}
  0
DIMENSION
  5
379
330
1E
100
AcDbEntity
  8
DIM
100
AcDbDimension
  2
*D28
 10
51.74761196553077
 20
15.4539028071699
 30
0.0
 11
54.86011196553078
 21
15.4539028071699
 31
0.0
 70
    32
 71
     5
 42
0.0779999999999959
  3
23NSTD
100
AcDbAlignedDimension
 13
51.66961196553078
 23
15.41923291637257
 33
0.0
 14
51.74761196553077
 24
15.41923291637257
 34
0.0
100
AcDbRotatedDimension
  0
TEXT
  5
37A
330
1E
100
AcDbEntity
  8
TEXT
100
AcDbText
 10
4.395628048923276
 20
8.532832255601405
 30
0.0
 40
0.5
  1
%%UVIEW LESS COVER
 41
0.75
  7
TXT
 72
     1
 11
7.276878048923276
 21
8.532832255601405
 31
0.0
100
AcDbText
  0
TEXT
  5
37B
330
1E
100
AcDbEntity
  8
TEXT
100
AcDbText
 10
22.35769172417518
 20
5.637543675915242
 30
0.0
 40
0.5
  1
%%UVIEW LESS COVER
 41
0.75
  7
TXT
 72
     1
 11
25.23894172417518
 21
5.637543675915242
 31
0.0
100
AcDbText
  0
TEXT
  5
37C
330
1E
100
AcDbEntity
  8
TEXT
100
AcDbText
 10
21.54519172417518
 20
4.828043675915246
 30
0.0
 40
0.5
  1
%%UAND SWINGFRAME PANEL
 41
0.75
  7
TXT
 72
     1
 11
25.23894172417518
 21
4.828043675915246
 31
0.0
100
AcDbText
  0
LINE
  5
37D
330
1E
100
AcDbEntity
  8
CENTER
100
AcDbLine
 10
25.23894172417518
 20
25.57437578016876
 30
0.0
 11
25.23894172417518
 21
9.378448189420442
 31
0.0
  0
ARC
  5
37E
330
1E
100
AcDbEntity
  8
OBJECT
100
AcDbCircle
 10
20.02694172417518
 20
10.39291198479459
 30
0.0
 40
0.2875
100
AcDbArc
 50
215.1755004971478
 51
144.8244995028521
  0
CIRCLE
  5
37F
330
1E
100
AcDbEntity
  8
OBJECT
100
AcDbCircle
 10
20.7544417241752
 20
11.07591198479459
 30
0.0
 40
0.3625
  0
CIRCLE
  5
380
330
1E
100
AcDbEntity
  8
OBJECT
100
AcDbCircle
 10
24.74594172417518
 20
10.84391198479459
 30
0.0
 40
0.083
  0
CIRCLE
  5
381
330
1E
100
AcDbEntity
  8
OBJECT
100
AcDbCircle
 10
24.74594172417518
 20
10.84391198479459
 30
0.0
 40
0.238
  0
CIRCLE
  5
382
330
1E
100
AcDbEntity
  8
OBJECT
100
AcDbCircle
 10
25.73194172417518
 20
10.84391198479459
 30
0.0
 40
0.238
  0
CIRCLE
  5
383
330
1E
100
AcDbEntity
  8
OBJECT
100
AcDbCircle
 10
25.73194172417518
 20
10.84391198479459
 30
0.0
 40
0.083
  0
LINE
  5
384
330
1E
100
AcDbEntity
  8
OBJECT
100
AcDbLine
 10
30.68594172417514
 20
16.68901042479456
 30
0.0
 11
19.79194172417519
 21
16.68901042479456
 31
0.0
  0
LINE
  5
385
330
1E
100
AcDbEntity
  8
CENTER
100
AcDbLine
 10
18.99214825129794
 20
17.4764119847946
 30
0.0
 11
31.48573519705243
 21
17.4764119847946
 31
0.0
  0
LINE
  5
386
330
1E
100
AcDbEntity
  8
OBJECT
100
AcDbLine
 10
31.07238660717534
 20
11.90628600979469
 30
0.0
 11
31.10244172417518
 21
11.90628600979469
 31
0.0
  0
LINE
  5
387
330
1E
100
AcDbEntity
  8
OBJECT
100
AcDbLine
 10
31.07238660717534
 20
12.89053795979451
 30
0.0
 11
31.10244172417518
 21
12.89053795979451
 31
0.0
  0
LINE
  5
388
330
1E
100
AcDbEntity
  8
OBJECT
100
AcDbLine
 10
31.07238660717534
 20
12.89053795979451
 30
0.0
 11
31.07238660717534
 21
11.90628600979469
 31
0.0
  0
LINE
  5
389
330
1E
100
AcDbEntity
  8
OBJECT
100
AcDbLine
 10
47.03350950592361
 20
13.20549858379488
 30
0.0
 11
47.03350950592361
 21
21.7473253857943
 31
0.0
  0
LINE
  5
38A
330
1E
100
AcDbEntity
  8
CENTER
100
AcDbLine
 10
41.1700095059236
 20
9.284150770833722
 30
0.0
 11
41.1700095059236
 21
25.66867319875546
 31
0.0
  0
LINE
  5
38B
330
1E
100
AcDbEntity
  8
CENTER
100
AcDbLine
 10
47.38577071988449
 20
17.4764119847946
 30
0.0
 11
34.95424829196274
 21
17.4764119847946
 31
0.0
  0
LINE
  5
38C
330
1E
100
AcDbEntity
  8
OBJECT
100
AcDbLine
 10
35.36947091022223
 20
31.6801790477747
 30
0.0
 11
46.97054810162497
 21
31.6801790477747
 31
0.0
  0
LINE
  5
38D
330
1E
100
AcDbEntity
  8
OBJECT
100
AcDbLine
 10
46.97256246413918
 20
31.08962787777445
 30
0.0
 11
35.36745654770801
 21
31.08962787777445
 31
0.0
  0
LINE
  5
38E
330
1E
100
AcDbEntity
  8
CENTER
100
AcDbLine
 10
41.1700095059236
 20
30.00202150877963
 30
0.0
 11
41.1700095059236
 21
36.83264423334843
 31
0.0
  0
LINE
  5
38F
330
1E
100
AcDbEntity
  8
OBJECT
100
AcDbLine
 10
47.19097809557481
 20
31.38490346277457
 30
0.0
 11
47.19097809557481
 21
31.57400127762686
 31
0.0
  0
LINE
  5
390
330
1E
100
AcDbEntity
  8
OBJECT
100
AcDbLine
 10
47.30558607336103
 20
32.61016705137608
 30
0.0
 11
47.02564807140374
 21
31.75156218573315
 31
0.0
  0
LINE
  5
391
330
1E
100
AcDbEntity
  8
OBJECT
100
AcDbLine
 10
47.02564807140374
 20
31.75156218573315
 30
0.0
 11
46.88832518640102
 21
31.6801790477747
 31
0.0
  0
ARC
  5
392
330
1E
100
AcDbEntity
  8
OBJECT
100
AcDbCircle
 10
47.3297136488406
 20
32.59511487762249
 30
0.0
 40
0.0284377888245715
100
AcDbArc
 50
343.0362544530527
 51
148.0417053691257
  0
CIRCLE
  5
393
330
1E
100
AcDbEntity
  8
OBJECT
100
AcDbCircle
 10
23.75994172417518
 20
10.84391198479459
 30
0.0
 40
0.083
  0
CIRCLE
  5
394
330
1E
100
AcDbEntity
  8
OBJECT
100
AcDbCircle
 10
23.75994172417518
 20
10.84391198479459
 30
0.0
 40
0.238
  0
CIRCLE
  5
395
330
1E
100
AcDbEntity
  8
OBJECT
100
AcDbCircle
 10
22.77394172417518
 20
10.84391198479459
 30
0.0
 40
0.083
  0
CIRCLE
  5
396
330
1E
100
AcDbEntity
  8
OBJECT
100
AcDbCircle
 10
22.77394172417518
 20
10.84391198479459
 30
0.0
 40
0.238
  0
CIRCLE
  5
397
330
1E
100
AcDbEntity
  8
OBJECT
100
AcDbCircle
 10
21.78794172417518
 20
10.84391198479459
 30
0.0
 40
0.083
  0
CIRCLE
  5
398
330
1E
100
AcDbEntity
  8
OBJECT
100
AcDbCircle
 10
21.78794172417518
 20
10.84391198479459
 30
0.0
 40
0.238
  0
CIRCLE
  5
399
330
1E
100
AcDbEntity
  8
OBJECT
100
AcDbCircle
 10
26.71794172417518
 20
10.84391198479459
 30
0.0
 40
0.238
  0
CIRCLE
  5
39A
330
1E
100
AcDbEntity
  8
OBJECT
100
AcDbCircle
 10
26.71794172417518
 20
10.84391198479459
 30
0.0
 40
0.083
  0
CIRCLE
  5
39B
330
1E
100
AcDbEntity
  8
OBJECT
100
AcDbCircle
 10
27.70394172417518
 20
10.84391198479459
 30
0.0
 40
0.238
  0
CIRCLE
  5
39C
330
1E
100
AcDbEntity
  8
OBJECT
100
AcDbCircle
 10
27.70394172417518
 20
10.84391198479459
 30
0.0
 40
0.083
  0
CIRCLE
  5
39D
330
1E
100
AcDbEntity
  8
OBJECT
100
AcDbCircle
 10
28.68994172417518
 20
10.84391198479459
 30
0.0
 40
0.238
  0
CIRCLE
  5
39E
330
1E
100
AcDbEntity
  8
OBJECT
100
AcDbCircle
 10
28.68994172417518
 20
10.84391198479459
 30
0.0
 40
0.083
  0
CIRCLE
  5
39F
330
1E
100
AcDbEntity
  8
OBJECT
100
AcDbCircle
 10
20.57144172417519
 20
12.0624119847946
 30
0.0
 40
0.238
  0
CIRCLE
  5
3A0
330
1E
100
AcDbEntity
  8
OBJECT
100
AcDbCircle
 10
20.57144172417519
 20
12.0624119847946
 30
0.0
 40
0.083
  0
CIRCLE
  5
3A1
330
1E
100
AcDbEntity
  8
OBJECT
100
AcDbCircle
 10
20.57144172417519
 20
14.0344119847946
 30
0.0
 40
0.238
  0
CIRCLE
  5
3A2
330
1E
100
AcDbEntity
  8
OBJECT
100
AcDbCircle
 10
20.57144172417519
 20
13.0484119847946
 30
0.0
 40
0.238
  0
CIRCLE
  5
3A3
330
1E
100
AcDbEntity
  8
OBJECT
100
AcDbCircle
 10
20.57144172417519
 20
13.0484119847946
 30
0.0
 40
0.083
  0
CIRCLE
  5
3A4
330
1E
100
AcDbEntity
  8
OBJECT
100
AcDbCircle
 10
20.57144172417519
 20
14.0344119847946
 30
0.0
 40
0.083
  0
CIRCLE
  5
3A5
330
1E
100
AcDbEntity
  8
OBJECT
100
AcDbCircle
 10
20.57144172417519
 20
15.0204119847946
 30
0.0
 40
0.083
  0
CIRCLE
  5
3A6
330
1E
100
AcDbEntity
  8
OBJECT
100
AcDbCircle
 10
20.57144172417519
 20
15.0204119847946
 30
0.0
 40
0.238
  0
CIRCLE
  5
3A7
330
1E
100
AcDbEntity
  8
OBJECT
100
AcDbCircle
 10
20.57144172417519
 20
16.0064119847946
 30
0.0
 40
0.238
  0
CIRCLE
  5
3A8
330
1E
100
AcDbEntity
  8
OBJECT
100
AcDbCircle
 10
20.57144172417519
 20
16.0064119847946
 30
0.0
 40
0.083
  0
CIRCLE
  5
3A9
330
1E
100
AcDbEntity
  8
OBJECT
100
AcDbCircle
 10
29.90644172417519
 20
13.0484119847946
 30
0.0
 40
0.238
  0
CIRCLE
  5
3AA
330
1E
100
AcDbEntity
  8
OBJECT
100
AcDbCircle
 10
29.90644172417519
 20
13.0484119847946
 30
0.0
 40
0.083
  0
CIRCLE
  5
3AB
330
1E
100
AcDbEntity
  8
OBJECT
100
AcDbCircle
 10
29.90644172417519
 20
12.0624119847946
 30
0.0
 40
0.083
  0
CIRCLE
  5
3AC
330
1E
100
AcDbEntity
  8
OBJECT
100
AcDbCircle
 10
29.90644172417519
 20
12.0624119847946
 30
0.0
 40
0.238
  0
CIRCLE
  5
3AD
330
1E
100
AcDbEntity
  8
OBJECT
100
AcDbCircle
 10
29.90644172417519
 20
15.0204119847946
 30
0.0
 40
0.238
  0
CIRCLE
  5
3AE
330
1E
100
AcDbEntity
  8
OBJECT
100
AcDbCircle
 10
29.90644172417519
 20
15.0204119847946
 30
0.0
 40
0.083
  0
CIRCLE
  5
3AF
330
1E
100
AcDbEntity
  8
OBJECT
100
AcDbCircle
 10
29.90644172417519
 20
14.0344119847946
 30
0.0
 40
0.238
  0
CIRCLE
  5
3B0
330
1E
100
AcDbEntity
  8
OBJECT
100
AcDbCircle
 10
29.90644172417519
 20
14.0344119847946
 30
0.0
 40
0.083
  0
CIRCLE
  5
3B1
330
1E
100
AcDbEntity
  8
OBJECT
100
AcDbCircle
 10
29.90644172417519
 20
16.0064119847946
 30
0.0
 40
0.238
  0
CIRCLE
  5
3B2
330
1E
100
AcDbEntity
  8
OBJECT
100
AcDbCircle
 10
29.90644172417519
 20
16.0064119847946
 30
0.0
 40
0.083
  0
CIRCLE
  5
3B3
330
1E
100
AcDbEntity
  8
HIDDEN
100
AcDbCircle
 10
20.7544417241752
 20
11.07591198479459
 30
0.0
 40
0.095
  0
CIRCLE
  5
3B4
330
1E
100
AcDbEntity
  8
OBJECT
100
AcDbCircle
 10
20.7544417241752
 20
11.07591198479459
 30
0.0
 40
0.0825
  0
CIRCLE
  5
3B7
330
1E
100
AcDbEntity
  8
OBJECT
100
AcDbCircle
 10
29.72344172417517
 20
11.07591198479459
 30
0.0
 40
0.3625
  0
CIRCLE
  5
3B8
330
1E
100
AcDbEntity
  8
OBJECT
100
AcDbCircle
 10
29.72344172417517
 20
11.07591198479459
 30
0.0
 40
0.0825
  0
CIRCLE
  5
3B9
330
1E
100
AcDbEntity
  8
HIDDEN
100
AcDbCircle
 10
29.72344172417517
 20
11.07591198479459
 30
0.0
 40
0.095
  0
ARC
  5
3BC
330
1E
100
AcDbEntity
  8
OBJECT
100
AcDbCircle
 10
30.45094172417519
 20
10.39291198479459
 30
0.0
 40
0.2875
100
AcDbArc
 50
35.17550049714729
 51
324.8244995028527
  0
LINE
  5
3BD
330
1E
100
AcDbEntity
  8
OBJECT
100
AcDbLine
 10
31.07238660717534
 20
22.06228600979469
 30
0.0
 11
31.07238660717534
 21
23.0465379597945
 31
0.0
  0
CIRCLE
  5
3BE
330
1E
100
AcDbEntity
  8
OBJECT
100
AcDbCircle
 10
20.7544417241752
 20
23.8769119847946
 30
0.0
 40
0.3625
  0
ARC
  5
3C1
330
1E
100
AcDbEntity
  8
OBJECT
100
AcDbCircle
 10
20.02694172417518
 20
24.5599119847946
 30
0.0
 40
0.2875
100
AcDbArc
 50
215.1755004971476
 51
144.8244995028524
  0
CIRCLE
  5
3C2
330
1E
100
AcDbEntity
  8
OBJECT
100
AcDbCircle
 10
20.7544417241752
 20
23.8769119847946
 30
0.0
 40
0.0825
  0
CIRCLE
  5
3C3
330
1E
100
AcDbEntity
  8
HIDDEN
100
AcDbCircle
 10
20.7544417241752
 20
23.8769119847946
 30
0.0
 40
0.095
  0
CIRCLE
  5
3C4
330
1E
100
AcDbEntity
  8
OBJECT
100
AcDbCircle
 10
21.78794172417518
 20
24.1089119847946
 30
0.0
 40
0.083
  0
CIRCLE
  5
3C5
330
1E
100
AcDbEntity
  8
OBJECT
100
AcDbCircle
 10
21.78794172417518
 20
24.1089119847946
 30
0.0
 40
0.238
  0
CIRCLE
  5
3C6
330
1E
100
AcDbEntity
  8
OBJECT
100
AcDbCircle
 10
23.75994172417518
 20
24.1089119847946
 30
0.0
 40
0.238
  0
CIRCLE
  5
3C7
330
1E
100
AcDbEntity
  8
OBJECT
100
AcDbCircle
 10
22.77394172417518
 20
24.1089119847946
 30
0.0
 40
0.238
  0
CIRCLE
  5
3C8
330
1E
100
AcDbEntity
  8
OBJECT
100
AcDbCircle
 10
22.77394172417518
 20
24.1089119847946
 30
0.0
 40
0.083
  0
CIRCLE
  5
3C9
330
1E
100
AcDbEntity
  8
OBJECT
100
AcDbCircle
 10
23.75994172417518
 20
24.1089119847946
 30
0.0
 40
0.083
  0
CIRCLE
  5
3CA
330
1E
100
AcDbEntity
  8
OBJECT
100
AcDbCircle
 10
24.74594172417518
 20
24.1089119847946
 30
0.0
 40
0.238
  0
CIRCLE
  5
3CB
330
1E
100
AcDbEntity
  8
OBJECT
100
AcDbCircle
 10
24.74594172417518
 20
24.1089119847946
 30
0.0
 40
0.083
  0
CIRCLE
  5
3CC
330
1E
100
AcDbEntity
  8
OBJECT
100
AcDbCircle
 10
26.71794172417518
 20
24.1089119847946
 30
0.0
 40
0.238
  0
CIRCLE
  5
3CD
330
1E
100
AcDbEntity
  8
OBJECT
100
AcDbCircle
 10
26.71794172417518
 20
24.1089119847946
 30
0.0
 40
0.083
  0
CIRCLE
  5
3CE
330
1E
100
AcDbEntity
  8
OBJECT
100
AcDbCircle
 10
25.73194172417518
 20
24.1089119847946
 30
0.0
 40
0.238
  0
CIRCLE
  5
3CF
330
1E
100
AcDbEntity
  8
OBJECT
100
AcDbCircle
 10
25.73194172417518
 20
24.1089119847946
 30
0.0
 40
0.083
  0
CIRCLE
  5
3D0
330
1E
100
AcDbEntity
  8
OBJECT
100
AcDbCircle
 10
27.70394172417518
 20
24.1089119847946
 30
0.0
 40
0.238
  0
CIRCLE
  5
3D1
330
1E
100
AcDbEntity
  8
OBJECT
100
AcDbCircle
 10
27.70394172417518
 20
24.1089119847946
 30
0.0
 40
0.083
  0
CIRCLE
  5
3D2
330
1E
100
AcDbEntity
  8
HIDDEN
100
AcDbCircle
 10
29.72344172417517
 20
23.8769119847946
 30
0.0
 40
0.095
  0
CIRCLE
  5
3D3
330
1E
100
AcDbEntity
  8
OBJECT
100
AcDbCircle
 10
29.72344172417517
 20
23.8769119847946
 30
0.0
 40
0.0825
  0
CIRCLE
  5
3D4
330
1E
100
AcDbEntity
  8
OBJECT
100
AcDbCircle
 10
29.72344172417517
 20
23.8769119847946
 30
0.0
 40
0.3625
  0
CIRCLE
  5
3D5
330
1E
100
AcDbEntity
  8
OBJECT
100
AcDbCircle
 10
28.68994172417518
 20
24.1089119847946
 30
0.0
 40
0.238
  0
CIRCLE
  5
3D6
330
1E
100
AcDbEntity
  8
OBJECT
100
AcDbCircle
 10
28.68994172417518
 20
24.1089119847946
 30
0.0
 40
0.083
  0
ARC
  5
3D7
330
1E
100
AcDbEntity
  8
OBJECT
100
AcDbCircle
 10
30.45094172417519
 20
24.5599119847946
 30
0.0
 40
0.2875
100
AcDbArc
 50
35.17550049714758
 51
324.8244995028524
  0
LINE
  5
3DA
330
1E
100
AcDbEntity
  8
OBJECT
100
AcDbLine
 10
31.07238660717534
 20
23.0465379597945
 30
0.0
 11
31.10244172417518
 21
23.0465379597945
 31
0.0
  0
CIRCLE
  5
3DB
330
1E
100
AcDbEntity
  8
OBJECT
100
AcDbCircle
 10
20.57144172417519
 20
21.9044119847946
 30
0.0
 40
0.238
  0
CIRCLE
  5
3DC
330
1E
100
AcDbEntity
  8
OBJECT
100
AcDbCircle
 10
20.57144172417519
 20
21.9044119847946
 30
0.0
 40
0.083
  0
CIRCLE
  5
3DD
330
1E
100
AcDbEntity
  8
OBJECT
100
AcDbCircle
 10
20.57144172417519
 20
22.8904119847946
 30
0.0
 40
0.083
  0
CIRCLE
  5
3DE
330
1E
100
AcDbEntity
  8
OBJECT
100
AcDbCircle
 10
20.57144172417519
 20
22.8904119847946
 30
0.0
 40
0.238
  0
CIRCLE
  5
3DF
330
1E
100
AcDbEntity
  8
OBJECT
100
AcDbCircle
 10
20.57144172417519
 20
19.9324119847946
 30
0.0
 40
0.238
  0
CIRCLE
  5
3E0
330
1E
100
AcDbEntity
  8
OBJECT
100
AcDbCircle
 10
20.57144172417519
 20
19.9324119847946
 30
0.0
 40
0.083
  0
CIRCLE
  5
3E1
330
1E
100
AcDbEntity
  8
OBJECT
100
AcDbCircle
 10
20.57144172417519
 20
20.9184119847946
 30
0.0
 40
0.238
  0
CIRCLE
  5
3E2
330
1E
100
AcDbEntity
  8
OBJECT
100
AcDbCircle
 10
20.57144172417519
 20
20.9184119847946
 30
0.0
 40
0.083
  0
CIRCLE
  5
3E3
330
1E
100
AcDbEntity
  8
OBJECT
100
AcDbCircle
 10
20.57144172417519
 20
18.94641198479459
 30
0.0
 40
0.238
  0
CIRCLE
  5
3E4
330
1E
100
AcDbEntity
  8
OBJECT
100
AcDbCircle
 10
20.57144172417519
 20
18.94641198479459
 30
0.0
 40
0.083
  0
LINE
  5
3E5
330
1E
100
AcDbEntity
  8
OBJECT
100
AcDbLine
 10
19.79194172417521
 20
18.26381354479463
 30
0.0
 11
30.68594172417518
 21
18.26381354479463
 31
0.0
  0
CIRCLE
  5
3E6
330
1E
100
AcDbEntity
  8
OBJECT
100
AcDbCircle
 10
29.90644172417519
 20
22.8904119847946
 30
0.0
 40
0.238
  0
CIRCLE
  5
3E7
330
1E
100
AcDbEntity
  8
OBJECT
100
AcDbCircle
 10
29.90644172417519
 20
21.9044119847946
 30
0.0
 40
0.238
  0
CIRCLE
  5
3E8
330
1E
100
AcDbEntity
  8
OBJECT
100
AcDbCircle
 10
29.90644172417519
 20
22.8904119847946
 30
0.0
 40
0.083
  0
LINE
  5
3E9
330
1E
100
AcDbEntity
  8
OBJECT
100
AcDbLine
 10
31.07238660717534
 20
22.06228600979469
 30
0.0
 11
31.10244172417518
 21
22.06228600979469
 31
0.0
  0
CIRCLE
  5
3EA
330
1E
100
AcDbEntity
  8
OBJECT
100
AcDbCircle
 10
29.90644172417519
 20
21.9044119847946
 30
0.0
 40
0.083
  0
CIRCLE
  5
3EB
330
1E
100
AcDbEntity
  8
OBJECT
100
AcDbCircle
 10
29.90644172417519
 20
20.9184119847946
 30
0.0
 40
0.238
  0
CIRCLE
  5
3EC
330
1E
100
AcDbEntity
  8
OBJECT
100
AcDbCircle
 10
29.90644172417519
 20
19.9324119847946
 30
0.0
 40
0.238
  0
CIRCLE
  5
3ED
330
1E
100
AcDbEntity
  8
OBJECT
100
AcDbCircle
 10
29.90644172417519
 20
20.9184119847946
 30
0.0
 40
0.083
  0
CIRCLE
  5
3EE
330
1E
100
AcDbEntity
  8
OBJECT
100
AcDbCircle
 10
29.90644172417519
 20
19.9324119847946
 30
0.0
 40
0.083
  0
CIRCLE
  5
3EF
330
1E
100
AcDbEntity
  8
OBJECT
100
AcDbCircle
 10
29.90644172417519
 20
18.94641198479459
 30
0.0
 40
0.238
  0
CIRCLE
  5
3F0
330
1E
100
AcDbEntity
  8
OBJECT
100
AcDbCircle
 10
29.90644172417519
 20
18.94641198479459
 30
0.0
 40
0.083
  0
LINE
  5
3F1
330
1E
100
AcDbEntity
  8
OBJECT
100
AcDbLine
 10
19.80844172417518
 20
9.636411984794602
 30
0.0
 11
30.66944172417518
 21
9.636411984794602
 31
0.0
  0
LINE
  5
3F2
330
1E
100
AcDbEntity
  8
OBJECT
100
AcDbLine
 10
19.80844172417518
 20
25.3164119847946
 30
0.0
 11
30.66944172417518
 21
25.3164119847946
 31
0.0
  0
LINE
  5
3F3
330
1E
100
AcDbEntity
  8
OBJECT
100
AcDbLine
 10
19.37544172417518
 20
24.8834119847946
 30
0.0
 11
19.37544172417518
 21
24.48310961459811
 31
0.0
  0
LINE
  5
3F4
330
1E
100
AcDbEntity
  8
OBJECT
100
AcDbLine
 10
31.10244172417518
 20
24.88341198479461
 30
0.0
 11
31.10244172417518
 21
23.0465379597945
 31
0.0
  0
ARC
  5
3F5
330
1E
100
AcDbEntity
  8
OBJECT
100
AcDbCircle
 10
19.80844172417518
 20
24.8834119847946
 30
0.0
 40
0.433
100
AcDbArc
 50
90.0
 51
180.0
  0
ARC
  5
3F6
330
1E
100
AcDbEntity
  8
OBJECT
100
AcDbCircle
 10
30.66944172417518
 20
24.88341198479461
 30
0.0
 40
0.433
100
AcDbArc
 50
0.0
 51
90.0
  0
ARC
  5
3F7
330
1E
100
AcDbEntity
  8
OBJECT
100
AcDbCircle
 10
19.80844172417518
 20
10.0694119847946
 30
0.0
 40
0.433
100
AcDbArc
 50
180.0
 51
270.0
  0
ARC
  5
3F8
330
1E
100
AcDbEntity
  8
OBJECT
100
AcDbCircle
 10
30.66944172417518
 20
10.0694119847946
 30
0.0
 40
0.433
100
AcDbArc
 50
270.0
 51
0.0
  0
LINE
  5
3F9
330
1E
100
AcDbEntity
  8
OBJECT
100
AcDbLine
 10
19.37544172417518
 20
10.46971435499183
 30
0.0
 11
19.37544172417518
 21
10.0694119847946
 31
0.0
  0
LINE
  5
3FA
330
1E
100
AcDbEntity
  8
OBJECT
100
AcDbLine
 10
19.37544172417518
 20
22.21971435499183
 30
0.0
 11
19.37544172417518
 21
18.60810961459765
 31
0.0
  0
LINE
  5
3FB
330
1E
100
AcDbEntity
  8
OBJECT
100
AcDbLine
 10
31.10244172417518
 20
22.06228600979469
 30
0.0
 11
31.10244172417518
 21
15.0008010707948
 31
0.0
  0
LINE
  5
3FC
330
1E
100
AcDbEntity
  8
OBJECT
100
AcDbLine
 10
31.10244172417519
 20
11.90628600979469
 30
0.0
 11
31.10244172417518
 21
10.0694119847946
 31
0.0
  0
LINE
  5
3FD
330
1E
100
AcDbEntity
  8
OBJECT
100
AcDbLine
 10
31.10244172417518
 20
13.77202289879439
 30
0.0
 11
31.10244172417519
 21
12.89053795979451
 31
0.0
  0
LINE
  5
3FE
330
1E
100
AcDbEntity
  8
OBJECT
100
AcDbLine
 10
47.46700950592359
 20
31.25090346277457
 30
0.0
 11
47.46700950592359
 21
31.51890346277457
 31
0.0
  0
LINE
  5
3FF
330
1E
100
AcDbEntity
  8
OBJECT
100
AcDbLine
 10
35.30650950592361
 20
31.38490346277457
 30
0.0
 11
47.46700950592359
 21
31.38490346277457
 31
0.0
  0
LINE
  5
400
330
1E
100
AcDbEntity
  8
OBJECT
100
AcDbLine
 10
47.19097809557481
 20
31.51890346277457
 30
0.0
 11
47.46700950592359
 21
31.51890346277457
 31
0.0
  0
LINE
  5
401
330
1E
100
AcDbEntity
  8
OBJECT
100
AcDbLine
 10
47.22557546807893
 20
31.25090346277457
 30
0.0
 11
47.46700950592359
 21
31.25090346277457
 31
0.0
  0
LINE
  5
402
330
1E
100
AcDbEntity
  8
OBJECT
100
AcDbLine
 10
19.37544172417518
 20
16.34471435499154
 30
0.0
 11
19.37544172417518
 21
12.73310961459811
 31
0.0
  0
LWPOLYLINE
  5
403
330
1E
100
AcDbEntity
  8
OBJECT
100
AcDbPolyline
 90
        4
 70
     0
 43
0.0
 10
24.9830362171751
 20
24.9149119847946
 10
24.92398110017526
 20
24.97396710179444
 10
25.5539023481751
 20
24.97396710179444
 10
25.49484723117526
 20
24.9149119847946
  0
LWPOLYLINE
  5
409
330
1E
100
AcDbEntity
  8
OBJECT
100
AcDbPolyline
 90
        4
 70
     0
 43
0.0
 10
24.9830362171751
 20
10.0379119847946
 10
24.92398110017526
 20
9.978856867794757
 10
25.5539023481751
 20
9.978856867794757
 10
25.49484723117526
 20
10.0379119847946
  0
LWPOLYLINE
  5
40F
330
1E
100
AcDbEntity
  8
OBJECT
100
AcDbPolyline
 90
        8
 70
     1
 43
0.0
 10
30.68594172417514
 20
10.0772820627951
 42
-0.4142135623730951
 10
30.64657164617514
 20
10.0379119847946
 10
19.83131180217523
 20
10.0379119847946
 42
-0.4142135623730951
 10
19.79194172417523
 20
10.0772820627951
 10
19.79194172417519
 20
24.8755419067941
 42
-0.4142135623730951
 10
19.83131180217523
 20
24.9149119847941
 10
30.64657164617514
 20
24.9149119847946
 42
-0.4142135623730951
 10
30.68594172417514
 20
24.8755419067941
  0
LWPOLYLINE
  5
419
330
1E
100
AcDbEntity
  8
OBJECT
100
AcDbPolyline
 90
        4
 70
     0
 43
0.0
 10
30.68594172417514
 20
11.34550647779452
 10
30.74499684117498
 20
11.28645136079468
 10
30.74499684117498
 20
11.91637260879452
 10
30.68594172417514
 20
11.85731749179468
  0
LWPOLYLINE
  5
41F
330
1E
100
AcDbEntity
  8
OBJECT
100
AcDbPolyline
 90
        4
 70
     0
 43
0.0
 10
30.68594172417514
 20
23.09550647779452
 10
30.74499684117498
 20
23.03645136079467
 10
30.74499684117498
 20
23.66637260879452
 10
30.68594172417514
 20
23.60731749179467
  0
LWPOLYLINE
  5
425
330
1E
100
AcDbEntity
  8
OBJECT
100
AcDbPolyline
 90
        4
 70
     0
 43
0.0
 10
19.79194172417522
 20
23.09550647779452
 10
19.73288660717538
 20
23.03645136079467
 10
19.73288660717538
 20
23.66637260879452
 10
19.79194172417522
 20
23.60731749179467
  0
LWPOLYLINE
  5
42B
330
1E
100
AcDbEntity
  8
OBJECT
100
AcDbPolyline
 90
        4
 70
     0
 43
0.0
 10
19.79194172417522
 20
11.34550647779452
 10
19.73288660717538
 20
11.28645136079468
 10
19.73288660717538
 20
11.91637260879452
 10
19.79194172417522
 20
11.85731749179468
  0
LWPOLYLINE
  5
431
330
1E
100
AcDbEntity
  8
OBJECT
100
AcDbPolyline
 90
        8
 70
     1
 43
0.0
 10
30.84294172417514
 20
10.07728206279484
 42
-0.4142135623730978
 10
30.64657164617489
 20
9.880911984794597
 10
19.83131180217548
 20
9.880911984794597
 42
-0.4142135623730925
 10
19.63494172417523
 20
10.07728206279484
 10
19.63494172417518
 20
24.87554190679408
 42
-0.4142135623730792
 10
19.8313118021752
 20
25.0719119847941
 10
30.64657164617488
 20
25.07191198479461
 42
-0.414213562373111
 10
30.84294172417514
 20
24.87554190679435
  0
LWPOLYLINE
  5
43B
330
1E
100
AcDbEntity
  8
OBJECT
100
AcDbPolyline
 90
        8
 70
     1
 43
0.0
 10
30.95294172417514
 20
10.07728206279484
 42
-0.4142135623730957
 10
30.64657164617489
 20
9.770911984794597
 10
19.83131180217548
 20
9.770911984794597
 42
-0.4142135623730932
 10
19.52494172417523
 20
10.07728206279484
 10
19.52494172417518
 20
24.87554190679408
 42
-0.4142135623730787
 10
19.83131180217519
 20
25.1819119847941
 10
30.64657164617488
 20
25.1819119847946
 42
-0.4142135623731076
 10
30.95294172417514
 20
24.87554190679435
  0
LINE
  5
445
330
1E
100
AcDbEntity
  8
OBJECT
100
AcDbLine
 10
20.52844172417518
 20
22.65632866629454
 30
0.0
 11
20.52844172417518
 21
22.13849530329465
 31
0.0
  0
LINE
  5
446
330
1E
100
AcDbEntity
  8
OBJECT
100
AcDbLine
 10
20.61444172417518
 20
22.65632866629454
 30
0.0
 11
20.61444172417518
 21
22.13849530329465
 31
0.0
  0
LINE
  5
447
330
1E
100
AcDbEntity
  8
OBJECT
100
AcDbLine
 10
20.61444172417518
 20
21.67032866629454
 30
0.0
 11
20.61444172417518
 21
21.15249530329465
 31
0.0
  0
LINE
  5
448
330
1E
100
AcDbEntity
  8
OBJECT
100
AcDbLine
 10
20.52844172417518
 20
21.67032866629454
 30
0.0
 11
20.52844172417518
 21
21.15249530329465
 31
0.0
  0
LINE
  5
449
330
1E
100
AcDbEntity
  8
OBJECT
100
AcDbLine
 10
20.61444172417518
 20
20.68432866629454
 30
0.0
 11
20.61444172417518
 21
20.16649530329466
 31
0.0
  0
LINE
  5
44A
330
1E
100
AcDbEntity
  8
OBJECT
100
AcDbLine
 10
20.52844172417518
 20
20.68432866629454
 30
0.0
 11
20.52844172417518
 21
20.16649530329466
 31
0.0
  0
LINE
  5
44B
330
1E
100
AcDbEntity
  8
OBJECT
100
AcDbLine
 10
20.61444172417518
 20
19.69832866629453
 30
0.0
 11
20.61444172417518
 21
19.18049530329465
 31
0.0
  0
LINE
  5
44C
330
1E
100
AcDbEntity
  8
OBJECT
100
AcDbLine
 10
20.52844172417518
 20
19.69832866629453
 30
0.0
 11
20.52844172417518
 21
19.18049530329465
 31
0.0
  0
LINE
  5
44D
330
1E
100
AcDbEntity
  8
OBJECT
100
AcDbLine
 10
28.45585840567512
 20
24.1519119847946
 30
0.0
 11
27.93802504267524
 21
24.1519119847946
 31
0.0
  0
LINE
  5
44E
330
1E
100
AcDbEntity
  8
OBJECT
100
AcDbLine
 10
28.45585840567512
 20
24.06591198479461
 30
0.0
 11
27.93802504267524
 21
24.06591198479461
 31
0.0
  0
LINE
  5
44F
330
1E
100
AcDbEntity
  8
OBJECT
100
AcDbLine
 10
21.11473854564429
 20
23.8370064658872
 30
0.0
 11
21.57979686223362
 21
23.99350090886457
 31
0.0
  0
LINE
  5
450
330
1E
100
AcDbEntity
  8
OBJECT
100
AcDbLine
 10
21.11342233967083
 20
23.92730213957086
 30
0.0
 11
21.5523687187755
 21
24.07500978535321
 31
0.0
  0
LINE
  5
451
330
1E
100
AcDbEntity
  8
OBJECT
100
AcDbLine
 10
23.52585840567513
 20
24.1519119847946
 30
0.0
 11
23.00802504267523
 21
24.1519119847946
 31
0.0
  0
LINE
  5
452
330
1E
100
AcDbEntity
  8
OBJECT
100
AcDbLine
 10
23.52585840567513
 20
24.06591198479461
 30
0.0
 11
23.00802504267523
 21
24.06591198479461
 31
0.0
  0
LINE
  5
453
330
1E
100
AcDbEntity
  8
OBJECT
100
AcDbLine
 10
24.51185840567512
 20
24.1519119847946
 30
0.0
 11
23.99402504267523
 21
24.1519119847946
 31
0.0
  0
LINE
  5
454
330
1E
100
AcDbEntity
  8
OBJECT
100
AcDbLine
 10
24.51185840567512
 20
24.06591198479461
 30
0.0
 11
23.99402504267523
 21
24.06591198479461
 31
0.0
  0
LINE
  5
455
330
1E
100
AcDbEntity
  8
OBJECT
100
AcDbLine
 10
25.49785840567512
 20
24.1519119847946
 30
0.0
 11
24.98002504267524
 21
24.1519119847946
 31
0.0
  0
LINE
  5
456
330
1E
100
AcDbEntity
  8
OBJECT
100
AcDbLine
 10
25.49785840567512
 20
24.06591198479461
 30
0.0
 11
24.98002504267524
 21
24.06591198479461
 31
0.0
  0
LINE
  5
457
330
1E
100
AcDbEntity
  8
OBJECT
100
AcDbLine
 10
26.48385840567513
 20
24.1519119847946
 30
0.0
 11
25.96602504267524
 21
24.1519119847946
 31
0.0
  0
LINE
  5
458
330
1E
100
AcDbEntity
  8
OBJECT
100
AcDbLine
 10
26.48385840567513
 20
24.06591198479461
 30
0.0
 11
25.96602504267524
 21
24.06591198479461
 31
0.0
  0
LINE
  5
459
330
1E
100
AcDbEntity
  8
OBJECT
100
AcDbLine
 10
27.46985840567513
 20
24.1519119847946
 30
0.0
 11
26.95202504267523
 21
24.1519119847946
 31
0.0
  0
LINE
  5
45A
330
1E
100
AcDbEntity
  8
OBJECT
100
AcDbLine
 10
27.46985840567513
 20
24.06591198479461
 30
0.0
 11
26.95202504267523
 21
24.06591198479461
 31
0.0
  0
LINE
  5
45B
330
1E
100
AcDbEntity
  8
OBJECT
100
AcDbLine
 10
22.53985840567512
 20
24.06591198479461
 30
0.0
 11
22.02202504267533
 21
24.06591198479461
 31
0.0
  0
LINE
  5
45C
330
1E
100
AcDbEntity
  8
OBJECT
100
AcDbLine
 10
22.53985840567512
 20
24.1519119847946
 30
0.0
 11
22.02202504267533
 21
24.1519119847946
 31
0.0
  0
LINE
  5
45D
330
1E
100
AcDbEntity
  8
OBJECT
100
AcDbLine
 10
20.82942856023027
 20
23.52225267726348
 30
0.0
 11
20.68685280010521
 21
23.09855684673617
 31
0.0
  0
LINE
  5
45E
330
1E
100
AcDbEntity
  8
OBJECT
100
AcDbLine
 10
20.73620598996919
 20
23.51487095397355
 30
0.0
 11
20.60534392361657
 21
23.12598499019427
 31
0.0
  0
LINE
  5
45F
330
1E
100
AcDbEntity
  8
OBJECT
100
AcDbLine
 10
29.94944172417518
 20
19.69832866629453
 30
0.0
 11
29.94944172417518
 21
19.18049530329465
 31
0.0
  0
LINE
  5
460
330
1E
100
AcDbEntity
  8
OBJECT
100
AcDbLine
 10
29.86344172417518
 20
19.69832866629453
 30
0.0
 11
29.86344172417518
 21
19.18049530329465
 31
0.0
  0
LINE
  5
461
330
1E
100
AcDbEntity
  8
OBJECT
100
AcDbLine
 10
29.94944172417518
 20
20.68432866629454
 30
0.0
 11
29.94944172417518
 21
20.16649530329466
 31
0.0
  0
LINE
  5
462
330
1E
100
AcDbEntity
  8
OBJECT
100
AcDbLine
 10
29.86344172417518
 20
20.68432866629454
 30
0.0
 11
29.86344172417518
 21
20.16649530329466
 31
0.0
  0
LINE
  5
463
330
1E
100
AcDbEntity
  8
OBJECT
100
AcDbLine
 10
29.94944172417518
 20
21.67032866629454
 30
0.0
 11
29.94944172417518
 21
21.15249530329465
 31
0.0
  0
LINE
  5
464
330
1E
100
AcDbEntity
  8
OBJECT
100
AcDbLine
 10
29.86344172417518
 20
21.67032866629454
 30
0.0
 11
29.86344172417518
 21
21.15249530329465
 31
0.0
  0
LINE
  5
465
330
1E
100
AcDbEntity
  8
OBJECT
100
AcDbLine
 10
29.86344172417518
 20
22.65632866629454
 30
0.0
 11
29.86344172417518
 21
22.13849530329465
 31
0.0
  0
LINE
  5
466
330
1E
100
AcDbEntity
  8
OBJECT
100
AcDbLine
 10
29.94944172417518
 20
22.65632866629454
 30
0.0
 11
29.94944172417518
 21
22.13849530329465
 31
0.0
  0
LINE
  5
467
330
1E
100
AcDbEntity
  8
OBJECT
100
AcDbLine
 10
29.64845488812009
 20
23.52225267726348
 30
0.0
 11
29.79103064824515
 21
23.09855684673617
 31
0.0
  0
LINE
  5
468
330
1E
100
AcDbEntity
  8
OBJECT
100
AcDbLine
 10
29.74167745838117
 20
23.51487095397355
 30
0.0
 11
29.87253952473379
 21
23.12598499019427
 31
0.0
  0
LINE
  5
469
330
1E
100
AcDbEntity
  8
OBJECT
100
AcDbLine
 10
29.36446110867953
 20
23.92730213957086
 30
0.0
 11
28.92551472957486
 21
24.07500978535321
 31
0.0
  0
LINE
  5
46A
330
1E
100
AcDbEntity
  8
OBJECT
100
AcDbLine
 10
29.36314490270607
 20
23.8370064658872
 30
0.0
 11
28.89808658611674
 21
23.99350090886457
 31
0.0
  0
LINE
  5
46B
330
1E
100
AcDbEntity
  8
OBJECT
100
AcDbLine
 10
20.52844172417518
 20
15.25449530329465
 30
0.0
 11
20.52844172417518
 21
15.77232866629454
 31
0.0
  0
LINE
  5
46C
330
1E
100
AcDbEntity
  8
OBJECT
100
AcDbLine
 10
20.61444172417518
 20
15.25449530329465
 30
0.0
 11
20.61444172417518
 21
15.77232866629454
 31
0.0
  0
LINE
  5
46D
330
1E
100
AcDbEntity
  8
OBJECT
100
AcDbLine
 10
20.52844172417518
 20
14.26849530329466
 30
0.0
 11
20.52844172417518
 21
14.78632866629454
 31
0.0
  0
LINE
  5
46E
330
1E
100
AcDbEntity
  8
OBJECT
100
AcDbLine
 10
20.61444172417518
 20
14.26849530329466
 30
0.0
 11
20.61444172417518
 21
14.78632866629454
 31
0.0
  0
LINE
  5
46F
330
1E
100
AcDbEntity
  8
OBJECT
100
AcDbLine
 10
20.52844172417518
 20
13.28249530329465
 30
0.0
 11
20.52844172417518
 21
13.80032866629454
 31
0.0
  0
LINE
  5
470
330
1E
100
AcDbEntity
  8
OBJECT
100
AcDbLine
 10
20.61444172417518
 20
13.28249530329465
 30
0.0
 11
20.61444172417518
 21
13.80032866629454
 31
0.0
  0
LINE
  5
471
330
1E
100
AcDbEntity
  8
OBJECT
100
AcDbLine
 10
20.61444172417518
 20
12.29649530329465
 30
0.0
 11
20.61444172417518
 21
12.81432866629454
 31
0.0
  0
LINE
  5
472
330
1E
100
AcDbEntity
  8
OBJECT
100
AcDbLine
 10
20.52844172417518
 20
12.29649530329465
 30
0.0
 11
20.52844172417518
 21
12.81432866629454
 31
0.0
  0
LINE
  5
473
330
1E
100
AcDbEntity
  8
OBJECT
100
AcDbLine
 10
20.73620598996919
 20
11.43795301561565
 30
0.0
 11
20.60534392361657
 21
11.82683897939492
 31
0.0
  0
LINE
  5
474
330
1E
100
AcDbEntity
  8
OBJECT
100
AcDbLine
 10
20.82942856023027
 20
11.43057129232571
 30
0.0
 11
20.68685280010521
 21
11.85426712285303
 31
0.0
  0
LINE
  5
475
330
1E
100
AcDbEntity
  8
OBJECT
100
AcDbLine
 10
21.11342233967083
 20
11.02552183001833
 30
0.0
 11
21.5523687187755
 21
10.87781418423598
 31
0.0
  0
LINE
  5
476
330
1E
100
AcDbEntity
  8
OBJECT
100
AcDbLine
 10
21.11473854564429
 20
11.11581750370198
 30
0.0
 11
21.57979686223362
 21
10.95932306072462
 31
0.0
  0
LINE
  5
477
330
1E
100
AcDbEntity
  8
OBJECT
100
AcDbLine
 10
22.53985840567512
 20
10.80091198479459
 30
0.0
 11
22.02202504267533
 21
10.80091198479459
 31
0.0
  0
LINE
  5
478
330
1E
100
AcDbEntity
  8
OBJECT
100
AcDbLine
 10
22.53985840567512
 20
10.88691198479459
 30
0.0
 11
22.02202504267533
 21
10.88691198479459
 31
0.0
  0
LINE
  5
479
330
1E
100
AcDbEntity
  8
OBJECT
100
AcDbLine
 10
23.52585840567513
 20
10.88691198479459
 30
0.0
 11
23.00802504267523
 21
10.88691198479459
 31
0.0
  0
LINE
  5
47A
330
1E
100
AcDbEntity
  8
OBJECT
100
AcDbLine
 10
23.52585840567513
 20
10.80091198479459
 30
0.0
 11
23.00802504267523
 21
10.80091198479459
 31
0.0
  0
LINE
  5
47B
330
1E
100
AcDbEntity
  8
OBJECT
100
AcDbLine
 10
24.51185840567512
 20
10.88691198479459
 30
0.0
 11
23.99402504267523
 21
10.88691198479459
 31
0.0
  0
LINE
  5
47C
330
1E
100
AcDbEntity
  8
OBJECT
100
AcDbLine
 10
24.51185840567512
 20
10.80091198479459
 30
0.0
 11
23.99402504267523
 21
10.80091198479459
 31
0.0
  0
LINE
  5
47D
330
1E
100
AcDbEntity
  8
OBJECT
100
AcDbLine
 10
25.49785840567512
 20
10.88691198479459
 30
0.0
 11
24.98002504267524
 21
10.88691198479459
 31
0.0
  0
LINE
  5
47E
330
1E
100
AcDbEntity
  8
OBJECT
100
AcDbLine
 10
25.49785840567512
 20
10.80091198479459
 30
0.0
 11
24.98002504267524
 21
10.80091198479459
 31
0.0
  0
LINE
  5
47F
330
1E
100
AcDbEntity
  8
OBJECT
100
AcDbLine
 10
26.48385840567513
 20
10.88691198479459
 30
0.0
 11
25.96602504267524
 21
10.88691198479459
 31
0.0
  0
LINE
  5
480
330
1E
100
AcDbEntity
  8
OBJECT
100
AcDbLine
 10
26.48385840567513
 20
10.80091198479459
 30
0.0
 11
25.96602504267524
 21
10.80091198479459
 31
0.0
  0
LINE
  5
481
330
1E
100
AcDbEntity
  8
OBJECT
100
AcDbLine
 10
27.46985840567513
 20
10.88691198479459
 30
0.0
 11
26.95202504267523
 21
10.88691198479459
 31
0.0
  0
LINE
  5
482
330
1E
100
AcDbEntity
  8
OBJECT
100
AcDbLine
 10
27.46985840567513
 20
10.80091198479459
 30
0.0
 11
26.95202504267523
 21
10.80091198479459
 31
0.0
  0
LINE
  5
483
330
1E
100
AcDbEntity
  8
OBJECT
100
AcDbLine
 10
28.45585840567512
 20
10.88691198479459
 30
0.0
 11
27.93802504267524
 21
10.88691198479459
 31
0.0
  0
LINE
  5
484
330
1E
100
AcDbEntity
  8
OBJECT
100
AcDbLine
 10
28.45585840567512
 20
10.80091198479459
 30
0.0
 11
27.93802504267524
 21
10.80091198479459
 31
0.0
  0
LINE
  5
485
330
1E
100
AcDbEntity
  8
OBJECT
100
AcDbLine
 10
29.36314490270607
 20
11.11581750370198
 30
0.0
 11
28.89808658611674
 21
10.95932306072462
 31
0.0
  0
LINE
  5
486
330
1E
100
AcDbEntity
  8
OBJECT
100
AcDbLine
 10
29.36446110867953
 20
11.02552183001833
 30
0.0
 11
28.92551472957486
 21
10.87781418423598
 31
0.0
  0
LINE
  5
487
330
1E
100
AcDbEntity
  8
OBJECT
100
AcDbLine
 10
29.74167745838117
 20
11.43795301561565
 30
0.0
 11
29.87253952473379
 21
11.82683897939492
 31
0.0
  0
LINE
  5
488
330
1E
100
AcDbEntity
  8
OBJECT
100
AcDbLine
 10
29.64845488812009
 20
11.43057129232571
 30
0.0
 11
29.79103064824515
 21
11.85426712285303
 31
0.0
  0
LINE
  5
489
330
1E
100
AcDbEntity
  8
OBJECT
100
AcDbLine
 10
29.94944172417518
 20
12.29649530329465
 30
0.0
 11
29.94944172417518
 21
12.81432866629454
 31
0.0
  0
LINE
  5
48A
330
1E
100
AcDbEntity
  8
OBJECT
100
AcDbLine
 10
29.86344172417518
 20
12.29649530329465
 30
0.0
 11
29.86344172417518
 21
12.81432866629454
 31
0.0
  0
LINE
  5
48B
330
1E
100
AcDbEntity
  8
OBJECT
100
AcDbLine
 10
29.86344172417518
 20
13.28249530329465
 30
0.0
 11
29.86344172417518
 21
13.80032866629454
 31
0.0
  0
LINE
  5
48C
330
1E
100
AcDbEntity
  8
OBJECT
100
AcDbLine
 10
29.94944172417518
 20
13.28249530329465
 30
0.0
 11
29.94944172417518
 21
13.80032866629454
 31
0.0
  0
LINE
  5
48D
330
1E
100
AcDbEntity
  8
OBJECT
100
AcDbLine
 10
29.86344172417518
 20
14.26849530329466
 30
0.0
 11
29.86344172417518
 21
14.78632866629454
 31
0.0
  0
LINE
  5
48E
330
1E
100
AcDbEntity
  8
OBJECT
100
AcDbLine
 10
29.94944172417518
 20
14.26849530329466
 30
0.0
 11
29.94944172417518
 21
14.78632866629454
 31
0.0
  0
LINE
  5
48F
330
1E
100
AcDbEntity
  8
OBJECT
100
AcDbLine
 10
29.86344172417518
 20
15.25449530329465
 30
0.0
 11
29.86344172417518
 21
15.77232866629454
 31
0.0
  0
LINE
  5
490
330
1E
100
AcDbEntity
  8
OBJECT
100
AcDbLine
 10
29.94944172417518
 20
15.25449530329465
 30
0.0
 11
29.94944172417518
 21
15.77232866629454
 31
0.0
  0
LWPOLYLINE
  5
491
330
1E
100
AcDbEntity
  8
OBJECT
100
AcDbPolyline
 90
        4
 70
     0
 43
0.0
 10
31.10244172417518
 20
13.77202289879439
 42
-0.3106384182581576
 10
31.34322000202208
 20
14.12217933426611
 42
0.7051781285480231
 10
31.35991459416444
 20
14.64469382050153
 42
-0.3236437854432907
 10
31.10244172417518
 20
15.00080107079481
  0
CIRCLE
  5
497
330
1E
100
AcDbEntity
  8
OBJECT
100
AcDbCircle
 10
31.25844172417517
 20
14.3864119847946
 30
0.0
 40
0.12
  0
LINE
  5
498
330
1E
100
AcDbEntity
  8
OBJECT
100
AcDbLine
 10
19.5249417241752
 20
17.96853795979496
 30
0.0
 11
19.17859133417506
 21
17.96853795979496
 31
0.0
  0
ARC
  5
499
330
1E
100
AcDbEntity
  8
OBJECT
100
AcDbCircle
 10
18.90300078817518
 20
18.60810961459811
 30
0.0
 40
0.4724409359999989
100
AcDbArc
 50
305.6853347126336
 51
0.0
  0
LINE
  5
49A
330
1E
100
AcDbEntity
  8
OBJECT
100
AcDbLine
 10
19.17859133417506
 20
16.98428600979423
 30
0.0
 11
19.52494172417521
 21
16.98428600979422
 31
0.0
  0
ARC
  5
49B
330
1E
100
AcDbEntity
  8
OBJECT
100
AcDbCircle
 10
18.90300078817512
 20
16.34471435499183
 30
0.0
 40
0.4724409360001616
100
AcDbArc
 50
0.0000000000068937
 51
54.31466528737426
  0
LINE
  5
49C
330
1E
100
AcDbEntity
  8
OBJECT
100
AcDbLine
 10
19.24748897067503
 20
16.98428600979423
 30
0.0
 11
19.24748897067503
 21
17.96853795979496
 31
0.0
  0
LINE
  5
49D
330
1E
100
AcDbEntity
  8
OBJECT
100
AcDbLine
 10
19.17859133417504
 20
16.72844640859718
 30
0.0
 11
19.17859133417506
 21
16.98428600979423
 31
0.0
  0
LINE
  5
49E
330
1E
100
AcDbEntity
  8
OBJECT
100
AcDbLine
 10
19.17859133417506
 20
17.96853795979496
 30
0.0
 11
19.17859133417506
 21
18.22437756099293
 31
0.0
  0
LINE
  5
49F
330
1E
100
AcDbEntity
  8
OBJECT
100
AcDbLine
 10
19.38528424367496
 20
16.98428600979423
 30
0.0
 11
19.38528424367496
 21
17.96853795979496
 31
0.0
  0
ARC
  5
4A0
330
1E
100
AcDbEntity
  8
OBJECT
100
AcDbCircle
 10
18.90300078817518
 20
12.73310961459811
 30
0.0
 40
0.4724409359999989
100
AcDbArc
 50
305.6853347126336
 51
0.0
  0
LINE
  5
4A1
330
1E
100
AcDbEntity
  8
OBJECT
100
AcDbLine
 10
19.5249417241752
 20
12.09353795979496
 30
0.0
 11
19.17859133417506
 21
12.09353795979496
 31
0.0
  0
LINE
  5
4A2
330
1E
100
AcDbEntity
  8
OBJECT
100
AcDbLine
 10
19.17859133417506
 20
11.10928600979423
 30
0.0
 11
19.52494172417521
 21
11.10928600979422
 31
0.0
  0
LINE
  5
4A3
330
1E
100
AcDbEntity
  8
OBJECT
100
AcDbLine
 10
19.17859133417504
 20
10.85344640859718
 30
0.0
 11
19.17859133417506
 21
11.10928600979423
 31
0.0
  0
ARC
  5
4A4
330
1E
100
AcDbEntity
  8
OBJECT
100
AcDbCircle
 10
18.90300078817512
 20
10.46971435499183
 30
0.0
 40
0.4724409360001616
100
AcDbArc
 50
0.0
 51
54.31466528737426
  0
LINE
  5
4A5
330
1E
100
AcDbEntity
  8
OBJECT
100
AcDbLine
 10
19.17859133417506
 20
12.09353795979496
 30
0.0
 11
19.17859133417506
 21
12.34937756099293
 31
0.0
  0
LINE
  5
4A6
330
1E
100
AcDbEntity
  8
OBJECT
100
AcDbLine
 10
19.38528424367496
 20
11.10928600979423
 30
0.0
 11
19.38528424367496
 21
12.09353795979496
 31
0.0
  0
LINE
  5
4A7
330
1E
100
AcDbEntity
  8
OBJECT
100
AcDbLine
 10
19.24748897067503
 20
11.10928600979423
 30
0.0
 11
19.24748897067503
 21
12.09353795979496
 31
0.0
  0
ARC
  5
4A8
330
1E
100
AcDbEntity
  8
OBJECT
100
AcDbCircle
 10
18.90300078817518
 20
24.48310961459811
 30
0.0
 40
0.4724409359999989
100
AcDbArc
 50
305.6853347126336
 51
0.0
  0
LINE
  5
4A9
330
1E
100
AcDbEntity
  8
OBJECT
100
AcDbLine
 10
19.5249417241752
 20
23.84353795979495
 30
0.0
 11
19.17859133417506
 21
23.84353795979496
 31
0.0
  0
LINE
  5
4AA
330
1E
100
AcDbEntity
  8
OBJECT
100
AcDbLine
 10
19.17859133417506
 20
22.85928600979423
 30
0.0
 11
19.52494172417521
 21
22.85928600979422
 31
0.0
  0
LINE
  5
4AB
330
1E
100
AcDbEntity
  8
OBJECT
100
AcDbLine
 10
19.17859133417504
 20
22.60344640859717
 30
0.0
 11
19.17859133417506
 21
22.85928600979423
 31
0.0
  0
ARC
  5
4AC
330
1E
100
AcDbEntity
  8
OBJECT
100
AcDbCircle
 10
18.90300078817512
 20
22.21971435499183
 30
0.0
 40
0.4724409360001616
100
AcDbArc
 50
0.0000000000068937
 51
54.31466528737426
  0
LINE
  5
4AD
330
1E
100
AcDbEntity
  8
OBJECT
100
AcDbLine
 10
19.17859133417506
 20
23.84353795979496
 30
0.0
 11
19.17859133417506
 21
24.09937756099294
 31
0.0
  0
LINE
  5
4AE
330
1E
100
AcDbEntity
  8
OBJECT
100
AcDbLine
 10
19.38528424367496
 20
22.85928600979423
 30
0.0
 11
19.38528424367496
 21
23.84353795979496
 31
0.0
  0
LINE
  5
4AF
330
1E
100
AcDbEntity
  8
OBJECT
100
AcDbLine
 10
19.24748897067503
 20
22.85928600979423
 30
0.0
 11
19.24748897067503
 21
23.84353795979496
 31
0.0
  0
LWPOLYLINE
  5
4B0
330
1E
100
AcDbEntity
  8
OBJECT
100
AcDbPolyline
 90
        8
 70
     1
 43
0.0
 10
46.7435095059236
 20
10.08139229679388
 42
-0.4142135623730956
 10
46.5860291939236
 20
9.923911984794603
 10
35.75398981792377
 20
9.923911984793878
 42
-0.4142135623730956
 10
35.59650950592358
 20
10.08139229679388
 10
35.59650950592357
 20
24.8714316727944
 42
-0.4142135623730956
 10
35.75398981792376
 20
25.0289119847944
 10
46.58602919392359
 20
25.02891198479459
 42
-0.4142135623730957
 10
46.74350950592359
 20
24.8714316727944
  0
LINE
  5
4BA
330
1E
100
AcDbEntity
  8
OBJECT
100
AcDbLine
 10
35.1096591159253
 20
23.83172693639472
 30
0.0
 11
35.1096591159253
 21
22.87109703319447
 31
0.0
  0
LWPOLYLINE
  5
4BB
330
1E
100
AcDbEntity
  8
OBJECT
100
AcDbPolyline
 90
        4
 70
     0
 43
0.0
 10
35.30650950592542
 20
22.21971435499154
 42
0.2415313610589563
 10
35.1096591159253
 20
22.60344640859672
 10
35.1096591159253
 20
22.85928600979469
 10
35.30650950592544
 20
22.85928600979469
  0
LINE
  5
4C1
330
1E
100
AcDbEntity
  8
OBJECT
100
AcDbLine
 10
35.30650950592552
 20
22.87109703319539
 30
0.0
 11
35.1096591159253
 21
22.87109703319539
 31
0.0
  0
LINE
  5
4C2
330
1E
100
AcDbEntity
  8
OBJECT
100
AcDbLine
 10
35.30650950592552
 20
23.84353795979452
 30
0.0
 11
35.1096591159253
 21
23.84353795979452
 31
0.0
  0
LINE
  5
4C3
330
1E
100
AcDbEntity
  8
OBJECT
100
AcDbLine
 10
35.1096591159253
 20
23.84353795979452
 30
0.0
 11
35.10965911592529
 21
24.09937756099248
 31
0.0
  0
LINE
  5
4C4
330
1E
100
AcDbEntity
  8
OBJECT
100
AcDbLine
 10
35.30650950592552
 20
23.8317269363947
 30
0.0
 11
35.1096591159253
 21
23.83172693639472
 31
0.0
  0
ARC
  5
4C5
330
1E
100
AcDbEntity
  8
OBJECT
100
AcDbCircle
 10
34.83406856992547
 20
24.48310961459776
 30
0.0
 40
0.4724409360000578
100
AcDbArc
 50
305.6853347126199
 51
359.9999999999866
  0
LWPOLYLINE
  5
4C6
330
1E
100
AcDbEntity
  8
OBJECT
100
AcDbPolyline
 90
        4
 70
     0
 43
0.0
 10
35.30650950592542
 20
16.34471435499154
 42
0.2415313610589563
 10
35.1096591159253
 20
16.72844640859672
 10
35.1096591159253
 20
16.98428600979469
 10
35.30650950592544
 20
16.98428600979469
  0
LINE
  5
4CC
330
1E
100
AcDbEntity
  8
OBJECT
100
AcDbLine
 10
35.30650950592552
 20
16.9960970331954
 30
0.0
 11
35.1096591159253
 21
16.9960970331954
 31
0.0
  0
LINE
  5
4CD
330
1E
100
AcDbEntity
  8
OBJECT
100
AcDbLine
 10
35.30650950592552
 20
17.96853795979452
 30
0.0
 11
35.1096591159253
 21
17.96853795979452
 31
0.0
  0
LINE
  5
4CE
330
1E
100
AcDbEntity
  8
OBJECT
100
AcDbLine
 10
35.30650950592552
 20
17.9567269363947
 30
0.0
 11
35.1096591159253
 21
17.95672693639471
 31
0.0
  0
ARC
  5
4CF
330
1E
100
AcDbEntity
  8
OBJECT
100
AcDbCircle
 10
34.83406856992547
 20
18.60810961459776
 30
0.0
 40
0.4724409360000578
100
AcDbArc
 50
305.6853347126199
 51
359.9999999999866
  0
LINE
  5
4D0
330
1E
100
AcDbEntity
  8
OBJECT
100
AcDbLine
 10
35.1096591159253
 20
17.95672693639471
 30
0.0
 11
35.1096591159253
 21
16.99609703319447
 31
0.0
  0
LINE
  5
4D1
330
1E
100
AcDbEntity
  8
OBJECT
100
AcDbLine
 10
35.1096591159253
 20
17.96853795979452
 30
0.0
 11
35.10965911592529
 21
18.22437756099248
 31
0.0
  0
LINE
  5
4D2
330
1E
100
AcDbEntity
  8
OBJECT
100
AcDbLine
 10
35.1096591159253
 20
12.09353795979452
 30
0.0
 11
35.10965911592529
 21
12.34937756099248
 31
0.0
  0
ARC
  5
4D3
330
1E
100
AcDbEntity
  8
OBJECT
100
AcDbCircle
 10
34.83406856992547
 20
12.73310961459777
 30
0.0
 40
0.4724409360000578
100
AcDbArc
 50
305.6853347126199
 51
359.9999999999866
  0
LINE
  5
4D4
330
1E
100
AcDbEntity
  8
OBJECT
100
AcDbLine
 10
35.30650950592552
 20
12.0817269363947
 30
0.0
 11
35.1096591159253
 21
12.08172693639472
 31
0.0
  0
LINE
  5
4D5
330
1E
100
AcDbEntity
  8
OBJECT
100
AcDbLine
 10
35.30650950592552
 20
12.09353795979452
 30
0.0
 11
35.1096591159253
 21
12.09353795979452
 31
0.0
  0
LINE
  5
4D6
330
1E
100
AcDbEntity
  8
OBJECT
100
AcDbLine
 10
35.30650950592552
 20
11.1210970331954
 30
0.0
 11
35.1096591159253
 21
11.1210970331954
 31
0.0
  0
LWPOLYLINE
  5
4D7
330
1E
100
AcDbEntity
  8
OBJECT
100
AcDbPolyline
 90
        4
 70
     0
 43
0.0
 10
35.30650950592542
 20
10.46971435499154
 42
0.2415313610589563
 10
35.1096591159253
 20
10.85344640859672
 10
35.1096591159253
 20
11.10928600979468
 10
35.30650950592544
 20
11.10928600979468
  0
LINE
  5
4DD
330
1E
100
AcDbEntity
  8
OBJECT
100
AcDbLine
 10
35.1096591159253
 20
12.08172693639472
 30
0.0
 11
35.1096591159253
 21
11.12109703319447
 31
0.0
  0
LWPOLYLINE
  5
4DE
330
1E
100
AcDbEntity
  8
OBJECT
100
AcDbPolyline
 90
        4
 70
     0
 43
0.0
 10
47.0335095059236
 20
13.77202289879439
 42
-0.3106384182581576
 10
47.2742877837705
 20
14.12217933426611
 42
0.7051781285480231
 10
47.29098237591286
 20
14.64469382050153
 42
-0.3236437854432907
 10
47.0335095059236
 20
15.00080107079481
  0
CIRCLE
  5
4E4
330
1E
100
AcDbEntity
  8
OBJECT
100
AcDbCircle
 10
47.18950950592359
 20
14.3864119847946
 30
0.0
 40
0.12
  0
ARC
  5
4E5
330
1E
100
AcDbEntity
  8
OBJECT
100
AcDbCircle
 10
35.28509315376807
 20
31.56240346277456
 30
0.0
 40
0.1775
100
AcDbArc
 50
90.0
 51
276.9596745962847
  0
ARC
  5
4E6
330
1E
100
AcDbEntity
  8
OBJECT
100
AcDbCircle
 10
33.75888467434537
 20
30.3913521736148
 30
0.0
 40
1.747017539050701
100
AcDbArc
 50
27.53895796904764
 51
38.02627328486201
  0
ARC
  5
4E7
330
1E
100
AcDbEntity
  8
OBJECT
100
AcDbCircle
 10
35.36947091022032
 20
31.62117904777469
 30
0.0
 40
0.059
100
AcDbArc
 50
90.0
 51
179.0000000000214
  0
LINE
  5
4E8
330
1E
100
AcDbEntity
  8
OBJECT
100
AcDbLine
 10
35.30633771718869
 20
31.38490346277456
 30
0.0
 11
35.30840367934369
 21
31.14816764819977
 31
0.0
  0
ARC
  5
4E9
330
1E
100
AcDbEntity
  8
OBJECT
100
AcDbCircle
 10
35.3674565477061
 20
31.14868299477427
 30
0.0
 40
0.059055117
100
AcDbArc
 50
180.4999999999984
 51
270.0000000000029
  0
LINE
  5
4EA
330
1E
100
AcDbEntity
  8
OBJECT
100
AcDbLine
 10
35.30633771718869
 20
31.38490346277456
 30
0.0
 11
35.31047989620609
 21
31.62220873975447
 31
0.0
  0
LINE
  5
4EB
330
1E
100
AcDbEntity
  8
OBJECT
100
AcDbLine
 10
35.54501425022906
 20
31.73990346277456
 30
0.0
 11
35.28509315376807
 21
31.73990346277456
 31
0.0
  0
LINE
  5
4EC
330
1E
100
AcDbEntity
  8
OBJECT
100
AcDbLine
 10
47.22557546807893
 20
30.97460960545234
 30
0.0
 11
47.22557546807893
 21
31.38490346277457
 31
0.0
  0
LINE
  5
4ED
330
1E
100
AcDbEntity
  8
OBJECT
100
AcDbLine
 10
47.03350950592361
 20
31.38490346277457
 30
0.0
 11
47.01669971450302
 21
31.14451224582355
 31
0.0
  0
ARC
  5
4EE
330
1E
100
AcDbEntity
  8
OBJECT
100
AcDbCircle
 10
46.95784343553768
 20
31.14862787777444
 30
0.0
 40
0.059
100
AcDbArc
 50
270.0
 51
355.9999999999998
  0
ARC
  5
4EF
330
1E
100
AcDbEntity
  8
OBJECT
100
AcDbCircle
 10
46.95784343553768
 20
31.6211790477747
 30
0.0
 40
0.059
100
AcDbArc
 50
4.000000000000171
 51
90.0
  0
LINE
  5
4F0
330
1E
100
AcDbEntity
  8
OBJECT
100
AcDbLine
 10
47.03350950592361
 20
31.38490346277457
 30
0.0
 11
47.01669971450302
 21
31.62529467972559
 31
0.0
  0
CIRCLE
  5
4F1
330
1E
100
AcDbEntity
  8
HIDDEN
100
AcDbCircle
 10
46.98428518607491
 20
30.97151764377476
 30
0.0
 40
0.0688976365
  0
LINE
  5
4F2
330
1E
100
AcDbEntity
  8
OBJECT
100
AcDbLine
 10
46.76419171898003
 20
30.79435229277432
 30
0.0
 11
47.04843710021999
 21
30.79435229277432
 31
0.0
  0
ARC
  5
4F3
330
1E
100
AcDbEntity
  8
OBJECT
100
AcDbCircle
 10
47.04843710021999
 20
30.97151764377476
 30
0.0
 40
0.177165351
100
AcDbArc
 50
269.9994624464301
 51
0.9999999887896457
  0
LINE
  5
4F4
330
1E
100
AcDbEntity
  8
OBJECT
100
AcDbLine
 10
47.35815143766517
 20
12.8905379597945
 30
0.0
 11
47.35815143766517
 21
11.90628600979468
 31
0.0
  0
LINE
  5
4F5
330
1E
100
AcDbEntity
  8
OBJECT
100
AcDbLine
 10
46.85980471292356
 20
11.90628600979468
 30
0.0
 11
46.85980471292356
 21
12.8905379597945
 31
0.0
  0
LINE
  5
4F6
330
1E
100
AcDbEntity
  8
OBJECT
100
AcDbLine
 10
47.1550802979237
 20
12.8905379597945
 30
0.0
 11
47.1550802979237
 21
11.90628600979468
 31
0.0
  0
LINE
  5
4F7
330
1E
100
AcDbEntity
  8
OBJECT
100
AcDbLine
 10
46.7435095059236
 20
11.90628600979468
 30
0.0
 11
47.35815143766517
 21
11.90628600979468
 31
0.0
  0
LINE
  5
4F8
330
1E
100
AcDbEntity
  8
OBJECT
100
AcDbLine
 10
47.2235095059236
 20
11.59132538579431
 30
0.0
 11
47.2235095059236
 21
11.90628600979468
 31
0.0
  0
LINE
  5
4F9
330
1E
100
AcDbEntity
  8
OBJECT
100
AcDbLine
 10
46.7435095059236
 20
11.59132538579429
 30
0.0
 11
47.2235095059236
 21
11.59132538579431
 31
0.0
  0
LINE
  5
4FA
330
1E
100
AcDbEntity
  8
OBJECT
100
AcDbLine
 10
46.7435095059236
 20
12.89053795979451
 30
0.0
 11
47.35815143766517
 21
12.8905379597945
 31
0.0
  0
LINE
  5
4FB
330
1E
100
AcDbEntity
  8
OBJECT
100
AcDbLine
 10
47.2235095059236
 20
13.20549858379488
 30
0.0
 11
47.2235095059236
 21
12.8905379597945
 31
0.0
  0
LINE
  5
4FC
330
1E
100
AcDbEntity
  8
OBJECT
100
AcDbLine
 10
46.7435095059236
 20
13.20549858379486
 30
0.0
 11
47.2235095059236
 21
13.20549858379488
 31
0.0
  0
LINE
  5
4FD
330
1E
100
AcDbEntity
  8
OBJECT
100
AcDbLine
 10
47.1550802979237
 20
23.0465379597945
 30
0.0
 11
47.1550802979237
 21
22.06228600979469
 31
0.0
  0
LINE
  5
4FE
330
1E
100
AcDbEntity
  8
OBJECT
100
AcDbLine
 10
46.85980471292356
 20
22.06228600979469
 30
0.0
 11
46.85980471292356
 21
23.0465379597945
 31
0.0
  0
LINE
  5
4FF
330
1E
100
AcDbEntity
  8
OBJECT
100
AcDbLine
 10
47.35815143766517
 20
23.0465379597945
 30
0.0
 11
47.35815143766517
 21
22.06228600979469
 31
0.0
  0
LINE
  5
500
330
1E
100
AcDbEntity
  8
OBJECT
100
AcDbLine
 10
46.7435095059236
 20
22.06228600979467
 30
0.0
 11
47.35815143766517
 21
22.06228600979469
 31
0.0
  0
LINE
  5
501
330
1E
100
AcDbEntity
  8
OBJECT
100
AcDbLine
 10
46.7435095059236
 20
21.7473253857943
 30
0.0
 11
47.2235095059236
 21
21.74732538579431
 31
0.0
  0
LINE
  5
502
330
1E
100
AcDbEntity
  8
OBJECT
100
AcDbLine
 10
47.2235095059236
 20
21.74732538579431
 30
0.0
 11
47.2235095059236
 21
22.06228600979469
 31
0.0
  0
LINE
  5
503
330
1E
100
AcDbEntity
  8
OBJECT
100
AcDbLine
 10
46.7435095059236
 20
23.36149858379487
 30
0.0
 11
47.2235095059236
 21
23.36149858379488
 31
0.0
  0
LINE
  5
504
330
1E
100
AcDbEntity
  8
OBJECT
100
AcDbLine
 10
46.7435095059236
 20
23.04653795979452
 30
0.0
 11
47.35815143766517
 21
23.0465379597945
 31
0.0
  0
LINE
  5
505
330
1E
100
AcDbEntity
  8
OBJECT
100
AcDbLine
 10
47.2235095059236
 20
23.36149858379488
 30
0.0
 11
47.2235095059236
 21
23.0465379597945
 31
0.0
  0
LWPOLYLINE
  5
506
330
1E
100
AcDbEntity
  8
OBJECT
100
AcDbPolyline
 90
       10
 70
     0
 43
0.0
 10
47.03350950592363
 20
23.36149858379487
 10
47.03350950592349
 20
24.84397104879403
 42
0.4142135623730953
 10
46.56106856992349
 20
25.31641198479403
 10
35.77895044192371
 20
25.3164119847946
 42
0.4142135623730953
 10
35.3065095059237
 20
24.84397104879403
 10
35.30650950592361
 20
10.10885292079459
 42
0.4142135623730953
 10
35.77895044192372
 20
9.636411984794595
 10
46.56106856992351
 20
9.636411984794595
 42
0.4142135623730953
 10
47.0335095059235
 20
10.10885292079459
 10
47.0335095059235
 20
11.59132538579431
  0
LWPOLYLINE
  5
512
330
1E
100
AcDbEntity
  8
OBJECT
100
AcDbPolyline
 90
        4
 70
     0
 43
0.0
 10
46.79600950592361
 20
31.6801790477747
 10
46.71500950592362
 20
36.49501361677521
 10
35.6250095059236
 20
36.49501361677521
 10
35.54400950592359
 20
31.6801790477747
  0
LWPOLYLINE
  5
518
330
1E
100
AcDbEntity
  8
OBJECT
100
AcDbPolyline
 90
        8
 70
     0
 43
0.0
 10
46.8382076701828
 20
31.0896278777746
 42
0.3989595459737116
 10
46.77923348616789
 20
31.03366346679367
 10
46.74350950592363
 20
30.36800931671705
 42
-0.3989595459737131
 10
46.5665869538798
 20
30.20011608377423
 10
35.7734320579674
 20
30.20011608377471
 42
-0.3989595459737131
 10
35.59650950592364
 20
30.36800931671653
 10
35.56078552567931
 20
31.03366346679367
 42
0.3989595459737116
 10
35.50181134166439
 20
31.0896278777746
  0
LWPOLYLINE
  5
522
330
1E
100
AcDbEntity
  8
OBJECT
100
AcDbPolyline
 90
        4
 70
     0
 43
0.0
 10
37.56900950592359
 20
36.49501361677521
 10
37.56900950592359
 20
36.57506873377505
 10
37.8690095059236
 20
36.57506873377506
 10
37.86900950592359
 20
36.49501361677521
  0
LWPOLYLINE
  5
528
330
1E
100
AcDbEntity
  8
OBJECT
100
AcDbPolyline
 90
        4
 70
     0
 43
0.0
 10
38.55500950592359
 20
36.49501361677521
 10
38.55500950592359
 20
36.57506873377505
 10
38.85500950592359
 20
36.57506873377506
 10
38.85500950592359
 20
36.49501361677521
  0
LWPOLYLINE
  5
52E
330
1E
100
AcDbEntity
  8
OBJECT
100
AcDbPolyline
 90
        4
 70
     0
 43
0.0
 10
39.5410095059236
 20
36.49501361677521
 10
39.5410095059236
 20
36.57506873377505
 10
39.8410095059236
 20
36.57506873377506
 10
39.84100950592359
 20
36.49501361677521
  0
LWPOLYLINE
  5
534
330
1E
100
AcDbEntity
  8
OBJECT
100
AcDbPolyline
 90
        4
 70
     0
 43
0.0
 10
40.5270095059236
 20
36.49501361677521
 10
40.5270095059236
 20
36.57506873377505
 10
40.8270095059236
 20
36.57506873377506
 10
40.82700950592359
 20
36.49501361677521
  0
LWPOLYLINE
  5
53A
330
1E
100
AcDbEntity
  8
OBJECT
100
AcDbPolyline
 90
        4
 70
     0
 43
0.0
 10
44.7710095059236
 20
36.49501361677521
 10
44.7710095059236
 20
36.57506873377505
 10
44.4710095059236
 20
36.57506873377506
 10
44.4710095059236
 20
36.49501361677521
  0
LWPOLYLINE
  5
540
330
1E
100
AcDbEntity
  8
OBJECT
100
AcDbPolyline
 90
        4
 70
     0
 43
0.0
 10
43.7850095059236
 20
36.49501361677521
 10
43.7850095059236
 20
36.57506873377505
 10
43.48500950592359
 20
36.57506873377506
 10
43.4850095059236
 20
36.49501361677521
  0
LWPOLYLINE
  5
546
330
1E
100
AcDbEntity
  8
OBJECT
100
AcDbPolyline
 90
        4
 70
     0
 43
0.0
 10
42.79900950592359
 20
36.49501361677521
 10
42.79900950592359
 20
36.57506873377505
 10
42.4990095059236
 20
36.57506873377506
 10
42.4990095059236
 20
36.49501361677521
  0
LWPOLYLINE
  5
54C
330
1E
100
AcDbEntity
  8
OBJECT
100
AcDbPolyline
 90
        4
 70
     0
 43
0.0
 10
41.81300950592359
 20
36.49501361677521
 10
41.81300950592359
 20
36.57506873377505
 10
41.5130095059236
 20
36.57506873377506
 10
41.5130095059236
 20
36.49501361677521
  0
LWPOLYLINE
  5
552
330
1E
100
AcDbEntity
  8
OBJECT
100
AcDbPolyline
 90
        4
 70
     0
 43
0.0
 10
36.39800950592361
 20
36.49501361677522
 10
36.39800950592361
 20
36.57506873377504
 10
36.97300950592361
 20
36.57506873377504
 10
36.97300950592361
 20
36.49501361677522
  0
LWPOLYLINE
  5
558
330
1E
100
AcDbEntity
  8
OBJECT
100
AcDbPolyline
 90
        4
 70
     0
 43
0.0
 10
35.6705095059236
 20
36.49501361677522
 10
35.6705095059236
 20
36.57506873377504
 10
36.2455095059236
 20
36.57506873377504
 10
36.2455095059236
 20
36.49501361677522
  0
LWPOLYLINE
  5
55E
330
1E
100
AcDbEntity
  8
OBJECT
100
AcDbPolyline
 90
        4
 70
     0
 43
0.0
 10
46.66950950592359
 20
36.49501361677522
 10
46.66950950592359
 20
36.57506873377504
 10
46.0945095059236
 20
36.57506873377504
 10
46.0945095059236
 20
36.49501361677522
  0
LWPOLYLINE
  5
564
330
1E
100
AcDbEntity
  8
OBJECT
100
AcDbPolyline
 90
        4
 70
     0
 43
0.0
 10
45.94200950592358
 20
36.49501361677522
 10
45.94200950592358
 20
36.57506873377504
 10
45.36700950592358
 20
36.57506873377504
 10
45.36700950592358
 20
36.49501361677522
  0
LINE
  5
56A
330
1E
100
AcDbEntity
  8
OBJECT
100
AcDbLine
 10
47.35691409711723
 20
32.5868176825072
 30
0.0
 11
47.19097809557481
 21
31.57400127762686
 31
0.0
  0
TEXT
  5
56B
330
1E
100
AcDbEntity
  8
DIM
100
AcDbText
 10
58.7089721199558
 20
13.37194346940503
 30
0.0
 40
0.4679999998128
  1
(INSIDE)
 41
0.75
  7
TXT
 72
     4
 11
59.8204721195112
 21
13.60594346931143
 31
0.0
100
AcDbText
  0
LINE
  5
56C
330
1E
100
AcDbEntity
  8
OBJECT
100
AcDbLine
 10
56.81072211951122
 20
13.19841198479459
 30
0.0
 11
56.81072211951121
 21
13.88441198479461
 31
0.0
  0
LINE
  5
56D
330
1E
100
AcDbEntity
  8
OBJECT
100
AcDbLine
 10
56.56172211951119
 20
13.8004214751964
 30
0.0
 11
56.5617221195112
 21
13.2824024943928
 31
0.0
  0
LINE
  5
56E
330
1E
100
AcDbEntity
  8
OBJECT
100
AcDbLine
 10
50.64982458651069
 20
10.10426738478902
 30
0.0
 11
50.64982458651068
 21
17.4764119847946
 31
0.0
  0
INSERT
  5
56F
330
1E
100
AcDbEntity
  8
OBJECT
100
AcDbBlockReference
  2
*X1
 10
29.31331710196711
 20
-16.62239616485975
 30
0.0
1001
ACAD
1000
HATCH
1002
{
1070
    16
1000
PLASTI
1040
2.0
1040
0.7853981633974483
1002
}
  0
LWPOLYLINE
  5
570
330
1E
100
AcDbEntity
  8
OBJECT
100
AcDbPolyline
 90
       47
 70
     0
 43
0.0
 10
51.70061196551056
 20
10.00696352186436
 10
56.63837812399685
 20
10.09003160096566
 42
0.2321119028290795
 10
56.66896463782922
 20
10.10568288202422
 10
56.41972016055781
 20
10.11437239251343
 42
-0.4040262258351634
 10
56.40072211951119
 20
10.13404543991972
 10
56.40072211951119
 20
10.65177852966946
 42
-0.4040262258351634
 10
56.41972016055753
 20
10.67145157707556
 10
56.67672211951121
 20
10.6804119847946
 10
56.67672211951121
 20
10.7134119847946
 10
56.3157201605578
 20
10.72237239251346
 42
-0.4040262258351634
 10
56.29672211951119
 20
10.74204543991975
 10
56.29672211951119
 20
11.40977852966945
 42
-0.4040262258351634
 10
56.31572016055752
 20
11.42945157707557
 10
56.67672211951121
 20
11.4384119847946
 10
56.67672211951121
 20
11.82441198479459
 10
56.41972016055781
 20
11.83337239251345
 42
-0.4040262258351634
 10
56.40072211951119
 20
11.85304543991974
 10
56.40072211951119
 20
12.27177852966945
 42
-0.4040262258351634
 10
56.41972016055753
 20
12.29145157707556
 10
56.67672211951121
 20
12.30041198479459
 10
56.67672211951121
 20
12.8104119847946
 10
56.41972016055781
 20
12.81937239251346
 42
-0.4040262258351634
 10
56.40072211951119
 20
12.83904543991974
 10
56.40072211951119
 20
13.25777852966945
 42
-0.4040262258351634
 10
56.41972016055753
 20
13.27745157707557
 10
56.67672211951121
 20
13.2864119847946
 10
56.67672211951119
 20
13.7964119847946
 10
56.41972016055781
 20
13.80537239251346
 42
-0.4040262258351634
 10
56.40072211951119
 20
13.82504543991975
 10
56.40072211951119
 20
14.24377852966945
 42
-0.4040262258351634
 10
56.41972016055753
 20
14.26345157707557
 10
56.67672211951121
 20
14.2724119847946
 10
56.67672211951119
 20
14.78241198479459
 10
56.41972016055781
 20
14.79137239251345
 42
-0.4040262258351634
 10
56.40072211951119
 20
14.81104543991974
 10
56.40072211951119
 20
15.22977852966945
 42
-0.4040262258351634
 10
56.41972016055753
 20
15.24945157707556
 10
56.67672211951121
 20
15.25841198479459
 10
56.67672211951119
 20
15.7684119847946
 10
56.41972016055781
 20
15.77737239251345
 42
-0.4040262258351634
 10
56.40072211951119
 20
15.79704543991974
 10
56.40072211951119
 20
16.21577852966945
 42
-0.4040262258351634
 10
56.41972016055753
 20
16.23545157707557
 10
56.67672211951121
 20
16.2444119847946
 10
56.67672211951119
 20
16.68901042479457
 10
56.53872211951118
 20
16.68901042479457
 10
56.5387221195112
 20
17.4764119847946
  0
INSERT
  5
5A1
330
1E
100
AcDbEntity
  8
OBJECT
100
AcDbBlockReference
  2
*X2
 10
29.31331710196711
 20
-16.62239616485975
 30
0.0
1001
ACAD
1000
HATCH
1002
{
1070
    16
1000
PLASTI
1040
2.0
1040
2.356194490192344
1002
}
  0
LINE
  5
5A2
330
1E
100
AcDbEntity
  8
OBJECT
100
AcDbLine
 10
50.51582458651069
 20
10.10083453683835
 30
0.0
 11
50.51582458651067
 21
24.85198943275084
 31
0.0
  0
LINE
  5
5A3
330
1E
100
AcDbEntity
  8
OBJECT
100
AcDbLine
 10
51.70061196551056
 20
9.880911984794611
 30
0.0
 11
51.70061196551056
 21
10.10141198479511
 31
0.0
  0
LINE
  5
5A4
330
1E
100
AcDbEntity
  8
OBJECT
100
AcDbLine
 10
51.99588755051069
 20
9.877911984794597
 30
0.0
 11
56.8107221195112
 21
9.9589119847946
 31
0.0
  0
ARC
  5
5A5
330
1E
100
AcDbEntity
  8
OBJECT
100
AcDbCircle
 10
51.3462812635106
 20
9.829213820535347
 30
0.0
 40
0.059055117
100
AcDbArc
 50
0.0
 51
86.99999999999844
  0
LWPOLYLINE
  5
5A6
330
1E
100
AcDbEntity
  8
OBJECT
100
AcDbPolyline
 90
        4
 70
     0
 43
0.0
 10
51.70061196551056
 20
9.904652140794485
 10
51.54313165351037
 20
9.901903311723788
 10
51.54313165351037
 20
9.749920657865448
 10
51.70061196551056
 20
9.747171828794296
  0
ARC
  5
5AC
330
1E
100
AcDbEntity
  8
OBJECT
100
AcDbCircle
 10
50.69298993751022
 20
10.10083453683835
 30
0.0
 40
0.177165351
100
AcDbArc
 50
180.0
 51
266.9999999999987
  0
LINE
  5
5AD
330
1E
100
AcDbEntity
  8
OBJECT
100
AcDbLine
 10
51.34937196952966
 20
9.888188004550261
 30
0.0
 11
50.68371781945303
 21
9.923911984794518
 31
0.0
  0
LINE
  5
5AE
330
1E
100
AcDbEntity
  8
OBJECT
100
AcDbLine
 10
51.70061196551056
 20
9.636411984794595
 30
0.0
 11
51.46022074855954
 21
9.653221776215207
 31
0.0
  0
LWPOLYLINE
  5
5AF
330
1E
100
AcDbEntity
  8
OBJECT
100
AcDbPolyline
 90
        4
 70
     0
 43
0.0
 10
51.70061196551056
 20
9.880911984794611
 10
51.64361196551056
 20
9.880911984794611
 42
1.0
 10
51.64361196551056
 20
9.770911984794611
 10
51.70061196551056
 20
9.770911984794611
  0
LINE
  5
5B5
330
1E
100
AcDbEntity
  8
OBJECT
100
AcDbLine
 10
51.40533638051044
 20
9.71207805518053
 30
0.0
 11
51.40533638051044
 21
9.829213820535347
 31
0.0
  0
ARC
  5
5B6
330
1E
100
AcDbEntity
  8
OBJECT
100
AcDbCircle
 10
51.46433638051044
 20
9.71207805518053
 30
0.0
 40
0.059
100
AcDbArc
 50
180.0
 51
265.9999999999998
  0
LINE
  5
5B7
330
1E
100
AcDbEntity
  8
OBJECT
100
AcDbLine
 10
51.99588755051068
 20
9.877911984794597
 30
0.0
 11
51.99588755051068
 21
9.71207805518053
 31
0.0
  0
LINE
  5
5B8
330
1E
100
AcDbEntity
  8
OBJECT
100
AcDbLine
 10
51.70061196551056
 20
9.636411984794595
 30
0.0
 11
51.70061196551056
 21
9.770911984794611
 31
0.0
  0
LINE
  5
5B9
330
1E
100
AcDbEntity
  8
OBJECT
100
AcDbLine
 10
51.70061196551056
 20
9.636411984794595
 30
0.0
 11
51.94100318246159
 21
9.653221776215207
 31
0.0
  0
ARC
  5
5BA
330
1E
100
AcDbEntity
  8
OBJECT
100
AcDbCircle
 10
51.9368875505107
 20
9.71207805518053
 30
0.0
 40
0.059
100
AcDbArc
 50
274.0000000000001
 51
0.0
  0
LINE
  5
5BB
330
1E
100
AcDbEntity
  8
OBJECT
100
AcDbLine
 10
51.70061196551056
 20
10.00696352186436
 30
0.0
 11
50.69089892759182
 21
10.06115227531062
 31
0.0
  0
ARC
  5
5BC
330
1E
100
AcDbEntity
  8
OBJECT
100
AcDbCircle
 10
50.69298993751022
 20
10.10426738478902
 30
0.0
 40
0.043165351
100
AcDbArc
 50
180.0
 51
266.9999999999987
  0
LINE
  5
5BD
330
1E
100
AcDbEntity
  8
OBJECT
100
AcDbLine
 10
56.87109294705628
 20
10.48791198479459
 30
0.0
 11
56.51503708051159
 21
10.48791198479459
 31
0.0
  0
LINE
  5
5BE
330
1E
100
AcDbEntity
  8
OBJECT
100
AcDbLine
 10
56.87109294705628
 20
10.47541198479459
 30
0.0
 11
56.51503708051159
 21
10.47541198479459
 31
0.0
  0
LINE
  5
5BF
330
1E
100
AcDbEntity
  8
OBJECT
100
AcDbLine
 10
56.87109294705629
 20
10.3104119847946
 30
0.0
 11
56.51503708051159
 21
10.3104119847946
 31
0.0
  0
LINE
  5
5C0
330
1E
100
AcDbEntity
  8
OBJECT
100
AcDbLine
 10
56.87109294705629
 20
10.29791198479459
 30
0.0
 11
56.51503708051158
 21
10.29791198479459
 31
0.0
  0
LINE
  5
5C1
330
1E
100
AcDbEntity
  8
OBJECT
100
AcDbLine
 10
56.56172211951121
 20
11.82842147519641
 30
0.0
 11
56.56172211951121
 21
11.43555757677238
 31
0.0
  0
LINE
  5
5C2
330
1E
100
AcDbEntity
  8
OBJECT
100
AcDbLine
 10
56.31640640896594
 20
11.17091198479458
 30
0.0
 11
56.29672211951119
 21
11.19076880598634
 31
0.0
  0
LINE
  5
5C3
330
1E
100
AcDbEntity
  8
OBJECT
100
AcDbLine
 10
56.31640640896594
 20
11.17091198479458
 30
0.0
 11
56.75546227551064
 21
11.17091198479458
 31
0.0
  0
LINE
  5
5C4
330
1E
100
AcDbEntity
  8
OBJECT
100
AcDbLine
 10
56.31640640896594
 20
11.1584119847946
 30
0.0
 11
56.75546227551064
 21
11.1584119847946
 31
0.0
  0
LINE
  5
5C5
330
1E
100
AcDbEntity
  8
OBJECT
100
AcDbLine
 10
56.51503708051158
 20
10.29791198479459
 30
0.0
 11
56.51503708051159
 21
10.48791198479459
 31
0.0
  0
LINE
  5
5C6
330
1E
100
AcDbEntity
  8
OBJECT
100
AcDbLine
 10
56.31640640896594
 20
10.98091198479459
 30
0.0
 11
56.29672211951119
 21
10.96105516360283
 31
0.0
  0
LINE
  5
5C7
330
1E
100
AcDbEntity
  8
OBJECT
100
AcDbLine
 10
56.31640640896592
 20
10.9809119847946
 30
0.0
 11
56.75546227551066
 21
10.98091198479459
 31
0.0
  0
LINE
  5
5C8
330
1E
100
AcDbEntity
  8
OBJECT
100
AcDbLine
 10
56.31640640896592
 20
10.9934119847946
 30
0.0
 11
56.75546227551064
 21
10.9934119847946
 31
0.0
  0
LINE
  5
5C9
330
1E
100
AcDbEntity
  8
OBJECT
100
AcDbLine
 10
56.31640640896592
 20
10.9809119847946
 30
0.0
 11
56.31640640896594
 21
11.17091198479458
 31
0.0
  0
LINE
  5
5CA
330
1E
100
AcDbEntity
  8
OBJECT
100
AcDbLine
 10
56.75546227551066
 20
10.98091198479459
 30
0.0
 11
56.75546227551064
 21
11.17091198479458
 31
0.0
  0
LWPOLYLINE
  5
5CB
330
1E
100
AcDbEntity
  8
OBJECT
100
AcDbPolyline
 90
        4
 70
     0
 43
0.0
 10
56.40072211951119
 20
13.1314119847946
 10
56.72573906991929
 20
13.1314119847946
 10
56.72573906991929
 20
12.9654119847946
 10
56.40072211951119
 20
12.9654119847946
  0
LWPOLYLINE
  5
5D1
330
1E
100
AcDbEntity
  8
OBJECT
100
AcDbPolyline
 90
        4
 70
     0
 43
0.0
 10
56.40072211951119
 20
12.14541198479459
 10
56.72573906991929
 20
12.14541198479459
 10
56.72573906991929
 20
11.97941198479459
 10
56.40072211951119
 20
11.97941198479459
  0
LINE
  5
5D7
330
1E
100
AcDbEntity
  8
OBJECT
100
AcDbLine
 10
56.56172211951121
 20
12.8144214751964
 30
0.0
 11
56.56172211951121
 21
12.29640249439279
 31
0.0
  0
LINE
  5
5D8
330
1E
100
AcDbEntity
  8
OBJECT
100
AcDbLine
 10
56.81072211951125
 20
11.3634119847946
 30
0.0
 11
56.81072211951123
 21
11.91241198479461
 31
0.0
  0
LINE
  5
5D9
330
1E
100
AcDbEntity
  8
OBJECT
100
AcDbLine
 10
56.89077723651102
 20
11.3634119847946
 30
0.0
 11
56.8107221195112
 21
11.3634119847946
 31
0.0
  0
LINE
  5
5DA
330
1E
100
AcDbEntity
  8
OBJECT
100
AcDbLine
 10
56.8107221195112
 20
9.9589119847946
 30
0.0
 11
56.8107221195112
 21
10.10541198479459
 31
0.0
  0
LINE
  5
5DB
330
1E
100
AcDbEntity
  8
OBJECT
100
AcDbLine
 10
56.89077723651102
 20
10.78841198479459
 30
0.0
 11
56.8107221195112
 21
10.78841198479459
 31
0.0
  0
LINE
  5
5DC
330
1E
100
AcDbEntity
  8
OBJECT
100
AcDbLine
 10
56.89077723651102
 20
10.68041198479459
 30
0.0
 11
56.8107221195112
 21
10.68041198479459
 31
0.0
  0
LINE
  5
5DD
330
1E
100
AcDbEntity
  8
OBJECT
100
AcDbLine
 10
56.89077723651102
 20
10.1054119847946
 30
0.0
 11
56.8107221195112
 21
10.1054119847946
 31
0.0
  0
LINE
  5
5DE
330
1E
100
AcDbEntity
  8
OBJECT
100
AcDbLine
 10
56.89077723651102
 20
10.1054119847946
 30
0.0
 11
56.89077723651102
 21
10.68041198479459
 31
0.0
  0
LINE
  5
5DF
330
1E
100
AcDbEntity
  8
OBJECT
100
AcDbLine
 10
56.87109294705629
 20
10.29791198479459
 30
0.0
 11
56.87109294705628
 21
10.48791198479459
 31
0.0
  0
LINE
  5
5E0
330
1E
100
AcDbEntity
  8
OBJECT
100
AcDbLine
 10
56.87109294705628
 20
10.48791198479459
 30
0.0
 11
56.89077723651102
 21
10.50776880598634
 31
0.0
  0
LINE
  5
5E1
330
1E
100
AcDbEntity
  8
OBJECT
100
AcDbLine
 10
56.87109294705628
 20
10.29791198479459
 30
0.0
 11
56.89077723651102
 21
10.27805516360284
 31
0.0
  0
LINE
  5
5E2
330
1E
100
AcDbEntity
  8
OBJECT
100
AcDbLine
 10
56.8107221195112
 20
10.68041198479459
 30
0.0
 11
56.8107221195112
 21
10.78841198479459
 31
0.0
  0
LINE
  5
5E3
330
1E
100
AcDbEntity
  8
OBJECT
100
AcDbLine
 10
56.89077723651102
 20
10.78841198479459
 30
0.0
 11
56.89077723651102
 21
11.3634119847946
 31
0.0
  0
LINE
  5
5E4
330
1E
100
AcDbEntity
  8
OBJECT
100
AcDbLine
 10
56.89077723651105
 20
13.19841198479459
 30
0.0
 11
56.8107221195112
 21
13.19841198479459
 31
0.0
  0
LINE
  5
5E5
330
1E
100
AcDbEntity
  8
OBJECT
100
AcDbLine
 10
56.89077723651103
 20
12.89841198479461
 30
0.0
 11
56.81072211951119
 21
12.89841198479461
 31
0.0
  0
LINE
  5
5E6
330
1E
100
AcDbEntity
  8
OBJECT
100
AcDbLine
 10
56.89077723651105
 20
12.2124119847946
 30
0.0
 11
56.8107221195112
 21
12.2124119847946
 31
0.0
  0
LINE
  5
5E7
330
1E
100
AcDbEntity
  8
OBJECT
100
AcDbLine
 10
56.89077723651103
 20
11.9124119847946
 30
0.0
 11
56.89077723651105
 21
12.2124119847946
 31
0.0
  0
LINE
  5
5E8
330
1E
100
AcDbEntity
  8
OBJECT
100
AcDbLine
 10
56.89077723651103
 20
11.9124119847946
 30
0.0
 11
56.81072211951119
 21
11.91241198479461
 31
0.0
  0
LINE
  5
5E9
330
1E
100
AcDbEntity
  8
OBJECT
100
AcDbLine
 10
56.81072211951123
 20
12.2124119847946
 30
0.0
 11
56.81072211951123
 21
12.89841198479461
 31
0.0
  0
LINE
  5
5EA
330
1E
100
AcDbEntity
  8
OBJECT
100
AcDbLine
 10
56.89077723651103
 20
12.89841198479461
 30
0.0
 11
56.89077723651105
 21
13.19841198479459
 31
0.0
  0
LINE
  5
5EB
330
1E
100
AcDbEntity
  8
OBJECT
100
AcDbLine
 10
51.99588755051069
 20
25.0749119847946
 30
0.0
 11
56.8107221195112
 21
24.99391198479459
 31
0.0
  0
LWPOLYLINE
  5
5EC
330
1E
100
AcDbEntity
  8
BEND
100
AcDbPolyline
 90
       14
 70
     0
 43
0.0
 10
50.19515708941849
 20
17.47641198479461
 10
50.77119652800938
 20
17.47641198479461
 10
50.86280337982465
 20
17.63793248103019
 10
50.90351753618698
 20
17.3428568232142
 10
50.97476730982108
 20
17.47641198479461
 10
53.49830170607937
 20
17.47641198479461
 10
53.58990855789464
 20
17.63793248103019
 10
53.63062271425699
 20
17.3428568232142
 10
53.70187248789108
 20
17.4764119847946
 10
56.23381214710194
 20
17.47641198479461
 10
56.32541899891721
 20
17.63793248103019
 10
56.36613315527957
 20
17.3428568232142
 10
56.43738292891367
 20
17.47641198479461
 10
57.17283737690534
 20
17.47641198479461
  0
LINE
  5
5FC
330
1E
100
AcDbEntity
  8
OBJECT
100
AcDbLine
 10
51.40533638051044
 20
17.4764119847946
 30
0.0
 11
51.40533638051044
 21
21.7473253857943
 31
0.0
  0
LINE
  5
5FD
330
1E
100
AcDbEntity
  8
OBJECT
100
AcDbLine
 10
51.99588755051069
 20
22.06228600979467
 30
0.0
 11
51.99588755051069
 21
17.4764119847946
 31
0.0
  0
LINE
  5
5FE
330
1E
100
AcDbEntity
  8
OBJECT
100
AcDbLine
 10
51.11006079551032
 20
22.06228600979467
 30
0.0
 11
52.93926116918305
 21
22.06228600979467
 31
0.0
  0
LINE
  5
5FF
330
1E
100
AcDbEntity
  8
OBJECT
100
AcDbLine
 10
51.11006079551032
 20
23.0465379597945
 30
0.0
 11
52.93926116918305
 21
23.04653795979449
 31
0.0
  0
LINE
  5
600
330
1E
100
AcDbEntity
  8
OBJECT
100
AcDbLine
 10
51.99588755051069
 20
25.24074591440866
 30
0.0
 11
51.99588755051069
 21
23.0465379597945
 31
0.0
  0
LINE
  5
601
330
1E
100
AcDbEntity
  8
OBJECT
100
AcDbLine
 10
51.40533638051044
 20
23.36149858379487
 30
0.0
 11
51.40533638051044
 21
25.24074591440866
 31
0.0
  0
LINE
  5
602
330
1E
100
AcDbEntity
  8
OBJECT
100
AcDbLine
 10
51.70061196551056
 20
23.0465379597945
 30
0.0
 11
51.70061196551056
 21
25.31641198479459
 31
0.0
  0
LINE
  5
603
330
1E
100
AcDbEntity
  8
OBJECT
100
AcDbLine
 10
51.88970978036286
 20
23.04653795979452
 30
0.0
 11
51.88970978036286
 21
22.06228600979467
 31
0.0
  0
LINE
  5
604
330
1E
100
AcDbEntity
  8
OBJECT
100
AcDbLine
 10
51.11006079551032
 20
23.04653795979452
 30
0.0
 11
51.11006079551032
 21
22.06228600979467
 31
0.0
  0
LINE
  5
605
330
1E
100
AcDbEntity
  8
OBJECT
100
AcDbLine
 10
51.40533638051044
 20
22.06228600979467
 30
0.0
 11
51.40533638051044
 21
23.04653795979449
 31
0.0
  0
LINE
  5
606
330
1E
100
AcDbEntity
  8
OBJECT
100
AcDbLine
 10
51.11006079551032
 20
21.7473253857943
 30
0.0
 11
51.70061196551056
 21
21.7473253857943
 31
0.0
  0
LINE
  5
607
330
1E
100
AcDbEntity
  8
OBJECT
100
AcDbLine
 10
51.11006079551032
 20
21.7473253857943
 30
0.0
 11
51.11006079551032
 21
22.06228600979467
 31
0.0
  0
LINE
  5
608
330
1E
100
AcDbEntity
  8
OBJECT
100
AcDbLine
 10
51.11006079551032
 20
23.36149858379487
 30
0.0
 11
51.70061196551056
 21
23.36149858379487
 31
0.0
  0
LINE
  5
609
330
1E
100
AcDbEntity
  8
OBJECT
100
AcDbLine
 10
51.11006079551032
 20
23.36149858379487
 30
0.0
 11
51.11006079551032
 21
23.0465379597945
 31
0.0
  0
LINE
  5
60A
330
1E
100
AcDbEntity
  8
OBJECT
100
AcDbLine
 10
51.34937196952964
 20
25.06463596503893
 30
0.0
 11
50.683717819453
 21
25.02891198479467
 31
0.0
  0
ARC
  5
60B
330
1E
100
AcDbEntity
  8
OBJECT
100
AcDbCircle
 10
50.69298993751019
 20
24.85198943275084
 30
0.0
 40
0.177165351
100
AcDbArc
 50
93.00000000000123
 51
180.0
  0
LINE
  5
60C
330
1E
100
AcDbEntity
  8
OBJECT
100
AcDbLine
 10
51.70061196551056
 20
25.31641198479459
 30
0.0
 11
51.46022074855954
 21
25.29960219337398
 31
0.0
  0
ARC
  5
60D
330
1E
100
AcDbEntity
  8
OBJECT
100
AcDbCircle
 10
51.34628126351056
 20
25.12361014905385
 30
0.0
 40
0.059055117
100
AcDbArc
 50
273.0000000000015
 51
0.0
  0
ARC
  5
60E
330
1E
100
AcDbEntity
  8
OBJECT
100
AcDbCircle
 10
51.46433638051044
 20
25.24074591440866
 30
0.0
 40
0.059
100
AcDbArc
 50
94.00000000000018
 51
180.0
  0
LINE
  5
60F
330
1E
100
AcDbEntity
  8
OBJECT
100
AcDbLine
 10
51.70061196551056
 20
25.31641198479459
 30
0.0
 11
51.94100318246159
 21
25.29960219337398
 31
0.0
  0
ARC
  5
610
330
1E
100
AcDbEntity
  8
OBJECT
100
AcDbCircle
 10
51.9368875505107
 20
25.24074591440866
 30
0.0
 40
0.059
100
AcDbArc
 50
0.0
 51
85.99999999999985
  0
LINE
  5
611
330
1E
100
AcDbEntity
  8
OBJECT
100
AcDbLine
 10
52.93926116918305
 20
23.04653795979449
 30
0.0
 11
52.93926116918305
 21
22.06228600979467
 31
0.0
  0
LWPOLYLINE
  5
612
330
1E
100
AcDbEntity
  8
OBJECT
100
AcDbPolyline
 90
        4
 70
     0
 43
0.0
 10
56.8107221195112
 20
20.76841198479461
 10
56.89077723651105
 20
20.76841198479461
 10
56.89077723651103
 20
21.06841198479459
 10
56.81072211951119
 20
21.06841198479459
  0
LINE
  5
618
330
1E
100
AcDbEntity
  8
OBJECT
100
AcDbLine
 10
56.8107221195112
 20
16.15641198479459
 30
0.0
 11
56.8107221195112
 21
24.99391198479459
 31
0.0
  0
LWPOLYLINE
  5
619
330
1E
100
AcDbEntity
  8
OBJECT
100
AcDbPolyline
 90
        4
 70
     0
 43
0.0
 10
56.8107221195112
 20
17.08591198479459
 10
56.6857221195112
 20
17.08591198479459
 10
56.6857221195112
 20
17.30391198479459
 10
56.8107221195112
 20
17.30391198479459
  0
LWPOLYLINE
  5
61F
330
1E
100
AcDbEntity
  8
OBJECT
100
AcDbPolyline
 90
        4
 70
     0
 43
0.0
 10
56.8107221195112
 20
16.80441198479458
 10
56.6857221195112
 20
16.80441198479458
 10
56.6857221195112
 20
17.0224119847946
 10
56.8107221195112
 20
17.0224119847946
  0
LINE
  5
625
330
1E
100
AcDbEntity
  8
OBJECT
100
AcDbLine
 10
56.56172211951119
 20
15.7724214751964
 30
0.0
 11
56.56172211951119
 21
15.25440249439279
 31
0.0
  0
LWPOLYLINE
  5
626
330
1E
100
AcDbEntity
  8
OBJECT
100
AcDbPolyline
 90
        4
 70
     0
 43
0.0
 10
56.40072211951119
 20
15.10341198479459
 10
56.72573906991929
 20
15.10341198479459
 10
56.72573906991929
 20
14.93741198479459
 10
56.40072211951119
 20
14.93741198479459
  0
LWPOLYLINE
  5
62C
330
1E
100
AcDbEntity
  8
OBJECT
100
AcDbPolyline
 90
        4
 70
     0
 43
0.0
 10
56.40072211951119
 20
14.1174119847946
 10
56.72573906991929
 20
14.1174119847946
 10
56.72573906991929
 20
13.9514119847946
 10
56.40072211951119
 20
13.9514119847946
  0
LINE
  5
632
330
1E
100
AcDbEntity
  8
OBJECT
100
AcDbLine
 10
56.56172211951119
 20
14.78642147519639
 30
0.0
 11
56.56172211951119
 21
14.26840249439279
 31
0.0
  0
LWPOLYLINE
  5
633
330
1E
100
AcDbEntity
  8
OBJECT
100
AcDbPolyline
 90
        4
 70
     0
 43
0.0
 10
56.40072211951119
 20
16.08941198479459
 10
56.72573906991929
 20
16.08941198479459
 10
56.72573906991929
 20
15.9234119847946
 10
56.40072211951119
 20
15.9234119847946
  0
LINE
  5
639
330
1E
100
AcDbEntity
  8
OBJECT
100
AcDbLine
 10
56.8107221195112
 20
15.1704119847946
 30
0.0
 11
56.81072211951119
 21
15.8564119847946
 31
0.0
  0
LINE
  5
63A
330
1E
100
AcDbEntity
  8
OBJECT
100
AcDbLine
 10
56.89077723651105
 20
15.1704119847946
 30
0.0
 11
56.8107221195112
 21
15.1704119847946
 31
0.0
  0
LINE
  5
63B
330
1E
100
AcDbEntity
  8
OBJECT
100
AcDbLine
 10
56.89077723651103
 20
14.8704119847946
 30
0.0
 11
56.89077723651105
 21
15.1704119847946
 31
0.0
  0
LINE
  5
63C
330
1E
100
AcDbEntity
  8
OBJECT
100
AcDbLine
 10
56.89077723651103
 20
14.8704119847946
 30
0.0
 11
56.81072211951119
 21
14.87041198479461
 31
0.0
  0
LINE
  5
63D
330
1E
100
AcDbEntity
  8
OBJECT
100
AcDbLine
 10
56.89077723651105
 20
14.18441198479459
 30
0.0
 11
56.8107221195112
 21
14.18441198479459
 31
0.0
  0
LINE
  5
63E
330
1E
100
AcDbEntity
  8
OBJECT
100
AcDbLine
 10
56.89077723651103
 20
13.8844119847946
 30
0.0
 11
56.89077723651105
 21
14.18441198479459
 31
0.0
  0
LINE
  5
63F
330
1E
100
AcDbEntity
  8
OBJECT
100
AcDbLine
 10
56.89077723651103
 20
13.8844119847946
 30
0.0
 11
56.81072211951119
 21
13.88441198479461
 31
0.0
  0
LINE
  5
640
330
1E
100
AcDbEntity
  8
OBJECT
100
AcDbLine
 10
56.81072211951121
 20
14.18441198479459
 30
0.0
 11
56.8107221195112
 21
14.87041198479461
 31
0.0
  0
LINE
  5
641
330
1E
100
AcDbEntity
  8
OBJECT
100
AcDbLine
 10
56.89077723651103
 20
15.8564119847946
 30
0.0
 11
56.89077723651105
 21
16.15641198479459
 31
0.0
  0
LINE
  5
642
330
1E
100
AcDbEntity
  8
OBJECT
100
AcDbLine
 10
56.89077723651103
 20
15.8564119847946
 30
0.0
 11
56.81072211951119
 21
15.8564119847946
 31
0.0
  0
LINE
  5
643
330
1E
100
AcDbEntity
  8
OBJECT
100
AcDbLine
 10
56.89077723651105
 20
16.15641198479459
 30
0.0
 11
56.8107221195112
 21
16.15641198479459
 31
0.0
  0
LWPOLYLINE
  5
644
330
1E
100
AcDbEntity
  8
OBJECT
100
AcDbPolyline
 90
        3
 70
     0
 43
0.0
 10
56.6857221195112
 20
17.47641198479461
 10
56.6857221195112
 20
17.3674119847946
 10
56.8107221195112
 20
17.3674119847946
  0
LWPOLYLINE
  5
649
330
1E
100
AcDbEntity
  8
OBJECT
100
AcDbPolyline
 90
        4
 70
     0
 43
0.0
 10
56.8107221195112
 20
18.7964119847946
 10
56.89077723651105
 20
18.7964119847946
 10
56.89077723651103
 20
19.0964119847946
 10
56.81072211951119
 20
19.09641198479459
  0
LWPOLYLINE
  5
64F
330
1E
100
AcDbEntity
  8
OBJECT
100
AcDbPolyline
 90
        4
 70
     0
 43
0.0
 10
56.8107221195112
 20
19.78241198479459
 10
56.89077723651105
 20
19.78241198479459
 10
56.89077723651103
 20
20.0824119847946
 10
56.81072211951119
 20
20.08241198479458
  0
LWPOLYLINE
  5
655
330
1E
100
AcDbEntity
  8
OBJECT
100
AcDbPolyline
 90
        4
 70
     0
 43
0.0
 10
56.8107221195112
 20
24.27241198479463
 10
56.89077723651102
 20
24.27241198479463
 10
56.89077723651102
 20
24.84741198479463
 10
56.8107221195112
 20
24.84741198479463
  0
LWPOLYLINE
  5
65B
330
1E
100
AcDbEntity
  8
OBJECT
100
AcDbPolyline
 90
        4
 70
     0
 43
0.0
 10
56.8107221195112
 20
21.7544119847946
 10
56.89077723651105
 20
21.7544119847946
 10
56.89077723651103
 20
22.0544119847946
 10
56.81072211951119
 20
22.05441198479458
  0
LWPOLYLINE
  5
661
330
1E
100
AcDbEntity
  8
OBJECT
100
AcDbPolyline
 90
        4
 70
     0
 43
0.0
 10
56.8107221195112
 20
22.7404119847946
 10
56.89077723651105
 20
22.7404119847946
 10
56.89077723651103
 20
23.0404119847946
 10
56.81072211951119
 20
23.04041198479459
  0
LWPOLYLINE
  5
667
330
1E
100
AcDbEntity
  8
OBJECT
100
AcDbPolyline
 90
        4
 70
     0
 43
0.0
 10
56.8107221195112
 20
24.16441198479462
 10
56.89077723651102
 20
24.16441198479462
 10
56.89077723651102
 20
23.58941198479464
 10
56.8107221195112
 20
23.58941198479464
  0
DIMENSION
  5
66D
330
1E
100
AcDbEntity
  8
DIM
100
AcDbDimension
  2
*D29
 10
56.67672211951121
 20
14.43713620354316
 30
0.0
 11
59.8204721195112
 21
14.43713620354316
 31
0.0
 70
    32
  1
<>
 71
     5
 42
0.2760000000000105
  3
23NSTD
100
AcDbAlignedDimension
 13
56.40072211951119
 23
14.14589015811876
 33
0.0
 14
56.67672211951121
 24
14.43713620354316
 34
0.0
100
AcDbRotatedDimension
  0
DIMENSION
  5
66E
330
1E
100
AcDbEntity
  8
DIM
100
AcDbDimension
  2
*D30
 10
56.67672211951121
 20
11.54613148319933
 30
0.0
 11
59.8829721195112
 21
11.54613148319933
 31
0.0
 70
    32
  1
<>
 71
     5
 42
0.3800000000000096
  3
23NSTD
100
AcDbAlignedDimension
 13
56.29672211951119
 23
11.37307024626818
 33
0.0
 14
56.67672211951121
 24
11.37307024626818
 34
0.0
100
AcDbRotatedDimension
  0
LINE
  5
66F
330
1E
100
AcDbEntity
  8
OBJECT
100
AcDbLine
 10
1.222381523591714
 20
16.72844640859718
 30
0.0
 11
1.222381523591728
 21
16.98428600979423
 31
0.0
  0
ARC
  5
670
330
1E
100
AcDbEntity
  8
OBJECT
100
AcDbCircle
 10
0.9467909775917959
 20
16.34471435499183
 30
0.0
 40
0.4724409360001616
100
AcDbArc
 50
0.0000000000068937
 51
54.31466528737426
  0
ARC
  5
671
330
1E
100
AcDbEntity
  8
OBJECT
100
AcDbCircle
 10
0.9467909775918528
 20
24.48310961459811
 30
0.0
 40
0.4724409359999989
100
AcDbArc
 50
305.6853347126336
 51
0.0
  0
LINE
  5
672
330
1E
100
AcDbEntity
  8
OBJECT
100
AcDbLine
 10
1.41923191359185
 20
22.21971435499183
 30
0.0
 11
1.41923191359185
 21
18.60810961459765
 31
0.0
  0
LINE
  5
673
330
1E
100
AcDbEntity
  8
OBJECT
100
AcDbLine
 10
1.222381523591728
 20
16.98428600979423
 30
0.0
 11
1.568731913591882
 21
16.98428600979422
 31
0.0
  0
ARC
  5
674
330
1E
100
AcDbEntity
  8
OBJECT
100
AcDbCircle
 10
0.9467909775918528
 20
18.60810961459811
 30
0.0
 40
0.4724409359999989
100
AcDbArc
 50
305.6853347126336
 51
0.0
  0
LINE
  5
675
330
1E
100
AcDbEntity
  8
OBJECT
100
AcDbLine
 10
1.568731913591875
 20
17.96853795979496
 30
0.0
 11
1.222381523591728
 21
17.96853795979496
 31
0.0
  0
LINE
  5
676
330
1E
100
AcDbEntity
  8
OBJECT
100
AcDbLine
 10
1.222381523591728
 20
17.96853795979496
 30
0.0
 11
1.222381523591728
 21
18.22437756099293
 31
0.0
  0
LINE
  5
677
330
1E
100
AcDbEntity
  8
OBJECT
100
AcDbLine
 10
1.291279160091697
 20
16.98428600979423
 30
0.0
 11
1.291279160091697
 21
17.96853795979496
 31
0.0
  0
LINE
  5
678
330
1E
100
AcDbEntity
  8
OBJECT
100
AcDbLine
 10
1.429074433091635
 20
16.98428600979423
 30
0.0
 11
1.429074433091635
 21
17.96853795979496
 31
0.0
  0
ARC
  5
679
330
1E
100
AcDbEntity
  8
OBJECT
100
AcDbCircle
 10
0.9467909775917959
 20
22.21971435499183
 30
0.0
 40
0.4724409360001616
100
AcDbArc
 50
0.0000000000068937
 51
54.31466528737426
  0
LINE
  5
67A
330
1E
100
AcDbEntity
  8
OBJECT
100
AcDbLine
 10
1.222381523591728
 20
22.85928600979423
 30
0.0
 11
1.568731913591882
 21
22.85928600979422
 31
0.0
  0
LINE
  5
67B
330
1E
100
AcDbEntity
  8
OBJECT
100
AcDbLine
 10
1.568731913591875
 20
23.84353795979495
 30
0.0
 11
1.222381523591728
 21
23.84353795979496
 31
0.0
  0
LINE
  5
67C
330
1E
100
AcDbEntity
  8
OBJECT
100
AcDbLine
 10
1.291279160091697
 20
22.85928600979423
 30
0.0
 11
1.291279160091697
 21
23.84353795979496
 31
0.0
  0
LINE
  5
67D
330
1E
100
AcDbEntity
  8
OBJECT
100
AcDbLine
 10
1.222381523591728
 20
23.84353795979496
 30
0.0
 11
1.222381523591728
 21
24.09937756099294
 31
0.0
  0
LINE
  5
67E
330
1E
100
AcDbEntity
  8
OBJECT
100
AcDbLine
 10
1.222381523591714
 20
22.60344640859717
 30
0.0
 11
1.222381523591728
 21
22.85928600979423
 31
0.0
  0
LINE
  5
67F
330
1E
100
AcDbEntity
  8
OBJECT
100
AcDbLine
 10
1.429074433091635
 20
22.85928600979423
 30
0.0
 11
1.429074433091635
 21
23.84353795979496
 31
0.0
  0
LWPOLYLINE
  5
680
330
1E
100
AcDbEntity
  8
OBJECT
100
AcDbPolyline
 90
        4
 70
     0
 43
0.0
 10
1.835731913591892
 20
23.09550647779452
 10
1.776676796592049
 20
23.03645136079467
 10
1.776676796592049
 20
23.66637260879452
 10
1.835731913591892
 20
23.60731749179467
  0
ARC
  5
686
330
1E
100
AcDbEntity
  8
OBJECT
100
AcDbCircle
 10
1.852231913591857
 20
24.8834119847946
 30
0.0
 40
0.433
100
AcDbArc
 50
90.0
 51
180.0
  0
LINE
  5
687
330
1E
100
AcDbEntity
  8
OBJECT
100
AcDbLine
 10
1.41923191359185
 20
24.8834119847946
 30
0.0
 11
1.41923191359185
 21
24.48310961459811
 31
0.0
  0
ARC
  5
688
330
1E
100
AcDbEntity
  8
OBJECT
100
AcDbCircle
 10
1.852231913591857
 20
10.0694119847946
 30
0.0
 40
0.433
100
AcDbArc
 50
180.0
 51
270.0
  0
LINE
  5
689
330
1E
100
AcDbEntity
  8
OBJECT
100
AcDbLine
 10
1.41923191359185
 20
16.34471435499154
 30
0.0
 11
1.41923191359185
 21
12.73310961459811
 31
0.0
  0
LINE
  5
68A
330
1E
100
AcDbEntity
  8
OBJECT
100
AcDbLine
 10
1.291279160091697
 20
11.10928600979423
 30
0.0
 11
1.291279160091697
 21
12.09353795979496
 31
0.0
  0
LINE
  5
68B
330
1E
100
AcDbEntity
  8
OBJECT
100
AcDbLine
 10
1.429074433091635
 20
11.10928600979423
 30
0.0
 11
1.429074433091635
 21
12.09353795979496
 31
0.0
  0
LWPOLYLINE
  5
68C
330
1E
100
AcDbEntity
  8
OBJECT
100
AcDbPolyline
 90
        4
 70
     0
 43
0.0
 10
1.835731913591892
 20
11.34550647779452
 10
1.776676796592049
 20
11.28645136079468
 10
1.776676796592049
 20
11.91637260879452
 10
1.835731913591892
 20
11.85731749179468
  0
ARC
  5
692
330
1E
100
AcDbEntity
  8
OBJECT
100
AcDbCircle
 10
0.9467909775917959
 20
10.46971435499183
 30
0.0
 40
0.4724409360001616
100
AcDbArc
 50
0.0
 51
54.31466528737426
  0
LINE
  5
693
330
1E
100
AcDbEntity
  8
OBJECT
100
AcDbLine
 10
1.222381523591728
 20
11.10928600979423
 30
0.0
 11
1.568731913591882
 21
11.10928600979422
 31
0.0
  0
LINE
  5
694
330
1E
100
AcDbEntity
  8
OBJECT
100
AcDbLine
 10
1.222381523591714
 20
10.85344640859718
 30
0.0
 11
1.222381523591728
 21
11.10928600979423
 31
0.0
  0
LINE
  5
695
330
1E
100
AcDbEntity
  8
OBJECT
100
AcDbLine
 10
1.41923191359185
 20
10.46971435499183
 30
0.0
 11
1.41923191359185
 21
10.0694119847946
 31
0.0
  0
LINE
  5
696
330
1E
100
AcDbEntity
  8
OBJECT
100
AcDbLine
 10
1.568731913591875
 20
12.09353795979496
 30
0.0
 11
1.222381523591728
 21
12.09353795979496
 31
0.0
  0
ARC
  5
697
330
1E
100
AcDbEntity
  8
OBJECT
100
AcDbCircle
 10
0.9467909775918528
 20
12.73310961459811
 30
0.0
 40
0.4724409359999989
100
AcDbArc
 50
305.6853347126336
 51
0.0
  0
LINE
  5
698
330
1E
100
AcDbEntity
  8
OBJECT
100
AcDbLine
 10
1.222381523591728
 20
12.09353795979496
 30
0.0
 11
1.222381523591728
 21
12.34937756099293
 31
0.0
  0
LWPOLYLINE
  5
699
330
1E
100
AcDbEntity
  8
OBJECT
100
AcDbPolyline
 90
        8
 70
     1
 43
0.0
 10
12.72973191359181
 20
10.0772820627951
 42
-0.4142135623730951
 10
12.69036183559181
 20
10.0379119847946
 10
1.875101991591904
 20
10.0379119847946
 42
-0.4142135623730951
 10
1.835731913591907
 20
10.0772820627951
 10
1.835731913591857
 20
24.8755419067941
 42
-0.4142135623730951
 10
1.875101991591904
 20
24.9149119847941
 10
12.69036183559181
 20
24.9149119847946
 42
-0.4142135623730951
 10
12.72973191359181
 20
24.8755419067941
  0
LWPOLYLINE
  5
6A3
330
1E
100
AcDbEntity
  8
OBJECT
100
AcDbPolyline
 90
        8
 70
     1
 43
0.0
 10
12.99673191359181
 20
10.07728206279484
 42
-0.4142135623730957
 10
12.69036183559156
 20
9.770911984794597
 10
1.875101991592153
 20
9.770911984794597
 42
-0.4142135623730932
 10
1.568731913591904
 20
10.07728206279484
 10
1.568731913591854
 20
24.87554190679408
 42
-0.4142135623730787
 10
1.875101991591868
 20
25.1819119847941
 10
12.69036183559154
 20
25.1819119847946
 42
-0.4142135623731076
 10
12.99673191359181
 20
24.87554190679435
  0
LWPOLYLINE
  5
6AD
330
1E
100
AcDbEntity
  8
OBJECT
100
AcDbPolyline
 90
        8
 70
     1
 43
0.0
 10
12.88673191359181
 20
10.07728206279484
 42
-0.4142135623730978
 10
12.69036183559156
 20
9.880911984794597
 10
1.875101991592153
 20
9.880911984794597
 42
-0.4142135623730925
 10
1.678731913591903
 20
10.07728206279484
 10
1.678731913591853
 20
24.87554190679408
 42
-0.4142135623730792
 10
1.875101991591868
 20
25.0719119847941
 10
12.69036183559155
 20
25.07191198479461
 42
-0.414213562373111
 10
12.88673191359181
 20
24.87554190679435
  0
LINE
  5
6B7
330
1E
100
AcDbEntity
  8
OBJECT
100
AcDbLine
 10
1.852231913591857
 20
9.636411984794602
 30
0.0
 11
12.71323191359185
 21
9.636411984794602
 31
0.0
  0
ARC
  5
6B8
330
1E
100
AcDbEntity
  8
OBJECT
100
AcDbCircle
 10
12.71323191359185
 20
10.0694119847946
 30
0.0
 40
0.433
100
AcDbArc
 50
270.0
 51
0.0
  0
LWPOLYLINE
  5
6B9
330
1E
100
AcDbEntity
  8
OBJECT
100
AcDbPolyline
 90
        4
 70
     0
 43
0.0
 10
7.026826406591773
 20
10.0379119847946
 10
6.967771289591929
 20
9.978856867794757
 10
7.597692537591775
 20
9.978856867794757
 10
7.538637420591932
 20
10.0379119847946
  0
LWPOLYLINE
  5
6BF
330
1E
100
AcDbEntity
  8
OBJECT
100
AcDbPolyline
 90
        4
 70
     0
 43
0.0
 10
7.026826406591773
 20
24.9149119847946
 10
6.967771289591929
 20
24.97396710179444
 10
7.597692537591775
 20
24.97396710179444
 10
7.538637420591932
 20
24.9149119847946
  0
LINE
  5
6C5
330
1E
100
AcDbEntity
  8
OBJECT
100
AcDbLine
 10
1.852231913591857
 20
25.3164119847946
 30
0.0
 11
12.71323191359185
 21
25.3164119847946
 31
0.0
  0
ARC
  5
6C6
330
1E
100
AcDbEntity
  8
OBJECT
100
AcDbCircle
 10
12.71323191359185
 20
24.88341198479461
 30
0.0
 40
0.433
100
AcDbArc
 50
0.0
 51
90.0
  0
LINE
  5
6C7
330
1E
100
AcDbEntity
  8
OBJECT
100
AcDbLine
 10
13.14623191359185
 20
24.88341198479461
 30
0.0
 11
13.14623191359185
 21
23.0465379597945
 31
0.0
  0
LWPOLYLINE
  5
6C8
330
1E
100
AcDbEntity
  8
OBJECT
100
AcDbPolyline
 90
        4
 70
     0
 43
0.0
 10
12.72973191359181
 20
23.09550647779452
 10
12.78878703059165
 20
23.03645136079467
 10
12.78878703059165
 20
23.66637260879452
 10
12.72973191359181
 20
23.60731749179467
  0
LINE
  5
6CE
330
1E
100
AcDbEntity
  8
OBJECT
100
AcDbLine
 10
13.116176796592
 20
22.06228600979469
 30
0.0
 11
13.116176796592
 21
23.0465379597945
 31
0.0
  0
LINE
  5
6CF
330
1E
100
AcDbEntity
  8
OBJECT
100
AcDbLine
 10
13.116176796592
 20
22.06228600979469
 30
0.0
 11
13.14623191359185
 21
22.06228600979469
 31
0.0
  0
LINE
  5
6D0
330
1E
100
AcDbEntity
  8
OBJECT
100
AcDbLine
 10
13.116176796592
 20
23.0465379597945
 30
0.0
 11
13.14623191359185
 21
23.0465379597945
 31
0.0
  0
LINE
  5
6D1
330
1E
100
AcDbEntity
  8
OBJECT
100
AcDbLine
 10
13.14623191359185
 20
22.06228600979469
 30
0.0
 11
13.14623191359185
 21
15.0008010707948
 31
0.0
  0
LINE
  5
6D2
330
1E
100
AcDbEntity
  8
OBJECT
100
AcDbLine
 10
13.14623191359185
 20
13.77202289879439
 30
0.0
 11
13.14623191359186
 21
12.89053795979451
 31
0.0
  0
LWPOLYLINE
  5
6D3
330
1E
100
AcDbEntity
  8
OBJECT
100
AcDbPolyline
 90
        4
 70
     0
 43
0.0
 10
12.72973191359181
 20
11.34550647779452
 10
12.78878703059165
 20
11.28645136079468
 10
12.78878703059165
 20
11.91637260879452
 10
12.72973191359181
 20
11.85731749179468
  0
LINE
  5
6D9
330
1E
100
AcDbEntity
  8
OBJECT
100
AcDbLine
 10
13.116176796592
 20
12.89053795979451
 30
0.0
 11
13.116176796592
 21
11.90628600979469
 31
0.0
  0
LINE
  5
6DA
330
1E
100
AcDbEntity
  8
OBJECT
100
AcDbLine
 10
13.116176796592
 20
12.89053795979451
 30
0.0
 11
13.14623191359185
 21
12.89053795979451
 31
0.0
  0
LINE
  5
6DB
330
1E
100
AcDbEntity
  8
OBJECT
100
AcDbLine
 10
13.116176796592
 20
11.90628600979469
 30
0.0
 11
13.14623191359185
 21
11.90628600979469
 31
0.0
  0
CIRCLE
  5
6DC
330
1E
100
AcDbEntity
  8
OBJECT
100
AcDbCircle
 10
13.30223191359184
 20
14.3864119847946
 30
0.0
 40
0.12
  0
LWPOLYLINE
  5
6DD
330
1E
100
AcDbEntity
  8
OBJECT
100
AcDbPolyline
 90
        4
 70
     0
 43
0.0
 10
13.14623191359185
 20
13.77202289879439
 42
-0.3106384182581576
 10
13.38701019143875
 20
14.12217933426611
 42
0.7051781285480231
 10
13.40370478358111
 20
14.64469382050153
 42
-0.3236437854432907
 10
13.14623191359185
 20
15.00080107079481
  0
LINE
  5
6E3
330
1E
100
AcDbEntity
  8
OBJECT
100
AcDbLine
 10
13.14623191359186
 20
11.90628600979469
 30
0.0
 11
13.14623191359185
 21
10.0694119847946
 31
0.0
  0
ARC
  5
6E4
330
1E
100
AcDbEntity
  8
OBJECT
100
AcDbCircle
 10
4.817731913591849
 20
10.84391198479459
 30
0.0
 40
0.238
100
AcDbArc
 50
308.9849787023321
 51
231.0150212976678
  0
ARC
  5
6E5
330
1E
100
AcDbEntity
  8
OBJECT
100
AcDbCircle
 10
2.615231913591856
 20
13.0484119847946
 30
0.0
 40
0.238
100
AcDbArc
 50
302.1077125346242
 51
114.2496286028174
  0
LINE
  5
6E6
330
1E
100
AcDbEntity
  8
OBJECT
100
AcDbLine
 10
3.158528735060961
 20
11.11581750370198
 30
0.0
 11
3.623587051650289
 21
10.95932306072462
 31
0.0
  0
LINE
  5
6E7
330
1E
100
AcDbEntity
  8
OBJECT
100
AcDbLine
 10
3.157212529087502
 20
11.02552183001833
 30
0.0
 11
3.596158908192172
 21
10.87781418423598
 31
0.0
  0
ARC
  5
6E8
330
1E
100
AcDbEntity
  8
OBJECT
100
AcDbCircle
 10
2.79823191359187
 20
11.07591198479459
 30
0.0
 40
0.3625
100
AcDbArc
 50
197.8757998469687
 51
162.1242001530312
  0
CIRCLE
  5
6E9
330
1E
100
AcDbEntity
  8
OBJECT
100
AcDbCircle
 10
2.79823191359187
 20
11.07591198479459
 30
0.0
 40
0.0825
  0
CIRCLE
  5
6EA
330
1E
100
AcDbEntity
  8
HIDDEN
100
AcDbCircle
 10
2.79823191359187
 20
11.07591198479459
 30
0.0
 40
0.095
  0
LINE
  5
6EB
330
1E
100
AcDbEntity
  8
OBJECT
100
AcDbLine
 10
2.873218749646945
 20
11.43057129232571
 30
0.0
 11
2.730642989521882
 21
11.85426712285303
 31
0.0
  0
ARC
  5
6EC
330
1E
100
AcDbEntity
  8
OBJECT
100
AcDbCircle
 10
2.615231913591856
 20
12.0624119847946
 30
0.0
 40
0.238
100
AcDbArc
 50
227.1038011316557
 51
132.8961988683442
  0
LINE
  5
6ED
330
1E
100
AcDbEntity
  8
OBJECT
100
AcDbLine
 10
2.779996179385861
 20
11.43795301561565
 30
0.0
 11
2.649134113033241
 21
11.82683897939492
 31
0.0
  0
LINE
  5
6EE
330
1E
100
AcDbEntity
  8
OBJECT
100
AcDbLine
 10
2.572231913591856
 20
12.29649530329465
 30
0.0
 11
2.572231913591856
 21
12.29741198479406
 31
0.0
  0
LINE
  5
6EF
330
1E
100
AcDbEntity
  8
OBJECT
100
AcDbLine
 10
2.658231913591855
 20
12.29649530329465
 30
0.0
 11
2.658231913591855
 21
12.29741198479406
 31
0.0
  0
CIRCLE
  5
6F0
330
1E
100
AcDbEntity
  8
OBJECT
100
AcDbCircle
 10
2.615231913591856
 20
12.0624119847946
 30
0.0
 40
0.083
  0
LINE
  5
6F1
330
1E
100
AcDbEntity
  8
OBJECT
100
AcDbLine
 10
4.583648595091794
 20
10.88691198479459
 30
0.0
 11
4.065815232091999
 21
10.88691198479459
 31
0.0
  0
LINE
  5
6F2
330
1E
100
AcDbEntity
  8
OBJECT
100
AcDbLine
 10
4.583648595091794
 20
10.80091198479459
 30
0.0
 11
4.065815232091999
 21
10.80091198479459
 31
0.0
  0
ARC
  5
6F3
330
1E
100
AcDbEntity
  8
OBJECT
100
AcDbCircle
 10
3.831731913591852
 20
10.84391198479459
 30
0.0
 40
0.238
100
AcDbArc
 50
308.9849787023323
 51
231.0150212976677
  0
CIRCLE
  5
6F4
330
1E
100
AcDbEntity
  8
OBJECT
100
AcDbCircle
 10
3.831731913591852
 20
10.84391198479459
 30
0.0
 40
0.083
  0
CIRCLE
  5
6F5
330
1E
100
AcDbEntity
  8
OBJECT
100
AcDbCircle
 10
4.817731913591849
 20
10.84391198479459
 30
0.0
 40
0.083
  0
ARC
  5
6F6
330
1E
100
AcDbEntity
  8
OBJECT
100
AcDbCircle
 10
2.615231913591856
 20
14.0344119847946
 30
0.0
 40
0.238
100
AcDbArc
 50
227.1038011316557
 51
132.8961988683442
  0
LINE
  5
6F7
330
1E
100
AcDbEntity
  8
OBJECT
100
AcDbLine
 10
2.658231913591855
 20
13.28249530329465
 30
0.0
 11
2.658231913591855
 21
13.80032866629454
 31
0.0
  0
LINE
  5
6F8
330
1E
100
AcDbEntity
  8
OBJECT
100
AcDbLine
 10
2.572231913591856
 20
13.28249530329465
 30
0.0
 11
2.572231913591856
 21
13.80032866629454
 31
0.0
  0
LINE
  5
6F9
330
1E
100
AcDbEntity
  8
OBJECT
100
AcDbLine
 10
2.658231913591855
 20
14.26849530329466
 30
0.0
 11
2.658231913591855
 21
14.31017543530269
 31
0.0
  0
LINE
  5
6FA
330
1E
100
AcDbEntity
  8
OBJECT
100
AcDbLine
 10
2.572231913591856
 20
14.26849530329466
 30
0.0
 11
2.572231913591856
 21
14.33077433926864
 31
0.0
  0
CIRCLE
  5
6FB
330
1E
100
AcDbEntity
  8
OBJECT
100
AcDbCircle
 10
2.615231913591856
 20
14.0344119847946
 30
0.0
 40
0.083
  0
LINE
  5
6FC
330
1E
100
AcDbEntity
  8
OBJECT
100
AcDbLine
 10
6.555648595091788
 20
10.80091198479459
 30
0.0
 11
6.037815232091908
 21
10.80091198479459
 31
0.0
  0
LINE
  5
6FD
330
1E
100
AcDbEntity
  8
OBJECT
100
AcDbLine
 10
6.555648595091788
 20
10.88691198479459
 30
0.0
 11
6.037815232091908
 21
10.88691198479459
 31
0.0
  0
ARC
  5
6FE
330
1E
100
AcDbEntity
  8
OBJECT
100
AcDbCircle
 10
5.803731913591853
 20
10.84391198479459
 30
0.0
 40
0.238
100
AcDbArc
 50
308.9849787023318
 51
231.0150212976681
  0
CIRCLE
  5
6FF
330
1E
100
AcDbEntity
  8
OBJECT
100
AcDbCircle
 10
5.803731913591853
 20
10.84391198479459
 30
0.0
 40
0.083
  0
LINE
  5
700
330
1E
100
AcDbEntity
  8
OBJECT
100
AcDbLine
 10
5.569648595091798
 20
10.80091198479459
 30
0.0
 11
5.051815232091904
 21
10.80091198479459
 31
0.0
  0
LINE
  5
701
330
1E
100
AcDbEntity
  8
OBJECT
100
AcDbLine
 10
5.569648595091798
 20
10.88691198479459
 30
0.0
 11
5.051815232091904
 21
10.88691198479459
 31
0.0
  0
ARC
  5
702
330
1E
100
AcDbEntity
  8
OBJECT
100
AcDbCircle
 10
6.78973191359185
 20
10.84391198479459
 30
0.0
 40
0.238
100
AcDbArc
 50
73.26828447968306
 51
231.0150212976683
  0
ARC
  5
703
330
1E
100
AcDbEntity
  8
OBJECT
100
AcDbCircle
 10
6.78973191359185
 20
10.84391198479459
 30
0.0
 40
0.083
100
AcDbArc
 50
52.54758713493624
 51
286.8722661386495
  0
LINE
  5
704
330
1E
100
AcDbEntity
  8
OBJECT
100
AcDbLine
 10
51.70061196551056
 20
17.47641198479461
 30
0.0
 11
51.70061196551056
 21
22.06228600979467
 31
0.0
  0
LINE
  5
705
330
1E
100
AcDbEntity
  8
OBJECT
100
AcDbLine
 10
52.58761196553078
 20
17.47641198479461
 30
0.0
 11
52.58761196553079
 21
10.02188552987357
 31
0.0
  0
LINE
  5
706
330
1E
100
AcDbEntity
  8
OBJECT
100
AcDbLine
 10
52.11261196553078
 20
17.47641198479461
 30
0.0
 11
52.11261196553078
 21
10.5389119847951
 31
0.0
  0
LWPOLYLINE
  5
707
330
1E
100
AcDbEntity
  8
HIDDEN
100
AcDbPolyline
 90
        3
 70
     0
 43
0.0
 10
52.58761196553079
 20
11.9163726087945
 10
52.88861196551057
 20
11.9163726087945
 10
52.88861196551057
 20
11.88822707420156
  0
LWPOLYLINE
  5
70C
330
1E
100
AcDbEntity
  8
OBJECT
100
AcDbPolyline
 90
        4
 70
     0
 43
0.0
 10
52.58761196553079
 20
11.34550647779451
 10
52.88861196551057
 20
11.34550647779452
 10
52.88861196551057
 20
11.85731749179466
 10
52.58761196553079
 20
11.85731749179466
  0
LWPOLYLINE
  5
712
330
1E
100
AcDbEntity
  8
HIDDEN
100
AcDbPolyline
 90
        3
 70
     0
 43
0.0
 10
52.58761196553079
 20
11.28645136079467
 10
52.88861196551057
 20
11.28645136079467
 10
52.88861196551057
 20
11.31459689538762
  0
LINE
  5
717
330
1E
100
AcDbEntity
  8
OBJECT
100
AcDbLine
 10
52.11261196553078
 20
10.5389119847951
 30
0.0
 11
51.86261196553078
 21
10.53891198479511
 31
0.0
  0
LINE
  5
718
330
1E
100
AcDbEntity
  8
OBJECT
100
AcDbLine
 10
52.5876119655308
 20
10.1279119847951
 30
0.0
 11
51.86261196553078
 21
10.12791198479511
 31
0.0
  0
LINE
  5
719
330
1E
100
AcDbEntity
  8
OBJECT
100
AcDbLine
 10
51.86261196553078
 20
10.53891198479511
 30
0.0
 11
51.86261196553078
 21
10.12791198479511
 31
0.0
  0
LINE
  5
71A
330
1E
100
AcDbEntity
  8
OBJECT
100
AcDbLine
 10
52.11261196553078
 20
10.5389119847951
 30
0.0
 11
52.38761196553078
 21
10.1279119847951
 31
0.0
  0
LINE
  5
71B
330
1E
100
AcDbEntity
  8
OBJECT
100
AcDbLine
 10
51.94761196553079
 20
13.29641198479407
 30
0.0
 11
51.94761196553079
 21
12.26641198479407
 31
0.0
  0
LINE
  5
71C
330
1E
100
AcDbEntity
  8
OBJECT
100
AcDbLine
 10
51.90061196553079
 20
13.26541198479406
 30
0.0
 11
51.90061196553079
 21
12.29741198479407
 31
0.0
  0
LINE
  5
71D
330
1E
100
AcDbEntity
  8
OBJECT
100
AcDbLine
 10
51.94761196553079
 20
12.26641198479407
 30
0.0
 11
51.74761196553078
 21
12.26641198479407
 31
0.0
  0
LINE
  5
71E
330
1E
100
AcDbEntity
  8
OBJECT
100
AcDbLine
 10
51.94761196553079
 20
12.29741198479407
 30
0.0
 11
51.90061196553078
 21
12.29741198479407
 31
0.0
  0
LINE
  5
71F
330
1E
100
AcDbEntity
  8
OBJECT
100
AcDbLine
 10
51.94761196553079
 20
13.26541198479406
 30
0.0
 11
51.90061196553079
 21
13.26541198479406
 31
0.0
  0
LINE
  5
720
330
1E
100
AcDbEntity
  8
OBJECT
100
AcDbLine
 10
51.94761196553079
 20
13.29641198479407
 30
0.0
 11
51.74761196553078
 21
13.29641198479407
 31
0.0
  0
LINE
  5
721
330
1E
100
AcDbEntity
  8
OBJECT
100
AcDbLine
 10
51.81908150728533
 20
12.53141198479407
 30
0.0
 11
51.74761196553078
 21
12.53141198479407
 31
0.0
  0
LINE
  5
722
330
1E
100
AcDbEntity
  8
OBJECT
100
AcDbLine
 10
51.81908150728533
 20
13.03141198479407
 30
0.0
 11
51.74761196553077
 21
13.03141198479407
 31
0.0
  0
LWPOLYLINE
  5
723
330
1E
100
AcDbEntity
  8
OBJECT
100
AcDbPolyline
 90
        4
 70
     0
 43
0.0
 10
52.11261196553079
 20
13.22941198479407
 10
52.42461196553077
 20
13.22941198479406
 10
52.42461196553078
 20
12.96741198479406
 10
52.11261196553079
 20
12.96741198479406
  0
LWPOLYLINE
  5
729
330
1E
100
AcDbEntity
  8
OBJECT
100
AcDbPolyline
 90
        4
 70
     0
 43
0.0
 10
52.11261196553079
 20
12.59541198479408
 10
52.42461196553077
 20
12.59541198479408
 10
52.42461196553078
 20
12.33341198479408
 10
52.11261196553079
 20
12.33341198479408
  0
ARC
  5
72F
330
1E
100
AcDbEntity
  8
OBJECT
100
AcDbCircle
 10
51.77997366765842
 20
13.09841198479406
 30
0.0
 40
0.204361702127659
100
AcDbArc
 50
122.6857650868822
 51
237.3142349131172
  0
LWPOLYLINE
  5
730
330
1E
100
AcDbEntity
  8
OBJECT
100
AcDbPolyline
 90
        4
 70
     0
 43
0.0
 10
51.90061196553079
 20
13.22341198479407
 10
51.85479509926038
 20
13.22341198479406
 42
0.3854650698366987
 10
51.85479509926038
 20
12.97341198479406
 10
51.90061196553079
 20
12.97341198479407
  0
ARC
  5
736
330
1E
100
AcDbEntity
  8
OBJECT
100
AcDbCircle
 10
51.77997366765842
 20
12.46441198479407
 30
0.0
 40
0.204361702127659
100
AcDbArc
 50
122.6857650868822
 51
237.3142349131172
  0
LWPOLYLINE
  5
737
330
1E
100
AcDbEntity
  8
OBJECT
100
AcDbPolyline
 90
        4
 70
     0
 43
0.0
 10
51.90061196553079
 20
12.58941198479408
 10
51.85479509926038
 20
12.58941198479408
 42
0.3854650698366987
 10
51.85479509926038
 20
12.33941198479407
 10
51.90061196553079
 20
12.33941198479408
  0
LWPOLYLINE
  5
73D
330
1E
100
AcDbEntity
  8
OBJECT
100
AcDbPolyline
 90
        4
 70
     0
 43
0.0
 10
52.11261196553078
 20
10.87791198479511
 10
52.38761196553078
 20
10.87791198479511
 10
52.38761196553078
 20
10.7999119847951
 10
52.11261196553078
 20
10.7999119847951
  0
LWPOLYLINE
  5
743
330
1E
100
AcDbEntity
  8
OBJECT
100
AcDbPolyline
 90
        4
 70
     0
 43
0.0
 10
52.11261196553078
 20
11.69091198479511
 10
52.38761196553078
 20
11.6909119847951
 10
52.38761196553078
 20
11.61291198479511
 10
52.11261196553078
 20
11.61291198479511
  0
LWPOLYLINE
  5
749
330
1E
100
AcDbEntity
  8
OBJECT
100
AcDbPolyline
 90
        4
 70
     0
 43
0.0
 10
52.11261196553078
 20
14.12991198479511
 10
52.38761196553078
 20
14.1299119847951
 10
52.38761196553078
 20
14.0519119847951
 10
52.11261196553078
 20
14.0519119847951
  0
LWPOLYLINE
  5
74F
330
1E
100
AcDbEntity
  8
OBJECT
100
AcDbPolyline
 90
        4
 70
     0
 43
0.0
 10
52.11261196553078
 20
14.94291198479511
 10
52.38761196553078
 20
14.94291198479511
 10
52.38761196553078
 20
14.86491198479511
 10
52.11261196553078
 20
14.86491198479511
  0
LWPOLYLINE
  5
755
330
1E
100
AcDbEntity
  8
OBJECT
100
AcDbPolyline
 90
        4
 70
     0
 43
0.0
 10
52.11261196553078
 20
15.75591198479511
 10
52.38761196553078
 20
15.75591198479511
 10
52.38761196553078
 20
15.6779119847951
 10
52.11261196553078
 20
15.6779119847951
  0
LWPOLYLINE
  5
75B
330
1E
100
AcDbEntity
  8
OBJECT
100
AcDbPolyline
 90
        4
 70
     0
 43
0.0
 10
52.11261196553078
 20
16.56891198479511
 10
52.38761196553078
 20
16.5689119847951
 10
52.38761196553078
 20
16.4909119847951
 10
52.11261196553078
 20
16.4909119847951
  0
LWPOLYLINE
  5
761
330
1E
100
AcDbEntity
  8
OBJECT
100
AcDbPolyline
 90
        4
 70
     0
 43
0.0
 10
52.11261196553078
 20
17.38191198479511
 10
52.38761196553078
 20
17.3819119847951
 10
52.38761196553078
 20
17.3039119847951
 10
52.11261196553078
 20
17.3039119847951
  0
INSERT
  5
767
330
1E
100
AcDbEntity
  8
OBJECT
100
AcDbBlockReference
  2
HBS
 10
0.0
 20
0.0
 30
0.0
 41
4.0
 42
4.0
 43
4.0
  0
TEXT
  5
768
330
1E
100
AcDbEntity
  8
DIM
100
AcDbText
 10
32.00540759387346
 20
6.011006409490519
 30
0.0
 40
0.4978723404
  1
METAL SCREWS x 0.250 [6] LG. (NOT SUPPLIED)
 41
0.75
  7
TXT
 11
32.00540759387346
 21
6.25994257969052
 31
0.0
100
AcDbText
 73
     2
  0
TEXT
  5
769
330
1E
100
AcDbEntity
  8
DIM
100
AcDbText
 10
32.00540759387346
 20
7.623117047705719
 30
0.0
 40
0.4978723404
  1
HOLE x 0.325 [8] DEEP (36) PLACES
 41
0.75
  7
TXT
 11
32.00540759387346
 21
7.872053217905719
 31
0.0
100
AcDbText
 73
     2
  0
TEXT
  5
76A
330
1E
100
AcDbEntity
  8
DIM
100
AcDbText
 10
32.00540759387346
 20
8.452904281705727
 30
0.0
 40
0.4978723404
  1
0.476 [12] DIA. BOSS WITH 0.166 [4] DIA.
 41
0.75
  7
TXT
 11
32.00540759387346
 21
8.701840451905727
 31
0.0
100
AcDbText
 73
     2
  0
TEXT
  5
76B
330
1E
100
AcDbEntity
  8
DIM
100
AcDbText
 10
32.00540759387346
 20
6.817061728598119
 30
0.0
 40
0.4978723404
  1
BOSSES ACCEPT M5 METRIC OR #10 STD. SHEET
 41
0.75
  7
TXT
 11
32.00540759387346
 21
7.065997898798119
 31
0.0
100
AcDbText
 73
     2
  0
LWPOLYLINE
  5
76C
330
1E
100
AcDbEntity
  8
DIM
100
AcDbPolyline
 90
        4
 70
     0
 10
28.84637280632642
 20
10.66454276631775
 40
0.0
 41
0.27
 10
29.40344644388601
 20
10.20839699758133
 40
0.0
 41
0.0
 10
30.7575411951675
 20
8.714702957191537
 40
0.0
 41
0.0
 10
31.48752753724103
 20
8.714702957191537
 40
0.0
 41
0.0
  0
TEXT
  5
772
330
1E
100
AcDbEntity
  8
TEXT
100
AcDbText
 10
49.79430263870066
 20
7.443494001235933
 30
0.0
 40
0.4999999999999992
  1
DIMENSIONS =
 41
0.75
  7
TXT
100
AcDbText
  0
TEXT
  5
773
330
1E
100
AcDbEntity
  8
TEXT
100
AcDbText
 10
55.36017668414495
 20
7.87256798216417
 30
0.0
 40
0.4999999999999992
  1
INCHES
 41
0.75
  7
TXT
 72
     1
 11
56.36017668414496
 21
7.87256798216417
 31
0.0
100
AcDbText
  0
TEXT
  5
774
330
1E
100
AcDbEntity
  8
TEXT
100
AcDbText
 10
54.23517668414496
 20
7.039234648830834
 30
0.0
 40
0.4999999999999992
  1
[MILLIMETERS]
 41
0.75
  7
TXT
 72
     1
 11
56.36017668414496
 21
7.039234648830834
 31
0.0
100
AcDbText
  0
TEXT
  5
775
330
1E
100
AcDbEntity
  8
TEXT
100
AcDbText
 10
23.87958007593778
 20
30.17422326070608
 30
0.0
 40
0.4999999999999992
  1
M5 x 10mm LG. TRUSS HD. MACHINE
 41
0.75
  7
TXT
100
AcDbText
  0
TEXT
  5
776
330
1E
100
AcDbEntity
  8
TEXT
100
AcDbText
 10
23.87958007593778
 20
29.34088992737274
 30
0.0
 40
0.4999999999999992
  1
SCREWS (NOT SHOWN)
 41
0.75
  7
TXT
100
AcDbText
  0
TEXT
  5
777
330
1E
100
AcDbEntity
  8
TEXT
100
AcDbText
 10
48.02080773189024
 20
33.50863266403747
 30
0.0
 40
0.4999999999999992
  1
AIR AND MOISTURE VENTS, GALVANIZED
 41
0.75
  7
TXT
100
AcDbText
  0
TEXT
  5
778
330
1E
100
AcDbEntity
  8
TEXT
100
AcDbText
 10
48.02080773189024
 20
32.67743992980574
 30
0.0
 40
0.4999999999999992
  1
STEEL INTERNAL PANEL AND STAINLESS
 41
0.75
  7
TXT
100
AcDbText
  0
TEXT
  5
779
330
1E
100
AcDbEntity
  8
TEXT
100
AcDbText
 10
48.02080773189024
 20
31.00756813493396
 30
0.0
 40
0.4999999999999992
  1
BUT CAN BE PURCHASED SEPARATELY.
 41
0.75
  7
TXT
100
AcDbText
  0
TEXT
  5
77A
330
1E
100
AcDbEntity
  8
TEXT
100
AcDbText
 10
48.02080773189024
 20
37.66994206250284
 30
0.0
 40
0.4999999999999992
  1
%%UINDUSTRY STANDARDS:
 41
0.75
  7
TXT
100
AcDbText
  0
TEXT
  5
77B
330
1E
100
AcDbEntity
  8
TEXT
100
AcDbText
 10
48.51989198097449
 20
36.83660872916949
 30
0.0
 40
0.4999999999999992
  1
UL508 TYPE 1, 2, 4, 4X INDOOR, 12 & 13
 41
0.75
  7
TXT
100
AcDbText
  0
TEXT
  5
77C
330
1E
100
AcDbEntity
  8
TEXT
100
AcDbText
 10
48.51989198097449
 20
36.00327539583618
 30
0.0
 40
0.4999999999999992
  1
NEMA TYPE 1, 2, 4, 4X, 12 & 13
 41
0.75
  7
TXT
100
AcDbText
  0
TEXT
  5
77D
330
1E
100
AcDbEntity
  8
TEXT
100
AcDbText
 10
48.51989198097449
 20
35.16994206250283
 30
0.0
 40
0.4999999999999992
  1
IEC529-IP65
 41
0.75
  7
TXT
100
AcDbText
  0
TEXT
  5
77E
330
1E
100
AcDbEntity
  8
TEXT
100
AcDbText
 10
10.86576919384112
 20
36.00839389838701
 30
0.0
 40
0.4999999999999992
  1
UL94-5VB FLAMMABILITY RATING
 41
0.75
  7
TXT
100
AcDbText
  0
TEXT
  5
780
330
1E
100
AcDbEntity
  8
TEXT
100
AcDbText
 10
45.03395205008442
 20
5.142850223091741
 30
0.0
 40
0.4999999999999992
  1
%%UNOTE%%U: ALL DIMENSIONS HAVE %%P0.039 [%%P1] TOLERANCE
 41
0.75
  7
TXT
100
AcDbText
  0
TEXT
  5
781
330
1E
100
AcDbEntity
  8
TEXT
100
AcDbText
 10
46.63647176156828
 20
4.332485372664393
 30
0.0
 40
0.4999999999999992
  1
 UNLESS OTHERWISE SPECIFIED
 41
0.75
  7
TXT
100
AcDbText
  0
TEXT
  5
782
330
1E
100
AcDbEntity
  8
TEXT
100
AcDbText
 10
23.87958007593778
 20
33.82394534280484
 30
0.0
 40
0.4999999999999992
  1
COVER INCLUDES GRAY POLY-
 41
0.75
  7
TXT
100
AcDbText
  0
TEXT
  5
783
330
1E
100
AcDbEntity
  8
TEXT
100
AcDbText
 10
10.86576919384112
 20
33.51863090348869
 30
0.0
 40
0.4999999999999992
  1
UL94V-0 FLAMMABILITY RATING
 41
0.75
  7
TXT
100
AcDbText
  0
TEXT
  5
784
330
1E
100
AcDbEntity
  8
TEXT
100
AcDbText
 10
10.86576919384112
 20
34.35196423682204
 30
0.0
 40
0.4999999999999992
  1
POLYCARBONATE PLASTIC
 41
0.75
  7
TXT
100
AcDbText
  0
LINE
  5
785
330
1E
100
AcDbEntity
  8
TEXT
100
AcDbLine
 10
9.632078315504017
 20
29.37608089670095
 30
0.0
 11
10.616227069299
 21
29.37608089670095
 31
0.0
  0
LINE
  5
786
330
1E
100
AcDbEntity
  8
TEXT
100
AcDbLine
 10
7.304103298985388
 20
30.19366971379795
 30
0.0
 11
10.616227069299
 21
30.19366971379795
 31
0.0
  0
LINE
  5
787
330
1E
100
AcDbEntity
  8
TEXT
100
AcDbLine
 10
25.45806745612268
 20
36.83660872916949
 30
0.0
 11
27.49627581208791
 21
36.83660872916949
 31
0.0
  0
TEXT
  5
788
330
1E
100
AcDbEntity
  8
TEXT
100
AcDbText
 10
27.74581793663003
 20
36.00327539583615
 30
0.0
 40
0.4999999999999992
  1
LIGHT GRAY OR CLEAR
 41
0.75
  7
TXT
100
AcDbText
  0
TEXT
  5
789
330
1E
100
AcDbEntity
  8
TEXT
100
AcDbText
 10
10.86576919384112
 20
36.84172723172034
 30
0.0
 40
0.4999999999999992
  1
ABS/PC BLENDED PLASTIC
 41
0.75
  7
TXT
100
AcDbText
  0
LINE
  5
78A
330
1E
100
AcDbEntity
  8
TEXT
100
AcDbLine
 10
5.583722011162947
 20
34.35196423682204
 30
0.0
 11
10.616227069299
 21
34.35196423682201
 31
0.0
  0
TEXT
  5
78B
330
1E
100
AcDbEntity
  8
TEXT
100
AcDbText
 10
1.230963209976863
 20
29.36033638046462
 30
0.0
 40
0.4999999999999992
  1
WALL MOUNTING BRACKETS
 41
0.75
  7
TXT
100
AcDbText
  0
LINE
  5
78C
330
1E
100
AcDbEntity
  8
TEXT
100
AcDbLine
 10
25.93844324127793
 20
36.00327539583615
 30
0.0
 11
27.49627581208791
 21
36.00327539583615
 31
0.0
  0
TEXT
  5
78D
330
1E
100
AcDbEntity
  8
TEXT
100
AcDbText
 10
1.230963209976863
 20
30.19366971379795
 30
0.0
 40
0.4999999999999992
  1
LATCHES & HINGES
 41
0.75
  7
TXT
100
AcDbText
  0
TEXT
  5
78E
330
1E
100
AcDbEntity
  8
TEXT
100
AcDbText
 10
1.230963209976863
 20
36.84172723172034
 30
0.0
 40
0.4999999999999992
  1
SOLID BODY & COVER
 41
0.75
  7
TXT
100
AcDbText
  0
TEXT
  5
78F
330
1E
100
AcDbEntity
  8
TEXT
100
AcDbText
 10
1.230963209976863
 20
34.35196423682204
 30
0.0
 40
0.4999999999999992
  1
CLEAR COVER
 41
0.75
  7
TXT
100
AcDbText
  0
TEXT
  5
790
330
1E
100
AcDbEntity
  8
TEXT
100
AcDbText
 10
23.87958007593776
 20
36.00327539583615
 30
0.0
 40
0.4999999999999992
  1
COVER
 41
0.75
  7
TXT
100
AcDbText
  0
TEXT
  5
791
330
1E
100
AcDbEntity
  8
TEXT
100
AcDbText
 10
23.87958007593776
 20
36.83660872916949
 30
0.0
 40
0.4999999999999992
  1
BODY
 41
0.75
  7
TXT
100
AcDbText
  0
TEXT
  5
792
330
1E
100
AcDbEntity
  8
TEXT
100
AcDbText
 10
23.26488545035095
 20
37.66994206250283
 30
0.0
 40
0.4999999999999992
  1
%%UFINISH:
 41
0.75
  7
TXT
100
AcDbText
  0
LINE
  5
793
330
1E
100
AcDbEntity
  8
TEXT
100
AcDbLine
 10
8.130768134382414
 20
36.84172723172034
 30
0.0
 11
10.616227069299
 21
36.84172723172034
 31
0.0
  0
TEXT
  5
794
330
1E
100
AcDbEntity
  8
TEXT
100
AcDbText
 10
10.86576919384113
 20
29.36033638046457
 30
0.0
 40
0.4999999999999992
  1
STAINLESS STEEL
 41
0.75
  7
TXT
100
AcDbText
  0
TEXT
  5
795
330
1E
100
AcDbEntity
  8
TEXT
100
AcDbText
 10
10.86576919384113
 20
30.19366971379795
 30
0.0
 40
0.4999999999999992
  1
NON-METALLIC
 41
0.75
  7
TXT
100
AcDbText
  0
TEXT
  5
796
330
1E
100
AcDbEntity
  8
TEXT
100
AcDbText
 10
27.74581793663002
 20
36.83660872916949
 30
0.0
 40
0.4999999999999992
  1
LIGHT GRAY
 41
0.75
  7
TXT
100
AcDbText
  0
TEXT
  5
797
330
1E
100
AcDbEntity
  8
TEXT
100
AcDbText
 10
0.7318789608926224
 20
37.66994206250283
 30
0.0
 40
0.4999999999999992
  1
%%UMATERIAL:
 41
0.75
  7
TXT
100
AcDbText
  0
TEXT
  5
799
330
1E
100
AcDbEntity
  8
TEXT
100
AcDbText
 10
10.86576919384112
 20
31.02379791892619
 30
0.0
 40
0.4999999999999992
  1
0.078 THICK ALUMINUM
 41
0.75
  7
TXT
100
AcDbText
  0
TEXT
  5
79A
330
1E
100
AcDbEntity
  8
TEXT
100
AcDbText
 10
23.87958007593778
 20
31.84088992737271
 30
0.0
 40
0.4999999999999992
  1
UNIT COMES COMPLETE WITH (4)
 41
0.75
  7
TXT
100
AcDbText
  0
TEXT
  5
79B
330
1E
100
AcDbEntity
  8
TEXT
100
AcDbText
 10
23.87958007593778
 20
31.00755659403937
 30
0.0
 40
0.4999999999999992
  1
WALL MOUNTING BRKTS. & (4)
 41
0.75
  7
TXT
100
AcDbText
  0
TEXT
  5
79C
330
1E
100
AcDbEntity
  8
TEXT
100
AcDbText
 10
48.02080773189024
 20
31.84624719557402
 30
0.0
 40
0.4999999999999992
  1
STEEL LOCKING HASP ARE NOT INCLUDED,
 41
0.75
  7
TXT
100
AcDbText
  0
LINE
  5
79D
330
1E
100
AcDbEntity
  8
TEXT
100
AcDbLine
 10
3.321563788998652
 20
31.02762466761765
 30
0.0
 11
10.616227069299
 21
31.02762466761763
 31
0.0
  0
TEXT
  5
79E
330
1E
100
AcDbEntity
  8
TEXT
100
AcDbText
 10
1.230963209976863
 20
31.02762466761765
 30
0.0
 40
0.4999999999999992
  1
PANEL
 41
0.75
  7
TXT
100
AcDbText
  0
TEXT
  5
79F
330
1E
100
AcDbEntity
  8
TEXT
100
AcDbText
 10
27.74581793663003
 20
35.16994206250283
 30
0.0
 40
0.4999999999999992
  1
ANODIZED
 41
0.75
  7
TXT
100
AcDbText
  0
LINE
  5
7A0
330
1E
100
AcDbEntity
  8
TEXT
100
AcDbLine
 10
25.93844324127793
 20
35.16994206250283
 30
0.0
 11
27.49627581208791
 21
35.16994206250283
 31
0.0
  0
TEXT
  5
7A1
330
1E
100
AcDbEntity
  8
TEXT
100
AcDbText
 10
23.87958007593776
 20
35.16994206250283
 30
0.0
 40
0.4999999999999992
  1
PANEL
 41
0.75
  7
TXT
100
AcDbText
  0
TEXT
  5
7A2
330
1E
100
AcDbEntity
  8
DIM
100
AcDbText
 10
33.22384431361556
 20
26.4128586220039
 30
0.0
 40
0.4978723404
  1
THREADED BRASS INSERT
 41
0.75
  7
TXT
 11
33.22384431361556
 21
26.6617947922039
 31
0.0
100
AcDbText
 73
     2
  0
TEXT
  5
7A3
330
1E
100
AcDbEntity
  8
DIM
100
AcDbText
 10
33.22384431361556
 20
25.6068033028963
 30
0.0
 40
0.4978723404
  1
(4) PLACES
 41
0.75
  7
TXT
 11
33.22384431361556
 21
25.8557394730963
 31
0.0
100
AcDbText
 73
     2
  0
TEXT
  5
7A4
330
1E
100
AcDbEntity
  8
DIM
100
AcDbText
 10
33.22384431361556
 20
27.2189139411115
 30
0.0
 40
0.4978723404
  1
WITH M5 x 0.8mm
 41
0.75
  7
TXT
 11
33.22384431361556
 21
27.4678501113115
 31
0.0
100
AcDbText
 73
     2
  0
TEXT
  5
7A5
330
1E
100
AcDbEntity
  8
DIM
100
AcDbText
 10
33.22384431361556
 20
28.05801058226421
 30
0.0
 40
0.4978723404
  1
0.725 [18] DIA. BOSS
 41
0.75
  7
TXT
 11
33.22384431361556
 21
28.30694675246421
 31
0.0
100
AcDbText
 73
     2
  0
LWPOLYLINE
  5
7A6
330
1E
100
AcDbEntity
  8
DIM
100
AcDbPolyline
 90
        4
 70
     0
 10
29.82193883898205
 20
24.22577380324815
 40
0.0
 41
0.27
 10
30.13496704727366
 20
24.87416669402794
 40
0.0
 41
0.0
 10
32.12784287186014
 20
28.30229204888784
 40
0.0
 41
0.0
 10
32.84784287186014
 20
28.30229204888784
 40
0.0
 41
0.0
  0
LWPOLYLINE
  5
7AC
330
1E
100
AcDbEntity
  8
DIM
100
AcDbPolyline
 90
        4
 70
     0
 10
19.91607984558147
 20
10.12764628050044
 40
0.0
 41
0.27
 10
19.65843462659177
 20
9.455322741471992
 40
0.0
 41
0.0
 10
19.06243864855204
 20
7.90007507658743
 40
0.0
 41
0.0
 10
18.34243864855204
 20
7.90007507658743
 40
0.0
 41
0.0
  0
TEXT
  5
7B2
330
1E
100
AcDbEntity
  8
DIM
100
AcDbText
 10
10.37388401569661
 20
6.010641649703487
 30
0.0
 40
0.4978723404
  1
THREADED BRASS INSERT
 41
0.75
  7
TXT
 72
     2
 11
17.96643720679662
 21
6.259577819903487
 31
0.0
100
AcDbText
 73
     2
  0
TEXT
  5
7B3
330
1E
100
AcDbEntity
  8
DIM
100
AcDbText
 10
12.80101167514661
 20
6.816696968811086
 30
0.0
 40
0.4978723404
  1
WITH M5 x 0.8mm
 41
0.75
  7
TXT
 72
     2
 11
17.96643720679662
 21
7.065633139011087
 31
0.0
100
AcDbText
 73
     2
  0
TEXT
  5
7B4
330
1E
100
AcDbEntity
  8
DIM
100
AcDbText
 10
11.68079890924661
 20
7.655793609963794
 30
0.0
 40
0.4978723404
  1
0.575 [15] DIA. BOSS
 41
0.75
  7
TXT
 72
     2
 11
17.96643720679662
 21
7.904729780163794
 31
0.0
100
AcDbText
 73
     2
  0
TEXT
  5
7B5
330
1E
100
AcDbEntity
  8
DIM
100
AcDbText
 10
10.87175635609661
 20
5.204586330595887
 30
0.0
 40
0.4978723404
  1
(4) PLACES (FAR SIDE)
 41
0.75
  7
TXT
 72
     2
 11
17.96643720679662
 21
5.453522500795887
 31
0.0
100
AcDbText
 73
     2
  0
TEXT
  5
7B6
330
1E
100
AcDbEntity
  8
DIM
100
AcDbText
 10
58.7089721199558
 20
10.4809387490612
 30
0.0
 40
0.4679999998128
  1
(INSIDE)
 41
0.75
  7
TXT
 72
     4
 11
59.8204721195112
 21
10.7149387489676
 31
0.0
100
AcDbText
  0
TEXT
  5
7B7
330
1E
100
AcDbEntity
  8
TEXT
100
AcDbText
 10
10.86576919384112
 20
32.69553457525705
 30
0.0
 40
0.4999999999999992
  1
UV STABILIZED
 41
0.75
  7
TXT
100
AcDbText
  0
TEXT
  5
926
330
1E
100
AcDbEntity
  8
TEXT
100
AcDbText
 10
23.87958007593778
 20
32.9906120094715
 30
0.0
 40
0.4999999999999992
  1
  URETHANE GASKET.
 41
0.75
  7
TXT
100
AcDbText
  0
TEXT
  5
93D
330
1E
100
AcDbEntity
  8
TEXT
100
AcDbText
 10
56.98383779261465
 20
-0.6002504952607817
 30
0.0
 40
0.4639999998144001
  1
Revised 26JUN07
 41
0.75
  7
TXT
 72
     1
 11
59.39083779165185
 21
-0.6002504952607817
 31
0.0
100
AcDbText
  0
ENDSEC
  0
SECTION
  2
OBJECTS
  0
DICTIONARY
  5
C
330
0
100
AcDbDictionary
281
     1
  3
ACAD_GROUP
350
D
  3
ACAD_LAYOUT
350
19
  3
ACAD_MLINESTYLE
350
16
  3
ACAD_PLOTSETTINGS
350
18
  3
ACAD_PLOTSTYLENAME
350
E
  0
DICTIONARY
  5
D
102
{ACAD_REACTORS
330
C
102
}
330
C
100
AcDbDictionary
281
     1
  0
DICTIONARY
  5
19
102
{ACAD_REACTORS
330
C
102
}
330
C
100
AcDbDictionary
281
     1
  3
Layout1
350
1D
  3
Model
350
21
  0
DICTIONARY
  5
16
102
{ACAD_REACTORS
330
C
102
}
330
C
100
AcDbDictionary
281
     1
  3
Standard
350
17
  0
DICTIONARY
  5
18
102
{ACAD_REACTORS
330
C
102
}
330
C
100
AcDbDictionary
281
     1
  0
ACDBDICTIONARYWDFLT
  5
E
102
{ACAD_REACTORS
330
C
102
}
330
C
100
AcDbDictionary
281
     1
  3
Normal
350
F
100
AcDbDictionaryWithDefault
340
F
  0
LAYOUT
  5
1D
102
{ACAD_REACTORS
330
19
102
}
330
19
100
AcDbPlotSettings
  1

  2
None
  4

  6

 40
0.0
 41
0.0
 42
0.0
 43
0.0
 44
0.0
 45
0.0
 46
0.0
 47
0.0
 48
0.0
 49
0.0
140
0.0
141
0.0
142
1.0
143
1.0
 70
   688
 72
     0
 73
     0
 74
     5
  7
monochrome.ctb
 75
    16
147
1.0
148
0.0
149
0.0
100
AcDbLayout
  1
Layout1
 70
     1
 71
     1
 10
0.0
 20
0.0
 11
12.0
 21
9.0
 12
0.0
 22
0.0
 32
0.0
 14
1.000000000000000E+20
 24
1.000000000000000E+20
 34
1.000000000000000E+20
 15
-1.000000000000000E+20
 25
-1.000000000000000E+20
 35
-1.000000000000000E+20
146
0.0
 13
0.0
 23
0.0
 33
0.0
 16
1.0
 26
0.0
 36
0.0
 17
0.0
 27
1.0
 37
0.0
 76
     0
330
1A
  0
LAYOUT
  5
21
102
{ACAD_REACTORS
330
19
102
}
330
19
100
AcDbPlotSettings
  1

  2
RICOH Aficio 1060 PCL 6
  4
Letter
  6

 40
5.027083396911621
 41
5.027085304260253
 42
5.027084350585937
 43
5.027069091796875
 44
215.8999938964843
 45
279.3999938964843
 46
14.98599999999999
 47
0.0
 48
0.0
 49
0.0
140
0.0
141
0.0
142
1.0
143
5.847115073636308
 70
 11956
 72
     0
 73
     1
 74
     1
  7
monochrome.ctb
 75
     0
147
0.1710245116448687
148
0.0480554154702219
149
0.0313755357779627
100
AcDbLayout
  1
Model
 70
     1
 71
     0
 10
0.0
 20
0.0
 11
12.0
 21
9.0
 12
0.0
 22
0.0
 32
0.0
 14
0.0
 24
0.0
 34
0.0
 15
0.0
 25
0.0
 35
0.0
146
0.0
 13
0.0
 23
0.0
 33
0.0
 16
1.0
 26
0.0
 36
0.0
 17
0.0
 27
1.0
 37
0.0
 76
     0
330
1E
  0
MLINESTYLE
  5
17
102
{ACAD_REACTORS
330
16
102
}
330
16
100
AcDbMlineStyle
  2
STANDARD
 70
     0
  3

 62
   256
 51
90.0
 52
90.0
 71
     2
 49
0.5
 62
   256
  6
BYLAYER
 49
-0.5
 62
   256
  6
BYLAYER
  0
ACDBPLACEHOLDER
  5
F
102
{ACAD_REACTORS
330
E
102
}
330
E
  0
ENDSEC
  0
EOF
