  0
SECTION
  2
HEADER
  9
$ACADVER
  1
AC1009
  9
$INSBASE
 10
0.0
 20
0.0
 30
0.0
  9
$EXTMIN
 10
0.0
 20
0.0
 30
0.0
  9
$EXTMAX
 10
31.0
 20
20.24
 30
0.0
  9
$LIMMIN
 10
0.0
 20
0.0
  9
$LIMMAX
 10
31.0
 20
20.24
  9
$ORTHOMODE
 70
     1
  9
$REGENMODE
 70
     1
  9
$FILLMODE
 70
     1
  9
$QTEXTMODE
 70
     0
  9
$MIRRTEXT
 70
     0
  9
$DRAGMODE
 70
     2
  9
$LTSCALE
 40
0.625
  9
$OSMODE
 70
     0
  9
$ATTMODE
 70
     1
  9
$TEXTSIZE
 40
0.25
  9
$TRACEWID
 40
0.05
  9
$TEXTSTYLE
  7
TXT
  9
$CLAYER
  8
OBJECT
  9
$CELTYPE
  6
BYLAYER
  9
$CECOLOR
 62
   256
  9
$DIMSCALE
 40
2.0
  9
$DIMASZ
 40
0.18
  9
$DIMEXO
 40
0.063
  9
$DIMDLI
 40
0.281
  9
$DIMRND
 40
0.0
  9
$DIMDLE
 40
0.0
  9
$DIMEXE
 40
0.093
  9
$DIMTP
 40
0.0
  9
$DIMTM
 40
0.0
  9
$DIMTXT
 40
0.125
  9
$DIMCEN
 40
0.09
  9
$DIMTSZ
 40
0.0
  9
$DIMTOL
 70
     0
  9
$DIMLIM
 70
     0
  9
$DIMTIH
 70
     1
  9
$DIMTOH
 70
     1
  9
$DIMSE1
 70
     0
  9
$DIMSE2
 70
     0
  9
$DIMTAD
 70
     0
  9
$DIMZIN
 70
     0
  9
$DIMBLK
  1

  9
$DIMASO
 70
     1
  9
$DIMSHO
 70
     1
  9
$DIMPOST
  1

  9
$DIMAPOST
  1

  9
$DIMALT
 70
     0
  9
$DIMALTD
 70
     2
  9
$DIMALTF
 40
25.4
  9
$DIMLFAC
 40
1.0
  9
$DIMTOFL
 70
     0
  9
$DIMTVP
 40
0.0
  9
$DIMTIX
 70
     0
  9
$DIMSOXD
 70
     0
  9
$DIMSAH
 70
     0
  9
$DIMBLK1
  1

  9
$DIMBLK2
  1

  9
$DIMSTYLE
  2
23NSTD
  9
$DIMCLRD
 70
     0
  9
$DIMCLRE
 70
     0
  9
$DIMCLRT
 70
     0
  9
$DIMTFAC
 40
1.0
  9
$DIMGAP
 40
0.09
  9
$LUNITS
 70
     2
  9
$LUPREC
 70
     3
  9
$SKETCHINC
 40
0.1
  9
$FILLETRAD
 40
0.287
  9
$AUNITS
 70
     0
  9
$AUPREC
 70
     0
  9
$MENU
  1
acad
  9
$ELEVATION
 40
0.0
  9
$PELEVATION
 40
0.0
  9
$THICKNESS
 40
0.0
  9
$LIMCHECK
 70
     0
  9
$BLIPMODE
 70
     1
  9
$CHAMFERA
 40
0.0
  9
$CHAMFERB
 40
0.0
  9
$SKPOLY
 70
     0
  9
$TDCREATE
 40
2449889.436332176
  9
$TDUPDATE
 40
2450161.324029861
  9
$TDINDWG
 40
0.1163674769
  9
$TDUSRTIMER
 40
0.1163674769
  9
$USRTIMER
 70
     1
  9
$ANGBASE
 50
0.0
  9
$ANGDIR
 70
     0
  9
$PDMODE
 70
     0
  9
$PDSIZE
 40
0.0
  9
$PLINEWID
 40
0.0
  9
$COORDS
 70
     0
  9
$SPLFRAME
 70
     0
  9
$SPLINETYPE
 70
     6
  9
$SPLINESEGS
 70
     8
  9
$ATTDIA
 70
     1
  9
$ATTREQ
 70
     1
  9
$HANDLING
 70
     0
  9
$HANDSEED
  5
0
  9
$SURFTAB1
 70
     6
  9
$SURFTAB2
 70
     6
  9
$SURFTYPE
 70
     6
  9
$SURFU
 70
     6
  9
$SURFV
 70
     6
  9
$UCSNAME
  2

  9
$UCSORG
 10
0.0
 20
0.0
 30
0.0
  9
$UCSXDIR
 10
1.0
 20
0.0
 30
0.0
  9
$UCSYDIR
 10
0.0
 20
1.0
 30
0.0
  9
$PUCSNAME
  2

  9
$PUCSORG
 10
0.0
 20
0.0
 30
0.0
  9
$PUCSXDIR
 10
1.0
 20
0.0
 30
0.0
  9
$PUCSYDIR
 10
0.0
 20
1.0
 30
0.0
  9
$USERI1
 70
     0
  9
$USERI2
 70
     0
  9
$USERI3
 70
     0
  9
$USERI4
 70
     0
  9
$USERI5
 70
     0
  9
$USERR1
 40
0.0
  9
$USERR2
 40
0.0
  9
$USERR3
 40
0.0
  9
$USERR4
 40
0.0
  9
$USERR5
 40
0.0
  9
$WORLDVIEW
 70
     1
  9
$SHADEDGE
 70
     3
  9
$SHADEDIF
 70
    70
  9
$TILEMODE
 70
     1
  9
$MAXACTVP
 70
    16
  9
$PINSBASE
 10
0.0
 20
0.0
 30
0.0
  9
$PLIMCHECK
 70
     0
  9
$PEXTMIN
 10
1.000000E+20
 20
1.000000E+20
 30
1.000000E+20
  9
$PEXTMAX
 10
-1.000000E+20
 20
-1.000000E+20
 30
-1.000000E+20
  9
$PLIMMIN
 10
0.0
 20
0.0
  9
$PLIMMAX
 10
12.0
 20
9.0
  9
$UNITMODE
 70
     0
  9
$VISRETAIN
 70
     0
  9
$PLINEGEN
 70
     0
  9
$PSLTSCALE
 70
     1
  9
$TREEDEPTH
 70
  3020
  9
$DWGCODEPAGE
  3
ascii
  0
ENDSEC
  0
SECTION
  2
TABLES
  0
TABLE
  2
VPORT
 70
     2
  0
VPORT
  2
*ACTIVE
 70
     0
 10
0.0
 20
0.0
 11
1.0
 21
1.0
 12
15.5
 22
11.377487
 13
0.0
 23
0.0
 14
1.0
 24
1.0
 15
0.0
 25
0.0
 16
0.0
 26
0.0
 36
1.0
 17
0.0
 27
0.0
 37
0.0
 40
22.754974
 41
1.36234
 42
50.0
 43
0.0
 44
0.0
 50
0.0
 51
0.0
 71
     0
 72
   100
 73
     1
 74
     0
 75
     0
 76
     0
 77
     0
 78
     0
  0
ENDTAB
  0
TABLE
  2
LTYPE
 70
     4
  0
LTYPE
  2
CONTINUOUS
 70
    64
  3
Solid line
 72
    65
 73
     0
 40
0.0
  0
LTYPE
  2
HIDDEN
 70
    64
  3
_ _ _ _ _ _ _ _ _ _ _ _ _ _ _ _ _ _ _ _ _ _ _
 72
    65
 73
     2
 40
0.375
 49
0.25
 49
-0.125
  0
LTYPE
  2
PHANTOM
 70
    64
  3
_____ _ _ _____ _ _ _____ _ _ _____ _ _ ____
 72
    65
 73
     6
 40
2.5
 49
1.25
 49
-0.25
 49
0.25
 49
-0.25
 49
0.25
 49
-0.25
  0
LTYPE
  2
CENTER
 70
    64
  3
____ _ ____ _ ____ _ ____ _ ____ _ ____ _ ____
 72
    65
 73
     4
 40
2.0
 49
1.25
 49
-0.25
 49
0.25
 49
-0.25
  0
ENDTAB
  0
TABLE
  2
LAYER
 70
     9
  0
LAYER
  2
0
 70
    64
 62
     7
  6
CONTINUOUS
  0
LAYER
  2
DEFPOINTS
 70
    64
 62
     7
  6
CONTINUOUS
  0
LAYER
  2
OBJECT
 70
    64
 62
     7
  6
CONTINUOUS
  0
LAYER
  2
DIM
 70
    64
 62
     7
  6
CONTINUOUS
  0
LAYER
  2
HIDDEN
 70
    64
 62
     7
  6
HIDDEN
  0
LAYER
  2
BEND
 70
    64
 62
     7
  6
PHANTOM
  0
LAYER
  2
TEXT
 70
    64
 62
     7
  6
CONTINUOUS
  0
LAYER
  2
TITLE
 70
    64
 62
     7
  6
CONTINUOUS
  0
LAYER
  2
CENTER
 70
    64
 62
     7
  6
CENTER
  0
ENDTAB
  0
TABLE
  2
STYLE
 70
     2
  0
STYLE
  2
STANDARD
 70
    64
 40
0.0
 41
1.0
 50
0.0
 71
     0
 42
0.2
  3
txt
  4

  0
STYLE
  2
TXT
 70
    64
 40
0.0
 41
0.75
 50
0.0
 71
     0
 42
0.25
  3
txt
  4

  0
ENDTAB
  0
TABLE
  2
VIEW
 70
     0
  0
ENDTAB
  0
TABLE
  2
UCS
 70
     0
  0
ENDTAB
  0
TABLE
  2
APPID
 70
     1
  0
APPID
  2
ACAD
 70
    64
  0
ENDTAB
  0
TABLE
  2
DIMSTYLE
 70
     2
  0
DIMSTYLE
  2
23NSTD
 70
    64
  3

  4

  5

  6

  7

 40
2.0
 41
0.18
 42
0.063
 43
0.281
 44
0.093
 45
0.0
 46
0.0
 47
0.0
 48
0.0
140
0.125
141
0.09
142
0.0
143
25.4
144
1.0
145
0.0
146
1.0
147
0.09
 71
     0
 72
     0
 73
     1
 74
     1
 75
     0
 76
     0
 77
     0
 78
     0
170
     0
171
     2
172
     0
173
     0
174
     0
175
     0
176
     0
177
     0
178
     0
  0
DIMSTYLE
  2
23NSTDI
 70
    64
  3

  4

  5

  6

  7

 40
2.0
 41
0.18
 42
0.063
 43
0.281
 44
0.093
 45
0.0
 46
0.0
 47
0.0
 48
0.0
140
0.125
141
0.09
142
0.0
143
25.4
144
1.0
145
0.0
146
1.0
147
0.09
 71
     0
 72
     0
 73
     1
 74
     1
 75
     0
 76
     0
 77
     0
 78
     0
170
     0
171
     2
172
     0
173
     0
174
     1
175
     0
176
     0
177
     0
178
     0
  0
ENDTAB
  0
ENDSEC
  0
SECTION
  2
BLOCKS
  0
BLOCK
  8
0
  2
HBS
 70
    64
 10
0.0
 20
0.0
 30
0.0
  3
HBS
  0
LINE
  8
TITLE
 10
0.062
 20
9.64
 30
0.0
 11
15.438
 21
9.64
 31
0.0
  0
POLYLINE
  8
TITLE
 66
     1
 10
0.0
 20
0.0
 30
0.0
 70
     1
  0
VERTEX
  8
TITLE
 10
15.5
 20
10.12
 30
0.0
  0
VERTEX
  8
TITLE
 10
15.5
 20
0.0
 30
0.0
  0
VERTEX
  8
TITLE
 10
0.0
 20
0.0
 30
0.0
  0
VERTEX
  8
TITLE
 10
0.0
 20
10.12
 30
0.0
  0
SEQEND
  8
TITLE
  0
POLYLINE
  8
TITLE
 66
     1
 10
0.0
 20
0.0
 30
0.0
 70
     1
  0
VERTEX
  8
TITLE
 10
15.438
 20
10.058
 30
0.0
  0
VERTEX
  8
TITLE
 10
15.438
 20
0.062
 30
0.0
  0
VERTEX
  8
TITLE
 10
0.062
 20
0.062
 30
0.0
  0
VERTEX
  8
TITLE
 10
0.062
 20
10.058
 30
0.0
  0
SEQEND
  8
TITLE
  0
TEXT
  8
TEXT
 10
0.207833
 20
9.680079
 30
0.0
 40
0.125
  1
NAME
 72
     1
 11
0.437
 21
9.680079
 31
0.0
  0
TEXT
  8
TEXT
 10
0.207833
 20
9.888413
 30
0.0
 40
0.125
  1
PART
 72
     1
 11
0.437
 21
9.888413
 31
0.0
  0
LINE
  8
TITLE
 10
0.812
 20
9.64
 30
0.0
 11
0.812
 21
10.058
 31
0.0
  0
TEXT
  8
TEXT
 10
7.926833
 20
9.888413
 30
0.0
 40
0.125
  1
PART
 72
     1
 11
8.156
 21
9.888413
 31
0.0
  0
TEXT
  8
TEXT
 10
8.031
 20
9.680079
 30
0.0
 40
0.125
  1
No.
 72
     1
 11
8.156
 21
9.680079
 31
0.0
  0
LINE
  8
TITLE
 10
7.781
 20
10.058
 30
0.0
 11
7.781
 21
9.64
 31
0.0
  0
LINE
  8
TITLE
 10
7.719
 20
10.058
 30
0.0
 11
7.719
 21
9.64
 31
0.0
  0
LINE
  8
TITLE
 10
8.531
 20
10.058
 30
0.0
 11
8.531
 21
9.64
 31
0.0
  0
ENDBLK
  8
0
  0
BLOCK
  8
0
  2
*D1
 70
    65
 10
0.0
 20
0.0
 30
0.0
  3
*D
  0
LINE
  8
0
  6
BYBLOCK
 62
     0
 10
15.674061
 20
8.198343
 30
0.0
 11
14.722777
 21
8.198343
 31
0.0
  0
LINE
  8
0
  6
BYBLOCK
 62
     0
 10
15.674061
 20
6.598343
 30
0.0
 11
14.722777
 21
6.598343
 31
0.0
  0
LINE
  8
0
  6
BYBLOCK
 62
     0
 10
14.908777
 20
8.558343
 30
0.0
 11
14.908777
 21
8.918343
 31
0.0
  0
LINE
  8
0
  6
BYBLOCK
 62
     0
 10
14.908777
 20
6.238343
 30
0.0
 11
14.908777
 21
5.878343
 31
0.0
  0
SOLID
  8
0
  6
BYBLOCK
 62
     0
 10
14.848777
 20
8.558343
 30
0.0
 11
14.968777
 21
8.558343
 31
0.0
 12
14.908777
 22
8.198343
 32
0.0
 13
14.908777
 23
8.198343
 33
0.0
  0
SOLID
  8
0
  6
BYBLOCK
 62
     0
 10
14.848777
 20
6.238343
 30
0.0
 11
14.968777
 21
6.238343
 31
0.0
 12
14.908777
 22
6.598343
 32
0.0
 13
14.908777
 23
6.598343
 33
0.0
  0
TEXT
  8
0
  6
BYBLOCK
 62
     0
 10
14.596277
 20
7.273343
 30
0.0
 40
0.25
  1
1.600
 41
0.75
  7
TXT
 72
     1
 11
14.908777
 21
7.398343
 31
0.0
 73
     2
  0
POINT
  8
DEFPOINTS
  6
BYBLOCK
 62
     0
 10
15.800061
 20
8.198343
 30
0.0
  0
POINT
  8
DEFPOINTS
  6
BYBLOCK
 62
     0
 10
15.800061
 20
6.598343
 30
0.0
  0
POINT
  8
DEFPOINTS
  6
BYBLOCK
 62
     0
 10
14.908777
 20
6.598343
 30
0.0
  0
ENDBLK
  8
0
  0
BLOCK
  8
0
  2
*D2
 70
    65
 10
0.0
 20
0.0
 30
0.0
  3
*D
  0
LINE
  8
0
  6
BYBLOCK
 62
     0
 10
23.692061
 20
6.523343
 30
0.0
 11
24.955561
 21
6.523343
 31
0.0
  0
LINE
  8
0
  6
BYBLOCK
 62
     0
 10
24.054061
 20
7.382343
 30
0.0
 11
24.955561
 21
7.382343
 31
0.0
  0
LINE
  8
0
  6
BYBLOCK
 62
     0
 10
24.769561
 20
6.163343
 30
0.0
 11
24.769561
 21
5.803343
 31
0.0
  0
LINE
  8
0
  6
BYBLOCK
 62
     0
 10
24.769561
 20
7.742343
 30
0.0
 11
24.769561
 21
8.102343
 31
0.0
  0
SOLID
  8
0
  6
BYBLOCK
 62
     0
 10
24.709561
 20
6.163343
 30
0.0
 11
24.829561
 21
6.163343
 31
0.0
 12
24.769561
 22
6.523343
 32
0.0
 13
24.769561
 23
6.523343
 33
0.0
  0
SOLID
  8
0
  6
BYBLOCK
 62
     0
 10
24.709561
 20
7.742343
 30
0.0
 11
24.829561
 21
7.742343
 31
0.0
 12
24.769561
 22
7.382343
 32
0.0
 13
24.769561
 23
7.382343
 33
0.0
  0
TEXT
  8
0
  6
BYBLOCK
 62
     0
 10
24.410186
 20
6.827843
 30
0.0
 40
0.25
  1
0.859
 41
0.75
  7
TXT
 72
     1
 11
24.769561
 21
6.952843
 31
0.0
 73
     2
  0
POINT
  8
DEFPOINTS
  6
BYBLOCK
 62
     0
 10
23.566061
 20
6.523343
 30
0.0
  0
POINT
  8
DEFPOINTS
  6
BYBLOCK
 62
     0
 10
23.928061
 20
7.382343
 30
0.0
  0
POINT
  8
DEFPOINTS
  6
BYBLOCK
 62
     0
 10
24.769561
 20
7.382343
 30
0.0
  0
ENDBLK
  8
0
  0
BLOCK
  8
0
  2
*D3
 70
    65
 10
0.0
 20
0.0
 30
0.0
  3
*D
  0
LINE
  8
0
  6
BYBLOCK
 62
     0
 10
4.871265
 20
8.618227
 30
0.0
 11
3.712886
 21
8.618227
 31
0.0
  0
LINE
  8
0
  6
BYBLOCK
 62
     0
 10
4.871265
 20
6.868227
 30
0.0
 11
3.712886
 21
6.868227
 31
0.0
  0
LINE
  8
0
  6
BYBLOCK
 62
     0
 10
3.898886
 20
8.258227
 30
0.0
 11
3.898886
 21
8.048227
 31
0.0
  0
LINE
  8
0
  6
BYBLOCK
 62
     0
 10
3.898886
 20
7.228227
 30
0.0
 11
3.898886
 21
7.438227
 31
0.0
  0
SOLID
  8
0
  6
BYBLOCK
 62
     0
 10
3.838886
 20
8.258227
 30
0.0
 11
3.958886
 21
8.258227
 31
0.0
 12
3.898886
 22
8.618227
 32
0.0
 13
3.898886
 23
8.618227
 33
0.0
  0
SOLID
  8
0
  6
BYBLOCK
 62
     0
 10
3.838886
 20
7.228227
 30
0.0
 11
3.958886
 21
7.228227
 31
0.0
 12
3.898886
 22
6.868227
 32
0.0
 13
3.898886
 23
6.868227
 33
0.0
  0
TEXT
  8
0
  6
BYBLOCK
 62
     0
 10
3.570761
 20
7.618227
 30
0.0
 40
0.25
  1
1.750
 41
0.75
  7
TXT
 72
     1
 11
3.898886
 21
7.743227
 31
0.0
 73
     2
  0
POINT
  8
DEFPOINTS
  6
BYBLOCK
 62
     0
 10
4.997265
 20
8.618227
 30
0.0
  0
POINT
  8
DEFPOINTS
  6
BYBLOCK
 62
     0
 10
4.997265
 20
6.868227
 30
0.0
  0
POINT
  8
DEFPOINTS
  6
BYBLOCK
 62
     0
 10
3.898886
 20
6.868227
 30
0.0
  0
ENDBLK
  8
0
  0
BLOCK
  8
0
  2
*D4
 70
    65
 10
0.0
 20
0.0
 30
0.0
  3
*D
  0
LINE
  8
0
  6
BYBLOCK
 62
     0
 10
12.899265
 20
8.518227
 30
0.0
 11
14.057644
 21
8.518227
 31
0.0
  0
LINE
  8
0
  6
BYBLOCK
 62
     0
 10
12.899265
 20
6.968227
 30
0.0
 11
14.057644
 21
6.968227
 31
0.0
  0
LINE
  8
0
  6
BYBLOCK
 62
     0
 10
13.871644
 20
8.878227
 30
0.0
 11
13.871644
 21
9.238227
 31
0.0
  0
LINE
  8
0
  6
BYBLOCK
 62
     0
 10
13.871644
 20
6.608227
 30
0.0
 11
13.871644
 21
6.248227
 31
0.0
  0
SOLID
  8
0
  6
BYBLOCK
 62
     0
 10
13.811644
 20
8.878227
 30
0.0
 11
13.931644
 21
8.878227
 31
0.0
 12
13.871644
 22
8.518227
 32
0.0
 13
13.871644
 23
8.518227
 33
0.0
  0
SOLID
  8
0
  6
BYBLOCK
 62
     0
 10
13.811644
 20
6.608227
 30
0.0
 11
13.931644
 21
6.608227
 31
0.0
 12
13.871644
 22
6.968227
 32
0.0
 13
13.871644
 23
6.968227
 33
0.0
  0
TEXT
  8
0
  6
BYBLOCK
 62
     0
 10
13.543519
 20
7.618227
 30
0.0
 40
0.25
  1
1.550
 41
0.75
  7
TXT
 72
     1
 11
13.871644
 21
7.743227
 31
0.0
 73
     2
  0
POINT
  8
DEFPOINTS
  6
BYBLOCK
 62
     0
 10
12.773265
 20
8.518227
 30
0.0
  0
POINT
  8
DEFPOINTS
  6
BYBLOCK
 62
     0
 10
12.773265
 20
6.968227
 30
0.0
  0
POINT
  8
DEFPOINTS
  6
BYBLOCK
 62
     0
 10
13.871644
 20
6.968227
 30
0.0
  0
ENDBLK
  8
0
  0
BLOCK
  8
0
  2
*X5
 70
    65
 10
0.0
 20
0.0
 30
0.0
  3
*X
  0
LINE
  8
0
 62
     0
 10
6.712072
 20
8.568227
 30
0.0
 11
6.762072
 21
8.618227
 31
0.0
  0
LINE
  8
0
 62
     0
 10
6.579489
 20
8.568227
 30
0.0
 11
6.629489
 21
8.618227
 31
0.0
  0
LINE
  8
0
 62
     0
 10
6.446907
 20
8.568227
 30
0.0
 11
6.496907
 21
8.618227
 31
0.0
  0
LINE
  8
0
 62
     0
 10
6.314324
 20
8.568227
 30
0.0
 11
6.364324
 21
8.618227
 31
0.0
  0
LINE
  8
0
 62
     0
 10
6.181742
 20
8.568227
 30
0.0
 11
6.231742
 21
8.618227
 31
0.0
  0
LINE
  8
0
 62
     0
 10
6.049159
 20
8.568227
 30
0.0
 11
6.099159
 21
8.618227
 31
0.0
  0
LINE
  8
0
 62
     0
 10
5.916577
 20
8.568227
 30
0.0
 11
5.966577
 21
8.618227
 31
0.0
  0
LINE
  8
0
 62
     0
 10
5.821237
 20
8.60547
 30
0.0
 11
5.833994
 21
8.618227
 31
0.0
  0
LINE
  8
0
 62
     0
 10
6.844654
 20
8.568227
 30
0.0
 11
6.894654
 21
8.618227
 31
0.0
  0
LINE
  8
0
 62
     0
 10
6.977237
 20
8.568227
 30
0.0
 11
7.027237
 21
8.618227
 31
0.0
  0
LINE
  8
0
 62
     0
 10
7.109819
 20
8.568227
 30
0.0
 11
7.159819
 21
8.618227
 31
0.0
  0
LINE
  8
0
 62
     0
 10
7.242402
 20
8.568227
 30
0.0
 11
7.292402
 21
8.618227
 31
0.0
  0
LINE
  8
0
 62
     0
 10
7.374985
 20
8.568227
 30
0.0
 11
7.424985
 21
8.618227
 31
0.0
  0
LINE
  8
0
 62
     0
 10
7.507567
 20
8.568227
 30
0.0
 11
7.557567
 21
8.618227
 31
0.0
  0
ENDBLK
  8
0
  0
BLOCK
  8
0
  2
*X6
 70
    65
 10
0.0
 20
0.0
 30
0.0
  3
*X
  0
LINE
  8
0
 62
     0
 10
6.735645
 20
6.868227
 30
0.0
 11
6.785645
 21
6.918227
 31
0.0
  0
LINE
  8
0
 62
     0
 10
6.603062
 20
6.868227
 30
0.0
 11
6.653062
 21
6.918227
 31
0.0
  0
LINE
  8
0
 62
     0
 10
6.47048
 20
6.868227
 30
0.0
 11
6.52048
 21
6.918227
 31
0.0
  0
LINE
  8
0
 62
     0
 10
6.337897
 20
6.868227
 30
0.0
 11
6.387897
 21
6.918227
 31
0.0
  0
LINE
  8
0
 62
     0
 10
6.205315
 20
6.868227
 30
0.0
 11
6.255315
 21
6.918227
 31
0.0
  0
LINE
  8
0
 62
     0
 10
6.072732
 20
6.868227
 30
0.0
 11
6.122732
 21
6.918227
 31
0.0
  0
LINE
  8
0
 62
     0
 10
5.94015
 20
6.868227
 30
0.0
 11
5.99015
 21
6.918227
 31
0.0
  0
LINE
  8
0
 62
     0
 10
6.868227
 20
6.868227
 30
0.0
 11
6.918227
 21
6.918227
 31
0.0
  0
LINE
  8
0
 62
     0
 10
7.00081
 20
6.868227
 30
0.0
 11
7.05081
 21
6.918227
 31
0.0
  0
LINE
  8
0
 62
     0
 10
7.133392
 20
6.868227
 30
0.0
 11
7.183392
 21
6.918227
 31
0.0
  0
LINE
  8
0
 62
     0
 10
7.265975
 20
6.868227
 30
0.0
 11
7.315975
 21
6.918227
 31
0.0
  0
LINE
  8
0
 62
     0
 10
7.398557
 20
6.868227
 30
0.0
 11
7.448557
 21
6.918227
 31
0.0
  0
LINE
  8
0
 62
     0
 10
7.53114
 20
6.868227
 30
0.0
 11
7.58114
 21
6.918227
 31
0.0
  0
ENDBLK
  8
0
  0
BLOCK
  8
0
  2
*D7
 70
    65
 10
0.0
 20
0.0
 30
0.0
  3
*D
  0
LINE
  8
0
  6
BYBLOCK
 62
     0
 10
6.844917
 20
6.918227
 30
0.0
 11
7.145699
 21
6.918227
 31
0.0
  0
LINE
  8
0
  6
BYBLOCK
 62
     0
 10
6.844917
 20
8.568227
 30
0.0
 11
7.145699
 21
8.568227
 31
0.0
  0
LINE
  8
0
  6
BYBLOCK
 62
     0
 10
6.959699
 20
6.558227
 30
0.0
 11
6.959699
 21
6.198227
 31
0.0
  0
LINE
  8
0
  6
BYBLOCK
 62
     0
 10
6.959699
 20
8.928227
 30
0.0
 11
6.959699
 21
9.288227
 31
0.0
  0
SOLID
  8
0
  6
BYBLOCK
 62
     0
 10
6.899699
 20
6.558227
 30
0.0
 11
7.019699
 21
6.558227
 31
0.0
 12
6.959699
 22
6.918227
 32
0.0
 13
6.959699
 23
6.918227
 33
0.0
  0
SOLID
  8
0
  6
BYBLOCK
 62
     0
 10
6.899699
 20
8.928227
 30
0.0
 11
7.019699
 21
8.928227
 31
0.0
 12
6.959699
 22
8.568227
 32
0.0
 13
6.959699
 23
8.568227
 33
0.0
  0
TEXT
  8
0
  6
BYBLOCK
 62
     0
 10
6.631574
 20
7.618227
 30
0.0
 40
0.25
  1
1.650
 41
0.75
  7
TXT
 72
     1
 11
6.959699
 21
7.743227
 31
0.0
 73
     2
  0
POINT
  8
DEFPOINTS
  6
BYBLOCK
 62
     0
 10
6.718917
 20
6.918227
 30
0.0
  0
POINT
  8
DEFPOINTS
  6
BYBLOCK
 62
     0
 10
6.718917
 20
8.568227
 30
0.0
  0
POINT
  8
DEFPOINTS
  6
BYBLOCK
 62
     0
 10
6.959699
 20
8.568227
 30
0.0
  0
ENDBLK
  8
0
  0
BLOCK
  8
0
  2
*D8
 70
    65
 10
0.0
 20
0.0
 30
0.0
  3
*D
  0
LINE
  8
0
  6
BYBLOCK
 62
     0
 10
4.635265
 20
10.8018
 30
0.0
 11
4.635265
 21
10.214363
 31
0.0
  0
LINE
  8
0
  6
BYBLOCK
 62
     0
 10
13.135265
 20
10.8018
 30
0.0
 11
13.135265
 21
10.214363
 31
0.0
  0
LINE
  8
0
  6
BYBLOCK
 62
     0
 10
4.995265
 20
10.400363
 30
0.0
 11
8.642765
 21
10.400363
 31
0.0
  0
LINE
  8
0
  6
BYBLOCK
 62
     0
 10
12.775265
 20
10.400363
 30
0.0
 11
9.127765
 21
10.400363
 31
0.0
  0
SOLID
  8
0
  6
BYBLOCK
 62
     0
 10
4.995265
 20
10.460363
 30
0.0
 11
4.995265
 21
10.340363
 31
0.0
 12
4.635265
 22
10.400363
 32
0.0
 13
4.635265
 23
10.400363
 33
0.0
  0
SOLID
  8
0
  6
BYBLOCK
 62
     0
 10
12.775265
 20
10.460363
 30
0.0
 11
12.775265
 21
10.340363
 31
0.0
 12
13.135265
 22
10.400363
 32
0.0
 13
13.135265
 23
10.400363
 33
0.0
  0
TEXT
  8
0
  6
BYBLOCK
 62
     0
 10
8.822765
 20
10.275363
 30
0.0
 40
0.25
  1
A
 41
0.75
  7
TXT
 72
     1
 11
8.885265
 21
10.400363
 31
0.0
 73
     2
  0
POINT
  8
DEFPOINTS
  6
BYBLOCK
 62
     0
 10
4.635265
 20
10.9278
 30
0.0
  0
POINT
  8
DEFPOINTS
  6
BYBLOCK
 62
     0
 10
13.135265
 20
10.9278
 30
0.0
  0
POINT
  8
DEFPOINTS
  6
BYBLOCK
 62
     0
 10
13.135265
 20
10.400363
 30
0.0
  0
ENDBLK
  8
0
  0
BLOCK
  8
0
  2
*D9
 70
    65
 10
0.0
 20
0.0
 30
0.0
  3
*D
  0
LINE
  8
0
  6
BYBLOCK
 62
     0
 10
13.261265
 20
10.9278
 30
0.0
 11
14.057644
 21
10.9278
 31
0.0
  0
LINE
  8
0
  6
BYBLOCK
 62
     0
 10
13.261265
 20
18.9278
 30
0.0
 11
14.057644
 21
18.9278
 31
0.0
  0
LINE
  8
0
  6
BYBLOCK
 62
     0
 10
13.871644
 20
11.2878
 30
0.0
 11
13.871644
 21
14.6228
 31
0.0
  0
LINE
  8
0
  6
BYBLOCK
 62
     0
 10
13.871644
 20
18.5678
 30
0.0
 11
13.871644
 21
15.2328
 31
0.0
  0
SOLID
  8
0
  6
BYBLOCK
 62
     0
 10
13.811644
 20
11.2878
 30
0.0
 11
13.931644
 21
11.2878
 31
0.0
 12
13.871644
 22
10.9278
 32
0.0
 13
13.871644
 23
10.9278
 33
0.0
  0
SOLID
  8
0
  6
BYBLOCK
 62
     0
 10
13.811644
 20
18.5678
 30
0.0
 11
13.931644
 21
18.5678
 31
0.0
 12
13.871644
 22
18.9278
 32
0.0
 13
13.871644
 23
18.9278
 33
0.0
  0
TEXT
  8
0
  6
BYBLOCK
 62
     0
 10
13.809144
 20
14.8028
 30
0.0
 40
0.25
  1
B
 41
0.75
  7
TXT
 72
     1
 11
13.871644
 21
14.9278
 31
0.0
 73
     2
  0
POINT
  8
DEFPOINTS
  6
BYBLOCK
 62
     0
 10
13.135265
 20
10.9278
 30
0.0
  0
POINT
  8
DEFPOINTS
  6
BYBLOCK
 62
     0
 10
13.135265
 20
18.9278
 30
0.0
  0
POINT
  8
DEFPOINTS
  6
BYBLOCK
 62
     0
 10
13.871644
 20
18.9278
 30
0.0
  0
ENDBLK
  8
0
  0
BLOCK
  8
0
  2
*D10
 70
    65
 10
0.0
 20
0.0
 30
0.0
  3
*D
  0
LINE
  8
0
  6
BYBLOCK
 62
     0
 10
4.735265
 20
8.382227
 30
0.0
 11
4.735265
 21
9.322939
 31
0.0
  0
LINE
  8
0
  6
BYBLOCK
 62
     0
 10
13.035265
 20
8.382227
 30
0.0
 11
13.035265
 21
9.322939
 31
0.0
  0
LINE
  8
0
  6
BYBLOCK
 62
     0
 10
5.095265
 20
9.136939
 30
0.0
 11
8.642765
 21
9.136939
 31
0.0
  0
LINE
  8
0
  6
BYBLOCK
 62
     0
 10
12.675265
 20
9.136939
 30
0.0
 11
9.127765
 21
9.136939
 31
0.0
  0
SOLID
  8
0
  6
BYBLOCK
 62
     0
 10
5.095265
 20
9.196939
 30
0.0
 11
5.095265
 21
9.076939
 31
0.0
 12
4.735265
 22
9.136939
 32
0.0
 13
4.735265
 23
9.136939
 33
0.0
  0
SOLID
  8
0
  6
BYBLOCK
 62
     0
 10
12.675265
 20
9.196939
 30
0.0
 11
12.675265
 21
9.076939
 31
0.0
 12
13.035265
 22
9.136939
 32
0.0
 13
13.035265
 23
9.136939
 33
0.0
  0
TEXT
  8
0
  6
BYBLOCK
 62
     0
 10
8.822765
 20
9.011939
 30
0.0
 40
0.25
  1
C
 41
0.75
  7
TXT
 72
     1
 11
8.885265
 21
9.136939
 31
0.0
 73
     2
  0
POINT
  8
DEFPOINTS
  6
BYBLOCK
 62
     0
 10
4.735265
 20
8.256227
 30
0.0
  0
POINT
  8
DEFPOINTS
  6
BYBLOCK
 62
     0
 10
13.035265
 20
8.256227
 30
0.0
  0
POINT
  8
DEFPOINTS
  6
BYBLOCK
 62
     0
 10
13.035265
 20
9.136939
 30
0.0
  0
ENDBLK
  8
0
  0
BLOCK
  8
0
  2
*D11
 70
    65
 10
0.0
 20
0.0
 30
0.0
  3
*D
  0
LINE
  8
0
  6
BYBLOCK
 62
     0
 10
2.944787
 20
11.906994
 30
0.0
 11
3.363408
 21
11.906994
 31
0.0
  0
LINE
  8
0
  6
BYBLOCK
 62
     0
 10
2.944787
 20
12.156994
 30
0.0
 11
3.363408
 21
12.156994
 31
0.0
  0
LINE
  8
0
  6
BYBLOCK
 62
     0
 10
3.177408
 20
11.546994
 30
0.0
 11
3.177408
 21
11.186994
 31
0.0
  0
LINE
  8
0
  6
BYBLOCK
 62
     0
 10
3.177408
 20
12.516994
 30
0.0
 11
3.177408
 21
12.876994
 31
0.0
  0
LINE
  8
0
  6
BYBLOCK
 62
     0
 10
3.177408
 20
12.876994
 30
0.0
 11
3.537408
 21
12.876994
 31
0.0
  0
SOLID
  8
0
  6
BYBLOCK
 62
     0
 10
3.117408
 20
11.546994
 30
0.0
 11
3.237408
 21
11.546994
 31
0.0
 12
3.177408
 22
11.906994
 32
0.0
 13
3.177408
 23
11.906994
 33
0.0
  0
SOLID
  8
0
  6
BYBLOCK
 62
     0
 10
3.117408
 20
12.516994
 30
0.0
 11
3.237408
 21
12.516994
 31
0.0
 12
3.177408
 22
12.156994
 32
0.0
 13
3.177408
 23
12.156994
 33
0.0
  0
TEXT
  8
0
  6
BYBLOCK
 62
     0
 10
4.467408
 20
12.751994
 30
0.0
 40
0.25
  1
 TYP.
 41
0.75
  7
TXT
 72
     1
 11
4.842408
 21
12.876994
 31
0.0
 73
     2
  0
TEXT
  8
0
  6
BYBLOCK
 62
     0
 10
3.717408
 20
12.751994
 30
0.0
 40
0.25
  1
0.250
 41
0.75
  7
TXT
 72
     1
 11
4.061158
 21
12.876994
 31
0.0
 73
     2
  0
POINT
  8
DEFPOINTS
  6
BYBLOCK
 62
     0
 10
2.818787
 20
11.906994
 30
0.0
  0
POINT
  8
DEFPOINTS
  6
BYBLOCK
 62
     0
 10
2.818787
 20
12.156994
 30
0.0
  0
POINT
  8
DEFPOINTS
  6
BYBLOCK
 62
     0
 10
3.177408
 20
12.156994
 30
0.0
  0
ENDBLK
  8
0
  0
BLOCK
  8
0
  2
*D12
 70
    65
 10
0.0
 20
0.0
 30
0.0
  3
*D
  0
LINE
  8
0
  6
BYBLOCK
 62
     0
 10
15.924762
 20
5.984616
 30
0.0
 11
15.924762
 21
6.95692
 31
0.0
  0
LINE
  8
0
  6
BYBLOCK
 62
     0
 10
24.274762
 20
5.984616
 30
0.0
 11
24.274762
 21
6.95692
 31
0.0
  0
LINE
  8
0
  6
BYBLOCK
 62
     0
 10
16.284762
 20
6.77092
 30
0.0
 11
19.857262
 21
6.77092
 31
0.0
  0
LINE
  8
0
  6
BYBLOCK
 62
     0
 10
23.914762
 20
6.77092
 30
0.0
 11
20.342262
 21
6.77092
 31
0.0
  0
SOLID
  8
0
  6
BYBLOCK
 62
     0
 10
16.284762
 20
6.83092
 30
0.0
 11
16.284762
 21
6.71092
 31
0.0
 12
15.924762
 22
6.77092
 32
0.0
 13
15.924762
 23
6.77092
 33
0.0
  0
SOLID
  8
0
  6
BYBLOCK
 62
     0
 10
23.914762
 20
6.83092
 30
0.0
 11
23.914762
 21
6.71092
 31
0.0
 12
24.274762
 22
6.77092
 32
0.0
 13
24.274762
 23
6.77092
 33
0.0
  0
TEXT
  8
0
  6
BYBLOCK
 62
     0
 10
20.037262
 20
6.64592
 30
0.0
 40
0.25
  1
D
 41
0.75
  7
TXT
 72
     1
 11
20.099762
 21
6.77092
 31
0.0
 73
     2
  0
POINT
  8
DEFPOINTS
  6
BYBLOCK
 62
     0
 10
15.924762
 20
5.858616
 30
0.0
  0
POINT
  8
DEFPOINTS
  6
BYBLOCK
 62
     0
 10
24.274762
 20
5.858616
 30
0.0
  0
POINT
  8
DEFPOINTS
  6
BYBLOCK
 62
     0
 10
24.274762
 20
6.77092
 30
0.0
  0
ENDBLK
  8
0
  0
BLOCK
  8
0
  2
*D13
 70
    65
 10
0.0
 20
0.0
 30
0.0
  3
*D
  0
LINE
  8
0
  6
BYBLOCK
 62
     0
 10
25.56831
 20
9.030189
 30
0.0
 11
25.13249
 21
9.030189
 31
0.0
  0
LINE
  8
0
  6
BYBLOCK
 62
     0
 10
25.56831
 20
16.030189
 30
0.0
 11
25.13249
 21
16.030189
 31
0.0
  0
LINE
  8
0
  6
BYBLOCK
 62
     0
 10
25.31849
 20
9.390189
 30
0.0
 11
25.31849
 21
12.225189
 31
0.0
  0
LINE
  8
0
  6
BYBLOCK
 62
     0
 10
25.31849
 20
15.670189
 30
0.0
 11
25.31849
 21
12.835189
 31
0.0
  0
SOLID
  8
0
  6
BYBLOCK
 62
     0
 10
25.25849
 20
9.390189
 30
0.0
 11
25.37849
 21
9.390189
 31
0.0
 12
25.31849
 22
9.030189
 32
0.0
 13
25.31849
 23
9.030189
 33
0.0
  0
SOLID
  8
0
  6
BYBLOCK
 62
     0
 10
25.25849
 20
15.670189
 30
0.0
 11
25.37849
 21
15.670189
 31
0.0
 12
25.31849
 22
16.030189
 32
0.0
 13
25.31849
 23
16.030189
 33
0.0
  0
TEXT
  8
0
  6
BYBLOCK
 62
     0
 10
25.25599
 20
12.405189
 30
0.0
 40
0.25
  1
E
 41
0.75
  7
TXT
 72
     1
 11
25.31849
 21
12.530189
 31
0.0
 73
     2
  0
POINT
  8
DEFPOINTS
  6
BYBLOCK
 62
     0
 10
25.69431
 20
9.030189
 30
0.0
  0
POINT
  8
DEFPOINTS
  6
BYBLOCK
 62
     0
 10
25.69431
 20
16.030189
 30
0.0
  0
POINT
  8
DEFPOINTS
  6
BYBLOCK
 62
     0
 10
25.31849
 20
16.030189
 30
0.0
  0
ENDBLK
  8
0
  0
ENDSEC
  0
SECTION
  2
ENTITIES
  0
LINE
  8
HIDDEN
 62
     7
 10
27.26931
 20
8.580189
 30
0.0
 11
27.26931
 21
8.905189
 31
0.0
  0
LINE
  8
HIDDEN
 62
     7
 10
26.51031
 20
8.905189
 30
0.0
 11
27.31931
 21
8.905189
 31
0.0
  0
LINE
  8
HIDDEN
 62
     7
 10
27.31931
 20
16.480189
 30
0.0
 11
27.31931
 21
8.580189
 31
0.0
  0
LINE
  8
HIDDEN
 62
     7
 10
26.51031
 20
16.155189
 30
0.0
 11
27.31931
 21
16.155189
 31
0.0
  0
LINE
  8
HIDDEN
 62
     7
 10
27.26931
 20
16.480189
 30
0.0
 11
27.26931
 21
16.155189
 31
0.0
  0
LINE
  8
OBJECT
 62
     7
 10
26.16031
 20
9.801189
 30
0.0
 11
26.16031
 21
15.259189
 31
0.0
  0
LINE
  8
OBJECT
 62
     7
 10
26.51031
 20
8.530189
 30
0.0
 11
26.51031
 21
16.530189
 31
0.0
  0
LINE
  8
OBJECT
 62
     7
 10
26.56031
 20
9.801189
 30
0.0
 11
26.16031
 21
9.801189
 31
0.0
  0
CIRCLE
  8
OBJECT
 62
     7
 10
26.34731
 20
10.171189
 30
0.0
 40
0.1015
  0
CIRCLE
  8
OBJECT
 62
     7
 10
26.34731
 20
14.889189
 30
0.0
 40
0.1015
  0
LINE
  8
OBJECT
 62
     7
 10
26.16031
 20
15.259189
 30
0.0
 11
26.56031
 21
15.259189
 31
0.0
  0
LINE
  8
OBJECT
 62
     7
 10
27.36931
 20
8.530189
 30
0.0
 11
27.36931
 21
16.530189
 31
0.0
  0
LINE
  8
OBJECT
 62
     7
 10
26.51031
 20
16.530189
 30
0.0
 11
27.36931
 21
16.530189
 31
0.0
  0
LINE
  8
OBJECT
 62
     7
 10
26.51031
 20
8.530189
 30
0.0
 11
27.36931
 21
8.530189
 31
0.0
  0
LINE
  8
OBJECT
 62
     7
 10
27.36931
 20
12.459189
 30
0.0
 11
26.97581
 21
12.459189
 31
0.0
  0
ARC
  8
OBJECT
 62
     7
 10
26.97581
 20
12.396689
 30
0.0
 40
0.0625
 50
90.0
 51
270.0
  0
LINE
  8
OBJECT
 62
     7
 10
26.97581
 20
12.334189
 30
0.0
 11
27.36931
 21
12.334189
 31
0.0
  0
LINE
  8
OBJECT
 62
     7
 10
27.36931
 20
10.209189
 30
0.0
 11
26.97581
 21
10.209189
 31
0.0
  0
ARC
  8
OBJECT
 62
     7
 10
26.97581
 20
10.146689
 30
0.0
 40
0.0625
 50
90.0
 51
270.0
  0
LINE
  8
OBJECT
 62
     7
 10
26.97581
 20
10.084189
 30
0.0
 11
27.36931
 21
10.084189
 31
0.0
  0
LINE
  8
OBJECT
 62
     7
 10
27.36931
 20
12.209189
 30
0.0
 11
26.97581
 21
12.209189
 31
0.0
  0
ARC
  8
OBJECT
 62
     7
 10
26.97581
 20
12.146689
 30
0.0
 40
0.0625
 50
90.0
 51
270.0
  0
LINE
  8
OBJECT
 62
     7
 10
26.97581
 20
12.084189
 30
0.0
 11
27.36931
 21
12.084189
 31
0.0
  0
LINE
  8
OBJECT
 62
     7
 10
27.36931
 20
11.709189
 30
0.0
 11
26.97581
 21
11.709189
 31
0.0
  0
ARC
  8
OBJECT
 62
     7
 10
26.97581
 20
11.646689
 30
0.0
 40
0.0625
 50
90.0
 51
270.0
  0
LINE
  8
OBJECT
 62
     7
 10
26.97581
 20
11.584189
 30
0.0
 11
27.36931
 21
11.584189
 31
0.0
  0
LINE
  8
OBJECT
 62
     7
 10
27.36931
 20
11.459189
 30
0.0
 11
26.97581
 21
11.459189
 31
0.0
  0
ARC
  8
OBJECT
 62
     7
 10
26.97581
 20
11.396689
 30
0.0
 40
0.0625
 50
90.0
 51
270.0
  0
LINE
  8
OBJECT
 62
     7
 10
26.97581
 20
11.334189
 30
0.0
 11
27.36931
 21
11.334189
 31
0.0
  0
LINE
  8
OBJECT
 62
     7
 10
27.36931
 20
11.959189
 30
0.0
 11
26.97581
 21
11.959189
 31
0.0
  0
ARC
  8
OBJECT
 62
     7
 10
26.97581
 20
11.896689
 30
0.0
 40
0.0625
 50
90.0
 51
270.0
  0
LINE
  8
OBJECT
 62
     7
 10
26.97581
 20
11.834189
 30
0.0
 11
27.36931
 21
11.834189
 31
0.0
  0
LINE
  8
OBJECT
 62
     7
 10
27.36931
 20
11.209189
 30
0.0
 11
26.97581
 21
11.209189
 31
0.0
  0
ARC
  8
OBJECT
 62
     7
 10
26.97581
 20
11.146689
 30
0.0
 40
0.0625
 50
90.0
 51
270.0
  0
LINE
  8
OBJECT
 62
     7
 10
26.97581
 20
11.084189
 30
0.0
 11
27.36931
 21
11.084189
 31
0.0
  0
LINE
  8
OBJECT
 62
     7
 10
27.36931
 20
10.959189
 30
0.0
 11
26.97581
 21
10.959189
 31
0.0
  0
ARC
  8
OBJECT
 62
     7
 10
26.97581
 20
10.896689
 30
0.0
 40
0.0625
 50
90.0
 51
270.0
  0
LINE
  8
OBJECT
 62
     7
 10
26.97581
 20
10.834189
 30
0.0
 11
27.36931
 21
10.834189
 31
0.0
  0
LINE
  8
OBJECT
 62
     7
 10
27.36931
 20
10.459189
 30
0.0
 11
26.97581
 21
10.459189
 31
0.0
  0
ARC
  8
OBJECT
 62
     7
 10
26.97581
 20
10.396689
 30
0.0
 40
0.0625
 50
90.0
 51
270.0
  0
LINE
  8
OBJECT
 62
     7
 10
26.97581
 20
10.334189
 30
0.0
 11
27.36931
 21
10.334189
 31
0.0
  0
LINE
  8
OBJECT
 62
     7
 10
27.36931
 20
10.709189
 30
0.0
 11
26.97581
 21
10.709189
 31
0.0
  0
ARC
  8
OBJECT
 62
     7
 10
26.97581
 20
10.646689
 30
0.0
 40
0.0625
 50
90.0
 51
270.0
  0
LINE
  8
OBJECT
 62
     7
 10
26.97581
 20
10.584189
 30
0.0
 11
27.36931
 21
10.584189
 31
0.0
  0
LINE
  8
OBJECT
 62
     7
 10
27.36931
 20
14.709189
 30
0.0
 11
26.97581
 21
14.709189
 31
0.0
  0
ARC
  8
OBJECT
 62
     7
 10
26.97581
 20
14.646689
 30
0.0
 40
0.0625
 50
90.0
 51
270.0
  0
LINE
  8
OBJECT
 62
     7
 10
26.97581
 20
14.584189
 30
0.0
 11
27.36931
 21
14.584189
 31
0.0
  0
LINE
  8
OBJECT
 62
     7
 10
27.36931
 20
14.459189
 30
0.0
 11
26.97581
 21
14.459189
 31
0.0
  0
ARC
  8
OBJECT
 62
     7
 10
26.97581
 20
14.396689
 30
0.0
 40
0.0625
 50
90.0
 51
270.0
  0
LINE
  8
OBJECT
 62
     7
 10
26.97581
 20
14.334189
 30
0.0
 11
27.36931
 21
14.334189
 31
0.0
  0
LINE
  8
OBJECT
 62
     7
 10
27.36931
 20
14.209189
 30
0.0
 11
26.97581
 21
14.209189
 31
0.0
  0
ARC
  8
OBJECT
 62
     7
 10
26.97581
 20
14.146689
 30
0.0
 40
0.0625
 50
90.0
 51
270.0
  0
LINE
  8
OBJECT
 62
     7
 10
26.97581
 20
14.084189
 30
0.0
 11
27.36931
 21
14.084189
 31
0.0
  0
LINE
  8
OBJECT
 62
     7
 10
27.36931
 20
13.959189
 30
0.0
 11
26.97581
 21
13.959189
 31
0.0
  0
ARC
  8
OBJECT
 62
     7
 10
26.97581
 20
13.896689
 30
0.0
 40
0.0625
 50
90.0
 51
270.0
  0
LINE
  8
OBJECT
 62
     7
 10
26.97581
 20
13.834189
 30
0.0
 11
27.36931
 21
13.834189
 31
0.0
  0
LINE
  8
OBJECT
 62
     7
 10
27.36931
 20
13.459189
 30
0.0
 11
26.97581
 21
13.459189
 31
0.0
  0
ARC
  8
OBJECT
 62
     7
 10
26.97581
 20
13.396689
 30
0.0
 40
0.0625
 50
90.0
 51
270.0
  0
LINE
  8
OBJECT
 62
     7
 10
26.97581
 20
13.334189
 30
0.0
 11
27.36931
 21
13.334189
 31
0.0
  0
LINE
  8
OBJECT
 62
     7
 10
27.36931
 20
13.209189
 30
0.0
 11
26.97581
 21
13.209189
 31
0.0
  0
ARC
  8
OBJECT
 62
     7
 10
26.97581
 20
13.146689
 30
0.0
 40
0.0625
 50
90.0
 51
270.0
  0
LINE
  8
OBJECT
 62
     7
 10
26.97581
 20
13.084189
 30
0.0
 11
27.36931
 21
13.084189
 31
0.0
  0
LINE
  8
OBJECT
 62
     7
 10
27.36931
 20
12.959189
 30
0.0
 11
26.97581
 21
12.959189
 31
0.0
  0
ARC
  8
OBJECT
 62
     7
 10
26.97581
 20
12.896689
 30
0.0
 40
0.0625
 50
90.0
 51
270.0
  0
LINE
  8
OBJECT
 62
     7
 10
26.97581
 20
12.834189
 30
0.0
 11
27.36931
 21
12.834189
 31
0.0
  0
LINE
  8
OBJECT
 62
     7
 10
27.36931
 20
12.709189
 30
0.0
 11
26.97581
 21
12.709189
 31
0.0
  0
ARC
  8
OBJECT
 62
     7
 10
26.97581
 20
12.646689
 30
0.0
 40
0.0625
 50
90.0
 51
270.0
  0
LINE
  8
OBJECT
 62
     7
 10
26.97581
 20
12.584189
 30
0.0
 11
27.36931
 21
12.584189
 31
0.0
  0
LINE
  8
OBJECT
 62
     7
 10
27.36931
 20
13.709189
 30
0.0
 11
26.97581
 21
13.709189
 31
0.0
  0
ARC
  8
OBJECT
 62
     7
 10
26.97581
 20
13.646689
 30
0.0
 40
0.0625
 50
90.0
 51
270.0
  0
LINE
  8
OBJECT
 62
     7
 10
26.97581
 20
13.584189
 30
0.0
 11
27.36931
 21
13.584189
 31
0.0
  0
LINE
  8
OBJECT
 62
     7
 10
27.36931
 20
14.959189
 30
0.0
 11
26.97581
 21
14.959189
 31
0.0
  0
ARC
  8
OBJECT
 62
     7
 10
26.97581
 20
14.896689
 30
0.0
 40
0.0625
 50
90.0
 51
270.0
  0
LINE
  8
OBJECT
 62
     7
 10
26.97581
 20
14.834189
 30
0.0
 11
27.36931
 21
14.834189
 31
0.0
  0
LINE
  8
OBJECT
 62
     7
 10
5.056966
 20
16.530189
 30
0.0
 11
5.056966
 21
8.530189
 31
0.0
  0
LINE
  8
OBJECT
 62
     7
 10
13.556966
 20
16.530189
 30
0.0
 11
13.556966
 21
8.530189
 31
0.0
  0
LINE
  8
OBJECT
 62
     7
 10
5.056966
 20
8.530189
 30
0.0
 11
13.556966
 21
8.530189
 31
0.0
  0
LINE
  8
OBJECT
 62
     7
 10
5.056966
 20
16.530189
 30
0.0
 11
13.556966
 21
16.530189
 31
0.0
  0
ARC
  8
OBJECT
 62
     7
 10
5.464966
 20
12.396689
 30
0.0
 40
0.0625
 50
270.0
 51
90.0
  0
LINE
  8
OBJECT
 62
     7
 10
5.464966
 20
12.459189
 30
0.0
 11
5.056966
 21
12.459189
 31
0.0
  0
LINE
  8
OBJECT
 62
     7
 10
5.056966
 20
12.334189
 30
0.0
 11
5.464966
 21
12.334189
 31
0.0
  0
ARC
  8
OBJECT
 62
     7
 10
5.464966
 20
10.146689
 30
0.0
 40
0.0625
 50
270.0
 51
90.0
  0
LINE
  8
OBJECT
 62
     7
 10
5.464966
 20
10.209189
 30
0.0
 11
5.056966
 21
10.209189
 31
0.0
  0
LINE
  8
OBJECT
 62
     7
 10
5.056966
 20
10.084189
 30
0.0
 11
5.464966
 21
10.084189
 31
0.0
  0
ARC
  8
OBJECT
 62
     7
 10
5.464966
 20
10.646689
 30
0.0
 40
0.0625
 50
270.0
 51
90.0
  0
LINE
  8
OBJECT
 62
     7
 10
5.464966
 20
10.709189
 30
0.0
 11
5.056966
 21
10.709189
 31
0.0
  0
LINE
  8
OBJECT
 62
     7
 10
5.056966
 20
10.584189
 30
0.0
 11
5.464966
 21
10.584189
 31
0.0
  0
ARC
  8
OBJECT
 62
     7
 10
5.464966
 20
10.396689
 30
0.0
 40
0.0625
 50
270.0
 51
90.0
  0
LINE
  8
OBJECT
 62
     7
 10
5.464966
 20
10.459189
 30
0.0
 11
5.056966
 21
10.459189
 31
0.0
  0
LINE
  8
OBJECT
 62
     7
 10
5.056966
 20
10.334189
 30
0.0
 11
5.464966
 21
10.334189
 31
0.0
  0
ARC
  8
OBJECT
 62
     7
 10
5.464966
 20
10.896689
 30
0.0
 40
0.0625
 50
270.0
 51
90.0
  0
LINE
  8
OBJECT
 62
     7
 10
5.464966
 20
10.959189
 30
0.0
 11
5.056966
 21
10.959189
 31
0.0
  0
LINE
  8
OBJECT
 62
     7
 10
5.056966
 20
10.834189
 30
0.0
 11
5.464966
 21
10.834189
 31
0.0
  0
ARC
  8
OBJECT
 62
     7
 10
5.464966
 20
11.146689
 30
0.0
 40
0.0625
 50
270.0
 51
90.0
  0
LINE
  8
OBJECT
 62
     7
 10
5.464966
 20
11.209189
 30
0.0
 11
5.056966
 21
11.209189
 31
0.0
  0
LINE
  8
OBJECT
 62
     7
 10
5.056966
 20
11.084189
 30
0.0
 11
5.464966
 21
11.084189
 31
0.0
  0
ARC
  8
OBJECT
 62
     7
 10
5.464966
 20
11.896689
 30
0.0
 40
0.0625
 50
270.0
 51
90.0
  0
LINE
  8
OBJECT
 62
     7
 10
5.464966
 20
11.959189
 30
0.0
 11
5.056966
 21
11.959189
 31
0.0
  0
LINE
  8
OBJECT
 62
     7
 10
5.056966
 20
11.834189
 30
0.0
 11
5.464966
 21
11.834189
 31
0.0
  0
ARC
  8
OBJECT
 62
     7
 10
5.464966
 20
11.396689
 30
0.0
 40
0.0625
 50
270.0
 51
90.0
  0
LINE
  8
OBJECT
 62
     7
 10
5.464966
 20
11.459189
 30
0.0
 11
5.056966
 21
11.459189
 31
0.0
  0
LINE
  8
OBJECT
 62
     7
 10
5.056966
 20
11.334189
 30
0.0
 11
5.464966
 21
11.334189
 31
0.0
  0
ARC
  8
OBJECT
 62
     7
 10
5.464966
 20
11.646689
 30
0.0
 40
0.0625
 50
270.0
 51
90.0
  0
LINE
  8
OBJECT
 62
     7
 10
5.464966
 20
11.709189
 30
0.0
 11
5.056966
 21
11.709189
 31
0.0
  0
LINE
  8
OBJECT
 62
     7
 10
5.056966
 20
11.584189
 30
0.0
 11
5.464966
 21
11.584189
 31
0.0
  0
ARC
  8
OBJECT
 62
     7
 10
5.464966
 20
12.146689
 30
0.0
 40
0.0625
 50
270.0
 51
90.0
  0
LINE
  8
OBJECT
 62
     7
 10
5.464966
 20
12.209189
 30
0.0
 11
5.056966
 21
12.209189
 31
0.0
  0
LINE
  8
OBJECT
 62
     7
 10
5.056966
 20
12.084189
 30
0.0
 11
5.464966
 21
12.084189
 31
0.0
  0
ARC
  8
OBJECT
 62
     7
 10
5.464966
 20
13.646689
 30
0.0
 40
0.0625
 50
270.0
 51
90.0
  0
LINE
  8
OBJECT
 62
     7
 10
5.464966
 20
13.709189
 30
0.0
 11
5.056966
 21
13.709189
 31
0.0
  0
LINE
  8
OBJECT
 62
     7
 10
5.056966
 20
13.584189
 30
0.0
 11
5.464966
 21
13.584189
 31
0.0
  0
ARC
  8
OBJECT
 62
     7
 10
5.464966
 20
12.646689
 30
0.0
 40
0.0625
 50
270.0
 51
90.0
  0
LINE
  8
OBJECT
 62
     7
 10
5.464966
 20
12.709189
 30
0.0
 11
5.056966
 21
12.709189
 31
0.0
  0
LINE
  8
OBJECT
 62
     7
 10
5.056966
 20
12.584189
 30
0.0
 11
5.464966
 21
12.584189
 31
0.0
  0
ARC
  8
OBJECT
 62
     7
 10
5.464966
 20
12.896689
 30
0.0
 40
0.0625
 50
270.0
 51
90.0
  0
LINE
  8
OBJECT
 62
     7
 10
5.464966
 20
12.959189
 30
0.0
 11
5.056966
 21
12.959189
 31
0.0
  0
LINE
  8
OBJECT
 62
     7
 10
5.056966
 20
12.834189
 30
0.0
 11
5.464966
 21
12.834189
 31
0.0
  0
ARC
  8
OBJECT
 62
     7
 10
5.464966
 20
13.146689
 30
0.0
 40
0.0625
 50
270.0
 51
90.0
  0
LINE
  8
OBJECT
 62
     7
 10
5.464966
 20
13.209189
 30
0.0
 11
5.056966
 21
13.209189
 31
0.0
  0
LINE
  8
OBJECT
 62
     7
 10
5.056966
 20
13.084189
 30
0.0
 11
5.464966
 21
13.084189
 31
0.0
  0
ARC
  8
OBJECT
 62
     7
 10
5.464966
 20
13.396689
 30
0.0
 40
0.0625
 50
270.0
 51
90.0
  0
LINE
  8
OBJECT
 62
     7
 10
5.464966
 20
13.459189
 30
0.0
 11
5.056966
 21
13.459189
 31
0.0
  0
LINE
  8
OBJECT
 62
     7
 10
5.056966
 20
13.334189
 30
0.0
 11
5.464966
 21
13.334189
 31
0.0
  0
ARC
  8
OBJECT
 62
     7
 10
5.464966
 20
13.896689
 30
0.0
 40
0.0625
 50
270.0
 51
90.0
  0
LINE
  8
OBJECT
 62
     7
 10
5.464966
 20
13.959189
 30
0.0
 11
5.056966
 21
13.959189
 31
0.0
  0
LINE
  8
OBJECT
 62
     7
 10
5.056966
 20
13.834189
 30
0.0
 11
5.464966
 21
13.834189
 31
0.0
  0
ARC
  8
OBJECT
 62
     7
 10
5.464966
 20
14.146689
 30
0.0
 40
0.0625
 50
270.0
 51
90.0
  0
LINE
  8
OBJECT
 62
     7
 10
5.464966
 20
14.209189
 30
0.0
 11
5.056966
 21
14.209189
 31
0.0
  0
LINE
  8
OBJECT
 62
     7
 10
5.056966
 20
14.084189
 30
0.0
 11
5.464966
 21
14.084189
 31
0.0
  0
ARC
  8
OBJECT
 62
     7
 10
5.464966
 20
14.396689
 30
0.0
 40
0.0625
 50
270.0
 51
90.0
  0
LINE
  8
OBJECT
 62
     7
 10
5.464966
 20
14.459189
 30
0.0
 11
5.056966
 21
14.459189
 31
0.0
  0
LINE
  8
OBJECT
 62
     7
 10
5.056966
 20
14.334189
 30
0.0
 11
5.464966
 21
14.334189
 31
0.0
  0
ARC
  8
OBJECT
 62
     7
 10
5.464966
 20
14.646689
 30
0.0
 40
0.0625
 50
270.0
 51
90.0
  0
LINE
  8
OBJECT
 62
     7
 10
5.464966
 20
14.709189
 30
0.0
 11
5.056966
 21
14.709189
 31
0.0
  0
LINE
  8
OBJECT
 62
     7
 10
5.056966
 20
14.584189
 30
0.0
 11
5.464966
 21
14.584189
 31
0.0
  0
ARC
  8
OBJECT
 62
     7
 10
5.464966
 20
14.896689
 30
0.0
 40
0.0625
 50
270.0
 51
90.0
  0
LINE
  8
OBJECT
 62
     7
 10
5.464966
 20
14.959189
 30
0.0
 11
5.056966
 21
14.959189
 31
0.0
  0
LINE
  8
OBJECT
 62
     7
 10
5.056966
 20
14.834189
 30
0.0
 11
5.464966
 21
14.834189
 31
0.0
  0
ARC
  8
OBJECT
 62
     7
 10
13.148966
 20
12.396689
 30
0.0
 40
0.0625
 50
90.0
 51
270.0
  0
LINE
  8
OBJECT
 62
     7
 10
13.148966
 20
12.459189
 30
0.0
 11
13.556966
 21
12.459189
 31
0.0
  0
LINE
  8
OBJECT
 62
     7
 10
13.556966
 20
12.334189
 30
0.0
 11
13.148966
 21
12.334189
 31
0.0
  0
ARC
  8
OBJECT
 62
     7
 10
13.148966
 20
10.146689
 30
0.0
 40
0.0625
 50
90.0
 51
270.0
  0
LINE
  8
OBJECT
 62
     7
 10
13.148966
 20
10.209189
 30
0.0
 11
13.556966
 21
10.209189
 31
0.0
  0
LINE
  8
OBJECT
 62
     7
 10
13.556966
 20
10.084189
 30
0.0
 11
13.148966
 21
10.084189
 31
0.0
  0
ARC
  8
OBJECT
 62
     7
 10
13.148966
 20
10.396689
 30
0.0
 40
0.0625
 50
90.0
 51
270.0
  0
LINE
  8
OBJECT
 62
     7
 10
13.148966
 20
10.459189
 30
0.0
 11
13.556966
 21
10.459189
 31
0.0
  0
LINE
  8
OBJECT
 62
     7
 10
13.556966
 20
10.334189
 30
0.0
 11
13.148966
 21
10.334189
 31
0.0
  0
ARC
  8
OBJECT
 62
     7
 10
13.148966
 20
10.646689
 30
0.0
 40
0.0625
 50
90.0
 51
270.0
  0
LINE
  8
OBJECT
 62
     7
 10
13.148966
 20
10.709189
 30
0.0
 11
13.556966
 21
10.709189
 31
0.0
  0
LINE
  8
OBJECT
 62
     7
 10
13.556966
 20
10.584189
 30
0.0
 11
13.148966
 21
10.584189
 31
0.0
  0
ARC
  8
OBJECT
 62
     7
 10
13.148966
 20
10.896689
 30
0.0
 40
0.0625
 50
90.0
 51
270.0
  0
LINE
  8
OBJECT
 62
     7
 10
13.148966
 20
10.959189
 30
0.0
 11
13.556966
 21
10.959189
 31
0.0
  0
LINE
  8
OBJECT
 62
     7
 10
13.556966
 20
10.834189
 30
0.0
 11
13.148966
 21
10.834189
 31
0.0
  0
ARC
  8
OBJECT
 62
     7
 10
13.148966
 20
11.146689
 30
0.0
 40
0.0625
 50
90.0
 51
270.0
  0
LINE
  8
OBJECT
 62
     7
 10
13.148966
 20
11.209189
 30
0.0
 11
13.556966
 21
11.209189
 31
0.0
  0
LINE
  8
OBJECT
 62
     7
 10
13.556966
 20
11.084189
 30
0.0
 11
13.148966
 21
11.084189
 31
0.0
  0
ARC
  8
OBJECT
 62
     7
 10
13.148966
 20
11.396689
 30
0.0
 40
0.0625
 50
90.0
 51
270.0
  0
LINE
  8
OBJECT
 62
     7
 10
13.148966
 20
11.459189
 30
0.0
 11
13.556966
 21
11.459189
 31
0.0
  0
LINE
  8
OBJECT
 62
     7
 10
13.556966
 20
11.334189
 30
0.0
 11
13.148966
 21
11.334189
 31
0.0
  0
ARC
  8
OBJECT
 62
     7
 10
13.148966
 20
11.646689
 30
0.0
 40
0.0625
 50
90.0
 51
270.0
  0
LINE
  8
OBJECT
 62
     7
 10
13.148966
 20
11.709189
 30
0.0
 11
13.556966
 21
11.709189
 31
0.0
  0
LINE
  8
OBJECT
 62
     7
 10
13.556966
 20
11.584189
 30
0.0
 11
13.148966
 21
11.584189
 31
0.0
  0
ARC
  8
OBJECT
 62
     7
 10
13.148966
 20
11.896689
 30
0.0
 40
0.0625
 50
90.0
 51
270.0
  0
LINE
  8
OBJECT
 62
     7
 10
13.148966
 20
11.959189
 30
0.0
 11
13.556966
 21
11.959189
 31
0.0
  0
LINE
  8
OBJECT
 62
     7
 10
13.556966
 20
11.834189
 30
0.0
 11
13.148966
 21
11.834189
 31
0.0
  0
ARC
  8
OBJECT
 62
     7
 10
13.148966
 20
12.146689
 30
0.0
 40
0.0625
 50
90.0
 51
270.0
  0
LINE
  8
OBJECT
 62
     7
 10
13.148966
 20
12.209189
 30
0.0
 11
13.556966
 21
12.209189
 31
0.0
  0
LINE
  8
OBJECT
 62
     7
 10
13.556966
 20
12.084189
 30
0.0
 11
13.148966
 21
12.084189
 31
0.0
  0
ARC
  8
OBJECT
 62
     7
 10
13.148966
 20
13.646689
 30
0.0
 40
0.0625
 50
90.0
 51
270.0
  0
LINE
  8
OBJECT
 62
     7
 10
13.148966
 20
13.709189
 30
0.0
 11
13.556966
 21
13.709189
 31
0.0
  0
LINE
  8
OBJECT
 62
     7
 10
13.556966
 20
13.584189
 30
0.0
 11
13.148966
 21
13.584189
 31
0.0
  0
ARC
  8
OBJECT
 62
     7
 10
13.148966
 20
12.646689
 30
0.0
 40
0.0625
 50
90.0
 51
270.0
  0
LINE
  8
OBJECT
 62
     7
 10
13.148966
 20
12.709189
 30
0.0
 11
13.556966
 21
12.709189
 31
0.0
  0
LINE
  8
OBJECT
 62
     7
 10
13.556966
 20
12.584189
 30
0.0
 11
13.148966
 21
12.584189
 31
0.0
  0
ARC
  8
OBJECT
 62
     7
 10
13.148966
 20
12.896689
 30
0.0
 40
0.0625
 50
90.0
 51
270.0
  0
LINE
  8
OBJECT
 62
     7
 10
13.148966
 20
12.959189
 30
0.0
 11
13.556966
 21
12.959189
 31
0.0
  0
LINE
  8
OBJECT
 62
     7
 10
13.556966
 20
12.834189
 30
0.0
 11
13.148966
 21
12.834189
 31
0.0
  0
ARC
  8
OBJECT
 62
     7
 10
13.148966
 20
13.146689
 30
0.0
 40
0.0625
 50
90.0
 51
270.0
  0
LINE
  8
OBJECT
 62
     7
 10
13.148966
 20
13.209189
 30
0.0
 11
13.556966
 21
13.209189
 31
0.0
  0
LINE
  8
OBJECT
 62
     7
 10
13.556966
 20
13.084189
 30
0.0
 11
13.148966
 21
13.084189
 31
0.0
  0
ARC
  8
OBJECT
 62
     7
 10
13.148966
 20
13.396689
 30
0.0
 40
0.0625
 50
90.0
 51
270.0
  0
LINE
  8
OBJECT
 62
     7
 10
13.148966
 20
13.459189
 30
0.0
 11
13.556966
 21
13.459189
 31
0.0
  0
LINE
  8
OBJECT
 62
     7
 10
13.556966
 20
13.334189
 30
0.0
 11
13.148966
 21
13.334189
 31
0.0
  0
ARC
  8
OBJECT
 62
     7
 10
13.148966
 20
13.896689
 30
0.0
 40
0.0625
 50
90.0
 51
270.0
  0
LINE
  8
OBJECT
 62
     7
 10
13.148966
 20
13.959189
 30
0.0
 11
13.556966
 21
13.959189
 31
0.0
  0
LINE
  8
OBJECT
 62
     7
 10
13.556966
 20
13.834189
 30
0.0
 11
13.148966
 21
13.834189
 31
0.0
  0
ARC
  8
OBJECT
 62
     7
 10
13.148966
 20
14.146689
 30
0.0
 40
0.0625
 50
90.0
 51
270.0
  0
LINE
  8
OBJECT
 62
     7
 10
13.148966
 20
14.209189
 30
0.0
 11
13.556966
 21
14.209189
 31
0.0
  0
LINE
  8
OBJECT
 62
     7
 10
13.556966
 20
14.084189
 30
0.0
 11
13.148966
 21
14.084189
 31
0.0
  0
ARC
  8
OBJECT
 62
     7
 10
13.148966
 20
14.396689
 30
0.0
 40
0.0625
 50
90.0
 51
270.0
  0
LINE
  8
OBJECT
 62
     7
 10
13.148966
 20
14.459189
 30
0.0
 11
13.556966
 21
14.459189
 31
0.0
  0
LINE
  8
OBJECT
 62
     7
 10
13.556966
 20
14.334189
 30
0.0
 11
13.148966
 21
14.334189
 31
0.0
  0
ARC
  8
OBJECT
 62
     7
 10
13.148966
 20
14.646689
 30
0.0
 40
0.0625
 50
90.0
 51
270.0
  0
LINE
  8
OBJECT
 62
     7
 10
13.148966
 20
14.709189
 30
0.0
 11
13.556966
 21
14.709189
 31
0.0
  0
LINE
  8
OBJECT
 62
     7
 10
13.556966
 20
14.584189
 30
0.0
 11
13.148966
 21
14.584189
 31
0.0
  0
ARC
  8
OBJECT
 62
     7
 10
13.148966
 20
14.896689
 30
0.0
 40
0.0625
 50
90.0
 51
270.0
  0
LINE
  8
OBJECT
 62
     7
 10
13.148966
 20
14.959189
 30
0.0
 11
13.556966
 21
14.959189
 31
0.0
  0
LINE
  8
OBJECT
 62
     7
 10
13.556966
 20
14.834189
 30
0.0
 11
13.148966
 21
14.834189
 31
0.0
  0
LINE
  8
HIDDEN
 62
     7
 10
5.056966
 20
9.801189
 30
0.0
 11
5.166966
 21
9.801189
 31
0.0
  0
LINE
  8
HIDDEN
 62
     7
 10
5.056966
 20
15.259189
 30
0.0
 11
5.166966
 21
15.259189
 31
0.0
  0
LINE
  8
HIDDEN
 62
     7
 10
5.106966
 20
16.480189
 30
0.0
 11
5.106966
 21
8.580189
 31
0.0
  0
LINE
  8
HIDDEN
 62
     7
 10
5.116966
 20
15.259189
 30
0.0
 11
5.116966
 21
9.801189
 31
0.0
  0
LINE
  8
HIDDEN
 62
     7
 10
5.166966
 20
15.259189
 30
0.0
 11
5.166966
 21
9.801189
 31
0.0
  0
LINE
  8
HIDDEN
 62
     7
 10
5.056966
 20
16.155189
 30
0.0
 11
13.556966
 21
16.155189
 31
0.0
  0
LINE
  8
HIDDEN
 62
     7
 10
5.156966
 20
16.480189
 30
0.0
 11
5.156966
 21
16.155189
 31
0.0
  0
ARC
  8
HIDDEN
 62
     7
 10
5.106966
 20
16.480189
 30
0.0
 40
0.05
 50
0.0
 51
180.0
  0
LINE
  8
HIDDEN
 62
     7
 10
13.456966
 20
16.480189
 30
0.0
 11
13.456966
 21
16.155189
 31
0.0
  0
ARC
  8
HIDDEN
 62
     7
 10
13.506966
 20
16.480189
 30
0.0
 40
0.05
 50
0.0
 51
180.0
  0
LINE
  8
HIDDEN
 62
     7
 10
13.556966
 20
15.259189
 30
0.0
 11
13.446966
 21
15.259189
 31
0.0
  0
LINE
  8
HIDDEN
 62
     7
 10
13.556966
 20
9.801189
 30
0.0
 11
13.446966
 21
9.801189
 31
0.0
  0
LINE
  8
HIDDEN
 62
     7
 10
13.506966
 20
16.480189
 30
0.0
 11
13.506966
 21
8.580189
 31
0.0
  0
LINE
  8
HIDDEN
 62
     7
 10
13.446966
 20
15.259189
 30
0.0
 11
13.446966
 21
9.801189
 31
0.0
  0
LINE
  8
HIDDEN
 62
     7
 10
13.496966
 20
15.259189
 30
0.0
 11
13.496966
 21
9.801189
 31
0.0
  0
LINE
  8
HIDDEN
 62
     7
 10
5.156966
 20
8.580189
 30
0.0
 11
5.156966
 21
8.905189
 31
0.0
  0
ARC
  8
HIDDEN
 62
     7
 10
5.106966
 20
8.580189
 30
0.0
 40
0.05
 50
180.0
 51
0.0
  0
ARC
  8
HIDDEN
 62
     7
 10
13.506966
 20
8.580189
 30
0.0
 40
0.05
 50
180.0
 51
0.0
  0
LINE
  8
HIDDEN
 62
     7
 10
13.456966
 20
8.580189
 30
0.0
 11
13.456966
 21
8.905189
 31
0.0
  0
LINE
  8
HIDDEN
 62
     7
 10
5.056966
 20
8.905189
 30
0.0
 11
13.556966
 21
8.905189
 31
0.0
  0
ARC
  8
HIDDEN
 62
     7
 10
27.31931
 20
16.480189
 30
0.0
 40
0.05
 50
0.0
 51
180.0
  0
ARC
  8
HIDDEN
 62
     7
 10
27.31931
 20
8.580189
 30
0.0
 40
0.05
 50
180.0
 51
0.0
  0
LINE
  8
HIDDEN
 62
     7
 10
26.56031
 20
9.801189
 30
0.0
 11
26.56031
 21
15.259189
 31
0.0
  0
LINE
  8
HIDDEN
 62
     7
 10
26.93181
 20
9.779696
 30
0.0
 11
26.93181
 21
9.030189
 31
0.0
  0
LINE
  8
OBJECT
  6
CONTINUOUS
 62
     7
 10
26.05681
 20
9.779696
 30
0.0
 11
26.51031
 21
9.779696
 31
0.0
  0
LINE
  8
OBJECT
  6
CONTINUOUS
 62
     7
 10
26.05681
 20
9.779696
 30
0.0
 11
26.05681
 21
9.030189
 31
0.0
  0
CIRCLE
  8
OBJECT
 62
     7
 10
26.18181
 20
9.467189
 30
0.0
 40
0.0625
  0
POLYLINE
  8
HIDDEN
 62
     7
 66
     1
 10
0.0
 20
0.0
 30
0.0
  0
VERTEX
  8
HIDDEN
 62
     7
 10
5.116966
 20
8.905189
 30
0.0
  0
VERTEX
  8
HIDDEN
 62
     7
 10
5.116966
 20
9.030189
 30
0.0
  0
VERTEX
  8
HIDDEN
 62
     7
 10
13.496966
 20
9.030189
 30
0.0
  0
VERTEX
  8
HIDDEN
 62
     7
 10
13.496966
 20
8.905189
 30
0.0
  0
SEQEND
  8
HIDDEN
 62
     7
  0
POLYLINE
  8
HIDDEN
 62
     7
 66
     1
 10
0.0
 20
0.0
 30
0.0
  0
VERTEX
  8
HIDDEN
 62
     7
 10
5.116966
 20
16.155189
 30
0.0
  0
VERTEX
  8
HIDDEN
 62
     7
 10
5.116966
 20
16.030189
 30
0.0
  0
VERTEX
  8
HIDDEN
 62
     7
 10
13.496966
 20
16.030189
 30
0.0
  0
VERTEX
  8
HIDDEN
 62
     7
 10
13.496966
 20
16.155189
 30
0.0
  0
SEQEND
  8
HIDDEN
 62
     7
  0
LINE
  8
HIDDEN
 62
     7
 10
2.23278
 20
16.480189
 30
0.0
 11
2.23278
 21
8.580189
 31
0.0
  0
LINE
  8
HIDDEN
 62
     7
 10
3.04178
 20
8.905189
 30
0.0
 11
2.23278
 21
8.905189
 31
0.0
  0
ARC
  8
HIDDEN
 62
     7
 10
2.23278
 20
8.580189
 30
0.0
 40
0.05
 50
180.0
 51
0.0
  0
LINE
  8
HIDDEN
 62
     7
 10
2.28278
 20
8.580189
 30
0.0
 11
2.28278
 21
8.905189
 31
0.0
  0
LINE
  8
OBJECT
 62
     7
 10
2.18278
 20
10.209189
 30
0.0
 11
2.57628
 21
10.209189
 31
0.0
  0
LINE
  8
OBJECT
 62
     7
 10
2.18278
 20
10.459189
 30
0.0
 11
2.57628
 21
10.459189
 31
0.0
  0
LINE
  8
OBJECT
 62
     7
 10
2.57628
 20
10.334189
 30
0.0
 11
2.18278
 21
10.334189
 31
0.0
  0
LINE
  8
OBJECT
 62
     7
 10
2.57628
 20
10.584189
 30
0.0
 11
2.18278
 21
10.584189
 31
0.0
  0
LINE
  8
OBJECT
 62
     7
 10
2.18278
 20
10.959189
 30
0.0
 11
2.57628
 21
10.959189
 31
0.0
  0
LINE
  8
OBJECT
 62
     7
 10
2.57628
 20
10.834189
 30
0.0
 11
2.18278
 21
10.834189
 31
0.0
  0
LINE
  8
OBJECT
 62
     7
 10
2.18278
 20
10.709189
 30
0.0
 11
2.57628
 21
10.709189
 31
0.0
  0
LINE
  8
OBJECT
 62
     7
 10
2.57628
 20
10.084189
 30
0.0
 11
2.18278
 21
10.084189
 31
0.0
  0
ARC
  8
OBJECT
 62
     7
 10
2.57628
 20
10.396689
 30
0.0
 40
0.0625
 50
270.0
 51
90.0
  0
ARC
  8
OBJECT
 62
     7
 10
2.57628
 20
10.146689
 30
0.0
 40
0.0625
 50
270.0
 51
90.0
  0
ARC
  8
OBJECT
 62
     7
 10
2.57628
 20
10.896689
 30
0.0
 40
0.0625
 50
270.0
 51
90.0
  0
ARC
  8
OBJECT
 62
     7
 10
2.57628
 20
10.646689
 30
0.0
 40
0.0625
 50
270.0
 51
90.0
  0
ARC
  8
OBJECT
 62
     7
 10
2.57628
 20
13.396689
 30
0.0
 40
0.0625
 50
270.0
 51
90.0
  0
LINE
  8
OBJECT
 62
     7
 10
2.18278
 20
12.459189
 30
0.0
 11
2.57628
 21
12.459189
 31
0.0
  0
LINE
  8
OBJECT
 62
     7
 10
2.18278
 20
12.959189
 30
0.0
 11
2.57628
 21
12.959189
 31
0.0
  0
LINE
  8
OBJECT
 62
     7
 10
2.57628
 20
12.834189
 30
0.0
 11
2.18278
 21
12.834189
 31
0.0
  0
LINE
  8
OBJECT
 62
     7
 10
2.18278
 20
12.709189
 30
0.0
 11
2.57628
 21
12.709189
 31
0.0
  0
LINE
  8
OBJECT
 62
     7
 10
2.57628
 20
12.584189
 30
0.0
 11
2.18278
 21
12.584189
 31
0.0
  0
LINE
  8
OBJECT
 62
     7
 10
2.57628
 20
13.334189
 30
0.0
 11
2.18278
 21
13.334189
 31
0.0
  0
LINE
  8
OBJECT
 62
     7
 10
2.18278
 20
13.209189
 30
0.0
 11
2.57628
 21
13.209189
 31
0.0
  0
LINE
  8
OBJECT
 62
     7
 10
2.57628
 20
13.084189
 30
0.0
 11
2.18278
 21
13.084189
 31
0.0
  0
LINE
  8
OBJECT
 62
     7
 10
2.18278
 20
11.209189
 30
0.0
 11
2.57628
 21
11.209189
 31
0.0
  0
LINE
  8
OBJECT
 62
     7
 10
2.57628
 20
11.084189
 30
0.0
 11
2.18278
 21
11.084189
 31
0.0
  0
LINE
  8
OBJECT
 62
     7
 10
2.18278
 20
11.709189
 30
0.0
 11
2.57628
 21
11.709189
 31
0.0
  0
LINE
  8
OBJECT
 62
     7
 10
2.57628
 20
11.584189
 30
0.0
 11
2.18278
 21
11.584189
 31
0.0
  0
LINE
  8
OBJECT
 62
     7
 10
2.18278
 20
11.459189
 30
0.0
 11
2.57628
 21
11.459189
 31
0.0
  0
LINE
  8
OBJECT
 62
     7
 10
2.57628
 20
11.334189
 30
0.0
 11
2.18278
 21
11.334189
 31
0.0
  0
LINE
  8
OBJECT
 62
     7
 10
2.57628
 20
11.834189
 30
0.0
 11
2.18278
 21
11.834189
 31
0.0
  0
LINE
  8
OBJECT
 62
     7
 10
2.57628
 20
12.334189
 30
0.0
 11
2.18278
 21
12.334189
 31
0.0
  0
LINE
  8
OBJECT
 62
     7
 10
2.18278
 20
12.209189
 30
0.0
 11
2.57628
 21
12.209189
 31
0.0
  0
LINE
  8
OBJECT
 62
     7
 10
2.57628
 20
12.084189
 30
0.0
 11
2.18278
 21
12.084189
 31
0.0
  0
LINE
  8
OBJECT
 62
     7
 10
2.18278
 20
11.959189
 30
0.0
 11
2.57628
 21
11.959189
 31
0.0
  0
ARC
  8
OBJECT
 62
     7
 10
2.57628
 20
11.646689
 30
0.0
 40
0.0625
 50
270.0
 51
90.0
  0
ARC
  8
OBJECT
 62
     7
 10
2.57628
 20
11.396689
 30
0.0
 40
0.0625
 50
270.0
 51
90.0
  0
ARC
  8
OBJECT
 62
     7
 10
2.57628
 20
11.146689
 30
0.0
 40
0.0625
 50
270.0
 51
90.0
  0
ARC
  8
OBJECT
 62
     7
 10
2.57628
 20
12.146689
 30
0.0
 40
0.0625
 50
270.0
 51
90.0
  0
ARC
  8
OBJECT
 62
     7
 10
2.57628
 20
11.896689
 30
0.0
 40
0.0625
 50
270.0
 51
90.0
  0
ARC
  8
OBJECT
 62
     7
 10
2.57628
 20
12.646689
 30
0.0
 40
0.0625
 50
270.0
 51
90.0
  0
ARC
  8
OBJECT
 62
     7
 10
2.57628
 20
12.396689
 30
0.0
 40
0.0625
 50
270.0
 51
90.0
  0
ARC
  8
OBJECT
 62
     7
 10
2.57628
 20
13.146689
 30
0.0
 40
0.0625
 50
270.0
 51
90.0
  0
ARC
  8
OBJECT
 62
     7
 10
2.57628
 20
12.896689
 30
0.0
 40
0.0625
 50
270.0
 51
90.0
  0
LINE
  8
OBJECT
 62
     7
 10
2.18278
 20
14.959189
 30
0.0
 11
2.57628
 21
14.959189
 31
0.0
  0
LINE
  8
OBJECT
 62
     7
 10
2.57628
 20
14.834189
 30
0.0
 11
2.18278
 21
14.834189
 31
0.0
  0
LINE
  8
OBJECT
 62
     7
 10
2.18278
 20
13.459189
 30
0.0
 11
2.57628
 21
13.459189
 31
0.0
  0
LINE
  8
OBJECT
 62
     7
 10
2.57628
 20
13.584189
 30
0.0
 11
2.18278
 21
13.584189
 31
0.0
  0
LINE
  8
OBJECT
 62
     7
 10
2.18278
 20
14.209189
 30
0.0
 11
2.57628
 21
14.209189
 31
0.0
  0
LINE
  8
OBJECT
 62
     7
 10
2.57628
 20
14.084189
 30
0.0
 11
2.18278
 21
14.084189
 31
0.0
  0
LINE
  8
OBJECT
 62
     7
 10
2.18278
 20
13.959189
 30
0.0
 11
2.57628
 21
13.959189
 31
0.0
  0
LINE
  8
OBJECT
 62
     7
 10
2.57628
 20
13.834189
 30
0.0
 11
2.18278
 21
13.834189
 31
0.0
  0
LINE
  8
OBJECT
 62
     7
 10
2.18278
 20
13.709189
 30
0.0
 11
2.57628
 21
13.709189
 31
0.0
  0
LINE
  8
OBJECT
 62
     7
 10
2.18278
 20
14.709189
 30
0.0
 11
2.57628
 21
14.709189
 31
0.0
  0
LINE
  8
OBJECT
 62
     7
 10
2.57628
 20
14.584189
 30
0.0
 11
2.18278
 21
14.584189
 31
0.0
  0
LINE
  8
OBJECT
 62
     7
 10
2.18278
 20
14.459189
 30
0.0
 11
2.57628
 21
14.459189
 31
0.0
  0
LINE
  8
OBJECT
 62
     7
 10
2.57628
 20
14.334189
 30
0.0
 11
2.18278
 21
14.334189
 31
0.0
  0
ARC
  8
OBJECT
 62
     7
 10
2.57628
 20
14.646689
 30
0.0
 40
0.0625
 50
270.0
 51
90.0
  0
ARC
  8
OBJECT
 62
     7
 10
2.57628
 20
13.896689
 30
0.0
 40
0.0625
 50
270.0
 51
90.0
  0
ARC
  8
OBJECT
 62
     7
 10
2.57628
 20
13.646689
 30
0.0
 40
0.0625
 50
270.0
 51
90.0
  0
ARC
  8
OBJECT
 62
     7
 10
2.57628
 20
14.396689
 30
0.0
 40
0.0625
 50
270.0
 51
90.0
  0
ARC
  8
OBJECT
 62
     7
 10
2.57628
 20
14.146689
 30
0.0
 40
0.0625
 50
270.0
 51
90.0
  0
ARC
  8
OBJECT
 62
     7
 10
2.57628
 20
14.896689
 30
0.0
 40
0.0625
 50
270.0
 51
90.0
  0
LINE
  8
HIDDEN
 62
     7
 10
3.04178
 20
16.155189
 30
0.0
 11
2.23278
 21
16.155189
 31
0.0
  0
ARC
  8
HIDDEN
 62
     7
 10
2.23278
 20
16.480189
 30
0.0
 40
0.05
 50
0.0
 51
180.0
  0
LINE
  8
HIDDEN
 62
     7
 10
2.28278
 20
16.480189
 30
0.0
 11
2.28278
 21
16.155189
 31
0.0
  0
LINE
  8
HIDDEN
 62
     7
 10
3.12378
 20
9.801189
 30
0.0
 11
3.12378
 21
15.259189
 31
0.0
  0
LINE
  8
HIDDEN
 62
     7
 10
2.72378
 20
9.801189
 30
0.0
 11
2.72378
 21
15.259189
 31
0.0
  0
LINE
  8
HIDDEN
 62
     7
 10
3.88278
 20
16.480189
 30
0.0
 11
3.88278
 21
8.580189
 31
0.0
  0
LINE
  8
HIDDEN
 62
     7
 10
3.07378
 20
8.905189
 30
0.0
 11
3.88278
 21
8.905189
 31
0.0
  0
ARC
  8
HIDDEN
 62
     7
 10
3.88278
 20
8.580189
 30
0.0
 40
0.05
 50
180.0
 51
0.0
  0
LINE
  8
HIDDEN
 62
     7
 10
3.83278
 20
8.580189
 30
0.0
 11
3.83278
 21
8.905189
 31
0.0
  0
ARC
  8
OBJECT
 62
     7
 10
3.53928
 20
10.396689
 30
0.0
 40
0.0625
 50
90.0
 51
270.0
  0
LINE
  8
OBJECT
 62
     7
 10
3.53928
 20
10.084189
 30
0.0
 11
3.93278
 21
10.084189
 31
0.0
  0
LINE
  8
OBJECT
 62
     7
 10
3.53928
 20
10.334189
 30
0.0
 11
3.93278
 21
10.334189
 31
0.0
  0
LINE
  8
OBJECT
 62
     7
 10
3.93278
 20
10.209189
 30
0.0
 11
3.53928
 21
10.209189
 31
0.0
  0
ARC
  8
OBJECT
 62
     7
 10
3.53928
 20
10.146689
 30
0.0
 40
0.0625
 50
90.0
 51
270.0
  0
LINE
  8
OBJECT
 62
     7
 10
3.93278
 20
10.709189
 30
0.0
 11
3.53928
 21
10.709189
 31
0.0
  0
LINE
  8
OBJECT
 62
     7
 10
3.53928
 20
10.834189
 30
0.0
 11
3.93278
 21
10.834189
 31
0.0
  0
LINE
  8
OBJECT
 62
     7
 10
3.93278
 20
10.959189
 30
0.0
 11
3.53928
 21
10.959189
 31
0.0
  0
LINE
  8
OBJECT
 62
     7
 10
3.53928
 20
10.584189
 30
0.0
 11
3.93278
 21
10.584189
 31
0.0
  0
LINE
  8
OBJECT
 62
     7
 10
3.93278
 20
10.459189
 30
0.0
 11
3.53928
 21
10.459189
 31
0.0
  0
ARC
  8
OBJECT
 62
     7
 10
3.53928
 20
10.646689
 30
0.0
 40
0.0625
 50
90.0
 51
270.0
  0
ARC
  8
OBJECT
 62
     7
 10
3.53928
 20
10.896689
 30
0.0
 40
0.0625
 50
90.0
 51
270.0
  0
CIRCLE
  8
HIDDEN
 62
     7
 10
2.91078
 20
10.171189
 30
0.0
 40
0.1015
  0
LINE
  8
HIDDEN
 62
     7
 10
3.12378
 20
9.801189
 30
0.0
 11
2.72378
 21
9.801189
 31
0.0
  0
ARC
  8
OBJECT
 62
     7
 10
3.53928
 20
13.396689
 30
0.0
 40
0.0625
 50
90.0
 51
270.0
  0
ARC
  8
OBJECT
 62
     7
 10
3.53928
 20
11.646689
 30
0.0
 40
0.0625
 50
90.0
 51
270.0
  0
LINE
  8
OBJECT
 62
     7
 10
3.53928
 20
11.334189
 30
0.0
 11
3.93278
 21
11.334189
 31
0.0
  0
LINE
  8
OBJECT
 62
     7
 10
3.93278
 20
11.459189
 30
0.0
 11
3.53928
 21
11.459189
 31
0.0
  0
LINE
  8
OBJECT
 62
     7
 10
3.53928
 20
11.584189
 30
0.0
 11
3.93278
 21
11.584189
 31
0.0
  0
LINE
  8
OBJECT
 62
     7
 10
3.53928
 20
11.084189
 30
0.0
 11
3.93278
 21
11.084189
 31
0.0
  0
LINE
  8
OBJECT
 62
     7
 10
3.93278
 20
11.209189
 30
0.0
 11
3.53928
 21
11.209189
 31
0.0
  0
ARC
  8
OBJECT
 62
     7
 10
3.53928
 20
11.146689
 30
0.0
 40
0.0625
 50
90.0
 51
270.0
  0
ARC
  8
OBJECT
 62
     7
 10
3.53928
 20
11.396689
 30
0.0
 40
0.0625
 50
90.0
 51
270.0
  0
LINE
  8
OBJECT
 62
     7
 10
3.93278
 20
11.959189
 30
0.0
 11
3.53928
 21
11.959189
 31
0.0
  0
LINE
  8
OBJECT
 62
     7
 10
3.53928
 20
12.084189
 30
0.0
 11
3.93278
 21
12.084189
 31
0.0
  0
LINE
  8
OBJECT
 62
     7
 10
3.93278
 20
12.209189
 30
0.0
 11
3.53928
 21
12.209189
 31
0.0
  0
LINE
  8
OBJECT
 62
     7
 10
3.53928
 20
11.834189
 30
0.0
 11
3.93278
 21
11.834189
 31
0.0
  0
LINE
  8
OBJECT
 62
     7
 10
3.93278
 20
11.709189
 30
0.0
 11
3.53928
 21
11.709189
 31
0.0
  0
ARC
  8
OBJECT
 62
     7
 10
3.53928
 20
11.896689
 30
0.0
 40
0.0625
 50
90.0
 51
270.0
  0
ARC
  8
OBJECT
 62
     7
 10
3.53928
 20
12.146689
 30
0.0
 40
0.0625
 50
90.0
 51
270.0
  0
LINE
  8
OBJECT
 62
     7
 10
3.53928
 20
12.334189
 30
0.0
 11
3.93278
 21
12.334189
 31
0.0
  0
LINE
  8
OBJECT
 62
     7
 10
3.53928
 20
12.584189
 30
0.0
 11
3.93278
 21
12.584189
 31
0.0
  0
LINE
  8
OBJECT
 62
     7
 10
3.93278
 20
12.709189
 30
0.0
 11
3.53928
 21
12.709189
 31
0.0
  0
LINE
  8
OBJECT
 62
     7
 10
3.93278
 20
12.459189
 30
0.0
 11
3.53928
 21
12.459189
 31
0.0
  0
ARC
  8
OBJECT
 62
     7
 10
3.53928
 20
12.396689
 30
0.0
 40
0.0625
 50
90.0
 51
270.0
  0
ARC
  8
OBJECT
 62
     7
 10
3.53928
 20
12.646689
 30
0.0
 40
0.0625
 50
90.0
 51
270.0
  0
LINE
  8
OBJECT
 62
     7
 10
3.53928
 20
13.084189
 30
0.0
 11
3.93278
 21
13.084189
 31
0.0
  0
LINE
  8
OBJECT
 62
     7
 10
3.93278
 20
13.209189
 30
0.0
 11
3.53928
 21
13.209189
 31
0.0
  0
LINE
  8
OBJECT
 62
     7
 10
3.53928
 20
13.334189
 30
0.0
 11
3.93278
 21
13.334189
 31
0.0
  0
LINE
  8
OBJECT
 62
     7
 10
3.53928
 20
12.834189
 30
0.0
 11
3.93278
 21
12.834189
 31
0.0
  0
LINE
  8
OBJECT
 62
     7
 10
3.93278
 20
12.959189
 30
0.0
 11
3.53928
 21
12.959189
 31
0.0
  0
ARC
  8
OBJECT
 62
     7
 10
3.53928
 20
12.896689
 30
0.0
 40
0.0625
 50
90.0
 51
270.0
  0
ARC
  8
OBJECT
 62
     7
 10
3.53928
 20
13.146689
 30
0.0
 40
0.0625
 50
90.0
 51
270.0
  0
ARC
  8
OBJECT
 62
     7
 10
3.53928
 20
14.646689
 30
0.0
 40
0.0625
 50
90.0
 51
270.0
  0
LINE
  8
OBJECT
 62
     7
 10
3.93278
 20
13.709189
 30
0.0
 11
3.53928
 21
13.709189
 31
0.0
  0
LINE
  8
OBJECT
 62
     7
 10
3.53928
 20
13.834189
 30
0.0
 11
3.93278
 21
13.834189
 31
0.0
  0
LINE
  8
OBJECT
 62
     7
 10
3.93278
 20
13.959189
 30
0.0
 11
3.53928
 21
13.959189
 31
0.0
  0
LINE
  8
OBJECT
 62
     7
 10
3.53928
 20
13.584189
 30
0.0
 11
3.93278
 21
13.584189
 31
0.0
  0
LINE
  8
OBJECT
 62
     7
 10
3.93278
 20
13.459189
 30
0.0
 11
3.53928
 21
13.459189
 31
0.0
  0
ARC
  8
OBJECT
 62
     7
 10
3.53928
 20
13.646689
 30
0.0
 40
0.0625
 50
90.0
 51
270.0
  0
ARC
  8
OBJECT
 62
     7
 10
3.53928
 20
13.896689
 30
0.0
 40
0.0625
 50
90.0
 51
270.0
  0
LINE
  8
OBJECT
 62
     7
 10
3.53928
 20
14.334189
 30
0.0
 11
3.93278
 21
14.334189
 31
0.0
  0
LINE
  8
OBJECT
 62
     7
 10
3.93278
 20
14.459189
 30
0.0
 11
3.53928
 21
14.459189
 31
0.0
  0
LINE
  8
OBJECT
 62
     7
 10
3.53928
 20
14.584189
 30
0.0
 11
3.93278
 21
14.584189
 31
0.0
  0
LINE
  8
OBJECT
 62
     7
 10
3.53928
 20
14.084189
 30
0.0
 11
3.93278
 21
14.084189
 31
0.0
  0
LINE
  8
OBJECT
 62
     7
 10
3.93278
 20
14.209189
 30
0.0
 11
3.53928
 21
14.209189
 31
0.0
  0
ARC
  8
OBJECT
 62
     7
 10
3.53928
 20
14.146689
 30
0.0
 40
0.0625
 50
90.0
 51
270.0
  0
ARC
  8
OBJECT
 62
     7
 10
3.53928
 20
14.396689
 30
0.0
 40
0.0625
 50
90.0
 51
270.0
  0
LINE
  8
OBJECT
 62
     7
 10
3.93278
 20
14.709189
 30
0.0
 11
3.53928
 21
14.709189
 31
0.0
  0
LINE
  8
OBJECT
 62
     7
 10
3.53928
 20
14.834189
 30
0.0
 11
3.93278
 21
14.834189
 31
0.0
  0
LINE
  8
OBJECT
 62
     7
 10
3.93278
 20
14.959189
 30
0.0
 11
3.53928
 21
14.959189
 31
0.0
  0
ARC
  8
OBJECT
 62
     7
 10
3.53928
 20
14.896689
 30
0.0
 40
0.0625
 50
90.0
 51
270.0
  0
CIRCLE
  8
HIDDEN
 62
     7
 10
2.91078
 20
14.889189
 30
0.0
 40
0.1015
  0
LINE
  8
HIDDEN
 62
     7
 10
2.72378
 20
15.259189
 30
0.0
 11
3.12378
 21
15.259189
 31
0.0
  0
LINE
  8
HIDDEN
 62
     7
 10
3.07378
 20
16.155189
 30
0.0
 11
3.88278
 21
16.155189
 31
0.0
  0
LINE
  8
HIDDEN
 62
     7
 10
3.83278
 20
16.480189
 30
0.0
 11
3.83278
 21
16.155189
 31
0.0
  0
ARC
  8
HIDDEN
 62
     7
 10
3.88278
 20
16.480189
 30
0.0
 40
0.05
 50
0.0
 51
180.0
  0
POLYLINE
  8
OBJECT
 62
     7
 66
     1
 10
0.0
 20
0.0
 30
0.0
 70
     1
  0
VERTEX
  8
OBJECT
 62
     7
 10
2.18278
 20
8.530189
 30
0.0
  0
VERTEX
  8
OBJECT
 62
     7
 10
3.04178
 20
8.530189
 30
0.0
  0
VERTEX
  8
OBJECT
 62
     7
 10
3.04178
 20
16.530189
 30
0.0
  0
VERTEX
  8
OBJECT
 62
     7
 10
2.18278
 20
16.530189
 30
0.0
  0
SEQEND
  8
OBJECT
 62
     7
  0
POLYLINE
  8
OBJECT
 62
     7
 66
     1
 10
0.0
 20
0.0
 30
0.0
 70
     1
  0
VERTEX
  8
OBJECT
 62
     7
 10
3.93278
 20
8.530189
 30
0.0
  0
VERTEX
  8
OBJECT
 62
     7
 10
3.07378
 20
8.530189
 30
0.0
  0
VERTEX
  8
OBJECT
 62
     7
 10
3.07378
 20
16.530189
 30
0.0
  0
VERTEX
  8
OBJECT
 62
     7
 10
3.93278
 20
16.530189
 30
0.0
  0
SEQEND
  8
OBJECT
 62
     7
  0
POLYLINE
  8
HIDDEN
 62
     7
 66
     1
 10
0.0
 20
0.0
 30
0.0
 70
     1
  0
VERTEX
  8
HIDDEN
 62
     7
 10
3.85778
 20
9.030189
 30
0.0
  0
VERTEX
  8
HIDDEN
 62
     7
 10
3.85778
 20
8.905189
 30
0.0
  0
VERTEX
  8
HIDDEN
 62
     7
 10
2.25778
 20
8.905189
 30
0.0
  0
VERTEX
  8
HIDDEN
 62
     7
 10
2.25778
 20
9.030189
 30
0.0
  0
SEQEND
  8
HIDDEN
 62
     7
  0
LINE
  8
HIDDEN
 62
     7
 10
2.62028
 20
9.779696
 30
0.0
 11
3.49528
 21
9.779696
 31
0.0
  0
LINE
  8
HIDDEN
 62
     7
 10
2.62028
 20
9.779696
 30
0.0
 11
2.62028
 21
9.030189
 31
0.0
  0
LINE
  8
HIDDEN
 62
     7
 10
3.49528
 20
9.779696
 30
0.0
 11
3.49528
 21
9.030189
 31
0.0
  0
LINE
  8
HIDDEN
 62
     7
 10
2.62028
 20
15.280683
 30
0.0
 11
3.49528
 21
15.280683
 31
0.0
  0
LINE
  8
HIDDEN
 62
     7
 10
2.62028
 20
15.280683
 30
0.0
 11
2.62028
 21
16.030189
 31
0.0
  0
LINE
  8
HIDDEN
 62
     7
 10
3.49528
 20
15.280683
 30
0.0
 11
3.49528
 21
16.030189
 31
0.0
  0
POLYLINE
  8
HIDDEN
 62
     7
 66
     1
 10
0.0
 20
0.0
 30
0.0
 70
     1
  0
VERTEX
  8
HIDDEN
 62
     7
 10
3.85778
 20
16.030189
 30
0.0
  0
VERTEX
  8
HIDDEN
 62
     7
 10
3.85778
 20
16.155189
 30
0.0
  0
VERTEX
  8
HIDDEN
 62
     7
 10
2.25778
 20
16.155189
 30
0.0
  0
VERTEX
  8
HIDDEN
 62
     7
 10
2.25778
 20
16.030189
 30
0.0
  0
SEQEND
  8
HIDDEN
 62
     7
  0
LINE
  8
OBJECT
 62
     7
 10
26.05681
 20
15.280683
 30
0.0
 11
26.51031
 21
15.280683
 31
0.0
  0
CIRCLE
  8
OBJECT
 62
     7
 10
26.18181
 20
15.598683
 30
0.0
 40
0.0625
  0
LINE
  8
OBJECT
 62
     7
 10
26.05681
 20
15.280683
 30
0.0
 11
26.05681
 21
16.030189
 31
0.0
  0
LINE
  8
HIDDEN
 62
     7
 10
26.93181
 20
15.280683
 30
0.0
 11
26.93181
 21
16.030189
 31
0.0
  0
POLYLINE
  8
OBJECT
 62
     7
 66
     1
 10
0.0
 20
0.0
 30
0.0
 70
     1
  0
VERTEX
  8
OBJECT
 62
     7
 10
16.211762
 20
4.570616
 30
0.0
 42
-0.414214
  0
VERTEX
  8
OBJECT
 62
     7
 10
15.949762
 20
4.832616
 30
0.0
  0
VERTEX
  8
OBJECT
 62
     7
 10
15.949762
 20
5.329616
 30
0.0
  0
VERTEX
  8
OBJECT
 62
     7
 10
15.849762
 20
5.329616
 30
0.0
  0
VERTEX
  8
OBJECT
 62
     7
 10
15.849762
 20
4.832616
 30
0.0
 42
0.414214
  0
VERTEX
  8
OBJECT
 62
     7
 10
16.211762
 20
4.470616
 30
0.0
  0
VERTEX
  8
OBJECT
 62
     7
 10
23.987762
 20
4.470616
 30
0.0
 42
0.414214
  0
VERTEX
  8
OBJECT
 62
     7
 10
24.349762
 20
4.832616
 30
0.0
  0
VERTEX
  8
OBJECT
 62
     7
 10
24.349762
 20
5.329616
 30
0.0
  0
VERTEX
  8
OBJECT
 62
     7
 10
24.249762
 20
5.329616
 30
0.0
  0
VERTEX
  8
OBJECT
 62
     7
 10
24.249762
 20
4.832616
 30
0.0
 42
-0.414214
  0
VERTEX
  8
OBJECT
 62
     7
 10
23.987762
 20
4.570616
 30
0.0
  0
SEQEND
  8
OBJECT
 62
     7
  0
POLYLINE
  8
HIDDEN
 62
     7
 66
     1
 10
0.0
 20
0.0
 30
0.0
  0
VERTEX
  8
HIDDEN
 62
     7
 10
15.899762
 20
5.329616
 30
0.0
  0
VERTEX
  8
HIDDEN
 62
     7
 10
15.899762
 20
4.832616
 30
0.0
 42
0.414214
  0
VERTEX
  8
HIDDEN
 62
     7
 10
16.211762
 20
4.520616
 30
0.0
  0
VERTEX
  8
HIDDEN
 62
     7
 10
23.987762
 20
4.520616
 30
0.0
 42
0.414214
  0
VERTEX
  8
HIDDEN
 62
     7
 10
24.299762
 20
4.832616
 30
0.0
  0
VERTEX
  8
HIDDEN
 62
     7
 10
24.299762
 20
5.279616
 30
0.0
  0
VERTEX
  8
HIDDEN
 62
     7
 10
24.239762
 20
5.279616
 30
0.0
  0
VERTEX
  8
HIDDEN
 62
     7
 10
24.239762
 20
5.679616
 30
0.0
  0
VERTEX
  8
HIDDEN
 62
     7
 10
24.289762
 20
5.679616
 30
0.0
  0
VERTEX
  8
HIDDEN
 62
     7
 10
24.289762
 20
5.329616
 30
0.0
  0
SEQEND
  8
HIDDEN
 62
     7
  0
POLYLINE
  8
OBJECT
 62
     7
 66
     1
 10
0.0
 20
0.0
 30
0.0
  0
VERTEX
  8
OBJECT
 62
     7
 10
15.909762
 20
16.155189
 30
0.0
  0
VERTEX
  8
OBJECT
 62
     7
 10
15.909762
 20
16.030189
 30
0.0
  0
VERTEX
  8
OBJECT
 62
     7
 10
24.289762
 20
16.030189
 30
0.0
  0
VERTEX
  8
OBJECT
 62
     7
 10
24.289762
 20
16.155189
 30
0.0
  0
SEQEND
  8
OBJECT
 62
     7
  0
POLYLINE
  8
OBJECT
 62
     7
 66
     1
 10
0.0
 20
0.0
 30
0.0
  0
VERTEX
  8
OBJECT
 62
     7
 10
15.909762
 20
8.905189
 30
0.0
  0
VERTEX
  8
OBJECT
 62
     7
 10
15.909762
 20
9.030189
 30
0.0
  0
VERTEX
  8
OBJECT
 62
     7
 10
24.289762
 20
9.030189
 30
0.0
  0
VERTEX
  8
OBJECT
 62
     7
 10
24.289762
 20
8.905189
 30
0.0
  0
SEQEND
  8
OBJECT
 62
     7
  0
LINE
  8
OBJECT
 62
     7
 10
15.849762
 20
8.905189
 30
0.0
 11
24.349762
 21
8.905189
 31
0.0
  0
LINE
  8
OBJECT
 62
     7
 10
15.849762
 20
16.155189
 30
0.0
 11
24.349762
 21
16.155189
 31
0.0
  0
LINE
  8
OBJECT
 62
     7
 10
15.899762
 20
16.530189
 30
0.0
 11
24.299762
 21
16.530189
 31
0.0
  0
LINE
  8
OBJECT
 62
     7
 10
15.899762
 20
8.530189
 30
0.0
 11
24.299762
 21
8.530189
 31
0.0
  0
LINE
  8
OBJECT
 62
     7
 10
15.899762
 20
16.480189
 30
0.0
 11
15.899762
 21
8.580189
 31
0.0
  0
LINE
  8
OBJECT
 62
     7
 10
15.849762
 20
16.480189
 30
0.0
 11
15.849762
 21
8.580189
 31
0.0
  0
LINE
  8
HIDDEN
 62
     7
 10
15.899762
 20
5.783116
 30
0.0
 11
15.899762
 21
4.908116
 31
0.0
  0
LINE
  8
HIDDEN
 62
     7
 10
15.899762
 20
4.908116
 30
0.0
 11
16.019762
 21
4.908116
 31
0.0
  0
LINE
  8
HIDDEN
 62
     7
 10
15.899762
 20
5.783116
 30
0.0
 11
16.019762
 21
5.783116
 31
0.0
  0
ARC
  8
OBJECT
 62
     7
 10
15.899762
 20
8.580189
 30
0.0
 40
0.05
 50
180.0
 51
0.0
  0
LINE
  8
OBJECT
 62
     7
 10
15.949762
 20
8.580189
 30
0.0
 11
15.949762
 21
8.905189
 31
0.0
  0
LINE
  8
OBJECT
 62
     7
 10
15.849762
 20
10.834189
 30
0.0
 11
16.257762
 21
10.834189
 31
0.0
  0
LINE
  8
OBJECT
 62
     7
 10
16.257762
 20
10.959189
 30
0.0
 11
15.849762
 21
10.959189
 31
0.0
  0
LINE
  8
OBJECT
 62
     7
 10
15.849762
 20
10.334189
 30
0.0
 11
16.257762
 21
10.334189
 31
0.0
  0
LINE
  8
OBJECT
 62
     7
 10
16.257762
 20
10.459189
 30
0.0
 11
15.849762
 21
10.459189
 31
0.0
  0
LINE
  8
OBJECT
 62
     7
 10
15.849762
 20
10.584189
 30
0.0
 11
16.257762
 21
10.584189
 31
0.0
  0
LINE
  8
OBJECT
 62
     7
 10
16.257762
 20
10.709189
 30
0.0
 11
15.849762
 21
10.709189
 31
0.0
  0
LINE
  8
OBJECT
 62
     7
 10
15.849762
 20
10.084189
 30
0.0
 11
16.257762
 21
10.084189
 31
0.0
  0
LINE
  8
OBJECT
 62
     7
 10
16.257762
 20
10.209189
 30
0.0
 11
15.849762
 21
10.209189
 31
0.0
  0
ARC
  8
OBJECT
 62
     7
 10
16.257762
 20
10.396689
 30
0.0
 40
0.0625
 50
270.0
 51
90.0
  0
ARC
  8
OBJECT
 62
     7
 10
16.257762
 20
10.146689
 30
0.0
 40
0.0625
 50
270.0
 51
90.0
  0
ARC
  8
OBJECT
 62
     7
 10
16.257762
 20
10.896689
 30
0.0
 40
0.0625
 50
270.0
 51
90.0
  0
ARC
  8
OBJECT
 62
     7
 10
16.257762
 20
10.646689
 30
0.0
 40
0.0625
 50
270.0
 51
90.0
  0
ARC
  8
OBJECT
 62
     7
 10
16.257762
 20
13.396689
 30
0.0
 40
0.0625
 50
270.0
 51
90.0
  0
LINE
  8
OBJECT
 62
     7
 10
15.849762
 20
12.084189
 30
0.0
 11
16.257762
 21
12.084189
 31
0.0
  0
LINE
  8
OBJECT
 62
     7
 10
16.257762
 20
12.209189
 30
0.0
 11
15.849762
 21
12.209189
 31
0.0
  0
LINE
  8
OBJECT
 62
     7
 10
15.849762
 20
11.584189
 30
0.0
 11
16.257762
 21
11.584189
 31
0.0
  0
LINE
  8
OBJECT
 62
     7
 10
16.257762
 20
11.709189
 30
0.0
 11
15.849762
 21
11.709189
 31
0.0
  0
LINE
  8
OBJECT
 62
     7
 10
15.849762
 20
11.334189
 30
0.0
 11
16.257762
 21
11.334189
 31
0.0
  0
LINE
  8
OBJECT
 62
     7
 10
16.257762
 20
11.459189
 30
0.0
 11
15.849762
 21
11.459189
 31
0.0
  0
LINE
  8
OBJECT
 62
     7
 10
15.849762
 20
11.834189
 30
0.0
 11
16.257762
 21
11.834189
 31
0.0
  0
LINE
  8
OBJECT
 62
     7
 10
16.257762
 20
11.959189
 30
0.0
 11
15.849762
 21
11.959189
 31
0.0
  0
LINE
  8
OBJECT
 62
     7
 10
15.849762
 20
11.084189
 30
0.0
 11
16.257762
 21
11.084189
 31
0.0
  0
LINE
  8
OBJECT
 62
     7
 10
16.257762
 20
11.209189
 30
0.0
 11
15.849762
 21
11.209189
 31
0.0
  0
ARC
  8
OBJECT
 62
     7
 10
16.257762
 20
11.646689
 30
0.0
 40
0.0625
 50
270.0
 51
90.0
  0
ARC
  8
OBJECT
 62
     7
 10
16.257762
 20
11.396689
 30
0.0
 40
0.0625
 50
270.0
 51
90.0
  0
ARC
  8
OBJECT
 62
     7
 10
16.257762
 20
11.146689
 30
0.0
 40
0.0625
 50
270.0
 51
90.0
  0
ARC
  8
OBJECT
 62
     7
 10
16.257762
 20
12.146689
 30
0.0
 40
0.0625
 50
270.0
 51
90.0
  0
ARC
  8
OBJECT
 62
     7
 10
16.257762
 20
11.896689
 30
0.0
 40
0.0625
 50
270.0
 51
90.0
  0
LINE
  8
OBJECT
 62
     7
 10
15.849762
 20
13.334189
 30
0.0
 11
16.257762
 21
13.334189
 31
0.0
  0
LINE
  8
OBJECT
 62
     7
 10
15.849762
 20
13.084189
 30
0.0
 11
16.257762
 21
13.084189
 31
0.0
  0
LINE
  8
OBJECT
 62
     7
 10
16.257762
 20
13.209189
 30
0.0
 11
15.849762
 21
13.209189
 31
0.0
  0
LINE
  8
OBJECT
 62
     7
 10
15.849762
 20
12.834189
 30
0.0
 11
16.257762
 21
12.834189
 31
0.0
  0
LINE
  8
OBJECT
 62
     7
 10
16.257762
 20
12.959189
 30
0.0
 11
15.849762
 21
12.959189
 31
0.0
  0
LINE
  8
OBJECT
 62
     7
 10
15.849762
 20
12.584189
 30
0.0
 11
16.257762
 21
12.584189
 31
0.0
  0
LINE
  8
OBJECT
 62
     7
 10
16.257762
 20
12.709189
 30
0.0
 11
15.849762
 21
12.709189
 31
0.0
  0
LINE
  8
OBJECT
 62
     7
 10
15.849762
 20
12.334189
 30
0.0
 11
16.257762
 21
12.334189
 31
0.0
  0
LINE
  8
OBJECT
 62
     7
 10
16.257762
 20
12.459189
 30
0.0
 11
15.849762
 21
12.459189
 31
0.0
  0
ARC
  8
OBJECT
 62
     7
 10
16.257762
 20
12.646689
 30
0.0
 40
0.0625
 50
270.0
 51
90.0
  0
ARC
  8
OBJECT
 62
     7
 10
16.257762
 20
12.396689
 30
0.0
 40
0.0625
 50
270.0
 51
90.0
  0
ARC
  8
OBJECT
 62
     7
 10
16.257762
 20
13.146689
 30
0.0
 40
0.0625
 50
270.0
 51
90.0
  0
ARC
  8
OBJECT
 62
     7
 10
16.257762
 20
12.896689
 30
0.0
 40
0.0625
 50
270.0
 51
90.0
  0
ARC
  8
OBJECT
 62
     7
 10
16.257762
 20
14.646689
 30
0.0
 40
0.0625
 50
270.0
 51
90.0
  0
LINE
  8
OBJECT
 62
     7
 10
15.849762
 20
14.584189
 30
0.0
 11
16.257762
 21
14.584189
 31
0.0
  0
LINE
  8
OBJECT
 62
     7
 10
15.849762
 20
14.334189
 30
0.0
 11
16.257762
 21
14.334189
 31
0.0
  0
LINE
  8
OBJECT
 62
     7
 10
16.257762
 20
14.459189
 30
0.0
 11
15.849762
 21
14.459189
 31
0.0
  0
LINE
  8
OBJECT
 62
     7
 10
15.849762
 20
14.084189
 30
0.0
 11
16.257762
 21
14.084189
 31
0.0
  0
LINE
  8
OBJECT
 62
     7
 10
16.257762
 20
14.209189
 30
0.0
 11
15.849762
 21
14.209189
 31
0.0
  0
LINE
  8
OBJECT
 62
     7
 10
15.849762
 20
13.834189
 30
0.0
 11
16.257762
 21
13.834189
 31
0.0
  0
LINE
  8
OBJECT
 62
     7
 10
16.257762
 20
13.959189
 30
0.0
 11
15.849762
 21
13.959189
 31
0.0
  0
LINE
  8
OBJECT
 62
     7
 10
16.257762
 20
13.459189
 30
0.0
 11
15.849762
 21
13.459189
 31
0.0
  0
LINE
  8
OBJECT
 62
     7
 10
15.849762
 20
13.584189
 30
0.0
 11
16.257762
 21
13.584189
 31
0.0
  0
LINE
  8
OBJECT
 62
     7
 10
16.257762
 20
13.709189
 30
0.0
 11
15.849762
 21
13.709189
 31
0.0
  0
ARC
  8
OBJECT
 62
     7
 10
16.257762
 20
13.896689
 30
0.0
 40
0.0625
 50
270.0
 51
90.0
  0
ARC
  8
OBJECT
 62
     7
 10
16.257762
 20
13.646689
 30
0.0
 40
0.0625
 50
270.0
 51
90.0
  0
ARC
  8
OBJECT
 62
     7
 10
16.257762
 20
14.396689
 30
0.0
 40
0.0625
 50
270.0
 51
90.0
  0
ARC
  8
OBJECT
 62
     7
 10
16.257762
 20
14.146689
 30
0.0
 40
0.0625
 50
270.0
 51
90.0
  0
LINE
  8
OBJECT
 62
     7
 10
15.849762
 20
14.834189
 30
0.0
 11
16.257762
 21
14.834189
 31
0.0
  0
LINE
  8
OBJECT
 62
     7
 10
16.257762
 20
14.959189
 30
0.0
 11
15.849762
 21
14.959189
 31
0.0
  0
LINE
  8
OBJECT
 62
     7
 10
16.257762
 20
14.709189
 30
0.0
 11
15.849762
 21
14.709189
 31
0.0
  0
ARC
  8
OBJECT
 62
     7
 10
16.257762
 20
14.896689
 30
0.0
 40
0.0625
 50
270.0
 51
90.0
  0
ARC
  8
OBJECT
 62
     7
 10
15.899762
 20
16.480189
 30
0.0
 40
0.05
 50
0.0
 51
180.0
  0
LINE
  8
OBJECT
 62
     7
 10
15.949762
 20
16.480189
 30
0.0
 11
15.949762
 21
16.155189
 31
0.0
  0
LINE
  8
OBJECT
 62
     7
 10
24.289762
 20
15.259189
 30
0.0
 11
24.289762
 21
9.801189
 31
0.0
  0
LINE
  8
OBJECT
 62
     7
 10
24.239762
 20
15.259189
 30
0.0
 11
24.239762
 21
9.801189
 31
0.0
  0
LINE
  8
OBJECT
 62
     7
 10
24.299762
 20
16.480189
 30
0.0
 11
24.299762
 21
15.259189
 31
0.0
  0
LINE
  8
OBJECT
 62
     7
 10
24.349762
 20
16.480189
 30
0.0
 11
24.349762
 21
8.580189
 31
0.0
  0
LINE
  8
HIDDEN
 62
     7
 10
24.299762
 20
5.783116
 30
0.0
 11
24.299762
 21
4.908116
 31
0.0
  0
LINE
  8
HIDDEN
 62
     7
 10
24.299762
 20
4.908116
 30
0.0
 11
24.179762
 21
4.908116
 31
0.0
  0
LINE
  8
HIDDEN
 62
     7
 10
24.299762
 20
5.783116
 30
0.0
 11
24.179762
 21
5.783116
 31
0.0
  0
ARC
  8
OBJECT
 62
     7
 10
24.299762
 20
8.580189
 30
0.0
 40
0.05
 50
180.0
 51
0.0
  0
LINE
  8
OBJECT
 62
     7
 10
24.249762
 20
8.580189
 30
0.0
 11
24.249762
 21
8.905189
 31
0.0
  0
LINE
  8
OBJECT
 62
     7
 10
24.349762
 20
9.801189
 30
0.0
 11
24.239762
 21
9.801189
 31
0.0
  0
LINE
  8
OBJECT
 62
     7
 10
24.349762
 20
10.834189
 30
0.0
 11
23.941762
 21
10.834189
 31
0.0
  0
LINE
  8
OBJECT
 62
     7
 10
23.941762
 20
10.959189
 30
0.0
 11
24.349762
 21
10.959189
 31
0.0
  0
LINE
  8
OBJECT
 62
     7
 10
24.349762
 20
10.584189
 30
0.0
 11
23.941762
 21
10.584189
 31
0.0
  0
LINE
  8
OBJECT
 62
     7
 10
23.941762
 20
10.709189
 30
0.0
 11
24.349762
 21
10.709189
 31
0.0
  0
LINE
  8
OBJECT
 62
     7
 10
24.349762
 20
10.334189
 30
0.0
 11
23.941762
 21
10.334189
 31
0.0
  0
LINE
  8
OBJECT
 62
     7
 10
23.941762
 20
10.459189
 30
0.0
 11
24.349762
 21
10.459189
 31
0.0
  0
LINE
  8
OBJECT
 62
     7
 10
24.349762
 20
10.084189
 30
0.0
 11
23.941762
 21
10.084189
 31
0.0
  0
LINE
  8
OBJECT
 62
     7
 10
23.941762
 20
10.209189
 30
0.0
 11
24.349762
 21
10.209189
 31
0.0
  0
ARC
  8
OBJECT
 62
     7
 10
23.941762
 20
10.396689
 30
0.0
 40
0.0625
 50
90.0
 51
270.0
  0
ARC
  8
OBJECT
 62
     7
 10
23.941762
 20
10.146689
 30
0.0
 40
0.0625
 50
90.0
 51
270.0
  0
ARC
  8
OBJECT
 62
     7
 10
23.941762
 20
10.896689
 30
0.0
 40
0.0625
 50
90.0
 51
270.0
  0
ARC
  8
OBJECT
 62
     7
 10
23.941762
 20
10.646689
 30
0.0
 40
0.0625
 50
90.0
 51
270.0
  0
ARC
  8
OBJECT
 62
     7
 10
23.941762
 20
13.396689
 30
0.0
 40
0.0625
 50
90.0
 51
270.0
  0
LINE
  8
OBJECT
 62
     7
 10
24.349762
 20
12.084189
 30
0.0
 11
23.941762
 21
12.084189
 31
0.0
  0
LINE
  8
OBJECT
 62
     7
 10
23.941762
 20
12.209189
 30
0.0
 11
24.349762
 21
12.209189
 31
0.0
  0
LINE
  8
OBJECT
 62
     7
 10
24.349762
 20
11.834189
 30
0.0
 11
23.941762
 21
11.834189
 31
0.0
  0
LINE
  8
OBJECT
 62
     7
 10
23.941762
 20
11.959189
 30
0.0
 11
24.349762
 21
11.959189
 31
0.0
  0
LINE
  8
OBJECT
 62
     7
 10
24.349762
 20
11.584189
 30
0.0
 11
23.941762
 21
11.584189
 31
0.0
  0
LINE
  8
OBJECT
 62
     7
 10
23.941762
 20
11.709189
 30
0.0
 11
24.349762
 21
11.709189
 31
0.0
  0
LINE
  8
OBJECT
 62
     7
 10
24.349762
 20
11.334189
 30
0.0
 11
23.941762
 21
11.334189
 31
0.0
  0
LINE
  8
OBJECT
 62
     7
 10
23.941762
 20
11.459189
 30
0.0
 11
24.349762
 21
11.459189
 31
0.0
  0
LINE
  8
OBJECT
 62
     7
 10
24.349762
 20
11.084189
 30
0.0
 11
23.941762
 21
11.084189
 31
0.0
  0
LINE
  8
OBJECT
 62
     7
 10
23.941762
 20
11.209189
 30
0.0
 11
24.349762
 21
11.209189
 31
0.0
  0
ARC
  8
OBJECT
 62
     7
 10
23.941762
 20
11.646689
 30
0.0
 40
0.0625
 50
90.0
 51
270.0
  0
ARC
  8
OBJECT
 62
     7
 10
23.941762
 20
11.396689
 30
0.0
 40
0.0625
 50
90.0
 51
270.0
  0
ARC
  8
OBJECT
 62
     7
 10
23.941762
 20
11.146689
 30
0.0
 40
0.0625
 50
90.0
 51
270.0
  0
ARC
  8
OBJECT
 62
     7
 10
23.941762
 20
12.146689
 30
0.0
 40
0.0625
 50
90.0
 51
270.0
  0
ARC
  8
OBJECT
 62
     7
 10
23.941762
 20
11.896689
 30
0.0
 40
0.0625
 50
90.0
 51
270.0
  0
LINE
  8
OBJECT
 62
     7
 10
24.349762
 20
13.334189
 30
0.0
 11
23.941762
 21
13.334189
 31
0.0
  0
LINE
  8
OBJECT
 62
     7
 10
24.349762
 20
13.084189
 30
0.0
 11
23.941762
 21
13.084189
 31
0.0
  0
LINE
  8
OBJECT
 62
     7
 10
23.941762
 20
13.209189
 30
0.0
 11
24.349762
 21
13.209189
 31
0.0
  0
LINE
  8
OBJECT
 62
     7
 10
24.349762
 20
12.834189
 30
0.0
 11
23.941762
 21
12.834189
 31
0.0
  0
LINE
  8
OBJECT
 62
     7
 10
23.941762
 20
12.959189
 30
0.0
 11
24.349762
 21
12.959189
 31
0.0
  0
LINE
  8
OBJECT
 62
     7
 10
24.349762
 20
12.584189
 30
0.0
 11
23.941762
 21
12.584189
 31
0.0
  0
LINE
  8
OBJECT
 62
     7
 10
23.941762
 20
12.709189
 30
0.0
 11
24.349762
 21
12.709189
 31
0.0
  0
LINE
  8
OBJECT
 62
     7
 10
24.349762
 20
12.334189
 30
0.0
 11
23.941762
 21
12.334189
 31
0.0
  0
LINE
  8
OBJECT
 62
     7
 10
23.941762
 20
12.459189
 30
0.0
 11
24.349762
 21
12.459189
 31
0.0
  0
ARC
  8
OBJECT
 62
     7
 10
23.941762
 20
12.646689
 30
0.0
 40
0.0625
 50
90.0
 51
270.0
  0
ARC
  8
OBJECT
 62
     7
 10
23.941762
 20
12.396689
 30
0.0
 40
0.0625
 50
90.0
 51
270.0
  0
ARC
  8
OBJECT
 62
     7
 10
23.941762
 20
13.146689
 30
0.0
 40
0.0625
 50
90.0
 51
270.0
  0
ARC
  8
OBJECT
 62
     7
 10
23.941762
 20
12.896689
 30
0.0
 40
0.0625
 50
90.0
 51
270.0
  0
ARC
  8
OBJECT
 62
     7
 10
23.941762
 20
14.646689
 30
0.0
 40
0.0625
 50
90.0
 51
270.0
  0
LINE
  8
OBJECT
 62
     7
 10
24.349762
 20
14.584189
 30
0.0
 11
23.941762
 21
14.584189
 31
0.0
  0
LINE
  8
OBJECT
 62
     7
 10
24.349762
 20
14.334189
 30
0.0
 11
23.941762
 21
14.334189
 31
0.0
  0
LINE
  8
OBJECT
 62
     7
 10
23.941762
 20
14.459189
 30
0.0
 11
24.349762
 21
14.459189
 31
0.0
  0
LINE
  8
OBJECT
 62
     7
 10
24.349762
 20
14.084189
 30
0.0
 11
23.941762
 21
14.084189
 31
0.0
  0
LINE
  8
OBJECT
 62
     7
 10
23.941762
 20
14.209189
 30
0.0
 11
24.349762
 21
14.209189
 31
0.0
  0
LINE
  8
OBJECT
 62
     7
 10
24.349762
 20
13.834189
 30
0.0
 11
23.941762
 21
13.834189
 31
0.0
  0
LINE
  8
OBJECT
 62
     7
 10
23.941762
 20
13.959189
 30
0.0
 11
24.349762
 21
13.959189
 31
0.0
  0
LINE
  8
OBJECT
 62
     7
 10
23.941762
 20
13.459189
 30
0.0
 11
24.349762
 21
13.459189
 31
0.0
  0
LINE
  8
OBJECT
 62
     7
 10
24.349762
 20
13.584189
 30
0.0
 11
23.941762
 21
13.584189
 31
0.0
  0
LINE
  8
OBJECT
 62
     7
 10
23.941762
 20
13.709189
 30
0.0
 11
24.349762
 21
13.709189
 31
0.0
  0
ARC
  8
OBJECT
 62
     7
 10
23.941762
 20
13.896689
 30
0.0
 40
0.0625
 50
90.0
 51
270.0
  0
ARC
  8
OBJECT
 62
     7
 10
23.941762
 20
13.646689
 30
0.0
 40
0.0625
 50
90.0
 51
270.0
  0
ARC
  8
OBJECT
 62
     7
 10
23.941762
 20
14.396689
 30
0.0
 40
0.0625
 50
90.0
 51
270.0
  0
ARC
  8
OBJECT
 62
     7
 10
23.941762
 20
14.146689
 30
0.0
 40
0.0625
 50
90.0
 51
270.0
  0
LINE
  8
OBJECT
 62
     7
 10
24.349762
 20
14.834189
 30
0.0
 11
23.941762
 21
14.834189
 31
0.0
  0
LINE
  8
OBJECT
 62
     7
 10
23.941762
 20
14.959189
 30
0.0
 11
24.349762
 21
14.959189
 31
0.0
  0
LINE
  8
OBJECT
 62
     7
 10
23.941762
 20
14.709189
 30
0.0
 11
24.349762
 21
14.709189
 31
0.0
  0
ARC
  8
OBJECT
 62
     7
 10
23.941762
 20
14.896689
 30
0.0
 40
0.0625
 50
90.0
 51
270.0
  0
LINE
  8
OBJECT
 62
     7
 10
24.349762
 20
15.259189
 30
0.0
 11
24.239762
 21
15.259189
 31
0.0
  0
ARC
  8
OBJECT
 62
     7
 10
24.299762
 20
16.480189
 30
0.0
 40
0.05
 50
0.0
 51
180.0
  0
LINE
  8
OBJECT
 62
     7
 10
24.249762
 20
16.480189
 30
0.0
 11
24.249762
 21
16.155189
 31
0.0
  0
LINE
  8
OBJECT
 62
     7
 10
24.299762
 20
9.801189
 30
0.0
 11
24.299762
 21
8.580189
 31
0.0
  0
LINE
  8
HIDDEN
 62
     7
 10
24.299762
 20
15.134189
 30
0.0
 11
24.299762
 21
9.926189
 31
0.0
  0
LINE
  8
OBJECT
 62
     7
 10
26.747147
 20
9.402033
 30
0.0
 11
26.866472
 21
9.521358
 31
0.0
  0
LINE
  8
OBJECT
 62
     7
 10
26.866472
 20
9.402033
 30
0.0
 11
26.747147
 21
9.521358
 31
0.0
  0
CIRCLE
  8
OBJECT
 62
     7
 10
26.80681
 20
9.461696
 30
0.0
 40
0.135
  0
CIRCLE
  8
OBJECT
 62
     7
 10
26.80681
 20
15.598683
 30
0.0
 40
0.135
  0
LINE
  8
OBJECT
 62
     7
 10
26.747147
 20
15.658345
 30
0.0
 11
26.866472
 21
15.539021
 31
0.0
  0
LINE
  8
OBJECT
 62
     7
 10
26.866472
 20
15.658345
 30
0.0
 11
26.747147
 21
15.539021
 31
0.0
  0
CIRCLE
  8
OBJECT
 62
     7
 10
2.74528
 20
9.461696
 30
0.0
 40
0.135
  0
LINE
  8
OBJECT
 62
     7
 10
2.685618
 20
9.402033
 30
0.0
 11
2.804942
 21
9.521358
 31
0.0
  0
LINE
  8
OBJECT
 62
     7
 10
2.804942
 20
9.402033
 30
0.0
 11
2.685618
 21
9.521358
 31
0.0
  0
LINE
  8
OBJECT
 62
     7
 10
3.429942
 20
9.402033
 30
0.0
 11
3.310618
 21
9.521358
 31
0.0
  0
LINE
  8
OBJECT
 62
     7
 10
3.310618
 20
9.402033
 30
0.0
 11
3.429942
 21
9.521358
 31
0.0
  0
CIRCLE
  8
OBJECT
 62
     7
 10
3.37028
 20
9.461696
 30
0.0
 40
0.135
  0
CIRCLE
  8
OBJECT
 62
     7
 10
2.74528
 20
15.598683
 30
0.0
 40
0.135
  0
LINE
  8
OBJECT
 62
     7
 10
2.804942
 20
15.658345
 30
0.0
 11
2.685618
 21
15.539021
 31
0.0
  0
LINE
  8
OBJECT
 62
     7
 10
2.685618
 20
15.658345
 30
0.0
 11
2.804942
 21
15.539021
 31
0.0
  0
CIRCLE
  8
OBJECT
 62
     7
 10
3.37028
 20
15.598683
 30
0.0
 40
0.135
  0
LINE
  8
OBJECT
 62
     7
 10
3.310618
 20
15.658345
 30
0.0
 11
3.429942
 21
15.539021
 31
0.0
  0
LINE
  8
OBJECT
 62
     7
 10
3.429942
 20
15.658345
 30
0.0
 11
3.310618
 21
15.539021
 31
0.0
  0
DIMENSION
  8
DIM
 62
     7
  2
*D3
 10
4.320587
 20
4.470616
 30
0.0
 11
4.320587
 21
5.345616
 31
0.0
 12
0.421702
 22
-2.397611
 32
0.0
 13
5.418966
 23
6.220616
 33
0.0
 14
5.418966
 24
4.470616
 34
0.0
 50
270.0
  3
23NSTDI
  0
DIMENSION
  8
DIM
 62
     7
  2
*D1
 10
15.320479
 20
4.545616
 30
0.0
 11
15.320479
 21
5.345616
 31
0.0
 12
0.411702
 22
-2.052727
 32
0.0
 13
16.211762
 23
6.145616
 33
0.0
 14
16.211762
 24
4.545616
 34
0.0
 50
90.0
  3
23NSTDI
  0
DIMENSION
  8
DIM
 62
     7
  2
*D9
 10
14.293345
 20
16.530189
 30
0.0
 11
14.293345
 21
12.530189
 31
0.0
 12
0.421702
 22
-2.397611
 32
0.0
  1
B
 13
13.556966
 23
8.530189
 33
0.0
 14
13.556966
 24
16.530189
 34
0.0
 50
270.0
  3
23NSTD
  0
DIMENSION
  8
DIM
 62
     7
  2
*D13
 10
25.31849
 20
16.030189
 30
0.0
 11
25.31849
 21
12.530189
 31
0.0
  1
E
 13
25.69431
 23
9.030189
 33
0.0
 14
25.69431
 24
16.030189
 34
0.0
 50
90.0
  3
23NSTD
  0
TEXT
  8
TEXT
 10
0.734044
 20
18.719308
 30
0.0
 40
0.25
  1
%%uMATERIAL:
 41
0.75
  7
TXT
  0
TEXT
  8
TEXT
 10
1.000124
 20
18.302642
 30
0.0
 40
0.25
  1
COVERS
 41
0.75
  7
TXT
  0
TEXT
  8
TEXT
 10
1.000124
 20
17.885975
 30
0.0
 40
0.25
  1
PANELS
 41
0.75
  7
TXT
  0
TEXT
  8
TEXT
 10
8.206447
 20
18.719308
 30
0.0
 40
0.25
  1
%%uFINISH:
 41
0.75
  7
TXT
  0
TEXT
  8
TEXT
 10
8.472528
 20
17.473339
 30
0.0
 40
0.25
  1
COVERS
 41
0.75
  7
TXT
  0
TEXT
  8
TEXT
 10
8.472528
 20
18.302642
 30
0.0
 40
0.25
  1
PANELS
 41
0.75
  7
TXT
  0
TEXT
  8
TEXT
 10
12.802383
 20
17.473339
 30
0.0
 40
0.25
  1
FLAT BLACK SMOOTH
 41
0.75
  7
TXT
  0
TEXT
  8
TEXT
 10
12.802383
 20
17.890006
 30
0.0
 40
0.25
  1
NATURAL (UNPAINTED)
 41
0.75
  7
TXT
  0
TEXT
  8
TEXT
 10
3.711981
 20
18.302642
 30
0.0
 40
0.25
  1
0.050 THK. ALUMINUM
 41
0.75
  7
TXT
  0
TEXT
  8
TEXT
 10
3.711981
 20
17.885975
 30
0.0
 40
0.25
  1
0.125 THK. ALUMINUM
 41
0.75
  7
TXT
  0
TEXT
  8
TEXT
 10
12.802383
 20
17.056673
 30
0.0
 40
0.25
  1
OR SAND TEXTURED
 41
0.75
  7
TXT
  0
LINE
  8
TEXT
 10
3.560883
 20
18.329161
 30
0.0
 11
2.300774
 21
18.329161
 31
0.0
  0
LINE
  8
TEXT
 10
3.560883
 20
17.912494
 30
0.0
 11
2.324563
 21
17.912494
 31
0.0
  0
LINE
  8
TEXT
 10
12.651284
 20
17.499858
 30
0.0
 11
9.796967
 21
17.499858
 31
0.0
  0
LINE
  8
TEXT
 10
12.651284
 20
17.916525
 30
0.0
 11
10.057348
 21
17.916525
 31
0.0
  0
LINE
  8
HIDDEN
 62
     7
 10
27.29431
 20
9.030189
 30
0.0
 11
27.29431
 21
8.905189
 31
0.0
  0
LINE
  8
HIDDEN
 62
     7
 10
27.29431
 20
8.905189
 30
0.0
 11
26.60431
 21
8.905189
 31
0.0
  0
LINE
  8
OBJECT
  6
CONTINUOUS
 62
     7
 10
25.69431
 20
8.905189
 30
0.0
 11
25.69431
 21
9.030189
 31
0.0
  0
LINE
  8
OBJECT
  6
CONTINUOUS
 62
     7
 10
25.69431
 20
9.030189
 30
0.0
 11
26.51031
 21
9.030189
 31
0.0
  0
LINE
  8
OBJECT
  6
CONTINUOUS
 62
     7
 10
26.51031
 20
8.905189
 30
0.0
 11
25.69431
 21
8.905189
 31
0.0
  0
LINE
  8
HIDDEN
 62
     7
 10
26.60431
 20
9.030189
 30
0.0
 11
27.29431
 21
9.030189
 31
0.0
  0
POLYLINE
  8
HIDDEN
 62
     7
 66
     1
 10
0.0
 20
0.0
 30
0.0
  0
VERTEX
  8
HIDDEN
 62
     7
 10
27.29431
 20
16.030189
 30
0.0
  0
VERTEX
  8
HIDDEN
 62
     7
 10
27.29431
 20
16.155189
 30
0.0
  0
VERTEX
  8
HIDDEN
 62
     7
 10
26.60431
 20
16.155189
 30
0.0
  0
SEQEND
  8
HIDDEN
 62
     7
  0
POLYLINE
  8
OBJECT
  6
CONTINUOUS
 62
     7
 66
     1
 10
0.0
 20
0.0
 30
0.0
  0
VERTEX
  8
OBJECT
  6
CONTINUOUS
 62
     7
 10
26.51031
 20
16.155189
 30
0.0
  0
VERTEX
  8
OBJECT
  6
CONTINUOUS
 62
     7
 10
25.69431
 20
16.155189
 30
0.0
  0
VERTEX
  8
OBJECT
  6
CONTINUOUS
 62
     7
 10
25.69431
 20
16.030189
 30
0.0
  0
VERTEX
  8
OBJECT
  6
CONTINUOUS
 62
     7
 10
26.51031
 20
16.030189
 30
0.0
  0
SEQEND
  8
OBJECT
  6
CONTINUOUS
 62
     7
  0
POLYLINE
  8
HIDDEN
 62
     7
 66
     1
 10
0.0
 20
0.0
 30
0.0
  0
VERTEX
  8
HIDDEN
 62
     7
 10
26.60431
 20
16.030189
 30
0.0
  0
VERTEX
  8
HIDDEN
 62
     7
 10
27.29431
 20
16.030189
 30
0.0
  0
SEQEND
  8
HIDDEN
 62
     7
  0
LINE
  8
HIDDEN
 62
     7
 10
26.57231
 20
15.280683
 30
0.0
 11
26.93181
 21
15.280683
 31
0.0
  0
LINE
  8
HIDDEN
 62
     7
 10
26.57231
 20
9.779696
 30
0.0
 11
26.93181
 21
9.779696
 31
0.0
  0
DIMENSION
  8
DIM
 62
     7
  2
*D10
 10
13.456966
 20
6.739328
 30
0.0
 11
9.306966
 21
6.739328
 31
0.0
 12
0.421702
 22
-2.397611
 32
0.0
  1
C
 13
5.156966
 23
5.858616
 33
0.0
 14
13.456966
 24
5.858616
 34
0.0
  3
23NSTD
  0
DIMENSION
  8
DIM
 62
     7
  2
*D8
 10
13.556966
 20
8.002752
 30
0.0
 11
9.306966
 21
8.002752
 31
0.0
 12
0.421702
 22
-2.397611
 32
0.0
  1
A
 13
5.056966
 23
8.530189
 33
0.0
 14
13.556966
 24
8.530189
 34
0.0
  3
23NSTD
  0
DIMENSION
  8
DIM
 62
     7
  2
*D4
 10
14.293345
 20
4.570616
 30
0.0
 11
14.293345
 21
5.345616
 31
0.0
 12
0.421702
 22
-2.397611
 32
0.0
 13
13.194966
 23
6.120616
 33
0.0
 14
13.194966
 24
4.570616
 34
0.0
 50
270.0
  3
23NSTDI
  0
TEXT
  8
TEXT
 62
     7
 10
8.553841
 20
7.306245
 30
0.0
 40
0.25
  1
%%uTOP VIEW
 41
0.75
  7
TXT
 72
     1
 11
9.306966
 21
7.306245
 31
0.0
  0
TEXT
  8
TEXT
 62
     7
 10
19.394837
 20
7.618245
 30
0.0
 40
0.25
  1
%%uTOP VIEW
 41
0.75
  7
TXT
 72
     1
 11
20.147962
 21
7.618245
 31
0.0
  0
TEXT
  8
TEXT
 62
     7
 10
19.219337
 20
3.72395
 30
0.0
 40
0.25
  1
%%uFRONT VIEW
 41
0.75
  7
TXT
 72
     1
 11
20.159962
 21
3.72395
 31
0.0
  0
TEXT
  8
TEXT
 62
     7
 10
8.366341
 20
3.72395
 30
0.0
 40
0.25
  1
%%uFRONT VIEW
 41
0.75
  7
TXT
 72
     1
 11
9.306966
 21
3.72395
 31
0.0
  0
TEXT
  8
TEXT
 62
     7
 10
18.997962
 20
7.184911
 30
0.0
 40
0.2
  1
(LESS TOP COVER)
 41
0.75
  7
TXT
 72
     4
 11
20.147962
 21
7.284911
 31
0.0
  0
TEXT
  8
TEXT
 10
19.009962
 20
3.290616
 30
0.0
 40
0.2
  1
(LESS TOP COVER)
 41
0.75
  7
TXT
 72
     4
 11
20.159962
 21
3.390616
 31
0.0
  0
DIMENSION
  8
DIM
 62
     7
  2
*D2
 10
25.191263
 20
5.329616
 30
0.0
 11
25.191263
 21
4.900116
 31
0.0
 12
0.421702
 22
-2.052727
 32
0.0
 13
23.987762
 23
4.470616
 33
0.0
 14
24.349762
 24
5.329616
 34
0.0
 50
90.0
  3
23NSTDI
  0
INSERT
  8
TITLE
  2
HBS
 10
0.0
 20
0.0
 30
0.0
 41
2.0
 42
2.0
 43
2.0
  0
TEXT
  8
TEXT
 10
6.113
 20
19.542
 30
0.0
 40
0.312
  1
SLIMCAB SERIES CABINET
 41
0.75
  7
TXT
 72
     4
 11
8.531
 21
19.698
 31
0.0
  0
TEXT
  8
TEXT
 10
19.952
 20
19.568
 30
0.0
 40
0.312
  1
CS-11221, CS-11223, CS-11225 & CS-11227
 41
0.75
  7
TXT
 72
     4
 11
23.969
 21
19.698
 31
0.0
  0
LINE
  8
TITLE
 10
0.124
 20
0.54
 30
0.0
 11
21.651
 21
0.54
 31
0.0
  0
LINE
  8
TITLE
 10
0.124
 20
0.956
 30
0.0
 11
21.651
 21
0.956
 31
0.0
  0
LINE
  8
TITLE
 10
0.124
 20
1.372
 30
0.0
 11
21.651
 21
1.372
 31
0.0
  0
LINE
  8
TITLE
 10
0.124
 20
1.788
 30
0.0
 11
21.651
 21
1.788
 31
0.0
  0
LINE
  8
TITLE
 10
0.124
 20
2.62
 30
0.0
 11
21.651
 21
2.62
 31
0.0
  0
LINE
  8
TITLE
 10
18.576
 20
2.62
 30
0.0
 11
18.576
 21
0.124
 31
0.0
  0
LINE
  8
TITLE
 10
15.501
 20
2.62
 30
0.0
 11
15.501
 21
0.124
 31
0.0
  0
LINE
  8
TITLE
 10
12.426
 20
2.62
 30
0.0
 11
12.426
 21
0.124
 31
0.0
  0
LINE
  8
TITLE
 10
9.351
 20
2.62
 30
0.0
 11
9.351
 21
0.124
 31
0.0
  0
LINE
  8
TITLE
 10
6.276
 20
2.62
 30
0.0
 11
6.276
 21
0.124
 31
0.0
  0
LINE
  8
TITLE
 10
3.201
 20
2.62
 30
0.0
 11
3.201
 21
0.124
 31
0.0
  0
TEXT
  8
TEXT
 10
0.8445
 20
2.048
 30
0.0
 40
0.312
  1
PART NO.
 41
0.75
  7
TXT
 72
     4
 11
1.6635
 21
2.204
 31
0.0
  0
TEXT
  8
TEXT
 10
4.6605
 20
2.048
 30
0.0
 40
0.312
  1
A
 41
0.75
  7
TXT
 72
     4
 11
4.7385
 21
2.204
 31
0.0
  0
TEXT
  8
TEXT
 10
7.7355
 20
2.048
 30
0.0
 40
0.312
  1
B
 41
0.75
  7
TXT
 72
     4
 11
7.8135
 21
2.204
 31
0.0
  0
TEXT
  8
TEXT
 10
10.8105
 20
2.048
 30
0.0
 40
0.312
  1
C
 41
0.75
  7
TXT
 72
     4
 11
10.8885
 21
2.204
 31
0.0
  0
TEXT
  8
TEXT
 10
13.8855
 20
2.048
 30
0.0
 40
0.312
  1
D
 41
0.75
  7
TXT
 72
     4
 11
13.9635
 21
2.204
 31
0.0
  0
TEXT
  8
TEXT
 10
16.9605
 20
2.048
 30
0.0
 40
0.312
  1
E
 41
0.75
  7
TXT
 72
     4
 11
17.0385
 21
2.204
 31
0.0
  0
TEXT
  8
TEXT
 10
1.0375
 20
1.455
 30
0.0
 40
0.25
  1
CS-11221
 41
0.75
  7
TXT
 72
     4
 11
1.6625
 21
1.58
 31
0.0
  0
TEXT
  8
TEXT
 10
1.00625
 20
1.038333
 30
0.0
 40
0.25
  1
CS-11223
 41
0.75
  7
TXT
 72
     4
 11
1.6625
 21
1.163333
 31
0.0
  0
TEXT
  8
TEXT
 10
1.00625
 20
0.621667
 30
0.0
 40
0.25
  1
CS-11225
 41
0.75
  7
TXT
 72
     4
 11
1.6625
 21
0.746667
 31
0.0
  0
TEXT
  8
TEXT
 10
1.00625
 20
0.205
 30
0.0
 40
0.25
  1
CS-11227
 41
0.75
  7
TXT
 72
     4
 11
1.6625
 21
0.33
 31
0.0
  0
POLYLINE
  8
OBJECT
 62
     7
 66
     1
 10
0.0
 20
0.0
 30
0.0
 75
     6
  0
VERTEX
  8
OBJECT
 62
     7
 10
7.996072
 20
6.220616
 30
0.0
  0
VERTEX
  8
OBJECT
 62
     7
 10
8.017944
 20
6.188391
 30
0.0
  0
VERTEX
  8
OBJECT
 62
     7
 10
8.044173
 20
6.114903
 30
0.0
  0
VERTEX
  8
OBJECT
 62
     7
 10
8.047017
 20
6.050775
 30
0.0
  0
VERTEX
  8
OBJECT
 62
     7
 10
8.034068
 20
5.994572
 30
0.0
  0
VERTEX
  8
OBJECT
 62
     7
 10
8.012915
 20
5.944861
 30
0.0
  0
VERTEX
  8
OBJECT
 62
     7
 10
7.991151
 20
5.900209
 30
0.0
  0
VERTEX
  8
OBJECT
 62
     7
 10
7.976364
 20
5.859181
 30
0.0
  0
VERTEX
  8
OBJECT
 62
     7
 10
7.974304
 20
5.820531
 30
0.0
  0
VERTEX
  8
OBJECT
 62
     7
 10
7.983348
 20
5.783754
 30
0.0
  0
VERTEX
  8
OBJECT
 62
     7
 10
8.000031
 20
5.748535
 30
0.0
  0
VERTEX
  8
OBJECT
 62
     7
 10
8.020888
 20
5.714556
 30
0.0
  0
VERTEX
  8
OBJECT
 62
     7
 10
8.042454
 20
5.6815
 30
0.0
  0
VERTEX
  8
OBJECT
 62
     7
 10
8.061264
 20
5.649052
 30
0.0
  0
VERTEX
  8
OBJECT
 62
     7
 10
8.073853
 20
5.616893
 30
0.0
  0
VERTEX
  8
OBJECT
 62
     7
 10
8.076757
 20
5.584708
 30
0.0
  0
VERTEX
  8
OBJECT
 62
     7
 10
8.067642
 20
5.552245
 30
0.0
  0
VERTEX
  8
OBJECT
 62
     7
 10
8.048707
 20
5.519526
 30
0.0
  0
VERTEX
  8
OBJECT
 62
     7
 10
8.023284
 20
5.486634
 30
0.0
  0
VERTEX
  8
OBJECT
 62
     7
 10
7.994701
 20
5.453657
 30
0.0
  0
VERTEX
  8
OBJECT
 62
     7
 10
7.96629
 20
5.420679
 30
0.0
  0
VERTEX
  8
OBJECT
 62
     7
 10
7.941382
 20
5.387787
 30
0.0
  0
VERTEX
  8
OBJECT
 62
     7
 10
7.923307
 20
5.355068
 30
0.0
  0
VERTEX
  8
OBJECT
 62
     7
 10
7.915395
 20
5.322606
 30
0.0
  0
VERTEX
  8
OBJECT
 62
     7
 10
7.919872
 20
5.29048
 30
0.0
  0
VERTEX
  8
OBJECT
 62
     7
 10
7.934534
 20
5.258741
 30
0.0
  0
VERTEX
  8
OBJECT
 62
     7
 10
7.956072
 20
5.227432
 30
0.0
  0
VERTEX
  8
OBJECT
 62
     7
 10
7.981178
 20
5.196595
 30
0.0
  0
VERTEX
  8
OBJECT
 62
     7
 10
8.006541
 20
5.166274
 30
0.0
  0
VERTEX
  8
OBJECT
 62
     7
 10
8.028852
 20
5.136511
 30
0.0
  0
VERTEX
  8
OBJECT
 62
     7
 10
8.044804
 20
5.107349
 30
0.0
  0
VERTEX
  8
OBJECT
 62
     7
 10
8.051085
 20
5.078832
 30
0.0
  0
VERTEX
  8
OBJECT
 62
     7
 10
8.045504
 20
5.050969
 30
0.0
  0
VERTEX
  8
OBJECT
 62
     7
 10
8.030328
 20
5.023631
 30
0.0
  0
VERTEX
  8
OBJECT
 62
     7
 10
8.008942
 20
4.996659
 30
0.0
  0
VERTEX
  8
OBJECT
 62
     7
 10
7.98473
 20
4.969891
 30
0.0
  0
VERTEX
  8
OBJECT
 62
     7
 10
7.961077
 20
4.943165
 30
0.0
  0
VERTEX
  8
OBJECT
 62
     7
 10
7.941367
 20
4.916322
 30
0.0
  0
VERTEX
  8
OBJECT
 62
     7
 10
7.928985
 20
4.889199
 30
0.0
  0
VERTEX
  8
OBJECT
 62
     7
 10
7.927314
 20
4.861636
 30
0.0
  0
VERTEX
  8
OBJECT
 62
     7
 10
7.938579
 20
4.833513
 30
0.0
  0
VERTEX
  8
OBJECT
 62
     7
 10
7.960363
 20
4.804874
 30
0.0
  0
VERTEX
  8
OBJECT
 62
     7
 10
7.989087
 20
4.775806
 30
0.0
  0
VERTEX
  8
OBJECT
 62
     7
 10
8.021174
 20
4.746394
 30
0.0
  0
VERTEX
  8
OBJECT
 62
     7
 10
8.053046
 20
4.716724
 30
0.0
  0
VERTEX
  8
OBJECT
 62
     7
 10
8.081126
 20
4.686882
 30
0.0
  0
VERTEX
  8
OBJECT
 62
     7
 10
8.101835
 20
4.656955
 30
0.0
  0
VERTEX
  8
OBJECT
 62
     7
 10
8.111596
 20
4.627027
 30
0.0
  0
VERTEX
  8
OBJECT
 62
     7
 10
8.108104
 20
4.597163
 30
0.0
  0
VERTEX
  8
OBJECT
 62
     7
 10
8.094148
 20
4.567337
 30
0.0
  0
VERTEX
  8
OBJECT
 62
     7
 10
8.073788
 20
4.5375
 30
0.0
  0
VERTEX
  8
OBJECT
 62
     7
 10
8.051085
 20
4.507604
 30
0.0
  0
VERTEX
  8
OBJECT
 62
     7
 10
8.030102
 20
4.4776
 30
0.0
  0
VERTEX
  8
OBJECT
 62
     7
 10
8.026582
 20
4.470616
 30
0.0
  0
SEQEND
  8
OBJECT
 62
     7
  0
POLYLINE
  8
OBJECT
 62
     7
 66
     1
 10
0.0
 20
0.0
 30
0.0
 75
     6
  0
VERTEX
  8
OBJECT
 62
     7
 10
6.23428
 20
6.220616
 30
0.0
  0
VERTEX
  8
OBJECT
 62
     7
 10
6.256152
 20
6.188391
 30
0.0
  0
VERTEX
  8
OBJECT
 62
     7
 10
6.282381
 20
6.114903
 30
0.0
  0
VERTEX
  8
OBJECT
 62
     7
 10
6.285225
 20
6.050775
 30
0.0
  0
VERTEX
  8
OBJECT
 62
     7
 10
6.272276
 20
5.994572
 30
0.0
  0
VERTEX
  8
OBJECT
 62
     7
 10
6.251124
 20
5.944861
 30
0.0
  0
VERTEX
  8
OBJECT
 62
     7
 10
6.229359
 20
5.900209
 30
0.0
  0
VERTEX
  8
OBJECT
 62
     7
 10
6.214573
 20
5.859181
 30
0.0
  0
VERTEX
  8
OBJECT
 62
     7
 10
6.212512
 20
5.820531
 30
0.0
  0
VERTEX
  8
OBJECT
 62
     7
 10
6.221556
 20
5.783754
 30
0.0
  0
VERTEX
  8
OBJECT
 62
     7
 10
6.238239
 20
5.748535
 30
0.0
  0
VERTEX
  8
OBJECT
 62
     7
 10
6.259096
 20
5.714556
 30
0.0
  0
VERTEX
  8
OBJECT
 62
     7
 10
6.280662
 20
5.6815
 30
0.0
  0
VERTEX
  8
OBJECT
 62
     7
 10
6.299472
 20
5.649052
 30
0.0
  0
VERTEX
  8
OBJECT
 62
     7
 10
6.312061
 20
5.616893
 30
0.0
  0
VERTEX
  8
OBJECT
 62
     7
 10
6.314965
 20
5.584708
 30
0.0
  0
VERTEX
  8
OBJECT
 62
     7
 10
6.30585
 20
5.552245
 30
0.0
  0
VERTEX
  8
OBJECT
 62
     7
 10
6.286916
 20
5.519526
 30
0.0
  0
VERTEX
  8
OBJECT
 62
     7
 10
6.261492
 20
5.486634
 30
0.0
  0
VERTEX
  8
OBJECT
 62
     7
 10
6.232909
 20
5.453657
 30
0.0
  0
VERTEX
  8
OBJECT
 62
     7
 10
6.204498
 20
5.420679
 30
0.0
  0
VERTEX
  8
OBJECT
 62
     7
 10
6.17959
 20
5.387787
 30
0.0
  0
VERTEX
  8
OBJECT
 62
     7
 10
6.161515
 20
5.355068
 30
0.0
  0
VERTEX
  8
OBJECT
 62
     7
 10
6.153604
 20
5.322606
 30
0.0
  0
VERTEX
  8
OBJECT
 62
     7
 10
6.15808
 20
5.29048
 30
0.0
  0
VERTEX
  8
OBJECT
 62
     7
 10
6.172743
 20
5.258741
 30
0.0
  0
VERTEX
  8
OBJECT
 62
     7
 10
6.194281
 20
5.227432
 30
0.0
  0
VERTEX
  8
OBJECT
 62
     7
 10
6.219386
 20
5.196595
 30
0.0
  0
VERTEX
  8
OBJECT
 62
     7
 10
6.244749
 20
5.166274
 30
0.0
  0
VERTEX
  8
OBJECT
 62
     7
 10
6.267061
 20
5.136511
 30
0.0
  0
VERTEX
  8
OBJECT
 62
     7
 10
6.283012
 20
5.107349
 30
0.0
  0
VERTEX
  8
OBJECT
 62
     7
 10
6.289294
 20
5.078832
 30
0.0
  0
VERTEX
  8
OBJECT
 62
     7
 10
6.283712
 20
5.050969
 30
0.0
  0
VERTEX
  8
OBJECT
 62
     7
 10
6.268536
 20
5.023631
 30
0.0
  0
VERTEX
  8
OBJECT
 62
     7
 10
6.24715
 20
4.996659
 30
0.0
  0
VERTEX
  8
OBJECT
 62
     7
 10
6.222939
 20
4.969891
 30
0.0
  0
VERTEX
  8
OBJECT
 62
     7
 10
6.199286
 20
4.943165
 30
0.0
  0
VERTEX
  8
OBJECT
 62
     7
 10
6.179576
 20
4.916322
 30
0.0
  0
VERTEX
  8
OBJECT
 62
     7
 10
6.167193
 20
4.889199
 30
0.0
  0
VERTEX
  8
OBJECT
 62
     7
 10
6.165523
 20
4.861636
 30
0.0
  0
VERTEX
  8
OBJECT
 62
     7
 10
6.176788
 20
4.833513
 30
0.0
  0
VERTEX
  8
OBJECT
 62
     7
 10
6.198571
 20
4.804874
 30
0.0
  0
VERTEX
  8
OBJECT
 62
     7
 10
6.227295
 20
4.775806
 30
0.0
  0
VERTEX
  8
OBJECT
 62
     7
 10
6.259382
 20
4.746394
 30
0.0
  0
VERTEX
  8
OBJECT
 62
     7
 10
6.291255
 20
4.716724
 30
0.0
  0
VERTEX
  8
OBJECT
 62
     7
 10
6.319334
 20
4.686882
 30
0.0
  0
VERTEX
  8
OBJECT
 62
     7
 10
6.340043
 20
4.656955
 30
0.0
  0
VERTEX
  8
OBJECT
 62
     7
 10
6.349804
 20
4.627027
 30
0.0
  0
VERTEX
  8
OBJECT
 62
     7
 10
6.346312
 20
4.597163
 30
0.0
  0
VERTEX
  8
OBJECT
 62
     7
 10
6.332356
 20
4.567337
 30
0.0
  0
VERTEX
  8
OBJECT
 62
     7
 10
6.311996
 20
4.5375
 30
0.0
  0
VERTEX
  8
OBJECT
 62
     7
 10
6.289294
 20
4.507604
 30
0.0
  0
VERTEX
  8
OBJECT
 62
     7
 10
6.268311
 20
4.4776
 30
0.0
  0
VERTEX
  8
OBJECT
 62
     7
 10
6.26479
 20
4.470616
 30
0.0
  0
SEQEND
  8
OBJECT
 62
     7
  0
POLYLINE
  8
OBJECT
 62
     7
 66
     1
 10
0.0
 20
0.0
 30
0.0
  0
VERTEX
  8
OBJECT
 62
     7
 10
13.194966
 20
6.120616
 30
0.0
 42
-0.414214
  0
VERTEX
  8
OBJECT
 62
     7
 10
13.456966
 20
5.858616
 30
0.0
  0
VERTEX
  8
OBJECT
 62
     7
 10
13.456966
 20
5.361616
 30
0.0
  0
VERTEX
  8
OBJECT
 62
     7
 10
13.556966
 20
5.361616
 30
0.0
  0
VERTEX
  8
OBJECT
 62
     7
 10
13.556966
 20
5.858616
 30
0.0
 42
0.414214
  0
VERTEX
  8
OBJECT
 62
     7
 10
13.194966
 20
6.220616
 30
0.0
  0
VERTEX
  8
OBJECT
 62
     7
 10
5.418966
 20
6.220616
 30
0.0
 42
0.414214
  0
VERTEX
  8
OBJECT
 62
     7
 10
5.056966
 20
5.858616
 30
0.0
  0
VERTEX
  8
OBJECT
 62
     7
 10
5.056966
 20
5.361616
 30
0.0
  0
VERTEX
  8
OBJECT
 62
     7
 10
5.156966
 20
5.361616
 30
0.0
  0
VERTEX
  8
OBJECT
 62
     7
 10
5.156966
 20
5.858616
 30
0.0
 42
-0.414214
  0
VERTEX
  8
OBJECT
 62
     7
 10
5.418966
 20
6.120616
 30
0.0
  0
VERTEX
  8
OBJECT
 62
     7
 10
6.280342
 20
6.120616
 30
0.0
 42
-0.414214
  0
SEQEND
  8
OBJECT
 62
     7
  0
POLYLINE
  8
OBJECT
 62
     7
 66
     1
 10
0.0
 20
0.0
 30
0.0
  0
VERTEX
  8
OBJECT
 62
     7
 10
8.042133
 20
6.120616
 30
0.0
  0
VERTEX
  8
OBJECT
 62
     7
 10
13.194966
 20
6.120616
 30
0.0
 42
-0.466294
  0
SEQEND
  8
OBJECT
 62
     7
  0
POLYLINE
  8
OBJECT
 62
     7
 66
     1
 10
0.0
 20
0.0
 30
0.0
  0
VERTEX
  8
OBJECT
 62
     7
 10
5.418966
 20
4.570616
 30
0.0
 42
-0.414214
  0
VERTEX
  8
OBJECT
 62
     7
 10
5.156966
 20
4.832616
 30
0.0
  0
VERTEX
  8
OBJECT
 62
     7
 10
5.156966
 20
5.329616
 30
0.0
  0
VERTEX
  8
OBJECT
 62
     7
 10
5.056966
 20
5.329616
 30
0.0
  0
VERTEX
  8
OBJECT
 62
     7
 10
5.056966
 20
4.832616
 30
0.0
 42
0.414214
  0
VERTEX
  8
OBJECT
 62
     7
 10
5.418966
 20
4.470616
 30
0.0
  0
VERTEX
  8
OBJECT
 62
     7
 10
13.194966
 20
4.470616
 30
0.0
 42
0.414214
  0
VERTEX
  8
OBJECT
 62
     7
 10
13.556966
 20
4.832616
 30
0.0
  0
VERTEX
  8
OBJECT
 62
     7
 10
13.556966
 20
5.329616
 30
0.0
  0
VERTEX
  8
OBJECT
 62
     7
 10
13.456966
 20
5.329616
 30
0.0
  0
VERTEX
  8
OBJECT
 62
     7
 10
13.456966
 20
4.832616
 30
0.0
 42
-0.414214
  0
VERTEX
  8
OBJECT
 62
     7
 10
13.194966
 20
4.570616
 30
0.0
  0
VERTEX
  8
OBJECT
 62
     7
 10
8.095682
 20
4.570616
 30
0.0
 42
-0.313955
  0
SEQEND
  8
OBJECT
 62
     7
  0
POLYLINE
  8
OBJECT
 62
     7
 66
     1
 10
0.0
 20
0.0
 30
0.0
  0
VERTEX
  8
OBJECT
 62
     7
 10
6.33389
 20
4.570616
 30
0.0
  0
VERTEX
  8
OBJECT
 62
     7
 10
5.418966
 20
4.570616
 30
0.0
 42
-0.414214
  0
SEQEND
  8
OBJECT
 62
     7
  0
POLYLINE
  8
HIDDEN
 62
     7
 66
     1
 10
0.0
 20
0.0
 30
0.0
  0
VERTEX
  8
HIDDEN
 62
     7
 10
6.137496
 20
6.170616
 30
0.0
  0
VERTEX
  8
HIDDEN
 62
     7
 10
5.418966
 20
6.170616
 30
0.0
 42
0.414214
  0
VERTEX
  8
HIDDEN
 62
     7
 10
5.106966
 20
5.858616
 30
0.0
  0
VERTEX
  8
HIDDEN
 62
     7
 10
5.106966
 20
5.411616
 30
0.0
  0
VERTEX
  8
HIDDEN
 62
     7
 10
5.166966
 20
5.411616
 30
0.0
  0
VERTEX
  8
HIDDEN
 62
     7
 10
5.166966
 20
5.011616
 30
0.0
  0
VERTEX
  8
HIDDEN
 62
     7
 10
5.116966
 20
5.011616
 30
0.0
  0
VERTEX
  8
HIDDEN
 62
     7
 10
5.116966
 20
5.361616
 30
0.0
  0
SEQEND
  8
HIDDEN
 62
     7
  0
POLYLINE
  8
HIDDEN
 62
     7
 66
     1
 10
0.0
 20
0.0
 30
0.0
  0
VERTEX
  8
HIDDEN
 62
     7
 10
13.506966
 20
5.361616
 30
0.0
  0
VERTEX
  8
HIDDEN
 62
     7
 10
13.506966
 20
5.858616
 30
0.0
 42
0.414214
  0
VERTEX
  8
HIDDEN
 62
     7
 10
13.194966
 20
6.170616
 30
0.0
  0
VERTEX
  8
HIDDEN
 62
     7
 10
8.149288
 20
6.170616
 30
0.0
 42
0.414214
  0
SEQEND
  8
HIDDEN
 62
     7
  0
POLYLINE
  8
OBJECT
 62
     7
 66
     1
 10
0.0
 20
0.0
 30
0.0
  0
VERTEX
  8
OBJECT
 62
     7
 10
8.024288
 20
6.170616
 30
0.0
  0
VERTEX
  8
OBJECT
 62
     7
 10
6.262496
 20
6.170616
 30
0.0
 42
0.414214
  0
SEQEND
  8
OBJECT
 62
     7
  0
POLYLINE
  8
HIDDEN
 62
     7
 66
     1
 10
0.0
 20
0.0
 30
0.0
  0
VERTEX
  8
HIDDEN
 62
     7
 10
8.185967
 20
4.520616
 30
0.0
  0
VERTEX
  8
HIDDEN
 62
     7
 10
13.194966
 20
4.520616
 30
0.0
 42
0.414214
  0
VERTEX
  8
HIDDEN
 62
     7
 10
13.506966
 20
4.832616
 30
0.0
  0
VERTEX
  8
HIDDEN
 62
     7
 10
13.506966
 20
5.279616
 30
0.0
  0
VERTEX
  8
HIDDEN
 62
     7
 10
13.446966
 20
5.279616
 30
0.0
  0
VERTEX
  8
HIDDEN
 62
     7
 10
13.446966
 20
5.679616
 30
0.0
  0
VERTEX
  8
HIDDEN
 62
     7
 10
13.496966
 20
5.679616
 30
0.0
  0
VERTEX
  8
HIDDEN
 62
     7
 10
13.496966
 20
5.329616
 30
0.0
  0
SEQEND
  8
HIDDEN
 62
     7
  0
POLYLINE
  8
HIDDEN
 62
     7
 66
     1
 10
0.0
 20
0.0
 30
0.0
  0
VERTEX
  8
HIDDEN
 62
     7
 10
5.106966
 20
5.329616
 30
0.0
  0
VERTEX
  8
HIDDEN
 62
     7
 10
5.106966
 20
4.832616
 30
0.0
 42
0.414214
  0
VERTEX
  8
HIDDEN
 62
     7
 10
5.418966
 20
4.520616
 30
0.0
  0
VERTEX
  8
HIDDEN
 62
     7
 10
6.174175
 20
4.520616
 30
0.0
 42
0.414214
  0
SEQEND
  8
HIDDEN
 62
     7
  0
POLYLINE
  8
OBJECT
 62
     7
 66
     1
 10
0.0
 20
0.0
 30
0.0
  0
VERTEX
  8
OBJECT
 62
     7
 10
6.299175
 20
4.520616
 30
0.0
  0
VERTEX
  8
OBJECT
 62
     7
 10
8.060967
 20
4.520616
 30
0.0
 42
0.414214
  0
SEQEND
  8
OBJECT
 62
     7
  0
INSERT
  8
OBJECT
 62
     7
  2
*X5
 10
0.421702
 20
-2.397611
 30
0.0
1001
ACAD
1000
HATCH
1002
{
1070
    16
1000
ANSI31
1040
0.75
1040
0.0
1002
}
  0
INSERT
  8
OBJECT
 62
     7
  2
*X6
 10
0.421702
 20
-2.397611
 30
0.0
1001
ACAD
1000
HATCH
1002
{
1070
    16
1000
ANSI31
1040
0.75
1040
0.0
1002
}
  0
DIMENSION
  8
DIM
 62
     7
  2
*D7
 10
7.106663
 20
6.170616
 30
0.0
 11
7.106663
 21
5.345616
 31
0.0
 12
0.146963
 22
-2.397611
 32
0.0
 13
6.86588
 23
4.520616
 33
0.0
 14
6.86588
 24
6.170616
 34
0.0
 50
90.0
  3
23NSTDI
  0
TEXT
  8
TEXT
 10
4.39375
 20
1.455
 30
0.0
 40
0.25
  1
8.500
 41
0.75
  7
TXT
 72
     4
 11
4.7375
 21
1.58
 31
0.0
  0
TEXT
  8
TEXT
 10
4.39375
 20
1.039
 30
0.0
 40
0.25
  1
8.500
 41
0.75
  7
TXT
 72
     4
 11
4.7375
 21
1.164
 31
0.0
  0
TEXT
  8
TEXT
 10
4.346875
 20
0.623
 30
0.0
 40
0.25
  1
17.000
 41
0.75
  7
TXT
 72
     4
 11
4.7375
 21
0.748
 31
0.0
  0
TEXT
  8
TEXT
 10
4.346875
 20
0.207
 30
0.0
 40
0.25
  1
17.000
 41
0.75
  7
TXT
 72
     4
 11
4.7375
 21
0.332
 31
0.0
  0
TEXT
  8
TEXT
 10
7.484375
 20
1.455
 30
0.0
 40
0.25
  1
8.000
 41
0.75
  7
TXT
 72
     4
 11
7.8125
 21
1.58
 31
0.0
  0
TEXT
  8
TEXT
 10
7.421875
 20
1.039
 30
0.0
 40
0.25
  1
16.000
 41
0.75
  7
TXT
 72
     4
 11
7.8125
 21
1.164
 31
0.0
  0
TEXT
  8
TEXT
 10
10.54375
 20
1.455
 30
0.0
 40
0.25
  1
8.300
 41
0.75
  7
TXT
 72
     4
 11
10.8875
 21
1.58
 31
0.0
  0
TEXT
  8
TEXT
 10
10.48125
 20
0.623
 30
0.0
 40
0.25
  1
16.800
 41
0.75
  7
TXT
 72
     4
 11
10.8875
 21
0.748
 31
0.0
  0
TEXT
  8
TEXT
 10
13.540625
 20
0.623
 30
0.0
 40
0.25
  1
16.850
 41
0.75
  7
TXT
 72
     4
 11
13.9625
 21
0.748
 31
0.0
  0
TEXT
  8
TEXT
 10
13.603125
 20
1.455
 30
0.0
 40
0.25
  1
8.350
 41
0.75
  7
TXT
 72
     4
 11
13.9625
 21
1.58
 31
0.0
  0
TEXT
  8
TEXT
 10
7.421875
 20
0.207
 30
0.0
 40
0.25
  1
16.000
 41
0.75
  7
TXT
 72
     4
 11
7.8125
 21
0.332
 31
0.0
  0
TEXT
  8
TEXT
 10
7.484375
 20
0.623
 30
0.0
 40
0.25
  1
8.000
 41
0.75
  7
TXT
 72
     4
 11
7.8125
 21
0.748
 31
0.0
  0
TEXT
  8
TEXT
 10
10.48125
 20
0.207
 30
0.0
 40
0.25
  1
16.800
 41
0.75
  7
TXT
 72
     4
 11
10.8875
 21
0.332
 31
0.0
  0
TEXT
  8
TEXT
 10
10.54375
 20
1.039
 30
0.0
 40
0.25
  1
8.300
 41
0.75
  7
TXT
 72
     4
 11
10.8875
 21
1.164
 31
0.0
  0
TEXT
  8
TEXT
 10
13.540625
 20
0.207
 30
0.0
 40
0.25
  1
16.850
 41
0.75
  7
TXT
 72
     4
 11
13.9625
 21
0.332
 31
0.0
  0
TEXT
  8
TEXT
 10
13.603125
 20
1.039
 30
0.0
 40
0.25
  1
8.350
 41
0.75
  7
TXT
 72
     4
 11
13.9625
 21
1.164
 31
0.0
  0
TEXT
  8
TEXT
 10
16.709375
 20
1.455
 30
0.0
 40
0.25
  1
7.000
 41
0.75
  7
TXT
 72
     4
 11
17.0375
 21
1.58
 31
0.0
  0
TEXT
  8
TEXT
 10
16.646875
 20
1.039
 30
0.0
 40
0.25
  1
15.000
 41
0.75
  7
TXT
 72
     4
 11
17.0375
 21
1.164
 31
0.0
  0
TEXT
  8
TEXT
 10
16.646875
 20
0.207
 30
0.0
 40
0.25
  1
15.000
 41
0.75
  7
TXT
 72
     4
 11
17.0375
 21
0.332
 31
0.0
  0
TEXT
  8
TEXT
 10
16.709375
 20
0.623
 30
0.0
 40
0.25
  1
7.000
 41
0.75
  7
TXT
 72
     4
 11
17.0375
 21
0.748
 31
0.0
  0
DIMENSION
  8
DIM
 62
     7
  2
*D11
 10
5.823588
 20
13.396689
 30
0.0
 11
7.113588
 21
14.116689
 31
0.0
 12
2.64618
 22
1.239696
 32
0.0
  1
<> TYP.
 13
5.464966
 23
13.146689
 33
0.0
 14
5.464966
 24
13.396689
 34
0.0
 50
90.0
  3
23NSTD
  0
POLYLINE
  8
DIM
 62
     7
 66
     1
 10
0.0
 20
0.0
 30
0.0
 41
0.135
  0
VERTEX
  8
DIM
 62
     7
 10
5.464966
 20
11.834189
 30
0.0
  0
VERTEX
  8
DIM
 62
     7
 10
5.789131
 20
11.67761
 30
0.0
 41
0.0
  0
VERTEX
  8
DIM
 62
     7
 10
6.251085
 20
11.454475
 30
0.0
 41
0.0
  0
VERTEX
  8
DIM
 62
     7
 10
6.611085
 20
11.454475
 30
0.0
 41
0.0
  0
SEQEND
  8
DIM
 62
     7
  0
TEXT
  8
DIM
 62
     7
 10
6.791085
 20
11.329475
 30
0.0
 40
0.25
  1
0.125 x 0.750 SLOT
 41
0.75
  7
TXT
 11
6.791085
 21
11.454475
 31
0.0
 73
     2
  0
TEXT
  8
DIM
 62
     7
 10
6.791085
 20
10.912808
 30
0.0
 40
0.25
  1
(F) PLACES
 41
0.75
  7
TXT
 11
6.791085
 21
11.037808
 31
0.0
 73
     2
  0
TEXT
  8
TEXT
 10
19.971875
 20
0.623
 30
0.0
 40
0.25
  1
80
 41
0.75
  7
TXT
 72
     4
 11
20.1125
 21
0.748
 31
0.0
  0
LINE
  8
TITLE
 10
21.651
 20
2.62
 30
0.0
 11
21.651
 21
0.124
 31
0.0
  0
TEXT
  8
TEXT
 10
19.89375
 20
0.207
 30
0.0
 40
0.25
  1
192
 41
0.75
  7
TXT
 72
     4
 11
20.1125
 21
0.332
 31
0.0
  0
TEXT
  8
TEXT
 10
20.0355
 20
2.048
 30
0.0
 40
0.312
  1
F
 41
0.75
  7
TXT
 72
     4
 11
20.1135
 21
2.204
 31
0.0
  0
TEXT
  8
TEXT
 10
19.89375
 20
1.039
 30
0.0
 40
0.25
  1
192
 41
0.75
  7
TXT
 72
     4
 11
20.1125
 21
1.164
 31
0.0
  0
TEXT
  8
TEXT
 10
19.971875
 20
1.455
 30
0.0
 40
0.25
  1
80
 41
0.75
  7
TXT
 72
     4
 11
20.1125
 21
1.58
 31
0.0
  0
POLYLINE
  8
DIM
 62
     7
 66
     1
 10
0.0
 20
0.0
 30
0.0
 41
0.135
  0
VERTEX
  8
DIM
 62
     7
 10
5.211718
 20
4.599395
 30
0.0
  0
VERTEX
  8
DIM
 62
     7
 10
4.964752
 20
4.337464
 30
0.0
 41
0.0
  0
VERTEX
  8
DIM
 62
     7
 10
4.712752
 20
4.070194
 30
0.0
 41
0.0
  0
VERTEX
  8
DIM
 62
     7
 10
4.352752
 20
4.070194
 30
0.0
 41
0.0
  0
SEQEND
  8
DIM
 62
     7
  0
TEXT
  8
DIM
 62
     7
 10
3.079002
 20
3.945194
 30
0.0
 40
0.25
  1
0.312 R.
 41
0.75
  7
TXT
 72
     2
 11
4.172752
 21
4.070194
 31
0.0
 73
     2
  0
TEXT
  8
DIM
 62
     7
 10
2.985252
 20
3.529194
 30
0.0
 40
0.25
  1
(INSIDE)
 41
0.75
  7
TXT
 72
     2
 11
4.172752
 21
3.654194
 31
0.0
 73
     2
  0
TEXT
  8
TEXT
 10
22.465509
 20
18.302642
 30
0.0
 40
0.25
  1
SUPPLIED FOR ASSEMBLY.
 41
0.75
  7
TXT
  0
TEXT
  8
TEXT
 10
22.199428
 20
18.719308
 30
0.0
 40
0.25
  1
EIGHT (8) #6-32 x 3/8 LG. SCREWS
 41
0.75
  7
TXT
  0
TEXT
  8
TEXT
 10
22.199428
 20
17.471308
 30
0.0
 40
0.25
  1
FOUR (4) #F-3581 RUBBER FEET SUPPLIED.
 41
0.75
  7
TXT
  0
POLYLINE
  8
OBJECT
 62
     7
 66
     1
 10
0.0
 20
0.0
 30
0.0
 70
     1
  0
VERTEX
  8
OBJECT
 62
     7
 10
24.179762
 20
9.779696
 30
0.0
  0
VERTEX
  8
OBJECT
 62
     7
 10
24.299762
 20
9.779696
 30
0.0
  0
VERTEX
  8
OBJECT
 62
     7
 10
24.299762
 20
9.030189
 30
0.0
  0
VERTEX
  8
OBJECT
 62
     7
 10
24.179762
 20
9.030189
 30
0.0
  0
SEQEND
  8
OBJECT
 62
     7
  0
LINE
  8
HIDDEN
 62
     7
 10
24.179762
 20
5.783116
 30
0.0
 11
24.179762
 21
4.908116
 31
0.0
  0
LINE
  8
HIDDEN
 62
     7
 10
16.019762
 20
5.783116
 30
0.0
 11
16.019762
 21
4.908116
 31
0.0
  0
LINE
  8
OBJECT
 62
     7
 10
24.349762
 20
9.305696
 30
0.0
 11
24.349762
 21
9.392696
 31
0.0
  0
LINE
  8
OBJECT
 62
     7
 10
24.349762
 20
9.530696
 30
0.0
 11
24.349762
 21
9.617696
 31
0.0
  0
POLYLINE
  8
OBJECT
 62
     7
 66
     1
 10
0.0
 20
0.0
 30
0.0
 70
     1
  0
VERTEX
  8
OBJECT
 62
     7
 10
24.384762
 20
9.596696
 30
0.0
 42
-0.367539
  0
VERTEX
  8
OBJECT
 62
     7
 10
24.431147
 20
9.557274
 30
0.0
 42
-0.163689
  0
VERTEX
  8
OBJECT
 62
     7
 10
24.430701
 20
9.363766
 30
0.0
 42
-0.353151
  0
VERTEX
  8
OBJECT
 62
     7
 10
24.384762
 20
9.326696
 30
0.0
  0
VERTEX
  8
OBJECT
 62
     7
 10
24.349762
 20
9.326696
 30
0.0
  0
VERTEX
  8
OBJECT
 62
     7
 10
24.349762
 20
9.392696
 30
0.0
  0
VERTEX
  8
OBJECT
 62
     7
 10
23.974762
 20
9.392696
 30
0.0
  0
VERTEX
  8
OBJECT
 62
     7
 10
23.974762
 20
9.530696
 30
0.0
  0
VERTEX
  8
OBJECT
 62
     7
 10
24.349762
 20
9.530696
 30
0.0
  0
VERTEX
  8
OBJECT
 62
     7
 10
24.349762
 20
9.596696
 30
0.0
  0
SEQEND
  8
OBJECT
 62
     7
  0
POLYLINE
  8
OBJECT
 62
     7
 66
     1
 10
0.0
 20
0.0
 30
0.0
 70
     1
  0
VERTEX
  8
OBJECT
 62
     7
 10
16.019762
 20
9.779696
 30
0.0
  0
VERTEX
  8
OBJECT
 62
     7
 10
15.899762
 20
9.779696
 30
0.0
  0
VERTEX
  8
OBJECT
 62
     7
 10
15.899762
 20
9.030189
 30
0.0
  0
VERTEX
  8
OBJECT
 62
     7
 10
16.019762
 20
9.030189
 30
0.0
  0
SEQEND
  8
OBJECT
 62
     7
  0
POLYLINE
  8
OBJECT
 62
     7
 66
     1
 10
0.0
 20
0.0
 30
0.0
 70
     1
  0
VERTEX
  8
OBJECT
 62
     7
 10
15.814762
 20
9.596696
 30
0.0
 42
0.367539
  0
VERTEX
  8
OBJECT
 62
     7
 10
15.768377
 20
9.557274
 30
0.0
 42
0.163689
  0
VERTEX
  8
OBJECT
 62
     7
 10
15.768823
 20
9.363766
 30
0.0
 42
0.353151
  0
VERTEX
  8
OBJECT
 62
     7
 10
15.814762
 20
9.326696
 30
0.0
  0
VERTEX
  8
OBJECT
 62
     7
 10
15.849762
 20
9.326696
 30
0.0
  0
VERTEX
  8
OBJECT
 62
     7
 10
15.849762
 20
9.392696
 30
0.0
  0
VERTEX
  8
OBJECT
 62
     7
 10
16.224762
 20
9.392696
 30
0.0
  0
VERTEX
  8
OBJECT
 62
     7
 10
16.224762
 20
9.530696
 30
0.0
  0
VERTEX
  8
OBJECT
 62
     7
 10
15.849762
 20
9.530696
 30
0.0
  0
VERTEX
  8
OBJECT
 62
     7
 10
15.849762
 20
9.596696
 30
0.0
  0
SEQEND
  8
OBJECT
 62
     7
  0
POLYLINE
  8
OBJECT
 62
     7
 66
     1
 10
0.0
 20
0.0
 30
0.0
 70
     1
  0
VERTEX
  8
OBJECT
 62
     7
 10
24.384762
 20
15.463683
 30
0.0
 42
0.367539
  0
VERTEX
  8
OBJECT
 62
     7
 10
24.431147
 20
15.503105
 30
0.0
 42
0.163689
  0
VERTEX
  8
OBJECT
 62
     7
 10
24.430701
 20
15.696613
 30
0.0
 42
0.353151
  0
VERTEX
  8
OBJECT
 62
     7
 10
24.384762
 20
15.733683
 30
0.0
  0
VERTEX
  8
OBJECT
 62
     7
 10
24.349762
 20
15.733683
 30
0.0
  0
VERTEX
  8
OBJECT
 62
     7
 10
24.349762
 20
15.667683
 30
0.0
  0
VERTEX
  8
OBJECT
 62
     7
 10
23.974762
 20
15.667683
 30
0.0
  0
VERTEX
  8
OBJECT
 62
     7
 10
23.974762
 20
15.529683
 30
0.0
  0
VERTEX
  8
OBJECT
 62
     7
 10
24.349762
 20
15.529683
 30
0.0
  0
VERTEX
  8
OBJECT
 62
     7
 10
24.349762
 20
15.463683
 30
0.0
  0
SEQEND
  8
OBJECT
 62
     7
  0
POLYLINE
  8
OBJECT
 62
     7
 66
     1
 10
0.0
 20
0.0
 30
0.0
 70
     1
  0
VERTEX
  8
OBJECT
 62
     7
 10
24.179762
 20
15.280683
 30
0.0
  0
VERTEX
  8
OBJECT
 62
     7
 10
24.299762
 20
15.280683
 30
0.0
  0
VERTEX
  8
OBJECT
 62
     7
 10
24.299762
 20
16.030189
 30
0.0
  0
VERTEX
  8
OBJECT
 62
     7
 10
24.179762
 20
16.030189
 30
0.0
  0
SEQEND
  8
OBJECT
 62
     7
  0
POLYLINE
  8
OBJECT
 62
     7
 66
     1
 10
0.0
 20
0.0
 30
0.0
 70
     1
  0
VERTEX
  8
OBJECT
 62
     7
 10
15.814762
 20
15.463683
 30
0.0
 42
-0.367539
  0
VERTEX
  8
OBJECT
 62
     7
 10
15.768377
 20
15.503105
 30
0.0
 42
-0.163689
  0
VERTEX
  8
OBJECT
 62
     7
 10
15.768823
 20
15.696613
 30
0.0
 42
-0.353151
  0
VERTEX
  8
OBJECT
 62
     7
 10
15.814762
 20
15.733683
 30
0.0
  0
VERTEX
  8
OBJECT
 62
     7
 10
15.849762
 20
15.733683
 30
0.0
  0
VERTEX
  8
OBJECT
 62
     7
 10
15.849762
 20
15.667683
 30
0.0
  0
VERTEX
  8
OBJECT
 62
     7
 10
16.224762
 20
15.667683
 30
0.0
  0
VERTEX
  8
OBJECT
 62
     7
 10
16.224762
 20
15.529683
 30
0.0
  0
VERTEX
  8
OBJECT
 62
     7
 10
15.849762
 20
15.529683
 30
0.0
  0
VERTEX
  8
OBJECT
 62
     7
 10
15.849762
 20
15.463683
 30
0.0
  0
SEQEND
  8
OBJECT
 62
     7
  0
POLYLINE
  8
OBJECT
 62
     7
 66
     1
 10
0.0
 20
0.0
 30
0.0
 70
     1
  0
VERTEX
  8
OBJECT
 62
     7
 10
16.019762
 20
15.280683
 30
0.0
  0
VERTEX
  8
OBJECT
 62
     7
 10
15.899762
 20
15.280683
 30
0.0
  0
VERTEX
  8
OBJECT
 62
     7
 10
15.899762
 20
16.030189
 30
0.0
  0
VERTEX
  8
OBJECT
 62
     7
 10
16.019762
 20
16.030189
 30
0.0
  0
SEQEND
  8
OBJECT
 62
     7
  0
POLYLINE
  8
OBJECT
  6
HIDDEN
 62
     7
 66
     1
 10
0.0
 20
0.0
 30
0.0
 70
     1
  0
VERTEX
  8
OBJECT
  6
HIDDEN
 62
     7
 10
24.384762
 20
5.168116
 30
0.0
 42
-0.367539
  0
VERTEX
  8
OBJECT
  6
HIDDEN
 62
     7
 10
24.431147
 20
5.128694
 30
0.0
 42
-0.163689
  0
VERTEX
  8
OBJECT
  6
HIDDEN
 62
     7
 10
24.430701
 20
4.935186
 30
0.0
 42
-0.353151
  0
VERTEX
  8
OBJECT
  6
HIDDEN
 62
     7
 10
24.384762
 20
4.898116
 30
0.0
  0
VERTEX
  8
OBJECT
  6
HIDDEN
 62
     7
 10
24.349762
 20
4.898116
 30
0.0
  0
VERTEX
  8
OBJECT
  6
HIDDEN
 62
     7
 10
24.349762
 20
4.964116
 30
0.0
  0
VERTEX
  8
OBJECT
  6
HIDDEN
 62
     7
 10
23.974762
 20
4.964116
 30
0.0
  0
VERTEX
  8
OBJECT
  6
HIDDEN
 62
     7
 10
23.974762
 20
5.102116
 30
0.0
  0
VERTEX
  8
OBJECT
  6
HIDDEN
 62
     7
 10
24.349762
 20
5.102116
 30
0.0
  0
VERTEX
  8
OBJECT
  6
HIDDEN
 62
     7
 10
24.349762
 20
5.168116
 30
0.0
  0
SEQEND
  8
OBJECT
  6
HIDDEN
 62
     7
  0
POLYLINE
  8
OBJECT
  6
HIDDEN
 62
     7
 66
     1
 10
0.0
 20
0.0
 30
0.0
 70
     1
  0
VERTEX
  8
OBJECT
  6
HIDDEN
 62
     7
 10
15.814762
 20
5.168116
 30
0.0
 42
0.367539
  0
VERTEX
  8
OBJECT
  6
HIDDEN
 62
     7
 10
15.768377
 20
5.128694
 30
0.0
 42
0.163689
  0
VERTEX
  8
OBJECT
  6
HIDDEN
 62
     7
 10
15.768823
 20
4.935186
 30
0.0
 42
0.353151
  0
VERTEX
  8
OBJECT
  6
HIDDEN
 62
     7
 10
15.814762
 20
4.898116
 30
0.0
  0
VERTEX
  8
OBJECT
  6
HIDDEN
 62
     7
 10
15.849762
 20
4.898116
 30
0.0
  0
VERTEX
  8
OBJECT
  6
HIDDEN
 62
     7
 10
15.849762
 20
4.964116
 30
0.0
  0
VERTEX
  8
OBJECT
  6
HIDDEN
 62
     7
 10
16.224762
 20
4.964116
 30
0.0
  0
VERTEX
  8
OBJECT
  6
HIDDEN
 62
     7
 10
16.224762
 20
5.102116
 30
0.0
  0
VERTEX
  8
OBJECT
  6
HIDDEN
 62
     7
 10
15.849762
 20
5.102116
 30
0.0
  0
VERTEX
  8
OBJECT
  6
HIDDEN
 62
     7
 10
15.849762
 20
5.168116
 30
0.0
  0
SEQEND
  8
OBJECT
  6
HIDDEN
 62
     7
  0
POLYLINE
  8
OBJECT
  6
HIDDEN
 62
     7
 66
     1
 10
0.0
 20
0.0
 30
0.0
 70
     1
  0
VERTEX
  8
OBJECT
  6
HIDDEN
 62
     7
 10
5.021966
 20
9.596696
 30
0.0
 42
0.367539
  0
VERTEX
  8
OBJECT
  6
HIDDEN
 62
     7
 10
4.975581
 20
9.557274
 30
0.0
 42
0.163689
  0
VERTEX
  8
OBJECT
  6
HIDDEN
 62
     7
 10
4.976027
 20
9.363766
 30
0.0
 42
0.353151
  0
VERTEX
  8
OBJECT
  6
HIDDEN
 62
     7
 10
5.021966
 20
9.326696
 30
0.0
  0
VERTEX
  8
OBJECT
  6
HIDDEN
 62
     7
 10
5.056966
 20
9.326696
 30
0.0
  0
VERTEX
  8
OBJECT
  6
HIDDEN
 62
     7
 10
5.056966
 20
9.392696
 30
0.0
  0
VERTEX
  8
OBJECT
  6
HIDDEN
 62
     7
 10
5.431966
 20
9.392696
 30
0.0
  0
VERTEX
  8
OBJECT
  6
HIDDEN
 62
     7
 10
5.431966
 20
9.530696
 30
0.0
  0
VERTEX
  8
OBJECT
  6
HIDDEN
 62
     7
 10
5.056966
 20
9.530696
 30
0.0
  0
VERTEX
  8
OBJECT
  6
HIDDEN
 62
     7
 10
5.056966
 20
9.596696
 30
0.0
  0
SEQEND
  8
OBJECT
  6
HIDDEN
 62
     7
  0
POLYLINE
  8
OBJECT
  6
HIDDEN
 62
     7
 66
     1
 10
0.0
 20
0.0
 30
0.0
 70
     1
  0
VERTEX
  8
OBJECT
  6
HIDDEN
 62
     7
 10
5.226966
 20
9.779696
 30
0.0
  0
VERTEX
  8
OBJECT
  6
HIDDEN
 62
     7
 10
5.106966
 20
9.779696
 30
0.0
  0
VERTEX
  8
OBJECT
  6
HIDDEN
 62
     7
 10
5.106966
 20
9.030189
 30
0.0
  0
VERTEX
  8
OBJECT
  6
HIDDEN
 62
     7
 10
5.226966
 20
9.030189
 30
0.0
  0
SEQEND
  8
OBJECT
  6
HIDDEN
 62
     7
  0
POLYLINE
  8
OBJECT
  6
HIDDEN
 62
     7
 66
     1
 10
0.0
 20
0.0
 30
0.0
 70
     1
  0
VERTEX
  8
OBJECT
  6
HIDDEN
 62
     7
 10
5.226966
 20
15.280683
 30
0.0
  0
VERTEX
  8
OBJECT
  6
HIDDEN
 62
     7
 10
5.106966
 20
15.280683
 30
0.0
  0
VERTEX
  8
OBJECT
  6
HIDDEN
 62
     7
 10
5.106966
 20
16.030189
 30
0.0
  0
VERTEX
  8
OBJECT
  6
HIDDEN
 62
     7
 10
5.226966
 20
16.030189
 30
0.0
  0
SEQEND
  8
OBJECT
  6
HIDDEN
 62
     7
  0
POLYLINE
  8
OBJECT
  6
HIDDEN
 62
     7
 66
     1
 10
0.0
 20
0.0
 30
0.0
 70
     1
  0
VERTEX
  8
OBJECT
  6
HIDDEN
 62
     7
 10
5.021966
 20
15.463683
 30
0.0
 42
-0.367539
  0
VERTEX
  8
OBJECT
  6
HIDDEN
 62
     7
 10
4.975581
 20
15.503105
 30
0.0
 42
-0.163689
  0
VERTEX
  8
OBJECT
  6
HIDDEN
 62
     7
 10
4.976027
 20
15.696613
 30
0.0
 42
-0.353151
  0
VERTEX
  8
OBJECT
  6
HIDDEN
 62
     7
 10
5.021966
 20
15.733683
 30
0.0
  0
VERTEX
  8
OBJECT
  6
HIDDEN
 62
     7
 10
5.056966
 20
15.733683
 30
0.0
  0
VERTEX
  8
OBJECT
  6
HIDDEN
 62
     7
 10
5.056966
 20
15.667683
 30
0.0
  0
VERTEX
  8
OBJECT
  6
HIDDEN
 62
     7
 10
5.431966
 20
15.667683
 30
0.0
  0
VERTEX
  8
OBJECT
  6
HIDDEN
 62
     7
 10
5.431966
 20
15.529683
 30
0.0
  0
VERTEX
  8
OBJECT
  6
HIDDEN
 62
     7
 10
5.056966
 20
15.529683
 30
0.0
  0
VERTEX
  8
OBJECT
  6
HIDDEN
 62
     7
 10
5.056966
 20
15.463683
 30
0.0
  0
SEQEND
  8
OBJECT
  6
HIDDEN
 62
     7
  0
POLYLINE
  8
OBJECT
  6
HIDDEN
 62
     7
 66
     1
 10
0.0
 20
0.0
 30
0.0
 70
     1
  0
VERTEX
  8
OBJECT
  6
HIDDEN
 62
     7
 10
13.591966
 20
9.596696
 30
0.0
 42
-0.367539
  0
VERTEX
  8
OBJECT
  6
HIDDEN
 62
     7
 10
13.638351
 20
9.557274
 30
0.0
 42
-0.163689
  0
VERTEX
  8
OBJECT
  6
HIDDEN
 62
     7
 10
13.637905
 20
9.363766
 30
0.0
 42
-0.353151
  0
VERTEX
  8
OBJECT
  6
HIDDEN
 62
     7
 10
13.591966
 20
9.326696
 30
0.0
  0
VERTEX
  8
OBJECT
  6
HIDDEN
 62
     7
 10
13.556966
 20
9.326696
 30
0.0
  0
VERTEX
  8
OBJECT
  6
HIDDEN
 62
     7
 10
13.556966
 20
9.392696
 30
0.0
  0
VERTEX
  8
OBJECT
  6
HIDDEN
 62
     7
 10
13.181966
 20
9.392696
 30
0.0
  0
VERTEX
  8
OBJECT
  6
HIDDEN
 62
     7
 10
13.181966
 20
9.530696
 30
0.0
  0
VERTEX
  8
OBJECT
  6
HIDDEN
 62
     7
 10
13.556966
 20
9.530696
 30
0.0
  0
VERTEX
  8
OBJECT
  6
HIDDEN
 62
     7
 10
13.556966
 20
9.596696
 30
0.0
  0
SEQEND
  8
OBJECT
  6
HIDDEN
 62
     7
  0
POLYLINE
  8
OBJECT
  6
HIDDEN
 62
     7
 66
     1
 10
0.0
 20
0.0
 30
0.0
 70
     1
  0
VERTEX
  8
OBJECT
  6
HIDDEN
 62
     7
 10
13.386966
 20
9.779696
 30
0.0
  0
VERTEX
  8
OBJECT
  6
HIDDEN
 62
     7
 10
13.506966
 20
9.779696
 30
0.0
  0
VERTEX
  8
OBJECT
  6
HIDDEN
 62
     7
 10
13.506966
 20
9.030189
 30
0.0
  0
VERTEX
  8
OBJECT
  6
HIDDEN
 62
     7
 10
13.386966
 20
9.030189
 30
0.0
  0
SEQEND
  8
OBJECT
  6
HIDDEN
 62
     7
  0
POLYLINE
  8
OBJECT
  6
HIDDEN
 62
     7
 66
     1
 10
0.0
 20
0.0
 30
0.0
 70
     1
  0
VERTEX
  8
OBJECT
  6
HIDDEN
 62
     7
 10
13.591966
 20
15.463683
 30
0.0
 42
0.367539
  0
VERTEX
  8
OBJECT
  6
HIDDEN
 62
     7
 10
13.638351
 20
15.503105
 30
0.0
 42
0.163689
  0
VERTEX
  8
OBJECT
  6
HIDDEN
 62
     7
 10
13.637905
 20
15.696613
 30
0.0
 42
0.353151
  0
VERTEX
  8
OBJECT
  6
HIDDEN
 62
     7
 10
13.591966
 20
15.733683
 30
0.0
  0
VERTEX
  8
OBJECT
  6
HIDDEN
 62
     7
 10
13.556966
 20
15.733683
 30
0.0
  0
VERTEX
  8
OBJECT
  6
HIDDEN
 62
     7
 10
13.556966
 20
15.667683
 30
0.0
  0
VERTEX
  8
OBJECT
  6
HIDDEN
 62
     7
 10
13.181966
 20
15.667683
 30
0.0
  0
VERTEX
  8
OBJECT
  6
HIDDEN
 62
     7
 10
13.181966
 20
15.529683
 30
0.0
  0
VERTEX
  8
OBJECT
  6
HIDDEN
 62
     7
 10
13.556966
 20
15.529683
 30
0.0
  0
VERTEX
  8
OBJECT
  6
HIDDEN
 62
     7
 10
13.556966
 20
15.463683
 30
0.0
  0
SEQEND
  8
OBJECT
  6
HIDDEN
 62
     7
  0
POLYLINE
  8
OBJECT
  6
HIDDEN
 62
     7
 66
     1
 10
0.0
 20
0.0
 30
0.0
 70
     1
  0
VERTEX
  8
OBJECT
  6
HIDDEN
 62
     7
 10
13.386966
 20
15.280683
 30
0.0
  0
VERTEX
  8
OBJECT
  6
HIDDEN
 62
     7
 10
13.506966
 20
15.280683
 30
0.0
  0
VERTEX
  8
OBJECT
  6
HIDDEN
 62
     7
 10
13.506966
 20
16.030189
 30
0.0
  0
VERTEX
  8
OBJECT
  6
HIDDEN
 62
     7
 10
13.386966
 20
16.030189
 30
0.0
  0
SEQEND
  8
OBJECT
  6
HIDDEN
 62
     7
  0
POLYLINE
  8
OBJECT
 62
     7
 66
     1
 10
0.0
 20
0.0
 30
0.0
  0
VERTEX
  8
OBJECT
 62
     7
 10
13.556966
 20
4.898116
 30
0.0
  0
VERTEX
  8
OBJECT
 62
     7
 10
13.591966
 20
4.898116
 30
0.0
 42
0.353151
  0
VERTEX
  8
OBJECT
 62
     7
 10
13.637905
 20
4.935186
 30
0.0
 42
0.163689
  0
VERTEX
  8
OBJECT
 62
     7
 10
13.638351
 20
5.128694
 30
0.0
 42
0.367539
  0
VERTEX
  8
OBJECT
 62
     7
 10
13.591966
 20
5.168116
 30
0.0
  0
VERTEX
  8
OBJECT
 62
     7
 10
13.556966
 20
5.168116
 30
0.0
  0
SEQEND
  8
OBJECT
 62
     7
  0
POLYLINE
  8
OBJECT
 62
     7
 66
     1
 10
0.0
 20
0.0
 30
0.0
  0
VERTEX
  8
OBJECT
 62
     7
 10
13.556966
 20
5.523116
 30
0.0
  0
VERTEX
  8
OBJECT
 62
     7
 10
13.591966
 20
5.523116
 30
0.0
 42
0.353151
  0
VERTEX
  8
OBJECT
 62
     7
 10
13.637905
 20
5.560186
 30
0.0
 42
0.163689
  0
VERTEX
  8
OBJECT
 62
     7
 10
13.638351
 20
5.753694
 30
0.0
 42
0.367539
  0
VERTEX
  8
OBJECT
 62
     7
 10
13.591966
 20
5.793116
 30
0.0
  0
VERTEX
  8
OBJECT
 62
     7
 10
13.556966
 20
5.793116
 30
0.0
  0
SEQEND
  8
OBJECT
 62
     7
  0
POLYLINE
  8
OBJECT
 62
     7
 66
     1
 10
0.0
 20
0.0
 30
0.0
  0
VERTEX
  8
OBJECT
 62
     7
 10
5.056966
 20
5.523116
 30
0.0
  0
VERTEX
  8
OBJECT
 62
     7
 10
5.021966
 20
5.523116
 30
0.0
 42
-0.353151
  0
VERTEX
  8
OBJECT
 62
     7
 10
4.976027
 20
5.560186
 30
0.0
 42
-0.163689
  0
VERTEX
  8
OBJECT
 62
     7
 10
4.975581
 20
5.753694
 30
0.0
 42
-0.367539
  0
VERTEX
  8
OBJECT
 62
     7
 10
5.021966
 20
5.793116
 30
0.0
  0
VERTEX
  8
OBJECT
 62
     7
 10
5.056966
 20
5.793116
 30
0.0
  0
SEQEND
  8
OBJECT
 62
     7
  0
POLYLINE
  8
OBJECT
 62
     7
 66
     1
 10
0.0
 20
0.0
 30
0.0
  0
VERTEX
  8
OBJECT
 62
     7
 10
5.056966
 20
4.898116
 30
0.0
  0
VERTEX
  8
OBJECT
 62
     7
 10
5.021966
 20
4.898116
 30
0.0
 42
-0.353151
  0
VERTEX
  8
OBJECT
 62
     7
 10
4.976027
 20
4.935186
 30
0.0
 42
-0.163689
  0
VERTEX
  8
OBJECT
 62
     7
 10
4.975581
 20
5.128694
 30
0.0
 42
-0.367539
  0
VERTEX
  8
OBJECT
 62
     7
 10
5.021966
 20
5.168116
 30
0.0
  0
VERTEX
  8
OBJECT
 62
     7
 10
5.056966
 20
5.168116
 30
0.0
  0
SEQEND
  8
OBJECT
 62
     7
  0
LINE
  8
TEXT
 10
3.560883
 20
17.495827
 30
0.0
 11
2.59104
 21
17.495827
 31
0.0
  0
TEXT
  8
TEXT
 10
3.711981
 20
17.469308
 30
0.0
 40
0.25
  1
0.120 THK. ALUMINUM
 41
0.75
  7
TXT
  0
TEXT
  8
TEXT
 10
1.000124
 20
17.469308
 30
0.0
 40
0.25
  1
BRACKETS
 41
0.75
  7
TXT
  0
TEXT
  8
TEXT
 10
8.472528
 20
17.885975
 30
0.0
 40
0.25
  1
BRACKETS
 41
0.75
  7
TXT
  0
LINE
  8
TEXT
 10
12.651284
 20
18.329161
 30
0.0
 11
9.730565
 21
18.329161
 31
0.0
  0
TEXT
  8
TEXT
 10
12.802383
 20
18.302642
 30
0.0
 40
0.25
  1
NATURAL (UNPAINTED)-VINYL COVERED, (1) SIDE
 41
0.75
  7
TXT
  0
LINE
  8
OBJECT
 62
     7
 10
23.987762
 20
6.145616
 30
0.0
 11
16.211762
 21
6.145616
 31
0.0
  0
LINE
  8
OBJECT
 62
     7
 10
16.211762
 20
4.545616
 30
0.0
 11
23.987762
 21
4.545616
 31
0.0
  0
LINE
  8
OBJECT
 62
     7
 10
15.924762
 20
5.858616
 30
0.0
 11
15.924762
 21
4.832616
 31
0.0
  0
ARC
  8
OBJECT
 62
     7
 10
16.211762
 20
5.858616
 30
0.0
 40
0.287
 50
90.0
 51
180.0
  0
ARC
  8
OBJECT
 62
     7
 10
16.211762
 20
4.832616
 30
0.0
 40
0.287
 50
180.0
 51
270.0
  0
LINE
  8
OBJECT
 62
     7
 10
24.274762
 20
4.832616
 30
0.0
 11
24.274762
 21
5.858616
 31
0.0
  0
ARC
  8
OBJECT
 62
     7
 10
23.987762
 20
4.832616
 30
0.0
 40
0.287
 50
270.0
 51
0.0
  0
ARC
  8
OBJECT
 62
     7
 10
23.987762
 20
5.858616
 30
0.0
 40
0.287
 50
0.0
 51
90.0
  0
DIMENSION
  8
DIM
 62
     7
  2
*D12
 10
24.274762
 20
6.77092
 30
0.0
 11
20.099762
 21
6.77092
 31
0.0
  1
D
 13
15.924762
 23
5.858616
 33
0.0
 14
24.274762
 24
5.858616
 34
0.0
  3
23NSTD
  0
ENDSEC
  0
EOF
