  0
SECTION
  2
HEADER
  9
$ACADVER
  1
AC1009
  9
$INSBASE
 10
0.0
 20
0.0
 30
0.0
  9
$EXTMIN
 10
0.0
 20
0.0
 30
0.0
  9
$EXTMAX
 10
20.24
 20
31.0
 30
0.0
  9
$LIMMIN
 10
0.0
 20
0.0
  9
$LIMMAX
 10
12.0
 20
9.0
  9
$ORTHOMODE
 70
     1
  9
$REGENMODE
 70
     1
  9
$FILLMODE
 70
     1
  9
$QTEXTMODE
 70
     0
  9
$MIRRTEXT
 70
     0
  9
$DRAGMODE
 70
     2
  9
$LTSCALE
 40
0.5
  9
$OSMODE
 70
     0
  9
$ATTMODE
 70
     1
  9
$TEXTSIZE
 40
0.25
  9
$TRACEWID
 40
0.05
  9
$TEXTSTYLE
  7
STANDARD
  9
$CLAYER
  8
OBJECT
  9
$CELTYPE
  6
BYLAYER
  9
$CECOLOR
 62
   256
  9
$DIMSCALE
 40
2.0
  9
$DIMASZ
 40
0.18
  9
$DIMEXO
 40
0.0625
  9
$DIMDLI
 40
0.38
  9
$DIMRND
 40
0.0
  9
$DIMDLE
 40
0.0
  9
$DIMEXE
 40
0.093
  9
$DIMTP
 40
0.0
  9
$DIMTM
 40
0.0
  9
$DIMTXT
 40
0.125
  9
$DIMCEN
 40
0.09
  9
$DIMTSZ
 40
0.0
  9
$DIMTOL
 70
     0
  9
$DIMLIM
 70
     0
  9
$DIMTIH
 70
     1
  9
$DIMTOH
 70
     1
  9
$DIMSE1
 70
     0
  9
$DIMSE2
 70
     0
  9
$DIMTAD
 70
     0
  9
$DIMZIN
 70
     0
  9
$DIMBLK
  1

  9
$DIMASO
 70
     1
  9
$DIMSHO
 70
     1
  9
$DIMPOST
  1

  9
$DIMAPOST
  1

  9
$DIMALT
 70
     0
  9
$DIMALTD
 70
     2
  9
$DIMALTF
 40
25.4
  9
$DIMLFAC
 40
1.0
  9
$DIMTOFL
 70
     0
  9
$DIMTVP
 40
0.0
  9
$DIMTIX
 70
     0
  9
$DIMSOXD
 70
     0
  9
$DIMSAH
 70
     0
  9
$DIMBLK1
  1

  9
$DIMBLK2
  1

  9
$DIMSTYLE
  2
*UNNAMED
  9
$DIMCLRD
 70
     0
  9
$DIMCLRE
 70
     0
  9
$DIMCLRT
 70
     0
  9
$DIMTFAC
 40
1.0
  9
$DIMGAP
 40
0.09
  9
$LUNITS
 70
     2
  9
$LUPREC
 70
     3
  9
$SKETCHINC
 40
0.1
  9
$FILLETRAD
 40
0.0
  9
$AUNITS
 70
     0
  9
$AUPREC
 70
     0
  9
$MENU
  1
acad
  9
$ELEVATION
 40
0.0
  9
$PELEVATION
 40
0.0
  9
$THICKNESS
 40
0.0
  9
$LIMCHECK
 70
     0
  9
$BLIPMODE
 70
     1
  9
$CHAMFERA
 40
0.0
  9
$CHAMFERB
 40
0.0
  9
$SKPOLY
 70
     0
  9
$TDCREATE
 40
2448173.314328240
  9
$TDUPDATE
 40
2450604.457111689
  9
$TDINDWG
 40
0.0398107639
  9
$TDUSRTIMER
 40
0.0398107639
  9
$USRTIMER
 70
     1
  9
$ANGBASE
 50
0.0
  9
$ANGDIR
 70
     0
  9
$PDMODE
 70
     0
  9
$PDSIZE
 40
0.0
  9
$PLINEWID
 40
0.0
  9
$COORDS
 70
     0
  9
$SPLFRAME
 70
     0
  9
$SPLINETYPE
 70
     6
  9
$SPLINESEGS
 70
     8
  9
$ATTDIA
 70
     0
  9
$ATTREQ
 70
     1
  9
$HANDLING
 70
     0
  9
$HANDSEED
  5
0
  9
$SURFTAB1
 70
     6
  9
$SURFTAB2
 70
     6
  9
$SURFTYPE
 70
     6
  9
$SURFU
 70
     6
  9
$SURFV
 70
     6
  9
$UCSNAME
  2

  9
$UCSORG
 10
0.0
 20
0.0
 30
0.0
  9
$UCSXDIR
 10
1.0
 20
0.0
 30
0.0
  9
$UCSYDIR
 10
0.0
 20
1.0
 30
0.0
  9
$PUCSNAME
  2

  9
$PUCSORG
 10
0.0
 20
0.0
 30
0.0
  9
$PUCSXDIR
 10
1.0
 20
0.0
 30
0.0
  9
$PUCSYDIR
 10
0.0
 20
1.0
 30
0.0
  9
$USERI1
 70
     0
  9
$USERI2
 70
     0
  9
$USERI3
 70
     0
  9
$USERI4
 70
     0
  9
$USERI5
 70
     0
  9
$USERR1
 40
0.0
  9
$USERR2
 40
0.0
  9
$USERR3
 40
0.0
  9
$USERR4
 40
0.0
  9
$USERR5
 40
0.0
  9
$WORLDVIEW
 70
     1
  9
$SHADEDGE
 70
     3
  9
$SHADEDIF
 70
    70
  9
$TILEMODE
 70
     1
  9
$MAXACTVP
 70
    16
  9
$PINSBASE
 10
0.0
 20
0.0
 30
0.0
  9
$PLIMCHECK
 70
     0
  9
$PEXTMIN
 10
1.000000E+20
 20
1.000000E+20
 30
1.000000E+20
  9
$PEXTMAX
 10
-1.000000E+20
 20
-1.000000E+20
 30
-1.000000E+20
  9
$PLIMMIN
 10
0.0
 20
0.0
  9
$PLIMMAX
 10
12.0
 20
9.0
  9
$UNITMODE
 70
     0
  9
$VISRETAIN
 70
     0
  9
$PLINEGEN
 70
     0
  9
$PSLTSCALE
 70
     0
  9
$TREEDEPTH
 70
  3020
  9
$DWGCODEPAGE
  3
undefined
  0
ENDSEC
  0
SECTION
  2
TABLES
  0
TABLE
  2
VPORT
 70
     2
  0
VPORT
  2
*ACTIVE
 70
     0
 10
0.0
 20
0.0
 11
1.0
 21
1.0
 12
21.116262
 22
15.5
 13
0.0
 23
0.0
 14
1.0
 24
1.0
 15
0.5
 25
0.5
 16
0.0
 26
0.0
 36
1.0
 17
0.0
 27
0.0
 37
0.0
 40
31.0
 41
1.36234
 42
50.0
 43
0.0
 44
0.0
 50
0.0
 51
0.0
 71
     0
 72
   100
 73
     1
 74
     0
 75
     0
 76
     0
 77
     0
 78
     0
  0
ENDTAB
  0
TABLE
  2
LTYPE
 70
     4
  0
LTYPE
  2
CONTINUOUS
 70
    64
  3
Solid line
 72
    65
 73
     0
 40
0.0
  0
LTYPE
  2
HIDDEN
 70
    64
  3
_ _ _ _ _ _ _ _ _ _ _ _ _ _ _ _ _ _ _ _ _ _ _
 72
    65
 73
     2
 40
0.375
 49
0.25
 49
-0.125
  0
LTYPE
  2
PHANTOM
 70
    64
  3
_____ _ _ _____ _ _ _____ _ _ _____ _ _ ____
 72
    65
 73
     6
 40
2.5
 49
1.25
 49
-0.25
 49
0.25
 49
-0.25
 49
0.25
 49
-0.25
  0
LTYPE
  2
CENTER
 70
    64
  3
____ _ ____ _ ____ _ ____ _ ____ _ ____ _ ____
 72
    65
 73
     4
 40
2.0
 49
1.25
 49
-0.25
 49
0.25
 49
-0.25
  0
ENDTAB
  0
TABLE
  2
LAYER
 70
     9
  0
LAYER
  2
0
 70
    64
 62
     7
  6
CONTINUOUS
  0
LAYER
  2
OBJECT
 70
    64
 62
     7
  6
CONTINUOUS
  0
LAYER
  2
DIM
 70
    64
 62
     7
  6
CONTINUOUS
  0
LAYER
  2
HIDDEN
 70
    64
 62
     7
  6
HIDDEN
  0
LAYER
  2
BEND
 70
    64
 62
     7
  6
PHANTOM
  0
LAYER
  2
TEXT
 70
    64
 62
     7
  6
CONTINUOUS
  0
LAYER
  2
TITLE
 70
    64
 62
     7
  6
CONTINUOUS
  0
LAYER
  2
CENTER
 70
    64
 62
     7
  6
CENTER
  0
LAYER
  2
DEFPOINTS
 70
    64
 62
     7
  6
CONTINUOUS
  0
ENDTAB
  0
TABLE
  2
STYLE
 70
     1
  0
STYLE
  2
STANDARD
 70
    64
 40
0.0
 41
0.75
 50
0.0
 71
     0
 42
0.25
  3
TXT.shx
  4

  0
ENDTAB
  0
TABLE
  2
VIEW
 70
     0
  0
ENDTAB
  0
TABLE
  2
UCS
 70
     0
  0
ENDTAB
  0
TABLE
  2
APPID
 70
     1
  0
APPID
  2
ACAD
 70
    64
  0
ENDTAB
  0
TABLE
  2
DIMSTYLE
 70
     0
  0
ENDTAB
  0
ENDSEC
  0
SECTION
  2
BLOCKS
  0
BLOCK
  8
0
  2
*D0
 70
    65
 10
0.0
 20
0.0
 30
0.0
  3
*D
  0
LINE
  8
0
  6
BYBLOCK
 62
     0
 10
8.737156
 20
25.473485
 30
0.0
 11
8.737156
 21
24.541893
 31
0.0
  0
LINE
  8
0
  6
BYBLOCK
 62
     0
 10
3.607156
 20
25.473985
 30
0.0
 11
3.607156
 21
24.541893
 31
0.0
  0
LINE
  8
0
  6
BYBLOCK
 62
     0
 10
8.377156
 20
24.727893
 30
0.0
 11
6.680281
 21
24.727893
 31
0.0
  0
LINE
  8
0
  6
BYBLOCK
 62
     0
 10
3.967156
 20
24.727893
 30
0.0
 11
5.664031
 21
24.727893
 31
0.0
  0
SOLID
  8
0
  6
BYBLOCK
 62
     0
 10
8.377156
 20
24.787893
 30
0.0
 11
8.377156
 21
24.667893
 31
0.0
 12
8.737156
 22
24.727893
 32
0.0
 13
8.737156
 23
24.727893
 33
0.0
  0
SOLID
  8
0
  6
BYBLOCK
 62
     0
 10
3.967156
 20
24.787893
 30
0.0
 11
3.967156
 21
24.667893
 31
0.0
 12
3.607156
 22
24.727893
 32
0.0
 13
3.607156
 23
24.727893
 33
0.0
  0
TEXT
  8
0
  6
BYBLOCK
 62
     0
 10
5.844031
 20
24.602893
 30
0.0
 40
0.25
  1
5.130
 41
0.75
 72
     1
 11
6.172156
 21
24.727893
 31
0.0
 73
     2
  0
POINT
  8
DEFPOINTS
  6
BYBLOCK
 62
     0
 10
8.737156
 20
25.598485
 30
0.0
  0
POINT
  8
DEFPOINTS
  6
BYBLOCK
 62
     0
 10
3.607156
 20
25.598985
 30
0.0
  0
POINT
  8
DEFPOINTS
  6
BYBLOCK
 62
     0
 10
3.607156
 20
24.727893
 30
0.0
  0
ENDBLK
  8
0
  0
BLOCK
  8
0
  2
*D1
 70
    65
 10
0.0
 20
0.0
 30
0.0
  3
*D
  0
LINE
  8
0
  6
BYBLOCK
 62
     0
 10
3.605156
 20
25.473985
 30
0.0
 11
3.605156
 21
24.541893
 31
0.0
  0
LINE
  8
0
  6
BYBLOCK
 62
     0
 10
3.019656
 20
25.235985
 30
0.0
 11
3.019656
 21
24.541893
 31
0.0
  0
LINE
  8
0
  6
BYBLOCK
 62
     0
 10
3.965156
 20
24.727893
 30
0.0
 11
4.325156
 21
24.727893
 31
0.0
  0
LINE
  8
0
  6
BYBLOCK
 62
     0
 10
2.659656
 20
24.727893
 30
0.0
 11
2.299656
 21
24.727893
 31
0.0
  0
SOLID
  8
0
  6
BYBLOCK
 62
     0
 10
3.965156
 20
24.787893
 30
0.0
 11
3.965156
 21
24.667893
 31
0.0
 12
3.605156
 22
24.727893
 32
0.0
 13
3.605156
 23
24.727893
 33
0.0
  0
SOLID
  8
0
  6
BYBLOCK
 62
     0
 10
2.659656
 20
24.787893
 30
0.0
 11
2.659656
 21
24.667893
 31
0.0
 12
3.019656
 22
24.727893
 32
0.0
 13
3.019656
 23
24.727893
 33
0.0
  0
TEXT
  8
0
  6
BYBLOCK
 62
     0
 10
1.400906
 20
24.602893
 30
0.0
 40
0.25
  1
0.585
 41
0.75
 72
     1
 11
1.760281
 21
24.727893
 31
0.0
 73
     2
  0
POINT
  8
DEFPOINTS
  6
BYBLOCK
 62
     0
 10
3.605156
 20
25.598985
 30
0.0
  0
POINT
  8
DEFPOINTS
  6
BYBLOCK
 62
     0
 10
3.019656
 20
25.360985
 30
0.0
  0
POINT
  8
DEFPOINTS
  6
BYBLOCK
 62
     0
 10
3.019656
 20
24.727893
 30
0.0
  0
ENDBLK
  8
0
  0
BLOCK
  8
0
  2
*D2
 70
    65
 10
0.0
 20
0.0
 30
0.0
  3
*D
  0
LINE
  8
0
  6
BYBLOCK
 62
     0
 10
3.605156
 20
10.406209
 30
0.0
 11
3.605156
 21
9.349335
 31
0.0
  0
LINE
  8
0
  6
BYBLOCK
 62
     0
 10
3.019656
 20
10.168209
 30
0.0
 11
3.019656
 21
9.349335
 31
0.0
  0
LINE
  8
0
  6
BYBLOCK
 62
     0
 10
3.965156
 20
9.535335
 30
0.0
 11
4.325156
 21
9.535335
 31
0.0
  0
LINE
  8
0
  6
BYBLOCK
 62
     0
 10
2.659656
 20
9.535335
 30
0.0
 11
2.299656
 21
9.535335
 31
0.0
  0
SOLID
  8
0
  6
BYBLOCK
 62
     0
 10
3.965156
 20
9.595335
 30
0.0
 11
3.965156
 21
9.475335
 31
0.0
 12
3.605156
 22
9.535335
 32
0.0
 13
3.605156
 23
9.535335
 33
0.0
  0
SOLID
  8
0
  6
BYBLOCK
 62
     0
 10
2.659656
 20
9.595335
 30
0.0
 11
2.659656
 21
9.475335
 31
0.0
 12
3.019656
 22
9.535335
 32
0.0
 13
3.019656
 23
9.535335
 33
0.0
  0
TEXT
  8
0
  6
BYBLOCK
 62
     0
 10
1.400906
 20
9.410335
 30
0.0
 40
0.25
  1
0.585
 41
0.75
 72
     1
 11
1.760281
 21
9.535335
 31
0.0
 73
     2
  0
POINT
  8
DEFPOINTS
  6
BYBLOCK
 62
     0
 10
3.605156
 20
10.531209
 30
0.0
  0
POINT
  8
DEFPOINTS
  6
BYBLOCK
 62
     0
 10
3.019656
 20
10.293209
 30
0.0
  0
POINT
  8
DEFPOINTS
  6
BYBLOCK
 62
     0
 10
3.019656
 20
9.535335
 30
0.0
  0
ENDBLK
  8
0
  0
BLOCK
  8
0
  2
*D3
 70
    65
 10
0.0
 20
0.0
 30
0.0
  3
*D
  0
LINE
  8
0
  6
BYBLOCK
 62
     0
 10
8.735156
 20
10.405709
 30
0.0
 11
8.735156
 21
9.349335
 31
0.0
  0
LINE
  8
0
  6
BYBLOCK
 62
     0
 10
3.605156
 20
10.406209
 30
0.0
 11
3.605156
 21
9.349335
 31
0.0
  0
LINE
  8
0
  6
BYBLOCK
 62
     0
 10
8.375156
 20
9.535335
 30
0.0
 11
6.678281
 21
9.535335
 31
0.0
  0
LINE
  8
0
  6
BYBLOCK
 62
     0
 10
3.965156
 20
9.535335
 30
0.0
 11
5.662031
 21
9.535335
 31
0.0
  0
SOLID
  8
0
  6
BYBLOCK
 62
     0
 10
8.375156
 20
9.595335
 30
0.0
 11
8.375156
 21
9.475335
 31
0.0
 12
8.735156
 22
9.535335
 32
0.0
 13
8.735156
 23
9.535335
 33
0.0
  0
SOLID
  8
0
  6
BYBLOCK
 62
     0
 10
3.965156
 20
9.595335
 30
0.0
 11
3.965156
 21
9.475335
 31
0.0
 12
3.605156
 22
9.535335
 32
0.0
 13
3.605156
 23
9.535335
 33
0.0
  0
TEXT
  8
0
  6
BYBLOCK
 62
     0
 10
5.842031
 20
9.410335
 30
0.0
 40
0.25
  1
5.130
 41
0.75
 72
     1
 11
6.170156
 21
9.535335
 31
0.0
 73
     2
  0
POINT
  8
DEFPOINTS
  6
BYBLOCK
 62
     0
 10
8.735156
 20
10.530709
 30
0.0
  0
POINT
  8
DEFPOINTS
  6
BYBLOCK
 62
     0
 10
3.605156
 20
10.531209
 30
0.0
  0
POINT
  8
DEFPOINTS
  6
BYBLOCK
 62
     0
 10
3.605156
 20
9.535335
 30
0.0
  0
ENDBLK
  8
0
  0
ENDSEC
  0
SECTION
  2
ENTITIES
  0
ARC
  8
OBJECT
 10
14.467009
 20
26.637659
 30
0.0
 40
0.537925
 50
63.52761
 51
94.819939
  0
LINE
  8
OBJECT
 10
14.706798
 20
25.360985
 30
0.0
 11
14.706798
 21
28.610985
 31
0.0
  0
LINE
  8
OBJECT
 10
13.796798
 20
25.110985
 30
0.0
 11
14.456798
 21
25.110985
 31
0.0
  0
LINE
  8
OBJECT
 10
14.456798
 20
28.860985
 30
0.0
 11
13.796798
 21
28.860985
 31
0.0
  0
LINE
  8
OBJECT
 10
14.206798
 20
25.110985
 30
0.0
 11
14.206798
 21
25.160985
 31
0.0
  0
LINE
  8
OBJECT
 10
14.220729
 20
27.178323
 30
0.0
 11
14.220729
 21
28.860985
 31
0.0
  0
ARC
  8
OBJECT
 10
13.796798
 20
28.610985
 30
0.0
 40
0.25
 50
90.0
 51
180.0
  0
ARC
  8
OBJECT
 10
14.456798
 20
28.610985
 30
0.0
 40
0.25
 50
0.0
 51
90.0
  0
ARC
  8
OBJECT
 10
14.456798
 20
25.360985
 30
0.0
 40
0.25
 50
270.0
 51
0.0
  0
LINE
  8
HIDDEN
 10
14.581798
 20
25.578485
 30
0.0
 11
14.276798
 21
25.578485
 31
0.0
  0
LINE
  8
OBJECT
 10
14.276798
 20
25.665985
 30
0.0
 11
14.276798
 21
25.355985
 31
0.0
  0
LINE
  8
OBJECT
 10
14.596798
 20
25.713985
 30
0.0
 11
14.471798
 21
25.713985
 31
0.0
  0
LINE
  8
OBJECT
 10
14.594555
 20
25.307985
 30
0.0
 11
14.471798
 21
25.307985
 31
0.0
  0
LINE
  8
OBJECT
 10
14.471798
 20
25.665985
 30
0.0
 11
14.276798
 21
25.665985
 31
0.0
  0
LINE
  8
OBJECT
 10
14.192867
 20
27.176115
 30
0.0
 11
14.192867
 21
28.860985
 31
0.0
  0
LINE
  8
HIDDEN
 10
14.581798
 20
25.443485
 30
0.0
 11
14.276798
 21
25.443485
 31
0.0
  0
LINE
  8
OBJECT
 10
14.471798
 20
25.355985
 30
0.0
 11
14.276798
 21
25.355985
 31
0.0
  0
LINE
  8
OBJECT
 10
14.471798
 20
25.307985
 30
0.0
 11
14.471798
 21
25.713985
 31
0.0
  0
LINE
  8
HIDDEN
 10
14.706798
 20
25.644265
 30
0.0
 11
14.581798
 21
25.644265
 31
0.0
  0
LINE
  8
HIDDEN
 10
14.706798
 20
25.377705
 30
0.0
 11
14.581798
 21
25.377705
 31
0.0
  0
LINE
  8
HIDDEN
 10
14.581798
 20
25.377705
 30
0.0
 11
14.581798
 21
25.644265
 31
0.0
  0
LINE
  8
OBJECT
 10
13.656798
 20
25.620985
 30
0.0
 11
14.276798
 21
25.620985
 31
0.0
  0
LINE
  8
HIDDEN
 10
13.732271
 20
25.557985
 30
0.0
 11
14.276798
 21
25.557985
 31
0.0
  0
LINE
  8
HIDDEN
 10
13.732271
 20
25.463985
 30
0.0
 11
14.276798
 21
25.463985
 31
0.0
  0
LINE
  8
OBJECT
 10
13.656798
 20
25.400985
 30
0.0
 11
14.276798
 21
25.400985
 31
0.0
  0
LINE
  8
HIDDEN
 10
13.722271
 20
25.473985
 30
0.0
 11
13.722271
 21
25.547985
 31
0.0
  0
ARC
  8
HIDDEN
 10
13.732271
 20
25.473985
 30
0.0
 40
0.01
 50
180.0
 51
270.0
  0
ARC
  8
HIDDEN
 10
13.732271
 20
25.547985
 30
0.0
 40
0.01
 50
90.0
 51
180.0
  0
LINE
  8
OBJECT
 10
13.597133
 20
25.480985
 30
0.0
 11
13.597133
 21
27.071718
 31
0.0
  0
ARC
  8
OBJECT
 10
14.29547
 20
26.058218
 30
0.0
 40
1.122595
 50
83.538089
 51
108.692842
  0
ARC
  8
OBJECT
 10
13.629338
 20
28.027032
 30
0.0
 40
0.955857
 50
265.046248
 51
288.692842
  0
LINE
  8
OBJECT
 10
13.546798
 20
25.360985
 30
0.0
 11
13.546798
 21
28.610985
 31
0.0
  0
CIRCLE
  8
HIDDEN
 10
8.919295
 20
25.510985
 30
0.0
 40
0.11
  0
CIRCLE
  8
HIDDEN
 10
8.919295
 20
28.460985
 30
0.0
 40
0.11
  0
CIRCLE
  8
HIDDEN
 10
8.919295
 20
25.510985
 30
0.0
 40
0.203
  0
CIRCLE
  8
HIDDEN
 10
8.919295
 20
28.460985
 30
0.0
 40
0.203
  0
CIRCLE
  8
HIDDEN
 10
3.419656
 20
28.460985
 30
0.0
 40
0.203
  0
CIRCLE
  8
HIDDEN
 10
3.419656
 20
25.510985
 30
0.0
 40
0.203
  0
LINE
  8
OBJECT
 10
3.269656
 20
23.344975
 30
0.0
 11
9.069656
 21
23.344975
 31
0.0
  0
ARC
  8
OBJECT
 10
6.067455
 20
23.262435
 30
0.0
 40
0.955857
 50
175.046248
 51
198.692842
  0
ARC
  8
OBJECT
 10
4.098641
 20
22.596303
 30
0.0
 40
1.122595
 50
353.538089
 51
18.692842
  0
ARC
  8
OBJECT
 10
4.575968
 20
22.542239
 30
0.0
 40
0.642216
 50
326.199719
 51
353.538089
  0
LINE
  8
OBJECT
 10
3.602156
 20
23.29464
 30
0.0
 11
5.112141
 21
23.29464
 31
0.0
  0
ARC
  8
HIDDEN
 10
3.456656
 20
23.159502
 30
0.0
 40
0.01
 50
0.0
 51
90.0
  0
ARC
  8
HIDDEN
 10
3.382656
 20
23.159502
 30
0.0
 40
0.01
 50
90.0
 51
180.0
  0
LINE
  8
HIDDEN
 10
3.382656
 20
23.169502
 30
0.0
 11
3.456656
 21
23.169502
 31
0.0
  0
LINE
  8
OBJECT
 10
3.309656
 20
23.234975
 30
0.0
 11
3.309656
 21
22.614975
 31
0.0
  0
LINE
  8
HIDDEN
 10
3.372656
 20
23.159502
 30
0.0
 11
3.372656
 21
22.614975
 31
0.0
  0
LINE
  8
HIDDEN
 10
3.466656
 20
23.159502
 30
0.0
 11
3.466656
 21
22.614975
 31
0.0
  0
LINE
  8
OBJECT
 10
3.529656
 20
23.234975
 30
0.0
 11
3.529656
 21
22.614975
 31
0.0
  0
LINE
  8
HIDDEN
 10
3.304656
 20
22.309975
 30
0.0
 11
3.534656
 21
22.309975
 31
0.0
  0
LINE
  8
HIDDEN
 10
3.304656
 20
22.184975
 30
0.0
 11
3.304656
 21
22.309975
 31
0.0
  0
LINE
  8
HIDDEN
 10
3.534656
 20
22.184975
 30
0.0
 11
3.534656
 21
22.309975
 31
0.0
  0
LINE
  8
OBJECT
 10
3.216656
 20
22.419975
 30
0.0
 11
3.622656
 21
22.419975
 31
0.0
  0
LINE
  8
OBJECT
 10
3.264656
 20
22.419975
 30
0.0
 11
3.264656
 21
22.614975
 31
0.0
  0
LINE
  8
HIDDEN
 10
3.352156
 20
22.309975
 30
0.0
 11
3.352156
 21
22.614975
 31
0.0
  0
LINE
  8
OBJECT
 10
5.216537
 20
22.698906
 30
0.0
 11
9.319656
 21
22.698906
 31
0.0
  0
LINE
  8
OBJECT
 10
3.574656
 20
22.419975
 30
0.0
 11
3.574656
 21
22.614975
 31
0.0
  0
LINE
  8
OBJECT
 10
3.216656
 20
22.297218
 30
0.0
 11
3.216656
 21
22.419975
 31
0.0
  0
LINE
  8
OBJECT
 10
3.622656
 20
22.294975
 30
0.0
 11
3.622656
 21
22.419975
 31
0.0
  0
LINE
  8
OBJECT
 10
3.574656
 20
22.614975
 30
0.0
 11
3.264656
 21
22.614975
 31
0.0
  0
LINE
  8
HIDDEN
 10
3.487156
 20
22.309975
 30
0.0
 11
3.487156
 21
22.614975
 31
0.0
  0
ARC
  8
OBJECT
 10
3.269656
 20
22.434975
 30
0.0
 40
0.25
 50
180.0
 51
270.0
  0
ARC
  8
OBJECT
 10
9.069656
 20
22.434975
 30
0.0
 40
0.25
 50
270.0
 51
0.0
  0
ARC
  8
OBJECT
 10
9.069656
 20
23.094975
 30
0.0
 40
0.25
 50
0.0
 51
90.0
  0
LINE
  8
OBJECT
 10
5.218745
 20
22.671044
 30
0.0
 11
9.319656
 21
22.671044
 31
0.0
  0
LINE
  8
OBJECT
 10
3.019656
 20
22.684975
 30
0.0
 11
3.069656
 21
22.684975
 31
0.0
  0
LINE
  8
OBJECT
 10
9.319656
 20
22.434975
 30
0.0
 11
9.319656
 21
23.094975
 31
0.0
  0
LINE
  8
OBJECT
 10
3.019656
 20
23.094975
 30
0.0
 11
3.019656
 21
22.434975
 31
0.0
  0
LINE
  8
OBJECT
 10
3.269656
 20
22.184975
 30
0.0
 11
9.069656
 21
22.184975
 31
0.0
  0
CIRCLE
  8
HIDDEN
 10
3.419656
 20
28.460985
 30
0.0
 40
0.11
  0
CIRCLE
  8
HIDDEN
 10
3.419656
 20
25.510985
 30
0.0
 40
0.11
  0
ARC
  8
OBJECT
 10
9.069656
 20
25.360985
 30
0.0
 40
0.25
 50
270.0
 51
0.0
  0
ARC
  8
OBJECT
 10
9.069656
 20
28.610985
 30
0.0
 40
0.25
 50
0.0
 51
90.0
  0
ARC
  8
OBJECT
 10
3.269656
 20
28.610985
 30
0.0
 40
0.25
 50
90.0
 51
180.0
  0
ARC
  8
OBJECT
 10
3.269656
 20
25.360985
 30
0.0
 40
0.25
 50
180.0
 51
270.0
  0
LINE
  8
OBJECT
 10
3.019656
 20
28.610985
 30
0.0
 11
3.019656
 21
25.360985
 31
0.0
  0
LINE
  8
OBJECT
 10
9.069656
 20
28.860985
 30
0.0
 11
3.269656
 21
28.860985
 31
0.0
  0
LINE
  8
OBJECT
 10
9.319656
 20
25.360985
 30
0.0
 11
9.319656
 21
28.610985
 31
0.0
  0
LINE
  8
OBJECT
 10
3.269656
 20
25.110985
 30
0.0
 11
9.069656
 21
25.110985
 31
0.0
  0
ARC
  8
OBJECT
 10
8.617656
 20
28.373485
 30
0.0
 40
0.0625
 50
0.0
 51
90.0
  0
ARC
  8
OBJECT
 10
8.617656
 20
25.598485
 30
0.0
 40
0.0625
 50
270.0
 51
0.0
  0
LINE
  8
OBJECT
 10
8.617656
 20
28.435985
 30
0.0
 11
3.723156
 21
28.435985
 31
0.0
  0
LINE
  8
OBJECT
 10
8.680156
 20
25.598485
 30
0.0
 11
8.680156
 21
28.373485
 31
0.0
  0
LINE
  8
OBJECT
 10
3.723156
 20
25.535985
 30
0.0
 11
8.617656
 21
25.535985
 31
0.0
  0
TEXT
  8
TEXT
 10
0.53025
 20
30.120158
 30
0.0
 40
0.25
  1
NAME
 41
0.75
 72
     1
 11
0.874
 21
30.120158
 31
0.0
  0
TEXT
  8
TEXT
 10
0.53025
 20
30.536825
 30
0.0
 40
0.25
  1
PART
 41
0.75
 72
     1
 11
0.874
 21
30.536825
 31
0.0
  0
TEXT
  8
TEXT
 10
10.744
 20
30.120158
 30
0.0
 40
0.25
  1
No.
 72
     1
 11
10.994
 21
30.120158
 31
0.0
  0
TEXT
  8
TEXT
 10
10.65025
 20
30.536825
 30
0.0
 40
0.25
  1
PART
 41
0.75
 72
     1
 11
10.994
 21
30.536825
 31
0.0
  0
LINE
  8
TITLE
 10
11.744
 20
30.876
 30
0.0
 11
11.744
 21
30.04
 31
0.0
  0
LINE
  8
TITLE
 10
10.244
 20
30.876
 30
0.0
 11
10.244
 21
30.04
 31
0.0
  0
LINE
  8
TITLE
 10
10.12
 20
30.876
 30
0.0
 11
10.12
 21
30.04
 31
0.0
  0
LINE
  8
TITLE
 10
1.624
 20
30.04
 30
0.0
 11
1.624
 21
30.876
 31
0.0
  0
LINE
  8
TITLE
 10
0.124
 20
30.04
 30
0.0
 11
20.116
 21
30.04
 31
0.0
  0
LINE
  8
TITLE
 10
20.116
 20
0.124
 30
0.0
 11
0.124
 21
0.124
 31
0.0
  0
LINE
  8
TITLE
 10
20.116
 20
30.876
 30
0.0
 11
20.116
 21
16.020326
 31
0.0
  0
LINE
  8
TITLE
 10
0.124
 20
30.876
 30
0.0
 11
20.116
 21
30.876
 31
0.0
  0
LINE
  8
TITLE
 10
0.124
 20
0.124
 30
0.0
 11
0.124
 21
15.896326
 31
0.0
  0
LINE
  8
TITLE
 10
0.0
 20
0.0
 30
0.0
 11
0.0
 21
31.0
 31
0.0
  0
LINE
  8
TITLE
 10
20.24
 20
0.0
 30
0.0
 11
0.0
 21
0.0
 31
0.0
  0
LINE
  8
TITLE
 10
20.24
 20
31.0
 30
0.0
 11
20.24
 21
0.0
 31
0.0
  0
LINE
  8
TITLE
 10
0.0
 20
31.0
 30
0.0
 11
20.24
 21
31.0
 31
0.0
  0
LINE
  8
TITLE
 10
0.124
 20
16.020326
 30
0.0
 11
20.116
 21
16.020326
 31
0.0
  0
LINE
  8
TITLE
 10
0.124
 20
15.896326
 30
0.0
 11
20.116
 21
15.896326
 31
0.0
  0
LINE
  8
TITLE
 10
0.124
 20
15.060326
 30
0.0
 11
20.116
 21
15.060326
 31
0.0
  0
LINE
  8
TITLE
 10
1.624
 20
15.060326
 30
0.0
 11
1.624
 21
15.896326
 31
0.0
  0
LINE
  8
TITLE
 10
10.12
 20
15.896326
 30
0.0
 11
10.12
 21
15.060326
 31
0.0
  0
LINE
  8
TITLE
 10
10.244
 20
15.896326
 30
0.0
 11
10.244
 21
15.060326
 31
0.0
  0
LINE
  8
TITLE
 10
11.744
 20
15.896326
 30
0.0
 11
11.744
 21
15.060326
 31
0.0
  0
TEXT
  8
TEXT
 10
10.65025
 20
15.557151
 30
0.0
 40
0.25
  1
PART
 41
0.75
 72
     1
 11
10.994
 21
15.557151
 31
0.0
  0
TEXT
  8
TEXT
 10
10.8065
 20
15.140484
 30
0.0
 40
0.25
  1
No.
 41
0.75
 72
     1
 11
10.994
 21
15.140484
 31
0.0
  0
TEXT
  8
TEXT
 10
0.53025
 20
15.557151
 30
0.0
 40
0.25
  1
PART
 41
0.75
 72
     1
 11
0.874
 21
15.557151
 31
0.0
  0
TEXT
  8
TEXT
 10
0.53025
 20
15.140484
 30
0.0
 40
0.25
  1
NAME
 41
0.75
 72
     1
 11
0.874
 21
15.140484
 31
0.0
  0
LINE
  8
HIDDEN
 10
9.069656
 20
28.750985
 30
0.0
 11
3.269656
 21
28.750985
 31
0.0
  0
LINE
  8
HIDDEN
 10
3.129656
 20
28.610985
 30
0.0
 11
3.129656
 21
25.360985
 31
0.0
  0
LINE
  8
HIDDEN
 10
3.269656
 20
25.220985
 30
0.0
 11
9.069656
 21
25.220985
 31
0.0
  0
LINE
  8
HIDDEN
 10
9.209656
 20
25.360985
 30
0.0
 11
9.209656
 21
28.610985
 31
0.0
  0
ARC
  8
HIDDEN
 10
9.069656
 20
28.610985
 30
0.0
 40
0.14
 50
0.0
 51
90.0
  0
ARC
  8
HIDDEN
 10
9.069656
 20
25.360985
 30
0.0
 40
0.14
 50
270.0
 51
0.0
  0
ARC
  8
HIDDEN
 10
3.269656
 20
28.610985
 30
0.0
 40
0.14
 50
90.0
 51
180.0
  0
ARC
  8
HIDDEN
 10
3.269656
 20
25.360985
 30
0.0
 40
0.14
 50
180.0
 51
270.0
  0
LINE
  8
HIDDEN
 10
3.269656
 20
25.170985
 30
0.0
 11
9.069656
 21
25.170985
 31
0.0
  0
LINE
  8
HIDDEN
 10
3.079656
 20
28.610985
 30
0.0
 11
3.079656
 21
25.360985
 31
0.0
  0
LINE
  8
HIDDEN
 10
9.069656
 20
28.800985
 30
0.0
 11
3.269656
 21
28.800985
 31
0.0
  0
ARC
  8
HIDDEN
 10
3.269656
 20
25.360985
 30
0.0
 40
0.19
 50
180.0
 51
270.0
  0
LINE
  8
HIDDEN
 10
9.259656
 20
25.360985
 30
0.0
 11
9.259656
 21
28.610985
 31
0.0
  0
ARC
  8
HIDDEN
 10
9.069656
 20
25.360985
 30
0.0
 40
0.19
 50
270.0
 51
0.0
  0
ARC
  8
HIDDEN
 10
9.069656
 20
28.610985
 30
0.0
 40
0.19
 50
0.0
 51
90.0
  0
ARC
  8
HIDDEN
 10
3.269656
 20
28.610985
 30
0.0
 40
0.19
 50
90.0
 51
180.0
  0
LINE
  8
OBJECT
 10
3.660156
 20
25.598985
 30
0.0
 11
3.660156
 21
28.372985
 31
0.0
  0
ARC
  8
OBJECT
 10
3.723156
 20
28.372985
 30
0.0
 40
0.063
 50
90.0
 51
180.0
  0
ARC
  8
OBJECT
 10
3.723156
 20
25.598985
 30
0.0
 40
0.063
 50
180.0
 51
270.0
  0
LINE
  8
OBJECT
 10
8.617656
 20
28.490985
 30
0.0
 11
3.723156
 21
28.490985
 31
0.0
  0
LINE
  8
OBJECT
 10
3.605156
 20
25.598985
 30
0.0
 11
3.605156
 21
28.372985
 31
0.0
  0
LINE
  8
OBJECT
 10
8.735156
 20
25.598485
 30
0.0
 11
8.735156
 21
28.373485
 31
0.0
  0
LINE
  8
OBJECT
 10
3.723156
 20
25.480985
 30
0.0
 11
8.617656
 21
25.480985
 31
0.0
  0
ARC
  8
OBJECT
 10
3.723156
 20
28.372985
 30
0.0
 40
0.118
 50
90.0
 51
180.0
  0
ARC
  8
OBJECT
 10
3.723156
 20
25.598985
 30
0.0
 40
0.118
 50
180.0
 51
270.0
  0
ARC
  8
OBJECT
 10
8.617656
 20
28.373485
 30
0.0
 40
0.1175
 50
0.0
 51
90.0
  0
ARC
  8
OBJECT
 10
8.617656
 20
25.598485
 30
0.0
 40
0.1175
 50
270.0
 51
0.0
  0
LINE
  8
OBJECT
 10
3.238656
 20
22.294975
 30
0.0
 11
5.168675
 21
22.294975
 31
0.0
  0
LINE
  8
OBJECT
 10
3.129656
 20
23.125975
 30
0.0
 11
3.129656
 21
22.744975
 31
0.0
  0
LINE
  8
OBJECT
 10
3.238656
 20
23.234975
 30
0.0
 11
3.529656
 21
23.234975
 31
0.0
  0
LINE
  8
OBJECT
 10
3.529656
 20
23.18464
 30
0.0
 11
5.112141
 21
23.18464
 31
0.0
  0
ARC
  8
OBJECT
 10
3.238656
 20
23.125975
 30
0.0
 40
0.109
 50
90.0
 51
180.0
  0
ARC
  8
OBJECT
 10
3.238656
 20
22.403975
 30
0.0
 40
0.109
 50
180.0
 51
270.0
  0
LINE
  8
OBJECT
 10
3.584156
 20
23.344975
 30
0.0
 11
3.602156
 21
23.29464
 31
0.0
  0
ARC
  8
OBJECT
 10
3.269656
 20
23.094975
 30
0.0
 40
0.25
 50
90.0
 51
180.0
  0
LINE
  8
OBJECT
 10
14.596798
 20
25.329985
 30
0.0
 11
14.596798
 21
27.159691
 31
0.0
  0
LINE
  8
OBJECT
 10
13.707133
 20
25.620985
 30
0.0
 11
13.707133
 21
27.071718
 31
0.0
  0
LINE
  8
OBJECT
 10
13.656798
 20
25.329985
 30
0.0
 11
13.656798
 21
25.620985
 31
0.0
  0
LINE
  8
OBJECT
 10
13.765798
 20
25.220985
 30
0.0
 11
14.146798
 21
25.220985
 31
0.0
  0
ARC
  8
OBJECT
 10
13.796798
 20
25.360985
 30
0.0
 40
0.25
 50
180.0
 51
270.0
  0
LINE
  8
OBJECT
 10
13.546798
 20
25.462985
 30
0.0
 11
13.597133
 21
25.480985
 31
0.0
  0
LINE
  8
0
 62
     0
 10
13.550515
 20
25.318035
 30
0.0
 11
13.656798
 21
25.424317
 31
0.0
  0
LINE
  8
0
 62
     0
 10
13.597133
 20
25.541429
 30
0.0
 11
13.656798
 21
25.601094
 31
0.0
  0
LINE
  8
0
 62
     0
 10
13.597133
 20
25.718206
 30
0.0
 11
13.707133
 21
25.828206
 31
0.0
  0
LINE
  8
0
 62
     0
 10
13.597133
 20
25.894983
 30
0.0
 11
13.707133
 21
26.004983
 31
0.0
  0
LINE
  8
0
 62
     0
 10
13.597133
 20
26.071759
 30
0.0
 11
13.707133
 21
26.181759
 31
0.0
  0
LINE
  8
0
 62
     0
 10
13.597133
 20
26.248536
 30
0.0
 11
13.707133
 21
26.358536
 31
0.0
  0
LINE
  8
0
 62
     0
 10
13.597133
 20
26.425313
 30
0.0
 11
13.707133
 21
26.535313
 31
0.0
  0
LINE
  8
0
 62
     0
 10
13.607243
 20
25.197985
 30
0.0
 11
13.676598
 21
25.26734
 31
0.0
  0
LINE
  8
0
 62
     0
 10
13.711882
 20
25.125848
 30
0.0
 11
13.807019
 21
25.220985
 31
0.0
  0
LINE
  8
0
 62
     0
 10
13.873796
 20
25.110985
 30
0.0
 11
13.983796
 21
25.220985
 31
0.0
  0
LINE
  8
0
 62
     0
 10
14.050572
 20
25.110985
 30
0.0
 11
14.146798
 21
25.207211
 31
0.0
  0
LINE
  8
0
 62
     0
 10
4.344334
 20
23.18464
 30
0.0
 11
4.454334
 21
23.29464
 31
0.0
  0
LINE
  8
0
 62
     0
 10
4.167557
 20
23.18464
 30
0.0
 11
4.277557
 21
23.29464
 31
0.0
  0
LINE
  8
0
 62
     0
 10
3.990781
 20
23.18464
 30
0.0
 11
4.100781
 21
23.29464
 31
0.0
  0
LINE
  8
0
 62
     0
 10
3.814004
 20
23.18464
 30
0.0
 11
3.924004
 21
23.29464
 31
0.0
  0
LINE
  8
0
 62
     0
 10
3.637227
 20
23.18464
 30
0.0
 11
3.747227
 21
23.29464
 31
0.0
  0
LINE
  8
0
 62
     0
 10
3.510786
 20
23.234975
 30
0.0
 11
3.593805
 21
23.317994
 31
0.0
  0
LINE
  8
0
 62
     0
 10
3.334009
 20
23.234975
 30
0.0
 11
3.444009
 21
23.344975
 31
0.0
  0
LINE
  8
0
 62
     0
 10
3.019668
 20
23.097411
 30
0.0
 11
3.267232
 21
23.344975
 31
0.0
  0
LINE
  8
0
 62
     0
 10
4.521111
 20
23.18464
 30
0.0
 11
4.631111
 21
23.29464
 31
0.0
  0
LINE
  8
0
 62
     0
 10
4.697888
 20
23.18464
 30
0.0
 11
4.807888
 21
23.29464
 31
0.0
  0
LINE
  8
0
 62
     0
 10
4.874664
 20
23.18464
 30
0.0
 11
4.984664
 21
23.29464
 31
0.0
  0
LINE
  8
0
 62
     0
 10
3.019668
 20
22.920411
 30
0.0
 11
3.129656
 21
23.030399
 31
0.0
  0
LINE
  8
0
 62
     0
 10
3.019668
 20
22.743411
 30
0.0
 11
3.129656
 21
22.853399
 31
0.0
  0
LINE
  8
0
 62
     0
 10
5.051631
 20
22.184975
 30
0.0
 11
4.941631
 21
22.294975
 31
0.0
  0
LINE
  8
0
 62
     0
 10
4.874854
 20
22.184975
 30
0.0
 11
4.764854
 21
22.294975
 31
0.0
  0
LINE
  8
0
 62
     0
 10
4.698077
 20
22.184975
 30
0.0
 11
4.588077
 21
22.294975
 31
0.0
  0
LINE
  8
0
 62
     0
 10
4.521301
 20
22.184975
 30
0.0
 11
4.411301
 21
22.294975
 31
0.0
  0
LINE
  8
0
 62
     0
 10
4.344524
 20
22.184975
 30
0.0
 11
4.234524
 21
22.294975
 31
0.0
  0
LINE
  8
0
 62
     0
 10
4.167747
 20
22.184975
 30
0.0
 11
4.057747
 21
22.294975
 31
0.0
  0
LINE
  8
0
 62
     0
 10
3.990971
 20
22.184975
 30
0.0
 11
3.880971
 21
22.294975
 31
0.0
  0
LINE
  8
0
 62
     0
 10
3.814194
 20
22.184975
 30
0.0
 11
3.704194
 21
22.294975
 31
0.0
  0
LINE
  8
0
 62
     0
 10
3.637417
 20
22.184975
 30
0.0
 11
3.527417
 21
22.294975
 31
0.0
  0
LINE
  8
0
 62
     0
 10
3.460641
 20
22.184975
 30
0.0
 11
3.350641
 21
22.294975
 31
0.0
  0
LINE
  8
0
 62
     0
 10
3.129656
 20
22.515959
 30
0.0
 11
3.019656
 21
22.625959
 31
0.0
  0
LINE
  8
0
 62
     0
 10
3.283864
 20
22.184975
 30
0.0
 11
3.019656
 21
22.449183
 31
0.0
  0
LINE
  8
OBJECT
 10
3.069656
 20
22.744975
 30
0.0
 11
3.309656
 21
22.744975
 31
0.0
  0
LINE
  8
OBJECT
 10
3.529656
 20
22.744975
 30
0.0
 11
5.211347
 21
22.744975
 31
0.0
  0
LINE
  8
OBJECT
 10
3.069656
 20
22.744975
 30
0.0
 11
3.069656
 21
22.684975
 31
0.0
  0
LINE
  8
OBJECT
 10
3.129656
 20
22.744975
 30
0.0
 11
3.129656
 21
22.403975
 31
0.0
  0
LINE
  8
0
 62
     0
 10
3.129656
 20
22.692736
 30
0.0
 11
3.077417
 21
22.744975
 31
0.0
  0
LINE
  8
OBJECT
 10
14.146798
 20
25.160985
 30
0.0
 11
14.206798
 21
25.160985
 31
0.0
  0
LINE
  8
OBJECT
 10
14.146798
 20
25.160985
 30
0.0
 11
14.146798
 21
25.400985
 31
0.0
  0
LINE
  8
OBJECT
 10
14.146798
 20
25.620985
 30
0.0
 11
14.146798
 21
27.170925
 31
0.0
  0
LINE
  8
OBJECT
 10
14.146798
 20
25.220985
 30
0.0
 11
14.487798
 21
25.220985
 31
0.0
  0
LINE
  8
OBJECT
 10
14.206798
 20
27.177306
 30
0.0
 11
14.206798
 21
28.860985
 31
0.0
  0
LINE
  8
OBJECT
 10
5.217728
 20
22.684975
 30
0.0
 11
9.319656
 21
22.684975
 31
0.0
  0
CIRCLE
  8
HIDDEN
 10
3.419656
 20
28.460985
 30
0.0
 40
0.155
  0
CIRCLE
  8
HIDDEN
 10
3.419656
 20
25.510985
 30
0.0
 40
0.155
  0
CIRCLE
  8
HIDDEN
 10
8.919295
 20
25.510985
 30
0.0
 40
0.155
  0
CIRCLE
  8
HIDDEN
 10
8.919295
 20
28.460985
 30
0.0
 40
0.155
  0
ARC
  8
HIDDEN
 10
3.269656
 20
17.506491
 30
0.0
 40
0.19
 50
180.0
 51
270.0
  0
ARC
  8
HIDDEN
 10
9.069656
 20
17.506491
 30
0.0
 40
0.19
 50
270.0
 51
0.0
  0
ARC
  8
HIDDEN
 10
9.069656
 20
20.756491
 30
0.0
 40
0.19
 50
0.0
 51
90.0
  0
LINE
  8
HIDDEN
 10
9.259656
 20
20.756491
 30
0.0
 11
9.259656
 21
17.506491
 31
0.0
  0
ARC
  8
HIDDEN
 10
3.269656
 20
20.756491
 30
0.0
 40
0.19
 50
90.0
 51
180.0
  0
LINE
  8
HIDDEN
 10
9.069656
 20
17.316491
 30
0.0
 11
3.269656
 21
17.316491
 31
0.0
  0
LINE
  8
HIDDEN
 10
3.079656
 20
17.506491
 30
0.0
 11
3.079656
 21
20.756491
 31
0.0
  0
LINE
  8
HIDDEN
 10
3.269656
 20
20.946491
 30
0.0
 11
9.069656
 21
20.946491
 31
0.0
  0
ARC
  8
HIDDEN
 10
3.269656
 20
20.756491
 30
0.0
 40
0.14
 50
90.0
 51
180.0
  0
ARC
  8
HIDDEN
 10
3.269656
 20
17.506491
 30
0.0
 40
0.14
 50
180.0
 51
270.0
  0
ARC
  8
HIDDEN
 10
9.069656
 20
20.756491
 30
0.0
 40
0.14
 50
0.0
 51
90.0
  0
ARC
  8
HIDDEN
 10
9.069656
 20
17.506491
 30
0.0
 40
0.14
 50
270.0
 51
0.0
  0
LINE
  8
HIDDEN
 10
9.209656
 20
20.756491
 30
0.0
 11
9.209656
 21
17.506491
 31
0.0
  0
LINE
  8
HIDDEN
 10
3.269656
 20
20.896491
 30
0.0
 11
9.069656
 21
20.896491
 31
0.0
  0
LINE
  8
HIDDEN
 10
3.129656
 20
17.506491
 30
0.0
 11
3.129656
 21
20.756491
 31
0.0
  0
LINE
  8
HIDDEN
 10
9.069656
 20
17.366491
 30
0.0
 11
3.269656
 21
17.366491
 31
0.0
  0
LINE
  8
OBJECT
 10
3.269656
 20
21.006491
 30
0.0
 11
9.069656
 21
21.006491
 31
0.0
  0
LINE
  8
OBJECT
 10
9.319656
 20
20.756491
 30
0.0
 11
9.319656
 21
17.506491
 31
0.0
  0
LINE
  8
OBJECT
 10
9.069656
 20
17.256491
 30
0.0
 11
3.269656
 21
17.256491
 31
0.0
  0
LINE
  8
OBJECT
 10
3.019656
 20
17.506491
 30
0.0
 11
3.019656
 21
20.756491
 31
0.0
  0
ARC
  8
OBJECT
 10
3.269656
 20
20.756491
 30
0.0
 40
0.25
 50
90.0
 51
180.0
  0
ARC
  8
OBJECT
 10
3.269656
 20
17.506491
 30
0.0
 40
0.25
 50
180.0
 51
270.0
  0
ARC
  8
OBJECT
 10
9.069656
 20
17.506491
 30
0.0
 40
0.25
 50
270.0
 51
0.0
  0
ARC
  8
OBJECT
 10
9.069656
 20
20.756491
 30
0.0
 40
0.25
 50
0.0
 51
90.0
  0
CIRCLE
  8
OBJECT
 10
3.419656
 20
20.606491
 30
0.0
 40
0.115
  0
CIRCLE
  8
OBJECT
 10
3.419656
 20
20.606491
 30
0.0
 40
0.0675
  0
CIRCLE
  8
OBJECT
 10
3.419656
 20
17.656491
 30
0.0
 40
0.0675
  0
CIRCLE
  8
OBJECT
 10
3.419656
 20
17.656491
 30
0.0
 40
0.115
  0
CIRCLE
  8
OBJECT
 10
8.919656
 20
17.656491
 30
0.0
 40
0.115
  0
CIRCLE
  8
OBJECT
 10
8.919656
 20
17.656491
 30
0.0
 40
0.0675
  0
CIRCLE
  8
OBJECT
 10
8.919656
 20
20.606491
 30
0.0
 40
0.0675
  0
CIRCLE
  8
OBJECT
 10
8.919656
 20
20.606491
 30
0.0
 40
0.115
  0
CIRCLE
  8
HIDDEN
 10
3.419656
 20
17.656491
 30
0.0
 40
0.203
  0
CIRCLE
  8
HIDDEN
 10
3.419656
 20
17.656491
 30
0.0
 40
0.155
  0
CIRCLE
  8
HIDDEN
 10
3.419656
 20
20.606491
 30
0.0
 40
0.203
  0
CIRCLE
  8
HIDDEN
 10
3.419656
 20
20.606491
 30
0.0
 40
0.155
  0
CIRCLE
  8
HIDDEN
 10
8.919295
 20
17.656491
 30
0.0
 40
0.203
  0
CIRCLE
  8
HIDDEN
 10
8.919295
 20
17.656491
 30
0.0
 40
0.155
  0
CIRCLE
  8
HIDDEN
 10
8.919295
 20
20.606491
 30
0.0
 40
0.155
  0
CIRCLE
  8
HIDDEN
 10
8.919295
 20
20.606491
 30
0.0
 40
0.203
  0
LINE
  8
OBJECT
 10
8.569656
 20
20.726491
 30
0.0
 11
3.769656
 21
20.726491
 31
0.0
  0
LINE
  8
OBJECT
 10
8.569656
 20
17.536491
 30
0.0
 11
3.769656
 21
17.536491
 31
0.0
  0
LINE
  8
OBJECT
 10
3.644656
 20
17.661491
 30
0.0
 11
3.644656
 21
20.601491
 31
0.0
  0
LINE
  8
OBJECT
 10
8.694656
 20
17.661491
 30
0.0
 11
8.694656
 21
20.601491
 31
0.0
  0
ARC
  8
OBJECT
 10
3.769656
 20
20.601491
 30
0.0
 40
0.125
 50
90.0
 51
180.0
  0
ARC
  8
OBJECT
 10
3.769656
 20
17.661491
 30
0.0
 40
0.125
 50
180.0
 51
270.0
  0
ARC
  8
OBJECT
 10
8.569656
 20
20.601491
 30
0.0
 40
0.125
 50
0.0
 51
90.0
  0
ARC
  8
OBJECT
 10
8.569656
 20
17.661491
 30
0.0
 40
0.125
 50
270.0
 51
0.0
  0
ARC
  8
OBJECT
 10
3.769656
 20
17.661491
 30
0.0
 40
0.1
 50
180.0
 51
270.0
  0
LINE
  8
OBJECT
 10
3.669656
 20
17.661491
 30
0.0
 11
3.669656
 21
20.601491
 31
0.0
  0
LINE
  8
OBJECT
 10
8.569656
 20
17.561491
 30
0.0
 11
3.769656
 21
17.561491
 31
0.0
  0
ARC
  8
OBJECT
 10
3.769656
 20
20.601491
 30
0.0
 40
0.1
 50
90.0
 51
180.0
  0
LINE
  8
OBJECT
 10
8.569656
 20
20.701491
 30
0.0
 11
3.769656
 21
20.701491
 31
0.0
  0
ARC
  8
OBJECT
 10
8.569656
 20
20.601491
 30
0.0
 40
0.1
 50
0.0
 51
90.0
  0
LINE
  8
OBJECT
 10
8.669656
 20
17.661491
 30
0.0
 11
8.669656
 21
20.601491
 31
0.0
  0
ARC
  8
OBJECT
 10
8.569656
 20
17.661491
 30
0.0
 40
0.1
 50
270.0
 51
0.0
  0
ARC
  8
OBJECT
 10
13.765798
 20
25.329985
 30
0.0
 40
0.109
 50
180.0
 51
270.0
  0
ARC
  8
OBJECT
 10
14.487798
 20
25.329985
 30
0.0
 40
0.109
 50
270.0
 51
0.0
  0
LINE
  8
DIM
 10
8.919656
 20
20.731491
 30
0.0
 11
8.919656
 21
21.7895
 31
0.0
  0
LINE
  8
DIM
 10
3.419656
 20
20.731491
 30
0.0
 11
3.419656
 21
21.7895
 31
0.0
  0
LINE
  8
DIM
 10
8.559656
 20
21.6035
 30
0.0
 11
6.715072
 21
21.6035
 31
0.0
  0
LINE
  8
DIM
 10
3.779656
 20
21.6035
 30
0.0
 11
5.666228
 21
21.6035
 31
0.0
  0
SOLID
  8
DIM
 10
8.559656
 20
21.5435
 30
0.0
 11
8.559656
 21
21.6635
 31
0.0
 12
8.919656
 22
21.6035
 32
0.0
 13
8.919656
 23
21.6035
 33
0.0
  0
SOLID
  8
DIM
 10
3.779656
 20
21.5435
 30
0.0
 11
3.779656
 21
21.6635
 31
0.0
 12
3.419656
 22
21.6035
 32
0.0
 13
3.419656
 23
21.6035
 33
0.0
  0
TEXT
  8
DIM
 10
5.837285
 20
21.4785
 30
0.0
 40
0.25
  1
5.500
 41
0.75
  0
LINE
  8
DIM
 10
3.019656
 20
20.881491
 30
0.0
 11
3.019656
 21
21.7895
 31
0.0
  0
LINE
  8
DIM
 10
2.659656
 20
21.6035
 30
0.0
 11
1.828022
 21
21.6035
 31
0.0
  0
SOLID
  8
DIM
 10
2.659656
 20
21.5435
 30
0.0
 11
2.659656
 21
21.6635
 31
0.0
 12
3.019656
 22
21.6035
 32
0.0
 13
3.019656
 23
21.6035
 33
0.0
  0
TEXT
  8
DIM
 10
1.003582
 20
21.4785
 30
0.0
 40
0.25
  1
0.400
 41
0.75
  0
LINE
  8
DIM
 10
3.294656
 20
17.656491
 30
0.0
 11
1.898221
 21
17.656491
 31
0.0
  0
LINE
  8
DIM
 10
3.294656
 20
20.606491
 30
0.0
 11
1.898221
 21
20.606491
 31
0.0
  0
LINE
  8
DIM
 10
2.084221
 20
18.016491
 30
0.0
 11
2.084221
 21
18.856355
 31
0.0
  0
LINE
  8
DIM
 10
2.084221
 20
20.246491
 30
0.0
 11
2.084221
 21
19.469586
 31
0.0
  0
SOLID
  8
DIM
 10
2.144221
 20
18.016491
 30
0.0
 11
2.024221
 21
18.016491
 31
0.0
 12
2.084221
 22
17.656491
 32
0.0
 13
2.084221
 23
17.656491
 33
0.0
  0
SOLID
  8
DIM
 10
2.144221
 20
20.246491
 30
0.0
 11
2.024221
 21
20.246491
 31
0.0
 12
2.084221
 22
20.606491
 32
0.0
 13
2.084221
 23
20.606491
 33
0.0
  0
TEXT
  8
DIM
 10
1.689029
 20
19.006491
 30
0.0
 40
0.25
  1
2.950
 41
0.75
  0
LINE
  8
DIM
 10
3.144656
 20
21.006491
 30
0.0
 11
1.898221
 21
21.006491
 31
0.0
  0
LINE
  8
DIM
 10
2.084221
 20
21.366491
 30
0.0
 11
2.084221
 21
21.6035
 31
0.0
  0
SOLID
  8
DIM
 10
2.144221
 20
21.366491
 30
0.0
 11
2.024221
 21
21.366491
 31
0.0
 12
2.084221
 22
21.006491
 32
0.0
 13
2.084221
 23
21.006491
 33
0.0
  0
LINE
  8
DIM
 10
3.598156
 20
25.480985
 30
0.0
 11
1.898221
 21
25.480985
 31
0.0
  0
LINE
  8
DIM
 10
3.598156
 20
28.490985
 30
0.0
 11
1.898221
 21
28.490985
 31
0.0
  0
LINE
  8
DIM
 10
2.084221
 20
25.840985
 30
0.0
 11
2.084221
 21
26.689863
 31
0.0
  0
LINE
  8
DIM
 10
2.084221
 20
28.130985
 30
0.0
 11
2.084221
 21
27.261121
 31
0.0
  0
SOLID
  8
DIM
 10
2.144221
 20
25.840985
 30
0.0
 11
2.024221
 21
25.840985
 31
0.0
 12
2.084221
 22
25.480985
 32
0.0
 13
2.084221
 23
25.480985
 33
0.0
  0
SOLID
  8
DIM
 10
2.144221
 20
28.130985
 30
0.0
 11
2.024221
 21
28.130985
 31
0.0
 12
2.084221
 22
28.490985
 32
0.0
 13
2.084221
 23
28.490985
 33
0.0
  0
TEXT
  8
DIM
 10
1.751529
 20
26.860985
 30
0.0
 40
0.25
  1
3.010
 41
0.75
  0
LINE
  8
DIM
 10
3.598156
 20
28.490985
 30
0.0
 11
1.898221
 21
28.490985
 31
0.0
  0
LINE
  8
DIM
 10
3.144656
 20
28.860985
 30
0.0
 11
1.898221
 21
28.860985
 31
0.0
  0
LINE
  8
DIM
 10
2.084221
 20
29.220985
 30
0.0
 11
2.084221
 21
29.580985
 31
0.0
  0
LINE
  8
DIM
 10
2.084221
 20
28.130985
 30
0.0
 11
2.084221
 21
27.770985
 31
0.0
  0
LINE
  8
DIM
 10
2.084221
 20
29.580985
 30
0.0
 11
1.724221
 21
29.580985
 31
0.0
  0
SOLID
  8
DIM
 10
2.144221
 20
29.220985
 30
0.0
 11
2.024221
 21
29.220985
 31
0.0
 12
2.084221
 22
28.860985
 32
0.0
 13
2.084221
 23
28.860985
 33
0.0
  0
SOLID
  8
DIM
 10
2.144221
 20
28.130985
 30
0.0
 11
2.024221
 21
28.130985
 31
0.0
 12
2.084221
 22
28.490985
 32
0.0
 13
2.084221
 23
28.490985
 33
0.0
  0
TEXT
  8
DIM
 10
0.891313
 20
29.455985
 30
0.0
 40
0.25
  1
0.370
 41
0.75
  0
LINE
  8
DIM
 10
4.326003
 20
23.704975
 30
0.0
 11
4.326003
 21
24.064975
 31
0.0
  0
LINE
  8
DIM
 10
4.326003
 20
22.93464
 30
0.0
 11
4.326003
 21
22.57464
 31
0.0
  0
LINE
  8
DIM
 10
4.326003
 20
24.064975
 30
0.0
 11
4.686003
 21
24.064975
 31
0.0
  0
SOLID
  8
DIM
 10
4.386003
 20
23.704975
 30
0.0
 11
4.266003
 21
23.704975
 31
0.0
 12
4.326003
 22
23.344975
 32
0.0
 13
4.326003
 23
23.344975
 33
0.0
  0
SOLID
  8
DIM
 10
4.386003
 20
22.93464
 30
0.0
 11
4.266003
 21
22.93464
 31
0.0
 12
4.326003
 22
23.29464
 32
0.0
 13
4.326003
 23
23.29464
 33
0.0
  0
TEXT
  8
DIM
 10
4.790565
 20
23.939975
 30
0.0
 40
0.25
  1
0.050
 41
0.75
  0
LINE
  8
DIM
 10
3.019656
 20
28.735985
 30
0.0
 11
3.019656
 21
29.883288
 31
0.0
  0
LINE
  8
DIM
 10
9.319656
 20
28.735985
 30
0.0
 11
9.319656
 21
29.883288
 31
0.0
  0
LINE
  8
DIM
 10
3.379656
 20
29.697288
 30
0.0
 11
5.624241
 21
29.697288
 31
0.0
  0
LINE
  8
DIM
 10
8.959656
 20
29.697288
 30
0.0
 11
6.736066
 21
29.697288
 31
0.0
  0
SOLID
  8
DIM
 10
3.379656
 20
29.637288
 30
0.0
 11
3.379656
 21
29.757288
 31
0.0
 12
3.019656
 22
29.697288
 32
0.0
 13
3.019656
 23
29.697288
 33
0.0
  0
SOLID
  8
DIM
 10
8.959656
 20
29.637288
 30
0.0
 11
8.959656
 21
29.757288
 31
0.0
 12
9.319656
 22
29.697288
 32
0.0
 13
9.319656
 23
29.697288
 33
0.0
  0
TEXT
  8
DIM
 10
5.795298
 20
29.572288
 30
0.0
 40
0.25
  1
6.300
 41
0.75
  0
LINE
  8
DIM
 10
15.066798
 20
26.76219
 30
0.0
 11
15.426798
 21
26.76219
 31
0.0
  0
LINE
  8
DIM
 10
14.236798
 20
26.76219
 30
0.0
 11
13.876798
 21
26.76219
 31
0.0
  0
SOLID
  8
DIM
 10
15.066798
 20
26.70219
 30
0.0
 11
15.066798
 21
26.82219
 31
0.0
 12
14.706798
 22
26.76219
 32
0.0
 13
14.706798
 23
26.76219
 33
0.0
  0
SOLID
  8
DIM
 10
14.236798
 20
26.70219
 30
0.0
 11
14.236798
 21
26.82219
 31
0.0
 12
14.596798
 22
26.76219
 32
0.0
 13
14.596798
 23
26.76219
 33
0.0
  0
TEXT
  8
DIM
 10
16.098434
 20
26.616203
 30
0.0
 40
0.25
  1
 TYP.
 41
0.75
  0
TEXT
  8
DIM
 10
14.32863
 20
26.004199
 30
0.0
 40
0.25
  1

  0
TEXT
  8
DIM
 10
15.538339
 20
26.63719
 30
0.0
 40
0.25
  1
0.110
 41
0.75
  0
LINE
  8
DIM
 10
9.044295
 20
25.665985
 30
0.0
 11
10.311927
 21
25.665985
 31
0.0
  0
LINE
  8
DIM
 10
9.044295
 20
28.305985
 30
0.0
 11
10.311927
 21
28.305985
 31
0.0
  0
LINE
  8
DIM
 10
10.125927
 20
26.025985
 30
0.0
 11
10.125927
 21
26.731835
 31
0.0
  0
LINE
  8
DIM
 10
10.125927
 20
27.945985
 30
0.0
 11
10.125927
 21
27.261121
 31
0.0
  0
SOLID
  8
DIM
 10
10.185927
 20
26.025985
 30
0.0
 11
10.065927
 21
26.025985
 31
0.0
 12
10.125927
 22
25.665985
 32
0.0
 13
10.125927
 23
25.665985
 33
0.0
  0
SOLID
  8
DIM
 10
10.185927
 20
27.945985
 30
0.0
 11
10.065927
 21
27.945985
 31
0.0
 12
10.125927
 22
28.305985
 32
0.0
 13
10.125927
 23
28.305985
 33
0.0
  0
TEXT
  8
DIM
 10
9.730735
 20
26.860985
 30
0.0
 40
0.25
  1
2.640
 41
0.75
  0
LINE
  8
DIM
 10
3.579656
 20
28.585985
 30
0.0
 11
3.574656
 21
29.434191
 31
0.0
  0
LINE
  8
DIM
 10
8.764295
 20
28.585985
 30
0.0
 11
8.764295
 21
29.434191
 31
0.0
  0
LINE
  8
DIM
 10
3.934656
 20
29.248191
 30
0.0
 11
5.644893
 21
29.248191
 31
0.0
  0
LINE
  8
DIM
 10
8.404295
 20
29.248191
 30
0.0
 11
6.715051
 21
29.248191
 31
0.0
  0
SOLID
  8
DIM
 10
3.934656
 20
29.188191
 30
0.0
 11
3.934656
 21
29.308191
 31
0.0
 12
3.574656
 22
29.248191
 32
0.0
 13
3.574656
 23
29.248191
 33
0.0
  0
SOLID
  8
DIM
 10
8.404295
 20
29.188191
 30
0.0
 11
8.404295
 21
29.308191
 31
0.0
 12
8.764295
 22
29.248191
 32
0.0
 13
8.764295
 23
29.248191
 33
0.0
  0
TEXT
  8
DIM
 10
5.81595
 20
29.123191
 30
0.0
 40
0.25
  1
5.190
 41
0.75
  0
LINE
  8
DIM
 10
13.671798
 20
25.110985
 30
0.0
 11
12.367559
 21
25.110985
 31
0.0
  0
LINE
  8
DIM
 10
13.671798
 20
28.860985
 30
0.0
 11
12.367559
 21
28.860985
 31
0.0
  0
LINE
  8
DIM
 10
12.553559
 20
25.470985
 30
0.0
 11
12.553559
 21
26.689863
 31
0.0
  0
LINE
  8
DIM
 10
12.553559
 20
28.500985
 30
0.0
 11
12.553559
 21
27.261121
 31
0.0
  0
SOLID
  8
DIM
 10
12.613559
 20
25.470985
 30
0.0
 11
12.493559
 21
25.470985
 31
0.0
 12
12.553559
 22
25.110985
 32
0.0
 13
12.553559
 23
25.110985
 33
0.0
  0
SOLID
  8
DIM
 10
12.613559
 20
28.500985
 30
0.0
 11
12.493559
 21
28.500985
 31
0.0
 12
12.553559
 22
28.860985
 32
0.0
 13
12.553559
 23
28.860985
 33
0.0
  0
TEXT
  8
DIM
 10
12.137373
 20
26.860985
 30
0.0
 40
0.25
  1
3.750
 41
0.75
  0
LINE
  8
DIM
 10
3.489656
 20
26.148916
 30
0.0
 11
5.622401
 21
26.148916
 31
0.0
  0
LINE
  8
DIM
 10
8.849656
 20
26.148916
 30
0.0
 11
6.628937
 21
26.148916
 31
0.0
  0
SOLID
  8
DIM
 10
3.489656
 20
26.088916
 30
0.0
 11
3.489656
 21
26.208916
 31
0.0
 12
3.129656
 22
26.148916
 32
0.0
 13
3.129656
 23
26.148916
 33
0.0
  0
SOLID
  8
DIM
 10
8.849656
 20
26.088916
 30
0.0
 11
8.849656
 21
26.208916
 31
0.0
 12
9.209656
 22
26.148916
 32
0.0
 13
9.209656
 23
26.148916
 33
0.0
  0
TEXT
  8
DIM
 10
5.772464
 20
26.023916
 30
0.0
 40
0.25
  1
6.080
 41
0.75
  0
LINE
  8
DIM
 10
4.656996
 20
25.580985
 30
0.0
 11
4.656996
 21
26.710849
 31
0.0
  0
LINE
  8
DIM
 10
4.656996
 20
28.390985
 30
0.0
 11
4.656996
 21
27.261121
 31
0.0
  0
SOLID
  8
DIM
 10
4.716996
 20
25.580985
 30
0.0
 11
4.596996
 21
25.580985
 31
0.0
 12
4.656996
 22
25.220985
 32
0.0
 13
4.656996
 23
25.220985
 33
0.0
  0
SOLID
  8
DIM
 10
4.716996
 20
28.390985
 30
0.0
 11
4.596996
 21
28.390985
 31
0.0
 12
4.658996
 22
28.750985
 32
0.0
 13
4.658996
 23
28.750985
 33
0.0
  0
TEXT
  8
DIM
 10
4.266804
 20
26.860985
 30
0.0
 40
0.25
  1
3.530
 41
0.75
  0
LINE
  8
DIM
 10
9.194656
 20
21.006491
 30
0.0
 11
10.384549
 21
21.006491
 31
0.0
  0
LINE
  8
DIM
 10
10.198549
 20
21.366491
 30
0.0
 11
10.198549
 21
21.726491
 31
0.0
  0
LINE
  8
DIM
 10
10.198549
 20
21.726491
 30
0.0
 11
10.558549
 21
21.726491
 31
0.0
  0
SOLID
  8
DIM
 10
10.258549
 20
21.366491
 30
0.0
 11
10.138549
 21
21.366491
 31
0.0
 12
10.198549
 22
21.006491
 32
0.0
 13
10.198549
 23
21.006491
 33
0.0
  0
TEXT
  8
DIM
 10
10.695672
 20
21.601491
 30
0.0
 40
0.25
  1
0.280
 41
0.75
  0
LINE
  8
DIM
 10
8.694656
 20
17.536491
 30
0.0
 11
8.694656
 21
16.642704
 31
0.0
  0
LINE
  8
DIM
 10
3.644656
 20
17.536491
 30
0.0
 11
3.644656
 21
16.642704
 31
0.0
  0
LINE
  8
DIM
 10
8.334656
 20
16.828704
 30
0.0
 11
6.715072
 21
16.828704
 31
0.0
  0
LINE
  8
DIM
 10
4.004656
 20
16.828704
 30
0.0
 11
5.666228
 21
16.828704
 31
0.0
  0
SOLID
  8
DIM
 10
8.334656
 20
16.768704
 30
0.0
 11
8.334656
 21
16.888704
 31
0.0
 12
8.694656
 22
16.828704
 32
0.0
 13
8.694656
 23
16.828704
 33
0.0
  0
SOLID
  8
DIM
 10
4.004656
 20
16.768704
 30
0.0
 11
4.004656
 21
16.888704
 31
0.0
 12
3.644656
 22
16.828704
 32
0.0
 13
3.644656
 23
16.828704
 33
0.0
  0
TEXT
  8
DIM
 10
5.837285
 20
16.703704
 30
0.0
 40
0.25
  1
5.050
 41
0.75
  0
LINE
  8
DIM
 10
3.019656
 20
17.381491
 30
0.0
 11
3.019656
 21
16.642704
 31
0.0
  0
LINE
  8
DIM
 10
2.659656
 20
16.828704
 30
0.0
 11
2.299656
 21
16.828704
 31
0.0
  0
SOLID
  8
DIM
 10
2.659656
 20
16.768704
 30
0.0
 11
2.659656
 21
16.888704
 31
0.0
 12
3.019656
 22
16.828704
 32
0.0
 13
3.019656
 23
16.828704
 33
0.0
  0
TEXT
  8
DIM
 10
1.395334
 20
16.703704
 30
0.0
 40
0.25
  1
0.625
 41
0.75
  0
LINE
  8
DIM
 10
8.694656
 20
20.726491
 30
0.0
 11
10.384549
 21
20.726491
 31
0.0
  0
LINE
  8
DIM
 10
8.694656
 20
17.536491
 30
0.0
 11
10.384549
 21
17.536491
 31
0.0
  0
LINE
  8
DIM
 10
10.198549
 20
20.366491
 30
0.0
 11
10.198549
 21
19.469586
 31
0.0
  0
LINE
  8
DIM
 10
10.198549
 20
17.896491
 30
0.0
 11
10.198549
 21
18.856355
 31
0.0
  0
SOLID
  8
DIM
 10
10.258549
 20
20.366491
 30
0.0
 11
10.138549
 21
20.366491
 31
0.0
 12
10.198549
 22
20.726491
 32
0.0
 13
10.198549
 23
20.726491
 33
0.0
  0
SOLID
  8
DIM
 10
10.258549
 20
17.896491
 30
0.0
 11
10.138549
 21
17.896491
 31
0.0
 12
10.198549
 22
17.536491
 32
0.0
 13
10.198549
 23
17.536491
 33
0.0
  0
TEXT
  8
DIM
 10
9.845024
 20
19.006491
 30
0.0
 40
0.25
  1
3.190
 41
0.75
  0
LINE
  8
DIM
 10
14.206798
 20
24.985985
 30
0.0
 11
14.206798
 21
24.276972
 31
0.0
  0
LINE
  8
DIM
 10
15.066798
 20
24.462972
 30
0.0
 11
15.426798
 21
24.462972
 31
0.0
  0
LINE
  8
DIM
 10
13.846798
 20
24.462972
 30
0.0
 11
13.486798
 21
24.462972
 31
0.0
  0
SOLID
  8
DIM
 10
15.066798
 20
24.402972
 30
0.0
 11
15.066798
 21
24.522972
 31
0.0
 12
14.706798
 22
24.462972
 32
0.0
 13
14.706798
 23
24.462972
 33
0.0
  0
SOLID
  8
DIM
 10
13.846798
 20
24.402972
 30
0.0
 11
13.846798
 21
24.522972
 31
0.0
 12
14.206798
 22
24.462972
 32
0.0
 13
14.206798
 23
24.462972
 33
0.0
  0
TEXT
  8
DIM
 10
15.551916
 20
24.337972
 30
0.0
 40
0.25
  1
0.500
 41
0.75
  0
LINE
  8
DIM
 10
14.706798
 20
25.235985
 30
0.0
 11
14.706798
 21
23.632927
 31
0.0
  0
LINE
  8
DIM
 10
13.546798
 20
25.235985
 30
0.0
 11
13.546798
 21
24.545867
 31
0.0
  0
LINE
  8
DIM
 10
13.186798
 20
23.818927
 30
0.0
 11
12.826798
 21
23.818927
 31
0.0
  0
LINE
  8
DIM
 10
15.066798
 20
23.818927
 30
0.0
 11
15.426798
 21
23.818927
 31
0.0
  0
SOLID
  8
DIM
 10
13.186798
 20
23.758927
 30
0.0
 11
13.186798
 21
23.878927
 31
0.0
 12
13.546798
 22
23.818927
 32
0.0
 13
13.546798
 23
23.818927
 33
0.0
  0
SOLID
  8
DIM
 10
15.066798
 20
23.758927
 30
0.0
 11
15.066798
 21
23.878927
 31
0.0
 12
14.706798
 22
23.818927
 32
0.0
 13
14.706798
 23
23.818927
 33
0.0
  0
TEXT
  8
DIM
 10
13.824951
 20
23.693927
 30
0.0
 40
0.25
  1
1.160
 41
0.75
  0
LINE
  8
DIM
 10
13.546798
 20
24.366261
 30
0.0
 11
13.546798
 21
23.632927
 31
0.0
  0
SOLID
  8
DIM
 10
8.416906
 20
27.971568
 30
0.0
 11
8.340084
 21
28.063755
 31
0.0
 12
8.101935
 22
27.787195
 32
0.0
 13
8.101935
 23
27.787195
 33
0.0
  0
LINE
  8
DIM
 10
8.378495
 20
28.017661
 30
0.0
 11
10.325017
 21
29.638096
 31
0.0
  0
LINE
  8
DIM
 10
10.325017
 20
29.638096
 30
0.0
 11
10.685017
 21
29.638096
 31
0.0
  0
TEXT
  8
DIM
 10
10.899362
 20
29.514576
 30
0.0
 40
0.25
  1
2.900 x 5.025
 41
0.75
  0
TEXT
  8
DIM
 10
10.899362
 20
29.097909
 30
0.0
 40
0.25
  1
INSERT AREA
 41
0.75
  0
TEXT
  8
TEXT
 10
12.123429
 20
22.679518
 30
0.0
 40
0.25
  1
%%UMATERIAL:%%u HIGH-IMPACT POLYSTYRENE
 41
0.75
  0
TEXT
  8
TEXT
 10
12.123429
 20
22.262851
 30
0.0
 40
0.25
  1
%%UCOLOR:%%U PC BONE GRAY
 41
0.75
  0
TEXT
  8
TEXT
 10
12.123429
 20
21.846184
 30
0.0
 40
0.25
  1
%%UFINISH:%%U TEXTURED BODY WITH
 41
0.75
  0
TEXT
  8
TEXT
 10
13.840632
 20
21.429518
 30
0.0
 40
0.25
  1
SMOOTH TOP INSERT
 41
0.75
  0
TEXT
  8
TEXT
 10
12.123429
 20
20.655813
 30
0.0
 40
0.25
  1
FOUR (4) #4 x 0.625" LG. SCREWS
 41
0.75
  0
TEXT
  8
TEXT
 10
12.378459
 20
20.239147
 30
0.0
 40
0.25
  1
SUPPLIED FOR ASSEMBLING TOP.
 41
0.75
  0
TEXT
  8
TEXT
 10
12.123429
 20
19.380433
 30
0.0
 40
0.25
  1
FOUR (4) NON-SKID FEET SUPPLIED.
 41
0.75
  0
TEXT
  8
TEXT
 10
12.123429
 20
18.627822
 30
0.0
 40
0.25
  1
USABLE BOARD AREA
 41
0.75
  0
TEXT
  8
TEXT
 10
12.395461
 20
18.211156
 30
0.0
 40
0.25
  1
IS 3.500 x 6.060.
 41
0.75
  0
TEXT
  8
TEXT
 10
3.247
 20
30.271
 30
0.0
 40
0.375
  1
PLASTIBOX  (STYLE C)
 41
0.75
 72
     1
 11
5.872
 21
30.271
 31
0.0
  0
TEXT
  8
TEXT
 10
14.945625
 20
30.271
 30
0.0
 40
0.375
  1
PS-11272
 41
0.75
 72
     1
 11
15.93
 21
30.271
 31
0.0
  0
TEXT
  8
TEXT
 10
12.395733
 20
2.567522
 30
0.0
 40
0.25
  1
IS 3.500 x 3.900.
 41
0.75
  0
TEXT
  8
TEXT
 10
12.1237
 20
2.984189
 30
0.0
 40
0.25
  1
USABLE BOARD AREA
 41
0.75
  0
TEXT
  8
TEXT
 10
12.1237
 20
3.7368
 30
0.0
 40
0.25
  1
FOUR (4) NON-SKID FEET SUPPLIED.
 41
0.75
  0
TEXT
  8
TEXT
 10
12.378731
 20
4.595513
 30
0.0
 40
0.25
  1
SUPPLIED FOR ASSEMBLING TOP.
 41
0.75
  0
TEXT
  8
TEXT
 10
12.1237
 20
5.01218
 30
0.0
 40
0.25
  1
FOUR (4) #4 x 0.625" LG. SCREWS
 41
0.75
  0
TEXT
  8
TEXT
 10
13.840903
 20
6.509624
 30
0.0
 40
0.25
  1
SMOOTH TOP INSERT
 41
0.75
  0
TEXT
  8
TEXT
 10
12.1237
 20
6.92629
 30
0.0
 40
0.25
  1
%%UFINISH:%%U TEXTURED BODY WITH
 41
0.75
  0
TEXT
  8
TEXT
 10
12.1237
 20
7.342957
 30
0.0
 40
0.25
  1
%%UCOLOR:%%U PC BONE GRAY
 41
0.75
  0
TEXT
  8
TEXT
 10
12.1237
 20
7.759624
 30
0.0
 40
0.25
  1
%%UMATERIAL:%%u HIGH-IMPACT POLYSTYRENE
 41
0.75
  0
TEXT
  8
DIM
 10
10.863668
 20
14.034325
 30
0.0
 40
0.25
  1
INSERT AREA
 41
0.75
  0
TEXT
  8
DIM
 10
10.863668
 20
14.450992
 30
0.0
 40
0.25
  1
2.900 x 5.025
 41
0.75
  0
LINE
  8
DIM
 10
10.330047
 20
14.574512
 30
0.0
 11
10.690047
 21
14.574512
 31
0.0
  0
LINE
  8
DIM
 10
8.380495
 20
12.949885
 30
0.0
 11
10.330047
 21
14.574512
 31
0.0
  0
SOLID
  8
DIM
 10
8.418906
 20
12.903792
 30
0.0
 11
8.342084
 21
12.995978
 31
0.0
 12
8.103935
 22
12.719419
 32
0.0
 13
8.103935
 23
12.719419
 33
0.0
  0
TEXT
  8
DIM
 10
9.910952
 20
2.994645
 30
0.0
 40
0.25
  1
3.190
 41
0.75
  0
SOLID
  8
DIM
 10
10.258549
 20
1.884645
 30
0.0
 11
10.138549
 21
1.884645
 31
0.0
 12
10.198549
 22
1.524645
 32
0.0
 13
10.198549
 23
1.524645
 33
0.0
  0
SOLID
  8
DIM
 10
10.258549
 20
4.354645
 30
0.0
 11
10.138549
 21
4.354645
 31
0.0
 12
10.198549
 22
4.714645
 32
0.0
 13
10.198549
 23
4.714645
 33
0.0
  0
LINE
  8
DIM
 10
10.198549
 20
1.884645
 30
0.0
 11
10.198549
 21
2.848719
 31
0.0
  0
LINE
  8
DIM
 10
10.198549
 20
4.354645
 30
0.0
 11
10.198549
 21
3.411979
 31
0.0
  0
LINE
  8
DIM
 10
8.694656
 20
1.524645
 30
0.0
 11
10.384549
 21
1.524645
 31
0.0
  0
LINE
  8
DIM
 10
8.694656
 20
4.714645
 30
0.0
 11
10.384549
 21
4.714645
 31
0.0
  0
TEXT
  8
DIM
 10
1.377288
 20
0.691858
 30
0.0
 40
0.25
  1
0.625
 41
0.75
  0
SOLID
  8
DIM
 10
2.659656
 20
0.756858
 30
0.0
 11
2.659656
 21
0.876858
 31
0.0
 12
3.019656
 22
0.816858
 32
0.0
 13
3.019656
 23
0.816858
 33
0.0
  0
LINE
  8
DIM
 10
2.659656
 20
0.816858
 30
0.0
 11
2.299656
 21
0.816858
 31
0.0
  0
LINE
  8
DIM
 10
3.019656
 20
1.369645
 30
0.0
 11
3.019656
 21
0.630858
 31
0.0
  0
TEXT
  8
DIM
 10
5.861226
 20
0.691858
 30
0.0
 40
0.25
  1
5.050
 41
0.75
  0
SOLID
  8
DIM
 10
4.004656
 20
0.756858
 30
0.0
 11
4.004656
 21
0.876858
 31
0.0
 12
3.644656
 22
0.816858
 32
0.0
 13
3.644656
 23
0.816858
 33
0.0
  0
SOLID
  8
DIM
 10
8.334656
 20
0.756858
 30
0.0
 11
8.334656
 21
0.876858
 31
0.0
 12
8.694656
 22
0.816858
 32
0.0
 13
8.694656
 23
0.816858
 33
0.0
  0
LINE
  8
DIM
 10
4.004656
 20
0.816858
 30
0.0
 11
5.693959
 21
0.816858
 31
0.0
  0
LINE
  8
DIM
 10
8.334656
 20
0.816858
 30
0.0
 11
6.709598
 21
0.816858
 31
0.0
  0
LINE
  8
DIM
 10
3.644656
 20
1.524645
 30
0.0
 11
3.644656
 21
0.630858
 31
0.0
  0
LINE
  8
DIM
 10
8.694656
 20
1.524645
 30
0.0
 11
8.694656
 21
0.630858
 31
0.0
  0
TEXT
  8
DIM
 10
10.695672
 20
5.589645
 30
0.0
 40
0.25
  1
0.280
 41
0.75
  0
SOLID
  8
DIM
 10
10.258549
 20
5.354645
 30
0.0
 11
10.138549
 21
5.354645
 31
0.0
 12
10.198549
 22
4.994645
 32
0.0
 13
10.198549
 23
4.994645
 33
0.0
  0
LINE
  8
DIM
 10
10.198549
 20
5.714645
 30
0.0
 11
10.558549
 21
5.714645
 31
0.0
  0
LINE
  8
DIM
 10
10.198549
 20
5.354645
 30
0.0
 11
10.198549
 21
5.714645
 31
0.0
  0
LINE
  8
DIM
 10
9.194656
 20
4.994645
 30
0.0
 11
10.384549
 21
4.994645
 31
0.0
  0
TEXT
  8
DIM
 10
4.137
 20
11.793209
 30
0.0
 40
0.25
  1
 3.530
 41
0.75
  0
SOLID
  8
DIM
 10
4.718996
 20
13.323209
 30
0.0
 11
4.598996
 21
13.323209
 31
0.0
 12
4.658996
 22
13.683209
 32
0.0
 13
4.658996
 23
13.683209
 33
0.0
  0
SOLID
  8
DIM
 10
4.718996
 20
10.513209
 30
0.0
 11
4.598996
 21
10.513209
 31
0.0
 12
4.658996
 22
10.153209
 32
0.0
 13
4.658996
 23
10.153209
 33
0.0
  0
LINE
  8
DIM
 10
4.658996
 20
13.323209
 30
0.0
 11
4.658996
 21
12.189135
 31
0.0
  0
LINE
  8
DIM
 10
4.658996
 20
10.513209
 30
0.0
 11
4.658996
 21
11.625875
 31
0.0
  0
TEXT
  8
DIM
 10
5.797564
 20
10.95614
 30
0.0
 40
0.25
  1
6.080
 41
0.75
  0
SOLID
  8
DIM
 10
8.849656
 20
11.02114
 30
0.0
 11
8.849656
 21
11.14114
 31
0.0
 12
9.209656
 22
11.08114
 32
0.0
 13
9.209656
 23
11.08114
 33
0.0
  0
SOLID
  8
DIM
 10
3.489656
 20
11.02114
 30
0.0
 11
3.489656
 21
11.14114
 31
0.0
 12
3.129656
 22
11.08114
 32
0.0
 13
3.129656
 23
11.08114
 33
0.0
  0
LINE
  8
DIM
 10
8.849656
 20
11.08114
 30
0.0
 11
6.601943
 21
11.08114
 31
0.0
  0
LINE
  8
DIM
 10
3.489656
 20
11.08114
 30
0.0
 11
5.587467
 21
11.08114
 31
0.0
  0
TEXT
  8
DIM
 10
12.202881
 20
11.793209
 30
0.0
 40
0.25
  1
3.750
 41
0.75
  0
SOLID
  8
DIM
 10
12.613559
 20
13.433209
 30
0.0
 11
12.493559
 21
13.433209
 31
0.0
 12
12.553559
 22
13.793209
 32
0.0
 13
12.553559
 23
13.793209
 33
0.0
  0
SOLID
  8
DIM
 10
12.613559
 20
10.403209
 30
0.0
 11
12.493559
 21
10.403209
 31
0.0
 12
12.553559
 22
10.043209
 32
0.0
 13
12.553559
 23
10.043209
 33
0.0
  0
LINE
  8
DIM
 10
12.553559
 20
13.433209
 30
0.0
 11
12.553559
 21
12.124913
 31
0.0
  0
LINE
  8
DIM
 10
12.553559
 20
10.403209
 30
0.0
 11
12.553559
 21
11.625875
 31
0.0
  0
LINE
  8
DIM
 10
13.671798
 20
13.793209
 30
0.0
 11
12.367559
 21
13.793209
 31
0.0
  0
LINE
  8
DIM
 10
13.671798
 20
10.043209
 30
0.0
 11
12.367559
 21
10.043209
 31
0.0
  0
TEXT
  8
DIM
 10
5.839049
 20
14.055415
 30
0.0
 40
0.25
  1
5.190
 41
0.75
  0
SOLID
  8
DIM
 10
8.404295
 20
14.120415
 30
0.0
 11
8.404295
 21
14.240415
 31
0.0
 12
8.764295
 22
14.180415
 32
0.0
 13
8.764295
 23
14.180415
 33
0.0
  0
SOLID
  8
DIM
 10
3.934656
 20
14.120415
 30
0.0
 11
3.934656
 21
14.240415
 31
0.0
 12
3.574656
 22
14.180415
 32
0.0
 13
3.574656
 23
14.180415
 33
0.0
  0
LINE
  8
DIM
 10
8.404295
 20
14.180415
 30
0.0
 11
6.602925
 21
14.180415
 31
0.0
  0
LINE
  8
DIM
 10
3.934656
 20
14.180415
 30
0.0
 11
5.693197
 21
14.180415
 31
0.0
  0
LINE
  8
DIM
 10
8.764295
 20
13.518209
 30
0.0
 11
8.764295
 21
14.366415
 31
0.0
  0
LINE
  8
DIM
 10
3.574656
 20
13.518209
 30
0.0
 11
3.574656
 21
14.366415
 31
0.0
  0
TEXT
  8
DIM
 10
9.753834
 20
11.793209
 30
0.0
 40
0.25
  1
2.640
 41
0.75
  0
SOLID
  8
DIM
 10
10.185927
 20
12.878209
 30
0.0
 11
10.065927
 21
12.878209
 31
0.0
 12
10.125927
 22
13.238209
 32
0.0
 13
10.125927
 23
13.238209
 33
0.0
  0
SOLID
  8
DIM
 10
10.185927
 20
10.958209
 30
0.0
 11
10.065927
 21
10.958209
 31
0.0
 12
10.125927
 22
10.598209
 32
0.0
 13
10.125927
 23
10.598209
 33
0.0
  0
LINE
  8
DIM
 10
10.125927
 20
12.878209
 30
0.0
 11
10.125927
 21
12.124913
 31
0.0
  0
LINE
  8
DIM
 10
10.125927
 20
10.958209
 30
0.0
 11
10.125927
 21
11.625875
 31
0.0
  0
LINE
  8
DIM
 10
9.044295
 20
13.238209
 30
0.0
 11
10.311927
 21
13.238209
 31
0.0
  0
LINE
  8
DIM
 10
9.044295
 20
10.598209
 30
0.0
 11
10.311927
 21
10.598209
 31
0.0
  0
TEXT
  8
DIM
 10
15.810596
 20
11.972706
 30
0.0
 40
0.25
  1
0.110
 41
0.75
  0
TEXT
  8
DIM
 10
16.364375
 20
11.972706
 30
0.0
 40
0.25
  1
 TYP.
 41
0.75
  0
SOLID
  8
DIM
 10
14.486798
 20
12.037706
 30
0.0
 11
14.486798
 21
12.157706
 31
0.0
 12
14.846798
 22
12.097706
 32
0.0
 13
14.846798
 23
12.097706
 33
0.0
  0
SOLID
  8
DIM
 10
15.316798
 20
12.037706
 30
0.0
 11
15.316798
 21
12.157706
 31
0.0
 12
14.956798
 22
12.097706
 32
0.0
 13
14.956798
 23
12.097706
 33
0.0
  0
LINE
  8
DIM
 10
14.486798
 20
12.097706
 30
0.0
 11
14.126798
 21
12.097706
 31
0.0
  0
LINE
  8
DIM
 10
15.316798
 20
12.097706
 30
0.0
 11
15.676798
 21
12.097706
 31
0.0
  0
TEXT
  8
DIM
 10
5.818397
 20
14.483595
 30
0.0
 40
0.25
  1
6.300
 41
0.75
  0
SOLID
  8
DIM
 10
8.959656
 20
14.548595
 30
0.0
 11
8.959656
 21
14.668595
 31
0.0
 12
9.319656
 22
14.608595
 32
0.0
 13
9.319656
 23
14.608595
 33
0.0
  0
SOLID
  8
DIM
 10
3.379656
 20
14.548595
 30
0.0
 11
3.379656
 21
14.668595
 31
0.0
 12
3.019656
 22
14.608595
 32
0.0
 13
3.019656
 23
14.608595
 33
0.0
  0
LINE
  8
DIM
 10
8.959656
 20
14.608595
 30
0.0
 11
6.623939
 21
14.608595
 31
0.0
  0
LINE
  8
DIM
 10
3.379656
 20
14.608595
 30
0.0
 11
5.672544
 21
14.608595
 31
0.0
  0
LINE
  8
DIM
 10
9.319656
 20
13.668209
 30
0.0
 11
9.319656
 21
14.794595
 31
0.0
  0
LINE
  8
DIM
 10
3.019656
 20
13.668209
 30
0.0
 11
3.019656
 21
14.794595
 31
0.0
  0
TEXT
  8
DIM
 10
7.077553
 20
8.710758
 30
0.0
 40
0.25
  1
0.050
 41
0.75
  0
SOLID
  8
DIM
 10
6.672992
 20
7.705423
 30
0.0
 11
6.552992
 21
7.705423
 31
0.0
 12
6.612992
 22
8.065423
 32
0.0
 13
6.612992
 23
8.065423
 33
0.0
  0
SOLID
  8
DIM
 10
6.672992
 20
8.475758
 30
0.0
 11
6.552992
 21
8.475758
 31
0.0
 12
6.612992
 22
8.115758
 32
0.0
 13
6.612992
 23
8.115758
 33
0.0
  0
LINE
  8
DIM
 10
6.612992
 20
8.835758
 30
0.0
 11
6.972992
 21
8.835758
 31
0.0
  0
LINE
  8
DIM
 10
6.612992
 20
7.705423
 30
0.0
 11
6.612992
 21
7.345423
 31
0.0
  0
LINE
  8
DIM
 10
6.612992
 20
8.475758
 30
0.0
 11
6.612992
 21
8.835758
 31
0.0
  0
TEXT
  8
DIM
 10
0.87453
 20
14.388209
 30
0.0
 40
0.25
  1
0.370
 41
0.75
  0
SOLID
  8
DIM
 10
2.144221
 20
13.063209
 30
0.0
 11
2.024221
 21
13.063209
 31
0.0
 12
2.084221
 22
13.423209
 32
0.0
 13
2.084221
 23
13.423209
 33
0.0
  0
SOLID
  8
DIM
 10
2.144221
 20
14.153209
 30
0.0
 11
2.024221
 21
14.153209
 31
0.0
 12
2.084221
 22
13.793209
 32
0.0
 13
2.084221
 23
13.793209
 33
0.0
  0
LINE
  8
DIM
 10
2.084221
 20
14.513209
 30
0.0
 11
1.724221
 21
14.513209
 31
0.0
  0
LINE
  8
DIM
 10
2.084221
 20
13.063209
 30
0.0
 11
2.084221
 21
12.703209
 31
0.0
  0
LINE
  8
DIM
 10
2.084221
 20
14.153209
 30
0.0
 11
2.084221
 21
14.513209
 31
0.0
  0
LINE
  8
DIM
 10
3.144656
 20
13.793209
 30
0.0
 11
1.898221
 21
13.793209
 31
0.0
  0
LINE
  8
DIM
 10
3.598156
 20
13.423209
 30
0.0
 11
1.898221
 21
13.423209
 31
0.0
  0
TEXT
  8
DIM
 10
1.774628
 20
11.793209
 30
0.0
 40
0.25
  1
3.010
 41
0.75
  0
SOLID
  8
DIM
 10
2.144221
 20
13.063209
 30
0.0
 11
2.024221
 21
13.063209
 31
0.0
 12
2.084221
 22
13.423209
 32
0.0
 13
2.084221
 23
13.423209
 33
0.0
  0
SOLID
  8
DIM
 10
2.144221
 20
10.773209
 30
0.0
 11
2.024221
 21
10.773209
 31
0.0
 12
2.084221
 22
10.413209
 32
0.0
 13
2.084221
 23
10.413209
 33
0.0
  0
LINE
  8
DIM
 10
2.084221
 20
13.063209
 30
0.0
 11
2.084221
 21
12.167728
 31
0.0
  0
LINE
  8
DIM
 10
2.084221
 20
10.773209
 30
0.0
 11
2.084221
 21
11.604467
 31
0.0
  0
LINE
  8
DIM
 10
3.598156
 20
13.423209
 30
0.0
 11
1.898221
 21
13.423209
 31
0.0
  0
LINE
  8
DIM
 10
3.598156
 20
10.413209
 30
0.0
 11
1.898221
 21
10.413209
 31
0.0
  0
SOLID
  8
DIM
 10
2.144221
 20
5.354645
 30
0.0
 11
2.024221
 21
5.354645
 31
0.0
 12
2.084221
 22
4.994645
 32
0.0
 13
2.084221
 23
4.994645
 33
0.0
  0
LINE
  8
DIM
 10
2.084221
 20
5.354645
 30
0.0
 11
2.084221
 21
5.591654
 31
0.0
  0
LINE
  8
DIM
 10
3.144656
 20
4.994645
 30
0.0
 11
1.898221
 21
4.994645
 31
0.0
  0
TEXT
  8
DIM
 10
1.754958
 20
2.994645
 30
0.0
 40
0.25
  1
2.950
 41
0.75
  0
SOLID
  8
DIM
 10
2.144221
 20
4.234645
 30
0.0
 11
2.024221
 21
4.234645
 31
0.0
 12
2.084221
 22
4.594645
 32
0.0
 13
2.084221
 23
4.594645
 33
0.0
  0
SOLID
  8
DIM
 10
2.144221
 20
2.004645
 30
0.0
 11
2.024221
 21
2.004645
 31
0.0
 12
2.084221
 22
1.644645
 32
0.0
 13
2.084221
 23
1.644645
 33
0.0
  0
LINE
  8
DIM
 10
2.084221
 20
4.234645
 30
0.0
 11
2.084221
 21
3.411979
 31
0.0
  0
LINE
  8
DIM
 10
2.084221
 20
2.004645
 30
0.0
 11
2.084221
 21
2.870126
 31
0.0
  0
LINE
  8
DIM
 10
3.294656
 20
4.594645
 30
0.0
 11
1.898221
 21
4.594645
 31
0.0
  0
LINE
  8
DIM
 10
3.294656
 20
1.644645
 30
0.0
 11
1.898221
 21
1.644645
 31
0.0
  0
TEXT
  8
DIM
 10
1.00653
 20
5.466654
 30
0.0
 40
0.25
  1
0.400
 41
0.75
  0
SOLID
  8
DIM
 10
2.659656
 20
5.531654
 30
0.0
 11
2.659656
 21
5.651654
 31
0.0
 12
3.019656
 22
5.591654
 32
0.0
 13
3.019656
 23
5.591654
 33
0.0
  0
LINE
  8
DIM
 10
2.659656
 20
5.591654
 30
0.0
 11
1.828022
 21
5.591654
 31
0.0
  0
LINE
  8
DIM
 10
3.019656
 20
4.869645
 30
0.0
 11
3.019656
 21
5.777654
 31
0.0
  0
TEXT
  8
DIM
 10
5.861226
 20
5.466654
 30
0.0
 40
0.25
  1
5.500
 41
0.75
  0
SOLID
  8
DIM
 10
3.779656
 20
5.531654
 30
0.0
 11
3.779656
 21
5.651654
 31
0.0
 12
3.419656
 22
5.591654
 32
0.0
 13
3.419656
 23
5.591654
 33
0.0
  0
SOLID
  8
DIM
 10
8.559656
 20
5.531654
 30
0.0
 11
8.559656
 21
5.651654
 31
0.0
 12
8.919656
 22
5.591654
 32
0.0
 13
8.919656
 23
5.591654
 33
0.0
  0
LINE
  8
DIM
 10
3.779656
 20
5.591654
 30
0.0
 11
5.693959
 21
5.591654
 31
0.0
  0
LINE
  8
DIM
 10
8.559656
 20
5.591654
 30
0.0
 11
6.688183
 21
5.591654
 31
0.0
  0
LINE
  8
DIM
 10
3.419656
 20
4.719645
 30
0.0
 11
3.419656
 21
5.777654
 31
0.0
  0
LINE
  8
DIM
 10
8.919656
 20
4.719645
 30
0.0
 11
8.919656
 21
5.777654
 31
0.0
  0
ARC
  8
OBJECT
 10
14.737798
 20
10.262209
 30
0.0
 40
0.109
 50
270.0
 51
0.0
  0
ARC
  8
OBJECT
 10
13.765798
 20
10.262209
 30
0.0
 40
0.109
 50
180.0
 51
270.0
  0
ARC
  8
OBJECT
 10
8.569656
 20
1.649645
 30
0.0
 40
0.1
 50
270.0
 51
0.0
  0
LINE
  8
OBJECT
 10
8.669656
 20
1.649645
 30
0.0
 11
8.669656
 21
4.589645
 31
0.0
  0
ARC
  8
OBJECT
 10
8.569656
 20
4.589645
 30
0.0
 40
0.1
 50
0.0
 51
90.0
  0
LINE
  8
OBJECT
 10
8.569656
 20
4.689645
 30
0.0
 11
5.559656
 21
4.689645
 31
0.0
  0
ARC
  8
OBJECT
 10
3.769656
 20
4.589645
 30
0.0
 40
0.1
 50
90.0
 51
180.0
  0
LINE
  8
OBJECT
 10
8.569656
 20
1.549645
 30
0.0
 11
5.559656
 21
1.549645
 31
0.0
  0
LINE
  8
OBJECT
 10
3.669656
 20
1.649645
 30
0.0
 11
3.669656
 21
4.589645
 31
0.0
  0
ARC
  8
OBJECT
 10
3.769656
 20
1.649645
 30
0.0
 40
0.1
 50
180.0
 51
270.0
  0
ARC
  8
OBJECT
 10
8.569656
 20
1.649645
 30
0.0
 40
0.125
 50
270.0
 51
0.0
  0
ARC
  8
OBJECT
 10
8.569656
 20
4.589645
 30
0.0
 40
0.125
 50
0.0
 51
90.0
  0
ARC
  8
OBJECT
 10
3.769656
 20
1.649645
 30
0.0
 40
0.125
 50
180.0
 51
270.0
  0
ARC
  8
OBJECT
 10
3.769656
 20
4.589645
 30
0.0
 40
0.125
 50
90.0
 51
180.0
  0
LINE
  8
OBJECT
 10
8.694656
 20
1.649645
 30
0.0
 11
8.694656
 21
4.589645
 31
0.0
  0
LINE
  8
OBJECT
 10
3.644656
 20
1.649645
 30
0.0
 11
3.644656
 21
4.589645
 31
0.0
  0
LINE
  8
OBJECT
 10
8.569656
 20
1.524645
 30
0.0
 11
3.769656
 21
1.524645
 31
0.0
  0
LINE
  8
OBJECT
 10
8.569656
 20
4.714645
 30
0.0
 11
3.769656
 21
4.714645
 31
0.0
  0
CIRCLE
  8
HIDDEN
 10
8.919295
 20
4.594645
 30
0.0
 40
0.203
  0
CIRCLE
  8
HIDDEN
 10
8.919295
 20
4.594645
 30
0.0
 40
0.155
  0
CIRCLE
  8
HIDDEN
 10
8.919295
 20
1.644645
 30
0.0
 40
0.155
  0
CIRCLE
  8
HIDDEN
 10
8.919295
 20
1.644645
 30
0.0
 40
0.203
  0
CIRCLE
  8
HIDDEN
 10
3.419656
 20
4.594645
 30
0.0
 40
0.155
  0
CIRCLE
  8
HIDDEN
 10
3.419656
 20
4.594645
 30
0.0
 40
0.203
  0
CIRCLE
  8
HIDDEN
 10
3.419656
 20
1.644645
 30
0.0
 40
0.155
  0
CIRCLE
  8
HIDDEN
 10
3.419656
 20
1.644645
 30
0.0
 40
0.203
  0
CIRCLE
  8
OBJECT
 10
8.919656
 20
4.594645
 30
0.0
 40
0.115
  0
CIRCLE
  8
OBJECT
 10
8.919656
 20
4.594645
 30
0.0
 40
0.0675
  0
CIRCLE
  8
OBJECT
 10
8.919656
 20
1.644645
 30
0.0
 40
0.0675
  0
CIRCLE
  8
OBJECT
 10
8.919656
 20
1.644645
 30
0.0
 40
0.115
  0
CIRCLE
  8
OBJECT
 10
3.419656
 20
1.644645
 30
0.0
 40
0.115
  0
CIRCLE
  8
OBJECT
 10
3.419656
 20
1.644645
 30
0.0
 40
0.0675
  0
CIRCLE
  8
OBJECT
 10
3.419656
 20
4.594645
 30
0.0
 40
0.0675
  0
CIRCLE
  8
OBJECT
 10
3.419656
 20
4.594645
 30
0.0
 40
0.115
  0
ARC
  8
OBJECT
 10
9.069656
 20
4.744645
 30
0.0
 40
0.25
 50
0.0
 51
90.0
  0
ARC
  8
OBJECT
 10
9.069656
 20
1.494645
 30
0.0
 40
0.25
 50
270.0
 51
0.0
  0
ARC
  8
OBJECT
 10
3.269656
 20
1.494645
 30
0.0
 40
0.25
 50
180.0
 51
270.0
  0
ARC
  8
OBJECT
 10
3.269656
 20
4.744645
 30
0.0
 40
0.25
 50
90.0
 51
180.0
  0
LINE
  8
OBJECT
 10
3.019656
 20
1.494645
 30
0.0
 11
3.019656
 21
4.744645
 31
0.0
  0
LINE
  8
OBJECT
 10
9.069656
 20
1.244645
 30
0.0
 11
3.269656
 21
1.244645
 31
0.0
  0
LINE
  8
OBJECT
 10
9.319656
 20
4.744645
 30
0.0
 11
9.319656
 21
1.494645
 31
0.0
  0
LINE
  8
OBJECT
 10
3.269656
 20
4.994645
 30
0.0
 11
9.069656
 21
4.994645
 31
0.0
  0
LINE
  8
HIDDEN
 10
9.069656
 20
1.354645
 30
0.0
 11
3.269656
 21
1.354645
 31
0.0
  0
LINE
  8
HIDDEN
 10
3.129656
 20
1.494645
 30
0.0
 11
3.129656
 21
4.744645
 31
0.0
  0
LINE
  8
HIDDEN
 10
3.269656
 20
4.884645
 30
0.0
 11
9.069656
 21
4.884645
 31
0.0
  0
LINE
  8
HIDDEN
 10
9.209656
 20
4.744645
 30
0.0
 11
9.209656
 21
1.494645
 31
0.0
  0
ARC
  8
HIDDEN
 10
9.069656
 20
1.494645
 30
0.0
 40
0.14
 50
270.0
 51
0.0
  0
ARC
  8
HIDDEN
 10
9.069656
 20
4.744645
 30
0.0
 40
0.14
 50
0.0
 51
90.0
  0
ARC
  8
HIDDEN
 10
3.269656
 20
1.494645
 30
0.0
 40
0.14
 50
180.0
 51
270.0
  0
ARC
  8
HIDDEN
 10
3.269656
 20
4.744645
 30
0.0
 40
0.14
 50
90.0
 51
180.0
  0
LINE
  8
HIDDEN
 10
3.269656
 20
4.934645
 30
0.0
 11
9.069656
 21
4.934645
 31
0.0
  0
LINE
  8
HIDDEN
 10
3.079656
 20
1.494645
 30
0.0
 11
3.079656
 21
4.744645
 31
0.0
  0
LINE
  8
HIDDEN
 10
9.069656
 20
1.304645
 30
0.0
 11
3.269656
 21
1.304645
 31
0.0
  0
ARC
  8
HIDDEN
 10
3.269656
 20
4.744645
 30
0.0
 40
0.19
 50
90.0
 51
180.0
  0
LINE
  8
HIDDEN
 10
9.259656
 20
4.744645
 30
0.0
 11
9.259656
 21
1.494645
 31
0.0
  0
ARC
  8
HIDDEN
 10
9.069656
 20
4.744645
 30
0.0
 40
0.19
 50
0.0
 51
90.0
  0
ARC
  8
HIDDEN
 10
9.069656
 20
1.494645
 30
0.0
 40
0.19
 50
270.0
 51
0.0
  0
ARC
  8
HIDDEN
 10
3.269656
 20
1.494645
 30
0.0
 40
0.19
 50
180.0
 51
270.0
  0
CIRCLE
  8
HIDDEN
 10
8.919295
 20
13.393209
 30
0.0
 40
0.155
  0
CIRCLE
  8
HIDDEN
 10
8.919295
 20
10.443209
 30
0.0
 40
0.155
  0
CIRCLE
  8
HIDDEN
 10
3.419656
 20
10.443209
 30
0.0
 40
0.155
  0
CIRCLE
  8
HIDDEN
 10
3.419656
 20
13.393209
 30
0.0
 40
0.155
  0
LINE
  8
OBJECT
 10
6.915635
 20
7.455758
 30
0.0
 11
9.319656
 21
7.455758
 31
0.0
  0
LINE
  8
OBJECT
 10
14.206798
 20
12.511315
 30
0.0
 11
14.206798
 21
13.793209
 31
0.0
  0
LINE
  8
OBJECT
 10
14.146798
 20
10.153209
 30
0.0
 11
14.737798
 21
10.153209
 31
0.0
  0
LINE
  8
OBJECT
 10
14.146798
 20
10.553209
 30
0.0
 11
14.146798
 21
12.504075
 31
0.0
  0
LINE
  8
OBJECT
 10
14.146798
 20
10.093209
 30
0.0
 11
14.146798
 21
10.333209
 31
0.0
  0
LINE
  8
OBJECT
 10
14.146798
 20
10.093209
 30
0.0
 11
14.206798
 21
10.093209
 31
0.0
  0
LINE
  8
OBJECT
 10
3.129656
 20
7.515758
 30
0.0
 11
3.129656
 21
6.924758
 31
0.0
  0
LINE
  8
OBJECT
 10
3.069656
 20
7.515758
 30
0.0
 11
3.069656
 21
7.455758
 31
0.0
  0
LINE
  8
OBJECT
 10
3.529656
 20
7.515758
 30
0.0
 11
3.924656
 21
7.515758
 31
0.0
  0
LINE
  8
OBJECT
 10
3.069656
 20
7.515758
 30
0.0
 11
3.309656
 21
7.515758
 31
0.0
  0
LINE
  8
0
 62
     0
 10
3.283864
 20
6.705758
 30
0.0
 11
3.019656
 21
6.969966
 31
0.0
  0
LINE
  8
0
 62
     0
 10
3.460641
 20
6.705758
 30
0.0
 11
3.350641
 21
6.815758
 31
0.0
  0
LINE
  8
0
 62
     0
 10
3.637417
 20
6.705758
 30
0.0
 11
3.527417
 21
6.815758
 31
0.0
  0
LINE
  8
0
 62
     0
 10
3.814194
 20
6.705758
 30
0.0
 11
3.704194
 21
6.815758
 31
0.0
  0
LINE
  8
0
 62
     0
 10
3.990971
 20
6.705758
 30
0.0
 11
3.880971
 21
6.815758
 31
0.0
  0
LINE
  8
0
 62
     0
 10
4.167747
 20
6.705758
 30
0.0
 11
4.057747
 21
6.815758
 31
0.0
  0
LINE
  8
0
 62
     0
 10
4.344524
 20
6.705758
 30
0.0
 11
4.234524
 21
6.815758
 31
0.0
  0
LINE
  8
0
 62
     0
 10
4.521301
 20
6.705758
 30
0.0
 11
4.411301
 21
6.815758
 31
0.0
  0
LINE
  8
0
 62
     0
 10
4.698077
 20
6.705758
 30
0.0
 11
4.588077
 21
6.815758
 31
0.0
  0
LINE
  8
0
 62
     0
 10
4.874854
 20
6.705758
 30
0.0
 11
4.764854
 21
6.815758
 31
0.0
  0
LINE
  8
0
 62
     0
 10
5.051631
 20
6.705758
 30
0.0
 11
4.941631
 21
6.815758
 31
0.0
  0
LINE
  8
0
 62
     0
 10
3.019668
 20
7.514194
 30
0.0
 11
3.129656
 21
7.624183
 31
0.0
  0
LINE
  8
0
 62
     0
 10
3.019668
 20
7.691194
 30
0.0
 11
3.129656
 21
7.801183
 31
0.0
  0
LINE
  8
0
 62
     0
 10
4.874664
 20
7.955423
 30
0.0
 11
4.984664
 21
8.065423
 31
0.0
  0
LINE
  8
0
 62
     0
 10
4.697888
 20
7.955423
 30
0.0
 11
4.807888
 21
8.065423
 31
0.0
  0
LINE
  8
0
 62
     0
 10
4.521111
 20
7.955423
 30
0.0
 11
4.631111
 21
8.065423
 31
0.0
  0
LINE
  8
0
 62
     0
 10
3.019668
 20
7.868194
 30
0.0
 11
3.267232
 21
8.115758
 31
0.0
  0
LINE
  8
0
 62
     0
 10
3.334009
 20
8.005758
 30
0.0
 11
3.444009
 21
8.115758
 31
0.0
  0
LINE
  8
0
 62
     0
 10
3.510786
 20
8.005758
 30
0.0
 11
3.593805
 21
8.088778
 31
0.0
  0
LINE
  8
0
 62
     0
 10
3.637227
 20
7.955423
 30
0.0
 11
3.747227
 21
8.065423
 31
0.0
  0
LINE
  8
0
 62
     0
 10
3.814004
 20
7.955423
 30
0.0
 11
3.924004
 21
8.065423
 31
0.0
  0
LINE
  8
0
 62
     0
 10
3.990781
 20
7.955423
 30
0.0
 11
4.100781
 21
8.065423
 31
0.0
  0
LINE
  8
0
 62
     0
 10
4.167557
 20
7.955423
 30
0.0
 11
4.277557
 21
8.065423
 31
0.0
  0
LINE
  8
0
 62
     0
 10
4.344334
 20
7.955423
 30
0.0
 11
4.454334
 21
8.065423
 31
0.0
  0
LINE
  8
0
 62
     0
 10
14.050572
 20
10.043209
 30
0.0
 11
14.146798
 21
10.139434
 31
0.0
  0
LINE
  8
0
 62
     0
 10
13.873796
 20
10.043209
 30
0.0
 11
13.983796
 21
10.153209
 31
0.0
  0
LINE
  8
0
 62
     0
 10
13.711882
 20
10.058072
 30
0.0
 11
13.807019
 21
10.153209
 31
0.0
  0
LINE
  8
0
 62
     0
 10
13.607243
 20
10.130209
 30
0.0
 11
13.676598
 21
10.199564
 31
0.0
  0
LINE
  8
0
 62
     0
 10
13.597133
 20
11.357536
 30
0.0
 11
13.707133
 21
11.467536
 31
0.0
  0
LINE
  8
0
 62
     0
 10
13.597133
 20
11.18076
 30
0.0
 11
13.707133
 21
11.29076
 31
0.0
  0
LINE
  8
0
 62
     0
 10
13.597133
 20
11.003983
 30
0.0
 11
13.707133
 21
11.113983
 31
0.0
  0
LINE
  8
0
 62
     0
 10
13.597133
 20
10.827206
 30
0.0
 11
13.707133
 21
10.937206
 31
0.0
  0
LINE
  8
0
 62
     0
 10
13.597133
 20
10.65043
 30
0.0
 11
13.707133
 21
10.76043
 31
0.0
  0
LINE
  8
0
 62
     0
 10
13.597133
 20
10.473653
 30
0.0
 11
13.656798
 21
10.533318
 31
0.0
  0
LINE
  8
0
 62
     0
 10
13.550515
 20
10.250258
 30
0.0
 11
13.656798
 21
10.356541
 31
0.0
  0
LINE
  8
OBJECT
 10
13.546798
 20
10.395209
 30
0.0
 11
13.597133
 21
10.413209
 31
0.0
  0
ARC
  8
OBJECT
 10
13.796798
 20
10.293209
 30
0.0
 40
0.25
 50
180.0
 51
270.0
  0
LINE
  8
OBJECT
 10
13.765798
 20
10.153209
 30
0.0
 11
14.146798
 21
10.153209
 31
0.0
  0
LINE
  8
OBJECT
 10
13.656798
 20
10.262209
 30
0.0
 11
13.656798
 21
10.553209
 31
0.0
  0
LINE
  8
OBJECT
 10
13.707133
 20
10.553209
 30
0.0
 11
13.707133
 21
12.417045
 31
0.0
  0
LINE
  8
OBJECT
 10
14.846798
 20
10.262209
 30
0.0
 11
14.846798
 21
12.505018
 31
0.0
  0
ARC
  8
OBJECT
 10
3.269656
 20
7.865758
 30
0.0
 40
0.25
 50
90.0
 51
180.0
  0
LINE
  8
OBJECT
 10
3.584156
 20
8.115758
 30
0.0
 11
3.602156
 21
8.065423
 31
0.0
  0
ARC
  8
OBJECT
 10
3.238656
 20
6.924758
 30
0.0
 40
0.109
 50
180.0
 51
270.0
  0
ARC
  8
OBJECT
 10
3.238656
 20
7.896758
 30
0.0
 40
0.109
 50
90.0
 51
180.0
  0
LINE
  8
OBJECT
 10
3.529656
 20
7.955423
 30
0.0
 11
6.823992
 21
7.955423
 31
0.0
  0
LINE
  8
OBJECT
 10
3.238656
 20
8.005758
 30
0.0
 11
3.529656
 21
8.005758
 31
0.0
  0
LINE
  8
OBJECT
 10
3.129656
 20
7.896758
 30
0.0
 11
3.129656
 21
7.515758
 31
0.0
  0
LINE
  8
OBJECT
 10
3.238656
 20
6.815758
 30
0.0
 11
6.877898
 21
6.815758
 31
0.0
  0
ARC
  8
OBJECT
 10
8.617656
 20
10.530709
 30
0.0
 40
0.1175
 50
270.0
 51
0.0
  0
ARC
  8
OBJECT
 10
8.617656
 20
13.305709
 30
0.0
 40
0.1175
 50
0.0
 51
90.0
  0
ARC
  8
OBJECT
 10
3.723156
 20
10.531209
 30
0.0
 40
0.118
 50
180.0
 51
270.0
  0
ARC
  8
OBJECT
 10
3.723156
 20
13.305209
 30
0.0
 40
0.118
 50
90.0
 51
180.0
  0
LINE
  8
OBJECT
 10
3.723156
 20
10.413209
 30
0.0
 11
8.617656
 21
10.413209
 31
0.0
  0
LINE
  8
OBJECT
 10
8.735156
 20
10.530709
 30
0.0
 11
8.735156
 21
13.305709
 31
0.0
  0
LINE
  8
OBJECT
 10
3.605156
 20
10.531209
 30
0.0
 11
3.605156
 21
13.305209
 31
0.0
  0
LINE
  8
OBJECT
 10
8.617656
 20
13.423209
 30
0.0
 11
3.723156
 21
13.423209
 31
0.0
  0
ARC
  8
OBJECT
 10
3.723156
 20
10.531209
 30
0.0
 40
0.063
 50
180.0
 51
270.0
  0
ARC
  8
OBJECT
 10
3.723156
 20
13.305209
 30
0.0
 40
0.063
 50
90.0
 51
180.0
  0
LINE
  8
OBJECT
 10
3.660156
 20
10.531209
 30
0.0
 11
3.660156
 21
13.305209
 31
0.0
  0
ARC
  8
HIDDEN
 10
3.269656
 20
13.543209
 30
0.0
 40
0.19
 50
90.0
 51
180.0
  0
ARC
  8
HIDDEN
 10
9.069656
 20
13.543209
 30
0.0
 40
0.19
 50
0.0
 51
90.0
  0
ARC
  8
HIDDEN
 10
9.069656
 20
10.293209
 30
0.0
 40
0.19
 50
270.0
 51
0.0
  0
LINE
  8
HIDDEN
 10
9.259656
 20
10.293209
 30
0.0
 11
9.259656
 21
13.543209
 31
0.0
  0
ARC
  8
HIDDEN
 10
3.269656
 20
10.293209
 30
0.0
 40
0.19
 50
180.0
 51
270.0
  0
LINE
  8
HIDDEN
 10
9.069656
 20
13.733209
 30
0.0
 11
3.269656
 21
13.733209
 31
0.0
  0
LINE
  8
HIDDEN
 10
3.079656
 20
13.543209
 30
0.0
 11
3.079656
 21
10.293209
 31
0.0
  0
LINE
  8
HIDDEN
 10
3.269656
 20
10.103209
 30
0.0
 11
9.069656
 21
10.103209
 31
0.0
  0
ARC
  8
HIDDEN
 10
3.269656
 20
10.293209
 30
0.0
 40
0.14
 50
180.0
 51
270.0
  0
ARC
  8
HIDDEN
 10
3.269656
 20
13.543209
 30
0.0
 40
0.14
 50
90.0
 51
180.0
  0
ARC
  8
HIDDEN
 10
9.069656
 20
10.293209
 30
0.0
 40
0.14
 50
270.0
 51
0.0
  0
ARC
  8
HIDDEN
 10
9.069656
 20
13.543209
 30
0.0
 40
0.14
 50
0.0
 51
90.0
  0
LINE
  8
HIDDEN
 10
9.209656
 20
10.293209
 30
0.0
 11
9.209656
 21
13.543209
 31
0.0
  0
LINE
  8
HIDDEN
 10
3.269656
 20
10.153209
 30
0.0
 11
9.069656
 21
10.153209
 31
0.0
  0
LINE
  8
HIDDEN
 10
3.129656
 20
13.543209
 30
0.0
 11
3.129656
 21
10.293209
 31
0.0
  0
LINE
  8
HIDDEN
 10
9.069656
 20
13.683209
 30
0.0
 11
3.269656
 21
13.683209
 31
0.0
  0
LINE
  8
OBJECT
 10
3.723156
 20
10.468209
 30
0.0
 11
8.617656
 21
10.468209
 31
0.0
  0
LINE
  8
OBJECT
 10
8.680156
 20
10.530709
 30
0.0
 11
8.680156
 21
13.305709
 31
0.0
  0
LINE
  8
OBJECT
 10
8.617656
 20
13.368209
 30
0.0
 11
3.723156
 21
13.368209
 31
0.0
  0
ARC
  8
OBJECT
 10
8.617656
 20
10.530709
 30
0.0
 40
0.0625
 50
270.0
 51
0.0
  0
ARC
  8
OBJECT
 10
8.617656
 20
13.305709
 30
0.0
 40
0.0625
 50
0.0
 51
90.0
  0
LINE
  8
OBJECT
 10
3.269656
 20
10.043209
 30
0.0
 11
9.069656
 21
10.043209
 31
0.0
  0
LINE
  8
OBJECT
 10
9.319656
 20
10.293209
 30
0.0
 11
9.319656
 21
13.543209
 31
0.0
  0
LINE
  8
OBJECT
 10
9.069656
 20
13.793209
 30
0.0
 11
3.269656
 21
13.793209
 31
0.0
  0
LINE
  8
OBJECT
 10
3.019656
 20
13.543209
 30
0.0
 11
3.019656
 21
10.293209
 31
0.0
  0
ARC
  8
OBJECT
 10
3.269656
 20
10.293209
 30
0.0
 40
0.25
 50
180.0
 51
270.0
  0
ARC
  8
OBJECT
 10
3.269656
 20
13.543209
 30
0.0
 40
0.25
 50
90.0
 51
180.0
  0
ARC
  8
OBJECT
 10
9.069656
 20
13.543209
 30
0.0
 40
0.25
 50
0.0
 51
90.0
  0
ARC
  8
OBJECT
 10
9.069656
 20
10.293209
 30
0.0
 40
0.25
 50
270.0
 51
0.0
  0
CIRCLE
  8
HIDDEN
 10
3.419656
 20
10.443209
 30
0.0
 40
0.11
  0
CIRCLE
  8
HIDDEN
 10
3.419656
 20
13.393209
 30
0.0
 40
0.11
  0
LINE
  8
OBJECT
 10
3.269656
 20
6.705758
 30
0.0
 11
9.069656
 21
6.705758
 31
0.0
  0
LINE
  8
OBJECT
 10
3.019656
 20
7.865758
 30
0.0
 11
3.019656
 21
6.955758
 31
0.0
  0
LINE
  8
OBJECT
 10
9.319656
 20
6.955758
 30
0.0
 11
9.319656
 21
7.865758
 31
0.0
  0
LINE
  8
OBJECT
 10
3.019656
 20
7.455758
 30
0.0
 11
3.069656
 21
7.455758
 31
0.0
  0
LINE
  8
OBJECT
 10
6.917109
 20
7.441827
 30
0.0
 11
9.319656
 21
7.441827
 31
0.0
  0
ARC
  8
OBJECT
 10
9.069656
 20
7.865758
 30
0.0
 40
0.25
 50
0.0
 51
90.0
  0
ARC
  8
OBJECT
 10
9.069656
 20
6.955758
 30
0.0
 40
0.25
 50
270.0
 51
0.0
  0
ARC
  8
OBJECT
 10
3.269656
 20
6.955758
 30
0.0
 40
0.25
 50
180.0
 51
270.0
  0
LINE
  8
HIDDEN
 10
3.487156
 20
6.830758
 30
0.0
 11
3.487156
 21
7.385758
 31
0.0
  0
LINE
  8
OBJECT
 10
3.574656
 20
7.385758
 30
0.0
 11
3.264656
 21
7.385758
 31
0.0
  0
LINE
  8
OBJECT
 10
3.622656
 20
6.815758
 30
0.0
 11
3.622656
 21
6.940758
 31
0.0
  0
LINE
  8
OBJECT
 10
3.216656
 20
6.818002
 30
0.0
 11
3.216656
 21
6.940758
 31
0.0
  0
LINE
  8
OBJECT
 10
3.574656
 20
6.940758
 30
0.0
 11
3.574656
 21
7.385758
 31
0.0
  0
LINE
  8
OBJECT
 10
6.914082
 20
7.46969
 30
0.0
 11
9.319656
 21
7.46969
 31
0.0
  0
LINE
  8
HIDDEN
 10
3.352156
 20
6.830758
 30
0.0
 11
3.352156
 21
7.385758
 31
0.0
  0
LINE
  8
OBJECT
 10
3.264656
 20
6.940758
 30
0.0
 11
3.264656
 21
7.385758
 31
0.0
  0
LINE
  8
OBJECT
 10
3.216656
 20
6.940758
 30
0.0
 11
3.622656
 21
6.940758
 31
0.0
  0
LINE
  8
HIDDEN
 10
3.534656
 20
6.705758
 30
0.0
 11
3.534656
 21
6.830758
 31
0.0
  0
LINE
  8
HIDDEN
 10
3.304656
 20
6.705758
 30
0.0
 11
3.304656
 21
6.830758
 31
0.0
  0
LINE
  8
HIDDEN
 10
3.304656
 20
6.830758
 30
0.0
 11
3.534656
 21
6.830758
 31
0.0
  0
LINE
  8
OBJECT
 10
3.529656
 20
8.005758
 30
0.0
 11
3.529656
 21
7.385758
 31
0.0
  0
LINE
  8
HIDDEN
 10
3.466656
 20
7.930285
 30
0.0
 11
3.466656
 21
7.385758
 31
0.0
  0
LINE
  8
HIDDEN
 10
3.372656
 20
7.930285
 30
0.0
 11
3.372656
 21
7.385758
 31
0.0
  0
LINE
  8
OBJECT
 10
3.309656
 20
8.005758
 30
0.0
 11
3.309656
 21
7.385758
 31
0.0
  0
LINE
  8
HIDDEN
 10
3.382656
 20
7.940285
 30
0.0
 11
3.456656
 21
7.940285
 31
0.0
  0
ARC
  8
HIDDEN
 10
3.382656
 20
7.930285
 30
0.0
 40
0.01
 50
90.0
 51
180.0
  0
ARC
  8
HIDDEN
 10
3.456656
 20
7.930285
 30
0.0
 40
0.01
 50
0.0
 51
90.0
  0
LINE
  8
OBJECT
 10
3.602156
 20
8.065423
 30
0.0
 11
6.821364
 21
8.065423
 31
0.0
  0
ARC
  8
OBJECT
 10
6.285191
 20
7.063023
 30
0.0
 40
0.642216
 50
326.199719
 51
353.538089
  0
ARC
  8
OBJECT
 10
4.390057
 20
7.18141
 30
0.0
 40
2.540435
 50
355.695808
 51
12.398627
  0
ARC
  8
OBJECT
 10
7.776678
 20
8.033219
 30
0.0
 40
0.955857
 50
175.046248
 51
198.692842
  0
LINE
  8
OBJECT
 10
3.269656
 20
8.115758
 30
0.0
 11
9.069656
 21
8.115758
 31
0.0
  0
CIRCLE
  8
HIDDEN
 10
3.419656
 20
10.443209
 30
0.0
 40
0.203
  0
CIRCLE
  8
HIDDEN
 10
3.419656
 20
13.393209
 30
0.0
 40
0.203
  0
CIRCLE
  8
HIDDEN
 10
8.919295
 20
13.393209
 30
0.0
 40
0.203
  0
CIRCLE
  8
HIDDEN
 10
8.919295
 20
10.443209
 30
0.0
 40
0.203
  0
CIRCLE
  8
HIDDEN
 10
8.919295
 20
13.393209
 30
0.0
 40
0.11
  0
CIRCLE
  8
HIDDEN
 10
8.919295
 20
10.443209
 30
0.0
 40
0.11
  0
LINE
  8
OBJECT
 10
13.546798
 20
10.293209
 30
0.0
 11
13.546798
 21
13.543209
 31
0.0
  0
ARC
  8
OBJECT
 10
13.629338
 20
13.372359
 30
0.0
 40
0.955857
 50
265.046248
 51
288.692842
  0
ARC
  8
OBJECT
 10
14.481146
 20
9.985738
 30
0.0
 40
2.540435
 50
85.695808
 51
102.398627
  0
LINE
  8
OBJECT
 10
13.597133
 20
10.413209
 30
0.0
 11
13.597133
 21
12.417045
 31
0.0
  0
ARC
  8
HIDDEN
 10
13.732271
 20
10.480209
 30
0.0
 40
0.01
 50
90.0
 51
180.0
  0
ARC
  8
HIDDEN
 10
13.732271
 20
10.406209
 30
0.0
 40
0.01
 50
180.0
 51
270.0
  0
LINE
  8
HIDDEN
 10
13.722271
 20
10.406209
 30
0.0
 11
13.722271
 21
10.480209
 31
0.0
  0
LINE
  8
OBJECT
 10
13.656798
 20
10.333209
 30
0.0
 11
14.276798
 21
10.333209
 31
0.0
  0
LINE
  8
HIDDEN
 10
13.732271
 20
10.396209
 30
0.0
 11
14.276798
 21
10.396209
 31
0.0
  0
LINE
  8
HIDDEN
 10
13.732271
 20
10.490209
 30
0.0
 11
14.276798
 21
10.490209
 31
0.0
  0
LINE
  8
OBJECT
 10
13.656798
 20
10.553209
 30
0.0
 11
14.276798
 21
10.553209
 31
0.0
  0
LINE
  8
HIDDEN
 10
14.831798
 20
10.309929
 30
0.0
 11
14.831798
 21
10.576489
 31
0.0
  0
LINE
  8
HIDDEN
 10
14.956798
 20
10.309929
 30
0.0
 11
14.831798
 21
10.309929
 31
0.0
  0
LINE
  8
HIDDEN
 10
14.956798
 20
10.576489
 30
0.0
 11
14.831798
 21
10.576489
 31
0.0
  0
LINE
  8
OBJECT
 10
14.721798
 20
10.240209
 30
0.0
 11
14.721798
 21
10.646209
 31
0.0
  0
LINE
  8
OBJECT
 10
14.721798
 20
10.288209
 30
0.0
 11
14.276798
 21
10.288209
 31
0.0
  0
LINE
  8
HIDDEN
 10
14.831798
 20
10.375709
 30
0.0
 11
14.276798
 21
10.375709
 31
0.0
  0
LINE
  8
OBJECT
 10
14.192867
 20
12.509763
 30
0.0
 11
14.192867
 21
13.793209
 31
0.0
  0
LINE
  8
OBJECT
 10
14.721798
 20
10.598209
 30
0.0
 11
14.276798
 21
10.598209
 31
0.0
  0
LINE
  8
OBJECT
 10
14.844555
 20
10.240209
 30
0.0
 11
14.721798
 21
10.240209
 31
0.0
  0
LINE
  8
OBJECT
 10
14.846798
 20
10.646209
 30
0.0
 11
14.721798
 21
10.646209
 31
0.0
  0
LINE
  8
OBJECT
 10
14.276798
 20
10.598209
 30
0.0
 11
14.276798
 21
10.288209
 31
0.0
  0
LINE
  8
HIDDEN
 10
14.831798
 20
10.510709
 30
0.0
 11
14.276798
 21
10.510709
 31
0.0
  0
ARC
  8
OBJECT
 10
14.706798
 20
10.293209
 30
0.0
 40
0.25
 50
270.0
 51
0.0
  0
ARC
  8
OBJECT
 10
14.706798
 20
13.543209
 30
0.0
 40
0.25
 50
0.0
 51
90.0
  0
ARC
  8
OBJECT
 10
13.796798
 20
13.543209
 30
0.0
 40
0.25
 50
90.0
 51
180.0
  0
LINE
  8
OBJECT
 10
14.220729
 20
12.51279
 30
0.0
 11
14.220729
 21
13.793209
 31
0.0
  0
LINE
  8
OBJECT
 10
14.206798
 20
10.043209
 30
0.0
 11
14.206798
 21
10.093209
 31
0.0
  0
LINE
  8
OBJECT
 10
14.706798
 20
13.793209
 30
0.0
 11
13.796798
 21
13.793209
 31
0.0
  0
LINE
  8
OBJECT
 10
13.796798
 20
10.043209
 30
0.0
 11
14.706798
 21
10.043209
 31
0.0
  0
LINE
  8
OBJECT
 10
14.956798
 20
10.293209
 30
0.0
 11
14.956798
 21
13.543209
 31
0.0
  0
ARC
  8
OBJECT
 10
14.717009
 20
11.982985
 30
0.0
 40
0.537925
 50
63.52761
 51
94.819939
  0
TEXT
  8
TEXT
 10
14.805
 20
15.291326
 30
0.0
 40
0.375
  1
PBS-11273
 41
0.75
 72
     1
 11
15.93
 21
15.291326
 31
0.0
  0
TEXT
  8
TEXT
 10
3.247
 20
15.291326
 30
0.0
 40
0.375
  1
PLASTIBOX  (STYLE C)
 41
0.75
 72
     1
 11
5.872
 21
15.291326
 31
0.0
  0
LINE
  8
TITLE
 10
0.124
 20
16.020326
 30
0.0
 11
0.124
 21
30.876
 31
0.0
  0
LINE
  8
TITLE
 10
20.116
 20
15.896326
 30
0.0
 11
20.116
 21
0.124
 31
0.0
  0
LINE
  8
0
 62
     0
 10
6.642621
 20
6.705758
 30
0.0
 11
6.532621
 21
6.815758
 31
0.0
  0
LINE
  8
0
 62
     0
 10
6.465844
 20
6.705758
 30
0.0
 11
6.355844
 21
6.815758
 31
0.0
  0
LINE
  8
0
 62
     0
 10
6.289068
 20
6.705758
 30
0.0
 11
6.179068
 21
6.815758
 31
0.0
  0
LINE
  8
0
 62
     0
 10
6.112291
 20
6.705758
 30
0.0
 11
6.002291
 21
6.815758
 31
0.0
  0
LINE
  8
0
 62
     0
 10
5.935514
 20
6.705758
 30
0.0
 11
5.825514
 21
6.815758
 31
0.0
  0
LINE
  8
0
 62
     0
 10
5.758738
 20
6.705758
 30
0.0
 11
5.648738
 21
6.815758
 31
0.0
  0
LINE
  8
0
 62
     0
 10
5.581961
 20
6.705758
 30
0.0
 11
5.471961
 21
6.815758
 31
0.0
  0
LINE
  8
0
 62
     0
 10
5.405184
 20
6.705758
 30
0.0
 11
5.295184
 21
6.815758
 31
0.0
  0
LINE
  8
0
 62
     0
 10
5.228408
 20
6.705758
 30
0.0
 11
5.118408
 21
6.815758
 31
0.0
  0
LINE
  8
0
 62
     0
 10
6.819398
 20
6.705758
 30
0.0
 11
6.709398
 21
6.815758
 31
0.0
  0
LINE
  8
0
 62
     0
 10
5.581771
 20
7.955423
 30
0.0
 11
5.691771
 21
8.065423
 31
0.0
  0
LINE
  8
0
 62
     0
 10
5.404994
 20
7.955423
 30
0.0
 11
5.514994
 21
8.065423
 31
0.0
  0
LINE
  8
0
 62
     0
 10
5.228218
 20
7.955423
 30
0.0
 11
5.338218
 21
8.065423
 31
0.0
  0
LINE
  8
0
 62
     0
 10
5.051441
 20
7.955423
 30
0.0
 11
5.161441
 21
8.065423
 31
0.0
  0
LINE
  8
0
 62
     0
 10
5.758548
 20
7.955423
 30
0.0
 11
5.868548
 21
8.065423
 31
0.0
  0
LINE
  8
0
 62
     0
 10
5.935324
 20
7.955423
 30
0.0
 11
6.045324
 21
8.065423
 31
0.0
  0
LINE
  8
0
 62
     0
 10
6.112101
 20
7.955423
 30
0.0
 11
6.222101
 21
8.065423
 31
0.0
  0
LINE
  8
0
 62
     0
 10
6.642431
 20
7.955423
 30
0.0
 11
6.752431
 21
8.065423
 31
0.0
  0
LINE
  8
0
 62
     0
 10
6.465654
 20
7.955423
 30
0.0
 11
6.575654
 21
8.065423
 31
0.0
  0
LINE
  8
0
 62
     0
 10
6.288878
 20
7.955423
 30
0.0
 11
6.398878
 21
8.065423
 31
0.0
  0
LINE
  8
0
 62
     0
 10
14.956798
 20
11.425785
 30
0.0
 11
14.846798
 21
11.535785
 31
0.0
  0
LINE
  8
0
 62
     0
 10
14.956798
 20
11.249008
 30
0.0
 11
14.846798
 21
11.359008
 31
0.0
  0
LINE
  8
0
 62
     0
 10
14.956798
 20
11.072232
 30
0.0
 11
14.846798
 21
11.182232
 31
0.0
  0
LINE
  8
0
 62
     0
 10
14.956798
 20
10.895455
 30
0.0
 11
14.846798
 21
11.005455
 31
0.0
  0
LINE
  8
0
 62
     0
 10
14.956798
 20
10.718678
 30
0.0
 11
14.846798
 21
10.828678
 31
0.0
  0
LINE
  8
0
 62
     0
 10
14.956798
 20
10.541901
 30
0.0
 11
14.846798
 21
10.651901
 31
0.0
  0
LINE
  8
0
 62
     0
 10
14.956798
 20
10.365125
 30
0.0
 11
14.846798
 21
10.475125
 31
0.0
  0
LINE
  8
0
 62
     0
 10
14.940562
 20
10.204584
 30
0.0
 11
14.846798
 21
10.298348
 31
0.0
  0
LINE
  8
0
 62
     0
 10
14.867047
 20
10.101322
 30
0.0
 11
14.797413
 21
10.170956
 31
0.0
  0
LINE
  8
0
 62
     0
 10
14.745388
 20
10.046205
 30
0.0
 11
14.638384
 21
10.153209
 31
0.0
  0
LINE
  8
0
 62
     0
 10
14.568388
 20
10.046205
 30
0.0
 11
14.461384
 21
10.153209
 31
0.0
  0
LINE
  8
0
 62
     0
 10
14.391388
 20
10.046205
 30
0.0
 11
14.284384
 21
10.153209
 31
0.0
  0
LINE
  8
0
 62
     0
 10
14.956798
 20
11.602562
 30
0.0
 11
14.846798
 21
11.712562
 31
0.0
  0
LINE
  8
0
 62
     0
 10
14.956798
 20
11.779338
 30
0.0
 11
14.846798
 21
11.889338
 31
0.0
  0
LINE
  8
0
 62
     0
 10
14.956798
 20
11.956115
 30
0.0
 11
14.846798
 21
12.066115
 31
0.0
  0
LINE
  8
0
 62
     0
 10
14.956798
 20
12.132892
 30
0.0
 11
14.846798
 21
12.242892
 31
0.0
  0
LINE
  8
0
 62
     0
 10
14.956798
 20
12.309668
 30
0.0
 11
14.846798
 21
12.419668
 31
0.0
  0
LINE
  8
0
 62
     0
 10
13.597133
 20
11.534313
 30
0.0
 11
13.707133
 21
11.644313
 31
0.0
  0
LINE
  8
0
 62
     0
 10
13.597133
 20
11.71109
 30
0.0
 11
13.707133
 21
11.82109
 31
0.0
  0
LINE
  8
0
 62
     0
 10
13.597133
 20
11.887866
 30
0.0
 11
13.707133
 21
11.997866
 31
0.0
  0
LINE
  8
0
 62
     0
 10
13.597133
 20
12.064643
 30
0.0
 11
13.707133
 21
12.174643
 31
0.0
  0
LINE
  8
0
 62
     0
 10
13.597133
 20
12.24142
 30
0.0
 11
13.707133
 21
12.35142
 31
0.0
  0
LINE
  8
DIM
 10
15.206798
 20
11.215387
 30
0.0
 11
15.566798
 21
11.215387
 31
0.0
  0
LINE
  8
DIM
 10
13.347133
 20
11.215387
 30
0.0
 11
12.987133
 21
11.215387
 31
0.0
  0
SOLID
  8
DIM
 10
15.206798
 20
11.155387
 30
0.0
 11
15.206798
 21
11.275387
 31
0.0
 12
14.846798
 22
11.215387
 32
0.0
 13
14.846798
 23
11.215387
 33
0.0
  0
SOLID
  8
DIM
 10
13.347133
 20
11.155387
 30
0.0
 11
13.347133
 21
11.275387
 31
0.0
 12
13.707133
 22
11.215387
 32
0.0
 13
13.707133
 23
11.215387
 33
0.0
  0
TEXT
  8
DIM
 10
15.752097
 20
11.090387
 30
0.0
 40
0.25
  1
1.140
 41
0.75
  0
LINE
  8
DIM
 10
14.206798
 20
9.918209
 30
0.0
 11
14.206798
 21
9.331161
 31
0.0
  0
LINE
  8
DIM
 10
15.316798
 20
9.517161
 30
0.0
 11
15.676798
 21
9.517161
 31
0.0
  0
LINE
  8
DIM
 10
13.846798
 20
9.517161
 30
0.0
 11
13.486798
 21
9.517161
 31
0.0
  0
SOLID
  8
DIM
 10
15.316798
 20
9.457161
 30
0.0
 11
15.316798
 21
9.577161
 31
0.0
 12
14.956798
 22
9.517161
 32
0.0
 13
14.956798
 23
9.517161
 33
0.0
  0
SOLID
  8
DIM
 10
13.846798
 20
9.457161
 30
0.0
 11
13.846798
 21
9.577161
 31
0.0
 12
14.206798
 22
9.517161
 32
0.0
 13
14.206798
 23
9.517161
 33
0.0
  0
TEXT
  8
DIM
 10
15.836495
 20
9.392161
 30
0.0
 40
0.25
  1
0.750
 41
0.75
  0
LINE
  8
DIM
 10
13.546798
 20
10.168209
 30
0.0
 11
13.546798
 21
9.576898
 31
0.0
  0
LINE
  8
DIM
 10
14.956798
 20
10.168209
 30
0.0
 11
14.956798
 21
8.793532
 31
0.0
  0
LINE
  8
DIM
 10
15.316798
 20
8.979532
 30
0.0
 11
15.676798
 21
8.979532
 31
0.0
  0
LINE
  8
DIM
 10
13.186798
 20
8.979532
 30
0.0
 11
12.826798
 21
8.979532
 31
0.0
  0
SOLID
  8
DIM
 10
15.316798
 20
8.919532
 30
0.0
 11
15.316798
 21
9.039532
 31
0.0
 12
14.956798
 22
8.979532
 32
0.0
 13
14.956798
 23
8.979532
 33
0.0
  0
SOLID
  8
DIM
 10
13.186798
 20
8.919532
 30
0.0
 11
13.186798
 21
9.039532
 31
0.0
 12
13.546798
 22
8.979532
 32
0.0
 13
13.546798
 23
8.979532
 33
0.0
  0
TEXT
  8
DIM
 10
13.989173
 20
8.854532
 30
0.0
 40
0.25
  1
1.410
 41
0.75
  0
LINE
  8
DIM
 10
13.546798
 20
9.440357
 30
0.0
 11
13.546798
 21
8.793532
 31
0.0
  0
LINE
  8
0
 62
     0
 10
3.129656
 20
7.036966
 30
0.0
 11
3.019656
 21
7.146966
 31
0.0
  0
LINE
  8
0
 62
     0
 10
3.129656
 20
7.213966
 30
0.0
 11
3.019656
 21
7.323966
 31
0.0
  0
LINE
  8
0
 62
     0
 10
3.129656
 20
7.390966
 30
0.0
 11
3.064864
 21
7.455758
 31
0.0
  0
LINE
  8
OBJECT
 10
3.924656
 20
7.575758
 30
0.0
 11
3.924656
 21
6.877758
 31
0.0
  0
LINE
  8
OBJECT
 10
3.924656
 20
7.575758
 30
0.0
 11
5.274656
 21
7.575758
 31
0.0
  0
LINE
  8
OBJECT
 10
5.274656
 20
7.575758
 30
0.0
 11
5.274656
 21
6.877758
 31
0.0
  0
LINE
  8
OBJECT
 10
5.274656
 20
7.515758
 30
0.0
 11
6.908394
 21
7.515758
 31
0.0
  0
LINE
  8
OBJECT
 10
3.849656
 20
6.877758
 30
0.0
 11
3.849656
 21
6.815758
 31
0.0
  0
LINE
  8
OBJECT
 10
5.349656
 20
6.877758
 30
0.0
 11
5.349656
 21
6.815758
 31
0.0
  0
LINE
  8
OBJECT
 10
3.849656
 20
6.877758
 30
0.0
 11
3.924656
 21
6.877758
 31
0.0
  0
LINE
  8
OBJECT
 10
5.274656
 20
6.877758
 30
0.0
 11
5.349656
 21
6.877758
 31
0.0
  0
LINE
  8
OBJECT
 10
5.559656
 20
1.549645
 30
0.0
 11
5.559656
 21
4.689645
 31
0.0
  0
LINE
  8
OBJECT
 10
5.534656
 20
1.549645
 30
0.0
 11
5.534656
 21
4.689645
 31
0.0
  0
LINE
  8
OBJECT
 10
5.534656
 20
1.549645
 30
0.0
 11
3.769656
 21
1.549645
 31
0.0
  0
LINE
  8
OBJECT
 10
5.534656
 20
4.689645
 30
0.0
 11
3.769656
 21
4.689645
 31
0.0
  0
LINE
  8
OBJECT
 10
3.950656
 20
1.999645
 30
0.0
 11
3.950656
 21
4.239645
 31
0.0
  0
LINE
  8
OBJECT
 10
5.253656
 20
1.999645
 30
0.0
 11
5.253656
 21
4.239645
 31
0.0
  0
LINE
  8
OBJECT
 10
5.253656
 20
4.239645
 30
0.0
 11
3.950656
 21
4.239645
 31
0.0
  0
LINE
  8
OBJECT
 10
5.253656
 20
1.999645
 30
0.0
 11
3.950656
 21
1.999645
 31
0.0
  0
LINE
  8
0
 62
     0
 10
14.706798
 20
26.493561
 30
0.0
 11
14.596798
 21
26.603561
 31
0.0
  0
LINE
  8
0
 62
     0
 10
14.706798
 20
26.316785
 30
0.0
 11
14.596798
 21
26.426785
 31
0.0
  0
LINE
  8
0
 62
     0
 10
14.706798
 20
26.140008
 30
0.0
 11
14.596798
 21
26.250008
 31
0.0
  0
LINE
  8
0
 62
     0
 10
14.706798
 20
25.963231
 30
0.0
 11
14.596798
 21
26.073231
 31
0.0
  0
LINE
  8
0
 62
     0
 10
14.706798
 20
25.786454
 30
0.0
 11
14.596798
 21
25.896454
 31
0.0
  0
LINE
  8
0
 62
     0
 10
14.706798
 20
25.609678
 30
0.0
 11
14.596798
 21
25.719678
 31
0.0
  0
LINE
  8
0
 62
     0
 10
14.706798
 20
25.432901
 30
0.0
 11
14.596798
 21
25.542901
 31
0.0
  0
LINE
  8
0
 62
     0
 10
14.690562
 20
25.27236
 30
0.0
 11
14.596798
 21
25.366124
 31
0.0
  0
LINE
  8
0
 62
     0
 10
14.617047
 20
25.169099
 30
0.0
 11
14.547413
 21
25.238732
 31
0.0
  0
LINE
  8
0
 62
     0
 10
14.495388
 20
25.113981
 30
0.0
 11
14.388384
 21
25.220985
 31
0.0
  0
LINE
  8
0
 62
     0
 10
14.321608
 20
25.110985
 30
0.0
 11
14.211608
 21
25.220985
 31
0.0
  0
LINE
  8
0
 62
     0
 10
13.597133
 20
26.955643
 30
0.0
 11
13.707133
 21
27.065643
 31
0.0
  0
LINE
  8
0
 62
     0
 10
13.597133
 20
26.778866
 30
0.0
 11
13.707133
 21
26.888866
 31
0.0
  0
LINE
  8
0
 62
     0
 10
13.597133
 20
26.602089
 30
0.0
 11
13.707133
 21
26.712089
 31
0.0
  0
LINE
  8
0
 62
     0
 10
14.706798
 20
26.670338
 30
0.0
 11
14.596798
 21
26.780338
 31
0.0
  0
LINE
  8
0
 62
     0
 10
14.706798
 20
26.847115
 30
0.0
 11
14.596798
 21
26.957115
 31
0.0
  0
LINE
  8
0
 62
     0
 10
14.706798
 20
27.023891
 30
0.0
 11
14.596798
 21
27.133891
 31
0.0
  0
LINE
  8
DIM
 10
14.956798
 20
26.099009
 30
0.0
 11
15.316798
 21
26.099009
 31
0.0
  0
LINE
  8
DIM
 10
13.347133
 20
26.099009
 30
0.0
 11
12.987133
 21
26.099009
 31
0.0
  0
SOLID
  8
DIM
 10
14.956798
 20
26.039009
 30
0.0
 11
14.956798
 21
26.159009
 31
0.0
 12
14.596798
 22
26.099009
 32
0.0
 13
14.596798
 23
26.099009
 33
0.0
  0
SOLID
  8
DIM
 10
13.347133
 20
26.039009
 30
0.0
 11
13.347133
 21
26.159009
 31
0.0
 12
13.707133
 22
26.099009
 32
0.0
 13
13.707133
 23
26.099009
 33
0.0
  0
TEXT
  8
DIM
 10
15.43126
 20
25.974009
 30
0.0
 40
0.25
  1
0.890
 41
0.75
  0
SOLID
  8
DIM
 10
8.145225
 20
17.69404
 30
0.0
 11
8.222738
 21
17.785646
 31
0.0
 12
7.909162
 22
17.972382
 32
0.0
 13
7.909162
 23
17.972382
 33
0.0
  0
LINE
  8
DIM
 10
8.183981
 20
17.739843
 30
0.0
 11
9.280084
 21
16.812369
 31
0.0
  0
LINE
  8
DIM
 10
9.280084
 20
16.812369
 30
0.0
 11
9.640084
 21
16.812369
 31
0.0
  0
TEXT
  8
DIM
 10
9.792296
 20
16.646653
 30
0.0
 40
0.25
  1
3.130 X 5.000
 41
0.75
  0
TEXT
  8
DIM
 10
9.792296
 20
16.229986
 30
0.0
 40
0.25
  1
INSERT AREA
 41
0.75
  0
LINE
  8
DIM
 10
5.274656
 20
7.700758
 30
0.0
 11
5.274656
 21
9.021758
 31
0.0
  0
LINE
  8
DIM
 10
3.924656
 20
7.700758
 30
0.0
 11
3.924656
 21
9.021758
 31
0.0
  0
LINE
  8
DIM
 10
3.564656
 20
8.835758
 30
0.0
 11
3.204656
 21
8.835758
 31
0.0
  0
LINE
  8
DIM
 10
5.634656
 20
8.835758
 30
0.0
 11
5.994656
 21
8.835758
 31
0.0
  0
SOLID
  8
DIM
 10
3.564656
 20
8.775758
 30
0.0
 11
3.564656
 21
8.895758
 31
0.0
 12
3.924656
 22
8.835758
 32
0.0
 13
3.924656
 23
8.835758
 33
0.0
  0
SOLID
  8
DIM
 10
5.634656
 20
8.775758
 30
0.0
 11
5.634656
 21
8.895758
 31
0.0
 12
5.274656
 22
8.835758
 32
0.0
 13
5.274656
 23
8.835758
 33
0.0
  0
TEXT
  8
DIM
 10
4.281168
 20
8.710758
 30
0.0
 40
0.25
  1
1.350
 41
0.75
  0
LINE
  8
DIM
 10
3.129656
 20
8.021758
 30
0.0
 11
3.129656
 21
8.617075
 31
0.0
  0
LINE
  8
DIM
 10
2.769656
 20
8.431075
 30
0.0
 11
2.409656
 21
8.431075
 31
0.0
  0
LINE
  8
DIM
 10
4.284656
 20
8.431075
 30
0.0
 11
4.644656
 21
8.431075
 31
0.0
  0
SOLID
  8
DIM
 10
2.769656
 20
8.371075
 30
0.0
 11
2.769656
 21
8.491075
 31
0.0
 12
3.129656
 22
8.431075
 32
0.0
 13
3.129656
 23
8.431075
 33
0.0
  0
SOLID
  8
DIM
 10
4.284656
 20
8.371075
 30
0.0
 11
4.284656
 21
8.491075
 31
0.0
 12
3.924656
 22
8.431075
 32
0.0
 13
3.924656
 23
8.431075
 33
0.0
  0
TEXT
  8
DIM
 10
1.519403
 20
8.306075
 30
0.0
 40
0.25
  1
0.795
 41
0.75
  0
SOLID
  8
DIM
 10
8.145225
 20
1.80087
 30
0.0
 11
8.222738
 21
1.892476
 31
0.0
 12
7.909162
 22
2.079213
 32
0.0
 13
7.909162
 23
2.079213
 33
0.0
  0
LINE
  8
DIM
 10
8.183981
 20
1.846673
 30
0.0
 11
9.280084
 21
0.9192
 31
0.0
  0
LINE
  8
DIM
 10
9.280084
 20
0.9192
 30
0.0
 11
9.640084
 21
0.9192
 31
0.0
  0
TEXT
  8
DIM
 10
9.792296
 20
0.753483
 30
0.0
 40
0.25
  1
3.180 x 3.130
 41
0.75
  0
TEXT
  8
DIM
 10
9.792296
 20
0.336817
 30
0.0
 40
0.25
  1
INSERT AREA
 41
0.75
  0
TEXT
  8
TEXT
 10
13.840903
 20
6.080287
 30
0.0
 40
0.25
  1
& 9-VOLT BATTERY
 41
0.75
  0
TEXT
  8
TEXT
 10
13.840903
 20
5.663216
 30
0.0
 40
0.25
  1
COMPARTMENT
 41
0.75
  0
LINE
  8
DIM
 10
5.399656
 20
7.575758
 30
0.0
 11
5.99736
 21
7.575758
 31
0.0
  0
LINE
  8
DIM
 10
5.81136
 20
6.455758
 30
0.0
 11
5.81136
 21
6.095758
 31
0.0
  0
LINE
  8
DIM
 10
5.81136
 20
7.935758
 30
0.0
 11
5.81136
 21
8.295758
 31
0.0
  0
LINE
  8
DIM
 10
5.81136
 20
6.095758
 30
0.0
 11
5.45136
 21
6.095758
 31
0.0
  0
SOLID
  8
DIM
 10
5.87136
 20
6.455758
 30
0.0
 11
5.75136
 21
6.455758
 31
0.0
 12
5.81136
 22
6.815758
 32
0.0
 13
5.81136
 23
6.815758
 33
0.0
  0
SOLID
  8
DIM
 10
5.87136
 20
7.935758
 30
0.0
 11
5.75136
 21
7.935758
 31
0.0
 12
5.81136
 22
7.575758
 32
0.0
 13
5.81136
 23
7.575758
 33
0.0
  0
TEXT
  8
DIM
 10
4.604077
 20
5.970758
 30
0.0
 40
0.25
  1
0.760
 41
0.75
  0
DIMENSION
  8
DIM
  2
*D0
 10
3.605156
 20
24.727893
 30
0.0
 11
6.172156
 21
24.727893
 31
0.0
 12
-0.002
 22
0.0
 32
0.0
 13
8.735156
 23
25.598485
 33
0.0
 14
3.605156
 24
25.598985
 34
0.0
  0
DIMENSION
  8
DIM
  2
*D1
 10
3.019656
 20
24.727893
 30
0.0
 11
1.760281
 21
24.727893
 31
0.0
 13
3.605156
 23
25.598985
 33
0.0
 14
3.019656
 24
25.360985
 34
0.0
  0
DIMENSION
  8
DIM
  2
*D3
 10
3.605156
 20
9.535335
 30
0.0
 11
6.170156
 21
9.535335
 31
0.0
 13
8.735156
 23
10.530709
 33
0.0
 14
3.605156
 24
10.531209
 34
0.0
  0
DIMENSION
  8
DIM
  2
*D2
 10
3.019656
 20
9.535335
 30
0.0
 11
1.760281
 21
9.535335
 31
0.0
 13
3.605156
 23
10.531209
 33
0.0
 14
3.019656
 24
10.293209
 34
0.0
  0
TEXT
  8
TEXT
 10
12.123429
 20
17.547178
 30
0.0
 40
0.25
  1
%%UNOTE:%%U ALL DIMENSIONS HAVE %%P0.015 TOLERANCE
 41
0.75
  0
TEXT
  8
TEXT
 10
13.052996
 20
17.142428
 30
0.0
 40
0.25
  1
UNLESS OTHERWISE SPECIFIED.
 41
0.75
  0
TEXT
  8
TEXT
 10
13.052996
 20
1.512902
 30
0.0
 40
0.25
  1
UNLESS OTHERWISE SPECIFIED.
 41
0.75
  0
TEXT
  8
TEXT
 10
12.123429
 20
1.917652
 30
0.0
 40
0.25
  1
%%UNOTE:%%U ALL DIMENSIONS HAVE %%P0.015 TOLERANCE
 41
0.75
  0
ENDSEC
  0
EOF
