  0
SECTION
  2
HEADER
  9
$ACADVER
  1
AC1009
  9
$INSBASE
 10
0.0
 20
0.0
 30
0.0
  9
$EXTMIN
 10
0.0
 20
0.0
 30
0.0
  9
$EXTMAX
 10
21.252
 20
32.55
 30
0.0
  9
$LIMMIN
 10
0.0
 20
0.0
  9
$LIMMAX
 10
12.0
 20
9.0
  9
$ORTHOMODE
 70
     1
  9
$REGENMODE
 70
     1
  9
$FILLMODE
 70
     1
  9
$QTEXTMODE
 70
     0
  9
$MIRRTEXT
 70
     0
  9
$DRAGMODE
 70
     2
  9
$LTSCALE
 40
0.5
  9
$OSMODE
 70
     0
  9
$ATTMODE
 70
     1
  9
$TEXTSIZE
 40
0.25
  9
$TRACEWID
 40
0.05
  9
$TEXTSTYLE
  7
STANDARD
  9
$CLAYER
  8
OBJECT
  9
$CELTYPE
  6
BYLAYER
  9
$CECOLOR
 62
   256
  9
$DIMSCALE
 40
2.0
  9
$DIMASZ
 40
0.18
  9
$DIMEXO
 40
0.0625
  9
$DIMDLI
 40
0.38
  9
$DIMRND
 40
0.0
  9
$DIMDLE
 40
0.0
  9
$DIMEXE
 40
0.093
  9
$DIMTP
 40
0.0
  9
$DIMTM
 40
0.0
  9
$DIMTXT
 40
0.125
  9
$DIMCEN
 40
0.09
  9
$DIMTSZ
 40
0.0
  9
$DIMTOL
 70
     0
  9
$DIMLIM
 70
     0
  9
$DIMTIH
 70
     1
  9
$DIMTOH
 70
     1
  9
$DIMSE1
 70
     0
  9
$DIMSE2
 70
     0
  9
$DIMTAD
 70
     0
  9
$DIMZIN
 70
     0
  9
$DIMBLK
  1

  9
$DIMASO
 70
     1
  9
$DIMSHO
 70
     1
  9
$DIMPOST
  1

  9
$DIMAPOST
  1

  9
$DIMALT
 70
     0
  9
$DIMALTD
 70
     2
  9
$DIMALTF
 40
25.4
  9
$DIMLFAC
 40
1.0
  9
$DIMTOFL
 70
     0
  9
$DIMTVP
 40
0.0
  9
$DIMTIX
 70
     0
  9
$DIMSOXD
 70
     0
  9
$DIMSAH
 70
     0
  9
$DIMBLK1
  1

  9
$DIMBLK2
  1

  9
$DIMSTYLE
  2
*UNNAMED
  9
$DIMCLRD
 70
     0
  9
$DIMCLRE
 70
     0
  9
$DIMCLRT
 70
     0
  9
$DIMTFAC
 40
1.0
  9
$DIMGAP
 40
0.09
  9
$LUNITS
 70
     2
  9
$LUPREC
 70
     3
  9
$SKETCHINC
 40
0.1
  9
$FILLETRAD
 40
0.0
  9
$AUNITS
 70
     0
  9
$AUPREC
 70
     0
  9
$MENU
  1
acad
  9
$ELEVATION
 40
0.0
  9
$PELEVATION
 40
0.0
  9
$THICKNESS
 40
0.0
  9
$LIMCHECK
 70
     0
  9
$BLIPMODE
 70
     1
  9
$CHAMFERA
 40
0.0
  9
$CHAMFERB
 40
0.0
  9
$SKPOLY
 70
     0
  9
$TDCREATE
 40
2448432.318981597
  9
$TDUPDATE
 40
2450604.457505787
  9
$TDINDWG
 40
0.0174459491
  9
$TDUSRTIMER
 40
0.0174459491
  9
$USRTIMER
 70
     1
  9
$ANGBASE
 50
0.0
  9
$ANGDIR
 70
     0
  9
$PDMODE
 70
     0
  9
$PDSIZE
 40
0.0
  9
$PLINEWID
 40
0.0
  9
$COORDS
 70
     0
  9
$SPLFRAME
 70
     0
  9
$SPLINETYPE
 70
     6
  9
$SPLINESEGS
 70
     8
  9
$ATTDIA
 70
     0
  9
$ATTREQ
 70
     1
  9
$HANDLING
 70
     0
  9
$HANDSEED
  5
0
  9
$SURFTAB1
 70
     6
  9
$SURFTAB2
 70
     6
  9
$SURFTYPE
 70
     6
  9
$SURFU
 70
     6
  9
$SURFV
 70
     6
  9
$UCSNAME
  2

  9
$UCSORG
 10
0.0
 20
0.0
 30
0.0
  9
$UCSXDIR
 10
1.0
 20
0.0
 30
0.0
  9
$UCSYDIR
 10
0.0
 20
1.0
 30
0.0
  9
$PUCSNAME
  2

  9
$PUCSORG
 10
0.0
 20
0.0
 30
0.0
  9
$PUCSXDIR
 10
1.0
 20
0.0
 30
0.0
  9
$PUCSYDIR
 10
0.0
 20
1.0
 30
0.0
  9
$USERI1
 70
     0
  9
$USERI2
 70
     0
  9
$USERI3
 70
     0
  9
$USERI4
 70
     0
  9
$USERI5
 70
     0
  9
$USERR1
 40
0.0
  9
$USERR2
 40
0.0
  9
$USERR3
 40
0.0
  9
$USERR4
 40
0.0
  9
$USERR5
 40
0.0
  9
$WORLDVIEW
 70
     1
  9
$SHADEDGE
 70
     3
  9
$SHADEDIF
 70
    70
  9
$TILEMODE
 70
     1
  9
$MAXACTVP
 70
    16
  9
$PINSBASE
 10
0.0
 20
0.0
 30
0.0
  9
$PLIMCHECK
 70
     0
  9
$PEXTMIN
 10
1.000000E+20
 20
1.000000E+20
 30
1.000000E+20
  9
$PEXTMAX
 10
-1.000000E+20
 20
-1.000000E+20
 30
-1.000000E+20
  9
$PLIMMIN
 10
0.0
 20
0.0
  9
$PLIMMAX
 10
12.0
 20
9.0
  9
$UNITMODE
 70
     0
  9
$VISRETAIN
 70
     0
  9
$PLINEGEN
 70
     0
  9
$PSLTSCALE
 70
     0
  9
$TREEDEPTH
 70
  3020
  9
$DWGCODEPAGE
  3
undefined
  0
ENDSEC
  0
SECTION
  2
TABLES
  0
TABLE
  2
VPORT
 70
     2
  0
VPORT
  2
*ACTIVE
 70
     0
 10
0.0
 20
0.0
 11
1.0
 21
1.0
 12
22.172076
 22
16.275
 13
0.0
 23
0.0
 14
1.0
 24
1.0
 15
0.5
 25
0.5
 16
0.0
 26
0.0
 36
1.0
 17
0.0
 27
0.0
 37
0.0
 40
32.55
 41
1.36234
 42
50.0
 43
0.0
 44
0.0
 50
0.0
 51
0.0
 71
     0
 72
   100
 73
     1
 74
     0
 75
     0
 76
     0
 77
     0
 78
     0
  0
ENDTAB
  0
TABLE
  2
LTYPE
 70
     4
  0
LTYPE
  2
CONTINUOUS
 70
    64
  3
Solid line
 72
    65
 73
     0
 40
0.0
  0
LTYPE
  2
HIDDEN
 70
    64
  3
_ _ _ _ _ _ _ _ _ _ _ _ _ _ _ _ _ _ _ _ _ _ _
 72
    65
 73
     2
 40
0.375
 49
0.25
 49
-0.125
  0
LTYPE
  2
PHANTOM
 70
    64
  3
_____ _ _ _____ _ _ _____ _ _ _____ _ _ ____
 72
    65
 73
     6
 40
2.5
 49
1.25
 49
-0.25
 49
0.25
 49
-0.25
 49
0.25
 49
-0.25
  0
LTYPE
  2
CENTER
 70
    64
  3
____ _ ____ _ ____ _ ____ _ ____ _ ____ _ ____
 72
    65
 73
     4
 40
2.0
 49
1.25
 49
-0.25
 49
0.25
 49
-0.25
  0
ENDTAB
  0
TABLE
  2
LAYER
 70
     9
  0
LAYER
  2
0
 70
    64
 62
     7
  6
CONTINUOUS
  0
LAYER
  2
OBJECT
 70
    64
 62
     7
  6
CONTINUOUS
  0
LAYER
  2
DIM
 70
    64
 62
     7
  6
CONTINUOUS
  0
LAYER
  2
HIDDEN
 70
    64
 62
     7
  6
HIDDEN
  0
LAYER
  2
BEND
 70
    64
 62
     7
  6
PHANTOM
  0
LAYER
  2
TEXT
 70
    64
 62
     7
  6
CONTINUOUS
  0
LAYER
  2
TITLE
 70
    64
 62
     7
  6
CONTINUOUS
  0
LAYER
  2
CENTER
 70
    64
 62
     7
  6
CENTER
  0
LAYER
  2
DEFPOINTS
 70
    64
 62
     7
  6
CONTINUOUS
  0
ENDTAB
  0
TABLE
  2
STYLE
 70
     1
  0
STYLE
  2
STANDARD
 70
    64
 40
0.0
 41
0.75
 50
0.0
 71
     0
 42
0.25
  3
TXT.shx
  4

  0
ENDTAB
  0
TABLE
  2
VIEW
 70
     0
  0
ENDTAB
  0
TABLE
  2
UCS
 70
     0
  0
ENDTAB
  0
TABLE
  2
APPID
 70
     1
  0
APPID
  2
ACAD
 70
    64
  0
ENDTAB
  0
TABLE
  2
DIMSTYLE
 70
     0
  0
ENDTAB
  0
ENDSEC
  0
SECTION
  2
BLOCKS
  0
BLOCK
  8
0
  2
*D0
 70
    65
 10
0.0
 20
0.0
 30
0.0
  3
*D
  0
LINE
  8
0
  6
BYBLOCK
 62
     0
 10
3.611356
 20
26.887882
 30
0.0
 11
3.611356
 21
25.84874
 31
0.0
  0
LINE
  8
0
  6
BYBLOCK
 62
     0
 10
3.025856
 20
26.649882
 30
0.0
 11
3.025856
 21
25.84874
 31
0.0
  0
LINE
  8
0
  6
BYBLOCK
 62
     0
 10
3.971356
 20
26.03474
 30
0.0
 11
4.331356
 21
26.03474
 31
0.0
  0
LINE
  8
0
  6
BYBLOCK
 62
     0
 10
2.665856
 20
26.03474
 30
0.0
 11
2.305856
 21
26.03474
 31
0.0
  0
SOLID
  8
0
  6
BYBLOCK
 62
     0
 10
3.971356
 20
26.09474
 30
0.0
 11
3.971356
 21
25.97474
 31
0.0
 12
3.611356
 22
26.03474
 32
0.0
 13
3.611356
 23
26.03474
 33
0.0
  0
SOLID
  8
0
  6
BYBLOCK
 62
     0
 10
2.665856
 20
26.09474
 30
0.0
 11
2.665856
 21
25.97474
 31
0.0
 12
3.025856
 22
26.03474
 32
0.0
 13
3.025856
 23
26.03474
 33
0.0
  0
TEXT
  8
0
  6
BYBLOCK
 62
     0
 10
1.407106
 20
25.90974
 30
0.0
 40
0.25
  1
0.585
 41
0.75
 72
     1
 11
1.766481
 21
26.03474
 31
0.0
 73
     2
  0
POINT
  8
DEFPOINTS
  6
BYBLOCK
 62
     0
 10
3.611356
 20
27.012882
 30
0.0
  0
POINT
  8
DEFPOINTS
  6
BYBLOCK
 62
     0
 10
3.025856
 20
26.774882
 30
0.0
  0
POINT
  8
DEFPOINTS
  6
BYBLOCK
 62
     0
 10
3.025856
 20
26.03474
 30
0.0
  0
ENDBLK
  8
0
  0
BLOCK
  8
0
  2
*D1
 70
    65
 10
0.0
 20
0.0
 30
0.0
  3
*D
  0
LINE
  8
0
  6
BYBLOCK
 62
     0
 10
8.741356
 20
26.887382
 30
0.0
 11
8.741356
 21
25.84874
 31
0.0
  0
LINE
  8
0
  6
BYBLOCK
 62
     0
 10
3.611356
 20
26.887882
 30
0.0
 11
3.611356
 21
25.84874
 31
0.0
  0
LINE
  8
0
  6
BYBLOCK
 62
     0
 10
8.381356
 20
26.03474
 30
0.0
 11
6.684481
 21
26.03474
 31
0.0
  0
LINE
  8
0
  6
BYBLOCK
 62
     0
 10
3.971356
 20
26.03474
 30
0.0
 11
5.668231
 21
26.03474
 31
0.0
  0
SOLID
  8
0
  6
BYBLOCK
 62
     0
 10
8.381356
 20
26.09474
 30
0.0
 11
8.381356
 21
25.97474
 31
0.0
 12
8.741356
 22
26.03474
 32
0.0
 13
8.741356
 23
26.03474
 33
0.0
  0
SOLID
  8
0
  6
BYBLOCK
 62
     0
 10
3.971356
 20
26.09474
 30
0.0
 11
3.971356
 21
25.97474
 31
0.0
 12
3.611356
 22
26.03474
 32
0.0
 13
3.611356
 23
26.03474
 33
0.0
  0
TEXT
  8
0
  6
BYBLOCK
 62
     0
 10
5.848231
 20
25.90974
 30
0.0
 40
0.25
  1
5.130
 41
0.75
 72
     1
 11
6.176356
 21
26.03474
 31
0.0
 73
     2
  0
POINT
  8
DEFPOINTS
  6
BYBLOCK
 62
     0
 10
8.741356
 20
27.012382
 30
0.0
  0
POINT
  8
DEFPOINTS
  6
BYBLOCK
 62
     0
 10
3.611356
 20
27.012882
 30
0.0
  0
POINT
  8
DEFPOINTS
  6
BYBLOCK
 62
     0
 10
3.611356
 20
26.03474
 30
0.0
  0
ENDBLK
  8
0
  0
BLOCK
  8
0
  2
*D2
 70
    65
 10
0.0
 20
0.0
 30
0.0
  3
*D
  0
LINE
  8
0
  6
BYBLOCK
 62
     0
 10
3.605156
 20
10.406209
 30
0.0
 11
3.605156
 21
9.415575
 31
0.0
  0
LINE
  8
0
  6
BYBLOCK
 62
     0
 10
3.019656
 20
10.168209
 30
0.0
 11
3.019656
 21
9.415575
 31
0.0
  0
LINE
  8
0
  6
BYBLOCK
 62
     0
 10
3.965156
 20
9.601575
 30
0.0
 11
4.325156
 21
9.601575
 31
0.0
  0
LINE
  8
0
  6
BYBLOCK
 62
     0
 10
2.659656
 20
9.601575
 30
0.0
 11
2.299656
 21
9.601575
 31
0.0
  0
SOLID
  8
0
  6
BYBLOCK
 62
     0
 10
3.965156
 20
9.661575
 30
0.0
 11
3.965156
 21
9.541575
 31
0.0
 12
3.605156
 22
9.601575
 32
0.0
 13
3.605156
 23
9.601575
 33
0.0
  0
SOLID
  8
0
  6
BYBLOCK
 62
     0
 10
2.659656
 20
9.661575
 30
0.0
 11
2.659656
 21
9.541575
 31
0.0
 12
3.019656
 22
9.601575
 32
0.0
 13
3.019656
 23
9.601575
 33
0.0
  0
TEXT
  8
0
  6
BYBLOCK
 62
     0
 10
1.400906
 20
9.476575
 30
0.0
 40
0.25
  1
0.585
 41
0.75
 72
     1
 11
1.760281
 21
9.601575
 31
0.0
 73
     2
  0
POINT
  8
DEFPOINTS
  6
BYBLOCK
 62
     0
 10
3.605156
 20
10.531209
 30
0.0
  0
POINT
  8
DEFPOINTS
  6
BYBLOCK
 62
     0
 10
3.019656
 20
10.293209
 30
0.0
  0
POINT
  8
DEFPOINTS
  6
BYBLOCK
 62
     0
 10
3.019656
 20
9.601575
 30
0.0
  0
ENDBLK
  8
0
  0
BLOCK
  8
0
  2
*D3
 70
    65
 10
0.0
 20
0.0
 30
0.0
  3
*D
  0
LINE
  8
0
  6
BYBLOCK
 62
     0
 10
8.735156
 20
10.405709
 30
0.0
 11
8.735156
 21
9.415575
 31
0.0
  0
LINE
  8
0
  6
BYBLOCK
 62
     0
 10
3.605156
 20
10.406209
 30
0.0
 11
3.605156
 21
9.415575
 31
0.0
  0
LINE
  8
0
  6
BYBLOCK
 62
     0
 10
8.375156
 20
9.601575
 30
0.0
 11
6.678281
 21
9.601575
 31
0.0
  0
LINE
  8
0
  6
BYBLOCK
 62
     0
 10
3.965156
 20
9.601575
 30
0.0
 11
5.662031
 21
9.601575
 31
0.0
  0
SOLID
  8
0
  6
BYBLOCK
 62
     0
 10
8.375156
 20
9.661575
 30
0.0
 11
8.375156
 21
9.541575
 31
0.0
 12
8.735156
 22
9.601575
 32
0.0
 13
8.735156
 23
9.601575
 33
0.0
  0
SOLID
  8
0
  6
BYBLOCK
 62
     0
 10
3.965156
 20
9.661575
 30
0.0
 11
3.965156
 21
9.541575
 31
0.0
 12
3.605156
 22
9.601575
 32
0.0
 13
3.605156
 23
9.601575
 33
0.0
  0
TEXT
  8
0
  6
BYBLOCK
 62
     0
 10
5.842031
 20
9.476575
 30
0.0
 40
0.25
  1
5.130
 41
0.75
 72
     1
 11
6.170156
 21
9.601575
 31
0.0
 73
     2
  0
POINT
  8
DEFPOINTS
  6
BYBLOCK
 62
     0
 10
8.735156
 20
10.530709
 30
0.0
  0
POINT
  8
DEFPOINTS
  6
BYBLOCK
 62
     0
 10
3.605156
 20
10.531209
 30
0.0
  0
POINT
  8
DEFPOINTS
  6
BYBLOCK
 62
     0
 10
3.605156
 20
9.601575
 30
0.0
  0
ENDBLK
  8
0
  0
ENDSEC
  0
SECTION
  2
ENTITIES
  0
LINE
  8
TITLE
 10
0.1302
 20
16.275
 30
0.0
 11
21.1218
 21
16.275
 31
0.0
  0
LINE
  8
TITLE
 10
0.1302
 20
16.1448
 30
0.0
 11
21.1218
 21
16.1448
 31
0.0
  0
LINE
  8
TITLE
 10
0.1302
 20
15.267
 30
0.0
 11
21.1218
 21
15.267
 31
0.0
  0
LINE
  8
TITLE
 10
1.7052
 20
15.267
 30
0.0
 11
1.7052
 21
16.1448
 31
0.0
  0
LINE
  8
TITLE
 10
10.626
 20
16.1448
 30
0.0
 11
10.626
 21
15.267
 31
0.0
  0
LINE
  8
TITLE
 10
10.7562
 20
16.1448
 30
0.0
 11
10.7562
 21
15.267
 31
0.0
  0
LINE
  8
TITLE
 10
12.3312
 20
16.1448
 30
0.0
 11
12.3312
 21
15.267
 31
0.0
  0
TEXT
  8
TEXT
 10
11.182763
 20
15.788666
 30
0.0
 40
0.2625
  1
PART
 41
0.75
 72
     1
 11
11.5437
 21
15.788666
 31
0.0
  0
TEXT
  8
TEXT
 10
11.346825
 20
15.351166
 30
0.0
 40
0.2625
  1
No.
 41
0.75
 72
     1
 11
11.5437
 21
15.351166
 31
0.0
  0
TEXT
  8
TEXT
 10
0.556763
 20
15.788666
 30
0.0
 40
0.2625
  1
PART
 41
0.75
 72
     1
 11
0.9177
 21
15.788666
 31
0.0
  0
TEXT
  8
TEXT
 10
0.556763
 20
15.351166
 30
0.0
 40
0.2625
  1
NAME
 41
0.75
 72
     1
 11
0.9177
 21
15.351166
 31
0.0
  0
TEXT
  8
DIM
 10
14.32863
 20
26.004199
 30
0.0
 40
0.25
  1

  0
TEXT
  8
TEXT
 10
3.40935
 20
31.78455
 30
0.0
 40
0.39375
  1
PLASTIBOX  (STYLE C)
 41
0.75
 72
     1
 11
6.1656
 21
31.78455
 31
0.0
  0
TEXT
  8
TEXT
 10
15.692906
 20
31.78455
 30
0.0
 40
0.39375
  1
PS-11276
 41
0.75
 72
     1
 11
16.7265
 21
31.78455
 31
0.0
  0
TEXT
  8
TEXT
 10
12.7209
 20
3.080024
 30
0.0
 40
0.25
  1
IS 3.500 x 6.060.
 41
0.75
  0
TEXT
  8
TEXT
 10
12.448867
 20
3.49669
 30
0.0
 40
0.25
  1
USABLE BOARD AREA
 41
0.75
  0
TEXT
  8
TEXT
 10
12.448867
 20
4.249301
 30
0.0
 40
0.25
  1
FOUR (4) NON-SKID FEET SUPPLIED.
 41
0.75
  0
TEXT
  8
TEXT
 10
12.703898
 20
5.108014
 30
0.0
 40
0.25
  1
SUPPLIED FOR ASSEMBLING TOP.
 41
0.75
  0
TEXT
  8
TEXT
 10
12.448867
 20
5.524681
 30
0.0
 40
0.25
  1
FOUR (4) #4 x 0.625" LG. SCREWS
 41
0.75
  0
TEXT
  8
TEXT
 10
14.16607
 20
6.190125
 30
0.0
 40
0.25
  1
SMOOTH TOP INSERT
 41
0.75
  0
TEXT
  8
TEXT
 10
12.448867
 20
6.606792
 30
0.0
 40
0.25
  1
%%UFINISH:%%U TEXTURED BODY WITH
 41
0.75
  0
TEXT
  8
TEXT
 10
12.448867
 20
7.023458
 30
0.0
 40
0.25
  1
%%UCOLOR:%%U PC BONE GRAY
 41
0.75
  0
TEXT
  8
TEXT
 10
12.448867
 20
7.440125
 30
0.0
 40
0.25
  1
%%UMATERIAL:%%u HIGH-IMPACT POLYSTYRENE
 41
0.75
  0
TEXT
  8
DIM
 10
10.88684
 20
14.034325
 30
0.0
 40
0.25
  1
INSERT AREA
 41
0.75
  0
TEXT
  8
DIM
 10
10.88684
 20
14.450992
 30
0.0
 40
0.25
  1
2.900 x 5.025
 41
0.75
  0
LINE
  8
DIM
 10
10.330047
 20
14.574512
 30
0.0
 11
10.690047
 21
14.574512
 31
0.0
  0
LINE
  8
DIM
 10
8.380495
 20
12.949885
 30
0.0
 11
10.330047
 21
14.574512
 31
0.0
  0
SOLID
  8
DIM
 10
8.418906
 20
12.903792
 30
0.0
 11
8.342084
 21
12.995978
 31
0.0
 12
8.103935
 22
12.719419
 32
0.0
 13
8.103935
 23
12.719419
 33
0.0
  0
TEXT
  8
DIM
 10
9.892172
 20
2.994645
 30
0.0
 40
0.25
  1
3.190
 41
0.75
  0
SOLID
  8
DIM
 10
10.258549
 20
1.884645
 30
0.0
 11
10.138549
 21
1.884645
 31
0.0
 12
10.198549
 22
1.524645
 32
0.0
 13
10.198549
 23
1.524645
 33
0.0
  0
SOLID
  8
DIM
 10
10.258549
 20
4.354645
 30
0.0
 11
10.138549
 21
4.354645
 31
0.0
 12
10.198549
 22
4.714645
 32
0.0
 13
10.198549
 23
4.714645
 33
0.0
  0
LINE
  8
DIM
 10
10.198549
 20
1.884645
 30
0.0
 11
10.198549
 21
2.831262
 31
0.0
  0
LINE
  8
DIM
 10
10.198549
 20
4.354645
 30
0.0
 11
10.198549
 21
3.451721
 31
0.0
  0
LINE
  8
DIM
 10
8.694656
 20
1.524645
 30
0.0
 11
10.384549
 21
1.524645
 31
0.0
  0
LINE
  8
DIM
 10
8.694656
 20
4.714645
 30
0.0
 11
10.384549
 21
4.714645
 31
0.0
  0
TEXT
  8
DIM
 10
1.445923
 20
0.691858
 30
0.0
 40
0.25
  1
0.625
 41
0.75
  0
SOLID
  8
DIM
 10
2.659656
 20
0.756858
 30
0.0
 11
2.659656
 21
0.876858
 31
0.0
 12
3.019656
 22
0.816858
 32
0.0
 13
3.019656
 23
0.816858
 33
0.0
  0
LINE
  8
DIM
 10
2.659656
 20
0.816858
 30
0.0
 11
2.299656
 21
0.816858
 31
0.0
  0
LINE
  8
DIM
 10
3.019656
 20
1.369645
 30
0.0
 11
3.019656
 21
0.630858
 31
0.0
  0
TEXT
  8
DIM
 10
5.842446
 20
0.691858
 30
0.0
 40
0.25
  1
5.050
 41
0.75
  0
SOLID
  8
DIM
 10
4.004656
 20
0.756858
 30
0.0
 11
4.004656
 21
0.876858
 31
0.0
 12
3.644656
 22
0.816858
 32
0.0
 13
3.644656
 23
0.816858
 33
0.0
  0
SOLID
  8
DIM
 10
8.334656
 20
0.756858
 30
0.0
 11
8.334656
 21
0.876858
 31
0.0
 12
8.694656
 22
0.816858
 32
0.0
 13
8.694656
 23
0.816858
 33
0.0
  0
LINE
  8
DIM
 10
4.004656
 20
0.816858
 30
0.0
 11
5.635423
 21
0.816858
 31
0.0
  0
LINE
  8
DIM
 10
8.334656
 20
0.816858
 30
0.0
 11
6.638328
 21
0.816858
 31
0.0
  0
LINE
  8
DIM
 10
3.644656
 20
1.524645
 30
0.0
 11
3.644656
 21
0.630858
 31
0.0
  0
LINE
  8
DIM
 10
8.694656
 20
1.524645
 30
0.0
 11
8.694656
 21
0.630858
 31
0.0
  0
TEXT
  8
DIM
 10
10.695672
 20
5.589645
 30
0.0
 40
0.25
  1
0.280
 41
0.75
  0
SOLID
  8
DIM
 10
10.258549
 20
5.354645
 30
0.0
 11
10.138549
 21
5.354645
 31
0.0
 12
10.198549
 22
4.994645
 32
0.0
 13
10.198549
 23
4.994645
 33
0.0
  0
LINE
  8
DIM
 10
10.198549
 20
5.714645
 30
0.0
 11
10.558549
 21
5.714645
 31
0.0
  0
LINE
  8
DIM
 10
10.198549
 20
5.354645
 30
0.0
 11
10.198549
 21
5.714645
 31
0.0
  0
LINE
  8
DIM
 10
9.194656
 20
4.994645
 30
0.0
 11
10.384549
 21
4.994645
 31
0.0
  0
TEXT
  8
DIM
 10
4.310953
 20
11.793209
 30
0.0
 40
0.25
  1
3.530
 41
0.75
  0
SOLID
  8
DIM
 10
4.718996
 20
13.323209
 30
0.0
 11
4.598996
 21
13.323209
 31
0.0
 12
4.658996
 22
13.683209
 32
0.0
 13
4.658996
 23
13.683209
 33
0.0
  0
SOLID
  8
DIM
 10
4.718996
 20
10.513209
 30
0.0
 11
4.598996
 21
10.513209
 31
0.0
 12
4.658996
 22
10.153209
 32
0.0
 13
4.658996
 23
10.153209
 33
0.0
  0
LINE
  8
DIM
 10
4.658996
 20
13.323209
 30
0.0
 11
4.658996
 21
12.141053
 31
0.0
  0
LINE
  8
DIM
 10
4.658996
 20
10.513209
 30
0.0
 11
4.658996
 21
11.629825
 31
0.0
  0
TEXT
  8
DIM
 10
5.69049
 20
10.95614
 30
0.0
 40
0.25
  1
6.080
 41
0.75
  0
SOLID
  8
DIM
 10
8.849656
 20
11.02114
 30
0.0
 11
8.849656
 21
11.14114
 31
0.0
 12
9.209656
 22
11.08114
 32
0.0
 13
9.209656
 23
11.08114
 33
0.0
  0
SOLID
  8
DIM
 10
3.489656
 20
11.02114
 30
0.0
 11
3.489656
 21
11.14114
 31
0.0
 12
3.129656
 22
11.08114
 32
0.0
 13
3.129656
 23
11.08114
 33
0.0
  0
LINE
  8
DIM
 10
8.849656
 20
11.08114
 30
0.0
 11
6.593599
 21
11.08114
 31
0.0
  0
LINE
  8
DIM
 10
3.489656
 20
11.08114
 30
0.0
 11
5.570882
 21
11.08114
 31
0.0
  0
TEXT
  8
DIM
 10
12.205515
 20
11.793209
 30
0.0
 40
0.25
  1
3.750
 41
0.75
  0
SOLID
  8
DIM
 10
12.613559
 20
13.433209
 30
0.0
 11
12.493559
 21
13.433209
 31
0.0
 12
12.553559
 22
13.793209
 32
0.0
 13
12.553559
 23
13.793209
 33
0.0
  0
SOLID
  8
DIM
 10
12.613559
 20
10.403209
 30
0.0
 11
12.493559
 21
10.403209
 31
0.0
 12
12.553559
 22
10.043209
 32
0.0
 13
12.553559
 23
10.043209
 33
0.0
  0
LINE
  8
DIM
 10
12.553559
 20
13.433209
 30
0.0
 11
12.553559
 21
12.184745
 31
0.0
  0
LINE
  8
DIM
 10
12.553559
 20
10.403209
 30
0.0
 11
12.553559
 21
11.607979
 31
0.0
  0
LINE
  8
DIM
 10
13.671798
 20
13.793209
 30
0.0
 11
12.367559
 21
13.793209
 31
0.0
  0
LINE
  8
DIM
 10
13.671798
 20
10.043209
 30
0.0
 11
12.367559
 21
10.043209
 31
0.0
  0
TEXT
  8
DIM
 10
5.731976
 20
14.055415
 30
0.0
 40
0.25
  1
5.190
 41
0.75
  0
SOLID
  8
DIM
 10
8.404295
 20
14.120415
 30
0.0
 11
8.404295
 21
14.240415
 31
0.0
 12
8.764295
 22
14.180415
 32
0.0
 13
8.764295
 23
14.180415
 33
0.0
  0
SOLID
  8
DIM
 10
3.934656
 20
14.120415
 30
0.0
 11
3.934656
 21
14.240415
 31
0.0
 12
3.574656
 22
14.180415
 32
0.0
 13
3.574656
 23
14.180415
 33
0.0
  0
LINE
  8
DIM
 10
8.404295
 20
14.180415
 30
0.0
 11
6.551752
 21
14.180415
 31
0.0
  0
LINE
  8
DIM
 10
3.934656
 20
14.180415
 30
0.0
 11
5.612368
 21
14.180415
 31
0.0
  0
LINE
  8
DIM
 10
8.764295
 20
13.518209
 30
0.0
 11
8.764295
 21
14.366415
 31
0.0
  0
LINE
  8
DIM
 10
3.574656
 20
13.518209
 30
0.0
 11
3.574656
 21
14.366415
 31
0.0
  0
TEXT
  8
DIM
 10
9.799737
 20
11.793209
 30
0.0
 40
0.25
  1
2.640
 41
0.75
  0
SOLID
  8
DIM
 10
10.185927
 20
12.878209
 30
0.0
 11
10.065927
 21
12.878209
 31
0.0
 12
10.125927
 22
13.238209
 32
0.0
 13
10.125927
 23
13.238209
 33
0.0
  0
SOLID
  8
DIM
 10
10.185927
 20
10.958209
 30
0.0
 11
10.065927
 21
10.958209
 31
0.0
 12
10.125927
 22
10.598209
 32
0.0
 13
10.125927
 23
10.598209
 33
0.0
  0
LINE
  8
DIM
 10
10.125927
 20
12.878209
 30
0.0
 11
10.125927
 21
12.141053
 31
0.0
  0
LINE
  8
DIM
 10
10.125927
 20
10.958209
 30
0.0
 11
10.125927
 21
11.629825
 31
0.0
  0
LINE
  8
DIM
 10
9.044295
 20
13.238209
 30
0.0
 11
10.311927
 21
13.238209
 31
0.0
  0
LINE
  8
DIM
 10
9.044295
 20
10.598209
 30
0.0
 11
10.311927
 21
10.598209
 31
0.0
  0
TEXT
  8
DIM
 10
15.811913
 20
11.263044
 30
0.0
 40
0.25
  1
0.110
 41
0.75
  0
TEXT
  8
DIM
 10
16.359105
 20
11.263044
 30
0.0
 40
0.25
  1
 TYP.
 41
0.75
  0
SOLID
  8
DIM
 10
14.486798
 20
11.328044
 30
0.0
 11
14.486798
 21
11.448044
 31
0.0
 12
14.846798
 22
11.388044
 32
0.0
 13
14.846798
 23
11.388044
 33
0.0
  0
SOLID
  8
DIM
 10
15.316798
 20
11.328044
 30
0.0
 11
15.316798
 21
11.448044
 31
0.0
 12
14.956798
 22
11.388044
 32
0.0
 13
14.956798
 23
11.388044
 33
0.0
  0
LINE
  8
DIM
 10
14.486798
 20
11.388044
 30
0.0
 11
14.126798
 21
11.388044
 31
0.0
  0
LINE
  8
DIM
 10
15.316798
 20
11.388044
 30
0.0
 11
15.676798
 21
11.388044
 31
0.0
  0
TEXT
  8
DIM
 10
5.711323
 20
14.483595
 30
0.0
 40
0.25
  1
6.300
 41
0.75
  0
SOLID
  8
DIM
 10
8.959656
 20
14.548595
 30
0.0
 11
8.959656
 21
14.668595
 31
0.0
 12
9.319656
 22
14.608595
 32
0.0
 13
9.319656
 23
14.608595
 33
0.0
  0
SOLID
  8
DIM
 10
3.379656
 20
14.548595
 30
0.0
 11
3.379656
 21
14.668595
 31
0.0
 12
3.019656
 22
14.608595
 32
0.0
 13
3.019656
 23
14.608595
 33
0.0
  0
LINE
  8
DIM
 10
8.959656
 20
14.608595
 30
0.0
 11
6.572766
 21
14.608595
 31
0.0
  0
LINE
  8
DIM
 10
3.379656
 20
14.608595
 30
0.0
 11
5.591716
 21
14.608595
 31
0.0
  0
LINE
  8
DIM
 10
9.319656
 20
13.668209
 30
0.0
 11
9.319656
 21
14.794595
 31
0.0
  0
LINE
  8
DIM
 10
3.019656
 20
13.668209
 30
0.0
 11
3.019656
 21
14.794595
 31
0.0
  0
TEXT
  8
DIM
 10
0.922629
 20
14.388209
 30
0.0
 40
0.25
  1
0.370
 41
0.75
  0
SOLID
  8
DIM
 10
2.144221
 20
13.063209
 30
0.0
 11
2.024221
 21
13.063209
 31
0.0
 12
2.084221
 22
13.423209
 32
0.0
 13
2.084221
 23
13.423209
 33
0.0
  0
SOLID
  8
DIM
 10
2.144221
 20
14.153209
 30
0.0
 11
2.024221
 21
14.153209
 31
0.0
 12
2.084221
 22
13.793209
 32
0.0
 13
2.084221
 23
13.793209
 33
0.0
  0
LINE
  8
DIM
 10
2.084221
 20
14.513209
 30
0.0
 11
1.724221
 21
14.513209
 31
0.0
  0
LINE
  8
DIM
 10
2.084221
 20
13.063209
 30
0.0
 11
2.084221
 21
12.703209
 31
0.0
  0
LINE
  8
DIM
 10
2.084221
 20
14.153209
 30
0.0
 11
2.084221
 21
14.513209
 31
0.0
  0
LINE
  8
DIM
 10
3.144656
 20
13.793209
 30
0.0
 11
1.898221
 21
13.793209
 31
0.0
  0
LINE
  8
DIM
 10
3.598156
 20
13.423209
 30
0.0
 11
1.898221
 21
13.423209
 31
0.0
  0
TEXT
  8
DIM
 10
1.798678
 20
11.793209
 30
0.0
 40
0.25
  1
3.010
 41
0.75
  0
SOLID
  8
DIM
 10
2.144221
 20
13.063209
 30
0.0
 11
2.024221
 21
13.063209
 31
0.0
 12
2.084221
 22
13.423209
 32
0.0
 13
2.084221
 23
13.423209
 33
0.0
  0
SOLID
  8
DIM
 10
2.144221
 20
10.773209
 30
0.0
 11
2.024221
 21
10.773209
 31
0.0
 12
2.084221
 22
10.413209
 32
0.0
 13
2.084221
 23
10.413209
 33
0.0
  0
LINE
  8
DIM
 10
2.084221
 20
13.063209
 30
0.0
 11
2.084221
 21
12.141053
 31
0.0
  0
LINE
  8
DIM
 10
2.084221
 20
10.773209
 30
0.0
 11
2.084221
 21
11.629825
 31
0.0
  0
LINE
  8
DIM
 10
3.598156
 20
13.423209
 30
0.0
 11
1.898221
 21
13.423209
 31
0.0
  0
LINE
  8
DIM
 10
3.598156
 20
10.413209
 30
0.0
 11
1.898221
 21
10.413209
 31
0.0
  0
SOLID
  8
DIM
 10
2.144221
 20
5.354645
 30
0.0
 11
2.024221
 21
5.354645
 31
0.0
 12
2.084221
 22
4.994645
 32
0.0
 13
2.084221
 23
4.994645
 33
0.0
  0
LINE
  8
DIM
 10
2.084221
 20
5.354645
 30
0.0
 11
2.084221
 21
5.591654
 31
0.0
  0
LINE
  8
DIM
 10
3.144656
 20
4.994645
 30
0.0
 11
1.898221
 21
4.994645
 31
0.0
  0
TEXT
  8
DIM
 10
1.736178
 20
2.994645
 30
0.0
 40
0.25
  1
2.950
 41
0.75
  0
SOLID
  8
DIM
 10
2.144221
 20
4.234645
 30
0.0
 11
2.024221
 21
4.234645
 31
0.0
 12
2.084221
 22
4.594645
 32
0.0
 13
2.084221
 23
4.594645
 33
0.0
  0
SOLID
  8
DIM
 10
2.144221
 20
2.004645
 30
0.0
 11
2.024221
 21
2.004645
 31
0.0
 12
2.084221
 22
1.644645
 32
0.0
 13
2.084221
 23
1.644645
 33
0.0
  0
LINE
  8
DIM
 10
2.084221
 20
4.234645
 30
0.0
 11
2.084221
 21
3.429875
 31
0.0
  0
LINE
  8
DIM
 10
2.084221
 20
2.004645
 30
0.0
 11
2.084221
 21
2.853109
 31
0.0
  0
LINE
  8
DIM
 10
3.294656
 20
4.594645
 30
0.0
 11
1.898221
 21
4.594645
 31
0.0
  0
LINE
  8
DIM
 10
3.294656
 20
1.644645
 30
0.0
 11
1.898221
 21
1.644645
 31
0.0
  0
TEXT
  8
DIM
 10
1.031457
 20
5.466654
 30
0.0
 40
0.25
  1
0.400
 41
0.75
  0
SOLID
  8
DIM
 10
2.659656
 20
5.531654
 30
0.0
 11
2.659656
 21
5.651654
 31
0.0
 12
3.019656
 22
5.591654
 32
0.0
 13
3.019656
 23
5.591654
 33
0.0
  0
LINE
  8
DIM
 10
2.659656
 20
5.591654
 30
0.0
 11
1.828022
 21
5.591654
 31
0.0
  0
LINE
  8
DIM
 10
3.019656
 20
4.869645
 30
0.0
 11
3.019656
 21
5.777654
 31
0.0
  0
TEXT
  8
DIM
 10
5.842446
 20
5.466654
 30
0.0
 40
0.25
  1
5.500
 41
0.75
  0
SOLID
  8
DIM
 10
3.779656
 20
5.531654
 30
0.0
 11
3.779656
 21
5.651654
 31
0.0
 12
3.419656
 22
5.591654
 32
0.0
 13
3.419656
 23
5.591654
 33
0.0
  0
SOLID
  8
DIM
 10
8.559656
 20
5.531654
 30
0.0
 11
8.559656
 21
5.651654
 31
0.0
 12
8.919656
 22
5.591654
 32
0.0
 13
8.919656
 23
5.591654
 33
0.0
  0
LINE
  8
DIM
 10
3.779656
 20
5.591654
 30
0.0
 11
5.700985
 21
5.591654
 31
0.0
  0
LINE
  8
DIM
 10
8.559656
 20
5.591654
 30
0.0
 11
6.703889
 21
5.591654
 31
0.0
  0
LINE
  8
DIM
 10
3.419656
 20
4.719645
 30
0.0
 11
3.419656
 21
5.777654
 31
0.0
  0
LINE
  8
DIM
 10
8.919656
 20
4.719645
 30
0.0
 11
8.919656
 21
5.777654
 31
0.0
  0
ARC
  8
OBJECT
 10
14.737798
 20
10.262209
 30
0.0
 40
0.109
 50
270.0
 51
0.0
  0
ARC
  8
OBJECT
 10
13.765798
 20
10.262209
 30
0.0
 40
0.109
 50
180.0
 51
270.0
  0
ARC
  8
OBJECT
 10
8.569656
 20
1.649645
 30
0.0
 40
0.1
 50
270.0
 51
0.0
  0
LINE
  8
OBJECT
 10
8.669656
 20
1.649645
 30
0.0
 11
8.669656
 21
4.589645
 31
0.0
  0
ARC
  8
OBJECT
 10
8.569656
 20
4.589645
 30
0.0
 40
0.1
 50
0.0
 51
90.0
  0
LINE
  8
OBJECT
 10
8.569656
 20
4.689645
 30
0.0
 11
5.559656
 21
4.689645
 31
0.0
  0
ARC
  8
OBJECT
 10
3.769656
 20
4.589645
 30
0.0
 40
0.1
 50
90.0
 51
180.0
  0
LINE
  8
OBJECT
 10
8.569656
 20
1.549645
 30
0.0
 11
5.559656
 21
1.549645
 31
0.0
  0
LINE
  8
OBJECT
 10
3.669656
 20
1.649645
 30
0.0
 11
3.669656
 21
4.589645
 31
0.0
  0
ARC
  8
OBJECT
 10
3.769656
 20
1.649645
 30
0.0
 40
0.1
 50
180.0
 51
270.0
  0
ARC
  8
OBJECT
 10
8.569656
 20
1.649645
 30
0.0
 40
0.125
 50
270.0
 51
0.0
  0
ARC
  8
OBJECT
 10
8.569656
 20
4.589645
 30
0.0
 40
0.125
 50
0.0
 51
90.0
  0
ARC
  8
OBJECT
 10
3.769656
 20
1.649645
 30
0.0
 40
0.125
 50
180.0
 51
270.0
  0
ARC
  8
OBJECT
 10
3.769656
 20
4.589645
 30
0.0
 40
0.125
 50
90.0
 51
180.0
  0
LINE
  8
OBJECT
 10
8.694656
 20
1.649645
 30
0.0
 11
8.694656
 21
4.589645
 31
0.0
  0
LINE
  8
OBJECT
 10
3.644656
 20
1.649645
 30
0.0
 11
3.644656
 21
4.589645
 31
0.0
  0
LINE
  8
OBJECT
 10
8.569656
 20
1.524645
 30
0.0
 11
3.769656
 21
1.524645
 31
0.0
  0
LINE
  8
OBJECT
 10
8.569656
 20
4.714645
 30
0.0
 11
3.769656
 21
4.714645
 31
0.0
  0
CIRCLE
  8
HIDDEN
 10
8.919295
 20
4.594645
 30
0.0
 40
0.203
  0
CIRCLE
  8
HIDDEN
 10
8.919295
 20
4.594645
 30
0.0
 40
0.155
  0
CIRCLE
  8
HIDDEN
 10
8.919295
 20
1.644645
 30
0.0
 40
0.155
  0
CIRCLE
  8
HIDDEN
 10
8.919295
 20
1.644645
 30
0.0
 40
0.203
  0
CIRCLE
  8
HIDDEN
 10
3.419656
 20
4.594645
 30
0.0
 40
0.155
  0
CIRCLE
  8
HIDDEN
 10
3.419656
 20
4.594645
 30
0.0
 40
0.203
  0
CIRCLE
  8
HIDDEN
 10
3.419656
 20
1.644645
 30
0.0
 40
0.155
  0
CIRCLE
  8
HIDDEN
 10
3.419656
 20
1.644645
 30
0.0
 40
0.203
  0
CIRCLE
  8
OBJECT
 10
8.919656
 20
4.594645
 30
0.0
 40
0.115
  0
CIRCLE
  8
OBJECT
 10
8.919656
 20
4.594645
 30
0.0
 40
0.0675
  0
CIRCLE
  8
OBJECT
 10
8.919656
 20
1.644645
 30
0.0
 40
0.0675
  0
CIRCLE
  8
OBJECT
 10
8.919656
 20
1.644645
 30
0.0
 40
0.115
  0
CIRCLE
  8
OBJECT
 10
3.419656
 20
1.644645
 30
0.0
 40
0.115
  0
CIRCLE
  8
OBJECT
 10
3.419656
 20
1.644645
 30
0.0
 40
0.0675
  0
CIRCLE
  8
OBJECT
 10
3.419656
 20
4.594645
 30
0.0
 40
0.0675
  0
CIRCLE
  8
OBJECT
 10
3.419656
 20
4.594645
 30
0.0
 40
0.115
  0
ARC
  8
OBJECT
 10
9.069656
 20
4.744645
 30
0.0
 40
0.25
 50
0.0
 51
90.0
  0
ARC
  8
OBJECT
 10
9.069656
 20
1.494645
 30
0.0
 40
0.25
 50
270.0
 51
0.0
  0
ARC
  8
OBJECT
 10
3.269656
 20
1.494645
 30
0.0
 40
0.25
 50
180.0
 51
270.0
  0
ARC
  8
OBJECT
 10
3.269656
 20
4.744645
 30
0.0
 40
0.25
 50
90.0
 51
180.0
  0
LINE
  8
OBJECT
 10
3.019656
 20
1.494645
 30
0.0
 11
3.019656
 21
4.744645
 31
0.0
  0
LINE
  8
OBJECT
 10
9.069656
 20
1.244645
 30
0.0
 11
3.269656
 21
1.244645
 31
0.0
  0
LINE
  8
OBJECT
 10
9.319656
 20
4.744645
 30
0.0
 11
9.319656
 21
1.494645
 31
0.0
  0
LINE
  8
OBJECT
 10
3.269656
 20
4.994645
 30
0.0
 11
9.069656
 21
4.994645
 31
0.0
  0
LINE
  8
HIDDEN
 10
9.069656
 20
1.354645
 30
0.0
 11
3.269656
 21
1.354645
 31
0.0
  0
LINE
  8
HIDDEN
 10
3.129656
 20
1.494645
 30
0.0
 11
3.129656
 21
4.744645
 31
0.0
  0
LINE
  8
HIDDEN
 10
3.269656
 20
4.884645
 30
0.0
 11
9.069656
 21
4.884645
 31
0.0
  0
LINE
  8
HIDDEN
 10
9.209656
 20
4.744645
 30
0.0
 11
9.209656
 21
1.494645
 31
0.0
  0
ARC
  8
HIDDEN
 10
9.069656
 20
1.494645
 30
0.0
 40
0.14
 50
270.0
 51
0.0
  0
ARC
  8
HIDDEN
 10
9.069656
 20
4.744645
 30
0.0
 40
0.14
 50
0.0
 51
90.0
  0
ARC
  8
HIDDEN
 10
3.269656
 20
1.494645
 30
0.0
 40
0.14
 50
180.0
 51
270.0
  0
ARC
  8
HIDDEN
 10
3.269656
 20
4.744645
 30
0.0
 40
0.14
 50
90.0
 51
180.0
  0
LINE
  8
HIDDEN
 10
3.269656
 20
4.934645
 30
0.0
 11
9.069656
 21
4.934645
 31
0.0
  0
LINE
  8
HIDDEN
 10
3.079656
 20
1.494645
 30
0.0
 11
3.079656
 21
4.744645
 31
0.0
  0
LINE
  8
HIDDEN
 10
9.069656
 20
1.304645
 30
0.0
 11
3.269656
 21
1.304645
 31
0.0
  0
ARC
  8
HIDDEN
 10
3.269656
 20
4.744645
 30
0.0
 40
0.19
 50
90.0
 51
180.0
  0
LINE
  8
HIDDEN
 10
9.259656
 20
4.744645
 30
0.0
 11
9.259656
 21
1.494645
 31
0.0
  0
ARC
  8
HIDDEN
 10
9.069656
 20
4.744645
 30
0.0
 40
0.19
 50
0.0
 51
90.0
  0
ARC
  8
HIDDEN
 10
9.069656
 20
1.494645
 30
0.0
 40
0.19
 50
270.0
 51
0.0
  0
ARC
  8
HIDDEN
 10
3.269656
 20
1.494645
 30
0.0
 40
0.19
 50
180.0
 51
270.0
  0
CIRCLE
  8
HIDDEN
 10
8.919295
 20
13.393209
 30
0.0
 40
0.155
  0
CIRCLE
  8
HIDDEN
 10
8.919295
 20
10.443209
 30
0.0
 40
0.155
  0
CIRCLE
  8
HIDDEN
 10
3.419656
 20
10.443209
 30
0.0
 40
0.155
  0
CIRCLE
  8
HIDDEN
 10
3.419656
 20
13.393209
 30
0.0
 40
0.155
  0
LINE
  8
OBJECT
 10
6.915635
 20
7.455758
 30
0.0
 11
9.319656
 21
7.455758
 31
0.0
  0
LINE
  8
OBJECT
 10
14.206798
 20
11.821366
 30
0.0
 11
14.206798
 21
13.793209
 31
0.0
  0
LINE
  8
OBJECT
 10
14.146798
 20
10.153209
 30
0.0
 11
14.737798
 21
10.153209
 31
0.0
  0
LINE
  8
OBJECT
 10
14.146798
 20
10.553209
 30
0.0
 11
14.146798
 21
11.814125
 31
0.0
  0
LINE
  8
OBJECT
 10
14.146798
 20
10.093209
 30
0.0
 11
14.146798
 21
10.333209
 31
0.0
  0
LINE
  8
OBJECT
 10
14.146798
 20
10.093209
 30
0.0
 11
14.206798
 21
10.093209
 31
0.0
  0
LINE
  8
OBJECT
 10
3.129656
 20
7.515758
 30
0.0
 11
3.129656
 21
6.924758
 31
0.0
  0
LINE
  8
OBJECT
 10
3.069656
 20
7.515758
 30
0.0
 11
3.069656
 21
7.455758
 31
0.0
  0
LINE
  8
OBJECT
 10
3.069656
 20
7.515758
 30
0.0
 11
3.309656
 21
7.515758
 31
0.0
  0
LINE
  8
0
 62
     0
 10
3.283864
 20
6.705758
 30
0.0
 11
3.019656
 21
6.969966
 31
0.0
  0
LINE
  8
0
 62
     0
 10
3.460641
 20
6.705758
 30
0.0
 11
3.350641
 21
6.815758
 31
0.0
  0
LINE
  8
0
 62
     0
 10
3.637417
 20
6.705758
 30
0.0
 11
3.527417
 21
6.815758
 31
0.0
  0
LINE
  8
0
 62
     0
 10
3.814194
 20
6.705758
 30
0.0
 11
3.704194
 21
6.815758
 31
0.0
  0
LINE
  8
0
 62
     0
 10
3.990971
 20
6.705758
 30
0.0
 11
3.880971
 21
6.815758
 31
0.0
  0
LINE
  8
0
 62
     0
 10
4.167747
 20
6.705758
 30
0.0
 11
4.057747
 21
6.815758
 31
0.0
  0
LINE
  8
0
 62
     0
 10
4.344524
 20
6.705758
 30
0.0
 11
4.234524
 21
6.815758
 31
0.0
  0
LINE
  8
0
 62
     0
 10
4.521301
 20
6.705758
 30
0.0
 11
4.411301
 21
6.815758
 31
0.0
  0
LINE
  8
0
 62
     0
 10
4.698077
 20
6.705758
 30
0.0
 11
4.588077
 21
6.815758
 31
0.0
  0
LINE
  8
0
 62
     0
 10
4.874854
 20
6.705758
 30
0.0
 11
4.764854
 21
6.815758
 31
0.0
  0
LINE
  8
0
 62
     0
 10
5.051631
 20
6.705758
 30
0.0
 11
4.941631
 21
6.815758
 31
0.0
  0
LINE
  8
0
 62
     0
 10
3.019668
 20
7.514194
 30
0.0
 11
3.129656
 21
7.624183
 31
0.0
  0
LINE
  8
0
 62
     0
 10
3.019668
 20
7.691194
 30
0.0
 11
3.129656
 21
7.801183
 31
0.0
  0
LINE
  8
0
 62
     0
 10
3.019668
 20
7.868194
 30
0.0
 11
3.267232
 21
8.115758
 31
0.0
  0
LINE
  8
0
 62
     0
 10
14.050572
 20
10.043209
 30
0.0
 11
14.146798
 21
10.139434
 31
0.0
  0
LINE
  8
0
 62
     0
 10
13.873796
 20
10.043209
 30
0.0
 11
13.983796
 21
10.153209
 31
0.0
  0
LINE
  8
0
 62
     0
 10
13.711882
 20
10.058072
 30
0.0
 11
13.807019
 21
10.153209
 31
0.0
  0
LINE
  8
0
 62
     0
 10
13.607243
 20
10.130209
 30
0.0
 11
13.676598
 21
10.199564
 31
0.0
  0
LINE
  8
0
 62
     0
 10
13.597133
 20
11.357536
 30
0.0
 11
13.707133
 21
11.467536
 31
0.0
  0
LINE
  8
0
 62
     0
 10
13.597133
 20
11.18076
 30
0.0
 11
13.707133
 21
11.29076
 31
0.0
  0
LINE
  8
0
 62
     0
 10
13.597133
 20
11.003983
 30
0.0
 11
13.707133
 21
11.113983
 31
0.0
  0
LINE
  8
0
 62
     0
 10
13.597133
 20
10.827206
 30
0.0
 11
13.707133
 21
10.937206
 31
0.0
  0
LINE
  8
0
 62
     0
 10
13.597133
 20
10.65043
 30
0.0
 11
13.707133
 21
10.76043
 31
0.0
  0
LINE
  8
0
 62
     0
 10
13.597133
 20
10.473653
 30
0.0
 11
13.656798
 21
10.533318
 31
0.0
  0
LINE
  8
0
 62
     0
 10
13.550515
 20
10.250258
 30
0.0
 11
13.656798
 21
10.356541
 31
0.0
  0
LINE
  8
OBJECT
 10
13.546798
 20
10.395209
 30
0.0
 11
13.597133
 21
10.413209
 31
0.0
  0
ARC
  8
OBJECT
 10
13.796798
 20
10.293209
 30
0.0
 40
0.25
 50
180.0
 51
270.0
  0
LINE
  8
OBJECT
 10
13.765798
 20
10.153209
 30
0.0
 11
14.146798
 21
10.153209
 31
0.0
  0
LINE
  8
OBJECT
 10
13.656798
 20
10.262209
 30
0.0
 11
13.656798
 21
10.553209
 31
0.0
  0
LINE
  8
OBJECT
 10
13.707133
 20
10.553209
 30
0.0
 11
13.707133
 21
11.727095
 31
0.0
  0
LINE
  8
OBJECT
 10
14.846798
 20
10.262209
 30
0.0
 11
14.846798
 21
11.815068
 31
0.0
  0
ARC
  8
OBJECT
 10
3.269656
 20
7.865758
 30
0.0
 40
0.25
 50
90.0
 51
180.0
  0
ARC
  8
OBJECT
 10
3.238656
 20
6.924758
 30
0.0
 40
0.109
 50
180.0
 51
270.0
  0
ARC
  8
OBJECT
 10
3.238656
 20
7.896758
 30
0.0
 40
0.109
 50
90.0
 51
180.0
  0
LINE
  8
OBJECT
 10
3.238656
 20
8.005758
 30
0.0
 11
3.529656
 21
8.005758
 31
0.0
  0
LINE
  8
OBJECT
 10
3.129656
 20
7.896758
 30
0.0
 11
3.129656
 21
7.515758
 31
0.0
  0
LINE
  8
OBJECT
 10
3.238656
 20
6.815758
 30
0.0
 11
6.877898
 21
6.815758
 31
0.0
  0
ARC
  8
OBJECT
 10
8.617656
 20
10.530709
 30
0.0
 40
0.1175
 50
270.0
 51
0.0
  0
ARC
  8
OBJECT
 10
8.617656
 20
13.305709
 30
0.0
 40
0.1175
 50
0.0
 51
90.0
  0
ARC
  8
OBJECT
 10
3.723156
 20
10.531209
 30
0.0
 40
0.118
 50
180.0
 51
270.0
  0
ARC
  8
OBJECT
 10
3.723156
 20
13.305209
 30
0.0
 40
0.118
 50
90.0
 51
180.0
  0
LINE
  8
OBJECT
 10
3.723156
 20
10.413209
 30
0.0
 11
8.617656
 21
10.413209
 31
0.0
  0
LINE
  8
OBJECT
 10
8.735156
 20
10.530709
 30
0.0
 11
8.735156
 21
13.305709
 31
0.0
  0
LINE
  8
OBJECT
 10
3.605156
 20
10.531209
 30
0.0
 11
3.605156
 21
13.305209
 31
0.0
  0
LINE
  8
OBJECT
 10
8.617656
 20
13.423209
 30
0.0
 11
3.723156
 21
13.423209
 31
0.0
  0
ARC
  8
OBJECT
 10
3.723156
 20
10.531209
 30
0.0
 40
0.063
 50
180.0
 51
270.0
  0
ARC
  8
OBJECT
 10
3.723156
 20
13.305209
 30
0.0
 40
0.063
 50
90.0
 51
180.0
  0
LINE
  8
OBJECT
 10
3.660156
 20
10.531209
 30
0.0
 11
3.660156
 21
13.305209
 31
0.0
  0
ARC
  8
HIDDEN
 10
3.269656
 20
13.543209
 30
0.0
 40
0.19
 50
90.0
 51
180.0
  0
ARC
  8
HIDDEN
 10
9.069656
 20
13.543209
 30
0.0
 40
0.19
 50
0.0
 51
90.0
  0
ARC
  8
HIDDEN
 10
9.069656
 20
10.293209
 30
0.0
 40
0.19
 50
270.0
 51
0.0
  0
LINE
  8
HIDDEN
 10
9.259656
 20
10.293209
 30
0.0
 11
9.259656
 21
13.543209
 31
0.0
  0
ARC
  8
HIDDEN
 10
3.269656
 20
10.293209
 30
0.0
 40
0.19
 50
180.0
 51
270.0
  0
LINE
  8
HIDDEN
 10
9.069656
 20
13.733209
 30
0.0
 11
3.269656
 21
13.733209
 31
0.0
  0
LINE
  8
HIDDEN
 10
3.079656
 20
13.543209
 30
0.0
 11
3.079656
 21
10.293209
 31
0.0
  0
LINE
  8
HIDDEN
 10
3.269656
 20
10.103209
 30
0.0
 11
9.069656
 21
10.103209
 31
0.0
  0
ARC
  8
HIDDEN
 10
3.269656
 20
10.293209
 30
0.0
 40
0.14
 50
180.0
 51
270.0
  0
ARC
  8
HIDDEN
 10
3.269656
 20
13.543209
 30
0.0
 40
0.14
 50
90.0
 51
180.0
  0
ARC
  8
HIDDEN
 10
9.069656
 20
10.293209
 30
0.0
 40
0.14
 50
270.0
 51
0.0
  0
ARC
  8
HIDDEN
 10
9.069656
 20
13.543209
 30
0.0
 40
0.14
 50
0.0
 51
90.0
  0
LINE
  8
HIDDEN
 10
9.209656
 20
10.293209
 30
0.0
 11
9.209656
 21
13.543209
 31
0.0
  0
LINE
  8
HIDDEN
 10
3.269656
 20
10.153209
 30
0.0
 11
9.069656
 21
10.153209
 31
0.0
  0
LINE
  8
HIDDEN
 10
3.129656
 20
13.543209
 30
0.0
 11
3.129656
 21
10.293209
 31
0.0
  0
LINE
  8
HIDDEN
 10
9.069656
 20
13.683209
 30
0.0
 11
3.269656
 21
13.683209
 31
0.0
  0
LINE
  8
OBJECT
 10
3.723156
 20
10.468209
 30
0.0
 11
8.617656
 21
10.468209
 31
0.0
  0
LINE
  8
OBJECT
 10
8.680156
 20
10.530709
 30
0.0
 11
8.680156
 21
13.305709
 31
0.0
  0
LINE
  8
OBJECT
 10
8.617656
 20
13.368209
 30
0.0
 11
3.723156
 21
13.368209
 31
0.0
  0
ARC
  8
OBJECT
 10
8.617656
 20
10.530709
 30
0.0
 40
0.0625
 50
270.0
 51
0.0
  0
ARC
  8
OBJECT
 10
8.617656
 20
13.305709
 30
0.0
 40
0.0625
 50
0.0
 51
90.0
  0
LINE
  8
OBJECT
 10
3.269656
 20
10.043209
 30
0.0
 11
9.069656
 21
10.043209
 31
0.0
  0
LINE
  8
OBJECT
 10
9.319656
 20
10.293209
 30
0.0
 11
9.319656
 21
13.543209
 31
0.0
  0
LINE
  8
OBJECT
 10
9.069656
 20
13.793209
 30
0.0
 11
3.269656
 21
13.793209
 31
0.0
  0
LINE
  8
OBJECT
 10
3.019656
 20
13.543209
 30
0.0
 11
3.019656
 21
10.293209
 31
0.0
  0
ARC
  8
OBJECT
 10
3.269656
 20
10.293209
 30
0.0
 40
0.25
 50
180.0
 51
270.0
  0
ARC
  8
OBJECT
 10
3.269656
 20
13.543209
 30
0.0
 40
0.25
 50
90.0
 51
180.0
  0
ARC
  8
OBJECT
 10
9.069656
 20
13.543209
 30
0.0
 40
0.25
 50
0.0
 51
90.0
  0
ARC
  8
OBJECT
 10
9.069656
 20
10.293209
 30
0.0
 40
0.25
 50
270.0
 51
0.0
  0
CIRCLE
  8
HIDDEN
 10
3.419656
 20
10.443209
 30
0.0
 40
0.11
  0
CIRCLE
  8
HIDDEN
 10
3.419656
 20
13.393209
 30
0.0
 40
0.11
  0
LINE
  8
OBJECT
 10
3.269656
 20
6.705758
 30
0.0
 11
9.069656
 21
6.705758
 31
0.0
  0
LINE
  8
OBJECT
 10
3.019656
 20
7.865758
 30
0.0
 11
3.019656
 21
6.955758
 31
0.0
  0
LINE
  8
OBJECT
 10
9.319656
 20
6.955758
 30
0.0
 11
9.319656
 21
7.585758
 31
0.0
  0
LINE
  8
OBJECT
 10
3.019656
 20
7.455758
 30
0.0
 11
3.069656
 21
7.455758
 31
0.0
  0
LINE
  8
OBJECT
 10
6.917109
 20
7.441827
 30
0.0
 11
9.319656
 21
7.441827
 31
0.0
  0
ARC
  8
OBJECT
 10
9.069656
 20
6.955758
 30
0.0
 40
0.25
 50
270.0
 51
0.0
  0
ARC
  8
OBJECT
 10
3.269656
 20
6.955758
 30
0.0
 40
0.25
 50
180.0
 51
270.0
  0
LINE
  8
HIDDEN
 10
3.487156
 20
6.830758
 30
0.0
 11
3.487156
 21
7.385758
 31
0.0
  0
LINE
  8
OBJECT
 10
3.574656
 20
7.385758
 30
0.0
 11
3.264656
 21
7.385758
 31
0.0
  0
LINE
  8
OBJECT
 10
3.622656
 20
6.815758
 30
0.0
 11
3.622656
 21
6.940758
 31
0.0
  0
LINE
  8
OBJECT
 10
3.216656
 20
6.818002
 30
0.0
 11
3.216656
 21
6.940758
 31
0.0
  0
LINE
  8
OBJECT
 10
3.574656
 20
6.940758
 30
0.0
 11
3.574656
 21
7.385758
 31
0.0
  0
LINE
  8
OBJECT
 10
6.914082
 20
7.46969
 30
0.0
 11
9.319656
 21
7.46969
 31
0.0
  0
LINE
  8
HIDDEN
 10
3.352156
 20
6.830758
 30
0.0
 11
3.352156
 21
7.385758
 31
0.0
  0
LINE
  8
OBJECT
 10
3.264656
 20
6.940758
 30
0.0
 11
3.264656
 21
7.385758
 31
0.0
  0
LINE
  8
OBJECT
 10
3.216656
 20
6.940758
 30
0.0
 11
3.622656
 21
6.940758
 31
0.0
  0
LINE
  8
HIDDEN
 10
3.534656
 20
6.705758
 30
0.0
 11
3.534656
 21
6.830758
 31
0.0
  0
LINE
  8
HIDDEN
 10
3.304656
 20
6.705758
 30
0.0
 11
3.304656
 21
6.830758
 31
0.0
  0
LINE
  8
HIDDEN
 10
3.304656
 20
6.830758
 30
0.0
 11
3.534656
 21
6.830758
 31
0.0
  0
LINE
  8
OBJECT
 10
3.529656
 20
8.005758
 30
0.0
 11
3.529656
 21
7.385758
 31
0.0
  0
LINE
  8
HIDDEN
 10
3.466656
 20
7.930285
 30
0.0
 11
3.466656
 21
7.385758
 31
0.0
  0
LINE
  8
HIDDEN
 10
3.372656
 20
7.930285
 30
0.0
 11
3.372656
 21
7.385758
 31
0.0
  0
LINE
  8
OBJECT
 10
3.309656
 20
8.005758
 30
0.0
 11
3.309656
 21
7.385758
 31
0.0
  0
LINE
  8
HIDDEN
 10
3.382656
 20
7.940285
 30
0.0
 11
3.456656
 21
7.940285
 31
0.0
  0
ARC
  8
HIDDEN
 10
3.382656
 20
7.930285
 30
0.0
 40
0.01
 50
90.0
 51
180.0
  0
ARC
  8
HIDDEN
 10
3.456656
 20
7.930285
 30
0.0
 40
0.01
 50
0.0
 51
90.0
  0
ARC
  8
OBJECT
 10
6.285191
 20
7.063023
 30
0.0
 40
0.642216
 50
326.199719
 51
353.538089
  0
ARC
  8
OBJECT
 10
4.390057
 20
7.18141
 30
0.0
 40
2.540435
 50
355.695808
 51
12.398627
  0
ARC
  8
OBJECT
 10
7.776678
 20
8.033219
 30
0.0
 40
0.955857
 50
179.136122
 51
198.692842
  0
CIRCLE
  8
HIDDEN
 10
3.419656
 20
10.443209
 30
0.0
 40
0.203
  0
CIRCLE
  8
HIDDEN
 10
3.419656
 20
13.393209
 30
0.0
 40
0.203
  0
CIRCLE
  8
HIDDEN
 10
8.919295
 20
13.393209
 30
0.0
 40
0.203
  0
CIRCLE
  8
HIDDEN
 10
8.919295
 20
10.443209
 30
0.0
 40
0.203
  0
CIRCLE
  8
HIDDEN
 10
8.919295
 20
13.393209
 30
0.0
 40
0.11
  0
CIRCLE
  8
HIDDEN
 10
8.919295
 20
10.443209
 30
0.0
 40
0.11
  0
LINE
  8
OBJECT
 10
13.546798
 20
10.293209
 30
0.0
 11
13.546798
 21
13.543209
 31
0.0
  0
ARC
  8
OBJECT
 10
13.629338
 20
12.682409
 30
0.0
 40
0.955857
 50
265.046248
 51
288.692842
  0
ARC
  8
OBJECT
 10
14.481146
 20
9.295789
 30
0.0
 40
2.540435
 50
85.695808
 51
102.398627
  0
LINE
  8
OBJECT
 10
13.597133
 20
10.413209
 30
0.0
 11
13.597133
 21
11.727095
 31
0.0
  0
ARC
  8
HIDDEN
 10
13.732271
 20
10.480209
 30
0.0
 40
0.01
 50
90.0
 51
180.0
  0
ARC
  8
HIDDEN
 10
13.732271
 20
10.406209
 30
0.0
 40
0.01
 50
180.0
 51
270.0
  0
LINE
  8
HIDDEN
 10
13.722271
 20
10.406209
 30
0.0
 11
13.722271
 21
10.480209
 31
0.0
  0
LINE
  8
OBJECT
 10
13.656798
 20
10.333209
 30
0.0
 11
14.276798
 21
10.333209
 31
0.0
  0
LINE
  8
HIDDEN
 10
13.732271
 20
10.396209
 30
0.0
 11
14.276798
 21
10.396209
 31
0.0
  0
LINE
  8
HIDDEN
 10
13.732271
 20
10.490209
 30
0.0
 11
14.276798
 21
10.490209
 31
0.0
  0
LINE
  8
OBJECT
 10
13.656798
 20
10.553209
 30
0.0
 11
14.276798
 21
10.553209
 31
0.0
  0
LINE
  8
HIDDEN
 10
14.831798
 20
10.309929
 30
0.0
 11
14.831798
 21
10.576489
 31
0.0
  0
LINE
  8
HIDDEN
 10
14.956798
 20
10.309929
 30
0.0
 11
14.831798
 21
10.309929
 31
0.0
  0
LINE
  8
HIDDEN
 10
14.956798
 20
10.576489
 30
0.0
 11
14.831798
 21
10.576489
 31
0.0
  0
LINE
  8
OBJECT
 10
14.721798
 20
10.240209
 30
0.0
 11
14.721798
 21
10.646209
 31
0.0
  0
LINE
  8
OBJECT
 10
14.721798
 20
10.288209
 30
0.0
 11
14.276798
 21
10.288209
 31
0.0
  0
LINE
  8
HIDDEN
 10
14.831798
 20
10.375709
 30
0.0
 11
14.276798
 21
10.375709
 31
0.0
  0
LINE
  8
OBJECT
 10
14.192867
 20
11.819814
 30
0.0
 11
14.192867
 21
13.793209
 31
0.0
  0
LINE
  8
OBJECT
 10
14.721798
 20
10.598209
 30
0.0
 11
14.276798
 21
10.598209
 31
0.0
  0
LINE
  8
OBJECT
 10
14.844555
 20
10.240209
 30
0.0
 11
14.721798
 21
10.240209
 31
0.0
  0
LINE
  8
OBJECT
 10
14.846798
 20
10.646209
 30
0.0
 11
14.721798
 21
10.646209
 31
0.0
  0
LINE
  8
OBJECT
 10
14.276798
 20
10.598209
 30
0.0
 11
14.276798
 21
10.288209
 31
0.0
  0
LINE
  8
HIDDEN
 10
14.831798
 20
10.510709
 30
0.0
 11
14.276798
 21
10.510709
 31
0.0
  0
ARC
  8
OBJECT
 10
14.706798
 20
10.293209
 30
0.0
 40
0.25
 50
270.0
 51
0.0
  0
ARC
  8
OBJECT
 10
14.706798
 20
13.543209
 30
0.0
 40
0.25
 50
0.0
 51
90.0
  0
ARC
  8
OBJECT
 10
13.796798
 20
13.543209
 30
0.0
 40
0.25
 50
90.0
 51
180.0
  0
LINE
  8
OBJECT
 10
14.220729
 20
11.822841
 30
0.0
 11
14.220729
 21
13.793209
 31
0.0
  0
LINE
  8
OBJECT
 10
14.206798
 20
10.043209
 30
0.0
 11
14.206798
 21
10.093209
 31
0.0
  0
LINE
  8
OBJECT
 10
14.706798
 20
13.793209
 30
0.0
 11
13.796798
 21
13.793209
 31
0.0
  0
LINE
  8
OBJECT
 10
13.796798
 20
10.043209
 30
0.0
 11
14.706798
 21
10.043209
 31
0.0
  0
LINE
  8
OBJECT
 10
14.956798
 20
10.293209
 30
0.0
 11
14.956798
 21
13.543209
 31
0.0
  0
ARC
  8
OBJECT
 10
14.717009
 20
11.293036
 30
0.0
 40
0.537925
 50
63.52761
 51
94.819939
  0
TEXT
  8
TEXT
 10
15.692906
 20
15.50955
 30
0.0
 40
0.39375
  1
PS-11279
 41
0.75
 72
     1
 11
16.7265
 21
15.50955
 31
0.0
  0
TEXT
  8
TEXT
 10
3.40935
 20
15.50955
 30
0.0
 40
0.39375
  1
PLASTIBOX  (STYLE D)
 41
0.75
 72
     1
 11
6.1656
 21
15.50955
 31
0.0
  0
LINE
  8
0
 62
     0
 10
6.642621
 20
6.705758
 30
0.0
 11
6.532621
 21
6.815758
 31
0.0
  0
LINE
  8
0
 62
     0
 10
6.465844
 20
6.705758
 30
0.0
 11
6.355844
 21
6.815758
 31
0.0
  0
LINE
  8
0
 62
     0
 10
6.289068
 20
6.705758
 30
0.0
 11
6.179068
 21
6.815758
 31
0.0
  0
LINE
  8
0
 62
     0
 10
6.112291
 20
6.705758
 30
0.0
 11
6.002291
 21
6.815758
 31
0.0
  0
LINE
  8
0
 62
     0
 10
5.935514
 20
6.705758
 30
0.0
 11
5.825514
 21
6.815758
 31
0.0
  0
LINE
  8
0
 62
     0
 10
5.758738
 20
6.705758
 30
0.0
 11
5.648738
 21
6.815758
 31
0.0
  0
LINE
  8
0
 62
     0
 10
5.581961
 20
6.705758
 30
0.0
 11
5.471961
 21
6.815758
 31
0.0
  0
LINE
  8
0
 62
     0
 10
5.405184
 20
6.705758
 30
0.0
 11
5.295184
 21
6.815758
 31
0.0
  0
LINE
  8
0
 62
     0
 10
5.228408
 20
6.705758
 30
0.0
 11
5.118408
 21
6.815758
 31
0.0
  0
LINE
  8
0
 62
     0
 10
6.819398
 20
6.705758
 30
0.0
 11
6.709398
 21
6.815758
 31
0.0
  0
LINE
  8
0
 62
     0
 10
14.956798
 20
11.425785
 30
0.0
 11
14.846798
 21
11.535785
 31
0.0
  0
LINE
  8
0
 62
     0
 10
14.956798
 20
11.249008
 30
0.0
 11
14.846798
 21
11.359008
 31
0.0
  0
LINE
  8
0
 62
     0
 10
14.956798
 20
11.072232
 30
0.0
 11
14.846798
 21
11.182232
 31
0.0
  0
LINE
  8
0
 62
     0
 10
14.956798
 20
10.895455
 30
0.0
 11
14.846798
 21
11.005455
 31
0.0
  0
LINE
  8
0
 62
     0
 10
14.956798
 20
10.718678
 30
0.0
 11
14.846798
 21
10.828678
 31
0.0
  0
LINE
  8
0
 62
     0
 10
14.956798
 20
10.541901
 30
0.0
 11
14.846798
 21
10.651901
 31
0.0
  0
LINE
  8
0
 62
     0
 10
14.956798
 20
10.365125
 30
0.0
 11
14.846798
 21
10.475125
 31
0.0
  0
LINE
  8
0
 62
     0
 10
14.940562
 20
10.204584
 30
0.0
 11
14.846798
 21
10.298348
 31
0.0
  0
LINE
  8
0
 62
     0
 10
14.867047
 20
10.101322
 30
0.0
 11
14.797413
 21
10.170956
 31
0.0
  0
LINE
  8
0
 62
     0
 10
14.745388
 20
10.046205
 30
0.0
 11
14.638384
 21
10.153209
 31
0.0
  0
LINE
  8
0
 62
     0
 10
14.568388
 20
10.046205
 30
0.0
 11
14.461384
 21
10.153209
 31
0.0
  0
LINE
  8
0
 62
     0
 10
14.391388
 20
10.046205
 30
0.0
 11
14.284384
 21
10.153209
 31
0.0
  0
LINE
  8
0
 62
     0
 10
14.956798
 20
11.602562
 30
0.0
 11
14.846798
 21
11.712562
 31
0.0
  0
LINE
  8
0
 62
     0
 10
13.597133
 20
11.534313
 30
0.0
 11
13.707133
 21
11.644313
 31
0.0
  0
LINE
  8
DIM
 10
14.206798
 20
9.918209
 30
0.0
 11
14.206798
 21
9.331161
 31
0.0
  0
LINE
  8
DIM
 10
15.316798
 20
9.517161
 30
0.0
 11
15.676798
 21
9.517161
 31
0.0
  0
LINE
  8
DIM
 10
13.846798
 20
9.517161
 30
0.0
 11
13.486798
 21
9.517161
 31
0.0
  0
SOLID
  8
DIM
 10
15.316798
 20
9.457161
 30
0.0
 11
15.316798
 21
9.577161
 31
0.0
 12
14.956798
 22
9.517161
 32
0.0
 13
14.956798
 23
9.517161
 33
0.0
  0
SOLID
  8
DIM
 10
13.846798
 20
9.457161
 30
0.0
 11
13.846798
 21
9.577161
 31
0.0
 12
14.206798
 22
9.517161
 32
0.0
 13
14.206798
 23
9.517161
 33
0.0
  0
TEXT
  8
DIM
 10
15.837813
 20
9.392161
 30
0.0
 40
0.25
  1
0.750
 41
0.75
  0
LINE
  8
DIM
 10
13.546798
 20
10.168209
 30
0.0
 11
13.546798
 21
9.576898
 31
0.0
  0
LINE
  8
DIM
 10
14.956798
 20
10.168209
 30
0.0
 11
14.956798
 21
8.793532
 31
0.0
  0
LINE
  8
DIM
 10
15.316798
 20
8.979532
 30
0.0
 11
15.676798
 21
8.979532
 31
0.0
  0
LINE
  8
DIM
 10
13.186798
 20
8.979532
 30
0.0
 11
12.826798
 21
8.979532
 31
0.0
  0
SOLID
  8
DIM
 10
15.316798
 20
8.919532
 30
0.0
 11
15.316798
 21
9.039532
 31
0.0
 12
14.956798
 22
8.979532
 32
0.0
 13
14.956798
 23
8.979532
 33
0.0
  0
SOLID
  8
DIM
 10
13.186798
 20
8.919532
 30
0.0
 11
13.186798
 21
9.039532
 31
0.0
 12
13.546798
 22
8.979532
 32
0.0
 13
13.546798
 23
8.979532
 33
0.0
  0
TEXT
  8
DIM
 10
13.9481
 20
8.854532
 30
0.0
 40
0.25
  1
1.410
 41
0.75
  0
LINE
  8
DIM
 10
13.546798
 20
9.440357
 30
0.0
 11
13.546798
 21
8.793532
 31
0.0
  0
LINE
  8
0
 62
     0
 10
3.129656
 20
7.036966
 30
0.0
 11
3.019656
 21
7.146966
 31
0.0
  0
LINE
  8
0
 62
     0
 10
3.129656
 20
7.213966
 30
0.0
 11
3.019656
 21
7.323966
 31
0.0
  0
LINE
  8
0
 62
     0
 10
3.129656
 20
7.390966
 30
0.0
 11
3.064864
 21
7.455758
 31
0.0
  0
LINE
  8
OBJECT
 10
3.529656
 20
7.515758
 30
0.0
 11
6.908394
 21
7.515758
 31
0.0
  0
LINE
  8
OBJECT
 10
5.559656
 20
1.549645
 30
0.0
 11
5.559656
 21
4.689645
 31
0.0
  0
LINE
  8
OBJECT
 10
5.534656
 20
1.549645
 30
0.0
 11
5.534656
 21
4.689645
 31
0.0
  0
LINE
  8
OBJECT
 10
5.534656
 20
1.549645
 30
0.0
 11
3.769656
 21
1.549645
 31
0.0
  0
LINE
  8
OBJECT
 10
5.534656
 20
4.689645
 30
0.0
 11
3.769656
 21
4.689645
 31
0.0
  0
SOLID
  8
DIM
 10
8.145225
 20
1.80087
 30
0.0
 11
8.222738
 21
1.892476
 31
0.0
 12
7.909162
 22
2.079213
 32
0.0
 13
7.909162
 23
2.079213
 33
0.0
  0
LINE
  8
DIM
 10
8.183981
 20
1.846673
 30
0.0
 11
9.280084
 21
0.9192
 31
0.0
  0
LINE
  8
DIM
 10
9.280084
 20
0.9192
 30
0.0
 11
9.640084
 21
0.9192
 31
0.0
  0
TEXT
  8
DIM
 10
9.792296
 20
0.753483
 30
0.0
 40
0.25
  1
3.180 x 3.130
 41
0.75
  0
TEXT
  8
DIM
 10
9.792296
 20
0.336817
 30
0.0
 40
0.25
  1
INSERT AREA
 41
0.75
  0
ARC
  8
OBJECT
 10
4.409766
 20
-29.583065
 30
0.0
 40
37.707863
 50
82.901313
 51
91.254586
  0
LINE
  8
0
 62
     0
 10
4.973736
 20
7.877718
 30
0.0
 11
5.078741
 21
7.982723
 31
0.0
  0
LINE
  8
OBJECT
 10
3.529656
 20
7.948217
 30
0.0
 11
6.853356
 21
7.785958
 31
0.0
  0
LINE
  8
OBJECT
 10
3.60602
 20
8.05462
 30
0.0
 11
6.830548
 21
7.897202
 31
0.0
  0
LINE
  8
0
 62
     0
 10
4.805188
 20
7.885947
 30
0.0
 11
4.910192
 21
7.990952
 31
0.0
  0
LINE
  8
0
 62
     0
 10
4.636639
 20
7.894175
 30
0.0
 11
4.741644
 21
7.99918
 31
0.0
  0
LINE
  8
0
 62
     0
 10
4.468091
 20
7.902403
 30
0.0
 11
4.573096
 21
8.007408
 31
0.0
  0
LINE
  8
0
 62
     0
 10
3.334009
 20
8.005758
 30
0.0
 11
3.444009
 21
8.115758
 31
0.0
  0
LINE
  8
0
 62
     0
 10
3.510786
 20
8.005758
 30
0.0
 11
3.593805
 21
8.088778
 31
0.0
  0
LINE
  8
0
 62
     0
 10
3.625349
 20
7.943545
 30
0.0
 11
3.730354
 21
8.04855
 31
0.0
  0
LINE
  8
0
 62
     0
 10
3.793897
 20
7.935317
 30
0.0
 11
3.898902
 21
8.040321
 31
0.0
  0
LINE
  8
0
 62
     0
 10
3.962446
 20
7.927088
 30
0.0
 11
4.06745
 21
8.032093
 31
0.0
  0
LINE
  8
0
 62
     0
 10
4.130994
 20
7.91886
 30
0.0
 11
4.235999
 21
8.023865
 31
0.0
  0
LINE
  8
0
 62
     0
 10
4.299542
 20
7.910632
 30
0.0
 11
4.404547
 21
8.015637
 31
0.0
  0
LINE
  8
OBJECT
 10
3.584156
 20
8.115758
 30
0.0
 11
3.60602
 21
8.05462
 31
0.0
  0
LINE
  8
OBJECT
 10
3.269656
 20
8.115758
 30
0.0
 11
3.584156
 21
8.115758
 31
0.0
  0
ARC
  8
OBJECT
 10
9.069656
 20
7.585758
 30
0.0
 40
0.25
 50
0.0
 51
90.0
  0
LINE
  8
0
 62
     0
 10
5.647929
 20
7.844805
 30
0.0
 11
5.752934
 21
7.94981
 31
0.0
  0
LINE
  8
0
 62
     0
 10
5.479381
 20
7.853033
 30
0.0
 11
5.584386
 21
7.958038
 31
0.0
  0
LINE
  8
0
 62
     0
 10
5.310833
 20
7.861262
 30
0.0
 11
5.415837
 21
7.966267
 31
0.0
  0
LINE
  8
0
 62
     0
 10
5.142284
 20
7.86949
 30
0.0
 11
5.247289
 21
7.974495
 31
0.0
  0
LINE
  8
0
 62
     0
 10
5.816478
 20
7.836577
 30
0.0
 11
5.921483
 21
7.941582
 31
0.0
  0
LINE
  8
0
 62
     0
 10
5.985026
 20
7.828348
 30
0.0
 11
6.090031
 21
7.933353
 31
0.0
  0
LINE
  8
0
 62
     0
 10
6.153574
 20
7.82012
 30
0.0
 11
6.258579
 21
7.925125
 31
0.0
  0
LINE
  8
0
 62
     0
 10
6.322123
 20
7.811892
 30
0.0
 11
6.427128
 21
7.916897
 31
0.0
  0
LINE
  8
0
 62
     0
 10
6.65922
 20
7.795435
 30
0.0
 11
6.764224
 21
7.90044
 31
0.0
  0
LINE
  8
0
 62
     0
 10
6.490671
 20
7.803664
 30
0.0
 11
6.595676
 21
7.908668
 31
0.0
  0
LINE
  8
DIM
 10
3.73102
 20
8.05462
 30
0.0
 11
5.33176
 21
8.05462
 31
0.0
  0
LINE
  8
DIM
 10
3.709156
 20
8.115758
 30
0.0
 11
5.33176
 21
8.115758
 31
0.0
  0
LINE
  8
DIM
 10
5.14576
 20
8.475758
 30
0.0
 11
5.14576
 21
8.835758
 31
0.0
  0
LINE
  8
DIM
 10
5.14576
 20
7.69462
 30
0.0
 11
5.14576
 21
7.33462
 31
0.0
  0
LINE
  8
DIM
 10
5.14576
 20
8.835758
 30
0.0
 11
5.50576
 21
8.835758
 31
0.0
  0
SOLID
  8
DIM
 10
5.20576
 20
8.475758
 30
0.0
 11
5.08576
 21
8.475758
 31
0.0
 12
5.14576
 22
8.115758
 32
0.0
 13
5.14576
 23
8.115758
 33
0.0
  0
SOLID
  8
DIM
 10
5.20576
 20
7.69462
 30
0.0
 11
5.08576
 21
7.69462
 31
0.0
 12
5.14576
 22
8.05462
 32
0.0
 13
5.14576
 23
8.05462
 33
0.0
  0
TEXT
  8
DIM
 10
5.638062
 20
8.710758
 30
0.0
 40
0.25
  1
0.060
 41
0.75
  0
LINE
  8
DIM
 10
9.444656
 20
7.455758
 30
0.0
 11
10.074118
 21
7.455758
 31
0.0
  0
LINE
  8
DIM
 10
9.888118
 20
8.195758
 30
0.0
 11
9.888118
 21
8.555758
 31
0.0
  0
LINE
  8
DIM
 10
9.888118
 20
7.095758
 30
0.0
 11
9.888118
 21
6.735758
 31
0.0
  0
LINE
  8
DIM
 10
9.888118
 20
8.555758
 30
0.0
 11
9.528118
 21
8.555758
 31
0.0
  0
SOLID
  8
DIM
 10
9.948118
 20
8.195758
 30
0.0
 11
9.828118
 21
8.195758
 31
0.0
 12
9.888118
 22
7.835758
 32
0.0
 13
9.888118
 23
7.835758
 33
0.0
  0
SOLID
  8
DIM
 10
9.948118
 20
7.095758
 30
0.0
 11
9.828118
 21
7.095758
 31
0.0
 12
9.888118
 22
7.455758
 32
0.0
 13
9.888118
 23
7.455758
 33
0.0
  0
TEXT
  8
DIM
 10
8.647782
 20
8.430758
 30
0.0
 40
0.25
  1
0.380
 41
0.75
  0
ARC
  8
HIDDEN
 10
9.069656
 20
7.585758
 30
0.0
 40
0.14
 50
0.0
 51
90.0
  0
ARC
  8
HIDDEN
 10
4.409766
 20
-29.583065
 30
0.0
 40
37.597863
 50
82.901313
 51
83.277069
  0
LINE
  8
HIDDEN
 10
8.811281
 20
7.75627
 30
0.0
 11
8.788121
 21
7.691505
 31
0.0
  0
LINE
  8
HIDDEN
 10
8.737156
 20
7.875667
 30
0.0
 11
8.712011
 21
7.805351
 31
0.0
  0
LINE
  8
HIDDEN
 10
6.830548
 20
7.897202
 30
0.0
 11
8.712011
 21
7.805351
 31
0.0
  0
LINE
  8
HIDDEN
 10
6.853356
 20
7.785958
 30
0.0
 11
8.788121
 21
7.691505
 31
0.0
  0
LINE
  8
HIDDEN
 10
9.209656
 20
7.455758
 30
0.0
 11
9.209656
 21
7.585758
 31
0.0
  0
SOLID
  8
DIM
 10
10.648249
 20
8.195758
 30
0.0
 11
10.528249
 21
8.195758
 31
0.0
 12
10.588249
 22
7.835758
 32
0.0
 13
10.588249
 23
7.835758
 33
0.0
  0
LINE
  8
DIM
 10
9.194656
 20
7.835758
 30
0.0
 11
10.774249
 21
7.835758
 31
0.0
  0
LINE
  8
DIM
 10
8.913121
 20
7.691505
 30
0.0
 11
10.774249
 21
7.691505
 31
0.0
  0
SOLID
  8
DIM
 10
10.648249
 20
7.331505
 30
0.0
 11
10.528249
 21
7.331505
 31
0.0
 12
10.588249
 22
7.691505
 32
0.0
 13
10.588249
 23
7.691505
 33
0.0
  0
LINE
  8
DIM
 10
10.588249
 20
7.331505
 30
0.0
 11
10.588249
 21
6.971505
 31
0.0
  0
LINE
  8
DIM
 10
10.588249
 20
8.195758
 30
0.0
 11
10.588249
 21
8.555758
 31
0.0
  0
LINE
  8
DIM
 10
10.588249
 20
8.555758
 30
0.0
 11
10.948249
 21
8.555758
 31
0.0
  0
TEXT
  8
DIM
 10
11.071512
 20
8.430758
 30
0.0
 40
0.25
  1
0.160
 41
0.75
  0
LINE
  8
DIM
 10
3.144656
 20
8.115758
 30
0.0
 11
2.208541
 21
8.115758
 31
0.0
  0
LINE
  8
DIM
 10
3.404656
 20
7.948217
 30
0.0
 11
2.208541
 21
7.948217
 31
0.0
  0
LINE
  8
DIM
 10
2.394541
 20
7.588217
 30
0.0
 11
2.394541
 21
7.228217
 31
0.0
  0
LINE
  8
DIM
 10
2.394541
 20
8.475758
 30
0.0
 11
2.394541
 21
8.835758
 31
0.0
  0
LINE
  8
DIM
 10
2.394541
 20
7.228217
 30
0.0
 11
2.034541
 21
7.228217
 31
0.0
  0
SOLID
  8
DIM
 10
2.454541
 20
7.588217
 30
0.0
 11
2.334541
 21
7.588217
 31
0.0
 12
2.394541
 22
7.948217
 32
0.0
 13
2.394541
 23
7.948217
 33
0.0
  0
SOLID
  8
DIM
 10
2.454541
 20
8.475758
 30
0.0
 11
2.334541
 21
8.475758
 31
0.0
 12
2.394541
 22
8.115758
 32
0.0
 13
2.394541
 23
8.115758
 33
0.0
  0
TEXT
  8
DIM
 10
1.201008
 20
7.103217
 30
0.0
 40
0.25
  1
0.175
 41
0.75
  0
TEXT
  8
DIM
 10
36.288684
 20
26.004199
 30
0.0
 40
0.25
  1

  0
TEXT
  8
TEXT
 10
0.556763
 20
31.626166
 30
0.0
 40
0.2625
  1
NAME
 41
0.75
 72
     1
 11
0.9177
 21
31.626166
 31
0.0
  0
TEXT
  8
TEXT
 10
0.556763
 20
32.063666
 30
0.0
 40
0.2625
  1
PART
 41
0.75
 72
     1
 11
0.9177
 21
32.063666
 31
0.0
  0
TEXT
  8
TEXT
 10
11.346825
 20
31.626166
 30
0.0
 40
0.2625
  1
No.
 41
0.75
 72
     1
 11
11.5437
 21
31.626166
 31
0.0
  0
TEXT
  8
TEXT
 10
11.182763
 20
32.063666
 30
0.0
 40
0.2625
  1
PART
 41
0.75
 72
     1
 11
11.5437
 21
32.063666
 31
0.0
  0
LINE
  8
TITLE
 10
12.3312
 20
32.4198
 30
0.0
 11
12.3312
 21
31.542
 31
0.0
  0
LINE
  8
TITLE
 10
10.7562
 20
32.4198
 30
0.0
 11
10.7562
 21
31.542
 31
0.0
  0
LINE
  8
TITLE
 10
10.626
 20
32.4198
 30
0.0
 11
10.626
 21
31.542
 31
0.0
  0
LINE
  8
TITLE
 10
1.7052
 20
31.542
 30
0.0
 11
1.7052
 21
32.4198
 31
0.0
  0
LINE
  8
TITLE
 10
0.1302
 20
31.542
 30
0.0
 11
21.1218
 21
31.542
 31
0.0
  0
LINE
  8
TITLE
 10
21.1218
 20
0.1302
 30
0.0
 11
0.1302
 21
0.1302
 31
0.0
  0
LINE
  8
TITLE
 10
21.1218
 20
32.4198
 30
0.0
 11
21.1218
 21
16.275
 31
0.0
  0
LINE
  8
TITLE
 10
0.1302
 20
32.4198
 30
0.0
 11
21.1218
 21
32.4198
 31
0.0
  0
LINE
  8
TITLE
 10
0.1302
 20
0.1302
 30
0.0
 11
0.1302
 21
16.1448
 31
0.0
  0
LINE
  8
TITLE
 10
0.0
 20
0.0
 30
0.0
 11
0.0
 21
32.55
 31
0.0
  0
LINE
  8
TITLE
 10
21.252
 20
0.0
 30
0.0
 11
0.0
 21
0.0
 31
0.0
  0
LINE
  8
TITLE
 10
21.252
 20
32.55
 30
0.0
 11
21.252
 21
0.0
 31
0.0
  0
LINE
  8
TITLE
 10
0.0
 20
32.55
 30
0.0
 11
21.252
 21
32.55
 31
0.0
  0
LINE
  8
TITLE
 10
0.1302
 20
16.275
 30
0.0
 11
0.1302
 21
32.4198
 31
0.0
  0
LINE
  8
TITLE
 10
21.1218
 20
16.1448
 30
0.0
 11
21.1218
 21
0.1302
 31
0.0
  0
TEXT
  8
DIM
 10
9.798496
 20
16.818491
 30
0.0
 40
0.25
  1
INSERT AREA
 41
0.75
  0
TEXT
  8
DIM
 10
9.798496
 20
17.235157
 30
0.0
 40
0.25
  1
3.180 x 3.130
 41
0.75
  0
TEXT
  8
DIM
 10
9.876232
 20
19.476319
 30
0.0
 40
0.25
  1
3.190
 41
0.75
  0
LINE
  8
DIM
 10
10.336247
 20
31.056186
 30
0.0
 11
10.696247
 21
31.056186
 31
0.0
  0
LINE
  8
OBJECT
 10
5.540856
 20
21.171319
 30
0.0
 11
3.775856
 21
21.171319
 31
0.0
  0
LINE
  8
OBJECT
 10
5.540856
 20
18.031319
 30
0.0
 11
3.775856
 21
18.031319
 31
0.0
  0
LINE
  8
OBJECT
 10
3.535856
 20
23.997432
 30
0.0
 11
6.914594
 21
23.997432
 31
0.0
  0
LINE
  8
OBJECT
 10
3.275856
 20
24.597432
 30
0.0
 11
9.075856
 21
24.597432
 31
0.0
  0
LINE
  8
OBJECT
 10
3.608356
 20
24.547097
 30
0.0
 11
6.827564
 21
24.547097
 31
0.0
  0
LINE
  8
OBJECT
 10
3.275856
 20
23.187432
 30
0.0
 11
9.075856
 21
23.187432
 31
0.0
  0
LINE
  8
OBJECT
 10
9.075856
 20
30.274882
 30
0.0
 11
3.275856
 21
30.274882
 31
0.0
  0
LINE
  8
OBJECT
 10
3.275856
 20
26.524882
 30
0.0
 11
9.075856
 21
26.524882
 31
0.0
  0
LINE
  8
OBJECT
 10
8.623856
 20
29.849882
 30
0.0
 11
3.729356
 21
29.849882
 31
0.0
  0
LINE
  8
OBJECT
 10
3.729356
 20
26.949882
 30
0.0
 11
8.623856
 21
26.949882
 31
0.0
  0
LINE
  8
HIDDEN
 10
9.075856
 20
30.164882
 30
0.0
 11
3.275856
 21
30.164882
 31
0.0
  0
LINE
  8
HIDDEN
 10
3.275856
 20
26.634882
 30
0.0
 11
9.075856
 21
26.634882
 31
0.0
  0
LINE
  8
HIDDEN
 10
3.275856
 20
26.584882
 30
0.0
 11
9.075856
 21
26.584882
 31
0.0
  0
LINE
  8
HIDDEN
 10
9.075856
 20
30.214882
 30
0.0
 11
3.275856
 21
30.214882
 31
0.0
  0
LINE
  8
OBJECT
 10
8.623856
 20
29.904882
 30
0.0
 11
3.729356
 21
29.904882
 31
0.0
  0
LINE
  8
OBJECT
 10
3.729356
 20
26.894882
 30
0.0
 11
8.623856
 21
26.894882
 31
0.0
  0
LINE
  8
OBJECT
 10
3.244856
 20
23.297432
 30
0.0
 11
6.884098
 21
23.297432
 31
0.0
  0
LINE
  8
OBJECT
 10
3.535856
 20
24.437097
 30
0.0
 11
6.830192
 21
24.437097
 31
0.0
  0
LINE
  8
0
 62
     0
 10
3.997171
 20
23.187432
 30
0.0
 11
3.887171
 21
23.297432
 31
0.0
  0
LINE
  8
HIDDEN
 10
9.075856
 20
17.786319
 30
0.0
 11
3.275856
 21
17.786319
 31
0.0
  0
LINE
  8
HIDDEN
 10
3.275856
 20
21.416319
 30
0.0
 11
9.075856
 21
21.416319
 31
0.0
  0
LINE
  8
HIDDEN
 10
3.275856
 20
21.366319
 30
0.0
 11
9.075856
 21
21.366319
 31
0.0
  0
LINE
  8
HIDDEN
 10
9.075856
 20
17.836319
 30
0.0
 11
3.275856
 21
17.836319
 31
0.0
  0
LINE
  8
OBJECT
 10
3.275856
 20
21.476319
 30
0.0
 11
9.075856
 21
21.476319
 31
0.0
  0
LINE
  8
OBJECT
 10
9.075856
 20
17.726319
 30
0.0
 11
3.275856
 21
17.726319
 31
0.0
  0
LINE
  8
OBJECT
 10
8.575856
 20
21.196319
 30
0.0
 11
3.775856
 21
21.196319
 31
0.0
  0
LINE
  8
OBJECT
 10
8.575856
 20
18.006319
 30
0.0
 11
3.775856
 21
18.006319
 31
0.0
  0
LINE
  8
DIM
 10
3.785856
 20
22.073328
 30
0.0
 11
5.662674
 21
22.073328
 31
0.0
  0
LINE
  8
DIM
 10
3.385856
 20
31.090269
 30
0.0
 11
5.597284
 21
31.090269
 31
0.0
  0
LINE
  8
DIM
 10
3.940856
 20
30.662089
 30
0.0
 11
5.617937
 21
30.662089
 31
0.0
  0
LINE
  8
DIM
 10
3.495856
 20
27.562814
 30
0.0
 11
5.532858
 21
27.562814
 31
0.0
  0
SOLID
  8
DIM
 10
4.010856
 20
17.238532
 30
0.0
 11
4.010856
 21
17.358532
 31
0.0
 12
3.650856
 22
17.298532
 32
0.0
 13
3.650856
 23
17.298532
 33
0.0
  0
LINE
  8
DIM
 10
3.650856
 20
18.006319
 30
0.0
 11
3.650856
 21
17.112532
 31
0.0
  0
LINE
  8
DIM
 10
3.025856
 20
17.851319
 30
0.0
 11
3.025856
 21
17.112532
 31
0.0
  0
SOLID
  8
DIM
 10
2.665856
 20
17.238532
 30
0.0
 11
2.665856
 21
17.358532
 31
0.0
 12
3.025856
 22
17.298532
 32
0.0
 13
3.025856
 23
17.298532
 33
0.0
  0
TEXT
  8
DIM
 10
1.429753
 20
17.173532
 30
0.0
 40
0.25
  1
0.625
 41
0.75
  0
LINE
  8
DIM
 10
2.665856
 20
22.073328
 30
0.0
 11
1.834222
 21
22.073328
 31
0.0
  0
LINE
  8
DIM
 10
3.300856
 20
18.126319
 30
0.0
 11
1.904421
 21
18.126319
 31
0.0
  0
LINE
  8
DIM
 10
3.300856
 20
21.076319
 30
0.0
 11
1.904421
 21
21.076319
 31
0.0
  0
TEXT
  8
DIM
 10
1.807423
 20
19.476319
 30
0.0
 40
0.25
  1
2.950
 41
0.75
  0
LINE
  8
DIM
 10
3.150856
 20
21.476319
 30
0.0
 11
1.904421
 21
21.476319
 31
0.0
  0
LINE
  8
DIM
 10
2.665856
 20
17.298532
 30
0.0
 11
2.305856
 21
17.298532
 31
0.0
  0
LINE
  8
DIM
 10
2.090421
 20
18.486319
 30
0.0
 11
2.090421
 21
19.355998
 31
0.0
  0
SOLID
  8
DIM
 10
2.150421
 20
18.486319
 30
0.0
 11
2.030421
 21
18.486319
 31
0.0
 12
2.090421
 22
18.126319
 32
0.0
 13
2.090421
 23
18.126319
 33
0.0
  0
TEXT
  8
DIM
 10
1.058995
 20
21.948328
 30
0.0
 40
0.25
  1
0.400
 41
0.75
  0
LINE
  8
DIM
 10
2.090421
 20
20.716319
 30
0.0
 11
2.090421
 21
19.890219
 31
0.0
  0
SOLID
  8
DIM
 10
2.150421
 20
20.716319
 30
0.0
 11
2.030421
 21
20.716319
 31
0.0
 12
2.090421
 22
21.076319
 32
0.0
 13
2.090421
 23
21.076319
 33
0.0
  0
SOLID
  8
DIM
 10
2.150421
 20
21.836319
 30
0.0
 11
2.030421
 21
21.836319
 31
0.0
 12
2.090421
 22
21.476319
 32
0.0
 13
2.090421
 23
21.476319
 33
0.0
  0
LINE
  8
DIM
 10
2.090421
 20
21.836319
 30
0.0
 11
2.090421
 21
22.073328
 31
0.0
  0
LINE
  8
HIDDEN
 10
3.085856
 20
17.976319
 30
0.0
 11
3.085856
 21
21.226319
 31
0.0
  0
LINE
  8
HIDDEN
 10
3.135856
 20
17.976319
 30
0.0
 11
3.135856
 21
21.226319
 31
0.0
  0
LINE
  8
OBJECT
 10
3.025856
 20
17.976319
 30
0.0
 11
3.025856
 21
21.226319
 31
0.0
  0
LINE
  8
OBJECT
 10
3.650856
 20
18.131319
 30
0.0
 11
3.650856
 21
21.071319
 31
0.0
  0
LINE
  8
OBJECT
 10
3.675856
 20
18.131319
 30
0.0
 11
3.675856
 21
21.071319
 31
0.0
  0
ARC
  8
HIDDEN
 10
3.275856
 20
17.976319
 30
0.0
 40
0.19
 50
180.0
 51
270.0
  0
ARC
  8
HIDDEN
 10
3.275856
 20
17.976319
 30
0.0
 40
0.14
 50
180.0
 51
270.0
  0
ARC
  8
OBJECT
 10
3.275856
 20
17.976319
 30
0.0
 40
0.25
 50
180.0
 51
270.0
  0
CIRCLE
  8
HIDDEN
 10
3.425856
 20
18.126319
 30
0.0
 40
0.203
  0
CIRCLE
  8
HIDDEN
 10
3.425856
 20
18.126319
 30
0.0
 40
0.155
  0
CIRCLE
  8
OBJECT
 10
3.425856
 20
18.126319
 30
0.0
 40
0.0675
  0
CIRCLE
  8
OBJECT
 10
3.425856
 20
18.126319
 30
0.0
 40
0.115
  0
ARC
  8
OBJECT
 10
3.775856
 20
18.131319
 30
0.0
 40
0.125
 50
180.0
 51
270.0
  0
ARC
  8
OBJECT
 10
3.775856
 20
18.131319
 30
0.0
 40
0.1
 50
180.0
 51
270.0
  0
ARC
  8
HIDDEN
 10
3.275856
 20
21.226319
 30
0.0
 40
0.19
 50
90.0
 51
180.0
  0
ARC
  8
HIDDEN
 10
3.275856
 20
21.226319
 30
0.0
 40
0.14
 50
90.0
 51
180.0
  0
ARC
  8
OBJECT
 10
3.275856
 20
21.226319
 30
0.0
 40
0.25
 50
90.0
 51
180.0
  0
SOLID
  8
DIM
 10
2.665856
 20
22.013328
 30
0.0
 11
2.665856
 21
22.133328
 31
0.0
 12
3.025856
 22
22.073328
 32
0.0
 13
3.025856
 23
22.073328
 33
0.0
  0
LINE
  8
DIM
 10
3.025856
 20
21.351319
 30
0.0
 11
3.025856
 21
22.259328
 31
0.0
  0
CIRCLE
  8
OBJECT
 10
3.425856
 20
21.076319
 30
0.0
 40
0.115
  0
CIRCLE
  8
OBJECT
 10
3.425856
 20
21.076319
 30
0.0
 40
0.0675
  0
CIRCLE
  8
HIDDEN
 10
3.425856
 20
21.076319
 30
0.0
 40
0.203
  0
CIRCLE
  8
HIDDEN
 10
3.425856
 20
21.076319
 30
0.0
 40
0.155
  0
ARC
  8
OBJECT
 10
3.775856
 20
21.071319
 30
0.0
 40
0.125
 50
90.0
 51
180.0
  0
ARC
  8
OBJECT
 10
3.775856
 20
21.071319
 30
0.0
 40
0.1
 50
90.0
 51
180.0
  0
SOLID
  8
DIM
 10
3.785856
 20
22.013328
 30
0.0
 11
3.785856
 21
22.133328
 31
0.0
 12
3.425856
 22
22.073328
 32
0.0
 13
3.425856
 23
22.073328
 33
0.0
  0
LINE
  8
DIM
 10
3.425856
 20
21.201319
 30
0.0
 11
3.425856
 21
22.259328
 31
0.0
  0
LINE
  8
OBJECT
 10
3.025856
 20
30.024882
 30
0.0
 11
3.025856
 21
26.774882
 31
0.0
  0
LINE
  8
HIDDEN
 10
3.135856
 20
30.024882
 30
0.0
 11
3.135856
 21
26.774882
 31
0.0
  0
LINE
  8
HIDDEN
 10
3.085856
 20
30.024882
 30
0.0
 11
3.085856
 21
26.774882
 31
0.0
  0
LINE
  8
OBJECT
 10
3.666356
 20
27.012882
 30
0.0
 11
3.666356
 21
29.786882
 31
0.0
  0
LINE
  8
OBJECT
 10
3.611356
 20
27.012882
 30
0.0
 11
3.611356
 21
29.786882
 31
0.0
  0
LINE
  8
DIM
 10
2.090421
 20
27.254882
 30
0.0
 11
2.090421
 21
28.110983
 31
0.0
  0
LINE
  8
DIM
 10
3.604356
 20
26.894882
 30
0.0
 11
1.904421
 21
26.894882
 31
0.0
  0
SOLID
  8
DIM
 10
2.150421
 20
27.254882
 30
0.0
 11
2.030421
 21
27.254882
 31
0.0
 12
2.090421
 22
26.894882
 32
0.0
 13
2.090421
 23
26.894882
 33
0.0
  0
ARC
  8
OBJECT
 10
3.275856
 20
23.437432
 30
0.0
 40
0.25
 50
180.0
 51
270.0
  0
ARC
  8
OBJECT
 10
3.244856
 20
24.378432
 30
0.0
 40
0.109
 50
90.0
 51
180.0
  0
ARC
  8
OBJECT
 10
3.244856
 20
23.406432
 30
0.0
 40
0.109
 50
180.0
 51
270.0
  0
ARC
  8
OBJECT
 10
3.275856
 20
24.347432
 30
0.0
 40
0.25
 50
90.0
 51
180.0
  0
LINE
  8
0
 62
     0
 10
3.025868
 20
24.349868
 30
0.0
 11
3.273432
 21
24.597432
 31
0.0
  0
LINE
  8
0
 62
     0
 10
3.290064
 20
23.187432
 30
0.0
 11
3.025856
 21
23.45164
 31
0.0
  0
LINE
  8
OBJECT
 10
3.075856
 20
23.997432
 30
0.0
 11
3.315856
 21
23.997432
 31
0.0
  0
LINE
  8
OBJECT
 10
3.025856
 20
24.347432
 30
0.0
 11
3.025856
 21
23.437432
 31
0.0
  0
LINE
  8
OBJECT
 10
3.135856
 20
23.997432
 30
0.0
 11
3.135856
 21
23.406432
 31
0.0
  0
LINE
  8
0
 62
     0
 10
3.135856
 20
23.51864
 30
0.0
 11
3.025856
 21
23.62864
 31
0.0
  0
LINE
  8
OBJECT
 10
3.135856
 20
24.378432
 30
0.0
 11
3.135856
 21
23.997432
 31
0.0
  0
LINE
  8
0
 62
     0
 10
3.135856
 20
23.87264
 30
0.0
 11
3.071064
 21
23.937432
 31
0.0
  0
LINE
  8
0
 62
     0
 10
3.135856
 20
23.69564
 30
0.0
 11
3.025856
 21
23.80564
 31
0.0
  0
LINE
  8
OBJECT
 10
3.025856
 20
23.937432
 30
0.0
 11
3.075856
 21
23.937432
 31
0.0
  0
LINE
  8
0
 62
     0
 10
3.025868
 20
24.172868
 30
0.0
 11
3.135856
 21
24.282856
 31
0.0
  0
LINE
  8
0
 62
     0
 10
3.025868
 20
23.995868
 30
0.0
 11
3.135856
 21
24.105856
 31
0.0
  0
LINE
  8
OBJECT
 10
3.075856
 20
23.997432
 30
0.0
 11
3.075856
 21
23.937432
 31
0.0
  0
LINE
  8
OBJECT
 10
3.270856
 20
23.422432
 30
0.0
 11
3.270856
 21
23.867432
 31
0.0
  0
LINE
  8
HIDDEN
 10
3.358356
 20
23.312432
 30
0.0
 11
3.358356
 21
23.867432
 31
0.0
  0
LINE
  8
OBJECT
 10
3.580856
 20
23.422432
 30
0.0
 11
3.580856
 21
23.867432
 31
0.0
  0
LINE
  8
HIDDEN
 10
3.493356
 20
23.312432
 30
0.0
 11
3.493356
 21
23.867432
 31
0.0
  0
LINE
  8
OBJECT
 10
3.222856
 20
23.422432
 30
0.0
 11
3.628856
 21
23.422432
 31
0.0
  0
LINE
  8
0
 62
     0
 10
3.643617
 20
23.187432
 30
0.0
 11
3.533617
 21
23.297432
 31
0.0
  0
LINE
  8
HIDDEN
 10
3.310856
 20
23.312432
 30
0.0
 11
3.540856
 21
23.312432
 31
0.0
  0
LINE
  8
0
 62
     0
 10
3.466841
 20
23.187432
 30
0.0
 11
3.356841
 21
23.297432
 31
0.0
  0
LINE
  8
HIDDEN
 10
3.310856
 20
23.187432
 30
0.0
 11
3.310856
 21
23.312432
 31
0.0
  0
LINE
  8
OBJECT
 10
3.222856
 20
23.299676
 30
0.0
 11
3.222856
 21
23.422432
 31
0.0
  0
LINE
  8
HIDDEN
 10
3.540856
 20
23.187432
 30
0.0
 11
3.540856
 21
23.312432
 31
0.0
  0
LINE
  8
0
 62
     0
 10
3.820394
 20
23.187432
 30
0.0
 11
3.710394
 21
23.297432
 31
0.0
  0
LINE
  8
OBJECT
 10
3.628856
 20
23.297432
 30
0.0
 11
3.628856
 21
23.422432
 31
0.0
  0
LINE
  8
OBJECT
 10
3.580856
 20
23.867432
 30
0.0
 11
3.270856
 21
23.867432
 31
0.0
  0
LINE
  8
0
 62
     0
 10
3.516986
 20
24.487432
 30
0.0
 11
3.600005
 21
24.570452
 31
0.0
  0
LINE
  8
OBJECT
 10
3.315856
 20
24.487432
 30
0.0
 11
3.315856
 21
23.867432
 31
0.0
  0
LINE
  8
HIDDEN
 10
3.378856
 20
24.411959
 30
0.0
 11
3.378856
 21
23.867432
 31
0.0
  0
LINE
  8
HIDDEN
 10
3.472856
 20
24.411959
 30
0.0
 11
3.472856
 21
23.867432
 31
0.0
  0
LINE
  8
OBJECT
 10
3.535856
 20
24.487432
 30
0.0
 11
3.535856
 21
23.867432
 31
0.0
  0
LINE
  8
OBJECT
 10
3.244856
 20
24.487432
 30
0.0
 11
3.535856
 21
24.487432
 31
0.0
  0
LINE
  8
0
 62
     0
 10
3.340209
 20
24.487432
 30
0.0
 11
3.450209
 21
24.597432
 31
0.0
  0
ARC
  8
HIDDEN
 10
3.462856
 20
24.411959
 30
0.0
 40
0.01
 50
0.0
 51
90.0
  0
ARC
  8
HIDDEN
 10
3.388856
 20
24.411959
 30
0.0
 40
0.01
 50
90.0
 51
180.0
  0
LINE
  8
HIDDEN
 10
3.388856
 20
24.421959
 30
0.0
 11
3.462856
 21
24.421959
 31
0.0
  0
LINE
  8
OBJECT
 10
3.590356
 20
24.597432
 30
0.0
 11
3.608356
 21
24.547097
 31
0.0
  0
LINE
  8
0
 62
     0
 10
3.643427
 20
24.437097
 30
0.0
 11
3.753427
 21
24.547097
 31
0.0
  0
LINE
  8
0
 62
     0
 10
3.820204
 20
24.437097
 30
0.0
 11
3.930204
 21
24.547097
 31
0.0
  0
ARC
  8
OBJECT
 10
3.275856
 20
26.774882
 30
0.0
 40
0.25
 50
180.0
 51
270.0
  0
ARC
  8
HIDDEN
 10
3.275856
 20
26.774882
 30
0.0
 40
0.14
 50
180.0
 51
270.0
  0
ARC
  8
HIDDEN
 10
3.275856
 20
26.774882
 30
0.0
 40
0.19
 50
180.0
 51
270.0
  0
CIRCLE
  8
HIDDEN
 10
3.425856
 20
26.924882
 30
0.0
 40
0.203
  0
CIRCLE
  8
HIDDEN
 10
3.425856
 20
26.924882
 30
0.0
 40
0.155
  0
CIRCLE
  8
HIDDEN
 10
3.425856
 20
26.924882
 30
0.0
 40
0.11
  0
ARC
  8
OBJECT
 10
3.729356
 20
27.012882
 30
0.0
 40
0.063
 50
180.0
 51
270.0
  0
ARC
  8
OBJECT
 10
3.729356
 20
27.012882
 30
0.0
 40
0.118
 50
180.0
 51
270.0
  0
LINE
  8
DIM
 10
3.604356
 20
29.904882
 30
0.0
 11
1.904421
 21
29.904882
 31
0.0
  0
TEXT
  8
DIM
 10
1.804533
 20
28.274882
 30
0.0
 40
0.25
  1
3.010
 41
0.75
  0
LINE
  8
DIM
 10
3.604356
 20
29.904882
 30
0.0
 11
1.904421
 21
29.904882
 31
0.0
  0
LINE
  8
DIM
 10
3.150856
 20
30.274882
 30
0.0
 11
1.904421
 21
30.274882
 31
0.0
  0
LINE
  8
DIM
 10
2.090421
 20
29.544882
 30
0.0
 11
2.090421
 21
28.666993
 31
0.0
  0
LINE
  8
DIM
 10
2.090421
 20
29.544882
 30
0.0
 11
2.090421
 21
29.184882
 31
0.0
  0
SOLID
  8
DIM
 10
2.150421
 20
29.544882
 30
0.0
 11
2.030421
 21
29.544882
 31
0.0
 12
2.090421
 22
29.904882
 32
0.0
 13
2.090421
 23
29.904882
 33
0.0
  0
SOLID
  8
DIM
 10
2.150421
 20
29.544882
 30
0.0
 11
2.030421
 21
29.544882
 31
0.0
 12
2.090421
 22
29.904882
 32
0.0
 13
2.090421
 23
29.904882
 33
0.0
  0
TEXT
  8
DIM
 10
0.884547
 20
30.869882
 30
0.0
 40
0.25
  1
0.370
 41
0.75
  0
LINE
  8
DIM
 10
2.090421
 20
30.994882
 30
0.0
 11
1.730421
 21
30.994882
 31
0.0
  0
LINE
  8
DIM
 10
2.090421
 20
30.634882
 30
0.0
 11
2.090421
 21
30.994882
 31
0.0
  0
SOLID
  8
DIM
 10
2.150421
 20
30.634882
 30
0.0
 11
2.030421
 21
30.634882
 31
0.0
 12
2.090421
 22
30.274882
 32
0.0
 13
2.090421
 23
30.274882
 33
0.0
  0
CIRCLE
  8
HIDDEN
 10
3.425856
 20
29.874882
 30
0.0
 40
0.203
  0
CIRCLE
  8
HIDDEN
 10
3.425856
 20
29.874882
 30
0.0
 40
0.155
  0
LINE
  8
DIM
 10
3.583856
 20
29.999882
 30
0.0
 11
3.580856
 21
30.848089
 31
0.0
  0
SOLID
  8
DIM
 10
3.495856
 20
27.502814
 30
0.0
 11
3.495856
 21
27.622814
 31
0.0
 12
3.135856
 22
27.562814
 32
0.0
 13
3.135856
 23
27.562814
 33
0.0
  0
CIRCLE
  8
HIDDEN
 10
3.425856
 20
29.874882
 30
0.0
 40
0.11
  0
ARC
  8
OBJECT
 10
3.729356
 20
29.786882
 30
0.0
 40
0.063
 50
90.0
 51
180.0
  0
ARC
  8
OBJECT
 10
3.729356
 20
29.786882
 30
0.0
 40
0.118
 50
90.0
 51
180.0
  0
ARC
  8
OBJECT
 10
3.275856
 20
30.024882
 30
0.0
 40
0.25
 50
90.0
 51
180.0
  0
ARC
  8
HIDDEN
 10
3.275856
 20
30.024882
 30
0.0
 40
0.14
 50
90.0
 51
180.0
  0
ARC
  8
HIDDEN
 10
3.275856
 20
30.024882
 30
0.0
 40
0.19
 50
90.0
 51
180.0
  0
SOLID
  8
DIM
 10
3.385856
 20
31.030269
 30
0.0
 11
3.385856
 21
31.150269
 31
0.0
 12
3.025856
 22
31.090269
 32
0.0
 13
3.025856
 23
31.090269
 33
0.0
  0
LINE
  8
DIM
 10
3.025856
 20
30.149882
 30
0.0
 11
3.025856
 21
31.276269
 31
0.0
  0
SOLID
  8
DIM
 10
3.940856
 20
30.602089
 30
0.0
 11
3.940856
 21
30.722089
 31
0.0
 12
3.580856
 22
30.662089
 32
0.0
 13
3.580856
 23
30.662089
 33
0.0
  0
LINE
  8
OBJECT
 10
8.575856
 20
18.031319
 30
0.0
 11
5.565856
 21
18.031319
 31
0.0
  0
LINE
  8
OBJECT
 10
8.575856
 20
21.171319
 30
0.0
 11
5.565856
 21
21.171319
 31
0.0
  0
LINE
  8
DIM
 10
8.565856
 20
22.073328
 30
0.0
 11
6.645446
 21
22.073328
 31
0.0
  0
LINE
  8
DIM
 10
8.340856
 20
17.298532
 30
0.0
 11
6.667243
 21
17.298532
 31
0.0
  0
TEXT
  8
DIM
 10
5.826505
 20
17.173532
 30
0.0
 40
0.25
  1
5.050
 41
0.75
  0
LINE
  8
OBJECT
 10
5.540856
 20
18.031319
 30
0.0
 11
5.540856
 21
21.171319
 31
0.0
  0
LINE
  8
OBJECT
 10
5.565856
 20
18.031319
 30
0.0
 11
5.565856
 21
21.171319
 31
0.0
  0
LINE
  8
DIM
 10
4.010856
 20
17.298532
 30
0.0
 11
5.706267
 21
17.298532
 31
0.0
  0
TEXT
  8
DIM
 10
5.826505
 20
21.948328
 30
0.0
 40
0.25
  1
5.500
 41
0.75
  0
LINE
  8
DIM
 10
8.700856
 20
18.006319
 30
0.0
 11
8.700856
 21
17.112532
 31
0.0
  0
SOLID
  8
DIM
 10
8.340856
 20
17.238532
 30
0.0
 11
8.340856
 21
17.358532
 31
0.0
 12
8.700856
 22
17.298532
 32
0.0
 13
8.700856
 23
17.298532
 33
0.0
  0
LINE
  8
DIM
 10
8.190181
 20
18.328347
 30
0.0
 11
9.286284
 21
17.400874
 31
0.0
  0
CIRCLE
  8
OBJECT
 10
8.925856
 20
18.126319
 30
0.0
 40
0.115
  0
CIRCLE
  8
OBJECT
 10
8.925856
 20
18.126319
 30
0.0
 40
0.0675
  0
CIRCLE
  8
OBJECT
 10
8.925856
 20
21.076319
 30
0.0
 40
0.0675
  0
CIRCLE
  8
OBJECT
 10
8.925856
 20
21.076319
 30
0.0
 40
0.115
  0
CIRCLE
  8
HIDDEN
 10
8.925495
 20
18.126319
 30
0.0
 40
0.203
  0
CIRCLE
  8
HIDDEN
 10
8.925495
 20
18.126319
 30
0.0
 40
0.155
  0
CIRCLE
  8
HIDDEN
 10
8.925495
 20
21.076319
 30
0.0
 40
0.155
  0
CIRCLE
  8
HIDDEN
 10
8.925495
 20
21.076319
 30
0.0
 40
0.203
  0
LINE
  8
DIM
 10
8.700856
 20
21.196319
 30
0.0
 11
10.390749
 21
21.196319
 31
0.0
  0
LINE
  8
DIM
 10
8.700856
 20
18.006319
 30
0.0
 11
10.390749
 21
18.006319
 31
0.0
  0
LINE
  8
OBJECT
 10
8.700856
 20
18.131319
 30
0.0
 11
8.700856
 21
21.071319
 31
0.0
  0
LINE
  8
OBJECT
 10
8.675856
 20
18.131319
 30
0.0
 11
8.675856
 21
21.071319
 31
0.0
  0
SOLID
  8
DIM
 10
8.151425
 20
18.282544
 30
0.0
 11
8.228938
 21
18.37415
 31
0.0
 12
7.915362
 22
18.560887
 32
0.0
 13
7.915362
 23
18.560887
 33
0.0
  0
ARC
  8
OBJECT
 10
8.575856
 20
18.131319
 30
0.0
 40
0.125
 50
270.0
 51
0.0
  0
ARC
  8
OBJECT
 10
8.575856
 20
18.131319
 30
0.0
 40
0.1
 50
270.0
 51
0.0
  0
ARC
  8
OBJECT
 10
8.575856
 20
21.071319
 30
0.0
 40
0.125
 50
0.0
 51
90.0
  0
ARC
  8
OBJECT
 10
8.575856
 20
21.071319
 30
0.0
 40
0.1
 50
0.0
 51
90.0
  0
LINE
  8
DIM
 10
8.925856
 20
21.201319
 30
0.0
 11
8.925856
 21
22.259328
 31
0.0
  0
SOLID
  8
DIM
 10
8.565856
 20
22.013328
 30
0.0
 11
8.565856
 21
22.133328
 31
0.0
 12
8.925856
 22
22.073328
 32
0.0
 13
8.925856
 23
22.073328
 33
0.0
  0
LINE
  8
HIDDEN
 10
9.265856
 20
21.226319
 30
0.0
 11
9.265856
 21
17.976319
 31
0.0
  0
LINE
  8
HIDDEN
 10
9.215856
 20
21.226319
 30
0.0
 11
9.215856
 21
17.976319
 31
0.0
  0
LINE
  8
OBJECT
 10
9.325856
 20
21.226319
 30
0.0
 11
9.325856
 21
17.976319
 31
0.0
  0
LINE
  8
DIM
 10
9.286284
 20
17.400874
 30
0.0
 11
9.646284
 21
17.400874
 31
0.0
  0
ARC
  8
HIDDEN
 10
9.075856
 20
17.976319
 30
0.0
 40
0.19
 50
270.0
 51
0.0
  0
ARC
  8
HIDDEN
 10
9.075856
 20
17.976319
 30
0.0
 40
0.14
 50
270.0
 51
0.0
  0
ARC
  8
OBJECT
 10
9.075856
 20
17.976319
 30
0.0
 40
0.25
 50
270.0
 51
0.0
  0
LINE
  8
DIM
 10
10.204749
 20
18.366319
 30
0.0
 11
10.204749
 21
19.334209
 31
0.0
  0
SOLID
  8
DIM
 10
10.264749
 20
18.366319
 30
0.0
 11
10.144749
 21
18.366319
 31
0.0
 12
10.204749
 22
18.006319
 32
0.0
 13
10.204749
 23
18.006319
 33
0.0
  0
LINE
  8
DIM
 10
9.200856
 20
21.476319
 30
0.0
 11
10.390749
 21
21.476319
 31
0.0
  0
ARC
  8
HIDDEN
 10
9.075856
 20
21.226319
 30
0.0
 40
0.19
 50
0.0
 51
90.0
  0
ARC
  8
HIDDEN
 10
9.075856
 20
21.226319
 30
0.0
 40
0.14
 50
0.0
 51
90.0
  0
ARC
  8
OBJECT
 10
9.075856
 20
21.226319
 30
0.0
 40
0.25
 50
0.0
 51
90.0
  0
SOLID
  8
DIM
 10
10.264749
 20
20.836319
 30
0.0
 11
10.144749
 21
20.836319
 31
0.0
 12
10.204749
 22
21.196319
 32
0.0
 13
10.204749
 23
21.196319
 33
0.0
  0
LINE
  8
DIM
 10
10.204749
 20
20.836319
 30
0.0
 11
10.204749
 21
19.912008
 31
0.0
  0
LINE
  8
DIM
 10
10.204749
 20
22.196319
 30
0.0
 11
10.564749
 21
22.196319
 31
0.0
  0
SOLID
  8
DIM
 10
10.264749
 20
21.836319
 30
0.0
 11
10.144749
 21
21.836319
 31
0.0
 12
10.204749
 22
21.476319
 32
0.0
 13
10.204749
 23
21.476319
 33
0.0
  0
LINE
  8
DIM
 10
10.204749
 20
21.836319
 30
0.0
 11
10.204749
 21
22.196319
 31
0.0
  0
LINE
  8
OBJECT
 10
6.920282
 20
23.951364
 30
0.0
 11
9.325856
 21
23.951364
 31
0.0
  0
LINE
  8
OBJECT
 10
6.923309
 20
23.923501
 30
0.0
 11
9.325856
 21
23.923501
 31
0.0
  0
LINE
  8
OBJECT
 10
6.921835
 20
23.937432
 30
0.0
 11
9.325856
 21
23.937432
 31
0.0
  0
LINE
  8
DIM
 10
8.965856
 20
31.090269
 30
0.0
 11
6.580057
 21
31.090269
 31
0.0
  0
LINE
  8
DIM
 10
8.410495
 20
30.662089
 30
0.0
 11
6.559043
 21
30.662089
 31
0.0
  0
LINE
  8
DIM
 10
8.855856
 20
27.562814
 30
0.0
 11
6.535501
 21
27.562814
 31
0.0
  0
TEXT
  8
DIM
 10
5.69669
 20
27.437814
 30
0.0
 40
0.25
  1
6.080
 41
0.75
  0
LINE
  8
DIM
 10
4.665196
 20
26.994882
 30
0.0
 11
4.665196
 21
28.110983
 31
0.0
  0
LINE
  8
0
 62
     0
 10
5.587971
 20
24.437097
 30
0.0
 11
5.697971
 21
24.547097
 31
0.0
  0
LINE
  8
DIM
 10
5.583731
 20
25.317432
 30
0.0
 11
5.943731
 21
25.317432
 31
0.0
  0
SOLID
  8
DIM
 10
5.643731
 20
24.957432
 30
0.0
 11
5.523731
 21
24.957432
 31
0.0
 12
5.583731
 22
24.597432
 32
0.0
 13
5.583731
 23
24.597432
 33
0.0
  0
LINE
  8
0
 62
     0
 10
4.881054
 20
23.187432
 30
0.0
 11
4.771054
 21
23.297432
 31
0.0
  0
LINE
  8
0
 62
     0
 10
4.173947
 20
23.187432
 30
0.0
 11
4.063947
 21
23.297432
 31
0.0
  0
LINE
  8
0
 62
     0
 10
4.350724
 20
23.187432
 30
0.0
 11
4.240724
 21
23.297432
 31
0.0
  0
LINE
  8
0
 62
     0
 10
4.704277
 20
23.187432
 30
0.0
 11
4.594277
 21
23.297432
 31
0.0
  0
LINE
  8
0
 62
     0
 10
4.527501
 20
23.187432
 30
0.0
 11
4.417501
 21
23.297432
 31
0.0
  0
LINE
  8
0
 62
     0
 10
4.350534
 20
24.437097
 30
0.0
 11
4.460534
 21
24.547097
 31
0.0
  0
LINE
  8
0
 62
     0
 10
4.173757
 20
24.437097
 30
0.0
 11
4.283757
 21
24.547097
 31
0.0
  0
LINE
  8
0
 62
     0
 10
3.996981
 20
24.437097
 30
0.0
 11
4.106981
 21
24.547097
 31
0.0
  0
LINE
  8
0
 62
     0
 10
4.527311
 20
24.437097
 30
0.0
 11
4.637311
 21
24.547097
 31
0.0
  0
LINE
  8
0
 62
     0
 10
4.704088
 20
24.437097
 30
0.0
 11
4.814088
 21
24.547097
 31
0.0
  0
LINE
  8
0
 62
     0
 10
5.234608
 20
23.187432
 30
0.0
 11
5.124608
 21
23.297432
 31
0.0
  0
LINE
  8
0
 62
     0
 10
5.057831
 20
23.187432
 30
0.0
 11
4.947831
 21
23.297432
 31
0.0
  0
LINE
  8
0
 62
     0
 10
5.411384
 20
23.187432
 30
0.0
 11
5.301384
 21
23.297432
 31
0.0
  0
LINE
  8
0
 62
     0
 10
5.588161
 20
23.187432
 30
0.0
 11
5.478161
 21
23.297432
 31
0.0
  0
LINE
  8
0
 62
     0
 10
4.880864
 20
24.437097
 30
0.0
 11
4.990864
 21
24.547097
 31
0.0
  0
LINE
  8
0
 62
     0
 10
5.057641
 20
24.437097
 30
0.0
 11
5.167641
 21
24.547097
 31
0.0
  0
SOLID
  8
DIM
 10
5.643731
 20
24.187097
 30
0.0
 11
5.523731
 21
24.187097
 31
0.0
 12
5.583731
 22
24.547097
 32
0.0
 13
5.583731
 23
24.547097
 33
0.0
  0
LINE
  8
DIM
 10
5.583731
 20
24.187097
 30
0.0
 11
5.583731
 21
23.827097
 31
0.0
  0
LINE
  8
0
 62
     0
 10
5.411194
 20
24.437097
 30
0.0
 11
5.521194
 21
24.547097
 31
0.0
  0
LINE
  8
0
 62
     0
 10
5.234418
 20
24.437097
 30
0.0
 11
5.344418
 21
24.547097
 31
0.0
  0
SOLID
  8
DIM
 10
4.725196
 20
26.994882
 30
0.0
 11
4.605196
 21
26.994882
 31
0.0
 12
4.665196
 22
26.634882
 32
0.0
 13
4.665196
 23
26.634882
 33
0.0
  0
LINE
  8
DIM
 10
5.583731
 20
24.957432
 30
0.0
 11
5.583731
 21
25.317432
 31
0.0
  0
LINE
  8
0
 62
     0
 10
6.471854
 20
24.437097
 30
0.0
 11
6.581854
 21
24.547097
 31
0.0
  0
LINE
  8
0
 62
     0
 10
6.118491
 20
23.187432
 30
0.0
 11
6.008491
 21
23.297432
 31
0.0
  0
LINE
  8
0
 62
     0
 10
5.941714
 20
23.187432
 30
0.0
 11
5.831714
 21
23.297432
 31
0.0
  0
LINE
  8
0
 62
     0
 10
5.764938
 20
23.187432
 30
0.0
 11
5.654938
 21
23.297432
 31
0.0
  0
LINE
  8
0
 62
     0
 10
6.295268
 20
23.187432
 30
0.0
 11
6.185268
 21
23.297432
 31
0.0
  0
LINE
  8
0
 62
     0
 10
6.472044
 20
23.187432
 30
0.0
 11
6.362044
 21
23.297432
 31
0.0
  0
LINE
  8
0
 62
     0
 10
5.764748
 20
24.437097
 30
0.0
 11
5.874748
 21
24.547097
 31
0.0
  0
LINE
  8
0
 62
     0
 10
5.941524
 20
24.437097
 30
0.0
 11
6.051524
 21
24.547097
 31
0.0
  0
LINE
  8
0
 62
     0
 10
6.118301
 20
24.437097
 30
0.0
 11
6.228301
 21
24.547097
 31
0.0
  0
LINE
  8
0
 62
     0
 10
6.295078
 20
24.437097
 30
0.0
 11
6.405078
 21
24.547097
 31
0.0
  0
ARC
  8
OBJECT
 10
4.396257
 20
23.663084
 30
0.0
 40
2.540435
 50
355.695808
 51
12.398627
  0
ARC
  8
OBJECT
 10
6.291391
 20
23.544697
 30
0.0
 40
0.642216
 50
326.199719
 51
353.538089
  0
LINE
  8
0
 62
     0
 10
6.648821
 20
23.187432
 30
0.0
 11
6.538821
 21
23.297432
 31
0.0
  0
LINE
  8
0
 62
     0
 10
6.825598
 20
23.187432
 30
0.0
 11
6.715598
 21
23.297432
 31
0.0
  0
ARC
  8
OBJECT
 10
7.782878
 20
24.514893
 30
0.0
 40
0.955857
 50
175.046248
 51
198.692842
  0
LINE
  8
0
 62
     0
 10
6.648631
 20
24.437097
 30
0.0
 11
6.758631
 21
24.547097
 31
0.0
  0
TEXT
  8
DIM
 10
6.048292
 20
25.192432
 30
0.0
 40
0.25
  1
0.050
 41
0.75
  0
SOLID
  8
DIM
 10
4.725196
 20
29.804882
 30
0.0
 11
4.605196
 21
29.804882
 31
0.0
 12
4.665196
 22
30.164882
 32
0.0
 13
4.665196
 23
30.164882
 33
0.0
  0
TEXT
  8
DIM
 10
4.12064
 20
28.274882
 30
0.0
 40
0.25
  1
 3.530
 41
0.75
  0
LINE
  8
DIM
 10
4.665196
 20
29.804882
 30
0.0
 11
4.665196
 21
28.666993
 31
0.0
  0
TEXT
  8
DIM
 10
5.717523
 20
30.965269
 30
0.0
 40
0.25
  1
6.300
 41
0.75
  0
TEXT
  8
DIM
 10
5.738176
 20
30.537089
 30
0.0
 40
0.25
  1
5.190
 41
0.75
  0
LINE
  8
OBJECT
 10
9.325856
 20
26.774882
 30
0.0
 11
9.325856
 21
30.024882
 31
0.0
  0
LINE
  8
OBJECT
 10
8.686356
 20
27.012382
 30
0.0
 11
8.686356
 21
29.787382
 31
0.0
  0
LINE
  8
HIDDEN
 10
9.215856
 20
26.774882
 30
0.0
 11
9.215856
 21
30.024882
 31
0.0
  0
LINE
  8
HIDDEN
 10
9.265856
 20
26.774882
 30
0.0
 11
9.265856
 21
30.024882
 31
0.0
  0
LINE
  8
OBJECT
 10
8.741356
 20
27.012382
 30
0.0
 11
8.741356
 21
29.787382
 31
0.0
  0
LINE
  8
DIM
 10
10.132127
 20
27.439882
 30
0.0
 11
10.132127
 21
28.110983
 31
0.0
  0
CIRCLE
  8
HIDDEN
 10
8.925495
 20
26.924882
 30
0.0
 40
0.11
  0
CIRCLE
  8
HIDDEN
 10
8.925495
 20
26.924882
 30
0.0
 40
0.203
  0
CIRCLE
  8
HIDDEN
 10
8.925495
 20
26.924882
 30
0.0
 40
0.155
  0
ARC
  8
OBJECT
 10
8.623856
 20
27.012382
 30
0.0
 40
0.1175
 50
270.0
 51
0.0
  0
ARC
  8
OBJECT
 10
8.623856
 20
27.012382
 30
0.0
 40
0.0625
 50
270.0
 51
0.0
  0
LINE
  8
OBJECT
 10
9.325856
 20
23.437432
 30
0.0
 11
9.325856
 21
24.347432
 31
0.0
  0
ARC
  8
OBJECT
 10
9.075856
 20
23.437432
 30
0.0
 40
0.25
 50
270.0
 51
0.0
  0
ARC
  8
OBJECT
 10
9.075856
 20
24.347432
 30
0.0
 40
0.25
 50
0.0
 51
90.0
  0
LINE
  8
DIM
 10
9.050495
 20
27.079882
 30
0.0
 11
10.318127
 21
27.079882
 31
0.0
  0
ARC
  8
OBJECT
 10
9.075856
 20
26.774882
 30
0.0
 40
0.25
 50
270.0
 51
0.0
  0
ARC
  8
HIDDEN
 10
9.075856
 20
26.774882
 30
0.0
 40
0.14
 50
270.0
 51
0.0
  0
ARC
  8
HIDDEN
 10
9.075856
 20
26.774882
 30
0.0
 40
0.19
 50
270.0
 51
0.0
  0
SOLID
  8
DIM
 10
10.192127
 20
27.439882
 30
0.0
 11
10.072127
 21
27.439882
 31
0.0
 12
10.132127
 22
27.079882
 32
0.0
 13
10.132127
 23
27.079882
 33
0.0
  0
CIRCLE
  8
HIDDEN
 10
8.925495
 20
29.874882
 30
0.0
 40
0.11
  0
CIRCLE
  8
HIDDEN
 10
8.925495
 20
29.874882
 30
0.0
 40
0.203
  0
CIRCLE
  8
HIDDEN
 10
8.925495
 20
29.874882
 30
0.0
 40
0.155
  0
SOLID
  8
DIM
 10
8.855856
 20
27.502814
 30
0.0
 11
8.855856
 21
27.622814
 31
0.0
 12
9.215856
 22
27.562814
 32
0.0
 13
9.215856
 23
27.562814
 33
0.0
  0
LINE
  8
DIM
 10
8.386695
 20
29.431559
 30
0.0
 11
10.336247
 21
31.056186
 31
0.0
  0
LINE
  8
DIM
 10
8.770495
 20
29.999882
 30
0.0
 11
8.770495
 21
30.848089
 31
0.0
  0
SOLID
  8
DIM
 10
8.425106
 20
29.385466
 30
0.0
 11
8.348284
 21
29.477652
 31
0.0
 12
8.110135
 22
29.201093
 32
0.0
 13
8.110135
 23
29.201093
 33
0.0
  0
ARC
  8
OBJECT
 10
8.623856
 20
29.787382
 30
0.0
 40
0.1175
 50
0.0
 51
90.0
  0
ARC
  8
OBJECT
 10
8.623856
 20
29.787382
 30
0.0
 40
0.0625
 50
0.0
 51
90.0
  0
SOLID
  8
DIM
 10
8.410495
 20
30.602089
 30
0.0
 11
8.410495
 21
30.722089
 31
0.0
 12
8.770495
 22
30.662089
 32
0.0
 13
8.770495
 23
30.662089
 33
0.0
  0
LINE
  8
DIM
 10
9.050495
 20
29.719882
 30
0.0
 11
10.318127
 21
29.719882
 31
0.0
  0
TEXT
  8
DIM
 10
9.805535
 20
28.274882
 30
0.0
 40
0.25
  1
2.640
 41
0.75
  0
SOLID
  8
DIM
 10
10.192127
 20
29.359882
 30
0.0
 11
10.072127
 21
29.359882
 31
0.0
 12
10.132127
 22
29.719882
 32
0.0
 13
10.132127
 23
29.719882
 33
0.0
  0
LINE
  8
DIM
 10
10.132127
 20
29.359882
 30
0.0
 11
10.132127
 21
28.666993
 31
0.0
  0
LINE
  8
DIM
 10
9.325856
 20
30.149882
 30
0.0
 11
9.325856
 21
31.276269
 31
0.0
  0
ARC
  8
OBJECT
 10
9.075856
 20
30.024882
 30
0.0
 40
0.25
 50
0.0
 51
90.0
  0
ARC
  8
HIDDEN
 10
9.075856
 20
30.024882
 30
0.0
 40
0.14
 50
0.0
 51
90.0
  0
ARC
  8
HIDDEN
 10
9.075856
 20
30.024882
 30
0.0
 40
0.19
 50
0.0
 51
90.0
  0
SOLID
  8
DIM
 10
8.965856
 20
31.030269
 30
0.0
 11
8.965856
 21
31.150269
 31
0.0
 12
9.325856
 22
31.090269
 32
0.0
 13
9.325856
 23
31.090269
 33
0.0
  0
TEXT
  8
DIM
 10
16.387791
 20
28.45438
 30
0.0
 40
0.25
  1
 TYP.
 41
0.75
  0
TEXT
  8
TEXT
 10
12.455067
 20
23.921799
 30
0.0
 40
0.25
  1
%%UMATERIAL:%%u HIGH-IMPACT POLYSTYRENE
 41
0.75
  0
TEXT
  8
TEXT
 10
12.455067
 20
23.505132
 30
0.0
 40
0.25
  1
%%UCOLOR:%%U PC BONE GRAY
 41
0.75
  0
TEXT
  8
TEXT
 10
12.455067
 20
23.088466
 30
0.0
 40
0.25
  1
%%UFINISH:%%U TEXTURED BODY WITH
 41
0.75
  0
TEXT
  8
TEXT
 10
14.17227
 20
22.671799
 30
0.0
 40
0.25
  1
SMOOTH TOP INSERT
 41
0.75
  0
TEXT
  8
TEXT
 10
12.455067
 20
22.006355
 30
0.0
 40
0.25
  1
FOUR (4) #4 x 0.625" LG. SCREWS
 41
0.75
  0
TEXT
  8
TEXT
 10
12.710098
 20
21.589688
 30
0.0
 40
0.25
  1
SUPPLIED FOR ASSEMBLING TOP.
 41
0.75
  0
TEXT
  8
TEXT
 10
12.455067
 20
20.730975
 30
0.0
 40
0.25
  1
FOUR (4) NON-SKID FEET SUPPLIED.
 41
0.75
  0
TEXT
  8
TEXT
 10
12.455067
 20
19.978364
 30
0.0
 40
0.25
  1
USABLE BOARD AREA
 41
0.75
  0
TEXT
  8
TEXT
 10
12.7271
 20
19.561698
 30
0.0
 40
0.25
  1
IS 3.500 x 6.060.
 41
0.75
  0
TEXT
  8
DIM
 10
10.701872
 20
22.071319
 30
0.0
 40
0.25
  1
0.280
 41
0.75
  0
TEXT
  8
DIM
 10
13.932274
 20
25.336206
 30
0.0
 40
0.25
  1
1.410
 41
0.75
  0
SOLID
  8
DIM
 10
13.852998
 20
25.938835
 30
0.0
 11
13.852998
 21
26.058835
 31
0.0
 12
14.212998
 22
25.998835
 32
0.0
 13
14.212998
 23
25.998835
 33
0.0
  0
LINE
  8
OBJECT
 10
13.802998
 20
26.524882
 30
0.0
 11
14.712998
 21
26.524882
 31
0.0
  0
LINE
  8
OBJECT
 10
14.712998
 20
30.274882
 30
0.0
 11
13.802998
 21
30.274882
 31
0.0
  0
LINE
  8
OBJECT
 10
13.662998
 20
27.034882
 30
0.0
 11
14.282998
 21
27.034882
 31
0.0
  0
LINE
  8
HIDDEN
 10
13.738471
 20
26.971882
 30
0.0
 11
14.282998
 21
26.971882
 31
0.0
  0
LINE
  8
HIDDEN
 10
13.738471
 20
26.877882
 30
0.0
 11
14.282998
 21
26.877882
 31
0.0
  0
LINE
  8
OBJECT
 10
13.662998
 20
26.814882
 30
0.0
 11
14.282998
 21
26.814882
 31
0.0
  0
ARC
  8
OBJECT
 10
14.487346
 20
26.467412
 30
0.0
 40
2.540435
 50
85.695808
 51
102.398627
  0
LINE
  8
OBJECT
 10
13.771998
 20
26.634882
 30
0.0
 11
14.152998
 21
26.634882
 31
0.0
  0
LINE
  8
0
 62
     0
 10
13.879996
 20
26.524882
 30
0.0
 11
13.989996
 21
26.634882
 31
0.0
  0
LINE
  8
OBJECT
 10
13.603333
 20
26.894882
 30
0.0
 11
13.603333
 21
28.898719
 31
0.0
  0
LINE
  8
OBJECT
 10
13.552998
 20
26.774882
 30
0.0
 11
13.552998
 21
30.024882
 31
0.0
  0
LINE
  8
OBJECT
 10
13.713333
 20
27.034882
 30
0.0
 11
13.713333
 21
28.898719
 31
0.0
  0
LINE
  8
DIM
 10
12.559759
 20
26.884882
 30
0.0
 11
12.559759
 21
28.089194
 31
0.0
  0
LINE
  8
DIM
 10
13.192998
 20
25.461206
 30
0.0
 11
12.832998
 21
25.461206
 31
0.0
  0
LINE
  8
DIM
 10
13.677998
 20
26.524882
 30
0.0
 11
12.373759
 21
26.524882
 31
0.0
  0
SOLID
  8
DIM
 10
12.619759
 20
26.884882
 30
0.0
 11
12.499759
 21
26.884882
 31
0.0
 12
12.559759
 22
26.524882
 32
0.0
 13
12.559759
 23
26.524882
 33
0.0
  0
LINE
  8
DIM
 10
13.552998
 20
26.649882
 30
0.0
 11
13.552998
 21
26.058572
 31
0.0
  0
SOLID
  8
DIM
 10
13.192998
 20
25.401206
 30
0.0
 11
13.192998
 21
25.521206
 31
0.0
 12
13.552998
 22
25.461206
 32
0.0
 13
13.552998
 23
25.461206
 33
0.0
  0
LINE
  8
DIM
 10
13.852998
 20
25.998835
 30
0.0
 11
13.492998
 21
25.998835
 31
0.0
  0
LINE
  8
DIM
 10
13.552998
 20
25.922031
 30
0.0
 11
13.552998
 21
25.275206
 31
0.0
  0
ARC
  8
OBJECT
 10
13.802998
 20
26.774882
 30
0.0
 40
0.25
 50
180.0
 51
270.0
  0
LINE
  8
OBJECT
 10
13.662998
 20
26.743882
 30
0.0
 11
13.662998
 21
27.034882
 31
0.0
  0
LINE
  8
0
 62
     0
 10
13.556715
 20
26.731932
 30
0.0
 11
13.662998
 21
26.838215
 31
0.0
  0
LINE
  8
0
 62
     0
 10
13.718082
 20
26.539746
 30
0.0
 11
13.813219
 21
26.634882
 31
0.0
  0
ARC
  8
OBJECT
 10
13.771998
 20
26.743882
 30
0.0
 40
0.109
 50
180.0
 51
270.0
  0
LINE
  8
0
 62
     0
 10
13.613443
 20
26.611883
 30
0.0
 11
13.682798
 21
26.681238
 31
0.0
  0
LINE
  8
HIDDEN
 10
13.728471
 20
26.887882
 30
0.0
 11
13.728471
 21
26.961882
 31
0.0
  0
ARC
  8
HIDDEN
 10
13.738471
 20
26.887882
 30
0.0
 40
0.01
 50
180.0
 51
270.0
  0
ARC
  8
HIDDEN
 10
13.738471
 20
26.961882
 30
0.0
 40
0.01
 50
90.0
 51
180.0
  0
LINE
  8
OBJECT
 10
13.552998
 20
26.876882
 30
0.0
 11
13.603333
 21
26.894882
 31
0.0
  0
LINE
  8
0
 62
     0
 10
13.603333
 20
26.955327
 30
0.0
 11
13.662998
 21
27.014992
 31
0.0
  0
LINE
  8
0
 62
     0
 10
13.603333
 20
27.132103
 30
0.0
 11
13.713333
 21
27.242103
 31
0.0
  0
LINE
  8
0
 62
     0
 10
13.603333
 20
27.30888
 30
0.0
 11
13.713333
 21
27.41888
 31
0.0
  0
TEXT
  8
DIM
 10
12.167778
 20
28.274882
 30
0.0
 40
0.25
  1
3.750
 41
0.75
  0
TEXT
  8
DIM
 10
10.914606
 20
30.932666
 30
0.0
 40
0.25
  1
2.900 x 5.025
 41
0.75
  0
TEXT
  8
DIM
 10
10.914606
 20
30.515999
 30
0.0
 40
0.25
  1
INSERT AREA
 41
0.75
  0
SOLID
  8
DIM
 10
12.619759
 20
29.914882
 30
0.0
 11
12.499759
 21
29.914882
 31
0.0
 12
12.559759
 22
30.274882
 32
0.0
 13
12.559759
 23
30.274882
 33
0.0
  0
LINE
  8
DIM
 10
13.353333
 20
27.697061
 30
0.0
 11
12.993333
 21
27.697061
 31
0.0
  0
LINE
  8
DIM
 10
12.559759
 20
29.914882
 30
0.0
 11
12.559759
 21
28.666993
 31
0.0
  0
LINE
  8
0
 62
     0
 10
13.603333
 20
28.723094
 30
0.0
 11
13.713333
 21
28.833094
 31
0.0
  0
SOLID
  8
DIM
 10
13.353333
 20
27.637061
 30
0.0
 11
13.353333
 21
27.757061
 31
0.0
 12
13.713333
 22
27.697061
 32
0.0
 13
13.713333
 23
27.697061
 33
0.0
  0
LINE
  8
0
 62
     0
 10
13.603333
 20
28.015987
 30
0.0
 11
13.713333
 21
28.125987
 31
0.0
  0
LINE
  8
0
 62
     0
 10
13.603333
 20
27.485657
 30
0.0
 11
13.713333
 21
27.595657
 31
0.0
  0
LINE
  8
0
 62
     0
 10
13.603333
 20
27.662434
 30
0.0
 11
13.713333
 21
27.772434
 31
0.0
  0
LINE
  8
0
 62
     0
 10
13.603333
 20
27.83921
 30
0.0
 11
13.713333
 21
27.94921
 31
0.0
  0
LINE
  8
0
 62
     0
 10
13.603333
 20
28.546317
 30
0.0
 11
13.713333
 21
28.656317
 31
0.0
  0
LINE
  8
0
 62
     0
 10
13.603333
 20
28.36954
 30
0.0
 11
13.713333
 21
28.47954
 31
0.0
  0
LINE
  8
0
 62
     0
 10
13.603333
 20
28.192764
 30
0.0
 11
13.713333
 21
28.302764
 31
0.0
  0
ARC
  8
OBJECT
 10
13.635538
 20
29.854033
 30
0.0
 40
0.955857
 50
265.046248
 51
288.692842
  0
LINE
  8
DIM
 10
13.677998
 20
30.274882
 30
0.0
 11
12.373759
 21
30.274882
 31
0.0
  0
ARC
  8
OBJECT
 10
13.802998
 20
30.024882
 30
0.0
 40
0.25
 50
90.0
 51
180.0
  0
LINE
  8
0
 62
     0
 10
14.962998
 20
27.377129
 30
0.0
 11
14.852998
 21
27.487129
 31
0.0
  0
LINE
  8
OBJECT
 10
14.962998
 20
26.774882
 30
0.0
 11
14.962998
 21
30.024882
 31
0.0
  0
LINE
  8
OBJECT
 10
14.852998
 20
26.743882
 30
0.0
 11
14.852998
 21
28.986692
 31
0.0
  0
LINE
  8
OBJECT
 10
14.152998
 20
27.034882
 30
0.0
 11
14.152998
 21
28.985749
 31
0.0
  0
LINE
  8
DIM
 10
15.322998
 20
25.461206
 30
0.0
 11
15.682998
 21
25.461206
 31
0.0
  0
LINE
  8
DIM
 10
15.322998
 20
25.998835
 30
0.0
 11
15.682998
 21
25.998835
 31
0.0
  0
ARC
  8
OBJECT
 10
14.712998
 20
26.774882
 30
0.0
 40
0.25
 50
270.0
 51
0.0
  0
LINE
  8
HIDDEN
 10
14.837998
 20
26.992382
 30
0.0
 11
14.282998
 21
26.992382
 31
0.0
  0
LINE
  8
OBJECT
 10
14.852998
 20
27.127882
 30
0.0
 11
14.727998
 21
27.127882
 31
0.0
  0
LINE
  8
OBJECT
 10
14.850755
 20
26.721882
 30
0.0
 11
14.727998
 21
26.721882
 31
0.0
  0
LINE
  8
HIDDEN
 10
14.837998
 20
26.857382
 30
0.0
 11
14.282998
 21
26.857382
 31
0.0
  0
ARC
  8
OBJECT
 10
14.743998
 20
26.743882
 30
0.0
 40
0.109
 50
270.0
 51
0.0
  0
LINE
  8
DIM
 10
14.212998
 20
26.399882
 30
0.0
 11
14.212998
 21
25.812835
 31
0.0
  0
LINE
  8
0
 62
     0
 10
14.397588
 20
26.527879
 30
0.0
 11
14.290584
 21
26.634882
 31
0.0
  0
LINE
  8
OBJECT
 10
14.727998
 20
27.079882
 30
0.0
 11
14.282998
 21
27.079882
 31
0.0
  0
LINE
  8
OBJECT
 10
14.727998
 20
26.769882
 30
0.0
 11
14.282998
 21
26.769882
 31
0.0
  0
LINE
  8
OBJECT
 10
14.152998
 20
26.634882
 30
0.0
 11
14.743998
 21
26.634882
 31
0.0
  0
LINE
  8
OBJECT
 10
14.282998
 20
27.079882
 30
0.0
 11
14.282998
 21
26.769882
 31
0.0
  0
LINE
  8
OBJECT
 10
14.152998
 20
26.574882
 30
0.0
 11
14.212998
 21
26.574882
 31
0.0
  0
LINE
  8
0
 62
     0
 10
14.056772
 20
26.524882
 30
0.0
 11
14.152998
 21
26.621108
 31
0.0
  0
LINE
  8
OBJECT
 10
14.152998
 20
26.574882
 30
0.0
 11
14.152998
 21
26.814882
 31
0.0
  0
LINE
  8
OBJECT
 10
14.212998
 20
26.524882
 30
0.0
 11
14.212998
 21
26.574882
 31
0.0
  0
LINE
  8
OBJECT
 10
14.727998
 20
26.721882
 30
0.0
 11
14.727998
 21
27.127882
 31
0.0
  0
LINE
  8
0
 62
     0
 10
14.574588
 20
26.527879
 30
0.0
 11
14.467584
 21
26.634882
 31
0.0
  0
LINE
  8
0
 62
     0
 10
14.751588
 20
26.527879
 30
0.0
 11
14.644584
 21
26.634882
 31
0.0
  0
LINE
  8
DIM
 10
14.962998
 20
26.649882
 30
0.0
 11
14.962998
 21
25.275206
 31
0.0
  0
SOLID
  8
DIM
 10
15.322998
 20
25.401206
 30
0.0
 11
15.322998
 21
25.521206
 31
0.0
 12
14.962998
 22
25.461206
 32
0.0
 13
14.962998
 23
25.461206
 33
0.0
  0
SOLID
  8
DIM
 10
15.322998
 20
25.938835
 30
0.0
 11
15.322998
 21
26.058835
 31
0.0
 12
14.962998
 22
25.998835
 32
0.0
 13
14.962998
 23
25.998835
 33
0.0
  0
LINE
  8
HIDDEN
 10
14.837998
 20
26.791602
 30
0.0
 11
14.837998
 21
27.058162
 31
0.0
  0
LINE
  8
0
 62
     0
 10
14.873247
 20
26.582996
 30
0.0
 11
14.803613
 21
26.65263
 31
0.0
  0
LINE
  8
0
 62
     0
 10
14.946762
 20
26.686258
 30
0.0
 11
14.852998
 21
26.780022
 31
0.0
  0
LINE
  8
HIDDEN
 10
14.962998
 20
26.791602
 30
0.0
 11
14.837998
 21
26.791602
 31
0.0
  0
LINE
  8
0
 62
     0
 10
14.962998
 20
26.846799
 30
0.0
 11
14.852998
 21
26.956799
 31
0.0
  0
LINE
  8
0
 62
     0
 10
14.962998
 20
27.023575
 30
0.0
 11
14.852998
 21
27.133575
 31
0.0
  0
LINE
  8
0
 62
     0
 10
14.962998
 20
27.200352
 30
0.0
 11
14.852998
 21
27.310352
 31
0.0
  0
LINE
  8
HIDDEN
 10
14.962998
 20
27.058162
 30
0.0
 11
14.837998
 21
27.058162
 31
0.0
  0
TEXT
  8
DIM
 10
15.778451
 20
25.873835
 30
0.0
 40
0.25
  1
0.750
 41
0.75
  0
LINE
  8
DIM
 10
15.322998
 20
28.57938
 30
0.0
 11
15.682998
 21
28.57938
 31
0.0
  0
LINE
  8
OBJECT
 10
14.226929
 20
28.994464
 30
0.0
 11
14.226929
 21
30.274882
 31
0.0
  0
LINE
  8
OBJECT
 10
14.199067
 20
28.991437
 30
0.0
 11
14.199067
 21
30.274882
 31
0.0
  0
LINE
  8
OBJECT
 10
14.212998
 20
28.992989
 30
0.0
 11
14.212998
 21
30.274882
 31
0.0
  0
ARC
  8
OBJECT
 10
14.723209
 20
28.464659
 30
0.0
 40
0.537925
 50
63.52761
 51
94.819939
  0
SOLID
  8
DIM
 10
14.492998
 20
28.51938
 30
0.0
 11
14.492998
 21
28.63938
 31
0.0
 12
14.852998
 22
28.57938
 32
0.0
 13
14.852998
 23
28.57938
 33
0.0
  0
LINE
  8
DIM
 10
14.492998
 20
28.57938
 30
0.0
 11
14.132998
 21
28.57938
 31
0.0
  0
SOLID
  8
DIM
 10
15.212998
 20
27.637061
 30
0.0
 11
15.212998
 21
27.757061
 31
0.0
 12
14.852998
 22
27.697061
 32
0.0
 13
14.852998
 23
27.697061
 33
0.0
  0
SOLID
  8
DIM
 10
15.322998
 20
28.51938
 30
0.0
 11
15.322998
 21
28.63938
 31
0.0
 12
14.962998
 22
28.57938
 32
0.0
 13
14.962998
 23
28.57938
 33
0.0
  0
LINE
  8
0
 62
     0
 10
14.962998
 20
28.084236
 30
0.0
 11
14.852998
 21
28.194236
 31
0.0
  0
LINE
  8
0
 62
     0
 10
14.962998
 20
27.553906
 30
0.0
 11
14.852998
 21
27.663906
 31
0.0
  0
LINE
  8
0
 62
     0
 10
14.962998
 20
27.730682
 30
0.0
 11
14.852998
 21
27.840682
 31
0.0
  0
LINE
  8
0
 62
     0
 10
14.962998
 20
27.907459
 30
0.0
 11
14.852998
 21
28.017459
 31
0.0
  0
LINE
  8
0
 62
     0
 10
14.962998
 20
28.614566
 30
0.0
 11
14.852998
 21
28.724566
 31
0.0
  0
LINE
  8
0
 62
     0
 10
14.962998
 20
28.437789
 30
0.0
 11
14.852998
 21
28.547789
 31
0.0
  0
LINE
  8
0
 62
     0
 10
14.962998
 20
28.261012
 30
0.0
 11
14.852998
 21
28.371012
 31
0.0
  0
LINE
  8
DIM
 10
15.212998
 20
27.697061
 30
0.0
 11
15.572998
 21
27.697061
 31
0.0
  0
LINE
  8
0
 62
     0
 10
14.962998
 20
28.791342
 30
0.0
 11
14.852998
 21
28.901342
 31
0.0
  0
ARC
  8
OBJECT
 10
14.712998
 20
30.024882
 30
0.0
 40
0.25
 50
0.0
 51
90.0
  0
TEXT
  8
DIM
 10
15.694052
 20
27.572061
 30
0.0
 40
0.25
  1
1.140
 41
0.75
  0
TEXT
  8
DIM
 10
15.796145
 20
28.45438
 30
0.0
 40
0.25
  1
0.110
 41
0.75
  0
DIMENSION
  8
DIM
  2
*D1
 10
3.611356
 20
26.03474
 30
0.0
 11
6.176356
 21
26.03474
 31
0.0
 13
8.741356
 23
27.012382
 33
0.0
 14
3.611356
 24
27.012882
 34
0.0
  0
DIMENSION
  8
DIM
  2
*D0
 10
3.025856
 20
26.03474
 30
0.0
 11
1.766481
 21
26.03474
 31
0.0
 13
3.611356
 23
27.012882
 33
0.0
 14
3.025856
 24
26.774882
 34
0.0
  0
DIMENSION
  8
DIM
  2
*D3
 10
3.605156
 20
9.601575
 30
0.0
 11
6.170156
 21
9.601575
 31
0.0
 13
8.735156
 23
10.530709
 33
0.0
 14
3.605156
 24
10.531209
 34
0.0
  0
DIMENSION
  8
DIM
  2
*D2
 10
3.019656
 20
9.601575
 30
0.0
 11
1.760281
 21
9.601575
 31
0.0
 13
3.605156
 23
10.531209
 33
0.0
 14
3.019656
 24
10.293209
 34
0.0
  0
TEXT
  8
TEXT
 10
12.455067
 20
18.690933
 30
0.0
 40
0.25
  1
%%UNOTE:%%U ALL DIMENSIONS HAVE %%P0.015 TOLERANCE
 41
0.75
  0
TEXT
  8
TEXT
 10
13.307748
 20
18.286183
 30
0.0
 40
0.25
  1
UNLESS OTHERWISE SPECIFIED.
 41
0.75
  0
TEXT
  8
TEXT
 10
13.307748
 20
1.829846
 30
0.0
 40
0.25
  1
UNLESS OTHERWISE SPECIFIED.
 41
0.75
  0
TEXT
  8
TEXT
 10
12.455067
 20
2.234596
 30
0.0
 40
0.25
  1
%%UNOTE:%%U ALL DIMENSIONS HAVE %%P0.015 TOLERANCE
 41
0.75
  0
ENDSEC
  0
EOF
