  0
SECTION
  2
HEADER
  9
$ACADVER
  1
AC1009
  9
$INSBASE
 10
0.0
 20
0.0
 30
0.0
  9
$EXTMIN
 10
0.0
 20
0.0
 30
0.0
  9
$EXTMAX
 10
13.48996
 20
20.6615
 30
0.0
  9
$LIMMIN
 10
0.0
 20
0.0
  9
$LIMMAX
 10
13.48996
 20
20.6615
  9
$ORTHOMODE
 70
     1
  9
$REGENMODE
 70
     1
  9
$FILLMODE
 70
     1
  9
$QTEXTMODE
 70
     0
  9
$MIRRTEXT
 70
     0
  9
$DRAGMODE
 70
     2
  9
$LTSCALE
 40
1.002
  9
$OSMODE
 70
     0
  9
$ATTMODE
 70
     1
  9
$TEXTSIZE
 40
0.167
  9
$TRACEWID
 40
0.05
  9
$TEXTSTYLE
  7
STANDARD
  9
$CLAYER
  8
OBJECT
  9
$CELTYPE
  6
BYLAYER
  9
$CECOLOR
 62
   256
  9
$DIMSCALE
 40
1.336
  9
$DIMASZ
 40
0.18
  9
$DIMEXO
 40
0.063
  9
$DIMDLI
 40
0.38
  9
$DIMRND
 40
0.0
  9
$DIMDLE
 40
0.0
  9
$DIMEXE
 40
0.093
  9
$DIMTP
 40
0.0
  9
$DIMTM
 40
0.0
  9
$DIMTXT
 40
0.125
  9
$DIMCEN
 40
0.09
  9
$DIMTSZ
 40
0.0
  9
$DIMTOL
 70
     0
  9
$DIMLIM
 70
     0
  9
$DIMTIH
 70
     1
  9
$DIMTOH
 70
     1
  9
$DIMSE1
 70
     0
  9
$DIMSE2
 70
     0
  9
$DIMTAD
 70
     0
  9
$DIMZIN
 70
     0
  9
$DIMBLK
  1

  9
$DIMASO
 70
     1
  9
$DIMSHO
 70
     1
  9
$DIMPOST
  1

  9
$DIMAPOST
  1

  9
$DIMALT
 70
     0
  9
$DIMALTD
 70
     2
  9
$DIMALTF
 40
25.4
  9
$DIMLFAC
 40
1.0
  9
$DIMTOFL
 70
     0
  9
$DIMTVP
 40
0.0
  9
$DIMTIX
 70
     0
  9
$DIMSOXD
 70
     0
  9
$DIMSAH
 70
     0
  9
$DIMBLK1
  1

  9
$DIMBLK2
  1

  9
$DIMSTYLE
  2
23NSTD
  9
$DIMCLRD
 70
     0
  9
$DIMCLRE
 70
     0
  9
$DIMCLRT
 70
     0
  9
$DIMTFAC
 40
1.0
  9
$DIMGAP
 40
0.09
  9
$LUNITS
 70
     2
  9
$LUPREC
 70
     3
  9
$SKETCHINC
 40
0.1
  9
$FILLETRAD
 40
0.0
  9
$AUNITS
 70
     1
  9
$AUPREC
 70
     1
  9
$MENU
  1
acad
  9
$ELEVATION
 40
0.0
  9
$PELEVATION
 40
0.0
  9
$THICKNESS
 40
0.0
  9
$LIMCHECK
 70
     0
  9
$BLIPMODE
 70
     1
  9
$CHAMFERA
 40
0.0
  9
$CHAMFERB
 40
0.0
  9
$SKPOLY
 70
     0
  9
$TDCREATE
 40
2449605.557973032
  9
$TDUPDATE
 40
2451432.459842013
  9
$TDINDWG
 40
0.0496866898
  9
$TDUSRTIMER
 40
0.0496866898
  9
$USRTIMER
 70
     1
  9
$ANGBASE
 50
0.0
  9
$ANGDIR
 70
     0
  9
$PDMODE
 70
     0
  9
$PDSIZE
 40
0.0
  9
$PLINEWID
 40
0.0
  9
$COORDS
 70
     0
  9
$SPLFRAME
 70
     0
  9
$SPLINETYPE
 70
     6
  9
$SPLINESEGS
 70
     8
  9
$ATTDIA
 70
     0
  9
$ATTREQ
 70
     1
  9
$HANDLING
 70
     0
  9
$HANDSEED
  5
0
  9
$SURFTAB1
 70
     6
  9
$SURFTAB2
 70
     6
  9
$SURFTYPE
 70
     6
  9
$SURFU
 70
     6
  9
$SURFV
 70
     6
  9
$UCSNAME
  2

  9
$UCSORG
 10
0.0
 20
0.0
 30
0.0
  9
$UCSXDIR
 10
1.0
 20
0.0
 30
0.0
  9
$UCSYDIR
 10
0.0
 20
1.0
 30
0.0
  9
$PUCSNAME
  2

  9
$PUCSORG
 10
0.0
 20
0.0
 30
0.0
  9
$PUCSXDIR
 10
1.0
 20
0.0
 30
0.0
  9
$PUCSYDIR
 10
0.0
 20
1.0
 30
0.0
  9
$USERI1
 70
     0
  9
$USERI2
 70
     0
  9
$USERI3
 70
     0
  9
$USERI4
 70
     0
  9
$USERI5
 70
     0
  9
$USERR1
 40
0.0
  9
$USERR2
 40
0.0
  9
$USERR3
 40
0.0
  9
$USERR4
 40
0.0
  9
$USERR5
 40
0.0
  9
$WORLDVIEW
 70
     1
  9
$SHADEDGE
 70
     3
  9
$SHADEDIF
 70
    70
  9
$TILEMODE
 70
     1
  9
$MAXACTVP
 70
    16
  9
$PINSBASE
 10
0.0
 20
0.0
 30
0.0
  9
$PLIMCHECK
 70
     0
  9
$PEXTMIN
 10
1.000000E+20
 20
1.000000E+20
 30
1.000000E+20
  9
$PEXTMAX
 10
-1.000000E+20
 20
-1.000000E+20
 30
-1.000000E+20
  9
$PLIMMIN
 10
0.0
 20
0.0
  9
$PLIMMAX
 10
12.0
 20
9.0
  9
$UNITMODE
 70
     0
  9
$VISRETAIN
 70
     0
  9
$PLINEGEN
 70
     0
  9
$PSLTSCALE
 70
     0
  9
$TREEDEPTH
 70
  3020
  9
$DWGCODEPAGE
  3
undefined
  0
ENDSEC
  0
SECTION
  2
TABLES
  0
TABLE
  2
VPORT
 70
     2
  0
VPORT
  2
*ACTIVE
 70
     0
 10
0.0
 20
0.0
 11
1.0
 21
1.0
 12
14.073989
 22
10.33075
 13
0.0
 23
0.0
 14
1.0
 24
1.0
 15
0.5
 25
0.5
 16
0.0
 26
0.0
 36
1.0
 17
0.0
 27
0.0
 37
0.0
 40
20.6615
 41
1.36234
 42
50.0
 43
0.0
 44
0.0
 50
0.0
 51
0.0
 71
     0
 72
   100
 73
     1
 74
     0
 75
     0
 76
     0
 77
     0
 78
     0
  0
ENDTAB
  0
TABLE
  2
LTYPE
 70
     4
  0
LTYPE
  2
CONTINUOUS
 70
    64
  3
Solid line
 72
    65
 73
     0
 40
0.0
  0
LTYPE
  2
HIDDEN
 70
    64
  3
_ _ _ _ _ _ _ _ _ _ _ _ _ _ _ _ _ _ _ _ _ _ _
 72
    65
 73
     2
 40
0.375
 49
0.25
 49
-0.125
  0
LTYPE
  2
PHANTOM
 70
    64
  3
_____ _ _ _____ _ _ _____ _ _ _____ _ _ ____
 72
    65
 73
     6
 40
2.5
 49
1.25
 49
-0.25
 49
0.25
 49
-0.25
 49
0.25
 49
-0.25
  0
LTYPE
  2
CENTER
 70
    64
  3
____ _ ____ _ ____ _ ____ _ ____ _ ____ _ ____
 72
    65
 73
     4
 40
2.0
 49
1.25
 49
-0.25
 49
0.25
 49
-0.25
  0
ENDTAB
  0
TABLE
  2
LAYER
 70
     9
  0
LAYER
  2
0
 70
    64
 62
     7
  6
CONTINUOUS
  0
LAYER
  2
OBJECT
 70
    64
 62
     7
  6
CONTINUOUS
  0
LAYER
  2
DIM
 70
    64
 62
     7
  6
CONTINUOUS
  0
LAYER
  2
HIDDEN
 70
    64
 62
     7
  6
HIDDEN
  0
LAYER
  2
BEND
 70
    64
 62
     7
  6
PHANTOM
  0
LAYER
  2
TEXT
 70
    64
 62
     7
  6
CONTINUOUS
  0
LAYER
  2
TITLE
 70
    64
 62
     7
  6
CONTINUOUS
  0
LAYER
  2
CENTER
 70
    64
 62
     7
  6
CENTER
  0
LAYER
  2
DEFPOINTS
 70
    64
 62
     7
  6
CONTINUOUS
  0
ENDTAB
  0
TABLE
  2
STYLE
 70
     1
  0
STYLE
  2
STANDARD
 70
    64
 40
0.0
 41
0.75
 50
0.0
 71
     0
 42
0.167
  3
TXT.shx
  4

  0
ENDTAB
  0
TABLE
  2
VIEW
 70
     0
  0
ENDTAB
  0
TABLE
  2
UCS
 70
     0
  0
ENDTAB
  0
TABLE
  2
APPID
 70
     1
  0
APPID
  2
ACAD
 70
    64
  0
ENDTAB
  0
TABLE
  2
DIMSTYLE
 70
     3
  0
DIMSTYLE
  2
DIM
 70
    64
  3

  4

  5

  6

  7

 40
1.336
 41
0.18
 42
0.063
 43
0.38
 44
0.093
 45
0.0
 46
0.0
 47
0.0
 48
0.0
140
0.125
141
0.09
142
0.0
143
25.4
144
1.0
145
0.0
146
1.0
147
0.09
 71
     0
 72
     0
 73
     1
 74
     1
 75
     0
 76
     0
 77
     0
 78
     0
170
     0
171
     2
172
     0
173
     0
174
     1
175
     0
176
     0
177
     0
178
     0
  0
DIMSTYLE
  2
STD
 70
    64
  3

  4

  5

  6

  7

 40
1.336
 41
0.18
 42
0.063
 43
0.38
 44
0.093
 45
0.0
 46
0.0
 47
0.0
 48
0.0
140
0.125
141
0.09
142
0.0
143
25.4
144
1.0
145
0.0
146
1.0
147
0.09
 71
     0
 72
     0
 73
     1
 74
     1
 75
     0
 76
     0
 77
     0
 78
     0
170
     0
171
     2
172
     0
173
     0
174
     0
175
     0
176
     0
177
     0
178
     0
  0
DIMSTYLE
  2
23NSTD
 70
    64
  3

  4

  5

  6

  7

 40
1.336
 41
0.18
 42
0.063
 43
0.38
 44
0.093
 45
0.0
 46
0.0
 47
0.0
 48
0.0
140
0.125
141
0.09
142
0.0
143
25.4
144
1.0
145
0.0
146
1.0
147
0.09
 71
     0
 72
     0
 73
     1
 74
     1
 75
     0
 76
     0
 77
     0
 78
     0
170
     0
171
     2
172
     0
173
     0
174
     0
175
     0
176
     0
177
     0
178
     0
  0
ENDTAB
  0
ENDSEC
  0
SECTION
  2
BLOCKS
  0
BLOCK
  8
0
  2
SIWM
 70
    64
 10
0.0
 20
0.0
 30
0.0
  3
SIWM
  0
LINE
  8
OBJECT
 10
1.954
 20
-1.186
 30
0.0
 11
1.954
 21
-1.314
 31
0.0
  0
LINE
  8
0
 10
0.125
 20
-2.312
 30
0.0
 11
0.125
 21
-1.969
 31
0.0
  0
LINE
  8
0
 10
0.344
 20
-1.969
 30
0.0
 11
0.125
 21
-1.969
 31
0.0
  0
LINE
  8
0
 10
0.5
 20
-2.407
 30
0.0
 11
0.22
 21
-2.407
 31
0.0
  0
LINE
  8
0
 10
0.5
 20
-2.407
 30
0.0
 11
0.5
 21
-2.312
 31
0.0
  0
LINE
  8
0
 10
1.25
 20
-2.312
 30
0.0
 11
0.5
 21
-2.312
 31
0.0
  0
LINE
  8
OBJECT
 10
0.125
 20
-2.312
 30
0.0
 11
0.0
 21
-2.312
 31
0.0
  0
LINE
  8
OBJECT
 10
0.125
 20
-2.312
 30
0.0
 11
0.22
 21
-2.407
 31
0.0
  0
LINE
  8
0
 10
1.25
 20
-2.312
 30
0.0
 11
1.25
 21
-2.219
 31
0.0
  0
LINE
  8
0
 10
1.954
 20
-2.219
 30
0.0
 11
1.25
 21
-2.219
 31
0.0
  0
LINE
  8
0
 10
1.954
 20
-2.219
 30
0.0
 11
1.954
 21
-1.532
 31
0.0
  0
LINE
  8
0
 10
1.141
 20
-2.296
 30
0.0
 11
0.781
 21
-2.296
 31
0.0
  0
LINE
  8
0
 10
1.954
 20
-2.203
 30
0.0
 11
1.547
 21
-2.203
 31
0.0
  0
LINE
  8
0
 10
1.141
 20
-2.296
 30
0.0
 11
1.141
 21
-2.203
 31
0.0
  0
LINE
  8
0
 10
1.954
 20
-1.532
 30
0.0
 11
1.5
 21
-1.532
 31
0.0
  0
LINE
  8
0
 10
1.454
 20
-1.486
 30
0.0
 11
1.454
 21
-1.344
 31
0.0
  0
LINE
  8
0
 10
1.908
 20
-1.344
 30
0.0
 11
1.801395
 21
-1.344
 31
0.0
  0
LINE
  8
0
 10
0.469
 20
-2.296
 30
0.0
 11
0.469
 21
-2.28
 31
0.0
  0
LINE
  8
0
 10
0.781
 20
-2.296
 30
0.0
 11
0.781
 21
-2.28
 31
0.0
  0
LINE
  8
0
 10
0.781
 20
-2.28
 30
0.0
 11
0.469
 21
-2.28
 31
0.0
  0
LINE
  8
0
 10
0.469
 20
-2.296
 30
0.0
 11
0.344
 21
-2.296
 31
0.0
  0
LINE
  8
0
 10
1.203
 20
-2.203
 30
0.0
 11
1.203
 21
-2.187
 31
0.0
  0
LINE
  8
0
 10
1.547
 20
-2.203
 30
0.0
 11
1.547
 21
-2.187
 31
0.0
  0
LINE
  8
0
 10
1.547
 20
-2.187
 30
0.0
 11
1.203
 21
-2.187
 31
0.0
  0
LINE
  8
0
 10
1.203
 20
-2.203
 30
0.0
 11
1.141
 21
-2.203
 31
0.0
  0
CIRCLE
  8
OBJECT
 10
0.609
 20
-2.11
 30
0.0
 40
0.0625
  0
CIRCLE
  8
OBJECT
 10
1.704
 20
-2.0
 30
0.0
 40
0.0625
  0
LINE
  8
0
 10
1.454
 20
-1.486
 30
0.0
 11
1.5
 21
-1.532
 31
0.0
  0
LINE
  8
0
 10
1.908
 20
-1.344
 30
0.0
 11
1.954
 21
-1.298
 31
0.0
  0
ARC
  8
OBJECT
 10
1.719
 20
-1.25
 30
0.0
 40
0.125
 50
228.763922
 51
311.236078
  0
LINE
  8
0
 10
1.636605
 20
-1.344
 30
0.0
 11
1.454
 21
-1.344
 31
0.0
  0
LINE
  8
OBJECT
 10
2.0
 20
-1.5
 30
0.0
 11
1.516
 21
-1.5
 31
0.0
  0
LINE
  8
0
 10
1.47
 20
-1.454
 30
0.0
 11
1.47
 21
-1.406
 31
0.0
  0
LINE
  8
0
 10
1.908
 20
-1.36
 30
0.0
 11
1.778372
 21
-1.36
 31
0.0
  0
LINE
  8
0
 10
1.659628
 20
-1.36
 30
0.0
 11
1.516
 21
-1.36
 31
0.0
  0
LINE
  8
OBJECT
 10
1.954
 20
-1.314
 30
0.0
 11
1.908
 21
-1.36
 31
0.0
  0
LINE
  8
OBJECT
 10
1.47
 20
-1.454
 30
0.0
 11
1.516
 21
-1.5
 31
0.0
  0
LINE
  8
0
 10
1.47
 20
-1.406
 30
0.0
 11
1.516
 21
-1.36
 31
0.0
  0
LINE
  8
0
 10
1.47
 20
-1.094
 30
0.0
 11
1.516
 21
-1.14
 31
0.0
  0
LINE
  8
OBJECT
 10
1.47
 20
-1.046
 30
0.0
 11
1.516
 21
-1.0
 31
0.0
  0
LINE
  8
OBJECT
 10
1.954
 20
-1.186
 30
0.0
 11
1.908
 21
-1.14
 31
0.0
  0
LINE
  8
0
 10
1.659628
 20
-1.14
 30
0.0
 11
1.516
 21
-1.14
 31
0.0
  0
LINE
  8
0
 10
1.908
 20
-1.14
 30
0.0
 11
1.778372
 21
-1.14
 31
0.0
  0
LINE
  8
0
 10
1.47
 20
-1.046
 30
0.0
 11
1.47
 21
-1.094
 31
0.0
  0
LINE
  8
OBJECT
 10
2.0
 20
-1.0
 30
0.0
 11
1.516
 21
-1.0
 31
0.0
  0
LINE
  8
0
 10
1.636605
 20
-1.156
 30
0.0
 11
1.454
 21
-1.156
 31
0.0
  0
ARC
  8
OBJECT
 10
1.719
 20
-1.25
 30
0.0
 40
0.125
 50
48.763922
 51
131.236078
  0
LINE
  8
0
 10
1.908
 20
-1.156
 30
0.0
 11
1.954
 21
-1.202
 31
0.0
  0
LINE
  8
0
 10
1.954
 20
-1.532
 30
0.0
 11
1.954
 21
-2.219
 31
0.0
  0
LINE
  8
0
 10
1.454
 20
-1.014
 30
0.0
 11
1.5
 21
-0.968
 31
0.0
  0
CIRCLE
  8
OBJECT
 10
0.906
 20
-1.25
 30
0.0
 40
0.0625
  0
CIRCLE
  8
OBJECT
 10
1.312
 20
-1.25
 30
0.0
 40
0.0625
  0
CIRCLE
  8
OBJECT
 10
1.704
 20
-0.5
 30
0.0
 40
0.0625
  0
CIRCLE
  8
OBJECT
 10
0.609
 20
-0.39
 30
0.0
 40
0.0625
  0
LINE
  8
0
 10
1.203
 20
-0.297
 30
0.0
 11
1.141
 21
-0.297
 31
0.0
  0
LINE
  8
0
 10
1.547
 20
-0.313
 30
0.0
 11
1.203
 21
-0.313
 31
0.0
  0
LINE
  8
0
 10
1.547
 20
-0.297
 30
0.0
 11
1.547
 21
-0.313
 31
0.0
  0
LINE
  8
0
 10
1.203
 20
-0.297
 30
0.0
 11
1.203
 21
-0.313
 31
0.0
  0
LINE
  8
0
 10
0.469
 20
-0.204
 30
0.0
 11
0.344
 21
-0.204
 31
0.0
  0
LINE
  8
0
 10
0.781
 20
-0.22
 30
0.0
 11
0.469
 21
-0.22
 31
0.0
  0
LINE
  8
0
 10
0.781
 20
-0.204
 30
0.0
 11
0.781
 21
-0.22
 31
0.0
  0
LINE
  8
0
 10
0.469
 20
-0.204
 30
0.0
 11
0.469
 21
-0.22
 31
0.0
  0
LINE
  8
0
 10
1.908
 20
-1.156
 30
0.0
 11
1.801395
 21
-1.156
 31
0.0
  0
LINE
  8
0
 10
1.454
 20
-1.014
 30
0.0
 11
1.454
 21
-1.156
 31
0.0
  0
LINE
  8
0
 10
1.954
 20
-0.968
 30
0.0
 11
1.5
 21
-0.968
 31
0.0
  0
LINE
  8
0
 10
1.141
 20
-0.204
 30
0.0
 11
1.141
 21
-0.297
 31
0.0
  0
LINE
  8
0
 10
1.954
 20
-0.297
 30
0.0
 11
1.547
 21
-0.297
 31
0.0
  0
LINE
  8
0
 10
1.141
 20
-0.204
 30
0.0
 11
0.781
 21
-0.204
 31
0.0
  0
LINE
  8
0
 10
1.954
 20
-0.281
 30
0.0
 11
1.954
 21
-0.968
 31
0.0
  0
LINE
  8
0
 10
1.954
 20
-0.281
 30
0.0
 11
1.25
 21
-0.281
 31
0.0
  0
LINE
  8
0
 10
1.25
 20
-0.188
 30
0.0
 11
1.25
 21
-0.281
 31
0.0
  0
LINE
  8
OBJECT
 10
0.125
 20
-0.188
 30
0.0
 11
0.22
 21
-0.093
 31
0.0
  0
LINE
  8
OBJECT
 10
0.125
 20
-0.188
 30
0.0
 11
0.0
 21
-0.188
 31
0.0
  0
LINE
  8
0
 10
1.25
 20
-0.188
 30
0.0
 11
0.5
 21
-0.188
 31
0.0
  0
LINE
  8
0
 10
0.344
 20
-0.204
 30
0.0
 11
0.344
 21
-2.296
 31
0.0
  0
LINE
  8
0
 10
0.5
 20
-0.093
 30
0.0
 11
0.5
 21
-0.188
 31
0.0
  0
LINE
  8
0
 10
0.5
 20
-0.093
 30
0.0
 11
0.22
 21
-0.093
 31
0.0
  0
LINE
  8
0
 10
0.344
 20
-0.531
 30
0.0
 11
0.125
 21
-0.531
 31
0.0
  0
LINE
  8
0
 10
0.125
 20
-0.188
 30
0.0
 11
0.125
 21
-0.531
 31
0.0
  0
LINE
  8
0
 10
2.0
 20
0.0
 30
0.0
 11
2.0
 21
-2.5
 31
0.0
  0
LINE
  8
0
 10
0.0
 20
0.0
 30
0.0
 11
0.0
 21
-2.5
 31
0.0
  0
LINE
  8
0
 10
2.0
 20
-2.5
 30
0.0
 11
0.0
 21
-2.5
 31
0.0
  0
LINE
  8
0
 10
2.0
 20
0.0
 30
0.0
 11
0.0
 21
0.0
 31
0.0
  0
ENDBLK
  8
0
  0
BLOCK
  8
0
  2
*D1
 70
    65
 10
0.0
 20
0.0
 30
0.0
  3
*D
  0
LINE
  8
0
  6
BYBLOCK
 62
     0
 10
8.41415
 20
7.274165
 30
0.0
 11
8.41415
 21
6.907883
 31
0.0
  0
LINE
  8
0
  6
BYBLOCK
 62
     0
 10
10.02615
 20
7.387788
 30
0.0
 11
10.02615
 21
6.907883
 31
0.0
  0
LINE
  8
0
  6
BYBLOCK
 62
     0
 10
8.65409
 20
7.031852
 30
0.0
 11
8.891899
 21
7.031852
 31
0.0
  0
LINE
  8
0
  6
BYBLOCK
 62
     0
 10
9.78621
 20
7.031852
 30
0.0
 11
9.548401
 21
7.031852
 31
0.0
  0
SOLID
  8
0
  6
BYBLOCK
 62
     0
 10
8.65409
 20
7.071842
 30
0.0
 11
8.65409
 21
6.991862
 31
0.0
 12
8.41415
 22
7.031852
 32
0.0
 13
8.41415
 23
7.031852
 33
0.0
  0
SOLID
  8
0
  6
BYBLOCK
 62
     0
 10
9.78621
 20
7.071842
 30
0.0
 11
9.78621
 21
6.991862
 31
0.0
 12
10.02615
 22
7.031852
 32
0.0
 13
10.02615
 23
7.031852
 33
0.0
  0
TEXT
  8
0
  6
BYBLOCK
 62
     0
 10
9.011869
 20
6.94854
 30
0.0
 40
0.166625
  1
1.612
 41
0.75
 72
     1
 11
9.22015
 21
7.031852
 31
0.0
 73
     2
  0
POINT
  8
DEFPOINTS
  6
BYBLOCK
 62
     0
 10
8.41415
 20
7.357478
 30
0.0
  0
POINT
  8
DEFPOINTS
  6
BYBLOCK
 62
     0
 10
10.02615
 20
7.471101
 30
0.0
  0
POINT
  8
DEFPOINTS
  6
BYBLOCK
 62
     0
 10
10.02615
 20
7.031852
 30
0.0
  0
ENDBLK
  8
0
  0
BLOCK
  8
0
  2
*D2
 70
    65
 10
0.0
 20
0.0
 30
0.0
  3
*D
  0
LINE
  8
0
  6
BYBLOCK
 62
     0
 10
11.157087
 20
7.471101
 30
0.0
 11
12.4029
 21
7.471101
 31
0.0
  0
LINE
  8
0
  6
BYBLOCK
 62
     0
 10
10.984463
 20
8.771101
 30
0.0
 11
12.4029
 21
8.771101
 31
0.0
  0
LINE
  8
0
  6
BYBLOCK
 62
     0
 10
12.278931
 20
7.711041
 30
0.0
 11
12.278931
 21
7.917818
 31
0.0
  0
LINE
  8
0
  6
BYBLOCK
 62
     0
 10
12.278931
 20
8.531161
 30
0.0
 11
12.278931
 21
8.324383
 31
0.0
  0
SOLID
  8
0
  6
BYBLOCK
 62
     0
 10
12.238941
 20
7.711041
 30
0.0
 11
12.318921
 21
7.711041
 31
0.0
 12
12.278931
 22
7.471101
 32
0.0
 13
12.278931
 23
7.471101
 33
0.0
  0
SOLID
  8
0
  6
BYBLOCK
 62
     0
 10
12.238941
 20
8.531161
 30
0.0
 11
12.318921
 21
8.531161
 31
0.0
 12
12.278931
 22
8.771101
 32
0.0
 13
12.278931
 23
8.771101
 33
0.0
  0
TEXT
  8
0
  6
BYBLOCK
 62
     0
 10
12.07065
 20
8.037788
 30
0.0
 40
0.166625
  1
1.300
 41
0.75
 72
     1
 11
12.278931
 21
8.121101
 31
0.0
 73
     2
  0
POINT
  8
DEFPOINTS
  6
BYBLOCK
 62
     0
 10
11.073775
 20
7.471101
 30
0.0
  0
POINT
  8
DEFPOINTS
  6
BYBLOCK
 62
     0
 10
10.90115
 20
8.771101
 30
0.0
  0
POINT
  8
DEFPOINTS
  6
BYBLOCK
 62
     0
 10
12.278931
 20
8.771101
 30
0.0
  0
ENDBLK
  8
0
  0
BLOCK
  8
0
  2
A
 70
     2
 10
0.0
 20
0.0
 30
0.0
  3
A
  0
ATTDEF
  8
TEXT
 10
4.285976
 20
0.539405
 30
0.0
 40
0.125
  1

  3
ENTER INITIALS
  2
NAME
 70
     4
 41
0.75
 72
     1
 11
4.457851
 21
0.539405
 31
0.0
  0
ATTDEF
  8
TEXT
 10
4.981361
 20
0.539405
 30
0.0
 40
0.125
  1

  3
ENTER DATE
  2
DATE
 70
     4
 41
0.75
 72
     1
 11
5.153236
 21
0.539405
 31
0.0
  0
ATTDEF
  8
TEXT
 10
8.179248
 20
0.763984
 30
0.0
 40
0.125
  1

  3
ENTER TITLE LINE #1
  2
TITLE1
 70
     4
 41
0.75
 72
     1
 11
8.413623
 21
0.763984
 31
0.0
  0
ATTDEF
  8
TEXT
 10
8.163623
 20
0.552855
 30
0.0
 40
0.125
  1
 
  3
ENTER TITLE LINE #2
  2
TITLE2
 70
     4
 41
0.75
 72
     1
 11
8.413623
 21
0.552855
 31
0.0
  0
ATTDEF
  8
TEXT
 10
8.39212
 20
0.10204
 30
0.0
 40
0.156
  1
 
  3
ENTER PART #
  2
PART
 70
     4
 41
0.75
 72
     1
 11
8.60662
 21
0.10204
 31
0.0
  0
ATTDEF
  8
TEXT
 10
8.39212
 20
7.177641
 30
0.0
 40
0.156
  1

  3
ENTER PART #
  2
PART
 70
     4
 41
0.75
 72
     1
 11
8.60662
 21
7.177641
 31
0.0
  0
ATTDEF
  8
TEXT
 10
0.036898
 20
1.182012
 30
0.0
 40
0.125
  1

  3
ENTER CUT SIZE
  2
CUTSIZE
 70
     4
 41
4.936416
 72
     5
 11
3.944894
 21
1.182012
 31
0.0
  0
ATTDEF
  8
TEXT
 10
0.049371
 20
0.286779
 30
0.0
 40
0.125
  1

  3
ENTER QUANTITY
  2
QTY
 70
     4
 41
0.75
 72
     1
 11
0.174371
 21
0.286779
 31
0.0
  0
ATTDEF
  8
TEXT
 10
0.947179
 20
0.286779
 30
0.0
 40
0.125
  1

  3
ENTER "USED ON" PART #
  2
USED
 70
     4
 41
0.75
 72
     1
 11
1.119054
 21
0.286779
 31
0.0
  0
ATTDEF
  8
TEXT
 10
4.938356
 20
0.955532
 30
0.0
 40
0.125
  1
AS NOTED
  3
ENTER MATERIAL
  2
MAT
 70
     4
 41
0.75
 72
     1
 11
5.063356
 21
0.955532
 31
0.0
  0
ATTDEF
  8
TEXT
 10
4.828981
 20
0.743654
 30
0.0
 40
0.125
  1
SEE SPEC.
  3
ENTER FINISH
  2
FINISH
 70
     4
 41
0.75
 72
     1
 11
5.063356
 21
0.743654
 31
0.0
  0
LINE
  8
TITLE
 10
0.0
 20
0.0
 30
0.0
 11
9.48
 21
0.0
 31
0.0
  0
LINE
  8
TITLE
 10
3.9805
 20
0.5
 30
0.0
 11
5.643538
 21
0.5
 31
0.0
  0
LINE
  8
TITLE
 10
3.9805
 20
0.709
 30
0.0
 11
5.643538
 21
0.709
 31
0.0
  0
LINE
  8
TITLE
 10
3.9805
 20
0.25
 30
0.0
 11
5.643538
 21
0.25
 31
0.0
  0
LINE
  8
TITLE
 10
3.9805
 20
0.918
 30
0.0
 11
7.347246
 21
0.918
 31
0.0
  0
LINE
  8
TITLE
 10
1.9025
 20
1.127
 30
0.0
 11
9.48
 21
1.127
 31
0.0
  0
LINE
  8
TITLE
 10
3.9805
 20
1.377
 30
0.0
 11
9.48
 21
1.377
 31
0.0
  0
LINE
  8
TITLE
 62
     8
 10
0.0
 20
0.0
 30
0.0
 11
0.0
 21
7.5
 31
0.0
  0
LINE
  8
TITLE
 10
3.9805
 20
1.377
 30
0.0
 11
0.0
 21
1.377
 31
0.0
  0
TEXT
  8
TITLE
 62
     8
 10
0.051749
 20
0.077628
 30
0.0
 40
0.09375
  1
QTY.
  0
LINE
  8
TITLE
 10
1.9025
 20
1.127
 30
0.0
 11
0.0
 21
1.127
 31
0.0
  0
LINE
  8
TITLE
 10
0.0
 20
0.25
 30
0.0
 11
1.9025
 21
0.25
 31
0.0
  0
LINE
  8
TITLE
 62
     8
 10
1.9025
 20
0.0
 30
0.0
 11
1.9025
 21
1.127
 31
0.0
  0
TEXT
  8
TITLE
 62
     8
 10
0.79726
 20
0.077628
 30
0.0
 40
0.09375
  1
USED ON
  0
LINE
  8
TITLE
 62
     8
 10
0.375
 20
0.0
 30
0.0
 11
0.375
 21
0.25
 31
0.0
  0
TEXT
  8
TITLE
 62
     8
 10
1.97372
 20
0.363227
 30
0.0
 40
0.077242
  1
%%p.063 BETWEEN ASSEMBLED
  0
TEXT
  8
TITLE
 62
     8
 10
1.97865
 20
0.056475
 30
0.0
 40
0.077242
  1
UNLESS OTHERWISE SPECIFIED
  0
TEXT
  8
TITLE
 62
     8
 10
1.97372
 20
0.491964
 30
0.0
 40
0.077242
  1
%%p.032 FROM A BENT SURFACE
  0
TEXT
  8
TITLE
 62
     8
 10
1.97372
 20
0.620702
 30
0.0
 40
0.077242
  1
%%p.015 FROM SHEARED EDGE
  0
TEXT
  8
TITLE
 62
     8
 10
1.97372
 20
0.749439
 30
0.0
 40
0.077242
  1
%%p.005 BETWEEN HOLE CENTERS
  0
TEXT
  8
TITLE
 62
     8
 10
2.071485
 20
0.23449
 30
0.0
 40
0.077242
  1
    SURFACES
  0
TEXT
  8
TITLE
 10
2.025906
 20
0.952072
 30
0.0
 40
0.111789
  1
%%uTOLERANCES:
  0
LINE
  8
TITLE
 62
     8
 10
3.9805
 20
0.0
 30
0.0
 11
3.9805
 21
1.377
 31
0.0
  0
LINE
  8
TITLE
 62
     8
 10
4.677756
 20
0.0
 30
0.0
 11
4.677756
 21
0.709
 31
0.0
  0
TEXT
  8
TITLE
 62
     8
 10
4.043
 20
0.0625
 30
0.0
 40
0.09375
  1
APP.
  0
TEXT
  8
TITLE
 62
     8
 10
4.043
 20
0.774118
 30
0.0
 40
0.09375
  1
FINISH:
  0
TEXT
  8
TITLE
 62
     8
 10
4.043
 20
0.569374
 30
0.0
 40
0.09375
  1
DR.
  0
TEXT
  8
TITLE
 62
     8
 10
4.043
 20
0.3125
 30
0.0
 40
0.09375
  1
CH.
  0
TEXT
  8
TITLE
 62
     8
 10
4.036572
 20
1.199408
 30
0.0
 40
0.09375
  1
ITEM
  0
TEXT
  8
TITLE
 62
     8
 10
4.043
 20
0.972877
 30
0.0
 40
0.09375
  1
MAT:
  0
TEXT
  8
TITLE
 62
     8
 10
4.450847
 20
1.197741
 30
0.0
 40
0.09375
  1
REQ'D.
  0
LINE
  8
TITLE
 62
     8
 10
4.399296
 20
1.127
 30
0.0
 11
4.399296
 21
1.377
 31
0.0
  0
LINE
  8
TITLE
 62
     8
 10
4.9175
 20
1.127
 30
0.0
 11
4.9175
 21
1.377
 31
0.0
  0
LINE
  8
TITLE
 10
9.48
 20
0.0
 30
0.0
 11
9.48
 21
7.5
 31
0.0
  0
TEXT
  8
TITLE
 62
     8
 10
7.482446
 20
1.197741
 30
0.0
 40
0.09375
  1
DESCRIPTION
  0
LINE
  8
TITLE
 62
     8
 10
7.347246
 20
0.382
 30
0.0
 11
9.48
 21
0.382
 31
0.0
  0
TEXT
  8
TITLE
 62
     8
 10
5.684615
 20
0.375
 30
0.0
 40
0.09375
  1
BUD INDUSTRIES, INC.
  0
TEXT
  8
TITLE
 62
     8
 10
5.743895
 20
0.125
 30
0.0
 40
0.09375
  1
WILLOUGHBY, OHIO
  0
LINE
  8
TITLE
 62
     8
 10
5.643538
 20
0.0
 30
0.0
 11
5.643538
 21
1.127
 31
0.0
  0
TEXT
  8
TITLE
 62
     8
 10
5.68238
 20
0.975598
 30
0.0
 40
0.09375
  1
SCALE:
  0
TEXT
  8
TITLE
 62
     8
 10
5.3555
 20
1.197741
 30
0.0
 40
0.09375
  1
PART NO.
  0
ARC
  8
TITLE
 10
6.342847
 20
0.656537
 30
0.0
 40
0.063065
 50
270.0
 51
90.0
  0
ARC
  8
TITLE
 10
6.342847
 20
0.795943
 30
0.0
 40
0.063065
 50
270.0
 51
90.0
  0
LINE
  8
TITLE
 10
6.270041
 20
0.732878
 30
0.0
 11
6.270041
 21
0.72624
 31
0.0
  0
LINE
  8
TITLE
 10
6.257329
 20
0.593473
 30
0.0
 11
6.257329
 21
0.859007
 31
0.0
  0
LINE
  8
TITLE
 10
6.342847
 20
0.719602
 30
0.0
 11
6.270041
 21
0.719602
 31
0.0
  0
LINE
  8
TITLE
 10
6.257329
 20
0.593473
 30
0.0
 11
6.342847
 21
0.593473
 31
0.0
  0
LINE
  8
TITLE
 10
6.270041
 20
0.719602
 30
0.0
 11
6.270041
 21
0.72624
 31
0.0
  0
LINE
  8
TITLE
 10
6.257329
 20
0.859007
 30
0.0
 11
6.342847
 21
0.859007
 31
0.0
  0
LINE
  8
TITLE
 10
6.342847
 20
0.732878
 30
0.0
 11
6.270041
 21
0.732878
 31
0.0
  0
LINE
  8
TITLE
 10
6.562422
 20
0.610069
 30
0.0
 11
6.562422
 21
0.859007
 31
0.0
  0
LINE
  8
TITLE
 10
6.442234
 20
0.610069
 30
0.0
 11
6.442234
 21
0.859007
 31
0.0
  0
LINE
  8
TITLE
 10
6.513885
 20
0.636796
 30
0.0
 11
6.513885
 21
0.859007
 31
0.0
  0
LINE
  8
TITLE
 10
6.490772
 20
0.636796
 30
0.0
 11
6.490772
 21
0.859007
 31
0.0
  0
LINE
  8
TITLE
 10
6.45883
 20
0.593473
 30
0.0
 11
6.545826
 21
0.593473
 31
0.0
  0
ARC
  8
TITLE
 10
6.45883
 20
0.610069
 30
0.0
 40
0.016596
 50
180.0
 51
270.0
  0
ARC
  8
TITLE
 10
6.545826
 20
0.610069
 30
0.0
 40
0.016596
 50
270.0
 51
0.0
  0
ARC
  8
TITLE
 10
6.500608
 20
0.636796
 30
0.0
 40
0.013277
 50
277.444284
 51
0.0
  0
ARC
  8
TITLE
 10
6.504048
 20
0.636796
 30
0.0
 40
0.013277
 50
180.0
 51
262.555716
  0
LINE
  8
TITLE
 10
6.442234
 20
0.859007
 30
0.0
 11
6.490772
 21
0.859007
 31
0.0
  0
LINE
  8
TITLE
 10
6.513885
 20
0.859007
 30
0.0
 11
6.562422
 21
0.859007
 31
0.0
  0
LINE
  8
TITLE
 10
6.693861
 20
0.719602
 30
0.0
 11
6.693861
 21
0.732878
 31
0.0
  0
LINE
  8
TITLE
 10
6.7427
 20
0.68641
 30
0.0
 11
6.7427
 21
0.76607
 31
0.0
  0
LINE
  8
TITLE
 10
6.652564
 20
0.719602
 30
0.0
 11
6.652564
 21
0.732878
 31
0.0
  0
LINE
  8
TITLE
 10
6.616733
 20
0.593473
 30
0.0
 11
6.616733
 21
0.859007
 31
0.0
  0
LINE
  8
TITLE
 10
6.693861
 20
0.719602
 30
0.0
 11
6.652564
 21
0.719602
 31
0.0
  0
ARC
  8
TITLE
 10
6.649763
 20
0.68641
 30
0.0
 40
0.092937
 50
270.0
 51
0.0
  0
LINE
  8
TITLE
 10
6.616733
 20
0.593473
 30
0.0
 11
6.649763
 21
0.593473
 31
0.0
  0
LINE
  8
TITLE
 10
6.693861
 20
0.732878
 30
0.0
 11
6.652564
 21
0.732878
 31
0.0
  0
ARC
  8
TITLE
 10
6.649763
 20
0.76607
 30
0.0
 40
0.092937
 50
0.0
 51
90.0
  0
LINE
  8
TITLE
 10
6.616733
 20
0.859007
 30
0.0
 11
6.649763
 21
0.859007
 31
0.0
  0
LINE
  8
TITLE
 62
     8
 10
6.4165
 20
1.127
 30
0.0
 11
6.4165
 21
1.377
 31
0.0
  0
LINE
  8
TITLE
 62
     8
 10
7.347246
 20
0.0
 30
0.0
 11
7.347246
 21
1.127
 31
0.0
  0
TEXT
  8
TITLE
 62
     8
 10
7.4175
 20
0.219499
 30
0.0
 40
0.0938
  1
DWG.
  0
TEXT
  8
TITLE
 62
     8
 10
7.4175
 20
0.063166
 30
0.0
 40
0.0938
  1
NO.
  0
TEXT
  8
TITLE
 62
     8
 10
7.4175
 20
0.990354
 30
0.0
 40
0.09375
  1
NAME:
  0
TEXT
  8
TITLE
 62
     8
 10
8.10324
 20
6.900848
 30
0.0
 40
0.09375
  1
REVISIONS
  0
LINE
  8
TITLE
 62
     8
 10
7.0425
 20
7.0625
 30
0.0
 11
9.48
 21
7.0625
 31
0.0
  0
LINE
  8
TITLE
 62
     8
 10
7.0425
 20
6.8125
 30
0.0
 11
9.48
 21
6.8125
 31
0.0
  0
TEXT
  8
TITLE
 62
     8
 10
7.1675
 20
7.15625
 30
0.0
 40
0.09375
  1
NO.
  0
LINE
  8
TITLE
 10
7.0425
 20
6.8125
 30
0.0
 11
7.0425
 21
7.5
 31
0.0
  0
TEXT
  8
TITLE
 62
     8
 10
7.159285
 20
6.898672
 30
0.0
 40
0.09375
  1
ISSUE
  0
TEXT
  8
TITLE
 62
     8
 10
7.1675
 20
7.3125
 30
0.0
 40
0.09375
  1
DWG.
  0
LINE
  8
TITLE
 62
     8
 10
7.6675
 20
6.8125
 30
0.0
 11
7.6675
 21
7.0625
 31
0.0
  0
LINE
  8
TITLE
 10
0.0
 20
7.5
 30
0.0
 11
9.48
 21
7.5
 31
0.0
  0
ENDBLK
  8
0
  0
BLOCK
  8
0
  2
*D4
 70
    65
 10
0.0
 20
0.0
 30
0.0
  3
*D
  0
LINE
  8
0
  6
BYBLOCK
 62
     0
 10
10.188319
 20
7.470379
 30
0.0
 11
10.188319
 21
6.991051
 31
0.0
  0
LINE
  8
0
  6
BYBLOCK
 62
     0
 10
11.063319
 20
7.470379
 30
0.0
 11
11.063319
 21
6.991051
 31
0.0
  0
LINE
  8
0
  6
BYBLOCK
 62
     0
 10
9.947839
 20
7.115299
 30
0.0
 11
9.707359
 21
7.115299
 31
0.0
  0
LINE
  8
0
  6
BYBLOCK
 62
     0
 10
11.303799
 20
7.115299
 30
0.0
 11
11.544279
 21
7.115299
 31
0.0
  0
SOLID
  8
0
  6
BYBLOCK
 62
     0
 10
9.947839
 20
7.155379
 30
0.0
 11
9.947839
 21
7.075219
 31
0.0
 12
10.188319
 22
7.115299
 32
0.0
 13
10.188319
 23
7.115299
 33
0.0
  0
SOLID
  8
0
  6
BYBLOCK
 62
     0
 10
11.303799
 20
7.155379
 30
0.0
 11
11.303799
 21
7.075219
 31
0.0
 12
11.063319
 22
7.115299
 32
0.0
 13
11.063319
 23
7.115299
 33
0.0
  0
TEXT
  8
0
  6
BYBLOCK
 62
     0
 10
10.385757
 20
7.031799
 30
0.0
 40
0.167
  1
0.875
 41
0.75
 72
     1
 11
10.625819
 21
7.115299
 31
0.0
 73
     2
  0
POINT
  8
DEFPOINTS
  6
BYBLOCK
 62
     0
 10
10.188319
 20
7.554547
 30
0.0
  0
POINT
  8
DEFPOINTS
  6
BYBLOCK
 62
     0
 10
11.063319
 20
7.554547
 30
0.0
  0
POINT
  8
DEFPOINTS
  6
BYBLOCK
 62
     0
 10
11.063319
 20
7.115299
 30
0.0
  0
ENDBLK
  8
0
  0
BLOCK
  8
0
  2
*D5
 70
    65
 10
0.0
 20
0.0
 30
0.0
  3
*D
  0
LINE
  8
0
  6
BYBLOCK
 62
     0
 10
6.343301
 20
4.60867
 30
0.0
 11
5.200691
 21
4.60867
 31
0.0
  0
LINE
  8
0
  6
BYBLOCK
 62
     0
 10
5.705801
 20
4.98367
 30
0.0
 11
5.200691
 21
4.98367
 31
0.0
  0
LINE
  8
0
  6
BYBLOCK
 62
     0
 10
5.324939
 20
4.36819
 30
0.0
 11
5.324939
 21
4.12771
 31
0.0
  0
LINE
  8
0
  6
BYBLOCK
 62
     0
 10
5.324939
 20
5.22415
 30
0.0
 11
5.324939
 21
5.46463
 31
0.0
  0
SOLID
  8
0
  6
BYBLOCK
 62
     0
 10
5.284859
 20
4.36819
 30
0.0
 11
5.365019
 21
4.36819
 31
0.0
 12
5.324939
 22
4.60867
 32
0.0
 13
5.324939
 23
4.60867
 33
0.0
  0
SOLID
  8
0
  6
BYBLOCK
 62
     0
 10
5.284859
 20
5.22415
 30
0.0
 11
5.365019
 21
5.22415
 31
0.0
 12
5.324939
 22
4.98367
 32
0.0
 13
5.324939
 23
4.98367
 33
0.0
  0
TEXT
  8
0
  6
BYBLOCK
 62
     0
 10
5.084877
 20
4.71267
 30
0.0
 40
0.167
  1
0.375
 41
0.75
 72
     1
 11
5.324939
 21
4.79617
 31
0.0
 73
     2
  0
POINT
  8
DEFPOINTS
  6
BYBLOCK
 62
     0
 10
6.427469
 20
4.60867
 30
0.0
  0
POINT
  8
DEFPOINTS
  6
BYBLOCK
 62
     0
 10
5.789969
 20
4.98367
 30
0.0
  0
POINT
  8
DEFPOINTS
  6
BYBLOCK
 62
     0
 10
5.324939
 20
4.98367
 30
0.0
  0
ENDBLK
  8
0
  0
BLOCK
  8
0
  2
*D6
 70
    65
 10
0.0
 20
0.0
 30
0.0
  3
*D
  0
LINE
  8
0
  6
BYBLOCK
 62
     0
 10
11.795863
 20
3.35867
 30
0.0
 11
12.005225
 21
3.35867
 31
0.0
  0
LINE
  8
0
  6
BYBLOCK
 62
     0
 10
11.123637
 20
4.45867
 30
0.0
 11
12.005225
 21
4.45867
 31
0.0
  0
LINE
  8
0
  6
BYBLOCK
 62
     0
 10
11.880977
 20
3.11819
 30
0.0
 11
11.880977
 21
2.87771
 31
0.0
  0
LINE
  8
0
  6
BYBLOCK
 62
     0
 10
11.880977
 20
4.69915
 30
0.0
 11
11.880977
 21
4.93963
 31
0.0
  0
SOLID
  8
0
  6
BYBLOCK
 62
     0
 10
11.840897
 20
3.11819
 30
0.0
 11
11.921057
 21
3.11819
 31
0.0
 12
11.880977
 22
3.35867
 32
0.0
 13
11.880977
 23
3.35867
 33
0.0
  0
SOLID
  8
0
  6
BYBLOCK
 62
     0
 10
11.840897
 20
4.69915
 30
0.0
 11
11.921057
 21
4.69915
 31
0.0
 12
11.880977
 22
4.45867
 32
0.0
 13
11.880977
 23
4.45867
 33
0.0
  0
TEXT
  8
0
  6
BYBLOCK
 62
     0
 10
11.693102
 20
3.82517
 30
0.0
 40
0.167
  1
1.100
 41
0.75
 72
     1
 11
11.880977
 21
3.90867
 31
0.0
 73
     2
  0
POINT
  8
DEFPOINTS
  6
BYBLOCK
 62
     0
 10
11.711695
 20
3.35867
 30
0.0
  0
POINT
  8
DEFPOINTS
  6
BYBLOCK
 62
     0
 10
11.039469
 20
4.45867
 30
0.0
  0
POINT
  8
DEFPOINTS
  6
BYBLOCK
 62
     0
 10
11.880977
 20
4.45867
 30
0.0
  0
ENDBLK
  8
0
  0
BLOCK
  8
0
  2
*D7
 70
    65
 10
0.0
 20
0.0
 30
0.0
  3
*D
  0
LINE
  8
0
  6
BYBLOCK
 62
     0
 10
11.795863
 20
3.35867
 30
0.0
 11
12.520668
 21
3.35867
 31
0.0
  0
LINE
  8
0
  6
BYBLOCK
 62
     0
 10
11.123637
 20
2.25867
 30
0.0
 11
12.520668
 21
2.25867
 31
0.0
  0
LINE
  8
0
  6
BYBLOCK
 62
     0
 10
12.39642
 20
3.59915
 30
0.0
 11
12.39642
 21
3.83963
 31
0.0
  0
LINE
  8
0
  6
BYBLOCK
 62
     0
 10
12.39642
 20
2.01819
 30
0.0
 11
12.39642
 21
1.77771
 31
0.0
  0
SOLID
  8
0
  6
BYBLOCK
 62
     0
 10
12.35634
 20
3.59915
 30
0.0
 11
12.4365
 21
3.59915
 31
0.0
 12
12.39642
 22
3.35867
 32
0.0
 13
12.39642
 23
3.35867
 33
0.0
  0
SOLID
  8
0
  6
BYBLOCK
 62
     0
 10
12.35634
 20
2.01819
 30
0.0
 11
12.4365
 21
2.01819
 31
0.0
 12
12.39642
 22
2.25867
 32
0.0
 13
12.39642
 23
2.25867
 33
0.0
  0
TEXT
  8
0
  6
BYBLOCK
 62
     0
 10
12.208545
 20
2.72517
 30
0.0
 40
0.167
  1
1.100
 41
0.75
 72
     1
 11
12.39642
 21
2.80867
 31
0.0
 73
     2
  0
POINT
  8
DEFPOINTS
  6
BYBLOCK
 62
     0
 10
11.711695
 20
3.35867
 30
0.0
  0
POINT
  8
DEFPOINTS
  6
BYBLOCK
 62
     0
 10
11.039469
 20
2.25867
 30
0.0
  0
POINT
  8
DEFPOINTS
  6
BYBLOCK
 62
     0
 10
12.39642
 20
2.25867
 30
0.0
  0
ENDBLK
  8
0
  0
BLOCK
  8
0
  2
*D8
 70
    65
 10
0.0
 20
0.0
 30
0.0
  3
*D
  0
LINE
  8
0
  6
BYBLOCK
 62
     0
 10
6.343301
 20
4.60867
 30
0.0
 11
5.200691
 21
4.60867
 31
0.0
  0
LINE
  8
0
  6
BYBLOCK
 62
     0
 10
5.391208
 20
3.35867
 30
0.0
 11
5.200691
 21
3.35867
 31
0.0
  0
LINE
  8
0
  6
BYBLOCK
 62
     0
 10
5.324939
 20
4.36819
 30
0.0
 11
5.324939
 21
4.18741
 31
0.0
  0
LINE
  8
0
  6
BYBLOCK
 62
     0
 10
5.324939
 20
3.59915
 30
0.0
 11
5.324939
 21
3.77993
 31
0.0
  0
SOLID
  8
0
  6
BYBLOCK
 62
     0
 10
5.284859
 20
4.36819
 30
0.0
 11
5.365019
 21
4.36819
 31
0.0
 12
5.324939
 22
4.60867
 32
0.0
 13
5.324939
 23
4.60867
 33
0.0
  0
SOLID
  8
0
  6
BYBLOCK
 62
     0
 10
5.284859
 20
3.59915
 30
0.0
 11
5.365019
 21
3.59915
 31
0.0
 12
5.324939
 22
3.35867
 32
0.0
 13
5.324939
 23
3.35867
 33
0.0
  0
TEXT
  8
0
  6
BYBLOCK
 62
     0
 10
5.105752
 20
3.90017
 30
0.0
 40
0.167
  1
1.250
 41
0.75
 72
     1
 11
5.324939
 21
3.98367
 31
0.0
 73
     2
  0
POINT
  8
DEFPOINTS
  6
BYBLOCK
 62
     0
 10
6.427469
 20
4.60867
 30
0.0
  0
POINT
  8
DEFPOINTS
  6
BYBLOCK
 62
     0
 10
5.475376
 20
3.35867
 30
0.0
  0
POINT
  8
DEFPOINTS
  6
BYBLOCK
 62
     0
 10
5.324939
 20
3.35867
 30
0.0
  0
ENDBLK
  8
0
  0
BLOCK
  8
0
  2
*D9
 70
    65
 10
0.0
 20
0.0
 30
0.0
  3
*D
  0
LINE
  8
0
  6
BYBLOCK
 62
     0
 10
6.343301
 20
2.10867
 30
0.0
 11
5.200691
 21
2.10867
 31
0.0
  0
LINE
  8
0
  6
BYBLOCK
 62
     0
 10
5.391208
 20
3.35867
 30
0.0
 11
5.200691
 21
3.35867
 31
0.0
  0
LINE
  8
0
  6
BYBLOCK
 62
     0
 10
5.324939
 20
2.34915
 30
0.0
 11
5.324939
 21
2.52993
 31
0.0
  0
LINE
  8
0
  6
BYBLOCK
 62
     0
 10
5.324939
 20
3.11819
 30
0.0
 11
5.324939
 21
2.93741
 31
0.0
  0
SOLID
  8
0
  6
BYBLOCK
 62
     0
 10
5.284859
 20
2.34915
 30
0.0
 11
5.365019
 21
2.34915
 31
0.0
 12
5.324939
 22
2.10867
 32
0.0
 13
5.324939
 23
2.10867
 33
0.0
  0
SOLID
  8
0
  6
BYBLOCK
 62
     0
 10
5.284859
 20
3.11819
 30
0.0
 11
5.365019
 21
3.11819
 31
0.0
 12
5.324939
 22
3.35867
 32
0.0
 13
5.324939
 23
3.35867
 33
0.0
  0
TEXT
  8
0
  6
BYBLOCK
 62
     0
 10
5.105752
 20
2.65017
 30
0.0
 40
0.167
  1
1.250
 41
0.75
 72
     1
 11
5.324939
 21
2.73367
 31
0.0
 73
     2
  0
POINT
  8
DEFPOINTS
  6
BYBLOCK
 62
     0
 10
6.427469
 20
2.10867
 30
0.0
  0
POINT
  8
DEFPOINTS
  6
BYBLOCK
 62
     0
 10
5.475376
 20
3.35867
 30
0.0
  0
POINT
  8
DEFPOINTS
  6
BYBLOCK
 62
     0
 10
5.324939
 20
3.35867
 30
0.0
  0
ENDBLK
  8
0
  0
BLOCK
  8
0
  2
*D10
 70
    65
 10
0.0
 20
0.0
 30
0.0
  3
*D
  0
LINE
  8
0
  6
BYBLOCK
 62
     0
 10
5.714644
 20
18.595245
 30
0.0
 11
5.154646
 21
18.595245
 31
0.0
  0
LINE
  8
0
  6
BYBLOCK
 62
     0
 10
5.700005
 20
18.41084
 30
0.0
 11
5.154646
 21
18.41084
 31
0.0
  0
LINE
  8
0
  6
BYBLOCK
 62
     0
 10
5.278894
 20
18.835725
 30
0.0
 11
5.278894
 21
19.076205
 31
0.0
  0
LINE
  8
0
  6
BYBLOCK
 62
     0
 10
5.278894
 20
18.17036
 30
0.0
 11
5.278894
 21
17.92988
 31
0.0
  0
LINE
  8
0
  6
BYBLOCK
 62
     0
 10
5.278894
 20
17.92988
 30
0.0
 11
5.038414
 21
17.92988
 31
0.0
  0
SOLID
  8
0
  6
BYBLOCK
 62
     0
 10
5.238814
 20
18.835725
 30
0.0
 11
5.318974
 21
18.835725
 31
0.0
 12
5.278894
 22
18.595245
 32
0.0
 13
5.278894
 23
18.595245
 33
0.0
  0
SOLID
  8
0
  6
BYBLOCK
 62
     0
 10
5.238814
 20
18.17036
 30
0.0
 11
5.318974
 21
18.17036
 31
0.0
 12
5.278894
 22
18.41084
 32
0.0
 13
5.278894
 23
18.41084
 33
0.0
  0
TEXT
  8
0
  6
BYBLOCK
 62
     0
 10
4.479799
 20
17.84638
 30
0.0
 40
0.167
  1
0.184
 41
0.75
 72
     1
 11
4.698986
 21
17.92988
 31
0.0
 73
     2
  0
POINT
  8
DEFPOINTS
  6
BYBLOCK
 62
     0
 10
5.798812
 20
18.595245
 30
0.0
  0
POINT
  8
DEFPOINTS
  6
BYBLOCK
 62
     0
 10
5.784173
 20
18.41084
 30
0.0
  0
POINT
  8
DEFPOINTS
  6
BYBLOCK
 62
     0
 10
5.278894
 20
18.41084
 30
0.0
  0
ENDBLK
  8
0
  0
BLOCK
  8
0
  2
*D11
 70
    65
 10
0.0
 20
0.0
 30
0.0
  3
*D
  0
LINE
  8
0
  6
BYBLOCK
 62
     0
 10
5.784173
 20
18.446908
 30
0.0
 11
5.784173
 21
17.924076
 31
0.0
  0
LINE
  8
0
  6
BYBLOCK
 62
     0
 10
11.209902
 20
18.446908
 30
0.0
 11
11.209902
 21
17.924076
 31
0.0
  0
LINE
  8
0
  6
BYBLOCK
 62
     0
 10
6.024653
 20
18.048324
 30
0.0
 11
8.126297
 21
18.048324
 31
0.0
  0
LINE
  8
0
  6
BYBLOCK
 62
     0
 10
10.969422
 20
18.048324
 30
0.0
 11
8.867777
 21
18.048324
 31
0.0
  0
SOLID
  8
0
  6
BYBLOCK
 62
     0
 10
6.024653
 20
18.088404
 30
0.0
 11
6.024653
 21
18.008244
 31
0.0
 12
5.784173
 22
18.048324
 32
0.0
 13
5.784173
 23
18.048324
 33
0.0
  0
SOLID
  8
0
  6
BYBLOCK
 62
     0
 10
10.969422
 20
18.088404
 30
0.0
 11
10.969422
 21
18.008244
 31
0.0
 12
11.209902
 22
18.048324
 32
0.0
 13
11.209902
 23
18.048324
 33
0.0
  0
TEXT
  8
0
  6
BYBLOCK
 62
     0
 10
8.246537
 20
17.964824
 30
0.0
 40
0.167
  1
5.426
 41
0.75
 72
     1
 11
8.497037
 21
18.048324
 31
0.0
 73
     2
  0
POINT
  8
DEFPOINTS
  6
BYBLOCK
 62
     0
 10
5.784173
 20
18.531076
 30
0.0
  0
POINT
  8
DEFPOINTS
  6
BYBLOCK
 62
     0
 10
11.209902
 20
18.531076
 30
0.0
  0
POINT
  8
DEFPOINTS
  6
BYBLOCK
 62
     0
 10
11.209902
 20
18.048324
 30
0.0
  0
ENDBLK
  8
0
  0
BLOCK
  8
0
  2
*D12
 70
    65
 10
0.0
 20
0.0
 30
0.0
  3
*D
  0
LINE
  8
0
  6
BYBLOCK
 62
     0
 10
3.768028
 20
11.682988
 30
0.0
 11
5.010042
 21
11.682988
 31
0.0
  0
LINE
  8
0
  6
BYBLOCK
 62
     0
 10
3.768028
 20
14.732224
 30
0.0
 11
5.010042
 21
14.732224
 31
0.0
  0
LINE
  8
0
  6
BYBLOCK
 62
     0
 10
4.885794
 20
11.923468
 30
0.0
 11
4.885794
 21
13.003866
 31
0.0
  0
LINE
  8
0
  6
BYBLOCK
 62
     0
 10
4.885794
 20
14.491744
 30
0.0
 11
4.885794
 21
13.411346
 31
0.0
  0
SOLID
  8
0
  6
BYBLOCK
 62
     0
 10
4.845714
 20
11.923468
 30
0.0
 11
4.925874
 21
11.923468
 31
0.0
 12
4.885794
 22
11.682988
 32
0.0
 13
4.885794
 23
11.682988
 33
0.0
  0
SOLID
  8
0
  6
BYBLOCK
 62
     0
 10
4.845714
 20
14.491744
 30
0.0
 11
4.925874
 21
14.491744
 31
0.0
 12
4.885794
 22
14.732224
 32
0.0
 13
4.885794
 23
14.732224
 33
0.0
  0
TEXT
  8
0
  6
BYBLOCK
 62
     0
 10
4.645732
 20
13.124106
 30
0.0
 40
0.167
  1
3.049
 41
0.75
 72
     1
 11
4.885794
 21
13.207606
 31
0.0
 73
     2
  0
POINT
  8
DEFPOINTS
  6
BYBLOCK
 62
     0
 10
3.68386
 20
11.682988
 30
0.0
  0
POINT
  8
DEFPOINTS
  6
BYBLOCK
 62
     0
 10
3.68386
 20
14.732224
 30
0.0
  0
POINT
  8
DEFPOINTS
  6
BYBLOCK
 62
     0
 10
4.885794
 20
14.732224
 30
0.0
  0
ENDBLK
  8
0
  0
BLOCK
  8
0
  2
*D13
 70
    65
 10
0.0
 20
0.0
 30
0.0
  3
*D
  0
LINE
  8
0
  6
BYBLOCK
 62
     0
 10
5.832527
 20
7.654547
 30
0.0
 11
5.200691
 21
7.654547
 31
0.0
  0
LINE
  8
0
  6
BYBLOCK
 62
     0
 10
5.794673
 20
8.438953
 30
0.0
 11
5.200691
 21
8.438953
 31
0.0
  0
LINE
  8
0
  6
BYBLOCK
 62
     0
 10
5.324939
 20
7.414067
 30
0.0
 11
5.324939
 21
7.173587
 31
0.0
  0
LINE
  8
0
  6
BYBLOCK
 62
     0
 10
5.324939
 20
8.679433
 30
0.0
 11
5.324939
 21
8.919913
 31
0.0
  0
SOLID
  8
0
  6
BYBLOCK
 62
     0
 10
5.284859
 20
7.414067
 30
0.0
 11
5.365019
 21
7.414067
 31
0.0
 12
5.324939
 22
7.654547
 32
0.0
 13
5.324939
 23
7.654547
 33
0.0
  0
SOLID
  8
0
  6
BYBLOCK
 62
     0
 10
5.284859
 20
8.679433
 30
0.0
 11
5.365019
 21
8.679433
 31
0.0
 12
5.324939
 22
8.438953
 32
0.0
 13
5.324939
 23
8.438953
 33
0.0
  0
TEXT
  8
0
  6
BYBLOCK
 62
     0
 10
5.084877
 20
7.96325
 30
0.0
 40
0.167
  1
0.784
 41
0.75
 72
     1
 11
5.324939
 21
8.04675
 31
0.0
 73
     2
  0
POINT
  8
DEFPOINTS
  6
BYBLOCK
 62
     0
 10
5.916695
 20
7.654547
 30
0.0
  0
POINT
  8
DEFPOINTS
  6
BYBLOCK
 62
     0
 10
5.878841
 20
8.438953
 30
0.0
  0
POINT
  8
DEFPOINTS
  6
BYBLOCK
 62
     0
 10
5.324939
 20
8.438953
 30
0.0
  0
ENDBLK
  8
0
  0
BLOCK
  8
0
  2
*D14
 70
    65
 10
0.0
 20
0.0
 30
0.0
  3
*D
  0
LINE
  8
0
  6
BYBLOCK
 62
     0
 10
5.916695
 20
7.570379
 30
0.0
 11
5.916695
 21
6.628233
 31
0.0
  0
LINE
  8
0
  6
BYBLOCK
 62
     0
 10
11.235944
 20
7.570379
 30
0.0
 11
11.235944
 21
6.628233
 31
0.0
  0
LINE
  8
0
  6
BYBLOCK
 62
     0
 10
6.157175
 20
6.752481
 30
0.0
 11
8.226454
 21
6.752481
 31
0.0
  0
LINE
  8
0
  6
BYBLOCK
 62
     0
 10
10.995464
 20
6.752481
 30
0.0
 11
8.926184
 21
6.752481
 31
0.0
  0
SOLID
  8
0
  6
BYBLOCK
 62
     0
 10
6.157175
 20
6.792561
 30
0.0
 11
6.157175
 21
6.712401
 31
0.0
 12
5.916695
 22
6.752481
 32
0.0
 13
5.916695
 23
6.752481
 33
0.0
  0
SOLID
  8
0
  6
BYBLOCK
 62
     0
 10
10.995464
 20
6.792561
 30
0.0
 11
10.995464
 21
6.712401
 31
0.0
 12
11.235944
 22
6.752481
 32
0.0
 13
11.235944
 23
6.752481
 33
0.0
  0
TEXT
  8
0
  6
BYBLOCK
 62
     0
 10
8.346694
 20
6.668981
 30
0.0
 40
0.167
  1
5.319
 41
0.75
 72
     1
 11
8.576319
 21
6.752481
 31
0.0
 73
     2
  0
POINT
  8
DEFPOINTS
  6
BYBLOCK
 62
     0
 10
5.916695
 20
7.654547
 30
0.0
  0
POINT
  8
DEFPOINTS
  6
BYBLOCK
 62
     0
 10
11.235944
 20
7.654547
 30
0.0
  0
POINT
  8
DEFPOINTS
  6
BYBLOCK
 62
     0
 10
11.235944
 20
6.752481
 30
0.0
  0
ENDBLK
  8
0
  0
BLOCK
  8
0
  2
*D15
 70
    65
 10
0.0
 20
0.0
 30
0.0
  3
*D
  0
LINE
  8
0
  6
BYBLOCK
 62
     0
 10
3.487101
 20
4.830795
 30
0.0
 11
4.749424
 21
4.830795
 31
0.0
  0
LINE
  8
0
  6
BYBLOCK
 62
     0
 10
3.487101
 20
1.886545
 30
0.0
 11
4.749424
 21
1.886545
 31
0.0
  0
LINE
  8
0
  6
BYBLOCK
 62
     0
 10
4.625176
 20
4.590315
 30
0.0
 11
4.625176
 21
3.56241
 31
0.0
  0
LINE
  8
0
  6
BYBLOCK
 62
     0
 10
4.625176
 20
2.127025
 30
0.0
 11
4.625176
 21
3.15493
 31
0.0
  0
SOLID
  8
0
  6
BYBLOCK
 62
     0
 10
4.585096
 20
4.590315
 30
0.0
 11
4.665256
 21
4.590315
 31
0.0
 12
4.625176
 22
4.830795
 32
0.0
 13
4.625176
 23
4.830795
 33
0.0
  0
SOLID
  8
0
  6
BYBLOCK
 62
     0
 10
4.585096
 20
2.127025
 30
0.0
 11
4.665256
 21
2.127025
 31
0.0
 12
4.625176
 22
1.886545
 32
0.0
 13
4.625176
 23
1.886545
 33
0.0
  0
TEXT
  8
0
  6
BYBLOCK
 62
     0
 10
4.374676
 20
3.27517
 30
0.0
 40
0.167
  1
2.944
 41
0.75
 72
     1
 11
4.625176
 21
3.35867
 31
0.0
 73
     2
  0
POINT
  8
DEFPOINTS
  6
BYBLOCK
 62
     0
 10
3.402933
 20
4.830795
 30
0.0
  0
POINT
  8
DEFPOINTS
  6
BYBLOCK
 62
     0
 10
3.402933
 20
1.886545
 30
0.0
  0
POINT
  8
DEFPOINTS
  6
BYBLOCK
 62
     0
 10
4.625176
 20
1.886545
 30
0.0
  0
ENDBLK
  8
0
  0
ENDSEC
  0
SECTION
  2
ENTITIES
  0
LINE
  8
CENTER
 10
11.573384
 20
13.207606
 30
0.0
 11
5.419197
 21
13.207606
 31
0.0
  0
LINE
  8
CENTER
 10
8.496291
 20
14.905885
 30
0.0
 11
8.496291
 21
11.283884
 31
0.0
  0
LINE
  8
HIDDEN
 10
11.157409
 20
11.733987
 30
0.0
 11
5.835172
 21
11.733987
 31
0.0
  0
LINE
  8
HIDDEN
 10
11.157409
 20
14.681224
 30
0.0
 11
5.835172
 21
14.681224
 31
0.0
  0
LINE
  8
HIDDEN
 10
5.835172
 20
14.681224
 30
0.0
 11
5.835172
 21
11.733987
 31
0.0
  0
LINE
  8
HIDDEN
 10
11.157409
 20
14.681224
 30
0.0
 11
11.157409
 21
11.733987
 31
0.0
  0
CIRCLE
  8
OBJECT
 10
6.071291
 20
11.957606
 30
0.0
 40
0.0465
  0
CIRCLE
  8
OBJECT
 10
6.071291
 20
11.957606
 30
0.0
 40
0.13
  0
CIRCLE
  8
OBJECT
 10
6.071291
 20
14.457606
 30
0.0
 40
0.13
  0
CIRCLE
  8
OBJECT
 10
10.921291
 20
11.957606
 30
0.0
 40
0.1225
  0
CIRCLE
  8
OBJECT
 10
10.921291
 20
14.457606
 30
0.0
 40
0.1225
  0
CIRCLE
  8
OBJECT
 10
10.921291
 20
14.457606
 30
0.0
 40
0.0465
  0
CIRCLE
  8
OBJECT
 10
10.921291
 20
11.957606
 30
0.0
 40
0.0465
  0
CIRCLE
  8
OBJECT
 10
6.071291
 20
14.457606
 30
0.0
 40
0.0465
  0
ARC
  8
HIDDEN
 10
11.203791
 20
11.687606
 30
0.0
 40
0.04
 50
270.0
 51
0.0
  0
ARC
  8
HIDDEN
 10
11.203791
 20
14.727606
 30
0.0
 40
0.04
 50
0.0
 51
90.0
  0
CIRCLE
  8
HIDDEN
 10
9.871291
 20
14.457606
 30
0.0
 40
0.13
  0
CIRCLE
  8
HIDDEN
 10
9.871291
 20
11.957606
 30
0.0
 40
0.13
  0
LINE
  8
HIDDEN
 10
11.208791
 20
14.732606
 30
0.0
 11
11.208791
 21
11.682606
 31
0.0
  0
LINE
  8
HIDDEN
 10
11.243791
 20
14.727606
 30
0.0
 11
11.243791
 21
11.687606
 31
0.0
  0
LINE
  8
HIDDEN
 10
5.783791
 20
14.732606
 30
0.0
 11
11.208791
 21
14.732606
 31
0.0
  0
LINE
  8
HIDDEN
 10
5.788791
 20
14.767606
 30
0.0
 11
11.203791
 21
14.767606
 31
0.0
  0
LINE
  8
HIDDEN
 10
5.783791
 20
11.682606
 30
0.0
 11
11.208791
 21
11.682606
 31
0.0
  0
LINE
  8
HIDDEN
 10
5.788791
 20
11.647606
 30
0.0
 11
11.203791
 21
11.647606
 31
0.0
  0
LINE
  8
HIDDEN
 10
5.748791
 20
14.727606
 30
0.0
 11
5.748791
 21
11.687606
 31
0.0
  0
CIRCLE
  8
HIDDEN
 10
7.121291
 20
11.957606
 30
0.0
 40
0.13
  0
CIRCLE
  8
HIDDEN
 10
7.121291
 20
14.457606
 30
0.0
 40
0.13
  0
ARC
  8
OBJECT
 10
11.258791
 20
14.782606
 30
0.0
 40
0.05
 50
0.0
 51
90.0
  0
ARC
  8
OBJECT
 10
5.733791
 20
14.782606
 30
0.0
 40
0.05
 50
90.0
 51
180.0
  0
ARC
  8
OBJECT
 10
5.733791
 20
11.632606
 30
0.0
 40
0.05
 50
180.0
 51
270.0
  0
ARC
  8
OBJECT
 10
11.258791
 20
11.632606
 30
0.0
 40
0.05
 50
270.0
 51
0.0
  0
LINE
  8
HIDDEN
 10
5.783791
 20
14.732606
 30
0.0
 11
5.783791
 21
11.682606
 31
0.0
  0
LINE
  8
OBJECT
 10
11.258791
 20
14.832606
 30
0.0
 11
5.733791
 21
14.832606
 31
0.0
  0
LINE
  8
OBJECT
 10
11.308791
 20
14.782606
 30
0.0
 11
11.308791
 21
11.632606
 31
0.0
  0
LINE
  8
OBJECT
 10
11.258791
 20
11.582606
 30
0.0
 11
5.733791
 21
11.582606
 31
0.0
  0
LINE
  8
OBJECT
 10
5.683791
 20
14.782606
 30
0.0
 11
5.683791
 21
11.632606
 31
0.0
  0
ARC
  8
OBJECT
 10
3.68386
 20
11.682988
 30
0.0
 40
0.1
 50
275.0
 51
0.0
  0
ARC
  8
OBJECT
 10
3.68386
 20
14.732224
 30
0.0
 40
0.1
 50
0.0
 51
85.0
  0
ARC
  8
OBJECT
 10
2.98386
 20
14.672475
 30
0.0
 40
0.1
 50
95.0
 51
180.0
  0
LINE
  8
OBJECT
 10
3.66686
 20
11.642606
 30
0.0
 11
3.66686
 21
11.582606
 31
0.0
  0
LINE
  8
OBJECT
 10
3.68386
 20
11.642606
 30
0.0
 11
3.68386
 21
11.582606
 31
0.0
  0
LINE
  8
OBJECT
 10
3.66686
 20
11.682988
 30
0.0
 11
3.66686
 21
11.815106
 31
0.0
  0
LINE
  8
HIDDEN
 10
3.565787
 20
12.017106
 30
0.0
 11
3.565787
 21
11.923106
 31
0.0
  0
LINE
  8
HIDDEN
 10
3.596787
 20
11.892106
 30
0.0
 11
3.565787
 21
11.923106
 31
0.0
  0
LINE
  8
HIDDEN
 10
3.596787
 20
12.048106
 30
0.0
 11
3.565787
 21
12.017106
 31
0.0
  0
LINE
  8
HIDDEN
 10
3.596787
 20
12.035106
 30
0.0
 11
3.656787
 21
12.035106
 31
0.0
  0
LINE
  8
HIDDEN
 10
3.596787
 20
11.905106
 30
0.0
 11
3.656787
 21
11.905106
 31
0.0
  0
LINE
  8
HIDDEN
 10
3.78386
 20
12.092106
 30
0.0
 11
3.656787
 21
12.092106
 31
0.0
  0
LINE
  8
HIDDEN
 10
3.78386
 20
11.848106
 30
0.0
 11
3.656787
 21
11.848106
 31
0.0
  0
LINE
  8
HIDDEN
 10
3.656787
 20
11.848106
 30
0.0
 11
3.656787
 21
12.092106
 31
0.0
  0
LINE
  8
HIDDEN
 10
3.565787
 20
12.017106
 30
0.0
 11
2.983787
 21
12.017106
 31
0.0
  0
LINE
  8
HIDDEN
 10
3.565787
 20
11.923106
 30
0.0
 11
2.983787
 21
11.923106
 31
0.0
  0
LINE
  8
OBJECT
 10
3.596787
 20
12.100106
 30
0.0
 11
2.983787
 21
12.100106
 31
0.0
  0
LINE
  8
OBJECT
 10
3.596787
 20
11.840106
 30
0.0
 11
2.98386
 21
11.840106
 31
0.0
  0
LINE
  8
OBJECT
 10
3.596787
 20
11.815106
 30
0.0
 11
3.596787
 21
12.125106
 31
0.0
  0
LINE
  8
OBJECT
 10
3.596787
 20
12.125106
 30
0.0
 11
3.68386
 21
12.125106
 31
0.0
  0
LINE
  8
OBJECT
 10
3.596787
 20
11.815106
 30
0.0
 11
3.68386
 21
11.815106
 31
0.0
  0
LINE
  8
OBJECT
 10
3.666787
 20
11.682988
 30
0.0
 11
3.666787
 21
11.815106
 31
0.0
  0
LINE
  8
OBJECT
 10
3.68386
 20
11.682988
 30
0.0
 11
3.68386
 21
11.815106
 31
0.0
  0
LINE
  8
OBJECT
 10
3.68386
 20
11.682988
 30
0.0
 11
3.596787
 21
11.682988
 31
0.0
  0
LINE
  8
OBJECT
 10
3.666787
 20
11.642606
 30
0.0
 11
3.68386
 21
11.642606
 31
0.0
  0
LINE
  8
OBJECT
 10
3.596787
 20
11.642606
 30
0.0
 11
3.596787
 21
11.689112
 31
0.0
  0
LINE
  8
OBJECT
 10
3.596787
 20
11.642606
 30
0.0
 11
3.666787
 21
11.642606
 31
0.0
  0
LINE
  8
OBJECT
 10
3.596787
 20
11.689112
 30
0.0
 11
2.98386
 21
11.742736
 31
0.0
  0
LINE
  8
OBJECT
 10
3.68386
 20
11.582606
 30
0.0
 11
3.68386
 21
11.642606
 31
0.0
  0
LINE
  8
OBJECT
 10
3.666787
 20
11.582606
 30
0.0
 11
3.666787
 21
11.642606
 31
0.0
  0
LINE
  8
OBJECT
 10
3.68386
 20
11.582606
 30
0.0
 11
3.692576
 21
11.583368
 31
0.0
  0
LINE
  8
OBJECT
 10
3.666787
 20
11.582606
 30
0.0
 11
2.975144
 21
11.643116
 31
0.0
  0
LINE
  8
OBJECT
 10
3.66686
 20
14.290106
 30
0.0
 11
3.66686
 21
12.125106
 31
0.0
  0
LINE
  8
OBJECT
 10
3.68386
 20
14.290106
 30
0.0
 11
3.68386
 21
12.125106
 31
0.0
  0
LINE
  8
OBJECT
 10
3.666787
 20
14.832606
 30
0.0
 11
2.975144
 21
14.772095
 31
0.0
  0
LINE
  8
OBJECT
 10
3.68386
 20
14.832606
 30
0.0
 11
3.692576
 21
14.831843
 31
0.0
  0
LINE
  8
OBJECT
 10
3.666787
 20
14.832606
 30
0.0
 11
3.666787
 21
14.772606
 31
0.0
  0
LINE
  8
OBJECT
 10
3.68386
 20
14.832606
 30
0.0
 11
3.68386
 21
14.772606
 31
0.0
  0
LINE
  8
OBJECT
 10
3.596787
 20
14.726099
 30
0.0
 11
2.98386
 21
14.672475
 31
0.0
  0
LINE
  8
OBJECT
 10
3.596787
 20
14.772606
 30
0.0
 11
3.666787
 21
14.772606
 31
0.0
  0
LINE
  8
OBJECT
 10
3.596787
 20
14.772606
 30
0.0
 11
3.596787
 21
14.726099
 31
0.0
  0
LINE
  8
OBJECT
 10
3.666787
 20
14.772606
 30
0.0
 11
3.68386
 21
14.772606
 31
0.0
  0
LINE
  8
OBJECT
 10
3.68386
 20
14.732224
 30
0.0
 11
3.596787
 21
14.732224
 31
0.0
  0
LINE
  8
OBJECT
 10
3.68386
 20
14.732224
 30
0.0
 11
3.68386
 21
14.600106
 31
0.0
  0
LINE
  8
OBJECT
 10
3.666787
 20
14.732224
 30
0.0
 11
3.666787
 21
14.600106
 31
0.0
  0
LINE
  8
OBJECT
 10
3.596787
 20
14.600106
 30
0.0
 11
3.68386
 21
14.600106
 31
0.0
  0
LINE
  8
OBJECT
 10
3.596787
 20
14.290106
 30
0.0
 11
3.68386
 21
14.290106
 31
0.0
  0
LINE
  8
OBJECT
 10
3.596787
 20
14.600106
 30
0.0
 11
3.596787
 21
14.290106
 31
0.0
  0
LINE
  8
OBJECT
 10
3.596787
 20
14.575106
 30
0.0
 11
2.98386
 21
14.575106
 31
0.0
  0
LINE
  8
OBJECT
 10
3.596787
 20
14.315106
 30
0.0
 11
2.983787
 21
14.315106
 31
0.0
  0
LINE
  8
HIDDEN
 10
3.565787
 20
14.492106
 30
0.0
 11
2.983787
 21
14.492106
 31
0.0
  0
LINE
  8
HIDDEN
 10
3.565787
 20
14.398106
 30
0.0
 11
2.983787
 21
14.398106
 31
0.0
  0
LINE
  8
HIDDEN
 10
3.656787
 20
14.567106
 30
0.0
 11
3.656787
 21
14.323106
 31
0.0
  0
LINE
  8
HIDDEN
 10
3.78386
 20
14.567106
 30
0.0
 11
3.656787
 21
14.567106
 31
0.0
  0
LINE
  8
HIDDEN
 10
3.78386
 20
14.323106
 30
0.0
 11
3.656787
 21
14.323106
 31
0.0
  0
LINE
  8
HIDDEN
 10
3.596787
 20
14.510106
 30
0.0
 11
3.656787
 21
14.510106
 31
0.0
  0
LINE
  8
HIDDEN
 10
3.596787
 20
14.380106
 30
0.0
 11
3.656787
 21
14.380106
 31
0.0
  0
LINE
  8
HIDDEN
 10
3.596787
 20
14.367106
 30
0.0
 11
3.565787
 21
14.398106
 31
0.0
  0
LINE
  8
HIDDEN
 10
3.596787
 20
14.523106
 30
0.0
 11
3.565787
 21
14.492106
 31
0.0
  0
LINE
  8
HIDDEN
 10
3.565787
 20
14.398106
 30
0.0
 11
3.565787
 21
14.492106
 31
0.0
  0
LINE
  8
OBJECT
 10
3.78386
 20
14.732224
 30
0.0
 11
3.78386
 21
11.682988
 31
0.0
  0
LINE
  8
OBJECT
 10
3.66686
 20
14.732224
 30
0.0
 11
3.66686
 21
14.600106
 31
0.0
  0
LINE
  8
OBJECT
 10
2.98386
 20
11.742736
 30
0.0
 11
2.98386
 21
14.672475
 31
0.0
  0
LINE
  8
CENTER
 10
2.703991
 20
13.207606
 30
0.0
 11
3.963729
 21
13.207606
 31
0.0
  0
LINE
  8
OBJECT
 10
2.88386
 20
11.742736
 30
0.0
 11
2.88386
 21
14.672475
 31
0.0
  0
LINE
  8
OBJECT
 10
7.251291
 20
18.548149
 30
0.0
 11
11.308791
 21
18.548149
 31
0.0
  0
ARC
  8
OBJECT
 10
11.208409
 20
18.531076
 30
0.0
 40
0.1
 50
270.0
 51
355.0
  0
ARC
  8
OBJECT
 10
5.784173
 20
18.531076
 30
0.0
 40
0.1
 50
185.0
 51
270.0
  0
ARC
  8
OBJECT
 10
11.14866
 20
19.231076
 30
0.0
 40
0.1
 50
5.0
 51
90.0
  0
LINE
  8
HIDDEN
 10
11.076291
 20
18.618149
 30
0.0
 11
11.076291
 21
18.531076
 31
0.0
  0
LINE
  8
HIDDEN
 10
10.766291
 20
18.618149
 30
0.0
 11
10.766291
 21
18.531076
 31
0.0
  0
LINE
  8
HIDDEN
 10
11.076291
 20
18.618149
 30
0.0
 11
10.766291
 21
18.618149
 31
0.0
  0
LINE
  8
HIDDEN
 10
11.051291
 20
18.618149
 30
0.0
 11
11.051291
 21
19.221237
 31
0.0
  0
LINE
  8
HIDDEN
 10
10.791291
 20
18.618149
 30
0.0
 11
10.791291
 21
19.196202
 31
0.0
  0
LINE
  8
HIDDEN
 10
10.968291
 20
18.649149
 30
0.0
 11
10.968291
 21
19.213245
 31
0.0
  0
LINE
  8
HIDDEN
 10
10.874291
 20
18.649149
 30
0.0
 11
10.874291
 21
19.204194
 31
0.0
  0
LINE
  8
HIDDEN
 10
11.043291
 20
18.558149
 30
0.0
 11
10.799291
 21
18.558149
 31
0.0
  0
LINE
  8
HIDDEN
 10
11.043291
 20
18.431076
 30
0.0
 11
11.043291
 21
18.558149
 31
0.0
  0
LINE
  8
HIDDEN
 10
10.799291
 20
18.431076
 30
0.0
 11
10.799291
 21
18.558149
 31
0.0
  0
LINE
  8
HIDDEN
 10
10.986291
 20
18.618149
 30
0.0
 11
10.986291
 21
18.558149
 31
0.0
  0
LINE
  8
HIDDEN
 10
10.856291
 20
18.618149
 30
0.0
 11
10.856291
 21
18.558149
 31
0.0
  0
LINE
  8
HIDDEN
 10
10.843291
 20
18.618149
 30
0.0
 11
10.874291
 21
18.649149
 31
0.0
  0
LINE
  8
HIDDEN
 10
10.999291
 20
18.618149
 30
0.0
 11
10.968291
 21
18.649149
 31
0.0
  0
LINE
  8
HIDDEN
 10
10.874291
 20
18.649149
 30
0.0
 11
10.968291
 21
18.649149
 31
0.0
  0
LINE
  8
HIDDEN
 10
9.793291
 20
18.618076
 30
0.0
 11
9.824291
 21
18.587076
 31
0.0
  0
LINE
  8
HIDDEN
 10
9.949291
 20
18.618076
 30
0.0
 11
9.918291
 21
18.587076
 31
0.0
  0
LINE
  8
HIDDEN
 10
9.824291
 20
18.587076
 30
0.0
 11
9.918291
 21
18.587076
 31
0.0
  0
LINE
  8
HIDDEN
 10
9.824291
 20
18.587076
 30
0.0
 11
9.824291
 21
18.491076
 31
0.0
  0
LINE
  8
HIDDEN
 10
9.918291
 20
18.587076
 30
0.0
 11
9.918291
 21
18.491076
 31
0.0
  0
LINE
  8
HIDDEN
 10
9.824291
 20
18.491076
 30
0.0
 11
9.918291
 21
18.491076
 31
0.0
  0
LINE
  8
HIDDEN
 10
9.741291
 20
18.618076
 30
0.0
 11
9.741291
 21
18.531076
 31
0.0
  0
LINE
  8
HIDDEN
 10
10.001291
 20
18.618076
 30
0.0
 11
10.001291
 21
18.531076
 31
0.0
  0
LINE
  8
HIDDEN
 10
9.741291
 20
18.618076
 30
0.0
 11
10.001291
 21
18.618076
 31
0.0
  0
LINE
  8
HIDDEN
 10
11.209902
 20
18.531076
 30
0.0
 11
11.1487
 21
19.230617
 31
0.0
  0
LINE
  8
HIDDEN
 10
8.314769
 20
18.95774
 30
0.0
 11
11.1487
 21
19.230617
 31
0.0
  0
LINE
  8
OBJECT
 10
7.251291
 20
18.618076
 30
0.0
 11
6.991291
 21
18.618076
 31
0.0
  0
LINE
  8
OBJECT
 10
6.991291
 20
18.618076
 30
0.0
 11
6.991291
 21
18.531076
 31
0.0
  0
LINE
  8
OBJECT
 10
7.251291
 20
18.618076
 30
0.0
 11
7.251291
 21
18.531076
 31
0.0
  0
LINE
  8
HIDDEN
 10
7.168291
 20
18.491076
 30
0.0
 11
7.074291
 21
18.491076
 31
0.0
  0
LINE
  8
HIDDEN
 10
7.074291
 20
18.587076
 30
0.0
 11
7.074291
 21
18.491076
 31
0.0
  0
LINE
  8
HIDDEN
 10
7.168291
 20
18.587076
 30
0.0
 11
7.168291
 21
18.491076
 31
0.0
  0
LINE
  8
HIDDEN
 10
7.168291
 20
18.587076
 30
0.0
 11
7.074291
 21
18.587076
 31
0.0
  0
LINE
  8
HIDDEN
 10
7.043291
 20
18.618076
 30
0.0
 11
7.074291
 21
18.587076
 31
0.0
  0
LINE
  8
HIDDEN
 10
7.199291
 20
18.618076
 30
0.0
 11
7.168291
 21
18.587076
 31
0.0
  0
LINE
  8
HIDDEN
 10
6.118291
 20
18.649149
 30
0.0
 11
6.024291
 21
18.649149
 31
0.0
  0
LINE
  8
HIDDEN
 10
5.993291
 20
18.618149
 30
0.0
 11
6.024291
 21
18.649149
 31
0.0
  0
LINE
  8
HIDDEN
 10
6.149291
 20
18.618149
 30
0.0
 11
6.118291
 21
18.649149
 31
0.0
  0
LINE
  8
HIDDEN
 10
6.136291
 20
18.618149
 30
0.0
 11
6.136291
 21
18.558149
 31
0.0
  0
LINE
  8
HIDDEN
 10
6.006291
 20
18.618149
 30
0.0
 11
6.006291
 21
18.558149
 31
0.0
  0
LINE
  8
HIDDEN
 10
6.193291
 20
18.431076
 30
0.0
 11
6.193291
 21
18.558149
 31
0.0
  0
LINE
  8
HIDDEN
 10
5.949291
 20
18.431076
 30
0.0
 11
5.949291
 21
18.558149
 31
0.0
  0
LINE
  8
HIDDEN
 10
5.949291
 20
18.558149
 30
0.0
 11
6.193291
 21
18.558149
 31
0.0
  0
LINE
  8
HIDDEN
 10
6.118291
 20
18.649149
 30
0.0
 11
6.118291
 21
18.808149
 31
0.0
  0
LINE
  8
HIDDEN
 10
6.024291
 20
18.649149
 30
0.0
 11
6.024291
 21
18.808149
 31
0.0
  0
LINE
  8
OBJECT
 10
6.201291
 20
18.618149
 30
0.0
 11
6.201291
 21
18.754236
 31
0.0
  0
LINE
  8
OBJECT
 10
5.941291
 20
18.618149
 30
0.0
 11
5.941291
 21
18.7292
 31
0.0
  0
LINE
  8
OBJECT
 10
5.916291
 20
18.618149
 30
0.0
 11
6.226291
 21
18.618149
 31
0.0
  0
LINE
  8
OBJECT
 10
6.226291
 20
18.548149
 30
0.0
 11
6.991291
 21
18.548149
 31
0.0
  0
LINE
  8
OBJECT
 10
6.226291
 20
18.531076
 30
0.0
 11
11.308791
 21
18.531076
 31
0.0
  0
LINE
  8
OBJECT
 10
6.226291
 20
18.618149
 30
0.0
 11
6.226291
 21
18.531076
 31
0.0
  0
LINE
  8
OBJECT
 10
5.916291
 20
18.618149
 30
0.0
 11
5.916291
 21
18.531076
 31
0.0
  0
LINE
  8
OBJECT
 10
5.784173
 20
18.548149
 30
0.0
 11
5.916291
 21
18.548149
 31
0.0
  0
LINE
  8
OBJECT
 10
5.784173
 20
18.531076
 30
0.0
 11
5.916291
 21
18.531076
 31
0.0
  0
LINE
  8
OBJECT
 10
5.784173
 20
18.531076
 30
0.0
 11
5.784173
 21
18.618149
 31
0.0
  0
LINE
  8
OBJECT
 10
5.743791
 20
18.548149
 30
0.0
 11
5.743791
 21
18.531076
 31
0.0
  0
LINE
  8
OBJECT
 10
5.743791
 20
18.618149
 30
0.0
 11
5.790297
 21
18.618149
 31
0.0
  0
LINE
  8
OBJECT
 10
5.743791
 20
18.618149
 30
0.0
 11
5.743791
 21
18.548149
 31
0.0
  0
LINE
  8
OBJECT
 10
5.790297
 20
18.618149
 30
0.0
 11
5.798812
 21
18.715481
 31
0.0
  0
ARC
  8
OBJECT
 10
7.945537
 20
18.90159
 30
0.0
 40
0.373477
 50
324.686192
 51
24.32329
  0
ARC
  8
OBJECT
 10
8.631347
 20
18.415761
 30
0.0
 40
0.466979
 50
144.686192
 51
178.120704
  0
LINE
  8
OBJECT
 10
5.683791
 20
18.531076
 30
0.0
 11
5.743791
 21
18.531076
 31
0.0
  0
LINE
  8
OBJECT
 10
5.683791
 20
18.548149
 30
0.0
 11
5.743791
 21
18.548149
 31
0.0
  0
LINE
  8
OBJECT
 10
11.308791
 20
18.531076
 30
0.0
 11
11.308028
 21
18.52236
 31
0.0
  0
LINE
  8
OBJECT
 10
5.683791
 20
18.531076
 30
0.0
 11
5.684553
 21
18.52236
 31
0.0
  0
LINE
  8
OBJECT
 10
5.784173
 20
18.431076
 30
0.0
 11
11.208409
 21
18.431076
 31
0.0
  0
LINE
  8
OBJECT
 10
5.798812
 20
18.715481
 30
0.0
 11
8.314769
 21
18.95774
 31
0.0
  0
LINE
  8
CENTER
 10
8.496291
 20
19.444699
 30
0.0
 11
8.496291
 21
18.317453
 31
0.0
  0
LINE
  8
OBJECT
 10
5.683791
 20
18.548149
 30
0.0
 11
5.699193
 21
18.724197
 31
0.0
  0
LINE
  8
OBJECT
 10
11.308791
 20
18.548149
 30
0.0
 11
11.24828
 21
19.239791
 31
0.0
  0
LINE
  8
OBJECT
 10
5.789228
 20
18.815021
 30
0.0
 11
11.14866
 21
19.331076
 31
0.0
  0
TEXT
  8
TEXT
 10
0.353412
 20
20.075086
 30
0.0
 40
0.166625
  1
NAME
 41
0.75
 72
     1
 11
0.582521
 21
20.075086
 31
0.0
  0
TEXT
  8
TEXT
 10
0.353412
 20
20.352794
 30
0.0
 40
0.166625
  1
PART
 41
0.75
 72
     1
 11
0.582521
 21
20.352794
 31
0.0
  0
TEXT
  8
TEXT
 10
7.202532
 20
20.075086
 30
0.0
 40
0.166625
  1
No.
 41
0.75
 72
     1
 11
7.327501
 21
20.075086
 31
0.0
  0
TEXT
  8
TEXT
 10
7.098392
 20
20.352794
 30
0.0
 40
0.166625
  1
PART
 41
0.75
 72
     1
 11
7.327501
 21
20.352794
 31
0.0
  0
LINE
  8
TITLE
 10
7.827376
 20
20.578854
 30
0.0
 11
7.827376
 21
20.02166
 31
0.0
  0
LINE
  8
TITLE
 10
6.827626
 20
20.578854
 30
0.0
 11
6.827626
 21
20.02166
 31
0.0
  0
LINE
  8
TITLE
 10
6.74498
 20
20.578854
 30
0.0
 11
6.74498
 21
20.02166
 31
0.0
  0
LINE
  8
TITLE
 10
1.082396
 20
20.02166
 30
0.0
 11
1.082396
 21
20.578854
 31
0.0
  0
LINE
  8
TITLE
 10
0.082646
 20
20.02166
 30
0.0
 11
13.407314
 21
20.02166
 31
0.0
  0
LINE
  8
TITLE
 10
13.407314
 20
0.082646
 30
0.0
 11
0.082646
 21
0.082646
 31
0.0
  0
LINE
  8
TITLE
 10
13.407314
 20
20.578854
 30
0.0
 11
13.407314
 21
10.41375
 31
0.0
  0
LINE
  8
TITLE
 10
0.082646
 20
20.578854
 30
0.0
 11
13.407314
 21
20.578854
 31
0.0
  0
LINE
  8
TITLE
 10
0.082646
 20
0.082646
 30
0.0
 11
0.082646
 21
10.33075
 31
0.0
  0
LINE
  8
TITLE
 10
0.0
 20
0.0
 30
0.0
 11
0.0
 21
20.6615
 31
0.0
  0
LINE
  8
TITLE
 10
13.48996
 20
0.0
 30
0.0
 11
0.0
 21
0.0
 31
0.0
  0
LINE
  8
TITLE
 10
13.48996
 20
20.6615
 30
0.0
 11
13.48996
 21
0.0
 31
0.0
  0
LINE
  8
TITLE
 10
0.0
 20
20.6615
 30
0.0
 11
13.48996
 21
20.6615
 31
0.0
  0
LINE
  8
TITLE
 10
0.082646
 20
10.33075
 30
0.0
 11
13.407314
 21
10.33075
 31
0.0
  0
LINE
  8
TITLE
 10
0.082646
 20
9.773556
 30
0.0
 11
13.407314
 21
9.773556
 31
0.0
  0
LINE
  8
TITLE
 10
1.082396
 20
9.773556
 30
0.0
 11
1.082396
 21
10.33075
 31
0.0
  0
LINE
  8
TITLE
 10
6.74498
 20
10.33075
 30
0.0
 11
6.74498
 21
9.773556
 31
0.0
  0
LINE
  8
TITLE
 10
6.827626
 20
10.33075
 30
0.0
 11
6.827626
 21
9.773556
 31
0.0
  0
LINE
  8
TITLE
 10
7.827376
 20
10.33075
 30
0.0
 11
7.827376
 21
9.773556
 31
0.0
  0
TEXT
  8
TEXT
 10
7.098392
 20
10.10469
 30
0.0
 40
0.166625
  1
PART
 41
0.75
 72
     1
 11
7.327501
 21
10.10469
 31
0.0
  0
TEXT
  8
TEXT
 10
7.202532
 20
9.826982
 30
0.0
 40
0.166625
  1
No.
 41
0.75
 72
     1
 11
7.327501
 21
9.826982
 31
0.0
  0
TEXT
  8
TEXT
 10
0.353412
 20
10.10469
 30
0.0
 40
0.166625
  1
PART
 41
0.75
 72
     1
 11
0.582521
 21
10.10469
 31
0.0
  0
TEXT
  8
TEXT
 10
0.353412
 20
9.826982
 30
0.0
 40
0.166625
  1
NAME
 41
0.75
 72
     1
 11
0.582521
 21
9.826982
 31
0.0
  0
TEXT
  8
DIM
 10
0.294865
 20
14.485987
 30
0.0
 40
0.166625
  1

  0
LINE
  8
DIM
 10
7.121291
 20
14.540918
 30
0.0
 11
7.121291
 21
15.543343
 31
0.0
  0
LINE
  8
DIM
 10
7.361231
 20
15.419374
 30
0.0
 11
7.506078
 21
15.419374
 31
0.0
  0
LINE
  8
DIM
 10
8.256351
 20
15.419374
 30
0.0
 11
8.075568
 21
15.419374
 31
0.0
  0
SOLID
  8
DIM
 10
7.361231
 20
15.459364
 30
0.0
 11
7.361231
 21
15.379384
 31
0.0
 12
7.121291
 22
15.419374
 32
0.0
 13
7.121291
 23
15.419374
 33
0.0
  0
SOLID
  8
DIM
 10
8.256351
 20
15.459364
 30
0.0
 11
8.256351
 21
15.379384
 31
0.0
 12
8.496291
 22
15.419374
 32
0.0
 13
8.496291
 23
15.419374
 33
0.0
  0
TEXT
  8
DIM
 10
7.557068
 20
15.336061
 30
0.0
 40
0.166625
  1
1.375
 41
0.75
  0
TEXT
  8
DIM
 10
8.944533
 20
15.336061
 30
0.0
 40
0.166625
  1
1.375
 41
0.75
  0
SOLID
  8
DIM
 10
8.736231
 20
15.459364
 30
0.0
 11
8.736231
 21
15.379384
 31
0.0
 12
8.496291
 22
15.419374
 32
0.0
 13
8.496291
 23
15.419374
 33
0.0
  0
SOLID
  8
DIM
 10
9.631351
 20
15.459364
 30
0.0
 11
9.631351
 21
15.379384
 31
0.0
 12
9.871291
 22
15.419374
 32
0.0
 13
9.871291
 23
15.419374
 33
0.0
  0
LINE
  8
DIM
 10
8.736231
 20
15.419374
 30
0.0
 11
8.884805
 21
15.419374
 31
0.0
  0
LINE
  8
DIM
 10
9.631351
 20
15.419374
 30
0.0
 11
9.472009
 21
15.419374
 31
0.0
  0
LINE
  8
DIM
 10
9.871291
 20
14.540918
 30
0.0
 11
9.871291
 21
15.543343
 31
0.0
  0
LINE
  8
DIM
 10
6.071291
 20
14.540918
 30
0.0
 11
6.071291
 21
16.090266
 31
0.0
  0
LINE
  8
DIM
 10
8.496291
 20
14.989197
 30
0.0
 11
8.496291
 21
16.090266
 31
0.0
  0
LINE
  8
DIM
 10
6.311231
 20
15.966297
 30
0.0
 11
6.899023
 21
15.966297
 31
0.0
  0
LINE
  8
DIM
 10
8.256351
 20
15.966297
 30
0.0
 11
7.637154
 21
15.966297
 31
0.0
  0
SOLID
  8
DIM
 10
6.311231
 20
15.926307
 30
0.0
 11
6.311231
 21
16.006287
 31
0.0
 12
6.071291
 22
15.966297
 32
0.0
 13
6.071291
 23
15.966297
 33
0.0
  0
SOLID
  8
DIM
 10
8.256351
 20
15.926307
 30
0.0
 11
8.256351
 21
16.006287
 31
0.0
 12
8.496291
 22
15.966297
 32
0.0
 13
8.496291
 23
15.966297
 33
0.0
  0
TEXT
  8
DIM
 10
7.00288
 20
15.882984
 30
0.0
 40
0.166625
  1
2.425
 41
0.75
  0
TEXT
  8
DIM
 10
9.443179
 20
15.882984
 30
0.0
 40
0.166625
  1
2.425
 41
0.75
  0
SOLID
  8
DIM
 10
8.736231
 20
15.926307
 30
0.0
 11
8.736231
 21
16.006287
 31
0.0
 12
8.496291
 22
15.966297
 32
0.0
 13
8.496291
 23
15.966297
 33
0.0
  0
SOLID
  8
DIM
 10
10.681351
 20
15.926307
 30
0.0
 11
10.681351
 21
16.006287
 31
0.0
 12
10.921291
 22
15.966297
 32
0.0
 13
10.921291
 23
15.966297
 33
0.0
  0
LINE
  8
DIM
 10
8.736231
 20
15.966297
 30
0.0
 11
9.3667
 21
15.966297
 31
0.0
  0
LINE
  8
DIM
 10
10.681351
 20
15.966297
 30
0.0
 11
10.042024
 21
15.966297
 31
0.0
  0
LINE
  8
DIM
 10
10.921291
 20
14.540918
 30
0.0
 11
10.921291
 21
16.090266
 31
0.0
  0
LINE
  8
DIM
 10
10.704603
 20
14.457606
 30
0.0
 11
10.874791
 21
14.457606
 31
0.0
  0
LINE
  8
DIM
 10
11.656696
 20
13.207606
 30
0.0
 11
11.991835
 21
13.207606
 31
0.0
  0
LINE
  8
DIM
 10
11.867866
 20
14.217666
 30
0.0
 11
11.867866
 21
13.992539
 31
0.0
  0
LINE
  8
DIM
 10
11.867866
 20
13.447546
 30
0.0
 11
11.867866
 21
13.682762
 31
0.0
  0
SOLID
  8
DIM
 10
11.907856
 20
14.217666
 30
0.0
 11
11.827876
 21
14.217666
 31
0.0
 12
11.867866
 22
14.457606
 32
0.0
 13
11.867866
 23
14.457606
 33
0.0
  0
SOLID
  8
DIM
 10
11.907856
 20
13.447546
 30
0.0
 11
11.827876
 21
13.447546
 31
0.0
 12
11.867866
 22
13.207606
 32
0.0
 13
11.867866
 23
13.207606
 33
0.0
  0
TEXT
  8
DIM
 10
11.643911
 20
13.749293
 30
0.0
 40
0.166625
  1
1.250
 41
0.75
  0
TEXT
  8
DIM
 10
11.643911
 20
12.499293
 30
0.0
 40
0.166625
  1
1.250
 41
0.75
  0
SOLID
  8
DIM
 10
11.907856
 20
12.967666
 30
0.0
 11
11.827876
 21
12.967666
 31
0.0
 12
11.867866
 22
13.207606
 32
0.0
 13
11.867866
 23
13.207606
 33
0.0
  0
SOLID
  8
DIM
 10
11.907856
 20
12.197546
 30
0.0
 11
11.827876
 21
12.197546
 31
0.0
 12
11.867866
 22
11.957606
 32
0.0
 13
11.867866
 23
11.957606
 33
0.0
  0
LINE
  8
DIM
 10
11.867866
 20
12.967666
 30
0.0
 11
11.867866
 21
12.742539
 31
0.0
  0
LINE
  8
DIM
 10
11.867866
 20
12.197546
 30
0.0
 11
11.867866
 21
12.422673
 31
0.0
  0
LINE
  8
DIM
 10
10.704603
 20
11.957606
 30
0.0
 11
10.874791
 21
11.957606
 31
0.0
  0
LINE
  8
DIM
 10
10.967791
 20
14.457606
 30
0.0
 11
11.991835
 21
14.457606
 31
0.0
  0
LINE
  8
DIM
 10
10.967791
 20
11.957606
 30
0.0
 11
11.991835
 21
11.957606
 31
0.0
  0
LINE
  8
DIM
 10
11.342103
 20
11.582606
 30
0.0
 11
12.616596
 21
11.582606
 31
0.0
  0
LINE
  8
DIM
 10
11.342103
 20
14.832606
 30
0.0
 11
12.616596
 21
14.832606
 31
0.0
  0
LINE
  8
DIM
 10
12.492627
 20
11.822546
 30
0.0
 11
12.492627
 21
13.018666
 31
0.0
  0
LINE
  8
DIM
 10
12.492627
 20
14.592666
 30
0.0
 11
12.492627
 21
13.367539
 31
0.0
  0
SOLID
  8
DIM
 10
12.532617
 20
11.822546
 30
0.0
 11
12.452637
 21
11.822546
 31
0.0
 12
12.492627
 22
11.582606
 32
0.0
 13
12.492627
 23
11.582606
 33
0.0
  0
SOLID
  8
DIM
 10
12.532617
 20
14.592666
 30
0.0
 11
12.452637
 21
14.592666
 31
0.0
 12
12.492627
 22
14.832606
 32
0.0
 13
12.492627
 23
14.832606
 33
0.0
  0
TEXT
  8
DIM
 10
12.240901
 20
13.124293
 30
0.0
 40
0.166625
  1
3.250
 41
0.75
  0
LINE
  8
DIM
 10
11.291721
 20
18.431076
 30
0.0
 11
12.616596
 21
18.431076
 31
0.0
  0
LINE
  8
DIM
 10
11.231973
 20
19.331076
 30
0.0
 11
12.616596
 21
19.331076
 31
0.0
  0
LINE
  8
DIM
 10
12.492627
 20
19.571016
 30
0.0
 11
12.492627
 21
19.810956
 31
0.0
  0
LINE
  8
DIM
 10
12.492627
 20
18.191136
 30
0.0
 11
12.492627
 21
17.951196
 31
0.0
  0
SOLID
  8
DIM
 10
12.532617
 20
19.571016
 30
0.0
 11
12.452637
 21
19.571016
 31
0.0
 12
12.492627
 22
19.331076
 32
0.0
 13
12.492627
 23
19.331076
 33
0.0
  0
SOLID
  8
DIM
 10
12.532617
 20
18.191136
 30
0.0
 11
12.452637
 21
18.191136
 31
0.0
 12
12.492627
 22
18.431076
 32
0.0
 13
12.492627
 23
18.431076
 33
0.0
  0
TEXT
  8
DIM
 10
12.23747
 20
18.829901
 30
0.0
 40
0.166625
  1
0.900
 41
0.75
  0
LINE
  8
DIM
 10
11.392103
 20
18.531076
 30
0.0
 11
11.883246
 21
18.531076
 31
0.0
  0
LINE
  8
DIM
 10
11.759277
 20
18.191136
 30
0.0
 11
11.759277
 21
17.681571
 31
0.0
  0
LINE
  8
DIM
 10
11.759277
 20
18.771016
 30
0.0
 11
11.759277
 21
19.010956
 31
0.0
  0
LINE
  8
DIM
 10
11.999217
 20
17.681571
 30
0.0
 11
11.759277
 21
17.681571
 31
0.0
  0
SOLID
  8
DIM
 10
11.799267
 20
18.191136
 30
0.0
 11
11.719287
 21
18.191136
 31
0.0
 12
11.759277
 22
18.431076
 32
0.0
 13
11.759277
 23
18.431076
 33
0.0
  0
SOLID
  8
DIM
 10
11.799267
 20
18.771016
 30
0.0
 11
11.719287
 21
18.771016
 31
0.0
 12
11.759277
 22
18.531076
 32
0.0
 13
11.759277
 23
18.531076
 33
0.0
  0
TEXT
  8
DIM
 10
12.086638
 20
17.598258
 30
0.0
 40
0.166625
  1
0.100
 41
0.75
  0
LINE
  8
DIM
 10
5.683791
 20
14.865918
 30
0.0
 11
5.683791
 21
16.397914
 31
0.0
  0
LINE
  8
DIM
 10
11.308791
 20
14.865918
 30
0.0
 11
11.308791
 21
16.397914
 31
0.0
  0
LINE
  8
DIM
 10
5.923731
 20
16.273945
 30
0.0
 11
8.090587
 21
16.273945
 31
0.0
  0
LINE
  8
DIM
 10
11.068851
 20
16.273945
 30
0.0
 11
8.839992
 21
16.273945
 31
0.0
  0
SOLID
  8
DIM
 10
5.923731
 20
16.233955
 30
0.0
 11
5.923731
 21
16.313935
 31
0.0
 12
5.683791
 22
16.273945
 32
0.0
 13
5.683791
 23
16.273945
 33
0.0
  0
SOLID
  8
DIM
 10
11.068851
 20
16.233955
 30
0.0
 11
11.068851
 21
16.313935
 31
0.0
 12
11.308791
 22
16.273945
 32
0.0
 13
11.308791
 23
16.273945
 33
0.0
  0
TEXT
  8
DIM
 10
8.21538
 20
16.190633
 30
0.0
 40
0.166625
  1
5.625
 41
0.75
  0
TEXT
  8
DIM
 10
4.355068
 20
12.573521
 30
0.0
 40
0.166625
  1
0.100
 41
0.75
  0
TEXT
  8
DIM
 10
4.213596
 20
12.333246
 30
0.0
 40
0.166625
  1
 TYP.
 41
0.75
  0
SOLID
  8
DIM
 10
4.0238
 20
12.616844
 30
0.0
 11
4.0238
 21
12.696824
 31
0.0
 12
3.78386
 22
12.656834
 32
0.0
 13
3.78386
 23
12.656834
 33
0.0
  0
SOLID
  8
DIM
 10
3.44392
 20
12.616844
 30
0.0
 11
3.44392
 21
12.696824
 31
0.0
 12
3.68386
 22
12.656834
 32
0.0
 13
3.68386
 23
12.656834
 33
0.0
  0
LINE
  8
DIM
 10
4.0238
 20
12.656834
 30
0.0
 11
4.26374
 21
12.656834
 31
0.0
  0
LINE
  8
DIM
 10
3.44392
 20
12.656834
 30
0.0
 11
3.20398
 21
12.656834
 31
0.0
  0
SOLID
  8
DIM
 10
1.326048
 20
14.332666
 30
0.0
 11
1.406028
 21
14.332666
 31
0.0
 12
1.366038
 22
14.572606
 32
0.0
 13
1.366038
 23
14.572606
 33
0.0
  0
LINE
  8
DIM
 10
1.366038
 20
14.332666
 30
0.0
 11
1.366038
 21
13.416093
 31
0.0
  0
LINE
  8
DIM
 10
2.800548
 20
14.572606
 30
0.0
 11
1.242069
 21
14.572606
 31
0.0
  0
TEXT
  8
DIM
 10
1.109481
 20
13.124293
 30
0.0
 40
0.166625
  1
2.730
 41
0.75
  0
SOLID
  8
DIM
 10
1.326048
 20
12.082546
 30
0.0
 11
1.406028
 21
12.082546
 31
0.0
 12
1.366038
 22
11.842606
 32
0.0
 13
1.366038
 23
11.842606
 33
0.0
  0
LINE
  8
DIM
 10
1.366038
 20
12.082546
 30
0.0
 11
1.366038
 21
13.030647
 31
0.0
  0
LINE
  8
DIM
 10
2.800548
 20
11.842606
 30
0.0
 11
2.208873
 21
11.842606
 31
0.0
  0
LINE
  8
DIM
 10
2.186263
 20
11.109859
 30
0.0
 11
2.354179
 21
11.109859
 31
0.0
  0
TEXT
  8
DIM
 10
2.42392
 20
11.008677
 30
0.0
 40
0.166625
  1
5%%D TYP.
 41
0.75
  0
SOLID
  8
DIM
 10
2.197283
 20
11.94821
 30
0.0
 11
2.118383
 21
11.96131
 31
0.0
 12
2.118532
 22
11.71806
 32
0.0
 13
2.118532
 23
11.71806
 33
0.0
  0
SOLID
  8
DIM
 10
2.17101
 20
11.346469
 30
0.0
 11
2.091269
 21
11.340295
 31
0.0
 12
2.112618
 22
11.582606
 32
0.0
 13
2.112618
 23
11.582606
 33
0.0
  0
LINE
  8
DIM
 10
1.988649
 20
11.582606
 30
0.0
 11
3.327998
 21
11.582606
 31
0.0
  0
LINE
  8
DIM
 10
1.995035
 20
11.728865
 30
0.0
 11
2.892149
 21
11.650378
 31
0.0
  0
ARC
  8
DIM
 10
3.666787
 20
11.582606
 30
0.0
 40
1.554169
 50
157.29119
 51
166.145595
  0
ARC
  8
DIM
 10
3.666787
 20
11.582606
 30
0.0
 40
1.554169
 50
188.854405
 51
197.70881
  0
LINE
  8
DIM
 10
8.621291
 20
14.540918
 30
0.0
 11
8.621291
 21
15.21207
 31
0.0
  0
LINE
  8
DIM
 10
8.256351
 20
15.088101
 30
0.0
 11
8.016411
 21
15.088101
 31
0.0
  0
LINE
  8
DIM
 10
8.861231
 20
15.088101
 30
0.0
 11
9.101171
 21
15.088101
 31
0.0
  0
SOLID
  8
DIM
 10
8.256351
 20
15.128091
 30
0.0
 11
8.256351
 21
15.048111
 31
0.0
 12
8.496291
 22
15.088101
 32
0.0
 13
8.496291
 23
15.088101
 33
0.0
  0
SOLID
  8
DIM
 10
8.861231
 20
15.128091
 30
0.0
 11
8.861231
 21
15.048111
 31
0.0
 12
8.621291
 22
15.088101
 32
0.0
 13
8.621291
 23
15.088101
 33
0.0
  0
TEXT
  8
DIM
 10
7.492462
 20
15.004788
 30
0.0
 40
0.166625
  1
0.125
 41
0.75
  0
LINE
  8
DIM
 10
10.621291
 20
14.540918
 30
0.0
 11
10.621291
 21
15.872839
 31
0.0
  0
LINE
  8
DIM
 10
8.736231
 20
15.718811
 30
0.0
 11
9.214678
 21
15.718811
 31
0.0
  0
LINE
  8
DIM
 10
10.381351
 20
15.718811
 30
0.0
 11
9.883578
 21
15.718811
 31
0.0
  0
SOLID
  8
DIM
 10
8.736231
 20
15.758801
 30
0.0
 11
8.736231
 21
15.678821
 31
0.0
 12
8.496291
 22
15.718811
 32
0.0
 13
8.496291
 23
15.718811
 33
0.0
  0
SOLID
  8
DIM
 10
10.381351
 20
15.758801
 30
0.0
 11
10.381351
 21
15.678821
 31
0.0
 12
10.621291
 22
15.718811
 32
0.0
 13
10.621291
 23
15.718811
 33
0.0
  0
TEXT
  8
DIM
 10
9.32095
 20
15.635499
 30
0.0
 40
0.166625
  1
2.125
 41
0.75
  0
TEXT
  8
DIM
 10
4.888364
 20
14.120198
 30
0.0
 40
0.166625
  1

  0
TEXT
  8
TEXT
 10
2.163688
 20
20.175257
 30
0.0
 40
0.25
  1
PLASTIBOX  (STYLE B)
 41
0.75
 72
     1
 11
3.913688
 21
20.175257
 31
0.0
  0
TEXT
  8
TEXT
 10
9.867345
 20
20.175257
 30
0.0
 40
0.25
  1
PWS-11291
 41
0.75
 72
     1
 11
10.617345
 21
20.175257
 31
0.0
  0
TEXT
  8
TEXT
 10
2.163688
 20
9.927153
 30
0.0
 40
0.25
  1
PLASTIBOX  (STYLE B)
 41
0.75
 72
     1
 11
3.913688
 21
9.927153
 31
0.0
  0
TEXT
  8
TEXT
 10
9.867345
 20
9.927153
 30
0.0
 40
0.25
  1
PBS-11294
 41
0.75
 72
     1
 11
10.617345
 21
9.927153
 31
0.0
  0
TEXT
  8
TEXT
 10
0.670906
 20
18.73276
 30
0.0
 40
0.167
  1
SMOOTH TOP INSERT
 41
0.75
  0
TEXT
  8
TEXT
 10
0.414047
 20
19.013234
 30
0.0
 40
0.167
  1
FINISH: TEXTURED BODY WITH
 41
0.75
  0
TEXT
  8
TEXT
 10
0.414047
 20
19.291567
 30
0.0
 40
0.167
  1
COLOR: BLACK OR GRAY
 41
0.75
  0
TEXT
  8
TEXT
 10
0.414047
 20
19.569901
 30
0.0
 40
0.167
  1
MATERIAL: HIGH-IMPACT ABS
 41
0.75
  0
SOLID
  8
DIM
 10
9.898552
 20
12.360354
 30
0.0
 11
9.970733
 21
12.394803
 31
0.0
 12
9.831293
 22
12.59412
 32
0.0
 13
9.831293
 23
12.59412
 33
0.0
  0
LINE
  8
DIM
 10
9.934642
 20
12.377579
 30
0.0
 11
10.433539
 21
11.337324
 31
0.0
  0
LINE
  8
DIM
 10
10.433539
 20
11.337324
 30
0.0
 11
10.673479
 21
11.337324
 31
0.0
  0
TEXT
  8
DIM
 10
10.767498
 20
11.258291
 30
0.0
 40
0.167
  1
SNAP-IN
 41
0.75
  0
TEXT
  8
DIM
 10
10.767498
 20
10.979958
 30
0.0
 40
0.167
  1
WALL MOUNT
 41
0.75
  0
LINE
  8
DIM
 10
2.071049
 20
11.842606
 30
0.0
 11
1.242069
 21
11.842606
 31
0.0
  0
TEXT
  8
DIM
 10
10.767498
 20
10.704845
 30
0.0
 40
0.167
  1
CAPABILITY
 41
0.75
  0
LINE
  8
OBJECT
 10
5.934291
 20
18.828989
 30
0.0
 11
5.936208
 21
18.809081
 31
0.0
  0
LINE
  8
HIDDEN
 10
11.058291
 20
19.322374
 30
0.0
 11
11.060208
 21
19.302466
 31
0.0
  0
LINE
  8
OBJECT
 10
2.88386
 20
14.572606
 30
0.0
 11
2.91486
 21
14.572606
 31
0.0
  0
LINE
  8
OBJECT
 10
2.88386
 20
11.842606
 30
0.0
 11
2.91486
 21
11.842606
 31
0.0
  0
LINE
  8
OBJECT
 10
2.91486
 20
11.842606
 30
0.0
 11
2.91486
 21
14.572606
 31
0.0
  0
TEXT
  8
TEXT
 10
0.413549
 20
16.86231
 30
0.0
 40
0.167
  1
*-USABLE AREA ON COVER AVAILABLE
 41
0.75
  0
TEXT
  8
TEXT
 10
0.673522
 20
16.583976
 30
0.0
 40
0.167
  1
FOR CUSTOM MOLDING.
 41
0.75
  0
TEXT
  8
TEXT
 10
8.036575
 20
19.641669
 30
0.0
 40
0.167
  1
*
 41
0.75
  0
TEXT
  8
TEXT
 10
0.926411
 20
13.235859
 30
0.0
 40
0.167
  1
*
 41
0.75
  0
TEXT
  8
DIM
 10
14.188417
 20
14.485987
 30
0.0
 40
0.166625
  1

  0
TEXT
  8
DIM
 10
18.781916
 20
14.120198
 30
0.0
 40
0.166625
  1

  0
TEXT
  8
TEXT
 10
0.414047
 20
9.276604
 30
0.0
 40
0.167
  1
MATERIAL: HIGH-IMPACT ABS
 41
0.75
  0
TEXT
  8
TEXT
 10
0.414047
 20
8.998271
 30
0.0
 40
0.167
  1
COLOR: BLACK OR GRAY
 41
0.75
  0
TEXT
  8
TEXT
 10
0.604885
 20
7.841469
 30
0.0
 40
0.167
  1
TWO (2) #4 x 0.375 LG. SCREWS
 41
0.75
  0
TEXT
  8
TEXT
 10
0.594783
 20
7.563136
 30
0.0
 40
0.167
  1
SUPPLIED FOR ASSEMBLING TOP.
 41
0.75
  0
TEXT
  8
TEXT
 10
0.414047
 20
7.225853
 30
0.0
 40
0.167
  1
FOUR (4) NON-SKID PUSH-ON FEET SUPPLIED
 41
0.75
  0
ARC
  8
OBJECT
 10
3.402933
 20
4.830795
 30
0.0
 40
0.1
 50
0.0
 51
85.0
  0
ARC
  8
OBJECT
 10
3.402933
 20
1.886545
 30
0.0
 40
0.1
 50
275.0
 51
0.0
  0
ARC
  8
OBJECT
 10
2.102933
 20
4.82354
 30
0.0
 40
0.1
 50
95.0
 51
180.0
  0
ARC
  8
OBJECT
 10
2.102933
 20
1.8938
 30
0.0
 40
0.1
 50
180.0
 51
265.0
  0
LINE
  8
OBJECT
 10
3.113007
 20
4.66916
 30
0.0
 11
3.402933
 21
4.643788
 31
0.0
  0
LINE
  8
OBJECT
 10
3.113007
 20
4.66916
 30
0.0
 11
3.113007
 21
4.85616
 31
0.0
  0
LINE
  8
OBJECT
 10
3.113007
 20
2.04818
 30
0.0
 11
3.402933
 21
2.073551
 31
0.0
  0
LINE
  8
OBJECT
 10
3.113007
 20
2.04818
 30
0.0
 11
3.113007
 21
1.86118
 31
0.0
  0
LINE
  8
OBJECT
 10
2.785933
 20
1.79367
 30
0.0
 11
2.785933
 21
1.73367
 31
0.0
  0
LINE
  8
OBJECT
 10
2.802933
 20
1.79367
 30
0.0
 11
2.802933
 21
1.73367
 31
0.0
  0
LINE
  8
OBJECT
 10
2.785933
 20
1.834052
 30
0.0
 11
2.785933
 21
1.96617
 31
0.0
  0
LINE
  8
HIDDEN
 10
2.68486
 20
2.16817
 30
0.0
 11
2.68486
 21
2.07417
 31
0.0
  0
LINE
  8
HIDDEN
 10
2.71586
 20
2.04317
 30
0.0
 11
2.68486
 21
2.07417
 31
0.0
  0
LINE
  8
HIDDEN
 10
2.71586
 20
2.19917
 30
0.0
 11
2.68486
 21
2.16817
 31
0.0
  0
LINE
  8
HIDDEN
 10
2.71586
 20
2.18617
 30
0.0
 11
2.77586
 21
2.18617
 31
0.0
  0
LINE
  8
HIDDEN
 10
2.71586
 20
2.05617
 30
0.0
 11
2.77586
 21
2.05617
 31
0.0
  0
LINE
  8
HIDDEN
 10
3.502933
 20
2.24317
 30
0.0
 11
2.77586
 21
2.24317
 31
0.0
  0
LINE
  8
HIDDEN
 10
3.502933
 20
1.99917
 30
0.0
 11
2.77586
 21
1.99917
 31
0.0
  0
LINE
  8
HIDDEN
 10
2.77586
 20
1.99917
 30
0.0
 11
2.77586
 21
2.24317
 31
0.0
  0
LINE
  8
HIDDEN
 10
2.68486
 20
2.16817
 30
0.0
 11
2.10286
 21
2.16817
 31
0.0
  0
LINE
  8
HIDDEN
 10
2.68486
 20
2.07417
 30
0.0
 11
2.10286
 21
2.07417
 31
0.0
  0
LINE
  8
OBJECT
 10
2.71586
 20
2.25117
 30
0.0
 11
2.10286
 21
2.25117
 31
0.0
  0
LINE
  8
OBJECT
 10
2.71586
 20
1.99117
 30
0.0
 11
2.102933
 21
1.99117
 31
0.0
  0
LINE
  8
OBJECT
 10
2.71586
 20
1.96617
 30
0.0
 11
2.71586
 21
2.27617
 31
0.0
  0
LINE
  8
OBJECT
 10
2.71586
 20
2.27617
 30
0.0
 11
3.402933
 21
2.27617
 31
0.0
  0
LINE
  8
OBJECT
 10
2.71586
 20
1.96617
 30
0.0
 11
3.113007
 21
1.96617
 31
0.0
  0
LINE
  8
OBJECT
 10
2.78586
 20
1.834052
 30
0.0
 11
2.78586
 21
1.96617
 31
0.0
  0
LINE
  8
OBJECT
 10
2.802933
 20
1.834052
 30
0.0
 11
2.802933
 21
1.96617
 31
0.0
  0
LINE
  8
OBJECT
 10
2.802933
 20
1.834052
 30
0.0
 11
2.71586
 21
1.834052
 31
0.0
  0
LINE
  8
OBJECT
 10
2.78586
 20
1.79367
 30
0.0
 11
2.802933
 21
1.79367
 31
0.0
  0
LINE
  8
OBJECT
 10
2.71586
 20
1.79367
 30
0.0
 11
2.71586
 21
1.840176
 31
0.0
  0
LINE
  8
OBJECT
 10
2.71586
 20
1.79367
 30
0.0
 11
2.78586
 21
1.79367
 31
0.0
  0
LINE
  8
OBJECT
 10
2.802933
 20
1.834052
 30
0.0
 11
3.402933
 21
1.886545
 31
0.0
  0
LINE
  8
OBJECT
 10
2.71586
 20
1.840176
 30
0.0
 11
2.102933
 21
1.8938
 31
0.0
  0
LINE
  8
OBJECT
 10
2.802933
 20
1.73367
 30
0.0
 11
2.802933
 21
1.79367
 31
0.0
  0
LINE
  8
OBJECT
 10
2.78586
 20
1.73367
 30
0.0
 11
2.78586
 21
1.79367
 31
0.0
  0
LINE
  8
OBJECT
 10
2.802933
 20
1.73367
 30
0.0
 11
3.411649
 21
1.786926
 31
0.0
  0
LINE
  8
OBJECT
 10
2.78586
 20
1.73367
 30
0.0
 11
2.094218
 21
1.794181
 31
0.0
  0
LINE
  8
OBJECT
 10
2.785933
 20
4.44117
 30
0.0
 11
2.785933
 21
2.27617
 31
0.0
  0
LINE
  8
OBJECT
 10
2.802933
 20
4.44117
 30
0.0
 11
2.802933
 21
2.27617
 31
0.0
  0
LINE
  8
OBJECT
 10
2.78586
 20
4.98367
 30
0.0
 11
2.094218
 21
4.923159
 31
0.0
  0
LINE
  8
OBJECT
 10
2.802933
 20
4.98367
 30
0.0
 11
3.411649
 21
4.930414
 31
0.0
  0
LINE
  8
OBJECT
 10
2.78586
 20
4.98367
 30
0.0
 11
2.78586
 21
4.92367
 31
0.0
  0
LINE
  8
OBJECT
 10
2.802933
 20
4.98367
 30
0.0
 11
2.802933
 21
4.92367
 31
0.0
  0
LINE
  8
OBJECT
 10
2.71586
 20
4.877164
 30
0.0
 11
2.102933
 21
4.82354
 31
0.0
  0
LINE
  8
OBJECT
 10
2.802933
 20
4.883288
 30
0.0
 11
3.402933
 21
4.830795
 31
0.0
  0
LINE
  8
OBJECT
 10
2.71586
 20
4.92367
 30
0.0
 11
2.78586
 21
4.92367
 31
0.0
  0
LINE
  8
OBJECT
 10
2.71586
 20
4.92367
 30
0.0
 11
2.71586
 21
4.877164
 31
0.0
  0
LINE
  8
OBJECT
 10
2.78586
 20
4.92367
 30
0.0
 11
2.802933
 21
4.92367
 31
0.0
  0
LINE
  8
OBJECT
 10
2.802933
 20
4.883288
 30
0.0
 11
2.71586
 21
4.883288
 31
0.0
  0
LINE
  8
OBJECT
 10
2.802933
 20
4.883288
 30
0.0
 11
2.802933
 21
4.75117
 31
0.0
  0
LINE
  8
OBJECT
 10
2.78586
 20
4.883288
 30
0.0
 11
2.78586
 21
4.75117
 31
0.0
  0
LINE
  8
OBJECT
 10
2.71586
 20
4.75117
 30
0.0
 11
3.113007
 21
4.75117
 31
0.0
  0
LINE
  8
OBJECT
 10
2.71586
 20
4.44117
 30
0.0
 11
3.402933
 21
4.44117
 31
0.0
  0
LINE
  8
OBJECT
 10
2.71586
 20
4.75117
 30
0.0
 11
2.71586
 21
4.44117
 31
0.0
  0
LINE
  8
OBJECT
 10
2.71586
 20
4.72617
 30
0.0
 11
2.102933
 21
4.72617
 31
0.0
  0
LINE
  8
OBJECT
 10
2.71586
 20
4.46617
 30
0.0
 11
2.10286
 21
4.46617
 31
0.0
  0
LINE
  8
HIDDEN
 10
2.68486
 20
4.64317
 30
0.0
 11
2.10286
 21
4.64317
 31
0.0
  0
LINE
  8
HIDDEN
 10
2.68486
 20
4.54917
 30
0.0
 11
2.10286
 21
4.54917
 31
0.0
  0
LINE
  8
HIDDEN
 10
2.77586
 20
4.71817
 30
0.0
 11
2.77586
 21
4.47417
 31
0.0
  0
LINE
  8
HIDDEN
 10
3.502933
 20
4.71817
 30
0.0
 11
2.77586
 21
4.71817
 31
0.0
  0
LINE
  8
HIDDEN
 10
3.502933
 20
4.47417
 30
0.0
 11
2.77586
 21
4.47417
 31
0.0
  0
LINE
  8
HIDDEN
 10
2.71586
 20
4.66117
 30
0.0
 11
2.77586
 21
4.66117
 31
0.0
  0
LINE
  8
HIDDEN
 10
2.71586
 20
4.53117
 30
0.0
 11
2.77586
 21
4.53117
 31
0.0
  0
LINE
  8
HIDDEN
 10
2.71586
 20
4.51817
 30
0.0
 11
2.68486
 21
4.54917
 31
0.0
  0
LINE
  8
HIDDEN
 10
2.71586
 20
4.67417
 30
0.0
 11
2.68486
 21
4.64317
 31
0.0
  0
LINE
  8
HIDDEN
 10
2.68486
 20
4.54917
 30
0.0
 11
2.68486
 21
4.64317
 31
0.0
  0
LINE
  8
OBJECT
 10
3.402933
 20
4.830795
 30
0.0
 11
3.402933
 21
1.886545
 31
0.0
  0
LINE
  8
OBJECT
 10
3.502933
 20
4.830795
 30
0.0
 11
3.502933
 21
1.886545
 31
0.0
  0
LINE
  8
OBJECT
 10
2.785933
 20
4.883288
 30
0.0
 11
2.785933
 21
4.75117
 31
0.0
  0
LINE
  8
OBJECT
 10
2.102933
 20
1.8938
 30
0.0
 11
2.102933
 21
4.82354
 31
0.0
  0
LINE
  8
CENTER
 10
1.823064
 20
3.35867
 30
0.0
 11
3.682802
 21
3.35867
 31
0.0
  0
LINE
  8
OBJECT
 10
2.002933
 20
1.8938
 30
0.0
 11
2.002933
 21
4.82354
 31
0.0
  0
TEXT
  8
DIM
 10
6.749844
 20
3.880436
 30
0.0
 40
0.166625
  1
 REF.
 41
0.75
  0
TEXT
  8
DIM
 10
6.775155
 20
4.140368
 30
0.0
 40
0.166625
  1
0.060
 41
0.75
  0
LINE
  8
DIM
 10
7.802469
 20
4.561976
 30
0.0
 11
7.802469
 21
4.099712
 31
0.0
  0
LINE
  8
DIM
 10
7.862547
 20
4.561976
 30
0.0
 11
7.862547
 21
4.099712
 31
0.0
  0
LINE
  8
DIM
 10
7.562529
 20
4.223681
 30
0.0
 11
7.317597
 21
4.223681
 31
0.0
  0
LINE
  8
DIM
 10
8.102487
 20
4.223681
 30
0.0
 11
8.342427
 21
4.223681
 31
0.0
  0
SOLID
  8
DIM
 10
7.562529
 20
4.183691
 30
0.0
 11
7.562529
 21
4.263671
 31
0.0
 12
7.802469
 22
4.223681
 32
0.0
 13
7.802469
 23
4.223681
 33
0.0
  0
SOLID
  8
DIM
 10
8.102487
 20
4.183691
 30
0.0
 11
8.102487
 21
4.263671
 31
0.0
 12
7.862547
 22
4.223681
 32
0.0
 13
7.862547
 23
4.223681
 33
0.0
  0
LINE
  8
DIM
 10
8.552469
 20
1.351636
 30
0.0
 11
8.552469
 21
0.499268
 31
0.0
  0
TEXT
  8
DIM
 10
9.172806
 20
1.202008
 30
0.0
 40
0.166625
  1
0.125
 41
0.75
  0
SOLID
  8
DIM
 10
8.792409
 20
1.24533
 30
0.0
 11
8.792409
 21
1.32531
 31
0.0
 12
8.552469
 22
1.28532
 32
0.0
 13
8.552469
 23
1.28532
 33
0.0
  0
LINE
  8
DIM
 10
8.792409
 20
1.28532
 30
0.0
 11
9.032349
 21
1.28532
 31
0.0
  0
TEXT
  8
DIM
 10
8.2933
 20
6.265798
 30
0.0
 40
0.166625
  1
5.625
 41
0.75
  0
SOLID
  8
DIM
 10
11.125029
 20
6.30912
 30
0.0
 11
11.125029
 21
6.3891
 31
0.0
 12
11.364969
 22
6.34911
 32
0.0
 13
11.364969
 23
6.34911
 33
0.0
  0
SOLID
  8
DIM
 10
5.979909
 20
6.30912
 30
0.0
 11
5.979909
 21
6.3891
 31
0.0
 12
5.739969
 22
6.34911
 32
0.0
 13
5.739969
 23
6.34911
 33
0.0
  0
LINE
  8
DIM
 10
11.125029
 20
6.34911
 30
0.0
 11
8.890534
 21
6.34911
 31
0.0
  0
LINE
  8
DIM
 10
5.979909
 20
6.34911
 30
0.0
 11
8.203937
 21
6.34911
 31
0.0
  0
LINE
  8
DIM
 10
11.364969
 20
5.016982
 30
0.0
 11
11.364969
 21
6.473079
 31
0.0
  0
LINE
  8
DIM
 10
5.739969
 20
5.016982
 30
0.0
 11
5.739969
 21
6.473079
 31
0.0
  0
TEXT
  8
DIM
 10
12.784003
 20
3.275357
 30
0.0
 40
0.166625
  1
3.250
 41
0.75
  0
SOLID
  8
DIM
 10
13.069277
 20
4.74373
 30
0.0
 11
12.989297
 21
4.74373
 31
0.0
 12
13.029287
 22
4.98367
 32
0.0
 13
13.029287
 23
4.98367
 33
0.0
  0
SOLID
  8
DIM
 10
13.069277
 20
1.97361
 30
0.0
 11
12.989297
 21
1.97361
 31
0.0
 12
13.029287
 22
1.73367
 32
0.0
 13
13.029287
 23
1.73367
 33
0.0
  0
LINE
  8
DIM
 10
13.029287
 20
4.74373
 30
0.0
 11
13.029287
 21
3.553285
 31
0.0
  0
LINE
  8
DIM
 10
13.029287
 20
1.97361
 30
0.0
 11
13.029287
 21
3.163425
 31
0.0
  0
LINE
  8
DIM
 10
11.398282
 20
4.98367
 30
0.0
 11
13.153256
 21
4.98367
 31
0.0
  0
LINE
  8
DIM
 10
11.398282
 20
1.73367
 30
0.0
 11
13.153256
 21
1.73367
 31
0.0
  0
TEXT
  8
DIM
 10
8.717716
 20
5.124727
 30
0.0
 40
0.166625
  1
0.750
 41
0.75
  0
SOLID
  8
DIM
 10
8.312529
 20
5.16805
 30
0.0
 11
8.312529
 21
5.24803
 31
0.0
 12
8.552469
 22
5.20804
 32
0.0
 13
8.552469
 23
5.20804
 33
0.0
  0
SOLID
  8
DIM
 10
9.542409
 20
5.16805
 30
0.0
 11
9.542409
 21
5.24803
 31
0.0
 12
9.302469
 22
5.20804
 32
0.0
 13
9.302469
 23
5.20804
 33
0.0
  0
LINE
  8
DIM
 10
8.312529
 20
5.20804
 30
0.0
 11
8.072589
 21
5.20804
 31
0.0
  0
LINE
  8
DIM
 10
9.542409
 20
5.20804
 30
0.0
 11
9.782349
 21
5.20804
 31
0.0
  0
LINE
  8
DIM
 10
9.302469
 20
4.940973
 30
0.0
 11
9.302469
 21
5.332009
 31
0.0
  0
LINE
  8
DIM
 10
10.977469
 20
4.691982
 30
0.0
 11
10.977469
 21
6.178616
 31
0.0
  0
LINE
  8
DIM
 10
10.737529
 20
6.054647
 30
0.0
 11
10.103839
 21
6.054647
 31
0.0
  0
LINE
  8
DIM
 10
8.792409
 20
6.054647
 30
0.0
 11
9.394696
 21
6.054647
 31
0.0
  0
SOLID
  8
DIM
 10
10.737529
 20
6.014657
 30
0.0
 11
10.737529
 21
6.094637
 31
0.0
 12
10.977469
 22
6.054647
 32
0.0
 13
10.977469
 23
6.054647
 33
0.0
  0
SOLID
  8
DIM
 10
8.792409
 20
6.014657
 30
0.0
 11
8.792409
 21
6.094637
 31
0.0
 12
8.552469
 22
6.054647
 32
0.0
 13
8.552469
 23
6.054647
 33
0.0
  0
TEXT
  8
DIM
 10
9.5058
 20
5.971334
 30
0.0
 40
0.166625
  1
2.425
 41
0.75
  0
TEXT
  8
DIM
 10
7.0808
 20
5.971334
 30
0.0
 40
0.166625
  1
2.425
 41
0.75
  0
SOLID
  8
DIM
 10
8.312529
 20
6.014657
 30
0.0
 11
8.312529
 21
6.094637
 31
0.0
 12
8.552469
 22
6.054647
 32
0.0
 13
8.552469
 23
6.054647
 33
0.0
  0
SOLID
  8
DIM
 10
6.367409
 20
6.014657
 30
0.0
 11
6.367409
 21
6.094637
 31
0.0
 12
6.127469
 22
6.054647
 32
0.0
 13
6.127469
 23
6.054647
 33
0.0
  0
LINE
  8
DIM
 10
8.312529
 20
6.054647
 30
0.0
 11
7.69897
 21
6.054647
 31
0.0
  0
LINE
  8
DIM
 10
6.367409
 20
6.054647
 30
0.0
 11
6.958423
 21
6.054647
 31
0.0
  0
LINE
  8
DIM
 10
8.552469
 20
5.339757
 30
0.0
 11
8.552469
 21
6.178616
 31
0.0
  0
LINE
  8
DIM
 10
6.127469
 20
4.691982
 30
0.0
 11
6.127469
 21
6.178616
 31
0.0
  0
TEXT
  8
DIM
 10
7.221071
 20
5.695347
 30
0.0
 40
0.166625
  1
2.200
 41
0.75
  0
SOLID
  8
DIM
 10
8.312529
 20
5.73867
 30
0.0
 11
8.312529
 21
5.81865
 31
0.0
 12
8.552469
 22
5.77866
 32
0.0
 13
8.552469
 23
5.77866
 33
0.0
  0
SOLID
  8
DIM
 10
6.592409
 20
5.73867
 30
0.0
 11
6.592409
 21
5.81865
 31
0.0
 12
6.352469
 22
5.77866
 32
0.0
 13
6.352469
 23
5.77866
 33
0.0
  0
LINE
  8
DIM
 10
8.312529
 20
5.77866
 30
0.0
 11
7.783699
 21
5.77866
 31
0.0
  0
LINE
  8
DIM
 10
6.592409
 20
5.77866
 30
0.0
 11
7.109967
 21
5.77866
 31
0.0
  0
LINE
  8
DIM
 10
6.352469
 20
4.940973
 30
0.0
 11
6.352469
 21
5.902629
 31
0.0
  0
TEXT
  8
DIM
 10
7.945967
 20
5.400305
 30
0.0
 40
0.166625
  1
0.750
 41
0.75
  0
SOLID
  8
DIM
 10
8.792409
 20
5.443628
 30
0.0
 11
8.792409
 21
5.523608
 31
0.0
 12
8.552469
 22
5.483618
 32
0.0
 13
8.552469
 23
5.483618
 33
0.0
  0
SOLID
  8
DIM
 10
7.562529
 20
5.443628
 30
0.0
 11
7.562529
 21
5.523608
 31
0.0
 12
7.802469
 22
5.483618
 32
0.0
 13
7.802469
 23
5.483618
 33
0.0
  0
LINE
  8
DIM
 10
8.792409
 20
5.483618
 30
0.0
 11
9.032349
 21
5.483618
 31
0.0
  0
LINE
  8
DIM
 10
7.562529
 20
5.483618
 30
0.0
 11
7.322589
 21
5.483618
 31
0.0
  0
LINE
  8
DIM
 10
7.802469
 20
4.940973
 30
0.0
 11
7.802469
 21
5.607587
 31
0.0
  0
LINE
  8
DIM
 10
7.177469
 20
2.025357
 30
0.0
 11
7.177469
 21
0.834453
 31
0.0
  0
LINE
  8
DIM
 10
7.417409
 20
0.958422
 30
0.0
 11
7.572725
 21
0.958422
 31
0.0
  0
LINE
  8
DIM
 10
8.312529
 20
0.958422
 30
0.0
 11
8.171202
 21
0.958422
 31
0.0
  0
SOLID
  8
DIM
 10
7.417409
 20
0.918432
 30
0.0
 11
7.417409
 21
0.998412
 31
0.0
 12
7.177469
 22
0.958422
 32
0.0
 13
7.177469
 23
0.958422
 33
0.0
  0
SOLID
  8
DIM
 10
8.312529
 20
0.918432
 30
0.0
 11
8.312529
 21
0.998412
 31
0.0
 12
8.552469
 22
0.958422
 32
0.0
 13
8.552469
 23
0.958422
 33
0.0
  0
TEXT
  8
DIM
 10
7.634988
 20
0.875109
 30
0.0
 40
0.166625
  1
1.375
 41
0.75
  0
TEXT
  8
DIM
 10
9.007154
 20
0.875109
 30
0.0
 40
0.166625
  1
1.375
 41
0.75
  0
SOLID
  8
DIM
 10
8.792409
 20
0.918432
 30
0.0
 11
8.792409
 21
0.998412
 31
0.0
 12
8.552469
 22
0.958422
 32
0.0
 13
8.552469
 23
0.958422
 33
0.0
  0
SOLID
  8
DIM
 10
9.687529
 20
0.918432
 30
0.0
 11
9.687529
 21
0.998412
 31
0.0
 12
9.927469
 22
0.958422
 32
0.0
 13
9.927469
 23
0.958422
 33
0.0
  0
LINE
  8
DIM
 10
8.792409
 20
0.958422
 30
0.0
 11
8.923268
 21
0.958422
 31
0.0
  0
LINE
  8
DIM
 10
9.687529
 20
0.958422
 30
0.0
 11
9.52094
 21
0.958422
 31
0.0
  0
LINE
  8
DIM
 10
9.927469
 20
2.025357
 30
0.0
 11
9.927469
 21
0.834453
 31
0.0
  0
LINE
  8
HIDDEN
 10
9.351083
 20
1.885051
 30
0.0
 11
11.213588
 21
1.885051
 31
0.0
  0
LINE
  8
HIDDEN
 10
7.910161
 20
1.885051
 30
0.0
 11
9.194777
 21
1.885051
 31
0.0
  0
LINE
  8
HIDDEN
 10
7.910161
 20
4.832288
 30
0.0
 11
9.194777
 21
4.832288
 31
0.0
  0
LINE
  8
HIDDEN
 10
9.351083
 20
4.832288
 30
0.0
 11
11.213588
 21
4.832288
 31
0.0
  0
LINE
  8
HIDDEN
 10
9.194777
 20
1.85968
 30
0.0
 11
9.351083
 21
1.85968
 31
0.0
  0
LINE
  8
HIDDEN
 10
9.194777
 20
4.85766
 30
0.0
 11
9.351083
 21
4.85766
 31
0.0
  0
LINE
  8
HIDDEN
 10
9.351083
 20
1.85968
 30
0.0
 11
9.351083
 21
2.072051
 31
0.0
  0
LINE
  8
HIDDEN
 10
9.351083
 20
2.072051
 30
0.0
 11
9.302469
 21
2.072051
 31
0.0
  0
LINE
  8
HIDDEN
 10
9.302469
 20
2.072051
 30
0.0
 11
9.302469
 21
1.85968
 31
0.0
  0
LINE
  8
HIDDEN
 10
9.194777
 20
1.85968
 30
0.0
 11
9.194777
 21
2.072051
 31
0.0
  0
LINE
  8
HIDDEN
 10
9.242391
 20
1.978439
 30
0.0
 11
9.302469
 21
1.978439
 31
0.0
  0
LINE
  8
HIDDEN
 10
9.194777
 20
2.072051
 30
0.0
 11
9.242391
 21
2.072051
 31
0.0
  0
LINE
  8
HIDDEN
 10
9.242391
 20
2.072051
 30
0.0
 11
9.242391
 21
1.85968
 31
0.0
  0
LINE
  8
HIDDEN
 10
9.242391
 20
4.645288
 30
0.0
 11
9.242391
 21
4.85766
 31
0.0
  0
LINE
  8
HIDDEN
 10
9.194777
 20
4.645288
 30
0.0
 11
9.242391
 21
4.645288
 31
0.0
  0
LINE
  8
HIDDEN
 10
9.242391
 20
4.738901
 30
0.0
 11
9.302469
 21
4.738901
 31
0.0
  0
LINE
  8
HIDDEN
 10
9.194777
 20
4.85766
 30
0.0
 11
9.194777
 21
4.645288
 31
0.0
  0
LINE
  8
HIDDEN
 10
9.302469
 20
4.645288
 30
0.0
 11
9.302469
 21
4.85766
 31
0.0
  0
LINE
  8
HIDDEN
 10
9.351083
 20
4.645288
 30
0.0
 11
9.302469
 21
4.645288
 31
0.0
  0
LINE
  8
HIDDEN
 10
9.351083
 20
4.85766
 30
0.0
 11
9.351083
 21
4.645288
 31
0.0
  0
LINE
  8
OBJECT
 10
11.364969
 20
4.93367
 30
0.0
 11
11.364969
 21
1.78367
 31
0.0
  0
LINE
  8
OBJECT
 10
5.789969
 20
1.73367
 30
0.0
 11
11.314969
 21
1.73367
 31
0.0
  0
LINE
  8
OBJECT
 10
5.739969
 20
4.93367
 30
0.0
 11
5.739969
 21
1.78367
 31
0.0
  0
LINE
  8
OBJECT
 10
5.789969
 20
4.98367
 30
0.0
 11
11.314969
 21
4.98367
 31
0.0
  0
LINE
  8
HIDDEN
 10
11.264969
 20
4.88367
 30
0.0
 11
11.264969
 21
1.83367
 31
0.0
  0
ARC
  8
OBJECT
 10
5.789969
 20
1.78367
 30
0.0
 40
0.05
 50
180.0
 51
270.0
  0
ARC
  8
OBJECT
 10
11.314969
 20
1.78367
 30
0.0
 40
0.05
 50
270.0
 51
0.0
  0
ARC
  8
OBJECT
 10
11.314969
 20
4.93367
 30
0.0
 40
0.05
 50
0.0
 51
90.0
  0
ARC
  8
OBJECT
 10
5.789969
 20
4.93367
 30
0.0
 40
0.05
 50
90.0
 51
180.0
  0
CIRCLE
  8
HIDDEN
 10
9.927469
 20
4.60867
 30
0.0
 40
0.13
  0
CIRCLE
  8
HIDDEN
 10
9.927469
 20
2.10867
 30
0.0
 40
0.13
  0
LINE
  8
HIDDEN
 10
11.299969
 20
4.87867
 30
0.0
 11
11.299969
 21
1.83867
 31
0.0
  0
LINE
  8
HIDDEN
 10
11.259969
 20
1.79867
 30
0.0
 11
5.844969
 21
1.79867
 31
0.0
  0
LINE
  8
HIDDEN
 10
11.264969
 20
1.83367
 30
0.0
 11
5.839969
 21
1.83367
 31
0.0
  0
LINE
  8
HIDDEN
 10
11.259969
 20
4.91867
 30
0.0
 11
5.844969
 21
4.91867
 31
0.0
  0
LINE
  8
HIDDEN
 10
11.264969
 20
4.88367
 30
0.0
 11
5.839969
 21
4.88367
 31
0.0
  0
LINE
  8
HIDDEN
 10
5.804969
 20
4.87867
 30
0.0
 11
5.804969
 21
1.83867
 31
0.0
  0
LINE
  8
HIDDEN
 10
5.839969
 20
4.88367
 30
0.0
 11
5.839969
 21
1.83367
 31
0.0
  0
CIRCLE
  8
HIDDEN
 10
7.177469
 20
2.10867
 30
0.0
 40
0.13
  0
CIRCLE
  8
HIDDEN
 10
7.177469
 20
4.60867
 30
0.0
 40
0.13
  0
ARC
  8
HIDDEN
 10
5.844969
 20
4.87867
 30
0.0
 40
0.04
 50
90.0
 51
180.0
  0
ARC
  8
HIDDEN
 10
5.844969
 20
1.83867
 30
0.0
 40
0.04
 50
180.0
 51
270.0
  0
CIRCLE
  8
OBJECT
 10
10.977469
 20
4.60867
 30
0.0
 40
0.0465
  0
LINE
  8
HIDDEN
 10
6.412547
 20
4.645288
 30
0.0
 11
6.412547
 21
4.85766
 31
0.0
  0
LINE
  8
HIDDEN
 10
6.460161
 20
4.645288
 30
0.0
 11
6.412547
 21
4.645288
 31
0.0
  0
LINE
  8
HIDDEN
 10
6.412547
 20
4.738901
 30
0.0
 11
6.352469
 21
4.738901
 31
0.0
  0
LINE
  8
HIDDEN
 10
6.460161
 20
4.85766
 30
0.0
 11
6.460161
 21
4.645288
 31
0.0
  0
LINE
  8
HIDDEN
 10
6.352469
 20
4.645288
 30
0.0
 11
6.352469
 21
4.85766
 31
0.0
  0
LINE
  8
HIDDEN
 10
6.303855
 20
4.645288
 30
0.0
 11
6.352469
 21
4.645288
 31
0.0
  0
LINE
  8
HIDDEN
 10
6.303855
 20
4.85766
 30
0.0
 11
6.303855
 21
4.645288
 31
0.0
  0
LINE
  8
HIDDEN
 10
7.753855
 20
4.85766
 30
0.0
 11
7.753855
 21
4.645288
 31
0.0
  0
LINE
  8
HIDDEN
 10
7.753855
 20
4.645288
 30
0.0
 11
7.802469
 21
4.645288
 31
0.0
  0
LINE
  8
HIDDEN
 10
7.802469
 20
4.645288
 30
0.0
 11
7.802469
 21
4.85766
 31
0.0
  0
LINE
  8
HIDDEN
 10
7.910161
 20
4.85766
 30
0.0
 11
7.910161
 21
4.645288
 31
0.0
  0
LINE
  8
HIDDEN
 10
7.862547
 20
4.738901
 30
0.0
 11
7.802469
 21
4.738901
 31
0.0
  0
LINE
  8
HIDDEN
 10
7.910161
 20
4.645288
 30
0.0
 11
7.862547
 21
4.645288
 31
0.0
  0
LINE
  8
HIDDEN
 10
7.862547
 20
4.645288
 30
0.0
 11
7.862547
 21
4.85766
 31
0.0
  0
LINE
  8
HIDDEN
 10
7.862547
 20
2.072051
 30
0.0
 11
7.862547
 21
1.85968
 31
0.0
  0
LINE
  8
HIDDEN
 10
7.910161
 20
2.072051
 30
0.0
 11
7.862547
 21
2.072051
 31
0.0
  0
LINE
  8
HIDDEN
 10
7.862547
 20
1.978439
 30
0.0
 11
7.802469
 21
1.978439
 31
0.0
  0
LINE
  8
HIDDEN
 10
7.910161
 20
1.85968
 30
0.0
 11
7.910161
 21
2.072051
 31
0.0
  0
LINE
  8
HIDDEN
 10
7.802469
 20
2.072051
 30
0.0
 11
7.802469
 21
1.85968
 31
0.0
  0
LINE
  8
HIDDEN
 10
7.753855
 20
2.072051
 30
0.0
 11
7.802469
 21
2.072051
 31
0.0
  0
LINE
  8
HIDDEN
 10
7.753855
 20
1.85968
 30
0.0
 11
7.753855
 21
2.072051
 31
0.0
  0
LINE
  8
HIDDEN
 10
6.303855
 20
1.85968
 30
0.0
 11
6.303855
 21
2.072051
 31
0.0
  0
LINE
  8
HIDDEN
 10
6.303855
 20
2.072051
 30
0.0
 11
6.352469
 21
2.072051
 31
0.0
  0
LINE
  8
HIDDEN
 10
6.352469
 20
2.072051
 30
0.0
 11
6.352469
 21
1.85968
 31
0.0
  0
LINE
  8
HIDDEN
 10
6.460161
 20
1.85968
 30
0.0
 11
6.460161
 21
2.072051
 31
0.0
  0
LINE
  8
HIDDEN
 10
6.412547
 20
1.978439
 30
0.0
 11
6.352469
 21
1.978439
 31
0.0
  0
LINE
  8
HIDDEN
 10
6.460161
 20
2.072051
 30
0.0
 11
6.412547
 21
2.072051
 31
0.0
  0
LINE
  8
HIDDEN
 10
6.412547
 20
2.072051
 30
0.0
 11
6.412547
 21
1.85968
 31
0.0
  0
CIRCLE
  8
OBJECT
 10
6.127469
 20
2.10867
 30
0.0
 40
0.0465
  0
CIRCLE
  8
OBJECT
 10
6.127469
 20
4.60867
 30
0.0
 40
0.0465
  0
CIRCLE
  8
OBJECT
 10
6.127469
 20
4.60867
 30
0.0
 40
0.1225
  0
CIRCLE
  8
OBJECT
 10
6.127469
 20
2.10867
 30
0.0
 40
0.1225
  0
CIRCLE
  8
OBJECT
 10
10.977469
 20
4.60867
 30
0.0
 40
0.13
  0
CIRCLE
  8
OBJECT
 10
10.977469
 20
2.10867
 30
0.0
 40
0.13
  0
CIRCLE
  8
OBJECT
 10
10.977469
 20
2.10867
 30
0.0
 40
0.0465
  0
LINE
  8
HIDDEN
 10
5.891351
 20
4.832288
 30
0.0
 11
5.891351
 21
1.885051
 31
0.0
  0
LINE
  8
HIDDEN
 10
11.213588
 20
4.832288
 30
0.0
 11
11.213588
 21
1.885051
 31
0.0
  0
LINE
  8
HIDDEN
 10
5.891351
 20
4.832288
 30
0.0
 11
6.303855
 21
4.832288
 31
0.0
  0
LINE
  8
HIDDEN
 10
5.891351
 20
1.885051
 30
0.0
 11
6.303855
 21
1.885051
 31
0.0
  0
LINE
  8
HIDDEN
 10
6.303855
 20
1.85968
 30
0.0
 11
6.460161
 21
1.85968
 31
0.0
  0
LINE
  8
HIDDEN
 10
6.303855
 20
4.85766
 30
0.0
 11
6.460161
 21
4.85766
 31
0.0
  0
LINE
  8
HIDDEN
 10
7.753855
 20
4.85766
 30
0.0
 11
7.910161
 21
4.85766
 31
0.0
  0
LINE
  8
HIDDEN
 10
7.753855
 20
1.85968
 30
0.0
 11
7.910161
 21
1.85968
 31
0.0
  0
LINE
  8
HIDDEN
 10
6.460161
 20
1.885051
 30
0.0
 11
7.753855
 21
1.885051
 31
0.0
  0
LINE
  8
HIDDEN
 10
6.460161
 20
4.832288
 30
0.0
 11
7.753855
 21
4.832288
 31
0.0
  0
LINE
  8
CENTER
 10
8.552469
 20
5.256445
 30
0.0
 11
8.552469
 21
1.434948
 31
0.0
  0
LINE
  8
CENTER
 10
11.711695
 20
3.35867
 30
0.0
 11
5.475376
 21
3.35867
 31
0.0
  0
LINE
  8
HIDDEN
 10
9.266741
 20
7.944547
 30
0.0
 11
9.266741
 21
7.654547
 31
0.0
  0
LINE
  8
HIDDEN
 10
9.218627
 20
7.944547
 30
0.0
 11
9.266741
 21
7.944547
 31
0.0
  0
LINE
  8
HIDDEN
 10
9.266741
 20
7.902031
 30
0.0
 11
9.326819
 21
7.902031
 31
0.0
  0
LINE
  8
HIDDEN
 10
9.218627
 20
7.654547
 30
0.0
 11
9.218627
 21
7.944547
 31
0.0
  0
LINE
  8
HIDDEN
 10
9.326819
 20
7.944547
 30
0.0
 11
9.326819
 21
7.654547
 31
0.0
  0
LINE
  8
HIDDEN
 10
9.374933
 20
7.944547
 30
0.0
 11
9.326819
 21
7.944547
 31
0.0
  0
LINE
  8
HIDDEN
 10
9.374933
 20
7.654547
 30
0.0
 11
9.374933
 21
7.944547
 31
0.0
  0
LINE
  8
OBJECT
 10
6.435897
 20
7.944547
 30
0.0
 11
6.435897
 21
7.654547
 31
0.0
  0
LINE
  8
OBJECT
 10
6.484011
 20
7.944547
 30
0.0
 11
6.435897
 21
7.944547
 31
0.0
  0
LINE
  8
OBJECT
 10
6.435897
 20
7.902031
 30
0.0
 11
6.375819
 21
7.902031
 31
0.0
  0
LINE
  8
OBJECT
 10
6.484011
 20
7.654547
 30
0.0
 11
6.484011
 21
7.944547
 31
0.0
  0
LINE
  8
OBJECT
 10
6.375819
 20
7.944547
 30
0.0
 11
6.375819
 21
7.654547
 31
0.0
  0
LINE
  8
OBJECT
 10
6.327705
 20
7.944547
 30
0.0
 11
6.375819
 21
7.944547
 31
0.0
  0
LINE
  8
OBJECT
 10
6.327705
 20
7.654547
 30
0.0
 11
6.327705
 21
7.944547
 31
0.0
  0
ARC
  8
OBJECT
 10
5.916695
 20
7.654547
 30
0.0
 40
0.1
 50
185.0
 51
270.0
  0
ARC
  8
OBJECT
 10
11.235944
 20
7.654547
 30
0.0
 40
0.1
 50
270.0
 51
355.0
  0
LINE
  8
HIDDEN
 10
11.156319
 20
8.341621
 30
0.0
 11
11.156319
 21
7.654547
 31
0.0
  0
LINE
  8
HIDDEN
 10
10.846319
 20
8.341621
 30
0.0
 11
10.846319
 21
7.654547
 31
0.0
  0
LINE
  8
HIDDEN
 10
11.156319
 20
8.341621
 30
0.0
 11
10.846319
 21
8.341621
 31
0.0
  0
LINE
  8
HIDDEN
 10
11.123319
 20
8.281621
 30
0.0
 11
10.879319
 21
8.281621
 31
0.0
  0
LINE
  8
HIDDEN
 10
11.123319
 20
7.554547
 30
0.0
 11
11.123319
 21
8.281621
 31
0.0
  0
LINE
  8
HIDDEN
 10
10.879319
 20
7.554547
 30
0.0
 11
10.879319
 21
8.281621
 31
0.0
  0
LINE
  8
HIDDEN
 10
11.066319
 20
8.341621
 30
0.0
 11
11.066319
 21
8.281621
 31
0.0
  0
LINE
  8
HIDDEN
 10
10.936319
 20
8.341621
 30
0.0
 11
10.936319
 21
8.281621
 31
0.0
  0
LINE
  8
HIDDEN
 10
9.873319
 20
7.964547
 30
0.0
 11
9.904319
 21
7.933547
 31
0.0
  0
LINE
  8
HIDDEN
 10
10.029319
 20
7.964547
 30
0.0
 11
9.998319
 21
7.933547
 31
0.0
  0
LINE
  8
HIDDEN
 10
9.904319
 20
7.933547
 30
0.0
 11
9.998319
 21
7.933547
 31
0.0
  0
LINE
  8
HIDDEN
 10
9.904319
 20
7.933547
 30
0.0
 11
9.904319
 21
7.614547
 31
0.0
  0
LINE
  8
HIDDEN
 10
9.998319
 20
7.933547
 30
0.0
 11
9.998319
 21
7.614547
 31
0.0
  0
LINE
  8
HIDDEN
 10
9.904319
 20
7.614547
 30
0.0
 11
9.998319
 21
7.614547
 31
0.0
  0
LINE
  8
HIDDEN
 10
9.821319
 20
7.964547
 30
0.0
 11
9.821319
 21
7.654547
 31
0.0
  0
LINE
  8
HIDDEN
 10
10.081319
 20
7.964547
 30
0.0
 11
10.081319
 21
7.654547
 31
0.0
  0
LINE
  8
HIDDEN
 10
9.821319
 20
7.964547
 30
0.0
 11
10.081319
 21
7.964547
 31
0.0
  0
LINE
  8
HIDDEN
 10
8.488869
 20
7.654547
 30
0.0
 11
11.235944
 21
7.654547
 31
0.0
  0
LINE
  8
HIDDEN
 10
11.2892
 20
8.263263
 30
0.0
 11
11.235944
 21
7.654547
 31
0.0
  0
LINE
  8
OBJECT
 10
7.331319
 20
7.964547
 30
0.0
 11
7.071319
 21
7.964547
 31
0.0
  0
LINE
  8
OBJECT
 10
7.071319
 20
7.964547
 30
0.0
 11
7.071319
 21
7.654547
 31
0.0
  0
LINE
  8
OBJECT
 10
7.331319
 20
7.964547
 30
0.0
 11
7.331319
 21
7.654547
 31
0.0
  0
LINE
  8
HIDDEN
 10
7.248319
 20
7.614547
 30
0.0
 11
7.154319
 21
7.614547
 31
0.0
  0
LINE
  8
HIDDEN
 10
7.154319
 20
7.933547
 30
0.0
 11
7.154319
 21
7.614547
 31
0.0
  0
LINE
  8
HIDDEN
 10
7.248319
 20
7.933547
 30
0.0
 11
7.248319
 21
7.614547
 31
0.0
  0
LINE
  8
HIDDEN
 10
7.248319
 20
7.933547
 30
0.0
 11
7.154319
 21
7.933547
 31
0.0
  0
LINE
  8
HIDDEN
 10
7.123319
 20
7.964547
 30
0.0
 11
7.154319
 21
7.933547
 31
0.0
  0
LINE
  8
HIDDEN
 10
7.279319
 20
7.964547
 30
0.0
 11
7.248319
 21
7.933547
 31
0.0
  0
LINE
  8
HIDDEN
 10
6.216319
 20
8.341621
 30
0.0
 11
6.216319
 21
8.281621
 31
0.0
  0
LINE
  8
HIDDEN
 10
6.086319
 20
8.341621
 30
0.0
 11
6.086319
 21
8.281621
 31
0.0
  0
LINE
  8
HIDDEN
 10
6.273319
 20
7.554547
 30
0.0
 11
6.273319
 21
8.281621
 31
0.0
  0
LINE
  8
HIDDEN
 10
6.029319
 20
7.554547
 30
0.0
 11
6.029319
 21
8.281621
 31
0.0
  0
LINE
  8
HIDDEN
 10
6.029319
 20
8.281621
 30
0.0
 11
6.273319
 21
8.281621
 31
0.0
  0
LINE
  8
OBJECT
 10
5.996319
 20
8.341621
 30
0.0
 11
6.306319
 21
8.341621
 31
0.0
  0
LINE
  8
OBJECT
 10
6.306319
 20
8.271621
 30
0.0
 11
11.388819
 21
8.271621
 31
0.0
  0
LINE
  8
OBJECT
 10
6.306319
 20
8.254547
 30
0.0
 11
11.388819
 21
8.254547
 31
0.0
  0
LINE
  8
OBJECT
 10
6.306319
 20
8.341621
 30
0.0
 11
6.306319
 21
7.654547
 31
0.0
  0
LINE
  8
OBJECT
 10
5.996319
 20
8.341621
 30
0.0
 11
5.996319
 21
7.654547
 31
0.0
  0
LINE
  8
OBJECT
 10
5.864201
 20
8.271621
 30
0.0
 11
5.996319
 21
8.271621
 31
0.0
  0
LINE
  8
OBJECT
 10
5.864201
 20
8.254547
 30
0.0
 11
5.996319
 21
8.254547
 31
0.0
  0
LINE
  8
OBJECT
 10
5.864201
 20
8.254547
 30
0.0
 11
5.864201
 21
8.341621
 31
0.0
  0
LINE
  8
OBJECT
 10
5.823819
 20
8.271621
 30
0.0
 11
5.823819
 21
8.254547
 31
0.0
  0
LINE
  8
OBJECT
 10
5.823819
 20
8.341621
 30
0.0
 11
5.823819
 21
8.271621
 31
0.0
  0
LINE
  8
OBJECT
 10
5.864201
 20
8.254547
 30
0.0
 11
5.916695
 21
7.654547
 31
0.0
  0
LINE
  8
OBJECT
 10
5.916695
 20
7.654547
 30
0.0
 11
8.488869
 21
7.654547
 31
0.0
  0
ARC
  8
OBJECT
 10
8.071918
 20
8.625062
 30
0.0
 40
0.373477
 50
324.686192
 51
25.044933
  0
ARC
  8
OBJECT
 10
8.757728
 20
8.139233
 30
0.0
 40
0.466979
 50
144.686192
 51
209.588998
  0
ARC
  8
OBJECT
 10
22.62193
 20
16.011675
 30
0.0
 40
16.410361
 50
209.588998
 51
211.021049
  0
LINE
  8
OBJECT
 10
5.763819
 20
8.254547
 30
0.0
 11
5.823819
 21
8.254547
 31
0.0
  0
LINE
  8
OBJECT
 10
11.388819
 20
8.254547
 30
0.0
 11
11.335564
 21
7.645832
 31
0.0
  0
LINE
  8
OBJECT
 10
5.763819
 20
8.254547
 30
0.0
 11
5.817075
 21
7.645832
 31
0.0
  0
LINE
  8
OBJECT
 10
5.916695
 20
7.554547
 30
0.0
 11
11.235944
 21
7.554547
 31
0.0
  0
LINE
  8
CENTER
 10
8.576319
 20
9.16817
 30
0.0
 11
8.576319
 21
7.440924
 31
0.0
  0
LINE
  8
OBJECT
 10
7.777705
 20
7.654547
 30
0.0
 11
7.777705
 21
7.944547
 31
0.0
  0
LINE
  8
OBJECT
 10
7.777705
 20
7.944547
 30
0.0
 11
7.825819
 21
7.944547
 31
0.0
  0
LINE
  8
OBJECT
 10
7.825819
 20
7.944547
 30
0.0
 11
7.825819
 21
7.654547
 31
0.0
  0
LINE
  8
OBJECT
 10
7.934011
 20
7.654547
 30
0.0
 11
7.934011
 21
7.944547
 31
0.0
  0
LINE
  8
OBJECT
 10
7.885897
 20
7.902031
 30
0.0
 11
7.825819
 21
7.902031
 31
0.0
  0
LINE
  8
OBJECT
 10
7.934011
 20
7.944547
 30
0.0
 11
7.885897
 21
7.944547
 31
0.0
  0
LINE
  8
OBJECT
 10
7.885897
 20
7.944547
 30
0.0
 11
7.885897
 21
7.654547
 31
0.0
  0
TEXT
  8
DIM
 10
19.106916
 20
2.560623
 30
0.0
 40
0.166625
  1

  0
TEXT
  8
DIM
 10
16.334882
 20
2.980739
 30
0.0
 40
0.166625
  1

  0
LINE
  8
DIM
 10
11.319257
 20
7.554547
 30
0.0
 11
13.169209
 21
7.554547
 31
0.0
  0
LINE
  8
DIM
 10
11.312002
 20
9.054547
 30
0.0
 11
13.169209
 21
9.054547
 31
0.0
  0
LINE
  8
DIM
 10
13.02139
 20
7.794487
 30
0.0
 11
13.02139
 21
8.108671
 31
0.0
  0
LINE
  8
DIM
 10
13.02139
 20
8.814607
 30
0.0
 11
13.02139
 21
8.491595
 31
0.0
  0
SOLID
  8
DIM
 10
13.06138
 20
7.794487
 30
0.0
 11
12.9814
 21
7.794487
 31
0.0
 12
13.02139
 22
7.554547
 32
0.0
 13
13.02139
 23
7.554547
 33
0.0
  0
SOLID
  8
DIM
 10
13.06138
 20
8.814607
 30
0.0
 11
12.9814
 21
8.814607
 31
0.0
 12
13.02139
 22
9.054547
 32
0.0
 13
13.02139
 23
9.054547
 33
0.0
  0
TEXT
  8
DIM
 10
12.794411
 20
8.221235
 30
0.0
 40
0.166625
  1
1.500
 41
0.75
  0
LINE
  8
DIM
 10
11.472132
 20
8.254547
 30
0.0
 11
12.028796
 21
8.254547
 31
0.0
  0
LINE
  8
DIM
 10
11.904827
 20
7.314607
 30
0.0
 11
11.904827
 21
7.074667
 31
0.0
  0
LINE
  8
DIM
 10
11.904827
 20
8.494487
 30
0.0
 11
11.904827
 21
8.734427
 31
0.0
  0
SOLID
  8
DIM
 10
11.944817
 20
7.314607
 30
0.0
 11
11.864837
 21
7.314607
 31
0.0
 12
11.904827
 22
7.554547
 32
0.0
 13
11.904827
 23
7.554547
 33
0.0
  0
SOLID
  8
DIM
 10
11.944817
 20
8.494487
 30
0.0
 11
11.864837
 21
8.494487
 31
0.0
 12
11.904827
 22
8.254547
 32
0.0
 13
11.904827
 23
8.254547
 33
0.0
  0
TEXT
  8
DIM
 10
11.689658
 20
7.797591
 30
0.0
 40
0.166625
  1
0.700
 41
0.75
  0
LINE
  8
DIM
 10
0.708594
 20
2.23361
 30
0.0
 11
0.708594
 21
3.192431
 31
0.0
  0
SOLID
  8
DIM
 10
0.668604
 20
2.23361
 30
0.0
 11
0.748584
 21
2.23361
 31
0.0
 12
0.708594
 22
1.99367
 32
0.0
 13
0.708594
 23
1.99367
 33
0.0
  0
LINE
  8
DIM
 10
1.919621
 20
1.99367
 30
0.0
 11
1.303969
 21
1.99367
 31
0.0
  0
LINE
  8
DIM
 10
1.919621
 20
4.72367
 30
0.0
 11
0.584625
 21
4.72367
 31
0.0
  0
SOLID
  8
DIM
 10
0.668604
 20
4.48373
 30
0.0
 11
0.748584
 21
4.48373
 31
0.0
 12
0.708594
 22
4.72367
 32
0.0
 13
0.708594
 23
4.72367
 33
0.0
  0
LINE
  8
DIM
 10
0.708594
 20
4.48373
 30
0.0
 11
0.708594
 21
3.524278
 31
0.0
  0
TEXT
  8
DIM
 10
0.441569
 20
3.275357
 30
0.0
 40
0.166625
  1
2.730
 41
0.75
  0
LINE
  8
DIM
 10
3.742873
 20
3.001766
 30
0.0
 11
3.982813
 21
3.001766
 31
0.0
  0
LINE
  8
DIM
 10
3.162993
 20
3.001766
 30
0.0
 11
2.923053
 21
3.001766
 31
0.0
  0
SOLID
  8
DIM
 10
3.742873
 20
2.961776
 30
0.0
 11
3.742873
 21
3.041756
 31
0.0
 12
3.502933
 22
3.001766
 32
0.0
 13
3.502933
 23
3.001766
 33
0.0
  0
SOLID
  8
DIM
 10
3.162993
 20
2.961776
 30
0.0
 11
3.162993
 21
3.041756
 31
0.0
 12
3.402933
 22
3.001766
 32
0.0
 13
3.402933
 23
3.001766
 33
0.0
  0
TEXT
  8
DIM
 10
3.967612
 20
2.676101
 30
0.0
 40
0.166625
  1
 TYP.
 41
0.75
  0
TEXT
  8
DIM
 10
17.914786
 20
12.963561
 30
0.0
 40
0.166625
  1

  0
TEXT
  8
DIM
 10
4.090558
 20
2.918453
 30
0.0
 40
0.166625
  1
0.100
 41
0.75
  0
LINE
  8
OBJECT
 10
2.033933
 20
1.99367
 30
0.0
 11
2.033933
 21
4.72367
 31
0.0
  0
LINE
  8
OBJECT
 10
2.002933
 20
4.72367
 30
0.0
 11
2.033933
 21
4.72367
 31
0.0
  0
LINE
  8
OBJECT
 10
2.002933
 20
1.99367
 30
0.0
 11
2.033933
 21
1.99367
 31
0.0
  0
ARC
  8
DIM
 10
2.617319
 20
1.73367
 30
0.0
 40
1.414624
 50
189.729852
 51
199.459705
  0
ARC
  8
DIM
 10
2.617319
 20
1.73367
 30
0.0
 40
1.414624
 50
155.540295
 51
165.270148
  0
LINE
  8
DIM
 10
1.078726
 20
1.73367
 30
0.0
 11
2.408102
 21
1.73367
 31
0.0
  0
LINE
  8
DIM
 10
1.084581
 20
1.867767
 30
0.0
 11
2.011222
 21
1.794187
 31
0.0
  0
SOLID
  8
DIM
 10
1.26289
 20
1.497986
 30
0.0
 11
1.183198
 21
1.491203
 31
0.0
 12
1.202695
 22
1.73367
 32
0.0
 13
1.202695
 23
1.73367
 33
0.0
  0
SOLID
  8
DIM
 10
1.288585
 20
2.086503
 30
0.0
 11
1.209787
 21
2.100206
 31
0.0
 12
1.208078
 22
1.856962
 32
0.0
 13
1.208078
 23
1.856962
 33
0.0
  0
TEXT
  8
DIM
 10
1.514888
 20
1.175673
 30
0.0
 40
0.166625
  1
5%%D TYP.
 41
0.75
  0
LINE
  8
DIM
 10
1.283504
 20
1.262397
 30
0.0
 11
1.445671
 21
1.262397
 31
0.0
  0
LINE
  8
DIM
 10
1.144545
 20
1.99367
 30
0.0
 11
0.584625
 21
1.99367
 31
0.0
  0
TEXT
  8
TEXT
 10
0.255501
 20
3.37473
 30
0.0
 40
0.167
  1
*
 41
0.75
  0
TEXT
  8
TEXT
 10
0.39153
 20
6.881091
 30
0.0
 40
0.167
  1
*-USABLE AREA ON COVER ALSO
 41
0.75
  0
TEXT
  8
TEXT
 10
0.69738
 20
6.602757
 30
0.0
 40
0.167
  1
AVAILABLE FOR CUSTOM MOLDING.
 41
0.75
  0
ARC
  8
OBJECT
 10
5.798812
 20
18.715481
 30
0.0
 40
0.1
 50
95.5
 51
175.0
  0
ARC
  8
HIDDEN
 10
5.788791
 20
14.727606
 30
0.0
 40
0.04
 50
90.0
 51
180.0
  0
ARC
  8
HIDDEN
 10
5.788791
 20
11.687606
 30
0.0
 40
0.04
 50
180.0
 51
270.0
  0
LINE
  8
DIM
 10
5.926305
 20
18.911918
 30
0.0
 11
5.872686
 21
19.468777
 31
0.0
  0
LINE
  8
DIM
 10
11.050305
 20
19.405303
 30
0.0
 11
10.996686
 21
19.962162
 31
0.0
  0
LINE
  8
DIM
 10
6.123403
 20
19.368376
 30
0.0
 11
8.119052
 21
19.560535
 31
0.0
  0
LINE
  8
DIM
 10
10.769733
 20
19.815767
 30
0.0
 11
8.789056
 21
19.625049
 31
0.0
  0
SOLID
  8
DIM
 10
6.127236
 20
19.32857
 30
0.0
 11
6.11957
 21
19.408182
 31
0.0
 12
5.884568
 22
19.345379
 32
0.0
 13
5.884568
 23
19.345379
 33
0.0
  0
SOLID
  8
DIM
 10
10.773565
 20
19.775961
 30
0.0
 11
10.7659
 21
19.855572
 31
0.0
 12
11.008568
 22
19.838764
 32
0.0
 13
11.008568
 23
19.838764
 33
0.0
  0
TEXT
  8
DIM
 10
8.213036
 20
19.51721
 30
0.0
 40
0.166625
  1
5.148
 41
0.75
  0
ARC
  8
DIM
 10
11.418734
 20
19.357081
 30
0.0
 40
3.93747
 50
188.992008
 51
192.484016
  0
ARC
  8
DIM
 10
11.419983
 20
19.331076
 30
0.0
 40
3.93747
 50
173.015984
 51
176.507992
  0
LINE
  8
DIM
 10
7.358544
 20
19.331076
 30
0.0
 11
10.848365
 21
19.331076
 31
0.0
  0
SOLID
  8
DIM
 10
7.569326
 20
18.746711
 30
0.0
 11
7.489984
 21
18.736623
 31
0.0
 12
7.499391
 22
18.979691
 32
0.0
 13
7.499391
 23
18.979691
 33
0.0
  0
SOLID
  8
DIM
 10
7.529795
 20
19.569686
 30
0.0
 11
7.449852
 21
19.572123
 31
0.0
 12
7.482513
 22
19.331076
 32
0.0
 13
7.482513
 23
19.331076
 33
0.0
  0
LINE
  8
HIDDEN
 10
6.024291
 20
18.808149
 30
0.0
 11
6.118291
 21
18.808149
 31
0.0
  0
LINE
  8
OBJECT
 10
5.936208
 20
18.809081
 30
0.0
 11
8.293948
 21
19.036106
 31
0.0
  0
LINE
  8
HIDDEN
 10
8.293948
 20
19.036106
 30
0.0
 11
11.060208
 21
19.302466
 31
0.0
  0
LINE
  8
DIM
 10
8.017324
 20
7.944547
 30
0.0
 11
8.21804
 21
7.944547
 31
0.0
  0
LINE
  8
DIM
 10
8.127852
 20
7.314607
 30
0.0
 11
8.127852
 21
7.074667
 31
0.0
  0
LINE
  8
DIM
 10
8.127852
 20
8.184487
 30
0.0
 11
8.127852
 21
8.424427
 31
0.0
  0
LINE
  8
DIM
 10
8.127852
 20
7.074667
 30
0.0
 11
7.887912
 21
7.074667
 31
0.0
  0
SOLID
  8
DIM
 10
8.167842
 20
7.314607
 30
0.0
 11
8.087862
 21
7.314607
 31
0.0
 12
8.127852
 22
7.554547
 32
0.0
 13
8.127852
 23
7.554547
 33
0.0
  0
SOLID
  8
DIM
 10
8.167842
 20
8.184487
 30
0.0
 11
8.087862
 21
8.184487
 31
0.0
 12
8.127852
 22
7.944547
 32
0.0
 13
8.127852
 23
7.944547
 33
0.0
  0
TEXT
  8
DIM
 10
7.326429
 20
6.991355
 30
0.0
 40
0.166625
  1
0.390
 41
0.75
  0
LINE
  8
DIM
 10
6.988007
 20
7.964547
 30
0.0
 11
6.798429
 21
7.964547
 31
0.0
  0
LINE
  8
DIM
 10
6.879912
 20
7.314607
 30
0.0
 11
6.879912
 21
7.074667
 31
0.0
  0
LINE
  8
DIM
 10
6.879912
 20
8.204487
 30
0.0
 11
6.879912
 21
8.444427
 31
0.0
  0
LINE
  8
DIM
 10
6.879912
 20
7.074667
 30
0.0
 11
6.639972
 21
7.074667
 31
0.0
  0
SOLID
  8
DIM
 10
6.919902
 20
7.314607
 30
0.0
 11
6.839922
 21
7.314607
 31
0.0
 12
6.879912
 22
7.554547
 32
0.0
 13
6.879912
 23
7.554547
 33
0.0
  0
SOLID
  8
DIM
 10
6.919902
 20
8.204487
 30
0.0
 11
6.839922
 21
8.204487
 31
0.0
 12
6.879912
 22
7.964547
 32
0.0
 13
6.879912
 23
7.964547
 33
0.0
  0
TEXT
  8
DIM
 10
6.116653
 20
6.991355
 30
0.0
 40
0.166625
  1
0.410
 41
0.75
  0
LINE
  8
OBJECT
 10
5.763819
 20
8.271621
 30
0.0
 11
5.823819
 21
8.271621
 31
0.0
  0
LINE
  8
OBJECT
 10
5.823819
 20
8.341621
 30
0.0
 11
5.870326
 21
8.341621
 31
0.0
  0
ARC
  8
OBJECT
 10
11.228689
 20
8.954547
 30
0.0
 40
0.1
 50
5.0
 51
90.0
  0
LINE
  8
HIDDEN
 10
11.131319
 20
8.341621
 30
0.0
 11
11.131319
 21
8.944709
 31
0.0
  0
LINE
  8
HIDDEN
 10
10.871319
 20
8.341621
 30
0.0
 11
10.871319
 21
8.919674
 31
0.0
  0
LINE
  8
HIDDEN
 10
11.048319
 20
8.372621
 30
0.0
 11
11.048319
 21
8.936717
 31
0.0
  0
LINE
  8
HIDDEN
 10
10.954319
 20
8.372621
 30
0.0
 11
10.954319
 21
8.927666
 31
0.0
  0
LINE
  8
HIDDEN
 10
10.923319
 20
8.341621
 30
0.0
 11
10.954319
 21
8.372621
 31
0.0
  0
LINE
  8
HIDDEN
 10
11.079319
 20
8.341621
 30
0.0
 11
11.048319
 21
8.372621
 31
0.0
  0
LINE
  8
HIDDEN
 10
10.954319
 20
8.372621
 30
0.0
 11
11.048319
 21
8.372621
 31
0.0
  0
LINE
  8
HIDDEN
 10
11.289931
 20
8.254547
 30
0.0
 11
11.228729
 21
8.954088
 31
0.0
  0
LINE
  8
HIDDEN
 10
8.440455
 20
8.685608
 30
0.0
 11
11.228729
 21
8.954088
 31
0.0
  0
LINE
  8
HIDDEN
 10
6.198319
 20
8.372621
 30
0.0
 11
6.104319
 21
8.372621
 31
0.0
  0
LINE
  8
HIDDEN
 10
6.073319
 20
8.341621
 30
0.0
 11
6.104319
 21
8.372621
 31
0.0
  0
LINE
  8
HIDDEN
 10
6.229319
 20
8.341621
 30
0.0
 11
6.198319
 21
8.372621
 31
0.0
  0
LINE
  8
HIDDEN
 10
6.198319
 20
8.372621
 30
0.0
 11
6.198319
 21
8.531621
 31
0.0
  0
LINE
  8
HIDDEN
 10
6.104319
 20
8.372621
 30
0.0
 11
6.104319
 21
8.531621
 31
0.0
  0
LINE
  8
OBJECT
 10
6.281319
 20
8.341621
 30
0.0
 11
6.281319
 21
8.477707
 31
0.0
  0
LINE
  8
OBJECT
 10
6.021319
 20
8.341621
 30
0.0
 11
6.021319
 21
8.452672
 31
0.0
  0
LINE
  8
OBJECT
 10
5.870326
 20
8.341621
 30
0.0
 11
5.878841
 21
8.438953
 31
0.0
  0
LINE
  8
OBJECT
 10
5.878841
 20
8.438953
 30
0.0
 11
8.440455
 21
8.685608
 31
0.0
  0
LINE
  8
OBJECT
 10
5.763819
 20
8.271621
 30
0.0
 11
5.779222
 21
8.447668
 31
0.0
  0
LINE
  8
OBJECT
 10
11.388819
 20
8.271621
 30
0.0
 11
11.328309
 21
8.963263
 31
0.0
  0
LINE
  8
OBJECT
 10
5.869256
 20
8.538492
 30
0.0
 11
11.228689
 21
9.054547
 31
0.0
  0
LINE
  8
OBJECT
 10
6.014319
 20
8.55246
 30
0.0
 11
6.016236
 21
8.532552
 31
0.0
  0
LINE
  8
HIDDEN
 10
11.138319
 20
9.045845
 30
0.0
 11
11.140236
 21
9.025938
 31
0.0
  0
TEXT
  8
TEXT
 10
8.060312
 20
9.338378
 30
0.0
 40
0.167
  1
*
 41
0.75
  0
ARC
  8
OBJECT
 10
5.878841
 20
8.438953
 30
0.0
 40
0.1
 50
95.5
 51
175.0
  0
LINE
  8
DIM
 10
6.006334
 20
8.635389
 30
0.0
 11
5.952715
 21
9.192248
 31
0.0
  0
LINE
  8
DIM
 10
11.130334
 20
9.128774
 30
0.0
 11
11.076715
 21
9.685634
 31
0.0
  0
LINE
  8
DIM
 10
6.203432
 20
9.091847
 30
0.0
 11
8.167311
 21
9.280947
 31
0.0
  0
LINE
  8
DIM
 10
10.849761
 20
9.539238
 30
0.0
 11
8.805049
 21
9.342355
 31
0.0
  0
SOLID
  8
DIM
 10
6.207265
 20
9.052041
 30
0.0
 11
6.199599
 21
9.131653
 31
0.0
 12
5.964597
 22
9.06885
 32
0.0
 13
5.964597
 23
9.06885
 33
0.0
  0
SOLID
  8
DIM
 10
10.853594
 20
9.499432
 30
0.0
 11
10.845928
 21
9.579044
 31
0.0
 12
11.088597
 22
9.562235
 32
0.0
 13
11.088597
 23
9.562235
 33
0.0
  0
TEXT
  8
DIM
 10
8.271847
 20
9.23223
 30
0.0
 40
0.166625
  1
5.148
 41
0.75
  0
ARC
  8
DIM
 10
11.498763
 20
9.080552
 30
0.0
 40
3.93747
 50
188.992008
 51
192.484016
  0
ARC
  8
DIM
 10
11.500012
 20
9.054547
 30
0.0
 40
3.93747
 50
173.015984
 51
176.507992
  0
LINE
  8
DIM
 10
7.438573
 20
9.054547
 30
0.0
 11
10.928394
 21
9.054547
 31
0.0
  0
SOLID
  8
DIM
 10
7.649354
 20
8.470183
 30
0.0
 11
7.570013
 21
8.460095
 31
0.0
 12
7.57942
 22
8.703162
 32
0.0
 13
7.57942
 23
8.703162
 33
0.0
  0
SOLID
  8
DIM
 10
7.609824
 20
9.293157
 30
0.0
 11
7.529881
 21
9.295594
 31
0.0
 12
7.562542
 22
9.054547
 32
0.0
 13
7.562542
 23
9.054547
 33
0.0
  0
LINE
  8
HIDDEN
 10
6.104319
 20
8.531621
 30
0.0
 11
6.198319
 21
8.531621
 31
0.0
  0
LINE
  8
OBJECT
 10
6.016236
 20
8.532552
 30
0.0
 11
8.418639
 21
8.763877
 31
0.0
  0
LINE
  8
HIDDEN
 10
8.418639
 20
8.763877
 30
0.0
 11
11.140236
 21
9.025938
 31
0.0
  0
ARC
  8
HIDDEN
 10
11.259969
 20
4.87867
 30
0.0
 40
0.04
 50
0.0
 51
90.0
  0
ARC
  8
HIDDEN
 10
11.259969
 20
1.83867
 30
0.0
 40
0.04
 50
270.0
 51
360.0
  0
TEXT
  8
DIM
 10
7.286659
 20
19.069901
 30
0.0
 40
0.166625
  1
5%%D30'
 41
0.75
  0
ARC
  8
OBJECT
 10
2.98386
 20
11.742736
 30
0.0
 40
0.1
 50
180.0
 51
265.0
  0
LINE
  8
DIM
 10
11.548731
 20
15.966297
 30
0.0
 11
11.788671
 21
15.966297
 31
0.0
  0
SOLID
  8
DIM
 10
11.548731
 20
15.926307
 30
0.0
 11
11.548731
 21
16.006287
 31
0.0
 12
11.308791
 22
15.966297
 32
0.0
 13
11.308791
 23
15.966297
 33
0.0
  0
TEXT
  8
DIM
 10
11.866396
 20
15.882984
 30
0.0
 40
0.166625
  1
0.387
 41
0.75
  0
LINE
  8
DIM
 10
11.867866
 20
15.072546
 30
0.0
 11
11.867866
 21
15.312486
 31
0.0
  0
SOLID
  8
DIM
 10
11.907856
 20
15.072546
 30
0.0
 11
11.827876
 21
15.072546
 31
0.0
 12
11.867866
 22
14.832606
 32
0.0
 13
11.867866
 23
14.832606
 33
0.0
  0
TEXT
  8
DIM
 10
11.609797
 20
14.556347
 30
0.0
 40
0.166625
  1
0.375
 41
0.75
  0
LINE
  8
DIM
 10
2.64392
 20
14.012453
 30
0.0
 11
2.40398
 21
14.012453
 31
0.0
  0
LINE
  8
DIM
 10
3.1548
 20
14.012453
 30
0.0
 11
3.39474
 21
14.012453
 31
0.0
  0
SOLID
  8
DIM
 10
2.64392
 20
13.972463
 30
0.0
 11
2.64392
 21
14.052443
 31
0.0
 12
2.88386
 22
14.012453
 32
0.0
 13
2.88386
 23
14.012453
 33
0.0
  0
SOLID
  8
DIM
 10
3.1548
 20
13.972463
 30
0.0
 11
3.1548
 21
14.052443
 31
0.0
 12
2.91486
 22
14.012453
 32
0.0
 13
2.91486
 23
14.012453
 33
0.0
  0
TEXT
  8
DIM
 10
1.873441
 20
13.92914
 30
0.0
 40
0.166625
  1
0.020
 41
0.75
  0
TEXT
  8
DIM
 10
7.372548
 20
8.807105
 30
0.0
 40
0.166625
  1
5%%D30'
 41
0.75
  0
LINE
  8
DIM
 10
1.762993
 20
3.99181
 30
0.0
 11
1.523053
 21
3.99181
 31
0.0
  0
LINE
  8
DIM
 10
2.273873
 20
3.99181
 30
0.0
 11
2.513813
 21
3.99181
 31
0.0
  0
SOLID
  8
DIM
 10
1.762993
 20
3.95182
 30
0.0
 11
1.762993
 21
4.0318
 31
0.0
 12
2.002933
 22
3.99181
 32
0.0
 13
2.002933
 23
3.99181
 33
0.0
  0
SOLID
  8
DIM
 10
2.273873
 20
3.95182
 30
0.0
 11
2.273873
 21
4.0318
 31
0.0
 12
2.033933
 22
3.99181
 32
0.0
 13
2.033933
 23
3.99181
 33
0.0
  0
TEXT
  8
DIM
 10
0.947118
 20
3.908498
 30
0.0
 40
0.166625
  1
0.020
 41
0.75
  0
LINE
  8
DIM
 10
11.604909
 20
6.054647
 30
0.0
 11
11.844849
 21
6.054647
 31
0.0
  0
SOLID
  8
DIM
 10
11.604909
 20
6.014657
 30
0.0
 11
11.604909
 21
6.094637
 31
0.0
 12
11.364969
 22
6.054647
 32
0.0
 13
11.364969
 23
6.054647
 33
0.0
  0
TEXT
  8
DIM
 10
11.983757
 20
5.971334
 30
0.0
 40
0.166625
  1
0.387
 41
0.75
  0
TEXT
  8
TEXT
 10
0.670906
 20
8.459227
 30
0.0
 40
0.167
  1
SMOOTH TOP INSERT
 41
0.75
  0
TEXT
  8
TEXT
 10
0.414047
 20
8.739701
 30
0.0
 40
0.167
  1
FINISH: TEXTURED BODY WITH
 41
0.75
  0
TEXT
  8
TEXT
 10
0.414047
 20
8.118292
 30
0.0
 40
0.167
  1
TWO (2) #4 x 0.250" LG. SCREWS AND
 41
0.75
  0
TEXT
  8
DIM
 10
1.872494
 20
13.698548
 30
0.0
 40
0.166625
  1
RECESS
 41
0.75
  0
TEXT
  8
DIM
 10
0.93533
 20
3.673379
 30
0.0
 40
0.166625
  1
RECESS
 41
0.75
  0
LINE
  8
OBJECT
 10
6.427469
 20
4.60867
 30
0.0
 11
6.427469
 21
2.10867
 31
0.0
  0
LINE
  8
OBJECT
 10
6.467469
 20
4.56867
 30
0.0
 11
6.467469
 21
2.14867
 31
0.0
  0
LINE
  8
OBJECT
 10
6.467469
 20
4.56867
 30
0.0
 11
8.387469
 21
4.56867
 31
0.0
  0
LINE
  8
OBJECT
 10
6.427469
 20
4.60867
 30
0.0
 11
8.427469
 21
4.60867
 31
0.0
  0
LINE
  8
OBJECT
 10
8.387469
 20
4.56867
 30
0.0
 11
8.387469
 21
2.14867
 31
0.0
  0
LINE
  8
OBJECT
 10
8.427469
 20
4.60867
 30
0.0
 11
8.427469
 21
2.10867
 31
0.0
  0
LINE
  8
OBJECT
 10
6.427469
 20
2.10867
 30
0.0
 11
8.427469
 21
2.10867
 31
0.0
  0
LINE
  8
OBJECT
 10
6.467469
 20
2.14867
 30
0.0
 11
8.387469
 21
2.14867
 31
0.0
  0
LINE
  8
DIM
 10
6.427469
 20
2.030785
 30
0.0
 11
6.427469
 21
0.499268
 31
0.0
  0
SOLID
  8
DIM
 10
6.667409
 20
0.583247
 30
0.0
 11
6.667409
 21
0.663227
 31
0.0
 12
6.427469
 22
0.623237
 32
0.0
 13
6.427469
 23
0.623237
 33
0.0
  0
LINE
  8
DIM
 10
6.667409
 20
0.623237
 30
0.0
 11
7.147467
 21
0.623237
 31
0.0
  0
TEXT
  8
DIM
 10
7.258571
 20
0.539925
 30
0.0
 40
0.166625
  1
2.125
 41
0.75
  0
LINE
  8
DIM
 10
8.312529
 20
0.623237
 30
0.0
 11
7.832472
 21
0.623237
 31
0.0
  0
SOLID
  8
DIM
 10
8.312529
 20
0.583247
 30
0.0
 11
8.312529
 21
0.663227
 31
0.0
 12
8.552469
 22
0.623237
 32
0.0
 13
8.552469
 23
0.623237
 33
0.0
  0
SOLID
  8
DIM
 10
8.187529
 20
1.24533
 30
0.0
 11
8.187529
 21
1.32531
 31
0.0
 12
8.427469
 22
1.28532
 32
0.0
 13
8.427469
 23
1.28532
 33
0.0
  0
LINE
  8
DIM
 10
8.187529
 20
1.28532
 30
0.0
 11
7.947589
 21
1.28532
 31
0.0
  0
LINE
  8
DIM
 10
8.427469
 20
2.025357
 30
0.0
 11
8.427469
 21
1.161351
 31
0.0
  0
LINE
  8
TITLE
 10
0.082646
 20
10.41375
 30
0.0
 11
13.407314
 21
10.41375
 31
0.0
  0
LINE
  8
TITLE
 10
13.407314
 20
10.33075
 30
0.0
 11
13.407314
 21
0.082646
 31
0.0
  0
LINE
  8
TITLE
 10
0.082646
 20
10.41375
 30
0.0
 11
0.082646
 21
20.578854
 31
0.0
  0
TEXT
  8
TEXT
 10
0.414047
 20
17.481398
 30
0.0
 40
0.167
  1
FOUR (4) #4 x 1/2 LG. FLAT HEAD
 41
0.75
  0
TEXT
  8
TEXT
 10
0.672889
 20
17.203064
 30
0.0
 40
0.167
  1
SCREWS SUPPLIED FOR WALL MOUNTING.
 41
0.75
  0
TEXT
  8
DIM
 10
15.105479
 20
15.507551
 30
0.0
 40
0.166625
  1

  0
TEXT
  8
DIM
 10
19.698979
 20
15.141762
 30
0.0
 40
0.166625
  1

  0
INSERT
  8
OBJECT
  2
SIWM
 10
8.621291
 20
14.457606
 30
0.0
  0
LINE
  8
BEND
 10
10.188319
 20
8.854547
 30
0.0
 11
10.188319
 21
7.554547
 31
0.0
  0
LINE
  8
BEND
 10
11.063319
 20
8.854547
 30
0.0
 11
11.063319
 21
7.554547
 31
0.0
  0
LINE
  8
BEND
 10
10.188319
 20
8.854547
 30
0.0
 11
11.063319
 21
8.854547
 31
0.0
  0
DIMENSION
  8
DIM
  2
*D1
 10
10.188319
 20
7.115299
 30
0.0
 11
9.382319
 21
7.115299
 31
0.0
 12
0.162169
 22
0.083446
 32
0.0
 13
8.576319
 23
7.440924
 33
0.0
 14
10.188319
 24
7.554547
 34
0.0
  0
DIMENSION
  8
DIM
  2
*D4
 10
11.063319
 20
7.115299
 30
0.0
 11
10.625819
 21
7.115299
 31
0.0
 13
10.188319
 23
7.554547
 33
0.0
 14
11.063319
 24
7.554547
 34
0.0
  3
DIM
  0
DIMENSION
  8
DIM
  2
*D2
 10
12.441101
 20
8.854547
 30
0.0
 11
12.441101
 21
8.204547
 31
0.0
 12
0.162169
 22
0.083446
 32
0.0
 13
11.235944
 23
7.554547
 33
0.0
 14
11.063319
 24
8.854547
 34
0.0
 50
90.0
  0
DIMENSION
  8
DIM
  2
*D8
 10
5.324939
 20
3.35867
 30
0.0
 11
5.324939
 21
3.98367
 31
0.0
 13
6.427469
 23
4.60867
 33
0.0
 14
5.475376
 24
3.35867
 34
0.0
 50
90.0
  3
STD
  0
DIMENSION
  8
DIM
  2
*D5
 10
5.324939
 20
4.98367
 30
0.0
 11
5.324939
 21
4.79617
 31
0.0
 13
6.427469
 23
4.60867
 33
0.0
 14
5.789969
 24
4.98367
 34
0.0
 50
90.0
  3
DIM
  0
DIMENSION
  8
DIM
  2
*D9
 10
5.324939
 20
3.35867
 30
0.0
 11
5.324939
 21
2.73367
 31
0.0
 13
6.427469
 23
2.10867
 33
0.0
 14
5.475376
 24
3.35867
 34
0.0
 50
90.0
  3
STD
  0
POLYLINE
  8
DIM
 66
     1
 10
0.0
 20
0.0
 30
0.0
 41
0.089978
  0
VERTEX
  8
DIM
 10
6.617299
 20
3.847588
 30
0.0
  0
VERTEX
  8
DIM
 10
6.456144
 20
4.025353
 30
0.0
 41
0.0
  0
VERTEX
  8
DIM
 10
5.058632
 20
5.680546
 30
0.0
 41
0.0
  0
VERTEX
  8
DIM
 10
4.818692
 20
5.680546
 30
0.0
 41
0.0
  0
SEQEND
  8
DIM
  0
TEXT
  8
DIM
 10
3.740628
 20
5.597233
 30
0.0
 40
0.166625
  1
AREA FOR
 41
0.75
 72
     2
 11
4.698722
 21
5.680546
 31
0.0
 73
     2
  0
TEXT
  8
DIM
 10
3.990566
 20
5.319525
 30
0.0
 40
0.166625
  1
CUSTOM
 41
0.75
 72
     2
 11
4.698722
 21
5.402838
 31
0.0
 73
     2
  0
TEXT
  8
DIM
 10
3.907253
 20
5.041817
 30
0.0
 40
0.166625
  1
MOLDING
 41
0.75
 72
     2
 11
4.698722
 21
5.125129
 31
0.0
 73
     2
  0
LINE
  8
BEND
 10
11.039469
 20
4.45867
 30
0.0
 11
10.164469
 21
4.45867
 31
0.0
  0
LINE
  8
BEND
 10
11.039469
 20
2.25867
 30
0.0
 11
10.164469
 21
2.25867
 31
0.0
  0
LINE
  8
BEND
 10
10.164469
 20
4.45867
 30
0.0
 11
10.164469
 21
2.25867
 31
0.0
  0
LINE
  8
BEND
 10
11.039469
 20
4.45867
 30
0.0
 11
11.039469
 21
2.25867
 31
0.0
  0
DIMENSION
  8
DIM
  2
*D6
 10
11.880977
 20
4.45867
 30
0.0
 11
11.880977
 21
3.90867
 31
0.0
 13
11.711695
 23
3.35867
 33
0.0
 14
11.039469
 24
4.45867
 34
0.0
 50
90.0
  3
DIM
  0
DIMENSION
  8
DIM
  2
*D7
 10
12.39642
 20
2.25867
 30
0.0
 11
12.39642
 21
2.80867
 31
0.0
 13
11.711695
 23
3.35867
 33
0.0
 14
11.039469
 24
2.25867
 34
0.0
 50
90.0
  3
DIM
  0
POLYLINE
  8
DIM
 66
     1
 10
0.0
 20
0.0
 30
0.0
 41
0.089978
  0
VERTEX
  8
DIM
 10
10.591272
 20
4.45867
 30
0.0
  0
VERTEX
  8
DIM
 10
10.743219
 20
4.644367
 30
0.0
 41
0.0
  0
VERTEX
  8
DIM
 10
11.643077
 20
5.784108
 30
0.0
 41
0.0
  0
VERTEX
  8
DIM
 10
11.883017
 20
5.784108
 30
0.0
 41
0.0
  0
SEQEND
  8
DIM
  0
TEXT
  8
DIM
 10
12.002987
 20
5.700796
 30
0.0
 40
0.166625
  1
9-VOLT
 41
0.75
 11
12.002987
 21
5.784108
 31
0.0
 73
     2
  0
TEXT
  8
DIM
 10
12.002987
 20
5.423087
 30
0.0
 40
0.166625
  1
BATTERY
 41
0.75
 11
12.002987
 21
5.5064
 31
0.0
 73
     2
  0
TEXT
  8
DIM
 10
12.002987
 20
5.145379
 30
0.0
 40
0.166625
  1
COMPARTMENT
 41
0.75
 11
12.002987
 21
5.228691
 31
0.0
 73
     2
  0
TEXT
  8
TEXT
 10
0.39153
 20
6.235664
 30
0.0
 40
0.167
  1
%%UNOTE:%%U ALL DIMENSIONS HAVE %%P0.015 TOLERANCE
 41
0.75
  0
TEXT
  8
TEXT
 10
1.026595
 20
5.965291
 30
0.0
 40
0.167
  1
UNLESS OTHERWISE SPECIFIED.
 41
0.75
  0
TEXT
  8
TEXT
 10
1.026595
 20
15.927157
 30
0.0
 40
0.167
  1
UNLESS OTHERWISE SPECIFIED.
 41
0.75
  0
TEXT
  8
TEXT
 10
0.39153
 20
16.19753
 30
0.0
 40
0.167
  1
%%UNOTE:%%U ALL DIMENSIONS HAVE %%P0.015 TOLERANCE
 41
0.75
  0
TEXT
  8
TEXT
 10
0.594783
 20
17.831884
 30
0.0
 40
0.167
  1
SUPPLIED FOR ASSEMBLING TOP.
 41
0.75
  0
TEXT
  8
TEXT
 10
0.604885
 20
18.110217
 30
0.0
 40
0.167
  1
TWO (2) #4 x 0.375 LG. SCREWS
 41
0.75
  0
TEXT
  8
TEXT
 10
0.414047
 20
18.387041
 30
0.0
 40
0.167
  1
TWO (2) #4 x 0.250" LG. SCREWS AND
 41
0.75
  0
SOLID
  8
DIM
 10
10.108427
 20
18.768501
 30
0.0
 11
10.051883
 21
18.825065
 31
0.0
 12
9.910463
 22
18.627149
 32
0.0
 13
9.910463
 23
18.627149
 33
0.0
  0
LINE
  8
DIM
 10
10.080155
 20
18.796783
 30
0.0
 11
10.252699
 21
18.969268
 31
0.0
  0
LINE
  8
DIM
 10
10.252699
 20
18.969268
 30
0.0
 11
11.065184
 21
17.676061
 31
0.0
  0
LINE
  8
DIM
 10
11.065184
 20
17.676061
 30
0.0
 11
10.847397
 21
17.676061
 31
0.0
  0
TEXT
  8
DIM
 10
7.445172
 20
17.593123
 30
0.0
 40
0.167
  1
0.260 DIA. BOSS WITH 0.093 DIA.
 41
0.75
 72
     2
 11
10.785172
 21
17.593123
 31
0.0
  0
TEXT
  8
DIM
 10
7.549547
 20
17.31479
 30
0.0
 40
0.167
  1
HOLE x 0.156 DEEP (4) PLACES
 41
0.75
 72
     2
 11
10.785172
 21
17.31479
 31
0.0
  0
TEXT
  8
DIM
 10
6.276172
 20
17.036456
 30
0.0
 40
0.167
  1
MOUNTING BOSSES USE EITHER M2.5 METRIC
 41
0.75
 72
     2
 11
10.785172
 21
17.036456
 31
0.0
  0
TEXT
  8
DIM
 10
7.236422
 20
16.758123
 30
0.0
 40
0.167
  1
OR #4 STD. SHEET METAL SCREWS
 41
0.75
 72
     2
 11
10.785172
 21
16.758123
 31
0.0
  0
TEXT
  8
DIM
 10
7.716547
 20
16.47979
 30
0.0
 40
0.167
  1
x 0.188" LG.  (NOT SUPPLIED)
 41
0.75
 72
     2
 11
10.785172
 21
16.47979
 31
0.0
  0
POLYLINE
  8
DIM
 66
     1
 10
0.0
 20
0.0
 30
0.0
 41
0.089978
  0
VERTEX
  8
DIM
 10
7.112818
 20
2.009938
 30
0.0
  0
VERTEX
  8
DIM
 10
6.930067
 20
1.85446
 30
0.0
 41
0.0
  0
VERTEX
  8
DIM
 10
6.263072
 20
1.364809
 30
0.0
 41
0.0
  0
VERTEX
  8
DIM
 10
6.023132
 20
1.364809
 30
0.0
 41
0.0
  0
SEQEND
  8
DIM
  0
TEXT
  8
DIM
 10
2.570662
 20
1.281497
 30
0.0
 40
0.166625
  1
0.260 DIA. BOSS WITH 0.093 DIA.
 41
0.75
 72
     2
 11
5.903162
 21
1.364809
 31
0.0
 73
     2
  0
TEXT
  8
DIM
 10
2.695631
 20
1.003788
 30
0.0
 40
0.166625
  1
HOLE x 0.310 DEEP (4) PLACES
 41
0.75
 72
     2
 11
5.903162
 21
1.087101
 31
0.0
 73
     2
  0
TEXT
  8
DIM
 10
1.404287
 20
0.72608
 30
0.0
 40
0.166625
  1
MOUNTING BOSSES USE EITHER M2.5 METRIC
 41
0.75
 72
     2
 11
5.903162
 21
0.809392
 31
0.0
 73
     2
  0
TEXT
  8
DIM
 10
2.362381
 20
0.448372
 30
0.0
 40
0.166625
  1
OR #4 STD. SHEET METAL SCREWS
 41
0.75
 72
     2
 11
5.903162
 21
0.531684
 31
0.0
 73
     2
  0
TEXT
  8
DIM
 10
2.8206
 20
0.170663
 30
0.0
 40
0.166625
  1
x 0.250" LG.  (NOT SUPPLIED)
 41
0.75
 72
     2
 11
5.903162
 21
0.253976
 31
0.0
 73
     2
  0
DIMENSION
  8
DIM
  2
*D15
 10
4.625176
 20
1.886545
 30
0.0
 11
4.625176
 21
3.35867
 31
0.0
 13
3.402933
 23
4.830795
 33
0.0
 14
3.402933
 24
1.886545
 34
0.0
 50
90.0
  3
DIM
  0
DIMENSION
  8
DIM
  2
*D14
 10
11.235944
 20
6.752481
 30
0.0
 11
8.576319
 21
6.752481
 31
0.0
 13
5.916695
 23
7.654547
 33
0.0
 14
11.235944
 24
7.654547
 34
0.0
  3
DIM
  0
DIMENSION
  8
DIM
  2
*D13
 10
5.324939
 20
8.438953
 30
0.0
 11
5.324939
 21
8.04675
 31
0.0
 13
5.916695
 23
7.654547
 33
0.0
 14
5.878841
 24
8.438953
 34
0.0
 50
90.0
  3
DIM
  0
DIMENSION
  8
DIM
  2
*D12
 10
4.885794
 20
14.732224
 30
0.0
 11
4.885794
 21
13.207606
 31
0.0
 13
3.68386
 23
11.682988
 33
0.0
 14
3.68386
 24
14.732224
 34
0.0
 50
90.0
  3
DIM
  0
DIMENSION
  8
DIM
  2
*D10
 10
5.278894
 20
18.531076
 30
0.0
 11
4.698986
 21
18.050116
 31
0.0
 12
0.0
 22
0.120236
 32
0.0
 13
5.798812
 23
18.715481
 33
0.0
 14
5.784173
 24
18.531076
 34
0.0
 50
90.0
  3
23NSTD
  0
DIMENSION
  8
DIM
  2
*D11
 10
11.209902
 20
18.048324
 30
0.0
 11
8.497037
 21
18.048324
 31
0.0
 13
5.784173
 23
18.531076
 33
0.0
 14
11.209902
 24
18.531076
 34
0.0
  3
23NSTD
  0
ENDSEC
  0
EOF
