  0
SECTION
  2
HEADER
  9
$ACADVER
  1
AC1009
  9
$INSBASE
 10
0.0
 20
0.0
 30
0.0
  9
$EXTMIN
 10
0.0
 20
0.0
 30
0.0
  9
$EXTMAX
 10
25.3
 20
38.75
 30
0.0
  9
$LIMMIN
 10
0.0
 20
0.0
  9
$LIMMAX
 10
12.0
 20
9.0
  9
$ORTHOMODE
 70
     1
  9
$REGENMODE
 70
     1
  9
$FILLMODE
 70
     1
  9
$QTEXTMODE
 70
     0
  9
$MIRRTEXT
 70
     0
  9
$DRAGMODE
 70
     2
  9
$LTSCALE
 40
1.0
  9
$OSMODE
 70
     0
  9
$ATTMODE
 70
     1
  9
$TEXTSIZE
 40
0.3125
  9
$TRACEWID
 40
0.05
  9
$TEXTSTYLE
  7
TXT
  9
$CLAYER
  8
OBJECT
  9
$CELTYPE
  6
BYLAYER
  9
$CECOLOR
 62
   256
  9
$DIMSCALE
 40
2.5
  9
$DIMASZ
 40
0.18
  9
$DIMEXO
 40
0.0625
  9
$DIMDLI
 40
0.38
  9
$DIMRND
 40
0.0
  9
$DIMDLE
 40
0.0
  9
$DIMEXE
 40
0.093
  9
$DIMTP
 40
0.0
  9
$DIMTM
 40
0.0
  9
$DIMTXT
 40
0.125
  9
$DIMCEN
 40
0.09
  9
$DIMTSZ
 40
0.0
  9
$DIMTOL
 70
     0
  9
$DIMLIM
 70
     0
  9
$DIMTIH
 70
     1
  9
$DIMTOH
 70
     1
  9
$DIMSE1
 70
     0
  9
$DIMSE2
 70
     0
  9
$DIMTAD
 70
     0
  9
$DIMZIN
 70
     0
  9
$DIMBLK
  1

  9
$DIMASO
 70
     1
  9
$DIMSHO
 70
     1
  9
$DIMPOST
  1

  9
$DIMAPOST
  1

  9
$DIMALT
 70
     0
  9
$DIMALTD
 70
     2
  9
$DIMALTF
 40
25.4
  9
$DIMLFAC
 40
1.0
  9
$DIMTOFL
 70
     0
  9
$DIMTVP
 40
0.0
  9
$DIMTIX
 70
     0
  9
$DIMSOXD
 70
     0
  9
$DIMSAH
 70
     0
  9
$DIMBLK1
  1

  9
$DIMBLK2
  1

  9
$DIMSTYLE
  2
STD
  9
$DIMCLRD
 70
     0
  9
$DIMCLRE
 70
     0
  9
$DIMCLRT
 70
     0
  9
$DIMTFAC
 40
1.0
  9
$DIMGAP
 40
0.09
  9
$LUNITS
 70
     2
  9
$LUPREC
 70
     3
  9
$SKETCHINC
 40
0.1
  9
$FILLETRAD
 40
0.0
  9
$AUNITS
 70
     1
  9
$AUPREC
 70
     1
  9
$MENU
  1
acad
  9
$ELEVATION
 40
0.0
  9
$PELEVATION
 40
0.0
  9
$THICKNESS
 40
0.0
  9
$LIMCHECK
 70
     0
  9
$BLIPMODE
 70
     0
  9
$CHAMFERA
 40
0.0
  9
$CHAMFERB
 40
0.0
  9
$SKPOLY
 70
     0
  9
$TDCREATE
 40
2449118.398066088
  9
$TDUPDATE
 40
2451432.461923958
  9
$TDINDWG
 40
0.0560954861
  9
$TDUSRTIMER
 40
0.0560954861
  9
$USRTIMER
 70
     1
  9
$ANGBASE
 50
0.0
  9
$ANGDIR
 70
     0
  9
$PDMODE
 70
     0
  9
$PDSIZE
 40
0.0
  9
$PLINEWID
 40
0.0
  9
$COORDS
 70
     2
  9
$SPLFRAME
 70
     0
  9
$SPLINETYPE
 70
     6
  9
$SPLINESEGS
 70
     8
  9
$ATTDIA
 70
     0
  9
$ATTREQ
 70
     1
  9
$HANDLING
 70
     0
  9
$HANDSEED
  5
0
  9
$SURFTAB1
 70
     6
  9
$SURFTAB2
 70
     6
  9
$SURFTYPE
 70
     6
  9
$SURFU
 70
     6
  9
$SURFV
 70
     6
  9
$UCSNAME
  2

  9
$UCSORG
 10
0.0
 20
0.0
 30
0.0
  9
$UCSXDIR
 10
1.0
 20
0.0
 30
0.0
  9
$UCSYDIR
 10
0.0
 20
1.0
 30
0.0
  9
$PUCSNAME
  2

  9
$PUCSORG
 10
0.0
 20
0.0
 30
0.0
  9
$PUCSXDIR
 10
1.0
 20
0.0
 30
0.0
  9
$PUCSYDIR
 10
0.0
 20
1.0
 30
0.0
  9
$USERI1
 70
     0
  9
$USERI2
 70
     0
  9
$USERI3
 70
     0
  9
$USERI4
 70
     0
  9
$USERI5
 70
     0
  9
$USERR1
 40
0.0
  9
$USERR2
 40
0.0
  9
$USERR3
 40
0.0
  9
$USERR4
 40
0.0
  9
$USERR5
 40
0.0
  9
$WORLDVIEW
 70
     1
  9
$SHADEDGE
 70
     3
  9
$SHADEDIF
 70
    70
  9
$TILEMODE
 70
     1
  9
$MAXACTVP
 70
    16
  9
$PINSBASE
 10
0.0
 20
0.0
 30
0.0
  9
$PLIMCHECK
 70
     0
  9
$PEXTMIN
 10
1.000000E+20
 20
1.000000E+20
 30
1.000000E+20
  9
$PEXTMAX
 10
-1.000000E+20
 20
-1.000000E+20
 30
-1.000000E+20
  9
$PLIMMIN
 10
0.0
 20
0.0
  9
$PLIMMAX
 10
12.0
 20
9.0
  9
$UNITMODE
 70
     0
  9
$VISRETAIN
 70
     0
  9
$PLINEGEN
 70
     0
  9
$PSLTSCALE
 70
     0
  9
$TREEDEPTH
 70
  3020
  9
$DWGCODEPAGE
  3
undefined
  0
ENDSEC
  0
SECTION
  2
TABLES
  0
TABLE
  2
VPORT
 70
     2
  0
VPORT
  2
*ACTIVE
 70
     0
 10
0.0
 20
0.0
 11
1.0
 21
1.0
 12
26.395328
 22
19.375
 13
0.0
 23
0.0
 14
1.0
 24
1.0
 15
0.5
 25
0.5
 16
0.0
 26
0.0
 36
1.0
 17
0.0
 27
0.0
 37
0.0
 40
38.75
 41
1.36234
 42
50.0
 43
0.0
 44
0.0
 50
0.0
 51
0.0
 71
     0
 72
 10000
 73
     1
 74
     0
 75
     0
 76
     0
 77
     0
 78
     0
  0
ENDTAB
  0
TABLE
  2
LTYPE
 70
     4
  0
LTYPE
  2
CONTINUOUS
 70
    64
  3
Solid line
 72
    65
 73
     0
 40
0.0
  0
LTYPE
  2
HIDDEN
 70
    64
  3
_ _ _ _ _ _ _ _ _ _ _ _ _ _ _ _ _ _ _ _ _ _ _
 72
    65
 73
     2
 40
0.375
 49
0.25
 49
-0.125
  0
LTYPE
  2
PHANTOM
 70
    64
  3
_____ _ _ _____ _ _ _____ _ _ _____ _ _ ____
 72
    65
 73
     6
 40
2.5
 49
1.25
 49
-0.25
 49
0.25
 49
-0.25
 49
0.25
 49
-0.25
  0
LTYPE
  2
CENTER
 70
    64
  3
____ _ ____ _ ____ _ ____ _ ____ _ ____ _ ____
 72
    65
 73
     4
 40
2.0
 49
1.25
 49
-0.25
 49
0.25
 49
-0.25
  0
ENDTAB
  0
TABLE
  2
LAYER
 70
     9
  0
LAYER
  2
0
 70
    64
 62
     7
  6
CONTINUOUS
  0
LAYER
  2
OBJECT
 70
    64
 62
     7
  6
CONTINUOUS
  0
LAYER
  2
DIM
 70
    64
 62
     7
  6
CONTINUOUS
  0
LAYER
  2
HIDDEN
 70
    64
 62
     7
  6
HIDDEN
  0
LAYER
  2
TEXT
 70
    64
 62
     7
  6
CONTINUOUS
  0
LAYER
  2
TITLE
 70
    64
 62
     7
  6
CONTINUOUS
  0
LAYER
  2
CENTER
 70
    64
 62
     7
  6
CENTER
  0
LAYER
  2
DEFPOINTS
 70
    64
 62
     7
  6
CONTINUOUS
  0
LAYER
  2
BEND
 70
     0
 62
     7
  6
PHANTOM
  0
ENDTAB
  0
TABLE
  2
STYLE
 70
     2
  0
STYLE
  2
STANDARD
 70
    64
 40
0.0
 41
1.0
 50
0.0
 71
     0
 42
0.25
  3
txt
  4

  0
STYLE
  2
TXT
 70
    64
 40
0.0
 41
0.75
 50
0.0
 71
     0
 42
0.3125
  3
TXT.shx
  4

  0
ENDTAB
  0
TABLE
  2
VIEW
 70
     0
  0
ENDTAB
  0
TABLE
  2
UCS
 70
     0
  0
ENDTAB
  0
TABLE
  2
APPID
 70
     1
  0
APPID
  2
ACAD
 70
    64
  0
ENDTAB
  0
TABLE
  2
DIMSTYLE
 70
     2
  0
DIMSTYLE
  2
STD
 70
    64
  3

  4

  5

  6

  7

 40
2.5
 41
0.18
 42
0.0625
 43
0.38
 44
0.093
 45
0.0
 46
0.0
 47
0.0
 48
0.0
140
0.125
141
0.09
142
0.0
143
25.4
144
1.0
145
0.0
146
1.0
147
0.09
 71
     0
 72
     0
 73
     1
 74
     1
 75
     0
 76
     0
 77
     0
 78
     0
170
     0
171
     2
172
     0
173
     0
174
     0
175
     0
176
     0
177
     0
178
     0
  0
DIMSTYLE
  2
DIM
 70
    64
  3

  4

  5

  6

  7

 40
2.5
 41
0.18
 42
0.0625
 43
0.38
 44
0.093
 45
0.0
 46
0.0
 47
0.0
 48
0.0
140
0.125
141
0.09
142
0.0
143
25.4
144
1.0
145
0.0
146
1.0
147
0.09
 71
     0
 72
     0
 73
     1
 74
     1
 75
     0
 76
     0
 77
     0
 78
     0
170
     0
171
     2
172
     0
173
     0
174
     1
175
     0
176
     0
177
     0
178
     0
  0
ENDTAB
  0
ENDSEC
  0
SECTION
  2
BLOCKS
  0
BLOCK
  8
0
  2
*D0
 70
    65
 10
0.0
 20
0.0
 30
0.0
  3
*D
  0
LINE
  8
0
  6
BYBLOCK
 62
     0
 10
13.514973
 20
24.623782
 30
0.0
 11
12.668541
 21
24.623782
 31
0.0
  0
LINE
  8
0
  6
BYBLOCK
 62
     0
 10
13.557053
 20
25.248782
 30
0.0
 11
12.668541
 21
25.248782
 31
0.0
  0
LINE
  8
0
  6
BYBLOCK
 62
     0
 10
12.901041
 20
24.173782
 30
0.0
 11
12.901041
 21
23.723782
 31
0.0
  0
LINE
  8
0
  6
BYBLOCK
 62
     0
 10
12.901041
 20
25.698782
 30
0.0
 11
12.901041
 21
26.148782
 31
0.0
  0
SOLID
  8
0
  6
BYBLOCK
 62
     0
 10
12.826041
 20
24.173782
 30
0.0
 11
12.976041
 21
24.173782
 31
0.0
 12
12.901041
 22
24.623782
 32
0.0
 13
12.901041
 23
24.623782
 33
0.0
  0
SOLID
  8
0
  6
BYBLOCK
 62
     0
 10
12.826041
 20
25.698782
 30
0.0
 11
12.976041
 21
25.698782
 31
0.0
 12
12.901041
 22
25.248782
 32
0.0
 13
12.901041
 23
25.248782
 33
0.0
  0
TEXT
  8
0
  6
BYBLOCK
 62
     0
 10
12.451822
 20
24.780032
 30
0.0
 40
0.3125
  1
0.625
 41
0.75
  7
TXT
 72
     1
 11
12.901041
 21
24.936282
 31
0.0
 73
     2
  0
POINT
  8
DEFPOINTS
  6
BYBLOCK
 62
     0
 10
13.671223
 20
24.623782
 30
0.0
  0
POINT
  8
DEFPOINTS
  6
BYBLOCK
 62
     0
 10
13.713303
 20
25.248782
 30
0.0
  0
POINT
  8
DEFPOINTS
  6
BYBLOCK
 62
     0
 10
12.901041
 20
25.248782
 30
0.0
  0
ENDBLK
  8
0
  0
BLOCK
  8
0
  2
*D1
 70
    65
 10
0.0
 20
0.0
 30
0.0
  3
*D
  0
LINE
  8
0
  6
BYBLOCK
 62
     0
 10
13.514973
 20
24.623782
 30
0.0
 11
11.676339
 21
24.623782
 31
0.0
  0
LINE
  8
0
  6
BYBLOCK
 62
     0
 10
13.557053
 20
23.998782
 30
0.0
 11
11.676339
 21
23.998782
 31
0.0
  0
LINE
  8
0
  6
BYBLOCK
 62
     0
 10
11.908839
 20
25.073782
 30
0.0
 11
11.908839
 21
25.523782
 31
0.0
  0
LINE
  8
0
  6
BYBLOCK
 62
     0
 10
11.908839
 20
23.548782
 30
0.0
 11
11.908839
 21
23.098782
 31
0.0
  0
SOLID
  8
0
  6
BYBLOCK
 62
     0
 10
11.833839
 20
25.073782
 30
0.0
 11
11.983839
 21
25.073782
 31
0.0
 12
11.908839
 22
24.623782
 32
0.0
 13
11.908839
 23
24.623782
 33
0.0
  0
SOLID
  8
0
  6
BYBLOCK
 62
     0
 10
11.833839
 20
23.548782
 30
0.0
 11
11.983839
 21
23.548782
 31
0.0
 12
11.908839
 22
23.998782
 32
0.0
 13
11.908839
 23
23.998782
 33
0.0
  0
TEXT
  8
0
  6
BYBLOCK
 62
     0
 10
11.459621
 20
24.155032
 30
0.0
 40
0.3125
  1
0.625
 41
0.75
  7
TXT
 72
     1
 11
11.908839
 21
24.311282
 31
0.0
 73
     2
  0
POINT
  8
DEFPOINTS
  6
BYBLOCK
 62
     0
 10
13.671223
 20
24.623782
 30
0.0
  0
POINT
  8
DEFPOINTS
  6
BYBLOCK
 62
     0
 10
13.713303
 20
23.998782
 30
0.0
  0
POINT
  8
DEFPOINTS
  6
BYBLOCK
 62
     0
 10
11.908839
 20
23.998782
 30
0.0
  0
ENDBLK
  8
0
  0
BLOCK
  8
0
  2
*D2
 70
    65
 10
0.0
 20
0.0
 30
0.0
  3
*D
  0
LINE
  8
0
  6
BYBLOCK
 62
     0
 10
13.514973
 20
24.623782
 30
0.0
 11
10.566364
 21
24.623782
 31
0.0
  0
LINE
  8
0
  6
BYBLOCK
 62
     0
 10
13.557053
 20
26.873782
 30
0.0
 11
10.566364
 21
26.873782
 31
0.0
  0
LINE
  8
0
  6
BYBLOCK
 62
     0
 10
10.798864
 20
25.073782
 30
0.0
 11
10.798864
 21
25.367532
 31
0.0
  0
LINE
  8
0
  6
BYBLOCK
 62
     0
 10
10.798864
 20
26.423782
 30
0.0
 11
10.798864
 21
26.130032
 31
0.0
  0
SOLID
  8
0
  6
BYBLOCK
 62
     0
 10
10.723864
 20
25.073782
 30
0.0
 11
10.873864
 21
25.073782
 31
0.0
 12
10.798864
 22
24.623782
 32
0.0
 13
10.798864
 23
24.623782
 33
0.0
  0
SOLID
  8
0
  6
BYBLOCK
 62
     0
 10
10.723864
 20
26.423782
 30
0.0
 11
10.873864
 21
26.423782
 31
0.0
 12
10.798864
 22
26.873782
 32
0.0
 13
10.798864
 23
26.873782
 33
0.0
  0
TEXT
  8
0
  6
BYBLOCK
 62
     0
 10
10.349646
 20
25.592532
 30
0.0
 40
0.3125
  1
2.250
 41
0.75
  7
TXT
 72
     1
 11
10.798864
 21
25.748782
 31
0.0
 73
     2
  0
POINT
  8
DEFPOINTS
  6
BYBLOCK
 62
     0
 10
13.671223
 20
24.623782
 30
0.0
  0
POINT
  8
DEFPOINTS
  6
BYBLOCK
 62
     0
 10
13.713303
 20
26.873782
 30
0.0
  0
POINT
  8
DEFPOINTS
  6
BYBLOCK
 62
     0
 10
10.798864
 20
26.873782
 30
0.0
  0
ENDBLK
  8
0
  0
BLOCK
  8
0
  2
*D3
 70
    65
 10
0.0
 20
0.0
 30
0.0
  3
*D
  0
LINE
  8
0
  6
BYBLOCK
 62
     0
 10
13.514973
 20
24.623782
 30
0.0
 11
10.566364
 21
24.623782
 31
0.0
  0
LINE
  8
0
  6
BYBLOCK
 62
     0
 10
13.557053
 20
22.373782
 30
0.0
 11
10.566364
 21
22.373782
 31
0.0
  0
LINE
  8
0
  6
BYBLOCK
 62
     0
 10
10.798864
 20
24.173782
 30
0.0
 11
10.798864
 21
23.880032
 31
0.0
  0
LINE
  8
0
  6
BYBLOCK
 62
     0
 10
10.798864
 20
22.823782
 30
0.0
 11
10.798864
 21
23.117532
 31
0.0
  0
SOLID
  8
0
  6
BYBLOCK
 62
     0
 10
10.723864
 20
24.173782
 30
0.0
 11
10.873864
 21
24.173782
 31
0.0
 12
10.798864
 22
24.623782
 32
0.0
 13
10.798864
 23
24.623782
 33
0.0
  0
SOLID
  8
0
  6
BYBLOCK
 62
     0
 10
10.723864
 20
22.823782
 30
0.0
 11
10.873864
 21
22.823782
 31
0.0
 12
10.798864
 22
22.373782
 32
0.0
 13
10.798864
 23
22.373782
 33
0.0
  0
TEXT
  8
0
  6
BYBLOCK
 62
     0
 10
10.349646
 20
23.342532
 30
0.0
 40
0.3125
  1
2.250
 41
0.75
  7
TXT
 72
     1
 11
10.798864
 21
23.498782
 31
0.0
 73
     2
  0
POINT
  8
DEFPOINTS
  6
BYBLOCK
 62
     0
 10
13.671223
 20
24.623782
 30
0.0
  0
POINT
  8
DEFPOINTS
  6
BYBLOCK
 62
     0
 10
13.713303
 20
22.373782
 30
0.0
  0
POINT
  8
DEFPOINTS
  6
BYBLOCK
 62
     0
 10
10.798864
 20
22.373782
 30
0.0
  0
ENDBLK
  8
0
  0
BLOCK
  8
0
  2
*D4
 70
    65
 10
0.0
 20
0.0
 30
0.0
  3
*D
  0
LINE
  8
0
  6
BYBLOCK
 62
     0
 10
16.373816
 20
20.730811
 30
0.0
 11
16.373816
 21
20.287566
 31
0.0
  0
LINE
  8
0
  6
BYBLOCK
 62
     0
 10
18.373816
 20
21.967532
 30
0.0
 11
18.373816
 21
20.287566
 31
0.0
  0
LINE
  8
0
  6
BYBLOCK
 62
     0
 10
15.923816
 20
20.520066
 30
0.0
 11
15.473816
 21
20.520066
 31
0.0
  0
LINE
  8
0
  6
BYBLOCK
 62
     0
 10
18.823816
 20
20.520066
 30
0.0
 11
19.273816
 21
20.520066
 31
0.0
  0
SOLID
  8
0
  6
BYBLOCK
 62
     0
 10
15.923816
 20
20.595066
 30
0.0
 11
15.923816
 21
20.445066
 31
0.0
 12
16.373816
 22
20.520066
 32
0.0
 13
16.373816
 23
20.520066
 33
0.0
  0
SOLID
  8
0
  6
BYBLOCK
 62
     0
 10
18.823816
 20
20.595066
 30
0.0
 11
18.823816
 21
20.445066
 31
0.0
 12
18.373816
 22
20.520066
 32
0.0
 13
18.373816
 23
20.520066
 33
0.0
  0
TEXT
  8
0
  6
BYBLOCK
 62
     0
 10
16.96366
 20
20.363816
 30
0.0
 40
0.3125
  1
2.000
 41
0.75
  7
TXT
 72
     1
 11
17.373816
 21
20.520066
 31
0.0
 73
     2
  0
POINT
  8
DEFPOINTS
  6
BYBLOCK
 62
     0
 10
16.373816
 20
20.887061
 30
0.0
  0
POINT
  8
DEFPOINTS
  6
BYBLOCK
 62
     0
 10
18.373816
 20
22.123782
 30
0.0
  0
POINT
  8
DEFPOINTS
  6
BYBLOCK
 62
     0
 10
18.373816
 20
20.520066
 30
0.0
  0
ENDBLK
  8
0
  0
BLOCK
  8
0
  2
*D5
 70
    65
 10
0.0
 20
0.0
 30
0.0
  3
*D
  0
LINE
  8
0
  6
BYBLOCK
 62
     0
 10
16.373816
 20
20.730811
 30
0.0
 11
16.373816
 21
19.616654
 31
0.0
  0
LINE
  8
0
  6
BYBLOCK
 62
     0
 10
14.373816
 20
21.967532
 30
0.0
 11
14.373816
 21
19.616654
 31
0.0
  0
LINE
  8
0
  6
BYBLOCK
 62
     0
 10
16.823816
 20
19.849154
 30
0.0
 11
17.273816
 21
19.849154
 31
0.0
  0
LINE
  8
0
  6
BYBLOCK
 62
     0
 10
13.923816
 20
19.849154
 30
0.0
 11
13.473816
 21
19.849154
 31
0.0
  0
SOLID
  8
0
  6
BYBLOCK
 62
     0
 10
16.823816
 20
19.924154
 30
0.0
 11
16.823816
 21
19.774154
 31
0.0
 12
16.373816
 22
19.849154
 32
0.0
 13
16.373816
 23
19.849154
 33
0.0
  0
SOLID
  8
0
  6
BYBLOCK
 62
     0
 10
13.923816
 20
19.924154
 30
0.0
 11
13.923816
 21
19.774154
 31
0.0
 12
14.373816
 22
19.849154
 32
0.0
 13
14.373816
 23
19.849154
 33
0.0
  0
TEXT
  8
0
  6
BYBLOCK
 62
     0
 10
14.96366
 20
19.692904
 30
0.0
 40
0.3125
  1
2.000
 41
0.75
  7
TXT
 72
     1
 11
15.373816
 21
19.849154
 31
0.0
 73
     2
  0
POINT
  8
DEFPOINTS
  6
BYBLOCK
 62
     0
 10
16.373816
 20
20.887061
 30
0.0
  0
POINT
  8
DEFPOINTS
  6
BYBLOCK
 62
     0
 10
14.373816
 20
22.123782
 30
0.0
  0
POINT
  8
DEFPOINTS
  6
BYBLOCK
 62
     0
 10
14.373816
 20
19.849154
 30
0.0
  0
ENDBLK
  8
0
  0
BLOCK
  8
0
  2
*D6
 70
    65
 10
0.0
 20
0.0
 30
0.0
  3
*D
  0
LINE
  8
0
  6
BYBLOCK
 62
     0
 10
16.153283
 20
24.623782
 30
0.0
 11
16.240826
 21
24.623782
 31
0.0
  0
LINE
  8
0
  6
BYBLOCK
 62
     0
 10
16.153283
 20
24.123782
 30
0.0
 11
16.240826
 21
24.123782
 31
0.0
  0
LINE
  8
0
  6
BYBLOCK
 62
     0
 10
16.008326
 20
25.073782
 30
0.0
 11
16.008326
 21
25.523782
 31
0.0
  0
LINE
  8
0
  6
BYBLOCK
 62
     0
 10
16.008326
 20
23.673782
 30
0.0
 11
16.008326
 21
23.223782
 31
0.0
  0
SOLID
  8
0
  6
BYBLOCK
 62
     0
 10
15.933326
 20
25.073782
 30
0.0
 11
16.083326
 21
25.073782
 31
0.0
 12
16.008326
 22
24.623782
 32
0.0
 13
16.008326
 23
24.623782
 33
0.0
  0
SOLID
  8
0
  6
BYBLOCK
 62
     0
 10
15.933326
 20
23.673782
 30
0.0
 11
16.083326
 21
23.673782
 31
0.0
 12
16.008326
 22
24.123782
 32
0.0
 13
16.008326
 23
24.123782
 33
0.0
  0
TEXT
  8
0
  6
BYBLOCK
 62
     0
 10
15.59817
 20
24.217532
 30
0.0
 40
0.3125
  1
0.500
 41
0.75
  7
TXT
 72
     1
 11
16.008326
 21
24.373782
 31
0.0
 73
     2
  0
POINT
  8
DEFPOINTS
  6
BYBLOCK
 62
     0
 10
15.997033
 20
24.623782
 30
0.0
  0
POINT
  8
DEFPOINTS
  6
BYBLOCK
 62
     0
 10
15.997033
 20
24.123782
 30
0.0
  0
POINT
  8
DEFPOINTS
  6
BYBLOCK
 62
     0
 10
16.008326
 20
24.123782
 30
0.0
  0
ENDBLK
  8
0
  0
BLOCK
  8
0
  2
*D7
 70
    65
 10
0.0
 20
0.0
 30
0.0
  3
*D
  0
LINE
  8
0
  6
BYBLOCK
 62
     0
 10
16.962051
 20
24.123782
 30
0.0
 11
16.874508
 21
24.123782
 31
0.0
  0
LINE
  8
0
  6
BYBLOCK
 62
     0
 10
16.962051
 20
22.123782
 30
0.0
 11
16.874508
 21
22.123782
 31
0.0
  0
LINE
  8
0
  6
BYBLOCK
 62
     0
 10
17.107008
 20
24.573782
 30
0.0
 11
17.107008
 21
25.023782
 31
0.0
  0
LINE
  8
0
  6
BYBLOCK
 62
     0
 10
17.107008
 20
21.673782
 30
0.0
 11
17.107008
 21
21.223782
 31
0.0
  0
SOLID
  8
0
  6
BYBLOCK
 62
     0
 10
17.032008
 20
24.573782
 30
0.0
 11
17.182008
 21
24.573782
 31
0.0
 12
17.107008
 22
24.123782
 32
0.0
 13
17.107008
 23
24.123782
 33
0.0
  0
SOLID
  8
0
  6
BYBLOCK
 62
     0
 10
17.032008
 20
21.673782
 30
0.0
 11
17.182008
 21
21.673782
 31
0.0
 12
17.107008
 22
22.123782
 32
0.0
 13
17.107008
 23
22.123782
 33
0.0
  0
TEXT
  8
0
  6
BYBLOCK
 62
     0
 10
16.696852
 20
22.967532
 30
0.0
 40
0.3125
  1
2.000
 41
0.75
  7
TXT
 72
     1
 11
17.107008
 21
23.123782
 31
0.0
 73
     2
  0
POINT
  8
DEFPOINTS
  6
BYBLOCK
 62
     0
 10
17.118301
 20
24.123782
 30
0.0
  0
POINT
  8
DEFPOINTS
  6
BYBLOCK
 62
     0
 10
17.118301
 20
22.123782
 30
0.0
  0
POINT
  8
DEFPOINTS
  6
BYBLOCK
 62
     0
 10
17.107008
 20
22.123782
 30
0.0
  0
ENDBLK
  8
0
  0
BLOCK
  8
0
  2
*D8
 70
    65
 10
0.0
 20
0.0
 30
0.0
  3
*D
  0
LINE
  8
0
  6
BYBLOCK
 62
     0
 10
18.918066
 20
28.063782
 30
0.0
 11
21.371235
 21
28.063782
 31
0.0
  0
LINE
  8
0
  6
BYBLOCK
 62
     0
 10
18.918066
 20
21.183782
 30
0.0
 11
21.371235
 21
21.183782
 31
0.0
  0
LINE
  8
0
  6
BYBLOCK
 62
     0
 10
21.138735
 20
27.613782
 30
0.0
 11
21.138735
 21
25.005032
 31
0.0
  0
LINE
  8
0
  6
BYBLOCK
 62
     0
 10
21.138735
 20
21.633782
 30
0.0
 11
21.138735
 21
24.242532
 31
0.0
  0
SOLID
  8
0
  6
BYBLOCK
 62
     0
 10
21.063735
 20
27.613782
 30
0.0
 11
21.213735
 21
27.613782
 31
0.0
 12
21.138735
 22
28.063782
 32
0.0
 13
21.138735
 23
28.063782
 33
0.0
  0
SOLID
  8
0
  6
BYBLOCK
 62
     0
 10
21.063735
 20
21.633782
 30
0.0
 11
21.213735
 21
21.633782
 31
0.0
 12
21.138735
 22
21.183782
 32
0.0
 13
21.138735
 23
21.183782
 33
0.0
  0
TEXT
  8
0
  6
BYBLOCK
 62
     0
 10
20.689516
 20
24.467532
 30
0.0
 40
0.3125
  1
6.880
 41
0.75
  7
TXT
 72
     1
 11
21.138735
 21
24.623782
 31
0.0
 73
     2
  0
POINT
  8
DEFPOINTS
  6
BYBLOCK
 62
     0
 10
18.761816
 20
28.063782
 30
0.0
  0
POINT
  8
DEFPOINTS
  6
BYBLOCK
 62
     0
 10
18.761816
 20
21.183782
 30
0.0
  0
POINT
  8
DEFPOINTS
  6
BYBLOCK
 62
     0
 10
21.138735
 20
21.183782
 30
0.0
  0
ENDBLK
  8
0
  0
BLOCK
  8
0
  2
*D9
 70
    65
 10
0.0
 20
0.0
 30
0.0
  3
*D
  0
LINE
  8
0
  6
BYBLOCK
 62
     0
 10
19.232659
 20
24.623782
 30
0.0
 11
20.146713
 21
24.623782
 31
0.0
  0
LINE
  8
0
  6
BYBLOCK
 62
     0
 10
19.190579
 20
21.561532
 30
0.0
 11
20.146713
 21
21.561532
 31
0.0
  0
LINE
  8
0
  6
BYBLOCK
 62
     0
 10
19.914213
 20
24.173782
 30
0.0
 11
19.914213
 21
23.473907
 31
0.0
  0
LINE
  8
0
  6
BYBLOCK
 62
     0
 10
19.914213
 20
22.011532
 30
0.0
 11
19.914213
 21
22.711407
 31
0.0
  0
SOLID
  8
0
  6
BYBLOCK
 62
     0
 10
19.839213
 20
24.173782
 30
0.0
 11
19.989213
 21
24.173782
 31
0.0
 12
19.914213
 22
24.623782
 32
0.0
 13
19.914213
 23
24.623782
 33
0.0
  0
SOLID
  8
0
  6
BYBLOCK
 62
     0
 10
19.839213
 20
22.011532
 30
0.0
 11
19.989213
 21
22.011532
 31
0.0
 12
19.914213
 22
21.561532
 32
0.0
 13
19.914213
 23
21.561532
 33
0.0
  0
TEXT
  8
0
  6
BYBLOCK
 62
     0
 10
19.464994
 20
22.936407
 30
0.0
 40
0.3125
  1
3.062
 41
0.75
  7
TXT
 72
     1
 11
19.914213
 21
23.092657
 31
0.0
 73
     2
  0
POINT
  8
DEFPOINTS
  6
BYBLOCK
 62
     0
 10
19.076409
 20
24.623782
 30
0.0
  0
POINT
  8
DEFPOINTS
  6
BYBLOCK
 62
     0
 10
19.034329
 20
21.561532
 30
0.0
  0
POINT
  8
DEFPOINTS
  6
BYBLOCK
 62
     0
 10
19.914213
 20
21.561532
 30
0.0
  0
ENDBLK
  8
0
  0
BLOCK
  8
0
  2
*D10
 70
    65
 10
0.0
 20
0.0
 30
0.0
  3
*D
  0
LINE
  8
0
  6
BYBLOCK
 62
     0
 10
19.232659
 20
24.623782
 30
0.0
 11
20.146713
 21
24.623782
 31
0.0
  0
LINE
  8
0
  6
BYBLOCK
 62
     0
 10
19.190579
 20
27.686032
 30
0.0
 11
20.146713
 21
27.686032
 31
0.0
  0
LINE
  8
0
  6
BYBLOCK
 62
     0
 10
19.914213
 20
25.073782
 30
0.0
 11
19.914213
 21
25.773657
 31
0.0
  0
LINE
  8
0
  6
BYBLOCK
 62
     0
 10
19.914213
 20
27.236032
 30
0.0
 11
19.914213
 21
26.536157
 31
0.0
  0
SOLID
  8
0
  6
BYBLOCK
 62
     0
 10
19.839213
 20
25.073782
 30
0.0
 11
19.989213
 21
25.073782
 31
0.0
 12
19.914213
 22
24.623782
 32
0.0
 13
19.914213
 23
24.623782
 33
0.0
  0
SOLID
  8
0
  6
BYBLOCK
 62
     0
 10
19.839213
 20
27.236032
 30
0.0
 11
19.989213
 21
27.236032
 31
0.0
 12
19.914213
 22
27.686032
 32
0.0
 13
19.914213
 23
27.686032
 33
0.0
  0
TEXT
  8
0
  6
BYBLOCK
 62
     0
 10
19.464994
 20
25.998657
 30
0.0
 40
0.3125
  1
3.062
 41
0.75
  7
TXT
 72
     1
 11
19.914213
 21
26.154907
 31
0.0
 73
     2
  0
POINT
  8
DEFPOINTS
  6
BYBLOCK
 62
     0
 10
19.076409
 20
24.623782
 30
0.0
  0
POINT
  8
DEFPOINTS
  6
BYBLOCK
 62
     0
 10
19.034329
 20
27.686032
 30
0.0
  0
POINT
  8
DEFPOINTS
  6
BYBLOCK
 62
     0
 10
19.914213
 20
27.686032
 30
0.0
  0
ENDBLK
  8
0
  0
BLOCK
  8
0
  2
*D11
 70
    65
 10
0.0
 20
0.0
 30
0.0
  3
*D
  0
LINE
  8
0
  6
BYBLOCK
 62
     0
 10
13.933816
 20
28.170032
 30
0.0
 11
13.933816
 21
30.340477
 31
0.0
  0
LINE
  8
0
  6
BYBLOCK
 62
     0
 10
18.813816
 20
28.170032
 30
0.0
 11
18.813816
 21
30.340477
 31
0.0
  0
LINE
  8
0
  6
BYBLOCK
 62
     0
 10
14.383816
 20
30.107977
 30
0.0
 11
15.699597
 21
30.107977
 31
0.0
  0
LINE
  8
0
  6
BYBLOCK
 62
     0
 10
18.363816
 20
30.107977
 30
0.0
 11
17.048035
 21
30.107977
 31
0.0
  0
SOLID
  8
0
  6
BYBLOCK
 62
     0
 10
14.383816
 20
30.182977
 30
0.0
 11
14.383816
 21
30.032977
 31
0.0
 12
13.933816
 22
30.107977
 32
0.0
 13
13.933816
 23
30.107977
 33
0.0
  0
SOLID
  8
0
  6
BYBLOCK
 62
     0
 10
18.363816
 20
30.182977
 30
0.0
 11
18.363816
 21
30.032977
 31
0.0
 12
18.813816
 22
30.107977
 32
0.0
 13
18.813816
 23
30.107977
 33
0.0
  0
TEXT
  8
0
  6
BYBLOCK
 62
     0
 10
15.924597
 20
29.951727
 30
0.0
 40
0.3125
  1
4.880
 41
0.75
  7
TXT
 72
     1
 11
16.373816
 21
30.107977
 31
0.0
 73
     2
  0
POINT
  8
DEFPOINTS
  6
BYBLOCK
 62
     0
 10
13.933816
 20
28.013782
 30
0.0
  0
POINT
  8
DEFPOINTS
  6
BYBLOCK
 62
     0
 10
18.813816
 20
28.013782
 30
0.0
  0
POINT
  8
DEFPOINTS
  6
BYBLOCK
 62
     0
 10
18.813816
 20
30.107977
 30
0.0
  0
ENDBLK
  8
0
  0
BLOCK
  8
0
  2
*D12
 70
    65
 10
0.0
 20
0.0
 30
0.0
  3
*D
  0
LINE
  8
0
  6
BYBLOCK
 62
     0
 10
18.435316
 20
28.385414
 30
0.0
 11
18.435316
 21
28.821249
 31
0.0
  0
LINE
  8
0
  6
BYBLOCK
 62
     0
 10
18.813816
 20
28.170032
 30
0.0
 11
18.813816
 21
28.821249
 31
0.0
  0
LINE
  8
0
  6
BYBLOCK
 62
     0
 10
17.985316
 20
28.588749
 30
0.0
 11
17.535316
 21
28.588749
 31
0.0
  0
LINE
  8
0
  6
BYBLOCK
 62
     0
 10
19.263816
 20
28.588749
 30
0.0
 11
19.713816
 21
28.588749
 31
0.0
  0
SOLID
  8
0
  6
BYBLOCK
 62
     0
 10
17.985316
 20
28.663749
 30
0.0
 11
17.985316
 21
28.513749
 31
0.0
 12
18.435316
 22
28.588749
 32
0.0
 13
18.435316
 23
28.588749
 33
0.0
  0
SOLID
  8
0
  6
BYBLOCK
 62
     0
 10
19.263816
 20
28.663749
 30
0.0
 11
19.263816
 21
28.513749
 31
0.0
 12
18.813816
 22
28.588749
 32
0.0
 13
18.813816
 23
28.588749
 33
0.0
  0
TEXT
  8
0
  6
BYBLOCK
 62
     0
 10
19.938816
 20
28.432499
 30
0.0
 40
0.3125
  1
0.378
 41
0.75
  7
TXT
 72
     1
 11
20.388035
 21
28.588749
 31
0.0
 73
     2
  0
POINT
  8
DEFPOINTS
  6
BYBLOCK
 62
     0
 10
18.435316
 20
28.229164
 30
0.0
  0
POINT
  8
DEFPOINTS
  6
BYBLOCK
 62
     0
 10
18.813816
 20
28.013782
 30
0.0
  0
POINT
  8
DEFPOINTS
  6
BYBLOCK
 62
     0
 10
18.813816
 20
28.588749
 30
0.0
  0
ENDBLK
  8
0
  0
BLOCK
  8
0
  2
*D13
 70
    65
 10
0.0
 20
0.0
 30
0.0
  3
*D
  0
LINE
  8
0
  6
BYBLOCK
 62
     0
 10
16.373816
 20
28.516753
 30
0.0
 11
16.373816
 21
29.774396
 31
0.0
  0
LINE
  8
0
  6
BYBLOCK
 62
     0
 10
18.435316
 20
28.385414
 30
0.0
 11
18.435316
 21
29.774396
 31
0.0
  0
LINE
  8
0
  6
BYBLOCK
 62
     0
 10
15.923816
 20
29.541896
 30
0.0
 11
15.473816
 21
29.541896
 31
0.0
  0
LINE
  8
0
  6
BYBLOCK
 62
     0
 10
18.885316
 20
29.541896
 30
0.0
 11
19.335316
 21
29.541896
 31
0.0
  0
SOLID
  8
0
  6
BYBLOCK
 62
     0
 10
15.923816
 20
29.616896
 30
0.0
 11
15.923816
 21
29.466896
 31
0.0
 12
16.373816
 22
29.541896
 32
0.0
 13
16.373816
 23
29.541896
 33
0.0
  0
SOLID
  8
0
  6
BYBLOCK
 62
     0
 10
18.885316
 20
29.616896
 30
0.0
 11
18.885316
 21
29.466896
 31
0.0
 12
18.435316
 22
29.541896
 32
0.0
 13
18.435316
 23
29.541896
 33
0.0
  0
TEXT
  8
0
  6
BYBLOCK
 62
     0
 10
16.955347
 20
29.385646
 30
0.0
 40
0.3125
  1
2.062
 41
0.75
  7
TXT
 72
     1
 11
17.404566
 21
29.541896
 31
0.0
 73
     2
  0
POINT
  8
DEFPOINTS
  6
BYBLOCK
 62
     0
 10
16.373816
 20
28.360503
 30
0.0
  0
POINT
  8
DEFPOINTS
  6
BYBLOCK
 62
     0
 10
18.435316
 20
28.229164
 30
0.0
  0
POINT
  8
DEFPOINTS
  6
BYBLOCK
 62
     0
 10
18.435316
 20
29.541896
 30
0.0
  0
ENDBLK
  8
0
  0
BLOCK
  8
0
  2
*D14
 70
    65
 10
0.0
 20
0.0
 30
0.0
  3
*D
  0
LINE
  8
0
  6
BYBLOCK
 62
     0
 10
16.373816
 20
28.516753
 30
0.0
 11
16.373816
 21
29.211539
 31
0.0
  0
LINE
  8
0
  6
BYBLOCK
 62
     0
 10
14.312316
 20
28.385414
 30
0.0
 11
14.312316
 21
29.211539
 31
0.0
  0
LINE
  8
0
  6
BYBLOCK
 62
     0
 10
16.823816
 20
28.979039
 30
0.0
 11
17.273816
 21
28.979039
 31
0.0
  0
LINE
  8
0
  6
BYBLOCK
 62
     0
 10
13.862316
 20
28.979039
 30
0.0
 11
13.412316
 21
28.979039
 31
0.0
  0
SOLID
  8
0
  6
BYBLOCK
 62
     0
 10
16.823816
 20
29.054039
 30
0.0
 11
16.823816
 21
28.904039
 31
0.0
 12
16.373816
 22
28.979039
 32
0.0
 13
16.373816
 23
28.979039
 33
0.0
  0
SOLID
  8
0
  6
BYBLOCK
 62
     0
 10
13.862316
 20
29.054039
 30
0.0
 11
13.862316
 21
28.904039
 31
0.0
 12
14.312316
 22
28.979039
 32
0.0
 13
14.312316
 23
28.979039
 33
0.0
  0
TEXT
  8
0
  6
BYBLOCK
 62
     0
 10
14.893847
 20
28.822789
 30
0.0
 40
0.3125
  1
2.062
 41
0.75
  7
TXT
 72
     1
 11
15.343066
 21
28.979039
 31
0.0
 73
     2
  0
POINT
  8
DEFPOINTS
  6
BYBLOCK
 62
     0
 10
16.373816
 20
28.360503
 30
0.0
  0
POINT
  8
DEFPOINTS
  6
BYBLOCK
 62
     0
 10
14.312316
 20
28.229164
 30
0.0
  0
POINT
  8
DEFPOINTS
  6
BYBLOCK
 62
     0
 10
14.312316
 20
28.979039
 30
0.0
  0
ENDBLK
  8
0
  0
BLOCK
  8
0
  2
*D15
 70
    65
 10
0.0
 20
0.0
 30
0.0
  3
*D
  0
LINE
  8
0
  6
BYBLOCK
 62
     0
 10
4.667956
 20
26.388744
 30
0.0
 11
4.667956
 21
26.468219
 31
0.0
  0
LINE
  8
0
  6
BYBLOCK
 62
     0
 10
4.652956
 20
26.388744
 30
0.0
 11
4.652956
 21
26.468219
 31
0.0
  0
LINE
  8
0
  6
BYBLOCK
 62
     0
 10
5.117956
 20
26.235719
 30
0.0
 11
5.567956
 21
26.235719
 31
0.0
  0
LINE
  8
0
  6
BYBLOCK
 62
     0
 10
4.202956
 20
26.235719
 30
0.0
 11
3.752956
 21
26.235719
 31
0.0
  0
SOLID
  8
0
  6
BYBLOCK
 62
     0
 10
5.117956
 20
26.310719
 30
0.0
 11
5.117956
 21
26.160719
 31
0.0
 12
4.667956
 22
26.235719
 32
0.0
 13
4.667956
 23
26.235719
 33
0.0
  0
SOLID
  8
0
  6
BYBLOCK
 62
     0
 10
4.202956
 20
26.310719
 30
0.0
 11
4.202956
 21
26.160719
 31
0.0
 12
4.652956
 22
26.235719
 32
0.0
 13
4.652956
 23
26.235719
 33
0.0
  0
TEXT
  8
0
  6
BYBLOCK
 62
     0
 10
2.746706
 20
26.079469
 30
0.0
 40
0.3125
  1
0.015
 41
0.75
  7
TXT
 72
     1
 11
3.137331
 21
26.235719
 31
0.0
 73
     2
  0
POINT
  8
DEFPOINTS
  6
BYBLOCK
 62
     0
 10
4.667956
 20
26.232494
 30
0.0
  0
POINT
  8
DEFPOINTS
  6
BYBLOCK
 62
     0
 10
4.652956
 20
26.232494
 30
0.0
  0
POINT
  8
DEFPOINTS
  6
BYBLOCK
 62
     0
 10
4.652956
 20
26.235719
 30
0.0
  0
ENDBLK
  8
0
  0
BLOCK
  8
0
  2
*D16
 70
    65
 10
0.0
 20
0.0
 30
0.0
  3
*D
  0
LINE
  8
0
  6
BYBLOCK
 62
     0
 10
4.752956
 20
22.931344
 30
0.0
 11
4.752956
 21
22.838966
 31
0.0
  0
LINE
  8
0
  6
BYBLOCK
 62
     0
 10
4.652956
 20
22.931344
 30
0.0
 11
4.652956
 21
22.838966
 31
0.0
  0
LINE
  8
0
  6
BYBLOCK
 62
     0
 10
5.202956
 20
23.071466
 30
0.0
 11
5.652956
 21
23.071466
 31
0.0
  0
LINE
  8
0
  6
BYBLOCK
 62
     0
 10
4.202956
 20
23.071466
 30
0.0
 11
3.752956
 21
23.071466
 31
0.0
  0
SOLID
  8
0
  6
BYBLOCK
 62
     0
 10
5.202956
 20
23.146466
 30
0.0
 11
5.202956
 21
22.996466
 31
0.0
 12
4.752956
 22
23.071466
 32
0.0
 13
4.752956
 23
23.071466
 33
0.0
  0
SOLID
  8
0
  6
BYBLOCK
 62
     0
 10
4.202956
 20
23.146466
 30
0.0
 11
4.202956
 21
22.996466
 31
0.0
 12
4.652956
 22
23.071466
 32
0.0
 13
4.652956
 23
23.071466
 33
0.0
  0
TEXT
  8
0
  6
BYBLOCK
 62
     0
 10
2.785768
 20
22.915216
 30
0.0
 40
0.3125
  1
0.100
 41
0.75
  7
TXT
 72
     1
 11
3.156862
 21
23.071466
 31
0.0
 73
     2
  0
POINT
  8
DEFPOINTS
  6
BYBLOCK
 62
     0
 10
4.752956
 20
23.087594
 30
0.0
  0
POINT
  8
DEFPOINTS
  6
BYBLOCK
 62
     0
 10
4.652956
 20
23.087594
 30
0.0
  0
POINT
  8
DEFPOINTS
  6
BYBLOCK
 62
     0
 10
4.652956
 20
23.071466
 30
0.0
  0
ENDBLK
  8
0
  0
BLOCK
  8
0
  2
*D17
 70
    65
 10
0.0
 20
0.0
 30
0.0
  3
*D
  0
LINE
  8
0
  6
BYBLOCK
 62
     0
 10
4.496706
 20
27.793782
 30
0.0
 11
1.959217
 21
27.793782
 31
0.0
  0
LINE
  8
0
  6
BYBLOCK
 62
     0
 10
4.496706
 20
21.453782
 30
0.0
 11
1.959217
 21
21.453782
 31
0.0
  0
LINE
  8
0
  6
BYBLOCK
 62
     0
 10
2.191717
 20
27.343782
 30
0.0
 11
2.191717
 21
25.005032
 31
0.0
  0
LINE
  8
0
  6
BYBLOCK
 62
     0
 10
2.191717
 20
21.903782
 30
0.0
 11
2.191717
 21
24.242532
 31
0.0
  0
SOLID
  8
0
  6
BYBLOCK
 62
     0
 10
2.116717
 20
27.343782
 30
0.0
 11
2.266717
 21
27.343782
 31
0.0
 12
2.191717
 22
27.793782
 32
0.0
 13
2.191717
 23
27.793782
 33
0.0
  0
SOLID
  8
0
  6
BYBLOCK
 62
     0
 10
2.116717
 20
21.903782
 30
0.0
 11
2.266717
 21
21.903782
 31
0.0
 12
2.191717
 22
21.453782
 32
0.0
 13
2.191717
 23
21.453782
 33
0.0
  0
TEXT
  8
0
  6
BYBLOCK
 62
     0
 10
1.742498
 20
24.467532
 30
0.0
 40
0.3125
  1
6.340
 41
0.75
  7
TXT
 72
     1
 11
2.191717
 21
24.623782
 31
0.0
 73
     2
  0
POINT
  8
DEFPOINTS
  6
BYBLOCK
 62
     0
 10
4.652956
 20
27.793782
 30
0.0
  0
POINT
  8
DEFPOINTS
  6
BYBLOCK
 62
     0
 10
4.652956
 20
21.453782
 30
0.0
  0
POINT
  8
DEFPOINTS
  6
BYBLOCK
 62
     0
 10
2.191717
 20
21.453782
 30
0.0
  0
ENDBLK
  8
0
  0
BLOCK
  8
0
  2
*D18
 70
    65
 10
0.0
 20
0.0
 30
0.0
  3
*D
  0
LINE
  8
0
  6
BYBLOCK
 62
     0
 10
4.588585
 20
21.34565
 30
0.0
 11
3.756361
 21
21.41846
 31
0.0
  0
LINE
  8
0
  6
BYBLOCK
 62
     0
 10
5.773566
 20
21.185782
 30
0.0
 11
3.746202
 21
21.185782
 31
0.0
  0
ARC
  8
0
  6
BYBLOCK
 62
     0
 10
6.415882
 20
21.185782
 30
0.0
 40
2.437181
 50
153.811692
 51
164.405846
  0
ARC
  8
0
  6
BYBLOCK
 62
     0
 10
6.415882
 20
21.185782
 30
0.0
 40
2.437181
 50
190.594154
 51
201.188308
  0
SOLID
  8
0
  6
BYBLOCK
 62
     0
 10
4.142207
 20
21.827542
 30
0.0
 11
3.994622
 21
21.854355
 31
0.0
 12
3.987976
 22
21.398196
 32
0.0
 13
3.987976
 23
21.398196
 33
0.0
  0
SOLID
  8
0
  6
BYBLOCK
 62
     0
 10
3.945566
 20
20.73078
 30
0.0
 11
4.094925
 21
20.744628
 31
0.0
 12
3.978702
 22
21.185782
 32
0.0
 13
3.978702
 23
21.185782
 33
0.0
  0
TEXT
  8
0
  6
BYBLOCK
 62
     0
 10
4.197964
 20
19.891275
 30
0.0
 40
0.3125
  1
5%%D
 41
0.75
  7
TXT
 72
     1
 11
4.354214
 21
20.047525
 31
0.0
 73
     2
  0
POINT
  8
DEFPOINTS
  6
BYBLOCK
 62
     0
 10
3.983146
 20
21.332902
 30
0.0
  0
POINT
  8
DEFPOINTS
  6
BYBLOCK
 62
     0
 10
6.415882
 20
21.185782
 30
0.0
  0
POINT
  8
DEFPOINTS
  6
BYBLOCK
 62
     0
 10
6.415882
 20
21.185782
 30
0.0
  0
POINT
  8
DEFPOINTS
  6
BYBLOCK
 62
     0
 10
4.74424
 20
21.332032
 30
0.0
  0
POINT
  8
DEFPOINTS
  6
BYBLOCK
 62
     0
 10
5.929816
 20
21.185782
 30
0.0
  0
ENDBLK
  8
0
  0
BLOCK
  8
0
  2
*D19
 70
    65
 10
0.0
 20
0.0
 30
0.0
  3
*D
  0
LINE
  8
0
  6
BYBLOCK
 62
     0
 10
19.981318
 20
35.115998
 30
0.0
 11
18.219329
 21
35.115998
 31
0.0
  0
ARC
  8
0
  6
BYBLOCK
 62
     0
 10
20.137568
 20
35.115998
 30
0.0
 40
1.685739
 50
149.318769
 51
164.659385
  0
ARC
  8
0
  6
BYBLOCK
 62
     0
 10
20.137568
 20
35.115998
 30
0.0
 40
1.685739
 50
207.637805
 51
222.97842
  0
SOLID
  8
0
  6
BYBLOCK
 62
     0
 10
18.586221
 20
35.551962
 30
0.0
 11
18.437563
 21
35.571982
 31
0.0
 12
18.451829
 22
35.115998
 32
0.0
 13
18.451829
 23
35.115998
 33
0.0
  0
SOLID
  8
0
  6
BYBLOCK
 62
     0
 10
18.573684
 20
34.308405
 30
0.0
 11
18.714667
 21
34.359628
 31
0.0
 12
18.490507
 22
34.756965
 32
0.0
 13
18.490507
 23
34.756965
 33
0.0
  0
TEXT
  8
0
  6
BYBLOCK
 62
     0
 10
18.343396
 20
36.048599
 30
0.0
 40
0.3125
  1
12%%d18'
 41
0.75
  7
TXT
 72
     1
 11
18.831677
 21
36.204849
 31
0.0
 73
     2
  0
POINT
  8
DEFPOINTS
  6
BYBLOCK
 62
     0
 10
18.46514
 20
34.904578
 30
0.0
  0
POINT
  8
DEFPOINTS
  6
BYBLOCK
 62
     0
 10
20.137568
 20
35.115998
 30
0.0
  0
POINT
  8
DEFPOINTS
  6
BYBLOCK
 62
     0
 10
15.557817
 20
34.117686
 30
0.0
  0
POINT
  8
DEFPOINTS
  6
BYBLOCK
 62
     0
 10
20.137568
 20
35.115998
 30
0.0
  0
POINT
  8
DEFPOINTS
  6
BYBLOCK
 62
     0
 10
20.487961
 20
35.115998
 30
0.0
  0
ENDBLK
  8
0
  0
BLOCK
  8
0
  2
*D20
 70
    65
 10
0.0
 20
0.0
 30
0.0
  3
*D
  0
LINE
  8
0
  6
BYBLOCK
 62
     0
 10
15.536689
 20
34.273
 30
0.0
 11
15.106692
 21
36.245612
 31
0.0
  0
LINE
  8
0
  6
BYBLOCK
 62
     0
 10
19.952983
 20
35.235681
 30
0.0
 11
19.522985
 21
37.208293
 31
0.0
  0
LINE
  8
0
  6
BYBLOCK
 62
     0
 10
15.595885
 20
36.114289
 30
0.0
 11
16.690138
 21
36.352818
 31
0.0
  0
LINE
  8
0
  6
BYBLOCK
 62
     0
 10
19.132828
 20
36.885285
 30
0.0
 11
18.038575
 21
36.646756
 31
0.0
  0
SOLID
  8
0
  6
BYBLOCK
 62
     0
 10
15.579912
 20
36.187568
 30
0.0
 11
15.611859
 21
36.041009
 31
0.0
 12
15.15621
 22
36.018446
 32
0.0
 13
15.15621
 23
36.018446
 33
0.0
  0
SOLID
  8
0
  6
BYBLOCK
 62
     0
 10
19.116854
 20
36.958564
 30
0.0
 11
19.148802
 21
36.812006
 31
0.0
 12
19.572503
 22
36.981127
 32
0.0
 13
19.572503
 23
36.981127
 33
0.0
  0
TEXT
  8
0
  6
BYBLOCK
 62
     0
 10
16.915138
 20
36.343537
 30
0.0
 40
0.3125
  1
4.520
 41
0.75
  7
TXT
 72
     1
 11
17.364357
 21
36.499787
 31
0.0
 73
     2
  0
POINT
  8
DEFPOINTS
  6
BYBLOCK
 62
     0
 10
15.569968
 20
34.120335
 30
0.0
  0
POINT
  8
DEFPOINTS
  6
BYBLOCK
 62
     0
 10
19.986261
 20
35.083016
 30
0.0
  0
POINT
  8
DEFPOINTS
  6
BYBLOCK
 62
     0
 10
19.572503
 20
36.981127
 30
0.0
  0
ENDBLK
  8
0
  0
BLOCK
  8
0
  2
*D21
 70
    65
 10
0.0
 20
0.0
 30
0.0
  3
*D
  0
LINE
  8
0
  6
BYBLOCK
 62
     0
 10
15.493114
 20
34.184352
 30
0.0
 11
15.618734
 21
35.620196
 31
0.0
  0
LINE
  8
0
  6
BYBLOCK
 62
     0
 10
15.421699
 20
33.536531
 30
0.0
 11
15.421699
 21
35.628799
 31
0.0
  0
ARC
  8
0
  6
BYBLOCK
 62
     0
 10
15.421699
 20
33.368072
 30
0.0
 40
2.028227
 50
59.523285
 51
72.261642
  0
ARC
  8
0
  6
BYBLOCK
 62
     0
 10
15.421699
 20
33.368072
 30
0.0
 40
2.028227
 50
102.738358
 51
115.476715
  0
SOLID
  8
0
  6
BYBLOCK
 62
     0
 10
16.024855
 20
35.226344
 30
0.0
 11
16.054425
 21
35.3734
 31
0.0
 12
15.59847
 22
35.388581
 32
0.0
 13
15.59847
 23
35.388581
 33
0.0
  0
SOLID
  8
0
  6
BYBLOCK
 62
     0
 10
14.966156
 20
35.420915
 30
0.0
 11
14.982796
 21
35.271841
 31
0.0
 12
15.421699
 22
35.396299
 32
0.0
 13
15.421699
 23
35.396299
 33
0.0
  0
TEXT
  8
0
  6
BYBLOCK
 62
     0
 10
14.130771
 20
34.704414
 30
0.0
 40
0.3125
  1
5%%D
 41
0.75
  7
TXT
 72
     1
 11
14.287021
 21
34.860664
 31
0.0
 73
     2
  0
POINT
  8
DEFPOINTS
  6
BYBLOCK
 62
     0
 10
15.463511
 20
35.395868
 30
0.0
  0
POINT
  8
DEFPOINTS
  6
BYBLOCK
 62
     0
 10
15.421699
 20
33.368072
 30
0.0
  0
POINT
  8
DEFPOINTS
  6
BYBLOCK
 62
     0
 10
15.421699
 20
33.368072
 30
0.0
  0
POINT
  8
DEFPOINTS
  6
BYBLOCK
 62
     0
 10
15.479496
 20
34.028696
 30
0.0
  0
POINT
  8
DEFPOINTS
  6
BYBLOCK
 62
     0
 10
15.421699
 20
33.380281
 30
0.0
  0
ENDBLK
  8
0
  0
BLOCK
  8
0
  2
*D22
 70
    65
 10
0.0
 20
0.0
 30
0.0
  3
*D
  0
LINE
  8
0
  6
BYBLOCK
 62
     0
 10
20.453949
 20
33.350998
 30
0.0
 11
21.087287
 21
33.350998
 31
0.0
  0
LINE
  8
0
  6
BYBLOCK
 62
     0
 10
20.353567
 20
33.250998
 30
0.0
 11
21.087287
 21
33.250998
 31
0.0
  0
LINE
  8
0
  6
BYBLOCK
 62
     0
 10
20.854787
 20
33.800998
 30
0.0
 11
20.854787
 21
34.250998
 31
0.0
  0
LINE
  8
0
  6
BYBLOCK
 62
     0
 10
20.854787
 20
32.800998
 30
0.0
 11
20.854787
 21
32.350998
 31
0.0
  0
SOLID
  8
0
  6
BYBLOCK
 62
     0
 10
20.779787
 20
33.800998
 30
0.0
 11
20.929787
 21
33.800998
 31
0.0
 12
20.854787
 22
33.350998
 32
0.0
 13
20.854787
 23
33.350998
 33
0.0
  0
SOLID
  8
0
  6
BYBLOCK
 62
     0
 10
20.779787
 20
32.800998
 30
0.0
 11
20.929787
 21
32.800998
 31
0.0
 12
20.854787
 22
33.250998
 32
0.0
 13
20.854787
 23
33.250998
 33
0.0
  0
TEXT
  8
0
  6
BYBLOCK
 62
     0
 10
19.576038
 20
32.194748
 30
0.0
 40
0.3125
  1
0.100
 41
0.75
  7
TXT
 72
     1
 11
19.947131
 21
32.350998
 31
0.0
 73
     2
  0
POINT
  8
DEFPOINTS
  6
BYBLOCK
 62
     0
 10
20.297699
 20
33.350998
 30
0.0
  0
POINT
  8
DEFPOINTS
  6
BYBLOCK
 62
     0
 10
20.197317
 20
33.250998
 30
0.0
  0
POINT
  8
DEFPOINTS
  6
BYBLOCK
 62
     0
 10
20.854787
 20
33.250998
 30
0.0
  0
ENDBLK
  8
0
  0
BLOCK
  8
0
  2
*D23
 70
    65
 10
0.0
 20
0.0
 30
0.0
  3
*D
  0
LINE
  8
0
  6
BYBLOCK
 62
     0
 10
20.188449
 20
33.250998
 30
0.0
 11
22.271476
 21
33.250998
 31
0.0
  0
LINE
  8
0
  6
BYBLOCK
 62
     0
 10
20.293818
 20
35.115998
 30
0.0
 11
22.271476
 21
35.115998
 31
0.0
  0
LINE
  8
0
  6
BYBLOCK
 62
     0
 10
22.038976
 20
32.800998
 30
0.0
 11
22.038976
 21
32.350998
 31
0.0
  0
LINE
  8
0
  6
BYBLOCK
 62
     0
 10
22.038976
 20
35.565998
 30
0.0
 11
22.038976
 21
36.015998
 31
0.0
  0
SOLID
  8
0
  6
BYBLOCK
 62
     0
 10
21.963976
 20
32.800998
 30
0.0
 11
22.113976
 21
32.800998
 31
0.0
 12
22.038976
 22
33.250998
 32
0.0
 13
22.038976
 23
33.250998
 33
0.0
  0
SOLID
  8
0
  6
BYBLOCK
 62
     0
 10
21.963976
 20
35.565998
 30
0.0
 11
22.113976
 21
35.565998
 31
0.0
 12
22.038976
 22
35.115998
 32
0.0
 13
22.038976
 23
35.115998
 33
0.0
  0
TEXT
  8
0
  6
BYBLOCK
 62
     0
 10
21.609289
 20
34.027248
 30
0.0
 40
0.3125
  1
1.865
 41
0.75
  7
TXT
 72
     1
 11
22.038976
 21
34.183498
 31
0.0
 73
     2
  0
POINT
  8
DEFPOINTS
  6
BYBLOCK
 62
     0
 10
20.032199
 20
33.250998
 30
0.0
  0
POINT
  8
DEFPOINTS
  6
BYBLOCK
 62
     0
 10
20.137568
 20
35.115998
 30
0.0
  0
POINT
  8
DEFPOINTS
  6
BYBLOCK
 62
     0
 10
22.038976
 20
35.115998
 30
0.0
  0
ENDBLK
  8
0
  0
BLOCK
  8
0
  2
*D24
 70
    65
 10
0.0
 20
0.0
 30
0.0
  3
*D
  0
LINE
  8
0
  6
BYBLOCK
 62
     0
 10
3.633287
 20
10.603384
 30
0.0
 11
3.498956
 21
10.603384
 31
0.0
  0
LINE
  8
0
  6
BYBLOCK
 62
     0
 10
3.633287
 20
10.503384
 30
0.0
 11
3.498956
 21
10.503384
 31
0.0
  0
LINE
  8
0
  6
BYBLOCK
 62
     0
 10
3.731456
 20
11.053384
 30
0.0
 11
3.731456
 21
11.503384
 31
0.0
  0
LINE
  8
0
  6
BYBLOCK
 62
     0
 10
3.731456
 20
10.053384
 30
0.0
 11
3.731456
 21
9.603384
 31
0.0
  0
LINE
  8
0
  6
BYBLOCK
 62
     0
 10
3.731456
 20
9.603384
 30
0.0
 11
3.281456
 21
9.603384
 31
0.0
  0
SOLID
  8
0
  6
BYBLOCK
 62
     0
 10
3.656456
 20
11.053384
 30
0.0
 11
3.806456
 21
11.053384
 31
0.0
 12
3.731456
 22
10.603384
 32
0.0
 13
3.731456
 23
10.603384
 33
0.0
  0
SOLID
  8
0
  6
BYBLOCK
 62
     0
 10
3.656456
 20
10.053384
 30
0.0
 11
3.806456
 21
10.053384
 31
0.0
 12
3.731456
 22
10.503384
 32
0.0
 13
3.731456
 23
10.503384
 33
0.0
  0
TEXT
  8
0
  6
BYBLOCK
 62
     0
 10
2.314269
 20
9.447134
 30
0.0
 40
0.3125
  1
0.100
 41
0.75
  7
TXT
 72
     1
 11
2.685363
 21
9.603384
 31
0.0
 73
     2
  0
POINT
  8
DEFPOINTS
  6
BYBLOCK
 62
     0
 10
3.789537
 20
10.603384
 30
0.0
  0
POINT
  8
DEFPOINTS
  6
BYBLOCK
 62
     0
 10
3.789537
 20
10.503384
 30
0.0
  0
POINT
  8
DEFPOINTS
  6
BYBLOCK
 62
     0
 10
3.731456
 20
10.503384
 30
0.0
  0
ENDBLK
  8
0
  0
BLOCK
  8
0
  2
*D25
 70
    65
 10
0.0
 20
0.0
 30
0.0
  3
*D
  0
LINE
  8
0
  6
BYBLOCK
 62
     0
 10
4.35194
 20
10.803384
 30
0.0
 11
5.616013
 21
10.803384
 31
0.0
  0
LINE
  8
0
  6
BYBLOCK
 62
     0
 10
4.46494
 20
10.503384
 30
0.0
 11
5.616013
 21
10.503384
 31
0.0
  0
LINE
  8
0
  6
BYBLOCK
 62
     0
 10
5.383513
 20
11.253384
 30
0.0
 11
5.383513
 21
11.703384
 31
0.0
  0
LINE
  8
0
  6
BYBLOCK
 62
     0
 10
5.383513
 20
10.053384
 30
0.0
 11
5.383513
 21
9.603384
 31
0.0
  0
SOLID
  8
0
  6
BYBLOCK
 62
     0
 10
5.308513
 20
11.253384
 30
0.0
 11
5.458513
 21
11.253384
 31
0.0
 12
5.383513
 22
10.803384
 32
0.0
 13
5.383513
 23
10.803384
 33
0.0
  0
SOLID
  8
0
  6
BYBLOCK
 62
     0
 10
5.308513
 20
10.053384
 30
0.0
 11
5.458513
 21
10.053384
 31
0.0
 12
5.383513
 22
10.503384
 32
0.0
 13
5.383513
 23
10.503384
 33
0.0
  0
TEXT
  8
0
  6
BYBLOCK
 62
     0
 10
5.869377
 20
9.447134
 30
0.0
 40
0.3125
  1
0.300
 41
0.75
  7
TXT
 72
     1
 11
6.279533
 21
9.603384
 31
0.0
 73
     2
  0
POINT
  8
DEFPOINTS
  6
BYBLOCK
 62
     0
 10
4.19569
 20
10.803384
 30
0.0
  0
POINT
  8
DEFPOINTS
  6
BYBLOCK
 62
     0
 10
4.30869
 20
10.503384
 30
0.0
  0
POINT
  8
DEFPOINTS
  6
BYBLOCK
 62
     0
 10
5.383513
 20
10.503384
 30
0.0
  0
ENDBLK
  8
0
  0
BLOCK
  8
0
  2
*D26
 70
    65
 10
0.0
 20
0.0
 30
0.0
  3
*D
  0
LINE
  8
0
  6
BYBLOCK
 62
     0
 10
8.12738
 20
14.967134
 30
0.0
 11
8.12738
 21
14.131627
 31
0.0
  0
LINE
  8
0
  6
BYBLOCK
 62
     0
 10
7.90938
 20
14.520377
 30
0.0
 11
7.90938
 21
14.596627
 31
0.0
  0
LINE
  8
0
  6
BYBLOCK
 62
     0
 10
8.57738
 20
14.364127
 30
0.0
 11
9.02738
 21
14.364127
 31
0.0
  0
LINE
  8
0
  6
BYBLOCK
 62
     0
 10
7.45938
 20
14.364127
 30
0.0
 11
7.00938
 21
14.364127
 31
0.0
  0
SOLID
  8
0
  6
BYBLOCK
 62
     0
 10
8.57738
 20
14.439127
 30
0.0
 11
8.57738
 21
14.289127
 31
0.0
 12
8.12738
 22
14.364127
 32
0.0
 13
8.12738
 23
14.364127
 33
0.0
  0
SOLID
  8
0
  6
BYBLOCK
 62
     0
 10
7.45938
 20
14.439127
 30
0.0
 11
7.45938
 21
14.289127
 31
0.0
 12
7.90938
 22
14.364127
 32
0.0
 13
7.90938
 23
14.364127
 33
0.0
  0
TEXT
  8
0
  6
BYBLOCK
 62
     0
 10
5.964067
 20
14.207877
 30
0.0
 40
0.3125
  1
0.218
 41
0.75
  7
TXT
 72
     1
 11
6.374223
 21
14.364127
 31
0.0
 73
     2
  0
POINT
  8
DEFPOINTS
  6
BYBLOCK
 62
     0
 10
8.12738
 20
15.123384
 30
0.0
  0
POINT
  8
DEFPOINTS
  6
BYBLOCK
 62
     0
 10
7.90938
 20
14.364127
 30
0.0
  0
POINT
  8
DEFPOINTS
  6
BYBLOCK
 62
     0
 10
7.90938
 20
14.364127
 30
0.0
  0
ENDBLK
  8
0
  0
BLOCK
  8
0
  2
*D27
 70
    65
 10
0.0
 20
0.0
 30
0.0
  3
*D
  0
LINE
  8
0
  6
BYBLOCK
 62
     0
 10
13.798022
 20
10.803384
 30
0.0
 11
15.066935
 21
10.803384
 31
0.0
  0
LINE
  8
0
  6
BYBLOCK
 62
     0
 10
13.911022
 20
10.503384
 30
0.0
 11
15.066935
 21
10.503384
 31
0.0
  0
LINE
  8
0
  6
BYBLOCK
 62
     0
 10
14.834435
 20
11.253384
 30
0.0
 11
14.834435
 21
11.703384
 31
0.0
  0
LINE
  8
0
  6
BYBLOCK
 62
     0
 10
14.834435
 20
10.053384
 30
0.0
 11
14.834435
 21
9.603384
 31
0.0
  0
LINE
  8
0
  6
BYBLOCK
 62
     0
 10
14.834435
 20
9.603384
 30
0.0
 11
14.384435
 21
9.603384
 31
0.0
  0
SOLID
  8
0
  6
BYBLOCK
 62
     0
 10
14.759435
 20
11.253384
 30
0.0
 11
14.909435
 21
11.253384
 31
0.0
 12
14.834435
 22
10.803384
 32
0.0
 13
14.834435
 23
10.803384
 33
0.0
  0
SOLID
  8
0
  6
BYBLOCK
 62
     0
 10
14.759435
 20
10.053384
 30
0.0
 11
14.909435
 21
10.053384
 31
0.0
 12
14.834435
 22
10.503384
 32
0.0
 13
14.834435
 23
10.503384
 33
0.0
  0
TEXT
  8
0
  6
BYBLOCK
 62
     0
 10
13.339122
 20
9.447134
 30
0.0
 40
0.3125
  1
0.300
 41
0.75
  7
TXT
 72
     1
 11
13.749278
 21
9.603384
 31
0.0
 73
     2
  0
POINT
  8
DEFPOINTS
  6
BYBLOCK
 62
     0
 10
13.641772
 20
10.803384
 30
0.0
  0
POINT
  8
DEFPOINTS
  6
BYBLOCK
 62
     0
 10
13.754772
 20
10.503384
 30
0.0
  0
POINT
  8
DEFPOINTS
  6
BYBLOCK
 62
     0
 10
14.834435
 20
10.503384
 30
0.0
  0
ENDBLK
  8
0
  0
BLOCK
  8
0
  2
*D28
 70
    65
 10
0.0
 20
0.0
 30
0.0
  3
*D
  0
LINE
  8
0
  6
BYBLOCK
 62
     0
 10
13.798022
 20
15.233384
 30
0.0
 11
15.066935
 21
15.233384
 31
0.0
  0
LINE
  8
0
  6
BYBLOCK
 62
     0
 10
13.911022
 20
15.533384
 30
0.0
 11
15.066935
 21
15.533384
 31
0.0
  0
LINE
  8
0
  6
BYBLOCK
 62
     0
 10
14.834435
 20
14.783384
 30
0.0
 11
14.834435
 21
14.333384
 31
0.0
  0
LINE
  8
0
  6
BYBLOCK
 62
     0
 10
14.834435
 20
15.983384
 30
0.0
 11
14.834435
 21
16.433384
 31
0.0
  0
LINE
  8
0
  6
BYBLOCK
 62
     0
 10
14.834435
 20
16.433384
 30
0.0
 11
15.284435
 21
16.433384
 31
0.0
  0
SOLID
  8
0
  6
BYBLOCK
 62
     0
 10
14.759435
 20
14.783384
 30
0.0
 11
14.909435
 21
14.783384
 31
0.0
 12
14.834435
 22
15.233384
 32
0.0
 13
14.834435
 23
15.233384
 33
0.0
  0
SOLID
  8
0
  6
BYBLOCK
 62
     0
 10
14.759435
 20
15.983384
 30
0.0
 11
14.909435
 21
15.983384
 31
0.0
 12
14.834435
 22
15.533384
 32
0.0
 13
14.834435
 23
15.533384
 33
0.0
  0
TEXT
  8
0
  6
BYBLOCK
 62
     0
 10
15.509435
 20
16.277134
 30
0.0
 40
0.3125
  1
0.300
 41
0.75
  7
TXT
 72
     1
 11
15.919591
 21
16.433384
 31
0.0
 73
     2
  0
POINT
  8
DEFPOINTS
  6
BYBLOCK
 62
     0
 10
13.641772
 20
15.233384
 30
0.0
  0
POINT
  8
DEFPOINTS
  6
BYBLOCK
 62
     0
 10
13.754772
 20
15.533384
 30
0.0
  0
POINT
  8
DEFPOINTS
  6
BYBLOCK
 62
     0
 10
14.834435
 20
15.533384
 30
0.0
  0
ENDBLK
  8
0
  0
BLOCK
  8
0
  2
*D29
 70
    65
 10
0.0
 20
0.0
 30
0.0
  3
*D
  0
LINE
  8
0
  6
BYBLOCK
 62
     0
 10
8.12738
 20
11.069634
 30
0.0
 11
8.12738
 21
11.905142
 31
0.0
  0
LINE
  8
0
  6
BYBLOCK
 62
     0
 10
7.90938
 20
11.828892
 30
0.0
 11
7.90938
 21
11.905142
 31
0.0
  0
LINE
  8
0
  6
BYBLOCK
 62
     0
 10
8.57738
 20
11.672642
 30
0.0
 11
9.02738
 21
11.672642
 31
0.0
  0
LINE
  8
0
  6
BYBLOCK
 62
     0
 10
7.45938
 20
11.672642
 30
0.0
 11
7.00938
 21
11.672642
 31
0.0
  0
SOLID
  8
0
  6
BYBLOCK
 62
     0
 10
8.57738
 20
11.747642
 30
0.0
 11
8.57738
 21
11.597642
 31
0.0
 12
8.12738
 22
11.672642
 32
0.0
 13
8.12738
 23
11.672642
 33
0.0
  0
SOLID
  8
0
  6
BYBLOCK
 62
     0
 10
7.45938
 20
11.747642
 30
0.0
 11
7.45938
 21
11.597642
 31
0.0
 12
7.90938
 22
11.672642
 32
0.0
 13
7.90938
 23
11.672642
 33
0.0
  0
TEXT
  8
0
  6
BYBLOCK
 62
     0
 10
5.964067
 20
11.516392
 30
0.0
 40
0.3125
  1
0.218
 41
0.75
  7
TXT
 72
     1
 11
6.374223
 21
11.672642
 31
0.0
 73
     2
  0
POINT
  8
DEFPOINTS
  6
BYBLOCK
 62
     0
 10
8.12738
 20
10.913384
 30
0.0
  0
POINT
  8
DEFPOINTS
  6
BYBLOCK
 62
     0
 10
7.90938
 20
11.672642
 30
0.0
  0
POINT
  8
DEFPOINTS
  6
BYBLOCK
 62
     0
 10
7.90938
 20
11.672642
 30
0.0
  0
ENDBLK
  8
0
  0
BLOCK
  8
0
  2
*D30
 70
    65
 10
0.0
 20
0.0
 30
0.0
  3
*D
  0
LINE
  8
0
  6
BYBLOCK
 62
     0
 10
4.19569
 20
10.959634
 30
0.0
 11
4.19569
 21
12.586716
 31
0.0
  0
LINE
  8
0
  6
BYBLOCK
 62
     0
 10
4.49569
 20
12.210868
 30
0.0
 11
4.49569
 21
12.121716
 31
0.0
  0
LINE
  8
0
  6
BYBLOCK
 62
     0
 10
3.74569
 20
12.354216
 30
0.0
 11
3.29569
 21
12.354216
 31
0.0
  0
LINE
  8
0
  6
BYBLOCK
 62
     0
 10
4.94569
 20
12.354216
 30
0.0
 11
5.39569
 21
12.354216
 31
0.0
  0
SOLID
  8
0
  6
BYBLOCK
 62
     0
 10
3.74569
 20
12.429216
 30
0.0
 11
3.74569
 21
12.279216
 31
0.0
 12
4.19569
 22
12.354216
 32
0.0
 13
4.19569
 23
12.354216
 33
0.0
  0
SOLID
  8
0
  6
BYBLOCK
 62
     0
 10
4.94569
 20
12.429216
 30
0.0
 11
4.94569
 21
12.279216
 31
0.0
 12
4.49569
 22
12.354216
 32
0.0
 13
4.49569
 23
12.354216
 33
0.0
  0
TEXT
  8
0
  6
BYBLOCK
 62
     0
 10
5.62069
 20
12.197966
 30
0.0
 40
0.3125
  1
0.300
 41
0.75
  7
TXT
 72
     1
 11
6.030846
 21
12.354216
 31
0.0
 73
     2
  0
POINT
  8
DEFPOINTS
  6
BYBLOCK
 62
     0
 10
4.19569
 20
10.803384
 30
0.0
  0
POINT
  8
DEFPOINTS
  6
BYBLOCK
 62
     0
 10
4.49569
 20
12.367118
 30
0.0
  0
POINT
  8
DEFPOINTS
  6
BYBLOCK
 62
     0
 10
4.49569
 20
12.354216
 30
0.0
  0
ENDBLK
  8
0
  0
BLOCK
  8
0
  2
*D31
 70
    65
 10
0.0
 20
0.0
 30
0.0
  3
*D
  0
LINE
  8
0
  6
BYBLOCK
 62
     0
 10
23.561679
 20
10.49615
 30
0.0
 11
23.561679
 21
9.366328
 31
0.0
  0
LINE
  8
0
  6
BYBLOCK
 62
     0
 10
21.961908
 20
10.442134
 30
0.0
 11
21.961908
 21
9.366328
 31
0.0
  0
LINE
  8
0
  6
BYBLOCK
 62
     0
 10
24.011679
 20
9.598828
 30
0.0
 11
24.461679
 21
9.598828
 31
0.0
  0
LINE
  8
0
  6
BYBLOCK
 62
     0
 10
21.511908
 20
9.598828
 30
0.0
 11
21.061908
 21
9.598828
 31
0.0
  0
SOLID
  8
0
  6
BYBLOCK
 62
     0
 10
24.011679
 20
9.673828
 30
0.0
 11
24.011679
 21
9.523828
 31
0.0
 12
23.561679
 22
9.598828
 32
0.0
 13
23.561679
 23
9.598828
 33
0.0
  0
SOLID
  8
0
  6
BYBLOCK
 62
     0
 10
21.511908
 20
9.673828
 30
0.0
 11
21.511908
 21
9.523828
 31
0.0
 12
21.961908
 22
9.598828
 32
0.0
 13
21.961908
 23
9.598828
 33
0.0
  0
TEXT
  8
0
  6
BYBLOCK
 62
     0
 10
22.683668
 20
9.442578
 30
0.0
 40
0.3125
  1
A
 41
0.75
  7
TXT
 72
     1
 11
22.761793
 21
9.598828
 31
0.0
 73
     2
  0
POINT
  8
DEFPOINTS
  6
BYBLOCK
 62
     0
 10
23.561679
 20
10.6524
 30
0.0
  0
POINT
  8
DEFPOINTS
  6
BYBLOCK
 62
     0
 10
21.961908
 20
10.598384
 30
0.0
  0
POINT
  8
DEFPOINTS
  6
BYBLOCK
 62
     0
 10
21.961908
 20
9.598828
 30
0.0
  0
ENDBLK
  8
0
  0
BLOCK
  8
0
  2
*D32
 70
    65
 10
0.0
 20
0.0
 30
0.0
  3
*D
  0
LINE
  8
0
  6
BYBLOCK
 62
     0
 10
4.49569
 20
13.01075
 30
0.0
 11
4.49569
 21
13.998134
 31
0.0
  0
LINE
  8
0
  6
BYBLOCK
 62
     0
 10
1.97069
 20
13.01075
 30
0.0
 11
1.97069
 21
13.998134
 31
0.0
  0
LINE
  8
0
  6
BYBLOCK
 62
     0
 10
4.94569
 20
13.765634
 30
0.0
 11
5.39569
 21
13.765634
 31
0.0
  0
LINE
  8
0
  6
BYBLOCK
 62
     0
 10
1.52069
 20
13.765634
 30
0.0
 11
1.07069
 21
13.765634
 31
0.0
  0
SOLID
  8
0
  6
BYBLOCK
 62
     0
 10
4.94569
 20
13.840634
 30
0.0
 11
4.94569
 21
13.690634
 31
0.0
 12
4.49569
 22
13.765634
 32
0.0
 13
4.49569
 23
13.765634
 33
0.0
  0
SOLID
  8
0
  6
BYBLOCK
 62
     0
 10
1.52069
 20
13.840634
 30
0.0
 11
1.52069
 21
13.690634
 31
0.0
 12
1.97069
 22
13.765634
 32
0.0
 13
1.97069
 23
13.765634
 33
0.0
  0
TEXT
  8
0
  6
BYBLOCK
 62
     0
 10
2.76444
 20
13.609384
 30
0.0
 40
0.3125
  1
2.525
 41
0.75
  7
TXT
 72
     1
 11
3.23319
 21
13.765634
 31
0.0
 73
     2
  0
POINT
  8
DEFPOINTS
  6
BYBLOCK
 62
     0
 10
4.49569
 20
12.8545
 30
0.0
  0
POINT
  8
DEFPOINTS
  6
BYBLOCK
 62
     0
 10
1.97069
 20
12.8545
 30
0.0
  0
POINT
  8
DEFPOINTS
  6
BYBLOCK
 62
     0
 10
1.97069
 20
13.765634
 30
0.0
  0
ENDBLK
  8
0
  0
BLOCK
  8
0
  2
*D33
 70
    65
 10
0.0
 20
0.0
 30
0.0
  3
*D
  0
LINE
  8
0
  6
BYBLOCK
 62
     0
 10
2.00144
 20
13.0415
 30
0.0
 11
0.964406
 21
13.0415
 31
0.0
  0
LINE
  8
0
  6
BYBLOCK
 62
     0
 10
2.00144
 20
8.0115
 30
0.0
 11
0.964406
 21
8.0115
 31
0.0
  0
LINE
  8
0
  6
BYBLOCK
 62
     0
 10
1.196906
 20
12.5915
 30
0.0
 11
1.196906
 21
10.90775
 31
0.0
  0
LINE
  8
0
  6
BYBLOCK
 62
     0
 10
1.196906
 20
8.4615
 30
0.0
 11
1.196906
 21
10.14525
 31
0.0
  0
SOLID
  8
0
  6
BYBLOCK
 62
     0
 10
1.121906
 20
12.5915
 30
0.0
 11
1.271906
 21
12.5915
 31
0.0
 12
1.196906
 22
13.0415
 32
0.0
 13
1.196906
 23
13.0415
 33
0.0
  0
SOLID
  8
0
  6
BYBLOCK
 62
     0
 10
1.121906
 20
8.4615
 30
0.0
 11
1.271906
 21
8.4615
 31
0.0
 12
1.196906
 22
8.0115
 32
0.0
 13
1.196906
 23
8.0115
 33
0.0
  0
TEXT
  8
0
  6
BYBLOCK
 62
     0
 10
0.767218
 20
10.37025
 30
0.0
 40
0.3125
  1
5.030
 41
0.75
  7
TXT
 72
     1
 11
1.196906
 21
10.5265
 31
0.0
 73
     2
  0
POINT
  8
DEFPOINTS
  6
BYBLOCK
 62
     0
 10
2.15769
 20
13.0415
 30
0.0
  0
POINT
  8
DEFPOINTS
  6
BYBLOCK
 62
     0
 10
2.15769
 20
8.0115
 30
0.0
  0
POINT
  8
DEFPOINTS
  6
BYBLOCK
 62
     0
 10
1.196906
 20
8.0115
 30
0.0
  0
ENDBLK
  8
0
  0
BLOCK
  8
0
  2
*D34
 70
    65
 10
0.0
 20
0.0
 30
0.0
  3
*D
  0
LINE
  8
0
  6
BYBLOCK
 62
     0
 10
19.524571
 20
13.19775
 30
0.0
 11
19.524571
 21
15.091591
 31
0.0
  0
LINE
  8
0
  6
BYBLOCK
 62
     0
 10
19.639571
 20
13.10275
 30
0.0
 11
19.639571
 21
15.091591
 31
0.0
  0
LINE
  8
0
  6
BYBLOCK
 62
     0
 10
19.074571
 20
14.859091
 30
0.0
 11
18.624571
 21
14.859091
 31
0.0
  0
LINE
  8
0
  6
BYBLOCK
 62
     0
 10
20.089571
 20
14.859091
 30
0.0
 11
20.539571
 21
14.859091
 31
0.0
  0
SOLID
  8
0
  6
BYBLOCK
 62
     0
 10
19.074571
 20
14.934091
 30
0.0
 11
19.074571
 21
14.784091
 31
0.0
 12
19.524571
 22
14.859091
 32
0.0
 13
19.524571
 23
14.859091
 33
0.0
  0
SOLID
  8
0
  6
BYBLOCK
 62
     0
 10
20.089571
 20
14.934091
 30
0.0
 11
20.089571
 21
14.784091
 31
0.0
 12
19.639571
 22
14.859091
 32
0.0
 13
19.639571
 23
14.859091
 33
0.0
  0
TEXT
  8
0
  6
BYBLOCK
 62
     0
 10
20.764571
 20
14.702841
 30
0.0
 40
0.3125
  1
0.115
 41
0.75
  7
TXT
 72
     1
 11
21.135665
 21
14.859091
 31
0.0
 73
     2
  0
POINT
  8
DEFPOINTS
  6
BYBLOCK
 62
     0
 10
19.524571
 20
13.0415
 30
0.0
  0
POINT
  8
DEFPOINTS
  6
BYBLOCK
 62
     0
 10
19.639571
 20
12.9465
 30
0.0
  0
POINT
  8
DEFPOINTS
  6
BYBLOCK
 62
     0
 10
19.639571
 20
14.859091
 30
0.0
  0
ENDBLK
  8
0
  0
BLOCK
  8
0
  2
*D35
 70
    65
 10
0.0
 20
0.0
 30
0.0
  3
*D
  0
LINE
  8
0
  6
BYBLOCK
 62
     0
 10
8.449536
 20
7.85525
 30
0.0
 11
8.449536
 21
6.86548
 31
0.0
  0
LINE
  8
0
  6
BYBLOCK
 62
     0
 10
9.949307
 20
8.004266
 30
0.0
 11
9.949307
 21
6.86548
 31
0.0
  0
LINE
  8
0
  6
BYBLOCK
 62
     0
 10
7.999536
 20
7.09798
 30
0.0
 11
7.549536
 21
7.09798
 31
0.0
  0
LINE
  8
0
  6
BYBLOCK
 62
     0
 10
10.399307
 20
7.09798
 30
0.0
 11
10.849307
 21
7.09798
 31
0.0
  0
SOLID
  8
0
  6
BYBLOCK
 62
     0
 10
7.999536
 20
7.17298
 30
0.0
 11
7.999536
 21
7.02298
 31
0.0
 12
8.449536
 22
7.09798
 32
0.0
 13
8.449536
 23
7.09798
 33
0.0
  0
SOLID
  8
0
  6
BYBLOCK
 62
     0
 10
10.399307
 20
7.17298
 30
0.0
 11
10.399307
 21
7.02298
 31
0.0
 12
9.949307
 22
7.09798
 32
0.0
 13
9.949307
 23
7.09798
 33
0.0
  0
TEXT
  8
0
  6
BYBLOCK
 62
     0
 10
9.121296
 20
6.94173
 30
0.0
 40
0.3125
  1
B
 41
0.75
  7
TXT
 72
     1
 11
9.199421
 21
7.09798
 31
0.0
 73
     2
  0
POINT
  8
DEFPOINTS
  6
BYBLOCK
 62
     0
 10
8.449536
 20
8.0115
 30
0.0
  0
POINT
  8
DEFPOINTS
  6
BYBLOCK
 62
     0
 10
9.949307
 20
8.160516
 30
0.0
  0
POINT
  8
DEFPOINTS
  6
BYBLOCK
 62
     0
 10
9.949307
 20
7.09798
 30
0.0
  0
ENDBLK
  8
0
  0
BLOCK
  8
0
  2
*D36
 70
    65
 10
0.0
 20
0.0
 30
0.0
  3
*D
  0
LINE
  8
0
  6
BYBLOCK
 62
     0
 10
12.976668
 20
11.23735
 30
0.0
 11
12.976668
 21
11.320752
 31
0.0
  0
LINE
  8
0
  6
BYBLOCK
 62
     0
 10
12.931668
 20
11.23735
 30
0.0
 11
12.931668
 21
11.320752
 31
0.0
  0
LINE
  8
0
  6
BYBLOCK
 62
     0
 10
13.426668
 20
11.088252
 30
0.0
 11
13.876668
 21
11.088252
 31
0.0
  0
LINE
  8
0
  6
BYBLOCK
 62
     0
 10
12.481668
 20
11.088252
 30
0.0
 11
12.031668
 21
11.088252
 31
0.0
  0
SOLID
  8
0
  6
BYBLOCK
 62
     0
 10
13.426668
 20
11.163252
 30
0.0
 11
13.426668
 21
11.013252
 31
0.0
 12
12.976668
 22
11.088252
 32
0.0
 13
12.976668
 23
11.088252
 33
0.0
  0
SOLID
  8
0
  6
BYBLOCK
 62
     0
 10
12.481668
 20
11.163252
 30
0.0
 11
12.481668
 21
11.013252
 31
0.0
 12
12.931668
 22
11.088252
 32
0.0
 13
12.931668
 23
11.088252
 33
0.0
  0
TEXT
  8
0
  6
BYBLOCK
 62
     0
 10
10.947293
 20
10.932002
 30
0.0
 40
0.3125
  1
0.045
 41
0.75
  7
TXT
 72
     1
 11
11.37698
 21
11.088252
 31
0.0
 73
     2
  0
POINT
  8
DEFPOINTS
  6
BYBLOCK
 62
     0
 10
12.976668
 20
11.0811
 30
0.0
  0
POINT
  8
DEFPOINTS
  6
BYBLOCK
 62
     0
 10
12.931668
 20
11.0811
 30
0.0
  0
POINT
  8
DEFPOINTS
  6
BYBLOCK
 62
     0
 10
12.931668
 20
11.088252
 30
0.0
  0
ENDBLK
  8
0
  0
BLOCK
  8
0
  2
*D37
 70
    65
 10
0.0
 20
0.0
 30
0.0
  3
*D
  0
LINE
  8
0
  6
BYBLOCK
 62
     0
 10
12.976668
 20
12.174352
 30
0.0
 11
12.976668
 21
12.257755
 31
0.0
  0
LINE
  8
0
  6
BYBLOCK
 62
     0
 10
12.831668
 20
12.174352
 30
0.0
 11
12.831668
 21
12.257755
 31
0.0
  0
LINE
  8
0
  6
BYBLOCK
 62
     0
 10
13.426668
 20
12.025255
 30
0.0
 11
13.876668
 21
12.025255
 31
0.0
  0
LINE
  8
0
  6
BYBLOCK
 62
     0
 10
12.381668
 20
12.025255
 30
0.0
 11
11.931668
 21
12.025255
 31
0.0
  0
SOLID
  8
0
  6
BYBLOCK
 62
     0
 10
13.426668
 20
12.100255
 30
0.0
 11
13.426668
 21
11.950255
 31
0.0
 12
12.976668
 22
12.025255
 32
0.0
 13
12.976668
 23
12.025255
 33
0.0
  0
SOLID
  8
0
  6
BYBLOCK
 62
     0
 10
12.381668
 20
12.100255
 30
0.0
 11
12.381668
 21
11.950255
 31
0.0
 12
12.831668
 22
12.025255
 32
0.0
 13
12.831668
 23
12.025255
 33
0.0
  0
TEXT
  8
0
  6
BYBLOCK
 62
     0
 10
10.886355
 20
11.869005
 30
0.0
 40
0.3125
  1
0.145
 41
0.75
  7
TXT
 72
     1
 11
11.296511
 21
12.025255
 31
0.0
 73
     2
  0
POINT
  8
DEFPOINTS
  6
BYBLOCK
 62
     0
 10
12.976668
 20
12.018102
 30
0.0
  0
POINT
  8
DEFPOINTS
  6
BYBLOCK
 62
     0
 10
12.831668
 20
12.018102
 30
0.0
  0
POINT
  8
DEFPOINTS
  6
BYBLOCK
 62
     0
 10
12.831668
 20
12.025255
 30
0.0
  0
ENDBLK
  8
0
  0
BLOCK
  8
0
  2
*D38
 70
    65
 10
0.0
 20
0.0
 30
0.0
  3
*D
  0
LINE
  8
0
  6
BYBLOCK
 62
     0
 10
15.056668
 20
8.46775
 30
0.0
 11
15.056668
 21
10.065956
 31
0.0
  0
LINE
  8
0
  6
BYBLOCK
 62
     0
 10
15.356668
 20
9.699408
 30
0.0
 11
15.356668
 21
10.065956
 31
0.0
  0
LINE
  8
0
  6
BYBLOCK
 62
     0
 10
14.606668
 20
9.833456
 30
0.0
 11
14.156668
 21
9.833456
 31
0.0
  0
LINE
  8
0
  6
BYBLOCK
 62
     0
 10
15.806668
 20
9.833456
 30
0.0
 11
16.256668
 21
9.833456
 31
0.0
  0
SOLID
  8
0
  6
BYBLOCK
 62
     0
 10
14.606668
 20
9.908456
 30
0.0
 11
14.606668
 21
9.758456
 31
0.0
 12
15.056668
 22
9.833456
 32
0.0
 13
15.056668
 23
9.833456
 33
0.0
  0
SOLID
  8
0
  6
BYBLOCK
 62
     0
 10
15.806668
 20
9.908456
 30
0.0
 11
15.806668
 21
9.758456
 31
0.0
 12
15.356668
 22
9.833456
 32
0.0
 13
15.356668
 23
9.833456
 33
0.0
  0
TEXT
  8
0
  6
BYBLOCK
 62
     0
 10
16.481668
 20
9.677206
 30
0.0
 40
0.3125
  1
0.300
 41
0.75
  7
TXT
 72
     1
 11
16.891824
 21
9.833456
 31
0.0
 73
     2
  0
POINT
  8
DEFPOINTS
  6
BYBLOCK
 62
     0
 10
15.056668
 20
8.3115
 30
0.0
  0
POINT
  8
DEFPOINTS
  6
BYBLOCK
 62
     0
 10
15.356668
 20
9.543158
 30
0.0
  0
POINT
  8
DEFPOINTS
  6
BYBLOCK
 62
     0
 10
15.356668
 20
9.833456
 30
0.0
  0
ENDBLK
  8
0
  0
BLOCK
  8
0
  2
*D39
 70
    65
 10
0.0
 20
0.0
 30
0.0
  3
*D
  0
LINE
  8
0
  6
BYBLOCK
 62
     0
 10
4.35194
 20
12.7415
 30
0.0
 11
5.86124
 21
12.7415
 31
0.0
  0
LINE
  8
0
  6
BYBLOCK
 62
     0
 10
4.46494
 20
13.0415
 30
0.0
 11
5.86124
 21
13.0415
 31
0.0
  0
LINE
  8
0
  6
BYBLOCK
 62
     0
 10
5.62874
 20
12.2915
 30
0.0
 11
5.62874
 21
11.8415
 31
0.0
  0
LINE
  8
0
  6
BYBLOCK
 62
     0
 10
5.62874
 20
13.4915
 30
0.0
 11
5.62874
 21
13.9415
 31
0.0
  0
SOLID
  8
0
  6
BYBLOCK
 62
     0
 10
5.55374
 20
12.2915
 30
0.0
 11
5.70374
 21
12.2915
 31
0.0
 12
5.62874
 22
12.7415
 32
0.0
 13
5.62874
 23
12.7415
 33
0.0
  0
SOLID
  8
0
  6
BYBLOCK
 62
     0
 10
5.55374
 20
13.4915
 30
0.0
 11
5.70374
 21
13.4915
 31
0.0
 12
5.62874
 22
13.0415
 32
0.0
 13
5.62874
 23
13.0415
 33
0.0
  0
TEXT
  8
0
  6
BYBLOCK
 62
     0
 10
6.114604
 20
13.78525
 30
0.0
 40
0.3125
  1
0.300
 41
0.75
  7
TXT
 72
     1
 11
6.52476
 21
13.9415
 31
0.0
 73
     2
  0
POINT
  8
DEFPOINTS
  6
BYBLOCK
 62
     0
 10
4.19569
 20
12.7415
 30
0.0
  0
POINT
  8
DEFPOINTS
  6
BYBLOCK
 62
     0
 10
4.30869
 20
13.0415
 30
0.0
  0
POINT
  8
DEFPOINTS
  6
BYBLOCK
 62
     0
 10
5.62874
 20
13.0415
 30
0.0
  0
ENDBLK
  8
0
  0
BLOCK
  8
0
  2
*D40
 70
    65
 10
0.0
 20
0.0
 30
0.0
  3
*D
  0
LINE
  8
0
  6
BYBLOCK
 62
     0
 10
19.314243
 20
7.85525
 30
0.0
 11
19.314243
 21
6.869606
 31
0.0
  0
LINE
  8
0
  6
BYBLOCK
 62
     0
 10
19.269243
 20
7.95525
 30
0.0
 11
19.269243
 21
6.869606
 31
0.0
  0
LINE
  8
0
  6
BYBLOCK
 62
     0
 10
19.764243
 20
7.102106
 30
0.0
 11
20.214243
 21
7.102106
 31
0.0
  0
LINE
  8
0
  6
BYBLOCK
 62
     0
 10
18.819243
 20
7.102106
 30
0.0
 11
18.369243
 21
7.102106
 31
0.0
  0
SOLID
  8
0
  6
BYBLOCK
 62
     0
 10
19.764243
 20
7.177106
 30
0.0
 11
19.764243
 21
7.027106
 31
0.0
 12
19.314243
 22
7.102106
 32
0.0
 13
19.314243
 23
7.102106
 33
0.0
  0
SOLID
  8
0
  6
BYBLOCK
 62
     0
 10
18.819243
 20
7.177106
 30
0.0
 11
18.819243
 21
7.027106
 31
0.0
 12
19.269243
 22
7.102106
 32
0.0
 13
19.269243
 23
7.102106
 33
0.0
  0
TEXT
  8
0
  6
BYBLOCK
 62
     0
 10
17.284868
 20
6.945856
 30
0.0
 40
0.3125
  1
0.045
 41
0.75
  7
TXT
 72
     1
 11
17.714556
 21
7.102106
 31
0.0
 73
     2
  0
POINT
  8
DEFPOINTS
  6
BYBLOCK
 62
     0
 10
19.314243
 20
8.0115
 30
0.0
  0
POINT
  8
DEFPOINTS
  6
BYBLOCK
 62
     0
 10
19.269243
 20
8.1115
 30
0.0
  0
POINT
  8
DEFPOINTS
  6
BYBLOCK
 62
     0
 10
19.269243
 20
7.102106
 30
0.0
  0
ENDBLK
  8
0
  0
BLOCK
  8
0
  2
*D41
 70
    65
 10
0.0
 20
0.0
 30
0.0
  3
*D
  0
LINE
  8
0
  6
BYBLOCK
 62
     0
 10
19.157993
 20
13.0415
 30
0.0
 11
17.971599
 21
13.0415
 31
0.0
  0
LINE
  8
0
  6
BYBLOCK
 62
     0
 10
19.112993
 20
12.9415
 30
0.0
 11
17.971599
 21
12.9415
 31
0.0
  0
LINE
  8
0
  6
BYBLOCK
 62
     0
 10
18.204099
 20
13.4915
 30
0.0
 11
18.204099
 21
13.9415
 31
0.0
  0
LINE
  8
0
  6
BYBLOCK
 62
     0
 10
18.204099
 20
12.4915
 30
0.0
 11
18.204099
 21
12.0415
 31
0.0
  0
LINE
  8
0
  6
BYBLOCK
 62
     0
 10
18.204099
 20
12.0415
 30
0.0
 11
17.754099
 21
12.0415
 31
0.0
  0
SOLID
  8
0
  6
BYBLOCK
 62
     0
 10
18.129099
 20
13.4915
 30
0.0
 11
18.279099
 21
13.4915
 31
0.0
 12
18.204099
 22
13.0415
 32
0.0
 13
18.204099
 23
13.0415
 33
0.0
  0
SOLID
  8
0
  6
BYBLOCK
 62
     0
 10
18.129099
 20
12.4915
 30
0.0
 11
18.279099
 21
12.4915
 31
0.0
 12
18.204099
 22
12.9415
 32
0.0
 13
18.204099
 23
12.9415
 33
0.0
  0
TEXT
  8
0
  6
BYBLOCK
 62
     0
 10
16.786912
 20
11.88525
 30
0.0
 40
0.3125
  1
0.100
 41
0.75
  7
TXT
 72
     1
 11
17.158006
 21
12.0415
 31
0.0
 73
     2
  0
POINT
  8
DEFPOINTS
  6
BYBLOCK
 62
     0
 10
19.314243
 20
13.0415
 30
0.0
  0
POINT
  8
DEFPOINTS
  6
BYBLOCK
 62
     0
 10
19.269243
 20
12.9415
 30
0.0
  0
POINT
  8
DEFPOINTS
  6
BYBLOCK
 62
     0
 10
18.204099
 20
12.9415
 30
0.0
  0
ENDBLK
  8
0
  0
BLOCK
  8
0
  2
*D42
 70
    65
 10
0.0
 20
0.0
 30
0.0
  3
*D
  0
LINE
  8
0
  6
BYBLOCK
 62
     0
 10
19.269243
 20
11.308776
 30
0.0
 11
19.269243
 21
10.985197
 31
0.0
  0
LINE
  8
0
  6
BYBLOCK
 62
     0
 10
19.159243
 20
12.45525
 30
0.0
 11
19.159243
 21
10.985197
 31
0.0
  0
LINE
  8
0
  6
BYBLOCK
 62
     0
 10
19.719243
 20
11.217697
 30
0.0
 11
20.169243
 21
11.217697
 31
0.0
  0
LINE
  8
0
  6
BYBLOCK
 62
     0
 10
18.709243
 20
11.217697
 30
0.0
 11
18.259243
 21
11.217697
 31
0.0
  0
SOLID
  8
0
  6
BYBLOCK
 62
     0
 10
19.719243
 20
11.292697
 30
0.0
 11
19.719243
 21
11.142697
 31
0.0
 12
19.269243
 22
11.217697
 32
0.0
 13
19.269243
 23
11.217697
 33
0.0
  0
SOLID
  8
0
  6
BYBLOCK
 62
     0
 10
18.709243
 20
11.292697
 30
0.0
 11
18.709243
 21
11.142697
 31
0.0
 12
19.159243
 22
11.217697
 32
0.0
 13
19.159243
 23
11.217697
 33
0.0
  0
TEXT
  8
0
  6
BYBLOCK
 62
     0
 10
17.331118
 20
11.061447
 30
0.0
 40
0.3125
  1
0.110
 41
0.75
  7
TXT
 72
     1
 11
17.682681
 21
11.217697
 31
0.0
 73
     2
  0
POINT
  8
DEFPOINTS
  6
BYBLOCK
 62
     0
 10
19.269243
 20
11.465026
 30
0.0
  0
POINT
  8
DEFPOINTS
  6
BYBLOCK
 62
     0
 10
19.159243
 20
12.6115
 30
0.0
  0
POINT
  8
DEFPOINTS
  6
BYBLOCK
 62
     0
 10
19.159243
 20
11.217697
 30
0.0
  0
ENDBLK
  8
0
  0
BLOCK
  8
0
  2
*D43
 70
    65
 10
0.0
 20
0.0
 30
0.0
  3
*D
  0
LINE
  8
0
  6
BYBLOCK
 62
     0
 10
10.502183
 20
13.014739
 30
0.0
 11
11.334901
 21
13.000204
 31
0.0
  0
LINE
  8
0
  6
BYBLOCK
 62
     0
 10
9.141709
 20
13.0415
 30
0.0
 11
11.335261
 21
13.0415
 31
0.0
  0
ARC
  8
0
  6
BYBLOCK
 62
     0
 10
8.969003
 20
13.0415
 30
0.0
 40
2.133757
 50
334.788136
 51
346.894068
  0
ARC
  8
0
  6
BYBLOCK
 62
     0
 10
8.969003
 20
13.0415
 30
0.0
 40
2.133757
 50
12.105932
 51
24.211864
  0
SOLID
  8
0
  6
BYBLOCK
 62
     0
 10
10.972749
 20
12.566875
 30
0.0
 11
11.121614
 21
12.548457
 31
0.0
 12
11.102436
 22
13.004261
 32
0.0
 13
11.102436
 23
13.004261
 33
0.0
  0
SOLID
  8
0
  6
BYBLOCK
 62
     0
 10
11.129891
 20
13.4969
 30
0.0
 11
10.980728
 21
13.481083
 31
0.0
 12
11.102761
 22
13.0415
 32
0.0
 13
11.102761
 23
13.0415
 33
0.0
  0
TEXT
  8
0
  6
BYBLOCK
 62
     0
 10
10.616638
 20
13.776407
 30
0.0
 40
0.3125
  1
1%%D
 41
0.75
  7
TXT
 72
     1
 11
10.733826
 21
13.932657
 31
0.0
 73
     2
  0
POINT
  8
DEFPOINTS
  6
BYBLOCK
 62
     0
 10
11.102601
 20
13.015396
 30
0.0
  0
POINT
  8
DEFPOINTS
  6
BYBLOCK
 62
     0
 10
8.969003
 20
13.0415
 30
0.0
  0
POINT
  8
DEFPOINTS
  6
BYBLOCK
 62
     0
 10
8.969003
 20
13.0415
 30
0.0
  0
POINT
  8
DEFPOINTS
  6
BYBLOCK
 62
     0
 10
10.345957
 20
13.017466
 30
0.0
  0
POINT
  8
DEFPOINTS
  6
BYBLOCK
 62
     0
 10
8.985459
 20
13.0415
 30
0.0
  0
ENDBLK
  8
0
  0
ENDSEC
  0
SECTION
  2
ENTITIES
  0
TEXT
  8
DIM
 10
0.294865
 20
14.485987
 30
0.0
 40
0.166625
  1

  0
TEXT
  8
DIM
 10
4.888364
 20
14.120198
 30
0.0
 40
0.166625
  1

  0
TEXT
  8
TEXT
 10
1.58137
 20
33.282382
 30
0.0
 40
0.3125
  1
SUPPLIED FOR ASSEMBLING TOP.
 41
0.75
  7
TXT
  0
TEXT
  8
TEXT
 10
1.304891
 20
33.762996
 30
0.0
 40
0.3125
  1
SIX (6) #4 x 0.375" LG. SCREWS
 41
0.75
  7
TXT
  0
TEXT
  8
TEXT
 10
1.345564
 20
35.073036
 30
0.0
 40
0.3125
  1
%%UFINISH:%%U TEXTURED BODY WITH SMOOTH 
 41
0.75
  7
TXT
  0
TEXT
  8
TEXT
 10
1.332317
 20
35.892338
 30
0.0
 40
0.3125
  1
%%UCOLOR:%%U BLACK OR GRAY
 41
0.75
  7
TXT
  0
TEXT
  8
TEXT
 10
1.304891
 20
36.597126
 30
0.0
 40
0.3125
  1
%%UMATERIAL:%%U HIGH-IMPACT ABS
 41
0.75
  7
TXT
  0
TEXT
  8
TEXT
 10
1.304129
 20
31.171354
 30
0.0
 40
0.3125
  1
*-USABLE AREA ON COVER ALSO
 41
0.75
  7
TXT
  0
TEXT
  8
TEXT
 10
1.810219
 20
30.745575
 30
0.0
 40
0.3125
  1
AVAILABLE FOR CUSTOM MOLDING.
 41
0.75
  7
TXT
  0
TEXT
  8
DIM
 10
14.188417
 20
14.485987
 30
0.0
 40
0.166625
  1

  0
TEXT
  8
DIM
 10
18.781916
 20
14.120198
 30
0.0
 40
0.166625
  1

  0
TEXT
  8
DIM
 10
19.106916
 20
2.560623
 30
0.0
 40
0.166625
  1

  0
TEXT
  8
DIM
 10
16.334882
 20
2.980739
 30
0.0
 40
0.166625
  1

  0
TEXT
  8
DIM
 10
17.914786
 20
12.963561
 30
0.0
 40
0.166625
  1

  0
ARC
  8
HIDDEN
 10
16.208948
 20
21.097258
 30
0.0
 40
0.04
 50
180.0
 51
270.0
  0
ARC
  8
HIDDEN
 10
16.208948
 20
27.767258
 30
0.0
 40
0.04
 50
90.0
 51
180.0
  0
LINE
  8
OBJECT
 10
6.009085
 20
21.262258
 30
0.0
 11
6.009085
 21
27.602258
 31
0.0
  0
LINE
  8
OBJECT
 10
5.994085
 20
21.262258
 30
0.0
 11
6.009085
 21
21.262258
 31
0.0
  0
LINE
  8
OBJECT
 10
5.994085
 20
27.602258
 30
0.0
 11
6.009085
 21
27.602258
 31
0.0
  0
TEXT
  8
TEXT
 10
2.897604
 20
34.592423
 30
0.0
 40
0.3125
  1
TOP AND END INSERTS
 41
0.75
  7
TXT
  0
LINE
  8
OBJECT
 10
5.994085
 20
21.240128
 30
0.0
 11
5.994085
 21
27.624389
 31
0.0
  0
LINE
  8
CENTER
 10
5.814216
 20
24.432258
 30
0.0
 11
8.053954
 21
24.432258
 31
0.0
  0
LINE
  8
OBJECT
 10
6.094085
 20
21.240128
 30
0.0
 11
6.094085
 21
27.624389
 31
0.0
  0
LINE
  8
OBJECT
 10
7.757085
 20
27.769876
 30
0.0
 11
7.757085
 21
27.637758
 31
0.0
  0
LINE
  8
OBJECT
 10
7.874085
 20
27.769876
 30
0.0
 11
7.874085
 21
21.09464
 31
0.0
  0
LINE
  8
HIDDEN
 10
7.656012
 20
27.435758
 30
0.0
 11
7.656012
 21
27.529758
 31
0.0
  0
LINE
  8
HIDDEN
 10
7.687012
 20
27.560758
 30
0.0
 11
7.656012
 21
27.529758
 31
0.0
  0
LINE
  8
HIDDEN
 10
7.687012
 20
27.404758
 30
0.0
 11
7.656012
 21
27.435758
 31
0.0
  0
LINE
  8
HIDDEN
 10
7.687012
 20
27.417758
 30
0.0
 11
7.747012
 21
27.417758
 31
0.0
  0
LINE
  8
HIDDEN
 10
7.687012
 20
27.547758
 30
0.0
 11
7.747012
 21
27.547758
 31
0.0
  0
LINE
  8
HIDDEN
 10
7.874085
 20
27.360758
 30
0.0
 11
7.747012
 21
27.360758
 31
0.0
  0
LINE
  8
HIDDEN
 10
7.874085
 20
27.604758
 30
0.0
 11
7.747012
 21
27.604758
 31
0.0
  0
LINE
  8
HIDDEN
 10
7.747012
 20
27.604758
 30
0.0
 11
7.747012
 21
27.360758
 31
0.0
  0
LINE
  8
HIDDEN
 10
7.656012
 20
27.435758
 30
0.0
 11
6.094012
 21
27.435758
 31
0.0
  0
LINE
  8
HIDDEN
 10
7.656012
 20
27.529758
 30
0.0
 11
6.094012
 21
27.529758
 31
0.0
  0
LINE
  8
OBJECT
 10
7.687012
 20
27.352758
 30
0.0
 11
6.094012
 21
27.352758
 31
0.0
  0
LINE
  8
OBJECT
 10
7.687012
 20
27.612758
 30
0.0
 11
6.094085
 21
27.612758
 31
0.0
  0
LINE
  8
OBJECT
 10
7.687012
 20
27.637758
 30
0.0
 11
7.687012
 21
27.327758
 31
0.0
  0
LINE
  8
OBJECT
 10
7.687012
 20
27.327758
 30
0.0
 11
7.774085
 21
27.327758
 31
0.0
  0
LINE
  8
OBJECT
 10
7.687012
 20
27.637758
 30
0.0
 11
7.774085
 21
27.637758
 31
0.0
  0
LINE
  8
OBJECT
 10
7.757012
 20
27.769876
 30
0.0
 11
7.757012
 21
27.637758
 31
0.0
  0
LINE
  8
OBJECT
 10
7.774085
 20
27.769876
 30
0.0
 11
7.774085
 21
27.637758
 31
0.0
  0
LINE
  8
OBJECT
 10
7.774085
 20
27.769876
 30
0.0
 11
7.687012
 21
27.769876
 31
0.0
  0
LINE
  8
OBJECT
 10
7.757012
 20
27.810258
 30
0.0
 11
7.774085
 21
27.810258
 31
0.0
  0
LINE
  8
OBJECT
 10
7.687012
 20
27.810258
 30
0.0
 11
7.687012
 21
27.763752
 31
0.0
  0
LINE
  8
OBJECT
 10
7.687012
 20
27.810258
 30
0.0
 11
7.757012
 21
27.810258
 31
0.0
  0
LINE
  8
OBJECT
 10
7.774085
 20
27.870258
 30
0.0
 11
7.774085
 21
27.810258
 31
0.0
  0
LINE
  8
OBJECT
 10
7.757012
 20
27.870258
 30
0.0
 11
7.757012
 21
27.810258
 31
0.0
  0
LINE
  8
OBJECT
 10
7.774085
 20
27.870258
 30
0.0
 11
7.782801
 21
27.869496
 31
0.0
  0
LINE
  8
OBJECT
 10
7.774085
 20
27.327758
 30
0.0
 11
7.774085
 21
24.587258
 31
0.0
  0
LINE
  8
OBJECT
 10
7.757085
 20
27.327758
 30
0.0
 11
7.757085
 21
24.587258
 31
0.0
  0
LINE
  8
OBJECT
 10
7.774085
 20
20.994258
 30
0.0
 11
7.782801
 21
20.995021
 31
0.0
  0
LINE
  8
OBJECT
 10
7.757012
 20
20.994258
 30
0.0
 11
7.757012
 21
21.054258
 31
0.0
  0
LINE
  8
OBJECT
 10
7.774085
 20
20.994258
 30
0.0
 11
7.774085
 21
21.054258
 31
0.0
  0
LINE
  8
OBJECT
 10
7.687012
 20
21.054258
 30
0.0
 11
7.757012
 21
21.054258
 31
0.0
  0
LINE
  8
OBJECT
 10
7.687012
 20
21.054258
 30
0.0
 11
7.687012
 21
21.100765
 31
0.0
  0
LINE
  8
OBJECT
 10
7.757012
 20
21.054258
 30
0.0
 11
7.774085
 21
21.054258
 31
0.0
  0
LINE
  8
OBJECT
 10
7.774085
 20
21.09464
 30
0.0
 11
7.687012
 21
21.09464
 31
0.0
  0
LINE
  8
OBJECT
 10
7.774085
 20
21.09464
 30
0.0
 11
7.774085
 21
21.226758
 31
0.0
  0
LINE
  8
OBJECT
 10
7.757012
 20
21.09464
 30
0.0
 11
7.757012
 21
21.226758
 31
0.0
  0
LINE
  8
OBJECT
 10
7.687012
 20
21.226758
 30
0.0
 11
7.774085
 21
21.226758
 31
0.0
  0
LINE
  8
OBJECT
 10
7.687012
 20
21.536758
 30
0.0
 11
7.774085
 21
21.536758
 31
0.0
  0
LINE
  8
OBJECT
 10
7.687012
 20
21.226758
 30
0.0
 11
7.687012
 21
21.536758
 31
0.0
  0
LINE
  8
OBJECT
 10
7.687012
 20
21.251758
 30
0.0
 11
6.094085
 21
21.251758
 31
0.0
  0
LINE
  8
OBJECT
 10
7.687012
 20
21.511758
 30
0.0
 11
6.094012
 21
21.511758
 31
0.0
  0
LINE
  8
HIDDEN
 10
7.656012
 20
21.334758
 30
0.0
 11
6.094012
 21
21.334758
 31
0.0
  0
LINE
  8
HIDDEN
 10
7.656012
 20
21.428758
 30
0.0
 11
6.094012
 21
21.428758
 31
0.0
  0
LINE
  8
HIDDEN
 10
7.747012
 20
21.259758
 30
0.0
 11
7.747012
 21
21.503758
 31
0.0
  0
LINE
  8
HIDDEN
 10
7.874085
 20
21.259758
 30
0.0
 11
7.747012
 21
21.259758
 31
0.0
  0
LINE
  8
HIDDEN
 10
7.874085
 20
21.503758
 30
0.0
 11
7.747012
 21
21.503758
 31
0.0
  0
LINE
  8
HIDDEN
 10
7.687012
 20
21.316758
 30
0.0
 11
7.747012
 21
21.316758
 31
0.0
  0
LINE
  8
HIDDEN
 10
7.687012
 20
21.446758
 30
0.0
 11
7.747012
 21
21.446758
 31
0.0
  0
LINE
  8
HIDDEN
 10
7.687012
 20
21.459758
 30
0.0
 11
7.656012
 21
21.428758
 31
0.0
  0
LINE
  8
HIDDEN
 10
7.687012
 20
21.303758
 30
0.0
 11
7.656012
 21
21.334758
 31
0.0
  0
LINE
  8
HIDDEN
 10
7.656012
 20
21.428758
 30
0.0
 11
7.656012
 21
21.334758
 31
0.0
  0
LINE
  8
OBJECT
 10
7.757085
 20
21.09464
 30
0.0
 11
7.757085
 21
21.226758
 31
0.0
  0
LINE
  8
OBJECT
 10
7.774085
 20
21.054258
 30
0.0
 11
7.774085
 21
20.994258
 31
0.0
  0
LINE
  8
OBJECT
 10
7.757085
 20
21.054258
 30
0.0
 11
7.757085
 21
20.994258
 31
0.0
  0
ARC
  8
OBJECT
 10
7.774085
 20
27.769876
 30
0.0
 40
0.1
 50
0.0
 51
85.0
  0
ARC
  8
OBJECT
 10
7.774085
 20
21.09464
 30
0.0
 40
0.1
 50
275.0
 51
0.0
  0
LINE
  8
OBJECT
 10
16.103948
 20
27.822258
 30
0.0
 11
16.103948
 21
21.042258
 31
0.0
  0
LINE
  8
OBJECT
 10
20.933948
 20
20.992258
 30
0.0
 11
16.153948
 21
20.992258
 31
0.0
  0
LINE
  8
OBJECT
 10
20.983948
 20
27.822258
 30
0.0
 11
20.983948
 21
21.042258
 31
0.0
  0
LINE
  8
OBJECT
 10
20.933948
 20
27.872258
 30
0.0
 11
16.153948
 21
27.872258
 31
0.0
  0
LINE
  8
HIDDEN
 10
16.203948
 20
27.772258
 30
0.0
 11
16.203948
 21
21.092258
 31
0.0
  0
ARC
  8
OBJECT
 10
20.933948
 20
21.042258
 30
0.0
 40
0.05
 50
270.0
 51
0.0
  0
ARC
  8
OBJECT
 10
16.153948
 20
21.042258
 30
0.0
 40
0.05
 50
180.0
 51
270.0
  0
ARC
  8
OBJECT
 10
16.153948
 20
27.822258
 30
0.0
 40
0.05
 50
90.0
 51
180.0
  0
ARC
  8
OBJECT
 10
20.933948
 20
27.822258
 30
0.0
 40
0.05
 50
0.0
 51
90.0
  0
LINE
  8
HIDDEN
 10
16.168948
 20
27.767258
 30
0.0
 11
16.168948
 21
21.097258
 31
0.0
  0
LINE
  8
HIDDEN
 10
16.208948
 20
21.057258
 30
0.0
 11
20.878948
 21
21.057258
 31
0.0
  0
LINE
  8
HIDDEN
 10
16.203948
 20
21.092258
 30
0.0
 11
20.883948
 21
21.092258
 31
0.0
  0
LINE
  8
HIDDEN
 10
16.208948
 20
27.807258
 30
0.0
 11
20.878948
 21
27.807258
 31
0.0
  0
LINE
  8
HIDDEN
 10
16.203948
 20
27.772258
 30
0.0
 11
20.883948
 21
27.772258
 31
0.0
  0
LINE
  8
HIDDEN
 10
20.918948
 20
27.767258
 30
0.0
 11
20.918948
 21
21.097258
 31
0.0
  0
LINE
  8
HIDDEN
 10
20.883948
 20
27.772258
 30
0.0
 11
20.883948
 21
21.092258
 31
0.0
  0
ARC
  8
HIDDEN
 10
20.878948
 20
27.767258
 30
0.0
 40
0.04
 50
0.0
 51
90.0
  0
ARC
  8
HIDDEN
 10
20.878948
 20
21.097258
 30
0.0
 40
0.04
 50
270.0
 51
0.0
  0
CIRCLE
  8
OBJECT
 10
16.482448
 20
27.494508
 30
0.0
 40
0.0465
  0
CIRCLE
  8
OBJECT
 10
20.605448
 20
21.370008
 30
0.0
 40
0.0465
  0
CIRCLE
  8
OBJECT
 10
20.605448
 20
27.494508
 30
0.0
 40
0.0465
  0
CIRCLE
  8
OBJECT
 10
20.605448
 20
27.494508
 30
0.0
 40
0.1225
  0
CIRCLE
  8
OBJECT
 10
20.605448
 20
21.370008
 30
0.0
 40
0.1225
  0
CIRCLE
  8
OBJECT
 10
16.482448
 20
27.494508
 30
0.0
 40
0.13
  0
CIRCLE
  8
OBJECT
 10
16.482448
 20
21.370008
 30
0.0
 40
0.13
  0
CIRCLE
  8
OBJECT
 10
16.482448
 20
21.370008
 30
0.0
 40
0.0465
  0
LINE
  8
HIDDEN
 10
20.832567
 20
27.720877
 30
0.0
 11
20.832567
 21
21.14364
 31
0.0
  0
LINE
  8
HIDDEN
 10
16.25533
 20
27.720877
 30
0.0
 11
16.25533
 21
21.14364
 31
0.0
  0
LINE
  8
HIDDEN
 10
20.832567
 20
27.720877
 30
0.0
 11
16.25533
 21
27.720877
 31
0.0
  0
LINE
  8
HIDDEN
 10
20.832567
 20
21.14364
 30
0.0
 11
16.25533
 21
21.14364
 31
0.0
  0
LINE
  8
CENTER
 10
18.543948
 20
28.16898
 30
0.0
 11
18.543948
 21
20.695537
 31
0.0
  0
LINE
  8
CENTER
 10
21.248541
 20
24.432258
 30
0.0
 11
15.839355
 21
24.432258
 31
0.0
  0
CIRCLE
  8
OBJECT
 10
16.482448
 20
24.432258
 30
0.0
 40
0.13
  0
CIRCLE
  8
OBJECT
 10
20.605448
 20
24.432258
 30
0.0
 40
0.1225
  0
CIRCLE
  8
OBJECT
 10
20.605448
 20
24.432258
 30
0.0
 40
0.0465
  0
CIRCLE
  8
OBJECT
 10
16.482448
 20
24.432258
 30
0.0
 40
0.0465
  0
CIRCLE
  8
HIDDEN
 10
16.482448
 20
26.682258
 30
0.0
 40
0.125
  0
CIRCLE
  8
HIDDEN
 10
16.482448
 20
25.057258
 30
0.0
 40
0.125
  0
CIRCLE
  8
HIDDEN
 10
16.482448
 20
23.807258
 30
0.0
 40
0.125
  0
CIRCLE
  8
HIDDEN
 10
20.605448
 20
23.807258
 30
0.0
 40
0.125
  0
CIRCLE
  8
HIDDEN
 10
20.605448
 20
22.182258
 30
0.0
 40
0.125
  0
CIRCLE
  8
HIDDEN
 10
20.605448
 20
25.057258
 30
0.0
 40
0.125
  0
CIRCLE
  8
HIDDEN
 10
20.605448
 20
26.682258
 30
0.0
 40
0.125
  0
CIRCLE
  8
HIDDEN
 10
16.482448
 20
22.182258
 30
0.0
 40
0.125
  0
LINE
  8
OBJECT
 10
20.543948
 20
23.932258
 30
0.0
 11
16.543948
 21
23.932258
 31
0.0
  0
LINE
  8
OBJECT
 10
20.543948
 20
21.932258
 30
0.0
 11
16.543948
 21
21.932258
 31
0.0
  0
LINE
  8
OBJECT
 10
20.543948
 20
23.932258
 30
0.0
 11
20.543948
 21
21.932258
 31
0.0
  0
LINE
  8
OBJECT
 10
16.543948
 20
23.932258
 30
0.0
 11
16.543948
 21
21.932258
 31
0.0
  0
LINE
  8
HIDDEN
 10
7.656012
 20
24.479258
 30
0.0
 11
7.656012
 21
24.385258
 31
0.0
  0
LINE
  8
HIDDEN
 10
7.687012
 20
24.354258
 30
0.0
 11
7.656012
 21
24.385258
 31
0.0
  0
LINE
  8
HIDDEN
 10
7.687012
 20
24.510258
 30
0.0
 11
7.656012
 21
24.479258
 31
0.0
  0
LINE
  8
HIDDEN
 10
7.687012
 20
24.497258
 30
0.0
 11
7.747012
 21
24.497258
 31
0.0
  0
LINE
  8
HIDDEN
 10
7.687012
 20
24.367258
 30
0.0
 11
7.747012
 21
24.367258
 31
0.0
  0
LINE
  8
HIDDEN
 10
7.874085
 20
24.554258
 30
0.0
 11
7.747012
 21
24.554258
 31
0.0
  0
LINE
  8
HIDDEN
 10
7.874085
 20
24.310258
 30
0.0
 11
7.747012
 21
24.310258
 31
0.0
  0
LINE
  8
HIDDEN
 10
7.747012
 20
24.310258
 30
0.0
 11
7.747012
 21
24.554258
 31
0.0
  0
LINE
  8
OBJECT
 10
7.687012
 20
24.277258
 30
0.0
 11
7.687012
 21
24.587258
 31
0.0
  0
LINE
  8
OBJECT
 10
7.687012
 20
24.587258
 30
0.0
 11
7.774085
 21
24.587258
 31
0.0
  0
LINE
  8
OBJECT
 10
7.687012
 20
24.277258
 30
0.0
 11
7.774085
 21
24.277258
 31
0.0
  0
LINE
  8
OBJECT
 10
7.687012
 20
24.562258
 30
0.0
 11
6.094012
 21
24.562258
 31
0.0
  0
LINE
  8
HIDDEN
 10
7.656012
 20
24.479258
 30
0.0
 11
6.094012
 21
24.479258
 31
0.0
  0
LINE
  8
OBJECT
 10
7.687012
 20
24.302258
 30
0.0
 11
6.094085
 21
24.302258
 31
0.0
  0
LINE
  8
HIDDEN
 10
7.656012
 20
24.385258
 30
0.0
 11
6.094012
 21
24.385258
 31
0.0
  0
LINE
  8
OBJECT
 10
7.757085
 20
24.277258
 30
0.0
 11
7.757085
 21
21.536758
 31
0.0
  0
LINE
  8
OBJECT
 10
7.774085
 20
24.277258
 30
0.0
 11
7.774085
 21
21.536758
 31
0.0
  0
LINE
  8
OBJECT
 10
7.670085
 20
25.187258
 30
0.0
 11
7.670085
 21
24.927258
 31
0.0
  0
LINE
  8
OBJECT
 10
7.670085
 20
24.927258
 30
0.0
 11
7.757085
 21
24.927258
 31
0.0
  0
LINE
  8
OBJECT
 10
7.670085
 20
25.187258
 30
0.0
 11
7.757085
 21
25.187258
 31
0.0
  0
LINE
  8
HIDDEN
 10
7.797085
 20
25.104258
 30
0.0
 11
7.797085
 21
25.010258
 31
0.0
  0
LINE
  8
HIDDEN
 10
7.701085
 20
25.010258
 30
0.0
 11
7.797085
 21
25.010258
 31
0.0
  0
LINE
  8
HIDDEN
 10
7.701085
 20
25.104258
 30
0.0
 11
7.797085
 21
25.104258
 31
0.0
  0
LINE
  8
HIDDEN
 10
7.701085
 20
25.104258
 30
0.0
 11
7.701085
 21
25.010258
 31
0.0
  0
LINE
  8
HIDDEN
 10
7.670085
 20
24.979258
 30
0.0
 11
7.701085
 21
25.010258
 31
0.0
  0
LINE
  8
HIDDEN
 10
7.670085
 20
25.135258
 30
0.0
 11
7.701085
 21
25.104258
 31
0.0
  0
LINE
  8
HIDDEN
 10
7.670085
 20
26.760258
 30
0.0
 11
7.701085
 21
26.729258
 31
0.0
  0
LINE
  8
HIDDEN
 10
7.670085
 20
26.604258
 30
0.0
 11
7.701085
 21
26.635258
 31
0.0
  0
LINE
  8
HIDDEN
 10
7.701085
 20
26.729258
 30
0.0
 11
7.701085
 21
26.635258
 31
0.0
  0
LINE
  8
HIDDEN
 10
7.701085
 20
26.729258
 30
0.0
 11
7.797085
 21
26.729258
 31
0.0
  0
LINE
  8
HIDDEN
 10
7.701085
 20
26.635258
 30
0.0
 11
7.797085
 21
26.635258
 31
0.0
  0
LINE
  8
HIDDEN
 10
7.797085
 20
26.729258
 30
0.0
 11
7.797085
 21
26.635258
 31
0.0
  0
LINE
  8
OBJECT
 10
7.670085
 20
26.812258
 30
0.0
 11
7.757085
 21
26.812258
 31
0.0
  0
LINE
  8
OBJECT
 10
7.670085
 20
26.552258
 30
0.0
 11
7.757085
 21
26.552258
 31
0.0
  0
LINE
  8
OBJECT
 10
7.670085
 20
26.812258
 30
0.0
 11
7.670085
 21
26.552258
 31
0.0
  0
LINE
  8
OBJECT
 10
7.670085
 20
23.937258
 30
0.0
 11
7.670085
 21
23.677258
 31
0.0
  0
LINE
  8
OBJECT
 10
7.670085
 20
23.677258
 30
0.0
 11
7.757085
 21
23.677258
 31
0.0
  0
LINE
  8
OBJECT
 10
7.670085
 20
23.937258
 30
0.0
 11
7.757085
 21
23.937258
 31
0.0
  0
LINE
  8
HIDDEN
 10
7.797085
 20
23.854258
 30
0.0
 11
7.797085
 21
23.760258
 31
0.0
  0
LINE
  8
HIDDEN
 10
7.701085
 20
23.760258
 30
0.0
 11
7.797085
 21
23.760258
 31
0.0
  0
LINE
  8
HIDDEN
 10
7.701085
 20
23.854258
 30
0.0
 11
7.797085
 21
23.854258
 31
0.0
  0
LINE
  8
HIDDEN
 10
7.701085
 20
23.854258
 30
0.0
 11
7.701085
 21
23.760258
 31
0.0
  0
LINE
  8
HIDDEN
 10
7.670085
 20
23.729258
 30
0.0
 11
7.701085
 21
23.760258
 31
0.0
  0
LINE
  8
HIDDEN
 10
7.670085
 20
23.885258
 30
0.0
 11
7.701085
 21
23.854258
 31
0.0
  0
LINE
  8
HIDDEN
 10
7.670085
 20
22.260258
 30
0.0
 11
7.701085
 21
22.229258
 31
0.0
  0
LINE
  8
HIDDEN
 10
7.670085
 20
22.104258
 30
0.0
 11
7.701085
 21
22.135258
 31
0.0
  0
LINE
  8
HIDDEN
 10
7.701085
 20
22.229258
 30
0.0
 11
7.701085
 21
22.135258
 31
0.0
  0
LINE
  8
HIDDEN
 10
7.701085
 20
22.229258
 30
0.0
 11
7.797085
 21
22.229258
 31
0.0
  0
LINE
  8
HIDDEN
 10
7.701085
 20
22.135258
 30
0.0
 11
7.797085
 21
22.135258
 31
0.0
  0
LINE
  8
HIDDEN
 10
7.797085
 20
22.229258
 30
0.0
 11
7.797085
 21
22.135258
 31
0.0
  0
LINE
  8
OBJECT
 10
7.670085
 20
22.312258
 30
0.0
 11
7.757085
 21
22.312258
 31
0.0
  0
LINE
  8
OBJECT
 10
7.670085
 20
22.052258
 30
0.0
 11
7.757085
 21
22.052258
 31
0.0
  0
LINE
  8
OBJECT
 10
7.670085
 20
22.312258
 30
0.0
 11
7.670085
 21
22.052258
 31
0.0
  0
LINE
  8
OBJECT
 10
6.094085
 20
22.312258
 30
0.0
 11
6.469085
 21
22.312258
 31
0.0
  0
LINE
  8
OBJECT
 10
6.094085
 20
22.052258
 30
0.0
 11
6.469085
 21
22.052258
 31
0.0
  0
LINE
  8
OBJECT
 10
6.469085
 20
22.052258
 30
0.0
 11
6.469085
 21
22.312258
 31
0.0
  0
LINE
  8
HIDDEN
 10
6.053806
 20
22.229258
 30
0.0
 11
6.053806
 21
22.135258
 31
0.0
  0
LINE
  8
HIDDEN
 10
6.438085
 20
22.135258
 30
0.0
 11
6.053806
 21
22.135258
 31
0.0
  0
LINE
  8
HIDDEN
 10
6.438085
 20
22.229258
 30
0.0
 11
6.053806
 21
22.229258
 31
0.0
  0
LINE
  8
HIDDEN
 10
6.438085
 20
22.229258
 30
0.0
 11
6.438085
 21
22.135258
 31
0.0
  0
LINE
  8
HIDDEN
 10
6.469085
 20
22.104258
 30
0.0
 11
6.438085
 21
22.135258
 31
0.0
  0
LINE
  8
HIDDEN
 10
6.469085
 20
22.260258
 30
0.0
 11
6.438085
 21
22.229258
 31
0.0
  0
LINE
  8
HIDDEN
 10
6.469085
 20
23.885258
 30
0.0
 11
6.438085
 21
23.854258
 31
0.0
  0
LINE
  8
HIDDEN
 10
6.469085
 20
23.729258
 30
0.0
 11
6.438085
 21
23.760258
 31
0.0
  0
LINE
  8
HIDDEN
 10
6.438085
 20
23.854258
 30
0.0
 11
6.438085
 21
23.760258
 31
0.0
  0
LINE
  8
HIDDEN
 10
6.438085
 20
23.854258
 30
0.0
 11
6.053806
 21
23.854258
 31
0.0
  0
LINE
  8
HIDDEN
 10
6.438085
 20
23.760258
 30
0.0
 11
6.053806
 21
23.760258
 31
0.0
  0
LINE
  8
HIDDEN
 10
6.053806
 20
23.854258
 30
0.0
 11
6.053806
 21
23.760258
 31
0.0
  0
LINE
  8
OBJECT
 10
6.469085
 20
23.677258
 30
0.0
 11
6.469085
 21
23.937258
 31
0.0
  0
LINE
  8
OBJECT
 10
6.094085
 20
23.677258
 30
0.0
 11
6.469085
 21
23.677258
 31
0.0
  0
LINE
  8
OBJECT
 10
6.094085
 20
23.937258
 30
0.0
 11
6.469085
 21
23.937258
 31
0.0
  0
LINE
  8
HIDDEN
 10
6.469085
 20
25.135258
 30
0.0
 11
6.438085
 21
25.104258
 31
0.0
  0
LINE
  8
HIDDEN
 10
6.469085
 20
24.979258
 30
0.0
 11
6.438085
 21
25.010258
 31
0.0
  0
LINE
  8
HIDDEN
 10
6.438085
 20
25.104258
 30
0.0
 11
6.438085
 21
25.010258
 31
0.0
  0
LINE
  8
HIDDEN
 10
6.438085
 20
25.104258
 30
0.0
 11
6.053806
 21
25.104258
 31
0.0
  0
LINE
  8
HIDDEN
 10
6.438085
 20
25.010258
 30
0.0
 11
6.053806
 21
25.010258
 31
0.0
  0
LINE
  8
HIDDEN
 10
6.053806
 20
25.104258
 30
0.0
 11
6.053806
 21
25.010258
 31
0.0
  0
LINE
  8
OBJECT
 10
6.469085
 20
24.927258
 30
0.0
 11
6.469085
 21
25.187258
 31
0.0
  0
LINE
  8
OBJECT
 10
6.094085
 20
24.927258
 30
0.0
 11
6.469085
 21
24.927258
 31
0.0
  0
LINE
  8
OBJECT
 10
6.094085
 20
25.187258
 30
0.0
 11
6.469085
 21
25.187258
 31
0.0
  0
LINE
  8
HIDDEN
 10
6.469085
 20
26.760258
 30
0.0
 11
6.438085
 21
26.729258
 31
0.0
  0
LINE
  8
HIDDEN
 10
6.469085
 20
26.604258
 30
0.0
 11
6.438085
 21
26.635258
 31
0.0
  0
LINE
  8
HIDDEN
 10
6.438085
 20
26.729258
 30
0.0
 11
6.438085
 21
26.635258
 31
0.0
  0
LINE
  8
HIDDEN
 10
6.438085
 20
26.729258
 30
0.0
 11
6.053806
 21
26.729258
 31
0.0
  0
LINE
  8
HIDDEN
 10
6.438085
 20
26.635258
 30
0.0
 11
6.053806
 21
26.635258
 31
0.0
  0
LINE
  8
HIDDEN
 10
6.053806
 20
26.729258
 30
0.0
 11
6.053806
 21
26.635258
 31
0.0
  0
LINE
  8
OBJECT
 10
6.469085
 20
26.552258
 30
0.0
 11
6.469085
 21
26.812258
 31
0.0
  0
LINE
  8
OBJECT
 10
6.094085
 20
26.552258
 30
0.0
 11
6.469085
 21
26.552258
 31
0.0
  0
LINE
  8
OBJECT
 10
6.094085
 20
26.812258
 30
0.0
 11
6.469085
 21
26.812258
 31
0.0
  0
LINE
  8
CENTER
 10
15.881435
 20
25.057258
 30
0.0
 11
16.756887
 21
25.057258
 31
0.0
  0
LINE
  8
CENTER
 10
15.881435
 20
26.682258
 30
0.0
 11
16.756887
 21
26.682258
 31
0.0
  0
LINE
  8
CENTER
 10
16.482448
 20
21.120775
 30
0.0
 11
16.482448
 21
28.03764
 31
0.0
  0
LINE
  8
CENTER
 10
20.605448
 20
21.120775
 30
0.0
 11
20.605448
 21
28.03764
 31
0.0
  0
LINE
  8
CENTER
 10
15.881435
 20
22.182258
 30
0.0
 11
16.756887
 21
22.182258
 31
0.0
  0
LINE
  8
CENTER
 10
15.881435
 20
23.807258
 30
0.0
 11
16.756887
 21
23.807258
 31
0.0
  0
LINE
  8
TITLE
 10
0.155
 20
19.163292
 30
0.0
 11
25.145
 21
19.163292
 31
0.0
  0
LINE
  8
TITLE
 10
0.154879
 20
19.008413
 30
0.0
 11
25.145
 21
19.008413
 31
0.0
  0
LINE
  8
TITLE
 10
0.154879
 20
17.964232
 30
0.0
 11
25.125306
 21
17.964232
 31
0.0
  0
LINE
  8
TITLE
 10
2.02841
 20
17.964232
 30
0.0
 11
2.02841
 21
19.008413
 31
0.0
  0
LINE
  8
TITLE
 10
12.640093
 20
19.008413
 30
0.0
 11
12.640093
 21
17.964232
 31
0.0
  0
LINE
  8
TITLE
 10
12.794971
 20
19.008413
 30
0.0
 11
12.794971
 21
17.964232
 31
0.0
  0
LINE
  8
TITLE
 10
14.668503
 20
19.008413
 30
0.0
 11
14.668503
 21
17.964232
 31
0.0
  0
TEXT
  8
TEXT
 10
13.302049
 20
18.584777
 30
0.0
 40
0.3125
  1
PART
 41
0.75
  7
TXT
 72
     1
 11
13.731737
 21
18.584777
 31
0.0
  0
TEXT
  8
TEXT
 10
13.497362
 20
18.064351
 30
0.0
 40
0.3125
  1
No.
 41
0.75
  7
TXT
 72
     1
 11
13.731737
 21
18.064351
 31
0.0
  0
TEXT
  8
TEXT
 10
0.661957
 20
18.584777
 30
0.0
 40
0.3125
  1
PART
 41
0.75
  7
TXT
 72
     1
 11
1.091644
 21
18.584777
 31
0.0
  0
TEXT
  8
TEXT
 10
0.661957
 20
18.064351
 30
0.0
 40
0.3125
  1
NAME
 41
0.75
  7
TXT
 72
     1
 11
1.091644
 21
18.064351
 31
0.0
  0
TEXT
  8
TEXT
 10
4.605707
 20
37.847604
 30
0.0
 40
0.389792
  1
PLASTIBOX  (STYLE B)
 41
0.75
  7
TXT
 72
     1
 11
7.334251
 21
37.847604
 31
0.0
  0
TEXT
  8
TEXT
 10
18.727529
 20
37.847604
 30
0.0
 40
0.389792
  1
PSS-11295
 41
0.75
  7
TXT
 72
     1
 11
19.896905
 21
37.847604
 31
0.0
  0
TEXT
  8
TEXT
 10
0.662813
 20
37.650198
 30
0.0
 40
0.3125
  1
NAME
 41
0.75
  7
TXT
 72
     1
 11
1.0925
 21
37.650198
 31
0.0
  0
TEXT
  8
TEXT
 10
0.662813
 20
38.171031
 30
0.0
 40
0.3125
  1
PART
 41
0.75
  7
TXT
 72
     1
 11
1.0925
 21
38.171031
 31
0.0
  0
TEXT
  8
TEXT
 10
13.508125
 20
37.650198
 30
0.0
 40
0.3125
  1
No.
 41
0.75
  7
TXT
 72
     1
 11
13.7425
 21
37.650198
 31
0.0
  0
TEXT
  8
TEXT
 10
13.312813
 20
38.171031
 30
0.0
 40
0.3125
  1
PART
 41
0.75
  7
TXT
 72
     1
 11
13.7425
 21
38.171031
 31
0.0
  0
LINE
  8
TITLE
 10
14.68
 20
38.595
 30
0.0
 11
14.68
 21
37.55
 31
0.0
  0
LINE
  8
TITLE
 10
12.805
 20
38.595
 30
0.0
 11
12.805
 21
37.55
 31
0.0
  0
LINE
  8
TITLE
 10
12.65
 20
38.595
 30
0.0
 11
12.65
 21
37.55
 31
0.0
  0
LINE
  8
TITLE
 10
2.03
 20
37.55
 30
0.0
 11
2.03
 21
38.595
 31
0.0
  0
LINE
  8
TITLE
 10
0.155
 20
37.55
 30
0.0
 11
25.145
 21
37.55
 31
0.0
  0
LINE
  8
TITLE
 10
25.145
 20
0.155
 30
0.0
 11
0.155
 21
0.155
 31
0.0
  0
LINE
  8
TITLE
 10
0.155
 20
38.595
 30
0.0
 11
25.145
 21
38.595
 31
0.0
  0
LINE
  8
TITLE
 10
0.155
 20
0.155
 30
0.0
 11
0.155
 21
19.008413
 31
0.0
  0
LINE
  8
TITLE
 10
0.0
 20
0.0
 30
0.0
 11
0.0
 21
38.75
 31
0.0
  0
LINE
  8
TITLE
 10
25.3
 20
0.0
 30
0.0
 11
0.0
 21
0.0
 31
0.0
  0
LINE
  8
TITLE
 10
25.3
 20
38.75
 30
0.0
 11
25.3
 21
0.0
 31
0.0
  0
LINE
  8
TITLE
 10
0.0
 20
38.75
 30
0.0
 11
25.3
 21
38.75
 31
0.0
  0
LINE
  8
TITLE
 10
25.145
 20
38.595
 30
0.0
 11
25.145
 21
19.163292
 31
0.0
  0
LINE
  8
TITLE
 10
0.155
 20
19.163292
 30
0.0
 11
0.155
 21
38.595
 31
0.0
  0
LINE
  8
TITLE
 10
25.145
 20
19.008413
 30
0.0
 11
25.145
 21
0.155
 31
0.0
  0
TEXT
  8
TEXT
 10
3.045894
 20
24.715924
 30
0.0
 40
0.3125
  1
*
 41
0.75
  7
TXT
  0
TEXT
  8
TEXT
 10
1.319753
 20
32.204832
 30
0.0
 40
0.3125
  1
FOUR (4) NON-SKID PUSH-ON FEET SUPPLIED.
 41
0.75
  7
TXT
  0
LINE
  8
CENTER
 10
21.206461
 20
27.494508
 30
0.0
 11
20.331009
 21
27.494508
 31
0.0
  0
LINE
  8
CENTER
 10
21.206461
 20
21.370008
 30
0.0
 11
20.331009
 21
21.370008
 31
0.0
  0
DIMENSION
  8
DIM
  2
*D13
 10
20.605448
 20
29.350372
 30
0.0
 11
19.574698
 21
29.350372
 31
0.0
 12
2.170132
 22
-0.191524
 32
0.0
 13
18.543948
 23
28.16898
 33
0.0
 14
20.605448
 24
28.03764
 34
0.0
  3
DIM
  0
DIMENSION
  8
DIM
  2
*D14
 10
16.482448
 20
28.787516
 30
0.0
 11
17.513198
 21
28.787516
 31
0.0
 12
2.170132
 22
-0.191524
 32
0.0
 13
18.543948
 23
28.16898
 33
0.0
 14
16.482448
 24
28.03764
 34
0.0
  3
DIM
  0
DIMENSION
  8
DIM
  2
*D11
 10
20.983948
 20
29.916454
 30
0.0
 11
18.543948
 21
29.916454
 31
0.0
 12
2.170132
 22
-0.191524
 32
0.0
 13
16.103948
 23
27.822258
 33
0.0
 14
20.983948
 24
27.822258
 34
0.0
  3
DIM
  0
DIMENSION
  8
DIM
  2
*D12
 10
20.983948
 20
28.397226
 30
0.0
 11
22.558167
 21
28.397226
 31
0.0
 12
2.170132
 22
-0.191524
 32
0.0
 13
20.605448
 23
28.03764
 33
0.0
 14
20.983948
 24
27.822258
 34
0.0
  3
STD
  0
DIMENSION
  8
DIM
  2
*D0
 10
15.069173
 20
25.057258
 30
0.0
 11
15.071173
 21
24.744758
 31
0.0
 12
2.168132
 22
-0.191524
 32
0.0
 13
15.839355
 23
24.432258
 33
0.0
 14
15.881435
 24
25.057258
 34
0.0
 50
90.0
  3
DIM
  0
DIMENSION
  8
DIM
  2
*D1
 10
14.076971
 20
23.807258
 30
0.0
 11
14.078971
 21
24.119758
 31
0.0
 12
2.168132
 22
-0.191524
 32
0.0
 13
15.839355
 23
24.432258
 33
0.0
 14
15.881435
 24
23.807258
 34
0.0
 50
90.0
  3
DIM
  0
DIMENSION
  8
DIM
  2
*D2
 10
12.966996
 20
26.682258
 30
0.0
 11
12.968996
 21
25.557258
 31
0.0
 12
2.168132
 22
-0.191524
 32
0.0
 13
15.839355
 23
24.432258
 33
0.0
 14
15.881435
 24
26.682258
 34
0.0
 50
90.0
  3
DIM
  0
DIMENSION
  8
DIM
  2
*D3
 10
12.966996
 20
22.182258
 30
0.0
 11
12.968996
 21
23.307258
 31
0.0
 12
2.168132
 22
-0.191524
 32
0.0
 13
15.839355
 23
24.432258
 33
0.0
 14
15.881435
 24
22.182258
 34
0.0
 50
90.0
  3
DIM
  0
DIMENSION
  8
DIM
  2
*D4
 10
20.543948
 20
20.328542
 30
0.0
 11
19.543948
 21
20.328542
 31
0.0
 12
2.170132
 22
-0.191524
 32
0.0
 13
18.543948
 23
20.695537
 33
0.0
 14
20.543948
 24
21.932258
 34
0.0
  3
DIM
  0
DIMENSION
  8
DIM
  2
*D5
 10
16.543948
 20
19.657631
 30
0.0
 11
17.543948
 21
19.657631
 31
0.0
 12
2.170132
 22
-0.191524
 32
0.0
 13
18.543948
 23
20.695537
 33
0.0
 14
16.543948
 24
21.932258
 34
0.0
  3
DIM
  0
DIMENSION
  8
DIM
  2
*D6
 10
18.028418
 20
23.932258
 30
0.0
 11
18.028418
 21
24.182258
 31
0.0
 12
2.020092
 22
-0.191524
 32
0.0
 13
18.017124
 23
24.432258
 33
0.0
 14
18.017124
 24
23.932258
 34
0.0
 50
90.0
  3
DIM
  0
DIMENSION
  8
DIM
  2
*D7
 10
19.27714
 20
21.932258
 30
0.0
 11
19.27714
 21
22.932258
 31
0.0
 12
2.170132
 22
-0.191524
 32
0.0
 13
19.288433
 23
23.932258
 33
0.0
 14
19.288433
 24
21.932258
 34
0.0
 50
90.0
  3
DIM
  0
DIMENSION
  8
DIM
  2
*D10
 10
22.086344
 20
27.494508
 30
0.0
 11
22.084344
 21
25.963383
 31
0.0
 12
2.172132
 22
-0.191524
 32
0.0
 13
21.248541
 23
24.432258
 33
0.0
 14
21.206461
 24
27.494508
 34
0.0
 50
90.0
  3
DIM
  0
DIMENSION
  8
DIM
  2
*D9
 10
22.086344
 20
21.370008
 30
0.0
 11
22.084344
 21
22.901133
 31
0.0
 12
2.172132
 22
-0.191524
 32
0.0
 13
21.248541
 23
24.432258
 33
0.0
 14
21.206461
 24
21.370008
 34
0.0
 50
90.0
  3
DIM
  0
DIMENSION
  8
DIM
  2
*D8
 10
23.310866
 20
20.992258
 30
0.0
 11
23.308866
 21
24.432258
 31
0.0
 12
2.172132
 22
-0.191524
 32
0.0
 13
20.933948
 23
27.872258
 33
0.0
 14
20.933948
 24
20.992258
 34
0.0
 50
90.0
  3
DIM
  0
SOLID
  8
DIM
 10
16.865542
 20
22.22117
 30
0.0
 11
16.931772
 21
22.086584
 31
0.0
 12
17.302417
 22
22.352567
 32
0.0
 13
17.302417
 23
22.352567
 33
0.0
  0
LINE
  8
DIM
 10
16.898657
 20
22.153877
 30
0.0
 11
15.107893
 21
21.273625
 31
0.0
  0
LINE
  8
DIM
 10
15.107893
 20
21.273625
 30
0.0
 11
14.657893
 21
21.273625
 31
0.0
  0
TEXT
  8
DIM
 10
12.636018
 20
21.117375
 30
0.0
 40
0.3125
  1
AREA FOR
 41
0.75
  7
TXT
 72
     2
 11
14.432893
 21
21.273625
 31
0.0
 73
     2
  0
TEXT
  8
DIM
 10
12.015128
 20
20.638194
 30
0.0
 40
0.3125
  1
CUSTOM MOLDING
 41
0.75
  7
TXT
  0
TEXT
  8
DIM
 10
23.260466
 20
28.237561
 30
0.0
 40
0.3125
  1
TYP.
 41
0.75
  7
TXT
  0
DIMENSION
  8
DIM
  2
*D15
 10
5.994085
 20
26.044196
 30
0.0
 11
4.47846
 21
26.044196
 31
0.0
 12
1.341129
 22
-0.191524
 32
0.0
 13
6.009085
 23
26.04097
 33
0.0
 14
5.994085
 24
26.04097
 34
0.0
  3
STD
  0
TEXT
  8
DIM
 10
3.749033
 20
25.465212
 30
0.0
 40
0.3125
  1
RECESS
 41
0.75
  7
TXT
  0
DIMENSION
  8
DIM
  2
*D16
 10
5.994085
 20
22.879943
 30
0.0
 11
4.497991
 21
22.879943
 31
0.0
 12
1.341129
 22
-0.191524
 32
0.0
 13
6.094085
 23
22.896071
 33
0.0
 14
5.994085
 24
22.896071
 34
0.0
  3
STD
  0
TEXT
  8
DIM
 10
4.12978
 20
22.299346
 30
0.0
 40
0.3125
  1
TYP.
 41
0.75
  7
TXT
  0
DIMENSION
  8
DIM
  2
*D17
 10
3.532846
 20
21.262258
 30
0.0
 11
3.532846
 21
24.432258
 31
0.0
 12
1.341129
 22
-0.191524
 32
0.0
 13
5.994085
 23
27.602258
 33
0.0
 14
5.994085
 24
21.262258
 34
0.0
 50
90.0
  3
STD
  0
LINE
  8
DIM
 10
7.757012
 20
20.994258
 30
0.0
 11
7.270945
 21
20.994258
 31
0.0
  0
LINE
  8
OBJECT
 10
7.757012
 20
20.994258
 30
0.0
 11
6.085369
 21
21.140508
 31
0.0
  0
LINE
  8
OBJECT
 10
7.687012
 20
21.100765
 30
0.0
 11
6.094085
 21
21.240128
 31
0.0
  0
LINE
  8
OBJECT
 10
7.757012
 20
27.870258
 30
0.0
 11
6.085369
 21
27.724009
 31
0.0
  0
LINE
  8
OBJECT
 10
7.687012
 20
27.763752
 30
0.0
 11
6.094085
 21
27.624389
 31
0.0
  0
LINE
  8
OBJECT
 10
6.009085
 20
27.602258
 30
0.0
 11
6.009085
 21
21.262258
 31
0.0
  0
ARC
  8
OBJECT
 10
6.094085
 20
21.240128
 30
0.0
 40
0.1
 50
180.0
 51
265.0
  0
ARC
  8
OBJECT
 10
6.094085
 20
27.624389
 30
0.0
 40
0.1
 50
95.0
 51
180.0
  0
DIMENSION
  8
DIM
  2
*D18
 10
7.270945
 20
20.994258
 30
0.0
 11
5.695343
 21
19.856001
 31
0.0
 12
1.341129
 22
-0.191524
 32
0.0
 70
   130
  1
5%%D
 13
7.757012
 23
20.994258
 33
0.0
 14
6.085369
 24
21.140508
 34
0.0
 15
7.757012
 25
20.994258
 35
0.0
 16
5.324275
 26
21.141378
 36
0.0
  3
STD
  0
TEXT
  8
DIM
 10
6.06641
 20
19.69795
 30
0.0
 40
0.3125
  1
TYP.
 41
0.75
  7
TXT
  0
LINE
  8
DIM
 10
21.539037
 20
32.515161
 30
0.0
 11
21.146496
 21
32.515161
 31
0.0
  0
SOLID
  8
DIM
 10
20.194088
 20
33.986843
 30
0.0
 11
20.082613
 21
33.886478
 31
0.0
 12
20.439448
 22
33.602235
 32
0.0
 13
20.439448
 23
33.602235
 33
0.0
  0
TEXT
  8
DIM
 10
12.455107
 20
32.152805
 30
0.0
 40
0.3125
  1
HOLE x 0.156 DEEP (8) PLACES
 41
0.75
  7
TXT
 72
     2
 11
18.509794
 21
32.309055
 31
0.0
 73
     2
  0
TEXT
  8
DIM
 10
12.310683
 20
32.701881
 30
0.0
 40
0.3125
  1
0.250 DIA. BOSS WITH 0.093 DIA.
 41
0.75
  7
TXT
 72
     2
 11
18.560683
 21
32.858131
 31
0.0
 73
     2
  0
LINE
  8
DIM
 10
19.235683
 20
32.858131
 30
0.0
 11
18.785683
 21
32.858131
 31
0.0
  0
LINE
  8
DIM
 10
19.844592
 20
34.264862
 30
0.0
 11
19.235683
 21
32.858131
 31
0.0
  0
LINE
  8
DIM
 10
20.439448
 20
33.602235
 30
0.0
 11
19.844592
 21
34.264862
 31
0.0
  0
DIMENSION
  8
DIM
  2
*D19
 10
21.172211
 20
35.280161
 30
0.0
 11
19.515927
 21
36.369012
 31
0.0
 12
0.684249
 22
0.164163
 32
0.0
 70
   130
 13
16.242066
 23
34.281849
 33
0.0
 14
20.821818
 24
35.280161
 34
0.0
 15
20.821818
 25
35.280161
 35
0.0
 16
19.149389
 26
35.068741
 36
0.0
  3
STD
  0
LINE
  8
OBJECT
 10
16.254217
 20
34.284498
 30
0.0
 11
16.258477
 21
34.264957
 31
0.0
  0
LINE
  8
HIDDEN
 10
20.670511
 20
35.247179
 30
0.0
 11
20.67477
 21
35.227638
 31
0.0
  0
DIMENSION
  8
DIM
  2
*D20
 10
20.256753
 20
37.14529
 30
0.0
 11
18.048606
 21
36.66395
 31
0.0
 12
0.684249
 22
0.164163
 32
0.0
 70
     1
 13
16.254217
 23
34.284498
 33
0.0
 14
20.670511
 24
35.247179
 34
0.0
  3
STD
  0
TEXT
  8
DIM
 10
13.961346
 20
34.86701
 30
0.0
 40
0.3125
  1
TYP.
 41
0.75
  7
TXT
  0
DIMENSION
  8
DIM
  2
*D21
 10
16.105948
 20
33.544444
 30
0.0
 11
14.971271
 21
35.024827
 31
0.0
 12
0.684249
 22
0.164163
 32
0.0
 70
   130
  1
5%%D
 13
16.105948
 23
33.532235
 33
0.0
 14
16.163745
 24
34.192859
 34
0.0
 15
16.105948
 25
33.532235
 35
0.0
 16
16.147761
 26
35.560031
 36
0.0
  3
STD
  0
ARC
  8
OBJECT
 10
16.263365
 20
34.184144
 30
0.0
 40
0.1
 50
102.29719
 51
175.0
  0
LINE
  8
OBJECT
 10
16.212454
 20
33.602235
 30
0.0
 11
16.26343
 21
34.184888
 31
0.0
  0
LINE
  8
OBJECT
 10
16.105948
 20
33.532235
 30
0.0
 11
16.163745
 21
34.192859
 31
0.0
  0
DIMENSION
  8
DIM
  2
*D22
 10
21.539037
 20
33.415161
 30
0.0
 11
20.631381
 21
32.515161
 31
0.0
 12
0.684249
 22
0.164163
 32
0.0
 70
   128
 13
20.981948
 23
33.515161
 33
0.0
 14
20.881566
 24
33.415161
 34
0.0
 50
90.0
  3
STD
  0
DIMENSION
  8
DIM
  2
*D23
 10
22.723225
 20
35.280161
 30
0.0
 11
22.723225
 21
34.347661
 31
0.0
 12
0.684249
 22
0.164163
 32
0.0
 13
20.716448
 23
33.415161
 33
0.0
 14
20.821818
 24
35.280161
 34
0.0
 50
90.0
  3
DIM
  0
TEXT
  8
TEXT
 10
17.248272
 20
36.609452
 30
0.0
 40
0.3125
  1
*
 41
0.75
  7
TXT
  0
LINE
  8
HIDDEN
 10
18.335428
 20
34.717699
 30
0.0
 11
20.67477
 21
35.227638
 31
0.0
  0
LINE
  8
HIDDEN
 10
18.37427
 20
34.64555
 30
0.0
 11
20.821858
 21
35.179703
 31
0.0
  0
LINE
  8
OBJECT
 10
16.26343
 20
34.184888
 30
0.0
 11
18.37427
 21
34.64555
 31
0.0
  0
LINE
  8
OBJECT
 10
16.258477
 20
34.264957
 30
0.0
 11
18.335428
 21
34.717699
 31
0.0
  0
POLYLINE
  8
OBJECT
 66
     1
 10
0.0
 20
0.0
 30
0.0
 75
     6
  0
VERTEX
  8
OBJECT
 10
18.322296
 20
34.735306
 30
0.0
  0
VERTEX
  8
OBJECT
 10
18.34228
 20
34.708511
 30
0.0
  0
VERTEX
  8
OBJECT
 10
18.370571
 20
34.656601
 30
0.0
  0
VERTEX
  8
OBJECT
 10
18.385539
 20
34.611879
 30
0.0
  0
VERTEX
  8
OBJECT
 10
18.390343
 20
34.573414
 30
0.0
  0
VERTEX
  8
OBJECT
 10
18.388141
 20
34.540271
 30
0.0
  0
VERTEX
  8
OBJECT
 10
18.382094
 20
34.511516
 30
0.0
  0
VERTEX
  8
OBJECT
 10
18.37536
 20
34.486216
 30
0.0
  0
VERTEX
  8
OBJECT
 10
18.371099
 20
34.463436
 30
0.0
  0
VERTEX
  8
OBJECT
 10
18.371709
 20
34.442342
 30
0.0
  0
VERTEX
  8
OBJECT
 10
18.376538
 20
34.422491
 30
0.0
  0
VERTEX
  8
OBJECT
 10
18.384174
 20
34.403541
 30
0.0
  0
VERTEX
  8
OBJECT
 10
18.393206
 20
34.385146
 30
0.0
  0
VERTEX
  8
OBJECT
 10
18.402219
 20
34.366965
 30
0.0
  0
VERTEX
  8
OBJECT
 10
18.409803
 20
34.348653
 30
0.0
  0
VERTEX
  8
OBJECT
 10
18.414544
 20
34.329866
 30
0.0
  0
VERTEX
  8
OBJECT
 10
18.41503
 20
34.310262
 30
0.0
  0
VERTEX
  8
OBJECT
 10
18.410329
 20
34.289614
 30
0.0
  0
VERTEX
  8
OBJECT
 10
18.401431
 20
34.268163
 30
0.0
  0
VERTEX
  8
OBJECT
 10
18.389804
 20
34.246266
 30
0.0
  0
VERTEX
  8
OBJECT
 10
18.376919
 20
34.224283
 30
0.0
  0
VERTEX
  8
OBJECT
 10
18.364245
 20
34.20257
 30
0.0
  0
VERTEX
  8
OBJECT
 10
18.353253
 20
34.181486
 30
0.0
  0
VERTEX
  8
OBJECT
 10
18.34541
 20
34.16139
 30
0.0
  0
VERTEX
  8
OBJECT
 10
18.342188
 20
34.142638
 30
0.0
  0
VERTEX
  8
OBJECT
 10
18.344556
 20
34.12547
 30
0.0
  0
VERTEX
  8
OBJECT
 10
18.351492
 20
34.109645
 30
0.0
  0
VERTEX
  8
OBJECT
 10
18.361473
 20
34.094804
 30
0.0
  0
VERTEX
  8
OBJECT
 10
18.372977
 20
34.080587
 30
0.0
  0
VERTEX
  8
OBJECT
 10
18.38448
 20
34.066635
 30
0.0
  0
VERTEX
  8
OBJECT
 10
18.394461
 20
34.052588
 30
0.0
  0
VERTEX
  8
OBJECT
 10
18.401397
 20
34.038085
 30
0.0
  0
VERTEX
  8
OBJECT
 10
18.403766
 20
34.022769
 30
0.0
  0
VERTEX
  8
OBJECT
 10
18.400534
 20
34.006362
 30
0.0
  0
VERTEX
  8
OBJECT
 10
18.392628
 20
33.988929
 30
0.0
  0
VERTEX
  8
OBJECT
 10
18.381461
 20
33.970614
 30
0.0
  0
VERTEX
  8
OBJECT
 10
18.368448
 20
33.951566
 30
0.0
  0
VERTEX
  8
OBJECT
 10
18.355003
 20
33.931931
 30
0.0
  0
VERTEX
  8
OBJECT
 10
18.342543
 20
33.911856
 30
0.0
  0
VERTEX
  8
OBJECT
 10
18.33248
 20
33.891487
 30
0.0
  0
VERTEX
  8
OBJECT
 10
18.32623
 20
33.870971
 30
0.0
  0
VERTEX
  8
OBJECT
 10
18.324749
 20
33.865442
 30
0.0
  0
VERTEX
  8
OBJECT
 10
18.327163
 20
33.844979
 30
0.0
  0
VERTEX
  8
OBJECT
 10
18.332137
 20
33.824648
 30
0.0
  0
VERTEX
  8
OBJECT
 10
18.338339
 20
33.804516
 30
0.0
  0
VERTEX
  8
OBJECT
 10
18.344435
 20
33.784648
 30
0.0
  0
VERTEX
  8
OBJECT
 10
18.349093
 20
33.76511
 30
0.0
  0
VERTEX
  8
OBJECT
 10
18.350978
 20
33.74597
 30
0.0
  0
VERTEX
  8
OBJECT
 10
18.348759
 20
33.727292
 30
0.0
  0
VERTEX
  8
OBJECT
 10
18.341568
 20
33.709097
 30
0.0
  0
VERTEX
  8
OBJECT
 10
18.330411
 20
33.691218
 30
0.0
  0
VERTEX
  8
OBJECT
 10
18.316763
 20
33.673442
 30
0.0
  0
VERTEX
  8
OBJECT
 10
18.302094
 20
33.655556
 30
0.0
  0
VERTEX
  8
OBJECT
 10
18.287878
 20
33.637348
 30
0.0
  0
VERTEX
  8
OBJECT
 10
18.275589
 20
33.618605
 30
0.0
  0
VERTEX
  8
OBJECT
 10
18.266699
 20
33.599113
 30
0.0
  0
VERTEX
  8
OBJECT
 10
18.26268
 20
33.57866
 30
0.0
  0
VERTEX
  8
OBJECT
 10
18.264063
 20
33.557012
 30
0.0
  0
VERTEX
  8
OBJECT
 10
18.267598
 20
33.533853
 30
0.0
  0
VERTEX
  8
OBJECT
 10
18.269094
 20
33.508845
 30
0.0
  0
VERTEX
  8
OBJECT
 10
18.264358
 20
33.481653
 30
0.0
  0
VERTEX
  8
OBJECT
 10
18.249199
 20
33.451938
 30
0.0
  0
VERTEX
  8
OBJECT
 10
18.219423
 20
33.419363
 30
0.0
  0
VERTEX
  8
OBJECT
 10
18.213716
 20
33.415161
 30
0.0
  0
SEQEND
  8
OBJECT
  0
LINE
  8
OBJECT
 10
16.648448
 20
33.532235
 30
0.0
 11
20.981948
 21
33.532235
 31
0.0
  0
ARC
  8
OBJECT
 10
20.881566
 20
33.515161
 30
0.0
 40
0.1
 50
270.0
 51
355.0
  0
ARC
  8
OBJECT
 10
16.20633
 20
33.515161
 30
0.0
 40
0.1
 50
185.0
 51
270.0
  0
ARC
  8
OBJECT
 10
20.821818
 20
35.180161
 30
0.0
 40
0.1
 50
5.0
 51
90.0
  0
LINE
  8
HIDDEN
 10
20.749448
 20
33.602235
 30
0.0
 11
20.749448
 21
33.515161
 31
0.0
  0
LINE
  8
HIDDEN
 10
20.439448
 20
33.602235
 30
0.0
 11
20.439448
 21
33.515161
 31
0.0
  0
LINE
  8
HIDDEN
 10
20.749448
 20
33.602235
 30
0.0
 11
20.439448
 21
33.602235
 31
0.0
  0
LINE
  8
HIDDEN
 10
20.724448
 20
33.602235
 30
0.0
 11
20.724448
 21
35.158444
 31
0.0
  0
LINE
  8
HIDDEN
 10
20.464448
 20
33.602235
 30
0.0
 11
20.464448
 21
35.101703
 31
0.0
  0
LINE
  8
HIDDEN
 10
20.641448
 20
33.633235
 30
0.0
 11
20.641448
 21
35.140331
 31
0.0
  0
LINE
  8
HIDDEN
 10
20.547448
 20
33.633235
 30
0.0
 11
20.547448
 21
35.119817
 31
0.0
  0
LINE
  8
HIDDEN
 10
20.716448
 20
33.542235
 30
0.0
 11
20.472448
 21
33.542235
 31
0.0
  0
LINE
  8
HIDDEN
 10
20.716448
 20
33.415161
 30
0.0
 11
20.716448
 21
33.542235
 31
0.0
  0
LINE
  8
HIDDEN
 10
20.472448
 20
33.415161
 30
0.0
 11
20.472448
 21
33.542235
 31
0.0
  0
LINE
  8
HIDDEN
 10
20.659448
 20
33.602235
 30
0.0
 11
20.659448
 21
33.542235
 31
0.0
  0
LINE
  8
HIDDEN
 10
20.529448
 20
33.602235
 30
0.0
 11
20.529448
 21
33.542235
 31
0.0
  0
LINE
  8
HIDDEN
 10
20.516448
 20
33.602235
 30
0.0
 11
20.547448
 21
33.633235
 31
0.0
  0
LINE
  8
HIDDEN
 10
20.672448
 20
33.602235
 30
0.0
 11
20.641448
 21
33.633235
 31
0.0
  0
LINE
  8
HIDDEN
 10
20.547448
 20
33.633235
 30
0.0
 11
20.641448
 21
33.633235
 31
0.0
  0
LINE
  8
HIDDEN
 10
20.88306
 20
33.515161
 30
0.0
 11
20.821858
 21
35.179703
 31
0.0
  0
LINE
  8
HIDDEN
 10
16.540448
 20
33.633235
 30
0.0
 11
16.446448
 21
33.633235
 31
0.0
  0
LINE
  8
HIDDEN
 10
16.415448
 20
33.602235
 30
0.0
 11
16.446448
 21
33.633235
 31
0.0
  0
LINE
  8
HIDDEN
 10
16.571448
 20
33.602235
 30
0.0
 11
16.540448
 21
33.633235
 31
0.0
  0
LINE
  8
HIDDEN
 10
16.558448
 20
33.602235
 30
0.0
 11
16.558448
 21
33.542235
 31
0.0
  0
LINE
  8
HIDDEN
 10
16.428448
 20
33.602235
 30
0.0
 11
16.428448
 21
33.542235
 31
0.0
  0
LINE
  8
HIDDEN
 10
16.615448
 20
33.415161
 30
0.0
 11
16.615448
 21
33.542235
 31
0.0
  0
LINE
  8
HIDDEN
 10
16.371448
 20
33.415161
 30
0.0
 11
16.371448
 21
33.542235
 31
0.0
  0
LINE
  8
HIDDEN
 10
16.371448
 20
33.542235
 30
0.0
 11
16.615448
 21
33.542235
 31
0.0
  0
LINE
  8
HIDDEN
 10
16.540448
 20
33.633235
 30
0.0
 11
16.540448
 21
34.26829
 31
0.0
  0
LINE
  8
HIDDEN
 10
16.446448
 20
33.633235
 30
0.0
 11
16.446448
 21
34.26829
 31
0.0
  0
LINE
  8
OBJECT
 10
16.623448
 20
33.602235
 30
0.0
 11
16.623448
 21
34.263457
 31
0.0
  0
LINE
  8
OBJECT
 10
16.363448
 20
33.602235
 30
0.0
 11
16.363448
 21
34.206716
 31
0.0
  0
LINE
  8
OBJECT
 10
16.338448
 20
33.602235
 30
0.0
 11
16.648448
 21
33.602235
 31
0.0
  0
LINE
  8
OBJECT
 10
16.648448
 20
33.515161
 30
0.0
 11
20.981948
 21
33.515161
 31
0.0
  0
LINE
  8
OBJECT
 10
16.648448
 20
33.602235
 30
0.0
 11
16.648448
 21
33.515161
 31
0.0
  0
LINE
  8
OBJECT
 10
16.338448
 20
33.602235
 30
0.0
 11
16.338448
 21
33.515161
 31
0.0
  0
LINE
  8
OBJECT
 10
16.20633
 20
33.532235
 30
0.0
 11
16.338448
 21
33.532235
 31
0.0
  0
LINE
  8
OBJECT
 10
16.20633
 20
33.515161
 30
0.0
 11
16.338448
 21
33.515161
 31
0.0
  0
LINE
  8
OBJECT
 10
16.20633
 20
33.515161
 30
0.0
 11
16.20633
 21
33.602235
 31
0.0
  0
LINE
  8
OBJECT
 10
16.165948
 20
33.532235
 30
0.0
 11
16.165948
 21
33.515161
 31
0.0
  0
LINE
  8
OBJECT
 10
16.165948
 20
33.602235
 30
0.0
 11
16.212454
 21
33.602235
 31
0.0
  0
LINE
  8
OBJECT
 10
16.165948
 20
33.602235
 30
0.0
 11
16.165948
 21
33.532235
 31
0.0
  0
LINE
  8
OBJECT
 10
16.105948
 20
33.515161
 30
0.0
 11
16.165948
 21
33.515161
 31
0.0
  0
LINE
  8
OBJECT
 10
16.105948
 20
33.532235
 30
0.0
 11
16.165948
 21
33.532235
 31
0.0
  0
LINE
  8
OBJECT
 10
20.981948
 20
33.515161
 30
0.0
 11
20.981186
 21
33.506446
 31
0.0
  0
LINE
  8
OBJECT
 10
16.105948
 20
33.515161
 30
0.0
 11
16.106711
 21
33.506446
 31
0.0
  0
LINE
  8
OBJECT
 10
16.20633
 20
33.415161
 30
0.0
 11
20.881566
 21
33.415161
 31
0.0
  0
LINE
  8
OBJECT
 10
20.981948
 20
33.532235
 30
0.0
 11
20.921437
 21
35.188877
 31
0.0
  0
LINE
  8
OBJECT
 10
16.242066
 20
34.281849
 30
0.0
 11
20.821818
 21
35.280161
 31
0.0
  0
LINE
  8
HIDDEN
 10
16.446448
 20
34.26829
 30
0.0
 11
16.540448
 21
34.26829
 31
0.0
  0
TEXT
  8
TEXT
 10
4.790696
 20
18.261836
 30
0.0
 40
0.389792
  1
UTILIBOX  (STYLE D)
 41
0.75
  7
TXT
 72
     1
 11
7.324344
 21
18.261836
 31
0.0
  0
TEXT
  8
TEXT
 10
17.450797
 20
18.261836
 30
0.0
 40
0.389792
  1
CU-743  &  CU-745
 41
0.75
  7
TXT
 72
     1
 11
19.886997
 21
18.261836
 31
0.0
  0
LINE
  8
OBJECT
 10
2.15769
 20
12.393868
 30
0.0
 11
4.30869
 21
12.393868
 31
0.0
  0
LINE
  8
OBJECT
 10
4.49569
 20
12.206868
 30
0.0
 11
4.49569
 21
7.550868
 31
0.0
  0
LINE
  8
OBJECT
 10
4.30869
 20
7.363868
 30
0.0
 11
2.15769
 21
7.363868
 31
0.0
  0
LINE
  8
OBJECT
 10
1.97069
 20
7.550868
 30
0.0
 11
1.97069
 21
12.206868
 31
0.0
  0
LINE
  8
OBJECT
 10
2.07069
 20
7.550868
 30
0.0
 11
2.07069
 21
12.206868
 31
0.0
  0
LINE
  8
OBJECT
 10
4.30869
 20
7.463868
 30
0.0
 11
2.15769
 21
7.463868
 31
0.0
  0
LINE
  8
OBJECT
 10
4.39569
 20
12.206868
 30
0.0
 11
4.39569
 21
7.550868
 31
0.0
  0
LINE
  8
OBJECT
 10
2.15769
 20
12.293868
 30
0.0
 11
4.30869
 21
12.293868
 31
0.0
  0
ARC
  8
OBJECT
 10
2.15769
 20
7.550868
 30
0.0
 40
0.187
 50
180.0
 51
270.0
  0
ARC
  8
OBJECT
 10
4.30869
 20
7.550868
 30
0.0
 40
0.187
 50
270.0
 51
0.0
  0
ARC
  8
OBJECT
 10
4.30869
 20
12.206868
 30
0.0
 40
0.187
 50
0.0
 51
90.0
  0
ARC
  8
OBJECT
 10
2.15769
 20
12.206868
 30
0.0
 40
0.187
 50
90.0
 51
180.0
  0
ARC
  8
OBJECT
 10
2.15769
 20
7.550868
 30
0.0
 40
0.087
 50
180.0
 51
270.0
  0
ARC
  8
OBJECT
 10
4.30869
 20
7.550868
 30
0.0
 40
0.087
 50
270.0
 51
0.0
  0
ARC
  8
OBJECT
 10
4.30869
 20
12.206868
 30
0.0
 40
0.087
 50
0.0
 51
90.0
  0
ARC
  8
OBJECT
 10
2.15769
 20
12.206868
 30
0.0
 40
0.087
 50
90.0
 51
180.0
  0
CIRCLE
  8
OBJECT
 10
4.19569
 20
7.663868
 30
0.0
 40
0.045
  0
CIRCLE
  8
OBJECT
 10
4.19569
 20
7.663868
 30
0.0
 40
0.11
  0
LINE
  8
OBJECT
 10
4.292364
 20
7.611388
 30
0.0
 11
4.3882
 21
7.515553
 31
0.0
  0
LINE
  8
OBJECT
 10
4.24817
 20
7.567194
 30
0.0
 11
4.344006
 21
7.471358
 31
0.0
  0
LINE
  8
OBJECT
 10
2.21821
 20
7.567194
 30
0.0
 11
2.122374
 21
7.471358
 31
0.0
  0
LINE
  8
OBJECT
 10
2.174016
 20
7.611388
 30
0.0
 11
2.07818
 21
7.515553
 31
0.0
  0
CIRCLE
  8
OBJECT
 10
2.27069
 20
7.663868
 30
0.0
 40
0.11
  0
CIRCLE
  8
OBJECT
 10
2.27069
 20
7.663868
 30
0.0
 40
0.045
  0
LINE
  8
OBJECT
 10
4.24817
 20
12.190542
 30
0.0
 11
4.344006
 21
12.286378
 31
0.0
  0
LINE
  8
OBJECT
 10
4.292364
 20
12.146348
 30
0.0
 11
4.3882
 21
12.242184
 31
0.0
  0
CIRCLE
  8
OBJECT
 10
4.19569
 20
12.093868
 30
0.0
 40
0.11
  0
CIRCLE
  8
OBJECT
 10
4.19569
 20
12.093868
 30
0.0
 40
0.045
  0
CIRCLE
  8
OBJECT
 10
2.27069
 20
12.093868
 30
0.0
 40
0.045
  0
CIRCLE
  8
OBJECT
 10
2.27069
 20
12.093868
 30
0.0
 40
0.11
  0
LINE
  8
OBJECT
 10
2.174016
 20
12.146348
 30
0.0
 11
2.07818
 21
12.242184
 31
0.0
  0
LINE
  8
OBJECT
 10
2.21821
 20
12.190542
 30
0.0
 11
2.122374
 21
12.286378
 31
0.0
  0
LINE
  8
OBJECT
 10
8.969003
 20
7.363868
 30
0.0
 11
8.969003
 21
12.393868
 31
0.0
  0
LINE
  8
OBJECT
 10
10.468775
 20
7.512884
 30
0.0
 11
10.468775
 21
12.244852
 31
0.0
  0
LINE
  8
OBJECT
 10
8.969003
 20
12.393868
 30
0.0
 11
10.345957
 21
12.369833
 31
0.0
  0
LINE
  8
HIDDEN
 10
10.368775
 20
7.512884
 30
0.0
 11
10.368775
 21
12.244852
 31
0.0
  0
LINE
  8
HIDDEN
 10
8.969003
 20
12.293853
 30
0.0
 11
10.344211
 21
12.269849
 31
0.0
  0
LINE
  8
HIDDEN
 10
8.969003
 20
7.463883
 30
0.0
 11
10.344211
 21
7.487888
 31
0.0
  0
LINE
  8
OBJECT
 10
8.969003
 20
7.363868
 30
0.0
 11
10.345957
 21
7.387903
 31
0.0
  0
LINE
  8
HIDDEN
 10
9.187003
 20
11.983868
 30
0.0
 11
9.187003
 21
12.203868
 31
0.0
  0
LINE
  8
HIDDEN
 10
9.187003
 20
12.203868
 30
0.0
 11
10.368775
 21
12.203868
 31
0.0
  0
LINE
  8
HIDDEN
 10
9.187003
 20
11.983868
 30
0.0
 11
10.368775
 21
11.983868
 31
0.0
  0
LINE
  8
HIDDEN
 10
9.187003
 20
7.773868
 30
0.0
 11
9.187003
 21
7.553868
 31
0.0
  0
LINE
  8
HIDDEN
 10
9.187003
 20
7.553868
 30
0.0
 11
10.368775
 21
7.553868
 31
0.0
  0
LINE
  8
HIDDEN
 10
9.187003
 20
7.773868
 30
0.0
 11
10.368775
 21
7.773868
 31
0.0
  0
ARC
  8
OBJECT
 10
10.343775
 20
7.512884
 30
0.0
 40
0.125
 50
271.0
 51
0.0
  0
ARC
  8
OBJECT
 10
10.343775
 20
12.244852
 30
0.0
 40
0.125
 50
0.0
 51
89.0
  0
ARC
  8
HIDDEN
 10
10.343775
 20
7.512884
 30
0.0
 40
0.025
 50
271.0
 51
0.0
  0
ARC
  8
HIDDEN
 10
10.343775
 20
12.244852
 30
0.0
 40
0.025
 50
0.0
 51
89.0
  0
ARC
  8
OBJECT
 10
13.018668
 20
12.206868
 30
0.0
 40
0.087
 50
90.0
 51
180.0
  0
ARC
  8
OBJECT
 10
15.169668
 20
12.206868
 30
0.0
 40
0.087
 50
0.0
 51
90.0
  0
ARC
  8
OBJECT
 10
15.169668
 20
7.550868
 30
0.0
 40
0.087
 50
270.0
 51
0.0
  0
ARC
  8
OBJECT
 10
13.018668
 20
7.550868
 30
0.0
 40
0.087
 50
180.0
 51
270.0
  0
ARC
  8
OBJECT
 10
13.018668
 20
12.206868
 30
0.0
 40
0.187
 50
90.0
 51
180.0
  0
ARC
  8
OBJECT
 10
15.169668
 20
12.206868
 30
0.0
 40
0.187
 50
0.0
 51
90.0
  0
ARC
  8
OBJECT
 10
15.169668
 20
7.550868
 30
0.0
 40
0.187
 50
270.0
 51
0.0
  0
ARC
  8
OBJECT
 10
13.018668
 20
7.550868
 30
0.0
 40
0.187
 50
180.0
 51
270.0
  0
LINE
  8
OBJECT
 10
13.018668
 20
12.248868
 30
0.0
 11
15.169668
 21
12.248868
 31
0.0
  0
LINE
  8
OBJECT
 10
15.211668
 20
12.206868
 30
0.0
 11
15.211668
 21
7.550868
 31
0.0
  0
LINE
  8
OBJECT
 10
15.169668
 20
7.508868
 30
0.0
 11
13.018668
 21
7.508868
 31
0.0
  0
LINE
  8
OBJECT
 10
12.976668
 20
7.550868
 30
0.0
 11
12.976668
 21
12.206868
 31
0.0
  0
LINE
  8
OBJECT
 10
12.831668
 20
7.550868
 30
0.0
 11
12.831668
 21
12.206868
 31
0.0
  0
LINE
  8
OBJECT
 10
15.169668
 20
7.363868
 30
0.0
 11
13.018668
 21
7.363868
 31
0.0
  0
LINE
  8
OBJECT
 10
13.018668
 20
12.393868
 30
0.0
 11
15.169668
 21
12.393868
 31
0.0
  0
LINE
  8
OBJECT
 10
15.169668
 20
7.463868
 30
0.0
 11
13.018668
 21
7.463868
 31
0.0
  0
LINE
  8
OBJECT
 10
12.931668
 20
7.550868
 30
0.0
 11
12.931668
 21
12.206868
 31
0.0
  0
LINE
  8
OBJECT
 10
15.256668
 20
12.206868
 30
0.0
 11
15.256668
 21
7.550868
 31
0.0
  0
LINE
  8
OBJECT
 10
13.018668
 20
12.293868
 30
0.0
 11
15.169668
 21
12.293868
 31
0.0
  0
CIRCLE
  8
OBJECT
 10
13.131668
 20
7.663868
 30
0.0
 40
0.0625
  0
CIRCLE
  8
OBJECT
 10
13.131668
 20
7.663868
 30
0.0
 40
0.13
  0
CIRCLE
  8
OBJECT
 10
15.056668
 20
7.663868
 30
0.0
 40
0.13
  0
CIRCLE
  8
OBJECT
 10
15.056668
 20
7.663868
 30
0.0
 40
0.0625
  0
CIRCLE
  8
OBJECT
 10
15.056668
 20
12.093868
 30
0.0
 40
0.0625
  0
CIRCLE
  8
OBJECT
 10
15.056668
 20
12.093868
 30
0.0
 40
0.13
  0
CIRCLE
  8
OBJECT
 10
13.131668
 20
12.093868
 30
0.0
 40
0.13
  0
CIRCLE
  8
OBJECT
 10
13.131668
 20
12.093868
 30
0.0
 40
0.0625
  0
LINE
  8
OBJECT
 10
15.356668
 20
12.206868
 30
0.0
 11
15.356668
 21
7.550868
 31
0.0
  0
LINE
  8
OBJECT
 10
19.269243
 20
12.293868
 30
0.0
 11
19.314243
 21
12.293868
 31
0.0
  0
LINE
  8
OBJECT
 10
19.314243
 20
7.463868
 30
0.0
 11
19.269243
 21
7.463868
 31
0.0
  0
LINE
  8
OBJECT
 10
19.314243
 20
12.393868
 30
0.0
 11
19.334243
 21
12.393868
 31
0.0
  0
LINE
  8
OBJECT
 10
19.334243
 20
7.363868
 30
0.0
 11
19.314243
 21
7.363868
 31
0.0
  0
LINE
  8
OBJECT
 10
19.269243
 20
12.293868
 30
0.0
 11
19.269243
 21
7.463868
 31
0.0
  0
LINE
  8
OBJECT
 10
19.314243
 20
12.393868
 30
0.0
 11
19.314243
 21
7.363868
 31
0.0
  0
LINE
  8
OBJECT
 10
19.429243
 20
12.298868
 30
0.0
 11
19.429243
 21
7.458868
 31
0.0
  0
LINE
  8
OBJECT
 10
19.159243
 20
7.793868
 30
0.0
 11
19.159243
 21
7.533868
 31
0.0
  0
LINE
  8
OBJECT
 10
19.159243
 20
7.793868
 30
0.0
 11
19.269243
 21
7.793868
 31
0.0
  0
LINE
  8
OBJECT
 10
19.159243
 20
7.533868
 30
0.0
 11
19.269243
 21
7.533868
 31
0.0
  0
LINE
  8
HIDDEN
 10
19.159243
 20
7.726368
 30
0.0
 11
19.320243
 21
7.726368
 31
0.0
  0
LINE
  8
HIDDEN
 10
19.159243
 20
7.601368
 30
0.0
 11
19.320243
 21
7.601368
 31
0.0
  0
LINE
  8
HIDDEN
 10
19.320243
 20
7.776368
 30
0.0
 11
19.429243
 21
7.776368
 31
0.0
  0
LINE
  8
HIDDEN
 10
19.320243
 20
7.551368
 30
0.0
 11
19.429243
 21
7.551368
 31
0.0
  0
LINE
  8
HIDDEN
 10
19.320243
 20
12.206368
 30
0.0
 11
19.429243
 21
12.206368
 31
0.0
  0
LINE
  8
HIDDEN
 10
19.320243
 20
11.981368
 30
0.0
 11
19.429243
 21
11.981368
 31
0.0
  0
LINE
  8
HIDDEN
 10
19.159243
 20
12.156368
 30
0.0
 11
19.320243
 21
12.156368
 31
0.0
  0
LINE
  8
HIDDEN
 10
19.159243
 20
12.031368
 30
0.0
 11
19.320243
 21
12.031368
 31
0.0
  0
LINE
  8
OBJECT
 10
19.159243
 20
12.223868
 30
0.0
 11
19.269243
 21
12.223868
 31
0.0
  0
LINE
  8
OBJECT
 10
19.159243
 20
11.963868
 30
0.0
 11
19.269243
 21
11.963868
 31
0.0
  0
LINE
  8
OBJECT
 10
19.159243
 20
11.963868
 30
0.0
 11
19.159243
 21
12.223868
 31
0.0
  0
ARC
  8
OBJECT
 10
23.928747
 20
12.244852
 30
0.0
 40
0.125
 50
0.0
 51
89.0
  0
ARC
  8
OBJECT
 10
23.928747
 20
7.512884
 30
0.0
 40
0.125
 50
271.0
 51
0.0
  0
LINE
  8
OBJECT
 10
22.553975
 20
7.363868
 30
0.0
 11
23.930928
 21
7.387903
 31
0.0
  0
LINE
  8
OBJECT
 10
22.553975
 20
12.393868
 30
0.0
 11
23.930928
 21
12.369833
 31
0.0
  0
LINE
  8
OBJECT
 10
24.053747
 20
7.512884
 30
0.0
 11
24.053747
 21
12.244852
 31
0.0
  0
LINE
  8
OBJECT
 10
22.553975
 20
7.363868
 30
0.0
 11
22.553975
 21
12.393868
 31
0.0
  0
ARC
  8
OBJECT
 10
22.548975
 20
12.298868
 30
0.0
 40
0.095
 50
90.0
 51
180.0
  0
ARC
  8
OBJECT
 10
22.548975
 20
7.458868
 30
0.0
 40
0.095
 50
180.0
 51
270.0
  0
LINE
  8
OBJECT
 10
22.453975
 20
12.298868
 30
0.0
 11
22.453975
 21
7.458868
 31
0.0
  0
LINE
  8
OBJECT
 10
22.548975
 20
7.363868
 30
0.0
 11
22.553975
 21
7.363868
 31
0.0
  0
LINE
  8
OBJECT
 10
22.553975
 20
12.393868
 30
0.0
 11
22.548975
 21
12.393868
 31
0.0
  0
DIMENSION
  8
DIM
  2
*D32
 10
1.97069
 20
13.118001
 30
0.0
 11
3.23319
 21
13.118001
 31
0.0
 12
0.0
 22
-0.647632
 32
0.0
  1
<>
 13
4.49569
 23
12.206868
 33
0.0
 14
1.97069
 24
12.206868
 34
0.0
  3
DIM
  0
DIMENSION
  8
DIM
  2
*D33
 10
1.196906
 20
7.363868
 30
0.0
 11
1.196906
 21
9.878868
 31
0.0
 12
0.0
 22
-0.647632
 32
0.0
  1
<>
 13
2.15769
 23
12.393868
 33
0.0
 14
2.15769
 24
7.363868
 34
0.0
 50
90.0
  3
STD
  0
DIMENSION
  8
DIM
  2
*D24
 10
2.844122
 20
7.363868
 30
0.0
 11
1.798028
 21
6.463868
 31
0.0
 12
-0.887335
 22
-3.139516
 32
0.0
 13
2.902202
 23
7.463868
 33
0.0
 14
2.902202
 24
7.363868
 34
0.0
 50
90.0
  3
STD
  0
DIMENSION
  8
DIM
  2
*D31
 10
22.453975
 20
6.459312
 30
0.0
 11
23.253861
 21
6.459312
 31
0.0
 12
0.492067
 22
-3.139516
 32
0.0
  1
A
 13
24.053747
 23
7.512884
 33
0.0
 14
22.453975
 24
7.458868
 34
0.0
  3
DIM
  0
DIMENSION
  8
DIM
  2
*D30
 10
4.49569
 20
9.2147
 30
0.0
 11
6.030846
 21
9.2147
 31
0.0
 12
0.0
 22
-3.139516
 32
0.0
 13
4.19569
 23
7.663868
 33
0.0
 14
4.49569
 24
9.227602
 34
0.0
  3
STD
  0
DIMENSION
  8
DIM
  2
*D25
 10
5.383513
 20
7.363868
 30
0.0
 11
6.279533
 21
6.463868
 31
0.0
 12
0.0
 22
-3.139516
 32
0.0
 70
   128
 13
4.19569
 23
7.663868
 33
0.0
 14
4.30869
 24
7.363868
 34
0.0
 50
90.0
  3
STD
  0
LINE
  8
DIM
 10
5.383513
 20
6.463868
 30
0.0
 11
5.7207
 21
6.463868
 31
0.0
  0
DIMENSION
  8
DIM
  2
*D26
 10
8.969003
 20
11.224611
 30
0.0
 11
7.433847
 21
11.224611
 31
0.0
 12
1.059624
 22
-3.139516
 32
0.0
 13
9.187003
 23
11.983868
 33
0.0
 14
8.969003
 24
11.224611
 34
0.0
  3
STD
  0
DIMENSION
  8
DIM
  2
*D39
 10
5.62874
 20
12.393868
 30
0.0
 11
6.52476
 21
13.293868
 31
0.0
 12
0.0
 22
-0.647632
 32
0.0
 70
   128
 13
4.19569
 23
12.093868
 33
0.0
 14
4.30869
 24
12.393868
 34
0.0
 50
90.0
  3
STD
  0
LINE
  8
DIM
 10
5.62874
 20
13.293868
 30
0.0
 11
5.99658
 21
13.293868
 31
0.0
  0
DIMENSION
  8
DIM
  2
*D38
 10
15.356668
 20
9.185824
 30
0.0
 11
16.891824
 21
9.185824
 31
0.0
 12
0.0
 22
-0.647632
 32
0.0
 13
15.056668
 23
7.663868
 33
0.0
 14
15.356668
 24
8.895525
 34
0.0
  3
STD
  0
DIMENSION
  8
DIM
  2
*D27
 10
16.24933
 20
7.363868
 30
0.0
 11
15.164174
 21
6.463868
 31
0.0
 12
1.414896
 22
-3.139516
 32
0.0
 13
15.056668
 23
7.663868
 33
0.0
 14
15.169668
 24
7.363868
 34
0.0
 50
90.0
  3
STD
  0
DIMENSION
  8
DIM
  2
*D28
 10
16.24933
 20
12.393868
 30
0.0
 11
17.334487
 21
13.293868
 31
0.0
 12
1.414896
 22
-3.139516
 32
0.0
 13
15.056668
 23
12.093868
 33
0.0
 14
15.169668
 24
12.393868
 34
0.0
 50
90.0
  3
STD
  0
DIMENSION
  8
DIM
  2
*D34
 10
19.429243
 20
14.211459
 30
0.0
 11
20.925337
 21
14.211459
 31
0.0
 12
-0.210328
 22
-0.647632
 32
0.0
  1
<>
 13
19.314243
 23
12.393868
 33
0.0
 14
19.429243
 24
12.298868
 34
0.0
  3
STD
  0
DIMENSION
  8
DIM
  2
*D41
 10
18.204099
 20
12.293868
 30
0.0
 11
17.158006
 21
11.393868
 31
0.0
 12
0.0
 22
-0.647632
 32
0.0
 13
19.314243
 23
12.393868
 33
0.0
 14
19.269243
 24
12.293868
 34
0.0
 50
90.0
  3
STD
  0
DIMENSION
  8
DIM
  2
*D40
 10
19.269243
 20
6.454474
 30
0.0
 11
17.714556
 21
6.454474
 31
0.0
 12
0.0
 22
-0.647632
 32
0.0
 13
19.314243
 23
7.363868
 33
0.0
 14
19.269243
 24
7.463868
 34
0.0
  3
STD
  0
DIMENSION
  8
DIM
  2
*D35
 10
10.468775
 20
6.450347
 30
0.0
 11
9.718889
 21
6.450347
 31
0.0
 12
0.519468
 22
-0.647632
 32
0.0
  1
B
 13
8.969003
 23
7.363868
 33
0.0
 14
10.468775
 24
7.512884
 34
0.0
  3
DIM
  0
ARC
  8
OBJECT
 10
19.334243
 20
7.458868
 30
0.0
 40
0.095
 50
270.0
 51
0.0
  0
ARC
  8
OBJECT
 10
19.334243
 20
12.298868
 30
0.0
 40
0.095
 50
0.0
 51
90.0
  0
TEXT
  8
DIM
 10
17.293308
 20
9.981148
 30
0.0
 40
0.3125
  1
TYP.
 41
0.75
  7
TXT
  0
TEXT
  8
DIM
 10
20.801455
 20
13.330467
 30
0.0
 40
0.3125
  1
0.095 R.
 41
0.75
  7
TXT
  0
TEXT
  8
DIM
 10
20.80438
 20
12.867693
 30
0.0
 40
0.3125
  1
TYP.
 41
0.75
  7
TXT
  0
POLYLINE
  8
DIM
 66
     1
 10
0.0
 20
0.0
 30
0.0
 41
0.16875
  0
VERTEX
  8
DIM
 10
13.161529
 20
7.608963
 30
0.0
  0
VERTEX
  8
DIM
 10
13.334391
 20
7.193489
 30
0.0
 41
0.0
  0
VERTEX
  8
DIM
 10
13.906425
 20
5.818609
 30
0.0
 41
0.0
  0
VERTEX
  8
DIM
 10
14.218925
 20
5.818609
 30
0.0
 41
0.0
  0
SEQEND
  8
DIM
  0
TEXT
  8
DIM
 10
14.531425
 20
5.662359
 30
0.0
 40
0.3125
  1
0.125 DIA.
 41
0.75
  7
TXT
  0
TEXT
  8
DIM
 10
14.531425
 20
5.141526
 30
0.0
 40
0.3125
  1
(4) HOLES
 41
0.75
  7
TXT
  0
SOLID
  8
DIM
 10
12.832737
 20
12.583575
 30
0.0
 11
12.709322
 21
12.498316
 31
0.0
 12
13.026804
 22
12.170703
 32
0.0
 13
13.026804
 23
12.170703
 33
0.0
  0
LINE
  8
DIM
 10
12.77103
 20
12.540945
 30
0.0
 11
12.070448
 21
13.555062
 31
0.0
  0
LINE
  8
DIM
 10
12.070448
 20
13.555062
 30
0.0
 11
12.397955
 21
13.555062
 31
0.0
  0
TEXT
  8
DIM
 10
12.622955
 20
13.398812
 30
0.0
 40
0.3125
  1
0.260 DIA. BOSS
 50
0.0
 41
0.75
  7
TXT
 11
12.622955
 21
13.555062
 31
0.0
 73
     2
  0
TEXT
  8
DIM
 10
12.734276
 20
12.939173
 30
0.0
 40
0.3125
  1
(4) PLACES
 50
0.0
 41
0.75
  7
TXT
 11
12.734276
 21
13.095423
 31
0.0
 73
     2
  0
DIMENSION
  8
DIM
  2
*D29
 10
8.969003
 20
8.533126
 30
0.0
 11
7.433847
 21
8.533126
 31
0.0
 12
1.059624
 22
-3.139516
 32
0.0
 13
9.187003
 23
7.773868
 33
0.0
 14
8.969003
 24
8.533126
 34
0.0
 50
180.0
  3
STD
  0
SOLID
  8
DIM
 10
1.793546
 20
12.731959
 30
0.0
 11
1.678667
 21
12.635508
 31
0.0
 12
2.025461
 22
12.339097
 32
0.0
 13
2.025461
 23
12.339097
 33
0.0
  0
LINE
  8
DIM
 10
1.736107
 20
12.683733
 30
0.0
 11
1.198177
 21
13.324436
 31
0.0
  0
LINE
  8
DIM
 10
1.198177
 20
13.324436
 30
0.0
 11
1.198177
 21
14.167914
 31
0.0
  0
LINE
  8
DIM
 10
1.198177
 20
14.167914
 30
0.0
 11
1.549884
 21
14.167914
 31
0.0
  0
TEXT
  8
DIM
 10
1.774884
 20
14.011664
 30
0.0
 40
0.3125
  1
0.187 R.
 41
0.75
  7
TXT
 11
1.774884
 21
14.167914
 31
0.0
 73
     2
  0
LINE
  8
DIM
 10
4.009773
 20
5.952227
 30
0.0
 11
4.330978
 21
5.952227
 31
0.0
  0
TEXT
  8
DIM
 10
1.251863
 20
5.620515
 30
0.0
 40
0.3125
  1
0.220 DIA.
 41
0.75
  7
TXT
 11
1.251863
 21
5.776765
 31
0.0
 73
     2
  0
TEXT
  8
DIM
 10
1.245515
 20
5.171569
 30
0.0
 40
0.3125
  1
(4) PLACES
 41
0.75
  7
TXT
 11
1.245515
 21
5.327819
 31
0.0
 73
     2
  0
TEXT
  8
DIM
 10
4.464982
 20
5.78985
 30
0.0
 40
0.3125
  1
0.090 DIA.
 50
360.0
 41
0.75
  7
TXT
 11
4.464982
 21
5.9461
 31
0.0
 73
     2
  0
TEXT
  8
DIM
 10
4.466646
 20
5.329233
 30
0.0
 40
0.3125
  1
(4) HOLES
 50
360.0
 41
0.75
  7
TXT
 11
4.466646
 21
5.485483
 31
0.0
 73
     2
  0
SOLID
  8
DIM
 10
1.790926
 20
7.377612
 30
0.0
 11
1.878549
 21
7.255866
 31
0.0
 12
2.199976
 22
7.579609
 32
0.0
 13
2.199976
 23
7.579609
 33
0.0
  0
LINE
  8
DIM
 10
1.834737
 20
7.316739
 30
0.0
 11
0.693694
 21
6.495504
 31
0.0
  0
LINE
  8
DIM
 10
0.693694
 20
7.143137
 30
0.0
 11
0.693694
 21
6.423263
 31
0.0
  0
LINE
  8
DIM
 10
0.693694
 20
5.775631
 30
0.0
 11
1.088795
 21
5.775631
 31
0.0
  0
SOLID
  8
DIM
 10
4.064293
 20
7.180264
 30
0.0
 11
4.21346
 21
7.164481
 31
0.0
 12
4.186226
 22
7.619874
 32
0.0
 13
4.186226
 23
7.619874
 33
0.0
  0
LINE
  8
DIM
 10
4.138876
 20
7.172373
 30
0.0
 11
4.009773
 21
5.952227
 31
0.0
  0
DIMENSION
  8
DIM
  2
*D43
 10
8.985459
 20
12.393868
 30
0.0
 11
10.733826
 21
13.285024
 31
0.0
 12
0.0
 22
-0.647632
 32
0.0
 70
   130
  1
1%%D
 13
8.969003
 23
12.393868
 33
0.0
 14
10.345957
 24
12.369833
 34
0.0
 15
8.969003
 25
12.393868
 35
0.0
 16
11.102601
 26
12.367764
 36
0.0
  3
DIM
  0
SOLID
  8
DIM
 10
10.781083
 20
7.130456
 30
0.0
 11
10.857879
 21
7.259306
 31
0.0
 12
10.432931
 22
7.42527
 32
0.0
 13
10.432931
 23
7.42527
 33
0.0
  0
LINE
  8
DIM
 10
10.819481
 20
7.194881
 30
0.0
 11
11.722834
 21
6.65647
 31
0.0
  0
LINE
  8
DIM
 10
11.722834
 20
6.65647
 30
0.0
 11
11.722834
 21
5.440286
 31
0.0
  0
LINE
  8
DIM
 10
11.722834
 20
5.440286
 30
0.0
 11
11.266605
 21
5.440286
 31
0.0
  0
TEXT
  8
DIM
 10
9.674418
 20
5.284036
 30
0.0
 40
0.3125
  1
0.125 R.
 41
0.75
  7
TXT
 72
     2
 11
11.041605
 21
5.440286
 31
0.0
 73
     2
  0
TEXT
  8
DIM
 10
10.013454
 20
4.823496
 30
0.0
 40
0.3125
  1
TYP.
 41
0.75
  7
TXT
 72
     2
 11
10.716579
 21
4.979746
 31
0.0
 73
     2
  0
LINE
  8
TITLE
 10
4.32
 20
0.155
 30
0.0
 11
4.32
 21
3.56
 31
0.0
  0
LINE
  8
TITLE
 10
8.485
 20
0.155
 30
0.0
 11
8.485
 21
3.56
 31
0.0
  0
LINE
  8
TITLE
 10
12.65
 20
0.155
 30
0.0
 11
12.65
 21
3.56
 31
0.0
  0
TEXT
  8
TEXT
 10
1.417187
 20
2.840714
 30
0.0
 40
0.3125
  1
PART No.
 41
0.75
  7
TXT
 72
     4
 11
2.2375
 21
2.996964
 31
0.0
  0
TEXT
  8
TEXT
 10
1.573437
 20
1.700935
 30
0.0
 40
0.3125
  1
CU-743
 41
0.75
  7
TXT
 72
     4
 11
2.2375
 21
1.857185
 31
0.0
  0
TEXT
  8
TEXT
 10
1.573437
 20
0.580764
 30
0.0
 40
0.3125
  1
CU-745
 41
0.75
  7
TXT
 72
     4
 11
2.2375
 21
0.737014
 31
0.0
  0
TEXT
  8
TEXT
 10
6.324375
 20
2.840714
 30
0.0
 40
0.3125
  1
A
 41
0.75
  7
TXT
 72
     4
 11
6.4025
 21
2.996964
 31
0.0
  0
TEXT
  8
TEXT
 10
5.992344
 20
1.700935
 30
0.0
 40
0.3125
  1
1.025
 41
0.75
  7
TXT
 72
     4
 11
6.4025
 21
1.857185
 31
0.0
  0
TEXT
  8
TEXT
 10
6.011875
 20
0.580764
 30
0.0
 40
0.3125
  1
1.615
 41
0.75
  7
TXT
 72
     4
 11
6.4025
 21
0.737014
 31
0.0
  0
TEXT
  8
TEXT
 10
10.489375
 20
2.840714
 30
0.0
 40
0.3125
  1
B
 41
0.75
  7
TXT
 72
     4
 11
10.5675
 21
2.996964
 31
0.0
  0
TEXT
  8
TEXT
 10
10.153021
 20
1.700935
 30
0.0
 40
0.3125
  1
0.910
 41
0.75
  7
TXT
 72
     4
 11
10.543646
 21
1.857185
 31
0.0
  0
TEXT
  8
TEXT
 10
10.153021
 20
0.580764
 30
0.0
 40
0.3125
  1
1.500
 41
0.75
  7
TXT
 72
     4
 11
10.543646
 21
0.737014
 31
0.0
  0
TEXT
  8
TEXT
 10
1.180155
 20
17.296141
 30
0.0
 40
0.3125
  1
%%UMATERIAL:%%u HIGH-IMPACT POLYSTYRENE
 41
0.75
  7
TXT
  0
TEXT
  8
TEXT
 10
1.180155
 20
16.775307
 30
0.0
 40
0.3125
  1
%%UCOLOR:%%U BLACK
 41
0.75
  7
TXT
  0
TEXT
  8
TEXT
 10
1.180155
 20
16.254474
 30
0.0
 40
0.3125
  1
%%UFINISH:%%u SMOOTH, MATTE
 41
0.75
  7
TXT
  0
TEXT
  8
TEXT
 10
13.964229
 20
17.32073
 30
0.0
 40
0.3125
  1
FOUR (4) #4 x 0.562" LG. SCREWS
 41
0.75
  7
TXT
  0
TEXT
  8
TEXT
 10
14.50411
 20
16.880535
 30
0.0
 40
0.3125
  1
SUPPLIED FOR ASSEMBLY.
 41
0.75
  7
TXT
  0
TEXT
  8
DIM
 10
6.673252
 20
9.048985
 30
0.0
 40
0.3125
  1
TYP.
 41
0.75
  7
TXT
  0
TEXT
  8
DIM
 10
17.5822
 20
9.022934
 30
0.0
 40
0.3125
  1
TYP.
 41
0.75
  7
TXT
  0
TEXT
  8
DIM
 10
1.91701
 20
13.520323
 30
0.0
 40
0.3125
  1
TYP.
 41
0.75
  7
TXT
  0
SOLID
  8
DIM
 10
19.723801
 20
12.671273
 30
0.0
 11
19.595805
 21
12.749484
 31
0.0
 12
19.425169
 22
12.326391
 32
0.0
 13
19.425169
 23
12.326391
 33
0.0
  0
LINE
  8
DIM
 10
19.659803
 20
12.710379
 30
0.0
 11
20.135632
 21
13.489094
 31
0.0
  0
LINE
  8
DIM
 10
20.135632
 20
13.489094
 30
0.0
 11
20.585632
 21
13.489094
 31
0.0
  0
ARC
  8
OBJECT
 10
15.169668
 20
7.550868
 30
0.0
 40
0.042
 50
270.0
 51
0.0
  0
ARC
  8
OBJECT
 10
13.018668
 20
7.550868
 30
0.0
 40
0.042
 50
180.0
 51
270.0
  0
ARC
  8
OBJECT
 10
15.169668
 20
12.206868
 30
0.0
 40
0.042
 50
0.0
 51
90.0
  0
ARC
  8
OBJECT
 10
13.018668
 20
12.206868
 30
0.0
 40
0.042
 50
90.0
 51
180.0
  0
DIMENSION
  8
DIM
  2
*D36
 10
12.931668
 20
9.553892
 30
0.0
 11
11.37698
 21
9.143328
 31
0.0
 12
0.0
 22
-1.53436
 32
0.0
 13
12.976668
 23
9.54674
 33
0.0
 14
12.931668
 24
9.54674
 34
0.0
  3
STD
  0
DIMENSION
  8
DIM
  2
*D37
 10
12.831668
 20
10.52073
 30
0.0
 11
11.296511
 21
10.52073
 31
0.0
 12
0.0
 22
-1.504525
 32
0.0
 13
12.976668
 23
10.513578
 33
0.0
 14
12.831668
 24
10.513578
 34
0.0
  3
STD
  0
SOLID
  8
DIM
 10
19.705973
 20
7.188676
 30
0.0
 11
19.808645
 21
7.298031
 31
0.0
 12
19.429243
 22
7.551368
 32
0.0
 13
19.429243
 23
7.551368
 33
0.0
  0
LINE
  8
DIM
 10
19.757309
 20
7.243354
 30
0.0
 11
21.188748
 21
5.899403
 31
0.0
  0
LINE
  8
DIM
 10
21.188748
 20
5.899403
 30
0.0
 11
18.605797
 21
4.146323
 31
0.0
  0
LINE
  8
DIM
 10
18.605797
 20
4.146323
 30
0.0
 11
19.326958
 21
4.146323
 31
0.0
  0
TEXT
  8
DIM
 10
19.551958
 20
3.990073
 30
0.0
 40
0.3125
  1
0.225 DIA.
 41
0.75
  7
TXT
 11
19.551958
 21
4.146323
 31
0.0
 73
     2
  0
TEXT
  8
DIM
 10
18.748517
 20
3.543336
 30
0.0
 40
0.3125
  1
C'BORE x 0.109 DEEP
 41
0.75
  7
TXT
 11
18.748517
 21
3.699586
 31
0.0
 73
     2
  0
TEXT
  8
DIM
 10
19.424505
 20
3.086923
 30
0.0
 40
0.3125
  1
(4) PLACES
 41
0.75
  7
TXT
 11
19.424505
 21
3.243173
 31
0.0
 73
     2
  0
TEXT
  8
DIM
 10
56.262356
 20
17.2932
 30
0.0
 40
0.166625
  1

  0
TEXT
  8
DIM
 10
60.855855
 20
16.927412
 30
0.0
 40
0.166625
  1

  0
TEXT
  8
TEXT
 10
30.071583
 20
21.948453
 30
0.0
 40
0.272646
  1
 
 41
0.75
  0
LINE
  8
HIDDEN
 10
9.187003
 20
7.618868
 30
0.0
 11
10.387003
 21
7.618868
 31
0.0
  0
LINE
  8
HIDDEN
 10
9.187003
 20
7.708868
 30
0.0
 11
10.387003
 21
7.708868
 31
0.0
  0
LINE
  8
HIDDEN
 10
10.387003
 20
7.618868
 30
0.0
 11
10.387003
 21
7.708868
 31
0.0
  0
LINE
  8
HIDDEN
 10
9.187003
 20
12.138868
 30
0.0
 11
10.387003
 21
12.138868
 31
0.0
  0
LINE
  8
HIDDEN
 10
9.187003
 20
12.048868
 30
0.0
 11
10.387003
 21
12.048868
 31
0.0
  0
LINE
  8
HIDDEN
 10
10.387003
 20
12.048868
 30
0.0
 11
10.387003
 21
12.138868
 31
0.0
  0
DIMENSION
  8
DIM
  2
*D42
 10
19.159243
 20
10.570065
 30
0.0
 11
17.682681
 21
10.570065
 31
0.0
 12
0.0
 22
-0.647632
 32
0.0
 13
19.269243
 23
10.817394
 33
0.0
 14
19.159243
 24
11.963868
 34
0.0
  3
STD
  0
LINE
  8
HIDDEN
 10
19.320243
 20
7.776368
 30
0.0
 11
19.320243
 21
7.551368
 31
0.0
  0
LINE
  8
HIDDEN
 10
19.320243
 20
12.206368
 30
0.0
 11
19.320243
 21
11.981368
 31
0.0
  0
TEXT
  8
TEXT
 10
13.964229
 20
15.917527
 30
0.0
 40
0.3125
  1
%%UNOTE:%%U ALL DIMENSIONS HAVE %%P0.010 TOLERANCE
 41
0.75
  7
TXT
  0
TEXT
  8
TEXT
 10
14.939293
 20
15.411589
 30
0.0
 40
0.3125
  1
UNLESS OTHERWISE SPECIFIED.
 41
0.75
  7
TXT
  0
LINE
  8
TITLE
 10
12.65
 20
1.29
 30
0.0
 11
0.155
 21
1.29
 31
0.0
  0
LINE
  8
TITLE
 10
12.65
 20
2.425
 30
0.0
 11
0.155
 21
2.425
 31
0.0
  0
LINE
  8
TITLE
 10
12.65
 20
3.56
 30
0.0
 11
0.155
 21
3.56
 31
0.0
  0
TEXT
  8
TEXT
 10
1.304129
 20
29.830689
 30
0.0
 40
0.3125
  1
%%UNOTE:%%U ALL DIMENSIONS HAVE %%P0.015 TOLERANCE
 41
0.75
  7
TXT
  0
TEXT
  8
TEXT
 10
2.262078
 20
29.324752
 30
0.0
 40
0.3125
  1
UNLESS OTHERWISE SPECIFIED.
 41
0.75
  7
TXT
  0
TEXT
  8
DIM
 10
10.072294
 20
31.646867
 30
0.0
 40
0.3125
  1
MOUNTING BOSSES USE EITHER M2.5 METRIC
 41
0.75
  7
TXT
 72
     2
 11
18.509794
 21
31.803117
 31
0.0
 73
     2
  0
TEXT
  8
DIM
 10
11.869169
 20
31.126034
 30
0.0
 40
0.3125
  1
OR #4 STD. SHEET METAL SCREWS
 41
0.75
  7
TXT
 72
     2
 11
18.509794
 21
31.282284
 31
0.0
 73
     2
  0
TEXT
  8
DIM
 10
12.767607
 20
30.620096
 30
0.0
 40
0.3125
  1
x 0.188" LG.  (NOT SUPPLIED)
 41
0.75
  7
TXT
 72
     2
 11
18.509794
 21
30.776346
 31
0.0
 73
     2
  0
ENDSEC
  0
EOF
