  0
SECTION
  2
HEADER
  9
$ACADVER
  1
AC1009
  9
$INSBASE
 10
0.0
 20
0.0
 30
0.0
  9
$EXTMIN
 10
0.0
 20
0.0
 30
0.0
  9
$EXTMAX
 10
10.12
 20
15.5
 30
0.0
  9
$LIMMIN
 10
0.0
 20
0.0
  9
$LIMMAX
 10
10.12
 20
15.5
  9
$ORTHOMODE
 70
     1
  9
$REGENMODE
 70
     1
  9
$FILLMODE
 70
     1
  9
$QTEXTMODE
 70
     0
  9
$MIRRTEXT
 70
     0
  9
$DRAGMODE
 70
     2
  9
$LTSCALE
 40
0.75
  9
$OSMODE
 70
     0
  9
$ATTMODE
 70
     1
  9
$TEXTSIZE
 40
0.125
  9
$TRACEWID
 40
0.05
  9
$TEXTSTYLE
  7
STANDARD
  9
$CLAYER
  8
OBJECT
  9
$CELTYPE
  6
BYLAYER
  9
$CECOLOR
 62
   256
  9
$DIMSCALE
 40
1.0
  9
$DIMASZ
 40
0.18
  9
$DIMEXO
 40
0.0625
  9
$DIMDLI
 40
0.38
  9
$DIMRND
 40
0.0
  9
$DIMDLE
 40
0.0
  9
$DIMEXE
 40
0.093
  9
$DIMTP
 40
0.0
  9
$DIMTM
 40
0.0
  9
$DIMTXT
 40
0.125
  9
$DIMCEN
 40
0.09
  9
$DIMTSZ
 40
0.0
  9
$DIMTOL
 70
     0
  9
$DIMLIM
 70
     0
  9
$DIMTIH
 70
     1
  9
$DIMTOH
 70
     1
  9
$DIMSE1
 70
     0
  9
$DIMSE2
 70
     0
  9
$DIMTAD
 70
     0
  9
$DIMZIN
 70
     0
  9
$DIMBLK
  1

  9
$DIMASO
 70
     1
  9
$DIMSHO
 70
     1
  9
$DIMPOST
  1

  9
$DIMAPOST
  1

  9
$DIMALT
 70
     0
  9
$DIMALTD
 70
     2
  9
$DIMALTF
 40
25.4
  9
$DIMLFAC
 40
1.0
  9
$DIMTOFL
 70
     0
  9
$DIMTVP
 40
0.0
  9
$DIMTIX
 70
     0
  9
$DIMSOXD
 70
     0
  9
$DIMSAH
 70
     0
  9
$DIMBLK1
  1

  9
$DIMBLK2
  1

  9
$DIMSTYLE
  2
23NSTD
  9
$DIMCLRD
 70
     0
  9
$DIMCLRE
 70
     0
  9
$DIMCLRT
 70
     0
  9
$DIMTFAC
 40
1.0
  9
$DIMGAP
 40
0.09
  9
$LUNITS
 70
     2
  9
$LUPREC
 70
     3
  9
$SKETCHINC
 40
0.1
  9
$FILLETRAD
 40
0.0
  9
$AUNITS
 70
     0
  9
$AUPREC
 70
     0
  9
$MENU
  1
acad
  9
$ELEVATION
 40
0.0
  9
$PELEVATION
 40
0.0
  9
$THICKNESS
 40
0.0
  9
$LIMCHECK
 70
     0
  9
$BLIPMODE
 70
     1
  9
$CHAMFERA
 40
0.0
  9
$CHAMFERB
 40
0.0
  9
$SKPOLY
 70
     0
  9
$TDCREATE
 40
2448155.593911110
  9
$TDUPDATE
 40
2451194.581479745
  9
$TDINDWG
 40
0.0376944444
  9
$TDUSRTIMER
 40
0.0376944444
  9
$USRTIMER
 70
     1
  9
$ANGBASE
 50
0.0
  9
$ANGDIR
 70
     0
  9
$PDMODE
 70
     0
  9
$PDSIZE
 40
0.0
  9
$PLINEWID
 40
0.0
  9
$COORDS
 70
     0
  9
$SPLFRAME
 70
     0
  9
$SPLINETYPE
 70
     6
  9
$SPLINESEGS
 70
     8
  9
$ATTDIA
 70
     0
  9
$ATTREQ
 70
     1
  9
$HANDLING
 70
     0
  9
$HANDSEED
  5
0
  9
$SURFTAB1
 70
     6
  9
$SURFTAB2
 70
     6
  9
$SURFTYPE
 70
     6
  9
$SURFU
 70
     6
  9
$SURFV
 70
     6
  9
$UCSNAME
  2

  9
$UCSORG
 10
0.0
 20
0.0
 30
0.0
  9
$UCSXDIR
 10
1.0
 20
0.0
 30
0.0
  9
$UCSYDIR
 10
0.0
 20
1.0
 30
0.0
  9
$PUCSNAME
  2

  9
$PUCSORG
 10
0.0
 20
0.0
 30
0.0
  9
$PUCSXDIR
 10
1.0
 20
0.0
 30
0.0
  9
$PUCSYDIR
 10
0.0
 20
1.0
 30
0.0
  9
$USERI1
 70
     0
  9
$USERI2
 70
     0
  9
$USERI3
 70
     0
  9
$USERI4
 70
     0
  9
$USERI5
 70
     0
  9
$USERR1
 40
0.0
  9
$USERR2
 40
0.0
  9
$USERR3
 40
0.0
  9
$USERR4
 40
0.0
  9
$USERR5
 40
0.0
  9
$WORLDVIEW
 70
     1
  9
$SHADEDGE
 70
     3
  9
$SHADEDIF
 70
    70
  9
$TILEMODE
 70
     1
  9
$MAXACTVP
 70
    16
  9
$PINSBASE
 10
0.0
 20
0.0
 30
0.0
  9
$PLIMCHECK
 70
     0
  9
$PEXTMIN
 10
1.000000E+20
 20
1.000000E+20
 30
1.000000E+20
  9
$PEXTMAX
 10
-1.000000E+20
 20
-1.000000E+20
 30
-1.000000E+20
  9
$PLIMMIN
 10
0.0
 20
0.0
  9
$PLIMMAX
 10
12.0
 20
9.0
  9
$UNITMODE
 70
     0
  9
$VISRETAIN
 70
     0
  9
$PLINEGEN
 70
     0
  9
$PSLTSCALE
 70
     0
  9
$TREEDEPTH
 70
  3020
  9
$DWGCODEPAGE
  3
undefined
  0
ENDSEC
  0
SECTION
  2
TABLES
  0
TABLE
  2
VPORT
 70
     2
  0
VPORT
  2
*ACTIVE
 70
     0
 10
0.0
 20
0.0
 11
1.0
 21
1.0
 12
10.558131
 22
7.75
 13
0.0
 23
0.0
 14
1.0
 24
1.0
 15
0.5
 25
0.5
 16
0.0
 26
0.0
 36
1.0
 17
0.0
 27
0.0
 37
0.0
 40
15.5
 41
1.36234
 42
50.0
 43
0.0
 44
0.0
 50
0.0
 51
0.0
 71
     0
 72
   100
 73
     1
 74
     0
 75
     0
 76
     0
 77
     0
 78
     0
  0
ENDTAB
  0
TABLE
  2
LTYPE
 70
     4
  0
LTYPE
  2
CONTINUOUS
 70
    64
  3
Solid line
 72
    65
 73
     0
 40
0.0
  0
LTYPE
  2
HIDDEN
 70
    64
  3
_ _ _ _ _ _ _ _ _ _ _ _ _ _ _ _ _ _ _ _ _ _ _
 72
    65
 73
     2
 40
0.375
 49
0.25
 49
-0.125
  0
LTYPE
  2
PHANTOM
 70
    64
  3
_____ _ _ _____ _ _ _____ _ _ _____ _ _ ____
 72
    65
 73
     6
 40
2.5
 49
1.25
 49
-0.25
 49
0.25
 49
-0.25
 49
0.25
 49
-0.25
  0
LTYPE
  2
CENTER
 70
    64
  3
____ _ ____ _ ____ _ ____ _ ____ _ ____ _ ____
 72
    65
 73
     4
 40
2.0
 49
1.25
 49
-0.25
 49
0.25
 49
-0.25
  0
ENDTAB
  0
TABLE
  2
LAYER
 70
     9
  0
LAYER
  2
0
 70
    64
 62
     7
  6
CONTINUOUS
  0
LAYER
  2
OBJECT
 70
    64
 62
     7
  6
CONTINUOUS
  0
LAYER
  2
DIM
 70
    64
 62
     7
  6
CONTINUOUS
  0
LAYER
  2
HIDDEN
 70
    64
 62
     7
  6
HIDDEN
  0
LAYER
  2
BEND
 70
    64
 62
     7
  6
PHANTOM
  0
LAYER
  2
TEXT
 70
    64
 62
     7
  6
CONTINUOUS
  0
LAYER
  2
TITLE
 70
    64
 62
     7
  6
CONTINUOUS
  0
LAYER
  2
CENTER
 70
    64
 62
     7
  6
CENTER
  0
LAYER
  2
DEFPOINTS
 70
    64
 62
     7
  6
CONTINUOUS
  0
ENDTAB
  0
TABLE
  2
STYLE
 70
     1
  0
STYLE
  2
STANDARD
 70
    64
 40
0.0
 41
0.75
 50
0.0
 71
     0
 42
0.125
  3
TXT.shx
  4

  0
ENDTAB
  0
TABLE
  2
VIEW
 70
     0
  0
ENDTAB
  0
TABLE
  2
UCS
 70
     0
  0
ENDTAB
  0
TABLE
  2
APPID
 70
     1
  0
APPID
  2
ACAD
 70
    64
  0
ENDTAB
  0
TABLE
  2
DIMSTYLE
 70
     2
  0
DIMSTYLE
  2
23NSTD
 70
    64
  3

  4

  5

  6

  7

 40
1.0
 41
0.18
 42
0.0625
 43
0.38
 44
0.093
 45
0.0
 46
0.0
 47
0.0
 48
0.0
140
0.125
141
0.09
142
0.0
143
25.4
144
1.0
145
0.0
146
1.0
147
0.09
 71
     0
 72
     0
 73
     1
 74
     1
 75
     0
 76
     0
 77
     0
 78
     0
170
     0
171
     2
172
     0
173
     0
174
     0
175
     0
176
     0
177
     0
178
     0
  0
DIMSTYLE
  2
23NSTDI
 70
    64
  3

  4

  5

  6

  7

 40
1.0
 41
0.18
 42
0.0625
 43
0.38
 44
0.093
 45
0.0
 46
0.0
 47
0.0
 48
0.0
140
0.125
141
0.09
142
0.0
143
25.4
144
1.0
145
0.0
146
1.0
147
0.09
 71
     0
 72
     0
 73
     1
 74
     1
 75
     0
 76
     0
 77
     0
 78
     0
170
     0
171
     2
172
     0
173
     0
174
     1
175
     0
176
     0
177
     0
178
     0
  0
ENDTAB
  0
ENDSEC
  0
SECTION
  2
BLOCKS
  0
BLOCK
  8
0
  2
*D0
 70
    65
 10
0.0
 20
0.0
 30
0.0
  3
*D
  0
LINE
  8
0
  6
BYBLOCK
 62
     0
 10
4.780882
 20
13.512386
 30
0.0
 11
4.780882
 21
12.854729
 31
0.0
  0
LINE
  8
0
  6
BYBLOCK
 62
     0
 10
8.100132
 20
13.512386
 30
0.0
 11
8.100132
 21
12.854729
 31
0.0
  0
LINE
  8
0
  6
BYBLOCK
 62
     0
 10
4.960882
 20
12.947729
 30
0.0
 11
6.178632
 21
12.947729
 31
0.0
  0
LINE
  8
0
  6
BYBLOCK
 62
     0
 10
7.920132
 20
12.947729
 30
0.0
 11
6.702382
 21
12.947729
 31
0.0
  0
SOLID
  8
0
  6
BYBLOCK
 62
     0
 10
4.960882
 20
12.977729
 30
0.0
 11
4.960882
 21
12.917729
 31
0.0
 12
4.780882
 22
12.947729
 32
0.0
 13
4.780882
 23
12.947729
 33
0.0
  0
SOLID
  8
0
  6
BYBLOCK
 62
     0
 10
7.920132
 20
12.977729
 30
0.0
 11
7.920132
 21
12.917729
 31
0.0
 12
8.100132
 22
12.947729
 32
0.0
 13
8.100132
 23
12.947729
 33
0.0
  0
TEXT
  8
0
  6
BYBLOCK
 62
     0
 10
6.268632
 20
12.885229
 30
0.0
 40
0.125
  1
3.319
 41
0.75
 72
     1
 11
6.440507
 21
12.947729
 31
0.0
 73
     2
  0
POINT
  8
DEFPOINTS
  6
BYBLOCK
 62
     0
 10
4.780882
 20
13.574886
 30
0.0
  0
POINT
  8
DEFPOINTS
  6
BYBLOCK
 62
     0
 10
8.100132
 20
13.574886
 30
0.0
  0
POINT
  8
DEFPOINTS
  6
BYBLOCK
 62
     0
 10
8.100132
 20
12.947729
 30
0.0
  0
ENDBLK
  8
0
  0
BLOCK
  8
0
  2
*D1
 70
    65
 10
0.0
 20
0.0
 30
0.0
  3
*D
  0
LINE
  8
0
  6
BYBLOCK
 62
     0
 10
4.681893
 20
14.374886
 30
0.0
 11
4.178461
 21
14.374886
 31
0.0
  0
LINE
  8
0
  6
BYBLOCK
 62
     0
 10
4.718382
 20
13.574886
 30
0.0
 11
4.178461
 21
13.574886
 31
0.0
  0
LINE
  8
0
  6
BYBLOCK
 62
     0
 10
4.271461
 20
14.554886
 30
0.0
 11
4.271461
 21
14.734886
 31
0.0
  0
LINE
  8
0
  6
BYBLOCK
 62
     0
 10
4.271461
 20
13.394886
 30
0.0
 11
4.271461
 21
13.214886
 31
0.0
  0
SOLID
  8
0
  6
BYBLOCK
 62
     0
 10
4.241461
 20
14.554886
 30
0.0
 11
4.301461
 21
14.554886
 31
0.0
 12
4.271461
 22
14.374886
 32
0.0
 13
4.271461
 23
14.374886
 33
0.0
  0
SOLID
  8
0
  6
BYBLOCK
 62
     0
 10
4.241461
 20
13.394886
 30
0.0
 11
4.301461
 21
13.394886
 31
0.0
 12
4.271461
 22
13.574886
 32
0.0
 13
4.271461
 23
13.574886
 33
0.0
  0
TEXT
  8
0
  6
BYBLOCK
 62
     0
 10
4.107398
 20
13.912386
 30
0.0
 40
0.125
  1
0.800
 41
0.75
 72
     1
 11
4.271461
 21
13.974886
 31
0.0
 73
     2
  0
POINT
  8
DEFPOINTS
  6
BYBLOCK
 62
     0
 10
4.744393
 20
14.374886
 30
0.0
  0
POINT
  8
DEFPOINTS
  6
BYBLOCK
 62
     0
 10
4.780882
 20
13.574886
 30
0.0
  0
POINT
  8
DEFPOINTS
  6
BYBLOCK
 62
     0
 10
4.271461
 20
13.574886
 30
0.0
  0
ENDBLK
  8
0
  0
BLOCK
  8
0
  2
*D2
 70
    65
 10
0.0
 20
0.0
 30
0.0
  3
*D
  0
LINE
  8
0
  6
BYBLOCK
 62
     0
 10
2.743858
 20
11.460653
 30
0.0
 11
3.804954
 21
11.460653
 31
0.0
  0
LINE
  8
0
  6
BYBLOCK
 62
     0
 10
2.743858
 20
9.516404
 30
0.0
 11
3.804954
 21
9.516404
 31
0.0
  0
LINE
  8
0
  6
BYBLOCK
 62
     0
 10
3.711954
 20
11.280653
 30
0.0
 11
3.711954
 21
10.641029
 31
0.0
  0
LINE
  8
0
  6
BYBLOCK
 62
     0
 10
3.711954
 20
9.696404
 30
0.0
 11
3.711954
 21
10.336029
 31
0.0
  0
SOLID
  8
0
  6
BYBLOCK
 62
     0
 10
3.681954
 20
11.280653
 30
0.0
 11
3.741954
 21
11.280653
 31
0.0
 12
3.711954
 22
11.460653
 32
0.0
 13
3.711954
 23
11.460653
 33
0.0
  0
SOLID
  8
0
  6
BYBLOCK
 62
     0
 10
3.681954
 20
9.696404
 30
0.0
 11
3.741954
 21
9.696404
 31
0.0
 12
3.711954
 22
9.516404
 32
0.0
 13
3.711954
 23
9.516404
 33
0.0
  0
TEXT
  8
0
  6
BYBLOCK
 62
     0
 10
3.540079
 20
10.426029
 30
0.0
 40
0.125
  1
1.944
 41
0.75
 72
     1
 11
3.711954
 21
10.488529
 31
0.0
 73
     2
  0
POINT
  8
DEFPOINTS
  6
BYBLOCK
 62
     0
 10
2.681358
 20
11.460653
 30
0.0
  0
POINT
  8
DEFPOINTS
  6
BYBLOCK
 62
     0
 10
2.681358
 20
9.516404
 30
0.0
  0
POINT
  8
DEFPOINTS
  6
BYBLOCK
 62
     0
 10
3.711954
 20
9.516404
 30
0.0
  0
ENDBLK
  8
0
  0
BLOCK
  8
0
  2
*D3
 70
    65
 10
0.0
 20
0.0
 30
0.0
  3
*D
  0
LINE
  8
0
  6
BYBLOCK
 62
     0
 10
4.718382
 20
5.761444
 30
0.0
 11
4.211628
 21
5.761444
 31
0.0
  0
LINE
  8
0
  6
BYBLOCK
 62
     0
 10
4.725638
 20
7.061444
 30
0.0
 11
4.211628
 21
7.061444
 31
0.0
  0
LINE
  8
0
  6
BYBLOCK
 62
     0
 10
4.304628
 20
5.941444
 30
0.0
 11
4.304628
 21
6.258944
 31
0.0
  0
LINE
  8
0
  6
BYBLOCK
 62
     0
 10
4.304628
 20
6.881444
 30
0.0
 11
4.304628
 21
6.563944
 31
0.0
  0
SOLID
  8
0
  6
BYBLOCK
 62
     0
 10
4.274628
 20
5.941444
 30
0.0
 11
4.334628
 21
5.941444
 31
0.0
 12
4.304628
 22
5.761444
 32
0.0
 13
4.304628
 23
5.761444
 33
0.0
  0
SOLID
  8
0
  6
BYBLOCK
 62
     0
 10
4.274628
 20
6.881444
 30
0.0
 11
4.334628
 21
6.881444
 31
0.0
 12
4.304628
 22
7.061444
 32
0.0
 13
4.304628
 23
7.061444
 33
0.0
  0
TEXT
  8
0
  6
BYBLOCK
 62
     0
 10
4.148378
 20
6.348944
 30
0.0
 40
0.125
  1
1.300
 41
0.75
 72
     1
 11
4.304628
 21
6.411444
 31
0.0
 73
     2
  0
POINT
  8
DEFPOINTS
  6
BYBLOCK
 62
     0
 10
4.780882
 20
5.761444
 30
0.0
  0
POINT
  8
DEFPOINTS
  6
BYBLOCK
 62
     0
 10
4.788138
 20
7.061444
 30
0.0
  0
POINT
  8
DEFPOINTS
  6
BYBLOCK
 62
     0
 10
4.304628
 20
7.061444
 30
0.0
  0
ENDBLK
  8
0
  0
BLOCK
  8
0
  2
*D4
 70
    65
 10
0.0
 20
0.0
 30
0.0
  3
*D
  0
LINE
  8
0
  6
BYBLOCK
 62
     0
 10
4.780882
 20
5.698944
 30
0.0
 11
4.780882
 21
5.019479
 31
0.0
  0
LINE
  8
0
  6
BYBLOCK
 62
     0
 10
8.100132
 20
5.698944
 30
0.0
 11
8.100132
 21
5.019479
 31
0.0
  0
LINE
  8
0
  6
BYBLOCK
 62
     0
 10
4.960882
 20
5.112479
 30
0.0
 11
6.178632
 21
5.112479
 31
0.0
  0
LINE
  8
0
  6
BYBLOCK
 62
     0
 10
7.920132
 20
5.112479
 30
0.0
 11
6.702382
 21
5.112479
 31
0.0
  0
SOLID
  8
0
  6
BYBLOCK
 62
     0
 10
4.960882
 20
5.142479
 30
0.0
 11
4.960882
 21
5.082479
 31
0.0
 12
4.780882
 22
5.112479
 32
0.0
 13
4.780882
 23
5.112479
 33
0.0
  0
SOLID
  8
0
  6
BYBLOCK
 62
     0
 10
7.920132
 20
5.142479
 30
0.0
 11
7.920132
 21
5.082479
 31
0.0
 12
8.100132
 22
5.112479
 32
0.0
 13
8.100132
 23
5.112479
 33
0.0
  0
TEXT
  8
0
  6
BYBLOCK
 62
     0
 10
6.268632
 20
5.049979
 30
0.0
 40
0.125
  1
3.319
 41
0.75
 72
     1
 11
6.440507
 21
5.112479
 31
0.0
 73
     2
  0
POINT
  8
DEFPOINTS
  6
BYBLOCK
 62
     0
 10
4.780882
 20
5.761444
 30
0.0
  0
POINT
  8
DEFPOINTS
  6
BYBLOCK
 62
     0
 10
8.100132
 20
5.761444
 30
0.0
  0
POINT
  8
DEFPOINTS
  6
BYBLOCK
 62
     0
 10
8.100132
 20
5.112479
 30
0.0
  0
ENDBLK
  8
0
  0
BLOCK
  8
0
  2
*D5
 70
    65
 10
0.0
 20
0.0
 30
0.0
  3
*D
  0
LINE
  8
0
  6
BYBLOCK
 62
     0
 10
2.743858
 20
3.675856
 30
0.0
 11
3.77973
 21
3.675856
 31
0.0
  0
LINE
  8
0
  6
BYBLOCK
 62
     0
 10
2.743858
 20
1.731607
 30
0.0
 11
3.77973
 21
1.731607
 31
0.0
  0
LINE
  8
0
  6
BYBLOCK
 62
     0
 10
3.68673
 20
3.495856
 30
0.0
 11
3.68673
 21
2.856232
 31
0.0
  0
LINE
  8
0
  6
BYBLOCK
 62
     0
 10
3.68673
 20
1.911607
 30
0.0
 11
3.68673
 21
2.551232
 31
0.0
  0
SOLID
  8
0
  6
BYBLOCK
 62
     0
 10
3.65673
 20
3.495856
 30
0.0
 11
3.71673
 21
3.495856
 31
0.0
 12
3.68673
 22
3.675856
 32
0.0
 13
3.68673
 23
3.675856
 33
0.0
  0
SOLID
  8
0
  6
BYBLOCK
 62
     0
 10
3.65673
 20
1.911607
 30
0.0
 11
3.71673
 21
1.911607
 31
0.0
 12
3.68673
 22
1.731607
 32
0.0
 13
3.68673
 23
1.731607
 33
0.0
  0
TEXT
  8
0
  6
BYBLOCK
 62
     0
 10
3.514855
 20
2.641232
 30
0.0
 40
0.125
  1
1.944
 41
0.75
 72
     1
 11
3.68673
 21
2.703732
 31
0.0
 73
     2
  0
POINT
  8
DEFPOINTS
  6
BYBLOCK
 62
     0
 10
2.681358
 20
3.675856
 30
0.0
  0
POINT
  8
DEFPOINTS
  6
BYBLOCK
 62
     0
 10
2.681358
 20
1.731607
 30
0.0
  0
POINT
  8
DEFPOINTS
  6
BYBLOCK
 62
     0
 10
3.68673
 20
1.731607
 30
0.0
  0
ENDBLK
  8
0
  0
ENDSEC
  0
SECTION
  2
ENTITIES
  0
LINE
  8
CENTER
 10
6.440507
 20
3.960664
 30
0.0
 11
6.440507
 21
1.28001
 31
0.0
  0
LINE
  8
OBJECT
 10
7.555507
 20
1.958732
 30
0.0
 11
6.315507
 21
1.958732
 31
0.0
  0
LINE
  8
OBJECT
 10
7.555507
 20
3.448732
 30
0.0
 11
6.315507
 21
3.448732
 31
0.0
  0
LINE
  8
OBJECT
 10
7.555507
 20
3.448732
 30
0.0
 11
7.555507
 21
1.958732
 31
0.0
  0
LINE
  8
OBJECT
 10
6.315507
 20
3.448732
 30
0.0
 11
6.315507
 21
1.958732
 31
0.0
  0
CIRCLE
  8
OBJECT
 10
5.015507
 20
1.958732
 30
0.0
 40
0.0465
  0
CIRCLE
  8
OBJECT
 10
5.015507
 20
1.958732
 30
0.0
 40
0.078
  0
CIRCLE
  8
OBJECT
 10
5.015507
 20
1.958732
 30
0.0
 40
0.13
  0
CIRCLE
  8
OBJECT
 10
5.015507
 20
3.448732
 30
0.0
 40
0.13
  0
CIRCLE
  8
OBJECT
 10
7.865507
 20
1.958732
 30
0.0
 40
0.1225
  0
CIRCLE
  8
OBJECT
 10
7.865507
 20
3.448732
 30
0.0
 40
0.1225
  0
CIRCLE
  8
OBJECT
 10
7.865507
 20
3.448732
 30
0.0
 40
0.0465
  0
CIRCLE
  8
OBJECT
 10
7.865507
 20
1.958732
 30
0.0
 40
0.0465
  0
LINE
  8
HIDDEN
 10
7.630429
 20
1.917113
 30
0.0
 11
7.630429
 21
1.704741
 31
0.0
  0
LINE
  8
HIDDEN
 10
7.582815
 20
1.917113
 30
0.0
 11
7.630429
 21
1.917113
 31
0.0
  0
LINE
  8
HIDDEN
 10
7.630429
 20
1.823501
 30
0.0
 11
7.690507
 21
1.823501
 31
0.0
  0
LINE
  8
HIDDEN
 10
7.582815
 20
1.704741
 30
0.0
 11
7.582815
 21
1.917113
 31
0.0
  0
LINE
  8
HIDDEN
 10
7.690507
 20
1.917113
 30
0.0
 11
7.690507
 21
1.704741
 31
0.0
  0
LINE
  8
HIDDEN
 10
7.739121
 20
1.917113
 30
0.0
 11
7.690507
 21
1.917113
 31
0.0
  0
LINE
  8
HIDDEN
 10
7.739121
 20
1.704741
 30
0.0
 11
7.739121
 21
1.917113
 31
0.0
  0
LINE
  8
OBJECT
 10
6.070507
 20
6.071444
 30
0.0
 11
5.810507
 21
6.071444
 31
0.0
  0
LINE
  8
OBJECT
 10
5.250585
 20
6.051444
 30
0.0
 11
5.250585
 21
5.761444
 31
0.0
  0
LINE
  8
OBJECT
 10
5.298699
 20
6.051444
 30
0.0
 11
5.250585
 21
6.051444
 31
0.0
  0
LINE
  8
OBJECT
 10
5.250585
 20
6.008928
 30
0.0
 11
5.190507
 21
6.008928
 31
0.0
  0
LINE
  8
OBJECT
 10
5.298699
 20
5.761444
 30
0.0
 11
5.298699
 21
6.051444
 31
0.0
  0
LINE
  8
OBJECT
 10
5.190507
 20
6.051444
 30
0.0
 11
5.190507
 21
5.761444
 31
0.0
  0
LINE
  8
OBJECT
 10
5.170507
 20
6.051444
 30
0.0
 11
5.190507
 21
6.051444
 31
0.0
  0
LINE
  8
OBJECT
 10
5.810507
 20
6.071444
 30
0.0
 11
5.810507
 21
5.761444
 31
0.0
  0
LINE
  8
OBJECT
 10
6.070507
 20
6.071444
 30
0.0
 11
6.070507
 21
5.761444
 31
0.0
  0
LINE
  8
HIDDEN
 10
5.987507
 20
5.721444
 30
0.0
 11
5.893507
 21
5.721444
 31
0.0
  0
LINE
  8
HIDDEN
 10
5.893507
 20
6.040444
 30
0.0
 11
5.893507
 21
5.721444
 31
0.0
  0
LINE
  8
HIDDEN
 10
5.987507
 20
6.040444
 30
0.0
 11
5.987507
 21
5.721444
 31
0.0
  0
LINE
  8
HIDDEN
 10
5.987507
 20
6.040444
 30
0.0
 11
5.893507
 21
6.040444
 31
0.0
  0
LINE
  8
HIDDEN
 10
5.862507
 20
6.071444
 30
0.0
 11
5.893507
 21
6.040444
 31
0.0
  0
LINE
  8
HIDDEN
 10
6.018507
 20
6.071444
 30
0.0
 11
5.987507
 21
6.040444
 31
0.0
  0
LINE
  8
HIDDEN
 10
7.739121
 20
3.702722
 30
0.0
 11
7.739121
 21
3.49035
 31
0.0
  0
LINE
  8
HIDDEN
 10
7.739121
 20
3.49035
 30
0.0
 11
7.690507
 21
3.49035
 31
0.0
  0
LINE
  8
HIDDEN
 10
7.690507
 20
3.49035
 30
0.0
 11
7.690507
 21
3.677318
 31
0.0
  0
LINE
  8
HIDDEN
 10
7.582815
 20
3.702722
 30
0.0
 11
7.582815
 21
3.49035
 31
0.0
  0
LINE
  8
HIDDEN
 10
7.630429
 20
3.583963
 30
0.0
 11
7.690507
 21
3.583963
 31
0.0
  0
LINE
  8
HIDDEN
 10
7.582815
 20
3.49035
 30
0.0
 11
7.630429
 21
3.49035
 31
0.0
  0
LINE
  8
HIDDEN
 10
7.630429
 20
3.49035
 30
0.0
 11
7.630429
 21
3.702722
 31
0.0
  0
LINE
  8
OBJECT
 10
2.064358
 20
1.638732
 30
0.0
 11
2.064358
 21
1.578732
 31
0.0
  0
LINE
  8
OBJECT
 10
2.081358
 20
1.638732
 30
0.0
 11
2.081358
 21
1.578732
 31
0.0
  0
LINE
  8
OBJECT
 10
2.064358
 20
1.679114
 30
0.0
 11
2.064358
 21
1.803732
 31
0.0
  0
LINE
  8
HIDDEN
 10
1.963285
 20
2.005732
 30
0.0
 11
1.963285
 21
1.911732
 31
0.0
  0
LINE
  8
HIDDEN
 10
1.994285
 20
1.880732
 30
0.0
 11
1.963285
 21
1.911732
 31
0.0
  0
LINE
  8
HIDDEN
 10
1.994285
 20
2.036732
 30
0.0
 11
1.963285
 21
2.005732
 31
0.0
  0
LINE
  8
HIDDEN
 10
1.994285
 20
2.023732
 30
0.0
 11
2.054285
 21
2.023732
 31
0.0
  0
LINE
  8
HIDDEN
 10
1.994285
 20
1.893732
 30
0.0
 11
2.054285
 21
1.893732
 31
0.0
  0
LINE
  8
HIDDEN
 10
2.781358
 20
2.080732
 30
0.0
 11
2.054285
 21
2.080732
 31
0.0
  0
LINE
  8
HIDDEN
 10
2.781358
 20
1.836732
 30
0.0
 11
2.054285
 21
1.836732
 31
0.0
  0
LINE
  8
HIDDEN
 10
2.054285
 20
1.836732
 30
0.0
 11
2.054285
 21
2.080732
 31
0.0
  0
LINE
  8
HIDDEN
 10
1.963285
 20
2.005732
 30
0.0
 11
1.381285
 21
2.005732
 31
0.0
  0
LINE
  8
HIDDEN
 10
1.963285
 20
1.911732
 30
0.0
 11
1.381285
 21
1.911732
 31
0.0
  0
LINE
  8
OBJECT
 10
1.994285
 20
2.088732
 30
0.0
 11
1.381285
 21
2.088732
 31
0.0
  0
LINE
  8
OBJECT
 10
1.994285
 20
1.828732
 30
0.0
 11
1.381358
 21
1.828732
 31
0.0
  0
LINE
  8
OBJECT
 10
1.994285
 20
1.803732
 30
0.0
 11
1.994285
 21
2.113732
 31
0.0
  0
LINE
  8
OBJECT
 10
1.994285
 20
2.113732
 30
0.0
 11
2.681358
 21
2.113732
 31
0.0
  0
LINE
  8
OBJECT
 10
1.994285
 20
1.803732
 30
0.0
 11
2.391432
 21
1.803732
 31
0.0
  0
LINE
  8
OBJECT
 10
2.064285
 20
1.679114
 30
0.0
 11
2.064285
 21
1.803732
 31
0.0
  0
LINE
  8
OBJECT
 10
2.081358
 20
1.679114
 30
0.0
 11
2.081358
 21
1.803732
 31
0.0
  0
LINE
  8
OBJECT
 10
2.081358
 20
1.679114
 30
0.0
 11
1.994285
 21
1.679114
 31
0.0
  0
LINE
  8
OBJECT
 10
2.064285
 20
1.638732
 30
0.0
 11
2.081358
 21
1.638732
 31
0.0
  0
LINE
  8
OBJECT
 10
1.994285
 20
1.638732
 30
0.0
 11
1.994285
 21
1.685238
 31
0.0
  0
LINE
  8
OBJECT
 10
1.994285
 20
1.638732
 30
0.0
 11
2.064285
 21
1.638732
 31
0.0
  0
LINE
  8
OBJECT
 10
2.081358
 20
1.679114
 30
0.0
 11
2.681358
 21
1.731607
 31
0.0
  0
LINE
  8
OBJECT
 10
1.994285
 20
1.685238
 30
0.0
 11
1.381358
 21
1.738862
 31
0.0
  0
LINE
  8
OBJECT
 10
2.081358
 20
1.578732
 30
0.0
 11
2.081358
 21
1.638732
 31
0.0
  0
LINE
  8
OBJECT
 10
2.064285
 20
1.578732
 30
0.0
 11
2.064285
 21
1.638732
 31
0.0
  0
LINE
  8
OBJECT
 10
2.081358
 20
1.578732
 30
0.0
 11
2.690074
 21
1.631987
 31
0.0
  0
LINE
  8
OBJECT
 10
2.064285
 20
1.578732
 30
0.0
 11
1.372643
 21
1.639242
 31
0.0
  0
LINE
  8
OBJECT
 10
2.064358
 20
3.293732
 30
0.0
 11
2.064358
 21
2.113732
 31
0.0
  0
LINE
  8
OBJECT
 10
2.081358
 20
3.293732
 30
0.0
 11
2.081358
 21
2.113732
 31
0.0
  0
LINE
  8
OBJECT
 10
2.064285
 20
3.828732
 30
0.0
 11
1.372643
 21
3.768221
 31
0.0
  0
LINE
  8
OBJECT
 10
2.081358
 20
3.828732
 30
0.0
 11
2.690074
 21
3.775476
 31
0.0
  0
LINE
  8
OBJECT
 10
2.064285
 20
3.828732
 30
0.0
 11
2.064285
 21
3.768732
 31
0.0
  0
LINE
  8
OBJECT
 10
2.081358
 20
3.828732
 30
0.0
 11
2.081358
 21
3.768732
 31
0.0
  0
LINE
  8
OBJECT
 10
1.994285
 20
3.722225
 30
0.0
 11
1.381358
 21
3.668601
 31
0.0
  0
LINE
  8
OBJECT
 10
2.081358
 20
3.72835
 30
0.0
 11
2.681358
 21
3.675856
 31
0.0
  0
LINE
  8
OBJECT
 10
1.994285
 20
3.768732
 30
0.0
 11
2.064285
 21
3.768732
 31
0.0
  0
LINE
  8
OBJECT
 10
1.994285
 20
3.768732
 30
0.0
 11
1.994285
 21
3.722225
 31
0.0
  0
LINE
  8
OBJECT
 10
2.064285
 20
3.768732
 30
0.0
 11
2.081358
 21
3.768732
 31
0.0
  0
LINE
  8
OBJECT
 10
2.081358
 20
3.72835
 30
0.0
 11
1.994285
 21
3.72835
 31
0.0
  0
LINE
  8
OBJECT
 10
2.081358
 20
3.72835
 30
0.0
 11
2.081358
 21
3.603732
 31
0.0
  0
LINE
  8
OBJECT
 10
2.064285
 20
3.72835
 30
0.0
 11
2.064285
 21
3.603732
 31
0.0
  0
LINE
  8
OBJECT
 10
1.994285
 20
3.603732
 30
0.0
 11
2.391432
 21
3.603732
 31
0.0
  0
LINE
  8
OBJECT
 10
1.994285
 20
3.293732
 30
0.0
 11
2.681358
 21
3.293732
 31
0.0
  0
LINE
  8
OBJECT
 10
1.994285
 20
3.603732
 30
0.0
 11
1.994285
 21
3.293732
 31
0.0
  0
LINE
  8
OBJECT
 10
1.994285
 20
3.578732
 30
0.0
 11
1.381358
 21
3.578732
 31
0.0
  0
LINE
  8
OBJECT
 10
1.994285
 20
3.318732
 30
0.0
 11
1.381285
 21
3.318732
 31
0.0
  0
LINE
  8
HIDDEN
 10
1.963285
 20
3.495732
 30
0.0
 11
1.381285
 21
3.495732
 31
0.0
  0
LINE
  8
HIDDEN
 10
1.963285
 20
3.401732
 30
0.0
 11
1.381285
 21
3.401732
 31
0.0
  0
LINE
  8
HIDDEN
 10
2.054285
 20
3.570732
 30
0.0
 11
2.054285
 21
3.326732
 31
0.0
  0
LINE
  8
HIDDEN
 10
2.781358
 20
3.570732
 30
0.0
 11
2.054285
 21
3.570732
 31
0.0
  0
LINE
  8
HIDDEN
 10
2.781358
 20
3.326732
 30
0.0
 11
2.054285
 21
3.326732
 31
0.0
  0
LINE
  8
HIDDEN
 10
1.994285
 20
3.513732
 30
0.0
 11
2.054285
 21
3.513732
 31
0.0
  0
LINE
  8
HIDDEN
 10
1.994285
 20
3.383732
 30
0.0
 11
2.054285
 21
3.383732
 31
0.0
  0
LINE
  8
HIDDEN
 10
1.994285
 20
3.370732
 30
0.0
 11
1.963285
 21
3.401732
 31
0.0
  0
LINE
  8
HIDDEN
 10
1.994285
 20
3.526732
 30
0.0
 11
1.963285
 21
3.495732
 31
0.0
  0
LINE
  8
HIDDEN
 10
1.963285
 20
3.401732
 30
0.0
 11
1.963285
 21
3.495732
 31
0.0
  0
CIRCLE
  8
OBJECT
 10
5.940507
 20
1.958732
 30
0.0
 40
0.078
  0
LINE
  8
HIDDEN
 10
5.062507
 20
6.479517
 30
0.0
 11
4.968507
 21
6.479517
 31
0.0
  0
LINE
  8
HIDDEN
 10
4.937507
 20
6.448517
 30
0.0
 11
4.968507
 21
6.479517
 31
0.0
  0
LINE
  8
HIDDEN
 10
5.093507
 20
6.448517
 30
0.0
 11
5.062507
 21
6.479517
 31
0.0
  0
LINE
  8
HIDDEN
 10
6.018507
 20
6.751444
 30
0.0
 11
5.987507
 21
6.782444
 31
0.0
  0
LINE
  8
HIDDEN
 10
5.862507
 20
6.751444
 30
0.0
 11
5.893507
 21
6.782444
 31
0.0
  0
LINE
  8
HIDDEN
 10
5.987507
 20
6.782444
 30
0.0
 11
5.893507
 21
6.782444
 31
0.0
  0
LINE
  8
HIDDEN
 10
5.080507
 20
6.448517
 30
0.0
 11
5.080507
 21
6.388517
 31
0.0
  0
LINE
  8
HIDDEN
 10
4.950507
 20
6.448517
 30
0.0
 11
4.950507
 21
6.388517
 31
0.0
  0
LINE
  8
HIDDEN
 10
5.137507
 20
5.661444
 30
0.0
 11
5.137507
 21
6.388517
 31
0.0
  0
LINE
  8
HIDDEN
 10
4.893507
 20
5.661444
 30
0.0
 11
4.893507
 21
6.388517
 31
0.0
  0
LINE
  8
HIDDEN
 10
4.893507
 20
6.388517
 30
0.0
 11
5.137507
 21
6.388517
 31
0.0
  0
LINE
  8
HIDDEN
 10
5.987507
 20
6.782444
 30
0.0
 11
5.987507
 21
7.101444
 31
0.0
  0
LINE
  8
HIDDEN
 10
5.893507
 20
6.782444
 30
0.0
 11
5.893507
 21
7.101444
 31
0.0
  0
LINE
  8
HIDDEN
 10
5.987507
 20
7.101444
 30
0.0
 11
5.893507
 21
7.101444
 31
0.0
  0
LINE
  8
OBJECT
 10
6.070507
 20
6.751444
 30
0.0
 11
6.070507
 21
7.061444
 31
0.0
  0
LINE
  8
OBJECT
 10
5.810507
 20
6.751444
 30
0.0
 11
5.810507
 21
7.061444
 31
0.0
  0
LINE
  8
HIDDEN
 10
5.062507
 20
6.479517
 30
0.0
 11
5.062507
 21
7.061444
 31
0.0
  0
LINE
  8
HIDDEN
 10
4.968507
 20
6.479517
 30
0.0
 11
4.968507
 21
7.061444
 31
0.0
  0
LINE
  8
OBJECT
 10
5.145507
 20
6.448517
 30
0.0
 11
5.145507
 21
7.061444
 31
0.0
  0
LINE
  8
OBJECT
 10
4.885507
 20
6.448517
 30
0.0
 11
4.885507
 21
7.061444
 31
0.0
  0
LINE
  8
OBJECT
 10
4.860507
 20
6.448517
 30
0.0
 11
5.170507
 21
6.448517
 31
0.0
  0
LINE
  8
OBJECT
 10
5.170507
 20
6.378517
 30
0.0
 11
8.253007
 21
6.378517
 31
0.0
  0
LINE
  8
OBJECT
 10
5.170507
 20
6.361444
 30
0.0
 11
8.253007
 21
6.361444
 31
0.0
  0
LINE
  8
OBJECT
 10
5.170507
 20
6.448517
 30
0.0
 11
5.170507
 21
5.761444
 31
0.0
  0
LINE
  8
OBJECT
 10
4.860507
 20
6.448517
 30
0.0
 11
4.860507
 21
5.761444
 31
0.0
  0
CIRCLE
  8
OBJECT
 10
5.015507
 20
3.448732
 30
0.0
 40
0.0465
  0
CIRCLE
  8
OBJECT
 10
5.940507
 20
1.958732
 30
0.0
 40
0.0465
  0
ARC
  8
HIDDEN
 10
8.148007
 20
1.683732
 30
0.0
 40
0.04
 50
270.0
 51
0.0
  0
ARC
  8
HIDDEN
 10
8.148007
 20
3.723732
 30
0.0
 40
0.04
 50
0.0
 51
90.0
  0
ARC
  8
OBJECT
 10
4.733007
 20
1.683732
 30
0.0
 40
0.04
 50
180.0
 51
270.0
  0
ARC
  8
HIDDEN
 10
4.733007
 20
3.723732
 30
0.0
 40
0.04
 50
90.0
 51
180.0
  0
LINE
  8
OBJECT
 10
4.728389
 20
6.378517
 30
0.0
 11
4.860507
 21
6.378517
 31
0.0
  0
LINE
  8
OBJECT
 10
4.728389
 20
6.361444
 30
0.0
 11
4.860507
 21
6.361444
 31
0.0
  0
LINE
  8
OBJECT
 10
4.728389
 20
6.361444
 30
0.0
 11
4.728389
 21
6.448517
 31
0.0
  0
LINE
  8
OBJECT
 10
4.688007
 20
6.378517
 30
0.0
 11
4.688007
 21
6.361444
 31
0.0
  0
LINE
  8
OBJECT
 10
4.688007
 20
6.448517
 30
0.0
 11
4.734513
 21
6.448517
 31
0.0
  0
LINE
  8
OBJECT
 10
4.688007
 20
6.448517
 30
0.0
 11
4.688007
 21
6.378517
 31
0.0
  0
LINE
  8
OBJECT
 10
4.728389
 20
6.361444
 30
0.0
 11
4.780882
 21
5.761444
 31
0.0
  0
LINE
  8
OBJECT
 10
4.734513
 20
6.448517
 30
0.0
 11
4.788138
 21
7.061444
 31
0.0
  0
CIRCLE
  8
HIDDEN
 10
6.940507
 20
3.448732
 30
0.0
 40
0.13
  0
CIRCLE
  8
HIDDEN
 10
6.940507
 20
1.958732
 30
0.0
 40
0.13
  0
LINE
  8
HIDDEN
 10
8.153007
 20
3.728732
 30
0.0
 11
8.153007
 21
1.678732
 31
0.0
  0
LINE
  8
HIDDEN
 10
8.188007
 20
3.723732
 30
0.0
 11
8.188007
 21
1.683732
 31
0.0
  0
LINE
  8
HIDDEN
 10
4.693321
 20
3.728732
 30
0.0
 11
8.153007
 21
3.728732
 31
0.0
  0
LINE
  8
HIDDEN
 10
4.733007
 20
3.763732
 30
0.0
 11
8.148007
 21
3.763732
 31
0.0
  0
LINE
  8
HIDDEN
 10
6.202803
 20
1.678732
 30
0.0
 11
8.153007
 21
1.678732
 31
0.0
  0
LINE
  8
HIDDEN
 10
6.229779
 20
1.643732
 30
0.0
 11
8.148007
 21
1.643732
 31
0.0
  0
LINE
  8
CENTER
 10
8.5176
 20
2.703732
 30
0.0
 11
4.363414
 21
2.703732
 31
0.0
  0
LINE
  8
HIDDEN
 10
5.250585
 20
3.49035
 30
0.0
 11
5.250585
 21
3.702722
 31
0.0
  0
LINE
  8
HIDDEN
 10
5.298199
 20
3.49035
 30
0.0
 11
5.250585
 21
3.49035
 31
0.0
  0
LINE
  8
HIDDEN
 10
5.250585
 20
3.583963
 30
0.0
 11
5.190507
 21
3.583963
 31
0.0
  0
LINE
  8
HIDDEN
 10
5.298199
 20
3.702722
 30
0.0
 11
5.298199
 21
3.49035
 31
0.0
  0
LINE
  8
HIDDEN
 10
5.190507
 20
3.49035
 30
0.0
 11
5.190507
 21
3.702722
 31
0.0
  0
LINE
  8
HIDDEN
 10
5.141893
 20
3.49035
 30
0.0
 11
5.190507
 21
3.49035
 31
0.0
  0
LINE
  8
HIDDEN
 10
5.141893
 20
3.702722
 30
0.0
 11
5.141893
 21
3.49035
 31
0.0
  0
LINE
  8
OBJECT
 10
2.681358
 20
3.675856
 30
0.0
 11
2.681358
 21
1.731607
 31
0.0
  0
LINE
  8
OBJECT
 10
4.780882
 20
5.761444
 30
0.0
 11
6.69741
 21
5.761444
 31
0.0
  0
LINE
  8
OBJECT
 10
2.781358
 20
3.675856
 30
0.0
 11
2.781358
 21
1.731607
 31
0.0
  0
LINE
  8
OBJECT
 10
2.064358
 20
3.72835
 30
0.0
 11
2.064358
 21
3.603732
 31
0.0
  0
ARC
  8
OBJECT
 10
6.997254
 20
7.160051
 30
0.0
 40
0.470305
 50
179.830321
 51
211.842399
  0
ARC
  8
OBJECT
 10
6.308156
 20
6.722953
 30
0.0
 40
0.34578
 50
323.25092
 51
33.128045
  0
ARC
  8
OBJECT
 10
6.996065
 20
6.236802
 30
0.0
 40
0.496776
 50
145.794764
 51
208.668967
  0
ARC
  8
OBJECT
 10
20.830472
 20
14.101498
 30
0.0
 40
16.410361
 50
209.588998
 51
210.951515
  0
LINE
  8
OBJECT
 10
4.628007
 20
6.361444
 30
0.0
 11
4.688007
 21
6.361444
 31
0.0
  0
LINE
  8
OBJECT
 10
4.628007
 20
6.378517
 30
0.0
 11
4.688007
 21
6.378517
 31
0.0
  0
LINE
  8
OBJECT
 10
8.253007
 20
6.361444
 30
0.0
 11
8.199752
 21
5.752728
 31
0.0
  0
LINE
  8
OBJECT
 10
4.628007
 20
6.361444
 30
0.0
 11
4.681263
 21
5.752728
 31
0.0
  0
LINE
  8
OBJECT
 10
4.780882
 20
5.661444
 30
0.0
 11
8.100132
 21
5.661444
 31
0.0
  0
LINE
  8
OBJECT
 10
6.229779
 20
1.643732
 30
0.0
 11
4.733007
 21
1.643732
 31
0.0
  0
LINE
  8
HIDDEN
 10
4.693007
 20
3.723732
 30
0.0
 11
4.693007
 21
2.745463
 31
0.0
  0
ARC
  8
OBJECT
 10
6.406416
 20
1.807773
 30
0.0
 40
0.24106
 50
130.062112
 51
251.831219
  0
LINE
  8
OBJECT
 10
6.070507
 20
6.751444
 30
0.0
 11
5.810507
 21
6.751444
 31
0.0
  0
CIRCLE
  8
OBJECT
 10
5.940507
 20
1.958732
 30
0.0
 40
0.13
  0
CIRCLE
  8
HIDDEN
 10
5.940507
 20
3.448732
 30
0.0
 40
0.13
  0
LINE
  8
OBJECT
 10
1.381358
 20
1.738862
 30
0.0
 11
1.381358
 21
3.668601
 31
0.0
  0
LINE
  8
OBJECT
 10
4.788138
 20
7.061444
 30
0.0
 11
6.537403
 21
7.061444
 31
0.0
  0
LINE
  8
CENTER
 10
0.95977
 20
2.703732
 30
0.0
 11
3.102946
 21
2.703732
 31
0.0
  0
LINE
  8
CENTER
 10
6.440507
 20
7.295793
 30
0.0
 11
6.440507
 21
5.527095
 31
0.0
  0
LINE
  8
OBJECT
 10
4.628007
 20
6.378517
 30
0.0
 11
4.688518
 21
7.07016
 31
0.0
  0
LINE
  8
OBJECT
 10
8.253007
 20
6.378517
 30
0.0
 11
8.192496
 21
7.07016
 31
0.0
  0
LINE
  8
OBJECT
 10
1.281358
 20
1.738862
 30
0.0
 11
1.281358
 21
3.668601
 31
0.0
  0
LINE
  8
OBJECT
 10
4.788138
 20
7.161444
 30
0.0
 11
8.092877
 21
7.161444
 31
0.0
  0
ARC
  8
OBJECT
 10
8.203007
 20
3.778732
 30
0.0
 40
0.05
 50
0.0
 51
90.0
  0
ARC
  8
OBJECT
 10
4.678007
 20
3.778732
 30
0.0
 40
0.05
 50
90.0
 51
180.0
  0
ARC
  8
OBJECT
 10
4.678007
 20
1.628732
 30
0.0
 40
0.05
 50
180.0
 51
270.0
  0
ARC
  8
OBJECT
 10
8.203007
 20
1.628732
 30
0.0
 40
0.05
 50
270.0
 51
0.0
  0
LINE
  8
OBJECT
 10
6.202803
 20
1.678732
 30
0.0
 11
4.728007
 21
1.678732
 31
0.0
  0
LINE
  8
HIDDEN
 10
4.728007
 20
3.728732
 30
0.0
 11
4.728007
 21
2.712571
 31
0.0
  0
LINE
  8
OBJECT
 10
8.203007
 20
3.828732
 30
0.0
 11
4.678007
 21
3.828732
 31
0.0
  0
LINE
  8
OBJECT
 10
8.253007
 20
3.778732
 30
0.0
 11
8.253007
 21
1.628732
 31
0.0
  0
LINE
  8
OBJECT
 10
8.203007
 20
1.578732
 30
0.0
 11
4.678007
 21
1.578732
 31
0.0
  0
LINE
  8
OBJECT
 10
4.628007
 20
3.778732
 30
0.0
 11
4.628007
 21
1.628732
 31
0.0
  0
LINE
  8
OBJECT
 10
2.391432
 20
1.891741
 30
0.0
 11
2.391432
 21
1.704741
 31
0.0
  0
LINE
  8
OBJECT
 10
2.391432
 20
1.891741
 30
0.0
 11
2.681358
 21
1.917113
 31
0.0
  0
LINE
  8
OBJECT
 10
2.391432
 20
3.515722
 30
0.0
 11
2.391432
 21
3.702722
 31
0.0
  0
LINE
  8
OBJECT
 10
2.391432
 20
3.515722
 30
0.0
 11
2.681358
 21
3.49035
 31
0.0
  0
LINE
  8
HIDDEN
 10
6.537403
 20
7.061444
 30
0.0
 11
8.092877
 21
7.061444
 31
0.0
  0
LINE
  8
HIDDEN
 10
8.153388
 20
6.369802
 30
0.0
 11
8.092877
 21
7.061444
 31
0.0
  0
LINE
  8
HIDDEN
 10
8.153388
 20
6.37016
 30
0.0
 11
8.100132
 21
5.761444
 31
0.0
  0
LINE
  8
HIDDEN
 10
6.69741
 20
5.761444
 30
0.0
 11
8.100132
 21
5.761444
 31
0.0
  0
LINE
  8
HIDDEN
 10
6.810507
 20
6.751444
 30
0.0
 11
7.070507
 21
6.751444
 31
0.0
  0
LINE
  8
HIDDEN
 10
8.020507
 20
6.448517
 30
0.0
 11
8.020507
 21
5.761444
 31
0.0
  0
LINE
  8
HIDDEN
 10
7.710507
 20
6.448517
 30
0.0
 11
7.710507
 21
5.761444
 31
0.0
  0
LINE
  8
HIDDEN
 10
8.020507
 20
6.448517
 30
0.0
 11
7.710507
 21
6.448517
 31
0.0
  0
LINE
  8
HIDDEN
 10
7.995507
 20
6.448517
 30
0.0
 11
7.995507
 21
7.061444
 31
0.0
  0
LINE
  8
HIDDEN
 10
7.735507
 20
6.448517
 30
0.0
 11
7.735507
 21
7.061444
 31
0.0
  0
LINE
  8
HIDDEN
 10
7.912507
 20
6.479517
 30
0.0
 11
7.912507
 21
7.061444
 31
0.0
  0
LINE
  8
HIDDEN
 10
7.818507
 20
6.479517
 30
0.0
 11
7.818507
 21
7.061444
 31
0.0
  0
LINE
  8
HIDDEN
 10
7.070507
 20
6.751444
 30
0.0
 11
7.070507
 21
7.061444
 31
0.0
  0
LINE
  8
HIDDEN
 10
6.810507
 20
6.751444
 30
0.0
 11
6.810507
 21
7.061444
 31
0.0
  0
LINE
  8
HIDDEN
 10
6.893507
 20
7.101444
 30
0.0
 11
6.987507
 21
7.101444
 31
0.0
  0
LINE
  8
HIDDEN
 10
6.987507
 20
6.782444
 30
0.0
 11
6.987507
 21
7.101444
 31
0.0
  0
LINE
  8
HIDDEN
 10
6.893507
 20
6.782444
 30
0.0
 11
6.893507
 21
7.101444
 31
0.0
  0
LINE
  8
HIDDEN
 10
7.987507
 20
6.388517
 30
0.0
 11
7.743507
 21
6.388517
 31
0.0
  0
LINE
  8
HIDDEN
 10
7.987507
 20
5.661444
 30
0.0
 11
7.987507
 21
6.388517
 31
0.0
  0
LINE
  8
HIDDEN
 10
7.743507
 20
5.661444
 30
0.0
 11
7.743507
 21
6.388517
 31
0.0
  0
LINE
  8
HIDDEN
 10
7.930507
 20
6.448517
 30
0.0
 11
7.930507
 21
6.388517
 31
0.0
  0
LINE
  8
HIDDEN
 10
7.800507
 20
6.448517
 30
0.0
 11
7.800507
 21
6.388517
 31
0.0
  0
LINE
  8
HIDDEN
 10
6.893507
 20
6.782444
 30
0.0
 11
6.987507
 21
6.782444
 31
0.0
  0
LINE
  8
HIDDEN
 10
7.018507
 20
6.751444
 30
0.0
 11
6.987507
 21
6.782444
 31
0.0
  0
LINE
  8
HIDDEN
 10
6.862507
 20
6.751444
 30
0.0
 11
6.893507
 21
6.782444
 31
0.0
  0
LINE
  8
HIDDEN
 10
7.787507
 20
6.448517
 30
0.0
 11
7.818507
 21
6.479517
 31
0.0
  0
LINE
  8
HIDDEN
 10
7.943507
 20
6.448517
 30
0.0
 11
7.912507
 21
6.479517
 31
0.0
  0
LINE
  8
HIDDEN
 10
7.818507
 20
6.479517
 30
0.0
 11
7.912507
 21
6.479517
 31
0.0
  0
LINE
  8
HIDDEN
 10
6.862507
 20
6.071444
 30
0.0
 11
6.893507
 21
6.040444
 31
0.0
  0
LINE
  8
HIDDEN
 10
7.018507
 20
6.071444
 30
0.0
 11
6.987507
 21
6.040444
 31
0.0
  0
LINE
  8
HIDDEN
 10
6.893507
 20
6.040444
 30
0.0
 11
6.987507
 21
6.040444
 31
0.0
  0
LINE
  8
HIDDEN
 10
6.893507
 20
6.040444
 30
0.0
 11
6.893507
 21
5.721444
 31
0.0
  0
LINE
  8
HIDDEN
 10
6.987507
 20
6.040444
 30
0.0
 11
6.987507
 21
5.721444
 31
0.0
  0
LINE
  8
HIDDEN
 10
6.893507
 20
5.721444
 30
0.0
 11
6.987507
 21
5.721444
 31
0.0
  0
LINE
  8
HIDDEN
 10
6.810507
 20
6.071444
 30
0.0
 11
6.810507
 21
5.761444
 31
0.0
  0
LINE
  8
HIDDEN
 10
7.070507
 20
6.071444
 30
0.0
 11
7.070507
 21
5.761444
 31
0.0
  0
LINE
  8
HIDDEN
 10
7.710507
 20
6.051444
 30
0.0
 11
7.690507
 21
6.051444
 31
0.0
  0
LINE
  8
HIDDEN
 10
7.690507
 20
6.051444
 30
0.0
 11
7.690507
 21
5.761444
 31
0.0
  0
LINE
  8
HIDDEN
 10
7.582315
 20
5.761444
 30
0.0
 11
7.582315
 21
6.051444
 31
0.0
  0
LINE
  8
HIDDEN
 10
7.630429
 20
6.008928
 30
0.0
 11
7.690507
 21
6.008928
 31
0.0
  0
LINE
  8
HIDDEN
 10
7.582315
 20
6.051444
 30
0.0
 11
7.630429
 21
6.051444
 31
0.0
  0
LINE
  8
HIDDEN
 10
7.630429
 20
6.051444
 30
0.0
 11
7.630429
 21
5.761444
 31
0.0
  0
LINE
  8
HIDDEN
 10
6.810507
 20
6.071444
 30
0.0
 11
7.070507
 21
6.071444
 31
0.0
  0
LINE
  8
HIDDEN
 10
8.101626
 20
3.67735
 30
0.0
 11
8.101626
 21
1.730113
 31
0.0
  0
LINE
  8
HIDDEN
 10
4.779389
 20
3.67735
 30
0.0
 11
4.779389
 21
2.675293
 31
0.0
  0
LINE
  8
HIDDEN
 10
8.101626
 20
3.67735
 30
0.0
 11
7.739121
 21
3.67735
 31
0.0
  0
LINE
  8
HIDDEN
 10
8.101626
 20
1.730113
 30
0.0
 11
7.739121
 21
1.730113
 31
0.0
  0
LINE
  8
HIDDEN
 10
7.739121
 20
3.702722
 30
0.0
 11
7.582815
 21
3.702722
 31
0.0
  0
LINE
  8
HIDDEN
 10
7.739121
 20
1.704741
 30
0.0
 11
7.582815
 21
1.704741
 31
0.0
  0
LINE
  8
OBJECT
 10
6.178208
 20
1.730113
 30
0.0
 11
4.779389
 21
1.730113
 31
0.0
  0
LINE
  8
HIDDEN
 10
7.582815
 20
1.730113
 30
0.0
 11
6.178208
 21
1.730113
 31
0.0
  0
LINE
  8
HIDDEN
 10
5.298199
 20
3.702722
 30
0.0
 11
5.141893
 21
3.702722
 31
0.0
  0
LINE
  8
HIDDEN
 10
7.582815
 20
3.67735
 30
0.0
 11
5.298199
 21
3.67735
 31
0.0
  0
LINE
  8
HIDDEN
 10
5.141893
 20
3.67735
 30
0.0
 11
4.779389
 21
3.67735
 31
0.0
  0
LINE
  8
OBJECT
 10
5.141893
 20
9.51491
 30
0.0
 11
4.779389
 21
9.51491
 31
0.0
  0
LINE
  8
OBJECT
 10
5.141893
 20
11.462147
 30
0.0
 11
4.779389
 21
11.462147
 31
0.0
  0
LINE
  8
HIDDEN
 10
7.582815
 20
11.462147
 30
0.0
 11
6.22371
 21
11.462147
 31
0.0
  0
LINE
  8
OBJECT
 10
5.298199
 20
11.487519
 30
0.0
 11
5.141893
 21
11.487519
 31
0.0
  0
LINE
  8
OBJECT
 10
5.298199
 20
9.489538
 30
0.0
 11
5.141893
 21
9.489538
 31
0.0
  0
LINE
  8
HIDDEN
 10
7.582815
 20
9.51491
 30
0.0
 11
6.178208
 21
9.51491
 31
0.0
  0
LINE
  8
OBJECT
 10
6.178208
 20
9.51491
 30
0.0
 11
5.298199
 21
9.51491
 31
0.0
  0
LINE
  8
OBJECT
 10
6.22371
 20
11.462147
 30
0.0
 11
5.298199
 21
11.462147
 31
0.0
  0
LINE
  8
HIDDEN
 10
7.739121
 20
9.489538
 30
0.0
 11
7.582815
 21
9.489538
 31
0.0
  0
LINE
  8
HIDDEN
 10
7.739121
 20
11.487519
 30
0.0
 11
7.582815
 21
11.487519
 31
0.0
  0
LINE
  8
HIDDEN
 10
8.101626
 20
9.51491
 30
0.0
 11
7.739121
 21
9.51491
 31
0.0
  0
LINE
  8
HIDDEN
 10
8.101626
 20
11.462147
 30
0.0
 11
7.739121
 21
11.462147
 31
0.0
  0
LINE
  8
OBJECT
 10
4.779389
 20
11.462147
 30
0.0
 11
4.779389
 21
9.51491
 31
0.0
  0
LINE
  8
HIDDEN
 10
8.101626
 20
11.462147
 30
0.0
 11
8.101626
 21
9.51491
 31
0.0
  0
LINE
  8
HIDDEN
 10
6.810507
 20
13.884886
 30
0.0
 11
7.070507
 21
13.884886
 31
0.0
  0
LINE
  8
HIDDEN
 10
7.630429
 20
13.864886
 30
0.0
 11
7.630429
 21
13.574886
 31
0.0
  0
LINE
  8
HIDDEN
 10
7.582315
 20
13.864886
 30
0.0
 11
7.630429
 21
13.864886
 31
0.0
  0
LINE
  8
HIDDEN
 10
7.630429
 20
13.82237
 30
0.0
 11
7.690507
 21
13.82237
 31
0.0
  0
LINE
  8
HIDDEN
 10
7.582315
 20
13.574886
 30
0.0
 11
7.582315
 21
13.864886
 31
0.0
  0
LINE
  8
HIDDEN
 10
7.690507
 20
13.864886
 30
0.0
 11
7.690507
 21
13.574886
 31
0.0
  0
LINE
  8
HIDDEN
 10
7.710507
 20
13.864886
 30
0.0
 11
7.690507
 21
13.864886
 31
0.0
  0
LINE
  8
HIDDEN
 10
7.070507
 20
13.884886
 30
0.0
 11
7.070507
 21
13.574886
 31
0.0
  0
LINE
  8
HIDDEN
 10
6.810507
 20
13.884886
 30
0.0
 11
6.810507
 21
13.574886
 31
0.0
  0
LINE
  8
HIDDEN
 10
6.893507
 20
13.534886
 30
0.0
 11
6.987507
 21
13.534886
 31
0.0
  0
LINE
  8
HIDDEN
 10
6.987507
 20
13.853886
 30
0.0
 11
6.987507
 21
13.534886
 31
0.0
  0
LINE
  8
HIDDEN
 10
6.893507
 20
13.853886
 30
0.0
 11
6.893507
 21
13.534886
 31
0.0
  0
LINE
  8
HIDDEN
 10
6.893507
 20
13.853886
 30
0.0
 11
6.987507
 21
13.853886
 31
0.0
  0
LINE
  8
HIDDEN
 10
7.018507
 20
13.884886
 30
0.0
 11
6.987507
 21
13.853886
 31
0.0
  0
LINE
  8
HIDDEN
 10
6.862507
 20
13.884886
 30
0.0
 11
6.893507
 21
13.853886
 31
0.0
  0
LINE
  8
HIDDEN
 10
7.800507
 20
14.26196
 30
0.0
 11
7.800507
 21
14.20196
 31
0.0
  0
LINE
  8
HIDDEN
 10
7.930507
 20
14.26196
 30
0.0
 11
7.930507
 21
14.20196
 31
0.0
  0
LINE
  8
HIDDEN
 10
7.743507
 20
13.474886
 30
0.0
 11
7.743507
 21
14.20196
 31
0.0
  0
LINE
  8
HIDDEN
 10
7.987507
 20
13.474886
 30
0.0
 11
7.987507
 21
14.20196
 31
0.0
  0
LINE
  8
HIDDEN
 10
7.987507
 20
14.20196
 30
0.0
 11
7.743507
 21
14.20196
 31
0.0
  0
LINE
  8
HIDDEN
 10
7.818507
 20
14.26196
 30
0.0
 11
7.818507
 21
14.374886
 31
0.0
  0
LINE
  8
HIDDEN
 10
7.912507
 20
14.26196
 30
0.0
 11
7.912507
 21
14.374886
 31
0.0
  0
LINE
  8
HIDDEN
 10
7.735507
 20
14.26196
 30
0.0
 11
7.735507
 21
14.374886
 31
0.0
  0
LINE
  8
HIDDEN
 10
7.995507
 20
14.26196
 30
0.0
 11
7.995507
 21
14.374886
 31
0.0
  0
LINE
  8
HIDDEN
 10
8.020507
 20
14.26196
 30
0.0
 11
7.710507
 21
14.26196
 31
0.0
  0
LINE
  8
HIDDEN
 10
7.710507
 20
14.26196
 30
0.0
 11
7.710507
 21
13.574886
 31
0.0
  0
LINE
  8
HIDDEN
 10
8.020507
 20
14.26196
 30
0.0
 11
8.020507
 21
13.574886
 31
0.0
  0
LINE
  8
HIDDEN
 10
6.539395
 20
13.574886
 30
0.0
 11
8.100132
 21
13.574886
 31
0.0
  0
LINE
  8
HIDDEN
 10
8.153388
 20
14.183602
 30
0.0
 11
8.100132
 21
13.574886
 31
0.0
  0
LINE
  8
HIDDEN
 10
8.153388
 20
14.183244
 30
0.0
 11
8.136621
 21
14.374886
 31
0.0
  0
LINE
  8
OBJECT
 10
2.391432
 20
11.300519
 30
0.0
 11
2.681358
 21
11.275147
 31
0.0
  0
LINE
  8
OBJECT
 10
2.391432
 20
11.300519
 30
0.0
 11
2.391432
 21
11.487519
 31
0.0
  0
LINE
  8
OBJECT
 10
2.391432
 20
9.676538
 30
0.0
 11
2.681358
 21
9.70191
 31
0.0
  0
LINE
  8
OBJECT
 10
2.391432
 20
9.676538
 30
0.0
 11
2.391432
 21
9.489538
 31
0.0
  0
LINE
  8
OBJECT
 10
4.628007
 20
11.563529
 30
0.0
 11
4.628007
 21
9.413529
 31
0.0
  0
LINE
  8
OBJECT
 10
8.203007
 20
9.363529
 30
0.0
 11
4.678007
 21
9.363529
 31
0.0
  0
LINE
  8
OBJECT
 10
8.253007
 20
11.563529
 30
0.0
 11
8.253007
 21
9.413529
 31
0.0
  0
LINE
  8
OBJECT
 10
8.203007
 20
11.613529
 30
0.0
 11
4.678007
 21
11.613529
 31
0.0
  0
LINE
  8
OBJECT
 10
6.273099
 20
11.513529
 30
0.0
 11
4.728007
 21
11.513529
 31
0.0
  0
LINE
  8
OBJECT
 10
4.728007
 20
11.513529
 30
0.0
 11
4.728007
 21
9.463529
 31
0.0
  0
LINE
  8
OBJECT
 10
6.202803
 20
9.463529
 30
0.0
 11
4.728007
 21
9.463529
 31
0.0
  0
ARC
  8
OBJECT
 10
8.203007
 20
9.413529
 30
0.0
 40
0.05
 50
270.0
 51
0.0
  0
ARC
  8
OBJECT
 10
4.678007
 20
9.413529
 30
0.0
 40
0.05
 50
180.0
 51
270.0
  0
ARC
  8
OBJECT
 10
4.678007
 20
11.563529
 30
0.0
 40
0.05
 50
90.0
 51
180.0
  0
ARC
  8
OBJECT
 10
8.203007
 20
11.563529
 30
0.0
 40
0.05
 50
0.0
 51
90.0
  0
LINE
  8
OBJECT
 10
8.253007
 20
14.19196
 30
0.0
 11
8.236241
 21
14.383602
 31
0.0
  0
LINE
  8
OBJECT
 10
4.628007
 20
14.19196
 30
0.0
 11
4.644774
 21
14.383602
 31
0.0
  0
LINE
  8
CENTER
 10
6.440507
 20
14.659133
 30
0.0
 11
6.440507
 21
13.307712
 31
0.0
  0
LINE
  8
CENTER
 10
1.614399
 20
10.488529
 30
0.0
 11
2.948318
 21
10.488529
 31
0.0
  0
CIRCLE
  8
OBJECT
 10
5.940507
 20
11.238529
 30
0.0
 40
0.13
  0
CIRCLE
  8
OBJECT
 10
5.940507
 20
9.738529
 30
0.0
 40
0.13
  0
ARC
  8
OBJECT
 10
5.823276
 20
10.00009
 30
0.0
 40
0.482613
 50
332.47586
 51
6.541409
  0
ARC
  8
OBJECT
 10
4.39604
 20
9.836432
 30
0.0
 40
1.919201
 50
6.541409
 51
24.817315
  0
ARC
  8
OBJECT
 10
6.765292
 20
10.990989
 30
0.0
 40
0.717846
 50
119.861247
 51
209.091128
  0
ARC
  8
OBJECT
 10
6.406416
 20
9.59257
 30
0.0
 40
0.24106
 50
130.062112
 51
251.831219
  0
LINE
  8
OBJECT
 10
6.313129
 20
11.548529
 30
0.0
 11
4.733007
 21
11.548529
 31
0.0
  0
LINE
  8
OBJECT
 10
4.693007
 20
11.508529
 30
0.0
 11
4.693007
 21
9.468529
 31
0.0
  0
LINE
  8
OBJECT
 10
6.229779
 20
9.428529
 30
0.0
 11
4.733007
 21
9.428529
 31
0.0
  0
LINE
  8
OBJECT
 10
4.780882
 20
13.474886
 30
0.0
 11
8.100132
 21
13.474886
 31
0.0
  0
LINE
  8
OBJECT
 10
4.628007
 20
14.174886
 30
0.0
 11
4.681263
 21
13.56617
 31
0.0
  0
LINE
  8
OBJECT
 10
8.253007
 20
14.174886
 30
0.0
 11
8.199752
 21
13.56617
 31
0.0
  0
LINE
  8
OBJECT
 10
4.628007
 20
14.19196
 30
0.0
 11
4.688007
 21
14.19196
 31
0.0
  0
LINE
  8
OBJECT
 10
4.628007
 20
14.174886
 30
0.0
 11
4.688007
 21
14.174886
 31
0.0
  0
ARC
  8
OBJECT
 10
7.005249
 20
13.542498
 30
0.0
 40
0.466979
 50
144.686192
 51
188.324942
  0
ARC
  8
OBJECT
 10
6.290574
 20
14.03733
 30
0.0
 40
0.402343
 50
326.016322
 51
30.650023
  0
ARC
  8
OBJECT
 10
6.979819
 20
14.473914
 30
0.0
 40
0.413889
 50
179.865383
 51
214.004774
  0
LINE
  8
OBJECT
 10
2.064358
 20
11.513147
 30
0.0
 11
2.064358
 21
11.393529
 31
0.0
  0
LINE
  8
OBJECT
 10
2.781358
 20
11.460653
 30
0.0
 11
2.781358
 21
9.516404
 31
0.0
  0
LINE
  8
OBJECT
 10
4.780882
 20
13.574886
 30
0.0
 11
6.539395
 21
13.574886
 31
0.0
  0
LINE
  8
OBJECT
 10
2.681358
 20
11.460653
 30
0.0
 11
2.681358
 21
9.516404
 31
0.0
  0
LINE
  8
OBJECT
 10
5.141893
 20
11.487519
 30
0.0
 11
5.141893
 21
11.275147
 31
0.0
  0
LINE
  8
OBJECT
 10
5.141893
 20
11.275147
 30
0.0
 11
5.190507
 21
11.275147
 31
0.0
  0
LINE
  8
OBJECT
 10
5.190507
 20
11.275147
 30
0.0
 11
5.190507
 21
11.487519
 31
0.0
  0
LINE
  8
OBJECT
 10
5.298199
 20
11.487519
 30
0.0
 11
5.298199
 21
11.275147
 31
0.0
  0
LINE
  8
OBJECT
 10
5.250585
 20
11.368759
 30
0.0
 11
5.190507
 21
11.368759
 31
0.0
  0
LINE
  8
OBJECT
 10
5.298199
 20
11.275147
 30
0.0
 11
5.250585
 21
11.275147
 31
0.0
  0
LINE
  8
OBJECT
 10
5.250585
 20
11.275147
 30
0.0
 11
5.250585
 21
11.487519
 31
0.0
  0
LINE
  8
CENTER
 10
8.5176
 20
10.488529
 30
0.0
 11
4.363414
 21
10.488529
 31
0.0
  0
LINE
  8
HIDDEN
 10
6.229779
 20
9.428529
 30
0.0
 11
8.148007
 21
9.428529
 31
0.0
  0
LINE
  8
HIDDEN
 10
6.202803
 20
9.463529
 30
0.0
 11
8.153007
 21
9.463529
 31
0.0
  0
LINE
  8
HIDDEN
 10
6.313129
 20
11.548529
 30
0.0
 11
8.148007
 21
11.548529
 31
0.0
  0
LINE
  8
HIDDEN
 10
6.273099
 20
11.513529
 30
0.0
 11
8.153007
 21
11.513529
 31
0.0
  0
LINE
  8
HIDDEN
 10
8.188007
 20
11.508529
 30
0.0
 11
8.188007
 21
9.468529
 31
0.0
  0
LINE
  8
HIDDEN
 10
8.153007
 20
11.513529
 30
0.0
 11
8.153007
 21
9.463529
 31
0.0
  0
CIRCLE
  8
HIDDEN
 10
6.940507
 20
9.738529
 30
0.0
 40
0.13
  0
CIRCLE
  8
HIDDEN
 10
6.940507
 20
11.238529
 30
0.0
 40
0.13
  0
LINE
  8
OBJECT
 10
4.734513
 20
14.26196
 30
0.0
 11
4.744393
 21
14.374886
 31
0.0
  0
LINE
  8
OBJECT
 10
4.728389
 20
14.174886
 30
0.0
 11
4.780882
 21
13.574886
 31
0.0
  0
LINE
  8
OBJECT
 10
4.688007
 20
14.26196
 30
0.0
 11
4.688007
 21
14.19196
 31
0.0
  0
LINE
  8
OBJECT
 10
4.688007
 20
14.26196
 30
0.0
 11
4.734513
 21
14.26196
 31
0.0
  0
LINE
  8
OBJECT
 10
4.688007
 20
14.19196
 30
0.0
 11
4.688007
 21
14.174886
 31
0.0
  0
LINE
  8
OBJECT
 10
4.728389
 20
14.174886
 30
0.0
 11
4.728389
 21
14.26196
 31
0.0
  0
LINE
  8
OBJECT
 10
4.728389
 20
14.174886
 30
0.0
 11
4.860507
 21
14.174886
 31
0.0
  0
LINE
  8
OBJECT
 10
4.728389
 20
14.19196
 30
0.0
 11
4.860507
 21
14.19196
 31
0.0
  0
ARC
  8
OBJECT
 10
4.733007
 20
11.508529
 30
0.0
 40
0.04
 50
90.0
 51
180.0
  0
ARC
  8
OBJECT
 10
4.733007
 20
9.468529
 30
0.0
 40
0.04
 50
180.0
 51
270.0
  0
ARC
  8
HIDDEN
 10
8.148007
 20
11.508529
 30
0.0
 40
0.04
 50
0.0
 51
90.0
  0
ARC
  8
HIDDEN
 10
8.148007
 20
9.468529
 30
0.0
 40
0.04
 50
270.0
 51
0.0
  0
CIRCLE
  8
OBJECT
 10
5.940507
 20
11.238529
 30
0.0
 40
0.0465
  0
CIRCLE
  8
OBJECT
 10
5.940507
 20
9.738529
 30
0.0
 40
0.0465
  0
CIRCLE
  8
OBJECT
 10
5.015507
 20
11.238529
 30
0.0
 40
0.0465
  0
LINE
  8
OBJECT
 10
4.860507
 20
14.26196
 30
0.0
 11
4.860507
 21
13.574886
 31
0.0
  0
LINE
  8
OBJECT
 10
5.170507
 20
14.26196
 30
0.0
 11
5.170507
 21
13.574886
 31
0.0
  0
LINE
  8
OBJECT
 10
5.170507
 20
14.174886
 30
0.0
 11
8.253007
 21
14.174886
 31
0.0
  0
LINE
  8
OBJECT
 10
5.170507
 20
14.19196
 30
0.0
 11
8.253007
 21
14.19196
 31
0.0
  0
LINE
  8
OBJECT
 10
4.860507
 20
14.26196
 30
0.0
 11
5.170507
 21
14.26196
 31
0.0
  0
LINE
  8
OBJECT
 10
4.885507
 20
14.26196
 30
0.0
 11
4.885507
 21
14.374886
 31
0.0
  0
LINE
  8
OBJECT
 10
5.145507
 20
14.26196
 30
0.0
 11
5.145507
 21
14.374886
 31
0.0
  0
LINE
  8
HIDDEN
 10
4.968507
 20
14.26196
 30
0.0
 11
4.968507
 21
14.374886
 31
0.0
  0
LINE
  8
HIDDEN
 10
5.062507
 20
14.26196
 30
0.0
 11
5.062507
 21
14.374886
 31
0.0
  0
LINE
  8
HIDDEN
 10
4.893507
 20
14.20196
 30
0.0
 11
5.137507
 21
14.20196
 31
0.0
  0
LINE
  8
HIDDEN
 10
4.893507
 20
13.474886
 30
0.0
 11
4.893507
 21
14.20196
 31
0.0
  0
LINE
  8
HIDDEN
 10
5.137507
 20
13.474886
 30
0.0
 11
5.137507
 21
14.20196
 31
0.0
  0
LINE
  8
HIDDEN
 10
4.950507
 20
14.26196
 30
0.0
 11
4.950507
 21
14.20196
 31
0.0
  0
LINE
  8
HIDDEN
 10
5.080507
 20
14.26196
 30
0.0
 11
5.080507
 21
14.20196
 31
0.0
  0
CIRCLE
  8
OBJECT
 10
5.940507
 20
11.238529
 30
0.0
 40
0.078
  0
CIRCLE
  8
OBJECT
 10
5.940507
 20
9.738529
 30
0.0
 40
0.078
  0
LINE
  8
HIDDEN
 10
1.963285
 20
11.191529
 30
0.0
 11
1.963285
 21
11.285529
 31
0.0
  0
LINE
  8
HIDDEN
 10
1.994285
 20
11.316529
 30
0.0
 11
1.963285
 21
11.285529
 31
0.0
  0
LINE
  8
HIDDEN
 10
1.994285
 20
11.160529
 30
0.0
 11
1.963285
 21
11.191529
 31
0.0
  0
LINE
  8
HIDDEN
 10
1.994285
 20
11.173529
 30
0.0
 11
2.054285
 21
11.173529
 31
0.0
  0
LINE
  8
HIDDEN
 10
1.994285
 20
11.303529
 30
0.0
 11
2.054285
 21
11.303529
 31
0.0
  0
LINE
  8
HIDDEN
 10
2.781358
 20
11.116529
 30
0.0
 11
2.054285
 21
11.116529
 31
0.0
  0
LINE
  8
HIDDEN
 10
2.781358
 20
11.360529
 30
0.0
 11
2.054285
 21
11.360529
 31
0.0
  0
LINE
  8
HIDDEN
 10
2.054285
 20
11.360529
 30
0.0
 11
2.054285
 21
11.116529
 31
0.0
  0
LINE
  8
HIDDEN
 10
1.963285
 20
11.191529
 30
0.0
 11
1.881358
 21
11.191529
 31
0.0
  0
LINE
  8
HIDDEN
 10
1.963285
 20
11.285529
 30
0.0
 11
1.881358
 21
11.285529
 31
0.0
  0
LINE
  8
OBJECT
 10
1.994285
 20
11.108529
 30
0.0
 11
1.881358
 21
11.108529
 31
0.0
  0
LINE
  8
OBJECT
 10
1.994285
 20
11.368529
 30
0.0
 11
1.881358
 21
11.368529
 31
0.0
  0
LINE
  8
OBJECT
 10
1.994285
 20
11.393529
 30
0.0
 11
1.994285
 21
11.083529
 31
0.0
  0
LINE
  8
OBJECT
 10
1.994285
 20
11.083529
 30
0.0
 11
2.681358
 21
11.083529
 31
0.0
  0
LINE
  8
OBJECT
 10
1.994285
 20
11.393529
 30
0.0
 11
2.391432
 21
11.393529
 31
0.0
  0
LINE
  8
OBJECT
 10
2.064285
 20
11.513147
 30
0.0
 11
2.064285
 21
11.393529
 31
0.0
  0
LINE
  8
OBJECT
 10
2.081358
 20
11.513147
 30
0.0
 11
2.081358
 21
11.393529
 31
0.0
  0
LINE
  8
OBJECT
 10
2.081358
 20
11.513147
 30
0.0
 11
1.994285
 21
11.513147
 31
0.0
  0
LINE
  8
OBJECT
 10
2.064285
 20
11.553529
 30
0.0
 11
2.081358
 21
11.553529
 31
0.0
  0
LINE
  8
OBJECT
 10
1.994285
 20
11.553529
 30
0.0
 11
1.994285
 21
11.507022
 31
0.0
  0
LINE
  8
OBJECT
 10
1.994285
 20
11.553529
 30
0.0
 11
2.064285
 21
11.553529
 31
0.0
  0
LINE
  8
OBJECT
 10
2.081358
 20
11.513147
 30
0.0
 11
2.681358
 21
11.460653
 31
0.0
  0
LINE
  8
OBJECT
 10
1.994285
 20
11.507022
 30
0.0
 11
1.881358
 21
11.497143
 31
0.0
  0
LINE
  8
OBJECT
 10
2.081358
 20
11.613529
 30
0.0
 11
2.081358
 21
11.553529
 31
0.0
  0
LINE
  8
OBJECT
 10
2.064285
 20
11.613529
 30
0.0
 11
2.064285
 21
11.553529
 31
0.0
  0
LINE
  8
OBJECT
 10
2.081358
 20
11.613529
 30
0.0
 11
2.690074
 21
11.560273
 31
0.0
  0
LINE
  8
OBJECT
 10
2.064285
 20
11.613529
 30
0.0
 11
1.872643
 21
11.596762
 31
0.0
  0
LINE
  8
OBJECT
 10
2.081358
 20
11.083529
 30
0.0
 11
2.081358
 21
9.893529
 31
0.0
  0
LINE
  8
OBJECT
 10
2.064358
 20
11.083529
 30
0.0
 11
2.064358
 21
9.893529
 31
0.0
  0
LINE
  8
OBJECT
 10
2.064285
 20
9.363529
 30
0.0
 11
1.872643
 21
9.380295
 31
0.0
  0
LINE
  8
OBJECT
 10
2.081358
 20
9.363529
 30
0.0
 11
2.690074
 21
9.416784
 31
0.0
  0
LINE
  8
OBJECT
 10
2.064285
 20
9.363529
 30
0.0
 11
2.064285
 21
9.423529
 31
0.0
  0
LINE
  8
OBJECT
 10
2.081358
 20
9.363529
 30
0.0
 11
2.081358
 21
9.423529
 31
0.0
  0
LINE
  8
OBJECT
 10
1.994285
 20
9.470035
 30
0.0
 11
1.881358
 21
9.479915
 31
0.0
  0
LINE
  8
OBJECT
 10
2.081358
 20
9.463911
 30
0.0
 11
2.681358
 21
9.516404
 31
0.0
  0
LINE
  8
OBJECT
 10
1.994285
 20
9.423529
 30
0.0
 11
2.064285
 21
9.423529
 31
0.0
  0
LINE
  8
OBJECT
 10
1.994285
 20
9.423529
 30
0.0
 11
1.994285
 21
9.470035
 31
0.0
  0
LINE
  8
OBJECT
 10
2.064285
 20
9.423529
 30
0.0
 11
2.081358
 21
9.423529
 31
0.0
  0
LINE
  8
OBJECT
 10
2.081358
 20
9.463911
 30
0.0
 11
1.994285
 21
9.463911
 31
0.0
  0
LINE
  8
OBJECT
 10
2.081358
 20
9.463911
 30
0.0
 11
2.081358
 21
9.583529
 31
0.0
  0
LINE
  8
OBJECT
 10
2.064285
 20
9.463911
 30
0.0
 11
2.064285
 21
9.583529
 31
0.0
  0
LINE
  8
OBJECT
 10
1.994285
 20
9.583529
 30
0.0
 11
2.391432
 21
9.583529
 31
0.0
  0
LINE
  8
OBJECT
 10
1.994285
 20
9.893529
 30
0.0
 11
2.681358
 21
9.893529
 31
0.0
  0
LINE
  8
OBJECT
 10
1.994285
 20
9.583529
 30
0.0
 11
1.994285
 21
9.893529
 31
0.0
  0
LINE
  8
OBJECT
 10
1.994285
 20
9.608529
 30
0.0
 11
1.881358
 21
9.608529
 31
0.0
  0
LINE
  8
OBJECT
 10
1.994285
 20
9.868529
 30
0.0
 11
1.881358
 21
9.868529
 31
0.0
  0
LINE
  8
HIDDEN
 10
1.963285
 20
9.691529
 30
0.0
 11
1.881358
 21
9.691529
 31
0.0
  0
LINE
  8
HIDDEN
 10
1.963285
 20
9.785529
 30
0.0
 11
1.881358
 21
9.785529
 31
0.0
  0
LINE
  8
HIDDEN
 10
2.054285
 20
9.616529
 30
0.0
 11
2.054285
 21
9.860529
 31
0.0
  0
LINE
  8
HIDDEN
 10
2.781358
 20
9.616529
 30
0.0
 11
2.054285
 21
9.616529
 31
0.0
  0
LINE
  8
HIDDEN
 10
2.781358
 20
9.860529
 30
0.0
 11
2.054285
 21
9.860529
 31
0.0
  0
LINE
  8
HIDDEN
 10
1.994285
 20
9.673529
 30
0.0
 11
2.054285
 21
9.673529
 31
0.0
  0
LINE
  8
HIDDEN
 10
1.994285
 20
9.803529
 30
0.0
 11
2.054285
 21
9.803529
 31
0.0
  0
LINE
  8
HIDDEN
 10
1.994285
 20
9.816529
 30
0.0
 11
1.963285
 21
9.785529
 31
0.0
  0
LINE
  8
HIDDEN
 10
1.994285
 20
9.660529
 30
0.0
 11
1.963285
 21
9.691529
 31
0.0
  0
LINE
  8
HIDDEN
 10
1.963285
 20
9.785529
 30
0.0
 11
1.963285
 21
9.691529
 31
0.0
  0
LINE
  8
OBJECT
 10
2.064358
 20
9.463911
 30
0.0
 11
2.064358
 21
9.583529
 31
0.0
  0
LINE
  8
OBJECT
 10
2.081358
 20
9.423529
 30
0.0
 11
2.081358
 21
9.363529
 31
0.0
  0
LINE
  8
OBJECT
 10
2.064358
 20
9.423529
 30
0.0
 11
2.064358
 21
9.363529
 31
0.0
  0
LINE
  8
HIDDEN
 10
7.630429
 20
11.275147
 30
0.0
 11
7.630429
 21
11.487519
 31
0.0
  0
LINE
  8
HIDDEN
 10
7.582815
 20
11.275147
 30
0.0
 11
7.630429
 21
11.275147
 31
0.0
  0
LINE
  8
HIDDEN
 10
7.630429
 20
11.368759
 30
0.0
 11
7.690507
 21
11.368759
 31
0.0
  0
LINE
  8
HIDDEN
 10
7.582815
 20
11.487519
 30
0.0
 11
7.582815
 21
11.275147
 31
0.0
  0
LINE
  8
HIDDEN
 10
7.690507
 20
11.275147
 30
0.0
 11
7.690507
 21
11.462115
 31
0.0
  0
LINE
  8
HIDDEN
 10
7.739121
 20
11.275147
 30
0.0
 11
7.690507
 21
11.275147
 31
0.0
  0
LINE
  8
HIDDEN
 10
7.739121
 20
11.487519
 30
0.0
 11
7.739121
 21
11.275147
 31
0.0
  0
LINE
  8
HIDDEN
 10
6.018507
 20
13.884886
 30
0.0
 11
5.987507
 21
13.853886
 31
0.0
  0
LINE
  8
HIDDEN
 10
5.862507
 20
13.884886
 30
0.0
 11
5.893507
 21
13.853886
 31
0.0
  0
LINE
  8
HIDDEN
 10
5.987507
 20
13.853886
 30
0.0
 11
5.893507
 21
13.853886
 31
0.0
  0
LINE
  8
HIDDEN
 10
5.987507
 20
13.853886
 30
0.0
 11
5.987507
 21
13.534886
 31
0.0
  0
LINE
  8
HIDDEN
 10
5.893507
 20
13.853886
 30
0.0
 11
5.893507
 21
13.534886
 31
0.0
  0
LINE
  8
HIDDEN
 10
5.987507
 20
13.534886
 30
0.0
 11
5.893507
 21
13.534886
 31
0.0
  0
LINE
  8
OBJECT
 10
6.070507
 20
13.884886
 30
0.0
 11
6.070507
 21
13.574886
 31
0.0
  0
LINE
  8
OBJECT
 10
5.810507
 20
13.884886
 30
0.0
 11
5.810507
 21
13.574886
 31
0.0
  0
LINE
  8
OBJECT
 10
5.170507
 20
13.864886
 30
0.0
 11
5.190507
 21
13.864886
 31
0.0
  0
LINE
  8
OBJECT
 10
5.190507
 20
13.864886
 30
0.0
 11
5.190507
 21
13.574886
 31
0.0
  0
LINE
  8
OBJECT
 10
5.298699
 20
13.574886
 30
0.0
 11
5.298699
 21
13.864886
 31
0.0
  0
LINE
  8
OBJECT
 10
5.250585
 20
13.82237
 30
0.0
 11
5.190507
 21
13.82237
 31
0.0
  0
LINE
  8
OBJECT
 10
5.298699
 20
13.864886
 30
0.0
 11
5.250585
 21
13.864886
 31
0.0
  0
LINE
  8
OBJECT
 10
5.250585
 20
13.864886
 30
0.0
 11
5.250585
 21
13.574886
 31
0.0
  0
LINE
  8
OBJECT
 10
6.070507
 20
13.884886
 30
0.0
 11
5.810507
 21
13.884886
 31
0.0
  0
LINE
  8
OBJECT
 10
5.250585
 20
9.70191
 30
0.0
 11
5.250585
 21
9.489538
 31
0.0
  0
LINE
  8
OBJECT
 10
5.298199
 20
9.70191
 30
0.0
 11
5.250585
 21
9.70191
 31
0.0
  0
LINE
  8
OBJECT
 10
5.250585
 20
9.608298
 30
0.0
 11
5.190507
 21
9.608298
 31
0.0
  0
LINE
  8
OBJECT
 10
5.298199
 20
9.489538
 30
0.0
 11
5.298199
 21
9.70191
 31
0.0
  0
LINE
  8
OBJECT
 10
5.190507
 20
9.70191
 30
0.0
 11
5.190507
 21
9.489538
 31
0.0
  0
LINE
  8
OBJECT
 10
5.141893
 20
9.70191
 30
0.0
 11
5.190507
 21
9.70191
 31
0.0
  0
LINE
  8
OBJECT
 10
5.141893
 20
9.489538
 30
0.0
 11
5.141893
 21
9.70191
 31
0.0
  0
LINE
  8
HIDDEN
 10
7.739121
 20
9.489538
 30
0.0
 11
7.739121
 21
9.70191
 31
0.0
  0
LINE
  8
HIDDEN
 10
7.739121
 20
9.70191
 30
0.0
 11
7.690507
 21
9.70191
 31
0.0
  0
LINE
  8
HIDDEN
 10
7.690507
 20
9.70191
 30
0.0
 11
7.690507
 21
9.489538
 31
0.0
  0
LINE
  8
HIDDEN
 10
7.582815
 20
9.489538
 30
0.0
 11
7.582815
 21
9.70191
 31
0.0
  0
LINE
  8
HIDDEN
 10
7.630429
 20
9.608298
 30
0.0
 11
7.690507
 21
9.608298
 31
0.0
  0
LINE
  8
HIDDEN
 10
7.582815
 20
9.70191
 30
0.0
 11
7.630429
 21
9.70191
 31
0.0
  0
LINE
  8
HIDDEN
 10
7.630429
 20
9.70191
 30
0.0
 11
7.630429
 21
9.489538
 31
0.0
  0
CIRCLE
  8
OBJECT
 10
7.865507
 20
9.738529
 30
0.0
 40
0.0465
  0
CIRCLE
  8
OBJECT
 10
7.865507
 20
11.238529
 30
0.0
 40
0.0465
  0
CIRCLE
  8
OBJECT
 10
7.865507
 20
11.238529
 30
0.0
 40
0.1225
  0
CIRCLE
  8
OBJECT
 10
7.865507
 20
9.738529
 30
0.0
 40
0.1225
  0
CIRCLE
  8
OBJECT
 10
5.015507
 20
11.238529
 30
0.0
 40
0.078
  0
CIRCLE
  8
OBJECT
 10
5.015507
 20
11.238529
 30
0.0
 40
0.13
  0
CIRCLE
  8
OBJECT
 10
5.015507
 20
9.738529
 30
0.0
 40
0.13
  0
CIRCLE
  8
OBJECT
 10
5.015507
 20
9.738529
 30
0.0
 40
0.078
  0
CIRCLE
  8
OBJECT
 10
5.015507
 20
9.738529
 30
0.0
 40
0.0465
  0
LINE
  8
OBJECT
 10
6.315507
 20
11.238529
 30
0.0
 11
6.315507
 21
9.738529
 31
0.0
  0
LINE
  8
OBJECT
 10
7.555507
 20
11.238529
 30
0.0
 11
7.555507
 21
9.738529
 31
0.0
  0
LINE
  8
OBJECT
 10
7.555507
 20
11.238529
 30
0.0
 11
6.315507
 21
11.238529
 31
0.0
  0
LINE
  8
OBJECT
 10
7.555507
 20
9.738529
 30
0.0
 11
6.315507
 21
9.738529
 31
0.0
  0
LINE
  8
CENTER
 10
6.440507
 20
11.774004
 30
0.0
 11
6.440507
 21
9.064807
 31
0.0
  0
LINE
  8
OBJECT
 10
4.744393
 20
14.474886
 30
0.0
 11
8.136621
 21
14.474886
 31
0.0
  0
LINE
  8
OBJECT
 10
4.744393
 20
14.374886
 30
0.0
 11
6.576382
 21
14.374886
 31
0.0
  0
LINE
  8
HIDDEN
 10
6.576382
 20
14.374886
 30
0.0
 11
8.136621
 21
14.374886
 31
0.0
  0
LINE
  8
OBJECT
 10
1.781358
 20
11.497143
 30
0.0
 11
1.781358
 21
9.479915
 31
0.0
  0
LINE
  8
OBJECT
 10
1.881358
 20
11.497143
 30
0.0
 11
1.881358
 21
9.479915
 31
0.0
  0
TEXT
  8
TEXT
 10
0.265125
 20
15.060079
 30
0.0
 40
0.125
  1
NAME
 41
0.75
 72
     1
 11
0.437
 21
15.060079
 31
0.0
  0
TEXT
  8
TEXT
 10
0.265125
 20
15.268413
 30
0.0
 40
0.125
  1
PART
 41
0.75
 72
     1
 11
0.437
 21
15.268413
 31
0.0
  0
TEXT
  8
TEXT
 10
5.40325
 20
15.060079
 30
0.0
 40
0.125
  1
No.
 41
0.75
 72
     1
 11
5.497
 21
15.060079
 31
0.0
  0
TEXT
  8
TEXT
 10
5.325125
 20
15.268413
 30
0.0
 40
0.125
  1
PART
 41
0.75
 72
     1
 11
5.497
 21
15.268413
 31
0.0
  0
LINE
  8
TITLE
 10
5.872
 20
15.438
 30
0.0
 11
5.872
 21
15.02
 31
0.0
  0
LINE
  8
TITLE
 10
5.122
 20
15.438
 30
0.0
 11
5.122
 21
15.02
 31
0.0
  0
LINE
  8
TITLE
 10
5.06
 20
15.438
 30
0.0
 11
5.06
 21
15.02
 31
0.0
  0
LINE
  8
TITLE
 10
0.812
 20
15.02
 30
0.0
 11
0.812
 21
15.438
 31
0.0
  0
LINE
  8
TITLE
 10
0.062
 20
15.02
 30
0.0
 11
10.058
 21
15.02
 31
0.0
  0
LINE
  8
TITLE
 10
10.058
 20
0.062
 30
0.0
 11
0.062
 21
0.062
 31
0.0
  0
LINE
  8
TITLE
 10
10.058
 20
15.438
 30
0.0
 11
10.058
 21
7.833
 31
0.0
  0
LINE
  8
TITLE
 10
0.062
 20
15.438
 30
0.0
 11
10.058
 21
15.438
 31
0.0
  0
LINE
  8
TITLE
 10
0.062
 20
0.062
 30
0.0
 11
0.062
 21
7.75
 31
0.0
  0
LINE
  8
TITLE
 10
0.0
 20
0.0
 30
0.0
 11
0.0
 21
15.5
 31
0.0
  0
LINE
  8
TITLE
 10
10.12
 20
0.0
 30
0.0
 11
0.0
 21
0.0
 31
0.0
  0
LINE
  8
TITLE
 10
10.12
 20
15.5
 30
0.0
 11
10.12
 21
0.0
 31
0.0
  0
LINE
  8
TITLE
 10
0.0
 20
15.5
 30
0.0
 11
10.12
 21
15.5
 31
0.0
  0
LINE
  8
TITLE
 10
0.062
 20
7.332
 30
0.0
 11
10.058
 21
7.332
 31
0.0
  0
LINE
  8
TITLE
 10
0.812
 20
7.332
 30
0.0
 11
0.812
 21
7.75
 31
0.0
  0
LINE
  8
TITLE
 10
5.06
 20
7.75
 30
0.0
 11
5.06
 21
7.332
 31
0.0
  0
LINE
  8
TITLE
 10
5.122
 20
7.75
 30
0.0
 11
5.122
 21
7.332
 31
0.0
  0
LINE
  8
TITLE
 10
5.872
 20
7.75
 30
0.0
 11
5.872
 21
7.332
 31
0.0
  0
TEXT
  8
TEXT
 10
5.325125
 20
7.580413
 30
0.0
 40
0.125
  1
PART
 41
0.75
 72
     1
 11
5.497
 21
7.580413
 31
0.0
  0
TEXT
  8
TEXT
 10
5.40325
 20
7.372079
 30
0.0
 40
0.125
  1
No.
 41
0.75
 72
     1
 11
5.497
 21
7.372079
 31
0.0
  0
TEXT
  8
TEXT
 10
0.265125
 20
7.580413
 30
0.0
 40
0.125
  1
PART
 41
0.75
 72
     1
 11
0.437
 21
7.580413
 31
0.0
  0
TEXT
  8
TEXT
 10
0.265125
 20
7.372079
 30
0.0
 40
0.125
  1
NAME
 41
0.75
 72
     1
 11
0.437
 21
7.372079
 31
0.0
  0
LINE
  8
TITLE
 10
0.062
 20
7.75
 30
0.0
 11
10.058
 21
7.75
 31
0.0
  0
LINE
  8
DIM
 10
5.190507
 20
3.765222
 30
0.0
 11
5.190507
 21
4.440138
 31
0.0
  0
LINE
  8
DIM
 10
6.260507
 20
4.347138
 30
0.0
 11
6.038473
 21
4.347138
 31
0.0
  0
LINE
  8
DIM
 10
5.370507
 20
4.347138
 30
0.0
 11
5.59979
 21
4.347138
 31
0.0
  0
SOLID
  8
DIM
 10
6.260507
 20
4.317138
 30
0.0
 11
6.260507
 21
4.377138
 31
0.0
 12
6.440507
 22
4.347138
 32
0.0
 13
6.440507
 23
4.347138
 33
0.0
  0
SOLID
  8
DIM
 10
5.370507
 20
4.317138
 30
0.0
 11
5.370507
 21
4.377138
 31
0.0
 12
5.190507
 22
4.347138
 32
0.0
 13
5.190507
 23
4.347138
 33
0.0
  0
TEXT
  8
DIM
 10
5.650519
 20
4.284638
 30
0.0
 40
0.125
  1
1.250
 41
0.75
  0
LINE
  8
DIM
 10
6.440507
 20
1.21751
 30
0.0
 11
6.440507
 21
0.743371
 31
0.0
  0
LINE
  8
DIM
 10
6.940507
 20
1.896232
 30
0.0
 11
6.940507
 21
0.743371
 31
0.0
  0
LINE
  8
DIM
 10
7.120507
 20
0.836371
 30
0.0
 11
7.300507
 21
0.836371
 31
0.0
  0
LINE
  8
DIM
 10
6.260507
 20
0.836371
 30
0.0
 11
6.080507
 21
0.836371
 31
0.0
  0
SOLID
  8
DIM
 10
7.120507
 20
0.806371
 30
0.0
 11
7.120507
 21
0.866371
 31
0.0
 12
6.940507
 22
0.836371
 32
0.0
 13
6.940507
 23
0.836371
 33
0.0
  0
SOLID
  8
DIM
 10
6.260507
 20
0.806371
 30
0.0
 11
6.260507
 21
0.866371
 31
0.0
 12
6.440507
 22
0.836371
 32
0.0
 13
6.440507
 23
0.836371
 33
0.0
  0
TEXT
  8
DIM
 10
6.526083
 20
0.773871
 30
0.0
 40
0.125
  1
0.500
 41
0.75
  0
TEXT
  8
DIM
 10
6.900519
 20
4.284638
 30
0.0
 40
0.125
  1
1.250
 41
0.75
  0
SOLID
  8
DIM
 10
7.510507
 20
4.317138
 30
0.0
 11
7.510507
 21
4.377138
 31
0.0
 12
7.690507
 22
4.347138
 32
0.0
 13
7.690507
 23
4.347138
 33
0.0
  0
SOLID
  8
DIM
 10
6.620507
 20
4.317138
 30
0.0
 11
6.620507
 21
4.377138
 31
0.0
 12
6.440507
 22
4.347138
 32
0.0
 13
6.440507
 23
4.347138
 33
0.0
  0
LINE
  8
DIM
 10
7.510507
 20
4.347138
 30
0.0
 11
7.281224
 21
4.347138
 31
0.0
  0
LINE
  8
DIM
 10
6.620507
 20
4.347138
 30
0.0
 11
6.86308
 21
4.347138
 31
0.0
  0
LINE
  8
DIM
 10
7.690507
 20
3.765222
 30
0.0
 11
7.690507
 21
4.440138
 31
0.0
  0
LINE
  8
DIM
 10
5.940507
 20
1.896232
 30
0.0
 11
5.940507
 21
0.987792
 31
0.0
  0
LINE
  8
DIM
 10
5.760507
 20
1.080792
 30
0.0
 11
5.580507
 21
1.080792
 31
0.0
  0
LINE
  8
DIM
 10
6.620507
 20
1.080792
 30
0.0
 11
6.800507
 21
1.080792
 31
0.0
  0
SOLID
  8
DIM
 10
5.760507
 20
1.050792
 30
0.0
 11
5.760507
 21
1.110792
 31
0.0
 12
5.940507
 22
1.080792
 32
0.0
 13
5.940507
 23
1.080792
 33
0.0
  0
SOLID
  8
DIM
 10
6.620507
 20
1.050792
 30
0.0
 11
6.620507
 21
1.110792
 31
0.0
 12
6.440507
 22
1.080792
 32
0.0
 13
6.440507
 23
1.080792
 33
0.0
  0
TEXT
  8
DIM
 10
6.01749
 20
1.018292
 30
0.0
 40
0.125
  1
0.500
 41
0.75
  0
LINE
  8
DIM
 10
7.555507
 20
3.511232
 30
0.0
 11
7.555507
 21
4.177891
 31
0.0
  0
SOLID
  8
DIM
 10
6.620507
 20
4.054891
 30
0.0
 11
6.620507
 21
4.114891
 31
0.0
 12
6.440507
 22
4.084891
 32
0.0
 13
6.440507
 23
4.084891
 33
0.0
  0
SOLID
  8
DIM
 10
7.375507
 20
4.054891
 30
0.0
 11
7.375507
 21
4.114891
 31
0.0
 12
7.555507
 22
4.084891
 32
0.0
 13
7.555507
 23
4.084891
 33
0.0
  0
TEXT
  8
DIM
 10
6.864269
 20
4.022391
 30
0.0
 40
0.125
  1
1.115
 41
0.75
  0
LINE
  8
DIM
 10
6.315507
 20
3.511232
 30
0.0
 11
6.315507
 21
4.177891
 31
0.0
  0
LINE
  8
DIM
 10
6.135507
 20
4.084891
 30
0.0
 11
5.955507
 21
4.084891
 31
0.0
  0
LINE
  8
DIM
 10
6.620507
 20
4.084891
 30
0.0
 11
6.795906
 21
4.084891
 31
0.0
  0
SOLID
  8
DIM
 10
6.135507
 20
4.054891
 30
0.0
 11
6.135507
 21
4.114891
 31
0.0
 12
6.315507
 22
4.084891
 32
0.0
 13
6.315507
 23
4.084891
 33
0.0
  0
TEXT
  8
DIM
 10
5.531984
 20
4.022391
 30
0.0
 40
0.125
  1
0.125
 41
0.75
  0
LINE
  8
DIM
 10
7.375507
 20
4.084891
 30
0.0
 11
7.240581
 21
4.084891
 31
0.0
  0
LINE
  8
DIM
 10
6.440507
 20
4.023164
 30
0.0
 11
6.440507
 21
4.690214
 31
0.0
  0
LINE
  8
DIM
 10
5.015507
 20
3.511232
 30
0.0
 11
5.015507
 21
4.690214
 31
0.0
  0
LINE
  8
DIM
 10
6.260507
 20
4.597214
 30
0.0
 11
5.968034
 21
4.597214
 31
0.0
  0
LINE
  8
DIM
 10
5.195507
 20
4.597214
 30
0.0
 11
5.474691
 21
4.597214
 31
0.0
  0
SOLID
  8
DIM
 10
6.260507
 20
4.567214
 30
0.0
 11
6.260507
 21
4.627214
 31
0.0
 12
6.440507
 22
4.597214
 32
0.0
 13
6.440507
 23
4.597214
 33
0.0
  0
SOLID
  8
DIM
 10
5.195507
 20
4.567214
 30
0.0
 11
5.195507
 21
4.627214
 31
0.0
 12
5.015507
 22
4.597214
 32
0.0
 13
5.015507
 23
4.597214
 33
0.0
  0
TEXT
  8
DIM
 10
5.552603
 20
4.534714
 30
0.0
 40
0.125
  1
1.425
 41
0.75
  0
TEXT
  8
DIM
 10
6.977603
 20
4.534714
 30
0.0
 40
0.125
  1
1.425
 41
0.75
  0
SOLID
  8
DIM
 10
7.685507
 20
4.567214
 30
0.0
 11
7.685507
 21
4.627214
 31
0.0
 12
7.865507
 22
4.597214
 32
0.0
 13
7.865507
 23
4.597214
 33
0.0
  0
SOLID
  8
DIM
 10
6.620507
 20
4.567214
 30
0.0
 11
6.620507
 21
4.627214
 31
0.0
 12
6.440507
 22
4.597214
 32
0.0
 13
6.440507
 23
4.597214
 33
0.0
  0
LINE
  8
DIM
 10
7.685507
 20
4.597214
 30
0.0
 11
7.406324
 21
4.597214
 31
0.0
  0
LINE
  8
DIM
 10
6.620507
 20
4.597214
 30
0.0
 11
6.906335
 21
4.597214
 31
0.0
  0
LINE
  8
DIM
 10
7.865507
 20
3.511232
 30
0.0
 11
7.865507
 21
4.690214
 31
0.0
  0
LINE
  8
DIM
 10
5.342473
 20
6.051444
 30
0.0
 11
5.513207
 21
6.051444
 31
0.0
  0
LINE
  8
DIM
 10
5.438933
 20
5.481444
 30
0.0
 11
5.438933
 21
5.301444
 31
0.0
  0
LINE
  8
DIM
 10
5.438933
 20
6.231444
 30
0.0
 11
5.438933
 21
6.411444
 31
0.0
  0
LINE
  8
DIM
 10
5.618933
 20
5.301444
 30
0.0
 11
5.438933
 21
5.301444
 31
0.0
  0
SOLID
  8
DIM
 10
5.468933
 20
5.481444
 30
0.0
 11
5.408933
 21
5.481444
 31
0.0
 12
5.438933
 22
5.661444
 32
0.0
 13
5.438933
 23
5.661444
 33
0.0
  0
SOLID
  8
DIM
 10
5.468933
 20
6.231444
 30
0.0
 11
5.408933
 21
6.231444
 31
0.0
 12
5.438933
 22
6.051444
 32
0.0
 13
5.438933
 23
6.051444
 33
0.0
  0
TEXT
  8
DIM
 10
5.713087
 20
5.238944
 30
0.0
 40
0.125
  1
0.390
 41
0.75
  0
LINE
  8
DIM
 10
6.114281
 20
6.071444
 30
0.0
 11
6.366901
 21
6.071444
 31
0.0
  0
LINE
  8
DIM
 10
6.292628
 20
5.481444
 30
0.0
 11
6.292628
 21
5.301444
 31
0.0
  0
LINE
  8
DIM
 10
6.292628
 20
6.251444
 30
0.0
 11
6.292628
 21
6.431444
 31
0.0
  0
LINE
  8
DIM
 10
6.472628
 20
5.301444
 30
0.0
 11
6.292628
 21
5.301444
 31
0.0
  0
SOLID
  8
DIM
 10
6.322628
 20
5.481444
 30
0.0
 11
6.262628
 21
5.481444
 31
0.0
 12
6.292628
 22
5.661444
 32
0.0
 13
6.292628
 23
5.661444
 33
0.0
  0
SOLID
  8
DIM
 10
6.322628
 20
6.251444
 30
0.0
 11
6.262628
 21
6.251444
 31
0.0
 12
6.292628
 22
6.071444
 32
0.0
 13
6.292628
 23
6.071444
 33
0.0
  0
TEXT
  8
DIM
 10
6.558505
 20
5.238944
 30
0.0
 40
0.125
  1
0.410
 41
0.75
  0
LINE
  8
DIM
 10
4.628007
 20
3.841232
 30
0.0
 11
4.628007
 21
4.913291
 31
0.0
  0
LINE
  8
DIM
 10
8.253007
 20
3.841232
 30
0.0
 11
8.253007
 21
4.913291
 31
0.0
  0
LINE
  8
DIM
 10
4.808007
 20
4.820291
 30
0.0
 11
6.186896
 21
4.820291
 31
0.0
  0
LINE
  8
DIM
 10
8.073007
 20
4.820291
 30
0.0
 11
6.680829
 21
4.820291
 31
0.0
  0
SOLID
  8
DIM
 10
4.808007
 20
4.790291
 30
0.0
 11
4.808007
 21
4.850291
 31
0.0
 12
4.628007
 22
4.820291
 32
0.0
 13
4.628007
 23
4.820291
 33
0.0
  0
SOLID
  8
DIM
 10
8.073007
 20
4.790291
 30
0.0
 11
8.073007
 21
4.850291
 31
0.0
 12
8.253007
 22
4.820291
 32
0.0
 13
8.253007
 23
4.820291
 33
0.0
  0
TEXT
  8
DIM
 10
6.244269
 20
4.788978
 30
0.0
 40
0.125
  1
3.625
 41
0.75
  0
TEXT
  8
DIM
 10
5.707424
 20
1.578463
 30
0.0
 40
0.125
  1

  0
LINE
  8
DIM
 10
7.618007
 20
3.448732
 30
0.0
 11
7.819007
 21
3.448732
 31
0.0
  0
LINE
  8
DIM
 10
8.5801
 20
2.703732
 30
0.0
 11
8.852193
 21
2.703732
 31
0.0
  0
LINE
  8
DIM
 10
8.759193
 20
3.268732
 30
0.0
 11
8.759193
 21
3.174925
 31
0.0
  0
LINE
  8
DIM
 10
8.759193
 20
2.883732
 30
0.0
 11
8.759193
 21
2.978941
 31
0.0
  0
SOLID
  8
DIM
 10
8.789193
 20
3.268732
 30
0.0
 11
8.729193
 21
3.268732
 31
0.0
 12
8.759193
 22
3.448732
 32
0.0
 13
8.759193
 23
3.448732
 33
0.0
  0
SOLID
  8
DIM
 10
8.789193
 20
2.883732
 30
0.0
 11
8.729193
 21
2.883732
 31
0.0
 12
8.759193
 22
2.703732
 32
0.0
 13
8.759193
 23
2.703732
 33
0.0
  0
TEXT
  8
DIM
 10
8.582781
 20
3.006515
 30
0.0
 40
0.125
  1
0.745
 41
0.75
  0
TEXT
  8
DIM
 10
8.582781
 20
2.275948
 30
0.0
 40
0.125
  1
0.745
 41
0.75
  0
SOLID
  8
DIM
 10
8.789193
 20
2.523732
 30
0.0
 11
8.729193
 21
2.523732
 31
0.0
 12
8.759193
 22
2.703732
 32
0.0
 13
8.759193
 23
2.703732
 33
0.0
  0
SOLID
  8
DIM
 10
8.789193
 20
2.138732
 30
0.0
 11
8.729193
 21
2.138732
 31
0.0
 12
8.759193
 22
1.958732
 32
0.0
 13
8.759193
 23
1.958732
 33
0.0
  0
LINE
  8
DIM
 10
8.759193
 20
2.523732
 30
0.0
 11
8.759193
 21
2.428523
 31
0.0
  0
LINE
  8
DIM
 10
8.759193
 20
2.138732
 30
0.0
 11
8.759193
 21
2.232539
 31
0.0
  0
LINE
  8
DIM
 10
7.618007
 20
1.958732
 30
0.0
 11
7.819007
 21
1.958732
 31
0.0
  0
LINE
  8
DIM
 10
7.912007
 20
1.958732
 30
0.0
 11
8.852193
 21
1.958732
 31
0.0
  0
LINE
  8
DIM
 10
7.912007
 20
3.448732
 30
0.0
 11
8.852193
 21
3.448732
 31
0.0
  0
LINE
  8
DIM
 10
8.265507
 20
3.828732
 30
0.0
 11
9.37129
 21
3.828732
 31
0.0
  0
LINE
  8
DIM
 10
8.265507
 20
1.578732
 30
0.0
 11
9.37129
 21
1.578732
 31
0.0
  0
LINE
  8
DIM
 10
9.27829
 20
3.648732
 30
0.0
 11
9.27829
 21
2.824184
 31
0.0
  0
LINE
  8
DIM
 10
9.27829
 20
1.758732
 30
0.0
 11
9.27829
 21
2.56956
 31
0.0
  0
SOLID
  8
DIM
 10
9.30829
 20
3.648732
 30
0.0
 11
9.24829
 21
3.648732
 31
0.0
 12
9.27829
 22
3.828732
 32
0.0
 13
9.27829
 23
3.828732
 33
0.0
  0
SOLID
  8
DIM
 10
9.30829
 20
1.758732
 30
0.0
 11
9.24829
 21
1.758732
 31
0.0
 12
9.27829
 22
1.578732
 32
0.0
 13
9.27829
 23
1.578732
 33
0.0
  0
TEXT
  8
DIM
 10
9.092469
 20
2.641232
 30
0.0
 40
0.125
  1
2.250
 41
0.75
  0
LINE
  8
OBJECT
 10
6.355507
 20
3.408732
 30
0.0
 11
6.355507
 21
1.998732
 31
0.0
  0
LINE
  8
OBJECT
 10
7.515507
 20
3.408732
 30
0.0
 11
6.355507
 21
3.408732
 31
0.0
  0
LINE
  8
OBJECT
 10
7.515507
 20
3.408732
 30
0.0
 11
7.515507
 21
1.998732
 31
0.0
  0
LINE
  8
OBJECT
 10
7.515507
 20
1.998732
 30
0.0
 11
6.355507
 21
1.998732
 31
0.0
  0
SOLID
  8
DIM
 10
7.28336
 20
2.091619
 30
0.0
 11
7.337186
 21
2.118129
 31
0.0
 12
7.230743
 22
2.266352
 32
0.0
 13
7.230743
 23
2.266352
 33
0.0
  0
LINE
  8
DIM
 10
7.310273
 20
2.104874
 30
0.0
 11
7.706582
 21
1.300211
 31
0.0
  0
LINE
  8
DIM
 10
7.706582
 20
1.300211
 30
0.0
 11
7.886582
 21
1.300211
 31
0.0
  0
TEXT
  8
DIM
 10
7.991053
 20
1.249741
 30
0.0
 40
0.125
  1
AREA FOR
 41
0.75
  0
TEXT
  8
DIM
 10
7.991053
 20
1.041407
 30
0.0
 40
0.125
  1
CUSTOM
 41
0.75
  0
LINE
  8
DIM
 10
8.315507
 20
6.361444
 30
0.0
 11
8.852193
 21
6.361444
 31
0.0
  0
LINE
  8
DIM
 10
8.759193
 20
6.181444
 30
0.0
 11
8.759193
 21
6.121071
 31
0.0
  0
LINE
  8
DIM
 10
8.759193
 20
5.841444
 30
0.0
 11
8.759193
 21
5.891527
 31
0.0
  0
SOLID
  8
DIM
 10
8.789193
 20
6.181444
 30
0.0
 11
8.729193
 21
6.181444
 31
0.0
 12
8.759193
 22
6.361444
 32
0.0
 13
8.759193
 23
6.361444
 33
0.0
  0
SOLID
  8
DIM
 10
8.789193
 20
5.841444
 30
0.0
 11
8.729193
 21
5.841444
 31
0.0
 12
8.759193
 22
5.661444
 32
0.0
 13
8.759193
 23
5.661444
 33
0.0
  0
TEXT
  8
DIM
 10
8.583243
 20
5.945129
 30
0.0
 40
0.125
  1
0.700
 41
0.75
  0
LINE
  8
DIM
 10
8.164126
 20
5.661444
 30
0.0
 11
9.37129
 21
5.661444
 31
0.0
  0
LINE
  8
DIM
 10
8.153883
 20
7.161444
 30
0.0
 11
9.37129
 21
7.161444
 31
0.0
  0
LINE
  8
DIM
 10
9.27829
 20
5.841444
 30
0.0
 11
9.27829
 21
6.303334
 31
0.0
  0
LINE
  8
DIM
 10
9.27829
 20
6.981444
 30
0.0
 11
9.27829
 21
6.566473
 31
0.0
  0
SOLID
  8
DIM
 10
9.30829
 20
5.841444
 30
0.0
 11
9.24829
 21
5.841444
 31
0.0
 12
9.27829
 22
5.661444
 32
0.0
 13
9.27829
 23
5.661444
 33
0.0
  0
SOLID
  8
DIM
 10
9.30829
 20
6.981444
 30
0.0
 11
9.24829
 21
6.981444
 31
0.0
 12
9.27829
 22
7.161444
 32
0.0
 13
9.27829
 23
7.161444
 33
0.0
  0
TEXT
  8
DIM
 10
9.112845
 20
6.366017
 30
0.0
 40
0.125
  1
1.500
 41
0.75
  0
TEXT
  8
DIM
 10
7.967495
 20
8.826204
 30
0.0
 40
0.125
  1
CUSTOM
 41
0.75
  0
TEXT
  8
DIM
 10
7.967495
 20
9.034537
 30
0.0
 40
0.125
  1
AREA FOR
 41
0.75
  0
LINE
  8
DIM
 10
7.706582
 20
9.085007
 30
0.0
 11
7.886582
 21
9.085007
 31
0.0
  0
LINE
  8
DIM
 10
7.310273
 20
9.889671
 30
0.0
 11
7.706582
 21
9.085007
 31
0.0
  0
SOLID
  8
DIM
 10
7.28336
 20
9.876416
 30
0.0
 11
7.337186
 21
9.902926
 31
0.0
 12
7.230743
 22
10.051149
 32
0.0
 13
7.230743
 23
10.051149
 33
0.0
  0
TEXT
  8
DIM
 10
9.082199
 20
10.426029
 30
0.0
 40
0.125
  1
2.250
 41
0.75
  0
SOLID
  8
DIM
 10
9.30829
 20
9.543529
 30
0.0
 11
9.24829
 21
9.543529
 31
0.0
 12
9.27829
 22
9.363529
 32
0.0
 13
9.27829
 23
9.363529
 33
0.0
  0
SOLID
  8
DIM
 10
9.30829
 20
11.433529
 30
0.0
 11
9.24829
 21
11.433529
 31
0.0
 12
9.27829
 22
11.613529
 32
0.0
 13
9.27829
 23
11.613529
 33
0.0
  0
LINE
  8
DIM
 10
9.27829
 20
9.543529
 30
0.0
 11
9.27829
 21
10.353411
 31
0.0
  0
LINE
  8
DIM
 10
9.27829
 20
11.433529
 30
0.0
 11
9.27829
 21
10.623646
 31
0.0
  0
LINE
  8
DIM
 10
8.265507
 20
9.363529
 30
0.0
 11
9.37129
 21
9.363529
 31
0.0
  0
LINE
  8
DIM
 10
8.265507
 20
11.613529
 30
0.0
 11
9.37129
 21
11.613529
 31
0.0
  0
LINE
  8
DIM
 10
7.912007
 20
11.238529
 30
0.0
 11
8.852193
 21
11.238529
 31
0.0
  0
LINE
  8
DIM
 10
7.912007
 20
9.738529
 30
0.0
 11
8.852193
 21
9.738529
 31
0.0
  0
LINE
  8
DIM
 10
7.618007
 20
9.738529
 30
0.0
 11
7.819007
 21
9.738529
 31
0.0
  0
LINE
  8
DIM
 10
8.759193
 20
9.918529
 30
0.0
 11
8.759193
 21
10.012336
 31
0.0
  0
LINE
  8
DIM
 10
8.759193
 20
10.308529
 30
0.0
 11
8.759193
 21
10.213319
 31
0.0
  0
SOLID
  8
DIM
 10
8.789193
 20
9.918529
 30
0.0
 11
8.729193
 21
9.918529
 31
0.0
 12
8.759193
 22
9.738529
 32
0.0
 13
8.759193
 23
9.738529
 33
0.0
  0
SOLID
  8
DIM
 10
8.789193
 20
10.308529
 30
0.0
 11
8.729193
 21
10.308529
 31
0.0
 12
8.759193
 22
10.488529
 32
0.0
 13
8.759193
 23
10.488529
 33
0.0
  0
TEXT
  8
DIM
 10
8.572512
 20
10.060745
 30
0.0
 40
0.125
  1
0.750
 41
0.75
  0
TEXT
  8
DIM
 10
8.572512
 20
10.791312
 30
0.0
 40
0.125
  1
0.750
 41
0.75
  0
SOLID
  8
DIM
 10
8.789193
 20
10.668529
 30
0.0
 11
8.729193
 21
10.668529
 31
0.0
 12
8.759193
 22
10.488529
 32
0.0
 13
8.759193
 23
10.488529
 33
0.0
  0
SOLID
  8
DIM
 10
8.789193
 20
11.058529
 30
0.0
 11
8.729193
 21
11.058529
 31
0.0
 12
8.759193
 22
11.238529
 32
0.0
 13
8.759193
 23
11.238529
 33
0.0
  0
LINE
  8
DIM
 10
8.759193
 20
10.668529
 30
0.0
 11
8.759193
 21
10.763738
 31
0.0
  0
LINE
  8
DIM
 10
8.759193
 20
11.058529
 30
0.0
 11
8.759193
 21
10.964722
 31
0.0
  0
LINE
  8
DIM
 10
8.5801
 20
10.488529
 30
0.0
 11
8.852193
 21
10.488529
 31
0.0
  0
LINE
  8
DIM
 10
7.618007
 20
11.238529
 30
0.0
 11
7.819007
 21
11.238529
 31
0.0
  0
TEXT
  8
DIM
 10
3.987683
 20
10.193674
 30
0.0
 40
0.125
  1
0.060
 41
0.75
  0
TEXT
  8
DIM
 10
3.905579
 20
10.004046
 30
0.0
 40
0.125
  1
 REF.
 41
0.75
  0
SOLID
  8
DIM
 10
5.010507
 20
10.226174
 30
0.0
 11
5.010507
 21
10.286174
 31
0.0
 12
5.190507
 22
10.256174
 32
0.0
 13
5.190507
 23
10.256174
 33
0.0
  0
SOLID
  8
DIM
 10
5.430585
 20
10.226174
 30
0.0
 11
5.430585
 21
10.286174
 31
0.0
 12
5.250585
 22
10.256174
 32
0.0
 13
5.250585
 23
10.256174
 33
0.0
  0
LINE
  8
DIM
 10
5.010507
 20
10.256174
 30
0.0
 11
4.397145
 21
10.256174
 31
0.0
  0
LINE
  8
DIM
 10
5.430585
 20
10.256174
 30
0.0
 11
5.610585
 21
10.256174
 31
0.0
  0
LINE
  8
DIM
 10
5.250585
 20
9.76441
 30
0.0
 11
5.250585
 21
10.349174
 31
0.0
  0
LINE
  8
DIM
 10
5.190507
 20
9.76441
 30
0.0
 11
5.190507
 21
10.349174
 31
0.0
  0
TEXT
  8
DIM
 10
6.234
 20
12.629967
 30
0.0
 40
0.125
  1
3.625
 41
0.75
  0
SOLID
  8
DIM
 10
8.073007
 20
12.662467
 30
0.0
 11
8.073007
 21
12.722467
 31
0.0
 12
8.253007
 22
12.692467
 32
0.0
 13
8.253007
 23
12.692467
 33
0.0
  0
SOLID
  8
DIM
 10
4.808007
 20
12.662467
 30
0.0
 11
4.808007
 21
12.722467
 31
0.0
 12
4.628007
 22
12.692467
 32
0.0
 13
4.628007
 23
12.692467
 33
0.0
  0
LINE
  8
DIM
 10
8.073007
 20
12.692467
 30
0.0
 11
6.691099
 21
12.692467
 31
0.0
  0
LINE
  8
DIM
 10
4.808007
 20
12.692467
 30
0.0
 11
6.168169
 21
12.692467
 31
0.0
  0
LINE
  8
DIM
 10
8.253007
 20
11.626029
 30
0.0
 11
8.253007
 21
12.785467
 31
0.0
  0
LINE
  8
DIM
 10
4.628007
 20
11.626029
 30
0.0
 11
4.628007
 21
12.785467
 31
0.0
  0
LINE
  8
DIM
 10
7.865507
 20
11.296029
 30
0.0
 11
7.865507
 21
12.537582
 31
0.0
  0
LINE
  8
DIM
 10
6.620507
 20
12.444582
 30
0.0
 11
6.909356
 21
12.444582
 31
0.0
  0
LINE
  8
DIM
 10
7.685507
 20
12.444582
 30
0.0
 11
7.382765
 21
12.444582
 31
0.0
  0
SOLID
  8
DIM
 10
6.620507
 20
12.414582
 30
0.0
 11
6.620507
 21
12.474582
 31
0.0
 12
6.440507
 22
12.444582
 32
0.0
 13
6.440507
 23
12.444582
 33
0.0
  0
SOLID
  8
DIM
 10
7.685507
 20
12.414582
 30
0.0
 11
7.685507
 21
12.474582
 31
0.0
 12
7.865507
 22
12.444582
 32
0.0
 13
7.865507
 23
12.444582
 33
0.0
  0
TEXT
  8
DIM
 10
6.967334
 20
12.382082
 30
0.0
 40
0.125
  1
1.425
 41
0.75
  0
TEXT
  8
DIM
 10
5.542334
 20
12.382082
 30
0.0
 40
0.125
  1
1.425
 41
0.75
  0
SOLID
  8
DIM
 10
5.195507
 20
12.414582
 30
0.0
 11
5.195507
 21
12.474582
 31
0.0
 12
5.015507
 22
12.444582
 32
0.0
 13
5.015507
 23
12.444582
 33
0.0
  0
SOLID
  8
DIM
 10
6.260507
 20
12.414582
 30
0.0
 11
6.260507
 21
12.474582
 31
0.0
 12
6.440507
 22
12.444582
 32
0.0
 13
6.440507
 23
12.444582
 33
0.0
  0
LINE
  8
DIM
 10
5.195507
 20
12.444582
 30
0.0
 11
5.462609
 21
12.444582
 31
0.0
  0
LINE
  8
DIM
 10
6.260507
 20
12.444582
 30
0.0
 11
5.957765
 21
12.444582
 31
0.0
  0
LINE
  8
DIM
 10
5.015507
 20
11.296029
 30
0.0
 11
5.015507
 21
12.537582
 31
0.0
  0
LINE
  8
DIM
 10
6.440507
 20
11.836504
 30
0.0
 11
6.440507
 21
12.537582
 31
0.0
  0
LINE
  8
DIM
 10
7.375507
 20
11.911306
 30
0.0
 11
7.240581
 21
11.911306
 31
0.0
  0
TEXT
  8
DIM
 10
5.521715
 20
11.848806
 30
0.0
 40
0.125
  1
0.125
 41
0.75
  0
SOLID
  8
DIM
 10
6.135507
 20
11.881306
 30
0.0
 11
6.135507
 21
11.941306
 31
0.0
 12
6.315507
 22
11.911306
 32
0.0
 13
6.315507
 23
11.911306
 33
0.0
  0
LINE
  8
DIM
 10
6.620507
 20
11.911306
 30
0.0
 11
6.755433
 21
11.911306
 31
0.0
  0
LINE
  8
DIM
 10
6.135507
 20
11.911306
 30
0.0
 11
5.955507
 21
11.911306
 31
0.0
  0
LINE
  8
DIM
 10
6.315507
 20
11.296029
 30
0.0
 11
6.315507
 21
12.004306
 31
0.0
  0
TEXT
  8
DIM
 10
6.854
 20
11.848806
 30
0.0
 40
0.125
  1
1.115
 41
0.75
  0
SOLID
  8
DIM
 10
7.375507
 20
11.881306
 30
0.0
 11
7.375507
 21
11.941306
 31
0.0
 12
7.555507
 22
11.911306
 32
0.0
 13
7.555507
 23
11.911306
 33
0.0
  0
SOLID
  8
DIM
 10
6.620507
 20
11.881306
 30
0.0
 11
6.620507
 21
11.941306
 31
0.0
 12
6.440507
 22
11.911306
 32
0.0
 13
6.440507
 23
11.911306
 33
0.0
  0
LINE
  8
DIM
 10
7.555507
 20
11.296029
 30
0.0
 11
7.555507
 21
12.004306
 31
0.0
  0
TEXT
  8
DIM
 10
6.007221
 20
8.803089
 30
0.0
 40
0.125
  1
0.500
 41
0.75
  0
SOLID
  8
DIM
 10
6.620507
 20
8.835589
 30
0.0
 11
6.620507
 21
8.895589
 31
0.0
 12
6.440507
 22
8.865589
 32
0.0
 13
6.440507
 23
8.865589
 33
0.0
  0
SOLID
  8
DIM
 10
5.760507
 20
8.835589
 30
0.0
 11
5.760507
 21
8.895589
 31
0.0
 12
5.940507
 22
8.865589
 32
0.0
 13
5.940507
 23
8.865589
 33
0.0
  0
LINE
  8
DIM
 10
6.620507
 20
8.865589
 30
0.0
 11
6.800507
 21
8.865589
 31
0.0
  0
LINE
  8
DIM
 10
5.760507
 20
8.865589
 30
0.0
 11
5.580507
 21
8.865589
 31
0.0
  0
LINE
  8
DIM
 10
5.940507
 20
9.681029
 30
0.0
 11
5.940507
 21
8.772589
 31
0.0
  0
LINE
  8
DIM
 10
7.690507
 20
11.550019
 30
0.0
 11
7.690507
 21
12.290096
 31
0.0
  0
LINE
  8
DIM
 10
6.620507
 20
12.197096
 30
0.0
 11
6.831668
 21
12.197096
 31
0.0
  0
LINE
  8
DIM
 10
7.510507
 20
12.197096
 30
0.0
 11
7.284245
 21
12.197096
 31
0.0
  0
SOLID
  8
DIM
 10
6.620507
 20
12.167096
 30
0.0
 11
6.620507
 21
12.227096
 31
0.0
 12
6.440507
 22
12.197096
 32
0.0
 13
6.440507
 23
12.197096
 33
0.0
  0
SOLID
  8
DIM
 10
7.510507
 20
12.167096
 30
0.0
 11
7.510507
 21
12.227096
 31
0.0
 12
7.690507
 22
12.197096
 32
0.0
 13
7.690507
 23
12.197096
 33
0.0
  0
TEXT
  8
DIM
 10
6.89025
 20
12.134596
 30
0.0
 40
0.125
  1
1.250
 41
0.75
  0
TEXT
  8
DIM
 10
6.515813
 20
8.558668
 30
0.0
 40
0.125
  1
0.500
 41
0.75
  0
SOLID
  8
DIM
 10
6.260507
 20
8.591168
 30
0.0
 11
6.260507
 21
8.651168
 31
0.0
 12
6.440507
 22
8.621168
 32
0.0
 13
6.440507
 23
8.621168
 33
0.0
  0
SOLID
  8
DIM
 10
7.120507
 20
8.591168
 30
0.0
 11
7.120507
 21
8.651168
 31
0.0
 12
6.940507
 22
8.621168
 32
0.0
 13
6.940507
 23
8.621168
 33
0.0
  0
LINE
  8
DIM
 10
6.260507
 20
8.621168
 30
0.0
 11
6.080507
 21
8.621168
 31
0.0
  0
LINE
  8
DIM
 10
7.120507
 20
8.621168
 30
0.0
 11
7.300507
 21
8.621168
 31
0.0
  0
LINE
  8
DIM
 10
6.940507
 20
9.681029
 30
0.0
 11
6.940507
 21
8.528168
 31
0.0
  0
LINE
  8
DIM
 10
6.440507
 20
9.002307
 30
0.0
 11
6.440507
 21
8.528168
 31
0.0
  0
TEXT
  8
DIM
 10
5.64025
 20
12.134596
 30
0.0
 40
0.125
  1
1.250
 41
0.75
  0
SOLID
  8
DIM
 10
5.370507
 20
12.167096
 30
0.0
 11
5.370507
 21
12.227096
 31
0.0
 12
5.190507
 22
12.197096
 32
0.0
 13
5.190507
 23
12.197096
 33
0.0
  0
SOLID
  8
DIM
 10
6.260507
 20
12.167096
 30
0.0
 11
6.260507
 21
12.227096
 31
0.0
 12
6.440507
 22
12.197096
 32
0.0
 13
6.440507
 23
12.197096
 33
0.0
  0
LINE
  8
DIM
 10
5.370507
 20
12.197096
 30
0.0
 11
5.574419
 21
12.197096
 31
0.0
  0
LINE
  8
DIM
 10
6.260507
 20
12.197096
 30
0.0
 11
6.034245
 21
12.197096
 31
0.0
  0
LINE
  8
DIM
 10
5.190507
 20
11.550019
 30
0.0
 11
5.190507
 21
12.290096
 31
0.0
  0
TEXT
  8
DIM
 10
6.580071
 20
13.052386
 30
0.0
 40
0.125
  1
0.410
 41
0.75
  0
SOLID
  8
DIM
 10
6.322628
 20
14.064886
 30
0.0
 11
6.262628
 21
14.064886
 31
0.0
 12
6.292628
 22
13.884886
 32
0.0
 13
6.292628
 23
13.884886
 33
0.0
  0
SOLID
  8
DIM
 10
6.322628
 20
13.294886
 30
0.0
 11
6.262628
 21
13.294886
 31
0.0
 12
6.292628
 22
13.474886
 32
0.0
 13
6.292628
 23
13.474886
 33
0.0
  0
LINE
  8
DIM
 10
6.472628
 20
13.114886
 30
0.0
 11
6.292628
 21
13.114886
 31
0.0
  0
LINE
  8
DIM
 10
6.292628
 20
14.064886
 30
0.0
 11
6.292628
 21
14.244886
 31
0.0
  0
LINE
  8
DIM
 10
6.292628
 20
13.294886
 30
0.0
 11
6.292628
 21
13.114886
 31
0.0
  0
LINE
  8
DIM
 10
6.10933
 20
13.884886
 30
0.0
 11
6.36195
 21
13.884886
 31
0.0
  0
TEXT
  8
DIM
 10
5.734654
 20
13.052386
 30
0.0
 40
0.125
  1
0.390
 41
0.75
  0
SOLID
  8
DIM
 10
5.468933
 20
14.044886
 30
0.0
 11
5.408933
 21
14.044886
 31
0.0
 12
5.438933
 22
13.864886
 32
0.0
 13
5.438933
 23
13.864886
 33
0.0
  0
SOLID
  8
DIM
 10
5.468933
 20
13.294886
 30
0.0
 11
5.408933
 21
13.294886
 31
0.0
 12
5.438933
 22
13.474886
 32
0.0
 13
5.438933
 23
13.474886
 33
0.0
  0
LINE
  8
DIM
 10
5.618933
 20
13.114886
 30
0.0
 11
5.438933
 21
13.114886
 31
0.0
  0
LINE
  8
DIM
 10
5.438933
 20
14.044886
 30
0.0
 11
5.438933
 21
14.224886
 31
0.0
  0
LINE
  8
DIM
 10
5.438933
 20
13.294886
 30
0.0
 11
5.438933
 21
13.114886
 31
0.0
  0
LINE
  8
DIM
 10
5.337522
 20
13.864886
 30
0.0
 11
5.508255
 21
13.864886
 31
0.0
  0
TEXT
  8
DIM
 10
8.604809
 20
13.759778
 30
0.0
 40
0.125
  1
0.700
 41
0.75
  0
SOLID
  8
DIM
 10
8.789193
 20
13.654886
 30
0.0
 11
8.729193
 21
13.654886
 31
0.0
 12
8.759193
 22
13.474886
 32
0.0
 13
8.759193
 23
13.474886
 33
0.0
  0
SOLID
  8
DIM
 10
8.789193
 20
13.994886
 30
0.0
 11
8.729193
 21
13.994886
 31
0.0
 12
8.759193
 22
14.174886
 32
0.0
 13
8.759193
 23
14.174886
 33
0.0
  0
LINE
  8
DIM
 10
8.759193
 20
13.654886
 30
0.0
 11
8.759193
 21
13.704969
 31
0.0
  0
LINE
  8
DIM
 10
8.759193
 20
13.994886
 30
0.0
 11
8.759193
 21
13.934513
 31
0.0
  0
LINE
  8
DIM
 10
8.315507
 20
14.174886
 30
0.0
 11
8.852193
 21
14.174886
 31
0.0
  0
LINE
  8
DIM
 10
8.164126
 20
13.474886
 30
0.0
 11
9.37129
 21
13.474886
 31
0.0
  0
LINE
  8
DIM
 10
8.197628
 20
14.474886
 30
0.0
 11
9.37129
 21
14.474886
 31
0.0
  0
LINE
  8
DIM
 10
9.27829
 20
13.654886
 30
0.0
 11
9.27829
 21
13.866301
 31
0.0
  0
LINE
  8
DIM
 10
9.27829
 20
14.294886
 30
0.0
 11
9.27829
 21
14.130341
 31
0.0
  0
SOLID
  8
DIM
 10
9.30829
 20
13.654886
 30
0.0
 11
9.24829
 21
13.654886
 31
0.0
 12
9.27829
 22
13.474886
 32
0.0
 13
9.27829
 23
13.474886
 33
0.0
  0
SOLID
  8
DIM
 10
9.30829
 20
14.294886
 30
0.0
 11
9.24829
 21
14.294886
 31
0.0
 12
9.27829
 22
14.474886
 32
0.0
 13
9.27829
 23
14.474886
 33
0.0
  0
TEXT
  8
DIM
 10
9.144828
 20
13.92946
 30
0.0
 40
0.125
  1
1.000
 41
0.75
  0
LINE
  8
DIM
 10
4.765507
 20
14.55446
 30
0.0
 11
4.765507
 21
14.876511
 31
0.0
  0
LINE
  8
DIM
 10
8.115507
 20
14.55446
 30
0.0
 11
8.115507
 21
14.876511
 31
0.0
  0
LINE
  8
DIM
 10
4.945507
 20
14.783511
 30
0.0
 11
6.195874
 21
14.783511
 31
0.0
  0
LINE
  8
DIM
 10
7.935507
 20
14.783511
 30
0.0
 11
6.69106
 21
14.783511
 31
0.0
  0
SOLID
  8
DIM
 10
4.945507
 20
14.753511
 30
0.0
 11
4.945507
 21
14.813511
 31
0.0
 12
4.765507
 22
14.783511
 32
0.0
 13
4.765507
 23
14.783511
 33
0.0
  0
SOLID
  8
DIM
 10
7.935507
 20
14.753511
 30
0.0
 11
7.935507
 21
14.813511
 31
0.0
 12
8.115507
 22
14.783511
 32
0.0
 13
8.115507
 23
14.783511
 33
0.0
  0
TEXT
  8
DIM
 10
6.265379
 20
14.721011
 30
0.0
 40
0.125
  1
3.350
 41
0.75
  0
LINE
  8
DIM
 10
1.701785
 20
9.488529
 30
0.0
 11
1.184091
 21
9.488529
 31
0.0
  0
LINE
  8
DIM
 10
1.701785
 20
11.488529
 30
0.0
 11
1.184091
 21
11.488529
 31
0.0
  0
LINE
  8
DIM
 10
1.277091
 20
9.668529
 30
0.0
 11
1.277091
 21
10.246029
 31
0.0
  0
LINE
  8
DIM
 10
1.277091
 20
11.308529
 30
0.0
 11
1.277091
 21
10.731029
 31
0.0
  0
SOLID
  8
DIM
 10
1.307091
 20
9.668529
 30
0.0
 11
1.247091
 21
9.668529
 31
0.0
 12
1.277091
 22
9.488529
 32
0.0
 13
1.277091
 23
9.488529
 33
0.0
  0
SOLID
  8
DIM
 10
1.307091
 20
11.308529
 30
0.0
 11
1.247091
 21
11.308529
 31
0.0
 12
1.277091
 22
11.488529
 32
0.0
 13
1.277091
 23
11.488529
 33
0.0
  0
TEXT
  8
DIM
 10
1.104251
 20
10.426029
 30
0.0
 40
0.125
  1
2.000
 41
0.75
  0
LINE
  8
DIM
 10
2.961358
 20
2.976181
 30
0.0
 11
3.141358
 21
2.976181
 31
0.0
  0
LINE
  8
DIM
 10
2.501358
 20
2.976181
 30
0.0
 11
2.321358
 21
2.976181
 31
0.0
  0
SOLID
  8
DIM
 10
2.961358
 20
2.946181
 30
0.0
 11
2.961358
 21
3.006181
 31
0.0
 12
2.781358
 22
2.976181
 32
0.0
 13
2.781358
 23
2.976181
 33
0.0
  0
SOLID
  8
DIM
 10
2.501358
 20
2.946181
 30
0.0
 11
2.501358
 21
3.006181
 31
0.0
 12
2.681358
 22
2.976181
 32
0.0
 13
2.681358
 23
2.976181
 33
0.0
  0
TEXT
  8
DIM
 10
3.237023
 20
3.082511
 30
0.0
 40
0.125
  1
 TYP.
 41
0.75
  0
TEXT
  8
DIM
 10
3.800634
 20
1.909184
 30
0.0
 40
0.125
  1

  0
TEXT
  8
DIM
 10
3.204391
 20
2.913681
 30
0.0
 40
0.125
  1
0.100
 41
0.75
  0
TEXT
  8
DIM
 10
3.204391
 20
10.697997
 30
0.0
 40
0.125
  1
0.100
 41
0.75
  0
SOLID
  8
DIM
 10
2.501358
 20
10.730497
 30
0.0
 11
2.501358
 21
10.790497
 31
0.0
 12
2.681358
 22
10.760497
 32
0.0
 13
2.681358
 23
10.760497
 33
0.0
  0
SOLID
  8
DIM
 10
2.961358
 20
10.730497
 30
0.0
 11
2.961358
 21
10.790497
 31
0.0
 12
2.781358
 22
10.760497
 32
0.0
 13
2.781358
 23
10.760497
 33
0.0
  0
LINE
  8
DIM
 10
2.501358
 20
10.760497
 30
0.0
 11
2.321358
 21
10.760497
 31
0.0
  0
LINE
  8
DIM
 10
2.961358
 20
10.760497
 30
0.0
 11
3.141358
 21
10.760497
 31
0.0
  0
TEXT
  8
DIM
 10
3.185238
 20
10.877226
 30
0.0
 40
0.125
  1
 TYP.
 41
0.75
  0
TEXT
  8
TEXT
 10
1.627
 20
15.136
 30
0.0
 40
0.187
  1
PLASTIBOX  (STYLE A)
 41
0.75
 72
     1
 11
2.936
 21
15.136
 31
0.0
  0
TEXT
  8
TEXT
 10
7.509188
 20
15.136
 30
0.0
 40
0.187
  1
PS-11301
 41
0.75
 72
     1
 11
7.965
 21
15.136
 31
0.0
  0
TEXT
  8
TEXT
 10
1.627
 20
7.448
 30
0.0
 40
0.187
  1
PLASTIBOX  (STYLE A)
 41
0.75
 72
     1
 11
2.936
 21
7.448
 31
0.0
  0
TEXT
  8
TEXT
 10
7.485813
 20
7.448
 30
0.0
 40
0.187
  1
PT-11308
 41
0.75
 72
     1
 11
7.965
 21
7.448
 31
0.0
  0
LINE
  8
OBJECT
 10
6.355507
 20
11.198529
 30
0.0
 11
6.355507
 21
9.778529
 31
0.0
  0
LINE
  8
OBJECT
 10
7.515507
 20
11.198529
 30
0.0
 11
6.355507
 21
11.198529
 31
0.0
  0
LINE
  8
OBJECT
 10
7.515507
 20
11.198529
 30
0.0
 11
7.515507
 21
9.778529
 31
0.0
  0
LINE
  8
OBJECT
 10
7.515507
 20
9.778529
 30
0.0
 11
6.355507
 21
9.778529
 31
0.0
  0
TEXT
  8
TEXT
 10
0.352466
 20
14.657879
 30
0.0
 40
0.125
  1
MATERIAL: HIGH-IMPACT ABS
 41
0.75
  0
TEXT
  8
TEXT
 10
0.352466
 20
14.449546
 30
0.0
 40
0.125
  1
COLOR: BLACK OR GRAY
 41
0.75
  0
TEXT
  8
TEXT
 10
0.352466
 20
14.241213
 30
0.0
 40
0.125
  1
FINISH: TEXTURED BODY WITH
 41
0.75
  0
TEXT
  8
TEXT
 10
0.469027
 20
14.032879
 30
0.0
 40
0.125
  1
SMOOTH TOP INSERT
 41
0.75
  0
TEXT
  8
TEXT
 10
0.352466
 20
13.702701
 30
0.0
 40
0.125
  1
FOUR (4) #4 x 0.250" LG. SCREWS
 41
0.75
  0
TEXT
  8
TEXT
 10
0.469954
 20
13.494367
 30
0.0
 40
0.125
  1
SUPPLIED FOR ASSEMBLING TOP.
 41
0.75
  0
TEXT
  8
TEXT
 10
0.352466
 20
13.190665
 30
0.0
 40
0.125
  1
FOUR (4) NON-SKID PUSH-ON FEET SUPPLIED.
 41
0.75
  0
TEXT
  8
TEXT
 10
0.352466
 20
5.464364
 30
0.0
 40
0.125
  1
FOUR (4) NON-SKID PUSH-ON FEET SUPPLIED.
 41
0.75
  0
TEXT
  8
TEXT
 10
0.469954
 20
5.788881
 30
0.0
 40
0.125
  1
SUPPLIED FOR ASSEMBLING TOP.
 41
0.75
  0
TEXT
  8
TEXT
 10
0.352466
 20
5.997214
 30
0.0
 40
0.125
  1
FOUR (4) #4 x 0.375" LG. SCREWS
 41
0.75
  0
TEXT
  8
TEXT
 10
0.477789
 20
6.301704
 30
0.0
 40
0.125
  1
WITH TEXTURED TOP
 41
0.75
  0
TEXT
  8
TEXT
 10
0.352466
 20
6.510037
 30
0.0
 40
0.125
  1
FINISH: TEXTURED BODY
 41
0.75
  0
TEXT
  8
TEXT
 10
0.352466
 20
6.71837
 30
0.0
 40
0.125
  1
COLOR: BLACK OR GRAY
 41
0.75
  0
TEXT
  8
TEXT
 10
0.352466
 20
6.926704
 30
0.0
 40
0.125
  1
MATERIAL: HIGH-IMPACT ABS
 41
0.75
  0
ARC
  8
DIM
 10
2.098432
 20
9.363529
 30
0.0
 40
1.17273
 50
13.802871
 51
22.605741
  0
ARC
  8
DIM
 10
2.098432
 20
9.363529
 30
0.0
 40
1.17273
 50
342.394259
 51
351.197129
  0
LINE
  8
DIM
 10
3.359345
 20
9.473844
 30
0.0
 11
2.752336
 21
9.420738
 31
0.0
  0
LINE
  8
DIM
 10
3.364162
 20
9.363529
 30
0.0
 11
2.389802
 21
9.363529
 31
0.0
  0
SOLID
  8
DIM
 10
3.207699
 20
9.63842
 30
0.0
 11
3.266893
 21
9.648221
 31
0.0
 12
3.266699
 22
9.465739
 32
0.0
 13
3.266699
 23
9.465739
 33
0.0
  0
SOLID
  8
DIM
 10
3.227436
 20
9.186362
 30
0.0
 11
3.287259
 21
9.181757
 31
0.0
 12
3.271162
 22
9.363529
 32
0.0
 13
3.271162
 23
9.363529
 33
0.0
  0
TEXT
  8
DIM
 10
2.452263
 20
8.947659
 30
0.0
 40
0.125
  1
5%%D TYP.
 41
0.75
  0
LINE
  8
DIM
 10
3.216232
 20
9.008818
 30
0.0
 11
3.030505
 21
9.008818
 31
0.0
  0
LINE
  8
DIM
 10
3.216232
 20
1.224021
 30
0.0
 11
3.030505
 21
1.224021
 31
0.0
  0
TEXT
  8
DIM
 10
2.425684
 20
1.162862
 30
0.0
 40
0.125
  1
5%%D TYP.
 41
0.75
  0
SOLID
  8
DIM
 10
3.227436
 20
1.401565
 30
0.0
 11
3.287259
 21
1.39696
 31
0.0
 12
3.271162
 22
1.578732
 32
0.0
 13
3.271162
 23
1.578732
 33
0.0
  0
SOLID
  8
DIM
 10
3.207699
 20
1.853624
 30
0.0
 11
3.266893
 21
1.863425
 31
0.0
 12
3.266699
 22
1.680942
 32
0.0
 13
3.266699
 23
1.680942
 33
0.0
  0
LINE
  8
DIM
 10
3.364162
 20
1.578732
 30
0.0
 11
2.364855
 21
1.578732
 31
0.0
  0
LINE
  8
DIM
 10
3.359345
 20
1.689047
 30
0.0
 11
2.752336
 21
1.635941
 31
0.0
  0
ARC
  8
DIM
 10
2.098432
 20
1.578732
 30
0.0
 40
1.17273
 50
342.394259
 51
351.197129
  0
ARC
  8
DIM
 10
2.098432
 20
1.578732
 30
0.0
 40
1.17273
 50
13.802871
 51
22.605741
  0
ARC
  8
OBJECT
 10
4.744393
 20
14.374886
 30
0.0
 40
0.1
 50
90.0
 51
175.0
  0
ARC
  8
OBJECT
 10
8.136621
 20
14.374886
 30
0.0
 40
0.1
 50
5.0
 51
90.0
  0
ARC
  8
OBJECT
 10
8.100132
 20
13.574886
 30
0.0
 40
0.1
 50
270.0
 51
355.0
  0
ARC
  8
OBJECT
 10
4.780882
 20
13.574886
 30
0.0
 40
0.1
 50
185.0
 51
270.0
  0
ARC
  8
OBJECT
 10
4.788138
 20
7.061444
 30
0.0
 40
0.1
 50
90.0
 51
175.0
  0
ARC
  8
OBJECT
 10
8.092877
 20
7.061444
 30
0.0
 40
0.1
 50
5.0
 51
90.0
  0
ARC
  8
OBJECT
 10
8.100132
 20
5.761444
 30
0.0
 40
0.1
 50
270.0
 51
355.0
  0
ARC
  8
OBJECT
 10
4.780882
 20
5.761444
 30
0.0
 40
0.1
 50
185.0
 51
270.0
  0
ARC
  8
OBJECT
 10
1.381358
 20
3.668601
 30
0.0
 40
0.1
 50
95.0
 51
180.0
  0
ARC
  8
OBJECT
 10
1.381358
 20
1.738862
 30
0.0
 40
0.1
 50
180.0
 51
265.0
  0
ARC
  8
OBJECT
 10
2.681358
 20
3.675856
 30
0.0
 40
0.1
 50
0.0
 51
85.0
  0
ARC
  8
OBJECT
 10
2.681358
 20
1.731607
 30
0.0
 40
0.1
 50
275.0
 51
0.0
  0
ARC
  8
OBJECT
 10
1.881358
 20
11.497143
 30
0.0
 40
0.1
 50
95.0
 51
180.0
  0
ARC
  8
OBJECT
 10
1.881358
 20
9.479915
 30
0.0
 40
0.1
 50
180.0
 51
265.0
  0
ARC
  8
OBJECT
 10
2.681358
 20
11.460653
 30
0.0
 40
0.1
 50
0.0
 51
85.0
  0
ARC
  8
OBJECT
 10
2.681358
 20
9.516404
 30
0.0
 40
0.1
 50
275.0
 51
0.0
  0
LINE
  8
OBJECT
 10
1.812358
 20
11.488529
 30
0.0
 11
1.812358
 21
9.488529
 31
0.0
  0
LINE
  8
OBJECT
 10
1.781358
 20
11.488529
 30
0.0
 11
1.812358
 21
11.488529
 31
0.0
  0
LINE
  8
OBJECT
 10
1.781358
 20
9.488529
 30
0.0
 11
1.812358
 21
9.488529
 31
0.0
  0
LINE
  8
OBJECT
 10
4.765507
 20
14.443886
 30
0.0
 11
6.56702
 21
14.443886
 31
0.0
  0
LINE
  8
OBJECT
 10
4.765507
 20
14.474886
 30
0.0
 11
4.765507
 21
14.443886
 31
0.0
  0
LINE
  8
HIDDEN
 10
8.115507
 20
14.474886
 30
0.0
 11
8.115507
 21
14.443886
 31
0.0
  0
LINE
  8
HIDDEN
 10
6.56702
 20
14.443886
 30
0.0
 11
8.115507
 21
14.443886
 31
0.0
  0
TEXT
  8
DIM
 10
7.967495
 20
8.61795
 30
0.0
 40
0.125
  1
MOLDING.
 41
0.75
  0
TEXT
  8
DIM
 10
7.991053
 20
0.833153
 30
0.0
 40
0.125
  1
MOLDING.
 41
0.75
  0
TEXT
  8
TEXT
 10
0.327148
 20
12.840851
 30
0.0
 40
0.125
  1
*-USABLE AREA ON COVER ALSO
 41
0.75
  0
TEXT
  8
TEXT
 10
0.474451
 20
12.632518
 30
0.0
 40
0.125
  1
AVAILABLE FOR CUSTOM MOLDING.
 41
0.75
  0
TEXT
  8
TEXT
 10
0.977955
 20
10.521294
 30
0.0
 40
0.125
  1
*
 41
0.75
  0
TEXT
  8
TEXT
 10
6.122253
 20
14.837139
 30
0.0
 40
0.125
  1
*
 41
0.75
  0
LINE
  8
DIM
 10
8.433007
 20
12.444582
 30
0.0
 11
8.613007
 21
12.444582
 31
0.0
  0
SOLID
  8
DIM
 10
8.433007
 20
12.414582
 30
0.0
 11
8.433007
 21
12.474582
 31
0.0
 12
8.253007
 22
12.444582
 32
0.0
 13
8.253007
 23
12.444582
 33
0.0
  0
TEXT
  8
DIM
 10
8.695686
 20
12.382082
 30
0.0
 40
0.125
  1
0.387
 41
0.75
  0
LINE
  8
DIM
 10
8.759193
 20
11.793529
 30
0.0
 11
8.759193
 21
11.973529
 31
0.0
  0
SOLID
  8
DIM
 10
8.789193
 20
11.793529
 30
0.0
 11
8.729193
 21
11.793529
 31
0.0
 12
8.759193
 22
11.613529
 32
0.0
 13
8.759193
 23
11.613529
 33
0.0
  0
TEXT
  8
DIM
 10
8.562175
 20
11.358032
 30
0.0
 40
0.125
  1
0.375
 41
0.75
  0
LINE
  8
DIM
 10
8.433007
 20
4.597214
 30
0.0
 11
8.613007
 21
4.597214
 31
0.0
  0
SOLID
  8
DIM
 10
8.433007
 20
4.567214
 30
0.0
 11
8.433007
 21
4.627214
 31
0.0
 12
8.253007
 22
4.597214
 32
0.0
 13
8.253007
 23
4.597214
 33
0.0
  0
TEXT
  8
DIM
 10
8.707418
 20
4.534714
 30
0.0
 40
0.125
  1
0.387
 41
0.75
  0
LINE
  8
DIM
 10
8.759193
 20
4.008732
 30
0.0
 11
8.759193
 21
4.188732
 31
0.0
  0
SOLID
  8
DIM
 10
8.789193
 20
4.008732
 30
0.0
 11
8.729193
 21
4.008732
 31
0.0
 12
8.759193
 22
3.828732
 32
0.0
 13
8.759193
 23
3.828732
 33
0.0
  0
TEXT
  8
DIM
 10
8.573303
 20
3.584588
 30
0.0
 40
0.125
  1
0.380
 41
0.75
  0
LINE
  8
DIM
 10
1.812358
 20
9.426029
 30
0.0
 11
1.812358
 21
8.736995
 31
0.0
  0
LINE
  8
DIM
 10
1.781358
 20
9.417415
 30
0.0
 11
1.781358
 21
8.736995
 31
0.0
  0
LINE
  8
DIM
 10
1.992358
 20
8.829995
 30
0.0
 11
2.172358
 21
8.829995
 31
0.0
  0
LINE
  8
DIM
 10
1.601358
 20
8.829995
 30
0.0
 11
1.421358
 21
8.829995
 31
0.0
  0
SOLID
  8
DIM
 10
1.992358
 20
8.859995
 30
0.0
 11
1.992358
 21
8.799995
 31
0.0
 12
1.812358
 22
8.829995
 32
0.0
 13
1.812358
 23
8.829995
 33
0.0
  0
SOLID
  8
DIM
 10
1.601358
 20
8.859995
 30
0.0
 11
1.601358
 21
8.799995
 31
0.0
 12
1.781358
 22
8.829995
 32
0.0
 13
1.781358
 23
8.829995
 33
0.0
  0
TEXT
  8
DIM
 10
1.018858
 20
8.767495
 30
0.0
 40
0.125
  1
0.015
 41
0.75
 72
     1
 11
1.175108
 21
8.829995
 31
0.0
 73
     2
  0
TEXT
  8
DIM
 10
0.800694
 20
8.583062
 30
0.0
 40
0.125
  1
RECESS
 41
0.75
  0
TEXT
  8
DIM
 10
3.835507
 20
2.921298
 30
0.0
 40
0.125
  1
 REF.
 41
0.75
  0
TEXT
  8
DIM
 10
3.933317
 20
3.104436
 30
0.0
 40
0.125
  1
0.060
 41
0.75
  0
LINE
  8
DIM
 10
5.010507
 20
3.166936
 30
0.0
 11
4.397145
 21
3.166936
 31
0.0
  0
SOLID
  8
DIM
 10
5.010507
 20
3.196936
 30
0.0
 11
5.010507
 21
3.136936
 31
0.0
 12
5.190507
 22
3.166936
 32
0.0
 13
5.190507
 23
3.166936
 33
0.0
  0
LINE
  8
DIM
 10
5.190507
 20
3.42785
 30
0.0
 11
5.190507
 21
3.073936
 31
0.0
  0
LINE
  8
DIM
 10
5.250585
 20
3.42785
 30
0.0
 11
5.250585
 21
3.073936
 31
0.0
  0
SOLID
  8
DIM
 10
5.430585
 20
3.196936
 30
0.0
 11
5.430585
 21
3.136936
 31
0.0
 12
5.250585
 22
3.166936
 32
0.0
 13
5.250585
 23
3.166936
 33
0.0
  0
LINE
  8
DIM
 10
5.430585
 20
3.166936
 30
0.0
 11
5.610585
 21
3.166936
 31
0.0
  0
POLYLINE
  8
OBJECT
 66
     1
 10
0.0
 20
0.0
 30
0.0
  0
VERTEX
  8
OBJECT
 10
6.251265
 20
1.992267
 30
0.0
 42
0.356269
  0
VERTEX
  8
OBJECT
 10
5.995692
 20
2.483465
 30
0.0
 42
0.27274
  0
SEQEND
  8
OBJECT
  0
POLYLINE
  8
OBJECT
 66
     1
 10
0.0
 20
0.0
 30
0.0
  0
VERTEX
  8
OBJECT
 10
5.995692
 20
2.483465
 30
0.0
 42
0.27045
  0
VERTEX
  8
OBJECT
 10
5.324571
 20
2.579968
 30
0.0
 42
-0.351735
  0
VERTEX
  8
OBJECT
 10
4.628007
 20
2.788583
 30
0.0
 42
1.051081
  0
SEQEND
  8
OBJECT
  0
LINE
  8
OBJECT
 10
4.779389
 20
2.638053
 30
0.0
 11
4.779389
 21
1.730113
 31
0.0
  0
LINE
  8
OBJECT
 10
4.728007
 20
2.677395
 30
0.0
 11
4.728007
 21
1.678732
 31
0.0
  0
LINE
  8
OBJECT
 10
4.693007
 20
2.710029
 30
0.0
 11
4.693007
 21
1.683732
 31
0.0
  0
LINE
  8
TITLE
 10
0.062
 20
7.833
 30
0.0
 11
10.058
 21
7.833
 31
0.0
  0
LINE
  8
TITLE
 10
10.058
 20
7.75
 30
0.0
 11
10.058
 21
0.062
 31
0.0
  0
LINE
  8
TITLE
 10
0.062
 20
7.833
 30
0.0
 11
0.062
 21
15.438
 31
0.0
  0
TEXT
  8
TEXT
 10
0.352466
 20
12.197629
 30
0.0
 40
0.125
  1
%%UNOTE:%%U ALL DIMENSIONS HAVE %%P0.015 TOLERANCE
 41
0.75
  0
TEXT
  8
TEXT
 10
0.821846
 20
11.995254
 30
0.0
 40
0.125
  1
UNLESS OTHERWISE SPECIFIED.
 41
0.75
  0
TEXT
  8
TEXT
 10
0.821846
 20
4.914474
 30
0.0
 40
0.125
  1
UNLESS OTHERWISE SPECIFIED.
 41
0.75
  0
TEXT
  8
TEXT
 10
0.352466
 20
5.116849
 30
0.0
 40
0.125
  1
%%UNOTE:%%U ALL DIMENSIONS HAVE %%P0.015 TOLERANCE
 41
0.75
  0
POLYLINE
  8
DIM
 66
     1
 10
0.0
 20
0.0
 30
0.0
 41
0.0675
  0
VERTEX
  8
DIM
 10
5.863733
 20
9.629315
 30
0.0
  0
VERTEX
  8
DIM
 10
5.773157
 20
9.473764
 30
0.0
 41
0.0
  0
VERTEX
  8
DIM
 10
5.373419
 20
8.787272
 30
0.0
 41
0.0
  0
VERTEX
  8
DIM
 10
5.193419
 20
8.787272
 30
0.0
 41
0.0
  0
SEQEND
  8
DIM
  0
TEXT
  8
DIM
 10
2.603419
 20
8.724772
 30
0.0
 40
0.125
  1
0.260 DIA. BOSS WITH 0.093 DIA.
 41
0.75
 72
     2
 11
5.103419
 21
8.787272
 31
0.0
 73
     2
  0
TEXT
  8
DIM
 10
2.697169
 20
8.516439
 30
0.0
 40
0.125
  1
HOLE x 0.310 DEEP (4) PLACES
 41
0.75
 72
     2
 11
5.103419
 21
8.578939
 31
0.0
 73
     2
  0
TEXT
  8
DIM
 10
1.728419
 20
8.308106
 30
0.0
 40
0.125
  1
MOUNTING BOSSES USE EITHER M2.5 METRIC
 41
0.75
 72
     2
 11
5.103419
 21
8.370606
 31
0.0
 73
     2
  0
TEXT
  8
DIM
 10
2.447169
 20
8.099772
 30
0.0
 40
0.125
  1
OR #4 STD. SHEET METAL SCREWS
 41
0.75
 72
     2
 11
5.103419
 21
8.162272
 31
0.0
 73
     2
  0
TEXT
  8
DIM
 10
2.790919
 20
7.891439
 30
0.0
 40
0.125
  1
x 0.250" LG.  (NOT SUPPLIED)
 41
0.75
 72
     2
 11
5.103419
 21
7.953939
 31
0.0
 73
     2
  0
TEXT
  8
DIM
 10
2.790919
 20
0.111642
 30
0.0
 40
0.125
  1
x 0.250" LG.  (NOT SUPPLIED)
 41
0.75
 72
     2
 11
5.103419
 21
0.174142
 31
0.0
 73
     2
  0
TEXT
  8
DIM
 10
2.447169
 20
0.319975
 30
0.0
 40
0.125
  1
OR #4 STD. SHEET METAL SCREWS
 41
0.75
 72
     2
 11
5.103419
 21
0.382475
 31
0.0
 73
     2
  0
TEXT
  8
DIM
 10
1.728419
 20
0.528309
 30
0.0
 40
0.125
  1
MOUNTING BOSSES USE EITHER M2.5 METRIC
 41
0.75
 72
     2
 11
5.103419
 21
0.590809
 31
0.0
 73
     2
  0
TEXT
  8
DIM
 10
2.697169
 20
0.736642
 30
0.0
 40
0.125
  1
HOLE x 0.310 DEEP (8) PLACES
 41
0.75
 72
     2
 11
5.103419
 21
0.799142
 31
0.0
 73
     2
  0
TEXT
  8
DIM
 10
2.603419
 20
0.944975
 30
0.0
 40
0.125
  1
0.260 DIA. BOSS WITH 0.093 DIA.
 41
0.75
 72
     2
 11
5.103419
 21
1.007475
 31
0.0
 73
     2
  0
POLYLINE
  8
DIM
 66
     1
 10
0.0
 20
0.0
 30
0.0
 41
0.0675
  0
VERTEX
  8
DIM
 10
5.863733
 20
1.849518
 30
0.0
  0
VERTEX
  8
DIM
 10
5.773157
 20
1.693967
 30
0.0
 41
0.0
  0
VERTEX
  8
DIM
 10
5.373419
 20
1.007475
 30
0.0
 41
0.0
  0
VERTEX
  8
DIM
 10
5.193419
 20
1.007475
 30
0.0
 41
0.0
  0
SEQEND
  8
DIM
  0
DIMENSION
  8
DIM
  2
*D2
 10
3.711954
 20
9.516404
 30
0.0
 11
3.711954
 21
10.488529
 31
0.0
 13
2.681358
 23
11.460653
 33
0.0
 14
2.681358
 24
9.516404
 34
0.0
 50
90.0
  0
DIMENSION
  8
DIM
  2
*D0
 10
8.100132
 20
12.947729
 30
0.0
 11
6.440507
 21
12.947729
 31
0.0
 13
4.780882
 23
13.574886
 33
0.0
 14
8.100132
 24
13.574886
 34
0.0
  0
DIMENSION
  8
DIM
  2
*D1
 10
4.271461
 20
13.574886
 30
0.0
 11
4.271461
 21
13.974886
 31
0.0
 13
4.744393
 23
14.374886
 33
0.0
 14
4.780882
 24
13.574886
 34
0.0
 50
90.0
  3
23NSTDI
  0
DIMENSION
  8
DIM
  2
*D4
 10
8.100132
 20
5.112479
 30
0.0
 11
6.440507
 21
5.112479
 31
0.0
 13
4.780882
 23
5.761444
 33
0.0
 14
8.100132
 24
5.761444
 34
0.0
  3
23NSTD
  0
DIMENSION
  8
DIM
  2
*D3
 10
4.304628
 20
7.061444
 30
0.0
 11
4.304628
 21
6.411444
 31
0.0
 13
4.780882
 23
5.761444
 33
0.0
 14
4.788138
 24
7.061444
 34
0.0
 50
90.0
  3
23NSTD
  0
DIMENSION
  8
DIM
  2
*D5
 10
3.68673
 20
1.731607
 30
0.0
 11
3.68673
 21
2.703732
 31
0.0
 13
2.681358
 23
3.675856
 33
0.0
 14
2.681358
 24
1.731607
 34
0.0
 50
90.0
  3
23NSTD
  0
ENDSEC
  0
EOF
