  0
SECTION
  2
HEADER
  9
$ACADVER
  1
AC1009
  9
$INSBASE
 10
0.0
 20
0.0
 30
0.0
  9
$EXTMIN
 10
0.0
 20
0.0
 30
0.0
  9
$EXTMAX
 10
13.48996
 20
20.6615
 30
0.0
  9
$LIMMIN
 10
0.0
 20
0.0
  9
$LIMMAX
 10
12.0
 20
9.0
  9
$ORTHOMODE
 70
     1
  9
$REGENMODE
 70
     1
  9
$FILLMODE
 70
     1
  9
$QTEXTMODE
 70
     0
  9
$MIRRTEXT
 70
     0
  9
$DRAGMODE
 70
     2
  9
$LTSCALE
 40
0.4
  9
$OSMODE
 70
     0
  9
$ATTMODE
 70
     1
  9
$TEXTSIZE
 40
0.167
  9
$TRACEWID
 40
0.05
  9
$TEXTSTYLE
  7
STANDARD
  9
$CLAYER
  8
OBJECT
  9
$CELTYPE
  6
BYLAYER
  9
$CECOLOR
 62
   256
  9
$DIMSCALE
 40
1.333
  9
$DIMASZ
 40
0.18
  9
$DIMEXO
 40
0.0625
  9
$DIMDLI
 40
0.38
  9
$DIMRND
 40
0.0
  9
$DIMDLE
 40
0.0
  9
$DIMEXE
 40
0.093
  9
$DIMTP
 40
0.0
  9
$DIMTM
 40
0.0
  9
$DIMTXT
 40
0.125
  9
$DIMCEN
 40
0.09
  9
$DIMTSZ
 40
0.0
  9
$DIMTOL
 70
     0
  9
$DIMLIM
 70
     0
  9
$DIMTIH
 70
     1
  9
$DIMTOH
 70
     1
  9
$DIMSE1
 70
     0
  9
$DIMSE2
 70
     0
  9
$DIMTAD
 70
     0
  9
$DIMZIN
 70
     0
  9
$DIMBLK
  1

  9
$DIMASO
 70
     1
  9
$DIMSHO
 70
     1
  9
$DIMPOST
  1

  9
$DIMAPOST
  1

  9
$DIMALT
 70
     0
  9
$DIMALTD
 70
     2
  9
$DIMALTF
 40
25.4
  9
$DIMLFAC
 40
1.0
  9
$DIMTOFL
 70
     0
  9
$DIMTVP
 40
0.0
  9
$DIMTIX
 70
     0
  9
$DIMSOXD
 70
     0
  9
$DIMSAH
 70
     0
  9
$DIMBLK1
  1

  9
$DIMBLK2
  1

  9
$DIMSTYLE
  2
*UNNAMED
  9
$DIMCLRD
 70
     0
  9
$DIMCLRE
 70
     0
  9
$DIMCLRT
 70
     0
  9
$DIMTFAC
 40
1.0
  9
$DIMGAP
 40
0.09
  9
$LUNITS
 70
     2
  9
$LUPREC
 70
     3
  9
$SKETCHINC
 40
0.1
  9
$FILLETRAD
 40
0.0
  9
$AUNITS
 70
     0
  9
$AUPREC
 70
     0
  9
$MENU
  1
acad
  9
$ELEVATION
 40
0.0
  9
$PELEVATION
 40
0.0
  9
$THICKNESS
 40
0.0
  9
$LIMCHECK
 70
     0
  9
$BLIPMODE
 70
     1
  9
$CHAMFERA
 40
0.0
  9
$CHAMFERB
 40
0.0
  9
$SKPOLY
 70
     0
  9
$TDCREATE
 40
2448155.601158796
  9
$TDUPDATE
 40
2451194.573465277
  9
$TDINDWG
 40
0.0587381944
  9
$TDUSRTIMER
 40
0.0587381944
  9
$USRTIMER
 70
     1
  9
$ANGBASE
 50
0.0
  9
$ANGDIR
 70
     0
  9
$PDMODE
 70
     0
  9
$PDSIZE
 40
0.0
  9
$PLINEWID
 40
0.0
  9
$COORDS
 70
     0
  9
$SPLFRAME
 70
     0
  9
$SPLINETYPE
 70
     6
  9
$SPLINESEGS
 70
     8
  9
$ATTDIA
 70
     0
  9
$ATTREQ
 70
     1
  9
$HANDLING
 70
     0
  9
$HANDSEED
  5
0
  9
$SURFTAB1
 70
     6
  9
$SURFTAB2
 70
     6
  9
$SURFTYPE
 70
     6
  9
$SURFU
 70
     6
  9
$SURFV
 70
     6
  9
$UCSNAME
  2

  9
$UCSORG
 10
0.0
 20
0.0
 30
0.0
  9
$UCSXDIR
 10
1.0
 20
0.0
 30
0.0
  9
$UCSYDIR
 10
0.0
 20
1.0
 30
0.0
  9
$PUCSNAME
  2

  9
$PUCSORG
 10
0.0
 20
0.0
 30
0.0
  9
$PUCSXDIR
 10
1.0
 20
0.0
 30
0.0
  9
$PUCSYDIR
 10
0.0
 20
1.0
 30
0.0
  9
$USERI1
 70
     0
  9
$USERI2
 70
     0
  9
$USERI3
 70
     0
  9
$USERI4
 70
     0
  9
$USERI5
 70
     0
  9
$USERR1
 40
0.0
  9
$USERR2
 40
0.0
  9
$USERR3
 40
0.0
  9
$USERR4
 40
0.0
  9
$USERR5
 40
0.0
  9
$WORLDVIEW
 70
     1
  9
$SHADEDGE
 70
     3
  9
$SHADEDIF
 70
    70
  9
$TILEMODE
 70
     1
  9
$MAXACTVP
 70
    16
  9
$PINSBASE
 10
0.0
 20
0.0
 30
0.0
  9
$PLIMCHECK
 70
     0
  9
$PEXTMIN
 10
1.000000E+20
 20
1.000000E+20
 30
1.000000E+20
  9
$PEXTMAX
 10
-1.000000E+20
 20
-1.000000E+20
 30
-1.000000E+20
  9
$PLIMMIN
 10
0.0
 20
0.0
  9
$PLIMMAX
 10
12.0
 20
9.0
  9
$UNITMODE
 70
     0
  9
$VISRETAIN
 70
     0
  9
$PLINEGEN
 70
     0
  9
$PSLTSCALE
 70
     0
  9
$TREEDEPTH
 70
  3020
  9
$DWGCODEPAGE
  3
undefined
  0
ENDSEC
  0
SECTION
  2
TABLES
  0
TABLE
  2
VPORT
 70
     2
  0
VPORT
  2
*ACTIVE
 70
     0
 10
0.0
 20
0.0
 11
1.0
 21
1.0
 12
14.073989
 22
10.33075
 13
0.0
 23
0.0
 14
1.0
 24
1.0
 15
0.5
 25
0.5
 16
0.0
 26
0.0
 36
1.0
 17
0.0
 27
0.0
 37
0.0
 40
20.6615
 41
1.36234
 42
50.0
 43
0.0
 44
0.0
 50
0.0
 51
0.0
 71
     0
 72
   100
 73
     1
 74
     0
 75
     0
 76
     0
 77
     0
 78
     0
  0
ENDTAB
  0
TABLE
  2
LTYPE
 70
     4
  0
LTYPE
  2
CONTINUOUS
 70
    64
  3
Solid line
 72
    65
 73
     0
 40
0.0
  0
LTYPE
  2
HIDDEN
 70
    64
  3
_ _ _ _ _ _ _ _ _ _ _ _ _ _ _ _ _ _ _ _ _ _ _
 72
    65
 73
     2
 40
0.375
 49
0.25
 49
-0.125
  0
LTYPE
  2
PHANTOM
 70
    64
  3
_____ _ _ _____ _ _ _____ _ _ _____ _ _ ____
 72
    65
 73
     6
 40
2.5
 49
1.25
 49
-0.25
 49
0.25
 49
-0.25
 49
0.25
 49
-0.25
  0
LTYPE
  2
CENTER
 70
    64
  3
____ _ ____ _ ____ _ ____ _ ____ _ ____ _ ____
 72
    65
 73
     4
 40
2.0
 49
1.25
 49
-0.25
 49
0.25
 49
-0.25
  0
ENDTAB
  0
TABLE
  2
LAYER
 70
     9
  0
LAYER
  2
0
 70
    64
 62
     7
  6
CONTINUOUS
  0
LAYER
  2
OBJECT
 70
    64
 62
     7
  6
CONTINUOUS
  0
LAYER
  2
DIM
 70
    64
 62
     7
  6
CONTINUOUS
  0
LAYER
  2
HIDDEN
 70
    64
 62
     7
  6
HIDDEN
  0
LAYER
  2
BEND
 70
    64
 62
     7
  6
PHANTOM
  0
LAYER
  2
TEXT
 70
    64
 62
     7
  6
CONTINUOUS
  0
LAYER
  2
TITLE
 70
    64
 62
     7
  6
CONTINUOUS
  0
LAYER
  2
CENTER
 70
    64
 62
     7
  6
CENTER
  0
LAYER
  2
DEFPOINTS
 70
    64
 62
     7
  6
CONTINUOUS
  0
ENDTAB
  0
TABLE
  2
STYLE
 70
     1
  0
STYLE
  2
STANDARD
 70
    64
 40
0.0
 41
0.75
 50
0.0
 71
     0
 42
0.167
  3
TXT.shx
  4

  0
ENDTAB
  0
TABLE
  2
VIEW
 70
     0
  0
ENDTAB
  0
TABLE
  2
UCS
 70
     0
  0
ENDTAB
  0
TABLE
  2
APPID
 70
     1
  0
APPID
  2
ACAD
 70
    64
  0
ENDTAB
  0
TABLE
  2
DIMSTYLE
 70
     0
  0
ENDTAB
  0
ENDSEC
  0
SECTION
  2
BLOCKS
  0
BLOCK
  8
0
  2
*D0
 70
    65
 10
0.0
 20
0.0
 30
0.0
  3
*D
  0
LINE
  8
0
  6
BYBLOCK
 62
     0
 10
6.222361
 20
17.517719
 30
0.0
 11
6.222361
 21
17.057856
 31
0.0
  0
LINE
  8
0
  6
BYBLOCK
 62
     0
 10
11.541611
 20
17.517719
 30
0.0
 11
11.541611
 21
17.057856
 31
0.0
  0
LINE
  8
0
  6
BYBLOCK
 62
     0
 10
6.462301
 20
17.181825
 30
0.0
 11
8.532906
 21
17.181825
 31
0.0
  0
LINE
  8
0
  6
BYBLOCK
 62
     0
 10
11.301671
 20
17.181825
 30
0.0
 11
9.231065
 21
17.181825
 31
0.0
  0
SOLID
  8
0
  6
BYBLOCK
 62
     0
 10
6.462301
 20
17.221815
 30
0.0
 11
6.462301
 21
17.141835
 31
0.0
 12
6.222361
 22
17.181825
 32
0.0
 13
6.222361
 23
17.181825
 33
0.0
  0
SOLID
  8
0
  6
BYBLOCK
 62
     0
 10
11.301671
 20
17.221815
 30
0.0
 11
11.301671
 21
17.141835
 31
0.0
 12
11.541611
 22
17.181825
 32
0.0
 13
11.541611
 23
17.181825
 33
0.0
  0
TEXT
  8
0
  6
BYBLOCK
 62
     0
 10
8.652876
 20
17.098512
 30
0.0
 40
0.166625
  1
5.319
 41
0.75
 72
     1
 11
8.881986
 21
17.181825
 31
0.0
 73
     2
  0
POINT
  8
DEFPOINTS
  6
BYBLOCK
 62
     0
 10
6.222361
 20
17.601031
 30
0.0
  0
POINT
  8
DEFPOINTS
  6
BYBLOCK
 62
     0
 10
11.541611
 20
17.601031
 30
0.0
  0
POINT
  8
DEFPOINTS
  6
BYBLOCK
 62
     0
 10
11.541611
 20
17.181825
 30
0.0
  0
ENDBLK
  8
0
  0
BLOCK
  8
0
  2
*D1
 70
    65
 10
0.0
 20
0.0
 30
0.0
  3
*D
  0
LINE
  8
0
  6
BYBLOCK
 62
     0
 10
6.146304
 20
18.901031
 30
0.0
 11
5.574933
 21
18.901031
 31
0.0
  0
LINE
  8
0
  6
BYBLOCK
 62
     0
 10
6.139048
 20
17.601031
 30
0.0
 11
5.574933
 21
17.601031
 31
0.0
  0
LINE
  8
0
  6
BYBLOCK
 62
     0
 10
5.698902
 20
18.661091
 30
0.0
 11
5.698902
 21
18.454314
 31
0.0
  0
LINE
  8
0
  6
BYBLOCK
 62
     0
 10
5.698902
 20
17.840971
 30
0.0
 11
5.698902
 21
18.047749
 31
0.0
  0
SOLID
  8
0
  6
BYBLOCK
 62
     0
 10
5.658912
 20
18.661091
 30
0.0
 11
5.738892
 21
18.661091
 31
0.0
 12
5.698902
 22
18.901031
 32
0.0
 13
5.698902
 23
18.901031
 33
0.0
  0
SOLID
  8
0
  6
BYBLOCK
 62
     0
 10
5.658912
 20
17.840971
 30
0.0
 11
5.738892
 21
17.840971
 31
0.0
 12
5.698902
 22
17.601031
 32
0.0
 13
5.698902
 23
17.601031
 33
0.0
  0
TEXT
  8
0
  6
BYBLOCK
 62
     0
 10
5.49062
 20
18.167719
 30
0.0
 40
0.166625
  1
1.300
 41
0.75
 72
     1
 11
5.698902
 21
18.251031
 31
0.0
 73
     2
  0
POINT
  8
DEFPOINTS
  6
BYBLOCK
 62
     0
 10
6.229616
 20
18.901031
 30
0.0
  0
POINT
  8
DEFPOINTS
  6
BYBLOCK
 62
     0
 10
6.222361
 20
17.601031
 30
0.0
  0
POINT
  8
DEFPOINTS
  6
BYBLOCK
 62
     0
 10
5.698902
 20
17.601031
 30
0.0
  0
ENDBLK
  8
0
  0
BLOCK
  8
0
  2
*D2
 70
    65
 10
0.0
 20
0.0
 30
0.0
  3
*D
  0
LINE
  8
0
  6
BYBLOCK
 62
     0
 10
3.54094
 20
15.163667
 30
0.0
 11
4.811408
 21
15.163667
 31
0.0
  0
LINE
  8
0
  6
BYBLOCK
 62
     0
 10
3.54094
 20
12.219418
 30
0.0
 11
4.811408
 21
12.219418
 31
0.0
  0
LINE
  8
0
  6
BYBLOCK
 62
     0
 10
4.687439
 20
14.923727
 30
0.0
 11
4.687439
 21
13.894825
 31
0.0
  0
LINE
  8
0
  6
BYBLOCK
 62
     0
 10
4.687439
 20
12.459358
 30
0.0
 11
4.687439
 21
13.48826
 31
0.0
  0
SOLID
  8
0
  6
BYBLOCK
 62
     0
 10
4.647449
 20
14.923727
 30
0.0
 11
4.727429
 21
14.923727
 31
0.0
 12
4.687439
 22
15.163667
 32
0.0
 13
4.687439
 23
15.163667
 33
0.0
  0
SOLID
  8
0
  6
BYBLOCK
 62
     0
 10
4.647449
 20
12.459358
 30
0.0
 11
4.727429
 21
12.459358
 31
0.0
 12
4.687439
 22
12.219418
 32
0.0
 13
4.687439
 23
12.219418
 33
0.0
  0
TEXT
  8
0
  6
BYBLOCK
 62
     0
 10
4.437502
 20
13.60823
 30
0.0
 40
0.166625
  1
2.944
 41
0.75
 72
     1
 11
4.687439
 21
13.691542
 31
0.0
 73
     2
  0
POINT
  8
DEFPOINTS
  6
BYBLOCK
 62
     0
 10
3.457627
 20
15.163667
 30
0.0
  0
POINT
  8
DEFPOINTS
  6
BYBLOCK
 62
     0
 10
3.457627
 20
12.219418
 30
0.0
  0
POINT
  8
DEFPOINTS
  6
BYBLOCK
 62
     0
 10
4.687439
 20
12.219418
 30
0.0
  0
ENDBLK
  8
0
  0
BLOCK
  8
0
  2
*D3
 70
    65
 10
0.0
 20
0.0
 30
0.0
  3
*D
  0
LINE
  8
0
  6
BYBLOCK
 62
     0
 10
1.72151
 20
3.807978
 30
0.0
 11
1.72151
 21
4.450303
 31
0.0
  0
LINE
  8
0
  6
BYBLOCK
 62
     0
 10
4.02151
 20
3.902722
 30
0.0
 11
4.02151
 21
4.450303
 31
0.0
  0
LINE
  8
0
  6
BYBLOCK
 62
     0
 10
1.96145
 20
4.326334
 30
0.0
 11
2.522431
 21
4.326334
 31
0.0
  0
LINE
  8
0
  6
BYBLOCK
 62
     0
 10
3.78157
 20
4.326334
 30
0.0
 11
3.22059
 21
4.326334
 31
0.0
  0
SOLID
  8
0
  6
BYBLOCK
 62
     0
 10
1.96145
 20
4.366324
 30
0.0
 11
1.96145
 21
4.286344
 31
0.0
 12
1.72151
 22
4.326334
 32
0.0
 13
1.72151
 23
4.326334
 33
0.0
  0
SOLID
  8
0
  6
BYBLOCK
 62
     0
 10
3.78157
 20
4.366324
 30
0.0
 11
3.78157
 21
4.286344
 31
0.0
 12
4.02151
 22
4.326334
 32
0.0
 13
4.02151
 23
4.326334
 33
0.0
  0
TEXT
  8
0
  6
BYBLOCK
 62
     0
 10
2.642401
 20
4.243021
 30
0.0
 40
0.166625
  1
2.300
 41
0.75
 72
     1
 11
2.87151
 21
4.326334
 31
0.0
 73
     2
  0
POINT
  8
DEFPOINTS
  6
BYBLOCK
 62
     0
 10
1.72151
 20
3.724666
 30
0.0
  0
POINT
  8
DEFPOINTS
  6
BYBLOCK
 62
     0
 10
4.02151
 20
3.819409
 30
0.0
  0
POINT
  8
DEFPOINTS
  6
BYBLOCK
 62
     0
 10
4.02151
 20
4.326334
 30
0.0
  0
ENDBLK
  8
0
  0
BLOCK
  8
0
  2
*D4
 70
    65
 10
0.0
 20
0.0
 30
0.0
  3
*D
  0
LINE
  8
0
  6
BYBLOCK
 62
     0
 10
4.104823
 20
3.819409
 30
0.0
 11
5.390121
 21
3.819409
 31
0.0
  0
LINE
  8
0
  6
BYBLOCK
 62
     0
 10
4.104823
 20
1.87516
 30
0.0
 11
5.390121
 21
1.87516
 31
0.0
  0
LINE
  8
0
  6
BYBLOCK
 62
     0
 10
5.266152
 20
3.579469
 30
0.0
 11
5.266152
 21
3.050567
 31
0.0
  0
LINE
  8
0
  6
BYBLOCK
 62
     0
 10
5.266152
 20
2.1151
 30
0.0
 11
5.266152
 21
2.644002
 31
0.0
  0
SOLID
  8
0
  6
BYBLOCK
 62
     0
 10
5.226162
 20
3.579469
 30
0.0
 11
5.306142
 21
3.579469
 31
0.0
 12
5.266152
 22
3.819409
 32
0.0
 13
5.266152
 23
3.819409
 33
0.0
  0
SOLID
  8
0
  6
BYBLOCK
 62
     0
 10
5.226162
 20
2.1151
 30
0.0
 11
5.306142
 21
2.1151
 31
0.0
 12
5.266152
 22
1.87516
 32
0.0
 13
5.266152
 23
1.87516
 33
0.0
  0
TEXT
  8
0
  6
BYBLOCK
 62
     0
 10
5.037043
 20
2.763972
 30
0.0
 40
0.166625
  1
1.944
 41
0.75
 72
     1
 11
5.266152
 21
2.847285
 31
0.0
 73
     2
  0
POINT
  8
DEFPOINTS
  6
BYBLOCK
 62
     0
 10
4.02151
 20
3.819409
 30
0.0
  0
POINT
  8
DEFPOINTS
  6
BYBLOCK
 62
     0
 10
4.02151
 20
1.87516
 30
0.0
  0
POINT
  8
DEFPOINTS
  6
BYBLOCK
 62
     0
 10
5.266152
 20
1.87516
 30
0.0
  0
ENDBLK
  8
0
  0
BLOCK
  8
0
  2
*D5
 70
    65
 10
0.0
 20
0.0
 30
0.0
  3
*D
  0
LINE
  8
0
  6
BYBLOCK
 62
     0
 10
6.785747
 20
6.64839
 30
0.0
 11
6.785747
 21
5.825355
 31
0.0
  0
LINE
  8
0
  6
BYBLOCK
 62
     0
 10
10.079997
 20
6.64839
 30
0.0
 11
10.079997
 21
5.825355
 31
0.0
  0
LINE
  8
0
  6
BYBLOCK
 62
     0
 10
7.025687
 20
5.949324
 30
0.0
 11
8.062964
 21
5.949324
 31
0.0
  0
LINE
  8
0
  6
BYBLOCK
 62
     0
 10
9.840057
 20
5.949324
 30
0.0
 11
8.802779
 21
5.949324
 31
0.0
  0
SOLID
  8
0
  6
BYBLOCK
 62
     0
 10
7.025687
 20
5.989314
 30
0.0
 11
7.025687
 21
5.909334
 31
0.0
 12
6.785747
 22
5.949324
 32
0.0
 13
6.785747
 23
5.949324
 33
0.0
  0
SOLID
  8
0
  6
BYBLOCK
 62
     0
 10
9.840057
 20
5.989314
 30
0.0
 11
9.840057
 21
5.909334
 31
0.0
 12
10.079997
 22
5.949324
 32
0.0
 13
10.079997
 23
5.949324
 33
0.0
  0
TEXT
  8
0
  6
BYBLOCK
 62
     0
 10
8.182934
 20
5.866011
 30
0.0
 40
0.166625
  1
3.294
 41
0.75
 72
     1
 11
8.432872
 21
5.949324
 31
0.0
 73
     2
  0
POINT
  8
DEFPOINTS
  6
BYBLOCK
 62
     0
 10
6.785747
 20
6.731702
 30
0.0
  0
POINT
  8
DEFPOINTS
  6
BYBLOCK
 62
     0
 10
10.079997
 20
6.731702
 30
0.0
  0
POINT
  8
DEFPOINTS
  6
BYBLOCK
 62
     0
 10
10.079997
 20
5.949324
 30
0.0
  0
ENDBLK
  8
0
  0
ENDSEC
  0
SECTION
  2
ENTITIES
  0
TEXT
  8
TEXT
 10
0.353412
 20
20.075086
 30
0.0
 40
0.166625
  1
NAME
 41
0.75
 72
     1
 11
0.582521
 21
20.075086
 31
0.0
  0
TEXT
  8
TEXT
 10
0.353412
 20
20.352794
 30
0.0
 40
0.166625
  1
PART
 41
0.75
 72
     1
 11
0.582521
 21
20.352794
 31
0.0
  0
TEXT
  8
TEXT
 10
7.202532
 20
20.075086
 30
0.0
 40
0.166625
  1
No.
 41
0.75
 72
     1
 11
7.327501
 21
20.075086
 31
0.0
  0
TEXT
  8
TEXT
 10
7.098392
 20
20.352794
 30
0.0
 40
0.166625
  1
PART
 41
0.75
 72
     1
 11
7.327501
 21
20.352794
 31
0.0
  0
LINE
  8
TITLE
 10
7.827376
 20
20.578854
 30
0.0
 11
7.827376
 21
20.02166
 31
0.0
  0
LINE
  8
TITLE
 10
6.827626
 20
20.578854
 30
0.0
 11
6.827626
 21
20.02166
 31
0.0
  0
LINE
  8
TITLE
 10
6.74498
 20
20.578854
 30
0.0
 11
6.74498
 21
20.02166
 31
0.0
  0
LINE
  8
TITLE
 10
1.082396
 20
20.02166
 30
0.0
 11
1.082396
 21
20.578854
 31
0.0
  0
LINE
  8
TITLE
 10
0.082646
 20
20.02166
 30
0.0
 11
13.407314
 21
20.02166
 31
0.0
  0
LINE
  8
TITLE
 10
13.407314
 20
0.082646
 30
0.0
 11
0.082646
 21
0.082646
 31
0.0
  0
LINE
  8
TITLE
 10
13.407314
 20
20.578854
 30
0.0
 11
13.407314
 21
10.41375
 31
0.0
  0
LINE
  8
TITLE
 10
0.082646
 20
20.578854
 30
0.0
 11
13.407314
 21
20.578854
 31
0.0
  0
LINE
  8
TITLE
 10
0.082646
 20
0.082646
 30
0.0
 11
0.082646
 21
10.33075
 31
0.0
  0
LINE
  8
TITLE
 10
0.0
 20
0.0
 30
0.0
 11
0.0
 21
20.6615
 31
0.0
  0
LINE
  8
TITLE
 10
13.48996
 20
0.0
 30
0.0
 11
0.0
 21
0.0
 31
0.0
  0
LINE
  8
TITLE
 10
13.48996
 20
20.6615
 30
0.0
 11
13.48996
 21
0.0
 31
0.0
  0
LINE
  8
TITLE
 10
0.0
 20
20.6615
 30
0.0
 11
13.48996
 21
20.6615
 31
0.0
  0
LINE
  8
TITLE
 10
0.082646
 20
10.33075
 30
0.0
 11
13.407314
 21
10.33075
 31
0.0
  0
LINE
  8
TITLE
 10
0.082646
 20
9.773556
 30
0.0
 11
13.407314
 21
9.773556
 31
0.0
  0
LINE
  8
TITLE
 10
1.082396
 20
9.773556
 30
0.0
 11
1.082396
 21
10.33075
 31
0.0
  0
LINE
  8
TITLE
 10
6.74498
 20
10.33075
 30
0.0
 11
6.74498
 21
9.773556
 31
0.0
  0
LINE
  8
TITLE
 10
6.827626
 20
10.33075
 30
0.0
 11
6.827626
 21
9.773556
 31
0.0
  0
LINE
  8
TITLE
 10
7.827376
 20
10.33075
 30
0.0
 11
7.827376
 21
9.773556
 31
0.0
  0
TEXT
  8
TEXT
 10
7.098392
 20
10.10469
 30
0.0
 40
0.166625
  1
PART
 41
0.75
 72
     1
 11
7.327501
 21
10.10469
 31
0.0
  0
TEXT
  8
TEXT
 10
7.202532
 20
9.826982
 30
0.0
 40
0.166625
  1
No.
 41
0.75
 72
     1
 11
7.327501
 21
9.826982
 31
0.0
  0
TEXT
  8
TEXT
 10
0.353412
 20
10.10469
 30
0.0
 40
0.166625
  1
PART
 41
0.75
 72
     1
 11
0.582521
 21
10.10469
 31
0.0
  0
TEXT
  8
TEXT
 10
0.353412
 20
9.826982
 30
0.0
 40
0.166625
  1
NAME
 41
0.75
 72
     1
 11
0.582521
 21
9.826982
 31
0.0
  0
TEXT
  8
DIM
 10
0.294865
 20
14.485987
 30
0.0
 40
0.166625
  1

  0
TEXT
  8
DIM
 10
4.888364
 20
14.120198
 30
0.0
 40
0.166625
  1

  0
TEXT
  8
TEXT
 10
2.163688
 20
20.175257
 30
0.0
 40
0.25
  1
PLASTIBOX  (STYLE A)
 41
0.75
 72
     1
 11
3.913688
 21
20.175257
 31
0.0
  0
TEXT
  8
TEXT
 10
2.163688
 20
9.927153
 30
0.0
 40
0.25
  1
PLASTIBOX  (STYLE A)
 41
0.75
 72
     1
 11
3.913688
 21
9.927153
 31
0.0
  0
TEXT
  8
TEXT
 10
9.961095
 20
9.927153
 30
0.0
 40
0.25
  1
PT-11372
 41
0.75
 72
     1
 11
10.617345
 21
9.927153
 31
0.0
  0
TEXT
  8
TEXT
 10
0.757068
 20
19.470886
 30
0.0
 40
0.167
  1
MATERIAL: HIGH-IMPACT ABS
 41
0.75
  0
TEXT
  8
TEXT
 10
0.757068
 20
19.192553
 30
0.0
 40
0.167
  1
COLOR: BLACK OR GRAY
 41
0.75
  0
TEXT
  8
TEXT
 10
0.7531
 20
18.911519
 30
0.0
 40
0.167
  1
FINISH: TEXTURED BODY WITH
 41
0.75
  0
TEXT
  8
TEXT
 10
0.757068
 20
18.282306
 30
0.0
 40
0.167
  1
FOUR (4) #4 x 0.375" LG. SCREWS
 41
0.75
  0
TEXT
  8
TEXT
 10
0.937803
 20
18.003973
 30
0.0
 40
0.167
  1
SUPPLIED FOR ASSEMBLING TOP.
 41
0.75
  0
TEXT
  8
TEXT
 10
0.757068
 20
17.590391
 30
0.0
 40
0.167
  1
FOUR (4) NON-SKID PUSH-ON FEET SUPPLIED
 41
0.75
  0
TEXT
  8
TEXT
 10
0.937803
 20
7.607007
 30
0.0
 40
0.167
  1
SUPPLIED FOR ASSEMBLING TOP.
 41
0.75
  0
TEXT
  8
TEXT
 10
0.757068
 20
7.885341
 30
0.0
 40
0.167
  1
FOUR (4) #4 x 0.375" LG. SCREWS
 41
0.75
  0
TEXT
  8
TEXT
 10
0.936662
 20
8.29496
 30
0.0
 40
0.167
  1
TEXTURED TOP
 41
0.75
  0
TEXT
  8
TEXT
 10
0.7531
 20
8.573293
 30
0.0
 40
0.167
  1
FINISH: TEXTURED BODY WITH
 41
0.75
  0
TEXT
  8
TEXT
 10
0.757068
 20
8.854327
 30
0.0
 40
0.167
  1
COLOR: BLACK OR GRAY
 41
0.75
  0
TEXT
  8
TEXT
 10
0.757068
 20
9.132661
 30
0.0
 40
0.167
  1
MATERIAL: HIGH-IMPACT ABS
 41
0.75
  0
TEXT
  8
DIM
 10
11.587507
 20
11.248079
 30
0.0
 40
0.167
  1
CUSTOM
 41
0.75
  0
TEXT
  8
DIM
 10
11.587507
 20
11.526412
 30
0.0
 40
0.167
  1
AREA FOR
 41
0.75
  0
LINE
  8
DIM
 10
11.253548
 20
11.605444
 30
0.0
 11
11.493488
 21
11.605444
 31
0.0
  0
SOLID
  8
DIM
 10
10.743055
 20
12.582205
 30
0.0
 11
10.815236
 21
12.616655
 31
0.0
 12
10.675796
 22
12.815971
 32
0.0
 13
10.675796
 23
12.815971
 33
0.0
  0
LINE
  8
DIM
 10
10.779145
 20
12.59943
 30
0.0
 11
11.253548
 21
11.605444
 31
0.0
  0
ARC
  8
OBJECT
 10
3.457627
 20
15.163667
 30
0.0
 40
0.1
 50
0.0
 51
85.0
  0
ARC
  8
OBJECT
 10
3.457627
 20
12.219418
 30
0.0
 40
0.1
 50
275.0
 51
0.0
  0
ARC
  8
OBJECT
 10
2.157627
 20
15.156412
 30
0.0
 40
0.1
 50
95.0
 51
180.0
  0
ARC
  8
OBJECT
 10
2.157627
 20
12.226673
 30
0.0
 40
0.1
 50
180.0
 51
265.0
  0
LINE
  8
OBJECT
 10
3.1677
 20
15.002032
 30
0.0
 11
3.457627
 21
14.976661
 31
0.0
  0
LINE
  8
OBJECT
 10
3.1677
 20
15.002032
 30
0.0
 11
3.1677
 21
15.189032
 31
0.0
  0
LINE
  8
OBJECT
 10
3.1677
 20
12.381052
 30
0.0
 11
3.457627
 21
12.406424
 31
0.0
  0
LINE
  8
OBJECT
 10
3.1677
 20
12.381052
 30
0.0
 11
3.1677
 21
12.194052
 31
0.0
  0
LINE
  8
OBJECT
 10
2.840627
 20
12.126542
 30
0.0
 11
2.840627
 21
12.066542
 31
0.0
  0
LINE
  8
OBJECT
 10
2.857627
 20
12.126542
 30
0.0
 11
2.857627
 21
12.066542
 31
0.0
  0
LINE
  8
OBJECT
 10
2.840627
 20
12.166924
 30
0.0
 11
2.840627
 21
12.299042
 31
0.0
  0
LINE
  8
HIDDEN
 10
2.739554
 20
12.501042
 30
0.0
 11
2.739554
 21
12.407042
 31
0.0
  0
LINE
  8
HIDDEN
 10
2.770554
 20
12.376042
 30
0.0
 11
2.739554
 21
12.407042
 31
0.0
  0
LINE
  8
HIDDEN
 10
2.770554
 20
12.532042
 30
0.0
 11
2.739554
 21
12.501042
 31
0.0
  0
LINE
  8
HIDDEN
 10
2.770554
 20
12.519042
 30
0.0
 11
2.830554
 21
12.519042
 31
0.0
  0
LINE
  8
HIDDEN
 10
2.770554
 20
12.389042
 30
0.0
 11
2.830554
 21
12.389042
 31
0.0
  0
LINE
  8
HIDDEN
 10
3.557627
 20
12.576042
 30
0.0
 11
2.830554
 21
12.576042
 31
0.0
  0
LINE
  8
HIDDEN
 10
3.557627
 20
12.332042
 30
0.0
 11
2.830554
 21
12.332042
 31
0.0
  0
LINE
  8
HIDDEN
 10
2.830554
 20
12.332042
 30
0.0
 11
2.830554
 21
12.576042
 31
0.0
  0
LINE
  8
HIDDEN
 10
2.739554
 20
12.501042
 30
0.0
 11
2.157554
 21
12.501042
 31
0.0
  0
LINE
  8
HIDDEN
 10
2.739554
 20
12.407042
 30
0.0
 11
2.157554
 21
12.407042
 31
0.0
  0
LINE
  8
OBJECT
 10
2.770554
 20
12.584042
 30
0.0
 11
2.157554
 21
12.584042
 31
0.0
  0
LINE
  8
OBJECT
 10
2.770554
 20
12.324042
 30
0.0
 11
2.447554
 21
12.324042
 31
0.0
  0
LINE
  8
OBJECT
 10
2.770554
 20
12.299042
 30
0.0
 11
2.770554
 21
12.609042
 31
0.0
  0
LINE
  8
OBJECT
 10
2.770554
 20
12.609042
 30
0.0
 11
3.457627
 21
12.609042
 31
0.0
  0
LINE
  8
OBJECT
 10
2.770554
 20
12.299042
 30
0.0
 11
3.1677
 21
12.299042
 31
0.0
  0
LINE
  8
OBJECT
 10
2.840554
 20
12.166924
 30
0.0
 11
2.840554
 21
12.299042
 31
0.0
  0
LINE
  8
OBJECT
 10
2.857627
 20
12.166924
 30
0.0
 11
2.857627
 21
12.299042
 31
0.0
  0
LINE
  8
OBJECT
 10
2.857627
 20
12.166924
 30
0.0
 11
2.770554
 21
12.166924
 31
0.0
  0
LINE
  8
OBJECT
 10
2.840554
 20
12.126542
 30
0.0
 11
2.857627
 21
12.126542
 31
0.0
  0
LINE
  8
OBJECT
 10
2.770554
 20
12.126542
 30
0.0
 11
2.770554
 21
12.173049
 31
0.0
  0
LINE
  8
OBJECT
 10
2.770554
 20
12.126542
 30
0.0
 11
2.840554
 21
12.126542
 31
0.0
  0
LINE
  8
OBJECT
 10
2.857627
 20
12.166924
 30
0.0
 11
3.457627
 21
12.219418
 31
0.0
  0
LINE
  8
OBJECT
 10
2.770554
 20
12.173049
 30
0.0
 11
2.157627
 21
12.226673
 31
0.0
  0
LINE
  8
OBJECT
 10
2.857627
 20
12.066542
 30
0.0
 11
2.857627
 21
12.126542
 31
0.0
  0
LINE
  8
OBJECT
 10
2.840554
 20
12.066542
 30
0.0
 11
2.840554
 21
12.126542
 31
0.0
  0
LINE
  8
OBJECT
 10
2.857627
 20
12.066542
 30
0.0
 11
3.466343
 21
12.119798
 31
0.0
  0
LINE
  8
OBJECT
 10
2.840554
 20
12.066542
 30
0.0
 11
2.148911
 21
12.127053
 31
0.0
  0
LINE
  8
OBJECT
 10
2.447554
 20
12.388307
 30
0.0
 11
2.447554
 21
12.201307
 31
0.0
  0
LINE
  8
OBJECT
 10
2.447554
 20
12.388307
 30
0.0
 11
2.157627
 21
12.413679
 31
0.0
  0
LINE
  8
OBJECT
 10
2.447554
 20
14.994777
 30
0.0
 11
2.157627
 21
14.969406
 31
0.0
  0
LINE
  8
OBJECT
 10
2.447554
 20
14.994777
 30
0.0
 11
2.447554
 21
15.181777
 31
0.0
  0
LINE
  8
OBJECT
 10
2.840627
 20
14.774042
 30
0.0
 11
2.840627
 21
12.609042
 31
0.0
  0
LINE
  8
OBJECT
 10
2.857627
 20
14.774042
 30
0.0
 11
2.857627
 21
12.609042
 31
0.0
  0
LINE
  8
OBJECT
 10
2.840554
 20
15.316542
 30
0.0
 11
2.148911
 21
15.256031
 31
0.0
  0
LINE
  8
OBJECT
 10
2.857627
 20
15.316542
 30
0.0
 11
3.466343
 21
15.263287
 31
0.0
  0
LINE
  8
OBJECT
 10
2.840554
 20
15.316542
 30
0.0
 11
2.840554
 21
15.256542
 31
0.0
  0
LINE
  8
OBJECT
 10
2.857627
 20
15.316542
 30
0.0
 11
2.857627
 21
15.256542
 31
0.0
  0
LINE
  8
OBJECT
 10
2.770554
 20
15.210036
 30
0.0
 11
2.157627
 21
15.156412
 31
0.0
  0
LINE
  8
OBJECT
 10
2.857627
 20
15.21616
 30
0.0
 11
3.457627
 21
15.163667
 31
0.0
  0
LINE
  8
OBJECT
 10
2.770554
 20
15.256542
 30
0.0
 11
2.840554
 21
15.256542
 31
0.0
  0
LINE
  8
OBJECT
 10
2.770554
 20
15.256542
 30
0.0
 11
2.770554
 21
15.210036
 31
0.0
  0
LINE
  8
OBJECT
 10
2.840554
 20
15.256542
 30
0.0
 11
2.857627
 21
15.256542
 31
0.0
  0
LINE
  8
OBJECT
 10
2.857627
 20
15.21616
 30
0.0
 11
2.770554
 21
15.21616
 31
0.0
  0
LINE
  8
OBJECT
 10
2.857627
 20
15.21616
 30
0.0
 11
2.857627
 21
15.084042
 31
0.0
  0
LINE
  8
OBJECT
 10
2.840554
 20
15.21616
 30
0.0
 11
2.840554
 21
15.084042
 31
0.0
  0
LINE
  8
OBJECT
 10
2.770554
 20
15.084042
 30
0.0
 11
3.1677
 21
15.084042
 31
0.0
  0
LINE
  8
OBJECT
 10
2.770554
 20
14.774042
 30
0.0
 11
3.457627
 21
14.774042
 31
0.0
  0
LINE
  8
OBJECT
 10
2.770554
 20
15.084042
 30
0.0
 11
2.770554
 21
14.774042
 31
0.0
  0
LINE
  8
OBJECT
 10
2.770554
 20
15.059042
 30
0.0
 11
2.447554
 21
15.059042
 31
0.0
  0
LINE
  8
OBJECT
 10
2.770554
 20
14.799042
 30
0.0
 11
2.157554
 21
14.799042
 31
0.0
  0
LINE
  8
HIDDEN
 10
2.739554
 20
14.976042
 30
0.0
 11
2.157554
 21
14.976042
 31
0.0
  0
LINE
  8
HIDDEN
 10
2.739554
 20
14.882042
 30
0.0
 11
2.157554
 21
14.882042
 31
0.0
  0
LINE
  8
HIDDEN
 10
2.830554
 20
15.051042
 30
0.0
 11
2.830554
 21
14.807042
 31
0.0
  0
LINE
  8
HIDDEN
 10
3.557627
 20
15.051042
 30
0.0
 11
2.830554
 21
15.051042
 31
0.0
  0
LINE
  8
HIDDEN
 10
3.557627
 20
14.807042
 30
0.0
 11
2.830554
 21
14.807042
 31
0.0
  0
LINE
  8
HIDDEN
 10
2.770554
 20
14.994042
 30
0.0
 11
2.830554
 21
14.994042
 31
0.0
  0
LINE
  8
HIDDEN
 10
2.770554
 20
14.864042
 30
0.0
 11
2.830554
 21
14.864042
 31
0.0
  0
LINE
  8
HIDDEN
 10
2.770554
 20
14.851042
 30
0.0
 11
2.739554
 21
14.882042
 31
0.0
  0
LINE
  8
HIDDEN
 10
2.770554
 20
15.007042
 30
0.0
 11
2.739554
 21
14.976042
 31
0.0
  0
LINE
  8
HIDDEN
 10
2.739554
 20
14.882042
 30
0.0
 11
2.739554
 21
14.976042
 31
0.0
  0
LINE
  8
OBJECT
 10
3.457627
 20
15.163667
 30
0.0
 11
3.457627
 21
12.219418
 31
0.0
  0
LINE
  8
OBJECT
 10
3.557627
 20
15.163667
 30
0.0
 11
3.557627
 21
12.219418
 31
0.0
  0
LINE
  8
OBJECT
 10
2.840627
 20
15.21616
 30
0.0
 11
2.840627
 21
15.084042
 31
0.0
  0
LINE
  8
OBJECT
 10
2.157627
 20
12.226673
 30
0.0
 11
2.157627
 21
15.156412
 31
0.0
  0
LINE
  8
CENTER
 10
1.877758
 20
13.691542
 30
0.0
 11
3.737496
 21
13.691542
 31
0.0
  0
LINE
  8
OBJECT
 10
2.057627
 20
12.226673
 30
0.0
 11
2.057627
 21
15.156412
 31
0.0
  0
TEXT
  8
DIM
 10
7.383243
 20
14.213309
 30
0.0
 40
0.166625
  1
 REF.
 41
0.75
  0
TEXT
  8
DIM
 10
7.527404
 20
14.473241
 30
0.0
 40
0.166625
  1
0.060
 41
0.75
  0
LINE
  8
DIM
 10
6.742064
 20
14.894848
 30
0.0
 11
6.742064
 21
14.432584
 31
0.0
  0
LINE
  8
DIM
 10
6.681986
 20
14.894848
 30
0.0
 11
6.681986
 21
14.432584
 31
0.0
  0
LINE
  8
DIM
 10
6.982004
 20
14.556553
 30
0.0
 11
7.420612
 21
14.556553
 31
0.0
  0
LINE
  8
DIM
 10
6.442046
 20
14.556553
 30
0.0
 11
6.202106
 21
14.556553
 31
0.0
  0
SOLID
  8
DIM
 10
6.982004
 20
14.516563
 30
0.0
 11
6.982004
 21
14.596543
 31
0.0
 12
6.742064
 22
14.556553
 32
0.0
 13
6.742064
 23
14.556553
 33
0.0
  0
SOLID
  8
DIM
 10
6.442046
 20
14.516563
 30
0.0
 11
6.442046
 21
14.596543
 31
0.0
 12
6.681986
 22
14.556553
 32
0.0
 13
6.681986
 23
14.556553
 33
0.0
  0
TEXT
  8
DIM
 10
9.68893
 20
10.872797
 30
0.0
 40
0.166625
  1
2.125
 41
0.75
  0
SOLID
  8
DIM
 10
10.767046
 20
10.91612
 30
0.0
 11
10.767046
 21
10.9961
 31
0.0
 12
11.006986
 22
10.95611
 32
0.0
 13
11.006986
 23
10.95611
 33
0.0
  0
SOLID
  8
DIM
 10
9.121926
 20
10.91612
 30
0.0
 11
9.121926
 21
10.9961
 31
0.0
 12
8.881986
 22
10.95611
 32
0.0
 13
8.881986
 23
10.95611
 33
0.0
  0
LINE
  8
DIM
 10
10.767046
 20
10.95611
 30
0.0
 11
10.250753
 21
10.95611
 31
0.0
  0
LINE
  8
DIM
 10
9.121926
 20
10.95611
 30
0.0
 11
9.597957
 21
10.95611
 31
0.0
  0
LINE
  8
DIM
 10
11.006986
 20
12.35823
 30
0.0
 11
11.006986
 21
10.832141
 31
0.0
  0
LINE
  8
DIM
 10
8.881986
 20
11.684508
 30
0.0
 11
8.881986
 21
10.832141
 31
0.0
  0
TEXT
  8
DIM
 10
7.862052
 20
11.53488
 30
0.0
 40
0.166625
  1
0.125
 41
0.75
  0
SOLID
  8
DIM
 10
9.246926
 20
11.578203
 30
0.0
 11
9.246926
 21
11.658183
 31
0.0
 12
9.006986
 22
11.618193
 32
0.0
 13
9.006986
 23
11.618193
 33
0.0
  0
SOLID
  8
DIM
 10
8.642046
 20
11.578203
 30
0.0
 11
8.642046
 21
11.658183
 31
0.0
 12
8.881986
 22
11.618193
 32
0.0
 13
8.881986
 23
11.618193
 33
0.0
  0
LINE
  8
DIM
 10
9.246926
 20
11.618193
 30
0.0
 11
9.486866
 21
11.618193
 31
0.0
  0
LINE
  8
DIM
 10
8.642046
 20
11.618193
 30
0.0
 11
8.402106
 21
11.618193
 31
0.0
  0
LINE
  8
DIM
 10
9.006986
 20
12.35823
 30
0.0
 11
9.006986
 21
11.494224
 31
0.0
  0
TEXT
  8
DIM
 10
8.59866
 20
16.732281
 30
0.0
 40
0.166625
  1
5.625
 41
0.75
  0
SOLID
  8
DIM
 10
11.454546
 20
16.775604
 30
0.0
 11
11.454546
 21
16.855584
 31
0.0
 12
11.694486
 22
16.815594
 32
0.0
 13
11.694486
 23
16.815594
 33
0.0
  0
SOLID
  8
DIM
 10
6.309426
 20
16.775604
 30
0.0
 11
6.309426
 21
16.855584
 31
0.0
 12
6.069486
 22
16.815594
 32
0.0
 13
6.069486
 23
16.815594
 33
0.0
  0
LINE
  8
DIM
 10
11.454546
 20
16.815594
 30
0.0
 11
9.216024
 21
16.815594
 31
0.0
  0
LINE
  8
DIM
 10
6.309426
 20
16.815594
 30
0.0
 11
8.518154
 21
16.815594
 31
0.0
  0
LINE
  8
DIM
 10
11.694486
 20
15.349855
 30
0.0
 11
11.694486
 21
16.939563
 31
0.0
  0
LINE
  8
DIM
 10
6.069486
 20
15.349855
 30
0.0
 11
6.069486
 21
16.939563
 31
0.0
  0
TEXT
  8
DIM
 10
12.619737
 20
13.60823
 30
0.0
 40
0.166625
  1
3.250
 41
0.75
  0
SOLID
  8
DIM
 10
12.929168
 20
15.076602
 30
0.0
 11
12.849188
 21
15.076602
 31
0.0
 12
12.889178
 22
15.316542
 32
0.0
 13
12.889178
 23
15.316542
 33
0.0
  0
SOLID
  8
DIM
 10
12.929168
 20
12.306482
 30
0.0
 11
12.849188
 21
12.306482
 31
0.0
 12
12.889178
 22
12.066542
 32
0.0
 13
12.889178
 23
12.066542
 33
0.0
  0
LINE
  8
DIM
 10
12.889178
 20
15.076602
 30
0.0
 11
12.889178
 21
13.865348
 31
0.0
  0
LINE
  8
DIM
 10
12.889178
 20
12.306482
 30
0.0
 11
12.889178
 21
13.537285
 31
0.0
  0
LINE
  8
DIM
 10
11.727798
 20
15.316542
 30
0.0
 11
13.013147
 21
15.316542
 31
0.0
  0
LINE
  8
DIM
 10
11.727798
 20
12.066542
 30
0.0
 11
13.013147
 21
12.066542
 31
0.0
  0
LINE
  8
DIM
 10
11.353486
 20
12.441542
 30
0.0
 11
12.334463
 21
12.441542
 31
0.0
  0
LINE
  8
DIM
 10
11.353486
 20
14.941542
 30
0.0
 11
12.334463
 21
14.941542
 31
0.0
  0
LINE
  8
DIM
 10
11.090298
 20
12.441542
 30
0.0
 11
11.260486
 21
12.441542
 31
0.0
  0
LINE
  8
DIM
 10
12.210494
 20
12.681482
 30
0.0
 11
12.210494
 21
12.902826
 31
0.0
  0
LINE
  8
DIM
 10
12.210494
 20
13.451602
 30
0.0
 11
12.210494
 21
13.2208
 31
0.0
  0
SOLID
  8
DIM
 10
12.250484
 20
12.681482
 30
0.0
 11
12.170504
 21
12.681482
 31
0.0
 12
12.210494
 22
12.441542
 32
0.0
 13
12.210494
 23
12.441542
 33
0.0
  0
SOLID
  8
DIM
 10
12.250484
 20
13.451602
 30
0.0
 11
12.170504
 21
13.451602
 31
0.0
 12
12.210494
 22
13.691542
 32
0.0
 13
12.210494
 23
13.691542
 33
0.0
  0
TEXT
  8
DIM
 10
11.968824
 20
12.98323
 30
0.0
 40
0.166625
  1
1.250
 41
0.75
  0
TEXT
  8
DIM
 10
11.968824
 20
14.23323
 30
0.0
 40
0.166625
  1
1.250
 41
0.75
  0
SOLID
  8
DIM
 10
12.250484
 20
13.931482
 30
0.0
 11
12.170504
 21
13.931482
 31
0.0
 12
12.210494
 22
13.691542
 32
0.0
 13
12.210494
 23
13.691542
 33
0.0
  0
SOLID
  8
DIM
 10
12.250484
 20
14.701602
 30
0.0
 11
12.170504
 21
14.701602
 31
0.0
 12
12.210494
 22
14.941542
 32
0.0
 13
12.210494
 23
14.941542
 33
0.0
  0
LINE
  8
DIM
 10
12.210494
 20
13.931482
 30
0.0
 11
12.210494
 21
14.152826
 31
0.0
  0
LINE
  8
DIM
 10
12.210494
 20
14.701602
 30
0.0
 11
12.210494
 21
14.4708
 31
0.0
  0
LINE
  8
DIM
 10
12.042391
 20
13.691542
 30
0.0
 11
12.334463
 21
13.691542
 31
0.0
  0
LINE
  8
DIM
 10
11.090298
 20
14.941542
 30
0.0
 11
11.260486
 21
14.941542
 31
0.0
  0
TEXT
  8
DIM
 10
9.023076
 20
15.483546
 30
0.0
 40
0.166625
  1
0.750
 41
0.75
  0
SOLID
  8
DIM
 10
8.642046
 20
15.526868
 30
0.0
 11
8.642046
 21
15.606848
 31
0.0
 12
8.881986
 22
15.566858
 32
0.0
 13
8.881986
 23
15.566858
 33
0.0
  0
SOLID
  8
DIM
 10
9.871926
 20
15.526868
 30
0.0
 11
9.871926
 21
15.606848
 31
0.0
 12
9.631986
 22
15.566858
 32
0.0
 13
9.631986
 23
15.566858
 33
0.0
  0
LINE
  8
DIM
 10
8.642046
 20
15.566858
 30
0.0
 11
8.402106
 21
15.566858
 31
0.0
  0
LINE
  8
DIM
 10
9.871926
 20
15.566858
 30
0.0
 11
10.111866
 21
15.566858
 31
0.0
  0
LINE
  8
DIM
 10
9.631986
 20
15.273845
 30
0.0
 11
9.631986
 21
15.690827
 31
0.0
  0
LINE
  8
DIM
 10
11.081986
 20
15.273845
 30
0.0
 11
11.081986
 21
16.278745
 31
0.0
  0
LINE
  8
DIM
 10
10.842046
 20
16.154776
 30
0.0
 11
10.268123
 21
16.154776
 31
0.0
  0
LINE
  8
DIM
 10
9.121926
 20
16.154776
 30
0.0
 11
9.625794
 21
16.154776
 31
0.0
  0
SOLID
  8
DIM
 10
10.842046
 20
16.114786
 30
0.0
 11
10.842046
 21
16.194766
 31
0.0
 12
11.081986
 22
16.154776
 32
0.0
 13
11.081986
 23
16.154776
 33
0.0
  0
SOLID
  8
DIM
 10
9.121926
 20
16.114786
 30
0.0
 11
9.121926
 21
16.194766
 31
0.0
 12
8.881986
 22
16.154776
 32
0.0
 13
8.881986
 23
16.154776
 33
0.0
  0
TEXT
  8
DIM
 10
9.72643
 20
16.071464
 30
0.0
 40
0.166625
  1
2.200
 41
0.75
  0
LINE
  8
DIM
 10
11.306986
 20
15.024855
 30
0.0
 11
11.306986
 21
16.601855
 31
0.0
  0
LINE
  8
DIM
 10
11.067046
 20
16.477886
 30
0.0
 11
10.408393
 21
16.477886
 31
0.0
  0
LINE
  8
DIM
 10
9.121926
 20
16.477886
 30
0.0
 11
9.710523
 21
16.477886
 31
0.0
  0
SOLID
  8
DIM
 10
11.067046
 20
16.437896
 30
0.0
 11
11.067046
 21
16.517876
 31
0.0
 12
11.306986
 22
16.477886
 32
0.0
 13
11.306986
 23
16.477886
 33
0.0
  0
SOLID
  8
DIM
 10
9.121926
 20
16.437896
 30
0.0
 11
9.121926
 21
16.517876
 31
0.0
 12
8.881986
 22
16.477886
 32
0.0
 13
8.881986
 23
16.477886
 33
0.0
  0
TEXT
  8
DIM
 10
9.81116
 20
16.394574
 30
0.0
 40
0.166625
  1
2.425
 41
0.75
  0
TEXT
  8
DIM
 10
7.38616
 20
16.394574
 30
0.0
 40
0.166625
  1
2.425
 41
0.75
  0
SOLID
  8
DIM
 10
8.642046
 20
16.437896
 30
0.0
 11
8.642046
 21
16.517876
 31
0.0
 12
8.881986
 22
16.477886
 32
0.0
 13
8.881986
 23
16.477886
 33
0.0
  0
SOLID
  8
DIM
 10
6.696926
 20
16.437896
 30
0.0
 11
6.696926
 21
16.517876
 31
0.0
 12
6.456986
 22
16.477886
 32
0.0
 13
6.456986
 23
16.477886
 33
0.0
  0
LINE
  8
DIM
 10
8.642046
 20
16.477886
 30
0.0
 11
8.003524
 21
16.477886
 31
0.0
  0
LINE
  8
DIM
 10
6.696926
 20
16.477886
 30
0.0
 11
7.285523
 21
16.477886
 31
0.0
  0
LINE
  8
DIM
 10
8.881986
 20
15.698576
 30
0.0
 11
8.881986
 21
16.601855
 31
0.0
  0
LINE
  8
DIM
 10
6.456986
 20
15.024855
 30
0.0
 11
6.456986
 21
16.601855
 31
0.0
  0
TEXT
  8
DIM
 10
7.52643
 20
16.071464
 30
0.0
 40
0.166625
  1
2.200
 41
0.75
  0
SOLID
  8
DIM
 10
8.642046
 20
16.114786
 30
0.0
 11
8.642046
 21
16.194766
 31
0.0
 12
8.881986
 22
16.154776
 32
0.0
 13
8.881986
 23
16.154776
 33
0.0
  0
SOLID
  8
DIM
 10
6.921926
 20
16.114786
 30
0.0
 11
6.921926
 21
16.194766
 31
0.0
 12
6.681986
 22
16.154776
 32
0.0
 13
6.681986
 23
16.154776
 33
0.0
  0
LINE
  8
DIM
 10
8.642046
 20
16.154776
 30
0.0
 11
8.088253
 21
16.154776
 31
0.0
  0
LINE
  8
DIM
 10
6.921926
 20
16.154776
 30
0.0
 11
7.436262
 21
16.154776
 31
0.0
  0
LINE
  8
DIM
 10
6.681986
 20
15.273845
 30
0.0
 11
6.681986
 21
16.278745
 31
0.0
  0
TEXT
  8
DIM
 10
8.251326
 20
15.759124
 30
0.0
 40
0.166625
  1
0.750
 41
0.75
  0
SOLID
  8
DIM
 10
9.121926
 20
15.802446
 30
0.0
 11
9.121926
 21
15.882426
 31
0.0
 12
8.881986
 22
15.842436
 32
0.0
 13
8.881986
 23
15.842436
 33
0.0
  0
SOLID
  8
DIM
 10
7.892046
 20
15.802446
 30
0.0
 11
7.892046
 21
15.882426
 31
0.0
 12
8.131986
 22
15.842436
 32
0.0
 13
8.131986
 23
15.842436
 33
0.0
  0
LINE
  8
DIM
 10
9.121926
 20
15.842436
 30
0.0
 11
9.361866
 21
15.842436
 31
0.0
  0
LINE
  8
DIM
 10
7.892046
 20
15.842436
 30
0.0
 11
7.652106
 21
15.842436
 31
0.0
  0
LINE
  8
DIM
 10
8.131986
 20
15.273845
 30
0.0
 11
8.131986
 21
15.966405
 31
0.0
  0
LINE
  8
DIM
 10
10.256986
 20
12.35823
 30
0.0
 11
10.256986
 21
11.167325
 31
0.0
  0
LINE
  8
DIM
 10
10.017046
 20
11.291294
 30
0.0
 11
9.855288
 21
11.291294
 31
0.0
  0
LINE
  8
DIM
 10
9.121926
 20
11.291294
 30
0.0
 11
9.249564
 21
11.291294
 31
0.0
  0
SOLID
  8
DIM
 10
10.017046
 20
11.251304
 30
0.0
 11
10.017046
 21
11.331284
 31
0.0
 12
10.256986
 22
11.291294
 32
0.0
 13
10.256986
 23
11.291294
 33
0.0
  0
SOLID
  8
DIM
 10
9.121926
 20
11.251304
 30
0.0
 11
9.121926
 21
11.331284
 31
0.0
 12
8.881986
 22
11.291294
 32
0.0
 13
8.881986
 23
11.291294
 33
0.0
  0
TEXT
  8
DIM
 10
9.312513
 20
11.207982
 30
0.0
 40
0.166625
  1
1.375
 41
0.75
  0
TEXT
  8
DIM
 10
7.940348
 20
11.207982
 30
0.0
 40
0.166625
  1
1.375
 41
0.75
  0
SOLID
  8
DIM
 10
8.642046
 20
11.251304
 30
0.0
 11
8.642046
 21
11.331284
 31
0.0
 12
8.881986
 22
11.291294
 32
0.0
 13
8.881986
 23
11.291294
 33
0.0
  0
SOLID
  8
DIM
 10
7.746926
 20
11.251304
 30
0.0
 11
7.746926
 21
11.331284
 31
0.0
 12
7.506986
 22
11.291294
 32
0.0
 13
7.506986
 23
11.291294
 33
0.0
  0
LINE
  8
DIM
 10
8.642046
 20
11.291294
 30
0.0
 11
8.484614
 21
11.291294
 31
0.0
  0
LINE
  8
DIM
 10
7.746926
 20
11.291294
 30
0.0
 11
7.87889
 21
11.291294
 31
0.0
  0
LINE
  8
DIM
 10
7.506986
 20
12.35823
 30
0.0
 11
7.506986
 21
11.167325
 31
0.0
  0
LINE
  8
OBJECT
 10
8.083372
 20
12.217924
 30
0.0
 11
6.220867
 21
12.217924
 31
0.0
  0
LINE
  8
HIDDEN
 10
9.524294
 20
12.217924
 30
0.0
 11
8.67992
 21
12.217924
 31
0.0
  0
LINE
  8
HIDDEN
 10
9.524294
 20
15.165161
 30
0.0
 11
8.239678
 21
15.165161
 31
0.0
  0
LINE
  8
HIDDEN
 10
8.083372
 20
15.165161
 30
0.0
 11
6.789678
 21
15.165161
 31
0.0
  0
LINE
  8
OBJECT
 10
10.966986
 20
14.901542
 30
0.0
 11
10.966986
 21
12.481542
 31
0.0
  0
LINE
  8
OBJECT
 10
8.239678
 20
12.192552
 30
0.0
 11
8.083372
 21
12.192552
 31
0.0
  0
LINE
  8
HIDDEN
 10
8.239678
 20
15.190533
 30
0.0
 11
8.083372
 21
15.190533
 31
0.0
  0
LINE
  8
OBJECT
 10
8.083372
 20
12.192552
 30
0.0
 11
8.083372
 21
12.404924
 31
0.0
  0
LINE
  8
OBJECT
 10
8.083372
 20
12.404924
 30
0.0
 11
8.131986
 21
12.404924
 31
0.0
  0
LINE
  8
OBJECT
 10
8.131986
 20
12.404924
 30
0.0
 11
8.131986
 21
12.192552
 31
0.0
  0
LINE
  8
OBJECT
 10
8.239678
 20
12.192552
 30
0.0
 11
8.239678
 21
12.404924
 31
0.0
  0
LINE
  8
OBJECT
 10
8.192064
 20
12.311311
 30
0.0
 11
8.131986
 21
12.311311
 31
0.0
  0
LINE
  8
OBJECT
 10
8.239678
 20
12.404924
 30
0.0
 11
8.192064
 21
12.404924
 31
0.0
  0
LINE
  8
OBJECT
 10
8.192064
 20
12.404924
 30
0.0
 11
8.192064
 21
12.192552
 31
0.0
  0
LINE
  8
HIDDEN
 10
8.192064
 20
14.978161
 30
0.0
 11
8.192064
 21
15.190533
 31
0.0
  0
LINE
  8
HIDDEN
 10
8.239678
 20
14.978161
 30
0.0
 11
8.192064
 21
14.978161
 31
0.0
  0
LINE
  8
HIDDEN
 10
8.192064
 20
15.071773
 30
0.0
 11
8.131986
 21
15.071773
 31
0.0
  0
LINE
  8
HIDDEN
 10
8.239678
 20
15.190533
 30
0.0
 11
8.239678
 21
14.978161
 31
0.0
  0
LINE
  8
HIDDEN
 10
8.131986
 20
14.978161
 30
0.0
 11
8.131986
 21
15.190533
 31
0.0
  0
LINE
  8
HIDDEN
 10
8.083372
 20
14.978161
 30
0.0
 11
8.131986
 21
14.978161
 31
0.0
  0
LINE
  8
HIDDEN
 10
8.083372
 20
15.190533
 30
0.0
 11
8.083372
 21
14.978161
 31
0.0
  0
LINE
  8
OBJECT
 10
9.046986
 20
14.901542
 30
0.0
 11
9.046986
 21
12.481542
 31
0.0
  0
LINE
  8
OBJECT
 10
6.069486
 20
15.266542
 30
0.0
 11
6.069486
 21
12.116542
 31
0.0
  0
LINE
  8
OBJECT
 10
11.644486
 20
12.066542
 30
0.0
 11
6.119486
 21
12.066542
 31
0.0
  0
LINE
  8
OBJECT
 10
11.694486
 20
15.266542
 30
0.0
 11
11.694486
 21
12.116542
 31
0.0
  0
LINE
  8
OBJECT
 10
11.644486
 20
15.316542
 30
0.0
 11
6.119486
 21
15.316542
 31
0.0
  0
LINE
  8
HIDDEN
 10
6.169486
 20
15.216542
 30
0.0
 11
6.169486
 21
14.077547
 31
0.0
  0
LINE
  8
OBJECT
 10
8.648236
 20
12.166542
 30
0.0
 11
6.169486
 21
12.166542
 31
0.0
  0
ARC
  8
OBJECT
 10
11.644486
 20
12.116542
 30
0.0
 40
0.05
 50
270.0
 51
0.0
  0
ARC
  8
OBJECT
 10
6.119486
 20
12.116542
 30
0.0
 40
0.05
 50
180.0
 51
270.0
  0
ARC
  8
OBJECT
 10
6.119486
 20
15.266542
 30
0.0
 40
0.05
 50
90.0
 51
180.0
  0
ARC
  8
OBJECT
 10
11.644486
 20
15.266542
 30
0.0
 40
0.05
 50
0.0
 51
90.0
  0
CIRCLE
  8
HIDDEN
 10
7.506986
 20
14.941542
 30
0.0
 40
0.13
  0
CIRCLE
  8
OBJECT
 10
7.506986
 20
12.441542
 30
0.0
 40
0.13
  0
ARC
  8
OBJECT
 10
8.201602
 20
13.203104
 30
0.0
 40
0.482613
 50
332.47586
 51
6.541409
  0
ARC
  8
OBJECT
 10
6.774366
 20
13.039446
 30
0.0
 40
1.919201
 50
6.541409
 51
24.817315
  0
ARC
  8
OBJECT
 10
9.45402
 20
12.591991
 30
0.0
 40
0.911205
 50
154.792013
 51
215.215426
  0
LINE
  8
HIDDEN
 10
6.134486
 20
15.211542
 30
0.0
 11
6.134486
 21
14.088267
 31
0.0
  0
LINE
  8
OBJECT
 10
8.667711
 20
12.131542
 30
0.0
 11
6.174486
 21
12.131542
 31
0.0
  0
LINE
  8
HIDDEN
 10
6.633372
 20
15.190533
 30
0.0
 11
6.633372
 21
14.978161
 31
0.0
  0
LINE
  8
HIDDEN
 10
6.633372
 20
14.978161
 30
0.0
 11
6.681986
 21
14.978161
 31
0.0
  0
LINE
  8
HIDDEN
 10
6.681986
 20
14.978161
 30
0.0
 11
6.681986
 21
15.190533
 31
0.0
  0
LINE
  8
HIDDEN
 10
6.789678
 20
15.190533
 30
0.0
 11
6.789678
 21
14.978161
 31
0.0
  0
LINE
  8
HIDDEN
 10
6.742064
 20
15.071773
 30
0.0
 11
6.681986
 21
15.071773
 31
0.0
  0
LINE
  8
HIDDEN
 10
6.789678
 20
14.978161
 30
0.0
 11
6.742064
 21
14.978161
 31
0.0
  0
LINE
  8
HIDDEN
 10
6.742064
 20
14.978161
 30
0.0
 11
6.742064
 21
15.190533
 31
0.0
  0
LINE
  8
HIDDEN
 10
6.174486
 20
15.251542
 30
0.0
 11
11.589486
 21
15.251542
 31
0.0
  0
LINE
  8
HIDDEN
 10
6.169486
 20
15.216542
 30
0.0
 11
11.594486
 21
15.216542
 31
0.0
  0
LINE
  8
HIDDEN
 10
11.629486
 20
15.211542
 30
0.0
 11
11.629486
 21
12.171542
 31
0.0
  0
LINE
  8
HIDDEN
 10
11.594486
 20
15.216542
 30
0.0
 11
11.594486
 21
12.166542
 31
0.0
  0
CIRCLE
  8
HIDDEN
 10
10.256986
 20
12.441542
 30
0.0
 40
0.13
  0
CIRCLE
  8
HIDDEN
 10
10.256986
 20
14.941542
 30
0.0
 40
0.13
  0
ARC
  8
HIDDEN
 10
6.174486
 20
15.211542
 30
0.0
 40
0.04
 50
90.0
 51
180.0
  0
ARC
  8
OBJECT
 10
6.174486
 20
12.171542
 30
0.0
 40
0.04
 50
180.0
 51
270.0
  0
ARC
  8
HIDDEN
 10
11.589486
 20
15.211542
 30
0.0
 40
0.04
 50
0.0
 51
90.0
  0
ARC
  8
HIDDEN
 10
11.589486
 20
12.171542
 30
0.0
 40
0.04
 50
270.0
 51
0.0
  0
CIRCLE
  8
OBJECT
 10
7.506986
 20
12.441542
 30
0.0
 40
0.0465
  0
CIRCLE
  8
OBJECT
 10
6.456986
 20
14.941542
 30
0.0
 40
0.0465
  0
CIRCLE
  8
OBJECT
 10
7.506986
 20
12.441542
 30
0.0
 40
0.078
  0
LINE
  8
HIDDEN
 10
11.021908
 20
14.978161
 30
0.0
 11
11.021908
 21
15.190533
 31
0.0
  0
LINE
  8
HIDDEN
 10
10.974294
 20
14.978161
 30
0.0
 11
11.021908
 21
14.978161
 31
0.0
  0
LINE
  8
HIDDEN
 10
11.021908
 20
15.071773
 30
0.0
 11
11.081986
 21
15.071773
 31
0.0
  0
LINE
  8
HIDDEN
 10
10.974294
 20
15.190533
 30
0.0
 11
10.974294
 21
14.978161
 31
0.0
  0
LINE
  8
HIDDEN
 10
11.081986
 20
14.978161
 30
0.0
 11
11.081986
 21
15.190533
 31
0.0
  0
LINE
  8
HIDDEN
 10
11.1306
 20
14.978161
 30
0.0
 11
11.081986
 21
14.978161
 31
0.0
  0
LINE
  8
HIDDEN
 10
11.1306
 20
15.190533
 30
0.0
 11
11.1306
 21
14.978161
 31
0.0
  0
LINE
  8
HIDDEN
 10
9.6806
 20
15.190533
 30
0.0
 11
9.6806
 21
14.978161
 31
0.0
  0
LINE
  8
HIDDEN
 10
9.6806
 20
14.978161
 30
0.0
 11
9.631986
 21
14.978161
 31
0.0
  0
LINE
  8
HIDDEN
 10
9.631986
 20
14.978161
 30
0.0
 11
9.631986
 21
15.190533
 31
0.0
  0
LINE
  8
HIDDEN
 10
9.524294
 20
15.190533
 30
0.0
 11
9.524294
 21
14.978161
 31
0.0
  0
LINE
  8
HIDDEN
 10
9.571908
 20
15.071773
 30
0.0
 11
9.631986
 21
15.071773
 31
0.0
  0
LINE
  8
HIDDEN
 10
9.524294
 20
14.978161
 30
0.0
 11
9.571908
 21
14.978161
 31
0.0
  0
LINE
  8
HIDDEN
 10
9.571908
 20
14.978161
 30
0.0
 11
9.571908
 21
15.190533
 31
0.0
  0
LINE
  8
HIDDEN
 10
9.571908
 20
12.404924
 30
0.0
 11
9.571908
 21
12.192552
 31
0.0
  0
LINE
  8
HIDDEN
 10
9.524294
 20
12.404924
 30
0.0
 11
9.571908
 21
12.404924
 31
0.0
  0
LINE
  8
HIDDEN
 10
9.571908
 20
12.311311
 30
0.0
 11
9.631986
 21
12.311311
 31
0.0
  0
LINE
  8
HIDDEN
 10
9.524294
 20
12.192552
 30
0.0
 11
9.524294
 21
12.404924
 31
0.0
  0
LINE
  8
HIDDEN
 10
9.631986
 20
12.404924
 30
0.0
 11
9.631986
 21
12.192552
 31
0.0
  0
LINE
  8
HIDDEN
 10
9.6806
 20
12.404924
 30
0.0
 11
9.631986
 21
12.404924
 31
0.0
  0
LINE
  8
HIDDEN
 10
9.6806
 20
12.192552
 30
0.0
 11
9.6806
 21
12.404924
 31
0.0
  0
LINE
  8
HIDDEN
 10
11.1306
 20
12.192552
 30
0.0
 11
11.1306
 21
12.404924
 31
0.0
  0
LINE
  8
HIDDEN
 10
11.1306
 20
12.404924
 30
0.0
 11
11.081986
 21
12.404924
 31
0.0
  0
LINE
  8
HIDDEN
 10
11.081986
 20
12.404924
 30
0.0
 11
11.081986
 21
12.192552
 31
0.0
  0
LINE
  8
HIDDEN
 10
10.974294
 20
12.192552
 30
0.0
 11
10.974294
 21
12.404924
 31
0.0
  0
LINE
  8
HIDDEN
 10
11.021908
 20
12.311311
 30
0.0
 11
11.081986
 21
12.311311
 31
0.0
  0
LINE
  8
HIDDEN
 10
10.974294
 20
12.404924
 30
0.0
 11
11.021908
 21
12.404924
 31
0.0
  0
LINE
  8
HIDDEN
 10
11.021908
 20
12.404924
 30
0.0
 11
11.021908
 21
12.192552
 31
0.0
  0
CIRCLE
  8
OBJECT
 10
11.306986
 20
12.441542
 30
0.0
 40
0.0465
  0
CIRCLE
  8
OBJECT
 10
11.306986
 20
14.941542
 30
0.0
 40
0.0465
  0
CIRCLE
  8
OBJECT
 10
11.306986
 20
14.941542
 30
0.0
 40
0.1225
  0
CIRCLE
  8
OBJECT
 10
11.306986
 20
12.441542
 30
0.0
 40
0.1225
  0
CIRCLE
  8
OBJECT
 10
6.456986
 20
14.941542
 30
0.0
 40
0.13
  0
CIRCLE
  8
OBJECT
 10
6.456986
 20
12.441542
 30
0.0
 40
0.13
  0
CIRCLE
  8
OBJECT
 10
6.456986
 20
12.441542
 30
0.0
 40
0.078
  0
CIRCLE
  8
OBJECT
 10
6.456986
 20
12.441542
 30
0.0
 40
0.0465
  0
LINE
  8
HIDDEN
 10
11.543104
 20
15.165161
 30
0.0
 11
11.543104
 21
12.217924
 31
0.0
  0
LINE
  8
HIDDEN
 10
6.220867
 20
15.165161
 30
0.0
 11
6.220867
 21
14.066827
 31
0.0
  0
LINE
  8
HIDDEN
 10
11.543104
 20
15.165161
 30
0.0
 11
11.1306
 21
15.165161
 31
0.0
  0
LINE
  8
HIDDEN
 10
11.543104
 20
12.217924
 30
0.0
 11
11.1306
 21
12.217924
 31
0.0
  0
LINE
  8
HIDDEN
 10
11.1306
 20
12.192552
 30
0.0
 11
10.974294
 21
12.192552
 31
0.0
  0
LINE
  8
HIDDEN
 10
11.1306
 20
15.190533
 30
0.0
 11
10.974294
 21
15.190533
 31
0.0
  0
LINE
  8
HIDDEN
 10
6.789678
 20
15.190533
 30
0.0
 11
6.633372
 21
15.190533
 31
0.0
  0
LINE
  8
HIDDEN
 10
9.6806
 20
15.190533
 30
0.0
 11
9.524294
 21
15.190533
 31
0.0
  0
LINE
  8
HIDDEN
 10
9.6806
 20
12.192552
 30
0.0
 11
9.524294
 21
12.192552
 31
0.0
  0
LINE
  8
HIDDEN
 10
10.974294
 20
12.217924
 30
0.0
 11
9.6806
 21
12.217924
 31
0.0
  0
LINE
  8
HIDDEN
 10
10.974294
 20
15.165161
 30
0.0
 11
9.6806
 21
15.165161
 31
0.0
  0
LINE
  8
HIDDEN
 10
6.633372
 20
15.165161
 30
0.0
 11
6.220867
 21
15.165161
 31
0.0
  0
LINE
  8
OBJECT
 10
8.623136
 20
12.217924
 30
0.0
 11
8.239678
 21
12.217924
 31
0.0
  0
LINE
  8
OBJECT
 10
10.966986
 20
14.901542
 30
0.0
 11
9.046986
 21
14.901542
 31
0.0
  0
LINE
  8
OBJECT
 10
10.966986
 20
12.481542
 30
0.0
 11
9.046986
 21
12.481542
 31
0.0
  0
LINE
  8
OBJECT
 10
11.006986
 20
14.941542
 30
0.0
 11
11.006986
 21
12.441542
 31
0.0
  0
LINE
  8
OBJECT
 10
9.006986
 20
14.941542
 30
0.0
 11
9.006986
 21
12.441542
 31
0.0
  0
LINE
  8
OBJECT
 10
11.006986
 20
12.441542
 30
0.0
 11
9.006986
 21
12.441542
 31
0.0
  0
LINE
  8
OBJECT
 10
11.006986
 20
14.941542
 30
0.0
 11
9.006986
 21
14.941542
 31
0.0
  0
LINE
  8
CENTER
 10
8.881986
 20
15.615264
 30
0.0
 11
8.881986
 21
11.767821
 31
0.0
  0
LINE
  8
CENTER
 10
11.959079
 20
13.691542
 30
0.0
 11
5.804893
 21
13.691542
 31
0.0
  0
TEXT
  8
DIM
 10
7.040648
 20
19.299113
 30
0.0
 40
0.166625
  1
0.410
 41
0.75
  0
LINE
  8
DIM
 10
7.6066
 20
19.382425
 30
0.0
 11
7.84654
 21
19.382425
 31
0.0
  0
LINE
  8
DIM
 10
7.84654
 20
19.240971
 30
0.0
 11
7.84654
 21
19.382425
 31
0.0
  0
SOLID
  8
DIM
 10
7.88653
 20
19.240971
 30
0.0
 11
7.80655
 21
19.240971
 31
0.0
 12
7.84654
 22
19.001031
 32
0.0
 13
7.84654
 23
19.001031
 33
0.0
  0
LINE
  8
DIM
 10
7.720298
 20
18.591031
 30
0.0
 11
7.970509
 21
18.591031
 31
0.0
  0
SOLID
  8
DIM
 10
7.88653
 20
18.351091
 30
0.0
 11
7.80655
 21
18.351091
 31
0.0
 12
7.84654
 22
18.591031
 32
0.0
 13
7.84654
 23
18.591031
 33
0.0
  0
LINE
  8
DIM
 10
7.84654
 20
18.351091
 30
0.0
 11
7.84654
 21
18.111151
 31
0.0
  0
LINE
  8
DIM
 10
8.433257
 20
18.371091
 30
0.0
 11
8.433257
 21
18.131151
 31
0.0
  0
SOLID
  8
DIM
 10
8.473247
 20
18.371091
 30
0.0
 11
8.393267
 21
18.371091
 31
0.0
 12
8.433257
 22
18.611031
 32
0.0
 13
8.433257
 23
18.611031
 33
0.0
  0
LINE
  8
DIM
 10
8.32299
 20
18.611031
 30
0.0
 11
8.557226
 21
18.611031
 31
0.0
  0
SOLID
  8
DIM
 10
8.473247
 20
19.240971
 30
0.0
 11
8.393267
 21
19.240971
 31
0.0
 12
8.433257
 22
19.001031
 32
0.0
 13
8.433257
 23
19.001031
 33
0.0
  0
LINE
  8
DIM
 10
8.433257
 20
19.240971
 30
0.0
 11
8.433257
 21
19.382425
 31
0.0
  0
LINE
  8
DIM
 10
8.433257
 20
19.382425
 30
0.0
 11
8.673197
 21
19.382425
 31
0.0
  0
TEXT
  8
DIM
 10
8.785822
 20
19.299113
 30
0.0
 40
0.166625
  1
0.390
 41
0.75
  0
LINE
  8
DIM
 10
6.246986
 20
19.084344
 30
0.0
 11
6.246986
 21
19.811053
 31
0.0
  0
LINE
  8
DIM
 10
11.516986
 20
19.084344
 30
0.0
 11
11.516986
 21
19.811053
 31
0.0
  0
LINE
  8
DIM
 10
6.486926
 20
19.687084
 30
0.0
 11
8.538068
 21
19.687084
 31
0.0
  0
LINE
  8
DIM
 10
11.277046
 20
19.687084
 30
0.0
 11
9.188954
 21
19.687084
 31
0.0
  0
SOLID
  8
DIM
 10
6.486926
 20
19.727074
 30
0.0
 11
6.486926
 21
19.647094
 31
0.0
 12
6.246986
 22
19.687084
 32
0.0
 13
6.246986
 23
19.687084
 33
0.0
  0
SOLID
  8
DIM
 10
11.277046
 20
19.727074
 30
0.0
 11
11.277046
 21
19.647094
 31
0.0
 12
11.516986
 22
19.687084
 32
0.0
 13
11.516986
 23
19.687084
 33
0.0
  0
TEXT
  8
DIM
 10
8.608582
 20
19.603771
 30
0.0
 40
0.166625
  1
5.270
 41
0.75
  0
LINE
  8
HIDDEN
 10
9.572408
 20
17.891031
 30
0.0
 11
9.572408
 21
17.601031
 31
0.0
  0
LINE
  8
HIDDEN
 10
9.524294
 20
17.891031
 30
0.0
 11
9.572408
 21
17.891031
 31
0.0
  0
LINE
  8
HIDDEN
 10
9.572408
 20
17.848515
 30
0.0
 11
9.632486
 21
17.848515
 31
0.0
  0
LINE
  8
HIDDEN
 10
9.524294
 20
17.601031
 30
0.0
 11
9.524294
 21
17.891031
 31
0.0
  0
LINE
  8
HIDDEN
 10
9.632486
 20
17.891031
 30
0.0
 11
9.632486
 21
17.601031
 31
0.0
  0
LINE
  8
HIDDEN
 10
9.6806
 20
17.891031
 30
0.0
 11
9.632486
 21
17.891031
 31
0.0
  0
LINE
  8
HIDDEN
 10
9.6806
 20
17.601031
 30
0.0
 11
9.6806
 21
17.891031
 31
0.0
  0
LINE
  8
HIDDEN
 10
11.1306
 20
17.601031
 30
0.0
 11
11.1306
 21
17.891031
 31
0.0
  0
LINE
  8
HIDDEN
 10
11.1306
 20
17.891031
 30
0.0
 11
11.082486
 21
17.891031
 31
0.0
  0
LINE
  8
HIDDEN
 10
11.082486
 20
17.891031
 30
0.0
 11
11.082486
 21
17.601031
 31
0.0
  0
LINE
  8
HIDDEN
 10
10.974294
 20
17.601031
 30
0.0
 11
10.974294
 21
17.891031
 31
0.0
  0
LINE
  8
HIDDEN
 10
11.022408
 20
17.848515
 30
0.0
 11
11.082486
 21
17.848515
 31
0.0
  0
LINE
  8
HIDDEN
 10
10.974294
 20
17.891031
 30
0.0
 11
11.022408
 21
17.891031
 31
0.0
  0
LINE
  8
HIDDEN
 10
11.022408
 20
17.891031
 30
0.0
 11
11.022408
 21
17.601031
 31
0.0
  0
LINE
  8
OBJECT
 10
6.741564
 20
17.891031
 30
0.0
 11
6.741564
 21
17.601031
 31
0.0
  0
LINE
  8
OBJECT
 10
6.789678
 20
17.891031
 30
0.0
 11
6.741564
 21
17.891031
 31
0.0
  0
LINE
  8
OBJECT
 10
6.741564
 20
17.848515
 30
0.0
 11
6.681486
 21
17.848515
 31
0.0
  0
LINE
  8
OBJECT
 10
6.789678
 20
17.601031
 30
0.0
 11
6.789678
 21
17.891031
 31
0.0
  0
LINE
  8
OBJECT
 10
6.681486
 20
17.891031
 30
0.0
 11
6.681486
 21
17.601031
 31
0.0
  0
LINE
  8
OBJECT
 10
6.633372
 20
17.891031
 30
0.0
 11
6.681486
 21
17.891031
 31
0.0
  0
LINE
  8
OBJECT
 10
6.633372
 20
17.601031
 30
0.0
 11
6.633372
 21
17.891031
 31
0.0
  0
ARC
  8
OBJECT
 10
6.222361
 20
17.601031
 30
0.0
 40
0.1
 50
185.0
 51
270.0
  0
ARC
  8
OBJECT
 10
11.541611
 20
17.601031
 30
0.0
 40
0.1
 50
270.0
 51
355.0
  0
ARC
  8
OBJECT
 10
11.534355
 20
18.901031
 30
0.0
 40
0.1
 50
5.0
 51
90.0
  0
ARC
  8
OBJECT
 10
6.229616
 20
18.901031
 30
0.0
 40
0.1
 50
90.0
 51
175.0
  0
LINE
  8
HIDDEN
 10
9.6806
 20
18.901031
 30
0.0
 11
9.6806
 21
18.611031
 31
0.0
  0
LINE
  8
HIDDEN
 10
9.6806
 20
18.611031
 30
0.0
 11
9.632486
 21
18.611031
 31
0.0
  0
LINE
  8
HIDDEN
 10
9.632486
 20
18.611031
 30
0.0
 11
9.632486
 21
18.901031
 31
0.0
  0
LINE
  8
HIDDEN
 10
9.524294
 20
18.901031
 30
0.0
 11
9.524294
 21
18.611031
 31
0.0
  0
LINE
  8
HIDDEN
 10
9.572408
 20
18.653547
 30
0.0
 11
9.632486
 21
18.653547
 31
0.0
  0
LINE
  8
HIDDEN
 10
9.524294
 20
18.611031
 30
0.0
 11
9.572408
 21
18.611031
 31
0.0
  0
LINE
  8
HIDDEN
 10
9.572408
 20
18.611031
 30
0.0
 11
9.572408
 21
18.901031
 31
0.0
  0
LINE
  8
HIDDEN
 10
10.126986
 20
18.591031
 30
0.0
 11
10.386986
 21
18.591031
 31
0.0
  0
LINE
  8
HIDDEN
 10
11.022408
 20
18.611031
 30
0.0
 11
11.022408
 21
18.901031
 31
0.0
  0
LINE
  8
HIDDEN
 10
10.974294
 20
18.611031
 30
0.0
 11
11.022408
 21
18.611031
 31
0.0
  0
LINE
  8
HIDDEN
 10
11.022408
 20
18.653547
 30
0.0
 11
11.082486
 21
18.653547
 31
0.0
  0
LINE
  8
HIDDEN
 10
10.974294
 20
18.901031
 30
0.0
 11
10.974294
 21
18.611031
 31
0.0
  0
LINE
  8
HIDDEN
 10
11.082486
 20
18.611031
 30
0.0
 11
11.082486
 21
18.901031
 31
0.0
  0
LINE
  8
HIDDEN
 10
11.1306
 20
18.611031
 30
0.0
 11
11.082486
 21
18.611031
 31
0.0
  0
LINE
  8
HIDDEN
 10
11.1306
 20
18.901031
 30
0.0
 11
11.1306
 21
18.611031
 31
0.0
  0
LINE
  8
HIDDEN
 10
11.461986
 20
18.288105
 30
0.0
 11
11.461986
 21
17.601031
 31
0.0
  0
LINE
  8
HIDDEN
 10
11.151986
 20
18.288105
 30
0.0
 11
11.151986
 21
17.601031
 31
0.0
  0
LINE
  8
HIDDEN
 10
11.461986
 20
18.288105
 30
0.0
 11
11.151986
 21
18.288105
 31
0.0
  0
LINE
  8
HIDDEN
 10
11.436986
 20
18.288105
 30
0.0
 11
11.436986
 21
18.901031
 31
0.0
  0
LINE
  8
HIDDEN
 10
11.176986
 20
18.288105
 30
0.0
 11
11.176986
 21
18.901031
 31
0.0
  0
LINE
  8
HIDDEN
 10
11.353986
 20
18.319105
 30
0.0
 11
11.353986
 21
18.901031
 31
0.0
  0
LINE
  8
HIDDEN
 10
11.259986
 20
18.319105
 30
0.0
 11
11.259986
 21
18.901031
 31
0.0
  0
LINE
  8
HIDDEN
 10
10.386986
 20
18.591031
 30
0.0
 11
10.386986
 21
18.901031
 31
0.0
  0
LINE
  8
HIDDEN
 10
10.126986
 20
18.591031
 30
0.0
 11
10.126986
 21
18.901031
 31
0.0
  0
LINE
  8
HIDDEN
 10
10.209986
 20
18.941031
 30
0.0
 11
10.303986
 21
18.941031
 31
0.0
  0
LINE
  8
HIDDEN
 10
10.303986
 20
18.622031
 30
0.0
 11
10.303986
 21
18.941031
 31
0.0
  0
LINE
  8
HIDDEN
 10
10.209986
 20
18.622031
 30
0.0
 11
10.209986
 21
18.941031
 31
0.0
  0
LINE
  8
HIDDEN
 10
11.428986
 20
18.228105
 30
0.0
 11
11.184986
 21
18.228105
 31
0.0
  0
LINE
  8
HIDDEN
 10
11.428986
 20
17.501031
 30
0.0
 11
11.428986
 21
18.228105
 31
0.0
  0
LINE
  8
HIDDEN
 10
11.184986
 20
17.501031
 30
0.0
 11
11.184986
 21
18.228105
 31
0.0
  0
LINE
  8
HIDDEN
 10
11.371986
 20
18.288105
 30
0.0
 11
11.371986
 21
18.228105
 31
0.0
  0
LINE
  8
HIDDEN
 10
11.241986
 20
18.288105
 30
0.0
 11
11.241986
 21
18.228105
 31
0.0
  0
LINE
  8
HIDDEN
 10
10.209986
 20
18.622031
 30
0.0
 11
10.303986
 21
18.622031
 31
0.0
  0
LINE
  8
HIDDEN
 10
10.334986
 20
18.591031
 30
0.0
 11
10.303986
 21
18.622031
 31
0.0
  0
LINE
  8
HIDDEN
 10
10.178986
 20
18.591031
 30
0.0
 11
10.209986
 21
18.622031
 31
0.0
  0
LINE
  8
HIDDEN
 10
11.228986
 20
18.288105
 30
0.0
 11
11.259986
 21
18.319105
 31
0.0
  0
LINE
  8
HIDDEN
 10
11.384986
 20
18.288105
 30
0.0
 11
11.353986
 21
18.319105
 31
0.0
  0
LINE
  8
HIDDEN
 10
11.259986
 20
18.319105
 30
0.0
 11
11.353986
 21
18.319105
 31
0.0
  0
LINE
  8
HIDDEN
 10
10.178986
 20
17.911031
 30
0.0
 11
10.209986
 21
17.880031
 31
0.0
  0
LINE
  8
HIDDEN
 10
10.334986
 20
17.911031
 30
0.0
 11
10.303986
 21
17.880031
 31
0.0
  0
LINE
  8
HIDDEN
 10
10.209986
 20
17.880031
 30
0.0
 11
10.303986
 21
17.880031
 31
0.0
  0
LINE
  8
HIDDEN
 10
10.209986
 20
17.880031
 30
0.0
 11
10.209986
 21
17.561031
 31
0.0
  0
LINE
  8
HIDDEN
 10
10.303986
 20
17.880031
 30
0.0
 11
10.303986
 21
17.561031
 31
0.0
  0
LINE
  8
HIDDEN
 10
10.209986
 20
17.561031
 30
0.0
 11
10.303986
 21
17.561031
 31
0.0
  0
LINE
  8
HIDDEN
 10
10.126986
 20
17.911031
 30
0.0
 11
10.126986
 21
17.601031
 31
0.0
  0
LINE
  8
HIDDEN
 10
10.386986
 20
17.911031
 30
0.0
 11
10.386986
 21
17.601031
 31
0.0
  0
LINE
  8
HIDDEN
 10
10.126986
 20
17.911031
 30
0.0
 11
10.386986
 21
17.911031
 31
0.0
  0
LINE
  8
HIDDEN
 10
8.794535
 20
17.601031
 30
0.0
 11
11.541611
 21
17.601031
 31
0.0
  0
LINE
  8
HIDDEN
 10
11.594866
 20
18.209747
 30
0.0
 11
11.541611
 21
17.601031
 31
0.0
  0
LINE
  8
HIDDEN
 10
11.594866
 20
18.209389
 30
0.0
 11
11.534355
 21
18.901031
 31
0.0
  0
LINE
  8
HIDDEN
 10
8.634528
 20
18.901031
 30
0.0
 11
11.534355
 21
18.901031
 31
0.0
  0
LINE
  8
OBJECT
 10
7.636986
 20
17.911031
 30
0.0
 11
7.376986
 21
17.911031
 31
0.0
  0
LINE
  8
OBJECT
 10
7.376986
 20
17.911031
 30
0.0
 11
7.376986
 21
17.601031
 31
0.0
  0
LINE
  8
OBJECT
 10
7.636986
 20
17.911031
 30
0.0
 11
7.636986
 21
17.601031
 31
0.0
  0
LINE
  8
HIDDEN
 10
7.553986
 20
17.561031
 30
0.0
 11
7.459986
 21
17.561031
 31
0.0
  0
LINE
  8
HIDDEN
 10
7.459986
 20
17.880031
 30
0.0
 11
7.459986
 21
17.561031
 31
0.0
  0
LINE
  8
HIDDEN
 10
7.553986
 20
17.880031
 30
0.0
 11
7.553986
 21
17.561031
 31
0.0
  0
LINE
  8
HIDDEN
 10
7.553986
 20
17.880031
 30
0.0
 11
7.459986
 21
17.880031
 31
0.0
  0
LINE
  8
HIDDEN
 10
7.428986
 20
17.911031
 30
0.0
 11
7.459986
 21
17.880031
 31
0.0
  0
LINE
  8
HIDDEN
 10
7.584986
 20
17.911031
 30
0.0
 11
7.553986
 21
17.880031
 31
0.0
  0
LINE
  8
HIDDEN
 10
6.503986
 20
18.319105
 30
0.0
 11
6.409986
 21
18.319105
 31
0.0
  0
LINE
  8
HIDDEN
 10
6.378986
 20
18.288105
 30
0.0
 11
6.409986
 21
18.319105
 31
0.0
  0
LINE
  8
HIDDEN
 10
6.534986
 20
18.288105
 30
0.0
 11
6.503986
 21
18.319105
 31
0.0
  0
LINE
  8
HIDDEN
 10
7.584986
 20
18.591031
 30
0.0
 11
7.553986
 21
18.622031
 31
0.0
  0
LINE
  8
HIDDEN
 10
7.428986
 20
18.591031
 30
0.0
 11
7.459986
 21
18.622031
 31
0.0
  0
LINE
  8
HIDDEN
 10
7.553986
 20
18.622031
 30
0.0
 11
7.459986
 21
18.622031
 31
0.0
  0
LINE
  8
HIDDEN
 10
6.521986
 20
18.288105
 30
0.0
 11
6.521986
 21
18.228105
 31
0.0
  0
LINE
  8
HIDDEN
 10
6.391986
 20
18.288105
 30
0.0
 11
6.391986
 21
18.228105
 31
0.0
  0
LINE
  8
HIDDEN
 10
6.578986
 20
17.501031
 30
0.0
 11
6.578986
 21
18.228105
 31
0.0
  0
LINE
  8
HIDDEN
 10
6.334986
 20
17.501031
 30
0.0
 11
6.334986
 21
18.228105
 31
0.0
  0
LINE
  8
HIDDEN
 10
6.334986
 20
18.228105
 30
0.0
 11
6.578986
 21
18.228105
 31
0.0
  0
LINE
  8
HIDDEN
 10
7.553986
 20
18.622031
 30
0.0
 11
7.553986
 21
18.941031
 31
0.0
  0
LINE
  8
HIDDEN
 10
7.459986
 20
18.622031
 30
0.0
 11
7.459986
 21
18.941031
 31
0.0
  0
LINE
  8
HIDDEN
 10
7.553986
 20
18.941031
 30
0.0
 11
7.459986
 21
18.941031
 31
0.0
  0
LINE
  8
OBJECT
 10
7.636986
 20
18.591031
 30
0.0
 11
7.636986
 21
18.901031
 31
0.0
  0
LINE
  8
OBJECT
 10
7.376986
 20
18.591031
 30
0.0
 11
7.376986
 21
18.901031
 31
0.0
  0
LINE
  8
HIDDEN
 10
6.503986
 20
18.319105
 30
0.0
 11
6.503986
 21
18.901031
 31
0.0
  0
LINE
  8
HIDDEN
 10
6.409986
 20
18.319105
 30
0.0
 11
6.409986
 21
18.901031
 31
0.0
  0
LINE
  8
OBJECT
 10
6.586986
 20
18.288105
 30
0.0
 11
6.586986
 21
18.901031
 31
0.0
  0
LINE
  8
OBJECT
 10
6.326986
 20
18.288105
 30
0.0
 11
6.326986
 21
18.901031
 31
0.0
  0
LINE
  8
OBJECT
 10
6.301986
 20
18.288105
 30
0.0
 11
6.611986
 21
18.288105
 31
0.0
  0
LINE
  8
OBJECT
 10
6.611986
 20
18.218105
 30
0.0
 11
11.694486
 21
18.218105
 31
0.0
  0
LINE
  8
OBJECT
 10
6.611986
 20
18.201031
 30
0.0
 11
11.694486
 21
18.201031
 31
0.0
  0
LINE
  8
OBJECT
 10
6.611986
 20
18.288105
 30
0.0
 11
6.611986
 21
17.601031
 31
0.0
  0
LINE
  8
OBJECT
 10
6.301986
 20
18.288105
 30
0.0
 11
6.301986
 21
17.601031
 31
0.0
  0
LINE
  8
OBJECT
 10
6.169868
 20
18.218105
 30
0.0
 11
6.301986
 21
18.218105
 31
0.0
  0
LINE
  8
OBJECT
 10
6.169868
 20
18.201031
 30
0.0
 11
6.301986
 21
18.201031
 31
0.0
  0
LINE
  8
OBJECT
 10
6.169868
 20
18.201031
 30
0.0
 11
6.169868
 21
18.288105
 31
0.0
  0
LINE
  8
OBJECT
 10
6.129486
 20
18.218105
 30
0.0
 11
6.129486
 21
18.201031
 31
0.0
  0
LINE
  8
OBJECT
 10
6.129486
 20
18.288105
 30
0.0
 11
6.175992
 21
18.288105
 31
0.0
  0
LINE
  8
OBJECT
 10
6.129486
 20
18.288105
 30
0.0
 11
6.129486
 21
18.218105
 31
0.0
  0
LINE
  8
OBJECT
 10
6.169868
 20
18.201031
 30
0.0
 11
6.222361
 21
17.601031
 31
0.0
  0
LINE
  8
OBJECT
 10
6.175992
 20
18.288105
 30
0.0
 11
6.229616
 21
18.901031
 31
0.0
  0
LINE
  8
OBJECT
 10
6.222361
 20
17.601031
 30
0.0
 11
8.794535
 21
17.601031
 31
0.0
  0
ARC
  8
OBJECT
 10
9.094379
 20
19.016712
 30
0.0
 40
0.470305
 50
181.910684
 51
211.842399
  0
ARC
  8
OBJECT
 10
8.377585
 20
18.571546
 30
0.0
 40
0.373477
 50
324.686192
 51
31.842399
  0
ARC
  8
OBJECT
 10
9.063395
 20
18.085717
 30
0.0
 40
0.466979
 50
144.686192
 51
209.588998
  0
ARC
  8
OBJECT
 10
22.927597
 20
25.958159
 30
0.0
 40
16.410361
 50
209.588998
 51
211.021049
  0
LINE
  8
OBJECT
 10
6.069486
 20
18.201031
 30
0.0
 11
6.129486
 21
18.201031
 31
0.0
  0
LINE
  8
OBJECT
 10
6.069486
 20
18.218105
 30
0.0
 11
6.129486
 21
18.218105
 31
0.0
  0
LINE
  8
OBJECT
 10
11.694486
 20
18.201031
 30
0.0
 11
11.64123
 21
17.592316
 31
0.0
  0
LINE
  8
OBJECT
 10
6.069486
 20
18.201031
 30
0.0
 11
6.122741
 21
17.592316
 31
0.0
  0
LINE
  8
OBJECT
 10
6.222361
 20
17.501031
 30
0.0
 11
11.541611
 21
17.501031
 31
0.0
  0
LINE
  8
OBJECT
 10
7.636986
 20
18.591031
 30
0.0
 11
7.376986
 21
18.591031
 31
0.0
  0
LINE
  8
OBJECT
 10
6.229616
 20
18.901031
 30
0.0
 11
8.634528
 21
18.901031
 31
0.0
  0
LINE
  8
CENTER
 10
8.881986
 20
19.114654
 30
0.0
 11
8.881986
 21
17.387408
 31
0.0
  0
LINE
  8
OBJECT
 10
6.069486
 20
18.218105
 30
0.0
 11
6.129997
 21
18.909747
 31
0.0
  0
LINE
  8
OBJECT
 10
11.694486
 20
18.218105
 30
0.0
 11
11.633975
 21
18.909747
 31
0.0
  0
LINE
  8
OBJECT
 10
6.229616
 20
19.001031
 30
0.0
 11
11.534355
 21
19.001031
 31
0.0
  0
LINE
  8
OBJECT
 10
8.191564
 20
18.611031
 30
0.0
 11
8.191564
 21
18.901031
 31
0.0
  0
LINE
  8
OBJECT
 10
8.239678
 20
18.611031
 30
0.0
 11
8.191564
 21
18.611031
 31
0.0
  0
LINE
  8
OBJECT
 10
8.191564
 20
18.653547
 30
0.0
 11
8.131486
 21
18.653547
 31
0.0
  0
LINE
  8
OBJECT
 10
8.239678
 20
18.901031
 30
0.0
 11
8.239678
 21
18.611031
 31
0.0
  0
LINE
  8
OBJECT
 10
8.131486
 20
18.611031
 30
0.0
 11
8.131486
 21
18.901031
 31
0.0
  0
LINE
  8
OBJECT
 10
8.083372
 20
18.611031
 30
0.0
 11
8.131486
 21
18.611031
 31
0.0
  0
LINE
  8
OBJECT
 10
8.083372
 20
18.901031
 30
0.0
 11
8.083372
 21
18.611031
 31
0.0
  0
LINE
  8
OBJECT
 10
8.083372
 20
17.601031
 30
0.0
 11
8.083372
 21
17.891031
 31
0.0
  0
LINE
  8
OBJECT
 10
8.083372
 20
17.891031
 30
0.0
 11
8.131486
 21
17.891031
 31
0.0
  0
LINE
  8
OBJECT
 10
8.131486
 20
17.891031
 30
0.0
 11
8.131486
 21
17.601031
 31
0.0
  0
LINE
  8
OBJECT
 10
8.239678
 20
17.601031
 30
0.0
 11
8.239678
 21
17.891031
 31
0.0
  0
LINE
  8
OBJECT
 10
8.191564
 20
17.848515
 30
0.0
 11
8.131486
 21
17.848515
 31
0.0
  0
LINE
  8
OBJECT
 10
8.239678
 20
17.891031
 30
0.0
 11
8.191564
 21
17.891031
 31
0.0
  0
LINE
  8
OBJECT
 10
8.191564
 20
17.891031
 30
0.0
 11
8.191564
 21
17.601031
 31
0.0
  0
TEXT
  8
TEXT
 10
9.961095
 20
20.175257
 30
0.0
 40
0.25
  1
PS-11325
 41
0.75
 72
     1
 11
10.617345
 21
20.175257
 31
0.0
  0
TEXT
  8
TEXT
 10
0.932793
 20
18.617417
 30
0.0
 40
0.167
  1
SMOOTH TOP INSERT
 41
0.75
  0
LINE
  8
CENTER
 10
8.432872
 20
4.18847
 30
0.0
 11
8.432872
 21
1.341027
 31
0.0
  0
LINE
  8
OBJECT
 10
9.547872
 20
2.014749
 30
0.0
 11
8.307872
 21
2.014749
 31
0.0
  0
LINE
  8
OBJECT
 10
9.547872
 20
3.514749
 30
0.0
 11
8.307872
 21
3.514749
 31
0.0
  0
LINE
  8
OBJECT
 10
9.547872
 20
3.524749
 30
0.0
 11
9.547872
 21
2.004749
 31
0.0
  0
LINE
  8
OBJECT
 10
8.307872
 20
3.524749
 30
0.0
 11
8.307872
 21
2.004749
 31
0.0
  0
CIRCLE
  8
OBJECT
 10
7.007872
 20
2.014749
 30
0.0
 40
0.0465
  0
CIRCLE
  8
OBJECT
 10
7.007872
 20
2.014749
 30
0.0
 40
0.078
  0
CIRCLE
  8
OBJECT
 10
7.007872
 20
2.014749
 30
0.0
 40
0.13
  0
CIRCLE
  8
OBJECT
 10
7.007872
 20
3.514749
 30
0.0
 40
0.13
  0
CIRCLE
  8
OBJECT
 10
7.007872
 20
3.514749
 30
0.0
 40
0.078
  0
CIRCLE
  8
OBJECT
 10
9.857872
 20
2.014749
 30
0.0
 40
0.1225
  0
CIRCLE
  8
OBJECT
 10
9.857872
 20
3.514749
 30
0.0
 40
0.1225
  0
CIRCLE
  8
OBJECT
 10
9.857872
 20
3.514749
 30
0.0
 40
0.0465
  0
CIRCLE
  8
OBJECT
 10
9.857872
 20
2.014749
 30
0.0
 40
0.0465
  0
LINE
  8
HIDDEN
 10
9.622794
 20
1.97813
 30
0.0
 11
9.622794
 21
1.765758
 31
0.0
  0
LINE
  8
HIDDEN
 10
9.57518
 20
1.97813
 30
0.0
 11
9.622794
 21
1.97813
 31
0.0
  0
LINE
  8
HIDDEN
 10
9.622794
 20
1.884518
 30
0.0
 11
9.682872
 21
1.884518
 31
0.0
  0
LINE
  8
HIDDEN
 10
9.57518
 20
1.765758
 30
0.0
 11
9.57518
 21
1.97813
 31
0.0
  0
LINE
  8
HIDDEN
 10
9.682872
 20
1.97813
 30
0.0
 11
9.682872
 21
1.765758
 31
0.0
  0
LINE
  8
HIDDEN
 10
9.731486
 20
1.97813
 30
0.0
 11
9.682872
 21
1.97813
 31
0.0
  0
LINE
  8
HIDDEN
 10
9.731486
 20
1.765758
 30
0.0
 11
9.731486
 21
1.97813
 31
0.0
  0
LINE
  8
OBJECT
 10
8.062872
 20
7.041702
 30
0.0
 11
7.802872
 21
7.041702
 31
0.0
  0
LINE
  8
OBJECT
 10
7.24295
 20
7.021702
 30
0.0
 11
7.24295
 21
6.731702
 31
0.0
  0
LINE
  8
OBJECT
 10
7.291064
 20
7.021702
 30
0.0
 11
7.24295
 21
7.021702
 31
0.0
  0
LINE
  8
OBJECT
 10
7.24295
 20
6.979186
 30
0.0
 11
7.182872
 21
6.979186
 31
0.0
  0
LINE
  8
OBJECT
 10
7.291064
 20
6.731702
 30
0.0
 11
7.291064
 21
7.021702
 31
0.0
  0
LINE
  8
OBJECT
 10
7.182872
 20
7.021702
 30
0.0
 11
7.182872
 21
6.731702
 31
0.0
  0
LINE
  8
OBJECT
 10
7.162872
 20
7.021702
 30
0.0
 11
7.182872
 21
7.021702
 31
0.0
  0
LINE
  8
OBJECT
 10
7.802872
 20
7.041702
 30
0.0
 11
7.802872
 21
6.731702
 31
0.0
  0
LINE
  8
OBJECT
 10
8.062872
 20
7.041702
 30
0.0
 11
8.062872
 21
6.731702
 31
0.0
  0
LINE
  8
HIDDEN
 10
7.979872
 20
6.691702
 30
0.0
 11
7.885872
 21
6.691702
 31
0.0
  0
LINE
  8
HIDDEN
 10
7.885872
 20
7.010702
 30
0.0
 11
7.885872
 21
6.691702
 31
0.0
  0
LINE
  8
HIDDEN
 10
7.979872
 20
7.010702
 30
0.0
 11
7.979872
 21
6.691702
 31
0.0
  0
LINE
  8
HIDDEN
 10
7.979872
 20
7.010702
 30
0.0
 11
7.885872
 21
7.010702
 31
0.0
  0
LINE
  8
HIDDEN
 10
7.854872
 20
7.041702
 30
0.0
 11
7.885872
 21
7.010702
 31
0.0
  0
LINE
  8
HIDDEN
 10
8.010872
 20
7.041702
 30
0.0
 11
7.979872
 21
7.010702
 31
0.0
  0
LINE
  8
HIDDEN
 10
9.731486
 20
3.763739
 30
0.0
 11
9.731486
 21
3.551367
 31
0.0
  0
LINE
  8
HIDDEN
 10
9.731486
 20
3.551367
 30
0.0
 11
9.682872
 21
3.551367
 31
0.0
  0
LINE
  8
HIDDEN
 10
9.682872
 20
3.551367
 30
0.0
 11
9.682872
 21
3.738335
 31
0.0
  0
LINE
  8
HIDDEN
 10
9.57518
 20
3.763739
 30
0.0
 11
9.57518
 21
3.551367
 31
0.0
  0
LINE
  8
HIDDEN
 10
9.622794
 20
3.64498
 30
0.0
 11
9.682872
 21
3.64498
 31
0.0
  0
LINE
  8
HIDDEN
 10
9.57518
 20
3.551367
 30
0.0
 11
9.622794
 21
3.551367
 31
0.0
  0
LINE
  8
HIDDEN
 10
9.622794
 20
3.551367
 30
0.0
 11
9.622794
 21
3.763739
 31
0.0
  0
LINE
  8
OBJECT
 10
3.40451
 20
1.782285
 30
0.0
 11
3.40451
 21
1.722285
 31
0.0
  0
LINE
  8
OBJECT
 10
3.42151
 20
1.782285
 30
0.0
 11
3.42151
 21
1.722285
 31
0.0
  0
LINE
  8
OBJECT
 10
3.40451
 20
1.822667
 30
0.0
 11
3.40451
 21
1.947285
 31
0.0
  0
LINE
  8
HIDDEN
 10
3.303437
 20
2.149285
 30
0.0
 11
3.303437
 21
2.055285
 31
0.0
  0
LINE
  8
HIDDEN
 10
3.334437
 20
2.024285
 30
0.0
 11
3.303437
 21
2.055285
 31
0.0
  0
LINE
  8
HIDDEN
 10
3.334437
 20
2.180285
 30
0.0
 11
3.303437
 21
2.149285
 31
0.0
  0
LINE
  8
HIDDEN
 10
3.334437
 20
2.167285
 30
0.0
 11
3.394437
 21
2.167285
 31
0.0
  0
LINE
  8
HIDDEN
 10
3.334437
 20
2.037285
 30
0.0
 11
3.394437
 21
2.037285
 31
0.0
  0
LINE
  8
HIDDEN
 10
4.12151
 20
2.224285
 30
0.0
 11
3.394437
 21
2.224285
 31
0.0
  0
LINE
  8
HIDDEN
 10
4.12151
 20
1.980285
 30
0.0
 11
3.394437
 21
1.980285
 31
0.0
  0
LINE
  8
HIDDEN
 10
3.394437
 20
1.980285
 30
0.0
 11
3.394437
 21
2.224285
 31
0.0
  0
LINE
  8
HIDDEN
 10
3.303437
 20
2.149285
 30
0.0
 11
1.721437
 21
2.149285
 31
0.0
  0
LINE
  8
HIDDEN
 10
3.303437
 20
2.055285
 30
0.0
 11
1.721437
 21
2.055285
 31
0.0
  0
LINE
  8
OBJECT
 10
3.334437
 20
2.232285
 30
0.0
 11
1.721437
 21
2.232285
 31
0.0
  0
LINE
  8
OBJECT
 10
3.334437
 20
1.972285
 30
0.0
 11
1.72151
 21
1.972285
 31
0.0
  0
LINE
  8
OBJECT
 10
3.334437
 20
1.947285
 30
0.0
 11
3.334437
 21
2.257285
 31
0.0
  0
LINE
  8
OBJECT
 10
3.334437
 20
2.257285
 30
0.0
 11
4.02151
 21
2.257285
 31
0.0
  0
LINE
  8
OBJECT
 10
3.334437
 20
1.947285
 30
0.0
 11
3.731584
 21
1.947285
 31
0.0
  0
LINE
  8
OBJECT
 10
3.404437
 20
1.822667
 30
0.0
 11
3.404437
 21
1.947285
 31
0.0
  0
LINE
  8
OBJECT
 10
3.42151
 20
1.822667
 30
0.0
 11
3.42151
 21
1.947285
 31
0.0
  0
LINE
  8
OBJECT
 10
3.42151
 20
1.822667
 30
0.0
 11
3.334437
 21
1.822667
 31
0.0
  0
LINE
  8
OBJECT
 10
3.404437
 20
1.782285
 30
0.0
 11
3.42151
 21
1.782285
 31
0.0
  0
LINE
  8
OBJECT
 10
3.334437
 20
1.782285
 30
0.0
 11
3.334437
 21
1.828791
 31
0.0
  0
LINE
  8
OBJECT
 10
3.334437
 20
1.782285
 30
0.0
 11
3.404437
 21
1.782285
 31
0.0
  0
LINE
  8
OBJECT
 10
3.42151
 20
1.822667
 30
0.0
 11
4.02151
 21
1.87516
 31
0.0
  0
LINE
  8
OBJECT
 10
3.334437
 20
1.828791
 30
0.0
 11
1.72151
 21
1.969904
 31
0.0
  0
LINE
  8
OBJECT
 10
3.42151
 20
1.722285
 30
0.0
 11
3.42151
 21
1.782285
 31
0.0
  0
LINE
  8
OBJECT
 10
3.404437
 20
1.722285
 30
0.0
 11
3.404437
 21
1.782285
 31
0.0
  0
LINE
  8
OBJECT
 10
3.42151
 20
1.722285
 30
0.0
 11
4.030226
 21
1.77554
 31
0.0
  0
LINE
  8
OBJECT
 10
3.404437
 20
1.722285
 30
0.0
 11
1.712795
 21
1.870284
 31
0.0
  0
LINE
  8
OBJECT
 10
3.40451
 20
3.437285
 30
0.0
 11
3.40451
 21
2.257285
 31
0.0
  0
LINE
  8
OBJECT
 10
3.42151
 20
3.437285
 30
0.0
 11
3.42151
 21
2.257285
 31
0.0
  0
LINE
  8
OBJECT
 10
3.404437
 20
3.972285
 30
0.0
 11
1.712795
 21
3.824285
 31
0.0
  0
LINE
  8
OBJECT
 10
3.42151
 20
3.972285
 30
0.0
 11
4.030226
 21
3.919029
 31
0.0
  0
LINE
  8
OBJECT
 10
3.404437
 20
3.972285
 30
0.0
 11
3.404437
 21
3.912285
 31
0.0
  0
LINE
  8
OBJECT
 10
3.42151
 20
3.972285
 30
0.0
 11
3.42151
 21
3.912285
 31
0.0
  0
LINE
  8
OBJECT
 10
3.334437
 20
3.865778
 30
0.0
 11
1.72151
 21
3.724666
 31
0.0
  0
LINE
  8
OBJECT
 10
3.42151
 20
3.871903
 30
0.0
 11
4.02151
 21
3.819409
 31
0.0
  0
LINE
  8
OBJECT
 10
3.334437
 20
3.912285
 30
0.0
 11
3.404437
 21
3.912285
 31
0.0
  0
LINE
  8
OBJECT
 10
3.334437
 20
3.912285
 30
0.0
 11
3.334437
 21
3.865778
 31
0.0
  0
LINE
  8
OBJECT
 10
3.404437
 20
3.912285
 30
0.0
 11
3.42151
 21
3.912285
 31
0.0
  0
LINE
  8
OBJECT
 10
3.42151
 20
3.871903
 30
0.0
 11
3.334437
 21
3.871903
 31
0.0
  0
LINE
  8
OBJECT
 10
3.42151
 20
3.871903
 30
0.0
 11
3.42151
 21
3.747285
 31
0.0
  0
LINE
  8
OBJECT
 10
3.404437
 20
3.871903
 30
0.0
 11
3.404437
 21
3.747285
 31
0.0
  0
LINE
  8
OBJECT
 10
3.334437
 20
3.747285
 30
0.0
 11
3.731584
 21
3.747285
 31
0.0
  0
LINE
  8
OBJECT
 10
3.334437
 20
3.437285
 30
0.0
 11
4.02151
 21
3.437285
 31
0.0
  0
LINE
  8
OBJECT
 10
3.334437
 20
3.747285
 30
0.0
 11
3.334437
 21
3.437285
 31
0.0
  0
LINE
  8
OBJECT
 10
3.334437
 20
3.722285
 30
0.0
 11
1.72151
 21
3.722285
 31
0.0
  0
LINE
  8
OBJECT
 10
3.334437
 20
3.462285
 30
0.0
 11
1.721437
 21
3.462285
 31
0.0
  0
LINE
  8
HIDDEN
 10
3.303437
 20
3.639285
 30
0.0
 11
1.721437
 21
3.639285
 31
0.0
  0
LINE
  8
HIDDEN
 10
3.303437
 20
3.545285
 30
0.0
 11
1.721437
 21
3.545285
 31
0.0
  0
LINE
  8
HIDDEN
 10
3.394437
 20
3.714285
 30
0.0
 11
3.394437
 21
3.470285
 31
0.0
  0
LINE
  8
HIDDEN
 10
4.12151
 20
3.714285
 30
0.0
 11
3.394437
 21
3.714285
 31
0.0
  0
LINE
  8
HIDDEN
 10
4.12151
 20
3.470285
 30
0.0
 11
3.394437
 21
3.470285
 31
0.0
  0
LINE
  8
HIDDEN
 10
3.334437
 20
3.657285
 30
0.0
 11
3.394437
 21
3.657285
 31
0.0
  0
LINE
  8
HIDDEN
 10
3.334437
 20
3.527285
 30
0.0
 11
3.394437
 21
3.527285
 31
0.0
  0
LINE
  8
HIDDEN
 10
3.334437
 20
3.514285
 30
0.0
 11
3.303437
 21
3.545285
 31
0.0
  0
LINE
  8
HIDDEN
 10
3.334437
 20
3.670285
 30
0.0
 11
3.303437
 21
3.639285
 31
0.0
  0
LINE
  8
HIDDEN
 10
3.303437
 20
3.545285
 30
0.0
 11
3.303437
 21
3.639285
 31
0.0
  0
CIRCLE
  8
OBJECT
 10
7.932872
 20
2.014749
 30
0.0
 40
0.078
  0
LINE
  8
HIDDEN
 10
7.054872
 20
7.449776
 30
0.0
 11
6.960872
 21
7.449776
 31
0.0
  0
LINE
  8
HIDDEN
 10
6.929872
 20
7.418776
 30
0.0
 11
6.960872
 21
7.449776
 31
0.0
  0
LINE
  8
HIDDEN
 10
7.085872
 20
7.418776
 30
0.0
 11
7.054872
 21
7.449776
 31
0.0
  0
LINE
  8
HIDDEN
 10
8.010872
 20
8.721702
 30
0.0
 11
7.979872
 21
8.752702
 31
0.0
  0
LINE
  8
HIDDEN
 10
7.854872
 20
8.721702
 30
0.0
 11
7.885872
 21
8.752702
 31
0.0
  0
LINE
  8
HIDDEN
 10
7.979872
 20
8.752702
 30
0.0
 11
7.885872
 21
8.752702
 31
0.0
  0
LINE
  8
HIDDEN
 10
7.072872
 20
7.418776
 30
0.0
 11
7.072872
 21
7.358776
 31
0.0
  0
LINE
  8
HIDDEN
 10
6.942872
 20
7.418776
 30
0.0
 11
6.942872
 21
7.358776
 31
0.0
  0
LINE
  8
HIDDEN
 10
7.129872
 20
6.631702
 30
0.0
 11
7.129872
 21
7.358776
 31
0.0
  0
LINE
  8
HIDDEN
 10
6.885872
 20
6.631702
 30
0.0
 11
6.885872
 21
7.358776
 31
0.0
  0
LINE
  8
HIDDEN
 10
6.885872
 20
7.358776
 30
0.0
 11
7.129872
 21
7.358776
 31
0.0
  0
LINE
  8
HIDDEN
 10
7.979872
 20
8.752702
 30
0.0
 11
7.979872
 21
9.071702
 31
0.0
  0
LINE
  8
HIDDEN
 10
7.885872
 20
8.752702
 30
0.0
 11
7.885872
 21
9.071702
 31
0.0
  0
LINE
  8
HIDDEN
 10
7.979872
 20
9.071702
 30
0.0
 11
7.885872
 21
9.071702
 31
0.0
  0
LINE
  8
OBJECT
 10
8.062872
 20
8.721702
 30
0.0
 11
8.062872
 21
9.031702
 31
0.0
  0
LINE
  8
OBJECT
 10
7.802872
 20
8.721702
 30
0.0
 11
7.802872
 21
9.031702
 31
0.0
  0
LINE
  8
HIDDEN
 10
7.054872
 20
7.449776
 30
0.0
 11
7.054872
 21
9.031702
 31
0.0
  0
LINE
  8
HIDDEN
 10
6.960872
 20
7.449776
 30
0.0
 11
6.960872
 21
9.031702
 31
0.0
  0
LINE
  8
OBJECT
 10
7.137872
 20
7.418776
 30
0.0
 11
7.137872
 21
9.031702
 31
0.0
  0
LINE
  8
OBJECT
 10
6.877872
 20
7.418776
 30
0.0
 11
6.877872
 21
9.031702
 31
0.0
  0
LINE
  8
OBJECT
 10
6.852872
 20
7.418776
 30
0.0
 11
7.162872
 21
7.418776
 31
0.0
  0
LINE
  8
OBJECT
 10
7.162872
 20
7.348776
 30
0.0
 11
10.232872
 21
7.348776
 31
0.0
  0
LINE
  8
OBJECT
 10
7.162872
 20
7.331702
 30
0.0
 11
10.232872
 21
7.331702
 31
0.0
  0
LINE
  8
OBJECT
 10
7.162872
 20
7.418776
 30
0.0
 11
7.162872
 21
6.731702
 31
0.0
  0
LINE
  8
OBJECT
 10
6.852872
 20
7.418776
 30
0.0
 11
6.852872
 21
6.731702
 31
0.0
  0
CIRCLE
  8
OBJECT
 10
7.007872
 20
3.514749
 30
0.0
 40
0.0465
  0
CIRCLE
  8
OBJECT
 10
7.932872
 20
2.014749
 30
0.0
 40
0.0465
  0
ARC
  8
HIDDEN
 10
10.127872
 20
1.744749
 30
0.0
 40
0.04
 50
270.0
 51
0.0
  0
ARC
  8
HIDDEN
 10
10.127872
 20
3.784749
 30
0.0
 40
0.04
 50
0.0
 51
90.0
  0
ARC
  8
OBJECT
 10
6.737872
 20
1.744749
 30
0.0
 40
0.04
 50
180.0
 51
270.0
  0
ARC
  8
OBJECT
 10
6.737872
 20
3.784749
 30
0.0
 40
0.04
 50
90.0
 51
180.0
  0
LINE
  8
OBJECT
 10
6.733254
 20
7.348776
 30
0.0
 11
6.852872
 21
7.348776
 31
0.0
  0
LINE
  8
OBJECT
 10
6.733254
 20
7.331702
 30
0.0
 11
6.852872
 21
7.331702
 31
0.0
  0
LINE
  8
OBJECT
 10
6.733254
 20
7.331702
 30
0.0
 11
6.733254
 21
7.418776
 31
0.0
  0
LINE
  8
OBJECT
 10
6.692872
 20
7.348776
 30
0.0
 11
6.692872
 21
7.331702
 31
0.0
  0
LINE
  8
OBJECT
 10
6.692872
 20
7.418776
 30
0.0
 11
6.739378
 21
7.418776
 31
0.0
  0
LINE
  8
OBJECT
 10
6.692872
 20
7.418776
 30
0.0
 11
6.692872
 21
7.348776
 31
0.0
  0
LINE
  8
OBJECT
 10
6.733254
 20
7.331702
 30
0.0
 11
6.785747
 21
6.731702
 31
0.0
  0
LINE
  8
OBJECT
 10
6.739378
 20
7.418776
 30
0.0
 11
6.880491
 21
9.031702
 31
0.0
  0
CIRCLE
  8
HIDDEN
 10
8.932872
 20
3.514749
 30
0.0
 40
0.13
  0
CIRCLE
  8
HIDDEN
 10
8.932872
 20
2.014749
 30
0.0
 40
0.13
  0
LINE
  8
HIDDEN
 10
10.132872
 20
3.789749
 30
0.0
 11
10.132872
 21
1.739749
 31
0.0
  0
LINE
  8
HIDDEN
 10
10.167872
 20
3.784749
 30
0.0
 11
10.167872
 21
1.744749
 31
0.0
  0
LINE
  8
HIDDEN
 10
7.086741
 20
3.789749
 30
0.0
 11
10.132872
 21
3.789749
 31
0.0
  0
LINE
  8
HIDDEN
 10
7.083799
 20
3.824749
 30
0.0
 11
10.127872
 21
3.824749
 31
0.0
  0
LINE
  8
HIDDEN
 10
8.20245
 20
1.739749
 30
0.0
 11
10.132872
 21
1.739749
 31
0.0
  0
LINE
  8
HIDDEN
 10
8.159534
 20
1.704749
 30
0.0
 11
10.127872
 21
1.704749
 31
0.0
  0
LINE
  8
CENTER
 10
10.509965
 20
2.764749
 30
0.0
 11
6.355779
 21
2.764749
 31
0.0
  0
LINE
  8
HIDDEN
 10
7.24295
 20
3.551367
 30
0.0
 11
7.24295
 21
3.763739
 31
0.0
  0
LINE
  8
HIDDEN
 10
7.290564
 20
3.551367
 30
0.0
 11
7.24295
 21
3.551367
 31
0.0
  0
LINE
  8
HIDDEN
 10
7.24295
 20
3.64498
 30
0.0
 11
7.182872
 21
3.64498
 31
0.0
  0
LINE
  8
HIDDEN
 10
7.290564
 20
3.763739
 30
0.0
 11
7.290564
 21
3.551367
 31
0.0
  0
LINE
  8
HIDDEN
 10
7.182872
 20
3.551367
 30
0.0
 11
7.182872
 21
3.763739
 31
0.0
  0
LINE
  8
HIDDEN
 10
7.134258
 20
3.551367
 30
0.0
 11
7.182872
 21
3.551367
 31
0.0
  0
LINE
  8
HIDDEN
 10
7.134258
 20
3.763739
 30
0.0
 11
7.134258
 21
3.551367
 31
0.0
  0
LINE
  8
OBJECT
 10
4.02151
 20
3.819409
 30
0.0
 11
4.02151
 21
1.87516
 31
0.0
  0
LINE
  8
OBJECT
 10
6.785747
 20
6.731702
 30
0.0
 11
8.208365
 21
6.731702
 31
0.0
  0
LINE
  8
OBJECT
 10
4.12151
 20
3.819409
 30
0.0
 11
4.12151
 21
1.87516
 31
0.0
  0
LINE
  8
OBJECT
 10
3.40451
 20
3.871903
 30
0.0
 11
3.40451
 21
3.747285
 31
0.0
  0
LINE
  8
OBJECT
 10
6.632872
 20
7.331702
 30
0.0
 11
6.692872
 21
7.331702
 31
0.0
  0
LINE
  8
OBJECT
 10
6.632872
 20
7.348776
 30
0.0
 11
6.692872
 21
7.348776
 31
0.0
  0
LINE
  8
OBJECT
 10
10.232872
 20
7.331702
 30
0.0
 11
10.179616
 21
6.722987
 31
0.0
  0
LINE
  8
OBJECT
 10
6.632872
 20
7.331702
 30
0.0
 11
6.686128
 21
6.722987
 31
0.0
  0
LINE
  8
OBJECT
 10
6.785747
 20
6.631702
 30
0.0
 11
10.079997
 21
6.631702
 31
0.0
  0
LINE
  8
OBJECT
 10
8.159534
 20
1.704749
 30
0.0
 11
6.737872
 21
1.704749
 31
0.0
  0
LINE
  8
OBJECT
 10
6.697872
 20
3.784749
 30
0.0
 11
6.697872
 21
1.744749
 31
0.0
  0
LINE
  8
OBJECT
 10
7.083799
 20
3.824749
 30
0.0
 11
6.737872
 21
3.824749
 31
0.0
  0
LINE
  8
OBJECT
 10
8.062872
 20
8.721702
 30
0.0
 11
7.802872
 21
8.721702
 31
0.0
  0
CIRCLE
  8
OBJECT
 10
7.932872
 20
2.014749
 30
0.0
 40
0.13
  0
CIRCLE
  8
HIDDEN
 10
7.932872
 20
3.514749
 30
0.0
 40
0.13
  0
LINE
  8
OBJECT
 10
1.72151
 20
1.969904
 30
0.0
 11
1.72151
 21
3.724666
 31
0.0
  0
LINE
  8
OBJECT
 10
6.880491
 20
9.031702
 30
0.0
 11
8.359892
 21
9.031702
 31
0.0
  0
LINE
  8
CENTER
 10
1.479946
 20
2.847285
 30
0.0
 11
4.209122
 21
2.847285
 31
0.0
  0
LINE
  8
CENTER
 10
8.432872
 20
9.228623
 30
0.0
 11
8.432872
 21
6.499977
 31
0.0
  0
LINE
  8
OBJECT
 10
6.632872
 20
7.348776
 30
0.0
 11
6.780871
 21
9.040418
 31
0.0
  0
LINE
  8
OBJECT
 10
10.232872
 20
7.348776
 30
0.0
 11
10.084872
 21
9.040418
 31
0.0
  0
LINE
  8
OBJECT
 10
1.62151
 20
1.969904
 30
0.0
 11
1.62151
 21
3.724666
 31
0.0
  0
LINE
  8
OBJECT
 10
6.880491
 20
9.131702
 30
0.0
 11
9.985253
 21
9.131702
 31
0.0
  0
ARC
  8
OBJECT
 10
10.182872
 20
3.839749
 30
0.0
 40
0.05
 50
0.0
 51
90.0
  0
ARC
  8
OBJECT
 10
6.682872
 20
3.839749
 30
0.0
 40
0.05
 50
90.0
 51
180.0
  0
ARC
  8
OBJECT
 10
6.682872
 20
1.689749
 30
0.0
 40
0.05
 50
180.0
 51
270.0
  0
ARC
  8
OBJECT
 10
10.182872
 20
1.689749
 30
0.0
 40
0.05
 50
270.0
 51
0.0
  0
LINE
  8
OBJECT
 10
8.20245
 20
1.739749
 30
0.0
 11
6.732872
 21
1.739749
 31
0.0
  0
LINE
  8
OBJECT
 10
6.732872
 20
3.789749
 30
0.0
 11
6.732872
 21
1.739749
 31
0.0
  0
LINE
  8
OBJECT
 10
7.086741
 20
3.789749
 30
0.0
 11
6.732872
 21
3.789749
 31
0.0
  0
LINE
  8
OBJECT
 10
10.182872
 20
3.889749
 30
0.0
 11
6.682872
 21
3.889749
 31
0.0
  0
LINE
  8
OBJECT
 10
10.232872
 20
3.839749
 30
0.0
 11
10.232872
 21
1.689749
 31
0.0
  0
LINE
  8
OBJECT
 10
10.182872
 20
1.639749
 30
0.0
 11
6.682872
 21
1.639749
 31
0.0
  0
LINE
  8
OBJECT
 10
6.632872
 20
3.839749
 30
0.0
 11
6.632872
 21
1.689749
 31
0.0
  0
LINE
  8
OBJECT
 10
3.731584
 20
2.036794
 30
0.0
 11
3.731584
 21
1.849794
 31
0.0
  0
LINE
  8
OBJECT
 10
3.731584
 20
2.036794
 30
0.0
 11
4.02151
 21
2.062166
 31
0.0
  0
LINE
  8
OBJECT
 10
3.731584
 20
3.657775
 30
0.0
 11
3.731584
 21
3.844775
 31
0.0
  0
LINE
  8
OBJECT
 10
3.731584
 20
3.657775
 30
0.0
 11
4.02151
 21
3.632403
 31
0.0
  0
LINE
  8
HIDDEN
 10
8.359892
 20
9.031702
 30
0.0
 11
9.985253
 21
9.031702
 31
0.0
  0
LINE
  8
HIDDEN
 10
10.133252
 20
7.34006
 30
0.0
 11
9.985253
 21
9.031702
 31
0.0
  0
LINE
  8
HIDDEN
 10
10.133252
 20
7.340418
 30
0.0
 11
10.079997
 21
6.731702
 31
0.0
  0
LINE
  8
HIDDEN
 10
8.208365
 20
6.731702
 30
0.0
 11
10.079997
 21
6.731702
 31
0.0
  0
LINE
  8
HIDDEN
 10
8.802872
 20
8.721702
 30
0.0
 11
9.062872
 21
8.721702
 31
0.0
  0
LINE
  8
HIDDEN
 10
10.012872
 20
7.418776
 30
0.0
 11
10.012872
 21
6.731702
 31
0.0
  0
LINE
  8
HIDDEN
 10
9.702872
 20
7.418776
 30
0.0
 11
9.702872
 21
6.731702
 31
0.0
  0
LINE
  8
HIDDEN
 10
10.012872
 20
7.418776
 30
0.0
 11
9.702872
 21
7.418776
 31
0.0
  0
LINE
  8
HIDDEN
 10
9.987872
 20
7.418776
 30
0.0
 11
9.987872
 21
9.031702
 31
0.0
  0
LINE
  8
HIDDEN
 10
9.727872
 20
7.418776
 30
0.0
 11
9.727872
 21
9.031702
 31
0.0
  0
LINE
  8
HIDDEN
 10
9.904872
 20
7.449776
 30
0.0
 11
9.904872
 21
9.031702
 31
0.0
  0
LINE
  8
HIDDEN
 10
9.810872
 20
7.449776
 30
0.0
 11
9.810872
 21
9.031702
 31
0.0
  0
LINE
  8
HIDDEN
 10
9.062872
 20
8.721702
 30
0.0
 11
9.062872
 21
9.031702
 31
0.0
  0
LINE
  8
HIDDEN
 10
8.802872
 20
8.721702
 30
0.0
 11
8.802872
 21
9.031702
 31
0.0
  0
LINE
  8
HIDDEN
 10
8.885872
 20
9.071702
 30
0.0
 11
8.979872
 21
9.071702
 31
0.0
  0
LINE
  8
HIDDEN
 10
8.979872
 20
8.752702
 30
0.0
 11
8.979872
 21
9.071702
 31
0.0
  0
LINE
  8
HIDDEN
 10
8.885872
 20
8.752702
 30
0.0
 11
8.885872
 21
9.071702
 31
0.0
  0
LINE
  8
HIDDEN
 10
9.979872
 20
7.358776
 30
0.0
 11
9.735872
 21
7.358776
 31
0.0
  0
LINE
  8
HIDDEN
 10
9.979872
 20
6.631702
 30
0.0
 11
9.979872
 21
7.358776
 31
0.0
  0
LINE
  8
HIDDEN
 10
9.735872
 20
6.631702
 30
0.0
 11
9.735872
 21
7.358776
 31
0.0
  0
LINE
  8
HIDDEN
 10
9.922872
 20
7.418776
 30
0.0
 11
9.922872
 21
7.358776
 31
0.0
  0
LINE
  8
HIDDEN
 10
9.792872
 20
7.418776
 30
0.0
 11
9.792872
 21
7.358776
 31
0.0
  0
LINE
  8
HIDDEN
 10
8.885872
 20
8.752702
 30
0.0
 11
8.979872
 21
8.752702
 31
0.0
  0
LINE
  8
HIDDEN
 10
9.010872
 20
8.721702
 30
0.0
 11
8.979872
 21
8.752702
 31
0.0
  0
LINE
  8
HIDDEN
 10
8.854872
 20
8.721702
 30
0.0
 11
8.885872
 21
8.752702
 31
0.0
  0
LINE
  8
HIDDEN
 10
9.779872
 20
7.418776
 30
0.0
 11
9.810872
 21
7.449776
 31
0.0
  0
LINE
  8
HIDDEN
 10
9.935872
 20
7.418776
 30
0.0
 11
9.904872
 21
7.449776
 31
0.0
  0
LINE
  8
HIDDEN
 10
9.810872
 20
7.449776
 30
0.0
 11
9.904872
 21
7.449776
 31
0.0
  0
LINE
  8
HIDDEN
 10
8.854872
 20
7.041702
 30
0.0
 11
8.885872
 21
7.010702
 31
0.0
  0
LINE
  8
HIDDEN
 10
9.010872
 20
7.041702
 30
0.0
 11
8.979872
 21
7.010702
 31
0.0
  0
LINE
  8
HIDDEN
 10
8.885872
 20
7.010702
 30
0.0
 11
8.979872
 21
7.010702
 31
0.0
  0
LINE
  8
HIDDEN
 10
8.885872
 20
7.010702
 30
0.0
 11
8.885872
 21
6.691702
 31
0.0
  0
LINE
  8
HIDDEN
 10
8.979872
 20
7.010702
 30
0.0
 11
8.979872
 21
6.691702
 31
0.0
  0
LINE
  8
HIDDEN
 10
8.885872
 20
6.691702
 30
0.0
 11
8.979872
 21
6.691702
 31
0.0
  0
LINE
  8
HIDDEN
 10
8.802872
 20
7.041702
 30
0.0
 11
8.802872
 21
6.731702
 31
0.0
  0
LINE
  8
HIDDEN
 10
9.062872
 20
7.041702
 30
0.0
 11
9.062872
 21
6.731702
 31
0.0
  0
LINE
  8
HIDDEN
 10
9.702872
 20
7.021702
 30
0.0
 11
9.682872
 21
7.021702
 31
0.0
  0
LINE
  8
HIDDEN
 10
9.682872
 20
7.021702
 30
0.0
 11
9.682872
 21
6.731702
 31
0.0
  0
LINE
  8
HIDDEN
 10
9.57468
 20
6.731702
 30
0.0
 11
9.57468
 21
7.021702
 31
0.0
  0
LINE
  8
HIDDEN
 10
9.622794
 20
6.979186
 30
0.0
 11
9.682872
 21
6.979186
 31
0.0
  0
LINE
  8
HIDDEN
 10
9.57468
 20
7.021702
 30
0.0
 11
9.622794
 21
7.021702
 31
0.0
  0
LINE
  8
HIDDEN
 10
9.622794
 20
7.021702
 30
0.0
 11
9.622794
 21
6.731702
 31
0.0
  0
LINE
  8
HIDDEN
 10
8.802872
 20
7.041702
 30
0.0
 11
9.062872
 21
7.041702
 31
0.0
  0
LINE
  8
HIDDEN
 10
10.08149
 20
3.738367
 30
0.0
 11
10.08149
 21
1.79113
 31
0.0
  0
LINE
  8
OBJECT
 10
6.784253
 20
3.738367
 30
0.0
 11
6.784253
 21
1.79113
 31
0.0
  0
LINE
  8
HIDDEN
 10
10.08149
 20
3.738367
 30
0.0
 11
9.731486
 21
3.738367
 31
0.0
  0
LINE
  8
HIDDEN
 10
10.08149
 20
1.79113
 30
0.0
 11
9.731486
 21
1.79113
 31
0.0
  0
LINE
  8
HIDDEN
 10
9.731486
 20
3.763739
 30
0.0
 11
9.57518
 21
3.763739
 31
0.0
  0
LINE
  8
HIDDEN
 10
9.731486
 20
1.765758
 30
0.0
 11
9.57518
 21
1.765758
 31
0.0
  0
LINE
  8
OBJECT
 10
8.240189
 20
1.79113
 30
0.0
 11
6.784253
 21
1.79113
 31
0.0
  0
LINE
  8
HIDDEN
 10
9.57518
 20
1.79113
 30
0.0
 11
8.240189
 21
1.79113
 31
0.0
  0
LINE
  8
HIDDEN
 10
7.290564
 20
3.763739
 30
0.0
 11
7.134258
 21
3.763739
 31
0.0
  0
LINE
  8
HIDDEN
 10
9.57518
 20
3.738367
 30
0.0
 11
7.290564
 21
3.738367
 31
0.0
  0
LINE
  8
OBJECT
 10
7.134258
 20
3.738367
 30
0.0
 11
6.784253
 21
3.738367
 31
0.0
  0
ARC
  8
OBJECT
 10
6.785747
 20
6.731702
 30
0.0
 40
0.1
 50
185.0
 51
270.0
  0
ARC
  8
OBJECT
 10
10.079997
 20
6.731702
 30
0.0
 40
0.1
 50
270.0
 51
355.0
  0
ARC
  8
OBJECT
 10
6.880491
 20
9.031702
 30
0.0
 40
0.1
 50
90.0
 51
175.0
  0
ARC
  8
OBJECT
 10
9.985253
 20
9.031702
 30
0.0
 40
0.1
 50
5.0
 51
90.0
  0
POLYLINE
  8
OBJECT
 66
     1
 10
0.0
 20
0.0
 30
0.0
  0
VERTEX
  8
OBJECT
 10
8.240723
 20
6.631702
 30
0.0
 42
-0.278755
  0
VERTEX
  8
OBJECT
 10
8.338094
 20
7.283885
 30
0.0
 42
0.373645
  0
VERTEX
  8
OBJECT
 10
8.327845
 20
7.724633
 30
0.0
 42
-0.369844
  0
VERTEX
  8
OBJECT
 10
8.302221
 20
8.580505
 30
0.0
 42
0.358161
  0
VERTEX
  8
OBJECT
 10
8.297096
 20
9.131702
 30
0.0
 42
3.515607
  0
SEQEND
  8
OBJECT
  0
ARC
  8
OBJECT
 10
4.02151
 20
1.87516
 30
0.0
 40
0.1
 50
275.0
 51
0.0
  0
ARC
  8
OBJECT
 10
4.02151
 20
3.819409
 30
0.0
 40
0.1
 50
0.0
 51
85.0
  0
ARC
  8
OBJECT
 10
1.72151
 20
1.969904
 30
0.0
 40
0.1
 50
180.0
 51
265.0
  0
ARC
  8
OBJECT
 10
1.72151
 20
3.724666
 30
0.0
 40
0.1
 50
95.0
 51
180.0
  0
POLYLINE
  8
OBJECT
 66
     1
 10
0.0
 20
0.0
 30
0.0
  0
VERTEX
  8
OBJECT
 10
8.06878
 20
1.639749
 30
0.0
 42
-0.110502
  0
VERTEX
  8
OBJECT
 10
8.133965
 20
1.690628
 30
0.0
 42
0.469032
  0
VERTEX
  8
OBJECT
 10
8.224089
 20
2.042093
 30
0.0
 42
-0.083366
  0
VERTEX
  8
OBJECT
 10
7.764461
 20
2.97032
 30
0.0
 42
0.314043
  0
VERTEX
  8
OBJECT
 10
7.205697
 20
3.411904
 30
0.0
 42
-0.498511
  0
VERTEX
  8
OBJECT
 10
7.06257
 20
3.627681
 30
0.0
 42
0.15571
  0
VERTEX
  8
OBJECT
 10
7.070512
 20
3.889749
 30
0.0
 42
0.846921
  0
SEQEND
  8
OBJECT
  0
LINE
  8
OBJECT
 10
8.347872
 20
3.484749
 30
0.0
 11
8.347872
 21
2.044749
 31
0.0
  0
LINE
  8
OBJECT
 10
9.507872
 20
3.474749
 30
0.0
 11
8.347872
 21
3.474749
 31
0.0
  0
LINE
  8
OBJECT
 10
9.507872
 20
3.484749
 30
0.0
 11
9.507872
 21
2.044749
 31
0.0
  0
LINE
  8
OBJECT
 10
9.507872
 20
2.054749
 30
0.0
 11
8.347872
 21
2.054749
 31
0.0
  0
LINE
  8
DIM
 10
7.182872
 20
3.847051
 30
0.0
 11
7.182872
 21
5.087427
 31
0.0
  0
LINE
  8
DIM
 10
7.422812
 20
4.963458
 30
0.0
 11
7.548233
 21
4.963458
 31
0.0
  0
LINE
  8
DIM
 10
8.192932
 20
4.963458
 30
0.0
 11
8.087049
 21
4.963458
 31
0.0
  0
SOLID
  8
DIM
 10
7.422812
 20
5.003448
 30
0.0
 11
7.422812
 21
4.923468
 31
0.0
 12
7.182872
 22
4.963458
 32
0.0
 13
7.182872
 23
4.963458
 33
0.0
  0
SOLID
  8
DIM
 10
8.192932
 20
5.003448
 30
0.0
 11
8.192932
 21
4.923468
 31
0.0
 12
8.432872
 22
4.963458
 32
0.0
 13
8.432872
 23
4.963458
 33
0.0
  0
TEXT
  8
DIM
 10
7.6016
 20
4.880146
 30
0.0
 40
0.166625
  1
1.250
 41
0.75
  0
TEXT
  8
DIM
 10
8.862937
 20
4.880146
 30
0.0
 40
0.166625
  1
1.250
 41
0.75
  0
SOLID
  8
DIM
 10
8.672812
 20
5.003448
 30
0.0
 11
8.672812
 21
4.923468
 31
0.0
 12
8.432872
 22
4.963458
 32
0.0
 13
8.432872
 23
4.963458
 33
0.0
  0
SOLID
  8
DIM
 10
9.442932
 20
5.003448
 30
0.0
 11
9.442932
 21
4.923468
 31
0.0
 12
9.682872
 22
4.963458
 32
0.0
 13
9.682872
 23
4.963458
 33
0.0
  0
LINE
  8
DIM
 10
8.672812
 20
4.963458
 30
0.0
 11
8.797215
 21
4.963458
 31
0.0
  0
LINE
  8
DIM
 10
9.442932
 20
4.963458
 30
0.0
 11
9.354551
 21
4.963458
 31
0.0
  0
LINE
  8
DIM
 10
9.682872
 20
3.847051
 30
0.0
 11
9.682872
 21
4.555045
 31
0.0
  0
LINE
  8
DIM
 10
8.307872
 20
3.593061
 30
0.0
 11
8.307872
 21
4.450303
 31
0.0
  0
LINE
  8
DIM
 10
8.067932
 20
4.326334
 30
0.0
 11
7.885172
 21
4.326334
 31
0.0
  0
LINE
  8
DIM
 10
8.672812
 20
4.326334
 30
0.0
 11
8.912752
 21
4.326334
 31
0.0
  0
SOLID
  8
DIM
 10
8.067932
 20
4.286344
 30
0.0
 11
8.067932
 21
4.366324
 31
0.0
 12
8.307872
 22
4.326334
 32
0.0
 13
8.307872
 23
4.326334
 33
0.0
  0
SOLID
  8
DIM
 10
8.672812
 20
4.286344
 30
0.0
 11
8.672812
 21
4.366324
 31
0.0
 12
8.432872
 22
4.326334
 32
0.0
 13
8.432872
 23
4.326334
 33
0.0
  0
TEXT
  8
DIM
 10
7.357248
 20
4.243021
 30
0.0
 40
0.166625
  1
0.125
 41
0.75
  0
LINE
  8
DIM
 10
9.547872
 20
3.593061
 30
0.0
 11
9.547872
 21
4.74436
 31
0.0
  0
LINE
  8
DIM
 10
8.192932
 20
4.620391
 30
0.0
 11
7.952992
 21
4.620391
 31
0.0
  0
LINE
  8
DIM
 10
9.787812
 20
4.620391
 30
0.0
 11
10.015252
 21
4.620391
 31
0.0
  0
SOLID
  8
DIM
 10
8.192932
 20
4.580401
 30
0.0
 11
8.192932
 21
4.660381
 31
0.0
 12
8.432872
 22
4.620391
 32
0.0
 13
8.432872
 23
4.620391
 33
0.0
  0
SOLID
  8
DIM
 10
9.787812
 20
4.580401
 30
0.0
 11
9.787812
 21
4.660381
 31
0.0
 12
9.547872
 22
4.620391
 32
0.0
 13
9.547872
 23
4.620391
 33
0.0
  0
TEXT
  8
DIM
 10
8.839853
 20
4.537079
 30
0.0
 40
0.166625
  1
1.115
 41
0.75
  0
LINE
  8
DIM
 10
9.682872
 20
4.702074
 30
0.0
 11
9.682872
 21
5.087427
 31
0.0
  0
LINE
  8
DIM
 10
8.932872
 20
1.936436
 30
0.0
 11
8.932872
 21
1.02763
 31
0.0
  0
LINE
  8
DIM
 10
9.172812
 20
1.151599
 30
0.0
 11
9.412752
 21
1.151599
 31
0.0
  0
LINE
  8
DIM
 10
8.192932
 20
1.151599
 30
0.0
 11
7.952992
 21
1.151599
 31
0.0
  0
SOLID
  8
DIM
 10
9.172812
 20
1.111609
 30
0.0
 11
9.172812
 21
1.191589
 31
0.0
 12
8.932872
 22
1.151599
 32
0.0
 13
8.932872
 23
1.151599
 33
0.0
  0
SOLID
  8
DIM
 10
8.192932
 20
1.111609
 30
0.0
 11
8.192932
 21
1.191589
 31
0.0
 12
8.432872
 22
1.151599
 32
0.0
 13
8.432872
 23
1.151599
 33
0.0
  0
TEXT
  8
DIM
 10
9.580311
 20
1.068287
 30
0.0
 40
0.166625
  1
0.500
 41
0.75
  0
LINE
  8
DIM
 10
7.932872
 20
1.936436
 30
0.0
 11
7.932872
 21
0.7009
 31
0.0
  0
LINE
  8
DIM
 10
8.432872
 20
1.257715
 30
0.0
 11
8.432872
 21
0.7009
 31
0.0
  0
LINE
  8
DIM
 10
8.672812
 20
0.824869
 30
0.0
 11
8.912752
 21
0.824869
 31
0.0
  0
LINE
  8
DIM
 10
7.692932
 20
0.824869
 30
0.0
 11
7.452992
 21
0.824869
 31
0.0
  0
SOLID
  8
DIM
 10
8.672812
 20
0.784879
 30
0.0
 11
8.672812
 21
0.864859
 31
0.0
 12
8.432872
 22
0.824869
 32
0.0
 13
8.432872
 23
0.824869
 33
0.0
  0
SOLID
  8
DIM
 10
7.692932
 20
0.784879
 30
0.0
 11
7.692932
 21
0.864859
 31
0.0
 12
7.932872
 22
0.824869
 32
0.0
 13
7.932872
 23
0.824869
 33
0.0
  0
TEXT
  8
DIM
 10
9.080311
 20
0.741556
 30
0.0
 40
0.166625
  1
0.500
 41
0.75
  0
LINE
  8
DIM
 10
7.24295
 20
3.468055
 30
0.0
 11
7.24295
 21
3.077863
 31
0.0
  0
LINE
  8
DIM
 10
7.182872
 20
3.468055
 30
0.0
 11
7.182872
 21
3.077863
 31
0.0
  0
LINE
  8
DIM
 10
6.942932
 20
3.201832
 30
0.0
 11
6.425261
 21
3.201832
 31
0.0
  0
LINE
  8
DIM
 10
7.48289
 20
3.201832
 30
0.0
 11
7.72283
 21
3.201832
 31
0.0
  0
SOLID
  8
DIM
 10
6.942932
 20
3.161842
 30
0.0
 11
6.942932
 21
3.241822
 31
0.0
 12
7.182872
 22
3.201832
 32
0.0
 13
7.182872
 23
3.201832
 33
0.0
  0
SOLID
  8
DIM
 10
7.48289
 20
3.161842
 30
0.0
 11
7.48289
 21
3.241822
 31
0.0
 12
7.24295
 22
3.201832
 32
0.0
 13
7.24295
 23
3.201832
 33
0.0
  0
TEXT
  8
DIM
 10
5.720502
 20
2.848967
 30
0.0
 40
0.166625
  1
 REF.
 41
0.75
  0
TEXT
  8
DIM
 10
5.213364
 20
2.560623
 30
0.0
 40
0.166625
  1

  0
TEXT
  8
DIM
 10
5.843479
 20
3.11852
 30
0.0
 40
0.166625
  1
0.060
 41
0.75
  0
LINE
  8
DIM
 10
9.631184
 20
3.514749
 30
0.0
 11
9.811372
 21
3.514749
 31
0.0
  0
LINE
  8
DIM
 10
10.80678
 20
2.524809
 30
0.0
 11
10.80678
 21
2.284869
 31
0.0
  0
LINE
  8
DIM
 10
10.80678
 20
3.754689
 30
0.0
 11
10.80678
 21
3.994629
 31
0.0
  0
SOLID
  8
DIM
 10
10.84677
 20
2.524809
 30
0.0
 11
10.76679
 21
2.524809
 31
0.0
 12
10.80678
 22
2.764749
 32
0.0
 13
10.80678
 23
2.764749
 33
0.0
  0
SOLID
  8
DIM
 10
10.84677
 20
3.754689
 30
0.0
 11
10.76679
 21
3.754689
 31
0.0
 12
10.80678
 22
3.514749
 32
0.0
 13
10.80678
 23
3.514749
 33
0.0
  0
TEXT
  8
DIM
 10
10.554699
 20
3.045045
 30
0.0
 40
0.166625
  1
0.750
 41
0.75
  0
LINE
  8
DIM
 10
10.593278
 20
2.764749
 30
0.0
 11
11.474191
 21
2.764749
 31
0.0
  0
LINE
  8
DIM
 10
9.631184
 20
2.014749
 30
0.0
 11
9.811372
 21
2.014749
 31
0.0
  0
LINE
  8
DIM
 10
11.350222
 20
1.774809
 30
0.0
 11
11.350222
 21
1.534869
 31
0.0
  0
LINE
  8
DIM
 10
11.350222
 20
3.004689
 30
0.0
 11
11.350222
 21
3.244629
 31
0.0
  0
SOLID
  8
DIM
 10
11.390212
 20
1.774809
 30
0.0
 11
11.310232
 21
1.774809
 31
0.0
 12
11.350222
 22
2.014749
 32
0.0
 13
11.350222
 23
2.014749
 33
0.0
  0
SOLID
  8
DIM
 10
11.390212
 20
3.004689
 30
0.0
 11
11.310232
 21
3.004689
 31
0.0
 12
11.350222
 22
2.764749
 32
0.0
 13
11.350222
 23
2.764749
 33
0.0
  0
TEXT
  8
DIM
 10
11.137767
 20
2.27174
 30
0.0
 40
0.166625
  1
0.750
 41
0.75
  0
LINE
  8
DIM
 10
10.266184
 20
1.639749
 30
0.0
 11
11.260162
 21
1.639749
 31
0.0
  0
LINE
  8
DIM
 10
10.266184
 20
3.889749
 30
0.0
 11
10.739289
 21
3.889749
 31
0.0
  0
LINE
  8
DIM
 10
12.046508
 20
1.879689
 30
0.0
 11
12.046508
 21
2.578962
 31
0.0
  0
LINE
  8
DIM
 10
12.046508
 20
3.649809
 30
0.0
 11
12.046508
 21
2.941077
 31
0.0
  0
SOLID
  8
DIM
 10
12.086498
 20
1.879689
 30
0.0
 11
12.006518
 21
1.879689
 31
0.0
 12
12.046508
 22
1.639749
 32
0.0
 13
12.046508
 23
1.639749
 33
0.0
  0
SOLID
  8
DIM
 10
12.086498
 20
3.649809
 30
0.0
 11
12.006518
 21
3.649809
 31
0.0
 12
12.046508
 22
3.889749
 32
0.0
 13
12.046508
 23
3.889749
 33
0.0
  0
TEXT
  8
DIM
 10
11.818134
 20
2.681436
 30
0.0
 40
0.166625
  1
2.250
 41
0.75
  0
LINE
  8
DIM
 10
9.904372
 20
2.014749
 30
0.0
 11
11.474191
 21
2.014749
 31
0.0
  0
LINE
  8
DIM
 10
6.632872
 20
3.923061
 30
0.0
 11
6.632872
 21
5.777746
 31
0.0
  0
LINE
  8
DIM
 10
10.232872
 20
3.923061
 30
0.0
 11
10.232872
 21
5.777746
 31
0.0
  0
LINE
  8
DIM
 10
6.872812
 20
5.653777
 30
0.0
 11
8.089171
 21
5.653777
 31
0.0
  0
LINE
  8
DIM
 10
9.992932
 20
5.653777
 30
0.0
 11
8.730675
 21
5.653777
 31
0.0
  0
SOLID
  8
DIM
 10
6.872812
 20
5.613787
 30
0.0
 11
6.872812
 21
5.693767
 31
0.0
 12
6.632872
 22
5.653777
 32
0.0
 13
6.632872
 23
5.653777
 33
0.0
  0
SOLID
  8
DIM
 10
9.992932
 20
5.613787
 30
0.0
 11
9.992932
 21
5.693767
 31
0.0
 12
10.232872
 22
5.653777
 32
0.0
 13
10.232872
 23
5.653777
 33
0.0
  0
TEXT
  8
DIM
 10
8.190612
 20
5.570464
 30
0.0
 40
0.166625
  1
3.600
 41
0.75
  0
LINE
  8
DIM
 10
7.732443
 20
8.721702
 30
0.0
 11
7.457134
 21
8.721702
 31
0.0
  0
LINE
  8
DIM
 10
7.555335
 20
9.371642
 30
0.0
 11
7.555335
 21
9.611582
 31
0.0
  0
LINE
  8
DIM
 10
7.555335
 20
8.481762
 30
0.0
 11
7.555335
 21
8.241822
 31
0.0
  0
LINE
  8
DIM
 10
7.555335
 20
9.611582
 30
0.0
 11
7.795275
 21
9.611582
 31
0.0
  0
SOLID
  8
DIM
 10
7.595325
 20
9.371642
 30
0.0
 11
7.515345
 21
9.371642
 31
0.0
 12
7.555335
 22
9.131702
 32
0.0
 13
7.555335
 23
9.131702
 33
0.0
  0
SOLID
  8
DIM
 10
7.595325
 20
8.481762
 30
0.0
 11
7.515345
 21
8.481762
 31
0.0
 12
7.555335
 22
8.721702
 32
0.0
 13
7.555335
 23
8.721702
 33
0.0
  0
TEXT
  8
DIM
 10
7.922991
 20
9.52827
 30
0.0
 40
0.166625
  1
0.410
 41
0.75
  0
LINE
  8
DIM
 10
7.355051
 20
7.021702
 30
0.0
 11
7.712293
 21
7.021702
 31
0.0
  0
LINE
  8
DIM
 10
7.64469
 20
6.391762
 30
0.0
 11
7.64469
 21
6.151822
 31
0.0
  0
LINE
  8
DIM
 10
7.64469
 20
7.261642
 30
0.0
 11
7.64469
 21
7.501582
 31
0.0
  0
LINE
  8
DIM
 10
7.64469
 20
6.151822
 30
0.0
 11
7.477663
 21
6.151822
 31
0.0
  0
SOLID
  8
DIM
 10
7.68468
 20
6.391762
 30
0.0
 11
7.6047
 21
6.391762
 31
0.0
 12
7.64469
 22
6.631702
 32
0.0
 13
7.64469
 23
6.631702
 33
0.0
  0
SOLID
  8
DIM
 10
7.68468
 20
7.261642
 30
0.0
 11
7.6047
 21
7.261642
 31
0.0
 12
7.64469
 22
7.021702
 32
0.0
 13
7.64469
 23
7.021702
 33
0.0
  0
TEXT
  8
DIM
 10
6.946309
 20
6.06851
 30
0.0
 40
0.166625
  1
0.390
 41
0.75
  0
SOLID
  8
DIM
 10
9.408951
 20
2.060192
 30
0.0
 11
9.464663
 21
2.117576
 31
0.0
 12
9.264653
 22
2.25602
 32
0.0
 13
9.264653
 23
2.25602
 33
0.0
  0
LINE
  8
DIM
 10
9.436807
 20
2.088884
 30
0.0
 11
10.424087
 21
1.130376
 31
0.0
  0
LINE
  8
DIM
 10
10.424087
 20
1.130376
 30
0.0
 11
10.664027
 21
1.130376
 31
0.0
  0
TEXT
  8
DIM
 10
10.803944
 20
1.051344
 30
0.0
 40
0.167
  1
AREA FOR
 41
0.75
  0
TEXT
  8
DIM
 10
10.803944
 20
0.773011
 30
0.0
 40
0.167
  1
CUSTOM
 41
0.75
  0
ARC
  8
DIM
 10
3.404437
 20
1.722285
 30
0.0
 40
2.180873
 50
186.306873
 51
192.613747
  0
ARC
  8
DIM
 10
3.404437
 20
1.722285
 30
0.0
 40
2.180873
 50
162.386253
 51
168.693127
  0
LINE
  8
DIM
 10
1.099594
 20
1.722285
 30
0.0
 11
3.321124
 21
1.722285
 31
0.0
  0
LINE
  8
DIM
 10
1.108365
 20
1.923165
 30
0.0
 11
1.629799
 21
1.877545
 31
0.0
  0
SOLID
  8
DIM
 10
1.276692
 20
1.484908
 30
0.0
 11
1.196833
 21
1.480508
 31
0.0
 12
1.223563
 22
1.722285
 32
0.0
 13
1.223563
 23
1.722285
 33
0.0
  0
SOLID
  8
DIM
 10
1.305477
 20
2.144203
 30
0.0
 11
1.226306
 21
2.155546
 31
0.0
 12
1.231862
 22
1.91236
 32
0.0
 13
1.231862
 23
1.91236
 33
0.0
  0
TEXT
  8
DIM
 10
1.60217
 20
1.140816
 30
0.0
 40
0.166625
  1
5%%D TYP.
 41
0.75
  0
LINE
  8
DIM
 10
1.2762
 20
1.246031
 30
0.0
 11
1.494402
 21
1.246031
 31
0.0
  0
LINE
  8
DIM
 10
3.78157
 20
2.512242
 30
0.0
 11
3.54163
 21
2.512242
 31
0.0
  0
LINE
  8
DIM
 10
4.36145
 20
2.512242
 30
0.0
 11
4.60139
 21
2.512242
 31
0.0
  0
SOLID
  8
DIM
 10
3.78157
 20
2.472252
 30
0.0
 11
3.78157
 21
2.552232
 31
0.0
 12
4.02151
 22
2.512242
 32
0.0
 13
4.02151
 23
2.512242
 33
0.0
  0
SOLID
  8
DIM
 10
4.36145
 20
2.472252
 30
0.0
 11
4.36145
 21
2.552232
 31
0.0
 12
4.12151
 22
2.512242
 32
0.0
 13
4.12151
 23
2.512242
 33
0.0
  0
TEXT
  8
DIM
 10
4.590684
 20
2.181102
 30
0.0
 40
0.166625
  1
 TYP.
 41
0.75
  0
TEXT
  8
DIM
 10
2.44133
 20
2.980739
 30
0.0
 40
0.166625
  1

  0
TEXT
  8
DIM
 10
4.71151
 20
2.42893
 30
0.0
 40
0.166625
  1
0.100
 41
0.75
  0
LINE
  8
DIM
 10
10.163309
 20
6.631702
 30
0.0
 11
11.919247
 21
6.631702
 31
0.0
  0
LINE
  8
DIM
 10
10.068565
 20
9.131702
 30
0.0
 11
11.919247
 21
9.131702
 31
0.0
  0
LINE
  8
DIM
 10
11.795278
 20
6.871642
 30
0.0
 11
11.795278
 21
7.715464
 31
0.0
  0
LINE
  8
DIM
 10
11.795278
 20
8.891762
 30
0.0
 11
11.795278
 21
8.0574
 31
0.0
  0
SOLID
  8
DIM
 10
11.835268
 20
6.871642
 30
0.0
 11
11.755288
 21
6.871642
 31
0.0
 12
11.795278
 22
6.631702
 32
0.0
 13
11.795278
 23
6.631702
 33
0.0
  0
SOLID
  8
DIM
 10
11.835268
 20
8.891762
 30
0.0
 11
11.755288
 21
8.891762
 31
0.0
 12
11.795278
 22
9.131702
 32
0.0
 13
11.795278
 23
9.131702
 33
0.0
  0
TEXT
  8
DIM
 10
11.536501
 20
7.79839
 30
0.0
 40
0.166625
  1
2.500
 41
0.75
  0
LINE
  8
DIM
 10
10.316184
 20
7.331702
 30
0.0
 11
11.216392
 21
7.331702
 31
0.0
  0
LINE
  8
DIM
 10
11.092423
 20
6.391762
 30
0.0
 11
11.092423
 21
6.151822
 31
0.0
  0
LINE
  8
DIM
 10
11.092423
 20
7.571642
 30
0.0
 11
11.092423
 21
7.811582
 31
0.0
  0
SOLID
  8
DIM
 10
11.132413
 20
6.391762
 30
0.0
 11
11.052433
 21
6.391762
 31
0.0
 12
11.092423
 22
6.631702
 32
0.0
 13
11.092423
 23
6.631702
 33
0.0
  0
SOLID
  8
DIM
 10
11.132413
 20
7.571642
 30
0.0
 11
11.052433
 21
7.571642
 31
0.0
 12
11.092423
 22
7.331702
 32
0.0
 13
11.092423
 23
7.331702
 33
0.0
  0
TEXT
  8
DIM
 10
10.808814
 20
6.907241
 30
0.0
 40
0.166625
  1
0.700
 41
0.75
  0
LINE
  8
DIM
 10
10.915856
 20
3.889749
 30
0.0
 11
12.170477
 21
3.889749
 31
0.0
  0
LINE
  8
DIM
 10
11.454387
 20
1.639749
 30
0.0
 11
12.170477
 21
1.639749
 31
0.0
  0
LINE
  8
DIM
 10
11.624923
 20
17.501031
 30
0.0
 11
13.013147
 21
17.501031
 31
0.0
  0
LINE
  8
DIM
 10
11.617668
 20
19.001031
 30
0.0
 11
13.013147
 21
19.001031
 31
0.0
  0
LINE
  8
DIM
 10
12.889178
 20
17.740971
 30
0.0
 11
12.889178
 21
18.087276
 31
0.0
  0
LINE
  8
DIM
 10
12.889178
 20
18.761091
 30
0.0
 11
12.889178
 21
18.405612
 31
0.0
  0
SOLID
  8
DIM
 10
12.929168
 20
17.740971
 30
0.0
 11
12.849188
 21
17.740971
 31
0.0
 12
12.889178
 22
17.501031
 32
0.0
 13
12.889178
 23
17.501031
 33
0.0
  0
SOLID
  8
DIM
 10
12.929168
 20
18.761091
 30
0.0
 11
12.849188
 21
18.761091
 31
0.0
 12
12.889178
 22
19.001031
 32
0.0
 13
12.889178
 23
19.001031
 33
0.0
  0
TEXT
  8
DIM
 10
12.657431
 20
18.167719
 30
0.0
 40
0.166625
  1
1.500
 41
0.75
  0
LINE
  8
DIM
 10
11.777798
 20
18.201031
 30
0.0
 11
12.334463
 21
18.201031
 31
0.0
  0
LINE
  8
DIM
 10
12.210494
 20
17.261091
 30
0.0
 11
12.210494
 21
17.021151
 31
0.0
  0
LINE
  8
DIM
 10
12.210494
 20
18.440971
 30
0.0
 11
12.210494
 21
18.680911
 31
0.0
  0
SOLID
  8
DIM
 10
12.250484
 20
17.261091
 30
0.0
 11
12.170504
 21
17.261091
 31
0.0
 12
12.210494
 22
17.501031
 32
0.0
 13
12.210494
 23
17.501031
 33
0.0
  0
SOLID
  8
DIM
 10
12.250484
 20
18.440971
 30
0.0
 11
12.170504
 21
18.440971
 31
0.0
 12
12.210494
 22
18.201031
 32
0.0
 13
12.210494
 23
18.201031
 33
0.0
  0
TEXT
  8
DIM
 10
11.990557
 20
17.744076
 30
0.0
 40
0.166625
  1
0.700
 41
0.75
  0
LINE
  8
DIM
 10
1.095259
 20
12.486482
 30
0.0
 11
1.095259
 21
13.522151
 31
0.0
  0
SOLID
  8
DIM
 10
1.055269
 20
12.486482
 30
0.0
 11
1.135249
 21
12.486482
 31
0.0
 12
1.095259
 22
12.246542
 32
0.0
 13
1.095259
 23
12.246542
 33
0.0
  0
LINE
  8
DIM
 10
1.974315
 20
12.246542
 30
0.0
 11
1.444277
 21
12.246542
 31
0.0
  0
LINE
  8
DIM
 10
1.974315
 20
15.136542
 30
0.0
 11
0.97129
 21
15.136542
 31
0.0
  0
SOLID
  8
DIM
 10
1.055269
 20
14.896602
 30
0.0
 11
1.135249
 21
14.896602
 31
0.0
 12
1.095259
 22
15.136542
 32
0.0
 13
1.095259
 23
15.136542
 33
0.0
  0
LINE
  8
DIM
 10
1.095259
 20
14.896602
 30
0.0
 11
1.095259
 21
13.852106
 31
0.0
  0
TEXT
  8
DIM
 10
0.829845
 20
13.60823
 30
0.0
 40
0.166625
  1
2.890
 41
0.75
  0
LINE
  8
DIM
 10
3.797567
 20
13.334638
 30
0.0
 11
4.037507
 21
13.334638
 31
0.0
  0
LINE
  8
DIM
 10
3.217687
 20
13.334638
 30
0.0
 11
2.977747
 21
13.334638
 31
0.0
  0
SOLID
  8
DIM
 10
3.797567
 20
13.294648
 30
0.0
 11
3.797567
 21
13.374628
 31
0.0
 12
3.557627
 22
13.334638
 32
0.0
 13
3.557627
 23
13.334638
 33
0.0
  0
SOLID
  8
DIM
 10
3.217687
 20
13.294648
 30
0.0
 11
3.217687
 21
13.374628
 31
0.0
 12
3.457627
 22
13.334638
 32
0.0
 13
3.457627
 23
13.334638
 33
0.0
  0
TEXT
  8
DIM
 10
4.027137
 20
13.008974
 30
0.0
 40
0.166625
  1
 TYP.
 41
0.75
  0
TEXT
  8
DIM
 10
4.021234
 20
12.963561
 30
0.0
 40
0.166625
  1

  0
TEXT
  8
DIM
 10
4.145252
 20
13.251326
 30
0.0
 40
0.166625
  1
0.100
 41
0.75
  0
TEXT
  8
DIM
 10
11.587507
 20
10.964048
 30
0.0
 40
0.167
  1
MOLDING.
 41
0.75
  0
TEXT
  8
DIM
 10
10.803944
 20
0.488981
 30
0.0
 40
0.167
  1
MOLDING.
 41
0.75
  0
LINE
  8
OBJECT
 10
2.088627
 20
12.246542
 30
0.0
 11
2.088627
 21
15.136542
 31
0.0
  0
LINE
  8
OBJECT
 10
2.057627
 20
15.136542
 30
0.0
 11
2.088627
 21
15.136542
 31
0.0
  0
LINE
  8
OBJECT
 10
2.057627
 20
12.246542
 30
0.0
 11
2.088627
 21
12.246542
 31
0.0
  0
LINE
  8
OBJECT
 10
6.246986
 20
18.970031
 30
0.0
 11
8.626397
 21
18.970031
 31
0.0
  0
LINE
  8
OBJECT
 10
6.246986
 20
19.001031
 30
0.0
 11
6.246986
 21
18.970031
 31
0.0
  0
LINE
  8
HIDDEN
 10
11.516986
 20
19.001031
 30
0.0
 11
11.516986
 21
18.970031
 31
0.0
  0
LINE
  8
HIDDEN
 10
8.626397
 20
18.970031
 30
0.0
 11
11.516986
 21
18.970031
 31
0.0
  0
ARC
  8
DIM
 10
2.757627
 20
12.066542
 30
0.0
 40
1.414624
 50
189.729852
 51
199.459705
  0
ARC
  8
DIM
 10
2.757627
 20
12.066542
 30
0.0
 40
1.414624
 50
155.540295
 51
165.270148
  0
LINE
  8
DIM
 10
1.219034
 20
12.066542
 30
0.0
 11
2.462795
 21
12.066542
 31
0.0
  0
LINE
  8
DIM
 10
1.224889
 20
12.20064
 30
0.0
 11
2.065916
 21
12.127059
 31
0.0
  0
SOLID
  8
DIM
 10
1.403198
 20
11.830858
 30
0.0
 11
1.323506
 21
11.824075
 31
0.0
 12
1.343003
 22
12.066542
 32
0.0
 13
1.343003
 23
12.066542
 33
0.0
  0
SOLID
  8
DIM
 10
1.428893
 20
12.419376
 30
0.0
 11
1.350095
 21
12.433079
 31
0.0
 12
1.348386
 22
12.189835
 32
0.0
 13
1.348386
 23
12.189835
 33
0.0
  0
TEXT
  8
DIM
 10
1.751616
 20
11.508546
 30
0.0
 40
0.166625
  1
5%%D TYP.
 41
0.75
  0
LINE
  8
DIM
 10
1.423812
 20
11.595269
 30
0.0
 11
1.65019
 21
11.595269
 31
0.0
  0
LINE
  8
DIM
 10
1.284853
 20
12.246542
 30
0.0
 11
0.97129
 21
12.246542
 31
0.0
  0
TEXT
  8
TEXT
 10
8.42316
 20
19.716897
 30
0.0
 40
0.167
  1
*
 41
0.75
  0
TEXT
  8
TEXT
 10
0.643777
 20
13.707603
 30
0.0
 40
0.167
  1
*
 41
0.75
  0
TEXT
  8
TEXT
 10
0.734551
 20
17.22608
 30
0.0
 40
0.167
  1
*-USABLE AREA ON COVER ALSO
 41
0.75
  0
TEXT
  8
TEXT
 10
0.934111
 20
16.947747
 30
0.0
 40
0.167
  1
AVAILABLE FOR CUSTOM MOLDING.
 41
0.75
  0
LINE
  8
DIM
 10
7.007872
 20
3.593061
 30
0.0
 11
7.007872
 21
5.439443
 31
0.0
  0
LINE
  8
DIM
 10
8.432872
 20
4.271783
 30
0.0
 11
8.432872
 21
5.439443
 31
0.0
  0
LINE
  8
DIM
 10
8.192932
 20
5.315474
 30
0.0
 11
8.014518
 21
5.315474
 31
0.0
  0
LINE
  8
DIM
 10
7.247812
 20
5.315474
 30
0.0
 11
7.42779
 21
5.315474
 31
0.0
  0
SOLID
  8
DIM
 10
8.192932
 20
5.355464
 30
0.0
 11
8.192932
 21
5.275484
 31
0.0
 12
8.432872
 22
5.315474
 32
0.0
 13
8.432872
 23
5.315474
 33
0.0
  0
SOLID
  8
DIM
 10
7.247812
 20
5.355464
 30
0.0
 11
7.247812
 21
5.275484
 31
0.0
 12
7.007872
 22
5.315474
 32
0.0
 13
7.007872
 23
5.315474
 33
0.0
  0
TEXT
  8
DIM
 10
7.49971
 20
5.232162
 30
0.0
 40
0.166625
  1
1.425
 41
0.75
  0
TEXT
  8
DIM
 10
8.937057
 20
5.232162
 30
0.0
 40
0.166625
  1
1.425
 41
0.75
  0
SOLID
  8
DIM
 10
9.617932
 20
5.355464
 30
0.0
 11
9.617932
 21
5.275484
 31
0.0
 12
9.857872
 22
5.315474
 32
0.0
 13
9.857872
 23
5.315474
 33
0.0
  0
SOLID
  8
DIM
 10
8.672812
 20
5.355464
 30
0.0
 11
8.672812
 21
5.275484
 31
0.0
 12
8.432872
 22
5.315474
 32
0.0
 13
8.432872
 23
5.315474
 33
0.0
  0
LINE
  8
DIM
 10
9.617932
 20
5.315474
 30
0.0
 11
9.483852
 21
5.315474
 31
0.0
  0
LINE
  8
DIM
 10
8.672812
 20
5.315474
 30
0.0
 11
8.860888
 21
5.315474
 31
0.0
  0
LINE
  8
DIM
 10
9.857872
 20
3.593061
 30
0.0
 11
9.857872
 21
4.583485
 31
0.0
  0
LINE
  8
DIM
 10
9.857872
 20
4.671209
 30
0.0
 11
9.857872
 21
5.439443
 31
0.0
  0
LINE
  8
DIM
 10
11.934426
 20
16.477886
 30
0.0
 11
12.174366
 21
16.477886
 31
0.0
  0
SOLID
  8
DIM
 10
11.934426
 20
16.437896
 30
0.0
 11
11.934426
 21
16.517876
 31
0.0
 12
11.694486
 22
16.477886
 32
0.0
 13
11.694486
 23
16.477886
 33
0.0
  0
TEXT
  8
DIM
 10
12.26433
 20
16.394574
 30
0.0
 40
0.166625
  1
0.387
 41
0.75
  0
LINE
  8
DIM
 10
12.210494
 20
15.556482
 30
0.0
 11
12.210494
 21
15.796422
 31
0.0
  0
SOLID
  8
DIM
 10
12.250484
 20
15.556482
 30
0.0
 11
12.170504
 21
15.556482
 31
0.0
 12
12.210494
 22
15.316542
 32
0.0
 13
12.210494
 23
15.316542
 33
0.0
  0
TEXT
  8
DIM
 10
11.942922
 20
15.03587
 30
0.0
 40
0.166625
  1
0.375
 41
0.75
  0
LINE
  8
DIM
 10
10.472812
 20
5.315474
 30
0.0
 11
10.712752
 21
5.315474
 31
0.0
  0
SOLID
  8
DIM
 10
10.472812
 20
5.275484
 30
0.0
 11
10.472812
 21
5.355464
 31
0.0
 12
10.232872
 22
5.315474
 32
0.0
 13
10.232872
 23
5.315474
 33
0.0
  0
TEXT
  8
DIM
 10
10.885897
 20
5.232162
 30
0.0
 40
0.166625
  1
0.375
 41
0.75
  0
LINE
  8
DIM
 10
9.904372
 20
3.514749
 30
0.0
 11
11.629361
 21
3.514749
 31
0.0
  0
LINE
  8
DIM
 10
11.505392
 20
4.129689
 30
0.0
 11
11.505392
 21
4.369629
 31
0.0
  0
LINE
  8
DIM
 10
11.505392
 20
3.274809
 30
0.0
 11
11.505392
 21
3.034869
 31
0.0
  0
SOLID
  8
DIM
 10
11.545382
 20
4.129689
 30
0.0
 11
11.465402
 21
4.129689
 31
0.0
 12
11.505392
 22
3.889749
 32
0.0
 13
11.505392
 23
3.889749
 33
0.0
  0
SOLID
  8
DIM
 10
11.545382
 20
3.274809
 30
0.0
 11
11.465402
 21
3.274809
 31
0.0
 12
11.505392
 22
3.514749
 32
0.0
 13
11.505392
 23
3.514749
 33
0.0
  0
TEXT
  8
DIM
 10
11.250141
 20
3.626732
 30
0.0
 40
0.166625
  1
0.375
 41
0.75
  0
TEXT
  8
TEXT
 10
0.757068
 20
7.163162
 30
0.0
 40
0.167
  1
FOUR (4) NON-SKID PUSH-ON FEET SUPPLIED
 41
0.75
  0
LINE
  8
DIM
 10
2.088627
 20
15.219855
 30
0.0
 11
2.088627
 21
15.951368
 31
0.0
  0
LINE
  8
DIM
 10
2.057627
 20
15.239725
 30
0.0
 11
2.057627
 21
15.951368
 31
0.0
  0
LINE
  8
DIM
 10
2.328567
 20
15.827399
 30
0.0
 11
2.568507
 21
15.827399
 31
0.0
  0
LINE
  8
DIM
 10
1.817687
 20
15.827399
 30
0.0
 11
1.577747
 21
15.827399
 31
0.0
  0
SOLID
  8
DIM
 10
2.328567
 20
15.867389
 30
0.0
 11
2.328567
 21
15.787409
 31
0.0
 12
2.088627
 22
15.827399
 32
0.0
 13
2.088627
 23
15.827399
 33
0.0
  0
SOLID
  8
DIM
 10
1.817687
 20
15.867389
 30
0.0
 11
1.817687
 21
15.787409
 31
0.0
 12
2.057627
 22
15.827399
 32
0.0
 13
2.057627
 23
15.827399
 33
0.0
  0
TEXT
  8
DIM
 10
1.041215
 20
15.744087
 30
0.0
 40
0.166625
  1
0.015
 41
0.75
 72
     1
 11
1.249496
 21
15.827399
 31
0.0
 73
     2
  0
TEXT
  8
DIM
 10
0.760535
 20
15.519047
 30
0.0
 40
0.167
  1
RECESS
 41
0.75
  0
POLYLINE
  8
OBJECT
 66
     1
 10
0.0
 20
0.0
 30
0.0
  0
VERTEX
  8
OBJECT
 10
8.51633
 20
13.844986
 30
0.0
  0
VERTEX
  8
OBJECT
 10
7.634738
 20
14.009445
 30
0.0
  0
VERTEX
  8
OBJECT
 10
6.779589
 20
13.909183
 30
0.0
  0
VERTEX
  8
OBJECT
 10
6.069486
 20
14.0807
 30
0.0
  0
SEQEND
  8
OBJECT
  0
LINE
  8
HIDDEN
 10
8.691998
 20
12.166542
 30
0.0
 11
11.594486
 21
12.166542
 31
0.0
  0
LINE
  8
HIDDEN
 10
8.710518
 20
12.131542
 30
0.0
 11
11.589486
 21
12.131542
 31
0.0
  0
LINE
  8
OBJECT
 10
6.134486
 20
14.065
 30
0.0
 11
6.134486
 21
12.171542
 31
0.0
  0
LINE
  8
OBJECT
 10
6.169486
 20
14.056546
 30
0.0
 11
6.169486
 21
12.166542
 31
0.0
  0
LINE
  8
OBJECT
 10
6.220867
 20
14.044136
 30
0.0
 11
6.220867
 21
12.217924
 31
0.0
  0
LINE
  8
TITLE
 10
0.082646
 20
10.41375
 30
0.0
 11
13.407314
 21
10.41375
 31
0.0
  0
LINE
  8
TITLE
 10
13.407314
 20
10.33075
 30
0.0
 11
13.407314
 21
0.082646
 31
0.0
  0
LINE
  8
TITLE
 10
0.082646
 20
10.41375
 30
0.0
 11
0.082646
 21
20.578854
 31
0.0
  0
TEXT
  8
TEXT
 10
0.757068
 20
16.496885
 30
0.0
 40
0.167
  1
%%UNOTE:%%U ALL DIMENSIONS HAVE %%P0.015 TOLERANCE
 41
0.75
  0
TEXT
  8
TEXT
 10
1.390369
 20
16.226512
 30
0.0
 40
0.167
  1
UNLESS OTHERWISE SPECIFIED.
 41
0.75
  0
TEXT
  8
TEXT
 10
1.390369
 20
6.471291
 30
0.0
 40
0.167
  1
UNLESS OTHERWISE SPECIFIED.
 41
0.75
  0
TEXT
  8
TEXT
 10
0.757068
 20
6.741664
 30
0.0
 40
0.167
  1
%%UNOTE:%%U ALL DIMENSIONS HAVE %%P0.015 TOLERANCE
 41
0.75
  0
POLYLINE
  8
DIM
 66
     1
 10
0.0
 20
0.0
 30
0.0
 41
0.089978
  0
VERTEX
  8
DIM
 10
7.401502
 20
12.348492
 30
0.0
  0
VERTEX
  8
DIM
 10
7.313377
 20
12.125321
 30
0.0
 41
0.0
  0
VERTEX
  8
DIM
 10
7.179952
 20
11.787427
 30
0.0
 41
0.0
  0
VERTEX
  8
DIM
 10
6.940012
 20
11.787427
 30
0.0
 41
0.0
  0
SEQEND
  8
DIM
  0
TEXT
  8
DIM
 10
3.487542
 20
11.704114
 30
0.0
 40
0.166625
  1
0.260 DIA. BOSS WITH 0.093 DIA.
 41
0.75
 72
     2
 11
6.820042
 21
11.787427
 31
0.0
 73
     2
  0
TEXT
  8
DIM
 10
3.61251
 20
11.426406
 30
0.0
 40
0.166625
  1
HOLE x 0.310 DEEP (8) PLACES
 41
0.75
 72
     2
 11
6.820042
 21
11.509718
 31
0.0
 73
     2
  0
TEXT
  8
DIM
 10
2.321167
 20
11.148697
 30
0.0
 40
0.166625
  1
MOUNTING BOSSES USE EITHER M2.5 METRIC
 41
0.75
 72
     2
 11
6.820042
 21
11.23201
 31
0.0
 73
     2
  0
TEXT
  8
DIM
 10
3.27926
 20
10.870989
 30
0.0
 40
0.166625
  1
OR #4 STD. SHEET METAL SCREWS
 41
0.75
 72
     2
 11
6.820042
 21
10.954302
 31
0.0
 73
     2
  0
TEXT
  8
DIM
 10
3.737479
 20
10.593281
 30
0.0
 40
0.166625
  1
x 0.250" LG.  (NOT SUPPLIED)
 41
0.75
 72
     2
 11
6.820042
 21
10.676593
 31
0.0
 73
     2
  0
TEXT
  8
DIM
 10
4.163365
 20
0.166487
 30
0.0
 40
0.166625
  1
x 0.250" LG.  (NOT SUPPLIED)
 41
0.75
 72
     2
 11
7.245928
 21
0.249799
 31
0.0
 73
     2
  0
TEXT
  8
DIM
 10
2.747053
 20
0.721904
 30
0.0
 40
0.166625
  1
MOUNTING BOSSES USE EITHER M2.5 METRIC
 41
0.75
 72
     2
 11
7.245928
 21
0.805216
 31
0.0
 73
     2
  0
TEXT
  8
DIM
 10
4.038397
 20
0.999612
 30
0.0
 40
0.166625
  1
HOLE x 0.310 DEEP (8) PLACES
 41
0.75
 72
     2
 11
7.245928
 21
1.082924
 31
0.0
 73
     2
  0
TEXT
  8
DIM
 10
3.913428
 20
1.27732
 30
0.0
 40
0.166625
  1
0.260 DIA. BOSS WITH 0.093 DIA.
 41
0.75
 72
     2
 11
7.245928
 21
1.360633
 31
0.0
 73
     2
  0
TEXT
  8
DIM
 10
3.705147
 20
0.444195
 30
0.0
 40
0.166625
  1
OR #4 STD. SHEET METAL SCREWS
 41
0.75
 72
     2
 11
7.245928
 21
0.527508
 31
0.0
 73
     2
  0
POLYLINE
  8
DIM
 66
     1
 10
0.0
 20
0.0
 30
0.0
 41
0.089978
  0
VERTEX
  8
DIM
 10
7.827388
 20
1.921699
 30
0.0
  0
VERTEX
  8
DIM
 10
7.739264
 20
1.698527
 30
0.0
 41
0.0
  0
VERTEX
  8
DIM
 10
7.605838
 20
1.360633
 30
0.0
 41
0.0
  0
VERTEX
  8
DIM
 10
7.365898
 20
1.360633
 30
0.0
 41
0.0
  0
SEQEND
  8
DIM
  0
DIMENSION
  8
DIM
  2
*D2
 10
4.687439
 20
12.219418
 30
0.0
 11
4.687439
 21
13.691542
 31
0.0
 13
3.457627
 23
15.163667
 33
0.0
 14
3.457627
 24
12.219418
 34
0.0
 50
90.0
  0
DIMENSION
  8
DIM
  2
*D0
 10
11.541611
 20
17.181825
 30
0.0
 11
8.881986
 21
17.181825
 31
0.0
 13
6.222361
 23
17.601031
 33
0.0
 14
11.541611
 24
17.601031
 34
0.0
  0
DIMENSION
  8
DIM
  2
*D1
 10
5.698902
 20
17.601031
 30
0.0
 11
5.698902
 21
18.251031
 31
0.0
 13
6.229616
 23
18.901031
 33
0.0
 14
6.222361
 24
17.601031
 34
0.0
 50
90.0
  0
DIMENSION
  8
DIM
  2
*D4
 10
5.266152
 20
1.87516
 30
0.0
 11
5.266152
 21
2.847285
 31
0.0
 13
4.02151
 23
3.819409
 33
0.0
 14
4.02151
 24
1.87516
 34
0.0
 50
90.0
  0
DIMENSION
  8
DIM
  2
*D5
 10
10.079997
 20
5.949324
 30
0.0
 11
8.432872
 21
5.949324
 31
0.0
 13
6.785747
 23
6.731702
 33
0.0
 14
10.079997
 24
6.731702
 34
0.0
  0
DIMENSION
  8
DIM
  2
*D3
 10
4.02151
 20
4.326334
 30
0.0
 11
2.87151
 21
4.326334
 31
0.0
 13
1.72151
 23
3.724666
 33
0.0
 14
4.02151
 24
3.819409
 34
0.0
  0
ENDSEC
  0
EOF
