  0
SECTION
  2
HEADER
  9
$ACADVER
  1
AC1009
  9
$INSBASE
 10
0.0
 20
0.0
 30
0.0
  9
$EXTMIN
 10
0.0
 20
0.0
 30
0.0
  9
$EXTMAX
 10
13.407714
 20
20.588071
 30
0.0
  9
$LIMMIN
 10
0.0
 20
0.0
  9
$LIMMAX
 10
12.0
 20
9.0
  9
$ORTHOMODE
 70
     1
  9
$REGENMODE
 70
     1
  9
$FILLMODE
 70
     1
  9
$QTEXTMODE
 70
     0
  9
$MIRRTEXT
 70
     0
  9
$DRAGMODE
 70
     2
  9
$LTSCALE
 40
0.4
  9
$OSMODE
 70
     0
  9
$ATTMODE
 70
     1
  9
$TEXTSIZE
 40
0.167
  9
$TRACEWID
 40
0.05
  9
$TEXTSTYLE
  7
STANDARD
  9
$CLAYER
  8
OBJECT
  9
$CELTYPE
  6
BYLAYER
  9
$CECOLOR
 62
   256
  9
$DIMSCALE
 40
1.333
  9
$DIMASZ
 40
0.18
  9
$DIMEXO
 40
0.063
  9
$DIMDLI
 40
0.38
  9
$DIMRND
 40
0.0
  9
$DIMDLE
 40
0.0
  9
$DIMEXE
 40
0.093
  9
$DIMTP
 40
0.0
  9
$DIMTM
 40
0.0
  9
$DIMTXT
 40
0.125
  9
$DIMCEN
 40
0.09
  9
$DIMTSZ
 40
0.0
  9
$DIMTOL
 70
     0
  9
$DIMLIM
 70
     0
  9
$DIMTIH
 70
     1
  9
$DIMTOH
 70
     1
  9
$DIMSE1
 70
     0
  9
$DIMSE2
 70
     0
  9
$DIMTAD
 70
     0
  9
$DIMZIN
 70
     0
  9
$DIMBLK
  1

  9
$DIMASO
 70
     1
  9
$DIMSHO
 70
     1
  9
$DIMPOST
  1

  9
$DIMAPOST
  1

  9
$DIMALT
 70
     0
  9
$DIMALTD
 70
     2
  9
$DIMALTF
 40
25.4
  9
$DIMLFAC
 40
1.0
  9
$DIMTOFL
 70
     0
  9
$DIMTVP
 40
0.0
  9
$DIMTIX
 70
     0
  9
$DIMSOXD
 70
     0
  9
$DIMSAH
 70
     0
  9
$DIMBLK1
  1

  9
$DIMBLK2
  1

  9
$DIMSTYLE
  2
*UNNAMED
  9
$DIMCLRD
 70
     0
  9
$DIMCLRE
 70
     0
  9
$DIMCLRT
 70
     0
  9
$DIMTFAC
 40
1.0
  9
$DIMGAP
 40
0.09
  9
$LUNITS
 70
     2
  9
$LUPREC
 70
     3
  9
$SKETCHINC
 40
0.1
  9
$FILLETRAD
 40
0.0
  9
$AUNITS
 70
     0
  9
$AUPREC
 70
     0
  9
$MENU
  1
acad
  9
$ELEVATION
 40
0.0
  9
$PELEVATION
 40
0.0
  9
$THICKNESS
 40
0.0
  9
$LIMCHECK
 70
     0
  9
$BLIPMODE
 70
     1
  9
$CHAMFERA
 40
0.0
  9
$CHAMFERB
 40
0.0
  9
$SKPOLY
 70
     0
  9
$TDCREATE
 40
2449107.312620717
  9
$TDUPDATE
 40
2451194.573119444
  9
$TDINDWG
 40
0.0436215278
  9
$TDUSRTIMER
 40
0.0436215278
  9
$USRTIMER
 70
     1
  9
$ANGBASE
 50
0.0
  9
$ANGDIR
 70
     0
  9
$PDMODE
 70
     0
  9
$PDSIZE
 40
0.0
  9
$PLINEWID
 40
0.0
  9
$COORDS
 70
     0
  9
$SPLFRAME
 70
     0
  9
$SPLINETYPE
 70
     6
  9
$SPLINESEGS
 70
     8
  9
$ATTDIA
 70
     0
  9
$ATTREQ
 70
     1
  9
$HANDLING
 70
     0
  9
$HANDSEED
  5
0
  9
$SURFTAB1
 70
     6
  9
$SURFTAB2
 70
     6
  9
$SURFTYPE
 70
     6
  9
$SURFU
 70
     6
  9
$SURFV
 70
     6
  9
$UCSNAME
  2

  9
$UCSORG
 10
0.0
 20
0.0
 30
0.0
  9
$UCSXDIR
 10
1.0
 20
0.0
 30
0.0
  9
$UCSYDIR
 10
0.0
 20
1.0
 30
0.0
  9
$PUCSNAME
  2

  9
$PUCSORG
 10
0.0
 20
0.0
 30
0.0
  9
$PUCSXDIR
 10
1.0
 20
0.0
 30
0.0
  9
$PUCSYDIR
 10
0.0
 20
1.0
 30
0.0
  9
$USERI1
 70
     0
  9
$USERI2
 70
     0
  9
$USERI3
 70
     0
  9
$USERI4
 70
     0
  9
$USERI5
 70
     0
  9
$USERR1
 40
0.0
  9
$USERR2
 40
0.0
  9
$USERR3
 40
0.0
  9
$USERR4
 40
0.0
  9
$USERR5
 40
0.0
  9
$WORLDVIEW
 70
     1
  9
$SHADEDGE
 70
     3
  9
$SHADEDIF
 70
    70
  9
$TILEMODE
 70
     1
  9
$MAXACTVP
 70
    16
  9
$PINSBASE
 10
0.0
 20
0.0
 30
0.0
  9
$PLIMCHECK
 70
     0
  9
$PEXTMIN
 10
1.000000E+20
 20
1.000000E+20
 30
1.000000E+20
  9
$PEXTMAX
 10
-1.000000E+20
 20
-1.000000E+20
 30
-1.000000E+20
  9
$PLIMMIN
 10
0.0
 20
0.0
  9
$PLIMMAX
 10
12.0
 20
9.0
  9
$UNITMODE
 70
     0
  9
$VISRETAIN
 70
     0
  9
$PLINEGEN
 70
     0
  9
$PSLTSCALE
 70
     0
  9
$TREEDEPTH
 70
  3020
  9
$DWGCODEPAGE
  3
undefined
  0
ENDSEC
  0
SECTION
  2
TABLES
  0
TABLE
  2
VPORT
 70
     2
  0
VPORT
  2
*ACTIVE
 70
     0
 10
0.0
 20
0.0
 11
1.0
 21
1.0
 12
14.023972
 22
10.294036
 13
0.0
 23
0.0
 14
1.0
 24
1.0
 15
0.5
 25
0.5
 16
0.0
 26
0.0
 36
1.0
 17
0.0
 27
0.0
 37
0.0
 40
20.588071
 41
1.36234
 42
50.0
 43
0.0
 44
0.0
 50
0.0
 51
0.0
 71
     0
 72
   100
 73
     1
 74
     0
 75
     0
 76
     0
 77
     0
 78
     0
  0
ENDTAB
  0
TABLE
  2
LTYPE
 70
     4
  0
LTYPE
  2
CONTINUOUS
 70
    64
  3
Solid line
 72
    65
 73
     0
 40
0.0
  0
LTYPE
  2
HIDDEN
 70
    64
  3
_ _ _ _ _ _ _ _ _ _ _ _ _ _ _ _ _ _ _ _ _ _ _
 72
    65
 73
     2
 40
0.375
 49
0.25
 49
-0.125
  0
LTYPE
  2
PHANTOM
 70
    64
  3
_____ _ _ _____ _ _ _____ _ _ _____ _ _ ____
 72
    65
 73
     6
 40
2.5
 49
1.25
 49
-0.25
 49
0.25
 49
-0.25
 49
0.25
 49
-0.25
  0
LTYPE
  2
CENTER
 70
    64
  3
____ _ ____ _ ____ _ ____ _ ____ _ ____ _ ____
 72
    65
 73
     4
 40
2.0
 49
1.25
 49
-0.25
 49
0.25
 49
-0.25
  0
ENDTAB
  0
TABLE
  2
LAYER
 70
     9
  0
LAYER
  2
0
 70
    64
 62
     7
  6
CONTINUOUS
  0
LAYER
  2
OBJECT
 70
    64
 62
     7
  6
CONTINUOUS
  0
LAYER
  2
DIM
 70
    64
 62
     7
  6
CONTINUOUS
  0
LAYER
  2
HIDDEN
 70
    64
 62
     7
  6
HIDDEN
  0
LAYER
  2
BEND
 70
    64
 62
     7
  6
PHANTOM
  0
LAYER
  2
TEXT
 70
    64
 62
     7
  6
CONTINUOUS
  0
LAYER
  2
TITLE
 70
    64
 62
     7
  6
CONTINUOUS
  0
LAYER
  2
CENTER
 70
    64
 62
     7
  6
CENTER
  0
LAYER
  2
DEFPOINTS
 70
    64
 62
     7
  6
CONTINUOUS
  0
ENDTAB
  0
TABLE
  2
STYLE
 70
     1
  0
STYLE
  2
STANDARD
 70
    64
 40
0.0
 41
0.75
 50
0.0
 71
     0
 42
0.167
  3
TXT.shx
  4

  0
ENDTAB
  0
TABLE
  2
VIEW
 70
     0
  0
ENDTAB
  0
TABLE
  2
UCS
 70
     0
  0
ENDTAB
  0
TABLE
  2
APPID
 70
     1
  0
APPID
  2
ACAD
 70
    64
  0
ENDTAB
  0
TABLE
  2
DIMSTYLE
 70
     0
  0
ENDTAB
  0
ENDSEC
  0
SECTION
  2
BLOCKS
  0
BLOCK
  8
0
  2
*D0
 70
    65
 10
0.0
 20
0.0
 30
0.0
  3
*D
  0
LINE
  8
0
  6
BYBLOCK
 62
     0
 10
2.070816
 20
7.799248
 30
0.0
 11
2.070816
 21
7.740648
 31
0.0
  0
LINE
  8
0
  6
BYBLOCK
 62
     0
 10
3.370816
 20
7.799248
 30
0.0
 11
3.370816
 21
7.740648
 31
0.0
  0
LINE
  8
0
  6
BYBLOCK
 62
     0
 10
1.830876
 20
7.864617
 30
0.0
 11
1.590936
 21
7.864617
 31
0.0
  0
LINE
  8
0
  6
BYBLOCK
 62
     0
 10
3.610756
 20
7.864617
 30
0.0
 11
3.850696
 21
7.864617
 31
0.0
  0
SOLID
  8
0
  6
BYBLOCK
 62
     0
 10
1.830876
 20
7.904607
 30
0.0
 11
1.830876
 21
7.824627
 31
0.0
 12
2.070816
 22
7.864617
 32
0.0
 13
2.070816
 23
7.864617
 33
0.0
  0
SOLID
  8
0
  6
BYBLOCK
 62
     0
 10
3.610756
 20
7.904607
 30
0.0
 11
3.610756
 21
7.824627
 31
0.0
 12
3.370816
 22
7.864617
 32
0.0
 13
3.370816
 23
7.864617
 33
0.0
  0
TEXT
  8
0
  6
BYBLOCK
 62
     0
 10
3.970666
 20
7.781304
 30
0.0
 40
0.166625
  1
1.300
 41
0.75
 72
     1
 11
4.178947
 21
7.864617
 31
0.0
 73
     2
  0
POINT
  8
DEFPOINTS
  6
BYBLOCK
 62
     0
 10
2.070816
 20
7.883227
 30
0.0
  0
POINT
  8
DEFPOINTS
  6
BYBLOCK
 62
     0
 10
3.370816
 20
7.883227
 30
0.0
  0
POINT
  8
DEFPOINTS
  6
BYBLOCK
 62
     0
 10
3.370816
 20
7.864617
 30
0.0
  0
ENDBLK
  8
0
  0
BLOCK
  8
0
  2
*D1
 70
    65
 10
0.0
 20
0.0
 30
0.0
  3
*D
  0
LINE
  8
0
  6
BYBLOCK
 62
     0
 10
3.554795
 20
8.92923
 30
0.0
 11
4.69413
 21
8.92923
 31
0.0
  0
LINE
  8
0
  6
BYBLOCK
 62
     0
 10
3.554795
 20
5.984981
 30
0.0
 11
4.69413
 21
5.984981
 31
0.0
  0
LINE
  8
0
  6
BYBLOCK
 62
     0
 10
4.570161
 20
8.68929
 30
0.0
 11
4.570161
 21
7.660388
 31
0.0
  0
LINE
  8
0
  6
BYBLOCK
 62
     0
 10
4.570161
 20
6.224921
 30
0.0
 11
4.570161
 21
7.253823
 31
0.0
  0
SOLID
  8
0
  6
BYBLOCK
 62
     0
 10
4.530171
 20
8.68929
 30
0.0
 11
4.610151
 21
8.68929
 31
0.0
 12
4.570161
 22
8.92923
 32
0.0
 13
4.570161
 23
8.92923
 33
0.0
  0
SOLID
  8
0
  6
BYBLOCK
 62
     0
 10
4.530171
 20
6.224921
 30
0.0
 11
4.610151
 21
6.224921
 31
0.0
 12
4.570161
 22
5.984981
 32
0.0
 13
4.570161
 23
5.984981
 33
0.0
  0
TEXT
  8
0
  6
BYBLOCK
 62
     0
 10
4.320224
 20
7.373793
 30
0.0
 40
0.166625
  1
2.944
 41
0.75
 72
     1
 11
4.570161
 21
7.457106
 31
0.0
 73
     2
  0
POINT
  8
DEFPOINTS
  6
BYBLOCK
 62
     0
 10
3.470816
 20
8.92923
 30
0.0
  0
POINT
  8
DEFPOINTS
  6
BYBLOCK
 62
     0
 10
3.470816
 20
5.984981
 30
0.0
  0
POINT
  8
DEFPOINTS
  6
BYBLOCK
 62
     0
 10
4.570161
 20
5.984981
 30
0.0
  0
ENDBLK
  8
0
  0
BLOCK
  8
0
  2
*D2
 70
    65
 10
0.0
 20
0.0
 30
0.0
  3
*D
  0
LINE
  8
0
  6
BYBLOCK
 62
     0
 10
6.13555
 20
12.470321
 30
0.0
 11
6.13555
 21
11.420021
 31
0.0
  0
LINE
  8
0
  6
BYBLOCK
 62
     0
 10
11.454799
 20
12.470321
 30
0.0
 11
11.454799
 21
11.420021
 31
0.0
  0
LINE
  8
0
  6
BYBLOCK
 62
     0
 10
6.37549
 20
11.54399
 30
0.0
 11
8.446095
 21
11.54399
 31
0.0
  0
LINE
  8
0
  6
BYBLOCK
 62
     0
 10
11.214859
 20
11.54399
 30
0.0
 11
9.144254
 21
11.54399
 31
0.0
  0
SOLID
  8
0
  6
BYBLOCK
 62
     0
 10
6.37549
 20
11.58398
 30
0.0
 11
6.37549
 21
11.504
 31
0.0
 12
6.13555
 22
11.54399
 32
0.0
 13
6.13555
 23
11.54399
 33
0.0
  0
SOLID
  8
0
  6
BYBLOCK
 62
     0
 10
11.214859
 20
11.58398
 30
0.0
 11
11.214859
 21
11.504
 31
0.0
 12
11.454799
 22
11.54399
 32
0.0
 13
11.454799
 23
11.54399
 33
0.0
  0
TEXT
  8
0
  6
BYBLOCK
 62
     0
 10
8.566065
 20
11.460678
 30
0.0
 40
0.166625
  1
5.319
 41
0.75
 72
     1
 11
8.795174
 21
11.54399
 31
0.0
 73
     2
  0
POINT
  8
DEFPOINTS
  6
BYBLOCK
 62
     0
 10
6.13555
 20
12.5543
 30
0.0
  0
POINT
  8
DEFPOINTS
  6
BYBLOCK
 62
     0
 10
11.454799
 20
12.5543
 30
0.0
  0
POINT
  8
DEFPOINTS
  6
BYBLOCK
 62
     0
 10
11.454799
 20
11.54399
 30
0.0
  0
ENDBLK
  8
0
  0
ENDSEC
  0
SECTION
  2
ENTITIES
  0
TEXT
  8
TEXT
 10
0.2666
 20
20.001657
 30
0.0
 40
0.166625
  1
NAME
 41
0.75
 72
     1
 11
0.49571
 21
20.001657
 31
0.0
  0
TEXT
  8
TEXT
 10
0.2666
 20
20.279365
 30
0.0
 40
0.166625
  1
PART
 41
0.75
 72
     1
 11
0.49571
 21
20.279365
 31
0.0
  0
TEXT
  8
TEXT
 10
7.115721
 20
20.001657
 30
0.0
 40
0.166625
  1
No.
 41
0.75
 72
     1
 11
7.24069
 21
20.001657
 31
0.0
  0
TEXT
  8
TEXT
 10
7.01158
 20
20.279365
 30
0.0
 40
0.166625
  1
PART
 41
0.75
 72
     1
 11
7.24069
 21
20.279365
 31
0.0
  0
LINE
  8
TITLE
 10
7.740565
 20
20.505425
 30
0.0
 11
7.740565
 21
19.948231
 31
0.0
  0
LINE
  8
TITLE
 10
6.740815
 20
20.505425
 30
0.0
 11
6.740815
 21
19.948231
 31
0.0
  0
LINE
  8
TITLE
 10
6.658169
 20
20.505425
 30
0.0
 11
6.658169
 21
19.948231
 31
0.0
  0
LINE
  8
TITLE
 10
0.995585
 20
19.948231
 30
0.0
 11
0.995585
 21
20.505425
 31
0.0
  0
LINE
  8
TITLE
 10
0.082222
 20
19.948231
 30
0.0
 11
13.320503
 21
19.948231
 31
0.0
  0
LINE
  8
TITLE
 10
13.320503
 20
20.505425
 30
0.0
 11
13.320503
 21
10.272353
 31
0.0
  0
LINE
  8
TITLE
 10
0.082222
 20
20.505425
 30
0.0
 11
13.320503
 21
20.505425
 31
0.0
  0
LINE
  8
TITLE
 10
0.0
 20
0.0
 30
0.0
 11
0.0
 21
20.587335
 31
0.0
  0
LINE
  8
TITLE
 10
0.0
 20
20.588071
 30
0.0
 11
13.407714
 21
20.588071
 31
0.0
  0
TEXT
  8
DIM
 10
0.294865
 20
14.485987
 30
0.0
 40
0.166625
  1

  0
TEXT
  8
DIM
 10
4.888364
 20
14.120198
 30
0.0
 40
0.166625
  1

  0
TEXT
  8
TEXT
 10
2.076877
 20
20.101828
 30
0.0
 40
0.25
  1
PLASTIBOX  (STYLE A)
 41
0.75
 72
     1
 11
3.826877
 21
20.101828
 31
0.0
  0
TEXT
  8
TEXT
 10
0.395675
 20
18.549887
 30
0.0
 40
0.167
  1
MATERIAL: HIGH-IMPACT ABS
 41
0.75
  0
TEXT
  8
TEXT
 10
0.395675
 20
18.271554
 30
0.0
 40
0.167
  1
COLOR: BLACK OR GRAY
 41
0.75
  0
TEXT
  8
TEXT
 10
0.391707
 20
17.99052
 30
0.0
 40
0.167
  1
FINISH: TEXTURED BODY WITH
 41
0.75
  0
TEXT
  8
TEXT
 10
7.611962
 20
18.578709
 30
0.0
 40
0.167
  1
FOUR (4) #4 x 0.375" LG. SCREWS
 41
0.75
  0
TEXT
  8
TEXT
 10
7.792698
 20
18.300376
 30
0.0
 40
0.167
  1
SUPPLIED FOR ASSEMBLING TOP.
 41
0.75
  0
TEXT
  8
TEXT
 10
7.611962
 20
17.886794
 30
0.0
 40
0.167
  1
FOUR (4) NON-SKID PUSH-ON FEET SUPPLIED
 41
0.75
  0
TEXT
  8
DIM
 10
11.650634
 20
4.695133
 30
0.0
 40
0.167
  1
CUSTOM
 41
0.75
  0
TEXT
  8
DIM
 10
11.650634
 20
4.973466
 30
0.0
 40
0.167
  1
AREA FOR
 41
0.75
  0
LINE
  8
DIM
 10
11.316675
 20
5.052499
 30
0.0
 11
11.556615
 21
5.052499
 31
0.0
  0
SOLID
  8
DIM
 10
10.656244
 20
6.347768
 30
0.0
 11
10.728424
 21
6.382218
 31
0.0
 12
10.588985
 22
6.581535
 32
0.0
 13
10.588985
 23
6.581535
 33
0.0
  0
LINE
  8
DIM
 10
10.692334
 20
6.364993
 30
0.0
 11
11.316675
 21
5.052499
 31
0.0
  0
ARC
  8
OBJECT
 10
3.370816
 20
8.92923
 30
0.0
 40
0.1
 50
0.0
 51
85.0
  0
ARC
  8
OBJECT
 10
3.370816
 20
5.984981
 30
0.0
 40
0.1
 50
275.0
 51
0.0
  0
ARC
  8
OBJECT
 10
2.070816
 20
8.921975
 30
0.0
 40
0.1
 50
95.0
 51
180.0
  0
ARC
  8
OBJECT
 10
2.070816
 20
5.992236
 30
0.0
 40
0.1
 50
180.0
 51
265.0
  0
LINE
  8
OBJECT
 10
3.080889
 20
8.767596
 30
0.0
 11
3.370816
 21
8.742224
 31
0.0
  0
LINE
  8
OBJECT
 10
3.080889
 20
8.767596
 30
0.0
 11
3.080889
 21
8.954596
 31
0.0
  0
LINE
  8
OBJECT
 10
3.080889
 20
6.146615
 30
0.0
 11
3.370816
 21
6.171987
 31
0.0
  0
LINE
  8
OBJECT
 10
3.080889
 20
6.146615
 30
0.0
 11
3.080889
 21
5.959615
 31
0.0
  0
LINE
  8
OBJECT
 10
2.753816
 20
5.892106
 30
0.0
 11
2.753816
 21
5.832106
 31
0.0
  0
LINE
  8
OBJECT
 10
2.770816
 20
5.892106
 30
0.0
 11
2.770816
 21
5.832106
 31
0.0
  0
LINE
  8
OBJECT
 10
2.753816
 20
5.932488
 30
0.0
 11
2.753816
 21
6.064606
 31
0.0
  0
LINE
  8
HIDDEN
 10
2.652742
 20
6.266606
 30
0.0
 11
2.652742
 21
6.172606
 31
0.0
  0
LINE
  8
HIDDEN
 10
2.683742
 20
6.141606
 30
0.0
 11
2.652742
 21
6.172606
 31
0.0
  0
LINE
  8
HIDDEN
 10
2.683742
 20
6.297606
 30
0.0
 11
2.652742
 21
6.266606
 31
0.0
  0
LINE
  8
HIDDEN
 10
2.683742
 20
6.284606
 30
0.0
 11
2.743742
 21
6.284606
 31
0.0
  0
LINE
  8
HIDDEN
 10
2.683742
 20
6.154606
 30
0.0
 11
2.743742
 21
6.154606
 31
0.0
  0
LINE
  8
HIDDEN
 10
3.470816
 20
6.341606
 30
0.0
 11
2.743742
 21
6.341606
 31
0.0
  0
LINE
  8
HIDDEN
 10
3.470816
 20
6.097606
 30
0.0
 11
2.743742
 21
6.097606
 31
0.0
  0
LINE
  8
HIDDEN
 10
2.743742
 20
6.097606
 30
0.0
 11
2.743742
 21
6.341606
 31
0.0
  0
LINE
  8
HIDDEN
 10
2.652742
 20
6.266606
 30
0.0
 11
2.070742
 21
6.266606
 31
0.0
  0
LINE
  8
HIDDEN
 10
2.652742
 20
6.172606
 30
0.0
 11
2.070742
 21
6.172606
 31
0.0
  0
LINE
  8
OBJECT
 10
2.683742
 20
6.349606
 30
0.0
 11
2.070742
 21
6.349606
 31
0.0
  0
LINE
  8
OBJECT
 10
2.683742
 20
6.089606
 30
0.0
 11
2.360742
 21
6.089606
 31
0.0
  0
LINE
  8
OBJECT
 10
2.683742
 20
6.064606
 30
0.0
 11
2.683742
 21
6.374606
 31
0.0
  0
LINE
  8
OBJECT
 10
2.683742
 20
6.374606
 30
0.0
 11
3.370816
 21
6.374606
 31
0.0
  0
LINE
  8
OBJECT
 10
2.683742
 20
6.064606
 30
0.0
 11
3.080889
 21
6.064606
 31
0.0
  0
LINE
  8
OBJECT
 10
2.753742
 20
5.932488
 30
0.0
 11
2.753742
 21
6.064606
 31
0.0
  0
LINE
  8
OBJECT
 10
2.770816
 20
5.932488
 30
0.0
 11
2.770816
 21
6.064606
 31
0.0
  0
LINE
  8
OBJECT
 10
2.770816
 20
5.932488
 30
0.0
 11
2.683742
 21
5.932488
 31
0.0
  0
LINE
  8
OBJECT
 10
2.753742
 20
5.892106
 30
0.0
 11
2.770816
 21
5.892106
 31
0.0
  0
LINE
  8
OBJECT
 10
2.683742
 20
5.892106
 30
0.0
 11
2.683742
 21
5.938612
 31
0.0
  0
LINE
  8
OBJECT
 10
2.683742
 20
5.892106
 30
0.0
 11
2.753742
 21
5.892106
 31
0.0
  0
LINE
  8
OBJECT
 10
2.770816
 20
5.932488
 30
0.0
 11
3.370816
 21
5.984981
 31
0.0
  0
LINE
  8
OBJECT
 10
2.683742
 20
5.938612
 30
0.0
 11
2.070816
 21
5.992236
 31
0.0
  0
LINE
  8
OBJECT
 10
2.770816
 20
5.832106
 30
0.0
 11
2.770816
 21
5.892106
 31
0.0
  0
LINE
  8
OBJECT
 10
2.753742
 20
5.832106
 30
0.0
 11
2.753742
 21
5.892106
 31
0.0
  0
LINE
  8
OBJECT
 10
2.770816
 20
5.832106
 30
0.0
 11
3.379531
 21
5.885361
 31
0.0
  0
LINE
  8
OBJECT
 10
2.753742
 20
5.832106
 30
0.0
 11
2.0621
 21
5.892616
 31
0.0
  0
LINE
  8
OBJECT
 10
2.360742
 20
6.153871
 30
0.0
 11
2.360742
 21
5.966871
 31
0.0
  0
LINE
  8
OBJECT
 10
2.360742
 20
6.153871
 30
0.0
 11
2.070816
 21
6.179242
 31
0.0
  0
LINE
  8
OBJECT
 10
2.360742
 20
8.760341
 30
0.0
 11
2.070816
 21
8.734969
 31
0.0
  0
LINE
  8
OBJECT
 10
2.360742
 20
8.760341
 30
0.0
 11
2.360742
 21
8.947341
 31
0.0
  0
LINE
  8
OBJECT
 10
2.753816
 20
8.539606
 30
0.0
 11
2.753816
 21
6.374606
 31
0.0
  0
LINE
  8
OBJECT
 10
2.770816
 20
8.539606
 30
0.0
 11
2.770816
 21
6.374606
 31
0.0
  0
LINE
  8
OBJECT
 10
2.753742
 20
9.082106
 30
0.0
 11
2.0621
 21
9.021595
 31
0.0
  0
LINE
  8
OBJECT
 10
2.770816
 20
9.082106
 30
0.0
 11
3.379531
 21
9.02885
 31
0.0
  0
LINE
  8
OBJECT
 10
2.753742
 20
9.082106
 30
0.0
 11
2.753742
 21
9.022106
 31
0.0
  0
LINE
  8
OBJECT
 10
2.770816
 20
9.082106
 30
0.0
 11
2.770816
 21
9.022106
 31
0.0
  0
LINE
  8
OBJECT
 10
2.683742
 20
8.975599
 30
0.0
 11
2.070816
 21
8.921975
 31
0.0
  0
LINE
  8
OBJECT
 10
2.770816
 20
8.981724
 30
0.0
 11
3.370816
 21
8.92923
 31
0.0
  0
LINE
  8
OBJECT
 10
2.683742
 20
9.022106
 30
0.0
 11
2.753742
 21
9.022106
 31
0.0
  0
LINE
  8
OBJECT
 10
2.683742
 20
9.022106
 30
0.0
 11
2.683742
 21
8.975599
 31
0.0
  0
LINE
  8
OBJECT
 10
2.753742
 20
9.022106
 30
0.0
 11
2.770816
 21
9.022106
 31
0.0
  0
LINE
  8
OBJECT
 10
2.770816
 20
8.981724
 30
0.0
 11
2.683742
 21
8.981724
 31
0.0
  0
LINE
  8
OBJECT
 10
2.770816
 20
8.981724
 30
0.0
 11
2.770816
 21
8.849606
 31
0.0
  0
LINE
  8
OBJECT
 10
2.753742
 20
8.981724
 30
0.0
 11
2.753742
 21
8.849606
 31
0.0
  0
LINE
  8
OBJECT
 10
2.683742
 20
8.849606
 30
0.0
 11
3.080889
 21
8.849606
 31
0.0
  0
LINE
  8
OBJECT
 10
2.683742
 20
8.539606
 30
0.0
 11
3.370816
 21
8.539606
 31
0.0
  0
LINE
  8
OBJECT
 10
2.683742
 20
8.849606
 30
0.0
 11
2.683742
 21
8.539606
 31
0.0
  0
LINE
  8
OBJECT
 10
2.683742
 20
8.824606
 30
0.0
 11
2.360742
 21
8.824606
 31
0.0
  0
LINE
  8
OBJECT
 10
2.683742
 20
8.564606
 30
0.0
 11
2.070742
 21
8.564606
 31
0.0
  0
LINE
  8
HIDDEN
 10
2.652742
 20
8.741606
 30
0.0
 11
2.070742
 21
8.741606
 31
0.0
  0
LINE
  8
HIDDEN
 10
2.652742
 20
8.647606
 30
0.0
 11
2.070742
 21
8.647606
 31
0.0
  0
LINE
  8
HIDDEN
 10
2.743742
 20
8.816606
 30
0.0
 11
2.743742
 21
8.572606
 31
0.0
  0
LINE
  8
HIDDEN
 10
3.470816
 20
8.816606
 30
0.0
 11
2.743742
 21
8.816606
 31
0.0
  0
LINE
  8
HIDDEN
 10
3.470816
 20
8.572606
 30
0.0
 11
2.743742
 21
8.572606
 31
0.0
  0
LINE
  8
HIDDEN
 10
2.683742
 20
8.759606
 30
0.0
 11
2.743742
 21
8.759606
 31
0.0
  0
LINE
  8
HIDDEN
 10
2.683742
 20
8.629606
 30
0.0
 11
2.743742
 21
8.629606
 31
0.0
  0
LINE
  8
HIDDEN
 10
2.683742
 20
8.616606
 30
0.0
 11
2.652742
 21
8.647606
 31
0.0
  0
LINE
  8
HIDDEN
 10
2.683742
 20
8.772606
 30
0.0
 11
2.652742
 21
8.741606
 31
0.0
  0
LINE
  8
HIDDEN
 10
2.652742
 20
8.647606
 30
0.0
 11
2.652742
 21
8.741606
 31
0.0
  0
LINE
  8
OBJECT
 10
3.370816
 20
8.92923
 30
0.0
 11
3.370816
 21
5.984981
 31
0.0
  0
LINE
  8
OBJECT
 10
3.470816
 20
8.92923
 30
0.0
 11
3.470816
 21
5.984981
 31
0.0
  0
LINE
  8
OBJECT
 10
2.753816
 20
8.981724
 30
0.0
 11
2.753816
 21
8.849606
 31
0.0
  0
LINE
  8
OBJECT
 10
2.070816
 20
5.992236
 30
0.0
 11
2.070816
 21
8.921975
 31
0.0
  0
LINE
  8
CENTER
 10
1.790947
 20
7.457106
 30
0.0
 11
3.650685
 21
7.457106
 31
0.0
  0
LINE
  8
OBJECT
 10
1.970816
 20
5.992236
 30
0.0
 11
1.970816
 21
8.921975
 31
0.0
  0
TEXT
  8
DIM
 10
7.296432
 20
7.978872
 30
0.0
 40
0.166625
  1
 REF.
 41
0.75
  0
TEXT
  8
DIM
 10
7.440593
 20
8.238804
 30
0.0
 40
0.166625
  1
0.060
 41
0.75
  0
LINE
  8
DIM
 10
6.655253
 20
8.660412
 30
0.0
 11
6.655253
 21
8.198147
 31
0.0
  0
LINE
  8
DIM
 10
6.595174
 20
8.660412
 30
0.0
 11
6.595174
 21
8.198147
 31
0.0
  0
LINE
  8
DIM
 10
6.895193
 20
8.322116
 30
0.0
 11
7.333801
 21
8.322116
 31
0.0
  0
LINE
  8
DIM
 10
6.355234
 20
8.322116
 30
0.0
 11
6.115294
 21
8.322116
 31
0.0
  0
SOLID
  8
DIM
 10
6.895193
 20
8.282126
 30
0.0
 11
6.895193
 21
8.362106
 31
0.0
 12
6.655253
 22
8.322116
 32
0.0
 13
6.655253
 23
8.322116
 33
0.0
  0
SOLID
  8
DIM
 10
6.355234
 20
8.282126
 30
0.0
 11
6.355234
 21
8.362106
 31
0.0
 12
6.595174
 22
8.322116
 32
0.0
 13
6.595174
 23
8.322116
 33
0.0
  0
TEXT
  8
DIM
 10
9.602119
 20
4.26935
 30
0.0
 40
0.166625
  1
2.125
 41
0.75
  0
SOLID
  8
DIM
 10
10.680234
 20
4.312672
 30
0.0
 11
10.680234
 21
4.392652
 31
0.0
 12
10.920174
 22
4.352662
 32
0.0
 13
10.920174
 23
4.352662
 33
0.0
  0
SOLID
  8
DIM
 10
9.035114
 20
4.312672
 30
0.0
 11
9.035114
 21
4.392652
 31
0.0
 12
8.795174
 22
4.352662
 32
0.0
 13
8.795174
 23
4.352662
 33
0.0
  0
LINE
  8
DIM
 10
10.680234
 20
4.352662
 30
0.0
 11
10.163942
 21
4.352662
 31
0.0
  0
LINE
  8
DIM
 10
9.035114
 20
4.352662
 30
0.0
 11
9.511146
 21
4.352662
 31
0.0
  0
LINE
  8
DIM
 10
10.920174
 20
6.123793
 30
0.0
 11
10.920174
 21
4.228693
 31
0.0
  0
LINE
  8
DIM
 10
8.795174
 20
5.556999
 30
0.0
 11
8.795174
 21
4.228693
 31
0.0
  0
TEXT
  8
DIM
 10
7.775241
 20
5.099165
 30
0.0
 40
0.166625
  1
0.125
 41
0.75
  0
SOLID
  8
DIM
 10
9.160114
 20
5.142487
 30
0.0
 11
9.160114
 21
5.222467
 31
0.0
 12
8.920174
 22
5.182477
 32
0.0
 13
8.920174
 23
5.182477
 33
0.0
  0
SOLID
  8
DIM
 10
8.555234
 20
5.142487
 30
0.0
 11
8.555234
 21
5.222467
 31
0.0
 12
8.795174
 22
5.182477
 32
0.0
 13
8.795174
 23
5.182477
 33
0.0
  0
LINE
  8
DIM
 10
9.160114
 20
5.182477
 30
0.0
 11
9.400054
 21
5.182477
 31
0.0
  0
LINE
  8
DIM
 10
8.555234
 20
5.182477
 30
0.0
 11
8.315294
 21
5.182477
 31
0.0
  0
LINE
  8
DIM
 10
8.920174
 20
6.123793
 30
0.0
 11
8.920174
 21
5.058508
 31
0.0
  0
TEXT
  8
DIM
 10
8.511848
 20
10.967494
 30
0.0
 40
0.166625
  1
5.625
 41
0.75
  0
SOLID
  8
DIM
 10
11.367734
 20
11.010817
 30
0.0
 11
11.367734
 21
11.090797
 31
0.0
 12
11.607674
 22
11.050807
 32
0.0
 13
11.607674
 23
11.050807
 33
0.0
  0
SOLID
  8
DIM
 10
6.222614
 20
11.010817
 30
0.0
 11
6.222614
 21
11.090797
 31
0.0
 12
5.982674
 22
11.050807
 32
0.0
 13
5.982674
 23
11.050807
 33
0.0
  0
LINE
  8
DIM
 10
11.367734
 20
11.050807
 30
0.0
 11
9.129213
 21
11.050807
 31
0.0
  0
LINE
  8
DIM
 10
6.222614
 20
11.050807
 30
0.0
 11
8.431343
 21
11.050807
 31
0.0
  0
LINE
  8
DIM
 10
11.607674
 20
9.115418
 30
0.0
 11
11.607674
 21
11.174776
 31
0.0
  0
LINE
  8
DIM
 10
5.982674
 20
9.115418
 30
0.0
 11
5.982674
 21
11.174776
 31
0.0
  0
TEXT
  8
DIM
 10
12.532926
 20
7.373793
 30
0.0
 40
0.166625
  1
3.250
 41
0.75
  0
SOLID
  8
DIM
 10
12.842357
 20
8.842166
 30
0.0
 11
12.762377
 21
8.842166
 31
0.0
 12
12.802367
 22
9.082106
 32
0.0
 13
12.802367
 23
9.082106
 33
0.0
  0
SOLID
  8
DIM
 10
12.842357
 20
6.072046
 30
0.0
 11
12.762377
 21
6.072046
 31
0.0
 12
12.802367
 22
5.832106
 32
0.0
 13
12.802367
 23
5.832106
 33
0.0
  0
LINE
  8
DIM
 10
12.802367
 20
8.842166
 30
0.0
 11
12.802367
 21
7.630911
 31
0.0
  0
LINE
  8
DIM
 10
12.802367
 20
6.072046
 30
0.0
 11
12.802367
 21
7.302848
 31
0.0
  0
LINE
  8
DIM
 10
11.640987
 20
9.082106
 30
0.0
 11
12.926336
 21
9.082106
 31
0.0
  0
LINE
  8
DIM
 10
11.640987
 20
5.832106
 30
0.0
 11
12.926336
 21
5.832106
 31
0.0
  0
LINE
  8
DIM
 10
11.266674
 20
6.207106
 30
0.0
 11
12.247651
 21
6.207106
 31
0.0
  0
LINE
  8
DIM
 10
11.266674
 20
8.707106
 30
0.0
 11
12.247651
 21
8.707106
 31
0.0
  0
LINE
  8
DIM
 10
11.003487
 20
6.207106
 30
0.0
 11
11.173674
 21
6.207106
 31
0.0
  0
LINE
  8
DIM
 10
12.123682
 20
6.447046
 30
0.0
 11
12.123682
 21
6.668389
 31
0.0
  0
LINE
  8
DIM
 10
12.123682
 20
7.217166
 30
0.0
 11
12.123682
 21
6.986363
 31
0.0
  0
SOLID
  8
DIM
 10
12.163672
 20
6.447046
 30
0.0
 11
12.083692
 21
6.447046
 31
0.0
 12
12.123682
 22
6.207106
 32
0.0
 13
12.123682
 23
6.207106
 33
0.0
  0
SOLID
  8
DIM
 10
12.163672
 20
7.217166
 30
0.0
 11
12.083692
 21
7.217166
 31
0.0
 12
12.123682
 22
7.457106
 32
0.0
 13
12.123682
 23
7.457106
 33
0.0
  0
TEXT
  8
DIM
 10
11.882013
 20
6.748793
 30
0.0
 40
0.166625
  1
1.250
 41
0.75
  0
TEXT
  8
DIM
 10
11.882013
 20
7.998793
 30
0.0
 40
0.166625
  1
1.250
 41
0.75
  0
SOLID
  8
DIM
 10
12.163672
 20
7.697046
 30
0.0
 11
12.083692
 21
7.697046
 31
0.0
 12
12.123682
 22
7.457106
 32
0.0
 13
12.123682
 23
7.457106
 33
0.0
  0
SOLID
  8
DIM
 10
12.163672
 20
8.467166
 30
0.0
 11
12.083692
 21
8.467166
 31
0.0
 12
12.123682
 22
8.707106
 32
0.0
 13
12.123682
 23
8.707106
 33
0.0
  0
LINE
  8
DIM
 10
12.123682
 20
7.697046
 30
0.0
 11
12.123682
 21
7.918389
 31
0.0
  0
LINE
  8
DIM
 10
12.123682
 20
8.467166
 30
0.0
 11
12.123682
 21
8.236363
 31
0.0
  0
LINE
  8
DIM
 10
11.95558
 20
7.457106
 30
0.0
 11
12.247651
 21
7.457106
 31
0.0
  0
LINE
  8
DIM
 10
11.003487
 20
8.707106
 30
0.0
 11
11.173674
 21
8.707106
 31
0.0
  0
TEXT
  8
DIM
 10
8.936265
 20
9.450388
 30
0.0
 40
0.166625
  1
0.750
 41
0.75
  0
SOLID
  8
DIM
 10
8.555234
 20
9.49371
 30
0.0
 11
8.555234
 21
9.57369
 31
0.0
 12
8.795174
 22
9.5337
 32
0.0
 13
8.795174
 23
9.5337
 33
0.0
  0
SOLID
  8
DIM
 10
9.785114
 20
9.49371
 30
0.0
 11
9.785114
 21
9.57369
 31
0.0
 12
9.545174
 22
9.5337
 32
0.0
 13
9.545174
 23
9.5337
 33
0.0
  0
LINE
  8
DIM
 10
8.555234
 20
9.5337
 30
0.0
 11
8.315294
 21
9.5337
 31
0.0
  0
LINE
  8
DIM
 10
9.785114
 20
9.5337
 30
0.0
 11
10.025054
 21
9.5337
 31
0.0
  0
LINE
  8
DIM
 10
9.545174
 20
9.039408
 30
0.0
 11
9.545174
 21
9.657669
 31
0.0
  0
LINE
  8
DIM
 10
10.995174
 20
9.039408
 30
0.0
 11
10.995174
 21
10.379772
 31
0.0
  0
LINE
  8
DIM
 10
10.755234
 20
10.255803
 30
0.0
 11
10.181311
 21
10.255803
 31
0.0
  0
LINE
  8
DIM
 10
9.035114
 20
10.255803
 30
0.0
 11
9.538983
 21
10.255803
 31
0.0
  0
SOLID
  8
DIM
 10
10.755234
 20
10.215813
 30
0.0
 11
10.755234
 21
10.295793
 31
0.0
 12
10.995174
 22
10.255803
 32
0.0
 13
10.995174
 23
10.255803
 33
0.0
  0
SOLID
  8
DIM
 10
9.035114
 20
10.215813
 30
0.0
 11
9.035114
 21
10.295793
 31
0.0
 12
8.795174
 22
10.255803
 32
0.0
 13
8.795174
 23
10.255803
 33
0.0
  0
TEXT
  8
DIM
 10
9.639619
 20
10.172491
 30
0.0
 40
0.166625
  1
2.200
 41
0.75
  0
LINE
  8
DIM
 10
11.220174
 20
8.790418
 30
0.0
 11
11.220174
 21
10.786749
 31
0.0
  0
LINE
  8
DIM
 10
10.980234
 20
10.66278
 30
0.0
 11
10.321582
 21
10.66278
 31
0.0
  0
LINE
  8
DIM
 10
9.035114
 20
10.66278
 30
0.0
 11
9.623712
 21
10.66278
 31
0.0
  0
SOLID
  8
DIM
 10
10.980234
 20
10.62279
 30
0.0
 11
10.980234
 21
10.70277
 31
0.0
 12
11.220174
 22
10.66278
 32
0.0
 13
11.220174
 23
10.66278
 33
0.0
  0
SOLID
  8
DIM
 10
9.035114
 20
10.62279
 30
0.0
 11
9.035114
 21
10.70277
 31
0.0
 12
8.795174
 22
10.66278
 32
0.0
 13
8.795174
 23
10.66278
 33
0.0
  0
TEXT
  8
DIM
 10
9.724348
 20
10.579467
 30
0.0
 40
0.166625
  1
2.425
 41
0.75
  0
TEXT
  8
DIM
 10
7.299348
 20
10.579467
 30
0.0
 40
0.166625
  1
2.425
 41
0.75
  0
SOLID
  8
DIM
 10
8.555234
 20
10.62279
 30
0.0
 11
8.555234
 21
10.70277
 31
0.0
 12
8.795174
 22
10.66278
 32
0.0
 13
8.795174
 23
10.66278
 33
0.0
  0
SOLID
  8
DIM
 10
6.610114
 20
10.62279
 30
0.0
 11
6.610114
 21
10.70277
 31
0.0
 12
6.370174
 22
10.66278
 32
0.0
 13
6.370174
 23
10.66278
 33
0.0
  0
LINE
  8
DIM
 10
8.555234
 20
10.66278
 30
0.0
 11
7.916713
 21
10.66278
 31
0.0
  0
LINE
  8
DIM
 10
6.610114
 20
10.66278
 30
0.0
 11
7.198712
 21
10.66278
 31
0.0
  0
LINE
  8
DIM
 10
8.795174
 20
9.665418
 30
0.0
 11
8.795174
 21
10.786749
 31
0.0
  0
LINE
  8
DIM
 10
6.370174
 20
8.790418
 30
0.0
 11
6.370174
 21
10.786749
 31
0.0
  0
TEXT
  8
DIM
 10
7.439619
 20
10.172491
 30
0.0
 40
0.166625
  1
2.200
 41
0.75
  0
SOLID
  8
DIM
 10
8.555234
 20
10.215813
 30
0.0
 11
8.555234
 21
10.295793
 31
0.0
 12
8.795174
 22
10.255803
 32
0.0
 13
8.795174
 23
10.255803
 33
0.0
  0
SOLID
  8
DIM
 10
6.835114
 20
10.215813
 30
0.0
 11
6.835114
 21
10.295793
 31
0.0
 12
6.595174
 22
10.255803
 32
0.0
 13
6.595174
 23
10.255803
 33
0.0
  0
LINE
  8
DIM
 10
8.555234
 20
10.255803
 30
0.0
 11
8.001442
 21
10.255803
 31
0.0
  0
LINE
  8
DIM
 10
6.835114
 20
10.255803
 30
0.0
 11
7.349451
 21
10.255803
 31
0.0
  0
LINE
  8
DIM
 10
6.595174
 20
9.039408
 30
0.0
 11
6.595174
 21
10.379772
 31
0.0
  0
TEXT
  8
DIM
 10
8.164515
 20
9.793058
 30
0.0
 40
0.166625
  1
0.750
 41
0.75
  0
SOLID
  8
DIM
 10
9.035114
 20
9.836381
 30
0.0
 11
9.035114
 21
9.916361
 31
0.0
 12
8.795174
 22
9.876371
 32
0.0
 13
8.795174
 23
9.876371
 33
0.0
  0
SOLID
  8
DIM
 10
7.805234
 20
9.836381
 30
0.0
 11
7.805234
 21
9.916361
 31
0.0
 12
8.045174
 22
9.876371
 32
0.0
 13
8.045174
 23
9.876371
 33
0.0
  0
LINE
  8
DIM
 10
9.035114
 20
9.876371
 30
0.0
 11
9.275054
 21
9.876371
 31
0.0
  0
LINE
  8
DIM
 10
7.805234
 20
9.876371
 30
0.0
 11
7.565294
 21
9.876371
 31
0.0
  0
LINE
  8
DIM
 10
8.045174
 20
9.039408
 30
0.0
 11
8.045174
 21
10.00034
 31
0.0
  0
LINE
  8
DIM
 10
10.170174
 20
6.123793
 30
0.0
 11
10.170174
 21
4.630971
 31
0.0
  0
LINE
  8
DIM
 10
9.930234
 20
4.75494
 30
0.0
 11
9.768477
 21
4.75494
 31
0.0
  0
LINE
  8
DIM
 10
9.035114
 20
4.75494
 30
0.0
 11
9.162753
 21
4.75494
 31
0.0
  0
SOLID
  8
DIM
 10
9.930234
 20
4.71495
 30
0.0
 11
9.930234
 21
4.79493
 31
0.0
 12
10.170174
 22
4.75494
 32
0.0
 13
10.170174
 23
4.75494
 33
0.0
  0
SOLID
  8
DIM
 10
9.035114
 20
4.71495
 30
0.0
 11
9.035114
 21
4.79493
 31
0.0
 12
8.795174
 22
4.75494
 32
0.0
 13
8.795174
 23
4.75494
 33
0.0
  0
TEXT
  8
DIM
 10
9.225702
 20
4.671627
 30
0.0
 40
0.166625
  1
1.375
 41
0.75
  0
TEXT
  8
DIM
 10
7.853536
 20
4.671627
 30
0.0
 40
0.166625
  1
1.375
 41
0.75
  0
SOLID
  8
DIM
 10
8.555234
 20
4.71495
 30
0.0
 11
8.555234
 21
4.79493
 31
0.0
 12
8.795174
 22
4.75494
 32
0.0
 13
8.795174
 23
4.75494
 33
0.0
  0
SOLID
  8
DIM
 10
7.660114
 20
4.71495
 30
0.0
 11
7.660114
 21
4.79493
 31
0.0
 12
7.420174
 22
4.75494
 32
0.0
 13
7.420174
 23
4.75494
 33
0.0
  0
LINE
  8
DIM
 10
8.555234
 20
4.75494
 30
0.0
 11
8.397803
 21
4.75494
 31
0.0
  0
LINE
  8
DIM
 10
7.660114
 20
4.75494
 30
0.0
 11
7.792079
 21
4.75494
 31
0.0
  0
LINE
  8
DIM
 10
7.420174
 20
6.123793
 30
0.0
 11
7.420174
 21
4.630971
 31
0.0
  0
LINE
  8
OBJECT
 10
7.996561
 20
5.983487
 30
0.0
 11
6.134056
 21
5.983487
 31
0.0
  0
LINE
  8
HIDDEN
 10
9.437482
 20
5.983487
 30
0.0
 11
8.593109
 21
5.983487
 31
0.0
  0
LINE
  8
HIDDEN
 10
9.437482
 20
8.930724
 30
0.0
 11
8.152867
 21
8.930724
 31
0.0
  0
LINE
  8
HIDDEN
 10
7.996561
 20
8.930724
 30
0.0
 11
6.702867
 21
8.930724
 31
0.0
  0
LINE
  8
OBJECT
 10
10.880174
 20
8.667106
 30
0.0
 11
10.880174
 21
6.247106
 31
0.0
  0
LINE
  8
OBJECT
 10
8.152867
 20
5.958115
 30
0.0
 11
7.996561
 21
5.958115
 31
0.0
  0
LINE
  8
HIDDEN
 10
8.152867
 20
8.956096
 30
0.0
 11
7.996561
 21
8.956096
 31
0.0
  0
LINE
  8
OBJECT
 10
7.996561
 20
5.958115
 30
0.0
 11
7.996561
 21
6.170487
 31
0.0
  0
LINE
  8
OBJECT
 10
7.996561
 20
6.170487
 30
0.0
 11
8.045174
 21
6.170487
 31
0.0
  0
LINE
  8
OBJECT
 10
8.045174
 20
6.170487
 30
0.0
 11
8.045174
 21
5.958115
 31
0.0
  0
LINE
  8
OBJECT
 10
8.152867
 20
5.958115
 30
0.0
 11
8.152867
 21
6.170487
 31
0.0
  0
LINE
  8
OBJECT
 10
8.105253
 20
6.076875
 30
0.0
 11
8.045174
 21
6.076875
 31
0.0
  0
LINE
  8
OBJECT
 10
8.152867
 20
6.170487
 30
0.0
 11
8.105253
 21
6.170487
 31
0.0
  0
LINE
  8
OBJECT
 10
8.105253
 20
6.170487
 30
0.0
 11
8.105253
 21
5.958115
 31
0.0
  0
LINE
  8
HIDDEN
 10
8.105253
 20
8.743724
 30
0.0
 11
8.105253
 21
8.956096
 31
0.0
  0
LINE
  8
HIDDEN
 10
8.152867
 20
8.743724
 30
0.0
 11
8.105253
 21
8.743724
 31
0.0
  0
LINE
  8
HIDDEN
 10
8.105253
 20
8.837336
 30
0.0
 11
8.045174
 21
8.837336
 31
0.0
  0
LINE
  8
HIDDEN
 10
8.152867
 20
8.956096
 30
0.0
 11
8.152867
 21
8.743724
 31
0.0
  0
LINE
  8
HIDDEN
 10
8.045174
 20
8.743724
 30
0.0
 11
8.045174
 21
8.956096
 31
0.0
  0
LINE
  8
HIDDEN
 10
7.996561
 20
8.743724
 30
0.0
 11
8.045174
 21
8.743724
 31
0.0
  0
LINE
  8
HIDDEN
 10
7.996561
 20
8.956096
 30
0.0
 11
7.996561
 21
8.743724
 31
0.0
  0
LINE
  8
OBJECT
 10
8.960174
 20
8.667106
 30
0.0
 11
8.960174
 21
6.247106
 31
0.0
  0
LINE
  8
OBJECT
 10
5.982674
 20
9.032106
 30
0.0
 11
5.982674
 21
5.882106
 31
0.0
  0
LINE
  8
OBJECT
 10
11.557674
 20
5.832106
 30
0.0
 11
6.032674
 21
5.832106
 31
0.0
  0
LINE
  8
OBJECT
 10
11.607674
 20
9.032106
 30
0.0
 11
11.607674
 21
5.882106
 31
0.0
  0
LINE
  8
OBJECT
 10
11.557674
 20
9.082106
 30
0.0
 11
6.032674
 21
9.082106
 31
0.0
  0
LINE
  8
HIDDEN
 10
6.082674
 20
8.982106
 30
0.0
 11
6.082674
 21
7.84311
 31
0.0
  0
LINE
  8
OBJECT
 10
8.561424
 20
5.932106
 30
0.0
 11
6.082674
 21
5.932106
 31
0.0
  0
ARC
  8
OBJECT
 10
11.557674
 20
5.882106
 30
0.0
 40
0.05
 50
270.0
 51
0.0
  0
ARC
  8
OBJECT
 10
6.032674
 20
5.882106
 30
0.0
 40
0.05
 50
180.0
 51
270.0
  0
ARC
  8
OBJECT
 10
6.032674
 20
9.032106
 30
0.0
 40
0.05
 50
90.0
 51
180.0
  0
ARC
  8
OBJECT
 10
11.557674
 20
9.032106
 30
0.0
 40
0.05
 50
0.0
 51
90.0
  0
CIRCLE
  8
HIDDEN
 10
7.420174
 20
8.707106
 30
0.0
 40
0.13
  0
CIRCLE
  8
OBJECT
 10
7.420174
 20
6.207106
 30
0.0
 40
0.13
  0
ARC
  8
OBJECT
 10
8.114791
 20
6.968667
 30
0.0
 40
0.482613
 50
332.47586
 51
6.541409
  0
ARC
  8
OBJECT
 10
6.687555
 20
6.805009
 30
0.0
 40
1.919201
 50
6.541409
 51
24.817315
  0
ARC
  8
OBJECT
 10
9.367209
 20
6.357554
 30
0.0
 40
0.911205
 50
154.792013
 51
215.215426
  0
LINE
  8
HIDDEN
 10
6.047674
 20
8.977106
 30
0.0
 11
6.047674
 21
7.85383
 31
0.0
  0
LINE
  8
OBJECT
 10
8.5809
 20
5.897106
 30
0.0
 11
6.087674
 21
5.897106
 31
0.0
  0
LINE
  8
HIDDEN
 10
6.546561
 20
8.956096
 30
0.0
 11
6.546561
 21
8.743724
 31
0.0
  0
LINE
  8
HIDDEN
 10
6.546561
 20
8.743724
 30
0.0
 11
6.595174
 21
8.743724
 31
0.0
  0
LINE
  8
HIDDEN
 10
6.595174
 20
8.743724
 30
0.0
 11
6.595174
 21
8.956096
 31
0.0
  0
LINE
  8
HIDDEN
 10
6.702867
 20
8.956096
 30
0.0
 11
6.702867
 21
8.743724
 31
0.0
  0
LINE
  8
HIDDEN
 10
6.655253
 20
8.837336
 30
0.0
 11
6.595174
 21
8.837336
 31
0.0
  0
LINE
  8
HIDDEN
 10
6.702867
 20
8.743724
 30
0.0
 11
6.655253
 21
8.743724
 31
0.0
  0
LINE
  8
HIDDEN
 10
6.655253
 20
8.743724
 30
0.0
 11
6.655253
 21
8.956096
 31
0.0
  0
LINE
  8
HIDDEN
 10
6.087674
 20
9.017106
 30
0.0
 11
11.502674
 21
9.017106
 31
0.0
  0
LINE
  8
HIDDEN
 10
6.082674
 20
8.982106
 30
0.0
 11
11.507674
 21
8.982106
 31
0.0
  0
LINE
  8
HIDDEN
 10
11.542674
 20
8.977106
 30
0.0
 11
11.542674
 21
5.937106
 31
0.0
  0
LINE
  8
HIDDEN
 10
11.507674
 20
8.982106
 30
0.0
 11
11.507674
 21
5.932106
 31
0.0
  0
CIRCLE
  8
HIDDEN
 10
10.170174
 20
6.207106
 30
0.0
 40
0.13
  0
CIRCLE
  8
HIDDEN
 10
10.170174
 20
8.707106
 30
0.0
 40
0.13
  0
ARC
  8
HIDDEN
 10
6.087674
 20
8.977106
 30
0.0
 40
0.04
 50
90.0
 51
180.0
  0
ARC
  8
OBJECT
 10
6.087674
 20
5.937106
 30
0.0
 40
0.04
 50
180.0
 51
270.0
  0
ARC
  8
HIDDEN
 10
11.502674
 20
8.977106
 30
0.0
 40
0.04
 50
0.0
 51
90.0
  0
ARC
  8
HIDDEN
 10
11.502674
 20
5.937106
 30
0.0
 40
0.04
 50
270.0
 51
0.0
  0
CIRCLE
  8
OBJECT
 10
7.420174
 20
6.207106
 30
0.0
 40
0.0465
  0
CIRCLE
  8
OBJECT
 10
6.370174
 20
8.707106
 30
0.0
 40
0.0465
  0
CIRCLE
  8
OBJECT
 10
7.420174
 20
6.207106
 30
0.0
 40
0.078
  0
LINE
  8
HIDDEN
 10
10.935096
 20
8.743724
 30
0.0
 11
10.935096
 21
8.956096
 31
0.0
  0
LINE
  8
HIDDEN
 10
10.887482
 20
8.743724
 30
0.0
 11
10.935096
 21
8.743724
 31
0.0
  0
LINE
  8
HIDDEN
 10
10.935096
 20
8.837336
 30
0.0
 11
10.995174
 21
8.837336
 31
0.0
  0
LINE
  8
HIDDEN
 10
10.887482
 20
8.956096
 30
0.0
 11
10.887482
 21
8.743724
 31
0.0
  0
LINE
  8
HIDDEN
 10
10.995174
 20
8.743724
 30
0.0
 11
10.995174
 21
8.956096
 31
0.0
  0
LINE
  8
HIDDEN
 10
11.043788
 20
8.743724
 30
0.0
 11
10.995174
 21
8.743724
 31
0.0
  0
LINE
  8
HIDDEN
 10
11.043788
 20
8.956096
 30
0.0
 11
11.043788
 21
8.743724
 31
0.0
  0
LINE
  8
HIDDEN
 10
9.593788
 20
8.956096
 30
0.0
 11
9.593788
 21
8.743724
 31
0.0
  0
LINE
  8
HIDDEN
 10
9.593788
 20
8.743724
 30
0.0
 11
9.545174
 21
8.743724
 31
0.0
  0
LINE
  8
HIDDEN
 10
9.545174
 20
8.743724
 30
0.0
 11
9.545174
 21
8.956096
 31
0.0
  0
LINE
  8
HIDDEN
 10
9.437482
 20
8.956096
 30
0.0
 11
9.437482
 21
8.743724
 31
0.0
  0
LINE
  8
HIDDEN
 10
9.485096
 20
8.837336
 30
0.0
 11
9.545174
 21
8.837336
 31
0.0
  0
LINE
  8
HIDDEN
 10
9.437482
 20
8.743724
 30
0.0
 11
9.485096
 21
8.743724
 31
0.0
  0
LINE
  8
HIDDEN
 10
9.485096
 20
8.743724
 30
0.0
 11
9.485096
 21
8.956096
 31
0.0
  0
LINE
  8
HIDDEN
 10
9.485096
 20
6.170487
 30
0.0
 11
9.485096
 21
5.958115
 31
0.0
  0
LINE
  8
HIDDEN
 10
9.437482
 20
6.170487
 30
0.0
 11
9.485096
 21
6.170487
 31
0.0
  0
LINE
  8
HIDDEN
 10
9.485096
 20
6.076875
 30
0.0
 11
9.545174
 21
6.076875
 31
0.0
  0
LINE
  8
HIDDEN
 10
9.437482
 20
5.958115
 30
0.0
 11
9.437482
 21
6.170487
 31
0.0
  0
LINE
  8
HIDDEN
 10
9.545174
 20
6.170487
 30
0.0
 11
9.545174
 21
5.958115
 31
0.0
  0
LINE
  8
HIDDEN
 10
9.593788
 20
6.170487
 30
0.0
 11
9.545174
 21
6.170487
 31
0.0
  0
LINE
  8
HIDDEN
 10
9.593788
 20
5.958115
 30
0.0
 11
9.593788
 21
6.170487
 31
0.0
  0
LINE
  8
HIDDEN
 10
11.043788
 20
5.958115
 30
0.0
 11
11.043788
 21
6.170487
 31
0.0
  0
LINE
  8
HIDDEN
 10
11.043788
 20
6.170487
 30
0.0
 11
10.995174
 21
6.170487
 31
0.0
  0
LINE
  8
HIDDEN
 10
10.995174
 20
6.170487
 30
0.0
 11
10.995174
 21
5.958115
 31
0.0
  0
LINE
  8
HIDDEN
 10
10.887482
 20
5.958115
 30
0.0
 11
10.887482
 21
6.170487
 31
0.0
  0
LINE
  8
HIDDEN
 10
10.935096
 20
6.076875
 30
0.0
 11
10.995174
 21
6.076875
 31
0.0
  0
LINE
  8
HIDDEN
 10
10.887482
 20
6.170487
 30
0.0
 11
10.935096
 21
6.170487
 31
0.0
  0
LINE
  8
HIDDEN
 10
10.935096
 20
6.170487
 30
0.0
 11
10.935096
 21
5.958115
 31
0.0
  0
CIRCLE
  8
OBJECT
 10
11.220174
 20
6.207106
 30
0.0
 40
0.0465
  0
CIRCLE
  8
OBJECT
 10
11.220174
 20
8.707106
 30
0.0
 40
0.0465
  0
CIRCLE
  8
OBJECT
 10
11.220174
 20
8.707106
 30
0.0
 40
0.1225
  0
CIRCLE
  8
OBJECT
 10
11.220174
 20
6.207106
 30
0.0
 40
0.1225
  0
CIRCLE
  8
OBJECT
 10
6.370174
 20
8.707106
 30
0.0
 40
0.13
  0
CIRCLE
  8
OBJECT
 10
6.370174
 20
6.207106
 30
0.0
 40
0.13
  0
CIRCLE
  8
OBJECT
 10
6.370174
 20
6.207106
 30
0.0
 40
0.078
  0
CIRCLE
  8
OBJECT
 10
6.370174
 20
6.207106
 30
0.0
 40
0.0465
  0
LINE
  8
HIDDEN
 10
11.456293
 20
8.930724
 30
0.0
 11
11.456293
 21
5.983487
 31
0.0
  0
LINE
  8
HIDDEN
 10
6.134056
 20
8.930724
 30
0.0
 11
6.134056
 21
7.832391
 31
0.0
  0
LINE
  8
HIDDEN
 10
11.456293
 20
8.930724
 30
0.0
 11
11.043788
 21
8.930724
 31
0.0
  0
LINE
  8
HIDDEN
 10
11.456293
 20
5.983487
 30
0.0
 11
11.043788
 21
5.983487
 31
0.0
  0
LINE
  8
HIDDEN
 10
11.043788
 20
5.958115
 30
0.0
 11
10.887482
 21
5.958115
 31
0.0
  0
LINE
  8
HIDDEN
 10
11.043788
 20
8.956096
 30
0.0
 11
10.887482
 21
8.956096
 31
0.0
  0
LINE
  8
HIDDEN
 10
6.702867
 20
8.956096
 30
0.0
 11
6.546561
 21
8.956096
 31
0.0
  0
LINE
  8
HIDDEN
 10
9.593788
 20
8.956096
 30
0.0
 11
9.437482
 21
8.956096
 31
0.0
  0
LINE
  8
HIDDEN
 10
9.593788
 20
5.958115
 30
0.0
 11
9.437482
 21
5.958115
 31
0.0
  0
LINE
  8
HIDDEN
 10
10.887482
 20
5.983487
 30
0.0
 11
9.593788
 21
5.983487
 31
0.0
  0
LINE
  8
HIDDEN
 10
10.887482
 20
8.930724
 30
0.0
 11
9.593788
 21
8.930724
 31
0.0
  0
LINE
  8
HIDDEN
 10
6.546561
 20
8.930724
 30
0.0
 11
6.134056
 21
8.930724
 31
0.0
  0
LINE
  8
OBJECT
 10
8.536325
 20
5.983487
 30
0.0
 11
8.152867
 21
5.983487
 31
0.0
  0
LINE
  8
OBJECT
 10
10.880174
 20
8.667106
 30
0.0
 11
8.960174
 21
8.667106
 31
0.0
  0
LINE
  8
OBJECT
 10
10.880174
 20
6.247106
 30
0.0
 11
8.960174
 21
6.247106
 31
0.0
  0
LINE
  8
OBJECT
 10
10.920174
 20
8.707106
 30
0.0
 11
10.920174
 21
6.207106
 31
0.0
  0
LINE
  8
OBJECT
 10
8.920174
 20
8.707106
 30
0.0
 11
8.920174
 21
6.207106
 31
0.0
  0
LINE
  8
OBJECT
 10
10.920174
 20
6.207106
 30
0.0
 11
8.920174
 21
6.207106
 31
0.0
  0
LINE
  8
OBJECT
 10
10.920174
 20
8.707106
 30
0.0
 11
8.920174
 21
8.707106
 31
0.0
  0
LINE
  8
CENTER
 10
8.795174
 20
9.582105
 30
0.0
 11
8.795174
 21
5.533384
 31
0.0
  0
LINE
  8
CENTER
 10
11.872268
 20
7.457106
 30
0.0
 11
5.718081
 21
7.457106
 31
0.0
  0
TEXT
  8
DIM
 10
6.953837
 20
14.335129
 30
0.0
 40
0.166625
  1
0.410
 41
0.75
  0
LINE
  8
DIM
 10
7.519789
 20
14.418441
 30
0.0
 11
7.759729
 21
14.418441
 31
0.0
  0
LINE
  8
DIM
 10
7.759729
 20
14.19424
 30
0.0
 11
7.759729
 21
14.418441
 31
0.0
  0
SOLID
  8
DIM
 10
7.799719
 20
14.19424
 30
0.0
 11
7.719739
 21
14.19424
 31
0.0
 12
7.759729
 22
13.9543
 32
0.0
 13
7.759729
 23
13.9543
 33
0.0
  0
LINE
  8
DIM
 10
7.633487
 20
13.5443
 30
0.0
 11
7.883698
 21
13.5443
 31
0.0
  0
SOLID
  8
DIM
 10
7.799719
 20
13.30436
 30
0.0
 11
7.719739
 21
13.30436
 31
0.0
 12
7.759729
 22
13.5443
 32
0.0
 13
7.759729
 23
13.5443
 33
0.0
  0
LINE
  8
DIM
 10
7.759729
 20
13.30436
 30
0.0
 11
7.759729
 21
13.06442
 31
0.0
  0
LINE
  8
DIM
 10
8.346446
 20
13.32436
 30
0.0
 11
8.346446
 21
13.08442
 31
0.0
  0
SOLID
  8
DIM
 10
8.386436
 20
13.32436
 30
0.0
 11
8.306456
 21
13.32436
 31
0.0
 12
8.346446
 22
13.5643
 32
0.0
 13
8.346446
 23
13.5643
 33
0.0
  0
LINE
  8
DIM
 10
8.236179
 20
13.5643
 30
0.0
 11
8.470415
 21
13.5643
 31
0.0
  0
SOLID
  8
DIM
 10
8.386436
 20
14.19424
 30
0.0
 11
8.306456
 21
14.19424
 31
0.0
 12
8.346446
 22
13.9543
 32
0.0
 13
8.346446
 23
13.9543
 33
0.0
  0
LINE
  8
DIM
 10
8.346446
 20
14.19424
 30
0.0
 11
8.346446
 21
14.418441
 31
0.0
  0
LINE
  8
DIM
 10
8.346446
 20
14.418441
 30
0.0
 11
8.586386
 21
14.418441
 31
0.0
  0
TEXT
  8
DIM
 10
8.699011
 20
14.335129
 30
0.0
 40
0.166625
  1
0.390
 41
0.75
  0
LINE
  8
DIM
 10
6.160174
 20
14.037612
 30
0.0
 11
6.160174
 21
14.915032
 31
0.0
  0
LINE
  8
DIM
 10
11.430174
 20
14.037612
 30
0.0
 11
11.430174
 21
14.915032
 31
0.0
  0
LINE
  8
DIM
 10
6.400114
 20
14.791063
 30
0.0
 11
8.451257
 21
14.791063
 31
0.0
  0
LINE
  8
DIM
 10
11.190234
 20
14.791063
 30
0.0
 11
9.102142
 21
14.791063
 31
0.0
  0
SOLID
  8
DIM
 10
6.400114
 20
14.831053
 30
0.0
 11
6.400114
 21
14.751073
 31
0.0
 12
6.160174
 22
14.791063
 32
0.0
 13
6.160174
 23
14.791063
 33
0.0
  0
SOLID
  8
DIM
 10
11.190234
 20
14.831053
 30
0.0
 11
11.190234
 21
14.751073
 31
0.0
 12
11.430174
 22
14.791063
 32
0.0
 13
11.430174
 23
14.791063
 33
0.0
  0
TEXT
  8
DIM
 10
8.521771
 20
14.70775
 30
0.0
 40
0.166625
  1
5.270
 41
0.75
  0
LINE
  8
HIDDEN
 10
9.485596
 20
12.8443
 30
0.0
 11
9.485596
 21
12.5543
 31
0.0
  0
LINE
  8
HIDDEN
 10
9.437482
 20
12.8443
 30
0.0
 11
9.485596
 21
12.8443
 31
0.0
  0
LINE
  8
HIDDEN
 10
9.485596
 20
12.801784
 30
0.0
 11
9.545674
 21
12.801784
 31
0.0
  0
LINE
  8
HIDDEN
 10
9.437482
 20
12.5543
 30
0.0
 11
9.437482
 21
12.8443
 31
0.0
  0
LINE
  8
HIDDEN
 10
9.545674
 20
12.8443
 30
0.0
 11
9.545674
 21
12.5543
 31
0.0
  0
LINE
  8
HIDDEN
 10
9.593788
 20
12.8443
 30
0.0
 11
9.545674
 21
12.8443
 31
0.0
  0
LINE
  8
HIDDEN
 10
9.593788
 20
12.5543
 30
0.0
 11
9.593788
 21
12.8443
 31
0.0
  0
LINE
  8
HIDDEN
 10
11.043788
 20
12.5543
 30
0.0
 11
11.043788
 21
12.8443
 31
0.0
  0
LINE
  8
HIDDEN
 10
11.043788
 20
12.8443
 30
0.0
 11
10.995674
 21
12.8443
 31
0.0
  0
LINE
  8
HIDDEN
 10
10.995674
 20
12.8443
 30
0.0
 11
10.995674
 21
12.5543
 31
0.0
  0
LINE
  8
HIDDEN
 10
10.887482
 20
12.5543
 30
0.0
 11
10.887482
 21
12.8443
 31
0.0
  0
LINE
  8
HIDDEN
 10
10.935596
 20
12.801784
 30
0.0
 11
10.995674
 21
12.801784
 31
0.0
  0
LINE
  8
HIDDEN
 10
10.887482
 20
12.8443
 30
0.0
 11
10.935596
 21
12.8443
 31
0.0
  0
LINE
  8
HIDDEN
 10
10.935596
 20
12.8443
 30
0.0
 11
10.935596
 21
12.5543
 31
0.0
  0
LINE
  8
OBJECT
 10
6.654753
 20
12.8443
 30
0.0
 11
6.654753
 21
12.5543
 31
0.0
  0
LINE
  8
OBJECT
 10
6.702867
 20
12.8443
 30
0.0
 11
6.654753
 21
12.8443
 31
0.0
  0
LINE
  8
OBJECT
 10
6.654753
 20
12.801784
 30
0.0
 11
6.594674
 21
12.801784
 31
0.0
  0
LINE
  8
OBJECT
 10
6.702867
 20
12.5543
 30
0.0
 11
6.702867
 21
12.8443
 31
0.0
  0
LINE
  8
OBJECT
 10
6.594674
 20
12.8443
 30
0.0
 11
6.594674
 21
12.5543
 31
0.0
  0
LINE
  8
OBJECT
 10
6.546561
 20
12.8443
 30
0.0
 11
6.594674
 21
12.8443
 31
0.0
  0
LINE
  8
OBJECT
 10
6.546561
 20
12.5543
 30
0.0
 11
6.546561
 21
12.8443
 31
0.0
  0
ARC
  8
OBJECT
 10
6.13555
 20
12.5543
 30
0.0
 40
0.1
 50
185.0
 51
270.0
  0
ARC
  8
OBJECT
 10
11.454799
 20
12.5543
 30
0.0
 40
0.1
 50
270.0
 51
355.0
  0
ARC
  8
OBJECT
 10
11.447544
 20
13.8543
 30
0.0
 40
0.1
 50
5.0
 51
90.0
  0
ARC
  8
OBJECT
 10
6.142805
 20
13.8543
 30
0.0
 40
0.1
 50
90.0
 51
175.0
  0
LINE
  8
HIDDEN
 10
9.593788
 20
13.8543
 30
0.0
 11
9.593788
 21
13.5643
 31
0.0
  0
LINE
  8
HIDDEN
 10
9.593788
 20
13.5643
 30
0.0
 11
9.545674
 21
13.5643
 31
0.0
  0
LINE
  8
HIDDEN
 10
9.545674
 20
13.5643
 30
0.0
 11
9.545674
 21
13.8543
 31
0.0
  0
LINE
  8
HIDDEN
 10
9.437482
 20
13.8543
 30
0.0
 11
9.437482
 21
13.5643
 31
0.0
  0
LINE
  8
HIDDEN
 10
9.485596
 20
13.606816
 30
0.0
 11
9.545674
 21
13.606816
 31
0.0
  0
LINE
  8
HIDDEN
 10
9.437482
 20
13.5643
 30
0.0
 11
9.485596
 21
13.5643
 31
0.0
  0
LINE
  8
HIDDEN
 10
9.485596
 20
13.5643
 30
0.0
 11
9.485596
 21
13.8543
 31
0.0
  0
LINE
  8
HIDDEN
 10
10.040174
 20
13.5443
 30
0.0
 11
10.300174
 21
13.5443
 31
0.0
  0
LINE
  8
HIDDEN
 10
10.935596
 20
13.5643
 30
0.0
 11
10.935596
 21
13.8543
 31
0.0
  0
LINE
  8
HIDDEN
 10
10.887482
 20
13.5643
 30
0.0
 11
10.935596
 21
13.5643
 31
0.0
  0
LINE
  8
HIDDEN
 10
10.935596
 20
13.606816
 30
0.0
 11
10.995674
 21
13.606816
 31
0.0
  0
LINE
  8
HIDDEN
 10
10.887482
 20
13.8543
 30
0.0
 11
10.887482
 21
13.5643
 31
0.0
  0
LINE
  8
HIDDEN
 10
10.995674
 20
13.5643
 30
0.0
 11
10.995674
 21
13.8543
 31
0.0
  0
LINE
  8
HIDDEN
 10
11.043788
 20
13.5643
 30
0.0
 11
10.995674
 21
13.5643
 31
0.0
  0
LINE
  8
HIDDEN
 10
11.043788
 20
13.8543
 30
0.0
 11
11.043788
 21
13.5643
 31
0.0
  0
LINE
  8
HIDDEN
 10
11.375174
 20
13.241373
 30
0.0
 11
11.375174
 21
12.5543
 31
0.0
  0
LINE
  8
HIDDEN
 10
11.065174
 20
13.241373
 30
0.0
 11
11.065174
 21
12.5543
 31
0.0
  0
LINE
  8
HIDDEN
 10
11.375174
 20
13.241373
 30
0.0
 11
11.065174
 21
13.241373
 31
0.0
  0
LINE
  8
HIDDEN
 10
11.350174
 20
13.241373
 30
0.0
 11
11.350174
 21
13.8543
 31
0.0
  0
LINE
  8
HIDDEN
 10
11.090174
 20
13.241373
 30
0.0
 11
11.090174
 21
13.8543
 31
0.0
  0
LINE
  8
HIDDEN
 10
11.267174
 20
13.272373
 30
0.0
 11
11.267174
 21
13.8543
 31
0.0
  0
LINE
  8
HIDDEN
 10
11.173174
 20
13.272373
 30
0.0
 11
11.173174
 21
13.8543
 31
0.0
  0
LINE
  8
HIDDEN
 10
10.300174
 20
13.5443
 30
0.0
 11
10.300174
 21
13.8543
 31
0.0
  0
LINE
  8
HIDDEN
 10
10.040174
 20
13.5443
 30
0.0
 11
10.040174
 21
13.8543
 31
0.0
  0
LINE
  8
HIDDEN
 10
10.123174
 20
13.8943
 30
0.0
 11
10.217174
 21
13.8943
 31
0.0
  0
LINE
  8
HIDDEN
 10
10.217174
 20
13.5753
 30
0.0
 11
10.217174
 21
13.8943
 31
0.0
  0
LINE
  8
HIDDEN
 10
10.123174
 20
13.5753
 30
0.0
 11
10.123174
 21
13.8943
 31
0.0
  0
LINE
  8
HIDDEN
 10
11.342174
 20
13.181373
 30
0.0
 11
11.098174
 21
13.181373
 31
0.0
  0
LINE
  8
HIDDEN
 10
11.342174
 20
12.4543
 30
0.0
 11
11.342174
 21
13.181373
 31
0.0
  0
LINE
  8
HIDDEN
 10
11.098174
 20
12.4543
 30
0.0
 11
11.098174
 21
13.181373
 31
0.0
  0
LINE
  8
HIDDEN
 10
11.285174
 20
13.241373
 30
0.0
 11
11.285174
 21
13.181373
 31
0.0
  0
LINE
  8
HIDDEN
 10
11.155174
 20
13.241373
 30
0.0
 11
11.155174
 21
13.181373
 31
0.0
  0
LINE
  8
HIDDEN
 10
10.123174
 20
13.5753
 30
0.0
 11
10.217174
 21
13.5753
 31
0.0
  0
LINE
  8
HIDDEN
 10
10.248174
 20
13.5443
 30
0.0
 11
10.217174
 21
13.5753
 31
0.0
  0
LINE
  8
HIDDEN
 10
10.092174
 20
13.5443
 30
0.0
 11
10.123174
 21
13.5753
 31
0.0
  0
LINE
  8
HIDDEN
 10
11.142174
 20
13.241373
 30
0.0
 11
11.173174
 21
13.272373
 31
0.0
  0
LINE
  8
HIDDEN
 10
11.298174
 20
13.241373
 30
0.0
 11
11.267174
 21
13.272373
 31
0.0
  0
LINE
  8
HIDDEN
 10
11.173174
 20
13.272373
 30
0.0
 11
11.267174
 21
13.272373
 31
0.0
  0
LINE
  8
HIDDEN
 10
10.092174
 20
12.8643
 30
0.0
 11
10.123174
 21
12.8333
 31
0.0
  0
LINE
  8
HIDDEN
 10
10.248174
 20
12.8643
 30
0.0
 11
10.217174
 21
12.8333
 31
0.0
  0
LINE
  8
HIDDEN
 10
10.123174
 20
12.8333
 30
0.0
 11
10.217174
 21
12.8333
 31
0.0
  0
LINE
  8
HIDDEN
 10
10.123174
 20
12.8333
 30
0.0
 11
10.123174
 21
12.5143
 31
0.0
  0
LINE
  8
HIDDEN
 10
10.217174
 20
12.8333
 30
0.0
 11
10.217174
 21
12.5143
 31
0.0
  0
LINE
  8
HIDDEN
 10
10.123174
 20
12.5143
 30
0.0
 11
10.217174
 21
12.5143
 31
0.0
  0
LINE
  8
HIDDEN
 10
10.040174
 20
12.8643
 30
0.0
 11
10.040174
 21
12.5543
 31
0.0
  0
LINE
  8
HIDDEN
 10
10.300174
 20
12.8643
 30
0.0
 11
10.300174
 21
12.5543
 31
0.0
  0
LINE
  8
HIDDEN
 10
10.040174
 20
12.8643
 30
0.0
 11
10.300174
 21
12.8643
 31
0.0
  0
LINE
  8
HIDDEN
 10
8.707724
 20
12.5543
 30
0.0
 11
11.454799
 21
12.5543
 31
0.0
  0
LINE
  8
HIDDEN
 10
11.508055
 20
13.163015
 30
0.0
 11
11.454799
 21
12.5543
 31
0.0
  0
LINE
  8
HIDDEN
 10
11.508055
 20
13.162657
 30
0.0
 11
11.447544
 21
13.8543
 31
0.0
  0
LINE
  8
HIDDEN
 10
8.547717
 20
13.8543
 30
0.0
 11
11.447544
 21
13.8543
 31
0.0
  0
LINE
  8
OBJECT
 10
7.550174
 20
12.8643
 30
0.0
 11
7.290174
 21
12.8643
 31
0.0
  0
LINE
  8
OBJECT
 10
7.290174
 20
12.8643
 30
0.0
 11
7.290174
 21
12.5543
 31
0.0
  0
LINE
  8
OBJECT
 10
7.550174
 20
12.8643
 30
0.0
 11
7.550174
 21
12.5543
 31
0.0
  0
LINE
  8
HIDDEN
 10
7.467174
 20
12.5143
 30
0.0
 11
7.373174
 21
12.5143
 31
0.0
  0
LINE
  8
HIDDEN
 10
7.373174
 20
12.8333
 30
0.0
 11
7.373174
 21
12.5143
 31
0.0
  0
LINE
  8
HIDDEN
 10
7.467174
 20
12.8333
 30
0.0
 11
7.467174
 21
12.5143
 31
0.0
  0
LINE
  8
HIDDEN
 10
7.467174
 20
12.8333
 30
0.0
 11
7.373174
 21
12.8333
 31
0.0
  0
LINE
  8
HIDDEN
 10
7.342174
 20
12.8643
 30
0.0
 11
7.373174
 21
12.8333
 31
0.0
  0
LINE
  8
HIDDEN
 10
7.498174
 20
12.8643
 30
0.0
 11
7.467174
 21
12.8333
 31
0.0
  0
LINE
  8
HIDDEN
 10
6.417174
 20
13.272373
 30
0.0
 11
6.323174
 21
13.272373
 31
0.0
  0
LINE
  8
HIDDEN
 10
6.292174
 20
13.241373
 30
0.0
 11
6.323174
 21
13.272373
 31
0.0
  0
LINE
  8
HIDDEN
 10
6.448174
 20
13.241373
 30
0.0
 11
6.417174
 21
13.272373
 31
0.0
  0
LINE
  8
HIDDEN
 10
7.498174
 20
13.5443
 30
0.0
 11
7.467174
 21
13.5753
 31
0.0
  0
LINE
  8
HIDDEN
 10
7.342174
 20
13.5443
 30
0.0
 11
7.373174
 21
13.5753
 31
0.0
  0
LINE
  8
HIDDEN
 10
7.467174
 20
13.5753
 30
0.0
 11
7.373174
 21
13.5753
 31
0.0
  0
LINE
  8
HIDDEN
 10
6.435174
 20
13.241373
 30
0.0
 11
6.435174
 21
13.181373
 31
0.0
  0
LINE
  8
HIDDEN
 10
6.305174
 20
13.241373
 30
0.0
 11
6.305174
 21
13.181373
 31
0.0
  0
LINE
  8
HIDDEN
 10
6.492174
 20
12.4543
 30
0.0
 11
6.492174
 21
13.181373
 31
0.0
  0
LINE
  8
HIDDEN
 10
6.248174
 20
12.4543
 30
0.0
 11
6.248174
 21
13.181373
 31
0.0
  0
LINE
  8
HIDDEN
 10
6.248174
 20
13.181373
 30
0.0
 11
6.492174
 21
13.181373
 31
0.0
  0
LINE
  8
HIDDEN
 10
7.467174
 20
13.5753
 30
0.0
 11
7.467174
 21
13.8943
 31
0.0
  0
LINE
  8
HIDDEN
 10
7.373174
 20
13.5753
 30
0.0
 11
7.373174
 21
13.8943
 31
0.0
  0
LINE
  8
HIDDEN
 10
7.467174
 20
13.8943
 30
0.0
 11
7.373174
 21
13.8943
 31
0.0
  0
LINE
  8
OBJECT
 10
7.550174
 20
13.5443
 30
0.0
 11
7.550174
 21
13.8543
 31
0.0
  0
LINE
  8
OBJECT
 10
7.290174
 20
13.5443
 30
0.0
 11
7.290174
 21
13.8543
 31
0.0
  0
LINE
  8
HIDDEN
 10
6.417174
 20
13.272373
 30
0.0
 11
6.417174
 21
13.8543
 31
0.0
  0
LINE
  8
HIDDEN
 10
6.323174
 20
13.272373
 30
0.0
 11
6.323174
 21
13.8543
 31
0.0
  0
LINE
  8
OBJECT
 10
6.500174
 20
13.241373
 30
0.0
 11
6.500174
 21
13.8543
 31
0.0
  0
LINE
  8
OBJECT
 10
6.240174
 20
13.241373
 30
0.0
 11
6.240174
 21
13.8543
 31
0.0
  0
LINE
  8
OBJECT
 10
6.215174
 20
13.241373
 30
0.0
 11
6.525174
 21
13.241373
 31
0.0
  0
LINE
  8
OBJECT
 10
6.525174
 20
13.171373
 30
0.0
 11
11.607674
 21
13.171373
 31
0.0
  0
LINE
  8
OBJECT
 10
6.525174
 20
13.1543
 30
0.0
 11
11.607674
 21
13.1543
 31
0.0
  0
LINE
  8
OBJECT
 10
6.525174
 20
13.241373
 30
0.0
 11
6.525174
 21
12.5543
 31
0.0
  0
LINE
  8
OBJECT
 10
6.215174
 20
13.241373
 30
0.0
 11
6.215174
 21
12.5543
 31
0.0
  0
LINE
  8
OBJECT
 10
6.083056
 20
13.171373
 30
0.0
 11
6.215174
 21
13.171373
 31
0.0
  0
LINE
  8
OBJECT
 10
6.083056
 20
13.1543
 30
0.0
 11
6.215174
 21
13.1543
 31
0.0
  0
LINE
  8
OBJECT
 10
6.083056
 20
13.1543
 30
0.0
 11
6.083056
 21
13.241373
 31
0.0
  0
LINE
  8
OBJECT
 10
6.042674
 20
13.171373
 30
0.0
 11
6.042674
 21
13.1543
 31
0.0
  0
LINE
  8
OBJECT
 10
6.042674
 20
13.241373
 30
0.0
 11
6.089181
 21
13.241373
 31
0.0
  0
LINE
  8
OBJECT
 10
6.042674
 20
13.241373
 30
0.0
 11
6.042674
 21
13.171373
 31
0.0
  0
LINE
  8
OBJECT
 10
6.083056
 20
13.1543
 30
0.0
 11
6.13555
 21
12.5543
 31
0.0
  0
LINE
  8
OBJECT
 10
6.089181
 20
13.241373
 30
0.0
 11
6.142805
 21
13.8543
 31
0.0
  0
LINE
  8
OBJECT
 10
6.13555
 20
12.5543
 30
0.0
 11
8.707724
 21
12.5543
 31
0.0
  0
ARC
  8
OBJECT
 10
9.007568
 20
13.96998
 30
0.0
 40
0.470305
 50
181.910684
 51
211.842399
  0
ARC
  8
OBJECT
 10
8.290774
 20
13.524814
 30
0.0
 40
0.373477
 50
324.686192
 51
31.842399
  0
ARC
  8
OBJECT
 10
8.976584
 20
13.038985
 30
0.0
 40
0.466979
 50
144.686192
 51
209.588998
  0
ARC
  8
OBJECT
 10
22.840785
 20
20.911427
 30
0.0
 40
16.410361
 50
209.588998
 51
211.021049
  0
LINE
  8
OBJECT
 10
5.982674
 20
13.1543
 30
0.0
 11
6.042674
 21
13.1543
 31
0.0
  0
LINE
  8
OBJECT
 10
5.982674
 20
13.171373
 30
0.0
 11
6.042674
 21
13.171373
 31
0.0
  0
LINE
  8
OBJECT
 10
11.607674
 20
13.1543
 30
0.0
 11
11.554419
 21
12.545584
 31
0.0
  0
LINE
  8
OBJECT
 10
5.982674
 20
13.1543
 30
0.0
 11
6.03593
 21
12.545584
 31
0.0
  0
LINE
  8
OBJECT
 10
6.13555
 20
12.4543
 30
0.0
 11
11.454799
 21
12.4543
 31
0.0
  0
LINE
  8
OBJECT
 10
7.550174
 20
13.5443
 30
0.0
 11
7.290174
 21
13.5443
 31
0.0
  0
LINE
  8
OBJECT
 10
6.142805
 20
13.8543
 30
0.0
 11
8.547717
 21
13.8543
 31
0.0
  0
LINE
  8
CENTER
 10
8.795174
 20
14.067922
 30
0.0
 11
8.795174
 21
12.340677
 31
0.0
  0
LINE
  8
OBJECT
 10
5.982674
 20
13.171373
 30
0.0
 11
6.043185
 21
13.863015
 31
0.0
  0
LINE
  8
OBJECT
 10
11.607674
 20
13.171373
 30
0.0
 11
11.547164
 21
13.863015
 31
0.0
  0
LINE
  8
OBJECT
 10
6.142805
 20
13.9543
 30
0.0
 11
11.447544
 21
13.9543
 31
0.0
  0
LINE
  8
OBJECT
 10
8.104753
 20
13.5643
 30
0.0
 11
8.104753
 21
13.8543
 31
0.0
  0
LINE
  8
OBJECT
 10
8.152867
 20
13.5643
 30
0.0
 11
8.104753
 21
13.5643
 31
0.0
  0
LINE
  8
OBJECT
 10
8.104753
 20
13.606816
 30
0.0
 11
8.044674
 21
13.606816
 31
0.0
  0
LINE
  8
OBJECT
 10
8.152867
 20
13.8543
 30
0.0
 11
8.152867
 21
13.5643
 31
0.0
  0
LINE
  8
OBJECT
 10
8.044674
 20
13.5643
 30
0.0
 11
8.044674
 21
13.8543
 31
0.0
  0
LINE
  8
OBJECT
 10
7.996561
 20
13.5643
 30
0.0
 11
8.044674
 21
13.5643
 31
0.0
  0
LINE
  8
OBJECT
 10
7.996561
 20
13.8543
 30
0.0
 11
7.996561
 21
13.5643
 31
0.0
  0
LINE
  8
OBJECT
 10
7.996561
 20
12.5543
 30
0.0
 11
7.996561
 21
12.8443
 31
0.0
  0
LINE
  8
OBJECT
 10
7.996561
 20
12.8443
 30
0.0
 11
8.044674
 21
12.8443
 31
0.0
  0
LINE
  8
OBJECT
 10
8.044674
 20
12.8443
 30
0.0
 11
8.044674
 21
12.5543
 31
0.0
  0
LINE
  8
OBJECT
 10
8.152867
 20
12.5543
 30
0.0
 11
8.152867
 21
12.8443
 31
0.0
  0
LINE
  8
OBJECT
 10
8.104753
 20
12.801784
 30
0.0
 11
8.044674
 21
12.801784
 31
0.0
  0
LINE
  8
OBJECT
 10
8.152867
 20
12.8443
 30
0.0
 11
8.104753
 21
12.8443
 31
0.0
  0
LINE
  8
OBJECT
 10
8.104753
 20
12.8443
 30
0.0
 11
8.104753
 21
12.5543
 31
0.0
  0
TEXT
  8
TEXT
 10
9.780534
 20
20.101828
 30
0.0
 40
0.25
  1
PBS-11327
 41
0.75
 72
     1
 11
10.530534
 21
20.101828
 31
0.0
  0
LINE
  8
BEND
 10
7.183174
 20
8.557106
 30
0.0
 11
7.183174
 21
6.357106
 31
0.0
  0
LINE
  8
BEND
 10
7.183174
 20
8.557106
 30
0.0
 11
6.308174
 21
8.557106
 31
0.0
  0
LINE
  8
BEND
 10
7.183174
 20
6.357106
 30
0.0
 11
6.308174
 21
6.357106
 31
0.0
  0
LINE
  8
BEND
 10
6.308174
 20
8.557106
 30
0.0
 11
6.308174
 21
6.357106
 31
0.0
  0
LINE
  8
BEND
 10
7.183174
 20
12.5543
 30
0.0
 11
7.183174
 21
13.7543
 31
0.0
  0
LINE
  8
BEND
 10
6.308174
 20
12.5543
 30
0.0
 11
6.308174
 21
13.7543
 31
0.0
  0
TEXT
  8
TEXT
 10
0.5714
 20
17.696418
 30
0.0
 40
0.167
  1
SMOOTH TOP INSERT
 41
0.75
  0
TEXT
  8
DIM
 10
5.213364
 20
2.560623
 30
0.0
 40
0.166625
  1

  0
TEXT
  8
DIM
 10
2.44133
 20
2.980739
 30
0.0
 40
0.166625
  1

  0
LINE
  8
DIM
 10
11.538112
 20
12.4543
 30
0.0
 11
12.926336
 21
12.4543
 31
0.0
  0
LINE
  8
DIM
 10
11.530857
 20
13.9543
 30
0.0
 11
12.926336
 21
13.9543
 31
0.0
  0
LINE
  8
DIM
 10
12.802367
 20
12.69424
 30
0.0
 11
12.802367
 21
13.040544
 31
0.0
  0
LINE
  8
DIM
 10
12.802367
 20
13.71436
 30
0.0
 11
12.802367
 21
13.358881
 31
0.0
  0
SOLID
  8
DIM
 10
12.842357
 20
12.69424
 30
0.0
 11
12.762377
 21
12.69424
 31
0.0
 12
12.802367
 22
12.4543
 32
0.0
 13
12.802367
 23
12.4543
 33
0.0
  0
SOLID
  8
DIM
 10
12.842357
 20
13.71436
 30
0.0
 11
12.762377
 21
13.71436
 31
0.0
 12
12.802367
 22
13.9543
 32
0.0
 13
12.802367
 23
13.9543
 33
0.0
  0
TEXT
  8
DIM
 10
12.57062
 20
13.120987
 30
0.0
 40
0.166625
  1
1.500
 41
0.75
  0
LINE
  8
DIM
 10
11.690987
 20
13.1543
 30
0.0
 11
12.247651
 21
13.1543
 31
0.0
  0
LINE
  8
DIM
 10
12.123682
 20
12.21436
 30
0.0
 11
12.123682
 21
11.97442
 31
0.0
  0
LINE
  8
DIM
 10
12.123682
 20
13.39424
 30
0.0
 11
12.123682
 21
13.63418
 31
0.0
  0
SOLID
  8
DIM
 10
12.163672
 20
12.21436
 30
0.0
 11
12.083692
 21
12.21436
 31
0.0
 12
12.123682
 22
12.4543
 32
0.0
 13
12.123682
 23
12.4543
 33
0.0
  0
SOLID
  8
DIM
 10
12.163672
 20
13.39424
 30
0.0
 11
12.083692
 21
13.39424
 31
0.0
 12
12.123682
 22
13.1543
 32
0.0
 13
12.123682
 23
13.1543
 33
0.0
  0
TEXT
  8
DIM
 10
11.903745
 20
12.697344
 30
0.0
 40
0.166625
  1
0.700
 41
0.75
  0
LINE
  8
DIM
 10
1.008448
 20
6.252046
 30
0.0
 11
1.008448
 21
7.287714
 31
0.0
  0
SOLID
  8
DIM
 10
0.968458
 20
6.252046
 30
0.0
 11
1.048438
 21
6.252046
 31
0.0
 12
1.008448
 22
6.012106
 32
0.0
 13
1.008448
 23
6.012106
 33
0.0
  0
LINE
  8
DIM
 10
1.887503
 20
6.012106
 30
0.0
 11
1.357466
 21
6.012106
 31
0.0
  0
LINE
  8
DIM
 10
1.887503
 20
8.902106
 30
0.0
 11
0.884479
 21
8.902106
 31
0.0
  0
SOLID
  8
DIM
 10
0.968458
 20
8.662166
 30
0.0
 11
1.048438
 21
8.662166
 31
0.0
 12
1.008448
 22
8.902106
 32
0.0
 13
1.008448
 23
8.902106
 33
0.0
  0
LINE
  8
DIM
 10
1.008448
 20
8.662166
 30
0.0
 11
1.008448
 21
7.617669
 31
0.0
  0
TEXT
  8
DIM
 10
0.743034
 20
7.373793
 30
0.0
 40
0.166625
  1
2.890
 41
0.75
  0
LINE
  8
DIM
 10
3.710756
 20
7.100202
 30
0.0
 11
3.950696
 21
7.100202
 31
0.0
  0
LINE
  8
DIM
 10
3.130876
 20
7.100202
 30
0.0
 11
2.890936
 21
7.100202
 31
0.0
  0
SOLID
  8
DIM
 10
3.710756
 20
7.060212
 30
0.0
 11
3.710756
 21
7.140192
 31
0.0
 12
3.470816
 22
7.100202
 32
0.0
 13
3.470816
 23
7.100202
 33
0.0
  0
SOLID
  8
DIM
 10
3.130876
 20
7.060212
 30
0.0
 11
3.130876
 21
7.140192
 31
0.0
 12
3.370816
 22
7.100202
 32
0.0
 13
3.370816
 23
7.100202
 33
0.0
  0
TEXT
  8
DIM
 10
3.940326
 20
6.774537
 30
0.0
 40
0.166625
  1
 TYP.
 41
0.75
  0
TEXT
  8
DIM
 10
4.021234
 20
12.963561
 30
0.0
 40
0.166625
  1

  0
TEXT
  8
DIM
 10
4.058441
 20
7.016889
 30
0.0
 40
0.166625
  1
0.100
 41
0.75
  0
TEXT
  8
DIM
 10
11.650634
 20
4.411103
 30
0.0
 40
0.167
  1
MOLDING.
 41
0.75
  0
LINE
  8
OBJECT
 10
2.001816
 20
6.012106
 30
0.0
 11
2.001816
 21
8.902106
 31
0.0
  0
LINE
  8
OBJECT
 10
1.970816
 20
8.902106
 30
0.0
 11
2.001816
 21
8.902106
 31
0.0
  0
LINE
  8
OBJECT
 10
1.970816
 20
6.012106
 30
0.0
 11
2.001816
 21
6.012106
 31
0.0
  0
LINE
  8
OBJECT
 10
6.160174
 20
13.9233
 30
0.0
 11
8.539586
 21
13.9233
 31
0.0
  0
LINE
  8
OBJECT
 10
6.160174
 20
13.9543
 30
0.0
 11
6.160174
 21
13.9233
 31
0.0
  0
LINE
  8
HIDDEN
 10
11.430174
 20
13.9543
 30
0.0
 11
11.430174
 21
13.9233
 31
0.0
  0
LINE
  8
HIDDEN
 10
8.539586
 20
13.9233
 30
0.0
 11
11.430174
 21
13.9233
 31
0.0
  0
LINE
  8
DIM
 10
7.183174
 20
12.470987
 30
0.0
 11
7.183174
 21
11.809492
 31
0.0
  0
LINE
  8
DIM
 10
8.795174
 20
12.257364
 30
0.0
 11
8.795174
 21
11.809492
 31
0.0
  0
SOLID
  8
DIM
 10
7.423114
 20
11.893471
 30
0.0
 11
7.423114
 21
11.973451
 31
0.0
 12
7.183174
 22
11.933461
 32
0.0
 13
7.183174
 23
11.933461
 33
0.0
  0
SOLID
  8
DIM
 10
8.555234
 20
11.893471
 30
0.0
 11
8.555234
 21
11.973451
 31
0.0
 12
8.795174
 22
11.933461
 32
0.0
 13
8.795174
 23
11.933461
 33
0.0
  0
TEXT
  8
DIM
 10
7.757427
 20
11.850149
 30
0.0
 40
0.166625
  1
1.612
 41
0.75
  0
LINE
  8
DIM
 10
6.308174
 20
12.470987
 30
0.0
 11
6.308174
 21
11.809492
 31
0.0
  0
LINE
  8
DIM
 10
6.068234
 20
11.933461
 30
0.0
 11
5.828294
 21
11.933461
 31
0.0
  0
LINE
  8
DIM
 10
7.423114
 20
11.933461
 30
0.0
 11
7.663054
 21
11.933461
 31
0.0
  0
SOLID
  8
DIM
 10
6.068234
 20
11.893471
 30
0.0
 11
6.068234
 21
11.973451
 31
0.0
 12
6.308174
 22
11.933461
 32
0.0
 13
6.308174
 23
11.933461
 33
0.0
  0
TEXT
  8
DIM
 10
6.487115
 20
11.850149
 30
0.0
 40
0.166625
  1
0.875
 41
0.75
  0
LINE
  8
DIM
 10
8.555234
 20
11.933461
 30
0.0
 11
8.315294
 21
11.933461
 31
0.0
  0
ARC
  8
DIM
 10
2.670816
 20
5.832106
 30
0.0
 40
1.414624
 50
189.729852
 51
199.459705
  0
ARC
  8
DIM
 10
2.670816
 20
5.832106
 30
0.0
 40
1.414624
 50
155.540295
 51
165.270148
  0
LINE
  8
DIM
 10
1.132223
 20
5.832106
 30
0.0
 11
2.375984
 21
5.832106
 31
0.0
  0
LINE
  8
DIM
 10
1.138078
 20
5.966203
 30
0.0
 11
1.979105
 21
5.892622
 31
0.0
  0
SOLID
  8
DIM
 10
1.316386
 20
5.596421
 30
0.0
 11
1.236695
 21
5.589639
 31
0.0
 12
1.256192
 22
5.832106
 32
0.0
 13
1.256192
 23
5.832106
 33
0.0
  0
SOLID
  8
DIM
 10
1.342082
 20
6.184939
 30
0.0
 11
1.263284
 21
6.198642
 31
0.0
 12
1.261575
 22
5.955398
 32
0.0
 13
1.261575
 23
5.955398
 33
0.0
  0
TEXT
  8
DIM
 10
1.675273
 20
5.274109
 30
0.0
 40
0.166625
  1
5%%D TYP.
 41
0.75
  0
LINE
  8
DIM
 10
1.337001
 20
5.360832
 30
0.0
 11
1.563378
 21
5.360832
 31
0.0
  0
LINE
  8
DIM
 10
1.198042
 20
6.012106
 30
0.0
 11
0.884479
 21
6.012106
 31
0.0
  0
TEXT
  8
TEXT
 10
8.336349
 20
14.820876
 30
0.0
 40
0.167
  1
*
 41
0.75
  0
TEXT
  8
TEXT
 10
0.556966
 20
7.473166
 30
0.0
 40
0.167
  1
*
 41
0.75
  0
TEXT
  8
TEXT
 10
7.589446
 20
17.114525
 30
0.0
 40
0.167
  1
*-USABLE AREA ON COVER ALSO
 41
0.75
  0
TEXT
  8
TEXT
 10
7.789006
 20
16.836192
 30
0.0
 40
0.167
  1
AVAILABLE FOR CUSTOM MOLDING.
 41
0.75
  0
LINE
  8
DIM
 10
6.224862
 20
8.557106
 30
0.0
 11
5.239304
 21
8.557106
 31
0.0
  0
LINE
  8
DIM
 10
5.634769
 20
7.457106
 30
0.0
 11
5.239304
 21
7.457106
 31
0.0
  0
LINE
  8
DIM
 10
5.363273
 20
8.317166
 30
0.0
 11
5.363273
 21
8.168236
 31
0.0
  0
LINE
  8
DIM
 10
5.363273
 20
7.697046
 30
0.0
 11
5.363273
 21
7.802782
 31
0.0
  0
SOLID
  8
DIM
 10
5.403263
 20
8.317166
 30
0.0
 11
5.323283
 21
8.317166
 31
0.0
 12
5.363273
 22
8.557106
 32
0.0
 13
5.363273
 23
8.557106
 33
0.0
  0
SOLID
  8
DIM
 10
5.403263
 20
7.697046
 30
0.0
 11
5.323283
 21
7.697046
 31
0.0
 12
5.363273
 22
7.457106
 32
0.0
 13
5.363273
 23
7.457106
 33
0.0
  0
TEXT
  8
DIM
 10
5.158292
 20
7.917186
 30
0.0
 40
0.166625
  1
1.100
 41
0.75
  0
TEXT
  8
DIM
 10
5.158292
 20
6.830401
 30
0.0
 40
0.166625
  1
1.100
 41
0.75
  0
SOLID
  8
DIM
 10
5.403263
 20
7.217166
 30
0.0
 11
5.323283
 21
7.217166
 31
0.0
 12
5.363273
 22
7.457106
 32
0.0
 13
5.363273
 23
7.457106
 33
0.0
  0
SOLID
  8
DIM
 10
5.403263
 20
6.597046
 30
0.0
 11
5.323283
 21
6.597046
 31
0.0
 12
5.363273
 22
6.357106
 32
0.0
 13
5.363273
 23
6.357106
 33
0.0
  0
LINE
  8
DIM
 10
5.363273
 20
7.217166
 30
0.0
 11
5.363273
 21
7.111429
 31
0.0
  0
LINE
  8
DIM
 10
5.363273
 20
6.597046
 30
0.0
 11
5.363273
 21
6.745975
 31
0.0
  0
LINE
  8
DIM
 10
6.224862
 20
6.357106
 30
0.0
 11
5.239304
 21
6.357106
 31
0.0
  0
LINE
  8
DIM
 10
11.847614
 20
10.66278
 30
0.0
 11
12.087554
 21
10.66278
 31
0.0
  0
SOLID
  8
DIM
 10
11.847614
 20
10.62279
 30
0.0
 11
11.847614
 21
10.70277
 31
0.0
 12
11.607674
 22
10.66278
 32
0.0
 13
11.607674
 23
10.66278
 33
0.0
  0
TEXT
  8
DIM
 10
12.177519
 20
10.579467
 30
0.0
 40
0.166625
  1
0.387
 41
0.75
  0
LINE
  8
DIM
 10
12.123682
 20
9.322046
 30
0.0
 11
12.123682
 21
9.561986
 31
0.0
  0
SOLID
  8
DIM
 10
12.163672
 20
9.322046
 30
0.0
 11
12.083692
 21
9.322046
 31
0.0
 12
12.123682
 22
9.082106
 32
0.0
 13
12.123682
 23
9.082106
 33
0.0
  0
TEXT
  8
DIM
 10
11.85611
 20
8.801433
 30
0.0
 40
0.166625
  1
0.375
 41
0.75
  0
LINE
  8
DIM
 10
2.001816
 20
8.985418
 30
0.0
 11
2.001816
 21
9.716932
 31
0.0
  0
LINE
  8
DIM
 10
1.970816
 20
9.005288
 30
0.0
 11
1.970816
 21
9.716932
 31
0.0
  0
LINE
  8
DIM
 10
2.241756
 20
9.592963
 30
0.0
 11
2.481696
 21
9.592963
 31
0.0
  0
LINE
  8
DIM
 10
1.730876
 20
9.592963
 30
0.0
 11
1.490936
 21
9.592963
 31
0.0
  0
SOLID
  8
DIM
 10
2.241756
 20
9.632953
 30
0.0
 11
2.241756
 21
9.552973
 31
0.0
 12
2.001816
 22
9.592963
 32
0.0
 13
2.001816
 23
9.592963
 33
0.0
  0
SOLID
  8
DIM
 10
1.730876
 20
9.632953
 30
0.0
 11
1.730876
 21
9.552973
 31
0.0
 12
1.970816
 22
9.592963
 32
0.0
 13
1.970816
 23
9.592963
 33
0.0
  0
TEXT
  8
DIM
 10
0.954403
 20
9.50965
 30
0.0
 40
0.166625
  1
0.015
 41
0.75
 72
     1
 11
1.162685
 21
9.592963
 31
0.0
 73
     2
  0
TEXT
  8
DIM
 10
0.673724
 20
9.28461
 30
0.0
 40
0.167
  1
RECESS
 41
0.75
  0
LINE
  8
BEND
 10
6.308174
 20
13.7543
 30
0.0
 11
7.183174
 21
13.7543
 31
0.0
  0
POLYLINE
  8
OBJECT
 66
     1
 10
0.0
 20
0.0
 30
0.0
  0
VERTEX
  8
OBJECT
 10
8.429519
 20
7.610549
 30
0.0
  0
VERTEX
  8
OBJECT
 10
7.547927
 20
7.775008
 30
0.0
  0
VERTEX
  8
OBJECT
 10
6.692778
 20
7.674746
 30
0.0
  0
VERTEX
  8
OBJECT
 10
5.982674
 20
7.846263
 30
0.0
  0
SEQEND
  8
OBJECT
  0
LINE
  8
HIDDEN
 10
8.605187
 20
5.932106
 30
0.0
 11
11.507674
 21
5.932106
 31
0.0
  0
LINE
  8
HIDDEN
 10
8.623707
 20
5.897106
 30
0.0
 11
11.502674
 21
5.897106
 31
0.0
  0
LINE
  8
OBJECT
 10
6.047674
 20
7.830563
 30
0.0
 11
6.047674
 21
5.937106
 31
0.0
  0
LINE
  8
OBJECT
 10
6.082674
 20
7.822109
 30
0.0
 11
6.082674
 21
5.932106
 31
0.0
  0
LINE
  8
OBJECT
 10
6.134056
 20
7.809699
 30
0.0
 11
6.134056
 21
5.983487
 31
0.0
  0
LINE
  8
DIM
 10
6.224862
 20
13.7543
 30
0.0
 11
5.24502
 21
13.7543
 31
0.0
  0
LINE
  8
DIM
 10
6.052237
 20
12.4543
 30
0.0
 11
5.24502
 21
12.4543
 31
0.0
  0
LINE
  8
DIM
 10
5.368989
 20
13.51436
 30
0.0
 11
5.368989
 21
13.307582
 31
0.0
  0
LINE
  8
DIM
 10
5.368989
 20
12.69424
 30
0.0
 11
5.368989
 21
12.901017
 31
0.0
  0
SOLID
  8
DIM
 10
5.328999
 20
13.51436
 30
0.0
 11
5.408979
 21
13.51436
 31
0.0
 12
5.368989
 22
13.7543
 32
0.0
 13
5.368989
 23
13.7543
 33
0.0
  0
SOLID
  8
DIM
 10
5.328999
 20
12.69424
 30
0.0
 11
5.408979
 21
12.69424
 31
0.0
 12
5.368989
 22
12.4543
 32
0.0
 13
5.368989
 23
12.4543
 33
0.0
  0
TEXT
  8
DIM
 10
5.160708
 20
13.020987
 30
0.0
 40
0.166625
  1
1.300
 41
0.75
 72
     1
 11
5.368989
 21
13.1043
 31
0.0
 73
     2
  0
POLYLINE
  8
DIM
 66
     1
 10
0.0
 20
0.0
 30
0.0
 41
0.089978
  0
VERTEX
  8
DIM
 10
6.631581
 20
13.082684
 30
0.0
  0
VERTEX
  8
DIM
 10
6.464812
 20
12.910176
 30
0.0
 41
0.0
  0
VERTEX
  8
DIM
 10
5.381302
 20
11.856677
 30
0.0
 41
0.0
  0
VERTEX
  8
DIM
 10
5.214677
 20
11.856677
 30
0.0
 41
0.0
  0
SEQEND
  8
DIM
  0
TEXT
  8
DIM
 10
3.29849
 20
11.773365
 30
0.0
 40
0.166625
  1
9-VOLT BATTERY
 41
0.75
 72
     2
 11
5.048052
 21
11.773365
 31
0.0
  0
TEXT
  8
DIM
 10
3.715052
 20
11.495656
 30
0.0
 40
0.166625
  1
COMPARTMENT
 41
0.75
 72
     2
 11
5.048052
 21
11.495656
 31
0.0
  0
LINE
  8
TITLE
 10
0.086474
 20
1.589018
 30
0.0
 11
0.082646
 21
10.222353
 31
0.0
  0
LINE
  8
TITLE
 10
0.086474
 20
1.589018
 30
0.0
 11
0.086474
 21
1.502218
 31
0.0
  0
LINE
  8
TITLE
 10
0.086474
 20
1.589018
 30
0.0
 11
0.086811
 21
0.073429
 31
0.0
  0
LINE
  8
TITLE
 10
0.086811
 20
0.073429
 30
0.0
 11
13.320503
 21
0.073429
 31
0.0
  0
LINE
  8
TITLE
 10
0.0
 20
0.0
 30
0.0
 11
13.407714
 21
0.0
 31
0.0
  0
LINE
  8
TITLE
 10
13.407714
 20
0.0
 30
0.0
 11
13.407714
 21
20.588071
 31
0.0
  0
LINE
  8
TITLE
 10
0.082646
 20
10.272353
 30
0.0
 11
0.082646
 21
20.498132
 31
0.0
  0
LINE
  8
TITLE
 10
13.320503
 20
4.235182
 30
0.0
 11
13.320503
 21
4.211753
 31
0.0
  0
LINE
  8
TITLE
 10
13.320503
 20
10.222353
 30
0.0
 11
13.320503
 21
0.073429
 31
0.0
  0
TEXT
  8
TEXT
 10
0.395675
 20
16.156453
 30
0.0
 40
0.167
  1
%%UNOTE:%%U ALL DIMENSIONS HAVE %%P0.015 TOLERANCE
 41
0.75
  0
TEXT
  8
TEXT
 10
1.084094
 20
15.88608
 30
0.0
 40
0.167
  1
UNLESS OTHERWISE SPECIFIED.
 41
0.75
  0
POLYLINE
  8
DIM
 66
     1
 10
0.0
 20
0.0
 30
0.0
 41
0.089978
  0
VERTEX
  8
DIM
 10
7.333786
 20
6.09348
 30
0.0
  0
VERTEX
  8
DIM
 10
7.271163
 20
5.861856
 30
0.0
 41
0.0
  0
VERTEX
  8
DIM
 10
7.092704
 20
5.032426
 30
0.0
 41
0.0
  0
VERTEX
  8
DIM
 10
6.852764
 20
5.032426
 30
0.0
 41
0.0
  0
SEQEND
  8
DIM
  0
TEXT
  8
DIM
 10
3.400294
 20
4.949113
 30
0.0
 40
0.166625
  1
0.260 DIA. BOSS WITH 0.093 DIA.
 41
0.75
 72
     2
 11
6.732794
 21
5.032426
 31
0.0
 73
     2
  0
TEXT
  8
DIM
 10
3.525263
 20
4.671405
 30
0.0
 40
0.166625
  1
HOLE x 0.310 DEEP (8) PLACES
 41
0.75
 72
     2
 11
6.732794
 21
4.754717
 31
0.0
 73
     2
  0
TEXT
  8
DIM
 10
2.233919
 20
4.393697
 30
0.0
 40
0.166625
  1
MOUNTING BOSSES USE EITHER M2.5 METRIC
 41
0.75
 72
     2
 11
6.732794
 21
4.477009
 31
0.0
 73
     2
  0
TEXT
  8
DIM
 10
3.192013
 20
4.115988
 30
0.0
 40
0.166625
  1
OR #4 STD. SHEET METAL SCREWS
 41
0.75
 72
     2
 11
6.732794
 21
4.199301
 31
0.0
 73
     2
  0
TEXT
  8
DIM
 10
3.650232
 20
3.83828
 30
0.0
 40
0.166625
  1
x 0.250" LG.  (NOT SUPPLIED)
 41
0.75
 72
     2
 11
6.732794
 21
3.921592
 31
0.0
 73
     2
  0
DIMENSION
  8
DIM
  2
*D2
 10
11.454799
 20
11.54399
 30
0.0
 11
8.795174
 21
11.54399
 31
0.0
 13
6.13555
 23
12.5543
 33
0.0
 14
11.454799
 24
12.5543
 34
0.0
  0
DIMENSION
  8
DIM
  2
*D1
 10
4.570161
 20
5.984981
 30
0.0
 11
4.570161
 21
7.457106
 31
0.0
 13
3.470816
 23
8.92923
 33
0.0
 14
3.470816
 24
5.984981
 34
0.0
 50
90.0
  0
DIMENSION
  8
DIM
  2
*D0
 10
3.370816
 20
7.864617
 30
0.0
 11
4.178947
 21
7.864617
 31
0.0
 13
2.070816
 23
7.883227
 33
0.0
 14
3.370816
 24
7.883227
 34
0.0
  0
ENDSEC
  0
EOF
