  0
SECTION
  2
HEADER
  9
$ACADVER
  1
AC1009
  9
$INSBASE
 10
0.0
 20
0.0
 30
0.0
  9
$EXTMIN
 10
0.0
 20
0.0
 30
0.0
  9
$EXTMAX
 10
25.3
 20
38.75
 30
0.0
  9
$LIMMIN
 10
0.0
 20
0.0
  9
$LIMMAX
 10
12.0
 20
9.0
  9
$ORTHOMODE
 70
     1
  9
$REGENMODE
 70
     1
  9
$FILLMODE
 70
     1
  9
$QTEXTMODE
 70
     0
  9
$MIRRTEXT
 70
     0
  9
$DRAGMODE
 70
     2
  9
$LTSCALE
 40
1.0
  9
$OSMODE
 70
     0
  9
$ATTMODE
 70
     1
  9
$TEXTSIZE
 40
0.3125
  9
$TRACEWID
 40
0.05
  9
$TEXTSTYLE
  7
TXT
  9
$CLAYER
  8
OBJECT
  9
$CELTYPE
  6
BYLAYER
  9
$CECOLOR
 62
   256
  9
$DIMSCALE
 40
2.5
  9
$DIMASZ
 40
0.18
  9
$DIMEXO
 40
0.0625
  9
$DIMDLI
 40
0.38
  9
$DIMRND
 40
0.0
  9
$DIMDLE
 40
0.0
  9
$DIMEXE
 40
0.093
  9
$DIMTP
 40
0.0
  9
$DIMTM
 40
0.0
  9
$DIMTXT
 40
0.125
  9
$DIMCEN
 40
0.09
  9
$DIMTSZ
 40
0.0
  9
$DIMTOL
 70
     0
  9
$DIMLIM
 70
     0
  9
$DIMTIH
 70
     1
  9
$DIMTOH
 70
     1
  9
$DIMSE1
 70
     0
  9
$DIMSE2
 70
     0
  9
$DIMTAD
 70
     0
  9
$DIMZIN
 70
     0
  9
$DIMBLK
  1

  9
$DIMASO
 70
     1
  9
$DIMSHO
 70
     1
  9
$DIMPOST
  1

  9
$DIMAPOST
  1

  9
$DIMALT
 70
     0
  9
$DIMALTD
 70
     2
  9
$DIMALTF
 40
25.4
  9
$DIMLFAC
 40
1.0
  9
$DIMTOFL
 70
     0
  9
$DIMTVP
 40
0.0
  9
$DIMTIX
 70
     1
  9
$DIMSOXD
 70
     0
  9
$DIMSAH
 70
     0
  9
$DIMBLK1
  1

  9
$DIMBLK2
  1

  9
$DIMSTYLE
  2
DIM
  9
$DIMCLRD
 70
     0
  9
$DIMCLRE
 70
     0
  9
$DIMCLRT
 70
     0
  9
$DIMTFAC
 40
1.0
  9
$DIMGAP
 40
0.09
  9
$LUNITS
 70
     2
  9
$LUPREC
 70
     3
  9
$SKETCHINC
 40
0.1
  9
$FILLETRAD
 40
0.0
  9
$AUNITS
 70
     0
  9
$AUPREC
 70
     0
  9
$MENU
  1
acad
  9
$ELEVATION
 40
0.0
  9
$PELEVATION
 40
0.0
  9
$THICKNESS
 40
0.0
  9
$LIMCHECK
 70
     0
  9
$BLIPMODE
 70
     0
  9
$CHAMFERA
 40
0.0
  9
$CHAMFERB
 40
0.0
  9
$SKPOLY
 70
     0
  9
$TDCREATE
 40
2448895.989796759
  9
$TDUPDATE
 40
2451194.605395833
  9
$TDINDWG
 40
0.2331809028
  9
$TDUSRTIMER
 40
0.2331809028
  9
$USRTIMER
 70
     1
  9
$ANGBASE
 50
0.0
  9
$ANGDIR
 70
     0
  9
$PDMODE
 70
     0
  9
$PDSIZE
 40
0.0
  9
$PLINEWID
 40
0.0
  9
$COORDS
 70
     2
  9
$SPLFRAME
 70
     0
  9
$SPLINETYPE
 70
     6
  9
$SPLINESEGS
 70
     8
  9
$ATTDIA
 70
     0
  9
$ATTREQ
 70
     1
  9
$HANDLING
 70
     0
  9
$HANDSEED
  5
0
  9
$SURFTAB1
 70
     6
  9
$SURFTAB2
 70
     6
  9
$SURFTYPE
 70
     6
  9
$SURFU
 70
     6
  9
$SURFV
 70
     6
  9
$UCSNAME
  2

  9
$UCSORG
 10
0.0
 20
0.0
 30
0.0
  9
$UCSXDIR
 10
1.0
 20
0.0
 30
0.0
  9
$UCSYDIR
 10
0.0
 20
1.0
 30
0.0
  9
$PUCSNAME
  2

  9
$PUCSORG
 10
0.0
 20
0.0
 30
0.0
  9
$PUCSXDIR
 10
1.0
 20
0.0
 30
0.0
  9
$PUCSYDIR
 10
0.0
 20
1.0
 30
0.0
  9
$USERI1
 70
     0
  9
$USERI2
 70
     0
  9
$USERI3
 70
     0
  9
$USERI4
 70
     0
  9
$USERI5
 70
     0
  9
$USERR1
 40
0.0
  9
$USERR2
 40
0.0
  9
$USERR3
 40
0.0
  9
$USERR4
 40
0.0
  9
$USERR5
 40
0.0
  9
$WORLDVIEW
 70
     1
  9
$SHADEDGE
 70
     3
  9
$SHADEDIF
 70
    70
  9
$TILEMODE
 70
     1
  9
$MAXACTVP
 70
    16
  9
$PINSBASE
 10
0.0
 20
0.0
 30
0.0
  9
$PLIMCHECK
 70
     0
  9
$PEXTMIN
 10
1.000000E+20
 20
1.000000E+20
 30
1.000000E+20
  9
$PEXTMAX
 10
-1.000000E+20
 20
-1.000000E+20
 30
-1.000000E+20
  9
$PLIMMIN
 10
0.0
 20
0.0
  9
$PLIMMAX
 10
12.0
 20
9.0
  9
$UNITMODE
 70
     0
  9
$VISRETAIN
 70
     0
  9
$PLINEGEN
 70
     0
  9
$PSLTSCALE
 70
     0
  9
$TREEDEPTH
 70
  3020
  9
$DWGCODEPAGE
  3
undefined
  0
ENDSEC
  0
SECTION
  2
TABLES
  0
TABLE
  2
VPORT
 70
     2
  0
VPORT
  2
*ACTIVE
 70
     0
 10
0.0
 20
0.0
 11
1.0
 21
1.0
 12
26.395328
 22
19.375
 13
0.0
 23
0.0
 14
1.0
 24
1.0
 15
0.5
 25
0.5
 16
0.0
 26
0.0
 36
1.0
 17
0.0
 27
0.0
 37
0.0
 40
38.75
 41
1.36234
 42
50.0
 43
0.0
 44
0.0
 50
0.0
 51
0.0
 71
     0
 72
 10000
 73
     1
 74
     0
 75
     0
 76
     0
 77
     0
 78
     0
  0
ENDTAB
  0
TABLE
  2
LTYPE
 70
     5
  0
LTYPE
  2
CONTINUOUS
 70
    64
  3
Solid line
 72
    65
 73
     0
 40
0.0
  0
LTYPE
  2
HIDDEN
 70
    64
  3
_ _ _ _ _ _ _ _ _ _ _ _ _ _ _ _ _ _ _ _ _ _ _
 72
    65
 73
     2
 40
0.375
 49
0.25
 49
-0.125
  0
LTYPE
  2
PHANTOM
 70
     0
  3
_____ _ _ _____ _ _ _____ _ _ _____ _ _ ____
 72
    65
 73
     6
 40
2.5
 49
1.25
 49
-0.25
 49
0.25
 49
-0.25
 49
0.25
 49
-0.25
  0
LTYPE
  2
CENTER
 70
    64
  3
____ _ ____ _ ____ _ ____ _ ____ _ ____ _ ____
 72
    65
 73
     4
 40
2.0
 49
1.25
 49
-0.25
 49
0.25
 49
-0.25
  0
LTYPE
  2
DASHDOT
 70
    64
  3
__ . __ . __ . __ . __ . __ . __ . __ . __ . __
 72
    65
 73
     4
 40
1.0
 49
0.5
 49
-0.25
 49
0.0
 49
-0.25
  0
ENDTAB
  0
TABLE
  2
LAYER
 70
    10
  0
LAYER
  2
0
 70
    64
 62
     7
  6
CONTINUOUS
  0
LAYER
  2
OBJECT
 70
    64
 62
     7
  6
CONTINUOUS
  0
LAYER
  2
DIM
 70
    64
 62
     7
  6
CONTINUOUS
  0
LAYER
  2
HIDDEN
 70
    64
 62
     7
  6
HIDDEN
  0
LAYER
  2
BEND
 70
    64
 62
     7
  6
DASHDOT
  0
LAYER
  2
TEXT
 70
    64
 62
     7
  6
CONTINUOUS
  0
LAYER
  2
TITLE
 70
    64
 62
     7
  6
CONTINUOUS
  0
LAYER
  2
CENTER
 70
    64
 62
     7
  6
CENTER
  0
LAYER
  2
DEFPOINTS
 70
    64
 62
    -7
  6
CONTINUOUS
  0
LAYER
  2
BD
 70
    64
 62
     7
  6
CONTINUOUS
  0
ENDTAB
  0
TABLE
  2
STYLE
 70
     2
  0
STYLE
  2
STANDARD
 70
    64
 40
0.0
 41
1.0
 50
0.0
 71
     0
 42
0.25
  3
txt
  4

  0
STYLE
  2
TXT
 70
    64
 40
0.0
 41
0.75
 50
0.0
 71
     0
 42
0.3125
  3
txt
  4

  0
ENDTAB
  0
TABLE
  2
VIEW
 70
     0
  0
ENDTAB
  0
TABLE
  2
UCS
 70
     0
  0
ENDTAB
  0
TABLE
  2
APPID
 70
     1
  0
APPID
  2
ACAD
 70
    64
  0
ENDTAB
  0
TABLE
  2
DIMSTYLE
 70
     2
  0
DIMSTYLE
  2
STD
 70
    64
  3

  4

  5

  6

  7

 40
2.5
 41
0.18
 42
0.0625
 43
0.38
 44
0.093
 45
0.0
 46
0.0
 47
0.0
 48
0.0
140
0.125
141
0.09
142
0.0
143
25.4
144
1.0
145
0.0
146
1.0
147
0.09
 71
     0
 72
     0
 73
     1
 74
     1
 75
     0
 76
     0
 77
     0
 78
     0
170
     0
171
     2
172
     0
173
     0
174
     0
175
     0
176
     0
177
     0
178
     0
  0
DIMSTYLE
  2
DIM
 70
    64
  3

  4

  5

  6

  7

 40
2.5
 41
0.18
 42
0.0625
 43
0.38
 44
0.093
 45
0.0
 46
0.0
 47
0.0
 48
0.0
140
0.125
141
0.09
142
0.0
143
25.4
144
1.0
145
0.0
146
1.0
147
0.09
 71
     0
 72
     0
 73
     1
 74
     1
 75
     0
 76
     0
 77
     0
 78
     0
170
     0
171
     2
172
     0
173
     0
174
     1
175
     0
176
     0
177
     0
178
     0
  0
ENDTAB
  0
ENDSEC
  0
SECTION
  2
BLOCKS
  0
BLOCK
  8
0
  2
*D0
 70
    65
 10
0.0
 20
0.0
 30
0.0
  3
*D
  0
LINE
  8
0
  6
BYBLOCK
 62
     0
 10
12.342566
 20
31.584374
 30
0.0
 11
13.112588
 21
31.584374
 31
0.0
  0
LINE
  8
0
  6
BYBLOCK
 62
     0
 10
13.033112
 20
31.174374
 30
0.0
 11
13.112588
 21
31.174374
 31
0.0
  0
LINE
  8
0
  6
BYBLOCK
 62
     0
 10
12.880088
 20
32.034374
 30
0.0
 11
12.880088
 21
32.484374
 31
0.0
  0
LINE
  8
0
  6
BYBLOCK
 62
     0
 10
12.880088
 20
30.724374
 30
0.0
 11
12.880088
 21
30.274374
 31
0.0
  0
LINE
  8
0
  6
BYBLOCK
 62
     0
 10
12.880088
 20
30.274374
 30
0.0
 11
12.430088
 21
30.274374
 31
0.0
  0
SOLID
  8
0
  6
BYBLOCK
 62
     0
 10
12.805088
 20
32.034374
 30
0.0
 11
12.955088
 21
32.034374
 31
0.0
 12
12.880088
 22
31.584374
 32
0.0
 13
12.880088
 23
31.584374
 33
0.0
  0
SOLID
  8
0
  6
BYBLOCK
 62
     0
 10
12.805088
 20
30.724374
 30
0.0
 11
12.955088
 21
30.724374
 31
0.0
 12
12.880088
 22
31.174374
 32
0.0
 13
12.880088
 23
31.174374
 33
0.0
  0
TEXT
  8
0
  6
BYBLOCK
 62
     0
 10
11.423838
 20
30.118124
 30
0.0
 40
0.3125
  1
0.410
 41
0.75
  7
TXT
 72
     1
 11
11.814463
 21
30.274374
 31
0.0
 73
     2
  0
POINT
  8
DEFPOINTS
  6
BYBLOCK
 62
     0
 10
12.186316
 20
31.584374
 30
0.0
  0
POINT
  8
DEFPOINTS
  6
BYBLOCK
 62
     0
 10
12.876862
 20
31.174374
 30
0.0
  0
POINT
  8
DEFPOINTS
  6
BYBLOCK
 62
     0
 10
12.880088
 20
31.174374
 30
0.0
  0
ENDBLK
  8
0
  0
BLOCK
  8
0
  2
*D1
 70
    65
 10
0.0
 20
0.0
 30
0.0
  3
*D
  0
LINE
  8
0
  6
BYBLOCK
 62
     0
 10
20.462066
 20
31.874374
 30
0.0
 11
21.476122
 21
31.874374
 31
0.0
  0
LINE
  8
0
  6
BYBLOCK
 62
     0
 10
20.30919
 20
31.174374
 30
0.0
 11
21.476122
 21
31.174374
 31
0.0
  0
LINE
  8
0
  6
BYBLOCK
 62
     0
 10
21.243622
 20
32.324374
 30
0.0
 11
21.243622
 21
32.774374
 31
0.0
  0
LINE
  8
0
  6
BYBLOCK
 62
     0
 10
21.243622
 20
30.724374
 30
0.0
 11
21.243622
 21
30.274374
 31
0.0
  0
SOLID
  8
0
  6
BYBLOCK
 62
     0
 10
21.168622
 20
32.324374
 30
0.0
 11
21.318622
 21
32.324374
 31
0.0
 12
21.243622
 22
31.874374
 32
0.0
 13
21.243622
 23
31.874374
 33
0.0
  0
SOLID
  8
0
  6
BYBLOCK
 62
     0
 10
21.168622
 20
30.724374
 30
0.0
 11
21.318622
 21
30.724374
 31
0.0
 12
21.243622
 22
31.174374
 32
0.0
 13
21.243622
 23
31.174374
 33
0.0
  0
TEXT
  8
0
  6
BYBLOCK
 62
     0
 10
20.833466
 20
31.368124
 30
0.0
 40
0.3125
  1
0.700
 41
0.75
  7
TXT
 72
     1
 11
21.243622
 21
31.524374
 31
0.0
 73
     2
  0
POINT
  8
DEFPOINTS
  6
BYBLOCK
 62
     0
 10
20.305816
 20
31.874374
 30
0.0
  0
POINT
  8
DEFPOINTS
  6
BYBLOCK
 62
     0
 10
20.15294
 20
31.174374
 30
0.0
  0
POINT
  8
DEFPOINTS
  6
BYBLOCK
 62
     0
 10
21.243622
 20
31.174374
 30
0.0
  0
ENDBLK
  8
0
  0
BLOCK
  8
0
  2
*D2
 70
    65
 10
0.0
 20
0.0
 30
0.0
  3
*D
  0
LINE
  8
0
  6
BYBLOCK
 62
     0
 10
20.30919
 20
31.174374
 30
0.0
 11
22.794218
 21
31.174374
 31
0.0
  0
LINE
  8
0
  6
BYBLOCK
 62
     0
 10
20.301935
 20
32.674374
 30
0.0
 11
22.794218
 21
32.674374
 31
0.0
  0
LINE
  8
0
  6
BYBLOCK
 62
     0
 10
22.561718
 20
30.724374
 30
0.0
 11
22.561718
 21
30.274374
 31
0.0
  0
LINE
  8
0
  6
BYBLOCK
 62
     0
 10
22.561718
 20
33.124374
 30
0.0
 11
22.561718
 21
33.574374
 31
0.0
  0
SOLID
  8
0
  6
BYBLOCK
 62
     0
 10
22.486718
 20
30.724374
 30
0.0
 11
22.636718
 21
30.724374
 31
0.0
 12
22.561718
 22
31.174374
 32
0.0
 13
22.561718
 23
31.174374
 33
0.0
  0
SOLID
  8
0
  6
BYBLOCK
 62
     0
 10
22.486718
 20
33.124374
 30
0.0
 11
22.636718
 21
33.124374
 31
0.0
 12
22.561718
 22
32.674374
 32
0.0
 13
22.561718
 23
32.674374
 33
0.0
  0
TEXT
  8
0
  6
BYBLOCK
 62
     0
 10
22.171093
 20
31.768124
 30
0.0
 40
0.3125
  1
1.500
 41
0.75
  7
TXT
 72
     1
 11
22.561718
 21
31.924374
 31
0.0
 73
     2
  0
POINT
  8
DEFPOINTS
  6
BYBLOCK
 62
     0
 10
20.15294
 20
31.174374
 30
0.0
  0
POINT
  8
DEFPOINTS
  6
BYBLOCK
 62
     0
 10
20.145685
 20
32.674374
 30
0.0
  0
POINT
  8
DEFPOINTS
  6
BYBLOCK
 62
     0
 10
22.561718
 20
32.674374
 30
0.0
  0
ENDBLK
  8
0
  0
BLOCK
  8
0
  2
*D3
 70
    65
 10
0.0
 20
0.0
 30
0.0
  3
*D
  0
LINE
  8
0
  6
BYBLOCK
 62
     0
 10
15.556316
 20
28.957105
 30
0.0
 11
15.556316
 21
29.401846
 31
0.0
  0
LINE
  8
0
  6
BYBLOCK
 62
     0
 10
16.431316
 20
28.220883
 30
0.0
 11
16.431316
 21
29.401846
 31
0.0
  0
LINE
  8
0
  6
BYBLOCK
 62
     0
 10
15.106316
 20
29.169346
 30
0.0
 11
14.656316
 21
29.169346
 31
0.0
  0
LINE
  8
0
  6
BYBLOCK
 62
     0
 10
16.881316
 20
29.169346
 30
0.0
 11
17.331316
 21
29.169346
 31
0.0
  0
SOLID
  8
0
  6
BYBLOCK
 62
     0
 10
15.106316
 20
29.244346
 30
0.0
 11
15.106316
 21
29.094346
 31
0.0
 12
15.556316
 22
29.169346
 32
0.0
 13
15.556316
 23
29.169346
 33
0.0
  0
SOLID
  8
0
  6
BYBLOCK
 62
     0
 10
16.881316
 20
29.244346
 30
0.0
 11
16.881316
 21
29.094346
 31
0.0
 12
16.431316
 22
29.169346
 32
0.0
 13
16.431316
 23
29.169346
 33
0.0
  0
TEXT
  8
0
  6
BYBLOCK
 62
     0
 10
17.556316
 20
29.013096
 30
0.0
 40
0.3125
  1
0.875
 41
0.75
  7
TXT
 72
     1
 11
18.005534
 21
29.169346
 31
0.0
 73
     2
  0
POINT
  8
DEFPOINTS
  6
BYBLOCK
 62
     0
 10
15.556316
 20
28.800855
 30
0.0
  0
POINT
  8
DEFPOINTS
  6
BYBLOCK
 62
     0
 10
16.431316
 20
28.064633
 30
0.0
  0
POINT
  8
DEFPOINTS
  6
BYBLOCK
 62
     0
 10
16.431316
 20
29.169346
 30
0.0
  0
ENDBLK
  8
0
  0
BLOCK
  8
0
  2
*D4
 70
    65
 10
0.0
 20
0.0
 30
0.0
  3
*D
  0
LINE
  8
0
  6
BYBLOCK
 62
     0
 10
15.556316
 20
28.957105
 30
0.0
 11
15.556316
 21
30.087273
 31
0.0
  0
LINE
  8
0
  6
BYBLOCK
 62
     0
 10
19.431316
 20
28.220883
 30
0.0
 11
19.431316
 21
30.087273
 31
0.0
  0
LINE
  8
0
  6
BYBLOCK
 62
     0
 10
16.006316
 20
29.854773
 30
0.0
 11
16.800066
 21
29.854773
 31
0.0
  0
LINE
  8
0
  6
BYBLOCK
 62
     0
 10
18.981316
 20
29.854773
 30
0.0
 11
18.187566
 21
29.854773
 31
0.0
  0
SOLID
  8
0
  6
BYBLOCK
 62
     0
 10
16.006316
 20
29.929773
 30
0.0
 11
16.006316
 21
29.779773
 31
0.0
 12
15.556316
 22
29.854773
 32
0.0
 13
15.556316
 23
29.854773
 33
0.0
  0
SOLID
  8
0
  6
BYBLOCK
 62
     0
 10
18.981316
 20
29.929773
 30
0.0
 11
18.981316
 21
29.779773
 31
0.0
 12
19.431316
 22
29.854773
 32
0.0
 13
19.431316
 23
29.854773
 33
0.0
  0
TEXT
  8
0
  6
BYBLOCK
 62
     0
 10
17.025066
 20
29.698523
 30
0.0
 40
0.3125
  1
3.875
 41
0.75
  7
TXT
 72
     1
 11
17.493816
 21
29.854773
 31
0.0
 73
     2
  0
POINT
  8
DEFPOINTS
  6
BYBLOCK
 62
     0
 10
15.556316
 20
28.800855
 30
0.0
  0
POINT
  8
DEFPOINTS
  6
BYBLOCK
 62
     0
 10
19.431316
 20
28.064633
 30
0.0
  0
POINT
  8
DEFPOINTS
  6
BYBLOCK
 62
     0
 10
19.431316
 20
29.854773
 30
0.0
  0
ENDBLK
  8
0
  0
BLOCK
  8
0
  2
*D5
 70
    65
 10
0.0
 20
0.0
 30
0.0
  3
*D
  0
LINE
  8
0
  6
BYBLOCK
 62
     0
 10
15.556316
 20
21.832162
 30
0.0
 11
15.556316
 21
20.369817
 31
0.0
  0
LINE
  8
0
  6
BYBLOCK
 62
     0
 10
19.056316
 20
22.021923
 30
0.0
 11
19.056316
 21
20.369817
 31
0.0
  0
LINE
  8
0
  6
BYBLOCK
 62
     0
 10
16.006316
 20
20.602317
 30
0.0
 11
16.651628
 21
20.602317
 31
0.0
  0
LINE
  8
0
  6
BYBLOCK
 62
     0
 10
18.606316
 20
20.602317
 30
0.0
 11
17.961003
 21
20.602317
 31
0.0
  0
SOLID
  8
0
  6
BYBLOCK
 62
     0
 10
16.006316
 20
20.677317
 30
0.0
 11
16.006316
 21
20.527317
 31
0.0
 12
15.556316
 22
20.602317
 32
0.0
 13
15.556316
 23
20.602317
 33
0.0
  0
SOLID
  8
0
  6
BYBLOCK
 62
     0
 10
18.606316
 20
20.677317
 30
0.0
 11
18.606316
 21
20.527317
 31
0.0
 12
19.056316
 22
20.602317
 32
0.0
 13
19.056316
 23
20.602317
 33
0.0
  0
TEXT
  8
0
  6
BYBLOCK
 62
     0
 10
16.876628
 20
20.446067
 30
0.0
 40
0.3125
  1
3.500
 41
0.75
  7
TXT
 72
     1
 11
17.306316
 21
20.602317
 31
0.0
 73
     2
  0
POINT
  8
DEFPOINTS
  6
BYBLOCK
 62
     0
 10
15.556316
 20
21.988412
 30
0.0
  0
POINT
  8
DEFPOINTS
  6
BYBLOCK
 62
     0
 10
19.056316
 20
22.178173
 30
0.0
  0
POINT
  8
DEFPOINTS
  6
BYBLOCK
 62
     0
 10
19.056316
 20
20.602317
 30
0.0
  0
ENDBLK
  8
0
  0
BLOCK
  8
0
  2
*D6
 70
    65
 10
0.0
 20
0.0
 30
0.0
  3
*D
  0
LINE
  8
0
  6
BYBLOCK
 62
     0
 10
15.556316
 20
21.832162
 30
0.0
 11
15.556316
 21
20.922997
 31
0.0
  0
LINE
  8
0
  6
BYBLOCK
 62
     0
 10
14.556316
 20
22.021923
 30
0.0
 11
14.556316
 21
20.922997
 31
0.0
  0
LINE
  8
0
  6
BYBLOCK
 62
     0
 10
16.006316
 20
21.155497
 30
0.0
 11
16.456316
 21
21.155497
 31
0.0
  0
LINE
  8
0
  6
BYBLOCK
 62
     0
 10
14.106316
 20
21.155497
 30
0.0
 11
13.656316
 21
21.155497
 31
0.0
  0
SOLID
  8
0
  6
BYBLOCK
 62
     0
 10
16.006316
 20
21.230497
 30
0.0
 11
16.006316
 21
21.080497
 31
0.0
 12
15.556316
 22
21.155497
 32
0.0
 13
15.556316
 23
21.155497
 33
0.0
  0
SOLID
  8
0
  6
BYBLOCK
 62
     0
 10
14.106316
 20
21.230497
 30
0.0
 11
14.106316
 21
21.080497
 31
0.0
 12
14.556316
 22
21.155497
 32
0.0
 13
14.556316
 23
21.155497
 33
0.0
  0
TEXT
  8
0
  6
BYBLOCK
 62
     0
 10
14.685222
 20
20.999247
 30
0.0
 40
0.3125
  1
1.000
 41
0.75
  7
TXT
 72
     1
 11
15.056316
 21
21.155497
 31
0.0
 73
     2
  0
POINT
  8
DEFPOINTS
  6
BYBLOCK
 62
     0
 10
15.556316
 20
21.988412
 30
0.0
  0
POINT
  8
DEFPOINTS
  6
BYBLOCK
 62
     0
 10
14.556316
 20
22.178173
 30
0.0
  0
POINT
  8
DEFPOINTS
  6
BYBLOCK
 62
     0
 10
14.556316
 20
21.155497
 30
0.0
  0
ENDBLK
  8
0
  0
BLOCK
  8
0
  2
*D7
 70
    65
 10
0.0
 20
0.0
 30
0.0
  3
*D
  0
LINE
  8
0
  6
BYBLOCK
 62
     0
 10
15.556316
 20
21.832162
 30
0.0
 11
15.556316
 21
21.414891
 31
0.0
  0
LINE
  8
0
  6
BYBLOCK
 62
     0
 10
16.556316
 20
22.021923
 30
0.0
 11
16.556316
 21
21.414891
 31
0.0
  0
LINE
  8
0
  6
BYBLOCK
 62
     0
 10
15.106316
 20
21.647391
 30
0.0
 11
14.656316
 21
21.647391
 31
0.0
  0
LINE
  8
0
  6
BYBLOCK
 62
     0
 10
17.006316
 20
21.647391
 30
0.0
 11
17.456316
 21
21.647391
 31
0.0
  0
SOLID
  8
0
  6
BYBLOCK
 62
     0
 10
15.106316
 20
21.722391
 30
0.0
 11
15.106316
 21
21.572391
 31
0.0
 12
15.556316
 22
21.647391
 32
0.0
 13
15.556316
 23
21.647391
 33
0.0
  0
SOLID
  8
0
  6
BYBLOCK
 62
     0
 10
17.006316
 20
21.722391
 30
0.0
 11
17.006316
 21
21.572391
 31
0.0
 12
16.556316
 22
21.647391
 32
0.0
 13
16.556316
 23
21.647391
 33
0.0
  0
TEXT
  8
0
  6
BYBLOCK
 62
     0
 10
15.685222
 20
21.491141
 30
0.0
 40
0.3125
  1
1.000
 41
0.75
  7
TXT
 72
     1
 11
16.056316
 21
21.647391
 31
0.0
 73
     2
  0
POINT
  8
DEFPOINTS
  6
BYBLOCK
 62
     0
 10
15.556316
 20
21.988412
 30
0.0
  0
POINT
  8
DEFPOINTS
  6
BYBLOCK
 62
     0
 10
16.556316
 20
22.178173
 30
0.0
  0
POINT
  8
DEFPOINTS
  6
BYBLOCK
 62
     0
 10
16.556316
 20
21.647391
 30
0.0
  0
ENDBLK
  8
0
  0
BLOCK
  8
0
  2
*D8
 70
    65
 10
0.0
 20
0.0
 30
0.0
  3
*D
  0
LINE
  8
0
  6
BYBLOCK
 62
     0
 10
15.556316
 20
21.832162
 30
0.0
 11
15.556316
 21
20.369817
 31
0.0
  0
LINE
  8
0
  6
BYBLOCK
 62
     0
 10
12.056316
 20
22.021923
 30
0.0
 11
12.056316
 21
20.369817
 31
0.0
  0
LINE
  8
0
  6
BYBLOCK
 62
     0
 10
15.106316
 20
20.602317
 30
0.0
 11
14.461003
 21
20.602317
 31
0.0
  0
LINE
  8
0
  6
BYBLOCK
 62
     0
 10
12.506316
 20
20.602317
 30
0.0
 11
13.151628
 21
20.602317
 31
0.0
  0
SOLID
  8
0
  6
BYBLOCK
 62
     0
 10
15.106316
 20
20.677317
 30
0.0
 11
15.106316
 21
20.527317
 31
0.0
 12
15.556316
 22
20.602317
 32
0.0
 13
15.556316
 23
20.602317
 33
0.0
  0
SOLID
  8
0
  6
BYBLOCK
 62
     0
 10
12.506316
 20
20.677317
 30
0.0
 11
12.506316
 21
20.527317
 31
0.0
 12
12.056316
 22
20.602317
 32
0.0
 13
12.056316
 23
20.602317
 33
0.0
  0
TEXT
  8
0
  6
BYBLOCK
 62
     0
 10
13.376628
 20
20.446067
 30
0.0
 40
0.3125
  1
3.500
 41
0.75
  7
TXT
 72
     1
 11
13.806316
 21
20.602317
 31
0.0
 73
     2
  0
POINT
  8
DEFPOINTS
  6
BYBLOCK
 62
     0
 10
15.556316
 20
21.988412
 30
0.0
  0
POINT
  8
DEFPOINTS
  6
BYBLOCK
 62
     0
 10
12.056316
 20
22.178173
 30
0.0
  0
POINT
  8
DEFPOINTS
  6
BYBLOCK
 62
     0
 10
12.056316
 20
20.602317
 30
0.0
  0
ENDBLK
  8
0
  0
BLOCK
  8
0
  2
*D9
 70
    65
 10
0.0
 20
0.0
 30
0.0
  3
*D
  0
LINE
  8
0
  6
BYBLOCK
 62
     0
 10
20.726659
 20
25.394633
 30
0.0
 11
21.579355
 21
25.394633
 31
0.0
  0
LINE
  8
0
  6
BYBLOCK
 62
     0
 10
19.587566
 20
28.064633
 30
0.0
 11
21.579355
 21
28.064633
 31
0.0
  0
LINE
  8
0
  6
BYBLOCK
 62
     0
 10
21.346855
 20
25.844633
 30
0.0
 11
21.346855
 21
26.348383
 31
0.0
  0
LINE
  8
0
  6
BYBLOCK
 62
     0
 10
21.346855
 20
27.614633
 30
0.0
 11
21.346855
 21
27.110883
 31
0.0
  0
SOLID
  8
0
  6
BYBLOCK
 62
     0
 10
21.271855
 20
25.844633
 30
0.0
 11
21.421855
 21
25.844633
 31
0.0
 12
21.346855
 22
25.394633
 32
0.0
 13
21.346855
 23
25.394633
 33
0.0
  0
SOLID
  8
0
  6
BYBLOCK
 62
     0
 10
21.271855
 20
27.614633
 30
0.0
 11
21.421855
 21
27.614633
 31
0.0
 12
21.346855
 22
28.064633
 32
0.0
 13
21.346855
 23
28.064633
 33
0.0
  0
TEXT
  8
0
  6
BYBLOCK
 62
     0
 10
20.897636
 20
26.573383
 30
0.0
 40
0.3125
  1
2.670
 41
0.75
  7
TXT
 72
     1
 11
21.346855
 21
26.729633
 31
0.0
 73
     2
  0
POINT
  8
DEFPOINTS
  6
BYBLOCK
 62
     0
 10
20.570409
 20
25.394633
 30
0.0
  0
POINT
  8
DEFPOINTS
  6
BYBLOCK
 62
     0
 10
19.431316
 20
28.064633
 30
0.0
  0
POINT
  8
DEFPOINTS
  6
BYBLOCK
 62
     0
 10
21.346855
 20
28.064633
 30
0.0
  0
ENDBLK
  8
0
  0
BLOCK
  8
0
  2
*D10
 70
    65
 10
0.0
 20
0.0
 30
0.0
  3
*D
  0
LINE
  8
0
  6
BYBLOCK
 62
     0
 10
20.726659
 20
25.394633
 30
0.0
 11
21.579355
 21
25.394633
 31
0.0
  0
LINE
  8
0
  6
BYBLOCK
 62
     0
 10
19.587566
 20
22.724633
 30
0.0
 11
21.579355
 21
22.724633
 31
0.0
  0
LINE
  8
0
  6
BYBLOCK
 62
     0
 10
21.346855
 20
24.944633
 30
0.0
 11
21.346855
 21
24.440883
 31
0.0
  0
LINE
  8
0
  6
BYBLOCK
 62
     0
 10
21.346855
 20
23.174633
 30
0.0
 11
21.346855
 21
23.678383
 31
0.0
  0
SOLID
  8
0
  6
BYBLOCK
 62
     0
 10
21.271855
 20
24.944633
 30
0.0
 11
21.421855
 21
24.944633
 31
0.0
 12
21.346855
 22
25.394633
 32
0.0
 13
21.346855
 23
25.394633
 33
0.0
  0
SOLID
  8
0
  6
BYBLOCK
 62
     0
 10
21.271855
 20
23.174633
 30
0.0
 11
21.421855
 21
23.174633
 31
0.0
 12
21.346855
 22
22.724633
 32
0.0
 13
21.346855
 23
22.724633
 33
0.0
  0
TEXT
  8
0
  6
BYBLOCK
 62
     0
 10
20.897636
 20
23.903383
 30
0.0
 40
0.3125
  1
2.670
 41
0.75
  7
TXT
 72
     1
 11
21.346855
 21
24.059633
 31
0.0
 73
     2
  0
POINT
  8
DEFPOINTS
  6
BYBLOCK
 62
     0
 10
20.570409
 20
25.394633
 30
0.0
  0
POINT
  8
DEFPOINTS
  6
BYBLOCK
 62
     0
 10
19.431316
 20
22.724633
 30
0.0
  0
POINT
  8
DEFPOINTS
  6
BYBLOCK
 62
     0
 10
21.346855
 20
22.724633
 30
0.0
  0
ENDBLK
  8
0
  0
BLOCK
  8
0
  2
*D14
 70
    65
 10
0.0
 20
0.0
 30
0.0
  3
*D
  0
LINE
  8
0
  6
BYBLOCK
 62
     0
 10
20.412066
 20
22.224633
 30
0.0
 11
22.81517
 21
22.224633
 31
0.0
  0
LINE
  8
0
  6
BYBLOCK
 62
     0
 10
20.412066
 20
28.564633
 30
0.0
 11
22.81517
 21
28.564633
 31
0.0
  0
LINE
  8
0
  6
BYBLOCK
 62
     0
 10
22.58267
 20
22.674633
 30
0.0
 11
22.58267
 21
25.013383
 31
0.0
  0
LINE
  8
0
  6
BYBLOCK
 62
     0
 10
22.58267
 20
28.114633
 30
0.0
 11
22.58267
 21
25.775883
 31
0.0
  0
SOLID
  8
0
  6
BYBLOCK
 62
     0
 10
22.50767
 20
22.674633
 30
0.0
 11
22.65767
 21
22.674633
 31
0.0
 12
22.58267
 22
22.224633
 32
0.0
 13
22.58267
 23
22.224633
 33
0.0
  0
SOLID
  8
0
  6
BYBLOCK
 62
     0
 10
22.50767
 20
28.114633
 30
0.0
 11
22.65767
 21
28.114633
 31
0.0
 12
22.58267
 22
28.564633
 32
0.0
 13
22.58267
 23
28.564633
 33
0.0
  0
TEXT
  8
0
  6
BYBLOCK
 62
     0
 10
22.133451
 20
25.238383
 30
0.0
 40
0.3125
  1
6.340
 41
0.75
  7
TXT
 72
     1
 11
22.58267
 21
25.394633
 31
0.0
 73
     2
  0
POINT
  8
DEFPOINTS
  6
BYBLOCK
 62
     0
 10
20.255816
 20
22.224633
 30
0.0
  0
POINT
  8
DEFPOINTS
  6
BYBLOCK
 62
     0
 10
20.255816
 20
28.564633
 30
0.0
  0
POINT
  8
DEFPOINTS
  6
BYBLOCK
 62
     0
 10
22.58267
 20
28.564633
 30
0.0
  0
ENDBLK
  8
0
  0
BLOCK
  8
0
  2
*D15
 70
    65
 10
0.0
 20
0.0
 30
0.0
  3
*D
  0
LINE
  8
0
  6
BYBLOCK
 62
     0
 10
20.305816
 20
28.670883
 30
0.0
 11
20.305816
 21
31.288786
 31
0.0
  0
LINE
  8
0
  6
BYBLOCK
 62
     0
 10
10.805816
 20
28.670883
 30
0.0
 11
10.805816
 21
31.288786
 31
0.0
  0
LINE
  8
0
  6
BYBLOCK
 62
     0
 10
19.855816
 20
31.056286
 30
0.0
 11
16.210503
 21
31.056286
 31
0.0
  0
LINE
  8
0
  6
BYBLOCK
 62
     0
 10
11.255816
 20
31.056286
 30
0.0
 11
14.901128
 21
31.056286
 31
0.0
  0
SOLID
  8
0
  6
BYBLOCK
 62
     0
 10
19.855816
 20
31.131286
 30
0.0
 11
19.855816
 21
30.981286
 31
0.0
 12
20.305816
 22
31.056286
 32
0.0
 13
20.305816
 23
31.056286
 33
0.0
  0
SOLID
  8
0
  6
BYBLOCK
 62
     0
 10
11.255816
 20
31.131286
 30
0.0
 11
11.255816
 21
30.981286
 31
0.0
 12
10.805816
 22
31.056286
 32
0.0
 13
10.805816
 23
31.056286
 33
0.0
  0
TEXT
  8
0
  6
BYBLOCK
 62
     0
 10
15.126128
 20
30.900036
 30
0.0
 40
0.3125
  1
9.500
 41
0.75
  7
TXT
 72
     1
 11
15.555816
 21
31.056286
 31
0.0
 73
     2
  0
POINT
  8
DEFPOINTS
  6
BYBLOCK
 62
     0
 10
20.305816
 20
28.514633
 30
0.0
  0
POINT
  8
DEFPOINTS
  6
BYBLOCK
 62
     0
 10
10.805816
 20
28.514633
 30
0.0
  0
POINT
  8
DEFPOINTS
  6
BYBLOCK
 62
     0
 10
10.805816
 20
31.056286
 30
0.0
  0
ENDBLK
  8
0
  0
BLOCK
  8
0
  2
*D16
 70
    65
 10
0.0
 20
0.0
 30
0.0
  3
*D
  0
LINE
  8
0
  6
BYBLOCK
 62
     0
 10
11.181316
 20
28.883187
 30
0.0
 11
11.181316
 21
30.756573
 31
0.0
  0
LINE
  8
0
  6
BYBLOCK
 62
     0
 10
15.556316
 20
28.957105
 30
0.0
 11
15.556316
 21
30.756573
 31
0.0
  0
LINE
  8
0
  6
BYBLOCK
 62
     0
 10
11.631316
 20
30.524073
 30
0.0
 11
12.675066
 21
30.524073
 31
0.0
  0
LINE
  8
0
  6
BYBLOCK
 62
     0
 10
15.106316
 20
30.524073
 30
0.0
 11
14.062566
 21
30.524073
 31
0.0
  0
SOLID
  8
0
  6
BYBLOCK
 62
     0
 10
11.631316
 20
30.599073
 30
0.0
 11
11.631316
 21
30.449073
 31
0.0
 12
11.181316
 22
30.524073
 32
0.0
 13
11.181316
 23
30.524073
 33
0.0
  0
SOLID
  8
0
  6
BYBLOCK
 62
     0
 10
15.106316
 20
30.599073
 30
0.0
 11
15.106316
 21
30.449073
 31
0.0
 12
15.556316
 22
30.524073
 32
0.0
 13
15.556316
 23
30.524073
 33
0.0
  0
TEXT
  8
0
  6
BYBLOCK
 62
     0
 10
12.900066
 20
30.367823
 30
0.0
 40
0.3125
  1
4.375
 41
0.75
  7
TXT
 72
     1
 11
13.368816
 21
30.524073
 31
0.0
 73
     2
  0
POINT
  8
DEFPOINTS
  6
BYBLOCK
 62
     0
 10
11.181316
 20
28.726937
 30
0.0
  0
POINT
  8
DEFPOINTS
  6
BYBLOCK
 62
     0
 10
15.556316
 20
28.800855
 30
0.0
  0
POINT
  8
DEFPOINTS
  6
BYBLOCK
 62
     0
 10
15.556316
 20
30.524073
 30
0.0
  0
ENDBLK
  8
0
  0
BLOCK
  8
0
  2
*D17
 70
    65
 10
0.0
 20
0.0
 30
0.0
  3
*D
  0
LINE
  8
0
  6
BYBLOCK
 62
     0
 10
19.931316
 20
28.883187
 30
0.0
 11
19.931316
 21
30.756573
 31
0.0
  0
LINE
  8
0
  6
BYBLOCK
 62
     0
 10
15.556316
 20
28.957105
 30
0.0
 11
15.556316
 21
30.756573
 31
0.0
  0
LINE
  8
0
  6
BYBLOCK
 62
     0
 10
19.481316
 20
30.524073
 30
0.0
 11
18.437566
 21
30.524073
 31
0.0
  0
LINE
  8
0
  6
BYBLOCK
 62
     0
 10
16.006316
 20
30.524073
 30
0.0
 11
17.050066
 21
30.524073
 31
0.0
  0
SOLID
  8
0
  6
BYBLOCK
 62
     0
 10
19.481316
 20
30.599073
 30
0.0
 11
19.481316
 21
30.449073
 31
0.0
 12
19.931316
 22
30.524073
 32
0.0
 13
19.931316
 23
30.524073
 33
0.0
  0
SOLID
  8
0
  6
BYBLOCK
 62
     0
 10
16.006316
 20
30.599073
 30
0.0
 11
16.006316
 21
30.449073
 31
0.0
 12
15.556316
 22
30.524073
 32
0.0
 13
15.556316
 23
30.524073
 33
0.0
  0
TEXT
  8
0
  6
BYBLOCK
 62
     0
 10
17.275066
 20
30.367823
 30
0.0
 40
0.3125
  1
4.375
 41
0.75
  7
TXT
 72
     1
 11
17.743816
 21
30.524073
 31
0.0
 73
     2
  0
POINT
  8
DEFPOINTS
  6
BYBLOCK
 62
     0
 10
19.931316
 20
28.726937
 30
0.0
  0
POINT
  8
DEFPOINTS
  6
BYBLOCK
 62
     0
 10
15.556316
 20
28.800855
 30
0.0
  0
POINT
  8
DEFPOINTS
  6
BYBLOCK
 62
     0
 10
15.556316
 20
30.524073
 30
0.0
  0
ENDBLK
  8
0
  0
BLOCK
  8
0
  2
*D18
 70
    65
 10
0.0
 20
0.0
 30
0.0
  3
*D
  0
LINE
  8
0
  6
BYBLOCK
 62
     0
 10
10.985816
 20
34.314371
 30
0.0
 11
10.985816
 21
35.175559
 31
0.0
  0
LINE
  8
0
  6
BYBLOCK
 62
     0
 10
20.125816
 20
34.314371
 30
0.0
 11
20.125816
 21
35.175559
 31
0.0
  0
LINE
  8
0
  6
BYBLOCK
 62
     0
 10
11.435816
 20
34.943059
 30
0.0
 11
14.920659
 21
34.943059
 31
0.0
  0
LINE
  8
0
  6
BYBLOCK
 62
     0
 10
19.675816
 20
34.943059
 30
0.0
 11
16.190972
 21
34.943059
 31
0.0
  0
SOLID
  8
0
  6
BYBLOCK
 62
     0
 10
11.435816
 20
35.018059
 30
0.0
 11
11.435816
 21
34.868059
 31
0.0
 12
10.985816
 22
34.943059
 32
0.0
 13
10.985816
 23
34.943059
 33
0.0
  0
SOLID
  8
0
  6
BYBLOCK
 62
     0
 10
19.675816
 20
35.018059
 30
0.0
 11
19.675816
 21
34.868059
 31
0.0
 12
20.125816
 22
34.943059
 32
0.0
 13
20.125816
 23
34.943059
 33
0.0
  0
TEXT
  8
0
  6
BYBLOCK
 62
     0
 10
15.145659
 20
34.786809
 30
0.0
 40
0.3125
  1
9.140
 41
0.75
  7
TXT
 72
     1
 11
15.555816
 21
34.943059
 31
0.0
 73
     2
  0
POINT
  8
DEFPOINTS
  6
BYBLOCK
 62
     0
 10
10.985816
 20
34.158121
 30
0.0
  0
POINT
  8
DEFPOINTS
  6
BYBLOCK
 62
     0
 10
20.125816
 20
34.158121
 30
0.0
  0
POINT
  8
DEFPOINTS
  6
BYBLOCK
 62
     0
 10
20.125816
 20
34.943059
 30
0.0
  0
ENDBLK
  8
0
  0
BLOCK
  8
0
  2
*D19
 70
    65
 10
0.0
 20
0.0
 30
0.0
  3
*D
  0
LINE
  8
0
  6
BYBLOCK
 62
     0
 10
3.68968
 20
26.920957
 30
0.0
 11
3.68968
 21
26.997207
 31
0.0
  0
LINE
  8
0
  6
BYBLOCK
 62
     0
 10
3.67468
 20
26.920957
 30
0.0
 11
3.67468
 21
26.997207
 31
0.0
  0
LINE
  8
0
  6
BYBLOCK
 62
     0
 10
4.13968
 20
26.764707
 30
0.0
 11
4.58968
 21
26.764707
 31
0.0
  0
LINE
  8
0
  6
BYBLOCK
 62
     0
 10
3.22468
 20
26.764707
 30
0.0
 11
2.77468
 21
26.764707
 31
0.0
  0
SOLID
  8
0
  6
BYBLOCK
 62
     0
 10
4.13968
 20
26.839707
 30
0.0
 11
4.13968
 21
26.689707
 31
0.0
 12
3.68968
 22
26.764707
 32
0.0
 13
3.68968
 23
26.764707
 33
0.0
  0
SOLID
  8
0
  6
BYBLOCK
 62
     0
 10
3.22468
 20
26.839707
 30
0.0
 11
3.22468
 21
26.689707
 31
0.0
 12
3.67468
 22
26.764707
 32
0.0
 13
3.67468
 23
26.764707
 33
0.0
  0
TEXT
  8
0
  6
BYBLOCK
 62
     0
 10
1.76843
 20
26.608457
 30
0.0
 40
0.3125
  1
0.015
 41
0.75
  7
TXT
 72
     1
 11
2.159055
 21
26.764707
 31
0.0
 73
     2
  0
POINT
  8
DEFPOINTS
  6
BYBLOCK
 62
     0
 10
3.68968
 20
26.764707
 30
0.0
  0
POINT
  8
DEFPOINTS
  6
BYBLOCK
 62
     0
 10
3.67468
 20
26.764707
 30
0.0
  0
POINT
  8
DEFPOINTS
  6
BYBLOCK
 62
     0
 10
3.67468
 20
26.764707
 30
0.0
  0
ENDBLK
  8
0
  0
BLOCK
  8
0
  2
*D20
 70
    65
 10
0.0
 20
0.0
 30
0.0
  3
*D
  0
LINE
  8
0
  6
BYBLOCK
 62
     0
 10
3.77468
 20
24.211883
 30
0.0
 11
3.77468
 21
24.111441
 31
0.0
  0
LINE
  8
0
  6
BYBLOCK
 62
     0
 10
3.67468
 20
24.211883
 30
0.0
 11
3.67468
 21
24.111441
 31
0.0
  0
LINE
  8
0
  6
BYBLOCK
 62
     0
 10
4.22468
 20
24.343941
 30
0.0
 11
4.67468
 21
24.343941
 31
0.0
  0
LINE
  8
0
  6
BYBLOCK
 62
     0
 10
3.22468
 20
24.343941
 30
0.0
 11
2.77468
 21
24.343941
 31
0.0
  0
SOLID
  8
0
  6
BYBLOCK
 62
     0
 10
4.22468
 20
24.418941
 30
0.0
 11
4.22468
 21
24.268941
 31
0.0
 12
3.77468
 22
24.343941
 32
0.0
 13
3.77468
 23
24.343941
 33
0.0
  0
SOLID
  8
0
  6
BYBLOCK
 62
     0
 10
3.22468
 20
24.418941
 30
0.0
 11
3.22468
 21
24.268941
 31
0.0
 12
3.67468
 22
24.343941
 32
0.0
 13
3.67468
 23
24.343941
 33
0.0
  0
TEXT
  8
0
  6
BYBLOCK
 62
     0
 10
1.807492
 20
24.187691
 30
0.0
 40
0.3125
  1
0.100
 41
0.75
  7
TXT
 72
     1
 11
2.178586
 21
24.343941
 31
0.0
 73
     2
  0
POINT
  8
DEFPOINTS
  6
BYBLOCK
 62
     0
 10
3.77468
 20
24.368133
 30
0.0
  0
POINT
  8
DEFPOINTS
  6
BYBLOCK
 62
     0
 10
3.67468
 20
24.368133
 30
0.0
  0
POINT
  8
DEFPOINTS
  6
BYBLOCK
 62
     0
 10
3.67468
 20
24.343941
 30
0.0
  0
ENDBLK
  8
0
  0
BLOCK
  8
0
  2
*D21
 70
    65
 10
0.0
 20
0.0
 30
0.0
  3
*D
  0
LINE
  8
0
  6
BYBLOCK
 62
     0
 10
3.51843
 20
22.017967
 30
0.0
 11
1.133828
 21
22.017967
 31
0.0
  0
LINE
  8
0
  6
BYBLOCK
 62
     0
 10
3.51843
 20
27.997967
 30
0.0
 11
1.133828
 21
27.997967
 31
0.0
  0
LINE
  8
0
  6
BYBLOCK
 62
     0
 10
1.366328
 20
22.467967
 30
0.0
 11
1.366328
 21
24.626717
 31
0.0
  0
LINE
  8
0
  6
BYBLOCK
 62
     0
 10
1.366328
 20
27.547967
 30
0.0
 11
1.366328
 21
25.389217
 31
0.0
  0
SOLID
  8
0
  6
BYBLOCK
 62
     0
 10
1.291328
 20
22.467967
 30
0.0
 11
1.441328
 21
22.467967
 31
0.0
 12
1.366328
 22
22.017967
 32
0.0
 13
1.366328
 23
22.017967
 33
0.0
  0
SOLID
  8
0
  6
BYBLOCK
 62
     0
 10
1.291328
 20
27.547967
 30
0.0
 11
1.441328
 21
27.547967
 31
0.0
 12
1.366328
 22
27.997967
 32
0.0
 13
1.366328
 23
27.997967
 33
0.0
  0
TEXT
  8
0
  6
BYBLOCK
 62
     0
 10
0.917109
 20
24.851717
 30
0.0
 40
0.3125
  1
5.980
 41
0.75
  7
TXT
 72
     1
 11
1.366328
 21
25.007967
 31
0.0
 73
     2
  0
POINT
  8
DEFPOINTS
  6
BYBLOCK
 62
     0
 10
3.67468
 20
22.017967
 30
0.0
  0
POINT
  8
DEFPOINTS
  6
BYBLOCK
 62
     0
 10
3.67468
 20
27.997967
 30
0.0
  0
POINT
  8
DEFPOINTS
  6
BYBLOCK
 62
     0
 10
1.366328
 20
27.997967
 30
0.0
  0
ENDBLK
  8
0
  0
BLOCK
  8
0
  2
*D22
 70
    65
 10
0.0
 20
0.0
 30
0.0
  3
*D
  0
LINE
  8
0
  6
BYBLOCK
 62
     0
 10
6.137238
 20
22.242772
 30
0.0
 11
7.978151
 21
22.242772
 31
0.0
  0
LINE
  8
0
  6
BYBLOCK
 62
     0
 10
6.723285
 20
22.310035
 30
0.0
 11
7.970089
 21
22.422264
 31
0.0
  0
ARC
  8
0
  6
BYBLOCK
 62
     0
 10
5.976022
 20
22.242772
 30
0.0
 40
1.769629
 50
330.781356
 51
345.390678
  0
ARC
  8
0
  6
BYBLOCK
 62
     0
 10
5.976022
 20
22.242772
 30
0.0
 40
1.769629
 50
19.752848
 51
34.36217
  0
SOLID
  8
0
  6
BYBLOCK
 62
     0
 10
7.614044
 20
21.80596
 30
0.0
 11
7.762827
 21
21.786888
 31
0.0
 12
7.745651
 22
22.242772
 32
0.0
 13
7.745651
 23
22.242772
 33
0.0
  0
SOLID
  8
0
  6
BYBLOCK
 62
     0
 10
7.714761
 20
22.857008
 30
0.0
 11
7.568288
 21
22.824675
 31
0.0
 12
7.738525
 22
22.40142
 32
0.0
 13
7.738525
 23
22.40142
 33
0.0
  0
TEXT
  8
0
  6
BYBLOCK
 62
     0
 10
7.079914
 20
23.250672
 30
0.0
 40
0.3125
  1
5%%d
 41
0.75
  7
TXT
 72
     1
 11
7.236164
 21
23.406922
 31
0.0
 73
     2
  0
POINT
  8
DEFPOINTS
  6
BYBLOCK
 62
     0
 10
7.744364
 20
22.31024
 30
0.0
  0
POINT
  8
DEFPOINTS
  6
BYBLOCK
 62
     0
 10
5.976022
 20
22.242772
 30
0.0
  0
POINT
  8
DEFPOINTS
  6
BYBLOCK
 62
     0
 10
5.976022
 20
22.242772
 30
0.0
  0
POINT
  8
DEFPOINTS
  6
BYBLOCK
 62
     0
 10
6.567664
 20
22.296027
 30
0.0
  0
POINT
  8
DEFPOINTS
  6
BYBLOCK
 62
     0
 10
5.980988
 20
22.242772
 30
0.0
  0
ENDBLK
  8
0
  0
BLOCK
  8
0
  2
*D23
 70
    65
 10
0.0
 20
0.0
 30
0.0
  3
*D
  0
LINE
  8
0
  6
BYBLOCK
 62
     0
 10
19.849713
 20
11.12768
 30
0.0
 11
20.642007
 21
11.12768
 31
0.0
  0
LINE
  8
0
  6
BYBLOCK
 62
     0
 10
19.696838
 20
10.42768
 30
0.0
 11
20.642007
 21
10.42768
 31
0.0
  0
LINE
  8
0
  6
BYBLOCK
 62
     0
 10
20.409507
 20
11.57768
 30
0.0
 11
20.409507
 21
12.02768
 31
0.0
  0
LINE
  8
0
  6
BYBLOCK
 62
     0
 10
20.409507
 20
9.97768
 30
0.0
 11
20.409507
 21
9.52768
 31
0.0
  0
SOLID
  8
0
  6
BYBLOCK
 62
     0
 10
20.334507
 20
11.57768
 30
0.0
 11
20.484507
 21
11.57768
 31
0.0
 12
20.409507
 22
11.12768
 32
0.0
 13
20.409507
 23
11.12768
 33
0.0
  0
SOLID
  8
0
  6
BYBLOCK
 62
     0
 10
20.334507
 20
9.97768
 30
0.0
 11
20.484507
 21
9.97768
 31
0.0
 12
20.409507
 22
10.42768
 32
0.0
 13
20.409507
 23
10.42768
 33
0.0
  0
TEXT
  8
0
  6
BYBLOCK
 62
     0
 10
19.99935
 20
10.62143
 30
0.0
 40
0.3125
  1
0.700
 41
0.75
  7
TXT
 72
     1
 11
20.409507
 21
10.77768
 31
0.0
 73
     2
  0
POINT
  8
DEFPOINTS
  6
BYBLOCK
 62
     0
 10
19.693463
 20
11.12768
 30
0.0
  0
POINT
  8
DEFPOINTS
  6
BYBLOCK
 62
     0
 10
19.540588
 20
10.42768
 30
0.0
  0
POINT
  8
DEFPOINTS
  6
BYBLOCK
 62
     0
 10
20.409507
 20
10.42768
 30
0.0
  0
ENDBLK
  8
0
  0
BLOCK
  8
0
  2
*D24
 70
    65
 10
0.0
 20
0.0
 30
0.0
  3
*D
  0
LINE
  8
0
  6
BYBLOCK
 62
     0
 10
19.696838
 20
10.42768
 30
0.0
 11
21.608395
 21
10.42768
 31
0.0
  0
LINE
  8
0
  6
BYBLOCK
 62
     0
 10
19.605512
 20
12.877608
 30
0.0
 11
21.608395
 21
12.877608
 31
0.0
  0
LINE
  8
0
  6
BYBLOCK
 62
     0
 10
21.375895
 20
10.87768
 30
0.0
 11
21.375895
 21
11.271394
 31
0.0
  0
LINE
  8
0
  6
BYBLOCK
 62
     0
 10
21.375895
 20
12.427608
 30
0.0
 11
21.375895
 21
12.033894
 31
0.0
  0
SOLID
  8
0
  6
BYBLOCK
 62
     0
 10
21.300895
 20
10.87768
 30
0.0
 11
21.450895
 21
10.87768
 31
0.0
 12
21.375895
 22
10.42768
 32
0.0
 13
21.375895
 23
10.42768
 33
0.0
  0
SOLID
  8
0
  6
BYBLOCK
 62
     0
 10
21.300895
 20
12.427608
 30
0.0
 11
21.450895
 21
12.427608
 31
0.0
 12
21.375895
 22
12.877608
 32
0.0
 13
21.375895
 23
12.877608
 33
0.0
  0
TEXT
  8
0
  6
BYBLOCK
 62
     0
 10
20.926676
 20
11.496394
 30
0.0
 40
0.3125
  1
2.450
 41
0.75
  7
TXT
 72
     1
 11
21.375895
 21
11.652644
 31
0.0
 73
     2
  0
POINT
  8
DEFPOINTS
  6
BYBLOCK
 62
     0
 10
19.540588
 20
10.42768
 30
0.0
  0
POINT
  8
DEFPOINTS
  6
BYBLOCK
 62
     0
 10
19.449262
 20
12.877608
 30
0.0
  0
POINT
  8
DEFPOINTS
  6
BYBLOCK
 62
     0
 10
21.375895
 20
12.877608
 30
0.0
  0
ENDBLK
  8
0
  0
BLOCK
  8
0
  2
*D25
 70
    65
 10
0.0
 20
0.0
 30
0.0
  3
*D
  0
LINE
  8
0
  6
BYBLOCK
 62
     0
 10
19.693463
 20
11.346447
 30
0.0
 11
19.693463
 21
14.013829
 31
0.0
  0
LINE
  8
0
  6
BYBLOCK
 62
     0
 10
19.535313
 20
12.941984
 30
0.0
 11
19.442833
 21
14.002926
 31
0.0
  0
ARC
  8
0
  6
BYBLOCK
 62
     0
 10
19.693463
 20
11.12768
 30
0.0
 40
2.653649
 50
70.544453
 51
80.272227
  0
ARC
  8
0
  6
BYBLOCK
 62
     0
 10
19.693463
 20
11.12768
 30
0.0
 40
2.653649
 50
104.709557
 51
114.43733
  0
SOLID
  8
0
  6
BYBLOCK
 62
     0
 10
20.135483
 20
13.668444
 30
0.0
 11
20.148202
 21
13.817904
 31
0.0
 12
19.693463
 22
13.781329
 32
0.0
 13
19.693463
 23
13.781329
 33
0.0
  0
SOLID
  8
0
  6
BYBLOCK
 62
     0
 10
19.006826
 20
13.768252
 30
0.0
 11
19.032475
 21
13.620461
 31
0.0
 12
19.463023
 22
13.771304
 32
0.0
 13
19.463023
 23
13.771304
 33
0.0
  0
TEXT
  8
0
  6
BYBLOCK
 62
     0
 10
20.766298
 20
13.371139
 30
0.0
 40
0.3125
  1
5%%d
 41
0.75
  7
TXT
 72
     1
 11
20.922548
 21
13.527389
 31
0.0
 73
     2
  0
POINT
  8
DEFPOINTS
  6
BYBLOCK
 62
     0
 10
19.581865
 20
13.778981
 30
0.0
  0
POINT
  8
DEFPOINTS
  6
BYBLOCK
 62
     0
 10
19.693463
 20
11.12768
 30
0.0
  0
POINT
  8
DEFPOINTS
  6
BYBLOCK
 62
     0
 10
19.693463
 20
11.12768
 30
0.0
  0
POINT
  8
DEFPOINTS
  6
BYBLOCK
 62
     0
 10
19.548882
 20
12.786324
 30
0.0
  0
POINT
  8
DEFPOINTS
  6
BYBLOCK
 62
     0
 10
19.693463
 20
11.190197
 30
0.0
  0
ENDBLK
  8
0
  0
BLOCK
  8
0
  2
*D26
 70
    65
 10
0.0
 20
0.0
 30
0.0
  3
*D
  0
LINE
  8
0
  6
BYBLOCK
 62
     0
 10
14.927623
 20
12.122667
 30
0.0
 11
14.494062
 21
14.261913
 31
0.0
  0
LINE
  8
0
  6
BYBLOCK
 62
     0
 10
19.357558
 20
13.020482
 30
0.0
 11
18.923997
 21
15.159728
 31
0.0
  0
LINE
  8
0
  6
BYBLOCK
 62
     0
 10
14.981277
 20
14.12343
 30
0.0
 11
16.080993
 21
14.346309
 31
0.0
  0
LINE
  8
0
  6
BYBLOCK
 62
     0
 10
18.529146
 20
14.842476
 30
0.0
 11
17.42943
 21
14.619597
 31
0.0
  0
SOLID
  8
0
  6
BYBLOCK
 62
     0
 10
14.96638
 20
14.196935
 30
0.0
 11
14.996175
 21
14.049924
 31
0.0
 12
14.540244
 22
14.034045
 32
0.0
 13
14.540244
 23
14.034045
 33
0.0
  0
SOLID
  8
0
  6
BYBLOCK
 62
     0
 10
18.514248
 20
14.915982
 30
0.0
 11
18.544043
 21
14.768971
 31
0.0
 12
18.970179
 22
14.93186
 32
0.0
 13
18.970179
 23
14.93186
 33
0.0
  0
TEXT
  8
0
  6
BYBLOCK
 62
     0
 10
16.305993
 20
14.326703
 30
0.0
 40
0.3125
  1
4.520
 41
0.75
  7
TXT
 72
     1
 11
16.755211
 21
14.482953
 31
0.0
 73
     2
  0
POINT
  8
DEFPOINTS
  6
BYBLOCK
 62
     0
 10
14.958659
 20
11.969531
 30
0.0
  0
POINT
  8
DEFPOINTS
  6
BYBLOCK
 62
     0
 10
19.388594
 20
12.867346
 30
0.0
  0
POINT
  8
DEFPOINTS
  6
BYBLOCK
 62
     0
 10
18.970179
 20
14.93186
 30
0.0
  0
ENDBLK
  8
0
  0
BLOCK
  8
0
  2
*D27
 70
    65
 10
0.0
 20
0.0
 30
0.0
  3
*D
  0
LINE
  8
0
  6
BYBLOCK
 62
     0
 10
7.772867
 20
8.693995
 30
0.0
 11
7.772867
 21
9.81638
 31
0.0
  0
LINE
  8
0
  6
BYBLOCK
 62
     0
 10
6.472867
 20
8.521871
 30
0.0
 11
6.472867
 21
9.81638
 31
0.0
  0
LINE
  8
0
  6
BYBLOCK
 62
     0
 10
8.222867
 20
9.58388
 30
0.0
 11
8.672867
 21
9.58388
 31
0.0
  0
LINE
  8
0
  6
BYBLOCK
 62
     0
 10
6.022867
 20
9.58388
 30
0.0
 11
5.572867
 21
9.58388
 31
0.0
  0
SOLID
  8
0
  6
BYBLOCK
 62
     0
 10
8.222867
 20
9.65888
 30
0.0
 11
8.222867
 21
9.50888
 31
0.0
 12
7.772867
 22
9.58388
 32
0.0
 13
7.772867
 23
9.58388
 33
0.0
  0
SOLID
  8
0
  6
BYBLOCK
 62
     0
 10
6.022867
 20
9.65888
 30
0.0
 11
6.022867
 21
9.50888
 31
0.0
 12
6.472867
 22
9.58388
 32
0.0
 13
6.472867
 23
9.58388
 33
0.0
  0
TEXT
  8
0
  6
BYBLOCK
 62
     0
 10
6.732242
 20
9.42763
 30
0.0
 40
0.3125
  1
1.300
 41
0.75
  7
TXT
 72
     1
 11
7.122867
 21
9.58388
 31
0.0
 73
     2
  0
POINT
  8
DEFPOINTS
  6
BYBLOCK
 62
     0
 10
7.772867
 20
8.537745
 30
0.0
  0
POINT
  8
DEFPOINTS
  6
BYBLOCK
 62
     0
 10
6.472867
 20
8.365621
 30
0.0
  0
POINT
  8
DEFPOINTS
  6
BYBLOCK
 62
     0
 10
6.472867
 20
9.58388
 30
0.0
  0
ENDBLK
  8
0
  0
BLOCK
  8
0
  2
*D28
 70
    65
 10
0.0
 20
0.0
 30
0.0
  3
*D
  0
LINE
  8
0
  6
BYBLOCK
 62
     0
 10
5.907867
 20
4.234136
 30
0.0
 11
5.907867
 21
4.316837
 31
0.0
  0
LINE
  8
0
  6
BYBLOCK
 62
     0
 10
5.892867
 20
4.234136
 30
0.0
 11
5.892867
 21
4.316837
 31
0.0
  0
LINE
  8
0
  6
BYBLOCK
 62
     0
 10
6.357867
 20
4.084337
 30
0.0
 11
6.807867
 21
4.084337
 31
0.0
  0
LINE
  8
0
  6
BYBLOCK
 62
     0
 10
5.442867
 20
4.084337
 30
0.0
 11
4.992867
 21
4.084337
 31
0.0
  0
SOLID
  8
0
  6
BYBLOCK
 62
     0
 10
6.357867
 20
4.159337
 30
0.0
 11
6.357867
 21
4.009337
 31
0.0
 12
5.907867
 22
4.084337
 32
0.0
 13
5.907867
 23
4.084337
 33
0.0
  0
SOLID
  8
0
  6
BYBLOCK
 62
     0
 10
5.442867
 20
4.159337
 30
0.0
 11
5.442867
 21
4.009337
 31
0.0
 12
5.892867
 22
4.084337
 32
0.0
 13
5.892867
 23
4.084337
 33
0.0
  0
TEXT
  8
0
  6
BYBLOCK
 62
     0
 10
3.986617
 20
3.928087
 30
0.0
 40
0.3125
  1
0.015
 41
0.75
  7
TXT
 72
     1
 11
4.377242
 21
4.084337
 31
0.0
 73
     2
  0
POINT
  8
DEFPOINTS
  6
BYBLOCK
 62
     0
 10
5.907867
 20
4.077886
 30
0.0
  0
POINT
  8
DEFPOINTS
  6
BYBLOCK
 62
     0
 10
5.892867
 20
4.077886
 30
0.0
  0
POINT
  8
DEFPOINTS
  6
BYBLOCK
 62
     0
 10
5.892867
 20
4.084337
 30
0.0
  0
ENDBLK
  8
0
  0
BLOCK
  8
0
  2
*D29
 70
    65
 10
0.0
 20
0.0
 30
0.0
  3
*D
  0
LINE
  8
0
  6
BYBLOCK
 62
     0
 10
7.362867
 20
3.288871
 30
0.0
 11
7.362867
 21
3.979769
 31
0.0
  0
LINE
  8
0
  6
BYBLOCK
 62
     0
 10
7.772867
 20
3.859974
 30
0.0
 11
7.772867
 21
3.979769
 31
0.0
  0
LINE
  8
0
  6
BYBLOCK
 62
     0
 10
6.912867
 20
3.747269
 30
0.0
 11
6.462867
 21
3.747269
 31
0.0
  0
LINE
  8
0
  6
BYBLOCK
 62
     0
 10
8.222867
 20
3.747269
 30
0.0
 11
8.672867
 21
3.747269
 31
0.0
  0
SOLID
  8
0
  6
BYBLOCK
 62
     0
 10
6.912867
 20
3.822269
 30
0.0
 11
6.912867
 21
3.672269
 31
0.0
 12
7.362867
 22
3.747269
 32
0.0
 13
7.362867
 23
3.747269
 33
0.0
  0
SOLID
  8
0
  6
BYBLOCK
 62
     0
 10
8.222867
 20
3.822269
 30
0.0
 11
8.222867
 21
3.672269
 31
0.0
 12
7.772867
 22
3.747269
 32
0.0
 13
7.772867
 23
3.747269
 33
0.0
  0
TEXT
  8
0
  6
BYBLOCK
 62
     0
 10
8.897867
 20
3.591019
 30
0.0
 40
0.3125
  1
0.410
 41
0.75
  7
TXT
 72
     1
 11
9.288492
 21
3.747269
 31
0.0
 73
     2
  0
POINT
  8
DEFPOINTS
  6
BYBLOCK
 62
     0
 10
7.362867
 20
3.132621
 30
0.0
  0
POINT
  8
DEFPOINTS
  6
BYBLOCK
 62
     0
 10
7.772867
 20
3.703724
 30
0.0
  0
POINT
  8
DEFPOINTS
  6
BYBLOCK
 62
     0
 10
7.772867
 20
3.747269
 30
0.0
  0
ENDBLK
  8
0
  0
BLOCK
  8
0
  2
*D30
 70
    65
 10
0.0
 20
0.0
 30
0.0
  3
*D
  0
LINE
  8
0
  6
BYBLOCK
 62
     0
 10
7.382867
 20
6.448644
 30
0.0
 11
7.382867
 21
6.871463
 31
0.0
  0
LINE
  8
0
  6
BYBLOCK
 62
     0
 10
7.772867
 20
6.795213
 30
0.0
 11
7.772867
 21
6.871463
 31
0.0
  0
LINE
  8
0
  6
BYBLOCK
 62
     0
 10
6.932867
 20
6.638963
 30
0.0
 11
6.482867
 21
6.638963
 31
0.0
  0
LINE
  8
0
  6
BYBLOCK
 62
     0
 10
8.222867
 20
6.638963
 30
0.0
 11
8.672867
 21
6.638963
 31
0.0
  0
SOLID
  8
0
  6
BYBLOCK
 62
     0
 10
6.932867
 20
6.713963
 30
0.0
 11
6.932867
 21
6.563963
 31
0.0
 12
7.382867
 22
6.638963
 32
0.0
 13
7.382867
 23
6.638963
 33
0.0
  0
SOLID
  8
0
  6
BYBLOCK
 62
     0
 10
8.222867
 20
6.713963
 30
0.0
 11
8.222867
 21
6.563963
 31
0.0
 12
7.772867
 22
6.638963
 32
0.0
 13
7.772867
 23
6.638963
 33
0.0
  0
TEXT
  8
0
  6
BYBLOCK
 62
     0
 10
8.897867
 20
6.482713
 30
0.0
 40
0.3125
  1
0.390
 41
0.75
  7
TXT
 72
     1
 11
9.327554
 21
6.638963
 31
0.0
 73
     2
  0
POINT
  8
DEFPOINTS
  6
BYBLOCK
 62
     0
 10
7.382867
 20
6.292394
 30
0.0
  0
POINT
  8
DEFPOINTS
  6
BYBLOCK
 62
     0
 10
7.772867
 20
6.638963
 30
0.0
  0
POINT
  8
DEFPOINTS
  6
BYBLOCK
 62
     0
 10
7.772867
 20
6.638963
 30
0.0
  0
ENDBLK
  8
0
  0
BLOCK
  8
0
  2
*D31
 70
    65
 10
0.0
 20
0.0
 30
0.0
  3
*D
  0
LINE
  8
0
  6
BYBLOCK
 62
     0
 10
7.837238
 20
8.623747
 30
0.0
 11
10.011453
 21
8.433528
 31
0.0
  0
LINE
  8
0
  6
BYBLOCK
 62
     0
 10
7.275734
 20
8.690621
 30
0.0
 11
10.022678
 21
8.690621
 31
0.0
  0
ARC
  8
0
  6
BYBLOCK
 62
     0
 10
7.072867
 20
8.690621
 30
0.0
 40
2.717312
 50
336.00133
 51
345.500665
  0
ARC
  8
0
  6
BYBLOCK
 62
     0
 10
7.072867
 20
8.690621
 30
0.0
 40
2.717312
 50
9.499335
 51
18.99867
  0
SOLID
  8
0
  6
BYBLOCK
 62
     0
 10
9.629717
 20
8.022991
 30
0.0
 11
9.77755
 21
7.99759
 31
0.0
 12
9.779838
 22
8.453791
 32
0.0
 13
9.779838
 23
8.453791
 33
0.0
  0
SOLID
  8
0
  6
BYBLOCK
 62
     0
 10
9.82766
 20
9.145285
 30
0.0
 11
9.678175
 21
9.132865
 31
0.0
 12
9.790178
 22
8.690621
 32
0.0
 13
9.790178
 23
8.690621
 33
0.0
  0
TEXT
  8
0
  6
BYBLOCK
 62
     0
 10
9.234811
 20
7.195221
 30
0.0
 40
0.3125
  1
5%%d
 41
0.75
  7
TXT
 72
     1
 11
9.391061
 21
7.351471
 31
0.0
 73
     2
  0
POINT
  8
DEFPOINTS
  6
BYBLOCK
 62
     0
 10
9.787942
 20
8.580401
 30
0.0
  0
POINT
  8
DEFPOINTS
  6
BYBLOCK
 62
     0
 10
7.072867
 20
8.690621
 30
0.0
  0
POINT
  8
DEFPOINTS
  6
BYBLOCK
 62
     0
 10
7.072867
 20
8.690621
 30
0.0
  0
POINT
  8
DEFPOINTS
  6
BYBLOCK
 62
     0
 10
7.681582
 20
8.637365
 30
0.0
  0
POINT
  8
DEFPOINTS
  6
BYBLOCK
 62
     0
 10
7.119484
 20
8.690621
 30
0.0
  0
ENDBLK
  8
0
  0
BLOCK
  8
0
  2
*D32
 70
    65
 10
0.0
 20
0.0
 30
0.0
  3
*D
  0
LINE
  8
0
  6
BYBLOCK
 62
     0
 10
5.992867
 20
7.133895
 30
0.0
 11
5.992867
 21
7.221434
 31
0.0
  0
LINE
  8
0
  6
BYBLOCK
 62
     0
 10
5.892867
 20
7.133895
 30
0.0
 11
5.892867
 21
7.221434
 31
0.0
  0
LINE
  8
0
  6
BYBLOCK
 62
     0
 10
6.442867
 20
6.988934
 30
0.0
 11
6.892867
 21
6.988934
 31
0.0
  0
LINE
  8
0
  6
BYBLOCK
 62
     0
 10
5.442867
 20
6.988934
 30
0.0
 11
4.992867
 21
6.988934
 31
0.0
  0
SOLID
  8
0
  6
BYBLOCK
 62
     0
 10
6.442867
 20
7.063934
 30
0.0
 11
6.442867
 21
6.913934
 31
0.0
 12
5.992867
 22
6.988934
 32
0.0
 13
5.992867
 23
6.988934
 33
0.0
  0
SOLID
  8
0
  6
BYBLOCK
 62
     0
 10
5.442867
 20
7.063934
 30
0.0
 11
5.442867
 21
6.913934
 31
0.0
 12
5.892867
 22
6.988934
 32
0.0
 13
5.892867
 23
6.988934
 33
0.0
  0
TEXT
  8
0
  6
BYBLOCK
 62
     0
 10
4.025679
 20
6.832684
 30
0.0
 40
0.3125
  1
0.100
 41
0.75
  7
TXT
 72
     1
 11
4.396773
 21
6.988934
 31
0.0
 73
     2
  0
POINT
  8
DEFPOINTS
  6
BYBLOCK
 62
     0
 10
5.992867
 20
6.977645
 30
0.0
  0
POINT
  8
DEFPOINTS
  6
BYBLOCK
 62
     0
 10
5.892867
 20
6.977645
 30
0.0
  0
POINT
  8
DEFPOINTS
  6
BYBLOCK
 62
     0
 10
5.892867
 20
6.988934
 30
0.0
  0
ENDBLK
  8
0
  0
BLOCK
  8
0
  2
*D33
 70
    65
 10
0.0
 20
0.0
 30
0.0
  3
*D
  0
LINE
  8
0
  6
BYBLOCK
 62
     0
 10
18.195891
 20
7.490621
 30
0.0
 11
18.330221
 21
7.490621
 31
0.0
  0
LINE
  8
0
  6
BYBLOCK
 62
     0
 10
18.195891
 20
5.252621
 30
0.0
 11
18.330221
 21
5.252621
 31
0.0
  0
LINE
  8
0
  6
BYBLOCK
 62
     0
 10
18.097721
 20
7.040621
 30
0.0
 11
18.097721
 21
6.752871
 31
0.0
  0
LINE
  8
0
  6
BYBLOCK
 62
     0
 10
18.097721
 20
5.702621
 30
0.0
 11
18.097721
 21
5.990371
 31
0.0
  0
SOLID
  8
0
  6
BYBLOCK
 62
     0
 10
18.022721
 20
7.040621
 30
0.0
 11
18.172721
 21
7.040621
 31
0.0
 12
18.097721
 22
7.490621
 32
0.0
 13
18.097721
 23
7.490621
 33
0.0
  0
SOLID
  8
0
  6
BYBLOCK
 62
     0
 10
18.022721
 20
5.702621
 30
0.0
 11
18.172721
 21
5.702621
 31
0.0
 12
18.097721
 22
5.252621
 32
0.0
 13
18.097721
 23
5.252621
 33
0.0
  0
TEXT
  8
0
  6
BYBLOCK
 62
     0
 10
17.628971
 20
6.215371
 30
0.0
 40
0.3125
  1
2.238
 41
0.75
  7
TXT
 72
     1
 11
18.097721
 21
6.371621
 31
0.0
 73
     2
  0
POINT
  8
DEFPOINTS
  6
BYBLOCK
 62
     0
 10
18.039641
 20
7.490621
 30
0.0
  0
POINT
  8
DEFPOINTS
  6
BYBLOCK
 62
     0
 10
18.039641
 20
5.252621
 30
0.0
  0
POINT
  8
DEFPOINTS
  6
BYBLOCK
 62
     0
 10
18.097721
 20
5.252621
 30
0.0
  0
ENDBLK
  8
0
  0
BLOCK
  8
0
  2
*D34
 70
    65
 10
0.0
 20
0.0
 30
0.0
  3
*D
  0
LINE
  8
0
  6
BYBLOCK
 62
     0
 10
18.195891
 20
7.490621
 30
0.0
 11
18.330221
 21
7.490621
 31
0.0
  0
LINE
  8
0
  6
BYBLOCK
 62
     0
 10
18.195891
 20
8.365621
 30
0.0
 11
18.330221
 21
8.365621
 31
0.0
  0
LINE
  8
0
  6
BYBLOCK
 62
     0
 10
18.097721
 20
7.040621
 30
0.0
 11
18.097721
 21
6.590621
 31
0.0
  0
LINE
  8
0
  6
BYBLOCK
 62
     0
 10
18.097721
 20
8.815621
 30
0.0
 11
18.097721
 21
9.265621
 31
0.0
  0
SOLID
  8
0
  6
BYBLOCK
 62
     0
 10
18.022721
 20
7.040621
 30
0.0
 11
18.172721
 21
7.040621
 31
0.0
 12
18.097721
 22
7.490621
 32
0.0
 13
18.097721
 23
7.490621
 33
0.0
  0
SOLID
  8
0
  6
BYBLOCK
 62
     0
 10
18.022721
 20
8.815621
 30
0.0
 11
18.172721
 21
8.815621
 31
0.0
 12
18.097721
 22
8.365621
 32
0.0
 13
18.097721
 23
8.365621
 33
0.0
  0
TEXT
  8
0
  6
BYBLOCK
 62
     0
 10
17.648502
 20
7.771871
 30
0.0
 40
0.3125
  1
0.875
 41
0.75
  7
TXT
 72
     1
 11
18.097721
 21
7.928121
 31
0.0
 73
     2
  0
POINT
  8
DEFPOINTS
  6
BYBLOCK
 62
     0
 10
18.039641
 20
7.490621
 30
0.0
  0
POINT
  8
DEFPOINTS
  6
BYBLOCK
 62
     0
 10
18.039641
 20
8.365621
 30
0.0
  0
POINT
  8
DEFPOINTS
  6
BYBLOCK
 62
     0
 10
18.097721
 20
8.365621
 30
0.0
  0
ENDBLK
  8
0
  0
BLOCK
  8
0
  2
*D35
 70
    65
 10
0.0
 20
0.0
 30
0.0
  3
*D
  0
LINE
  8
0
  6
BYBLOCK
 62
     0
 10
16.111948
 20
5.252621
 30
0.0
 11
16.035698
 21
5.252621
 31
0.0
  0
LINE
  8
0
  6
BYBLOCK
 62
     0
 10
16.111948
 20
4.752621
 30
0.0
 11
16.035698
 21
4.752621
 31
0.0
  0
LINE
  8
0
  6
BYBLOCK
 62
     0
 10
16.268198
 20
5.702621
 30
0.0
 11
16.268198
 21
6.152621
 31
0.0
  0
LINE
  8
0
  6
BYBLOCK
 62
     0
 10
16.268198
 20
4.302621
 30
0.0
 11
16.268198
 21
3.852621
 31
0.0
  0
SOLID
  8
0
  6
BYBLOCK
 62
     0
 10
16.193198
 20
5.702621
 30
0.0
 11
16.343198
 21
5.702621
 31
0.0
 12
16.268198
 22
5.252621
 32
0.0
 13
16.268198
 23
5.252621
 33
0.0
  0
SOLID
  8
0
  6
BYBLOCK
 62
     0
 10
16.193198
 20
4.302621
 30
0.0
 11
16.343198
 21
4.302621
 31
0.0
 12
16.268198
 22
4.752621
 32
0.0
 13
16.268198
 23
4.752621
 33
0.0
  0
TEXT
  8
0
  6
BYBLOCK
 62
     0
 10
15.858041
 20
4.846371
 30
0.0
 40
0.3125
  1
0.500
 41
0.75
  7
TXT
 72
     1
 11
16.268198
 21
5.002621
 31
0.0
 73
     2
  0
POINT
  8
DEFPOINTS
  6
BYBLOCK
 62
     0
 10
16.268198
 20
5.252621
 30
0.0
  0
POINT
  8
DEFPOINTS
  6
BYBLOCK
 62
     0
 10
16.268198
 20
4.752621
 30
0.0
  0
POINT
  8
DEFPOINTS
  6
BYBLOCK
 62
     0
 10
16.268198
 20
4.752621
 30
0.0
  0
ENDBLK
  8
0
  0
BLOCK
  8
0
  2
*D36
 70
    65
 10
0.0
 20
0.0
 30
0.0
  3
*D
  0
ARC
  8
0
  6
BYBLOCK
 62
     0
 10
19.439231
 20
15.751563
 30
0.0
 40
1.892629
 50
152.689605
 51
166.344803
  0
ARC
  8
0
  6
BYBLOCK
 62
     0
 10
19.439231
 20
15.751563
 30
0.0
 40
1.892629
 50
205.112152
 51
218.767349
  0
SOLID
  8
0
  6
BYBLOCK
 62
     0
 10
17.674567
 20
16.189455
 30
0.0
 11
17.525631
 21
16.207287
 31
0.0
 12
17.546602
 22
15.751563
 32
0.0
 13
17.546602
 23
15.751563
 33
0.0
  0
SOLID
  8
0
  6
BYBLOCK
 62
     0
 10
17.654282
 20
14.924817
 30
0.0
 11
17.796709
 21
14.971877
 31
0.0
 12
17.584314
 22
15.375626
 32
0.0
 13
17.584314
 23
15.375626
 33
0.0
  0
TEXT
  8
0
  6
BYBLOCK
 62
     0
 10
17.713523
 20
16.785371
 30
0.0
 40
0.3125
  1
11%%d
 41
0.75
  7
TXT
 72
     1
 11
17.908836
 21
16.941621
 31
0.0
 73
     2
  0
POINT
  8
DEFPOINTS
  6
BYBLOCK
 62
     0
 10
17.547449
 20
15.694951
 30
0.0
  0
POINT
  8
DEFPOINTS
  6
BYBLOCK
 62
     0
 10
19.449262
 20
15.751563
 30
0.0
  0
POINT
  8
DEFPOINTS
  6
BYBLOCK
 62
     0
 10
14.912664
 20
14.834163
 30
0.0
  0
POINT
  8
DEFPOINTS
  6
BYBLOCK
 62
     0
 10
19.429399
 20
15.74957
 30
0.0
  0
POINT
  8
DEFPOINTS
  6
BYBLOCK
 62
     0
 10
17.290928
 20
15.751563
 30
0.0
  0
ENDBLK
  8
0
  0
BLOCK
  8
0
  2
*D37
 70
    65
 10
0.0
 20
0.0
 30
0.0
  3
*D
  0
LINE
  8
0
  6
BYBLOCK
 62
     0
 10
18.634594
 20
4.752621
 30
0.0
 11
18.726977
 21
4.752621
 31
0.0
  0
LINE
  8
0
  6
BYBLOCK
 62
     0
 10
18.634594
 20
2.752621
 30
0.0
 11
18.726977
 21
2.752621
 31
0.0
  0
LINE
  8
0
  6
BYBLOCK
 62
     0
 10
18.494477
 20
5.202621
 30
0.0
 11
18.494477
 21
5.652621
 31
0.0
  0
LINE
  8
0
  6
BYBLOCK
 62
     0
 10
18.494477
 20
2.302621
 30
0.0
 11
18.494477
 21
1.852621
 31
0.0
  0
SOLID
  8
0
  6
BYBLOCK
 62
     0
 10
18.419477
 20
5.202621
 30
0.0
 11
18.569477
 21
5.202621
 31
0.0
 12
18.494477
 22
4.752621
 32
0.0
 13
18.494477
 23
4.752621
 33
0.0
  0
SOLID
  8
0
  6
BYBLOCK
 62
     0
 10
18.419477
 20
2.302621
 30
0.0
 11
18.569477
 21
2.302621
 31
0.0
 12
18.494477
 22
2.752621
 32
0.0
 13
18.494477
 23
2.752621
 33
0.0
  0
TEXT
  8
0
  6
BYBLOCK
 62
     0
 10
18.084321
 20
3.596371
 30
0.0
 40
0.3125
  1
2.000
 41
0.75
  7
TXT
 72
     1
 11
18.494477
 21
3.752621
 31
0.0
 73
     2
  0
POINT
  8
DEFPOINTS
  6
BYBLOCK
 62
     0
 10
18.478344
 20
4.752621
 30
0.0
  0
POINT
  8
DEFPOINTS
  6
BYBLOCK
 62
     0
 10
18.478344
 20
2.752621
 30
0.0
  0
POINT
  8
DEFPOINTS
  6
BYBLOCK
 62
     0
 10
18.494477
 20
2.752621
 30
0.0
  0
ENDBLK
  8
0
  0
BLOCK
  8
0
  2
*D38
 70
    65
 10
0.0
 20
0.0
 30
0.0
  3
*D
  0
LINE
  8
0
  6
BYBLOCK
 62
     0
 10
20.031986
 20
8.315621
 30
0.0
 11
20.820113
 21
8.315621
 31
0.0
  0
LINE
  8
0
  6
BYBLOCK
 62
     0
 10
20.114306
 20
5.252621
 30
0.0
 11
20.820113
 21
5.252621
 31
0.0
  0
LINE
  8
0
  6
BYBLOCK
 62
     0
 10
20.587613
 20
7.865621
 30
0.0
 11
20.587613
 21
7.165371
 31
0.0
  0
LINE
  8
0
  6
BYBLOCK
 62
     0
 10
20.587613
 20
5.702621
 30
0.0
 11
20.587613
 21
6.402871
 31
0.0
  0
SOLID
  8
0
  6
BYBLOCK
 62
     0
 10
20.512613
 20
7.865621
 30
0.0
 11
20.662613
 21
7.865621
 31
0.0
 12
20.587613
 22
8.315621
 32
0.0
 13
20.587613
 23
8.315621
 33
0.0
  0
SOLID
  8
0
  6
BYBLOCK
 62
     0
 10
20.512613
 20
5.702621
 30
0.0
 11
20.662613
 21
5.702621
 31
0.0
 12
20.587613
 22
5.252621
 32
0.0
 13
20.587613
 23
5.252621
 33
0.0
  0
TEXT
  8
0
  6
BYBLOCK
 62
     0
 10
20.138394
 20
6.627871
 30
0.0
 40
0.3125
  1
3.063
 41
0.75
  7
TXT
 72
     1
 11
20.587613
 21
6.784121
 31
0.0
 73
     2
  0
POINT
  8
DEFPOINTS
  6
BYBLOCK
 62
     0
 10
19.875736
 20
8.315621
 30
0.0
  0
POINT
  8
DEFPOINTS
  6
BYBLOCK
 62
     0
 10
19.958056
 20
5.252621
 30
0.0
  0
POINT
  8
DEFPOINTS
  6
BYBLOCK
 62
     0
 10
20.587613
 20
5.252621
 30
0.0
  0
ENDBLK
  8
0
  0
BLOCK
  8
0
  2
*D39
 70
    65
 10
0.0
 20
0.0
 30
0.0
  3
*D
  0
LINE
  8
0
  6
BYBLOCK
 62
     0
 10
20.031986
 20
2.189621
 30
0.0
 11
20.820113
 21
2.189621
 31
0.0
  0
LINE
  8
0
  6
BYBLOCK
 62
     0
 10
20.114306
 20
5.252621
 30
0.0
 11
20.820113
 21
5.252621
 31
0.0
  0
LINE
  8
0
  6
BYBLOCK
 62
     0
 10
20.587613
 20
2.639621
 30
0.0
 11
20.587613
 21
3.339871
 31
0.0
  0
LINE
  8
0
  6
BYBLOCK
 62
     0
 10
20.587613
 20
4.802621
 30
0.0
 11
20.587613
 21
4.102371
 31
0.0
  0
SOLID
  8
0
  6
BYBLOCK
 62
     0
 10
20.512613
 20
2.639621
 30
0.0
 11
20.662613
 21
2.639621
 31
0.0
 12
20.587613
 22
2.189621
 32
0.0
 13
20.587613
 23
2.189621
 33
0.0
  0
SOLID
  8
0
  6
BYBLOCK
 62
     0
 10
20.512613
 20
4.802621
 30
0.0
 11
20.662613
 21
4.802621
 31
0.0
 12
20.587613
 22
5.252621
 32
0.0
 13
20.587613
 23
5.252621
 33
0.0
  0
TEXT
  8
0
  6
BYBLOCK
 62
     0
 10
20.138394
 20
3.564871
 30
0.0
 40
0.3125
  1
3.063
 41
0.75
  7
TXT
 72
     1
 11
20.587613
 21
3.721121
 31
0.0
 73
     2
  0
POINT
  8
DEFPOINTS
  6
BYBLOCK
 62
     0
 10
19.875736
 20
2.189621
 30
0.0
  0
POINT
  8
DEFPOINTS
  6
BYBLOCK
 62
     0
 10
19.958056
 20
5.252621
 30
0.0
  0
POINT
  8
DEFPOINTS
  6
BYBLOCK
 62
     0
 10
20.587613
 20
5.252621
 30
0.0
  0
ENDBLK
  8
0
  0
BLOCK
  8
0
  2
*D40
 70
    65
 10
0.0
 20
0.0
 30
0.0
  3
*D
  0
LINE
  8
0
  6
BYBLOCK
 62
     0
 10
19.317463
 20
9.012639
 30
0.0
 11
19.317463
 21
9.701873
 31
0.0
  0
LINE
  8
0
  6
BYBLOCK
 62
     0
 10
19.695463
 20
8.798871
 30
0.0
 11
19.695463
 21
9.701873
 31
0.0
  0
LINE
  8
0
  6
BYBLOCK
 62
     0
 10
18.867463
 20
9.469373
 30
0.0
 11
18.417463
 21
9.469373
 31
0.0
  0
LINE
  8
0
  6
BYBLOCK
 62
     0
 10
20.145463
 20
9.469373
 30
0.0
 11
20.595463
 21
9.469373
 31
0.0
  0
SOLID
  8
0
  6
BYBLOCK
 62
     0
 10
18.867463
 20
9.544373
 30
0.0
 11
18.867463
 21
9.394373
 31
0.0
 12
19.317463
 22
9.469373
 32
0.0
 13
19.317463
 23
9.469373
 33
0.0
  0
SOLID
  8
0
  6
BYBLOCK
 62
     0
 10
20.145463
 20
9.544373
 30
0.0
 11
20.145463
 21
9.394373
 31
0.0
 12
19.695463
 22
9.469373
 32
0.0
 13
19.695463
 23
9.469373
 33
0.0
  0
TEXT
  8
0
  6
BYBLOCK
 62
     0
 10
20.820463
 20
9.313123
 30
0.0
 40
0.3125
  1
0.378
 41
0.75
  7
TXT
 72
     1
 11
21.269682
 21
9.469373
 31
0.0
 73
     2
  0
POINT
  8
DEFPOINTS
  6
BYBLOCK
 62
     0
 10
19.317463
 20
8.856389
 30
0.0
  0
POINT
  8
DEFPOINTS
  6
BYBLOCK
 62
     0
 10
19.695463
 20
8.642621
 30
0.0
  0
POINT
  8
DEFPOINTS
  6
BYBLOCK
 62
     0
 10
19.695463
 20
9.469373
 30
0.0
  0
ENDBLK
  8
0
  0
BLOCK
  8
0
  2
*D41
 70
    65
 10
0.0
 20
0.0
 30
0.0
  3
*D
  0
LINE
  8
0
  6
BYBLOCK
 62
     0
 10
14.815463
 20
8.798871
 30
0.0
 11
14.815463
 21
11.877498
 31
0.0
  0
LINE
  8
0
  6
BYBLOCK
 62
     0
 10
19.695463
 20
8.798871
 30
0.0
 11
19.695463
 21
11.877498
 31
0.0
  0
LINE
  8
0
  6
BYBLOCK
 62
     0
 10
15.265463
 20
11.644998
 30
0.0
 11
16.581244
 21
11.644998
 31
0.0
  0
LINE
  8
0
  6
BYBLOCK
 62
     0
 10
19.245463
 20
11.644998
 30
0.0
 11
17.929682
 21
11.644998
 31
0.0
  0
SOLID
  8
0
  6
BYBLOCK
 62
     0
 10
15.265463
 20
11.719998
 30
0.0
 11
15.265463
 21
11.569998
 31
0.0
 12
14.815463
 22
11.644998
 32
0.0
 13
14.815463
 23
11.644998
 33
0.0
  0
SOLID
  8
0
  6
BYBLOCK
 62
     0
 10
19.245463
 20
11.719998
 30
0.0
 11
19.245463
 21
11.569998
 31
0.0
 12
19.695463
 22
11.644998
 32
0.0
 13
19.695463
 23
11.644998
 33
0.0
  0
TEXT
  8
0
  6
BYBLOCK
 62
     0
 10
16.806244
 20
11.488748
 30
0.0
 40
0.3125
  1
4.880
 41
0.75
  7
TXT
 72
     1
 11
17.255463
 21
11.644998
 31
0.0
 73
     2
  0
POINT
  8
DEFPOINTS
  6
BYBLOCK
 62
     0
 10
14.815463
 20
8.642621
 30
0.0
  0
POINT
  8
DEFPOINTS
  6
BYBLOCK
 62
     0
 10
19.695463
 20
8.642621
 30
0.0
  0
POINT
  8
DEFPOINTS
  6
BYBLOCK
 62
     0
 10
19.695463
 20
11.644998
 30
0.0
  0
ENDBLK
  8
0
  0
BLOCK
  8
0
  2
*D42
 70
    65
 10
0.0
 20
0.0
 30
0.0
  3
*D
  0
LINE
  8
0
  6
BYBLOCK
 62
     0
 10
17.255463
 20
9.147592
 30
0.0
 11
17.255463
 21
11.242067
 31
0.0
  0
LINE
  8
0
  6
BYBLOCK
 62
     0
 10
19.317463
 20
9.012639
 30
0.0
 11
19.317463
 21
11.242067
 31
0.0
  0
LINE
  8
0
  6
BYBLOCK
 62
     0
 10
16.805463
 20
11.009567
 30
0.0
 11
16.355463
 21
11.009567
 31
0.0
  0
LINE
  8
0
  6
BYBLOCK
 62
     0
 10
19.767463
 20
11.009567
 30
0.0
 11
20.217463
 21
11.009567
 31
0.0
  0
SOLID
  8
0
  6
BYBLOCK
 62
     0
 10
16.805463
 20
11.084567
 30
0.0
 11
16.805463
 21
10.934567
 31
0.0
 12
17.255463
 22
11.009567
 32
0.0
 13
17.255463
 23
11.009567
 33
0.0
  0
SOLID
  8
0
  6
BYBLOCK
 62
     0
 10
19.767463
 20
11.084567
 30
0.0
 11
19.767463
 21
10.934567
 31
0.0
 12
19.317463
 22
11.009567
 32
0.0
 13
19.317463
 23
11.009567
 33
0.0
  0
TEXT
  8
0
  6
BYBLOCK
 62
     0
 10
17.837244
 20
10.853317
 30
0.0
 40
0.3125
  1
2.062
 41
0.75
  7
TXT
 72
     1
 11
18.286463
 21
11.009567
 31
0.0
 73
     2
  0
POINT
  8
DEFPOINTS
  6
BYBLOCK
 62
     0
 10
17.255463
 20
8.991342
 30
0.0
  0
POINT
  8
DEFPOINTS
  6
BYBLOCK
 62
     0
 10
19.317463
 20
8.856389
 30
0.0
  0
POINT
  8
DEFPOINTS
  6
BYBLOCK
 62
     0
 10
19.317463
 20
11.009567
 30
0.0
  0
ENDBLK
  8
0
  0
BLOCK
  8
0
  2
*D43
 70
    65
 10
0.0
 20
0.0
 30
0.0
  3
*D
  0
LINE
  8
0
  6
BYBLOCK
 62
     0
 10
17.255463
 20
9.147592
 30
0.0
 11
17.255463
 21
10.716305
 31
0.0
  0
LINE
  8
0
  6
BYBLOCK
 62
     0
 10
15.193463
 20
9.012639
 30
0.0
 11
15.193463
 21
10.716305
 31
0.0
  0
LINE
  8
0
  6
BYBLOCK
 62
     0
 10
17.705463
 20
10.483805
 30
0.0
 11
18.155463
 21
10.483805
 31
0.0
  0
LINE
  8
0
  6
BYBLOCK
 62
     0
 10
14.743463
 20
10.483805
 30
0.0
 11
14.293463
 21
10.483805
 31
0.0
  0
SOLID
  8
0
  6
BYBLOCK
 62
     0
 10
17.705463
 20
10.558805
 30
0.0
 11
17.705463
 21
10.408805
 31
0.0
 12
17.255463
 22
10.483805
 32
0.0
 13
17.255463
 23
10.483805
 33
0.0
  0
SOLID
  8
0
  6
BYBLOCK
 62
     0
 10
14.743463
 20
10.558805
 30
0.0
 11
14.743463
 21
10.408805
 31
0.0
 12
15.193463
 22
10.483805
 32
0.0
 13
15.193463
 23
10.483805
 33
0.0
  0
TEXT
  8
0
  6
BYBLOCK
 62
     0
 10
15.775244
 20
10.327555
 30
0.0
 40
0.3125
  1
2.062
 41
0.75
  7
TXT
 72
     1
 11
16.224463
 21
10.483805
 31
0.0
 73
     2
  0
POINT
  8
DEFPOINTS
  6
BYBLOCK
 62
     0
 10
17.255463
 20
8.991342
 30
0.0
  0
POINT
  8
DEFPOINTS
  6
BYBLOCK
 62
     0
 10
15.193463
 20
8.856389
 30
0.0
  0
POINT
  8
DEFPOINTS
  6
BYBLOCK
 62
     0
 10
15.193463
 20
10.483805
 30
0.0
  0
ENDBLK
  8
0
  0
BLOCK
  8
0
  2
*D44
 70
    65
 10
0.0
 20
0.0
 30
0.0
  3
*D
  0
LINE
  8
0
  6
BYBLOCK
 62
     0
 10
17.255463
 20
9.147592
 30
0.0
 11
17.255463
 21
10.259891
 31
0.0
  0
LINE
  8
0
  6
BYBLOCK
 62
     0
 10
18.355463
 20
8.521871
 30
0.0
 11
18.355463
 21
10.259891
 31
0.0
  0
LINE
  8
0
  6
BYBLOCK
 62
     0
 10
16.805463
 20
10.027391
 30
0.0
 11
16.355463
 21
10.027391
 31
0.0
  0
LINE
  8
0
  6
BYBLOCK
 62
     0
 10
18.805463
 20
10.027391
 30
0.0
 11
19.255463
 21
10.027391
 31
0.0
  0
SOLID
  8
0
  6
BYBLOCK
 62
     0
 10
16.805463
 20
10.102391
 30
0.0
 11
16.805463
 21
9.952391
 31
0.0
 12
17.255463
 22
10.027391
 32
0.0
 13
17.255463
 23
10.027391
 33
0.0
  0
SOLID
  8
0
  6
BYBLOCK
 62
     0
 10
18.805463
 20
10.102391
 30
0.0
 11
18.805463
 21
9.952391
 31
0.0
 12
18.355463
 22
10.027391
 32
0.0
 13
18.355463
 23
10.027391
 33
0.0
  0
TEXT
  8
0
  6
BYBLOCK
 62
     0
 10
17.4539
 20
9.871141
 30
0.0
 40
0.3125
  1
1.100
 41
0.75
  7
TXT
 72
     1
 11
17.805463
 21
10.027391
 31
0.0
 73
     2
  0
POINT
  8
DEFPOINTS
  6
BYBLOCK
 62
     0
 10
17.255463
 20
8.991342
 30
0.0
  0
POINT
  8
DEFPOINTS
  6
BYBLOCK
 62
     0
 10
18.355463
 20
8.365621
 30
0.0
  0
POINT
  8
DEFPOINTS
  6
BYBLOCK
 62
     0
 10
18.355463
 20
10.027391
 30
0.0
  0
ENDBLK
  8
0
  0
BLOCK
  8
0
  2
*D45
 70
    65
 10
0.0
 20
0.0
 30
0.0
  3
*D
  0
LINE
  8
0
  6
BYBLOCK
 62
     0
 10
17.255463
 20
9.147592
 30
0.0
 11
17.255463
 21
9.698647
 31
0.0
  0
LINE
  8
0
  6
BYBLOCK
 62
     0
 10
16.155463
 20
8.521871
 30
0.0
 11
16.155463
 21
9.698647
 31
0.0
  0
LINE
  8
0
  6
BYBLOCK
 62
     0
 10
17.705463
 20
9.466147
 30
0.0
 11
18.155463
 21
9.466147
 31
0.0
  0
LINE
  8
0
  6
BYBLOCK
 62
     0
 10
15.705463
 20
9.466147
 30
0.0
 11
15.255463
 21
9.466147
 31
0.0
  0
SOLID
  8
0
  6
BYBLOCK
 62
     0
 10
17.705463
 20
9.541147
 30
0.0
 11
17.705463
 21
9.391147
 31
0.0
 12
17.255463
 22
9.466147
 32
0.0
 13
17.255463
 23
9.466147
 33
0.0
  0
SOLID
  8
0
  6
BYBLOCK
 62
     0
 10
15.705463
 20
9.541147
 30
0.0
 11
15.705463
 21
9.391147
 31
0.0
 12
16.155463
 22
9.466147
 32
0.0
 13
16.155463
 23
9.466147
 33
0.0
  0
TEXT
  8
0
  6
BYBLOCK
 62
     0
 10
16.3539
 20
9.309897
 30
0.0
 40
0.3125
  1
1.100
 41
0.75
  7
TXT
 72
     1
 11
16.705463
 21
9.466147
 31
0.0
 73
     2
  0
POINT
  8
DEFPOINTS
  6
BYBLOCK
 62
     0
 10
17.255463
 20
8.991342
 30
0.0
  0
POINT
  8
DEFPOINTS
  6
BYBLOCK
 62
     0
 10
16.155463
 20
8.365621
 30
0.0
  0
POINT
  8
DEFPOINTS
  6
BYBLOCK
 62
     0
 10
16.155463
 20
9.466147
 30
0.0
  0
ENDBLK
  8
0
  0
BLOCK
  8
0
  2
*D46
 70
    65
 10
0.0
 20
0.0
 30
0.0
  3
*D
  0
LINE
  8
0
  6
BYBLOCK
 62
     0
 10
19.801713
 20
8.692621
 30
0.0
 11
21.686474
 21
8.692621
 31
0.0
  0
LINE
  8
0
  6
BYBLOCK
 62
     0
 10
19.801713
 20
1.812621
 30
0.0
 11
21.686474
 21
1.812621
 31
0.0
  0
LINE
  8
0
  6
BYBLOCK
 62
     0
 10
21.453974
 20
8.242621
 30
0.0
 11
21.453974
 21
5.633871
 31
0.0
  0
LINE
  8
0
  6
BYBLOCK
 62
     0
 10
21.453974
 20
2.262621
 30
0.0
 11
21.453974
 21
4.871371
 31
0.0
  0
SOLID
  8
0
  6
BYBLOCK
 62
     0
 10
21.378974
 20
8.242621
 30
0.0
 11
21.528974
 21
8.242621
 31
0.0
 12
21.453974
 22
8.692621
 32
0.0
 13
21.453974
 23
8.692621
 33
0.0
  0
SOLID
  8
0
  6
BYBLOCK
 62
     0
 10
21.378974
 20
2.262621
 30
0.0
 11
21.528974
 21
2.262621
 31
0.0
 12
21.453974
 22
1.812621
 32
0.0
 13
21.453974
 23
1.812621
 33
0.0
  0
TEXT
  8
0
  6
BYBLOCK
 62
     0
 10
21.004756
 20
5.096371
 30
0.0
 40
0.3125
  1
6.880
 41
0.75
  7
TXT
 72
     1
 11
21.453974
 21
5.252621
 31
0.0
 73
     2
  0
POINT
  8
DEFPOINTS
  6
BYBLOCK
 62
     0
 10
19.645463
 20
8.692621
 30
0.0
  0
POINT
  8
DEFPOINTS
  6
BYBLOCK
 62
     0
 10
19.645463
 20
1.812621
 30
0.0
  0
POINT
  8
DEFPOINTS
  6
BYBLOCK
 62
     0
 10
21.453974
 20
1.812621
 30
0.0
  0
ENDBLK
  8
0
  0
BLOCK
  8
0
  2
*D47
 70
    65
 10
0.0
 20
0.0
 30
0.0
  3
*D
  0
LINE
  8
0
  6
BYBLOCK
 62
     0
 10
17.255463
 20
1.357649
 30
0.0
 11
17.255463
 21
0.316648
 31
0.0
  0
LINE
  8
0
  6
BYBLOCK
 62
     0
 10
19.255463
 20
2.596371
 30
0.0
 11
19.255463
 21
0.316648
 31
0.0
  0
LINE
  8
0
  6
BYBLOCK
 62
     0
 10
16.805463
 20
0.549148
 30
0.0
 11
16.355463
 21
0.549148
 31
0.0
  0
LINE
  8
0
  6
BYBLOCK
 62
     0
 10
19.705463
 20
0.549148
 30
0.0
 11
20.155463
 21
0.549148
 31
0.0
  0
SOLID
  8
0
  6
BYBLOCK
 62
     0
 10
16.805463
 20
0.624148
 30
0.0
 11
16.805463
 21
0.474148
 31
0.0
 12
17.255463
 22
0.549148
 32
0.0
 13
17.255463
 23
0.549148
 33
0.0
  0
SOLID
  8
0
  6
BYBLOCK
 62
     0
 10
19.705463
 20
0.624148
 30
0.0
 11
19.705463
 21
0.474148
 31
0.0
 12
19.255463
 22
0.549148
 32
0.0
 13
19.255463
 23
0.549148
 33
0.0
  0
TEXT
  8
0
  6
BYBLOCK
 62
     0
 10
17.845307
 20
0.392898
 30
0.0
 40
0.3125
  1
2.000
 41
0.75
  7
TXT
 72
     1
 11
18.255463
 21
0.549148
 31
0.0
 73
     2
  0
POINT
  8
DEFPOINTS
  6
BYBLOCK
 62
     0
 10
17.255463
 20
1.513899
 30
0.0
  0
POINT
  8
DEFPOINTS
  6
BYBLOCK
 62
     0
 10
19.255463
 20
2.752621
 30
0.0
  0
POINT
  8
DEFPOINTS
  6
BYBLOCK
 62
     0
 10
19.255463
 20
0.549148
 30
0.0
  0
ENDBLK
  8
0
  0
BLOCK
  8
0
  2
*D48
 70
    65
 10
0.0
 20
0.0
 30
0.0
  3
*D
  0
LINE
  8
0
  6
BYBLOCK
 62
     0
 10
17.255463
 20
1.357649
 30
0.0
 11
17.255463
 21
0.816606
 31
0.0
  0
LINE
  8
0
  6
BYBLOCK
 62
     0
 10
15.255463
 20
2.596371
 30
0.0
 11
15.255463
 21
0.816606
 31
0.0
  0
LINE
  8
0
  6
BYBLOCK
 62
     0
 10
17.705463
 20
1.049106
 30
0.0
 11
18.155463
 21
1.049106
 31
0.0
  0
LINE
  8
0
  6
BYBLOCK
 62
     0
 10
14.805463
 20
1.049106
 30
0.0
 11
14.355463
 21
1.049106
 31
0.0
  0
SOLID
  8
0
  6
BYBLOCK
 62
     0
 10
17.705463
 20
1.124106
 30
0.0
 11
17.705463
 21
0.974106
 31
0.0
 12
17.255463
 22
1.049106
 32
0.0
 13
17.255463
 23
1.049106
 33
0.0
  0
SOLID
  8
0
  6
BYBLOCK
 62
     0
 10
14.805463
 20
1.124106
 30
0.0
 11
14.805463
 21
0.974106
 31
0.0
 12
15.255463
 22
1.049106
 32
0.0
 13
15.255463
 23
1.049106
 33
0.0
  0
TEXT
  8
0
  6
BYBLOCK
 62
     0
 10
15.845307
 20
0.892856
 30
0.0
 40
0.3125
  1
2.000
 41
0.75
  7
TXT
 72
     1
 11
16.255463
 21
1.049106
 31
0.0
 73
     2
  0
POINT
  8
DEFPOINTS
  6
BYBLOCK
 62
     0
 10
17.255463
 20
1.513899
 30
0.0
  0
POINT
  8
DEFPOINTS
  6
BYBLOCK
 62
     0
 10
15.255463
 20
2.752621
 30
0.0
  0
POINT
  8
DEFPOINTS
  6
BYBLOCK
 62
     0
 10
15.255463
 20
1.049106
 30
0.0
  0
ENDBLK
  8
0
  0
BLOCK
  8
0
  2
*D49
 70
    65
 10
0.0
 20
0.0
 30
0.0
  3
*D
  0
LINE
  8
0
  6
BYBLOCK
 62
     0
 10
14.39662
 20
5.252621
 30
0.0
 11
13.622662
 21
5.252621
 31
0.0
  0
LINE
  8
0
  6
BYBLOCK
 62
     0
 10
14.517433
 20
5.877621
 30
0.0
 11
13.622662
 21
5.877621
 31
0.0
  0
LINE
  8
0
  6
BYBLOCK
 62
     0
 10
13.855162
 20
4.802621
 30
0.0
 11
13.855162
 21
4.352621
 31
0.0
  0
LINE
  8
0
  6
BYBLOCK
 62
     0
 10
13.855162
 20
6.327621
 30
0.0
 11
13.855162
 21
6.777621
 31
0.0
  0
SOLID
  8
0
  6
BYBLOCK
 62
     0
 10
13.780162
 20
4.802621
 30
0.0
 11
13.930162
 21
4.802621
 31
0.0
 12
13.855162
 22
5.252621
 32
0.0
 13
13.855162
 23
5.252621
 33
0.0
  0
SOLID
  8
0
  6
BYBLOCK
 62
     0
 10
13.780162
 20
6.327621
 30
0.0
 11
13.930162
 21
6.327621
 31
0.0
 12
13.855162
 22
5.877621
 32
0.0
 13
13.855162
 23
5.877621
 33
0.0
  0
TEXT
  8
0
  6
BYBLOCK
 62
     0
 10
13.405943
 20
5.408871
 30
0.0
 40
0.3125
  1
0.625
 41
0.75
  7
TXT
 72
     1
 11
13.855162
 21
5.565121
 31
0.0
 73
     2
  0
POINT
  8
DEFPOINTS
  6
BYBLOCK
 62
     0
 10
14.55287
 20
5.252621
 30
0.0
  0
POINT
  8
DEFPOINTS
  6
BYBLOCK
 62
     0
 10
14.673683
 20
5.877621
 30
0.0
  0
POINT
  8
DEFPOINTS
  6
BYBLOCK
 62
     0
 10
13.855162
 20
5.877621
 30
0.0
  0
ENDBLK
  8
0
  0
BLOCK
  8
0
  2
*D50
 70
    65
 10
0.0
 20
0.0
 30
0.0
  3
*D
  0
LINE
  8
0
  6
BYBLOCK
 62
     0
 10
14.39662
 20
5.252621
 30
0.0
 11
12.793407
 21
5.252621
 31
0.0
  0
LINE
  8
0
  6
BYBLOCK
 62
     0
 10
14.517433
 20
4.627621
 30
0.0
 11
12.793407
 21
4.627621
 31
0.0
  0
LINE
  8
0
  6
BYBLOCK
 62
     0
 10
13.025907
 20
5.702621
 30
0.0
 11
13.025907
 21
6.152621
 31
0.0
  0
LINE
  8
0
  6
BYBLOCK
 62
     0
 10
13.025907
 20
4.177621
 30
0.0
 11
13.025907
 21
3.727621
 31
0.0
  0
SOLID
  8
0
  6
BYBLOCK
 62
     0
 10
12.950907
 20
5.702621
 30
0.0
 11
13.100907
 21
5.702621
 31
0.0
 12
13.025907
 22
5.252621
 32
0.0
 13
13.025907
 23
5.252621
 33
0.0
  0
SOLID
  8
0
  6
BYBLOCK
 62
     0
 10
12.950907
 20
4.177621
 30
0.0
 11
13.100907
 21
4.177621
 31
0.0
 12
13.025907
 22
4.627621
 32
0.0
 13
13.025907
 23
4.627621
 33
0.0
  0
TEXT
  8
0
  6
BYBLOCK
 62
     0
 10
12.576689
 20
4.783871
 30
0.0
 40
0.3125
  1
0.625
 41
0.75
  7
TXT
 72
     1
 11
13.025907
 21
4.940121
 31
0.0
 73
     2
  0
POINT
  8
DEFPOINTS
  6
BYBLOCK
 62
     0
 10
14.55287
 20
5.252621
 30
0.0
  0
POINT
  8
DEFPOINTS
  6
BYBLOCK
 62
     0
 10
14.673683
 20
4.627621
 30
0.0
  0
POINT
  8
DEFPOINTS
  6
BYBLOCK
 62
     0
 10
13.025907
 20
4.627621
 30
0.0
  0
ENDBLK
  8
0
  0
BLOCK
  8
0
  2
*D51
 70
    65
 10
0.0
 20
0.0
 30
0.0
  3
*D
  0
LINE
  8
0
  6
BYBLOCK
 62
     0
 10
14.39662
 20
5.252621
 30
0.0
 11
11.938339
 21
5.252621
 31
0.0
  0
LINE
  8
0
  6
BYBLOCK
 62
     0
 10
14.515433
 20
7.502621
 30
0.0
 11
11.938339
 21
7.502621
 31
0.0
  0
LINE
  8
0
  6
BYBLOCK
 62
     0
 10
12.170839
 20
5.702621
 30
0.0
 11
12.170839
 21
5.996371
 31
0.0
  0
LINE
  8
0
  6
BYBLOCK
 62
     0
 10
12.170839
 20
7.052621
 30
0.0
 11
12.170839
 21
6.758871
 31
0.0
  0
SOLID
  8
0
  6
BYBLOCK
 62
     0
 10
12.095839
 20
5.702621
 30
0.0
 11
12.245839
 21
5.702621
 31
0.0
 12
12.170839
 22
5.252621
 32
0.0
 13
12.170839
 23
5.252621
 33
0.0
  0
SOLID
  8
0
  6
BYBLOCK
 62
     0
 10
12.095839
 20
7.052621
 30
0.0
 11
12.245839
 21
7.052621
 31
0.0
 12
12.170839
 22
7.502621
 32
0.0
 13
12.170839
 23
7.502621
 33
0.0
  0
TEXT
  8
0
  6
BYBLOCK
 62
     0
 10
11.72162
 20
6.221371
 30
0.0
 40
0.3125
  1
2.250
 41
0.75
  7
TXT
 72
     1
 11
12.170839
 21
6.377621
 31
0.0
 73
     2
  0
POINT
  8
DEFPOINTS
  6
BYBLOCK
 62
     0
 10
14.55287
 20
5.252621
 30
0.0
  0
POINT
  8
DEFPOINTS
  6
BYBLOCK
 62
     0
 10
14.671683
 20
7.502621
 30
0.0
  0
POINT
  8
DEFPOINTS
  6
BYBLOCK
 62
     0
 10
12.170839
 20
7.502621
 30
0.0
  0
ENDBLK
  8
0
  0
BLOCK
  8
0
  2
*D52
 70
    65
 10
0.0
 20
0.0
 30
0.0
  3
*D
  0
LINE
  8
0
  6
BYBLOCK
 62
     0
 10
14.39662
 20
5.252621
 30
0.0
 11
11.938339
 21
5.252621
 31
0.0
  0
LINE
  8
0
  6
BYBLOCK
 62
     0
 10
14.515433
 20
3.002621
 30
0.0
 11
11.938339
 21
3.002621
 31
0.0
  0
LINE
  8
0
  6
BYBLOCK
 62
     0
 10
12.170839
 20
4.802621
 30
0.0
 11
12.170839
 21
4.508871
 31
0.0
  0
LINE
  8
0
  6
BYBLOCK
 62
     0
 10
12.170839
 20
3.452621
 30
0.0
 11
12.170839
 21
3.746371
 31
0.0
  0
SOLID
  8
0
  6
BYBLOCK
 62
     0
 10
12.095839
 20
4.802621
 30
0.0
 11
12.245839
 21
4.802621
 31
0.0
 12
12.170839
 22
5.252621
 32
0.0
 13
12.170839
 23
5.252621
 33
0.0
  0
SOLID
  8
0
  6
BYBLOCK
 62
     0
 10
12.095839
 20
3.452621
 30
0.0
 11
12.245839
 21
3.452621
 31
0.0
 12
12.170839
 22
3.002621
 32
0.0
 13
12.170839
 23
3.002621
 33
0.0
  0
TEXT
  8
0
  6
BYBLOCK
 62
     0
 10
11.72162
 20
3.971371
 30
0.0
 40
0.3125
  1
2.250
 41
0.75
  7
TXT
 72
     1
 11
12.170839
 21
4.127621
 31
0.0
 73
     2
  0
POINT
  8
DEFPOINTS
  6
BYBLOCK
 62
     0
 10
14.55287
 20
5.252621
 30
0.0
  0
POINT
  8
DEFPOINTS
  6
BYBLOCK
 62
     0
 10
14.671683
 20
3.002621
 30
0.0
  0
POINT
  8
DEFPOINTS
  6
BYBLOCK
 62
     0
 10
12.170839
 20
3.002621
 30
0.0
  0
ENDBLK
  8
0
  0
BLOCK
  8
0
  2
*D53
 70
    65
 10
0.0
 20
0.0
 30
0.0
  3
*D
  0
LINE
  8
0
  6
BYBLOCK
 62
     0
 10
4.229761
 20
2.499911
 30
0.0
 11
1.713613
 21
2.499911
 31
0.0
  0
LINE
  8
0
  6
BYBLOCK
 62
     0
 10
4.229761
 20
8.839911
 30
0.0
 11
1.713613
 21
8.839911
 31
0.0
  0
LINE
  8
0
  6
BYBLOCK
 62
     0
 10
1.946113
 20
2.949911
 30
0.0
 11
1.946113
 21
5.288661
 31
0.0
  0
LINE
  8
0
  6
BYBLOCK
 62
     0
 10
1.946113
 20
8.389911
 30
0.0
 11
1.946113
 21
6.051161
 31
0.0
  0
SOLID
  8
0
  6
BYBLOCK
 62
     0
 10
1.871113
 20
2.949911
 30
0.0
 11
2.021113
 21
2.949911
 31
0.0
 12
1.946113
 22
2.499911
 32
0.0
 13
1.946113
 23
2.499911
 33
0.0
  0
SOLID
  8
0
  6
BYBLOCK
 62
     0
 10
1.871113
 20
8.389911
 30
0.0
 11
2.021113
 21
8.389911
 31
0.0
 12
1.946113
 22
8.839911
 32
0.0
 13
1.946113
 23
8.839911
 33
0.0
  0
TEXT
  8
0
  6
BYBLOCK
 62
     0
 10
1.496894
 20
5.513661
 30
0.0
 40
0.3125
  1
6.340
 41
0.75
  7
TXT
 72
     1
 11
1.946113
 21
5.669911
 31
0.0
 73
     2
  0
POINT
  8
DEFPOINTS
  6
BYBLOCK
 62
     0
 10
4.386011
 20
2.499911
 30
0.0
  0
POINT
  8
DEFPOINTS
  6
BYBLOCK
 62
     0
 10
4.386011
 20
8.839911
 30
0.0
  0
POINT
  8
DEFPOINTS
  6
BYBLOCK
 62
     0
 10
1.946113
 20
8.839911
 30
0.0
  0
ENDBLK
  8
0
  0
BLOCK
  8
0
  2
*D56
 70
    65
 10
0.0
 20
0.0
 30
0.0
  3
*D
  0
LINE
  8
0
  6
BYBLOCK
 62
     0
 10
11.130052
 20
25.228312
 30
0.0
 11
10.398166
 21
25.228312
 31
0.0
  0
LINE
  8
0
  6
BYBLOCK
 62
     0
 10
11.211271
 20
27.978312
 30
0.0
 11
10.398166
 21
27.978312
 31
0.0
  0
LINE
  8
0
  6
BYBLOCK
 62
     0
 10
10.630666
 20
25.678312
 30
0.0
 11
10.630666
 21
26.222062
 31
0.0
  0
LINE
  8
0
  6
BYBLOCK
 62
     0
 10
10.630666
 20
27.528312
 30
0.0
 11
10.630666
 21
26.984562
 31
0.0
  0
SOLID
  8
0
  6
BYBLOCK
 62
     0
 10
10.555666
 20
25.678312
 30
0.0
 11
10.705666
 21
25.678312
 31
0.0
 12
10.630666
 22
25.228312
 32
0.0
 13
10.630666
 23
25.228312
 33
0.0
  0
SOLID
  8
0
  6
BYBLOCK
 62
     0
 10
10.555666
 20
27.528312
 30
0.0
 11
10.705666
 21
27.528312
 31
0.0
 12
10.630666
 22
27.978312
 32
0.0
 13
10.630666
 23
27.978312
 33
0.0
  0
TEXT
  8
0
  6
BYBLOCK
 62
     0
 10
10.181448
 20
26.447062
 30
0.0
 40
0.3125
  1
2.750
 41
0.75
  7
TXT
 72
     1
 11
10.630666
 21
26.603312
 31
0.0
 73
     2
  0
POINT
  8
DEFPOINTS
  6
BYBLOCK
 62
     0
 10
11.286302
 20
25.228312
 30
0.0
  0
POINT
  8
DEFPOINTS
  6
BYBLOCK
 62
     0
 10
11.367521
 20
27.978312
 30
0.0
  0
POINT
  8
DEFPOINTS
  6
BYBLOCK
 62
     0
 10
10.630666
 20
27.978312
 30
0.0
  0
ENDBLK
  8
0
  0
BLOCK
  8
0
  2
*D57
 70
    65
 10
0.0
 20
0.0
 30
0.0
  3
*D
  0
LINE
  8
0
  6
BYBLOCK
 62
     0
 10
11.130052
 20
25.228312
 30
0.0
 11
10.398166
 21
25.228312
 31
0.0
  0
LINE
  8
0
  6
BYBLOCK
 62
     0
 10
11.211271
 20
22.478312
 30
0.0
 11
10.398166
 21
22.478312
 31
0.0
  0
LINE
  8
0
  6
BYBLOCK
 62
     0
 10
10.630666
 20
24.778312
 30
0.0
 11
10.630666
 21
24.234562
 31
0.0
  0
LINE
  8
0
  6
BYBLOCK
 62
     0
 10
10.630666
 20
22.928312
 30
0.0
 11
10.630666
 21
23.472062
 31
0.0
  0
SOLID
  8
0
  6
BYBLOCK
 62
     0
 10
10.555666
 20
24.778312
 30
0.0
 11
10.705666
 21
24.778312
 31
0.0
 12
10.630666
 22
25.228312
 32
0.0
 13
10.630666
 23
25.228312
 33
0.0
  0
SOLID
  8
0
  6
BYBLOCK
 62
     0
 10
10.555666
 20
22.928312
 30
0.0
 11
10.705666
 21
22.928312
 31
0.0
 12
10.630666
 22
22.478312
 32
0.0
 13
10.630666
 23
22.478312
 33
0.0
  0
TEXT
  8
0
  6
BYBLOCK
 62
     0
 10
10.181448
 20
23.697062
 30
0.0
 40
0.3125
  1
2.750
 41
0.75
  7
TXT
 72
     1
 11
10.630666
 21
23.853312
 31
0.0
 73
     2
  0
POINT
  8
DEFPOINTS
  6
BYBLOCK
 62
     0
 10
11.286302
 20
25.228312
 30
0.0
  0
POINT
  8
DEFPOINTS
  6
BYBLOCK
 62
     0
 10
11.367521
 20
22.478312
 30
0.0
  0
POINT
  8
DEFPOINTS
  6
BYBLOCK
 62
     0
 10
10.630666
 20
22.478312
 30
0.0
  0
ENDBLK
  8
0
  0
BLOCK
  8
0
  2
*D58
 70
    65
 10
0.0
 20
0.0
 30
0.0
  3
*D
  0
LINE
  8
0
  6
BYBLOCK
 62
     0
 10
11.211271
 20
22.478312
 30
0.0
 11
10.398166
 21
22.478312
 31
0.0
  0
LINE
  8
0
  6
BYBLOCK
 62
     0
 10
11.444646
 20
22.058312
 30
0.0
 11
10.398166
 21
22.058312
 31
0.0
  0
LINE
  8
0
  6
BYBLOCK
 62
     0
 10
10.630666
 20
22.928312
 30
0.0
 11
10.630666
 21
23.378312
 31
0.0
  0
LINE
  8
0
  6
BYBLOCK
 62
     0
 10
10.630666
 20
21.608312
 30
0.0
 11
10.630666
 21
21.158312
 31
0.0
  0
LINE
  8
0
  6
BYBLOCK
 62
     0
 10
10.630666
 20
21.158312
 30
0.0
 11
10.180666
 21
21.158312
 31
0.0
  0
SOLID
  8
0
  6
BYBLOCK
 62
     0
 10
10.555666
 20
22.928312
 30
0.0
 11
10.705666
 21
22.928312
 31
0.0
 12
10.630666
 22
22.478312
 32
0.0
 13
10.630666
 23
22.478312
 33
0.0
  0
SOLID
  8
0
  6
BYBLOCK
 62
     0
 10
10.555666
 20
21.608312
 30
0.0
 11
10.705666
 21
21.608312
 31
0.0
 12
10.630666
 22
22.058312
 32
0.0
 13
10.630666
 23
22.058312
 33
0.0
  0
TEXT
  8
0
  6
BYBLOCK
 62
     0
 10
9.096291
 20
21.002062
 30
0.0
 40
0.3125
  1
0.420
 41
0.75
  7
TXT
 72
     1
 11
9.525979
 21
21.158312
 31
0.0
 73
     2
  0
POINT
  8
DEFPOINTS
  6
BYBLOCK
 62
     0
 10
11.367521
 20
22.478312
 30
0.0
  0
POINT
  8
DEFPOINTS
  6
BYBLOCK
 62
     0
 10
11.600896
 20
22.058312
 30
0.0
  0
POINT
  8
DEFPOINTS
  6
BYBLOCK
 62
     0
 10
10.630666
 20
22.058312
 30
0.0
  0
ENDBLK
  8
0
  0
BLOCK
  8
0
  2
*D60
 70
    65
 10
0.0
 20
0.0
 30
0.0
  3
*D
  0
LINE
  8
0
  6
BYBLOCK
 62
     0
 10
11.703771
 20
33.121255
 30
0.0
 11
11.703771
 21
31.63123
 31
0.0
  0
LINE
  8
0
  6
BYBLOCK
 62
     0
 10
20.89802
 20
33.121255
 30
0.0
 11
20.89802
 21
31.63123
 31
0.0
  0
LINE
  8
0
  6
BYBLOCK
 62
     0
 10
12.153771
 20
31.86373
 30
0.0
 11
15.646208
 21
31.86373
 31
0.0
  0
LINE
  8
0
  6
BYBLOCK
 62
     0
 10
20.44802
 20
31.86373
 30
0.0
 11
16.955583
 21
31.86373
 31
0.0
  0
SOLID
  8
0
  6
BYBLOCK
 62
     0
 10
12.153771
 20
31.93873
 30
0.0
 11
12.153771
 21
31.78873
 31
0.0
 12
11.703771
 22
31.86373
 32
0.0
 13
11.703771
 23
31.86373
 33
0.0
  0
SOLID
  8
0
  6
BYBLOCK
 62
     0
 10
20.44802
 20
31.93873
 30
0.0
 11
20.44802
 21
31.78873
 31
0.0
 12
20.89802
 22
31.86373
 32
0.0
 13
20.89802
 23
31.86373
 33
0.0
  0
TEXT
  8
0
  6
BYBLOCK
 62
     0
 10
15.871208
 20
31.70748
 30
0.0
 40
0.3125
  1
9.194
 41
0.75
  7
TXT
 72
     1
 11
16.300896
 21
31.86373
 31
0.0
 73
     2
  0
POINT
  8
DEFPOINTS
  6
BYBLOCK
 62
     0
 10
11.703771
 20
33.277505
 30
0.0
  0
POINT
  8
DEFPOINTS
  6
BYBLOCK
 62
     0
 10
20.89802
 20
33.277505
 30
0.0
  0
POINT
  8
DEFPOINTS
  6
BYBLOCK
 62
     0
 10
20.89802
 20
31.86373
 30
0.0
  0
ENDBLK
  8
0
  0
BLOCK
  8
0
  2
*D61
 70
    65
 10
0.0
 20
0.0
 30
0.0
  3
*D
  0
LINE
  8
0
  6
BYBLOCK
 62
     0
 10
11.547521
 20
33.277505
 30
0.0
 11
10.398166
 21
33.277505
 31
0.0
  0
LINE
  8
0
  6
BYBLOCK
 62
     0
 10
11.554776
 20
34.577505
 30
0.0
 11
10.398166
 21
34.577505
 31
0.0
  0
LINE
  8
0
  6
BYBLOCK
 62
     0
 10
10.630666
 20
32.827505
 30
0.0
 11
10.630666
 21
32.377505
 31
0.0
  0
LINE
  8
0
  6
BYBLOCK
 62
     0
 10
10.630666
 20
35.027505
 30
0.0
 11
10.630666
 21
35.477505
 31
0.0
  0
SOLID
  8
0
  6
BYBLOCK
 62
     0
 10
10.555666
 20
32.827505
 30
0.0
 11
10.705666
 21
32.827505
 31
0.0
 12
10.630666
 22
33.277505
 32
0.0
 13
10.630666
 23
33.277505
 33
0.0
  0
SOLID
  8
0
  6
BYBLOCK
 62
     0
 10
10.555666
 20
35.027505
 30
0.0
 11
10.705666
 21
35.027505
 31
0.0
 12
10.630666
 22
34.577505
 32
0.0
 13
10.630666
 23
34.577505
 33
0.0
  0
TEXT
  8
0
  6
BYBLOCK
 62
     0
 10
10.240041
 20
33.771255
 30
0.0
 40
0.3125
  1
1.300
 41
0.75
  7
TXT
 72
     1
 11
10.630666
 21
33.927505
 31
0.0
 73
     2
  0
POINT
  8
DEFPOINTS
  6
BYBLOCK
 62
     0
 10
11.703771
 20
33.277505
 30
0.0
  0
POINT
  8
DEFPOINTS
  6
BYBLOCK
 62
     0
 10
11.711026
 20
34.577505
 30
0.0
  0
POINT
  8
DEFPOINTS
  6
BYBLOCK
 62
     0
 10
10.630666
 20
34.577505
 30
0.0
  0
ENDBLK
  8
0
  0
BLOCK
  8
0
  2
*D62
 70
    65
 10
0.0
 20
0.0
 30
0.0
  3
*D
  0
LINE
  8
0
  6
BYBLOCK
 62
     0
 10
6.384052
 20
28.182936
 30
0.0
 11
8.411176
 21
28.182936
 31
0.0
  0
LINE
  8
0
  6
BYBLOCK
 62
     0
 10
6.384052
 20
22.148687
 30
0.0
 11
8.411176
 21
22.148687
 31
0.0
  0
LINE
  8
0
  6
BYBLOCK
 62
     0
 10
8.178676
 20
27.732936
 30
0.0
 11
8.178676
 21
25.547062
 31
0.0
  0
LINE
  8
0
  6
BYBLOCK
 62
     0
 10
8.178676
 20
22.598687
 30
0.0
 11
8.178676
 21
24.784562
 31
0.0
  0
SOLID
  8
0
  6
BYBLOCK
 62
     0
 10
8.103676
 20
27.732936
 30
0.0
 11
8.253676
 21
27.732936
 31
0.0
 12
8.178676
 22
28.182936
 32
0.0
 13
8.178676
 23
28.182936
 33
0.0
  0
SOLID
  8
0
  6
BYBLOCK
 62
     0
 10
8.103676
 20
22.598687
 30
0.0
 11
8.253676
 21
22.598687
 31
0.0
 12
8.178676
 22
22.148687
 32
0.0
 13
8.178676
 23
22.148687
 33
0.0
  0
TEXT
  8
0
  6
BYBLOCK
 62
     0
 10
7.729457
 20
25.009562
 30
0.0
 40
0.3125
  1
6.034
 41
0.75
  7
TXT
 72
     1
 11
8.178676
 21
25.165812
 31
0.0
 73
     2
  0
POINT
  8
DEFPOINTS
  6
BYBLOCK
 62
     0
 10
6.227802
 20
28.182936
 30
0.0
  0
POINT
  8
DEFPOINTS
  6
BYBLOCK
 62
     0
 10
6.227802
 20
22.148687
 30
0.0
  0
POINT
  8
DEFPOINTS
  6
BYBLOCK
 62
     0
 10
8.178676
 20
22.148687
 30
0.0
  0
ENDBLK
  8
0
  0
BLOCK
  8
0
  2
*D66
 70
    65
 10
0.0
 20
0.0
 30
0.0
  3
*D
  0
LINE
  8
0
  6
BYBLOCK
 62
     0
 10
5.547025
 20
2.132538
 30
0.0
 11
8.520316
 21
2.132538
 31
0.0
  0
LINE
  8
0
  6
BYBLOCK
 62
     0
 10
5.547025
 20
8.611155
 30
0.0
 11
8.520316
 21
8.611155
 31
0.0
  0
LINE
  8
0
  6
BYBLOCK
 62
     0
 10
8.287816
 20
2.582538
 30
0.0
 11
8.287816
 21
4.990596
 31
0.0
  0
LINE
  8
0
  6
BYBLOCK
 62
     0
 10
8.287816
 20
8.161155
 30
0.0
 11
8.287816
 21
5.753096
 31
0.0
  0
SOLID
  8
0
  6
BYBLOCK
 62
     0
 10
8.212816
 20
2.582538
 30
0.0
 11
8.362816
 21
2.582538
 31
0.0
 12
8.287816
 22
2.132538
 32
0.0
 13
8.287816
 23
2.132538
 33
0.0
  0
SOLID
  8
0
  6
BYBLOCK
 62
     0
 10
8.212816
 20
8.161155
 30
0.0
 11
8.362816
 21
8.161155
 31
0.0
 12
8.287816
 22
8.611155
 32
0.0
 13
8.287816
 23
8.611155
 33
0.0
  0
TEXT
  8
0
  6
BYBLOCK
 62
     0
 10
7.819066
 20
5.215596
 30
0.0
 40
0.3125
  1
6.479
 41
0.75
  7
TXT
 72
     1
 11
8.287816
 21
5.371846
 31
0.0
 73
     2
  0
POINT
  8
DEFPOINTS
  6
BYBLOCK
 62
     0
 10
5.390775
 20
2.132538
 30
0.0
  0
POINT
  8
DEFPOINTS
  6
BYBLOCK
 62
     0
 10
5.390775
 20
8.611155
 30
0.0
  0
POINT
  8
DEFPOINTS
  6
BYBLOCK
 62
     0
 10
8.287816
 20
8.611155
 30
0.0
  0
ENDBLK
  8
0
  0
BLOCK
  8
0
  2
*D67
 70
    65
 10
0.0
 20
0.0
 30
0.0
  3
*D
  0
LINE
  8
0
  6
BYBLOCK
 62
     0
 10
16.797621
 20
13.491053
 30
0.0
 11
15.607113
 21
13.491053
 31
0.0
  0
LINE
  8
0
  6
BYBLOCK
 62
     0
 10
16.719136
 20
14.830551
 30
0.0
 11
15.607113
 21
14.830551
 31
0.0
  0
LINE
  8
0
  6
BYBLOCK
 62
     0
 10
15.839613
 20
13.041053
 30
0.0
 11
15.839613
 21
12.591053
 31
0.0
  0
LINE
  8
0
  6
BYBLOCK
 62
     0
 10
15.839613
 20
15.280551
 30
0.0
 11
15.839613
 21
15.730551
 31
0.0
  0
SOLID
  8
0
  6
BYBLOCK
 62
     0
 10
15.764613
 20
13.041053
 30
0.0
 11
15.914613
 21
13.041053
 31
0.0
 12
15.839613
 22
13.491053
 32
0.0
 13
15.839613
 23
13.491053
 33
0.0
  0
SOLID
  8
0
  6
BYBLOCK
 62
     0
 10
15.764613
 20
15.280551
 30
0.0
 11
15.914613
 21
15.280551
 31
0.0
 12
15.839613
 22
14.830551
 32
0.0
 13
15.839613
 23
14.830551
 33
0.0
  0
TEXT
  8
0
  6
BYBLOCK
 62
     0
 10
15.409925
 20
14.004552
 30
0.0
 40
0.3125
  1
1.339
 41
0.75
  7
TXT
 72
     1
 11
15.839613
 21
14.160802
 31
0.0
 73
     2
  0
POINT
  8
DEFPOINTS
  6
BYBLOCK
 62
     0
 10
16.953871
 20
13.491053
 30
0.0
  0
POINT
  8
DEFPOINTS
  6
BYBLOCK
 62
     0
 10
16.875386
 20
14.830551
 30
0.0
  0
POINT
  8
DEFPOINTS
  6
BYBLOCK
 62
     0
 10
15.839613
 20
14.830551
 30
0.0
  0
ENDBLK
  8
0
  0
BLOCK
  8
0
  2
*D68
 70
    65
 10
0.0
 20
0.0
 30
0.0
  3
*D
  0
LINE
  8
0
  6
BYBLOCK
 62
     0
 10
16.953871
 20
13.334803
 30
0.0
 11
16.953871
 21
12.516034
 31
0.0
  0
LINE
  8
0
  6
BYBLOCK
 62
     0
 10
21.432488
 20
13.334803
 30
0.0
 11
21.432488
 21
12.516034
 31
0.0
  0
LINE
  8
0
  6
BYBLOCK
 62
     0
 10
17.403871
 20
12.748534
 30
0.0
 11
18.499429
 21
12.748534
 31
0.0
  0
LINE
  8
0
  6
BYBLOCK
 62
     0
 10
20.982488
 20
12.748534
 30
0.0
 11
19.886929
 21
12.748534
 31
0.0
  0
SOLID
  8
0
  6
BYBLOCK
 62
     0
 10
17.403871
 20
12.823534
 30
0.0
 11
17.403871
 21
12.673534
 31
0.0
 12
16.953871
 22
12.748534
 32
0.0
 13
16.953871
 23
12.748534
 33
0.0
  0
SOLID
  8
0
  6
BYBLOCK
 62
     0
 10
20.982488
 20
12.823534
 30
0.0
 11
20.982488
 21
12.673534
 31
0.0
 12
21.432488
 22
12.748534
 32
0.0
 13
21.432488
 23
12.748534
 33
0.0
  0
TEXT
  8
0
  6
BYBLOCK
 62
     0
 10
18.724429
 20
12.592284
 30
0.0
 40
0.3125
  1
4.479
 41
0.75
  7
TXT
 72
     1
 11
19.193179
 21
12.748534
 31
0.0
 73
     2
  0
POINT
  8
DEFPOINTS
  6
BYBLOCK
 62
     0
 10
16.953871
 20
13.491053
 30
0.0
  0
POINT
  8
DEFPOINTS
  6
BYBLOCK
 62
     0
 10
21.432488
 20
13.491053
 30
0.0
  0
POINT
  8
DEFPOINTS
  6
BYBLOCK
 62
     0
 10
21.432488
 20
12.748534
 30
0.0
  0
ENDBLK
  8
0
  0
ENDSEC
  0
SECTION
  2
ENTITIES
  0
TEXT
  8
DIM
 10
0.442297
 20
21.72898
 30
0.0
 40
0.249938
  1

  0
TEXT
  8
DIM
 10
7.332547
 20
21.180297
 30
0.0
 40
0.249938
  1

  0
TEXT
  8
DIM
 10
7.820047
 20
3.840935
 30
0.0
 40
0.249938
  1

  0
TEXT
  8
DIM
 10
3.661995
 20
4.471108
 30
0.0
 40
0.249938
  1

  0
TEXT
  8
DIM
 10
21.411671
 20
21.72898
 30
0.0
 40
0.249938
  1

  0
TEXT
  8
DIM
 10
28.301921
 20
21.180297
 30
0.0
 40
0.249938
  1

  0
TEXT
  8
DIM
 10
41.839319
 20
21.72898
 30
0.0
 40
0.249938
  1

  0
TEXT
  8
DIM
 10
48.729569
 20
21.180297
 30
0.0
 40
0.249938
  1

  0
TEXT
  8
DIM
 10
49.217069
 20
3.840935
 30
0.0
 40
0.249938
  1

  0
TEXT
  8
DIM
 10
45.059018
 20
4.471108
 30
0.0
 40
0.249938
  1

  0
TEXT
  8
DIM
 10
13.784825
 20
14.485987
 30
0.0
 40
0.166625
  1

  0
TEXT
  8
DIM
 10
18.378324
 20
14.120198
 30
0.0
 40
0.166625
  1

  0
TEXT
  8
DIM
 10
27.403257
 20
14.485987
 30
0.0
 40
0.166625
  1

  0
TEXT
  8
DIM
 10
31.996757
 20
14.120198
 30
0.0
 40
0.166625
  1

  0
TEXT
  8
DIM
 10
32.321757
 20
2.560623
 30
0.0
 40
0.166625
  1

  0
TEXT
  8
DIM
 10
29.549722
 20
2.980739
 30
0.0
 40
0.166625
  1

  0
TEXT
  8
DIM
 10
0.294865
 20
14.485987
 30
0.0
 40
0.166625
  1

  0
TEXT
  8
DIM
 10
4.888364
 20
14.120198
 30
0.0
 40
0.166625
  1

  0
TEXT
  8
DIM
 10
5.213364
 20
2.560623
 30
0.0
 40
0.166625
  1

  0
TEXT
  8
DIM
 10
2.44133
 20
2.980739
 30
0.0
 40
0.166625
  1

  0
TEXT
  8
TEXT
 10
1.117399
 20
36.723754
 30
0.0
 40
0.3125
  1
%%UMATERIAL:%%U HIGH-IMPACT ABS
 41
0.75
  7
TXT
  0
TEXT
  8
TEXT
 10
1.117399
 20
36.149583
 30
0.0
 40
0.3125
  1
%%UCOLOR:%%U BLACK OR GRAY
 41
0.75
  7
TXT
  0
TEXT
  8
TEXT
 10
12.093978
 20
36.707049
 30
0.0
 40
0.3125
  1
%%UFINISH:%%U PREFIX PS - TEXTURED BODY WITH SMOOTH TOP INSERT.
 41
0.75
  7
TXT
  0
TEXT
  8
TEXT
 10
1.117399
 20
35.284164
 30
0.0
 40
0.3125
  1
SIX (6) #4 x 0.375" LG. SCREWS
 41
0.75
  7
TXT
  0
TEXT
  8
TEXT
 10
1.436827
 20
34.792244
 30
0.0
 40
0.3125
  1
SUPPLIED FOR ASSEMBLING TOP.
 41
0.75
  7
TXT
  0
TEXT
  8
TEXT
 10
1.117399
 20
34.061288
 30
0.0
 40
0.3125
  1
FOUR (4) NON-SKID PUSH-ON FEET SUPPLIED.
 41
0.75
  7
TXT
  0
TEXT
  8
DIM
 10
11.454958
 20
21.52485
 30
0.0
 40
0.25
  1

  0
TEXT
  8
DIM
 10
6.98496
 20
20.811517
 30
0.0
 40
0.25
  1

  0
TEXT
  8
TEXT
 10
1.104776
 20
33.283726
 30
0.0
 40
0.3125
  1
*-USABLE AREA ON COVER ALSO
 41
0.75
  7
TXT
  0
TEXT
  8
TEXT
 10
1.397632
 20
32.792788
 30
0.0
 40
0.3125
  1
AVAILABLE FOR CUSTOM MOLDING.
 41
0.75
  7
TXT
  0
TEXT
  8
TEXT
 10
15.623579
 20
35.487882
 30
0.0
 40
0.3125
  1
*
 41
0.75
  7
TXT
  0
TEXT
  8
TEXT
 10
2.192864
 20
25.433833
 30
0.0
 40
0.3125
  1
*
 41
0.75
  7
TXT
  0
LINE
  8
HIDDEN
 10
15.95079
 20
34.646505
 30
0.0
 11
20.870896
 21
34.646505
 31
0.0
  0
LINE
  8
HIDDEN
 10
20.870896
 20
34.677505
 30
0.0
 11
20.870896
 21
34.646505
 31
0.0
  0
LINE
  8
OBJECT
 10
11.730896
 20
34.677505
 30
0.0
 11
11.730896
 21
34.646505
 31
0.0
  0
LINE
  8
OBJECT
 10
11.730896
 20
34.646505
 30
0.0
 11
15.95079
 21
34.646505
 31
0.0
  0
LINE
  8
OBJECT
 10
4.827802
 20
22.175812
 30
0.0
 11
4.842802
 21
22.175812
 31
0.0
  0
LINE
  8
OBJECT
 10
4.827802
 20
28.155812
 30
0.0
 11
4.842802
 21
28.155812
 31
0.0
  0
LINE
  8
OBJECT
 10
4.842802
 20
22.175812
 30
0.0
 11
4.842802
 21
28.155812
 31
0.0
  0
CIRCLE
  8
OBJECT
 10
16.301396
 20
22.478312
 30
0.0
 40
0.0465
  0
CIRCLE
  8
OBJECT
 10
16.301396
 20
27.978312
 30
0.0
 40
0.0465
  0
CIRCLE
  8
OBJECT
 10
16.301396
 20
27.978312
 30
0.0
 40
0.1225
  0
CIRCLE
  8
OBJECT
 10
16.301396
 20
22.478312
 30
0.0
 40
0.1225
  0
LINE
  8
HIDDEN
 10
16.456396
 20
33.964578
 30
0.0
 11
16.456396
 21
33.277505
 31
0.0
  0
LINE
  8
HIDDEN
 10
16.146396
 20
33.964578
 30
0.0
 11
16.146396
 21
33.277505
 31
0.0
  0
LINE
  8
HIDDEN
 10
16.456396
 20
33.964578
 30
0.0
 11
16.146396
 21
33.964578
 31
0.0
  0
LINE
  8
HIDDEN
 10
16.431396
 20
33.964578
 30
0.0
 11
16.431396
 21
34.577505
 31
0.0
  0
LINE
  8
HIDDEN
 10
16.171396
 20
33.964578
 30
0.0
 11
16.171396
 21
34.577505
 31
0.0
  0
LINE
  8
HIDDEN
 10
16.348396
 20
33.995578
 30
0.0
 11
16.348396
 21
34.577505
 31
0.0
  0
LINE
  8
HIDDEN
 10
16.254396
 20
33.995578
 30
0.0
 11
16.254396
 21
34.577505
 31
0.0
  0
LINE
  8
HIDDEN
 10
16.423396
 20
33.904578
 30
0.0
 11
16.179396
 21
33.904578
 31
0.0
  0
LINE
  8
HIDDEN
 10
16.423396
 20
33.177505
 30
0.0
 11
16.423396
 21
33.904578
 31
0.0
  0
LINE
  8
HIDDEN
 10
16.179396
 20
33.177505
 30
0.0
 11
16.179396
 21
33.904578
 31
0.0
  0
LINE
  8
HIDDEN
 10
16.366396
 20
33.964578
 30
0.0
 11
16.366396
 21
33.904578
 31
0.0
  0
LINE
  8
HIDDEN
 10
16.236396
 20
33.964578
 30
0.0
 11
16.236396
 21
33.904578
 31
0.0
  0
LINE
  8
HIDDEN
 10
16.223396
 20
33.964578
 30
0.0
 11
16.254396
 21
33.995578
 31
0.0
  0
LINE
  8
HIDDEN
 10
16.379396
 20
33.964578
 30
0.0
 11
16.348396
 21
33.995578
 31
0.0
  0
LINE
  8
HIDDEN
 10
16.254396
 20
33.995578
 30
0.0
 11
16.348396
 21
33.995578
 31
0.0
  0
CIRCLE
  8
HIDDEN
 10
17.301396
 20
22.478312
 30
0.0
 40
0.13
  0
CIRCLE
  8
HIDDEN
 10
17.301396
 20
27.978312
 30
0.0
 40
0.13
  0
LINE
  8
HIDDEN
 10
17.171396
 20
34.267505
 30
0.0
 11
17.431396
 21
34.267505
 31
0.0
  0
LINE
  8
HIDDEN
 10
17.431396
 20
34.267505
 30
0.0
 11
17.431396
 21
34.577505
 31
0.0
  0
LINE
  8
HIDDEN
 10
17.171396
 20
34.267505
 30
0.0
 11
17.171396
 21
34.577505
 31
0.0
  0
LINE
  8
HIDDEN
 10
17.254396
 20
34.617505
 30
0.0
 11
17.348396
 21
34.617505
 31
0.0
  0
LINE
  8
HIDDEN
 10
17.348396
 20
34.298505
 30
0.0
 11
17.348396
 21
34.617505
 31
0.0
  0
LINE
  8
HIDDEN
 10
17.254396
 20
34.298505
 30
0.0
 11
17.254396
 21
34.617505
 31
0.0
  0
LINE
  8
HIDDEN
 10
17.254396
 20
34.298505
 30
0.0
 11
17.348396
 21
34.298505
 31
0.0
  0
LINE
  8
HIDDEN
 10
17.379396
 20
34.267505
 30
0.0
 11
17.348396
 21
34.298505
 31
0.0
  0
LINE
  8
HIDDEN
 10
17.223396
 20
34.267505
 30
0.0
 11
17.254396
 21
34.298505
 31
0.0
  0
LINE
  8
HIDDEN
 10
17.223396
 20
33.587505
 30
0.0
 11
17.254396
 21
33.556505
 31
0.0
  0
LINE
  8
HIDDEN
 10
17.379396
 20
33.587505
 30
0.0
 11
17.348396
 21
33.556505
 31
0.0
  0
LINE
  8
HIDDEN
 10
17.254396
 20
33.556505
 30
0.0
 11
17.348396
 21
33.556505
 31
0.0
  0
LINE
  8
HIDDEN
 10
17.254396
 20
33.556505
 30
0.0
 11
17.254396
 21
33.237505
 31
0.0
  0
LINE
  8
HIDDEN
 10
17.348396
 20
33.556505
 30
0.0
 11
17.348396
 21
33.237505
 31
0.0
  0
LINE
  8
HIDDEN
 10
17.254396
 20
33.237505
 30
0.0
 11
17.348396
 21
33.237505
 31
0.0
  0
LINE
  8
HIDDEN
 10
17.171396
 20
33.587505
 30
0.0
 11
17.171396
 21
33.277505
 31
0.0
  0
LINE
  8
HIDDEN
 10
17.431396
 20
33.587505
 30
0.0
 11
17.431396
 21
33.277505
 31
0.0
  0
LINE
  8
HIDDEN
 10
17.171396
 20
33.587505
 30
0.0
 11
17.431396
 21
33.587505
 31
0.0
  0
CIRCLE
  8
OBJECT
 10
15.301396
 20
27.978312
 30
0.0
 40
0.13
  0
CIRCLE
  8
OBJECT
 10
15.301396
 20
22.478312
 30
0.0
 40
0.13
  0
CIRCLE
  8
OBJECT
 10
15.301396
 20
27.978312
 30
0.0
 40
0.0465
  0
CIRCLE
  8
OBJECT
 10
15.301396
 20
22.478312
 30
0.0
 40
0.0465
  0
CIRCLE
  8
OBJECT
 10
15.301396
 20
27.978312
 30
0.0
 40
0.078
  0
CIRCLE
  8
OBJECT
 10
15.301396
 20
22.478312
 30
0.0
 40
0.078
  0
LINE
  8
OBJECT
 10
15.691396
 20
33.587505
 30
0.0
 11
15.431396
 21
33.587505
 31
0.0
  0
LINE
  8
OBJECT
 10
15.431396
 20
33.587505
 30
0.0
 11
15.431396
 21
33.277505
 31
0.0
  0
LINE
  8
OBJECT
 10
15.691396
 20
33.587505
 30
0.0
 11
15.691396
 21
33.277505
 31
0.0
  0
LINE
  8
HIDDEN
 10
15.608396
 20
33.237505
 30
0.0
 11
15.514396
 21
33.237505
 31
0.0
  0
LINE
  8
HIDDEN
 10
15.514396
 20
33.556505
 30
0.0
 11
15.514396
 21
33.237505
 31
0.0
  0
LINE
  8
HIDDEN
 10
15.608396
 20
33.556505
 30
0.0
 11
15.608396
 21
33.237505
 31
0.0
  0
LINE
  8
HIDDEN
 10
15.608396
 20
33.556505
 30
0.0
 11
15.514396
 21
33.556505
 31
0.0
  0
LINE
  8
HIDDEN
 10
15.483396
 20
33.587505
 30
0.0
 11
15.514396
 21
33.556505
 31
0.0
  0
LINE
  8
HIDDEN
 10
15.639396
 20
33.587505
 30
0.0
 11
15.608396
 21
33.556505
 31
0.0
  0
LINE
  8
HIDDEN
 10
15.639396
 20
34.267505
 30
0.0
 11
15.608396
 21
34.298505
 31
0.0
  0
LINE
  8
HIDDEN
 10
15.483396
 20
34.267505
 30
0.0
 11
15.514396
 21
34.298505
 31
0.0
  0
LINE
  8
HIDDEN
 10
15.608396
 20
34.298505
 30
0.0
 11
15.514396
 21
34.298505
 31
0.0
  0
LINE
  8
HIDDEN
 10
15.608396
 20
34.298505
 30
0.0
 11
15.608396
 21
34.617505
 31
0.0
  0
LINE
  8
HIDDEN
 10
15.514396
 20
34.298505
 30
0.0
 11
15.514396
 21
34.617505
 31
0.0
  0
LINE
  8
HIDDEN
 10
15.608396
 20
34.617505
 30
0.0
 11
15.514396
 21
34.617505
 31
0.0
  0
LINE
  8
OBJECT
 10
15.691396
 20
34.267505
 30
0.0
 11
15.691396
 21
34.577505
 31
0.0
  0
LINE
  8
OBJECT
 10
15.431396
 20
34.267505
 30
0.0
 11
15.431396
 21
34.577505
 31
0.0
  0
LINE
  8
OBJECT
 10
15.691396
 20
34.267505
 30
0.0
 11
15.431396
 21
34.267505
 31
0.0
  0
LINE
  8
OBJECT
 10
11.711026
 20
34.677505
 30
0.0
 11
20.890765
 21
34.677505
 31
0.0
  0
LINE
  8
OBJECT
 10
21.050896
 20
33.894578
 30
0.0
 11
20.990385
 21
34.58622
 31
0.0
  0
LINE
  8
OBJECT
 10
11.550896
 20
33.894578
 30
0.0
 11
11.611406
 21
34.58622
 31
0.0
  0
LINE
  8
CENTER
 10
16.301396
 20
34.791128
 30
0.0
 11
16.301396
 21
33.063882
 31
0.0
  0
LINE
  8
OBJECT
 10
11.711026
 20
34.577505
 30
0.0
 11
15.958921
 21
34.577505
 31
0.0
  0
LINE
  8
OBJECT
 10
12.931396
 20
34.267505
 30
0.0
 11
12.671396
 21
34.267505
 31
0.0
  0
LINE
  8
OBJECT
 10
11.703771
 20
33.177505
 30
0.0
 11
20.89802
 21
33.177505
 31
0.0
  0
LINE
  8
OBJECT
 10
11.550896
 20
33.877505
 30
0.0
 11
11.604151
 21
33.268789
 31
0.0
  0
LINE
  8
OBJECT
 10
21.050896
 20
33.877505
 30
0.0
 11
20.99764
 21
33.268789
 31
0.0
  0
LINE
  8
OBJECT
 10
11.550896
 20
33.894578
 30
0.0
 11
11.610896
 21
33.894578
 31
0.0
  0
LINE
  8
OBJECT
 10
11.550896
 20
33.877505
 30
0.0
 11
11.610896
 21
33.877505
 31
0.0
  0
ARC
  8
OBJECT
 10
30.25199
 20
41.634632
 30
0.0
 40
16.410361
 50
209.588998
 51
211.021049
  0
ARC
  8
OBJECT
 10
16.387788
 20
33.762191
 30
0.0
 40
0.466979
 50
144.686192
 51
209.588998
  0
ARC
  8
OBJECT
 10
15.701978
 20
34.248019
 30
0.0
 40
0.373477
 50
324.686192
 51
31.842399
  0
ARC
  8
OBJECT
 10
16.418773
 20
34.693185
 30
0.0
 40
0.470305
 50
181.910684
 51
211.842399
  0
LINE
  8
OBJECT
 10
11.703771
 20
33.277505
 30
0.0
 11
16.118928
 21
33.277505
 31
0.0
  0
LINE
  8
OBJECT
 10
11.657402
 20
33.964578
 30
0.0
 11
11.711026
 21
34.577505
 31
0.0
  0
LINE
  8
OBJECT
 10
11.651278
 20
33.877505
 30
0.0
 11
11.703771
 21
33.277505
 31
0.0
  0
LINE
  8
OBJECT
 10
11.610896
 20
33.964578
 30
0.0
 11
11.610896
 21
33.894578
 31
0.0
  0
LINE
  8
OBJECT
 10
11.610896
 20
33.964578
 30
0.0
 11
11.657402
 21
33.964578
 31
0.0
  0
LINE
  8
OBJECT
 10
11.610896
 20
33.894578
 30
0.0
 11
11.610896
 21
33.877505
 31
0.0
  0
LINE
  8
OBJECT
 10
11.651278
 20
33.877505
 30
0.0
 11
11.651278
 21
33.964578
 31
0.0
  0
LINE
  8
OBJECT
 10
11.651278
 20
33.877505
 30
0.0
 11
11.771396
 21
33.877505
 31
0.0
  0
LINE
  8
OBJECT
 10
11.651278
 20
33.894578
 30
0.0
 11
11.771396
 21
33.894578
 31
0.0
  0
LINE
  8
OBJECT
 10
11.771396
 20
33.964578
 30
0.0
 11
11.771396
 21
33.277505
 31
0.0
  0
LINE
  8
OBJECT
 10
12.081396
 20
33.964578
 30
0.0
 11
12.081396
 21
33.277505
 31
0.0
  0
LINE
  8
OBJECT
 10
12.081396
 20
33.877505
 30
0.0
 11
21.050896
 21
33.877505
 31
0.0
  0
LINE
  8
OBJECT
 10
12.081396
 20
33.894578
 30
0.0
 11
21.050896
 21
33.894578
 31
0.0
  0
LINE
  8
OBJECT
 10
11.771396
 20
33.964578
 30
0.0
 11
12.081396
 21
33.964578
 31
0.0
  0
LINE
  8
OBJECT
 10
11.796396
 20
33.964578
 30
0.0
 11
11.796396
 21
34.577505
 31
0.0
  0
LINE
  8
OBJECT
 10
12.056396
 20
33.964578
 30
0.0
 11
12.056396
 21
34.577505
 31
0.0
  0
LINE
  8
HIDDEN
 10
11.879396
 20
33.995578
 30
0.0
 11
11.879396
 21
34.577505
 31
0.0
  0
LINE
  8
HIDDEN
 10
11.973396
 20
33.995578
 30
0.0
 11
11.973396
 21
34.577505
 31
0.0
  0
LINE
  8
OBJECT
 10
12.671396
 20
34.267505
 30
0.0
 11
12.671396
 21
34.577505
 31
0.0
  0
LINE
  8
OBJECT
 10
12.931396
 20
34.267505
 30
0.0
 11
12.931396
 21
34.577505
 31
0.0
  0
LINE
  8
HIDDEN
 10
12.848396
 20
34.617505
 30
0.0
 11
12.754396
 21
34.617505
 31
0.0
  0
LINE
  8
HIDDEN
 10
12.754396
 20
34.298505
 30
0.0
 11
12.754396
 21
34.617505
 31
0.0
  0
LINE
  8
HIDDEN
 10
12.848396
 20
34.298505
 30
0.0
 11
12.848396
 21
34.617505
 31
0.0
  0
LINE
  8
HIDDEN
 10
11.804396
 20
33.904578
 30
0.0
 11
12.048396
 21
33.904578
 31
0.0
  0
LINE
  8
HIDDEN
 10
11.804396
 20
33.177505
 30
0.0
 11
11.804396
 21
33.904578
 31
0.0
  0
LINE
  8
HIDDEN
 10
12.048396
 20
33.177505
 30
0.0
 11
12.048396
 21
33.904578
 31
0.0
  0
LINE
  8
HIDDEN
 10
11.861396
 20
33.964578
 30
0.0
 11
11.861396
 21
33.904578
 31
0.0
  0
LINE
  8
HIDDEN
 10
11.991396
 20
33.964578
 30
0.0
 11
11.991396
 21
33.904578
 31
0.0
  0
LINE
  8
HIDDEN
 10
12.848396
 20
34.298505
 30
0.0
 11
12.754396
 21
34.298505
 31
0.0
  0
LINE
  8
HIDDEN
 10
12.723396
 20
34.267505
 30
0.0
 11
12.754396
 21
34.298505
 31
0.0
  0
LINE
  8
HIDDEN
 10
12.879396
 20
34.267505
 30
0.0
 11
12.848396
 21
34.298505
 31
0.0
  0
LINE
  8
HIDDEN
 10
12.004396
 20
33.964578
 30
0.0
 11
11.973396
 21
33.995578
 31
0.0
  0
LINE
  8
HIDDEN
 10
11.848396
 20
33.964578
 30
0.0
 11
11.879396
 21
33.995578
 31
0.0
  0
LINE
  8
HIDDEN
 10
11.973396
 20
33.995578
 30
0.0
 11
11.879396
 21
33.995578
 31
0.0
  0
LINE
  8
HIDDEN
 10
12.879396
 20
33.587505
 30
0.0
 11
12.848396
 21
33.556505
 31
0.0
  0
LINE
  8
HIDDEN
 10
12.723396
 20
33.587505
 30
0.0
 11
12.754396
 21
33.556505
 31
0.0
  0
LINE
  8
HIDDEN
 10
12.848396
 20
33.556505
 30
0.0
 11
12.754396
 21
33.556505
 31
0.0
  0
LINE
  8
HIDDEN
 10
12.848396
 20
33.556505
 30
0.0
 11
12.848396
 21
33.237505
 31
0.0
  0
LINE
  8
HIDDEN
 10
12.754396
 20
33.556505
 30
0.0
 11
12.754396
 21
33.237505
 31
0.0
  0
LINE
  8
HIDDEN
 10
12.848396
 20
33.237505
 30
0.0
 11
12.754396
 21
33.237505
 31
0.0
  0
LINE
  8
OBJECT
 10
12.931396
 20
33.587505
 30
0.0
 11
12.931396
 21
33.277505
 31
0.0
  0
LINE
  8
OBJECT
 10
12.671396
 20
33.587505
 30
0.0
 11
12.671396
 21
33.277505
 31
0.0
  0
LINE
  8
OBJECT
 10
12.931396
 20
33.587505
 30
0.0
 11
12.671396
 21
33.587505
 31
0.0
  0
LINE
  8
HIDDEN
 10
15.958921
 20
34.577505
 30
0.0
 11
20.890765
 21
34.577505
 31
0.0
  0
LINE
  8
HIDDEN
 10
20.951276
 20
33.885863
 30
0.0
 11
20.890765
 21
34.577505
 31
0.0
  0
LINE
  8
HIDDEN
 10
20.951276
 20
33.88622
 30
0.0
 11
20.89802
 21
33.277505
 31
0.0
  0
LINE
  8
HIDDEN
 10
16.118928
 20
33.277505
 30
0.0
 11
20.89802
 21
33.277505
 31
0.0
  0
LINE
  8
HIDDEN
 10
19.733396
 20
33.587505
 30
0.0
 11
19.993396
 21
33.587505
 31
0.0
  0
LINE
  8
HIDDEN
 10
19.993396
 20
33.587505
 30
0.0
 11
19.993396
 21
33.277505
 31
0.0
  0
LINE
  8
HIDDEN
 10
19.733396
 20
33.587505
 30
0.0
 11
19.733396
 21
33.277505
 31
0.0
  0
LINE
  8
HIDDEN
 10
19.816396
 20
33.237505
 30
0.0
 11
19.910396
 21
33.237505
 31
0.0
  0
LINE
  8
HIDDEN
 10
19.910396
 20
33.556505
 30
0.0
 11
19.910396
 21
33.237505
 31
0.0
  0
LINE
  8
HIDDEN
 10
19.816396
 20
33.556505
 30
0.0
 11
19.816396
 21
33.237505
 31
0.0
  0
LINE
  8
HIDDEN
 10
19.816396
 20
33.556505
 30
0.0
 11
19.910396
 21
33.556505
 31
0.0
  0
LINE
  8
HIDDEN
 10
19.941396
 20
33.587505
 30
0.0
 11
19.910396
 21
33.556505
 31
0.0
  0
LINE
  8
HIDDEN
 10
19.785396
 20
33.587505
 30
0.0
 11
19.816396
 21
33.556505
 31
0.0
  0
LINE
  8
HIDDEN
 10
20.628396
 20
33.995578
 30
0.0
 11
20.722396
 21
33.995578
 31
0.0
  0
LINE
  8
HIDDEN
 10
20.753396
 20
33.964578
 30
0.0
 11
20.722396
 21
33.995578
 31
0.0
  0
LINE
  8
HIDDEN
 10
20.597396
 20
33.964578
 30
0.0
 11
20.628396
 21
33.995578
 31
0.0
  0
LINE
  8
HIDDEN
 10
19.785396
 20
34.267505
 30
0.0
 11
19.816396
 21
34.298505
 31
0.0
  0
LINE
  8
HIDDEN
 10
19.941396
 20
34.267505
 30
0.0
 11
19.910396
 21
34.298505
 31
0.0
  0
LINE
  8
HIDDEN
 10
19.816396
 20
34.298505
 30
0.0
 11
19.910396
 21
34.298505
 31
0.0
  0
LINE
  8
HIDDEN
 10
20.610396
 20
33.964578
 30
0.0
 11
20.610396
 21
33.904578
 31
0.0
  0
LINE
  8
HIDDEN
 10
20.740396
 20
33.964578
 30
0.0
 11
20.740396
 21
33.904578
 31
0.0
  0
LINE
  8
HIDDEN
 10
20.553396
 20
33.177505
 30
0.0
 11
20.553396
 21
33.904578
 31
0.0
  0
LINE
  8
HIDDEN
 10
20.797396
 20
33.177505
 30
0.0
 11
20.797396
 21
33.904578
 31
0.0
  0
LINE
  8
HIDDEN
 10
20.797396
 20
33.904578
 30
0.0
 11
20.553396
 21
33.904578
 31
0.0
  0
LINE
  8
HIDDEN
 10
19.816396
 20
34.298505
 30
0.0
 11
19.816396
 21
34.617505
 31
0.0
  0
LINE
  8
HIDDEN
 10
19.910396
 20
34.298505
 30
0.0
 11
19.910396
 21
34.617505
 31
0.0
  0
LINE
  8
HIDDEN
 10
19.816396
 20
34.617505
 30
0.0
 11
19.910396
 21
34.617505
 31
0.0
  0
LINE
  8
HIDDEN
 10
19.733396
 20
34.267505
 30
0.0
 11
19.733396
 21
34.577505
 31
0.0
  0
LINE
  8
HIDDEN
 10
19.993396
 20
34.267505
 30
0.0
 11
19.993396
 21
34.577505
 31
0.0
  0
LINE
  8
HIDDEN
 10
20.628396
 20
33.995578
 30
0.0
 11
20.628396
 21
34.577505
 31
0.0
  0
LINE
  8
HIDDEN
 10
20.722396
 20
33.995578
 30
0.0
 11
20.722396
 21
34.577505
 31
0.0
  0
LINE
  8
HIDDEN
 10
20.545396
 20
33.964578
 30
0.0
 11
20.545396
 21
34.577505
 31
0.0
  0
LINE
  8
HIDDEN
 10
20.805396
 20
33.964578
 30
0.0
 11
20.805396
 21
34.577505
 31
0.0
  0
LINE
  8
HIDDEN
 10
20.830396
 20
33.964578
 30
0.0
 11
20.520396
 21
33.964578
 31
0.0
  0
LINE
  8
HIDDEN
 10
20.520396
 20
33.964578
 30
0.0
 11
20.520396
 21
33.277505
 31
0.0
  0
LINE
  8
HIDDEN
 10
20.830396
 20
33.964578
 30
0.0
 11
20.830396
 21
33.277505
 31
0.0
  0
LINE
  8
HIDDEN
 10
19.733396
 20
34.267505
 30
0.0
 11
19.993396
 21
34.267505
 31
0.0
  0
ARC
  8
OBJECT
 10
11.711026
 20
34.577505
 30
0.0
 40
0.1
 50
90.0
 51
175.0
  0
ARC
  8
OBJECT
 10
20.890765
 20
34.577505
 30
0.0
 40
0.1
 50
5.0
 51
90.0
  0
ARC
  8
OBJECT
 10
20.89802
 20
33.277505
 30
0.0
 40
0.1
 50
270.0
 51
355.0
  0
ARC
  8
OBJECT
 10
11.703771
 20
33.277505
 30
0.0
 40
0.1
 50
185.0
 51
270.0
  0
LINE
  8
CENTER
 10
21.315489
 20
25.228312
 30
0.0
 11
11.286302
 21
25.228312
 31
0.0
  0
LINE
  8
CENTER
 10
16.301396
 20
28.634533
 30
0.0
 11
16.301396
 21
21.75959
 31
0.0
  0
LINE
  8
OBJECT
 10
20.176396
 20
27.898312
 30
0.0
 11
17.176396
 21
27.898312
 31
0.0
  0
LINE
  8
OBJECT
 10
20.176396
 20
22.558312
 30
0.0
 11
17.176396
 21
22.558312
 31
0.0
  0
LINE
  8
OBJECT
 10
17.176396
 20
27.898312
 30
0.0
 11
17.176396
 21
22.558312
 31
0.0
  0
LINE
  8
OBJECT
 10
20.176396
 20
27.898312
 30
0.0
 11
20.176396
 21
22.558312
 31
0.0
  0
LINE
  8
OBJECT
 10
20.136396
 20
22.598312
 30
0.0
 11
17.216396
 21
22.598312
 31
0.0
  0
LINE
  8
OBJECT
 10
20.136396
 20
27.858312
 30
0.0
 11
17.216396
 21
27.858312
 31
0.0
  0
LINE
  8
OBJECT
 10
16.071344
 20
28.24693
 30
0.0
 11
11.702277
 21
28.24693
 31
0.0
  0
LINE
  8
OBJECT
 10
16.106711
 20
22.209693
 30
0.0
 11
11.702277
 21
22.209693
 31
0.0
  0
LINE
  8
OBJECT
 10
11.702277
 20
28.24693
 30
0.0
 11
11.702277
 21
22.209693
 31
0.0
  0
LINE
  8
HIDDEN
 10
20.899514
 20
28.24693
 30
0.0
 11
20.899514
 21
22.209693
 31
0.0
  0
CIRCLE
  8
OBJECT
 10
11.926396
 20
22.478312
 30
0.0
 40
0.0465
  0
CIRCLE
  8
OBJECT
 10
11.926396
 20
22.478312
 30
0.0
 40
0.13
  0
CIRCLE
  8
OBJECT
 10
11.926396
 20
27.978312
 30
0.0
 40
0.13
  0
CIRCLE
  8
OBJECT
 10
20.676396
 20
22.478312
 30
0.0
 40
0.1225
  0
CIRCLE
  8
OBJECT
 10
20.676396
 20
27.978312
 30
0.0
 40
0.1225
  0
CIRCLE
  8
OBJECT
 10
20.676396
 20
27.978312
 30
0.0
 40
0.0465
  0
CIRCLE
  8
OBJECT
 10
20.676396
 20
22.478312
 30
0.0
 40
0.0465
  0
CIRCLE
  8
OBJECT
 10
12.801396
 20
22.478312
 30
0.0
 40
0.078
  0
CIRCLE
  8
OBJECT
 10
12.801396
 20
27.978312
 30
0.0
 40
0.078
  0
CIRCLE
  8
OBJECT
 10
11.926396
 20
27.978312
 30
0.0
 40
0.0465
  0
CIRCLE
  8
OBJECT
 10
12.801396
 20
22.478312
 30
0.0
 40
0.0465
  0
CIRCLE
  8
OBJECT
 10
12.801396
 20
27.978312
 30
0.0
 40
0.0465
  0
ARC
  8
HIDDEN
 10
20.945896
 20
22.163312
 30
0.0
 40
0.04
 50
270.0
 51
0.0
  0
ARC
  8
HIDDEN
 10
20.945896
 20
28.293312
 30
0.0
 40
0.04
 50
0.0
 51
90.0
  0
ARC
  8
OBJECT
 10
11.655896
 20
22.163312
 30
0.0
 40
0.04
 50
180.0
 51
270.0
  0
ARC
  8
OBJECT
 10
11.655896
 20
28.293312
 30
0.0
 40
0.04
 50
90.0
 51
180.0
  0
CIRCLE
  8
HIDDEN
 10
19.801396
 20
27.978312
 30
0.0
 40
0.13
  0
CIRCLE
  8
HIDDEN
 10
19.801396
 20
22.478312
 30
0.0
 40
0.13
  0
LINE
  8
HIDDEN
 10
20.950896
 20
28.298312
 30
0.0
 11
20.950896
 21
22.158312
 31
0.0
  0
LINE
  8
HIDDEN
 10
20.985896
 20
28.293312
 30
0.0
 11
20.985896
 21
22.163312
 31
0.0
  0
LINE
  8
HIDDEN
 10
16.061576
 20
28.298312
 30
0.0
 11
20.950896
 21
28.298312
 31
0.0
  0
LINE
  8
HIDDEN
 10
16.054922
 20
28.333312
 30
0.0
 11
20.945896
 21
28.333312
 31
0.0
  0
LINE
  8
HIDDEN
 10
16.141341
 20
22.158312
 30
0.0
 11
20.950896
 21
22.158312
 31
0.0
  0
LINE
  8
HIDDEN
 10
16.16493
 20
22.123312
 30
0.0
 11
20.945896
 21
22.123312
 31
0.0
  0
LINE
  8
OBJECT
 10
16.16493
 20
22.123312
 30
0.0
 11
11.655896
 21
22.123312
 31
0.0
  0
LINE
  8
OBJECT
 10
11.615896
 20
28.293312
 30
0.0
 11
11.615896
 21
22.163312
 31
0.0
  0
LINE
  8
OBJECT
 10
16.054922
 20
28.333312
 30
0.0
 11
11.655896
 21
28.333312
 31
0.0
  0
CIRCLE
  8
OBJECT
 10
12.801396
 20
22.478312
 30
0.0
 40
0.13
  0
CIRCLE
  8
OBJECT
 10
12.801396
 20
27.978312
 30
0.0
 40
0.13
  0
ARC
  8
OBJECT
 10
21.000896
 20
28.348312
 30
0.0
 40
0.05
 50
0.0
 51
90.0
  0
ARC
  8
OBJECT
 10
11.600896
 20
28.348312
 30
0.0
 40
0.05
 50
90.0
 51
180.0
  0
ARC
  8
OBJECT
 10
11.600896
 20
22.108312
 30
0.0
 40
0.05
 50
180.0
 51
270.0
  0
ARC
  8
OBJECT
 10
21.000896
 20
22.108312
 30
0.0
 40
0.05
 50
270.0
 51
0.0
  0
LINE
  8
OBJECT
 10
16.141341
 20
22.158312
 30
0.0
 11
11.650896
 21
22.158312
 31
0.0
  0
LINE
  8
OBJECT
 10
11.650896
 20
28.298312
 30
0.0
 11
11.650896
 21
22.158312
 31
0.0
  0
LINE
  8
OBJECT
 10
16.061576
 20
28.298312
 30
0.0
 11
11.650896
 21
28.298312
 31
0.0
  0
LINE
  8
OBJECT
 10
21.000896
 20
28.398312
 30
0.0
 11
11.600896
 21
28.398312
 31
0.0
  0
LINE
  8
OBJECT
 10
21.050896
 20
28.348312
 30
0.0
 11
21.050896
 21
22.108312
 31
0.0
  0
LINE
  8
OBJECT
 10
21.000896
 20
22.058312
 30
0.0
 11
11.600896
 21
22.058312
 31
0.0
  0
LINE
  8
OBJECT
 10
11.550896
 20
28.348312
 30
0.0
 11
11.550896
 21
22.108312
 31
0.0
  0
LINE
  8
OBJECT
 10
17.216396
 20
27.858312
 30
0.0
 11
17.216396
 21
22.598312
 31
0.0
  0
LINE
  8
OBJECT
 10
20.136396
 20
27.858312
 30
0.0
 11
20.136396
 21
22.598312
 31
0.0
  0
LINE
  8
HIDDEN
 10
20.899514
 20
28.24693
 30
0.0
 11
16.071344
 21
28.24693
 31
0.0
  0
LINE
  8
HIDDEN
 10
20.899514
 20
22.209693
 30
0.0
 11
16.106711
 21
22.209693
 31
0.0
  0
LINE
  8
OBJECT
 10
4.827802
 20
22.153442
 30
0.0
 11
4.827802
 21
28.178181
 31
0.0
  0
LINE
  8
CENTER
 10
4.647933
 20
25.165812
 30
0.0
 11
6.507671
 21
25.165812
 31
0.0
  0
LINE
  8
OBJECT
 10
4.927802
 20
22.155942
 30
0.0
 11
4.927802
 21
28.175681
 31
0.0
  0
LINE
  8
OBJECT
 10
5.610802
 20
28.23543
 30
0.0
 11
5.610802
 21
28.115312
 31
0.0
  0
LINE
  8
OBJECT
 10
6.327802
 20
28.182936
 30
0.0
 11
6.327802
 21
22.148687
 31
0.0
  0
LINE
  8
OBJECT
 10
6.227802
 20
28.182936
 30
0.0
 11
6.227802
 21
22.148687
 31
0.0
  0
LINE
  8
HIDDEN
 10
5.509728
 20
27.913312
 30
0.0
 11
5.509728
 21
28.007312
 31
0.0
  0
LINE
  8
HIDDEN
 10
5.540728
 20
28.038312
 30
0.0
 11
5.509728
 21
28.007312
 31
0.0
  0
LINE
  8
HIDDEN
 10
5.540728
 20
27.882312
 30
0.0
 11
5.509728
 21
27.913312
 31
0.0
  0
LINE
  8
HIDDEN
 10
5.540728
 20
27.895312
 30
0.0
 11
5.600728
 21
27.895312
 31
0.0
  0
LINE
  8
HIDDEN
 10
5.540728
 20
28.025312
 30
0.0
 11
5.600728
 21
28.025312
 31
0.0
  0
LINE
  8
HIDDEN
 10
6.327802
 20
27.838312
 30
0.0
 11
5.600728
 21
27.838312
 31
0.0
  0
LINE
  8
HIDDEN
 10
6.327802
 20
28.082312
 30
0.0
 11
5.600728
 21
28.082312
 31
0.0
  0
LINE
  8
HIDDEN
 10
5.600728
 20
28.082312
 30
0.0
 11
5.600728
 21
27.838312
 31
0.0
  0
LINE
  8
HIDDEN
 10
5.509728
 20
27.913312
 30
0.0
 11
4.927728
 21
27.913312
 31
0.0
  0
LINE
  8
HIDDEN
 10
5.509728
 20
28.007312
 30
0.0
 11
4.927728
 21
28.007312
 31
0.0
  0
LINE
  8
OBJECT
 10
5.540728
 20
27.830312
 30
0.0
 11
4.927728
 21
27.830312
 31
0.0
  0
LINE
  8
OBJECT
 10
5.540728
 20
28.090312
 30
0.0
 11
4.927802
 21
28.090312
 31
0.0
  0
LINE
  8
OBJECT
 10
5.540728
 20
28.115312
 30
0.0
 11
5.540728
 21
27.805312
 31
0.0
  0
LINE
  8
OBJECT
 10
5.540728
 20
27.805312
 30
0.0
 11
6.227802
 21
27.805312
 31
0.0
  0
LINE
  8
OBJECT
 10
5.540728
 20
28.115312
 30
0.0
 11
6.227802
 21
28.115312
 31
0.0
  0
LINE
  8
OBJECT
 10
5.610728
 20
28.23543
 30
0.0
 11
5.610728
 21
28.115312
 31
0.0
  0
LINE
  8
OBJECT
 10
5.627802
 20
28.23543
 30
0.0
 11
5.627802
 21
28.115312
 31
0.0
  0
LINE
  8
OBJECT
 10
5.627802
 20
28.23543
 30
0.0
 11
5.540728
 21
28.23543
 31
0.0
  0
LINE
  8
OBJECT
 10
5.610728
 20
28.275812
 30
0.0
 11
5.627802
 21
28.275812
 31
0.0
  0
LINE
  8
OBJECT
 10
5.540728
 20
28.275812
 30
0.0
 11
5.540728
 21
28.229305
 31
0.0
  0
LINE
  8
OBJECT
 10
5.540728
 20
28.275812
 30
0.0
 11
5.610728
 21
28.275812
 31
0.0
  0
LINE
  8
OBJECT
 10
5.627802
 20
28.23543
 30
0.0
 11
6.227802
 21
28.182936
 31
0.0
  0
LINE
  8
OBJECT
 10
5.540728
 20
28.229305
 30
0.0
 11
4.927802
 21
28.175681
 31
0.0
  0
LINE
  8
OBJECT
 10
5.627802
 20
28.335812
 30
0.0
 11
5.627802
 21
28.275812
 31
0.0
  0
LINE
  8
OBJECT
 10
5.610728
 20
28.335812
 30
0.0
 11
5.610728
 21
28.275812
 31
0.0
  0
LINE
  8
OBJECT
 10
5.627802
 20
28.335812
 30
0.0
 11
6.236518
 21
28.282556
 31
0.0
  0
LINE
  8
OBJECT
 10
5.610728
 20
28.335812
 30
0.0
 11
4.919086
 21
28.275301
 31
0.0
  0
LINE
  8
OBJECT
 10
5.627802
 20
27.805312
 30
0.0
 11
5.627802
 21
22.526312
 31
0.0
  0
LINE
  8
OBJECT
 10
5.610802
 20
27.805312
 30
0.0
 11
5.610802
 21
22.526312
 31
0.0
  0
LINE
  8
OBJECT
 10
5.610728
 20
21.995812
 30
0.0
 11
4.919086
 21
22.056322
 31
0.0
  0
LINE
  8
OBJECT
 10
5.627802
 20
21.995812
 30
0.0
 11
6.236518
 21
22.049067
 31
0.0
  0
LINE
  8
OBJECT
 10
5.610728
 20
21.995812
 30
0.0
 11
5.610728
 21
22.055812
 31
0.0
  0
LINE
  8
OBJECT
 10
5.627802
 20
21.995812
 30
0.0
 11
5.627802
 21
22.055812
 31
0.0
  0
LINE
  8
OBJECT
 10
5.540728
 20
22.102318
 30
0.0
 11
4.927802
 21
22.155942
 31
0.0
  0
LINE
  8
OBJECT
 10
5.627802
 20
22.096194
 30
0.0
 11
6.227802
 21
22.148687
 31
0.0
  0
LINE
  8
OBJECT
 10
5.540728
 20
22.055812
 30
0.0
 11
5.610728
 21
22.055812
 31
0.0
  0
LINE
  8
OBJECT
 10
5.540728
 20
22.055812
 30
0.0
 11
5.540728
 21
22.102318
 31
0.0
  0
LINE
  8
OBJECT
 10
5.610728
 20
22.055812
 30
0.0
 11
5.627802
 21
22.055812
 31
0.0
  0
LINE
  8
OBJECT
 10
5.627802
 20
22.096194
 30
0.0
 11
5.540728
 21
22.096194
 31
0.0
  0
LINE
  8
OBJECT
 10
5.627802
 20
22.096194
 30
0.0
 11
5.627802
 21
22.216312
 31
0.0
  0
LINE
  8
OBJECT
 10
5.610728
 20
22.096194
 30
0.0
 11
5.610728
 21
22.216312
 31
0.0
  0
LINE
  8
OBJECT
 10
5.540728
 20
22.216312
 30
0.0
 11
6.227802
 21
22.216312
 31
0.0
  0
LINE
  8
OBJECT
 10
5.540728
 20
22.526312
 30
0.0
 11
6.227802
 21
22.526312
 31
0.0
  0
LINE
  8
OBJECT
 10
5.540728
 20
22.216312
 30
0.0
 11
5.540728
 21
22.526312
 31
0.0
  0
LINE
  8
OBJECT
 10
5.540728
 20
22.241312
 30
0.0
 11
4.927802
 21
22.241312
 31
0.0
  0
LINE
  8
OBJECT
 10
5.540728
 20
22.501312
 30
0.0
 11
4.927728
 21
22.501312
 31
0.0
  0
LINE
  8
HIDDEN
 10
5.509728
 20
22.324312
 30
0.0
 11
4.927728
 21
22.324312
 31
0.0
  0
LINE
  8
HIDDEN
 10
5.509728
 20
22.418312
 30
0.0
 11
4.927728
 21
22.418312
 31
0.0
  0
LINE
  8
HIDDEN
 10
5.600728
 20
22.249312
 30
0.0
 11
5.600728
 21
22.493312
 31
0.0
  0
LINE
  8
HIDDEN
 10
6.327802
 20
22.249312
 30
0.0
 11
5.600728
 21
22.249312
 31
0.0
  0
LINE
  8
HIDDEN
 10
6.327802
 20
22.493312
 30
0.0
 11
5.600728
 21
22.493312
 31
0.0
  0
LINE
  8
HIDDEN
 10
5.540728
 20
22.306312
 30
0.0
 11
5.600728
 21
22.306312
 31
0.0
  0
LINE
  8
HIDDEN
 10
5.540728
 20
22.436312
 30
0.0
 11
5.600728
 21
22.436312
 31
0.0
  0
LINE
  8
HIDDEN
 10
5.540728
 20
22.449312
 30
0.0
 11
5.509728
 21
22.418312
 31
0.0
  0
LINE
  8
HIDDEN
 10
5.540728
 20
22.293312
 30
0.0
 11
5.509728
 21
22.324312
 31
0.0
  0
LINE
  8
HIDDEN
 10
5.509728
 20
22.418312
 30
0.0
 11
5.509728
 21
22.324312
 31
0.0
  0
LINE
  8
OBJECT
 10
5.610802
 20
22.096194
 30
0.0
 11
5.610802
 21
22.216312
 31
0.0
  0
LINE
  8
OBJECT
 10
5.627802
 20
22.055812
 30
0.0
 11
5.627802
 21
21.995812
 31
0.0
  0
LINE
  8
OBJECT
 10
5.610802
 20
22.055812
 30
0.0
 11
5.610802
 21
21.995812
 31
0.0
  0
ARC
  8
OBJECT
 10
4.925461
 20
22.153774
 30
0.0
 40
0.09766
 50
180.194839
 51
266.257288
  0
ARC
  8
OBJECT
 10
4.925461
 20
28.177849
 30
0.0
 40
0.09766
 50
93.742712
 51
179.805161
  0
ARC
  8
OBJECT
 10
6.227802
 20
22.148687
 30
0.0
 40
0.1
 50
275.0
 51
0.0
  0
ARC
  8
OBJECT
 10
6.227802
 20
28.182936
 30
0.0
 40
0.1
 50
0.0
 51
85.0
  0
LINE
  8
CENTER
 10
17.301396
 20
21.949351
 30
0.0
 11
17.301396
 21
22.844772
 31
0.0
  0
LINE
  8
CENTER
 10
19.801396
 20
21.949351
 30
0.0
 11
19.801396
 21
22.844772
 31
0.0
  0
LINE
  8
CENTER
 10
12.801396
 20
21.949351
 30
0.0
 11
12.801396
 21
22.844772
 31
0.0
  0
LINE
  8
CENTER
 10
21.23427
 20
22.478312
 30
0.0
 11
11.367521
 21
22.478312
 31
0.0
  0
LINE
  8
CENTER
 10
15.301396
 20
21.949351
 30
0.0
 11
15.301396
 21
22.844772
 31
0.0
  0
LINE
  8
CENTER
 10
21.23427
 20
27.978312
 30
0.0
 11
11.367521
 21
27.978312
 31
0.0
  0
LINE
  8
TITLE
 10
0.155
 20
19.88894
 30
0.0
 11
25.145
 21
19.88894
 31
0.0
  0
LINE
  8
TITLE
 10
0.155
 20
19.734061
 30
0.0
 11
25.145
 21
19.734061
 31
0.0
  0
LINE
  8
TITLE
 10
0.154879
 20
18.689879
 30
0.0
 11
25.125306
 21
18.689879
 31
0.0
  0
LINE
  8
TITLE
 10
2.02841
 20
18.689879
 30
0.0
 11
2.02841
 21
19.734061
 31
0.0
  0
LINE
  8
TITLE
 10
12.640093
 20
19.734061
 30
0.0
 11
12.640093
 21
18.689879
 31
0.0
  0
LINE
  8
TITLE
 10
12.794971
 20
19.734061
 30
0.0
 11
12.794971
 21
18.689879
 31
0.0
  0
LINE
  8
TITLE
 10
14.668503
 20
19.734061
 30
0.0
 11
14.668503
 21
18.689879
 31
0.0
  0
TEXT
  8
TEXT
 10
13.302049
 20
19.310424
 30
0.0
 40
0.3125
  1
PART
 41
0.75
  7
TXT
 72
     1
 11
13.731737
 21
19.310424
 31
0.0
  0
TEXT
  8
TEXT
 10
13.497362
 20
18.789999
 30
0.0
 40
0.3125
  1
No.
 41
0.75
  7
TXT
 72
     1
 11
13.731737
 21
18.789999
 31
0.0
  0
TEXT
  8
TEXT
 10
0.661957
 20
19.310424
 30
0.0
 40
0.3125
  1
PART
 41
0.75
  7
TXT
 72
     1
 11
1.091644
 21
19.310424
 31
0.0
  0
TEXT
  8
TEXT
 10
0.661957
 20
18.789999
 30
0.0
 40
0.3125
  1
NAME
 41
0.75
  7
TXT
 72
     1
 11
1.091644
 21
18.789999
 31
0.0
  0
TEXT
  8
TEXT
 10
4.605707
 20
37.847604
 30
0.0
 40
0.389792
  1
PLASTIBOX  (STYLE A)
 41
0.75
  7
TXT
 72
     1
 11
7.334251
 21
37.847604
 31
0.0
  0
TEXT
  8
TEXT
 10
17.070913
 20
37.847604
 30
0.0
 40
0.389792
  1
PT-11338  &  PS-11339
 41
0.75
  7
TXT
 72
     1
 11
19.896905
 21
37.847604
 31
0.0
  0
TEXT
  8
TEXT
 10
0.662813
 20
37.650198
 30
0.0
 40
0.3125
  1
NAME
 41
0.75
  7
TXT
 72
     1
 11
1.0925
 21
37.650198
 31
0.0
  0
TEXT
  8
TEXT
 10
0.662813
 20
38.171031
 30
0.0
 40
0.3125
  1
PART
 41
0.75
  7
TXT
 72
     1
 11
1.0925
 21
38.171031
 31
0.0
  0
TEXT
  8
TEXT
 10
13.508125
 20
37.650198
 30
0.0
 40
0.3125
  1
No.
 41
0.75
  7
TXT
 72
     1
 11
13.7425
 21
37.650198
 31
0.0
  0
TEXT
  8
TEXT
 10
13.312813
 20
38.171031
 30
0.0
 40
0.3125
  1
PART
 41
0.75
  7
TXT
 72
     1
 11
13.7425
 21
38.171031
 31
0.0
  0
LINE
  8
TITLE
 10
14.68
 20
38.595
 30
0.0
 11
14.68
 21
37.55
 31
0.0
  0
LINE
  8
TITLE
 10
12.805
 20
38.595
 30
0.0
 11
12.805
 21
37.55
 31
0.0
  0
LINE
  8
TITLE
 10
12.65
 20
38.595
 30
0.0
 11
12.65
 21
37.55
 31
0.0
  0
LINE
  8
TITLE
 10
2.03
 20
37.55
 30
0.0
 11
2.03
 21
38.595
 31
0.0
  0
LINE
  8
TITLE
 10
0.155
 20
37.55
 30
0.0
 11
25.145
 21
37.55
 31
0.0
  0
LINE
  8
TITLE
 10
25.145
 20
0.155
 30
0.0
 11
0.155
 21
0.155
 31
0.0
  0
LINE
  8
TITLE
 10
0.155
 20
38.595
 30
0.0
 11
25.145
 21
38.595
 31
0.0
  0
LINE
  8
TITLE
 10
0.155
 20
0.155
 30
0.0
 11
0.155
 21
19.734061
 31
0.0
  0
LINE
  8
TITLE
 10
0.0
 20
0.0
 30
0.0
 11
0.0
 21
38.75
 31
0.0
  0
LINE
  8
TITLE
 10
25.3
 20
0.0
 30
0.0
 11
0.0
 21
0.0
 31
0.0
  0
LINE
  8
TITLE
 10
25.3
 20
38.75
 30
0.0
 11
25.3
 21
0.0
 31
0.0
  0
LINE
  8
TITLE
 10
0.0
 20
38.75
 30
0.0
 11
25.3
 21
38.75
 31
0.0
  0
LINE
  8
TITLE
 10
25.145
 20
38.595
 30
0.0
 11
25.145
 21
19.88894
 31
0.0
  0
LINE
  8
TITLE
 10
25.145
 20
19.734061
 30
0.0
 11
25.145
 21
0.155
 31
0.0
  0
LINE
  8
TITLE
 10
0.155
 20
19.88894
 30
0.0
 11
0.155
 21
38.595
 31
0.0
  0
TEXT
  8
DIM
 10
28.844393
 20
14.513778
 30
0.0
 40
0.166625
  1

  0
TEXT
  8
DIM
 10
33.437893
 20
14.14799
 30
0.0
 40
0.166625
  1

  0
TEXT
  8
DIM
 10
42.737945
 20
14.513778
 30
0.0
 40
0.166625
  1

  0
TEXT
  8
DIM
 10
47.331445
 20
14.14799
 30
0.0
 40
0.166625
  1

  0
TEXT
  8
DIM
 10
47.656445
 20
2.588415
 30
0.0
 40
0.166625
  1

  0
TEXT
  8
DIM
 10
44.884411
 20
3.00853
 30
0.0
 40
0.166625
  1

  0
TEXT
  8
DIM
 10
46.464315
 20
12.991353
 30
0.0
 40
0.166625
  1

  0
TEXT
  8
TEXT
 10
4.5958
 20
18.987483
 30
0.0
 40
0.389792
  1
PLASTIBOX  (STYLE B)
 41
0.75
  7
TXT
 72
     1
 11
7.324344
 21
18.987483
 31
0.0
  0
TEXT
  8
TEXT
 10
16.841747
 20
18.987483
 30
0.0
 40
0.389792
  1
PSS-11350  &  PNS-11351
 41
0.75
  7
TXT
 72
     1
 11
19.886997
 21
18.987483
 31
0.0
  0
LINE
  8
BEND
 10
18.093179
 20
14.691053
 30
0.0
 11
18.093179
 21
13.491053
 31
0.0
  0
LINE
  8
BEND
 10
20.293179
 20
14.691053
 30
0.0
 11
20.293179
 21
13.491053
 31
0.0
  0
LINE
  8
BEND
 10
20.293179
 20
14.691053
 30
0.0
 11
18.093179
 21
14.691053
 31
0.0
  0
LINE
  8
BEND
 10
5.490775
 20
8.484846
 30
0.0
 11
4.190775
 21
8.484846
 31
0.0
  0
LINE
  8
BEND
 10
20.293179
 20
8.484846
 30
0.0
 11
18.093179
 21
8.484846
 31
0.0
  0
LINE
  8
BEND
 10
4.190775
 20
8.484846
 30
0.0
 11
4.190775
 21
7.609846
 31
0.0
  0
LINE
  8
BEND
 10
5.390775
 20
7.609846
 30
0.0
 11
4.190775
 21
7.609846
 31
0.0
  0
LINE
  8
BEND
 10
20.293179
 20
7.609846
 30
0.0
 11
18.093179
 21
7.609846
 31
0.0
  0
LINE
  8
BEND
 10
18.093179
 20
8.484846
 30
0.0
 11
18.093179
 21
7.609846
 31
0.0
  0
LINE
  8
BEND
 10
20.293179
 20
8.484846
 30
0.0
 11
20.293179
 21
7.609846
 31
0.0
  0
TEXT
  8
TEXT
 10
5.652768
 20
15.411803
 30
0.0
 40
0.3125
  1
TOP AND END INSERTS AND 9V
 41
0.75
  7
TXT
  0
TEXT
  8
TEXT
 10
2.917669
 20
15.865295
 30
0.0
 40
0.3125
  1
PREFIX PNS- TEXTURED BODY WITH SMOOTH
 41
0.75
  7
TXT
  0
LINE
  8
HIDDEN
 10
18.726089
 20
15.288427
 30
0.0
 11
21.32929
 21
15.816018
 31
0.0
  0
LINE
  8
HIDDEN
 10
18.686307
 20
15.196638
 30
0.0
 11
21.385373
 21
15.742267
 31
0.0
  0
POLYLINE
  8
OBJECT
 66
     1
 10
0.0
 20
0.0
 30
0.0
 75
     6
  0
VERTEX
  8
OBJECT
 10
18.709181
 20
13.391053
 30
0.0
  0
VERTEX
  8
OBJECT
 10
18.728259
 20
13.421443
 30
0.0
  0
VERTEX
  8
OBJECT
 10
18.755094
 20
13.484701
 30
0.0
  0
VERTEX
  8
OBJECT
 10
18.767052
 20
13.540136
 30
0.0
  0
VERTEX
  8
OBJECT
 10
18.767763
 20
13.588891
 30
0.0
  0
VERTEX
  8
OBJECT
 10
18.760857
 20
13.632108
 30
0.0
  0
VERTEX
  8
OBJECT
 10
18.749962
 20
13.670931
 30
0.0
  0
VERTEX
  8
OBJECT
 10
18.73871
 20
13.706503
 30
0.0
  0
VERTEX
  8
OBJECT
 10
18.73073
 20
13.739966
 30
0.0
  0
VERTEX
  8
OBJECT
 10
18.728779
 20
13.772289
 30
0.0
  0
VERTEX
  8
OBJECT
 10
18.732124
 20
13.803735
 30
0.0
  0
VERTEX
  8
OBJECT
 10
18.739161
 20
13.834396
 30
0.0
  0
VERTEX
  8
OBJECT
 10
18.748283
 20
13.864361
 30
0.0
  0
VERTEX
  8
OBJECT
 10
18.757886
 20
13.89372
 30
0.0
  0
VERTEX
  8
OBJECT
 10
18.766364
 20
13.922563
 30
0.0
  0
VERTEX
  8
OBJECT
 10
18.772112
 20
13.95098
 30
0.0
  0
VERTEX
  8
OBJECT
 10
18.773525
 20
13.97906
 30
0.0
  0
VERTEX
  8
OBJECT
 10
18.76952
 20
14.006895
 30
0.0
  0
VERTEX
  8
OBJECT
 10
18.76111
 20
14.034576
 30
0.0
  0
VERTEX
  8
OBJECT
 10
18.749831
 20
14.062195
 30
0.0
  0
VERTEX
  8
OBJECT
 10
18.737217
 20
14.089845
 30
0.0
  0
VERTEX
  8
OBJECT
 10
18.724805
 20
14.117618
 30
0.0
  0
VERTEX
  8
OBJECT
 10
18.71413
 20
14.145607
 30
0.0
  0
VERTEX
  8
OBJECT
 10
18.706729
 20
14.173903
 30
0.0
  0
VERTEX
  8
OBJECT
 10
18.704135
 20
14.2026
 30
0.0
  0
VERTEX
  8
OBJECT
 10
18.70736
 20
14.231747
 30
0.0
  0
VERTEX
  8
OBJECT
 10
18.715313
 20
14.261224
 30
0.0
  0
VERTEX
  8
OBJECT
 10
18.726378
 20
14.290869
 30
0.0
  0
VERTEX
  8
OBJECT
 10
18.738937
 20
14.320518
 30
0.0
  0
VERTEX
  8
OBJECT
 10
18.751376
 20
14.35001
 30
0.0
  0
VERTEX
  8
OBJECT
 10
18.762078
 20
14.379181
 30
0.0
  0
VERTEX
  8
OBJECT
 10
18.769426
 20
14.40787
 30
0.0
  0
VERTEX
  8
OBJECT
 10
18.771804
 20
14.435914
 30
0.0
  0
VERTEX
  8
OBJECT
 10
18.768141
 20
14.463207
 30
0.0
  0
VERTEX
  8
OBJECT
 10
18.759538
 20
14.489872
 30
0.0
  0
VERTEX
  8
OBJECT
 10
18.747641
 20
14.516093
 30
0.0
  0
VERTEX
  8
OBJECT
 10
18.734099
 20
14.542048
 30
0.0
  0
VERTEX
  8
OBJECT
 10
18.720556
 20
14.567919
 30
0.0
  0
VERTEX
  8
OBJECT
 10
18.70866
 20
14.593888
 30
0.0
  0
VERTEX
  8
OBJECT
 10
18.700057
 20
14.620135
 30
0.0
  0
VERTEX
  8
OBJECT
 10
18.696393
 20
14.646842
 30
0.0
  0
VERTEX
  8
OBJECT
 10
18.698709
 20
14.674169
 30
0.0
  0
VERTEX
  8
OBJECT
 10
18.705617
 20
14.702196
 30
0.0
  0
VERTEX
  8
OBJECT
 10
18.715124
 20
14.730985
 30
0.0
  0
VERTEX
  8
OBJECT
 10
18.725237
 20
14.749595
 30
0.0
  0
VERTEX
  8
OBJECT
 10
18.733962
 20
14.780088
 30
0.0
  0
VERTEX
  8
OBJECT
 10
18.739306
 20
14.811522
 30
0.0
  0
VERTEX
  8
OBJECT
 10
18.739275
 20
14.843959
 30
0.0
  0
VERTEX
  8
OBJECT
 10
18.731877
 20
14.877458
 30
0.0
  0
VERTEX
  8
OBJECT
 10
18.716332
 20
14.91248
 30
0.0
  0
VERTEX
  8
OBJECT
 10
18.696724
 20
14.951078
 30
0.0
  0
VERTEX
  8
OBJECT
 10
18.67835
 20
14.995706
 30
0.0
  0
VERTEX
  8
OBJECT
 10
18.66651
 20
15.048818
 30
0.0
  0
VERTEX
  8
OBJECT
 10
18.666501
 20
15.112866
 30
0.0
  0
VERTEX
  8
OBJECT
 10
18.683621
 20
15.190303
 30
0.0
  0
VERTEX
  8
OBJECT
 10
18.723169
 20
15.283584
 30
0.0
  0
VERTEX
  8
OBJECT
 10
18.736601
 20
15.305863
 30
0.0
  0
SEQEND
  8
OBJECT
  0
LINE
  8
OBJECT
 10
16.875386
 20
14.830551
 30
0.0
 11
18.686307
 21
15.196638
 31
0.0
  0
LINE
  8
OBJECT
 10
16.899355
 20
14.918203
 30
0.0
 11
18.726089
 21
15.288427
 31
0.0
  0
LINE
  8
OBJECT
 10
16.861686
 20
14.178127
 30
0.0
 11
16.875386
 21
14.830551
 31
0.0
  0
ARC
  8
OBJECT
 10
16.870244
 20
14.825575
 30
0.0
 40
0.1
 50
101.456955
 51
178.816943
  0
LINE
  8
OBJECT
 10
16.755179
 20
14.108127
 30
0.0
 11
16.770265
 21
14.82764
 31
0.0
  0
ARC
  8
OBJECT
 10
5.340775
 20
2.132538
 30
0.0
 40
0.05
 50
275.0
 51
0.0
  0
LINE
  8
OBJECT
 10
4.790775
 20
2.034228
 30
0.0
 11
5.345132
 21
2.082728
 31
0.0
  0
ARC
  8
OBJECT
 10
5.340775
 20
8.611155
 30
0.0
 40
0.05
 50
0.0
 51
85.0
  0
LINE
  8
OBJECT
 10
4.790775
 20
8.709464
 30
0.0
 11
5.345132
 21
8.660964
 31
0.0
  0
LINE
  8
OBJECT
 10
5.100775
 20
8.089853
 30
0.0
 11
5.390775
 21
8.089853
 31
0.0
  0
LINE
  8
OBJECT
 10
5.100775
 20
8.04174
 30
0.0
 11
5.100775
 21
8.089853
 31
0.0
  0
LINE
  8
OBJECT
 10
5.143291
 20
8.089853
 30
0.0
 11
5.143291
 21
8.149932
 31
0.0
  0
LINE
  8
OBJECT
 10
5.390775
 20
8.04174
 30
0.0
 11
5.100775
 21
8.04174
 31
0.0
  0
LINE
  8
OBJECT
 10
5.100775
 20
8.149932
 30
0.0
 11
5.390775
 21
8.149932
 31
0.0
  0
LINE
  8
OBJECT
 10
5.100775
 20
8.198046
 30
0.0
 11
5.100775
 21
8.149932
 31
0.0
  0
LINE
  8
OBJECT
 10
5.390775
 20
8.198046
 30
0.0
 11
5.100775
 21
8.198046
 31
0.0
  0
LINE
  8
OBJECT
 10
5.100775
 20
6.41162
 30
0.0
 11
5.100775
 21
6.363506
 31
0.0
  0
LINE
  8
OBJECT
 10
5.143291
 20
6.303428
 30
0.0
 11
5.143291
 21
6.363506
 31
0.0
  0
LINE
  8
OBJECT
 10
5.100775
 20
6.255314
 30
0.0
 11
5.100775
 21
6.303428
 31
0.0
  0
LINE
  8
OBJECT
 10
5.390775
 20
6.255314
 30
0.0
 11
5.100775
 21
6.255314
 31
0.0
  0
LINE
  8
OBJECT
 10
5.100775
 20
6.363506
 30
0.0
 11
5.390775
 21
6.363506
 31
0.0
  0
LINE
  8
OBJECT
 10
5.390775
 20
6.41162
 30
0.0
 11
5.100775
 21
6.41162
 31
0.0
  0
LINE
  8
OBJECT
 10
5.100775
 20
6.303428
 30
0.0
 11
5.390775
 21
6.303428
 31
0.0
  0
LINE
  8
OBJECT
 10
5.100775
 20
4.440265
 30
0.0
 11
5.390775
 21
4.440265
 31
0.0
  0
LINE
  8
OBJECT
 10
5.390775
 20
4.332073
 30
0.0
 11
5.100775
 21
4.332073
 31
0.0
  0
LINE
  8
OBJECT
 10
5.100775
 20
4.380187
 30
0.0
 11
5.390775
 21
4.380187
 31
0.0
  0
LINE
  8
OBJECT
 10
5.390775
 20
4.488379
 30
0.0
 11
5.100775
 21
4.488379
 31
0.0
  0
LINE
  8
OBJECT
 10
5.100775
 20
4.488379
 30
0.0
 11
5.100775
 21
4.440265
 31
0.0
  0
LINE
  8
OBJECT
 10
5.143291
 20
4.440265
 30
0.0
 11
5.143291
 21
4.380187
 31
0.0
  0
LINE
  8
OBJECT
 10
5.100775
 20
4.332073
 30
0.0
 11
5.100775
 21
4.380187
 31
0.0
  0
LINE
  8
OBJECT
 10
5.390775
 20
2.545647
 30
0.0
 11
5.100775
 21
2.545647
 31
0.0
  0
LINE
  8
OBJECT
 10
5.100775
 20
2.545647
 30
0.0
 11
5.100775
 21
2.593761
 31
0.0
  0
LINE
  8
OBJECT
 10
5.100775
 20
2.593761
 30
0.0
 11
5.390775
 21
2.593761
 31
0.0
  0
LINE
  8
OBJECT
 10
5.390775
 20
2.701953
 30
0.0
 11
5.100775
 21
2.701953
 31
0.0
  0
LINE
  8
OBJECT
 10
5.143291
 20
2.653839
 30
0.0
 11
5.143291
 21
2.593761
 31
0.0
  0
LINE
  8
OBJECT
 10
5.100775
 20
2.701953
 30
0.0
 11
5.100775
 21
2.653839
 31
0.0
  0
LINE
  8
OBJECT
 10
5.100775
 20
2.653839
 30
0.0
 11
5.390775
 21
2.653839
 31
0.0
  0
LINE
  8
OBJECT
 10
5.390775
 20
8.611155
 30
0.0
 11
5.390775
 21
2.132538
 31
0.0
  0
ARC
  8
OBJECT
 10
5.390775
 20
2.086722
 30
0.0
 40
0.1
 50
275.0
 51
0.0
  0
ARC
  8
OBJECT
 10
5.390775
 20
8.656971
 30
0.0
 40
0.1
 50
0.0
 51
85.0
  0
ARC
  8
OBJECT
 10
16.953871
 20
13.541053
 30
0.0
 40
0.05
 50
185.0
 51
270.0
  0
ARC
  8
OBJECT
 10
21.432488
 20
13.541053
 30
0.0
 40
0.05
 50
270.0
 51
355.0
  0
LINE
  8
OBJECT
 10
21.530797
 20
14.091053
 30
0.0
 11
21.482297
 21
13.536696
 31
0.0
  0
LINE
  8
OBJECT
 10
16.855561
 20
14.091053
 30
0.0
 11
16.904061
 21
13.536696
 31
0.0
  0
LINE
  8
OBJECT
 10
16.953871
 20
13.491053
 30
0.0
 11
21.432488
 21
13.491053
 31
0.0
  0
ARC
  8
OBJECT
 10
21.478304
 20
13.491053
 30
0.0
 40
0.1
 50
270.0
 51
355.0
  0
ARC
  8
OBJECT
 10
16.908055
 20
13.491053
 30
0.0
 40
0.1
 50
185.0
 51
270.0
  0
LINE
  8
CENTER
 10
16.6114
 20
4.746846
 30
0.0
 11
17.407119
 21
4.746846
 31
0.0
  0
LINE
  8
CENTER
 10
16.6114
 20
3.121846
 30
0.0
 11
17.407119
 21
3.121846
 31
0.0
  0
LINE
  8
CENTER
 10
21.255179
 20
1.736197
 30
0.0
 11
21.255179
 21
8.975615
 31
0.0
  0
LINE
  8
CENTER
 10
17.131179
 20
1.736197
 30
0.0
 11
17.131179
 21
8.975615
 31
0.0
  0
LINE
  8
CENTER
 10
16.6094
 20
7.621846
 30
0.0
 11
17.405119
 21
7.621846
 31
0.0
  0
LINE
  8
CENTER
 10
16.6114
 20
5.996846
 30
0.0
 11
17.405119
 21
5.996846
 31
0.0
  0
LINE
  8
OBJECT
 10
3.710775
 20
7.751846
 30
0.0
 11
4.120775
 21
7.751846
 31
0.0
  0
LINE
  8
OBJECT
 10
3.710775
 20
7.491846
 30
0.0
 11
4.120775
 21
7.491846
 31
0.0
  0
LINE
  8
OBJECT
 10
4.120775
 20
7.491846
 30
0.0
 11
4.120775
 21
7.751846
 31
0.0
  0
LINE
  8
HIDDEN
 10
3.670495
 20
7.668846
 30
0.0
 11
3.670495
 21
7.574846
 31
0.0
  0
LINE
  8
HIDDEN
 10
4.089775
 20
7.574846
 30
0.0
 11
3.670495
 21
7.574846
 31
0.0
  0
LINE
  8
HIDDEN
 10
4.089775
 20
7.668846
 30
0.0
 11
3.670495
 21
7.668846
 31
0.0
  0
LINE
  8
HIDDEN
 10
4.089775
 20
7.668846
 30
0.0
 11
4.089775
 21
7.574846
 31
0.0
  0
LINE
  8
HIDDEN
 10
4.120775
 20
7.543846
 30
0.0
 11
4.089775
 21
7.574846
 31
0.0
  0
LINE
  8
HIDDEN
 10
4.120775
 20
7.699846
 30
0.0
 11
4.089775
 21
7.668846
 31
0.0
  0
LINE
  8
OBJECT
 10
3.710775
 20
6.126846
 30
0.0
 11
4.120775
 21
6.126846
 31
0.0
  0
LINE
  8
OBJECT
 10
3.710775
 20
5.866846
 30
0.0
 11
4.120775
 21
5.866846
 31
0.0
  0
LINE
  8
OBJECT
 10
4.120775
 20
5.866846
 30
0.0
 11
4.120775
 21
6.126846
 31
0.0
  0
LINE
  8
HIDDEN
 10
3.670495
 20
6.043846
 30
0.0
 11
3.670495
 21
5.949846
 31
0.0
  0
LINE
  8
HIDDEN
 10
4.089775
 20
5.949846
 30
0.0
 11
3.670495
 21
5.949846
 31
0.0
  0
LINE
  8
HIDDEN
 10
4.089775
 20
6.043846
 30
0.0
 11
3.670495
 21
6.043846
 31
0.0
  0
LINE
  8
HIDDEN
 10
4.089775
 20
6.043846
 30
0.0
 11
4.089775
 21
5.949846
 31
0.0
  0
LINE
  8
HIDDEN
 10
4.120775
 20
5.918846
 30
0.0
 11
4.089775
 21
5.949846
 31
0.0
  0
LINE
  8
HIDDEN
 10
4.120775
 20
6.074846
 30
0.0
 11
4.089775
 21
6.043846
 31
0.0
  0
LINE
  8
OBJECT
 10
3.710775
 20
4.876846
 30
0.0
 11
4.120775
 21
4.876846
 31
0.0
  0
LINE
  8
OBJECT
 10
3.710775
 20
4.616846
 30
0.0
 11
4.120775
 21
4.616846
 31
0.0
  0
LINE
  8
OBJECT
 10
4.120775
 20
4.616846
 30
0.0
 11
4.120775
 21
4.876846
 31
0.0
  0
LINE
  8
HIDDEN
 10
3.670495
 20
4.793846
 30
0.0
 11
3.670495
 21
4.699846
 31
0.0
  0
LINE
  8
HIDDEN
 10
4.089775
 20
4.699846
 30
0.0
 11
3.670495
 21
4.699846
 31
0.0
  0
LINE
  8
HIDDEN
 10
4.089775
 20
4.793846
 30
0.0
 11
3.670495
 21
4.793846
 31
0.0
  0
LINE
  8
HIDDEN
 10
4.089775
 20
4.793846
 30
0.0
 11
4.089775
 21
4.699846
 31
0.0
  0
LINE
  8
HIDDEN
 10
4.120775
 20
4.668846
 30
0.0
 11
4.089775
 21
4.699846
 31
0.0
  0
LINE
  8
HIDDEN
 10
4.120775
 20
4.824846
 30
0.0
 11
4.089775
 21
4.793846
 31
0.0
  0
LINE
  8
HIDDEN
 10
4.120775
 20
3.199846
 30
0.0
 11
4.089775
 21
3.168846
 31
0.0
  0
LINE
  8
HIDDEN
 10
4.120775
 20
3.043846
 30
0.0
 11
4.089775
 21
3.074846
 31
0.0
  0
LINE
  8
HIDDEN
 10
4.089775
 20
3.168846
 30
0.0
 11
4.089775
 21
3.074846
 31
0.0
  0
LINE
  8
HIDDEN
 10
4.089775
 20
3.168846
 30
0.0
 11
3.670495
 21
3.168846
 31
0.0
  0
LINE
  8
HIDDEN
 10
4.089775
 20
3.074846
 30
0.0
 11
3.670495
 21
3.074846
 31
0.0
  0
LINE
  8
HIDDEN
 10
3.670495
 20
3.168846
 30
0.0
 11
3.670495
 21
3.074846
 31
0.0
  0
LINE
  8
OBJECT
 10
4.120775
 20
2.991846
 30
0.0
 11
4.120775
 21
3.251846
 31
0.0
  0
LINE
  8
OBJECT
 10
3.710775
 20
2.991846
 30
0.0
 11
4.120775
 21
2.991846
 31
0.0
  0
LINE
  8
OBJECT
 10
3.710775
 20
3.251846
 30
0.0
 11
4.120775
 21
3.251846
 31
0.0
  0
LINE
  8
OBJECT
 10
5.080775
 20
3.251846
 30
0.0
 11
5.080775
 21
2.991846
 31
0.0
  0
LINE
  8
OBJECT
 10
5.080775
 20
2.991846
 30
0.0
 11
5.390775
 21
2.991846
 31
0.0
  0
LINE
  8
OBJECT
 10
5.080775
 20
3.251846
 30
0.0
 11
5.390775
 21
3.251846
 31
0.0
  0
LINE
  8
HIDDEN
 10
5.430775
 20
3.168846
 30
0.0
 11
5.430775
 21
3.074846
 31
0.0
  0
LINE
  8
HIDDEN
 10
5.111775
 20
3.074846
 30
0.0
 11
5.430775
 21
3.074846
 31
0.0
  0
LINE
  8
HIDDEN
 10
5.111775
 20
3.168846
 30
0.0
 11
5.430775
 21
3.168846
 31
0.0
  0
LINE
  8
HIDDEN
 10
5.111775
 20
3.168846
 30
0.0
 11
5.111775
 21
3.074846
 31
0.0
  0
LINE
  8
HIDDEN
 10
5.080775
 20
3.043846
 30
0.0
 11
5.111775
 21
3.074846
 31
0.0
  0
LINE
  8
HIDDEN
 10
5.080775
 20
3.199846
 30
0.0
 11
5.111775
 21
3.168846
 31
0.0
  0
LINE
  8
HIDDEN
 10
5.080775
 20
4.824846
 30
0.0
 11
5.111775
 21
4.793846
 31
0.0
  0
LINE
  8
HIDDEN
 10
5.080775
 20
4.668846
 30
0.0
 11
5.111775
 21
4.699846
 31
0.0
  0
LINE
  8
HIDDEN
 10
5.111775
 20
4.793846
 30
0.0
 11
5.111775
 21
4.699846
 31
0.0
  0
LINE
  8
HIDDEN
 10
5.111775
 20
4.793846
 30
0.0
 11
5.430775
 21
4.793846
 31
0.0
  0
LINE
  8
HIDDEN
 10
5.111775
 20
4.699846
 30
0.0
 11
5.430775
 21
4.699846
 31
0.0
  0
LINE
  8
HIDDEN
 10
5.430775
 20
4.793846
 30
0.0
 11
5.430775
 21
4.699846
 31
0.0
  0
LINE
  8
OBJECT
 10
5.080775
 20
4.876846
 30
0.0
 11
5.390775
 21
4.876846
 31
0.0
  0
LINE
  8
OBJECT
 10
5.080775
 20
4.616846
 30
0.0
 11
5.390775
 21
4.616846
 31
0.0
  0
LINE
  8
OBJECT
 10
5.080775
 20
4.876846
 30
0.0
 11
5.080775
 21
4.616846
 31
0.0
  0
LINE
  8
OBJECT
 10
5.080775
 20
7.751846
 30
0.0
 11
5.080775
 21
7.491846
 31
0.0
  0
LINE
  8
OBJECT
 10
5.080775
 20
7.491846
 30
0.0
 11
5.390775
 21
7.491846
 31
0.0
  0
LINE
  8
OBJECT
 10
5.080775
 20
7.751846
 30
0.0
 11
5.390775
 21
7.751846
 31
0.0
  0
LINE
  8
HIDDEN
 10
5.430775
 20
7.668846
 30
0.0
 11
5.430775
 21
7.574846
 31
0.0
  0
LINE
  8
HIDDEN
 10
5.111775
 20
7.574846
 30
0.0
 11
5.430775
 21
7.574846
 31
0.0
  0
LINE
  8
HIDDEN
 10
5.111775
 20
7.668846
 30
0.0
 11
5.430775
 21
7.668846
 31
0.0
  0
LINE
  8
HIDDEN
 10
5.111775
 20
7.668846
 30
0.0
 11
5.111775
 21
7.574846
 31
0.0
  0
LINE
  8
HIDDEN
 10
5.080775
 20
7.543846
 30
0.0
 11
5.111775
 21
7.574846
 31
0.0
  0
LINE
  8
HIDDEN
 10
5.080775
 20
7.699846
 30
0.0
 11
5.111775
 21
7.668846
 31
0.0
  0
LINE
  8
HIDDEN
 10
5.080775
 20
6.074846
 30
0.0
 11
5.111775
 21
6.043846
 31
0.0
  0
LINE
  8
HIDDEN
 10
5.080775
 20
5.918846
 30
0.0
 11
5.111775
 21
5.949846
 31
0.0
  0
LINE
  8
HIDDEN
 10
5.111775
 20
6.043846
 30
0.0
 11
5.111775
 21
5.949846
 31
0.0
  0
LINE
  8
HIDDEN
 10
5.111775
 20
6.043846
 30
0.0
 11
5.430775
 21
6.043846
 31
0.0
  0
LINE
  8
HIDDEN
 10
5.111775
 20
5.949846
 30
0.0
 11
5.430775
 21
5.949846
 31
0.0
  0
LINE
  8
HIDDEN
 10
5.430775
 20
6.043846
 30
0.0
 11
5.430775
 21
5.949846
 31
0.0
  0
LINE
  8
OBJECT
 10
5.080775
 20
6.126846
 30
0.0
 11
5.390775
 21
6.126846
 31
0.0
  0
LINE
  8
OBJECT
 10
5.080775
 20
5.866846
 30
0.0
 11
5.390775
 21
5.866846
 31
0.0
  0
LINE
  8
OBJECT
 10
5.080775
 20
6.126846
 30
0.0
 11
5.080775
 21
5.866846
 31
0.0
  0
LINE
  8
OBJECT
 10
4.790775
 20
5.216846
 30
0.0
 11
4.790775
 21
2.476346
 31
0.0
  0
LINE
  8
OBJECT
 10
4.773775
 20
5.216846
 30
0.0
 11
4.773775
 21
2.476346
 31
0.0
  0
LINE
  8
HIDDEN
 10
4.672701
 20
5.324846
 30
0.0
 11
3.710701
 21
5.324846
 31
0.0
  0
LINE
  8
OBJECT
 10
4.703701
 20
5.241846
 30
0.0
 11
3.710775
 21
5.241846
 31
0.0
  0
LINE
  8
HIDDEN
 10
4.672701
 20
5.418846
 30
0.0
 11
3.710701
 21
5.418846
 31
0.0
  0
LINE
  8
OBJECT
 10
4.703701
 20
5.501846
 30
0.0
 11
3.710701
 21
5.501846
 31
0.0
  0
LINE
  8
OBJECT
 10
4.703701
 20
5.216846
 30
0.0
 11
5.390775
 21
5.216846
 31
0.0
  0
LINE
  8
OBJECT
 10
4.703701
 20
5.526846
 30
0.0
 11
5.390775
 21
5.526846
 31
0.0
  0
LINE
  8
OBJECT
 10
4.703701
 20
5.216846
 30
0.0
 11
4.703701
 21
5.526846
 31
0.0
  0
LINE
  8
HIDDEN
 10
4.763701
 20
5.249846
 30
0.0
 11
4.763701
 21
5.493846
 31
0.0
  0
LINE
  8
HIDDEN
 10
5.490775
 20
5.249846
 30
0.0
 11
4.763701
 21
5.249846
 31
0.0
  0
LINE
  8
HIDDEN
 10
5.490775
 20
5.493846
 30
0.0
 11
4.763701
 21
5.493846
 31
0.0
  0
LINE
  8
HIDDEN
 10
4.703701
 20
5.306846
 30
0.0
 11
4.763701
 21
5.306846
 31
0.0
  0
LINE
  8
HIDDEN
 10
4.703701
 20
5.436846
 30
0.0
 11
4.763701
 21
5.436846
 31
0.0
  0
LINE
  8
HIDDEN
 10
4.703701
 20
5.449846
 30
0.0
 11
4.672701
 21
5.418846
 31
0.0
  0
LINE
  8
HIDDEN
 10
4.703701
 20
5.293846
 30
0.0
 11
4.672701
 21
5.324846
 31
0.0
  0
LINE
  8
HIDDEN
 10
4.672701
 20
5.418846
 30
0.0
 11
4.672701
 21
5.324846
 31
0.0
  0
LINE
  8
OBJECT
 10
17.193179
 20
4.871846
 30
0.0
 11
17.193179
 21
2.871846
 31
0.0
  0
LINE
  8
OBJECT
 10
21.193179
 20
4.871846
 30
0.0
 11
21.193179
 21
2.871846
 31
0.0
  0
LINE
  8
OBJECT
 10
21.193179
 20
2.871846
 30
0.0
 11
17.193179
 21
2.871846
 31
0.0
  0
LINE
  8
OBJECT
 10
21.193179
 20
4.871846
 30
0.0
 11
17.193179
 21
4.871846
 31
0.0
  0
CIRCLE
  8
HIDDEN
 10
17.131179
 20
3.121846
 30
0.0
 40
0.125
  0
CIRCLE
  8
HIDDEN
 10
21.255179
 20
7.621846
 30
0.0
 40
0.125
  0
CIRCLE
  8
HIDDEN
 10
21.255179
 20
5.996846
 30
0.0
 40
0.125
  0
CIRCLE
  8
HIDDEN
 10
21.255179
 20
3.121846
 30
0.0
 40
0.125
  0
CIRCLE
  8
HIDDEN
 10
21.255179
 20
4.746846
 30
0.0
 40
0.125
  0
CIRCLE
  8
HIDDEN
 10
17.131179
 20
4.746846
 30
0.0
 40
0.125
  0
CIRCLE
  8
HIDDEN
 10
17.131179
 20
5.996846
 30
0.0
 40
0.125
  0
CIRCLE
  8
HIDDEN
 10
17.131179
 20
7.621846
 30
0.0
 40
0.125
  0
CIRCLE
  8
OBJECT
 10
17.131179
 20
5.371846
 30
0.0
 40
0.0465
  0
CIRCLE
  8
OBJECT
 10
21.255179
 20
5.371846
 30
0.0
 40
0.0465
  0
CIRCLE
  8
OBJECT
 10
21.255179
 20
5.371846
 30
0.0
 40
0.1225
  0
CIRCLE
  8
OBJECT
 10
17.131179
 20
5.371846
 30
0.0
 40
0.13
  0
LINE
  8
CENTER
 10
21.895773
 20
5.371846
 30
0.0
 11
16.490586
 21
5.371846
 31
0.0
  0
LINE
  8
CENTER
 10
19.193179
 20
9.110568
 30
0.0
 11
19.193179
 21
1.633125
 31
0.0
  0
LINE
  8
HIDDEN
 10
21.481798
 20
2.083228
 30
0.0
 11
16.904561
 21
2.083228
 31
0.0
  0
LINE
  8
HIDDEN
 10
21.481798
 20
8.660465
 30
0.0
 11
16.904561
 21
8.660465
 31
0.0
  0
LINE
  8
HIDDEN
 10
16.904561
 20
8.660465
 30
0.0
 11
16.904561
 21
2.083228
 31
0.0
  0
LINE
  8
HIDDEN
 10
21.481798
 20
8.660465
 30
0.0
 11
21.481798
 21
2.083228
 31
0.0
  0
CIRCLE
  8
OBJECT
 10
17.131179
 20
2.308846
 30
0.0
 40
0.0465
  0
CIRCLE
  8
OBJECT
 10
17.131179
 20
2.308846
 30
0.0
 40
0.13
  0
CIRCLE
  8
OBJECT
 10
17.131179
 20
8.434846
 30
0.0
 40
0.13
  0
CIRCLE
  8
OBJECT
 10
21.255179
 20
2.308846
 30
0.0
 40
0.1225
  0
CIRCLE
  8
OBJECT
 10
21.255179
 20
8.434846
 30
0.0
 40
0.1225
  0
CIRCLE
  8
OBJECT
 10
21.255179
 20
8.434846
 30
0.0
 40
0.0465
  0
CIRCLE
  8
OBJECT
 10
21.255179
 20
2.308846
 30
0.0
 40
0.0465
  0
CIRCLE
  8
OBJECT
 10
17.131179
 20
8.434846
 30
0.0
 40
0.0465
  0
ARC
  8
HIDDEN
 10
21.528179
 20
2.036846
 30
0.0
 40
0.04
 50
270.0
 51
0.0
  0
ARC
  8
HIDDEN
 10
21.528179
 20
8.706846
 30
0.0
 40
0.04
 50
0.0
 51
90.0
  0
LINE
  8
HIDDEN
 10
21.533179
 20
8.711846
 30
0.0
 11
21.533179
 21
2.031846
 31
0.0
  0
LINE
  8
HIDDEN
 10
21.568179
 20
8.706846
 30
0.0
 11
21.568179
 21
2.036846
 31
0.0
  0
LINE
  8
HIDDEN
 10
16.853179
 20
8.711846
 30
0.0
 11
21.533179
 21
8.711846
 31
0.0
  0
LINE
  8
HIDDEN
 10
16.858179
 20
8.746846
 30
0.0
 11
21.528179
 21
8.746846
 31
0.0
  0
LINE
  8
HIDDEN
 10
16.853179
 20
2.031846
 30
0.0
 11
21.533179
 21
2.031846
 31
0.0
  0
LINE
  8
HIDDEN
 10
16.858179
 20
1.996846
 30
0.0
 11
21.528179
 21
1.996846
 31
0.0
  0
LINE
  8
HIDDEN
 10
16.818179
 20
8.706846
 30
0.0
 11
16.818179
 21
2.036846
 31
0.0
  0
ARC
  8
OBJECT
 10
21.583179
 20
8.761846
 30
0.0
 40
0.05
 50
0.0
 51
90.0
  0
ARC
  8
OBJECT
 10
16.803179
 20
8.761846
 30
0.0
 40
0.05
 50
90.0
 51
180.0
  0
ARC
  8
OBJECT
 10
16.803179
 20
1.981846
 30
0.0
 40
0.05
 50
180.0
 51
270.0
  0
ARC
  8
OBJECT
 10
21.583179
 20
1.981846
 30
0.0
 40
0.05
 50
270.0
 51
0.0
  0
LINE
  8
HIDDEN
 10
16.853179
 20
8.711846
 30
0.0
 11
16.853179
 21
2.031846
 31
0.0
  0
LINE
  8
OBJECT
 10
21.583179
 20
8.811846
 30
0.0
 11
16.803179
 21
8.811846
 31
0.0
  0
LINE
  8
OBJECT
 10
21.633179
 20
8.761846
 30
0.0
 11
21.633179
 21
1.981846
 31
0.0
  0
LINE
  8
OBJECT
 10
21.583179
 20
1.931846
 30
0.0
 11
16.803179
 21
1.931846
 31
0.0
  0
LINE
  8
OBJECT
 10
16.753179
 20
8.761846
 30
0.0
 11
16.753179
 21
1.981846
 31
0.0
  0
ARC
  8
OBJECT
 10
3.710775
 20
8.649716
 30
0.0
 40
0.1
 50
95.0
 51
180.0
  0
LINE
  8
OBJECT
 10
4.773775
 20
1.993846
 30
0.0
 11
4.773775
 21
1.933846
 31
0.0
  0
LINE
  8
OBJECT
 10
4.790775
 20
1.993846
 30
0.0
 11
4.790775
 21
1.933846
 31
0.0
  0
LINE
  8
OBJECT
 10
4.773775
 20
2.034228
 30
0.0
 11
4.773775
 21
2.166346
 31
0.0
  0
LINE
  8
HIDDEN
 10
4.672701
 20
2.368346
 30
0.0
 11
4.672701
 21
2.274346
 31
0.0
  0
LINE
  8
HIDDEN
 10
4.703701
 20
2.243346
 30
0.0
 11
4.672701
 21
2.274346
 31
0.0
  0
LINE
  8
HIDDEN
 10
4.703701
 20
2.399346
 30
0.0
 11
4.672701
 21
2.368346
 31
0.0
  0
LINE
  8
HIDDEN
 10
4.703701
 20
2.386346
 30
0.0
 11
4.763701
 21
2.386346
 31
0.0
  0
LINE
  8
HIDDEN
 10
4.703701
 20
2.256346
 30
0.0
 11
4.763701
 21
2.256346
 31
0.0
  0
LINE
  8
HIDDEN
 10
5.490775
 20
2.443346
 30
0.0
 11
4.763701
 21
2.443346
 31
0.0
  0
LINE
  8
HIDDEN
 10
5.490775
 20
2.199346
 30
0.0
 11
4.763701
 21
2.199346
 31
0.0
  0
LINE
  8
HIDDEN
 10
4.763701
 20
2.199346
 30
0.0
 11
4.763701
 21
2.443346
 31
0.0
  0
LINE
  8
HIDDEN
 10
4.672701
 20
2.368346
 30
0.0
 11
3.710701
 21
2.368346
 31
0.0
  0
LINE
  8
HIDDEN
 10
4.672701
 20
2.274346
 30
0.0
 11
3.710701
 21
2.274346
 31
0.0
  0
LINE
  8
OBJECT
 10
4.703701
 20
2.451346
 30
0.0
 11
3.710701
 21
2.451346
 31
0.0
  0
LINE
  8
OBJECT
 10
4.703701
 20
2.191346
 30
0.0
 11
3.710775
 21
2.191346
 31
0.0
  0
LINE
  8
OBJECT
 10
4.703701
 20
2.166346
 30
0.0
 11
4.703701
 21
2.476346
 31
0.0
  0
LINE
  8
OBJECT
 10
4.703701
 20
2.476346
 30
0.0
 11
5.390775
 21
2.476346
 31
0.0
  0
LINE
  8
OBJECT
 10
4.703701
 20
2.166346
 30
0.0
 11
5.390775
 21
2.166346
 31
0.0
  0
LINE
  8
OBJECT
 10
4.773701
 20
2.034228
 30
0.0
 11
4.773701
 21
2.166346
 31
0.0
  0
LINE
  8
OBJECT
 10
4.790775
 20
2.034228
 30
0.0
 11
4.790775
 21
2.166346
 31
0.0
  0
LINE
  8
OBJECT
 10
4.790775
 20
2.034228
 30
0.0
 11
4.703701
 21
2.034228
 31
0.0
  0
LINE
  8
OBJECT
 10
4.773701
 20
1.993846
 30
0.0
 11
4.790775
 21
1.993846
 31
0.0
  0
LINE
  8
OBJECT
 10
4.703701
 20
1.993846
 30
0.0
 11
4.703701
 21
2.040353
 31
0.0
  0
LINE
  8
OBJECT
 10
4.703701
 20
1.993846
 30
0.0
 11
4.773701
 21
1.993846
 31
0.0
  0
LINE
  8
OBJECT
 10
4.703701
 20
2.040353
 30
0.0
 11
3.710775
 21
2.093977
 31
0.0
  0
LINE
  8
OBJECT
 10
4.790775
 20
1.933846
 30
0.0
 11
4.790775
 21
1.993846
 31
0.0
  0
LINE
  8
OBJECT
 10
4.773701
 20
1.933846
 30
0.0
 11
4.773701
 21
1.993846
 31
0.0
  0
LINE
  8
OBJECT
 10
4.790775
 20
1.933846
 30
0.0
 11
5.39949
 21
1.987102
 31
0.0
  0
LINE
  8
OBJECT
 10
4.773701
 20
1.933846
 30
0.0
 11
3.702059
 21
1.994357
 31
0.0
  0
LINE
  8
OBJECT
 10
4.773775
 20
8.267346
 30
0.0
 11
4.773775
 21
5.526846
 31
0.0
  0
LINE
  8
OBJECT
 10
4.790775
 20
8.267346
 30
0.0
 11
4.790775
 21
5.526846
 31
0.0
  0
LINE
  8
OBJECT
 10
4.773701
 20
8.809846
 30
0.0
 11
3.702059
 21
8.749336
 31
0.0
  0
LINE
  8
OBJECT
 10
4.790775
 20
8.809846
 30
0.0
 11
5.39949
 21
8.756591
 31
0.0
  0
LINE
  8
OBJECT
 10
4.773701
 20
8.809846
 30
0.0
 11
4.773701
 21
8.749846
 31
0.0
  0
LINE
  8
OBJECT
 10
4.790775
 20
8.809846
 30
0.0
 11
4.790775
 21
8.749846
 31
0.0
  0
LINE
  8
OBJECT
 10
4.703701
 20
8.70334
 30
0.0
 11
3.710775
 21
8.649716
 31
0.0
  0
LINE
  8
OBJECT
 10
4.703701
 20
8.749846
 30
0.0
 11
4.773701
 21
8.749846
 31
0.0
  0
LINE
  8
OBJECT
 10
4.703701
 20
8.749846
 30
0.0
 11
4.703701
 21
8.70334
 31
0.0
  0
LINE
  8
OBJECT
 10
4.773701
 20
8.749846
 30
0.0
 11
4.790775
 21
8.749846
 31
0.0
  0
LINE
  8
OBJECT
 10
4.790775
 20
8.709464
 30
0.0
 11
4.703701
 21
8.709464
 31
0.0
  0
LINE
  8
OBJECT
 10
4.790775
 20
8.709464
 30
0.0
 11
4.790775
 21
8.577346
 31
0.0
  0
LINE
  8
OBJECT
 10
4.773701
 20
8.709464
 30
0.0
 11
4.773701
 21
8.577346
 31
0.0
  0
LINE
  8
OBJECT
 10
4.703701
 20
8.577346
 30
0.0
 11
5.390775
 21
8.577346
 31
0.0
  0
LINE
  8
OBJECT
 10
4.703701
 20
8.267346
 30
0.0
 11
5.390775
 21
8.267346
 31
0.0
  0
LINE
  8
OBJECT
 10
4.703701
 20
8.577346
 30
0.0
 11
4.703701
 21
8.267346
 31
0.0
  0
LINE
  8
OBJECT
 10
4.703701
 20
8.552346
 30
0.0
 11
3.710775
 21
8.552346
 31
0.0
  0
LINE
  8
OBJECT
 10
4.703701
 20
8.292346
 30
0.0
 11
3.710701
 21
8.292346
 31
0.0
  0
LINE
  8
HIDDEN
 10
4.672701
 20
8.469346
 30
0.0
 11
3.710701
 21
8.469346
 31
0.0
  0
LINE
  8
HIDDEN
 10
4.672701
 20
8.375346
 30
0.0
 11
3.710701
 21
8.375346
 31
0.0
  0
LINE
  8
HIDDEN
 10
4.763701
 20
8.544346
 30
0.0
 11
4.763701
 21
8.300346
 31
0.0
  0
LINE
  8
HIDDEN
 10
5.490775
 20
8.544346
 30
0.0
 11
4.763701
 21
8.544346
 31
0.0
  0
LINE
  8
HIDDEN
 10
5.490775
 20
8.300346
 30
0.0
 11
4.763701
 21
8.300346
 31
0.0
  0
LINE
  8
HIDDEN
 10
4.703701
 20
8.487346
 30
0.0
 11
4.763701
 21
8.487346
 31
0.0
  0
LINE
  8
HIDDEN
 10
4.703701
 20
8.357346
 30
0.0
 11
4.763701
 21
8.357346
 31
0.0
  0
LINE
  8
HIDDEN
 10
4.703701
 20
8.344346
 30
0.0
 11
4.672701
 21
8.375346
 31
0.0
  0
LINE
  8
HIDDEN
 10
4.703701
 20
8.500346
 30
0.0
 11
4.672701
 21
8.469346
 31
0.0
  0
LINE
  8
HIDDEN
 10
4.672701
 20
8.375346
 30
0.0
 11
4.672701
 21
8.469346
 31
0.0
  0
LINE
  8
OBJECT
 10
5.490775
 20
8.656971
 30
0.0
 11
5.490775
 21
2.086722
 31
0.0
  0
LINE
  8
OBJECT
 10
4.773775
 20
8.709464
 30
0.0
 11
4.773775
 21
8.577346
 31
0.0
  0
LINE
  8
OBJECT
 10
3.710775
 20
2.093977
 30
0.0
 11
3.710775
 21
8.649716
 31
0.0
  0
LINE
  8
CENTER
 10
3.430906
 20
5.371846
 30
0.0
 11
5.670644
 21
5.371846
 31
0.0
  0
LINE
  8
OBJECT
 10
3.610775
 20
2.093977
 30
0.0
 11
3.610775
 21
8.649716
 31
0.0
  0
LINE
  8
HIDDEN
 10
21.398679
 20
14.178127
 30
0.0
 11
21.398679
 21
14.091053
 31
0.0
  0
LINE
  8
HIDDEN
 10
21.088679
 20
14.178127
 30
0.0
 11
21.088679
 21
14.091053
 31
0.0
  0
LINE
  8
HIDDEN
 10
21.398679
 20
14.178127
 30
0.0
 11
21.088679
 21
14.178127
 31
0.0
  0
LINE
  8
HIDDEN
 10
21.373679
 20
14.178127
 30
0.0
 11
21.373679
 21
15.739903
 31
0.0
  0
LINE
  8
HIDDEN
 10
21.113679
 20
14.178127
 30
0.0
 11
21.113679
 21
15.687343
 31
0.0
  0
LINE
  8
HIDDEN
 10
21.290679
 20
14.209127
 30
0.0
 11
21.290679
 21
15.723124
 31
0.0
  0
LINE
  8
HIDDEN
 10
21.196679
 20
14.209127
 30
0.0
 11
21.196679
 21
15.704122
 31
0.0
  0
LINE
  8
HIDDEN
 10
21.365679
 20
14.118127
 30
0.0
 11
21.121679
 21
14.118127
 31
0.0
  0
LINE
  8
HIDDEN
 10
21.365679
 20
13.391053
 30
0.0
 11
21.365679
 21
14.118127
 31
0.0
  0
LINE
  8
HIDDEN
 10
21.121679
 20
13.391053
 30
0.0
 11
21.121679
 21
14.118127
 31
0.0
  0
LINE
  8
HIDDEN
 10
21.308679
 20
14.178127
 30
0.0
 11
21.308679
 21
14.118127
 31
0.0
  0
LINE
  8
HIDDEN
 10
21.178679
 20
14.178127
 30
0.0
 11
21.178679
 21
14.118127
 31
0.0
  0
LINE
  8
HIDDEN
 10
21.165679
 20
14.178127
 30
0.0
 11
21.196679
 21
14.209127
 31
0.0
  0
LINE
  8
HIDDEN
 10
21.321679
 20
14.178127
 30
0.0
 11
21.290679
 21
14.209127
 31
0.0
  0
LINE
  8
HIDDEN
 10
21.196679
 20
14.209127
 30
0.0
 11
21.290679
 21
14.209127
 31
0.0
  0
LINE
  8
HIDDEN
 10
17.189679
 20
14.209127
 30
0.0
 11
17.095679
 21
14.209127
 31
0.0
  0
LINE
  8
HIDDEN
 10
17.064679
 20
14.178127
 30
0.0
 11
17.095679
 21
14.209127
 31
0.0
  0
LINE
  8
HIDDEN
 10
17.220679
 20
14.178127
 30
0.0
 11
17.189679
 21
14.209127
 31
0.0
  0
LINE
  8
HIDDEN
 10
17.207679
 20
14.178127
 30
0.0
 11
17.207679
 21
14.118127
 31
0.0
  0
LINE
  8
HIDDEN
 10
17.077679
 20
14.178127
 30
0.0
 11
17.077679
 21
14.118127
 31
0.0
  0
LINE
  8
HIDDEN
 10
17.264679
 20
13.391053
 30
0.0
 11
17.264679
 21
14.118127
 31
0.0
  0
LINE
  8
HIDDEN
 10
17.020679
 20
13.391053
 30
0.0
 11
17.020679
 21
14.118127
 31
0.0
  0
LINE
  8
HIDDEN
 10
17.020679
 20
14.118127
 30
0.0
 11
17.264679
 21
14.118127
 31
0.0
  0
LINE
  8
HIDDEN
 10
17.189679
 20
14.209127
 30
0.0
 11
17.189679
 21
14.930951
 31
0.0
  0
LINE
  8
HIDDEN
 10
17.095679
 20
14.209127
 30
0.0
 11
17.095679
 21
14.930951
 31
0.0
  0
LINE
  8
OBJECT
 10
17.272679
 20
14.178127
 30
0.0
 11
17.272679
 21
14.910866
 31
0.0
  0
LINE
  8
OBJECT
 10
17.012679
 20
14.858306
 30
0.0
 11
17.012679
 21
14.178127
 31
0.0
  0
LINE
  8
OBJECT
 10
16.987679
 20
14.178127
 30
0.0
 11
17.297679
 21
14.178127
 31
0.0
  0
LINE
  8
OBJECT
 10
17.297679
 20
14.108127
 30
0.0
 11
21.631179
 21
14.108127
 31
0.0
  0
LINE
  8
OBJECT
 10
17.297679
 20
14.091053
 30
0.0
 11
21.631179
 21
14.091053
 31
0.0
  0
LINE
  8
OBJECT
 10
17.297679
 20
14.178127
 30
0.0
 11
17.297679
 21
13.391053
 31
0.0
  0
LINE
  8
OBJECT
 10
16.987679
 20
14.178127
 30
0.0
 11
16.987679
 21
13.391053
 31
0.0
  0
LINE
  8
OBJECT
 10
16.855561
 20
14.108127
 30
0.0
 11
16.987679
 21
14.108127
 31
0.0
  0
LINE
  8
OBJECT
 10
16.855561
 20
14.091053
 30
0.0
 11
16.987679
 21
14.091053
 31
0.0
  0
LINE
  8
OBJECT
 10
16.855561
 20
14.091053
 30
0.0
 11
16.855561
 21
14.178127
 31
0.0
  0
LINE
  8
OBJECT
 10
16.815179
 20
14.108127
 30
0.0
 11
16.815179
 21
14.091053
 31
0.0
  0
LINE
  8
OBJECT
 10
16.815179
 20
14.178127
 30
0.0
 11
16.861686
 21
14.178127
 31
0.0
  0
LINE
  8
OBJECT
 10
16.815179
 20
14.178127
 30
0.0
 11
16.815179
 21
14.108127
 31
0.0
  0
LINE
  8
OBJECT
 10
16.755179
 20
14.091053
 30
0.0
 11
16.815179
 21
14.091053
 31
0.0
  0
LINE
  8
OBJECT
 10
16.755179
 20
14.108127
 30
0.0
 11
16.815179
 21
14.108127
 31
0.0
  0
LINE
  8
OBJECT
 10
21.631179
 20
14.091053
 30
0.0
 11
21.577924
 21
13.482338
 31
0.0
  0
LINE
  8
OBJECT
 10
16.755179
 20
14.091053
 30
0.0
 11
16.808435
 21
13.482338
 31
0.0
  0
LINE
  8
OBJECT
 10
16.908055
 20
13.391053
 30
0.0
 11
21.478304
 21
13.391053
 31
0.0
  0
LINE
  8
CENTER
 10
19.193179
 20
15.499408
 30
0.0
 11
19.193179
 21
13.277431
 31
0.0
  0
LINE
  8
OBJECT
 10
16.850381
 20
14.923582
 30
0.0
 11
21.367116
 21
15.838989
 31
0.0
  0
TEXT
  8
TEXT
 10
5.64988
 20
16.405758
 30
0.0
 40
0.3125
  1
TOP AND END INSERTS.
 41
0.75
  7
TXT
  0
LINE
  8
OBJECT
 10
3.610775
 20
8.541846
 30
0.0
 11
3.625775
 21
8.541846
 31
0.0
  0
LINE
  8
OBJECT
 10
3.610775
 20
2.201846
 30
0.0
 11
3.625775
 21
2.201846
 31
0.0
  0
LINE
  8
OBJECT
 10
3.625775
 20
2.201846
 30
0.0
 11
3.625775
 21
8.541846
 31
0.0
  0
ARC
  8
HIDDEN
 10
16.858179
 20
8.706846
 30
0.0
 40
0.04
 50
90.0
 51
180.0
  0
ARC
  8
HIDDEN
 10
16.858179
 20
2.036846
 30
0.0
 40
0.04
 50
180.0
 51
270.0
  0
LINE
  8
HIDDEN
 10
17.095679
 20
14.930951
 30
0.0
 11
17.189679
 21
14.930951
 31
0.0
  0
ARC
  8
OBJECT
 10
3.710775
 20
2.093977
 30
0.0
 40
0.1
 50
180.0
 51
265.0
  0
TEXT
  8
TEXT
 10
1.3608
 20
18.046248
 30
0.0
 40
0.3125
  1
%%UMATERIAL:%%U HIGH-IMPACT ABS
 41
0.75
  7
TXT
  0
TEXT
  8
TEXT
 10
1.3608
 20
17.502441
 30
0.0
 40
0.3125
  1
%%UCOLOR:%%U BLACK OR GRAY
 41
0.75
  7
TXT
  0
TEXT
  8
TEXT
 10
1.3608
 20
16.873765
 30
0.0
 40
0.3125
  1
%%UFINISH:%%U PREFIX PSS- TEXTURED BODY WITH SMOOTH
 41
0.75
  7
TXT
  0
TEXT
  8
TEXT
 10
1.3608
 20
14.151235
 30
0.0
 40
0.3125
  1
SIX (6) #4 x 0.375" LG. SCREWS
 41
0.75
  7
TXT
  0
TEXT
  8
TEXT
 10
1.621763
 20
13.692905
 30
0.0
 40
0.3125
  1
SUPPLIED FOR ASSEMBLING TOP.
 41
0.75
  7
TXT
  0
LINE
  8
OBJECT
 10
21.631179
 20
14.108127
 30
0.0
 11
21.486598
 21
15.749697
 31
0.0
  0
ARC
  8
OBJECT
 10
21.386979
 20
15.740982
 30
0.0
 40
0.1
 50
5.0
 51
101.456955
  0
LINE
  8
HIDDEN
 10
21.529304
 20
14.108127
 30
0.0
 11
21.385373
 21
15.742267
 31
0.0
  0
TEXT
  8
TEXT
 10
0.755555
 20
5.59807
 30
0.0
 40
0.3125
  1
*
 41
0.75
  7
TXT
  0
TEXT
  8
TEXT
 10
17.972814
 20
17.384832
 30
0.0
 40
0.3125
  1
*
 41
0.75
  7
TXT
  0
TEXT
  8
TEXT
 10
13.658914
 20
36.194188
 30
0.0
 40
0.3125
  1
PREFIX PT - TEXTURED BODY WITH TEXTURED TOP.
 41
0.75
  7
TXT
  0
DIMENSION
  8
DIM
  2
*D18
 10
20.870896
 20
35.462442
 30
0.0
 11
16.300896
 21
35.462442
 31
0.0
 12
0.74508
 22
0.519384
 32
0.0
 13
11.730896
 23
34.677505
 33
0.0
 14
20.870896
 24
34.677505
 34
0.0
  3
STD
  0
DIMENSION
  8
DIM
  2
*D0
 10
13.625168
 20
33.177505
 30
0.0
 11
12.559543
 21
32.277505
 31
0.0
 12
0.74508
 22
2.003131
 32
0.0
 13
12.931396
 23
33.587505
 33
0.0
 14
13.621942
 24
33.177505
 34
0.0
 50
90.0
  3
STD
  0
DIMENSION
  8
DIM
  2
*D1
 10
21.988702
 20
33.177505
 30
0.0
 11
21.988702
 21
33.527505
 31
0.0
 12
0.74508
 22
2.003131
 32
0.0
 13
21.050896
 23
33.877505
 33
0.0
 14
20.89802
 24
33.177505
 34
0.0
 50
90.0
  3
DIM
  0
DIMENSION
  8
DIM
  2
*D2
 10
23.306798
 20
34.677505
 30
0.0
 11
23.306798
 21
33.927505
 31
0.0
 12
0.74508
 22
2.003131
 32
0.0
 13
20.89802
 23
33.177505
 33
0.0
 14
20.890765
 24
34.677505
 34
0.0
 50
90.0
  3
DIM
  0
LINE
  8
CENTER
 10
20.676396
 20
27.558508
 30
0.0
 11
20.676396
 21
28.560615
 31
0.0
  0
DIMENSION
  8
DIM
  2
*D3
 10
17.176396
 20
29.003024
 30
0.0
 11
18.750614
 21
29.003024
 31
0.0
 12
0.74508
 22
-0.166322
 32
0.0
 13
16.301396
 23
28.634533
 33
0.0
 14
17.176396
 24
27.898312
 34
0.0
  3
STD
  0
DIMENSION
  8
DIM
  2
*D4
 10
20.176396
 20
29.688451
 30
0.0
 11
18.238896
 21
29.688451
 31
0.0
 12
0.74508
 22
-0.166322
 32
0.0
 13
16.301396
 23
28.634533
 33
0.0
 14
20.176396
 24
27.898312
 34
0.0
  3
STD
  0
DIMENSION
  8
DIM
  2
*D17
 10
16.301396
 20
30.357752
 30
0.0
 11
18.488896
 21
30.357752
 31
0.0
 12
0.74508
 22
-0.166322
 32
0.0
 13
20.676396
 23
28.560615
 33
0.0
 14
16.301396
 24
28.634533
 34
0.0
  3
STD
  0
DIMENSION
  8
DIM
  2
*D16
 10
16.301396
 20
30.357752
 30
0.0
 11
14.113896
 21
30.357752
 31
0.0
 12
0.74508
 22
-0.166322
 32
0.0
 13
11.926396
 23
28.560615
 33
0.0
 14
16.301396
 24
28.634533
 34
0.0
  3
STD
  0
LINE
  8
CENTER
 10
11.926396
 20
27.558508
 30
0.0
 11
11.926396
 21
28.560615
 31
0.0
  0
DIMENSION
  8
DIM
  2
*D15
 10
11.550896
 20
30.889964
 30
0.0
 11
16.300896
 21
30.889964
 31
0.0
 12
0.74508
 22
-0.166322
 32
0.0
 13
21.050896
 23
28.348312
 33
0.0
 14
11.550896
 24
28.348312
 34
0.0
  3
STD
  0
DIMENSION
  8
DIM
  2
*D7
 10
17.301396
 20
21.41857
 30
0.0
 11
16.801396
 21
21.48107
 31
0.0
 12
0.74508
 22
-0.228822
 32
0.0
 13
16.301396
 23
21.75959
 33
0.0
 14
17.301396
 24
21.949351
 34
0.0
  3
DIM
  0
DIMENSION
  8
DIM
  2
*D6
 10
15.301396
 20
20.926675
 30
0.0
 11
15.801396
 21
20.989175
 31
0.0
 12
0.74508
 22
-0.228822
 32
0.0
 13
16.301396
 23
21.75959
 33
0.0
 14
15.301396
 24
21.949351
 34
0.0
  3
DIM
  0
DIMENSION
  8
DIM
  2
*D5
 10
19.801396
 20
20.373496
 30
0.0
 11
18.051396
 21
20.435996
 31
0.0
 12
0.74508
 22
-0.228822
 32
0.0
 13
16.301396
 23
21.75959
 33
0.0
 14
19.801396
 24
21.949351
 34
0.0
  3
STD
  0
DIMENSION
  8
DIM
  2
*D8
 10
12.801396
 20
20.373496
 30
0.0
 11
14.551396
 21
20.435996
 31
0.0
 12
0.74508
 22
-0.228822
 32
0.0
 13
16.301396
 23
21.75959
 33
0.0
 14
12.801396
 24
21.949351
 34
0.0
  3
STD
  0
DIMENSION
  8
DIM
  2
*D9
 10
22.091935
 20
27.898312
 30
0.0
 11
22.091935
 21
26.563312
 31
0.0
 12
0.74508
 22
-0.166322
 32
0.0
 13
21.315489
 23
25.228312
 33
0.0
 14
20.176396
 24
27.898312
 34
0.0
 50
90.0
  3
DIM
  0
DIMENSION
  8
DIM
  2
*D14
 10
23.32775
 20
28.398312
 30
0.0
 11
23.32775
 21
25.228312
 31
0.0
 12
0.74508
 22
-0.166322
 32
0.0
 13
21.000896
 23
22.058312
 33
0.0
 14
21.000896
 24
28.398312
 34
0.0
 50
90.0
  3
DIM
  0
DIMENSION
  8
DIM
  2
*D10
 10
22.091935
 20
22.558312
 30
0.0
 11
22.091935
 21
23.893312
 31
0.0
 12
0.74508
 22
-0.166322
 32
0.0
 13
21.315489
 23
25.228312
 33
0.0
 14
20.176396
 24
22.558312
 34
0.0
 50
90.0
  3
DIM
  0
SOLID
  8
DIM
 10
21.339416
 20
28.661507
 30
0.0
 11
21.211821
 21
28.74037
 31
0.0
 12
21.039028
 22
28.380653
 32
0.0
 13
21.039028
 23
28.380653
 33
0.0
  0
LINE
  8
DIM
 10
21.275618
 20
28.700938
 30
0.0
 11
21.878001
 21
29.675549
 31
0.0
  0
LINE
  8
DIM
 10
21.878001
 20
29.675549
 30
0.0
 11
22.328001
 21
29.675549
 31
0.0
  0
TEXT
  8
DIM
 10
22.553001
 20
29.519299
 30
0.0
 40
0.3125
  1
0.100 R. TYP.
 41
0.75
  7
TXT
 11
22.553001
 21
29.675549
 31
0.0
 73
     2
  0
DIMENSION
  8
DIM
  2
*D56
 10
10.630666
 20
27.978312
 30
0.0
 11
10.630666
 21
26.603312
 31
0.0
 13
11.286302
 23
25.228312
 33
0.0
 14
11.367521
 24
27.978312
 34
0.0
 50
90.0
  3
DIM
  0
DIMENSION
  8
DIM
  2
*D57
 10
10.630666
 20
22.478312
 30
0.0
 11
10.630666
 21
23.853312
 31
0.0
 13
11.286302
 23
25.228312
 33
0.0
 14
11.367521
 24
22.478312
 34
0.0
 50
90.0
  3
DIM
  0
DIMENSION
  8
DIM
  2
*D58
 10
10.630666
 20
22.058312
 30
0.0
 11
9.525979
 21
21.158312
 31
0.0
 13
11.367521
 23
22.478312
 33
0.0
 14
11.600896
 24
22.058312
 34
0.0
 50
90.0
  3
STD
  0
POLYLINE
  8
OBJECT
 66
     1
 10
0.0
 20
0.0
 30
0.0
 70
     4
 75
     6
  0
VERTEX
  8
OBJECT
 10
16.042564
 20
28.398312
 30
0.0
 70
    16
  0
VERTEX
  8
OBJECT
 10
16.042564
 20
28.398312
 30
0.0
 70
     8
  0
VERTEX
  8
OBJECT
 10
16.078265
 20
28.210526
 30
0.0
 70
     8
  0
VERTEX
  8
OBJECT
 10
16.080572
 20
28.05647
 30
0.0
 70
     8
  0
VERTEX
  8
OBJECT
 10
16.05746
 20
27.931311
 30
0.0
 70
     8
  0
VERTEX
  8
OBJECT
 10
16.016902
 20
27.830215
 30
0.0
 70
     8
  0
VERTEX
  8
OBJECT
 10
15.966872
 20
27.74835
 30
0.0
 70
     8
  0
VERTEX
  8
OBJECT
 10
15.915344
 20
27.680883
 30
0.0
 70
     8
  0
VERTEX
  8
OBJECT
 10
15.870291
 20
27.62298
 30
0.0
 70
     8
  0
VERTEX
  8
OBJECT
 10
15.839687
 20
27.56981
 30
0.0
 70
     8
  0
VERTEX
  8
OBJECT
 10
15.829333
 20
27.51737
 30
0.0
 70
     8
  0
VERTEX
  8
OBJECT
 10
15.836333
 20
27.46498
 30
0.0
 70
     8
  0
VERTEX
  8
OBJECT
 10
15.855618
 20
27.412792
 30
0.0
 70
     8
  0
VERTEX
  8
OBJECT
 10
15.882121
 20
27.360957
 30
0.0
 70
     8
  0
VERTEX
  8
OBJECT
 10
15.910774
 20
27.309625
 30
0.0
 70
     8
  0
VERTEX
  8
OBJECT
 10
15.936506
 20
27.258949
 30
0.0
 70
     8
  0
VERTEX
  8
OBJECT
 10
15.954251
 20
27.209079
 30
0.0
 70
     8
  0
VERTEX
  8
OBJECT
 10
15.95894
 20
27.160167
 30
0.0
 70
     8
  0
VERTEX
  8
OBJECT
 10
15.94708
 20
27.112274
 30
0.0
 70
     8
  0
VERTEX
  8
OBJECT
 10
15.921484
 20
27.065102
 30
0.0
 70
     8
  0
VERTEX
  8
OBJECT
 10
15.886543
 20
27.018264
 30
0.0
 70
     8
  0
VERTEX
  8
OBJECT
 10
15.846645
 20
26.971372
 30
0.0
 70
     8
  0
VERTEX
  8
OBJECT
 10
15.80618
 20
26.92404
 30
0.0
 70
     8
  0
VERTEX
  8
OBJECT
 10
15.769537
 20
26.875879
 30
0.0
 70
     8
  0
VERTEX
  8
OBJECT
 10
15.741105
 20
26.826502
 30
0.0
 70
     8
  0
VERTEX
  8
OBJECT
 10
15.725275
 20
26.775522
 30
0.0
 70
     8
  0
VERTEX
  8
OBJECT
 10
15.72499
 20
26.722681
 30
0.0
 70
     8
  0
VERTEX
  8
OBJECT
 10
15.737413
 20
26.668243
 30
0.0
 70
     8
  0
VERTEX
  8
OBJECT
 10
15.758262
 20
26.612602
 30
0.0
 70
     8
  0
VERTEX
  8
OBJECT
 10
15.783254
 20
26.556151
 30
0.0
 70
     8
  0
VERTEX
  8
OBJECT
 10
15.808108
 20
26.499285
 30
0.0
 70
     8
  0
VERTEX
  8
OBJECT
 10
15.828541
 20
26.442397
 30
0.0
 70
     8
  0
VERTEX
  8
OBJECT
 10
15.840271
 20
26.38588
 30
0.0
 70
     8
  0
VERTEX
  8
OBJECT
 10
15.839015
 20
26.330129
 30
0.0
 70
     8
  0
VERTEX
  8
OBJECT
 10
15.821895
 20
26.2755
 30
0.0
 70
     8
  0
VERTEX
  8
OBJECT
 10
15.791644
 20
26.222207
 30
0.0
 70
     8
  0
VERTEX
  8
OBJECT
 10
15.752401
 20
26.170427
 30
0.0
 70
     8
  0
VERTEX
  8
OBJECT
 10
15.708301
 20
26.120334
 30
0.0
 70
     8
  0
VERTEX
  8
OBJECT
 10
15.663483
 20
26.072107
 30
0.0
 70
     8
  0
VERTEX
  8
OBJECT
 10
15.622084
 20
26.02592
 30
0.0
 70
     8
  0
VERTEX
  8
OBJECT
 10
15.588242
 20
25.981951
 30
0.0
 70
     8
  0
VERTEX
  8
OBJECT
 10
15.566092
 20
25.940376
 30
0.0
 70
     8
  0
VERTEX
  8
OBJECT
 10
15.558706
 20
25.901289
 30
0.0
 70
     8
  0
VERTEX
  8
OBJECT
 10
15.564882
 20
25.86445
 30
0.0
 70
     8
  0
VERTEX
  8
OBJECT
 10
15.582352
 20
25.829539
 30
0.0
 70
     8
  0
VERTEX
  8
OBJECT
 10
15.608846
 20
25.796235
 30
0.0
 70
     8
  0
VERTEX
  8
OBJECT
 10
15.642096
 20
25.764216
 30
0.0
 70
     8
  0
VERTEX
  8
OBJECT
 10
15.679833
 20
25.733161
 30
0.0
 70
     8
  0
VERTEX
  8
OBJECT
 10
15.719788
 20
25.702748
 30
0.0
 70
     8
  0
VERTEX
  8
OBJECT
 10
15.759693
 20
25.672656
 30
0.0
 70
     8
  0
VERTEX
  8
OBJECT
 10
15.797478
 20
25.642619
 30
0.0
 70
     8
  0
VERTEX
  8
OBJECT
 10
15.831869
 20
25.612585
 30
0.0
 70
     8
  0
VERTEX
  8
OBJECT
 10
15.861791
 20
25.582557
 30
0.0
 70
     8
  0
VERTEX
  8
OBJECT
 10
15.886172
 20
25.552539
 30
0.0
 70
     8
  0
VERTEX
  8
OBJECT
 10
15.903935
 20
25.522533
 30
0.0
 70
     8
  0
VERTEX
  8
OBJECT
 10
15.914006
 20
25.492543
 30
0.0
 70
     8
  0
VERTEX
  8
OBJECT
 10
15.915311
 20
25.462572
 30
0.0
 70
     8
  0
VERTEX
  8
OBJECT
 10
15.906775
 20
25.432623
 30
0.0
 70
     8
  0
VERTEX
  8
OBJECT
 10
15.888019
 20
25.402685
 30
0.0
 70
     8
  0
VERTEX
  8
OBJECT
 10
15.861438
 20
25.372694
 30
0.0
 70
     8
  0
VERTEX
  8
OBJECT
 10
15.830124
 20
25.342571
 30
0.0
 70
     8
  0
VERTEX
  8
OBJECT
 10
15.797169
 20
25.312236
 30
0.0
 70
     8
  0
VERTEX
  8
OBJECT
 10
15.765664
 20
25.281612
 30
0.0
 70
     8
  0
VERTEX
  8
OBJECT
 10
15.738698
 20
25.250619
 30
0.0
 70
     8
  0
VERTEX
  8
OBJECT
 10
15.719365
 20
25.219179
 30
0.0
 70
     8
  0
VERTEX
  8
OBJECT
 10
15.710755
 20
25.187213
 30
0.0
 70
     8
  0
VERTEX
  8
OBJECT
 10
15.714796
 20
25.154632
 30
0.0
 70
     8
  0
VERTEX
  8
OBJECT
 10
15.728762
 20
25.121308
 30
0.0
 70
     8
  0
VERTEX
  8
OBJECT
 10
15.748766
 20
25.087102
 30
0.0
 70
     8
  0
VERTEX
  8
OBJECT
 10
15.770919
 20
25.051875
 30
0.0
 70
     8
  0
VERTEX
  8
OBJECT
 10
15.791332
 20
25.015489
 30
0.0
 70
     8
  0
VERTEX
  8
OBJECT
 10
15.806118
 20
24.977805
 30
0.0
 70
     8
  0
VERTEX
  8
OBJECT
 10
15.811388
 20
24.938685
 30
0.0
 70
     8
  0
VERTEX
  8
OBJECT
 10
15.803253
 20
24.89799
 30
0.0
 70
     8
  0
VERTEX
  8
OBJECT
 10
15.779331
 20
24.855658
 30
0.0
 70
     8
  0
VERTEX
  8
OBJECT
 10
15.743265
 20
24.811933
 30
0.0
 70
     8
  0
VERTEX
  8
OBJECT
 10
15.700204
 20
24.767138
 30
0.0
 70
     8
  0
VERTEX
  8
OBJECT
 10
15.655297
 20
24.721593
 30
0.0
 70
     8
  0
VERTEX
  8
OBJECT
 10
15.613691
 20
24.67562
 30
0.0
 70
     8
  0
VERTEX
  8
OBJECT
 10
15.580537
 20
24.629539
 30
0.0
 70
     8
  0
VERTEX
  8
OBJECT
 10
15.560983
 20
24.583673
 30
0.0
 70
     8
  0
VERTEX
  8
OBJECT
 10
15.560177
 20
24.538342
 30
0.0
 70
     8
  0
VERTEX
  8
OBJECT
 10
15.581295
 20
24.493773
 30
0.0
 70
     8
  0
VERTEX
  8
OBJECT
 10
15.619618
 20
24.449812
 30
0.0
 70
     8
  0
VERTEX
  8
OBJECT
 10
15.668453
 20
24.40621
 30
0.0
 70
     8
  0
VERTEX
  8
OBJECT
 10
15.721107
 20
24.362718
 30
0.0
 70
     8
  0
VERTEX
  8
OBJECT
 10
15.770887
 20
24.319088
 30
0.0
 70
     8
  0
VERTEX
  8
OBJECT
 10
15.811101
 20
24.27507
 30
0.0
 70
     8
  0
VERTEX
  8
OBJECT
 10
15.835055
 20
24.230416
 30
0.0
 70
     8
  0
VERTEX
  8
OBJECT
 10
15.836057
 20
24.184877
 30
0.0
 70
     8
  0
VERTEX
  8
OBJECT
 10
15.809825
 20
24.138268
 30
0.0
 70
     8
  0
VERTEX
  8
OBJECT
 10
15.761722
 20
24.090665
 30
0.0
 70
     8
  0
VERTEX
  8
OBJECT
 10
15.699521
 20
24.042204
 30
0.0
 70
     8
  0
VERTEX
  8
OBJECT
 10
15.630996
 20
23.993025
 30
0.0
 70
     8
  0
VERTEX
  8
OBJECT
 10
15.56392
 20
23.943266
 30
0.0
 70
     8
  0
VERTEX
  8
OBJECT
 10
15.506067
 20
23.893067
 30
0.0
 70
     8
  0
VERTEX
  8
OBJECT
 10
15.465211
 20
23.842565
 30
0.0
 70
     8
  0
VERTEX
  8
OBJECT
 10
15.449126
 20
23.791899
 30
0.0
 70
     8
  0
VERTEX
  8
OBJECT
 10
15.463094
 20
23.740949
 30
0.0
 70
     8
  0
VERTEX
  8
OBJECT
 10
15.502439
 20
23.68856
 30
0.0
 70
     8
  0
VERTEX
  8
OBJECT
 10
15.559994
 20
23.633317
 30
0.0
 70
     8
  0
VERTEX
  8
OBJECT
 10
15.628592
 20
23.573806
 30
0.0
 70
     8
  0
VERTEX
  8
OBJECT
 10
15.701066
 20
23.508612
 30
0.0
 70
     8
  0
VERTEX
  8
OBJECT
 10
15.770249
 20
23.436321
 30
0.0
 70
     8
  0
VERTEX
  8
OBJECT
 10
15.828973
 20
23.35552
 30
0.0
 70
     8
  0
VERTEX
  8
OBJECT
 10
15.870072
 20
23.264792
 30
0.0
 70
     8
  0
VERTEX
  8
OBJECT
 10
15.889317
 20
23.162816
 30
0.0
 70
     8
  0
VERTEX
  8
OBJECT
 10
15.894232
 20
23.048629
 30
0.0
 70
     8
  0
VERTEX
  8
OBJECT
 10
15.895281
 20
22.92136
 30
0.0
 70
     8
  0
VERTEX
  8
OBJECT
 10
15.902927
 20
22.780139
 30
0.0
 70
     8
  0
VERTEX
  8
OBJECT
 10
15.927632
 20
22.624095
 30
0.0
 70
     8
  0
VERTEX
  8
OBJECT
 10
15.979861
 20
22.452356
 30
0.0
 70
     8
  0
VERTEX
  8
OBJECT
 10
16.070075
 20
22.264052
 30
0.0
 70
     8
  0
VERTEX
  8
OBJECT
 10
16.208738
 20
22.058312
 30
0.0
 70
     8
  0
VERTEX
  8
OBJECT
 10
16.189378
 20
27.848282
 30
0.0
 70
    16
  0
VERTEX
  8
OBJECT
 10
15.60051
 20
27.570886
 30
0.0
 70
    16
  0
VERTEX
  8
OBJECT
 10
16.152271
 20
27.14834
 30
0.0
 70
    16
  0
VERTEX
  8
OBJECT
 10
15.544044
 20
26.796756
 30
0.0
 70
    16
  0
VERTEX
  8
OBJECT
 10
16.023204
 20
26.317764
 30
0.0
 70
    16
  0
VERTEX
  8
OBJECT
 10
15.39723
 20
25.912959
 30
0.0
 70
    16
  0
VERTEX
  8
OBJECT
 10
15.784431
 20
25.672656
 30
0.0
 70
    16
  0
VERTEX
  8
OBJECT
 10
16.023204
 20
25.432354
 30
0.0
 70
    16
  0
VERTEX
  8
OBJECT
 10
15.563404
 20
25.193664
 30
0.0
 70
    16
  0
VERTEX
  8
OBJECT
 10
15.987711
 20
24.916268
 30
0.0
 70
    16
  0
VERTEX
  8
OBJECT
 10
15.30527
 20
24.529203
 30
0.0
 70
    16
  0
VERTEX
  8
OBJECT
 10
16.152271
 20
24.196973
 30
0.0
 70
    16
  0
VERTEX
  8
OBJECT
 10
15.10199
 20
23.792168
 30
0.0
 70
    16
  0
VERTEX
  8
OBJECT
 10
16.134525
 20
23.38575
 30
0.0
 70
    16
  0
VERTEX
  8
OBJECT
 10
15.765071
 20
22.630974
 30
0.0
 70
    16
  0
VERTEX
  8
OBJECT
 10
16.208738
 20
22.058312
 30
0.0
 70
    16
  0
SEQEND
  8
OBJECT
  0
DIMENSION
  8
DIM
  2
*D21
 10
2.519451
 20
28.155812
 30
0.0
 11
2.519451
 21
25.165812
 31
0.0
 12
1.153122
 22
0.157845
 32
0.0
 13
4.827802
 23
22.175812
 33
0.0
 14
4.827802
 24
28.155812
 34
0.0
 50
90.0
  3
STD
  0
DIMENSION
  8
DIM
  2
*D19
 10
4.827802
 20
26.922552
 30
0.0
 11
3.312177
 21
26.922552
 31
0.0
 12
1.153122
 22
0.157845
 32
0.0
 13
4.842802
 23
26.922552
 33
0.0
 14
4.827802
 24
26.922552
 34
0.0
  3
STD
  0
DIMENSION
  8
DIM
  2
*D20
 10
4.827802
 20
24.501786
 30
0.0
 11
3.331708
 21
24.501786
 31
0.0
 12
1.153122
 22
0.157845
 32
0.0
 13
4.927802
 23
24.525978
 33
0.0
 14
4.827802
 24
24.525978
 34
0.0
  3
STD
  0
TEXT
  8
DIM
 10
2.953438
 20
23.972798
 30
0.0
 40
0.3125
  1
TYP.
 41
0.75
  7
TXT
  0
TEXT
  8
DIM
 10
2.677558
 20
26.351723
 30
0.0
 40
0.3125
  1
RECESS
 41
0.75
  7
TXT
  0
TEXT
  8
TEXT
 10
1.3608
 20
12.991426
 30
0.0
 40
0.3125
  1
FOUR (4) NON-SKID PUSH-ON FEET SUPPLIED.
 41
0.75
  7
TXT
  0
DIMENSION
  8
DIM
  2
*D22
 10
5.649842
 20
21.995812
 30
0.0
 11
6.905017
 21
23.159962
 31
0.0
 12
-0.331147
 22
-0.24696
 32
0.0
 70
   130
 13
5.644875
 23
21.995812
 33
0.0
 14
6.236518
 24
22.049067
 34
0.0
 15
5.644875
 25
21.995812
 35
0.0
 16
7.413218
 26
22.06328
 36
0.0
  3
STD
  0
TEXT
  8
DIM
 10
7.22636
 20
23.001911
 30
0.0
 40
0.3125
  1
TYP.
 41
0.75
  7
TXT
  0
DIMENSION
  8
DIM
  2
*D25
 10
21.631179
 20
14.153571
 30
0.0
 11
22.860264
 21
16.490763
 31
0.0
 12
1.937716
 22
2.963374
 32
0.0
 70
   130
 13
21.631179
 23
14.091053
 33
0.0
 14
21.486598
 24
15.749697
 34
0.0
 15
21.631179
 25
14.091053
 35
0.0
 16
21.519582
 26
16.742355
 36
0.0
  3
STD
  0
DIMENSION
  8
DIM
  2
*D23
 10
22.347223
 20
13.391053
 30
0.0
 11
22.347223
 21
13.741053
 31
0.0
 12
1.937716
 22
2.963374
 32
0.0
 13
21.631179
 23
14.091053
 33
0.0
 14
21.478304
 24
13.391053
 34
0.0
 50
90.0
  3
DIM
  0
DIMENSION
  8
DIM
  2
*D24
 10
23.313611
 20
15.840982
 30
0.0
 11
23.313611
 21
14.616018
 31
0.0
 12
1.937716
 22
2.963374
 32
0.0
 13
21.478304
 23
13.391053
 33
0.0
 14
21.386979
 24
15.840982
 34
0.0
 50
90.0
  3
STD
  0
TEXT
  8
DIM
 10
23.173251
 20
16.339162
 30
0.0
 40
0.3125
  1
TYP.
 41
0.75
  7
TXT
  0
DIMENSION
  8
DIM
  2
*D36
 10
19.228645
 20
15.840982
 30
0.0
 11
19.846552
 21
17.03104
 31
0.0
 12
1.937716
 22
0.089419
 32
0.0
 70
   130
 13
16.850381
 23
14.923582
 33
0.0
 14
21.367116
 24
15.838989
 34
0.0
 15
21.386979
 25
15.840982
 35
0.0
 16
19.485165
 26
15.78437
 36
0.0
  3
DIM
  0
LINE
  8
DIM
 10
19.228645
 20
15.840982
 30
0.0
 11
21.205061
 21
15.840982
 31
0.0
  0
DIMENSION
  8
DIM
  2
*D26
 10
20.907896
 20
17.895234
 30
0.0
 11
18.692928
 21
17.446327
 31
0.0
 12
1.937716
 22
2.963374
 32
0.0
 70
     1
 13
16.896376
 23
14.932904
 33
0.0
 14
21.326311
 24
15.830719
 34
0.0
  3
DIM
  0
LINE
  8
OBJECT
 10
16.896376
 20
14.932904
 30
0.0
 11
16.899355
 21
14.918203
 31
0.0
  0
LINE
  8
OBJECT
 10
21.326311
 20
15.830719
 30
0.0
 11
21.32929
 21
15.816018
 31
0.0
  0
DIMENSION
  8
DIM
  2
*D27
 10
4.190775
 20
9.703105
 30
0.0
 11
5.616011
 21
9.703105
 31
0.0
 12
-2.282092
 22
0.119226
 32
0.0
 13
5.490775
 23
8.656971
 33
0.0
 14
4.190775
 24
8.484846
 34
0.0
  3
DIM
  0
DIMENSION
  8
DIM
  2
*D30
 10
5.490775
 20
6.758189
 30
0.0
 11
7.820698
 21
6.758189
 31
0.0
 12
-2.282092
 22
0.119226
 32
0.0
 13
5.100775
 23
6.41162
 33
0.0
 14
5.490775
 24
6.758189
 34
0.0
  3
STD
  0
DIMENSION
  8
DIM
  2
*D29
 10
5.490775
 20
3.866494
 30
0.0
 11
7.781636
 21
3.866494
 31
0.0
 12
-2.282092
 22
0.119226
 32
0.0
 13
5.080775
 23
3.251846
 33
0.0
 14
5.490775
 24
3.82295
 34
0.0
  3
STD
  0
DIMENSION
  8
DIM
  2
*D28
 10
3.610775
 20
7.058164
 30
0.0
 11
2.870386
 21
7.058164
 31
0.0
 12
-2.282092
 22
2.973827
 32
0.0
 13
3.625775
 23
7.051713
 33
0.0
 14
3.610775
 24
7.051713
 34
0.0
  3
STD
  0
TEXT
  8
DIM
 10
1.445179
 20
6.485631
 30
0.0
 40
0.3125
  1
RECESS
 41
0.75
  7
TXT
 72
     1
 11
2.109241
 21
6.485631
 31
0.0
  0
DIMENSION
  8
DIM
  2
*D53
 10
1.170877
 20
8.541846
 30
0.0
 11
1.946113
 21
5.371846
 31
0.0
 12
-0.775236
 22
-0.298065
 32
0.0
 13
3.610775
 23
2.201846
 33
0.0
 14
3.610775
 24
8.541846
 34
0.0
 50
90.0
  3
STD
  0
TEXT
  8
DIM
 10
7.381623
 20
7.319433
 30
0.0
 40
0.3125
  1
TYP.
 41
0.75
  7
TXT
  0
DIMENSION
  8
DIM
  2
*D31
 10
4.837392
 20
8.809846
 30
0.0
 11
7.108969
 21
7.470697
 31
0.0
 12
-2.282092
 22
0.119226
 32
0.0
 70
   130
 13
4.790775
 23
8.809846
 33
0.0
 14
5.39949
 24
8.756591
 34
0.0
 15
4.790775
 25
8.809846
 35
0.0
 16
7.50585
 26
8.699627
 36
0.0
  3
STD
  0
DIMENSION
  8
DIM
  2
*D32
 10
3.610775
 20
4.203563
 30
0.0
 11
2.889917
 21
4.203563
 31
0.0
 12
-2.282092
 22
-2.785371
 32
0.0
 13
3.710775
 23
4.192274
 33
0.0
 14
3.610775
 24
4.192274
 34
0.0
  3
STD
  0
TEXT
  8
DIM
 10
1.805934
 20
3.632643
 30
0.0
 40
0.3125
  1
TYP.
 41
0.75
  7
TXT
  0
DIMENSION
  8
DIM
  2
*D48
 10
17.193179
 20
1.168332
 30
0.0
 11
18.193179
 21
1.168332
 31
0.0
 12
1.937716
 22
0.119226
 32
0.0
 13
19.193179
 23
1.633125
 33
0.0
 14
17.193179
 24
2.871846
 34
0.0
  3
DIM
  0
DIMENSION
  8
DIM
  2
*D47
 10
21.193179
 20
0.668374
 30
0.0
 11
20.193179
 21
0.668374
 31
0.0
 12
1.937716
 22
0.119226
 32
0.0
 13
19.193179
 23
1.633125
 33
0.0
 14
21.193179
 24
2.871846
 34
0.0
  3
DIM
  0
DIMENSION
  8
DIM
  2
*D33
 10
20.035437
 20
5.371846
 30
0.0
 11
20.035437
 21
6.490846
 31
0.0
 12
1.937716
 22
0.119226
 32
0.0
 13
19.977357
 23
7.609846
 33
0.0
 14
19.977357
 24
5.371846
 34
0.0
 50
90.0
  3
DIM
  0
DIMENSION
  8
DIM
  2
*D34
 10
20.035437
 20
8.484846
 30
0.0
 11
20.035437
 21
8.047346
 31
0.0
 12
1.937716
 22
0.119226
 32
0.0
 13
19.977357
 23
7.609846
 33
0.0
 14
19.977357
 24
8.484846
 34
0.0
 50
90.0
  3
DIM
  0
DIMENSION
  8
DIM
  2
*D35
 10
18.205914
 20
4.871846
 30
0.0
 11
18.205914
 21
5.121846
 31
0.0
 12
1.937716
 22
0.119226
 32
0.0
 13
18.205914
 23
5.371846
 33
0.0
 14
18.205914
 24
4.871846
 34
0.0
 50
90.0
  3
DIM
  0
DIMENSION
  8
DIM
  2
*D45
 10
18.093179
 20
9.585373
 30
0.0
 11
18.643179
 21
9.585373
 31
0.0
 12
1.937716
 22
0.119226
 32
0.0
 13
19.193179
 23
9.110568
 33
0.0
 14
18.093179
 24
8.484846
 34
0.0
  3
DIM
  0
DIMENSION
  8
DIM
  2
*D44
 10
20.293179
 20
10.146617
 30
0.0
 11
19.743179
 21
10.146617
 31
0.0
 12
1.937716
 22
0.119226
 32
0.0
 13
19.193179
 23
9.110568
 33
0.0
 14
20.293179
 24
8.484846
 34
0.0
  3
DIM
  0
DIMENSION
  8
DIM
  2
*D43
 10
17.131179
 20
10.60303
 30
0.0
 11
18.162179
 21
10.60303
 31
0.0
 12
1.937716
 22
0.119226
 32
0.0
 13
19.193179
 23
9.110568
 33
0.0
 14
17.131179
 24
8.975615
 34
0.0
  3
DIM
  0
TEXT
  8
TEXT
 10
5.652768
 20
14.908619
 30
0.0
 40
0.3125
  1
BATTERY COMPARTMENT.
 41
0.75
  7
TXT
  0
DIMENSION
  8
DIM
  2
*D42
 10
21.255179
 20
11.128793
 30
0.0
 11
20.224179
 21
11.128793
 31
0.0
 12
1.937716
 22
0.119226
 32
0.0
 13
19.193179
 23
9.110568
 33
0.0
 14
21.255179
 24
8.975615
 34
0.0
  3
DIM
  0
DIMENSION
  8
DIM
  2
*D41
 10
21.633179
 20
11.764224
 30
0.0
 11
19.193179
 21
11.764224
 31
0.0
 12
1.937716
 22
0.119226
 32
0.0
 13
16.753179
 23
8.761846
 33
0.0
 14
21.633179
 24
8.761846
 34
0.0
  3
DIM
  0
DIMENSION
  8
DIM
  2
*D40
 10
21.633179
 20
9.588599
 30
0.0
 11
23.207398
 21
9.588599
 31
0.0
 12
1.937716
 22
0.119226
 32
0.0
 13
21.255179
 23
8.975615
 33
0.0
 14
21.633179
 24
8.761846
 34
0.0
  3
STD
  0
TEXT
  8
DIM
 10
23.831492
 20
9.436998
 30
0.0
 40
0.3125
  1
TYP.
 41
0.75
  7
TXT
  0
DIMENSION
  8
DIM
  2
*D37
 10
20.432193
 20
2.871846
 30
0.0
 11
20.432193
 21
3.871846
 31
0.0
 12
1.937716
 22
0.119226
 32
0.0
 13
20.41606
 23
4.871846
 33
0.0
 14
20.41606
 24
2.871846
 34
0.0
 50
90.0
  3
DIM
  0
LINE
  8
CENTER
 10
20.98224
 20
8.434846
 30
0.0
 11
21.813452
 21
8.434846
 31
0.0
  0
LINE
  8
CENTER
 10
20.98224
 20
2.308846
 30
0.0
 11
21.813452
 21
2.308846
 31
0.0
  0
DIMENSION
  8
DIM
  2
*D38
 10
22.525329
 20
5.371846
 30
0.0
 11
22.525329
 21
6.903346
 31
0.0
 12
1.937716
 22
0.119226
 32
0.0
 13
21.813452
 23
8.434846
 33
0.0
 14
21.895773
 24
5.371846
 34
0.0
 50
90.0
  3
DIM
  0
DIMENSION
  8
DIM
  2
*D39
 10
22.525329
 20
5.371846
 30
0.0
 11
22.525329
 21
3.840346
 31
0.0
 12
1.937716
 22
0.119226
 32
0.0
 13
21.813452
 23
2.308846
 33
0.0
 14
21.895773
 24
5.371846
 34
0.0
 50
90.0
  3
DIM
  0
DIMENSION
  8
DIM
  2
*D46
 10
23.391691
 20
1.931846
 30
0.0
 11
23.391691
 21
5.371846
 31
0.0
 12
1.937716
 22
0.119226
 32
0.0
 13
21.583179
 23
8.811846
 33
0.0
 14
21.583179
 24
1.931846
 34
0.0
 50
90.0
  3
DIM
  0
DIMENSION
  8
DIM
  2
*D49
 10
15.792878
 20
5.996846
 30
0.0
 11
15.792878
 21
5.684346
 31
0.0
 12
1.937716
 22
0.119226
 32
0.0
 13
16.490586
 23
5.371846
 33
0.0
 14
16.6114
 24
5.996846
 34
0.0
 50
90.0
  3
DIM
  0
DIMENSION
  8
DIM
  2
*D50
 10
14.963624
 20
4.746846
 30
0.0
 11
14.963624
 21
5.059346
 31
0.0
 12
1.937716
 22
0.119226
 32
0.0
 13
16.490586
 23
5.371846
 33
0.0
 14
16.6114
 24
4.746846
 34
0.0
 50
90.0
  3
DIM
  0
DIMENSION
  8
DIM
  2
*D51
 10
14.108556
 20
7.621846
 30
0.0
 11
14.108556
 21
6.496846
 31
0.0
 12
1.937716
 22
0.119226
 32
0.0
 13
16.490586
 23
5.371846
 33
0.0
 14
16.6094
 24
7.621846
 34
0.0
 50
90.0
  3
DIM
  0
DIMENSION
  8
DIM
  2
*D52
 10
14.108556
 20
3.121846
 30
0.0
 11
14.108556
 21
4.246846
 31
0.0
 12
1.937716
 22
0.119226
 32
0.0
 13
16.490586
 23
5.371846
 33
0.0
 14
16.6094
 24
3.121846
 34
0.0
 50
90.0
  3
DIM
  0
SOLID
  8
DIM
 10
17.40427
 20
3.116373
 30
0.0
 11
17.506491
 21
3.006597
 31
0.0
 12
17.784709
 22
3.368149
 32
0.0
 13
17.784709
 23
3.368149
 33
0.0
  0
LINE
  8
DIM
 10
17.455381
 20
3.061485
 30
0.0
 11
16.13588
 21
1.832793
 31
0.0
  0
LINE
  8
DIM
 10
16.13588
 20
1.832793
 30
0.0
 11
15.68588
 21
1.832793
 31
0.0
  0
TEXT
  8
DIM
 10
13.664005
 20
1.676543
 30
0.0
 40
0.3125
  1
AREA FOR
 41
0.75
  7
TXT
 72
     2
 11
15.46088
 21
1.832793
 31
0.0
 73
     2
  0
TEXT
  8
DIM
 10
12.974761
 20
1.202389
 30
0.0
 40
0.3125
  1
CUSTOM MOLDING
 41
0.75
  7
TXT
 72
     2
 11
16.099761
 21
1.358639
 31
0.0
 73
     2
  0
LINE
  8
HIDDEN
 10
21.301798
 20
2.653839
 30
0.0
 11
21.481798
 21
2.653839
 31
0.0
  0
LINE
  8
HIDDEN
 10
21.301798
 20
2.701953
 30
0.0
 11
21.301798
 21
2.653839
 31
0.0
  0
LINE
  8
HIDDEN
 10
21.344314
 20
2.653839
 30
0.0
 11
21.344314
 21
2.593761
 31
0.0
  0
LINE
  8
HIDDEN
 10
21.481798
 20
2.701953
 30
0.0
 11
21.301798
 21
2.701953
 31
0.0
  0
LINE
  8
HIDDEN
 10
21.301798
 20
2.593761
 30
0.0
 11
21.481798
 21
2.593761
 31
0.0
  0
LINE
  8
HIDDEN
 10
21.301798
 20
2.545647
 30
0.0
 11
21.301798
 21
2.593761
 31
0.0
  0
LINE
  8
HIDDEN
 10
21.481798
 20
2.545647
 30
0.0
 11
21.301798
 21
2.545647
 31
0.0
  0
LINE
  8
HIDDEN
 10
21.301798
 20
4.332073
 30
0.0
 11
21.301798
 21
4.380187
 31
0.0
  0
LINE
  8
HIDDEN
 10
21.344314
 20
4.440265
 30
0.0
 11
21.344314
 21
4.380187
 31
0.0
  0
LINE
  8
HIDDEN
 10
21.301798
 20
4.488379
 30
0.0
 11
21.301798
 21
4.440265
 31
0.0
  0
LINE
  8
HIDDEN
 10
21.481798
 20
4.488379
 30
0.0
 11
21.301798
 21
4.488379
 31
0.0
  0
LINE
  8
HIDDEN
 10
21.301798
 20
4.380187
 30
0.0
 11
21.481798
 21
4.380187
 31
0.0
  0
LINE
  8
HIDDEN
 10
21.481798
 20
4.332073
 30
0.0
 11
21.301798
 21
4.332073
 31
0.0
  0
LINE
  8
HIDDEN
 10
21.301798
 20
4.440265
 30
0.0
 11
21.481798
 21
4.440265
 31
0.0
  0
LINE
  8
HIDDEN
 10
21.301798
 20
6.303428
 30
0.0
 11
21.481798
 21
6.303428
 31
0.0
  0
LINE
  8
HIDDEN
 10
21.481798
 20
6.41162
 30
0.0
 11
21.301798
 21
6.41162
 31
0.0
  0
LINE
  8
HIDDEN
 10
21.301798
 20
6.363506
 30
0.0
 11
21.481798
 21
6.363506
 31
0.0
  0
LINE
  8
HIDDEN
 10
21.481798
 20
6.255314
 30
0.0
 11
21.301798
 21
6.255314
 31
0.0
  0
LINE
  8
HIDDEN
 10
21.301798
 20
6.255314
 30
0.0
 11
21.301798
 21
6.303428
 31
0.0
  0
LINE
  8
HIDDEN
 10
21.344314
 20
6.303428
 30
0.0
 11
21.344314
 21
6.363506
 31
0.0
  0
LINE
  8
HIDDEN
 10
21.301798
 20
6.41162
 30
0.0
 11
21.301798
 21
6.363506
 31
0.0
  0
LINE
  8
HIDDEN
 10
21.481798
 20
8.198046
 30
0.0
 11
21.301798
 21
8.198046
 31
0.0
  0
LINE
  8
HIDDEN
 10
21.301798
 20
8.198046
 30
0.0
 11
21.301798
 21
8.149932
 31
0.0
  0
LINE
  8
HIDDEN
 10
21.301798
 20
8.149932
 30
0.0
 11
21.481798
 21
8.149932
 31
0.0
  0
LINE
  8
HIDDEN
 10
21.481798
 20
8.04174
 30
0.0
 11
21.301798
 21
8.04174
 31
0.0
  0
LINE
  8
HIDDEN
 10
21.344314
 20
8.089853
 30
0.0
 11
21.344314
 21
8.149932
 31
0.0
  0
LINE
  8
HIDDEN
 10
21.301798
 20
8.04174
 30
0.0
 11
21.301798
 21
8.089853
 31
0.0
  0
LINE
  8
HIDDEN
 10
21.301798
 20
8.089853
 30
0.0
 11
21.481798
 21
8.089853
 31
0.0
  0
LINE
  8
HIDDEN
 10
17.084561
 20
8.089853
 30
0.0
 11
16.904561
 21
8.089853
 31
0.0
  0
LINE
  8
HIDDEN
 10
17.084561
 20
8.04174
 30
0.0
 11
17.084561
 21
8.089853
 31
0.0
  0
LINE
  8
HIDDEN
 10
17.042045
 20
8.089853
 30
0.0
 11
17.042045
 21
8.149932
 31
0.0
  0
LINE
  8
HIDDEN
 10
16.904561
 20
8.04174
 30
0.0
 11
17.084561
 21
8.04174
 31
0.0
  0
LINE
  8
HIDDEN
 10
17.084561
 20
8.149932
 30
0.0
 11
16.904561
 21
8.149932
 31
0.0
  0
LINE
  8
HIDDEN
 10
17.084561
 20
8.198046
 30
0.0
 11
17.084561
 21
8.149932
 31
0.0
  0
LINE
  8
HIDDEN
 10
16.904561
 20
8.198046
 30
0.0
 11
17.084561
 21
8.198046
 31
0.0
  0
LINE
  8
HIDDEN
 10
17.084561
 20
6.41162
 30
0.0
 11
17.084561
 21
6.363506
 31
0.0
  0
LINE
  8
HIDDEN
 10
17.042045
 20
6.303428
 30
0.0
 11
17.042045
 21
6.363506
 31
0.0
  0
LINE
  8
HIDDEN
 10
17.084561
 20
6.255314
 30
0.0
 11
17.084561
 21
6.303428
 31
0.0
  0
LINE
  8
HIDDEN
 10
16.904561
 20
6.255314
 30
0.0
 11
17.084561
 21
6.255314
 31
0.0
  0
LINE
  8
HIDDEN
 10
17.084561
 20
6.363506
 30
0.0
 11
16.904561
 21
6.363506
 31
0.0
  0
LINE
  8
HIDDEN
 10
16.904561
 20
6.41162
 30
0.0
 11
17.084561
 21
6.41162
 31
0.0
  0
LINE
  8
HIDDEN
 10
17.084561
 20
6.303428
 30
0.0
 11
16.904561
 21
6.303428
 31
0.0
  0
LINE
  8
HIDDEN
 10
17.084561
 20
4.440265
 30
0.0
 11
16.904561
 21
4.440265
 31
0.0
  0
LINE
  8
HIDDEN
 10
16.904561
 20
4.332073
 30
0.0
 11
17.084561
 21
4.332073
 31
0.0
  0
LINE
  8
HIDDEN
 10
17.084561
 20
4.380187
 30
0.0
 11
16.904561
 21
4.380187
 31
0.0
  0
LINE
  8
HIDDEN
 10
16.904561
 20
4.488379
 30
0.0
 11
17.084561
 21
4.488379
 31
0.0
  0
LINE
  8
HIDDEN
 10
17.084561
 20
4.488379
 30
0.0
 11
17.084561
 21
4.440265
 31
0.0
  0
LINE
  8
HIDDEN
 10
17.042045
 20
4.440265
 30
0.0
 11
17.042045
 21
4.380187
 31
0.0
  0
LINE
  8
HIDDEN
 10
17.084561
 20
4.332073
 30
0.0
 11
17.084561
 21
4.380187
 31
0.0
  0
LINE
  8
HIDDEN
 10
16.904561
 20
2.545647
 30
0.0
 11
17.084561
 21
2.545647
 31
0.0
  0
LINE
  8
HIDDEN
 10
17.084561
 20
2.545647
 30
0.0
 11
17.084561
 21
2.593761
 31
0.0
  0
LINE
  8
HIDDEN
 10
17.084561
 20
2.593761
 30
0.0
 11
16.904561
 21
2.593761
 31
0.0
  0
LINE
  8
HIDDEN
 10
16.904561
 20
2.701953
 30
0.0
 11
17.084561
 21
2.701953
 31
0.0
  0
LINE
  8
HIDDEN
 10
17.042045
 20
2.653839
 30
0.0
 11
17.042045
 21
2.593761
 31
0.0
  0
LINE
  8
HIDDEN
 10
17.084561
 20
2.701953
 30
0.0
 11
17.084561
 21
2.653839
 31
0.0
  0
LINE
  8
HIDDEN
 10
17.084561
 20
2.653839
 30
0.0
 11
16.904561
 21
2.653839
 31
0.0
  0
SOLID
  8
DIM
 10
17.731139
 20
13.496988
 30
0.0
 11
17.840735
 21
13.394574
 31
0.0
 12
18.093179
 22
13.77457
 32
0.0
 13
18.093179
 23
13.77457
 33
0.0
  0
LINE
  8
DIM
 10
17.785937
 20
13.445781
 30
0.0
 11
16.942484
 21
12.304691
 31
0.0
  0
LINE
  8
DIM
 10
16.942484
 20
12.304691
 30
0.0
 11
16.492484
 21
12.304691
 31
0.0
  0
TEXT
  8
DIM
 10
13.923734
 20
12.148441
 30
0.0
 40
0.3125
  1
9V BATTERY
 41
0.75
  7
TXT
 72
     2
 11
16.267484
 21
12.304691
 31
0.0
 73
     2
  0
TEXT
  8
DIM
 10
13.871028
 20
11.72732
 30
0.0
 40
0.3125
  1
COMPARTMENT
 41
0.75
  7
TXT
 72
     1
 11
15.121028
 21
11.72732
 31
0.0
  0
POLYLINE
  8
DIM
 66
     1
 10
0.0
 20
0.0
 30
0.0
 41
0.16875
  0
VERTEX
  8
DIM
 10
12.719285
 20
28.099772
 30
0.0
  0
VERTEX
  8
DIM
 10
12.457667
 20
28.465909
 30
0.0
 41
0.0
  0
VERTEX
  8
DIM
 10
10.681951
 20
30.951052
 30
0.0
 41
0.0
  0
VERTEX
  8
DIM
 10
10.231951
 20
30.951052
 30
0.0
 41
0.0
  0
SEQEND
  8
DIM
  0
TEXT
  8
DIM
 10
3.756951
 20
30.794802
 30
0.0
 40
0.3125
  1
0.260 DIA. BOSS WITH 0.093 DIA.
 41
0.75
  7
TXT
 72
     2
 11
10.006951
 21
30.951052
 31
0.0
 73
     2
  0
TEXT
  8
DIM
 10
3.835076
 20
30.273969
 30
0.0
 40
0.3125
  1
HOLE x 0.310 DEEP (16) PLACES
 41
0.75
  7
TXT
 72
     2
 11
10.006951
 21
30.430219
 31
0.0
 73
     2
  0
TEXT
  8
DIM
 10
1.569451
 20
29.753135
 30
0.0
 40
0.3125
  1
MOUNTING BOSSES USE EITHER M2.5 METRIC
 41
0.75
  7
TXT
 72
     2
 11
10.006951
 21
29.909385
 31
0.0
 73
     2
  0
TEXT
  8
DIM
 10
3.366326
 20
29.232302
 30
0.0
 40
0.3125
  1
OR #4 STD. SHEET METAL SCREWS
 41
0.75
  7
TXT
 72
     2
 11
10.006951
 21
29.388552
 31
0.0
 73
     2
  0
TEXT
  8
DIM
 10
4.772576
 20
28.711469
 30
0.0
 40
0.3125
  1
x 0.250" LG.  (NOT SHOWN)
 41
0.75
  7
TXT
 72
     2
 11
10.006951
 21
28.867719
 31
0.0
 73
     2
  0
TEXT
  8
TEXT
 10
1.104776
 20
32.069346
 30
0.0
 40
0.3125
  1
%%UNOTE:%%U ALL DIMENSIONS HAVE %%P0.015 TOLERANCE
 41
0.75
  7
TXT
  0
TEXT
  8
TEXT
 10
2.322109
 20
31.563409
 30
0.0
 40
0.3125
  1
UNLESS OTHERWISE SPECIFIED.
 41
0.75
  7
TXT
  0
TEXT
  8
TEXT
 10
2.322109
 20
0.414124
 30
0.0
 40
0.3125
  1
UNLESS OTHERWISE SPECIFIED.
 41
0.75
  7
TXT
  0
TEXT
  8
TEXT
 10
1.104776
 20
0.920061
 30
0.0
 40
0.3125
  1
%%UNOTE:%%U ALL DIMENSIONS HAVE %%P0.015 TOLERANCE
 41
0.75
  7
TXT
  0
TEXT
  8
DIM
 10
9.637607
 20
8.980545
 30
0.0
 40
0.3125
  1
x 0.250" LG.  (NOT SHOWN)
 41
0.75
  7
TXT
 72
     2
 11
14.871982
 21
9.136795
 31
0.0
 73
     2
  0
TEXT
  8
DIM
 10
6.434482
 20
10.022211
 30
0.0
 40
0.3125
  1
MOUNTING BOSSES USE EITHER M2.5 METRIC
 41
0.75
  7
TXT
 72
     2
 11
14.871982
 21
10.178461
 31
0.0
 73
     2
  0
TEXT
  8
DIM
 10
8.700107
 20
10.543045
 30
0.0
 40
0.3125
  1
HOLE x 0.310 DEEP (16) PLACES
 41
0.75
  7
TXT
 72
     2
 11
14.871982
 21
10.699295
 31
0.0
 73
     2
  0
TEXT
  8
DIM
 10
8.621982
 20
11.063878
 30
0.0
 40
0.3125
  1
0.260 DIA. BOSS WITH 0.093 DIA.
 41
0.75
  7
TXT
 72
     2
 11
14.871982
 21
11.220128
 31
0.0
 73
     2
  0
TEXT
  8
DIM
 10
8.231357
 20
9.501378
 30
0.0
 40
0.3125
  1
OR #4 STD. SHEET METAL SCREWS
 41
0.75
  7
TXT
 72
     2
 11
14.871982
 21
9.657628
 31
0.0
 73
     2
  0
POLYLINE
  8
DIM
 66
     1
 10
0.0
 20
0.0
 30
0.0
 41
0.16875
  0
VERTEX
  8
DIM
 10
17.054527
 20
7.730012
 30
0.0
  0
VERTEX
  8
DIM
 10
16.866518
 20
8.138855
 30
0.0
 41
0.0
  0
VERTEX
  8
DIM
 10
15.546982
 20
11.220128
 30
0.0
 41
0.0
  0
VERTEX
  8
DIM
 10
15.096982
 20
11.220128
 30
0.0
 41
0.0
  0
SEQEND
  8
DIM
  0
TEXT
  8
TEXT
 10
1.360081
 20
12.183012
 30
0.0
 40
0.3125
  1
*-USABLE AREA ON COVER ALSO
 41
0.75
  7
TXT
  0
TEXT
  8
TEXT
 10
1.837767
 20
11.724682
 30
0.0
 40
0.3125
  1
AVAILABLE FOR CUSTOM MOLDING.
 41
0.75
  7
TXT
  0
DIMENSION
  8
DIM
  2
*D60
 10
20.89802
 20
31.86373
 30
0.0
 11
16.300896
 21
31.86373
 31
0.0
 13
11.703771
 23
33.277505
 33
0.0
 14
20.89802
 24
33.277505
 34
0.0
  3
DIM
  0
DIMENSION
  8
DIM
  2
*D62
 10
8.178676
 20
22.148687
 30
0.0
 11
8.178676
 21
25.165812
 31
0.0
 13
6.227802
 23
28.182936
 33
0.0
 14
6.227802
 24
22.148687
 34
0.0
 50
90.0
  3
DIM
  0
DIMENSION
  8
DIM
  2
*D61
 10
10.630666
 20
34.577505
 30
0.0
 11
10.630666
 21
33.927505
 31
0.0
 13
11.703771
 23
33.277505
 33
0.0
 14
11.711026
 24
34.577505
 34
0.0
 50
90.0
  3
DIM
  0
DIMENSION
  8
DIM
  2
*D68
 10
21.432488
 20
12.748534
 30
0.0
 11
19.193179
 21
12.748534
 31
0.0
 13
16.953871
 23
13.491053
 33
0.0
 14
21.432488
 24
13.491053
 34
0.0
  3
DIM
  0
DIMENSION
  8
DIM
  2
*D67
 10
15.839613
 20
14.830551
 30
0.0
 11
15.839613
 21
14.160802
 31
0.0
 13
16.953871
 23
13.491053
 33
0.0
 14
16.875386
 24
14.830551
 34
0.0
 50
90.0
  3
DIM
  0
DIMENSION
  8
DIM
  2
*D66
 10
8.287816
 20
8.611155
 30
0.0
 11
8.287816
 21
5.371846
 31
0.0
 13
5.390775
 23
2.132538
 33
0.0
 14
5.390775
 24
8.611155
 34
0.0
 50
90.0
  3
DIM
  0
ENDSEC
  0
EOF
