  0
SECTION
  2
HEADER
  9
$ACADVER
  1
AC1015
  9
$ACADMAINTVER
 70
     6
  9
$DWGCODEPAGE
  3
ANSI_1252
  9
$INSBASE
 10
0.0
 20
0.0
 30
0.0
  9
$EXTMIN
 10
-0.0006176286570465
 20
-0.0009459727454768
 30
-0.0015258207003583
  9
$EXTMAX
 10
20.24061772290688
 20
31.00094611710046
 30
0.0000000349246037
  9
$LIMMIN
 10
0.0
 20
0.0
  9
$LIMMAX
 10
12.0
 20
9.0
  9
$ORTHOMODE
 70
     1
  9
$REGENMODE
 70
     1
  9
$FILLMODE
 70
     1
  9
$QTEXTMODE
 70
     0
  9
$MIRRTEXT
 70
     0
  9
$LTSCALE
 40
0.5
  9
$ATTMODE
 70
     1
  9
$TEXTSIZE
 40
0.25
  9
$TRACEWID
 40
0.05
  9
$TEXTSTYLE
  7
TXT
  9
$CLAYER
  8
OBJECT
  9
$CELTYPE
  6
ByLayer
  9
$CECOLOR
 62
   256
  9
$CELTSCALE
 40
1.0
  9
$DISPSILH
 70
     0
  9
$DIMSCALE
 40
2.0
  9
$DIMASZ
 40
0.18
  9
$DIMEXO
 40
0.063
  9
$DIMDLI
 40
0.281
  9
$DIMRND
 40
0.0
  9
$DIMDLE
 40
0.0
  9
$DIMEXE
 40
0.093
  9
$DIMTP
 40
0.0
  9
$DIMTM
 40
0.0
  9
$DIMTXT
 40
0.125
  9
$DIMCEN
 40
0.09
  9
$DIMTSZ
 40
0.0
  9
$DIMTOL
 70
     0
  9
$DIMLIM
 70
     0
  9
$DIMTIH
 70
     1
  9
$DIMTOH
 70
     1
  9
$DIMSE1
 70
     0
  9
$DIMSE2
 70
     0
  9
$DIMTAD
 70
     0
  9
$DIMZIN
 70
     0
  9
$DIMBLK
  1

  9
$DIMASO
 70
     1
  9
$DIMSHO
 70
     1
  9
$DIMPOST
  1

  9
$DIMAPOST
  1

  9
$DIMALT
 70
     0
  9
$DIMALTD
 70
     2
  9
$DIMALTF
 40
25.4
  9
$DIMLFAC
 40
1.0
  9
$DIMTOFL
 70
     0
  9
$DIMTVP
 40
0.0
  9
$DIMTIX
 70
     0
  9
$DIMSOXD
 70
     0
  9
$DIMSAH
 70
     0
  9
$DIMBLK1
  1

  9
$DIMBLK2
  1

  9
$DIMSTYLE
  2
STD
  9
$DIMCLRD
 70
     0
  9
$DIMCLRE
 70
     0
  9
$DIMCLRT
 70
     0
  9
$DIMTFAC
 40
1.0
  9
$DIMGAP
 40
0.09
  9
$DIMJUST
 70
     0
  9
$DIMSD1
 70
     0
  9
$DIMSD2
 70
     0
  9
$DIMTOLJ
 70
     1
  9
$DIMTZIN
 70
     0
  9
$DIMALTZ
 70
     0
  9
$DIMALTTZ
 70
     0
  9
$DIMUPT
 70
     0
  9
$DIMDEC
 70
     3
  9
$DIMTDEC
 70
     3
  9
$DIMALTU
 70
     2
  9
$DIMALTTD
 70
     2
  9
$DIMTXSTY
  7
TXT
  9
$DIMAUNIT
 70
     0
  9
$DIMADEC
 70
     0
  9
$DIMALTRND
 40
0.0
  9
$DIMAZIN
 70
     0
  9
$DIMDSEP
 70
    46
  9
$DIMATFIT
 70
     1
  9
$DIMFRAC
 70
     0
  9
$DIMLDRBLK
  1

  9
$DIMLUNIT
 70
     2
  9
$DIMLWD
 70
    -2
  9
$DIMLWE
 70
    -2
  9
$DIMTMOVE
 70
     0
  9
$LUNITS
 70
     2
  9
$LUPREC
 70
     3
  9
$SKETCHINC
 40
0.1
  9
$FILLETRAD
 40
0.0
  9
$AUNITS
 70
     0
  9
$AUPREC
 70
     0
  9
$MENU
  1
acad
  9
$ELEVATION
 40
0.0
  9
$PELEVATION
 40
0.0
  9
$THICKNESS
 40
0.0
  9
$LIMCHECK
 70
     0
  9
$CHAMFERA
 40
0.0
  9
$CHAMFERB
 40
0.0
  9
$CHAMFERC
 40
0.0
  9
$CHAMFERD
 40
0.0
  9
$SKPOLY
 70
     0
  9
$TDCREATE
 40
2449278.875606366
  9
$TDUCREATE
 40
2449279.042273032
  9
$TDUPDATE
 40
2454362.492815752
  9
$TDUUPDATE
 40
2454362.659482419
  9
$TDINDWG
 40
0.7584628125
  9
$TDUSRTIMER
 40
0.7584626389
  9
$USRTIMER
 70
     1
  9
$ANGBASE
 50
0.0
  9
$ANGDIR
 70
     0
  9
$PDMODE
 70
     0
  9
$PDSIZE
 40
0.0
  9
$PLINEWID
 40
0.0
  9
$SPLFRAME
 70
     0
  9
$SPLINETYPE
 70
     6
  9
$SPLINESEGS
 70
     8
  9
$HANDSEED
  5
F54
  9
$SURFTAB1
 70
     6
  9
$SURFTAB2
 70
     6
  9
$SURFTYPE
 70
     6
  9
$SURFU
 70
     6
  9
$SURFV
 70
     6
  9
$UCSBASE
  2

  9
$UCSNAME
  2

  9
$UCSORG
 10
0.0
 20
0.0
 30
0.0
  9
$UCSXDIR
 10
1.0
 20
0.0
 30
0.0
  9
$UCSYDIR
 10
0.0
 20
1.0
 30
0.0
  9
$UCSORTHOREF
  2

  9
$UCSORTHOVIEW
 70
     0
  9
$UCSORGTOP
 10
0.0
 20
0.0
 30
0.0
  9
$UCSORGBOTTOM
 10
0.0
 20
0.0
 30
0.0
  9
$UCSORGLEFT
 10
0.0
 20
0.0
 30
0.0
  9
$UCSORGRIGHT
 10
0.0
 20
0.0
 30
0.0
  9
$UCSORGFRONT
 10
0.0
 20
0.0
 30
0.0
  9
$UCSORGBACK
 10
0.0
 20
0.0
 30
0.0
  9
$PUCSBASE
  2

  9
$PUCSNAME
  2

  9
$PUCSORG
 10
0.0
 20
0.0
 30
0.0
  9
$PUCSXDIR
 10
1.0
 20
0.0
 30
0.0
  9
$PUCSYDIR
 10
0.0
 20
1.0
 30
0.0
  9
$PUCSORTHOREF
  2

  9
$PUCSORTHOVIEW
 70
     0
  9
$PUCSORGTOP
 10
0.0
 20
0.0
 30
0.0
  9
$PUCSORGBOTTOM
 10
0.0
 20
0.0
 30
0.0
  9
$PUCSORGLEFT
 10
0.0
 20
0.0
 30
0.0
  9
$PUCSORGRIGHT
 10
0.0
 20
0.0
 30
0.0
  9
$PUCSORGFRONT
 10
0.0
 20
0.0
 30
0.0
  9
$PUCSORGBACK
 10
0.0
 20
0.0
 30
0.0
  9
$USERI1
 70
     0
  9
$USERI2
 70
     0
  9
$USERI3
 70
     0
  9
$USERI4
 70
     0
  9
$USERI5
 70
     0
  9
$USERR1
 40
0.0
  9
$USERR2
 40
0.0
  9
$USERR3
 40
0.0
  9
$USERR4
 40
0.0
  9
$USERR5
 40
0.0
  9
$WORLDVIEW
 70
     1
  9
$SHADEDGE
 70
     3
  9
$SHADEDIF
 70
    70
  9
$TILEMODE
 70
     1
  9
$MAXACTVP
 70
    16
  9
$PINSBASE
 10
0.0
 20
0.0
 30
0.0
  9
$PLIMCHECK
 70
     0
  9
$PEXTMIN
 10
1.000000000000000E+20
 20
1.000000000000000E+20
 30
1.000000000000000E+20
  9
$PEXTMAX
 10
-1.000000000000000E+20
 20
-1.000000000000000E+20
 30
-1.000000000000000E+20
  9
$PLIMMIN
 10
0.0
 20
0.0
  9
$PLIMMAX
 10
12.0
 20
9.0
  9
$UNITMODE
 70
     0
  9
$VISRETAIN
 70
     0
  9
$PLINEGEN
 70
     0
  9
$PSLTSCALE
 70
     0
  9
$TREEDEPTH
 70
  3020
  9
$CMLSTYLE
  2
Standard
  9
$CMLJUST
 70
     0
  9
$CMLSCALE
 40
1.0
  9
$PROXYGRAPHICS
 70
     1
  9
$MEASUREMENT
 70
     0
  9
$CELWEIGHT
370
    -1
  9
$ENDCAPS
280
     0
  9
$JOINSTYLE
280
     0
  9
$LWDISPLAY
290
     0
  9
$INSUNITS
 70
     0
  9
$HYPERLINKBASE
  1

  9
$STYLESHEET
  1
monochrome.ctb
  9
$XEDIT
290
     1
  9
$CEPSNTYPE
380
     0
  9
$PSTYLEMODE
290
     1
  9
$FINGERPRINTGUID
  2
{A9EA84D3-577C-4C36-A2BE-9CA83954DC40}
  9
$VERSIONGUID
  2
{3DE3F436-28F5-42E4-8740-342FABC61862}
  9
$EXTNAMES
290
     1
  9
$PSVPSCALE
 40
0.0
  9
$OLESTARTUP
290
     0
  0
ENDSEC
  0
SECTION
  2
CLASSES
  0
CLASS
  1
ACDBDICTIONARYWDFLT
  2
AcDbDictionaryWithDefault
  3
AutoCAD 2000
 90
        0
280
     0
281
     0
  0
CLASS
  1
ACDBPLACEHOLDER
  2
AcDbPlaceHolder
  3
AutoCAD 2000
 90
        0
280
     0
281
     0
  0
CLASS
  1
LAYOUT
  2
AcDbLayout
  3
AutoCAD 2000
 90
        0
280
     0
281
     0
  0
ENDSEC
  0
SECTION
  2
TABLES
  0
TABLE
  2
VPORT
  5
8
330
0
100
AcDbSymbolTable
 70
     2
  0
VPORT
  5
F53
330
8
100
AcDbSymbolTableRecord
100
AcDbViewportTableRecord
  2
*Active
 70
     0
 10
0.0
 20
0.0
 11
1.0
 21
1.0
 12
10.12000009425271
 22
15.50000014435939
 13
0.0
 23
0.0
 14
1.0
 24
1.0
 15
0.5
 25
0.5
 16
0.0
 26
0.0
 36
1.0
 17
0.0
 27
0.0
 37
0.0
 40
31.31382213812765
 41
1.824707846410684
 42
50.0
 43
0.0
 44
0.0
 50
0.0
 51
0.0
 71
     0
 72
   100
 73
     1
 74
     0
 75
     0
 76
     0
 77
     0
 78
     0
281
     0
 65
     1
110
0.0
120
0.0
130
0.0
111
1.0
121
0.0
131
0.0
112
0.0
122
1.0
132
0.0
 79
     0
146
0.0
  0
ENDTAB
  0
TABLE
  2
LTYPE
  5
5
330
0
100
AcDbSymbolTable
 70
     4
  0
LTYPE
  5
13
330
5
100
AcDbSymbolTableRecord
100
AcDbLinetypeTableRecord
  2
ByBlock
 70
     0
  3

 72
    65
 73
     0
 40
0.0
  0
LTYPE
  5
14
330
5
100
AcDbSymbolTableRecord
100
AcDbLinetypeTableRecord
  2
ByLayer
 70
     0
  3

 72
    65
 73
     0
 40
0.0
  0
LTYPE
  5
15
330
5
100
AcDbSymbolTableRecord
100
AcDbLinetypeTableRecord
  2
CONTINUOUS
 70
     0
  3
Solid line
 72
    65
 73
     0
 40
0.0
  0
LTYPE
  5
25
330
5
100
AcDbSymbolTableRecord
100
AcDbLinetypeTableRecord
  2
HIDDEN
 70
     0
  3
_ _ _ _ _ _ _ _ _ _ _ _ _ _ _ _ _ _ _ _ _ _ _
 72
    65
 73
     2
 40
0.375
 49
0.25
 74
     0
 49
-0.125
 74
     0
  0
LTYPE
  5
26
330
5
100
AcDbSymbolTableRecord
100
AcDbLinetypeTableRecord
  2
PHANTOM
 70
     0
  3
_____ _ _ _____ _ _ _____ _ _ _____ _ _ ____
 72
    65
 73
     6
 40
2.5
 49
1.25
 74
     0
 49
-0.25
 74
     0
 49
0.25
 74
     0
 49
-0.25
 74
     0
 49
0.25
 74
     0
 49
-0.25
 74
     0
  0
LTYPE
  5
27
330
5
100
AcDbSymbolTableRecord
100
AcDbLinetypeTableRecord
  2
CENTER
 70
     0
  3
____ _ ____ _ ____ _ ____ _ ____ _ ____ _ ____
 72
    65
 73
     4
 40
2.0
 49
1.25
 74
     0
 49
-0.25
 74
     0
 49
0.25
 74
     0
 49
-0.25
 74
     0
  0
ENDTAB
  0
TABLE
  2
LAYER
  5
2
330
0
100
AcDbSymbolTable
 70
     9
  0
LAYER
  5
10
330
2
100
AcDbSymbolTableRecord
100
AcDbLayerTableRecord
  2
0
 70
     0
 62
     7
  6
CONTINUOUS
370
    -3
390
F
  0
LAYER
  5
22
330
2
100
AcDbSymbolTableRecord
100
AcDbLayerTableRecord
  2
OBJECT
 70
     0
 62
     7
  6
CONTINUOUS
370
    -3
390
F
  0
LAYER
  5
28
330
2
100
AcDbSymbolTableRecord
100
AcDbLayerTableRecord
  2
DIM
 70
     0
 62
     7
  6
CONTINUOUS
370
    -3
390
F
  0
LAYER
  5
29
330
2
100
AcDbSymbolTableRecord
100
AcDbLayerTableRecord
  2
HIDDEN
 70
     0
 62
     7
  6
HIDDEN
370
    -3
390
F
  0
LAYER
  5
2A
330
2
100
AcDbSymbolTableRecord
100
AcDbLayerTableRecord
  2
BEND
 70
     0
 62
     7
  6
PHANTOM
370
    -3
390
F
  0
LAYER
  5
2B
330
2
100
AcDbSymbolTableRecord
100
AcDbLayerTableRecord
  2
TEXT
 70
     0
 62
     7
  6
CONTINUOUS
370
    -3
390
F
  0
LAYER
  5
2C
330
2
100
AcDbSymbolTableRecord
100
AcDbLayerTableRecord
  2
TITLE
 70
     0
 62
     7
  6
CONTINUOUS
370
    -3
390
F
  0
LAYER
  5
2D
330
2
100
AcDbSymbolTableRecord
100
AcDbLayerTableRecord
  2
CENTER
 70
     0
 62
     7
  6
CENTER
370
    -3
390
F
  0
LAYER
  5
2E
330
2
100
AcDbSymbolTableRecord
100
AcDbLayerTableRecord
  2
DEFPOINTS
 70
     0
 62
     7
  6
CONTINUOUS
290
     0
370
    -3
390
F
  0
ENDTAB
  0
TABLE
  2
STYLE
  5
3
330
0
100
AcDbSymbolTable
 70
     2
  0
STYLE
  5
11
330
3
100
AcDbSymbolTableRecord
100
AcDbTextStyleTableRecord
  2
STANDARD
 70
     0
 40
0.0
 41
0.75
 50
0.0
 71
     0
 42
0.25
  3
TXT.shx
  4

  0
STYLE
  5
23
330
3
100
AcDbSymbolTableRecord
100
AcDbTextStyleTableRecord
  2
TXT
 70
     0
 40
0.0
 41
0.75
 50
0.0
 71
     0
 42
0.25
  3
TXT.shx
  4

  0
ENDTAB
  0
TABLE
  2
VIEW
  5
6
330
0
100
AcDbSymbolTable
 70
     0
  0
ENDTAB
  0
TABLE
  2
UCS
  5
7
330
0
100
AcDbSymbolTable
 70
     0
  0
ENDTAB
  0
TABLE
  2
APPID
  5
9
330
0
100
AcDbSymbolTable
 70
     1
  0
APPID
  5
12
330
9
100
AcDbSymbolTableRecord
100
AcDbRegAppTableRecord
  2
ACAD
 70
     0
  0
ENDTAB
  0
TABLE
  2
DIMSTYLE
  5
A
330
0
100
AcDbSymbolTable
 70
     2
100
AcDbDimStyleTable
 71
     2
340
2F
340
30
  0
DIMSTYLE
105
2F
102
{ACAD_REACTORS
330
4DE
330
516
330
524
330
532
330
540
330
56A
330
578
330
586
330
5A2
330
5B0
330
5CC
330
5DA
330
5F6
330
604
330
612
330
62E
330
63C
330
658
330
69D
330
6AB
330
6B9
330
6EF
330
716
330
84B
330
859
330
8A3
330
8D6
330
8E4
330
92A
330
A14
330
A9F
330
620
330
E3C
330
E4A
330
E9F
330
F08
102
}
330
A
100
AcDbSymbolTableRecord
100
AcDbDimStyleTableRecord
  2
STD
 70
     0
 40
2.0
 42
0.063
 43
0.281
 44
0.093
140
0.125
271
     3
272
     3
289
     1
340
23
  0
DIMSTYLE
105
30
102
{ACAD_REACTORS
330
4D0
330
4EC
330
4FA
330
54E
330
55C
330
594
330
5BE
330
5E8
330
64A
330
666
330
674
330
6FD
330
724
330
8B1
330
8BF
330
A2D
330
A3B
330
A4D
330
A67
330
A75
330
A83
330
A91
102
}
330
A
100
AcDbSymbolTableRecord
100
AcDbDimStyleTableRecord
  2
DIM
 70
     0
 40
2.0
 42
0.063
 43
0.281
 44
0.093
140
0.125
174
     1
271
     3
272
     3
340
23
  0
ENDTAB
  0
TABLE
  2
BLOCK_RECORD
  5
1
330
0
100
AcDbSymbolTable
 70
    68
  0
BLOCK_RECORD
  5
1E
330
1
100
AcDbSymbolTableRecord
100
AcDbBlockTableRecord
  2
*Model_Space
340
21
  0
BLOCK_RECORD
  5
1A
330
1
100
AcDbSymbolTableRecord
100
AcDbBlockTableRecord
  2
*Paper_Space
340
1D
  0
BLOCK_RECORD
  5
32
330
1
100
AcDbSymbolTableRecord
100
AcDbBlockTableRecord
  2
*X0
340
0
102
{BLKREFS
331
8D1
102
}
  0
BLOCK_RECORD
  5
50
330
1
100
AcDbSymbolTableRecord
100
AcDbBlockTableRecord
  2
*X1
340
0
102
{BLKREFS
331
8F2
102
}
  0
BLOCK_RECORD
  5
70
330
1
100
AcDbSymbolTableRecord
100
AcDbBlockTableRecord
  2
*X2
340
0
102
{BLKREFS
331
8F3
102
}
  0
BLOCK_RECORD
  5
90
330
1
100
AcDbSymbolTableRecord
100
AcDbBlockTableRecord
  2
*X3
340
0
102
{BLKREFS
331
8F7
102
}
  0
BLOCK_RECORD
  5
AF
330
1
100
AcDbSymbolTableRecord
100
AcDbBlockTableRecord
  2
*X4
340
0
102
{BLKREFS
331
8F8
102
}
  0
BLOCK_RECORD
  5
328
330
1
100
AcDbSymbolTableRecord
100
AcDbBlockTableRecord
  2
*X5
340
0
102
{BLKREFS
331
A27
102
}
  0
BLOCK_RECORD
  5
355
330
1
100
AcDbSymbolTableRecord
100
AcDbBlockTableRecord
  2
*X6
340
0
102
{BLKREFS
331
A28
102
}
  0
BLOCK_RECORD
  5
37F
330
1
100
AcDbSymbolTableRecord
100
AcDbBlockTableRecord
  2
*X7
340
0
102
{BLKREFS
331
A29
102
}
  0
BLOCK_RECORD
  5
38D
330
1
100
AcDbSymbolTableRecord
100
AcDbBlockTableRecord
  2
*X8
340
0
102
{BLKREFS
331
A2A
102
}
  0
BLOCK_RECORD
  5
3BA
330
1
100
AcDbSymbolTableRecord
100
AcDbBlockTableRecord
  2
*X9
340
0
102
{BLKREFS
331
A2C
102
}
  0
BLOCK_RECORD
  5
4D1
330
1
100
AcDbSymbolTableRecord
100
AcDbBlockTableRecord
  2
*D10
340
0
  0
BLOCK_RECORD
  5
4DF
330
1
100
AcDbSymbolTableRecord
100
AcDbBlockTableRecord
  2
*D11
340
0
  0
BLOCK_RECORD
  5
4ED
330
1
100
AcDbSymbolTableRecord
100
AcDbBlockTableRecord
  2
*D12
340
0
  0
BLOCK_RECORD
  5
4FB
330
1
100
AcDbSymbolTableRecord
100
AcDbBlockTableRecord
  2
*D13
340
0
  0
BLOCK_RECORD
  5
517
330
1
100
AcDbSymbolTableRecord
100
AcDbBlockTableRecord
  2
*D14
340
0
  0
BLOCK_RECORD
  5
525
330
1
100
AcDbSymbolTableRecord
100
AcDbBlockTableRecord
  2
*D15
340
0
  0
BLOCK_RECORD
  5
533
330
1
100
AcDbSymbolTableRecord
100
AcDbBlockTableRecord
  2
*D16
340
0
  0
BLOCK_RECORD
  5
541
330
1
100
AcDbSymbolTableRecord
100
AcDbBlockTableRecord
  2
*D17
340
0
  0
BLOCK_RECORD
  5
54F
330
1
100
AcDbSymbolTableRecord
100
AcDbBlockTableRecord
  2
*D18
340
0
  0
BLOCK_RECORD
  5
55D
330
1
100
AcDbSymbolTableRecord
100
AcDbBlockTableRecord
  2
*D19
340
0
  0
BLOCK_RECORD
  5
56B
330
1
100
AcDbSymbolTableRecord
100
AcDbBlockTableRecord
  2
*D20
340
0
  0
BLOCK_RECORD
  5
579
330
1
100
AcDbSymbolTableRecord
100
AcDbBlockTableRecord
  2
*D21
340
0
  0
BLOCK_RECORD
  5
587
330
1
100
AcDbSymbolTableRecord
100
AcDbBlockTableRecord
  2
*D22
340
0
  0
BLOCK_RECORD
  5
595
330
1
100
AcDbSymbolTableRecord
100
AcDbBlockTableRecord
  2
*D23
340
0
  0
BLOCK_RECORD
  5
5A3
330
1
100
AcDbSymbolTableRecord
100
AcDbBlockTableRecord
  2
*D24
340
0
  0
BLOCK_RECORD
  5
5B1
330
1
100
AcDbSymbolTableRecord
100
AcDbBlockTableRecord
  2
*D25
340
0
  0
BLOCK_RECORD
  5
5BF
330
1
100
AcDbSymbolTableRecord
100
AcDbBlockTableRecord
  2
*D26
340
0
  0
BLOCK_RECORD
  5
5CD
330
1
100
AcDbSymbolTableRecord
100
AcDbBlockTableRecord
  2
*D27
340
0
  0
BLOCK_RECORD
  5
5DB
330
1
100
AcDbSymbolTableRecord
100
AcDbBlockTableRecord
  2
*D28
340
0
  0
BLOCK_RECORD
  5
5E9
330
1
100
AcDbSymbolTableRecord
100
AcDbBlockTableRecord
  2
*D29
340
0
  0
BLOCK_RECORD
  5
5F7
330
1
100
AcDbSymbolTableRecord
100
AcDbBlockTableRecord
  2
*D30
340
0
  0
BLOCK_RECORD
  5
605
330
1
100
AcDbSymbolTableRecord
100
AcDbBlockTableRecord
  2
*D31
340
0
  0
BLOCK_RECORD
  5
613
330
1
100
AcDbSymbolTableRecord
100
AcDbBlockTableRecord
  2
*D32
340
0
  0
BLOCK_RECORD
  5
621
330
1
100
AcDbSymbolTableRecord
100
AcDbBlockTableRecord
  2
*D33
340
0
  0
BLOCK_RECORD
  5
62F
330
1
100
AcDbSymbolTableRecord
100
AcDbBlockTableRecord
  2
*D34
340
0
  0
BLOCK_RECORD
  5
63D
330
1
100
AcDbSymbolTableRecord
100
AcDbBlockTableRecord
  2
*D35
340
0
  0
BLOCK_RECORD
  5
64B
330
1
100
AcDbSymbolTableRecord
100
AcDbBlockTableRecord
  2
*D36
340
0
  0
BLOCK_RECORD
  5
659
330
1
100
AcDbSymbolTableRecord
100
AcDbBlockTableRecord
  2
*D37
340
0
  0
BLOCK_RECORD
  5
667
330
1
100
AcDbSymbolTableRecord
100
AcDbBlockTableRecord
  2
*D38
340
0
  0
BLOCK_RECORD
  5
675
330
1
100
AcDbSymbolTableRecord
100
AcDbBlockTableRecord
  2
*D39
340
0
  0
BLOCK_RECORD
  5
69E
330
1
100
AcDbSymbolTableRecord
100
AcDbBlockTableRecord
  2
*D40
340
0
  0
BLOCK_RECORD
  5
6AC
330
1
100
AcDbSymbolTableRecord
100
AcDbBlockTableRecord
  2
*D41
340
0
  0
BLOCK_RECORD
  5
6BA
330
1
100
AcDbSymbolTableRecord
100
AcDbBlockTableRecord
  2
*D42
340
0
  0
BLOCK_RECORD
  5
6F0
330
1
100
AcDbSymbolTableRecord
100
AcDbBlockTableRecord
  2
*D43
340
0
  0
BLOCK_RECORD
  5
6FE
330
1
100
AcDbSymbolTableRecord
100
AcDbBlockTableRecord
  2
*D44
340
0
  0
BLOCK_RECORD
  5
717
330
1
100
AcDbSymbolTableRecord
100
AcDbBlockTableRecord
  2
*D45
340
0
  0
BLOCK_RECORD
  5
725
330
1
100
AcDbSymbolTableRecord
100
AcDbBlockTableRecord
  2
*D46
340
0
  0
BLOCK_RECORD
  5
84C
330
1
100
AcDbSymbolTableRecord
100
AcDbBlockTableRecord
  2
*D47
340
0
  0
BLOCK_RECORD
  5
85A
330
1
100
AcDbSymbolTableRecord
100
AcDbBlockTableRecord
  2
*D48
340
0
  0
BLOCK_RECORD
  5
8A4
330
1
100
AcDbSymbolTableRecord
100
AcDbBlockTableRecord
  2
*D49
340
0
  0
BLOCK_RECORD
  5
8B2
330
1
100
AcDbSymbolTableRecord
100
AcDbBlockTableRecord
  2
*D50
340
0
  0
BLOCK_RECORD
  5
8C0
330
1
100
AcDbSymbolTableRecord
100
AcDbBlockTableRecord
  2
*D51
340
0
  0
BLOCK_RECORD
  5
8D7
330
1
100
AcDbSymbolTableRecord
100
AcDbBlockTableRecord
  2
*D52
340
0
  0
BLOCK_RECORD
  5
8E5
330
1
100
AcDbSymbolTableRecord
100
AcDbBlockTableRecord
  2
*D53
340
0
  0
BLOCK_RECORD
  5
92B
330
1
100
AcDbSymbolTableRecord
100
AcDbBlockTableRecord
  2
*D54
340
0
  0
BLOCK_RECORD
  5
A15
330
1
100
AcDbSymbolTableRecord
100
AcDbBlockTableRecord
  2
*D55
340
0
  0
BLOCK_RECORD
  5
A2E
330
1
100
AcDbSymbolTableRecord
100
AcDbBlockTableRecord
  2
*D56
340
0
  0
BLOCK_RECORD
  5
A3C
330
1
100
AcDbSymbolTableRecord
100
AcDbBlockTableRecord
  2
*D57
340
0
  0
BLOCK_RECORD
  5
A4E
330
1
100
AcDbSymbolTableRecord
100
AcDbBlockTableRecord
  2
*D58
340
0
  0
BLOCK_RECORD
  5
A68
330
1
100
AcDbSymbolTableRecord
100
AcDbBlockTableRecord
  2
*D59
340
0
  0
BLOCK_RECORD
  5
A76
330
1
100
AcDbSymbolTableRecord
100
AcDbBlockTableRecord
  2
*D60
340
0
  0
BLOCK_RECORD
  5
A84
330
1
100
AcDbSymbolTableRecord
100
AcDbBlockTableRecord
  2
*D61
340
0
  0
BLOCK_RECORD
  5
A92
330
1
100
AcDbSymbolTableRecord
100
AcDbBlockTableRecord
  2
*D62
340
0
  0
BLOCK_RECORD
  5
AA0
330
1
100
AcDbSymbolTableRecord
100
AcDbBlockTableRecord
  2
*D63
340
0
  0
BLOCK_RECORD
  5
E3D
330
1
100
AcDbSymbolTableRecord
100
AcDbBlockTableRecord
  2
*D64
340
0
  0
BLOCK_RECORD
  5
E4B
330
1
100
AcDbSymbolTableRecord
100
AcDbBlockTableRecord
  2
*D65
340
0
  0
BLOCK_RECORD
  5
EA0
330
1
100
AcDbSymbolTableRecord
100
AcDbBlockTableRecord
  2
*D66
340
0
  0
BLOCK_RECORD
  5
F09
330
1
100
AcDbSymbolTableRecord
100
AcDbBlockTableRecord
  2
*D67
340
0
  0
ENDTAB
  0
ENDSEC
  0
SECTION
  2
BLOCKS
  0
BLOCK
  5
1F
330
1E
100
AcDbEntity
  8
0
100
AcDbBlockBegin
  2
*Model_Space
 70
     0
 10
0.0
 20
0.0
 30
0.0
  3
*Model_Space
  1

  0
ENDBLK
  5
20
330
1E
100
AcDbEntity
  8
0
100
AcDbBlockEnd
  0
BLOCK
  5
1B
330
1A
100
AcDbEntity
 67
     1
  8
0
100
AcDbBlockBegin
  2
*Paper_Space
 70
     0
 10
0.0
 20
0.0
 30
0.0
  3
*Paper_Space
  1

  0
ENDBLK
  5
1C
330
1A
100
AcDbEntity
 67
     1
  8
0
100
AcDbBlockEnd
  0
BLOCK
  5
33
330
32
100
AcDbEntity
  8
0
100
AcDbBlockBegin
  2
*X0
 70
     1
 10
0.0
 20
0.0
 30
0.0
  3
*X0
  1

  0
LINE
  5
34
330
32
100
AcDbEntity
  8
0
 62
     0
100
AcDbLine
 10
10.940281
 20
24.19853299999999
 30
0.0
 11
11.065281
 21
24.32353299999999
 31
0.0
  0
LINE
  5
35
330
32
100
AcDbEntity
  8
0
 62
     0
100
AcDbLine
 10
10.940281
 20
24.331116
 30
0.0
 11
11.065281
 21
24.456116
 31
0.0
  0
LINE
  5
36
330
32
100
AcDbEntity
  8
0
 62
     0
100
AcDbLine
 10
10.940281
 20
24.463698
 30
0.0
 11
11.065281
 21
24.588698
 31
0.0
  0
LINE
  5
37
330
32
100
AcDbEntity
  8
0
 62
     0
100
AcDbLine
 10
10.940281
 20
24.596281
 30
0.0
 11
11.065281
 21
24.721281
 31
0.0
  0
LINE
  5
38
330
32
100
AcDbEntity
  8
0
 62
     0
100
AcDbLine
 10
10.940281
 20
24.728863
 30
0.0
 11
11.065281
 21
24.853863
 31
0.0
  0
LINE
  5
39
330
32
100
AcDbEntity
  8
0
 62
     0
100
AcDbLine
 10
10.940281
 20
24.861446
 30
0.0
 11
11.065281
 21
24.986446
 31
0.0
  0
LINE
  5
3A
330
32
100
AcDbEntity
  8
0
 62
     0
100
AcDbLine
 10
10.940281
 20
24.994028
 30
0.0
 11
11.065281
 21
25.119028
 31
0.0
  0
LINE
  5
3B
330
32
100
AcDbEntity
  8
0
 62
     0
100
AcDbLine
 10
10.940281
 20
25.12661099999999
 30
0.0
 11
11.065281
 21
25.251611
 31
0.0
  0
LINE
  5
3C
330
32
100
AcDbEntity
  8
0
 62
     0
100
AcDbLine
 10
10.940281
 20
25.25919299999999
 30
0.0
 11
11.065281
 21
25.384193
 31
0.0
  0
LINE
  5
3D
330
32
100
AcDbEntity
  8
0
 62
     0
100
AcDbLine
 10
10.940281
 20
25.391776
 30
0.0
 11
11.065281
 21
25.516776
 31
0.0
  0
LINE
  5
3E
330
32
100
AcDbEntity
  8
0
 62
     0
100
AcDbLine
 10
10.940281
 20
25.524358
 30
0.0
 11
11.065281
 21
25.649358
 31
0.0
  0
LINE
  5
3F
330
32
100
AcDbEntity
  8
0
 62
     0
100
AcDbLine
 10
10.940281
 20
25.65694099999999
 30
0.0
 11
11.065281
 21
25.781941
 31
0.0
  0
LINE
  5
40
330
32
100
AcDbEntity
  8
0
 62
     0
100
AcDbLine
 10
10.940281
 20
25.789524
 30
0.0
 11
11.065281
 21
25.914524
 31
0.0
  0
LINE
  5
41
330
32
100
AcDbEntity
  8
0
 62
     0
100
AcDbLine
 10
10.940281
 20
25.922106
 30
0.0
 11
11.065281
 21
26.047106
 31
0.0
  0
LINE
  5
42
330
32
100
AcDbEntity
  8
0
 62
     0
100
AcDbLine
 10
10.940281
 20
26.05468899999999
 30
0.0
 11
11.065281
 21
26.179689
 31
0.0
  0
LINE
  5
43
330
32
100
AcDbEntity
  8
0
 62
     0
100
AcDbLine
 10
10.940281
 20
24.065951
 30
0.0
 11
11.065281
 21
24.190951
 31
0.0
  0
LINE
  5
44
330
32
100
AcDbEntity
  8
0
 62
     0
100
AcDbLine
 10
10.940281
 20
23.93336799999999
 30
0.0
 11
11.065281
 21
24.05836799999999
 31
0.0
  0
LINE
  5
45
330
32
100
AcDbEntity
  8
0
 62
     0
100
AcDbLine
 10
10.940281
 20
23.800786
 30
0.0
 11
11.065281
 21
23.92578599999999
 31
0.0
  0
LINE
  5
46
330
32
100
AcDbEntity
  8
0
 62
     0
100
AcDbLine
 10
10.940281
 20
23.668203
 30
0.0
 11
11.065281
 21
23.79320299999999
 31
0.0
  0
LINE
  5
47
330
32
100
AcDbEntity
  8
0
 62
     0
100
AcDbLine
 10
10.940281
 20
23.53562099999999
 30
0.0
 11
11.065281
 21
23.660621
 31
0.0
  0
LINE
  5
48
330
32
100
AcDbEntity
  8
0
 62
     0
100
AcDbLine
 10
10.940281
 20
23.403038
 30
0.0
 11
11.065281
 21
23.528038
 31
0.0
  0
LINE
  5
49
330
32
100
AcDbEntity
  8
0
 62
     0
100
AcDbLine
 10
10.940281
 20
23.27045599999999
 30
0.0
 11
11.065281
 21
23.395456
 31
0.0
  0
LINE
  5
4A
330
32
100
AcDbEntity
  8
0
 62
     0
100
AcDbLine
 10
10.940281
 20
23.137873
 30
0.0
 11
11.065281
 21
23.262873
 31
0.0
  0
LINE
  5
4B
330
32
100
AcDbEntity
  8
0
 62
     0
100
AcDbLine
 10
10.940281
 20
23.00529099999999
 30
0.0
 11
11.065281
 21
23.130291
 31
0.0
  0
LINE
  5
4C
330
32
100
AcDbEntity
  8
0
 62
     0
100
AcDbLine
 10
10.940281
 20
22.87270799999999
 30
0.0
 11
11.065281
 21
22.997708
 31
0.0
  0
LINE
  5
4D
330
32
100
AcDbEntity
  8
0
 62
     0
100
AcDbLine
 10
10.940281
 20
22.740126
 30
0.0
 11
11.07413299999999
 21
22.873977
 31
0.0
  0
LINE
  5
4E
330
32
100
AcDbEntity
  8
0
 62
     0
100
AcDbLine
 10
10.940281
 20
22.60754299999999
 30
0.0
 11
11.063715
 21
22.730977
 31
0.0
  0
ENDBLK
  5
4F
330
32
100
AcDbEntity
  8
0
100
AcDbBlockEnd
  0
BLOCK
  5
51
330
50
100
AcDbEntity
  8
0
100
AcDbBlockBegin
  2
*X1
 70
     1
 10
0.0
 20
0.0
 30
0.0
  3
*X1
  1

  0
LINE
  5
52
330
50
100
AcDbEntity
  8
0
 62
     0
100
AcDbLine
 10
5.395966999999999
 20
20.245209
 30
0.0
 11
5.520966999999999
 21
20.37020899999999
 31
0.0
  0
LINE
  5
53
330
50
100
AcDbEntity
  8
0
 62
     0
100
AcDbLine
 10
5.263383999999999
 20
20.245209
 30
0.0
 11
5.388383999999999
 21
20.37020899999999
 31
0.0
  0
LINE
  5
54
330
50
100
AcDbEntity
  8
0
 62
     0
100
AcDbLine
 10
5.130802
 20
20.245209
 30
0.0
 11
5.255802
 21
20.37020899999999
 31
0.0
  0
LINE
  5
55
330
50
100
AcDbEntity
  8
0
 62
     0
100
AcDbLine
 10
4.998219
 20
20.245209
 30
0.0
 11
5.123219
 21
20.37020899999999
 31
0.0
  0
LINE
  5
56
330
50
100
AcDbEntity
  8
0
 62
     0
100
AcDbLine
 10
4.865637
 20
20.245209
 30
0.0
 11
4.990637
 21
20.37020899999999
 31
0.0
  0
LINE
  5
57
330
50
100
AcDbEntity
  8
0
 62
     0
100
AcDbLine
 10
4.733054
 20
20.245209
 30
0.0
 11
4.858054
 21
20.37020899999999
 31
0.0
  0
LINE
  5
58
330
50
100
AcDbEntity
  8
0
 62
     0
100
AcDbLine
 10
4.600471999999999
 20
20.245209
 30
0.0
 11
4.725471999999999
 21
20.37020899999999
 31
0.0
  0
LINE
  5
59
330
50
100
AcDbEntity
  8
0
 62
     0
100
AcDbLine
 10
4.467888999999999
 20
20.245209
 30
0.0
 11
4.592888999999999
 21
20.37020899999999
 31
0.0
  0
LINE
  5
5A
330
50
100
AcDbEntity
  8
0
 62
     0
100
AcDbLine
 10
4.335307
 20
20.245209
 30
0.0
 11
4.460307
 21
20.37020899999999
 31
0.0
  0
LINE
  5
5B
330
50
100
AcDbEntity
  8
0
 62
     0
100
AcDbLine
 10
3.577723999999999
 20
19.62020899999999
 30
0.0
 11
3.653677999999999
 21
19.696163
 31
0.0
  0
LINE
  5
5C
330
50
100
AcDbEntity
  8
0
 62
     0
100
AcDbLine
 10
4.202723999999999
 20
20.245209
 30
0.0
 11
4.327723999999999
 21
20.37020899999999
 31
0.0
  0
LINE
  5
5D
330
50
100
AcDbEntity
  8
0
 62
     0
100
AcDbLine
 10
3.506350999999999
 20
19.681418
 30
0.0
 11
3.653677999999999
 21
19.82874599999999
 31
0.0
  0
LINE
  5
5E
330
50
100
AcDbEntity
  8
0
 62
     0
100
AcDbLine
 10
4.070141999999999
 20
20.245209
 30
0.0
 11
4.195141999999999
 21
20.37020899999999
 31
0.0
  0
LINE
  5
5F
330
50
100
AcDbEntity
  8
0
 62
     0
100
AcDbLine
 10
3.512404
 20
19.820054
 30
0.0
 11
3.653677999999999
 21
19.96132799999999
 31
0.0
  0
LINE
  5
60
330
50
100
AcDbEntity
  8
0
 62
     0
100
AcDbLine
 10
3.937558999999999
 20
20.245209
 30
0.0
 11
4.062558999999999
 21
20.37020899999999
 31
0.0
  0
LINE
  5
61
330
50
100
AcDbEntity
  8
0
 62
     0
100
AcDbLine
 10
3.518455999999999
 20
19.95868899999999
 30
0.0
 11
3.653677999999999
 21
20.09391099999999
 31
0.0
  0
LINE
  5
62
330
50
100
AcDbEntity
  8
0
 62
     0
100
AcDbLine
 10
3.804976999999999
 20
20.245209
 30
0.0
 11
3.929976999999999
 21
20.37020899999999
 31
0.0
  0
LINE
  5
63
330
50
100
AcDbEntity
  8
0
 62
     0
100
AcDbLine
 10
3.524508999999999
 20
20.097325
 30
0.0
 11
3.653677999999999
 21
20.22649299999999
 31
0.0
  0
LINE
  5
64
330
50
100
AcDbEntity
  8
0
 62
     0
100
AcDbLine
 10
3.672394
 20
20.245209
 30
0.0
 11
3.797394
 21
20.37020899999999
 31
0.0
  0
LINE
  5
65
330
50
100
AcDbEntity
  8
0
 62
     0
100
AcDbLine
 10
3.530562
 20
20.23596
 30
0.0
 11
3.664812
 21
20.37020899999999
 31
0.0
  0
LINE
  5
66
330
50
100
AcDbEntity
  8
0
 62
     0
100
AcDbLine
 10
5.528548999999999
 20
20.245209
 30
0.0
 11
5.653548999999999
 21
20.37020899999999
 31
0.0
  0
LINE
  5
67
330
50
100
AcDbEntity
  8
0
 62
     0
100
AcDbLine
 10
5.661132
 20
20.245209
 30
0.0
 11
5.786132
 21
20.37020899999999
 31
0.0
  0
LINE
  5
68
330
50
100
AcDbEntity
  8
0
 62
     0
100
AcDbLine
 10
5.793713999999999
 20
20.245209
 30
0.0
 11
5.918713999999999
 21
20.37020899999999
 31
0.0
  0
LINE
  5
69
330
50
100
AcDbEntity
  8
0
 62
     0
100
AcDbLine
 10
5.926296999999999
 20
20.245209
 30
0.0
 11
6.051296999999999
 21
20.37020899999999
 31
0.0
  0
LINE
  5
6A
330
50
100
AcDbEntity
  8
0
 62
     0
100
AcDbLine
 10
6.058879
 20
20.245209
 30
0.0
 11
6.183879
 21
20.37020899999999
 31
0.0
  0
LINE
  5
6B
330
50
100
AcDbEntity
  8
0
 62
     0
100
AcDbLine
 10
6.191462
 20
20.245209
 30
0.0
 11
6.316462
 21
20.37020899999999
 31
0.0
  0
LINE
  5
6C
330
50
100
AcDbEntity
  8
0
 62
     0
100
AcDbLine
 10
6.324044
 20
20.245209
 30
0.0
 11
6.449044
 21
20.37020899999999
 31
0.0
  0
LINE
  5
6D
330
50
100
AcDbEntity
  8
0
 62
     0
100
AcDbLine
 10
6.456627
 20
20.245209
 30
0.0
 11
6.581627
 21
20.37020899999999
 31
0.0
  0
LINE
  5
6E
330
50
100
AcDbEntity
  8
0
 62
     0
100
AcDbLine
 10
6.58921
 20
20.245209
 30
0.0
 11
6.648718999999999
 21
20.30471799999999
 31
0.0
  0
ENDBLK
  5
6F
330
50
100
AcDbEntity
  8
0
100
AcDbBlockEnd
  0
BLOCK
  5
71
330
70
100
AcDbEntity
  8
0
100
AcDbBlockBegin
  2
*X2
 70
     1
 10
0.0
 20
0.0
 30
0.0
  3
*X2
  1

  0
LINE
  5
72
330
70
100
AcDbEntity
  8
0
 62
     0
100
AcDbLine
 10
5.28981
 20
18.84020899999999
 30
0.0
 11
5.16481
 21
18.96520899999999
 31
0.0
  0
LINE
  5
73
330
70
100
AcDbEntity
  8
0
 62
     0
100
AcDbLine
 10
5.157226999999999
 20
18.84020899999999
 30
0.0
 11
5.032226999999999
 21
18.96520899999999
 31
0.0
  0
LINE
  5
74
330
70
100
AcDbEntity
  8
0
 62
     0
100
AcDbLine
 10
5.024644999999999
 20
18.84020899999999
 30
0.0
 11
4.899644999999999
 21
18.96520899999999
 31
0.0
  0
LINE
  5
75
330
70
100
AcDbEntity
  8
0
 62
     0
100
AcDbLine
 10
4.892062
 20
18.84020899999999
 30
0.0
 11
4.767062
 21
18.96520899999999
 31
0.0
  0
LINE
  5
76
330
70
100
AcDbEntity
  8
0
 62
     0
100
AcDbLine
 10
4.759479999999999
 20
18.84020899999999
 30
0.0
 11
4.634479999999999
 21
18.96520899999999
 31
0.0
  0
LINE
  5
77
330
70
100
AcDbEntity
  8
0
 62
     0
100
AcDbLine
 10
4.626897
 20
18.84020899999999
 30
0.0
 11
4.501897
 21
18.96520899999999
 31
0.0
  0
LINE
  5
78
330
70
100
AcDbEntity
  8
0
 62
     0
100
AcDbLine
 10
4.494315
 20
18.84020899999999
 30
0.0
 11
4.369315
 21
18.96520899999999
 31
0.0
  0
LINE
  5
79
330
70
100
AcDbEntity
  8
0
 62
     0
100
AcDbLine
 10
4.361731999999999
 20
18.84020899999999
 30
0.0
 11
4.236731999999999
 21
18.96520899999999
 31
0.0
  0
LINE
  5
7A
330
70
100
AcDbEntity
  8
0
 62
     0
100
AcDbLine
 10
3.653677999999999
 20
19.548263
 30
0.0
 11
3.611731999999999
 21
19.59020899999999
 31
0.0
  0
LINE
  5
7B
330
70
100
AcDbEntity
  8
0
 62
     0
100
AcDbLine
 10
4.229148999999999
 20
18.84020899999999
 30
0.0
 11
4.104148999999999
 21
18.96520899999999
 31
0.0
  0
LINE
  5
7C
330
70
100
AcDbEntity
  8
0
 62
     0
100
AcDbLine
 10
3.653677999999999
 20
19.41568099999999
 30
0.0
 11
3.504798
 21
19.56456099999999
 31
0.0
  0
LINE
  5
7D
330
70
100
AcDbEntity
  8
0
 62
     0
100
AcDbLine
 10
4.096566999999999
 20
18.84020899999999
 30
0.0
 11
3.971566999999999
 21
18.96520899999999
 31
0.0
  0
LINE
  5
7E
330
70
100
AcDbEntity
  8
0
 62
     0
100
AcDbLine
 10
3.653677999999999
 20
19.283098
 30
0.0
 11
3.510851
 21
19.42592499999999
 31
0.0
  0
LINE
  5
7F
330
70
100
AcDbEntity
  8
0
 62
     0
100
AcDbLine
 10
3.963983999999999
 20
18.84020899999999
 30
0.0
 11
3.838983999999999
 21
18.96520899999999
 31
0.0
  0
LINE
  5
80
330
70
100
AcDbEntity
  8
0
 62
     0
100
AcDbLine
 10
3.653677999999999
 20
19.15051599999999
 30
0.0
 11
3.516904
 21
19.28728999999999
 31
0.0
  0
LINE
  5
81
330
70
100
AcDbEntity
  8
0
 62
     0
100
AcDbLine
 10
3.831401999999999
 20
18.84020899999999
 30
0.0
 11
3.706401999999999
 21
18.96520899999999
 31
0.0
  0
LINE
  5
82
330
70
100
AcDbEntity
  8
0
 62
     0
100
AcDbLine
 10
3.653677999999999
 20
19.01793299999999
 30
0.0
 11
3.522956999999999
 21
19.148654
 31
0.0
  0
LINE
  5
83
330
70
100
AcDbEntity
  8
0
 62
     0
100
AcDbLine
 10
3.698819
 20
18.84020899999999
 30
0.0
 11
3.529009999999999
 21
19.01001899999999
 31
0.0
  0
LINE
  5
84
330
70
100
AcDbEntity
  8
0
 62
     0
100
AcDbLine
 10
3.566237
 20
18.84020899999999
 30
0.0
 11
3.535062999999999
 21
18.87138299999999
 31
0.0
  0
LINE
  5
85
330
70
100
AcDbEntity
  8
0
 62
     0
100
AcDbLine
 10
5.422391999999999
 20
18.84020899999999
 30
0.0
 11
5.297391999999999
 21
18.96520899999999
 31
0.0
  0
LINE
  5
86
330
70
100
AcDbEntity
  8
0
 62
     0
100
AcDbLine
 10
5.554974999999999
 20
18.84020899999999
 30
0.0
 11
5.429974999999999
 21
18.96520899999999
 31
0.0
  0
LINE
  5
87
330
70
100
AcDbEntity
  8
0
 62
     0
100
AcDbLine
 10
5.687556999999999
 20
18.84020899999999
 30
0.0
 11
5.562556999999999
 21
18.96520899999999
 31
0.0
  0
LINE
  5
88
330
70
100
AcDbEntity
  8
0
 62
     0
100
AcDbLine
 10
5.82014
 20
18.84020899999999
 30
0.0
 11
5.69514
 21
18.96520899999999
 31
0.0
  0
LINE
  5
89
330
70
100
AcDbEntity
  8
0
 62
     0
100
AcDbLine
 10
5.952722
 20
18.84020899999999
 30
0.0
 11
5.827722
 21
18.96520899999999
 31
0.0
  0
LINE
  5
8A
330
70
100
AcDbEntity
  8
0
 62
     0
100
AcDbLine
 10
6.085304999999999
 20
18.84020899999999
 30
0.0
 11
5.960304999999999
 21
18.96520899999999
 31
0.0
  0
LINE
  5
8B
330
70
100
AcDbEntity
  8
0
 62
     0
100
AcDbLine
 10
6.217887
 20
18.84020899999999
 30
0.0
 11
6.092887
 21
18.96520899999999
 31
0.0
  0
LINE
  5
8C
330
70
100
AcDbEntity
  8
0
 62
     0
100
AcDbLine
 10
6.350469999999999
 20
18.84020899999999
 30
0.0
 11
6.225469999999999
 21
18.96520899999999
 31
0.0
  0
LINE
  5
8D
330
70
100
AcDbEntity
  8
0
 62
     0
100
AcDbLine
 10
6.483051999999999
 20
18.84020899999999
 30
0.0
 11
6.358051999999999
 21
18.96520899999999
 31
0.0
  0
LINE
  5
8E
330
70
100
AcDbEntity
  8
0
 62
     0
100
AcDbLine
 10
6.514820999999999
 20
18.941023
 30
0.0
 11
6.490635
 21
18.96520899999999
 31
0.0
  0
ENDBLK
  5
8F
330
70
100
AcDbEntity
  8
0
100
AcDbBlockEnd
  0
BLOCK
  5
91
330
90
100
AcDbEntity
  8
0
100
AcDbBlockBegin
  2
*X3
 70
     1
 10
0.0
 20
0.0
 30
0.0
  3
*X3
  1

  0
LINE
  5
92
330
90
100
AcDbEntity
  8
0
 62
     0
100
AcDbLine
 10
12.345281
 20
24.27770799999999
 30
0.0
 11
12.470281
 21
24.40270799999999
 31
0.0
  0
LINE
  5
93
330
90
100
AcDbEntity
  8
0
 62
     0
100
AcDbLine
 10
12.345281
 20
24.410291
 30
0.0
 11
12.470281
 21
24.535291
 31
0.0
  0
LINE
  5
94
330
90
100
AcDbEntity
  8
0
 62
     0
100
AcDbLine
 10
12.345281
 20
24.542873
 30
0.0
 11
12.470281
 21
24.667873
 31
0.0
  0
LINE
  5
95
330
90
100
AcDbEntity
  8
0
 62
     0
100
AcDbLine
 10
12.345281
 20
24.675456
 30
0.0
 11
12.470281
 21
24.800456
 31
0.0
  0
LINE
  5
96
330
90
100
AcDbEntity
  8
0
 62
     0
100
AcDbLine
 10
12.345281
 20
24.808038
 30
0.0
 11
12.470281
 21
24.933038
 31
0.0
  0
LINE
  5
97
330
90
100
AcDbEntity
  8
0
 62
     0
100
AcDbLine
 10
12.345281
 20
24.940621
 30
0.0
 11
12.470281
 21
25.065621
 31
0.0
  0
LINE
  5
98
330
90
100
AcDbEntity
  8
0
 62
     0
100
AcDbLine
 10
12.345281
 20
25.07320299999999
 30
0.0
 11
12.470281
 21
25.198203
 31
0.0
  0
LINE
  5
99
330
90
100
AcDbEntity
  8
0
 62
     0
100
AcDbLine
 10
12.345281
 20
25.205786
 30
0.0
 11
12.470281
 21
25.330786
 31
0.0
  0
LINE
  5
9A
330
90
100
AcDbEntity
  8
0
 62
     0
100
AcDbLine
 10
12.345281
 20
25.338368
 30
0.0
 11
12.470281
 21
25.463368
 31
0.0
  0
LINE
  5
9B
330
90
100
AcDbEntity
  8
0
 62
     0
100
AcDbLine
 10
12.345281
 20
25.47095099999999
 30
0.0
 11
12.470281
 21
25.595951
 31
0.0
  0
LINE
  5
9C
330
90
100
AcDbEntity
  8
0
 62
     0
100
AcDbLine
 10
12.345281
 20
25.603533
 30
0.0
 11
12.470281
 21
25.728533
 31
0.0
  0
LINE
  5
9D
330
90
100
AcDbEntity
  8
0
 62
     0
100
AcDbLine
 10
12.345281
 20
25.73611599999999
 30
0.0
 11
12.470281
 21
25.861116
 31
0.0
  0
LINE
  5
9E
330
90
100
AcDbEntity
  8
0
 62
     0
100
AcDbLine
 10
12.345281
 20
25.868698
 30
0.0
 11
12.470281
 21
25.993698
 31
0.0
  0
LINE
  5
9F
330
90
100
AcDbEntity
  8
0
 62
     0
100
AcDbLine
 10
12.345281
 20
26.001281
 30
0.0
 11
12.470281
 21
26.126281
 31
0.0
  0
LINE
  5
A0
330
90
100
AcDbEntity
  8
0
 62
     0
100
AcDbLine
 10
12.345281
 20
26.133863
 30
0.0
 11
12.413277
 21
26.201859
 31
0.0
  0
LINE
  5
A1
330
90
100
AcDbEntity
  8
0
 62
     0
100
AcDbLine
 10
12.345281
 20
24.145126
 30
0.0
 11
12.470281
 21
24.270126
 31
0.0
  0
LINE
  5
A2
330
90
100
AcDbEntity
  8
0
 62
     0
100
AcDbLine
 10
12.345281
 20
24.012543
 30
0.0
 11
12.470281
 21
24.137543
 31
0.0
  0
LINE
  5
A3
330
90
100
AcDbEntity
  8
0
 62
     0
100
AcDbLine
 10
12.345281
 20
23.87996
 30
0.0
 11
12.470281
 21
24.00496
 31
0.0
  0
LINE
  5
A4
330
90
100
AcDbEntity
  8
0
 62
     0
100
AcDbLine
 10
12.345281
 20
23.747378
 30
0.0
 11
12.470281
 21
23.872378
 31
0.0
  0
LINE
  5
A5
330
90
100
AcDbEntity
  8
0
 62
     0
100
AcDbLine
 10
12.345281
 20
23.614795
 30
0.0
 11
12.470281
 21
23.739795
 31
0.0
  0
LINE
  5
A6
330
90
100
AcDbEntity
  8
0
 62
     0
100
AcDbLine
 10
12.345281
 20
23.482213
 30
0.0
 11
12.470281
 21
23.607213
 31
0.0
  0
LINE
  5
A7
330
90
100
AcDbEntity
  8
0
 62
     0
100
AcDbLine
 10
12.345281
 20
23.34962999999999
 30
0.0
 11
12.470281
 21
23.47462999999999
 31
0.0
  0
LINE
  5
A8
330
90
100
AcDbEntity
  8
0
 62
     0
100
AcDbLine
 10
12.345281
 20
23.217048
 30
0.0
 11
12.470281
 21
23.342048
 31
0.0
  0
LINE
  5
A9
330
90
100
AcDbEntity
  8
0
 62
     0
100
AcDbLine
 10
12.345281
 20
23.084465
 30
0.0
 11
12.470281
 21
23.20946499999999
 31
0.0
  0
LINE
  5
AA
330
90
100
AcDbEntity
  8
0
 62
     0
100
AcDbLine
 10
12.345281
 20
22.95188299999999
 30
0.0
 11
12.470281
 21
23.076883
 31
0.0
  0
LINE
  5
AB
330
90
100
AcDbEntity
  8
0
 62
     0
100
AcDbLine
 10
12.326958
 20
22.800977
 30
0.0
 11
12.470281
 21
22.94429999999999
 31
0.0
  0
LINE
  5
AC
330
90
100
AcDbEntity
  8
0
 62
     0
100
AcDbLine
 10
12.329164
 20
22.670601
 30
0.0
 11
12.470281
 21
22.811718
 31
0.0
  0
LINE
  5
AD
330
90
100
AcDbEntity
  8
0
 62
     0
100
AcDbLine
 10
12.380281
 20
22.58913499999999
 30
0.0
 11
12.470281
 21
22.679135
 31
0.0
  0
ENDBLK
  5
AE
330
90
100
AcDbEntity
  8
0
100
AcDbBlockEnd
  0
BLOCK
  5
B0
330
AF
100
AcDbEntity
  8
0
100
AcDbBlockBegin
  2
*X4
 70
     1
 10
0.0
 20
0.0
 30
0.0
  3
*X4
  1

  0
LINE
  5
B1
330
AF
100
AcDbEntity
  8
0
 62
     0
100
AcDbLine
 10
11.60789599999999
 20
22.730977
 30
0.0
 11
11.537896
 21
22.800977
 31
0.0
  0
LINE
  5
B2
330
AF
100
AcDbEntity
  8
0
 62
     0
100
AcDbLine
 10
11.475313
 20
22.730977
 30
0.0
 11
11.40531299999999
 21
22.800977
 31
0.0
  0
LINE
  5
B3
330
AF
100
AcDbEntity
  8
0
 62
     0
100
AcDbLine
 10
11.342731
 20
22.730977
 30
0.0
 11
11.272731
 21
22.800977
 31
0.0
  0
LINE
  5
B4
330
AF
100
AcDbEntity
  8
0
 62
     0
100
AcDbLine
 10
11.21014799999999
 20
22.730977
 30
0.0
 11
11.140148
 21
22.800977
 31
0.0
  0
LINE
  5
B5
330
AF
100
AcDbEntity
  8
0
 62
     0
100
AcDbLine
 10
11.077566
 20
22.730977
 30
0.0
 11
11.05028099999999
 21
22.758262
 31
0.0
  0
LINE
  5
B6
330
AF
100
AcDbEntity
  8
0
 62
     0
100
AcDbLine
 10
11.740478
 20
22.730977
 30
0.0
 11
11.67047799999999
 21
22.800977
 31
0.0
  0
LINE
  5
B7
330
AF
100
AcDbEntity
  8
0
 62
     0
100
AcDbLine
 10
11.873061
 20
22.730977
 30
0.0
 11
11.80306099999999
 21
22.800977
 31
0.0
  0
LINE
  5
B8
330
AF
100
AcDbEntity
  8
0
 62
     0
100
AcDbLine
 10
12.00564299999999
 20
22.730977
 30
0.0
 11
11.935643
 21
22.800977
 31
0.0
  0
LINE
  5
B9
330
AF
100
AcDbEntity
  8
0
 62
     0
100
AcDbLine
 10
12.138226
 20
22.730977
 30
0.0
 11
12.06822599999999
 21
22.800977
 31
0.0
  0
LINE
  5
BA
330
AF
100
AcDbEntity
  8
0
 62
     0
100
AcDbLine
 10
12.270809
 20
22.730977
 30
0.0
 11
12.200809
 21
22.800977
 31
0.0
  0
LINE
  5
BB
330
AF
100
AcDbEntity
  8
0
 62
     0
100
AcDbLine
 10
12.360281
 20
22.774087
 30
0.0
 11
12.333391
 21
22.800977
 31
0.0
  0
ENDBLK
  5
BC
330
AF
100
AcDbEntity
  8
0
100
AcDbBlockEnd
  0
BLOCK
  5
329
330
328
100
AcDbEntity
  8
0
100
AcDbBlockBegin
  2
*X5
 70
     1
 10
0.0
 20
0.0
 30
0.0
  3
*X5
  1

  0
LINE
  5
32A
330
328
100
AcDbEntity
  8
0
 62
     0
100
AcDbLine
 10
11.629863
 20
7.917552999999999
 30
0.0
 11
11.75486299999999
 21
8.042552999999999
 31
0.0
  0
LINE
  5
32B
330
328
100
AcDbEntity
  8
0
 62
     0
100
AcDbLine
 10
11.629863
 20
8.050135
 30
0.0
 11
11.75486299999999
 21
8.175135
 31
0.0
  0
LINE
  5
32C
330
328
100
AcDbEntity
  8
0
 62
     0
100
AcDbLine
 10
11.629863
 20
8.182717999999999
 30
0.0
 11
11.75486299999999
 21
8.307717999999999
 31
0.0
  0
LINE
  5
32D
330
328
100
AcDbEntity
  8
0
 62
     0
100
AcDbLine
 10
11.629863
 20
8.3153
 30
0.0
 11
11.75486299999999
 21
8.4403
 31
0.0
  0
LINE
  5
32E
330
328
100
AcDbEntity
  8
0
 62
     0
100
AcDbLine
 10
11.629863
 20
8.447883
 30
0.0
 11
11.75486299999999
 21
8.572883
 31
0.0
  0
LINE
  5
32F
330
328
100
AcDbEntity
  8
0
 62
     0
100
AcDbLine
 10
11.629863
 20
8.580465
 30
0.0
 11
11.75486299999999
 21
8.705465
 31
0.0
  0
LINE
  5
330
330
328
100
AcDbEntity
  8
0
 62
     0
100
AcDbLine
 10
11.629863
 20
8.713047999999998
 30
0.0
 11
11.75486299999999
 21
8.838047999999998
 31
0.0
  0
LINE
  5
331
330
328
100
AcDbEntity
  8
0
 62
     0
100
AcDbLine
 10
11.629863
 20
8.845629999999999
 30
0.0
 11
11.75486299999999
 21
8.970629999999999
 31
0.0
  0
LINE
  5
332
330
328
100
AcDbEntity
  8
0
 62
     0
100
AcDbLine
 10
11.629863
 20
8.978213
 30
0.0
 11
11.75486299999999
 21
9.103213
 31
0.0
  0
LINE
  5
333
330
328
100
AcDbEntity
  8
0
 62
     0
100
AcDbLine
 10
11.629863
 20
9.110794999999999
 30
0.0
 11
11.75486299999999
 21
9.235794999999999
 31
0.0
  0
LINE
  5
334
330
328
100
AcDbEntity
  8
0
 62
     0
100
AcDbLine
 10
11.629863
 20
9.243377999999999
 30
0.0
 11
11.75486299999999
 21
9.368377999999999
 31
0.0
  0
LINE
  5
335
330
328
100
AcDbEntity
  8
0
 62
     0
100
AcDbLine
 10
11.629863
 20
9.37596
 30
0.0
 11
11.75486299999999
 21
9.50096
 31
0.0
  0
LINE
  5
336
330
328
100
AcDbEntity
  8
0
 62
     0
100
AcDbLine
 10
11.629863
 20
9.508542999999999
 30
0.0
 11
11.75486299999999
 21
9.633542999999999
 31
0.0
  0
LINE
  5
337
330
328
100
AcDbEntity
  8
0
 62
     0
100
AcDbLine
 10
11.629863
 20
9.641125
 30
0.0
 11
11.75486299999999
 21
9.766125
 31
0.0
  0
LINE
  5
338
330
328
100
AcDbEntity
  8
0
 62
     0
100
AcDbLine
 10
11.629863
 20
9.773708
 30
0.0
 11
11.75486299999999
 21
9.898708
 31
0.0
  0
LINE
  5
339
330
328
100
AcDbEntity
  8
0
 62
     0
100
AcDbLine
 10
11.629863
 20
9.90629
 30
0.0
 11
11.75486299999999
 21
10.03129
 31
0.0
  0
LINE
  5
33A
330
328
100
AcDbEntity
  8
0
 62
     0
100
AcDbLine
 10
11.629863
 20
10.03887299999999
 30
0.0
 11
11.75486299999999
 21
10.16387299999999
 31
0.0
  0
LINE
  5
33B
330
328
100
AcDbEntity
  8
0
 62
     0
100
AcDbLine
 10
11.629863
 20
10.171455
 30
0.0
 11
11.75486299999999
 21
10.29645499999999
 31
0.0
  0
LINE
  5
33C
330
328
100
AcDbEntity
  8
0
 62
     0
100
AcDbLine
 10
11.629863
 20
10.30403799999999
 30
0.0
 11
11.75486299999999
 21
10.429038
 31
0.0
  0
LINE
  5
33D
330
328
100
AcDbEntity
  8
0
 62
     0
100
AcDbLine
 10
11.629863
 20
10.436621
 30
0.0
 11
11.75486299999999
 21
10.561621
 31
0.0
  0
LINE
  5
33E
330
328
100
AcDbEntity
  8
0
 62
     0
100
AcDbLine
 10
11.629863
 20
10.569203
 30
0.0
 11
11.711671
 21
10.65101
 31
0.0
  0
LINE
  5
33F
330
328
100
AcDbEntity
  8
0
 62
     0
100
AcDbLine
 10
11.629863
 20
7.784969999999999
 30
0.0
 11
11.75486299999999
 21
7.909969999999999
 31
0.0
  0
LINE
  5
340
330
328
100
AcDbEntity
  8
0
 62
     0
100
AcDbLine
 10
11.629863
 20
7.652388
 30
0.0
 11
11.75486299999999
 21
7.777388
 31
0.0
  0
LINE
  5
341
330
328
100
AcDbEntity
  8
0
 62
     0
100
AcDbLine
 10
11.629863
 20
7.519804999999999
 30
0.0
 11
11.75486299999999
 21
7.644804999999999
 31
0.0
  0
LINE
  5
342
330
328
100
AcDbEntity
  8
0
 62
     0
100
AcDbLine
 10
11.629863
 20
7.387222999999999
 30
0.0
 11
11.75486299999999
 21
7.512222999999999
 31
0.0
  0
LINE
  5
343
330
328
100
AcDbEntity
  8
0
 62
     0
100
AcDbLine
 10
11.629863
 20
7.254639999999999
 30
0.0
 11
11.75486299999999
 21
7.379639999999999
 31
0.0
  0
LINE
  5
344
330
328
100
AcDbEntity
  8
0
 62
     0
100
AcDbLine
 10
11.629863
 20
7.122057
 30
0.0
 11
11.75486299999999
 21
7.247057
 31
0.0
  0
LINE
  5
345
330
328
100
AcDbEntity
  8
0
 62
     0
100
AcDbLine
 10
11.629863
 20
6.989474999999999
 30
0.0
 11
11.75486299999999
 21
7.114474999999999
 31
0.0
  0
LINE
  5
346
330
328
100
AcDbEntity
  8
0
 62
     0
100
AcDbLine
 10
11.629863
 20
6.856892
 30
0.0
 11
11.75486299999999
 21
6.981892
 31
0.0
  0
LINE
  5
347
330
328
100
AcDbEntity
  8
0
 62
     0
100
AcDbLine
 10
11.629863
 20
6.72431
 30
0.0
 11
11.75486299999999
 21
6.84931
 31
0.0
  0
LINE
  5
348
330
328
100
AcDbEntity
  8
0
 62
     0
100
AcDbLine
 10
11.629863
 20
6.591727
 30
0.0
 11
11.75486299999999
 21
6.716727
 31
0.0
  0
LINE
  5
349
330
328
100
AcDbEntity
  8
0
 62
     0
100
AcDbLine
 10
11.629863
 20
6.459144999999999
 30
0.0
 11
11.75486299999999
 21
6.584144999999999
 31
0.0
  0
LINE
  5
34A
330
328
100
AcDbEntity
  8
0
 62
     0
100
AcDbLine
 10
11.629863
 20
6.326562
 30
0.0
 11
11.75486299999999
 21
6.451562
 31
0.0
  0
LINE
  5
34B
330
328
100
AcDbEntity
  8
0
 62
     0
100
AcDbLine
 10
11.629863
 20
6.19398
 30
0.0
 11
11.75486299999999
 21
6.31898
 31
0.0
  0
LINE
  5
34C
330
328
100
AcDbEntity
  8
0
 62
     0
100
AcDbLine
 10
11.629863
 20
6.061397
 30
0.0
 11
11.75486299999999
 21
6.186397
 31
0.0
  0
LINE
  5
34D
330
328
100
AcDbEntity
  8
0
 62
     0
100
AcDbLine
 10
11.629863
 20
5.928815
 30
0.0
 11
11.75486299999999
 21
6.053815
 31
0.0
  0
LINE
  5
34E
330
328
100
AcDbEntity
  8
0
 62
     0
100
AcDbLine
 10
11.629863
 20
5.796231999999999
 30
0.0
 11
11.75486299999999
 21
5.921231999999999
 31
0.0
  0
LINE
  5
34F
330
328
100
AcDbEntity
  8
0
 62
     0
100
AcDbLine
 10
11.629863
 20
5.663649999999999
 30
0.0
 11
11.75486299999999
 21
5.788649999999999
 31
0.0
  0
LINE
  5
350
330
328
100
AcDbEntity
  8
0
 62
     0
100
AcDbLine
 10
11.629863
 20
5.531067
 30
0.0
 11
11.75486299999999
 21
5.656067
 31
0.0
  0
LINE
  5
351
330
328
100
AcDbEntity
  8
0
 62
     0
100
AcDbLine
 10
11.629863
 20
5.398484999999999
 30
0.0
 11
11.75486299999999
 21
5.523484999999999
 31
0.0
  0
LINE
  5
352
330
328
100
AcDbEntity
  8
0
 62
     0
100
AcDbLine
 10
11.629863
 20
5.265901999999999
 30
0.0
 11
11.801863
 21
5.437901999999999
 31
0.0
  0
LINE
  5
353
330
328
100
AcDbEntity
  8
0
 62
     0
100
AcDbLine
 10
11.629863
 20
5.133319999999999
 30
0.0
 11
11.767004
 21
5.270459999999999
 31
0.0
  0
ENDBLK
  5
354
330
328
100
AcDbEntity
  8
0
100
AcDbBlockEnd
  0
BLOCK
  5
356
330
355
100
AcDbEntity
  8
0
100
AcDbBlockBegin
  2
*X6
 70
     1
 10
0.0
 20
0.0
 30
0.0
  3
*X6
  1

  0
LINE
  5
357
330
355
100
AcDbEntity
  8
0
 62
     0
100
AcDbLine
 10
5.602133999999999
 20
2.552735999999999
 30
0.0
 11
5.727133999999999
 21
2.677735999999999
 31
0.0
  0
LINE
  5
358
330
355
100
AcDbEntity
  8
0
 62
     0
100
AcDbLine
 10
5.469551
 20
2.552735999999999
 30
0.0
 11
5.594551
 21
2.677735999999999
 31
0.0
  0
LINE
  5
359
330
355
100
AcDbEntity
  8
0
 62
     0
100
AcDbLine
 10
5.336968999999999
 20
2.552735999999999
 30
0.0
 11
5.461968999999999
 21
2.677735999999999
 31
0.0
  0
LINE
  5
35A
330
355
100
AcDbEntity
  8
0
 62
     0
100
AcDbLine
 10
5.204386
 20
2.552735999999999
 30
0.0
 11
5.329386
 21
2.677735999999999
 31
0.0
  0
LINE
  5
35B
330
355
100
AcDbEntity
  8
0
 62
     0
100
AcDbLine
 10
5.071803
 20
2.552735999999999
 30
0.0
 11
5.196803
 21
2.677735999999999
 31
0.0
  0
LINE
  5
35C
330
355
100
AcDbEntity
  8
0
 62
     0
100
AcDbLine
 10
4.939220999999999
 20
2.552735999999999
 30
0.0
 11
5.064220999999999
 21
2.677735999999999
 31
0.0
  0
LINE
  5
35D
330
355
100
AcDbEntity
  8
0
 62
     0
100
AcDbLine
 10
4.806637999999999
 20
2.552735999999999
 30
0.0
 11
4.931637999999999
 21
2.677735999999999
 31
0.0
  0
LINE
  5
35E
330
355
100
AcDbEntity
  8
0
 62
     0
100
AcDbLine
 10
4.674056
 20
2.552735999999999
 30
0.0
 11
4.799056
 21
2.677735999999999
 31
0.0
  0
LINE
  5
35F
330
355
100
AcDbEntity
  8
0
 62
     0
100
AcDbLine
 10
4.541473
 20
2.552735999999999
 30
0.0
 11
4.666473
 21
2.677735999999999
 31
0.0
  0
LINE
  5
360
330
355
100
AcDbEntity
  8
0
 62
     0
100
AcDbLine
 10
4.408891
 20
2.552735999999999
 30
0.0
 11
4.533891
 21
2.677735999999999
 31
0.0
  0
LINE
  5
361
330
355
100
AcDbEntity
  8
0
 62
     0
100
AcDbLine
 10
4.276308
 20
2.552735999999999
 30
0.0
 11
4.401308
 21
2.677735999999999
 31
0.0
  0
LINE
  5
362
330
355
100
AcDbEntity
  8
0
 62
     0
100
AcDbLine
 10
4.143726
 20
2.552735999999999
 30
0.0
 11
4.268726
 21
2.677735999999999
 31
0.0
  0
LINE
  5
363
330
355
100
AcDbEntity
  8
0
 62
     0
100
AcDbLine
 10
3.376142999999999
 20
1.917736
 30
0.0
 11
3.406766
 21
1.948358
 31
0.0
  0
LINE
  5
364
330
355
100
AcDbEntity
  8
0
 62
     0
100
AcDbLine
 10
4.011142999999999
 20
2.552735999999999
 30
0.0
 11
4.136142999999999
 21
2.677735999999999
 31
0.0
  0
LINE
  5
365
330
355
100
AcDbEntity
  8
0
 62
     0
100
AcDbLine
 10
3.257597
 20
1.931772
 30
0.0
 11
3.406766
 21
2.080941
 31
0.0
  0
LINE
  5
366
330
355
100
AcDbEntity
  8
0
 62
     0
100
AcDbLine
 10
3.878560999999999
 20
2.552735999999999
 30
0.0
 11
4.003561
 21
2.677735999999999
 31
0.0
  0
LINE
  5
367
330
355
100
AcDbEntity
  8
0
 62
     0
100
AcDbLine
 10
3.26365
 20
2.070408
 30
0.0
 11
3.406766
 21
2.213522999999999
 31
0.0
  0
LINE
  5
368
330
355
100
AcDbEntity
  8
0
 62
     0
100
AcDbLine
 10
3.745978
 20
2.552735999999999
 30
0.0
 11
3.870978
 21
2.677735999999999
 31
0.0
  0
LINE
  5
369
330
355
100
AcDbEntity
  8
0
 62
     0
100
AcDbLine
 10
3.269702999999999
 20
2.209042999999999
 30
0.0
 11
3.406766
 21
2.346106
 31
0.0
  0
LINE
  5
36A
330
355
100
AcDbEntity
  8
0
 62
     0
100
AcDbLine
 10
3.613395999999999
 20
2.552735999999999
 30
0.0
 11
3.738395999999999
 21
2.677735999999999
 31
0.0
  0
LINE
  5
36B
330
355
100
AcDbEntity
  8
0
 62
     0
100
AcDbLine
 10
3.275756
 20
2.347677999999999
 30
0.0
 11
3.406766
 21
2.478688
 31
0.0
  0
LINE
  5
36C
330
355
100
AcDbEntity
  8
0
 62
     0
100
AcDbLine
 10
3.480812999999999
 20
2.552735999999999
 30
0.0
 11
3.605812999999999
 21
2.677735999999999
 31
0.0
  0
LINE
  5
36D
330
355
100
AcDbEntity
  8
0
 62
     0
100
AcDbLine
 10
3.281808999999999
 20
2.486314
 30
0.0
 11
3.473230999999999
 21
2.677735999999999
 31
0.0
  0
LINE
  5
36E
330
355
100
AcDbEntity
  8
0
 62
     0
100
AcDbLine
 10
3.287862
 20
2.624948999999999
 30
0.0
 11
3.340648
 21
2.677735999999999
 31
0.0
  0
LINE
  5
36F
330
355
100
AcDbEntity
  8
0
 62
     0
100
AcDbLine
 10
5.734716
 20
2.552735999999999
 30
0.0
 11
5.859716
 21
2.677735999999999
 31
0.0
  0
LINE
  5
370
330
355
100
AcDbEntity
  8
0
 62
     0
100
AcDbLine
 10
5.867299
 20
2.552735999999999
 30
0.0
 11
5.992299
 21
2.677735999999999
 31
0.0
  0
LINE
  5
371
330
355
100
AcDbEntity
  8
0
 62
     0
100
AcDbLine
 10
5.999880999999999
 20
2.552735999999999
 30
0.0
 11
6.124880999999999
 21
2.677735999999999
 31
0.0
  0
LINE
  5
372
330
355
100
AcDbEntity
  8
0
 62
     0
100
AcDbLine
 10
6.132463999999999
 20
2.552735999999999
 30
0.0
 11
6.257463999999999
 21
2.677735999999999
 31
0.0
  0
LINE
  5
373
330
355
100
AcDbEntity
  8
0
 62
     0
100
AcDbLine
 10
6.265045999999999
 20
2.552735999999999
 30
0.0
 11
6.390045999999999
 21
2.677735999999999
 31
0.0
  0
LINE
  5
374
330
355
100
AcDbEntity
  8
0
 62
     0
100
AcDbLine
 10
6.397629
 20
2.552735999999999
 30
0.0
 11
6.522629
 21
2.677735999999999
 31
0.0
  0
LINE
  5
375
330
355
100
AcDbEntity
  8
0
 62
     0
100
AcDbLine
 10
6.530211
 20
2.552735999999999
 30
0.0
 11
6.655211
 21
2.677735999999999
 31
0.0
  0
LINE
  5
376
330
355
100
AcDbEntity
  8
0
 62
     0
100
AcDbLine
 10
6.662793999999999
 20
2.552735999999999
 30
0.0
 11
6.787793999999999
 21
2.677735999999999
 31
0.0
  0
LINE
  5
377
330
355
100
AcDbEntity
  8
0
 62
     0
100
AcDbLine
 10
6.795375999999999
 20
2.552735999999999
 30
0.0
 11
6.920375999999999
 21
2.677735999999999
 31
0.0
  0
LINE
  5
378
330
355
100
AcDbEntity
  8
0
 62
     0
100
AcDbLine
 10
6.927958999999999
 20
2.552735999999999
 30
0.0
 11
7.052958999999999
 21
2.677735999999999
 31
0.0
  0
LINE
  5
379
330
355
100
AcDbEntity
  8
0
 62
     0
100
AcDbLine
 10
7.060541
 20
2.552735999999999
 30
0.0
 11
7.185541
 21
2.677735999999999
 31
0.0
  0
LINE
  5
37A
330
355
100
AcDbEntity
  8
0
 62
     0
100
AcDbLine
 10
7.193124
 20
2.552735999999999
 30
0.0
 11
7.318124
 21
2.677735999999999
 31
0.0
  0
LINE
  5
37B
330
355
100
AcDbEntity
  8
0
 62
     0
100
AcDbLine
 10
7.325705999999999
 20
2.552735999999999
 30
0.0
 11
7.450705999999999
 21
2.677735999999999
 31
0.0
  0
LINE
  5
37C
330
355
100
AcDbEntity
  8
0
 62
     0
100
AcDbLine
 10
7.458288999999999
 20
2.552735999999999
 30
0.0
 11
7.583288999999999
 21
2.677735999999999
 31
0.0
  0
LINE
  5
37D
330
355
100
AcDbEntity
  8
0
 62
     0
100
AcDbLine
 10
7.590871
 20
2.552735999999999
 30
0.0
 11
7.651606
 21
2.613469999999999
 31
0.0
  0
ENDBLK
  5
37E
330
355
100
AcDbEntity
  8
0
100
AcDbBlockEnd
  0
BLOCK
  5
380
330
37F
100
AcDbEntity
  8
0
100
AcDbBlockBegin
  2
*X7
 70
     1
 10
0.0
 20
0.0
 30
0.0
  3
*X7
  1

  0
LINE
  5
381
330
37F
100
AcDbEntity
  8
0
 62
     0
100
AcDbLine
 10
12.36301499999999
 20
5.270459999999999
 30
0.0
 11
12.263452
 21
5.370023999999999
 31
0.0
  0
LINE
  5
382
330
37F
100
AcDbEntity
  8
0
 62
     0
100
AcDbLine
 10
12.230432
 20
5.270459999999999
 30
0.0
 11
12.130869
 21
5.370023999999999
 31
0.0
  0
LINE
  5
383
330
37F
100
AcDbEntity
  8
0
 62
     0
100
AcDbLine
 10
12.09785
 20
5.270459999999999
 30
0.0
 11
11.998286
 21
5.370023999999999
 31
0.0
  0
LINE
  5
384
330
37F
100
AcDbEntity
  8
0
 62
     0
100
AcDbLine
 10
11.96526699999999
 20
5.270459999999999
 30
0.0
 11
11.86570399999999
 21
5.370023999999999
 31
0.0
  0
LINE
  5
385
330
37F
100
AcDbEntity
  8
0
 62
     0
100
AcDbLine
 10
11.832685
 20
5.270459999999999
 30
0.0
 11
11.73986299999999
 21
5.363281999999999
 31
0.0
  0
LINE
  5
386
330
37F
100
AcDbEntity
  8
0
 62
     0
100
AcDbLine
 10
12.495597
 20
5.270459999999999
 30
0.0
 11
12.396034
 21
5.370023999999999
 31
0.0
  0
LINE
  5
387
330
37F
100
AcDbEntity
  8
0
 62
     0
100
AcDbLine
 10
12.62818
 20
5.270459999999999
 30
0.0
 11
12.528617
 21
5.370023999999999
 31
0.0
  0
LINE
  5
388
330
37F
100
AcDbEntity
  8
0
 62
     0
100
AcDbLine
 10
12.760762
 20
5.270459999999999
 30
0.0
 11
12.661199
 21
5.370023999999999
 31
0.0
  0
LINE
  5
389
330
37F
100
AcDbEntity
  8
0
 62
     0
100
AcDbLine
 10
12.893345
 20
5.270459999999999
 30
0.0
 11
12.793782
 21
5.370023999999999
 31
0.0
  0
LINE
  5
38A
330
37F
100
AcDbEntity
  8
0
 62
     0
100
AcDbLine
 10
13.025928
 20
5.270459999999999
 30
0.0
 11
12.926364
 21
5.370023999999999
 31
0.0
  0
LINE
  5
38B
330
37F
100
AcDbEntity
  8
0
 62
     0
100
AcDbLine
 10
13.069863
 20
5.359106999999999
 30
0.0
 11
13.058947
 21
5.370023999999999
 31
0.0
  0
ENDBLK
  5
38C
330
37F
100
AcDbEntity
  8
0
100
AcDbBlockEnd
  0
BLOCK
  5
38E
330
38D
100
AcDbEntity
  8
0
100
AcDbBlockBegin
  2
*X8
 70
     1
 10
0.0
 20
0.0
 30
0.0
  3
*X8
  1

  0
LINE
  5
38F
330
38D
100
AcDbEntity
  8
0
 62
     0
100
AcDbLine
 10
13.054863
 20
7.884144999999999
 30
0.0
 11
13.179863
 21
8.009145
 31
0.0
  0
LINE
  5
390
330
38D
100
AcDbEntity
  8
0
 62
     0
100
AcDbLine
 10
13.054863
 20
8.016727000000001
 30
0.0
 11
13.179863
 21
8.141727000000001
 31
0.0
  0
LINE
  5
391
330
38D
100
AcDbEntity
  8
0
 62
     0
100
AcDbLine
 10
13.054863
 20
8.149309999999999
 30
0.0
 11
13.179863
 21
8.274309999999999
 31
0.0
  0
LINE
  5
392
330
38D
100
AcDbEntity
  8
0
 62
     0
100
AcDbLine
 10
13.054863
 20
8.281891999999999
 30
0.0
 11
13.179863
 21
8.406891999999999
 31
0.0
  0
LINE
  5
393
330
38D
100
AcDbEntity
  8
0
 62
     0
100
AcDbLine
 10
13.054863
 20
8.414474999999999
 30
0.0
 11
13.179863
 21
8.539474999999999
 31
0.0
  0
LINE
  5
394
330
38D
100
AcDbEntity
  8
0
 62
     0
100
AcDbLine
 10
13.054863
 20
8.547057
 30
0.0
 11
13.179863
 21
8.672057
 31
0.0
  0
LINE
  5
395
330
38D
100
AcDbEntity
  8
0
 62
     0
100
AcDbLine
 10
13.054863
 20
8.679639999999999
 30
0.0
 11
13.179863
 21
8.804639999999999
 31
0.0
  0
LINE
  5
396
330
38D
100
AcDbEntity
  8
0
 62
     0
100
AcDbLine
 10
13.054863
 20
8.812222999999999
 30
0.0
 11
13.179863
 21
8.937222999999999
 31
0.0
  0
LINE
  5
397
330
38D
100
AcDbEntity
  8
0
 62
     0
100
AcDbLine
 10
13.054863
 20
8.944805
 30
0.0
 11
13.179863
 21
9.069805
 31
0.0
  0
LINE
  5
398
330
38D
100
AcDbEntity
  8
0
 62
     0
100
AcDbLine
 10
13.054863
 20
9.077388
 30
0.0
 11
13.179863
 21
9.202388
 31
0.0
  0
LINE
  5
399
330
38D
100
AcDbEntity
  8
0
 62
     0
100
AcDbLine
 10
13.054863
 20
9.20997
 30
0.0
 11
13.179863
 21
9.33497
 31
0.0
  0
LINE
  5
39A
330
38D
100
AcDbEntity
  8
0
 62
     0
100
AcDbLine
 10
13.054863
 20
9.342553
 30
0.0
 11
13.179863
 21
9.467553
 31
0.0
  0
LINE
  5
39B
330
38D
100
AcDbEntity
  8
0
 62
     0
100
AcDbLine
 10
13.054863
 20
9.475134999999999
 30
0.0
 11
13.179863
 21
9.600134999999999
 31
0.0
  0
LINE
  5
39C
330
38D
100
AcDbEntity
  8
0
 62
     0
100
AcDbLine
 10
13.054863
 20
9.607717999999998
 30
0.0
 11
13.179863
 21
9.732717999999998
 31
0.0
  0
LINE
  5
39D
330
38D
100
AcDbEntity
  8
0
 62
     0
100
AcDbLine
 10
13.054863
 20
9.740299999999999
 30
0.0
 11
13.179863
 21
9.865299999999999
 31
0.0
  0
LINE
  5
39E
330
38D
100
AcDbEntity
  8
0
 62
     0
100
AcDbLine
 10
13.054863
 20
9.872882999999999
 30
0.0
 11
13.179863
 21
9.997882999999999
 31
0.0
  0
LINE
  5
39F
330
38D
100
AcDbEntity
  8
0
 62
     0
100
AcDbLine
 10
13.054863
 20
10.005465
 30
0.0
 11
13.179863
 21
10.13046499999999
 31
0.0
  0
LINE
  5
3A0
330
38D
100
AcDbEntity
  8
0
 62
     0
100
AcDbLine
 10
13.054863
 20
10.13804799999999
 30
0.0
 11
13.179863
 21
10.26304799999999
 31
0.0
  0
LINE
  5
3A1
330
38D
100
AcDbEntity
  8
0
 62
     0
100
AcDbLine
 10
13.054863
 20
10.27063
 30
0.0
 11
13.179863
 21
10.39563
 31
0.0
  0
LINE
  5
3A2
330
38D
100
AcDbEntity
  8
0
 62
     0
100
AcDbLine
 10
13.054863
 20
10.403213
 30
0.0
 11
13.179863
 21
10.528213
 31
0.0
  0
LINE
  5
3A3
330
38D
100
AcDbEntity
  8
0
 62
     0
100
AcDbLine
 10
13.054863
 20
10.535795
 30
0.0
 11
13.179863
 21
10.660795
 31
0.0
  0
LINE
  5
3A4
330
38D
100
AcDbEntity
  8
0
 62
     0
100
AcDbLine
 10
13.054863
 20
7.751561999999999
 30
0.0
 11
13.179863
 21
7.876561999999999
 31
0.0
  0
LINE
  5
3A5
330
38D
100
AcDbEntity
  8
0
 62
     0
100
AcDbLine
 10
13.054863
 20
7.61898
 30
0.0
 11
13.179863
 21
7.74398
 31
0.0
  0
LINE
  5
3A6
330
38D
100
AcDbEntity
  8
0
 62
     0
100
AcDbLine
 10
13.054863
 20
7.486397
 30
0.0
 11
13.179863
 21
7.611397
 31
0.0
  0
LINE
  5
3A7
330
38D
100
AcDbEntity
  8
0
 62
     0
100
AcDbLine
 10
13.054863
 20
7.353814999999999
 30
0.0
 11
13.179863
 21
7.478814999999999
 31
0.0
  0
LINE
  5
3A8
330
38D
100
AcDbEntity
  8
0
 62
     0
100
AcDbLine
 10
13.054863
 20
7.221232
 30
0.0
 11
13.179863
 21
7.346232
 31
0.0
  0
LINE
  5
3A9
330
38D
100
AcDbEntity
  8
0
 62
     0
100
AcDbLine
 10
13.054863
 20
7.08865
 30
0.0
 11
13.179863
 21
7.21365
 31
0.0
  0
LINE
  5
3AA
330
38D
100
AcDbEntity
  8
0
 62
     0
100
AcDbLine
 10
13.054863
 20
6.956067
 30
0.0
 11
13.179863
 21
7.081067
 31
0.0
  0
LINE
  5
3AB
330
38D
100
AcDbEntity
  8
0
 62
     0
100
AcDbLine
 10
13.054863
 20
6.823485
 30
0.0
 11
13.179863
 21
6.948485
 31
0.0
  0
LINE
  5
3AC
330
38D
100
AcDbEntity
  8
0
 62
     0
100
AcDbLine
 10
13.054863
 20
6.690902
 30
0.0
 11
13.179863
 21
6.815902
 31
0.0
  0
LINE
  5
3AD
330
38D
100
AcDbEntity
  8
0
 62
     0
100
AcDbLine
 10
13.054863
 20
6.55832
 30
0.0
 11
13.179863
 21
6.68332
 31
0.0
  0
LINE
  5
3AE
330
38D
100
AcDbEntity
  8
0
 62
     0
100
AcDbLine
 10
13.054863
 20
6.425737
 30
0.0
 11
13.179863
 21
6.550737
 31
0.0
  0
LINE
  5
3AF
330
38D
100
AcDbEntity
  8
0
 62
     0
100
AcDbLine
 10
13.054863
 20
6.293155
 30
0.0
 11
13.179863
 21
6.418155
 31
0.0
  0
LINE
  5
3B0
330
38D
100
AcDbEntity
  8
0
 62
     0
100
AcDbLine
 10
13.054863
 20
6.160572
 30
0.0
 11
13.179863
 21
6.285572
 31
0.0
  0
LINE
  5
3B1
330
38D
100
AcDbEntity
  8
0
 62
     0
100
AcDbLine
 10
13.054863
 20
6.027989999999999
 30
0.0
 11
13.179863
 21
6.152989999999999
 31
0.0
  0
LINE
  5
3B2
330
38D
100
AcDbEntity
  8
0
 62
     0
100
AcDbLine
 10
13.054863
 20
5.895406999999999
 30
0.0
 11
13.179863
 21
6.020406999999999
 31
0.0
  0
LINE
  5
3B3
330
38D
100
AcDbEntity
  8
0
 62
     0
100
AcDbLine
 10
13.054863
 20
5.762825
 30
0.0
 11
13.179863
 21
5.887825
 31
0.0
  0
LINE
  5
3B4
330
38D
100
AcDbEntity
  8
0
 62
     0
100
AcDbLine
 10
13.054863
 20
5.630241999999999
 30
0.0
 11
13.179863
 21
5.755241999999999
 31
0.0
  0
LINE
  5
3B5
330
38D
100
AcDbEntity
  8
0
 62
     0
100
AcDbLine
 10
13.054863
 20
5.497658999999999
 30
0.0
 11
13.179863
 21
5.622658999999999
 31
0.0
  0
LINE
  5
3B6
330
38D
100
AcDbEntity
  8
0
 62
     0
100
AcDbLine
 10
13.05981
 20
5.370023999999999
 30
0.0
 11
13.179863
 21
5.490076999999999
 31
0.0
  0
LINE
  5
3B7
330
38D
100
AcDbEntity
  8
0
 62
     0
100
AcDbLine
 10
13.036164
 20
5.213794999999999
 30
0.0
 11
13.179863
 21
5.357493999999999
 31
0.0
  0
LINE
  5
3B8
330
38D
100
AcDbEntity
  8
0
 62
     0
100
AcDbLine
 10
13.080325
 20
5.125373999999999
 30
0.0
 11
13.179863
 21
5.224912
 31
0.0
  0
ENDBLK
  5
3B9
330
38D
100
AcDbEntity
  8
0
100
AcDbBlockEnd
  0
BLOCK
  5
3BB
330
3BA
100
AcDbEntity
  8
0
100
AcDbBlockBegin
  2
*X9
 70
     1
 10
0.0
 20
0.0
 30
0.0
  3
*X9
  1

  0
LINE
  5
3BC
330
3BA
100
AcDbEntity
  8
0
 62
     0
100
AcDbLine
 10
5.766555999999999
 20
1.127736
 30
0.0
 11
5.641555999999999
 21
1.252736
 31
0.0
  0
LINE
  5
3BD
330
3BA
100
AcDbEntity
  8
0
 62
     0
100
AcDbLine
 10
5.633973
 20
1.127736
 30
0.0
 11
5.508973
 21
1.252736
 31
0.0
  0
LINE
  5
3BE
330
3BA
100
AcDbEntity
  8
0
 62
     0
100
AcDbLine
 10
5.501390999999999
 20
1.127736
 30
0.0
 11
5.376390999999999
 21
1.252736
 31
0.0
  0
LINE
  5
3BF
330
3BA
100
AcDbEntity
  8
0
 62
     0
100
AcDbLine
 10
5.368808
 20
1.127736
 30
0.0
 11
5.243808
 21
1.252736
 31
0.0
  0
LINE
  5
3C0
330
3BA
100
AcDbEntity
  8
0
 62
     0
100
AcDbLine
 10
5.236225
 20
1.127736
 30
0.0
 11
5.111225
 21
1.252736
 31
0.0
  0
LINE
  5
3C1
330
3BA
100
AcDbEntity
  8
0
 62
     0
100
AcDbLine
 10
5.103642999999999
 20
1.127736
 30
0.0
 11
4.978642999999999
 21
1.252736
 31
0.0
  0
LINE
  5
3C2
330
3BA
100
AcDbEntity
  8
0
 62
     0
100
AcDbLine
 10
4.971059999999999
 20
1.127736
 30
0.0
 11
4.846059999999999
 21
1.252736
 31
0.0
  0
LINE
  5
3C3
330
3BA
100
AcDbEntity
  8
0
 62
     0
100
AcDbLine
 10
4.838478
 20
1.127736
 30
0.0
 11
4.713478
 21
1.252736
 31
0.0
  0
LINE
  5
3C4
330
3BA
100
AcDbEntity
  8
0
 62
     0
100
AcDbLine
 10
4.705894999999999
 20
1.127736
 30
0.0
 11
4.580894999999999
 21
1.252736
 31
0.0
  0
LINE
  5
3C5
330
3BA
100
AcDbEntity
  8
0
 62
     0
100
AcDbLine
 10
4.573312999999999
 20
1.127736
 30
0.0
 11
4.448312999999999
 21
1.252736
 31
0.0
  0
LINE
  5
3C6
330
3BA
100
AcDbEntity
  8
0
 62
     0
100
AcDbLine
 10
4.44073
 20
1.127736
 30
0.0
 11
4.31573
 21
1.252736
 31
0.0
  0
LINE
  5
3C7
330
3BA
100
AcDbEntity
  8
0
 62
     0
100
AcDbLine
 10
4.308148
 20
1.127736
 30
0.0
 11
4.183148
 21
1.252736
 31
0.0
  0
LINE
  5
3C8
330
3BA
100
AcDbEntity
  8
0
 62
     0
100
AcDbLine
 10
4.175564999999999
 20
1.127736
 30
0.0
 11
4.050564999999999
 21
1.252736
 31
0.0
  0
LINE
  5
3C9
330
3BA
100
AcDbEntity
  8
0
 62
     0
100
AcDbLine
 10
4.042983
 20
1.127736
 30
0.0
 11
3.917982999999999
 21
1.252736
 31
0.0
  0
LINE
  5
3CA
330
3BA
100
AcDbEntity
  8
0
 62
     0
100
AcDbLine
 10
3.406766
 20
1.763951999999999
 30
0.0
 11
3.282983
 21
1.887736
 31
0.0
  0
LINE
  5
3CB
330
3BA
100
AcDbEntity
  8
0
 62
     0
100
AcDbLine
 10
3.9104
 20
1.127736
 30
0.0
 11
3.7854
 21
1.252736
 31
0.0
  0
LINE
  5
3CC
330
3BA
100
AcDbEntity
  8
0
 62
     0
100
AcDbLine
 10
3.406766
 20
1.631369999999999
 30
0.0
 11
3.261849999999999
 21
1.776284999999999
 31
0.0
  0
LINE
  5
3CD
330
3BA
100
AcDbEntity
  8
0
 62
     0
100
AcDbLine
 10
3.777817999999999
 20
1.127736
 30
0.0
 11
3.652817999999999
 21
1.252736
 31
0.0
  0
LINE
  5
3CE
330
3BA
100
AcDbEntity
  8
0
 62
     0
100
AcDbLine
 10
3.406766
 20
1.498787
 30
0.0
 11
3.267903
 21
1.63765
 31
0.0
  0
LINE
  5
3CF
330
3BA
100
AcDbEntity
  8
0
 62
     0
100
AcDbLine
 10
3.645235
 20
1.127736
 30
0.0
 11
3.520235
 21
1.252736
 31
0.0
  0
LINE
  5
3D0
330
3BA
100
AcDbEntity
  8
0
 62
     0
100
AcDbLine
 10
3.406766
 20
1.366204999999999
 30
0.0
 11
3.273956
 21
1.499013999999999
 31
0.0
  0
LINE
  5
3D1
330
3BA
100
AcDbEntity
  8
0
 62
     0
100
AcDbLine
 10
3.512652999999999
 20
1.127736
 30
0.0
 11
3.280008999999999
 21
1.360379
 31
0.0
  0
LINE
  5
3D2
330
3BA
100
AcDbEntity
  8
0
 62
     0
100
AcDbLine
 10
3.380069999999999
 20
1.127736
 30
0.0
 11
3.286062
 21
1.221743
 31
0.0
  0
LINE
  5
3D3
330
3BA
100
AcDbEntity
  8
0
 62
     0
100
AcDbLine
 10
5.899137999999999
 20
1.127736
 30
0.0
 11
5.774137999999999
 21
1.252736
 31
0.0
  0
LINE
  5
3D4
330
3BA
100
AcDbEntity
  8
0
 62
     0
100
AcDbLine
 10
6.031721
 20
1.127736
 30
0.0
 11
5.906721
 21
1.252736
 31
0.0
  0
LINE
  5
3D5
330
3BA
100
AcDbEntity
  8
0
 62
     0
100
AcDbLine
 10
6.164303
 20
1.127736
 30
0.0
 11
6.039303
 21
1.252736
 31
0.0
  0
LINE
  5
3D6
330
3BA
100
AcDbEntity
  8
0
 62
     0
100
AcDbLine
 10
6.296885999999999
 20
1.127736
 30
0.0
 11
6.171885999999999
 21
1.252736
 31
0.0
  0
LINE
  5
3D7
330
3BA
100
AcDbEntity
  8
0
 62
     0
100
AcDbLine
 10
6.429467999999999
 20
1.127736
 30
0.0
 11
6.304467999999999
 21
1.252736
 31
0.0
  0
LINE
  5
3D8
330
3BA
100
AcDbEntity
  8
0
 62
     0
100
AcDbLine
 10
6.562050999999999
 20
1.127736
 30
0.0
 11
6.437051
 21
1.252736
 31
0.0
  0
LINE
  5
3D9
330
3BA
100
AcDbEntity
  8
0
 62
     0
100
AcDbLine
 10
6.694633
 20
1.127736
 30
0.0
 11
6.569633
 21
1.252736
 31
0.0
  0
LINE
  5
3DA
330
3BA
100
AcDbEntity
  8
0
 62
     0
100
AcDbLine
 10
6.827215999999999
 20
1.127736
 30
0.0
 11
6.702215999999999
 21
1.252736
 31
0.0
  0
LINE
  5
3DB
330
3BA
100
AcDbEntity
  8
0
 62
     0
100
AcDbLine
 10
6.959797999999999
 20
1.127736
 30
0.0
 11
6.834797999999999
 21
1.252736
 31
0.0
  0
LINE
  5
3DC
330
3BA
100
AcDbEntity
  8
0
 62
     0
100
AcDbLine
 10
7.092380999999999
 20
1.127736
 30
0.0
 11
6.967380999999999
 21
1.252736
 31
0.0
  0
LINE
  5
3DD
330
3BA
100
AcDbEntity
  8
0
 62
     0
100
AcDbLine
 10
7.224963
 20
1.127736
 30
0.0
 11
7.099963
 21
1.252736
 31
0.0
  0
LINE
  5
3DE
330
3BA
100
AcDbEntity
  8
0
 62
     0
100
AcDbLine
 10
7.357546000000001
 20
1.127736
 30
0.0
 11
7.232546000000001
 21
1.252736
 31
0.0
  0
LINE
  5
3DF
330
3BA
100
AcDbEntity
  8
0
 62
     0
100
AcDbLine
 10
7.490127999999999
 20
1.127736
 30
0.0
 11
7.365127999999999
 21
1.252736
 31
0.0
  0
LINE
  5
3E0
330
3BA
100
AcDbEntity
  8
0
 62
     0
100
AcDbLine
 10
7.622710999999999
 20
1.127736
 30
0.0
 11
7.497710999999999
 21
1.252736
 31
0.0
  0
LINE
  5
3E1
330
3BA
100
AcDbEntity
  8
0
 62
     0
100
AcDbLine
 10
7.655203
 20
1.227826
 30
0.0
 11
7.630292999999999
 21
1.252736
 31
0.0
  0
ENDBLK
  5
3E2
330
3BA
100
AcDbEntity
  8
0
100
AcDbBlockEnd
  0
BLOCK
  5
4DC
330
4D1
100
AcDbEntity
  8
0
100
AcDbBlockBegin
  2
*D10
 70
     1
 10
0.0
 20
0.0
 30
0.0
  3
*D10
  1

  0
LINE
  5
CE9
330
4D1
100
AcDbEntity
  8
DIM
 62
     0
370
    -2
100
AcDbLine
 10
16.001652
 20
18.78607699999999
 30
0.0
 11
16.001652
 21
18.13908299999999
 31
0.0
  0
LINE
  5
CEA
330
4D1
100
AcDbEntity
  8
DIM
 62
     0
370
    -2
100
AcDbLine
 10
11.351652
 20
18.78607699999999
 30
0.0
 11
11.351652
 21
18.13908299999999
 31
0.0
  0
LINE
  5
CEB
330
4D1
100
AcDbEntity
  8
DIM
 62
     0
370
    -2
100
AcDbLine
 10
16.36165199999999
 20
18.32508299999999
 30
0.0
 11
16.721652
 21
18.32508299999999
 31
0.0
  0
LINE
  5
CEC
330
4D1
100
AcDbEntity
  8
DIM
 62
     0
370
    -2
100
AcDbLine
 10
10.991652
 20
18.32508299999999
 30
0.0
 11
10.631652
 21
18.32508299999999
 31
0.0
  0
SOLID
  5
CED
330
4D1
100
AcDbEntity
  8
DIM
 62
     0
100
AcDbTrace
 10
16.36165199999999
 20
18.38508299999999
 30
0.0
 11
16.36165199999999
 21
18.265083
 31
0.0
 12
16.001652
 22
18.32508299999999
 32
0.0
 13
16.001652
 23
18.32508299999999
 33
0.0
  0
SOLID
  5
CEE
330
4D1
100
AcDbEntity
  8
DIM
 62
     0
100
AcDbTrace
 10
10.991652
 20
18.38508299999999
 30
0.0
 11
10.991652
 21
18.265083
 31
0.0
 12
11.351652
 22
18.32508299999999
 32
0.0
 13
11.351652
 23
18.32508299999999
 33
0.0
  0
MTEXT
  5
CEF
330
4D1
100
AcDbEntity
  8
DIM
 62
     0
100
AcDbMText
 10
13.676652
 20
18.32508299999999
 30
0.0
 40
0.25
 41
0.0
 71
     5
 72
     1
  1
\A1;4.650 EXPOSED PANEL
  7
TXT
 73
     1
 44
1.0
  0
POINT
  5
CF0
330
4D1
100
AcDbEntity
  8
DEFPOINTS
 62
     0
100
AcDbPoint
 10
16.001652
 20
18.912077
 30
0.0
  0
POINT
  5
CF1
330
4D1
100
AcDbEntity
  8
DEFPOINTS
 62
     0
100
AcDbPoint
 10
11.351652
 20
18.912077
 30
0.0
  0
POINT
  5
CF2
330
4D1
100
AcDbEntity
  8
DEFPOINTS
 62
     0
100
AcDbPoint
 10
11.351652
 20
18.32508299999999
 30
0.0
  0
ENDBLK
  5
4DD
330
4D1
100
AcDbEntity
  8
0
100
AcDbBlockEnd
  0
BLOCK
  5
4EA
330
4DF
100
AcDbEntity
  8
0
100
AcDbBlockBegin
  2
*D11
 70
     1
 10
0.0
 20
0.0
 30
0.0
  3
*D11
  1

  0
LINE
  5
BA1
330
4DF
100
AcDbEntity
  8
DIM
 62
     0
370
    -2
100
AcDbLine
 10
16.051652
 20
20.29307699999999
 30
0.0
 11
16.051652
 21
20.890843
 31
0.0
  0
LINE
  5
BA2
330
4DF
100
AcDbEntity
  8
DIM
 62
     0
370
    -2
100
AcDbLine
 10
11.301652
 20
20.29307699999999
 30
0.0
 11
11.301652
 21
20.890843
 31
0.0
  0
LINE
  5
BA3
330
4DF
100
AcDbEntity
  8
DIM
 62
     0
370
    -2
100
AcDbLine
 10
15.691652
 20
20.70484299999999
 30
0.0
 11
14.216027
 21
20.70484299999999
 31
0.0
  0
LINE
  5
BA4
330
4DF
100
AcDbEntity
  8
DIM
 62
     0
370
    -2
100
AcDbLine
 10
11.661652
 20
20.70484299999999
 30
0.0
 11
13.137277
 21
20.70484299999999
 31
0.0
  0
SOLID
  5
BA5
330
4DF
100
AcDbEntity
  8
DIM
 62
     0
100
AcDbTrace
 10
15.691652
 20
20.764843
 30
0.0
 11
15.691652
 21
20.644843
 31
0.0
 12
16.051652
 22
20.70484299999999
 32
0.0
 13
16.051652
 23
20.70484299999999
 33
0.0
  0
SOLID
  5
BA6
330
4DF
100
AcDbEntity
  8
DIM
 62
     0
100
AcDbTrace
 10
11.661652
 20
20.764843
 30
0.0
 11
11.661652
 21
20.644843
 31
0.0
 12
11.301652
 22
20.70484299999999
 32
0.0
 13
11.301652
 23
20.70484299999999
 33
0.0
  0
MTEXT
  5
BA7
330
4DF
100
AcDbEntity
  8
DIM
 62
     0
100
AcDbMText
 10
13.676652
 20
20.70484299999999
 30
0.0
 40
0.25
 41
0.0
 71
     5
 72
     1
  1
\A1;4.750
  7
TXT
 73
     1
 44
1.0
  0
POINT
  5
BA8
330
4DF
100
AcDbEntity
  8
DEFPOINTS
 62
     0
100
AcDbPoint
 10
16.051652
 20
20.16707699999999
 30
0.0
  0
POINT
  5
BA9
330
4DF
100
AcDbEntity
  8
DEFPOINTS
 62
     0
100
AcDbPoint
 10
11.301652
 20
20.16707699999999
 30
0.0
  0
POINT
  5
BAA
330
4DF
100
AcDbEntity
  8
DEFPOINTS
 62
     0
100
AcDbPoint
 10
11.301652
 20
20.70484299999999
 30
0.0
  0
ENDBLK
  5
4EB
330
4DF
100
AcDbEntity
  8
0
100
AcDbBlockEnd
  0
BLOCK
  5
4F8
330
4ED
100
AcDbEntity
  8
0
100
AcDbBlockBegin
  2
*D12
 70
     1
 10
0.0
 20
0.0
 30
0.0
  3
*D12
  1

  0
LINE
  5
CF3
330
4ED
100
AcDbEntity
  8
DIM
 62
     0
370
    -2
100
AcDbLine
 10
11.175652
 20
18.857077
 30
0.0
 11
10.38131099999999
 21
18.857077
 31
0.0
  0
LINE
  5
CF4
330
4ED
100
AcDbEntity
  8
DIM
 62
     0
370
    -2
100
AcDbLine
 10
11.175652
 20
20.16707699999999
 30
0.0
 11
10.38131099999999
 21
20.16707699999999
 31
0.0
  0
LINE
  5
CF5
330
4ED
100
AcDbEntity
  8
DIM
 62
     0
370
    -2
100
AcDbLine
 10
10.56731099999999
 20
18.497077
 30
0.0
 11
10.56731099999999
 21
18.137077
 31
0.0
  0
LINE
  5
CF6
330
4ED
100
AcDbEntity
  8
DIM
 62
     0
370
    -2
100
AcDbLine
 10
10.567311
 20
20.527077
 30
0.0
 11
10.567311
 21
20.887077
 31
0.0
  0
SOLID
  5
CF7
330
4ED
100
AcDbEntity
  8
DIM
 62
     0
100
AcDbTrace
 10
10.50731099999999
 20
18.497077
 30
0.0
 11
10.62731099999999
 21
18.497077
 31
0.0
 12
10.56731099999999
 22
18.857077
 32
0.0
 13
10.56731099999999
 23
18.857077
 33
0.0
  0
SOLID
  5
CF8
330
4ED
100
AcDbEntity
  8
DIM
 62
     0
100
AcDbTrace
 10
10.50731099999999
 20
20.527077
 30
0.0
 11
10.627311
 21
20.527077
 31
0.0
 12
10.567311
 22
20.16707699999999
 32
0.0
 13
10.567311
 23
20.16707699999999
 33
0.0
  0
MTEXT
  5
CF9
330
4ED
100
AcDbEntity
  8
DIM
 62
     0
100
AcDbMText
 10
10.56731099999999
 20
19.512077
 30
0.0
 40
0.25
 41
0.0
 71
     5
 72
     1
  1
\A1;1.310
  7
TXT
 73
     1
 44
1.0
  0
POINT
  5
CFA
330
4ED
100
AcDbEntity
  8
DEFPOINTS
 62
     0
100
AcDbPoint
 10
11.301652
 20
18.857077
 30
0.0
  0
POINT
  5
CFB
330
4ED
100
AcDbEntity
  8
DEFPOINTS
 62
     0
100
AcDbPoint
 10
11.301652
 20
20.16707699999999
 30
0.0
  0
POINT
  5
CFC
330
4ED
100
AcDbEntity
  8
DEFPOINTS
 62
     0
100
AcDbPoint
 10
10.567311
 20
20.16707699999999
 30
0.0
  0
ENDBLK
  5
4F9
330
4ED
100
AcDbEntity
  8
0
100
AcDbBlockEnd
  0
BLOCK
  5
506
330
4FB
100
AcDbEntity
  8
0
100
AcDbBlockBegin
  2
*D13
 70
     1
 10
0.0
 20
0.0
 30
0.0
  3
*D13
  1

  0
LINE
  5
E8D
330
4FB
100
AcDbEntity
  8
DIM
 62
     0
370
    -2
100
AcDbLine
 10
5.849958999999999
 20
20.15207699999999
 30
0.0
 11
5.598511261127907
 21
20.15207699999999
 31
0.0
  0
LINE
  5
E8E
330
4FB
100
AcDbEntity
  8
DIM
 62
     0
370
    -2
100
AcDbLine
 10
5.849958999999999
 20
18.87207699999999
 30
0.0
 11
5.598511261127907
 21
18.87207699999999
 31
0.0
  0
LINE
  5
E8F
330
4FB
100
AcDbEntity
  8
DIM
 62
     0
370
    -2
100
AcDbLine
 10
5.784511261127907
 20
20.51207699999999
 30
0.0
 11
5.784511261127907
 21
20.87207699999999
 31
0.0
  0
LINE
  5
E90
330
4FB
100
AcDbEntity
  8
DIM
 62
     0
370
    -2
100
AcDbLine
 10
5.784511261127907
 20
18.51207699999999
 30
0.0
 11
5.784511261127907
 21
18.152077
 31
0.0
  0
SOLID
  5
E91
330
4FB
100
AcDbEntity
  8
DIM
 62
     0
100
AcDbTrace
 10
5.724511261127907
 20
20.51207699999999
 30
0.0
 11
5.844511261127906
 21
20.51207699999999
 31
0.0
 12
5.784511261127907
 22
20.15207699999999
 32
0.0
 13
5.784511261127907
 23
20.15207699999999
 33
0.0
  0
SOLID
  5
E92
330
4FB
100
AcDbEntity
  8
DIM
 62
     0
100
AcDbTrace
 10
5.724511261127907
 20
18.51207699999999
 30
0.0
 11
5.844511261127906
 21
18.51207699999999
 31
0.0
 12
5.784511261127907
 22
18.87207699999999
 32
0.0
 13
5.784511261127907
 23
18.87207699999999
 33
0.0
  0
MTEXT
  5
E93
330
4FB
100
AcDbEntity
  8
DIM
 62
     0
100
AcDbMText
 10
5.784511261127903
 20
19.51207699999999
 30
0.0
 40
0.25
 41
0.0
 71
     5
 72
     1
  1
\A1;1.280
  7
TXT
 73
     1
 44
1.0
  0
POINT
  5
E94
330
4FB
100
AcDbEntity
  8
DEFPOINTS
 62
     0
100
AcDbPoint
 10
5.975958999999999
 20
20.15207699999999
 30
0.0
  0
POINT
  5
E95
330
4FB
100
AcDbEntity
  8
DEFPOINTS
 62
     0
100
AcDbPoint
 10
5.975958999999999
 20
18.87207699999999
 30
0.0
  0
POINT
  5
E96
330
4FB
100
AcDbEntity
  8
DEFPOINTS
 62
     0
100
AcDbPoint
 10
5.784511261127907
 20
18.87207699999999
 30
0.0
  0
ENDBLK
  5
507
330
4FB
100
AcDbEntity
  8
0
100
AcDbBlockEnd
  0
BLOCK
  5
522
330
517
100
AcDbEntity
  8
0
100
AcDbBlockBegin
  2
*D14
 70
     1
 10
0.0
 20
0.0
 30
0.0
  3
*D14
  1

  0
LINE
  5
BB6
330
517
100
AcDbEntity
  8
DIM
 62
     0
370
    -2
100
AcDbLine
 10
3.834005999999999
 20
24.79665
 30
0.0
 11
3.834005999999999
 21
21.34888299999999
 31
0.0
  0
LINE
  5
BB7
330
517
100
AcDbEntity
  8
DIM
 62
     0
370
    -2
100
AcDbLine
 10
8.254006
 20
24.79665
 30
0.0
 11
8.254006
 21
21.34888299999999
 31
0.0
  0
LINE
  5
BB8
330
517
100
AcDbEntity
  8
DIM
 62
     0
370
    -2
100
AcDbLine
 10
4.194005999999999
 20
21.53488299999999
 30
0.0
 11
5.947626
 21
21.53488299999999
 31
0.0
  0
LINE
  5
BB9
330
517
100
AcDbEntity
  8
DIM
 62
     0
370
    -2
100
AcDbLine
 10
7.894006
 20
21.53488299999999
 30
0.0
 11
7.026375999999999
 21
21.53488299999999
 31
0.0
  0
SOLID
  5
BBA
330
517
100
AcDbEntity
  8
DIM
 62
     0
100
AcDbTrace
 10
4.194005999999999
 20
21.59488299999999
 30
0.0
 11
4.194005999999999
 21
21.474883
 31
0.0
 12
3.834005999999999
 22
21.53488299999999
 32
0.0
 13
3.834005999999999
 23
21.53488299999999
 33
0.0
  0
SOLID
  5
BBB
330
517
100
AcDbEntity
  8
DIM
 62
     0
100
AcDbTrace
 10
7.894006
 20
21.59488299999999
 30
0.0
 11
7.894006
 21
21.474883
 31
0.0
 12
8.254006
 22
21.53488299999999
 32
0.0
 13
8.254006
 23
21.53488299999999
 33
0.0
  0
MTEXT
  5
BBC
330
517
100
AcDbEntity
  8
DIM
 62
     0
100
AcDbMText
 10
6.487001
 20
21.53488299999999
 30
0.0
 40
0.25
 41
0.0
 71
     5
 72
     1
  1
\A1;4.420
  7
TXT
 73
     1
 44
1.0
  0
POINT
  5
BBD
330
517
100
AcDbEntity
  8
DEFPOINTS
 62
     0
100
AcDbPoint
 10
3.834005999999999
 20
24.92265
 30
0.0
  0
POINT
  5
BBE
330
517
100
AcDbEntity
  8
DEFPOINTS
 62
     0
100
AcDbPoint
 10
8.254006
 20
24.92265
 30
0.0
  0
POINT
  5
BBF
330
517
100
AcDbEntity
  8
DEFPOINTS
 62
     0
100
AcDbPoint
 10
8.254006
 20
21.53488299999999
 30
0.0
  0
ENDBLK
  5
523
330
517
100
AcDbEntity
  8
0
100
AcDbBlockEnd
  0
BLOCK
  5
530
330
525
100
AcDbEntity
  8
0
100
AcDbBlockBegin
  2
*D15
 70
     1
 10
0.0
 20
0.0
 30
0.0
  3
*D15
  1

  0
LINE
  5
BC0
330
525
100
AcDbEntity
  8
DIM
 62
     0
370
    -2
100
AcDbLine
 10
3.834005999999999
 20
24.79665
 30
0.0
 11
3.834005999999999
 21
21.34888299999999
 31
0.0
  0
LINE
  5
BC1
330
525
100
AcDbEntity
  8
DIM
 62
     0
370
    -2
100
AcDbLine
 10
3.504005999999999
 20
22.41664999999999
 30
0.0
 11
3.504005999999999
 21
21.34888299999999
 31
0.0
  0
LINE
  5
BC2
330
525
100
AcDbEntity
  8
DIM
 62
     0
370
    -2
100
AcDbLine
 10
4.194005999999999
 20
21.53488299999999
 30
0.0
 11
4.554005999999999
 21
21.53488299999999
 31
0.0
  0
LINE
  5
BC3
330
525
100
AcDbEntity
  8
DIM
 62
     0
370
    -2
100
AcDbLine
 10
3.144006
 20
21.53488299999999
 30
0.0
 11
2.784005999999999
 21
21.53488299999999
 31
0.0
  0
SOLID
  5
BC4
330
525
100
AcDbEntity
  8
DIM
 62
     0
100
AcDbTrace
 10
4.194005999999999
 20
21.59488299999999
 30
0.0
 11
4.194005999999999
 21
21.474883
 31
0.0
 12
3.834005999999999
 22
21.53488299999999
 32
0.0
 13
3.834005999999999
 23
21.53488299999999
 33
0.0
  0
SOLID
  5
BC5
330
525
100
AcDbEntity
  8
DIM
 62
     0
100
AcDbTrace
 10
3.144006
 20
21.59488299999999
 30
0.0
 11
3.144006
 21
21.474883
 31
0.0
 12
3.504005999999999
 22
21.53488299999999
 32
0.0
 13
3.504005999999999
 23
21.53488299999999
 33
0.0
  0
MTEXT
  5
BC6
330
525
100
AcDbEntity
  8
DIM
 62
     0
100
AcDbMText
 10
2.260256
 20
21.53488299999999
 30
0.0
 40
0.25
 41
0.0
 71
     5
 72
     1
  1
\A1;0.330
  7
TXT
 73
     1
 44
1.0
  0
POINT
  5
BC7
330
525
100
AcDbEntity
  8
DEFPOINTS
 62
     0
100
AcDbPoint
 10
3.834005999999999
 20
24.92265
 30
0.0
  0
POINT
  5
BC8
330
525
100
AcDbEntity
  8
DEFPOINTS
 62
     0
100
AcDbPoint
 10
3.504005999999999
 20
22.54264999999999
 30
0.0
  0
POINT
  5
BC9
330
525
100
AcDbEntity
  8
DEFPOINTS
 62
     0
100
AcDbPoint
 10
3.504005999999999
 20
21.53488299999999
 30
0.0
  0
ENDBLK
  5
531
330
525
100
AcDbEntity
  8
0
100
AcDbBlockEnd
  0
BLOCK
  5
53E
330
533
100
AcDbEntity
  8
0
100
AcDbBlockBegin
  2
*D16
 70
     1
 10
0.0
 20
0.0
 30
0.0
  3
*D16
  1

  0
LINE
  5
EB7
330
533
100
AcDbEntity
  8
DIM
 62
     0
370
    -2
100
AcDbLine
 10
8.710005999999999
 20
27.84264999999999
 30
0.0
 11
10.39443604059874
 21
27.84264999999999
 31
0.0
  0
LINE
  5
EB8
330
533
100
AcDbEntity
  8
DIM
 62
     0
370
    -2
100
AcDbLine
 10
8.710005999999999
 20
22.54264999999999
 30
0.0
 11
10.39443604059874
 21
22.54264999999999
 31
0.0
  0
LINE
  5
EB9
330
533
100
AcDbEntity
  8
DIM
 62
     0
370
    -2
100
AcDbLine
 10
10.20843604059874
 20
27.48264999999999
 30
0.0
 11
10.20843604059874
 21
25.49764999999999
 31
0.0
  0
LINE
  5
EBA
330
533
100
AcDbEntity
  8
DIM
 62
     0
370
    -2
100
AcDbLine
 10
10.20843604059874
 20
22.90264999999999
 30
0.0
 11
10.20843604059874
 21
24.88764999999999
 31
0.0
  0
SOLID
  5
EBB
330
533
100
AcDbEntity
  8
DIM
 62
     0
100
AcDbTrace
 10
10.14843604059874
 20
27.48264999999999
 30
0.0
 11
10.26843604059874
 21
27.48264999999999
 31
0.0
 12
10.20843604059874
 22
27.84264999999999
 32
0.0
 13
10.20843604059874
 23
27.84264999999999
 33
0.0
  0
SOLID
  5
EBC
330
533
100
AcDbEntity
  8
DIM
 62
     0
100
AcDbTrace
 10
10.14843604059874
 20
22.90264999999999
 30
0.0
 11
10.26843604059874
 21
22.90264999999999
 31
0.0
 12
10.20843604059874
 22
22.54264999999999
 32
0.0
 13
10.20843604059874
 23
22.54264999999999
 33
0.0
  0
MTEXT
  5
EBD
330
533
100
AcDbEntity
  8
DIM
 62
     0
100
AcDbMText
 10
10.20843604059874
 20
25.19265
 30
0.0
 40
0.25
 41
0.0
 71
     5
 72
     1
  1
\A1;5.300
  7
TXT
 73
     1
 44
1.0
  0
POINT
  5
EBE
330
533
100
AcDbEntity
  8
DEFPOINTS
 62
     0
100
AcDbPoint
 10
8.584006
 20
27.84264999999999
 30
0.0
  0
POINT
  5
EBF
330
533
100
AcDbEntity
  8
DEFPOINTS
 62
     0
100
AcDbPoint
 10
8.584006
 20
22.54264999999999
 30
0.0
  0
POINT
  5
EC0
330
533
100
AcDbEntity
  8
DEFPOINTS
 62
     0
100
AcDbPoint
 10
10.20843604059874
 20
22.54264999999999
 30
0.0
  0
ENDBLK
  5
53F
330
533
100
AcDbEntity
  8
0
100
AcDbBlockEnd
  0
BLOCK
  5
54C
330
541
100
AcDbEntity
  8
0
100
AcDbBlockBegin
  2
*D17
 70
     1
 10
0.0
 20
0.0
 30
0.0
  3
*D17
  1

  0
LINE
  5
EC1
330
541
100
AcDbEntity
  8
DIM
 62
     0
370
    -2
100
AcDbLine
 10
8.926111999999999
 20
25.43015
 30
0.0
 11
9.582115051305203
 21
25.43015
 31
0.0
  0
LINE
  5
EC2
330
541
100
AcDbEntity
  8
DIM
 62
     0
370
    -2
100
AcDbLine
 10
8.710005999999999
 20
22.54264999999999
 30
0.0
 11
9.582115051305203
 21
22.54264999999999
 31
0.0
  0
LINE
  5
EC3
330
541
100
AcDbEntity
  8
DIM
 62
     0
370
    -2
100
AcDbLine
 10
9.396115051305203
 20
25.07015
 30
0.0
 11
9.396115051305203
 21
24.2914
 31
0.0
  0
LINE
  5
EC4
330
541
100
AcDbEntity
  8
DIM
 62
     0
370
    -2
100
AcDbLine
 10
9.396115051305203
 20
22.90264999999999
 30
0.0
 11
9.396115051305203
 21
23.68139999999999
 31
0.0
  0
SOLID
  5
EC5
330
541
100
AcDbEntity
  8
DIM
 62
     0
100
AcDbTrace
 10
9.336115051305203
 20
25.07015
 30
0.0
 11
9.456115051305204
 21
25.07015
 31
0.0
 12
9.396115051305203
 22
25.43015
 32
0.0
 13
9.396115051305203
 23
25.43015
 33
0.0
  0
SOLID
  5
EC6
330
541
100
AcDbEntity
  8
DIM
 62
     0
100
AcDbTrace
 10
9.336115051305203
 20
22.90264999999999
 30
0.0
 11
9.456115051305204
 21
22.90264999999999
 31
0.0
 12
9.396115051305203
 22
22.54264999999999
 32
0.0
 13
9.396115051305203
 23
22.54264999999999
 33
0.0
  0
MTEXT
  5
EC7
330
541
100
AcDbEntity
  8
DIM
 62
     0
100
AcDbMText
 10
9.3961150513052
 20
23.9864
 30
0.0
 40
0.25
 41
0.0
 71
     5
 72
     1
  1
\A1;2.888
  7
TXT
 73
     1
 44
1.0
  0
POINT
  5
EC8
330
541
100
AcDbEntity
  8
DEFPOINTS
 62
     0
100
AcDbPoint
 10
8.800112
 20
25.43015
 30
0.0
  0
POINT
  5
EC9
330
541
100
AcDbEntity
  8
DEFPOINTS
 62
     0
100
AcDbPoint
 10
8.584006
 20
22.54264999999999
 30
0.0
  0
POINT
  5
ECA
330
541
100
AcDbEntity
  8
DEFPOINTS
 62
     0
100
AcDbPoint
 10
9.396115051305203
 20
22.54264999999999
 30
0.0
  0
ENDBLK
  5
54D
330
541
100
AcDbEntity
  8
0
100
AcDbBlockEnd
  0
BLOCK
  5
55A
330
54F
100
AcDbEntity
  8
0
100
AcDbBlockBegin
  2
*D18
 70
     1
 10
0.0
 20
0.0
 30
0.0
  3
*D18
  1

  0
LINE
  5
D07
330
54F
100
AcDbEntity
  8
DIM
 62
     0
370
    -2
100
AcDbLine
 10
3.411405999999999
 20
20.277077
 30
0.0
 11
2.658584999999999
 21
20.277077
 31
0.0
  0
LINE
  5
D08
330
54F
100
AcDbEntity
  8
DIM
 62
     0
370
    -2
100
AcDbLine
 10
3.378006
 20
19.51207699999999
 30
0.0
 11
2.658584999999999
 21
19.51207699999999
 31
0.0
  0
LINE
  5
D09
330
54F
100
AcDbEntity
  8
DIM
 62
     0
370
    -2
100
AcDbLine
 10
2.844585
 20
20.63707699999999
 30
0.0
 11
2.844585
 21
20.99707699999999
 31
0.0
  0
LINE
  5
D0A
330
54F
100
AcDbEntity
  8
DIM
 62
     0
370
    -2
100
AcDbLine
 10
2.844585
 20
19.15207699999999
 30
0.0
 11
2.844584999999999
 21
18.792077
 31
0.0
  0
SOLID
  5
D0B
330
54F
100
AcDbEntity
  8
DIM
 62
     0
100
AcDbTrace
 10
2.784584999999999
 20
20.63707699999999
 30
0.0
 11
2.904584999999999
 21
20.63707699999999
 31
0.0
 12
2.844585
 22
20.277077
 32
0.0
 13
2.844585
 23
20.277077
 33
0.0
  0
SOLID
  5
D0C
330
54F
100
AcDbEntity
  8
DIM
 62
     0
100
AcDbTrace
 10
2.784584999999999
 20
19.15207699999999
 30
0.0
 11
2.904584999999999
 21
19.15207699999999
 31
0.0
 12
2.844585
 22
19.51207699999999
 32
0.0
 13
2.844585
 23
19.51207699999999
 33
0.0
  0
MTEXT
  5
D0D
330
54F
100
AcDbEntity
  8
DIM
 62
     0
100
AcDbMText
 10
2.844584999999996
 20
19.89457699999999
 30
0.0
 40
0.25
 41
0.0
 71
     5
 72
     1
  1
\A1;0.765
  7
TXT
 73
     1
 44
1.0
  0
POINT
  5
D0E
330
54F
100
AcDbEntity
  8
DEFPOINTS
 62
     0
100
AcDbPoint
 10
3.537405999999999
 20
20.277077
 30
0.0
  0
POINT
  5
D0F
330
54F
100
AcDbEntity
  8
DEFPOINTS
 62
     0
100
AcDbPoint
 10
3.504005999999999
 20
19.51207699999999
 30
0.0
  0
POINT
  5
D10
330
54F
100
AcDbEntity
  8
DEFPOINTS
 62
     0
100
AcDbPoint
 10
2.844585
 20
19.51207699999999
 30
0.0
  0
ENDBLK
  5
55B
330
54F
100
AcDbEntity
  8
0
100
AcDbBlockEnd
  0
BLOCK
  5
568
330
55D
100
AcDbEntity
  8
0
100
AcDbBlockBegin
  2
*D19
 70
     1
 10
0.0
 20
0.0
 30
0.0
  3
*D19
  1

  0
LINE
  5
D11
330
55D
100
AcDbEntity
  8
DIM
 62
     0
370
    -2
100
AcDbLine
 10
3.411405999999999
 20
20.277077
 30
0.0
 11
1.911998
 21
20.277077
 31
0.0
  0
LINE
  5
D12
330
55D
100
AcDbEntity
  8
DIM
 62
     0
370
    -2
100
AcDbLine
 10
3.411405999999999
 20
18.74707699999999
 30
0.0
 11
1.911998
 21
18.74707699999999
 31
0.0
  0
LINE
  5
D13
330
55D
100
AcDbEntity
  8
DIM
 62
     0
370
    -2
100
AcDbLine
 10
2.097998
 20
20.63707699999999
 30
0.0
 11
2.097998
 21
20.99707699999999
 31
0.0
  0
LINE
  5
D14
330
55D
100
AcDbEntity
  8
DIM
 62
     0
370
    -2
100
AcDbLine
 10
2.097998
 20
18.38707699999999
 30
0.0
 11
2.097998
 21
18.027077
 31
0.0
  0
SOLID
  5
D15
330
55D
100
AcDbEntity
  8
DIM
 62
     0
100
AcDbTrace
 10
2.037998
 20
20.63707699999999
 30
0.0
 11
2.157998
 21
20.63707699999999
 31
0.0
 12
2.097998
 22
20.277077
 32
0.0
 13
2.097998
 23
20.277077
 33
0.0
  0
SOLID
  5
D16
330
55D
100
AcDbEntity
  8
DIM
 62
     0
100
AcDbTrace
 10
2.037997999999999
 20
18.38707699999999
 30
0.0
 11
2.157998
 21
18.38707699999999
 31
0.0
 12
2.097998
 22
18.74707699999999
 32
0.0
 13
2.097998
 23
18.74707699999999
 33
0.0
  0
MTEXT
  5
D17
330
55D
100
AcDbEntity
  8
DIM
 62
     0
100
AcDbMText
 10
2.097997999999997
 20
19.51207699999999
 30
0.0
 40
0.25
 41
0.0
 71
     5
 72
     1
  1
\A1;1.530
  7
TXT
 73
     1
 44
1.0
  0
POINT
  5
D18
330
55D
100
AcDbEntity
  8
DEFPOINTS
 62
     0
100
AcDbPoint
 10
3.537405999999999
 20
20.277077
 30
0.0
  0
POINT
  5
D19
330
55D
100
AcDbEntity
  8
DEFPOINTS
 62
     0
100
AcDbPoint
 10
3.537405999999999
 20
18.74707699999999
 30
0.0
  0
POINT
  5
D1A
330
55D
100
AcDbEntity
  8
DEFPOINTS
 62
     0
100
AcDbPoint
 10
2.097998
 20
18.74707699999999
 30
0.0
  0
ENDBLK
  5
569
330
55D
100
AcDbEntity
  8
0
100
AcDbBlockEnd
  0
BLOCK
  5
576
330
56B
100
AcDbEntity
  8
0
100
AcDbBlockBegin
  2
*D20
 70
     1
 10
0.0
 20
0.0
 30
0.0
  3
*D20
  1

  0
LINE
  5
BDE
330
56B
100
AcDbEntity
  8
DIM
 62
     0
370
    -2
100
AcDbLine
 10
3.504005999999999
 20
19.638077
 30
0.0
 11
3.504005999999999
 21
21.225648
 31
0.0
  0
LINE
  5
BDF
330
56B
100
AcDbEntity
  8
DIM
 62
     0
370
    -2
100
AcDbLine
 10
8.584006
 20
19.638077
 30
0.0
 11
8.584006
 21
21.225648
 31
0.0
  0
LINE
  5
BE0
330
56B
100
AcDbEntity
  8
DIM
 62
     0
370
    -2
100
AcDbLine
 10
3.864005999999999
 20
21.03964799999999
 30
0.0
 11
4.952487
 21
21.03964799999999
 31
0.0
  0
LINE
  5
BE1
330
56B
100
AcDbEntity
  8
DIM
 62
     0
370
    -2
100
AcDbLine
 10
8.224006000000001
 20
21.03964799999999
 30
0.0
 11
5.999986999999999
 21
21.03964799999999
 31
0.0
  0
SOLID
  5
BE2
330
56B
100
AcDbEntity
  8
DIM
 62
     0
100
AcDbTrace
 10
3.864005999999999
 20
21.09964799999999
 30
0.0
 11
3.864005999999999
 21
20.979648
 31
0.0
 12
3.504005999999999
 22
21.03964799999999
 32
0.0
 13
3.504005999999999
 23
21.03964799999999
 33
0.0
  0
SOLID
  5
BE3
330
56B
100
AcDbEntity
  8
DIM
 62
     0
100
AcDbTrace
 10
8.224006000000001
 20
21.09964799999999
 30
0.0
 11
8.224006000000001
 21
20.979648
 31
0.0
 12
8.584006
 22
21.03964799999999
 32
0.0
 13
8.584006
 23
21.03964799999999
 33
0.0
  0
MTEXT
  5
BE4
330
56B
100
AcDbEntity
  8
DIM
 62
     0
100
AcDbMText
 10
5.476237
 20
21.03964799999999
 30
0.0
 40
0.25
 41
0.0
 71
     5
 72
     1
  1
\A1;5.080
  7
TXT
 73
     1
 44
1.0
  0
POINT
  5
BE5
330
56B
100
AcDbEntity
  8
DEFPOINTS
 62
     0
100
AcDbPoint
 10
3.504005999999999
 20
19.51207699999999
 30
0.0
  0
POINT
  5
BE6
330
56B
100
AcDbEntity
  8
DEFPOINTS
 62
     0
100
AcDbPoint
 10
8.584006
 20
19.51207699999999
 30
0.0
  0
POINT
  5
BE7
330
56B
100
AcDbEntity
  8
DEFPOINTS
 62
     0
100
AcDbPoint
 10
8.584006
 20
21.03964799999999
 30
0.0
  0
ENDBLK
  5
577
330
56B
100
AcDbEntity
  8
0
100
AcDbBlockEnd
  0
BLOCK
  5
584
330
579
100
AcDbEntity
  8
0
100
AcDbBlockBegin
  2
*D21
 70
     1
 10
0.0
 20
0.0
 30
0.0
  3
*D21
  1

  0
LINE
  5
BE8
330
579
100
AcDbEntity
  8
DIM
 62
     0
370
    -2
100
AcDbLine
 10
4.239005999999999
 20
26.81865
 30
0.0
 11
4.239005999999999
 21
28.746966
 31
0.0
  0
LINE
  5
BE9
330
579
100
AcDbEntity
  8
DIM
 62
     0
370
    -2
100
AcDbLine
 10
7.849006
 20
26.81865
 30
0.0
 11
7.849006
 21
28.746966
 31
0.0
  0
LINE
  5
BEA
330
579
100
AcDbEntity
  8
DIM
 62
     0
370
    -2
100
AcDbLine
 10
4.599006
 20
28.56096599999999
 30
0.0
 11
5.535880999999999
 21
28.56096599999999
 31
0.0
  0
LINE
  5
BEB
330
579
100
AcDbEntity
  8
DIM
 62
     0
370
    -2
100
AcDbLine
 10
7.489005999999999
 20
28.56096599999999
 30
0.0
 11
6.552130999999999
 21
28.56096599999999
 31
0.0
  0
SOLID
  5
BEC
330
579
100
AcDbEntity
  8
DIM
 62
     0
100
AcDbTrace
 10
4.599006
 20
28.62096599999999
 30
0.0
 11
4.599006
 21
28.500966
 31
0.0
 12
4.239005999999999
 22
28.56096599999999
 32
0.0
 13
4.239005999999999
 23
28.56096599999999
 33
0.0
  0
SOLID
  5
BED
330
579
100
AcDbEntity
  8
DIM
 62
     0
100
AcDbTrace
 10
7.489005999999999
 20
28.62096599999999
 30
0.0
 11
7.489005999999999
 21
28.500966
 31
0.0
 12
7.849006
 22
28.56096599999999
 32
0.0
 13
7.849006
 23
28.56096599999999
 33
0.0
  0
MTEXT
  5
BEE
330
579
100
AcDbEntity
  8
DIM
 62
     0
100
AcDbMText
 10
6.044005999999999
 20
28.56096599999999
 30
0.0
 40
0.25
 41
0.0
 71
     5
 72
     1
  1
\A1;3.610
  7
TXT
 73
     1
 44
1.0
  0
POINT
  5
BEF
330
579
100
AcDbEntity
  8
DEFPOINTS
 62
     0
100
AcDbPoint
 10
4.239005999999999
 20
26.69265
 30
0.0
  0
POINT
  5
BF0
330
579
100
AcDbEntity
  8
DEFPOINTS
 62
     0
100
AcDbPoint
 10
7.849006
 20
26.69265
 30
0.0
  0
POINT
  5
BF1
330
579
100
AcDbEntity
  8
DEFPOINTS
 62
     0
100
AcDbPoint
 10
7.849006
 20
28.56096599999999
 30
0.0
  0
ENDBLK
  5
585
330
579
100
AcDbEntity
  8
0
100
AcDbBlockEnd
  0
BLOCK
  5
592
330
587
100
AcDbEntity
  8
0
100
AcDbBlockBegin
  2
*D22
 70
     1
 10
0.0
 20
0.0
 30
0.0
  3
*D22
  1

  0
LINE
  5
BF2
330
587
100
AcDbEntity
  8
DIM
 62
     0
370
    -2
100
AcDbLine
 10
4.239005999999999
 20
26.81865
 30
0.0
 11
4.239005999999999
 21
28.746966
 31
0.0
  0
LINE
  5
BF3
330
587
100
AcDbEntity
  8
DIM
 62
     0
370
    -2
100
AcDbLine
 10
3.504005999999999
 20
27.96865
 30
0.0
 11
3.504005999999999
 21
28.746966
 31
0.0
  0
LINE
  5
BF4
330
587
100
AcDbEntity
  8
DIM
 62
     0
370
    -2
100
AcDbLine
 10
4.599006
 20
28.56096599999999
 30
0.0
 11
4.959005999999999
 21
28.56096599999999
 31
0.0
  0
LINE
  5
BF5
330
587
100
AcDbEntity
  8
DIM
 62
     0
370
    -2
100
AcDbLine
 10
3.144006
 20
28.56096599999999
 30
0.0
 11
2.784005999999999
 21
28.56096599999999
 31
0.0
  0
SOLID
  5
BF6
330
587
100
AcDbEntity
  8
DIM
 62
     0
100
AcDbTrace
 10
4.599006
 20
28.62096599999999
 30
0.0
 11
4.599006
 21
28.500966
 31
0.0
 12
4.239005999999999
 22
28.56096599999999
 32
0.0
 13
4.239005999999999
 23
28.56096599999999
 33
0.0
  0
SOLID
  5
BF7
330
587
100
AcDbEntity
  8
DIM
 62
     0
100
AcDbTrace
 10
3.144006
 20
28.62096599999999
 30
0.0
 11
3.144006
 21
28.500966
 31
0.0
 12
3.504005999999999
 22
28.56096599999999
 32
0.0
 13
3.504005999999999
 23
28.56096599999999
 33
0.0
  0
MTEXT
  5
BF8
330
587
100
AcDbEntity
  8
DIM
 62
     0
100
AcDbMText
 10
2.244631
 20
28.56096599999999
 30
0.0
 40
0.25
 41
0.0
 71
     5
 72
     1
  1
\A1;0.735
  7
TXT
 73
     1
 44
1.0
  0
POINT
  5
BF9
330
587
100
AcDbEntity
  8
DEFPOINTS
 62
     0
100
AcDbPoint
 10
4.239005999999999
 20
26.69265
 30
0.0
  0
POINT
  5
BFA
330
587
100
AcDbEntity
  8
DEFPOINTS
 62
     0
100
AcDbPoint
 10
3.504005999999999
 20
27.84264999999999
 30
0.0
  0
POINT
  5
BFB
330
587
100
AcDbEntity
  8
DEFPOINTS
 62
     0
100
AcDbPoint
 10
3.504005999999999
 20
28.56096599999999
 30
0.0
  0
ENDBLK
  5
593
330
587
100
AcDbEntity
  8
0
100
AcDbBlockEnd
  0
BLOCK
  5
5A0
330
595
100
AcDbEntity
  8
0
100
AcDbBlockBegin
  2
*D23
 70
     1
 10
0.0
 20
0.0
 30
0.0
  3
*D23
  1

  0
LINE
  5
D1B
330
595
100
AcDbEntity
  8
DIM
 62
     0
370
    -2
100
AcDbLine
 10
4.113005999999999
 20
23.69264999999999
 30
0.0
 11
2.658585
 21
23.69264999999999
 31
0.0
  0
LINE
  5
D1C
330
595
100
AcDbEntity
  8
DIM
 62
     0
370
    -2
100
AcDbLine
 10
3.378006
 20
22.54264999999999
 30
0.0
 11
2.658584999999999
 21
22.54264999999999
 31
0.0
  0
LINE
  5
D1D
330
595
100
AcDbEntity
  8
DIM
 62
     0
370
    -2
100
AcDbLine
 10
2.844585
 20
24.05264999999999
 30
0.0
 11
2.844585
 21
24.41265
 31
0.0
  0
LINE
  5
D1E
330
595
100
AcDbEntity
  8
DIM
 62
     0
370
    -2
100
AcDbLine
 10
2.844585
 20
22.18265
 30
0.0
 11
2.844585
 21
21.82265
 31
0.0
  0
SOLID
  5
D1F
330
595
100
AcDbEntity
  8
DIM
 62
     0
100
AcDbTrace
 10
2.784585
 20
24.05264999999999
 30
0.0
 11
2.904585
 21
24.05264999999999
 31
0.0
 12
2.844585
 22
23.69264999999999
 32
0.0
 13
2.844585
 23
23.69264999999999
 33
0.0
  0
SOLID
  5
D20
330
595
100
AcDbEntity
  8
DIM
 62
     0
100
AcDbTrace
 10
2.784584999999999
 20
22.18265
 30
0.0
 11
2.904584999999999
 21
22.18265
 31
0.0
 12
2.844585
 22
22.54264999999999
 32
0.0
 13
2.844585
 23
22.54264999999999
 33
0.0
  0
MTEXT
  5
D21
330
595
100
AcDbEntity
  8
DIM
 62
     0
100
AcDbMText
 10
2.844584999999996
 20
23.11764999999999
 30
0.0
 40
0.25
 41
0.0
 71
     5
 72
     1
  1
\A1;1.150
  7
TXT
 73
     1
 44
1.0
  0
POINT
  5
D22
330
595
100
AcDbEntity
  8
DEFPOINTS
 62
     0
100
AcDbPoint
 10
4.239005999999999
 20
23.69264999999999
 30
0.0
  0
POINT
  5
D23
330
595
100
AcDbEntity
  8
DEFPOINTS
 62
     0
100
AcDbPoint
 10
3.504005999999999
 20
22.54264999999999
 30
0.0
  0
POINT
  5
D24
330
595
100
AcDbEntity
  8
DEFPOINTS
 62
     0
100
AcDbPoint
 10
2.844585
 20
22.54264999999999
 30
0.0
  0
ENDBLK
  5
5A1
330
595
100
AcDbEntity
  8
0
100
AcDbBlockEnd
  0
BLOCK
  5
5AE
330
5A3
100
AcDbEntity
  8
0
100
AcDbBlockBegin
  2
*D24
 70
     1
 10
0.0
 20
0.0
 30
0.0
  3
*D24
  1

  0
LINE
  5
BFC
330
5A3
100
AcDbEntity
  8
DIM
 62
     0
370
    -2
100
AcDbLine
 10
3.708005999999999
 20
24.92265
 30
0.0
 11
1.90354
 21
24.92265
 31
0.0
  0
LINE
  5
BFD
330
5A3
100
AcDbEntity
  8
DIM
 62
     0
370
    -2
100
AcDbLine
 10
3.378006
 20
22.54264999999999
 30
0.0
 11
1.90354
 21
22.54264999999999
 31
0.0
  0
LINE
  5
BFE
330
5A3
100
AcDbEntity
  8
DIM
 62
     0
370
    -2
100
AcDbLine
 10
2.08954
 20
24.56265
 30
0.0
 11
2.08954
 21
24.03764999999999
 31
0.0
  0
LINE
  5
BFF
330
5A3
100
AcDbEntity
  8
DIM
 62
     0
370
    -2
100
AcDbLine
 10
2.089539999999999
 20
22.90264999999999
 30
0.0
 11
2.08954
 21
23.42764999999999
 31
0.0
  0
SOLID
  5
C00
330
5A3
100
AcDbEntity
  8
DIM
 62
     0
100
AcDbTrace
 10
2.02954
 20
24.56265
 30
0.0
 11
2.14954
 21
24.56265
 31
0.0
 12
2.08954
 22
24.92265
 32
0.0
 13
2.08954
 23
24.92265
 33
0.0
  0
SOLID
  5
C01
330
5A3
100
AcDbEntity
  8
DIM
 62
     0
100
AcDbTrace
 10
2.029539999999999
 20
22.90264999999999
 30
0.0
 11
2.14954
 21
22.90264999999999
 31
0.0
 12
2.089539999999999
 22
22.54264999999999
 32
0.0
 13
2.089539999999999
 23
22.54264999999999
 33
0.0
  0
MTEXT
  5
C02
330
5A3
100
AcDbEntity
  8
DIM
 62
     0
100
AcDbMText
 10
2.089539999999996
 20
23.73264999999999
 30
0.0
 40
0.25
 41
0.0
 71
     5
 72
     1
  1
\A1;2.380
  7
TXT
 73
     1
 44
1.0
  0
POINT
  5
C03
330
5A3
100
AcDbEntity
  8
DEFPOINTS
 62
     0
100
AcDbPoint
 10
3.834005999999999
 20
24.92265
 30
0.0
  0
POINT
  5
C04
330
5A3
100
AcDbEntity
  8
DEFPOINTS
 62
     0
100
AcDbPoint
 10
3.504005999999999
 20
22.54264999999999
 30
0.0
  0
POINT
  5
C05
330
5A3
100
AcDbEntity
  8
DEFPOINTS
 62
     0
100
AcDbPoint
 10
2.089539999999999
 20
22.54264999999999
 30
0.0
  0
ENDBLK
  5
5AF
330
5A3
100
AcDbEntity
  8
0
100
AcDbBlockEnd
  0
BLOCK
  5
5BC
330
5B1
100
AcDbEntity
  8
0
100
AcDbBlockBegin
  2
*D25
 70
     1
 10
0.0
 20
0.0
 30
0.0
  3
*D25
  1

  0
LINE
  5
C06
330
5B1
100
AcDbEntity
  8
DIM
 62
     0
370
    -2
100
AcDbLine
 10
4.218329999999999
 20
13.26302399999999
 30
0.0
 11
4.218329999999999
 21
15.385779
 31
0.0
  0
LINE
  5
C07
330
5B1
100
AcDbEntity
  8
DIM
 62
     0
370
    -2
100
AcDbLine
 10
8.62433
 20
13.26302399999999
 30
0.0
 11
8.62433
 21
15.385779
 31
0.0
  0
LINE
  5
C08
330
5B1
100
AcDbEntity
  8
DIM
 62
     0
370
    -2
100
AcDbLine
 10
4.57833
 20
15.199779
 30
0.0
 11
5.881955000000001
 21
15.199779
 31
0.0
  0
LINE
  5
C09
330
5B1
100
AcDbEntity
  8
DIM
 62
     0
370
    -2
100
AcDbLine
 10
8.264330000000001
 20
15.199779
 30
0.0
 11
6.960705
 21
15.199779
 31
0.0
  0
SOLID
  5
C0A
330
5B1
100
AcDbEntity
  8
DIM
 62
     0
100
AcDbTrace
 10
4.57833
 20
15.259779
 30
0.0
 11
4.57833
 21
15.139779
 31
0.0
 12
4.218329999999999
 22
15.199779
 32
0.0
 13
4.218329999999999
 23
15.199779
 33
0.0
  0
SOLID
  5
C0B
330
5B1
100
AcDbEntity
  8
DIM
 62
     0
100
AcDbTrace
 10
8.264330000000001
 20
15.259779
 30
0.0
 11
8.264330000000001
 21
15.139779
 31
0.0
 12
8.62433
 22
15.199779
 32
0.0
 13
8.62433
 23
15.199779
 33
0.0
  0
MTEXT
  5
C0C
330
5B1
100
AcDbEntity
  8
DIM
 62
     0
100
AcDbMText
 10
6.421330000000001
 20
15.199779
 30
0.0
 40
0.25
 41
0.0
 71
     5
 72
     1
  1
\A1;4.406
  7
TXT
 73
     1
 44
1.0
  0
POINT
  5
C0D
330
5B1
100
AcDbEntity
  8
DEFPOINTS
 62
     0
100
AcDbPoint
 10
4.218329999999999
 20
13.13702399999999
 30
0.0
  0
POINT
  5
C0E
330
5B1
100
AcDbEntity
  8
DEFPOINTS
 62
     0
100
AcDbPoint
 10
8.62433
 20
13.13702399999999
 30
0.0
  0
POINT
  5
C0F
330
5B1
100
AcDbEntity
  8
DEFPOINTS
 62
     0
100
AcDbPoint
 10
8.62433
 20
15.199779
 30
0.0
  0
ENDBLK
  5
5BD
330
5B1
100
AcDbEntity
  8
0
100
AcDbBlockEnd
  0
BLOCK
  5
5CA
330
5BF
100
AcDbEntity
  8
0
100
AcDbBlockBegin
  2
*D26
 70
     1
 10
0.0
 20
0.0
 30
0.0
  3
*D26
  1

  0
LINE
  5
D25
330
5BF
100
AcDbEntity
  8
DIM
 62
     0
370
    -2
100
AcDbLine
 10
4.218329999999999
 20
13.26302399999999
 30
0.0
 11
4.218329999999999
 21
15.385779
 31
0.0
  0
LINE
  5
D26
330
5BF
100
AcDbEntity
  8
DIM
 62
     0
370
    -2
100
AcDbLine
 10
3.256329999999999
 20
14.823024
 30
0.0
 11
3.256329999999999
 21
15.385779
 31
0.0
  0
LINE
  5
D27
330
5BF
100
AcDbEntity
  8
DIM
 62
     0
370
    -2
100
AcDbLine
 10
4.57833
 20
15.199779
 30
0.0
 11
4.938329999999999
 21
15.199779
 31
0.0
  0
LINE
  5
D28
330
5BF
100
AcDbEntity
  8
DIM
 62
     0
370
    -2
100
AcDbLine
 10
2.896329999999999
 20
15.199779
 30
0.0
 11
2.536329999999999
 21
15.199779
 31
0.0
  0
SOLID
  5
D29
330
5BF
100
AcDbEntity
  8
DIM
 62
     0
100
AcDbTrace
 10
4.57833
 20
15.259779
 30
0.0
 11
4.57833
 21
15.139779
 31
0.0
 12
4.218329999999999
 22
15.199779
 32
0.0
 13
4.218329999999999
 23
15.199779
 33
0.0
  0
SOLID
  5
D2A
330
5BF
100
AcDbEntity
  8
DIM
 62
     0
100
AcDbTrace
 10
2.896329999999999
 20
15.259779
 30
0.0
 11
2.896329999999999
 21
15.139779
 31
0.0
 12
3.256329999999999
 22
15.199779
 32
0.0
 13
3.256329999999999
 23
15.199779
 33
0.0
  0
MTEXT
  5
D2B
330
5BF
100
AcDbEntity
  8
DIM
 62
     0
100
AcDbMText
 10
3.73733
 20
15.199779
 30
0.0
 40
0.25
 41
0.0
 71
     5
 72
     1
  1
\A1;0.962
  7
TXT
 73
     1
 44
1.0
  0
POINT
  5
D2C
330
5BF
100
AcDbEntity
  8
DEFPOINTS
 62
     0
100
AcDbPoint
 10
4.218329999999999
 20
13.13702399999999
 30
0.0
  0
POINT
  5
D2D
330
5BF
100
AcDbEntity
  8
DEFPOINTS
 62
     0
100
AcDbPoint
 10
3.256329999999999
 20
14.697024
 30
0.0
  0
POINT
  5
D2E
330
5BF
100
AcDbEntity
  8
DEFPOINTS
 62
     0
100
AcDbPoint
 10
3.256329999999999
 20
15.199779
 30
0.0
  0
ENDBLK
  5
5CB
330
5BF
100
AcDbEntity
  8
0
100
AcDbBlockEnd
  0
BLOCK
  5
5D8
330
5CD
100
AcDbEntity
  8
0
100
AcDbBlockBegin
  2
*D27
 70
     1
 10
0.0
 20
0.0
 30
0.0
  3
*D27
  1

  0
LINE
  5
C10
330
5CD
100
AcDbEntity
  8
DIM
 62
     0
370
    -2
100
AcDbLine
 10
9.712329999999999
 20
14.697024
 30
0.0
 11
10.611572
 21
14.697024
 31
0.0
  0
LINE
  5
C11
330
5CD
100
AcDbEntity
  8
DIM
 62
     0
370
    -2
100
AcDbLine
 10
9.712329999999999
 20
5.077023999999999
 30
0.0
 11
10.611572
 21
5.077023999999998
 31
0.0
  0
LINE
  5
C12
330
5CD
100
AcDbEntity
  8
DIM
 62
     0
370
    -2
100
AcDbLine
 10
10.425572
 20
14.337024
 30
0.0
 11
10.425572
 21
10.19202399999999
 31
0.0
  0
LINE
  5
C13
330
5CD
100
AcDbEntity
  8
DIM
 62
     0
370
    -2
100
AcDbLine
 10
10.425572
 20
5.437023999999999
 30
0.0
 11
10.425572
 21
9.582024
 31
0.0
  0
SOLID
  5
C14
330
5CD
100
AcDbEntity
  8
DIM
 62
     0
100
AcDbTrace
 10
10.365572
 20
14.337024
 30
0.0
 11
10.485572
 21
14.337024
 31
0.0
 12
10.425572
 22
14.697024
 32
0.0
 13
10.425572
 23
14.697024
 33
0.0
  0
SOLID
  5
C15
330
5CD
100
AcDbEntity
  8
DIM
 62
     0
100
AcDbTrace
 10
10.365572
 20
5.437023999999999
 30
0.0
 11
10.485572
 21
5.437023999999999
 31
0.0
 12
10.425572
 22
5.077023999999998
 32
0.0
 13
10.425572
 23
5.077023999999998
 33
0.0
  0
MTEXT
  5
C16
330
5CD
100
AcDbEntity
  8
DIM
 62
     0
100
AcDbMText
 10
10.42557199999999
 20
9.887024000000002
 30
0.0
 40
0.25
 41
0.0
 71
     5
 72
     1
  1
\A1;9.620
  7
TXT
 73
     1
 44
1.0
  0
POINT
  5
C17
330
5CD
100
AcDbEntity
  8
DEFPOINTS
 62
     0
100
AcDbPoint
 10
9.58633
 20
14.697024
 30
0.0
  0
POINT
  5
C18
330
5CD
100
AcDbEntity
  8
DEFPOINTS
 62
     0
100
AcDbPoint
 10
9.58633
 20
5.077023999999999
 30
0.0
  0
POINT
  5
C19
330
5CD
100
AcDbEntity
  8
DEFPOINTS
 62
     0
100
AcDbPoint
 10
10.425572
 20
5.077023999999998
 30
0.0
  0
ENDBLK
  5
5D9
330
5CD
100
AcDbEntity
  8
0
100
AcDbBlockEnd
  0
BLOCK
  5
5E6
330
5DB
100
AcDbEntity
  8
0
100
AcDbBlockBegin
  2
*D28
 70
     1
 10
0.0
 20
0.0
 30
0.0
  3
*D28
  1

  0
LINE
  5
C1A
330
5DB
100
AcDbEntity
  8
DIM
 62
     0
370
    -2
100
AcDbLine
 10
6.843087999999999
 20
5.370023999999999
 30
0.0
 11
6.668310999999997
 21
5.370023999999999
 31
0.0
  0
LINE
  5
C1B
330
5DB
100
AcDbEntity
  8
DIM
 62
     0
370
    -2
100
AcDbLine
 10
6.843087999999999
 20
14.40402399999999
 30
0.0
 11
6.668311
 21
14.40402399999999
 31
0.0
  0
LINE
  5
C1C
330
5DB
100
AcDbEntity
  8
DIM
 62
     0
370
    -2
100
AcDbLine
 10
6.854310999999997
 20
5.730024
 30
0.0
 11
6.854310999999998
 21
9.582024
 31
0.0
  0
LINE
  5
C1D
330
5DB
100
AcDbEntity
  8
DIM
 62
     0
370
    -2
100
AcDbLine
 10
6.854311
 20
14.044024
 30
0.0
 11
6.854310999999999
 21
10.19202399999999
 31
0.0
  0
SOLID
  5
C1E
330
5DB
100
AcDbEntity
  8
DIM
 62
     0
100
AcDbTrace
 10
6.794310999999997
 20
5.730024
 30
0.0
 11
6.914310999999996
 21
5.730024
 31
0.0
 12
6.854310999999997
 22
5.370023999999999
 32
0.0
 13
6.854310999999997
 23
5.370023999999999
 33
0.0
  0
SOLID
  5
C1F
330
5DB
100
AcDbEntity
  8
DIM
 62
     0
100
AcDbTrace
 10
6.794311
 20
14.044024
 30
0.0
 11
6.914310999999999
 21
14.044024
 31
0.0
 12
6.854311
 22
14.40402399999999
 32
0.0
 13
6.854311
 23
14.40402399999999
 33
0.0
  0
MTEXT
  5
C20
330
5DB
100
AcDbEntity
  8
DIM
 62
     0
100
AcDbMText
 10
6.854310999999997
 20
9.887024000000002
 30
0.0
 40
0.25
 41
0.0
 71
     5
 72
     1
  1
\A1;9.034
  7
TXT
 73
     1
 44
1.0
  0
POINT
  5
C21
330
5DB
100
AcDbEntity
  8
DEFPOINTS
 62
     0
100
AcDbPoint
 10
6.969088
 20
5.370023999999999
 30
0.0
  0
POINT
  5
C22
330
5DB
100
AcDbEntity
  8
DEFPOINTS
 62
     0
100
AcDbPoint
 10
6.969088
 20
14.40402399999999
 30
0.0
  0
POINT
  5
C23
330
5DB
100
AcDbEntity
  8
DEFPOINTS
 62
     0
100
AcDbPoint
 10
6.854311
 20
14.40402399999999
 30
0.0
  0
ENDBLK
  5
5E7
330
5DB
100
AcDbEntity
  8
0
100
AcDbBlockEnd
  0
BLOCK
  5
5F4
330
5E9
100
AcDbEntity
  8
0
100
AcDbBlockBegin
  2
*D29
 70
     1
 10
0.0
 20
0.0
 30
0.0
  3
*D29
  1

  0
LINE
  5
D2F
330
5E9
100
AcDbEntity
  8
DIM
 62
     0
370
    -2
100
AcDbLine
 10
4.092329999999999
 20
6.637024
 30
0.0
 11
2.410909
 21
6.637024
 31
0.0
  0
LINE
  5
D30
330
5E9
100
AcDbEntity
  8
DIM
 62
     0
370
    -2
100
AcDbLine
 10
3.130329999999999
 20
5.077023999999999
 30
0.0
 11
2.410909
 21
5.077023999999999
 31
0.0
  0
LINE
  5
D31
330
5E9
100
AcDbEntity
  8
DIM
 62
     0
370
    -2
100
AcDbLine
 10
2.596909
 20
6.997024
 30
0.0
 11
2.596909
 21
7.357024
 31
0.0
  0
LINE
  5
D32
330
5E9
100
AcDbEntity
  8
DIM
 62
     0
370
    -2
100
AcDbLine
 10
2.596908999999999
 20
4.717023999999999
 30
0.0
 11
2.596908999999999
 21
4.357024
 31
0.0
  0
SOLID
  5
D33
330
5E9
100
AcDbEntity
  8
DIM
 62
     0
100
AcDbTrace
 10
2.536909
 20
6.997024
 30
0.0
 11
2.656909
 21
6.997024
 31
0.0
 12
2.596909
 22
6.637024
 32
0.0
 13
2.596909
 23
6.637024
 33
0.0
  0
SOLID
  5
D34
330
5E9
100
AcDbEntity
  8
DIM
 62
     0
100
AcDbTrace
 10
2.536908999999999
 20
4.717023999999999
 30
0.0
 11
2.656908999999999
 21
4.717023999999999
 31
0.0
 12
2.596909
 22
5.077023999999999
 32
0.0
 13
2.596909
 23
5.077023999999999
 33
0.0
  0
MTEXT
  5
D35
330
5E9
100
AcDbEntity
  8
DIM
 62
     0
100
AcDbMText
 10
2.596908999999999
 20
5.857024
 30
0.0
 40
0.25
 41
0.0
 71
     5
 72
     1
  1
\A1;1.560
  7
TXT
 73
     1
 44
1.0
  0
POINT
  5
D36
330
5E9
100
AcDbEntity
  8
DEFPOINTS
 62
     0
100
AcDbPoint
 10
4.218329999999999
 20
6.637024
 30
0.0
  0
POINT
  5
D37
330
5E9
100
AcDbEntity
  8
DEFPOINTS
 62
     0
100
AcDbPoint
 10
3.256329999999999
 20
5.077023999999999
 30
0.0
  0
POINT
  5
D38
330
5E9
100
AcDbEntity
  8
DEFPOINTS
 62
     0
100
AcDbPoint
 10
2.596909
 20
5.077023999999999
 30
0.0
  0
ENDBLK
  5
5F5
330
5E9
100
AcDbEntity
  8
0
100
AcDbBlockEnd
  0
BLOCK
  5
602
330
5F7
100
AcDbEntity
  8
0
100
AcDbBlockBegin
  2
*D30
 70
     1
 10
0.0
 20
0.0
 30
0.0
  3
*D30
  1

  0
LINE
  5
C24
330
5F7
100
AcDbEntity
  8
DIM
 62
     0
370
    -2
100
AcDbLine
 10
3.54533
 20
7.137024
 30
0.0
 11
1.61829
 21
7.137024000000001
 31
0.0
  0
LINE
  5
C25
330
5F7
100
AcDbEntity
  8
DIM
 62
     0
370
    -2
100
AcDbLine
 10
3.130329999999999
 20
5.077023999999999
 30
0.0
 11
1.61829
 21
5.077024
 31
0.0
  0
LINE
  5
C26
330
5F7
100
AcDbEntity
  8
DIM
 62
     0
370
    -2
100
AcDbLine
 10
1.80429
 20
6.777024
 30
0.0
 11
1.80429
 21
6.412024
 31
0.0
  0
LINE
  5
C27
330
5F7
100
AcDbEntity
  8
DIM
 62
     0
370
    -2
100
AcDbLine
 10
1.80429
 20
5.437024
 30
0.0
 11
1.80429
 21
5.802024000000001
 31
0.0
  0
SOLID
  5
C28
330
5F7
100
AcDbEntity
  8
DIM
 62
     0
100
AcDbTrace
 10
1.74429
 20
6.777024
 30
0.0
 11
1.86429
 21
6.777024
 31
0.0
 12
1.80429
 22
7.137024000000001
 32
0.0
 13
1.80429
 23
7.137024000000001
 33
0.0
  0
SOLID
  5
C29
330
5F7
100
AcDbEntity
  8
DIM
 62
     0
100
AcDbTrace
 10
1.74429
 20
5.437024
 30
0.0
 11
1.86429
 21
5.437024
 31
0.0
 12
1.80429
 22
5.077024
 32
0.0
 13
1.80429
 23
5.077024
 33
0.0
  0
MTEXT
  5
C2A
330
5F7
100
AcDbEntity
  8
DIM
 62
     0
100
AcDbMText
 10
1.804289999999999
 20
6.107024
 30
0.0
 40
0.25
 41
0.0
 71
     5
 72
     1
  1
\A1;2.060
  7
TXT
 73
     1
 44
1.0
  0
POINT
  5
C2B
330
5F7
100
AcDbEntity
  8
DEFPOINTS
 62
     0
100
AcDbPoint
 10
3.67133
 20
7.137024
 30
0.0
  0
POINT
  5
C2C
330
5F7
100
AcDbEntity
  8
DEFPOINTS
 62
     0
100
AcDbPoint
 10
3.256329999999999
 20
5.077023999999999
 30
0.0
  0
POINT
  5
C2D
330
5F7
100
AcDbEntity
  8
DEFPOINTS
 62
     0
100
AcDbPoint
 10
1.80429
 20
5.077024
 30
0.0
  0
ENDBLK
  5
603
330
5F7
100
AcDbEntity
  8
0
100
AcDbBlockEnd
  0
BLOCK
  5
610
330
605
100
AcDbEntity
  8
0
100
AcDbBlockBegin
  2
*D31
 70
     1
 10
0.0
 20
0.0
 30
0.0
  3
*D31
  1

  0
LINE
  5
C2E
330
605
100
AcDbEntity
  8
DIM
 62
     0
370
    -2
100
AcDbLine
 10
17.554887
 20
2.693735999999999
 30
0.0
 11
17.554887
 21
3.309879
 31
0.0
  0
LINE
  5
C2F
330
605
100
AcDbEntity
  8
DIM
 62
     0
370
    -2
100
AcDbLine
 10
11.56488699999999
 20
2.693735999999999
 30
0.0
 11
11.56488699999999
 21
3.309879
 31
0.0
  0
LINE
  5
C30
330
605
100
AcDbEntity
  8
DIM
 62
     0
370
    -2
100
AcDbLine
 10
17.194887
 20
3.123879
 30
0.0
 11
15.09926199999999
 21
3.123879
 31
0.0
  0
LINE
  5
C31
330
605
100
AcDbEntity
  8
DIM
 62
     0
370
    -2
100
AcDbLine
 10
11.92488699999999
 20
3.123879
 30
0.0
 11
14.020512
 21
3.123879
 31
0.0
  0
SOLID
  5
C32
330
605
100
AcDbEntity
  8
DIM
 62
     0
100
AcDbTrace
 10
17.194887
 20
3.183879
 30
0.0
 11
17.194887
 21
3.063879
 31
0.0
 12
17.554887
 22
3.123879
 32
0.0
 13
17.554887
 23
3.123879
 33
0.0
  0
SOLID
  5
C33
330
605
100
AcDbEntity
  8
DIM
 62
     0
100
AcDbTrace
 10
11.92488699999999
 20
3.183879
 30
0.0
 11
11.92488699999999
 21
3.063879
 31
0.0
 12
11.56488699999999
 22
3.123879
 32
0.0
 13
11.56488699999999
 23
3.123879
 33
0.0
  0
MTEXT
  5
C34
330
605
100
AcDbEntity
  8
DIM
 62
     0
100
AcDbMText
 10
14.55988699999999
 20
3.123879
 30
0.0
 40
0.25
 41
0.0
 71
     5
 72
     1
  1
\A1;5.990
  7
TXT
 73
     1
 44
1.0
  0
POINT
  5
C35
330
605
100
AcDbEntity
  8
DEFPOINTS
 62
     0
100
AcDbPoint
 10
17.554887
 20
2.567736
 30
0.0
  0
POINT
  5
C36
330
605
100
AcDbEntity
  8
DEFPOINTS
 62
     0
100
AcDbPoint
 10
11.56488699999999
 20
2.567736
 30
0.0
  0
POINT
  5
C37
330
605
100
AcDbEntity
  8
DEFPOINTS
 62
     0
100
AcDbPoint
 10
11.56488699999999
 20
3.123879
 30
0.0
  0
ENDBLK
  5
611
330
605
100
AcDbEntity
  8
0
100
AcDbBlockEnd
  0
BLOCK
  5
61E
330
613
100
AcDbEntity
  8
0
100
AcDbBlockBegin
  2
*D32
 70
     1
 10
0.0
 20
0.0
 30
0.0
  3
*D32
  1

  0
LINE
  5
C38
330
613
100
AcDbEntity
  8
DIM
 62
     0
370
    -2
100
AcDbLine
 10
17.50988699999999
 20
1.166736
 30
0.0
 11
17.50988699999999
 21
0.501882
 31
0.0
  0
LINE
  5
C39
330
613
100
AcDbEntity
  8
DIM
 62
     0
370
    -2
100
AcDbLine
 10
11.60988699999999
 20
1.166736
 30
0.0
 11
11.60988699999999
 21
0.501882
 31
0.0
  0
LINE
  5
C3A
330
613
100
AcDbEntity
  8
DIM
 62
     0
370
    -2
100
AcDbLine
 10
17.149887
 20
0.6878820000000001
 30
0.0
 11
16.39613699999999
 21
0.6878820000000001
 31
0.0
  0
LINE
  5
C3B
330
613
100
AcDbEntity
  8
DIM
 62
     0
370
    -2
100
AcDbLine
 10
11.96988699999999
 20
0.6878820000000001
 30
0.0
 11
12.723637
 21
0.6878820000000001
 31
0.0
  0
SOLID
  5
C3C
330
613
100
AcDbEntity
  8
DIM
 62
     0
100
AcDbTrace
 10
17.149887
 20
0.7478819999999999
 30
0.0
 11
17.149887
 21
0.6278820000000001
 31
0.0
 12
17.50988699999999
 22
0.6878820000000001
 32
0.0
 13
17.50988699999999
 23
0.6878820000000001
 33
0.0
  0
SOLID
  5
C3D
330
613
100
AcDbEntity
  8
DIM
 62
     0
100
AcDbTrace
 10
11.96988699999999
 20
0.7478819999999999
 30
0.0
 11
11.96988699999999
 21
0.6278820000000001
 31
0.0
 12
11.60988699999999
 22
0.6878820000000001
 32
0.0
 13
11.60988699999999
 23
0.6878820000000001
 33
0.0
  0
MTEXT
  5
C3E
330
613
100
AcDbEntity
  8
DIM
 62
     0
100
AcDbMText
 10
14.55988699999999
 20
0.6878820000000001
 30
0.0
 40
0.25
 41
0.0
 71
     5
 72
     1
  1
\A1;5.900 EXPOSED PANEL
  7
TXT
 73
     1
 44
1.0
  0
POINT
  5
C3F
330
613
100
AcDbEntity
  8
DEFPOINTS
 62
     0
100
AcDbPoint
 10
17.50988699999999
 20
1.292736
 30
0.0
  0
POINT
  5
C40
330
613
100
AcDbEntity
  8
DEFPOINTS
 62
     0
100
AcDbPoint
 10
11.60988699999999
 20
1.292736
 30
0.0
  0
POINT
  5
C41
330
613
100
AcDbEntity
  8
DEFPOINTS
 62
     0
100
AcDbPoint
 10
11.60988699999999
 20
0.6878820000000001
 30
0.0
  0
ENDBLK
  5
61F
330
613
100
AcDbEntity
  8
0
100
AcDbBlockEnd
  0
BLOCK
  5
62C
330
621
100
AcDbEntity
  8
0
100
AcDbBlockBegin
  2
*D33
 70
     1
 10
0.0
 20
0.0
 30
0.0
  3
*D33
  1

  0
LINE
  5
DF7
330
621
100
AcDbEntity
  8
DIM
 62
     0
370
    -2
100
AcDbLine
 10
11.43888699999999
 20
1.237736
 30
0.0
 11
10.79933999999999
 21
1.237736
 31
0.0
  0
LINE
  5
DF8
330
621
100
AcDbEntity
  8
DIM
 62
     0
370
    -2
100
AcDbLine
 10
11.43888699999999
 20
2.567736
 30
0.0
 11
10.79933999999999
 21
2.567736
 31
0.0
  0
LINE
  5
DF9
330
621
100
AcDbEntity
  8
DIM
 62
     0
370
    -2
100
AcDbLine
 10
10.98533999999999
 20
0.8777360000000001
 30
0.0
 11
10.98533999999999
 21
0.5177360000000002
 31
0.0
  0
LINE
  5
DFA
330
621
100
AcDbEntity
  8
DIM
 62
     0
370
    -2
100
AcDbLine
 10
10.98533999999999
 20
2.927736
 30
0.0
 11
10.98533999999999
 21
3.287736
 31
0.0
  0
SOLID
  5
DFB
330
621
100
AcDbEntity
  8
DIM
 62
     0
100
AcDbTrace
 10
10.92533999999999
 20
0.8777360000000001
 30
0.0
 11
11.04533999999999
 21
0.8777360000000001
 31
0.0
 12
10.98533999999999
 22
1.237736
 32
0.0
 13
10.98533999999999
 23
1.237736
 33
0.0
  0
SOLID
  5
DFC
330
621
100
AcDbEntity
  8
DIM
 62
     0
100
AcDbTrace
 10
10.92533999999999
 20
2.927736
 30
0.0
 11
11.04533999999999
 21
2.927735999999999
 31
0.0
 12
10.98533999999999
 22
2.567736
 32
0.0
 13
10.98533999999999
 23
2.567736
 33
0.0
  0
MTEXT
  5
DFD
330
621
100
AcDbEntity
  8
DIM
 62
     0
100
AcDbMText
 10
10.98533999999999
 20
1.864145454506633
 30
0.0
 40
0.25
 41
0.0
 71
     5
 72
     1
  1
\A1;1.330
  7
TXT
 73
     1
 44
1.0
  0
POINT
  5
DFE
330
621
100
AcDbEntity
  8
DEFPOINTS
 62
     0
100
AcDbPoint
 10
11.56488699999999
 20
1.237735999999999
 30
0.0
  0
POINT
  5
DFF
330
621
100
AcDbEntity
  8
DEFPOINTS
 62
     0
100
AcDbPoint
 10
11.56488699999999
 20
2.567736
 30
0.0
  0
POINT
  5
E00
330
621
100
AcDbEntity
  8
DEFPOINTS
 62
     0
100
AcDbPoint
 10
10.98533999999999
 20
2.567736
 30
0.0
  0
ENDBLK
  5
62D
330
621
100
AcDbEntity
  8
0
100
AcDbBlockEnd
  0
BLOCK
  5
63A
330
62F
100
AcDbEntity
  8
0
100
AcDbBlockBegin
  2
*D34
 70
     1
 10
0.0
 20
0.0
 30
0.0
  3
*D34
  1

  0
LINE
  5
C42
330
62F
100
AcDbEntity
  8
DIM
 62
     0
370
    -2
100
AcDbLine
 10
3.67133
 20
7.011023999999999
 30
0.0
 11
3.67133
 21
3.82141
 31
0.0
  0
LINE
  5
C43
330
62F
100
AcDbEntity
  8
DIM
 62
     0
370
    -2
100
AcDbLine
 10
9.171330000000001
 20
7.011023999999999
 30
0.0
 11
9.171330000000001
 21
3.82141
 31
0.0
  0
LINE
  5
C44
330
62F
100
AcDbEntity
  8
DIM
 62
     0
370
    -2
100
AcDbLine
 10
4.03133
 20
4.00741
 30
0.0
 11
6.227545
 21
4.00741
 31
0.0
  0
LINE
  5
C45
330
62F
100
AcDbEntity
  8
DIM
 62
     0
370
    -2
100
AcDbLine
 10
8.811330000000001
 20
4.00741
 30
0.0
 11
7.275044999999999
 21
4.00741
 31
0.0
  0
SOLID
  5
C46
330
62F
100
AcDbEntity
  8
DIM
 62
     0
100
AcDbTrace
 10
4.03133
 20
4.067409999999999
 30
0.0
 11
4.03133
 21
3.947409999999999
 31
0.0
 12
3.67133
 22
4.00741
 32
0.0
 13
3.67133
 23
4.00741
 33
0.0
  0
SOLID
  5
C47
330
62F
100
AcDbEntity
  8
DIM
 62
     0
100
AcDbTrace
 10
8.811330000000001
 20
4.067409999999999
 30
0.0
 11
8.811330000000001
 21
3.947409999999999
 31
0.0
 12
9.171330000000001
 22
4.00741
 32
0.0
 13
9.171330000000001
 23
4.00741
 33
0.0
  0
MTEXT
  5
C48
330
62F
100
AcDbEntity
  8
DIM
 62
     0
100
AcDbMText
 10
6.751294999999999
 20
4.00741
 30
0.0
 40
0.25
 41
0.0
 71
     5
 72
     1
  1
\A1;5.500
  7
TXT
 73
     1
 44
1.0
  0
POINT
  5
C49
330
62F
100
AcDbEntity
  8
DEFPOINTS
 62
     0
100
AcDbPoint
 10
3.67133
 20
7.137024
 30
0.0
  0
POINT
  5
C4A
330
62F
100
AcDbEntity
  8
DEFPOINTS
 62
     0
100
AcDbPoint
 10
9.171330000000001
 20
7.137024
 30
0.0
  0
POINT
  5
C4B
330
62F
100
AcDbEntity
  8
DEFPOINTS
 62
     0
100
AcDbPoint
 10
9.171330000000001
 20
4.00741
 30
0.0
  0
ENDBLK
  5
63B
330
62F
100
AcDbEntity
  8
0
100
AcDbBlockEnd
  0
BLOCK
  5
648
330
63D
100
AcDbEntity
  8
0
100
AcDbBlockBegin
  2
*D35
 70
     1
 10
0.0
 20
0.0
 30
0.0
  3
*D35
  1

  0
LINE
  5
C4C
330
63D
100
AcDbEntity
  8
DIM
 62
     0
370
    -2
100
AcDbLine
 10
3.67133
 20
7.011023999999999
 30
0.0
 11
3.67133
 21
3.82141
 31
0.0
  0
LINE
  5
C4D
330
63D
100
AcDbEntity
  8
DIM
 62
     0
370
    -2
100
AcDbLine
 10
3.256329999999999
 20
4.951023999999999
 30
0.0
 11
3.256329999999999
 21
3.82141
 31
0.0
  0
LINE
  5
C4E
330
63D
100
AcDbEntity
  8
DIM
 62
     0
370
    -2
100
AcDbLine
 10
4.03133
 20
4.00741
 30
0.0
 11
4.391329999999999
 21
4.00741
 31
0.0
  0
LINE
  5
C4F
330
63D
100
AcDbEntity
  8
DIM
 62
     0
370
    -2
100
AcDbLine
 10
2.896329999999999
 20
4.00741
 30
0.0
 11
2.536329999999999
 21
4.00741
 31
0.0
  0
SOLID
  5
C50
330
63D
100
AcDbEntity
  8
DIM
 62
     0
100
AcDbTrace
 10
4.03133
 20
4.067409999999999
 30
0.0
 11
4.03133
 21
3.947409999999999
 31
0.0
 12
3.67133
 22
4.00741
 32
0.0
 13
3.67133
 23
4.00741
 33
0.0
  0
SOLID
  5
C51
330
63D
100
AcDbEntity
  8
DIM
 62
     0
100
AcDbTrace
 10
2.896329999999999
 20
4.067409999999999
 30
0.0
 11
2.896329999999999
 21
3.947409999999999
 31
0.0
 12
3.256329999999999
 22
4.00741
 32
0.0
 13
3.256329999999999
 23
4.00741
 33
0.0
  0
MTEXT
  5
C52
330
63D
100
AcDbEntity
  8
DIM
 62
     0
100
AcDbMText
 10
2.028204999999999
 20
4.00741
 30
0.0
 40
0.25
 41
0.0
 71
     5
 72
     1
  1
\A1;0.415
  7
TXT
 73
     1
 44
1.0
  0
POINT
  5
C53
330
63D
100
AcDbEntity
  8
DEFPOINTS
 62
     0
100
AcDbPoint
 10
3.67133
 20
7.137024
 30
0.0
  0
POINT
  5
C54
330
63D
100
AcDbEntity
  8
DEFPOINTS
 62
     0
100
AcDbPoint
 10
3.256329999999999
 20
5.077023999999999
 30
0.0
  0
POINT
  5
C55
330
63D
100
AcDbEntity
  8
DEFPOINTS
 62
     0
100
AcDbPoint
 10
3.256329999999999
 20
4.00741
 30
0.0
  0
ENDBLK
  5
649
330
63D
100
AcDbEntity
  8
0
100
AcDbBlockEnd
  0
BLOCK
  5
656
330
64B
100
AcDbEntity
  8
0
100
AcDbBlockBegin
  2
*D36
 70
     1
 10
0.0
 20
0.0
 30
0.0
  3
*D36
  1

  0
LINE
  5
D43
330
64B
100
AcDbEntity
  8
DIM
 62
     0
370
    -2
100
AcDbLine
 10
7.036119999999999
 20
1.252736
 30
0.0
 11
6.889132
 21
1.252736
 31
0.0
  0
LINE
  5
D44
330
64B
100
AcDbEntity
  8
DIM
 62
     0
370
    -2
100
AcDbLine
 10
7.036119999999999
 20
2.552735999999999
 30
0.0
 11
6.889132
 21
2.552736
 31
0.0
  0
LINE
  5
D45
330
64B
100
AcDbEntity
  8
DIM
 62
     0
370
    -2
100
AcDbLine
 10
7.075131999999999
 20
0.892736
 30
0.0
 11
7.075131999999999
 21
0.5327360000000001
 31
0.0
  0
LINE
  5
D46
330
64B
100
AcDbEntity
  8
DIM
 62
     0
370
    -2
100
AcDbLine
 10
7.075132
 20
2.912735999999999
 30
0.0
 11
7.075132
 21
3.272736
 31
0.0
  0
SOLID
  5
D47
330
64B
100
AcDbEntity
  8
DIM
 62
     0
100
AcDbTrace
 10
7.015132
 20
0.892736
 30
0.0
 11
7.135131999999999
 21
0.892736
 31
0.0
 12
7.075131999999999
 22
1.252736
 32
0.0
 13
7.075131999999999
 23
1.252736
 33
0.0
  0
SOLID
  5
D48
330
64B
100
AcDbEntity
  8
DIM
 62
     0
100
AcDbTrace
 10
7.015132000000001
 20
2.912735999999999
 30
0.0
 11
7.135132
 21
2.912735999999999
 31
0.0
 12
7.075132
 22
2.552735999999999
 32
0.0
 13
7.075132
 23
2.552735999999999
 33
0.0
  0
MTEXT
  5
D49
330
64B
100
AcDbEntity
  8
DIM
 62
     0
100
AcDbMText
 10
7.075131999999999
 20
1.902736000000001
 30
0.0
 40
0.25
 41
0.0
 71
     5
 72
     1
  1
\A1;1.300
  7
TXT
 73
     1
 44
1.0
  0
POINT
  5
D4A
330
64B
100
AcDbEntity
  8
DEFPOINTS
 62
     0
100
AcDbPoint
 10
7.162119999999999
 20
1.252736
 30
0.0
  0
POINT
  5
D4B
330
64B
100
AcDbEntity
  8
DEFPOINTS
 62
     0
100
AcDbPoint
 10
7.162119999999999
 20
2.552735999999999
 30
0.0
  0
POINT
  5
D4C
330
64B
100
AcDbEntity
  8
DEFPOINTS
 62
     0
100
AcDbPoint
 10
7.075132
 20
2.552735999999999
 30
0.0
  0
ENDBLK
  5
657
330
64B
100
AcDbEntity
  8
0
100
AcDbBlockEnd
  0
BLOCK
  5
664
330
659
100
AcDbEntity
  8
0
100
AcDbBlockBegin
  2
*D37
 70
     1
 10
0.0
 20
0.0
 30
0.0
  3
*D37
  1

  0
LINE
  5
C56
330
659
100
AcDbEntity
  8
DIM
 62
     0
370
    -2
100
AcDbLine
 10
6.403152999999999
 20
1.252736
 30
0.0
 11
6.256164
 21
1.252736
 31
0.0
  0
LINE
  5
C57
330
659
100
AcDbEntity
  8
DIM
 62
     0
370
    -2
100
AcDbLine
 10
6.403152999999999
 20
1.127736
 30
0.0
 11
6.256164
 21
1.127736
 31
0.0
  0
LINE
  5
C58
330
659
100
AcDbEntity
  8
DIM
 62
     0
370
    -2
100
AcDbLine
 10
6.442164
 20
1.612736
 30
0.0
 11
6.442164
 21
1.972736
 31
0.0
  0
LINE
  5
C59
330
659
100
AcDbEntity
  8
DIM
 62
     0
370
    -2
100
AcDbLine
 10
6.442164
 20
0.7677360000000002
 30
0.0
 11
6.442164
 21
0.4077360000000003
 31
0.0
  0
LINE
  5
C5A
330
659
100
AcDbEntity
  8
DIM
 62
     0
370
    -2
100
AcDbLine
 10
6.442164
 20
0.4077360000000003
 30
0.0
 11
6.082163999999999
 21
0.4077360000000004
 31
0.0
  0
SOLID
  5
C5B
330
659
100
AcDbEntity
  8
DIM
 62
     0
100
AcDbTrace
 10
6.382164
 20
1.612736
 30
0.0
 11
6.502163999999999
 21
1.612736
 31
0.0
 12
6.442164
 22
1.252736
 32
0.0
 13
6.442164
 23
1.252736
 33
0.0
  0
SOLID
  5
C5C
330
659
100
AcDbEntity
  8
DIM
 62
     0
100
AcDbTrace
 10
6.382164
 20
0.7677360000000002
 30
0.0
 11
6.502163999999999
 21
0.7677360000000002
 31
0.0
 12
6.442164
 22
1.127736
 32
0.0
 13
6.442164
 23
1.127736
 33
0.0
  0
MTEXT
  5
C5D
330
659
100
AcDbEntity
  8
DIM
 62
     0
100
AcDbMText
 10
5.574038999999999
 20
0.4077360000000013
 30
0.0
 40
0.25
 41
0.0
 71
     5
 72
     1
  1
\A1;0.125
  7
TXT
 73
     1
 44
1.0
  0
POINT
  5
C5E
330
659
100
AcDbEntity
  8
DEFPOINTS
 62
     0
100
AcDbPoint
 10
6.529152999999999
 20
1.252736
 30
0.0
  0
POINT
  5
C5F
330
659
100
AcDbEntity
  8
DEFPOINTS
 62
     0
100
AcDbPoint
 10
6.529152999999999
 20
1.127736
 30
0.0
  0
POINT
  5
C60
330
659
100
AcDbEntity
  8
DEFPOINTS
 62
     0
100
AcDbPoint
 10
6.442164
 20
1.127736
 30
0.0
  0
ENDBLK
  5
665
330
659
100
AcDbEntity
  8
0
100
AcDbBlockEnd
  0
BLOCK
  5
672
330
667
100
AcDbEntity
  8
0
100
AcDbBlockBegin
  2
*D38
 70
     1
 10
0.0
 20
0.0
 30
0.0
  3
*D38
  1

  0
LINE
  5
D4D
330
667
100
AcDbEntity
  8
DIM
 62
     0
370
    -2
100
AcDbLine
 10
3.164166999999999
 20
2.677735999999999
 30
0.0
 11
2.368688
 21
2.677736
 31
0.0
  0
LINE
  5
D4E
330
667
100
AcDbEntity
  8
DIM
 62
     0
370
    -2
100
AcDbLine
 10
3.16373
 20
1.127736
 30
0.0
 11
2.368688
 21
1.127736
 31
0.0
  0
LINE
  5
D4F
330
667
100
AcDbEntity
  8
DIM
 62
     0
370
    -2
100
AcDbLine
 10
2.554688
 20
3.037736
 30
0.0
 11
2.554688
 21
3.397736
 31
0.0
  0
LINE
  5
D50
330
667
100
AcDbEntity
  8
DIM
 62
     0
370
    -2
100
AcDbLine
 10
2.554687999999999
 20
0.7677360000000002
 30
0.0
 11
2.554687999999999
 21
0.4077360000000003
 31
0.0
  0
SOLID
  5
D51
330
667
100
AcDbEntity
  8
DIM
 62
     0
100
AcDbTrace
 10
2.494688
 20
3.037736
 30
0.0
 11
2.614688
 21
3.037736
 31
0.0
 12
2.554688
 22
2.677736
 32
0.0
 13
2.554688
 23
2.677736
 33
0.0
  0
SOLID
  5
D52
330
667
100
AcDbEntity
  8
DIM
 62
     0
100
AcDbTrace
 10
2.494687999999999
 20
0.7677360000000002
 30
0.0
 11
2.614687999999999
 21
0.7677360000000002
 31
0.0
 12
2.554688
 22
1.127736
 32
0.0
 13
2.554688
 23
1.127736
 33
0.0
  0
MTEXT
  5
D53
330
667
100
AcDbEntity
  8
DIM
 62
     0
100
AcDbMText
 10
2.554687999999999
 20
1.902736
 30
0.0
 40
0.25
 41
0.0
 71
     5
 72
     1
  1
\A1;1.550
  7
TXT
 73
     1
 44
1.0
  0
POINT
  5
D54
330
667
100
AcDbEntity
  8
DEFPOINTS
 62
     0
100
AcDbPoint
 10
3.290166999999999
 20
2.677735999999999
 30
0.0
  0
POINT
  5
D55
330
667
100
AcDbEntity
  8
DEFPOINTS
 62
     0
100
AcDbPoint
 10
3.28973
 20
1.127736
 30
0.0
  0
POINT
  5
D56
330
667
100
AcDbEntity
  8
DEFPOINTS
 62
     0
100
AcDbPoint
 10
2.554688
 20
1.127736
 30
0.0
  0
ENDBLK
  5
673
330
667
100
AcDbEntity
  8
0
100
AcDbBlockEnd
  0
BLOCK
  5
680
330
675
100
AcDbEntity
  8
0
100
AcDbBlockBegin
  2
*D39
 70
     1
 10
0.0
 20
0.0
 30
0.0
  3
*D39
  1

  0
LINE
  5
D57
330
675
100
AcDbEntity
  8
DIM
 62
     0
370
    -2
100
AcDbLine
 10
4.489678
 20
19.02207699999999
 30
0.0
 11
4.941101999999999
 21
19.02207699999999
 31
0.0
  0
LINE
  5
D58
330
675
100
AcDbEntity
  8
DIM
 62
     0
370
    -2
100
AcDbLine
 10
4.489678
 20
20.002077
 30
0.0
 11
4.941101999999999
 21
20.002077
 31
0.0
  0
LINE
  5
D59
330
675
100
AcDbEntity
  8
DIM
 62
     0
370
    -2
100
AcDbLine
 10
4.755101999999999
 20
18.662077
 30
0.0
 11
4.755101999999999
 21
18.302077
 31
0.0
  0
LINE
  5
D5A
330
675
100
AcDbEntity
  8
DIM
 62
     0
370
    -2
100
AcDbLine
 10
4.755101999999999
 20
20.36207699999999
 30
0.0
 11
4.755101999999999
 21
20.72207699999999
 31
0.0
  0
SOLID
  5
D5B
330
675
100
AcDbEntity
  8
DIM
 62
     0
100
AcDbTrace
 10
4.695102
 20
18.662077
 30
0.0
 11
4.815101999999999
 21
18.662077
 31
0.0
 12
4.755101999999999
 22
19.02207699999999
 32
0.0
 13
4.755101999999999
 23
19.02207699999999
 33
0.0
  0
SOLID
  5
D5C
330
675
100
AcDbEntity
  8
DIM
 62
     0
100
AcDbTrace
 10
4.695102
 20
20.36207699999999
 30
0.0
 11
4.815101999999999
 21
20.36207699999999
 31
0.0
 12
4.755101999999999
 22
20.002077
 32
0.0
 13
4.755101999999999
 23
20.002077
 33
0.0
  0
MTEXT
  5
D5D
330
675
100
AcDbEntity
  8
DIM
 62
     0
100
AcDbMText
 10
4.755101999999996
 20
19.51207699999999
 30
0.0
 40
0.25
 41
0.0
 71
     5
 72
     1
  1
\A1;0.980
  7
TXT
 73
     1
 44
1.0
  0
POINT
  5
D5E
330
675
100
AcDbEntity
  8
DEFPOINTS
 62
     0
100
AcDbPoint
 10
4.363678
 20
19.02207699999999
 30
0.0
  0
POINT
  5
D5F
330
675
100
AcDbEntity
  8
DEFPOINTS
 62
     0
100
AcDbPoint
 10
4.363678
 20
20.002077
 30
0.0
  0
POINT
  5
D60
330
675
100
AcDbEntity
  8
DEFPOINTS
 62
     0
100
AcDbPoint
 10
4.755101999999999
 20
20.002077
 30
0.0
  0
ENDBLK
  5
681
330
675
100
AcDbEntity
  8
0
100
AcDbBlockEnd
  0
BLOCK
  5
6A9
330
69E
100
AcDbEntity
  8
0
100
AcDbBlockBegin
  2
*D40
 70
     1
 10
0.0
 20
0.0
 30
0.0
  3
*D40
  1

  0
LINE
  5
C61
330
69E
100
AcDbEntity
  8
DIM
 62
     0
370
    -2
100
AcDbLine
 10
3.54533
 20
12.637024
 30
0.0
 11
1.618290000000001
 21
12.637024
 31
0.0
  0
LINE
  5
C62
330
69E
100
AcDbEntity
  8
DIM
 62
     0
370
    -2
100
AcDbLine
 10
3.54533
 20
7.137024
 30
0.0
 11
1.61829
 21
7.137024000000001
 31
0.0
  0
LINE
  5
C63
330
69E
100
AcDbEntity
  8
DIM
 62
     0
370
    -2
100
AcDbLine
 10
1.804290000000001
 20
12.277024
 30
0.0
 11
1.80429
 21
10.19202399999999
 31
0.0
  0
LINE
  5
C64
330
69E
100
AcDbEntity
  8
DIM
 62
     0
370
    -2
100
AcDbLine
 10
1.80429
 20
7.497024000000001
 30
0.0
 11
1.80429
 21
9.582024
 31
0.0
  0
SOLID
  5
C65
330
69E
100
AcDbEntity
  8
DIM
 62
     0
100
AcDbTrace
 10
1.744290000000001
 20
12.277024
 30
0.0
 11
1.864290000000001
 21
12.277024
 31
0.0
 12
1.804290000000001
 22
12.637024
 32
0.0
 13
1.804290000000001
 23
12.637024
 33
0.0
  0
SOLID
  5
C66
330
69E
100
AcDbEntity
  8
DIM
 62
     0
100
AcDbTrace
 10
1.74429
 20
7.497024000000001
 30
0.0
 11
1.86429
 21
7.497024000000001
 31
0.0
 12
1.80429
 22
7.137024000000001
 32
0.0
 13
1.80429
 23
7.137024000000001
 33
0.0
  0
MTEXT
  5
C67
330
69E
100
AcDbEntity
  8
DIM
 62
     0
100
AcDbMText
 10
1.804289999999999
 20
9.887024
 30
0.0
 40
0.25
 41
0.0
 71
     5
 72
     1
  1
\A1;5.500
  7
TXT
 73
     1
 44
1.0
  0
POINT
  5
C68
330
69E
100
AcDbEntity
  8
DEFPOINTS
 62
     0
100
AcDbPoint
 10
3.67133
 20
12.637024
 30
0.0
  0
POINT
  5
C69
330
69E
100
AcDbEntity
  8
DEFPOINTS
 62
     0
100
AcDbPoint
 10
3.67133
 20
7.137024
 30
0.0
  0
POINT
  5
C6A
330
69E
100
AcDbEntity
  8
DEFPOINTS
 62
     0
100
AcDbPoint
 10
1.80429
 20
7.137024000000001
 30
0.0
  0
ENDBLK
  5
6AA
330
69E
100
AcDbEntity
  8
0
100
AcDbBlockEnd
  0
BLOCK
  5
6B7
330
6AC
100
AcDbEntity
  8
0
100
AcDbBlockBegin
  2
*D41
 70
     1
 10
0.0
 20
0.0
 30
0.0
  3
*D41
  1

  0
LINE
  5
C6B
330
6AC
100
AcDbEntity
  8
DIM
 62
     0
370
    -2
100
AcDbLine
 10
4.092329999999999
 20
9.887024
 30
0.0
 11
2.410909000000001
 21
9.887024000000002
 31
0.0
  0
LINE
  5
C6C
330
6AC
100
AcDbEntity
  8
DIM
 62
     0
370
    -2
100
AcDbLine
 10
4.092329999999999
 20
6.637024
 30
0.0
 11
2.410909
 21
6.637024
 31
0.0
  0
LINE
  5
C6D
330
6AC
100
AcDbEntity
  8
DIM
 62
     0
370
    -2
100
AcDbLine
 10
2.596909000000001
 20
9.527024000000002
 30
0.0
 11
2.596909
 21
8.567024000000001
 31
0.0
  0
LINE
  5
C6E
330
6AC
100
AcDbEntity
  8
DIM
 62
     0
370
    -2
100
AcDbLine
 10
2.596909
 20
6.997024
 30
0.0
 11
2.596909
 21
7.957024000000001
 31
0.0
  0
SOLID
  5
C6F
330
6AC
100
AcDbEntity
  8
DIM
 62
     0
100
AcDbTrace
 10
2.536909
 20
9.527024000000002
 30
0.0
 11
2.656909000000001
 21
9.527024000000002
 31
0.0
 12
2.596909000000001
 22
9.887024000000002
 32
0.0
 13
2.596909000000001
 23
9.887024000000002
 33
0.0
  0
SOLID
  5
C70
330
6AC
100
AcDbEntity
  8
DIM
 62
     0
100
AcDbTrace
 10
2.536909
 20
6.997024
 30
0.0
 11
2.656909
 21
6.997024
 31
0.0
 12
2.596909
 22
6.637024
 32
0.0
 13
2.596909
 23
6.637024
 33
0.0
  0
MTEXT
  5
C71
330
6AC
100
AcDbEntity
  8
DIM
 62
     0
100
AcDbMText
 10
2.596908999999999
 20
8.262024000000002
 30
0.0
 40
0.25
 41
0.0
 71
     5
 72
     1
  1
\A1;3.250
  7
TXT
 73
     1
 44
1.0
  0
POINT
  5
C72
330
6AC
100
AcDbEntity
  8
DEFPOINTS
 62
     0
100
AcDbPoint
 10
4.218329999999999
 20
9.887024
 30
0.0
  0
POINT
  5
C73
330
6AC
100
AcDbEntity
  8
DEFPOINTS
 62
     0
100
AcDbPoint
 10
4.218329999999999
 20
6.637024
 30
0.0
  0
POINT
  5
C74
330
6AC
100
AcDbEntity
  8
DEFPOINTS
 62
     0
100
AcDbPoint
 10
2.596909
 20
6.637024
 30
0.0
  0
ENDBLK
  5
6B8
330
6AC
100
AcDbEntity
  8
0
100
AcDbBlockEnd
  0
BLOCK
  5
6C5
330
6BA
100
AcDbEntity
  8
0
100
AcDbBlockBegin
  2
*D42
 70
     1
 10
0.0
 20
0.0
 30
0.0
  3
*D42
  1

  0
LINE
  5
C75
330
6BA
100
AcDbEntity
  8
DIM
 62
     0
370
    -2
100
AcDbLine
 10
4.092329999999999
 20
13.13702399999999
 30
0.0
 11
2.410909000000001
 21
13.137024
 31
0.0
  0
LINE
  5
C76
330
6BA
100
AcDbEntity
  8
DIM
 62
     0
370
    -2
100
AcDbLine
 10
4.092329999999999
 20
9.887024
 30
0.0
 11
2.410909
 21
9.887024000000002
 31
0.0
  0
LINE
  5
C77
330
6BA
100
AcDbEntity
  8
DIM
 62
     0
370
    -2
100
AcDbLine
 10
2.596909
 20
12.777024
 30
0.0
 11
2.596909
 21
11.817024
 31
0.0
  0
LINE
  5
C78
330
6BA
100
AcDbEntity
  8
DIM
 62
     0
370
    -2
100
AcDbLine
 10
2.596909
 20
10.247024
 30
0.0
 11
2.596909
 21
11.207024
 31
0.0
  0
SOLID
  5
C79
330
6BA
100
AcDbEntity
  8
DIM
 62
     0
100
AcDbTrace
 10
2.536909
 20
12.777024
 30
0.0
 11
2.656909
 21
12.777024
 31
0.0
 12
2.596909000000001
 22
13.137024
 32
0.0
 13
2.596909000000001
 23
13.137024
 33
0.0
  0
SOLID
  5
C7A
330
6BA
100
AcDbEntity
  8
DIM
 62
     0
100
AcDbTrace
 10
2.536909
 20
10.247024
 30
0.0
 11
2.656909
 21
10.247024
 31
0.0
 12
2.596909
 22
9.887024000000002
 32
0.0
 13
2.596909
 23
9.887024000000002
 33
0.0
  0
MTEXT
  5
C7B
330
6BA
100
AcDbEntity
  8
DIM
 62
     0
100
AcDbMText
 10
2.596908999999998
 20
11.512024
 30
0.0
 40
0.25
 41
0.0
 71
     5
 72
     1
  1
\A1;3.250
  7
TXT
 73
     1
 44
1.0
  0
POINT
  5
C7C
330
6BA
100
AcDbEntity
  8
DEFPOINTS
 62
     0
100
AcDbPoint
 10
4.218329999999999
 20
13.13702399999999
 30
0.0
  0
POINT
  5
C7D
330
6BA
100
AcDbEntity
  8
DEFPOINTS
 62
     0
100
AcDbPoint
 10
4.218329999999999
 20
9.887024
 30
0.0
  0
POINT
  5
C7E
330
6BA
100
AcDbEntity
  8
DEFPOINTS
 62
     0
100
AcDbPoint
 10
2.596909
 20
9.887024000000002
 30
0.0
  0
ENDBLK
  5
6C6
330
6BA
100
AcDbEntity
  8
0
100
AcDbBlockEnd
  0
BLOCK
  5
6FB
330
6F0
100
AcDbEntity
  8
0
100
AcDbBlockBegin
  2
*D43
 70
     1
 10
0.0
 20
0.0
 30
0.0
  3
*D43
  1

  0
LINE
  5
C7F
330
6F0
100
AcDbEntity
  8
DIM
 62
     0
370
    -2
100
AcDbLine
 10
4.48483
 20
1.402735999999999
 30
0.0
 11
4.997561
 21
1.402735999999999
 31
0.0
  0
LINE
  5
C80
330
6F0
100
AcDbEntity
  8
DIM
 62
     0
370
    -2
100
AcDbLine
 10
4.782913999999999
 20
1.127736
 30
0.0
 11
4.997561
 21
1.127736
 31
0.0
  0
LINE
  5
C81
330
6F0
100
AcDbEntity
  8
DIM
 62
     0
370
    -2
100
AcDbLine
 10
4.811561
 20
1.762735999999999
 30
0.0
 11
4.811561000000001
 21
2.122735999999999
 31
0.0
  0
LINE
  5
C82
330
6F0
100
AcDbEntity
  8
DIM
 62
     0
370
    -2
100
AcDbLine
 10
4.811561
 20
0.7677360000000001
 30
0.0
 11
4.811561
 21
0.4077360000000002
 31
0.0
  0
LINE
  5
C83
330
6F0
100
AcDbEntity
  8
DIM
 62
     0
370
    -2
100
AcDbLine
 10
4.811561
 20
0.4077360000000002
 30
0.0
 11
4.451560999999999
 21
0.4077360000000003
 31
0.0
  0
SOLID
  5
C84
330
6F0
100
AcDbEntity
  8
DIM
 62
     0
100
AcDbTrace
 10
4.751561
 20
1.762735999999999
 30
0.0
 11
4.871560999999999
 21
1.762735999999999
 31
0.0
 12
4.811561
 22
1.402735999999999
 32
0.0
 13
4.811561
 23
1.402735999999999
 33
0.0
  0
SOLID
  5
C85
330
6F0
100
AcDbEntity
  8
DIM
 62
     0
100
AcDbTrace
 10
4.751561
 20
0.7677360000000001
 30
0.0
 11
4.871560999999999
 21
0.7677360000000001
 31
0.0
 12
4.811561
 22
1.127736
 32
0.0
 13
4.811561
 23
1.127736
 33
0.0
  0
MTEXT
  5
C86
330
6F0
100
AcDbEntity
  8
DIM
 62
     0
100
AcDbMText
 10
3.912186
 20
0.407736000000001
 30
0.0
 40
0.25
 41
0.0
 71
     5
 72
     1
  1
\A1;0.275
  7
TXT
 73
     1
 44
1.0
  0
POINT
  5
C87
330
6F0
100
AcDbEntity
  8
DEFPOINTS
 62
     0
100
AcDbPoint
 10
4.35883
 20
1.402735999999999
 30
0.0
  0
POINT
  5
C88
330
6F0
100
AcDbEntity
  8
DEFPOINTS
 62
     0
100
AcDbPoint
 10
4.656913999999999
 20
1.127736
 30
0.0
  0
POINT
  5
C89
330
6F0
100
AcDbEntity
  8
DEFPOINTS
 62
     0
100
AcDbPoint
 10
4.811561
 20
1.127736
 30
0.0
  0
ENDBLK
  5
6FC
330
6F0
100
AcDbEntity
  8
0
100
AcDbBlockEnd
  0
BLOCK
  5
709
330
6FE
100
AcDbEntity
  8
0
100
AcDbBlockBegin
  2
*D44
 70
     1
 10
0.0
 20
0.0
 30
0.0
  3
*D44
  1

  0
LINE
  5
D61
330
6FE
100
AcDbEntity
  8
DIM
 62
     0
370
    -2
100
AcDbLine
 10
4.48483
 20
1.402735999999999
 30
0.0
 11
5.525533999999998
 21
1.402735999999999
 31
0.0
  0
LINE
  5
D62
330
6FE
100
AcDbEntity
  8
DIM
 62
     0
370
    -2
100
AcDbLine
 10
4.48483
 20
2.402735999999999
 30
0.0
 11
5.525533999999999
 21
2.402735999999999
 31
0.0
  0
LINE
  5
D63
330
6FE
100
AcDbEntity
  8
DIM
 62
     0
370
    -2
100
AcDbLine
 10
5.339533999999998
 20
1.042735999999999
 30
0.0
 11
5.339533999999998
 21
0.6827359999999997
 31
0.0
  0
LINE
  5
D64
330
6FE
100
AcDbEntity
  8
DIM
 62
     0
370
    -2
100
AcDbLine
 10
5.339533999999999
 20
2.762735999999999
 30
0.0
 11
5.339533999999999
 21
3.122735999999999
 31
0.0
  0
SOLID
  5
D65
330
6FE
100
AcDbEntity
  8
DIM
 62
     0
100
AcDbTrace
 10
5.279533999999999
 20
1.042735999999999
 30
0.0
 11
5.399533999999998
 21
1.042735999999999
 31
0.0
 12
5.339533999999998
 22
1.402735999999999
 32
0.0
 13
5.339533999999998
 23
1.402735999999999
 33
0.0
  0
SOLID
  5
D66
330
6FE
100
AcDbEntity
  8
DIM
 62
     0
100
AcDbTrace
 10
5.279533999999999
 20
2.762735999999999
 30
0.0
 11
5.399533999999999
 21
2.762735999999999
 31
0.0
 12
5.339533999999999
 22
2.402735999999999
 32
0.0
 13
5.339533999999999
 23
2.402735999999999
 33
0.0
  0
MTEXT
  5
D67
330
6FE
100
AcDbEntity
  8
DIM
 62
     0
100
AcDbMText
 10
5.339533999999998
 20
1.902736
 30
0.0
 40
0.25
 41
0.0
 71
     5
 72
     1
  1
\A1;1.000
  7
TXT
 73
     1
 44
1.0
  0
POINT
  5
D68
330
6FE
100
AcDbEntity
  8
DEFPOINTS
 62
     0
100
AcDbPoint
 10
4.35883
 20
1.402735999999999
 30
0.0
  0
POINT
  5
D69
330
6FE
100
AcDbEntity
  8
DEFPOINTS
 62
     0
100
AcDbPoint
 10
4.35883
 20
2.402735999999999
 30
0.0
  0
POINT
  5
D6A
330
6FE
100
AcDbEntity
  8
DEFPOINTS
 62
     0
100
AcDbPoint
 10
5.339533999999999
 20
2.402735999999999
 30
0.0
  0
ENDBLK
  5
70A
330
6FE
100
AcDbEntity
  8
0
100
AcDbBlockEnd
  0
BLOCK
  5
722
330
717
100
AcDbEntity
  8
0
100
AcDbBlockBegin
  2
*D45
 70
     1
 10
0.0
 20
0.0
 30
0.0
  3
*D45
  1

  0
LINE
  5
C8A
330
717
100
AcDbEntity
  8
DIM
 62
     0
370
    -2
100
AcDbLine
 10
3.256329999999999
 20
2.028735999999999
 30
0.0
 11
3.256329999999999
 21
3.544562999999999
 31
0.0
  0
LINE
  5
C8B
330
717
100
AcDbEntity
  8
DIM
 62
     0
370
    -2
100
AcDbLine
 10
9.58633
 20
2.028735999999999
 30
0.0
 11
9.58633
 21
3.544562999999999
 31
0.0
  0
LINE
  5
C8C
330
717
100
AcDbEntity
  8
DIM
 62
     0
370
    -2
100
AcDbLine
 10
3.616329999999999
 20
3.358562999999999
 30
0.0
 11
5.881955
 21
3.358562999999999
 31
0.0
  0
LINE
  5
C8D
330
717
100
AcDbEntity
  8
DIM
 62
     0
370
    -2
100
AcDbLine
 10
9.22633
 20
3.358562999999999
 30
0.0
 11
6.960704999999999
 21
3.358562999999999
 31
0.0
  0
SOLID
  5
C8E
330
717
100
AcDbEntity
  8
DIM
 62
     0
100
AcDbTrace
 10
3.616329999999999
 20
3.418562999999999
 30
0.0
 11
3.616329999999999
 21
3.298562999999999
 31
0.0
 12
3.256329999999999
 22
3.358562999999999
 32
0.0
 13
3.256329999999999
 23
3.358562999999999
 33
0.0
  0
SOLID
  5
C8F
330
717
100
AcDbEntity
  8
DIM
 62
     0
100
AcDbTrace
 10
9.22633
 20
3.418562999999999
 30
0.0
 11
9.22633
 21
3.298562999999999
 31
0.0
 12
9.58633
 22
3.358562999999999
 32
0.0
 13
9.58633
 23
3.358562999999999
 33
0.0
  0
MTEXT
  5
C90
330
717
100
AcDbEntity
  8
DIM
 62
     0
100
AcDbMText
 10
6.42133
 20
3.358562999999999
 30
0.0
 40
0.25
 41
0.0
 71
     5
 72
     1
  1
\A1;6.330
  7
TXT
 73
     1
 44
1.0
  0
POINT
  5
C91
330
717
100
AcDbEntity
  8
DEFPOINTS
 62
     0
100
AcDbPoint
 10
3.256329999999999
 20
1.902735999999999
 30
0.0
  0
POINT
  5
C92
330
717
100
AcDbEntity
  8
DEFPOINTS
 62
     0
100
AcDbPoint
 10
9.58633
 20
1.902735999999999
 30
0.0
  0
POINT
  5
C93
330
717
100
AcDbEntity
  8
DEFPOINTS
 62
     0
100
AcDbPoint
 10
9.58633
 20
3.358562999999999
 30
0.0
  0
ENDBLK
  5
723
330
717
100
AcDbEntity
  8
0
100
AcDbBlockEnd
  0
BLOCK
  5
730
330
725
100
AcDbEntity
  8
0
100
AcDbBlockBegin
  2
*D46
 70
     1
 10
0.0
 20
0.0
 30
0.0
  3
*D46
  1

  0
LINE
  5
D6B
330
725
100
AcDbEntity
  8
DIM
 62
     0
370
    -2
100
AcDbLine
 10
9.712329999999999
 20
1.902735999999999
 30
0.0
 11
10.281916
 21
1.902735999999999
 31
0.0
  0
LINE
  5
D6C
330
725
100
AcDbEntity
  8
DIM
 62
     0
370
    -2
100
AcDbLine
 10
9.678491999999998
 20
2.677735999999999
 30
0.0
 11
10.281916
 21
2.677735999999999
 31
0.0
  0
LINE
  5
D6D
330
725
100
AcDbEntity
  8
DIM
 62
     0
370
    -2
100
AcDbLine
 10
10.095916
 20
1.542736
 30
0.0
 11
10.095916
 21
1.182736
 31
0.0
  0
LINE
  5
D6E
330
725
100
AcDbEntity
  8
DIM
 62
     0
370
    -2
100
AcDbLine
 10
10.095916
 20
3.037735999999999
 30
0.0
 11
10.095916
 21
3.397735999999999
 31
0.0
  0
SOLID
  5
D6F
330
725
100
AcDbEntity
  8
DIM
 62
     0
100
AcDbTrace
 10
10.035916
 20
1.542736
 30
0.0
 11
10.155916
 21
1.542736
 31
0.0
 12
10.095916
 22
1.902735999999999
 32
0.0
 13
10.095916
 23
1.902735999999999
 33
0.0
  0
SOLID
  5
D70
330
725
100
AcDbEntity
  8
DIM
 62
     0
100
AcDbTrace
 10
10.035916
 20
3.037735999999999
 30
0.0
 11
10.155916
 21
3.037735999999999
 31
0.0
 12
10.095916
 22
2.677735999999999
 32
0.0
 13
10.095916
 23
2.677735999999999
 33
0.0
  0
MTEXT
  5
D71
330
725
100
AcDbEntity
  8
DIM
 62
     0
100
AcDbMText
 10
10.095916
 20
2.290236000000001
 30
0.0
 40
0.25
 41
0.0
 71
     5
 72
     1
  1
\A1;0.775
  7
TXT
 73
     1
 44
1.0
  0
POINT
  5
D72
330
725
100
AcDbEntity
  8
DEFPOINTS
 62
     0
100
AcDbPoint
 10
9.58633
 20
1.902735999999999
 30
0.0
  0
POINT
  5
D73
330
725
100
AcDbEntity
  8
DEFPOINTS
 62
     0
100
AcDbPoint
 10
9.552491999999999
 20
2.677735999999999
 30
0.0
  0
POINT
  5
D74
330
725
100
AcDbEntity
  8
DEFPOINTS
 62
     0
100
AcDbPoint
 10
10.095916
 20
2.677735999999999
 30
0.0
  0
ENDBLK
  5
731
330
725
100
AcDbEntity
  8
0
100
AcDbBlockEnd
  0
BLOCK
  5
857
330
84C
100
AcDbEntity
  8
0
100
AcDbBlockBegin
  2
*D47
 70
     1
 10
0.0
 20
0.0
 30
0.0
  3
*D47
  1

  0
LINE
  5
EF4
330
84C
100
AcDbEntity
  8
DIM
 62
     0
370
    -2
100
AcDbLine
 10
6.122566999999999
 20
27.58465
 30
0.0
 11
6.033512
 21
27.58465
 31
0.0
  0
LINE
  5
EF5
330
84C
100
AcDbEntity
  8
DIM
 62
     0
370
    -2
100
AcDbLine
 10
6.122566999999999
 20
22.80065
 30
0.0
 11
6.033511999999999
 21
22.80065
 31
0.0
  0
LINE
  5
EF6
330
84C
100
AcDbEntity
  8
DIM
 62
     0
370
    -2
100
AcDbLine
 10
6.219512
 20
27.22465
 30
0.0
 11
6.219511999999999
 21
25.62284326393045
 31
0.0
  0
LINE
  5
EF7
330
84C
100
AcDbEntity
  8
DIM
 62
     0
370
    -2
100
AcDbLine
 10
6.219511999999999
 20
23.16065
 30
0.0
 11
6.219511999999999
 21
25.01284326393045
 31
0.0
  0
SOLID
  5
EF8
330
84C
100
AcDbEntity
  8
DIM
 62
     0
100
AcDbTrace
 10
6.159512000000001
 20
27.22465
 30
0.0
 11
6.279512
 21
27.22465
 31
0.0
 12
6.219512
 22
27.58465
 32
0.0
 13
6.219512
 23
27.58465
 33
0.0
  0
SOLID
  5
EF9
330
84C
100
AcDbEntity
  8
DIM
 62
     0
100
AcDbTrace
 10
6.159512
 20
23.16065
 30
0.0
 11
6.279511999999999
 21
23.16065
 31
0.0
 12
6.219511999999999
 22
22.80065
 32
0.0
 13
6.219511999999999
 23
22.80065
 33
0.0
  0
MTEXT
  5
EFA
330
84C
100
AcDbEntity
  8
DIM
 62
     0
100
AcDbMText
 10
6.219511999999996
 20
25.31784326393045
 30
0.0
 40
0.25
 41
0.0
 71
     5
 72
     1
  1
\A1;4.784
  7
TXT
 73
     1
 44
1.0
  0
POINT
  5
EFB
330
84C
100
AcDbEntity
  8
DEFPOINTS
 62
     0
100
AcDbPoint
 10
6.248566999999999
 20
27.58465
 30
0.0
  0
POINT
  5
EFC
330
84C
100
AcDbEntity
  8
DEFPOINTS
 62
     0
100
AcDbPoint
 10
6.248566999999999
 20
22.80065
 30
0.0
  0
POINT
  5
EFD
330
84C
100
AcDbEntity
  8
DEFPOINTS
 62
     0
100
AcDbPoint
 10
6.219511999999999
 20
22.80065
 30
0.0
  0
ENDBLK
  5
858
330
84C
100
AcDbEntity
  8
0
100
AcDbBlockEnd
  0
BLOCK
  5
865
330
85A
100
AcDbEntity
  8
0
100
AcDbBlockBegin
  2
*D48
 70
     1
 10
0.0
 20
0.0
 30
0.0
  3
*D48
  1

  0
LINE
  5
C9E
330
85A
100
AcDbEntity
  8
DIM
 62
     0
370
    -2
100
AcDbLine
 10
6.23963
 20
22.80065
 30
0.0
 11
6.033511999999999
 21
22.80065
 31
0.0
  0
LINE
  5
C9F
330
85A
100
AcDbEntity
  8
DIM
 62
     0
370
    -2
100
AcDbLine
 10
8.367919999999999
 20
22.54264999999999
 30
0.0
 11
6.033511999999999
 21
22.54265
 31
0.0
  0
LINE
  5
CA0
330
85A
100
AcDbEntity
  8
DIM
 62
     0
370
    -2
100
AcDbLine
 10
6.219511999999999
 20
23.16065
 30
0.0
 11
6.219511999999999
 21
23.52065
 31
0.0
  0
LINE
  5
CA1
330
85A
100
AcDbEntity
  8
DIM
 62
     0
370
    -2
100
AcDbLine
 10
6.219511999999999
 20
22.18265
 30
0.0
 11
6.219511999999999
 21
21.82265
 31
0.0
  0
LINE
  5
CA2
330
85A
100
AcDbEntity
  8
DIM
 62
     0
370
    -2
100
AcDbLine
 10
6.219511999999999
 20
21.82265
 30
0.0
 11
5.859511999999998
 21
21.82265
 31
0.0
  0
SOLID
  5
CA3
330
85A
100
AcDbEntity
  8
DIM
 62
     0
100
AcDbTrace
 10
6.159512
 20
23.16065
 30
0.0
 11
6.279511999999999
 21
23.16065
 31
0.0
 12
6.219511999999999
 22
22.80065
 32
0.0
 13
6.219511999999999
 23
22.80065
 33
0.0
  0
SOLID
  5
CA4
330
85A
100
AcDbEntity
  8
DIM
 62
     0
100
AcDbTrace
 10
6.159512
 20
22.18265
 30
0.0
 11
6.279511999999999
 21
22.18265
 31
0.0
 12
6.219511999999999
 22
22.54265
 32
0.0
 13
6.219511999999999
 23
22.54265
 33
0.0
  0
MTEXT
  5
CA5
330
85A
100
AcDbEntity
  8
DIM
 62
     0
100
AcDbMText
 10
5.320136999999996
 20
21.82265
 30
0.0
 40
0.25
 41
0.0
 71
     5
 72
     1
  1
\A1;0.258
  7
TXT
 73
     1
 44
1.0
  0
POINT
  5
CA6
330
85A
100
AcDbEntity
  8
DEFPOINTS
 62
     0
100
AcDbPoint
 10
6.36563
 20
22.80065
 30
0.0
  0
POINT
  5
CA7
330
85A
100
AcDbEntity
  8
DEFPOINTS
 62
     0
100
AcDbPoint
 10
8.493919999999999
 20
22.54264999999999
 30
0.0
  0
POINT
  5
CA8
330
85A
100
AcDbEntity
  8
DEFPOINTS
 62
     0
100
AcDbPoint
 10
6.219511999999999
 20
22.54265
 30
0.0
  0
ENDBLK
  5
866
330
85A
100
AcDbEntity
  8
0
100
AcDbBlockEnd
  0
BLOCK
  5
8AF
330
8A4
100
AcDbEntity
  8
0
100
AcDbBlockBegin
  2
*D49
 70
     1
 10
0.0
 20
0.0
 30
0.0
  3
*D49
  1

  0
LINE
  5
CA9
330
8A4
100
AcDbEntity
  8
DIM
 62
     0
370
    -2
100
AcDbLine
 10
3.528005999999999
 20
26.99165
 30
0.0
 11
2.658584999999999
 21
26.99165
 31
0.0
  0
LINE
  5
CAA
330
8A4
100
AcDbEntity
  8
DIM
 62
     0
370
    -2
100
AcDbLine
 10
3.528005999999999
 20
26.92165
 30
0.0
 11
2.658584999999999
 21
26.92165
 31
0.0
  0
LINE
  5
CAB
330
8A4
100
AcDbEntity
  8
DIM
 62
     0
370
    -2
100
AcDbLine
 10
2.844585
 20
27.35165
 30
0.0
 11
2.844585
 21
27.71164999999999
 31
0.0
  0
LINE
  5
CAC
330
8A4
100
AcDbEntity
  8
DIM
 62
     0
370
    -2
100
AcDbLine
 10
2.844585
 20
26.56165
 30
0.0
 11
2.844585
 21
26.20165
 31
0.0
  0
LINE
  5
CAD
330
8A4
100
AcDbEntity
  8
DIM
 62
     0
370
    -2
100
AcDbLine
 10
2.844585
 20
26.20165
 30
0.0
 11
2.484585
 21
26.20165
 31
0.0
  0
SOLID
  5
CAE
330
8A4
100
AcDbEntity
  8
DIM
 62
     0
100
AcDbTrace
 10
2.784585
 20
27.35165
 30
0.0
 11
2.904585
 21
27.35165
 31
0.0
 12
2.844585
 22
26.99165
 32
0.0
 13
2.844585
 23
26.99165
 33
0.0
  0
SOLID
  5
CAF
330
8A4
100
AcDbEntity
  8
DIM
 62
     0
100
AcDbTrace
 10
2.784584999999999
 20
26.56165
 30
0.0
 11
2.904584999999999
 21
26.56165
 31
0.0
 12
2.844585
 22
26.92165
 32
0.0
 13
2.844585
 23
26.92165
 33
0.0
  0
MTEXT
  5
CB0
330
8A4
100
AcDbEntity
  8
DIM
 62
     0
100
AcDbMText
 10
1.976459999999995
 20
26.20165
 30
0.0
 40
0.25
 41
0.0
 71
     5
 72
     1
  1
\A1;0.070
  7
TXT
 73
     1
 44
1.0
  0
POINT
  5
CB1
330
8A4
100
AcDbEntity
  8
DEFPOINTS
 62
     0
100
AcDbPoint
 10
3.654005999999999
 20
26.99165
 30
0.0
  0
POINT
  5
CB2
330
8A4
100
AcDbEntity
  8
DEFPOINTS
 62
     0
100
AcDbPoint
 10
3.654005999999999
 20
26.92165
 30
0.0
  0
POINT
  5
CB3
330
8A4
100
AcDbEntity
  8
DEFPOINTS
 62
     0
100
AcDbPoint
 10
2.844585
 20
26.92165
 30
0.0
  0
ENDBLK
  5
8B0
330
8A4
100
AcDbEntity
  8
0
100
AcDbBlockEnd
  0
BLOCK
  5
8BD
330
8B2
100
AcDbEntity
  8
0
100
AcDbBlockBegin
  2
*D50
 70
     1
 10
0.0
 20
0.0
 30
0.0
  3
*D50
  1

  0
LINE
  5
F3E
330
8B2
100
AcDbEntity
  8
DIM
 62
     0
370
    -2
100
AcDbLine
 10
3.528005999999999
 20
27.13465
 30
0.0
 11
1.861777456601864
 21
27.13465
 31
0.0
  0
LINE
  5
F3F
330
8B2
100
AcDbEntity
  8
DIM
 62
     0
370
    -2
100
AcDbLine
 10
3.528005999999999
 20
27.58465
 30
0.0
 11
1.861777456601864
 21
27.58465
 31
0.0
  0
LINE
  5
F40
330
8B2
100
AcDbEntity
  8
DIM
 62
     0
370
    -2
100
AcDbLine
 10
2.047777456601863
 20
26.77465
 30
0.0
 11
2.047777456601863
 21
26.41465
 31
0.0
  0
LINE
  5
F41
330
8B2
100
AcDbEntity
  8
DIM
 62
     0
370
    -2
100
AcDbLine
 10
2.047777456601864
 20
27.94465
 30
0.0
 11
2.047777456601864
 21
28.30465
 31
0.0
  0
SOLID
  5
F42
330
8B2
100
AcDbEntity
  8
DIM
 62
     0
100
AcDbTrace
 10
1.987777456601864
 20
26.77465
 30
0.0
 11
2.107777456601863
 21
26.77465
 31
0.0
 12
2.047777456601864
 22
27.13465
 32
0.0
 13
2.047777456601864
 23
27.13465
 33
0.0
  0
SOLID
  5
F43
330
8B2
100
AcDbEntity
  8
DIM
 62
     0
100
AcDbTrace
 10
1.987777456601864
 20
27.94465
 30
0.0
 11
2.107777456601864
 21
27.94465
 31
0.0
 12
2.047777456601864
 22
27.58465
 32
0.0
 13
2.047777456601864
 23
27.58465
 33
0.0
  0
MTEXT
  5
F44
330
8B2
100
AcDbEntity
  8
DIM
 62
     0
100
AcDbMText
 10
2.047777456601859
 20
27.35965
 30
0.0
 40
0.25
 41
0.0
 71
     5
 72
     1
  1
\A1;0.450
  7
TXT
 73
     1
 44
1.0
  0
POINT
  5
F45
330
8B2
100
AcDbEntity
  8
DEFPOINTS
 62
     0
100
AcDbPoint
 10
3.654005999999999
 20
27.13465
 30
0.0
  0
POINT
  5
F46
330
8B2
100
AcDbEntity
  8
DEFPOINTS
 62
     0
100
AcDbPoint
 10
3.654005999999999
 20
27.58465
 30
0.0
  0
POINT
  5
F47
330
8B2
100
AcDbEntity
  8
DEFPOINTS
 62
     0
100
AcDbPoint
 10
2.047777456601864
 20
27.58465
 30
0.0
  0
ENDBLK
  5
8BE
330
8B2
100
AcDbEntity
  8
0
100
AcDbBlockEnd
  0
BLOCK
  5
8CB
330
8C0
100
AcDbEntity
  8
0
100
AcDbBlockBegin
  2
*D51
 70
     1
 10
0.0
 20
0.0
 30
0.0
  3
*D51
  1

  0
LINE
  5
D7F
330
8C0
100
AcDbEntity
  8
DIM
 62
     0
370
    -2
100
AcDbLine
 10
3.408005999999999
 20
26.99165
 30
0.0
 11
1.005486999999999
 21
26.99165
 31
0.0
  0
LINE
  5
D80
330
8C0
100
AcDbEntity
  8
DIM
 62
     0
370
    -2
100
AcDbLine
 10
3.528005999999999
 20
27.58465
 30
0.0
 11
1.005487
 21
27.58465
 31
0.0
  0
LINE
  5
D81
330
8C0
100
AcDbEntity
  8
DIM
 62
     0
370
    -2
100
AcDbLine
 10
1.191486999999999
 20
26.63165
 30
0.0
 11
1.191486999999999
 21
26.27165
 31
0.0
  0
LINE
  5
D82
330
8C0
100
AcDbEntity
  8
DIM
 62
     0
370
    -2
100
AcDbLine
 10
1.191487
 20
27.94465
 30
0.0
 11
1.191487
 21
28.30465
 31
0.0
  0
SOLID
  5
D83
330
8C0
100
AcDbEntity
  8
DIM
 62
     0
100
AcDbTrace
 10
1.131486999999999
 20
26.63165
 30
0.0
 11
1.251487
 21
26.63165
 31
0.0
 12
1.191486999999999
 22
26.99165
 32
0.0
 13
1.191486999999999
 23
26.99165
 33
0.0
  0
SOLID
  5
D84
330
8C0
100
AcDbEntity
  8
DIM
 62
     0
100
AcDbTrace
 10
1.131487
 20
27.94465
 30
0.0
 11
1.251487
 21
27.94465
 31
0.0
 12
1.191487
 22
27.58465
 32
0.0
 13
1.191487
 23
27.58465
 33
0.0
  0
MTEXT
  5
D85
330
8C0
100
AcDbEntity
  8
DIM
 62
     0
100
AcDbMText
 10
1.191486999999995
 20
27.28815
 30
0.0
 40
0.25
 41
0.0
 71
     5
 72
     1
  1
\A1;0.593
  7
TXT
 73
     1
 44
1.0
  0
POINT
  5
D86
330
8C0
100
AcDbEntity
  8
DEFPOINTS
 62
     0
100
AcDbPoint
 10
3.534005999999999
 20
26.99165
 30
0.0
  0
POINT
  5
D87
330
8C0
100
AcDbEntity
  8
DEFPOINTS
 62
     0
100
AcDbPoint
 10
3.654005999999999
 20
27.58465
 30
0.0
  0
POINT
  5
D88
330
8C0
100
AcDbEntity
  8
DEFPOINTS
 62
     0
100
AcDbPoint
 10
1.191487
 20
27.58465
 30
0.0
  0
ENDBLK
  5
8CC
330
8C0
100
AcDbEntity
  8
0
100
AcDbBlockEnd
  0
BLOCK
  5
8E2
330
8D7
100
AcDbEntity
  8
0
100
AcDbBlockBegin
  2
*D52
 70
     1
 10
0.0
 20
0.0
 30
0.0
  3
*D52
  1

  0
LINE
  5
EEA
330
8D7
100
AcDbEntity
  8
DIM
 62
     0
370
    -2
100
AcDbLine
 10
4.365006
 20
23.69264999999999
 30
0.0
 11
4.938351641504688
 21
23.69264999999999
 31
0.0
  0
LINE
  5
EEB
330
8D7
100
AcDbEntity
  8
DIM
 62
     0
370
    -2
100
AcDbLine
 10
4.365006
 20
26.69265
 30
0.0
 11
4.938351641504689
 21
26.69265
 31
0.0
  0
LINE
  5
EEC
330
8D7
100
AcDbEntity
  8
DIM
 62
     0
370
    -2
100
AcDbLine
 10
4.752351641504688
 20
24.05264999999999
 30
0.0
 11
4.752351641504688
 21
25.01284326393045
 31
0.0
  0
LINE
  5
EED
330
8D7
100
AcDbEntity
  8
DIM
 62
     0
370
    -2
100
AcDbLine
 10
4.752351641504689
 20
26.33265
 30
0.0
 11
4.752351641504688
 21
25.62284326393045
 31
0.0
  0
SOLID
  5
EEE
330
8D7
100
AcDbEntity
  8
DIM
 62
     0
100
AcDbTrace
 10
4.692351641504688
 20
24.05264999999999
 30
0.0
 11
4.812351641504688
 21
24.05264999999999
 31
0.0
 12
4.752351641504688
 22
23.69264999999999
 32
0.0
 13
4.752351641504688
 23
23.69264999999999
 33
0.0
  0
SOLID
  5
EEF
330
8D7
100
AcDbEntity
  8
DIM
 62
     0
100
AcDbTrace
 10
4.692351641504689
 20
26.33265
 30
0.0
 11
4.812351641504688
 21
26.33265
 31
0.0
 12
4.752351641504689
 22
26.69265
 32
0.0
 13
4.752351641504689
 23
26.69265
 33
0.0
  0
MTEXT
  5
EF0
330
8D7
100
AcDbEntity
  8
DIM
 62
     0
100
AcDbMText
 10
4.752351641504684
 20
25.31784326393045
 30
0.0
 40
0.25
 41
0.0
 71
     5
 72
     1
  1
\A1;3.000
  7
TXT
 73
     1
 44
1.0
  0
POINT
  5
EF1
330
8D7
100
AcDbEntity
  8
DEFPOINTS
 62
     0
100
AcDbPoint
 10
4.239005999999999
 20
23.69264999999999
 30
0.0
  0
POINT
  5
EF2
330
8D7
100
AcDbEntity
  8
DEFPOINTS
 62
     0
100
AcDbPoint
 10
4.239005999999999
 20
26.69265
 30
0.0
  0
POINT
  5
EF3
330
8D7
100
AcDbEntity
  8
DEFPOINTS
 62
     0
100
AcDbPoint
 10
4.752351641504689
 20
26.69265
 30
0.0
  0
ENDBLK
  5
8E3
330
8D7
100
AcDbEntity
  8
0
100
AcDbBlockEnd
  0
BLOCK
  5
8F0
330
8E5
100
AcDbEntity
  8
0
100
AcDbBlockBegin
  2
*D53
 70
     1
 10
0.0
 20
0.0
 30
0.0
  3
*D53
  1

  0
LINE
  5
F34
330
8E5
100
AcDbEntity
  8
DIM
 62
     0
370
    -2
100
AcDbLine
 10
3.964005999999999
 20
24.79665
 30
0.0
 11
3.964005999999999
 21
24.42501138175661
 31
0.0
  0
LINE
  5
F35
330
8E5
100
AcDbEntity
  8
DIM
 62
     0
370
    -2
100
AcDbLine
 10
8.124005999999999
 20
24.79665
 30
0.0
 11
8.124005999999999
 21
24.42501138175661
 31
0.0
  0
LINE
  5
F36
330
8E5
100
AcDbEntity
  8
DIM
 62
     0
370
    -2
100
AcDbLine
 10
4.324005999999999
 20
24.61101138175661
 30
0.0
 11
5.089162456601893
 21
24.61101138175661
 31
0.0
  0
LINE
  5
F37
330
8E5
100
AcDbEntity
  8
DIM
 62
     0
370
    -2
100
AcDbLine
 10
7.764005999999999
 20
24.61101138175661
 30
0.0
 11
6.105412456601892
 21
24.61101138175661
 31
0.0
  0
SOLID
  5
F38
330
8E5
100
AcDbEntity
  8
DIM
 62
     0
100
AcDbTrace
 10
4.324005999999999
 20
24.67101138175661
 30
0.0
 11
4.324005999999999
 21
24.55101138175662
 31
0.0
 12
3.964005999999999
 22
24.61101138175661
 32
0.0
 13
3.964005999999999
 23
24.61101138175661
 33
0.0
  0
SOLID
  5
F39
330
8E5
100
AcDbEntity
  8
DIM
 62
     0
100
AcDbTrace
 10
7.764005999999999
 20
24.67101138175661
 30
0.0
 11
7.764005999999999
 21
24.55101138175662
 31
0.0
 12
8.124005999999999
 22
24.61101138175661
 32
0.0
 13
8.124005999999999
 23
24.61101138175661
 33
0.0
  0
MTEXT
  5
F3A
330
8E5
100
AcDbEntity
  8
DIM
 62
     0
100
AcDbMText
 10
5.597287456601892
 20
24.61101138175661
 30
0.0
 40
0.25
 41
0.0
 71
     5
 72
     1
  1
\A1;4.160
  7
TXT
 73
     1
 44
1.0
  0
POINT
  5
F3B
330
8E5
100
AcDbEntity
  8
DEFPOINTS
 62
     0
100
AcDbPoint
 10
3.964005999999999
 20
24.92265
 30
0.0
  0
POINT
  5
F3C
330
8E5
100
AcDbEntity
  8
DEFPOINTS
 62
     0
100
AcDbPoint
 10
8.124005999999999
 20
24.92265
 30
0.0
  0
POINT
  5
F3D
330
8E5
100
AcDbEntity
  8
DEFPOINTS
 62
     0
100
AcDbPoint
 10
8.124005999999999
 20
24.61101138175661
 30
0.0
  0
ENDBLK
  5
8F1
330
8E5
100
AcDbEntity
  8
0
100
AcDbBlockEnd
  0
BLOCK
  5
936
330
92B
100
AcDbEntity
  8
0
100
AcDbBlockBegin
  2
*D54
 70
     1
 10
0.0
 20
0.0
 30
0.0
  3
*D54
  1

  0
LINE
  5
E82
330
92B
100
AcDbEntity
  8
DIM
 62
     0
370
    -2
100
AcDbLine
 10
4.489678
 20
19.02207699999999
 30
0.0
 11
5.428821921498915
 21
19.02207699999999
 31
0.0
  0
LINE
  5
E83
330
92B
100
AcDbEntity
  8
DIM
 62
     0
370
    -2
100
AcDbLine
 10
5.077693
 20
18.74707699999999
 30
0.0
 11
5.428821921498915
 21
18.74707699999999
 31
0.0
  0
LINE
  5
E84
330
92B
100
AcDbEntity
  8
DIM
 62
     0
370
    -2
100
AcDbLine
 10
5.242821921498915
 20
19.38207699999999
 30
0.0
 11
5.242821921498915
 21
19.742077
 31
0.0
  0
LINE
  5
E85
330
92B
100
AcDbEntity
  8
DIM
 62
     0
370
    -2
100
AcDbLine
 10
5.242821921498915
 20
18.38707699999999
 30
0.0
 11
5.242821921498915
 21
18.027077
 31
0.0
  0
LINE
  5
E86
330
92B
100
AcDbEntity
  8
DIM
 62
     0
370
    -2
100
AcDbLine
 10
5.242821921498915
 20
18.027077
 30
0.0
 11
4.882821921498915
 21
18.027077
 31
0.0
  0
SOLID
  5
E87
330
92B
100
AcDbEntity
  8
DIM
 62
     0
100
AcDbTrace
 10
5.182821921498915
 20
19.38207699999999
 30
0.0
 11
5.302821921498915
 21
19.38207699999999
 31
0.0
 12
5.242821921498915
 22
19.02207699999999
 32
0.0
 13
5.242821921498915
 23
19.02207699999999
 33
0.0
  0
SOLID
  5
E88
330
92B
100
AcDbEntity
  8
DIM
 62
     0
100
AcDbTrace
 10
5.182821921498915
 20
18.38707699999999
 30
0.0
 11
5.302821921498915
 21
18.38707699999999
 31
0.0
 12
5.242821921498915
 22
18.74707699999999
 32
0.0
 13
5.242821921498915
 23
18.74707699999999
 33
0.0
  0
MTEXT
  5
E89
330
92B
100
AcDbEntity
  8
DIM
 62
     0
100
AcDbMText
 10
4.343446921498911
 20
18.027077
 30
0.0
 40
0.25
 41
0.0
 71
     5
 72
     1
  1
\A1;0.275
  7
TXT
 73
     1
 44
1.0
  0
POINT
  5
E8A
330
92B
100
AcDbEntity
  8
DEFPOINTS
 62
     0
100
AcDbPoint
 10
4.363678
 20
19.02207699999999
 30
0.0
  0
POINT
  5
E8B
330
92B
100
AcDbEntity
  8
DEFPOINTS
 62
     0
100
AcDbPoint
 10
4.951692999999999
 20
18.74707699999999
 30
0.0
  0
POINT
  5
E8C
330
92B
100
AcDbEntity
  8
DEFPOINTS
 62
     0
100
AcDbPoint
 10
5.242821921498915
 20
18.74707699999999
 30
0.0
  0
ENDBLK
  5
937
330
92B
100
AcDbEntity
  8
0
100
AcDbBlockEnd
  0
BLOCK
  5
A20
330
A15
100
AcDbEntity
  8
0
100
AcDbBlockBegin
  2
*D55
 70
     1
 10
0.0
 20
0.0
 30
0.0
  3
*D55
  1

  0
LINE
  5
CD3
330
A15
100
AcDbEntity
  8
DIM
 62
     0
370
    -2
100
AcDbLine
 10
6.890658999999999
 20
5.370023999999999
 30
0.0
 11
6.668311
 21
5.370023999999999
 31
0.0
  0
LINE
  5
CD4
330
A15
100
AcDbEntity
  8
DIM
 62
     0
370
    -2
100
AcDbLine
 10
9.370244000000001
 20
5.077023999999999
 30
0.0
 11
6.668311
 21
5.077023999999999
 31
0.0
  0
LINE
  5
CD5
330
A15
100
AcDbEntity
  8
DIM
 62
     0
370
    -2
100
AcDbLine
 10
6.854311
 20
5.730024
 30
0.0
 11
6.854311
 21
6.090023999999999
 31
0.0
  0
LINE
  5
CD6
330
A15
100
AcDbEntity
  8
DIM
 62
     0
370
    -2
100
AcDbLine
 10
6.854311
 20
4.717023999999999
 30
0.0
 11
6.854311
 21
4.357024
 31
0.0
  0
LINE
  5
CD7
330
A15
100
AcDbEntity
  8
DIM
 62
     0
370
    -2
100
AcDbLine
 10
6.854311
 20
4.357024
 30
0.0
 11
6.494310999999999
 21
4.357024
 31
0.0
  0
SOLID
  5
CD8
330
A15
100
AcDbEntity
  8
DIM
 62
     0
100
AcDbTrace
 10
6.794311
 20
5.730024
 30
0.0
 11
6.914310999999999
 21
5.730024
 31
0.0
 12
6.854311
 22
5.370023999999999
 32
0.0
 13
6.854311
 23
5.370023999999999
 33
0.0
  0
SOLID
  5
CD9
330
A15
100
AcDbEntity
  8
DIM
 62
     0
100
AcDbTrace
 10
6.794311
 20
4.717023999999999
 30
0.0
 11
6.914310999999999
 21
4.717023999999999
 31
0.0
 12
6.854311
 22
5.077023999999999
 32
0.0
 13
6.854311
 23
5.077023999999999
 33
0.0
  0
MTEXT
  5
CDA
330
A15
100
AcDbEntity
  8
DIM
 62
     0
100
AcDbMText
 10
5.954935999999999
 20
4.357024000000001
 30
0.0
 40
0.25
 41
0.0
 71
     5
 72
     1
  1
\A1;0.293
  7
TXT
 73
     1
 44
1.0
  0
POINT
  5
CDB
330
A15
100
AcDbEntity
  8
DEFPOINTS
 62
     0
100
AcDbPoint
 10
7.016658999999999
 20
5.370023999999999
 30
0.0
  0
POINT
  5
CDC
330
A15
100
AcDbEntity
  8
DEFPOINTS
 62
     0
100
AcDbPoint
 10
9.496244
 20
5.077023999999999
 30
0.0
  0
POINT
  5
CDD
330
A15
100
AcDbEntity
  8
DEFPOINTS
 62
     0
100
AcDbPoint
 10
6.854311
 20
5.077023999999999
 30
0.0
  0
ENDBLK
  5
A21
330
A15
100
AcDbEntity
  8
0
100
AcDbBlockEnd
  0
BLOCK
  5
A39
330
A2E
100
AcDbEntity
  8
0
100
AcDbBlockBegin
  2
*D56
 70
     1
 10
0.0
 20
0.0
 30
0.0
  3
*D56
  1

  0
LINE
  5
D89
330
A2E
100
AcDbEntity
  8
DIM
 62
     0
370
    -2
100
AcDbLine
 10
3.28033
 20
13.950024
 30
0.0
 11
1.325965999999999
 21
13.950024
 31
0.0
  0
LINE
  5
D8A
330
A2E
100
AcDbEntity
  8
DIM
 62
     0
370
    -2
100
AcDbLine
 10
3.28033
 20
14.40402399999999
 30
0.0
 11
1.325965999999999
 21
14.40402399999999
 31
0.0
  0
LINE
  5
D8B
330
A2E
100
AcDbEntity
  8
DIM
 62
     0
370
    -2
100
AcDbLine
 10
1.511965999999999
 20
13.590024
 30
0.0
 11
1.511965999999999
 21
13.230024
 31
0.0
  0
LINE
  5
D8C
330
A2E
100
AcDbEntity
  8
DIM
 62
     0
370
    -2
100
AcDbLine
 10
1.511966
 20
14.764024
 30
0.0
 11
1.511966
 21
15.124024
 31
0.0
  0
SOLID
  5
D8D
330
A2E
100
AcDbEntity
  8
DIM
 62
     0
100
AcDbTrace
 10
1.451965999999999
 20
13.590024
 30
0.0
 11
1.571965999999999
 21
13.590024
 31
0.0
 12
1.511965999999999
 22
13.950024
 32
0.0
 13
1.511965999999999
 23
13.950024
 33
0.0
  0
SOLID
  5
D8E
330
A2E
100
AcDbEntity
  8
DIM
 62
     0
100
AcDbTrace
 10
1.451966
 20
14.764024
 30
0.0
 11
1.571966
 21
14.764024
 31
0.0
 12
1.511965999999999
 22
14.40402399999999
 32
0.0
 13
1.511965999999999
 23
14.40402399999999
 33
0.0
  0
MTEXT
  5
D8F
330
A2E
100
AcDbEntity
  8
DIM
 62
     0
100
AcDbMText
 10
1.511965999999997
 20
14.177024
 30
0.0
 40
0.25
 41
0.0
 71
     5
 72
     1
  1
\A1;0.454
  7
TXT
 73
     1
 44
1.0
  0
POINT
  5
D90
330
A2E
100
AcDbEntity
  8
DEFPOINTS
 62
     0
100
AcDbPoint
 10
3.40633
 20
13.950024
 30
0.0
  0
POINT
  5
D91
330
A2E
100
AcDbEntity
  8
DEFPOINTS
 62
     0
100
AcDbPoint
 10
3.40633
 20
14.40402399999999
 30
0.0
  0
POINT
  5
D92
330
A2E
100
AcDbEntity
  8
DEFPOINTS
 62
     0
100
AcDbPoint
 10
1.511965999999999
 20
14.40402399999999
 30
0.0
  0
ENDBLK
  5
A3A
330
A2E
100
AcDbEntity
  8
0
100
AcDbBlockEnd
  0
BLOCK
  5
A47
330
A3C
100
AcDbEntity
  8
0
100
AcDbBlockBegin
  2
*D57
 70
     1
 10
0.0
 20
0.0
 30
0.0
  3
*D57
  1

  0
LINE
  5
D93
330
A3C
100
AcDbEntity
  8
DIM
 62
     0
370
    -2
100
AcDbLine
 10
3.34533
 20
13.809024
 30
0.0
 11
0.4308770000000001
 21
13.809024
 31
0.0
  0
LINE
  5
D94
330
A3C
100
AcDbEntity
  8
DIM
 62
     0
370
    -2
100
AcDbLine
 10
3.28033
 20
14.40402399999999
 30
0.0
 11
0.4308770000000003
 21
14.40402399999999
 31
0.0
  0
LINE
  5
D95
330
A3C
100
AcDbEntity
  8
DIM
 62
     0
370
    -2
100
AcDbLine
 10
0.6168769999999998
 20
13.449024
 30
0.0
 11
0.6168769999999997
 21
13.089024
 31
0.0
  0
LINE
  5
D96
330
A3C
100
AcDbEntity
  8
DIM
 62
     0
370
    -2
100
AcDbLine
 10
0.6168770000000002
 20
14.764024
 30
0.0
 11
0.6168770000000002
 21
15.124024
 31
0.0
  0
SOLID
  5
D97
330
A3C
100
AcDbEntity
  8
DIM
 62
     0
100
AcDbTrace
 10
0.5568769999999997
 20
13.449024
 30
0.0
 11
0.6768769999999999
 21
13.449024
 31
0.0
 12
0.6168769999999999
 22
13.809024
 32
0.0
 13
0.6168769999999999
 23
13.809024
 33
0.0
  0
SOLID
  5
D98
330
A3C
100
AcDbEntity
  8
DIM
 62
     0
100
AcDbTrace
 10
0.5568770000000001
 20
14.764024
 30
0.0
 11
0.6768770000000002
 21
14.764024
 31
0.0
 12
0.6168770000000001
 22
14.40402399999999
 32
0.0
 13
0.6168770000000001
 23
14.40402399999999
 33
0.0
  0
MTEXT
  5
D99
330
A3C
100
AcDbEntity
  8
DIM
 62
     0
100
AcDbMText
 10
0.6168769999999978
 20
14.106524
 30
0.0
 40
0.25
 41
0.0
 71
     5
 72
     1
  1
\A1;0.595
  7
TXT
 73
     1
 44
1.0
  0
POINT
  5
D9A
330
A3C
100
AcDbEntity
  8
DEFPOINTS
 62
     0
100
AcDbPoint
 10
3.47133
 20
13.809024
 30
0.0
  0
POINT
  5
D9B
330
A3C
100
AcDbEntity
  8
DEFPOINTS
 62
     0
100
AcDbPoint
 10
3.40633
 20
14.40402399999999
 30
0.0
  0
POINT
  5
D9C
330
A3C
100
AcDbEntity
  8
DEFPOINTS
 62
     0
100
AcDbPoint
 10
0.6168770000000001
 20
14.40402399999999
 30
0.0
  0
ENDBLK
  5
A48
330
A3C
100
AcDbEntity
  8
0
100
AcDbBlockEnd
  0
BLOCK
  5
A59
330
A4E
100
AcDbEntity
  8
0
100
AcDbBlockBegin
  2
*D58
 70
     1
 10
0.0
 20
0.0
 30
0.0
  3
*D58
  1

  0
LINE
  5
D9D
330
A4E
100
AcDbEntity
  8
DIM
 62
     0
370
    -2
100
AcDbLine
 10
3.81133
 20
12.511024
 30
0.0
 11
3.81133
 21
11.95609799999999
 31
0.0
  0
LINE
  5
D9E
330
A4E
100
AcDbEntity
  8
DIM
 62
     0
370
    -2
100
AcDbLine
 10
9.03133
 20
12.511024
 30
0.0
 11
9.03133
 21
11.95609799999999
 31
0.0
  0
LINE
  5
D9F
330
A4E
100
AcDbEntity
  8
DIM
 62
     0
370
    -2
100
AcDbLine
 10
4.17133
 20
12.14209799999999
 30
0.0
 11
5.639483
 21
12.14209799999999
 31
0.0
  0
LINE
  5
DA0
330
A4E
100
AcDbEntity
  8
DIM
 62
     0
370
    -2
100
AcDbLine
 10
8.671330000000001
 20
12.14209799999999
 30
0.0
 11
6.718232999999999
 21
12.14209799999999
 31
0.0
  0
SOLID
  5
DA1
330
A4E
100
AcDbEntity
  8
DIM
 62
     0
100
AcDbTrace
 10
4.17133
 20
12.202098
 30
0.0
 11
4.17133
 21
12.08209799999999
 31
0.0
 12
3.81133
 22
12.14209799999999
 32
0.0
 13
3.81133
 23
12.14209799999999
 33
0.0
  0
SOLID
  5
DA2
330
A4E
100
AcDbEntity
  8
DIM
 62
     0
100
AcDbTrace
 10
8.671330000000001
 20
12.202098
 30
0.0
 11
8.671330000000001
 21
12.08209799999999
 31
0.0
 12
9.03133
 22
12.14209799999999
 32
0.0
 13
9.03133
 23
12.14209799999999
 33
0.0
  0
MTEXT
  5
DA3
330
A4E
100
AcDbEntity
  8
DIM
 62
     0
100
AcDbMText
 10
6.178857999999999
 20
12.14209799999999
 30
0.0
 40
0.25
 41
0.0
 71
     5
 72
     1
  1
\A1;5.220
  7
TXT
 73
     1
 44
1.0
  0
POINT
  5
DA4
330
A4E
100
AcDbEntity
  8
DEFPOINTS
 62
     0
100
AcDbPoint
 10
3.81133
 20
12.637024
 30
0.0
  0
POINT
  5
DA5
330
A4E
100
AcDbEntity
  8
DEFPOINTS
 62
     0
100
AcDbPoint
 10
9.03133
 20
12.637024
 30
0.0
  0
POINT
  5
DA6
330
A4E
100
AcDbEntity
  8
DEFPOINTS
 62
     0
100
AcDbPoint
 10
9.03133
 20
12.14209799999999
 30
0.0
  0
ENDBLK
  5
A5A
330
A4E
100
AcDbEntity
  8
0
100
AcDbBlockEnd
  0
BLOCK
  5
A73
330
A68
100
AcDbEntity
  8
0
100
AcDbBlockBegin
  2
*D59
 70
     1
 10
0.0
 20
0.0
 30
0.0
  3
*D59
  1

  0
LINE
  5
EE0
330
A68
100
AcDbEntity
  8
DIM
 62
     0
370
    -2
100
AcDbLine
 10
8.434006
 20
26.34470763459086
 30
0.0
 11
8.434006
 21
26.09487163459086
 31
0.0
  0
LINE
  5
EE1
330
A68
100
AcDbEntity
  8
DIM
 62
     0
370
    -2
100
AcDbLine
 10
3.654005999999999
 20
26.34470763459086
 30
0.0
 11
3.654005999999999
 21
26.09487163459086
 31
0.0
  0
LINE
  5
EE2
330
A68
100
AcDbEntity
  8
DIM
 62
     0
370
    -2
100
AcDbLine
 10
8.074006
 20
26.28087163459086
 30
0.0
 11
6.133612
 21
26.28087163459086
 31
0.0
  0
LINE
  5
EE3
330
A68
100
AcDbEntity
  8
DIM
 62
     0
370
    -2
100
AcDbLine
 10
4.014006
 20
26.28087163459086
 30
0.0
 11
5.054862
 21
26.28087163459086
 31
0.0
  0
SOLID
  5
EE4
330
A68
100
AcDbEntity
  8
DIM
 62
     0
100
AcDbTrace
 10
8.074006
 20
26.34087163459086
 30
0.0
 11
8.074006
 21
26.22087163459086
 31
0.0
 12
8.434006
 22
26.28087163459086
 32
0.0
 13
8.434006
 23
26.28087163459086
 33
0.0
  0
SOLID
  5
EE5
330
A68
100
AcDbEntity
  8
DIM
 62
     0
100
AcDbTrace
 10
4.014006
 20
26.34087163459086
 30
0.0
 11
4.014006
 21
26.22087163459086
 31
0.0
 12
3.654005999999999
 22
26.28087163459086
 32
0.0
 13
3.654005999999999
 23
26.28087163459086
 33
0.0
  0
MTEXT
  5
EE6
330
A68
100
AcDbEntity
  8
DIM
 62
     0
100
AcDbMText
 10
5.594237
 20
26.28087163459086
 30
0.0
 40
0.25
 41
0.0
 71
     5
 72
     1
  1
\A1;4.780
  7
TXT
 73
     1
 44
1.0
  0
POINT
  5
EE7
330
A68
100
AcDbEntity
  8
DEFPOINTS
 62
     0
100
AcDbPoint
 10
8.434006
 20
26.47070763459086
 30
0.0
  0
POINT
  5
EE8
330
A68
100
AcDbEntity
  8
DEFPOINTS
 62
     0
100
AcDbPoint
 10
3.654005999999999
 20
26.47070763459086
 30
0.0
  0
POINT
  5
EE9
330
A68
100
AcDbEntity
  8
DEFPOINTS
 62
     0
100
AcDbPoint
 10
3.654005999999999
 20
26.28087163459086
 30
0.0
  0
ENDBLK
  5
A74
330
A68
100
AcDbEntity
  8
0
100
AcDbBlockEnd
  0
BLOCK
  5
A81
330
A76
100
AcDbEntity
  8
0
100
AcDbBlockBegin
  2
*D60
 70
     1
 10
0.0
 20
0.0
 30
0.0
  3
*D60
  1

  0
LINE
  5
DB1
330
A76
100
AcDbEntity
  8
DIM
 62
     0
370
    -2
100
AcDbLine
 10
3.59733
 20
13.950024
 30
0.0
 11
5.049224999999999
 21
13.95002399999999
 31
0.0
  0
LINE
  5
DB2
330
A76
100
AcDbEntity
  8
DIM
 62
     0
370
    -2
100
AcDbLine
 10
3.59733
 20
11.650024
 30
0.0
 11
5.049224999999999
 21
11.65002399999999
 31
0.0
  0
LINE
  5
DB3
330
A76
100
AcDbEntity
  8
DIM
 62
     0
370
    -2
100
AcDbLine
 10
4.863224999999999
 20
13.59002399999999
 30
0.0
 11
4.863224999999999
 21
13.10502399999999
 31
0.0
  0
LINE
  5
DB4
330
A76
100
AcDbEntity
  8
DIM
 62
     0
370
    -2
100
AcDbLine
 10
4.863224999999999
 20
12.01002399999999
 30
0.0
 11
4.863224999999999
 21
12.49502399999999
 31
0.0
  0
SOLID
  5
DB5
330
A76
100
AcDbEntity
  8
DIM
 62
     0
100
AcDbTrace
 10
4.803225
 20
13.59002399999999
 30
0.0
 11
4.923224999999999
 21
13.59002399999999
 31
0.0
 12
4.863224999999999
 22
13.95002399999999
 32
0.0
 13
4.863224999999999
 23
13.95002399999999
 33
0.0
  0
SOLID
  5
DB6
330
A76
100
AcDbEntity
  8
DIM
 62
     0
100
AcDbTrace
 10
4.803225
 20
12.01002399999999
 30
0.0
 11
4.923224999999999
 21
12.01002399999999
 31
0.0
 12
4.863224999999999
 22
11.65002399999999
 32
0.0
 13
4.863224999999999
 23
11.65002399999999
 33
0.0
  0
MTEXT
  5
DB7
330
A76
100
AcDbEntity
  8
DIM
 62
     0
100
AcDbMText
 10
4.863224999999998
 20
12.800024
 30
0.0
 40
0.25
 41
0.0
 71
     5
 72
     1
  1
\A1;2.300
  7
TXT
 73
     1
 44
1.0
  0
POINT
  5
DB8
330
A76
100
AcDbEntity
  8
DEFPOINTS
 62
     0
100
AcDbPoint
 10
3.47133
 20
13.950024
 30
0.0
  0
POINT
  5
DB9
330
A76
100
AcDbEntity
  8
DEFPOINTS
 62
     0
100
AcDbPoint
 10
3.47133
 20
11.650024
 30
0.0
  0
POINT
  5
DBA
330
A76
100
AcDbEntity
  8
DEFPOINTS
 62
     0
100
AcDbPoint
 10
4.863224999999999
 20
11.65002399999999
 30
0.0
  0
ENDBLK
  5
A82
330
A76
100
AcDbEntity
  8
0
100
AcDbBlockEnd
  0
BLOCK
  5
A8F
330
A84
100
AcDbEntity
  8
0
100
AcDbBlockBegin
  2
*D61
 70
     1
 10
0.0
 20
0.0
 30
0.0
  3
*D61
  1

  0
LINE
  5
DBB
330
A84
100
AcDbEntity
  8
DIM
 62
     0
370
    -2
100
AcDbLine
 10
3.59733
 20
5.824023999999999
 30
0.0
 11
5.049224999999998
 21
5.824023999999999
 31
0.0
  0
LINE
  5
DBC
330
A84
100
AcDbEntity
  8
DIM
 62
     0
370
    -2
100
AcDbLine
 10
3.59733
 20
8.124024
 30
0.0
 11
5.049224999999999
 21
8.124023999999998
 31
0.0
  0
LINE
  5
DBD
330
A84
100
AcDbEntity
  8
DIM
 62
     0
370
    -2
100
AcDbLine
 10
4.863224999999999
 20
6.184023999999999
 30
0.0
 11
4.863224999999999
 21
6.669023999999999
 31
0.0
  0
LINE
  5
DBE
330
A84
100
AcDbEntity
  8
DIM
 62
     0
370
    -2
100
AcDbLine
 10
4.863224999999999
 20
7.764023999999999
 30
0.0
 11
4.863224999999999
 21
7.279023999999998
 31
0.0
  0
SOLID
  5
DBF
330
A84
100
AcDbEntity
  8
DIM
 62
     0
100
AcDbTrace
 10
4.803225
 20
6.184023999999999
 30
0.0
 11
4.923224999999999
 21
6.184023999999999
 31
0.0
 12
4.863224999999999
 22
5.824023999999999
 32
0.0
 13
4.863224999999999
 23
5.824023999999999
 33
0.0
  0
SOLID
  5
DC0
330
A84
100
AcDbEntity
  8
DIM
 62
     0
100
AcDbTrace
 10
4.803225
 20
7.764023999999999
 30
0.0
 11
4.923224999999999
 21
7.764023999999999
 31
0.0
 12
4.863224999999999
 22
8.124023999999998
 32
0.0
 13
4.863224999999999
 23
8.124023999999998
 33
0.0
  0
MTEXT
  5
DC1
330
A84
100
AcDbEntity
  8
DIM
 62
     0
100
AcDbMText
 10
4.863224999999998
 20
6.974024
 30
0.0
 40
0.25
 41
0.0
 71
     5
 72
     1
  1
\A1;2.300
  7
TXT
 73
     1
 44
1.0
  0
POINT
  5
DC2
330
A84
100
AcDbEntity
  8
DEFPOINTS
 62
     0
100
AcDbPoint
 10
3.47133
 20
5.824023999999999
 30
0.0
  0
POINT
  5
DC3
330
A84
100
AcDbEntity
  8
DEFPOINTS
 62
     0
100
AcDbPoint
 10
3.47133
 20
8.124024
 30
0.0
  0
POINT
  5
DC4
330
A84
100
AcDbEntity
  8
DEFPOINTS
 62
     0
100
AcDbPoint
 10
4.863224999999999
 20
8.124023999999998
 30
0.0
  0
ENDBLK
  5
A90
330
A84
100
AcDbEntity
  8
0
100
AcDbBlockEnd
  0
BLOCK
  5
A9D
330
A92
100
AcDbEntity
  8
0
100
AcDbBlockBegin
  2
*D62
 70
     1
 10
0.0
 20
0.0
 30
0.0
  3
*D62
  1

  0
LINE
  5
E32
330
A92
100
AcDbEntity
  8
DIM
 62
     0
370
    -2
100
AcDbLine
 10
3.40633
 20
7.620502956962933
 30
0.0
 11
3.40633
 21
7.432238956962933
 31
0.0
  0
LINE
  5
E33
330
A92
100
AcDbEntity
  8
DIM
 62
     0
370
    -2
100
AcDbLine
 10
9.436329999999999
 20
7.620502956962933
 30
0.0
 11
9.436329999999999
 21
7.432238956962933
 31
0.0
  0
LINE
  5
E34
330
A92
100
AcDbEntity
  8
DIM
 62
     0
370
    -2
100
AcDbLine
 10
3.766329999999999
 20
7.618238956962933
 30
0.0
 11
5.669476
 21
7.618238956962933
 31
0.0
  0
LINE
  5
E35
330
A92
100
AcDbEntity
  8
DIM
 62
     0
370
    -2
100
AcDbLine
 10
9.07633
 20
7.618238956962933
 30
0.0
 11
6.716975999999999
 21
7.618238956962933
 31
0.0
  0
SOLID
  5
E36
330
A92
100
AcDbEntity
  8
DIM
 62
     0
100
AcDbTrace
 10
3.766329999999999
 20
7.678238956962933
 30
0.0
 11
3.766329999999999
 21
7.558238956962934
 31
0.0
 12
3.40633
 22
7.618238956962933
 32
0.0
 13
3.40633
 23
7.618238956962933
 33
0.0
  0
SOLID
  5
E37
330
A92
100
AcDbEntity
  8
DIM
 62
     0
100
AcDbTrace
 10
9.07633
 20
7.678238956962933
 30
0.0
 11
9.07633
 21
7.558238956962934
 31
0.0
 12
9.436329999999999
 22
7.618238956962933
 32
0.0
 13
9.436329999999999
 23
7.618238956962933
 33
0.0
  0
MTEXT
  5
E38
330
A92
100
AcDbEntity
  8
DIM
 62
     0
100
AcDbMText
 10
6.193226
 20
7.618238956962933
 30
0.0
 40
0.25
 41
0.0
 71
     5
 72
     1
  1
\A1;6.030
  7
TXT
 73
     1
 44
1.0
  0
POINT
  5
E39
330
A92
100
AcDbEntity
  8
DEFPOINTS
 62
     0
100
AcDbPoint
 10
3.40633
 20
7.746502956962933
 30
0.0
  0
POINT
  5
E3A
330
A92
100
AcDbEntity
  8
DEFPOINTS
 62
     0
100
AcDbPoint
 10
9.436329999999999
 20
7.746502956962933
 30
0.0
  0
POINT
  5
E3B
330
A92
100
AcDbEntity
  8
DEFPOINTS
 62
     0
100
AcDbPoint
 10
9.436329999999999
 20
7.618238956962933
 30
0.0
  0
ENDBLK
  5
A9E
330
A92
100
AcDbEntity
  8
0
100
AcDbBlockEnd
  0
BLOCK
  5
AAB
330
AA0
100
AcDbEntity
  8
0
100
AcDbBlockBegin
  2
*D63
 70
     1
 10
0.0
 20
0.0
 30
0.0
  3
*D63
  1

  0
LINE
  5
CDE
330
AA0
100
AcDbEntity
  8
DIM
 62
     0
370
    -2
100
AcDbLine
 10
3.28033
 20
13.809024
 30
0.0
 11
2.026156
 21
13.809024
 31
0.0
  0
LINE
  5
CDF
330
AA0
100
AcDbEntity
  8
DIM
 62
     0
370
    -2
100
AcDbLine
 10
3.28033
 20
13.73002399999999
 30
0.0
 11
2.026156
 21
13.73002399999999
 31
0.0
  0
LINE
  5
CE0
330
AA0
100
AcDbEntity
  8
DIM
 62
     0
370
    -2
100
AcDbLine
 10
2.212156
 20
14.16902399999999
 30
0.0
 11
2.212156
 21
14.529024
 31
0.0
  0
LINE
  5
CE1
330
AA0
100
AcDbEntity
  8
DIM
 62
     0
370
    -2
100
AcDbLine
 10
2.212156
 20
13.370024
 30
0.0
 11
2.212156
 21
13.01002399999999
 31
0.0
  0
LINE
  5
CE2
330
AA0
100
AcDbEntity
  8
DIM
 62
     0
370
    -2
100
AcDbLine
 10
2.212156
 20
13.01002399999999
 30
0.0
 11
1.852156
 21
13.01002399999999
 31
0.0
  0
SOLID
  5
CE3
330
AA0
100
AcDbEntity
  8
DIM
 62
     0
100
AcDbTrace
 10
2.152156
 20
14.16902399999999
 30
0.0
 11
2.272156
 21
14.16902399999999
 31
0.0
 12
2.212156
 22
13.809024
 32
0.0
 13
2.212156
 23
13.809024
 33
0.0
  0
SOLID
  5
CE4
330
AA0
100
AcDbEntity
  8
DIM
 62
     0
100
AcDbTrace
 10
2.152156
 20
13.370024
 30
0.0
 11
2.272156
 21
13.370024
 31
0.0
 12
2.212156
 22
13.73002399999999
 32
0.0
 13
2.212156
 23
13.73002399999999
 33
0.0
  0
MTEXT
  5
CE5
330
AA0
100
AcDbEntity
  8
DIM
 62
     0
100
AcDbMText
 10
1.328405999999997
 20
13.01002399999999
 30
0.0
 40
0.25
 41
0.0
 71
     5
 72
     1
  1
\A1;0.079
  7
TXT
 73
     1
 44
1.0
  0
POINT
  5
CE6
330
AA0
100
AcDbEntity
  8
DEFPOINTS
 62
     0
100
AcDbPoint
 10
3.40633
 20
13.809024
 30
0.0
  0
POINT
  5
CE7
330
AA0
100
AcDbEntity
  8
DEFPOINTS
 62
     0
100
AcDbPoint
 10
3.40633
 20
13.73002399999999
 30
0.0
  0
POINT
  5
CE8
330
AA0
100
AcDbEntity
  8
DEFPOINTS
 62
     0
100
AcDbPoint
 10
2.212156
 20
13.73002399999999
 30
0.0
  0
ENDBLK
  5
AAC
330
AA0
100
AcDbEntity
  8
0
100
AcDbBlockEnd
  0
BLOCK
  5
E48
330
E3D
100
AcDbEntity
  8
0
100
AcDbBlockBegin
  2
*D64
 70
     1
 10
0.0
 20
0.0
 30
0.0
  3
*D64
  1

  0
LINE
  5
E62
330
E3D
100
AcDbEntity
  8
OBJECT
 62
     0
370
    -2
100
AcDbLine
 10
3.59833
 20
10.270524
 30
0.0
 11
3.59833
 21
10.89162463265897
 31
0.0
  0
LINE
  5
E63
330
E3D
100
AcDbEntity
  8
OBJECT
 62
     0
370
    -2
100
AcDbLine
 10
9.244329999999999
 20
10.270524
 30
0.0
 11
9.244329999999999
 21
10.89162463265897
 31
0.0
  0
LINE
  5
E64
330
E3D
100
AcDbEntity
  8
OBJECT
 62
     0
370
    -2
100
AcDbLine
 10
3.95833
 20
10.70562463265897
 30
0.0
 11
5.610679189404488
 21
10.70562463265897
 31
0.0
  0
LINE
  5
E65
330
E3D
100
AcDbEntity
  8
OBJECT
 62
     0
370
    -2
100
AcDbLine
 10
8.88433
 20
10.70562463265897
 30
0.0
 11
6.720679189404488
 21
10.70562463265897
 31
0.0
  0
SOLID
  5
E66
330
E3D
100
AcDbEntity
  8
OBJECT
 62
     0
100
AcDbTrace
 10
3.95833
 20
10.76562463265897
 30
0.0
 11
3.95833
 21
10.64562463265897
 31
0.0
 12
3.59833
 22
10.70562463265897
 32
0.0
 13
3.59833
 23
10.70562463265897
 33
0.0
  0
SOLID
  5
E67
330
E3D
100
AcDbEntity
  8
OBJECT
 62
     0
100
AcDbTrace
 10
8.88433
 20
10.76562463265897
 30
0.0
 11
8.88433
 21
10.64562463265897
 31
0.0
 12
9.244329999999999
 22
10.70562463265897
 32
0.0
 13
9.244329999999999
 23
10.70562463265897
 33
0.0
  0
MTEXT
  5
E68
330
E3D
100
AcDbEntity
  8
OBJECT
 62
     0
100
AcDbMText
 10
6.165679189404488
 20
10.70562463265897
 30
0.0
 40
0.25
 41
0.0
 71
     5
 72
     1
  1
\A1;5.646
  7
TXT
 73
     1
 44
1.0
  0
POINT
  5
E69
330
E3D
100
AcDbEntity
  8
DEFPOINTS
 62
     0
100
AcDbPoint
 10
3.59833
 20
10.144524
 30
0.0
  0
POINT
  5
E6A
330
E3D
100
AcDbEntity
  8
DEFPOINTS
 62
     0
100
AcDbPoint
 10
9.244329999999999
 20
10.144524
 30
0.0
  0
POINT
  5
E6B
330
E3D
100
AcDbEntity
  8
DEFPOINTS
 62
     0
100
AcDbPoint
 10
9.244329999999999
 20
10.70562463265897
 30
0.0
  0
ENDBLK
  5
E49
330
E3D
100
AcDbEntity
  8
0
100
AcDbBlockEnd
  0
BLOCK
  5
E56
330
E4B
100
AcDbEntity
  8
0
100
AcDbBlockBegin
  2
*D65
 70
     1
 10
0.0
 20
0.0
 30
0.0
  3
*D65
  1

  0
LINE
  5
E58
330
E4B
100
AcDbEntity
  8
OBJECT
 62
     0
370
    -2
100
AcDbLine
 10
3.47133
 20
8.391023999999999
 30
0.0
 11
3.47133
 21
9.017223156958053
 31
0.0
  0
LINE
  5
E59
330
E4B
100
AcDbEntity
  8
OBJECT
 62
     0
370
    -2
100
AcDbLine
 10
9.37133
 20
8.391023999999999
 30
0.0
 11
9.37133
 21
9.017223156958053
 31
0.0
  0
LINE
  5
E5A
330
E4B
100
AcDbEntity
  8
OBJECT
 62
     0
370
    -2
100
AcDbLine
 10
3.83133
 20
8.831223156958053
 30
0.0
 11
5.641929189404489
 21
8.831223156958053
 31
0.0
  0
LINE
  5
E5B
330
E4B
100
AcDbEntity
  8
OBJECT
 62
     0
370
    -2
100
AcDbLine
 10
9.01133
 20
8.831223156958053
 30
0.0
 11
6.689429189404489
 21
8.831223156958053
 31
0.0
  0
SOLID
  5
E5C
330
E4B
100
AcDbEntity
  8
OBJECT
 62
     0
100
AcDbTrace
 10
3.83133
 20
8.891223156958053
 30
0.0
 11
3.83133
 21
8.771223156958052
 31
0.0
 12
3.47133
 22
8.831223156958053
 32
0.0
 13
3.47133
 23
8.831223156958053
 33
0.0
  0
SOLID
  5
E5D
330
E4B
100
AcDbEntity
  8
OBJECT
 62
     0
100
AcDbTrace
 10
9.01133
 20
8.891223156958053
 30
0.0
 11
9.01133
 21
8.771223156958052
 31
0.0
 12
9.37133
 22
8.831223156958053
 32
0.0
 13
9.37133
 23
8.831223156958053
 33
0.0
  0
MTEXT
  5
E5E
330
E4B
100
AcDbEntity
  8
OBJECT
 62
     0
100
AcDbMText
 10
6.165679189404489
 20
8.831223156958053
 30
0.0
 40
0.25
 41
0.0
 71
     5
 72
     1
  1
\A1;5.900
  7
TXT
 73
     1
 44
1.0
  0
POINT
  5
E5F
330
E4B
100
AcDbEntity
  8
DEFPOINTS
 62
     0
100
AcDbPoint
 10
3.47133
 20
8.265024
 30
0.0
  0
POINT
  5
E60
330
E4B
100
AcDbEntity
  8
DEFPOINTS
 62
     0
100
AcDbPoint
 10
9.37133
 20
8.265024
 30
0.0
  0
POINT
  5
E61
330
E4B
100
AcDbEntity
  8
DEFPOINTS
 62
     0
100
AcDbPoint
 10
9.37133
 20
8.831223156958053
 30
0.0
  0
ENDBLK
  5
E57
330
E4B
100
AcDbEntity
  8
0
100
AcDbBlockEnd
  0
BLOCK
  5
EAB
330
EA0
100
AcDbEntity
  8
0
100
AcDbBlockBegin
  2
*D66
 70
     1
 10
0.0
 20
0.0
 30
0.0
  3
*D66
  1

  0
LINE
  5
F16
330
EA0
100
AcDbEntity
  8
OBJECT
 62
     0
370
    -2
100
AcDbLine
 10
8.242005999999999
 20
25.81365
 30
0.0
 11
8.242005999999999
 21
26.11689653302731
 31
0.0
  0
LINE
  5
F17
330
EA0
100
AcDbEntity
  8
OBJECT
 62
     0
370
    -2
100
AcDbLine
 10
8.434006
 20
25.93965
 30
0.0
 11
8.434006
 21
26.11689653302731
 31
0.0
  0
LINE
  5
F18
330
EA0
100
AcDbEntity
  8
OBJECT
 62
     0
370
    -2
100
AcDbLine
 10
7.882005999999999
 20
25.93089653302731
 30
0.0
 11
7.522006
 21
25.93089653302731
 31
0.0
  0
LINE
  5
F19
330
EA0
100
AcDbEntity
  8
OBJECT
 62
     0
370
    -2
100
AcDbLine
 10
8.794005999999999
 20
25.93089653302731
 30
0.0
 11
9.154006
 21
25.93089653302731
 31
0.0
  0
SOLID
  5
F1A
330
EA0
100
AcDbEntity
  8
OBJECT
 62
     0
100
AcDbTrace
 10
7.882005999999999
 20
25.99089653302731
 30
0.0
 11
7.882005999999999
 21
25.87089653302731
 31
0.0
 12
8.242005999999999
 22
25.93089653302731
 32
0.0
 13
8.242005999999999
 23
25.93089653302731
 33
0.0
  0
SOLID
  5
F1B
330
EA0
100
AcDbEntity
  8
OBJECT
 62
     0
100
AcDbTrace
 10
8.794005999999999
 20
25.99089653302731
 30
0.0
 11
8.794005999999999
 21
25.87089653302731
 31
0.0
 12
8.434006
 22
25.93089653302731
 32
0.0
 13
8.434006
 23
25.93089653302731
 33
0.0
  0
MTEXT
  5
F1C
330
EA0
100
AcDbEntity
  8
OBJECT
 62
     0
100
AcDbMText
 10
9.662131
 20
25.93089653302731
 30
0.0
 40
0.25
 41
0.0
 71
     5
 72
     1
  1
\A1;0.192
  7
TXT
 73
     1
 44
1.0
  0
POINT
  5
F1D
330
EA0
100
AcDbEntity
  8
DEFPOINTS
 62
     0
100
AcDbPoint
 10
8.242005999999999
 20
25.68765
 30
0.0
  0
POINT
  5
F1E
330
EA0
100
AcDbEntity
  8
DEFPOINTS
 62
     0
100
AcDbPoint
 10
8.434006
 20
25.81365
 30
0.0
  0
POINT
  5
F1F
330
EA0
100
AcDbEntity
  8
DEFPOINTS
 62
     0
100
AcDbPoint
 10
8.434006
 20
25.93089653302731
 30
0.0
  0
ENDBLK
  5
EAC
330
EA0
100
AcDbEntity
  8
0
100
AcDbBlockEnd
  0
BLOCK
  5
F14
330
F09
100
AcDbEntity
  8
0
100
AcDbBlockBegin
  2
*D67
 70
     1
 10
0.0
 20
0.0
 30
0.0
  3
*D67
  1

  0
LINE
  5
F2A
330
F09
100
AcDbEntity
  8
OBJECT
 62
     0
370
    -2
100
AcDbLine
 10
3.716005999999999
 20
23.66265
 30
0.0
 11
3.716005999999999
 21
24.34605552632629
 31
0.0
  0
LINE
  5
F2B
330
F09
100
AcDbEntity
  8
OBJECT
 62
     0
370
    -2
100
AcDbLine
 10
8.372005999999998
 20
23.66265
 30
0.0
 11
8.372005999999998
 21
24.34605552632629
 31
0.0
  0
LINE
  5
F2C
330
F09
100
AcDbEntity
  8
OBJECT
 62
     0
370
    -2
100
AcDbLine
 10
4.076005999999999
 20
24.16005552632629
 30
0.0
 11
5.050499161291678
 21
24.16005552632629
 31
0.0
  0
LINE
  5
F2D
330
F09
100
AcDbEntity
  8
OBJECT
 62
     0
370
    -2
100
AcDbLine
 10
8.012005999999999
 20
24.16005552632629
 30
0.0
 11
6.160499161291678
 21
24.16005552632629
 31
0.0
  0
SOLID
  5
F2E
330
F09
100
AcDbEntity
  8
OBJECT
 62
     0
100
AcDbTrace
 10
4.076005999999999
 20
24.22005552632629
 30
0.0
 11
4.076005999999999
 21
24.10005552632629
 31
0.0
 12
3.716005999999999
 22
24.16005552632629
 32
0.0
 13
3.716005999999999
 23
24.16005552632629
 33
0.0
  0
SOLID
  5
F2F
330
F09
100
AcDbEntity
  8
OBJECT
 62
     0
100
AcDbTrace
 10
8.012005999999999
 20
24.22005552632629
 30
0.0
 11
8.012005999999999
 21
24.10005552632629
 31
0.0
 12
8.372005999999998
 22
24.16005552632629
 32
0.0
 13
8.372005999999998
 23
24.16005552632629
 33
0.0
  0
MTEXT
  5
F30
330
F09
100
AcDbEntity
  8
OBJECT
 62
     0
100
AcDbMText
 10
5.605499161291678
 20
24.16005552632629
 30
0.0
 40
0.25
 41
0.0
 71
     5
 72
     1
  1
\A1;4.656
  7
TXT
 73
     1
 44
1.0
  0
POINT
  5
F31
330
F09
100
AcDbEntity
  8
DEFPOINTS
 62
     0
100
AcDbPoint
 10
3.716005999999999
 20
23.53665
 30
0.0
  0
POINT
  5
F32
330
F09
100
AcDbEntity
  8
DEFPOINTS
 62
     0
100
AcDbPoint
 10
8.372005999999998
 20
23.53665
 30
0.0
  0
POINT
  5
F33
330
F09
100
AcDbEntity
  8
DEFPOINTS
 62
     0
100
AcDbPoint
 10
8.372005999999998
 20
24.16005552632629
 30
0.0
  0
ENDBLK
  5
F15
330
F09
100
AcDbEntity
  8
0
100
AcDbBlockEnd
  0
ENDSEC
  0
SECTION
  2
ENTITIES
  0
LINE
  5
44C
330
1E
100
AcDbEntity
  8
OBJECT
100
AcDbLine
 10
9.553147
 20
2.677735999999999
 30
0.0
 11
3.290166999999999
 21
2.677735999999999
 31
0.0
  0
LINE
  5
44D
330
1E
100
AcDbEntity
  8
OBJECT
100
AcDbLine
 10
9.58633
 20
5.077023999999999
 30
0.0
 11
9.496244
 21
5.077023999999999
 31
0.0
  0
LINE
  5
44E
330
1E
100
AcDbEntity
  8
OBJECT
100
AcDbLine
 10
9.58633
 20
5.077023999999999
 30
0.0
 11
9.58633
 21
14.697024
 31
0.0
  0
LINE
  5
44F
330
1E
100
AcDbEntity
  8
OBJECT
100
AcDbLine
 10
3.256329999999999
 20
14.697024
 30
0.0
 11
3.256329999999999
 21
5.077023999999999
 31
0.0
  0
LINE
  5
450
330
1E
100
AcDbEntity
  8
OBJECT
100
AcDbLine
 10
3.256984
 20
1.917736
 30
0.0
 11
3.290166999999999
 21
2.677735999999999
 31
0.0
  0
LINE
  5
451
330
1E
100
AcDbEntity
  8
OBJECT
100
AcDbLine
 10
9.466991
 20
2.587736
 30
0.0
 11
7.646732
 21
2.587736
 31
0.0
  0
CIRCLE
  5
452
330
1E
100
AcDbEntity
  8
OBJECT
100
AcDbCircle
 10
3.67133
 20
7.137024
 30
0.0
 40
0.14
  0
CIRCLE
  5
453
330
1E
100
AcDbEntity
  8
OBJECT
100
AcDbCircle
 10
3.67133
 20
7.137024
 30
0.0
 40
0.0625
  0
CIRCLE
  5
454
330
1E
100
AcDbEntity
  8
OBJECT
100
AcDbCircle
 10
4.218329999999999
 20
6.637024
 30
0.0
 40
0.1405
  0
CIRCLE
  5
455
330
1E
100
AcDbEntity
  8
OBJECT
100
AcDbCircle
 10
4.218329999999999
 20
6.637024
 30
0.0
 40
0.0455
  0
CIRCLE
  5
456
330
1E
100
AcDbEntity
  8
OBJECT
100
AcDbCircle
 10
4.218329999999999
 20
13.13702399999999
 30
0.0
 40
0.0455
  0
CIRCLE
  5
457
330
1E
100
AcDbEntity
  8
OBJECT
100
AcDbCircle
 10
4.218329999999999
 20
13.13702399999999
 30
0.0
 40
0.1405
  0
CIRCLE
  5
458
330
1E
100
AcDbEntity
  8
HIDDEN
100
AcDbCircle
 10
8.62433
 20
13.13702399999999
 30
0.0
 40
0.1405
  0
CIRCLE
  5
459
330
1E
100
AcDbEntity
  8
HIDDEN
100
AcDbCircle
 10
8.62433
 20
13.13702399999999
 30
0.0
 40
0.0455
  0
CIRCLE
  5
45A
330
1E
100
AcDbEntity
  8
HIDDEN
100
AcDbCircle
 10
8.62433
 20
6.637024
 30
0.0
 40
0.0455
  0
CIRCLE
  5
45B
330
1E
100
AcDbEntity
  8
HIDDEN
100
AcDbCircle
 10
8.62433
 20
6.637024
 30
0.0
 40
0.1405
  0
LINE
  5
45C
330
1E
100
AcDbEntity
  8
HIDDEN
100
AcDbLine
 10
9.244329999999999
 20
9.985523999999999
 30
0.0
 11
9.30633
 21
9.985523999999999
 31
0.0
  0
LINE
  5
45D
330
1E
100
AcDbEntity
  8
HIDDEN
100
AcDbLine
 10
9.244329999999999
 20
9.788524
 30
0.0
 11
9.30633
 21
9.788524
 31
0.0
  0
LINE
  5
45E
330
1E
100
AcDbEntity
  8
HIDDEN
100
AcDbLine
 10
9.30633
 20
9.691524000000001
 30
0.0
 11
9.436329999999999
 21
9.691524000000001
 31
0.0
  0
LINE
  5
45F
330
1E
100
AcDbEntity
  8
HIDDEN
100
AcDbLine
 10
9.30633
 20
10.082524
 30
0.0
 11
9.436329999999999
 21
10.082524
 31
0.0
  0
LINE
  5
460
330
1E
100
AcDbEntity
  8
HIDDEN
100
AcDbLine
 10
9.244329999999999
 20
10.144524
 30
0.0
 11
9.244329999999999
 21
9.629523999999999
 31
0.0
  0
LINE
  5
461
330
1E
100
AcDbEntity
  8
HIDDEN
100
AcDbLine
 10
9.30633
 20
10.082524
 30
0.0
 11
9.30633
 21
9.691524000000001
 31
0.0
  0
LINE
  5
462
330
1E
100
AcDbEntity
  8
HIDDEN
100
AcDbLine
 10
9.244329999999999
 20
10.144524
 30
0.0
 11
9.436329999999999
 21
10.144524
 31
0.0
  0
LINE
  5
463
330
1E
100
AcDbEntity
  8
HIDDEN
100
AcDbLine
 10
9.244329999999999
 20
9.629523999999999
 30
0.0
 11
9.436329999999999
 21
9.629523999999999
 31
0.0
  0
CIRCLE
  5
464
330
1E
100
AcDbEntity
  8
HIDDEN
100
AcDbCircle
 10
9.171330000000001
 20
7.137024
 30
0.0
 40
0.055
  0
CIRCLE
  5
465
330
1E
100
AcDbEntity
  8
HIDDEN
100
AcDbCircle
 10
9.171330000000001
 20
7.137024
 30
0.0
 40
0.14
  0
LINE
  5
466
330
1E
100
AcDbEntity
  8
OBJECT
100
AcDbLine
 10
3.468766
 20
2.552735999999999
 30
0.0
 11
3.468766
 21
1.917736
 31
0.0
  0
LINE
  5
467
330
1E
100
AcDbEntity
  8
OBJECT
100
AcDbLine
 10
9.373892999999998
 20
2.537736
 30
0.0
 11
7.637732999999999
 21
2.537736
 31
0.0
  0
LINE
  5
468
330
1E
100
AcDbEntity
  8
OBJECT
100
AcDbLine
 10
4.35883
 20
2.402735999999999
 30
0.0
 11
4.07783
 21
2.402735999999999
 31
0.0
  0
LINE
  5
469
330
1E
100
AcDbEntity
  8
OBJECT
100
AcDbLine
 10
4.07783
 20
2.552735999999999
 30
0.0
 11
4.07783
 21
2.402735999999999
 31
0.0
  0
LINE
  5
46A
330
1E
100
AcDbEntity
  8
OBJECT
100
AcDbLine
 10
4.35883
 20
2.552735999999999
 30
0.0
 11
4.35883
 21
2.402735999999999
 31
0.0
  0
LINE
  5
46B
330
1E
100
AcDbEntity
  8
OBJECT
100
AcDbLine
 10
3.81133
 20
2.552735999999999
 30
0.0
 11
3.81133
 21
1.902735999999999
 31
0.0
  0
LINE
  5
46C
330
1E
100
AcDbEntity
  8
OBJECT
100
AcDbLine
 10
9.373892999999998
 20
2.537736
 30
0.0
 11
9.373892999999998
 21
1.917736
 31
0.0
  0
LINE
  5
46D
330
1E
100
AcDbEntity
  8
OBJECT
100
AcDbLine
 10
9.58633
 20
1.917736
 30
0.0
 11
9.553147
 21
2.677735999999999
 31
0.0
  0
LINE
  5
46E
330
1E
100
AcDbEntity
  8
OBJECT
100
AcDbLine
 10
11.629863
 20
5.110205999999999
 30
0.0
 11
11.629863
 21
14.663842
 31
0.0
  0
LINE
  5
46F
330
1E
100
AcDbEntity
  8
OBJECT
100
AcDbLine
 10
12.389863
 20
5.077023999999999
 30
0.0
 11
11.629863
 21
5.110205999999999
 31
0.0
  0
LINE
  5
470
330
1E
100
AcDbEntity
  8
OBJECT
100
AcDbLine
 10
11.904863
 20
6.496523999999999
 30
0.0
 11
11.904863
 21
6.777524
 31
0.0
  0
LINE
  5
471
330
1E
100
AcDbEntity
  8
OBJECT
100
AcDbLine
 10
11.75486299999999
 20
6.777524
 30
0.0
 11
11.904863
 21
6.777524
 31
0.0
  0
LINE
  5
472
330
1E
100
AcDbEntity
  8
OBJECT
100
AcDbLine
 10
11.75486299999999
 20
7.277024
 30
0.0
 11
12.404863
 21
7.277024
 31
0.0
  0
LINE
  5
473
330
1E
100
AcDbEntity
  8
OBJECT
100
AcDbLine
 10
11.75486299999999
 20
6.997024
 30
0.0
 11
12.404863
 21
6.997024
 31
0.0
  0
LINE
  5
474
330
1E
100
AcDbEntity
  8
OBJECT
100
AcDbLine
 10
11.75486299999999
 20
9.629523999999999
 30
0.0
 11
12.298863
 21
9.629523999999999
 31
0.0
  0
LINE
  5
475
330
1E
100
AcDbEntity
  8
OBJECT
100
AcDbLine
 10
11.75486299999999
 20
10.144524
 30
0.0
 11
12.298863
 21
10.144524
 31
0.0
  0
LINE
  5
476
330
1E
100
AcDbEntity
  8
OBJECT
100
AcDbLine
 10
11.73986299999999
 20
5.270459999999999
 30
0.0
 11
11.73986299999999
 21
5.370023999999999
 31
0.0
  0
LINE
  5
477
330
1E
100
AcDbEntity
  8
OBJECT
100
AcDbLine
 10
11.75486299999999
 20
5.450023999999999
 30
0.0
 11
12.389863
 21
5.450023999999999
 31
0.0
  0
LINE
  5
478
330
1E
100
AcDbEntity
  8
OBJECT
100
AcDbLine
 10
11.73986299999999
 20
5.370023999999999
 30
0.0
 11
13.069863
 21
5.370023999999999
 31
0.0
  0
LINE
  5
479
330
1E
100
AcDbEntity
  8
OBJECT
100
AcDbLine
 10
11.73986299999999
 20
5.270459999999999
 30
0.0
 11
13.069863
 21
5.270459999999999
 31
0.0
  0
LINE
  5
47A
330
1E
100
AcDbEntity
  8
OBJECT
100
AcDbLine
 10
11.801863
 20
5.370023999999999
 30
0.0
 11
11.801863
 21
5.450023999999999
 31
0.0
  0
LINE
  5
47B
330
1E
100
AcDbEntity
  8
OBJECT
100
AcDbLine
 10
11.75486299999999
 20
5.450023999999999
 30
0.0
 11
11.75486299999999
 21
10.66776
 31
0.0
  0
LINE
  5
47C
330
1E
100
AcDbEntity
  8
HIDDEN
100
AcDbLine
 10
11.75486299999999
 20
12.996524
 30
0.0
 11
11.904863
 21
12.996524
 31
0.0
  0
LINE
  5
47D
330
1E
100
AcDbEntity
  8
HIDDEN
100
AcDbLine
 10
11.904863
 20
13.277524
 30
0.0
 11
11.904863
 21
12.996524
 31
0.0
  0
LINE
  5
47E
330
1E
100
AcDbEntity
  8
OBJECT
100
AcDbLine
 10
11.904863
 20
6.496523999999999
 30
0.0
 11
11.75486299999999
 21
6.496523999999999
 31
0.0
  0
LINE
  5
47F
330
1E
100
AcDbEntity
  8
HIDDEN
100
AcDbLine
 10
11.904863
 20
13.277524
 30
0.0
 11
11.75486299999999
 21
13.277524
 31
0.0
  0
LINE
  5
480
330
1E
100
AcDbEntity
  8
HIDDEN
100
AcDbLine
 10
11.75486299999999
 20
10.66776
 30
0.0
 11
11.75486299999999
 21
14.32402399999999
 31
0.0
  0
LINE
  5
481
330
1E
100
AcDbEntity
  8
OBJECT
100
AcDbLine
 10
3.406766
 20
2.552735999999999
 30
0.0
 11
3.406766
 21
1.917736
 31
0.0
  0
LINE
  5
482
330
1E
100
AcDbEntity
  8
OBJECT
100
AcDbLine
 10
7.640367999999999
 20
2.552735999999999
 30
0.0
 11
3.406766
 21
2.552735999999999
 31
0.0
  0
LWPOLYLINE
  5
483
330
1E
100
AcDbEntity
  8
OBJECT
100
AcDbPolyline
 90
        5
 70
     0
 43
0.0
 10
7.693088
 20
1.127736
 42
0.019142
 10
7.532413
 20
1.518155999999999
 42
-0.173357
 10
7.536711999999999
 20
1.912593
 42
0.0415
 10
7.600016
 20
2.270359999999999
 42
-0.02439
 10
7.6645
 20
2.677735999999999
 42
2.439995
  0
TEXT
  5
48A
330
1E
100
AcDbEntity
  8
TEXT
100
AcDbText
 10
0.5302500000000001
 20
30.16203599999999
 30
0.0
 40
0.25
  1
NAME
 41
0.75
  7
TXT
 72
     1
 11
0.8740000000000001
 21
30.16203599999999
 31
0.0
100
AcDbText
  0
TEXT
  5
48B
330
1E
100
AcDbEntity
  8
TEXT
100
AcDbText
 10
0.5302500000000001
 20
30.497836
 30
0.0
 40
0.25
  1
PART
 41
0.75
  7
TXT
 72
     1
 11
0.8740000000000001
 21
30.497836
 31
0.0
100
AcDbText
  0
TEXT
  5
48C
330
1E
100
AcDbEntity
  8
TEXT
100
AcDbText
 10
10.8065
 20
30.16203599999999
 30
0.0
 40
0.25
  1
No.
 41
0.75
  7
TXT
 72
     1
 11
10.994
 21
30.16203599999999
 31
0.0
100
AcDbText
  0
TEXT
  5
48D
330
1E
100
AcDbEntity
  8
TEXT
100
AcDbText
 10
10.65025
 20
30.497836
 30
0.0
 40
0.25
  1
PART
 41
0.75
  7
TXT
 72
     1
 11
10.994
 21
30.497836
 31
0.0
100
AcDbText
  0
LINE
  5
48E
330
1E
100
AcDbEntity
  8
TITLE
100
AcDbLine
 10
11.744
 20
30.876
 30
0.0
 11
11.744
 21
30.04
 31
0.0
  0
LINE
  5
48F
330
1E
100
AcDbEntity
  8
TITLE
100
AcDbLine
 10
10.244
 20
30.876
 30
0.0
 11
10.244
 21
30.04
 31
0.0
  0
LINE
  5
490
330
1E
100
AcDbEntity
  8
TITLE
100
AcDbLine
 10
10.12
 20
30.876
 30
0.0
 11
10.12
 21
30.04
 31
0.0
  0
LINE
  5
491
330
1E
100
AcDbEntity
  8
TITLE
100
AcDbLine
 10
1.624
 20
30.04
 30
0.0
 11
1.624
 21
30.876
 31
0.0
  0
LINE
  5
492
330
1E
100
AcDbEntity
  8
TITLE
100
AcDbLine
 10
0.124
 20
30.04
 30
0.0
 11
20.116
 21
30.04
 31
0.0
  0
LINE
  5
493
330
1E
100
AcDbEntity
  8
TITLE
100
AcDbLine
 10
20.116
 20
0.124
 30
0.0
 11
0.124
 21
0.124
 31
0.0
  0
LINE
  5
494
330
1E
100
AcDbEntity
  8
TITLE
100
AcDbLine
 10
20.116
 20
30.876
 30
0.0
 11
20.116
 21
17.747038
 31
0.0
  0
LINE
  5
495
330
1E
100
AcDbEntity
  8
TITLE
100
AcDbLine
 10
0.124
 20
30.876
 30
0.0
 11
20.116
 21
30.876
 31
0.0
  0
LINE
  5
496
330
1E
100
AcDbEntity
  8
TITLE
100
AcDbLine
 10
0.124
 20
0.124
 30
0.0
 11
0.124
 21
17.623038
 31
0.0
  0
LINE
  5
497
330
1E
100
AcDbEntity
  8
TITLE
100
AcDbLine
 10
0.0
 20
0.0
 30
0.0
 11
0.0
 21
31.0
 31
0.0
  0
LINE
  5
498
330
1E
100
AcDbEntity
  8
TITLE
100
AcDbLine
 10
20.24
 20
0.0
 30
0.0
 11
0.0
 21
0.0
 31
0.0
  0
LINE
  5
499
330
1E
100
AcDbEntity
  8
TITLE
100
AcDbLine
 10
20.24
 20
31.0
 30
0.0
 11
20.24
 21
0.0
 31
0.0
  0
LINE
  5
49A
330
1E
100
AcDbEntity
  8
TITLE
100
AcDbLine
 10
0.0
 20
31.0
 30
0.0
 11
20.24
 21
31.0
 31
0.0
  0
LINE
  5
49B
330
1E
100
AcDbEntity
  8
TITLE
100
AcDbLine
 10
0.124
 20
17.747038
 30
0.0
 11
20.116
 21
17.747038
 31
0.0
  0
LINE
  5
49C
330
1E
100
AcDbEntity
  8
TITLE
100
AcDbLine
 10
0.124
 20
17.623038
 30
0.0
 11
20.116
 21
17.623038
 31
0.0
  0
LINE
  5
49D
330
1E
100
AcDbEntity
  8
TITLE
100
AcDbLine
 10
0.124
 20
16.787038
 30
0.0
 11
20.116
 21
16.787038
 31
0.0
  0
LINE
  5
49E
330
1E
100
AcDbEntity
  8
TITLE
100
AcDbLine
 10
1.624
 20
16.787038
 30
0.0
 11
1.624
 21
17.623038
 31
0.0
  0
LINE
  5
49F
330
1E
100
AcDbEntity
  8
TITLE
100
AcDbLine
 10
10.12
 20
17.623038
 30
0.0
 11
10.12
 21
16.787038
 31
0.0
  0
LINE
  5
4A0
330
1E
100
AcDbEntity
  8
TITLE
100
AcDbLine
 10
10.244
 20
17.623038
 30
0.0
 11
10.244
 21
16.787038
 31
0.0
  0
LINE
  5
4A1
330
1E
100
AcDbEntity
  8
TITLE
100
AcDbLine
 10
11.744
 20
17.623038
 30
0.0
 11
11.744
 21
16.787038
 31
0.0
  0
TEXT
  5
4A2
330
1E
100
AcDbEntity
  8
TEXT
100
AcDbText
 10
10.65025
 20
17.25729
 30
0.0
 40
0.25
  1
PART
 41
0.75
  7
TXT
 72
     1
 11
10.994
 21
17.25729
 31
0.0
100
AcDbText
  0
TEXT
  5
4A3
330
1E
100
AcDbEntity
  8
TEXT
100
AcDbText
 10
10.8065
 20
16.89377
 30
0.0
 40
0.25
  1
No.
 41
0.75
  7
TXT
 72
     1
 11
10.994
 21
16.89377
 31
0.0
100
AcDbText
  0
TEXT
  5
4A4
330
1E
100
AcDbEntity
  8
TEXT
100
AcDbText
 10
0.5302500000000001
 20
17.25729
 30
0.0
 40
0.25
  1
PART
 41
0.75
  7
TXT
 72
     1
 11
0.8740000000000001
 21
17.25729
 31
0.0
100
AcDbText
  0
TEXT
  5
4A5
330
1E
100
AcDbEntity
  8
TEXT
100
AcDbText
 10
0.5302500000000001
 20
16.89377
 30
0.0
 40
0.25
  1
NAME
 41
0.75
  7
TXT
 72
     1
 11
0.8740000000000001
 21
16.89377
 31
0.0
100
AcDbText
  0
LINE
  5
4A6
330
1E
100
AcDbEntity
  8
TITLE
100
AcDbLine
 10
0.124
 20
17.747038
 30
0.0
 11
0.124
 21
30.876
 31
0.0
  0
LINE
  5
4A7
330
1E
100
AcDbEntity
  8
TITLE
100
AcDbLine
 10
20.116
 20
17.623038
 30
0.0
 11
20.116
 21
0.124
 31
0.0
  0
LINE
  5
4A8
330
1E
100
AcDbEntity
  8
BEND
100
AcDbLine
 10
16.001652
 20
18.912077
 30
0.0
 11
16.001652
 21
20.11207699999999
 31
0.0
  0
LINE
  5
4A9
330
1E
100
AcDbEntity
  8
BEND
100
AcDbLine
 10
11.351652
 20
20.11207699999999
 30
0.0
 11
16.001652
 21
20.11207699999999
 31
0.0
  0
LINE
  5
4AA
330
1E
100
AcDbEntity
  8
BEND
100
AcDbLine
 10
11.351652
 20
18.912077
 30
0.0
 11
16.001652
 21
18.912077
 31
0.0
  0
LINE
  5
4AB
330
1E
100
AcDbEntity
  8
BEND
100
AcDbLine
 10
11.351652
 20
18.912077
 30
0.0
 11
11.351652
 21
20.11207699999999
 31
0.0
  0
LINE
  5
4AC
330
1E
100
AcDbEntity
  8
OBJECT
100
AcDbLine
 10
11.301652
 20
18.91907699999999
 30
0.0
 11
11.301652
 21
20.10507699999999
 31
0.0
  0
LINE
  5
4AD
330
1E
100
AcDbEntity
  8
OBJECT
100
AcDbLine
 10
16.051652
 20
18.91907699999999
 30
0.0
 11
16.051652
 21
20.10507699999999
 31
0.0
  0
LINE
  5
4AE
330
1E
100
AcDbEntity
  8
OBJECT
100
AcDbLine
 10
11.36365199999999
 20
20.16707699999999
 30
0.0
 11
15.989652
 21
20.16707699999999
 31
0.0
  0
LINE
  5
4AF
330
1E
100
AcDbEntity
  8
OBJECT
100
AcDbLine
 10
11.36365199999999
 20
18.857077
 30
0.0
 11
15.989652
 21
18.857077
 31
0.0
  0
TEXT
  5
4B0
330
1E
100
AcDbEntity
  8
DIM
100
AcDbText
 10
16.651325
 20
19.758328
 30
0.0
 40
0.25
  1
1.200
 41
0.75
  7
TXT
100
AcDbText
  0
TEXT
  5
4B1
330
1E
100
AcDbEntity
  8
DIM
100
AcDbText
 10
16.432302
 20
19.404789
 30
0.0
 40
0.25
  1
EXPOSED
 41
0.75
  7
TXT
100
AcDbText
  0
LINE
  5
4B2
330
1E
100
AcDbEntity
  8
OBJECT
100
AcDbLine
 10
11.626887
 20
1.237735999999999
 30
0.0
 11
17.492887
 21
1.237735999999999
 31
0.0
  0
LINE
  5
4B3
330
1E
100
AcDbEntity
  8
OBJECT
100
AcDbLine
 10
11.626887
 20
2.567736
 30
0.0
 11
17.492887
 21
2.567736
 31
0.0
  0
LINE
  5
4B4
330
1E
100
AcDbEntity
  8
OBJECT
100
AcDbLine
 10
17.554887
 20
1.299736
 30
0.0
 11
17.554887
 21
2.505736
 31
0.0
  0
LINE
  5
4B5
330
1E
100
AcDbEntity
  8
OBJECT
100
AcDbLine
 10
11.56488699999999
 20
1.299736
 30
0.0
 11
11.56488699999999
 21
2.505736
 31
0.0
  0
LINE
  5
4B6
330
1E
100
AcDbEntity
  8
BEND
100
AcDbLine
 10
11.60988699999999
 20
1.292736
 30
0.0
 11
11.60988699999999
 21
2.512735999999999
 31
0.0
  0
LINE
  5
4B7
330
1E
100
AcDbEntity
  8
BEND
100
AcDbLine
 10
11.60988699999999
 20
1.292736
 30
0.0
 11
17.50988699999999
 21
1.292736
 31
0.0
  0
LINE
  5
4B8
330
1E
100
AcDbEntity
  8
BEND
100
AcDbLine
 10
11.60988699999999
 20
2.512735999999999
 30
0.0
 11
17.50988699999999
 21
2.512735999999999
 31
0.0
  0
LINE
  5
4B9
330
1E
100
AcDbEntity
  8
BEND
100
AcDbLine
 10
17.50988699999999
 20
1.292736
 30
0.0
 11
17.50988699999999
 21
2.512735999999999
 31
0.0
  0
TEXT
  5
4BA
330
1E
100
AcDbEntity
  8
DIM
100
AcDbText
 10
16.639504
 20
19.053582
 30
0.0
 40
0.25
  1
PANEL
 41
0.75
  7
TXT
100
AcDbText
  0
TEXT
  5
4BB
330
1E
100
AcDbEntity
  8
DIM
100
AcDbText
 10
18.09170499999999
 20
1.431804999999999
 30
0.0
 40
0.25
  1
PANEL
 41
0.75
  7
TXT
100
AcDbText
  0
TEXT
  5
4BC
330
1E
100
AcDbEntity
  8
DIM
100
AcDbText
 10
17.884504
 20
1.773368999999999
 30
0.0
 40
0.25
  1
EXPOSED
 41
0.75
  7
TXT
100
AcDbText
  0
TEXT
  5
4BD
330
1E
100
AcDbEntity
  8
DIM
100
AcDbText
 10
18.134939
 20
2.120495999999999
 30
0.0
 40
0.25
  1
1.190
 41
0.75
  7
TXT
100
AcDbText
  0
TEXT
  5
4BE
330
1E
100
AcDbEntity
  8
TEXT
100
AcDbText
 10
12.393134
 20
19.378288
 30
0.0
 40
0.25
  1
PANEL-
 41
0.75
  7
TXT
100
AcDbText
  0
TEXT
  5
4BF
330
1E
100
AcDbEntity
  8
TEXT
100
AcDbText
 10
13.591512
 20
19.381912
 30
0.0
 40
0.25
  1
0.062 THICK
 41
0.75
  7
TXT
100
AcDbText
  0
TEXT
  5
4C0
330
1E
100
AcDbEntity
  8
TEXT
100
AcDbText
 10
13.20110799999999
 20
1.793329999999999
 30
0.0
 40
0.25
  1
PANEL-
 41
0.75
  7
TXT
100
AcDbText
  0
TEXT
  5
4C1
330
1E
100
AcDbEntity
  8
TEXT
100
AcDbText
 10
14.45885499999999
 20
1.796631999999999
 30
0.0
 40
0.25
  1
0.090 THICK
 41
0.75
  7
TXT
100
AcDbText
  0
TEXT
  5
4C2
330
1E
100
AcDbEntity
  8
TEXT
100
AcDbText
 10
3.571
 20
30.302
 30
0.0
 40
0.312
  1
PLASTICASE  (STYLE A)
 41
0.75
  7
TXT
 72
     1
 11
5.872
 21
30.302
 31
0.0
100
AcDbText
  0
TEXT
  5
4C3
330
1E
100
AcDbEntity
  8
TEXT
100
AcDbText
 10
15.13049999999999
 20
30.302
 30
0.0
 40
0.312
  1
PC-11402
 41
0.75
  7
TXT
 72
     1
 11
15.92999999999999
 21
30.302
 31
0.0
100
AcDbText
  0
TEXT
  5
4C4
330
1E
100
AcDbEntity
  8
TEXT
100
AcDbText
 10
3.571
 20
17.049038
 30
0.0
 40
0.312
  1
PLASTICASE  (STYLE A)
 41
0.75
  7
TXT
 72
     1
 11
5.872
 21
17.049038
 31
0.0
100
AcDbText
  0
TEXT
  5
4C5
330
1E
100
AcDbEntity
  8
TEXT
100
AcDbText
 10
15.13049999999999
 20
17.049038
 30
0.0
 40
0.312
  1
PC-11404
 41
0.75
  7
TXT
 72
     1
 11
15.92999999999999
 21
17.049038
 31
0.0
100
AcDbText
  0
TEXT
  5
4C6
330
1E
100
AcDbEntity
  8
TEXT
100
AcDbText
 10
14.220303
 20
24.188918
 30
0.0
 40
0.25
  1
STD. SHEET METAL SCREWS
 41
0.75
  7
TXT
100
AcDbText
  0
TEXT
  5
4C7
330
1E
100
AcDbEntity
  8
TEXT
100
AcDbText
 10
14.220303
 20
24.598084
 30
0.0
 40
0.25
  1
EITHER M2.5 METRIC OR #4
 41
0.75
  7
TXT
100
AcDbText
  0
TEXT
  5
4C8
330
1E
100
AcDbEntity
  8
TEXT
100
AcDbText
 10
13.93813999999999
 20
25.01308299999999
 30
0.0
 40
0.25
  1
NOTE: MOUNTING BOSSES USE
 41
0.75
  7
TXT
100
AcDbText
  0
TEXT
  5
4C9
330
1E
100
AcDbEntity
  8
TEXT
100
AcDbText
 10
14.227451
 20
25.631487
 30
0.0
 40
0.25
  1
ASSEMBLY.
 41
0.75
  7
TXT
100
AcDbText
  0
TEXT
  5
4CA
330
1E
100
AcDbEntity
  8
TEXT
100
AcDbText
 10
14.227451
 20
26.060116
 30
0.0
 40
0.25
  1
SUPPLIED WITH CASE FOR
 41
0.75
  7
TXT
100
AcDbText
  0
TEXT
  5
4CB
330
1E
100
AcDbEntity
  8
TEXT
100
AcDbText
 10
14.227451
 20
26.466322
 30
0.0
 40
0.25
  1
& FOUR (4) RUBBER FEET
 41
0.75
  7
TXT
100
AcDbText
  0
TEXT
  5
4CC
330
1E
100
AcDbEntity
  8
TEXT
100
AcDbText
 10
13.938744
 20
26.88374
 30
0.0
 40
0.25
  1
TWO (2) #4 x 1.000" LG. SCREWS
 41
0.75
  7
TXT
100
AcDbText
  0
TEXT
  5
4CD
330
1E
100
AcDbEntity
  8
TEXT
100
AcDbText
 10
14.257365
 20
27.55374299999999
 30
0.0
 40
0.25
  1
PC BONE GRAY
 41
0.75
  7
TXT
100
AcDbText
  0
TEXT
  5
4CE
330
1E
100
AcDbEntity
  8
TEXT
100
AcDbText
 10
13.938744
 20
27.979624
 30
0.0
 40
0.25
  1
FINISH: DOUBLE-TEXTURED
 41
0.75
  7
TXT
100
AcDbText
  0
TEXT
  5
4CF
330
1E
100
AcDbEntity
  8
TEXT
100
AcDbText
 10
13.938744
 20
29.089156
 30
0.0
 40
0.25
  1
MATERIAL: IMPACT RESISTANT
 41
0.75
  7
TXT
100
AcDbText
  0
DIMENSION
  5
4D0
330
1E
100
AcDbEntity
  8
DIM
100
AcDbDimension
  2
*D10
 10
11.351652
 20
18.32508299999999
 30
0.0
 11
13.676652
 21
18.32508299999999
 31
0.0
 70
    32
  1
<> EXPOSED PANEL
 71
     5
 42
4.65
  3
DIM
100
AcDbAlignedDimension
 13
16.001652
 23
18.912077
 33
0.0
 14
11.351652
 24
18.912077
 34
0.0
100
AcDbRotatedDimension
  0
DIMENSION
  5
4DE
330
1E
100
AcDbEntity
  8
DIM
100
AcDbDimension
  2
*D11
 10
11.301652
 20
20.70484299999999
 30
0.0
 11
13.676652
 21
20.70484299999999
 31
0.0
 70
    32
 71
     5
 42
4.75
  3
STD
100
AcDbAlignedDimension
 13
16.051652
 23
20.16707699999999
 33
0.0
 14
11.301652
 24
20.16707699999999
 34
0.0
100
AcDbRotatedDimension
  0
DIMENSION
  5
4EC
330
1E
100
AcDbEntity
  8
DIM
100
AcDbDimension
  2
*D12
 10
10.567311
 20
20.16707699999999
 30
0.0
 11
10.56731099999999
 21
19.512077
 31
0.0
 70
    32
 71
     5
 42
1.309999999999998
  3
DIM
100
AcDbAlignedDimension
 13
11.301652
 23
18.857077
 33
0.0
 14
11.301652
 24
20.16707699999999
 34
0.0
 50
90.0
100
AcDbRotatedDimension
  0
DIMENSION
  5
4FA
330
1E
100
AcDbEntity
  8
DIM
100
AcDbDimension
  2
*D13
 10
5.784511261127907
 20
18.87207699999999
 30
0.0
 11
5.784511261127903
 21
19.51207699999999
 31
0.0
 70
   160
 71
     5
 42
1.280000000000001
  3
DIM
100
AcDbAlignedDimension
 13
5.975958999999999
 23
20.15207699999999
 33
0.0
 14
5.975958999999999
 24
18.87207699999999
 34
0.0
 50
90.0
100
AcDbRotatedDimension
  0
DIMENSION
  5
516
330
1E
100
AcDbEntity
  8
DIM
100
AcDbDimension
  2
*D14
 10
8.254006
 20
21.53488299999999
 30
0.0
 11
6.487001
 21
21.53488299999999
 31
0.0
 70
   160
 71
     5
 42
4.42
  3
STD
100
AcDbAlignedDimension
 13
3.834005999999999
 23
24.92265
 33
0.0
 14
8.254006
 24
24.92265
 34
0.0
100
AcDbRotatedDimension
  0
DIMENSION
  5
524
330
1E
100
AcDbEntity
  8
DIM
100
AcDbDimension
  2
*D15
 10
3.504005999999999
 20
21.53488299999999
 30
0.0
 11
2.260256
 21
21.53488299999999
 31
0.0
 70
    32
 71
     5
 42
0.3299999999999996
  3
STD
100
AcDbAlignedDimension
 13
3.834005999999999
 23
24.92265
 33
0.0
 14
3.504005999999999
 24
22.54264999999999
 34
0.0
100
AcDbRotatedDimension
  0
DIMENSION
  5
532
330
1E
100
AcDbEntity
  8
DIM
100
AcDbDimension
  2
*D16
 10
10.20843604059874
 20
22.54264999999999
 30
0.0
 11
10.20843604059874
 21
25.19265
 31
0.0
 70
   160
 71
     5
 42
5.3
  3
STD
100
AcDbAlignedDimension
 13
8.584006
 23
27.84264999999999
 33
0.0
 14
8.584006
 24
22.54264999999999
 34
0.0
 50
90.0
100
AcDbRotatedDimension
  0
DIMENSION
  5
540
330
1E
100
AcDbEntity
  8
DIM
100
AcDbDimension
  2
*D17
 10
9.396115051305203
 20
22.54264999999999
 30
0.0
 11
9.3961150513052
 21
23.9864
 31
0.0
 70
    32
 71
     5
 42
2.887500000000002
  3
STD
100
AcDbAlignedDimension
 13
8.800112
 23
25.43015
 33
0.0
 14
8.584006
 24
22.54264999999999
 34
0.0
 50
90.0
100
AcDbRotatedDimension
  0
DIMENSION
  5
54E
330
1E
100
AcDbEntity
  8
DIM
100
AcDbDimension
  2
*D18
 10
2.844585
 20
19.51207699999999
 30
0.0
 11
2.844584999999996
 21
19.89457699999999
 31
0.0
 70
    32
 71
     5
 42
0.7650000000000006
  3
DIM
100
AcDbAlignedDimension
 13
3.537405999999999
 23
20.277077
 33
0.0
 14
3.504005999999999
 24
19.51207699999999
 34
0.0
 50
90.0
100
AcDbRotatedDimension
  0
DIMENSION
  5
55C
330
1E
100
AcDbEntity
  8
DIM
100
AcDbDimension
  2
*D19
 10
2.097998
 20
18.74707699999999
 30
0.0
 11
2.097997999999997
 21
19.51207699999999
 31
0.0
 70
    32
 71
     5
 42
1.530000000000001
  3
DIM
100
AcDbAlignedDimension
 13
3.537405999999999
 23
20.277077
 33
0.0
 14
3.537405999999999
 24
18.74707699999999
 34
0.0
 50
90.0
100
AcDbRotatedDimension
  0
DIMENSION
  5
56A
330
1E
100
AcDbEntity
  8
DIM
100
AcDbDimension
  2
*D20
 10
8.584006
 20
21.03964799999999
 30
0.0
 11
5.476237
 21
21.03964799999999
 31
0.0
 70
   160
 71
     5
 42
5.08
  3
STD
100
AcDbAlignedDimension
 13
3.504005999999999
 23
19.51207699999999
 33
0.0
 14
8.584006
 24
19.51207699999999
 34
0.0
100
AcDbRotatedDimension
  0
DIMENSION
  5
578
330
1E
100
AcDbEntity
  8
DIM
100
AcDbDimension
  2
*D21
 10
7.849006
 20
28.56096599999999
 30
0.0
 11
6.044005999999999
 21
28.56096599999999
 31
0.0
 70
    32
 71
     5
 42
3.61
  3
STD
100
AcDbAlignedDimension
 13
4.239005999999999
 23
26.69265
 33
0.0
 14
7.849006
 24
26.69265
 34
0.0
100
AcDbRotatedDimension
  0
DIMENSION
  5
586
330
1E
100
AcDbEntity
  8
DIM
100
AcDbDimension
  2
*D22
 10
3.504005999999999
 20
28.56096599999999
 30
0.0
 11
2.244631
 21
28.56096599999999
 31
0.0
 70
    32
 71
     5
 42
0.7349999999999999
  3
STD
100
AcDbAlignedDimension
 13
4.239005999999999
 23
26.69265
 33
0.0
 14
3.504005999999999
 24
27.84264999999999
 34
0.0
100
AcDbRotatedDimension
  0
DIMENSION
  5
594
330
1E
100
AcDbEntity
  8
DIM
100
AcDbDimension
  2
*D23
 10
2.844585
 20
22.54264999999999
 30
0.0
 11
2.844584999999996
 21
23.11764999999999
 31
0.0
 70
    32
 71
     5
 42
1.150000000000002
  3
DIM
100
AcDbAlignedDimension
 13
4.239005999999999
 23
23.69264999999999
 33
0.0
 14
3.504005999999999
 24
22.54264999999999
 34
0.0
 50
90.0
100
AcDbRotatedDimension
  0
DIMENSION
  5
5A2
330
1E
100
AcDbEntity
  8
DIM
100
AcDbDimension
  2
*D24
 10
2.089539999999999
 20
22.54264999999999
 30
0.0
 11
2.089539999999996
 21
23.73264999999999
 31
0.0
 70
    32
 71
     5
 42
2.380000000000002
  3
STD
100
AcDbAlignedDimension
 13
3.834005999999999
 23
24.92265
 33
0.0
 14
3.504005999999999
 24
22.54264999999999
 34
0.0
 50
90.0
100
AcDbRotatedDimension
  0
DIMENSION
  5
5B0
330
1E
100
AcDbEntity
  8
DIM
100
AcDbDimension
  2
*D25
 10
8.62433
 20
15.199779
 30
0.0
 11
6.421330000000001
 21
15.199779
 31
0.0
 70
    32
 71
     5
 42
4.406
  3
STD
100
AcDbAlignedDimension
 13
4.218329999999999
 23
13.13702399999999
 33
0.0
 14
8.62433
 24
13.13702399999999
 34
0.0
100
AcDbRotatedDimension
  0
DIMENSION
  5
5BE
330
1E
100
AcDbEntity
  8
DIM
100
AcDbDimension
  2
*D26
 10
3.256329999999999
 20
15.199779
 30
0.0
 11
3.73733
 21
15.199779
 31
0.0
 70
    32
 71
     5
 42
0.962
  3
DIM
100
AcDbAlignedDimension
 13
4.218329999999999
 23
13.13702399999999
 33
0.0
 14
3.256329999999999
 24
14.697024
 34
0.0
100
AcDbRotatedDimension
  0
DIMENSION
  5
5CC
330
1E
100
AcDbEntity
  8
DIM
100
AcDbDimension
  2
*D27
 10
10.425572
 20
5.077023999999998
 30
0.0
 11
10.42557199999999
 21
9.887024000000002
 31
0.0
 70
    32
 71
     5
 42
9.619999999999999
  3
STD
100
AcDbAlignedDimension
 13
9.58633
 23
14.697024
 33
0.0
 14
9.58633
 24
5.077023999999999
 34
0.0
 50
90.0
100
AcDbRotatedDimension
  0
DIMENSION
  5
5DA
330
1E
100
AcDbEntity
  8
DIM
100
AcDbDimension
  2
*D28
 10
6.854311
 20
14.40402399999999
 30
0.0
 11
6.854310999999997
 21
9.887024000000002
 31
0.0
 70
    32
 71
     5
 42
9.033999999999998
  3
STD
100
AcDbAlignedDimension
 13
6.969088
 23
5.370023999999999
 33
0.0
 14
6.969088
 24
14.40402399999999
 34
0.0
 50
90.0
100
AcDbRotatedDimension
  0
DIMENSION
  5
5E8
330
1E
100
AcDbEntity
  8
DIM
100
AcDbDimension
  2
*D29
 10
2.596909
 20
5.077023999999999
 30
0.0
 11
2.596908999999999
 21
5.857024
 31
0.0
 70
    32
 71
     5
 42
1.56
  3
DIM
100
AcDbAlignedDimension
 13
4.218329999999999
 23
6.637024
 33
0.0
 14
3.256329999999999
 24
5.077023999999999
 34
0.0
 50
90.0
100
AcDbRotatedDimension
  0
DIMENSION
  5
5F6
330
1E
100
AcDbEntity
  8
DIM
100
AcDbDimension
  2
*D30
 10
1.80429
 20
5.077024
 30
0.0
 11
1.804289999999999
 21
6.107024
 31
0.0
 70
    32
 71
     5
 42
2.06
  3
STD
100
AcDbAlignedDimension
 13
3.67133
 23
7.137024
 33
0.0
 14
3.256329999999999
 24
5.077023999999999
 34
0.0
 50
90.0
100
AcDbRotatedDimension
  0
DIMENSION
  5
604
330
1E
100
AcDbEntity
  8
DIM
100
AcDbDimension
  2
*D31
 10
11.56488699999999
 20
3.123879
 30
0.0
 11
14.55988699999999
 21
3.123879
 31
0.0
 70
    32
 71
     5
 42
5.990000000000001
  3
STD
100
AcDbAlignedDimension
 13
17.554887
 23
2.567736
 33
0.0
 14
11.56488699999999
 24
2.567736
 34
0.0
100
AcDbRotatedDimension
  0
DIMENSION
  5
612
330
1E
100
AcDbEntity
  8
DIM
100
AcDbDimension
  2
*D32
 10
11.60988699999999
 20
0.6878820000000001
 30
0.0
 11
14.55988699999999
 21
0.6878820000000001
 31
0.0
 70
    32
  1
<> EXPOSED PANEL
 71
     5
 42
5.9
  3
STD
100
AcDbAlignedDimension
 13
17.50988699999999
 23
1.292736
 33
0.0
 14
11.60988699999999
 24
1.292736
 34
0.0
100
AcDbRotatedDimension
  0
DIMENSION
  5
620
330
1E
100
AcDbEntity
  8
DIM
100
AcDbDimension
  2
*D33
 10
10.98533999999999
 20
2.567736
 30
0.0
 11
10.98533999999999
 21
1.864145454506633
 31
0.0
 70
   160
 71
     5
 42
1.33
  3
STD
100
AcDbAlignedDimension
 13
11.56488699999999
 23
1.237735999999999
 33
0.0
 14
11.56488699999999
 24
2.567736
 34
0.0
 50
90.0
100
AcDbRotatedDimension
  0
DIMENSION
  5
62E
330
1E
100
AcDbEntity
  8
DIM
100
AcDbDimension
  2
*D34
 10
9.171330000000001
 20
4.00741
 30
0.0
 11
6.751294999999999
 21
4.00741
 31
0.0
 70
   160
 71
     5
 42
5.5
  3
STD
100
AcDbAlignedDimension
 13
3.67133
 23
7.137024
 33
0.0
 14
9.171330000000001
 24
7.137024
 34
0.0
100
AcDbRotatedDimension
  0
DIMENSION
  5
63C
330
1E
100
AcDbEntity
  8
DIM
100
AcDbDimension
  2
*D35
 10
3.256329999999999
 20
4.00741
 30
0.0
 11
2.028204999999999
 21
4.00741
 31
0.0
 70
    32
 71
     5
 42
0.4150000000000005
  3
STD
100
AcDbAlignedDimension
 13
3.67133
 23
7.137024
 33
0.0
 14
3.256329999999999
 24
5.077023999999999
 34
0.0
100
AcDbRotatedDimension
  0
DIMENSION
  5
64A
330
1E
100
AcDbEntity
  8
DIM
100
AcDbDimension
  2
*D36
 10
7.075132
 20
2.552735999999999
 30
0.0
 11
7.075131999999999
 21
1.902736000000001
 31
0.0
 70
    32
 71
     5
 42
1.3
  3
DIM
100
AcDbAlignedDimension
 13
7.162119999999999
 23
1.252736
 33
0.0
 14
7.162119999999999
 24
2.552735999999999
 34
0.0
 50
90.0
100
AcDbRotatedDimension
  0
DIMENSION
  5
658
330
1E
100
AcDbEntity
  8
DIM
100
AcDbDimension
  2
*D37
 10
6.442164
 20
1.127736
 30
0.0
 11
5.574038999999999
 21
0.4077360000000013
 31
0.0
 70
    32
 71
     5
 42
0.125
  3
STD
100
AcDbAlignedDimension
 13
6.529152999999999
 23
1.252736
 33
0.0
 14
6.529152999999999
 24
1.127736
 34
0.0
 50
90.0
100
AcDbRotatedDimension
  0
DIMENSION
  5
666
330
1E
100
AcDbEntity
  8
DIM
100
AcDbDimension
  2
*D38
 10
2.554688
 20
1.127736
 30
0.0
 11
2.554687999999999
 21
1.902736
 31
0.0
 70
    32
 71
     5
 42
1.55
  3
DIM
100
AcDbAlignedDimension
 13
3.290166999999999
 23
2.677735999999999
 33
0.0
 14
3.28973
 24
1.127736
 34
0.0
 50
90.0
100
AcDbRotatedDimension
  0
DIMENSION
  5
674
330
1E
100
AcDbEntity
  8
DIM
100
AcDbDimension
  2
*D39
 10
4.755101999999999
 20
20.002077
 30
0.0
 11
4.755101999999996
 21
19.51207699999999
 31
0.0
 70
    32
 71
     5
 42
0.9800000000000004
  3
DIM
100
AcDbAlignedDimension
 13
4.363678
 23
19.02207699999999
 33
0.0
 14
4.363678
 24
20.002077
 34
0.0
 50
90.0
100
AcDbRotatedDimension
  0
LINE
  5
682
330
1E
100
AcDbEntity
  8
OBJECT
100
AcDbLine
 10
12.404863
 20
5.107024
 30
0.0
 11
12.404863
 21
5.270459999999999
 31
0.0
  0
LINE
  5
683
330
1E
100
AcDbEntity
  8
OBJECT
100
AcDbLine
 10
13.179863
 20
5.110205999999999
 30
0.0
 11
13.179863
 21
14.663842
 31
0.0
  0
LINE
  5
684
330
1E
100
AcDbEntity
  8
HIDDEN
100
AcDbLine
 10
13.054863
 20
10.66776
 30
0.0
 11
13.054863
 21
14.32402399999999
 31
0.0
  0
LINE
  5
685
330
1E
100
AcDbEntity
  8
OBJECT
100
AcDbLine
 10
13.054863
 20
5.450023999999999
 30
0.0
 11
13.054863
 21
10.66776
 31
0.0
  0
LINE
  5
686
330
1E
100
AcDbEntity
  8
OBJECT
100
AcDbLine
 10
12.419863
 20
5.077023999999999
 30
0.0
 11
13.179863
 21
5.110205999999999
 31
0.0
  0
LINE
  5
687
330
1E
100
AcDbEntity
  8
OBJECT
100
AcDbLine
 10
12.904863
 20
6.496523999999999
 30
0.0
 11
13.054863
 21
6.496523999999999
 31
0.0
  0
LINE
  5
688
330
1E
100
AcDbEntity
  8
OBJECT
100
AcDbLine
 10
13.054863
 20
6.777524
 30
0.0
 11
12.904863
 21
6.777524
 31
0.0
  0
LINE
  5
689
330
1E
100
AcDbEntity
  8
OBJECT
100
AcDbLine
 10
12.904863
 20
6.496523999999999
 30
0.0
 11
12.904863
 21
6.777524
 31
0.0
  0
LINE
  5
68A
330
1E
100
AcDbEntity
  8
OBJECT
100
AcDbLine
 10
13.054863
 20
6.997024
 30
0.0
 11
12.404863
 21
6.997024
 31
0.0
  0
LINE
  5
68B
330
1E
100
AcDbEntity
  8
OBJECT
100
AcDbLine
 10
13.054863
 20
7.277024
 30
0.0
 11
12.404863
 21
7.277024
 31
0.0
  0
LINE
  5
68C
330
1E
100
AcDbEntity
  8
HIDDEN
100
AcDbLine
 10
12.904863
 20
13.277524
 30
0.0
 11
13.054863
 21
13.277524
 31
0.0
  0
LINE
  5
68D
330
1E
100
AcDbEntity
  8
HIDDEN
100
AcDbLine
 10
12.904863
 20
13.277524
 30
0.0
 11
12.904863
 21
12.996524
 31
0.0
  0
LINE
  5
68E
330
1E
100
AcDbEntity
  8
HIDDEN
100
AcDbLine
 10
13.054863
 20
12.996524
 30
0.0
 11
12.904863
 21
12.996524
 31
0.0
  0
LWPOLYLINE
  5
68F
330
1E
100
AcDbEntity
  8
OBJECT
100
AcDbPolyline
 90
        4
 70
     0
 43
0.0
 10
13.179863
 20
10.71363099999999
 42
-0.261561
 10
12.615518
 20
10.71055599999999
 42
0.183916
 10
11.91336699999999
 20
10.699197
 42
0.000309
 10
11.629863
 20
10.631413
 42
-0.155532
  0
CIRCLE
  5
695
330
1E
100
AcDbEntity
  8
OBJECT
100
AcDbCircle
 10
3.67133
 20
12.637024
 30
0.0
 40
0.14
  0
CIRCLE
  5
696
330
1E
100
AcDbEntity
  8
OBJECT
100
AcDbCircle
 10
3.67133
 20
12.637024
 30
0.0
 40
0.0625
  0
CIRCLE
  5
697
330
1E
100
AcDbEntity
  8
HIDDEN
100
AcDbCircle
 10
9.171330000000001
 20
12.637024
 30
0.0
 40
0.055
  0
CIRCLE
  5
698
330
1E
100
AcDbEntity
  8
HIDDEN
100
AcDbCircle
 10
9.171330000000001
 20
12.637024
 30
0.0
 40
0.14
  0
CIRCLE
  5
699
330
1E
100
AcDbEntity
  8
OBJECT
100
AcDbCircle
 10
4.218329999999999
 20
9.887024
 30
0.0
 40
0.1405
  0
CIRCLE
  5
69A
330
1E
100
AcDbEntity
  8
OBJECT
100
AcDbCircle
 10
4.218329999999999
 20
9.887024
 30
0.0
 40
0.0455
  0
CIRCLE
  5
69B
330
1E
100
AcDbEntity
  8
HIDDEN
100
AcDbCircle
 10
8.62433
 20
9.887024
 30
0.0
 40
0.1405
  0
CIRCLE
  5
69C
330
1E
100
AcDbEntity
  8
HIDDEN
100
AcDbCircle
 10
8.62433
 20
9.887024
 30
0.0
 40
0.0455
  0
DIMENSION
  5
69D
330
1E
100
AcDbEntity
  8
DIM
100
AcDbDimension
  2
*D40
 10
1.80429
 20
7.137024000000001
 30
0.0
 11
1.804289999999999
 21
9.887024
 31
0.0
 70
    32
 71
     5
 42
5.499999999999999
  3
STD
100
AcDbAlignedDimension
 13
3.67133
 23
12.637024
 33
0.0
 14
3.67133
 24
7.137024
 34
0.0
 50
90.0
100
AcDbRotatedDimension
  0
DIMENSION
  5
6AB
330
1E
100
AcDbEntity
  8
DIM
100
AcDbDimension
  2
*D41
 10
2.596909
 20
6.637024
 30
0.0
 11
2.596908999999999
 21
8.262024000000002
 31
0.0
 70
    32
 71
     5
 42
3.25
  3
STD
100
AcDbAlignedDimension
 13
4.218329999999999
 23
9.887024
 33
0.0
 14
4.218329999999999
 24
6.637024
 34
0.0
 50
90.0
100
AcDbRotatedDimension
  0
DIMENSION
  5
6B9
330
1E
100
AcDbEntity
  8
DIM
100
AcDbDimension
  2
*D42
 10
2.596909
 20
9.887024000000002
 30
0.0
 11
2.596908999999998
 21
11.512024
 31
0.0
 70
    32
 71
     5
 42
3.249999999999998
  3
STD
100
AcDbAlignedDimension
 13
4.218329999999999
 23
13.13702399999999
 33
0.0
 14
4.218329999999999
 24
9.887024
 34
0.0
 50
90.0
100
AcDbRotatedDimension
  0
LINE
  5
6C7
330
1E
100
AcDbEntity
  8
OBJECT
100
AcDbLine
 10
11.904863
 20
9.746524
 30
0.0
 11
11.904863
 21
10.027524
 31
0.0
  0
LINE
  5
6C8
330
1E
100
AcDbEntity
  8
OBJECT
100
AcDbLine
 10
11.904863
 20
9.746524
 30
0.0
 11
11.75486299999999
 21
9.746524
 31
0.0
  0
LINE
  5
6C9
330
1E
100
AcDbEntity
  8
OBJECT
100
AcDbLine
 10
11.75486299999999
 20
10.027524
 30
0.0
 11
11.904863
 21
10.027524
 31
0.0
  0
LINE
  5
6CA
330
1E
100
AcDbEntity
  8
OBJECT
100
AcDbLine
 10
11.75486299999999
 20
6.106023999999999
 30
0.0
 11
12.389863
 21
6.106023999999999
 31
0.0
  0
LINE
  5
6CB
330
1E
100
AcDbEntity
  8
HIDDEN
100
AcDbLine
 10
13.054863
 20
12.497024
 30
0.0
 11
12.404863
 21
12.497024
 31
0.0
  0
LINE
  5
6CC
330
1E
100
AcDbEntity
  8
HIDDEN
100
AcDbLine
 10
13.054863
 20
12.777024
 30
0.0
 11
12.404863
 21
12.777024
 31
0.0
  0
LINE
  5
6CD
330
1E
100
AcDbEntity
  8
HIDDEN
100
AcDbLine
 10
11.75486299999999
 20
12.777024
 30
0.0
 11
12.404863
 21
12.777024
 31
0.0
  0
LINE
  5
6CE
330
1E
100
AcDbEntity
  8
HIDDEN
100
AcDbLine
 10
11.75486299999999
 20
12.497024
 30
0.0
 11
12.404863
 21
12.497024
 31
0.0
  0
LINE
  5
6CF
330
1E
100
AcDbEntity
  8
OBJECT
100
AcDbLine
 10
11.75486299999999
 20
8.265024
 30
0.0
 11
12.389863
 21
8.265024
 31
0.0
  0
LINE
  5
6D0
330
1E
100
AcDbEntity
  8
HIDDEN
100
AcDbLine
 10
11.75486299999999
 20
11.712024
 30
0.0
 11
12.389863
 21
11.712024
 31
0.0
  0
LINE
  5
6D1
330
1E
100
AcDbEntity
  8
OBJECT
100
AcDbLine
 10
8.898042999999999
 20
5.765023999999999
 30
0.0
 11
8.898042999999999
 21
14.00902399999999
 31
0.0
  0
LINE
  5
6D2
330
1E
100
AcDbEntity
  8
OBJECT
100
AcDbLine
 10
8.898042999999999
 20
14.00902399999999
 30
0.0
 11
7.739808999999999
 21
14.00902399999999
 31
0.0
  0
LINE
  5
6D3
330
1E
100
AcDbEntity
  8
OBJECT
100
AcDbLine
 10
8.898042999999999
 20
5.765023999999999
 30
0.0
 11
7.482550999999999
 21
5.765023999999999
 31
0.0
  0
LINE
  5
6D4
330
1E
100
AcDbEntity
  8
OBJECT
100
AcDbLine
 10
3.28633
 20
1.902735999999999
 30
0.0
 11
3.40333
 21
1.902735999999999
 31
0.0
  0
LINE
  5
6D5
330
1E
100
AcDbEntity
  8
OBJECT
100
AcDbLine
 10
3.53133
 20
2.552735999999999
 30
0.0
 11
3.53133
 21
1.902735999999999
 31
0.0
  0
LINE
  5
6D6
330
1E
100
AcDbEntity
  8
OBJECT
100
AcDbLine
 10
3.53133
 20
1.902735999999999
 30
0.0
 11
3.81133
 21
1.902735999999999
 31
0.0
  0
LINE
  5
6D7
330
1E
100
AcDbEntity
  8
HIDDEN
100
AcDbLine
 10
9.311329999999999
 20
1.902735999999999
 30
0.0
 11
9.03133
 21
1.902735999999999
 31
0.0
  0
LINE
  5
6D8
330
1E
100
AcDbEntity
  8
HIDDEN
100
AcDbLine
 10
9.311329999999999
 20
2.537736
 30
0.0
 11
9.311329999999999
 21
1.902735999999999
 31
0.0
  0
LINE
  5
6D9
330
1E
100
AcDbEntity
  8
HIDDEN
100
AcDbLine
 10
9.03133
 20
2.537736
 30
0.0
 11
9.03133
 21
1.902735999999999
 31
0.0
  0
LINE
  5
6DA
330
1E
100
AcDbEntity
  8
HIDDEN
100
AcDbLine
 10
8.483830000000001
 20
2.402735999999999
 30
0.0
 11
8.764829999999999
 21
2.402735999999999
 31
0.0
  0
LINE
  5
6DB
330
1E
100
AcDbEntity
  8
HIDDEN
100
AcDbLine
 10
8.764829999999999
 20
2.537736
 30
0.0
 11
8.764829999999999
 21
2.402735999999999
 31
0.0
  0
LINE
  5
6DC
330
1E
100
AcDbEntity
  8
HIDDEN
100
AcDbLine
 10
8.483830000000001
 20
2.537736
 30
0.0
 11
8.483830000000001
 21
2.402735999999999
 31
0.0
  0
LINE
  5
6DD
330
1E
100
AcDbEntity
  8
OBJECT
100
AcDbLine
 10
9.553147
 20
1.127736
 30
0.0
 11
3.290166999999999
 21
1.127736
 31
0.0
  0
LINE
  5
6DE
330
1E
100
AcDbEntity
  8
OBJECT
100
AcDbLine
 10
3.53133
 20
1.252736
 30
0.0
 11
3.53133
 21
1.902735999999999
 31
0.0
  0
LINE
  5
6DF
330
1E
100
AcDbEntity
  8
OBJECT
100
AcDbLine
 10
3.406766
 20
1.252736
 30
0.0
 11
3.406766
 21
1.887736
 31
0.0
  0
LINE
  5
6E0
330
1E
100
AcDbEntity
  8
OBJECT
100
AcDbLine
 10
3.468766
 20
1.252736
 30
0.0
 11
3.468766
 21
1.887736
 31
0.0
  0
LINE
  5
6E1
330
1E
100
AcDbEntity
  8
OBJECT
100
AcDbLine
 10
3.256984
 20
1.887736
 30
0.0
 11
3.290166999999999
 21
1.127736
 31
0.0
  0
LINE
  5
6E2
330
1E
100
AcDbEntity
  8
OBJECT
100
AcDbLine
 10
3.81133
 20
1.252736
 30
0.0
 11
3.81133
 21
1.902735999999999
 31
0.0
  0
LINE
  5
6E3
330
1E
100
AcDbEntity
  8
OBJECT
100
AcDbLine
 10
4.35883
 20
1.402735999999999
 30
0.0
 11
4.07783
 21
1.402735999999999
 31
0.0
  0
LINE
  5
6E4
330
1E
100
AcDbEntity
  8
OBJECT
100
AcDbLine
 10
4.07783
 20
1.252736
 30
0.0
 11
4.07783
 21
1.402735999999999
 31
0.0
  0
LINE
  5
6E5
330
1E
100
AcDbEntity
  8
OBJECT
100
AcDbLine
 10
4.35883
 20
1.252736
 30
0.0
 11
4.35883
 21
1.402735999999999
 31
0.0
  0
LINE
  5
6E6
330
1E
100
AcDbEntity
  8
HIDDEN
100
AcDbLine
 10
8.483830000000001
 20
1.402735999999999
 30
0.0
 11
8.764829999999999
 21
1.402735999999999
 31
0.0
  0
LINE
  5
6E7
330
1E
100
AcDbEntity
  8
OBJECT
100
AcDbLine
 10
9.373892999999998
 20
1.267735999999999
 30
0.0
 11
7.639474
 21
1.267735999999999
 31
0.0
  0
LINE
  5
6E8
330
1E
100
AcDbEntity
  8
OBJECT
100
AcDbLine
 10
9.466991
 20
1.217736
 30
0.0
 11
7.659122999999999
 21
1.217736
 31
0.0
  0
LINE
  5
6E9
330
1E
100
AcDbEntity
  8
HIDDEN
100
AcDbLine
 10
8.483830000000001
 20
1.267735999999999
 30
0.0
 11
8.483830000000001
 21
1.402735999999999
 31
0.0
  0
LINE
  5
6EA
330
1E
100
AcDbEntity
  8
HIDDEN
100
AcDbLine
 10
9.03133
 20
1.267735999999999
 30
0.0
 11
9.03133
 21
1.902735999999999
 31
0.0
  0
LINE
  5
6EB
330
1E
100
AcDbEntity
  8
HIDDEN
100
AcDbLine
 10
9.311329999999999
 20
1.267735999999999
 30
0.0
 11
9.311329999999999
 21
1.902735999999999
 31
0.0
  0
LINE
  5
6EC
330
1E
100
AcDbEntity
  8
HIDDEN
100
AcDbLine
 10
8.764829999999999
 20
1.267735999999999
 30
0.0
 11
8.764829999999999
 21
1.402735999999999
 31
0.0
  0
LINE
  5
6ED
330
1E
100
AcDbEntity
  8
OBJECT
100
AcDbLine
 10
9.58633
 20
1.887736
 30
0.0
 11
9.553147
 21
1.127736
 31
0.0
  0
LINE
  5
6EE
330
1E
100
AcDbEntity
  8
OBJECT
100
AcDbLine
 10
9.373892999999998
 20
1.267735999999999
 30
0.0
 11
9.373892999999998
 21
1.887736
 31
0.0
  0
DIMENSION
  5
6EF
330
1E
100
AcDbEntity
  8
DIM
100
AcDbDimension
  2
*D43
 10
4.811561
 20
1.127736
 30
0.0
 11
3.912186
 21
0.407736000000001
 31
0.0
 70
    32
 71
     5
 42
0.2749999999999997
  3
STD
100
AcDbAlignedDimension
 13
4.35883
 23
1.402735999999999
 33
0.0
 14
4.656913999999999
 24
1.127736
 34
0.0
 50
90.0
100
AcDbRotatedDimension
  0
DIMENSION
  5
6FD
330
1E
100
AcDbEntity
  8
DIM
100
AcDbDimension
  2
*D44
 10
5.339533999999999
 20
2.402735999999999
 30
0.0
 11
5.339533999999998
 21
1.902736
 31
0.0
 70
    32
 71
     5
  3
DIM
100
AcDbAlignedDimension
 13
4.35883
 23
1.402735999999999
 33
0.0
 14
4.35883
 24
2.402735999999999
 34
0.0
 50
90.0
100
AcDbRotatedDimension
  0
LINE
  5
70B
330
1E
100
AcDbEntity
  8
OBJECT
100
AcDbLine
 10
12.904863
 20
9.746524
 30
0.0
 11
12.904863
 21
10.027524
 31
0.0
  0
LINE
  5
70C
330
1E
100
AcDbEntity
  8
OBJECT
100
AcDbLine
 10
12.904863
 20
9.746524
 30
0.0
 11
13.054863
 21
9.746524
 31
0.0
  0
LINE
  5
70D
330
1E
100
AcDbEntity
  8
OBJECT
100
AcDbLine
 10
13.054863
 20
10.027524
 30
0.0
 11
12.904863
 21
10.027524
 31
0.0
  0
LINE
  5
70E
330
1E
100
AcDbEntity
  8
OBJECT
100
AcDbLine
 10
3.59833
 20
9.629523999999999
 30
0.0
 11
3.40633
 21
9.629523999999999
 31
0.0
  0
LINE
  5
70F
330
1E
100
AcDbEntity
  8
OBJECT
100
AcDbLine
 10
3.59833
 20
10.144524
 30
0.0
 11
3.40633
 21
10.144524
 31
0.0
  0
LINE
  5
710
330
1E
100
AcDbEntity
  8
OBJECT
100
AcDbLine
 10
3.53633
 20
10.082524
 30
0.0
 11
3.40633
 21
10.082524
 31
0.0
  0
LINE
  5
711
330
1E
100
AcDbEntity
  8
OBJECT
100
AcDbLine
 10
3.53633
 20
9.691524000000001
 30
0.0
 11
3.40633
 21
9.691524000000001
 31
0.0
  0
LINE
  5
712
330
1E
100
AcDbEntity
  8
OBJECT
100
AcDbLine
 10
3.53633
 20
10.082524
 30
0.0
 11
3.53633
 21
9.691524000000001
 31
0.0
  0
LINE
  5
713
330
1E
100
AcDbEntity
  8
OBJECT
100
AcDbLine
 10
3.59833
 20
10.144524
 30
0.0
 11
3.59833
 21
9.629523999999999
 31
0.0
  0
LINE
  5
714
330
1E
100
AcDbEntity
  8
OBJECT
100
AcDbLine
 10
3.59833
 20
9.788524
 30
0.0
 11
3.53633
 21
9.788524
 31
0.0
  0
LINE
  5
715
330
1E
100
AcDbEntity
  8
OBJECT
100
AcDbLine
 10
3.59833
 20
9.985523999999999
 30
0.0
 11
3.53633
 21
9.985523999999999
 31
0.0
  0
DIMENSION
  5
716
330
1E
100
AcDbEntity
  8
DIM
100
AcDbDimension
  2
*D45
 10
9.58633
 20
3.358562999999999
 30
0.0
 11
6.42133
 21
3.358562999999999
 31
0.0
 70
    32
 71
     5
 42
6.33
  3
STD
100
AcDbAlignedDimension
 13
3.256329999999999
 23
1.902735999999999
 33
0.0
 14
9.58633
 24
1.902735999999999
 34
0.0
100
AcDbRotatedDimension
  0
DIMENSION
  5
724
330
1E
100
AcDbEntity
  8
DIM
100
AcDbDimension
  2
*D46
 10
10.095916
 20
2.677735999999999
 30
0.0
 11
10.095916
 21
2.290236000000001
 31
0.0
 70
    32
 71
     5
 42
0.775
  3
DIM
100
AcDbAlignedDimension
 13
9.58633
 23
1.902735999999999
 33
0.0
 14
9.552491999999999
 24
2.677735999999999
 34
0.0
 50
90.0
100
AcDbRotatedDimension
  0
LINE
  5
732
330
1E
100
AcDbEntity
  8
HIDDEN
100
AcDbLine
 10
12.345281
 20
26.204363
 30
0.0
 11
12.345281
 21
27.511977
 31
0.0
  0
LINE
  5
733
330
1E
100
AcDbEntity
  8
HIDDEN
100
AcDbLine
 10
11.065281
 20
26.211214
 30
0.0
 11
11.065281
 21
27.511977
 31
0.0
  0
LINE
  5
734
330
1E
100
AcDbEntity
  8
OBJECT
100
AcDbLine
 10
6.836914999999999
 20
27.70015
 30
0.0
 11
3.701005999999999
 21
27.70015
 31
0.0
  0
LINE
  5
735
330
1E
100
AcDbEntity
  8
OBJECT
100
AcDbLine
 10
11.720281
 20
27.84232199999999
 30
0.0
 11
12.470281
 21
27.809577
 31
0.0
  0
LINE
  5
736
330
1E
100
AcDbEntity
  8
OBJECT
100
AcDbLine
 10
11.690281
 20
27.84232199999999
 30
0.0
 11
10.940281
 21
27.809577
 31
0.0
  0
LINE
  5
737
330
1E
100
AcDbEntity
  8
OBJECT
100
AcDbLine
 10
11.030281
 20
22.572448
 30
0.0
 11
11.030281
 21
22.622723
 31
0.0
  0
LINE
  5
738
330
1E
100
AcDbEntity
  8
OBJECT
100
AcDbLine
 10
11.065281
 20
22.873977
 30
0.0
 11
11.065281
 21
26.211214
 31
0.0
  0
LINE
  5
739
330
1E
100
AcDbEntity
  8
OBJECT
100
AcDbLine
 10
11.11228099999999
 20
22.800977
 30
0.0
 11
11.11228099999999
 21
22.873977
 31
0.0
  0
LINE
  5
73A
330
1E
100
AcDbEntity
  8
OBJECT
100
AcDbLine
 10
11.05028099999999
 20
22.730977
 30
0.0
 11
11.05028099999999
 21
22.800977
 31
0.0
  0
LINE
  5
73B
330
1E
100
AcDbEntity
  8
OBJECT
100
AcDbLine
 10
11.287281
 20
25.52897699999999
 30
0.0
 11
11.690281
 21
25.52897699999999
 31
0.0
  0
LINE
  5
73C
330
1E
100
AcDbEntity
  8
OBJECT
100
AcDbLine
 10
11.287281
 20
25.331977
 30
0.0
 11
11.690281
 21
25.331977
 31
0.0
  0
LINE
  5
73D
330
1E
100
AcDbEntity
  8
OBJECT
100
AcDbLine
 10
11.287281
 20
25.331977
 30
0.0
 11
11.287281
 21
25.52897699999999
 31
0.0
  0
LINE
  5
73E
330
1E
100
AcDbEntity
  8
OBJECT
100
AcDbLine
 10
11.065281
 20
25.687977
 30
0.0
 11
11.690281
 21
25.687977
 31
0.0
  0
LINE
  5
73F
330
1E
100
AcDbEntity
  8
OBJECT
100
AcDbLine
 10
11.065281
 20
25.172977
 30
0.0
 11
11.690281
 21
25.172977
 31
0.0
  0
LINE
  5
740
330
1E
100
AcDbEntity
  8
OBJECT
100
AcDbLine
 10
11.065281
 20
24.792977
 30
0.0
 11
11.705281
 21
24.792977
 31
0.0
  0
LINE
  5
741
330
1E
100
AcDbEntity
  8
OBJECT
100
AcDbLine
 10
11.065281
 20
25.05297699999999
 30
0.0
 11
11.705281
 21
25.05297699999999
 31
0.0
  0
LINE
  5
742
330
1E
100
AcDbEntity
  8
OBJECT
100
AcDbLine
 10
12.345281
 20
22.873977
 30
0.0
 11
12.345281
 21
26.204363
 31
0.0
  0
LINE
  5
743
330
1E
100
AcDbEntity
  8
OBJECT
100
AcDbLine
 10
11.21528099999999
 20
23.56797699999999
 30
0.0
 11
11.21528099999999
 21
23.81797699999999
 31
0.0
  0
LINE
  5
744
330
1E
100
AcDbEntity
  8
OBJECT
100
AcDbLine
 10
11.705281
 20
22.556419
 30
0.0
 11
11.705281
 21
22.730977
 31
0.0
  0
LINE
  5
745
330
1E
100
AcDbEntity
  8
OBJECT
100
AcDbLine
 10
12.470281
 20
22.575723
 30
0.0
 11
12.470281
 21
27.809577
 31
0.0
  0
LINE
  5
746
330
1E
100
AcDbEntity
  8
OBJECT
100
AcDbLine
 10
10.940281
 20
22.575723
 30
0.0
 11
10.940281
 21
27.809577
 31
0.0
  0
CIRCLE
  5
747
330
1E
100
AcDbEntity
  8
HIDDEN
100
AcDbCircle
 10
8.254006
 20
24.92265
 30
0.0
 40
0.13
  0
CIRCLE
  5
748
330
1E
100
AcDbEntity
  8
HIDDEN
100
AcDbCircle
 10
8.254006
 20
24.92265
 30
0.0
 40
0.055
  0
CIRCLE
  5
749
330
1E
100
AcDbEntity
  8
HIDDEN
100
AcDbCircle
 10
7.849006
 20
23.69264999999999
 30
0.0
 40
0.125
  0
CIRCLE
  5
74A
330
1E
100
AcDbEntity
  8
HIDDEN
100
AcDbCircle
 10
7.849006
 20
23.69264999999999
 30
0.0
 40
0.0455
  0
CIRCLE
  5
74B
330
1E
100
AcDbEntity
  8
HIDDEN
100
AcDbCircle
 10
7.849006
 20
26.69265
 30
0.0
 40
0.0455
  0
CIRCLE
  5
74C
330
1E
100
AcDbEntity
  8
HIDDEN
100
AcDbCircle
 10
7.849006
 20
26.69265
 30
0.0
 40
0.125
  0
CIRCLE
  5
74D
330
1E
100
AcDbEntity
  8
OBJECT
100
AcDbCircle
 10
4.239005999999999
 20
26.69265
 30
0.0
 40
0.125
  0
CIRCLE
  5
74E
330
1E
100
AcDbEntity
  8
OBJECT
100
AcDbCircle
 10
4.239005999999999
 20
26.69265
 30
0.0
 40
0.0455
  0
CIRCLE
  5
74F
330
1E
100
AcDbEntity
  8
OBJECT
100
AcDbCircle
 10
4.239005999999999
 20
23.69264999999999
 30
0.0
 40
0.0455
  0
CIRCLE
  5
750
330
1E
100
AcDbEntity
  8
OBJECT
100
AcDbCircle
 10
4.239005999999999
 20
23.69264999999999
 30
0.0
 40
0.125
  0
CIRCLE
  5
751
330
1E
100
AcDbEntity
  8
OBJECT
100
AcDbCircle
 10
3.834005999999999
 20
24.92265
 30
0.0
 40
0.065
  0
CIRCLE
  5
752
330
1E
100
AcDbEntity
  8
OBJECT
100
AcDbCircle
 10
3.834005999999999
 20
24.92265
 30
0.0
 40
0.13
  0
LINE
  5
753
330
1E
100
AcDbEntity
  8
OBJECT
100
AcDbLine
 10
3.654005999999999
 20
27.51165
 30
0.0
 11
3.654005999999999
 21
27.20765
 31
0.0
  0
LINE
  5
754
330
1E
100
AcDbEntity
  8
OBJECT
100
AcDbLine
 10
3.654005999999999
 20
27.58465
 30
0.0
 11
3.654005999999999
 21
27.65465
 31
0.0
  0
LINE
  5
755
330
1E
100
AcDbEntity
  8
OBJECT
100
AcDbLine
 10
3.654005999999999
 20
27.21565
 30
0.0
 11
3.654005999999999
 21
27.51165
 31
0.0
  0
LINE
  5
756
330
1E
100
AcDbEntity
  8
OBJECT
100
AcDbLine
 10
3.716005999999999
 20
27.58465
 30
0.0
 11
3.716005999999999
 21
27.51165
 31
0.0
  0
LINE
  5
757
330
1E
100
AcDbEntity
  8
OBJECT
100
AcDbLine
 10
3.504005999999999
 20
27.84264999999999
 30
0.0
 11
3.504005999999999
 21
22.54264999999999
 31
0.0
  0
LINE
  5
758
330
1E
100
AcDbEntity
  8
OBJECT
100
AcDbLine
 10
8.584006
 20
22.54264999999999
 30
0.0
 11
8.584006
 21
27.84264999999999
 31
0.0
  0
LINE
  5
759
330
1E
100
AcDbEntity
  8
OBJECT
100
AcDbLine
 10
8.584006
 20
22.54264999999999
 30
0.0
 11
8.493919999999999
 21
22.54264999999999
 31
0.0
  0
LINE
  5
75A
330
1E
100
AcDbEntity
  8
OBJECT
100
AcDbLine
 10
11.705281
 20
24.792977
 30
0.0
 11
12.345281
 21
24.792977
 31
0.0
  0
LINE
  5
75B
330
1E
100
AcDbEntity
  8
OBJECT
100
AcDbLine
 10
11.705281
 20
25.05297699999999
 30
0.0
 11
12.345281
 21
25.05297699999999
 31
0.0
  0
LWPOLYLINE
  5
75C
330
1E
100
AcDbEntity
  8
OBJECT
100
AcDbPolyline
 90
        4
 70
     0
 43
0.0
 10
12.470281
 20
26.220568
 42
-0.222416
 10
11.98287
 20
26.254009
 42
0.181977
 10
11.28071899999999
 20
26.357398
 42
0.000317
 10
10.940281
 20
26.12980999999999
 42
-0.15556
  0
LINE
  5
762
330
1E
100
AcDbEntity
  8
OBJECT
100
AcDbLine
 10
6.880039
 20
27.58465
 30
0.0
 11
3.654005999999999
 21
27.58465
 31
0.0
  0
LINE
  5
763
330
1E
100
AcDbEntity
  8
OBJECT
100
AcDbLine
 10
3.716005999999999
 20
27.13465
 30
0.0
 11
3.654005999999999
 21
27.13465
 31
0.0
  0
LINE
  5
764
330
1E
100
AcDbEntity
  8
OBJECT
100
AcDbLine
 10
6.907294999999999
 20
27.51165
 30
0.0
 11
3.654005999999999
 21
27.51165
 31
0.0
  0
LINE
  5
765
330
1E
100
AcDbEntity
  8
OBJECT
100
AcDbLine
 10
3.716005999999999
 20
27.20765
 30
0.0
 11
3.654005999999999
 21
27.20765
 31
0.0
  0
LINE
  5
766
330
1E
100
AcDbEntity
  8
OBJECT
100
AcDbLine
 10
3.716005999999999
 20
27.06465
 30
0.0
 11
3.654005999999999
 21
27.06465
 31
0.0
  0
LINE
  5
767
330
1E
100
AcDbEntity
  8
OBJECT
100
AcDbLine
 10
3.716005999999999
 20
26.99165
 30
0.0
 11
3.654005999999999
 21
26.99165
 31
0.0
  0
LINE
  5
768
330
1E
100
AcDbEntity
  8
OBJECT
100
AcDbLine
 10
3.716005999999999
 20
26.92165
 30
0.0
 11
3.654005999999999
 21
26.92165
 31
0.0
  0
LINE
  5
769
330
1E
100
AcDbEntity
  8
OBJECT
100
AcDbLine
 10
3.716005999999999
 20
26.84865
 30
0.0
 11
3.654005999999999
 21
26.84865
 31
0.0
  0
LINE
  5
76A
330
1E
100
AcDbEntity
  8
OBJECT
100
AcDbLine
 10
3.716005999999999
 20
27.20765
 30
0.0
 11
3.716005999999999
 21
27.13465
 31
0.0
  0
LINE
  5
76B
330
1E
100
AcDbEntity
  8
OBJECT
100
AcDbLine
 10
3.716005999999999
 20
27.06465
 30
0.0
 11
3.716005999999999
 21
26.99165
 31
0.0
  0
LINE
  5
76C
330
1E
100
AcDbEntity
  8
OBJECT
100
AcDbLine
 10
3.716005999999999
 20
26.92165
 30
0.0
 11
3.716005999999999
 21
26.84865
 31
0.0
  0
LINE
  5
76D
330
1E
100
AcDbEntity
  8
OBJECT
100
AcDbLine
 10
3.654005999999999
 20
27.13465
 30
0.0
 11
3.654005999999999
 21
27.06465
 31
0.0
  0
LINE
  5
76E
330
1E
100
AcDbEntity
  8
OBJECT
100
AcDbLine
 10
3.654005999999999
 20
26.99165
 30
0.0
 11
3.654005999999999
 21
26.92165
 31
0.0
  0
LINE
  5
76F
330
1E
100
AcDbEntity
  8
OBJECT
100
AcDbLine
 10
3.654005999999999
 20
26.84865
 30
0.0
 11
3.654005999999999
 21
23.53665
 31
0.0
  0
LINE
  5
770
330
1E
100
AcDbEntity
  8
OBJECT
100
AcDbLine
 10
6.853902999999999
 20
27.65465
 30
0.0
 11
3.654005999999999
 21
27.65465
 31
0.0
  0
LINE
  5
771
330
1E
100
AcDbEntity
  8
HIDDEN
100
AcDbLine
 10
8.372005999999998
 20
27.06465
 30
0.0
 11
8.372005999999998
 21
26.99165
 31
0.0
  0
LINE
  5
772
330
1E
100
AcDbEntity
  8
HIDDEN
100
AcDbLine
 10
8.372005999999998
 20
26.84865
 30
0.0
 11
8.434006
 21
26.84865
 31
0.0
  0
LINE
  5
773
330
1E
100
AcDbEntity
  8
HIDDEN
100
AcDbLine
 10
8.372005999999998
 20
26.92165
 30
0.0
 11
8.434006
 21
26.92165
 31
0.0
  0
LINE
  5
774
330
1E
100
AcDbEntity
  8
HIDDEN
100
AcDbLine
 10
8.434006
 20
26.99165
 30
0.0
 11
8.434006
 21
26.92165
 31
0.0
  0
LINE
  5
775
330
1E
100
AcDbEntity
  8
HIDDEN
100
AcDbLine
 10
8.372005999999998
 20
26.99165
 30
0.0
 11
8.434006
 21
26.99165
 31
0.0
  0
LINE
  5
776
330
1E
100
AcDbEntity
  8
HIDDEN
100
AcDbLine
 10
8.372005999999998
 20
26.92165
 30
0.0
 11
8.372005999999998
 21
26.84865
 31
0.0
  0
LINE
  5
777
330
1E
100
AcDbEntity
  8
HIDDEN
100
AcDbLine
 10
8.434006
 20
27.51165
 30
0.0
 11
8.434006
 21
27.20765
 31
0.0
  0
LINE
  5
778
330
1E
100
AcDbEntity
  8
HIDDEN
100
AcDbLine
 10
8.372005999999998
 20
27.06465
 30
0.0
 11
8.434006
 21
27.06465
 31
0.0
  0
LINE
  5
779
330
1E
100
AcDbEntity
  8
HIDDEN
100
AcDbLine
 10
8.434006
 20
27.13465
 30
0.0
 11
8.434006
 21
27.06465
 31
0.0
  0
LINE
  5
77A
330
1E
100
AcDbEntity
  8
HIDDEN
100
AcDbLine
 10
8.372005999999998
 20
27.13465
 30
0.0
 11
8.434006
 21
27.13465
 31
0.0
  0
LINE
  5
77B
330
1E
100
AcDbEntity
  8
HIDDEN
100
AcDbLine
 10
8.372005999999998
 20
27.20765
 30
0.0
 11
8.434006
 21
27.20765
 31
0.0
  0
LINE
  5
77C
330
1E
100
AcDbEntity
  8
HIDDEN
100
AcDbLine
 10
8.372005999999998
 20
27.20765
 30
0.0
 11
8.372005999999998
 21
27.13465
 31
0.0
  0
LINE
  5
77D
330
1E
100
AcDbEntity
  8
OBJECT
100
AcDbLine
 10
3.716005999999999
 20
23.32065
 30
0.0
 11
3.716005999999999
 21
23.39365
 31
0.0
  0
LINE
  5
77E
330
1E
100
AcDbEntity
  8
OBJECT
100
AcDbLine
 10
3.716005999999999
 20
23.53665
 30
0.0
 11
3.654005999999999
 21
23.53665
 31
0.0
  0
LINE
  5
77F
330
1E
100
AcDbEntity
  8
OBJECT
100
AcDbLine
 10
3.716005999999999
 20
23.46365
 30
0.0
 11
3.654005999999999
 21
23.46365
 31
0.0
  0
LINE
  5
780
330
1E
100
AcDbEntity
  8
OBJECT
100
AcDbLine
 10
3.654005999999999
 20
23.39365
 30
0.0
 11
3.654005999999999
 21
23.46365
 31
0.0
  0
LINE
  5
781
330
1E
100
AcDbEntity
  8
OBJECT
100
AcDbLine
 10
3.716005999999999
 20
23.39365
 30
0.0
 11
3.654005999999999
 21
23.39365
 31
0.0
  0
LINE
  5
782
330
1E
100
AcDbEntity
  8
OBJECT
100
AcDbLine
 10
3.716005999999999
 20
23.46365
 30
0.0
 11
3.716005999999999
 21
23.53665
 31
0.0
  0
LINE
  5
783
330
1E
100
AcDbEntity
  8
OBJECT
100
AcDbLine
 10
3.654005999999999
 20
23.16965
 30
0.0
 11
3.654005999999999
 21
22.87365
 31
0.0
  0
LINE
  5
784
330
1E
100
AcDbEntity
  8
OBJECT
100
AcDbLine
 10
3.654005999999999
 20
22.80065
 30
0.0
 11
3.654005999999999
 21
22.73065
 31
0.0
  0
LINE
  5
785
330
1E
100
AcDbEntity
  8
OBJECT
100
AcDbLine
 10
3.654005999999999
 20
22.87365
 30
0.0
 11
3.654005999999999
 21
23.17765
 31
0.0
  0
LINE
  5
786
330
1E
100
AcDbEntity
  8
OBJECT
100
AcDbLine
 10
3.716005999999999
 20
23.32065
 30
0.0
 11
3.654005999999999
 21
23.32065
 31
0.0
  0
LINE
  5
787
330
1E
100
AcDbEntity
  8
OBJECT
100
AcDbLine
 10
3.654005999999999
 20
23.25064999999999
 30
0.0
 11
3.654005999999999
 21
23.32065
 31
0.0
  0
LINE
  5
788
330
1E
100
AcDbEntity
  8
OBJECT
100
AcDbLine
 10
3.716005999999999
 20
23.25064999999999
 30
0.0
 11
3.654005999999999
 21
23.25064999999999
 31
0.0
  0
LINE
  5
789
330
1E
100
AcDbEntity
  8
OBJECT
100
AcDbLine
 10
3.716005999999999
 20
23.17765
 30
0.0
 11
3.654005999999999
 21
23.17765
 31
0.0
  0
LINE
  5
78A
330
1E
100
AcDbEntity
  8
OBJECT
100
AcDbLine
 10
3.716005999999999
 20
23.17765
 30
0.0
 11
3.716005999999999
 21
23.25064999999999
 31
0.0
  0
LINE
  5
78B
330
1E
100
AcDbEntity
  8
OBJECT
100
AcDbLine
 10
3.716005999999999
 20
22.80065
 30
0.0
 11
3.716005999999999
 21
22.87365
 31
0.0
  0
LINE
  5
78C
330
1E
100
AcDbEntity
  8
OBJECT
100
AcDbLine
 10
7.029246
 20
22.73065
 30
0.0
 11
3.654005999999999
 21
22.73065
 31
0.0
  0
LINE
  5
78D
330
1E
100
AcDbEntity
  8
OBJECT
100
AcDbLine
 10
7.057717
 20
22.80065
 30
0.0
 11
3.654005999999999
 21
22.80065
 31
0.0
  0
LINE
  5
78E
330
1E
100
AcDbEntity
  8
OBJECT
100
AcDbLine
 10
7.085486
 20
22.87365
 30
0.0
 11
3.654005999999999
 21
22.87365
 31
0.0
  0
LINE
  5
78F
330
1E
100
AcDbEntity
  8
OBJECT
100
AcDbLine
 10
6.993236999999999
 20
22.68515
 30
0.0
 11
3.701005999999999
 21
22.68515
 31
0.0
  0
LINE
  5
790
330
1E
100
AcDbEntity
  8
HIDDEN
100
AcDbLine
 10
8.434006
 20
23.16965
 30
0.0
 11
8.434006
 21
22.87365
 31
0.0
  0
LINE
  5
791
330
1E
100
AcDbEntity
  8
HIDDEN
100
AcDbLine
 10
8.372005999999998
 20
23.53665
 30
0.0
 11
8.434006
 21
23.53665
 31
0.0
  0
LINE
  5
792
330
1E
100
AcDbEntity
  8
HIDDEN
100
AcDbLine
 10
8.372005999999998
 20
23.17765
 30
0.0
 11
8.372005999999998
 21
23.25064999999999
 31
0.0
  0
LINE
  5
793
330
1E
100
AcDbEntity
  8
HIDDEN
100
AcDbLine
 10
8.372005999999998
 20
23.17765
 30
0.0
 11
8.434006
 21
23.17765
 31
0.0
  0
LINE
  5
794
330
1E
100
AcDbEntity
  8
HIDDEN
100
AcDbLine
 10
8.372005999999998
 20
23.25064999999999
 30
0.0
 11
8.434006
 21
23.25064999999999
 31
0.0
  0
LINE
  5
795
330
1E
100
AcDbEntity
  8
HIDDEN
100
AcDbLine
 10
8.434006
 20
23.25064999999999
 30
0.0
 11
8.434006
 21
23.32065
 31
0.0
  0
LINE
  5
796
330
1E
100
AcDbEntity
  8
HIDDEN
100
AcDbLine
 10
8.372005999999998
 20
23.32065
 30
0.0
 11
8.434006
 21
23.32065
 31
0.0
  0
LINE
  5
797
330
1E
100
AcDbEntity
  8
HIDDEN
100
AcDbLine
 10
8.372005999999998
 20
23.46365
 30
0.0
 11
8.372005999999998
 21
23.53665
 31
0.0
  0
LINE
  5
798
330
1E
100
AcDbEntity
  8
HIDDEN
100
AcDbLine
 10
8.372005999999998
 20
23.39365
 30
0.0
 11
8.434006
 21
23.39365
 31
0.0
  0
LINE
  5
799
330
1E
100
AcDbEntity
  8
HIDDEN
100
AcDbLine
 10
8.434006
 20
23.39365
 30
0.0
 11
8.434006
 21
23.46365
 31
0.0
  0
LINE
  5
79A
330
1E
100
AcDbEntity
  8
HIDDEN
100
AcDbLine
 10
8.372005999999998
 20
23.46365
 30
0.0
 11
8.434006
 21
23.46365
 31
0.0
  0
LINE
  5
79B
330
1E
100
AcDbEntity
  8
HIDDEN
100
AcDbLine
 10
8.372005999999998
 20
23.32065
 30
0.0
 11
8.372005999999998
 21
23.39365
 31
0.0
  0
LINE
  5
79C
330
1E
100
AcDbEntity
  8
HIDDEN
100
AcDbLine
 10
8.434006
 20
26.84865
 30
0.0
 11
8.434006
 21
23.53665
 31
0.0
  0
LINE
  5
79D
330
1E
100
AcDbEntity
  8
HIDDEN
100
AcDbLine
 10
8.242005999999999
 20
25.53415
 30
0.0
 11
8.307005999999999
 21
25.53415
 31
0.0
  0
LINE
  5
79E
330
1E
100
AcDbEntity
  8
HIDDEN
100
AcDbLine
 10
8.242005999999999
 20
25.32614999999999
 30
0.0
 11
8.307005999999999
 21
25.32614999999999
 31
0.0
  0
LINE
  5
79F
330
1E
100
AcDbEntity
  8
HIDDEN
100
AcDbLine
 10
8.307005999999999
 20
25.62265
 30
0.0
 11
8.307005999999999
 21
25.23765
 31
0.0
  0
LINE
  5
7A0
330
1E
100
AcDbEntity
  8
HIDDEN
100
AcDbLine
 10
8.307005999999999
 20
25.62265
 30
0.0
 11
8.434006
 21
25.62265
 31
0.0
  0
LINE
  5
7A1
330
1E
100
AcDbEntity
  8
HIDDEN
100
AcDbLine
 10
8.307005999999999
 20
25.23765
 30
0.0
 11
8.434006
 21
25.23765
 31
0.0
  0
LINE
  5
7A2
330
1E
100
AcDbEntity
  8
HIDDEN
100
AcDbLine
 10
8.242005999999999
 20
25.68765
 30
0.0
 11
8.434006
 21
25.68765
 31
0.0
  0
LINE
  5
7A3
330
1E
100
AcDbEntity
  8
HIDDEN
100
AcDbLine
 10
8.242005999999999
 20
25.17265
 30
0.0
 11
8.434006
 21
25.17265
 31
0.0
  0
LINE
  5
7A4
330
1E
100
AcDbEntity
  8
HIDDEN
100
AcDbLine
 10
8.242005999999999
 20
25.68765
 30
0.0
 11
8.242005999999999
 21
25.17265
 31
0.0
  0
LINE
  5
7A5
330
1E
100
AcDbEntity
  8
OBJECT
100
AcDbLine
 10
6.943574
 20
22.622395
 30
0.0
 11
3.630751
 21
22.622395
 31
0.0
  0
LINE
  5
7A6
330
1E
100
AcDbEntity
  8
OBJECT
100
AcDbLine
 10
11.690281
 20
22.54297699999999
 30
0.0
 11
11.690281
 21
22.730977
 31
0.0
  0
LINE
  5
7A7
330
1E
100
AcDbEntity
  8
OBJECT
100
AcDbLine
 10
11.720281
 20
22.54297699999999
 30
0.0
 11
11.720281
 21
22.730977
 31
0.0
  0
LINE
  5
7A8
330
1E
100
AcDbEntity
  8
OBJECT
100
AcDbLine
 10
11.720281
 20
22.54297699999999
 30
0.0
 11
12.470281
 21
22.575723
 31
0.0
  0
LINE
  5
7A9
330
1E
100
AcDbEntity
  8
OBJECT
100
AcDbLine
 10
11.690281
 20
22.54297699999999
 30
0.0
 11
10.940281
 21
22.575723
 31
0.0
  0
LINE
  5
7AA
330
1E
100
AcDbEntity
  8
OBJECT
100
AcDbLine
 10
11.065281
 20
23.81797699999999
 30
0.0
 11
11.21528099999999
 21
23.81797699999999
 31
0.0
  0
LINE
  5
7AB
330
1E
100
AcDbEntity
  8
OBJECT
100
AcDbLine
 10
11.065281
 20
23.56797699999999
 30
0.0
 11
11.21528099999999
 21
23.56797699999999
 31
0.0
  0
LINE
  5
7AC
330
1E
100
AcDbEntity
  8
OBJECT
100
AcDbLine
 10
11.065281
 20
22.873977
 30
0.0
 11
11.690281
 21
22.873977
 31
0.0
  0
LINE
  5
7AD
330
1E
100
AcDbEntity
  8
OBJECT
100
AcDbLine
 10
11.05028099999999
 20
22.800977
 30
0.0
 11
12.360281
 21
22.800977
 31
0.0
  0
LINE
  5
7AE
330
1E
100
AcDbEntity
  8
OBJECT
100
AcDbLine
 10
11.05028099999999
 20
22.730977
 30
0.0
 11
12.360281
 21
22.730977
 31
0.0
  0
LINE
  5
7AF
330
1E
100
AcDbEntity
  8
OBJECT
100
AcDbLine
 10
11.097281
 20
22.685477
 30
0.0
 11
11.690281
 21
22.685477
 31
0.0
  0
LINE
  5
7B0
330
1E
100
AcDbEntity
  8
OBJECT
100
AcDbLine
 10
11.097281
 20
22.730977
 30
0.0
 11
11.097281
 21
22.685477
 31
0.0
  0
LINE
  5
7B1
330
1E
100
AcDbEntity
  8
OBJECT
100
AcDbLine
 10
8.465104
 20
22.575395
 30
0.0
 11
3.622908
 21
22.575395
 31
0.0
  0
LINE
  5
7B2
330
1E
100
AcDbEntity
  8
OBJECT
100
AcDbLine
 10
11.097281
 20
22.685477
 30
0.0
 11
11.030281
 21
22.622723
 31
0.0
  0
LINE
  5
7B3
330
1E
100
AcDbEntity
  8
OBJECT
100
AcDbLine
 10
11.690281
 20
22.59302499999999
 30
0.0
 11
11.030281
 21
22.621841
 31
0.0
  0
LINE
  5
7B4
330
1E
100
AcDbEntity
  8
OBJECT
100
AcDbLine
 10
11.690281
 20
22.556419
 30
0.0
 11
11.705281
 21
22.556419
 31
0.0
  0
LINE
  5
7B5
330
1E
100
AcDbEntity
  8
OBJECT
100
AcDbLine
 10
3.622908
 20
22.575395
 30
0.0
 11
3.630751
 21
22.622395
 31
0.0
  0
LINE
  5
7B6
330
1E
100
AcDbEntity
  8
OBJECT
100
AcDbLine
 10
3.701005999999999
 20
22.68515
 30
0.0
 11
3.594091
 21
22.58964999999999
 31
0.0
  0
LINE
  5
7B7
330
1E
100
AcDbEntity
  8
OBJECT
100
AcDbLine
 10
3.504005999999999
 20
22.54264999999999
 30
0.0
 11
3.594091
 21
22.54264999999999
 31
0.0
  0
LINE
  5
7B8
330
1E
100
AcDbEntity
  8
OBJECT
100
AcDbLine
 10
3.622908
 20
22.575395
 30
0.0
 11
3.594091
 21
22.54264999999999
 31
0.0
  0
LINE
  5
7B9
330
1E
100
AcDbEntity
  8
OBJECT
100
AcDbLine
 10
3.701005999999999
 20
22.73065
 30
0.0
 11
3.701005999999999
 21
22.68515
 31
0.0
  0
LINE
  5
7BA
330
1E
100
AcDbEntity
  8
OBJECT
100
AcDbLine
 10
3.594091
 20
22.54264999999999
 30
0.0
 11
3.594091
 21
22.58964999999999
 31
0.0
  0
LINE
  5
7BB
330
1E
100
AcDbEntity
  8
OBJECT
100
AcDbLine
 10
11.065281
 20
23.536977
 30
0.0
 11
11.690281
 21
23.536977
 31
0.0
  0
LINE
  5
7BC
330
1E
100
AcDbEntity
  8
OBJECT
100
AcDbLine
 10
11.065281
 20
23.463977
 30
0.0
 11
11.690281
 21
23.463977
 31
0.0
  0
LINE
  5
7BD
330
1E
100
AcDbEntity
  8
OBJECT
100
AcDbLine
 10
11.065281
 20
23.393977
 30
0.0
 11
11.690281
 21
23.393977
 31
0.0
  0
LINE
  5
7BE
330
1E
100
AcDbEntity
  8
OBJECT
100
AcDbLine
 10
11.065281
 20
23.32097699999999
 30
0.0
 11
11.690281
 21
23.32097699999999
 31
0.0
  0
LINE
  5
7BF
330
1E
100
AcDbEntity
  8
OBJECT
100
AcDbLine
 10
11.065281
 20
23.250977
 30
0.0
 11
11.690281
 21
23.250977
 31
0.0
  0
LINE
  5
7C0
330
1E
100
AcDbEntity
  8
OBJECT
100
AcDbLine
 10
11.065281
 20
23.17797699999999
 30
0.0
 11
11.690281
 21
23.17797699999999
 31
0.0
  0
LINE
  5
7C1
330
1E
100
AcDbEntity
  8
OBJECT
100
AcDbLine
 10
8.584006
 20
27.84264999999999
 30
0.0
 11
8.493919999999999
 21
27.84264999999999
 31
0.0
  0
LINE
  5
7C2
330
1E
100
AcDbEntity
  8
OBJECT
100
AcDbLine
 10
8.465104
 20
27.809904
 30
0.0
 11
3.622908
 21
27.809904
 31
0.0
  0
LINE
  5
7C3
330
1E
100
AcDbEntity
  8
OBJECT
100
AcDbLine
 10
6.813483999999999
 20
27.762904
 30
0.0
 11
3.630751
 21
27.762904
 31
0.0
  0
LINE
  5
7C4
330
1E
100
AcDbEntity
  8
OBJECT
100
AcDbLine
 10
3.622908
 20
27.809904
 30
0.0
 11
3.594091
 21
27.84264999999999
 31
0.0
  0
LINE
  5
7C5
330
1E
100
AcDbEntity
  8
OBJECT
100
AcDbLine
 10
3.701005999999999
 20
27.70015
 30
0.0
 11
3.594091
 21
27.79564999999999
 31
0.0
  0
LINE
  5
7C6
330
1E
100
AcDbEntity
  8
OBJECT
100
AcDbLine
 10
3.594091
 20
27.84264999999999
 30
0.0
 11
3.594091
 21
27.79564999999999
 31
0.0
  0
LINE
  5
7C7
330
1E
100
AcDbEntity
  8
OBJECT
100
AcDbLine
 10
3.504005999999999
 20
27.84264999999999
 30
0.0
 11
3.594091
 21
27.84264999999999
 31
0.0
  0
LINE
  5
7C8
330
1E
100
AcDbEntity
  8
OBJECT
100
AcDbLine
 10
3.701005999999999
 20
27.65465
 30
0.0
 11
3.701005999999999
 21
27.70015
 31
0.0
  0
LINE
  5
7C9
330
1E
100
AcDbEntity
  8
OBJECT
100
AcDbLine
 10
3.622908
 20
27.809904
 30
0.0
 11
3.630751
 21
27.762904
 31
0.0
  0
LINE
  5
7CA
330
1E
100
AcDbEntity
  8
OBJECT
100
AcDbLine
 10
12.345281
 20
23.56797699999999
 30
0.0
 11
12.195281
 21
23.56797699999999
 31
0.0
  0
LINE
  5
7CB
330
1E
100
AcDbEntity
  8
OBJECT
100
AcDbLine
 10
12.345281
 20
23.81797699999999
 30
0.0
 11
12.195281
 21
23.81797699999999
 31
0.0
  0
LINE
  5
7CC
330
1E
100
AcDbEntity
  8
OBJECT
100
AcDbLine
 10
12.195281
 20
23.56797699999999
 30
0.0
 11
12.195281
 21
23.81797699999999
 31
0.0
  0
LINE
  5
7CD
330
1E
100
AcDbEntity
  8
OBJECT
100
AcDbLine
 10
12.345281
 20
23.536977
 30
0.0
 11
11.720281
 21
23.536977
 31
0.0
  0
LINE
  5
7CE
330
1E
100
AcDbEntity
  8
OBJECT
100
AcDbLine
 10
12.345281
 20
23.463977
 30
0.0
 11
11.720281
 21
23.463977
 31
0.0
  0
LINE
  5
7CF
330
1E
100
AcDbEntity
  8
OBJECT
100
AcDbLine
 10
12.345281
 20
23.393977
 30
0.0
 11
11.720281
 21
23.393977
 31
0.0
  0
LINE
  5
7D0
330
1E
100
AcDbEntity
  8
OBJECT
100
AcDbLine
 10
12.345281
 20
23.250977
 30
0.0
 11
11.720281
 21
23.250977
 31
0.0
  0
LINE
  5
7D1
330
1E
100
AcDbEntity
  8
OBJECT
100
AcDbLine
 10
12.345281
 20
23.32097699999999
 30
0.0
 11
11.720281
 21
23.32097699999999
 31
0.0
  0
LINE
  5
7D2
330
1E
100
AcDbEntity
  8
OBJECT
100
AcDbLine
 10
12.345281
 20
23.17797699999999
 30
0.0
 11
11.720281
 21
23.17797699999999
 31
0.0
  0
LINE
  5
7D3
330
1E
100
AcDbEntity
  8
OBJECT
100
AcDbLine
 10
12.313281
 20
22.685477
 30
0.0
 11
12.380281
 21
22.622723
 31
0.0
  0
LINE
  5
7D4
330
1E
100
AcDbEntity
  8
OBJECT
100
AcDbLine
 10
12.380281
 20
22.572448
 30
0.0
 11
12.380281
 21
22.622723
 31
0.0
  0
LINE
  5
7D5
330
1E
100
AcDbEntity
  8
OBJECT
100
AcDbLine
 10
12.313281
 20
22.730977
 30
0.0
 11
12.313281
 21
22.685477
 31
0.0
  0
LINE
  5
7D6
330
1E
100
AcDbEntity
  8
OBJECT
100
AcDbLine
 10
12.360281
 20
22.730977
 30
0.0
 11
12.360281
 21
22.800977
 31
0.0
  0
LINE
  5
7D7
330
1E
100
AcDbEntity
  8
OBJECT
100
AcDbLine
 10
12.29828099999999
 20
22.800977
 30
0.0
 11
12.29828099999999
 21
22.873977
 31
0.0
  0
LINE
  5
7D8
330
1E
100
AcDbEntity
  8
OBJECT
100
AcDbLine
 10
11.720281
 20
22.59302499999999
 30
0.0
 11
12.380281
 21
22.621841
 31
0.0
  0
LINE
  5
7D9
330
1E
100
AcDbEntity
  8
OBJECT
100
AcDbLine
 10
12.313281
 20
22.685477
 30
0.0
 11
11.720281
 21
22.685477
 31
0.0
  0
LINE
  5
7DA
330
1E
100
AcDbEntity
  8
OBJECT
100
AcDbLine
 10
12.345281
 20
22.873977
 30
0.0
 11
11.720281
 21
22.873977
 31
0.0
  0
LINE
  5
7DB
330
1E
100
AcDbEntity
  8
OBJECT
100
AcDbLine
 10
11.690281
 20
25.05297699999999
 30
0.0
 11
11.690281
 21
27.84232199999999
 31
0.0
  0
LINE
  5
7DC
330
1E
100
AcDbEntity
  8
OBJECT
100
AcDbLine
 10
11.720281
 20
25.05297699999999
 30
0.0
 11
11.720281
 21
27.84232199999999
 31
0.0
  0
LINE
  5
7DD
330
1E
100
AcDbEntity
  8
HIDDEN
100
AcDbLine
 10
12.345281
 20
27.511977
 30
0.0
 11
11.720281
 21
27.511977
 31
0.0
  0
LINE
  5
7DE
330
1E
100
AcDbEntity
  8
HIDDEN
100
AcDbLine
 10
12.360281
 20
27.584977
 30
0.0
 11
11.720281
 21
27.584977
 31
0.0
  0
LINE
  5
7DF
330
1E
100
AcDbEntity
  8
HIDDEN
100
AcDbLine
 10
12.360281
 20
27.654977
 30
0.0
 11
11.720281
 21
27.654977
 31
0.0
  0
LINE
  5
7E0
330
1E
100
AcDbEntity
  8
HIDDEN
100
AcDbLine
 10
12.313281
 20
27.700477
 30
0.0
 11
11.720281
 21
27.700477
 31
0.0
  0
LINE
  5
7E1
330
1E
100
AcDbEntity
  8
HIDDEN
100
AcDbLine
 10
11.720281
 20
27.79293
 30
0.0
 11
12.380281
 21
27.764113
 31
0.0
  0
LINE
  5
7E2
330
1E
100
AcDbEntity
  8
HIDDEN
100
AcDbLine
 10
11.690281
 20
27.79293
 30
0.0
 11
11.030281
 21
27.764113
 31
0.0
  0
LINE
  5
7E3
330
1E
100
AcDbEntity
  8
HIDDEN
100
AcDbLine
 10
11.097281
 20
27.700477
 30
0.0
 11
11.690281
 21
27.700477
 31
0.0
  0
LINE
  5
7E4
330
1E
100
AcDbEntity
  8
HIDDEN
100
AcDbLine
 10
11.05028099999999
 20
27.654977
 30
0.0
 11
11.690281
 21
27.654977
 31
0.0
  0
LINE
  5
7E5
330
1E
100
AcDbEntity
  8
HIDDEN
100
AcDbLine
 10
11.05028099999999
 20
27.584977
 30
0.0
 11
11.690281
 21
27.584977
 31
0.0
  0
LINE
  5
7E6
330
1E
100
AcDbEntity
  8
HIDDEN
100
AcDbLine
 10
11.065281
 20
27.511977
 30
0.0
 11
11.690281
 21
27.511977
 31
0.0
  0
LINE
  5
7E7
330
1E
100
AcDbEntity
  8
HIDDEN
100
AcDbLine
 10
11.097281
 20
27.700477
 30
0.0
 11
11.030281
 21
27.763231
 31
0.0
  0
LINE
  5
7E8
330
1E
100
AcDbEntity
  8
HIDDEN
100
AcDbLine
 10
11.097281
 20
27.654977
 30
0.0
 11
11.097281
 21
27.700477
 31
0.0
  0
LINE
  5
7E9
330
1E
100
AcDbEntity
  8
HIDDEN
100
AcDbLine
 10
11.05028099999999
 20
27.654977
 30
0.0
 11
11.05028099999999
 21
27.584977
 31
0.0
  0
LINE
  5
7EA
330
1E
100
AcDbEntity
  8
HIDDEN
100
AcDbLine
 10
11.11228099999999
 20
27.584977
 30
0.0
 11
11.11228099999999
 21
27.511977
 31
0.0
  0
LINE
  5
7EB
330
1E
100
AcDbEntity
  8
HIDDEN
100
AcDbLine
 10
11.030281
 20
27.813506
 30
0.0
 11
11.030281
 21
27.763231
 31
0.0
  0
LINE
  5
7EC
330
1E
100
AcDbEntity
  8
OBJECT
100
AcDbLine
 10
11.690281
 20
27.82953499999999
 30
0.0
 11
11.705281
 21
27.82953499999999
 31
0.0
  0
LINE
  5
7ED
330
1E
100
AcDbEntity
  8
HIDDEN
100
AcDbLine
 10
12.29828099999999
 20
27.584977
 30
0.0
 11
12.29828099999999
 21
27.511977
 31
0.0
  0
LINE
  5
7EE
330
1E
100
AcDbEntity
  8
HIDDEN
100
AcDbLine
 10
12.360281
 20
27.654977
 30
0.0
 11
12.360281
 21
27.584977
 31
0.0
  0
LINE
  5
7EF
330
1E
100
AcDbEntity
  8
HIDDEN
100
AcDbLine
 10
12.313281
 20
27.654977
 30
0.0
 11
12.313281
 21
27.700477
 31
0.0
  0
LINE
  5
7F0
330
1E
100
AcDbEntity
  8
HIDDEN
100
AcDbLine
 10
12.380281
 20
27.813506
 30
0.0
 11
12.380281
 21
27.763231
 31
0.0
  0
LINE
  5
7F1
330
1E
100
AcDbEntity
  8
HIDDEN
100
AcDbLine
 10
12.313281
 20
27.700477
 30
0.0
 11
12.380281
 21
27.763231
 31
0.0
  0
LINE
  5
7F2
330
1E
100
AcDbEntity
  8
HIDDEN
100
AcDbLine
 10
12.345281
 20
27.207977
 30
0.0
 11
11.720281
 21
27.207977
 31
0.0
  0
LINE
  5
7F3
330
1E
100
AcDbEntity
  8
HIDDEN
100
AcDbLine
 10
12.345281
 20
27.064977
 30
0.0
 11
11.720281
 21
27.064977
 31
0.0
  0
LINE
  5
7F4
330
1E
100
AcDbEntity
  8
HIDDEN
100
AcDbLine
 10
12.345281
 20
27.134977
 30
0.0
 11
11.720281
 21
27.134977
 31
0.0
  0
LINE
  5
7F5
330
1E
100
AcDbEntity
  8
HIDDEN
100
AcDbLine
 10
12.345281
 20
26.991977
 30
0.0
 11
11.720281
 21
26.991977
 31
0.0
  0
LINE
  5
7F6
330
1E
100
AcDbEntity
  8
HIDDEN
100
AcDbLine
 10
12.345281
 20
26.921977
 30
0.0
 11
11.720281
 21
26.921977
 31
0.0
  0
LINE
  5
7F7
330
1E
100
AcDbEntity
  8
HIDDEN
100
AcDbLine
 10
12.345281
 20
26.848977
 30
0.0
 11
11.720281
 21
26.848977
 31
0.0
  0
LINE
  5
7F8
330
1E
100
AcDbEntity
  8
HIDDEN
100
AcDbLine
 10
11.065281
 20
27.207977
 30
0.0
 11
11.690281
 21
27.207977
 31
0.0
  0
LINE
  5
7F9
330
1E
100
AcDbEntity
  8
HIDDEN
100
AcDbLine
 10
11.065281
 20
27.134977
 30
0.0
 11
11.690281
 21
27.134977
 31
0.0
  0
LINE
  5
7FA
330
1E
100
AcDbEntity
  8
HIDDEN
100
AcDbLine
 10
11.065281
 20
27.064977
 30
0.0
 11
11.690281
 21
27.064977
 31
0.0
  0
LINE
  5
7FB
330
1E
100
AcDbEntity
  8
HIDDEN
100
AcDbLine
 10
11.065281
 20
26.991977
 30
0.0
 11
11.690281
 21
26.991977
 31
0.0
  0
LINE
  5
7FC
330
1E
100
AcDbEntity
  8
HIDDEN
100
AcDbLine
 10
11.065281
 20
26.921977
 30
0.0
 11
11.690281
 21
26.921977
 31
0.0
  0
LINE
  5
7FD
330
1E
100
AcDbEntity
  8
HIDDEN
100
AcDbLine
 10
11.065281
 20
26.848977
 30
0.0
 11
11.690281
 21
26.848977
 31
0.0
  0
LINE
  5
7FE
330
1E
100
AcDbEntity
  8
HIDDEN
100
AcDbLine
 10
11.065281
 20
26.817977
 30
0.0
 11
11.21528099999999
 21
26.817977
 31
0.0
  0
LINE
  5
7FF
330
1E
100
AcDbEntity
  8
HIDDEN
100
AcDbLine
 10
11.065281
 20
26.567977
 30
0.0
 11
11.21528099999999
 21
26.567977
 31
0.0
  0
LINE
  5
800
330
1E
100
AcDbEntity
  8
HIDDEN
100
AcDbLine
 10
11.21528099999999
 20
26.817977
 30
0.0
 11
11.21528099999999
 21
26.567977
 31
0.0
  0
LINE
  5
801
330
1E
100
AcDbEntity
  8
HIDDEN
100
AcDbLine
 10
12.195281
 20
26.817977
 30
0.0
 11
12.195281
 21
26.567977
 31
0.0
  0
LINE
  5
802
330
1E
100
AcDbEntity
  8
HIDDEN
100
AcDbLine
 10
12.345281
 20
26.567977
 30
0.0
 11
12.195281
 21
26.567977
 31
0.0
  0
LINE
  5
803
330
1E
100
AcDbEntity
  8
HIDDEN
100
AcDbLine
 10
12.345281
 20
26.817977
 30
0.0
 11
12.195281
 21
26.817977
 31
0.0
  0
LINE
  5
804
330
1E
100
AcDbEntity
  8
OBJECT
100
AcDbLine
 10
11.705281
 20
27.82953499999999
 30
0.0
 11
11.720281
 21
27.82953499999999
 31
0.0
  0
LINE
  5
805
330
1E
100
AcDbEntity
  8
OBJECT
100
AcDbLine
 10
11.705281
 20
22.556419
 30
0.0
 11
11.720281
 21
22.556419
 31
0.0
  0
POLYLINE
  5
806
330
1E
100
AcDbEntity
  8
OBJECT
100
AcDb2dPolyline
 66
     1
 10
0.0
 20
0.0
 30
0.0
 70
     4
 75
     6
  0
VERTEX
  5
807
330
806
100
AcDbEntity
  8
OBJECT
100
AcDbVertex
100
AcDb2dVertex
 10
6.795936
 20
27.809904
 30
0.0
 70
    16
  0
VERTEX
  5
808
330
806
100
AcDbEntity
  8
OBJECT
100
AcDbVertex
100
AcDb2dVertex
 10
6.795936
 20
27.809904
 30
0.0
 70
     8
  0
VERTEX
  5
809
330
806
100
AcDbEntity
  8
OBJECT
100
AcDbVertex
100
AcDb2dVertex
 10
6.924577999999999
 20
27.46535999999999
 30
0.0
 70
     8
  0
VERTEX
  5
80A
330
806
100
AcDbEntity
  8
OBJECT
100
AcDbVertex
100
AcDb2dVertex
 10
6.980646000000001
 20
27.164292
 30
0.0
 70
     8
  0
VERTEX
  5
80B
330
806
100
AcDbEntity
  8
OBJECT
100
AcDbVertex
100
AcDb2dVertex
 10
6.98015
 20
26.900653
 30
0.0
 70
     8
  0
VERTEX
  5
80C
330
806
100
AcDbEntity
  8
OBJECT
100
AcDbVertex
100
AcDb2dVertex
 10
6.939102
 20
26.66839799999999
 30
0.0
 70
     8
  0
VERTEX
  5
80D
330
806
100
AcDbEntity
  8
OBJECT
100
AcDbVertex
100
AcDb2dVertex
 10
6.873510999999999
 20
26.46147899999999
 30
0.0
 70
     8
  0
VERTEX
  5
80E
330
806
100
AcDbEntity
  8
OBJECT
100
AcDbVertex
100
AcDb2dVertex
 10
6.799386999999999
 20
26.27385
 30
0.0
 70
     8
  0
VERTEX
  5
80F
330
806
100
AcDbEntity
  8
OBJECT
100
AcDbVertex
100
AcDb2dVertex
 10
6.732742
 20
26.099464
 30
0.0
 70
     8
  0
VERTEX
  5
810
330
806
100
AcDbEntity
  8
OBJECT
100
AcDbVertex
100
AcDb2dVertex
 10
6.689583999999999
 20
25.932275
 30
0.0
 70
     8
  0
VERTEX
  5
811
330
806
100
AcDbEntity
  8
OBJECT
100
AcDbVertex
100
AcDb2dVertex
 10
6.681807
 20
25.767336
 30
0.0
 70
     8
  0
VERTEX
  5
812
330
806
100
AcDbEntity
  8
OBJECT
100
AcDbVertex
100
AcDb2dVertex
 10
6.704827
 20
25.604098
 30
0.0
 70
     8
  0
VERTEX
  5
813
330
806
100
AcDbEntity
  8
OBJECT
100
AcDbVertex
100
AcDb2dVertex
 10
6.749946
 20
25.44311099999999
 30
0.0
 70
     8
  0
VERTEX
  5
814
330
806
100
AcDbEntity
  8
OBJECT
100
AcDbVertex
100
AcDb2dVertex
 10
6.808463
 20
25.284929
 30
0.0
 70
     8
  0
VERTEX
  5
815
330
806
100
AcDbEntity
  8
OBJECT
100
AcDbVertex
100
AcDb2dVertex
 10
6.871677
 20
25.13009999999999
 30
0.0
 70
     8
  0
VERTEX
  5
816
330
806
100
AcDbEntity
  8
OBJECT
100
AcDbVertex
100
AcDb2dVertex
 10
6.930888999999999
 20
24.979177
 30
0.0
 70
     8
  0
VERTEX
  5
817
330
806
100
AcDbEntity
  8
OBJECT
100
AcDbVertex
100
AcDb2dVertex
 10
6.977397999999999
 20
24.83271
 30
0.0
 70
     8
  0
VERTEX
  5
818
330
806
100
AcDbEntity
  8
OBJECT
100
AcDbVertex
100
AcDb2dVertex
 10
7.002503999999999
 20
24.691251
 30
0.0
 70
     8
  0
VERTEX
  5
819
330
806
100
AcDbEntity
  8
OBJECT
100
AcDbVertex
100
AcDb2dVertex
 10
7.000304999999999
 20
24.55510999999999
 30
0.0
 70
     8
  0
VERTEX
  5
81A
330
806
100
AcDbEntity
  8
OBJECT
100
AcDbVertex
100
AcDb2dVertex
 10
6.976091999999999
 20
24.423642
 30
0.0
 70
     8
  0
VERTEX
  5
81B
330
806
100
AcDbEntity
  8
OBJECT
100
AcDbVertex
100
AcDb2dVertex
 10
6.937953999999999
 20
24.295959
 30
0.0
 70
     8
  0
VERTEX
  5
81C
330
806
100
AcDbEntity
  8
OBJECT
100
AcDbVertex
100
AcDb2dVertex
 10
6.893978999999998
 20
24.171175
 30
0.0
 70
     8
  0
VERTEX
  5
81D
330
806
100
AcDbEntity
  8
OBJECT
100
AcDbVertex
100
AcDb2dVertex
 10
6.852257999999999
 20
24.048404
 30
0.0
 70
     8
  0
VERTEX
  5
81E
330
806
100
AcDbEntity
  8
OBJECT
100
AcDbVertex
100
AcDb2dVertex
 10
6.820877999999999
 20
23.92675899999999
 30
0.0
 70
     8
  0
VERTEX
  5
81F
330
806
100
AcDbEntity
  8
OBJECT
100
AcDbVertex
100
AcDb2dVertex
 10
6.80793
 20
23.805354
 30
0.0
 70
     8
  0
VERTEX
  5
820
330
806
100
AcDbEntity
  8
OBJECT
100
AcDbVertex
100
AcDb2dVertex
 10
6.821500999999999
 20
23.683301
 30
0.0
 70
     8
  0
VERTEX
  5
821
330
806
100
AcDbEntity
  8
OBJECT
100
AcDbVertex
100
AcDb2dVertex
 10
6.865874999999999
 20
23.559712
 30
0.0
 70
     8
  0
VERTEX
  5
822
330
806
100
AcDbEntity
  8
OBJECT
100
AcDbVertex
100
AcDb2dVertex
 10
6.930105999999999
 20
23.433682
 30
0.0
 70
     8
  0
VERTEX
  5
823
330
806
100
AcDbEntity
  8
OBJECT
100
AcDbVertex
100
AcDb2dVertex
 10
6.999442
 20
23.30430199999999
 30
0.0
 70
     8
  0
VERTEX
  5
824
330
806
100
AcDbEntity
  8
OBJECT
100
AcDbVertex
100
AcDb2dVertex
 10
7.059130999999999
 20
23.17066599999999
 30
0.0
 70
     8
  0
VERTEX
  5
825
330
806
100
AcDbEntity
  8
OBJECT
100
AcDbVertex
100
AcDb2dVertex
 10
7.094421999999999
 20
23.031865
 30
0.0
 70
     8
  0
VERTEX
  5
826
330
806
100
AcDbEntity
  8
OBJECT
100
AcDbVertex
100
AcDb2dVertex
 10
7.090561
 20
22.886991
 30
0.0
 70
     8
  0
VERTEX
  5
827
330
806
100
AcDbEntity
  8
OBJECT
100
AcDbVertex
100
AcDb2dVertex
 10
7.032797
 20
22.735137
 30
0.0
 70
     8
  0
VERTEX
  5
828
330
806
100
AcDbEntity
  8
OBJECT
100
AcDbVertex
100
AcDb2dVertex
 10
6.906378
 20
22.575395
 30
0.0
 70
     8
  0
VERTEX
  5
829
330
806
100
AcDbEntity
  8
OBJECT
100
AcDbVertex
100
AcDb2dVertex
 10
7.249977
 20
26.827776
 30
0.0
 70
    16
  0
VERTEX
  5
82A
330
806
100
AcDbEntity
  8
OBJECT
100
AcDbVertex
100
AcDb2dVertex
 10
6.268266999999999
 20
25.920008
 30
0.0
 70
    16
  0
VERTEX
  5
82B
330
806
100
AcDbEntity
  8
OBJECT
100
AcDbVertex
100
AcDb2dVertex
 10
7.323605
 20
24.63195999999999
 30
0.0
 70
    16
  0
VERTEX
  5
82C
330
806
100
AcDbEntity
  8
OBJECT
100
AcDbVertex
100
AcDb2dVertex
 10
6.452336999999999
 20
23.699658
 30
0.0
 70
    16
  0
VERTEX
  5
82D
330
806
100
AcDbEntity
  8
OBJECT
100
AcDbVertex
100
AcDb2dVertex
 10
7.348147999999999
 20
23.012698
 30
0.0
 70
    16
  0
VERTEX
  5
82E
330
806
100
AcDbEntity
  8
OBJECT
100
AcDbVertex
100
AcDb2dVertex
 10
6.906378
 20
22.575395
 30
0.0
 70
    16
  0
SEQEND
  5
82F
330
806
100
AcDbEntity
  8
OBJECT
  0
LINE
  5
830
330
1E
100
AcDbEntity
  8
HIDDEN
100
AcDbLine
 10
8.465104
 20
22.575395
 30
0.0
 11
8.457259999999999
 21
22.622395
 31
0.0
  0
LINE
  5
831
330
1E
100
AcDbEntity
  8
HIDDEN
100
AcDbLine
 10
8.387005999999999
 20
22.73065
 30
0.0
 11
8.387005999999999
 21
22.68515
 31
0.0
  0
LINE
  5
832
330
1E
100
AcDbEntity
  8
HIDDEN
100
AcDbLine
 10
8.434006
 20
22.80065
 30
0.0
 11
8.434006
 21
22.73065
 31
0.0
  0
LINE
  5
833
330
1E
100
AcDbEntity
  8
HIDDEN
100
AcDbLine
 10
8.372005999999998
 20
22.80065
 30
0.0
 11
8.372005999999998
 21
22.87365
 31
0.0
  0
LINE
  5
834
330
1E
100
AcDbEntity
  8
HIDDEN
100
AcDbLine
 10
8.387005999999999
 20
22.68515
 30
0.0
 11
8.493919999999999
 21
22.58964999999999
 31
0.0
  0
LINE
  5
835
330
1E
100
AcDbEntity
  8
HIDDEN
100
AcDbLine
 10
8.465104
 20
22.575395
 30
0.0
 11
8.493919999999999
 21
22.54264999999999
 31
0.0
  0
LINE
  5
836
330
1E
100
AcDbEntity
  8
HIDDEN
100
AcDbLine
 10
8.493919999999999
 20
22.54264999999999
 30
0.0
 11
8.493919999999999
 21
22.58964999999999
 31
0.0
  0
LINE
  5
837
330
1E
100
AcDbEntity
  8
HIDDEN
100
AcDbLine
 10
8.387005999999999
 20
22.68515
 30
0.0
 11
6.993236999999999
 21
22.68515
 31
0.0
  0
LINE
  5
838
330
1E
100
AcDbEntity
  8
HIDDEN
100
AcDbLine
 10
8.457259999999999
 20
22.622395
 30
0.0
 11
6.943574
 21
22.622395
 31
0.0
  0
LINE
  5
839
330
1E
100
AcDbEntity
  8
HIDDEN
100
AcDbLine
 10
8.434006
 20
22.73065
 30
0.0
 11
7.029246
 21
22.73065
 31
0.0
  0
LINE
  5
83A
330
1E
100
AcDbEntity
  8
HIDDEN
100
AcDbLine
 10
8.434006
 20
22.80065
 30
0.0
 11
7.057717
 21
22.80065
 31
0.0
  0
LINE
  5
83B
330
1E
100
AcDbEntity
  8
HIDDEN
100
AcDbLine
 10
8.434006
 20
22.87365
 30
0.0
 11
7.085486
 21
22.87365
 31
0.0
  0
LINE
  5
83C
330
1E
100
AcDbEntity
  8
HIDDEN
100
AcDbLine
 10
8.387005999999999
 20
27.70015
 30
0.0
 11
6.836914999999999
 21
27.70015
 31
0.0
  0
LINE
  5
83D
330
1E
100
AcDbEntity
  8
HIDDEN
100
AcDbLine
 10
8.434006
 20
27.65465
 30
0.0
 11
6.853902999999999
 21
27.65465
 31
0.0
  0
LINE
  5
83E
330
1E
100
AcDbEntity
  8
HIDDEN
100
AcDbLine
 10
8.434006
 20
27.58465
 30
0.0
 11
6.880039
 21
27.58465
 31
0.0
  0
LINE
  5
83F
330
1E
100
AcDbEntity
  8
HIDDEN
100
AcDbLine
 10
8.434006
 20
27.51165
 30
0.0
 11
6.907294999999999
 21
27.51165
 31
0.0
  0
LINE
  5
840
330
1E
100
AcDbEntity
  8
HIDDEN
100
AcDbLine
 10
8.465104
 20
27.809904
 30
0.0
 11
8.457259999999999
 21
27.762904
 31
0.0
  0
LINE
  5
841
330
1E
100
AcDbEntity
  8
HIDDEN
100
AcDbLine
 10
8.387005999999999
 20
27.65465
 30
0.0
 11
8.387005999999999
 21
27.70015
 31
0.0
  0
LINE
  5
842
330
1E
100
AcDbEntity
  8
HIDDEN
100
AcDbLine
 10
8.434006
 20
27.58465
 30
0.0
 11
8.434006
 21
27.65465
 31
0.0
  0
LINE
  5
843
330
1E
100
AcDbEntity
  8
HIDDEN
100
AcDbLine
 10
8.372005999999998
 20
27.58465
 30
0.0
 11
8.372005999999998
 21
27.51165
 31
0.0
  0
LINE
  5
844
330
1E
100
AcDbEntity
  8
HIDDEN
100
AcDbLine
 10
8.387005999999999
 20
27.70015
 30
0.0
 11
8.493919999999999
 21
27.79564999999999
 31
0.0
  0
LINE
  5
845
330
1E
100
AcDbEntity
  8
HIDDEN
100
AcDbLine
 10
8.465104
 20
27.809904
 30
0.0
 11
8.493919999999999
 21
27.84264999999999
 31
0.0
  0
LINE
  5
846
330
1E
100
AcDbEntity
  8
HIDDEN
100
AcDbLine
 10
8.493919999999999
 20
27.84264999999999
 30
0.0
 11
8.493919999999999
 21
27.79564999999999
 31
0.0
  0
LINE
  5
847
330
1E
100
AcDbEntity
  8
HIDDEN
100
AcDbLine
 10
8.457259999999999
 20
27.762904
 30
0.0
 11
6.813483999999999
 21
27.762904
 31
0.0
  0
LINE
  5
848
330
1E
100
AcDbEntity
  8
OBJECT
100
AcDbLine
 10
8.113105
 20
27.40924899999999
 30
0.0
 11
6.935027
 21
27.40924899999999
 31
0.0
  0
LINE
  5
849
330
1E
100
AcDbEntity
  8
OBJECT
100
AcDbLine
 10
8.113105
 20
22.97605
 30
0.0
 11
8.113105
 21
27.40924899999999
 31
0.0
  0
LINE
  5
84A
330
1E
100
AcDbEntity
  8
OBJECT
100
AcDbLine
 10
8.113105
 20
22.97605
 30
0.0
 11
7.092933999999999
 21
22.97605
 31
0.0
  0
DIMENSION
  5
84B
330
1E
100
AcDbEntity
  8
DIM
100
AcDbDimension
  2
*D47
 10
6.219511999999999
 20
22.80065
 30
0.0
 11
6.219511999999996
 21
25.31784326393045
 31
0.0
 70
   160
 71
     5
 42
4.783999999999998
  3
STD
100
AcDbAlignedDimension
 13
6.248566999999999
 23
27.58465
 33
0.0
 14
6.248566999999999
 24
22.80065
 34
0.0
 50
90.0
100
AcDbRotatedDimension
  0
DIMENSION
  5
859
330
1E
100
AcDbEntity
  8
DIM
100
AcDbDimension
  2
*D48
 10
6.219511999999999
 20
22.54265
 30
0.0
 11
5.320136999999996
 21
21.82265
 31
0.0
 70
    32
 71
     5
 42
0.2579999999999991
  3
STD
100
AcDbAlignedDimension
 13
6.36563
 23
22.80065
 33
0.0
 14
8.493919999999999
 24
22.54264999999999
 34
0.0
 50
90.0
100
AcDbRotatedDimension
  0
LINE
  5
867
330
1E
100
AcDbEntity
  8
CENTER
100
AcDbLine
 10
8.800112
 20
25.43015
 30
0.0
 11
7.800055999999999
 21
25.43015
 31
0.0
  0
LINE
  5
868
330
1E
100
AcDbEntity
  8
OBJECT
100
AcDbLine
 10
3.537079
 20
18.74707699999999
 30
0.0
 11
8.550932000000001
 21
18.74707699999999
 31
0.0
  0
LINE
  5
869
330
1E
100
AcDbEntity
  8
OBJECT
100
AcDbLine
 10
8.550932000000001
 20
20.277077
 30
0.0
 11
3.537079
 21
20.277077
 31
0.0
  0
LINE
  5
86A
330
1E
100
AcDbEntity
  8
OBJECT
100
AcDbLine
 10
6.637716999999999
 20
20.15207699999999
 30
0.0
 11
3.653677999999999
 21
20.15207699999999
 31
0.0
  0
LINE
  5
86B
330
1E
100
AcDbEntity
  8
OBJECT
100
AcDbLine
 10
3.653677999999999
 20
18.87207699999999
 30
0.0
 11
6.512012
 21
18.87207699999999
 31
0.0
  0
LINE
  5
86C
330
1E
100
AcDbEntity
  8
OBJECT
100
AcDbLine
 10
3.503677999999999
 20
19.52707699999999
 30
0.0
 11
3.536423999999999
 21
20.277077
 31
0.0
  0
LINE
  5
86D
330
1E
100
AcDbEntity
  8
OBJECT
100
AcDbLine
 10
3.650678
 20
19.51207699999999
 30
0.0
 11
3.533678
 21
19.51207699999999
 31
0.0
  0
LINE
  5
86E
330
1E
100
AcDbEntity
  8
OBJECT
100
AcDbLine
 10
3.715678
 20
19.52707699999999
 30
0.0
 11
3.503677999999999
 21
19.52707699999999
 31
0.0
  0
LINE
  5
86F
330
1E
100
AcDbEntity
  8
OBJECT
100
AcDbLine
 10
3.715678
 20
19.49707699999999
 30
0.0
 11
3.503677999999999
 21
19.49707699999999
 31
0.0
  0
LINE
  5
870
330
1E
100
AcDbEntity
  8
OBJECT
100
AcDbLine
 10
3.503677999999999
 20
19.49707699999999
 30
0.0
 11
3.536423999999999
 21
18.74707699999999
 31
0.0
  0
LINE
  5
871
330
1E
100
AcDbEntity
  8
OBJECT
100
AcDbLine
 10
3.533678
 20
19.51207699999999
 30
0.0
 11
3.533678
 21
19.52707699999999
 31
0.0
  0
LINE
  5
872
330
1E
100
AcDbEntity
  8
OBJECT
100
AcDbLine
 10
3.533678
 20
19.51207699999999
 30
0.0
 11
3.533678
 21
19.49707699999999
 31
0.0
  0
LINE
  5
873
330
1E
100
AcDbEntity
  8
OBJECT
100
AcDbLine
 10
3.653677999999999
 20
19.49707699999999
 30
0.0
 11
3.653677999999999
 21
18.87207699999999
 31
0.0
  0
LINE
  5
874
330
1E
100
AcDbEntity
  8
OBJECT
100
AcDbLine
 10
3.963677999999999
 20
19.51207699999999
 30
0.0
 11
3.963677999999999
 21
18.87207699999999
 31
0.0
  0
LINE
  5
875
330
1E
100
AcDbEntity
  8
OBJECT
100
AcDbLine
 10
3.715678
 20
19.49707699999999
 30
0.0
 11
3.715678
 21
18.87207699999999
 31
0.0
  0
LINE
  5
876
330
1E
100
AcDbEntity
  8
OBJECT
100
AcDbLine
 10
4.113678
 20
18.87207699999999
 30
0.0
 11
4.113678
 21
19.02207699999999
 31
0.0
  0
LINE
  5
877
330
1E
100
AcDbEntity
  8
OBJECT
100
AcDbLine
 10
4.363678
 20
18.87207699999999
 30
0.0
 11
4.363678
 21
19.02207699999999
 31
0.0
  0
LINE
  5
878
330
1E
100
AcDbEntity
  8
OBJECT
100
AcDbLine
 10
4.363678
 20
19.02207699999999
 30
0.0
 11
4.113678
 21
19.02207699999999
 31
0.0
  0
LINE
  5
879
330
1E
100
AcDbEntity
  8
OBJECT
100
AcDbLine
 10
3.653677999999999
 20
20.15207699999999
 30
0.0
 11
3.653677999999999
 21
19.52707699999999
 31
0.0
  0
LINE
  5
87A
330
1E
100
AcDbEntity
  8
OBJECT
100
AcDbLine
 10
3.715678
 20
20.15207699999999
 30
0.0
 11
3.715678
 21
19.52707699999999
 31
0.0
  0
LINE
  5
87B
330
1E
100
AcDbEntity
  8
OBJECT
100
AcDbLine
 10
3.963677999999999
 20
20.15207699999999
 30
0.0
 11
3.963677999999999
 21
19.51207699999999
 31
0.0
  0
LINE
  5
87C
330
1E
100
AcDbEntity
  8
OBJECT
100
AcDbLine
 10
3.650678
 20
19.51207699999999
 30
0.0
 11
3.650678
 21
19.52707699999999
 31
0.0
  0
LINE
  5
87D
330
1E
100
AcDbEntity
  8
OBJECT
100
AcDbLine
 10
3.650678
 20
19.51207699999999
 30
0.0
 11
3.650678
 21
19.49707699999999
 31
0.0
  0
LINE
  5
87E
330
1E
100
AcDbEntity
  8
OBJECT
100
AcDbLine
 10
3.963677999999999
 20
19.51207699999999
 30
0.0
 11
3.715678
 21
19.51207699999999
 31
0.0
  0
LINE
  5
87F
330
1E
100
AcDbEntity
  8
OBJECT
100
AcDbLine
 10
4.363678
 20
20.002077
 30
0.0
 11
4.113678
 21
20.002077
 31
0.0
  0
LINE
  5
880
330
1E
100
AcDbEntity
  8
OBJECT
100
AcDbLine
 10
4.363678
 20
20.15207699999999
 30
0.0
 11
4.363678
 21
20.002077
 31
0.0
  0
LINE
  5
881
330
1E
100
AcDbEntity
  8
OBJECT
100
AcDbLine
 10
4.113678
 20
20.15207699999999
 30
0.0
 11
4.113678
 21
20.002077
 31
0.0
  0
LINE
  5
882
330
1E
100
AcDbEntity
  8
OBJECT
100
AcDbLine
 10
8.583677999999999
 20
19.52707699999999
 30
0.0
 11
8.550932000000001
 21
20.277077
 31
0.0
  0
LWPOLYLINE
  5
883
330
1E
100
AcDbEntity
  8
OBJECT
100
AcDbPolyline
 90
        5
 70
     0
 43
0.0
 10
6.523708
 20
18.74707699999999
 42
0.029871
 10
6.489891
 20
19.015503
 42
-0.095826
 10
6.49419
 20
19.72909599999999
 42
0.086457
 10
6.597364999999999
 20
19.86970099999999
 42
-0.02439
 10
6.661849
 20
20.277077
 42
2.462295
  0
LINE
  5
88A
330
1E
100
AcDbEntity
  8
OBJECT
100
AcDbLine
 10
6.515991999999999
 20
18.83707699999999
 30
0.0
 11
8.464775999999998
 21
18.83707699999999
 31
0.0
  0
LINE
  5
88B
330
1E
100
AcDbEntity
  8
OBJECT
100
AcDbLine
 10
8.464775999999998
 20
20.18707699999999
 30
0.0
 11
6.644080999999999
 21
20.18707699999999
 31
0.0
  0
LINE
  5
88C
330
1E
100
AcDbEntity
  8
OBJECT
100
AcDbLine
 10
6.510137
 20
18.88707699999999
 30
0.0
 11
8.386677999999999
 21
18.88707699999999
 31
0.0
  0
LINE
  5
88D
330
1E
100
AcDbEntity
  8
OBJECT
100
AcDbLine
 10
8.386677999999999
 20
20.13707699999999
 30
0.0
 11
6.635082
 21
20.13707699999999
 31
0.0
  0
LINE
  5
88E
330
1E
100
AcDbEntity
  8
OBJECT
100
AcDbLine
 10
8.386677999999999
 20
19.49707699999999
 30
0.0
 11
8.386677999999999
 21
18.88707699999999
 31
0.0
  0
LINE
  5
88F
330
1E
100
AcDbEntity
  8
OBJECT
100
AcDbLine
 10
8.493591999999999
 20
19.49707699999999
 30
0.0
 11
8.464775999999998
 21
18.83707699999999
 31
0.0
  0
LINE
  5
890
330
1E
100
AcDbEntity
  8
HIDDEN
100
AcDbLine
 10
8.123677999999999
 20
19.51207699999999
 30
0.0
 11
8.123677999999999
 21
18.88707699999999
 31
0.0
  0
LINE
  5
891
330
1E
100
AcDbEntity
  8
OBJECT
100
AcDbLine
 10
8.583677999999999
 20
19.49707699999999
 30
0.0
 11
8.550932000000001
 21
18.74707699999999
 31
0.0
  0
LINE
  5
892
330
1E
100
AcDbEntity
  8
HIDDEN
100
AcDbLine
 10
7.723677999999999
 20
19.02207699999999
 30
0.0
 11
7.973677999999999
 21
19.02207699999999
 31
0.0
  0
LINE
  5
893
330
1E
100
AcDbEntity
  8
HIDDEN
100
AcDbLine
 10
7.723677999999999
 20
18.88707699999999
 30
0.0
 11
7.723677999999999
 21
19.02207699999999
 31
0.0
  0
LINE
  5
894
330
1E
100
AcDbEntity
  8
HIDDEN
100
AcDbLine
 10
7.973677999999999
 20
18.88707699999999
 30
0.0
 11
7.973677999999999
 21
19.02207699999999
 31
0.0
  0
LINE
  5
895
330
1E
100
AcDbEntity
  8
HIDDEN
100
AcDbLine
 10
7.723677999999999
 20
20.002077
 30
0.0
 11
7.973677999999999
 21
20.002077
 31
0.0
  0
LINE
  5
896
330
1E
100
AcDbEntity
  8
HIDDEN
100
AcDbLine
 10
7.723677999999999
 20
20.13707699999999
 30
0.0
 11
7.723677999999999
 21
20.002077
 31
0.0
  0
LINE
  5
897
330
1E
100
AcDbEntity
  8
OBJECT
100
AcDbLine
 10
8.386677999999999
 20
20.13707699999999
 30
0.0
 11
8.386677999999999
 21
19.52707699999999
 31
0.0
  0
LINE
  5
898
330
1E
100
AcDbEntity
  8
OBJECT
100
AcDbLine
 10
8.493591999999999
 20
19.52707699999999
 30
0.0
 11
8.464775999999998
 21
20.18707699999999
 31
0.0
  0
LINE
  5
899
330
1E
100
AcDbEntity
  8
HIDDEN
100
AcDbLine
 10
8.123677999999999
 20
20.13707699999999
 30
0.0
 11
8.123677999999999
 21
19.51207699999999
 31
0.0
  0
LINE
  5
89A
330
1E
100
AcDbEntity
  8
HIDDEN
100
AcDbLine
 10
8.123677999999999
 20
19.51207699999999
 30
0.0
 11
8.371677999999999
 21
19.51207699999999
 31
0.0
  0
LINE
  5
89B
330
1E
100
AcDbEntity
  8
OBJECT
100
AcDbLine
 10
8.553677999999999
 20
19.51207699999999
 30
0.0
 11
8.553677999999999
 21
19.52707699999999
 31
0.0
  0
LINE
  5
89C
330
1E
100
AcDbEntity
  8
OBJECT
100
AcDbLine
 10
8.436678
 20
19.51207699999999
 30
0.0
 11
8.436678
 21
19.52707699999999
 31
0.0
  0
LINE
  5
89D
330
1E
100
AcDbEntity
  8
OBJECT
100
AcDbLine
 10
8.553677999999999
 20
19.51207699999999
 30
0.0
 11
8.553677999999999
 21
19.49707699999999
 31
0.0
  0
LINE
  5
89E
330
1E
100
AcDbEntity
  8
OBJECT
100
AcDbLine
 10
8.436678
 20
19.51207699999999
 30
0.0
 11
8.436678
 21
19.49707699999999
 31
0.0
  0
LINE
  5
89F
330
1E
100
AcDbEntity
  8
OBJECT
100
AcDbLine
 10
8.386677999999999
 20
19.49707699999999
 30
0.0
 11
8.583677999999999
 21
19.49707699999999
 31
0.0
  0
LINE
  5
8A0
330
1E
100
AcDbEntity
  8
OBJECT
100
AcDbLine
 10
8.386677999999999
 20
19.52707699999999
 30
0.0
 11
8.583677999999999
 21
19.52707699999999
 31
0.0
  0
LINE
  5
8A1
330
1E
100
AcDbEntity
  8
OBJECT
100
AcDbLine
 10
8.436678
 20
19.51207699999999
 30
0.0
 11
8.553677999999999
 21
19.51207699999999
 31
0.0
  0
LINE
  5
8A2
330
1E
100
AcDbEntity
  8
HIDDEN
100
AcDbLine
 10
7.973677999999999
 20
20.13707699999999
 30
0.0
 11
7.973677999999999
 21
20.002077
 31
0.0
  0
DIMENSION
  5
8A3
330
1E
100
AcDbEntity
  8
DIM
100
AcDbDimension
  2
*D49
 10
2.844585
 20
26.92165
 30
0.0
 11
1.976459999999995
 21
26.20165
 31
0.0
 70
    32
 71
     5
 42
0.0700000000000003
  3
STD
100
AcDbAlignedDimension
 13
3.654005999999999
 23
26.99165
 33
0.0
 14
3.654005999999999
 24
26.92165
 34
0.0
 50
90.0
100
AcDbRotatedDimension
  0
DIMENSION
  5
8B1
330
1E
100
AcDbEntity
  8
DIM
100
AcDbDimension
  2
*D50
 10
2.047777456601864
 20
27.58465
 30
0.0
 11
2.047777456601859
 21
27.35965
 31
0.0
 70
    32
 71
     5
 42
0.4499999999999993
  3
DIM
100
AcDbAlignedDimension
 13
3.654005999999999
 23
27.13465
 33
0.0
 14
3.654005999999999
 24
27.58465
 34
0.0
 50
90.0
100
AcDbRotatedDimension
  0
DIMENSION
  5
8BF
330
1E
100
AcDbEntity
  8
DIM
100
AcDbDimension
  2
*D51
 10
1.191487
 20
27.58465
 30
0.0
 11
1.191486999999995
 21
27.28815
 31
0.0
 70
    32
 71
     5
 42
0.593
  3
DIM
100
AcDbAlignedDimension
 13
3.534005999999999
 23
26.99165
 33
0.0
 14
3.654005999999999
 24
27.58465
 34
0.0
 50
90.0
100
AcDbRotatedDimension
  0
ARC
  5
8CD
330
1E
100
AcDbEntity
  8
OBJECT
100
AcDbCircle
 10
11.36365199999999
 20
20.10507699999999
 30
0.0
 40
0.062
100
AcDbArc
 50
90.0
 51
180.0
  0
ARC
  5
8CE
330
1E
100
AcDbEntity
  8
OBJECT
100
AcDbCircle
 10
15.989652
 20
20.10507699999999
 30
0.0
 40
0.062
100
AcDbArc
 50
0.0
 51
90.0
  0
ARC
  5
8CF
330
1E
100
AcDbEntity
  8
OBJECT
100
AcDbCircle
 10
15.989652
 20
18.91907699999999
 30
0.0
 40
0.062
100
AcDbArc
 50
270.0
 51
0.0
  0
ARC
  5
8D0
330
1E
100
AcDbEntity
  8
OBJECT
100
AcDbCircle
 10
11.36365199999999
 20
18.91907699999999
 30
0.0
 40
0.062
100
AcDbArc
 50
180.0
 51
270.0
  0
INSERT
  5
8D1
330
1E
100
AcDbEntity
  8
OBJECT
100
AcDbBlockReference
  2
*X0
 10
0.0
 20
0.0
 30
0.0
1001
ACAD
1000
HATCH
1002
{
1070
    16
1000
ANSI31
1040
0.75
1040
0.0
1002
}
  0
ARC
  5
8D2
330
1E
100
AcDbEntity
  8
OBJECT
100
AcDbCircle
 10
11.626887
 20
2.505736
 30
0.0
 40
0.062
100
AcDbArc
 50
90.0
 51
180.0
  0
ARC
  5
8D3
330
1E
100
AcDbEntity
  8
OBJECT
100
AcDbCircle
 10
17.492887
 20
2.505736
 30
0.0
 40
0.062
100
AcDbArc
 50
0.0
 51
90.0
  0
ARC
  5
8D4
330
1E
100
AcDbEntity
  8
OBJECT
100
AcDbCircle
 10
11.626887
 20
1.299736
 30
0.0
 40
0.062
100
AcDbArc
 50
180.0
 51
270.0
  0
ARC
  5
8D5
330
1E
100
AcDbEntity
  8
OBJECT
100
AcDbCircle
 10
17.492887
 20
1.299736
 30
0.0
 40
0.062
100
AcDbArc
 50
270.0
 51
0.0
  0
DIMENSION
  5
8D6
330
1E
100
AcDbEntity
  8
DIM
100
AcDbDimension
  2
*D52
 10
4.752351641504689
 20
26.69265
 30
0.0
 11
4.752351641504684
 21
25.31784326393045
 31
0.0
 70
   160
 71
     5
 42
3.0
  3
STD
100
AcDbAlignedDimension
 13
4.239005999999999
 23
23.69264999999999
 33
0.0
 14
4.239005999999999
 24
26.69265
 34
0.0
 50
90.0
100
AcDbRotatedDimension
  0
DIMENSION
  5
8E4
330
1E
100
AcDbEntity
  8
DIM
100
AcDbDimension
  2
*D53
 10
8.124005999999999
 20
24.61101138175661
 30
0.0
 11
5.597287456601892
 21
24.61101138175661
 31
0.0
 70
   160
 71
     5
 42
4.16
  3
STD
100
AcDbAlignedDimension
 13
3.964005999999999
 23
24.92265
 33
0.0
 14
8.124005999999999
 24
24.92265
 34
0.0
100
AcDbRotatedDimension
  0
INSERT
  5
8F2
330
1E
100
AcDbEntity
  8
OBJECT
100
AcDbBlockReference
  2
*X1
 10
0.0
 20
-0.093132
 30
0.0
1001
ACAD
1000
HATCH
1002
{
1070
    16
1000
ANSI31
1040
0.75
1040
0.0
1002
}
  0
INSERT
  5
8F3
330
1E
100
AcDbEntity
  8
OBJECT
100
AcDbBlockReference
  2
*X2
 10
0.0
 20
-0.093132
 30
0.0
1001
ACAD
1000
HATCH
1002
{
1070
    16
1000
ANSI31
1040
0.75
1040
1.570795999999999
1002
}
  0
LINE
  5
8F4
330
1E
100
AcDbEntity
  8
OBJECT
100
AcDbLine
 10
11.720281
 20
22.800977
 30
0.0
 11
11.720281
 21
24.792977
 31
0.0
  0
LINE
  5
8F5
330
1E
100
AcDbEntity
  8
OBJECT
100
AcDbLine
 10
11.705281
 20
22.800977
 30
0.0
 11
11.705281
 21
27.82953499999999
 31
0.0
  0
LINE
  5
8F6
330
1E
100
AcDbEntity
  8
OBJECT
100
AcDbLine
 10
11.690281
 20
22.800977
 30
0.0
 11
11.690281
 21
24.792977
 31
0.0
  0
INSERT
  5
8F7
330
1E
100
AcDbEntity
  8
OBJECT
100
AcDbBlockReference
  2
*X3
 10
0.0
 20
0.0
 30
0.0
1001
ACAD
1000
HATCH
1002
{
1070
    16
1000
ANSI31
1040
0.75
1040
0.0
1002
}
  0
INSERT
  5
8F8
330
1E
100
AcDbEntity
  8
OBJECT
100
AcDbBlockReference
  2
*X4
 10
0.0
 20
0.0
 30
0.0
1001
ACAD
1000
HATCH
1002
{
1070
    16
1000
ANSI31
1040
0.75
1040
1.570795999999999
1002
}
  0
LINE
  5
8F9
330
1E
100
AcDbEntity
  8
OBJECT
100
AcDbLine
 10
12.389863
 20
5.077023999999999
 30
0.0
 11
12.389863
 21
5.270459999999999
 31
0.0
  0
LINE
  5
8FA
330
1E
100
AcDbEntity
  8
OBJECT
100
AcDbLine
 10
12.419863
 20
5.077023999999999
 30
0.0
 11
12.419863
 21
5.270459999999999
 31
0.0
  0
LINE
  5
8FB
330
1E
100
AcDbEntity
  8
OBJECT
100
AcDbLine
 10
7.536216999999999
 20
5.370023999999999
 30
0.0
 11
3.40633
 21
5.370023999999999
 31
0.0
  0
LINE
  5
8FC
330
1E
100
AcDbEntity
  8
OBJECT
100
AcDbLine
 10
7.554871
 20
5.270023999999999
 30
0.0
 11
3.40633
 21
5.270023999999999
 31
0.0
  0
LINE
  5
8FD
330
1E
100
AcDbEntity
  8
OBJECT
100
AcDbLine
 10
3.47133
 20
6.106023999999999
 30
0.0
 11
3.47133
 21
6.044023999999999
 31
0.0
  0
LINE
  5
8FE
330
1E
100
AcDbEntity
  8
OBJECT
100
AcDbLine
 10
3.40633
 20
14.50402399999999
 30
0.0
 11
3.40633
 21
14.40402399999999
 31
0.0
  0
LINE
  5
8FF
330
1E
100
AcDbEntity
  8
OBJECT
100
AcDbLine
 10
8.386677999999999
 20
20.13707699999999
 30
0.0
 11
8.464775999999998
 21
20.18707699999999
 31
0.0
  0
LINE
  5
900
330
1E
100
AcDbEntity
  8
OBJECT
100
AcDbLine
 10
8.386677999999999
 20
18.88707699999999
 30
0.0
 11
8.464775999999998
 21
18.83707699999999
 31
0.0
  0
LINE
  5
901
330
1E
100
AcDbEntity
  8
OBJECT
100
AcDbLine
 10
9.373892999999998
 20
1.917736
 30
0.0
 11
9.58633
 21
1.917736
 31
0.0
  0
LINE
  5
902
330
1E
100
AcDbEntity
  8
OBJECT
100
AcDbLine
 10
9.373892999999998
 20
1.887736
 30
0.0
 11
9.58633
 21
1.887736
 31
0.0
  0
LINE
  5
903
330
1E
100
AcDbEntity
  8
OBJECT
100
AcDbLine
 10
9.496244
 20
1.887736
 30
0.0
 11
9.466991
 21
1.217736
 31
0.0
  0
LINE
  5
904
330
1E
100
AcDbEntity
  8
OBJECT
100
AcDbLine
 10
9.496244
 20
1.917736
 30
0.0
 11
9.466991
 21
2.587736
 31
0.0
  0
LINE
  5
905
330
1E
100
AcDbEntity
  8
OBJECT
100
AcDbLine
 10
9.373892999999998
 20
2.537736
 30
0.0
 11
9.466991
 21
2.587736
 31
0.0
  0
LINE
  5
906
330
1E
100
AcDbEntity
  8
OBJECT
100
AcDbLine
 10
9.373892999999998
 20
1.267735999999999
 30
0.0
 11
9.466991
 21
1.217736
 31
0.0
  0
LINE
  5
907
330
1E
100
AcDbEntity
  8
OBJECT
100
AcDbLine
 10
3.256984
 20
1.917736
 30
0.0
 11
3.468766
 21
1.917736
 31
0.0
  0
LINE
  5
908
330
1E
100
AcDbEntity
  8
OBJECT
100
AcDbLine
 10
3.256984
 20
1.887736
 30
0.0
 11
3.468766
 21
1.887736
 31
0.0
  0
LINE
  5
909
330
1E
100
AcDbEntity
  8
OBJECT
100
AcDbLine
 10
3.47133
 20
5.762023999999999
 30
0.0
 11
3.40633
 21
5.762023999999999
 31
0.0
  0
LINE
  5
90A
330
1E
100
AcDbEntity
  8
OBJECT
100
AcDbLine
 10
3.47133
 20
5.824023999999999
 30
0.0
 11
3.40633
 21
5.824023999999999
 31
0.0
  0
LINE
  5
90B
330
1E
100
AcDbEntity
  8
OBJECT
100
AcDbLine
 10
3.47133
 20
5.903023999999999
 30
0.0
 11
3.40633
 21
5.903023999999999
 31
0.0
  0
LINE
  5
90C
330
1E
100
AcDbEntity
  8
OBJECT
100
AcDbLine
 10
3.47133
 20
5.965023999999999
 30
0.0
 11
3.40633
 21
5.965023999999999
 31
0.0
  0
LINE
  5
90D
330
1E
100
AcDbEntity
  8
OBJECT
100
AcDbLine
 10
7.521266
 20
5.450023999999999
 30
0.0
 11
3.40633
 21
5.450023999999999
 31
0.0
  0
LINE
  5
90E
330
1E
100
AcDbEntity
  8
OBJECT
100
AcDbLine
 10
3.47133
 20
6.044023999999999
 30
0.0
 11
3.40633
 21
6.044023999999999
 31
0.0
  0
LINE
  5
90F
330
1E
100
AcDbEntity
  8
OBJECT
100
AcDbLine
 10
3.47133
 20
6.106023999999999
 30
0.0
 11
3.40633
 21
6.106023999999999
 31
0.0
  0
LINE
  5
910
330
1E
100
AcDbEntity
  8
OBJECT
100
AcDbLine
 10
3.47133
 20
5.965023999999999
 30
0.0
 11
3.47133
 21
5.903023999999999
 31
0.0
  0
LINE
  5
911
330
1E
100
AcDbEntity
  8
OBJECT
100
AcDbLine
 10
3.47133
 20
5.824023999999999
 30
0.0
 11
3.47133
 21
5.762023999999999
 31
0.0
  0
LINE
  5
912
330
1E
100
AcDbEntity
  8
OBJECT
100
AcDbLine
 10
3.47133
 20
5.450023999999999
 30
0.0
 11
3.47133
 21
5.370023999999999
 31
0.0
  0
LINE
  5
913
330
1E
100
AcDbEntity
  8
OBJECT
100
AcDbLine
 10
3.40633
 20
5.370023999999999
 30
0.0
 11
3.40633
 21
5.270023999999999
 31
0.0
  0
LINE
  5
914
330
1E
100
AcDbEntity
  8
OBJECT
100
AcDbLine
 10
3.40633
 20
6.044023999999999
 30
0.0
 11
3.40633
 21
5.965023999999999
 31
0.0
  0
LINE
  5
915
330
1E
100
AcDbEntity
  8
OBJECT
100
AcDbLine
 10
3.40633
 20
5.903023999999999
 30
0.0
 11
3.40633
 21
5.824023999999999
 31
0.0
  0
LINE
  5
916
330
1E
100
AcDbEntity
  8
OBJECT
100
AcDbLine
 10
3.40633
 20
5.762023999999999
 30
0.0
 11
3.40633
 21
5.450023999999999
 31
0.0
  0
LWPOLYLINE
  5
917
330
1E
100
AcDbEntity
  8
DIM
100
AcDbPolyline
 90
        4
 70
     0
 10
4.298303999999999
 20
26.802689
 40
0.0
 41
0.135
 10
4.432038999999999
 20
27.136927
 40
0.0
 41
0.0
 10
5.428955
 20
29.75953699999999
 40
0.0
 41
0.0
 10
5.788955
 20
29.75953699999999
 40
0.0
 41
0.0
  0
TEXT
  5
91D
330
1E
100
AcDbEntity
  8
DIM
100
AcDbText
 10
5.968955
 20
29.634537
 30
0.0
 40
0.25
  1
0.250 DIA. BOSS
 41
0.75
  7
TXT
 11
5.968955
 21
29.75953699999999
 31
0.0
100
AcDbText
 73
     2
  0
TEXT
  5
91E
330
1E
100
AcDbEntity
  8
DIM
100
AcDbText
 10
5.968955
 20
29.217871
 30
0.0
 40
0.25
  1
WITH 0.091 DIA. HOLE
 41
0.75
  7
TXT
 11
5.968955
 21
29.342871
 31
0.0
100
AcDbText
 73
     2
  0
TEXT
  5
91F
330
1E
100
AcDbEntity
  8
DIM
100
AcDbText
 10
5.968955
 20
28.809396
 30
0.0
 40
0.25
  1
(8) PLACES
 41
0.75
  7
TXT
 11
5.968955
 21
28.934396
 31
0.0
100
AcDbText
 73
     2
  0
LINE
  5
920
330
1E
100
AcDbEntity
  8
0
  6
ByBlock
 62
     0
100
AcDbLine
 10
16.12765199999999
 20
20.11207699999999
 30
0.0
 11
17.177914
 21
20.11207699999999
 31
0.0
  0
LINE
  5
921
330
1E
100
AcDbEntity
  8
0
  6
ByBlock
 62
     0
100
AcDbLine
 10
16.12765199999999
 20
18.912077
 30
0.0
 11
17.177914
 21
18.912077
 31
0.0
  0
LINE
  5
922
330
1E
100
AcDbEntity
  8
0
  6
ByBlock
 62
     0
100
AcDbLine
 10
16.991914
 20
20.47207699999999
 30
0.0
 11
16.991914
 21
20.83207699999999
 31
0.0
  0
LINE
  5
923
330
1E
100
AcDbEntity
  8
0
  6
ByBlock
 62
     0
100
AcDbLine
 10
16.991914
 20
18.552077
 30
0.0
 11
16.991914
 21
18.19207699999999
 31
0.0
  0
SOLID
  5
924
330
1E
100
AcDbEntity
  8
0
  6
ByBlock
 62
     0
100
AcDbTrace
 10
16.931914
 20
20.47207699999999
 30
0.0
 11
17.051914
 21
20.47207699999999
 31
0.0
 12
16.991914
 22
20.11207699999999
 32
0.0
 13
16.991914
 23
20.11207699999999
 33
0.0
  0
SOLID
  5
925
330
1E
100
AcDbEntity
  8
0
  6
ByBlock
 62
     0
100
AcDbTrace
 10
16.931914
 20
18.552077
 30
0.0
 11
17.051914
 21
18.552077
 31
0.0
 12
16.991914
 22
18.912077
 32
0.0
 13
16.991914
 23
18.912077
 33
0.0
  0
POINT
  5
926
330
1E
100
AcDbEntity
  8
DEFPOINTS
  6
ByBlock
 62
     0
100
AcDbPoint
 10
16.001652
 20
20.11207699999999
 30
0.0
  0
POINT
  5
927
330
1E
100
AcDbEntity
  8
DEFPOINTS
  6
ByBlock
 62
     0
100
AcDbPoint
 10
16.001652
 20
18.912077
 30
0.0
  0
POINT
  5
928
330
1E
100
AcDbEntity
  8
DEFPOINTS
  6
ByBlock
 62
     0
100
AcDbPoint
 10
16.991914
 20
18.912077
 30
0.0
  0
DIMENSION
  5
92A
330
1E
100
AcDbEntity
  8
DIM
100
AcDbDimension
  2
*D54
 10
5.242821921498915
 20
18.74707699999999
 30
0.0
 11
4.343446921498911
 21
18.027077
 31
0.0
 70
    32
 71
     5
 42
0.2750000000000021
  3
STD
100
AcDbAlignedDimension
 13
4.363678
 23
19.02207699999999
 33
0.0
 14
4.951692999999999
 24
18.74707699999999
 34
0.0
 50
90.0
100
AcDbRotatedDimension
  0
LWPOLYLINE
  5
938
330
1E
100
AcDbEntity
  8
DIM
100
AcDbPolyline
 90
        4
 70
     0
 10
11.316099
 20
20.14486
 40
0.0
 41
0.135
 10
11.17085499999999
 20
20.47426
 40
0.0
 41
0.0
 10
10.65372699999999
 20
21.608484
 40
0.0
 41
0.0
 10
10.293727
 20
21.608484
 40
0.0
 41
0.0
  0
TEXT
  5
93E
330
1E
100
AcDbEntity
  8
DIM
100
AcDbText
 10
8.988727
 20
21.483484
 30
0.0
 40
0.25
  1
0.062 R.
 41
0.75
  7
TXT
 72
     2
 11
10.113727
 21
21.608484
 31
0.0
100
AcDbText
 73
     2
  0
TEXT
  5
93F
330
1E
100
AcDbEntity
  8
DIM
100
AcDbText
 10
8.832477
 20
21.066817
 30
0.0
 40
0.25
  1
(4) PL'S.
 41
0.75
  7
TXT
 72
     2
 11
10.113727
 21
21.19181699999999
 31
0.0
100
AcDbText
 73
     2
  0
TEXT
  5
940
330
1E
100
AcDbEntity
  8
TEXT
100
AcDbText
 10
14.227451
 20
12.665063
 30
0.0
 40
0.25
  1
SUPPLIED WITH CASE FOR
 41
0.75
  7
TXT
100
AcDbText
  0
TEXT
  5
941
330
1E
100
AcDbEntity
  8
TEXT
100
AcDbText
 10
14.227451
 20
13.07127
 30
0.0
 40
0.25
  1
& FOUR (4) RUBBER FEET
 41
0.75
  7
TXT
100
AcDbText
  0
TEXT
  5
942
330
1E
100
AcDbEntity
  8
TEXT
100
AcDbText
 10
13.938744
 20
13.488687
 30
0.0
 40
0.25
  1
FOUR (4) #4 x 1.000" LG. SCREWS
 41
0.75
  7
TXT
100
AcDbText
  0
TEXT
  5
943
330
1E
100
AcDbEntity
  8
TEXT
100
AcDbText
 10
13.938744
 20
14.584572
 30
0.0
 40
0.25
  1
FINISH: DOUBLE-TEXTURED
 41
0.75
  7
TXT
100
AcDbText
  0
TEXT
  5
944
330
1E
100
AcDbEntity
  8
TEXT
100
AcDbText
 10
13.938744
 20
15.671682
 30
0.0
 40
0.25
  1
MATERIAL: IMPACT RESISTANT
 41
0.75
  7
TXT
100
AcDbText
  0
TEXT
  5
945
330
1E
100
AcDbEntity
  8
TEXT
100
AcDbText
 10
14.227451
 20
12.236434
 30
0.0
 40
0.25
  1
ASSEMBLY.
 41
0.75
  7
TXT
100
AcDbText
  0
TEXT
  5
946
330
1E
100
AcDbEntity
  8
TEXT
100
AcDbText
 10
14.257365
 20
14.158691
 30
0.0
 40
0.25
  1
PC BONE GRAY
 41
0.75
  7
TXT
100
AcDbText
  0
LINE
  5
947
330
1E
100
AcDbEntity
  8
0
  6
ByBlock
 62
     0
100
AcDbLine
 10
17.635887
 20
2.512735999999999
 30
0.0
 11
18.608779
 21
2.512735999999999
 31
0.0
  0
LINE
  5
948
330
1E
100
AcDbEntity
  8
0
  6
ByBlock
 62
     0
100
AcDbLine
 10
17.635887
 20
1.292736
 30
0.0
 11
18.608779
 21
1.292736
 31
0.0
  0
LINE
  5
949
330
1E
100
AcDbEntity
  8
0
  6
ByBlock
 62
     0
100
AcDbLine
 10
18.422779
 20
2.872736
 30
0.0
 11
18.422779
 21
3.232736
 31
0.0
  0
LINE
  5
94A
330
1E
100
AcDbEntity
  8
0
  6
ByBlock
 62
     0
100
AcDbLine
 10
18.422779
 20
0.932736
 30
0.0
 11
18.422779
 21
0.572736
 31
0.0
  0
SOLID
  5
94B
330
1E
100
AcDbEntity
  8
0
  6
ByBlock
 62
     0
100
AcDbTrace
 10
18.36277899999999
 20
2.872736
 30
0.0
 11
18.482779
 21
2.872736
 31
0.0
 12
18.422779
 22
2.512735999999999
 32
0.0
 13
18.422779
 23
2.512735999999999
 33
0.0
  0
SOLID
  5
94C
330
1E
100
AcDbEntity
  8
0
  6
ByBlock
 62
     0
100
AcDbTrace
 10
18.36277899999999
 20
0.932736
 30
0.0
 11
18.482779
 21
0.932736
 31
0.0
 12
18.422779
 22
1.292736
 32
0.0
 13
18.422779
 23
1.292736
 33
0.0
  0
POINT
  5
94D
330
1E
100
AcDbEntity
  8
DEFPOINTS
  6
ByBlock
 62
     0
100
AcDbPoint
 10
17.50988699999999
 20
2.512735999999999
 30
0.0
  0
POINT
  5
94E
330
1E
100
AcDbEntity
  8
DEFPOINTS
  6
ByBlock
 62
     0
100
AcDbPoint
 10
17.50988699999999
 20
1.292736
 30
0.0
  0
POINT
  5
94F
330
1E
100
AcDbEntity
  8
DEFPOINTS
  6
ByBlock
 62
     0
100
AcDbPoint
 10
18.422779
 20
1.292736
 30
0.0
  0
LWPOLYLINE
  5
950
330
1E
100
AcDbEntity
  8
DIM
100
AcDbPolyline
 90
        4
 70
     0
 10
4.283198
 20
13.26165299999999
 40
0.0
 41
0.135
 10
4.410446
 20
13.598414
 40
0.0
 41
0.0
 10
5.679262
 20
16.45749
 40
0.0
 41
0.0
 10
6.039261999999999
 20
16.45749
 40
0.0
 41
0.0
  0
TEXT
  5
956
330
1E
100
AcDbEntity
  8
DIM
100
AcDbText
 10
6.219262
 20
16.33249
 30
0.0
 40
0.25
  1
0.281 DIA. BOSS
 41
0.75
  7
TXT
 11
6.219262
 21
16.45749
 31
0.0
100
AcDbText
 73
     2
  0
TEXT
  5
957
330
1E
100
AcDbEntity
  8
DIM
100
AcDbText
 10
6.219262
 20
15.91582299999999
 30
0.0
 40
0.25
  1
WITH 0.091 DIA. HOLE
 41
0.75
  7
TXT
 11
6.219262
 21
16.04082299999999
 31
0.0
100
AcDbText
 73
     2
  0
TEXT
  5
958
330
1E
100
AcDbEntity
  8
DIM
100
AcDbText
 10
6.219262
 20
15.518523
 30
0.0
 40
0.25
  1
(12) PLACES
 41
0.75
  7
TXT
 11
6.219262
 21
15.643523
 31
0.0
100
AcDbText
 73
     2
  0
LWPOLYLINE
  5
959
330
1E
100
AcDbEntity
  8
DIM
100
AcDbPolyline
 90
        4
 70
     0
 10
11.57429999999999
 20
2.538577
 40
0.0
 41
0.135
 10
11.44041
 20
2.872752999999999
 40
0.0
 41
0.0
 10
10.915569
 20
4.182713999999999
 40
0.0
 41
0.0
 10
11.30192599999999
 20
4.182713999999999
 40
0.0
 41
0.0
  0
TEXT
  5
95F
330
1E
100
AcDbEntity
  8
DIM
100
AcDbText
 10
11.479841
 20
3.644519
 30
0.0
 40
0.25
  1
(4) PLACES
 41
0.75
  7
TXT
 11
11.479841
 21
3.769519
 31
0.0
100
AcDbText
 73
     2
  0
TEXT
  5
960
330
1E
100
AcDbEntity
  8
DIM
100
AcDbText
 10
11.479841
 20
4.061186
 30
0.0
 40
0.25
  1
0.062 R.
 41
0.75
  7
TXT
 11
11.479841
 21
4.186186
 31
0.0
100
AcDbText
 73
     2
  0
LINE
  5
961
330
1E
100
AcDbEntity
  8
OBJECT
100
AcDbLine
 10
3.47133
 20
8.265024
 30
0.0
 11
3.40633
 21
8.265024
 31
0.0
  0
LINE
  5
962
330
1E
100
AcDbEntity
  8
OBJECT
100
AcDbLine
 10
3.47133
 20
8.062024
 30
0.0
 11
3.40633
 21
8.062024
 31
0.0
  0
LINE
  5
963
330
1E
100
AcDbEntity
  8
OBJECT
100
AcDbLine
 10
3.47133
 20
8.124024
 30
0.0
 11
3.40633
 21
8.124024
 31
0.0
  0
LINE
  5
964
330
1E
100
AcDbEntity
  8
OBJECT
100
AcDbLine
 10
3.47133
 20
8.203024
 30
0.0
 11
3.40633
 21
8.203024
 31
0.0
  0
LINE
  5
965
330
1E
100
AcDbEntity
  8
OBJECT
100
AcDbLine
 10
3.47133
 20
8.124024
 30
0.0
 11
3.47133
 21
8.062024
 31
0.0
  0
LINE
  5
966
330
1E
100
AcDbEntity
  8
OBJECT
100
AcDbLine
 10
3.40633
 20
8.203024
 30
0.0
 11
3.40633
 21
8.124024
 31
0.0
  0
LINE
  5
967
330
1E
100
AcDbEntity
  8
OBJECT
100
AcDbLine
 10
3.47133
 20
8.265024
 30
0.0
 11
3.47133
 21
8.203024
 31
0.0
  0
LINE
  5
968
330
1E
100
AcDbEntity
  8
OBJECT
100
AcDbLine
 10
3.40633
 20
8.062024
 30
0.0
 11
3.40633
 21
6.106023999999999
 31
0.0
  0
LINE
  5
969
330
1E
100
AcDbEntity
  8
OBJECT
100
AcDbLine
 10
3.47133
 20
11.509024
 30
0.0
 11
3.47133
 21
11.571024
 31
0.0
  0
LINE
  5
96A
330
1E
100
AcDbEntity
  8
OBJECT
100
AcDbLine
 10
3.40633
 20
11.571024
 30
0.0
 11
3.40633
 21
11.650024
 31
0.0
  0
LINE
  5
96B
330
1E
100
AcDbEntity
  8
OBJECT
100
AcDbLine
 10
3.47133
 20
11.650024
 30
0.0
 11
3.47133
 21
11.712024
 31
0.0
  0
LINE
  5
96C
330
1E
100
AcDbEntity
  8
OBJECT
100
AcDbLine
 10
3.47133
 20
11.571024
 30
0.0
 11
3.40633
 21
11.571024
 31
0.0
  0
LINE
  5
96D
330
1E
100
AcDbEntity
  8
OBJECT
100
AcDbLine
 10
3.47133
 20
11.650024
 30
0.0
 11
3.40633
 21
11.650024
 31
0.0
  0
LINE
  5
96E
330
1E
100
AcDbEntity
  8
OBJECT
100
AcDbLine
 10
3.47133
 20
11.712024
 30
0.0
 11
3.40633
 21
11.712024
 31
0.0
  0
LINE
  5
96F
330
1E
100
AcDbEntity
  8
OBJECT
100
AcDbLine
 10
3.47133
 20
11.509024
 30
0.0
 11
3.40633
 21
11.509024
 31
0.0
  0
LINE
  5
970
330
1E
100
AcDbEntity
  8
OBJECT
100
AcDbLine
 10
3.40633
 20
13.73002399999999
 30
0.0
 11
3.40633
 21
13.809024
 31
0.0
  0
LINE
  5
971
330
1E
100
AcDbEntity
  8
OBJECT
100
AcDbLine
 10
3.47133
 20
13.809024
 30
0.0
 11
3.40633
 21
13.809024
 31
0.0
  0
LINE
  5
972
330
1E
100
AcDbEntity
  8
OBJECT
100
AcDbLine
 10
3.47133
 20
14.01202399999999
 30
0.0
 11
3.40633
 21
14.01202399999999
 31
0.0
  0
LINE
  5
973
330
1E
100
AcDbEntity
  8
OBJECT
100
AcDbLine
 10
3.47133
 20
13.950024
 30
0.0
 11
3.40633
 21
13.950024
 31
0.0
  0
LINE
  5
974
330
1E
100
AcDbEntity
  8
OBJECT
100
AcDbLine
 10
3.47133
 20
13.87102399999999
 30
0.0
 11
3.40633
 21
13.87102399999999
 31
0.0
  0
LINE
  5
975
330
1E
100
AcDbEntity
  8
OBJECT
100
AcDbLine
 10
3.47133
 20
13.950024
 30
0.0
 11
3.47133
 21
14.01202399999999
 31
0.0
  0
LINE
  5
976
330
1E
100
AcDbEntity
  8
OBJECT
100
AcDbLine
 10
3.40633
 20
13.87102399999999
 30
0.0
 11
3.40633
 21
13.950024
 31
0.0
  0
LINE
  5
977
330
1E
100
AcDbEntity
  8
OBJECT
100
AcDbLine
 10
3.47133
 20
13.809024
 30
0.0
 11
3.47133
 21
13.87102399999999
 31
0.0
  0
LINE
  5
978
330
1E
100
AcDbEntity
  8
OBJECT
100
AcDbLine
 10
3.47133
 20
13.668024
 30
0.0
 11
3.47133
 21
13.73002399999999
 31
0.0
  0
LINE
  5
979
330
1E
100
AcDbEntity
  8
OBJECT
100
AcDbLine
 10
3.47133
 20
13.73002399999999
 30
0.0
 11
3.40633
 21
13.73002399999999
 31
0.0
  0
LINE
  5
97A
330
1E
100
AcDbEntity
  8
OBJECT
100
AcDbLine
 10
3.47133
 20
13.668024
 30
0.0
 11
3.40633
 21
13.668024
 31
0.0
  0
LINE
  5
97B
330
1E
100
AcDbEntity
  8
OBJECT
100
AcDbLine
 10
3.40633
 20
14.01202399999999
 30
0.0
 11
3.40633
 21
14.32402399999999
 31
0.0
  0
LINE
  5
97C
330
1E
100
AcDbEntity
  8
OBJECT
100
AcDbLine
 10
3.40633
 20
11.509024
 30
0.0
 11
3.40633
 21
8.265024
 31
0.0
  0
LINE
  5
97D
330
1E
100
AcDbEntity
  8
OBJECT
100
AcDbLine
 10
3.40633
 20
13.668024
 30
0.0
 11
3.40633
 21
11.712024
 31
0.0
  0
LINE
  5
97E
330
1E
100
AcDbEntity
  8
OBJECT
100
AcDbLine
 10
9.466991
 20
5.106276999999999
 30
0.0
 11
3.375668
 21
5.106276999999999
 31
0.0
  0
LINE
  5
97F
330
1E
100
AcDbEntity
  8
HIDDEN
100
AcDbLine
 10
9.436329999999999
 20
6.044023999999999
 30
0.0
 11
9.436329999999999
 21
5.965023999999999
 31
0.0
  0
LINE
  5
980
330
1E
100
AcDbEntity
  8
HIDDEN
100
AcDbLine
 10
9.436329999999999
 20
5.903023999999999
 30
0.0
 11
9.436329999999999
 21
5.824023999999999
 31
0.0
  0
LINE
  5
981
330
1E
100
AcDbEntity
  8
HIDDEN
100
AcDbLine
 10
9.37133
 20
5.824023999999999
 30
0.0
 11
9.37133
 21
5.762023999999999
 31
0.0
  0
LINE
  5
982
330
1E
100
AcDbEntity
  8
HIDDEN
100
AcDbLine
 10
9.37133
 20
5.965023999999999
 30
0.0
 11
9.37133
 21
5.903023999999999
 31
0.0
  0
LINE
  5
983
330
1E
100
AcDbEntity
  8
HIDDEN
100
AcDbLine
 10
9.37133
 20
5.965023999999999
 30
0.0
 11
9.436329999999999
 21
5.965023999999999
 31
0.0
  0
LINE
  5
984
330
1E
100
AcDbEntity
  8
HIDDEN
100
AcDbLine
 10
9.37133
 20
5.903023999999999
 30
0.0
 11
9.436329999999999
 21
5.903023999999999
 31
0.0
  0
LINE
  5
985
330
1E
100
AcDbEntity
  8
HIDDEN
100
AcDbLine
 10
9.37133
 20
5.824023999999999
 30
0.0
 11
9.436329999999999
 21
5.824023999999999
 31
0.0
  0
LINE
  5
986
330
1E
100
AcDbEntity
  8
HIDDEN
100
AcDbLine
 10
9.37133
 20
5.762023999999999
 30
0.0
 11
9.436329999999999
 21
5.762023999999999
 31
0.0
  0
LINE
  5
987
330
1E
100
AcDbEntity
  8
HIDDEN
100
AcDbLine
 10
9.37133
 20
6.106023999999999
 30
0.0
 11
9.436329999999999
 21
6.106023999999999
 31
0.0
  0
LINE
  5
988
330
1E
100
AcDbEntity
  8
HIDDEN
100
AcDbLine
 10
9.37133
 20
6.044023999999999
 30
0.0
 11
9.436329999999999
 21
6.044023999999999
 31
0.0
  0
LINE
  5
989
330
1E
100
AcDbEntity
  8
HIDDEN
100
AcDbLine
 10
9.37133
 20
6.106023999999999
 30
0.0
 11
9.37133
 21
6.044023999999999
 31
0.0
  0
LINE
  5
98A
330
1E
100
AcDbEntity
  8
HIDDEN
100
AcDbLine
 10
9.436329999999999
 20
8.062024
 30
0.0
 11
9.436329999999999
 21
6.106023999999999
 31
0.0
  0
LINE
  5
98B
330
1E
100
AcDbEntity
  8
HIDDEN
100
AcDbLine
 10
9.37133
 20
5.450023999999999
 30
0.0
 11
9.37133
 21
5.370023999999999
 31
0.0
  0
LINE
  5
98C
330
1E
100
AcDbEntity
  8
HIDDEN
100
AcDbLine
 10
9.496244
 20
5.077023999999999
 30
0.0
 11
9.37133
 21
5.270023999999999
 31
0.0
  0
LINE
  5
98D
330
1E
100
AcDbEntity
  8
HIDDEN
100
AcDbLine
 10
9.436329999999999
 20
5.762023999999999
 30
0.0
 11
9.436329999999999
 21
5.450023999999999
 31
0.0
  0
LINE
  5
98E
330
1E
100
AcDbEntity
  8
HIDDEN
100
AcDbLine
 10
9.436329999999999
 20
5.370023999999999
 30
0.0
 11
9.436329999999999
 21
5.270023999999999
 31
0.0
  0
LINE
  5
98F
330
1E
100
AcDbEntity
  8
OBJECT
100
AcDbLine
 10
9.466991
 20
5.106276999999999
 30
0.0
 11
9.496244
 21
5.077023999999999
 31
0.0
  0
LINE
  5
990
330
1E
100
AcDbEntity
  8
HIDDEN
100
AcDbLine
 10
9.466991
 20
5.106276999999999
 30
0.0
 11
9.37133
 21
5.270023999999999
 31
0.0
  0
LINE
  5
991
330
1E
100
AcDbEntity
  8
OBJECT
100
AcDbLine
 10
3.256329999999999
 20
5.077023999999999
 30
0.0
 11
3.346415
 21
5.077023999999999
 31
0.0
  0
LINE
  5
992
330
1E
100
AcDbEntity
  8
OBJECT
100
AcDbLine
 10
3.375668
 20
5.106276999999999
 30
0.0
 11
3.47133
 21
5.270023999999999
 31
0.0
  0
LINE
  5
993
330
1E
100
AcDbEntity
  8
OBJECT
100
AcDbLine
 10
3.375668
 20
5.106276999999999
 30
0.0
 11
3.346415
 21
5.077023999999999
 31
0.0
  0
LINE
  5
994
330
1E
100
AcDbEntity
  8
OBJECT
100
AcDbLine
 10
3.346415
 20
5.077023999999999
 30
0.0
 11
3.47133
 21
5.270023999999999
 31
0.0
  0
LINE
  5
995
330
1E
100
AcDbEntity
  8
HIDDEN
100
AcDbLine
 10
9.37133
 20
8.265024
 30
0.0
 11
9.37133
 21
8.203024
 31
0.0
  0
LINE
  5
996
330
1E
100
AcDbEntity
  8
HIDDEN
100
AcDbLine
 10
9.436329999999999
 20
8.203024
 30
0.0
 11
9.436329999999999
 21
8.124024
 31
0.0
  0
LINE
  5
997
330
1E
100
AcDbEntity
  8
HIDDEN
100
AcDbLine
 10
9.37133
 20
8.124024
 30
0.0
 11
9.37133
 21
8.062024
 31
0.0
  0
LINE
  5
998
330
1E
100
AcDbEntity
  8
HIDDEN
100
AcDbLine
 10
9.37133
 20
8.203024
 30
0.0
 11
9.436329999999999
 21
8.203024
 31
0.0
  0
LINE
  5
999
330
1E
100
AcDbEntity
  8
HIDDEN
100
AcDbLine
 10
9.37133
 20
8.124024
 30
0.0
 11
9.436329999999999
 21
8.124024
 31
0.0
  0
LINE
  5
99A
330
1E
100
AcDbEntity
  8
HIDDEN
100
AcDbLine
 10
9.37133
 20
8.062024
 30
0.0
 11
9.436329999999999
 21
8.062024
 31
0.0
  0
LINE
  5
99B
330
1E
100
AcDbEntity
  8
HIDDEN
100
AcDbLine
 10
9.37133
 20
8.265024
 30
0.0
 11
9.436329999999999
 21
8.265024
 31
0.0
  0
LINE
  5
99C
330
1E
100
AcDbEntity
  8
HIDDEN
100
AcDbLine
 10
9.37133
 20
11.509024
 30
0.0
 11
9.436329999999999
 21
11.509024
 31
0.0
  0
LINE
  5
99D
330
1E
100
AcDbEntity
  8
HIDDEN
100
AcDbLine
 10
9.37133
 20
11.712024
 30
0.0
 11
9.436329999999999
 21
11.712024
 31
0.0
  0
LINE
  5
99E
330
1E
100
AcDbEntity
  8
HIDDEN
100
AcDbLine
 10
9.37133
 20
11.650024
 30
0.0
 11
9.436329999999999
 21
11.650024
 31
0.0
  0
LINE
  5
99F
330
1E
100
AcDbEntity
  8
HIDDEN
100
AcDbLine
 10
9.37133
 20
11.571024
 30
0.0
 11
9.436329999999999
 21
11.571024
 31
0.0
  0
LINE
  5
9A0
330
1E
100
AcDbEntity
  8
HIDDEN
100
AcDbLine
 10
9.37133
 20
11.650024
 30
0.0
 11
9.37133
 21
11.712024
 31
0.0
  0
LINE
  5
9A1
330
1E
100
AcDbEntity
  8
HIDDEN
100
AcDbLine
 10
9.436329999999999
 20
11.571024
 30
0.0
 11
9.436329999999999
 21
11.650024
 31
0.0
  0
LINE
  5
9A2
330
1E
100
AcDbEntity
  8
HIDDEN
100
AcDbLine
 10
9.37133
 20
11.509024
 30
0.0
 11
9.37133
 21
11.571024
 31
0.0
  0
LINE
  5
9A3
330
1E
100
AcDbEntity
  8
HIDDEN
100
AcDbLine
 10
9.37133
 20
13.809024
 30
0.0
 11
9.37133
 21
13.87102399999999
 31
0.0
  0
LINE
  5
9A4
330
1E
100
AcDbEntity
  8
HIDDEN
100
AcDbLine
 10
9.37133
 20
13.668024
 30
0.0
 11
9.436329999999999
 21
13.668024
 31
0.0
  0
LINE
  5
9A5
330
1E
100
AcDbEntity
  8
HIDDEN
100
AcDbLine
 10
9.37133
 20
13.73002399999999
 30
0.0
 11
9.436329999999999
 21
13.73002399999999
 31
0.0
  0
LINE
  5
9A6
330
1E
100
AcDbEntity
  8
HIDDEN
100
AcDbLine
 10
9.37133
 20
13.668024
 30
0.0
 11
9.37133
 21
13.73002399999999
 31
0.0
  0
LINE
  5
9A7
330
1E
100
AcDbEntity
  8
HIDDEN
100
AcDbLine
 10
9.37133
 20
13.809024
 30
0.0
 11
9.436329999999999
 21
13.809024
 31
0.0
  0
LINE
  5
9A8
330
1E
100
AcDbEntity
  8
HIDDEN
100
AcDbLine
 10
9.436329999999999
 20
13.73002399999999
 30
0.0
 11
9.436329999999999
 21
13.809024
 31
0.0
  0
LINE
  5
9A9
330
1E
100
AcDbEntity
  8
HIDDEN
100
AcDbLine
 10
9.436329999999999
 20
13.87102399999999
 30
0.0
 11
9.436329999999999
 21
13.950024
 31
0.0
  0
LINE
  5
9AA
330
1E
100
AcDbEntity
  8
HIDDEN
100
AcDbLine
 10
9.37133
 20
13.950024
 30
0.0
 11
9.37133
 21
14.01202399999999
 31
0.0
  0
LINE
  5
9AB
330
1E
100
AcDbEntity
  8
HIDDEN
100
AcDbLine
 10
9.37133
 20
13.87102399999999
 30
0.0
 11
9.436329999999999
 21
13.87102399999999
 31
0.0
  0
LINE
  5
9AC
330
1E
100
AcDbEntity
  8
HIDDEN
100
AcDbLine
 10
9.37133
 20
13.950024
 30
0.0
 11
9.436329999999999
 21
13.950024
 31
0.0
  0
LINE
  5
9AD
330
1E
100
AcDbEntity
  8
HIDDEN
100
AcDbLine
 10
9.37133
 20
14.01202399999999
 30
0.0
 11
9.436329999999999
 21
14.01202399999999
 31
0.0
  0
LINE
  5
9AE
330
1E
100
AcDbEntity
  8
HIDDEN
100
AcDbLine
 10
9.436329999999999
 20
11.509024
 30
0.0
 11
9.436329999999999
 21
8.265024
 31
0.0
  0
LINE
  5
9AF
330
1E
100
AcDbEntity
  8
HIDDEN
100
AcDbLine
 10
9.436329999999999
 20
13.668024
 30
0.0
 11
9.436329999999999
 21
11.712024
 31
0.0
  0
LINE
  5
9B0
330
1E
100
AcDbEntity
  8
HIDDEN
100
AcDbLine
 10
9.436329999999999
 20
14.50402399999999
 30
0.0
 11
9.436329999999999
 21
14.40402399999999
 31
0.0
  0
LINE
  5
9B1
330
1E
100
AcDbEntity
  8
HIDDEN
100
AcDbLine
 10
9.436329999999999
 20
14.01202399999999
 30
0.0
 11
9.436329999999999
 21
14.32402399999999
 31
0.0
  0
LINE
  5
9B2
330
1E
100
AcDbEntity
  8
HIDDEN
100
AcDbLine
 10
11.75486299999999
 20
11.650024
 30
0.0
 11
12.389863
 21
11.650024
 31
0.0
  0
LINE
  5
9B3
330
1E
100
AcDbEntity
  8
HIDDEN
100
AcDbLine
 10
11.75486299999999
 20
11.571024
 30
0.0
 11
12.389863
 21
11.571024
 31
0.0
  0
LINE
  5
9B4
330
1E
100
AcDbEntity
  8
HIDDEN
100
AcDbLine
 10
11.75486299999999
 20
11.509024
 30
0.0
 11
12.389863
 21
11.509024
 31
0.0
  0
LINE
  5
9B5
330
1E
100
AcDbEntity
  8
HIDDEN
100
AcDbLine
 10
13.054863
 20
11.509024
 30
0.0
 11
12.419863
 21
11.509024
 31
0.0
  0
LINE
  5
9B6
330
1E
100
AcDbEntity
  8
HIDDEN
100
AcDbLine
 10
13.054863
 20
11.571024
 30
0.0
 11
12.419863
 21
11.571024
 31
0.0
  0
LINE
  5
9B7
330
1E
100
AcDbEntity
  8
HIDDEN
100
AcDbLine
 10
13.054863
 20
11.650024
 30
0.0
 11
12.419863
 21
11.650024
 31
0.0
  0
LINE
  5
9B8
330
1E
100
AcDbEntity
  8
HIDDEN
100
AcDbLine
 10
13.054863
 20
11.712024
 30
0.0
 11
12.419863
 21
11.712024
 31
0.0
  0
LINE
  5
9B9
330
1E
100
AcDbEntity
  8
OBJECT
100
AcDbLine
 10
12.389863
 20
7.277024
 30
0.0
 11
12.389863
 21
14.697024
 31
0.0
  0
LINE
  5
9BA
330
1E
100
AcDbEntity
  8
OBJECT
100
AcDbLine
 10
12.419863
 20
7.277024
 30
0.0
 11
12.419863
 21
14.697024
 31
0.0
  0
LINE
  5
9BB
330
1E
100
AcDbEntity
  8
OBJECT
100
AcDbLine
 10
11.75486299999999
 20
8.203024
 30
0.0
 11
12.389863
 21
8.203024
 31
0.0
  0
LINE
  5
9BC
330
1E
100
AcDbEntity
  8
OBJECT
100
AcDbLine
 10
11.75486299999999
 20
8.124024
 30
0.0
 11
12.389863
 21
8.124024
 31
0.0
  0
LINE
  5
9BD
330
1E
100
AcDbEntity
  8
OBJECT
100
AcDbLine
 10
11.75486299999999
 20
8.062024
 30
0.0
 11
12.389863
 21
8.062024
 31
0.0
  0
LINE
  5
9BE
330
1E
100
AcDbEntity
  8
OBJECT
100
AcDbLine
 10
13.054863
 20
8.062024
 30
0.0
 11
12.419863
 21
8.062024
 31
0.0
  0
LINE
  5
9BF
330
1E
100
AcDbEntity
  8
OBJECT
100
AcDbLine
 10
13.054863
 20
8.124024
 30
0.0
 11
12.419863
 21
8.124024
 31
0.0
  0
LINE
  5
9C0
330
1E
100
AcDbEntity
  8
OBJECT
100
AcDbLine
 10
13.054863
 20
8.203024
 30
0.0
 11
12.419863
 21
8.203024
 31
0.0
  0
LINE
  5
9C1
330
1E
100
AcDbEntity
  8
OBJECT
100
AcDbLine
 10
13.054863
 20
8.265024
 30
0.0
 11
12.419863
 21
8.265024
 31
0.0
  0
LINE
  5
9C2
330
1E
100
AcDbEntity
  8
OBJECT
100
AcDbLine
 10
11.75486299999999
 20
6.044023999999999
 30
0.0
 11
12.389863
 21
6.044023999999999
 31
0.0
  0
LINE
  5
9C3
330
1E
100
AcDbEntity
  8
OBJECT
100
AcDbLine
 10
11.75486299999999
 20
5.965023999999999
 30
0.0
 11
12.389863
 21
5.965023999999999
 31
0.0
  0
LINE
  5
9C4
330
1E
100
AcDbEntity
  8
OBJECT
100
AcDbLine
 10
11.75486299999999
 20
5.903023999999999
 30
0.0
 11
12.389863
 21
5.903023999999999
 31
0.0
  0
LINE
  5
9C5
330
1E
100
AcDbEntity
  8
OBJECT
100
AcDbLine
 10
11.75486299999999
 20
5.824023999999999
 30
0.0
 11
12.389863
 21
5.824023999999999
 31
0.0
  0
LINE
  5
9C6
330
1E
100
AcDbEntity
  8
OBJECT
100
AcDbLine
 10
11.75486299999999
 20
5.762023999999999
 30
0.0
 11
12.389863
 21
5.762023999999999
 31
0.0
  0
LINE
  5
9C7
330
1E
100
AcDbEntity
  8
OBJECT
100
AcDbLine
 10
13.054863
 20
5.762023999999999
 30
0.0
 11
12.419863
 21
5.762023999999999
 31
0.0
  0
LINE
  5
9C8
330
1E
100
AcDbEntity
  8
OBJECT
100
AcDbLine
 10
13.054863
 20
5.824023999999999
 30
0.0
 11
12.419863
 21
5.824023999999999
 31
0.0
  0
LINE
  5
9C9
330
1E
100
AcDbEntity
  8
OBJECT
100
AcDbLine
 10
13.054863
 20
5.903023999999999
 30
0.0
 11
12.419863
 21
5.903023999999999
 31
0.0
  0
LINE
  5
9CA
330
1E
100
AcDbEntity
  8
OBJECT
100
AcDbLine
 10
13.054863
 20
5.965023999999999
 30
0.0
 11
12.419863
 21
5.965023999999999
 31
0.0
  0
LINE
  5
9CB
330
1E
100
AcDbEntity
  8
OBJECT
100
AcDbLine
 10
13.054863
 20
6.044023999999999
 30
0.0
 11
12.419863
 21
6.044023999999999
 31
0.0
  0
LINE
  5
9CC
330
1E
100
AcDbEntity
  8
OBJECT
100
AcDbLine
 10
13.054863
 20
6.106023999999999
 30
0.0
 11
12.419863
 21
6.106023999999999
 31
0.0
  0
LINE
  5
9CD
330
1E
100
AcDbEntity
  8
OBJECT
100
AcDbLine
 10
12.389863
 20
5.107024
 30
0.0
 11
12.404863
 21
5.107024
 31
0.0
  0
LINE
  5
9CE
330
1E
100
AcDbEntity
  8
OBJECT
100
AcDbLine
 10
12.419863
 20
5.107024
 30
0.0
 11
12.404863
 21
5.107024
 31
0.0
  0
LINE
  5
9CF
330
1E
100
AcDbEntity
  8
OBJECT
100
AcDbLine
 10
11.719863
 20
5.106276999999999
 30
0.0
 11
11.801863
 21
5.270459999999999
 31
0.0
  0
LINE
  5
9D0
330
1E
100
AcDbEntity
  8
OBJECT
100
AcDbLine
 10
12.419863
 20
5.370023999999999
 30
0.0
 11
12.419863
 21
6.997024
 31
0.0
  0
LINE
  5
9D1
330
1E
100
AcDbEntity
  8
OBJECT
100
AcDbLine
 10
12.389863
 20
5.370023999999999
 30
0.0
 11
12.389863
 21
6.997024
 31
0.0
  0
LINE
  5
9D2
330
1E
100
AcDbEntity
  8
OBJECT
100
AcDbLine
 10
12.404863
 20
5.370023999999999
 30
0.0
 11
12.404863
 21
14.66702399999999
 31
0.0
  0
LINE
  5
9D3
330
1E
100
AcDbEntity
  8
OBJECT
100
AcDbLine
 10
13.089863
 20
5.106276999999999
 30
0.0
 11
13.007863
 21
5.270459999999999
 31
0.0
  0
LINE
  5
9D4
330
1E
100
AcDbEntity
  8
OBJECT
100
AcDbLine
 10
13.069863
 20
5.270459999999999
 30
0.0
 11
13.069863
 21
5.370023999999999
 31
0.0
  0
LINE
  5
9D5
330
1E
100
AcDbEntity
  8
OBJECT
100
AcDbLine
 10
13.007863
 20
5.370023999999999
 30
0.0
 11
13.007863
 21
5.450023999999999
 31
0.0
  0
LINE
  5
9D6
330
1E
100
AcDbEntity
  8
OBJECT
100
AcDbLine
 10
13.054863
 20
5.450023999999999
 30
0.0
 11
12.419863
 21
5.450023999999999
 31
0.0
  0
LINE
  5
9D7
330
1E
100
AcDbEntity
  8
OBJECT
100
AcDbLine
 10
12.389863
 20
14.697024
 30
0.0
 11
11.629863
 21
14.663842
 31
0.0
  0
LINE
  5
9D8
330
1E
100
AcDbEntity
  8
HIDDEN
100
AcDbLine
 10
11.73986299999999
 20
14.50358699999999
 30
0.0
 11
13.069863
 21
14.50358699999999
 31
0.0
  0
LINE
  5
9D9
330
1E
100
AcDbEntity
  8
HIDDEN
100
AcDbLine
 10
11.73986299999999
 20
14.40402399999999
 30
0.0
 11
13.069863
 21
14.40402399999999
 31
0.0
  0
LINE
  5
9DA
330
1E
100
AcDbEntity
  8
HIDDEN
100
AcDbLine
 10
13.054863
 20
14.32402399999999
 30
0.0
 11
12.419863
 21
14.32402399999999
 31
0.0
  0
LINE
  5
9DB
330
1E
100
AcDbEntity
  8
HIDDEN
100
AcDbLine
 10
13.054863
 20
13.87102399999999
 30
0.0
 11
12.419863
 21
13.87102399999999
 31
0.0
  0
LINE
  5
9DC
330
1E
100
AcDbEntity
  8
HIDDEN
100
AcDbLine
 10
13.054863
 20
13.950024
 30
0.0
 11
12.419863
 21
13.950024
 31
0.0
  0
LINE
  5
9DD
330
1E
100
AcDbEntity
  8
HIDDEN
100
AcDbLine
 10
13.054863
 20
14.01202399999999
 30
0.0
 11
12.419863
 21
14.01202399999999
 31
0.0
  0
LINE
  5
9DE
330
1E
100
AcDbEntity
  8
HIDDEN
100
AcDbLine
 10
13.054863
 20
13.809024
 30
0.0
 11
12.419863
 21
13.809024
 31
0.0
  0
LINE
  5
9DF
330
1E
100
AcDbEntity
  8
OBJECT
100
AcDbLine
 10
12.419863
 20
14.697024
 30
0.0
 11
13.179863
 21
14.663842
 31
0.0
  0
LINE
  5
9E0
330
1E
100
AcDbEntity
  8
HIDDEN
100
AcDbLine
 10
11.75486299999999
 20
14.32402399999999
 30
0.0
 11
12.389863
 21
14.32402399999999
 31
0.0
  0
LINE
  5
9E1
330
1E
100
AcDbEntity
  8
HIDDEN
100
AcDbLine
 10
11.75486299999999
 20
14.01202399999999
 30
0.0
 11
12.389863
 21
14.01202399999999
 31
0.0
  0
LINE
  5
9E2
330
1E
100
AcDbEntity
  8
HIDDEN
100
AcDbLine
 10
11.75486299999999
 20
13.950024
 30
0.0
 11
12.389863
 21
13.950024
 31
0.0
  0
LINE
  5
9E3
330
1E
100
AcDbEntity
  8
HIDDEN
100
AcDbLine
 10
11.75486299999999
 20
13.87102399999999
 30
0.0
 11
12.389863
 21
13.87102399999999
 31
0.0
  0
LINE
  5
9E4
330
1E
100
AcDbEntity
  8
HIDDEN
100
AcDbLine
 10
11.75486299999999
 20
13.809024
 30
0.0
 11
12.389863
 21
13.809024
 31
0.0
  0
LINE
  5
9E5
330
1E
100
AcDbEntity
  8
HIDDEN
100
AcDbLine
 10
11.73986299999999
 20
14.50358699999999
 30
0.0
 11
11.73986299999999
 21
14.40402399999999
 31
0.0
  0
LINE
  5
9E6
330
1E
100
AcDbEntity
  8
HIDDEN
100
AcDbLine
 10
11.719863
 20
14.66777099999999
 30
0.0
 11
11.801863
 21
14.50358699999999
 31
0.0
  0
LINE
  5
9E7
330
1E
100
AcDbEntity
  8
HIDDEN
100
AcDbLine
 10
11.801863
 20
14.40402399999999
 30
0.0
 11
11.801863
 21
14.32402399999999
 31
0.0
  0
LINE
  5
9E8
330
1E
100
AcDbEntity
  8
OBJECT
100
AcDbLine
 10
12.404863
 20
14.66702399999999
 30
0.0
 11
12.404863
 21
14.50358699999999
 31
0.0
  0
LINE
  5
9E9
330
1E
100
AcDbEntity
  8
OBJECT
100
AcDbLine
 10
12.389863
 20
14.697024
 30
0.0
 11
12.389863
 21
14.50358699999999
 31
0.0
  0
LINE
  5
9EA
330
1E
100
AcDbEntity
  8
OBJECT
100
AcDbLine
 10
12.419863
 20
14.697024
 30
0.0
 11
12.419863
 21
14.50358699999999
 31
0.0
  0
LINE
  5
9EB
330
1E
100
AcDbEntity
  8
OBJECT
100
AcDbLine
 10
12.419863
 20
14.66702399999999
 30
0.0
 11
12.404863
 21
14.66702399999999
 31
0.0
  0
LINE
  5
9EC
330
1E
100
AcDbEntity
  8
OBJECT
100
AcDbLine
 10
12.389863
 20
14.66702399999999
 30
0.0
 11
12.404863
 21
14.66702399999999
 31
0.0
  0
LINE
  5
9ED
330
1E
100
AcDbEntity
  8
HIDDEN
100
AcDbLine
 10
13.069863
 20
14.50358699999999
 30
0.0
 11
13.069863
 21
14.40402399999999
 31
0.0
  0
LINE
  5
9EE
330
1E
100
AcDbEntity
  8
HIDDEN
100
AcDbLine
 10
13.089863
 20
14.66777099999999
 30
0.0
 11
13.007863
 21
14.50358699999999
 31
0.0
  0
LINE
  5
9EF
330
1E
100
AcDbEntity
  8
HIDDEN
100
AcDbLine
 10
13.007863
 20
14.40402399999999
 30
0.0
 11
13.007863
 21
14.32402399999999
 31
0.0
  0
LINE
  5
9F0
330
1E
100
AcDbEntity
  8
HIDDEN
100
AcDbLine
 10
13.054863
 20
13.668024
 30
0.0
 11
12.419863
 21
13.668024
 31
0.0
  0
LINE
  5
9F1
330
1E
100
AcDbEntity
  8
HIDDEN
100
AcDbLine
 10
13.054863
 20
13.73002399999999
 30
0.0
 11
12.419863
 21
13.73002399999999
 31
0.0
  0
LINE
  5
9F2
330
1E
100
AcDbEntity
  8
HIDDEN
100
AcDbLine
 10
11.75486299999999
 20
13.73002399999999
 30
0.0
 11
12.389863
 21
13.73002399999999
 31
0.0
  0
LINE
  5
9F3
330
1E
100
AcDbEntity
  8
HIDDEN
100
AcDbLine
 10
11.75486299999999
 20
13.668024
 30
0.0
 11
12.389863
 21
13.668024
 31
0.0
  0
LINE
  5
9F4
330
1E
100
AcDbEntity
  8
OBJECT
100
AcDbLine
 10
9.466991
 20
14.66777099999999
 30
0.0
 11
3.375668
 21
14.66777099999999
 31
0.0
  0
LINE
  5
9F5
330
1E
100
AcDbEntity
  8
OBJECT
100
AcDbLine
 10
7.763077
 20
14.50402399999999
 30
0.0
 11
3.40633
 21
14.50402399999999
 31
0.0
  0
LINE
  5
9F6
330
1E
100
AcDbEntity
  8
OBJECT
100
AcDbLine
 10
7.770303999999999
 20
14.40402399999999
 30
0.0
 11
3.40633
 21
14.40402399999999
 31
0.0
  0
LINE
  5
9F7
330
1E
100
AcDbEntity
  8
OBJECT
100
AcDbLine
 10
7.771749
 20
14.32402399999999
 30
0.0
 11
3.40633
 21
14.32402399999999
 31
0.0
  0
LINE
  5
9F8
330
1E
100
AcDbEntity
  8
OBJECT
100
AcDbLine
 10
3.346415
 20
14.697024
 30
0.0
 11
3.47133
 21
14.50402399999999
 31
0.0
  0
LINE
  5
9F9
330
1E
100
AcDbEntity
  8
OBJECT
100
AcDbLine
 10
3.375668
 20
14.66777099999999
 30
0.0
 11
3.47133
 21
14.50402399999999
 31
0.0
  0
LINE
  5
9FA
330
1E
100
AcDbEntity
  8
OBJECT
100
AcDbLine
 10
3.375668
 20
14.66777099999999
 30
0.0
 11
3.346415
 21
14.697024
 31
0.0
  0
LINE
  5
9FB
330
1E
100
AcDbEntity
  8
OBJECT
100
AcDbLine
 10
3.256329999999999
 20
14.697024
 30
0.0
 11
3.346415
 21
14.697024
 31
0.0
  0
LINE
  5
9FC
330
1E
100
AcDbEntity
  8
OBJECT
100
AcDbLine
 10
3.40633
 20
14.40402399999999
 30
0.0
 11
3.40633
 21
14.50402399999999
 31
0.0
  0
LINE
  5
9FD
330
1E
100
AcDbEntity
  8
OBJECT
100
AcDbLine
 10
3.47133
 20
14.32402399999999
 30
0.0
 11
3.47133
 21
14.40402399999999
 31
0.0
  0
LINE
  5
9FE
330
1E
100
AcDbEntity
  8
HIDDEN
100
AcDbLine
 10
9.436329999999999
 20
14.40402399999999
 30
0.0
 11
9.436329999999999
 21
14.50402399999999
 31
0.0
  0
LINE
  5
9FF
330
1E
100
AcDbEntity
  8
OBJECT
100
AcDbLine
 10
9.58633
 20
14.697024
 30
0.0
 11
9.496244
 21
14.697024
 31
0.0
  0
LINE
  5
A00
330
1E
100
AcDbEntity
  8
HIDDEN
100
AcDbLine
 10
9.466991
 20
14.66777099999999
 30
0.0
 11
9.37133
 21
14.50402399999999
 31
0.0
  0
LINE
  5
A01
330
1E
100
AcDbEntity
  8
OBJECT
100
AcDbLine
 10
9.466991
 20
14.66777099999999
 30
0.0
 11
9.496244
 21
14.697024
 31
0.0
  0
LINE
  5
A02
330
1E
100
AcDbEntity
  8
HIDDEN
100
AcDbLine
 10
9.496244
 20
14.697024
 30
0.0
 11
9.37133
 21
14.50402399999999
 31
0.0
  0
LINE
  5
A03
330
1E
100
AcDbEntity
  8
HIDDEN
100
AcDbLine
 10
9.37133
 20
14.32402399999999
 30
0.0
 11
9.37133
 21
14.40402399999999
 31
0.0
  0
LINE
  5
A04
330
1E
100
AcDbEntity
  8
OBJECT
100
AcDbLine
 10
3.40633
 20
14.32402399999999
 30
0.0
 11
3.40633
 21
14.01202399999999
 31
0.0
  0
LINE
  5
A05
330
1E
100
AcDbEntity
  8
HIDDEN
100
AcDbLine
 10
9.436329999999999
 20
14.32402399999999
 30
0.0
 11
9.436329999999999
 21
14.01202399999999
 31
0.0
  0
LWPOLYLINE
  5
A06
330
1E
100
AcDbEntity
  8
OBJECT
100
AcDbPolyline
 90
        6
 70
     0
 43
0.0
 10
7.585336999999999
 20
5.106276999999999
 42
0.000317
 10
7.519029999999999
 20
5.461979
 42
-0.065428
 10
7.631647999999999
 20
8.034392999999999
 42
0.218926
 10
7.606621
 20
9.435852999999999
 42
-0.11146
 10
7.606621
 20
12.280786
 42
0.073127
 10
7.738005999999999
 20
14.66777099999999
 42
0.8227299999999999
  0
LINE
  5
A0E
330
1E
100
AcDbEntity
  8
HIDDEN
100
AcDbLine
 10
7.771749
 20
14.32402399999999
 30
0.0
 11
9.436329999999999
 21
14.32402399999999
 31
0.0
  0
LINE
  5
A0F
330
1E
100
AcDbEntity
  8
HIDDEN
100
AcDbLine
 10
7.770303999999999
 20
14.40402399999999
 30
0.0
 11
9.436329999999999
 21
14.40402399999999
 31
0.0
  0
LINE
  5
A10
330
1E
100
AcDbEntity
  8
HIDDEN
100
AcDbLine
 10
7.763077
 20
14.50402399999999
 30
0.0
 11
9.436329999999999
 21
14.50402399999999
 31
0.0
  0
LINE
  5
A11
330
1E
100
AcDbEntity
  8
HIDDEN
100
AcDbLine
 10
7.554871
 20
5.270023999999999
 30
0.0
 11
9.436329999999999
 21
5.270023999999999
 31
0.0
  0
LINE
  5
A12
330
1E
100
AcDbEntity
  8
HIDDEN
100
AcDbLine
 10
7.536216999999999
 20
5.370023999999999
 30
0.0
 11
9.436329999999999
 21
5.370023999999999
 31
0.0
  0
LINE
  5
A13
330
1E
100
AcDbEntity
  8
HIDDEN
100
AcDbLine
 10
7.521266
 20
5.450023999999999
 30
0.0
 11
9.436329999999999
 21
5.450023999999999
 31
0.0
  0
DIMENSION
  5
A14
330
1E
100
AcDbEntity
  8
DIM
100
AcDbDimension
  2
*D55
 10
6.854311
 20
5.077023999999999
 30
0.0
 11
5.954935999999999
 21
4.357024000000001
 31
0.0
 70
    32
 71
     5
 42
0.2930000000000001
  3
STD
100
AcDbAlignedDimension
 13
7.016658999999999
 23
5.370023999999999
 33
0.0
 14
9.496244
 24
5.077023999999999
 34
0.0
 50
90.0
100
AcDbRotatedDimension
  0
LINE
  5
A22
330
1E
100
AcDbEntity
  8
OBJECT
100
AcDbLine
 10
3.28633
 20
1.902735999999999
 30
0.0
 11
3.28633
 21
1.887736
 31
0.0
  0
LINE
  5
A23
330
1E
100
AcDbEntity
  8
OBJECT
100
AcDbLine
 10
3.40333
 20
1.902735999999999
 30
0.0
 11
3.40333
 21
1.887736
 31
0.0
  0
LINE
  5
A24
330
1E
100
AcDbEntity
  8
OBJECT
100
AcDbLine
 10
9.556983999999999
 20
1.902735999999999
 30
0.0
 11
9.439983999999999
 21
1.902735999999999
 31
0.0
  0
LINE
  5
A25
330
1E
100
AcDbEntity
  8
OBJECT
100
AcDbLine
 10
9.556983999999999
 20
1.902735999999999
 30
0.0
 11
9.556983999999999
 21
1.887736
 31
0.0
  0
LINE
  5
A26
330
1E
100
AcDbEntity
  8
OBJECT
100
AcDbLine
 10
9.439983999999999
 20
1.902735999999999
 30
0.0
 11
9.439983999999999
 21
1.887736
 31
0.0
  0
INSERT
  5
A27
330
1E
100
AcDbEntity
  8
OBJECT
100
AcDbBlockReference
  2
*X5
 10
0.0
 20
0.0
 30
0.0
1001
ACAD
1000
HATCH
1002
{
1070
    16
1000
ANSI31
1040
0.75
1040
0.0
1002
}
  0
INSERT
  5
A28
330
1E
100
AcDbEntity
  8
OBJECT
100
AcDbBlockReference
  2
*X6
 10
0.0
 20
0.0
 30
0.0
1001
ACAD
1000
HATCH
1002
{
1070
    16
1000
ANSI31
1040
0.75
1040
0.0
1002
}
  0
INSERT
  5
A29
330
1E
100
AcDbEntity
  8
OBJECT
100
AcDbBlockReference
  2
*X7
 10
0.0
 20
0.0
 30
0.0
1001
ACAD
1000
HATCH
1002
{
1070
    16
1000
ANSI31
1040
0.75
1040
1.570795999999999
1002
}
  0
INSERT
  5
A2A
330
1E
100
AcDbEntity
  8
OBJECT
100
AcDbBlockReference
  2
*X8
 10
0.0
 20
0.0
 30
0.0
1001
ACAD
1000
HATCH
1002
{
1070
    16
1000
ANSI31
1040
0.75
1040
0.0
1002
}
  0
LINE
  5
A2B
330
1E
100
AcDbEntity
  8
OBJECT
100
AcDbLine
 10
3.406766
 20
1.252736
 30
0.0
 11
7.645427999999999
 21
1.252736
 31
0.0
  0
INSERT
  5
A2C
330
1E
100
AcDbEntity
  8
OBJECT
100
AcDbBlockReference
  2
*X9
 10
0.0
 20
0.0
 30
0.0
1001
ACAD
1000
HATCH
1002
{
1070
    16
1000
ANSI31
1040
0.75
1040
1.570795999999999
1002
}
  0
DIMENSION
  5
A2D
330
1E
100
AcDbEntity
  8
DIM
100
AcDbDimension
  2
*D56
 10
1.511965999999999
 20
14.40402399999999
 30
0.0
 11
1.511965999999997
 21
14.177024
 31
0.0
 70
    32
 71
     5
 42
0.4540000000000007
  3
DIM
100
AcDbAlignedDimension
 13
3.40633
 23
13.950024
 33
0.0
 14
3.40633
 24
14.40402399999999
 34
0.0
 50
90.0
100
AcDbRotatedDimension
  0
DIMENSION
  5
A3B
330
1E
100
AcDbEntity
  8
DIM
100
AcDbDimension
  2
*D57
 10
0.6168770000000001
 20
14.40402399999999
 30
0.0
 11
0.6168769999999978
 21
14.106524
 31
0.0
 70
    32
 71
     5
 42
0.5950000000000007
  3
DIM
100
AcDbAlignedDimension
 13
3.47133
 23
13.809024
 33
0.0
 14
3.40633
 24
14.40402399999999
 34
0.0
 50
90.0
100
AcDbRotatedDimension
  0
LINE
  5
A49
330
1E
100
AcDbEntity
  8
OBJECT
100
AcDbLine
 10
9.439983999999999
 20
1.917736
 30
0.0
 11
9.439983999999999
 21
1.902735999999999
 31
0.0
  0
LINE
  5
A4A
330
1E
100
AcDbEntity
  8
OBJECT
100
AcDbLine
 10
9.556983999999999
 20
1.917736
 30
0.0
 11
9.556983999999999
 21
1.902735999999999
 31
0.0
  0
LINE
  5
A4B
330
1E
100
AcDbEntity
  8
OBJECT
100
AcDbLine
 10
3.40333
 20
1.917736
 30
0.0
 11
3.40333
 21
1.902735999999999
 31
0.0
  0
LINE
  5
A4C
330
1E
100
AcDbEntity
  8
OBJECT
100
AcDbLine
 10
3.28633
 20
1.917736
 30
0.0
 11
3.28633
 21
1.902735999999999
 31
0.0
  0
DIMENSION
  5
A4D
330
1E
100
AcDbEntity
  8
DIM
100
AcDbDimension
  2
*D58
 10
9.03133
 20
12.14209799999999
 30
0.0
 11
6.178857999999999
 21
12.14209799999999
 31
0.0
 70
   160
 71
     5
 42
5.22
  3
DIM
100
AcDbAlignedDimension
 13
3.81133
 23
12.637024
 33
0.0
 14
9.03133
 24
12.637024
 34
0.0
100
AcDbRotatedDimension
  0
LINE
  5
A5B
330
1E
100
AcDbEntity
  8
OBJECT
100
AcDbLine
 10
12.298863
 20
9.629523999999999
 30
0.0
 11
12.298863
 21
9.794524
 31
0.0
  0
LINE
  5
A5C
330
1E
100
AcDbEntity
  8
OBJECT
100
AcDbLine
 10
11.948863
 20
9.794524
 30
0.0
 11
11.948863
 21
9.979524000000001
 31
0.0
  0
LINE
  5
A5D
330
1E
100
AcDbEntity
  8
OBJECT
100
AcDbLine
 10
11.948863
 20
9.979524000000001
 30
0.0
 11
12.298863
 21
9.979524000000001
 31
0.0
  0
LINE
  5
A5E
330
1E
100
AcDbEntity
  8
OBJECT
100
AcDbLine
 10
11.948863
 20
9.794524
 30
0.0
 11
12.298863
 21
9.794524
 31
0.0
  0
LINE
  5
A5F
330
1E
100
AcDbEntity
  8
OBJECT
100
AcDbLine
 10
12.298863
 20
9.979524000000001
 30
0.0
 11
12.298863
 21
10.144524
 31
0.0
  0
LINE
  5
A60
330
1E
100
AcDbEntity
  8
OBJECT
100
AcDbLine
 10
12.860863
 20
9.979524000000001
 30
0.0
 11
12.510863
 21
9.979524000000001
 31
0.0
  0
LINE
  5
A61
330
1E
100
AcDbEntity
  8
OBJECT
100
AcDbLine
 10
12.860863
 20
9.794524
 30
0.0
 11
12.510863
 21
9.794524
 31
0.0
  0
LINE
  5
A62
330
1E
100
AcDbEntity
  8
OBJECT
100
AcDbLine
 10
13.054863
 20
9.629523999999999
 30
0.0
 11
12.510863
 21
9.629523999999999
 31
0.0
  0
LINE
  5
A63
330
1E
100
AcDbEntity
  8
OBJECT
100
AcDbLine
 10
13.054863
 20
10.144524
 30
0.0
 11
12.510863
 21
10.144524
 31
0.0
  0
LINE
  5
A64
330
1E
100
AcDbEntity
  8
OBJECT
100
AcDbLine
 10
12.510863
 20
9.979524000000001
 30
0.0
 11
12.510863
 21
10.144524
 31
0.0
  0
LINE
  5
A65
330
1E
100
AcDbEntity
  8
OBJECT
100
AcDbLine
 10
12.510863
 20
9.629523999999999
 30
0.0
 11
12.510863
 21
9.794524
 31
0.0
  0
LINE
  5
A66
330
1E
100
AcDbEntity
  8
OBJECT
100
AcDbLine
 10
12.860863
 20
9.794524
 30
0.0
 11
12.860863
 21
9.979524000000001
 31
0.0
  0
DIMENSION
  5
A67
330
1E
100
AcDbEntity
  8
DIM
100
AcDbDimension
  2
*D59
 10
3.654005999999999
 20
26.28087163459086
 30
0.0
 11
5.594237
 21
26.28087163459086
 31
0.0
 70
   160
 71
     5
 42
4.78
  3
DIM
100
AcDbAlignedDimension
 13
8.434006
 23
26.47070763459086
 33
0.0
 14
3.654005999999999
 24
26.47070763459086
 34
0.0
100
AcDbRotatedDimension
  0
DIMENSION
  5
A75
330
1E
100
AcDbEntity
  8
DIM
100
AcDbDimension
  2
*D60
 10
4.863224999999999
 20
11.65002399999999
 30
0.0
 11
4.863224999999998
 21
12.800024
 31
0.0
 70
    32
 71
     5
 42
2.299999999999998
  3
DIM
100
AcDbAlignedDimension
 13
3.47133
 23
13.950024
 33
0.0
 14
3.47133
 24
11.650024
 34
0.0
 50
90.0
100
AcDbRotatedDimension
  0
DIMENSION
  5
A83
330
1E
100
AcDbEntity
  8
DIM
100
AcDbDimension
  2
*D61
 10
4.863224999999999
 20
8.124023999999998
 30
0.0
 11
4.863224999999998
 21
6.974024
 31
0.0
 70
    32
 71
     5
 42
2.299999999999999
  3
DIM
100
AcDbAlignedDimension
 13
3.47133
 23
5.824023999999999
 33
0.0
 14
3.47133
 24
8.124024
 34
0.0
 50
90.0
100
AcDbRotatedDimension
  0
DIMENSION
  5
A91
330
1E
100
AcDbEntity
  8
DIM
100
AcDbDimension
  2
*D62
 10
9.436329999999999
 20
7.618238956962933
 30
0.0
 11
6.193226
 21
7.618238956962933
 31
0.0
 70
   160
 71
     5
 42
6.029999999999999
  3
DIM
100
AcDbAlignedDimension
 13
3.40633
 23
7.746502956962933
 33
0.0
 14
9.436329999999999
 24
7.746502956962933
 34
0.0
100
AcDbRotatedDimension
  0
DIMENSION
  5
A9F
330
1E
100
AcDbEntity
  8
DIM
100
AcDbDimension
  2
*D63
 10
2.212156
 20
13.73002399999999
 30
0.0
 11
1.328405999999997
 21
13.01002399999999
 31
0.0
 70
    32
 71
     5
 42
0.0790000000000006
  3
STD
100
AcDbAlignedDimension
 13
3.40633
 23
13.809024
 33
0.0
 14
3.40633
 24
13.73002399999999
 34
0.0
 50
90.0
100
AcDbRotatedDimension
  0
TEXT
  5
AAD
330
1E
100
AcDbEntity
  8
TEXT
100
AcDbText
 10
13.937869
 20
23.22545199999999
 30
0.0
 40
0.25
  1
ALL DIMENSIONS HAVE %%P0.015 TOLERANCE
 41
0.7037312941176475
  7
TXT
 72
     5
 11
19.919585
 21
23.22545199999999
 31
0.0
100
AcDbText
  0
TEXT
  5
AAE
330
1E
100
AcDbEntity
  8
TEXT
100
AcDbText
 10
14.33226799999999
 20
22.81329799999999
 30
0.0
 40
0.25
  1
UNLESS OTHERWISE SPECIFIED
 41
0.75
  7
TXT
100
AcDbText
  0
TEXT
  5
AAF
330
1E
100
AcDbEntity
  8
TEXT
100
AcDbText
 10
14.220303
 20
23.78416799999999
 30
0.0
 40
0.25
  1
x 0.250" LG.  (NOT SUPPLIED)
 41
0.75
  7
TXT
100
AcDbText
  0
TEXT
  5
AB0
330
1E
100
AcDbEntity
  8
TEXT
100
AcDbText
 10
14.220303
 20
10.426519
 30
0.0
 40
0.25
  1
x 0.250" LG.  (NOT SUPPLIED)
 41
0.75
  7
TXT
100
AcDbText
  0
TEXT
  5
AB1
330
1E
100
AcDbEntity
  8
TEXT
100
AcDbText
 10
13.937869
 20
9.867802000000001
 30
0.0
 40
0.25
  1
ALL DIMENSIONS HAVE %%P0.015 TOLERANCE
 41
0.7037312941176475
  7
TXT
 72
     5
 11
19.919585
 21
9.867802000000001
 31
0.0
100
AcDbText
  0
TEXT
  5
AB2
330
1E
100
AcDbEntity
  8
TEXT
100
AcDbText
 10
14.33226799999999
 20
9.455648000000001
 30
0.0
 40
0.25
  1
UNLESS OTHERWISE SPECIFIED
 41
0.75
  7
TXT
100
AcDbText
  0
TEXT
  5
AB3
330
1E
100
AcDbEntity
  8
TEXT
100
AcDbText
 10
14.220303
 20
10.831269
 30
0.0
 40
0.25
  1
STD. SHEET METAL SCREWS
 41
0.75
  7
TXT
100
AcDbText
  0
TEXT
  5
AB4
330
1E
100
AcDbEntity
  8
TEXT
100
AcDbText
 10
14.220303
 20
11.240434
 30
0.0
 40
0.25
  1
EITHER M2.5 METRIC OR #4
 41
0.75
  7
TXT
100
AcDbText
  0
TEXT
  5
AB5
330
1E
100
AcDbEntity
  8
TEXT
100
AcDbText
 10
13.93813999999999
 20
11.655433
 30
0.0
 40
0.25
  1
NOTE: MOUNTING BOSSES USE
 41
0.75
  7
TXT
100
AcDbText
  0
DIMENSION
  5
E3C
330
1E
100
AcDbEntity
  8
OBJECT
100
AcDbDimension
  2
*D64
 10
9.244329999999999
 20
10.70562463265897
 30
0.0
 11
6.165679189404488
 21
10.70562463265897
 31
0.0
 70
   160
 71
     5
 42
5.645999999999999
  3
STD
100
AcDbAlignedDimension
 13
3.59833
 23
10.144524
 33
0.0
 14
9.244329999999999
 24
10.144524
 34
0.0
100
AcDbRotatedDimension
  0
DIMENSION
  5
E4A
330
1E
100
AcDbEntity
  8
OBJECT
100
AcDbDimension
  2
*D65
 10
9.37133
 20
8.831223156958053
 30
0.0
 11
6.165679189404489
 21
8.831223156958053
 31
0.0
 70
   160
 71
     5
 42
5.9
  3
STD
100
AcDbAlignedDimension
 13
3.47133
 23
8.265024
 33
0.0
 14
9.37133
 24
8.265024
 34
0.0
100
AcDbRotatedDimension
  0
LINE
  5
E97
330
1E
100
AcDbEntity
  8
DIM
100
AcDbLine
 10
6.294597999999999
 20
18.87207699999999
 30
0.0
 11
6.134377832289636
 21
18.87207699999999
 31
0.0
  0
LINE
  5
E98
330
1E
100
AcDbEntity
  8
DIM
100
AcDbLine
 10
6.294597999999999
 20
18.74707699999999
 30
0.0
 11
6.134377832289636
 21
18.74707699999999
 31
0.0
  0
LINE
  5
E99
330
1E
100
AcDbEntity
  8
DIM
100
AcDbLine
 10
6.320377832289636
 20
19.23207699999999
 30
0.0
 11
6.320377832289636
 21
19.59207699999999
 31
0.0
  0
LINE
  5
E9A
330
1E
100
AcDbEntity
  8
DIM
100
AcDbLine
 10
6.320377832289636
 20
18.38707699999999
 30
0.0
 11
6.320377832289636
 21
18.027077
 31
0.0
  0
LINE
  5
E9B
330
1E
100
AcDbEntity
  8
DIM
100
AcDbLine
 10
6.680377832289637
 20
18.027077
 30
0.0
 11
6.320377832289636
 21
18.027077
 31
0.0
  0
SOLID
  5
E9C
330
1E
100
AcDbEntity
  8
DIM
100
AcDbTrace
 10
6.260377832289637
 20
19.23207699999999
 30
0.0
 11
6.380377832289636
 21
19.23207699999999
 31
0.0
 12
6.320377832289636
 22
18.87207699999999
 32
0.0
 13
6.320377832289636
 23
18.87207699999999
 33
0.0
  0
SOLID
  5
E9D
330
1E
100
AcDbEntity
  8
DIM
100
AcDbTrace
 10
6.260377832289637
 20
18.38707699999999
 30
0.0
 11
6.380377832289636
 21
18.38707699999999
 31
0.0
 12
6.320377832289636
 22
18.74707699999999
 32
0.0
 13
6.320377832289636
 23
18.74707699999999
 33
0.0
  0
MTEXT
  5
E9E
330
1E
100
AcDbEntity
  8
DIM
100
AcDbMText
 10
7.18850283228964
 20
18.027077
 30
0.0
 40
0.25
 41
0.0
 71
     5
 72
     1
  1
\A1;0.125
  7
TXT
 73
     1
 44
1.0
  0
DIMENSION
  5
E9F
330
1E
100
AcDbEntity
  8
OBJECT
100
AcDbDimension
  2
*D66
 10
8.434006
 20
25.93089653302731
 30
0.0
 11
9.662131
 21
25.93089653302731
 31
0.0
 70
    32
 71
     5
 42
0.1920000000000002
  3
STD
100
AcDbAlignedDimension
 13
8.242005999999999
 23
25.68765
 33
0.0
 14
8.434006
 24
25.81365
 34
0.0
100
AcDbRotatedDimension
  0
DIMENSION
  5
F08
330
1E
100
AcDbEntity
  8
OBJECT
100
AcDbDimension
  2
*D67
 10
8.372005999999998
 20
24.16005552632629
 30
0.0
 11
5.605499161291678
 21
24.16005552632629
 31
0.0
 70
   160
 71
     5
 42
4.655999999999998
  3
STD
100
AcDbAlignedDimension
 13
3.716005999999999
 23
23.53665
 33
0.0
 14
8.372005999999998
 24
23.53665
 34
0.0
100
AcDbRotatedDimension
  0
TEXT
  5
F4D
330
1E
100
AcDbEntity
  8
TEXT
100
AcDbText
 10
14.257365
 20
15.245801
 30
0.0
 40
0.25
  1
POLYSTYRENE (UL94-HB)
 41
0.75
  7
TXT
100
AcDbText
  0
TEXT
  5
F4E
330
1E
100
AcDbEntity
  8
TEXT
100
AcDbText
 10
14.257365
 20
28.66327499999999
 30
0.0
 40
0.25
  1
POLYSTYRENE (UL94-HB)
 41
0.75
  7
TXT
100
AcDbText
  0
ENDSEC
  0
SECTION
  2
OBJECTS
  0
DICTIONARY
  5
C
330
0
100
AcDbDictionary
281
     1
  3
ACAD_GROUP
350
D
  3
ACAD_LAYOUT
350
19
  3
ACAD_MLINESTYLE
350
16
  3
ACAD_PLOTSETTINGS
350
18
  3
ACAD_PLOTSTYLENAME
350
E
  0
DICTIONARY
  5
D
102
{ACAD_REACTORS
330
C
102
}
330
C
100
AcDbDictionary
281
     1
  0
DICTIONARY
  5
19
102
{ACAD_REACTORS
330
C
102
}
330
C
100
AcDbDictionary
281
     1
  3
Layout1
350
1D
  3
Model
350
21
  0
DICTIONARY
  5
16
102
{ACAD_REACTORS
330
C
102
}
330
C
100
AcDbDictionary
281
     1
  3
Standard
350
17
  0
DICTIONARY
  5
18
102
{ACAD_REACTORS
330
C
102
}
330
C
100
AcDbDictionary
281
     1
  0
ACDBDICTIONARYWDFLT
  5
E
102
{ACAD_REACTORS
330
C
102
}
330
C
100
AcDbDictionary
281
     1
  3
Normal
350
F
100
AcDbDictionaryWithDefault
340
F
  0
LAYOUT
  5
1D
102
{ACAD_REACTORS
330
19
102
}
330
19
100
AcDbPlotSettings
  1

  2
None
  4

  6

 40
0.0
 41
0.0
 42
0.0
 43
0.0
 44
0.0
 45
0.0
 46
0.0
 47
0.0
 48
0.0
 49
0.0
140
0.0
141
0.0
142
1.0
143
1.0
 70
   688
 72
     0
 73
     0
 74
     5
  7
monochrome.ctb
 75
    16
147
1.0
148
0.0
149
0.0
100
AcDbLayout
  1
Layout1
 70
     0
 71
     1
 10
0.0
 20
0.0
 11
12.0
 21
9.0
 12
0.0
 22
0.0
 32
0.0
 14
1.000000000000000E+20
 24
1.000000000000000E+20
 34
1.000000000000000E+20
 15
-1.000000000000000E+20
 25
-1.000000000000000E+20
 35
-1.000000000000000E+20
146
0.0
 13
0.0
 23
0.0
 33
0.0
 16
1.0
 26
0.0
 36
0.0
 17
0.0
 27
1.0
 37
0.0
 76
     0
330
1A
  0
LAYOUT
  5
21
102
{ACAD_REACTORS
330
19
102
}
330
19
100
AcDbPlotSettings
  1

  2
none_device
  4
Letter_(8.50_x_11.00_Inches)
  6

 40
6.349999904632568
 41
6.349999904632568
 42
6.350006103515625
 43
6.350006103515625
 44
215.8999938964843
 45
279.3999938964843
 46
0.0
 47
0.0
 48
0.0
 49
0.0
140
0.0
141
0.0
142
1.0
143
1.0
 70
 11952
 72
     0
 73
     1
 74
     0
  7

 75
     0
147
1.0
148
140.6375387602021
149
3.985537487492618
100
AcDbLayout
  1
Model
 70
     1
 71
     0
 10
0.0
 20
0.0
 11
12.0
 21
9.0
 12
0.0
 22
0.0
 32
0.0
 14
0.0
 24
0.0
 34
0.0
 15
0.0
 25
0.0
 35
0.0
146
0.0
 13
0.0
 23
0.0
 33
0.0
 16
1.0
 26
0.0
 36
0.0
 17
0.0
 27
1.0
 37
0.0
 76
     0
330
1E
  0
MLINESTYLE
  5
17
102
{ACAD_REACTORS
330
16
102
}
330
16
100
AcDbMlineStyle
  2
STANDARD
 70
     0
  3

 62
   256
 51
90.0
 52
90.0
 71
     2
 49
0.5
 62
   256
  6
BYLAYER
 49
-0.5
 62
   256
  6
BYLAYER
  0
ACDBPLACEHOLDER
  5
F
102
{ACAD_REACTORS
330
E
102
}
330
E
  0
ENDSEC
  0
EOF
