  0
SECTION
  2
HEADER
  9
$ACADVER
  1
AC1015
  9
$ACADMAINTVER
 70
     6
  9
$DWGCODEPAGE
  3
ANSI_1252
  9
$INSBASE
 10
0.0
 20
0.0
 30
0.0
  9
$EXTMIN
 10
-0.0022886437390355
 20
-0.0015257624927045
 30
-0.0015258207003583
  9
$EXTMAX
 10
20.24230968118914
 20
31.00051889312513
 30
0.0000000349246037
  9
$LIMMIN
 10
0.0
 20
0.0
  9
$LIMMAX
 10
75.0
 20
50.0
  9
$ORTHOMODE
 70
     1
  9
$REGENMODE
 70
     1
  9
$FILLMODE
 70
     1
  9
$QTEXTMODE
 70
     0
  9
$MIRRTEXT
 70
     0
  9
$LTSCALE
 40
0.5
  9
$ATTMODE
 70
     1
  9
$TEXTSIZE
 40
0.25
  9
$TRACEWID
 40
0.05
  9
$TEXTSTYLE
  7
TXT
  9
$CLAYER
  8
OBJECT
  9
$CELTYPE
  6
ByLayer
  9
$CECOLOR
 62
   256
  9
$CELTSCALE
 40
1.0
  9
$DISPSILH
 70
     0
  9
$DIMSCALE
 40
2.0
  9
$DIMASZ
 40
0.18
  9
$DIMEXO
 40
0.063
  9
$DIMDLI
 40
0.281
  9
$DIMRND
 40
0.0
  9
$DIMDLE
 40
0.0
  9
$DIMEXE
 40
0.093
  9
$DIMTP
 40
0.0
  9
$DIMTM
 40
0.0
  9
$DIMTXT
 40
0.125
  9
$DIMCEN
 40
0.09
  9
$DIMTSZ
 40
0.0
  9
$DIMTOL
 70
     0
  9
$DIMLIM
 70
     0
  9
$DIMTIH
 70
     1
  9
$DIMTOH
 70
     1
  9
$DIMSE1
 70
     0
  9
$DIMSE2
 70
     0
  9
$DIMTAD
 70
     0
  9
$DIMZIN
 70
     0
  9
$DIMBLK
  1

  9
$DIMASO
 70
     1
  9
$DIMSHO
 70
     1
  9
$DIMPOST
  1

  9
$DIMAPOST
  1

  9
$DIMALT
 70
     0
  9
$DIMALTD
 70
     2
  9
$DIMALTF
 40
25.4
  9
$DIMLFAC
 40
1.0
  9
$DIMTOFL
 70
     0
  9
$DIMTVP
 40
0.0
  9
$DIMTIX
 70
     0
  9
$DIMSOXD
 70
     0
  9
$DIMSAH
 70
     0
  9
$DIMBLK1
  1

  9
$DIMBLK2
  1

  9
$DIMSTYLE
  2
STD
  9
$DIMCLRD
 70
     0
  9
$DIMCLRE
 70
     0
  9
$DIMCLRT
 70
     0
  9
$DIMTFAC
 40
1.0
  9
$DIMGAP
 40
0.09
  9
$DIMJUST
 70
     0
  9
$DIMSD1
 70
     0
  9
$DIMSD2
 70
     0
  9
$DIMTOLJ
 70
     1
  9
$DIMTZIN
 70
     0
  9
$DIMALTZ
 70
     0
  9
$DIMALTTZ
 70
     0
  9
$DIMUPT
 70
     0
  9
$DIMDEC
 70
     3
  9
$DIMTDEC
 70
     3
  9
$DIMALTU
 70
     2
  9
$DIMALTTD
 70
     2
  9
$DIMTXSTY
  7
TXT
  9
$DIMAUNIT
 70
     0
  9
$DIMADEC
 70
     0
  9
$DIMALTRND
 40
0.0
  9
$DIMAZIN
 70
     0
  9
$DIMDSEP
 70
    46
  9
$DIMATFIT
 70
     1
  9
$DIMFRAC
 70
     0
  9
$DIMLDRBLK
  1

  9
$DIMLUNIT
 70
     2
  9
$DIMLWD
 70
    -2
  9
$DIMLWE
 70
    -2
  9
$DIMTMOVE
 70
     0
  9
$LUNITS
 70
     2
  9
$LUPREC
 70
     3
  9
$SKETCHINC
 40
0.1
  9
$FILLETRAD
 40
0.0
  9
$AUNITS
 70
     0
  9
$AUPREC
 70
     0
  9
$MENU
  1
acad
  9
$ELEVATION
 40
0.0
  9
$PELEVATION
 40
0.0
  9
$THICKNESS
 40
0.0
  9
$LIMCHECK
 70
     0
  9
$CHAMFERA
 40
0.0
  9
$CHAMFERB
 40
0.0
  9
$CHAMFERC
 40
0.0
  9
$CHAMFERD
 40
0.0
  9
$SKPOLY
 70
     0
  9
$TDCREATE
 40
2449623.317249999
  9
$TDUCREATE
 40
2449623.483916667
  9
$TDUPDATE
 40
2454362.488047592
  9
$TDUUPDATE
 40
2454362.654714259
  9
$TDINDWG
 40
0.3622809144
  9
$TDUSRTIMER
 40
0.3622807407
  9
$USRTIMER
 70
     1
  9
$ANGBASE
 50
0.0
  9
$ANGDIR
 70
     0
  9
$PDMODE
 70
     0
  9
$PDSIZE
 40
0.0
  9
$PLINEWID
 40
0.0
  9
$SPLFRAME
 70
     0
  9
$SPLINETYPE
 70
     6
  9
$SPLINESEGS
 70
     8
  9
$HANDSEED
  5
CE8
  9
$SURFTAB1
 70
     6
  9
$SURFTAB2
 70
     6
  9
$SURFTYPE
 70
     6
  9
$SURFU
 70
     6
  9
$SURFV
 70
     6
  9
$UCSBASE
  2

  9
$UCSNAME
  2

  9
$UCSORG
 10
0.0
 20
0.0
 30
0.0
  9
$UCSXDIR
 10
1.0
 20
0.0
 30
0.0
  9
$UCSYDIR
 10
0.0
 20
1.0
 30
0.0
  9
$UCSORTHOREF
  2

  9
$UCSORTHOVIEW
 70
     0
  9
$UCSORGTOP
 10
0.0
 20
0.0
 30
0.0
  9
$UCSORGBOTTOM
 10
0.0
 20
0.0
 30
0.0
  9
$UCSORGLEFT
 10
0.0
 20
0.0
 30
0.0
  9
$UCSORGRIGHT
 10
0.0
 20
0.0
 30
0.0
  9
$UCSORGFRONT
 10
0.0
 20
0.0
 30
0.0
  9
$UCSORGBACK
 10
0.0
 20
0.0
 30
0.0
  9
$PUCSBASE
  2

  9
$PUCSNAME
  2

  9
$PUCSORG
 10
0.0
 20
0.0
 30
0.0
  9
$PUCSXDIR
 10
1.0
 20
0.0
 30
0.0
  9
$PUCSYDIR
 10
0.0
 20
1.0
 30
0.0
  9
$PUCSORTHOREF
  2

  9
$PUCSORTHOVIEW
 70
     0
  9
$PUCSORGTOP
 10
0.0
 20
0.0
 30
0.0
  9
$PUCSORGBOTTOM
 10
0.0
 20
0.0
 30
0.0
  9
$PUCSORGLEFT
 10
0.0
 20
0.0
 30
0.0
  9
$PUCSORGRIGHT
 10
0.0
 20
0.0
 30
0.0
  9
$PUCSORGFRONT
 10
0.0
 20
0.0
 30
0.0
  9
$PUCSORGBACK
 10
0.0
 20
0.0
 30
0.0
  9
$USERI1
 70
     0
  9
$USERI2
 70
     0
  9
$USERI3
 70
     0
  9
$USERI4
 70
     0
  9
$USERI5
 70
     0
  9
$USERR1
 40
0.0
  9
$USERR2
 40
0.0
  9
$USERR3
 40
0.0
  9
$USERR4
 40
0.0
  9
$USERR5
 40
0.0
  9
$WORLDVIEW
 70
     1
  9
$SHADEDGE
 70
     3
  9
$SHADEDIF
 70
    70
  9
$TILEMODE
 70
     1
  9
$MAXACTVP
 70
    16
  9
$PINSBASE
 10
0.0
 20
0.0
 30
0.0
  9
$PLIMCHECK
 70
     0
  9
$PEXTMIN
 10
1.000000000000000E+20
 20
1.000000000000000E+20
 30
1.000000000000000E+20
  9
$PEXTMAX
 10
-1.000000000000000E+20
 20
-1.000000000000000E+20
 30
-1.000000000000000E+20
  9
$PLIMMIN
 10
0.0
 20
0.0
  9
$PLIMMAX
 10
12.0
 20
9.0
  9
$UNITMODE
 70
     0
  9
$VISRETAIN
 70
     0
  9
$PLINEGEN
 70
     0
  9
$PSLTSCALE
 70
     1
  9
$TREEDEPTH
 70
  3020
  9
$CMLSTYLE
  2
Standard
  9
$CMLJUST
 70
     0
  9
$CMLSCALE
 40
1.0
  9
$PROXYGRAPHICS
 70
     1
  9
$MEASUREMENT
 70
     0
  9
$CELWEIGHT
370
    -1
  9
$ENDCAPS
280
     0
  9
$JOINSTYLE
280
     0
  9
$LWDISPLAY
290
     0
  9
$INSUNITS
 70
     0
  9
$HYPERLINKBASE
  1

  9
$STYLESHEET
  1
monochrome.ctb
  9
$XEDIT
290
     1
  9
$CEPSNTYPE
380
     0
  9
$PSTYLEMODE
290
     1
  9
$FINGERPRINTGUID
  2
{906EC86F-B76D-4D7A-ACDB-C4291DE90912}
  9
$VERSIONGUID
  2
{7AFDD94F-7290-4FAA-AB2F-E7EF0239A4C6}
  9
$EXTNAMES
290
     1
  9
$PSVPSCALE
 40
0.0
  9
$OLESTARTUP
290
     0
  0
ENDSEC
  0
SECTION
  2
CLASSES
  0
CLASS
  1
ACDBDICTIONARYWDFLT
  2
AcDbDictionaryWithDefault
  3
AutoCAD 2000
 90
        0
280
     0
281
     0
  0
CLASS
  1
ACDBPLACEHOLDER
  2
AcDbPlaceHolder
  3
AutoCAD 2000
 90
        0
280
     0
281
     0
  0
CLASS
  1
LAYOUT
  2
AcDbLayout
  3
AutoCAD 2000
 90
        0
280
     0
281
     0
  0
ENDSEC
  0
SECTION
  2
TABLES
  0
TABLE
  2
VPORT
  5
8
330
0
100
AcDbSymbolTable
 70
     2
  0
VPORT
  5
CE7
330
8
100
AcDbSymbolTableRecord
100
AcDbViewportTableRecord
  2
*Active
 70
     0
 10
0.0
 20
0.0
 11
1.0
 21
1.0
 12
10.1180306896355
 22
15.50035118067205
 13
0.0
 23
0.0
 14
1.0
 24
1.0
 15
0.0
 25
0.0
 16
0.0
 26
0.0
 36
1.0
 17
0.0
 27
0.0
 37
0.0
 40
31.31687355947733
 41
1.824707846410684
 42
50.0
 43
0.0
 44
0.0
 50
0.0
 51
0.0
 71
     0
 72
   100
 73
     1
 74
     0
 75
     0
 76
     0
 77
     0
 78
     0
281
     0
 65
     1
110
0.0
120
0.0
130
0.0
111
1.0
121
0.0
131
0.0
112
0.0
122
1.0
132
0.0
 79
     0
146
0.0
  0
ENDTAB
  0
TABLE
  2
LTYPE
  5
5
330
0
100
AcDbSymbolTable
 70
     4
  0
LTYPE
  5
13
330
5
100
AcDbSymbolTableRecord
100
AcDbLinetypeTableRecord
  2
ByBlock
 70
     0
  3

 72
    65
 73
     0
 40
0.0
  0
LTYPE
  5
14
330
5
100
AcDbSymbolTableRecord
100
AcDbLinetypeTableRecord
  2
ByLayer
 70
     0
  3

 72
    65
 73
     0
 40
0.0
  0
LTYPE
  5
15
330
5
100
AcDbSymbolTableRecord
100
AcDbLinetypeTableRecord
  2
CONTINUOUS
 70
     0
  3
Solid line
 72
    65
 73
     0
 40
0.0
  0
LTYPE
  5
25
330
5
100
AcDbSymbolTableRecord
100
AcDbLinetypeTableRecord
  2
HIDDEN
 70
     0
  3
_ _ _ _ _ _ _ _ _ _ _ _ _ _ _ _ _ _ _ _ _ _ _
 72
    65
 73
     2
 40
0.375
 49
0.25
 74
     0
 49
-0.125
 74
     0
  0
LTYPE
  5
26
330
5
100
AcDbSymbolTableRecord
100
AcDbLinetypeTableRecord
  2
PHANTOM
 70
     0
  3
_____ _ _ _____ _ _ _____ _ _ _____ _ _ ____
 72
    65
 73
     6
 40
2.5
 49
1.25
 74
     0
 49
-0.25
 74
     0
 49
0.25
 74
     0
 49
-0.25
 74
     0
 49
0.25
 74
     0
 49
-0.25
 74
     0
  0
LTYPE
  5
27
330
5
100
AcDbSymbolTableRecord
100
AcDbLinetypeTableRecord
  2
CENTER
 70
     0
  3
____ _ ____ _ ____ _ ____ _ ____ _ ____ _ ____
 72
    65
 73
     4
 40
2.0
 49
1.25
 74
     0
 49
-0.25
 74
     0
 49
0.25
 74
     0
 49
-0.25
 74
     0
  0
ENDTAB
  0
TABLE
  2
LAYER
  5
2
330
0
100
AcDbSymbolTable
 70
     9
  0
LAYER
  5
10
330
2
100
AcDbSymbolTableRecord
100
AcDbLayerTableRecord
  2
0
 70
     0
 62
     7
  6
CONTINUOUS
370
    -3
390
F
  0
LAYER
  5
22
330
2
100
AcDbSymbolTableRecord
100
AcDbLayerTableRecord
  2
OBJECT
 70
     0
 62
     7
  6
CONTINUOUS
370
    -3
390
F
  0
LAYER
  5
28
330
2
100
AcDbSymbolTableRecord
100
AcDbLayerTableRecord
  2
DIM
 70
     0
 62
     7
  6
CONTINUOUS
370
    -3
390
F
  0
LAYER
  5
29
330
2
100
AcDbSymbolTableRecord
100
AcDbLayerTableRecord
  2
HIDDEN
 70
     0
 62
     7
  6
HIDDEN
370
    -3
390
F
  0
LAYER
  5
2A
330
2
100
AcDbSymbolTableRecord
100
AcDbLayerTableRecord
  2
BEND
 70
     0
 62
     7
  6
PHANTOM
370
    -3
390
F
  0
LAYER
  5
2B
330
2
100
AcDbSymbolTableRecord
100
AcDbLayerTableRecord
  2
TEXT
 70
     0
 62
     7
  6
CONTINUOUS
370
    -3
390
F
  0
LAYER
  5
2C
330
2
100
AcDbSymbolTableRecord
100
AcDbLayerTableRecord
  2
TITLE
 70
     0
 62
     7
  6
CONTINUOUS
370
    -3
390
F
  0
LAYER
  5
2D
330
2
100
AcDbSymbolTableRecord
100
AcDbLayerTableRecord
  2
CENTER
 70
     0
 62
     7
  6
CENTER
370
    -3
390
F
  0
LAYER
  5
2E
330
2
100
AcDbSymbolTableRecord
100
AcDbLayerTableRecord
  2
DEFPOINTS
 70
     0
 62
     7
  6
CONTINUOUS
290
     0
370
    -3
390
F
  0
ENDTAB
  0
TABLE
  2
STYLE
  5
3
330
0
100
AcDbSymbolTable
 70
     2
  0
STYLE
  5
11
330
3
100
AcDbSymbolTableRecord
100
AcDbTextStyleTableRecord
  2
STANDARD
 70
     0
 40
0.0
 41
1.0
 50
0.0
 71
     0
 42
0.2
  3
txt
  4

  0
STYLE
  5
23
330
3
100
AcDbSymbolTableRecord
100
AcDbTextStyleTableRecord
  2
TXT
 70
     0
 40
0.0
 41
0.75
 50
0.0
 71
     0
 42
0.25
  3
TXT.shx
  4

  0
ENDTAB
  0
TABLE
  2
VIEW
  5
6
330
0
100
AcDbSymbolTable
 70
     0
  0
ENDTAB
  0
TABLE
  2
UCS
  5
7
330
0
100
AcDbSymbolTable
 70
     0
  0
ENDTAB
  0
TABLE
  2
APPID
  5
9
330
0
100
AcDbSymbolTable
 70
     1
  0
APPID
  5
12
330
9
100
AcDbSymbolTableRecord
100
AcDbRegAppTableRecord
  2
ACAD
 70
     0
  0
ENDTAB
  0
TABLE
  2
DIMSTYLE
  5
A
330
0
100
AcDbSymbolTable
 70
     2
100
AcDbDimStyleTable
 71
     2
340
2F
340
30
  0
DIMSTYLE
105
2F
102
{ACAD_REACTORS
330
3BA
330
3D6
330
3E4
330
3F7
330
405
330
41C
330
5D9
330
5EC
330
620
330
71A
330
728
330
748
330
758
330
766
330
80F
330
839
330
847
330
855
330
863
330
BDB
330
BF4
102
}
330
A
100
AcDbSymbolTableRecord
100
AcDbDimStyleTableRecord
  2
STD
 70
     0
 40
2.0
 42
0.063
 43
0.281
 44
0.093
140
0.125
271
     3
272
     3
289
     1
340
23
  0
DIMSTYLE
105
30
102
{ACAD_REACTORS
330
39E
330
3AC
330
3C8
330
42A
330
4FE
330
50C
330
51A
330
528
330
537
330
54B
330
559
330
5FA
330
612
330
62E
330
69B
330
81D
330
82B
102
}
330
A
100
AcDbSymbolTableRecord
100
AcDbDimStyleTableRecord
  2
DIM
 70
     0
 40
2.0
 42
0.063
 43
0.281
 44
0.093
140
0.125
174
     1
271
     3
272
     3
340
23
  0
ENDTAB
  0
TABLE
  2
BLOCK_RECORD
  5
1
330
0
100
AcDbSymbolTable
 70
    48
  0
BLOCK_RECORD
  5
1E
330
1
100
AcDbSymbolTableRecord
100
AcDbBlockTableRecord
  2
*Model_Space
340
21
  0
BLOCK_RECORD
  5
1A
330
1
100
AcDbSymbolTableRecord
100
AcDbBlockTableRecord
  2
*Paper_Space
340
1D
  0
BLOCK_RECORD
  5
32
330
1
100
AcDbSymbolTableRecord
100
AcDbBlockTableRecord
  2
ACAD
340
0
102
{BLKREFS
331
34F
331
440
331
441
331
442
331
471
102
}
  0
BLOCK_RECORD
  5
35
330
1
100
AcDbSymbolTableRecord
100
AcDbBlockTableRecord
  2
*X1
340
0
102
{BLKREFS
331
5D4
331
785
102
}
  0
BLOCK_RECORD
  5
59
330
1
100
AcDbSymbolTableRecord
100
AcDbBlockTableRecord
  2
*X2
340
0
102
{BLKREFS
331
5D5
331
797
102
}
  0
BLOCK_RECORD
  5
7C
330
1
100
AcDbSymbolTableRecord
100
AcDbBlockTableRecord
  2
*X3
340
0
102
{BLKREFS
331
5D6
102
}
  0
BLOCK_RECORD
  5
91
330
1
100
AcDbSymbolTableRecord
100
AcDbBlockTableRecord
  2
*X4
340
0
102
{BLKREFS
331
5D7
102
}
  0
BLOCK_RECORD
  5
BD
330
1
100
AcDbSymbolTableRecord
100
AcDbBlockTableRecord
  2
*X5
340
0
102
{BLKREFS
331
5D8
102
}
  0
BLOCK_RECORD
  5
112
330
1
100
AcDbSymbolTableRecord
100
AcDbBlockTableRecord
  2
*X6
340
0
102
{BLKREFS
331
7F1
102
}
  0
BLOCK_RECORD
  5
201
330
1
100
AcDbSymbolTableRecord
100
AcDbBlockTableRecord
  2
*X7
340
0
102
{BLKREFS
331
873
102
}
  0
BLOCK_RECORD
  5
22F
330
1
100
AcDbSymbolTableRecord
100
AcDbBlockTableRecord
  2
*X8
340
0
102
{BLKREFS
331
874
102
}
  0
BLOCK_RECORD
  5
25C
330
1
100
AcDbSymbolTableRecord
100
AcDbBlockTableRecord
  2
*X9
340
0
102
{BLKREFS
331
886
102
}
  0
BLOCK_RECORD
  5
39F
330
1
100
AcDbSymbolTableRecord
100
AcDbBlockTableRecord
  2
*D10
340
0
  0
BLOCK_RECORD
  5
3AD
330
1
100
AcDbSymbolTableRecord
100
AcDbBlockTableRecord
  2
*D11
340
0
  0
BLOCK_RECORD
  5
3BB
330
1
100
AcDbSymbolTableRecord
100
AcDbBlockTableRecord
  2
*D12
340
0
  0
BLOCK_RECORD
  5
3C9
330
1
100
AcDbSymbolTableRecord
100
AcDbBlockTableRecord
  2
*D13
340
0
  0
BLOCK_RECORD
  5
3D7
330
1
100
AcDbSymbolTableRecord
100
AcDbBlockTableRecord
  2
*D14
340
0
  0
BLOCK_RECORD
  5
3E5
330
1
100
AcDbSymbolTableRecord
100
AcDbBlockTableRecord
  2
*D15
340
0
  0
BLOCK_RECORD
  5
3F8
330
1
100
AcDbSymbolTableRecord
100
AcDbBlockTableRecord
  2
*D16
340
0
  0
BLOCK_RECORD
  5
406
330
1
100
AcDbSymbolTableRecord
100
AcDbBlockTableRecord
  2
*D17
340
0
  0
BLOCK_RECORD
  5
41D
330
1
100
AcDbSymbolTableRecord
100
AcDbBlockTableRecord
  2
*D18
340
0
  0
BLOCK_RECORD
  5
42B
330
1
100
AcDbSymbolTableRecord
100
AcDbBlockTableRecord
  2
*D19
340
0
  0
BLOCK_RECORD
  5
4FF
330
1
100
AcDbSymbolTableRecord
100
AcDbBlockTableRecord
  2
*D20
340
0
  0
BLOCK_RECORD
  5
50D
330
1
100
AcDbSymbolTableRecord
100
AcDbBlockTableRecord
  2
*D21
340
0
  0
BLOCK_RECORD
  5
51B
330
1
100
AcDbSymbolTableRecord
100
AcDbBlockTableRecord
  2
*D22
340
0
  0
BLOCK_RECORD
  5
529
330
1
100
AcDbSymbolTableRecord
100
AcDbBlockTableRecord
  2
*D23
340
0
  0
BLOCK_RECORD
  5
538
330
1
100
AcDbSymbolTableRecord
100
AcDbBlockTableRecord
  2
*D24
340
0
  0
BLOCK_RECORD
  5
54C
330
1
100
AcDbSymbolTableRecord
100
AcDbBlockTableRecord
  2
*D25
340
0
  0
BLOCK_RECORD
  5
55A
330
1
100
AcDbSymbolTableRecord
100
AcDbBlockTableRecord
  2
*D26
340
0
  0
BLOCK_RECORD
  5
5DA
330
1
100
AcDbSymbolTableRecord
100
AcDbBlockTableRecord
  2
*D27
340
0
  0
BLOCK_RECORD
  5
5ED
330
1
100
AcDbSymbolTableRecord
100
AcDbBlockTableRecord
  2
*D28
340
0
  0
BLOCK_RECORD
  5
5FB
330
1
100
AcDbSymbolTableRecord
100
AcDbBlockTableRecord
  2
*D29
340
0
  0
BLOCK_RECORD
  5
613
330
1
100
AcDbSymbolTableRecord
100
AcDbBlockTableRecord
  2
*D30
340
0
  0
BLOCK_RECORD
  5
621
330
1
100
AcDbSymbolTableRecord
100
AcDbBlockTableRecord
  2
*D31
340
0
  0
BLOCK_RECORD
  5
62F
330
1
100
AcDbSymbolTableRecord
100
AcDbBlockTableRecord
  2
*D32
340
0
  0
BLOCK_RECORD
  5
69C
330
1
100
AcDbSymbolTableRecord
100
AcDbBlockTableRecord
  2
*D33
340
0
  0
BLOCK_RECORD
  5
71B
330
1
100
AcDbSymbolTableRecord
100
AcDbBlockTableRecord
  2
*D34
340
0
  0
BLOCK_RECORD
  5
729
330
1
100
AcDbSymbolTableRecord
100
AcDbBlockTableRecord
  2
*D35
340
0
  0
BLOCK_RECORD
  5
749
330
1
100
AcDbSymbolTableRecord
100
AcDbBlockTableRecord
  2
*D36
340
0
  0
BLOCK_RECORD
  5
759
330
1
100
AcDbSymbolTableRecord
100
AcDbBlockTableRecord
  2
*D37
340
0
  0
BLOCK_RECORD
  5
767
330
1
100
AcDbSymbolTableRecord
100
AcDbBlockTableRecord
  2
*D38
340
0
  0
BLOCK_RECORD
  5
810
330
1
100
AcDbSymbolTableRecord
100
AcDbBlockTableRecord
  2
*D39
340
0
  0
BLOCK_RECORD
  5
81E
330
1
100
AcDbSymbolTableRecord
100
AcDbBlockTableRecord
  2
*D40
340
0
  0
BLOCK_RECORD
  5
82C
330
1
100
AcDbSymbolTableRecord
100
AcDbBlockTableRecord
  2
*D41
340
0
  0
BLOCK_RECORD
  5
83A
330
1
100
AcDbSymbolTableRecord
100
AcDbBlockTableRecord
  2
*D42
340
0
  0
BLOCK_RECORD
  5
848
330
1
100
AcDbSymbolTableRecord
100
AcDbBlockTableRecord
  2
*D43
340
0
  0
BLOCK_RECORD
  5
856
330
1
100
AcDbSymbolTableRecord
100
AcDbBlockTableRecord
  2
*D44
340
0
  0
BLOCK_RECORD
  5
864
330
1
100
AcDbSymbolTableRecord
100
AcDbBlockTableRecord
  2
*D45
340
0
  0
BLOCK_RECORD
  5
BDC
330
1
100
AcDbSymbolTableRecord
100
AcDbBlockTableRecord
  2
*D46
340
0
  0
BLOCK_RECORD
  5
BF5
330
1
100
AcDbSymbolTableRecord
100
AcDbBlockTableRecord
  2
*D47
340
0
  0
ENDTAB
  0
ENDSEC
  0
SECTION
  2
BLOCKS
  0
BLOCK
  5
1F
330
1E
100
AcDbEntity
  8
0
100
AcDbBlockBegin
  2
*Model_Space
 70
     0
 10
0.0
 20
0.0
 30
0.0
  3
*Model_Space
  1

  0
ENDBLK
  5
20
330
1E
100
AcDbEntity
  8
0
100
AcDbBlockEnd
  0
BLOCK
  5
1B
330
1A
100
AcDbEntity
 67
     1
  8
0
100
AcDbBlockBegin
  2
*Paper_Space
 70
     0
 10
0.0
 20
0.0
 30
0.0
  3
*Paper_Space
  1

  0
ENDBLK
  5
1C
330
1A
100
AcDbEntity
 67
     1
  8
0
100
AcDbBlockEnd
  0
BLOCK
  5
33
330
32
100
AcDbEntity
  8
0
100
AcDbBlockBegin
  2
ACAD
 70
     0
 10
0.0
 20
0.0
 30
0.0
  3
ACAD
  1

  0
ENDBLK
  5
34
330
32
100
AcDbEntity
  8
0
100
AcDbBlockEnd
  0
BLOCK
  5
36
330
35
100
AcDbEntity
  8
0
100
AcDbBlockBegin
  2
*X1
 70
     1
 10
0.0
 20
0.0
 30
0.0
  3
*X1
  1

  0
LINE
  5
37
330
35
100
AcDbEntity
  8
0
 62
     0
100
AcDbLine
 10
14.47044299999999
 20
23.48605399999999
 30
0.0
 11
14.595443
 21
23.611054
 31
0.0
  0
LINE
  5
38
330
35
100
AcDbEntity
  8
0
 62
     0
100
AcDbLine
 10
14.47044299999999
 20
23.618637
 30
0.0
 11
14.595443
 21
23.74363699999999
 31
0.0
  0
LINE
  5
39
330
35
100
AcDbEntity
  8
0
 62
     0
100
AcDbLine
 10
14.47044299999999
 20
23.75121899999999
 30
0.0
 11
14.595443
 21
23.876219
 31
0.0
  0
LINE
  5
3A
330
35
100
AcDbEntity
  8
0
 62
     0
100
AcDbLine
 10
14.47044299999999
 20
23.88380199999999
 30
0.0
 11
14.595443
 21
24.008802
 31
0.0
  0
LINE
  5
3B
330
35
100
AcDbEntity
  8
0
 62
     0
100
AcDbLine
 10
14.47044299999999
 20
24.01638399999999
 30
0.0
 11
14.595443
 21
24.141384
 31
0.0
  0
LINE
  5
3C
330
35
100
AcDbEntity
  8
0
 62
     0
100
AcDbLine
 10
14.47044299999999
 20
24.148967
 30
0.0
 11
14.595443
 21
24.273967
 31
0.0
  0
LINE
  5
3D
330
35
100
AcDbEntity
  8
0
 62
     0
100
AcDbLine
 10
14.47044299999999
 20
24.281549
 30
0.0
 11
14.595443
 21
24.406549
 31
0.0
  0
LINE
  5
3E
330
35
100
AcDbEntity
  8
0
 62
     0
100
AcDbLine
 10
14.47044299999999
 20
24.414132
 30
0.0
 11
14.595443
 21
24.539132
 31
0.0
  0
LINE
  5
3F
330
35
100
AcDbEntity
  8
0
 62
     0
100
AcDbLine
 10
14.47044299999999
 20
24.546714
 30
0.0
 11
14.595443
 21
24.671714
 31
0.0
  0
LINE
  5
40
330
35
100
AcDbEntity
  8
0
 62
     0
100
AcDbLine
 10
14.411186
 20
24.620041
 30
0.0
 11
14.595443
 21
24.804297
 31
0.0
  0
LINE
  5
41
330
35
100
AcDbEntity
  8
0
 62
     0
100
AcDbLine
 10
14.47044299999999
 20
24.811879
 30
0.0
 11
14.595443
 21
24.936879
 31
0.0
  0
LINE
  5
42
330
35
100
AcDbEntity
  8
0
 62
     0
100
AcDbLine
 10
14.47044299999999
 20
24.944462
 30
0.0
 11
14.595443
 21
25.06946199999999
 31
0.0
  0
LINE
  5
43
330
35
100
AcDbEntity
  8
0
 62
     0
100
AcDbLine
 10
14.47044299999999
 20
25.077044
 30
0.0
 11
14.595443
 21
25.202044
 31
0.0
  0
LINE
  5
44
330
35
100
AcDbEntity
  8
0
 62
     0
100
AcDbLine
 10
14.47044299999999
 20
25.209627
 30
0.0
 11
14.595443
 21
25.33462699999999
 31
0.0
  0
LINE
  5
45
330
35
100
AcDbEntity
  8
0
 62
     0
100
AcDbLine
 10
14.47044299999999
 20
25.342209
 30
0.0
 11
14.595443
 21
25.467209
 31
0.0
  0
LINE
  5
46
330
35
100
AcDbEntity
  8
0
 62
     0
100
AcDbLine
 10
14.47044299999999
 20
25.474792
 30
0.0
 11
14.595443
 21
25.599792
 31
0.0
  0
LINE
  5
47
330
35
100
AcDbEntity
  8
0
 62
     0
100
AcDbLine
 10
14.47044299999999
 20
25.607374
 30
0.0
 11
14.52474599999999
 21
25.661678
 31
0.0
  0
LINE
  5
48
330
35
100
AcDbEntity
  8
0
 62
     0
100
AcDbLine
 10
14.47044299999999
 20
23.35347099999999
 30
0.0
 11
14.595443
 21
23.478471
 31
0.0
  0
LINE
  5
49
330
35
100
AcDbEntity
  8
0
 62
     0
100
AcDbLine
 10
14.47044299999999
 20
23.220889
 30
0.0
 11
14.595443
 21
23.34588899999999
 31
0.0
  0
LINE
  5
4A
330
35
100
AcDbEntity
  8
0
 62
     0
100
AcDbLine
 10
14.47044299999999
 20
23.08830599999999
 30
0.0
 11
14.595443
 21
23.213306
 31
0.0
  0
LINE
  5
4B
330
35
100
AcDbEntity
  8
0
 62
     0
100
AcDbLine
 10
14.47044299999999
 20
22.955724
 30
0.0
 11
14.595443
 21
23.08072399999999
 31
0.0
  0
LINE
  5
4C
330
35
100
AcDbEntity
  8
0
 62
     0
100
AcDbLine
 10
14.47044299999999
 20
22.823141
 30
0.0
 11
14.595443
 21
22.94814099999999
 31
0.0
  0
LINE
  5
4D
330
35
100
AcDbEntity
  8
0
 62
     0
100
AcDbLine
 10
14.47044299999999
 20
22.690559
 30
0.0
 11
14.595443
 21
22.815559
 31
0.0
  0
LINE
  5
4E
330
35
100
AcDbEntity
  8
0
 62
     0
100
AcDbLine
 10
14.47044299999999
 20
22.557976
 30
0.0
 11
14.595443
 21
22.68297599999999
 31
0.0
  0
LINE
  5
4F
330
35
100
AcDbEntity
  8
0
 62
     0
100
AcDbLine
 10
14.47044299999999
 20
22.425394
 30
0.0
 11
14.595443
 21
22.550394
 31
0.0
  0
LINE
  5
50
330
35
100
AcDbEntity
  8
0
 62
     0
100
AcDbLine
 10
14.47044299999999
 20
22.292811
 30
0.0
 11
14.595443
 21
22.417811
 31
0.0
  0
LINE
  5
51
330
35
100
AcDbEntity
  8
0
 62
     0
100
AcDbLine
 10
14.47044299999999
 20
22.160229
 30
0.0
 11
14.595443
 21
22.285229
 31
0.0
  0
LINE
  5
52
330
35
100
AcDbEntity
  8
0
 62
     0
100
AcDbLine
 10
14.47044299999999
 20
22.027646
 30
0.0
 11
14.595443
 21
22.152646
 31
0.0
  0
LINE
  5
53
330
35
100
AcDbEntity
  8
0
 62
     0
100
AcDbLine
 10
14.423443
 20
21.848064
 30
0.0
 11
14.44141899999999
 21
21.86604099999999
 31
0.0
  0
LINE
  5
54
330
35
100
AcDbEntity
  8
0
 62
     0
100
AcDbLine
 10
14.47044299999999
 20
21.895064
 30
0.0
 11
14.595443
 21
22.020064
 31
0.0
  0
LINE
  5
55
330
35
100
AcDbEntity
  8
0
 62
     0
100
AcDbLine
 10
14.485443
 20
21.777481
 30
0.0
 11
14.595443
 21
21.887481
 31
0.0
  0
LINE
  5
56
330
35
100
AcDbEntity
  8
0
 62
     0
100
AcDbLine
 10
14.461215
 20
21.620672
 30
0.0
 11
14.595443
 21
21.754899
 31
0.0
  0
LINE
  5
57
330
35
100
AcDbEntity
  8
0
 62
     0
100
AcDbLine
 10
14.517104
 20
21.54397799999999
 30
0.0
 11
14.595443
 21
21.622316
 31
0.0
  0
ENDBLK
  5
58
330
35
100
AcDbEntity
  8
0
100
AcDbBlockEnd
  0
BLOCK
  5
5A
330
59
100
AcDbEntity
  8
0
100
AcDbBlockBegin
  2
*X2
 70
     1
 10
0.0
 20
0.0
 30
0.0
  3
*X2
  1

  0
LINE
  5
5B
330
59
100
AcDbEntity
  8
0
 62
     0
100
AcDbLine
 10
12.075443
 20
23.344957
 30
0.0
 11
12.200443
 21
23.469957
 31
0.0
  0
LINE
  5
5C
330
59
100
AcDbEntity
  8
0
 62
     0
100
AcDbLine
 10
12.075443
 20
23.477539
 30
0.0
 11
12.200443
 21
23.602539
 31
0.0
  0
LINE
  5
5D
330
59
100
AcDbEntity
  8
0
 62
     0
100
AcDbLine
 10
12.075443
 20
23.610122
 30
0.0
 11
12.200443
 21
23.73512199999999
 31
0.0
  0
LINE
  5
5E
330
59
100
AcDbEntity
  8
0
 62
     0
100
AcDbLine
 10
12.075443
 20
23.74270399999999
 30
0.0
 11
12.200443
 21
23.867704
 31
0.0
  0
LINE
  5
5F
330
59
100
AcDbEntity
  8
0
 62
     0
100
AcDbLine
 10
12.075443
 20
23.875287
 30
0.0
 11
12.200443
 21
24.000287
 31
0.0
  0
LINE
  5
60
330
59
100
AcDbEntity
  8
0
 62
     0
100
AcDbLine
 10
12.075443
 20
24.00786899999999
 30
0.0
 11
12.200443
 21
24.132869
 31
0.0
  0
LINE
  5
61
330
59
100
AcDbEntity
  8
0
 62
     0
100
AcDbLine
 10
12.075443
 20
24.140452
 30
0.0
 11
12.200443
 21
24.265452
 31
0.0
  0
LINE
  5
62
330
59
100
AcDbEntity
  8
0
 62
     0
100
AcDbLine
 10
12.075443
 20
24.27303399999999
 30
0.0
 11
12.200443
 21
24.398034
 31
0.0
  0
LINE
  5
63
330
59
100
AcDbEntity
  8
0
 62
     0
100
AcDbLine
 10
12.075443
 20
24.405617
 30
0.0
 11
12.200443
 21
24.530617
 31
0.0
  0
LINE
  5
64
330
59
100
AcDbEntity
  8
0
 62
     0
100
AcDbLine
 10
12.075443
 20
24.5382
 30
0.0
 11
12.222284
 21
24.685041
 31
0.0
  0
LINE
  5
65
330
59
100
AcDbEntity
  8
0
 62
     0
100
AcDbLine
 10
12.075443
 20
24.67078199999999
 30
0.0
 11
12.200443
 21
24.795782
 31
0.0
  0
LINE
  5
66
330
59
100
AcDbEntity
  8
0
 62
     0
100
AcDbLine
 10
12.075443
 20
24.80336499999999
 30
0.0
 11
12.200443
 21
24.928365
 31
0.0
  0
LINE
  5
67
330
59
100
AcDbEntity
  8
0
 62
     0
100
AcDbLine
 10
12.075443
 20
24.935947
 30
0.0
 11
12.200443
 21
25.060947
 31
0.0
  0
LINE
  5
68
330
59
100
AcDbEntity
  8
0
 62
     0
100
AcDbLine
 10
12.075443
 20
25.06852999999999
 30
0.0
 11
12.200443
 21
25.19353
 31
0.0
  0
LINE
  5
69
330
59
100
AcDbEntity
  8
0
 62
     0
100
AcDbLine
 10
12.075443
 20
25.201112
 30
0.0
 11
12.200443
 21
25.32611199999999
 31
0.0
  0
LINE
  5
6A
330
59
100
AcDbEntity
  8
0
 62
     0
100
AcDbLine
 10
12.075443
 20
25.333695
 30
0.0
 11
12.200443
 21
25.458695
 31
0.0
  0
LINE
  5
6B
330
59
100
AcDbEntity
  8
0
 62
     0
100
AcDbLine
 10
12.075443
 20
25.466277
 30
0.0
 11
12.13232899999999
 21
25.523164
 31
0.0
  0
LINE
  5
6C
330
59
100
AcDbEntity
  8
0
 62
     0
100
AcDbLine
 10
12.075443
 20
23.212374
 30
0.0
 11
12.200443
 21
23.33737399999999
 31
0.0
  0
LINE
  5
6D
330
59
100
AcDbEntity
  8
0
 62
     0
100
AcDbLine
 10
12.075443
 20
23.079792
 30
0.0
 11
12.200443
 21
23.204792
 31
0.0
  0
LINE
  5
6E
330
59
100
AcDbEntity
  8
0
 62
     0
100
AcDbLine
 10
12.075443
 20
22.947209
 30
0.0
 11
12.200443
 21
23.072209
 31
0.0
  0
LINE
  5
6F
330
59
100
AcDbEntity
  8
0
 62
     0
100
AcDbLine
 10
12.075443
 20
22.814627
 30
0.0
 11
12.200443
 21
22.93962699999999
 31
0.0
  0
LINE
  5
70
330
59
100
AcDbEntity
  8
0
 62
     0
100
AcDbLine
 10
12.075443
 20
22.682044
 30
0.0
 11
12.200443
 21
22.807044
 31
0.0
  0
LINE
  5
71
330
59
100
AcDbEntity
  8
0
 62
     0
100
AcDbLine
 10
12.075443
 20
22.549462
 30
0.0
 11
12.200443
 21
22.67446199999999
 31
0.0
  0
LINE
  5
72
330
59
100
AcDbEntity
  8
0
 62
     0
100
AcDbLine
 10
12.075443
 20
22.416879
 30
0.0
 11
12.200443
 21
22.541879
 31
0.0
  0
LINE
  5
73
330
59
100
AcDbEntity
  8
0
 62
     0
100
AcDbLine
 10
12.075443
 20
22.28429699999999
 30
0.0
 11
12.200443
 21
22.409297
 31
0.0
  0
LINE
  5
74
330
59
100
AcDbEntity
  8
0
 62
     0
100
AcDbLine
 10
12.075443
 20
22.151714
 30
0.0
 11
12.200443
 21
22.276714
 31
0.0
  0
LINE
  5
75
330
59
100
AcDbEntity
  8
0
 62
     0
100
AcDbLine
 10
12.075443
 20
22.01913199999999
 30
0.0
 11
12.200443
 21
22.144132
 31
0.0
  0
LINE
  5
76
330
59
100
AcDbEntity
  8
0
 62
     0
100
AcDbLine
 10
12.075443
 20
21.88654899999999
 30
0.0
 11
12.200443
 21
22.011549
 31
0.0
  0
LINE
  5
77
330
59
100
AcDbEntity
  8
0
 62
     0
100
AcDbLine
 10
12.075443
 20
21.753967
 30
0.0
 11
12.200443
 21
21.878967
 31
0.0
  0
LINE
  5
78
330
59
100
AcDbEntity
  8
0
 62
     0
100
AcDbLine
 10
12.075443
 20
21.62138399999999
 30
0.0
 11
12.185443
 21
21.731384
 31
0.0
  0
LINE
  5
79
330
59
100
AcDbEntity
  8
0
 62
     0
100
AcDbLine
 10
12.240099
 20
21.786041
 30
0.0
 11
12.247443
 21
21.793384
 31
0.0
  0
LINE
  5
7A
330
59
100
AcDbEntity
  8
0
 62
     0
100
AcDbLine
 10
12.131588
 20
21.544947
 30
0.0
 11
12.212846
 21
21.626205
 31
0.0
  0
ENDBLK
  5
7B
330
59
100
AcDbEntity
  8
0
100
AcDbBlockEnd
  0
BLOCK
  5
7D
330
7C
100
AcDbEntity
  8
0
100
AcDbBlockBegin
  2
*X3
 70
     1
 10
0.0
 20
0.0
 30
0.0
  3
*X3
  1

  0
LINE
  5
7E
330
7C
100
AcDbEntity
  8
0
 62
     0
100
AcDbLine
 10
13.31530899999999
 20
21.686477
 30
0.0
 11
13.215745
 21
21.786041
 31
0.0
  0
LINE
  5
7F
330
7C
100
AcDbEntity
  8
0
 62
     0
100
AcDbLine
 10
13.182726
 20
21.686477
 30
0.0
 11
13.083163
 21
21.786041
 31
0.0
  0
LINE
  5
80
330
7C
100
AcDbEntity
  8
0
 62
     0
100
AcDbLine
 10
13.05014299999999
 20
21.686477
 30
0.0
 11
12.95058
 21
21.786041
 31
0.0
  0
LINE
  5
81
330
7C
100
AcDbEntity
  8
0
 62
     0
100
AcDbLine
 10
12.91756099999999
 20
21.686477
 30
0.0
 11
12.81799799999999
 21
21.786041
 31
0.0
  0
LINE
  5
82
330
7C
100
AcDbEntity
  8
0
 62
     0
100
AcDbLine
 10
12.784978
 20
21.686477
 30
0.0
 11
12.68541499999999
 21
21.786041
 31
0.0
  0
LINE
  5
83
330
7C
100
AcDbEntity
  8
0
 62
     0
100
AcDbLine
 10
12.652396
 20
21.686477
 30
0.0
 11
12.552833
 21
21.786041
 31
0.0
  0
LINE
  5
84
330
7C
100
AcDbEntity
  8
0
 62
     0
100
AcDbLine
 10
12.519813
 20
21.686477
 30
0.0
 11
12.42024999999999
 21
21.786041
 31
0.0
  0
LINE
  5
85
330
7C
100
AcDbEntity
  8
0
 62
     0
100
AcDbLine
 10
12.387231
 20
21.686477
 30
0.0
 11
12.28766699999999
 21
21.786041
 31
0.0
  0
LINE
  5
86
330
7C
100
AcDbEntity
  8
0
 62
     0
100
AcDbLine
 10
12.254648
 20
21.686477
 30
0.0
 11
12.185443
 21
21.75568299999999
 31
0.0
  0
LINE
  5
87
330
7C
100
AcDbEntity
  8
0
 62
     0
100
AcDbLine
 10
13.447891
 20
21.686477
 30
0.0
 11
13.348328
 21
21.786041
 31
0.0
  0
LINE
  5
88
330
7C
100
AcDbEntity
  8
0
 62
     0
100
AcDbLine
 10
13.580474
 20
21.686477
 30
0.0
 11
13.48091
 21
21.786041
 31
0.0
  0
LINE
  5
89
330
7C
100
AcDbEntity
  8
0
 62
     0
100
AcDbLine
 10
13.713056
 20
21.686477
 30
0.0
 11
13.613493
 21
21.786041
 31
0.0
  0
LINE
  5
8A
330
7C
100
AcDbEntity
  8
0
 62
     0
100
AcDbLine
 10
13.845639
 20
21.686477
 30
0.0
 11
13.74607499999999
 21
21.786041
 31
0.0
  0
LINE
  5
8B
330
7C
100
AcDbEntity
  8
0
 62
     0
100
AcDbLine
 10
13.97822099999999
 20
21.686477
 30
0.0
 11
13.87865799999999
 21
21.786041
 31
0.0
  0
LINE
  5
8C
330
7C
100
AcDbEntity
  8
0
 62
     0
100
AcDbLine
 10
14.110804
 20
21.686477
 30
0.0
 11
14.01124
 21
21.786041
 31
0.0
  0
LINE
  5
8D
330
7C
100
AcDbEntity
  8
0
 62
     0
100
AcDbLine
 10
14.243386
 20
21.686477
 30
0.0
 11
14.143823
 21
21.786041
 31
0.0
  0
LINE
  5
8E
330
7C
100
AcDbEntity
  8
0
 62
     0
100
AcDbLine
 10
14.37596899999999
 20
21.686477
 30
0.0
 11
14.27640499999999
 21
21.786041
 31
0.0
  0
LINE
  5
8F
330
7C
100
AcDbEntity
  8
0
 62
     0
100
AcDbLine
 10
14.485443
 20
21.709586
 30
0.0
 11
14.408988
 21
21.786041
 31
0.0
  0
ENDBLK
  5
90
330
7C
100
AcDbEntity
  8
0
100
AcDbBlockEnd
  0
BLOCK
  5
92
330
91
100
AcDbEntity
  8
0
100
AcDbBlockBegin
  2
*X4
 70
     1
 10
0.0
 20
0.0
 30
0.0
  3
*X4
  1

  0
LINE
  5
93
330
91
100
AcDbEntity
  8
0
 62
     0
100
AcDbLine
 10
6.136226999999999
 20
16.535384
 30
0.0
 11
6.011226999999999
 21
16.660384
 31
0.0
  0
LINE
  5
94
330
91
100
AcDbEntity
  8
0
 62
     0
100
AcDbLine
 10
6.003644999999999
 20
16.535384
 30
0.0
 11
5.878644999999999
 21
16.660384
 31
0.0
  0
LINE
  5
95
330
91
100
AcDbEntity
  8
0
 62
     0
100
AcDbLine
 10
5.871062
 20
16.535384
 30
0.0
 11
5.746062
 21
16.660384
 31
0.0
  0
LINE
  5
96
330
91
100
AcDbEntity
  8
0
 62
     0
100
AcDbLine
 10
5.73848
 20
16.535384
 30
0.0
 11
5.61348
 21
16.660384
 31
0.0
  0
LINE
  5
97
330
91
100
AcDbEntity
  8
0
 62
     0
100
AcDbLine
 10
5.605896999999999
 20
16.535384
 30
0.0
 11
5.480896999999999
 21
16.660384
 31
0.0
  0
LINE
  5
98
330
91
100
AcDbEntity
  8
0
 62
     0
100
AcDbLine
 10
5.473315
 20
16.535384
 30
0.0
 11
5.348315
 21
16.660384
 31
0.0
  0
LINE
  5
99
330
91
100
AcDbEntity
  8
0
 62
     0
100
AcDbLine
 10
5.340732
 20
16.535384
 30
0.0
 11
5.215732
 21
16.660384
 31
0.0
  0
LINE
  5
9A
330
91
100
AcDbEntity
  8
0
 62
     0
100
AcDbLine
 10
5.208149999999999
 20
16.535384
 30
0.0
 11
5.083149999999999
 21
16.660384
 31
0.0
  0
LINE
  5
9B
330
91
100
AcDbEntity
  8
0
 62
     0
100
AcDbLine
 10
5.075566999999999
 20
16.535384
 30
0.0
 11
4.950566999999999
 21
16.660384
 31
0.0
  0
LINE
  5
9C
330
91
100
AcDbEntity
  8
0
 62
     0
100
AcDbLine
 10
4.942985
 20
16.535384
 30
0.0
 11
4.817985
 21
16.660384
 31
0.0
  0
LINE
  5
9D
330
91
100
AcDbEntity
  8
0
 62
     0
100
AcDbLine
 10
4.810401999999999
 20
16.535384
 30
0.0
 11
4.685401999999999
 21
16.660384
 31
0.0
  0
LINE
  5
9E
330
91
100
AcDbEntity
  8
0
 62
     0
100
AcDbLine
 10
4.677819999999999
 20
16.535384
 30
0.0
 11
4.552819999999999
 21
16.660384
 31
0.0
  0
LINE
  5
9F
330
91
100
AcDbEntity
  8
0
 62
     0
100
AcDbLine
 10
3.554948999999999
 20
17.658255
 30
0.0
 11
3.432819999999999
 21
17.78038399999999
 31
0.0
  0
LINE
  5
A0
330
91
100
AcDbEntity
  8
0
 62
     0
100
AcDbLine
 10
4.545237
 20
16.535384
 30
0.0
 11
4.420237
 21
16.660384
 31
0.0
  0
LINE
  5
A1
330
91
100
AcDbEntity
  8
0
 62
     0
100
AcDbLine
 10
3.554948999999999
 20
17.525672
 30
0.0
 11
3.384273
 21
17.696348
 31
0.0
  0
LINE
  5
A2
330
91
100
AcDbEntity
  8
0
 62
     0
100
AcDbLine
 10
4.412654999999999
 20
16.535384
 30
0.0
 11
4.287654999999999
 21
16.660384
 31
0.0
  0
LINE
  5
A3
330
91
100
AcDbEntity
  8
0
 62
     0
100
AcDbLine
 10
3.554948999999999
 20
17.39309
 30
0.0
 11
3.390326
 21
17.557713
 31
0.0
  0
LINE
  5
A4
330
91
100
AcDbEntity
  8
0
 62
     0
100
AcDbLine
 10
4.280072
 20
16.535384
 30
0.0
 11
4.155072
 21
16.660384
 31
0.0
  0
LINE
  5
A5
330
91
100
AcDbEntity
  8
0
 62
     0
100
AcDbLine
 10
3.554948999999999
 20
17.260507
 30
0.0
 11
3.396379
 21
17.41907699999999
 31
0.0
  0
LINE
  5
A6
330
91
100
AcDbEntity
  8
0
 62
     0
100
AcDbLine
 10
4.14749
 20
16.535384
 30
0.0
 11
4.02249
 21
16.660384
 31
0.0
  0
LINE
  5
A7
330
91
100
AcDbEntity
  8
0
 62
     0
100
AcDbLine
 10
3.554948999999999
 20
17.127925
 30
0.0
 11
3.402430999999999
 21
17.280442
 31
0.0
  0
LINE
  5
A8
330
91
100
AcDbEntity
  8
0
 62
     0
100
AcDbLine
 10
4.014907
 20
16.535384
 30
0.0
 11
3.889907
 21
16.660384
 31
0.0
  0
LINE
  5
A9
330
91
100
AcDbEntity
  8
0
 62
     0
100
AcDbLine
 10
3.554948999999999
 20
16.995342
 30
0.0
 11
3.408483999999999
 21
17.14180599999999
 31
0.0
  0
LINE
  5
AA
330
91
100
AcDbEntity
  8
0
 62
     0
100
AcDbLine
 10
3.882323999999999
 20
16.535384
 30
0.0
 11
3.757323999999999
 21
16.660384
 31
0.0
  0
LINE
  5
AB
330
91
100
AcDbEntity
  8
0
 62
     0
100
AcDbLine
 10
3.554948999999999
 20
16.86276
 30
0.0
 11
3.414537
 21
17.00317099999999
 31
0.0
  0
LINE
  5
AC
330
91
100
AcDbEntity
  8
0
 62
     0
100
AcDbLine
 10
3.749741999999999
 20
16.535384
 30
0.0
 11
3.624741999999999
 21
16.660384
 31
0.0
  0
LINE
  5
AD
330
91
100
AcDbEntity
  8
0
 62
     0
100
AcDbLine
 10
3.554948999999999
 20
16.73017699999999
 30
0.0
 11
3.42059
 21
16.864535
 31
0.0
  0
LINE
  5
AE
330
91
100
AcDbEntity
  8
0
 62
     0
100
AcDbLine
 10
3.617158999999999
 20
16.535384
 30
0.0
 11
3.426642999999999
 21
16.7259
 31
0.0
  0
LINE
  5
AF
330
91
100
AcDbEntity
  8
0
 62
     0
100
AcDbLine
 10
3.484576999999999
 20
16.535384
 30
0.0
 11
3.432695999999999
 21
16.587265
 31
0.0
  0
LINE
  5
B0
330
91
100
AcDbEntity
  8
0
 62
     0
100
AcDbLine
 10
6.26881
 20
16.535384
 30
0.0
 11
6.14381
 21
16.660384
 31
0.0
  0
LINE
  5
B1
330
91
100
AcDbEntity
  8
0
 62
     0
100
AcDbLine
 10
6.401391999999999
 20
16.535384
 30
0.0
 11
6.276391999999999
 21
16.660384
 31
0.0
  0
LINE
  5
B2
330
91
100
AcDbEntity
  8
0
 62
     0
100
AcDbLine
 10
6.533974999999999
 20
16.535384
 30
0.0
 11
6.408974999999999
 21
16.660384
 31
0.0
  0
LINE
  5
B3
330
91
100
AcDbEntity
  8
0
 62
     0
100
AcDbLine
 10
6.666557
 20
16.535384
 30
0.0
 11
6.541557
 21
16.660384
 31
0.0
  0
LINE
  5
B4
330
91
100
AcDbEntity
  8
0
 62
     0
100
AcDbLine
 10
6.799139999999999
 20
16.535384
 30
0.0
 11
6.674139999999999
 21
16.660384
 31
0.0
  0
LINE
  5
B5
330
91
100
AcDbEntity
  8
0
 62
     0
100
AcDbLine
 10
6.931721999999999
 20
16.535384
 30
0.0
 11
6.806721999999999
 21
16.660384
 31
0.0
  0
LINE
  5
B6
330
91
100
AcDbEntity
  8
0
 62
     0
100
AcDbLine
 10
7.064305
 20
16.535384
 30
0.0
 11
6.939305
 21
16.660384
 31
0.0
  0
LINE
  5
B7
330
91
100
AcDbEntity
  8
0
 62
     0
100
AcDbLine
 10
7.196886999999999
 20
16.535384
 30
0.0
 11
7.071886999999999
 21
16.660384
 31
0.0
  0
LINE
  5
B8
330
91
100
AcDbEntity
  8
0
 62
     0
100
AcDbLine
 10
7.329469999999999
 20
16.535384
 30
0.0
 11
7.204469999999999
 21
16.660384
 31
0.0
  0
LINE
  5
B9
330
91
100
AcDbEntity
  8
0
 62
     0
100
AcDbLine
 10
7.462053
 20
16.535384
 30
0.0
 11
7.337053
 21
16.660384
 31
0.0
  0
LINE
  5
BA
330
91
100
AcDbEntity
  8
0
 62
     0
100
AcDbLine
 10
7.594635
 20
16.535384
 30
0.0
 11
7.469635
 21
16.660384
 31
0.0
  0
LINE
  5
BB
330
91
100
AcDbEntity
  8
0
 62
     0
100
AcDbLine
 10
7.727217999999999
 20
16.535384
 30
0.0
 11
7.602217999999999
 21
16.660384
 31
0.0
  0
ENDBLK
  5
BC
330
91
100
AcDbEntity
  8
0
100
AcDbBlockEnd
  0
BLOCK
  5
BE
330
BD
100
AcDbEntity
  8
0
100
AcDbBlockBegin
  2
*X5
 70
     1
 10
0.0
 20
0.0
 30
0.0
  3
*X5
  1

  0
LINE
  5
BF
330
BD
100
AcDbEntity
  8
0
 62
     0
100
AcDbLine
 10
6.069879
 20
18.930384
 30
0.0
 11
6.194879
 21
19.055384
 31
0.0
  0
LINE
  5
C0
330
BD
100
AcDbEntity
  8
0
 62
     0
100
AcDbLine
 10
5.937297
 20
18.930384
 30
0.0
 11
6.062297
 21
19.055384
 31
0.0
  0
LINE
  5
C1
330
BD
100
AcDbEntity
  8
0
 62
     0
100
AcDbLine
 10
5.804713999999999
 20
18.930384
 30
0.0
 11
5.929713999999999
 21
19.055384
 31
0.0
  0
LINE
  5
C2
330
BD
100
AcDbEntity
  8
0
 62
     0
100
AcDbLine
 10
5.672132
 20
18.930384
 30
0.0
 11
5.797132
 21
19.055384
 31
0.0
  0
LINE
  5
C3
330
BD
100
AcDbEntity
  8
0
 62
     0
100
AcDbLine
 10
5.539549
 20
18.930384
 30
0.0
 11
5.664549
 21
19.055384
 31
0.0
  0
LINE
  5
C4
330
BD
100
AcDbEntity
  8
0
 62
     0
100
AcDbLine
 10
5.406966999999999
 20
18.930384
 30
0.0
 11
5.531966999999999
 21
19.055384
 31
0.0
  0
LINE
  5
C5
330
BD
100
AcDbEntity
  8
0
 62
     0
100
AcDbLine
 10
5.274383999999999
 20
18.930384
 30
0.0
 11
5.399383999999999
 21
19.055384
 31
0.0
  0
LINE
  5
C6
330
BD
100
AcDbEntity
  8
0
 62
     0
100
AcDbLine
 10
5.141801999999999
 20
18.930384
 30
0.0
 11
5.266801999999999
 21
19.055384
 31
0.0
  0
LINE
  5
C7
330
BD
100
AcDbEntity
  8
0
 62
     0
100
AcDbLine
 10
5.009218999999999
 20
18.930384
 30
0.0
 11
5.134218999999999
 21
19.055384
 31
0.0
  0
LINE
  5
C8
330
BD
100
AcDbEntity
  8
0
 62
     0
100
AcDbLine
 10
4.876637
 20
18.930384
 30
0.0
 11
5.001637
 21
19.055384
 31
0.0
  0
LINE
  5
C9
330
BD
100
AcDbEntity
  8
0
 62
     0
100
AcDbLine
 10
4.744054
 20
18.930384
 30
0.0
 11
4.869054
 21
19.055384
 31
0.0
  0
LINE
  5
CA
330
BD
100
AcDbEntity
  8
0
 62
     0
100
AcDbLine
 10
3.491471999999999
 20
17.81038399999999
 30
0.0
 11
3.554948999999999
 21
17.87386099999999
 31
0.0
  0
LINE
  5
CB
330
BD
100
AcDbEntity
  8
0
 62
     0
100
AcDbLine
 10
4.611472
 20
18.930384
 30
0.0
 11
4.736472
 21
19.055384
 31
0.0
  0
LINE
  5
CC
330
BD
100
AcDbEntity
  8
0
 62
     0
100
AcDbLine
 10
3.381594999999999
 20
17.83309
 30
0.0
 11
3.554948999999999
 21
18.006443
 31
0.0
  0
LINE
  5
CD
330
BD
100
AcDbEntity
  8
0
 62
     0
100
AcDbLine
 10
4.478888999999999
 20
18.930384
 30
0.0
 11
4.603888999999999
 21
19.055384
 31
0.0
  0
LINE
  5
CE
330
BD
100
AcDbEntity
  8
0
 62
     0
100
AcDbLine
 10
3.387648
 20
17.971725
 30
0.0
 11
3.554948999999999
 21
18.139026
 31
0.0
  0
LINE
  5
CF
330
BD
100
AcDbEntity
  8
0
 62
     0
100
AcDbLine
 10
4.346305999999999
 20
18.930384
 30
0.0
 11
4.471305999999999
 21
19.055384
 31
0.0
  0
LINE
  5
D0
330
BD
100
AcDbEntity
  8
0
 62
     0
100
AcDbLine
 10
3.393701
 20
18.11036099999999
 30
0.0
 11
3.554948999999999
 21
18.27160799999999
 31
0.0
  0
LINE
  5
D1
330
BD
100
AcDbEntity
  8
0
 62
     0
100
AcDbLine
 10
4.213724
 20
18.930384
 30
0.0
 11
4.338724
 21
19.055384
 31
0.0
  0
LINE
  5
D2
330
BD
100
AcDbEntity
  8
0
 62
     0
100
AcDbLine
 10
3.399754
 20
18.24899599999999
 30
0.0
 11
3.554948999999999
 21
18.404191
 31
0.0
  0
LINE
  5
D3
330
BD
100
AcDbEntity
  8
0
 62
     0
100
AcDbLine
 10
4.081141
 20
18.930384
 30
0.0
 11
4.206141
 21
19.055384
 31
0.0
  0
LINE
  5
D4
330
BD
100
AcDbEntity
  8
0
 62
     0
100
AcDbLine
 10
3.405806999999999
 20
18.38763199999999
 30
0.0
 11
3.554948999999999
 21
18.53677399999999
 31
0.0
  0
LINE
  5
D5
330
BD
100
AcDbEntity
  8
0
 62
     0
100
AcDbLine
 10
3.948558999999999
 20
18.930384
 30
0.0
 11
4.073558999999999
 21
19.055384
 31
0.0
  0
LINE
  5
D6
330
BD
100
AcDbEntity
  8
0
 62
     0
100
AcDbLine
 10
3.411859999999999
 20
18.526267
 30
0.0
 11
3.554948999999999
 21
18.669356
 31
0.0
  0
LINE
  5
D7
330
BD
100
AcDbEntity
  8
0
 62
     0
100
AcDbLine
 10
3.815976
 20
18.930384
 30
0.0
 11
3.940976
 21
19.055384
 31
0.0
  0
LINE
  5
D8
330
BD
100
AcDbEntity
  8
0
 62
     0
100
AcDbLine
 10
3.417912999999999
 20
18.66490299999999
 30
0.0
 11
3.554948999999999
 21
18.801939
 31
0.0
  0
LINE
  5
D9
330
BD
100
AcDbEntity
  8
0
 62
     0
100
AcDbLine
 10
3.683394
 20
18.930384
 30
0.0
 11
3.808394
 21
19.055384
 31
0.0
  0
LINE
  5
DA
330
BD
100
AcDbEntity
  8
0
 62
     0
100
AcDbLine
 10
3.423966
 20
18.80353799999999
 30
0.0
 11
3.675810999999999
 21
19.055384
 31
0.0
  0
LINE
  5
DB
330
BD
100
AcDbEntity
  8
0
 62
     0
100
AcDbLine
 10
3.430019
 20
18.94217399999999
 30
0.0
 11
3.543229
 21
19.055384
 31
0.0
  0
LINE
  5
DC
330
BD
100
AcDbEntity
  8
0
 62
     0
100
AcDbLine
 10
6.202462
 20
18.930384
 30
0.0
 11
6.327462
 21
19.055384
 31
0.0
  0
LINE
  5
DD
330
BD
100
AcDbEntity
  8
0
 62
     0
100
AcDbLine
 10
6.335043999999999
 20
18.930384
 30
0.0
 11
6.460043999999999
 21
19.055384
 31
0.0
  0
LINE
  5
DE
330
BD
100
AcDbEntity
  8
0
 62
     0
100
AcDbLine
 10
6.467626999999999
 20
18.930384
 30
0.0
 11
6.592627
 21
19.055384
 31
0.0
  0
LINE
  5
DF
330
BD
100
AcDbEntity
  8
0
 62
     0
100
AcDbLine
 10
6.600208999999999
 20
18.930384
 30
0.0
 11
6.725208999999999
 21
19.055384
 31
0.0
  0
LINE
  5
E0
330
BD
100
AcDbEntity
  8
0
 62
     0
100
AcDbLine
 10
6.732791999999999
 20
18.930384
 30
0.0
 11
6.857791999999999
 21
19.055384
 31
0.0
  0
LINE
  5
E1
330
BD
100
AcDbEntity
  8
0
 62
     0
100
AcDbLine
 10
6.865374
 20
18.930384
 30
0.0
 11
6.990374
 21
19.055384
 31
0.0
  0
LINE
  5
E2
330
BD
100
AcDbEntity
  8
0
 62
     0
100
AcDbLine
 10
6.997957
 20
18.930384
 30
0.0
 11
7.122957
 21
19.055384
 31
0.0
  0
LINE
  5
E3
330
BD
100
AcDbEntity
  8
0
 62
     0
100
AcDbLine
 10
7.130538999999999
 20
18.930384
 30
0.0
 11
7.255538999999999
 21
19.055384
 31
0.0
  0
LINE
  5
E4
330
BD
100
AcDbEntity
  8
0
 62
     0
100
AcDbLine
 10
7.263122
 20
18.930384
 30
0.0
 11
7.388122
 21
19.055384
 31
0.0
  0
LINE
  5
E5
330
BD
100
AcDbEntity
  8
0
 62
     0
100
AcDbLine
 10
7.395703999999999
 20
18.930384
 30
0.0
 11
7.520703999999999
 21
19.055384
 31
0.0
  0
LINE
  5
E6
330
BD
100
AcDbEntity
  8
0
 62
     0
100
AcDbLine
 10
7.528286999999999
 20
18.930384
 30
0.0
 11
7.653286999999999
 21
19.055384
 31
0.0
  0
LINE
  5
E7
330
BD
100
AcDbEntity
  8
0
 62
     0
100
AcDbLine
 10
7.66087
 20
18.930384
 30
0.0
 11
7.673878999999999
 21
18.943393
 31
0.0
  0
ENDBLK
  5
E8
330
BD
100
AcDbEntity
  8
0
100
AcDbBlockEnd
  0
BLOCK
  5
113
330
112
100
AcDbEntity
  8
0
100
AcDbBlockBegin
  2
*X6
 70
     1
 10
0.0
 20
0.0
 30
0.0
  3
*X6
  1

  0
LINE
  5
114
330
112
100
AcDbEntity
  8
0
 62
     0
100
AcDbLine
 10
17.50989599999999
 20
21.071617
 30
0.0
 11
17.41033299999999
 21
21.171181
 31
0.0
  0
LINE
  5
115
330
112
100
AcDbEntity
  8
0
 62
     0
100
AcDbLine
 10
17.377314
 20
21.071617
 30
0.0
 11
17.277751
 21
21.171181
 31
0.0
  0
LINE
  5
116
330
112
100
AcDbEntity
  8
0
 62
     0
100
AcDbLine
 10
17.24473099999999
 20
21.071617
 30
0.0
 11
17.14516799999999
 21
21.171181
 31
0.0
  0
LINE
  5
117
330
112
100
AcDbEntity
  8
0
 62
     0
100
AcDbLine
 10
17.11214899999999
 20
21.071617
 30
0.0
 11
17.012585
 21
21.171181
 31
0.0
  0
LINE
  5
118
330
112
100
AcDbEntity
  8
0
 62
     0
100
AcDbLine
 10
16.979566
 20
21.071617
 30
0.0
 11
16.88000299999999
 21
21.171181
 31
0.0
  0
LINE
  5
119
330
112
100
AcDbEntity
  8
0
 62
     0
100
AcDbLine
 10
16.846984
 20
21.071617
 30
0.0
 11
16.74742
 21
21.171181
 31
0.0
  0
LINE
  5
11A
330
112
100
AcDbEntity
  8
0
 62
     0
100
AcDbLine
 10
16.714401
 20
21.071617
 30
0.0
 11
16.614838
 21
21.171181
 31
0.0
  0
LINE
  5
11B
330
112
100
AcDbEntity
  8
0
 62
     0
100
AcDbLine
 10
16.58181899999999
 20
21.071617
 30
0.0
 11
16.48225499999999
 21
21.171181
 31
0.0
  0
LINE
  5
11C
330
112
100
AcDbEntity
  8
0
 62
     0
100
AcDbLine
 10
16.449236
 20
21.071617
 30
0.0
 11
16.349673
 21
21.171181
 31
0.0
  0
LINE
  5
11D
330
112
100
AcDbEntity
  8
0
 62
     0
100
AcDbLine
 10
16.316654
 20
21.071617
 30
0.0
 11
16.21709
 21
21.171181
 31
0.0
  0
LINE
  5
11E
330
112
100
AcDbEntity
  8
0
 62
     0
100
AcDbLine
 10
16.18407099999999
 20
21.071617
 30
0.0
 11
16.08450799999999
 21
21.171181
 31
0.0
  0
LINE
  5
11F
330
112
100
AcDbEntity
  8
0
 62
     0
100
AcDbLine
 10
16.051489
 20
21.071617
 30
0.0
 11
15.96232099999999
 21
21.16078499999999
 31
0.0
  0
LINE
  5
120
330
112
100
AcDbEntity
  8
0
 62
     0
100
AcDbLine
 10
17.642479
 20
21.071617
 30
0.0
 11
17.542916
 21
21.171181
 31
0.0
  0
LINE
  5
121
330
112
100
AcDbEntity
  8
0
 62
     0
100
AcDbLine
 10
17.77506099999999
 20
21.071617
 30
0.0
 11
17.675498
 21
21.171181
 31
0.0
  0
LINE
  5
122
330
112
100
AcDbEntity
  8
0
 62
     0
100
AcDbLine
 10
17.907644
 20
21.071617
 30
0.0
 11
17.808081
 21
21.171181
 31
0.0
  0
LINE
  5
123
330
112
100
AcDbEntity
  8
0
 62
     0
100
AcDbLine
 10
18.04022699999999
 20
21.071617
 30
0.0
 11
17.940663
 21
21.171181
 31
0.0
  0
LINE
  5
124
330
112
100
AcDbEntity
  8
0
 62
     0
100
AcDbLine
 10
18.172809
 20
21.071617
 30
0.0
 11
18.07324599999999
 21
21.171181
 31
0.0
  0
LINE
  5
125
330
112
100
AcDbEntity
  8
0
 62
     0
100
AcDbLine
 10
18.305392
 20
21.071617
 30
0.0
 11
18.205828
 21
21.171181
 31
0.0
  0
LINE
  5
126
330
112
100
AcDbEntity
  8
0
 62
     0
100
AcDbLine
 10
18.437974
 20
21.071617
 30
0.0
 11
18.33841099999999
 21
21.171181
 31
0.0
  0
LINE
  5
127
330
112
100
AcDbEntity
  8
0
 62
     0
100
AcDbLine
 10
18.570557
 20
21.071617
 30
0.0
 11
18.47099299999999
 21
21.171181
 31
0.0
  0
LINE
  5
128
330
112
100
AcDbEntity
  8
0
 62
     0
100
AcDbLine
 10
18.703139
 20
21.071617
 30
0.0
 11
18.603576
 21
21.171181
 31
0.0
  0
LINE
  5
129
330
112
100
AcDbEntity
  8
0
 62
     0
100
AcDbLine
 10
18.835722
 20
21.071617
 30
0.0
 11
18.73615799999999
 21
21.171181
 31
0.0
  0
LINE
  5
12A
330
112
100
AcDbEntity
  8
0
 62
     0
100
AcDbLine
 10
18.96830399999999
 20
21.071617
 30
0.0
 11
18.86874099999999
 21
21.171181
 31
0.0
  0
LINE
  5
12B
330
112
100
AcDbEntity
  8
0
 62
     0
100
AcDbLine
 10
19.04232099999999
 20
21.13018299999999
 30
0.0
 11
19.001323
 21
21.171181
 31
0.0
  0
ENDBLK
  5
12C
330
112
100
AcDbEntity
  8
0
100
AcDbBlockEnd
  0
BLOCK
  5
202
330
201
100
AcDbEntity
  8
0
100
AcDbBlockBegin
  2
*X7
 70
     1
 10
0.0
 20
0.0
 30
0.0
  3
*X7
  1

  0
LINE
  5
203
330
201
100
AcDbEntity
  8
0
 62
     0
100
AcDbLine
 10
5.310753
 20
8.890480999999999
 30
0.0
 11
5.435753
 21
9.015480999999999
 31
0.0
  0
LINE
  5
204
330
201
100
AcDbEntity
  8
0
 62
     0
100
AcDbLine
 10
5.178170999999999
 20
8.890480999999999
 30
0.0
 11
5.303170999999999
 21
9.015480999999999
 31
0.0
  0
LINE
  5
205
330
201
100
AcDbEntity
  8
0
 62
     0
100
AcDbLine
 10
5.045587999999999
 20
8.890480999999999
 30
0.0
 11
5.170587999999999
 21
9.015480999999999
 31
0.0
  0
LINE
  5
206
330
201
100
AcDbEntity
  8
0
 62
     0
100
AcDbLine
 10
4.913006
 20
8.890480999999999
 30
0.0
 11
5.038006
 21
9.015480999999999
 31
0.0
  0
LINE
  5
207
330
201
100
AcDbEntity
  8
0
 62
     0
100
AcDbLine
 10
4.780423
 20
8.890480999999999
 30
0.0
 11
4.905423
 21
9.015480999999999
 31
0.0
  0
LINE
  5
208
330
201
100
AcDbEntity
  8
0
 62
     0
100
AcDbLine
 10
4.647841
 20
8.890480999999999
 30
0.0
 11
4.772841
 21
9.015480999999999
 31
0.0
  0
LINE
  5
209
330
201
100
AcDbEntity
  8
0
 62
     0
100
AcDbLine
 10
4.515258
 20
8.890480999999999
 30
0.0
 11
4.640258
 21
9.015480999999999
 31
0.0
  0
LINE
  5
20A
330
201
100
AcDbEntity
  8
0
 62
     0
100
AcDbLine
 10
4.382676
 20
8.890480999999999
 30
0.0
 11
4.507676
 21
9.015480999999999
 31
0.0
  0
LINE
  5
20B
330
201
100
AcDbEntity
  8
0
 62
     0
100
AcDbLine
 10
4.250092999999999
 20
8.890480999999999
 30
0.0
 11
4.375092999999999
 21
9.015480999999999
 31
0.0
  0
LINE
  5
20C
330
201
100
AcDbEntity
  8
0
 62
     0
100
AcDbLine
 10
4.117511
 20
8.890480999999999
 30
0.0
 11
4.242511
 21
9.015480999999999
 31
0.0
  0
LINE
  5
20D
330
201
100
AcDbEntity
  8
0
 62
     0
100
AcDbLine
 10
3.984928
 20
8.890480999999999
 30
0.0
 11
4.109928
 21
9.015480999999999
 31
0.0
  0
LINE
  5
20E
330
201
100
AcDbEntity
  8
0
 62
     0
100
AcDbLine
 10
3.852345999999999
 20
8.890480999999999
 30
0.0
 11
3.977345999999999
 21
9.015480999999999
 31
0.0
  0
LINE
  5
20F
330
201
100
AcDbEntity
  8
0
 62
     0
100
AcDbLine
 10
3.719762999999999
 20
8.890480999999999
 30
0.0
 11
3.844763
 21
9.015480999999999
 31
0.0
  0
LINE
  5
210
330
201
100
AcDbEntity
  8
0
 62
     0
100
AcDbLine
 10
3.677180999999999
 20
8.980482
 30
0.0
 11
3.801098
 21
9.104399
 31
0.0
  0
LINE
  5
211
330
201
100
AcDbEntity
  8
0
 62
     0
100
AcDbLine
 10
3.671634999999999
 20
9.107517999999998
 30
0.0
 11
3.801098
 21
9.236981
 31
0.0
  0
LINE
  5
212
330
201
100
AcDbEntity
  8
0
 62
     0
100
AcDbLine
 10
3.666087999999999
 20
9.234553999999999
 30
0.0
 11
3.801098
 21
9.369564
 31
0.0
  0
LINE
  5
213
330
201
100
AcDbEntity
  8
0
 62
     0
100
AcDbLine
 10
3.660541999999999
 20
9.361589999999999
 30
0.0
 11
3.801098
 21
9.502145999999999
 31
0.0
  0
LINE
  5
214
330
201
100
AcDbEntity
  8
0
 62
     0
100
AcDbLine
 10
3.654994999999999
 20
9.488626
 30
0.0
 11
3.801098
 21
9.634729
 31
0.0
  0
LINE
  5
215
330
201
100
AcDbEntity
  8
0
 62
     0
100
AcDbLine
 10
3.649448999999999
 20
9.615662
 30
0.0
 11
3.801098
 21
9.767310999999999
 31
0.0
  0
LINE
  5
216
330
201
100
AcDbEntity
  8
0
 62
     0
100
AcDbLine
 10
3.643901999999999
 20
9.742697999999998
 30
0.0
 11
3.801098
 21
9.899893999999999
 31
0.0
  0
LINE
  5
217
330
201
100
AcDbEntity
  8
0
 62
     0
100
AcDbLine
 10
3.638355999999999
 20
9.869733999999999
 30
0.0
 11
3.801098
 21
10.03247699999999
 31
0.0
  0
LINE
  5
218
330
201
100
AcDbEntity
  8
0
 62
     0
100
AcDbLine
 10
3.632808999999999
 20
9.996769999999999
 30
0.0
 11
3.771519999999999
 21
10.135481
 31
0.0
  0
LINE
  5
219
330
201
100
AcDbEntity
  8
0
 62
     0
100
AcDbLine
 10
3.627262999999999
 20
10.12380599999999
 30
0.0
 11
3.638937999999999
 21
10.135481
 31
0.0
  0
LINE
  5
21A
330
201
100
AcDbEntity
  8
0
 62
     0
100
AcDbLine
 10
5.443336
 20
8.890480999999999
 30
0.0
 11
5.568336
 21
9.015480999999999
 31
0.0
  0
LINE
  5
21B
330
201
100
AcDbEntity
  8
0
 62
     0
100
AcDbLine
 10
5.575917999999999
 20
8.890480999999999
 30
0.0
 11
5.700917999999999
 21
9.015480999999999
 31
0.0
  0
LINE
  5
21C
330
201
100
AcDbEntity
  8
0
 62
     0
100
AcDbLine
 10
5.708501
 20
8.890480999999999
 30
0.0
 11
5.833501
 21
9.015480999999999
 31
0.0
  0
LINE
  5
21D
330
201
100
AcDbEntity
  8
0
 62
     0
100
AcDbLine
 10
5.841083
 20
8.890480999999999
 30
0.0
 11
5.966083
 21
9.015480999999999
 31
0.0
  0
LINE
  5
21E
330
201
100
AcDbEntity
  8
0
 62
     0
100
AcDbLine
 10
5.973666
 20
8.890480999999999
 30
0.0
 11
6.098666
 21
9.015480999999999
 31
0.0
  0
LINE
  5
21F
330
201
100
AcDbEntity
  8
0
 62
     0
100
AcDbLine
 10
6.106247999999999
 20
8.890480999999999
 30
0.0
 11
6.231247999999999
 21
9.015480999999999
 31
0.0
  0
LINE
  5
220
330
201
100
AcDbEntity
  8
0
 62
     0
100
AcDbLine
 10
6.238830999999999
 20
8.890480999999999
 30
0.0
 11
6.363830999999999
 21
9.015480999999999
 31
0.0
  0
LINE
  5
221
330
201
100
AcDbEntity
  8
0
 62
     0
100
AcDbLine
 10
6.371412999999999
 20
8.890480999999999
 30
0.0
 11
6.496412999999999
 21
9.015480999999999
 31
0.0
  0
LINE
  5
222
330
201
100
AcDbEntity
  8
0
 62
     0
100
AcDbLine
 10
6.503995999999999
 20
8.890480999999999
 30
0.0
 11
6.628996
 21
9.015480999999999
 31
0.0
  0
LINE
  5
223
330
201
100
AcDbEntity
  8
0
 62
     0
100
AcDbLine
 10
6.636578
 20
8.890480999999999
 30
0.0
 11
6.761578
 21
9.015480999999999
 31
0.0
  0
LINE
  5
224
330
201
100
AcDbEntity
  8
0
 62
     0
100
AcDbLine
 10
6.769161
 20
8.890480999999999
 30
0.0
 11
6.894161
 21
9.015480999999999
 31
0.0
  0
LINE
  5
225
330
201
100
AcDbEntity
  8
0
 62
     0
100
AcDbLine
 10
6.901742999999999
 20
8.890480999999999
 30
0.0
 11
7.026742999999999
 21
9.015480999999999
 31
0.0
  0
LINE
  5
226
330
201
100
AcDbEntity
  8
0
 62
     0
100
AcDbLine
 10
7.034325999999999
 20
8.890480999999999
 30
0.0
 11
7.159325999999999
 21
9.015480999999999
 31
0.0
  0
LINE
  5
227
330
201
100
AcDbEntity
  8
0
 62
     0
100
AcDbLine
 10
7.166908999999999
 20
8.890480999999999
 30
0.0
 11
7.291908999999999
 21
9.015480999999999
 31
0.0
  0
LINE
  5
228
330
201
100
AcDbEntity
  8
0
 62
     0
100
AcDbLine
 10
7.299491
 20
8.890480999999999
 30
0.0
 11
7.424491
 21
9.015480999999999
 31
0.0
  0
LINE
  5
229
330
201
100
AcDbEntity
  8
0
 62
     0
100
AcDbLine
 10
7.432074
 20
8.890480999999999
 30
0.0
 11
7.557074
 21
9.015480999999999
 31
0.0
  0
LINE
  5
22A
330
201
100
AcDbEntity
  8
0
 62
     0
100
AcDbLine
 10
7.564655999999999
 20
8.890480999999999
 30
0.0
 11
7.689655999999999
 21
9.015480999999999
 31
0.0
  0
LINE
  5
22B
330
201
100
AcDbEntity
  8
0
 62
     0
100
AcDbLine
 10
7.697238999999999
 20
8.890480999999999
 30
0.0
 11
7.822238999999999
 21
9.015480999999999
 31
0.0
  0
LINE
  5
22C
330
201
100
AcDbEntity
  8
0
 62
     0
100
AcDbLine
 10
7.829821
 20
8.890480999999999
 30
0.0
 11
7.949194
 21
9.009853999999998
 31
0.0
  0
LINE
  5
22D
330
201
100
AcDbEntity
  8
0
 62
     0
100
AcDbLine
 10
7.962403999999999
 20
8.890480999999999
 30
0.0
 11
7.98541
 21
8.913486999999999
 31
0.0
  0
ENDBLK
  5
22E
330
201
100
AcDbEntity
  8
0
100
AcDbBlockEnd
  0
BLOCK
  5
230
330
22F
100
AcDbEntity
  8
0
100
AcDbBlockBegin
  2
*X8
 70
     1
 10
0.0
 20
0.0
 30
0.0
  3
*X8
  1

  0
LINE
  5
231
330
22F
100
AcDbEntity
  8
0
 62
     0
100
AcDbLine
 10
6.364433
 20
12.065481
 30
0.0
 11
6.489433
 21
12.190481
 31
0.0
  0
LINE
  5
232
330
22F
100
AcDbEntity
  8
0
 62
     0
100
AcDbLine
 10
6.231849999999999
 20
12.065481
 30
0.0
 11
6.356849999999999
 21
12.190481
 31
0.0
  0
LINE
  5
233
330
22F
100
AcDbEntity
  8
0
 62
     0
100
AcDbLine
 10
6.099268
 20
12.065481
 30
0.0
 11
6.224268
 21
12.190481
 31
0.0
  0
LINE
  5
234
330
22F
100
AcDbEntity
  8
0
 62
     0
100
AcDbLine
 10
5.966685
 20
12.065481
 30
0.0
 11
6.091685
 21
12.190481
 31
0.0
  0
LINE
  5
235
330
22F
100
AcDbEntity
  8
0
 62
     0
100
AcDbLine
 10
5.834102999999999
 20
12.065481
 30
0.0
 11
5.959102999999999
 21
12.190481
 31
0.0
  0
LINE
  5
236
330
22F
100
AcDbEntity
  8
0
 62
     0
100
AcDbLine
 10
5.701519999999999
 20
12.065481
 30
0.0
 11
5.826519999999999
 21
12.190481
 31
0.0
  0
LINE
  5
237
330
22F
100
AcDbEntity
  8
0
 62
     0
100
AcDbLine
 10
5.568938
 20
12.065481
 30
0.0
 11
5.693938
 21
12.190481
 31
0.0
  0
LINE
  5
238
330
22F
100
AcDbEntity
  8
0
 62
     0
100
AcDbLine
 10
5.436355
 20
12.065481
 30
0.0
 11
5.561355
 21
12.190481
 31
0.0
  0
LINE
  5
239
330
22F
100
AcDbEntity
  8
0
 62
     0
100
AcDbLine
 10
5.303773
 20
12.065481
 30
0.0
 11
5.428773
 21
12.190481
 31
0.0
  0
LINE
  5
23A
330
22F
100
AcDbEntity
  8
0
 62
     0
100
AcDbLine
 10
5.17119
 20
12.065481
 30
0.0
 11
5.29619
 21
12.190481
 31
0.0
  0
LINE
  5
23B
330
22F
100
AcDbEntity
  8
0
 62
     0
100
AcDbLine
 10
5.038607999999999
 20
12.065481
 30
0.0
 11
5.163607999999999
 21
12.190481
 31
0.0
  0
LINE
  5
23C
330
22F
100
AcDbEntity
  8
0
 62
     0
100
AcDbLine
 10
3.786024999999999
 20
10.94548099999999
 30
0.0
 11
3.801098
 21
10.960554
 31
0.0
  0
LINE
  5
23D
330
22F
100
AcDbEntity
  8
0
 62
     0
100
AcDbLine
 10
4.906024999999999
 20
12.065481
 30
0.0
 11
5.031024999999999
 21
12.190481
 31
0.0
  0
LINE
  5
23E
330
22F
100
AcDbEntity
  8
0
 62
     0
100
AcDbLine
 10
3.653443
 20
10.94548099999999
 30
0.0
 11
3.801098
 21
11.09313699999999
 31
0.0
  0
LINE
  5
23F
330
22F
100
AcDbEntity
  8
0
 62
     0
100
AcDbLine
 10
4.773443
 20
12.065481
 30
0.0
 11
4.898443
 21
12.190481
 31
0.0
  0
LINE
  5
240
330
22F
100
AcDbEntity
  8
0
 62
     0
100
AcDbLine
 10
3.631587
 20
11.05620899999999
 30
0.0
 11
3.801098
 21
11.225719
 31
0.0
  0
LINE
  5
241
330
22F
100
AcDbEntity
  8
0
 62
     0
100
AcDbLine
 10
4.640859999999999
 20
12.065481
 30
0.0
 11
4.765859999999999
 21
12.190481
 31
0.0
  0
LINE
  5
242
330
22F
100
AcDbEntity
  8
0
 62
     0
100
AcDbLine
 10
3.63764
 20
11.19484399999999
 30
0.0
 11
3.801098
 21
11.358302
 31
0.0
  0
LINE
  5
243
330
22F
100
AcDbEntity
  8
0
 62
     0
100
AcDbLine
 10
4.508277999999999
 20
12.065481
 30
0.0
 11
4.633277999999999
 21
12.190481
 31
0.0
  0
LINE
  5
244
330
22F
100
AcDbEntity
  8
0
 62
     0
100
AcDbLine
 10
3.643692999999999
 20
11.33348
 30
0.0
 11
3.801098
 21
11.49088399999999
 31
0.0
  0
LINE
  5
245
330
22F
100
AcDbEntity
  8
0
 62
     0
100
AcDbLine
 10
4.375694999999999
 20
12.065481
 30
0.0
 11
4.500694999999999
 21
12.190481
 31
0.0
  0
LINE
  5
246
330
22F
100
AcDbEntity
  8
0
 62
     0
100
AcDbLine
 10
3.649745999999999
 20
11.47211499999999
 30
0.0
 11
3.801098
 21
11.623467
 31
0.0
  0
LINE
  5
247
330
22F
100
AcDbEntity
  8
0
 62
     0
100
AcDbLine
 10
4.243113
 20
12.065481
 30
0.0
 11
4.368113
 21
12.190481
 31
0.0
  0
LINE
  5
248
330
22F
100
AcDbEntity
  8
0
 62
     0
100
AcDbLine
 10
3.655798999999999
 20
11.61075099999999
 30
0.0
 11
3.801098
 21
11.756049
 31
0.0
  0
LINE
  5
249
330
22F
100
AcDbEntity
  8
0
 62
     0
100
AcDbLine
 10
4.11053
 20
12.065481
 30
0.0
 11
4.23553
 21
12.190481
 31
0.0
  0
LINE
  5
24A
330
22F
100
AcDbEntity
  8
0
 62
     0
100
AcDbLine
 10
3.661851999999999
 20
11.74938599999999
 30
0.0
 11
3.801098
 21
11.888632
 31
0.0
  0
LINE
  5
24B
330
22F
100
AcDbEntity
  8
0
 62
     0
100
AcDbLine
 10
3.977948
 20
12.065481
 30
0.0
 11
4.102948
 21
12.190481
 31
0.0
  0
LINE
  5
24C
330
22F
100
AcDbEntity
  8
0
 62
     0
100
AcDbLine
 10
3.667905
 20
11.88802099999999
 30
0.0
 11
3.801098
 21
12.021214
 31
0.0
  0
LINE
  5
24D
330
22F
100
AcDbEntity
  8
0
 62
     0
100
AcDbLine
 10
3.845365
 20
12.065481
 30
0.0
 11
3.970365
 21
12.190481
 31
0.0
  0
LINE
  5
24E
330
22F
100
AcDbEntity
  8
0
 62
     0
100
AcDbLine
 10
3.673958
 20
12.026657
 30
0.0
 11
3.837781999999999
 21
12.190481
 31
0.0
  0
LINE
  5
24F
330
22F
100
AcDbEntity
  8
0
 62
     0
100
AcDbLine
 10
3.680010999999999
 20
12.165292
 30
0.0
 11
3.7052
 21
12.190481
 31
0.0
  0
LINE
  5
250
330
22F
100
AcDbEntity
  8
0
 62
     0
100
AcDbLine
 10
6.497015
 20
12.065481
 30
0.0
 11
6.622014999999999
 21
12.190481
 31
0.0
  0
LINE
  5
251
330
22F
100
AcDbEntity
  8
0
 62
     0
100
AcDbLine
 10
6.629597999999999
 20
12.065481
 30
0.0
 11
6.754597999999999
 21
12.190481
 31
0.0
  0
LINE
  5
252
330
22F
100
AcDbEntity
  8
0
 62
     0
100
AcDbLine
 10
6.762179999999999
 20
12.065481
 30
0.0
 11
6.887179999999999
 21
12.190481
 31
0.0
  0
LINE
  5
253
330
22F
100
AcDbEntity
  8
0
 62
     0
100
AcDbLine
 10
6.894763
 20
12.065481
 30
0.0
 11
7.019763
 21
12.190481
 31
0.0
  0
LINE
  5
254
330
22F
100
AcDbEntity
  8
0
 62
     0
100
AcDbLine
 10
7.027346
 20
12.065481
 30
0.0
 11
7.152346
 21
12.190481
 31
0.0
  0
LINE
  5
255
330
22F
100
AcDbEntity
  8
0
 62
     0
100
AcDbLine
 10
7.159927999999999
 20
12.065481
 30
0.0
 11
7.284927999999999
 21
12.190481
 31
0.0
  0
LINE
  5
256
330
22F
100
AcDbEntity
  8
0
 62
     0
100
AcDbLine
 10
7.292511
 20
12.065481
 30
0.0
 11
7.417511
 21
12.190481
 31
0.0
  0
LINE
  5
257
330
22F
100
AcDbEntity
  8
0
 62
     0
100
AcDbLine
 10
7.425092999999999
 20
12.065481
 30
0.0
 11
7.550092999999999
 21
12.190481
 31
0.0
  0
LINE
  5
258
330
22F
100
AcDbEntity
  8
0
 62
     0
100
AcDbLine
 10
7.557675999999999
 20
12.065481
 30
0.0
 11
7.682675999999999
 21
12.190481
 31
0.0
  0
LINE
  5
259
330
22F
100
AcDbEntity
  8
0
 62
     0
100
AcDbLine
 10
7.690258
 20
12.065481
 30
0.0
 11
7.815258
 21
12.190481
 31
0.0
  0
LINE
  5
25A
330
22F
100
AcDbEntity
  8
0
 62
     0
100
AcDbLine
 10
7.822841
 20
12.065481
 30
0.0
 11
7.947841
 21
12.190481
 31
0.0
  0
ENDBLK
  5
25B
330
22F
100
AcDbEntity
  8
0
100
AcDbBlockEnd
  0
BLOCK
  5
25D
330
25C
100
AcDbEntity
  8
0
100
AcDbBlockBegin
  2
*X9
 70
     1
 10
0.0
 20
0.0
 30
0.0
  3
*X9
  1

  0
LINE
  5
25E
330
25C
100
AcDbEntity
  8
0
 62
     0
100
AcDbLine
 10
3.801098
 20
10.38523199999999
 30
0.0
 11
3.626752999999999
 21
10.559577
 31
0.0
  0
LINE
  5
25F
330
25C
100
AcDbEntity
  8
0
 62
     0
100
AcDbLine
 10
3.801098
 20
10.252649
 30
0.0
 11
3.626752999999999
 21
10.426994
 31
0.0
  0
LINE
  5
260
330
25C
100
AcDbEntity
  8
0
 62
     0
100
AcDbLine
 10
3.755683
 20
10.165481
 30
0.0
 11
3.626752999999999
 21
10.29441199999999
 31
0.0
  0
LINE
  5
261
330
25C
100
AcDbEntity
  8
0
 62
     0
100
AcDbLine
 10
3.801098
 20
10.517814
 30
0.0
 11
3.626752999999999
 21
10.692159
 31
0.0
  0
LINE
  5
262
330
25C
100
AcDbEntity
  8
0
 62
     0
100
AcDbLine
 10
3.801098
 20
10.650397
 30
0.0
 11
3.626752999999999
 21
10.824742
 31
0.0
  0
LINE
  5
263
330
25C
100
AcDbEntity
  8
0
 62
     0
100
AcDbLine
 10
3.801098
 20
10.78297899999999
 30
0.0
 11
3.668595999999999
 21
10.915481
 31
0.0
  0
ENDBLK
  5
264
330
25C
100
AcDbEntity
  8
0
100
AcDbBlockEnd
  0
BLOCK
  5
3AA
330
39F
100
AcDbEntity
  8
0
100
AcDbBlockBegin
  2
*D10
 70
     1
 10
0.0
 20
0.0
 30
0.0
  3
*D10
  1

  0
LINE
  5
90D
330
39F
100
AcDbEntity
  8
DIM
 62
     0
370
    -2
100
AcDbLine
 10
4.506098
 20
26.682287
 30
0.0
 11
4.506098
 21
28.40504199999999
 31
0.0
  0
LINE
  5
90E
330
39F
100
AcDbEntity
  8
DIM
 62
     0
370
    -2
100
AcDbLine
 10
3.626098
 20
27.842287
 30
0.0
 11
3.626098
 21
28.40504199999999
 31
0.0
  0
LINE
  5
90F
330
39F
100
AcDbEntity
  8
DIM
 62
     0
370
    -2
100
AcDbLine
 10
4.866098
 20
28.219042
 30
0.0
 11
5.226098
 21
28.219042
 31
0.0
  0
LINE
  5
910
330
39F
100
AcDbEntity
  8
DIM
 62
     0
370
    -2
100
AcDbLine
 10
3.266098
 20
28.219042
 30
0.0
 11
2.906098
 21
28.219042
 31
0.0
  0
SOLID
  5
911
330
39F
100
AcDbEntity
  8
DIM
 62
     0
100
AcDbTrace
 10
4.866098
 20
28.27904199999999
 30
0.0
 11
4.866098
 21
28.159042
 31
0.0
 12
4.506098
 22
28.219042
 32
0.0
 13
4.506098
 23
28.219042
 33
0.0
  0
SOLID
  5
912
330
39F
100
AcDbEntity
  8
DIM
 62
     0
100
AcDbTrace
 10
3.266098
 20
28.27904199999999
 30
0.0
 11
3.266098
 21
28.159042
 31
0.0
 12
3.626098
 22
28.219042
 32
0.0
 13
3.626098
 23
28.219042
 33
0.0
  0
MTEXT
  5
913
330
39F
100
AcDbEntity
  8
DIM
 62
     0
100
AcDbMText
 10
4.066098
 20
28.219042
 30
0.0
 40
0.25
 41
0.0
 71
     5
 72
     1
  1
\A1;K
  7
TXT
 73
     1
 44
1.0
  0
POINT
  5
914
330
39F
100
AcDbEntity
  8
DEFPOINTS
 62
     0
100
AcDbPoint
 10
4.506098
 20
26.556287
 30
0.0
  0
POINT
  5
915
330
39F
100
AcDbEntity
  8
DEFPOINTS
 62
     0
100
AcDbPoint
 10
3.626098
 20
27.716287
 30
0.0
  0
POINT
  5
916
330
39F
100
AcDbEntity
  8
DEFPOINTS
 62
     0
100
AcDbPoint
 10
3.626098
 20
28.219042
 30
0.0
  0
ENDBLK
  5
3AB
330
39F
100
AcDbEntity
  8
0
100
AcDbBlockEnd
  0
BLOCK
  5
3B8
330
3AD
100
AcDbEntity
  8
0
100
AcDbBlockBegin
  2
*D11
 70
     1
 10
0.0
 20
0.0
 30
0.0
  3
*D11
  1

  0
LINE
  5
CC1
330
3AD
100
AcDbEntity
  8
DIM
 62
     0
370
    -2
100
AcDbLine
 10
4.380098
 20
22.556287
 30
0.0
 11
2.047794737487397
 21
22.556287
 31
0.0
  0
LINE
  5
CC2
330
3AD
100
AcDbEntity
  8
DIM
 62
     0
370
    -2
100
AcDbLine
 10
3.500098
 20
21.396287
 30
0.0
 11
2.047794737487397
 21
21.396287
 31
0.0
  0
LINE
  5
CC3
330
3AD
100
AcDbEntity
  8
DIM
 62
     0
370
    -2
100
AcDbLine
 10
2.233794737487397
 20
22.91628699999999
 30
0.0
 11
2.233794737487397
 21
23.27628699999999
 31
0.0
  0
LINE
  5
CC4
330
3AD
100
AcDbEntity
  8
DIM
 62
     0
370
    -2
100
AcDbLine
 10
2.233794737487397
 20
21.036287
 30
0.0
 11
2.233794737487396
 21
20.676287
 31
0.0
  0
SOLID
  5
CC5
330
3AD
100
AcDbEntity
  8
DIM
 62
     0
100
AcDbTrace
 10
2.173794737487397
 20
22.91628699999999
 30
0.0
 11
2.293794737487397
 21
22.91628699999999
 31
0.0
 12
2.233794737487397
 22
22.556287
 32
0.0
 13
2.233794737487397
 23
22.556287
 33
0.0
  0
SOLID
  5
CC6
330
3AD
100
AcDbEntity
  8
DIM
 62
     0
100
AcDbTrace
 10
2.173794737487397
 20
21.036287
 30
0.0
 11
2.293794737487397
 21
21.036287
 31
0.0
 12
2.233794737487397
 22
21.396287
 32
0.0
 13
2.233794737487397
 23
21.396287
 33
0.0
  0
MTEXT
  5
CC7
330
3AD
100
AcDbEntity
  8
DIM
 62
     0
100
AcDbMText
 10
2.233794737487393
 20
21.976287
 30
0.0
 40
0.25
 41
0.0
 71
     5
 72
     1
  1
\A1;1.160
  7
TXT
 73
     1
 44
1.0
  0
POINT
  5
CC8
330
3AD
100
AcDbEntity
  8
DEFPOINTS
 62
     0
100
AcDbPoint
 10
4.506098
 20
22.556287
 30
0.0
  0
POINT
  5
CC9
330
3AD
100
AcDbEntity
  8
DEFPOINTS
 62
     0
100
AcDbPoint
 10
3.626098
 20
21.396287
 30
0.0
  0
POINT
  5
CCA
330
3AD
100
AcDbEntity
  8
DEFPOINTS
 62
     0
100
AcDbPoint
 10
2.233794737487397
 20
21.396287
 30
0.0
  0
ENDBLK
  5
3B9
330
3AD
100
AcDbEntity
  8
0
100
AcDbBlockEnd
  0
BLOCK
  5
3C6
330
3BB
100
AcDbEntity
  8
0
100
AcDbBlockBegin
  2
*D12
 70
     1
 10
0.0
 20
0.0
 30
0.0
  3
*D12
  1

  0
LINE
  5
AEB
330
3BB
100
AcDbEntity
  8
DIM
 62
     0
370
    -2
100
AcDbLine
 10
17.649226
 20
15.19776799999999
 30
0.0
 11
17.649226
 21
14.32344899999999
 31
0.0
  0
LINE
  5
AEC
330
3BB
100
AcDbEntity
  8
DIM
 62
     0
370
    -2
100
AcDbLine
 10
11.98922599999999
 20
15.19776799999999
 30
0.0
 11
11.98922599999999
 21
14.32344899999999
 31
0.0
  0
LINE
  5
AED
330
3BB
100
AcDbEntity
  8
DIM
 62
     0
370
    -2
100
AcDbLine
 10
17.289226
 20
14.50944899999999
 30
0.0
 11
15.061726
 21
14.50944899999999
 31
0.0
  0
LINE
  5
AEE
330
3BB
100
AcDbEntity
  8
DIM
 62
     0
370
    -2
100
AcDbLine
 10
12.34922599999999
 20
14.50944899999999
 30
0.0
 11
14.576726
 21
14.50944899999999
 31
0.0
  0
SOLID
  5
AEF
330
3BB
100
AcDbEntity
  8
DIM
 62
     0
100
AcDbTrace
 10
17.289226
 20
14.56944899999999
 30
0.0
 11
17.289226
 21
14.44944899999999
 31
0.0
 12
17.649226
 22
14.50944899999999
 32
0.0
 13
17.649226
 23
14.50944899999999
 33
0.0
  0
SOLID
  5
AF0
330
3BB
100
AcDbEntity
  8
DIM
 62
     0
100
AcDbTrace
 10
12.34922599999999
 20
14.56944899999999
 30
0.0
 11
12.34922599999999
 21
14.44944899999999
 31
0.0
 12
11.98922599999999
 22
14.50944899999999
 32
0.0
 13
11.98922599999999
 23
14.50944899999999
 33
0.0
  0
MTEXT
  5
AF1
330
3BB
100
AcDbEntity
  8
DIM
 62
     0
100
AcDbMText
 10
14.819226
 20
14.50944899999999
 30
0.0
 40
0.25
 41
0.0
 71
     5
 72
     1
  1
\A1;P
  7
TXT
 73
     1
 44
1.0
  0
POINT
  5
AF2
330
3BB
100
AcDbEntity
  8
DEFPOINTS
 62
     0
100
AcDbPoint
 10
17.649226
 20
15.32376799999999
 30
0.0
  0
POINT
  5
AF3
330
3BB
100
AcDbEntity
  8
DEFPOINTS
 62
     0
100
AcDbPoint
 10
11.98922599999999
 20
15.32376799999999
 30
0.0
  0
POINT
  5
AF4
330
3BB
100
AcDbEntity
  8
DEFPOINTS
 62
     0
100
AcDbPoint
 10
11.98922599999999
 20
14.50944899999999
 30
0.0
  0
ENDBLK
  5
3C7
330
3BB
100
AcDbEntity
  8
0
100
AcDbBlockEnd
  0
BLOCK
  5
3D4
330
3C9
100
AcDbEntity
  8
0
100
AcDbBlockBegin
  2
*D13
 70
     1
 10
0.0
 20
0.0
 30
0.0
  3
*D13
  1

  0
LINE
  5
921
330
3C9
100
AcDbEntity
  8
DIM
 62
     0
370
    -2
100
AcDbLine
 10
11.818226
 20
15.25876799999999
 30
0.0
 11
11.125674
 21
15.25876799999999
 31
0.0
  0
LINE
  5
922
330
3C9
100
AcDbEntity
  8
DIM
 62
     0
370
    -2
100
AcDbLine
 10
11.818226
 20
17.56876799999999
 30
0.0
 11
11.125674
 21
17.56876799999999
 31
0.0
  0
LINE
  5
923
330
3C9
100
AcDbEntity
  8
DIM
 62
     0
370
    -2
100
AcDbLine
 10
11.311674
 20
15.618768
 30
0.0
 11
11.311674
 21
16.10876799999999
 31
0.0
  0
LINE
  5
924
330
3C9
100
AcDbEntity
  8
DIM
 62
     0
370
    -2
100
AcDbLine
 10
11.311674
 20
17.208768
 30
0.0
 11
11.311674
 21
16.71876799999999
 31
0.0
  0
SOLID
  5
925
330
3C9
100
AcDbEntity
  8
DIM
 62
     0
100
AcDbTrace
 10
11.251674
 20
15.618768
 30
0.0
 11
11.371674
 21
15.618768
 31
0.0
 12
11.311674
 22
15.25876799999999
 32
0.0
 13
11.311674
 23
15.25876799999999
 33
0.0
  0
SOLID
  5
926
330
3C9
100
AcDbEntity
  8
DIM
 62
     0
100
AcDbTrace
 10
11.251674
 20
17.208768
 30
0.0
 11
11.371674
 21
17.208768
 31
0.0
 12
11.311674
 22
17.56876799999999
 32
0.0
 13
11.311674
 23
17.56876799999999
 33
0.0
  0
MTEXT
  5
927
330
3C9
100
AcDbEntity
  8
DIM
 62
     0
100
AcDbMText
 10
11.31167399999999
 20
16.413768
 30
0.0
 40
0.25
 41
0.0
 71
     5
 72
     1
  1
\A1;L
  7
TXT
 73
     1
 44
1.0
  0
POINT
  5
928
330
3C9
100
AcDbEntity
  8
DEFPOINTS
 62
     0
100
AcDbPoint
 10
11.944226
 20
15.25876799999999
 30
0.0
  0
POINT
  5
929
330
3C9
100
AcDbEntity
  8
DEFPOINTS
 62
     0
100
AcDbPoint
 10
11.944226
 20
17.56876799999999
 30
0.0
  0
POINT
  5
92A
330
3C9
100
AcDbEntity
  8
DEFPOINTS
 62
     0
100
AcDbPoint
 10
11.311674
 20
17.56876799999999
 30
0.0
  0
ENDBLK
  5
3D5
330
3C9
100
AcDbEntity
  8
0
100
AcDbBlockEnd
  0
BLOCK
  5
3E2
330
3D7
100
AcDbEntity
  8
0
100
AcDbBlockBegin
  2
*D14
 70
     1
 10
0.0
 20
0.0
 30
0.0
  3
*D14
  1

  0
LINE
  5
AF5
330
3D7
100
AcDbEntity
  8
DIM
 62
     0
370
    -2
100
AcDbLine
 10
4.046098
 20
24.430287
 30
0.0
 11
4.046098
 21
20.105785
 31
0.0
  0
LINE
  5
AF6
330
3D7
100
AcDbEntity
  8
DIM
 62
     0
370
    -2
100
AcDbLine
 10
9.326097999999999
 20
24.430287
 30
0.0
 11
9.326097999999999
 21
20.105785
 31
0.0
  0
LINE
  5
AF7
330
3D7
100
AcDbEntity
  8
DIM
 62
     0
370
    -2
100
AcDbLine
 10
4.406098
 20
20.29178499999999
 30
0.0
 11
6.443598000000001
 21
20.29178499999999
 31
0.0
  0
LINE
  5
AF8
330
3D7
100
AcDbEntity
  8
DIM
 62
     0
370
    -2
100
AcDbLine
 10
8.966098
 20
20.29178499999999
 30
0.0
 11
6.928598
 21
20.29178499999999
 31
0.0
  0
SOLID
  5
AF9
330
3D7
100
AcDbEntity
  8
DIM
 62
     0
100
AcDbTrace
 10
4.406098
 20
20.351785
 30
0.0
 11
4.406098
 21
20.231785
 31
0.0
 12
4.046098
 22
20.29178499999999
 32
0.0
 13
4.046098
 23
20.29178499999999
 33
0.0
  0
SOLID
  5
AFA
330
3D7
100
AcDbEntity
  8
DIM
 62
     0
100
AcDbTrace
 10
8.966098
 20
20.351785
 30
0.0
 11
8.966098
 21
20.231785
 31
0.0
 12
9.326097999999999
 22
20.29178499999999
 32
0.0
 13
9.326097999999999
 23
20.29178499999999
 33
0.0
  0
MTEXT
  5
AFB
330
3D7
100
AcDbEntity
  8
DIM
 62
     0
100
AcDbMText
 10
6.686098000000001
 20
20.29178499999999
 30
0.0
 40
0.25
 41
0.0
 71
     5
 72
     1
  1
\A1;G
  7
TXT
 73
     1
 44
1.0
  0
POINT
  5
AFC
330
3D7
100
AcDbEntity
  8
DEFPOINTS
 62
     0
100
AcDbPoint
 10
4.046098
 20
24.556287
 30
0.0
  0
POINT
  5
AFD
330
3D7
100
AcDbEntity
  8
DEFPOINTS
 62
     0
100
AcDbPoint
 10
9.326097999999999
 20
24.556287
 30
0.0
  0
POINT
  5
AFE
330
3D7
100
AcDbEntity
  8
DEFPOINTS
 62
     0
100
AcDbPoint
 10
9.326097999999999
 20
20.29178499999999
 30
0.0
  0
ENDBLK
  5
3E3
330
3D7
100
AcDbEntity
  8
0
100
AcDbBlockEnd
  0
BLOCK
  5
3F0
330
3E5
100
AcDbEntity
  8
0
100
AcDbBlockBegin
  2
*D15
 70
     1
 10
0.0
 20
0.0
 30
0.0
  3
*D15
  1

  0
LINE
  5
AFF
330
3E5
100
AcDbEntity
  8
DIM
 62
     0
370
    -2
100
AcDbLine
 10
4.046098
 20
24.430287
 30
0.0
 11
4.046098
 21
20.105785
 31
0.0
  0
LINE
  5
B00
330
3E5
100
AcDbEntity
  8
DIM
 62
     0
370
    -2
100
AcDbLine
 10
3.626098
 20
21.27028699999999
 30
0.0
 11
3.626098
 21
20.105785
 31
0.0
  0
LINE
  5
B01
330
3E5
100
AcDbEntity
  8
DIM
 62
     0
370
    -2
100
AcDbLine
 10
4.406098
 20
20.29178499999999
 30
0.0
 11
4.766098
 21
20.29178499999999
 31
0.0
  0
LINE
  5
B02
330
3E5
100
AcDbEntity
  8
DIM
 62
     0
370
    -2
100
AcDbLine
 10
3.266098
 20
20.29178499999999
 30
0.0
 11
2.906098
 21
20.29178499999999
 31
0.0
  0
SOLID
  5
B03
330
3E5
100
AcDbEntity
  8
DIM
 62
     0
100
AcDbTrace
 10
4.406098
 20
20.351785
 30
0.0
 11
4.406098
 21
20.231785
 31
0.0
 12
4.046098
 22
20.29178499999999
 32
0.0
 13
4.046098
 23
20.29178499999999
 33
0.0
  0
SOLID
  5
B04
330
3E5
100
AcDbEntity
  8
DIM
 62
     0
100
AcDbTrace
 10
3.266098
 20
20.351785
 30
0.0
 11
3.266098
 21
20.231785
 31
0.0
 12
3.626098
 22
20.29178499999999
 32
0.0
 13
3.626098
 23
20.29178499999999
 33
0.0
  0
MTEXT
  5
B05
330
3E5
100
AcDbEntity
  8
DIM
 62
     0
100
AcDbMText
 10
2.382348
 20
20.29178499999999
 30
0.0
 40
0.25
 41
0.0
 71
     5
 72
     1
  1
\A1;0.420
  7
TXT
 73
     1
 44
1.0
  0
POINT
  5
B06
330
3E5
100
AcDbEntity
  8
DEFPOINTS
 62
     0
100
AcDbPoint
 10
4.046098
 20
24.556287
 30
0.0
  0
POINT
  5
B07
330
3E5
100
AcDbEntity
  8
DEFPOINTS
 62
     0
100
AcDbPoint
 10
3.626098
 20
21.396287
 30
0.0
  0
POINT
  5
B08
330
3E5
100
AcDbEntity
  8
DEFPOINTS
 62
     0
100
AcDbPoint
 10
3.626098
 20
20.29178499999999
 30
0.0
  0
ENDBLK
  5
3F1
330
3E5
100
AcDbEntity
  8
0
100
AcDbBlockEnd
  0
BLOCK
  5
403
330
3F8
100
AcDbEntity
  8
0
100
AcDbBlockBegin
  2
*D16
 70
     1
 10
0.0
 20
0.0
 30
0.0
  3
*D16
  1

  0
LINE
  5
CB7
330
3F8
100
AcDbEntity
  8
DIM
 62
     0
370
    -2
100
AcDbLine
 10
4.380098
 20
24.556287
 30
0.0
 11
2.047794737487397
 21
24.556287
 31
0.0
  0
LINE
  5
CB8
330
3F8
100
AcDbEntity
  8
DIM
 62
     0
370
    -2
100
AcDbLine
 10
4.380098
 20
22.556287
 30
0.0
 11
2.047794737487397
 21
22.556287
 31
0.0
  0
LINE
  5
CB9
330
3F8
100
AcDbEntity
  8
DIM
 62
     0
370
    -2
100
AcDbLine
 10
2.233794737487397
 20
24.196287
 30
0.0
 11
2.233794737487397
 21
23.86128699999999
 31
0.0
  0
LINE
  5
CBA
330
3F8
100
AcDbEntity
  8
DIM
 62
     0
370
    -2
100
AcDbLine
 10
2.233794737487397
 20
22.91628699999999
 30
0.0
 11
2.233794737487397
 21
23.251287
 31
0.0
  0
SOLID
  5
CBB
330
3F8
100
AcDbEntity
  8
DIM
 62
     0
100
AcDbTrace
 10
2.173794737487397
 20
24.196287
 30
0.0
 11
2.293794737487397
 21
24.196287
 31
0.0
 12
2.233794737487397
 22
24.556287
 32
0.0
 13
2.233794737487397
 23
24.556287
 33
0.0
  0
SOLID
  5
CBC
330
3F8
100
AcDbEntity
  8
DIM
 62
     0
100
AcDbTrace
 10
2.173794737487397
 20
22.91628699999999
 30
0.0
 11
2.293794737487397
 21
22.91628699999999
 31
0.0
 12
2.233794737487397
 22
22.556287
 32
0.0
 13
2.233794737487397
 23
22.556287
 33
0.0
  0
MTEXT
  5
CBD
330
3F8
100
AcDbEntity
  8
DIM
 62
     0
100
AcDbMText
 10
2.233794737487393
 20
23.556287
 30
0.0
 40
0.25
 41
0.0
 71
     5
 72
     1
  1
\A1;2.000
  7
TXT
 73
     1
 44
1.0
  0
POINT
  5
CBE
330
3F8
100
AcDbEntity
  8
DEFPOINTS
 62
     0
100
AcDbPoint
 10
4.506098
 20
24.556287
 30
0.0
  0
POINT
  5
CBF
330
3F8
100
AcDbEntity
  8
DEFPOINTS
 62
     0
100
AcDbPoint
 10
4.506098
 20
22.556287
 30
0.0
  0
POINT
  5
CC0
330
3F8
100
AcDbEntity
  8
DEFPOINTS
 62
     0
100
AcDbPoint
 10
2.233794737487397
 20
22.556287
 30
0.0
  0
ENDBLK
  5
404
330
3F8
100
AcDbEntity
  8
0
100
AcDbBlockEnd
  0
BLOCK
  5
411
330
406
100
AcDbEntity
  8
0
100
AcDbBlockBegin
  2
*D17
 70
     1
 10
0.0
 20
0.0
 30
0.0
  3
*D17
  1

  0
LINE
  5
CAD
330
406
100
AcDbEntity
  8
DIM
 62
     0
370
    -2
100
AcDbLine
 10
4.380098
 20
26.556287
 30
0.0
 11
2.047794737487397
 21
26.556287
 31
0.0
  0
LINE
  5
CAE
330
406
100
AcDbEntity
  8
DIM
 62
     0
370
    -2
100
AcDbLine
 10
4.380098
 20
24.556287
 30
0.0
 11
2.047794737487397
 21
24.556287
 31
0.0
  0
LINE
  5
CAF
330
406
100
AcDbEntity
  8
DIM
 62
     0
370
    -2
100
AcDbLine
 10
2.233794737487397
 20
26.196287
 30
0.0
 11
2.233794737487397
 21
25.861287
 31
0.0
  0
LINE
  5
CB0
330
406
100
AcDbEntity
  8
DIM
 62
     0
370
    -2
100
AcDbLine
 10
2.233794737487397
 20
24.916287
 30
0.0
 11
2.233794737487397
 21
25.251287
 31
0.0
  0
SOLID
  5
CB1
330
406
100
AcDbEntity
  8
DIM
 62
     0
100
AcDbTrace
 10
2.173794737487397
 20
26.196287
 30
0.0
 11
2.293794737487397
 21
26.196287
 31
0.0
 12
2.233794737487397
 22
26.556287
 32
0.0
 13
2.233794737487397
 23
26.556287
 33
0.0
  0
SOLID
  5
CB2
330
406
100
AcDbEntity
  8
DIM
 62
     0
100
AcDbTrace
 10
2.173794737487397
 20
24.916287
 30
0.0
 11
2.293794737487397
 21
24.916287
 31
0.0
 12
2.233794737487397
 22
24.556287
 32
0.0
 13
2.233794737487397
 23
24.556287
 33
0.0
  0
MTEXT
  5
CB3
330
406
100
AcDbEntity
  8
DIM
 62
     0
100
AcDbMText
 10
2.233794737487393
 20
25.556287
 30
0.0
 40
0.25
 41
0.0
 71
     5
 72
     1
  1
\A1;2.000
  7
TXT
 73
     1
 44
1.0
  0
POINT
  5
CB4
330
406
100
AcDbEntity
  8
DEFPOINTS
 62
     0
100
AcDbPoint
 10
4.506098
 20
26.556287
 30
0.0
  0
POINT
  5
CB5
330
406
100
AcDbEntity
  8
DEFPOINTS
 62
     0
100
AcDbPoint
 10
4.506098
 20
24.556287
 30
0.0
  0
POINT
  5
CB6
330
406
100
AcDbEntity
  8
DEFPOINTS
 62
     0
100
AcDbPoint
 10
2.233794737487397
 20
24.556287
 30
0.0
  0
ENDBLK
  5
412
330
406
100
AcDbEntity
  8
0
100
AcDbBlockEnd
  0
BLOCK
  5
428
330
41D
100
AcDbEntity
  8
0
100
AcDbBlockBegin
  2
*D18
 70
     1
 10
0.0
 20
0.0
 30
0.0
  3
*D18
  1

  0
LINE
  5
B1D
330
41D
100
AcDbEntity
  8
DIM
 62
     0
370
    -2
100
AcDbLine
 10
4.772598
 20
15.428768
 30
0.0
 11
5.749298999999999
 21
15.428768
 31
0.0
  0
LINE
  5
B1E
330
41D
100
AcDbEntity
  8
DIM
 62
     0
370
    -2
100
AcDbLine
 10
5.070683
 20
15.153768
 30
0.0
 11
5.749298999999999
 21
15.153768
 31
0.0
  0
LINE
  5
B1F
330
41D
100
AcDbEntity
  8
DIM
 62
     0
370
    -2
100
AcDbLine
 10
5.563298999999999
 20
15.78876799999999
 30
0.0
 11
5.563298999999999
 21
16.148768
 31
0.0
  0
LINE
  5
B20
330
41D
100
AcDbEntity
  8
DIM
 62
     0
370
    -2
100
AcDbLine
 10
5.563298999999999
 20
14.793768
 30
0.0
 11
5.563298999999999
 21
14.433768
 31
0.0
  0
LINE
  5
B21
330
41D
100
AcDbEntity
  8
DIM
 62
     0
370
    -2
100
AcDbLine
 10
5.563298999999999
 20
14.433768
 30
0.0
 11
5.203298999999999
 21
14.433768
 31
0.0
  0
SOLID
  5
B22
330
41D
100
AcDbEntity
  8
DIM
 62
     0
100
AcDbTrace
 10
5.503299
 20
15.78876799999999
 30
0.0
 11
5.623298999999999
 21
15.78876799999999
 31
0.0
 12
5.563298999999999
 22
15.428768
 32
0.0
 13
5.563298999999999
 23
15.428768
 33
0.0
  0
SOLID
  5
B23
330
41D
100
AcDbEntity
  8
DIM
 62
     0
100
AcDbTrace
 10
5.503299
 20
14.793768
 30
0.0
 11
5.623298999999999
 21
14.793768
 31
0.0
 12
5.563298999999999
 22
15.153768
 32
0.0
 13
5.563298999999999
 23
15.153768
 33
0.0
  0
MTEXT
  5
B24
330
41D
100
AcDbEntity
  8
DIM
 62
     0
100
AcDbMText
 10
4.663923999999997
 20
14.433768
 30
0.0
 40
0.25
 41
0.0
 71
     5
 72
     1
  1
\A1;0.275
  7
TXT
 73
     1
 44
1.0
  0
POINT
  5
B25
330
41D
100
AcDbEntity
  8
DEFPOINTS
 62
     0
100
AcDbPoint
 10
4.646598
 20
15.428768
 30
0.0
  0
POINT
  5
B26
330
41D
100
AcDbEntity
  8
DEFPOINTS
 62
     0
100
AcDbPoint
 10
4.944683
 20
15.153768
 30
0.0
  0
POINT
  5
B27
330
41D
100
AcDbEntity
  8
DEFPOINTS
 62
     0
100
AcDbPoint
 10
5.563298999999999
 20
15.153768
 30
0.0
  0
ENDBLK
  5
429
330
41D
100
AcDbEntity
  8
0
100
AcDbBlockEnd
  0
BLOCK
  5
436
330
42B
100
AcDbEntity
  8
0
100
AcDbBlockBegin
  2
*D19
 70
     1
 10
0.0
 20
0.0
 30
0.0
  3
*D19
  1

  0
LINE
  5
92B
330
42B
100
AcDbEntity
  8
DIM
 62
     0
370
    -2
100
AcDbLine
 10
4.772598
 20
15.428768
 30
0.0
 11
5.749298999999999
 21
15.428768
 31
0.0
  0
LINE
  5
92C
330
42B
100
AcDbEntity
  8
DIM
 62
     0
370
    -2
100
AcDbLine
 10
4.772598
 20
17.398768
 30
0.0
 11
5.749298999999999
 21
17.398768
 31
0.0
  0
LINE
  5
92D
330
42B
100
AcDbEntity
  8
DIM
 62
     0
370
    -2
100
AcDbLine
 10
5.563298999999999
 20
15.78876799999999
 30
0.0
 11
5.563298999999999
 21
16.108768
 31
0.0
  0
LINE
  5
92E
330
42B
100
AcDbEntity
  8
DIM
 62
     0
370
    -2
100
AcDbLine
 10
5.563298999999999
 20
17.038768
 30
0.0
 11
5.563298999999999
 21
16.718768
 31
0.0
  0
SOLID
  5
92F
330
42B
100
AcDbEntity
  8
DIM
 62
     0
100
AcDbTrace
 10
5.503299
 20
15.78876799999999
 30
0.0
 11
5.623298999999999
 21
15.78876799999999
 31
0.0
 12
5.563298999999999
 22
15.428768
 32
0.0
 13
5.563298999999999
 23
15.428768
 33
0.0
  0
SOLID
  5
930
330
42B
100
AcDbEntity
  8
DIM
 62
     0
100
AcDbTrace
 10
5.503299
 20
17.038768
 30
0.0
 11
5.623298999999999
 21
17.038768
 31
0.0
 12
5.563298999999999
 22
17.398768
 32
0.0
 13
5.563298999999999
 23
17.398768
 33
0.0
  0
MTEXT
  5
931
330
42B
100
AcDbEntity
  8
DIM
 62
     0
100
AcDbMText
 10
5.563298999999997
 20
16.413768
 30
0.0
 40
0.25
 41
0.0
 71
     5
 72
     1
  1
\A1;D
  7
TXT
 73
     1
 44
1.0
  0
POINT
  5
932
330
42B
100
AcDbEntity
  8
DEFPOINTS
 62
     0
100
AcDbPoint
 10
4.646598
 20
15.428768
 30
0.0
  0
POINT
  5
933
330
42B
100
AcDbEntity
  8
DEFPOINTS
 62
     0
100
AcDbPoint
 10
4.646598
 20
17.398768
 30
0.0
  0
POINT
  5
934
330
42B
100
AcDbEntity
  8
DEFPOINTS
 62
     0
100
AcDbPoint
 10
5.563298999999999
 20
17.398768
 30
0.0
  0
ENDBLK
  5
437
330
42B
100
AcDbEntity
  8
0
100
AcDbBlockEnd
  0
BLOCK
  5
50A
330
4FF
100
AcDbEntity
  8
0
100
AcDbBlockBegin
  2
*D20
 70
     1
 10
0.0
 20
0.0
 30
0.0
  3
*D20
  1

  0
LINE
  5
935
330
4FF
100
AcDbEntity
  8
DIM
 62
     0
370
    -2
100
AcDbLine
 10
9.842753
 20
16.413768
 30
0.0
 11
10.54394599999999
 21
16.413768
 31
0.0
  0
LINE
  5
936
330
4FF
100
AcDbEntity
  8
DIM
 62
     0
370
    -2
100
AcDbLine
 10
9.817739999999998
 20
17.673768
 30
0.0
 11
10.54394599999999
 21
17.673768
 31
0.0
  0
LINE
  5
937
330
4FF
100
AcDbEntity
  8
DIM
 62
     0
370
    -2
100
AcDbLine
 10
10.357946
 20
16.053768
 30
0.0
 11
10.357946
 21
15.693768
 31
0.0
  0
LINE
  5
938
330
4FF
100
AcDbEntity
  8
DIM
 62
     0
370
    -2
100
AcDbLine
 10
10.357946
 20
18.03376799999999
 30
0.0
 11
10.357946
 21
18.39376799999999
 31
0.0
  0
SOLID
  5
939
330
4FF
100
AcDbEntity
  8
DIM
 62
     0
100
AcDbTrace
 10
10.297946
 20
16.053768
 30
0.0
 11
10.417946
 21
16.053768
 31
0.0
 12
10.357946
 22
16.413768
 32
0.0
 13
10.357946
 23
16.413768
 33
0.0
  0
SOLID
  5
93A
330
4FF
100
AcDbEntity
  8
DIM
 62
     0
100
AcDbTrace
 10
10.297946
 20
18.03376799999999
 30
0.0
 11
10.417946
 21
18.03376799999999
 31
0.0
 12
10.357946
 22
17.673768
 32
0.0
 13
10.357946
 23
17.673768
 33
0.0
  0
MTEXT
  5
93B
330
4FF
100
AcDbEntity
  8
DIM
 62
     0
100
AcDbMText
 10
10.35794599999999
 20
17.043768
 30
0.0
 40
0.25
 41
0.0
 71
     5
 72
     1
  1
\A1;1.260
  7
TXT
 73
     1
 44
1.0
  0
POINT
  5
93C
330
4FF
100
AcDbEntity
  8
DEFPOINTS
 62
     0
100
AcDbPoint
 10
9.716753
 20
16.413768
 30
0.0
  0
POINT
  5
93D
330
4FF
100
AcDbEntity
  8
DEFPOINTS
 62
     0
100
AcDbPoint
 10
9.691739999999999
 20
17.673768
 30
0.0
  0
POINT
  5
93E
330
4FF
100
AcDbEntity
  8
DEFPOINTS
 62
     0
100
AcDbPoint
 10
10.357946
 20
17.673768
 30
0.0
  0
ENDBLK
  5
50B
330
4FF
100
AcDbEntity
  8
0
100
AcDbBlockEnd
  0
BLOCK
  5
518
330
50D
100
AcDbEntity
  8
0
100
AcDbBlockBegin
  2
*D21
 70
     1
 10
0.0
 20
0.0
 30
0.0
  3
*D21
  1

  0
LINE
  5
93F
330
50D
100
AcDbEntity
  8
DIM
 62
     0
370
    -2
100
AcDbLine
 10
4.506098
 20
26.682287
 30
0.0
 11
4.506098
 21
28.40504199999999
 31
0.0
  0
LINE
  5
940
330
50D
100
AcDbEntity
  8
DIM
 62
     0
370
    -2
100
AcDbLine
 10
6.686097999999999
 20
26.682287
 30
0.0
 11
6.686097999999999
 21
28.40504199999999
 31
0.0
  0
LINE
  5
941
330
50D
100
AcDbEntity
  8
DIM
 62
     0
370
    -2
100
AcDbLine
 10
4.866098
 20
28.219042
 30
0.0
 11
5.353597999999999
 21
28.219042
 31
0.0
  0
LINE
  5
942
330
50D
100
AcDbEntity
  8
DIM
 62
     0
370
    -2
100
AcDbLine
 10
6.326097999999999
 20
28.219042
 30
0.0
 11
5.838597999999999
 21
28.219042
 31
0.0
  0
SOLID
  5
943
330
50D
100
AcDbEntity
  8
DIM
 62
     0
100
AcDbTrace
 10
4.866098
 20
28.27904199999999
 30
0.0
 11
4.866098
 21
28.159042
 31
0.0
 12
4.506098
 22
28.219042
 32
0.0
 13
4.506098
 23
28.219042
 33
0.0
  0
SOLID
  5
944
330
50D
100
AcDbEntity
  8
DIM
 62
     0
100
AcDbTrace
 10
6.326097999999999
 20
28.27904199999999
 30
0.0
 11
6.326097999999999
 21
28.159042
 31
0.0
 12
6.686097999999999
 22
28.219042
 32
0.0
 13
6.686097999999999
 23
28.219042
 33
0.0
  0
MTEXT
  5
945
330
50D
100
AcDbEntity
  8
DIM
 62
     0
100
AcDbMText
 10
5.596097999999999
 20
28.219042
 30
0.0
 40
0.25
 41
0.0
 71
     5
 72
     1
  1
\A1;J
  7
TXT
 73
     1
 44
1.0
  0
POINT
  5
946
330
50D
100
AcDbEntity
  8
DEFPOINTS
 62
     0
100
AcDbPoint
 10
4.506098
 20
26.556287
 30
0.0
  0
POINT
  5
947
330
50D
100
AcDbEntity
  8
DEFPOINTS
 62
     0
100
AcDbPoint
 10
6.686097999999999
 20
26.556287
 30
0.0
  0
POINT
  5
948
330
50D
100
AcDbEntity
  8
DEFPOINTS
 62
     0
100
AcDbPoint
 10
6.686097999999999
 20
28.219042
 30
0.0
  0
ENDBLK
  5
519
330
50D
100
AcDbEntity
  8
0
100
AcDbBlockEnd
  0
BLOCK
  5
526
330
51B
100
AcDbEntity
  8
0
100
AcDbBlockBegin
  2
*D22
 70
     1
 10
0.0
 20
0.0
 30
0.0
  3
*D22
  1

  0
LINE
  5
949
330
51B
100
AcDbEntity
  8
DIM
 62
     0
370
    -2
100
AcDbLine
 10
6.686097999999999
 20
26.682287
 30
0.0
 11
6.686097999999999
 21
28.40504199999999
 31
0.0
  0
LINE
  5
94A
330
51B
100
AcDbEntity
  8
DIM
 62
     0
370
    -2
100
AcDbLine
 10
8.866097999999999
 20
26.682287
 30
0.0
 11
8.866097999999999
 21
28.40504199999999
 31
0.0
  0
LINE
  5
94B
330
51B
100
AcDbEntity
  8
DIM
 62
     0
370
    -2
100
AcDbLine
 10
7.046097999999999
 20
28.219042
 30
0.0
 11
7.533597999999999
 21
28.219042
 31
0.0
  0
LINE
  5
94C
330
51B
100
AcDbEntity
  8
DIM
 62
     0
370
    -2
100
AcDbLine
 10
8.506097999999999
 20
28.219042
 30
0.0
 11
8.018597999999999
 21
28.219042
 31
0.0
  0
SOLID
  5
94D
330
51B
100
AcDbEntity
  8
DIM
 62
     0
100
AcDbTrace
 10
7.046097999999999
 20
28.27904199999999
 30
0.0
 11
7.046097999999999
 21
28.159042
 31
0.0
 12
6.686097999999999
 22
28.219042
 32
0.0
 13
6.686097999999999
 23
28.219042
 33
0.0
  0
SOLID
  5
94E
330
51B
100
AcDbEntity
  8
DIM
 62
     0
100
AcDbTrace
 10
8.506097999999999
 20
28.27904199999999
 30
0.0
 11
8.506097999999999
 21
28.159042
 31
0.0
 12
8.866097999999999
 22
28.219042
 32
0.0
 13
8.866097999999999
 23
28.219042
 33
0.0
  0
MTEXT
  5
94F
330
51B
100
AcDbEntity
  8
DIM
 62
     0
100
AcDbMText
 10
7.776097999999999
 20
28.219042
 30
0.0
 40
0.25
 41
0.0
 71
     5
 72
     1
  1
\A1;J
  7
TXT
 73
     1
 44
1.0
  0
POINT
  5
950
330
51B
100
AcDbEntity
  8
DEFPOINTS
 62
     0
100
AcDbPoint
 10
6.686097999999999
 20
26.556287
 30
0.0
  0
POINT
  5
951
330
51B
100
AcDbEntity
  8
DEFPOINTS
 62
     0
100
AcDbPoint
 10
8.866097999999999
 20
26.556287
 30
0.0
  0
POINT
  5
952
330
51B
100
AcDbEntity
  8
DEFPOINTS
 62
     0
100
AcDbPoint
 10
8.866097999999999
 20
28.219042
 30
0.0
  0
ENDBLK
  5
527
330
51B
100
AcDbEntity
  8
0
100
AcDbBlockEnd
  0
BLOCK
  5
534
330
529
100
AcDbEntity
  8
0
100
AcDbBlockBegin
  2
*D23
 70
     1
 10
0.0
 20
0.0
 30
0.0
  3
*D23
  1

  0
LINE
  5
C0C
330
529
100
AcDbEntity
  8
DIM
 62
     0
370
    -2
100
AcDbLine
 10
3.801098
 20
26.22009418219429
 30
0.0
 11
3.801098
 21
26.00095518219429
 31
0.0
  0
LINE
  5
C0D
330
529
100
AcDbEntity
  8
DIM
 62
     0
370
    -2
100
AcDbLine
 10
9.571752999999999
 20
26.22009418219429
 30
0.0
 11
9.571752999999999
 21
26.00095518219429
 31
0.0
  0
LINE
  5
C0E
330
529
100
AcDbEntity
  8
DIM
 62
     0
370
    -2
100
AcDbLine
 10
4.161098
 20
26.18695518219428
 30
0.0
 11
6.4439255
 21
26.18695518219428
 31
0.0
  0
LINE
  5
C0F
330
529
100
AcDbEntity
  8
DIM
 62
     0
370
    -2
100
AcDbLine
 10
9.211752999999999
 20
26.18695518219428
 30
0.0
 11
6.9289255
 21
26.18695518219428
 31
0.0
  0
SOLID
  5
C10
330
529
100
AcDbEntity
  8
DIM
 62
     0
100
AcDbTrace
 10
4.161098
 20
26.24695518219429
 30
0.0
 11
4.161098
 21
26.12695518219429
 31
0.0
 12
3.801098
 22
26.18695518219428
 32
0.0
 13
3.801098
 23
26.18695518219428
 33
0.0
  0
SOLID
  5
C11
330
529
100
AcDbEntity
  8
DIM
 62
     0
100
AcDbTrace
 10
9.211752999999999
 20
26.24695518219429
 30
0.0
 11
9.211752999999999
 21
26.12695518219429
 31
0.0
 12
9.571752999999999
 22
26.18695518219428
 32
0.0
 13
9.571752999999999
 23
26.18695518219428
 33
0.0
  0
MTEXT
  5
C12
330
529
100
AcDbEntity
  8
DIM
 62
     0
100
AcDbMText
 10
6.6864255
 20
26.18695518219428
 30
0.0
 40
0.25
 41
0.0
 71
     5
 72
     1
  1
\A1;H
  7
TXT
 73
     1
 44
1.0
  0
POINT
  5
C13
330
529
100
AcDbEntity
  8
DEFPOINTS
 62
     0
100
AcDbPoint
 10
3.801098
 20
26.34609418219429
 30
0.0
  0
POINT
  5
C14
330
529
100
AcDbEntity
  8
DEFPOINTS
 62
     0
100
AcDbPoint
 10
9.571752999999999
 20
26.34609418219429
 30
0.0
  0
POINT
  5
C15
330
529
100
AcDbEntity
  8
DEFPOINTS
 62
     0
100
AcDbPoint
 10
9.571752999999999
 20
26.18695518219428
 30
0.0
  0
ENDBLK
  5
535
330
529
100
AcDbEntity
  8
0
100
AcDbBlockEnd
  0
BLOCK
  5
543
330
538
100
AcDbEntity
  8
0
100
AcDbBlockBegin
  2
*D24
 70
     1
 10
0.0
 20
0.0
 30
0.0
  3
*D24
  1

  0
LINE
  5
CD5
330
538
100
AcDbEntity
  8
DIM
 62
     0
370
    -2
100
AcDbLine
 10
3.379162
 20
25.046287
 30
0.0
 11
2.804519708576759
 21
25.046287
 31
0.0
  0
LINE
  5
CD6
330
538
100
AcDbEntity
  8
DIM
 62
     0
370
    -2
100
AcDbLine
 10
3.500098
 20
21.396287
 30
0.0
 11
2.804519708576759
 21
21.396287
 31
0.0
  0
LINE
  5
CD7
330
538
100
AcDbEntity
  8
DIM
 62
     0
370
    -2
100
AcDbLine
 10
2.990519708576759
 20
24.686287
 30
0.0
 11
2.990519708576759
 21
24.23528737035703
 31
0.0
  0
LINE
  5
CD8
330
538
100
AcDbEntity
  8
DIM
 62
     0
370
    -2
100
AcDbLine
 10
2.990519708576758
 20
21.756287
 30
0.0
 11
2.990519708576759
 21
23.62528737035703
 31
0.0
  0
SOLID
  5
CD9
330
538
100
AcDbEntity
  8
DIM
 62
     0
100
AcDbTrace
 10
2.930519708576759
 20
24.686287
 30
0.0
 11
3.050519708576759
 21
24.686287
 31
0.0
 12
2.990519708576759
 22
25.046287
 32
0.0
 13
2.990519708576759
 23
25.046287
 33
0.0
  0
SOLID
  5
CDA
330
538
100
AcDbEntity
  8
DIM
 62
     0
100
AcDbTrace
 10
2.930519708576758
 20
21.756287
 30
0.0
 11
3.050519708576759
 21
21.756287
 31
0.0
 12
2.990519708576758
 22
21.396287
 32
0.0
 13
2.990519708576758
 23
21.396287
 33
0.0
  0
MTEXT
  5
CDB
330
538
100
AcDbEntity
  8
DIM
 62
     0
100
AcDbMText
 10
2.990519708576755
 20
23.93028737035703
 30
0.0
 40
0.25
 41
0.0
 71
     5
 72
     1
  1
\A1;3.650
  7
TXT
 73
     1
 44
1.0
  0
POINT
  5
CDC
330
538
100
AcDbEntity
  8
DEFPOINTS
 62
     0
100
AcDbPoint
 10
3.505162
 20
25.046287
 30
0.0
  0
POINT
  5
CDD
330
538
100
AcDbEntity
  8
DEFPOINTS
 62
     0
100
AcDbPoint
 10
3.626098
 20
21.396287
 30
0.0
  0
POINT
  5
CDE
330
538
100
AcDbEntity
  8
DEFPOINTS
 62
     0
100
AcDbPoint
 10
2.990519708576758
 20
21.396287
 30
0.0
  0
ENDBLK
  5
544
330
538
100
AcDbEntity
  8
0
100
AcDbBlockEnd
  0
BLOCK
  5
557
330
54C
100
AcDbEntity
  8
0
100
AcDbBlockBegin
  2
*D25
 70
     1
 10
0.0
 20
0.0
 30
0.0
  3
*D25
  1

  0
LINE
  5
967
330
54C
100
AcDbEntity
  8
DIM
 62
     0
370
    -2
100
AcDbLine
 10
3.780098
 20
17.54876799999999
 30
0.0
 11
2.932205
 21
17.54876799999999
 31
0.0
  0
LINE
  5
968
330
54C
100
AcDbEntity
  8
DIM
 62
     0
370
    -2
100
AcDbLine
 10
3.780098
 20
15.278768
 30
0.0
 11
2.932205
 21
15.278768
 31
0.0
  0
LINE
  5
969
330
54C
100
AcDbEntity
  8
DIM
 62
     0
370
    -2
100
AcDbLine
 10
3.118205
 20
17.188768
 30
0.0
 11
3.118205
 21
16.71876799999999
 31
0.0
  0
LINE
  5
96A
330
54C
100
AcDbEntity
  8
DIM
 62
     0
370
    -2
100
AcDbLine
 10
3.118205
 20
15.638768
 30
0.0
 11
3.118205
 21
16.10876799999999
 31
0.0
  0
SOLID
  5
96B
330
54C
100
AcDbEntity
  8
DIM
 62
     0
100
AcDbTrace
 10
3.058205
 20
17.188768
 30
0.0
 11
3.178205
 21
17.188768
 31
0.0
 12
3.118205
 22
17.54876799999999
 32
0.0
 13
3.118205
 23
17.54876799999999
 33
0.0
  0
SOLID
  5
96C
330
54C
100
AcDbEntity
  8
DIM
 62
     0
100
AcDbTrace
 10
3.058205
 20
15.638768
 30
0.0
 11
3.178205
 21
15.638768
 31
0.0
 12
3.118205
 22
15.278768
 32
0.0
 13
3.118205
 23
15.278768
 33
0.0
  0
MTEXT
  5
96D
330
54C
100
AcDbEntity
  8
DIM
 62
     0
100
AcDbMText
 10
3.118204999999997
 20
16.41376799999999
 30
0.0
 40
0.25
 41
0.0
 71
     5
 72
     1
  1
\A1;C
  7
TXT
 73
     1
 44
1.0
  0
POINT
  5
96E
330
54C
100
AcDbEntity
  8
DEFPOINTS
 62
     0
100
AcDbPoint
 10
3.906098
 20
17.54876799999999
 30
0.0
  0
POINT
  5
96F
330
54C
100
AcDbEntity
  8
DEFPOINTS
 62
     0
100
AcDbPoint
 10
3.906098
 20
15.278768
 30
0.0
  0
POINT
  5
970
330
54C
100
AcDbEntity
  8
DEFPOINTS
 62
     0
100
AcDbPoint
 10
3.118205
 20
15.278768
 30
0.0
  0
ENDBLK
  5
558
330
54C
100
AcDbEntity
  8
0
100
AcDbBlockEnd
  0
BLOCK
  5
565
330
55A
100
AcDbEntity
  8
0
100
AcDbBlockBegin
  2
*D26
 70
     1
 10
0.0
 20
0.0
 30
0.0
  3
*D26
  1

  0
LINE
  5
971
330
55A
100
AcDbEntity
  8
DIM
 62
     0
370
    -2
100
AcDbLine
 10
3.555111
 20
17.673768
 30
0.0
 11
2.074399
 21
17.673768
 31
0.0
  0
LINE
  5
972
330
55A
100
AcDbEntity
  8
DIM
 62
     0
370
    -2
100
AcDbLine
 10
3.555111
 20
15.153768
 30
0.0
 11
2.074399
 21
15.153768
 31
0.0
  0
LINE
  5
973
330
55A
100
AcDbEntity
  8
DIM
 62
     0
370
    -2
100
AcDbLine
 10
2.260399
 20
17.313768
 30
0.0
 11
2.260399
 21
16.71876799999999
 31
0.0
  0
LINE
  5
974
330
55A
100
AcDbEntity
  8
DIM
 62
     0
370
    -2
100
AcDbLine
 10
2.260399
 20
15.51376799999999
 30
0.0
 11
2.260399
 21
16.10876799999999
 31
0.0
  0
SOLID
  5
975
330
55A
100
AcDbEntity
  8
DIM
 62
     0
100
AcDbTrace
 10
2.200399
 20
17.313768
 30
0.0
 11
2.320399
 21
17.313768
 31
0.0
 12
2.260399
 22
17.673768
 32
0.0
 13
2.260399
 23
17.673768
 33
0.0
  0
SOLID
  5
976
330
55A
100
AcDbEntity
  8
DIM
 62
     0
100
AcDbTrace
 10
2.200398999999999
 20
15.51376799999999
 30
0.0
 11
2.320399
 21
15.51376799999999
 31
0.0
 12
2.260399
 22
15.153768
 32
0.0
 13
2.260399
 23
15.153768
 33
0.0
  0
MTEXT
  5
977
330
55A
100
AcDbEntity
  8
DIM
 62
     0
100
AcDbMText
 10
2.260398999999997
 20
16.41376799999999
 30
0.0
 40
0.25
 41
0.0
 71
     5
 72
     1
  1
\A1;A
  7
TXT
 73
     1
 44
1.0
  0
POINT
  5
978
330
55A
100
AcDbEntity
  8
DEFPOINTS
 62
     0
100
AcDbPoint
 10
3.681111
 20
17.673768
 30
0.0
  0
POINT
  5
979
330
55A
100
AcDbEntity
  8
DEFPOINTS
 62
     0
100
AcDbPoint
 10
3.681111
 20
15.153768
 30
0.0
  0
POINT
  5
97A
330
55A
100
AcDbEntity
  8
DEFPOINTS
 62
     0
100
AcDbPoint
 10
2.260399
 20
15.153768
 30
0.0
  0
ENDBLK
  5
566
330
55A
100
AcDbEntity
  8
0
100
AcDbBlockEnd
  0
BLOCK
  5
5E5
330
5DA
100
AcDbEntity
  8
0
100
AcDbBlockBegin
  2
*D27
 70
     1
 10
0.0
 20
0.0
 30
0.0
  3
*D27
  1

  0
LINE
  5
B28
330
5DA
100
AcDbEntity
  8
DIM
 62
     0
370
    -2
100
AcDbLine
 10
17.694226
 20
12.72958699999999
 30
0.0
 11
17.694226
 21
13.554239
 31
0.0
  0
LINE
  5
B29
330
5DA
100
AcDbEntity
  8
DIM
 62
     0
370
    -2
100
AcDbLine
 10
11.944226
 20
12.72958699999999
 30
0.0
 11
11.944226
 21
13.554239
 31
0.0
  0
LINE
  5
B2A
330
5DA
100
AcDbEntity
  8
DIM
 62
     0
370
    -2
100
AcDbLine
 10
17.334226
 20
13.368239
 30
0.0
 11
15.061726
 21
13.368239
 31
0.0
  0
LINE
  5
B2B
330
5DA
100
AcDbEntity
  8
DIM
 62
     0
370
    -2
100
AcDbLine
 10
12.30422599999999
 20
13.368239
 30
0.0
 11
14.576726
 21
13.368239
 31
0.0
  0
SOLID
  5
B2C
330
5DA
100
AcDbEntity
  8
DIM
 62
     0
100
AcDbTrace
 10
17.334226
 20
13.428239
 30
0.0
 11
17.334226
 21
13.308239
 31
0.0
 12
17.694226
 22
13.368239
 32
0.0
 13
17.694226
 23
13.368239
 33
0.0
  0
SOLID
  5
B2D
330
5DA
100
AcDbEntity
  8
DIM
 62
     0
100
AcDbTrace
 10
12.30422599999999
 20
13.428239
 30
0.0
 11
12.30422599999999
 21
13.308239
 31
0.0
 12
11.944226
 22
13.368239
 32
0.0
 13
11.944226
 23
13.368239
 33
0.0
  0
MTEXT
  5
B2E
330
5DA
100
AcDbEntity
  8
DIM
 62
     0
100
AcDbMText
 10
14.819226
 20
13.368239
 30
0.0
 40
0.25
 41
0.0
 71
     5
 72
     1
  1
\A1;M
  7
TXT
 73
     1
 44
1.0
  0
POINT
  5
B2F
330
5DA
100
AcDbEntity
  8
DEFPOINTS
 62
     0
100
AcDbPoint
 10
17.694226
 20
12.603587
 30
0.0
  0
POINT
  5
B30
330
5DA
100
AcDbEntity
  8
DEFPOINTS
 62
     0
100
AcDbPoint
 10
11.944226
 20
12.603587
 30
0.0
  0
POINT
  5
B31
330
5DA
100
AcDbEntity
  8
DEFPOINTS
 62
     0
100
AcDbPoint
 10
11.944226
 20
13.368239
 30
0.0
  0
ENDBLK
  5
5E6
330
5DA
100
AcDbEntity
  8
0
100
AcDbBlockEnd
  0
BLOCK
  5
5F8
330
5ED
100
AcDbEntity
  8
0
100
AcDbBlockBegin
  2
*D28
 70
     1
 10
0.0
 20
0.0
 30
0.0
  3
*D28
  1

  0
LINE
  5
B32
330
5ED
100
AcDbEntity
  8
DIM
 62
     0
370
    -2
100
AcDbLine
 10
3.675098
 20
9.533586999999998
 30
0.0
 11
2.932205
 21
9.533586999999998
 31
0.0
  0
LINE
  5
B33
330
5ED
100
AcDbEntity
  8
DIM
 62
     0
370
    -2
100
AcDbLine
 10
3.555111
 20
9.408586999999998
 30
0.0
 11
2.932205
 21
9.408586999999998
 31
0.0
  0
LINE
  5
B34
330
5ED
100
AcDbEntity
  8
DIM
 62
     0
370
    -2
100
AcDbLine
 10
3.118205
 20
9.893586999999998
 30
0.0
 11
3.118205
 21
10.25358699999999
 31
0.0
  0
LINE
  5
B35
330
5ED
100
AcDbEntity
  8
DIM
 62
     0
370
    -2
100
AcDbLine
 10
3.118205
 20
9.048586999999999
 30
0.0
 11
3.118204999999999
 21
8.688586999999998
 31
0.0
  0
LINE
  5
B36
330
5ED
100
AcDbEntity
  8
DIM
 62
     0
370
    -2
100
AcDbLine
 10
3.118204999999999
 20
8.688586999999998
 30
0.0
 11
2.758204999999999
 21
8.688586999999998
 31
0.0
  0
SOLID
  5
B37
330
5ED
100
AcDbEntity
  8
DIM
 62
     0
100
AcDbTrace
 10
3.058205
 20
9.893586999999998
 30
0.0
 11
3.178205
 21
9.893586999999998
 31
0.0
 12
3.118205
 22
9.533586999999998
 32
0.0
 13
3.118205
 23
9.533586999999998
 33
0.0
  0
SOLID
  5
B38
330
5ED
100
AcDbEntity
  8
DIM
 62
     0
100
AcDbTrace
 10
3.058205
 20
9.048586999999999
 30
0.0
 11
3.178205
 21
9.048586999999999
 31
0.0
 12
3.118205
 22
9.408586999999998
 32
0.0
 13
3.118205
 23
9.408586999999998
 33
0.0
  0
MTEXT
  5
B39
330
5ED
100
AcDbEntity
  8
DIM
 62
     0
100
AcDbMText
 10
2.250079999999998
 20
8.688586999999998
 30
0.0
 40
0.25
 41
0.0
 71
     5
 72
     1
  1
\A1;0.125
  7
TXT
 73
     1
 44
1.0
  0
POINT
  5
B3A
330
5ED
100
AcDbEntity
  8
DEFPOINTS
 62
     0
100
AcDbPoint
 10
3.801098
 20
9.533586999999998
 30
0.0
  0
POINT
  5
B3B
330
5ED
100
AcDbEntity
  8
DEFPOINTS
 62
     0
100
AcDbPoint
 10
3.681111
 20
9.408586999999998
 30
0.0
  0
POINT
  5
B3C
330
5ED
100
AcDbEntity
  8
DEFPOINTS
 62
     0
100
AcDbPoint
 10
3.118205
 20
9.408586999999998
 30
0.0
  0
ENDBLK
  5
5F9
330
5ED
100
AcDbEntity
  8
0
100
AcDbBlockEnd
  0
BLOCK
  5
606
330
5FB
100
AcDbEntity
  8
0
100
AcDbBlockBegin
  2
*D29
 70
     1
 10
0.0
 20
0.0
 30
0.0
  3
*D29
  1

  0
LINE
  5
97B
330
5FB
100
AcDbEntity
  8
DIM
 62
     0
370
    -2
100
AcDbLine
 10
9.842753
 20
10.66858699999999
 30
0.0
 11
10.54394599999999
 21
10.66858699999999
 31
0.0
  0
LINE
  5
97C
330
5FB
100
AcDbEntity
  8
DIM
 62
     0
370
    -2
100
AcDbLine
 10
9.817739999999998
 20
9.408586999999998
 30
0.0
 11
10.54394599999999
 21
9.408586999999998
 31
0.0
  0
LINE
  5
97D
330
5FB
100
AcDbEntity
  8
DIM
 62
     0
370
    -2
100
AcDbLine
 10
10.357946
 20
11.02858699999999
 30
0.0
 11
10.357946
 21
11.38858699999999
 31
0.0
  0
LINE
  5
97E
330
5FB
100
AcDbEntity
  8
DIM
 62
     0
370
    -2
100
AcDbLine
 10
10.357946
 20
9.048586999999999
 30
0.0
 11
10.357946
 21
8.688586999999998
 31
0.0
  0
SOLID
  5
97F
330
5FB
100
AcDbEntity
  8
DIM
 62
     0
100
AcDbTrace
 10
10.297946
 20
11.02858699999999
 30
0.0
 11
10.417946
 21
11.02858699999999
 31
0.0
 12
10.357946
 22
10.66858699999999
 32
0.0
 13
10.357946
 23
10.66858699999999
 33
0.0
  0
SOLID
  5
980
330
5FB
100
AcDbEntity
  8
DIM
 62
     0
100
AcDbTrace
 10
10.297946
 20
9.048586999999999
 30
0.0
 11
10.417946
 21
9.048586999999999
 31
0.0
 12
10.357946
 22
9.408586999999998
 32
0.0
 13
10.357946
 23
9.408586999999998
 33
0.0
  0
MTEXT
  5
981
330
5FB
100
AcDbEntity
  8
DIM
 62
     0
100
AcDbMText
 10
10.35794599999999
 20
10.038587
 30
0.0
 40
0.25
 41
0.0
 71
     5
 72
     1
  1
\A1;1.260
  7
TXT
 73
     1
 44
1.0
  0
POINT
  5
982
330
5FB
100
AcDbEntity
  8
DEFPOINTS
 62
     0
100
AcDbPoint
 10
9.716753
 20
10.66858699999999
 30
0.0
  0
POINT
  5
983
330
5FB
100
AcDbEntity
  8
DEFPOINTS
 62
     0
100
AcDbPoint
 10
9.691739999999999
 20
9.408586999999998
 30
0.0
  0
POINT
  5
984
330
5FB
100
AcDbEntity
  8
DEFPOINTS
 62
     0
100
AcDbPoint
 10
10.357946
 20
9.408586999999998
 30
0.0
  0
ENDBLK
  5
607
330
5FB
100
AcDbEntity
  8
0
100
AcDbBlockEnd
  0
BLOCK
  5
61E
330
613
100
AcDbEntity
  8
0
100
AcDbBlockBegin
  2
*D30
 70
     1
 10
0.0
 20
0.0
 30
0.0
  3
*D30
  1

  0
LINE
  5
985
330
613
100
AcDbEntity
  8
DIM
 62
     0
370
    -2
100
AcDbLine
 10
4.772598
 20
9.683586999999999
 30
0.0
 11
5.749298999999998
 21
9.683586999999999
 31
0.0
  0
LINE
  5
986
330
613
100
AcDbEntity
  8
DIM
 62
     0
370
    -2
100
AcDbLine
 10
4.772598
 20
12.43358699999999
 30
0.0
 11
5.749298999999999
 21
12.43358699999999
 31
0.0
  0
LINE
  5
987
330
613
100
AcDbEntity
  8
DIM
 62
     0
370
    -2
100
AcDbLine
 10
5.563298999999999
 20
10.04358699999999
 30
0.0
 11
5.563298999999999
 21
10.753587
 31
0.0
  0
LINE
  5
988
330
613
100
AcDbEntity
  8
DIM
 62
     0
370
    -2
100
AcDbLine
 10
5.563298999999999
 20
12.073587
 30
0.0
 11
5.563298999999999
 21
11.36358699999999
 31
0.0
  0
SOLID
  5
989
330
613
100
AcDbEntity
  8
DIM
 62
     0
100
AcDbTrace
 10
5.503299
 20
10.04358699999999
 30
0.0
 11
5.623298999999999
 21
10.04358699999999
 31
0.0
 12
5.563298999999998
 22
9.683586999999999
 32
0.0
 13
5.563298999999998
 23
9.683586999999999
 33
0.0
  0
SOLID
  5
98A
330
613
100
AcDbEntity
  8
DIM
 62
     0
100
AcDbTrace
 10
5.503299
 20
12.073587
 30
0.0
 11
5.623298999999999
 21
12.073587
 31
0.0
 12
5.563298999999999
 22
12.43358699999999
 32
0.0
 13
5.563298999999999
 23
12.43358699999999
 33
0.0
  0
MTEXT
  5
98B
330
613
100
AcDbEntity
  8
DIM
 62
     0
100
AcDbMText
 10
5.563298999999997
 20
11.058587
 30
0.0
 40
0.25
 41
0.0
 71
     5
 72
     1
  1
\A1;D
  7
TXT
 73
     1
 44
1.0
  0
POINT
  5
98C
330
613
100
AcDbEntity
  8
DEFPOINTS
 62
     0
100
AcDbPoint
 10
4.646598
 20
9.683586999999999
 30
0.0
  0
POINT
  5
98D
330
613
100
AcDbEntity
  8
DEFPOINTS
 62
     0
100
AcDbPoint
 10
4.646598
 20
12.43358699999999
 30
0.0
  0
POINT
  5
98E
330
613
100
AcDbEntity
  8
DEFPOINTS
 62
     0
100
AcDbPoint
 10
5.563298999999999
 20
12.43358699999999
 30
0.0
  0
ENDBLK
  5
61F
330
613
100
AcDbEntity
  8
0
100
AcDbBlockEnd
  0
BLOCK
  5
62C
330
621
100
AcDbEntity
  8
0
100
AcDbBlockBegin
  2
*D31
 70
     1
 10
0.0
 20
0.0
 30
0.0
  3
*D31
  1

  0
LINE
  5
B3D
330
621
100
AcDbEntity
  8
DIM
 62
     0
370
    -2
100
AcDbLine
 10
4.772598
 20
9.683586999999999
 30
0.0
 11
5.749298999999999
 21
9.683586999999999
 31
0.0
  0
LINE
  5
B3E
330
621
100
AcDbEntity
  8
DIM
 62
     0
370
    -2
100
AcDbLine
 10
5.070683
 20
9.408586999999998
 30
0.0
 11
5.749298999999999
 21
9.408586999999998
 31
0.0
  0
LINE
  5
B3F
330
621
100
AcDbEntity
  8
DIM
 62
     0
370
    -2
100
AcDbLine
 10
5.563299
 20
10.04358699999999
 30
0.0
 11
5.563299
 21
10.403587
 31
0.0
  0
LINE
  5
B40
330
621
100
AcDbEntity
  8
DIM
 62
     0
370
    -2
100
AcDbLine
 10
5.563298999999999
 20
9.048586999999999
 30
0.0
 11
5.563298999999999
 21
8.688586999999998
 31
0.0
  0
LINE
  5
B41
330
621
100
AcDbEntity
  8
DIM
 62
     0
370
    -2
100
AcDbLine
 10
5.563298999999999
 20
8.688586999999998
 30
0.0
 11
5.203298999999999
 21
8.688586999999998
 31
0.0
  0
SOLID
  5
B42
330
621
100
AcDbEntity
  8
DIM
 62
     0
100
AcDbTrace
 10
5.503299000000001
 20
10.04358699999999
 30
0.0
 11
5.623299
 21
10.04358699999999
 31
0.0
 12
5.563298999999999
 22
9.683586999999999
 32
0.0
 13
5.563298999999999
 23
9.683586999999999
 33
0.0
  0
SOLID
  5
B43
330
621
100
AcDbEntity
  8
DIM
 62
     0
100
AcDbTrace
 10
5.503299
 20
9.048586999999999
 30
0.0
 11
5.623298999999999
 21
9.048586999999999
 31
0.0
 12
5.563298999999999
 22
9.408586999999998
 32
0.0
 13
5.563298999999999
 23
9.408586999999998
 33
0.0
  0
MTEXT
  5
B44
330
621
100
AcDbEntity
  8
DIM
 62
     0
100
AcDbMText
 10
4.663923999999998
 20
8.688587
 30
0.0
 40
0.25
 41
0.0
 71
     5
 72
     1
  1
\A1;0.275
  7
TXT
 73
     1
 44
1.0
  0
POINT
  5
B45
330
621
100
AcDbEntity
  8
DEFPOINTS
 62
     0
100
AcDbPoint
 10
4.646598
 20
9.683586999999999
 30
0.0
  0
POINT
  5
B46
330
621
100
AcDbEntity
  8
DEFPOINTS
 62
     0
100
AcDbPoint
 10
4.944683
 20
9.408586999999998
 30
0.0
  0
POINT
  5
B47
330
621
100
AcDbEntity
  8
DEFPOINTS
 62
     0
100
AcDbPoint
 10
5.563298999999999
 20
9.408586999999998
 30
0.0
  0
ENDBLK
  5
62D
330
621
100
AcDbEntity
  8
0
100
AcDbBlockEnd
  0
BLOCK
  5
63A
330
62F
100
AcDbEntity
  8
0
100
AcDbBlockBegin
  2
*D32
 70
     1
 10
0.0
 20
0.0
 30
0.0
  3
*D32
  1

  0
LINE
  5
98F
330
62F
100
AcDbEntity
  8
DIM
 62
     0
370
    -2
100
AcDbLine
 10
11.818226
 20
9.523586999999999
 30
0.0
 11
11.12567399999999
 21
9.523586999999999
 31
0.0
  0
LINE
  5
990
330
62F
100
AcDbEntity
  8
DIM
 62
     0
370
    -2
100
AcDbLine
 10
11.818226
 20
12.603587
 30
0.0
 11
11.125674
 21
12.603587
 31
0.0
  0
LINE
  5
991
330
62F
100
AcDbEntity
  8
DIM
 62
     0
370
    -2
100
AcDbLine
 10
11.31167399999999
 20
9.883586999999998
 30
0.0
 11
11.31167399999999
 21
10.758587
 31
0.0
  0
LINE
  5
992
330
62F
100
AcDbEntity
  8
DIM
 62
     0
370
    -2
100
AcDbLine
 10
11.311674
 20
12.243587
 30
0.0
 11
11.31167399999999
 21
11.368587
 31
0.0
  0
SOLID
  5
993
330
62F
100
AcDbEntity
  8
DIM
 62
     0
100
AcDbTrace
 10
11.25167399999999
 20
9.883586999999998
 30
0.0
 11
11.37167399999999
 21
9.883586999999998
 31
0.0
 12
11.31167399999999
 22
9.523586999999999
 32
0.0
 13
11.31167399999999
 23
9.523586999999999
 33
0.0
  0
SOLID
  5
994
330
62F
100
AcDbEntity
  8
DIM
 62
     0
100
AcDbTrace
 10
11.251674
 20
12.243587
 30
0.0
 11
11.371674
 21
12.243587
 31
0.0
 12
11.311674
 22
12.603587
 32
0.0
 13
11.311674
 23
12.603587
 33
0.0
  0
MTEXT
  5
995
330
62F
100
AcDbEntity
  8
DIM
 62
     0
100
AcDbMText
 10
11.31167399999999
 20
11.063587
 30
0.0
 40
0.25
 41
0.0
 71
     5
 72
     1
  1
\A1;L
  7
TXT
 73
     1
 44
1.0
  0
POINT
  5
996
330
62F
100
AcDbEntity
  8
DEFPOINTS
 62
     0
100
AcDbPoint
 10
11.944226
 20
9.523586999999999
 30
0.0
  0
POINT
  5
997
330
62F
100
AcDbEntity
  8
DEFPOINTS
 62
     0
100
AcDbPoint
 10
11.944226
 20
12.603587
 30
0.0
  0
POINT
  5
998
330
62F
100
AcDbEntity
  8
DEFPOINTS
 62
     0
100
AcDbPoint
 10
11.311674
 20
12.603587
 30
0.0
  0
ENDBLK
  5
63B
330
62F
100
AcDbEntity
  8
0
100
AcDbBlockEnd
  0
BLOCK
  5
6A7
330
69C
100
AcDbEntity
  8
0
100
AcDbBlockBegin
  2
*D33
 70
     1
 10
0.0
 20
0.0
 30
0.0
  3
*D33
  1

  0
LINE
  5
999
330
69C
100
AcDbEntity
  8
DIM
 62
     0
370
    -2
100
AcDbLine
 10
9.842753
 20
10.66858699999999
 30
0.0
 11
10.54394599999999
 21
10.66858699999999
 31
0.0
  0
LINE
  5
99A
330
69C
100
AcDbEntity
  8
DIM
 62
     0
370
    -2
100
AcDbLine
 10
9.817739999999998
 20
12.708587
 30
0.0
 11
10.54394599999999
 21
12.708587
 31
0.0
  0
LINE
  5
99B
330
69C
100
AcDbEntity
  8
DIM
 62
     0
370
    -2
100
AcDbLine
 10
10.35794599999999
 20
11.02858699999999
 30
0.0
 11
10.35794599999999
 21
11.383587
 31
0.0
  0
LINE
  5
99C
330
69C
100
AcDbEntity
  8
DIM
 62
     0
370
    -2
100
AcDbLine
 10
10.357946
 20
12.348587
 30
0.0
 11
10.35794599999999
 21
11.993587
 31
0.0
  0
SOLID
  5
99D
330
69C
100
AcDbEntity
  8
DIM
 62
     0
100
AcDbTrace
 10
10.29794599999999
 20
11.02858699999999
 30
0.0
 11
10.417946
 21
11.02858699999999
 31
0.0
 12
10.35794599999999
 22
10.66858699999999
 32
0.0
 13
10.35794599999999
 23
10.66858699999999
 33
0.0
  0
SOLID
  5
99E
330
69C
100
AcDbEntity
  8
DIM
 62
     0
100
AcDbTrace
 10
10.297946
 20
12.348587
 30
0.0
 11
10.417946
 21
12.348587
 31
0.0
 12
10.357946
 22
12.708587
 32
0.0
 13
10.357946
 23
12.708587
 33
0.0
  0
MTEXT
  5
99F
330
69C
100
AcDbEntity
  8
DIM
 62
     0
100
AcDbMText
 10
10.35794599999999
 20
11.688587
 30
0.0
 40
0.25
 41
0.0
 71
     5
 72
     1
  1
\A1;E
  7
TXT
 73
     1
 44
1.0
  0
POINT
  5
9A0
330
69C
100
AcDbEntity
  8
DEFPOINTS
 62
     0
100
AcDbPoint
 10
9.716753
 20
10.66858699999999
 30
0.0
  0
POINT
  5
9A1
330
69C
100
AcDbEntity
  8
DEFPOINTS
 62
     0
100
AcDbPoint
 10
9.691739999999999
 20
12.708587
 30
0.0
  0
POINT
  5
9A2
330
69C
100
AcDbEntity
  8
DEFPOINTS
 62
     0
100
AcDbPoint
 10
10.357946
 20
12.708587
 30
0.0
  0
ENDBLK
  5
6A8
330
69C
100
AcDbEntity
  8
0
100
AcDbBlockEnd
  0
BLOCK
  5
726
330
71B
100
AcDbEntity
  8
0
100
AcDbBlockBegin
  2
*D34
 70
     1
 10
0.0
 20
0.0
 30
0.0
  3
*D34
  1

  0
LINE
  5
B48
330
71B
100
AcDbEntity
  8
DIM
 62
     0
370
    -2
100
AcDbLine
 10
4.186098
 20
24.430287
 30
0.0
 11
4.186098
 21
19.444203
 31
0.0
  0
LINE
  5
B49
330
71B
100
AcDbEntity
  8
DIM
 62
     0
370
    -2
100
AcDbLine
 10
3.626098
 20
21.27028699999999
 30
0.0
 11
3.626098
 21
19.444203
 31
0.0
  0
LINE
  5
B4A
330
71B
100
AcDbEntity
  8
DIM
 62
     0
370
    -2
100
AcDbLine
 10
4.546098
 20
19.630203
 30
0.0
 11
4.906098
 21
19.630203
 31
0.0
  0
LINE
  5
B4B
330
71B
100
AcDbEntity
  8
DIM
 62
     0
370
    -2
100
AcDbLine
 10
3.266098
 20
19.630203
 30
0.0
 11
2.906098
 21
19.630203
 31
0.0
  0
SOLID
  5
B4C
330
71B
100
AcDbEntity
  8
DIM
 62
     0
100
AcDbTrace
 10
4.546098
 20
19.690203
 30
0.0
 11
4.546098
 21
19.570203
 31
0.0
 12
4.186098
 22
19.630203
 32
0.0
 13
4.186098
 23
19.630203
 33
0.0
  0
SOLID
  5
B4D
330
71B
100
AcDbEntity
  8
DIM
 62
     0
100
AcDbTrace
 10
3.266098
 20
19.690203
 30
0.0
 11
3.266098
 21
19.570203
 31
0.0
 12
3.626098
 22
19.630203
 32
0.0
 13
3.626098
 23
19.630203
 33
0.0
  0
MTEXT
  5
B4E
330
71B
100
AcDbEntity
  8
DIM
 62
     0
100
AcDbMText
 10
2.382348
 20
19.630203
 30
0.0
 40
0.25
 41
0.0
 71
     5
 72
     1
  1
\A1;0.560
  7
TXT
 73
     1
 44
1.0
  0
POINT
  5
B4F
330
71B
100
AcDbEntity
  8
DEFPOINTS
 62
     0
100
AcDbPoint
 10
4.186098
 20
24.556287
 30
0.0
  0
POINT
  5
B50
330
71B
100
AcDbEntity
  8
DEFPOINTS
 62
     0
100
AcDbPoint
 10
3.626098
 20
21.396287
 30
0.0
  0
POINT
  5
B51
330
71B
100
AcDbEntity
  8
DEFPOINTS
 62
     0
100
AcDbPoint
 10
3.626098
 20
19.630203
 30
0.0
  0
ENDBLK
  5
727
330
71B
100
AcDbEntity
  8
0
100
AcDbBlockEnd
  0
BLOCK
  5
734
330
729
100
AcDbEntity
  8
0
100
AcDbBlockBegin
  2
*D35
 70
     1
 10
0.0
 20
0.0
 30
0.0
  3
*D35
  1

  0
LINE
  5
B52
330
729
100
AcDbEntity
  8
DIM
 62
     0
370
    -2
100
AcDbLine
 10
4.186098
 20
24.430287
 30
0.0
 11
4.186098
 21
19.444203
 31
0.0
  0
LINE
  5
B53
330
729
100
AcDbEntity
  8
DIM
 62
     0
370
    -2
100
AcDbLine
 10
9.186097999999999
 20
24.430287
 30
0.0
 11
9.186097999999999
 21
19.444203
 31
0.0
  0
LINE
  5
B54
330
729
100
AcDbEntity
  8
DIM
 62
     0
370
    -2
100
AcDbLine
 10
4.546098
 20
19.630203
 30
0.0
 11
6.443598
 21
19.630203
 31
0.0
  0
LINE
  5
B55
330
729
100
AcDbEntity
  8
DIM
 62
     0
370
    -2
100
AcDbLine
 10
8.826097999999999
 20
19.630203
 30
0.0
 11
6.928598
 21
19.630203
 31
0.0
  0
SOLID
  5
B56
330
729
100
AcDbEntity
  8
DIM
 62
     0
100
AcDbTrace
 10
4.546098
 20
19.690203
 30
0.0
 11
4.546098
 21
19.570203
 31
0.0
 12
4.186098
 22
19.630203
 32
0.0
 13
4.186098
 23
19.630203
 33
0.0
  0
SOLID
  5
B57
330
729
100
AcDbEntity
  8
DIM
 62
     0
100
AcDbTrace
 10
8.826097999999999
 20
19.690203
 30
0.0
 11
8.826097999999999
 21
19.570203
 31
0.0
 12
9.186097999999999
 22
19.630203
 32
0.0
 13
9.186097999999999
 23
19.630203
 33
0.0
  0
MTEXT
  5
B58
330
729
100
AcDbEntity
  8
DIM
 62
     0
100
AcDbMText
 10
6.686098
 20
19.630203
 30
0.0
 40
0.25
 41
0.0
 71
     5
 72
     1
  1
\A1;F
  7
TXT
 73
     1
 44
1.0
  0
POINT
  5
B59
330
729
100
AcDbEntity
  8
DEFPOINTS
 62
     0
100
AcDbPoint
 10
4.186098
 20
24.556287
 30
0.0
  0
POINT
  5
B5A
330
729
100
AcDbEntity
  8
DEFPOINTS
 62
     0
100
AcDbPoint
 10
9.186097999999999
 20
24.556287
 30
0.0
  0
POINT
  5
B5B
330
729
100
AcDbEntity
  8
DEFPOINTS
 62
     0
100
AcDbPoint
 10
9.186097999999999
 20
19.630203
 30
0.0
  0
ENDBLK
  5
735
330
729
100
AcDbEntity
  8
0
100
AcDbBlockEnd
  0
BLOCK
  5
754
330
749
100
AcDbEntity
  8
0
100
AcDbBlockBegin
  2
*D36
 70
     1
 10
0.0
 20
0.0
 30
0.0
  3
*D36
  1

  0
LINE
  5
B5C
330
749
100
AcDbEntity
  8
DIM
 62
     0
370
    -2
100
AcDbLine
 10
3.626098
 20
21.27028699999999
 30
0.0
 11
3.626098
 21
18.771497
 31
0.0
  0
LINE
  5
B5D
330
749
100
AcDbEntity
  8
DIM
 62
     0
370
    -2
100
AcDbLine
 10
9.746097999999999
 20
21.27028699999999
 30
0.0
 11
9.746097999999999
 21
18.771497
 31
0.0
  0
LINE
  5
B5E
330
749
100
AcDbEntity
  8
DIM
 62
     0
370
    -2
100
AcDbLine
 10
3.986098
 20
18.957497
 30
0.0
 11
6.443598
 21
18.957497
 31
0.0
  0
LINE
  5
B5F
330
749
100
AcDbEntity
  8
DIM
 62
     0
370
    -2
100
AcDbLine
 10
9.386098
 20
18.957497
 30
0.0
 11
6.928598
 21
18.957497
 31
0.0
  0
SOLID
  5
B60
330
749
100
AcDbEntity
  8
DIM
 62
     0
100
AcDbTrace
 10
3.986098
 20
19.01749699999999
 30
0.0
 11
3.986098
 21
18.897497
 31
0.0
 12
3.626098
 22
18.957497
 32
0.0
 13
3.626098
 23
18.957497
 33
0.0
  0
SOLID
  5
B61
330
749
100
AcDbEntity
  8
DIM
 62
     0
100
AcDbTrace
 10
9.386098
 20
19.01749699999999
 30
0.0
 11
9.386098
 21
18.897497
 31
0.0
 12
9.746097999999999
 22
18.957497
 32
0.0
 13
9.746097999999999
 23
18.957497
 33
0.0
  0
MTEXT
  5
B62
330
749
100
AcDbEntity
  8
DIM
 62
     0
100
AcDbMText
 10
6.686098
 20
18.957497
 30
0.0
 40
0.25
 41
0.0
 71
     5
 72
     1
  1
\A1;B
  7
TXT
 73
     1
 44
1.0
  0
POINT
  5
B63
330
749
100
AcDbEntity
  8
DEFPOINTS
 62
     0
100
AcDbPoint
 10
3.626098
 20
21.396287
 30
0.0
  0
POINT
  5
B64
330
749
100
AcDbEntity
  8
DEFPOINTS
 62
     0
100
AcDbPoint
 10
9.746097999999999
 20
21.396287
 30
0.0
  0
POINT
  5
B65
330
749
100
AcDbEntity
  8
DEFPOINTS
 62
     0
100
AcDbPoint
 10
9.746097999999999
 20
18.957497
 30
0.0
  0
ENDBLK
  5
755
330
749
100
AcDbEntity
  8
0
100
AcDbBlockEnd
  0
BLOCK
  5
764
330
759
100
AcDbEntity
  8
0
100
AcDbBlockBegin
  2
*D37
 70
     1
 10
0.0
 20
0.0
 30
0.0
  3
*D37
  1

  0
LINE
  5
B66
330
759
100
AcDbEntity
  8
DIM
 62
     0
370
    -2
100
AcDbLine
 10
3.675098
 20
12.583587
 30
0.0
 11
2.932205
 21
12.583587
 31
0.0
  0
LINE
  5
B67
330
759
100
AcDbEntity
  8
DIM
 62
     0
370
    -2
100
AcDbLine
 10
3.675098
 20
9.533586999999998
 30
0.0
 11
2.932205
 21
9.533586999999998
 31
0.0
  0
LINE
  5
B68
330
759
100
AcDbEntity
  8
DIM
 62
     0
370
    -2
100
AcDbLine
 10
3.118205
 20
12.223587
 30
0.0
 11
3.118205
 21
11.36358699999999
 31
0.0
  0
LINE
  5
B69
330
759
100
AcDbEntity
  8
DIM
 62
     0
370
    -2
100
AcDbLine
 10
3.118205
 20
9.893586999999998
 30
0.0
 11
3.118205
 21
10.753587
 31
0.0
  0
SOLID
  5
B6A
330
759
100
AcDbEntity
  8
DIM
 62
     0
100
AcDbTrace
 10
3.058205
 20
12.223587
 30
0.0
 11
3.178205
 21
12.223587
 31
0.0
 12
3.118205
 22
12.583587
 32
0.0
 13
3.118205
 23
12.583587
 33
0.0
  0
SOLID
  5
B6B
330
759
100
AcDbEntity
  8
DIM
 62
     0
100
AcDbTrace
 10
3.058205
 20
9.893586999999998
 30
0.0
 11
3.178205
 21
9.893586999999998
 31
0.0
 12
3.118205
 22
9.533586999999998
 32
0.0
 13
3.118205
 23
9.533586999999998
 33
0.0
  0
MTEXT
  5
B6C
330
759
100
AcDbEntity
  8
DIM
 62
     0
100
AcDbMText
 10
3.118204999999998
 20
11.05858699999999
 30
0.0
 40
0.25
 41
0.0
 71
     5
 72
     1
  1
\A1;C
  7
TXT
 73
     1
 44
1.0
  0
POINT
  5
B6D
330
759
100
AcDbEntity
  8
DEFPOINTS
 62
     0
100
AcDbPoint
 10
3.801098
 20
12.583587
 30
0.0
  0
POINT
  5
B6E
330
759
100
AcDbEntity
  8
DEFPOINTS
 62
     0
100
AcDbPoint
 10
3.801098
 20
9.533586999999998
 30
0.0
  0
POINT
  5
B6F
330
759
100
AcDbEntity
  8
DEFPOINTS
 62
     0
100
AcDbPoint
 10
3.118205
 20
9.533586999999998
 30
0.0
  0
ENDBLK
  5
765
330
759
100
AcDbEntity
  8
0
100
AcDbBlockEnd
  0
BLOCK
  5
772
330
767
100
AcDbEntity
  8
0
100
AcDbBlockBegin
  2
*D38
 70
     1
 10
0.0
 20
0.0
 30
0.0
  3
*D38
  1

  0
LINE
  5
B70
330
767
100
AcDbEntity
  8
DIM
 62
     0
370
    -2
100
AcDbLine
 10
3.555111
 20
12.708587
 30
0.0
 11
2.074399
 21
12.708587
 31
0.0
  0
LINE
  5
B71
330
767
100
AcDbEntity
  8
DIM
 62
     0
370
    -2
100
AcDbLine
 10
3.555111
 20
9.408586999999998
 30
0.0
 11
2.074399
 21
9.408586999999998
 31
0.0
  0
LINE
  5
B72
330
767
100
AcDbEntity
  8
DIM
 62
     0
370
    -2
100
AcDbLine
 10
2.260399
 20
12.348587
 30
0.0
 11
2.260399
 21
11.36358699999999
 31
0.0
  0
LINE
  5
B73
330
767
100
AcDbEntity
  8
DIM
 62
     0
370
    -2
100
AcDbLine
 10
2.260399
 20
9.768586999999998
 30
0.0
 11
2.260399
 21
10.753587
 31
0.0
  0
SOLID
  5
B74
330
767
100
AcDbEntity
  8
DIM
 62
     0
100
AcDbTrace
 10
2.200399
 20
12.348587
 30
0.0
 11
2.320399
 21
12.348587
 31
0.0
 12
2.260399
 22
12.708587
 32
0.0
 13
2.260399
 23
12.708587
 33
0.0
  0
SOLID
  5
B75
330
767
100
AcDbEntity
  8
DIM
 62
     0
100
AcDbTrace
 10
2.200398999999999
 20
9.768586999999998
 30
0.0
 11
2.320399
 21
9.768586999999998
 31
0.0
 12
2.260399
 22
9.408586999999998
 32
0.0
 13
2.260399
 23
9.408586999999998
 33
0.0
  0
MTEXT
  5
B76
330
767
100
AcDbEntity
  8
DIM
 62
     0
100
AcDbMText
 10
2.260398999999998
 20
11.05858699999999
 30
0.0
 40
0.25
 41
0.0
 71
     5
 72
     1
  1
\A1;A
  7
TXT
 73
     1
 44
1.0
  0
POINT
  5
B77
330
767
100
AcDbEntity
  8
DEFPOINTS
 62
     0
100
AcDbPoint
 10
3.681111
 20
12.708587
 30
0.0
  0
POINT
  5
B78
330
767
100
AcDbEntity
  8
DEFPOINTS
 62
     0
100
AcDbPoint
 10
3.681111
 20
9.408586999999998
 30
0.0
  0
POINT
  5
B79
330
767
100
AcDbEntity
  8
DEFPOINTS
 62
     0
100
AcDbPoint
 10
2.260399
 20
9.408586999999998
 30
0.0
  0
ENDBLK
  5
773
330
767
100
AcDbEntity
  8
0
100
AcDbBlockEnd
  0
BLOCK
  5
81B
330
810
100
AcDbEntity
  8
0
100
AcDbBlockBegin
  2
*D39
 70
     1
 10
0.0
 20
0.0
 30
0.0
  3
*D39
  1

  0
LINE
  5
B7A
330
810
100
AcDbEntity
  8
DIM
 62
     0
370
    -2
100
AcDbLine
 10
9.697752999999998
 20
22.28928699999999
 30
0.0
 11
10.5174
 21
22.28928699999999
 31
0.0
  0
LINE
  5
B7B
330
810
100
AcDbEntity
  8
DIM
 62
     0
370
    -2
100
AcDbLine
 10
9.697752999999998
 20
22.36828699999999
 30
0.0
 11
10.5174
 21
22.36828699999999
 31
0.0
  0
LINE
  5
B7C
330
810
100
AcDbEntity
  8
DIM
 62
     0
370
    -2
100
AcDbLine
 10
10.3314
 20
21.92928699999999
 30
0.0
 11
10.3314
 21
21.56928699999999
 31
0.0
  0
LINE
  5
B7D
330
810
100
AcDbEntity
  8
DIM
 62
     0
370
    -2
100
AcDbLine
 10
10.3314
 20
22.72828699999999
 30
0.0
 11
10.3314
 21
23.08828699999999
 31
0.0
  0
LINE
  5
B7E
330
810
100
AcDbEntity
  8
DIM
 62
     0
370
    -2
100
AcDbLine
 10
10.3314
 20
23.08828699999999
 30
0.0
 11
10.69139999999999
 21
23.08828699999999
 31
0.0
  0
SOLID
  5
B7F
330
810
100
AcDbEntity
  8
DIM
 62
     0
100
AcDbTrace
 10
10.27139999999999
 20
21.92928699999999
 30
0.0
 11
10.3914
 21
21.92928699999999
 31
0.0
 12
10.3314
 22
22.28928699999999
 32
0.0
 13
10.3314
 23
22.28928699999999
 33
0.0
  0
SOLID
  5
B80
330
810
100
AcDbEntity
  8
DIM
 62
     0
100
AcDbTrace
 10
10.27139999999999
 20
22.72828699999999
 30
0.0
 11
10.3914
 21
22.72828699999999
 31
0.0
 12
10.3314
 22
22.36828699999999
 32
0.0
 13
10.3314
 23
22.36828699999999
 33
0.0
  0
MTEXT
  5
B81
330
810
100
AcDbEntity
  8
DIM
 62
     0
100
AcDbMText
 10
11.21514999999999
 20
23.088287
 30
0.0
 40
0.25
 41
0.0
 71
     5
 72
     1
  1
\A1;0.079
  7
TXT
 73
     1
 44
1.0
  0
POINT
  5
B82
330
810
100
AcDbEntity
  8
DEFPOINTS
 62
     0
100
AcDbPoint
 10
9.571752999999999
 20
22.28928699999999
 30
0.0
  0
POINT
  5
B83
330
810
100
AcDbEntity
  8
DEFPOINTS
 62
     0
100
AcDbPoint
 10
9.571752999999999
 20
22.36828699999999
 30
0.0
  0
POINT
  5
B84
330
810
100
AcDbEntity
  8
DEFPOINTS
 62
     0
100
AcDbPoint
 10
10.3314
 20
22.36828699999999
 30
0.0
  0
ENDBLK
  5
81C
330
810
100
AcDbEntity
  8
0
100
AcDbBlockEnd
  0
BLOCK
  5
829
330
81E
100
AcDbEntity
  8
0
100
AcDbBlockBegin
  2
*D40
 70
     1
 10
0.0
 20
0.0
 30
0.0
  3
*D40
  1

  0
LINE
  5
9A3
330
81E
100
AcDbEntity
  8
DIM
 62
     0
370
    -2
100
AcDbLine
 10
9.697752999999998
 20
22.145287
 30
0.0
 11
11.30554999999999
 21
22.145287
 31
0.0
  0
LINE
  5
9A4
330
81E
100
AcDbEntity
  8
DIM
 62
     0
370
    -2
100
AcDbLine
 10
9.697752999999998
 20
21.68928699999999
 30
0.0
 11
11.30554999999999
 21
21.68928699999999
 31
0.0
  0
LINE
  5
9A5
330
81E
100
AcDbEntity
  8
DIM
 62
     0
370
    -2
100
AcDbLine
 10
11.11955
 20
22.50528699999999
 30
0.0
 11
11.11955
 21
22.86528699999999
 31
0.0
  0
LINE
  5
9A6
330
81E
100
AcDbEntity
  8
DIM
 62
     0
370
    -2
100
AcDbLine
 10
11.11955
 20
21.329287
 30
0.0
 11
11.11955
 21
20.969287
 31
0.0
  0
SOLID
  5
9A7
330
81E
100
AcDbEntity
  8
DIM
 62
     0
100
AcDbTrace
 10
11.05955
 20
22.50528699999999
 30
0.0
 11
11.17955
 21
22.50528699999999
 31
0.0
 12
11.11955
 22
22.145287
 32
0.0
 13
11.11955
 23
22.145287
 33
0.0
  0
SOLID
  5
9A8
330
81E
100
AcDbEntity
  8
DIM
 62
     0
100
AcDbTrace
 10
11.05955
 20
21.329287
 30
0.0
 11
11.17955
 21
21.329287
 31
0.0
 12
11.11955
 22
21.68928699999999
 32
0.0
 13
11.11955
 23
21.68928699999999
 33
0.0
  0
MTEXT
  5
9A9
330
81E
100
AcDbEntity
  8
DIM
 62
     0
100
AcDbMText
 10
11.11954999999999
 20
21.917287
 30
0.0
 40
0.25
 41
0.0
 71
     5
 72
     1
  1
\A1;0.456
  7
TXT
 73
     1
 44
1.0
  0
POINT
  5
9AA
330
81E
100
AcDbEntity
  8
DEFPOINTS
 62
     0
100
AcDbPoint
 10
9.571752999999999
 20
22.145287
 30
0.0
  0
POINT
  5
9AB
330
81E
100
AcDbEntity
  8
DEFPOINTS
 62
     0
100
AcDbPoint
 10
9.571752999999999
 20
21.68928699999999
 30
0.0
  0
POINT
  5
9AC
330
81E
100
AcDbEntity
  8
DEFPOINTS
 62
     0
100
AcDbPoint
 10
11.11955
 20
21.68928699999999
 30
0.0
  0
ENDBLK
  5
82A
330
81E
100
AcDbEntity
  8
0
100
AcDbBlockEnd
  0
BLOCK
  5
837
330
82C
100
AcDbEntity
  8
0
100
AcDbBlockBegin
  2
*D41
 70
     1
 10
0.0
 20
0.0
 30
0.0
  3
*D41
  1

  0
LINE
  5
9AD
330
82C
100
AcDbEntity
  8
DIM
 62
     0
370
    -2
100
AcDbLine
 10
9.697752999999998
 20
22.28928699999999
 30
0.0
 11
12.153651
 21
22.28928699999999
 31
0.0
  0
LINE
  5
9AE
330
82C
100
AcDbEntity
  8
DIM
 62
     0
370
    -2
100
AcDbLine
 10
9.697752999999998
 20
21.68928699999999
 30
0.0
 11
12.153651
 21
21.68928699999999
 31
0.0
  0
LINE
  5
9AF
330
82C
100
AcDbEntity
  8
DIM
 62
     0
370
    -2
100
AcDbLine
 10
11.967651
 20
22.649287
 30
0.0
 11
11.967651
 21
23.00928699999999
 31
0.0
  0
LINE
  5
9B0
330
82C
100
AcDbEntity
  8
DIM
 62
     0
370
    -2
100
AcDbLine
 10
11.967651
 20
21.329287
 30
0.0
 11
11.967651
 21
20.969287
 31
0.0
  0
SOLID
  5
9B1
330
82C
100
AcDbEntity
  8
DIM
 62
     0
100
AcDbTrace
 10
11.90765099999999
 20
22.649287
 30
0.0
 11
12.027651
 21
22.649287
 31
0.0
 12
11.967651
 22
22.28928699999999
 32
0.0
 13
11.967651
 23
22.28928699999999
 33
0.0
  0
SOLID
  5
9B2
330
82C
100
AcDbEntity
  8
DIM
 62
     0
100
AcDbTrace
 10
11.90765099999999
 20
21.329287
 30
0.0
 11
12.027651
 21
21.329287
 31
0.0
 12
11.967651
 22
21.68928699999999
 32
0.0
 13
11.967651
 23
21.68928699999999
 33
0.0
  0
MTEXT
  5
9B3
330
82C
100
AcDbEntity
  8
DIM
 62
     0
100
AcDbMText
 10
11.96765099999999
 20
21.989287
 30
0.0
 40
0.25
 41
0.0
 71
     5
 72
     1
  1
\A1;0.600
  7
TXT
 73
     1
 44
1.0
  0
POINT
  5
9B4
330
82C
100
AcDbEntity
  8
DEFPOINTS
 62
     0
100
AcDbPoint
 10
9.571752999999999
 20
22.28928699999999
 30
0.0
  0
POINT
  5
9B5
330
82C
100
AcDbEntity
  8
DEFPOINTS
 62
     0
100
AcDbPoint
 10
9.571752999999999
 20
21.68928699999999
 30
0.0
  0
POINT
  5
9B6
330
82C
100
AcDbEntity
  8
DEFPOINTS
 62
     0
100
AcDbPoint
 10
11.967651
 20
21.68928699999999
 30
0.0
  0
ENDBLK
  5
838
330
82C
100
AcDbEntity
  8
0
100
AcDbBlockEnd
  0
BLOCK
  5
845
330
83A
100
AcDbEntity
  8
0
100
AcDbBlockBegin
  2
*D42
 70
     1
 10
0.0
 20
0.0
 30
0.0
  3
*D42
  1

  0
LINE
  5
C84
330
83A
100
AcDbEntity
  8
DIM
 62
     0
370
    -2
100
AcDbLine
 10
3.675098
 20
27.42328699999999
 30
0.0
 11
1.282967801211319
 21
27.42328699999999
 31
0.0
  0
LINE
  5
C85
330
83A
100
AcDbEntity
  8
DIM
 62
     0
370
    -2
100
AcDbLine
 10
3.675098
 20
21.68928699999999
 30
0.0
 11
1.282967801211317
 21
21.68928699999999
 31
0.0
  0
LINE
  5
C86
330
83A
100
AcDbEntity
  8
DIM
 62
     0
370
    -2
100
AcDbLine
 10
1.468967801211318
 20
27.063287
 30
0.0
 11
1.468967801211318
 21
24.312513
 31
0.0
  0
LINE
  5
C87
330
83A
100
AcDbEntity
  8
DIM
 62
     0
370
    -2
100
AcDbLine
 10
1.468967801211317
 20
22.04928699999999
 30
0.0
 11
1.468967801211318
 21
23.702513
 31
0.0
  0
SOLID
  5
C88
330
83A
100
AcDbEntity
  8
DIM
 62
     0
100
AcDbTrace
 10
1.408967801211318
 20
27.063287
 30
0.0
 11
1.528967801211319
 21
27.063287
 31
0.0
 12
1.468967801211318
 22
27.42328699999999
 32
0.0
 13
1.468967801211318
 23
27.42328699999999
 33
0.0
  0
SOLID
  5
C89
330
83A
100
AcDbEntity
  8
DIM
 62
     0
100
AcDbTrace
 10
1.408967801211317
 20
22.04928699999999
 30
0.0
 11
1.528967801211317
 21
22.04928699999999
 31
0.0
 12
1.468967801211317
 22
21.68928699999999
 32
0.0
 13
1.468967801211317
 23
21.68928699999999
 33
0.0
  0
MTEXT
  5
C8A
330
83A
100
AcDbEntity
  8
DIM
 62
     0
100
AcDbMText
 10
1.468967801211314
 20
24.007513
 30
0.0
 40
0.25
 41
0.0
 71
     5
 72
     1
  1
\A1;5.734
  7
TXT
 73
     1
 44
1.0
  0
POINT
  5
C8B
330
83A
100
AcDbEntity
  8
DEFPOINTS
 62
     0
100
AcDbPoint
 10
3.801098
 20
27.42328699999999
 30
0.0
  0
POINT
  5
C8C
330
83A
100
AcDbEntity
  8
DEFPOINTS
 62
     0
100
AcDbPoint
 10
3.801098
 20
21.68928699999999
 30
0.0
  0
POINT
  5
C8D
330
83A
100
AcDbEntity
  8
DEFPOINTS
 62
     0
100
AcDbPoint
 10
1.468967801211317
 20
21.68928699999999
 30
0.0
  0
ENDBLK
  5
846
330
83A
100
AcDbEntity
  8
0
100
AcDbBlockEnd
  0
BLOCK
  5
853
330
848
100
AcDbEntity
  8
0
100
AcDbBlockBegin
  2
*D43
 70
     1
 10
0.0
 20
0.0
 30
0.0
  3
*D43
  1

  0
LINE
  5
CA2
330
848
100
AcDbEntity
  8
DIM
 62
     0
370
    -2
100
AcDbLine
 10
3.722098
 20
21.68928699999999
 30
0.0
 11
1.282967801211314
 21
21.68928699999999
 31
0.0
  0
LINE
  5
CA3
330
848
100
AcDbEntity
  8
DIM
 62
     0
370
    -2
100
AcDbLine
 10
3.500098
 20
21.396287
 30
0.0
 11
1.282967801211314
 21
21.396287
 31
0.0
  0
LINE
  5
CA4
330
848
100
AcDbEntity
  8
DIM
 62
     0
370
    -2
100
AcDbLine
 10
1.468967801211314
 20
22.04928699999999
 30
0.0
 11
1.468967801211314
 21
22.40928699999999
 31
0.0
  0
LINE
  5
CA5
330
848
100
AcDbEntity
  8
DIM
 62
     0
370
    -2
100
AcDbLine
 10
1.468967801211314
 20
21.036287
 30
0.0
 11
1.468967801211314
 21
20.676287
 31
0.0
  0
LINE
  5
CA6
330
848
100
AcDbEntity
  8
DIM
 62
     0
370
    -2
100
AcDbLine
 10
1.468967801211314
 20
20.676287
 30
0.0
 11
1.108967801211314
 21
20.676287
 31
0.0
  0
SOLID
  5
CA7
330
848
100
AcDbEntity
  8
DIM
 62
     0
100
AcDbTrace
 10
1.408967801211314
 20
22.04928699999999
 30
0.0
 11
1.528967801211314
 21
22.04928699999999
 31
0.0
 12
1.468967801211314
 22
21.68928699999999
 32
0.0
 13
1.468967801211314
 23
21.68928699999999
 33
0.0
  0
SOLID
  5
CA8
330
848
100
AcDbEntity
  8
DIM
 62
     0
100
AcDbTrace
 10
1.408967801211314
 20
21.036287
 30
0.0
 11
1.528967801211314
 21
21.036287
 31
0.0
 12
1.468967801211314
 22
21.396287
 32
0.0
 13
1.468967801211314
 23
21.396287
 33
0.0
  0
MTEXT
  5
CA9
330
848
100
AcDbEntity
  8
DIM
 62
     0
100
AcDbMText
 10
0.5695928012113112
 20
20.676287
 30
0.0
 40
0.25
 41
0.0
 71
     5
 72
     1
  1
\A1;0.293
  7
TXT
 73
     1
 44
1.0
  0
POINT
  5
CAA
330
848
100
AcDbEntity
  8
DEFPOINTS
 62
     0
100
AcDbPoint
 10
3.848098
 20
21.68928699999999
 30
0.0
  0
POINT
  5
CAB
330
848
100
AcDbEntity
  8
DEFPOINTS
 62
     0
100
AcDbPoint
 10
3.626098
 20
21.396287
 30
0.0
  0
POINT
  5
CAC
330
848
100
AcDbEntity
  8
DEFPOINTS
 62
     0
100
AcDbPoint
 10
1.468967801211314
 20
21.396287
 30
0.0
  0
ENDBLK
  5
854
330
848
100
AcDbEntity
  8
0
100
AcDbBlockEnd
  0
BLOCK
  5
861
330
856
100
AcDbEntity
  8
0
100
AcDbBlockBegin
  2
*D44
 70
     1
 10
0.0
 20
0.0
 30
0.0
  3
*D44
  1

  0
LINE
  5
B9A
330
856
100
AcDbEntity
  8
DIM
 62
     0
370
    -2
100
AcDbLine
 10
3.500098
 20
27.716287
 30
0.0
 11
0.5587040000000045
 21
27.716287
 31
0.0
  0
LINE
  5
B9B
330
856
100
AcDbEntity
  8
DIM
 62
     0
370
    -2
100
AcDbLine
 10
3.500098
 20
21.396287
 30
0.0
 11
0.5587040000000036
 21
21.396287
 31
0.0
  0
LINE
  5
B9C
330
856
100
AcDbEntity
  8
DIM
 62
     0
370
    -2
100
AcDbLine
 10
0.7447040000000046
 20
27.356287
 30
0.0
 11
0.7447040000000041
 21
25.016069
 31
0.0
  0
LINE
  5
B9D
330
856
100
AcDbEntity
  8
DIM
 62
     0
370
    -2
100
AcDbLine
 10
0.7447040000000034
 20
21.756287
 30
0.0
 11
0.744704000000004
 21
24.406069
 31
0.0
  0
SOLID
  5
B9E
330
856
100
AcDbEntity
  8
DIM
 62
     0
100
AcDbTrace
 10
0.6847040000000045
 20
27.356287
 30
0.0
 11
0.8047040000000047
 21
27.356287
 31
0.0
 12
0.7447040000000046
 22
27.716287
 32
0.0
 13
0.7447040000000046
 23
27.716287
 33
0.0
  0
SOLID
  5
B9F
330
856
100
AcDbEntity
  8
DIM
 62
     0
100
AcDbTrace
 10
0.6847040000000034
 20
21.756287
 30
0.0
 11
0.8047040000000034
 21
21.756287
 31
0.0
 12
0.7447040000000033
 22
21.396287
 32
0.0
 13
0.7447040000000033
 23
21.396287
 33
0.0
  0
MTEXT
  5
BA0
330
856
100
AcDbEntity
  8
DIM
 62
     0
100
AcDbMText
 10
0.7447040000000001
 20
24.711069
 30
0.0
 40
0.25
 41
0.0
 71
     5
 72
     1
  1
\A1;6.320
  7
TXT
 73
     1
 44
1.0
  0
POINT
  5
BA1
330
856
100
AcDbEntity
  8
DEFPOINTS
 62
     0
100
AcDbPoint
 10
3.626098
 20
27.716287
 30
0.0
  0
POINT
  5
BA2
330
856
100
AcDbEntity
  8
DEFPOINTS
 62
     0
100
AcDbPoint
 10
3.626098
 20
21.396287
 30
0.0
  0
POINT
  5
BA3
330
856
100
AcDbEntity
  8
DEFPOINTS
 62
     0
100
AcDbPoint
 10
0.7447040000000033
 20
21.396287
 30
0.0
  0
ENDBLK
  5
862
330
856
100
AcDbEntity
  8
0
100
AcDbBlockEnd
  0
BLOCK
  5
86F
330
864
100
AcDbEntity
  8
0
100
AcDbBlockBegin
  2
*D45
 70
     1
 10
0.0
 20
0.0
 30
0.0
  3
*D45
  1

  0
LINE
  5
BA4
330
864
100
AcDbEntity
  8
DIM
 62
     0
370
    -2
100
AcDbLine
 10
3.675098
 20
15.278768
 30
0.0
 11
2.932205
 21
15.278768
 31
0.0
  0
LINE
  5
BA5
330
864
100
AcDbEntity
  8
DIM
 62
     0
370
    -2
100
AcDbLine
 10
3.555111
 20
15.153768
 30
0.0
 11
2.932205
 21
15.153768
 31
0.0
  0
LINE
  5
BA6
330
864
100
AcDbEntity
  8
DIM
 62
     0
370
    -2
100
AcDbLine
 10
3.118205
 20
15.638768
 30
0.0
 11
3.118205
 21
15.998768
 31
0.0
  0
LINE
  5
BA7
330
864
100
AcDbEntity
  8
DIM
 62
     0
370
    -2
100
AcDbLine
 10
3.118204999999999
 20
14.793768
 30
0.0
 11
3.118204999999999
 21
14.433768
 31
0.0
  0
LINE
  5
BA8
330
864
100
AcDbEntity
  8
DIM
 62
     0
370
    -2
100
AcDbLine
 10
3.118204999999999
 20
14.433768
 30
0.0
 11
2.758204999999999
 21
14.433768
 31
0.0
  0
SOLID
  5
BA9
330
864
100
AcDbEntity
  8
DIM
 62
     0
100
AcDbTrace
 10
3.058205
 20
15.638768
 30
0.0
 11
3.178205
 21
15.638768
 31
0.0
 12
3.118205
 22
15.278768
 32
0.0
 13
3.118205
 23
15.278768
 33
0.0
  0
SOLID
  5
BAA
330
864
100
AcDbEntity
  8
DIM
 62
     0
100
AcDbTrace
 10
3.058204999999999
 20
14.793768
 30
0.0
 11
3.178204999999999
 21
14.793768
 31
0.0
 12
3.118205
 22
15.153768
 32
0.0
 13
3.118205
 23
15.153768
 33
0.0
  0
MTEXT
  5
BAB
330
864
100
AcDbEntity
  8
DIM
 62
     0
100
AcDbMText
 10
2.250079999999997
 20
14.433768
 30
0.0
 40
0.25
 41
0.0
 71
     5
 72
     1
  1
\A1;0.125
  7
TXT
 73
     1
 44
1.0
  0
POINT
  5
BAC
330
864
100
AcDbEntity
  8
DEFPOINTS
 62
     0
100
AcDbPoint
 10
3.801098
 20
15.278768
 30
0.0
  0
POINT
  5
BAD
330
864
100
AcDbEntity
  8
DEFPOINTS
 62
     0
100
AcDbPoint
 10
3.681111
 20
15.153768
 30
0.0
  0
POINT
  5
BAE
330
864
100
AcDbEntity
  8
DEFPOINTS
 62
     0
100
AcDbPoint
 10
3.118205
 20
15.153768
 30
0.0
  0
ENDBLK
  5
870
330
864
100
AcDbEntity
  8
0
100
AcDbBlockEnd
  0
BLOCK
  5
BE7
330
BDC
100
AcDbEntity
  8
0
100
AcDbBlockBegin
  2
*D46
 70
     1
 10
0.0
 20
0.0
 30
0.0
  3
*D46
  1

  0
LINE
  5
C20
330
BDC
100
AcDbEntity
  8
DIM
 62
     0
370
    -2
100
AcDbLine
 10
3.801098
 20
25.65391306802041
 30
0.0
 11
3.801098
 21
26.02191707051193
 31
0.0
  0
LINE
  5
C21
330
BDC
100
AcDbEntity
  8
DIM
 62
     0
370
    -2
100
AcDbLine
 10
3.993098
 20
25.429787
 30
0.0
 11
3.993098
 21
26.02191707051193
 31
0.0
  0
LINE
  5
C22
330
BDC
100
AcDbEntity
  8
DIM
 62
     0
370
    -2
100
AcDbLine
 10
3.441098
 20
25.83591707051194
 30
0.0
 11
3.081098
 21
25.83591707051194
 31
0.0
  0
LINE
  5
C23
330
BDC
100
AcDbEntity
  8
DIM
 62
     0
370
    -2
100
AcDbLine
 10
4.353098
 20
25.83591707051194
 30
0.0
 11
4.713098
 21
25.83591707051194
 31
0.0
  0
SOLID
  5
C24
330
BDC
100
AcDbEntity
  8
DIM
 62
     0
100
AcDbTrace
 10
3.441098
 20
25.89591707051194
 30
0.0
 11
3.441098
 21
25.77591707051194
 31
0.0
 12
3.801098
 22
25.83591707051194
 32
0.0
 13
3.801098
 23
25.83591707051194
 33
0.0
  0
SOLID
  5
C25
330
BDC
100
AcDbEntity
  8
DIM
 62
     0
100
AcDbTrace
 10
4.353098
 20
25.89591707051194
 30
0.0
 11
4.353098
 21
25.77591707051194
 31
0.0
 12
3.993098
 22
25.83591707051194
 32
0.0
 13
3.993098
 23
25.83591707051194
 33
0.0
  0
MTEXT
  5
C26
330
BDC
100
AcDbEntity
  8
DIM
 62
     0
100
AcDbMText
 10
5.221223
 20
25.83591707051194
 30
0.0
 40
0.25
 41
0.0
 71
     5
 72
     1
  1
\A1;0.192
  7
TXT
 73
     1
 44
1.0
  0
POINT
  5
C27
330
BDC
100
AcDbEntity
  8
DEFPOINTS
 62
     0
100
AcDbPoint
 10
3.801098
 20
25.52791306802041
 30
0.0
  0
POINT
  5
C28
330
BDC
100
AcDbEntity
  8
DEFPOINTS
 62
     0
100
AcDbPoint
 10
3.993098
 20
25.30378699999999
 30
0.0
  0
POINT
  5
C29
330
BDC
100
AcDbEntity
  8
DEFPOINTS
 62
     0
100
AcDbPoint
 10
3.993098
 20
25.83591707051194
 30
0.0
  0
ENDBLK
  5
BE8
330
BDC
100
AcDbEntity
  8
0
100
AcDbBlockEnd
  0
BLOCK
  5
C00
330
BF5
100
AcDbEntity
  8
0
100
AcDbBlockBegin
  2
*D47
 70
     1
 10
0.0
 20
0.0
 30
0.0
  3
*D47
  1

  0
LINE
  5
C02
330
BF5
100
AcDbEntity
  8
DIM
 62
     0
370
    -2
100
AcDbLine
 10
3.801098
 20
22.559287
 30
0.0
 11
3.801098
 21
23.19722578267914
 31
0.0
  0
LINE
  5
C03
330
BF5
100
AcDbEntity
  8
DIM
 62
     0
370
    -2
100
AcDbLine
 10
3.848098
 20
22.559287
 30
0.0
 11
3.848098
 21
23.19722578267914
 31
0.0
  0
LINE
  5
C04
330
BF5
100
AcDbEntity
  8
DIM
 62
     0
370
    -2
100
AcDbLine
 10
3.441098
 20
23.01122578267914
 30
0.0
 11
3.081098
 21
23.01122578267914
 31
0.0
  0
LINE
  5
C05
330
BF5
100
AcDbEntity
  8
DIM
 62
     0
370
    -2
100
AcDbLine
 10
4.208098
 20
23.01122578267914
 30
0.0
 11
4.568098
 21
23.01122578267914
 31
0.0
  0
SOLID
  5
C06
330
BF5
100
AcDbEntity
  8
DIM
 62
     0
100
AcDbTrace
 10
3.441098
 20
23.07122578267914
 30
0.0
 11
3.441098
 21
22.95122578267914
 31
0.0
 12
3.801098
 22
23.01122578267914
 32
0.0
 13
3.801098
 23
23.01122578267914
 33
0.0
  0
SOLID
  5
C07
330
BF5
100
AcDbEntity
  8
DIM
 62
     0
100
AcDbTrace
 10
4.208098
 20
23.07122578267914
 30
0.0
 11
4.208098
 21
22.95122578267914
 31
0.0
 12
3.848098
 22
23.01122578267914
 32
0.0
 13
3.848098
 23
23.01122578267914
 33
0.0
  0
MTEXT
  5
C08
330
BF5
100
AcDbEntity
  8
DIM
 62
     0
100
AcDbMText
 10
5.091848
 20
23.01122578267914
 30
0.0
 40
0.25
 41
0.0
 71
     5
 72
     1
  1
\A1;0.047
  7
TXT
 73
     1
 44
1.0
  0
POINT
  5
C09
330
BF5
100
AcDbEntity
  8
DEFPOINTS
 62
     0
100
AcDbPoint
 10
3.801098
 20
22.433287
 30
0.0
  0
POINT
  5
C0A
330
BF5
100
AcDbEntity
  8
DEFPOINTS
 62
     0
100
AcDbPoint
 10
3.848098
 20
22.433287
 30
0.0
  0
POINT
  5
C0B
330
BF5
100
AcDbEntity
  8
DEFPOINTS
 62
     0
100
AcDbPoint
 10
3.848098
 20
23.01122578267914
 30
0.0
  0
ENDBLK
  5
C01
330
BF5
100
AcDbEntity
  8
0
100
AcDbBlockEnd
  0
ENDSEC
  0
SECTION
  2
ENTITIES
  0
INSERT
  5
34F
330
1E
100
AcDbEntity
  8
0
100
AcDbBlockReference
  2
ACAD
 10
0.0
 20
0.0
 30
0.0
  0
LINE
  5
350
330
1E
100
AcDbEntity
  8
OBJECT
100
AcDbLine
 10
9.746097999999999
 20
21.396287
 30
0.0
 11
9.746097999999999
 21
27.716287
 31
0.0
  0
LINE
  5
351
330
1E
100
AcDbEntity
  8
OBJECT
100
AcDbLine
 10
3.626098
 20
27.716287
 30
0.0
 11
3.626098
 21
21.396287
 31
0.0
  0
LINE
  5
352
330
1E
100
AcDbEntity
  8
OBJECT
100
AcDbLine
 10
3.626752999999999
 20
16.42876799999999
 30
0.0
 11
3.681111
 21
17.673768
 31
0.0
  0
LINE
  5
353
330
1E
100
AcDbEntity
  8
OBJECT
100
AcDbLine
 10
9.605584
 20
17.58376799999999
 30
0.0
 11
7.926819999999999
 21
17.58376799999999
 31
0.0
  0
CIRCLE
  5
354
330
1E
100
AcDbEntity
  8
OBJECT
100
AcDbCircle
 10
4.046098
 20
24.556287
 30
0.0
 40
0.14
  0
CIRCLE
  5
355
330
1E
100
AcDbEntity
  8
OBJECT
100
AcDbCircle
 10
4.506098
 20
22.556287
 30
0.0
 40
0.1405
  0
CIRCLE
  5
356
330
1E
100
AcDbEntity
  8
OBJECT
100
AcDbCircle
 10
4.506098
 20
22.556287
 30
0.0
 40
0.0455
  0
CIRCLE
  5
357
330
1E
100
AcDbEntity
  8
OBJECT
100
AcDbCircle
 10
4.506098
 20
26.556287
 30
0.0
 40
0.0455
  0
CIRCLE
  5
358
330
1E
100
AcDbEntity
  8
OBJECT
100
AcDbCircle
 10
4.506098
 20
26.556287
 30
0.0
 40
0.1405
  0
CIRCLE
  5
359
330
1E
100
AcDbEntity
  8
HIDDEN
100
AcDbCircle
 10
8.866097999999999
 20
26.556287
 30
0.0
 40
0.1405
  0
CIRCLE
  5
35A
330
1E
100
AcDbEntity
  8
HIDDEN
100
AcDbCircle
 10
8.866097999999999
 20
26.556287
 30
0.0
 40
0.0455
  0
CIRCLE
  5
35B
330
1E
100
AcDbEntity
  8
HIDDEN
100
AcDbCircle
 10
8.866097999999999
 20
22.556287
 30
0.0
 40
0.0455
  0
CIRCLE
  5
35C
330
1E
100
AcDbEntity
  8
HIDDEN
100
AcDbCircle
 10
8.866097999999999
 20
22.556287
 30
0.0
 40
0.1405
  0
CIRCLE
  5
35D
330
1E
100
AcDbEntity
  8
HIDDEN
100
AcDbCircle
 10
9.326097999999999
 20
24.556287
 30
0.0
 40
0.14
  0
LINE
  5
35E
330
1E
100
AcDbEntity
  8
OBJECT
100
AcDbLine
 10
9.524753
 20
17.53376799999999
 30
0.0
 11
7.911566999999999
 21
17.53376799999999
 31
0.0
  0
LINE
  5
35F
330
1E
100
AcDbEntity
  8
OBJECT
100
AcDbLine
 10
4.646598
 20
17.398768
 30
0.0
 11
4.365598
 21
17.398768
 31
0.0
  0
LINE
  5
360
330
1E
100
AcDbEntity
  8
OBJECT
100
AcDbLine
 10
4.365598
 20
17.54876799999999
 30
0.0
 11
4.365598
 21
17.398768
 31
0.0
  0
LINE
  5
361
330
1E
100
AcDbEntity
  8
OBJECT
100
AcDbLine
 10
4.646598
 20
17.54876799999999
 30
0.0
 11
4.646598
 21
17.398768
 31
0.0
  0
LINE
  5
362
330
1E
100
AcDbEntity
  8
OBJECT
100
AcDbLine
 10
4.186098
 20
17.54876799999999
 30
0.0
 11
4.186098
 21
16.413768
 31
0.0
  0
LINE
  5
363
330
1E
100
AcDbEntity
  8
OBJECT
100
AcDbLine
 10
9.746097999999999
 20
16.42876799999999
 30
0.0
 11
9.691739999999999
 21
17.673768
 31
0.0
  0
LINE
  5
364
330
1E
100
AcDbEntity
  8
OBJECT
100
AcDbLine
 10
13.700595
 20
21.396287
 30
0.0
 11
12.45559499999999
 21
21.450644
 31
0.0
  0
LINE
  5
365
330
1E
100
AcDbEntity
  8
OBJECT
100
AcDbLine
 10
12.730595
 20
22.41578699999999
 30
0.0
 11
12.730595
 21
22.696787
 31
0.0
  0
LINE
  5
366
330
1E
100
AcDbEntity
  8
OBJECT
100
AcDbLine
 10
12.58059499999999
 20
22.696787
 30
0.0
 11
12.730595
 21
22.696787
 31
0.0
  0
LINE
  5
367
330
1E
100
AcDbEntity
  8
OBJECT
100
AcDbLine
 10
12.730595
 20
24.69628699999999
 30
0.0
 11
13.715595
 21
24.69628699999999
 31
0.0
  0
LINE
  5
368
330
1E
100
AcDbEntity
  8
OBJECT
100
AcDbLine
 10
12.730595
 20
24.416287
 30
0.0
 11
13.715595
 21
24.416287
 31
0.0
  0
LINE
  5
369
330
1E
100
AcDbEntity
  8
OBJECT
100
AcDbLine
 10
12.768595
 20
24.788787
 30
0.0
 11
13.268595
 21
24.788787
 31
0.0
  0
LINE
  5
36A
330
1E
100
AcDbEntity
  8
OBJECT
100
AcDbLine
 10
12.58059499999999
 20
25.30378699999999
 30
0.0
 11
13.268595
 21
25.30378699999999
 31
0.0
  0
LINE
  5
36B
330
1E
100
AcDbEntity
  8
OBJECT
100
AcDbLine
 10
12.768595
 20
24.94778699999999
 30
0.0
 11
13.268595
 21
24.94778699999999
 31
0.0
  0
LINE
  5
36C
330
1E
100
AcDbEntity
  8
OBJECT
100
AcDbLine
 10
12.768595
 20
25.144787
 30
0.0
 11
13.268595
 21
25.144787
 31
0.0
  0
LINE
  5
36D
330
1E
100
AcDbEntity
  8
OBJECT
100
AcDbLine
 10
12.565595
 20
21.58972299999999
 30
0.0
 11
12.565595
 21
21.68928699999999
 31
0.0
  0
LINE
  5
36E
330
1E
100
AcDbEntity
  8
OBJECT
100
AcDbLine
 10
12.58059499999999
 20
21.76928699999999
 30
0.0
 11
13.700595
 21
21.76928699999999
 31
0.0
  0
LINE
  5
36F
330
1E
100
AcDbEntity
  8
OBJECT
100
AcDbLine
 10
12.565595
 20
21.68928699999999
 30
0.0
 11
14.865595
 21
21.68928699999999
 31
0.0
  0
LINE
  5
370
330
1E
100
AcDbEntity
  8
OBJECT
100
AcDbLine
 10
12.565595
 20
21.58972299999999
 30
0.0
 11
14.865595
 21
21.58972299999999
 31
0.0
  0
LINE
  5
371
330
1E
100
AcDbEntity
  8
OBJECT
100
AcDbLine
 10
12.627595
 20
21.68928699999999
 30
0.0
 11
12.627595
 21
21.76928699999999
 31
0.0
  0
LINE
  5
372
330
1E
100
AcDbEntity
  8
OBJECT
100
AcDbLine
 10
12.58059499999999
 20
21.76928699999999
 30
0.0
 11
12.58059499999999
 21
24.523287
 31
0.0
  0
LINE
  5
373
330
1E
100
AcDbEntity
  8
HIDDEN
100
AcDbLine
 10
12.58059499999999
 20
26.415787
 30
0.0
 11
12.730595
 21
26.415787
 31
0.0
  0
LINE
  5
374
330
1E
100
AcDbEntity
  8
HIDDEN
100
AcDbLine
 10
12.730595
 20
26.696787
 30
0.0
 11
12.730595
 21
26.415787
 31
0.0
  0
LINE
  5
375
330
1E
100
AcDbEntity
  8
OBJECT
100
AcDbLine
 10
12.730595
 20
22.41578699999999
 30
0.0
 11
12.58059499999999
 21
22.41578699999999
 31
0.0
  0
LINE
  5
376
330
1E
100
AcDbEntity
  8
HIDDEN
100
AcDbLine
 10
12.730595
 20
26.696787
 30
0.0
 11
12.58059499999999
 21
26.696787
 31
0.0
  0
LINE
  5
377
330
1E
100
AcDbEntity
  8
HIDDEN
100
AcDbLine
 10
12.58059499999999
 20
25.442863
 30
0.0
 11
12.58059499999999
 21
27.343287
 31
0.0
  0
LWPOLYLINE
  5
378
330
1E
100
AcDbEntity
  8
OBJECT
100
AcDbPolyline
 90
        5
 70
     0
 43
0.0
 10
8.006086999999999
 20
15.153768
 42
0.042226
 10
7.692180999999999
 20
16.029189
 42
-0.173357
 10
7.69648
 20
16.423625
 42
0.0415
 10
7.759785
 20
16.781392
 42
-0.054158
 10
7.955992
 20
17.673768
 42
2.439995
  0
TEXT
  5
37F
330
1E
100
AcDbEntity
  8
TEXT
100
AcDbText
 10
0.5302500000000001
 20
30.16203599999999
 30
0.0
 40
0.25
  1
NAME
 41
0.75
 72
     1
 11
0.8740000000000001
 21
30.16203599999999
 31
0.0
100
AcDbText
  0
TEXT
  5
380
330
1E
100
AcDbEntity
  8
TEXT
100
AcDbText
 10
0.5302500000000001
 20
30.497836
 30
0.0
 40
0.25
  1
PART
 41
0.75
 72
     1
 11
0.8740000000000001
 21
30.497836
 31
0.0
100
AcDbText
  0
TEXT
  5
381
330
1E
100
AcDbEntity
  8
TEXT
100
AcDbText
 10
10.8065
 20
30.16203599999999
 30
0.0
 40
0.25
  1
No.
 41
0.75
 72
     1
 11
10.994
 21
30.16203599999999
 31
0.0
100
AcDbText
  0
TEXT
  5
382
330
1E
100
AcDbEntity
  8
TEXT
100
AcDbText
 10
10.65025
 20
30.497836
 30
0.0
 40
0.25
  1
PART
 41
0.75
 72
     1
 11
10.994
 21
30.497836
 31
0.0
100
AcDbText
  0
LINE
  5
383
330
1E
100
AcDbEntity
  8
TITLE
100
AcDbLine
 10
11.744
 20
30.876
 30
0.0
 11
11.744
 21
30.04
 31
0.0
  0
LINE
  5
384
330
1E
100
AcDbEntity
  8
TITLE
100
AcDbLine
 10
10.244
 20
30.876
 30
0.0
 11
10.244
 21
30.04
 31
0.0
  0
LINE
  5
385
330
1E
100
AcDbEntity
  8
TITLE
100
AcDbLine
 10
10.12
 20
30.876
 30
0.0
 11
10.12
 21
30.04
 31
0.0
  0
LINE
  5
386
330
1E
100
AcDbEntity
  8
TITLE
100
AcDbLine
 10
1.624
 20
30.04
 30
0.0
 11
1.624
 21
30.876
 31
0.0
  0
LINE
  5
387
330
1E
100
AcDbEntity
  8
TITLE
100
AcDbLine
 10
0.124
 20
30.04
 30
0.0
 11
20.116
 21
30.04
 31
0.0
  0
LINE
  5
388
330
1E
100
AcDbEntity
  8
TITLE
100
AcDbLine
 10
20.116
 20
0.124
 30
0.0
 11
0.124
 21
0.124
 31
0.0
  0
LINE
  5
389
330
1E
100
AcDbEntity
  8
TITLE
100
AcDbLine
 10
0.124
 20
30.876
 30
0.0
 11
20.116
 21
30.876
 31
0.0
  0
LINE
  5
38A
330
1E
100
AcDbEntity
  8
TITLE
100
AcDbLine
 10
0.124
 20
0.124
 30
0.0
 11
0.124
 21
30.876
 31
0.0
  0
LINE
  5
38B
330
1E
100
AcDbEntity
  8
TITLE
100
AcDbLine
 10
0.0
 20
0.0
 30
0.0
 11
0.0
 21
31.0
 31
0.0
  0
LINE
  5
38C
330
1E
100
AcDbEntity
  8
TITLE
100
AcDbLine
 10
20.24
 20
0.0
 30
0.0
 11
0.0
 21
0.0
 31
0.0
  0
LINE
  5
38D
330
1E
100
AcDbEntity
  8
TITLE
100
AcDbLine
 10
20.24
 20
31.0
 30
0.0
 11
20.24
 21
0.0
 31
0.0
  0
LINE
  5
38E
330
1E
100
AcDbEntity
  8
TITLE
100
AcDbLine
 10
0.0
 20
31.0
 30
0.0
 11
20.24
 21
31.0
 31
0.0
  0
LINE
  5
38F
330
1E
100
AcDbEntity
  8
TITLE
100
AcDbLine
 10
20.116
 20
30.876
 30
0.0
 11
20.116
 21
0.124
 31
0.0
  0
LINE
  5
390
330
1E
100
AcDbEntity
  8
OBJECT
100
AcDbLine
 10
12.00622599999999
 20
15.25876799999999
 30
0.0
 11
17.63222599999999
 21
15.25876799999999
 31
0.0
  0
LINE
  5
391
330
1E
100
AcDbEntity
  8
OBJECT
100
AcDbLine
 10
12.00622599999999
 20
17.56876799999999
 30
0.0
 11
17.63222599999999
 21
17.56876799999999
 31
0.0
  0
LINE
  5
392
330
1E
100
AcDbEntity
  8
OBJECT
100
AcDbLine
 10
17.694226
 20
15.320768
 30
0.0
 11
17.694226
 21
17.506768
 31
0.0
  0
LINE
  5
393
330
1E
100
AcDbEntity
  8
OBJECT
100
AcDbLine
 10
11.944226
 20
15.320768
 30
0.0
 11
11.944226
 21
17.506768
 31
0.0
  0
LINE
  5
394
330
1E
100
AcDbEntity
  8
BEND
100
AcDbLine
 10
11.98922599999999
 20
15.32376799999999
 30
0.0
 11
11.98922599999999
 21
17.503768
 31
0.0
  0
LINE
  5
395
330
1E
100
AcDbEntity
  8
BEND
100
AcDbLine
 10
11.98922599999999
 20
15.32376799999999
 30
0.0
 11
17.649226
 21
15.32376799999999
 31
0.0
  0
LINE
  5
396
330
1E
100
AcDbEntity
  8
BEND
100
AcDbLine
 10
11.98922599999999
 20
17.503768
 30
0.0
 11
17.649226
 21
17.503768
 31
0.0
  0
LINE
  5
397
330
1E
100
AcDbEntity
  8
BEND
100
AcDbLine
 10
17.649226
 20
15.32376799999999
 30
0.0
 11
17.649226
 21
17.503768
 31
0.0
  0
TEXT
  5
398
330
1E
100
AcDbEntity
  8
DIM
100
AcDbText
 10
18.113564
 20
15.93697699999999
 30
0.0
 40
0.25
  1
PANEL
 41
0.75
100
AcDbText
  0
TEXT
  5
399
330
1E
100
AcDbEntity
  8
DIM
100
AcDbText
 10
17.90636199999999
 20
16.296969
 30
0.0
 40
0.25
  1
EXPOSED
 41
0.75
100
AcDbText
  0
TEXT
  5
39A
330
1E
100
AcDbEntity
  8
TEXT
100
AcDbText
 10
13.41378999999999
 20
16.304362
 30
0.0
 40
0.25
  1
PANEL-
 41
0.75
100
AcDbText
  0
TEXT
  5
39B
330
1E
100
AcDbEntity
  8
TEXT
100
AcDbText
 10
14.689097
 20
16.307664
 30
0.0
 40
0.25
  1
0.090 THICK
 41
0.75
100
AcDbText
  0
TEXT
  5
39C
330
1E
100
AcDbEntity
  8
TEXT
100
AcDbText
 10
4.780000000000001
 20
30.302
 30
0.0
 40
0.312
  1
PLASTICASE
 41
0.75
 72
     1
 11
5.872
 21
30.302
 31
0.0
100
AcDbText
  0
TEXT
  5
39D
330
1E
100
AcDbEntity
  8
TEXT
100
AcDbText
 10
13.6095
 20
30.302
 30
0.0
 40
0.312
  1
PC-11406  TO  PC-11416
 41
0.75
 72
     1
 11
15.92999999999999
 21
30.302
 31
0.0
100
AcDbText
  0
DIMENSION
  5
39E
330
1E
100
AcDbEntity
  8
DIM
100
AcDbDimension
  2
*D10
 10
3.626098
 20
28.219042
 30
0.0
 11
4.066098
 21
28.219042
 31
0.0
 70
    32
  1
K
 71
     5
 42
0.8800000000000004
  3
DIM
100
AcDbAlignedDimension
 13
4.506098
 23
26.556287
 33
0.0
 14
3.626098
 24
27.716287
 34
0.0
100
AcDbRotatedDimension
  0
DIMENSION
  5
3AC
330
1E
100
AcDbEntity
  8
DIM
100
AcDbDimension
  2
*D11
 10
2.233794737487397
 20
21.396287
 30
0.0
 11
2.233794737487393
 21
21.976287
 31
0.0
 70
    32
 71
     5
 42
1.16
  3
DIM
100
AcDbAlignedDimension
 13
4.506098
 23
22.556287
 33
0.0
 14
3.626098
 24
21.396287
 34
0.0
 50
90.0
100
AcDbRotatedDimension
  0
DIMENSION
  5
3BA
330
1E
100
AcDbEntity
  8
DIM
100
AcDbDimension
  2
*D12
 10
11.98922599999999
 20
14.50944899999999
 30
0.0
 11
14.819226
 21
14.50944899999999
 31
0.0
 70
    32
  1
P
 71
     5
 42
5.660000000000003
  3
STD
100
AcDbAlignedDimension
 13
17.649226
 23
15.32376799999999
 33
0.0
 14
11.98922599999999
 24
15.32376799999999
 34
0.0
100
AcDbRotatedDimension
  0
DIMENSION
  5
3C8
330
1E
100
AcDbEntity
  8
DIM
100
AcDbDimension
  2
*D13
 10
11.311674
 20
17.56876799999999
 30
0.0
 11
11.31167399999999
 21
16.413768
 31
0.0
 70
    32
  1
L
 71
     5
 42
2.31
  3
DIM
100
AcDbAlignedDimension
 13
11.944226
 23
15.25876799999999
 33
0.0
 14
11.944226
 24
17.56876799999999
 34
0.0
 50
90.0
100
AcDbRotatedDimension
  0
DIMENSION
  5
3D6
330
1E
100
AcDbEntity
  8
DIM
100
AcDbDimension
  2
*D14
 10
9.326097999999999
 20
20.29178499999999
 30
0.0
 11
6.686098000000001
 21
20.29178499999999
 31
0.0
 70
    32
  1
G
 71
     5
 42
5.279999999999999
  3
STD
100
AcDbAlignedDimension
 13
4.046098
 23
24.556287
 33
0.0
 14
9.326097999999999
 24
24.556287
 34
0.0
100
AcDbRotatedDimension
  0
DIMENSION
  5
3E4
330
1E
100
AcDbEntity
  8
DIM
100
AcDbDimension
  2
*D15
 10
3.626098
 20
20.29178499999999
 30
0.0
 11
2.382348
 21
20.29178499999999
 31
0.0
 70
    32
 71
     5
 42
0.4200000000000004
  3
STD
100
AcDbAlignedDimension
 13
4.046098
 23
24.556287
 33
0.0
 14
3.626098
 24
21.396287
 34
0.0
100
AcDbRotatedDimension
  0
LINE
  5
3F2
330
1E
100
AcDbEntity
  8
OBJECT
100
AcDbLine
 10
13.715595
 20
21.42228699999999
 30
0.0
 11
13.715595
 21
21.58972299999999
 31
0.0
  0
CIRCLE
  5
3F3
330
1E
100
AcDbEntity
  8
OBJECT
100
AcDbCircle
 10
4.506098
 20
24.556287
 30
0.0
 40
0.1405
  0
CIRCLE
  5
3F4
330
1E
100
AcDbEntity
  8
OBJECT
100
AcDbCircle
 10
4.506098
 20
24.556287
 30
0.0
 40
0.0455
  0
CIRCLE
  5
3F5
330
1E
100
AcDbEntity
  8
HIDDEN
100
AcDbCircle
 10
8.866097999999999
 20
24.556287
 30
0.0
 40
0.1405
  0
CIRCLE
  5
3F6
330
1E
100
AcDbEntity
  8
HIDDEN
100
AcDbCircle
 10
8.866097999999999
 20
24.556287
 30
0.0
 40
0.0455
  0
DIMENSION
  5
3F7
330
1E
100
AcDbEntity
  8
DIM
100
AcDbDimension
  2
*D16
 10
2.233794737487397
 20
22.556287
 30
0.0
 11
2.233794737487393
 21
23.556287
 31
0.0
 70
    32
 71
     5
 42
2.0
  3
STD
100
AcDbAlignedDimension
 13
4.506098
 23
24.556287
 33
0.0
 14
4.506098
 24
22.556287
 34
0.0
 50
90.0
100
AcDbRotatedDimension
  0
DIMENSION
  5
405
330
1E
100
AcDbEntity
  8
DIM
100
AcDbDimension
  2
*D17
 10
2.233794737487397
 20
24.556287
 30
0.0
 11
2.233794737487393
 21
25.556287
 31
0.0
 70
    32
 71
     5
 42
2.0
  3
STD
100
AcDbAlignedDimension
 13
4.506098
 23
26.556287
 33
0.0
 14
4.506098
 24
24.556287
 34
0.0
 50
90.0
100
AcDbRotatedDimension
  0
LINE
  5
413
330
1E
100
AcDbEntity
  8
OBJECT
100
AcDbLine
 10
9.057811
 20
22.084287
 30
0.0
 11
9.057811
 21
27.02828699999999
 31
0.0
  0
LINE
  5
414
330
1E
100
AcDbEntity
  8
OBJECT
100
AcDbLine
 10
9.057811
 20
27.02828699999999
 30
0.0
 11
7.899577
 21
27.02828699999999
 31
0.0
  0
LINE
  5
415
330
1E
100
AcDbEntity
  8
OBJECT
100
AcDbLine
 10
9.057811
 20
22.084287
 30
0.0
 11
7.642319
 21
22.084287
 31
0.0
  0
LINE
  5
416
330
1E
100
AcDbEntity
  8
OBJECT
100
AcDbLine
 10
3.657098
 20
16.413768
 30
0.0
 11
3.785098
 21
16.413768
 31
0.0
  0
LINE
  5
417
330
1E
100
AcDbEntity
  8
OBJECT
100
AcDbLine
 10
3.906098
 20
17.54876799999999
 30
0.0
 11
3.906098
 21
16.413768
 31
0.0
  0
LINE
  5
418
330
1E
100
AcDbEntity
  8
OBJECT
100
AcDbLine
 10
3.906098
 20
16.413768
 30
0.0
 11
4.186098
 21
16.413768
 31
0.0
  0
LINE
  5
419
330
1E
100
AcDbEntity
  8
HIDDEN
100
AcDbLine
 10
8.725597999999999
 20
17.398768
 30
0.0
 11
9.006598
 21
17.398768
 31
0.0
  0
LINE
  5
41A
330
1E
100
AcDbEntity
  8
HIDDEN
100
AcDbLine
 10
9.006598
 20
17.53376799999999
 30
0.0
 11
9.006598
 21
17.398768
 31
0.0
  0
LINE
  5
41B
330
1E
100
AcDbEntity
  8
HIDDEN
100
AcDbLine
 10
8.725597999999999
 20
17.53376799999999
 30
0.0
 11
8.725597999999999
 21
17.398768
 31
0.0
  0
DIMENSION
  5
41C
330
1E
100
AcDbEntity
  8
DIM
100
AcDbDimension
  2
*D18
 10
5.563298999999999
 20
15.153768
 30
0.0
 11
4.663923999999997
 21
14.433768
 31
0.0
 70
    32
 71
     5
 42
0.2750000000000003
  3
STD
100
AcDbAlignedDimension
 13
4.646598
 23
15.428768
 33
0.0
 14
4.944683
 24
15.153768
 34
0.0
 50
90.0
100
AcDbRotatedDimension
  0
DIMENSION
  5
42A
330
1E
100
AcDbEntity
  8
DIM
100
AcDbDimension
  2
*D19
 10
5.563298999999999
 20
17.398768
 30
0.0
 11
5.563298999999997
 21
16.413768
 31
0.0
 70
    32
  1
D
 71
     5
 42
1.969999999999998
  3
DIM
100
AcDbAlignedDimension
 13
4.646598
 23
15.428768
 33
0.0
 14
4.646598
 24
17.398768
 34
0.0
 50
90.0
100
AcDbRotatedDimension
  0
LINE
  5
438
330
1E
100
AcDbEntity
  8
OBJECT
100
AcDbLine
 10
3.993098
 20
24.788787
 30
0.0
 11
3.801098
 21
24.788787
 31
0.0
  0
LINE
  5
439
330
1E
100
AcDbEntity
  8
OBJECT
100
AcDbLine
 10
3.993098
 20
25.30378699999999
 30
0.0
 11
3.801098
 21
25.30378699999999
 31
0.0
  0
LINE
  5
43A
330
1E
100
AcDbEntity
  8
OBJECT
100
AcDbLine
 10
3.931098
 20
25.241787
 30
0.0
 11
3.801098
 21
25.241787
 31
0.0
  0
LINE
  5
43B
330
1E
100
AcDbEntity
  8
OBJECT
100
AcDbLine
 10
3.931098
 20
24.850787
 30
0.0
 11
3.801098
 21
24.850787
 31
0.0
  0
LINE
  5
43C
330
1E
100
AcDbEntity
  8
OBJECT
100
AcDbLine
 10
3.931098
 20
25.241787
 30
0.0
 11
3.931098
 21
24.850787
 31
0.0
  0
LINE
  5
43D
330
1E
100
AcDbEntity
  8
OBJECT
100
AcDbLine
 10
3.993098
 20
25.30378699999999
 30
0.0
 11
3.993098
 21
24.685867
 31
0.0
  0
LINE
  5
43E
330
1E
100
AcDbEntity
  8
OBJECT
100
AcDbLine
 10
3.993098
 20
24.94778699999999
 30
0.0
 11
3.931098
 21
24.94778699999999
 31
0.0
  0
LINE
  5
43F
330
1E
100
AcDbEntity
  8
OBJECT
100
AcDbLine
 10
3.993098
 20
25.144787
 30
0.0
 11
3.931098
 21
25.144787
 31
0.0
  0
INSERT
  5
440
330
1E
100
AcDbEntity
  8
0
100
AcDbBlockReference
  2
ACAD
 10
23.042095
 20
16.16922
 30
0.0
  0
INSERT
  5
441
330
1E
100
AcDbEntity
  8
0
100
AcDbBlockReference
  2
ACAD
 10
46.170571
 20
19.86072399999999
 30
0.0
  0
INSERT
  5
442
330
1E
100
AcDbEntity
  8
0
100
AcDbBlockReference
  2
ACAD
 10
48.111857
 20
21.73976199999999
 30
0.0
  0
ARC
  5
443
330
1E
100
AcDbEntity
  8
OBJECT
100
AcDbCircle
 10
12.00622599999999
 20
17.506768
 30
0.0
 40
0.062
100
AcDbArc
 50
90.0
 51
180.0
  0
ARC
  5
444
330
1E
100
AcDbEntity
  8
OBJECT
100
AcDbCircle
 10
17.63222599999999
 20
17.506768
 30
0.0
 40
0.062
100
AcDbArc
 50
0.0
 51
90.0
  0
ARC
  5
445
330
1E
100
AcDbEntity
  8
OBJECT
100
AcDbCircle
 10
12.00622599999999
 20
15.320768
 30
0.0
 40
0.062
100
AcDbArc
 50
180.0
 51
270.0
  0
ARC
  5
446
330
1E
100
AcDbEntity
  8
OBJECT
100
AcDbCircle
 10
17.63222599999999
 20
15.320768
 30
0.0
 40
0.062
100
AcDbArc
 50
270.0
 51
0.0
  0
LINE
  5
447
330
1E
100
AcDbEntity
  8
OBJECT
100
AcDbLine
 10
13.700595
 20
21.396287
 30
0.0
 11
13.700595
 21
21.58972299999999
 31
0.0
  0
LINE
  5
448
330
1E
100
AcDbEntity
  8
OBJECT
100
AcDbLine
 10
13.730595
 20
21.396287
 30
0.0
 11
13.730595
 21
21.58972299999999
 31
0.0
  0
LINE
  5
449
330
1E
100
AcDbEntity
  8
OBJECT
100
AcDbLine
 10
7.695985
 20
21.68928699999999
 30
0.0
 11
3.801098
 21
21.68928699999999
 31
0.0
  0
LINE
  5
44A
330
1E
100
AcDbEntity
  8
OBJECT
100
AcDbLine
 10
7.714639
 20
21.589287
 30
0.0
 11
3.801098
 21
21.589287
 31
0.0
  0
LINE
  5
44B
330
1E
100
AcDbEntity
  8
OBJECT
100
AcDbLine
 10
9.524753
 20
16.42876799999999
 30
0.0
 11
9.746097999999999
 21
16.42876799999999
 31
0.0
  0
LINE
  5
44C
330
1E
100
AcDbEntity
  8
OBJECT
100
AcDbLine
 10
9.656011999999998
 20
16.42876799999999
 30
0.0
 11
9.605584
 21
17.58376799999999
 31
0.0
  0
LINE
  5
44D
330
1E
100
AcDbEntity
  8
OBJECT
100
AcDbLine
 10
3.626752999999999
 20
16.42876799999999
 30
0.0
 11
3.848098
 21
16.42876799999999
 31
0.0
  0
LINE
  5
44E
330
1E
100
AcDbEntity
  8
OBJECT
100
AcDbLine
 10
7.681035
 20
21.76928699999999
 30
0.0
 11
3.801098
 21
21.76928699999999
 31
0.0
  0
POINT
  5
44F
330
1E
100
AcDbEntity
  8
DEFPOINTS
  6
ByBlock
 62
     0
100
AcDbPoint
 10
17.649226
 20
17.503768
 30
0.0
  0
POINT
  5
450
330
1E
100
AcDbEntity
  8
DEFPOINTS
  6
ByBlock
 62
     0
100
AcDbPoint
 10
17.649226
 20
15.32376799999999
 30
0.0
  0
TEXT
  5
451
330
1E
100
AcDbEntity
  8
DIM
100
AcDbText
 10
5.932355
 20
29.421376
 30
0.0
 40
0.25
  1
0.281 DIA. BOSS
 41
0.75
 11
5.932355
 21
29.546376
 31
0.0
100
AcDbText
 73
     2
  0
TEXT
  5
452
330
1E
100
AcDbEntity
  8
DIM
100
AcDbText
 10
5.932355
 20
29.004709
 30
0.0
 40
0.25
  1
WITH 0.091 DIA. HOLE
 41
0.75
 11
5.932355
 21
29.129709
 31
0.0
100
AcDbText
 73
     2
  0
TEXT
  5
453
330
1E
100
AcDbEntity
  8
DIM
100
AcDbText
 10
5.932355
 20
28.607409
 30
0.0
 40
0.25
  1
(18) PLACES
 41
0.75
 11
5.932355
 21
28.732409
 31
0.0
100
AcDbText
 73
     2
  0
LWPOLYLINE
  5
454
330
1E
100
AcDbEntity
  8
DIM
100
AcDbPolyline
 90
        4
 70
     0
 10
11.95363799999999
 20
17.539609
 40
0.0
 41
0.135
 10
11.81974899999999
 20
17.873786
 40
0.0
 41
0.0
 10
11.544417
 20
18.610485
 40
0.0
 41
0.0
 10
11.930774
 20
18.610485
 40
0.0
 41
0.0
  0
TEXT
  5
45A
330
1E
100
AcDbEntity
  8
DIM
100
AcDbText
 10
12.07475
 20
18.07228999999999
 30
0.0
 40
0.25
  1
(4) PLACES TYP.
 41
0.75
 72
     2
 11
14.57475
 21
18.19728999999999
 31
0.0
100
AcDbText
 73
     2
  0
TEXT
  5
45B
330
1E
100
AcDbEntity
  8
DIM
100
AcDbText
 10
12.0891779827549
 20
18.48895599999999
 30
0.0
 40
0.25
  1
0.062 R.
 41
0.75
 72
     2
 11
13.2141779827549
 21
18.61395599999999
 31
0.0
100
AcDbText
 73
     2
  0
LINE
  5
45C
330
1E
100
AcDbEntity
  8
OBJECT
100
AcDbLine
 10
3.626098
 20
21.396287
 30
0.0
 11
3.716183999999999
 21
21.396287
 31
0.0
  0
LINE
  5
45D
330
1E
100
AcDbEntity
  8
OBJECT
100
AcDbLine
 10
13.700595
 20
24.69628699999999
 30
0.0
 11
13.700595
 21
27.716287
 31
0.0
  0
LINE
  5
45E
330
1E
100
AcDbEntity
  8
OBJECT
100
AcDbLine
 10
13.730595
 20
24.69628699999999
 30
0.0
 11
13.730595
 21
27.716287
 31
0.0
  0
LINE
  5
45F
330
1E
100
AcDbEntity
  8
OBJECT
100
AcDbLine
 10
13.700595
 20
21.42228699999999
 30
0.0
 11
13.715595
 21
21.42228699999999
 31
0.0
  0
LINE
  5
460
330
1E
100
AcDbEntity
  8
OBJECT
100
AcDbLine
 10
13.730595
 20
21.42228699999999
 30
0.0
 11
13.715595
 21
21.42228699999999
 31
0.0
  0
LINE
  5
461
330
1E
100
AcDbEntity
  8
OBJECT
100
AcDbLine
 10
13.730595
 20
21.68928699999999
 30
0.0
 11
13.730595
 21
24.416287
 31
0.0
  0
LINE
  5
462
330
1E
100
AcDbEntity
  8
OBJECT
100
AcDbLine
 10
13.700595
 20
21.68928699999999
 30
0.0
 11
13.700595
 21
24.416287
 31
0.0
  0
LINE
  5
463
330
1E
100
AcDbEntity
  8
OBJECT
100
AcDbLine
 10
13.715595
 20
21.68928699999999
 30
0.0
 11
13.715595
 21
27.69028699999999
 31
0.0
  0
LINE
  5
464
330
1E
100
AcDbEntity
  8
OBJECT
100
AcDbLine
 10
13.700595
 20
27.716287
 30
0.0
 11
12.45559499999999
 21
27.661929
 31
0.0
  0
LINE
  5
465
330
1E
100
AcDbEntity
  8
OBJECT
100
AcDbLine
 10
13.730595
 20
27.716287
 30
0.0
 11
14.490595
 21
27.68310399999999
 31
0.0
  0
LINE
  5
466
330
1E
100
AcDbEntity
  8
OBJECT
100
AcDbLine
 10
13.730595
 20
27.69028699999999
 30
0.0
 11
13.715595
 21
27.69028699999999
 31
0.0
  0
LINE
  5
467
330
1E
100
AcDbEntity
  8
OBJECT
100
AcDbLine
 10
7.922844999999999
 20
27.523287
 30
0.0
 11
3.801098
 21
27.523287
 31
0.0
  0
LINE
  5
468
330
1E
100
AcDbEntity
  8
OBJECT
100
AcDbLine
 10
7.930072
 20
27.42328699999999
 30
0.0
 11
3.801098
 21
27.42328699999999
 31
0.0
  0
LINE
  5
469
330
1E
100
AcDbEntity
  8
OBJECT
100
AcDbLine
 10
7.931516999999999
 20
27.343287
 30
0.0
 11
3.801098
 21
27.343287
 31
0.0
  0
LINE
  5
46A
330
1E
100
AcDbEntity
  8
HIDDEN
100
AcDbLine
 10
7.931516999999999
 20
27.343287
 30
0.0
 11
9.571752999999999
 21
27.343287
 31
0.0
  0
LINE
  5
46B
330
1E
100
AcDbEntity
  8
HIDDEN
100
AcDbLine
 10
7.930072
 20
27.42328699999999
 30
0.0
 11
9.571752999999999
 21
27.42328699999999
 31
0.0
  0
LINE
  5
46C
330
1E
100
AcDbEntity
  8
HIDDEN
100
AcDbLine
 10
7.922844999999999
 20
27.523287
 30
0.0
 11
9.571752999999999
 21
27.523287
 31
0.0
  0
LINE
  5
46D
330
1E
100
AcDbEntity
  8
HIDDEN
100
AcDbLine
 10
7.714639
 20
21.589287
 30
0.0
 11
9.571752999999999
 21
21.589287
 31
0.0
  0
LINE
  5
46E
330
1E
100
AcDbEntity
  8
HIDDEN
100
AcDbLine
 10
7.695985
 20
21.68928699999999
 30
0.0
 11
9.571752999999999
 21
21.68928699999999
 31
0.0
  0
LINE
  5
46F
330
1E
100
AcDbEntity
  8
HIDDEN
100
AcDbLine
 10
7.681035
 20
21.76928699999999
 30
0.0
 11
9.571752999999999
 21
21.76928699999999
 31
0.0
  0
LINE
  5
470
330
1E
100
AcDbEntity
  8
OBJECT
100
AcDbLine
 10
3.657098
 20
16.413768
 30
0.0
 11
3.657098
 21
16.398768
 31
0.0
  0
INSERT
  5
471
330
1E
100
AcDbEntity
  8
0
100
AcDbBlockReference
  2
ACAD
 10
21.012145
 20
4.727716
 30
0.0
  0
LINE
  5
472
330
1E
100
AcDbEntity
  8
OBJECT
100
AcDbLine
 10
3.657098
 20
16.42876799999999
 30
0.0
 11
3.657098
 21
16.413768
 31
0.0
  0
CIRCLE
  5
473
330
1E
100
AcDbEntity
  8
OBJECT
100
AcDbCircle
 10
6.686097999999999
 20
22.556287
 30
0.0
 40
0.0455
  0
CIRCLE
  5
474
330
1E
100
AcDbEntity
  8
OBJECT
100
AcDbCircle
 10
6.686097999999999
 20
22.556287
 30
0.0
 40
0.1405
  0
CIRCLE
  5
475
330
1E
100
AcDbEntity
  8
OBJECT
100
AcDbCircle
 10
6.686097999999999
 20
24.556287
 30
0.0
 40
0.1405
  0
CIRCLE
  5
476
330
1E
100
AcDbEntity
  8
OBJECT
100
AcDbCircle
 10
6.686097999999999
 20
24.556287
 30
0.0
 40
0.0455
  0
CIRCLE
  5
477
330
1E
100
AcDbEntity
  8
OBJECT
100
AcDbCircle
 10
6.686097999999999
 20
26.556287
 30
0.0
 40
0.0455
  0
CIRCLE
  5
478
330
1E
100
AcDbEntity
  8
OBJECT
100
AcDbCircle
 10
6.686097999999999
 20
26.556287
 30
0.0
 40
0.1405
  0
LINE
  5
479
330
1E
100
AcDbEntity
  8
OBJECT
100
AcDbLine
 10
6.826597999999999
 20
17.54876799999999
 30
0.0
 11
6.826597999999999
 21
17.398768
 31
0.0
  0
LINE
  5
47A
330
1E
100
AcDbEntity
  8
OBJECT
100
AcDbLine
 10
6.545598
 20
17.54876799999999
 30
0.0
 11
6.545598
 21
17.398768
 31
0.0
  0
LINE
  5
47B
330
1E
100
AcDbEntity
  8
OBJECT
100
AcDbLine
 10
6.826597999999999
 20
17.398768
 30
0.0
 11
6.545598
 21
17.398768
 31
0.0
  0
LINE
  5
47C
330
1E
100
AcDbEntity
  8
OBJECT
100
AcDbLine
 10
3.801098
 20
27.523287
 30
0.0
 11
3.801098
 21
27.42328699999999
 31
0.0
  0
LINE
  5
47D
330
1E
100
AcDbEntity
  8
OBJECT
100
AcDbLine
 10
3.848098
 20
22.145287
 30
0.0
 11
3.801098
 21
22.145287
 31
0.0
  0
LINE
  5
47E
330
1E
100
AcDbEntity
  8
OBJECT
100
AcDbLine
 10
3.848098
 20
22.08028699999999
 30
0.0
 11
3.801098
 21
22.08028699999999
 31
0.0
  0
LINE
  5
47F
330
1E
100
AcDbEntity
  8
OBJECT
100
AcDbLine
 10
3.848098
 20
22.224287
 30
0.0
 11
3.801098
 21
22.224287
 31
0.0
  0
LINE
  5
480
330
1E
100
AcDbEntity
  8
OBJECT
100
AcDbLine
 10
3.848098
 20
22.28928699999999
 30
0.0
 11
3.801098
 21
22.28928699999999
 31
0.0
  0
LINE
  5
481
330
1E
100
AcDbEntity
  8
OBJECT
100
AcDbLine
 10
3.848098
 20
22.36828699999999
 30
0.0
 11
3.801098
 21
22.36828699999999
 31
0.0
  0
LINE
  5
482
330
1E
100
AcDbEntity
  8
OBJECT
100
AcDbLine
 10
3.848098
 20
22.433287
 30
0.0
 11
3.801098
 21
22.433287
 31
0.0
  0
LINE
  5
483
330
1E
100
AcDbEntity
  8
OBJECT
100
AcDbLine
 10
3.848098
 20
22.433287
 30
0.0
 11
3.848098
 21
22.36828699999999
 31
0.0
  0
LINE
  5
484
330
1E
100
AcDbEntity
  8
OBJECT
100
AcDbLine
 10
3.848098
 20
22.28928699999999
 30
0.0
 11
3.848098
 21
22.224287
 31
0.0
  0
LINE
  5
485
330
1E
100
AcDbEntity
  8
OBJECT
100
AcDbLine
 10
3.848098
 20
22.145287
 30
0.0
 11
3.848098
 21
22.08028699999999
 31
0.0
  0
LINE
  5
486
330
1E
100
AcDbEntity
  8
OBJECT
100
AcDbLine
 10
3.801098
 20
22.36828699999999
 30
0.0
 11
3.801098
 21
22.28928699999999
 31
0.0
  0
LINE
  5
487
330
1E
100
AcDbEntity
  8
OBJECT
100
AcDbLine
 10
3.801098
 20
22.224287
 30
0.0
 11
3.801098
 21
22.145287
 31
0.0
  0
LINE
  5
488
330
1E
100
AcDbEntity
  8
OBJECT
100
AcDbLine
 10
3.801098
 20
22.08028699999999
 30
0.0
 11
3.801098
 21
21.76928699999999
 31
0.0
  0
LINE
  5
489
330
1E
100
AcDbEntity
  8
OBJECT
100
AcDbLine
 10
3.848098
 20
21.76928699999999
 30
0.0
 11
3.848098
 21
21.68928699999999
 31
0.0
  0
LINE
  5
48A
330
1E
100
AcDbEntity
  8
OBJECT
100
AcDbLine
 10
3.801098
 20
21.68928699999999
 30
0.0
 11
3.801098
 21
21.589287
 31
0.0
  0
LINE
  5
48B
330
1E
100
AcDbEntity
  8
OBJECT
100
AcDbLine
 10
3.848098
 20
21.589287
 30
0.0
 11
3.716183999999999
 21
21.396287
 31
0.0
  0
LINE
  5
48C
330
1E
100
AcDbEntity
  8
OBJECT
100
AcDbLine
 10
3.801098
 20
27.42328699999999
 30
0.0
 11
3.801098
 21
27.523287
 31
0.0
  0
LINE
  5
48D
330
1E
100
AcDbEntity
  8
OBJECT
100
AcDbLine
 10
3.848098
 20
27.343287
 30
0.0
 11
3.848098
 21
27.42328699999999
 31
0.0
  0
LINE
  5
48E
330
1E
100
AcDbEntity
  8
OBJECT
100
AcDbLine
 10
3.801098
 20
27.032287
 30
0.0
 11
3.801098
 21
27.343287
 31
0.0
  0
LINE
  5
48F
330
1E
100
AcDbEntity
  8
OBJECT
100
AcDbLine
 10
3.801098
 20
26.888287
 30
0.0
 11
3.801098
 21
26.96728699999999
 31
0.0
  0
LINE
  5
490
330
1E
100
AcDbEntity
  8
OBJECT
100
AcDbLine
 10
3.801098
 20
26.74428699999999
 30
0.0
 11
3.801098
 21
26.823287
 31
0.0
  0
LINE
  5
491
330
1E
100
AcDbEntity
  8
OBJECT
100
AcDbLine
 10
3.848098
 20
26.96728699999999
 30
0.0
 11
3.848098
 21
27.032287
 31
0.0
  0
LINE
  5
492
330
1E
100
AcDbEntity
  8
OBJECT
100
AcDbLine
 10
3.848098
 20
26.823287
 30
0.0
 11
3.848098
 21
26.888287
 31
0.0
  0
LINE
  5
493
330
1E
100
AcDbEntity
  8
OBJECT
100
AcDbLine
 10
3.848098
 20
26.679287
 30
0.0
 11
3.848098
 21
26.74428699999999
 31
0.0
  0
LINE
  5
494
330
1E
100
AcDbEntity
  8
OBJECT
100
AcDbLine
 10
3.848098
 20
26.679287
 30
0.0
 11
3.801098
 21
26.679287
 31
0.0
  0
LINE
  5
495
330
1E
100
AcDbEntity
  8
OBJECT
100
AcDbLine
 10
3.848098
 20
26.74428699999999
 30
0.0
 11
3.801098
 21
26.74428699999999
 31
0.0
  0
LINE
  5
496
330
1E
100
AcDbEntity
  8
OBJECT
100
AcDbLine
 10
3.848098
 20
26.823287
 30
0.0
 11
3.801098
 21
26.823287
 31
0.0
  0
LINE
  5
497
330
1E
100
AcDbEntity
  8
OBJECT
100
AcDbLine
 10
3.848098
 20
26.888287
 30
0.0
 11
3.801098
 21
26.888287
 31
0.0
  0
LINE
  5
498
330
1E
100
AcDbEntity
  8
OBJECT
100
AcDbLine
 10
3.848098
 20
27.032287
 30
0.0
 11
3.801098
 21
27.032287
 31
0.0
  0
LINE
  5
499
330
1E
100
AcDbEntity
  8
OBJECT
100
AcDbLine
 10
3.848098
 20
26.96728699999999
 30
0.0
 11
3.801098
 21
26.96728699999999
 31
0.0
  0
LINE
  5
49A
330
1E
100
AcDbEntity
  8
OBJECT
100
AcDbLine
 10
3.801098
 20
26.96728699999999
 30
0.0
 11
3.801098
 21
26.888287
 31
0.0
  0
LINE
  5
49B
330
1E
100
AcDbEntity
  8
OBJECT
100
AcDbLine
 10
3.801098
 20
26.823287
 30
0.0
 11
3.801098
 21
26.74428699999999
 31
0.0
  0
LINE
  5
49C
330
1E
100
AcDbEntity
  8
OBJECT
100
AcDbLine
 10
3.801098
 20
26.679287
 30
0.0
 11
3.801098
 21
22.433287
 31
0.0
  0
LINE
  5
49D
330
1E
100
AcDbEntity
  8
OBJECT
100
AcDbLine
 10
3.801098
 20
27.343287
 30
0.0
 11
3.801098
 21
27.032287
 31
0.0
  0
LINE
  5
49E
330
1E
100
AcDbEntity
  8
HIDDEN
100
AcDbLine
 10
8.729290999999999
 20
24.588287
 30
0.0
 11
7.683721
 21
24.588287
 31
0.0
  0
LINE
  5
49F
330
1E
100
AcDbEntity
  8
HIDDEN
100
AcDbLine
 10
8.729528
 20
24.523287
 30
0.0
 11
7.696080999999999
 21
24.523287
 31
0.0
  0
LINE
  5
4A0
330
1E
100
AcDbEntity
  8
HIDDEN
100
AcDbLine
 10
9.189803999999998
 20
24.588287
 30
0.0
 11
9.002905
 21
24.588287
 31
0.0
  0
LINE
  5
4A1
330
1E
100
AcDbEntity
  8
HIDDEN
100
AcDbLine
 10
9.190042999999999
 20
24.523287
 30
0.0
 11
9.002667999999999
 21
24.523287
 31
0.0
  0
LINE
  5
4A2
330
1E
100
AcDbEntity
  8
OBJECT
100
AcDbLine
 10
3.910042999999999
 20
24.523287
 30
0.0
 11
3.801098
 21
24.523287
 31
0.0
  0
LINE
  5
4A3
330
1E
100
AcDbEntity
  8
OBJECT
100
AcDbLine
 10
3.909804
 20
24.588287
 30
0.0
 11
3.801098
 21
24.588287
 31
0.0
  0
LINE
  5
4A4
330
1E
100
AcDbEntity
  8
OBJECT
100
AcDbLine
 10
4.369291
 20
24.588287
 30
0.0
 11
4.182392
 21
24.588287
 31
0.0
  0
LINE
  5
4A5
330
1E
100
AcDbEntity
  8
OBJECT
100
AcDbLine
 10
4.369527999999999
 20
24.523287
 30
0.0
 11
4.182152999999999
 21
24.523287
 31
0.0
  0
LINE
  5
4A6
330
1E
100
AcDbEntity
  8
OBJECT
100
AcDbLine
 10
6.549291
 20
24.588287
 30
0.0
 11
4.642905
 21
24.588287
 31
0.0
  0
LINE
  5
4A7
330
1E
100
AcDbEntity
  8
OBJECT
100
AcDbLine
 10
6.549527999999999
 20
24.523287
 30
0.0
 11
4.642668
 21
24.523287
 31
0.0
  0
LINE
  5
4A8
330
1E
100
AcDbEntity
  8
OBJECT
100
AcDbLine
 10
7.683721
 20
24.588287
 30
0.0
 11
6.822905
 21
24.588287
 31
0.0
  0
LINE
  5
4A9
330
1E
100
AcDbEntity
  8
OBJECT
100
AcDbLine
 10
7.696080999999999
 20
24.523287
 30
0.0
 11
6.822667999999999
 21
24.523287
 31
0.0
  0
LINE
  5
4AA
330
1E
100
AcDbEntity
  8
OBJECT
100
AcDbLine
 10
3.931098
 20
24.788787
 30
0.0
 11
3.931098
 21
24.63613
 31
0.0
  0
LINE
  5
4AB
330
1E
100
AcDbEntity
  8
OBJECT
100
AcDbLine
 10
3.931098
 20
25.015287
 30
0.0
 11
3.801098
 21
25.015287
 31
0.0
  0
LINE
  5
4AC
330
1E
100
AcDbEntity
  8
OBJECT
100
AcDbLine
 10
3.931098
 20
25.07728699999999
 30
0.0
 11
3.801098
 21
25.07728699999999
 31
0.0
  0
LINE
  5
4AD
330
1E
100
AcDbEntity
  8
OBJECT
100
AcDbLine
 10
3.681111
 20
17.673768
 30
0.0
 11
9.691739999999999
 21
17.673768
 31
0.0
  0
LINE
  5
4AE
330
1E
100
AcDbEntity
  8
OBJECT
100
AcDbLine
 10
7.916071999999999
 20
17.54876799999999
 30
0.0
 11
3.801098
 21
17.54876799999999
 31
0.0
  0
LINE
  5
4AF
330
1E
100
AcDbEntity
  8
OBJECT
100
AcDbLine
 10
3.848098
 20
17.54876799999999
 30
0.0
 11
3.848098
 21
16.42876799999999
 31
0.0
  0
LINE
  5
4B0
330
1E
100
AcDbEntity
  8
OBJECT
100
AcDbLine
 10
3.801098
 20
17.54876799999999
 30
0.0
 11
3.801098
 21
16.42876799999999
 31
0.0
  0
LINE
  5
4B1
330
1E
100
AcDbEntity
  8
HIDDEN
100
AcDbLine
 10
9.524753
 20
21.589287
 30
0.0
 11
9.656667
 21
21.396287
 31
0.0
  0
LINE
  5
4B2
330
1E
100
AcDbEntity
  8
OBJECT
100
AcDbLine
 10
9.746753
 20
21.396287
 30
0.0
 11
9.656667
 21
21.396287
 31
0.0
  0
LINE
  5
4B3
330
1E
100
AcDbEntity
  8
HIDDEN
100
AcDbLine
 10
9.571752999999999
 20
21.68928699999999
 30
0.0
 11
9.571752999999999
 21
21.589287
 31
0.0
  0
LINE
  5
4B4
330
1E
100
AcDbEntity
  8
HIDDEN
100
AcDbLine
 10
9.524753
 20
21.76928699999999
 30
0.0
 11
9.524753
 21
21.68928699999999
 31
0.0
  0
LINE
  5
4B5
330
1E
100
AcDbEntity
  8
HIDDEN
100
AcDbLine
 10
9.571752999999999
 20
22.08028699999999
 30
0.0
 11
9.571752999999999
 21
21.76928699999999
 31
0.0
  0
LINE
  5
4B6
330
1E
100
AcDbEntity
  8
HIDDEN
100
AcDbLine
 10
9.571752999999999
 20
22.224287
 30
0.0
 11
9.571752999999999
 21
22.145287
 31
0.0
  0
LINE
  5
4B7
330
1E
100
AcDbEntity
  8
HIDDEN
100
AcDbLine
 10
9.571752999999999
 20
22.36828699999999
 30
0.0
 11
9.571752999999999
 21
22.28928699999999
 31
0.0
  0
LINE
  5
4B8
330
1E
100
AcDbEntity
  8
HIDDEN
100
AcDbLine
 10
9.524753
 20
22.145287
 30
0.0
 11
9.524753
 21
22.08028699999999
 31
0.0
  0
LINE
  5
4B9
330
1E
100
AcDbEntity
  8
HIDDEN
100
AcDbLine
 10
9.524753
 20
22.28928699999999
 30
0.0
 11
9.524753
 21
22.224287
 31
0.0
  0
LINE
  5
4BA
330
1E
100
AcDbEntity
  8
HIDDEN
100
AcDbLine
 10
9.524753
 20
22.433287
 30
0.0
 11
9.524753
 21
22.36828699999999
 31
0.0
  0
LINE
  5
4BB
330
1E
100
AcDbEntity
  8
HIDDEN
100
AcDbLine
 10
9.524753
 20
22.433287
 30
0.0
 11
9.571752999999999
 21
22.433287
 31
0.0
  0
LINE
  5
4BC
330
1E
100
AcDbEntity
  8
HIDDEN
100
AcDbLine
 10
9.524753
 20
22.36828699999999
 30
0.0
 11
9.571752999999999
 21
22.36828699999999
 31
0.0
  0
LINE
  5
4BD
330
1E
100
AcDbEntity
  8
HIDDEN
100
AcDbLine
 10
9.524753
 20
22.28928699999999
 30
0.0
 11
9.571752999999999
 21
22.28928699999999
 31
0.0
  0
LINE
  5
4BE
330
1E
100
AcDbEntity
  8
HIDDEN
100
AcDbLine
 10
9.524753
 20
22.224287
 30
0.0
 11
9.571752999999999
 21
22.224287
 31
0.0
  0
LINE
  5
4BF
330
1E
100
AcDbEntity
  8
HIDDEN
100
AcDbLine
 10
9.524753
 20
22.08028699999999
 30
0.0
 11
9.571752999999999
 21
22.08028699999999
 31
0.0
  0
LINE
  5
4C0
330
1E
100
AcDbEntity
  8
HIDDEN
100
AcDbLine
 10
9.524753
 20
22.145287
 30
0.0
 11
9.571752999999999
 21
22.145287
 31
0.0
  0
LINE
  5
4C1
330
1E
100
AcDbEntity
  8
OBJECT
100
AcDbLine
 10
9.524753
 20
17.53376799999999
 30
0.0
 11
9.524753
 21
16.42876799999999
 31
0.0
  0
LINE
  5
4C2
330
1E
100
AcDbEntity
  8
OBJECT
100
AcDbLine
 10
9.605584
 20
17.58376799999999
 30
0.0
 11
9.524753
 21
17.53376799999999
 31
0.0
  0
LINE
  5
4C3
330
1E
100
AcDbEntity
  8
HIDDEN
100
AcDbLine
 10
9.466753
 20
16.413768
 30
0.0
 11
9.186752999999999
 21
16.413768
 31
0.0
  0
LINE
  5
4C4
330
1E
100
AcDbEntity
  8
HIDDEN
100
AcDbLine
 10
9.466753
 20
17.53376799999999
 30
0.0
 11
9.466753
 21
16.413768
 31
0.0
  0
LINE
  5
4C5
330
1E
100
AcDbEntity
  8
HIDDEN
100
AcDbLine
 10
9.186752999999999
 20
17.53376799999999
 30
0.0
 11
9.186752999999999
 21
16.413768
 31
0.0
  0
LINE
  5
4C6
330
1E
100
AcDbEntity
  8
OBJECT
100
AcDbLine
 10
3.906098
 20
15.278768
 30
0.0
 11
3.906098
 21
16.413768
 31
0.0
  0
LINE
  5
4C7
330
1E
100
AcDbEntity
  8
OBJECT
100
AcDbLine
 10
3.626752999999999
 20
16.398768
 30
0.0
 11
3.681111
 21
15.153768
 31
0.0
  0
LINE
  5
4C8
330
1E
100
AcDbEntity
  8
OBJECT
100
AcDbLine
 10
3.848098
 20
15.278768
 30
0.0
 11
3.848098
 21
16.398768
 31
0.0
  0
LINE
  5
4C9
330
1E
100
AcDbEntity
  8
OBJECT
100
AcDbLine
 10
3.801098
 20
15.278768
 30
0.0
 11
3.801098
 21
16.398768
 31
0.0
  0
LINE
  5
4CA
330
1E
100
AcDbEntity
  8
OBJECT
100
AcDbLine
 10
4.186098
 20
15.278768
 30
0.0
 11
4.186098
 21
16.413768
 31
0.0
  0
LINE
  5
4CB
330
1E
100
AcDbEntity
  8
OBJECT
100
AcDbLine
 10
7.971269
 20
15.278768
 30
0.0
 11
3.801098
 21
15.278768
 31
0.0
  0
LINE
  5
4CC
330
1E
100
AcDbEntity
  8
OBJECT
100
AcDbLine
 10
3.681111
 20
15.153768
 30
0.0
 11
9.691739999999999
 21
15.153768
 31
0.0
  0
LINE
  5
4CD
330
1E
100
AcDbEntity
  8
OBJECT
100
AcDbLine
 10
4.646598
 20
15.428768
 30
0.0
 11
4.365598
 21
15.428768
 31
0.0
  0
LINE
  5
4CE
330
1E
100
AcDbEntity
  8
OBJECT
100
AcDbLine
 10
4.365598
 20
15.278768
 30
0.0
 11
4.365598
 21
15.428768
 31
0.0
  0
LINE
  5
4CF
330
1E
100
AcDbEntity
  8
OBJECT
100
AcDbLine
 10
4.646598
 20
15.278768
 30
0.0
 11
4.646598
 21
15.428768
 31
0.0
  0
LINE
  5
4D0
330
1E
100
AcDbEntity
  8
OBJECT
100
AcDbLine
 10
6.826597999999999
 20
15.278768
 30
0.0
 11
6.826597999999999
 21
15.428768
 31
0.0
  0
LINE
  5
4D1
330
1E
100
AcDbEntity
  8
OBJECT
100
AcDbLine
 10
6.545598
 20
15.278768
 30
0.0
 11
6.545598
 21
15.428768
 31
0.0
  0
LINE
  5
4D2
330
1E
100
AcDbEntity
  8
OBJECT
100
AcDbLine
 10
6.826597999999999
 20
15.428768
 30
0.0
 11
6.545598
 21
15.428768
 31
0.0
  0
LINE
  5
4D3
330
1E
100
AcDbEntity
  8
OBJECT
100
AcDbLine
 10
9.524753
 20
15.293768
 30
0.0
 11
7.966877
 21
15.293768
 31
0.0
  0
LINE
  5
4D4
330
1E
100
AcDbEntity
  8
OBJECT
100
AcDbLine
 10
9.605584
 20
15.24376799999999
 30
0.0
 11
7.981338
 21
15.24376799999999
 31
0.0
  0
LINE
  5
4D5
330
1E
100
AcDbEntity
  8
HIDDEN
100
AcDbLine
 10
8.725597999999999
 20
15.428768
 30
0.0
 11
9.006598
 21
15.428768
 31
0.0
  0
LINE
  5
4D6
330
1E
100
AcDbEntity
  8
HIDDEN
100
AcDbLine
 10
9.006598
 20
15.293768
 30
0.0
 11
9.006598
 21
15.428768
 31
0.0
  0
LINE
  5
4D7
330
1E
100
AcDbEntity
  8
HIDDEN
100
AcDbLine
 10
8.725597999999999
 20
15.293768
 30
0.0
 11
8.725597999999999
 21
15.428768
 31
0.0
  0
LINE
  5
4D8
330
1E
100
AcDbEntity
  8
HIDDEN
100
AcDbLine
 10
9.186752999999999
 20
15.293768
 30
0.0
 11
9.186752999999999
 21
16.413768
 31
0.0
  0
LINE
  5
4D9
330
1E
100
AcDbEntity
  8
HIDDEN
100
AcDbLine
 10
9.466753
 20
15.293768
 30
0.0
 11
9.466753
 21
16.413768
 31
0.0
  0
LINE
  5
4DA
330
1E
100
AcDbEntity
  8
OBJECT
100
AcDbLine
 10
9.524753
 20
15.293768
 30
0.0
 11
9.524753
 21
16.398768
 31
0.0
  0
LINE
  5
4DB
330
1E
100
AcDbEntity
  8
OBJECT
100
AcDbLine
 10
9.656011999999998
 20
16.398768
 30
0.0
 11
9.605584
 21
15.24376799999999
 31
0.0
  0
LINE
  5
4DC
330
1E
100
AcDbEntity
  8
OBJECT
100
AcDbLine
 10
9.746097999999999
 20
16.398768
 30
0.0
 11
9.691739999999999
 21
15.153768
 31
0.0
  0
LINE
  5
4DD
330
1E
100
AcDbEntity
  8
OBJECT
100
AcDbLine
 10
9.605584
 20
15.24376799999999
 30
0.0
 11
9.524753
 21
15.293768
 31
0.0
  0
LINE
  5
4DE
330
1E
100
AcDbEntity
  8
OBJECT
100
AcDbLine
 10
9.524753
 20
16.398768
 30
0.0
 11
9.746097999999999
 21
16.398768
 31
0.0
  0
LINE
  5
4DF
330
1E
100
AcDbEntity
  8
OBJECT
100
AcDbLine
 10
3.626752999999999
 20
16.398768
 30
0.0
 11
3.848098
 21
16.398768
 31
0.0
  0
LINE
  5
4E0
330
1E
100
AcDbEntity
  8
HIDDEN
100
AcDbLine
 10
9.524753
 20
27.343287
 30
0.0
 11
9.524753
 21
27.42328699999999
 31
0.0
  0
LINE
  5
4E1
330
1E
100
AcDbEntity
  8
HIDDEN
100
AcDbLine
 10
9.571752999999999
 20
26.823287
 30
0.0
 11
9.571752999999999
 21
26.74428699999999
 31
0.0
  0
LINE
  5
4E2
330
1E
100
AcDbEntity
  8
HIDDEN
100
AcDbLine
 10
9.571752999999999
 20
26.96728699999999
 30
0.0
 11
9.571752999999999
 21
26.888287
 31
0.0
  0
LINE
  5
4E3
330
1E
100
AcDbEntity
  8
HIDDEN
100
AcDbLine
 10
9.524753
 20
26.96728699999999
 30
0.0
 11
9.571752999999999
 21
26.96728699999999
 31
0.0
  0
LINE
  5
4E4
330
1E
100
AcDbEntity
  8
HIDDEN
100
AcDbLine
 10
9.524753
 20
27.032287
 30
0.0
 11
9.571752999999999
 21
27.032287
 31
0.0
  0
LINE
  5
4E5
330
1E
100
AcDbEntity
  8
HIDDEN
100
AcDbLine
 10
9.524753
 20
26.888287
 30
0.0
 11
9.571752999999999
 21
26.888287
 31
0.0
  0
LINE
  5
4E6
330
1E
100
AcDbEntity
  8
HIDDEN
100
AcDbLine
 10
9.524753
 20
26.823287
 30
0.0
 11
9.571752999999999
 21
26.823287
 31
0.0
  0
LINE
  5
4E7
330
1E
100
AcDbEntity
  8
HIDDEN
100
AcDbLine
 10
9.524753
 20
26.74428699999999
 30
0.0
 11
9.571752999999999
 21
26.74428699999999
 31
0.0
  0
LINE
  5
4E8
330
1E
100
AcDbEntity
  8
HIDDEN
100
AcDbLine
 10
9.524753
 20
26.679287
 30
0.0
 11
9.571752999999999
 21
26.679287
 31
0.0
  0
LINE
  5
4E9
330
1E
100
AcDbEntity
  8
HIDDEN
100
AcDbLine
 10
9.524753
 20
26.679287
 30
0.0
 11
9.524753
 21
26.74428699999999
 31
0.0
  0
LINE
  5
4EA
330
1E
100
AcDbEntity
  8
HIDDEN
100
AcDbLine
 10
9.524753
 20
26.823287
 30
0.0
 11
9.524753
 21
26.888287
 31
0.0
  0
LINE
  5
4EB
330
1E
100
AcDbEntity
  8
HIDDEN
100
AcDbLine
 10
9.524753
 20
26.96728699999999
 30
0.0
 11
9.524753
 21
27.032287
 31
0.0
  0
LINE
  5
4EC
330
1E
100
AcDbEntity
  8
HIDDEN
100
AcDbLine
 10
9.571752999999999
 20
26.74428699999999
 30
0.0
 11
9.571752999999999
 21
26.823287
 31
0.0
  0
LINE
  5
4ED
330
1E
100
AcDbEntity
  8
HIDDEN
100
AcDbLine
 10
9.571752999999999
 20
26.888287
 30
0.0
 11
9.571752999999999
 21
26.96728699999999
 31
0.0
  0
LINE
  5
4EE
330
1E
100
AcDbEntity
  8
HIDDEN
100
AcDbLine
 10
9.571752999999999
 20
27.032287
 30
0.0
 11
9.571752999999999
 21
27.343287
 31
0.0
  0
LINE
  5
4EF
330
1E
100
AcDbEntity
  8
HIDDEN
100
AcDbLine
 10
9.571752999999999
 20
27.42328699999999
 30
0.0
 11
9.571752999999999
 21
27.523287
 31
0.0
  0
LINE
  5
4F0
330
1E
100
AcDbEntity
  8
HIDDEN
100
AcDbLine
 10
9.379752999999999
 20
24.788787
 30
0.0
 11
9.571752999999999
 21
24.788787
 31
0.0
  0
LINE
  5
4F1
330
1E
100
AcDbEntity
  8
HIDDEN
100
AcDbLine
 10
9.379752999999999
 20
25.30378699999999
 30
0.0
 11
9.571752999999999
 21
25.30378699999999
 31
0.0
  0
LINE
  5
4F2
330
1E
100
AcDbEntity
  8
HIDDEN
100
AcDbLine
 10
9.379752999999999
 20
24.94778699999999
 30
0.0
 11
9.441753
 21
24.94778699999999
 31
0.0
  0
LINE
  5
4F3
330
1E
100
AcDbEntity
  8
HIDDEN
100
AcDbLine
 10
9.379752999999999
 20
25.144787
 30
0.0
 11
9.441753
 21
25.144787
 31
0.0
  0
LINE
  5
4F4
330
1E
100
AcDbEntity
  8
HIDDEN
100
AcDbLine
 10
9.441753
 20
25.015287
 30
0.0
 11
9.571752999999999
 21
25.015287
 31
0.0
  0
LINE
  5
4F5
330
1E
100
AcDbEntity
  8
HIDDEN
100
AcDbLine
 10
9.441753
 20
25.07728699999999
 30
0.0
 11
9.571752999999999
 21
25.07728699999999
 31
0.0
  0
LINE
  5
4F6
330
1E
100
AcDbEntity
  8
HIDDEN
100
AcDbLine
 10
9.441753
 20
24.788787
 30
0.0
 11
9.441753
 21
24.63613
 31
0.0
  0
LINE
  5
4F7
330
1E
100
AcDbEntity
  8
HIDDEN
100
AcDbLine
 10
9.441753
 20
25.241787
 30
0.0
 11
9.441753
 21
24.850787
 31
0.0
  0
LINE
  5
4F8
330
1E
100
AcDbEntity
  8
HIDDEN
100
AcDbLine
 10
9.463046999999999
 20
24.588287
 30
0.0
 11
9.571752999999999
 21
24.588287
 31
0.0
  0
LINE
  5
4F9
330
1E
100
AcDbEntity
  8
HIDDEN
100
AcDbLine
 10
9.462808
 20
24.523287
 30
0.0
 11
9.571752999999999
 21
24.523287
 31
0.0
  0
LINE
  5
4FA
330
1E
100
AcDbEntity
  8
HIDDEN
100
AcDbLine
 10
9.441753
 20
25.241787
 30
0.0
 11
9.571752999999999
 21
25.241787
 31
0.0
  0
LINE
  5
4FB
330
1E
100
AcDbEntity
  8
HIDDEN
100
AcDbLine
 10
9.441753
 20
24.850787
 30
0.0
 11
9.571752999999999
 21
24.850787
 31
0.0
  0
LINE
  5
4FC
330
1E
100
AcDbEntity
  8
HIDDEN
100
AcDbLine
 10
9.379752999999999
 20
25.30378699999999
 30
0.0
 11
9.379752999999999
 21
24.685867
 31
0.0
  0
LINE
  5
4FD
330
1E
100
AcDbEntity
  8
HIDDEN
100
AcDbLine
 10
9.571752999999999
 20
26.679287
 30
0.0
 11
9.571752999999999
 21
22.433287
 31
0.0
  0
DIMENSION
  5
4FE
330
1E
100
AcDbEntity
  8
DIM
100
AcDbDimension
  2
*D20
 10
10.357946
 20
17.673768
 30
0.0
 11
10.35794599999999
 21
17.043768
 31
0.0
 70
    32
 71
     5
 42
1.259999999999998
  3
DIM
100
AcDbAlignedDimension
 13
9.716753
 23
16.413768
 33
0.0
 14
9.691739999999999
 24
17.673768
 34
0.0
 50
90.0
100
AcDbRotatedDimension
  0
DIMENSION
  5
50C
330
1E
100
AcDbEntity
  8
DIM
100
AcDbDimension
  2
*D21
 10
6.686097999999999
 20
28.219042
 30
0.0
 11
5.596097999999999
 21
28.219042
 31
0.0
 70
    32
  1
J
 71
     5
 42
2.179999999999998
  3
DIM
100
AcDbAlignedDimension
 13
4.506098
 23
26.556287
 33
0.0
 14
6.686097999999999
 24
26.556287
 34
0.0
100
AcDbRotatedDimension
  0
DIMENSION
  5
51A
330
1E
100
AcDbEntity
  8
DIM
100
AcDbDimension
  2
*D22
 10
8.866097999999999
 20
28.219042
 30
0.0
 11
7.776097999999999
 21
28.219042
 31
0.0
 70
    32
  1
J
 71
     5
 42
2.179999999999999
  3
DIM
100
AcDbAlignedDimension
 13
6.686097999999999
 23
26.556287
 33
0.0
 14
8.866097999999999
 24
26.556287
 34
0.0
100
AcDbRotatedDimension
  0
DIMENSION
  5
528
330
1E
100
AcDbEntity
  8
DIM
100
AcDbDimension
  2
*D23
 10
9.571752999999999
 20
26.18695518219428
 30
0.0
 11
6.6864255
 21
26.18695518219428
 31
0.0
 70
   160
  1
H
 71
     5
 42
5.770654999999998
  3
DIM
100
AcDbAlignedDimension
 13
3.801098
 23
26.34609418219429
 33
0.0
 14
9.571752999999999
 24
26.34609418219429
 34
0.0
100
AcDbRotatedDimension
  0
LINE
  5
536
330
1E
100
AcDbEntity
  8
CENTER
100
AcDbLine
 10
4.243217999999999
 20
25.046287
 30
0.0
 11
3.505162
 21
25.046287
 31
0.0
  0
DIMENSION
  5
537
330
1E
100
AcDbEntity
  8
DIM
100
AcDbDimension
  2
*D24
 10
2.990519708576758
 20
21.396287
 30
0.0
 11
2.990519708576755
 21
23.93028737035703
 31
0.0
 70
   160
 71
     5
 42
3.649999999999998
  3
DIM
100
AcDbAlignedDimension
 13
3.505162
 23
25.046287
 33
0.0
 14
3.626098
 24
21.396287
 34
0.0
 50
90.0
100
AcDbRotatedDimension
  0
LWPOLYLINE
  5
545
330
1E
100
AcDbEntity
  8
DIM
100
AcDbPolyline
 90
        4
 70
     0
 10
4.564773
 20
26.68394799999999
 40
0.0
 41
0.135
 10
4.660463
 20
27.03099799999999
 40
0.0
 41
0.0
 10
5.355973999999999
 20
29.553501
 40
0.0
 41
0.0
 10
5.715974
 20
29.553501
 40
0.0
 41
0.0
  0
DIMENSION
  5
54B
330
1E
100
AcDbEntity
  8
DIM
100
AcDbDimension
  2
*D25
 10
3.118205
 20
15.278768
 30
0.0
 11
3.118204999999997
 21
16.41376799999999
 31
0.0
 70
    32
  1
C
 71
     5
 42
2.269999999999999
  3
DIM
100
AcDbAlignedDimension
 13
3.906098
 23
17.54876799999999
 33
0.0
 14
3.906098
 24
15.278768
 34
0.0
 50
90.0
100
AcDbRotatedDimension
  0
DIMENSION
  5
559
330
1E
100
AcDbEntity
  8
DIM
100
AcDbDimension
  2
*D26
 10
2.260399
 20
15.153768
 30
0.0
 11
2.260398999999997
 21
16.41376799999999
 31
0.0
 70
    32
  1
A
 71
     5
 42
2.519999999999999
  3
DIM
100
AcDbAlignedDimension
 13
3.681111
 23
17.673768
 33
0.0
 14
3.681111
 24
15.153768
 34
0.0
 50
90.0
100
AcDbRotatedDimension
  0
LINE
  5
567
330
1E
100
AcDbEntity
  8
0
  6
ByBlock
 62
     0
100
AcDbLine
 10
17.775226
 20
17.503768
 30
0.0
 11
18.65834299999999
 21
17.503768
 31
0.0
  0
LINE
  5
568
330
1E
100
AcDbEntity
  8
0
  6
ByBlock
 62
     0
100
AcDbLine
 10
17.775226
 20
15.32376799999999
 30
0.0
 11
18.65834299999999
 21
15.32376799999999
 31
0.0
  0
LINE
  5
569
330
1E
100
AcDbEntity
  8
0
  6
ByBlock
 62
     0
100
AcDbLine
 10
18.472343
 20
17.14376799999999
 30
0.0
 11
18.472343
 21
16.963344
 31
0.0
  0
LINE
  5
56A
330
1E
100
AcDbEntity
  8
0
  6
ByBlock
 62
     0
100
AcDbLine
 10
18.472343
 20
15.683768
 30
0.0
 11
18.472343
 21
15.83516799999999
 31
0.0
  0
SOLID
  5
56B
330
1E
100
AcDbEntity
  8
0
  6
ByBlock
 62
     0
100
AcDbTrace
 10
18.41234299999999
 20
17.14376799999999
 30
0.0
 11
18.532343
 21
17.14376799999999
 31
0.0
 12
18.472343
 22
17.503768
 32
0.0
 13
18.472343
 23
17.503768
 33
0.0
  0
SOLID
  5
56C
330
1E
100
AcDbEntity
  8
0
  6
ByBlock
 62
     0
100
AcDbTrace
 10
18.41234299999999
 20
15.683768
 30
0.0
 11
18.532343
 21
15.683768
 31
0.0
 12
18.472343
 22
15.32376799999999
 32
0.0
 13
18.472343
 23
15.32376799999999
 33
0.0
  0
POINT
  5
56D
330
1E
100
AcDbEntity
  8
DEFPOINTS
  6
ByBlock
 62
     0
100
AcDbPoint
 10
17.649226
 20
17.503768
 30
0.0
  0
POINT
  5
56E
330
1E
100
AcDbEntity
  8
DEFPOINTS
  6
ByBlock
 62
     0
100
AcDbPoint
 10
17.649226
 20
15.32376799999999
 30
0.0
  0
POINT
  5
56F
330
1E
100
AcDbEntity
  8
DEFPOINTS
  6
ByBlock
 62
     0
100
AcDbPoint
 10
18.472343
 20
15.32376799999999
 30
0.0
  0
TEXT
  5
570
330
1E
100
AcDbEntity
  8
DIM
100
AcDbText
 10
18.41096199999999
 20
16.64433599999999
 30
0.0
 40
0.25
  1
N
 41
0.75
100
AcDbText
  0
LINE
  5
571
330
1E
100
AcDbEntity
  8
OBJECT
100
AcDbLine
 10
12.45559499999999
 20
21.450644
 30
0.0
 11
12.45559499999999
 21
27.661929
 31
0.0
  0
LINE
  5
572
330
1E
100
AcDbEntity
  8
OBJECT
100
AcDbLine
 10
12.730595
 20
22.433287
 30
0.0
 11
13.700595
 21
22.433287
 31
0.0
  0
LINE
  5
573
330
1E
100
AcDbEntity
  8
OBJECT
100
AcDbLine
 10
12.58059499999999
 20
22.36828699999999
 30
0.0
 11
13.700595
 21
22.36828699999999
 31
0.0
  0
LINE
  5
574
330
1E
100
AcDbEntity
  8
OBJECT
100
AcDbLine
 10
12.58059499999999
 20
22.28928699999999
 30
0.0
 11
13.700595
 21
22.28928699999999
 31
0.0
  0
LINE
  5
575
330
1E
100
AcDbEntity
  8
OBJECT
100
AcDbLine
 10
12.58059499999999
 20
22.224287
 30
0.0
 11
13.700595
 21
22.224287
 31
0.0
  0
LINE
  5
576
330
1E
100
AcDbEntity
  8
OBJECT
100
AcDbLine
 10
12.58059499999999
 20
22.145287
 30
0.0
 11
13.700595
 21
22.145287
 31
0.0
  0
LINE
  5
577
330
1E
100
AcDbEntity
  8
OBJECT
100
AcDbLine
 10
12.58059499999999
 20
22.08028699999999
 30
0.0
 11
13.700595
 21
22.08028699999999
 31
0.0
  0
LINE
  5
578
330
1E
100
AcDbEntity
  8
OBJECT
100
AcDbLine
 10
12.627595
 20
21.58972299999999
 30
0.0
 11
12.54551
 21
21.446719
 31
0.0
  0
LINE
  5
579
330
1E
100
AcDbEntity
  8
OBJECT
100
AcDbLine
 10
9.605584
 20
21.446719
 30
0.0
 11
3.767266999999999
 21
21.446719
 31
0.0
  0
LINE
  5
57A
330
1E
100
AcDbEntity
  8
OBJECT
100
AcDbLine
 10
9.656667
 20
21.396287
 30
0.0
 11
9.605584
 21
21.446719
 31
0.0
  0
LINE
  5
57B
330
1E
100
AcDbEntity
  8
HIDDEN
100
AcDbLine
 10
9.605584
 20
21.446719
 30
0.0
 11
9.524753
 21
21.589287
 31
0.0
  0
LINE
  5
57C
330
1E
100
AcDbEntity
  8
OBJECT
100
AcDbLine
 10
3.716183999999999
 20
21.396287
 30
0.0
 11
3.767266999999999
 21
21.446719
 31
0.0
  0
LINE
  5
57D
330
1E
100
AcDbEntity
  8
OBJECT
100
AcDbLine
 10
3.767266999999999
 20
21.446719
 30
0.0
 11
3.848098
 21
21.589287
 31
0.0
  0
LINE
  5
57E
330
1E
100
AcDbEntity
  8
OBJECT
100
AcDbLine
 10
3.767266999999999
 20
27.665854
 30
0.0
 11
3.848098
 21
27.523287
 31
0.0
  0
LINE
  5
57F
330
1E
100
AcDbEntity
  8
OBJECT
100
AcDbLine
 10
3.716183999999999
 20
27.716287
 30
0.0
 11
3.767266999999999
 21
27.665854
 31
0.0
  0
LINE
  5
580
330
1E
100
AcDbEntity
  8
OBJECT
100
AcDbLine
 10
3.848098
 20
27.523287
 30
0.0
 11
3.716183999999999
 21
27.716287
 31
0.0
  0
LINE
  5
581
330
1E
100
AcDbEntity
  8
OBJECT
100
AcDbLine
 10
3.626098
 20
27.716287
 30
0.0
 11
3.716183999999999
 21
27.716287
 31
0.0
  0
LINE
  5
582
330
1E
100
AcDbEntity
  8
HIDDEN
100
AcDbLine
 10
9.605584
 20
27.665854
 30
0.0
 11
9.524753
 21
27.523287
 31
0.0
  0
LINE
  5
583
330
1E
100
AcDbEntity
  8
OBJECT
100
AcDbLine
 10
9.656667
 20
27.716287
 30
0.0
 11
9.605584
 21
27.665854
 31
0.0
  0
LINE
  5
584
330
1E
100
AcDbEntity
  8
OBJECT
100
AcDbLine
 10
9.746753
 20
27.716287
 30
0.0
 11
9.656667
 21
27.716287
 31
0.0
  0
LINE
  5
585
330
1E
100
AcDbEntity
  8
HIDDEN
100
AcDbLine
 10
9.524753
 20
27.523287
 30
0.0
 11
9.656667
 21
27.716287
 31
0.0
  0
LINE
  5
586
330
1E
100
AcDbEntity
  8
OBJECT
100
AcDbLine
 10
9.605584
 20
27.665854
 30
0.0
 11
3.767266999999999
 21
27.665854
 31
0.0
  0
LINE
  5
587
330
1E
100
AcDbEntity
  8
OBJECT
100
AcDbLine
 10
12.730595
 20
24.41578699999999
 30
0.0
 11
12.58059499999999
 21
24.41578699999999
 31
0.0
  0
LINE
  5
588
330
1E
100
AcDbEntity
  8
OBJECT
100
AcDbLine
 10
12.58059499999999
 20
24.696787
 30
0.0
 11
12.730595
 21
24.696787
 31
0.0
  0
LINE
  5
589
330
1E
100
AcDbEntity
  8
OBJECT
100
AcDbLine
 10
12.730595
 20
24.41578699999999
 30
0.0
 11
12.730595
 21
24.696787
 31
0.0
  0
LINE
  5
58A
330
1E
100
AcDbEntity
  8
HIDDEN
100
AcDbLine
 10
12.58059499999999
 20
27.343287
 30
0.0
 11
13.700595
 21
27.343287
 31
0.0
  0
LINE
  5
58B
330
1E
100
AcDbEntity
  8
HIDDEN
100
AcDbLine
 10
12.627595
 20
27.52285
 30
0.0
 11
12.54551
 21
27.665854
 31
0.0
  0
LINE
  5
58C
330
1E
100
AcDbEntity
  8
HIDDEN
100
AcDbLine
 10
12.627595
 20
27.42328699999999
 30
0.0
 11
12.627595
 21
27.343287
 31
0.0
  0
LINE
  5
58D
330
1E
100
AcDbEntity
  8
HIDDEN
100
AcDbLine
 10
12.565595
 20
27.52285
 30
0.0
 11
12.565595
 21
27.42328699999999
 31
0.0
  0
LINE
  5
58E
330
1E
100
AcDbEntity
  8
OBJECT
100
AcDbLine
 10
13.268595
 20
25.30378699999999
 30
0.0
 11
13.268595
 21
25.144787
 31
0.0
  0
LINE
  5
58F
330
1E
100
AcDbEntity
  8
OBJECT
100
AcDbLine
 10
12.768595
 20
25.144787
 30
0.0
 11
12.768595
 21
24.94778699999999
 31
0.0
  0
LINE
  5
590
330
1E
100
AcDbEntity
  8
OBJECT
100
AcDbLine
 10
12.768595
 20
24.788787
 30
0.0
 11
12.768595
 21
24.69628699999999
 31
0.0
  0
LINE
  5
591
330
1E
100
AcDbEntity
  8
OBJECT
100
AcDbLine
 10
13.268595
 20
24.94778699999999
 30
0.0
 11
13.268595
 21
24.788787
 31
0.0
  0
LINE
  5
592
330
1E
100
AcDbEntity
  8
HIDDEN
100
AcDbLine
 10
12.58059499999999
 20
27.032287
 30
0.0
 11
13.700595
 21
27.032287
 31
0.0
  0
LINE
  5
593
330
1E
100
AcDbEntity
  8
HIDDEN
100
AcDbLine
 10
12.58059499999999
 20
26.96728699999999
 30
0.0
 11
13.700595
 21
26.96728699999999
 31
0.0
  0
LINE
  5
594
330
1E
100
AcDbEntity
  8
HIDDEN
100
AcDbLine
 10
12.58059499999999
 20
26.888287
 30
0.0
 11
13.700595
 21
26.888287
 31
0.0
  0
LINE
  5
595
330
1E
100
AcDbEntity
  8
HIDDEN
100
AcDbLine
 10
12.58059499999999
 20
26.823287
 30
0.0
 11
13.700595
 21
26.823287
 31
0.0
  0
LINE
  5
596
330
1E
100
AcDbEntity
  8
HIDDEN
100
AcDbLine
 10
12.58059499999999
 20
26.74428699999999
 30
0.0
 11
13.700595
 21
26.74428699999999
 31
0.0
  0
LINE
  5
597
330
1E
100
AcDbEntity
  8
HIDDEN
100
AcDbLine
 10
12.730595
 20
26.679287
 30
0.0
 11
13.700595
 21
26.679287
 31
0.0
  0
LINE
  5
598
330
1E
100
AcDbEntity
  8
OBJECT
100
AcDbLine
 10
14.975595
 20
21.450644
 30
0.0
 11
14.975595
 21
27.661929
 31
0.0
  0
LINE
  5
599
330
1E
100
AcDbEntity
  8
HIDDEN
100
AcDbLine
 10
14.850595
 20
25.557284
 30
0.0
 11
14.850595
 21
27.343287
 31
0.0
  0
LINE
  5
59A
330
1E
100
AcDbEntity
  8
HIDDEN
100
AcDbLine
 10
14.850595
 20
26.823287
 30
0.0
 11
13.730595
 21
26.823287
 31
0.0
  0
LINE
  5
59B
330
1E
100
AcDbEntity
  8
HIDDEN
100
AcDbLine
 10
14.850595
 20
26.74428699999999
 30
0.0
 11
13.730595
 21
26.74428699999999
 31
0.0
  0
LINE
  5
59C
330
1E
100
AcDbEntity
  8
HIDDEN
100
AcDbLine
 10
14.700595
 20
26.679287
 30
0.0
 11
13.730595
 21
26.679287
 31
0.0
  0
LINE
  5
59D
330
1E
100
AcDbEntity
  8
HIDDEN
100
AcDbLine
 10
14.700595
 20
26.696787
 30
0.0
 11
14.850595
 21
26.696787
 31
0.0
  0
LINE
  5
59E
330
1E
100
AcDbEntity
  8
HIDDEN
100
AcDbLine
 10
14.700595
 20
26.696787
 30
0.0
 11
14.700595
 21
26.415787
 31
0.0
  0
LINE
  5
59F
330
1E
100
AcDbEntity
  8
HIDDEN
100
AcDbLine
 10
14.850595
 20
26.415787
 30
0.0
 11
14.700595
 21
26.415787
 31
0.0
  0
LINE
  5
5A0
330
1E
100
AcDbEntity
  8
HIDDEN
100
AcDbLine
 10
14.850595
 20
27.032287
 30
0.0
 11
13.730595
 21
27.032287
 31
0.0
  0
LINE
  5
5A1
330
1E
100
AcDbEntity
  8
HIDDEN
100
AcDbLine
 10
14.850595
 20
26.96728699999999
 30
0.0
 11
13.730595
 21
26.96728699999999
 31
0.0
  0
LINE
  5
5A2
330
1E
100
AcDbEntity
  8
HIDDEN
100
AcDbLine
 10
14.850595
 20
26.888287
 30
0.0
 11
13.730595
 21
26.888287
 31
0.0
  0
LINE
  5
5A3
330
1E
100
AcDbEntity
  8
HIDDEN
100
AcDbLine
 10
14.850595
 20
27.343287
 30
0.0
 11
13.730595
 21
27.343287
 31
0.0
  0
LINE
  5
5A4
330
1E
100
AcDbEntity
  8
OBJECT
100
AcDbLine
 10
13.730595
 20
27.716287
 30
0.0
 11
14.975595
 21
27.661929
 31
0.0
  0
LINE
  5
5A5
330
1E
100
AcDbEntity
  8
HIDDEN
100
AcDbLine
 10
14.865595
 20
27.52285
 30
0.0
 11
14.865595
 21
27.42328699999999
 31
0.0
  0
LINE
  5
5A6
330
1E
100
AcDbEntity
  8
HIDDEN
100
AcDbLine
 10
14.803595
 20
27.42328699999999
 30
0.0
 11
14.803595
 21
27.343287
 31
0.0
  0
LINE
  5
5A7
330
1E
100
AcDbEntity
  8
HIDDEN
100
AcDbLine
 10
14.803595
 20
27.52285
 30
0.0
 11
14.885681
 21
27.665854
 31
0.0
  0
LINE
  5
5A8
330
1E
100
AcDbEntity
  8
OBJECT
100
AcDbLine
 10
14.162595
 20
24.94778699999999
 30
0.0
 11
14.162595
 21
24.788787
 31
0.0
  0
LINE
  5
5A9
330
1E
100
AcDbEntity
  8
OBJECT
100
AcDbLine
 10
14.662595
 20
24.788787
 30
0.0
 11
14.162595
 21
24.788787
 31
0.0
  0
LINE
  5
5AA
330
1E
100
AcDbEntity
  8
OBJECT
100
AcDbLine
 10
14.700595
 20
24.416287
 30
0.0
 11
13.715595
 21
24.416287
 31
0.0
  0
LINE
  5
5AB
330
1E
100
AcDbEntity
  8
OBJECT
100
AcDbLine
 10
14.700595
 20
24.69628699999999
 30
0.0
 11
13.715595
 21
24.69628699999999
 31
0.0
  0
LINE
  5
5AC
330
1E
100
AcDbEntity
  8
OBJECT
100
AcDbLine
 10
14.662595
 20
24.788787
 30
0.0
 11
14.662595
 21
24.69628699999999
 31
0.0
  0
LINE
  5
5AD
330
1E
100
AcDbEntity
  8
OBJECT
100
AcDbLine
 10
14.700595
 20
24.41578699999999
 30
0.0
 11
14.700595
 21
24.696787
 31
0.0
  0
LINE
  5
5AE
330
1E
100
AcDbEntity
  8
OBJECT
100
AcDbLine
 10
14.850595
 20
24.696787
 30
0.0
 11
14.700595
 21
24.696787
 31
0.0
  0
LINE
  5
5AF
330
1E
100
AcDbEntity
  8
OBJECT
100
AcDbLine
 10
14.700595
 20
24.41578699999999
 30
0.0
 11
14.850595
 21
24.41578699999999
 31
0.0
  0
LINE
  5
5B0
330
1E
100
AcDbEntity
  8
OBJECT
100
AcDbLine
 10
14.662595
 20
24.94778699999999
 30
0.0
 11
14.162595
 21
24.94778699999999
 31
0.0
  0
LINE
  5
5B1
330
1E
100
AcDbEntity
  8
OBJECT
100
AcDbLine
 10
14.662595
 20
25.144787
 30
0.0
 11
14.162595
 21
25.144787
 31
0.0
  0
LINE
  5
5B2
330
1E
100
AcDbEntity
  8
OBJECT
100
AcDbLine
 10
14.850595
 20
25.30378699999999
 30
0.0
 11
14.162595
 21
25.30378699999999
 31
0.0
  0
LINE
  5
5B3
330
1E
100
AcDbEntity
  8
OBJECT
100
AcDbLine
 10
14.662595
 20
25.144787
 30
0.0
 11
14.662595
 21
24.94778699999999
 31
0.0
  0
LINE
  5
5B4
330
1E
100
AcDbEntity
  8
OBJECT
100
AcDbLine
 10
14.162595
 20
25.30378699999999
 30
0.0
 11
14.162595
 21
25.144787
 31
0.0
  0
LINE
  5
5B5
330
1E
100
AcDbEntity
  8
OBJECT
100
AcDbLine
 10
14.850595
 20
21.76928699999999
 30
0.0
 11
14.850595
 21
24.523287
 31
0.0
  0
LINE
  5
5B6
330
1E
100
AcDbEntity
  8
OBJECT
100
AcDbLine
 10
14.850595
 20
22.08028699999999
 30
0.0
 11
13.730595
 21
22.08028699999999
 31
0.0
  0
LINE
  5
5B7
330
1E
100
AcDbEntity
  8
OBJECT
100
AcDbLine
 10
14.850595
 20
22.145287
 30
0.0
 11
13.730595
 21
22.145287
 31
0.0
  0
LINE
  5
5B8
330
1E
100
AcDbEntity
  8
OBJECT
100
AcDbLine
 10
14.850595
 20
22.224287
 30
0.0
 11
13.730595
 21
22.224287
 31
0.0
  0
LINE
  5
5B9
330
1E
100
AcDbEntity
  8
OBJECT
100
AcDbLine
 10
14.850595
 20
22.28928699999999
 30
0.0
 11
13.730595
 21
22.28928699999999
 31
0.0
  0
LINE
  5
5BA
330
1E
100
AcDbEntity
  8
OBJECT
100
AcDbLine
 10
14.850595
 20
22.36828699999999
 30
0.0
 11
13.730595
 21
22.36828699999999
 31
0.0
  0
LINE
  5
5BB
330
1E
100
AcDbEntity
  8
OBJECT
100
AcDbLine
 10
14.700595
 20
22.433287
 30
0.0
 11
13.730595
 21
22.433287
 31
0.0
  0
LINE
  5
5BC
330
1E
100
AcDbEntity
  8
OBJECT
100
AcDbLine
 10
14.850595
 20
21.76928699999999
 30
0.0
 11
13.730595
 21
21.76928699999999
 31
0.0
  0
LINE
  5
5BD
330
1E
100
AcDbEntity
  8
OBJECT
100
AcDbLine
 10
14.700595
 20
22.41578699999999
 30
0.0
 11
14.850595
 21
22.41578699999999
 31
0.0
  0
LINE
  5
5BE
330
1E
100
AcDbEntity
  8
OBJECT
100
AcDbLine
 10
14.850595
 20
22.696787
 30
0.0
 11
14.700595
 21
22.696787
 31
0.0
  0
LINE
  5
5BF
330
1E
100
AcDbEntity
  8
OBJECT
100
AcDbLine
 10
14.700595
 20
22.41578699999999
 30
0.0
 11
14.700595
 21
22.696787
 31
0.0
  0
LINE
  5
5C0
330
1E
100
AcDbEntity
  8
OBJECT
100
AcDbLine
 10
14.803595
 20
21.58972299999999
 30
0.0
 11
14.885681
 21
21.446719
 31
0.0
  0
LINE
  5
5C1
330
1E
100
AcDbEntity
  8
OBJECT
100
AcDbLine
 10
14.803595
 20
21.68928699999999
 30
0.0
 11
14.803595
 21
21.76928699999999
 31
0.0
  0
LINE
  5
5C2
330
1E
100
AcDbEntity
  8
OBJECT
100
AcDbLine
 10
14.865595
 20
21.58972299999999
 30
0.0
 11
14.865595
 21
21.68928699999999
 31
0.0
  0
LINE
  5
5C3
330
1E
100
AcDbEntity
  8
OBJECT
100
AcDbLine
 10
13.730595
 20
21.396287
 30
0.0
 11
14.975595
 21
21.450644
 31
0.0
  0
LINE
  5
5C4
330
1E
100
AcDbEntity
  8
HIDDEN
100
AcDbLine
 10
12.565595
 20
27.52285
 30
0.0
 11
14.865595
 21
27.52285
 31
0.0
  0
LINE
  5
5C5
330
1E
100
AcDbEntity
  8
HIDDEN
100
AcDbLine
 10
12.565595
 20
27.42328699999999
 30
0.0
 11
14.865595
 21
27.42328699999999
 31
0.0
  0
LWPOLYLINE
  5
5C6
330
1E
100
AcDbEntity
  8
OBJECT
100
AcDbPolyline
 90
        4
 70
     0
 43
0.0
 10
14.975595
 20
25.576682
 42
-0.105099
 10
13.92624999999999
 20
25.608614
 42
0.183916
 10
13.224099
 20
25.597255
 42
0.000838
 10
12.45559499999999
 20
25.41265199999999
 42
-0.118221
  0
LINE
  5
5CC
330
1E
100
AcDbEntity
  8
OBJECT
100
AcDbLine
 10
12.58059499999999
 20
24.588287
 30
0.0
 11
12.651595
 21
24.588287
 31
0.0
  0
LINE
  5
5CD
330
1E
100
AcDbEntity
  8
OBJECT
100
AcDbLine
 10
12.58059499999999
 20
24.523287
 30
0.0
 11
12.651595
 21
24.523287
 31
0.0
  0
LINE
  5
5CE
330
1E
100
AcDbEntity
  8
OBJECT
100
AcDbLine
 10
12.651595
 20
24.523287
 30
0.0
 11
12.651595
 21
24.588287
 31
0.0
  0
LINE
  5
5CF
330
1E
100
AcDbEntity
  8
OBJECT
100
AcDbLine
 10
12.58059499999999
 20
24.588287
 30
0.0
 11
12.58059499999999
 21
25.442863
 31
0.0
  0
LINE
  5
5D0
330
1E
100
AcDbEntity
  8
OBJECT
100
AcDbLine
 10
14.779595
 20
24.523287
 30
0.0
 11
14.779595
 21
24.588287
 31
0.0
  0
LINE
  5
5D1
330
1E
100
AcDbEntity
  8
OBJECT
100
AcDbLine
 10
14.850595
 20
24.588287
 30
0.0
 11
14.779595
 21
24.588287
 31
0.0
  0
LINE
  5
5D2
330
1E
100
AcDbEntity
  8
OBJECT
100
AcDbLine
 10
14.850595
 20
24.523287
 30
0.0
 11
14.779595
 21
24.523287
 31
0.0
  0
LINE
  5
5D3
330
1E
100
AcDbEntity
  8
OBJECT
100
AcDbLine
 10
14.850595
 20
24.588287
 30
0.0
 11
14.850595
 21
25.557284
 31
0.0
  0
INSERT
  5
5D4
330
1E
100
AcDbEntity
  8
OBJECT
100
AcDbBlockReference
  2
*X1
 10
0.380153
 20
-0.096754
 30
0.0
1001
ACAD
1000
HATCH
1002
{
1070
    16
1000
ANSI31
1040
0.75
1040
0.0
1002
}
  0
INSERT
  5
5D5
330
1E
100
AcDbEntity
  8
OBJECT
100
AcDbBlockReference
  2
*X2
 10
0.380153
 20
-0.096754
 30
0.0
1001
ACAD
1000
HATCH
1002
{
1070
    16
1000
ANSI31
1040
0.75
1040
0.0
1002
}
  0
INSERT
  5
5D6
330
1E
100
AcDbEntity
  8
OBJECT
100
AcDbBlockReference
  2
*X3
 10
0.380153
 20
-0.096754
 30
0.0
1001
ACAD
1000
HATCH
1002
{
1070
    16
1000
ANSI31
1040
0.75
1040
1.570795999999999
1002
}
  0
INSERT
  5
5D7
330
1E
100
AcDbEntity
  8
OBJECT
100
AcDbBlockReference
  2
*X4
 10
0.246149
 20
-1.381615999999999
 30
0.0
1001
ACAD
1000
HATCH
1002
{
1070
    16
1000
ANSI31
1040
0.75
1040
1.570795999999999
1002
}
  0
INSERT
  5
5D8
330
1E
100
AcDbEntity
  8
OBJECT
100
AcDbBlockReference
  2
*X5
 10
0.246149
 20
-1.381615999999999
 30
0.0
1001
ACAD
1000
HATCH
1002
{
1070
    16
1000
ANSI31
1040
0.75
1040
0.0
1002
}
  0
DIMENSION
  5
5D9
330
1E
100
AcDbEntity
  8
DIM
100
AcDbDimension
  2
*D27
 10
11.944226
 20
13.368239
 30
0.0
 11
14.819226
 21
13.368239
 31
0.0
 70
    32
  1
M
 71
     5
 42
5.750000000000001
  3
STD
100
AcDbAlignedDimension
 13
17.694226
 23
12.603587
 33
0.0
 14
11.944226
 24
12.603587
 34
0.0
100
AcDbRotatedDimension
  0
TEXT
  5
5E7
330
1E
100
AcDbEntity
  8
TEXT
100
AcDbText
 10
13.347082
 20
10.94261499999999
 30
0.0
 40
0.25
  1
PANEL-
 41
0.75
100
AcDbText
  0
LINE
  5
5E8
330
1E
100
AcDbEntity
  8
BEND
100
AcDbLine
 10
11.98922599999999
 20
12.52858699999999
 30
0.0
 11
17.649226
 21
12.52858699999999
 31
0.0
  0
LINE
  5
5E9
330
1E
100
AcDbEntity
  8
BEND
100
AcDbLine
 10
11.98922599999999
 20
9.598587
 30
0.0
 11
17.649226
 21
9.598587
 31
0.0
  0
LINE
  5
5EA
330
1E
100
AcDbEntity
  8
OBJECT
100
AcDbLine
 10
12.00622599999999
 20
12.603587
 30
0.0
 11
17.63222599999999
 21
12.603587
 31
0.0
  0
LINE
  5
5EB
330
1E
100
AcDbEntity
  8
OBJECT
100
AcDbLine
 10
12.00622599999999
 20
9.523586999999999
 30
0.0
 11
17.63222599999999
 21
9.523586999999999
 31
0.0
  0
DIMENSION
  5
5EC
330
1E
100
AcDbEntity
  8
DIM
100
AcDbDimension
  2
*D28
 10
3.118205
 20
9.408586999999998
 30
0.0
 11
2.250079999999998
 21
8.688586999999998
 31
0.0
 70
    32
 71
     5
 42
0.125
  3
STD
100
AcDbAlignedDimension
 13
3.801098
 23
9.533586999999998
 33
0.0
 14
3.681111
 24
9.408586999999998
 34
0.0
 50
90.0
100
AcDbRotatedDimension
  0
DIMENSION
  5
5FA
330
1E
100
AcDbEntity
  8
DIM
100
AcDbDimension
  2
*D29
 10
10.357946
 20
9.408586999999998
 30
0.0
 11
10.35794599999999
 21
10.038587
 31
0.0
 70
    32
 71
     5
 42
1.259999999999999
  3
DIM
100
AcDbAlignedDimension
 13
9.716753
 23
10.66858699999999
 33
0.0
 14
9.691739999999999
 24
9.408586999999998
 34
0.0
 50
90.0
100
AcDbRotatedDimension
  0
LINE
  5
608
330
1E
100
AcDbEntity
  8
OBJECT
100
AcDbLine
 10
9.746097999999999
 20
10.65358699999999
 30
0.0
 11
9.691739999999999
 21
9.408586999999998
 31
0.0
  0
LINE
  5
609
330
1E
100
AcDbEntity
  8
OBJECT
100
AcDbLine
 10
9.656011999999998
 20
10.65358699999999
 30
0.0
 11
9.605584
 21
9.498586999999998
 31
0.0
  0
LINE
  5
60A
330
1E
100
AcDbEntity
  8
OBJECT
100
AcDbLine
 10
9.524753
 20
9.548586999999999
 30
0.0
 11
9.524753
 21
10.65358699999999
 31
0.0
  0
LINE
  5
60B
330
1E
100
AcDbEntity
  8
HIDDEN
100
AcDbLine
 10
9.466753
 20
9.548586999999999
 30
0.0
 11
9.466753
 21
10.66858699999999
 31
0.0
  0
LINE
  5
60C
330
1E
100
AcDbEntity
  8
HIDDEN
100
AcDbLine
 10
9.186752999999999
 20
9.548586999999999
 30
0.0
 11
9.186752999999999
 21
10.66858699999999
 31
0.0
  0
LINE
  5
60D
330
1E
100
AcDbEntity
  8
OBJECT
100
AcDbLine
 10
4.186098
 20
9.533586999999998
 30
0.0
 11
4.186098
 21
10.66858699999999
 31
0.0
  0
LINE
  5
60E
330
1E
100
AcDbEntity
  8
OBJECT
100
AcDbLine
 10
3.801098
 20
9.533586999999998
 30
0.0
 11
3.801098
 21
10.65358699999999
 31
0.0
  0
LINE
  5
60F
330
1E
100
AcDbEntity
  8
OBJECT
100
AcDbLine
 10
3.848098
 20
9.533586999999998
 30
0.0
 11
3.848098
 21
10.65358699999999
 31
0.0
  0
LINE
  5
610
330
1E
100
AcDbEntity
  8
OBJECT
100
AcDbLine
 10
3.626752999999999
 20
10.65358699999999
 30
0.0
 11
3.681111
 21
9.408586999999998
 31
0.0
  0
LINE
  5
611
330
1E
100
AcDbEntity
  8
OBJECT
100
AcDbLine
 10
3.906098
 20
9.533586999999998
 30
0.0
 11
3.906098
 21
10.66858699999999
 31
0.0
  0
DIMENSION
  5
612
330
1E
100
AcDbEntity
  8
DIM
100
AcDbDimension
  2
*D30
 10
5.563298999999999
 20
12.43358699999999
 30
0.0
 11
5.563298999999997
 21
11.058587
 31
0.0
 70
    32
  1
D
 71
     5
 42
2.75
  3
DIM
100
AcDbAlignedDimension
 13
4.646598
 23
9.683586999999999
 33
0.0
 14
4.646598
 24
12.43358699999999
 34
0.0
 50
90.0
100
AcDbRotatedDimension
  0
DIMENSION
  5
620
330
1E
100
AcDbEntity
  8
DIM
100
AcDbDimension
  2
*D31
 10
5.563298999999999
 20
9.408586999999998
 30
0.0
 11
4.663923999999998
 21
8.688587
 31
0.0
 70
    32
 71
     5
 42
0.2750000000000003
  3
STD
100
AcDbAlignedDimension
 13
4.646598
 23
9.683586999999999
 33
0.0
 14
4.944683
 24
9.408586999999998
 34
0.0
 50
90.0
100
AcDbRotatedDimension
  0
DIMENSION
  5
62E
330
1E
100
AcDbEntity
  8
DIM
100
AcDbDimension
  2
*D32
 10
11.311674
 20
12.603587
 30
0.0
 11
11.31167399999999
 21
11.063587
 31
0.0
 70
    32
  1
L
 71
     5
 42
3.08
  3
DIM
100
AcDbAlignedDimension
 13
11.944226
 23
9.523586999999999
 33
0.0
 14
11.944226
 24
12.603587
 34
0.0
 50
90.0
100
AcDbRotatedDimension
  0
LINE
  5
63C
330
1E
100
AcDbEntity
  8
BEND
100
AcDbLine
 10
11.98922599999999
 20
9.598587
 30
0.0
 11
11.98922599999999
 21
12.52858699999999
 31
0.0
  0
LINE
  5
63D
330
1E
100
AcDbEntity
  8
OBJECT
100
AcDbLine
 10
11.944226
 20
9.585587
 30
0.0
 11
11.944226
 21
12.541587
 31
0.0
  0
LINE
  5
63E
330
1E
100
AcDbEntity
  8
OBJECT
100
AcDbLine
 10
9.605584
 20
9.498586999999998
 30
0.0
 11
7.960233
 21
9.498586999999998
 31
0.0
  0
LINE
  5
63F
330
1E
100
AcDbEntity
  8
OBJECT
100
AcDbLine
 10
9.524753
 20
9.548586999999999
 30
0.0
 11
7.941441999999999
 21
9.548586999999999
 31
0.0
  0
LINE
  5
640
330
1E
100
AcDbEntity
  8
OBJECT
100
AcDbLine
 10
3.681111
 20
9.408586999999998
 30
0.0
 11
9.691739999999999
 21
9.408586999999998
 31
0.0
  0
LINE
  5
641
330
1E
100
AcDbEntity
  8
OBJECT
100
AcDbLine
 10
7.947078999999999
 20
9.533586999999998
 30
0.0
 11
3.801098
 21
9.533586999999998
 31
0.0
  0
LINE
  5
642
330
1E
100
AcDbEntity
  8
OBJECT
100
AcDbLine
 10
4.646598
 20
9.533586999999998
 30
0.0
 11
4.646598
 21
9.683586999999999
 31
0.0
  0
LINE
  5
643
330
1E
100
AcDbEntity
  8
OBJECT
100
AcDbLine
 10
4.365598
 20
9.533586999999998
 30
0.0
 11
4.365598
 21
9.683586999999999
 31
0.0
  0
LINE
  5
644
330
1E
100
AcDbEntity
  8
OBJECT
100
AcDbLine
 10
4.646598
 20
9.683586999999999
 30
0.0
 11
4.365598
 21
9.683586999999999
 31
0.0
  0
LINE
  5
645
330
1E
100
AcDbEntity
  8
OBJECT
100
AcDbLine
 10
6.826597999999999
 20
9.683586999999999
 30
0.0
 11
6.545598
 21
9.683586999999999
 31
0.0
  0
LINE
  5
646
330
1E
100
AcDbEntity
  8
OBJECT
100
AcDbLine
 10
6.545598
 20
9.533586999999998
 30
0.0
 11
6.545598
 21
9.683586999999999
 31
0.0
  0
LINE
  5
647
330
1E
100
AcDbEntity
  8
OBJECT
100
AcDbLine
 10
6.826597999999999
 20
9.533586999999998
 30
0.0
 11
6.826597999999999
 21
9.683586999999999
 31
0.0
  0
LINE
  5
648
330
1E
100
AcDbEntity
  8
HIDDEN
100
AcDbLine
 10
8.725597999999999
 20
9.548586999999999
 30
0.0
 11
8.725597999999999
 21
9.683586999999999
 31
0.0
  0
LINE
  5
649
330
1E
100
AcDbEntity
  8
HIDDEN
100
AcDbLine
 10
9.006598
 20
9.548586999999999
 30
0.0
 11
9.006598
 21
9.683586999999999
 31
0.0
  0
LINE
  5
64A
330
1E
100
AcDbEntity
  8
HIDDEN
100
AcDbLine
 10
8.725597999999999
 20
9.683586999999999
 30
0.0
 11
9.006598
 21
9.683586999999999
 31
0.0
  0
LINE
  5
64B
330
1E
100
AcDbEntity
  8
OBJECT
100
AcDbLine
 10
9.605584
 20
9.498586999999998
 30
0.0
 11
9.524753
 21
9.548586999999999
 31
0.0
  0
ARC
  5
64C
330
1E
100
AcDbEntity
  8
OBJECT
100
AcDbCircle
 10
12.00622599999999
 20
9.585587
 30
0.0
 40
0.062
100
AcDbArc
 50
180.0
 51
270.0
  0
LINE
  5
64D
330
1E
100
AcDbEntity
  8
OBJECT
100
AcDbLine
 10
3.681111
 20
12.708587
 30
0.0
 11
9.691739999999999
 21
12.708587
 31
0.0
  0
LINE
  5
64E
330
1E
100
AcDbEntity
  8
OBJECT
100
AcDbLine
 10
9.524753
 20
12.56858699999999
 30
0.0
 11
7.896741999999999
 21
12.56858699999999
 31
0.0
  0
LINE
  5
64F
330
1E
100
AcDbEntity
  8
OBJECT
100
AcDbLine
 10
9.605584
 20
12.618587
 30
0.0
 11
7.917902999999999
 21
12.618587
 31
0.0
  0
LINE
  5
650
330
1E
100
AcDbEntity
  8
OBJECT
100
AcDbLine
 10
7.903091
 20
12.583587
 30
0.0
 11
3.801098
 21
12.583587
 31
0.0
  0
LINE
  5
651
330
1E
100
AcDbEntity
  8
OBJECT
100
AcDbLine
 10
3.906098
 20
11.448587
 30
0.0
 11
4.186098
 21
11.448587
 31
0.0
  0
LINE
  5
652
330
1E
100
AcDbEntity
  8
OBJECT
100
AcDbLine
 10
3.801098
 20
12.583587
 30
0.0
 11
3.801098
 21
11.463587
 31
0.0
  0
LINE
  5
653
330
1E
100
AcDbEntity
  8
OBJECT
100
AcDbLine
 10
3.848098
 20
12.583587
 30
0.0
 11
3.848098
 21
11.463587
 31
0.0
  0
LINE
  5
654
330
1E
100
AcDbEntity
  8
OBJECT
100
AcDbLine
 10
3.906098
 20
12.583587
 30
0.0
 11
3.906098
 21
11.448587
 31
0.0
  0
LINE
  5
655
330
1E
100
AcDbEntity
  8
OBJECT
100
AcDbLine
 10
3.626752999999999
 20
11.463587
 30
0.0
 11
3.681111
 21
12.708587
 31
0.0
  0
LINE
  5
656
330
1E
100
AcDbEntity
  8
OBJECT
100
AcDbLine
 10
3.626752999999999
 20
10.65358699999999
 30
0.0
 11
3.848098
 21
10.65358699999999
 31
0.0
  0
LINE
  5
657
330
1E
100
AcDbEntity
  8
OBJECT
100
AcDbLine
 10
3.626752999999999
 20
11.463587
 30
0.0
 11
3.848098
 21
11.463587
 31
0.0
  0
LINE
  5
658
330
1E
100
AcDbEntity
  8
OBJECT
100
AcDbLine
 10
4.186098
 20
12.583587
 30
0.0
 11
4.186098
 21
11.448587
 31
0.0
  0
LINE
  5
659
330
1E
100
AcDbEntity
  8
OBJECT
100
AcDbLine
 10
4.646598
 20
12.583587
 30
0.0
 11
4.646598
 21
12.43358699999999
 31
0.0
  0
LINE
  5
65A
330
1E
100
AcDbEntity
  8
OBJECT
100
AcDbLine
 10
4.365598
 20
12.583587
 30
0.0
 11
4.365598
 21
12.43358699999999
 31
0.0
  0
LINE
  5
65B
330
1E
100
AcDbEntity
  8
OBJECT
100
AcDbLine
 10
4.646598
 20
12.43358699999999
 30
0.0
 11
4.365598
 21
12.43358699999999
 31
0.0
  0
LINE
  5
65C
330
1E
100
AcDbEntity
  8
OBJECT
100
AcDbLine
 10
6.826597999999999
 20
12.43358699999999
 30
0.0
 11
6.545598
 21
12.43358699999999
 31
0.0
  0
LINE
  5
65D
330
1E
100
AcDbEntity
  8
OBJECT
100
AcDbLine
 10
6.545598
 20
12.583587
 30
0.0
 11
6.545598
 21
12.43358699999999
 31
0.0
  0
LINE
  5
65E
330
1E
100
AcDbEntity
  8
OBJECT
100
AcDbLine
 10
6.826597999999999
 20
12.583587
 30
0.0
 11
6.826597999999999
 21
12.43358699999999
 31
0.0
  0
LINE
  5
65F
330
1E
100
AcDbEntity
  8
HIDDEN
100
AcDbLine
 10
9.186752999999999
 20
12.56858699999999
 30
0.0
 11
9.186752999999999
 21
11.448587
 31
0.0
  0
LINE
  5
660
330
1E
100
AcDbEntity
  8
HIDDEN
100
AcDbLine
 10
9.466753
 20
12.56858699999999
 30
0.0
 11
9.466753
 21
11.448587
 31
0.0
  0
LINE
  5
661
330
1E
100
AcDbEntity
  8
OBJECT
100
AcDbLine
 10
9.524753
 20
12.56858699999999
 30
0.0
 11
9.524753
 21
11.463587
 31
0.0
  0
LINE
  5
662
330
1E
100
AcDbEntity
  8
OBJECT
100
AcDbLine
 10
9.656011999999998
 20
11.463587
 30
0.0
 11
9.605584
 21
12.618587
 31
0.0
  0
LINE
  5
663
330
1E
100
AcDbEntity
  8
OBJECT
100
AcDbLine
 10
9.746097999999999
 20
11.463587
 30
0.0
 11
9.691739999999999
 21
12.708587
 31
0.0
  0
LINE
  5
664
330
1E
100
AcDbEntity
  8
OBJECT
100
AcDbLine
 10
9.524753
 20
10.65358699999999
 30
0.0
 11
9.746097999999999
 21
10.65358699999999
 31
0.0
  0
LINE
  5
665
330
1E
100
AcDbEntity
  8
HIDDEN
100
AcDbLine
 10
9.466753
 20
11.448587
 30
0.0
 11
9.186752999999999
 21
11.448587
 31
0.0
  0
LINE
  5
666
330
1E
100
AcDbEntity
  8
OBJECT
100
AcDbLine
 10
9.524753
 20
11.463587
 30
0.0
 11
9.746097999999999
 21
11.463587
 31
0.0
  0
LINE
  5
667
330
1E
100
AcDbEntity
  8
HIDDEN
100
AcDbLine
 10
8.725597999999999
 20
12.56858699999999
 30
0.0
 11
8.725597999999999
 21
12.43358699999999
 31
0.0
  0
LINE
  5
668
330
1E
100
AcDbEntity
  8
HIDDEN
100
AcDbLine
 10
9.006598
 20
12.56858699999999
 30
0.0
 11
9.006598
 21
12.43358699999999
 31
0.0
  0
LINE
  5
669
330
1E
100
AcDbEntity
  8
HIDDEN
100
AcDbLine
 10
8.725597999999999
 20
12.43358699999999
 30
0.0
 11
9.006598
 21
12.43358699999999
 31
0.0
  0
LINE
  5
66A
330
1E
100
AcDbEntity
  8
OBJECT
100
AcDbLine
 10
9.605584
 20
12.618587
 30
0.0
 11
9.524753
 21
12.56858699999999
 31
0.0
  0
ARC
  5
66B
330
1E
100
AcDbEntity
  8
OBJECT
100
AcDbCircle
 10
12.00622599999999
 20
12.541587
 30
0.0
 40
0.062
100
AcDbArc
 50
90.0
 51
180.0
  0
LINE
  5
66C
330
1E
100
AcDbEntity
  8
0
  6
ByBlock
 62
     0
100
AcDbLine
 10
18.472343
 20
9.958586999999999
 30
0.0
 11
18.472343
 21
10.47008399999999
 31
0.0
  0
LINE
  5
66D
330
1E
100
AcDbEntity
  8
BEND
100
AcDbLine
 10
17.649226
 20
9.598587
 30
0.0
 11
17.649226
 21
12.52858699999999
 31
0.0
  0
LINE
  5
66E
330
1E
100
AcDbEntity
  8
OBJECT
100
AcDbLine
 10
17.694226
 20
9.585587
 30
0.0
 11
17.694226
 21
12.541587
 31
0.0
  0
LINE
  5
66F
330
1E
100
AcDbEntity
  8
0
  6
ByBlock
 62
     0
100
AcDbLine
 10
17.775226
 20
9.598587
 30
0.0
 11
18.65834299999999
 21
9.598587
 31
0.0
  0
POINT
  5
670
330
1E
100
AcDbEntity
  8
DEFPOINTS
  6
ByBlock
 62
     0
100
AcDbPoint
 10
17.649226
 20
9.598587
 30
0.0
  0
POINT
  5
671
330
1E
100
AcDbEntity
  8
DEFPOINTS
  6
ByBlock
 62
     0
100
AcDbPoint
 10
17.649226
 20
9.598587
 30
0.0
  0
ARC
  5
672
330
1E
100
AcDbEntity
  8
OBJECT
100
AcDbCircle
 10
17.63222599999999
 20
9.585587
 30
0.0
 40
0.062
100
AcDbArc
 50
270.0
 51
0.0
  0
POINT
  5
673
330
1E
100
AcDbEntity
  8
DEFPOINTS
  6
ByBlock
 62
     0
100
AcDbPoint
 10
18.472343
 20
9.598587
 30
0.0
  0
SOLID
  5
674
330
1E
100
AcDbEntity
  8
0
  6
ByBlock
 62
     0
100
AcDbTrace
 10
18.41234299999999
 20
9.958586999999999
 30
0.0
 11
18.532343
 21
9.958586999999999
 31
0.0
 12
18.472343
 22
9.598587
 32
0.0
 13
18.472343
 23
9.598587
 33
0.0
  0
TEXT
  5
675
330
1E
100
AcDbEntity
  8
TEXT
100
AcDbText
 10
14.62239
 20
10.94591799999999
 30
0.0
 40
0.25
  1
0.090 THICK
 41
0.75
100
AcDbText
  0
LINE
  5
676
330
1E
100
AcDbEntity
  8
0
  6
ByBlock
 62
     0
100
AcDbLine
 10
17.775226
 20
12.52858699999999
 30
0.0
 11
18.65834299999999
 21
12.52858699999999
 31
0.0
  0
TEXT
  5
677
330
1E
100
AcDbEntity
  8
DIM
100
AcDbText
 10
17.839654
 20
10.93522199999999
 30
0.0
 40
0.25
  1
EXPOSED
 41
0.75
100
AcDbText
  0
POINT
  5
678
330
1E
100
AcDbEntity
  8
DEFPOINTS
  6
ByBlock
 62
     0
100
AcDbPoint
 10
17.649226
 20
12.52858699999999
 30
0.0
  0
POINT
  5
679
330
1E
100
AcDbEntity
  8
DEFPOINTS
  6
ByBlock
 62
     0
100
AcDbPoint
 10
17.649226
 20
12.52858699999999
 30
0.0
  0
ARC
  5
67A
330
1E
100
AcDbEntity
  8
OBJECT
100
AcDbCircle
 10
17.63222599999999
 20
12.541587
 30
0.0
 40
0.062
100
AcDbArc
 50
0.0
 51
90.0
  0
TEXT
  5
67B
330
1E
100
AcDbEntity
  8
DIM
100
AcDbText
 10
18.41096199999999
 20
11.30572099999999
 30
0.0
 40
0.25
  1
N
 41
0.75
100
AcDbText
  0
TEXT
  5
67C
330
1E
100
AcDbEntity
  8
DIM
100
AcDbText
 10
18.046856
 20
10.57522999999999
 30
0.0
 40
0.25
  1
PANEL
 41
0.75
100
AcDbText
  0
SOLID
  5
67D
330
1E
100
AcDbEntity
  8
0
  6
ByBlock
 62
     0
100
AcDbTrace
 10
18.41234299999999
 20
12.16858699999999
 30
0.0
 11
18.532343
 21
12.16858699999999
 31
0.0
 12
18.472343
 22
12.52858699999999
 32
0.0
 13
18.472343
 23
12.52858699999999
 33
0.0
  0
LINE
  5
67E
330
1E
100
AcDbEntity
  8
0
  6
ByBlock
 62
     0
100
AcDbLine
 10
18.472343
 20
12.16858699999999
 30
0.0
 11
18.472343
 21
11.628066
 31
0.0
  0
POLYLINE
  5
67F
330
1E
100
AcDbEntity
  8
OBJECT
100
AcDb2dPolyline
 66
     1
 10
0.0
 20
0.0
 30
0.0
 70
     4
 75
     6
  0
VERTEX
  5
680
330
67F
100
AcDbEntity
  8
OBJECT
100
AcDbVertex
100
AcDb2dVertex
 10
7.955992
 20
12.708587
 30
0.0
 70
    16
  0
VERTEX
  5
681
330
67F
100
AcDbEntity
  8
OBJECT
100
AcDbVertex
100
AcDb2dVertex
 10
7.955992
 20
12.708587
 30
0.0
 70
     8
  0
VERTEX
  5
682
330
67F
100
AcDbEntity
  8
OBJECT
100
AcDbVertex
100
AcDb2dVertex
 10
7.851818999999999
 20
12.460138
 30
0.0
 70
     8
  0
VERTEX
  5
683
330
67F
100
AcDbEntity
  8
OBJECT
100
AcDbVertex
100
AcDb2dVertex
 10
7.789058999999999
 20
12.235656
 30
0.0
 70
     8
  0
VERTEX
  5
684
330
67F
100
AcDbEntity
  8
OBJECT
100
AcDbVertex
100
AcDb2dVertex
 10
7.758932
 20
12.031425
 30
0.0
 70
     8
  0
VERTEX
  5
685
330
67F
100
AcDbEntity
  8
OBJECT
100
AcDbVertex
100
AcDb2dVertex
 10
7.752658
 20
11.843729
 30
0.0
 70
     8
  0
VERTEX
  5
686
330
67F
100
AcDbEntity
  8
OBJECT
100
AcDbVertex
100
AcDb2dVertex
 10
7.761457
 20
11.668853
 30
0.0
 70
     8
  0
VERTEX
  5
687
330
67F
100
AcDbEntity
  8
OBJECT
100
AcDbVertex
100
AcDb2dVertex
 10
7.776548
 20
11.50308
 30
0.0
 70
     8
  0
VERTEX
  5
688
330
67F
100
AcDbEntity
  8
OBJECT
100
AcDbVertex
100
AcDb2dVertex
 10
7.789150999999999
 20
11.342696
 30
0.0
 70
     8
  0
VERTEX
  5
689
330
67F
100
AcDbEntity
  8
OBJECT
100
AcDbVertex
100
AcDb2dVertex
 10
7.790483999999999
 20
11.18398299999999
 30
0.0
 70
     8
  0
VERTEX
  5
68A
330
67F
100
AcDbEntity
  8
OBJECT
100
AcDbVertex
100
AcDb2dVertex
 10
7.774996
 20
11.022992
 30
0.0
 70
     8
  0
VERTEX
  5
68B
330
67F
100
AcDbEntity
  8
OBJECT
100
AcDbVertex
100
AcDb2dVertex
 10
7.750041
 20
10.854835
 30
0.0
 70
     8
  0
VERTEX
  5
68C
330
67F
100
AcDbEntity
  8
OBJECT
100
AcDbVertex
100
AcDb2dVertex
 10
7.726199
 20
10.67439
 30
0.0
 70
     8
  0
VERTEX
  5
68D
330
67F
100
AcDbEntity
  8
OBJECT
100
AcDbVertex
100
AcDb2dVertex
 10
7.714052999999999
 20
10.476536
 30
0.0
 70
     8
  0
VERTEX
  5
68E
330
67F
100
AcDbEntity
  8
OBJECT
100
AcDbVertex
100
AcDb2dVertex
 10
7.724183999999999
 20
10.25614999999999
 30
0.0
 70
     8
  0
VERTEX
  5
68F
330
67F
100
AcDbEntity
  8
OBJECT
100
AcDbVertex
100
AcDb2dVertex
 10
7.767174
 20
10.008112
 30
0.0
 70
     8
  0
VERTEX
  5
690
330
67F
100
AcDbEntity
  8
OBJECT
100
AcDbVertex
100
AcDb2dVertex
 10
7.853603999999998
 20
9.727297999999999
 30
0.0
 70
     8
  0
VERTEX
  5
691
330
67F
100
AcDbEntity
  8
OBJECT
100
AcDbVertex
100
AcDb2dVertex
 10
7.994055999999999
 20
9.408586999999998
 30
0.0
 70
     8
  0
VERTEX
  5
692
330
67F
100
AcDbEntity
  8
OBJECT
100
AcDbVertex
100
AcDb2dVertex
 10
7.615172999999999
 20
12.010797
 30
0.0
 70
    16
  0
VERTEX
  5
693
330
67F
100
AcDbEntity
  8
OBJECT
100
AcDbVertex
100
AcDb2dVertex
 10
8.004341
 20
11.205785
 30
0.0
 70
    16
  0
VERTEX
  5
694
330
67F
100
AcDbEntity
  8
OBJECT
100
AcDbVertex
100
AcDb2dVertex
 10
7.538082000000001
 20
10.31356399999999
 30
0.0
 70
    16
  0
VERTEX
  5
695
330
67F
100
AcDbEntity
  8
OBJECT
100
AcDbVertex
100
AcDb2dVertex
 10
7.994055999999999
 20
9.408586999999998
 30
0.0
 70
    16
  0
SEQEND
  5
696
330
67F
100
AcDbEntity
  8
OBJECT
  0
LINE
  5
697
330
1E
100
AcDbEntity
  8
HIDDEN
100
AcDbLine
 10
9.186752999999999
 20
11.448587
 30
0.0
 11
9.186752999999999
 21
11.114587
 31
0.0
  0
LINE
  5
698
330
1E
100
AcDbEntity
  8
HIDDEN
100
AcDbLine
 10
9.466753
 20
10.66858699999999
 30
0.0
 11
9.186752999999999
 21
10.66858699999999
 31
0.0
  0
LINE
  5
699
330
1E
100
AcDbEntity
  8
OBJECT
100
AcDbLine
 10
3.906098
 20
10.66858699999999
 30
0.0
 11
4.186098
 21
10.66858699999999
 31
0.0
  0
LINE
  5
69A
330
1E
100
AcDbEntity
  8
OBJECT
100
AcDbLine
 10
4.186098
 20
11.448587
 30
0.0
 11
4.186098
 21
11.114587
 31
0.0
  0
DIMENSION
  5
69B
330
1E
100
AcDbEntity
  8
DIM
100
AcDbDimension
  2
*D33
 10
10.357946
 20
12.708587
 30
0.0
 11
10.35794599999999
 21
11.688587
 31
0.0
 70
    32
  1
E
 71
     5
 42
2.04
  3
DIM
100
AcDbAlignedDimension
 13
9.716753
 23
10.66858699999999
 33
0.0
 14
9.691739999999999
 24
12.708587
 34
0.0
 50
90.0
100
AcDbRotatedDimension
  0
LINE
  5
6A9
330
1E
100
AcDbEntity
  8
TITLE
100
AcDbLine
 10
20.116
 20
0.5400000000000001
 30
0.0
 11
0.124
 21
0.5400000000000001
 31
0.0
  0
LINE
  5
6AA
330
1E
100
AcDbEntity
  8
TITLE
100
AcDbLine
 10
20.116
 20
0.9559999999999998
 30
0.0
 11
0.124
 21
0.9559999999999998
 31
0.0
  0
LINE
  5
6AB
330
1E
100
AcDbEntity
  8
TITLE
100
AcDbLine
 10
20.116
 20
1.371999999999999
 30
0.0
 11
0.124
 21
1.371999999999999
 31
0.0
  0
LINE
  5
6AC
330
1E
100
AcDbEntity
  8
TITLE
100
AcDbLine
 10
20.116
 20
1.788
 30
0.0
 11
0.124
 21
1.788
 31
0.0
  0
LINE
  5
6AD
330
1E
100
AcDbEntity
  8
TITLE
100
AcDbLine
 10
20.116
 20
2.204
 30
0.0
 11
0.124
 21
2.204
 31
0.0
  0
LINE
  5
6AE
330
1E
100
AcDbEntity
  8
TITLE
100
AcDbLine
 10
20.116
 20
2.62
 30
0.0
 11
0.124
 21
2.62
 31
0.0
  0
LINE
  5
6AF
330
1E
100
AcDbEntity
  8
TITLE
100
AcDbLine
 10
20.116
 20
3.036
 30
0.0
 11
0.124
 21
3.036
 31
0.0
  0
LINE
  5
6B0
330
1E
100
AcDbEntity
  8
TITLE
100
AcDbLine
 10
2.140727
 20
0.124
 30
0.0
 11
2.140727
 21
3.036
 31
0.0
  0
TEXT
  5
6B1
330
1E
100
AcDbEntity
  8
TEXT
100
AcDbText
 10
0.483701
 20
2.705808999999999
 30
0.0
 40
0.25
  1
PART No.
 41
0.75
  7
TXT
 72
     1
 11
1.139950999999999
 21
2.705808999999999
 31
0.0
100
AcDbText
  0
TEXT
  5
6B2
330
1E
100
AcDbEntity
  8
TEXT
100
AcDbText
 10
0.6155429999999999
 20
2.289143
 30
0.0
 40
0.25
  1
PC-11406
 41
0.75
  7
TXT
 72
     1
 11
1.256167999999999
 21
2.289143
 31
0.0
100
AcDbText
  0
TEXT
  5
6B3
330
1E
100
AcDbEntity
  8
TEXT
100
AcDbText
 10
0.6155429999999999
 20
1.872475999999999
 30
0.0
 40
0.25
  1
PC-11408
 41
0.75
  7
TXT
 72
     1
 11
1.256167999999999
 21
1.872475999999999
 31
0.0
100
AcDbText
  0
TEXT
  5
6B4
330
1E
100
AcDbEntity
  8
TEXT
100
AcDbText
 10
0.6467929999999999
 20
1.455808999999999
 30
0.0
 40
0.25
  1
PC-11410
 41
0.75
  7
TXT
 72
     1
 11
1.256167999999999
 21
1.455808999999999
 31
0.0
100
AcDbText
  0
TEXT
  5
6B5
330
1E
100
AcDbEntity
  8
TEXT
100
AcDbText
 10
0.6311679999999999
 20
1.039142999999999
 30
0.0
 40
0.25
  1
PC-11412
 41
0.75
  7
TXT
 72
     1
 11
1.256167999999999
 21
1.039142999999999
 31
0.0
100
AcDbText
  0
TEXT
  5
6B6
330
1E
100
AcDbEntity
  8
TEXT
100
AcDbText
 10
0.6311679999999999
 20
0.622476
 30
0.0
 40
0.25
  1
PC-11414
 41
0.75
  7
TXT
 72
     1
 11
1.256167999999999
 21
0.622476
 31
0.0
100
AcDbText
  0
TEXT
  5
6B7
330
1E
100
AcDbEntity
  8
TEXT
100
AcDbText
 10
0.6311679999999999
 20
0.205809
 30
0.0
 40
0.25
  1
PC-11416
 41
0.75
  7
TXT
 72
     1
 11
1.256167999999999
 21
0.205809
 31
0.0
100
AcDbText
  0
TEXT
  5
6B8
330
1E
100
AcDbEntity
  8
TEXT
100
AcDbText
 10
2.6084
 20
1.455808999999999
 30
0.0
 40
0.25
  1
B
 41
0.75
  7
TXT
 72
     1
 11
2.6709
 21
1.455808999999999
 31
0.0
100
AcDbText
  0
TEXT
  5
6B9
330
1E
100
AcDbEntity
  8
TEXT
100
AcDbText
 10
2.6084
 20
0.205809
 30
0.0
 40
0.25
  1
B
 41
0.75
  7
TXT
 72
     1
 11
2.6709
 21
0.205809
 31
0.0
100
AcDbText
  0
TEXT
  5
6BA
330
1E
100
AcDbEntity
  8
TEXT
100
AcDbText
 10
2.6084
 20
0.622476
 30
0.0
 40
0.25
  1
B
 41
0.75
  7
TXT
 72
     1
 11
2.6709
 21
0.622476
 31
0.0
100
AcDbText
  0
TEXT
  5
6BB
330
1E
100
AcDbEntity
  8
TEXT
100
AcDbText
 10
2.6084
 20
1.039142999999999
 30
0.0
 40
0.25
  1
B
 41
0.75
  7
TXT
 72
     1
 11
2.6709
 21
1.039142999999999
 31
0.0
100
AcDbText
  0
TEXT
  5
6BC
330
1E
100
AcDbEntity
  8
TEXT
100
AcDbText
 10
2.6084
 20
1.872475999999999
 30
0.0
 40
0.25
  1
A
 41
0.75
  7
TXT
 72
     1
 11
2.6709
 21
1.872475999999999
 31
0.0
100
AcDbText
  0
TEXT
  5
6BD
330
1E
100
AcDbEntity
  8
TEXT
100
AcDbText
 10
2.6084
 20
2.289143
 30
0.0
 40
0.25
  1
A
 41
0.75
  7
TXT
 72
     1
 11
2.6709
 21
2.289143
 31
0.0
100
AcDbText
  0
TEXT
  5
6BE
330
1E
100
AcDbEntity
  8
TEXT
100
AcDbText
 10
2.2334
 20
2.705808999999999
 30
0.0
 40
0.25
  1
STYLE
 41
0.75
  7
TXT
 72
     1
 11
2.6709
 21
2.705808999999999
 31
0.0
100
AcDbText
  0
TEXT
  5
6BF
330
1E
100
AcDbEntity
  8
TEXT
100
AcDbText
 10
3.432202999999999
 20
1.455808999999999
 30
0.0
 40
0.25
  1
3.300
 41
0.75
  7
TXT
 72
     1
 11
3.775952999999999
 21
1.455808999999999
 31
0.0
100
AcDbText
  0
TEXT
  5
6C0
330
1E
100
AcDbEntity
  8
TEXT
100
AcDbText
 10
3.432202999999999
 20
0.205809
 30
0.0
 40
0.25
  1
4.040
 41
0.75
  7
TXT
 72
     1
 11
3.775952999999999
 21
0.205809
 31
0.0
100
AcDbText
  0
TEXT
  5
6C1
330
1E
100
AcDbEntity
  8
TEXT
100
AcDbText
 10
3.432202999999999
 20
0.622476
 30
0.0
 40
0.25
  1
4.040
 41
0.75
  7
TXT
 72
     1
 11
3.775952999999999
 21
0.622476
 31
0.0
100
AcDbText
  0
TEXT
  5
6C2
330
1E
100
AcDbEntity
  8
TEXT
100
AcDbText
 10
3.432202999999999
 20
1.039142999999999
 30
0.0
 40
0.25
  1
3.300
 41
0.75
  7
TXT
 72
     1
 11
3.775952999999999
 21
1.039142999999999
 31
0.0
100
AcDbText
  0
TEXT
  5
6C3
330
1E
100
AcDbEntity
  8
TEXT
100
AcDbText
 10
3.713452999999999
 20
2.705808999999999
 30
0.0
 40
0.25
  1
A
 41
0.75
  7
TXT
 72
     1
 11
3.775952999999999
 21
2.705808999999999
 31
0.0
100
AcDbText
  0
TEXT
  5
6C4
330
1E
100
AcDbEntity
  8
TEXT
100
AcDbText
 10
3.416577999999999
 20
2.289143
 30
0.0
 40
0.25
  1
2.520
 41
0.75
  7
TXT
 72
     1
 11
3.775952999999999
 21
2.289143
 31
0.0
100
AcDbText
  0
TEXT
  5
6C5
330
1E
100
AcDbEntity
  8
TEXT
100
AcDbText
 10
3.416577999999999
 20
1.872475999999999
 30
0.0
 40
0.25
  1
2.520
 41
0.75
  7
TXT
 72
     1
 11
3.775952999999999
 21
1.872475999999999
 31
0.0
100
AcDbText
  0
TEXT
  5
6C6
330
1E
100
AcDbEntity
  8
TEXT
100
AcDbText
 10
4.657913999999999
 20
1.455808999999999
 30
0.0
 40
0.25
  1
6.120
 41
0.75
  7
TXT
 72
     1
 11
4.986038999999999
 21
1.455808999999999
 31
0.0
100
AcDbText
  0
TEXT
  5
6C7
330
1E
100
AcDbEntity
  8
TEXT
100
AcDbText
 10
4.673538999999999
 20
0.205809
 30
0.0
 40
0.25
  1
8.100
 41
0.75
  7
TXT
 72
     1
 11
4.986038999999999
 21
0.205809
 31
0.0
100
AcDbText
  0
TEXT
  5
6C8
330
1E
100
AcDbEntity
  8
TEXT
100
AcDbText
 10
4.657913999999999
 20
0.622476
 30
0.0
 40
0.25
  1
6.120
 41
0.75
  7
TXT
 72
     1
 11
4.986038999999999
 21
0.622476
 31
0.0
100
AcDbText
  0
TEXT
  5
6C9
330
1E
100
AcDbEntity
  8
TEXT
100
AcDbText
 10
4.673538999999999
 20
1.039142999999999
 30
0.0
 40
0.25
  1
8.100
 41
0.75
  7
TXT
 72
     1
 11
4.986038999999999
 21
1.039142999999999
 31
0.0
100
AcDbText
  0
TEXT
  5
6CA
330
1E
100
AcDbEntity
  8
TEXT
100
AcDbText
 10
4.923538999999999
 20
2.705808999999999
 30
0.0
 40
0.25
  1
B
 41
0.75
  7
TXT
 72
     1
 11
4.986038999999999
 21
2.705808999999999
 31
0.0
100
AcDbText
  0
TEXT
  5
6CB
330
1E
100
AcDbEntity
  8
TEXT
100
AcDbText
 10
4.657913999999999
 20
2.289143
 30
0.0
 40
0.25
  1
6.120
 41
0.75
  7
TXT
 72
     1
 11
4.986038999999999
 21
2.289143
 31
0.0
100
AcDbText
  0
TEXT
  5
6CC
330
1E
100
AcDbEntity
  8
TEXT
100
AcDbText
 10
4.673538999999999
 20
1.872475999999999
 30
0.0
 40
0.25
  1
8.100
 41
0.75
  7
TXT
 72
     1
 11
4.986038999999999
 21
1.872475999999999
 31
0.0
100
AcDbText
  0
TEXT
  5
6CD
330
1E
100
AcDbEntity
  8
TEXT
100
AcDbText
 10
5.846087999999999
 20
1.455808999999999
 30
0.0
 40
0.25
  1
3.050
 41
0.75
  7
TXT
 72
     1
 11
6.189837999999999
 21
1.455808999999999
 31
0.0
100
AcDbText
  0
TEXT
  5
6CE
330
1E
100
AcDbEntity
  8
TEXT
100
AcDbText
 10
5.830462999999999
 20
0.205809
 30
0.0
 40
0.25
  1
3.790
 41
0.75
  7
TXT
 72
     1
 11
6.189837999999999
 21
0.205809
 31
0.0
100
AcDbText
  0
TEXT
  5
6CF
330
1E
100
AcDbEntity
  8
TEXT
100
AcDbText
 10
5.830462999999999
 20
0.622476
 30
0.0
 40
0.25
  1
3.790
 41
0.75
  7
TXT
 72
     1
 11
6.189837999999999
 21
0.622476
 31
0.0
100
AcDbText
  0
TEXT
  5
6D0
330
1E
100
AcDbEntity
  8
TEXT
100
AcDbText
 10
5.846087999999999
 20
1.039142999999999
 30
0.0
 40
0.25
  1
3.050
 41
0.75
  7
TXT
 72
     1
 11
6.189837999999999
 21
1.039142999999999
 31
0.0
100
AcDbText
  0
TEXT
  5
6D1
330
1E
100
AcDbEntity
  8
TEXT
100
AcDbText
 10
6.127337999999999
 20
2.705808999999999
 30
0.0
 40
0.25
  1
C
 41
0.75
  7
TXT
 72
     1
 11
6.189837999999999
 21
2.705808999999999
 31
0.0
100
AcDbText
  0
TEXT
  5
6D2
330
1E
100
AcDbEntity
  8
TEXT
100
AcDbText
 10
5.830462999999999
 20
2.289143
 30
0.0
 40
0.25
  1
2.270
 41
0.75
  7
TXT
 72
     1
 11
6.189837999999999
 21
2.289143
 31
0.0
100
AcDbText
  0
TEXT
  5
6D3
330
1E
100
AcDbEntity
  8
TEXT
100
AcDbText
 10
5.830462999999999
 20
1.872475999999999
 30
0.0
 40
0.25
  1
2.270
 41
0.75
  7
TXT
 72
     1
 11
6.189837999999999
 21
1.872475999999999
 31
0.0
100
AcDbText
  0
TEXT
  5
6D4
330
1E
100
AcDbEntity
  8
TEXT
100
AcDbText
 10
7.060747
 20
1.455808999999999
 30
0.0
 40
0.25
  1
2.750
 41
0.75
  7
TXT
 72
     1
 11
7.420122
 21
1.455808999999999
 31
0.0
100
AcDbText
  0
TEXT
  5
6D5
330
1E
100
AcDbEntity
  8
TEXT
100
AcDbText
 10
7.060747
 20
0.205809
 30
0.0
 40
0.25
  1
3.490
 41
0.75
  7
TXT
 72
     1
 11
7.420122
 21
0.205809
 31
0.0
100
AcDbText
  0
TEXT
  5
6D6
330
1E
100
AcDbEntity
  8
TEXT
100
AcDbText
 10
7.060747
 20
0.622476
 30
0.0
 40
0.25
  1
3.490
 41
0.75
  7
TXT
 72
     1
 11
7.420122
 21
0.622476
 31
0.0
100
AcDbText
  0
TEXT
  5
6D7
330
1E
100
AcDbEntity
  8
TEXT
100
AcDbText
 10
7.060747
 20
1.039142999999999
 30
0.0
 40
0.25
  1
2.750
 41
0.75
  7
TXT
 72
     1
 11
7.420122
 21
1.039142999999999
 31
0.0
100
AcDbText
  0
TEXT
  5
6D8
330
1E
100
AcDbEntity
  8
TEXT
100
AcDbText
 10
7.357622
 20
2.705808999999999
 30
0.0
 40
0.25
  1
D
 41
0.75
  7
TXT
 72
     1
 11
7.420122
 21
2.705808999999999
 31
0.0
100
AcDbText
  0
TEXT
  5
6D9
330
1E
100
AcDbEntity
  8
TEXT
100
AcDbText
 10
7.091997
 20
2.289143
 30
0.0
 40
0.25
  1
1.970
 41
0.75
  7
TXT
 72
     1
 11
7.420122
 21
2.289143
 31
0.0
100
AcDbText
  0
TEXT
  5
6DA
330
1E
100
AcDbEntity
  8
TEXT
100
AcDbText
 10
7.091997
 20
1.872475999999999
 30
0.0
 40
0.25
  1
1.970
 41
0.75
  7
TXT
 72
     1
 11
7.420122
 21
1.872475999999999
 31
0.0
100
AcDbText
  0
TEXT
  5
6DB
330
1E
100
AcDbEntity
  8
TEXT
100
AcDbText
 10
8.265235999999999
 20
1.455808999999999
 30
0.0
 40
0.25
  1
2.040
 41
0.75
  7
TXT
 72
     1
 11
8.608985999999999
 21
1.455808999999999
 31
0.0
100
AcDbText
  0
TEXT
  5
6DC
330
1E
100
AcDbEntity
  8
TEXT
100
AcDbText
 10
8.249610999999999
 20
0.205809
 30
0.0
 40
0.25
  1
2.780
 41
0.75
  7
TXT
 72
     1
 11
8.608985999999999
 21
0.205809
 31
0.0
100
AcDbText
  0
TEXT
  5
6DD
330
1E
100
AcDbEntity
  8
TEXT
100
AcDbText
 10
8.249610999999999
 20
0.622476
 30
0.0
 40
0.25
  1
2.780
 41
0.75
  7
TXT
 72
     1
 11
8.608985999999999
 21
0.622476
 31
0.0
100
AcDbText
  0
TEXT
  5
6DE
330
1E
100
AcDbEntity
  8
TEXT
100
AcDbText
 10
8.265235999999999
 20
1.039142999999999
 30
0.0
 40
0.25
  1
2.040
 41
0.75
  7
TXT
 72
     1
 11
8.608985999999999
 21
1.039142999999999
 31
0.0
100
AcDbText
  0
TEXT
  5
6DF
330
1E
100
AcDbEntity
  8
TEXT
100
AcDbText
 10
8.546485999999999
 20
2.705808999999999
 30
0.0
 40
0.25
  1
E
 41
0.75
  7
TXT
 72
     1
 11
8.608985999999999
 21
2.705808999999999
 31
0.0
100
AcDbText
  0
TEXT
  5
6E0
330
1E
100
AcDbEntity
  8
TEXT
100
AcDbText
 10
8.358985999999999
 20
2.289143
 30
0.0
 40
0.25
  1
---
 41
0.75
  7
TXT
 72
     1
 11
8.608985999999999
 21
2.289143
 31
0.0
100
AcDbText
  0
TEXT
  5
6E1
330
1E
100
AcDbEntity
  8
TEXT
100
AcDbText
 10
8.358985999999999
 20
1.872475999999999
 30
0.0
 40
0.25
  1
---
 41
0.75
  7
TXT
 72
     1
 11
8.608985999999999
 21
1.872475999999999
 31
0.0
100
AcDbText
  0
TEXT
  5
6E2
330
1E
100
AcDbEntity
  8
TEXT
100
AcDbText
 10
9.511144999999999
 20
1.455808999999999
 30
0.0
 40
0.25
  1
5.000
 41
0.75
  7
TXT
 72
     1
 11
9.839269999999999
 21
1.455808999999999
 31
0.0
100
AcDbText
  0
TEXT
  5
6E3
330
1E
100
AcDbEntity
  8
TEXT
100
AcDbText
 10
9.479894999999999
 20
0.205809
 30
0.0
 40
0.25
  1
6.980
 41
0.75
  7
TXT
 72
     1
 11
9.839269999999999
 21
0.205809
 31
0.0
100
AcDbText
  0
TEXT
  5
6E4
330
1E
100
AcDbEntity
  8
TEXT
100
AcDbText
 10
9.511144999999999
 20
0.622476
 30
0.0
 40
0.25
  1
5.000
 41
0.75
  7
TXT
 72
     1
 11
9.839269999999999
 21
0.622476
 31
0.0
100
AcDbText
  0
TEXT
  5
6E5
330
1E
100
AcDbEntity
  8
TEXT
100
AcDbText
 10
9.479894999999999
 20
1.039142999999999
 30
0.0
 40
0.25
  1
6.980
 41
0.75
  7
TXT
 72
     1
 11
9.839269999999999
 21
1.039142999999999
 31
0.0
100
AcDbText
  0
TEXT
  5
6E6
330
1E
100
AcDbEntity
  8
TEXT
100
AcDbText
 10
9.776769999999999
 20
2.705808999999999
 30
0.0
 40
0.25
  1
F
 41
0.75
  7
TXT
 72
     1
 11
9.839269999999999
 21
2.705808999999999
 31
0.0
100
AcDbText
  0
TEXT
  5
6E7
330
1E
100
AcDbEntity
  8
TEXT
100
AcDbText
 10
9.511144999999999
 20
2.289143
 30
0.0
 40
0.25
  1
5.000
 41
0.75
  7
TXT
 72
     1
 11
9.839269999999999
 21
2.289143
 31
0.0
100
AcDbText
  0
TEXT
  5
6E8
330
1E
100
AcDbEntity
  8
TEXT
100
AcDbText
 10
9.479894999999999
 20
1.872475999999999
 30
0.0
 40
0.25
  1
6.980
 41
0.75
  7
TXT
 72
     1
 11
9.839269999999999
 21
1.872475999999999
 31
0.0
100
AcDbText
  0
TEXT
  5
6E9
330
1E
100
AcDbEntity
  8
TEXT
100
AcDbText
 10
10.973918
 20
2.705808999999999
 30
0.0
 40
0.25
  1
G
 41
0.75
  7
TXT
 72
     1
 11
11.03641799999999
 21
2.705808999999999
 31
0.0
100
AcDbText
  0
TEXT
  5
6EA
330
1E
100
AcDbEntity
  8
TEXT
100
AcDbText
 10
10.67704299999999
 20
2.289143
 30
0.0
 40
0.25
  1
5.280
 41
0.75
  7
TXT
 72
     1
 11
11.03641799999999
 21
2.289143
 31
0.0
100
AcDbText
  0
TEXT
  5
6EB
330
1E
100
AcDbEntity
  8
TEXT
100
AcDbText
 10
10.67704299999999
 20
1.872475999999999
 30
0.0
 40
0.25
  1
7.260
 41
0.75
  7
TXT
 72
     1
 11
11.03641799999999
 21
1.872475999999999
 31
0.0
100
AcDbText
  0
TEXT
  5
6EC
330
1E
100
AcDbEntity
  8
TEXT
100
AcDbText
 10
12.185383
 20
2.705808999999999
 30
0.0
 40
0.25
  1
H
 41
0.75
  7
TXT
 72
     1
 11
12.247883
 21
2.705808999999999
 31
0.0
100
AcDbText
  0
TEXT
  5
6ED
330
1E
100
AcDbEntity
  8
TEXT
100
AcDbText
 10
13.12246
 20
2.289143
 30
0.0
 40
0.25
  1
2.180
 41
0.75
  7
TXT
 72
     1
 11
13.450585
 21
2.289143
 31
0.0
100
AcDbText
  0
TEXT
  5
6EE
330
1E
100
AcDbEntity
  8
TEXT
100
AcDbText
 10
13.12246
 20
1.872475999999999
 30
0.0
 40
0.25
  1
3.120
 41
0.75
  7
TXT
 72
     1
 11
13.450585
 21
1.872475999999999
 31
0.0
100
AcDbText
  0
TEXT
  5
6EF
330
1E
100
AcDbEntity
  8
TEXT
100
AcDbText
 10
13.390907
 20
2.705808999999999
 30
0.0
 40
0.25
  1
J
 41
0.75
  7
TXT
 72
     1
 11
13.453407
 21
2.705808999999999
 31
0.0
100
AcDbText
  0
TEXT
  5
6F0
330
1E
100
AcDbEntity
  8
TEXT
100
AcDbText
 10
14.32059699999999
 20
2.289143
 30
0.0
 40
0.25
  1
0.880
 41
0.75
  7
TXT
 72
     1
 11
14.66434699999999
 21
2.289143
 31
0.0
100
AcDbText
  0
TEXT
  5
6F1
330
1E
100
AcDbEntity
  8
TEXT
100
AcDbText
 10
14.32059699999999
 20
1.872475999999999
 30
0.0
 40
0.25
  1
0.930
 41
0.75
  7
TXT
 72
     1
 11
14.66434699999999
 21
1.872475999999999
 31
0.0
100
AcDbText
  0
TEXT
  5
6F2
330
1E
100
AcDbEntity
  8
TEXT
100
AcDbText
 10
15.534359
 20
1.455808999999999
 30
0.0
 40
0.25
  1
3.080
 41
0.75
  7
TXT
 72
     1
 11
15.878109
 21
1.455808999999999
 31
0.0
100
AcDbText
  0
TEXT
  5
6F3
330
1E
100
AcDbEntity
  8
TEXT
100
AcDbText
 10
15.518734
 20
0.205809
 30
0.0
 40
0.25
  1
3.830
 41
0.75
  7
TXT
 72
     1
 11
15.878109
 21
0.205809
 31
0.0
100
AcDbText
  0
TEXT
  5
6F4
330
1E
100
AcDbEntity
  8
TEXT
100
AcDbText
 10
15.518734
 20
0.622476
 30
0.0
 40
0.25
  1
3.830
 41
0.75
  7
TXT
 72
     1
 11
15.878109
 21
0.622476
 31
0.0
100
AcDbText
  0
TEXT
  5
6F5
330
1E
100
AcDbEntity
  8
TEXT
100
AcDbText
 10
15.534359
 20
1.039142999999999
 30
0.0
 40
0.25
  1
3.080
 41
0.75
  7
TXT
 72
     1
 11
15.878109
 21
1.039142999999999
 31
0.0
100
AcDbText
  0
TEXT
  5
6F6
330
1E
100
AcDbEntity
  8
TEXT
100
AcDbText
 10
14.621145
 20
2.705808999999999
 30
0.0
 40
0.25
  1
K
 41
0.75
  7
TXT
 72
     1
 11
14.683645
 21
2.705808999999999
 31
0.0
100
AcDbText
  0
TEXT
  5
6F7
330
1E
100
AcDbEntity
  8
TEXT
100
AcDbText
 10
15.549984
 20
2.289143
 30
0.0
 40
0.25
  1
2.310
 41
0.75
  7
TXT
 72
     1
 11
15.878109
 21
2.289143
 31
0.0
100
AcDbText
  0
TEXT
  5
6F8
330
1E
100
AcDbEntity
  8
TEXT
100
AcDbText
 10
15.549984
 20
1.872475999999999
 30
0.0
 40
0.25
  1
2.310
 41
0.75
  7
TXT
 72
     1
 11
15.878109
 21
1.872475999999999
 31
0.0
100
AcDbText
  0
TEXT
  5
6F9
330
1E
100
AcDbEntity
  8
TEXT
100
AcDbText
 10
15.810194
 20
2.705808999999999
 30
0.0
 40
0.25
  1
L
 41
0.75
  7
TXT
 72
     1
 11
15.872694
 21
2.705808999999999
 31
0.0
100
AcDbText
  0
TEXT
  5
6FA
330
1E
100
AcDbEntity
  8
TEXT
100
AcDbText
 10
16.715256
 20
2.289143
 30
0.0
 40
0.25
  1
5.750
 41
0.75
  7
TXT
 72
     1
 11
17.074631
 21
2.289143
 31
0.0
100
AcDbText
  0
TEXT
  5
6FB
330
1E
100
AcDbEntity
  8
TEXT
100
AcDbText
 10
16.715256
 20
1.872475999999999
 30
0.0
 40
0.25
  1
7.750
 41
0.75
  7
TXT
 72
     1
 11
17.074631
 21
1.872475999999999
 31
0.0
100
AcDbText
  0
TEXT
  5
6FC
330
1E
100
AcDbEntity
  8
TEXT
100
AcDbText
 10
17.92602399999999
 20
1.455808999999999
 30
0.0
 40
0.25
  1
2.930
 41
0.75
  7
TXT
 72
     1
 11
18.28539899999999
 21
1.455808999999999
 31
0.0
100
AcDbText
  0
TEXT
  5
6FD
330
1E
100
AcDbEntity
  8
TEXT
100
AcDbText
 10
17.92602399999999
 20
0.205809
 30
0.0
 40
0.25
  1
3.680
 41
0.75
  7
TXT
 72
     1
 11
18.28539899999999
 21
0.205809
 31
0.0
100
AcDbText
  0
TEXT
  5
6FE
330
1E
100
AcDbEntity
  8
TEXT
100
AcDbText
 10
17.92602399999999
 20
0.622476
 30
0.0
 40
0.25
  1
3.680
 41
0.75
  7
TXT
 72
     1
 11
18.28539899999999
 21
0.622476
 31
0.0
100
AcDbText
  0
TEXT
  5
6FF
330
1E
100
AcDbEntity
  8
TEXT
100
AcDbText
 10
17.92602399999999
 20
1.039142999999999
 30
0.0
 40
0.25
  1
2.930
 41
0.75
  7
TXT
 72
     1
 11
18.28539899999999
 21
1.039142999999999
 31
0.0
100
AcDbText
  0
TEXT
  5
700
330
1E
100
AcDbEntity
  8
TEXT
100
AcDbText
 10
17.004325
 20
2.705808999999999
 30
0.0
 40
0.25
  1
M
 41
0.75
  7
TXT
 72
     1
 11
17.066825
 21
2.705808999999999
 31
0.0
100
AcDbText
  0
TEXT
  5
701
330
1E
100
AcDbEntity
  8
TEXT
100
AcDbText
 10
17.95727399999999
 20
2.289143
 30
0.0
 40
0.25
  1
2.180
 41
0.75
  7
TXT
 72
     1
 11
18.28539899999999
 21
2.289143
 31
0.0
100
AcDbText
  0
TEXT
  5
702
330
1E
100
AcDbEntity
  8
TEXT
100
AcDbText
 10
17.95727399999999
 20
1.872475999999999
 30
0.0
 40
0.25
  1
2.180
 41
0.75
  7
TXT
 72
     1
 11
18.28539899999999
 21
1.872475999999999
 31
0.0
100
AcDbText
  0
TEXT
  5
703
330
1E
100
AcDbEntity
  8
TEXT
100
AcDbText
 10
18.209479
 20
2.705808999999999
 30
0.0
 40
0.25
  1
N
 41
0.75
  7
TXT
 72
     1
 11
18.271979
 21
2.705808999999999
 31
0.0
100
AcDbText
  0
TEXT
  5
704
330
1E
100
AcDbEntity
  8
TEXT
100
AcDbText
 10
19.15364
 20
2.289143
 30
0.0
 40
0.25
  1
5.650
 41
0.75
  7
TXT
 72
     1
 11
19.51301499999999
 21
2.289143
 31
0.0
100
AcDbText
  0
TEXT
  5
705
330
1E
100
AcDbEntity
  8
TEXT
100
AcDbText
 10
19.15364
 20
1.872475999999999
 30
0.0
 40
0.25
  1
7.650
 41
0.75
  7
TXT
 72
     1
 11
19.51301499999999
 21
1.872475999999999
 31
0.0
100
AcDbText
  0
TEXT
  5
706
330
1E
100
AcDbEntity
  8
TEXT
100
AcDbText
 10
10.67704299999999
 20
1.040475999999999
 30
0.0
 40
0.25
  1
7.260
 41
0.75
  7
TXT
 72
     1
 11
11.03641799999999
 21
1.040475999999999
 31
0.0
100
AcDbText
  0
TEXT
  5
707
330
1E
100
AcDbEntity
  8
TEXT
100
AcDbText
 10
10.67704299999999
 20
1.457143
 30
0.0
 40
0.25
  1
5.280
 41
0.75
  7
TXT
 72
     1
 11
11.03641799999999
 21
1.457143
 31
0.0
100
AcDbText
  0
TEXT
  5
708
330
1E
100
AcDbEntity
  8
TEXT
100
AcDbText
 10
13.12246
 20
1.457143
 30
0.0
 40
0.25
  1
2.180
 41
0.75
  7
TXT
 72
     1
 11
13.450585
 21
1.457143
 31
0.0
100
AcDbText
  0
TEXT
  5
709
330
1E
100
AcDbEntity
  8
TEXT
100
AcDbText
 10
13.12246
 20
1.040475999999999
 30
0.0
 40
0.25
  1
3.120
 41
0.75
  7
TXT
 72
     1
 11
13.450585
 21
1.040475999999999
 31
0.0
100
AcDbText
  0
TEXT
  5
70A
330
1E
100
AcDbEntity
  8
TEXT
100
AcDbText
 10
14.32059699999999
 20
1.040475999999999
 30
0.0
 40
0.25
  1
0.930
 41
0.75
  7
TXT
 72
     1
 11
14.66434699999999
 21
1.040475999999999
 31
0.0
100
AcDbText
  0
TEXT
  5
70B
330
1E
100
AcDbEntity
  8
TEXT
100
AcDbText
 10
14.32059699999999
 20
1.457143
 30
0.0
 40
0.25
  1
0.880
 41
0.75
  7
TXT
 72
     1
 11
14.66434699999999
 21
1.457143
 31
0.0
100
AcDbText
  0
TEXT
  5
70C
330
1E
100
AcDbEntity
  8
TEXT
100
AcDbText
 10
16.715256
 20
1.040475999999999
 30
0.0
 40
0.25
  1
7.750
 41
0.75
  7
TXT
 72
     1
 11
17.074631
 21
1.040475999999999
 31
0.0
100
AcDbText
  0
TEXT
  5
70D
330
1E
100
AcDbEntity
  8
TEXT
100
AcDbText
 10
16.715256
 20
1.457143
 30
0.0
 40
0.25
  1
5.750
 41
0.75
  7
TXT
 72
     1
 11
17.074631
 21
1.457143
 31
0.0
100
AcDbText
  0
TEXT
  5
70E
330
1E
100
AcDbEntity
  8
TEXT
100
AcDbText
 10
19.15364
 20
1.040475999999999
 30
0.0
 40
0.25
  1
7.650
 41
0.75
  7
TXT
 72
     1
 11
19.51301499999999
 21
1.040475999999999
 31
0.0
100
AcDbText
  0
TEXT
  5
70F
330
1E
100
AcDbEntity
  8
TEXT
100
AcDbText
 10
19.15364
 20
1.457143
 30
0.0
 40
0.25
  1
5.650
 41
0.75
  7
TXT
 72
     1
 11
19.51301499999999
 21
1.457143
 31
0.0
100
AcDbText
  0
TEXT
  5
710
330
1E
100
AcDbEntity
  8
TEXT
100
AcDbText
 10
19.15364
 20
0.208476
 30
0.0
 40
0.25
  1
7.650
 41
0.75
  7
TXT
 72
     1
 11
19.51301499999999
 21
0.208476
 31
0.0
100
AcDbText
  0
TEXT
  5
711
330
1E
100
AcDbEntity
  8
TEXT
100
AcDbText
 10
19.15364
 20
0.625143
 30
0.0
 40
0.25
  1
5.650
 41
0.75
  7
TXT
 72
     1
 11
19.51301499999999
 21
0.625143
 31
0.0
100
AcDbText
  0
TEXT
  5
712
330
1E
100
AcDbEntity
  8
TEXT
100
AcDbText
 10
16.715256
 20
0.625143
 30
0.0
 40
0.25
  1
5.750
 41
0.75
  7
TXT
 72
     1
 11
17.074631
 21
0.625143
 31
0.0
100
AcDbText
  0
TEXT
  5
713
330
1E
100
AcDbEntity
  8
TEXT
100
AcDbText
 10
16.715256
 20
0.208476
 30
0.0
 40
0.25
  1
7.750
 41
0.75
  7
TXT
 72
     1
 11
17.074631
 21
0.208476
 31
0.0
100
AcDbText
  0
TEXT
  5
714
330
1E
100
AcDbEntity
  8
TEXT
100
AcDbText
 10
14.32059699999999
 20
0.208476
 30
0.0
 40
0.25
  1
0.930
 41
0.75
  7
TXT
 72
     1
 11
14.66434699999999
 21
0.208476
 31
0.0
100
AcDbText
  0
TEXT
  5
715
330
1E
100
AcDbEntity
  8
TEXT
100
AcDbText
 10
14.32059699999999
 20
0.625143
 30
0.0
 40
0.25
  1
0.880
 41
0.75
  7
TXT
 72
     1
 11
14.66434699999999
 21
0.625143
 31
0.0
100
AcDbText
  0
TEXT
  5
716
330
1E
100
AcDbEntity
  8
TEXT
100
AcDbText
 10
13.12246
 20
0.625143
 30
0.0
 40
0.25
  1
2.180
 41
0.75
  7
TXT
 72
     1
 11
13.450585
 21
0.625143
 31
0.0
100
AcDbText
  0
TEXT
  5
717
330
1E
100
AcDbEntity
  8
TEXT
100
AcDbText
 10
13.12246
 20
0.208476
 30
0.0
 40
0.25
  1
3.120
 41
0.75
  7
TXT
 72
     1
 11
13.450585
 21
0.208476
 31
0.0
100
AcDbText
  0
TEXT
  5
718
330
1E
100
AcDbEntity
  8
TEXT
100
AcDbText
 10
10.67704299999999
 20
0.208476
 30
0.0
 40
0.25
  1
7.260
 41
0.75
  7
TXT
 72
     1
 11
11.03641799999999
 21
0.208476
 31
0.0
100
AcDbText
  0
TEXT
  5
719
330
1E
100
AcDbEntity
  8
TEXT
100
AcDbText
 10
10.67704299999999
 20
0.625143
 30
0.0
 40
0.25
  1
5.280
 41
0.75
  7
TXT
 72
     1
 11
11.03641799999999
 21
0.625143
 31
0.0
100
AcDbText
  0
DIMENSION
  5
71A
330
1E
100
AcDbEntity
  8
DIM
100
AcDbDimension
  2
*D34
 10
3.626098
 20
19.630203
 30
0.0
 11
2.382348
 21
19.630203
 31
0.0
 70
    32
 71
     5
 42
0.5600000000000001
  3
STD
100
AcDbAlignedDimension
 13
4.186098
 23
24.556287
 33
0.0
 14
3.626098
 24
21.396287
 34
0.0
100
AcDbRotatedDimension
  0
DIMENSION
  5
728
330
1E
100
AcDbEntity
  8
DIM
100
AcDbDimension
  2
*D35
 10
9.186097999999999
 20
19.630203
 30
0.0
 11
6.686098
 21
19.630203
 31
0.0
 70
    32
  1
F
 71
     5
 42
4.999999999999999
  3
STD
100
AcDbAlignedDimension
 13
4.186098
 23
24.556287
 33
0.0
 14
9.186097999999999
 24
24.556287
 34
0.0
100
AcDbRotatedDimension
  0
TEXT
  5
745
330
1E
100
AcDbEntity
  8
DIM
100
AcDbText
 10
6.225183999999999
 20
23.677213
 30
0.0
 40
0.25
  1
WIDE &
 41
0.75
  7
TXT
100
AcDbText
  0
TEXT
  5
746
330
1E
100
AcDbEntity
  8
DIM
100
AcDbText
 10
5.362758999999999
 20
23.26054599999999
 30
0.0
 40
0.25
  1
0.071 HIGH REF.
 41
0.75
  7
TXT
100
AcDbText
  0
DIMENSION
  5
748
330
1E
100
AcDbEntity
  8
DIM
100
AcDbDimension
  2
*D36
 10
9.746097999999999
 20
18.957497
 30
0.0
 11
6.686098
 21
18.957497
 31
0.0
 70
    32
  1
B
 71
     5
 42
6.119999999999999
  3
STD
100
AcDbAlignedDimension
 13
3.626098
 23
21.396287
 33
0.0
 14
9.746097999999999
 24
21.396287
 34
0.0
100
AcDbRotatedDimension
  0
TEXT
  5
756
330
1E
100
AcDbEntity
  8
TEXT
100
AcDbText
 10
13.003023
 20
20.408566
 30
0.0
 40
0.25
  1
%%USTYLE "A"
 41
0.75
  7
TXT
 72
     1
 11
13.756148
 21
20.408566
 31
0.0
100
AcDbText
  0
TEXT
  5
757
330
1E
100
AcDbEntity
  8
TEXT
100
AcDbText
 10
8.827901999999999
 20
14.0397
 30
0.0
 40
0.25
  1
%%USTYLE "A"
 41
0.75
  7
TXT
 72
     1
 11
9.581027
 21
14.0397
 31
0.0
100
AcDbText
  0
DIMENSION
  5
758
330
1E
100
AcDbEntity
  8
DIM
100
AcDbDimension
  2
*D37
 10
3.118205
 20
9.533586999999998
 30
0.0
 11
3.118204999999998
 21
11.05858699999999
 31
0.0
 70
    32
  1
C
 71
     5
 42
3.05
  3
STD
100
AcDbAlignedDimension
 13
3.801098
 23
12.583587
 33
0.0
 14
3.801098
 24
9.533586999999998
 34
0.0
 50
90.0
100
AcDbRotatedDimension
  0
DIMENSION
  5
766
330
1E
100
AcDbEntity
  8
DIM
100
AcDbDimension
  2
*D38
 10
2.260399
 20
9.408586999999998
 30
0.0
 11
2.260398999999998
 21
11.05858699999999
 31
0.0
 70
    32
  1
A
 71
     5
 42
3.3
  3
STD
100
AcDbAlignedDimension
 13
3.681111
 23
12.708587
 33
0.0
 14
3.681111
 24
9.408586999999998
 34
0.0
 50
90.0
100
AcDbRotatedDimension
  0
TEXT
  5
774
330
1E
100
AcDbEntity
  8
TEXT
100
AcDbText
 10
8.827901999999999
 20
8.104394
 30
0.0
 40
0.25
  1
%%USTYLE "B"
 41
0.75
  7
TXT
 72
     1
 11
9.581027
 21
8.104394
 31
0.0
100
AcDbText
  0
LINE
  5
775
330
1E
100
AcDbEntity
  8
DIM
100
AcDbLine
 10
11.944226
 20
13.554239
 30
0.0
 11
11.944226
 21
15.111036
 31
0.0
  0
LINE
  5
776
330
1E
100
AcDbEntity
  8
DIM
100
AcDbLine
 10
17.694226
 20
13.554239
 30
0.0
 11
17.694226
 21
15.111036
 31
0.0
  0
TEXT
  5
777
330
1E
100
AcDbEntity
  8
TEXT
100
AcDbText
 10
17.05217799999999
 20
20.408566
 30
0.0
 40
0.25
  1
%%USTYLE "B"
 41
0.75
  7
TXT
 72
     1
 11
17.80530299999999
 21
20.408566
 31
0.0
100
AcDbText
  0
LINE
  5
778
330
1E
100
AcDbEntity
  8
HIDDEN
100
AcDbLine
 10
16.23873
 20
25.442863
 30
0.0
 11
16.23873
 21
27.343287
 31
0.0
  0
LWPOLYLINE
  5
779
330
1E
100
AcDbEntity
  8
OBJECT
100
AcDbPolyline
 90
        4
 70
     0
 43
0.0
 10
19.41372999999999
 20
25.594
 42
-0.191053
 10
17.584385
 20
25.608614
 42
0.183916
 10
16.882234
 20
25.597255
 42
0.000838
 10
16.11373
 20
25.41265199999999
 42
-0.119103
  0
LINE
  5
77F
330
1E
100
AcDbEntity
  8
OBJECT
100
AcDbLine
 10
17.35872999999999
 20
25.661425
 30
0.0
 11
17.35872999999999
 21
27.716287
 31
0.0
  0
LINE
  5
780
330
1E
100
AcDbEntity
  8
OBJECT
100
AcDbLine
 10
18.16873
 20
25.451109
 30
0.0
 11
18.16873
 21
27.716287
 31
0.0
  0
LINE
  5
781
330
1E
100
AcDbEntity
  8
OBJECT
100
AcDbLine
 10
17.37372999999999
 20
21.68928699999999
 30
0.0
 11
17.37372999999999
 21
22.44937399999999
 31
0.0
  0
LINE
  5
782
330
1E
100
AcDbEntity
  8
OBJECT
100
AcDbLine
 10
16.11373
 20
21.450644
 30
0.0
 11
16.11373
 21
27.661929
 31
0.0
  0
LINE
  5
783
330
1E
100
AcDbEntity
  8
OBJECT
100
AcDbLine
 10
19.41372999999999
 20
21.450644
 30
0.0
 11
19.41372999999999
 21
27.661929
 31
0.0
  0
LINE
  5
784
330
1E
100
AcDbEntity
  8
OBJECT
100
AcDbLine
 10
19.28872999999999
 20
24.588287
 30
0.0
 11
19.28872999999999
 21
25.54938599999999
 31
0.0
  0
INSERT
  5
785
330
1E
100
AcDbEntity
  8
OBJECT
100
AcDbBlockReference
  2
*X1
 10
4.818287
 20
-0.096754
 30
0.0
1001
ACAD
1000
HATCH
1002
{
1070
    16
1000
ANSI31
1040
0.75
1040
0.0
1002
}
  0
LINE
  5
786
330
1E
100
AcDbEntity
  8
OBJECT
100
AcDbLine
 10
19.10072999999999
 20
24.94778699999999
 30
0.0
 11
18.60072999999999
 21
24.94778699999999
 31
0.0
  0
LINE
  5
787
330
1E
100
AcDbEntity
  8
OBJECT
100
AcDbLine
 10
19.10072999999999
 20
25.144787
 30
0.0
 11
18.60072999999999
 21
25.144787
 31
0.0
  0
LINE
  5
788
330
1E
100
AcDbEntity
  8
OBJECT
100
AcDbLine
 10
19.28872999999999
 20
25.30378699999999
 30
0.0
 11
18.60072999999999
 21
25.30378699999999
 31
0.0
  0
LINE
  5
789
330
1E
100
AcDbEntity
  8
OBJECT
100
AcDbLine
 10
16.22373
 20
21.68928699999999
 30
0.0
 11
19.30372999999999
 21
21.68928699999999
 31
0.0
  0
LINE
  5
78A
330
1E
100
AcDbEntity
  8
OBJECT
100
AcDbLine
 10
16.22373
 20
21.58972299999999
 30
0.0
 11
19.30372999999999
 21
21.58972299999999
 31
0.0
  0
LINE
  5
78B
330
1E
100
AcDbEntity
  8
OBJECT
100
AcDbLine
 10
19.10072999999999
 20
24.788787
 30
0.0
 11
18.60072999999999
 21
24.788787
 31
0.0
  0
LINE
  5
78C
330
1E
100
AcDbEntity
  8
OBJECT
100
AcDbLine
 10
19.13872999999999
 20
24.416287
 30
0.0
 11
18.15373
 21
24.416287
 31
0.0
  0
LINE
  5
78D
330
1E
100
AcDbEntity
  8
OBJECT
100
AcDbLine
 10
19.13872999999999
 20
24.69628699999999
 30
0.0
 11
18.15373
 21
24.69628699999999
 31
0.0
  0
LINE
  5
78E
330
1E
100
AcDbEntity
  8
OBJECT
100
AcDbLine
 10
19.28872999999999
 20
22.08028699999999
 30
0.0
 11
18.16873
 21
22.08028699999999
 31
0.0
  0
LINE
  5
78F
330
1E
100
AcDbEntity
  8
OBJECT
100
AcDbLine
 10
19.28872999999999
 20
22.145287
 30
0.0
 11
18.16873
 21
22.145287
 31
0.0
  0
LINE
  5
790
330
1E
100
AcDbEntity
  8
OBJECT
100
AcDbLine
 10
19.28872999999999
 20
22.224287
 30
0.0
 11
18.16873
 21
22.224287
 31
0.0
  0
LINE
  5
791
330
1E
100
AcDbEntity
  8
OBJECT
100
AcDbLine
 10
19.28872999999999
 20
22.28928699999999
 30
0.0
 11
18.16873
 21
22.28928699999999
 31
0.0
  0
LINE
  5
792
330
1E
100
AcDbEntity
  8
OBJECT
100
AcDbLine
 10
19.28872999999999
 20
22.36828699999999
 30
0.0
 11
18.16873
 21
22.36828699999999
 31
0.0
  0
LINE
  5
793
330
1E
100
AcDbEntity
  8
OBJECT
100
AcDbLine
 10
19.13872999999999
 20
22.433287
 30
0.0
 11
18.16873
 21
22.433287
 31
0.0
  0
LINE
  5
794
330
1E
100
AcDbEntity
  8
OBJECT
100
AcDbLine
 10
19.28872999999999
 20
21.76928699999999
 30
0.0
 11
18.16873
 21
21.76928699999999
 31
0.0
  0
LINE
  5
795
330
1E
100
AcDbEntity
  8
OBJECT
100
AcDbLine
 10
18.16873
 20
21.396287
 30
0.0
 11
19.41372999999999
 21
21.450644
 31
0.0
  0
LINE
  5
796
330
1E
100
AcDbEntity
  8
OBJECT
100
AcDbLine
 10
16.22373
 20
21.58972299999999
 30
0.0
 11
16.22373
 21
21.68928699999999
 31
0.0
  0
INSERT
  5
797
330
1E
100
AcDbEntity
  8
OBJECT
100
AcDbBlockReference
  2
*X2
 10
4.038287
 20
-0.096754
 30
0.0
1001
ACAD
1000
HATCH
1002
{
1070
    16
1000
ANSI31
1040
0.75
1040
0.0
1002
}
  0
LINE
  5
798
330
1E
100
AcDbEntity
  8
OBJECT
100
AcDbLine
 10
17.35872999999999
 20
21.396287
 30
0.0
 11
16.11373
 21
21.450644
 31
0.0
  0
LINE
  5
799
330
1E
100
AcDbEntity
  8
OBJECT
100
AcDbLine
 10
16.28572999999999
 20
21.58972299999999
 30
0.0
 11
16.203644
 21
21.446719
 31
0.0
  0
LINE
  5
79A
330
1E
100
AcDbEntity
  8
OBJECT
100
AcDbLine
 10
17.35872999999999
 20
21.42228699999999
 30
0.0
 11
17.37372999999999
 21
21.42228699999999
 31
0.0
  0
LINE
  5
79B
330
1E
100
AcDbEntity
  8
OBJECT
100
AcDbLine
 10
17.35872999999999
 20
21.396287
 30
0.0
 11
17.35872999999999
 21
21.58972299999999
 31
0.0
  0
LINE
  5
79C
330
1E
100
AcDbEntity
  8
OBJECT
100
AcDbLine
 10
17.37372999999999
 20
21.42228699999999
 30
0.0
 11
17.37372999999999
 21
21.58972299999999
 31
0.0
  0
LINE
  5
79D
330
1E
100
AcDbEntity
  8
OBJECT
100
AcDbLine
 10
18.16873
 20
21.396287
 30
0.0
 11
18.16873
 21
21.58972299999999
 31
0.0
  0
LINE
  5
79E
330
1E
100
AcDbEntity
  8
OBJECT
100
AcDbLine
 10
17.38872999999999
 20
21.42228699999999
 30
0.0
 11
17.37372999999999
 21
21.42228699999999
 31
0.0
  0
LINE
  5
79F
330
1E
100
AcDbEntity
  8
OBJECT
100
AcDbLine
 10
16.23873
 20
21.76928699999999
 30
0.0
 11
16.23873
 21
24.523287
 31
0.0
  0
LINE
  5
7A0
330
1E
100
AcDbEntity
  8
OBJECT
100
AcDbLine
 10
18.16873
 20
21.68928699999999
 30
0.0
 11
18.16873
 21
22.45045999999999
 31
0.0
  0
LINE
  5
7A1
330
1E
100
AcDbEntity
  8
OBJECT
100
AcDbLine
 10
17.35872999999999
 20
21.68928699999999
 30
0.0
 11
17.35872999999999
 21
22.45045999999999
 31
0.0
  0
LINE
  5
7A2
330
1E
100
AcDbEntity
  8
OBJECT
100
AcDbLine
 10
16.23873
 20
21.76928699999999
 30
0.0
 11
17.35872999999999
 21
21.76928699999999
 31
0.0
  0
LINE
  5
7A3
330
1E
100
AcDbEntity
  8
OBJECT
100
AcDbLine
 10
16.38873
 20
22.433287
 30
0.0
 11
17.35872999999999
 21
22.433287
 31
0.0
  0
LINE
  5
7A4
330
1E
100
AcDbEntity
  8
OBJECT
100
AcDbLine
 10
16.23873
 20
22.36828699999999
 30
0.0
 11
17.35872999999999
 21
22.36828699999999
 31
0.0
  0
LINE
  5
7A5
330
1E
100
AcDbEntity
  8
OBJECT
100
AcDbLine
 10
16.23873
 20
22.28928699999999
 30
0.0
 11
17.35872999999999
 21
22.28928699999999
 31
0.0
  0
LINE
  5
7A6
330
1E
100
AcDbEntity
  8
OBJECT
100
AcDbLine
 10
16.23873
 20
22.224287
 30
0.0
 11
17.35872999999999
 21
22.224287
 31
0.0
  0
LINE
  5
7A7
330
1E
100
AcDbEntity
  8
OBJECT
100
AcDbLine
 10
16.23873
 20
22.145287
 30
0.0
 11
17.35872999999999
 21
22.145287
 31
0.0
  0
LINE
  5
7A8
330
1E
100
AcDbEntity
  8
OBJECT
100
AcDbLine
 10
16.23873
 20
22.08028699999999
 30
0.0
 11
17.35872999999999
 21
22.08028699999999
 31
0.0
  0
LINE
  5
7A9
330
1E
100
AcDbEntity
  8
OBJECT
100
AcDbLine
 10
16.38873
 20
22.41578699999999
 30
0.0
 11
16.38873
 21
22.696787
 31
0.0
  0
LINE
  5
7AA
330
1E
100
AcDbEntity
  8
OBJECT
100
AcDbLine
 10
16.38873
 20
22.41578699999999
 30
0.0
 11
16.23873
 21
22.41578699999999
 31
0.0
  0
LINE
  5
7AB
330
1E
100
AcDbEntity
  8
OBJECT
100
AcDbLine
 10
16.28572999999999
 20
21.68928699999999
 30
0.0
 11
16.28572999999999
 21
21.76928699999999
 31
0.0
  0
LINE
  5
7AC
330
1E
100
AcDbEntity
  8
OBJECT
100
AcDbLine
 10
16.23873
 20
22.696787
 30
0.0
 11
16.38873
 21
22.696787
 31
0.0
  0
LINE
  5
7AD
330
1E
100
AcDbEntity
  8
OBJECT
100
AcDbLine
 10
16.23873
 20
25.30378699999999
 30
0.0
 11
16.92673
 21
25.30378699999999
 31
0.0
  0
LINE
  5
7AE
330
1E
100
AcDbEntity
  8
OBJECT
100
AcDbLine
 10
16.42673
 20
24.94778699999999
 30
0.0
 11
16.92673
 21
24.94778699999999
 31
0.0
  0
LINE
  5
7AF
330
1E
100
AcDbEntity
  8
OBJECT
100
AcDbLine
 10
16.42673
 20
25.144787
 30
0.0
 11
16.92673
 21
25.144787
 31
0.0
  0
LINE
  5
7B0
330
1E
100
AcDbEntity
  8
OBJECT
100
AcDbLine
 10
16.38873
 20
24.69628699999999
 30
0.0
 11
17.37372999999999
 21
24.69628699999999
 31
0.0
  0
LINE
  5
7B1
330
1E
100
AcDbEntity
  8
OBJECT
100
AcDbLine
 10
16.38873
 20
24.416287
 30
0.0
 11
17.37372999999999
 21
24.416287
 31
0.0
  0
LINE
  5
7B2
330
1E
100
AcDbEntity
  8
OBJECT
100
AcDbLine
 10
16.42673
 20
24.788787
 30
0.0
 11
16.92673
 21
24.788787
 31
0.0
  0
LINE
  5
7B3
330
1E
100
AcDbEntity
  8
OBJECT
100
AcDbLine
 10
16.38873
 20
24.41578699999999
 30
0.0
 11
16.38873
 21
24.696787
 31
0.0
  0
LINE
  5
7B4
330
1E
100
AcDbEntity
  8
OBJECT
100
AcDbLine
 10
16.30973
 20
24.523287
 30
0.0
 11
16.30973
 21
24.588287
 31
0.0
  0
LINE
  5
7B5
330
1E
100
AcDbEntity
  8
OBJECT
100
AcDbLine
 10
16.38873
 20
24.41578699999999
 30
0.0
 11
16.23873
 21
24.41578699999999
 31
0.0
  0
LINE
  5
7B6
330
1E
100
AcDbEntity
  8
OBJECT
100
AcDbLine
 10
16.23873
 20
24.523287
 30
0.0
 11
16.30973
 21
24.523287
 31
0.0
  0
LINE
  5
7B7
330
1E
100
AcDbEntity
  8
OBJECT
100
AcDbLine
 10
16.42673
 20
25.144787
 30
0.0
 11
16.42673
 21
24.94778699999999
 31
0.0
  0
LINE
  5
7B8
330
1E
100
AcDbEntity
  8
OBJECT
100
AcDbLine
 10
16.23873
 20
24.696787
 30
0.0
 11
16.38873
 21
24.696787
 31
0.0
  0
LINE
  5
7B9
330
1E
100
AcDbEntity
  8
OBJECT
100
AcDbLine
 10
16.42673
 20
24.788787
 30
0.0
 11
16.42673
 21
24.69628699999999
 31
0.0
  0
LINE
  5
7BA
330
1E
100
AcDbEntity
  8
OBJECT
100
AcDbLine
 10
16.23873
 20
24.588287
 30
0.0
 11
16.30973
 21
24.588287
 31
0.0
  0
LINE
  5
7BB
330
1E
100
AcDbEntity
  8
OBJECT
100
AcDbLine
 10
16.23873
 20
24.588287
 30
0.0
 11
16.23873
 21
25.442863
 31
0.0
  0
LINE
  5
7BC
330
1E
100
AcDbEntity
  8
OBJECT
100
AcDbLine
 10
16.92673
 20
25.30378699999999
 30
0.0
 11
16.92673
 21
25.144787
 31
0.0
  0
LINE
  5
7BD
330
1E
100
AcDbEntity
  8
OBJECT
100
AcDbLine
 10
16.92673
 20
24.94778699999999
 30
0.0
 11
16.92673
 21
24.788787
 31
0.0
  0
LINE
  5
7BE
330
1E
100
AcDbEntity
  8
OBJECT
100
AcDbLine
 10
18.60072999999999
 20
25.30378699999999
 30
0.0
 11
18.60072999999999
 21
25.144787
 31
0.0
  0
LINE
  5
7BF
330
1E
100
AcDbEntity
  8
OBJECT
100
AcDbLine
 10
18.60072999999999
 20
24.94778699999999
 30
0.0
 11
18.60072999999999
 21
24.788787
 31
0.0
  0
LINE
  5
7C0
330
1E
100
AcDbEntity
  8
OBJECT
100
AcDbLine
 10
19.30372999999999
 20
21.58972299999999
 30
0.0
 11
19.30372999999999
 21
21.68928699999999
 31
0.0
  0
LINE
  5
7C1
330
1E
100
AcDbEntity
  8
OBJECT
100
AcDbLine
 10
19.24173
 20
21.58972299999999
 30
0.0
 11
19.323816
 21
21.446719
 31
0.0
  0
LINE
  5
7C2
330
1E
100
AcDbEntity
  8
OBJECT
100
AcDbLine
 10
19.28872999999999
 20
21.76928699999999
 30
0.0
 11
19.28872999999999
 21
24.523287
 31
0.0
  0
LINE
  5
7C3
330
1E
100
AcDbEntity
  8
OBJECT
100
AcDbLine
 10
19.13872999999999
 20
22.41578699999999
 30
0.0
 11
19.13872999999999
 21
22.696787
 31
0.0
  0
LINE
  5
7C4
330
1E
100
AcDbEntity
  8
OBJECT
100
AcDbLine
 10
19.13872999999999
 20
22.41578699999999
 30
0.0
 11
19.28872999999999
 21
22.41578699999999
 31
0.0
  0
LINE
  5
7C5
330
1E
100
AcDbEntity
  8
OBJECT
100
AcDbLine
 10
19.24173
 20
21.68928699999999
 30
0.0
 11
19.24173
 21
21.76928699999999
 31
0.0
  0
LINE
  5
7C6
330
1E
100
AcDbEntity
  8
OBJECT
100
AcDbLine
 10
19.28872999999999
 20
22.696787
 30
0.0
 11
19.13872999999999
 21
22.696787
 31
0.0
  0
LINE
  5
7C7
330
1E
100
AcDbEntity
  8
OBJECT
100
AcDbLine
 10
19.13872999999999
 20
24.41578699999999
 30
0.0
 11
19.13872999999999
 21
24.696787
 31
0.0
  0
LINE
  5
7C8
330
1E
100
AcDbEntity
  8
OBJECT
100
AcDbLine
 10
19.21772999999999
 20
24.523287
 30
0.0
 11
19.21772999999999
 21
24.588287
 31
0.0
  0
LINE
  5
7C9
330
1E
100
AcDbEntity
  8
OBJECT
100
AcDbLine
 10
19.13872999999999
 20
24.41578699999999
 30
0.0
 11
19.28872999999999
 21
24.41578699999999
 31
0.0
  0
LINE
  5
7CA
330
1E
100
AcDbEntity
  8
OBJECT
100
AcDbLine
 10
19.28872999999999
 20
24.523287
 30
0.0
 11
19.21772999999999
 21
24.523287
 31
0.0
  0
LINE
  5
7CB
330
1E
100
AcDbEntity
  8
OBJECT
100
AcDbLine
 10
19.10072999999999
 20
25.144787
 30
0.0
 11
19.10072999999999
 21
24.94778699999999
 31
0.0
  0
LINE
  5
7CC
330
1E
100
AcDbEntity
  8
OBJECT
100
AcDbLine
 10
19.10072999999999
 20
24.788787
 30
0.0
 11
19.10072999999999
 21
24.69628699999999
 31
0.0
  0
LINE
  5
7CD
330
1E
100
AcDbEntity
  8
OBJECT
100
AcDbLine
 10
19.28872999999999
 20
24.696787
 30
0.0
 11
19.13872999999999
 21
24.696787
 31
0.0
  0
LINE
  5
7CE
330
1E
100
AcDbEntity
  8
OBJECT
100
AcDbLine
 10
19.28872999999999
 20
24.588287
 30
0.0
 11
19.21772999999999
 21
24.588287
 31
0.0
  0
LINE
  5
7CF
330
1E
100
AcDbEntity
  8
OBJECT
100
AcDbLine
 10
18.16873
 20
27.716287
 30
0.0
 11
18.92872999999999
 21
27.68310399999999
 31
0.0
  0
LINE
  5
7D0
330
1E
100
AcDbEntity
  8
HIDDEN
100
AcDbLine
 10
19.28872999999999
 20
26.823287
 30
0.0
 11
18.16873
 21
26.823287
 31
0.0
  0
LINE
  5
7D1
330
1E
100
AcDbEntity
  8
HIDDEN
100
AcDbLine
 10
19.28872999999999
 20
26.74428699999999
 30
0.0
 11
18.16873
 21
26.74428699999999
 31
0.0
  0
LINE
  5
7D2
330
1E
100
AcDbEntity
  8
HIDDEN
100
AcDbLine
 10
19.13872999999999
 20
26.679287
 30
0.0
 11
18.16873
 21
26.679287
 31
0.0
  0
LINE
  5
7D3
330
1E
100
AcDbEntity
  8
HIDDEN
100
AcDbLine
 10
19.28872999999999
 20
27.032287
 30
0.0
 11
18.16873
 21
27.032287
 31
0.0
  0
LINE
  5
7D4
330
1E
100
AcDbEntity
  8
HIDDEN
100
AcDbLine
 10
19.28872999999999
 20
26.96728699999999
 30
0.0
 11
18.16873
 21
26.96728699999999
 31
0.0
  0
LINE
  5
7D5
330
1E
100
AcDbEntity
  8
HIDDEN
100
AcDbLine
 10
19.28872999999999
 20
26.888287
 30
0.0
 11
18.16873
 21
26.888287
 31
0.0
  0
LINE
  5
7D6
330
1E
100
AcDbEntity
  8
HIDDEN
100
AcDbLine
 10
19.28872999999999
 20
27.343287
 30
0.0
 11
18.16873
 21
27.343287
 31
0.0
  0
LINE
  5
7D7
330
1E
100
AcDbEntity
  8
OBJECT
100
AcDbLine
 10
18.16873
 20
27.716287
 30
0.0
 11
19.41372999999999
 21
27.661929
 31
0.0
  0
LINE
  5
7D8
330
1E
100
AcDbEntity
  8
HIDDEN
100
AcDbLine
 10
16.22373
 20
27.52285
 30
0.0
 11
19.30372999999999
 21
27.52285
 31
0.0
  0
LINE
  5
7D9
330
1E
100
AcDbEntity
  8
HIDDEN
100
AcDbLine
 10
16.22373
 20
27.42328699999999
 30
0.0
 11
19.30372999999999
 21
27.42328699999999
 31
0.0
  0
LINE
  5
7DA
330
1E
100
AcDbEntity
  8
HIDDEN
100
AcDbLine
 10
16.22373
 20
27.52285
 30
0.0
 11
16.22373
 21
27.42328699999999
 31
0.0
  0
LINE
  5
7DB
330
1E
100
AcDbEntity
  8
HIDDEN
100
AcDbLine
 10
16.23873
 20
27.343287
 30
0.0
 11
17.35872999999999
 21
27.343287
 31
0.0
  0
LINE
  5
7DC
330
1E
100
AcDbEntity
  8
HIDDEN
100
AcDbLine
 10
16.23873
 20
27.032287
 30
0.0
 11
17.35872999999999
 21
27.032287
 31
0.0
  0
LINE
  5
7DD
330
1E
100
AcDbEntity
  8
HIDDEN
100
AcDbLine
 10
16.23873
 20
26.96728699999999
 30
0.0
 11
17.35872999999999
 21
26.96728699999999
 31
0.0
  0
LINE
  5
7DE
330
1E
100
AcDbEntity
  8
HIDDEN
100
AcDbLine
 10
16.23873
 20
26.888287
 30
0.0
 11
17.35872999999999
 21
26.888287
 31
0.0
  0
LINE
  5
7DF
330
1E
100
AcDbEntity
  8
HIDDEN
100
AcDbLine
 10
16.23873
 20
26.823287
 30
0.0
 11
17.35872999999999
 21
26.823287
 31
0.0
  0
LINE
  5
7E0
330
1E
100
AcDbEntity
  8
HIDDEN
100
AcDbLine
 10
16.23873
 20
26.74428699999999
 30
0.0
 11
17.35872999999999
 21
26.74428699999999
 31
0.0
  0
LINE
  5
7E1
330
1E
100
AcDbEntity
  8
HIDDEN
100
AcDbLine
 10
16.38873
 20
26.679287
 30
0.0
 11
17.35872999999999
 21
26.679287
 31
0.0
  0
LINE
  5
7E2
330
1E
100
AcDbEntity
  8
HIDDEN
100
AcDbLine
 10
16.38873
 20
26.696787
 30
0.0
 11
16.38873
 21
26.415787
 31
0.0
  0
LINE
  5
7E3
330
1E
100
AcDbEntity
  8
HIDDEN
100
AcDbLine
 10
16.23873
 20
26.415787
 30
0.0
 11
16.38873
 21
26.415787
 31
0.0
  0
LINE
  5
7E4
330
1E
100
AcDbEntity
  8
HIDDEN
100
AcDbLine
 10
16.28572999999999
 20
27.42328699999999
 30
0.0
 11
16.28572999999999
 21
27.343287
 31
0.0
  0
LINE
  5
7E5
330
1E
100
AcDbEntity
  8
HIDDEN
100
AcDbLine
 10
16.38873
 20
26.696787
 30
0.0
 11
16.23873
 21
26.696787
 31
0.0
  0
LINE
  5
7E6
330
1E
100
AcDbEntity
  8
OBJECT
100
AcDbLine
 10
17.35872999999999
 20
27.716287
 30
0.0
 11
16.11373
 21
27.661929
 31
0.0
  0
LINE
  5
7E7
330
1E
100
AcDbEntity
  8
HIDDEN
100
AcDbLine
 10
16.28572999999999
 20
27.52285
 30
0.0
 11
16.203644
 21
27.665854
 31
0.0
  0
LINE
  5
7E8
330
1E
100
AcDbEntity
  8
OBJECT
100
AcDbLine
 10
17.38872999999999
 20
27.69028699999999
 30
0.0
 11
17.37372999999999
 21
27.69028699999999
 31
0.0
  0
LINE
  5
7E9
330
1E
100
AcDbEntity
  8
HIDDEN
100
AcDbLine
 10
19.30372999999999
 20
27.52285
 30
0.0
 11
19.30372999999999
 21
27.42328699999999
 31
0.0
  0
LINE
  5
7EA
330
1E
100
AcDbEntity
  8
HIDDEN
100
AcDbLine
 10
19.13872999999999
 20
26.696787
 30
0.0
 11
19.13872999999999
 21
26.415787
 31
0.0
  0
LINE
  5
7EB
330
1E
100
AcDbEntity
  8
HIDDEN
100
AcDbLine
 10
19.28872999999999
 20
25.54938599999999
 30
0.0
 11
19.28872999999999
 21
27.343287
 31
0.0
  0
LINE
  5
7EC
330
1E
100
AcDbEntity
  8
HIDDEN
100
AcDbLine
 10
19.28872999999999
 20
26.415787
 30
0.0
 11
19.13872999999999
 21
26.415787
 31
0.0
  0
LINE
  5
7ED
330
1E
100
AcDbEntity
  8
HIDDEN
100
AcDbLine
 10
19.24173
 20
27.42328699999999
 30
0.0
 11
19.24173
 21
27.343287
 31
0.0
  0
LINE
  5
7EE
330
1E
100
AcDbEntity
  8
HIDDEN
100
AcDbLine
 10
19.13872999999999
 20
26.696787
 30
0.0
 11
19.28872999999999
 21
26.696787
 31
0.0
  0
LINE
  5
7EF
330
1E
100
AcDbEntity
  8
HIDDEN
100
AcDbLine
 10
19.24173
 20
27.52285
 30
0.0
 11
19.323816
 21
27.665854
 31
0.0
  0
TEXT
  5
7F0
330
1E
100
AcDbEntity
  8
TEXT
100
AcDbText
 10
15.08852199999999
 20
24.874936
 30
0.0
 40
0.375
  1
*
 41
0.75
  7
TXT
100
AcDbText
  0
INSERT
  5
7F1
330
1E
100
AcDbEntity
  8
OBJECT
100
AcDbBlockReference
  2
*X6
 10
0.261409
 20
0.5181060000000001
 30
0.0
1001
ACAD
1000
HATCH
1002
{
1070
    16
1000
ANSI31
1040
0.75
1040
1.570795999999999
1002
}
  0
LINE
  5
7F2
330
1E
100
AcDbEntity
  8
OBJECT
100
AcDbLine
 10
17.38872999999999
 20
21.396287
 30
0.0
 11
17.38872999999999
 21
21.58972299999999
 31
0.0
  0
LINE
  5
7F3
330
1E
100
AcDbEntity
  8
OBJECT
100
AcDbLine
 10
18.13873
 20
21.396287
 30
0.0
 11
18.13873
 21
21.58972299999999
 31
0.0
  0
LINE
  5
7F4
330
1E
100
AcDbEntity
  8
OBJECT
100
AcDbLine
 10
18.13873
 20
21.42228699999999
 30
0.0
 11
18.15373
 21
21.42228699999999
 31
0.0
  0
LINE
  5
7F5
330
1E
100
AcDbEntity
  8
OBJECT
100
AcDbLine
 10
18.15373
 20
21.42228699999999
 30
0.0
 11
18.15373
 21
21.58972299999999
 31
0.0
  0
LINE
  5
7F6
330
1E
100
AcDbEntity
  8
OBJECT
100
AcDbLine
 10
18.16873
 20
21.42228699999999
 30
0.0
 11
18.15373
 21
21.42228699999999
 31
0.0
  0
LINE
  5
7F7
330
1E
100
AcDbEntity
  8
OBJECT
100
AcDbLine
 10
17.38872999999999
 20
21.396287
 30
0.0
 11
18.13873
 21
21.396287
 31
0.0
  0
LINE
  5
7F8
330
1E
100
AcDbEntity
  8
OBJECT
100
AcDbLine
 10
17.38872999999999
 20
24.672287
 30
0.0
 11
17.38872999999999
 21
27.716287
 31
0.0
  0
LINE
  5
7F9
330
1E
100
AcDbEntity
  8
OBJECT
100
AcDbLine
 10
17.38872999999999
 20
21.68928699999999
 30
0.0
 11
17.38872999999999
 21
24.440287
 31
0.0
  0
LINE
  5
7FA
330
1E
100
AcDbEntity
  8
OBJECT
100
AcDbLine
 10
18.15373
 20
21.68928699999999
 30
0.0
 11
18.15373
 21
22.44937399999999
 31
0.0
  0
LINE
  5
7FB
330
1E
100
AcDbEntity
  8
OBJECT
100
AcDbLine
 10
18.13873
 20
21.68928699999999
 30
0.0
 11
18.13873
 21
24.440287
 31
0.0
  0
LINE
  5
7FC
330
1E
100
AcDbEntity
  8
OBJECT
100
AcDbLine
 10
18.13873
 20
27.69028699999999
 30
0.0
 11
18.15373
 21
27.69028699999999
 31
0.0
  0
LINE
  5
7FD
330
1E
100
AcDbEntity
  8
OBJECT
100
AcDbLine
 10
18.16873
 20
27.69028699999999
 30
0.0
 11
18.15373
 21
27.69028699999999
 31
0.0
  0
LINE
  5
7FE
330
1E
100
AcDbEntity
  8
OBJECT
100
AcDbLine
 10
18.13873
 20
24.672287
 30
0.0
 11
18.13873
 21
27.716287
 31
0.0
  0
LINE
  5
7FF
330
1E
100
AcDbEntity
  8
OBJECT
100
AcDbLine
 10
17.38872999999999
 20
27.716287
 30
0.0
 11
18.13873
 21
27.716287
 31
0.0
  0
LINE
  5
800
330
1E
100
AcDbEntity
  8
OBJECT
100
AcDbLine
 10
17.38872999999999
 20
21.76928699999999
 30
0.0
 11
18.13873
 21
21.76928699999999
 31
0.0
  0
LINE
  5
801
330
1E
100
AcDbEntity
  8
OBJECT
100
AcDbLine
 10
17.38872999999999
 20
22.08028699999999
 30
0.0
 11
18.13873
 21
22.08028699999999
 31
0.0
  0
LINE
  5
802
330
1E
100
AcDbEntity
  8
OBJECT
100
AcDbLine
 10
17.38872999999999
 20
22.145287
 30
0.0
 11
18.13873
 21
22.145287
 31
0.0
  0
LINE
  5
803
330
1E
100
AcDbEntity
  8
OBJECT
100
AcDbLine
 10
17.38872999999999
 20
22.224287
 30
0.0
 11
18.13873
 21
22.224287
 31
0.0
  0
LINE
  5
804
330
1E
100
AcDbEntity
  8
OBJECT
100
AcDbLine
 10
17.38872999999999
 20
22.28928699999999
 30
0.0
 11
18.13873
 21
22.28928699999999
 31
0.0
  0
LINE
  5
805
330
1E
100
AcDbEntity
  8
OBJECT
100
AcDbLine
 10
17.38872999999999
 20
22.36828699999999
 30
0.0
 11
18.13873
 21
22.36828699999999
 31
0.0
  0
LINE
  5
806
330
1E
100
AcDbEntity
  8
OBJECT
100
AcDbLine
 10
17.48873
 20
22.433287
 30
0.0
 11
18.03872999999999
 21
22.433287
 31
0.0
  0
LINE
  5
807
330
1E
100
AcDbEntity
  8
HIDDEN
100
AcDbLine
 10
17.48873
 20
26.679287
 30
0.0
 11
18.03872999999999
 21
26.679287
 31
0.0
  0
LINE
  5
808
330
1E
100
AcDbEntity
  8
HIDDEN
100
AcDbLine
 10
17.38872999999999
 20
26.74428699999999
 30
0.0
 11
18.13873
 21
26.74428699999999
 31
0.0
  0
LINE
  5
809
330
1E
100
AcDbEntity
  8
HIDDEN
100
AcDbLine
 10
17.38872999999999
 20
26.823287
 30
0.0
 11
18.13873
 21
26.823287
 31
0.0
  0
LINE
  5
80A
330
1E
100
AcDbEntity
  8
HIDDEN
100
AcDbLine
 10
17.38872999999999
 20
26.888287
 30
0.0
 11
18.13873
 21
26.888287
 31
0.0
  0
LINE
  5
80B
330
1E
100
AcDbEntity
  8
HIDDEN
100
AcDbLine
 10
17.38872999999999
 20
26.96728699999999
 30
0.0
 11
18.13873
 21
26.96728699999999
 31
0.0
  0
LINE
  5
80C
330
1E
100
AcDbEntity
  8
HIDDEN
100
AcDbLine
 10
17.38872999999999
 20
27.032287
 30
0.0
 11
18.13873
 21
27.032287
 31
0.0
  0
LINE
  5
80D
330
1E
100
AcDbEntity
  8
HIDDEN
100
AcDbLine
 10
17.38872999999999
 20
27.343287
 30
0.0
 11
18.13873
 21
27.343287
 31
0.0
  0
TEXT
  5
80E
330
1E
100
AcDbEntity
  8
TEXT
100
AcDbText
 10
19.524261
 20
24.874936
 30
0.0
 40
0.375
  1
*
 41
0.75
  7
TXT
100
AcDbText
  0
DIMENSION
  5
80F
330
1E
100
AcDbEntity
  8
DIM
100
AcDbDimension
  2
*D39
 10
10.3314
 20
22.36828699999999
 30
0.0
 11
11.21514999999999
 21
23.088287
 31
0.0
 70
    32
 71
     5
 42
0.0790000000000006
  3
STD
100
AcDbAlignedDimension
 13
9.571752999999999
 23
22.28928699999999
 33
0.0
 14
9.571752999999999
 24
22.36828699999999
 34
0.0
 50
270.0
100
AcDbRotatedDimension
  0
DIMENSION
  5
81D
330
1E
100
AcDbEntity
  8
DIM
100
AcDbDimension
  2
*D40
 10
11.11955
 20
21.68928699999999
 30
0.0
 11
11.11954999999999
 21
21.917287
 31
0.0
 70
    32
 71
     5
 42
0.4559999999999996
  3
DIM
100
AcDbAlignedDimension
 13
9.571752999999999
 23
22.145287
 33
0.0
 14
9.571752999999999
 24
21.68928699999999
 34
0.0
 50
270.0
100
AcDbRotatedDimension
  0
DIMENSION
  5
82B
330
1E
100
AcDbEntity
  8
DIM
100
AcDbDimension
  2
*D41
 10
11.967651
 20
21.68928699999999
 30
0.0
 11
11.96765099999999
 21
21.989287
 31
0.0
 70
    32
 71
     5
 42
0.5999999999999979
  3
DIM
100
AcDbAlignedDimension
 13
9.571752999999999
 23
22.28928699999999
 33
0.0
 14
9.571752999999999
 24
21.68928699999999
 34
0.0
 50
270.0
100
AcDbRotatedDimension
  0
DIMENSION
  5
839
330
1E
100
AcDbEntity
  8
DIM
100
AcDbDimension
  2
*D42
 10
1.468967801211317
 20
21.68928699999999
 30
0.0
 11
1.468967801211314
 21
24.007513
 31
0.0
 70
   160
 71
     5
 42
5.733999999999998
  3
STD
100
AcDbAlignedDimension
 13
3.801098
 23
27.42328699999999
 33
0.0
 14
3.801098
 24
21.68928699999999
 34
0.0
 50
90.0
100
AcDbRotatedDimension
  0
DIMENSION
  5
847
330
1E
100
AcDbEntity
  8
DIM
100
AcDbDimension
  2
*D43
 10
1.468967801211314
 20
21.396287
 30
0.0
 11
0.5695928012113112
 21
20.676287
 31
0.0
 70
    32
 71
     5
 42
0.2929999999999992
  3
STD
100
AcDbAlignedDimension
 13
3.848098
 23
21.68928699999999
 33
0.0
 14
3.626098
 24
21.396287
 34
0.0
 50
90.0
100
AcDbRotatedDimension
  0
DIMENSION
  5
855
330
1E
100
AcDbEntity
  8
DIM
100
AcDbDimension
  2
*D44
 10
0.7447040000000033
 20
21.396287
 30
0.0
 11
0.7447040000000001
 21
24.711069
 31
0.0
 70
   160
 71
     5
 42
6.32
  3
STD
100
AcDbAlignedDimension
 13
3.626098
 23
27.716287
 33
0.0
 14
3.626098
 24
21.396287
 34
0.0
 50
90.0
100
AcDbRotatedDimension
  0
DIMENSION
  5
863
330
1E
100
AcDbEntity
  8
DIM
100
AcDbDimension
  2
*D45
 10
3.118205
 20
15.153768
 30
0.0
 11
2.250079999999997
 21
14.433768
 31
0.0
 70
    32
 71
     5
 42
0.125
  3
STD
100
AcDbAlignedDimension
 13
3.801098
 23
15.278768
 33
0.0
 14
3.681111
 24
15.153768
 34
0.0
 50
90.0
100
AcDbRotatedDimension
  0
LINE
  5
871
330
1E
100
AcDbEntity
  8
DIM
100
AcDbLine
 10
3.626098
 20
18.771497
 30
0.0
 11
3.626098
 21
17.325351
 31
0.0
  0
LINE
  5
872
330
1E
100
AcDbEntity
  8
DIM
100
AcDbLine
 10
9.746753
 20
18.771497
 30
0.0
 11
9.746753
 21
17.325351
 31
0.0
  0
INSERT
  5
873
330
1E
100
AcDbEntity
  8
OBJECT
100
AcDbBlockReference
  2
*X7
 10
0.0
 20
0.5181060000000001
 30
0.0
1001
ACAD
1000
HATCH
1002
{
1070
    16
1000
ANSI31
1040
0.75
1040
0.0
1002
}
  0
INSERT
  5
874
330
1E
100
AcDbEntity
  8
OBJECT
100
AcDbBlockReference
  2
*X8
 10
0.0
 20
0.5181060000000001
 30
0.0
1001
ACAD
1000
HATCH
1002
{
1070
    16
1000
ANSI31
1040
0.75
1040
0.0
1002
}
  0
LINE
  5
875
330
1E
100
AcDbEntity
  8
OBJECT
100
AcDbLine
 10
3.626752999999999
 20
11.433587
 30
0.0
 11
3.848098
 21
11.433587
 31
0.0
  0
LINE
  5
876
330
1E
100
AcDbEntity
  8
OBJECT
100
AcDbLine
 10
3.626752999999999
 20
10.68358699999999
 30
0.0
 11
3.848098
 21
10.68358699999999
 31
0.0
  0
LINE
  5
877
330
1E
100
AcDbEntity
  8
OBJECT
100
AcDbLine
 10
3.801098
 20
11.433587
 30
0.0
 11
3.801098
 21
10.68358699999999
 31
0.0
  0
LINE
  5
878
330
1E
100
AcDbEntity
  8
OBJECT
100
AcDbLine
 10
3.848098
 20
11.433587
 30
0.0
 11
3.848098
 21
10.68358699999999
 31
0.0
  0
LINE
  5
879
330
1E
100
AcDbEntity
  8
OBJECT
100
AcDbLine
 10
3.626752999999999
 20
10.68358699999999
 30
0.0
 11
3.626752999999999
 21
11.433587
 31
0.0
  0
LINE
  5
87A
330
1E
100
AcDbEntity
  8
OBJECT
100
AcDbLine
 10
9.745442999999999
 20
10.68358699999999
 30
0.0
 11
9.524098
 21
10.68358699999999
 31
0.0
  0
LINE
  5
87B
330
1E
100
AcDbEntity
  8
OBJECT
100
AcDbLine
 10
9.745442999999999
 20
11.433587
 30
0.0
 11
9.524098
 21
11.433587
 31
0.0
  0
LINE
  5
87C
330
1E
100
AcDbEntity
  8
OBJECT
100
AcDbLine
 10
9.745442999999999
 20
10.68358699999999
 30
0.0
 11
9.745442999999999
 21
11.433587
 31
0.0
  0
LINE
  5
87D
330
1E
100
AcDbEntity
  8
OBJECT
100
AcDbLine
 10
9.524098
 20
11.433587
 30
0.0
 11
9.524098
 21
10.68358699999999
 31
0.0
  0
LINE
  5
87E
330
1E
100
AcDbEntity
  8
OBJECT
100
AcDbLine
 10
9.655442999999999
 20
10.68358699999999
 30
0.0
 11
9.655442999999999
 21
11.433587
 31
0.0
  0
TEXT
  5
87F
330
1E
100
AcDbEntity
  8
TEXT
100
AcDbText
 10
1.283637999999999
 20
6.334094999999999
 30
0.0
 40
0.25
  1
MATERIAL:  IMPACT RESISTANT POLYSTYRENE (UL94-HB)
 41
0.75
  7
TXT
100
AcDbText
  0
TEXT
  5
880
330
1E
100
AcDbEntity
  8
TEXT
100
AcDbText
 10
1.283637999999999
 20
5.917428
 30
0.0
 40
0.25
  1
FINISH:  DOUBLE-TEXTURED PC BONE GRAY
 41
0.75
  7
TXT
100
AcDbText
  0
TEXT
  5
881
330
1E
100
AcDbEntity
  8
TEXT
100
AcDbText
 10
1.283637999999999
 20
5.367418999999999
 30
0.0
 40
0.25
  1
PC-11406 & PC-11408 SUPPLIED WITH TWO (2) #6 x 1.750" LG. SCREWS & FOUR (4) RUBBER FEET FOR ASSEMBLY
 41
0.75
  7
TXT
100
AcDbText
  0
TEXT
  5
882
330
1E
100
AcDbEntity
  8
TEXT
100
AcDbText
 10
1.283637999999999
 20
4.950751999999999
 30
0.0
 40
0.25
  1
PC-11410 & PC-11412 SUPPLIED WITH TWO (2) #6 x 2.500" LG. SCREWS & FOUR (4) RUBBER FEET FOR ASSEMBLY.
 41
0.75
  7
TXT
100
AcDbText
  0
TEXT
  5
883
330
1E
100
AcDbEntity
  8
TEXT
100
AcDbText
 10
1.283637999999999
 20
4.534086
 30
0.0
 40
0.25
  1
PC-11414 & PC-11416 SUPPLIED WITH TWO (2) #6 x 3.250" LG. SCREWS & FOUR (4) RUBBER FEET FOR ASSEMBLY.
 41
0.75
  7
TXT
100
AcDbText
  0
TEXT
  5
884
330
1E
100
AcDbEntity
  8
TEXT
100
AcDbText
 10
1.283637999999999
 20
3.929119999999999
 30
0.0
 40
0.25
  1
NOTE:  MOUNTING BOSSES USE EITHER M2.5 METRIC OR #4 STD. SHEET METAL SCREWS x 0.250" LG.  (NOT SUPPLIED).
 41
0.75
  7
TXT
100
AcDbText
  0
TEXT
  5
885
330
1E
100
AcDbEntity
  8
TEXT
100
AcDbText
 10
1.283637999999999
 20
3.280480999999999
 30
0.0
 40
0.25
  1
* - NUT RETAINERS NOT INCLUDED IN THE BASES OF UNITS MARKED WITH ASTERICKS
 41
0.75
  7
TXT
100
AcDbText
  0
INSERT
  5
886
330
1E
100
AcDbEntity
  8
OBJECT
100
AcDbBlockReference
  2
*X9
 10
0.0
 20
0.5181060000000001
 30
0.0
1001
ACAD
1000
HATCH
1002
{
1070
    16
1000
ANSI31
1040
0.75
1040
1.570795999999999
1002
}
  0
LWPOLYLINE
  5
887
330
1E
100
AcDbEntity
  8
OBJECT
100
AcDbPolyline
 90
        6
 70
     0
 43
0.0
 10
7.741171
 20
21.446719
 42
0.000298
 10
7.678799
 20
21.781242
 42
-0.161337
 10
7.791416
 20
22.81936299999999
 42
0.218926
 10
7.766389999999999
 20
24.220823
 42
-0.131633
 10
7.766389999999999
 20
26.629769
 42
0.160763
 10
7.901961
 20
27.665854
 42
1.256120999999999
  0
LINE
  5
88F
330
1E
100
AcDbEntity
  8
OBJECT
100
AcDbLine
 10
17.37372999999999
 20
27.69028699999999
 30
0.0
 11
17.35872999999999
 21
27.69028699999999
 31
0.0
  0
CIRCLE
  5
890
330
1E
100
AcDbEntity
  8
OBJECT
100
AcDbCircle
 10
4.046098
 20
24.556287
 30
0.0
 40
0.075
  0
CIRCLE
  5
891
330
1E
100
AcDbEntity
  8
HIDDEN
100
AcDbCircle
 10
9.326097999999999
 20
24.556287
 30
0.0
 40
0.075
  0
LINE
  5
892
330
1E
100
AcDbEntity
  8
OBJECT
100
AcDbLine
 10
3.785098
 20
16.42876799999999
 30
0.0
 11
3.785098
 21
16.413768
 31
0.0
  0
LINE
  5
893
330
1E
100
AcDbEntity
  8
OBJECT
100
AcDbLine
 10
3.785098
 20
16.413768
 30
0.0
 11
3.785098
 21
16.398768
 31
0.0
  0
LINE
  5
894
330
1E
100
AcDbEntity
  8
OBJECT
100
AcDbLine
 10
9.715752999999999
 20
16.413768
 30
0.0
 11
9.587752999999999
 21
16.413768
 31
0.0
  0
LINE
  5
895
330
1E
100
AcDbEntity
  8
OBJECT
100
AcDbLine
 10
9.587752999999999
 20
16.413768
 30
0.0
 11
9.587752999999999
 21
16.398768
 31
0.0
  0
LINE
  5
896
330
1E
100
AcDbEntity
  8
OBJECT
100
AcDbLine
 10
9.587752999999999
 20
16.42876799999999
 30
0.0
 11
9.587752999999999
 21
16.413768
 31
0.0
  0
LINE
  5
897
330
1E
100
AcDbEntity
  8
OBJECT
100
AcDbLine
 10
9.715752999999999
 20
16.413768
 30
0.0
 11
9.715752999999999
 21
16.398768
 31
0.0
  0
LINE
  5
898
330
1E
100
AcDbEntity
  8
OBJECT
100
AcDbLine
 10
9.715752999999999
 20
16.42876799999999
 30
0.0
 11
9.715752999999999
 21
16.413768
 31
0.0
  0
LINE
  5
899
330
1E
100
AcDbEntity
  8
OBJECT
100
AcDbLine
 10
3.657098
 20
11.448587
 30
0.0
 11
3.785098
 21
11.448587
 31
0.0
  0
LINE
  5
89A
330
1E
100
AcDbEntity
  8
OBJECT
100
AcDbLine
 10
3.785098
 20
11.448587
 30
0.0
 11
3.785098
 21
11.433587
 31
0.0
  0
LINE
  5
89B
330
1E
100
AcDbEntity
  8
OBJECT
100
AcDbLine
 10
3.785098
 20
11.463587
 30
0.0
 11
3.785098
 21
11.448587
 31
0.0
  0
LINE
  5
89C
330
1E
100
AcDbEntity
  8
OBJECT
100
AcDbLine
 10
3.657098
 20
11.448587
 30
0.0
 11
3.657098
 21
11.433587
 31
0.0
  0
LINE
  5
89D
330
1E
100
AcDbEntity
  8
OBJECT
100
AcDbLine
 10
3.657098
 20
11.463587
 30
0.0
 11
3.657098
 21
11.448587
 31
0.0
  0
LINE
  5
89E
330
1E
100
AcDbEntity
  8
OBJECT
100
AcDbLine
 10
9.715752999999999
 20
11.448587
 30
0.0
 11
9.587752999999999
 21
11.448587
 31
0.0
  0
LINE
  5
89F
330
1E
100
AcDbEntity
  8
OBJECT
100
AcDbLine
 10
9.587752999999999
 20
11.463587
 30
0.0
 11
9.587752999999999
 21
11.448587
 31
0.0
  0
LINE
  5
8A0
330
1E
100
AcDbEntity
  8
OBJECT
100
AcDbLine
 10
9.587752999999999
 20
11.448587
 30
0.0
 11
9.587752999999999
 21
11.433587
 31
0.0
  0
LINE
  5
8A1
330
1E
100
AcDbEntity
  8
OBJECT
100
AcDbLine
 10
9.715752999999999
 20
11.463587
 30
0.0
 11
9.715752999999999
 21
11.448587
 31
0.0
  0
LINE
  5
8A2
330
1E
100
AcDbEntity
  8
OBJECT
100
AcDbLine
 10
9.715752999999999
 20
11.448587
 30
0.0
 11
9.715752999999999
 21
11.433587
 31
0.0
  0
LINE
  5
8A3
330
1E
100
AcDbEntity
  8
OBJECT
100
AcDbLine
 10
9.715752999999999
 20
10.66858699999999
 30
0.0
 11
9.587752999999999
 21
10.66858699999999
 31
0.0
  0
LINE
  5
8A4
330
1E
100
AcDbEntity
  8
OBJECT
100
AcDbLine
 10
9.587752999999999
 20
10.66858699999999
 30
0.0
 11
9.587752999999999
 21
10.65358699999999
 31
0.0
  0
LINE
  5
8A5
330
1E
100
AcDbEntity
  8
OBJECT
100
AcDbLine
 10
9.587752999999999
 20
10.68358699999999
 30
0.0
 11
9.587752999999999
 21
10.66858699999999
 31
0.0
  0
LINE
  5
8A6
330
1E
100
AcDbEntity
  8
OBJECT
100
AcDbLine
 10
9.715752999999999
 20
10.66858699999999
 30
0.0
 11
9.715752999999999
 21
10.65358699999999
 31
0.0
  0
LINE
  5
8A7
330
1E
100
AcDbEntity
  8
OBJECT
100
AcDbLine
 10
9.715752999999999
 20
10.68358699999999
 30
0.0
 11
9.715752999999999
 21
10.66858699999999
 31
0.0
  0
LINE
  5
8A8
330
1E
100
AcDbEntity
  8
OBJECT
100
AcDbLine
 10
3.657098
 20
10.68358699999999
 30
0.0
 11
3.657098
 21
10.66858699999999
 31
0.0
  0
LINE
  5
8A9
330
1E
100
AcDbEntity
  8
OBJECT
100
AcDbLine
 10
3.657098
 20
10.66858699999999
 30
0.0
 11
3.657098
 21
10.65358699999999
 31
0.0
  0
LINE
  5
8AA
330
1E
100
AcDbEntity
  8
OBJECT
100
AcDbLine
 10
3.785098
 20
10.68358699999999
 30
0.0
 11
3.785098
 21
10.66858699999999
 31
0.0
  0
LINE
  5
8AB
330
1E
100
AcDbEntity
  8
OBJECT
100
AcDbLine
 10
3.785098
 20
10.66858699999999
 30
0.0
 11
3.785098
 21
10.65358699999999
 31
0.0
  0
LINE
  5
8AC
330
1E
100
AcDbEntity
  8
OBJECT
100
AcDbLine
 10
3.657098
 20
10.66858699999999
 30
0.0
 11
3.785098
 21
10.66858699999999
 31
0.0
  0
LINE
  5
8AD
330
1E
100
AcDbEntity
  8
OBJECT
100
AcDbLine
 10
13.700595
 20
27.69028699999999
 30
0.0
 11
13.715595
 21
27.69028699999999
 31
0.0
  0
LINE
  5
8AE
330
1E
100
AcDbEntity
  8
OBJECT
100
AcDbLine
 10
17.37372999999999
 20
24.672287
 30
0.0
 11
17.70772999999999
 21
24.672287
 31
0.0
  0
LINE
  5
8AF
330
1E
100
AcDbEntity
  8
OBJECT
100
AcDbLine
 10
17.37372999999999
 20
24.440287
 30
0.0
 11
17.70772999999999
 21
24.440287
 31
0.0
  0
LINE
  5
8B0
330
1E
100
AcDbEntity
  8
OBJECT
100
AcDbLine
 10
17.70772999999999
 20
24.672287
 30
0.0
 11
17.70772999999999
 21
24.440287
 31
0.0
  0
LINE
  5
8B1
330
1E
100
AcDbEntity
  8
OBJECT
100
AcDbLine
 10
17.81972999999999
 20
24.672287
 30
0.0
 11
17.81972999999999
 21
24.440287
 31
0.0
  0
LINE
  5
8B2
330
1E
100
AcDbEntity
  8
OBJECT
100
AcDbLine
 10
17.81972999999999
 20
24.672287
 30
0.0
 11
18.15373
 21
24.672287
 31
0.0
  0
LINE
  5
8B3
330
1E
100
AcDbEntity
  8
OBJECT
100
AcDbLine
 10
17.81972999999999
 20
24.440287
 30
0.0
 11
18.15373
 21
24.440287
 31
0.0
  0
LINE
  5
8B4
330
1E
100
AcDbEntity
  8
OBJECT
100
AcDbLine
 10
17.18172999999999
 20
22.463287
 30
0.0
 11
17.18172999999999
 21
24.416287
 31
0.0
  0
LINE
  5
8B5
330
1E
100
AcDbEntity
  8
OBJECT
100
AcDbLine
 10
18.34572999999999
 20
22.463287
 30
0.0
 11
18.34572999999999
 21
24.416287
 31
0.0
  0
LINE
  5
8B6
330
1E
100
AcDbEntity
  8
OBJECT
100
AcDbLine
 10
18.34572999999999
 20
22.463287
 30
0.0
 11
18.13873
 21
22.448287
 31
0.0
  0
LINE
  5
8B7
330
1E
100
AcDbEntity
  8
OBJECT
100
AcDbLine
 10
17.18172999999999
 20
22.463287
 30
0.0
 11
17.38872999999999
 21
22.448287
 31
0.0
  0
LINE
  5
8B8
330
1E
100
AcDbEntity
  8
HIDDEN
100
AcDbLine
 10
17.18172999999999
 20
26.649287
 30
0.0
 11
17.38872999999999
 21
26.66428699999999
 31
0.0
  0
LINE
  5
8B9
330
1E
100
AcDbEntity
  8
HIDDEN
100
AcDbLine
 10
18.34572999999999
 20
26.649287
 30
0.0
 11
18.13873
 21
26.66428699999999
 31
0.0
  0
LINE
  5
8BA
330
1E
100
AcDbEntity
  8
HIDDEN
100
AcDbLine
 10
18.34572999999999
 20
25.432428
 30
0.0
 11
18.34572999999999
 21
26.649287
 31
0.0
  0
LINE
  5
8BB
330
1E
100
AcDbEntity
  8
HIDDEN
100
AcDbLine
 10
17.18172999999999
 20
25.665389
 30
0.0
 11
17.18172999999999
 21
26.649287
 31
0.0
  0
LINE
  5
8BC
330
1E
100
AcDbEntity
  8
OBJECT
100
AcDbLine
 10
17.18172999999999
 20
24.69628699999999
 30
0.0
 11
17.18172999999999
 21
25.665389
 31
0.0
  0
LINE
  5
8BD
330
1E
100
AcDbEntity
  8
OBJECT
100
AcDbLine
 10
18.34572999999999
 20
24.69628699999999
 30
0.0
 11
18.34572999999999
 21
25.432428
 31
0.0
  0
LINE
  5
8BE
330
1E
100
AcDbEntity
  8
OBJECT
100
AcDbLine
 10
18.15373
 20
24.69628699999999
 30
0.0
 11
18.15373
 21
24.416287
 31
0.0
  0
LINE
  5
8BF
330
1E
100
AcDbEntity
  8
OBJECT
100
AcDbLine
 10
17.37372999999999
 20
24.416287
 30
0.0
 11
17.37372999999999
 21
24.69628699999999
 31
0.0
  0
LINE
  5
8C0
330
1E
100
AcDbEntity
  8
OBJECT
100
AcDbLine
 10
17.48873
 20
22.433287
 30
0.0
 11
17.48873
 21
24.440287
 31
0.0
  0
LINE
  5
8C1
330
1E
100
AcDbEntity
  8
OBJECT
100
AcDbLine
 10
18.03872999999999
 20
22.433287
 30
0.0
 11
18.03872999999999
 21
24.440287
 31
0.0
  0
LINE
  5
8C2
330
1E
100
AcDbEntity
  8
HIDDEN
100
AcDbLine
 10
17.48873
 20
26.679287
 30
0.0
 11
17.48873
 21
25.637877
 31
0.0
  0
LINE
  5
8C3
330
1E
100
AcDbEntity
  8
HIDDEN
100
AcDbLine
 10
18.03872999999999
 20
26.679287
 30
0.0
 11
18.03872999999999
 21
25.47310299999999
 31
0.0
  0
LINE
  5
8C4
330
1E
100
AcDbEntity
  8
OBJECT
100
AcDbLine
 10
17.48873
 20
25.637877
 30
0.0
 11
17.48873
 21
24.672287
 31
0.0
  0
LINE
  5
8C5
330
1E
100
AcDbEntity
  8
OBJECT
100
AcDbLine
 10
18.03872999999999
 20
25.47310299999999
 30
0.0
 11
18.03872999999999
 21
24.672287
 31
0.0
  0
LINE
  5
8C6
330
1E
100
AcDbEntity
  8
OBJECT
100
AcDbLine
 10
4.186098
 20
11.114587
 30
0.0
 11
3.848098
 21
11.114587
 31
0.0
  0
LINE
  5
8C7
330
1E
100
AcDbEntity
  8
OBJECT
100
AcDbLine
 10
4.186098
 20
11.002587
 30
0.0
 11
3.848098
 21
11.002587
 31
0.0
  0
LINE
  5
8C8
330
1E
100
AcDbEntity
  8
OBJECT
100
AcDbLine
 10
4.186098
 20
11.002587
 30
0.0
 11
4.186098
 21
10.66858699999999
 31
0.0
  0
LINE
  5
8C9
330
1E
100
AcDbEntity
  8
OBJECT
100
AcDbLine
 10
3.906098
 20
11.640587
 30
0.0
 11
3.848098
 21
11.640587
 31
0.0
  0
LINE
  5
8CA
330
1E
100
AcDbEntity
  8
OBJECT
100
AcDbLine
 10
3.906098
 20
10.476587
 30
0.0
 11
3.848098
 21
10.476587
 31
0.0
  0
LINE
  5
8CB
330
1E
100
AcDbEntity
  8
HIDDEN
100
AcDbLine
 10
9.186752999999999
 20
11.002587
 30
0.0
 11
9.524753
 21
11.002587
 31
0.0
  0
LINE
  5
8CC
330
1E
100
AcDbEntity
  8
HIDDEN
100
AcDbLine
 10
9.186752999999999
 20
11.114587
 30
0.0
 11
9.524753
 21
11.114587
 31
0.0
  0
LINE
  5
8CD
330
1E
100
AcDbEntity
  8
HIDDEN
100
AcDbLine
 10
9.186752999999999
 20
11.002587
 30
0.0
 11
9.186752999999999
 21
10.66858699999999
 31
0.0
  0
LINE
  5
8CE
330
1E
100
AcDbEntity
  8
OBJECT
100
AcDbLine
 10
3.848098
 20
16.860768
 30
0.0
 11
3.906098
 21
16.860768
 31
0.0
  0
LINE
  5
8CF
330
1E
100
AcDbEntity
  8
OBJECT
100
AcDbLine
 10
3.848098
 20
15.966768
 30
0.0
 11
3.906098
 21
15.966768
 31
0.0
  0
LINE
  5
8D0
330
1E
100
AcDbEntity
  8
HIDDEN
100
AcDbLine
 10
9.466753
 20
16.860768
 30
0.0
 11
9.524753
 21
16.860768
 31
0.0
  0
LINE
  5
8D1
330
1E
100
AcDbEntity
  8
HIDDEN
100
AcDbLine
 10
9.466753
 20
15.966768
 30
0.0
 11
9.524753
 21
15.966768
 31
0.0
  0
LINE
  5
8D2
330
1E
100
AcDbEntity
  8
HIDDEN
100
AcDbLine
 10
9.186752999999999
 20
17.47776799999999
 30
0.0
 11
9.006598
 21
17.47776799999999
 31
0.0
  0
LINE
  5
8D3
330
1E
100
AcDbEntity
  8
HIDDEN
100
AcDbLine
 10
9.186752999999999
 20
15.34976799999999
 30
0.0
 11
9.006598
 21
15.34976799999999
 31
0.0
  0
LINE
  5
8D4
330
1E
100
AcDbEntity
  8
OBJECT
100
AcDbLine
 10
7.895280999999999
 20
17.47776799999999
 30
0.0
 11
6.826597999999999
 21
17.47776799999999
 31
0.0
  0
LINE
  5
8D5
330
1E
100
AcDbEntity
  8
OBJECT
100
AcDbLine
 10
7.950071
 20
15.34976799999999
 30
0.0
 11
6.826597999999999
 21
15.34976799999999
 31
0.0
  0
LINE
  5
8D6
330
1E
100
AcDbEntity
  8
HIDDEN
100
AcDbLine
 10
8.725597999999999
 20
17.47776799999999
 30
0.0
 11
7.895280999999999
 21
17.47776799999999
 31
0.0
  0
LINE
  5
8D7
330
1E
100
AcDbEntity
  8
HIDDEN
100
AcDbLine
 10
8.725597999999999
 20
15.34976799999999
 30
0.0
 11
7.950071
 21
15.34976799999999
 31
0.0
  0
LINE
  5
8D8
330
1E
100
AcDbEntity
  8
OBJECT
100
AcDbLine
 10
6.545598
 20
15.34976799999999
 30
0.0
 11
4.646598
 21
15.34976799999999
 31
0.0
  0
LINE
  5
8D9
330
1E
100
AcDbEntity
  8
OBJECT
100
AcDbLine
 10
6.545598
 20
17.47776799999999
 30
0.0
 11
4.646598
 21
17.47776799999999
 31
0.0
  0
LINE
  5
8DA
330
1E
100
AcDbEntity
  8
OBJECT
100
AcDbLine
 10
4.365598
 20
17.47776799999999
 30
0.0
 11
4.186098
 21
17.47776799999999
 31
0.0
  0
LINE
  5
8DB
330
1E
100
AcDbEntity
  8
OBJECT
100
AcDbLine
 10
4.365598
 20
15.34976799999999
 30
0.0
 11
4.186098
 21
15.34976799999999
 31
0.0
  0
LINE
  5
8DC
330
1E
100
AcDbEntity
  8
OBJECT
100
AcDbLine
 10
3.848098
 20
11.89558699999999
 30
0.0
 11
3.906098
 21
11.89558699999999
 31
0.0
  0
LINE
  5
8DD
330
1E
100
AcDbEntity
  8
OBJECT
100
AcDbLine
 10
3.848098
 20
10.221587
 30
0.0
 11
3.906098
 21
10.221587
 31
0.0
  0
LINE
  5
8DE
330
1E
100
AcDbEntity
  8
HIDDEN
100
AcDbLine
 10
9.186752999999999
 20
12.512587
 30
0.0
 11
9.006598
 21
12.512587
 31
0.0
  0
LINE
  5
8DF
330
1E
100
AcDbEntity
  8
HIDDEN
100
AcDbLine
 10
9.186752999999999
 20
9.604586999999998
 30
0.0
 11
9.006598
 21
9.604586999999998
 31
0.0
  0
LINE
  5
8E0
330
1E
100
AcDbEntity
  8
OBJECT
100
AcDbLine
 10
7.873810999999999
 20
12.512587
 30
0.0
 11
6.826597999999999
 21
12.512587
 31
0.0
  0
LINE
  5
8E1
330
1E
100
AcDbEntity
  8
OBJECT
100
AcDbLine
 10
7.907681
 20
9.604586999999998
 30
0.0
 11
6.826597999999999
 21
9.604586999999998
 31
0.0
  0
LINE
  5
8E2
330
1E
100
AcDbEntity
  8
HIDDEN
100
AcDbLine
 10
8.725597999999999
 20
12.512587
 30
0.0
 11
7.873810999999999
 21
12.512587
 31
0.0
  0
LINE
  5
8E3
330
1E
100
AcDbEntity
  8
HIDDEN
100
AcDbLine
 10
8.725597999999999
 20
9.604586999999998
 30
0.0
 11
7.907681
 21
9.604586999999998
 31
0.0
  0
LINE
  5
8E4
330
1E
100
AcDbEntity
  8
HIDDEN
100
AcDbLine
 10
9.466753
 20
11.89558699999999
 30
0.0
 11
9.524753
 21
11.89558699999999
 31
0.0
  0
LINE
  5
8E5
330
1E
100
AcDbEntity
  8
HIDDEN
100
AcDbLine
 10
9.466753
 20
10.221587
 30
0.0
 11
9.524753
 21
10.221587
 31
0.0
  0
LINE
  5
8E6
330
1E
100
AcDbEntity
  8
OBJECT
100
AcDbLine
 10
4.365598
 20
12.512587
 30
0.0
 11
4.186098
 21
12.512587
 31
0.0
  0
LINE
  5
8E7
330
1E
100
AcDbEntity
  8
OBJECT
100
AcDbLine
 10
6.545598
 20
12.512587
 30
0.0
 11
4.646598
 21
12.512587
 31
0.0
  0
LINE
  5
8E8
330
1E
100
AcDbEntity
  8
OBJECT
100
AcDbLine
 10
4.365598
 20
9.604586999999998
 30
0.0
 11
4.186098
 21
9.604586999999998
 31
0.0
  0
LINE
  5
8E9
330
1E
100
AcDbEntity
  8
OBJECT
100
AcDbLine
 10
6.545598
 20
9.604586999999998
 30
0.0
 11
4.646598
 21
9.604586999999998
 31
0.0
  0
LINE
  5
8EA
330
1E
100
AcDbEntity
  8
HIDDEN
100
AcDbLine
 10
9.466097999999998
 20
11.640587
 30
0.0
 11
9.524098
 21
11.640587
 31
0.0
  0
LINE
  5
8EB
330
1E
100
AcDbEntity
  8
HIDDEN
100
AcDbLine
 10
9.466097999999998
 20
10.476587
 30
0.0
 11
9.524098
 21
10.476587
 31
0.0
  0
LINE
  5
8EC
330
1E
100
AcDbEntity
  8
TITLE
100
AcDbLine
 10
3.194770999999999
 20
0.124
 30
0.0
 11
3.194770999999999
 21
3.036
 31
0.0
  0
LINE
  5
8ED
330
1E
100
AcDbEntity
  8
TITLE
100
AcDbLine
 10
4.403770999999999
 20
0.124
 30
0.0
 11
4.403770999999999
 21
3.036
 31
0.0
  0
LINE
  5
8EE
330
1E
100
AcDbEntity
  8
TITLE
100
AcDbLine
 10
5.612770999999999
 20
0.124
 30
0.0
 11
5.612770999999999
 21
3.036
 31
0.0
  0
LINE
  5
8EF
330
1E
100
AcDbEntity
  8
TITLE
100
AcDbLine
 10
6.821771
 20
0.124
 30
0.0
 11
6.821771
 21
3.036
 31
0.0
  0
LINE
  5
8F0
330
1E
100
AcDbEntity
  8
TITLE
100
AcDbLine
 10
8.030771000000001
 20
0.124
 30
0.0
 11
8.030771000000001
 21
3.036
 31
0.0
  0
LINE
  5
8F1
330
1E
100
AcDbEntity
  8
TITLE
100
AcDbLine
 10
9.239771000000001
 20
0.124
 30
0.0
 11
9.239771000000001
 21
3.036
 31
0.0
  0
LINE
  5
8F2
330
1E
100
AcDbEntity
  8
TITLE
100
AcDbLine
 10
10.448771
 20
0.124
 30
0.0
 11
10.448771
 21
3.036
 31
0.0
  0
LINE
  5
8F3
330
1E
100
AcDbEntity
  8
TITLE
100
AcDbLine
 10
11.657771
 20
0.124
 30
0.0
 11
11.657771
 21
3.036
 31
0.0
  0
LINE
  5
8F4
330
1E
100
AcDbEntity
  8
TITLE
100
AcDbLine
 10
12.866771
 20
0.124
 30
0.0
 11
12.866771
 21
3.036
 31
0.0
  0
LINE
  5
8F5
330
1E
100
AcDbEntity
  8
TITLE
100
AcDbLine
 10
14.075771
 20
0.124
 30
0.0
 11
14.075771
 21
3.036
 31
0.0
  0
LINE
  5
8F6
330
1E
100
AcDbEntity
  8
TITLE
100
AcDbLine
 10
15.28477099999999
 20
0.124
 30
0.0
 11
15.28477099999999
 21
3.036
 31
0.0
  0
LINE
  5
8F7
330
1E
100
AcDbEntity
  8
TITLE
100
AcDbLine
 10
16.49377099999999
 20
0.124
 30
0.0
 11
16.49377099999999
 21
3.036
 31
0.0
  0
LINE
  5
8F8
330
1E
100
AcDbEntity
  8
TITLE
100
AcDbLine
 10
17.70277099999999
 20
0.124
 30
0.0
 11
17.70277099999999
 21
3.036
 31
0.0
  0
LINE
  5
8F9
330
1E
100
AcDbEntity
  8
TITLE
100
AcDbLine
 10
18.91177099999999
 20
0.124
 30
0.0
 11
18.91177099999999
 21
3.036
 31
0.0
  0
TEXT
  5
8FA
330
1E
100
AcDbEntity
  8
TEXT
100
AcDbText
 10
19.42243699999999
 20
2.705808999999999
 30
0.0
 40
0.25
  1
P
 41
0.75
  7
TXT
 72
     1
 11
19.484937
 21
2.705808999999999
 31
0.0
100
AcDbText
  0
TEXT
  5
8FB
330
1E
100
AcDbEntity
  8
TEXT
100
AcDbText
 10
11.893249
 20
2.289143
 30
0.0
 40
0.25
  1
5.770
 41
0.75
  7
TXT
 72
     1
 11
12.252624
 21
2.289143
 31
0.0
100
AcDbText
  0
TEXT
  5
8FC
330
1E
100
AcDbEntity
  8
TEXT
100
AcDbText
 10
11.893249
 20
1.872475999999999
 30
0.0
 40
0.25
  1
7.750
 41
0.75
  7
TXT
 72
     1
 11
12.252624
 21
1.872475999999999
 31
0.0
100
AcDbText
  0
TEXT
  5
8FD
330
1E
100
AcDbEntity
  8
TEXT
100
AcDbText
 10
11.893249
 20
1.457143
 30
0.0
 40
0.25
  1
5.770
 41
0.75
  7
TXT
 72
     1
 11
12.252624
 21
1.457143
 31
0.0
100
AcDbText
  0
TEXT
  5
8FE
330
1E
100
AcDbEntity
  8
TEXT
100
AcDbText
 10
11.893249
 20
1.040475999999999
 30
0.0
 40
0.25
  1
7.750
 41
0.75
  7
TXT
 72
     1
 11
12.252624
 21
1.040475999999999
 31
0.0
100
AcDbText
  0
TEXT
  5
8FF
330
1E
100
AcDbEntity
  8
TEXT
100
AcDbText
 10
11.893249
 20
0.625143
 30
0.0
 40
0.25
  1
5.770
 41
0.75
  7
TXT
 72
     1
 11
12.252624
 21
0.625143
 31
0.0
100
AcDbText
  0
TEXT
  5
900
330
1E
100
AcDbEntity
  8
TEXT
100
AcDbText
 10
11.893249
 20
0.208476
 30
0.0
 40
0.25
  1
7.750
 41
0.75
  7
TXT
 72
     1
 11
12.252624
 21
0.208476
 31
0.0
100
AcDbText
  0
TEXT
  5
901
330
1E
100
AcDbEntity
  8
TEXT
100
AcDbText
 10
0.29737
 20
2.289473
 30
0.0
 40
0.25
  1
*
 41
0.75
  7
TXT
 72
     1
 11
0.35987
 21
2.289473
 31
0.0
100
AcDbText
  0
TEXT
  5
902
330
1E
100
AcDbEntity
  8
TEXT
100
AcDbText
 10
0.29737
 20
1.456139999999999
 30
0.0
 40
0.25
  1
*
 41
0.75
  7
TXT
 72
     1
 11
0.35987
 21
1.456139999999999
 31
0.0
100
AcDbText
  0
TEXT
  5
903
330
1E
100
AcDbEntity
  8
TEXT
100
AcDbText
 10
0.29737
 20
0.622807
 30
0.0
 40
0.25
  1
*
 41
0.75
  7
TXT
 72
     1
 11
0.35987
 21
0.622807
 31
0.0
100
AcDbText
  0
LINE
  5
904
330
1E
100
AcDbEntity
  8
OBJECT
100
AcDbLine
 10
17.37372999999999
 20
27.69028699999999
 30
0.0
 11
17.37372999999999
 21
25.659619
 31
0.0
  0
LINE
  5
905
330
1E
100
AcDbEntity
  8
OBJECT
100
AcDbLine
 10
18.15373
 20
27.69028699999999
 30
0.0
 11
18.15373
 21
25.453285
 31
0.0
  0
TEXT
  5
906
330
1E
100
AcDbEntity
  8
TEXT
100
AcDbText
 10
1.283637999999999
 20
7.306688999999999
 30
0.0
 40
0.25
  1
NOTE: ALL DIMENSIONS HAVE %%P0.015 TOLERANCE
 41
0.75
  7
TXT
100
AcDbText
  0
TEXT
  5
907
330
1E
100
AcDbEntity
  8
TEXT
100
AcDbText
 10
1.834165
 20
6.901938999999999
 30
0.0
 40
0.25
  1
UNLESS OTHERWISE SPECIFIED
 41
0.75
  7
TXT
100
AcDbText
  0
LINE
  5
AC3
330
1E
100
AcDbEntity
  8
DIM
100
AcDbLine
 10
4.815381920242795
 20
24.164287
 30
0.0
 11
4.815381920242795
 21
23.804287
 31
0.0
  0
LINE
  5
AC4
330
1E
100
AcDbEntity
  8
DIM
100
AcDbLine
 10
4.815381920242795
 20
24.949287
 30
0.0
 11
4.815381920242795
 21
25.309287
 31
0.0
  0
LINE
  5
AC5
330
1E
100
AcDbEntity
  8
DIM
100
AcDbLine
 10
4.815381920242795
 20
23.804287
 30
0.0
 11
5.175381920242795
 21
23.804287
 31
0.0
  0
SOLID
  5
AC6
330
1E
100
AcDbEntity
  8
DIM
100
AcDbTrace
 10
4.755381920242795
 20
24.164287
 30
0.0
 11
4.875381920242794
 21
24.164287
 31
0.0
 12
4.815381920242795
 22
24.524287
 32
0.0
 13
4.815381920242795
 23
24.524287
 33
0.0
  0
SOLID
  5
AC7
330
1E
100
AcDbEntity
  8
DIM
100
AcDbTrace
 10
4.755381920242795
 20
24.949287
 30
0.0
 11
4.875381920242794
 21
24.949287
 31
0.0
 12
4.815381920242795
 22
24.589287
 32
0.0
 13
4.815381920242795
 23
24.589287
 33
0.0
  0
MTEXT
  5
AC8
330
1E
100
AcDbEntity
  8
DIM
100
AcDbMText
 10
5.699131920242791
 20
23.804287
 30
0.0
 40
0.25
 41
0.0
 71
     5
 72
     1
  1
\A1;0.065
  7
TXT
 73
     1
 44
1.0
  0
DIMENSION
  5
BDB
330
1E
100
AcDbEntity
  8
DIM
100
AcDbDimension
  2
*D46
 10
3.993098
 20
25.83591707051194
 30
0.0
 11
5.221223
 21
25.83591707051194
 31
0.0
 70
   160
 71
     5
 42
0.1919999999999997
  3
STD
100
AcDbAlignedDimension
 13
3.801098
 23
25.52791306802041
 33
0.0
 14
3.993098
 24
25.30378699999999
 34
0.0
100
AcDbRotatedDimension
  0
DIMENSION
  5
BF4
330
1E
100
AcDbEntity
  8
DIM
100
AcDbDimension
  2
*D47
 10
3.848098
 20
23.01122578267914
 30
0.0
 11
5.091848
 21
23.01122578267914
 31
0.0
 70
    32
 71
     5
 42
0.0469999999999997
  3
STD
100
AcDbAlignedDimension
 13
3.801098
 23
22.433287
 33
0.0
 14
3.848098
 24
22.433287
 34
0.0
100
AcDbRotatedDimension
  0
ENDSEC
  0
SECTION
  2
OBJECTS
  0
DICTIONARY
  5
C
330
0
100
AcDbDictionary
281
     1
  3
ACAD_GROUP
350
D
  3
ACAD_LAYOUT
350
19
  3
ACAD_MLINESTYLE
350
16
  3
ACAD_PLOTSETTINGS
350
18
  3
ACAD_PLOTSTYLENAME
350
E
  0
DICTIONARY
  5
D
102
{ACAD_REACTORS
330
C
102
}
330
C
100
AcDbDictionary
281
     1
  0
DICTIONARY
  5
19
102
{ACAD_REACTORS
330
C
102
}
330
C
100
AcDbDictionary
281
     1
  3
Layout1
350
1D
  3
Model
350
21
  0
DICTIONARY
  5
16
102
{ACAD_REACTORS
330
C
102
}
330
C
100
AcDbDictionary
281
     1
  3
Standard
350
17
  0
DICTIONARY
  5
18
102
{ACAD_REACTORS
330
C
102
}
330
C
100
AcDbDictionary
281
     1
  0
ACDBDICTIONARYWDFLT
  5
E
102
{ACAD_REACTORS
330
C
102
}
330
C
100
AcDbDictionary
281
     1
  3
Normal
350
F
100
AcDbDictionaryWithDefault
340
F
  0
LAYOUT
  5
1D
102
{ACAD_REACTORS
330
19
102
}
330
19
100
AcDbPlotSettings
  1

  2
None
  4

  6

 40
0.0
 41
0.0
 42
0.0
 43
0.0
 44
0.0
 45
0.0
 46
0.0
 47
0.0
 48
0.0
 49
0.0
140
0.0
141
0.0
142
1.0
143
1.0
 70
   688
 72
     0
 73
     0
 74
     5
  7
monochrome.ctb
 75
    16
147
1.0
148
0.0
149
0.0
100
AcDbLayout
  1
Layout1
 70
     1
 71
     1
 10
0.0
 20
0.0
 11
12.0
 21
9.0
 12
0.0
 22
0.0
 32
0.0
 14
1.000000000000000E+20
 24
1.000000000000000E+20
 34
1.000000000000000E+20
 15
-1.000000000000000E+20
 25
-1.000000000000000E+20
 35
-1.000000000000000E+20
146
0.0
 13
0.0
 23
0.0
 33
0.0
 16
1.0
 26
0.0
 36
0.0
 17
0.0
 27
1.0
 37
0.0
 76
     0
330
1A
  0
LAYOUT
  5
21
102
{ACAD_REACTORS
330
19
102
}
330
19
100
AcDbPlotSettings
  1

  2
none_device
  4
Letter_(8.50_x_11.00_Inches)
  6

 40
6.349999904632568
 41
6.349999904632568
 42
6.350006103515625
 43
6.350006103515625
 44
215.8999938964843
 45
279.3999938964843
 46
0.0
 47
0.0
 48
0.0
 49
0.0
140
0.0
141
0.0
142
1.0
143
1.0
 70
 11952
 72
     0
 73
     1
 74
     0
  7

 75
     0
147
1.0
148
140.7263146886204
149
4.015374216291925
100
AcDbLayout
  1
Model
 70
     1
 71
     0
 10
0.0
 20
0.0
 11
12.0
 21
9.0
 12
0.0
 22
0.0
 32
0.0
 14
0.0
 24
0.0
 34
0.0
 15
0.0
 25
0.0
 35
0.0
146
0.0
 13
0.0
 23
0.0
 33
0.0
 16
1.0
 26
0.0
 36
0.0
 17
0.0
 27
1.0
 37
0.0
 76
     0
330
1E
  0
MLINESTYLE
  5
17
102
{ACAD_REACTORS
330
16
102
}
330
16
100
AcDbMlineStyle
  2
STANDARD
 70
     0
  3

 62
   256
 51
90.0
 52
90.0
 71
     2
 49
0.5
 62
   256
  6
BYLAYER
 49
-0.5
 62
   256
  6
BYLAYER
  0
ACDBPLACEHOLDER
  5
F
102
{ACAD_REACTORS
330
E
102
}
330
E
  0
ENDSEC
  0
EOF
