  0
SECTION
  2
HEADER
  9
$ACADVER
  1
AC1009
  9
$INSBASE
 10
0.0
 20
0.0
 30
0.0
  9
$EXTMIN
 10
-0.3902997892769646
 20
-0.000000000000002
 30
0.0
  9
$EXTMAX
 10
11.92499999999999
 20
17.6175
 30
0.0
  9
$LIMMIN
 10
0.0
 20
0.0
  9
$LIMMAX
 10
11.92499999999999
 20
17.617499999999989
  9
$ORTHOMODE
 70
     1
  9
$REGENMODE
 70
     1
  9
$FILLMODE
 70
     1
  9
$QTEXTMODE
 70
     0
  9
$MIRRTEXT
 70
     0
  9
$DRAGMODE
 70
     2
  9
$LTSCALE
 40
0.5
  9
$OSMODE
 70
    37
  9
$ATTMODE
 70
     1
  9
$TEXTSIZE
 40
0.125
  9
$TRACEWID
 40
0.05
  9
$TEXTSTYLE
  7
SANSSERIF
  9
$CLAYER
  8
OBJECT
  9
$CELTYPE
  6
BYLAYER
  9
$CECOLOR
 62
   256
  9
$DIMSCALE
 40
1.125
  9
$DIMASZ
 40
0.18
  9
$DIMEXO
 40
0.063
  9
$DIMDLI
 40
0.281
  9
$DIMRND
 40
0.0
  9
$DIMDLE
 40
0.0
  9
$DIMEXE
 40
0.093
  9
$DIMTP
 40
0.0
  9
$DIMTM
 40
0.0
  9
$DIMTXT
 40
0.125
  9
$DIMCEN
 40
0.09
  9
$DIMTSZ
 40
0.0
  9
$DIMTOL
 70
     0
  9
$DIMLIM
 70
     0
  9
$DIMTIH
 70
     1
  9
$DIMTOH
 70
     1
  9
$DIMSE1
 70
     0
  9
$DIMSE2
 70
     0
  9
$DIMTAD
 70
     0
  9
$DIMZIN
 70
     0
  9
$DIMBLK
  1

  9
$DIMASO
 70
     1
  9
$DIMSHO
 70
     1
  9
$DIMPOST
  1

  9
$DIMAPOST
  1

  9
$DIMALT
 70
     0
  9
$DIMALTD
 70
     2
  9
$DIMALTF
 40
25.399999999999999
  9
$DIMLFAC
 40
1.0
  9
$DIMTOFL
 70
     0
  9
$DIMTVP
 40
0.0
  9
$DIMTIX
 70
     0
  9
$DIMSOXD
 70
     0
  9
$DIMSAH
 70
     0
  9
$DIMBLK1
  1

  9
$DIMBLK2
  1

  9
$DIMSTYLE
  2
DIM
  9
$DIMCLRD
 70
     0
  9
$DIMCLRE
 70
     0
  9
$DIMCLRT
 70
     0
  9
$DIMTFAC
 40
1.0
  9
$DIMGAP
 40
0.09
  9
$LUNITS
 70
     2
  9
$LUPREC
 70
     8
  9
$SKETCHINC
 40
0.1
  9
$FILLETRAD
 40
0.036
  9
$AUNITS
 70
     0
  9
$AUPREC
 70
     0
  9
$MENU
  1
acad
  9
$ELEVATION
 40
0.0
  9
$PELEVATION
 40
0.0
  9
$THICKNESS
 40
0.0
  9
$LIMCHECK
 70
     0
  9
$BLIPMODE
 70
     0
  9
$CHAMFERA
 40
0.125
  9
$CHAMFERB
 40
0.125
  9
$SKPOLY
 70
     0
  9
$TDCREATE
 40
2451572.4249359719
  9
$TDUPDATE
 40
2451802.4106690972
  9
$TDINDWG
 40
0.9557039352
  9
$TDUSRTIMER
 40
0.955701794
  9
$USRTIMER
 70
     1
  9
$ANGBASE
 50
0.0
  9
$ANGDIR
 70
     0
  9
$PDMODE
 70
     0
  9
$PDSIZE
 40
0.0
  9
$PLINEWID
 40
0.0
  9
$COORDS
 70
     1
  9
$SPLFRAME
 70
     0
  9
$SPLINETYPE
 70
     6
  9
$SPLINESEGS
 70
     8
  9
$ATTDIA
 70
     0
  9
$ATTREQ
 70
     1
  9
$HANDLING
 70
  4097
  9
$HANDSEED
  5
3ABA
  9
$SURFTAB1
 70
     6
  9
$SURFTAB2
 70
     6
  9
$SURFTYPE
 70
     6
  9
$SURFU
 70
     6
  9
$SURFV
 70
     6
  9
$UCSNAME
  2

  9
$UCSORG
 10
0.0
 20
0.0
 30
0.0
  9
$UCSXDIR
 10
1.0
 20
0.0
 30
0.0
  9
$UCSYDIR
 10
0.0
 20
1.0
 30
0.0
  9
$PUCSNAME
  2

  9
$PUCSORG
 10
0.0
 20
0.0
 30
0.0
  9
$PUCSXDIR
 10
1.0
 20
0.0
 30
0.0
  9
$PUCSYDIR
 10
0.0
 20
1.0
 30
0.0
  9
$USERI1
 70
     0
  9
$USERI2
 70
     0
  9
$USERI3
 70
     0
  9
$USERI4
 70
     0
  9
$USERI5
 70
     0
  9
$USERR1
 40
0.0
  9
$USERR2
 40
0.0
  9
$USERR3
 40
0.0
  9
$USERR4
 40
0.0
  9
$USERR5
 40
0.0
  9
$WORLDVIEW
 70
     1
  9
$SHADEDGE
 70
     3
  9
$SHADEDIF
 70
    70
  9
$TILEMODE
 70
     1
  9
$MAXACTVP
 70
    16
  9
$PLIMCHECK
 70
     0
  9
$PEXTMIN
 10
1.0000000000000000E+020
 20
1.0000000000000000E+020
 30
1.0000000000000000E+020
  9
$PEXTMAX
 10
-1.0000000000000000E+020
 20
-1.0000000000000000E+020
 30
-1.0000000000000000E+020
  9
$PLIMMIN
 10
0.0
 20
0.0
  9
$PLIMMAX
 10
12.0
 20
9.0
  9
$UNITMODE
 70
     0
  9
$VISRETAIN
 70
     0
  9
$PLINEGEN
 70
     0
  9
$PSLTSCALE
 70
     1
  0
ENDSEC
  0
SECTION
  2
TABLES
  0
TABLE
  2
VPORT
 70
     2
  0
VPORT
  2
*ACTIVE
 70
     0
 10
0.0
 20
0.0
 11
1.0
 21
1.0
 12
6.3296232178951684
 22
8.8084096607847382
 13
0.0
 23
0.0
 14
0.125
 24
0.125
 15
0.125
 25
0.125
 16
0.0
 26
0.0
 36
1.0
 17
0.0
 27
0.0
 37
0.0
 40
17.81761982113942
 41
1.855130784708249
 42
50.0
 43
0.0
 44
0.0
 50
0.0
 51
0.0
 71
     0
 72
   100
 73
     1
 74
     0
 75
     0
 76
     0
 77
     0
 78
     0
  0
ENDTAB
  0
TABLE
  2
LTYPE
 70
     6
  0
LTYPE
  2
CONTINUOUS
 70
     0
  3
Solid line
 72
    65
 73
     0
 40
0.0
  0
LTYPE
  2
HIDDEN
 70
     0
  3
_ _ _ _ _ _ _ _ _ _ _ _ _ _ _ _ _ _ _ _ _ _ _
 72
    65
 73
     2
 40
0.375
 49
0.25
 49
-0.125
  0
LTYPE
  2
PHANTOM
 70
     0
  3
_____ _ _ _____ _ _ _____ _ _ _____ _ _ ____
 72
    65
 73
     6
 40
2.5
 49
1.25
 49
-0.25
 49
0.25
 49
-0.25
 49
0.25
 49
-0.25
  0
LTYPE
  2
CENTER
 70
     0
  3
____ _ ____ _ ____ _ ____ _ ____ _ ____ _ ____
 72
    65
 73
     4
 40
2.0
 49
1.25
 49
-0.25
 49
0.25
 49
-0.25
  0
LTYPE
  2
HIDDEN2
 70
     0
  3
_ _ _ _ _ _ _ _ _ _ _ _ _ _ _ _ _ _ _ _ _ _ _ _
 72
    65
 73
     2
 40
0.1875
 49
0.125
 49
-0.0625
  0
LTYPE
  2
PHANTOM2
 70
     0
  3
___ _ _ ___ _ _ ___ _ _ ___ _ _ ___ _ _ ___ _ _
 72
    65
 73
     6
 40
1.25
 49
0.625
 49
-0.125
 49
0.125
 49
-0.125
 49
0.125
 49
-0.125
  0
ENDTAB
  0
TABLE
  2
LAYER
 70
     9
  0
LAYER
  2
0
 70
     0
 62
     7
  6
CONTINUOUS
  0
LAYER
  2
OBJECT
 70
     0
 62
     7
  6
CONTINUOUS
  0
LAYER
  2
DIM
 70
     0
 62
     7
  6
CONTINUOUS
  0
LAYER
  2
HIDDEN
 70
     0
 62
     7
  6
HIDDEN
  0
LAYER
  2
BEND
 70
     0
 62
     7
  6
PHANTOM
  0
LAYER
  2
TEXT
 70
     0
 62
     7
  6
CONTINUOUS
  0
LAYER
  2
TITLE
 70
     0
 62
     7
  6
CONTINUOUS
  0
LAYER
  2
CENTER
 70
     0
 62
     7
  6
CENTER
  0
LAYER
  2
DEFPOINTS
 70
     0
 62
     7
  6
CONTINUOUS
  0
ENDTAB
  0
TABLE
  2
STYLE
 70
     3
  0
STYLE
  2
STANDARD
 70
     0
 40
0.0
 41
1.0
 50
0.0
 71
     0
 42
0.2
  3
txt
  4

  0
STYLE
  2
SANSSERIF
 70
     0
 40
0.0
 41
1.0
 50
0.0
 71
     0
 42
0.125
  3
txt
  4

  0
STYLE
  2
TXT
 70
     0
 40
0.0
 41
0.75
 50
0.0
 71
     0
 42
0.125
  3
TXT.shx
  4

  0
ENDTAB
  0
TABLE
  2
VIEW
 70
     0
  0
ENDTAB
  0
TABLE
  2
UCS
 70
     0
  0
ENDTAB
  0
TABLE
  2
APPID
 70
     1
  0
APPID
  2
ACAD
 70
     0
  0
ENDTAB
  0
TABLE
  2
DIMSTYLE
 70
     2
  0
DIMSTYLE
  2
DIM
 70
     0
  3

  4

  5

  6

  7

 40
1.125
 41
0.18
 42
0.063
 43
0.281
 44
0.093
 45
0.0
 46
0.0
 47
0.0
 48
0.0
140
0.125
141
0.09
142
0.0
143
25.399999999999999
144
1.0
145
0.0
146
1.0
147
0.09
 71
     0
 72
     0
 73
     1
 74
     1
 75
     0
 76
     0
 77
     0
 78
     0
170
     0
171
     2
172
     0
173
     0
174
     0
175
     0
176
     0
177
     0
178
     0
  0
DIMSTYLE
  2
DIMIN
 70
     0
  3

  4

  5

  6

  7

 40
1.125
 41
0.18
 42
0.063
 43
0.281
 44
0.093
 45
0.0
 46
0.0
 47
0.0
 48
0.0
140
0.125
141
0.09
142
0.0
143
25.399999999999999
144
1.0
145
0.0
146
1.0
147
0.09
 71
     0
 72
     0
 73
     1
 74
     1
 75
     0
 76
     0
 77
     0
 78
     0
170
     0
171
     2
172
     0
173
     0
174
     1
175
     0
176
     0
177
     0
178
     0
  0
ENDTAB
  0
ENDSEC
  0
SECTION
  2
BLOCKS
  0
BLOCK
  8
0
  2
$MODEL_SPACE
 70
     0
 10
0.0
 20
0.0
 30
0.0
  3
$MODEL_SPACE
  1

  0
ENDBLK
  5
2D8C
  8
0
  0
BLOCK
 67
     1
  8
0
  2
$PAPER_SPACE
 70
     0
 10
0.0
 20
0.0
 30
0.0
  3
$PAPER_SPACE
  1

  0
ENDBLK
  5
2D88
 67
     1
  8
0
  0
BLOCK
  8
0
  2
HB
 70
     0
 10
0.0
 20
0.0
 30
0.0
  3
HB
  1

  0
TEXT
  5
2DA9
  8
TEXT
 10
0.2078333333333363
 20
15.22007919564008
 30
0.0
 40
0.125
  1
NAME
 72
     1
 11
0.4370000000000031
 21
15.22007919564008
 31
0.0
  0
TEXT
  5
2DAA
  8
TEXT
 10
0.2078333333333363
 20
15.428412528973411
 30
0.0
 40
0.125
  1
PART
 72
     1
 11
0.4370000000000031
 21
15.428412528973411
 31
0.0
  0
TEXT
  5
2DAB
  8
TEXT
 10
5.6119999999999983
 20
15.22007919564008
 30
0.0
 40
0.125
  1
No.
 72
     1
 11
5.7369999999999983
 21
15.22007919564008
 31
0.0
  0
TEXT
  5
2DAC
  8
TEXT
 10
5.5078333333333314
 20
15.428412528973411
 30
0.0
 40
0.125
  1
PART
 72
     1
 11
5.7369999999999983
 21
15.428412528973411
 31
0.0
  0
LINE
  5
2DAD
  8
TITLE
 10
6.1120000000000001
 20
15.598000000000001
 30
0.0
 11
6.1120000000000001
 21
15.179999999999991
 31
0.0
  0
LINE
  5
2DAE
  8
TITLE
 10
5.3620000000000001
 20
15.598000000000001
 30
0.0
 11
5.3620000000000001
 21
15.179999999999991
 31
0.0
  0
LINE
  5
2DAF
  8
TITLE
 10
5.2999999999999989
 20
15.598000000000001
 30
0.0
 11
5.2999999999999989
 21
15.179999999999991
 31
0.0
  0
LINE
  5
2DB0
  8
TITLE
 10
0.8120000000000029
 20
15.179999999999991
 30
0.0
 11
0.8120000000000009
 21
15.598000000000001
 31
0.0
  0
LINE
  5
2DB1
  8
TITLE
 10
0.0620000000000012
 20
15.179999999999991
 30
0.0
 11
10.538
 21
15.179999999999991
 31
0.0
  0
LINE
  5
2DB2
  8
TITLE
 10
10.538
 20
0.0619999999999994
 30
0.0
 11
0.0619999999999976
 21
0.0620000000000012
 31
0.0
  0
LINE
  5
2DB3
  8
TITLE
 10
10.538
 20
15.598000000000001
 30
0.0
 11
10.538
 21
0.0619999999999994
 31
0.0
  0
LINE
  5
2DB4
  8
TITLE
 10
0.0620000000000012
 20
15.598000000000001
 30
0.0
 11
10.538
 21
15.598000000000001
 31
0.0
  0
LINE
  5
2DB5
  8
TITLE
 10
0.0619999999999976
 20
0.0620000000000012
 30
0.0
 11
0.0620000000000012
 21
15.598000000000001
 31
0.0
  0
LINE
  5
2DB6
  8
TITLE
 10
0.0
 20
0.0
 30
0.0
 11
0.0
 21
15.66
 31
0.0
  0
LINE
  5
2DB7
  8
TITLE
 10
10.6
 20
-0.0000000000000018
 30
0.0
 11
0.0
 21
0.0
 31
0.0
  0
LINE
  5
2DB8
  8
TITLE
 10
10.6
 20
15.659999999999981
 30
0.0
 11
10.6
 21
-0.0000000000000018
 31
0.0
  0
LINE
  5
2DB9
  8
TITLE
 10
0.0
 20
15.66
 30
0.0
 11
10.6
 21
15.659999999999981
 31
0.0
  0
ENDBLK
  5
2DBA
  8
0
  0
BLOCK
  8
0
  2
*D3
 70
     1
 10
0.0
 20
0.0
 30
0.0
  3
*D3
  1

  0
LINE
  5
2DBD
  8
DIM
 62
     0
 10
1.2547850659560991
 20
4.3253087922827422
 30
0.0
 11
1.2547850659560991
 21
4.699559765392145
 31
0.0
  0
LINE
  5
2DBE
  8
DIM
 62
     0
 10
4.7387850659560957
 20
4.3253087922827422
 30
0.0
 11
4.7387850659560957
 21
4.699559765392145
 31
0.0
  0
LINE
  5
2DBF
  8
DIM
 62
     0
 10
1.4572850659560981
 20
4.5949347653921446
 30
0.0
 11
2.6845975659560981
 21
4.5949347653921446
 31
0.0
  0
LINE
  5
2DC0
  8
DIM
 62
     0
 10
4.536285065956096
 20
4.5949347653921446
 30
0.0
 11
3.3089725659560969
 21
4.5949347653921446
 31
0.0
  0
SOLID
  5
2DC1
  8
DIM
 62
     0
 10
1.4572850659560981
 20
4.628684765392145
 30
0.0
 11
1.4572850659560981
 21
4.561184765392146
 31
0.0
 12
1.2547850659560991
 22
4.5949347653921446
 32
0.0
 13
1.2547850659560991
 23
4.5949347653921446
 33
0.0
  0
SOLID
  5
2DC2
  8
DIM
 62
     0
 10
4.536285065956096
 20
4.628684765392145
 30
0.0
 11
4.536285065956096
 21
4.561184765392146
 31
0.0
 12
4.7387850659560957
 22
4.5949347653921446
 32
0.0
 13
4.7387850659560957
 23
4.5949347653921446
 33
0.0
  0
TEXT
  5
2DC3
  8
OBJECT
 62
     0
 10
2.7858475659560971
 20
4.5246222653921446
 30
0.0
 40
0.140625
  1
3.484
 41
0.75
  0
POINT
  5
2DC4
  8
DEFPOINTS
 62
     0
 10
1.2547850659560991
 20
4.2544337922827422
 30
0.0
  0
POINT
  5
2DC5
  8
DEFPOINTS
 62
     0
 10
4.7387850659560957
 20
4.2544337922827422
 30
0.0
  0
POINT
  5
2DC6
  8
DEFPOINTS
 62
     0
 10
4.7387850659560957
 20
4.5949347653921446
 30
0.0
  0
ENDBLK
  5
2DC7
  8
0
  0
BLOCK
  8
0
  2
*D4
 70
     1
 10
0.0
 20
0.0
 30
0.0
  3
*D4
  1

  0
LINE
  5
2DCA
  8
DIM
 62
     0
 10
1.2149100659560981
 20
4.285433792282741
 30
0.0
 11
0.8062755603331613
 21
4.285433792282741
 31
0.0
  0
LINE
  5
2DCB
  8
DIM
 62
     0
 10
1.2149100659560981
 20
3.0854337922827422
 30
0.0
 11
0.806275560333161
 21
3.0854337922827431
 31
0.0
  0
LINE
  5
2DCC
  8
DIM
 62
     0
 10
0.9109005603331613
 20
4.0829337922827422
 30
0.0
 11
0.9109005603331613
 21
3.8569962922827421
 31
0.0
  0
LINE
  5
2DCD
  8
DIM
 62
     0
 10
0.9109005603331613
 20
3.2879337922827432
 30
0.0
 11
0.9109005603331613
 21
3.5138712922827411
 31
0.0
  0
SOLID
  5
2DCE
  8
DIM
 62
     0
 10
0.8771505603331613
 20
4.0829337922827422
 30
0.0
 11
0.9446505603331612
 21
4.0829337922827422
 31
0.0
 12
0.9109005603331613
 22
4.285433792282741
 32
0.0
 13
0.9109005603331613
 23
4.285433792282741
 33
0.0
  0
SOLID
  5
2DCF
  8
DIM
 62
     0
 10
0.8771505603331611
 20
3.2879337922827432
 30
0.0
 11
0.9446505603331608
 21
3.2879337922827432
 31
0.0
 12
0.9109005603331608
 22
3.0854337922827431
 32
0.0
 13
0.9109005603331608
 23
3.0854337922827431
 33
0.0
  0
TEXT
  5
2DD0
  8
OBJECT
 62
     0
 10
0.8757443103331606
 20
3.6151212922827409
 30
0.0
 40
0.140625
  1
H
 41
0.75
  0
POINT
  5
2DD1
  8
DEFPOINTS
 62
     0
 10
1.2857850659560981
 20
4.285433792282741
 30
0.0
  0
POINT
  5
2DD2
  8
DEFPOINTS
 62
     0
 10
1.2857850659560981
 20
3.0854337922827422
 30
0.0
  0
POINT
  5
2DD3
  8
DEFPOINTS
 62
     0
 10
0.9109005603331608
 20
3.0854337922827431
 30
0.0
  0
ENDBLK
  5
2DD4
  8
0
  0
BLOCK
  8
0
  2
*D5
 70
     1
 10
0.0
 20
0.0
 30
0.0
  3
*D5
  1

  0
LINE
  5
2DD7
  8
DIM
 62
     0
 10
4.7307374840214047
 20
4.2139337922827433
 30
0.0
 11
5.7779142812819106
 21
4.2139337922827433
 31
0.0
  0
LINE
  5
2DD8
  8
DIM
 62
     0
 10
4.7307374840214047
 20
3.1569337922827421
 30
0.0
 11
5.7779142812819106
 21
3.1569337922827421
 31
0.0
  0
LINE
  5
2DD9
  8
DIM
 62
     0
 10
5.6732892812819111
 20
4.0114337922827419
 30
0.0
 11
5.6732892812819111
 21
3.8569962922827421
 31
0.0
  0
LINE
  5
2DDA
  8
DIM
 62
     0
 10
5.6732892812819111
 20
3.3594337922827422
 30
0.0
 11
5.6732892812819111
 21
3.5138712922827411
 31
0.0
  0
SOLID
  5
2DDB
  8
DIM
 62
     0
 10
5.639539281281909
 20
4.0114337922827419
 30
0.0
 11
5.7070392812819106
 21
4.0114337922827419
 31
0.0
 12
5.6732892812819111
 22
4.2139337922827433
 32
0.0
 13
5.6732892812819111
 23
4.2139337922827433
 33
0.0
  0
SOLID
  5
2DDC
  8
DIM
 62
     0
 10
5.639539281281909
 20
3.3594337922827422
 30
0.0
 11
5.7070392812819106
 21
3.3594337922827422
 31
0.0
 12
5.6732892812819111
 22
3.1569337922827421
 32
0.0
 13
5.6732892812819111
 23
3.1569337922827421
 33
0.0
  0
TEXT
  5
2DDD
  8
OBJECT
 62
     0
 10
4.8998517812819102
 20
3.6151212922827431
 30
0.0
 40
0.140625
  1
J EXPOSED PANEL
 41
0.75
  0
POINT
  5
2DDE
  8
DEFPOINTS
 62
     0
 10
4.6598624840214047
 20
4.2139337922827433
 30
0.0
  0
POINT
  5
2DDF
  8
DEFPOINTS
 62
     0
 10
4.6598624840214047
 20
3.1569337922827421
 30
0.0
  0
POINT
  5
2DE0
  8
DEFPOINTS
 62
     0
 10
5.6732892812819111
 20
3.1569337922827421
 30
0.0
  0
ENDBLK
  5
2DE1
  8
0
  0
BLOCK
  8
0
  2
*D6
 70
     1
 10
0.0
 20
0.0
 30
0.0
  3
*D6
  1

  0
LINE
  5
2DE4
  8
DIM
 62
     0
 10
1.3337076478907921
 20
3.0860587922827412
 30
0.0
 11
1.3337076478907921
 21
2.7094577239427591
 31
0.0
  0
LINE
  5
2DE5
  8
DIM
 62
     0
 10
4.6598624840214047
 20
3.0860587922827412
 30
0.0
 11
4.6598624840214047
 21
2.7094577239427591
 31
0.0
  0
LINE
  5
2DE6
  8
DIM
 62
     0
 10
1.536207647890792
 20
2.814082723942759
 30
0.0
 11
1.9463163159561001
 21
2.814082723942759
 31
0.0
  0
LINE
  5
2DE7
  8
DIM
 62
     0
 10
4.457362484021405
 20
2.814082723942759
 30
0.0
 11
4.0472538159560987
 21
2.814082723942759
 31
0.0
  0
SOLID
  5
2DE8
  8
DIM
 62
     0
 10
1.536207647890792
 20
2.847832723942759
 30
0.0
 11
1.536207647890792
 21
2.7803327239427591
 31
0.0
 12
1.3337076478907921
 22
2.814082723942759
 32
0.0
 13
1.3337076478907921
 23
2.814082723942759
 33
0.0
  0
SOLID
  5
2DE9
  8
DIM
 62
     0
 10
4.457362484021405
 20
2.847832723942759
 30
0.0
 11
4.457362484021405
 21
2.7803327239427591
 31
0.0
 12
4.6598624840214047
 22
2.814082723942759
 32
0.0
 13
4.6598624840214047
 23
2.814082723942759
 33
0.0
  0
TEXT
  5
2DEA
  8
OBJECT
 62
     0
 10
2.0475663159561002
 20
2.743770223942759
 30
0.0
 40
0.140625
  1
3.326 EXPOSED PANEL
 41
0.75
  0
POINT
  5
2DEB
  8
DEFPOINTS
 62
     0
 10
1.3337076478907921
 20
3.1569337922827421
 30
0.0
  0
POINT
  5
2DEC
  8
DEFPOINTS
 62
     0
 10
4.6598624840214047
 20
3.1569337922827421
 30
0.0
  0
POINT
  5
2DED
  8
DEFPOINTS
 62
     0
 10
4.6598624840214047
 20
2.814082723942759
 30
0.0
  0
ENDBLK
  5
2DEE
  8
0
  0
BLOCK
  8
0
  2
*D7
 70
     1
 10
0.0
 20
0.0
 30
0.0
  3
*D7
  1

  0
LINE
  5
2DF1
  8
DIM
 62
     0
 10
1.126785065956099
 20
6.14927331202865
 30
0.0
 11
1.126785065956099
 21
7.1471711151075521
 31
0.0
  0
LINE
  5
2DF2
  8
DIM
 62
     0
 10
4.8667850659561012
 20
6.14927331202865
 30
0.0
 11
4.8667850659561012
 21
7.1471711151075521
 31
0.0
  0
LINE
  5
2DF3
  8
DIM
 62
     0
 10
1.3292850659560991
 20
7.0425461151075499
 30
0.0
 11
2.693386628456099
 21
7.0425461151075499
 31
0.0
  0
LINE
  5
2DF4
  8
DIM
 62
     0
 10
4.6642850659560997
 20
7.0425461151075499
 30
0.0
 11
3.3001835034561
 21
7.0425461151075499
 31
0.0
  0
SOLID
  5
2DF5
  8
DIM
 62
     0
 10
1.3292850659560991
 20
7.0762961151075521
 30
0.0
 11
1.3292850659560991
 21
7.0087961151075513
 31
0.0
 12
1.126785065956099
 22
7.0425461151075499
 32
0.0
 13
1.126785065956099
 23
7.0425461151075499
 33
0.0
  0
SOLID
  5
2DF6
  8
DIM
 62
     0
 10
4.6642850659560997
 20
7.0762961151075521
 30
0.0
 11
4.6642850659560997
 21
7.0087961151075513
 31
0.0
 12
4.8667850659561012
 22
7.0425461151075499
 32
0.0
 13
4.8667850659561012
 23
7.0425461151075499
 33
0.0
  0
TEXT
  5
2DF7
  8
OBJECT
 62
     0
 10
2.7946366284561002
 20
6.9722336151075499
 30
0.0
 40
0.140625
  1
3.740
 41
0.75
  0
POINT
  5
2DF8
  8
DEFPOINTS
 62
     0
 10
1.126785065956099
 20
6.0783983120286491
 30
0.0
  0
POINT
  5
2DF9
  8
DEFPOINTS
 62
     0
 10
4.8667850659561012
 20
6.0783983120286491
 30
0.0
  0
POINT
  5
2DFA
  8
DEFPOINTS
 62
     0
 10
4.8667850659561012
 20
7.0425461151075499
 30
0.0
  0
ENDBLK
  5
2DFB
  8
0
  0
BLOCK
  8
0
  2
*D8
 70
     1
 10
0.0
 20
0.0
 30
0.0
  3
*D8
  1

  0
LINE
  5
2DFE
  8
DIM
 62
     0
 10
10.225289694727049
 20
9.7492777836976927
 30
0.0
 11
10.225289694727049
 21
9.9598444998424771
 31
0.0
  0
LINE
  5
2DFF
  8
DIM
 62
     0
 10
11.09028969472705
 20
9.7492777836976927
 30
0.0
 11
11.09028969472705
 21
9.9598444998424771
 31
0.0
  0
LINE
  5
2E00
  8
DIM
 62
     0
 10
10.022789694727059
 20
9.8552194998424767
 30
0.0
 11
9.8202896947270624
 21
9.8552194998424767
 31
0.0
  0
LINE
  5
2E01
  8
DIM
 62
     0
 10
11.29278969472705
 20
9.8552194998424767
 30
0.0
 11
11.495289694727051
 21
9.8552194998424767
 31
0.0
  0
SOLID
  5
2E02
  8
DIM
 62
     0
 10
10.022789694727059
 20
9.8889694998424762
 30
0.0
 11
10.022789694727059
 21
9.8214694998424772
 31
0.0
 12
10.225289694727049
 22
9.8552194998424767
 32
0.0
 13
10.225289694727049
 23
9.8552194998424767
 33
0.0
  0
SOLID
  5
2E03
  8
DIM
 62
     0
 10
11.29278969472705
 20
9.8889694998424762
 30
0.0
 11
11.29278969472705
 21
9.8214694998424772
 31
0.0
 12
11.09028969472705
 22
9.8552194998424767
 32
0.0
 13
11.09028969472705
 23
9.8552194998424767
 33
0.0
  0
TEXT
  5
2E04
  8
OBJECT
 62
     0
 10
10.62263344472705
 20
9.7849069998424767
 30
0.0
 40
0.140625
  1
E
 41
0.75
  0
POINT
  5
2E05
  8
DEFPOINTS
 62
     0
 10
10.225289694727049
 20
9.6784027836976936
 30
0.0
  0
POINT
  5
2E06
  8
DEFPOINTS
 62
     0
 10
11.09028969472705
 20
9.6784027836976936
 30
0.0
  0
POINT
  5
2E07
  8
DEFPOINTS
 62
     0
 10
11.09028969472705
 20
9.8552194998424767
 30
0.0
  0
ENDBLK
  5
2E08
  8
0
  0
BLOCK
  8
0
  2
*D9
 70
     1
 10
0.0
 20
0.0
 30
0.0
  3
*D9
  1

  0
LINE
  5
2E0B
  8
DIM
 62
     0
 10
11.24628969472705
 20
10.54739555883539
 30
0.0
 11
11.24628969472705
 21
10.72514555883539
 31
0.0
  0
LINE
  5
2E0C
  8
DIM
 62
     0
 10
10.069289694727059
 20
10.54739555883539
 30
0.0
 11
10.069289694727059
 21
10.72514555883539
 31
0.0
  0
LINE
  5
2E0D
  8
DIM
 62
     0
 10
11.04378969472705
 20
10.620520558835381
 30
0.0
 11
10.794195944727059
 21
10.620520558835381
 31
0.0
  0
LINE
  5
2E0E
  8
DIM
 62
     0
 10
10.27178969472706
 20
10.620520558835381
 30
0.0
 11
10.521383444727061
 21
10.620520558835381
 31
0.0
  0
SOLID
  5
2E0F
  8
DIM
 62
     0
 10
11.04378969472705
 20
10.654270558835391
 30
0.0
 11
11.04378969472705
 21
10.586770558835379
 31
0.0
 12
11.24628969472705
 22
10.620520558835381
 32
0.0
 13
11.24628969472705
 23
10.620520558835381
 33
0.0
  0
SOLID
  5
2E10
  8
DIM
 62
     0
 10
10.27178969472706
 20
10.654270558835391
 30
0.0
 11
10.27178969472706
 21
10.586770558835379
 31
0.0
 12
10.069289694727059
 22
10.620520558835381
 32
0.0
 13
10.069289694727059
 23
10.620520558835381
 33
0.0
  0
TEXT
  5
2E11
  8
OBJECT
 62
     0
 10
10.622633444727059
 20
10.550208058835381
 30
0.0
 40
0.140625
  1
D
 41
0.75
  0
POINT
  5
2E12
  8
DEFPOINTS
 62
     0
 10
11.24628969472705
 20
10.47652055883538
 30
0.0
  0
POINT
  5
2E13
  8
DEFPOINTS
 62
     0
 10
10.069289694727059
 20
10.47652055883538
 30
0.0
  0
POINT
  5
2E14
  8
DEFPOINTS
 62
     0
 10
10.069289694727059
 20
10.620520558835381
 30
0.0
  0
ENDBLK
  5
2E15
  8
0
  0
BLOCK
  8
0
  2
*D10
 70
     1
 10
0.0
 20
0.0
 30
0.0
  3
*D10
  1

  0
LINE
  5
2E18
  8
DIM
 62
     0
 10
10.68628969472705
 20
11.28427778369768
 30
0.0
 11
10.68628969472705
 21
11.566693175670411
 31
0.0
  0
LINE
  5
2E19
  8
DIM
 62
     0
 10
11.36628969472704
 20
11.28427778369768
 30
0.0
 11
11.36628969472704
 21
11.566693175670411
 31
0.0
  0
LINE
  5
2E1A
  8
DIM
 62
     0
 10
10.483789694727051
 20
11.462068175670399
 30
0.0
 11
10.281289694727059
 21
11.462068175670399
 31
0.0
  0
LINE
  5
2E1B
  8
DIM
 62
     0
 10
11.56878969472705
 20
11.462068175670399
 30
0.0
 11
11.77128969472705
 21
11.462068175670399
 31
0.0
  0
SOLID
  5
2E1C
  8
DIM
 62
     0
 10
10.483789694727051
 20
11.495818175670401
 30
0.0
 11
10.483789694727051
 21
11.428318175670411
 31
0.0
 12
10.68628969472705
 22
11.462068175670399
 32
0.0
 13
10.68628969472705
 23
11.462068175670399
 33
0.0
  0
SOLID
  5
2E1D
  8
DIM
 62
     0
 10
11.56878969472705
 20
11.495818175670401
 30
0.0
 11
11.56878969472705
 21
11.428318175670411
 31
0.0
 12
11.36628969472704
 22
11.462068175670399
 32
0.0
 13
11.36628969472704
 23
11.462068175670399
 33
0.0
  0
TEXT
  5
2E1E
  8
OBJECT
 62
     0
 10
10.991133444727041
 20
11.391755675670399
 30
0.0
 40
0.140625
  1
F
 41
0.75
  0
POINT
  5
2E1F
  8
DEFPOINTS
 62
     0
 10
10.68628969472705
 20
11.21340278369768
 30
0.0
  0
POINT
  5
2E20
  8
DEFPOINTS
 62
     0
 10
11.36628969472704
 20
11.21340278369768
 30
0.0
  0
POINT
  5
2E21
  8
DEFPOINTS
 62
     0
 10
11.36628969472704
 20
11.462068175670399
 30
0.0
  0
ENDBLK
  5
2E22
  8
0
  0
BLOCK
  8
0
  2
*D11
 70
     1
 10
0.0
 20
0.0
 30
0.0
  3
*D11
  1

  0
LINE
  5
2E25
  8
DIM
 62
     0
 10
10.62928969472704
 20
12.580527783697679
 30
0.0
 11
10.62928969472704
 21
12.26324655057123
 31
0.0
  0
LINE
  5
2E26
  8
DIM
 62
     0
 10
9.9492896947270584
 20
12.580527783697679
 30
0.0
 11
9.9492896947270584
 21
12.26324655057123
 31
0.0
  0
LINE
  5
2E27
  8
DIM
 62
     0
 10
10.83178969472706
 20
12.36787155057122
 30
0.0
 11
11.03428969472705
 21
12.36787155057122
 31
0.0
  0
LINE
  5
2E28
  8
DIM
 62
     0
 10
9.7467896947270596
 20
12.36787155057122
 30
0.0
 11
9.544289694727059
 21
12.36787155057122
 31
0.0
  0
SOLID
  5
2E29
  8
DIM
 62
     0
 10
10.83178969472706
 20
12.40162155057123
 30
0.0
 11
10.83178969472706
 21
12.33412155057122
 31
0.0
 12
10.62928969472704
 22
12.36787155057122
 32
0.0
 13
10.62928969472704
 23
12.36787155057122
 33
0.0
  0
SOLID
  5
2E2A
  8
DIM
 62
     0
 10
9.7467896947270596
 20
12.40162155057123
 30
0.0
 11
9.7467896947270596
 21
12.33412155057122
 31
0.0
 12
9.9492896947270584
 22
12.36787155057122
 32
0.0
 13
9.9492896947270584
 23
12.36787155057122
 33
0.0
  0
TEXT
  5
2E2B
  8
OBJECT
 62
     0
 10
10.25413344472706
 20
12.29755905057122
 30
0.0
 40
0.140625
  1
G
 41
0.75
  0
POINT
  5
2E2C
  8
DEFPOINTS
 62
     0
 10
10.62928969472704
 20
12.651402783697691
 30
0.0
  0
POINT
  5
2E2D
  8
DEFPOINTS
 62
     0
 10
9.9492896947270584
 20
12.651402783697691
 30
0.0
  0
POINT
  5
2E2E
  8
DEFPOINTS
 62
     0
 10
9.9492896947270584
 20
12.36787155057122
 30
0.0
  0
ENDBLK
  5
2E2F
  8
0
  0
BLOCK
  8
0
  2
*D12
 70
     1
 10
0.0
 20
0.0
 30
0.0
  3
*D12
  1

  0
LINE
  5
2E32
  8
DIM
 62
     0
 10
10.069289694727059
 20
10.54739555883539
 30
0.0
 11
10.069289694727059
 21
10.72514555883539
 31
0.0
  0
LINE
  5
2E33
  8
DIM
 62
     0
 10
9.9492896947270584
 20
10.54739555883539
 30
0.0
 11
9.9492896947270584
 21
10.72514555883539
 31
0.0
  0
LINE
  5
2E34
  8
DIM
 62
     0
 10
10.27178969472706
 20
10.620520558835381
 30
0.0
 11
10.474289694727061
 21
10.620520558835381
 31
0.0
  0
LINE
  5
2E35
  8
DIM
 62
     0
 10
9.7467896947270596
 20
10.620520558835381
 30
0.0
 11
9.544289694727059
 21
10.620520558835381
 31
0.0
  0
SOLID
  5
2E36
  8
DIM
 62
     0
 10
10.27178969472706
 20
10.654270558835391
 30
0.0
 11
10.27178969472706
 21
10.586770558835379
 31
0.0
 12
10.069289694727059
 22
10.620520558835381
 32
0.0
 13
10.069289694727059
 23
10.620520558835381
 33
0.0
  0
SOLID
  5
2E37
  8
DIM
 62
     0
 10
9.7467896947270596
 20
10.654270558835391
 30
0.0
 11
9.7467896947270596
 21
10.586770558835379
 31
0.0
 12
9.9492896947270584
 22
10.620520558835381
 32
0.0
 13
9.9492896947270584
 23
10.620520558835381
 33
0.0
  0
TEXT
  5
2E38
  8
OBJECT
 62
     0
 10
8.6344459447270587
 20
10.550208058835381
 30
0.0
 40
0.140625
  1
0.120 TYP.
 41
0.75
  0
POINT
  5
2E39
  8
DEFPOINTS
 62
     0
 10
10.069289694727059
 20
10.47652055883538
 30
0.0
  0
POINT
  5
2E3A
  8
DEFPOINTS
 62
     0
 10
9.9492896947270584
 20
10.47652055883538
 30
0.0
  0
POINT
  5
2E3B
  8
DEFPOINTS
 62
     0
 10
9.9492896947270584
 20
10.620520558835381
 30
0.0
  0
ENDBLK
  5
2E3C
  8
0
  0
BLOCK
  8
0
  2
*D13
 70
     1
 10
0.0
 20
0.0
 30
0.0
  3
*D13
  1

  0
LINE
  5
2E3F
  8
DIM
 62
     0
 10
10.22528969472704
 20
14.11552778369769
 30
0.0
 11
10.22528969472704
 21
13.866202100253711
 31
0.0
  0
LINE
  5
2E40
  8
DIM
 62
     0
 10
10.06928969472705
 20
14.11552778369769
 30
0.0
 11
10.06928969472705
 21
13.866202100253711
 31
0.0
  0
LINE
  5
2E41
  8
DIM
 62
     0
 10
10.427789694727061
 20
13.970827100253709
 30
0.0
 11
10.63028969472705
 21
13.970827100253709
 31
0.0
  0
LINE
  5
2E42
  8
DIM
 62
     0
 10
9.8667896947270588
 20
13.970827100253709
 30
0.0
 11
9.66428969472706
 21
13.970827100253709
 31
0.0
  0
SOLID
  5
2E43
  8
DIM
 62
     0
 10
10.427789694727061
 20
14.00457710025373
 30
0.0
 11
10.427789694727061
 21
13.93707710025372
 31
0.0
 12
10.22528969472704
 22
13.970827100253709
 32
0.0
 13
10.22528969472704
 23
13.970827100253709
 33
0.0
  0
SOLID
  5
2E44
  8
DIM
 62
     0
 10
9.8667896947270588
 20
14.00457710025373
 30
0.0
 11
9.8667896947270588
 21
13.93707710025372
 31
0.0
 12
10.06928969472705
 22
13.970827100253709
 32
0.0
 13
10.06928969472705
 23
13.970827100253709
 33
0.0
  0
TEXT
  5
2E45
  8
OBJECT
 62
     0
 10
8.7368678197270597
 20
13.900514600253731
 30
0.0
 40
0.140625
  1
0.156 TYP.
 41
0.75
  0
POINT
  5
2E46
  8
DEFPOINTS
 62
     0
 10
10.22528969472704
 20
14.18640278369768
 30
0.0
  0
POINT
  5
2E47
  8
DEFPOINTS
 62
     0
 10
10.06928969472705
 20
14.18640278369768
 30
0.0
  0
POINT
  5
2E48
  8
DEFPOINTS
 62
     0
 10
10.06928969472705
 20
13.970827100253709
 30
0.0
  0
ENDBLK
  5
2E49
  8
0
  0
BLOCK
  8
0
  2
*D14
 70
     1
 10
0.0
 20
0.0
 30
0.0
  3
*D14
  1

  0
LINE
  5
2E4C
  8
DIM
 62
     0
 10
3.980785065956097
 20
14.365277783697691
 30
0.0
 11
3.980785065956097
 21
15.582027783697701
 31
0.0
  0
LINE
  5
2E4D
  8
DIM
 62
     0
 10
2.0127850659560971
 20
14.365277783697691
 30
0.0
 11
2.0127850659560971
 21
15.582027783697701
 31
0.0
  0
LINE
  5
2E4E
  8
DIM
 62
     0
 10
3.7782850659560969
 20
15.4774027836977
 30
0.0
 11
3.2913944409560969
 21
15.4774027836977
 31
0.0
  0
LINE
  5
2E4F
  8
DIM
 62
     0
 10
2.2152850659560981
 20
15.4774027836977
 30
0.0
 11
2.7021756909560981
 21
15.4774027836977
 31
0.0
  0
SOLID
  5
2E50
  8
DIM
 62
     0
 10
3.7782850659560969
 20
15.511152783697691
 30
0.0
 11
3.7782850659560969
 21
15.44365278369769
 31
0.0
 12
3.980785065956097
 22
15.4774027836977
 32
0.0
 13
3.980785065956097
 23
15.4774027836977
 33
0.0
  0
SOLID
  5
2E51
  8
DIM
 62
     0
 10
2.2152850659560981
 20
15.511152783697691
 30
0.0
 11
2.2152850659560981
 21
15.44365278369769
 31
0.0
 12
2.0127850659560971
 22
15.4774027836977
 32
0.0
 13
2.0127850659560971
 23
15.4774027836977
 33
0.0
  0
TEXT
  5
2E52
  8
OBJECT
 62
     0
 10
2.8034256909560971
 20
15.4070902836977
 30
0.0
 40
0.140625
  1
1.968
 41
0.75
  0
POINT
  5
2E53
  8
DEFPOINTS
 62
     0
 10
3.980785065956097
 20
14.294402783697681
 30
0.0
  0
POINT
  5
2E54
  8
DEFPOINTS
 62
     0
 10
2.0127850659560971
 20
14.294402783697681
 30
0.0
  0
POINT
  5
2E55
  8
DEFPOINTS
 62
     0
 10
2.0127850659560971
 20
15.4774027836977
 30
0.0
  0
ENDBLK
  5
2E56
  8
0
  0
BLOCK
  8
0
  2
*D15
 70
     1
 10
0.0
 20
0.0
 30
0.0
  3
*D15
  1

  0
LINE
  5
2E59
  8
DIM
 62
     0
 10
2.0127850659560971
 20
14.365277783697691
 30
0.0
 11
2.0127850659560971
 21
15.582027783697701
 31
0.0
  0
LINE
  5
2E5A
  8
DIM
 62
     0
 10
1.126785065956099
 20
15.113277783697679
 30
0.0
 11
1.126785065956099
 21
15.582027783697701
 31
0.0
  0
LINE
  5
2E5B
  8
DIM
 62
     0
 10
2.2152850659560981
 20
15.4774027836977
 30
0.0
 11
2.4177850659560982
 21
15.4774027836977
 31
0.0
  0
LINE
  5
2E5C
  8
DIM
 62
     0
 10
0.9242850659560991
 20
15.4774027836977
 30
0.0
 11
0.7217850659560992
 21
15.4774027836977
 31
0.0
  0
SOLID
  5
2E5D
  8
DIM
 62
     0
 10
2.2152850659560981
 20
15.511152783697691
 30
0.0
 11
2.2152850659560981
 21
15.44365278369769
 31
0.0
 12
2.0127850659560971
 22
15.4774027836977
 32
0.0
 13
2.0127850659560971
 23
15.4774027836977
 33
0.0
  0
SOLID
  5
2E5E
  8
DIM
 62
     0
 10
0.9242850659560991
 20
15.511152783697691
 30
0.0
 11
0.9242850659560991
 21
15.44365278369769
 31
0.0
 12
1.126785065956099
 22
15.4774027836977
 32
0.0
 13
1.126785065956099
 23
15.4774027836977
 33
0.0
  0
TEXT
  5
2E5F
  8
0
 62
     0
 10
1.28854
 20
15.2285
 30
0.0
 40
0.140625
  1
0.886
  0
POINT
  5
2E60
  8
DEFPOINTS
 62
     0
 10
2.0127850659560971
 20
14.294402783697681
 30
0.0
  0
POINT
  5
2E61
  8
DEFPOINTS
 62
     0
 10
1.126785065956099
 20
15.042402783697691
 30
0.0
  0
POINT
  5
2E62
  8
DEFPOINTS
 62
     0
 10
1.126785065956099
 20
15.4774027836977
 30
0.0
  0
ENDBLK
  5
2E63
  8
0
  0
BLOCK
  8
0
  2
*D16
 70
     1
 10
0.0
 20
0.0
 30
0.0
  3
*D16
  1

  0
LINE
  5
2E66
  8
DIM
 62
     0
 10
1.9419100659560999
 20
14.294402783697681
 30
0.0
 11
0.6672002107230382
 21
14.294402783697681
 31
0.0
  0
LINE
  5
2E67
  8
DIM
 62
     0
 10
1.9419100659560999
 20
9.5704027836976966
 30
0.0
 11
0.667200210723037
 21
9.5704027836976966
 31
0.0
  0
LINE
  5
2E68
  8
DIM
 62
     0
 10
0.771825210723038
 20
14.09190278369768
 30
0.0
 11
0.7718252107230376
 21
12.103965283697679
 31
0.0
  0
LINE
  5
2E69
  8
DIM
 62
     0
 10
0.7718252107230371
 20
9.7729027836976954
 30
0.0
 11
0.7718252107230376
 21
11.76084028369768
 31
0.0
  0
SOLID
  5
2E6A
  8
DIM
 62
     0
 10
0.7380752107230381
 20
14.09190278369768
 30
0.0
 11
0.8055752107230381
 21
14.09190278369768
 31
0.0
 12
0.7718252107230381
 22
14.294402783697681
 32
0.0
 13
0.7718252107230381
 23
14.294402783697681
 33
0.0
  0
SOLID
  5
2E6B
  8
DIM
 62
     0
 10
0.7380752107230372
 20
9.7729027836976954
 30
0.0
 11
0.8055752107230368
 21
9.7729027836976954
 31
0.0
 12
0.771825210723037
 22
9.5704027836976966
 32
0.0
 13
0.771825210723037
 23
9.5704027836976966
 33
0.0
  0
TEXT
  5
2E6C
  8
OBJECT
 62
     0
 10
0.5608877107230357
 20
11.862090283697681
 30
0.0
 40
0.140625
  1
4.724
 41
0.75
  0
POINT
  5
2E6D
  8
DEFPOINTS
 62
     0
 10
2.0127850659561002
 20
14.294402783697681
 30
0.0
  0
POINT
  5
2E6E
  8
DEFPOINTS
 62
     0
 10
2.0127850659561002
 20
9.5704027836976966
 30
0.0
  0
POINT
  5
2E6F
  8
DEFPOINTS
 62
     0
 10
0.771825210723037
 20
9.5704027836976966
 30
0.0
  0
ENDBLK
  5
2E70
  8
0
  0
BLOCK
  8
0
  2
*D17
 70
     1
 10
0.0
 20
0.0
 30
0.0
  3
*D17
  1

  0
LINE
  5
2E73
  8
DIM
 62
     0
 10
1.9419100659560999
 20
9.5704027836976966
 30
0.0
 11
0.6672002107230372
 21
9.5704027836976966
 31
0.0
  0
LINE
  5
2E74
  8
DIM
 62
     0
 10
1.055910065956098
 20
8.8224027836976973
 30
0.0
 11
0.6672002107230372
 21
8.8224027836976973
 31
0.0
  0
LINE
  5
2E75
  8
DIM
 62
     0
 10
0.7718252107230372
 20
9.7729027836976954
 30
0.0
 11
0.7718252107230372
 21
9.9754027836976942
 31
0.0
  0
LINE
  5
2E76
  8
DIM
 62
     0
 10
0.771825210723037
 20
8.6199027836976967
 30
0.0
 11
0.771825210723037
 21
8.4174027836976961
 31
0.0
  0
SOLID
  5
2E77
  8
DIM
 62
     0
 10
0.7380752107230375
 20
9.7729027836976954
 30
0.0
 11
0.8055752107230372
 21
9.7729027836976954
 31
0.0
 12
0.7718252107230371
 22
9.5704027836976966
 32
0.0
 13
0.7718252107230371
 23
9.5704027836976966
 33
0.0
  0
SOLID
  5
2E78
  8
DIM
 62
     0
 10
0.738075210723037
 20
8.6199027836976967
 30
0.0
 11
0.8055752107230368
 21
8.6199027836976967
 31
0.0
 12
0.771825210723037
 22
8.8224027836976973
 32
0.0
 13
0.771825210723037
 23
8.8224027836976973
 33
0.0
  0
TEXT
  5
2E79
  8
0
 62
     0
 10
0.490575
 20
8.9474999999999998
 30
0.0
 40
0.140625
  1
0.748
  0
POINT
  5
2E7A
  8
DEFPOINTS
 62
     0
 10
2.0127850659561002
 20
9.5704027836976966
 30
0.0
  0
POINT
  5
2E7B
  8
DEFPOINTS
 62
     0
 10
1.126785065956099
 20
8.8224027836976973
 30
0.0
  0
POINT
  5
2E7C
  8
DEFPOINTS
 62
     0
 10
0.771825210723037
 20
8.8224027836976973
 30
0.0
  0
ENDBLK
  5
2E7D
  8
0
  0
BLOCK
  8
0
  2
*D18
 70
     1
 10
0.0
 20
0.0
 30
0.0
  3
*D18
  1

  0
LINE
  5
2E80
  8
DIM
 62
     0
 10
1.441785065956096
 20
9.1455277836976965
 30
0.0
 11
1.441785065956096
 21
8.149168359052771
 31
0.0
  0
LINE
  5
2E81
  8
DIM
 62
     0
 10
1.126785065956099
 20
8.7515277836976981
 30
0.0
 11
1.126785065956099
 21
8.149168359052771
 31
0.0
  0
LINE
  5
2E82
  8
DIM
 62
     0
 10
1.644285065956095
 20
8.2537933590527732
 30
0.0
 11
1.846785065956096
 21
8.2537933590527732
 31
0.0
  0
LINE
  5
2E83
  8
DIM
 62
     0
 10
0.9242850659560991
 20
8.2537933590527732
 30
0.0
 11
0.7217850659560992
 21
8.2537933590527732
 31
0.0
  0
SOLID
  5
2E84
  8
DIM
 62
     0
 10
1.644285065956095
 20
8.2875433590527692
 30
0.0
 11
1.644285065956095
 21
8.2200433590527702
 31
0.0
 12
1.441785065956096
 22
8.2537933590527732
 32
0.0
 13
1.441785065956096
 23
8.2537933590527732
 33
0.0
  0
SOLID
  5
2E85
  8
DIM
 62
     0
 10
0.9242850659560991
 20
8.2875433590527692
 30
0.0
 11
0.9242850659560991
 21
8.2200433590527702
 31
0.0
 12
1.126785065956099
 22
8.2537933590527732
 32
0.0
 13
1.126785065956099
 23
8.2537933590527732
 33
0.0
  0
TEXT
  5
2E86
  8
OBJECT
 62
     0
 10
0.2513944409560992
 20
8.1834808590527732
 30
0.0
 40
0.140625
  1
0.315
 41
0.75
  0
POINT
  5
2E87
  8
DEFPOINTS
 62
     0
 10
1.441785065956096
 20
9.2164027836976956
 30
0.0
  0
POINT
  5
2E88
  8
DEFPOINTS
 62
     0
 10
1.126785065956099
 20
8.8224027836976973
 30
0.0
  0
POINT
  5
2E89
  8
DEFPOINTS
 62
     0
 10
1.126785065956099
 20
8.2537933590527732
 30
0.0
  0
ENDBLK
  5
2E8A
  8
0
  0
BLOCK
  8
0
  2
*D19
 70
     1
 10
0.0
 20
0.0
 30
0.0
  3
*D19
  1

  0
LINE
  5
2E8D
  8
DIM
 62
     0
 10
4.6226600659561026
 20
9.2164027836976956
 30
0.0
 11
5.3603281661886459
 21
9.2164027836976956
 31
0.0
  0
LINE
  5
2E8E
  8
DIM
 62
     0
 10
4.9376600659561012
 20
8.8224027836976973
 30
0.0
 11
5.3603281661886459
 21
8.8224027836976973
 31
0.0
  0
LINE
  5
2E8F
  8
DIM
 62
     0
 10
5.2557031661886473
 20
9.4189027836976962
 30
0.0
 11
5.2557031661886473
 21
9.6214027836976932
 31
0.0
  0
LINE
  5
2E90
  8
DIM
 62
     0
 10
5.2557031661886473
 20
8.6199027836976967
 30
0.0
 11
5.2557031661886473
 21
8.4174027836976961
 31
0.0
  0
SOLID
  5
2E91
  8
DIM
 62
     0
 10
5.221953166188646
 20
9.4189027836976962
 30
0.0
 11
5.2894531661886459
 21
9.4189027836976962
 31
0.0
 12
5.2557031661886473
 22
9.2164027836976956
 32
0.0
 13
5.2557031661886473
 23
9.2164027836976956
 33
0.0
  0
SOLID
  5
2E92
  8
DIM
 62
     0
 10
5.221953166188646
 20
8.6199027836976967
 30
0.0
 11
5.2894531661886459
 21
8.6199027836976967
 31
0.0
 12
5.2557031661886473
 22
8.8224027836976973
 32
0.0
 13
5.2557031661886473
 23
8.8224027836976973
 33
0.0
  0
TEXT
  5
2E93
  8
OBJECT
 62
     0
 10
5.0535547286886464
 20
8.9490902836976982
 30
0.0
 40
0.140625
  1
0.394
 41
0.75
  0
POINT
  5
2E94
  8
DEFPOINTS
 62
     0
 10
4.5517850659561043
 20
9.2164027836976956
 30
0.0
  0
POINT
  5
2E95
  8
DEFPOINTS
 62
     0
 10
4.8667850659561012
 20
8.8224027836976973
 30
0.0
  0
POINT
  5
2E96
  8
DEFPOINTS
 62
     0
 10
5.2557031661886473
 20
8.8224027836976973
 30
0.0
  0
ENDBLK
  5
2E97
  8
0
  0
BLOCK
  8
0
  2
*D20
 70
     1
 10
0.0
 20
0.0
 30
0.0
  3
*D20
  1

  0
LINE
  5
2E9A
  8
DIM
 62
     0
 10
4.691785065956096
 20
10.456277783697679
 30
0.0
 11
4.691785065956096
 21
10.88222406265816
 31
0.0
  0
LINE
  5
2E9B
  8
DIM
 62
     0
 10
1.301785065956099
 20
10.456277783697679
 30
0.0
 11
1.301785065956099
 21
10.88222406265816
 31
0.0
  0
LINE
  5
2E9C
  8
DIM
 62
     0
 10
4.4892850659560972
 20
10.77759906265816
 30
0.0
 11
3.3001835034560969
 21
10.77759906265816
 31
0.0
  0
LINE
  5
2E9D
  8
DIM
 62
     0
 10
1.504285065956098
 20
10.77759906265816
 30
0.0
 11
2.6933866284560981
 21
10.77759906265816
 31
0.0
  0
SOLID
  5
2E9E
  8
DIM
 62
     0
 10
4.4892850659560972
 20
10.811349062658151
 30
0.0
 11
4.4892850659560972
 21
10.74384906265816
 31
0.0
 12
4.691785065956096
 22
10.77759906265816
 32
0.0
 13
4.691785065956096
 23
10.77759906265816
 33
0.0
  0
SOLID
  5
2E9F
  8
DIM
 62
     0
 10
1.504285065956098
 20
10.811349062658151
 30
0.0
 11
1.504285065956098
 21
10.74384906265816
 31
0.0
 12
1.301785065956099
 22
10.77759906265816
 32
0.0
 13
1.301785065956099
 23
10.77759906265816
 33
0.0
  0
TEXT
  5
2EA0
  8
OBJECT
 62
     0
 10
2.7946366284560971
 20
10.70728656265816
 30
0.0
 40
0.140625
  1
3.390
 41
0.75
  0
POINT
  5
2EA1
  8
DEFPOINTS
 62
     0
 10
4.691785065956096
 20
10.385402783697691
 30
0.0
  0
POINT
  5
2EA2
  8
DEFPOINTS
 62
     0
 10
1.301785065956099
 20
10.385402783697691
 30
0.0
  0
POINT
  5
2EA3
  8
DEFPOINTS
 62
     0
 10
1.301785065956099
 20
10.77759906265816
 30
0.0
  0
ENDBLK
  5
2EA4
  8
0
  0
BLOCK
  8
0
  2
*D21
 70
     1
 10
0.0
 20
0.0
 30
0.0
  3
*D21
  1

  0
LINE
  5
2EA7
  8
DIM
 62
     0
 10
4.6209100659561004
 20
10.32540278369769
 30
0.0
 11
4.3381600659561004
 21
10.32540278369769
 31
0.0
  0
LINE
  5
2EA8
  8
DIM
 62
     0
 10
4.6209100659561004
 20
10.227402783697681
 30
0.0
 11
4.3381600659561004
 21
10.227402783697681
 31
0.0
  0
LINE
  5
2EA9
  8
DIM
 62
     0
 10
4.442785065956099
 20
10.527902783697691
 30
0.0
 11
4.442785065956099
 21
10.73040278369769
 31
0.0
  0
LINE
  5
2EAA
  8
DIM
 62
     0
 10
4.442785065956099
 20
10.024902783697691
 30
0.0
 11
4.4427850659560981
 21
9.822402783697699
 31
0.0
  0
LINE
  5
2EAB
  8
DIM
 62
     0
 10
4.4427850659560981
 20
9.822402783697699
 30
0.0
 11
4.2402850659561002
 21
9.822402783697699
 31
0.0
  0
SOLID
  5
2EAC
  8
DIM
 62
     0
 10
4.4090350659561004
 20
10.527902783697691
 30
0.0
 11
4.4765350659561012
 21
10.527902783697691
 31
0.0
 12
4.442785065956099
 22
10.32540278369769
 32
0.0
 13
4.442785065956099
 23
10.32540278369769
 33
0.0
  0
SOLID
  5
2EAD
  8
DIM
 62
     0
 10
4.4090350659561004
 20
10.024902783697691
 30
0.0
 11
4.4765350659561012
 21
10.024902783697691
 31
0.0
 12
4.442785065956099
 22
10.227402783697681
 32
0.0
 13
4.442785065956099
 23
10.227402783697681
 33
0.0
  0
TEXT
  5
2EAE
  8
OBJECT
 62
     0
 10
3.2952850659560982
 20
9.752090283697699
 30
0.0
 40
0.140625
  1
0.098 TYP.
 41
0.75
  0
POINT
  5
2EAF
  8
DEFPOINTS
 62
     0
 10
4.6917850659560987
 20
10.32540278369769
 30
0.0
  0
POINT
  5
2EB0
  8
DEFPOINTS
 62
     0
 10
4.6917850659560987
 20
10.227402783697681
 30
0.0
  0
POINT
  5
2EB1
  8
DEFPOINTS
 62
     0
 10
4.442785065956099
 20
10.227402783697681
 30
0.0
  0
ENDBLK
  5
2EB2
  8
0
  0
BLOCK
  8
0
  2
*D22
 70
     1
 10
0.0
 20
0.0
 30
0.0
  3
*D22
  1

  0
LINE
  5
2EB5
  8
DIM
 62
     0
 10
1.3017850659561201
 20
10.456277783697679
 30
0.0
 11
1.3017850659561201
 21
10.65859386592679
 31
0.0
  0
LINE
  5
2EB6
  8
DIM
 62
     0
 10
1.2467850659561031
 20
10.456277783697679
 30
0.0
 11
1.2467850659561031
 21
10.65859386592679
 31
0.0
  0
LINE
  5
2EB7
  8
DIM
 62
     0
 10
1.044285065956102
 20
10.55396886592678
 30
0.0
 11
0.8417850659561036
 21
10.55396886592678
 31
0.0
  0
LINE
  5
2EB8
  8
DIM
 62
     0
 10
1.5042850659561211
 20
10.55396886592678
 30
0.0
 11
1.7067850659561199
 21
10.55396886592678
 31
0.0
  0
SOLID
  5
2EB9
  8
DIM
 62
     0
 10
1.044285065956102
 20
10.58771886592678
 30
0.0
 11
1.044285065956102
 21
10.520218865926781
 31
0.0
 12
1.2467850659561031
 22
10.55396886592678
 32
0.0
 13
1.2467850659561031
 23
10.55396886592678
 33
0.0
  0
SOLID
  5
2EBA
  8
DIM
 62
     0
 10
1.5042850659561211
 20
10.58771886592678
 30
0.0
 11
1.5042850659561211
 21
10.520218865926781
 31
0.0
 12
1.3017850659561201
 22
10.55396886592678
 32
0.0
 13
1.3017850659561201
 23
10.55396886592678
 33
0.0
  0
TEXT
  5
2EBB
  8
OBJECT
 62
     0
 10
1.80803506595612
 20
10.48365636592678
 30
0.0
 40
0.140625
  1
0.055 TYP.
 41
0.75
  0
POINT
  5
2EBC
  8
DEFPOINTS
 62
     0
 10
1.3017850659561201
 20
10.385402783697691
 30
0.0
  0
POINT
  5
2EBD
  8
DEFPOINTS
 62
     0
 10
1.2467850659561031
 20
10.385402783697691
 30
0.0
  0
POINT
  5
2EBE
  8
DEFPOINTS
 62
     0
 10
1.2467850659561031
 20
10.55396886592678
 30
0.0
  0
ENDBLK
  5
2EBF
  8
0
  0
BLOCK
  8
0
  2
*D23
 70
     1
 10
0.0
 20
0.0
 30
0.0
  3
*D23
  1

  0
LINE
  5
2EC2
  8
DIM
 62
     0
 10
4.8667850659560941
 20
11.716845423711529
 30
0.0
 11
4.8667850659560941
 21
11.620095423711531
 31
0.0
  0
LINE
  5
2EC3
  8
DIM
 62
     0
 10
4.7467850659560948
 20
11.716845423711529
 30
0.0
 11
4.7467850659560948
 21
11.620095423711531
 31
0.0
  0
LINE
  5
2EC4
  8
DIM
 62
     0
 10
5.069285065956092
 20
11.724720423711529
 30
0.0
 11
5.2717850659560943
 21
11.724720423711529
 31
0.0
  0
LINE
  5
2EC5
  8
DIM
 62
     0
 10
4.544285065956096
 20
11.724720423711529
 30
0.0
 11
4.3417850659560964
 21
11.724720423711529
 31
0.0
  0
SOLID
  5
2EC6
  8
DIM
 62
     0
 10
5.069285065956092
 20
11.758470423711531
 30
0.0
 11
5.069285065956092
 21
11.69097042371153
 31
0.0
 12
4.8667850659560941
 22
11.724720423711529
 32
0.0
 13
4.8667850659560941
 23
11.724720423711529
 33
0.0
  0
SOLID
  5
2EC7
  8
DIM
 62
     0
 10
4.544285065956096
 20
11.758470423711531
 30
0.0
 11
4.544285065956096
 21
11.69097042371153
 31
0.0
 12
4.7467850659560948
 22
11.724720423711529
 32
0.0
 13
4.7467850659560948
 23
11.724720423711529
 33
0.0
  0
TEXT
  5
2EC8
  8
OBJECT
 62
     0
 10
3.4319413159560961
 20
11.654407923711529
 30
0.0
 40
0.140625
  1
0.120 TYP.
 41
0.75
  0
POINT
  5
2EC9
  8
DEFPOINTS
 62
     0
 10
4.8667850659560941
 20
11.78772042371153
 30
0.0
  0
POINT
  5
2ECA
  8
DEFPOINTS
 62
     0
 10
4.7467850659560948
 20
11.78772042371153
 30
0.0
  0
POINT
  5
2ECB
  8
DEFPOINTS
 62
     0
 10
4.7467850659560948
 20
11.724720423711529
 30
0.0
  0
ENDBLK
  5
2ECC
  8
0
  0
BLOCK
  8
0
  2
*D24
 70
     1
 10
0.0
 20
0.0
 30
0.0
  3
*D24
  1

  0
LINE
  5
2ECF
  8
DIM
 62
     0
 10
4.5517850659561043
 20
9.1455277836976965
 30
0.0
 11
4.5517850659561043
 21
8.149168359052771
 31
0.0
  0
LINE
  5
2ED0
  8
DIM
 62
     0
 10
4.8667850659561012
 20
8.7515277836976981
 30
0.0
 11
4.8667850659561012
 21
8.149168359052771
 31
0.0
  0
LINE
  5
2ED1
  8
DIM
 62
     0
 10
4.349285065956102
 20
8.2537933590527732
 30
0.0
 11
4.1467850659561032
 21
8.2537933590527732
 31
0.0
  0
LINE
  5
2ED2
  8
DIM
 62
     0
 10
5.0692850659560991
 20
8.2537933590527732
 30
0.0
 11
5.2717850659560987
 21
8.2537933590527732
 31
0.0
  0
SOLID
  5
2ED3
  8
DIM
 62
     0
 10
4.349285065956102
 20
8.2875433590527692
 30
0.0
 11
4.349285065956102
 21
8.2200433590527702
 31
0.0
 12
4.5517850659561043
 22
8.2537933590527732
 32
0.0
 13
4.5517850659561043
 23
8.2537933590527732
 33
0.0
  0
SOLID
  5
2ED4
  8
DIM
 62
     0
 10
5.0692850659560991
 20
8.2875433590527692
 30
0.0
 11
5.0692850659560991
 21
8.2200433590527702
 31
0.0
 12
4.8667850659561012
 22
8.2537933590527732
 32
0.0
 13
4.8667850659561012
 23
8.2537933590527732
 33
0.0
  0
TEXT
  5
2ED5
  8
OBJECT
 62
     0
 10
5.373035065956099
 20
8.1834808590527732
 30
0.0
 40
0.140625
  1
0.315
 41
0.75
  0
POINT
  5
2ED6
  8
DEFPOINTS
 62
     0
 10
4.5517850659561043
 20
9.2164027836976956
 30
0.0
  0
POINT
  5
2ED7
  8
DEFPOINTS
 62
     0
 10
4.8667850659561012
 20
8.8224027836976973
 30
0.0
  0
POINT
  5
2ED8
  8
DEFPOINTS
 62
     0
 10
4.8667850659561012
 20
8.2537933590527732
 30
0.0
  0
ENDBLK
  5
2ED9
  8
0
  0
BLOCK
  8
0
  2
*D25
 70
     1
 10
0.0
 20
0.0
 30
0.0
  3
*D25
  1

  0
LINE
  5
2EDC
  8
DIM
 62
     0
 10
4.6226600659561026
 20
14.648402783697691
 30
0.0
 11
5.3603281661886459
 21
14.648402783697691
 31
0.0
  0
LINE
  5
2EDD
  8
DIM
 62
     0
 10
4.9376600659561012
 20
15.042402783697691
 30
0.0
 11
5.3603281661886459
 21
15.042402783697691
 31
0.0
  0
LINE
  5
2EDE
  8
DIM
 62
     0
 10
5.2557031661886473
 20
14.445902783697679
 30
0.0
 11
5.2557031661886473
 21
14.243402783697681
 31
0.0
  0
LINE
  5
2EDF
  8
DIM
 62
     0
 10
5.2557031661886473
 20
15.244902783697681
 30
0.0
 11
5.2557031661886473
 21
15.44740278369769
 31
0.0
  0
SOLID
  5
2EE0
  8
DIM
 62
     0
 10
5.221953166188646
 20
14.445902783697679
 30
0.0
 11
5.2894531661886459
 21
14.445902783697679
 31
0.0
 12
5.2557031661886473
 22
14.648402783697691
 32
0.0
 13
5.2557031661886473
 23
14.648402783697691
 33
0.0
  0
SOLID
  5
2EE1
  8
DIM
 62
     0
 10
5.221953166188646
 20
15.244902783697681
 30
0.0
 11
5.2894531661886459
 21
15.244902783697681
 31
0.0
 12
5.2557031661886473
 22
15.042402783697691
 32
0.0
 13
5.2557031661886473
 23
15.042402783697691
 33
0.0
  0
TEXT
  5
2EE2
  8
OBJECT
 62
     0
 10
5.0535547286886429
 20
14.7750902836977
 30
0.0
 40
0.140625
  1
0.394
 41
0.75
  0
POINT
  5
2EE3
  8
DEFPOINTS
 62
     0
 10
4.5517850659561043
 20
14.648402783697691
 30
0.0
  0
POINT
  5
2EE4
  8
DEFPOINTS
 62
     0
 10
4.8667850659561012
 20
15.042402783697691
 30
0.0
  0
POINT
  5
2EE5
  8
DEFPOINTS
 62
     0
 10
5.2557031661886473
 20
15.042402783697691
 30
0.0
  0
ENDBLK
  5
2EE6
  8
0
  0
BLOCK
  8
0
  2
*D26
 70
     1
 10
0.0
 20
0.0
 30
0.0
  3
*D26
  1

  0
LINE
  5
2EE9
  8
DIM
 62
     0
 10
6.9668945463536751
 20
15.042402783697691
 30
0.0
 11
6.6025346331002881
 21
15.042402783697691
 31
0.0
  0
LINE
  5
2EEA
  8
DIM
 62
     0
 10
6.9668945463536751
 20
8.8224027836976973
 30
0.0
 11
6.6025346331002872
 21
8.8224027836976973
 31
0.0
  0
LINE
  5
2EEB
  8
DIM
 62
     0
 10
6.7071596331002894
 20
14.83990278369769
 30
0.0
 11
6.7071596331002867
 21
12.103965283697679
 31
0.0
  0
LINE
  5
2EEC
  8
DIM
 62
     0
 10
6.7071596331002867
 20
9.0249027836976961
 30
0.0
 11
6.7071596331002867
 21
11.76084028369768
 31
0.0
  0
SOLID
  5
2EED
  8
DIM
 62
     0
 10
6.673409633100289
 20
14.83990278369769
 30
0.0
 11
6.740909633100288
 21
14.83990278369769
 31
0.0
 12
6.7071596331002894
 22
15.042402783697691
 32
0.0
 13
6.7071596331002894
 23
15.042402783697691
 33
0.0
  0
SOLID
  5
2EEE
  8
DIM
 62
     0
 10
6.6734096331002872
 20
9.0249027836976961
 30
0.0
 11
6.7409096331002871
 21
9.0249027836976961
 31
0.0
 12
6.7071596331002867
 22
8.8224027836976973
 32
0.0
 13
6.7071596331002867
 23
8.8224027836976973
 33
0.0
  0
TEXT
  5
2EEF
  8
OBJECT
 62
     0
 10
6.505011195600285
 20
11.86209028369769
 30
0.0
 40
0.140625
  1
6.220
 41
0.75
  0
POINT
  5
2EF0
  8
DEFPOINTS
 62
     0
 10
7.037769546353676
 20
15.042402783697691
 30
0.0
  0
POINT
  5
2EF1
  8
DEFPOINTS
 62
     0
 10
7.037769546353676
 20
8.8224027836976973
 30
0.0
  0
POINT
  5
2EF2
  8
DEFPOINTS
 62
     0
 10
6.7071596331002867
 20
8.8224027836976973
 30
0.0
  0
ENDBLK
  5
2EF3
  8
0
  0
BLOCK
  8
0
  2
*D27
 70
     1
 10
0.0
 20
0.0
 30
0.0
  3
*D27
  1

  0
LINE
  5
2EF6
  8
DIM
 62
     0
 10
2.6667352488593319
 20
9.0274027836976956
 30
0.0
 11
2.5699852488593322
 21
9.0274027836976956
 31
0.0
  0
LINE
  5
2EF7
  8
DIM
 62
     0
 10
2.6667352488593319
 20
14.837402783697691
 30
0.0
 11
2.5699852488593322
 21
14.837402783697691
 31
0.0
  0
LINE
  5
2EF8
  8
DIM
 62
     0
 10
2.6746102488593322
 20
9.2299027836976961
 30
0.0
 11
2.6746102488593322
 21
11.76084028369768
 31
0.0
  0
LINE
  5
2EF9
  8
DIM
 62
     0
 10
2.6746102488593322
 20
14.63490278369769
 30
0.0
 11
2.6746102488593322
 21
12.103965283697679
 31
0.0
  0
SOLID
  5
2EFA
  8
DIM
 62
     0
 10
2.6408602488593309
 20
9.2299027836976961
 30
0.0
 11
2.7083602488593321
 21
9.2299027836976961
 31
0.0
 12
2.6746102488593322
 22
9.0274027836976956
 32
0.0
 13
2.6746102488593322
 23
9.0274027836976956
 33
0.0
  0
SOLID
  5
2EFB
  8
DIM
 62
     0
 10
2.6408602488593318
 20
14.63490278369769
 30
0.0
 11
2.708360248859333
 21
14.63490278369769
 31
0.0
 12
2.6746102488593322
 22
14.837402783697691
 32
0.0
 13
2.6746102488593322
 23
14.837402783697691
 33
0.0
  0
TEXT
  5
2EFC
  8
OBJECT
 62
     0
 10
2.49003993635933
 20
11.862090283697681
 30
0.0
 40
0.140625
  1
5.810
 41
0.75
  0
POINT
  5
2EFD
  8
DEFPOINTS
 62
     0
 10
2.7376102488593319
 20
9.0274027836976956
 30
0.0
  0
POINT
  5
2EFE
  8
DEFPOINTS
 62
     0
 10
2.7376102488593319
 20
14.837402783697691
 30
0.0
  0
POINT
  5
2EFF
  8
DEFPOINTS
 62
     0
 10
2.6746102488593322
 20
14.837402783697691
 30
0.0
  0
ENDBLK
  5
2F00
  8
0
  0
BLOCK
  8
0
  2
*D28
 70
     1
 10
0.0
 20
0.0
 30
0.0
  3
*D28
  1

  0
LINE
  5
2F03
  8
DIM
 62
     0
 10
1.2467850659560991
 20
11.445131199483081
 30
0.0
 11
1.2467850659560991
 21
11.348381199483081
 31
0.0
  0
LINE
  5
2F04
  8
DIM
 62
     0
 10
4.7467850659561019
 20
11.445131199483081
 30
0.0
 11
4.7467850659561019
 21
11.348381199483081
 31
0.0
  0
LINE
  5
2F05
  8
DIM
 62
     0
 10
1.4492850659561001
 20
11.453006199483079
 30
0.0
 11
2.7021756909561021
 21
11.453006199483079
 31
0.0
  0
LINE
  5
2F06
  8
DIM
 62
     0
 10
4.544285065956104
 20
11.453006199483079
 30
0.0
 11
3.2913944409561
 21
11.453006199483079
 31
0.0
  0
SOLID
  5
2F07
  8
DIM
 62
     0
 10
1.4492850659561001
 20
11.48675619948308
 30
0.0
 11
1.4492850659561001
 21
11.41925619948308
 31
0.0
 12
1.2467850659560991
 22
11.453006199483079
 32
0.0
 13
1.2467850659560991
 23
11.453006199483079
 33
0.0
  0
SOLID
  5
2F08
  8
DIM
 62
     0
 10
4.544285065956104
 20
11.48675619948308
 30
0.0
 11
4.544285065956104
 21
11.41925619948308
 31
0.0
 12
4.7467850659561019
 22
11.453006199483079
 32
0.0
 13
4.7467850659561019
 23
11.453006199483079
 33
0.0
  0
TEXT
  5
2F09
  8
OBJECT
 62
     0
 10
2.8034256909561002
 20
11.38269369948307
 30
0.0
 40
0.140625
  1
3.500
 41
0.75
  0
POINT
  5
2F0A
  8
DEFPOINTS
 62
     0
 10
1.2467850659560991
 20
11.516006199483069
 30
0.0
  0
POINT
  5
2F0B
  8
DEFPOINTS
 62
     0
 10
4.7467850659561019
 20
11.516006199483069
 30
0.0
  0
POINT
  5
2F0C
  8
DEFPOINTS
 62
     0
 10
4.7467850659561019
 20
11.453006199483079
 30
0.0
  0
ENDBLK
  5
2F0D
  8
0
  0
BLOCK
  8
0
  2
*D29
 70
     1
 10
0.0
 20
0.0
 30
0.0
  3
*D29
  1

  0
LINE
  5
2F10
  8
DIM
 62
     0
 10
7.7267695463536921
 20
15.113277783697701
 30
0.0
 11
7.7267695463536921
 21
15.67502778369769
 31
0.0
  0
LINE
  5
2F11
  8
DIM
 62
     0
 10
7.037769546353676
 20
15.113277783697701
 30
0.0
 11
7.037769546353676
 21
15.67502778369769
 31
0.0
  0
LINE
  5
2F12
  8
DIM
 62
     0
 10
7.9292695463536917
 20
15.570402783697689
 30
0.0
 11
8.1317695463536932
 21
15.570402783697689
 31
0.0
  0
LINE
  5
2F13
  8
DIM
 62
     0
 10
6.8352695463536763
 20
15.570402783697689
 30
0.0
 11
6.6327695463536731
 21
15.570402783697689
 31
0.0
  0
SOLID
  5
2F14
  8
DIM
 62
     0
 10
7.9292695463536917
 20
15.604152783697691
 30
0.0
 11
7.9292695463536917
 21
15.53665278369769
 31
0.0
 12
7.7267695463536921
 22
15.570402783697689
 32
0.0
 13
7.7267695463536921
 23
15.570402783697689
 33
0.0
  0
SOLID
  5
2F15
  8
DIM
 62
     0
 10
6.8352695463536763
 20
15.604152783697691
 30
0.0
 11
6.8352695463536763
 21
15.53665278369769
 31
0.0
 12
7.037769546353676
 22
15.570402783697689
 32
0.0
 13
7.037769546353676
 23
15.570402783697689
 33
0.0
  0
TEXT
  5
2F16
  8
OBJECT
 62
     0
 10
7.3471132963536832
 20
15.500090283697689
 30
0.0
 40
0.140625
  1
C
 41
0.75
  0
POINT
  5
2F17
  8
DEFPOINTS
 62
     0
 10
7.7267695463536921
 20
15.042402783697691
 30
0.0
  0
POINT
  5
2F18
  8
DEFPOINTS
 62
     0
 10
7.037769546353676
 20
15.042402783697691
 30
0.0
  0
POINT
  5
2F19
  8
DEFPOINTS
 62
     0
 10
7.037769546353676
 20
15.570402783697689
 30
0.0
  0
ENDBLK
  5
2F1A
  8
0
  0
BLOCK
  8
0
  2
*D30
 70
     1
 10
0.0
 20
0.0
 30
0.0
  3
*D30
  1

  0
LINE
  5
2F1D
  8
DIM
 62
     0
 10
7.037769546353676
 20
15.113277783697701
 30
0.0
 11
7.037769546353676
 21
15.95402778369769
 31
0.0
  0
LINE
  5
2F1E
  8
DIM
 62
     0
 10
8.4547695463536741
 20
15.113277783697701
 30
0.0
 11
8.4547695463536741
 21
15.95402778369769
 31
0.0
  0
LINE
  5
2F1F
  8
DIM
 62
     0
 10
7.240269546353673
 20
15.849402783697689
 30
0.0
 11
7.6098632963536748
 21
15.849402783697689
 31
0.0
  0
LINE
  5
2F20
  8
DIM
 62
     0
 10
8.2522695463536735
 20
15.849402783697689
 30
0.0
 11
7.8826757963536753
 21
15.849402783697689
 31
0.0
  0
SOLID
  5
2F21
  8
DIM
 62
     0
 10
7.240269546353673
 20
15.883152783697691
 30
0.0
 11
7.240269546353673
 21
15.815652783697701
 31
0.0
 12
7.037769546353676
 22
15.849402783697689
 32
0.0
 13
7.037769546353676
 23
15.849402783697689
 33
0.0
  0
SOLID
  5
2F22
  8
DIM
 62
     0
 10
8.2522695463536735
 20
15.883152783697691
 30
0.0
 11
8.2522695463536735
 21
15.815652783697701
 31
0.0
 12
8.4547695463536741
 22
15.849402783697689
 32
0.0
 13
8.4547695463536741
 23
15.849402783697689
 33
0.0
  0
TEXT
  5
2F23
  8
OBJECT
 62
     0
 10
7.711113296353675
 20
15.779090283697689
 30
0.0
 40
0.140625
  1
A
 41
0.75
  0
POINT
  5
2F24
  8
DEFPOINTS
 62
     0
 10
7.037769546353676
 20
15.042402783697691
 30
0.0
  0
POINT
  5
2F25
  8
DEFPOINTS
 62
     0
 10
8.4547695463536741
 20
15.042402783697691
 30
0.0
  0
POINT
  5
2F26
  8
DEFPOINTS
 62
     0
 10
8.4547695463536741
 20
15.849402783697689
 30
0.0
  0
ENDBLK
  5
2F27
  8
0
  0
BLOCK
  8
0
  2
*D31
 70
     1
 10
0.0
 20
0.0
 30
0.0
  3
*D31
  1

  0
LINE
  5
2F2A
  8
DIM
 62
     0
 10
7.765769546353682
 20
15.113277783697701
 30
0.0
 11
7.765769546353682
 21
15.39602778369769
 31
0.0
  0
LINE
  5
2F2B
  8
DIM
 62
     0
 10
8.4547695463536741
 20
15.113277783697701
 30
0.0
 11
8.4547695463536741
 21
15.39602778369769
 31
0.0
  0
LINE
  5
2F2C
  8
DIM
 62
     0
 10
7.5632695463536832
 20
15.29140278369769
 30
0.0
 11
7.3607695463536826
 21
15.29140278369769
 31
0.0
  0
LINE
  5
2F2D
  8
DIM
 62
     0
 10
8.6572695463536729
 20
15.29140278369769
 30
0.0
 11
8.8597695463536734
 21
15.29140278369769
 31
0.0
  0
SOLID
  5
2F2E
  8
DIM
 62
     0
 10
7.5632695463536832
 20
15.325152783697691
 30
0.0
 11
7.5632695463536832
 21
15.25765278369769
 31
0.0
 12
7.765769546353682
 22
15.29140278369769
 32
0.0
 13
7.765769546353682
 23
15.29140278369769
 33
0.0
  0
SOLID
  5
2F2F
  8
DIM
 62
     0
 10
8.6572695463536729
 20
15.325152783697691
 30
0.0
 11
8.6572695463536729
 21
15.25765278369769
 31
0.0
 12
8.4547695463536741
 22
15.29140278369769
 32
0.0
 13
8.4547695463536741
 23
15.29140278369769
 33
0.0
  0
TEXT
  5
2F30
  8
OBJECT
 62
     0
 10
8.0751132963536776
 20
15.2210902836977
 30
0.0
 40
0.140625
  1
B
 41
0.75
  0
POINT
  5
2F31
  8
DEFPOINTS
 62
     0
 10
7.765769546353682
 20
15.042402783697691
 30
0.0
  0
POINT
  5
2F32
  8
DEFPOINTS
 62
     0
 10
8.4547695463536741
 20
15.042402783697691
 30
0.0
  0
POINT
  5
2F33
  8
DEFPOINTS
 62
     0
 10
8.4547695463536741
 20
15.29140278369769
 30
0.0
  0
ENDBLK
  5
2F34
  8
0
  0
BLOCK
  8
0
  2
*D32
 70
     1
 10
0.0
 20
0.0
 30
0.0
  3
*D32
  1

  0
LINE
  5
2F37
  8
DIM
 62
     0
 10
3.1576600659561
 20
11.932402783697681
 30
0.0
 11
6.2417064290011854
 21
11.932402783697681
 31
0.0
  0
LINE
  5
2F38
  8
DIM
 62
     0
 10
4.9376600659561012
 20
8.8224027836976973
 30
0.0
 11
6.2417064290011854
 21
8.8224027836976973
 31
0.0
  0
LINE
  5
2F39
  8
DIM
 62
     0
 10
6.137081429001185
 20
11.729902783697691
 30
0.0
 11
6.137081429001185
 21
10.54896528369769
 31
0.0
  0
LINE
  5
2F3A
  8
DIM
 62
     0
 10
6.137081429001185
 20
9.0249027836976961
 30
0.0
 11
6.137081429001185
 21
10.205840283697681
 31
0.0
  0
SOLID
  5
2F3B
  8
DIM
 62
     0
 10
6.1033314290011837
 20
11.729902783697691
 30
0.0
 11
6.1708314290011854
 21
11.729902783697691
 31
0.0
 12
6.137081429001185
 22
11.932402783697681
 32
0.0
 13
6.137081429001185
 23
11.932402783697681
 33
0.0
  0
SOLID
  5
2F3C
  8
DIM
 62
     0
 10
6.1033314290011829
 20
9.0249027836976961
 30
0.0
 11
6.1708314290011854
 21
9.0249027836976961
 31
0.0
 12
6.137081429001185
 22
8.8224027836976973
 32
0.0
 13
6.137081429001185
 23
8.8224027836976973
 33
0.0
  0
TEXT
  5
2F3D
  8
OBJECT
 62
     0
 10
5.9700892415011841
 20
10.30709028369769
 30
0.0
 40
0.140625
  1
3.110
 41
0.75
  0
POINT
  5
2F3E
  8
DEFPOINTS
 62
     0
 10
3.0867850659561
 20
11.932402783697681
 30
0.0
  0
POINT
  5
2F3F
  8
DEFPOINTS
 62
     0
 10
4.8667850659561012
 20
8.8224027836976973
 30
0.0
  0
POINT
  5
2F40
  8
DEFPOINTS
 62
     0
 10
6.137081429001185
 20
8.8224027836976973
 30
0.0
  0
ENDBLK
  5
2F41
  8
0
  0
BLOCK
  8
0
  2
*D33
 70
     1
 10
0.0
 20
0.0
 30
0.0
  3
*D33
  1

  0
LINE
  5
2F44
  8
DIM
 62
     0
 10
3.1576600659561
 20
11.932402783697681
 30
0.0
 11
5.360328166188645
 21
11.932402783697681
 31
0.0
  0
LINE
  5
2F45
  8
DIM
 62
     0
 10
5.0576600659561004
 20
11.10440278369768
 30
0.0
 11
5.3603281661886459
 21
11.10440278369768
 31
0.0
  0
LINE
  5
2F46
  8
DIM
 62
     0
 10
5.2557031661886473
 20
12.134902783697679
 30
0.0
 11
5.2557031661886473
 21
12.337402783697691
 31
0.0
  0
LINE
  5
2F47
  8
DIM
 62
     0
 10
5.2557031661886473
 20
10.901902783697681
 30
0.0
 11
5.2557031661886473
 21
10.699402783697691
 31
0.0
  0
SOLID
  5
2F48
  8
DIM
 62
     0
 10
5.221953166188646
 20
12.134902783697679
 30
0.0
 11
5.2894531661886459
 21
12.134902783697679
 31
0.0
 12
5.2557031661886473
 22
11.932402783697681
 32
0.0
 13
5.2557031661886473
 23
11.932402783697681
 33
0.0
  0
SOLID
  5
2F49
  8
DIM
 62
     0
 10
5.221953166188646
 20
10.901902783697681
 30
0.0
 11
5.2894531661886459
 21
10.901902783697681
 31
0.0
 12
5.2557031661886473
 22
11.10440278369768
 32
0.0
 13
5.2557031661886473
 23
11.10440278369768
 33
0.0
  0
TEXT
  5
2F4A
  8
OBJECT
 62
     0
 10
5.0535547286886437
 20
11.448090283697679
 30
0.0
 40
0.140625
  1
0.828
 41
0.75
  0
POINT
  5
2F4B
  8
DEFPOINTS
 62
     0
 10
3.0867850659561
 20
11.932402783697681
 30
0.0
  0
POINT
  5
2F4C
  8
DEFPOINTS
 62
     0
 10
4.9867850659561004
 20
11.10440278369768
 30
0.0
  0
POINT
  5
2F4D
  8
DEFPOINTS
 62
     0
 10
5.2557031661886473
 20
11.10440278369768
 30
0.0
  0
ENDBLK
  5
2F4E
  8
0
  0
BLOCK
  8
0
  2
*D34
 70
     1
 10
0.0
 20
0.0
 30
0.0
  3
*D34
  1

  0
LINE
  5
2F51
  8
DIM
 62
     0
 10
3.1576600659561
 20
11.932402783697681
 30
0.0
 11
5.749204521267357
 21
11.932402783697681
 31
0.0
  0
LINE
  5
2F52
  8
DIM
 62
     0
 10
5.0576600659561004
 20
10.276402783697691
 30
0.0
 11
5.749204521267357
 21
10.276402783697691
 31
0.0
  0
LINE
  5
2F53
  8
DIM
 62
     0
 10
5.6445795212673584
 20
11.729902783697691
 30
0.0
 11
5.6445795212673584
 21
11.27596528369768
 31
0.0
  0
LINE
  5
2F54
  8
DIM
 62
     0
 10
5.6445795212673584
 20
10.47890278369769
 30
0.0
 11
5.6445795212673584
 21
10.932840283697679
 31
0.0
  0
SOLID
  5
2F55
  8
DIM
 62
     0
 10
5.610829521267358
 20
11.729902783697691
 30
0.0
 11
5.678329521267357
 21
11.729902783697691
 31
0.0
 12
5.6445795212673584
 22
11.932402783697681
 32
0.0
 13
5.6445795212673584
 23
11.932402783697681
 33
0.0
  0
SOLID
  5
2F56
  8
DIM
 62
     0
 10
5.610829521267358
 20
10.47890278369769
 30
0.0
 11
5.678329521267357
 21
10.47890278369769
 31
0.0
 12
5.6445795212673584
 22
10.276402783697691
 32
0.0
 13
5.6445795212673584
 23
10.276402783697691
 33
0.0
  0
TEXT
  5
2F57
  8
OBJECT
 62
     0
 10
5.4512201462673548
 20
11.03409028369768
 30
0.0
 40
0.140625
  1
1.656
 41
0.75
  0
POINT
  5
2F58
  8
DEFPOINTS
 62
     0
 10
3.0867850659561
 20
11.932402783697681
 30
0.0
  0
POINT
  5
2F59
  8
DEFPOINTS
 62
     0
 10
4.9867850659561004
 20
10.276402783697691
 30
0.0
  0
POINT
  5
2F5A
  8
DEFPOINTS
 62
     0
 10
5.6445795212673584
 20
10.276402783697691
 30
0.0
  0
ENDBLK
  5
2F5B
  8
0
  0
BLOCK
  8
0
  2
*D35
 70
     1
 10
0.0
 20
0.0
 30
0.0
  3
*D35
  1

  0
LINE
  5
2F5E
  8
DIM
 62
     0
 10
3.1576600659561
 20
11.932402783697681
 30
0.0
 11
5.7492045212673579
 21
11.932402783697681
 31
0.0
  0
LINE
  5
2F5F
  8
DIM
 62
     0
 10
5.0576600659561004
 20
12.760402783697691
 30
0.0
 11
5.7492045212673579
 21
12.760402783697691
 31
0.0
  0
LINE
  5
2F60
  8
DIM
 62
     0
 10
5.6445795212673593
 20
11.729902783697691
 30
0.0
 11
5.6445795212673593
 21
11.52740278369768
 31
0.0
  0
LINE
  5
2F61
  8
DIM
 62
     0
 10
5.6445795212673593
 20
12.962902783697681
 30
0.0
 11
5.6445795212673593
 21
13.165402783697679
 31
0.0
  0
SOLID
  5
2F62
  8
DIM
 62
     0
 10
5.610829521267358
 20
11.729902783697691
 30
0.0
 11
5.6783295212673579
 21
11.729902783697691
 31
0.0
 12
5.6445795212673593
 22
11.932402783697681
 32
0.0
 13
5.6445795212673593
 23
11.932402783697681
 33
0.0
  0
SOLID
  5
2F63
  8
DIM
 62
     0
 10
5.610829521267358
 20
12.962902783697681
 30
0.0
 11
5.6783295212673579
 21
12.962902783697681
 31
0.0
 12
5.6445795212673593
 22
12.760402783697691
 32
0.0
 13
5.6445795212673593
 23
12.760402783697691
 33
0.0
  0
TEXT
  5
2F64
  8
OBJECT
 62
     0
 10
5.4424310837673557
 20
12.27609028369768
 30
0.0
 40
0.140625
  1
0.828
 41
0.75
  0
POINT
  5
2F65
  8
DEFPOINTS
 62
     0
 10
3.0867850659561
 20
11.932402783697681
 30
0.0
  0
POINT
  5
2F66
  8
DEFPOINTS
 62
     0
 10
4.9867850659561004
 20
12.760402783697691
 30
0.0
  0
POINT
  5
2F67
  8
DEFPOINTS
 62
     0
 10
5.6445795212673593
 20
12.760402783697691
 30
0.0
  0
ENDBLK
  5
2F68
  8
0
  0
BLOCK
  8
0
  2
*D36
 70
     1
 10
0.0
 20
0.0
 30
0.0
  3
*D36
  1

  0
LINE
  5
2F6B
  8
DIM
 62
     0
 10
3.1576600659561
 20
11.932402783697681
 30
0.0
 11
6.2417064290011854
 21
11.932402783697681
 31
0.0
  0
LINE
  5
2F6C
  8
DIM
 62
     0
 10
5.0576600659561004
 20
13.58840278369768
 30
0.0
 11
6.2417064290011854
 21
13.58840278369768
 31
0.0
  0
LINE
  5
2F6D
  8
DIM
 62
     0
 10
6.137081429001185
 20
12.134902783697679
 30
0.0
 11
6.137081429001185
 21
12.58884028369768
 31
0.0
  0
LINE
  5
2F6E
  8
DIM
 62
     0
 10
6.137081429001185
 20
13.385902783697681
 30
0.0
 11
6.137081429001185
 21
12.931965283697689
 31
0.0
  0
SOLID
  5
2F6F
  8
DIM
 62
     0
 10
6.1033314290011837
 20
12.134902783697679
 30
0.0
 11
6.1708314290011854
 21
12.134902783697679
 31
0.0
 12
6.137081429001185
 22
11.932402783697681
 32
0.0
 13
6.137081429001185
 23
11.932402783697681
 33
0.0
  0
SOLID
  5
2F70
  8
DIM
 62
     0
 10
6.1033314290011837
 20
13.385902783697681
 30
0.0
 11
6.1708314290011854
 21
13.385902783697681
 31
0.0
 12
6.137081429001185
 22
13.58840278369768
 32
0.0
 13
6.137081429001185
 23
13.58840278369768
 33
0.0
  0
TEXT
  5
2F71
  8
OBJECT
 62
     0
 10
5.9437220540011841
 20
12.690090283697691
 30
0.0
 40
0.140625
  1
1.656
 41
0.75
  0
POINT
  5
2F72
  8
DEFPOINTS
 62
     0
 10
3.0867850659561
 20
11.932402783697681
 30
0.0
  0
POINT
  5
2F73
  8
DEFPOINTS
 62
     0
 10
4.9867850659561004
 20
13.58840278369768
 30
0.0
  0
POINT
  5
2F74
  8
DEFPOINTS
 62
     0
 10
6.137081429001185
 20
13.58840278369768
 30
0.0
  0
ENDBLK
  5
2F75
  8
0
  0
BLOCK
  8
0
  2
*U37
 70
     1
 10
0.0
 20
0.0
 30
0.0
  3
*U37
  1

  0
TEXT
  5
2F78
  8
OBJECT
 10
2.6126643635452842
 20
7.967019622301776
 30
0.0
 40
0.140625
  1
0.216 DIA. BOSS WITH
 41
0.75
  0
TEXT
  5
2F79
  8
OBJECT
 10
2.6126643635452842
 20
7.732644622301776
 30
0.0
 40
0.140625
  1
0.090 DIA. HOLE x 0.156 DEEP
 41
0.75
  0
TEXT
  5
2F7A
  8
OBJECT
 10
2.6126643635452842
 20
7.498269622301776
 30
0.0
 40
0.140625
  1
(8) PLACES
 41
0.75
  0
ENDBLK
  5
2F7B
  8
0
  0
BLOCK
  8
0
  2
*U38
 70
     1
 10
0.0
 20
0.0
 30
0.0
  3
*U38
  1

  0
TEXT
  5
2F7E
  8
OBJECT
 10
2.5263214117138699
 20
16.141244271170422
 30
0.0
 40
0.140625
  1
0.296 DIA. BOSS
 41
0.75
  0
TEXT
  5
2F7F
  8
OBJECT
 10
2.9306182867138699
 20
15.90686927117042
 30
0.0
 40
0.140625
  1
(8) PLACES
 41
0.75
  0
ENDBLK
  5
2F80
  8
0
  0
BLOCK
  8
0
  2
*X39
 70
     1
 10
0.0
 20
0.0
 30
0.0
  3
*X39
  1

  0
LINE
  5
2F83
  8
0
 62
     0
 10
9.9714513029775151
 20
8.8224027836976902
 30
0.0
 11
10.057789694727051
 21
8.9087411754472328
 31
0.0
  0
LINE
  5
2F84
  8
0
 62
     0
 10
9.9492896947270584
 20
9.0654062183921926
 30
0.0
 11
10.05528626003256
 21
9.1714027836976921
 31
0.0
  0
LINE
  5
2F85
  8
0
 62
     0
 10
9.9492896947270584
 20
9.3305712613371483
 30
0.0
 11
10.069289694727059
 21
9.4505712613371493
 31
0.0
  0
LINE
  5
2F86
  8
0
 62
     0
 10
9.9492896947270584
 20
9.595736304282104
 30
0.0
 11
10.069289694727059
 21
9.7157363042821032
 31
0.0
  0
LINE
  5
2F87
  8
0
 62
     0
 10
9.9492896947270584
 20
9.8609013472270561
 30
0.0
 11
10.069289694727059
 21
9.9809013472270571
 31
0.0
  0
LINE
  5
2F88
  8
0
 62
     0
 10
9.9492896947270584
 20
10.12606639017201
 30
0.0
 11
10.069289694727059
 21
10.246066390172
 31
0.0
  0
LINE
  5
2F89
  8
0
 62
     0
 10
9.9492896947270584
 20
10.39123143311696
 30
0.0
 11
10.069289694727059
 21
10.51123143311696
 31
0.0
  0
LINE
  5
2F8A
  8
0
 62
     0
 10
9.9492896947270584
 20
10.65639647606192
 30
0.0
 11
10.069289694727059
 21
10.776396476061921
 31
0.0
  0
LINE
  5
2F8B
  8
0
 62
     0
 10
9.9492896947270584
 20
10.921561519006881
 30
0.0
 11
10.069289694727059
 21
11.04156151900688
 31
0.0
  0
LINE
  5
2F8C
  8
0
 62
     0
 10
9.9492896947270584
 20
11.18672656195182
 30
0.0
 11
10.069289694727059
 21
11.30672656195182
 31
0.0
  0
LINE
  5
2F8D
  8
0
 62
     0
 10
9.9492896947270584
 20
11.45189160489678
 30
0.0
 11
10.069289694727059
 21
11.571891604896781
 31
0.0
  0
LINE
  5
2F8E
  8
0
 62
     0
 10
9.9492896947270584
 20
11.71705664784173
 30
0.0
 11
10.069289694727059
 21
11.837056647841729
 31
0.0
  0
LINE
  5
2F8F
  8
0
 62
     0
 10
9.9492896947270584
 20
11.9822216907867
 30
0.0
 11
10.069289694727059
 21
12.102221690786701
 31
0.0
  0
LINE
  5
2F90
  8
0
 62
     0
 10
9.9492896947270584
 20
12.24738673373165
 30
0.0
 11
10.06928969472705
 21
12.367386733731649
 31
0.0
  0
LINE
  5
2F91
  8
0
 62
     0
 10
9.9492896947270584
 20
12.512551776676601
 30
0.0
 11
10.06928969472705
 21
12.63255177667661
 31
0.0
  0
LINE
  5
2F92
  8
0
 62
     0
 10
9.9492896947270584
 20
12.77771681962156
 30
0.0
 11
10.06928969472705
 21
12.897716819621561
 31
0.0
  0
LINE
  5
2F93
  8
0
 62
     0
 10
9.9492896947270584
 20
13.04288186256651
 30
0.0
 11
10.06928969472705
 21
13.16288186256652
 31
0.0
  0
LINE
  5
2F94
  8
0
 62
     0
 10
9.9492896947270584
 20
13.308046905511461
 30
0.0
 11
10.06928969472705
 21
13.42804690551147
 31
0.0
  0
LINE
  5
2F95
  8
0
 62
     0
 10
9.9492896947270584
 20
13.57321194845643
 30
0.0
 11
10.06928969472705
 21
13.693211948456421
 31
0.0
  0
LINE
  5
2F96
  8
0
 62
     0
 10
9.9492896947270584
 20
13.838376991401381
 30
0.0
 11
10.06928969472705
 21
13.95837699140138
 31
0.0
  0
LINE
  5
2F97
  8
0
 62
     0
 10
9.9492896947270584
 20
14.10354203434634
 30
0.0
 11
10.06928969472705
 21
14.22354203434633
 31
0.0
  0
LINE
  5
2F98
  8
0
 62
     0
 10
9.9492896947270584
 20
14.368707077291299
 30
0.0
 11
10.06928969472705
 21
14.488707077291281
 31
0.0
  0
LINE
  5
2F99
  8
0
 62
     0
 10
9.9492896947270584
 20
14.63387212023625
 30
0.0
 11
10.069289694727059
 21
14.753872120236251
 31
0.0
  0
LINE
  5
2F9A
  8
0
 62
     0
 10
9.9492896947270584
 20
14.899037163181211
 30
0.0
 11
10.08510083408205
 21
15.03484830253619
 31
0.0
  0
LINE
  5
2F9B
  8
0
 62
     0
 10
9.9492896947270584
 20
8.8886295229472374
 30
0.0
 11
10.088062955477509
 21
9.0274027836976956
 31
0.0
  0
LINE
  5
2F9C
  8
0
 62
     0
 10
10.056897912532561
 20
9.2614027836976955
 30
0.0
 11
10.069289694727059
 21
9.2737945658921976
 31
0.0
  0
LINE
  5
2F9D
  8
0
 62
     0
 10
9.9492896947270584
 20
9.1537945658921913
 30
0.0
 11
10.00928969472705
 21
9.21379456589219
 31
0.0
  0
LINE
  5
2F9E
  8
0
 62
     0
 10
9.9492896947270584
 20
9.4189596088371488
 30
0.0
 11
10.069289694727059
 21
9.5389596088371462
 31
0.0
  0
LINE
  5
2F9F
  8
0
 62
     0
 10
9.9492896947270584
 20
9.6841246517821045
 30
0.0
 11
10.069289694727059
 21
9.8041246517821037
 31
0.0
  0
LINE
  5
2FA0
  8
0
 62
     0
 10
9.9492896947270584
 20
9.9492896947270584
 30
0.0
 11
10.069289694727059
 21
10.06928969472705
 31
0.0
  0
LINE
  5
2FA1
  8
0
 62
     0
 10
9.9492896947270584
 20
10.214454737672011
 30
0.0
 11
10.069289694727059
 21
10.334454737672001
 31
0.0
  0
LINE
  5
2FA2
  8
0
 62
     0
 10
9.9492896947270584
 20
10.47961978061697
 30
0.0
 11
10.06928969472705
 21
10.59961978061696
 31
0.0
  0
LINE
  5
2FA3
  8
0
 62
     0
 10
9.9492896947270584
 20
10.744784823561909
 30
0.0
 11
10.069289694727059
 21
10.86478482356191
 31
0.0
  0
LINE
  5
2FA4
  8
0
 62
     0
 10
9.9492896947270584
 20
11.009949866506879
 30
0.0
 11
10.069289694727059
 21
11.12994986650688
 31
0.0
  0
LINE
  5
2FA5
  8
0
 62
     0
 10
9.9492896947270584
 20
11.27511490945183
 30
0.0
 11
10.069289694727059
 21
11.395114909451831
 31
0.0
  0
LINE
  5
2FA6
  8
0
 62
     0
 10
9.9492896947270584
 20
11.540279952396791
 30
0.0
 11
10.069289694727059
 21
11.660279952396779
 31
0.0
  0
LINE
  5
2FA7
  8
0
 62
     0
 10
9.9492896947270584
 20
11.805444995341739
 30
0.0
 11
10.06928969472705
 21
11.92544499534174
 31
0.0
  0
LINE
  5
2FA8
  8
0
 62
     0
 10
9.9492896947270584
 20
12.0706100382867
 30
0.0
 11
10.069289694727059
 21
12.190610038286691
 31
0.0
  0
LINE
  5
2FA9
  8
0
 62
     0
 10
9.9492896947270584
 20
12.335775081231651
 30
0.0
 11
10.069289694727059
 21
12.45577508123165
 31
0.0
  0
LINE
  5
2FAA
  8
0
 62
     0
 10
9.9492896947270584
 20
12.60094012417661
 30
0.0
 11
10.06928969472705
 21
12.7209401241766
 31
0.0
  0
LINE
  5
2FAB
  8
0
 62
     0
 10
9.9492896947270584
 20
12.86610516712156
 30
0.0
 11
10.069289694727059
 21
12.986105167121559
 31
0.0
  0
LINE
  5
2FAC
  8
0
 62
     0
 10
9.9492896947270584
 20
13.13127021006652
 30
0.0
 11
10.06928969472705
 21
13.25127021006651
 31
0.0
  0
LINE
  5
2FAD
  8
0
 62
     0
 10
9.9492896947270584
 20
13.39643525301147
 30
0.0
 11
10.069289694727059
 21
13.516435253011471
 31
0.0
  0
LINE
  5
2FAE
  8
0
 62
     0
 10
9.9492896947270584
 20
13.661600295956431
 30
0.0
 11
10.069289694727059
 21
13.78160029595643
 31
0.0
  0
LINE
  5
2FAF
  8
0
 62
     0
 10
9.9492896947270584
 20
13.926765338901379
 30
0.0
 11
10.06928969472705
 21
14.04676533890138
 31
0.0
  0
LINE
  5
2FB0
  8
0
 62
     0
 10
9.9492896947270584
 20
14.19193038184634
 30
0.0
 11
10.069289694727059
 21
14.31193038184634
 31
0.0
  0
LINE
  5
2FB1
  8
0
 62
     0
 10
9.9492896947270584
 20
14.457095424791291
 30
0.0
 11
10.06928969472705
 21
14.577095424791279
 31
0.0
  0
LINE
  5
2FB2
  8
0
 62
     0
 10
9.9492896947270584
 20
14.72226046773625
 30
0.0
 11
10.109432010688501
 21
14.882402783697691
 31
0.0
  0
LINE
  5
2FB3
  8
0
 62
     0
 10
9.9492896947270584
 20
14.9874255106812
 30
0.0
 11
10.004266967743529
 21
15.042402783697691
 31
0.0
  0
ENDBLK
  5
2FB4
  8
0
  0
BLOCK
  8
0
  2
*X40
 70
     1
 10
0.0
 20
0.0
 30
0.0
  3
*X40
  1

  0
LINE
  5
2FB7
  8
0
 62
     0
 10
11.36628969472706
 20
14.973437904323511
 30
0.0
 11
11.29732481535288
 21
15.042402783697691
 31
0.0
  0
LINE
  5
2FB8
  8
0
 62
     0
 10
11.311159772407921
 20
14.763402783697691
 30
0.0
 11
11.24628969472705
 21
14.828272861378551
 31
0.0
  0
LINE
  5
2FB9
  8
0
 62
     0
 10
11.237159772407921
 20
14.837402783697691
 30
0.0
 11
11.192159772407919
 21
14.882402783697691
 31
0.0
  0
LINE
  5
2FBA
  8
0
 62
     0
 10
11.36628969472704
 20
14.70827286137856
 30
0.0
 11
11.311159772407921
 21
14.763402783697691
 31
0.0
  0
LINE
  5
2FBB
  8
0
 62
     0
 10
11.27599472946296
 20
14.53340278369769
 30
0.0
 11
11.246289694727061
 21
14.5631078184336
 31
0.0
  0
LINE
  5
2FBC
  8
0
 62
     0
 10
11.36628969472706
 20
14.443107818433599
 30
0.0
 11
11.275994729462971
 21
14.53340278369768
 31
0.0
  0
LINE
  5
2FBD
  8
0
 62
     0
 10
11.36628969472706
 20
14.177942775488649
 30
0.0
 11
11.246289694727061
 21
14.29794277548865
 31
0.0
  0
LINE
  5
2FBE
  8
0
 62
     0
 10
11.36628969472706
 20
13.91277773254369
 30
0.0
 11
11.246289694727061
 21
14.032777732543691
 31
0.0
  0
LINE
  5
2FBF
  8
0
 62
     0
 10
11.36628969472706
 20
13.64761268959874
 30
0.0
 11
11.246289694727061
 21
13.767612689598741
 31
0.0
  0
LINE
  5
2FC0
  8
0
 62
     0
 10
11.36628969472706
 20
13.38244764665377
 30
0.0
 11
11.246289694727061
 21
13.502447646653771
 31
0.0
  0
LINE
  5
2FC1
  8
0
 62
     0
 10
11.36628969472706
 20
13.11728260370883
 30
0.0
 11
11.246289694727061
 21
13.23728260370882
 31
0.0
  0
LINE
  5
2FC2
  8
0
 62
     0
 10
11.36628969472706
 20
12.852117560763871
 30
0.0
 11
11.246289694727061
 21
12.97211756076387
 31
0.0
  0
LINE
  5
2FC3
  8
0
 62
     0
 10
11.36628969472706
 20
12.58695251781891
 30
0.0
 11
11.246289694727061
 21
12.706952517818911
 31
0.0
  0
LINE
  5
2FC4
  8
0
 62
     0
 10
11.36628969472706
 20
12.32178747487395
 30
0.0
 11
11.246289694727061
 21
12.44178747487396
 31
0.0
  0
LINE
  5
2FC5
  8
0
 62
     0
 10
11.36628969472706
 20
12.056622431929
 30
0.0
 11
11.246289694727061
 21
12.176622431928999
 31
0.0
  0
LINE
  5
2FC6
  8
0
 62
     0
 10
11.36628969472706
 20
11.79145738898405
 30
0.0
 11
11.24628969472705
 21
11.911457388984051
 31
0.0
  0
LINE
  5
2FC7
  8
0
 62
     0
 10
11.36628969472706
 20
11.52629234603909
 30
0.0
 11
11.246289694727061
 21
11.64629234603909
 31
0.0
  0
LINE
  5
2FC8
  8
0
 62
     0
 10
11.36628969472706
 20
11.26112730309414
 30
0.0
 11
11.246289694727061
 21
11.381127303094139
 31
0.0
  0
LINE
  5
2FC9
  8
0
 62
     0
 10
11.36628969472706
 20
10.99596226014917
 30
0.0
 11
11.246289694727061
 21
11.115962260149169
 31
0.0
  0
LINE
  5
2FCA
  8
0
 62
     0
 10
11.36628969472706
 20
10.730797217204231
 30
0.0
 11
11.246289694727061
 21
10.85079721720423
 31
0.0
  0
LINE
  5
2FCB
  8
0
 62
     0
 10
11.36628969472706
 20
10.465632174259261
 30
0.0
 11
11.246289694727061
 21
10.58563217425926
 31
0.0
  0
LINE
  5
2FCC
  8
0
 62
     0
 10
11.36628969472706
 20
10.200467131314319
 30
0.0
 11
11.246289694727061
 21
10.32046713131432
 31
0.0
  0
LINE
  5
2FCD
  8
0
 62
     0
 10
11.36628969472706
 20
9.9353020883693635
 30
0.0
 11
11.246289694727061
 21
10.055302088369359
 31
0.0
  0
LINE
  5
2FCE
  8
0
 62
     0
 10
11.36628969472706
 20
9.6701370454244131
 30
0.0
 11
11.246289694727061
 21
9.7901370454244088
 31
0.0
  0
LINE
  5
2FCF
  8
0
 62
     0
 10
11.36628969472706
 20
9.4049720024794539
 30
0.0
 11
11.246289694727061
 21
9.5249720024794566
 31
0.0
  0
LINE
  5
2FD0
  8
0
 62
     0
 10
11.36628969472704
 20
9.1398069595345035
 30
0.0
 11
11.246289694727061
 21
9.2598069595344956
 31
0.0
  0
LINE
  5
2FD1
  8
0
 62
     0
 10
11.36628969472704
 20
8.8746419165895478
 30
0.0
 11
11.213528827618889
 21
9.0274027836977009
 31
0.0
  0
LINE
  5
2FD2
  8
0
 62
     0
 10
11.36628969472706
 20
14.8850495568235
 30
0.0
 11
11.224396987390451
 21
15.026942264160111
 31
0.0
  0
LINE
  5
2FD3
  8
0
 62
     0
 10
11.36628969472704
 20
14.61988451387856
 30
0.0
 11
11.246289694727061
 21
14.739884513878559
 31
0.0
  0
LINE
  5
2FD4
  8
0
 62
     0
 10
11.36628969472706
 20
14.35471947093359
 30
0.0
 11
11.246289694727061
 21
14.4747194709336
 31
0.0
  0
LINE
  5
2FD5
  8
0
 62
     0
 10
11.36628969472706
 20
14.08955442798865
 30
0.0
 11
11.246289694727061
 21
14.20955442798865
 31
0.0
  0
LINE
  5
2FD6
  8
0
 62
     0
 10
11.36628969472706
 20
13.824389385043681
 30
0.0
 11
11.246289694727061
 21
13.94438938504369
 31
0.0
  0
LINE
  5
2FD7
  8
0
 62
     0
 10
11.36628969472706
 20
13.55922434209873
 30
0.0
 11
11.246289694727061
 21
13.679224342098721
 31
0.0
  0
LINE
  5
2FD8
  8
0
 62
     0
 10
11.36628969472706
 20
13.294059299153769
 30
0.0
 11
11.246289694727061
 21
13.41405929915377
 31
0.0
  0
LINE
  5
2FD9
  8
0
 62
     0
 10
11.36628969472706
 20
13.028894256208821
 30
0.0
 11
11.246289694727061
 21
13.14889425620882
 31
0.0
  0
LINE
  5
2FDA
  8
0
 62
     0
 10
11.36628969472706
 20
12.76372921326387
 30
0.0
 11
11.246289694727061
 21
12.883729213263861
 31
0.0
  0
LINE
  5
2FDB
  8
0
 62
     0
 10
11.36628969472706
 20
12.498564170318909
 30
0.0
 11
11.246289694727061
 21
12.61856417031891
 31
0.0
  0
LINE
  5
2FDC
  8
0
 62
     0
 10
11.36628969472706
 20
12.233399127373961
 30
0.0
 11
11.246289694727061
 21
12.35339912737396
 31
0.0
  0
LINE
  5
2FDD
  8
0
 62
     0
 10
11.36628969472706
 20
11.968234084428991
 30
0.0
 11
11.246289694727061
 21
12.08823408442899
 31
0.0
  0
LINE
  5
2FDE
  8
0
 62
     0
 10
11.36628969472706
 20
11.70306904148404
 30
0.0
 11
11.24628969472705
 21
11.82306904148405
 31
0.0
  0
LINE
  5
2FDF
  8
0
 62
     0
 10
11.36628969472706
 20
11.437903998539079
 30
0.0
 11
11.246289694727061
 21
11.55790399853908
 31
0.0
  0
LINE
  5
2FE0
  8
0
 62
     0
 10
11.36628969472706
 20
11.17273895559414
 30
0.0
 11
11.246289694727061
 21
11.292738955594141
 31
0.0
  0
LINE
  5
2FE1
  8
0
 62
     0
 10
11.36628969472706
 20
10.90757391264918
 30
0.0
 11
11.246289694727061
 21
11.027573912649171
 31
0.0
  0
LINE
  5
2FE2
  8
0
 62
     0
 10
11.36628969472706
 20
10.642408869704219
 30
0.0
 11
11.246289694727061
 21
10.76240886970422
 31
0.0
  0
LINE
  5
2FE3
  8
0
 62
     0
 10
11.36628969472706
 20
10.377243826759271
 30
0.0
 11
11.246289694727061
 21
10.49724382675927
 31
0.0
  0
LINE
  5
2FE4
  8
0
 62
     0
 10
11.36628969472706
 20
10.11207878381432
 30
0.0
 11
11.246289694727061
 21
10.23207878381432
 31
0.0
  0
LINE
  5
2FE5
  8
0
 62
     0
 10
11.36628969472706
 20
9.8469137408693612
 30
0.0
 11
11.246289694727061
 21
9.9669137408693622
 31
0.0
  0
LINE
  5
2FE6
  8
0
 62
     0
 10
11.36628969472706
 20
9.5817486979244109
 30
0.0
 11
11.246289694727061
 21
9.7017486979244101
 31
0.0
  0
LINE
  5
2FE7
  8
0
 62
     0
 10
11.3514705660088
 20
9.3314027836976958
 30
0.0
 11
11.246289694727061
 21
9.4365836549794544
 31
0.0
  0
LINE
  5
2FE8
  8
0
 62
     0
 10
11.36628969472706
 20
9.3165836549794534
 30
0.0
 11
11.3514705660088
 21
9.3314027836976958
 31
0.0
  0
LINE
  5
2FE9
  8
0
 62
     0
 10
11.316305523063861
 20
9.1014027836976954
 30
0.0
 11
11.246289694727061
 21
9.1714186120344952
 31
0.0
  0
LINE
  5
2FEA
  8
0
 62
     0
 10
11.36628969472704
 20
9.0514186120345048
 30
0.0
 11
11.316305523063861
 21
9.1014027836976954
 31
0.0
  0
LINE
  5
2FEB
  8
0
 62
     0
 10
11.33014048011891
 20
8.8224027836976937
 30
0.0
 11
11.257789694727061
 21
8.8947535690895432
 31
0.0
  0
ENDBLK
  5
2FEC
  8
0
  0
BLOCK
  8
0
  2
*D41
 70
     1
 10
0.0
 20
0.0
 30
0.0
  3
*D41
  1

  0
LINE
  5
33FF
  8
DIM
 62
     0
 10
1.2547850659560991
 20
4.3253087922827422
 30
0.0
 11
1.2547850659560991
 21
4.699559765392145
 31
0.0
  0
LINE
  5
3400
  8
DIM
 62
     0
 10
4.7387850659560957
 20
4.3253087922827422
 30
0.0
 11
4.7387850659560957
 21
4.699559765392145
 31
0.0
  0
LINE
  5
3401
  8
DIM
 62
     0
 10
1.457285065956099
 20
4.5949347653921446
 30
0.0
 11
2.3213163159560981
 21
4.5949347653921446
 31
0.0
  0
LINE
  5
3402
  8
DIM
 62
     0
 10
4.536285065956096
 20
4.5949347653921446
 30
0.0
 11
3.6722538159560969
 21
4.5949347653921446
 31
0.0
  0
SOLID
  5
3403
  8
DIM
 62
     0
 10
1.457285065956099
 20
4.628684765392145
 30
0.0
 11
1.457285065956099
 21
4.5611847653921451
 31
0.0
 12
1.2547850659560991
 22
4.5949347653921446
 32
0.0
 13
1.2547850659560991
 23
4.5949347653921446
 33
0.0
  0
SOLID
  5
3404
  8
DIM
 62
     0
 10
4.536285065956096
 20
4.628684765392145
 30
0.0
 11
4.536285065956096
 21
4.5611847653921451
 31
0.0
 12
4.7387850659560957
 22
4.5949347653921446
 32
0.0
 13
4.7387850659560957
 23
4.5949347653921446
 33
0.0
  0
TEXT
  5
3405
  8
OBJECT
 62
     0
 10
2.4225663159560971
 20
4.5246222653921446
 30
0.0
 40
0.140625
  1
3.48400000
  7
SANSSERIF
  0
POINT
  5
3406
  8
DEFPOINTS
 62
     0
 10
1.2547850659560991
 20
4.2544337922827422
 30
0.0
  0
POINT
  5
3407
  8
DEFPOINTS
 62
     0
 10
4.7387850659560957
 20
4.2544337922827422
 30
0.0
  0
POINT
  5
3408
  8
DEFPOINTS
 62
     0
 10
4.7387850659560957
 20
4.5949347653921446
 30
0.0
  0
ENDBLK
  5
340A
  8
0
  0
BLOCK
  8
0
  2
*D42
 70
     1
 10
0.0
 20
0.0
 30
0.0
  3
*D42
  1

  0
LINE
  5
340D
  8
DIM
 62
     0
 10
1.2149100659560981
 20
4.285433792282741
 30
0.0
 11
0.8062755603331611
 21
4.285433792282741
 31
0.0
  0
LINE
  5
340E
  8
DIM
 62
     0
 10
1.2149100659560981
 20
3.0854337922827422
 30
0.0
 11
0.8062755603331607
 21
3.0854337922827431
 31
0.0
  0
LINE
  5
340F
  8
DIM
 62
     0
 10
0.9109005603331613
 20
4.0829337922827413
 30
0.0
 11
0.9109005603331613
 21
3.8569962922827421
 31
0.0
  0
LINE
  5
3410
  8
DIM
 62
     0
 10
0.910900560333161
 20
3.2879337922827432
 30
0.0
 11
0.910900560333161
 21
3.513871292282742
 31
0.0
  0
SOLID
  5
3411
  8
DIM
 62
     0
 10
0.8771505603331611
 20
4.0829337922827413
 30
0.0
 11
0.944650560333161
 21
4.0829337922827413
 31
0.0
 12
0.9109005603331613
 22
4.285433792282741
 32
0.0
 13
0.9109005603331613
 23
4.285433792282741
 33
0.0
  0
SOLID
  5
3412
  8
DIM
 62
     0
 10
0.8771505603331611
 20
3.2879337922827432
 30
0.0
 11
0.9446505603331608
 21
3.2879337922827432
 31
0.0
 12
0.9109005603331608
 22
3.0854337922827431
 32
0.0
 13
0.9109005603331608
 23
3.0854337922827431
 33
0.0
  0
TEXT
  5
3413
  8
OBJECT
 62
     0
 10
0.8640255603331604
 20
3.6151212922827418
 30
0.0
 40
0.140625
  1
H
  7
SANSSERIF
  0
POINT
  5
3414
  8
DEFPOINTS
 62
     0
 10
1.2857850659560981
 20
4.285433792282741
 30
0.0
  0
POINT
  5
3415
  8
DEFPOINTS
 62
     0
 10
1.2857850659560981
 20
3.0854337922827422
 30
0.0
  0
POINT
  5
3416
  8
DEFPOINTS
 62
     0
 10
0.9109005603331608
 20
3.0854337922827431
 30
0.0
  0
ENDBLK
  5
3418
  8
0
  0
BLOCK
  8
0
  2
*D43
 70
     1
 10
0.0
 20
0.0
 30
0.0
  3
*D43
  1

  0
LINE
  5
341B
  8
DIM
 62
     0
 10
4.7307374840214047
 20
4.2139337922827433
 30
0.0
 11
5.7779142812819106
 21
4.2139337922827433
 31
0.0
  0
LINE
  5
341C
  8
DIM
 62
     0
 10
4.7307374840214047
 20
3.1569337922827421
 30
0.0
 11
5.7779142812819106
 21
3.1569337922827412
 31
0.0
  0
LINE
  5
341D
  8
DIM
 62
     0
 10
5.6732892812819111
 20
4.0114337922827428
 30
0.0
 11
5.6732892812819111
 21
3.8569962922827421
 31
0.0
  0
LINE
  5
341E
  8
DIM
 62
     0
 10
5.6732892812819111
 20
3.3594337922827409
 30
0.0
 11
5.6732892812819111
 21
3.513871292282742
 31
0.0
  0
TEXT
  5
341F
  8
OBJECT
 62
     0
 10
4.6420392812819102
 20
3.6151212922827431
 30
0.0
 40
0.140625
  1
J EXPOSED PANEL
  7
SANSSERIF
  0
SOLID
  5
3420
  8
DIM
 62
     0
 10
5.6395392812819098
 20
4.0114337922827428
 30
0.0
 11
5.7070392812819106
 21
4.0114337922827428
 31
0.0
 12
5.6732892812819111
 22
4.2139337922827433
 32
0.0
 13
5.6732892812819111
 23
4.2139337922827433
 33
0.0
  0
SOLID
  5
3421
  8
DIM
 62
     0
 10
5.6395392812819098
 20
3.3594337922827409
 30
0.0
 11
5.7070392812819106
 21
3.3594337922827409
 31
0.0
 12
5.6732892812819111
 22
3.1569337922827412
 32
0.0
 13
5.6732892812819111
 23
3.1569337922827412
 33
0.0
  0
POINT
  5
3422
  8
DEFPOINTS
 62
     0
 10
4.6598624840214047
 20
4.2139337922827433
 30
0.0
  0
POINT
  5
3423
  8
DEFPOINTS
 62
     0
 10
4.6598624840214047
 20
3.1569337922827421
 30
0.0
  0
POINT
  5
3424
  8
DEFPOINTS
 62
     0
 10
5.6732892812819111
 20
3.1569337922827412
 30
0.0
  0
ENDBLK
  5
3426
  8
0
  0
BLOCK
  8
0
  2
*D44
 70
     1
 10
0.0
 20
0.0
 30
0.0
  3
*D44
  1

  0
LINE
  5
3429
  8
DIM
 62
     0
 10
1.3337076478907921
 20
3.086058792282742
 30
0.0
 11
1.3337076478907921
 21
2.7094577239427591
 31
0.0
  0
LINE
  5
342A
  8
DIM
 62
     0
 10
4.6598624840214047
 20
3.086058792282742
 30
0.0
 11
4.6598624840214047
 21
2.7094577239427591
 31
0.0
  0
LINE
  5
342B
  8
DIM
 62
     0
 10
1.536207647890792
 20
2.814082723942759
 30
0.0
 11
4.457362484021405
 21
2.814082723942759
 31
0.0
  0
TEXT
  5
342C
  8
OBJECT
 62
     0
 10
1.4147538159560991
 20
2.3072702239427589
 30
0.0
 40
0.140625
  1
3.32615480 EXPOSED PANEL
  7
SANSSERIF
  0
SOLID
  5
342D
  8
DIM
 62
     0
 10
1.536207647890792
 20
2.847832723942759
 30
0.0
 11
1.536207647890792
 21
2.7803327239427591
 31
0.0
 12
1.3337076478907921
 22
2.814082723942759
 32
0.0
 13
1.3337076478907921
 23
2.814082723942759
 33
0.0
  0
SOLID
  5
342E
  8
DIM
 62
     0
 10
4.457362484021405
 20
2.847832723942759
 30
0.0
 11
4.457362484021405
 21
2.7803327239427591
 31
0.0
 12
4.6598624840214047
 22
2.814082723942759
 32
0.0
 13
4.6598624840214047
 23
2.814082723942759
 33
0.0
  0
POINT
  5
342F
  8
DEFPOINTS
 62
     0
 10
1.3337076478907921
 20
3.1569337922827421
 30
0.0
  0
POINT
  5
3430
  8
DEFPOINTS
 62
     0
 10
4.6598624840214047
 20
3.1569337922827421
 30
0.0
  0
POINT
  5
3431
  8
DEFPOINTS
 62
     0
 10
4.6598624840214047
 20
2.814082723942759
 30
0.0
  0
ENDBLK
  5
3433
  8
0
  0
BLOCK
  8
0
  2
*D45
 70
     1
 10
0.0
 20
0.0
 30
0.0
  3
*D45
  1

  0
LINE
  5
3436
  8
DIM
 62
     0
 10
1.126785065956099
 20
6.14927331202865
 30
0.0
 11
1.126785065956099
 21
7.1471711151075503
 31
0.0
  0
LINE
  5
3437
  8
DIM
 62
     0
 10
4.8667850659561012
 20
6.14927331202865
 30
0.0
 11
4.8667850659561012
 21
7.1471711151075503
 31
0.0
  0
LINE
  5
3438
  8
DIM
 62
     0
 10
1.3292850659560991
 20
7.0425461151075499
 30
0.0
 11
2.3330350659560999
 21
7.0425461151075499
 31
0.0
  0
LINE
  5
3439
  8
DIM
 62
     0
 10
4.6642850659561006
 20
7.0425461151075499
 30
0.0
 11
3.6605350659561
 21
7.0425461151075499
 31
0.0
  0
TEXT
  5
343A
  8
OBJECT
 62
     0
 10
2.4342850659561002
 20
6.9722336151075499
 30
0.0
 40
0.140625
  1
3.74000000
  7
SANSSERIF
  0
SOLID
  5
343B
  8
DIM
 62
     0
 10
1.3292850659560991
 20
7.0762961151075512
 30
0.0
 11
1.3292850659560991
 21
7.0087961151075504
 31
0.0
 12
1.126785065956099
 22
7.0425461151075499
 32
0.0
 13
1.126785065956099
 23
7.0425461151075499
 33
0.0
  0
SOLID
  5
343C
  8
DIM
 62
     0
 10
4.6642850659561006
 20
7.0762961151075512
 30
0.0
 11
4.6642850659561006
 21
7.0087961151075504
 31
0.0
 12
4.8667850659561012
 22
7.0425461151075499
 32
0.0
 13
4.8667850659561012
 23
7.0425461151075499
 33
0.0
  0
POINT
  5
343D
  8
DEFPOINTS
 62
     0
 10
1.126785065956099
 20
6.0783983120286491
 30
0.0
  0
POINT
  5
343E
  8
DEFPOINTS
 62
     0
 10
4.8667850659561012
 20
6.0783983120286491
 30
0.0
  0
POINT
  5
343F
  8
DEFPOINTS
 62
     0
 10
4.8667850659561012
 20
7.0425461151075499
 30
0.0
  0
ENDBLK
  5
3441
  8
0
  0
BLOCK
  8
0
  2
*D46
 70
     1
 10
0.0
 20
0.0
 30
0.0
  3
*D46
  1

  0
LINE
  5
3444
  8
DIM
 62
     0
 10
10.225289694727049
 20
9.7492777836976927
 30
0.0
 11
10.225289694727049
 21
9.9598444998424771
 31
0.0
  0
LINE
  5
3445
  8
DIM
 62
     0
 10
11.09028969472705
 20
9.7492777836976927
 30
0.0
 11
11.09028969472705
 21
9.9598444998424771
 31
0.0
  0
LINE
  5
3446
  8
DIM
 62
     0
 10
10.427789694727061
 20
9.8552194998424767
 30
0.0
 11
10.887789694727051
 21
9.8552194998424767
 31
0.0
  0
TEXT
  5
3447
  8
OBJECT
 62
     0
 10
10.61091469472705
 20
10.08078199984247
 30
0.0
 40
0.140625
  1
E
  7
SANSSERIF
  0
SOLID
  5
3448
  8
DIM
 62
     0
 10
10.427789694727061
 20
9.8889694998424762
 30
0.0
 11
10.427789694727061
 21
9.8214694998424772
 31
0.0
 12
10.225289694727049
 22
9.8552194998424767
 32
0.0
 13
10.225289694727049
 23
9.8552194998424767
 33
0.0
  0
SOLID
  5
3449
  8
DIM
 62
     0
 10
10.887789694727051
 20
9.8889694998424762
 30
0.0
 11
10.887789694727051
 21
9.8214694998424772
 31
0.0
 12
11.09028969472705
 22
9.8552194998424767
 32
0.0
 13
11.09028969472705
 23
9.8552194998424767
 33
0.0
  0
POINT
  5
344A
  8
DEFPOINTS
 62
     0
 10
10.225289694727049
 20
9.6784027836976936
 30
0.0
  0
POINT
  5
344B
  8
DEFPOINTS
 62
     0
 10
11.09028969472705
 20
9.6784027836976936
 30
0.0
  0
POINT
  5
344C
  8
DEFPOINTS
 62
     0
 10
11.09028969472705
 20
9.8552194998424767
 30
0.0
  0
ENDBLK
  5
344E
  8
0
  0
BLOCK
  8
0
  2
*D47
 70
     1
 10
0.0
 20
0.0
 30
0.0
  3
*D47
  1

  0
LINE
  5
3451
  8
DIM
 62
     0
 10
11.24628969472705
 20
10.54739555883538
 30
0.0
 11
11.24628969472705
 21
10.725145558835379
 31
0.0
  0
LINE
  5
3452
  8
DIM
 62
     0
 10
10.069289694727059
 20
10.54739555883538
 30
0.0
 11
10.069289694727059
 21
10.725145558835379
 31
0.0
  0
LINE
  5
3453
  8
DIM
 62
     0
 10
11.04378969472705
 20
10.620520558835381
 30
0.0
 11
10.805914694727051
 21
10.620520558835381
 31
0.0
  0
LINE
  5
3454
  8
DIM
 62
     0
 10
10.27178969472706
 20
10.620520558835381
 30
0.0
 11
10.50966469472705
 21
10.620520558835381
 31
0.0
  0
SOLID
  5
3455
  8
DIM
 62
     0
 10
11.04378969472705
 20
10.65427055883538
 30
0.0
 11
11.04378969472705
 21
10.586770558835379
 31
0.0
 12
11.24628969472705
 22
10.620520558835381
 32
0.0
 13
11.24628969472705
 23
10.620520558835381
 33
0.0
  0
SOLID
  5
3456
  8
DIM
 62
     0
 10
10.27178969472706
 20
10.65427055883538
 30
0.0
 11
10.27178969472706
 21
10.586770558835379
 31
0.0
 12
10.069289694727059
 22
10.620520558835381
 32
0.0
 13
10.069289694727059
 23
10.620520558835381
 33
0.0
  0
TEXT
  5
3457
  8
OBJECT
 62
     0
 10
10.61091469472705
 20
10.550208058835381
 30
0.0
 40
0.140625
  1
D
  7
SANSSERIF
  0
POINT
  5
3458
  8
DEFPOINTS
 62
     0
 10
11.24628969472705
 20
10.47652055883538
 30
0.0
  0
POINT
  5
3459
  8
DEFPOINTS
 62
     0
 10
10.069289694727059
 20
10.47652055883538
 30
0.0
  0
POINT
  5
345A
  8
DEFPOINTS
 62
     0
 10
10.069289694727059
 20
10.620520558835381
 30
0.0
  0
ENDBLK
  5
345C
  8
0
  0
BLOCK
  8
0
  2
*D48
 70
     1
 10
0.0
 20
0.0
 30
0.0
  3
*D48
  1

  0
LINE
  5
345F
  8
DIM
 62
     0
 10
10.68628969472705
 20
11.28427778369768
 30
0.0
 11
10.68628969472705
 21
11.5666931756704
 31
0.0
  0
LINE
  5
3460
  8
DIM
 62
     0
 10
11.36628969472704
 20
11.28427778369768
 30
0.0
 11
11.36628969472704
 21
11.5666931756704
 31
0.0
  0
LINE
  5
3461
  8
DIM
 62
     0
 10
10.88878969472705
 20
11.462068175670399
 30
0.0
 11
11.16378969472704
 21
11.462068175670399
 31
0.0
  0
TEXT
  5
3462
  8
OBJECT
 62
     0
 10
10.979414694727041
 20
11.6876306756704
 30
0.0
 40
0.140625
  1
F
  7
SANSSERIF
  0
SOLID
  5
3463
  8
DIM
 62
     0
 10
10.88878969472705
 20
11.495818175670401
 30
0.0
 11
10.88878969472705
 21
11.4283181756704
 31
0.0
 12
10.68628969472705
 22
11.462068175670399
 32
0.0
 13
10.68628969472705
 23
11.462068175670399
 33
0.0
  0
SOLID
  5
3464
  8
DIM
 62
     0
 10
11.16378969472704
 20
11.495818175670401
 30
0.0
 11
11.16378969472704
 21
11.4283181756704
 31
0.0
 12
11.36628969472704
 22
11.462068175670399
 32
0.0
 13
11.36628969472704
 23
11.462068175670399
 33
0.0
  0
POINT
  5
3465
  8
DEFPOINTS
 62
     0
 10
10.68628969472705
 20
11.21340278369768
 30
0.0
  0
POINT
  5
3466
  8
DEFPOINTS
 62
     0
 10
11.36628969472704
 20
11.21340278369768
 30
0.0
  0
POINT
  5
3467
  8
DEFPOINTS
 62
     0
 10
11.36628969472704
 20
11.462068175670399
 30
0.0
  0
ENDBLK
  5
3469
  8
0
  0
BLOCK
  8
0
  2
*D49
 70
     1
 10
0.0
 20
0.0
 30
0.0
  3
*D49
  1

  0
LINE
  5
346C
  8
DIM
 62
     0
 10
10.62928969472704
 20
12.58052778369769
 30
0.0
 11
10.62928969472704
 21
12.263246550571219
 31
0.0
  0
LINE
  5
346D
  8
DIM
 62
     0
 10
9.9492896947270584
 20
12.58052778369769
 30
0.0
 11
9.9492896947270584
 21
12.263246550571219
 31
0.0
  0
LINE
  5
346E
  8
DIM
 62
     0
 10
10.42678969472704
 20
12.36787155057122
 30
0.0
 11
10.151789694727061
 21
12.36787155057122
 31
0.0
  0
TEXT
  5
346F
  8
OBJECT
 62
     0
 10
10.242414694727049
 20
11.861059050571219
 30
0.0
 40
0.140625
  1
G
  7
SANSSERIF
  0
SOLID
  5
3470
  8
DIM
 62
     0
 10
10.42678969472704
 20
12.401621550571219
 30
0.0
 11
10.42678969472704
 21
12.334121550571229
 31
0.0
 12
10.62928969472704
 22
12.36787155057122
 32
0.0
 13
10.62928969472704
 23
12.36787155057122
 33
0.0
  0
SOLID
  5
3471
  8
DIM
 62
     0
 10
10.151789694727061
 20
12.401621550571219
 30
0.0
 11
10.151789694727061
 21
12.334121550571229
 31
0.0
 12
9.9492896947270584
 22
12.36787155057122
 32
0.0
 13
9.9492896947270584
 23
12.36787155057122
 33
0.0
  0
POINT
  5
3472
  8
DEFPOINTS
 62
     0
 10
10.62928969472704
 20
12.651402783697691
 30
0.0
  0
POINT
  5
3473
  8
DEFPOINTS
 62
     0
 10
9.9492896947270584
 20
12.651402783697691
 30
0.0
  0
POINT
  5
3474
  8
DEFPOINTS
 62
     0
 10
9.9492896947270584
 20
12.36787155057122
 30
0.0
  0
ENDBLK
  5
3476
  8
0
  0
BLOCK
  8
0
  2
*D50
 70
     1
 10
0.0
 20
0.0
 30
0.0
  3
*D50
  1

  0
LINE
  5
3479
  8
DIM
 62
     0
 10
10.069289694727059
 20
10.54739555883538
 30
0.0
 11
10.069289694727059
 21
10.725145558835379
 31
0.0
  0
LINE
  5
347A
  8
DIM
 62
     0
 10
9.9492896947270584
 20
10.54739555883538
 30
0.0
 11
9.9492896947270584
 21
10.725145558835379
 31
0.0
  0
LINE
  5
347B
  8
DIM
 62
     0
 10
10.27178969472706
 20
10.620520558835381
 30
0.0
 11
10.474289694727061
 21
10.620520558835381
 31
0.0
  0
LINE
  5
347C
  8
DIM
 62
     0
 10
9.7467896947270578
 20
10.620520558835381
 30
0.0
 11
9.544289694727059
 21
10.620520558835381
 31
0.0
  0
TEXT
  5
347D
  8
OBJECT
 62
     0
 10
9.1772584447270589
 20
10.846083058835379
 30
0.0
 40
0.140625
  1
0.12000000 TYP.
  7
SANSSERIF
  0
SOLID
  5
347E
  8
DIM
 62
     0
 10
10.27178969472706
 20
10.65427055883538
 30
0.0
 11
10.27178969472706
 21
10.586770558835379
 31
0.0
 12
10.069289694727059
 22
10.620520558835381
 32
0.0
 13
10.069289694727059
 23
10.620520558835381
 33
0.0
  0
SOLID
  5
347F
  8
DIM
 62
     0
 10
9.7467896947270578
 20
10.65427055883538
 30
0.0
 11
9.7467896947270578
 21
10.586770558835379
 31
0.0
 12
9.9492896947270584
 22
10.620520558835381
 32
0.0
 13
9.9492896947270584
 23
10.620520558835381
 33
0.0
  0
POINT
  5
3480
  8
DEFPOINTS
 62
     0
 10
10.069289694727059
 20
10.47652055883538
 30
0.0
  0
POINT
  5
3481
  8
DEFPOINTS
 62
     0
 10
9.9492896947270584
 20
10.47652055883538
 30
0.0
  0
POINT
  5
3482
  8
DEFPOINTS
 62
     0
 10
9.9492896947270584
 20
10.620520558835381
 30
0.0
  0
ENDBLK
  5
3484
  8
0
  0
BLOCK
  8
0
  2
*D51
 70
     1
 10
0.0
 20
0.0
 30
0.0
  3
*D51
  1

  0
LINE
  5
3487
  8
DIM
 62
     0
 10
10.22528969472704
 20
14.11552778369769
 30
0.0
 11
10.22528969472704
 21
13.866202100253711
 31
0.0
  0
LINE
  5
3488
  8
DIM
 62
     0
 10
10.06928969472705
 20
14.11552778369769
 30
0.0
 11
10.06928969472705
 21
13.866202100253711
 31
0.0
  0
LINE
  5
3489
  8
DIM
 62
     0
 10
10.427789694727039
 20
13.970827100253709
 30
0.0
 11
10.63028969472704
 21
13.970827100253709
 31
0.0
  0
LINE
  5
348A
  8
DIM
 62
     0
 10
9.8667896947270481
 20
13.970827100253709
 30
0.0
 11
9.6642896947270511
 21
13.970827100253709
 31
0.0
  0
TEXT
  5
348B
  8
OBJECT
 62
     0
 10
9.3035396947270481
 20
13.46401460025371
 30
0.0
 40
0.140625
  1
0.15600000 TYP.
  7
SANSSERIF
  0
SOLID
  5
348C
  8
DIM
 62
     0
 10
10.427789694727039
 20
14.004577100253719
 30
0.0
 11
10.427789694727039
 21
13.93707710025372
 31
0.0
 12
10.22528969472704
 22
13.970827100253709
 32
0.0
 13
10.22528969472704
 23
13.970827100253709
 33
0.0
  0
SOLID
  5
348D
  8
DIM
 62
     0
 10
9.8667896947270481
 20
14.004577100253719
 30
0.0
 11
9.8667896947270481
 21
13.93707710025372
 31
0.0
 12
10.06928969472705
 22
13.970827100253709
 32
0.0
 13
10.06928969472705
 23
13.970827100253709
 33
0.0
  0
POINT
  5
348E
  8
DEFPOINTS
 62
     0
 10
10.22528969472704
 20
14.18640278369768
 30
0.0
  0
POINT
  5
348F
  8
DEFPOINTS
 62
     0
 10
10.06928969472705
 20
14.18640278369768
 30
0.0
  0
POINT
  5
3490
  8
DEFPOINTS
 62
     0
 10
10.06928969472705
 20
13.970827100253709
 30
0.0
  0
ENDBLK
  5
3492
  8
0
  0
BLOCK
  8
0
  2
*D52
 70
     1
 10
0.0
 20
0.0
 30
0.0
  3
*D52
  1

  0
LINE
  5
3495
  8
DIM
 62
     0
 10
3.980785065956097
 20
14.36527778369768
 30
0.0
 11
3.980785065956097
 21
15.582027783697701
 31
0.0
  0
LINE
  5
3496
  8
DIM
 62
     0
 10
2.0127850659560971
 20
14.36527778369768
 30
0.0
 11
2.0127850659560971
 21
15.582027783697701
 31
0.0
  0
LINE
  5
3497
  8
DIM
 62
     0
 10
3.7782850659560969
 20
15.4774027836977
 30
0.0
 11
3.6488163159560969
 21
15.4774027836977
 31
0.0
  0
LINE
  5
3498
  8
DIM
 62
     0
 10
2.2152850659560981
 20
15.4774027836977
 30
0.0
 11
2.3447538159560972
 21
15.4774027836977
 31
0.0
  0
SOLID
  5
3499
  8
DIM
 62
     0
 10
3.7782850659560969
 20
15.511152783697691
 30
0.0
 11
3.7782850659560969
 21
15.44365278369769
 31
0.0
 12
3.980785065956097
 22
15.4774027836977
 32
0.0
 13
3.980785065956097
 23
15.4774027836977
 33
0.0
  0
SOLID
  5
349A
  8
DIM
 62
     0
 10
2.2152850659560981
 20
15.511152783697691
 30
0.0
 11
2.2152850659560981
 21
15.44365278369769
 31
0.0
 12
2.0127850659560971
 22
15.4774027836977
 32
0.0
 13
2.0127850659560971
 23
15.4774027836977
 33
0.0
  0
TEXT
  5
349B
  8
OBJECT
 62
     0
 10
2.4460038159560971
 20
15.4070902836977
 30
0.0
 40
0.140625
  1
1.96800000
  7
SANSSERIF
  0
POINT
  5
349C
  8
DEFPOINTS
 62
     0
 10
3.980785065956097
 20
14.294402783697681
 30
0.0
  0
POINT
  5
349D
  8
DEFPOINTS
 62
     0
 10
2.0127850659560971
 20
14.294402783697681
 30
0.0
  0
POINT
  5
349E
  8
DEFPOINTS
 62
     0
 10
2.0127850659560971
 20
15.4774027836977
 30
0.0
  0
ENDBLK
  5
34A0
  8
0
  0
BLOCK
  8
0
  2
*D53
 70
     1
 10
0.0
 20
0.0
 30
0.0
  3
*D53
  1

  0
LINE
  5
39AE
  8
DIM
 62
     0
 10
2.0127850659560971
 20
14.36527778369768
 30
0.0
 11
2.0127850659560971
 21
15.582027783697701
 31
0.0
  0
LINE
  5
39AF
  8
DIM
 62
     0
 10
1.126785065956099
 20
15.11327778369769
 30
0.0
 11
1.126785065956099
 21
15.582027783697701
 31
0.0
  0
LINE
  5
39B0
  8
DIM
 62
     0
 10
1.8102850659560981
 20
15.4774027836977
 30
0.0
 11
1.3292850659560991
 21
15.4774027836977
 31
0.0
  0
TEXT
  8
0
  40
0.140625
  5
3AB8
  62
0
  72
0
  71
0
 10
1.59229
 20
15.5244
 30
0.000000
  1
0.88600000
  7
SANSSERIF
  0
SOLID
  5
39B2
  8
DIM
 62
     0
 10
1.8102850659560981
 20
15.511152783697691
 30
0.0
 11
1.8102850659560981
 21
15.44365278369769
 31
0.0
 12
2.0127850659560971
 22
15.4774027836977
 32
0.0
 13
2.0127850659560971
 23
15.4774027836977
 33
0.0
  0
SOLID
  5
39B3
  8
DIM
 62
     0
 10
1.3292850659560991
 20
15.511152783697691
 30
0.0
 11
1.3292850659560991
 21
15.44365278369769
 31
0.0
 12
1.126785065956099
 22
15.4774027836977
 32
0.0
 13
1.126785065956099
 23
15.4774027836977
 33
0.0
  0
POINT
  5
39B4
  8
DEFPOINTS
 62
     0
 10
2.0127850659560971
 20
14.294402783697681
 30
0.0
  0
POINT
  5
39B5
  8
DEFPOINTS
 62
     0
 10
1.126785065956099
 20
15.042402783697691
 30
0.0
  0
POINT
  5
39B6
  8
DEFPOINTS
 62
     0
 10
1.126785065956099
 20
15.4774027836977
 30
0.0
  0
ENDBLK
  5
34AD
  8
0
  0
BLOCK
  8
0
  2
*D54
 70
     1
 10
0.0
 20
0.0
 30
0.0
  3
*D54
  1

  0
LINE
  5
34B0
  8
DIM
 62
     0
 10
1.9419100659560999
 20
14.294402783697681
 30
0.0
 11
0.6672002107230382
 21
14.294402783697681
 31
0.0
  0
LINE
  5
34B1
  8
DIM
 62
     0
 10
1.9419100659560999
 20
9.5704027836976966
 30
0.0
 11
0.667200210723037
 21
9.5704027836976966
 31
0.0
  0
LINE
  5
34B2
  8
DIM
 62
     0
 10
0.771825210723038
 20
14.09190278369768
 30
0.0
 11
0.7718252107230376
 21
12.10396528369769
 31
0.0
  0
LINE
  5
34B3
  8
DIM
 62
     0
 10
0.7718252107230371
 20
9.7729027836976972
 30
0.0
 11
0.7718252107230376
 21
11.760840283697689
 31
0.0
  0
SOLID
  5
34B4
  8
DIM
 62
     0
 10
0.7380752107230381
 20
14.09190278369768
 30
0.0
 11
0.805575210723038
 21
14.09190278369768
 31
0.0
 12
0.7718252107230381
 22
14.294402783697681
 32
0.0
 13
0.7718252107230381
 23
14.294402783697681
 33
0.0
  0
SOLID
  5
34B5
  8
DIM
 62
     0
 10
0.7380752107230372
 20
9.7729027836976972
 30
0.0
 11
0.805575210723037
 21
9.7729027836976972
 31
0.0
 12
0.771825210723037
 22
9.5704027836976966
 32
0.0
 13
0.771825210723037
 23
9.5704027836976966
 33
0.0
  0
TEXT
  5
34B6
  8
OBJECT
 62
     0
 10
0.1976064607230355
 20
11.86209028369769
 30
0.0
 40
0.140625
  1
4.72400000
  7
SANSSERIF
  0
POINT
  5
34B7
  8
DEFPOINTS
 62
     0
 10
2.0127850659561002
 20
14.294402783697681
 30
0.0
  0
POINT
  5
34B8
  8
DEFPOINTS
 62
     0
 10
2.0127850659561002
 20
9.5704027836976966
 30
0.0
  0
POINT
  5
34B9
  8
DEFPOINTS
 62
     0
 10
0.771825210723037
 20
9.5704027836976966
 30
0.0
  0
ENDBLK
  5
34BB
  8
0
  0
BLOCK
  8
0
  2
*D55
 70
     1
 10
0.0
 20
0.0
 30
0.0
  3
*D55
  1

  0
LINE
  5
39B7
  8
DIM
 62
     0
 10
1.9419100659560999
 20
9.5704027836976966
 30
0.0
 11
0.6672002107230372
 21
9.5704027836976966
 31
0.0
  0
LINE
  5
39B8
  8
DIM
 62
     0
 10
1.0559100659560989
 20
8.8224027836976973
 30
0.0
 11
0.6672002107230372
 21
8.8224027836976973
 31
0.0
  0
LINE
  5
39B9
  8
DIM
 62
     0
 10
0.7718252107230371
 20
9.367902783697696
 30
0.0
 11
0.771825210723037
 21
9.0249027836976978
 31
0.0
  0
TEXT
  8
0
  40
0.140625
  5
3AB9
  62
0
  72
0
  71
0
 10
-0.109050
 20
8.94750
 30
0.000000
  1
0.74800000
  7
SANSSERIF
  0
SOLID
  5
39BB
  8
DIM
 62
     0
 10
0.7380752107230372
 20
9.367902783697696
 30
0.0
 11
0.805575210723037
 21
9.367902783697696
 31
0.0
 12
0.7718252107230371
 22
9.5704027836976966
 32
0.0
 13
0.7718252107230371
 23
9.5704027836976966
 33
0.0
  0
SOLID
  5
39BC
  8
DIM
 62
     0
 10
0.7380752107230371
 20
9.0249027836976978
 30
0.0
 11
0.8055752107230368
 21
9.0249027836976978
 31
0.0
 12
0.771825210723037
 22
8.8224027836976973
 32
0.0
 13
0.771825210723037
 23
8.8224027836976973
 33
0.0
  0
POINT
  5
39BD
  8
DEFPOINTS
 62
     0
 10
2.0127850659561002
 20
9.5704027836976966
 30
0.0
  0
POINT
  5
39BE
  8
DEFPOINTS
 62
     0
 10
1.126785065956099
 20
8.8224027836976973
 30
0.0
  0
POINT
  5
39BF
  8
DEFPOINTS
 62
     0
 10
0.771825210723037
 20
8.8224027836976973
 30
0.0
  0
ENDBLK
  5
34C8
  8
0
  0
BLOCK
  8
0
  2
*D56
 70
     1
 10
0.0
 20
0.0
 30
0.0
  3
*D56
  1

  0
LINE
  5
34CB
  8
DIM
 62
     0
 10
1.441785065956096
 20
9.1455277836976965
 30
0.0
 11
1.441785065956096
 21
8.1491683590527728
 31
0.0
  0
LINE
  5
34CC
  8
DIM
 62
     0
 10
1.126785065956099
 20
8.7515277836976981
 30
0.0
 11
1.126785065956099
 21
8.1491683590527728
 31
0.0
  0
LINE
  5
34CD
  8
DIM
 62
     0
 10
1.644285065956095
 20
8.2537933590527732
 30
0.0
 11
1.846785065956096
 21
8.2537933590527732
 31
0.0
  0
LINE
  5
34CE
  8
DIM
 62
     0
 10
0.9242850659560991
 20
8.2537933590527732
 30
0.0
 11
0.7217850659560992
 21
8.2537933590527732
 31
0.0
  0
TEXT
  5
34CF
  8
OBJECT
 62
     0
 10
0.7452225659560974
 20
7.7469808590527727
 30
0.0
 40
0.140625
  1
0.31500000
  7
SANSSERIF
  0
SOLID
  5
34D0
  8
DIM
 62
     0
 10
1.644285065956095
 20
8.2875433590527727
 30
0.0
 11
1.644285065956095
 21
8.2200433590527737
 31
0.0
 12
1.441785065956096
 22
8.2537933590527732
 32
0.0
 13
1.441785065956096
 23
8.2537933590527732
 33
0.0
  0
SOLID
  5
34D1
  8
DIM
 62
     0
 10
0.9242850659560991
 20
8.2875433590527727
 30
0.0
 11
0.9242850659560991
 21
8.2200433590527737
 31
0.0
 12
1.126785065956099
 22
8.2537933590527732
 32
0.0
 13
1.126785065956099
 23
8.2537933590527732
 33
0.0
  0
POINT
  5
34D2
  8
DEFPOINTS
 62
     0
 10
1.441785065956096
 20
9.2164027836976956
 30
0.0
  0
POINT
  5
34D3
  8
DEFPOINTS
 62
     0
 10
1.126785065956099
 20
8.8224027836976973
 30
0.0
  0
POINT
  5
34D4
  8
DEFPOINTS
 62
     0
 10
1.126785065956099
 20
8.2537933590527732
 30
0.0
  0
ENDBLK
  5
34D6
  8
0
  0
BLOCK
  8
0
  2
*D57
 70
     1
 10
0.0
 20
0.0
 30
0.0
  3
*D57
  1

  0
LINE
  5
34D9
  8
DIM
 62
     0
 10
4.6226600659561043
 20
9.2164027836976956
 30
0.0
 11
5.3603281661886468
 21
9.2164027836976956
 31
0.0
  0
LINE
  5
34DA
  8
DIM
 62
     0
 10
4.9376600659561012
 20
8.8224027836976973
 30
0.0
 11
5.3603281661886468
 21
8.8224027836976973
 31
0.0
  0
LINE
  5
34DB
  8
DIM
 62
     0
 10
5.2557031661886473
 20
9.4189027836976962
 30
0.0
 11
5.2557031661886473
 21
9.6214027836976932
 31
0.0
  0
LINE
  5
34DC
  8
DIM
 62
     0
 10
5.2557031661886473
 20
8.6199027836976967
 30
0.0
 11
5.2557031661886473
 21
8.4174027836976961
 31
0.0
  0
SOLID
  5
34DD
  8
DIM
 62
     0
 10
5.221953166188646
 20
9.4189027836976962
 30
0.0
 11
5.2894531661886468
 21
9.4189027836976962
 31
0.0
 12
5.2557031661886473
 22
9.2164027836976956
 32
0.0
 13
5.2557031661886473
 23
9.2164027836976956
 33
0.0
  0
SOLID
  5
34DE
  8
DIM
 62
     0
 10
5.221953166188646
 20
8.6199027836976967
 30
0.0
 11
5.2894531661886468
 21
8.6199027836976967
 31
0.0
 12
5.2557031661886473
 22
8.8224027836976973
 32
0.0
 13
5.2557031661886473
 23
8.8224027836976973
 33
0.0
  0
TEXT
  5
34DF
  8
OBJECT
 62
     0
 10
4.6932031661886464
 20
8.9490902836976982
 30
0.0
 40
0.140625
  1
0.39400000
  7
SANSSERIF
  0
POINT
  5
34E0
  8
DEFPOINTS
 62
     0
 10
4.5517850659561043
 20
9.2164027836976956
 30
0.0
  0
POINT
  5
34E1
  8
DEFPOINTS
 62
     0
 10
4.8667850659561012
 20
8.8224027836976973
 30
0.0
  0
POINT
  5
34E2
  8
DEFPOINTS
 62
     0
 10
5.2557031661886473
 20
8.8224027836976973
 30
0.0
  0
ENDBLK
  5
34E4
  8
0
  0
BLOCK
  8
0
  2
*D58
 70
     1
 10
0.0
 20
0.0
 30
0.0
  3
*D58
  1

  0
LINE
  5
34E7
  8
DIM
 62
     0
 10
4.691785065956096
 20
10.45627778369769
 30
0.0
 11
4.691785065956096
 21
10.88222406265816
 31
0.0
  0
LINE
  5
34E8
  8
DIM
 62
     0
 10
1.301785065956099
 20
10.45627778369769
 30
0.0
 11
1.301785065956099
 21
10.88222406265816
 31
0.0
  0
LINE
  5
34E9
  8
DIM
 62
     0
 10
4.4892850659560972
 20
10.77759906265816
 30
0.0
 11
3.6605350659560978
 21
10.77759906265816
 31
0.0
  0
LINE
  5
34EA
  8
DIM
 62
     0
 10
1.5042850659560989
 20
10.77759906265816
 30
0.0
 11
2.3330350659560981
 21
10.77759906265816
 31
0.0
  0
SOLID
  5
34EB
  8
DIM
 62
     0
 10
4.4892850659560972
 20
10.811349062658151
 30
0.0
 11
4.4892850659560972
 21
10.74384906265816
 31
0.0
 12
4.691785065956096
 22
10.77759906265816
 32
0.0
 13
4.691785065956096
 23
10.77759906265816
 33
0.0
  0
SOLID
  5
34EC
  8
DIM
 62
     0
 10
1.5042850659560989
 20
10.811349062658151
 30
0.0
 11
1.5042850659560989
 21
10.74384906265816
 31
0.0
 12
1.301785065956099
 22
10.77759906265816
 32
0.0
 13
1.301785065956099
 23
10.77759906265816
 33
0.0
  0
TEXT
  5
34ED
  8
OBJECT
 62
     0
 10
2.4342850659560979
 20
10.70728656265816
 30
0.0
 40
0.140625
  1
3.39000000
  7
SANSSERIF
  0
POINT
  5
34EE
  8
DEFPOINTS
 62
     0
 10
4.691785065956096
 20
10.385402783697691
 30
0.0
  0
POINT
  5
34EF
  8
DEFPOINTS
 62
     0
 10
1.301785065956099
 20
10.385402783697691
 30
0.0
  0
POINT
  5
34F0
  8
DEFPOINTS
 62
     0
 10
1.301785065956099
 20
10.77759906265816
 30
0.0
  0
ENDBLK
  5
34F2
  8
0
  0
BLOCK
  8
0
  2
*D59
 70
     1
 10
0.0
 20
0.0
 30
0.0
  3
*D59
  1

  0
LINE
  5
34F5
  8
DIM
 62
     0
 10
4.6209100659560987
 20
10.32540278369769
 30
0.0
 11
4.3381600659560986
 21
10.32540278369769
 31
0.0
  0
LINE
  5
34F6
  8
DIM
 62
     0
 10
4.6209100659560987
 20
10.227402783697681
 30
0.0
 11
4.3381600659560986
 21
10.227402783697681
 31
0.0
  0
LINE
  5
34F7
  8
DIM
 62
     0
 10
4.442785065956099
 20
10.527902783697691
 30
0.0
 11
4.442785065956099
 21
10.73040278369769
 31
0.0
  0
LINE
  5
34F8
  8
DIM
 62
     0
 10
4.442785065956099
 20
10.02490278369768
 30
0.0
 11
4.442785065956099
 21
9.8224027836976902
 31
0.0
  0
TEXT
  5
34F9
  8
OBJECT
 62
     0
 10
3.291441315956098
 20
10.206090283697691
 30
0.0
 40
0.140625
  1
0.09800000 TYP.
  7
SANSSERIF
  0
SOLID
  5
34FA
  8
DIM
 62
     0
 10
4.4090350659560986
 20
10.527902783697691
 30
0.0
 11
4.4765350659561003
 21
10.527902783697691
 31
0.0
 12
4.442785065956099
 22
10.32540278369769
 32
0.0
 13
4.442785065956099
 23
10.32540278369769
 33
0.0
  0
SOLID
  5
34FB
  8
DIM
 62
     0
 10
4.4090350659560986
 20
10.02490278369768
 30
0.0
 11
4.4765350659561003
 21
10.02490278369768
 31
0.0
 12
4.442785065956099
 22
10.227402783697681
 32
0.0
 13
4.442785065956099
 23
10.227402783697681
 33
0.0
  0
POINT
  5
34FC
  8
DEFPOINTS
 62
     0
 10
4.6917850659560987
 20
10.32540278369769
 30
0.0
  0
POINT
  5
34FD
  8
DEFPOINTS
 62
     0
 10
4.6917850659560987
 20
10.227402783697681
 30
0.0
  0
POINT
  5
34FE
  8
DEFPOINTS
 62
     0
 10
4.442785065956099
 20
10.227402783697681
 30
0.0
  0
ENDBLK
  5
3500
  8
0
  0
BLOCK
  8
0
  2
*D60
 70
     1
 10
0.0
 20
0.0
 30
0.0
  3
*D60
  1

  0
LINE
  5
3503
  8
DIM
 62
     0
 10
1.3017850659561201
 20
10.45627778369769
 30
0.0
 11
1.3017850659561201
 21
10.658593865926781
 31
0.0
  0
LINE
  5
3504
  8
DIM
 62
     0
 10
1.2467850659561031
 20
10.45627778369769
 30
0.0
 11
1.2467850659561031
 21
10.658593865926781
 31
0.0
  0
LINE
  5
3505
  8
DIM
 62
     0
 10
1.50428506595612
 20
10.55396886592678
 30
0.0
 11
1.7067850659561199
 21
10.55396886592678
 31
0.0
  0
LINE
  5
3506
  8
DIM
 62
     0
 10
1.0442850659561029
 20
10.55396886592678
 30
0.0
 11
0.8417850659561033
 21
10.55396886592678
 31
0.0
  0
TEXT
  5
3507
  8
OBJECT
 62
     0
 10
1.37444131595612
 20
10.48365636592678
 30
0.0
 40
0.140625
  1
0.05500000 TYP.
  7
SANSSERIF
  0
SOLID
  5
3508
  8
DIM
 62
     0
 10
1.50428506595612
 20
10.58771886592678
 30
0.0
 11
1.50428506595612
 21
10.520218865926781
 31
0.0
 12
1.3017850659561201
 22
10.55396886592678
 32
0.0
 13
1.3017850659561201
 23
10.55396886592678
 33
0.0
  0
SOLID
  5
3509
  8
DIM
 62
     0
 10
1.0442850659561029
 20
10.58771886592678
 30
0.0
 11
1.0442850659561029
 21
10.520218865926781
 31
0.0
 12
1.2467850659561031
 22
10.55396886592678
 32
0.0
 13
1.2467850659561031
 23
10.55396886592678
 33
0.0
  0
POINT
  5
350A
  8
DEFPOINTS
 62
     0
 10
1.3017850659561201
 20
10.385402783697691
 30
0.0
  0
POINT
  5
350B
  8
DEFPOINTS
 62
     0
 10
1.2467850659561031
 20
10.385402783697691
 30
0.0
  0
POINT
  5
350C
  8
DEFPOINTS
 62
     0
 10
1.2467850659561031
 20
10.55396886592678
 30
0.0
  0
ENDBLK
  5
350E
  8
0
  0
BLOCK
  8
0
  2
*D61
 70
     1
 10
0.0
 20
0.0
 30
0.0
  3
*D61
  1

  0
LINE
  5
3511
  8
DIM
 62
     0
 10
4.8667850659560941
 20
11.716845423711529
 30
0.0
 11
4.8667850659560941
 21
11.620095423711531
 31
0.0
  0
LINE
  5
3512
  8
DIM
 62
     0
 10
4.7467850659560948
 20
11.716845423711529
 30
0.0
 11
4.7467850659560948
 21
11.620095423711531
 31
0.0
  0
LINE
  5
3513
  8
DIM
 62
     0
 10
5.0692850659560929
 20
11.724720423711529
 30
0.0
 11
5.2717850659560943
 21
11.724720423711529
 31
0.0
  0
LINE
  5
3514
  8
DIM
 62
     0
 10
4.544285065956096
 20
11.724720423711529
 30
0.0
 11
4.3417850659560946
 21
11.724720423711529
 31
0.0
  0
TEXT
  5
3515
  8
OBJECT
 62
     0
 10
3.9747538159560949
 20
11.217907923711531
 30
0.0
 40
0.140625
  1
0.12000000 TYP.
  7
SANSSERIF
  0
SOLID
  5
3516
  8
DIM
 62
     0
 10
5.0692850659560929
 20
11.758470423711531
 30
0.0
 11
5.0692850659560929
 21
11.69097042371153
 31
0.0
 12
4.8667850659560941
 22
11.724720423711529
 32
0.0
 13
4.8667850659560941
 23
11.724720423711529
 33
0.0
  0
SOLID
  5
3517
  8
DIM
 62
     0
 10
4.544285065956096
 20
11.758470423711531
 30
0.0
 11
4.544285065956096
 21
11.69097042371153
 31
0.0
 12
4.7467850659560948
 22
11.724720423711529
 32
0.0
 13
4.7467850659560948
 23
11.724720423711529
 33
0.0
  0
POINT
  5
3518
  8
DEFPOINTS
 62
     0
 10
4.8667850659560941
 20
11.78772042371153
 30
0.0
  0
POINT
  5
3519
  8
DEFPOINTS
 62
     0
 10
4.7467850659560948
 20
11.78772042371153
 30
0.0
  0
POINT
  5
351A
  8
DEFPOINTS
 62
     0
 10
4.7467850659560948
 20
11.724720423711529
 30
0.0
  0
ENDBLK
  5
351C
  8
0
  0
BLOCK
  8
0
  2
*D62
 70
     1
 10
0.0
 20
0.0
 30
0.0
  3
*D62
  1

  0
LINE
  5
351F
  8
DIM
 62
     0
 10
4.5517850659561043
 20
9.1455277836976965
 30
0.0
 11
4.5517850659561043
 21
8.1491683590527728
 31
0.0
  0
LINE
  5
3520
  8
DIM
 62
     0
 10
4.8667850659561012
 20
8.7515277836976981
 30
0.0
 11
4.8667850659561012
 21
8.1491683590527728
 31
0.0
  0
LINE
  5
3521
  8
DIM
 62
     0
 10
4.3492850659561038
 20
8.2537933590527732
 30
0.0
 11
4.1467850659561041
 21
8.2537933590527732
 31
0.0
  0
LINE
  5
3522
  8
DIM
 62
     0
 10
5.0692850659561
 20
8.2537933590527732
 30
0.0
 11
5.2717850659561014
 21
8.2537933590527732
 31
0.0
  0
TEXT
  5
3523
  8
OBJECT
 62
     0
 10
4.1702225659561023
 20
7.7469808590527727
 30
0.0
 40
0.140625
  1
0.31500000
  7
SANSSERIF
  0
SOLID
  5
3524
  8
DIM
 62
     0
 10
4.3492850659561038
 20
8.2875433590527727
 30
0.0
 11
4.3492850659561038
 21
8.2200433590527737
 31
0.0
 12
4.5517850659561043
 22
8.2537933590527732
 32
0.0
 13
4.5517850659561043
 23
8.2537933590527732
 33
0.0
  0
SOLID
  5
3525
  8
DIM
 62
     0
 10
5.0692850659561
 20
8.2875433590527727
 30
0.0
 11
5.0692850659561
 21
8.2200433590527737
 31
0.0
 12
4.8667850659561012
 22
8.2537933590527732
 32
0.0
 13
4.8667850659561012
 23
8.2537933590527732
 33
0.0
  0
POINT
  5
3526
  8
DEFPOINTS
 62
     0
 10
4.5517850659561043
 20
9.2164027836976956
 30
0.0
  0
POINT
  5
3527
  8
DEFPOINTS
 62
     0
 10
4.8667850659561012
 20
8.8224027836976973
 30
0.0
  0
POINT
  5
3528
  8
DEFPOINTS
 62
     0
 10
4.8667850659561012
 20
8.2537933590527732
 30
0.0
  0
ENDBLK
  5
352A
  8
0
  0
BLOCK
  8
0
  2
*D63
 70
     1
 10
0.0
 20
0.0
 30
0.0
  3
*D63
  1

  0
LINE
  5
352D
  8
DIM
 62
     0
 10
4.6226600659561043
 20
14.648402783697691
 30
0.0
 11
5.3603281661886468
 21
14.648402783697691
 31
0.0
  0
LINE
  5
352E
  8
DIM
 62
     0
 10
4.9376600659561012
 20
15.042402783697691
 30
0.0
 11
5.3603281661886468
 21
15.042402783697691
 31
0.0
  0
LINE
  5
352F
  8
DIM
 62
     0
 10
5.2557031661886473
 20
14.44590278369769
 30
0.0
 11
5.2557031661886473
 21
14.24340278369769
 31
0.0
  0
LINE
  5
3530
  8
DIM
 62
     0
 10
5.2557031661886473
 20
15.24490278369769
 30
0.0
 11
5.2557031661886473
 21
15.44740278369769
 31
0.0
  0
SOLID
  5
3531
  8
DIM
 62
     0
 10
5.221953166188646
 20
14.44590278369769
 30
0.0
 11
5.2894531661886468
 21
14.44590278369769
 31
0.0
 12
5.2557031661886473
 22
14.648402783697691
 32
0.0
 13
5.2557031661886473
 23
14.648402783697691
 33
0.0
  0
SOLID
  5
3532
  8
DIM
 62
     0
 10
5.221953166188646
 20
15.24490278369769
 30
0.0
 11
5.2894531661886468
 21
15.24490278369769
 31
0.0
 12
5.2557031661886473
 22
15.042402783697691
 32
0.0
 13
5.2557031661886473
 23
15.042402783697691
 33
0.0
  0
TEXT
  5
3533
  8
OBJECT
 62
     0
 10
4.6932031661886437
 20
14.77509028369769
 30
0.0
 40
0.140625
  1
0.39400000
  7
SANSSERIF
  0
POINT
  5
3534
  8
DEFPOINTS
 62
     0
 10
4.5517850659561043
 20
14.648402783697691
 30
0.0
  0
POINT
  5
3535
  8
DEFPOINTS
 62
     0
 10
4.8667850659561012
 20
15.042402783697691
 30
0.0
  0
POINT
  5
3536
  8
DEFPOINTS
 62
     0
 10
5.2557031661886473
 20
15.042402783697691
 30
0.0
  0
ENDBLK
  5
3538
  8
0
  0
BLOCK
  8
0
  2
*D64
 70
     1
 10
0.0
 20
0.0
 30
0.0
  3
*D64
  1

  0
LINE
  5
353B
  8
DIM
 62
     0
 10
6.9668945463536751
 20
15.042402783697691
 30
0.0
 11
6.6025346331002881
 21
15.042402783697691
 31
0.0
  0
LINE
  5
353C
  8
DIM
 62
     0
 10
6.9668945463536751
 20
8.8224027836976973
 30
0.0
 11
6.6025346331002872
 21
8.8224027836976973
 31
0.0
  0
LINE
  5
353D
  8
DIM
 62
     0
 10
6.7071596331002894
 20
14.83990278369769
 30
0.0
 11
6.7071596331002876
 21
12.10396528369769
 31
0.0
  0
LINE
  5
353E
  8
DIM
 62
     0
 10
6.7071596331002867
 20
9.0249027836976978
 30
0.0
 11
6.7071596331002876
 21
11.760840283697689
 31
0.0
  0
SOLID
  5
353F
  8
DIM
 62
     0
 10
6.673409633100289
 20
14.83990278369769
 30
0.0
 11
6.7409096331002889
 21
14.83990278369769
 31
0.0
 12
6.7071596331002894
 22
15.042402783697691
 32
0.0
 13
6.7071596331002894
 23
15.042402783697691
 33
0.0
  0
SOLID
  5
3540
  8
DIM
 62
     0
 10
6.6734096331002872
 20
9.0249027836976978
 30
0.0
 11
6.740909633100288
 21
9.0249027836976978
 31
0.0
 12
6.7071596331002867
 22
8.8224027836976973
 32
0.0
 13
6.7071596331002867
 23
8.8224027836976973
 33
0.0
  0
TEXT
  5
3541
  8
OBJECT
 62
     0
 10
6.1446596331002858
 20
11.8620902836977
 30
0.0
 40
0.140625
  1
6.22000000
  7
SANSSERIF
  0
POINT
  5
3542
  8
DEFPOINTS
 62
     0
 10
7.037769546353676
 20
15.042402783697691
 30
0.0
  0
POINT
  5
3543
  8
DEFPOINTS
 62
     0
 10
7.037769546353676
 20
8.8224027836976973
 30
0.0
  0
POINT
  5
3544
  8
DEFPOINTS
 62
     0
 10
6.7071596331002867
 20
8.8224027836976973
 30
0.0
  0
ENDBLK
  5
3546
  8
0
  0
BLOCK
  8
0
  2
*D65
 70
     1
 10
0.0
 20
0.0
 30
0.0
  3
*D65
  1

  0
LINE
  5
3549
  8
DIM
 62
     0
 10
2.6667352488593319
 20
9.0274027836976956
 30
0.0
 11
2.5699852488593309
 21
9.0274027836976956
 31
0.0
  0
LINE
  5
354A
  8
DIM
 62
     0
 10
2.6667352488593319
 20
14.837402783697691
 30
0.0
 11
2.5699852488593322
 21
14.837402783697691
 31
0.0
  0
LINE
  5
354B
  8
DIM
 62
     0
 10
2.6746102488593309
 20
9.2299027836976961
 30
0.0
 11
2.6746102488593322
 21
11.760840283697689
 31
0.0
  0
LINE
  5
354C
  8
DIM
 62
     0
 10
2.6746102488593322
 20
14.63490278369769
 30
0.0
 11
2.6746102488593322
 21
12.10396528369769
 31
0.0
  0
SOLID
  5
354D
  8
DIM
 62
     0
 10
2.6408602488593309
 20
9.2299027836976961
 30
0.0
 11
2.7083602488593308
 21
9.2299027836976961
 31
0.0
 12
2.6746102488593309
 22
9.0274027836976956
 32
0.0
 13
2.6746102488593309
 23
9.0274027836976956
 33
0.0
  0
SOLID
  5
354E
  8
DIM
 62
     0
 10
2.6408602488593318
 20
14.63490278369769
 30
0.0
 11
2.7083602488593321
 21
14.63490278369769
 31
0.0
 12
2.6746102488593322
 22
14.837402783697691
 32
0.0
 13
2.6746102488593322
 23
14.837402783697691
 33
0.0
  0
TEXT
  5
354F
  8
OBJECT
 62
     0
 10
2.13554774885933
 20
11.86209028369769
 30
0.0
 40
0.140625
  1
5.81000000
  7
SANSSERIF
  0
POINT
  5
3550
  8
DEFPOINTS
 62
     0
 10
2.7376102488593319
 20
9.0274027836976956
 30
0.0
  0
POINT
  5
3551
  8
DEFPOINTS
 62
     0
 10
2.7376102488593319
 20
14.837402783697691
 30
0.0
  0
POINT
  5
3552
  8
DEFPOINTS
 62
     0
 10
2.6746102488593322
 20
14.837402783697691
 30
0.0
  0
ENDBLK
  5
3554
  8
0
  0
BLOCK
  8
0
  2
*D66
 70
     1
 10
0.0
 20
0.0
 30
0.0
  3
*D66
  1

  0
LINE
  5
3557
  8
DIM
 62
     0
 10
1.2467850659560991
 20
11.445131199483081
 30
0.0
 11
1.2467850659560991
 21
11.34838119948307
 31
0.0
  0
LINE
  5
3558
  8
DIM
 62
     0
 10
4.7467850659561019
 20
11.445131199483081
 30
0.0
 11
4.7467850659561019
 21
11.34838119948307
 31
0.0
  0
LINE
  5
3559
  8
DIM
 62
     0
 10
1.449285065956099
 20
11.453006199483079
 30
0.0
 11
2.3447538159561012
 21
11.453006199483079
 31
0.0
  0
LINE
  5
355A
  8
DIM
 62
     0
 10
4.5442850659561032
 20
11.453006199483079
 30
0.0
 11
3.6488163159561009
 21
11.453006199483079
 31
0.0
  0
SOLID
  5
355B
  8
DIM
 62
     0
 10
1.449285065956099
 20
11.48675619948307
 30
0.0
 11
1.449285065956099
 21
11.41925619948308
 31
0.0
 12
1.2467850659560991
 22
11.453006199483079
 32
0.0
 13
1.2467850659560991
 23
11.453006199483079
 33
0.0
  0
SOLID
  5
355C
  8
DIM
 62
     0
 10
4.5442850659561032
 20
11.48675619948307
 30
0.0
 11
4.5442850659561032
 21
11.41925619948308
 31
0.0
 12
4.7467850659561019
 22
11.453006199483079
 32
0.0
 13
4.7467850659561019
 23
11.453006199483079
 33
0.0
  0
TEXT
  5
355D
  8
OBJECT
 62
     0
 10
2.4460038159561011
 20
11.38269369948307
 30
0.0
 40
0.140625
  1
3.50000000
  7
SANSSERIF
  0
POINT
  5
355E
  8
DEFPOINTS
 62
     0
 10
1.2467850659560991
 20
11.516006199483069
 30
0.0
  0
POINT
  5
355F
  8
DEFPOINTS
 62
     0
 10
4.7467850659561019
 20
11.516006199483069
 30
0.0
  0
POINT
  5
3560
  8
DEFPOINTS
 62
     0
 10
4.7467850659561019
 20
11.453006199483079
 30
0.0
  0
ENDBLK
  5
3562
  8
0
  0
BLOCK
  8
0
  2
*D67
 70
     1
 10
0.0
 20
0.0
 30
0.0
  3
*D67
  1

  0
LINE
  5
3565
  8
DIM
 62
     0
 10
7.7267695463536921
 20
15.11327778369769
 30
0.0
 11
7.7267695463536921
 21
15.67502778369769
 31
0.0
  0
LINE
  5
3566
  8
DIM
 62
     0
 10
7.037769546353676
 20
15.11327778369769
 30
0.0
 11
7.037769546353676
 21
15.67502778369769
 31
0.0
  0
LINE
  5
3567
  8
DIM
 62
     0
 10
7.5242695463536924
 20
15.570402783697689
 30
0.0
 11
7.2402695463536748
 21
15.570402783697689
 31
0.0
  0
TEXT
  5
3568
  8
OBJECT
 62
     0
 10
7.335394546353684
 20
15.79596528369769
 30
0.0
 40
0.140625
  1
C
  7
SANSSERIF
  0
SOLID
  5
3569
  8
DIM
 62
     0
 10
7.5242695463536924
 20
15.604152783697691
 30
0.0
 11
7.5242695463536924
 21
15.53665278369769
 31
0.0
 12
7.7267695463536921
 22
15.570402783697689
 32
0.0
 13
7.7267695463536921
 23
15.570402783697689
 33
0.0
  0
SOLID
  5
356A
  8
DIM
 62
     0
 10
7.2402695463536748
 20
15.604152783697691
 30
0.0
 11
7.2402695463536748
 21
15.53665278369769
 31
0.0
 12
7.037769546353676
 22
15.570402783697689
 32
0.0
 13
7.037769546353676
 23
15.570402783697689
 33
0.0
  0
POINT
  5
356B
  8
DEFPOINTS
 62
     0
 10
7.7267695463536921
 20
15.042402783697691
 30
0.0
  0
POINT
  5
356C
  8
DEFPOINTS
 62
     0
 10
7.037769546353676
 20
15.042402783697691
 30
0.0
  0
POINT
  5
356D
  8
DEFPOINTS
 62
     0
 10
7.037769546353676
 20
15.570402783697689
 30
0.0
  0
ENDBLK
  5
356F
  8
0
  0
BLOCK
  8
0
  2
*D68
 70
     1
 10
0.0
 20
0.0
 30
0.0
  3
*D68
  1

  0
LINE
  5
3572
  8
DIM
 62
     0
 10
7.037769546353676
 20
15.11327778369769
 30
0.0
 11
7.037769546353676
 21
15.95402778369769
 31
0.0
  0
LINE
  5
3573
  8
DIM
 62
     0
 10
8.4547695463536741
 20
15.11327778369769
 30
0.0
 11
8.4547695463536741
 21
15.95402778369769
 31
0.0
  0
LINE
  5
3574
  8
DIM
 62
     0
 10
7.2402695463536748
 20
15.849402783697689
 30
0.0
 11
7.5981445463536739
 21
15.849402783697689
 31
0.0
  0
LINE
  5
3575
  8
DIM
 62
     0
 10
8.2522695463536735
 20
15.849402783697689
 30
0.0
 11
7.8943945463536753
 21
15.849402783697689
 31
0.0
  0
SOLID
  5
3576
  8
DIM
 62
     0
 10
7.2402695463536748
 20
15.883152783697691
 30
0.0
 11
7.2402695463536748
 21
15.815652783697701
 31
0.0
 12
7.037769546353676
 22
15.849402783697689
 32
0.0
 13
7.037769546353676
 23
15.849402783697689
 33
0.0
  0
SOLID
  5
3577
  8
DIM
 62
     0
 10
8.2522695463536735
 20
15.883152783697691
 30
0.0
 11
8.2522695463536735
 21
15.815652783697701
 31
0.0
 12
8.4547695463536741
 22
15.849402783697689
 32
0.0
 13
8.4547695463536741
 23
15.849402783697689
 33
0.0
  0
TEXT
  5
3578
  8
OBJECT
 62
     0
 10
7.699394546353675
 20
15.779090283697689
 30
0.0
 40
0.140625
  1
A
  7
SANSSERIF
  0
POINT
  5
3579
  8
DEFPOINTS
 62
     0
 10
7.037769546353676
 20
15.042402783697691
 30
0.0
  0
POINT
  5
357A
  8
DEFPOINTS
 62
     0
 10
8.4547695463536741
 20
15.042402783697691
 30
0.0
  0
POINT
  5
357B
  8
DEFPOINTS
 62
     0
 10
8.4547695463536741
 20
15.849402783697689
 30
0.0
  0
ENDBLK
  5
357D
  8
0
  0
BLOCK
  8
0
  2
*D69
 70
     1
 10
0.0
 20
0.0
 30
0.0
  3
*D69
  1

  0
LINE
  5
3580
  8
DIM
 62
     0
 10
7.765769546353682
 20
15.11327778369769
 30
0.0
 11
7.765769546353682
 21
15.39602778369769
 31
0.0
  0
LINE
  5
3581
  8
DIM
 62
     0
 10
8.4547695463536741
 20
15.11327778369769
 30
0.0
 11
8.4547695463536741
 21
15.39602778369769
 31
0.0
  0
LINE
  5
3582
  8
DIM
 62
     0
 10
7.9682695463536817
 20
15.29140278369769
 30
0.0
 11
8.2522695463536735
 21
15.29140278369769
 31
0.0
  0
TEXT
  5
3583
  8
OBJECT
 62
     0
 10
8.0633945463536776
 20
15.51696528369769
 30
0.0
 40
0.140625
  1
B
  7
SANSSERIF
  0
SOLID
  5
3584
  8
DIM
 62
     0
 10
7.9682695463536817
 20
15.325152783697691
 30
0.0
 11
7.9682695463536817
 21
15.25765278369769
 31
0.0
 12
7.765769546353682
 22
15.29140278369769
 32
0.0
 13
7.765769546353682
 23
15.29140278369769
 33
0.0
  0
SOLID
  5
3585
  8
DIM
 62
     0
 10
8.2522695463536735
 20
15.325152783697691
 30
0.0
 11
8.2522695463536735
 21
15.25765278369769
 31
0.0
 12
8.4547695463536741
 22
15.29140278369769
 32
0.0
 13
8.4547695463536741
 23
15.29140278369769
 33
0.0
  0
POINT
  5
3586
  8
DEFPOINTS
 62
     0
 10
7.765769546353682
 20
15.042402783697691
 30
0.0
  0
POINT
  5
3587
  8
DEFPOINTS
 62
     0
 10
8.4547695463536741
 20
15.042402783697691
 30
0.0
  0
POINT
  5
3588
  8
DEFPOINTS
 62
     0
 10
8.4547695463536741
 20
15.29140278369769
 30
0.0
  0
ENDBLK
  5
358A
  8
0
  0
BLOCK
  8
0
  2
*D70
 70
     1
 10
0.0
 20
0.0
 30
0.0
  3
*D70
  1

  0
LINE
  5
3608
  8
DIM
 62
     0
 10
3.1576600659561
 20
11.932402783697681
 30
0.0
 11
6.2417064290011863
 21
11.932402783697681
 31
0.0
  0
LINE
  5
3609
  8
DIM
 62
     0
 10
4.9376600659561012
 20
8.8224027836976973
 30
0.0
 11
6.2417064290011854
 21
8.8224027836976973
 31
0.0
  0
LINE
  5
360A
  8
DIM
 62
     0
 10
6.137081429001185
 20
11.72990278369768
 30
0.0
 11
6.137081429001185
 21
10.54896528369769
 31
0.0
  0
LINE
  5
360B
  8
DIM
 62
     0
 10
6.137081429001185
 20
9.0249027836976978
 30
0.0
 11
6.137081429001185
 21
10.20584028369769
 31
0.0
  0
SOLID
  5
360C
  8
DIM
 62
     0
 10
6.1033314290011846
 20
11.72990278369768
 30
0.0
 11
6.1708314290011863
 21
11.72990278369768
 31
0.0
 12
6.137081429001185
 22
11.932402783697681
 32
0.0
 13
6.137081429001185
 23
11.932402783697681
 33
0.0
  0
SOLID
  5
360D
  8
DIM
 62
     0
 10
6.1033314290011837
 20
9.0249027836976978
 30
0.0
 11
6.1708314290011854
 21
9.0249027836976978
 31
0.0
 12
6.137081429001185
 22
8.8224027836976973
 32
0.0
 13
6.137081429001185
 23
8.8224027836976973
 33
0.0
  0
TEXT
  5
360E
  8
OBJECT
 62
     0
 10
5.6214564290011841
 20
10.30709028369769
 30
0.0
 40
0.140625
  1
3.11000000
  7
SANSSERIF
  0
POINT
  5
360F
  8
DEFPOINTS
 62
     0
 10
3.0867850659561
 20
11.932402783697681
 30
0.0
  0
POINT
  5
3610
  8
DEFPOINTS
 62
     0
 10
4.8667850659561012
 20
8.8224027836976973
 30
0.0
  0
POINT
  5
3611
  8
DEFPOINTS
 62
     0
 10
6.137081429001185
 20
8.8224027836976973
 30
0.0
  0
ENDBLK
  5
3613
  8
0
  0
BLOCK
  8
0
  2
*D71
 70
     1
 10
0.0
 20
0.0
 30
0.0
  3
*D71
  1

  0
LINE
  5
3616
  8
DIM
 62
     0
 10
3.1576600659561
 20
11.932402783697681
 30
0.0
 11
5.3603281661886459
 21
11.932402783697681
 31
0.0
  0
LINE
  5
3617
  8
DIM
 62
     0
 10
5.0576600659561004
 20
11.10440278369768
 30
0.0
 11
5.3603281661886468
 21
11.10440278369768
 31
0.0
  0
LINE
  5
3618
  8
DIM
 62
     0
 10
5.2557031661886473
 20
11.72990278369768
 30
0.0
 11
5.2557031661886473
 21
11.30690278369768
 31
0.0
  0
TEXT
  5
3619
  8
OBJECT
 62
     0
 10
5.1297031661886452
 20
11.448090283697679
 30
0.0
 40
0.140625
  1
0.82800000
  7
SANSSERIF
  0
SOLID
  5
361A
  8
DIM
 62
     0
 10
5.221953166188646
 20
11.72990278369768
 30
0.0
 11
5.2894531661886468
 21
11.72990278369768
 31
0.0
 12
5.2557031661886473
 22
11.932402783697681
 32
0.0
 13
5.2557031661886473
 23
11.932402783697681
 33
0.0
  0
SOLID
  5
361B
  8
DIM
 62
     0
 10
5.221953166188646
 20
11.30690278369768
 30
0.0
 11
5.2894531661886468
 21
11.30690278369768
 31
0.0
 12
5.2557031661886473
 22
11.10440278369768
 32
0.0
 13
5.2557031661886473
 23
11.10440278369768
 33
0.0
  0
POINT
  5
361C
  8
DEFPOINTS
 62
     0
 10
3.0867850659561
 20
11.932402783697681
 30
0.0
  0
POINT
  5
361D
  8
DEFPOINTS
 62
     0
 10
4.9867850659561004
 20
11.10440278369768
 30
0.0
  0
POINT
  5
361E
  8
DEFPOINTS
 62
     0
 10
5.2557031661886473
 20
11.10440278369768
 30
0.0
  0
ENDBLK
  5
3620
  8
0
  0
BLOCK
  8
0
  2
*D72
 70
     1
 10
0.0
 20
0.0
 30
0.0
  3
*D72
  1

  0
LINE
  5
3623
  8
DIM
 62
     0
 10
3.1576600659561
 20
11.932402783697681
 30
0.0
 11
5.749204521267357
 21
11.932402783697681
 31
0.0
  0
LINE
  5
3624
  8
DIM
 62
     0
 10
5.0576600659561004
 20
10.276402783697691
 30
0.0
 11
5.749204521267357
 21
10.276402783697691
 31
0.0
  0
LINE
  5
3625
  8
DIM
 62
     0
 10
5.6445795212673584
 20
11.72990278369768
 30
0.0
 11
5.6445795212673584
 21
11.27596528369768
 31
0.0
  0
LINE
  5
3626
  8
DIM
 62
     0
 10
5.6445795212673584
 20
10.47890278369769
 30
0.0
 11
5.6445795212673584
 21
10.932840283697679
 31
0.0
  0
SOLID
  5
3627
  8
DIM
 62
     0
 10
5.610829521267358
 20
11.72990278369768
 30
0.0
 11
5.6783295212673579
 21
11.72990278369768
 31
0.0
 12
5.6445795212673584
 22
11.932402783697681
 32
0.0
 13
5.6445795212673584
 23
11.932402783697681
 33
0.0
  0
SOLID
  5
3628
  8
DIM
 62
     0
 10
5.610829521267358
 20
10.47890278369769
 30
0.0
 11
5.6783295212673579
 21
10.47890278369769
 31
0.0
 12
5.6445795212673584
 22
10.276402783697691
 32
0.0
 13
5.6445795212673584
 23
10.276402783697691
 33
0.0
  0
TEXT
  5
3629
  8
OBJECT
 62
     0
 10
5.0937982712673557
 20
11.03409028369769
 30
0.0
 40
0.140625
  1
1.65600000
  7
SANSSERIF
  0
POINT
  5
362A
  8
DEFPOINTS
 62
     0
 10
3.0867850659561
 20
11.932402783697681
 30
0.0
  0
POINT
  5
362B
  8
DEFPOINTS
 62
     0
 10
4.9867850659561004
 20
10.276402783697691
 30
0.0
  0
POINT
  5
362C
  8
DEFPOINTS
 62
     0
 10
5.6445795212673584
 20
10.276402783697691
 30
0.0
  0
ENDBLK
  5
362E
  8
0
  0
BLOCK
  8
0
  2
*D73
 70
     1
 10
0.0
 20
0.0
 30
0.0
  3
*D73
  1

  0
LINE
  5
3631
  8
DIM
 62
     0
 10
3.1576600659561
 20
11.932402783697681
 30
0.0
 11
5.7492045212673588
 21
11.932402783697681
 31
0.0
  0
LINE
  5
3632
  8
DIM
 62
     0
 10
5.0576600659561004
 20
12.760402783697691
 30
0.0
 11
5.7492045212673588
 21
12.760402783697691
 31
0.0
  0
LINE
  5
3633
  8
DIM
 62
     0
 10
5.6445795212673593
 20
12.134902783697679
 30
0.0
 11
5.6445795212673593
 21
12.55790278369769
 31
0.0
  0
TEXT
  5
3634
  8
OBJECT
 62
     0
 10
5.5185795212673572
 20
12.276090283697689
 30
0.0
 40
0.140625
  1
0.82800000
  7
SANSSERIF
  0
SOLID
  5
3635
  8
DIM
 62
     0
 10
5.610829521267358
 20
12.134902783697679
 30
0.0
 11
5.6783295212673588
 21
12.134902783697679
 31
0.0
 12
5.6445795212673593
 22
11.932402783697681
 32
0.0
 13
5.6445795212673593
 23
11.932402783697681
 33
0.0
  0
SOLID
  5
3636
  8
DIM
 62
     0
 10
5.610829521267358
 20
12.55790278369769
 30
0.0
 11
5.6783295212673588
 21
12.55790278369769
 31
0.0
 12
5.6445795212673593
 22
12.760402783697691
 32
0.0
 13
5.6445795212673593
 23
12.760402783697691
 33
0.0
  0
POINT
  5
3637
  8
DEFPOINTS
 62
     0
 10
3.0867850659561
 20
11.932402783697681
 30
0.0
  0
POINT
  5
3638
  8
DEFPOINTS
 62
     0
 10
4.9867850659561004
 20
12.760402783697691
 30
0.0
  0
POINT
  5
3639
  8
DEFPOINTS
 62
     0
 10
5.6445795212673593
 20
12.760402783697691
 30
0.0
  0
ENDBLK
  5
363B
  8
0
  0
BLOCK
  8
0
  2
*D74
 70
     1
 10
0.0
 20
0.0
 30
0.0
  3
*D74
  1

  0
LINE
  5
363E
  8
DIM
 62
     0
 10
3.1576600659561
 20
11.932402783697681
 30
0.0
 11
6.2417064290011837
 21
11.932402783697681
 31
0.0
  0
LINE
  5
363F
  8
DIM
 62
     0
 10
5.0576600659561004
 20
13.58840278369768
 30
0.0
 11
6.2417064290011837
 21
13.58840278369768
 31
0.0
  0
LINE
  5
3640
  8
DIM
 62
     0
 10
6.137081429001185
 20
12.134902783697679
 30
0.0
 11
6.137081429001185
 21
12.58884028369768
 31
0.0
  0
LINE
  5
3641
  8
DIM
 62
     0
 10
6.137081429001185
 20
13.385902783697681
 30
0.0
 11
6.137081429001185
 21
12.93196528369768
 31
0.0
  0
SOLID
  5
3642
  8
DIM
 62
     0
 10
6.1033314290011837
 20
12.134902783697679
 30
0.0
 11
6.1708314290011854
 21
12.134902783697679
 31
0.0
 12
6.137081429001185
 22
11.932402783697681
 32
0.0
 13
6.137081429001185
 23
11.932402783697681
 33
0.0
  0
SOLID
  5
3643
  8
DIM
 62
     0
 10
6.1033314290011837
 20
13.385902783697681
 30
0.0
 11
6.1708314290011854
 21
13.385902783697681
 31
0.0
 12
6.137081429001185
 22
13.58840278369768
 32
0.0
 13
6.137081429001185
 23
13.58840278369768
 33
0.0
  0
TEXT
  5
3644
  8
OBJECT
 62
     0
 10
5.5863001790011833
 20
12.690090283697691
 30
0.0
 40
0.140625
  1
1.65600000
  7
SANSSERIF
  0
POINT
  5
3645
  8
DEFPOINTS
 62
     0
 10
3.0867850659561
 20
11.932402783697681
 30
0.0
  0
POINT
  5
3646
  8
DEFPOINTS
 62
     0
 10
4.9867850659561004
 20
13.58840278369768
 30
0.0
  0
POINT
  5
3647
  8
DEFPOINTS
 62
     0
 10
6.137081429001185
 20
13.58840278369768
 30
0.0
  0
ENDBLK
  5
3649
  8
0
  0
ENDSEC
  0
SECTION
  2
ENTITIES
  0
INSERT
  5
2FED
  8
TITLE
  2
HB
 10
0.0
 20
0.0
 30
0.0
 41
1.125
 42
1.125
 43
1.125
  0
LINE
  5
2FEE
  8
OBJECT
 10
10.54828969472705
 20
9.0274027836976956
 30
0.0
 11
10.54828969472705
 21
9.0684027836976941
 31
0.0
  0
POLYLINE
  5
2FEF
  8
OBJECT
 66
     1
 10
0.0
 20
0.0
 30
0.0
  0
VERTEX
  5
3895
  8
OBJECT
 10
10.63828969472706
 20
9.0474027836976951
 30
0.0
  0
VERTEX
  5
3896
  8
OBJECT
 10
10.55128969472706
 20
9.0474027836976951
 30
0.0
  0
VERTEX
  5
3897
  8
OBJECT
 10
10.55128969472706
 20
9.0684027836976941
 30
0.0
  0
SEQEND
  5
3898
  8
OBJECT
  0
LINE
  5
2FF4
  8
OBJECT
 10
10.069289694727059
 20
14.837402783697691
 30
0.0
 11
10.069289694727059
 21
9.0274027836976956
 31
0.0
1001
ACAD
1000
ASC_BOUNDS
1002
{
1070
    19
1005
1F71
1002
}
  0
LINE
  5
2FF5
  8
OBJECT
 10
11.24628969472705
 20
14.837402783697691
 30
0.0
 11
11.24628969472705
 21
9.0274027836976956
 31
0.0
1001
ACAD
1000
ASC_BOUNDS
1002
{
1070
    19
1005
1FA8
1005
1FA8
1005
1FA8
1005
1FA8
1005
1FA8
1002
}
  0
LINE
  5
2FF6
  8
OBJECT
 10
10.63828969472706
 20
8.8224027836976973
 30
0.0
 11
10.63828969472706
 21
9.0474027836976951
 31
0.0
  0
LINE
  5
2FF7
  8
OBJECT
 10
9.9492896947270584
 20
15.042402783697691
 30
0.0
 11
9.9492896947270584
 21
8.8224027836976973
 31
0.0
1001
ACAD
1000
ASC_BOUNDS
1002
{
1070
    19
1005
1F71
1002
}
  0
LINE
  5
2FF8
  8
OBJECT
 10
11.36628969472704
 20
8.8224027836976973
 30
0.0
 11
11.36628969472704
 21
15.042402783697691
 31
0.0
1001
ACAD
1000
ASC_BOUNDS
1002
{
1070
    19
1005
1FA8
1005
1FA8
1005
1FA8
1005
1FA8
1005
1FA8
1002
}
  0
POLYLINE
  5
2FF9
  8
HIDDEN
 66
     1
 10
0.0
 20
0.0
 30
0.0
1001
ACAD
1000
ASC_BOUNDS
1002
{
1070
    19
1005
1F71
1002
}
  0
VERTEX
  5
3899
  8
HIDDEN
 10
10.65428969472705
 20
9.2614027836976955
 30
0.0
  0
VERTEX
  5
389A
  8
HIDDEN
 10
10.00928969472705
 20
9.2614027836976955
 30
0.0
  0
VERTEX
  5
389B
  8
HIDDEN
 10
10.00928969472705
 20
9.1714027836976957
 30
0.0
  0
VERTEX
  5
389C
  8
HIDDEN
 10
10.65428969472705
 20
9.1714027836976957
 30
0.0
  0
SEQEND
  5
389D
  8
HIDDEN
  0
POLYLINE
  5
2FFF
  8
OBJECT
 66
     1
 10
0.0
 20
0.0
 30
0.0
  0
VERTEX
  5
389E
  8
OBJECT
 10
10.069289694727059
 20
9.0684027836976941
 30
0.0
  0
VERTEX
  5
389F
  8
OBJECT
 10
10.65428969472705
 20
9.0684027836976941
 30
0.0
  0
VERTEX
  5
38A0
  8
OBJECT
 10
10.65428969472705
 20
9.3644027836976953
 30
0.0
  0
VERTEX
  5
38A1
  8
OBJECT
 10
10.069289694727059
 20
9.3644027836976953
 30
0.0
  0
SEQEND
  5
38A2
  8
OBJECT
  0
POLYLINE
  5
3005
  8
OBJECT
 66
     1
 10
0.0
 20
0.0
 30
0.0
  0
VERTEX
  5
38A3
  8
OBJECT
 10
10.069289694727059
 20
10.99540278369768
 30
0.0
  0
VERTEX
  5
38A4
  8
OBJECT
 10
10.62928969472704
 20
10.99540278369768
 30
0.0
  0
VERTEX
  5
38A5
  8
OBJECT
 10
10.62928969472704
 20
11.055402783697691
 30
0.0
  0
VERTEX
  5
38A6
  8
OBJECT
 10
10.069289694727059
 20
11.055402783697691
 30
0.0
  0
SEQEND
  5
38A7
  8
OBJECT
  0
POLYLINE
  5
300B
  8
OBJECT
 66
     1
 10
0.0
 20
0.0
 30
0.0
  0
VERTEX
  5
38A8
  8
OBJECT
 10
10.069289694727059
 20
11.21340278369768
 30
0.0
  0
VERTEX
  5
38A9
  8
OBJECT
 10
10.62928969472704
 20
11.21340278369768
 30
0.0
  0
VERTEX
  5
38AA
  8
OBJECT
 10
10.62928969472704
 20
11.153402783697681
 30
0.0
  0
VERTEX
  5
38AB
  8
OBJECT
 10
10.069289694727059
 20
11.153402783697681
 30
0.0
  0
SEQEND
  5
38AC
  8
OBJECT
  0
POLYLINE
  5
3011
  8
OBJECT
 66
     1
 10
0.0
 20
0.0
 30
0.0
  0
VERTEX
  5
38AD
  8
OBJECT
 10
10.069289694727059
 20
10.385402783697691
 30
0.0
  0
VERTEX
  5
38AE
  8
OBJECT
 10
10.62928969472704
 20
10.385402783697691
 30
0.0
  0
VERTEX
  5
38AF
  8
OBJECT
 10
10.62928969472704
 20
10.32540278369769
 30
0.0
  0
VERTEX
  5
38B0
  8
OBJECT
 10
10.069289694727059
 20
10.32540278369769
 30
0.0
  0
SEQEND
  5
38B1
  8
OBJECT
  0
POLYLINE
  5
3017
  8
OBJECT
 66
     1
 10
0.0
 20
0.0
 30
0.0
  0
VERTEX
  5
38B2
  8
OBJECT
 10
10.069289694727059
 20
10.167402783697691
 30
0.0
  0
VERTEX
  5
38B3
  8
OBJECT
 10
10.62928969472704
 20
10.167402783697691
 30
0.0
  0
VERTEX
  5
38B4
  8
OBJECT
 10
10.62928969472704
 20
10.227402783697681
 30
0.0
  0
VERTEX
  5
38B5
  8
OBJECT
 10
10.069289694727059
 20
10.227402783697681
 30
0.0
  0
SEQEND
  5
38B6
  8
OBJECT
  0
LINE
  5
301D
  8
OBJECT
 10
10.057789694727051
 20
8.9824027836976974
 30
0.0
 11
11.25778969472705
 21
8.9824027836976974
 31
0.0
1001
ACAD
1000
ASC_BOUNDS
1002
{
1070
    19
1005
1FA8
1005
1F71
1002
}
  0
LINE
  5
301E
  8
OBJECT
 10
10.057789694727051
 20
8.8874027836976932
 30
0.0
 11
11.25778969472705
 21
8.8874027836976932
 31
0.0
1001
ACAD
1000
ASC_BOUNDS
1002
{
1070
    19
1005
1FA8
1005
1F71
1002
}
  0
LINE
  5
301F
  8
OBJECT
 10
10.069289694727059
 20
9.0274027836976956
 30
0.0
 11
10.63828969472706
 21
9.0274027836976956
 31
0.0
1001
ACAD
1000
ASC_BOUNDS
1002
{
1070
    19
1005
1F71
1002
}
  0
LINE
  5
3020
  8
OBJECT
 10
9.9492896947270584
 20
8.8224027836976973
 30
0.0
 11
11.36628969472704
 21
8.8224027836976973
 31
0.0
1001
ACAD
1000
ASC_BOUNDS
1002
{
1070
    19
1005
1FA8
1005
1F71
1002
}
  0
LINE
  5
3021
  8
HIDDEN
 10
10.225289694727049
 20
9.6154027836976947
 30
0.0
 11
10.069289694727059
 21
9.6154027836976947
 31
0.0
  0
LINE
  5
3022
  8
HIDDEN
 10
10.225289694727049
 20
9.5254027836976967
 30
0.0
 11
10.069289694727059
 21
9.5254027836976967
 31
0.0
  0
POLYLINE
  5
3023
  8
OBJECT
 66
     1
 10
0.0
 20
0.0
 30
0.0
  0
VERTEX
  5
38B7
  8
OBJECT
 10
10.069289694727059
 20
9.4624027836976943
 30
0.0
  0
VERTEX
  5
38B8
  8
OBJECT
 10
10.225289694727049
 20
9.4624027836976943
 30
0.0
  0
VERTEX
  5
38B9
  8
OBJECT
 10
10.225289694727049
 20
9.6784027836976936
 30
0.0
  0
VERTEX
  5
38BA
  8
OBJECT
 10
10.069289694727059
 20
9.6784027836976936
 30
0.0
  0
SEQEND
  5
38BB
  8
OBJECT
  0
LINE
  5
3029
  8
OBJECT
 10
10.12928969472704
 20
8.8874027836976968
 30
0.0
 11
10.079289694727059
 21
8.8224027836976937
 31
0.0
1001
ACAD
1000
ASC_BOUNDS
1002
{
1070
    19
1005
1F71
1002
}
  0
LINE
  5
302A
  8
OBJECT
 10
10.057789694727051
 20
8.9824027836976974
 30
0.0
 11
10.057789694727051
 21
8.8874027836976932
 31
0.0
1001
ACAD
1000
ASC_BOUNDS
1002
{
1070
    19
1005
1F71
1002
}
  0
LINE
  5
302B
  8
OBJECT
 10
10.12928969472704
 20
8.9824027836976992
 30
0.0
 11
10.12928969472704
 21
9.0274027836976956
 31
0.0
1001
ACAD
1000
ASC_BOUNDS
1002
{
1070
    19
1005
1F71
1002
}
  0
POLYLINE
  5
302C
  8
OBJECT
 66
     1
 10
0.0
 20
0.0
 30
0.0
  0
VERTEX
  5
38BC
  8
OBJECT
 10
11.246289694727061
 20
9.0684027836976941
 30
0.0
  0
VERTEX
  5
38BD
  8
OBJECT
 10
10.66128969472706
 20
9.0684027836976941
 30
0.0
  0
VERTEX
  5
38BE
  8
OBJECT
 10
10.66128969472706
 20
9.3644027836976953
 30
0.0
  0
VERTEX
  5
38BF
  8
OBJECT
 10
11.246289694727061
 20
9.3644027836976953
 30
0.0
  0
SEQEND
  5
38C0
  8
OBJECT
  0
LINE
  5
3032
  8
HIDDEN
 10
11.17628969472706
 20
9.2814027836976951
 30
0.0
 11
10.66128969472706
 21
9.2814027836976951
 31
0.0
  0
LINE
  5
3033
  8
HIDDEN
 10
11.17628969472706
 20
9.1514027836976943
 30
0.0
 11
10.66128969472706
 21
9.1514027836976943
 31
0.0
  0
POLYLINE
  5
3034
  8
HIDDEN
 66
     1
 10
0.0
 20
0.0
 30
0.0
1001
ACAD
1000
ASC_BOUNDS
1002
{
1070
    19
1005
1FA8
1005
1FA8
1005
1FA8
1002
}
  0
VERTEX
  5
38C1
  8
HIDDEN
 10
11.36628969472704
 20
9.3314027836976958
 30
0.0
  0
VERTEX
  5
38C2
  8
HIDDEN
 10
11.17628969472706
 20
9.3314027836976958
 30
0.0
  0
VERTEX
  5
38C3
  8
HIDDEN
 10
11.17628969472706
 20
9.1014027836976954
 30
0.0
  0
VERTEX
  5
38C4
  8
HIDDEN
 10
11.36628969472704
 20
9.1014027836976954
 30
0.0
  0
SEQEND
  5
38C5
  8
HIDDEN
  0
LINE
  5
303A
  8
OBJECT
 10
11.18628969472705
 20
8.8874027836976968
 30
0.0
 11
11.23628969472705
 21
8.8224027836976937
 31
0.0
1001
ACAD
1000
ASC_BOUNDS
1002
{
1070
    19
1005
1FA8
1002
}
  0
LINE
  5
303B
  8
OBJECT
 10
11.18628969472705
 20
8.9824027836976992
 30
0.0
 11
11.18628969472705
 21
9.0274027836976956
 31
0.0
1001
ACAD
1000
ASC_BOUNDS
1002
{
1070
    19
1005
1FA8
1002
}
  0
LINE
  5
303C
  8
OBJECT
 10
11.25778969472705
 20
8.9824027836976974
 30
0.0
 11
11.25778969472705
 21
8.8874027836976932
 31
0.0
1001
ACAD
1000
ASC_BOUNDS
1002
{
1070
    19
1005
1FA8
1002
}
  0
LINE
  5
303D
  8
HIDDEN
 10
11.09028969472705
 20
9.6154027836976947
 30
0.0
 11
11.24628969472705
 21
9.6154027836976947
 31
0.0
  0
LINE
  5
303E
  8
HIDDEN
 10
11.09028969472705
 20
9.5254027836976967
 30
0.0
 11
11.24628969472705
 21
9.5254027836976967
 31
0.0
  0
POLYLINE
  5
303F
  8
OBJECT
 66
     1
 10
0.0
 20
0.0
 30
0.0
  0
VERTEX
  5
38C6
  8
OBJECT
 10
11.24628969472705
 20
9.4624027836976943
 30
0.0
  0
VERTEX
  5
38C7
  8
OBJECT
 10
11.09028969472705
 20
9.4624027836976943
 30
0.0
  0
VERTEX
  5
38C8
  8
OBJECT
 10
11.09028969472705
 20
9.6784027836976936
 30
0.0
  0
VERTEX
  5
38C9
  8
OBJECT
 10
11.24628969472705
 20
9.6784027836976936
 30
0.0
  0
SEQEND
  5
38CA
  8
OBJECT
  0
POLYLINE
  5
3045
  8
OBJECT
 66
     1
 10
0.0
 20
0.0
 30
0.0
  0
VERTEX
  5
38CB
  8
OBJECT
 10
11.24628969472705
 20
10.167402783697691
 30
0.0
  0
VERTEX
  5
38CC
  8
OBJECT
 10
10.68628969472705
 20
10.167402783697691
 30
0.0
  0
VERTEX
  5
38CD
  8
OBJECT
 10
10.68628969472705
 20
10.227402783697681
 30
0.0
  0
VERTEX
  5
38CE
  8
OBJECT
 10
11.24628969472705
 20
10.227402783697681
 30
0.0
  0
SEQEND
  5
38CF
  8
OBJECT
  0
POLYLINE
  5
304B
  8
OBJECT
 66
     1
 10
0.0
 20
0.0
 30
0.0
  0
VERTEX
  5
38D0
  8
OBJECT
 10
11.24628969472705
 20
10.385402783697691
 30
0.0
  0
VERTEX
  5
38D1
  8
OBJECT
 10
10.68628969472705
 20
10.385402783697691
 30
0.0
  0
VERTEX
  5
38D2
  8
OBJECT
 10
10.68628969472705
 20
10.32540278369769
 30
0.0
  0
VERTEX
  5
38D3
  8
OBJECT
 10
11.24628969472705
 20
10.32540278369769
 30
0.0
  0
SEQEND
  5
38D4
  8
OBJECT
  0
POLYLINE
  5
3051
  8
OBJECT
 66
     1
 10
0.0
 20
0.0
 30
0.0
  0
VERTEX
  5
38D5
  8
OBJECT
 10
11.24628969472705
 20
11.21340278369768
 30
0.0
  0
VERTEX
  5
38D6
  8
OBJECT
 10
10.68628969472705
 20
11.21340278369768
 30
0.0
  0
VERTEX
  5
38D7
  8
OBJECT
 10
10.68628969472705
 20
11.153402783697681
 30
0.0
  0
VERTEX
  5
38D8
  8
OBJECT
 10
11.24628969472705
 20
11.153402783697681
 30
0.0
  0
SEQEND
  5
38D9
  8
OBJECT
  0
POLYLINE
  5
3057
  8
OBJECT
 66
     1
 10
0.0
 20
0.0
 30
0.0
  0
VERTEX
  5
38DA
  8
OBJECT
 10
11.24628969472705
 20
10.99540278369768
 30
0.0
  0
VERTEX
  5
38DB
  8
OBJECT
 10
10.68628969472705
 20
10.99540278369768
 30
0.0
  0
VERTEX
  5
38DC
  8
OBJECT
 10
10.68628969472705
 20
11.055402783697691
 30
0.0
  0
VERTEX
  5
38DD
  8
OBJECT
 10
11.24628969472705
 20
11.055402783697691
 30
0.0
  0
SEQEND
  5
38DE
  8
OBJECT
  0
POLYLINE
  5
305D
  8
OBJECT
 66
     1
 10
0.0
 20
0.0
 30
0.0
  0
VERTEX
  5
38DF
  8
OBJECT
 10
10.06928969472705
 20
13.47940278369768
 30
0.0
  0
VERTEX
  5
38E0
  8
OBJECT
 10
10.62928969472704
 20
13.47940278369768
 30
0.0
  0
VERTEX
  5
38E1
  8
OBJECT
 10
10.62928969472704
 20
13.539402783697691
 30
0.0
  0
VERTEX
  5
38E2
  8
OBJECT
 10
10.06928969472705
 20
13.539402783697691
 30
0.0
  0
SEQEND
  5
38E3
  8
OBJECT
  0
POLYLINE
  5
3063
  8
OBJECT
 66
     1
 10
0.0
 20
0.0
 30
0.0
  0
VERTEX
  5
38E4
  8
OBJECT
 10
10.06928969472705
 20
13.697402783697679
 30
0.0
  0
VERTEX
  5
38E5
  8
OBJECT
 10
10.62928969472704
 20
13.69740278369769
 30
0.0
  0
VERTEX
  5
38E6
  8
OBJECT
 10
10.62928969472704
 20
13.637402783697681
 30
0.0
  0
VERTEX
  5
38E7
  8
OBJECT
 10
10.06928969472705
 20
13.637402783697681
 30
0.0
  0
SEQEND
  5
38E8
  8
OBJECT
  0
POLYLINE
  5
3069
  8
OBJECT
 66
     1
 10
0.0
 20
0.0
 30
0.0
  0
VERTEX
  5
38E9
  8
OBJECT
 10
10.06928969472705
 20
12.869402783697691
 30
0.0
  0
VERTEX
  5
38EA
  8
OBJECT
 10
10.62928969472704
 20
12.869402783697691
 30
0.0
  0
VERTEX
  5
38EB
  8
OBJECT
 10
10.62928969472704
 20
12.80940278369768
 30
0.0
  0
VERTEX
  5
38EC
  8
OBJECT
 10
10.06928969472705
 20
12.80940278369768
 30
0.0
  0
SEQEND
  5
38ED
  8
OBJECT
  0
POLYLINE
  5
306F
  8
OBJECT
 66
     1
 10
0.0
 20
0.0
 30
0.0
  0
VERTEX
  5
38EE
  8
OBJECT
 10
10.06928969472705
 20
12.651402783697691
 30
0.0
  0
VERTEX
  5
38EF
  8
OBJECT
 10
10.62928969472704
 20
12.651402783697691
 30
0.0
  0
VERTEX
  5
38F0
  8
OBJECT
 10
10.62928969472704
 20
12.711402783697681
 30
0.0
  0
VERTEX
  5
38F1
  8
OBJECT
 10
10.06928969472705
 20
12.711402783697681
 30
0.0
  0
SEQEND
  5
38F2
  8
OBJECT
  0
POLYLINE
  5
3075
  8
OBJECT
 66
     1
 10
0.0
 20
0.0
 30
0.0
  0
VERTEX
  5
38F3
  8
OBJECT
 10
11.24628969472705
 20
12.869402783697691
 30
0.0
  0
VERTEX
  5
38F4
  8
OBJECT
 10
10.68628969472705
 20
12.869402783697691
 30
0.0
  0
VERTEX
  5
38F5
  8
OBJECT
 10
10.68628969472705
 20
12.80940278369768
 30
0.0
  0
VERTEX
  5
38F6
  8
OBJECT
 10
11.24628969472705
 20
12.80940278369768
 30
0.0
  0
SEQEND
  5
38F7
  8
OBJECT
  0
POLYLINE
  5
307B
  8
OBJECT
 66
     1
 10
0.0
 20
0.0
 30
0.0
  0
VERTEX
  5
38F8
  8
OBJECT
 10
11.24628969472705
 20
12.651402783697691
 30
0.0
  0
VERTEX
  5
38F9
  8
OBJECT
 10
10.68628969472705
 20
12.651402783697691
 30
0.0
  0
VERTEX
  5
38FA
  8
OBJECT
 10
10.68628969472705
 20
12.711402783697681
 30
0.0
  0
VERTEX
  5
38FB
  8
OBJECT
 10
11.24628969472705
 20
12.711402783697681
 30
0.0
  0
SEQEND
  5
38FC
  8
OBJECT
  0
POLYLINE
  5
3081
  8
OBJECT
 66
     1
 10
0.0
 20
0.0
 30
0.0
  0
VERTEX
  5
38FD
  8
OBJECT
 10
11.24628969472705
 20
13.697402783697679
 30
0.0
  0
VERTEX
  5
38FE
  8
OBJECT
 10
10.68628969472705
 20
13.69740278369769
 30
0.0
  0
VERTEX
  5
38FF
  8
OBJECT
 10
10.68628969472705
 20
13.637402783697681
 30
0.0
  0
VERTEX
  5
3900
  8
OBJECT
 10
11.24628969472705
 20
13.637402783697681
 30
0.0
  0
SEQEND
  5
3901
  8
OBJECT
  0
POLYLINE
  5
3087
  8
OBJECT
 66
     1
 10
0.0
 20
0.0
 30
0.0
  0
VERTEX
  5
3902
  8
OBJECT
 10
11.24628969472705
 20
13.47940278369768
 30
0.0
  0
VERTEX
  5
3903
  8
OBJECT
 10
10.68628969472705
 20
13.47940278369768
 30
0.0
  0
VERTEX
  5
3904
  8
OBJECT
 10
10.68628969472705
 20
13.539402783697691
 30
0.0
  0
VERTEX
  5
3905
  8
OBJECT
 10
11.24628969472705
 20
13.539402783697691
 30
0.0
  0
SEQEND
  5
3906
  8
OBJECT
  0
POLYLINE
  5
308D
  8
HIDDEN
 66
     1
 10
0.0
 20
0.0
 30
0.0
1001
ACAD
1000
ASC_BOUNDS
1002
{
1070
    19
1005
1F71
1002
}
  0
VERTEX
  5
3907
  8
HIDDEN
 10
10.65428969472705
 20
14.693402783697691
 30
0.0
  0
VERTEX
  5
3908
  8
HIDDEN
 10
10.00928969472705
 20
14.693402783697691
 30
0.0
  0
VERTEX
  5
3909
  8
HIDDEN
 10
10.00928969472705
 20
14.603402783697691
 30
0.0
  0
VERTEX
  5
390A
  8
HIDDEN
 10
10.65428969472705
 20
14.603402783697691
 30
0.0
  0
SEQEND
  5
390B
  8
HIDDEN
  0
POLYLINE
  5
3093
  8
OBJECT
 66
     1
 10
0.0
 20
0.0
 30
0.0
  0
VERTEX
  5
390C
  8
OBJECT
 10
10.069289694727059
 20
14.500402783697689
 30
0.0
  0
VERTEX
  5
390D
  8
OBJECT
 10
10.65428969472705
 20
14.500402783697689
 30
0.0
  0
VERTEX
  5
390E
  8
OBJECT
 10
10.65428969472705
 20
14.79640278369768
 30
0.0
  0
VERTEX
  5
390F
  8
OBJECT
 10
10.069289694727059
 20
14.79640278369768
 30
0.0
  0
SEQEND
  5
3910
  8
OBJECT
  0
LINE
  5
3099
  8
OBJECT
 10
10.057789694727051
 20
14.977402783697681
 30
0.0
 11
11.25778969472705
 21
14.977402783697681
 31
0.0
1001
ACAD
1000
ASC_BOUNDS
1002
{
1070
    19
1005
1FA8
1005
1F71
1002
}
  0
LINE
  5
309A
  8
OBJECT
 10
10.057789694727051
 20
14.882402783697691
 30
0.0
 11
11.25778969472705
 21
14.882402783697691
 31
0.0
1001
ACAD
1000
ASC_BOUNDS
1002
{
1070
    19
1005
1FA8
1005
1F71
1002
}
  0
LINE
  5
309B
  8
OBJECT
 10
10.069289694727059
 20
14.837402783697691
 30
0.0
 11
10.63828969472705
 21
14.837402783697691
 31
0.0
1001
ACAD
1000
ASC_BOUNDS
1002
{
1070
    19
1005
1F71
1002
}
  0
LINE
  5
309C
  8
OBJECT
 10
11.36628969472704
 20
15.042402783697691
 30
0.0
 11
9.9492896947270584
 21
15.042402783697691
 31
0.0
1001
ACAD
1000
ASC_BOUNDS
1002
{
1070
    19
1005
1FA8
1005
1F71
1002
}
  0
LINE
  5
309D
  8
OBJECT
 10
10.057789694727051
 20
14.882402783697691
 30
0.0
 11
10.057789694727051
 21
14.977402783697681
 31
0.0
1001
ACAD
1000
ASC_BOUNDS
1002
{
1070
    19
1005
1F71
1002
}
  0
LINE
  5
309E
  8
HIDDEN
 10
10.22528969472704
 20
14.339402783697681
 30
0.0
 11
10.06928969472705
 21
14.339402783697681
 31
0.0
  0
LINE
  5
309F
  8
HIDDEN
 10
10.22528969472704
 20
14.249402783697681
 30
0.0
 11
10.06928969472705
 21
14.249402783697681
 31
0.0
  0
POLYLINE
  5
30A0
  8
OBJECT
 66
     1
 10
0.0
 20
0.0
 30
0.0
  0
VERTEX
  5
3911
  8
OBJECT
 10
10.06928969472705
 20
14.18640278369768
 30
0.0
  0
VERTEX
  5
3912
  8
OBJECT
 10
10.22528969472704
 20
14.18640278369768
 30
0.0
  0
VERTEX
  5
3913
  8
OBJECT
 10
10.22528969472704
 20
14.40240278369769
 30
0.0
  0
VERTEX
  5
3914
  8
OBJECT
 10
10.06928969472705
 20
14.40240278369769
 30
0.0
  0
SEQEND
  5
3915
  8
OBJECT
  0
LINE
  5
30A6
  8
OBJECT
 10
10.12928969472704
 20
14.882402783697691
 30
0.0
 11
10.12928969472704
 21
14.837402783697691
 31
0.0
1001
ACAD
1000
ASC_BOUNDS
1002
{
1070
    19
1005
1F71
1002
}
  0
LINE
  5
30A7
  8
OBJECT
 10
10.12928969472704
 20
14.977402783697681
 30
0.0
 11
10.079289694727059
 21
15.042402783697691
 31
0.0
1001
ACAD
1000
ASC_BOUNDS
1002
{
1070
    19
1005
1F71
1002
}
  0
LINE
  5
30A8
  8
OBJECT
 10
11.25778969472705
 20
14.882402783697691
 30
0.0
 11
11.25778969472705
 21
14.977402783697681
 31
0.0
1001
ACAD
1000
ASC_BOUNDS
1002
{
1070
    19
1005
1FA8
1002
}
  0
LINE
  5
30A9
  8
HIDDEN
 10
11.17628969472706
 20
14.583402783697681
 30
0.0
 11
10.66128969472706
 21
14.583402783697681
 31
0.0
  0
LINE
  5
30AA
  8
HIDDEN
 10
11.17628969472706
 20
14.71340278369768
 30
0.0
 11
10.66128969472706
 21
14.71340278369768
 31
0.0
  0
POLYLINE
  5
30AB
  8
OBJECT
 66
     1
 10
0.0
 20
0.0
 30
0.0
  0
VERTEX
  5
3916
  8
OBJECT
 10
11.246289694727061
 20
14.500402783697689
 30
0.0
  0
VERTEX
  5
3917
  8
OBJECT
 10
10.66128969472706
 20
14.500402783697689
 30
0.0
  0
VERTEX
  5
3918
  8
OBJECT
 10
10.66128969472706
 20
14.79640278369768
 30
0.0
  0
VERTEX
  5
3919
  8
OBJECT
 10
11.246289694727061
 20
14.79640278369768
 30
0.0
  0
SEQEND
  5
391A
  8
OBJECT
  0
POLYLINE
  5
30B1
  8
OBJECT
 66
     1
 10
0.0
 20
0.0
 30
0.0
  0
VERTEX
  5
391B
  8
OBJECT
 10
11.24628969472705
 20
14.18640278369768
 30
0.0
  0
VERTEX
  5
391C
  8
OBJECT
 10
11.09028969472705
 20
14.18640278369768
 30
0.0
  0
VERTEX
  5
391D
  8
OBJECT
 10
11.09028969472705
 20
14.40240278369769
 30
0.0
  0
VERTEX
  5
391E
  8
OBJECT
 10
11.24628969472705
 20
14.40240278369769
 30
0.0
  0
SEQEND
  5
391F
  8
OBJECT
  0
LINE
  5
30B7
  8
HIDDEN
 10
11.09028969472705
 20
14.249402783697681
 30
0.0
 11
11.24628969472705
 21
14.249402783697681
 31
0.0
  0
POLYLINE
  5
30B8
  8
HIDDEN
 66
     1
 10
0.0
 20
0.0
 30
0.0
1001
ACAD
1000
ASC_BOUNDS
1002
{
1070
    19
1005
1FA8
1005
1FA8
1005
1FA8
1002
}
  0
VERTEX
  5
3920
  8
HIDDEN
 10
11.36628969472704
 20
14.763402783697691
 30
0.0
  0
VERTEX
  5
3921
  8
HIDDEN
 10
11.17628969472706
 20
14.763402783697691
 30
0.0
  0
VERTEX
  5
3922
  8
HIDDEN
 10
11.17628969472706
 20
14.53340278369768
 30
0.0
  0
VERTEX
  5
3923
  8
HIDDEN
 10
11.36628969472704
 20
14.53340278369768
 30
0.0
  0
SEQEND
  5
3924
  8
HIDDEN
  0
LINE
  5
30BE
  8
HIDDEN
 10
11.09028969472705
 20
14.339402783697681
 30
0.0
 11
11.24628969472705
 21
14.339402783697681
 31
0.0
  0
LINE
  5
30BF
  8
OBJECT
 10
11.18628969472705
 20
14.882402783697691
 30
0.0
 11
11.18628969472705
 21
14.837402783697691
 31
0.0
1001
ACAD
1000
ASC_BOUNDS
1002
{
1070
    19
1005
1FA8
1002
}
  0
LINE
  5
30C0
  8
OBJECT
 10
11.18628969472705
 20
14.977402783697681
 30
0.0
 11
11.236289694727059
 21
15.042402783697691
 31
0.0
1001
ACAD
1000
ASC_BOUNDS
1002
{
1070
    19
1005
1FA8
1002
}
  0
LINE
  5
30C1
  8
OBJECT
 10
10.68628969472705
 20
14.837402783697691
 30
0.0
 11
10.68628969472705
 21
14.882402783697691
 31
0.0
  0
LINE
  5
30C2
  8
OBJECT
 10
10.68628969472705
 20
14.837402783697691
 30
0.0
 11
11.24628969472705
 21
14.837402783697691
 31
0.0
1001
ACAD
1000
ASC_BOUNDS
1002
{
1070
    19
1005
1FA8
1002
}
  0
LINE
  5
30C3
  8
OBJECT
 10
10.63828969472703
 20
14.817402783697689
 30
0.0
 11
10.63828969472703
 21
15.042402783697691
 31
0.0
  0
POLYLINE
  5
30C4
  8
OBJECT
 66
     1
 10
0.0
 20
0.0
 30
0.0
  0
VERTEX
  5
3925
  8
OBJECT
 10
10.55128969472706
 20
14.79640278369768
 30
0.0
  0
VERTEX
  5
3926
  8
OBJECT
 10
10.55128969472706
 20
14.817402783697689
 30
0.0
  0
VERTEX
  5
3927
  8
OBJECT
 10
10.63828969472703
 20
14.817402783697689
 30
0.0
  0
SEQEND
  5
3928
  8
OBJECT
  0
LINE
  5
30C9
  8
OBJECT
 10
10.54828969472705
 20
14.79640278369768
 30
0.0
 11
10.54828969472705
 21
14.837402783697691
 31
0.0
  0
LINE
  5
30CA
  8
OBJECT
 10
10.54828969472705
 20
13.69740278369769
 30
0.0
 11
10.54828969472705
 21
14.500402783697689
 31
0.0
  0
POLYLINE
  5
30CB
  8
OBJECT
 66
     1
 10
0.0
 20
0.0
 30
0.0
  0
VERTEX
  5
3929
  8
OBJECT
 10
10.55128969472706
 20
13.69740278369769
 30
0.0
  0
VERTEX
  5
392A
  8
OBJECT
 10
10.55128969472706
 20
14.500402783697689
 30
0.0
  0
SEQEND
  5
392B
  8
OBJECT
  0
POLYLINE
  5
30CF
  8
OBJECT
 66
     1
 10
0.0
 20
0.0
 30
0.0
  0
VERTEX
  5
392C
  8
OBJECT
 10
10.55128969472706
 20
13.539402783697691
 30
0.0
  0
VERTEX
  5
392D
  8
OBJECT
 10
10.55128969472706
 20
13.637402783697681
 30
0.0
  0
SEQEND
  5
392E
  8
OBJECT
  0
LINE
  5
30D3
  8
OBJECT
 10
10.54828969472705
 20
13.539402783697691
 30
0.0
 11
10.54828969472705
 21
13.637402783697681
 31
0.0
  0
LINE
  5
30D4
  8
OBJECT
 10
10.54828969472705
 20
12.869402783697691
 30
0.0
 11
10.54828969472705
 21
13.47940278369768
 31
0.0
  0
POLYLINE
  5
30D5
  8
OBJECT
 66
     1
 10
0.0
 20
0.0
 30
0.0
  0
VERTEX
  5
392F
  8
OBJECT
 10
10.55128969472706
 20
12.869402783697691
 30
0.0
  0
VERTEX
  5
3930
  8
OBJECT
 10
10.55128969472706
 20
13.47940278369768
 30
0.0
  0
SEQEND
  5
3931
  8
OBJECT
  0
POLYLINE
  5
30D9
  8
OBJECT
 66
     1
 10
0.0
 20
0.0
 30
0.0
  0
VERTEX
  5
3932
  8
OBJECT
 10
10.55128969472706
 20
12.711402783697681
 30
0.0
  0
VERTEX
  5
3933
  8
OBJECT
 10
10.55128969472706
 20
12.80940278369768
 30
0.0
  0
SEQEND
  5
3934
  8
OBJECT
  0
LINE
  5
30DD
  8
OBJECT
 10
10.54828969472705
 20
12.711402783697681
 30
0.0
 11
10.54828969472705
 21
12.80940278369768
 31
0.0
  0
LINE
  5
30DE
  8
OBJECT
 10
10.54828969472705
 20
10.227402783697681
 30
0.0
 11
10.54828969472705
 21
10.32540278369769
 31
0.0
  0
POLYLINE
  5
30DF
  8
OBJECT
 66
     1
 10
0.0
 20
0.0
 30
0.0
  0
VERTEX
  5
3935
  8
OBJECT
 10
10.55128969472706
 20
10.227402783697681
 30
0.0
  0
VERTEX
  5
3936
  8
OBJECT
 10
10.55128969472706
 20
10.32540278369769
 30
0.0
  0
SEQEND
  5
3937
  8
OBJECT
  0
POLYLINE
  5
30E3
  8
OBJECT
 66
     1
 10
0.0
 20
0.0
 30
0.0
  0
VERTEX
  5
3938
  8
OBJECT
 10
10.55128969472706
 20
10.385402783697691
 30
0.0
  0
VERTEX
  5
3939
  8
OBJECT
 10
10.55128969472706
 20
10.99540278369768
 30
0.0
  0
SEQEND
  5
393A
  8
OBJECT
  0
LINE
  5
30E7
  8
OBJECT
 10
10.54828969472705
 20
10.385402783697691
 30
0.0
 11
10.54828969472705
 21
10.99540278369768
 31
0.0
  0
LINE
  5
30E8
  8
OBJECT
 10
10.54828969472705
 20
11.055402783697691
 30
0.0
 11
10.54828969472705
 21
11.153402783697681
 31
0.0
  0
POLYLINE
  5
30E9
  8
OBJECT
 66
     1
 10
0.0
 20
0.0
 30
0.0
  0
VERTEX
  5
393B
  8
OBJECT
 10
10.55128969472706
 20
11.055402783697691
 30
0.0
  0
VERTEX
  5
393C
  8
OBJECT
 10
10.55128969472706
 20
11.153402783697681
 30
0.0
  0
SEQEND
  5
393D
  8
OBJECT
  0
POLYLINE
  5
30ED
  8
OBJECT
 66
     1
 10
0.0
 20
0.0
 30
0.0
  0
VERTEX
  5
393E
  8
OBJECT
 10
10.55128969472706
 20
11.21340278369768
 30
0.0
  0
VERTEX
  5
393F
  8
OBJECT
 10
10.55128969472706
 20
12.651402783697691
 30
0.0
  0
SEQEND
  5
3940
  8
OBJECT
  0
LINE
  5
30F1
  8
OBJECT
 10
10.54828969472705
 20
11.21340278369768
 30
0.0
 11
10.54828969472705
 21
12.651402783697691
 31
0.0
  0
LINE
  5
30F2
  8
OBJECT
 10
10.68628969472705
 20
9.0274027836976956
 30
0.0
 11
10.68628969472706
 21
8.9824027836976974
 31
0.0
  0
POLYLINE
  5
30F3
  8
OBJECT
 66
     1
 10
0.0
 20
0.0
 30
0.0
  0
VERTEX
  5
3941
  8
OBJECT
 10
10.55128969472706
 20
9.3644027836976953
 30
0.0
  0
VERTEX
  5
3942
  8
OBJECT
 10
10.55128969472706
 20
10.167402783697691
 30
0.0
  0
SEQEND
  5
3943
  8
OBJECT
  0
LINE
  5
30F7
  8
OBJECT
 10
10.54828969472705
 20
9.3644027836976953
 30
0.0
 11
10.54828969472705
 21
10.167402783697691
 31
0.0
  0
LINE
  5
30F8
  8
OBJECT
 10
10.68628969472705
 20
9.0274027836976956
 30
0.0
 11
11.24628969472705
 21
9.0274027836976956
 31
0.0
1001
ACAD
1000
ASC_BOUNDS
1002
{
1070
    19
1005
1FA8
1002
}
  0
POLYLINE
  5
30F9
  8
OBJECT
 66
     1
 10
0.0
 20
0.0
 30
0.0
 70
     1
  0
VERTEX
  5
3944
  8
OBJECT
 10
1.126785065956099
 20
8.8224027836976973
 30
0.0
  0
VERTEX
  5
3945
  8
OBJECT
 10
4.8667850659561012
 20
8.8224027836976973
 30
0.0
  0
VERTEX
  5
3946
  8
OBJECT
 10
4.8667850659561012
 20
15.042402783697691
 30
0.0
  0
VERTEX
  5
3947
  8
OBJECT
 10
1.126785065956099
 20
15.042402783697691
 30
0.0
  0
SEQEND
  5
3948
  8
OBJECT
  0
LINE
  5
30FF
  8
OBJECT
 10
4.3667850659561083
 20
12.81240278369768
 30
0.0
 11
4.3667850659561083
 21
12.932402783697681
 31
0.0
  0
LINE
  5
3100
  8
OBJECT
 10
4.8497850659560928
 20
12.81240278369768
 30
0.0
 11
4.8497850659560928
 21
12.932402783697681
 31
0.0
  0
LINE
  5
3101
  8
OBJECT
 10
4.3667850659561083
 20
12.81240278369768
 30
0.0
 11
4.8667850659560941
 21
12.81240278369768
 31
0.0
  0
LINE
  5
3102
  8
OBJECT
 10
4.3667850659561083
 20
12.577402783697689
 30
0.0
 11
4.8667850659560941
 21
12.577402783697689
 31
0.0
  0
LINE
  5
3103
  8
OBJECT
 10
4.3667850659561083
 20
12.697402783697679
 30
0.0
 11
4.8667850659560941
 21
12.697402783697679
 31
0.0
  0
LINE
  5
3104
  8
OBJECT
 10
4.3667850659561083
 20
12.342402783697681
 30
0.0
 11
4.8667850659560941
 21
12.342402783697681
 31
0.0
  0
LINE
  5
3105
  8
OBJECT
 10
4.3667850659561083
 20
12.462402783697691
 30
0.0
 11
4.8667850659560941
 21
12.462402783697691
 31
0.0
  0
LINE
  5
3106
  8
OBJECT
 10
4.3667850659561083
 20
12.10740278369768
 30
0.0
 11
4.8667850659560941
 21
12.10740278369768
 31
0.0
  0
LINE
  5
3107
  8
OBJECT
 10
4.3667850659561083
 20
12.227402783697681
 30
0.0
 11
4.8667850659560941
 21
12.227402783697681
 31
0.0
  0
LINE
  5
3108
  8
OBJECT
 10
4.8497850659560928
 20
12.342402783697681
 30
0.0
 11
4.8497850659560928
 21
12.462402783697691
 31
0.0
  0
LINE
  5
3109
  8
OBJECT
 10
4.8497850659560928
 20
12.10740278369768
 30
0.0
 11
4.8497850659560928
 21
12.227402783697681
 31
0.0
  0
LINE
  5
310A
  8
OBJECT
 10
4.8497850659560928
 20
12.577402783697689
 30
0.0
 11
4.8497850659560928
 21
12.697402783697679
 31
0.0
  0
LINE
  5
310B
  8
OBJECT
 10
4.3667850659561083
 20
12.342402783697681
 30
0.0
 11
4.3667850659561083
 21
12.462402783697691
 31
0.0
  0
LINE
  5
310C
  8
OBJECT
 10
4.3667850659561083
 20
12.10740278369768
 30
0.0
 11
4.3667850659561083
 21
12.227402783697681
 31
0.0
  0
LINE
  5
310D
  8
OBJECT
 10
4.3667850659561083
 20
12.577402783697689
 30
0.0
 11
4.3667850659561083
 21
12.697402783697679
 31
0.0
  0
LINE
  5
310E
  8
OBJECT
 10
4.3667850659561083
 20
13.51740278369768
 30
0.0
 11
4.8667850659560941
 21
13.51740278369768
 31
0.0
  0
LINE
  5
310F
  8
OBJECT
 10
4.36678506595611
 20
13.637402783697681
 30
0.0
 11
4.8667850659560958
 21
13.637402783697681
 31
0.0
  0
LINE
  5
3110
  8
OBJECT
 10
4.3667850659561083
 20
13.282402783697689
 30
0.0
 11
4.8667850659560941
 21
13.282402783697689
 31
0.0
  0
LINE
  5
3111
  8
OBJECT
 10
4.3667850659561083
 20
13.40240278369768
 30
0.0
 11
4.8667850659560941
 21
13.40240278369768
 31
0.0
  0
LINE
  5
3112
  8
OBJECT
 10
4.3667850659561083
 20
13.047402783697679
 30
0.0
 11
4.8667850659560941
 21
13.047402783697679
 31
0.0
  0
LINE
  5
3113
  8
OBJECT
 10
4.3667850659561083
 20
13.167402783697691
 30
0.0
 11
4.8667850659560941
 21
13.167402783697691
 31
0.0
  0
LINE
  5
3114
  8
OBJECT
 10
4.3667850659561083
 20
12.932402783697681
 30
0.0
 11
4.8667850659560941
 21
12.932402783697681
 31
0.0
  0
LINE
  5
3115
  8
OBJECT
 10
4.8497850659560928
 20
13.047402783697679
 30
0.0
 11
4.8497850659560973
 21
13.167402783697691
 31
0.0
  0
LINE
  5
3116
  8
OBJECT
 10
4.8497850659560973
 20
13.282402783697689
 30
0.0
 11
4.8497850659560973
 21
13.40240278369768
 31
0.0
  0
LINE
  5
3117
  8
OBJECT
 10
4.8497850659560973
 20
13.51740278369768
 30
0.0
 11
4.8497850659560973
 21
13.637402783697681
 31
0.0
  0
LINE
  5
3118
  8
OBJECT
 10
4.3667850659561083
 20
13.047402783697679
 30
0.0
 11
4.3667850659561083
 21
13.167402783697691
 31
0.0
  0
LINE
  5
3119
  8
OBJECT
 10
4.3667850659561083
 20
13.282402783697689
 30
0.0
 11
4.3667850659561083
 21
13.40240278369768
 31
0.0
  0
LINE
  5
311A
  8
OBJECT
 10
4.3667850659561083
 20
13.51740278369768
 30
0.0
 11
4.36678506595611
 21
13.637402783697681
 31
0.0
  0
LINE
  5
311B
  8
OBJECT
 10
1.1437850659560951
 20
12.932402783697681
 30
0.0
 11
1.1437850659560951
 21
12.81240278369768
 31
0.0
  0
LINE
  5
311C
  8
OBJECT
 10
1.6267850659561061
 20
12.81240278369769
 30
0.0
 11
1.6267850659561061
 21
12.932402783697681
 31
0.0
  0
LINE
  5
311D
  8
OBJECT
 10
1.1437850659560951
 20
12.462402783697691
 30
0.0
 11
1.1437850659560951
 21
12.342402783697681
 31
0.0
  0
LINE
  5
311E
  8
OBJECT
 10
1.6267850659561061
 20
12.342402783697681
 30
0.0
 11
1.6267850659561061
 21
12.462402783697691
 31
0.0
  0
LINE
  5
311F
  8
OBJECT
 10
1.1267850659560921
 20
12.342402783697681
 30
0.0
 11
1.6267850659561061
 21
12.342402783697681
 31
0.0
  0
LINE
  5
3120
  8
OBJECT
 10
1.1267850659560921
 20
12.10740278369768
 30
0.0
 11
1.6267850659561061
 21
12.10740278369768
 31
0.0
  0
LINE
  5
3121
  8
OBJECT
 10
1.1267850659560921
 20
12.227402783697681
 30
0.0
 11
1.6267850659561061
 21
12.227402783697681
 31
0.0
  0
LINE
  5
3122
  8
OBJECT
 10
1.6267850659561061
 20
12.10740278369768
 30
0.0
 11
1.6267850659561061
 21
12.227402783697681
 31
0.0
  0
LINE
  5
3123
  8
OBJECT
 10
1.1437850659560911
 20
12.227402783697681
 30
0.0
 11
1.1437850659560911
 21
12.10740278369768
 31
0.0
  0
LINE
  5
3124
  8
OBJECT
 10
1.1267850659560941
 20
12.81240278369768
 30
0.0
 11
1.6267850659561061
 21
12.81240278369769
 31
0.0
  0
LINE
  5
3125
  8
OBJECT
 10
1.1267850659560921
 20
12.577402783697689
 30
0.0
 11
1.6267850659561061
 21
12.577402783697689
 31
0.0
  0
LINE
  5
3126
  8
OBJECT
 10
1.1267850659560941
 20
12.697402783697679
 30
0.0
 11
1.6267850659561061
 21
12.697402783697679
 31
0.0
  0
LINE
  5
3127
  8
OBJECT
 10
1.1267850659560921
 20
12.462402783697691
 30
0.0
 11
1.6267850659561061
 21
12.462402783697691
 31
0.0
  0
LINE
  5
3128
  8
OBJECT
 10
1.6267850659561061
 20
12.577402783697689
 30
0.0
 11
1.6267850659561061
 21
12.697402783697679
 31
0.0
  0
LINE
  5
3129
  8
OBJECT
 10
1.1437850659560951
 20
12.697402783697679
 30
0.0
 11
1.1437850659560951
 21
12.577402783697689
 31
0.0
  0
LINE
  5
312A
  8
OBJECT
 10
1.1267850659560941
 20
13.047402783697679
 30
0.0
 11
1.6267850659561061
 21
13.047402783697679
 31
0.0
  0
LINE
  5
312B
  8
OBJECT
 10
1.1267850659560941
 20
13.167402783697691
 30
0.0
 11
1.6267850659561081
 21
13.167402783697691
 31
0.0
  0
LINE
  5
312C
  8
OBJECT
 10
1.1267850659560941
 20
12.932402783697681
 30
0.0
 11
1.6267850659561061
 21
12.932402783697681
 31
0.0
  0
LINE
  5
312D
  8
OBJECT
 10
1.6267850659561061
 20
13.047402783697679
 30
0.0
 11
1.6267850659561081
 21
13.167402783697691
 31
0.0
  0
LINE
  5
312E
  8
OBJECT
 10
1.1437850659560951
 20
13.167402783697691
 30
0.0
 11
1.1437850659560951
 21
13.047402783697679
 31
0.0
  0
LINE
  5
312F
  8
OBJECT
 10
1.1267850659560941
 20
13.51740278369768
 30
0.0
 11
1.6267850659561081
 21
13.51740278369768
 31
0.0
  0
LINE
  5
3130
  8
OBJECT
 10
1.1267850659560941
 20
13.637402783697681
 30
0.0
 11
1.6267850659561081
 21
13.637402783697681
 31
0.0
  0
LINE
  5
3131
  8
OBJECT
 10
1.1267850659560941
 20
13.282402783697689
 30
0.0
 11
1.6267850659561081
 21
13.282402783697689
 31
0.0
  0
LINE
  5
3132
  8
OBJECT
 10
1.1267850659560941
 20
13.40240278369768
 30
0.0
 11
1.6267850659561081
 21
13.40240278369768
 31
0.0
  0
LINE
  5
3133
  8
OBJECT
 10
1.6267850659561081
 20
13.282402783697689
 30
0.0
 11
1.6267850659561081
 21
13.40240278369768
 31
0.0
  0
LINE
  5
3134
  8
OBJECT
 10
1.6267850659561081
 20
13.51740278369768
 30
0.0
 11
1.6267850659561081
 21
13.637402783697681
 31
0.0
  0
LINE
  5
3135
  8
OBJECT
 10
1.1437850659560951
 20
13.40240278369768
 30
0.0
 11
1.1437850659560951
 21
13.282402783697689
 31
0.0
  0
LINE
  5
3136
  8
OBJECT
 10
1.1437850659560951
 20
13.637402783697681
 30
0.0
 11
1.1437850659560951
 21
13.51740278369768
 31
0.0
  0
LINE
  5
3137
  8
OBJECT
 10
4.36678506595611
 20
14.832402783697679
 30
0.0
 11
4.36678506595611
 21
14.457402783697679
 31
0.0
  0
LINE
  5
3138
  8
OBJECT
 10
4.8497850659560973
 20
14.832402783697679
 30
0.0
 11
4.8497850659560973
 21
14.457402783697679
 31
0.0
  0
LINE
  5
3139
  8
OBJECT
 10
4.36678506595611
 20
14.457402783697679
 30
0.0
 11
4.8667850659560958
 21
14.457402783697679
 31
0.0
  0
LINE
  5
313A
  8
OBJECT
 10
4.36678506595611
 20
14.222402783697691
 30
0.0
 11
4.8667850659560958
 21
14.222402783697691
 31
0.0
  0
LINE
  5
313B
  8
OBJECT
 10
4.36678506595611
 20
14.342402783697681
 30
0.0
 11
4.8667850659560958
 21
14.342402783697681
 31
0.0
  0
LINE
  5
313C
  8
OBJECT
 10
4.36678506595611
 20
13.987402783697689
 30
0.0
 11
4.8667850659560958
 21
13.987402783697689
 31
0.0
  0
LINE
  5
313D
  8
OBJECT
 10
4.36678506595611
 20
14.10740278369768
 30
0.0
 11
4.8667850659560958
 21
14.10740278369768
 31
0.0
  0
LINE
  5
313E
  8
OBJECT
 10
4.36678506595611
 20
13.752402783697679
 30
0.0
 11
4.8667850659560958
 21
13.752402783697679
 31
0.0
  0
LINE
  5
313F
  8
OBJECT
 10
4.36678506595611
 20
13.872402783697691
 30
0.0
 11
4.8667850659560958
 21
13.872402783697691
 31
0.0
  0
LINE
  5
3140
  8
OBJECT
 10
4.8497850659560973
 20
13.987402783697689
 30
0.0
 11
4.8497850659560973
 21
14.10740278369768
 31
0.0
  0
LINE
  5
3141
  8
OBJECT
 10
4.8497850659560973
 20
13.752402783697679
 30
0.0
 11
4.8497850659560973
 21
13.872402783697691
 31
0.0
  0
LINE
  5
3142
  8
OBJECT
 10
4.8497850659560973
 20
14.222402783697691
 30
0.0
 11
4.8497850659560973
 21
14.342402783697681
 31
0.0
  0
LINE
  5
3143
  8
OBJECT
 10
4.36678506595611
 20
13.987402783697689
 30
0.0
 11
4.36678506595611
 21
14.10740278369768
 31
0.0
  0
LINE
  5
3144
  8
OBJECT
 10
4.3667850659561083
 20
13.752402783697679
 30
0.0
 11
4.36678506595611
 21
13.872402783697691
 31
0.0
  0
LINE
  5
3145
  8
OBJECT
 10
4.36678506595611
 20
14.222402783697691
 30
0.0
 11
4.36678506595611
 21
14.342402783697681
 31
0.0
  0
LINE
  5
3146
  8
OBJECT
 10
4.36678506595611
 20
14.832402783697679
 30
0.0
 11
4.8667850659561012
 21
14.832402783697679
 31
0.0
  0
LINE
  5
3147
  8
OBJECT
 10
4.36678506595611
 20
14.832402783697679
 30
0.0
 11
4.8667850659561012
 21
14.832402783697679
 31
0.0
  0
LINE
  5
3148
  8
OBJECT
 10
1.6267850659561121
 20
14.832402783697679
 30
0.0
 11
1.6267850659561121
 21
14.457402783697679
 31
0.0
  0
LINE
  5
3149
  8
OBJECT
 10
1.1437850659560971
 20
14.457402783697679
 30
0.0
 11
1.1437850659560971
 21
14.832402783697679
 31
0.0
  0
LINE
  5
314A
  8
OBJECT
 10
1.1437850659560951
 20
14.10740278369768
 30
0.0
 11
1.1437850659560951
 21
13.987402783697689
 31
0.0
  0
LINE
  5
314B
  8
OBJECT
 10
1.6267850659561121
 20
13.987402783697689
 30
0.0
 11
1.6267850659561121
 21
14.10740278369768
 31
0.0
  0
LINE
  5
314C
  8
OBJECT
 10
1.126785065956099
 20
13.987402783697689
 30
0.0
 11
1.6267850659561121
 21
13.987402783697689
 31
0.0
  0
LINE
  5
314D
  8
OBJECT
 10
1.1267850659560941
 20
13.752402783697679
 30
0.0
 11
1.6267850659561081
 21
13.752402783697679
 31
0.0
  0
LINE
  5
314E
  8
OBJECT
 10
1.1267850659560941
 20
13.872402783697691
 30
0.0
 11
1.6267850659561081
 21
13.872402783697691
 31
0.0
  0
LINE
  5
314F
  8
OBJECT
 10
1.6267850659561081
 20
13.752402783697679
 30
0.0
 11
1.6267850659561081
 21
13.872402783697691
 31
0.0
  0
LINE
  5
3150
  8
OBJECT
 10
1.1437850659560951
 20
13.872402783697691
 30
0.0
 11
1.1437850659560951
 21
13.752402783697679
 31
0.0
  0
LINE
  5
3151
  8
OBJECT
 10
1.126785065956099
 20
14.457402783697679
 30
0.0
 11
1.6267850659561121
 21
14.457402783697679
 31
0.0
  0
LINE
  5
3152
  8
OBJECT
 10
1.126785065956099
 20
14.222402783697691
 30
0.0
 11
1.6267850659561121
 21
14.222402783697691
 31
0.0
  0
LINE
  5
3153
  8
OBJECT
 10
1.126785065956099
 20
14.342402783697681
 30
0.0
 11
1.6267850659561121
 21
14.342402783697681
 31
0.0
  0
LINE
  5
3154
  8
OBJECT
 10
1.126785065956099
 20
14.10740278369768
 30
0.0
 11
1.6267850659561121
 21
14.10740278369768
 31
0.0
  0
LINE
  5
3155
  8
OBJECT
 10
1.6267850659561121
 20
14.222402783697691
 30
0.0
 11
1.6267850659561121
 21
14.342402783697681
 31
0.0
  0
LINE
  5
3156
  8
OBJECT
 10
1.1437850659560951
 20
14.342402783697681
 30
0.0
 11
1.1437850659560951
 21
14.222402783697691
 31
0.0
  0
LINE
  5
3157
  8
OBJECT
 10
1.126785065956099
 20
14.832402783697679
 30
0.0
 11
1.6267850659561121
 21
14.832402783697679
 31
0.0
  0
LINE
  5
3158
  8
OBJECT
 10
1.126785065956099
 20
14.832402783697679
 30
0.0
 11
1.6267850659561121
 21
14.832402783697679
 31
0.0
  0
CIRCLE
  5
3159
  8
OBJECT
 10
2.0127850659560971
 20
9.5704027836976966
 30
0.0
 40
0.045
  0
CIRCLE
  5
315A
  8
OBJECT
 10
2.0127850659560971
 20
9.5704027836976966
 30
0.0
 40
0.108
  0
CIRCLE
  5
315B
  8
OBJECT
 10
3.980785065956097
 20
9.5704027836976966
 30
0.0
 40
0.108
  0
CIRCLE
  5
315C
  8
OBJECT
 10
3.980785065956097
 20
9.5704027836976966
 30
0.0
 40
0.045
  0
LINE
  5
315D
  8
CENTER
 10
2.906785065956099
 20
11.932402783697681
 30
0.0
 11
3.0867850659561
 21
11.932402783697681
 31
0.0
  0
LINE
  5
315E
  8
CENTER
 10
2.9967850659561002
 20
11.842402783697681
 30
0.0
 11
2.9967850659561002
 21
12.022402783697681
 31
0.0
  0
CIRCLE
  5
315F
  8
HIDDEN
 10
2.0127850659560971
 20
14.294402783697681
 30
0.0
 40
0.108
  0
CIRCLE
  5
3160
  8
HIDDEN
 10
2.0127850659560971
 20
14.294402783697681
 30
0.0
 40
0.045
  0
CIRCLE
  5
3161
  8
HIDDEN
 10
3.980785065956097
 20
14.294402783697681
 30
0.0
 40
0.108
  0
CIRCLE
  5
3162
  8
HIDDEN
 10
3.980785065956097
 20
14.294402783697681
 30
0.0
 40
0.045
  0
CIRCLE
  5
3163
  8
OBJECT
 10
1.441785065956096
 20
9.2164027836976956
 30
0.0
 40
0.148
  0
CIRCLE
  5
3164
  8
OBJECT
 10
4.5517850659560981
 20
9.2164027836976956
 30
0.0
 40
0.148
  0
CIRCLE
  5
3165
  8
HIDDEN
 10
4.5517850659560981
 20
14.648402783697691
 30
0.0
 40
0.148
  0
CIRCLE
  5
3166
  8
HIDDEN
 10
1.441785065956096
 20
14.648402783697691
 30
0.0
 40
0.148
  0
LINE
  5
3167
  8
OBJECT
 10
4.7467850659561002
 20
8.8874027836976932
 30
0.0
 11
1.2467850659560951
 21
8.8874027836976932
 31
0.0
  0
LINE
  5
3168
  8
OBJECT
 10
4.7467850659561002
 20
8.9824027836976974
 30
0.0
 11
1.2467850659560951
 21
8.9824027836976974
 31
0.0
  0
LINE
  5
3169
  8
OBJECT
 10
4.806785065956098
 20
9.0274027836976956
 30
0.0
 11
1.2467850659560951
 21
9.0274027836976956
 31
0.0
  0
POLYLINE
  5
316A
  8
HIDDEN
 66
     1
 10
0.0
 20
0.0
 30
0.0
  0
VERTEX
  5
3949
  8
HIDDEN
 10
1.2467850659560951
 20
13.697402783697679
 30
0.0
  0
VERTEX
  5
394A
  8
HIDDEN
 10
1.301785065956099
 20
13.697402783697679
 30
0.0
  0
VERTEX
  5
394B
  8
HIDDEN
 10
1.301785065956099
 20
13.637402783697681
 30
0.0
  0
VERTEX
  5
394C
  8
HIDDEN
 10
1.2467850659560951
 20
13.637402783697681
 30
0.0
  0
SEQEND
  5
394D
  8
HIDDEN
  0
POLYLINE
  5
3170
  8
HIDDEN
 66
     1
 10
0.0
 20
0.0
 30
0.0
  0
VERTEX
  5
394E
  8
HIDDEN
 10
1.2467850659560951
 20
13.47940278369768
 30
0.0
  0
VERTEX
  5
394F
  8
HIDDEN
 10
1.301785065956099
 20
13.47940278369768
 30
0.0
  0
VERTEX
  5
3950
  8
HIDDEN
 10
1.301785065956099
 20
13.539402783697691
 30
0.0
  0
VERTEX
  5
3951
  8
HIDDEN
 10
1.2467850659560951
 20
13.539402783697691
 30
0.0
  0
SEQEND
  5
3952
  8
HIDDEN
  0
POLYLINE
  5
3176
  8
HIDDEN
 66
     1
 10
0.0
 20
0.0
 30
0.0
  0
VERTEX
  5
3953
  8
HIDDEN
 10
1.2467850659560951
 20
12.869402783697691
 30
0.0
  0
VERTEX
  5
3954
  8
HIDDEN
 10
1.301785065956099
 20
12.869402783697691
 30
0.0
  0
VERTEX
  5
3955
  8
HIDDEN
 10
1.301785065956099
 20
12.80940278369768
 30
0.0
  0
VERTEX
  5
3956
  8
HIDDEN
 10
1.2467850659560951
 20
12.80940278369768
 30
0.0
  0
SEQEND
  5
3957
  8
HIDDEN
  0
POLYLINE
  5
317C
  8
HIDDEN
 66
     1
 10
0.0
 20
0.0
 30
0.0
  0
VERTEX
  5
3958
  8
HIDDEN
 10
1.2467850659560951
 20
12.651402783697691
 30
0.0
  0
VERTEX
  5
3959
  8
HIDDEN
 10
1.301785065956099
 20
12.651402783697691
 30
0.0
  0
VERTEX
  5
395A
  8
HIDDEN
 10
1.301785065956099
 20
12.711402783697681
 30
0.0
  0
VERTEX
  5
395B
  8
HIDDEN
 10
1.2467850659560951
 20
12.711402783697681
 30
0.0
  0
SEQEND
  5
395C
  8
HIDDEN
  0
POLYLINE
  5
3182
  8
OBJECT
 66
     1
 10
0.0
 20
0.0
 30
0.0
  0
VERTEX
  5
395D
  8
OBJECT
 10
1.2467850659560951
 20
11.21340278369768
 30
0.0
  0
VERTEX
  5
395E
  8
OBJECT
 10
1.301785065956099
 20
11.21340278369768
 30
0.0
  0
VERTEX
  5
395F
  8
OBJECT
 10
1.301785065956099
 20
11.153402783697681
 30
0.0
  0
VERTEX
  5
3960
  8
OBJECT
 10
1.2467850659560951
 20
11.153402783697681
 30
0.0
  0
SEQEND
  5
3961
  8
OBJECT
  0
POLYLINE
  5
3188
  8
OBJECT
 66
     1
 10
0.0
 20
0.0
 30
0.0
  0
VERTEX
  5
3962
  8
OBJECT
 10
1.2467850659560951
 20
10.99540278369768
 30
0.0
  0
VERTEX
  5
3963
  8
OBJECT
 10
1.301785065956099
 20
10.99540278369768
 30
0.0
  0
VERTEX
  5
3964
  8
OBJECT
 10
1.301785065956099
 20
11.055402783697691
 30
0.0
  0
VERTEX
  5
3965
  8
OBJECT
 10
1.2467850659560951
 20
11.055402783697691
 30
0.0
  0
SEQEND
  5
3966
  8
OBJECT
  0
POLYLINE
  5
318E
  8
OBJECT
 66
     1
 10
0.0
 20
0.0
 30
0.0
  0
VERTEX
  5
3967
  8
OBJECT
 10
1.2467850659560951
 20
10.167402783697691
 30
0.0
  0
VERTEX
  5
3968
  8
OBJECT
 10
1.301785065956099
 20
10.167402783697691
 30
0.0
  0
VERTEX
  5
3969
  8
OBJECT
 10
1.301785065956099
 20
10.227402783697681
 30
0.0
  0
VERTEX
  5
396A
  8
OBJECT
 10
1.2467850659560951
 20
10.227402783697681
 30
0.0
  0
SEQEND
  5
396B
  8
OBJECT
  0
POLYLINE
  5
3194
  8
OBJECT
 66
     1
 10
0.0
 20
0.0
 30
0.0
  0
VERTEX
  5
396C
  8
OBJECT
 10
1.2467850659560951
 20
10.385402783697691
 30
0.0
  0
VERTEX
  5
396D
  8
OBJECT
 10
1.301785065956099
 20
10.385402783697691
 30
0.0
  0
VERTEX
  5
396E
  8
OBJECT
 10
1.301785065956099
 20
10.32540278369769
 30
0.0
  0
VERTEX
  5
396F
  8
OBJECT
 10
1.2467850659560951
 20
10.32540278369769
 30
0.0
  0
SEQEND
  5
3970
  8
OBJECT
  0
POLYLINE
  5
319A
  8
HIDDEN
 66
     1
 10
0.0
 20
0.0
 30
0.0
  0
VERTEX
  5
3971
  8
HIDDEN
 10
4.7467850659561002
 20
12.651402783697691
 30
0.0
  0
VERTEX
  5
3972
  8
HIDDEN
 10
4.691785065956096
 20
12.651402783697691
 30
0.0
  0
VERTEX
  5
3973
  8
HIDDEN
 10
4.6917850659560987
 20
12.711402783697681
 30
0.0
  0
VERTEX
  5
3974
  8
HIDDEN
 10
4.7467850659561002
 20
12.711402783697681
 30
0.0
  0
SEQEND
  5
3975
  8
HIDDEN
  0
POLYLINE
  5
31A0
  8
HIDDEN
 66
     1
 10
0.0
 20
0.0
 30
0.0
  0
VERTEX
  5
3976
  8
HIDDEN
 10
4.7467850659561002
 20
12.869402783697691
 30
0.0
  0
VERTEX
  5
3977
  8
HIDDEN
 10
4.691785065956096
 20
12.869402783697691
 30
0.0
  0
VERTEX
  5
3978
  8
HIDDEN
 10
4.6917850659560987
 20
12.80940278369768
 30
0.0
  0
VERTEX
  5
3979
  8
HIDDEN
 10
4.7467850659561002
 20
12.80940278369768
 30
0.0
  0
SEQEND
  5
397A
  8
HIDDEN
  0
POLYLINE
  5
31A6
  8
HIDDEN
 66
     1
 10
0.0
 20
0.0
 30
0.0
  0
VERTEX
  5
397B
  8
HIDDEN
 10
4.7467850659561002
 20
13.697402783697679
 30
0.0
  0
VERTEX
  5
397C
  8
HIDDEN
 10
4.691785065956096
 20
13.697402783697679
 30
0.0
  0
VERTEX
  5
397D
  8
HIDDEN
 10
4.6917850659560987
 20
13.637402783697681
 30
0.0
  0
VERTEX
  5
397E
  8
HIDDEN
 10
4.7467850659561002
 20
13.637402783697681
 30
0.0
  0
SEQEND
  5
397F
  8
HIDDEN
  0
POLYLINE
  5
31AC
  8
HIDDEN
 66
     1
 10
0.0
 20
0.0
 30
0.0
  0
VERTEX
  5
3980
  8
HIDDEN
 10
4.7467850659561002
 20
13.47940278369768
 30
0.0
  0
VERTEX
  5
3981
  8
HIDDEN
 10
4.691785065956096
 20
13.47940278369768
 30
0.0
  0
VERTEX
  5
3982
  8
HIDDEN
 10
4.6917850659560987
 20
13.539402783697691
 30
0.0
  0
VERTEX
  5
3983
  8
HIDDEN
 10
4.7467850659561002
 20
13.539402783697691
 30
0.0
  0
SEQEND
  5
3984
  8
HIDDEN
  0
POLYLINE
  5
31B2
  8
OBJECT
 66
     1
 10
0.0
 20
0.0
 30
0.0
  0
VERTEX
  5
3985
  8
OBJECT
 10
4.7467850659561002
 20
10.385402783697691
 30
0.0
  0
VERTEX
  5
3986
  8
OBJECT
 10
4.691785065956096
 20
10.385402783697691
 30
0.0
  0
VERTEX
  5
3987
  8
OBJECT
 10
4.6917850659560987
 20
10.32540278369769
 30
0.0
  0
VERTEX
  5
3988
  8
OBJECT
 10
4.7467850659561002
 20
10.32540278369769
 30
0.0
  0
SEQEND
  5
3989
  8
OBJECT
  0
POLYLINE
  5
31B8
  8
OBJECT
 66
     1
 10
0.0
 20
0.0
 30
0.0
  0
VERTEX
  5
398A
  8
OBJECT
 10
4.7467850659561002
 20
10.167402783697691
 30
0.0
  0
VERTEX
  5
398B
  8
OBJECT
 10
4.691785065956096
 20
10.167402783697691
 30
0.0
  0
VERTEX
  5
398C
  8
OBJECT
 10
4.6917850659560987
 20
10.227402783697681
 30
0.0
  0
VERTEX
  5
398D
  8
OBJECT
 10
4.7467850659561002
 20
10.227402783697681
 30
0.0
  0
SEQEND
  5
398E
  8
OBJECT
  0
POLYLINE
  5
31BE
  8
OBJECT
 66
     1
 10
0.0
 20
0.0
 30
0.0
  0
VERTEX
  5
398F
  8
OBJECT
 10
4.7467850659561002
 20
10.99540278369768
 30
0.0
  0
VERTEX
  5
3990
  8
OBJECT
 10
4.691785065956096
 20
10.99540278369768
 30
0.0
  0
VERTEX
  5
3991
  8
OBJECT
 10
4.6917850659560987
 20
11.055402783697691
 30
0.0
  0
VERTEX
  5
3992
  8
OBJECT
 10
4.7467850659561002
 20
11.055402783697691
 30
0.0
  0
SEQEND
  5
3993
  8
OBJECT
  0
POLYLINE
  5
31C4
  8
OBJECT
 66
     1
 10
0.0
 20
0.0
 30
0.0
  0
VERTEX
  5
3994
  8
OBJECT
 10
4.7467850659561002
 20
11.21340278369768
 30
0.0
  0
VERTEX
  5
3995
  8
OBJECT
 10
4.691785065956096
 20
11.21340278369768
 30
0.0
  0
VERTEX
  5
3996
  8
OBJECT
 10
4.6917850659560987
 20
11.153402783697681
 30
0.0
  0
VERTEX
  5
3997
  8
OBJECT
 10
4.7467850659561002
 20
11.153402783697681
 30
0.0
  0
SEQEND
  5
3998
  8
OBJECT
  0
LINE
  5
31CA
  8
OBJECT
 10
4.7467850659561002
 20
8.8874027836976932
 30
0.0
 11
4.7467850659561002
 21
12.031299519346581
 31
0.0
  0
LINE
  5
31CB
  8
HIDDEN
 10
1.2467850659560951
 20
14.9774027836977
 30
0.0
 11
1.2467850659560951
 21
12.02940150752109
 31
0.0
  0
LINE
  5
31CC
  8
HIDDEN
 10
4.7467850659561002
 20
14.882402783697691
 30
0.0
 11
1.2467850659560951
 21
14.882402783697691
 31
0.0
  0
LINE
  5
31CD
  8
HIDDEN
 10
4.806785065956098
 20
14.837402783697691
 30
0.0
 11
1.1867850659560999
 21
14.837402783697691
 31
0.0
  0
LINE
  5
31CE
  8
HIDDEN
 10
4.7467850659561002
 20
14.9774027836977
 30
0.0
 11
1.2467850659560951
 21
14.9774027836977
 31
0.0
  0
CIRCLE
  5
31CF
  8
OBJECT
 10
1.441785065956096
 20
9.2164027836976956
 30
0.0
 40
0.045
  0
CIRCLE
  5
31D0
  8
HIDDEN
 10
1.441785065956096
 20
14.648402783697691
 30
0.0
 40
0.045
  0
CIRCLE
  5
31D1
  8
HIDDEN
 10
4.5517850659560981
 20
14.648402783697691
 30
0.0
 40
0.045
  0
CIRCLE
  5
31D2
  8
OBJECT
 10
4.5517850659560981
 20
9.2164027836976956
 30
0.0
 40
0.045
  0
LINE
  5
31D3
  8
HIDDEN
 10
1.1867850659560999
 20
14.837402783697691
 30
0.0
 11
1.1867850659560999
 21
12.034212187180801
 31
0.0
  0
LINE
  5
31D4
  8
OBJECT
 10
4.806785065956098
 20
9.0274027836976956
 30
0.0
 11
4.806785065956098
 21
12.03478337693363
 31
0.0
  0
POLYLINE
  5
31D5
  8
HIDDEN
 66
     1
 10
0.0
 20
0.0
 30
0.0
  0
VERTEX
  5
3999
  8
HIDDEN
 10
4.7467850659561002
 20
14.8174027836977
 30
0.0
  0
VERTEX
  5
399A
  8
HIDDEN
 10
4.7972567359696461
 20
14.8174027836977
 30
0.0
  0
VERTEX
  5
399B
  8
HIDDEN
 10
4.7972567359696461
 20
12.03390227000626
 30
0.0
  0
SEQEND
  5
399C
  8
HIDDEN
  0
POLYLINE
  5
31DA
  8
HIDDEN
 66
     1
 10
0.0
 20
0.0
 30
0.0
  0
VERTEX
  5
399D
  8
HIDDEN
 10
1.2467850659560951
 20
14.8174027836977
 30
0.0
  0
VERTEX
  5
399E
  8
HIDDEN
 10
1.196313395942552
 20
14.8174027836977
 30
0.0
  0
VERTEX
  5
399F
  8
HIDDEN
 10
1.196313395942552
 20
12.033243743825841
 30
0.0
  0
SEQEND
  5
39A0
  8
HIDDEN
  0
POLYLINE
  5
31DF
  8
OBJECT
 66
     1
 10
0.0
 20
0.0
 30
0.0
 70
     1
  0
VERTEX
  5
39A1
  8
OBJECT
 10
1.2857850659560981
 20
3.0854337922827422
 30
0.0
  0
VERTEX
  5
39A2
  8
OBJECT
 10
4.7077850659561022
 20
3.0854337922827422
 30
0.0
 42
0.4142135623730951
  0
VERTEX
  5
39A3
  8
OBJECT
 10
4.7387850659561011
 20
3.116433792282741
 30
0.0
  0
VERTEX
  5
39A4
  8
OBJECT
 10
4.7387850659560957
 20
4.2544337922827422
 30
0.0
 42
0.4142135623730946
  0
VERTEX
  5
39A5
  8
OBJECT
 10
4.7077850659560951
 20
4.285433792282741
 30
0.0
  0
VERTEX
  5
39A6
  8
OBJECT
 10
1.2857850659560981
 20
4.285433792282741
 30
0.0
 42
0.4142135623730951
  0
VERTEX
  5
39A7
  8
OBJECT
 10
1.2547850659560991
 20
4.2544337922827422
 30
0.0
  0
VERTEX
  5
39A8
  8
OBJECT
 10
1.2547850659560991
 20
3.116433792282741
 30
0.0
 42
0.4142135623730953
  0
SEQEND
  5
39A9
  8
OBJECT
  0
LINE
  5
31E9
  8
OBJECT
 10
4.6826376336225612
 20
5.3503983120286494
 30
0.0
 11
1.3109324982896371
 21
5.3503983120286494
 31
0.0
  0
LINE
  5
31EA
  8
OBJECT
 10
4.6826376336225612
 20
6.7673983120286501
 30
0.0
 11
1.3109324982896371
 21
6.7673983120286501
 31
0.0
  0
ARC
  5
31EB
  8
OBJECT
 10
1.3109324982896371
 20
6.6113983120286521
 30
0.0
 40
0.1559999999999997
 50
90.0
 51
177.0
  0
LINE
  5
31EC
  8
OBJECT
 10
1.1551462908679211
 20
6.6195627212025512
 30
0.0
 11
1.126785065956099
 21
6.0783983120286491
 31
0.0
  0
LINE
  5
31ED
  8
OBJECT
 10
1.1551462908679211
 20
5.4982339028547491
 30
0.0
 11
1.126785065956099
 21
6.0393983120286512
 31
0.0
  0
ARC
  5
31EE
  8
OBJECT
 10
1.3109324982896371
 20
5.506398312028649
 30
0.0
 40
0.1559999999999997
 50
182.99999999999989
 51
270.0
  0
LINE
  5
31EF
  8
OBJECT
 10
4.838423841044273
 20
5.4982339028547491
 30
0.0
 11
4.8667850659561012
 21
6.0393983120286512
 31
0.0
  0
ARC
  5
31F0
  8
OBJECT
 10
4.6826376336225612
 20
5.506398312028649
 30
0.0
 40
0.1559999999999997
 50
270.0
 51
357.0
  0
LINE
  5
31F1
  8
OBJECT
 10
4.838423841044273
 20
6.6195627212025512
 30
0.0
 11
4.8667850659561012
 21
6.0783983120286491
 31
0.0
  0
ARC
  5
31F2
  8
OBJECT
 10
4.6826376336225612
 20
6.6113983120286521
 30
0.0
 40
0.1559999999999997
 50
2.999999999999948
 51
90.0
  0
POLYLINE
  5
31F3
  8
0
 66
     1
 10
0.0
 20
0.0
 30
0.0
 70
     8
  0
VERTEX
  5
31F4
  8
0
 10
1.1267899999999991
 20
12.0419
 30
0.0
 70
    32
  0
VERTEX
  5
31F5
  8
0
 10
1.1347899999999991
 20
12.040800000000001
 30
0.0
 70
    32
  0
VERTEX
  5
31F6
  8
0
 10
1.1428
 20
12.0396
 30
0.0
 70
    32
  0
VERTEX
  5
31F7
  8
0
 10
1.1508100000000001
 20
12.038500000000001
 30
0.0
 70
    32
  0
VERTEX
  5
31F8
  8
0
 10
1.15883
 20
12.0375
 30
0.0
 70
    32
  0
VERTEX
  5
31F9
  8
0
 10
1.166839999999999
 20
12.0365
 30
0.0
 70
    32
  0
VERTEX
  5
31FA
  8
0
 10
1.17486
 20
12.035500000000001
 30
0.0
 70
    32
  0
VERTEX
  5
31FB
  8
0
 10
1.1828700000000001
 20
12.03459999999999
 30
0.0
 70
    32
  0
VERTEX
  5
31FC
  8
0
 10
1.19089
 20
12.033799999999999
 30
0.0
 70
    32
  0
VERTEX
  5
31FD
  8
0
 10
1.1989099999999999
 20
12.032899999999991
 30
0.0
 70
    32
  0
VERTEX
  5
31FE
  8
0
 10
1.2069299999999989
 20
12.032199999999991
 30
0.0
 70
    32
  0
VERTEX
  5
31FF
  8
0
 10
1.2149499999999991
 20
12.031499999999991
 30
0.0
 70
    32
  0
VERTEX
  5
3200
  8
0
 10
1.2229699999999999
 20
12.03079999999999
 30
0.0
 70
    32
  0
VERTEX
  5
3201
  8
0
 10
1.2309799999999991
 20
12.030200000000001
 30
0.0
 70
    32
  0
VERTEX
  5
3202
  8
0
 10
1.2390000000000001
 20
12.0297
 30
0.0
 70
    32
  0
VERTEX
  5
3203
  8
0
 10
1.24702
 20
12.029199999999991
 30
0.0
 70
    32
  0
VERTEX
  5
3204
  8
0
 10
1.255029999999999
 20
12.028700000000001
 30
0.0
 70
    32
  0
VERTEX
  5
3205
  8
0
 10
1.26305
 20
12.0283
 30
0.0
 70
    32
  0
VERTEX
  5
3206
  8
0
 10
1.2710600000000001
 20
12.028
 30
0.0
 70
    32
  0
VERTEX
  5
3207
  8
0
 10
1.2790699999999999
 20
12.027699999999999
 30
0.0
 70
    32
  0
VERTEX
  5
3208
  8
0
 10
1.28708
 20
12.027499999999989
 30
0.0
 70
    32
  0
VERTEX
  5
3209
  8
0
 10
1.2950900000000001
 20
12.0273
 30
0.0
 70
    32
  0
VERTEX
  5
320A
  8
0
 10
1.303089999999999
 20
12.027200000000001
 30
0.0
 70
    32
  0
VERTEX
  5
320B
  8
0
 10
1.311089999999999
 20
12.027100000000001
 30
0.0
 70
    32
  0
VERTEX
  5
320C
  8
0
 10
1.319089999999999
 20
12.027100000000001
 30
0.0
 70
    32
  0
VERTEX
  5
320D
  8
0
 10
1.327089999999999
 20
12.027200000000001
 30
0.0
 70
    32
  0
VERTEX
  5
320E
  8
0
 10
1.3350799999999989
 20
12.0273
 30
0.0
 70
    32
  0
VERTEX
  5
320F
  8
0
 10
1.3430699999999991
 20
12.0274
 30
0.0
 70
    32
  0
VERTEX
  5
3210
  8
0
 10
1.3510500000000001
 20
12.027699999999999
 30
0.0
 70
    32
  0
VERTEX
  5
3211
  8
0
 10
1.3590299999999991
 20
12.028
 30
0.0
 70
    32
  0
VERTEX
  5
3212
  8
0
 10
1.3670100000000001
 20
12.0283
 30
0.0
 70
    32
  0
VERTEX
  5
3213
  8
0
 10
1.374979999999999
 20
12.028700000000001
 30
0.0
 70
    32
  0
VERTEX
  5
3214
  8
0
 10
1.3829400000000001
 20
12.029199999999991
 30
0.0
 70
    32
  0
VERTEX
  5
3215
  8
0
 10
1.3909
 20
12.0297
 30
0.0
 70
    32
  0
VERTEX
  5
3216
  8
0
 10
1.3988599999999991
 20
12.0303
 30
0.0
 70
    32
  0
VERTEX
  5
3217
  8
0
 10
1.4068099999999999
 20
12.030900000000001
 30
0.0
 70
    32
  0
VERTEX
  5
3218
  8
0
 10
1.4147499999999991
 20
12.031700000000001
 30
0.0
 70
    32
  0
VERTEX
  5
3219
  8
0
 10
1.42269
 20
12.032400000000001
 30
0.0
 70
    32
  0
VERTEX
  5
321A
  8
0
 10
1.43062
 20
12.033300000000001
 30
0.0
 70
    32
  0
VERTEX
  5
321B
  8
0
 10
1.438539999999999
 20
12.0342
 30
0.0
 70
    32
  0
VERTEX
  5
321C
  8
0
 10
1.4464600000000001
 20
12.0352
 30
0.0
 70
    32
  0
VERTEX
  5
321D
  8
0
 10
1.4543699999999999
 20
12.03619999999999
 30
0.0
 70
    32
  0
VERTEX
  5
321E
  8
0
 10
1.46227
 20
12.0373
 30
0.0
 70
    32
  0
VERTEX
  5
321F
  8
0
 10
1.4701599999999999
 20
12.038500000000001
 30
0.0
 70
    32
  0
VERTEX
  5
3220
  8
0
 10
1.4780500000000001
 20
12.039699999999989
 30
0.0
 70
    32
  0
VERTEX
  5
3221
  8
0
 10
1.4859299999999991
 20
12.041
 30
0.0
 70
    32
  0
VERTEX
  5
3222
  8
0
 10
1.4938
 20
12.042400000000001
 30
0.0
 70
    32
  0
VERTEX
  5
3223
  8
0
 10
1.50166
 20
12.043799999999999
 30
0.0
 70
    32
  0
VERTEX
  5
3224
  8
0
 10
1.5095099999999999
 20
12.045299999999999
 30
0.0
 70
    32
  0
VERTEX
  5
3225
  8
0
 10
1.5173499999999991
 20
12.046900000000001
 30
0.0
 70
    32
  0
VERTEX
  5
3226
  8
0
 10
1.52519
 20
12.048500000000001
 30
0.0
 70
    32
  0
VERTEX
  5
3227
  8
0
 10
1.5330099999999991
 20
12.0503
 30
0.0
 70
    32
  0
VERTEX
  5
3228
  8
0
 10
1.540829999999999
 20
12.052
 30
0.0
 70
    32
  0
VERTEX
  5
3229
  8
0
 10
1.5486299999999991
 20
12.053900000000001
 30
0.0
 70
    32
  0
VERTEX
  5
322A
  8
0
 10
1.5564299999999991
 20
12.0558
 30
0.0
 70
    32
  0
VERTEX
  5
322B
  8
0
 10
1.5642100000000001
 20
12.0578
 30
0.0
 70
    32
  0
VERTEX
  5
322C
  8
0
 10
1.571979999999999
 20
12.059900000000001
 30
0.0
 70
    32
  0
VERTEX
  5
322D
  8
0
 10
1.579739999999999
 20
12.061999999999991
 30
0.0
 70
    32
  0
VERTEX
  5
322E
  8
0
 10
1.5874900000000001
 20
12.064299999999999
 30
0.0
 70
    32
  0
VERTEX
  5
322F
  8
0
 10
1.595229999999999
 20
12.066599999999999
 30
0.0
 70
    32
  0
VERTEX
  5
3230
  8
0
 10
1.6029599999999991
 20
12.068899999999999
 30
0.0
 70
    32
  0
VERTEX
  5
3231
  8
0
 10
1.610679999999999
 20
12.071400000000001
 30
0.0
 70
    32
  0
VERTEX
  5
3232
  8
0
 10
1.618379999999999
 20
12.0739
 30
0.0
 70
    32
  0
VERTEX
  5
3233
  8
0
 10
1.6260699999999999
 20
12.076499999999999
 30
0.0
 70
    32
  0
VERTEX
  5
3234
  8
0
 10
1.63375
 20
12.0792
 30
0.0
 70
    32
  0
VERTEX
  5
3235
  8
0
 10
1.6414099999999989
 20
12.081899999999999
 30
0.0
 70
    32
  0
VERTEX
  5
3236
  8
0
 10
1.6490599999999991
 20
12.0847
 30
0.0
 70
    32
  0
VERTEX
  5
3237
  8
0
 10
1.6567000000000001
 20
12.0876
 30
0.0
 70
    32
  0
VERTEX
  5
3238
  8
0
 10
1.66432
 20
12.0906
 30
0.0
 70
    32
  0
VERTEX
  5
3239
  8
0
 10
1.671929999999999
 20
12.0937
 30
0.0
 70
    32
  0
VERTEX
  5
323A
  8
0
 10
1.6795299999999991
 20
12.0968
 30
0.0
 70
    32
  0
VERTEX
  5
323B
  8
0
 10
1.687109999999999
 20
12.100099999999999
 30
0.0
 70
    32
  0
VERTEX
  5
323C
  8
0
 10
1.6946799999999991
 20
12.103400000000001
 30
0.0
 70
    32
  0
VERTEX
  5
323D
  8
0
 10
1.702229999999999
 20
12.1067
 30
0.0
 70
    32
  0
VERTEX
  5
323E
  8
0
 10
1.7097699999999989
 20
12.110200000000001
 30
0.0
 70
    32
  0
VERTEX
  5
323F
  8
0
 10
1.71729
 20
12.1137
 30
0.0
 70
    32
  0
VERTEX
  5
3240
  8
0
 10
1.7248000000000001
 20
12.1172
 30
0.0
 70
    32
  0
VERTEX
  5
3241
  8
0
 10
1.7322999999999991
 20
12.120799999999999
 30
0.0
 70
    32
  0
VERTEX
  5
3242
  8
0
 10
1.7397899999999999
 20
12.124399999999991
 30
0.0
 70
    32
  0
VERTEX
  5
3243
  8
0
 10
1.7472599999999989
 20
12.1281
 30
0.0
 70
    32
  0
VERTEX
  5
3244
  8
0
 10
1.7547200000000001
 20
12.1318
 30
0.0
 70
    32
  0
VERTEX
  5
3245
  8
0
 10
1.76217
 20
12.1355
 30
0.0
 70
    32
  0
VERTEX
  5
3246
  8
0
 10
1.769609999999999
 20
12.139200000000001
 30
0.0
 70
    32
  0
VERTEX
  5
3247
  8
0
 10
1.77704
 20
12.142899999999999
 30
0.0
 70
    32
  0
VERTEX
  5
3248
  8
0
 10
1.784459999999999
 20
12.146599999999999
 30
0.0
 70
    32
  0
VERTEX
  5
3249
  8
0
 10
1.7918700000000001
 20
12.1503
 30
0.0
 70
    32
  0
VERTEX
  5
324A
  8
0
 10
1.799259999999999
 20
12.154
 30
0.0
 70
    32
  0
VERTEX
  5
324B
  8
0
 10
1.8066500000000001
 20
12.1576
 30
0.0
 70
    32
  0
VERTEX
  5
324C
  8
0
 10
1.8140299999999989
 20
12.161199999999999
 30
0.0
 70
    32
  0
VERTEX
  5
324D
  8
0
 10
1.821399999999999
 20
12.1648
 30
0.0
 70
    32
  0
VERTEX
  5
324E
  8
0
 10
1.8287599999999991
 20
12.1683
 30
0.0
 70
    32
  0
VERTEX
  5
324F
  8
0
 10
1.836109999999999
 20
12.17179999999999
 30
0.0
 70
    32
  0
VERTEX
  5
3250
  8
0
 10
1.843459999999999
 20
12.1752
 30
0.0
 70
    32
  0
VERTEX
  5
3251
  8
0
 10
1.8507899999999999
 20
12.178599999999991
 30
0.0
 70
    32
  0
VERTEX
  5
3252
  8
0
 10
1.8581199999999991
 20
12.181800000000001
 30
0.0
 70
    32
  0
VERTEX
  5
3253
  8
0
 10
1.8654500000000001
 20
12.185
 30
0.0
 70
    32
  0
VERTEX
  5
3254
  8
0
 10
1.8727599999999991
 20
12.1881
 30
0.0
 70
    32
  0
VERTEX
  5
3255
  8
0
 10
1.8800699999999999
 20
12.1911
 30
0.0
 70
    32
  0
VERTEX
  5
3256
  8
0
 10
1.8873799999999989
 20
12.194000000000001
 30
0.0
 70
    32
  0
VERTEX
  5
3257
  8
0
 10
1.894679999999999
 20
12.1968
 30
0.0
 70
    32
  0
VERTEX
  5
3258
  8
0
 10
1.9019699999999999
 20
12.1995
 30
0.0
 70
    32
  0
VERTEX
  5
3259
  8
0
 10
1.9092599999999991
 20
12.202
 30
0.0
 70
    32
  0
VERTEX
  5
325A
  8
0
 10
1.9165399999999999
 20
12.204399999999991
 30
0.0
 70
    32
  0
VERTEX
  5
325B
  8
0
 10
1.9238200000000001
 20
12.2067
 30
0.0
 70
    32
  0
VERTEX
  5
325C
  8
0
 10
1.9310999999999989
 20
12.2088
 30
0.0
 70
    32
  0
VERTEX
  5
325D
  8
0
 10
1.9383699999999999
 20
12.210800000000001
 30
0.0
 70
    32
  0
VERTEX
  5
325E
  8
0
 10
1.94564
 20
12.2126
 30
0.0
 70
    32
  0
VERTEX
  5
325F
  8
0
 10
1.952909999999999
 20
12.2143
 30
0.0
 70
    32
  0
VERTEX
  5
3260
  8
0
 10
1.9601699999999991
 20
12.2157
 30
0.0
 70
    32
  0
VERTEX
  5
3261
  8
0
 10
1.96743
 20
12.217000000000001
 30
0.0
 70
    32
  0
VERTEX
  5
3262
  8
0
 10
1.9746900000000001
 20
12.2181
 30
0.0
 70
    32
  0
VERTEX
  5
3263
  8
0
 10
1.9819500000000001
 20
12.219099999999999
 30
0.0
 70
    32
  0
VERTEX
  5
3264
  8
0
 10
1.9892000000000001
 20
12.219799999999999
 30
0.0
 70
    32
  0
VERTEX
  5
3265
  8
0
 10
1.996459999999999
 20
12.2203
 30
0.0
 70
    32
  0
VERTEX
  5
3266
  8
0
 10
2.0037199999999991
 20
12.22059999999999
 30
0.0
 70
    32
  0
VERTEX
  5
3267
  8
0
 10
2.010969999999999
 20
12.22059999999999
 30
0.0
 70
    32
  0
VERTEX
  5
3268
  8
0
 10
2.0182299999999991
 20
12.220499999999999
 30
0.0
 70
    32
  0
VERTEX
  5
3269
  8
0
 10
2.0254799999999991
 20
12.2201
 30
0.0
 70
    32
  0
VERTEX
  5
326A
  8
0
 10
2.0327399999999991
 20
12.2194
 30
0.0
 70
    32
  0
VERTEX
  5
326B
  8
0
 10
2.0399899999999991
 20
12.218500000000001
 30
0.0
 70
    32
  0
VERTEX
  5
326C
  8
0
 10
2.04725
 20
12.217499999999999
 30
0.0
 70
    32
  0
VERTEX
  5
326D
  8
0
 10
2.0544999999999991
 20
12.216200000000001
 30
0.0
 70
    32
  0
VERTEX
  5
326E
  8
0
 10
2.06176
 20
12.214700000000001
 30
0.0
 70
    32
  0
VERTEX
  5
326F
  8
0
 10
2.06901
 20
12.212999999999999
 30
0.0
 70
    32
  0
VERTEX
  5
3270
  8
0
 10
2.076249999999999
 20
12.211199999999989
 30
0.0
 70
    32
  0
VERTEX
  5
3271
  8
0
 10
2.083499999999999
 20
12.209099999999991
 30
0.0
 70
    32
  0
VERTEX
  5
3272
  8
0
 10
2.0907399999999998
 20
12.206899999999999
 30
0.0
 70
    32
  0
VERTEX
  5
3273
  8
0
 10
2.0979799999999988
 20
12.204599999999999
 30
0.0
 70
    32
  0
VERTEX
  5
3274
  8
0
 10
2.10521
 20
12.2021
 30
0.0
 70
    32
  0
VERTEX
  5
3275
  8
0
 10
2.1124299999999989
 20
12.1995
 30
0.0
 70
    32
  0
VERTEX
  5
3276
  8
0
 10
2.11965
 20
12.1968
 30
0.0
 70
    32
  0
VERTEX
  5
3277
  8
0
 10
2.1268699999999998
 20
12.19389999999999
 30
0.0
 70
    32
  0
VERTEX
  5
3278
  8
0
 10
2.134069999999999
 20
12.191000000000001
 30
0.0
 70
    32
  0
VERTEX
  5
3279
  8
0
 10
2.14127
 20
12.187900000000001
 30
0.0
 70
    32
  0
VERTEX
  5
327A
  8
0
 10
2.14846
 20
12.184799999999999
 30
0.0
 70
    32
  0
VERTEX
  5
327B
  8
0
 10
2.1556500000000001
 20
12.1816
 30
0.0
 70
    32
  0
VERTEX
  5
327C
  8
0
 10
2.1628199999999991
 20
12.1783
 30
0.0
 70
    32
  0
VERTEX
  5
327D
  8
0
 10
2.1699799999999989
 20
12.175000000000001
 30
0.0
 70
    32
  0
VERTEX
  5
327E
  8
0
 10
2.1771400000000001
 20
12.1716
 30
0.0
 70
    32
  0
VERTEX
  5
327F
  8
0
 10
2.1842799999999989
 20
12.168200000000001
 30
0.0
 70
    32
  0
VERTEX
  5
3280
  8
0
 10
2.191409999999999
 20
12.1647
 30
0.0
 70
    32
  0
VERTEX
  5
3281
  8
0
 10
2.198529999999999
 20
12.161199999999999
 30
0.0
 70
    32
  0
VERTEX
  5
3282
  8
0
 10
2.2056399999999998
 20
12.1578
 30
0.0
 70
    32
  0
VERTEX
  5
3283
  8
0
 10
2.2127400000000002
 20
12.154299999999999
 30
0.0
 70
    32
  0
VERTEX
  5
3284
  8
0
 10
2.219819999999999
 20
12.1508
 30
0.0
 70
    32
  0
VERTEX
  5
3285
  8
0
 10
2.22689
 20
12.14739999999999
 30
0.0
 70
    32
  0
VERTEX
  5
3286
  8
0
 10
2.23394
 20
12.1439
 30
0.0
 70
    32
  0
VERTEX
  5
3287
  8
0
 10
2.2409799999999991
 20
12.14059999999999
 30
0.0
 70
    32
  0
VERTEX
  5
3288
  8
0
 10
2.248009999999999
 20
12.1372
 30
0.0
 70
    32
  0
VERTEX
  5
3289
  8
0
 10
2.25502
 20
12.133900000000001
 30
0.0
 70
    32
  0
VERTEX
  5
328A
  8
0
 10
2.2620100000000001
 20
12.130699999999999
 30
0.0
 70
    32
  0
VERTEX
  5
328B
  8
0
 10
2.2689799999999991
 20
12.127599999999999
 30
0.0
 70
    32
  0
VERTEX
  5
328C
  8
0
 10
2.2759399999999999
 20
12.124499999999999
 30
0.0
 70
    32
  0
VERTEX
  5
328D
  8
0
 10
2.28288
 20
12.121600000000001
 30
0.0
 70
    32
  0
VERTEX
  5
328E
  8
0
 10
2.2898000000000001
 20
12.1187
 30
0.0
 70
    32
  0
VERTEX
  5
328F
  8
0
 10
2.2966999999999991
 20
12.1159
 30
0.0
 70
    32
  0
VERTEX
  5
3290
  8
0
 10
2.3035799999999989
 20
12.113300000000001
 30
0.0
 70
    32
  0
VERTEX
  5
3291
  8
0
 10
2.310449999999999
 20
12.11079999999999
 30
0.0
 70
    32
  0
VERTEX
  5
3292
  8
0
 10
2.3172899999999998
 20
12.10849999999999
 30
0.0
 70
    32
  0
VERTEX
  5
3293
  8
0
 10
2.3241099999999988
 20
12.106299999999999
 30
0.0
 70
    32
  0
VERTEX
  5
3294
  8
0
 10
2.3309099999999989
 20
12.104200000000001
 30
0.0
 70
    32
  0
VERTEX
  5
3295
  8
0
 10
2.3376899999999998
 20
12.1023
 30
0.0
 70
    32
  0
VERTEX
  5
3296
  8
0
 10
2.3444400000000001
 20
12.1006
 30
0.0
 70
    32
  0
VERTEX
  5
3297
  8
0
 10
2.3511700000000002
 20
12.0991
 30
0.0
 70
    32
  0
VERTEX
  5
3298
  8
0
 10
2.3578799999999989
 20
12.097799999999999
 30
0.0
 70
    32
  0
VERTEX
  5
3299
  8
0
 10
2.3645599999999991
 20
12.0967
 30
0.0
 70
    32
  0
VERTEX
  5
329A
  8
0
 10
2.3712200000000001
 20
12.095800000000001
 30
0.0
 70
    32
  0
VERTEX
  5
329B
  8
0
 10
2.37785
 20
12.0952
 30
0.0
 70
    32
  0
VERTEX
  5
329C
  8
0
 10
2.3844599999999989
 20
12.0947
 30
0.0
 70
    32
  0
VERTEX
  5
329D
  8
0
 10
2.391049999999999
 20
12.0945
 30
0.0
 70
    32
  0
VERTEX
  5
329E
  8
0
 10
2.3976099999999989
 20
12.0945
 30
0.0
 70
    32
  0
VERTEX
  5
329F
  8
0
 10
2.4041600000000001
 20
12.0947
 30
0.0
 70
    32
  0
VERTEX
  5
32A0
  8
0
 10
2.4106900000000002
 20
12.0951
 30
0.0
 70
    32
  0
VERTEX
  5
32A1
  8
0
 10
2.417209999999999
 20
12.095700000000001
 30
0.0
 70
    32
  0
VERTEX
  5
32A2
  8
0
 10
2.423719999999999
 20
12.096399999999999
 30
0.0
 70
    32
  0
VERTEX
  5
32A3
  8
0
 10
2.4302099999999989
 20
12.0974
 30
0.0
 70
    32
  0
VERTEX
  5
32A4
  8
0
 10
2.4367000000000001
 20
12.0985
 30
0.0
 70
    32
  0
VERTEX
  5
32A5
  8
0
 10
2.443179999999999
 20
12.0997
 30
0.0
 70
    32
  0
VERTEX
  5
32A6
  8
0
 10
2.4496500000000001
 20
12.1012
 30
0.0
 70
    32
  0
VERTEX
  5
32A7
  8
0
 10
2.456119999999999
 20
12.1027
 30
0.0
 70
    32
  0
VERTEX
  5
32A8
  8
0
 10
2.4626000000000001
 20
12.1045
 30
0.0
 70
    32
  0
VERTEX
  5
32A9
  8
0
 10
2.469069999999999
 20
12.106299999999999
 30
0.0
 70
    32
  0
VERTEX
  5
32AA
  8
0
 10
2.4755500000000001
 20
12.1083
 30
0.0
 70
    32
  0
VERTEX
  5
32AB
  8
0
 10
2.4820299999999991
 20
12.1104
 30
0.0
 70
    32
  0
VERTEX
  5
32AC
  8
0
 10
2.4885199999999998
 20
12.1126
 30
0.0
 70
    32
  0
VERTEX
  5
32AD
  8
0
 10
2.4950199999999998
 20
12.1149
 30
0.0
 70
    32
  0
VERTEX
  5
32AE
  8
0
 10
2.5015299999999989
 20
12.1174
 30
0.0
 70
    32
  0
VERTEX
  5
32AF
  8
0
 10
2.508049999999999
 20
12.119899999999999
 30
0.0
 70
    32
  0
VERTEX
  5
32B0
  8
0
 10
2.5145900000000001
 20
12.1225
 30
0.0
 70
    32
  0
VERTEX
  5
32B1
  8
0
 10
2.52115
 20
12.1252
 30
0.0
 70
    32
  0
VERTEX
  5
32B2
  8
0
 10
2.5277199999999991
 20
12.1279
 30
0.0
 70
    32
  0
VERTEX
  5
32B3
  8
0
 10
2.5343200000000001
 20
12.130699999999999
 30
0.0
 70
    32
  0
VERTEX
  5
32B4
  8
0
 10
2.5409399999999991
 20
12.133599999999991
 30
0.0
 70
    32
  0
VERTEX
  5
32B5
  8
0
 10
2.54759
 20
12.1365
 30
0.0
 70
    32
  0
VERTEX
  5
32B6
  8
0
 10
2.5542599999999989
 20
12.1395
 30
0.0
 70
    32
  0
VERTEX
  5
32B7
  8
0
 10
2.5609599999999988
 20
12.1425
 30
0.0
 70
    32
  0
VERTEX
  5
32B8
  8
0
 10
2.5676899999999998
 20
12.1456
 30
0.0
 70
    32
  0
VERTEX
  5
32B9
  8
0
 10
2.5744599999999989
 20
12.1486
 30
0.0
 70
    32
  0
VERTEX
  5
32BA
  8
0
 10
2.581259999999999
 20
12.1517
 30
0.0
 70
    32
  0
VERTEX
  5
32BB
  8
0
 10
2.588099999999999
 20
12.1548
 30
0.0
 70
    32
  0
VERTEX
  5
32BC
  8
0
 10
2.5949699999999991
 20
12.1579
 30
0.0
 70
    32
  0
VERTEX
  5
32BD
  8
0
 10
2.60189
 20
12.160999999999991
 30
0.0
 70
    32
  0
VERTEX
  5
32BE
  8
0
 10
2.608849999999999
 20
12.164099999999991
 30
0.0
 70
    32
  0
VERTEX
  5
32BF
  8
0
 10
2.6158600000000001
 20
12.167199999999999
 30
0.0
 70
    32
  0
VERTEX
  5
32C0
  8
0
 10
2.6229100000000001
 20
12.170199999999991
 30
0.0
 70
    32
  0
VERTEX
  5
32C1
  8
0
 10
2.6300099999999991
 20
12.173199999999991
 30
0.0
 70
    32
  0
VERTEX
  5
32C2
  8
0
 10
2.6371599999999988
 20
12.1762
 30
0.0
 70
    32
  0
VERTEX
  5
32C3
  8
0
 10
2.6443599999999989
 20
12.1792
 30
0.0
 70
    32
  0
VERTEX
  5
32C4
  8
0
 10
2.6516099999999989
 20
12.1821
 30
0.0
 70
    32
  0
VERTEX
  5
32C5
  8
0
 10
2.6588899999999991
 20
12.184900000000001
 30
0.0
 70
    32
  0
VERTEX
  5
32C6
  8
0
 10
2.66622
 20
12.1877
 30
0.0
 70
    32
  0
VERTEX
  5
32C7
  8
0
 10
2.673579999999999
 20
12.1905
 30
0.0
 70
    32
  0
VERTEX
  5
32C8
  8
0
 10
2.680979999999999
 20
12.19319999999999
 30
0.0
 70
    32
  0
VERTEX
  5
32C9
  8
0
 10
2.6884000000000001
 20
12.1958
 30
0.0
 70
    32
  0
VERTEX
  5
32CA
  8
0
 10
2.6958599999999988
 20
12.198399999999999
 30
0.0
 70
    32
  0
VERTEX
  5
32CB
  8
0
 10
2.703349999999999
 20
12.200900000000001
 30
0.0
 70
    32
  0
VERTEX
  5
32CC
  8
0
 10
2.7108599999999989
 20
12.2034
 30
0.0
 70
    32
  0
VERTEX
  5
32CD
  8
0
 10
2.718399999999999
 20
12.205799999999989
 30
0.0
 70
    32
  0
VERTEX
  5
32CE
  8
0
 10
2.7259500000000001
 20
12.2082
 30
0.0
 70
    32
  0
VERTEX
  5
32CF
  8
0
 10
2.7335199999999991
 20
12.2104
 30
0.0
 70
    32
  0
VERTEX
  5
32D0
  8
0
 10
2.741109999999999
 20
12.2126
 30
0.0
 70
    32
  0
VERTEX
  5
32D1
  8
0
 10
2.7487099999999991
 20
12.214700000000001
 30
0.0
 70
    32
  0
VERTEX
  5
32D2
  8
0
 10
2.7563200000000001
 20
12.216799999999999
 30
0.0
 70
    32
  0
VERTEX
  5
32D3
  8
0
 10
2.7639299999999989
 20
12.2187
 30
0.0
 70
    32
  0
VERTEX
  5
32D4
  8
0
 10
2.77156
 20
12.22059999999999
 30
0.0
 70
    32
  0
VERTEX
  5
32D5
  8
0
 10
2.7791799999999989
 20
12.2224
 30
0.0
 70
    32
  0
VERTEX
  5
32D6
  8
0
 10
2.78681
 20
12.224099999999989
 30
0.0
 70
    32
  0
VERTEX
  5
32D7
  8
0
 10
2.7944299999999989
 20
12.2257
 30
0.0
 70
    32
  0
VERTEX
  5
32D8
  8
0
 10
2.802049999999999
 20
12.2273
 30
0.0
 70
    32
  0
VERTEX
  5
32D9
  8
0
 10
2.80966
 20
12.2287
 30
0.0
 70
    32
  0
VERTEX
  5
32DA
  8
0
 10
2.8172599999999992
 20
12.23
 30
0.0
 70
    32
  0
VERTEX
  5
32DB
  8
0
 10
2.8248499999999992
 20
12.231199999999991
 30
0.0
 70
    32
  0
VERTEX
  5
32DC
  8
0
 10
2.832419999999999
 20
12.2324
 30
0.0
 70
    32
  0
VERTEX
  5
32DD
  8
0
 10
2.8399799999999988
 20
12.2334
 30
0.0
 70
    32
  0
VERTEX
  5
32DE
  8
0
 10
2.8475099999999989
 20
12.234299999999999
 30
0.0
 70
    32
  0
VERTEX
  5
32DF
  8
0
 10
2.8550299999999988
 20
12.235099999999999
 30
0.0
 70
    32
  0
VERTEX
  5
32E0
  8
0
 10
2.8625199999999991
 20
12.235799999999999
 30
0.0
 70
    32
  0
VERTEX
  5
32E1
  8
0
 10
2.8699799999999991
 20
12.2364
 30
0.0
 70
    32
  0
VERTEX
  5
32E2
  8
0
 10
2.877419999999999
 20
12.236800000000001
 30
0.0
 70
    32
  0
VERTEX
  5
32E3
  8
0
 10
2.8848199999999991
 20
12.2371
 30
0.0
 70
    32
  0
VERTEX
  5
32E4
  8
0
 10
2.8921899999999998
 20
12.237299999999991
 30
0.0
 70
    32
  0
VERTEX
  5
32E5
  8
0
 10
2.8995299999999999
 20
12.237399999999999
 30
0.0
 70
    32
  0
VERTEX
  5
32E6
  8
0
 10
2.9068399999999999
 20
12.237399999999999
 30
0.0
 70
    32
  0
VERTEX
  5
32E7
  8
0
 10
2.91412
 20
12.237299999999991
 30
0.0
 70
    32
  0
VERTEX
  5
32E8
  8
0
 10
2.9213800000000001
 20
12.237
 30
0.0
 70
    32
  0
VERTEX
  5
32E9
  8
0
 10
2.928599999999999
 20
12.23659999999999
 30
0.0
 70
    32
  0
VERTEX
  5
32EA
  8
0
 10
2.93581
 20
12.2361
 30
0.0
 70
    32
  0
VERTEX
  5
32EB
  8
0
 10
2.9429899999999991
 20
12.2355
 30
0.0
 70
    32
  0
VERTEX
  5
32EC
  8
0
 10
2.9501499999999989
 20
12.2348
 30
0.0
 70
    32
  0
VERTEX
  5
32ED
  8
0
 10
2.95729
 20
12.234
 30
0.0
 70
    32
  0
VERTEX
  5
32EE
  8
0
 10
2.9644099999999991
 20
12.2331
 30
0.0
 70
    32
  0
VERTEX
  5
32EF
  8
0
 10
2.971509999999999
 20
12.232100000000001
 30
0.0
 70
    32
  0
VERTEX
  5
32F0
  8
0
 10
2.9786000000000001
 20
12.2309
 30
0.0
 70
    32
  0
VERTEX
  5
32F1
  8
0
 10
2.9856699999999998
 20
12.229699999999999
 30
0.0
 70
    32
  0
VERTEX
  5
32F2
  8
0
 10
2.992729999999999
 20
12.228400000000001
 30
0.0
 70
    32
  0
VERTEX
  5
32F3
  8
0
 10
2.999779999999999
 20
12.226900000000001
 30
0.0
 70
    32
  0
VERTEX
  5
32F4
  8
0
 10
3.0068199999999998
 20
12.2254
 30
0.0
 70
    32
  0
VERTEX
  5
32F5
  8
0
 10
3.0138400000000001
 20
12.223800000000001
 30
0.0
 70
    32
  0
VERTEX
  5
32F6
  8
0
 10
3.020859999999999
 20
12.222099999999999
 30
0.0
 70
    32
  0
VERTEX
  5
32F7
  8
0
 10
3.0278700000000001
 20
12.2202
 30
0.0
 70
    32
  0
VERTEX
  5
32F8
  8
0
 10
3.0348799999999989
 20
12.21829999999999
 30
0.0
 70
    32
  0
VERTEX
  5
32F9
  8
0
 10
3.041879999999999
 20
12.2163
 30
0.0
 70
    32
  0
VERTEX
  5
32FA
  8
0
 10
3.04888
 20
12.2143
 30
0.0
 70
    32
  0
VERTEX
  5
32FB
  8
0
 10
3.0558799999999988
 20
12.2121
 30
0.0
 70
    32
  0
VERTEX
  5
32FC
  8
0
 10
3.0628799999999989
 20
12.209799999999991
 30
0.0
 70
    32
  0
VERTEX
  5
32FD
  8
0
 10
3.0698799999999991
 20
12.2075
 30
0.0
 70
    32
  0
VERTEX
  5
32FE
  8
0
 10
3.0768800000000001
 20
12.205099999999989
 30
0.0
 70
    32
  0
VERTEX
  5
32FF
  8
0
 10
3.0838899999999998
 20
12.2026
 30
0.0
 70
    32
  0
VERTEX
  5
3300
  8
0
 10
3.0908999999999991
 20
12.19999999999999
 30
0.0
 70
    32
  0
VERTEX
  5
3301
  8
0
 10
3.0979199999999998
 20
12.1973
 30
0.0
 70
    32
  0
VERTEX
  5
3302
  8
0
 10
3.10494
 20
12.194599999999991
 30
0.0
 70
    32
  0
VERTEX
  5
3303
  8
0
 10
3.1119599999999989
 20
12.191800000000001
 30
0.0
 70
    32
  0
VERTEX
  5
3304
  8
0
 10
3.1189900000000002
 20
12.189
 30
0.0
 70
    32
  0
VERTEX
  5
3305
  8
0
 10
3.1260300000000001
 20
12.186099999999991
 30
0.0
 70
    32
  0
VERTEX
  5
3306
  8
0
 10
3.13307
 20
12.1831
 30
0.0
 70
    32
  0
VERTEX
  5
3307
  8
0
 10
3.1401099999999991
 20
12.180099999999999
 30
0.0
 70
    32
  0
VERTEX
  5
3308
  8
0
 10
3.147149999999999
 20
12.177099999999999
 30
0.0
 70
    32
  0
VERTEX
  5
3309
  8
0
 10
3.154199999999999
 20
12.174099999999999
 30
0.0
 70
    32
  0
VERTEX
  5
330A
  8
0
 10
3.161249999999999
 20
12.170999999999999
 30
0.0
 70
    32
  0
VERTEX
  5
330B
  8
0
 10
3.168299999999999
 20
12.167899999999999
 30
0.0
 70
    32
  0
VERTEX
  5
330C
  8
0
 10
3.1753599999999991
 20
12.1648
 30
0.0
 70
    32
  0
VERTEX
  5
330D
  8
0
 10
3.1824099999999991
 20
12.161699999999991
 30
0.0
 70
    32
  0
VERTEX
  5
330E
  8
0
 10
3.18947
 20
12.1586
 30
0.0
 70
    32
  0
VERTEX
  5
330F
  8
0
 10
3.1965300000000001
 20
12.1555
 30
0.0
 70
    32
  0
VERTEX
  5
3310
  8
0
 10
3.2035800000000001
 20
12.1524
 30
0.0
 70
    32
  0
VERTEX
  5
3311
  8
0
 10
3.2106400000000002
 20
12.1493
 30
0.0
 70
    32
  0
VERTEX
  5
3312
  8
0
 10
3.2176999999999989
 20
12.1463
 30
0.0
 70
    32
  0
VERTEX
  5
3313
  8
0
 10
3.224759999999999
 20
12.1433
 30
0.0
 70
    32
  0
VERTEX
  5
3314
  8
0
 10
3.231819999999999
 20
12.1403
 30
0.0
 70
    32
  0
VERTEX
  5
3315
  8
0
 10
3.2388799999999991
 20
12.137299999999991
 30
0.0
 70
    32
  0
VERTEX
  5
3316
  8
0
 10
3.24594
 20
12.134399999999999
 30
0.0
 70
    32
  0
VERTEX
  5
3317
  8
0
 10
3.25299
 20
12.131600000000001
 30
0.0
 70
    32
  0
VERTEX
  5
3318
  8
0
 10
3.26004
 20
12.1288
 30
0.0
 70
    32
  0
VERTEX
  5
3319
  8
0
 10
3.2671000000000001
 20
12.12609999999999
 30
0.0
 70
    32
  0
VERTEX
  5
331A
  8
0
 10
3.2741500000000001
 20
12.1234
 30
0.0
 70
    32
  0
VERTEX
  5
331B
  8
0
 10
3.2811900000000001
 20
12.120799999999999
 30
0.0
 70
    32
  0
VERTEX
  5
331C
  8
0
 10
3.2882400000000001
 20
12.118299999999991
 30
0.0
 70
    32
  0
VERTEX
  5
331D
  8
0
 10
3.29528
 20
12.1159
 30
0.0
 70
    32
  0
VERTEX
  5
331E
  8
0
 10
3.302319999999999
 20
12.1135
 30
0.0
 70
    32
  0
VERTEX
  5
331F
  8
0
 10
3.3093499999999989
 20
12.1113
 30
0.0
 70
    32
  0
VERTEX
  5
3320
  8
0
 10
3.3163800000000001
 20
12.109199999999991
 30
0.0
 70
    32
  0
VERTEX
  5
3321
  8
0
 10
3.3234099999999991
 20
12.107100000000001
 30
0.0
 70
    32
  0
VERTEX
  5
3322
  8
0
 10
3.3304299999999998
 20
12.1052
 30
0.0
 70
    32
  0
VERTEX
  5
3323
  8
0
 10
3.33745
 20
12.103400000000001
 30
0.0
 70
    32
  0
VERTEX
  5
3324
  8
0
 10
3.3444599999999989
 20
12.101800000000001
 30
0.0
 70
    32
  0
VERTEX
  5
3325
  8
0
 10
3.351459999999999
 20
12.100199999999999
 30
0.0
 70
    32
  0
VERTEX
  5
3326
  8
0
 10
3.35846
 20
12.098800000000001
 30
0.0
 70
    32
  0
VERTEX
  5
3327
  8
0
 10
3.3654599999999988
 20
12.0976
 30
0.0
 70
    32
  0
VERTEX
  5
3328
  8
0
 10
3.3724500000000002
 20
12.096500000000001
 30
0.0
 70
    32
  0
VERTEX
  5
3329
  8
0
 10
3.3794300000000002
 20
12.095499999999999
 30
0.0
 70
    32
  0
VERTEX
  5
332A
  8
0
 10
3.3864000000000001
 20
12.0947
 30
0.0
 70
    32
  0
VERTEX
  5
332B
  8
0
 10
3.3933699999999991
 20
12.094099999999999
 30
0.0
 70
    32
  0
VERTEX
  5
332C
  8
0
 10
3.4003299999999999
 20
12.0936
 30
0.0
 70
    32
  0
VERTEX
  5
332D
  8
0
 10
3.4072800000000001
 20
12.093299999999999
 30
0.0
 70
    32
  0
VERTEX
  5
332E
  8
0
 10
3.4142199999999989
 20
12.093199999999991
 30
0.0
 70
    32
  0
VERTEX
  5
332F
  8
0
 10
3.4211599999999991
 20
12.093299999999999
 30
0.0
 70
    32
  0
VERTEX
  5
3330
  8
0
 10
3.4280900000000001
 20
12.093500000000001
 30
0.0
 70
    32
  0
VERTEX
  5
3331
  8
0
 10
3.4350000000000001
 20
12.093999999999999
 30
0.0
 70
    32
  0
VERTEX
  5
3332
  8
0
 10
3.44191
 20
12.0947
 30
0.0
 70
    32
  0
VERTEX
  5
3333
  8
0
 10
3.4488199999999991
 20
12.095499999999999
 30
0.0
 70
    32
  0
VERTEX
  5
3334
  8
0
 10
3.4557099999999989
 20
12.096500000000001
 30
0.0
 70
    32
  0
VERTEX
  5
3335
  8
0
 10
3.4626000000000001
 20
12.0976
 30
0.0
 70
    32
  0
VERTEX
  5
3336
  8
0
 10
3.4694799999999999
 20
12.0989
 30
0.0
 70
    32
  0
VERTEX
  5
3337
  8
0
 10
3.4763599999999988
 20
12.1004
 30
0.0
 70
    32
  0
VERTEX
  5
3338
  8
0
 10
3.4832299999999998
 20
12.102
 30
0.0
 70
    32
  0
VERTEX
  5
3339
  8
0
 10
3.4900999999999991
 20
12.1037
 30
0.0
 70
    32
  0
VERTEX
  5
333A
  8
0
 10
3.4969699999999988
 20
12.105600000000001
 30
0.0
 70
    32
  0
VERTEX
  5
333B
  8
0
 10
3.5038299999999998
 20
12.107499999999989
 30
0.0
 70
    32
  0
VERTEX
  5
333C
  8
0
 10
3.5106899999999999
 20
12.1096
 30
0.0
 70
    32
  0
VERTEX
  5
333D
  8
0
 10
3.5175399999999999
 20
12.111700000000001
 30
0.0
 70
    32
  0
VERTEX
  5
333E
  8
0
 10
3.5243899999999999
 20
12.114000000000001
 30
0.0
 70
    32
  0
VERTEX
  5
333F
  8
0
 10
3.53125
 20
12.116300000000001
 30
0.0
 70
    32
  0
VERTEX
  5
3340
  8
0
 10
3.5381
 20
12.1188
 30
0.0
 70
    32
  0
VERTEX
  5
3341
  8
0
 10
3.54495
 20
12.1212
 30
0.0
 70
    32
  0
VERTEX
  5
3342
  8
0
 10
3.5518000000000001
 20
12.123799999999999
 30
0.0
 70
    32
  0
VERTEX
  5
3343
  8
0
 10
3.5586500000000001
 20
12.1264
 30
0.0
 70
    32
  0
VERTEX
  5
3344
  8
0
 10
3.5655000000000001
 20
12.129
 30
0.0
 70
    32
  0
VERTEX
  5
3345
  8
0
 10
3.5723599999999989
 20
12.1317
 30
0.0
 70
    32
  0
VERTEX
  5
3346
  8
0
 10
3.5792099999999989
 20
12.134399999999999
 30
0.0
 70
    32
  0
VERTEX
  5
3347
  8
0
 10
3.586069999999999
 20
12.1371
 30
0.0
 70
    32
  0
VERTEX
  5
3348
  8
0
 10
3.59293
 20
12.139900000000001
 30
0.0
 70
    32
  0
VERTEX
  5
3349
  8
0
 10
3.5998000000000001
 20
12.1426
 30
0.0
 70
    32
  0
VERTEX
  5
334A
  8
0
 10
3.6066699999999989
 20
12.1454
 30
0.0
 70
    32
  0
VERTEX
  5
334B
  8
0
 10
3.6135399999999991
 20
12.148099999999991
 30
0.0
 70
    32
  0
VERTEX
  5
334C
  8
0
 10
3.6204199999999989
 20
12.1508
 30
0.0
 70
    32
  0
VERTEX
  5
334D
  8
0
 10
3.62731
 20
12.15349999999999
 30
0.0
 70
    32
  0
VERTEX
  5
334E
  8
0
 10
3.634199999999999
 20
12.1562
 30
0.0
 70
    32
  0
VERTEX
  5
334F
  8
0
 10
3.6410999999999989
 20
12.15889999999999
 30
0.0
 70
    32
  0
VERTEX
  5
3350
  8
0
 10
3.6480000000000001
 20
12.1615
 30
0.0
 70
    32
  0
VERTEX
  5
3351
  8
0
 10
3.6549099999999992
 20
12.164099999999991
 30
0.0
 70
    32
  0
VERTEX
  5
3352
  8
0
 10
3.6618199999999992
 20
12.166600000000001
 30
0.0
 70
    32
  0
VERTEX
  5
3353
  8
0
 10
3.6687400000000001
 20
12.1691
 30
0.0
 70
    32
  0
VERTEX
  5
3354
  8
0
 10
3.6756599999999988
 20
12.1716
 30
0.0
 70
    32
  0
VERTEX
  5
3355
  8
0
 10
3.682599999999999
 20
12.173999999999999
 30
0.0
 70
    32
  0
VERTEX
  5
3356
  8
0
 10
3.68953
 20
12.176399999999999
 30
0.0
 70
    32
  0
VERTEX
  5
3357
  8
0
 10
3.6964800000000002
 20
12.178699999999999
 30
0.0
 70
    32
  0
VERTEX
  5
3358
  8
0
 10
3.703419999999999
 20
12.18099999999999
 30
0.0
 70
    32
  0
VERTEX
  5
3359
  8
0
 10
3.7103799999999998
 20
12.18329999999999
 30
0.0
 70
    32
  0
VERTEX
  5
335A
  8
0
 10
3.7173400000000001
 20
12.185399999999991
 30
0.0
 70
    32
  0
VERTEX
  5
335B
  8
0
 10
3.72431
 20
12.1876
 30
0.0
 70
    32
  0
VERTEX
  5
335C
  8
0
 10
3.7312799999999999
 20
12.1896
 30
0.0
 70
    32
  0
VERTEX
  5
335D
  8
0
 10
3.738259999999999
 20
12.191599999999999
 30
0.0
 70
    32
  0
VERTEX
  5
335E
  8
0
 10
3.7452499999999991
 20
12.1935
 30
0.0
 70
    32
  0
VERTEX
  5
335F
  8
0
 10
3.75224
 20
12.195399999999999
 30
0.0
 70
    32
  0
VERTEX
  5
3360
  8
0
 10
3.7592400000000001
 20
12.1972
 30
0.0
 70
    32
  0
VERTEX
  5
3361
  8
0
 10
3.766249999999999
 20
12.1989
 30
0.0
 70
    32
  0
VERTEX
  5
3362
  8
0
 10
3.7732600000000001
 20
12.2006
 30
0.0
 70
    32
  0
VERTEX
  5
3363
  8
0
 10
3.7802799999999999
 20
12.2021
 30
0.0
 70
    32
  0
VERTEX
  5
3364
  8
0
 10
3.7873099999999988
 20
12.2036
 30
0.0
 70
    32
  0
VERTEX
  5
3365
  8
0
 10
3.79434
 20
12.205
 30
0.0
 70
    32
  0
VERTEX
  5
3366
  8
0
 10
3.80138
 20
12.206300000000001
 30
0.0
 70
    32
  0
VERTEX
  5
3367
  8
0
 10
3.80843
 20
12.207599999999999
 30
0.0
 70
    32
  0
VERTEX
  5
3368
  8
0
 10
3.81548
 20
12.2087
 30
0.0
 70
    32
  0
VERTEX
  5
3369
  8
0
 10
3.82254
 20
12.209799999999991
 30
0.0
 70
    32
  0
VERTEX
  5
336A
  8
0
 10
3.8296099999999988
 20
12.210699999999999
 30
0.0
 70
    32
  0
VERTEX
  5
336B
  8
0
 10
3.836689999999999
 20
12.211600000000001
 30
0.0
 70
    32
  0
VERTEX
  5
336C
  8
0
 10
3.8437699999999988
 20
12.212300000000001
 30
0.0
 70
    32
  0
VERTEX
  5
336D
  8
0
 10
3.8508599999999991
 20
12.212999999999999
 30
0.0
 70
    32
  0
VERTEX
  5
336E
  8
0
 10
3.8579500000000002
 20
12.2135
 30
0.0
 70
    32
  0
VERTEX
  5
336F
  8
0
 10
3.8650599999999988
 20
12.213900000000001
 30
0.0
 70
    32
  0
VERTEX
  5
3370
  8
0
 10
3.8721699999999988
 20
12.2143
 30
0.0
 70
    32
  0
VERTEX
  5
3371
  8
0
 10
3.8792900000000001
 20
12.21449999999999
 30
0.0
 70
    32
  0
VERTEX
  5
3372
  8
0
 10
3.8864099999999988
 20
12.214600000000001
 30
0.0
 70
    32
  0
VERTEX
  5
3373
  8
0
 10
3.893549999999999
 20
12.21449999999999
 30
0.0
 70
    32
  0
VERTEX
  5
3374
  8
0
 10
3.9006899999999991
 20
12.214399999999999
 30
0.0
 70
    32
  0
VERTEX
  5
3375
  8
0
 10
3.9078400000000002
 20
12.2141
 30
0.0
 70
    32
  0
VERTEX
  5
3376
  8
0
 10
3.9149899999999991
 20
12.213699999999999
 30
0.0
 70
    32
  0
VERTEX
  5
3377
  8
0
 10
3.922159999999999
 20
12.213200000000001
 30
0.0
 70
    32
  0
VERTEX
  5
3378
  8
0
 10
3.9293300000000002
 20
12.2126
 30
0.0
 70
    32
  0
VERTEX
  5
3379
  8
0
 10
3.9365099999999988
 20
12.2118
 30
0.0
 70
    32
  0
VERTEX
  5
337A
  8
0
 10
3.9437000000000002
 20
12.210900000000001
 30
0.0
 70
    32
  0
VERTEX
  5
337B
  8
0
 10
3.9508899999999998
 20
12.209799999999991
 30
0.0
 70
    32
  0
VERTEX
  5
337C
  8
0
 10
3.9580899999999999
 20
12.2087
 30
0.0
 70
    32
  0
VERTEX
  5
337D
  8
0
 10
3.9653
 20
12.2074
 30
0.0
 70
    32
  0
VERTEX
  5
337E
  8
0
 10
3.9725199999999989
 20
12.20609999999999
 30
0.0
 70
    32
  0
VERTEX
  5
337F
  8
0
 10
3.9797500000000001
 20
12.204599999999999
 30
0.0
 70
    32
  0
VERTEX
  5
3380
  8
0
 10
3.98698
 20
12.202999999999991
 30
0.0
 70
    32
  0
VERTEX
  5
3381
  8
0
 10
3.994219999999999
 20
12.2014
 30
0.0
 70
    32
  0
VERTEX
  5
3382
  8
0
 10
4.0014699999999994
 20
12.1996
 30
0.0
 70
    32
  0
VERTEX
  5
3383
  8
0
 10
4.008729999999999
 20
12.197800000000001
 30
0.0
 70
    32
  0
VERTEX
  5
3384
  8
0
 10
4.0159900000000004
 20
12.1958
 30
0.0
 70
    32
  0
VERTEX
  5
3385
  8
0
 10
4.0232599999999987
 20
12.1938
 30
0.0
 70
    32
  0
VERTEX
  5
3386
  8
0
 10
4.0305400000000002
 20
12.191800000000001
 30
0.0
 70
    32
  0
VERTEX
  5
3387
  8
0
 10
4.0378199999999991
 20
12.1896
 30
0.0
 70
    32
  0
VERTEX
  5
3388
  8
0
 10
4.0451199999999989
 20
12.1874
 30
0.0
 70
    32
  0
VERTEX
  5
3389
  8
0
 10
4.0524199999999988
 20
12.1852
 30
0.0
 70
    32
  0
VERTEX
  5
338A
  8
0
 10
4.0597300000000001
 20
12.1829
 30
0.0
 70
    32
  0
VERTEX
  5
338B
  8
0
 10
4.0670400000000004
 20
12.1805
 30
0.0
 70
    32
  0
VERTEX
  5
338C
  8
0
 10
4.0743599999999986
 20
12.178100000000001
 30
0.0
 70
    32
  0
VERTEX
  5
338D
  8
0
 10
4.08169
 20
12.17559999999999
 30
0.0
 70
    32
  0
VERTEX
  5
338E
  8
0
 10
4.0890300000000002
 20
12.1731
 30
0.0
 70
    32
  0
VERTEX
  5
338F
  8
0
 10
4.0963699999999994
 20
12.1706
 30
0.0
 70
    32
  0
VERTEX
  5
3390
  8
0
 10
4.10372
 20
12.168100000000001
 30
0.0
 70
    32
  0
VERTEX
  5
3391
  8
0
 10
4.1110800000000003
 20
12.1655
 30
0.0
 70
    32
  0
VERTEX
  5
3392
  8
0
 10
4.1184399999999997
 20
12.1629
 30
0.0
 70
    32
  0
VERTEX
  5
3393
  8
0
 10
4.12582
 20
12.160299999999991
 30
0.0
 70
    32
  0
VERTEX
  5
3394
  8
0
 10
4.133189999999999
 20
12.1577
 30
0.0
 70
    32
  0
VERTEX
  5
3395
  8
0
 10
4.140579999999999
 20
12.154999999999999
 30
0.0
 70
    32
  0
VERTEX
  5
3396
  8
0
 10
4.147969999999999
 20
12.1524
 30
0.0
 70
    32
  0
VERTEX
  5
3397
  8
0
 10
4.1553699999999987
 20
12.149800000000001
 30
0.0
 70
    32
  0
VERTEX
  5
3398
  8
0
 10
4.1627799999999997
 20
12.1471
 30
0.0
 70
    32
  0
VERTEX
  5
3399
  8
0
 10
4.170189999999999
 20
12.144500000000001
 30
0.0
 70
    32
  0
VERTEX
  5
339A
  8
0
 10
4.1776099999999987
 20
12.1419
 30
0.0
 70
    32
  0
VERTEX
  5
339B
  8
0
 10
4.185039999999999
 20
12.1394
 30
0.0
 70
    32
  0
VERTEX
  5
339C
  8
0
 10
4.1924700000000001
 20
12.136799999999999
 30
0.0
 70
    32
  0
VERTEX
  5
339D
  8
0
 10
4.19991
 20
12.1343
 30
0.0
 70
    32
  0
VERTEX
  5
339E
  8
0
 10
4.2073599999999987
 20
12.1318
 30
0.0
 70
    32
  0
VERTEX
  5
339F
  8
0
 10
4.2148199999999987
 20
12.129300000000001
 30
0.0
 70
    32
  0
VERTEX
  5
33A0
  8
0
 10
4.2222799999999996
 20
12.126899999999999
 30
0.0
 70
    32
  0
VERTEX
  5
33A1
  8
0
 10
4.2297399999999996
 20
12.124499999999999
 30
0.0
 70
    32
  0
VERTEX
  5
33A2
  8
0
 10
4.2372199999999989
 20
12.122199999999999
 30
0.0
 70
    32
  0
VERTEX
  5
33A3
  8
0
 10
4.244699999999999
 20
12.1198
 30
0.0
 70
    32
  0
VERTEX
  5
33A4
  8
0
 10
4.2521899999999997
 20
12.1175
 30
0.0
 70
    32
  0
VERTEX
  5
33A5
  8
0
 10
4.2596899999999991
 20
12.1152
 30
0.0
 70
    32
  0
VERTEX
  5
33A6
  8
0
 10
4.267199999999999
 20
12.113
 30
0.0
 70
    32
  0
VERTEX
  5
33A7
  8
0
 10
4.2747099999999989
 20
12.11079999999999
 30
0.0
 70
    32
  0
VERTEX
  5
33A8
  8
0
 10
4.2822399999999989
 20
12.108599999999999
 30
0.0
 70
    32
  0
VERTEX
  5
33A9
  8
0
 10
4.289769999999999
 20
12.106400000000001
 30
0.0
 70
    32
  0
VERTEX
  5
33AA
  8
0
 10
4.2973099999999986
 20
12.1043
 30
0.0
 70
    32
  0
VERTEX
  5
33AB
  8
0
 10
4.3048599999999988
 20
12.1022
 30
0.0
 70
    32
  0
VERTEX
  5
33AC
  8
0
 10
4.312409999999999
 20
12.100099999999999
 30
0.0
 70
    32
  0
VERTEX
  5
33AD
  8
0
 10
4.3199800000000002
 20
12.098100000000001
 30
0.0
 70
    32
  0
VERTEX
  5
33AE
  8
0
 10
4.3275499999999987
 20
12.0961
 30
0.0
 70
    32
  0
VERTEX
  5
33AF
  8
0
 10
4.3351399999999991
 20
12.094099999999999
 30
0.0
 70
    32
  0
VERTEX
  5
33B0
  8
0
 10
4.3427300000000004
 20
12.0921
 30
0.0
 70
    32
  0
VERTEX
  5
33B1
  8
0
 10
4.3503400000000001
 20
12.0901
 30
0.0
 70
    32
  0
VERTEX
  5
33B2
  8
0
 10
4.3579499999999989
 20
12.088200000000001
 30
0.0
 70
    32
  0
VERTEX
  5
33B3
  8
0
 10
4.3655699999999991
 20
12.0863
 30
0.0
 70
    32
  0
VERTEX
  5
33B4
  8
0
 10
4.3732100000000003
 20
12.0845
 30
0.0
 70
    32
  0
VERTEX
  5
33B5
  8
0
 10
4.3808499999999988
 20
12.082599999999999
 30
0.0
 70
    32
  0
VERTEX
  5
33B6
  8
0
 10
4.3884999999999987
 20
12.0808
 30
0.0
 70
    32
  0
VERTEX
  5
33B7
  8
0
 10
4.3961699999999988
 20
12.079000000000001
 30
0.0
 70
    32
  0
VERTEX
  5
33B8
  8
0
 10
4.4038399999999989
 20
12.077199999999999
 30
0.0
 70
    32
  0
VERTEX
  5
33B9
  8
0
 10
4.4115299999999991
 20
12.0754
 30
0.0
 70
    32
  0
VERTEX
  5
33BA
  8
0
 10
4.4192200000000001
 20
12.073700000000001
 30
0.0
 70
    32
  0
VERTEX
  5
33BB
  8
0
 10
4.4269299999999996
 20
12.071999999999999
 30
0.0
 70
    32
  0
VERTEX
  5
33BC
  8
0
 10
4.4346500000000004
 20
12.0703
 30
0.0
 70
    32
  0
VERTEX
  5
33BD
  8
0
 10
4.4423799999999991
 20
12.0686
 30
0.0
 70
    32
  0
VERTEX
  5
33BE
  8
0
 10
4.4501200000000001
 20
12.067
 30
0.0
 70
    32
  0
VERTEX
  5
33BF
  8
0
 10
4.4578699999999989
 20
12.0654
 30
0.0
 70
    32
  0
VERTEX
  5
33C0
  8
0
 10
4.4656399999999996
 20
12.063800000000001
 30
0.0
 70
    32
  0
VERTEX
  5
33C1
  8
0
 10
4.4734099999999994
 20
12.062200000000001
 30
0.0
 70
    32
  0
VERTEX
  5
33C2
  8
0
 10
4.4812000000000003
 20
12.060600000000001
 30
0.0
 70
    32
  0
VERTEX
  5
33C3
  8
0
 10
4.488999999999999
 20
12.059100000000001
 30
0.0
 70
    32
  0
VERTEX
  5
33C4
  8
0
 10
4.4968099999999991
 20
12.057600000000001
 30
0.0
 70
    32
  0
VERTEX
  5
33C5
  8
0
 10
4.5046400000000002
 20
12.056100000000001
 30
0.0
 70
    32
  0
VERTEX
  5
33C6
  8
0
 10
4.5124699999999986
 20
12.054600000000001
 30
0.0
 70
    32
  0
VERTEX
  5
33C7
  8
0
 10
4.5203100000000003
 20
12.053100000000001
 30
0.0
 70
    32
  0
VERTEX
  5
33C8
  8
0
 10
4.5281599999999989
 20
12.0517
 30
0.0
 70
    32
  0
VERTEX
  5
33C9
  8
0
 10
4.5360199999999988
 20
12.0504
 30
0.0
 70
    32
  0
VERTEX
  5
33CA
  8
0
 10
4.5438900000000002
 20
12.048999999999999
 30
0.0
 70
    32
  0
VERTEX
  5
33CB
  8
0
 10
4.5517599999999989
 20
12.047700000000001
 30
0.0
 70
    32
  0
VERTEX
  5
33CC
  8
0
 10
4.559639999999999
 20
12.0464
 30
0.0
 70
    32
  0
VERTEX
  5
33CD
  8
0
 10
4.5675299999999996
 20
12.045199999999999
 30
0.0
 70
    32
  0
VERTEX
  5
33CE
  8
0
 10
4.5754199999999994
 20
12.044
 30
0.0
 70
    32
  0
VERTEX
  5
33CF
  8
0
 10
4.5833199999999987
 20
12.0428
 30
0.0
 70
    32
  0
VERTEX
  5
33D0
  8
0
 10
4.591219999999999
 20
12.041700000000001
 30
0.0
 70
    32
  0
VERTEX
  5
33D1
  8
0
 10
4.5991299999999997
 20
12.04069999999999
 30
0.0
 70
    32
  0
VERTEX
  5
33D2
  8
0
 10
4.6070399999999996
 20
12.0396
 30
0.0
 70
    32
  0
VERTEX
  5
33D3
  8
0
 10
4.6149500000000003
 20
12.0387
 30
0.0
 70
    32
  0
VERTEX
  5
33D4
  8
0
 10
4.6228600000000002
 20
12.037800000000001
 30
0.0
 70
    32
  0
VERTEX
  5
33D5
  8
0
 10
4.6307799999999997
 20
12.03689999999999
 30
0.0
 70
    32
  0
VERTEX
  5
33D6
  8
0
 10
4.6387
 20
12.036099999999999
 30
0.0
 70
    32
  0
VERTEX
  5
33D7
  8
0
 10
4.6466199999999986
 20
12.035299999999991
 30
0.0
 70
    32
  0
VERTEX
  5
33D8
  8
0
 10
4.654539999999999
 20
12.03459999999999
 30
0.0
 70
    32
  0
VERTEX
  5
33D9
  8
0
 10
4.6624600000000003
 20
12.034000000000001
 30
0.0
 70
    32
  0
VERTEX
  5
33DA
  8
0
 10
4.6703799999999998
 20
12.0334
 30
0.0
 70
    32
  0
VERTEX
  5
33DB
  8
0
 10
4.6783000000000001
 20
12.032899999999991
 30
0.0
 70
    32
  0
VERTEX
  5
33DC
  8
0
 10
4.6862199999999987
 20
12.032400000000001
 30
0.0
 70
    32
  0
VERTEX
  5
33DD
  8
0
 10
4.6941300000000004
 20
12.032
 30
0.0
 70
    32
  0
VERTEX
  5
33DE
  8
0
 10
4.7020400000000002
 20
12.031700000000001
 30
0.0
 70
    32
  0
VERTEX
  5
33DF
  8
0
 10
4.7099500000000001
 20
12.031499999999991
 30
0.0
 70
    32
  0
VERTEX
  5
33E0
  8
0
 10
4.7178599999999991
 20
12.0313
 30
0.0
 70
    32
  0
VERTEX
  5
33E1
  8
0
 10
4.7257600000000002
 20
12.0312
 30
0.0
 70
    32
  0
VERTEX
  5
33E2
  8
0
 10
4.733649999999999
 20
12.0312
 30
0.0
 70
    32
  0
VERTEX
  5
33E3
  8
0
 10
4.7415399999999996
 20
12.0312
 30
0.0
 70
    32
  0
VERTEX
  5
33E4
  8
0
 10
4.7494300000000003
 20
12.0314
 30
0.0
 70
    32
  0
VERTEX
  5
33E5
  8
0
 10
4.757299999999999
 20
12.031599999999999
 30
0.0
 70
    32
  0
VERTEX
  5
33E6
  8
0
 10
4.7651699999999986
 20
12.0318
 30
0.0
 70
    32
  0
VERTEX
  5
33E7
  8
0
 10
4.7730399999999991
 20
12.032199999999991
 30
0.0
 70
    32
  0
VERTEX
  5
33E8
  8
0
 10
4.7808900000000003
 20
12.0327
 30
0.0
 70
    32
  0
VERTEX
  5
33E9
  8
0
 10
4.7887399999999989
 20
12.033200000000001
 30
0.0
 70
    32
  0
VERTEX
  5
33EA
  8
0
 10
4.7965799999999996
 20
12.033799999999999
 30
0.0
 70
    32
  0
VERTEX
  5
33EB
  8
0
 10
4.804409999999999
 20
12.03459999999999
 30
0.0
 70
    32
  0
VERTEX
  5
33EC
  8
0
 10
4.8122299999999996
 20
12.035299999999991
 30
0.0
 70
    32
  0
VERTEX
  5
33ED
  8
0
 10
4.8200500000000002
 20
12.03619999999999
 30
0.0
 70
    32
  0
VERTEX
  5
33EE
  8
0
 10
4.8278499999999989
 20
12.037100000000001
 30
0.0
 70
    32
  0
VERTEX
  5
33EF
  8
0
 10
4.8356500000000002
 20
12.0382
 30
0.0
 70
    32
  0
VERTEX
  5
33F0
  8
0
 10
4.8434499999999989
 20
12.039300000000001
 30
0.0
 70
    32
  0
VERTEX
  5
33F1
  8
0
 10
4.8512300000000002
 20
12.040399999999989
 30
0.0
 70
    32
  0
VERTEX
  5
33F2
  8
0
 10
4.8590099999999987
 20
12.041600000000001
 30
0.0
 70
    32
  0
VERTEX
  5
33F3
  8
0
 10
4.8667899999999991
 20
12.042899999999999
 30
0.0
 70
    32
  0
SEQEND
  5
33F4
  8
0
  0
LINE
  5
33F5
  8
OBJECT
 10
1.2467850659560951
 20
12.02940150752109
 30
0.0
 11
1.2467850659560951
 21
8.8874027836976932
 31
0.0
  0
POLYLINE
  5
33F6
  8
OBJECT
 66
     1
 10
0.0
 20
0.0
 30
0.0
  0
VERTEX
  5
39AA
  8
OBJECT
 10
1.196313395942552
 20
12.033243743825841
 30
0.0
  0
VERTEX
  5
39AB
  8
OBJECT
 10
1.196313395942552
 20
9.0474027836976951
 30
0.0
  0
VERTEX
  5
39AC
  8
OBJECT
 10
1.2467850659560951
 20
9.0474027836976951
 30
0.0
  0
SEQEND
  5
39AD
  8
OBJECT
  0
LINE
  5
33FB
  8
HIDDEN
 10
4.7467850659561002
 20
12.031299519346581
 30
0.0
 11
4.7467850659561002
 21
14.9774027836977
 31
0.0
  0
LINE
  5
33FC
  8
HIDDEN
 10
4.806785065956098
 20
12.03478337693363
 30
0.0
 11
4.806785065956098
 21
14.837402783697691
 31
0.0
  0
DIMENSION
  5
33FD
  8
DIM
  2
*D41
 10
4.7387850659560957
 20
4.5949347653921446
 30
0.0
 11
2.9967850659560979
 21
4.5949347653921446
 31
0.0
 70
     0
 13
1.2547850659560991
 23
4.2544337922827422
 33
0.0
 14
4.7387850659560957
 24
4.2544337922827422
 34
0.0
  0
DIMENSION
  5
340B
  8
DIM
  2
*D42
 10
0.9109005603331608
 20
3.0854337922827431
 30
0.0
 11
0.9109005603331604
 21
3.6854337922827418
 31
0.0
 70
     0
  1
H
 13
1.2857850659560981
 23
4.285433792282741
 33
0.0
 14
1.2857850659560981
 24
3.0854337922827422
 34
0.0
 50
90.0
  0
DIMENSION
  5
3419
  8
DIM
  2
*D43
 10
5.6732892812819111
 20
3.1569337922827412
 30
0.0
 11
5.6732892812819102
 21
3.6854337922827431
 31
0.0
 70
   128
  1
J EXPOSED PANEL
 13
4.6598624840214047
 23
4.2139337922827433
 33
0.0
 14
4.6598624840214047
 24
3.1569337922827421
 34
0.0
 50
90.0
  0
DIMENSION
  5
3427
  8
DIM
  2
*D44
 10
4.6598624840214047
 20
2.814082723942759
 30
0.0
 11
2.9967850659560988
 21
2.3775827239427589
 31
0.0
 70
     0
  1
<> EXPOSED PANEL
 13
1.3337076478907921
 23
3.1569337922827421
 33
0.0
 14
4.6598624840214047
 24
3.1569337922827421
 34
0.0
  0
DIMENSION
  5
3434
  8
DIM
  2
*D45
 10
4.8667850659561012
 20
7.0425461151075499
 30
0.0
 11
2.9967850659561002
 21
7.0425461151075499
 31
0.0
 70
   128
 13
1.126785065956099
 23
6.0783983120286491
 33
0.0
 14
4.8667850659561012
 24
6.0783983120286491
 34
0.0
  0
DIMENSION
  5
3442
  8
DIM
  2
*D46
 10
11.09028969472705
 20
9.8552194998424767
 30
0.0
 11
10.65778969472705
 21
10.15109449984247
 31
0.0
 70
     0
  1
E
 13
10.225289694727049
 23
9.6784027836976936
 33
0.0
 14
11.09028969472705
 24
9.6784027836976936
 34
0.0
  0
DIMENSION
  5
344F
  8
DIM
  2
*D47
 10
10.069289694727059
 20
10.620520558835381
 30
0.0
 11
10.65778969472705
 21
10.620520558835381
 31
0.0
 70
     0
  1
D
 13
11.24628969472705
 23
10.47652055883538
 33
0.0
 14
10.069289694727059
 24
10.47652055883538
 34
0.0
  0
DIMENSION
  5
345D
  8
DIM
  2
*D48
 10
11.36628969472704
 20
11.462068175670399
 30
0.0
 11
11.026289694727041
 21
11.7579431756704
 31
0.0
 70
     0
  1
F
 13
10.68628969472705
 23
11.21340278369768
 33
0.0
 14
11.36628969472704
 24
11.21340278369768
 34
0.0
  0
DIMENSION
  5
346A
  8
DIM
  2
*D49
 10
9.9492896947270584
 20
12.36787155057122
 30
0.0
 11
10.289289694727049
 21
11.931371550571219
 31
0.0
 70
     0
  1
G
 13
10.62928969472704
 23
12.651402783697691
 33
0.0
 14
9.9492896947270584
 24
12.651402783697691
 34
0.0
  0
DIMENSION
  5
3477
  8
DIM
  2
*D50
 10
9.9492896947270584
 20
10.620520558835381
 30
0.0
 11
10.00928969472705
 21
10.916395558835379
 31
0.0
 70
     0
  1
<> TYP.
 13
10.069289694727059
 23
10.47652055883538
 33
0.0
 14
9.9492896947270584
 24
10.47652055883538
 34
0.0
  0
DIMENSION
  5
3485
  8
DIM
  2
*D51
 10
10.06928969472705
 20
13.970827100253709
 30
0.0
 11
10.147289694727039
 21
13.534327100253719
 31
0.0
 70
     0
  1
<> TYP.
 13
10.22528969472704
 23
14.18640278369768
 33
0.0
 14
10.06928969472705
 24
14.18640278369768
 34
0.0
  0
DIMENSION
  5
3493
  8
DIM
  2
*D52
 10
2.0127850659560971
 20
15.4774027836977
 30
0.0
 11
2.9967850659560971
 21
15.4774027836977
 31
0.0
 70
     0
 13
3.980785065956097
 23
14.294402783697681
 33
0.0
 14
2.0127850659560971
 24
14.294402783697681
 34
0.0
  0
DIMENSION
  5
34A1
  8
DIM
  2
*D53
 10
1.126785065956099
 20
15.4774027836977
 30
0.0
 11
1.8735350659560981
 21
15.77327778369769
 31
0.0
 70
     0
 13
2.0127850659560971
 23
14.294402783697681
 33
0.0
 14
1.126785065956099
 24
15.042402783697691
 34
0.0
1001
ACAD
1000
DSTYLE
1002
{
1070
   287
1070
     4
1070
   287
1070
     4
1070
   279
1070
     1
1002
}
  0
DIMENSION
  5
34AE
  8
DIM
  2
*D54
 10
0.771825210723037
 20
9.5704027836976966
 30
0.0
 11
0.7718252107230357
 21
11.93240278369769
 31
0.0
 70
     0
 13
2.0127850659561002
 23
14.294402783697681
 33
0.0
 14
2.0127850659561002
 24
9.5704027836976966
 34
0.0
 50
90.0
  0
DIMENSION
  5
34BC
  8
DIM
  2
*D55
 10
0.771825210723037
 20
8.8224027836976973
 30
0.0
 11
0.1722002107230356
 21
9.196402783697696
 31
0.0
 70
     0
 13
2.0127850659561002
 23
9.5704027836976966
 33
0.0
 14
1.126785065956099
 24
8.8224027836976973
 34
0.0
 50
90.0
1001
ACAD
1000
DSTYLE
1002
{
1070
   287
1070
     4
1070
   287
1070
     4
1070
   279
1070
     1
1002
}
  0
DIMENSION
  5
34C9
  8
DIM
  2
*D56
 10
1.126785065956099
 20
8.2537933590527732
 30
0.0
 11
1.2842850659560969
 21
7.8172933590527727
 31
0.0
 70
     0
 13
1.441785065956096
 23
9.2164027836976956
 33
0.0
 14
1.126785065956099
 24
8.8224027836976973
 34
0.0
  0
DIMENSION
  5
34D7
  8
DIM
  2
*D57
 10
5.2557031661886473
 20
8.8224027836976973
 30
0.0
 11
5.2557031661886464
 21
9.0194027836976982
 31
0.0
 70
     0
 13
4.5517850659561043
 23
9.2164027836976956
 33
0.0
 14
4.8667850659561012
 24
8.8224027836976973
 34
0.0
 50
90.0
  0
DIMENSION
  5
34E5
  8
DIM
  2
*D58
 10
1.301785065956099
 20
10.77759906265816
 30
0.0
 11
2.9967850659560979
 21
10.77759906265816
 31
0.0
 70
     0
 13
4.691785065956096
 23
10.385402783697691
 33
0.0
 14
1.301785065956099
 24
10.385402783697691
 34
0.0
  0
DIMENSION
  5
34F3
  8
DIM
  2
*D59
 10
4.442785065956099
 20
10.227402783697681
 30
0.0
 11
4.1469100659560976
 21
10.276402783697691
 31
0.0
 70
     0
  1
<> TYP.
 13
4.6917850659560987
 23
10.32540278369769
 33
0.0
 14
4.6917850659560987
 24
10.227402783697681
 34
0.0
 50
270.0
  0
DIMENSION
  5
3501
  8
DIM
  2
*D60
 10
1.2467850659561031
 20
10.55396886592678
 30
0.0
 11
2.22991006595612
 21
10.55396886592678
 31
0.0
 70
   128
  1
<> TYP.
 13
1.3017850659561201
 23
10.385402783697691
 33
0.0
 14
1.2467850659561031
 24
10.385402783697691
 34
0.0
 50
180.0
  0
DIMENSION
  5
350F
  8
DIM
  2
*D61
 10
4.7467850659560948
 20
11.724720423711529
 30
0.0
 11
4.8067850659560953
 21
11.288220423711531
 31
0.0
 70
     0
  1
<> TYP.
 13
4.8667850659560941
 23
11.78772042371153
 33
0.0
 14
4.7467850659560948
 24
11.78772042371153
 34
0.0
  0
DIMENSION
  5
351D
  8
DIM
  2
*D62
 10
4.8667850659561012
 20
8.2537933590527732
 30
0.0
 11
4.7092850659561023
 21
7.8172933590527727
 31
0.0
 70
     0
 13
4.5517850659561043
 23
9.2164027836976956
 33
0.0
 14
4.8667850659561012
 24
8.8224027836976973
 34
0.0
 50
180.0
  0
DIMENSION
  5
352B
  8
DIM
  2
*D63
 10
5.2557031661886473
 20
15.042402783697691
 30
0.0
 11
5.2557031661886437
 21
14.84540278369769
 31
0.0
 70
     0
 13
4.5517850659561043
 23
14.648402783697691
 33
0.0
 14
4.8667850659561012
 24
15.042402783697691
 34
0.0
 50
270.0
  0
DIMENSION
  5
3539
  8
DIM
  2
*D64
 10
6.7071596331002867
 20
8.8224027836976973
 30
0.0
 11
6.7071596331002858
 21
11.93240278369769
 31
0.0
 70
     0
 13
7.037769546353676
 23
15.042402783697691
 33
0.0
 14
7.037769546353676
 24
8.8224027836976973
 34
0.0
 50
90.0
  0
DIMENSION
  5
3547
  8
DIM
  2
*D65
 10
2.6746102488593322
 20
14.837402783697691
 30
0.0
 11
2.67461024885933
 21
11.93240278369769
 31
0.0
 70
     0
 13
2.7376102488593319
 23
9.0274027836976956
 33
0.0
 14
2.7376102488593319
 24
14.837402783697691
 34
0.0
 50
90.0
  0
DIMENSION
  5
3555
  8
DIM
  2
*D66
 10
4.7467850659561019
 20
11.453006199483079
 30
0.0
 11
2.9967850659561011
 21
11.453006199483079
 31
0.0
 70
     0
 13
1.2467850659560991
 23
11.516006199483069
 33
0.0
 14
4.7467850659561019
 24
11.516006199483069
 34
0.0
  0
DIMENSION
  5
3563
  8
DIM
  2
*D67
 10
7.037769546353676
 20
15.570402783697689
 30
0.0
 11
7.382269546353684
 21
15.86627778369769
 31
0.0
 70
     0
  1
C
 13
7.7267695463536921
 23
15.042402783697691
 33
0.0
 14
7.037769546353676
 24
15.042402783697691
 34
0.0
  0
DIMENSION
  5
3570
  8
DIM
  2
*D68
 10
8.4547695463536741
 20
15.849402783697689
 30
0.0
 11
7.746269546353675
 21
15.849402783697689
 31
0.0
 70
     0
  1
A
 13
7.037769546353676
 23
15.042402783697691
 33
0.0
 14
8.4547695463536741
 24
15.042402783697691
 34
0.0
  0
DIMENSION
  5
357E
  8
DIM
  2
*D69
 10
8.4547695463536741
 20
15.29140278369769
 30
0.0
 11
8.1102695463536776
 21
15.58727778369769
 31
0.0
 70
     0
  1
B
 13
7.765769546353682
 23
15.042402783697691
 33
0.0
 14
8.4547695463536741
 24
15.042402783697691
 34
0.0
  0
LINE
  5
358B
  8
TITLE
 10
0.0697499999999973
 20
0.3041250000000012
 30
0.0
 11
11.855249999999989
 21
0.3041250000000012
 31
0.0
  0
LINE
  5
358C
  8
TITLE
 10
0.0697499999999973
 20
0.7728750000000011
 30
0.0
 11
11.855249999999989
 21
0.7728750000000011
 31
0.0
  0
LINE
  5
358D
  8
TITLE
 10
0.0697499999999973
 20
0.5385000000000011
 30
0.0
 11
11.855249999999989
 21
0.5385000000000011
 31
0.0
  0
LINE
  5
358E
  8
TITLE
 10
0.0697499999999974
 20
1.2416249999999991
 30
0.0
 11
11.855249999999989
 21
1.2416249999999991
 31
0.0
  0
TEXT
  5
358F
  8
TEXT
 10
1.8670038159561
 20
3.7439337922827409
 30
0.0
 40
0.1755
  1
PANEL - 0.090 THICK
 41
0.75
 72
     4
 11
2.9967850659561002
 21
3.8316837922827411
 31
0.0
  0
POLYLINE
  5
3590
  8
0
 66
     1
 10
0.0
 20
0.0
 30
0.0
 70
     8
  0
VERTEX
  5
3591
  8
0
 10
2.0712899999999999
 20
9.4796199999999988
 30
0.0
 70
    32
  0
VERTEX
  5
3592
  8
0
 10
2.30891
 20
8.0373300000000008
 30
0.0
 70
    32
  0
VERTEX
  5
3593
  8
0
 10
2.5114099999999988
 20
8.0373300000000008
 30
0.0
 70
    32
  0
SEQEND
  5
3594
  8
0
  0
INSERT
  5
3595
  8
OBJECT
  2
*U37
 10
0.0
 20
0.0
 30
0.0
  0
POLYLINE
  5
3596
  8
0
 66
     1
 10
0.0
 20
0.0
 30
0.0
 70
     8
  0
VERTEX
  5
3597
  8
0
 10
2.8729299999999989
 20
15.2104
 30
0.0
 70
    32
  0
VERTEX
  5
3598
  8
0
 10
3.2469000000000001
 20
15.2104
 30
0.0
 70
    32
  0
VERTEX
  5
3599
  8
0
 10
3.2469000000000001
 20
8.6665799999999997
 30
0.0
 70
    32
  0
SEQEND
  5
359A
  8
0
  0
POLYLINE
  5
359B
  8
0
 66
     1
 10
0.0
 20
0.0
 30
0.0
 70
     8
  0
VERTEX
  5
359C
  8
0
 10
2.8729299999999989
 20
8.6665799999999997
 30
0.0
 70
    32
  0
VERTEX
  5
359D
  8
0
 10
3.2469000000000001
 20
8.6665799999999997
 30
0.0
 70
    32
  0
SEQEND
  5
359E
  8
0
  0
TEXT
  5
359F
  8
TEXT
 10
3.3194780224456251
 20
15.122857580166521
 30
0.0
 40
0.175
  1
A
  7
SANSSERIF
 72
     4
 11
3.3778113557789591
 21
15.210357580166519
 31
0.0
  0
TEXT
  5
35A0
  8
TEXT
 10
3.3194780224456251
 20
8.5790798946965747
 30
0.0
 40
0.175
  1
A
  7
SANSSERIF
 72
     4
 11
3.3778113557789591
 21
8.6665798946965751
 31
0.0
  0
POLYLINE
  5
35A1
  8
0
 66
     1
 10
0.0
 20
0.0
 30
0.0
 70
     8
  0
VERTEX
  5
35A2
  8
0
 10
4.4519000000000002
 20
14.7576
 30
0.0
 70
    32
  0
VERTEX
  5
35A3
  8
0
 10
4.1835899999999997
 20
16.211600000000001
 30
0.0
 70
    32
  0
VERTEX
  5
35A4
  8
0
 10
3.98109
 20
16.211600000000001
 30
0.0
 70
    32
  0
SEQEND
  5
35A5
  8
0
  0
INSERT
  5
35A6
  8
OBJECT
  2
*U38
 10
0.0
 20
0.0
 30
0.0
  0
TEXT
  5
35A7
  8
TEXT
 10
9.6218632002590372
 20
8.3379802226965491
 30
0.0
 40
0.175
  1
%%uSECTION "A-A"
  7
SANSSERIF
 72
     4
 11
10.64561320025903
 21
8.4079802226965512
 31
0.0
  0
TEXT
  5
35A8
  8
TEXT
 10
2.82375
 20
17.224875000000001
 30
0.0
 40
0.1755
  1
PLASTICASE
 41
0.75
 72
     4
 11
3.4380000000000002
 21
17.312625000000001
 31
0.0
  0
TEXT
  5
35A9
  8
TEXT
 10
7.676437500000004
 20
17.2395
 30
0.0
 40
0.1755
  1
PC-11460, PC-11461 & PC-11462
 41
0.75
 72
     4
 11
9.3656250000000032
 21
17.312625000000001
 31
0.0
  0
LINE
  5
35AA
  8
TITLE
 10
1.2543749999999949
 20
1.2416249999999991
 30
0.0
 11
1.2543749999999949
 21
0.0697500000000011
 31
0.0
  0
LINE
  5
35AB
  8
TITLE
 10
2.4322499999999958
 20
1.2416249999999991
 30
0.0
 11
2.432249999999994
 21
0.0697500000000011
 31
0.0
  0
LINE
  5
35AC
  8
TITLE
 10
3.610124999999996
 20
1.2416249999999991
 30
0.0
 11
3.610124999999996
 21
0.0697500000000011
 31
0.0
  0
LINE
  5
35AD
  8
TITLE
 10
4.7879999999999958
 20
1.2416249999999991
 30
0.0
 11
4.7879999999999949
 21
0.0697500000000011
 31
0.0
  0
LINE
  5
35AE
  8
TITLE
 10
5.965874999999996
 20
1.2416249999999991
 30
0.0
 11
5.965874999999996
 21
0.0697500000000011
 31
0.0
  0
LINE
  5
35AF
  8
TITLE
 10
7.1437499999999963
 20
1.2416249999999991
 30
0.0
 11
7.1437499999999954
 21
0.0697500000000011
 31
0.0
  0
LINE
  5
35B0
  8
TITLE
 10
8.3216249999999974
 20
1.2416249999999991
 30
0.0
 11
8.3216249999999956
 21
0.0697500000000011
 31
0.0
  0
LINE
  5
35B1
  8
TITLE
 10
9.4994999999999976
 20
1.2416249999999991
 30
0.0
 11
9.4994999999999941
 21
0.0697500000000011
 31
0.0
  0
LINE
  5
35B2
  8
TITLE
 10
10.677374999999991
 20
1.2416249999999991
 30
0.0
 11
10.677374999999991
 21
0.0697500000000011
 31
0.0
  0
TEXT
  5
35B3
  8
TEXT
 10
0.2929218749999972
 20
0.9369374999999999
 30
0.0
 40
0.140625
  1
PART NO.
 41
0.75
 72
     4
 11
0.6620624999999972
 21
1.0072499999999991
 31
0.0
  0
TEXT
  5
35B4
  8
TEXT
 10
1.808156249999995
 20
0.9369374999999999
 30
0.0
 40
0.140625
  1
A
 41
0.75
 72
     4
 11
1.843312499999995
 21
1.0072499999999991
 31
0.0
  0
TEXT
  5
35B5
  8
TEXT
 10
0.3017109374999975
 20
0.5853750000000011
 30
0.0
 40
0.140625
  1
PC-11460
 41
0.75
 72
     4
 11
0.6620624999999974
 21
0.6556875000000011
 31
0.0
  0
TEXT
  5
35B6
  8
TEXT
 10
1.667531249999995
 20
0.5853750000000011
 30
0.0
 40
0.140625
  1
1.417
 41
0.75
 72
     4
 11
1.843312499999995
 21
0.6556875000000011
 31
0.0
  0
TEXT
  5
35B7
  8
TEXT
 10
0.5416249999999976
 20
0.5828333333333343
 30
0.0
 40
0.125
  1
 
 41
0.75
 72
     4
 11
0.5884999999999976
 21
0.5828333333333343
 31
0.0
  0
TEXT
  5
35B8
  8
TEXT
 10
0.3104999999999975
 20
0.3510000000000012
 30
0.0
 40
0.140625
  1
PC-11461
 41
0.75
 72
     4
 11
0.6620624999999974
 21
0.4213125000000013
 31
0.0
  0
TEXT
  5
35B9
  8
TEXT
 10
0.2929218749999975
 20
0.1166250000000011
 30
0.0
 40
0.140625
  1
PC-11462
 41
0.75
 72
     4
 11
0.6620624999999974
 21
0.1869375000000011
 31
0.0
  0
TEXT
  5
35BA
  8
TEXT
 10
1.603188703809862
 20
0.5871066726435004
 30
0.0
 40
0.125
  1
 
 41
0.75
 72
     4
 11
1.650063703809862
 21
0.5871066726435004
 31
0.0
  0
TEXT
  5
35BB
  8
TEXT
 10
1.671751354286096
 20
0.3558075067239379
 30
0.0
 40
0.140625
  1
1.850
 41
0.75
 72
     4
 11
1.856321666786096
 21
0.4261200067239379
 31
0.0
  0
TEXT
  5
35BC
  8
TEXT
 10
1.645384166786096
 20
0.1214325067239379
 30
0.0
 40
0.140625
  1
2.283
 41
0.75
 72
     4
 11
1.856321666786096
 21
0.1917450067239379
 31
0.0
  0
TEXT
  5
35BD
  8
TEXT
 10
2.8190390624999959
 20
0.5853750000000011
 30
0.0
 40
0.140625
  1
0.689
 41
0.75
 72
     4
 11
3.021187499999995
 21
0.6556875000000011
 31
0.0
  0
TEXT
  5
35BE
  8
TEXT
 10
2.9860312499999959
 20
0.9369374999999999
 30
0.0
 40
0.140625
  1
B
 41
0.75
 72
     4
 11
3.021187499999995
 21
1.0072499999999991
 31
0.0
  0
TEXT
  5
35BF
  8
TEXT
 10
3.9969140624999948
 20
0.5853750000000011
 30
0.0
 40
0.140625
  1
0.689
 41
0.75
 72
     4
 11
4.1990624999999948
 21
0.6556875000000011
 31
0.0
  0
TEXT
  5
35C0
  8
TEXT
 10
4.1639062499999948
 20
0.9369374999999999
 30
0.0
 40
0.140625
  1
C
 41
0.75
 72
     4
 11
4.1990624999999948
 21
1.0072499999999991
 31
0.0
  0
TEXT
  5
35C1
  8
TEXT
 10
5.201156249999995
 20
0.5853750000000011
 30
0.0
 40
0.140625
  1
1.177
 41
0.75
 72
     4
 11
5.376937499999995
 21
0.6556875000000011
 31
0.0
  0
TEXT
  5
35C2
  8
TEXT
 10
5.341781249999995
 20
0.9369374999999999
 30
0.0
 40
0.140625
  1
D
 41
0.75
 72
     4
 11
5.376937499999995
 21
1.0072499999999991
 31
0.0
  0
TEXT
  5
35C3
  8
TEXT
 10
6.3526640624999962
 20
0.5853750000000011
 30
0.0
 40
0.140625
  1
0.865
 41
0.75
 72
     4
 11
6.5548124999999962
 21
0.6556875000000011
 31
0.0
  0
TEXT
  5
35C4
  8
TEXT
 10
6.5196562499999962
 20
0.9369374999999999
 30
0.0
 40
0.140625
  1
E
 41
0.75
 72
     4
 11
6.5548124999999962
 21
1.0072499999999991
 31
0.0
  0
TEXT
  5
35C5
  8
TEXT
 10
7.5393281249999928
 20
0.5853750000000011
 30
0.0
 40
0.140625
  1
0.680
 41
0.75
 72
     4
 11
7.7326874999999928
 21
0.6556875000000011
 31
0.0
  0
TEXT
  5
35C6
  8
TEXT
 10
7.6975312499999928
 20
0.9369374999999999
 30
0.0
 40
0.140625
  1
F
 41
0.75
 72
     4
 11
7.7326874999999928
 21
1.0072499999999991
 31
0.0
  0
TEXT
  5
35C7
  8
TEXT
 10
8.7172031249999975
 20
0.5853750000000011
 30
0.0
 40
0.140625
  1
0.680
 41
0.75
 72
     4
 11
8.9105624999999975
 21
0.6556875000000011
 31
0.0
  0
TEXT
  5
35C8
  8
TEXT
 10
8.8754062499999975
 20
0.9369374999999999
 30
0.0
 40
0.140625
  1
G
 41
0.75
 72
     4
 11
8.9105624999999975
 21
1.0072499999999991
 31
0.0
  0
TEXT
  5
35C9
  8
TEXT
 10
9.9126562499999924
 20
0.5853750000000011
 30
0.0
 40
0.140625
  1
1.200
 41
0.75
 72
     4
 11
10.088437499999991
 21
0.6556875000000011
 31
0.0
  0
TEXT
  5
35CA
  8
TEXT
 10
10.053281249999991
 20
0.9369374999999999
 30
0.0
 40
0.140625
  1
H
 41
0.75
 72
     4
 11
10.088437499999991
 21
1.0072499999999991
 31
0.0
  0
TEXT
  5
35CB
  8
TEXT
 10
11.081742187499991
 20
0.5853750000000011
 30
0.0
 40
0.140625
  1
1.057
 41
0.75
 72
     4
 11
11.266312499999991
 21
0.6556875000000011
 31
0.0
  0
TEXT
  5
35CC
  8
TEXT
 10
11.231156249999991
 20
0.9369374999999999
 30
0.0
 40
0.140625
  1
J
 41
0.75
 72
     4
 11
11.266312499999991
 21
1.0072499999999991
 31
0.0
  0
TEXT
  5
35CD
  8
TEXT
 10
2.8190390624999959
 20
0.3510000000000013
 30
0.0
 40
0.140625
  1
0.689
 41
0.75
 72
     4
 11
3.021187499999995
 21
0.4213125000000013
 31
0.0
  0
TEXT
  5
35CE
  8
TEXT
 10
7.5393281249999928
 20
0.3510000000000013
 30
0.0
 40
0.140625
  1
0.680
 41
0.75
 72
     4
 11
7.7326874999999928
 21
0.4213125000000013
 31
0.0
  0
TEXT
  5
35CF
  8
TEXT
 10
2.6386249999999949
 20
0.3745000000000011
 30
0.0
 40
0.125
  1
 
 41
0.75
 72
     4
 11
2.6854999999999949
 21
0.3745000000000011
 31
0.0
  0
TEXT
  5
35D0
  8
TEXT
 10
2.8454062499999959
 20
0.1166250000000012
 30
0.0
 40
0.140625
  1
1.122
 41
0.75
 72
     4
 11
3.021187499999995
 21
0.1869375000000012
 31
0.0
  0
TEXT
  5
35D1
  8
TEXT
 10
3.685624999999995
 20
0.5828333333333343
 30
0.0
 40
0.125
  1
 
 41
0.75
 72
     4
 11
3.732499999999995
 21
0.5828333333333343
 31
0.0
  0
TEXT
  5
35D2
  8
TEXT
 10
4.0232812499999948
 20
0.3510000000000012
 30
0.0
 40
0.140625
  1
1.122
 41
0.75
 72
     4
 11
4.1990624999999948
 21
0.4213125000000013
 31
0.0
  0
TEXT
  5
35D3
  8
TEXT
 10
4.0232812499999948
 20
0.1166250000000011
 30
0.0
 40
0.140625
  1
1.122
 41
0.75
 72
     4
 11
4.1990624999999948
 21
0.1869375000000011
 31
0.0
  0
TEXT
  5
35D4
  8
TEXT
 10
4.7326249999999961
 20
0.5828333333333343
 30
0.0
 40
0.125
  1
 
 41
0.75
 72
     4
 11
4.7794999999999961
 21
0.5828333333333343
 31
0.0
  0
TEXT
  5
35D5
  8
TEXT
 10
5.209945312499995
 20
0.3510000000000012
 30
0.0
 40
0.140625
  1
1.610
 41
0.75
 72
     4
 11
5.376937499999995
 21
0.4213125000000013
 31
0.0
  0
TEXT
  5
35D6
  8
TEXT
 10
5.174789062499995
 20
0.1166250000000011
 30
0.0
 40
0.140625
  1
2.043
 41
0.75
 72
     4
 11
5.376937499999995
 21
0.1869375000000011
 31
0.0
  0
TEXT
  5
35D7
  8
TEXT
 10
5.7796249999999949
 20
0.5828333333333343
 30
0.0
 40
0.125
  1
 
 41
0.75
 72
     4
 11
5.8264999999999949
 21
0.5828333333333343
 31
0.0
  0
TEXT
  5
35D8
  8
TEXT
 10
6.3614531249999962
 20
0.3510000000000012
 30
0.0
 40
0.140625
  1
1.298
 41
0.75
 72
     4
 11
6.5548124999999962
 21
0.4213125000000013
 31
0.0
  0
TEXT
  5
35D9
  8
TEXT
 10
6.3790312499999962
 20
0.1166250000000011
 30
0.0
 40
0.140625
  1
1.731
 41
0.75
 72
     4
 11
6.5548124999999962
 21
0.1869375000000011
 31
0.0
  0
TEXT
  5
35DA
  8
TEXT
 10
6.8266249999999964
 20
0.3745000000000011
 30
0.0
 40
0.125
  1
 
 41
0.75
 72
     4
 11
6.8734999999999964
 21
0.3745000000000011
 31
0.0
  0
TEXT
  5
35DB
  8
TEXT
 10
7.5744843749999928
 20
0.1166250000000012
 30
0.0
 40
0.140625
  1
1.113
 41
0.75
 72
     4
 11
7.7326874999999928
 21
0.1869375000000012
 31
0.0
  0
TEXT
  5
35DC
  8
TEXT
 10
7.8736249999999961
 20
0.5828333333333343
 30
0.0
 40
0.125
  1
 
 41
0.75
 72
     4
 11
7.9204999999999961
 21
0.5828333333333343
 31
0.0
  0
TEXT
  5
35DD
  8
TEXT
 10
8.7523593749999975
 20
0.3510000000000012
 30
0.0
 40
0.140625
  1
1.113
 41
0.75
 72
     4
 11
8.9105624999999975
 21
0.4213125000000013
 31
0.0
  0
TEXT
  5
35DE
  8
TEXT
 10
8.7523593749999975
 20
0.1166250000000011
 30
0.0
 40
0.140625
  1
1.113
 41
0.75
 72
     4
 11
8.9105624999999975
 21
0.1869375000000011
 31
0.0
  0
TEXT
  5
35DF
  8
TEXT
 10
8.9206249999999976
 20
0.5828333333333343
 30
0.0
 40
0.125
  1
 
 41
0.75
 72
     4
 11
8.9674999999999976
 21
0.5828333333333343
 31
0.0
  0
TEXT
  5
35E0
  8
TEXT
 10
9.8950781249999924
 20
0.3510000000000012
 30
0.0
 40
0.140625
  1
1.633
 41
0.75
 72
     4
 11
10.088437499999991
 21
0.4213125000000013
 31
0.0
  0
TEXT
  5
35E1
  8
TEXT
 10
9.8862890624999924
 20
0.1166250000000011
 30
0.0
 40
0.140625
  1
2.066
 41
0.75
 72
     4
 11
10.088437499999991
 21
0.1869375000000011
 31
0.0
  0
TEXT
  5
35E2
  8
TEXT
 10
9.9676249999999875
 20
0.5828333333333343
 30
0.0
 40
0.125
  1
 
 41
0.75
 72
     4
 11
10.01449999999998
 21
0.5828333333333343
 31
0.0
  0
TEXT
  5
35E3
  8
TEXT
 10
11.081742187499991
 20
0.3510000000000012
 30
0.0
 40
0.140625
  1
1.490
 41
0.75
 72
     4
 11
11.266312499999991
 21
0.4213125000000013
 31
0.0
  0
TEXT
  5
35E4
  8
TEXT
 10
11.072953124999991
 20
0.1166250000000011
 30
0.0
 40
0.140625
  1
1.923
 41
0.75
 72
     4
 11
11.266312499999991
 21
0.1869375000000011
 31
0.0
  0
TEXT
  5
35E5
  8
TEXT
 10
7.0897791087859181
 20
6.6022541737773821
 30
0.0
 40
0.140625
  1
MATERIAL: ABS THERMOPLASTIC (UL 94-HB RATED)
 41
0.75
  0
TEXT
  5
35E6
  8
TEXT
 10
6.1476215661518401
 20
5.987191056242084
 30
0.0
 40
0.125
  1
 
 41
0.75
  0
TEXT
  5
35E7
  8
TEXT
 10
7.0897791087859181
 20
6.1335041737773821
 30
0.0
 40
0.140625
  1
FINISH: TOP & BOTTOM
 41
0.75
  0
TEXT
  5
35E8
  8
TEXT
 10
7.817420158154607
 20
5.8991291737773821
 30
0.0
 40
0.140625
  1
PANELS
 41
0.75
  0
TEXT
  5
35E9
  8
TEXT
 10
9.8617450720553474
 20
6.1335041737773821
 30
0.0
 40
0.140625
  1
LIGHT GRAY
 41
0.75
  0
TEXT
  5
35EA
  8
TEXT
 10
9.8617450720553474
 20
5.8991291737773821
 30
0.0
 40
0.140625
  1
DARK GRAY
 41
0.75
  0
LINE
  5
35EB
  8
TEXT
 10
9.7664587531195384
 20
6.1335041737773821
 30
0.0
 11
9.0961589465201271
 21
6.1335041737773821
 31
0.0
  0
LINE
  5
35EC
  8
TEXT
 10
9.7664587531195384
 20
5.8991291737773821
 30
0.0
 11
8.5071161313567707
 21
5.8991291737773821
 31
0.0
  0
TEXT
  5
35ED
  8
TEXT
 10
6.1476215661518401
 20
5.7788577229087501
 30
0.0
 40
0.125
  1
 
 41
0.75
  0
TEXT
  5
35EE
  8
TEXT
 10
6.1476215661518401
 20
5.5705243895754171
 30
0.0
 40
0.125
  1
 
 41
0.75
  0
TEXT
  5
35EF
  8
TEXT
 10
6.1476215661518401
 20
5.362191056242084
 30
0.0
 40
0.125
  1
 
 41
0.75
  0
TEXT
  5
35F0
  8
TEXT
 10
7.0897791087859181
 20
5.430379173777383
 30
0.0
 40
0.140625
  1
FOR PC-11460 & PC-11461
 41
0.75
  0
TEXT
  5
35F1
  8
TEXT
 10
7.2521676369727812
 20
5.196004173777383
 30
0.0
 40
0.140625
  1
FOUR (4) M3 x 1.000 LG SCREWS SUPPLIED
 41
0.75
  0
TEXT
  5
35F2
  8
TEXT
 10
7.2521676369727812
 20
4.9616291737773839
 30
0.0
 40
0.140625
  1
FOR ASSEMBLING BOTTOM TO TOP.
 41
0.75
  0
TEXT
  5
35F3
  8
TEXT
 10
7.2521676369727812
 20
4.2585041737773848
 30
0.0
 40
0.140625
  1
FOUR (4) M3 x 1.218 LG SCREWS SUPPLIED
 41
0.75
  0
TEXT
  5
35F4
  8
TEXT
 10
7.2521676369727812
 20
4.0241291737773839
 30
0.0
 40
0.140625
  1
FOR ASSEMBLING BOTTOM TO TOP.
 41
0.75
  0
TEXT
  5
35F5
  8
TEXT
 10
7.0897791087859181
 20
4.4928791737773839
 30
0.0
 40
0.140625
  1
FOR PC-11462
 41
0.75
  0
TEXT
  5
35F6
  8
TEXT
 10
2.801451972156888
 20
3.076334876001571
 30
0.0
 40
0.156
  1
 
 41
0.75
 72
     4
 11
2.859951972156888
 21
3.076334876001571
 31
0.0
  0
TEXT
  5
35F7
  8
TEXT
 10
1.6366600659560999
 20
3.4514337922827409
 30
0.0
 40
0.1755
  1
(TEXTURED ON ONE SIDE)
 41
0.75
 72
     4
 11
2.9967850659561002
 21
3.5391837922827412
 31
0.0
  0
TEXT
  5
35F8
  8
TEXT
 10
6.1476215661518401
 20
3.9038577229087532
 30
0.0
 40
0.125
  1
 
 41
0.75
  0
TEXT
  5
35F9
  8
TEXT
 10
6.1476215661518401
 20
3.6955243895754202
 30
0.0
 40
0.125
  1
 
 41
0.75
  0
TEXT
  5
35FA
  8
TEXT
 10
7.0897791087859181
 20
3.5553791737773861
 30
0.0
 40
0.140625
  1
FOUR (4) RUBBER STICK-ON FEET SUPPLIED.
 41
0.75
  0
TEXT
  5
35FB
  8
TEXT
 10
6.1476215661518401
 20
3.2788577229087541
 30
0.0
 40
0.125
  1
 
 41
0.75
  0
TEXT
  5
35FC
  8
TEXT
 10
7.0897791087859181
 20
3.0866291737773861
 30
0.0
 40
0.140625
  1
MOUNTING BOSSES USE EITHER M2.5 METRIC
 41
0.75
  0
TEXT
  5
35FD
  8
TEXT
 10
7.2521676369727812
 20
2.8522541737773861
 30
0.0
 40
0.140625
  1
OR #4 STD. SHEET METAL SCREWS x 3/16 LG.
 41
0.75
  0
TEXT
  5
35FE
  8
TEXT
 10
7.2521676369727812
 20
2.6178791737773839
 30
0.0
 40
0.140625
  1
(NOT SUPPLIED)
 41
0.75
  0
TEXT
  5
35FF
  8
TEXT
 10
6.1476215661518401
 20
2.4455243895754202
 30
0.0
 40
0.125
  1
 
 41
0.75
  0
TEXT
  5
3600
  8
TEXT
 10
7.0897791087859181
 20
2.149129173777383
 30
0.0
 40
0.140625
  1
NOTE: ALL DIMENSIONS HAVE %%p0.015 TOLERANCE
 41
0.75
  0
TEXT
  5
3601
  8
TEXT
 10
7.6518931406258144
 20
1.9147541737773841
 30
0.0
 40
0.140625
  1
UNLESS OTHERWISE SPECIFIED.
 41
0.75
  0
LINE
  5
3602
  8
CENTER
 10
4.571785065956103
 20
11.10440278369768
 30
0.0
 11
4.9867850659561004
 21
11.10440278369768
 31
0.0
  0
LINE
  5
3603
  8
CENTER
 10
4.571785065956103
 20
10.276402783697691
 30
0.0
 11
4.9867850659561004
 21
10.276402783697691
 31
0.0
  0
LINE
  5
3604
  8
CENTER
 10
4.571785065956103
 20
13.58840278369768
 30
0.0
 11
4.9867850659561004
 21
13.58840278369768
 31
0.0
  0
LINE
  5
3605
  8
CENTER
 10
4.571785065956103
 20
12.760402783697691
 30
0.0
 11
4.9867850659561004
 21
12.760402783697691
 31
0.0
  0
DIMENSION
  5
3606
  8
DIM
  2
*D70
 10
6.137081429001185
 20
8.8224027836976973
 30
0.0
 11
6.1370814290011841
 21
10.37740278369769
 31
0.0
 70
     0
 13
3.0867850659561
 23
11.932402783697681
 33
0.0
 14
4.8667850659561012
 24
8.8224027836976973
 34
0.0
 50
90.0
  0
DIMENSION
  5
3614
  8
DIM
  2
*D71
 10
5.2557031661886473
 20
11.10440278369768
 30
0.0
 11
5.6922031661886452
 21
11.518402783697679
 31
0.0
 70
     0
 13
3.0867850659561
 23
11.932402783697681
 33
0.0
 14
4.9867850659561004
 24
11.10440278369768
 34
0.0
 50
90.0
  0
DIMENSION
  5
3621
  8
DIM
  2
*D72
 10
5.6445795212673584
 20
10.276402783697691
 30
0.0
 11
5.6445795212673557
 21
11.10440278369769
 31
0.0
 70
     0
 13
3.0867850659561
 23
11.932402783697681
 33
0.0
 14
4.9867850659561004
 24
10.276402783697691
 34
0.0
 50
90.0
  0
DIMENSION
  5
362F
  8
DIM
  2
*D73
 10
5.6445795212673593
 20
12.760402783697691
 30
0.0
 11
6.0810795212673572
 21
12.346402783697689
 31
0.0
 70
     0
 13
3.0867850659561
 23
11.932402783697681
 33
0.0
 14
4.9867850659561004
 24
12.760402783697691
 34
0.0
 50
270.0
  0
DIMENSION
  5
363C
  8
DIM
  2
*D74
 10
6.137081429001185
 20
13.58840278369768
 30
0.0
 11
6.1370814290011833
 21
12.760402783697691
 31
0.0
 70
     0
 13
3.0867850659561
 23
11.932402783697681
 33
0.0
 14
4.9867850659561004
 24
13.58840278369768
 34
0.0
 50
270.0
  0
INSERT
  5
364A
  8
OBJECT
  6
CONTINUOUS
  2
*X39
 10
0.0
 20
0.0
 30
0.0
1001
ACAD
1000
HATCH
1002
{
1070
    19
1000
ANSI32
1040
0.5
1040
0.0
1000
ASC_BOUNDS
1070
     1
1070
     1
1070
    18
1005
8ED
1005
8F5
1005
907
1005
8F3
1005
906
1005
8F4
1005
905
1005
8F6
1005
8E7
1005
9AE
1005
9C5
1005
9AB
1005
9AF
1005
9AC
1005
9C0
1005
9AD
1005
8E3
1005
9A9
1000
ASC_SEEDPOINT
1011
10.025776483607601
1021
3.6407190074888659E+059
1031
6.8543538185950722E+025
1021
12.25598406051664
1031
0.0
1000
R14_HATCH_DATA
1000
1F71
1011
1.0
1021
3.6407190074888659E+059
1031
6.8543538185950722E+025
1021
0.0
1031
0.0
1011
0.0
1021
3.6407190074888659E+059
1031
6.8543538185950722E+025
1021
1.0
1031
0.0
1011
0.0
1021
3.6407190074888659E+059
1031
6.8543538185950722E+025
1021
0.0
1031
1.0
1040
0.0
1010
0.0
1020
0.0
1030
1.0
1000
ANSI32
1070
     0
1070
     1
1071
        1
1071
        7
1070
     0
1070
     1
1071
       24
1040
10.069289694727059
1040
14.603402783697691
1040
10.00928969472705
1040
14.603402783697691
1040
10.00928969472705
1040
14.693402783697691
1040
10.069289694727059
1040
14.693402783697691
1040
10.069289694727059
1040
14.837402783697691
1040
10.12928969472704
1040
14.837402783697691
1040
10.12928969472704
1040
14.882402783697691
1040
10.057789694727051
1040
14.882402783697691
1040
10.057789694727051
1040
14.977402783697681
1040
10.12928969472706
1040
14.9774027836977
1040
10.079289694727059
1040
15.042402783697691
1040
9.9492896947270584
1040
15.042402783697691
1040
9.9492896947270584
1040
8.8224027836976937
1040
10.07928969472705
1040
8.8224027836976937
1040
10.12928969472704
1040
8.8874027836976932
1040
10.057789694727051
1040
8.8874027836976932
1040
10.057789694727051
1040
8.9824027836976938
1040
10.12928969472704
1040
8.9824027836976974
1040
10.12928969472704
1040
9.0274027836976956
1040
10.069289694727059
1040
9.0274027836976956
1040
10.069289694727059
1040
9.1714027836976921
1040
10.00928969472705
1040
9.1714027836976957
1040
10.00928969472705
1040
9.2614027836976955
1040
10.069289694727059
1040
9.2614027836976955
1071
       18
1005
9A9
1005
8E3
1005
9AD
1005
9C0
1005
9AC
1005
9AF
1005
9AB
1005
9C5
1005
9AE
1005
8E7
1005
8F6
1005
905
1005
8F4
1005
906
1005
8F3
1005
907
1005
8F5
1005
8ED
1070
     0
1070
     1
1040
0.0
1040
0.5
1070
     0
1070
     2
1040
0.7853981633974483
1040
0.0
1040
0.0
1040
-0.1325825214724776
1040
0.1325825214724777
1070
     0
1040
0.7853981633974483
1040
0.0883883475
1040
0.0
1040
-0.1325825214724776
1040
0.1325825214724777
1070
     0
1040
0.013010131553541
1071
        1
1040
10.025776483607601
1040
12.25598406051664
1040
0.0
1002
}
  0
INSERT
  5
364B
  8
OBJECT
  6
CONTINUOUS
  2
*X40
 10
0.0
 20
0.0
 30
0.0
1001
ACAD
1000
HATCH
1002
{
1070
    19
1000
ANSI32
1040
0.5
1040
1.570796326794895
1000
ASC_BOUNDS
1070
     5
1070
     1
1070
     3
1005
8E8
1005
8E4
1005
9DC
1070
     1
1070
     3
1005
8E8
1005
8E4
1005
92F
1070
     1
1070
    10
1005
8E8
1005
8F6
1005
930
1005
8F4
1005
933
1005
8F3
1005
931
1005
9FE
1005
8E4
1005
92F
1070
     1
1070
    10
1005
8E8
1005
9DC
1005
8E4
1005
9E3
1005
9DE
1005
9AC
1005
9C6
1005
9AB
1005
9E0
1005
9AE
1070
     1
1070
     4
1005
8E8
1005
92F
1005
8E4
1005
9DC
1000
ASC_SEEDPOINT
1011
11.327885825250631
1021
3.6407190074888659E+059
1031
6.8543538185950722E+025
1021
13.374855372658899
1031
0.0
1000
R14_HATCH_DATA
1000
1FA8
1011
1.0
1021
3.6407190074888659E+059
1031
6.8543538185950722E+025
1021
0.0
1031
0.0
1011
0.0
1021
3.6407190074888659E+059
1031
6.8543538185950722E+025
1021
1.0
1031
0.0
1011
0.0
1021
3.6407190074888659E+059
1031
6.8543538185950722E+025
1021
0.0
1031
1.0
1040
0.0
1010
0.0
1020
0.0
1030
1.0
1000
ANSI32
1070
     0
1070
     1
1071
        5
1071
        7
1070
     0
1070
     1
1071
        4
1040
11.36628969472704
1040
14.53340278369768
1040
11.246289694727061
1040
14.53340278369768
1040
11.24628969472705
1040
9.3314027836976958
1040
11.36628969472704
1040
9.3314027836976958
1071
        4
1005
9DC
1005
8E4
1005
92F
1005
8E8
1071
        7
1070
     0
1070
     1
1071
       10
1040
11.36628969472706
1040
15.042402783697691
1040
11.236289694727059
1040
15.042402783697691
1040
11.18628969472706
1040
14.9774027836977
1040
11.257789694727061
1040
14.977402783697681
1040
11.25778969472705
1040
14.882402783697691
1040
11.18628969472706
1040
14.882402783697691
1040
11.18628969472706
1040
14.837402783697691
1040
11.24628969472705
1040
14.837402783697691
1040
11.24628969472705
1040
14.763402783697691
1040
11.36628969472704
1040
14.763402783697691
1071
       10
1005
9AE
1005
9E0
1005
9AB
1005
9C6
1005
9AC
1005
9DE
1005
9E3
1005
8E4
1005
9DC
1005
8E8
1071
        7
1070
     0
1070
     1
1071
       10
1040
11.36628969472704
1040
9.1014027836976954
1040
11.246289694727061
1040
9.1014027836976954
1040
11.24628969472705
1040
9.0274027836976956
1040
11.18628969472705
1040
9.0274027836976991
1040
11.18628969472705
1040
8.9824027836976974
1040
11.25778969472705
1040
8.9824027836976938
1040
11.257789694727061
1040
8.8874027836976932
1040
11.18628969472705
1040
8.8874027836976932
1040
11.23628969472705
1040
8.8224027836976937
1040
11.36628969472704
1040
8.8224027836976937
1071
       10
1005
92F
1005
8E4
1005
9FE
1005
931
1005
8F3
1005
933
1005
8F4
1005
930
1005
8F6
1005
8E8
1071
        7
1070
     0
1070
     1
1071
        4
1040
11.36628969472704
1040
9.3314027836976958
1040
11.246289694727061
1040
9.3314027836976958
1040
11.246289694727061
1040
9.1014027836976954
1040
11.36628969472704
1040
9.1014027836976954
1071
        3
1005
92F
1005
8E4
1005
8E8
1071
        7
1070
     0
1070
     1
1071
        4
1040
11.36628969472704
1040
14.763402783697691
1040
11.246289694727061
1040
14.763402783697691
1040
11.246289694727061
1040
14.53340278369768
1040
11.36628969472704
1040
14.53340278369768
1071
        3
1005
9DC
1005
8E4
1005
8E8
1070
     0
1070
     1
1040
1.570796326794895
1040
0.5
1070
     0
1070
     2
1040
2.3561944901923431
1040
0.0
1040
0.0
1040
-0.1325825214724777
1040
-0.1325825214724776
1070
     0
1040
2.3561944901923431
1040
0.0
1040
0.0883883475
1040
-0.1325825214724777
1040
-0.1325825214724776
1070
     0
1040
0.013010131553541
1071
        5
1040
11.327885825250631
1040
13.374855372658899
1040
0.0
1040
11.327885825250631
1040
14.897040793437739
1040
0.0
1040
11.327885825250631
1040
9.0164612692830541
1040
0.0
1040
11.314864788383989
1040
9.2116132599795169
1040
0.0
1040
11.340906936524901
1040
14.636838125502271
1040
0.0
1002
}
  0
LINE
  5
364C
  8
OBJECT
 10
1.1467850659561021
 20
6.0783983120286482
 30
0.0
 11
1.1467850659561021
 21
6.0393983120286494
 31
0.0
  0
LINE
  5
364D
  8
OBJECT
 10
8.4547695463536741
 20
8.8224027836976973
 30
0.0
 11
8.4547695463536741
 21
15.042402783697691
 31
0.0
  0
LINE
  5
364E
  8
OBJECT
 10
8.4547695463536741
 20
15.042402783697691
 30
0.0
 11
7.037769546353676
 21
15.042402783697691
 31
0.0
  0
LINE
  5
364F
  8
OBJECT
 10
7.037769546353676
 20
15.042402783697691
 30
0.0
 11
7.037769546353676
 21
8.8224027836976973
 31
0.0
  0
LINE
  5
3650
  8
OBJECT
 10
7.037769546353676
 20
8.8224027836976973
 30
0.0
 11
8.4547695463536741
 21
8.8224027836976973
 31
0.0
  0
LINE
  5
3651
  8
OBJECT
 10
7.7267695463536699
 20
8.8224027836976973
 30
0.0
 11
7.7267695463536921
 21
15.042402783697691
 31
0.0
  0
LINE
  5
3652
  8
OBJECT
 10
7.765769546353674
 20
8.8224027836976973
 30
0.0
 11
7.7657695463536882
 21
15.042402783697691
 31
0.0
  0
LINE
  5
3653
  8
OBJECT
 10
7.037769546353676
 20
9.0324027836976981
 30
0.0
 11
7.5057695463536724
 21
9.0324027836976981
 31
0.0
  0
LINE
  5
3654
  8
OBJECT
 10
7.037769546353676
 20
9.0324027836976981
 30
0.0
 11
7.5057695463536724
 21
9.0324027836976981
 31
0.0
  0
LINE
  5
3655
  8
OBJECT
 10
7.037769546353676
 20
9.4074027836976981
 30
0.0
 11
7.5057695463536751
 21
9.4074027836976981
 31
0.0
  0
LINE
  5
3656
  8
OBJECT
 10
7.037769546353676
 20
9.5224027836976965
 30
0.0
 11
7.5057695463536751
 21
9.5224027836976965
 31
0.0
  0
LINE
  5
3657
  8
OBJECT
 10
7.037769546353676
 20
9.6424027836976958
 30
0.0
 11
7.5057695463536751
 21
9.6424027836976958
 31
0.0
  0
LINE
  5
3658
  8
OBJECT
 10
7.9867695463536732
 20
9.0324027836976946
 30
0.0
 11
7.9867695463536732
 21
9.4074027836976981
 31
0.0
  0
LINE
  5
3659
  8
OBJECT
 10
7.5057695463536724
 20
9.0324027836976981
 30
0.0
 11
7.5057695463536751
 21
9.4074027836976981
 31
0.0
  0
LINE
  5
365A
  8
OBJECT
 10
7.9867695463536732
 20
9.6424027836976958
 30
0.0
 11
8.4547695463536741
 21
9.6424027836976958
 31
0.0
  0
LINE
  5
365B
  8
OBJECT
 10
7.9867695463536732
 20
9.5224027836976965
 30
0.0
 11
8.4547695463536741
 21
9.5224027836976965
 31
0.0
  0
LINE
  5
365C
  8
OBJECT
 10
7.9867695463536732
 20
9.4074027836976981
 30
0.0
 11
8.4547695463536741
 21
9.4074027836976981
 31
0.0
  0
LINE
  5
365D
  8
OBJECT
 10
7.9867695463536732
 20
9.0324027836976981
 30
0.0
 11
8.4547695463536741
 21
9.0324027836976981
 31
0.0
  0
LINE
  5
365E
  8
OBJECT
 10
7.9867695463536732
 20
9.0324027836976946
 30
0.0
 11
8.4547695463536741
 21
9.0324027836976981
 31
0.0
  0
LINE
  5
365F
  8
OBJECT
 10
7.5057695463536751
 20
9.5224027836976965
 30
0.0
 11
7.5057695463536751
 21
9.6424027836976958
 31
0.0
  0
LINE
  5
3660
  8
OBJECT
 10
7.9867695463536732
 20
9.5224027836976965
 30
0.0
 11
7.9867695463536732
 21
9.6424027836976958
 31
0.0
  0
LINE
  5
3661
  8
OBJECT
 10
7.0547695463536737
 20
9.6424027836976958
 30
0.0
 11
7.0547695463536737
 21
9.5224027836976965
 31
0.0
  0
LINE
  5
3662
  8
OBJECT
 10
8.4377695463536728
 20
9.0324027836976981
 30
0.0
 11
8.4377695463536728
 21
9.4074027836976981
 31
0.0
  0
LINE
  5
3663
  8
OBJECT
 10
7.0547695463536737
 20
9.4074027836976981
 30
0.0
 11
7.0547695463536737
 21
9.0324027836976981
 31
0.0
  0
LINE
  5
3664
  8
OBJECT
 10
8.4377695463536728
 20
9.5224027836976965
 30
0.0
 11
8.4377695463536728
 21
9.6424027836976958
 31
0.0
  0
LINE
  5
3665
  8
OBJECT
 10
7.9867695463536732
 20
9.8774027836976952
 30
0.0
 11
8.4547695463536741
 21
9.8774027836976952
 31
0.0
  0
LINE
  5
3666
  8
OBJECT
 10
7.9867695463536732
 20
9.7574027836976942
 30
0.0
 11
8.4547695463536741
 21
9.7574027836976942
 31
0.0
  0
LINE
  5
3667
  8
OBJECT
 10
8.4377695463536728
 20
9.7574027836976942
 30
0.0
 11
8.4377695463536728
 21
9.8774027836976952
 31
0.0
  0
LINE
  5
3668
  8
OBJECT
 10
7.9867695463536732
 20
9.7574027836976995
 30
0.0
 11
7.9867695463536732
 21
9.8774027836976952
 31
0.0
  0
LINE
  5
3669
  8
OBJECT
 10
7.037769546353676
 20
9.8774027836976952
 30
0.0
 11
7.5057695463536751
 21
9.8774027836976988
 31
0.0
  0
LINE
  5
366A
  8
OBJECT
 10
7.037769546353676
 20
9.7574027836976942
 30
0.0
 11
7.5057695463536751
 21
9.7574027836976995
 31
0.0
  0
LINE
  5
366B
  8
OBJECT
 10
7.5057695463536751
 20
9.7574027836976995
 30
0.0
 11
7.5057695463536751
 21
9.8774027836976988
 31
0.0
  0
LINE
  5
366C
  8
OBJECT
 10
7.0547695463536737
 20
9.8774027836976952
 30
0.0
 11
7.0547695463536737
 21
9.7574027836976942
 31
0.0
  0
LINE
  5
366D
  8
OBJECT
 10
7.9867695463536732
 20
10.11240278369768
 30
0.0
 11
8.4547695463536741
 21
10.11240278369768
 31
0.0
  0
LINE
  5
366E
  8
OBJECT
 10
7.9867695463536732
 20
9.9924027836976954
 30
0.0
 11
8.4547695463536741
 21
9.9924027836976954
 31
0.0
  0
LINE
  5
366F
  8
OBJECT
 10
8.4377695463536728
 20
9.9924027836976954
 30
0.0
 11
8.4377695463536728
 21
10.11240278369768
 31
0.0
  0
LINE
  5
3670
  8
OBJECT
 10
7.9867695463536732
 20
9.9924027836976954
 30
0.0
 11
7.9867695463536732
 21
10.11240278369768
 31
0.0
  0
LINE
  5
3671
  8
OBJECT
 10
7.037769546353676
 20
10.11240278369768
 30
0.0
 11
7.5057695463536751
 21
10.1124027836977
 31
0.0
  0
LINE
  5
3672
  8
OBJECT
 10
7.037769546353676
 20
9.9924027836976954
 30
0.0
 11
7.5057695463536751
 21
9.9924027836976954
 31
0.0
  0
LINE
  5
3673
  8
OBJECT
 10
7.5057695463536751
 20
9.9924027836976954
 30
0.0
 11
7.5057695463536751
 21
10.1124027836977
 31
0.0
  0
LINE
  5
3674
  8
OBJECT
 10
7.0547695463536737
 20
10.11240278369768
 30
0.0
 11
7.0547695463536737
 21
9.9924027836976954
 31
0.0
  0
LINE
  5
3675
  8
OBJECT
 10
7.9867695463536732
 20
10.347402783697691
 30
0.0
 11
8.4547695463536741
 21
10.347402783697691
 31
0.0
  0
LINE
  5
3676
  8
OBJECT
 10
7.9867695463536732
 20
10.227402783697681
 30
0.0
 11
8.4547695463536741
 21
10.227402783697681
 31
0.0
  0
LINE
  5
3677
  8
OBJECT
 10
8.4377695463536728
 20
10.227402783697681
 30
0.0
 11
8.4377695463536728
 21
10.347402783697691
 31
0.0
  0
LINE
  5
3678
  8
OBJECT
 10
7.9867695463536732
 20
10.227402783697681
 30
0.0
 11
7.9867695463536732
 21
10.347402783697691
 31
0.0
  0
LINE
  5
3679
  8
OBJECT
 10
7.037769546353676
 20
10.347402783697691
 30
0.0
 11
7.5057695463536751
 21
10.347402783697691
 31
0.0
  0
LINE
  5
367A
  8
OBJECT
 10
7.037769546353676
 20
10.227402783697681
 30
0.0
 11
7.5057695463536751
 21
10.227402783697681
 31
0.0
  0
LINE
  5
367B
  8
OBJECT
 10
7.5057695463536751
 20
10.227402783697681
 30
0.0
 11
7.5057695463536751
 21
10.347402783697691
 31
0.0
  0
LINE
  5
367C
  8
OBJECT
 10
7.0547695463536737
 20
10.347402783697691
 30
0.0
 11
7.0547695463536737
 21
10.227402783697681
 31
0.0
  0
LINE
  5
367D
  8
OBJECT
 10
7.9867695463536732
 20
10.58240278369769
 30
0.0
 11
8.4547695463536741
 21
10.58240278369769
 31
0.0
  0
LINE
  5
367E
  8
OBJECT
 10
7.9867695463536732
 20
10.462402783697691
 30
0.0
 11
8.4547695463536741
 21
10.462402783697691
 31
0.0
  0
LINE
  5
367F
  8
OBJECT
 10
8.4377695463536728
 20
10.462402783697691
 30
0.0
 11
8.4377695463536728
 21
10.58240278369769
 31
0.0
  0
LINE
  5
3680
  8
OBJECT
 10
7.9867695463536732
 20
10.462402783697691
 30
0.0
 11
7.9867695463536732
 21
10.58240278369769
 31
0.0
  0
LINE
  5
3681
  8
OBJECT
 10
7.037769546353676
 20
10.58240278369769
 30
0.0
 11
7.5057695463536751
 21
10.58240278369769
 31
0.0
  0
LINE
  5
3682
  8
OBJECT
 10
7.037769546353676
 20
10.462402783697691
 30
0.0
 11
7.5057695463536751
 21
10.462402783697691
 31
0.0
  0
LINE
  5
3683
  8
OBJECT
 10
7.5057695463536751
 20
10.462402783697691
 30
0.0
 11
7.5057695463536751
 21
10.58240278369769
 31
0.0
  0
LINE
  5
3684
  8
OBJECT
 10
7.0547695463536737
 20
10.58240278369769
 30
0.0
 11
7.0547695463536737
 21
10.462402783697691
 31
0.0
  0
LINE
  5
3685
  8
OBJECT
 10
7.9867695463536732
 20
10.81740278369768
 30
0.0
 11
8.4547695463536741
 21
10.81740278369768
 31
0.0
  0
LINE
  5
3686
  8
OBJECT
 10
7.9867695463536732
 20
10.69740278369769
 30
0.0
 11
8.4547695463536741
 21
10.69740278369769
 31
0.0
  0
LINE
  5
3687
  8
OBJECT
 10
8.4377695463536728
 20
10.69740278369769
 30
0.0
 11
8.4377695463536728
 21
10.81740278369768
 31
0.0
  0
LINE
  5
3688
  8
OBJECT
 10
7.9867695463536732
 20
10.69740278369769
 30
0.0
 11
7.9867695463536732
 21
10.81740278369768
 31
0.0
  0
LINE
  5
3689
  8
OBJECT
 10
7.037769546353676
 20
10.81740278369768
 30
0.0
 11
7.5057695463536751
 21
10.81740278369768
 31
0.0
  0
LINE
  5
368A
  8
OBJECT
 10
7.037769546353676
 20
10.69740278369769
 30
0.0
 11
7.5057695463536751
 21
10.69740278369769
 31
0.0
  0
LINE
  5
368B
  8
OBJECT
 10
7.5057695463536751
 20
10.69740278369769
 30
0.0
 11
7.5057695463536751
 21
10.81740278369768
 31
0.0
  0
LINE
  5
368C
  8
OBJECT
 10
7.0547695463536737
 20
10.81740278369768
 30
0.0
 11
7.0547695463536737
 21
10.69740278369769
 31
0.0
  0
LINE
  5
368D
  8
OBJECT
 10
7.9867695463536732
 20
11.052402783697691
 30
0.0
 11
8.4547695463536741
 21
11.052402783697691
 31
0.0
  0
LINE
  5
368E
  8
OBJECT
 10
7.9867695463536732
 20
10.932402783697681
 30
0.0
 11
8.4547695463536741
 21
10.932402783697681
 31
0.0
  0
LINE
  5
368F
  8
OBJECT
 10
8.4377695463536728
 20
10.932402783697681
 30
0.0
 11
8.4377695463536728
 21
11.052402783697691
 31
0.0
  0
LINE
  5
3690
  8
OBJECT
 10
7.9867695463536732
 20
10.93240278369769
 30
0.0
 11
7.9867695463536732
 21
11.052402783697691
 31
0.0
  0
LINE
  5
3691
  8
OBJECT
 10
7.037769546353676
 20
11.052402783697691
 30
0.0
 11
7.5057695463536751
 21
11.052402783697691
 31
0.0
  0
LINE
  5
3692
  8
OBJECT
 10
7.037769546353676
 20
10.932402783697681
 30
0.0
 11
7.5057695463536751
 21
10.93240278369769
 31
0.0
  0
LINE
  5
3693
  8
OBJECT
 10
7.5057695463536751
 20
10.93240278369769
 30
0.0
 11
7.5057695463536751
 21
11.052402783697691
 31
0.0
  0
LINE
  5
3694
  8
OBJECT
 10
7.0547695463536737
 20
11.052402783697691
 30
0.0
 11
7.0547695463536737
 21
10.932402783697681
 31
0.0
  0
LINE
  5
3695
  8
OBJECT
 10
7.9867695463536732
 20
11.287402783697679
 30
0.0
 11
8.4547695463536741
 21
11.287402783697679
 31
0.0
  0
LINE
  5
3696
  8
OBJECT
 10
7.9867695463536732
 20
11.167402783697691
 30
0.0
 11
8.4547695463536741
 21
11.167402783697691
 31
0.0
  0
LINE
  5
3697
  8
OBJECT
 10
8.4377695463536728
 20
11.167402783697691
 30
0.0
 11
8.4377695463536728
 21
11.287402783697679
 31
0.0
  0
LINE
  5
3698
  8
OBJECT
 10
7.9867695463536732
 20
11.167402783697691
 30
0.0
 11
7.9867695463536732
 21
11.287402783697679
 31
0.0
  0
LINE
  5
3699
  8
OBJECT
 10
7.037769546353676
 20
11.287402783697679
 30
0.0
 11
7.5057695463536751
 21
11.287402783697679
 31
0.0
  0
LINE
  5
369A
  8
OBJECT
 10
7.037769546353676
 20
11.167402783697691
 30
0.0
 11
7.5057695463536751
 21
11.167402783697691
 31
0.0
  0
LINE
  5
369B
  8
OBJECT
 10
7.5057695463536751
 20
11.167402783697691
 30
0.0
 11
7.5057695463536751
 21
11.287402783697679
 31
0.0
  0
LINE
  5
369C
  8
OBJECT
 10
7.0547695463536737
 20
11.287402783697679
 30
0.0
 11
7.0547695463536737
 21
11.167402783697691
 31
0.0
  0
LINE
  5
369D
  8
OBJECT
 10
7.9867695463536732
 20
11.522402783697681
 30
0.0
 11
8.4547695463536741
 21
11.522402783697681
 31
0.0
  0
LINE
  5
369E
  8
OBJECT
 10
7.9867695463536732
 20
11.40240278369769
 30
0.0
 11
8.4547695463536741
 21
11.40240278369769
 31
0.0
  0
LINE
  5
369F
  8
OBJECT
 10
8.4377695463536728
 20
11.40240278369768
 30
0.0
 11
8.4377695463536728
 21
11.522402783697681
 31
0.0
  0
LINE
  5
36A0
  8
OBJECT
 10
7.9867695463536732
 20
11.40240278369769
 30
0.0
 11
7.9867695463536732
 21
11.522402783697681
 31
0.0
  0
LINE
  5
36A1
  8
OBJECT
 10
7.037769546353676
 20
11.522402783697681
 30
0.0
 11
7.5057695463536751
 21
11.522402783697681
 31
0.0
  0
LINE
  5
36A2
  8
OBJECT
 10
7.037769546353676
 20
11.40240278369769
 30
0.0
 11
7.5057695463536751
 21
11.40240278369769
 31
0.0
  0
LINE
  5
36A3
  8
OBJECT
 10
7.5057695463536751
 20
11.40240278369769
 30
0.0
 11
7.5057695463536751
 21
11.522402783697681
 31
0.0
  0
LINE
  5
36A4
  8
OBJECT
 10
7.0547695463536737
 20
11.522402783697681
 30
0.0
 11
7.0547695463536737
 21
11.40240278369769
 31
0.0
  0
LINE
  5
36A5
  8
OBJECT
 10
7.9867695463536732
 20
11.757402783697691
 30
0.0
 11
8.4547695463536741
 21
11.757402783697691
 31
0.0
  0
LINE
  5
36A6
  8
OBJECT
 10
7.9867695463536732
 20
11.637402783697681
 30
0.0
 11
8.4547695463536741
 21
11.637402783697681
 31
0.0
  0
LINE
  5
36A7
  8
OBJECT
 10
8.4377695463536728
 20
11.637402783697681
 30
0.0
 11
8.4377695463536728
 21
11.757402783697691
 31
0.0
  0
LINE
  5
36A8
  8
OBJECT
 10
7.9867695463536732
 20
11.637402783697681
 30
0.0
 11
7.9867695463536732
 21
11.757402783697691
 31
0.0
  0
LINE
  5
36A9
  8
OBJECT
 10
7.037769546353676
 20
11.757402783697691
 30
0.0
 11
7.5057695463536751
 21
11.757402783697691
 31
0.0
  0
LINE
  5
36AA
  8
OBJECT
 10
7.037769546353676
 20
11.637402783697681
 30
0.0
 11
7.5057695463536751
 21
11.637402783697681
 31
0.0
  0
LINE
  5
36AB
  8
OBJECT
 10
7.5057695463536751
 20
11.637402783697681
 30
0.0
 11
7.5057695463536751
 21
11.757402783697691
 31
0.0
  0
LINE
  5
36AC
  8
OBJECT
 10
7.0547695463536737
 20
11.757402783697691
 30
0.0
 11
7.0547695463536737
 21
11.637402783697681
 31
0.0
  0
LINE
  5
36AD
  8
OBJECT
 10
7.9867695463536732
 20
11.992402783697679
 30
0.0
 11
8.4547695463536741
 21
11.992402783697679
 31
0.0
  0
LINE
  5
36AE
  8
OBJECT
 10
7.9867695463536732
 20
11.872402783697691
 30
0.0
 11
8.4547695463536741
 21
11.872402783697691
 31
0.0
  0
LINE
  5
36AF
  8
OBJECT
 10
8.4377695463536728
 20
11.872402783697691
 30
0.0
 11
8.4377695463536728
 21
11.992402783697679
 31
0.0
  0
LINE
  5
36B0
  8
OBJECT
 10
7.9867695463536732
 20
11.872402783697691
 30
0.0
 11
7.9867695463536732
 21
11.992402783697679
 31
0.0
  0
LINE
  5
36B1
  8
OBJECT
 10
7.037769546353676
 20
11.992402783697679
 30
0.0
 11
7.5057695463536751
 21
11.992402783697679
 31
0.0
  0
LINE
  5
36B2
  8
OBJECT
 10
7.037769546353676
 20
11.872402783697691
 30
0.0
 11
7.5057695463536751
 21
11.872402783697691
 31
0.0
  0
LINE
  5
36B3
  8
OBJECT
 10
7.5057695463536751
 20
11.872402783697691
 30
0.0
 11
7.5057695463536751
 21
11.992402783697679
 31
0.0
  0
LINE
  5
36B4
  8
OBJECT
 10
7.0547695463536737
 20
11.992402783697679
 30
0.0
 11
7.0547695463536737
 21
11.872402783697691
 31
0.0
  0
LINE
  5
36B5
  8
OBJECT
 10
7.9867695463536732
 20
12.227402783697681
 30
0.0
 11
8.4547695463536741
 21
12.227402783697681
 31
0.0
  0
LINE
  5
36B6
  8
OBJECT
 10
7.9867695463536732
 20
12.10740278369768
 30
0.0
 11
8.4547695463536741
 21
12.10740278369768
 31
0.0
  0
LINE
  5
36B7
  8
OBJECT
 10
8.4377695463536728
 20
12.10740278369768
 30
0.0
 11
8.4377695463536728
 21
12.227402783697681
 31
0.0
  0
LINE
  5
36B8
  8
OBJECT
 10
7.9867695463536732
 20
12.10740278369768
 30
0.0
 11
7.9867695463536732
 21
12.227402783697681
 31
0.0
  0
LINE
  5
36B9
  8
OBJECT
 10
7.037769546353676
 20
12.227402783697681
 30
0.0
 11
7.5057695463536751
 21
12.227402783697681
 31
0.0
  0
LINE
  5
36BA
  8
OBJECT
 10
7.037769546353676
 20
12.10740278369768
 30
0.0
 11
7.5057695463536751
 21
12.10740278369768
 31
0.0
  0
LINE
  5
36BB
  8
OBJECT
 10
7.5057695463536751
 20
12.10740278369768
 30
0.0
 11
7.5057695463536751
 21
12.227402783697681
 31
0.0
  0
LINE
  5
36BC
  8
OBJECT
 10
7.0547695463536737
 20
12.227402783697681
 30
0.0
 11
7.0547695463536737
 21
12.10740278369768
 31
0.0
  0
LINE
  5
36BD
  8
OBJECT
 10
7.9867695463536732
 20
12.462402783697691
 30
0.0
 11
8.4547695463536741
 21
12.462402783697691
 31
0.0
  0
LINE
  5
36BE
  8
OBJECT
 10
7.9867695463536732
 20
12.342402783697681
 30
0.0
 11
8.4547695463536741
 21
12.342402783697681
 31
0.0
  0
LINE
  5
36BF
  8
OBJECT
 10
8.4377695463536728
 20
12.342402783697681
 30
0.0
 11
8.4377695463536728
 21
12.462402783697691
 31
0.0
  0
LINE
  5
36C0
  8
OBJECT
 10
7.9867695463536732
 20
12.342402783697681
 30
0.0
 11
7.9867695463536732
 21
12.462402783697691
 31
0.0
  0
LINE
  5
36C1
  8
OBJECT
 10
7.037769546353676
 20
12.462402783697691
 30
0.0
 11
7.5057695463536751
 21
12.462402783697691
 31
0.0
  0
LINE
  5
36C2
  8
OBJECT
 10
7.037769546353676
 20
12.342402783697681
 30
0.0
 11
7.5057695463536751
 21
12.342402783697681
 31
0.0
  0
LINE
  5
36C3
  8
OBJECT
 10
7.5057695463536751
 20
12.342402783697681
 30
0.0
 11
7.5057695463536751
 21
12.462402783697691
 31
0.0
  0
LINE
  5
36C4
  8
OBJECT
 10
7.0547695463536737
 20
12.462402783697691
 30
0.0
 11
7.0547695463536737
 21
12.342402783697681
 31
0.0
  0
LINE
  5
36C5
  8
OBJECT
 10
7.9867695463536732
 20
12.697402783697679
 30
0.0
 11
8.4547695463536741
 21
12.697402783697679
 31
0.0
  0
LINE
  5
36C6
  8
OBJECT
 10
7.9867695463536732
 20
12.577402783697689
 30
0.0
 11
8.4547695463536741
 21
12.577402783697689
 31
0.0
  0
LINE
  5
36C7
  8
OBJECT
 10
8.4377695463536728
 20
12.577402783697689
 30
0.0
 11
8.4377695463536728
 21
12.697402783697679
 31
0.0
  0
LINE
  5
36C8
  8
OBJECT
 10
7.9867695463536732
 20
12.577402783697689
 30
0.0
 11
7.9867695463536732
 21
12.697402783697679
 31
0.0
  0
LINE
  5
36C9
  8
OBJECT
 10
7.037769546353676
 20
12.697402783697679
 30
0.0
 11
7.5057695463536751
 21
12.697402783697679
 31
0.0
  0
LINE
  5
36CA
  8
OBJECT
 10
7.037769546353676
 20
12.577402783697689
 30
0.0
 11
7.5057695463536751
 21
12.577402783697689
 31
0.0
  0
LINE
  5
36CB
  8
OBJECT
 10
7.5057695463536751
 20
12.577402783697689
 30
0.0
 11
7.5057695463536751
 21
12.697402783697679
 31
0.0
  0
LINE
  5
36CC
  8
OBJECT
 10
7.0547695463536737
 20
12.697402783697679
 30
0.0
 11
7.0547695463536737
 21
12.577402783697689
 31
0.0
  0
LINE
  5
36CD
  8
OBJECT
 10
7.9867695463536759
 20
12.932402783697681
 30
0.0
 11
8.4547695463536741
 21
12.932402783697681
 31
0.0
  0
LINE
  5
36CE
  8
OBJECT
 10
7.9867695463536759
 20
12.81240278369768
 30
0.0
 11
8.4547695463536741
 21
12.81240278369768
 31
0.0
  0
LINE
  5
36CF
  8
OBJECT
 10
8.4377695463536782
 20
12.81240278369768
 30
0.0
 11
8.4377695463536782
 21
12.932402783697681
 31
0.0
  0
LINE
  5
36D0
  8
OBJECT
 10
7.9867695463536759
 20
12.81240278369769
 30
0.0
 11
7.9867695463536759
 21
12.932402783697681
 31
0.0
  0
LINE
  5
36D1
  8
OBJECT
 10
7.037769546353676
 20
12.932402783697681
 30
0.0
 11
7.5057695463536751
 21
12.93240278369769
 31
0.0
  0
LINE
  5
36D2
  8
OBJECT
 10
7.037769546353676
 20
12.81240278369768
 30
0.0
 11
7.5057695463536751
 21
12.81240278369769
 31
0.0
  0
LINE
  5
36D3
  8
OBJECT
 10
7.5057695463536751
 20
12.81240278369769
 30
0.0
 11
7.5057695463536751
 21
12.93240278369769
 31
0.0
  0
LINE
  5
36D4
  8
OBJECT
 10
7.0547695463536737
 20
12.932402783697681
 30
0.0
 11
7.0547695463536737
 21
12.81240278369768
 31
0.0
  0
LINE
  5
36D5
  8
OBJECT
 10
7.9867695463536759
 20
13.167402783697691
 30
0.0
 11
8.4547695463536741
 21
13.167402783697691
 31
0.0
  0
LINE
  5
36D6
  8
OBJECT
 10
7.9867695463536759
 20
13.047402783697679
 30
0.0
 11
8.4547695463536741
 21
13.047402783697679
 31
0.0
  0
LINE
  5
36D7
  8
OBJECT
 10
8.4377695463536782
 20
13.047402783697679
 30
0.0
 11
8.4377695463536782
 21
13.167402783697691
 31
0.0
  0
LINE
  5
36D8
  8
OBJECT
 10
7.9867695463536759
 20
13.047402783697679
 30
0.0
 11
7.9867695463536759
 21
13.167402783697691
 31
0.0
  0
LINE
  5
36D9
  8
OBJECT
 10
7.037769546353676
 20
13.167402783697691
 30
0.0
 11
7.5057695463536751
 21
13.167402783697691
 31
0.0
  0
LINE
  5
36DA
  8
OBJECT
 10
7.037769546353676
 20
13.047402783697679
 30
0.0
 11
7.5057695463536751
 21
13.047402783697679
 31
0.0
  0
LINE
  5
36DB
  8
OBJECT
 10
7.5057695463536751
 20
13.047402783697679
 30
0.0
 11
7.5057695463536751
 21
13.167402783697691
 31
0.0
  0
LINE
  5
36DC
  8
OBJECT
 10
7.0547695463536737
 20
13.167402783697691
 30
0.0
 11
7.0547695463536737
 21
13.047402783697679
 31
0.0
  0
LINE
  5
36DD
  8
OBJECT
 10
7.9867695463536759
 20
13.40240278369768
 30
0.0
 11
8.4547695463536741
 21
13.40240278369768
 31
0.0
  0
LINE
  5
36DE
  8
OBJECT
 10
7.9867695463536759
 20
13.282402783697689
 30
0.0
 11
8.4547695463536741
 21
13.282402783697689
 31
0.0
  0
LINE
  5
36DF
  8
OBJECT
 10
8.4377695463536782
 20
13.282402783697689
 30
0.0
 11
8.4377695463536782
 21
13.40240278369768
 31
0.0
  0
LINE
  5
36E0
  8
OBJECT
 10
7.9867695463536759
 20
13.282402783697689
 30
0.0
 11
7.9867695463536759
 21
13.40240278369768
 31
0.0
  0
LINE
  5
36E1
  8
OBJECT
 10
7.037769546353676
 20
13.40240278369768
 30
0.0
 11
7.5057695463536751
 21
13.40240278369768
 31
0.0
  0
LINE
  5
36E2
  8
OBJECT
 10
7.037769546353676
 20
13.282402783697689
 30
0.0
 11
7.5057695463536751
 21
13.282402783697689
 31
0.0
  0
LINE
  5
36E3
  8
OBJECT
 10
7.5057695463536751
 20
13.282402783697689
 30
0.0
 11
7.5057695463536751
 21
13.40240278369768
 31
0.0
  0
LINE
  5
36E4
  8
OBJECT
 10
7.0547695463536737
 20
13.40240278369768
 30
0.0
 11
7.0547695463536737
 21
13.282402783697689
 31
0.0
  0
LINE
  5
36E5
  8
OBJECT
 10
7.9867695463536759
 20
13.637402783697681
 30
0.0
 11
8.4547695463536741
 21
13.637402783697681
 31
0.0
  0
LINE
  5
36E6
  8
OBJECT
 10
7.9867695463536759
 20
13.51740278369768
 30
0.0
 11
8.4547695463536741
 21
13.51740278369768
 31
0.0
  0
LINE
  5
36E7
  8
OBJECT
 10
8.4377695463536782
 20
13.51740278369768
 30
0.0
 11
8.4377695463536782
 21
13.637402783697681
 31
0.0
  0
LINE
  5
36E8
  8
OBJECT
 10
7.9867695463536759
 20
13.51740278369768
 30
0.0
 11
7.9867695463536759
 21
13.637402783697681
 31
0.0
  0
LINE
  5
36E9
  8
OBJECT
 10
7.037769546353676
 20
13.637402783697681
 30
0.0
 11
7.5057695463536751
 21
13.637402783697681
 31
0.0
  0
LINE
  5
36EA
  8
OBJECT
 10
7.037769546353676
 20
13.51740278369768
 30
0.0
 11
7.5057695463536751
 21
13.51740278369768
 31
0.0
  0
LINE
  5
36EB
  8
OBJECT
 10
7.5057695463536751
 20
13.51740278369768
 30
0.0
 11
7.5057695463536751
 21
13.637402783697681
 31
0.0
  0
LINE
  5
36EC
  8
OBJECT
 10
7.0547695463536737
 20
13.637402783697681
 30
0.0
 11
7.0547695463536737
 21
13.51740278369768
 31
0.0
  0
LINE
  5
36ED
  8
OBJECT
 10
7.9867695463536759
 20
13.872402783697691
 30
0.0
 11
8.4547695463536741
 21
13.872402783697691
 31
0.0
  0
LINE
  5
36EE
  8
OBJECT
 10
7.9867695463536759
 20
13.752402783697679
 30
0.0
 11
8.4547695463536741
 21
13.752402783697679
 31
0.0
  0
LINE
  5
36EF
  8
OBJECT
 10
8.4377695463536782
 20
13.752402783697679
 30
0.0
 11
8.4377695463536782
 21
13.872402783697691
 31
0.0
  0
LINE
  5
36F0
  8
OBJECT
 10
7.9867695463536759
 20
13.752402783697679
 30
0.0
 11
7.9867695463536759
 21
13.872402783697691
 31
0.0
  0
LINE
  5
36F1
  8
OBJECT
 10
7.037769546353676
 20
13.872402783697691
 30
0.0
 11
7.5057695463536751
 21
13.872402783697691
 31
0.0
  0
LINE
  5
36F2
  8
OBJECT
 10
7.037769546353676
 20
13.752402783697679
 30
0.0
 11
7.5057695463536751
 21
13.752402783697679
 31
0.0
  0
LINE
  5
36F3
  8
OBJECT
 10
7.5057695463536751
 20
13.752402783697679
 30
0.0
 11
7.5057695463536751
 21
13.872402783697691
 31
0.0
  0
LINE
  5
36F4
  8
OBJECT
 10
7.0547695463536737
 20
13.872402783697691
 30
0.0
 11
7.0547695463536737
 21
13.752402783697679
 31
0.0
  0
LINE
  5
36F5
  8
OBJECT
 10
7.9867695463536759
 20
14.10740278369768
 30
0.0
 11
8.4547695463536741
 21
14.10740278369768
 31
0.0
  0
LINE
  5
36F6
  8
OBJECT
 10
7.9867695463536759
 20
13.987402783697689
 30
0.0
 11
8.4547695463536741
 21
13.987402783697689
 31
0.0
  0
LINE
  5
36F7
  8
OBJECT
 10
8.4377695463536782
 20
13.987402783697689
 30
0.0
 11
8.4377695463536782
 21
14.10740278369768
 31
0.0
  0
LINE
  5
36F8
  8
OBJECT
 10
7.9867695463536759
 20
13.987402783697689
 30
0.0
 11
7.9867695463536759
 21
14.10740278369768
 31
0.0
  0
LINE
  5
36F9
  8
OBJECT
 10
7.037769546353676
 20
14.10740278369768
 30
0.0
 11
7.5057695463536751
 21
14.10740278369768
 31
0.0
  0
LINE
  5
36FA
  8
OBJECT
 10
7.037769546353676
 20
13.987402783697689
 30
0.0
 11
7.5057695463536751
 21
13.987402783697689
 31
0.0
  0
LINE
  5
36FB
  8
OBJECT
 10
7.5057695463536751
 20
13.987402783697689
 30
0.0
 11
7.5057695463536751
 21
14.10740278369768
 31
0.0
  0
LINE
  5
36FC
  8
OBJECT
 10
7.0547695463536737
 20
14.10740278369768
 30
0.0
 11
7.0547695463536737
 21
13.987402783697689
 31
0.0
  0
LINE
  5
36FD
  8
OBJECT
 10
7.9867695463536759
 20
14.342402783697681
 30
0.0
 11
8.4547695463536741
 21
14.342402783697681
 31
0.0
  0
LINE
  5
36FE
  8
OBJECT
 10
7.9867695463536759
 20
14.222402783697691
 30
0.0
 11
8.4547695463536741
 21
14.222402783697691
 31
0.0
  0
LINE
  5
36FF
  8
OBJECT
 10
8.4377695463536782
 20
14.222402783697691
 30
0.0
 11
8.4377695463536782
 21
14.342402783697681
 31
0.0
  0
LINE
  5
3700
  8
OBJECT
 10
7.9867695463536759
 20
14.222402783697691
 30
0.0
 11
7.9867695463536759
 21
14.342402783697681
 31
0.0
  0
LINE
  5
3701
  8
OBJECT
 10
7.037769546353676
 20
14.342402783697681
 30
0.0
 11
7.5057695463536751
 21
14.342402783697681
 31
0.0
  0
LINE
  5
3702
  8
OBJECT
 10
7.037769546353676
 20
14.222402783697691
 30
0.0
 11
7.5057695463536751
 21
14.222402783697691
 31
0.0
  0
LINE
  5
3703
  8
OBJECT
 10
7.5057695463536751
 20
14.222402783697691
 30
0.0
 11
7.5057695463536751
 21
14.342402783697681
 31
0.0
  0
LINE
  5
3704
  8
OBJECT
 10
7.0547695463536737
 20
14.342402783697681
 30
0.0
 11
7.0547695463536737
 21
14.222402783697691
 31
0.0
  0
LINE
  5
3705
  8
OBJECT
 10
7.9867695463536759
 20
14.832402783697701
 30
0.0
 11
8.4547695463536741
 21
14.832402783697679
 31
0.0
  0
LINE
  5
3706
  8
OBJECT
 10
7.9867695463536759
 20
14.832402783697679
 30
0.0
 11
8.4547695463536741
 21
14.832402783697679
 31
0.0
  0
LINE
  5
3707
  8
OBJECT
 10
7.9867695463536759
 20
14.457402783697679
 30
0.0
 11
8.4547695463536741
 21
14.457402783697679
 31
0.0
  0
LINE
  5
3708
  8
OBJECT
 10
8.4377695463536782
 20
14.832402783697679
 30
0.0
 11
8.4377695463536782
 21
14.457402783697679
 31
0.0
  0
LINE
  5
3709
  8
OBJECT
 10
7.9867695463536759
 20
14.832402783697701
 30
0.0
 11
7.9867695463536759
 21
14.457402783697679
 31
0.0
  0
LINE
  5
370A
  8
OBJECT
 10
7.0547695463536737
 20
14.457402783697679
 30
0.0
 11
7.0547695463536737
 21
14.832402783697679
 31
0.0
  0
LINE
  5
370B
  8
OBJECT
 10
7.5057695463536751
 20
14.832402783697679
 30
0.0
 11
7.5057695463536751
 21
14.457402783697679
 31
0.0
  0
LINE
  5
370C
  8
OBJECT
 10
7.037769546353676
 20
14.832402783697679
 30
0.0
 11
7.5057695463536751
 21
14.832402783697679
 31
0.0
  0
LINE
  5
370D
  8
OBJECT
 10
7.037769546353676
 20
14.832402783697679
 30
0.0
 11
7.5057695463536751
 21
14.832402783697679
 31
0.0
  0
LINE
  5
370E
  8
OBJECT
 10
7.037769546353676
 20
14.457402783697679
 30
0.0
 11
7.5057695463536751
 21
14.457402783697679
 31
0.0
  0
POLYLINE
  5
370F
  8
HIDDEN
 66
     1
 10
0.0
 20
0.0
 30
0.0
  0
VERTEX
  5
39C0
  8
HIDDEN
 10
8.3347695463536766
 20
13.47940278369768
 30
0.0
  0
VERTEX
  5
39C1
  8
HIDDEN
 10
7.7747695463536726
 20
13.47940278369768
 30
0.0
  0
VERTEX
  5
39C2
  8
HIDDEN
 10
7.7747695463536726
 20
13.539402783697691
 30
0.0
  0
VERTEX
  5
39C3
  8
HIDDEN
 10
8.3347695463536766
 20
13.539402783697691
 30
0.0
  0
SEQEND
  5
39C4
  8
HIDDEN
  0
POLYLINE
  5
3715
  8
HIDDEN
 66
     1
 10
0.0
 20
0.0
 30
0.0
  0
VERTEX
  5
39C5
  8
HIDDEN
 10
8.3347695463536766
 20
13.697402783697679
 30
0.0
  0
VERTEX
  5
39C6
  8
HIDDEN
 10
7.7747695463536726
 20
13.69740278369769
 30
0.0
  0
VERTEX
  5
39C7
  8
HIDDEN
 10
7.7747695463536726
 20
13.637402783697681
 30
0.0
  0
VERTEX
  5
39C8
  8
HIDDEN
 10
8.3347695463536766
 20
13.637402783697681
 30
0.0
  0
SEQEND
  5
39C9
  8
HIDDEN
  0
POLYLINE
  5
371B
  8
HIDDEN
 66
     1
 10
0.0
 20
0.0
 30
0.0
  0
VERTEX
  5
39CA
  8
HIDDEN
 10
8.3347695463536731
 20
12.651402783697691
 30
0.0
  0
VERTEX
  5
39CB
  8
HIDDEN
 10
7.7747695463536726
 20
12.651402783697691
 30
0.0
  0
VERTEX
  5
39CC
  8
HIDDEN
 10
7.7747695463536726
 20
12.711402783697681
 30
0.0
  0
VERTEX
  5
39CD
  8
HIDDEN
 10
8.3347695463536731
 20
12.711402783697681
 30
0.0
  0
SEQEND
  5
39CE
  8
HIDDEN
  0
POLYLINE
  5
3721
  8
HIDDEN
 66
     1
 10
0.0
 20
0.0
 30
0.0
  0
VERTEX
  5
39CF
  8
HIDDEN
 10
8.3347695463536766
 20
12.869402783697691
 30
0.0
  0
VERTEX
  5
39D0
  8
HIDDEN
 10
7.7747695463536726
 20
12.869402783697691
 30
0.0
  0
VERTEX
  5
39D1
  8
HIDDEN
 10
7.7747695463536726
 20
12.80940278369768
 30
0.0
  0
VERTEX
  5
39D2
  8
HIDDEN
 10
8.3347695463536766
 20
12.80940278369768
 30
0.0
  0
SEQEND
  5
39D3
  8
HIDDEN
  0
POLYLINE
  5
3727
  8
HIDDEN
 66
     1
 10
0.0
 20
0.0
 30
0.0
  0
VERTEX
  5
39D4
  8
HIDDEN
 10
8.3347695463536731
 20
10.99540278369768
 30
0.0
  0
VERTEX
  5
39D5
  8
HIDDEN
 10
7.7747695463536726
 20
10.99540278369768
 30
0.0
  0
VERTEX
  5
39D6
  8
HIDDEN
 10
7.7747695463536726
 20
11.055402783697691
 30
0.0
  0
VERTEX
  5
39D7
  8
HIDDEN
 10
8.3347695463536731
 20
11.055402783697691
 30
0.0
  0
SEQEND
  5
39D8
  8
HIDDEN
  0
POLYLINE
  5
372D
  8
HIDDEN
 66
     1
 10
0.0
 20
0.0
 30
0.0
  0
VERTEX
  5
39D9
  8
HIDDEN
 10
8.3347695463536731
 20
11.21340278369768
 30
0.0
  0
VERTEX
  5
39DA
  8
HIDDEN
 10
7.7747695463536726
 20
11.21340278369768
 30
0.0
  0
VERTEX
  5
39DB
  8
HIDDEN
 10
7.7747695463536726
 20
11.153402783697681
 30
0.0
  0
VERTEX
  5
39DC
  8
HIDDEN
 10
8.3347695463536731
 20
11.153402783697681
 30
0.0
  0
SEQEND
  5
39DD
  8
HIDDEN
  0
POLYLINE
  5
3733
  8
HIDDEN
 66
     1
 10
0.0
 20
0.0
 30
0.0
  0
VERTEX
  5
39DE
  8
HIDDEN
 10
8.3347695463536731
 20
10.385402783697691
 30
0.0
  0
VERTEX
  5
39DF
  8
HIDDEN
 10
7.7747695463536726
 20
10.385402783697691
 30
0.0
  0
VERTEX
  5
39E0
  8
HIDDEN
 10
7.7747695463536726
 20
10.32540278369769
 30
0.0
  0
VERTEX
  5
39E1
  8
HIDDEN
 10
8.3347695463536731
 20
10.32540278369769
 30
0.0
  0
SEQEND
  5
39E2
  8
HIDDEN
  0
POLYLINE
  5
3739
  8
HIDDEN
 66
     1
 10
0.0
 20
0.0
 30
0.0
  0
VERTEX
  5
39E3
  8
HIDDEN
 10
8.3347695463536731
 20
10.167402783697691
 30
0.0
  0
VERTEX
  5
39E4
  8
HIDDEN
 10
7.7747695463536726
 20
10.167402783697691
 30
0.0
  0
VERTEX
  5
39E5
  8
HIDDEN
 10
7.7747695463536726
 20
10.227402783697681
 30
0.0
  0
VERTEX
  5
39E6
  8
HIDDEN
 10
8.3347695463536731
 20
10.227402783697681
 30
0.0
  0
SEQEND
  5
39E7
  8
HIDDEN
  0
LINE
  5
373F
  8
HIDDEN
 10
7.157769546353677
 20
9.0274027836976956
 30
0.0
 11
8.3347695463536731
 21
9.0274027836976956
 31
0.0
  0
LINE
  5
3740
  8
HIDDEN
 10
7.1462695463536754
 20
8.8874027836976932
 30
0.0
 11
8.3462695463536711
 21
8.8874027836976932
 31
0.0
  0
LINE
  5
3741
  8
HIDDEN
 10
7.1462695463536754
 20
8.9824027836976974
 30
0.0
 11
8.3462695463536711
 21
8.9824027836976974
 31
0.0
  0
LINE
  5
3742
  8
HIDDEN
 10
7.157769546353677
 20
14.837402783697691
 30
0.0
 11
8.3347695463536766
 21
14.837402783697691
 31
0.0
  0
LINE
  5
3743
  8
HIDDEN
 10
7.1462695463536754
 20
14.882402783697691
 30
0.0
 11
8.3462695463536711
 21
14.882402783697691
 31
0.0
  0
LINE
  5
3744
  8
HIDDEN
 10
7.1462695463536781
 20
14.9774027836977
 30
0.0
 11
8.3462695463536711
 21
14.9774027836977
 31
0.0
  0
LINE
  5
3745
  8
HIDDEN
 10
8.3347695463536766
 20
14.837402783697691
 30
0.0
 11
8.3347695463536731
 21
9.0274027836976956
 31
0.0
  0
LINE
  5
3746
  8
HIDDEN
 10
8.3462695463536711
 20
8.9824027836976974
 30
0.0
 11
8.3462695463536711
 21
8.8874027836976932
 31
0.0
  0
LINE
  5
3747
  8
HIDDEN
 10
8.3462695463536711
 20
14.882402783697691
 30
0.0
 11
8.3462695463536711
 21
14.9774027836977
 31
0.0
  0
LINE
  5
3748
  8
HIDDEN
 10
7.157769546353677
 20
14.837402783697691
 30
0.0
 11
7.157769546353677
 21
9.0274027836976956
 31
0.0
  0
LINE
  5
3749
  8
HIDDEN
 10
7.1462695463536754
 20
8.9824027836976974
 30
0.0
 11
7.1462695463536754
 21
8.8874027836976932
 31
0.0
  0
POLYLINE
  5
374A
  8
HIDDEN
 66
     1
 10
0.0
 20
0.0
 30
0.0
  0
VERTEX
  5
39E8
  8
HIDDEN
 10
7.157769546353677
 20
10.167402783697691
 30
0.0
  0
VERTEX
  5
39E9
  8
HIDDEN
 10
7.7177695463536731
 20
10.167402783697691
 30
0.0
  0
VERTEX
  5
39EA
  8
HIDDEN
 10
7.7177695463536731
 20
10.227402783697681
 30
0.0
  0
VERTEX
  5
39EB
  8
HIDDEN
 10
7.157769546353677
 20
10.227402783697681
 30
0.0
  0
SEQEND
  5
39EC
  8
HIDDEN
  0
POLYLINE
  5
3750
  8
HIDDEN
 66
     1
 10
0.0
 20
0.0
 30
0.0
  0
VERTEX
  5
39ED
  8
HIDDEN
 10
7.157769546353677
 20
10.385402783697691
 30
0.0
  0
VERTEX
  5
39EE
  8
HIDDEN
 10
7.7177695463536731
 20
10.385402783697691
 30
0.0
  0
VERTEX
  5
39EF
  8
HIDDEN
 10
7.7177695463536731
 20
10.32540278369769
 30
0.0
  0
VERTEX
  5
39F0
  8
HIDDEN
 10
7.157769546353677
 20
10.32540278369769
 30
0.0
  0
SEQEND
  5
39F1
  8
HIDDEN
  0
POLYLINE
  5
3756
  8
HIDDEN
 66
     1
 10
0.0
 20
0.0
 30
0.0
  0
VERTEX
  5
39F2
  8
HIDDEN
 10
7.157769546353677
 20
11.21340278369768
 30
0.0
  0
VERTEX
  5
39F3
  8
HIDDEN
 10
7.7177695463536731
 20
11.21340278369768
 30
0.0
  0
VERTEX
  5
39F4
  8
HIDDEN
 10
7.7177695463536731
 20
11.153402783697681
 30
0.0
  0
VERTEX
  5
39F5
  8
HIDDEN
 10
7.157769546353677
 20
11.153402783697681
 30
0.0
  0
SEQEND
  5
39F6
  8
HIDDEN
  0
POLYLINE
  5
375C
  8
HIDDEN
 66
     1
 10
0.0
 20
0.0
 30
0.0
  0
VERTEX
  5
39F7
  8
HIDDEN
 10
7.157769546353677
 20
10.99540278369768
 30
0.0
  0
VERTEX
  5
39F8
  8
HIDDEN
 10
7.7177695463536731
 20
10.99540278369768
 30
0.0
  0
VERTEX
  5
39F9
  8
HIDDEN
 10
7.7177695463536731
 20
11.055402783697691
 30
0.0
  0
VERTEX
  5
39FA
  8
HIDDEN
 10
7.157769546353677
 20
11.055402783697691
 30
0.0
  0
SEQEND
  5
39FB
  8
HIDDEN
  0
POLYLINE
  5
3762
  8
HIDDEN
 66
     1
 10
0.0
 20
0.0
 30
0.0
  0
VERTEX
  5
39FC
  8
HIDDEN
 10
7.1577695463536717
 20
12.651402783697691
 30
0.0
  0
VERTEX
  5
39FD
  8
HIDDEN
 10
7.7177695463536731
 20
12.651402783697691
 30
0.0
  0
VERTEX
  5
39FE
  8
HIDDEN
 10
7.7177695463536731
 20
12.711402783697681
 30
0.0
  0
VERTEX
  5
39FF
  8
HIDDEN
 10
7.1577695463536717
 20
12.711402783697681
 30
0.0
  0
SEQEND
  5
3A00
  8
HIDDEN
  0
POLYLINE
  5
3768
  8
HIDDEN
 66
     1
 10
0.0
 20
0.0
 30
0.0
  0
VERTEX
  5
3A01
  8
HIDDEN
 10
7.157769546353677
 20
12.869402783697691
 30
0.0
  0
VERTEX
  5
3A02
  8
HIDDEN
 10
7.7177695463536731
 20
12.869402783697691
 30
0.0
  0
VERTEX
  5
3A03
  8
HIDDEN
 10
7.7177695463536731
 20
12.80940278369768
 30
0.0
  0
VERTEX
  5
3A04
  8
HIDDEN
 10
7.157769546353677
 20
12.80940278369768
 30
0.0
  0
SEQEND
  5
3A05
  8
HIDDEN
  0
POLYLINE
  5
376E
  8
HIDDEN
 66
     1
 10
0.0
 20
0.0
 30
0.0
  0
VERTEX
  5
3A06
  8
HIDDEN
 10
7.157769546353677
 20
13.697402783697679
 30
0.0
  0
VERTEX
  5
3A07
  8
HIDDEN
 10
7.7177695463536731
 20
13.69740278369769
 30
0.0
  0
VERTEX
  5
3A08
  8
HIDDEN
 10
7.7177695463536731
 20
13.637402783697681
 30
0.0
  0
VERTEX
  5
3A09
  8
HIDDEN
 10
7.157769546353677
 20
13.637402783697681
 30
0.0
  0
SEQEND
  5
3A0A
  8
HIDDEN
  0
POLYLINE
  5
3774
  8
HIDDEN
 66
     1
 10
0.0
 20
0.0
 30
0.0
  0
VERTEX
  5
3A0B
  8
HIDDEN
 10
7.157769546353677
 20
13.47940278369768
 30
0.0
  0
VERTEX
  5
3A0C
  8
HIDDEN
 10
7.7177695463536731
 20
13.47940278369768
 30
0.0
  0
VERTEX
  5
3A0D
  8
HIDDEN
 10
7.7177695463536731
 20
13.539402783697691
 30
0.0
  0
VERTEX
  5
3A0E
  8
HIDDEN
 10
7.157769546353677
 20
13.539402783697691
 30
0.0
  0
SEQEND
  5
3A0F
  8
HIDDEN
  0
LINE
  5
377A
  8
HIDDEN
 10
7.1462695463536754
 20
14.882402783697691
 30
0.0
 11
7.1462695463536781
 21
14.9774027836977
 31
0.0
  0
POLYLINE
  5
377B
  8
HIDDEN
 66
     1
 10
0.0
 20
0.0
 30
0.0
  0
VERTEX
  5
3A10
  8
HIDDEN
 10
8.3347695463536731
 20
9.4624027836976943
 30
0.0
  0
VERTEX
  5
3A11
  8
HIDDEN
 10
8.1787695463536707
 20
9.4624027836976943
 30
0.0
  0
VERTEX
  5
3A12
  8
HIDDEN
 10
8.1787695463536707
 20
9.6784027836976954
 30
0.0
  0
VERTEX
  5
3A13
  8
HIDDEN
 10
8.3347695463536731
 20
9.6784027836976954
 30
0.0
  0
SEQEND
  5
3A14
  8
HIDDEN
  0
LINE
  5
3781
  8
HIDDEN
 10
8.1787695463536707
 20
9.5254027836976967
 30
0.0
 11
8.3347695463536731
 21
9.5254027836976967
 31
0.0
  0
LINE
  5
3782
  8
HIDDEN
 10
8.1787695463536707
 20
9.6154027836976965
 30
0.0
 11
8.3347695463536731
 21
9.6154027836976965
 31
0.0
  0
POLYLINE
  5
3783
  8
HIDDEN
 66
     1
 10
0.0
 20
0.0
 30
0.0
  0
VERTEX
  5
3A15
  8
HIDDEN
 10
8.3347695463536766
 20
14.18640278369768
 30
0.0
  0
VERTEX
  5
3A16
  8
HIDDEN
 10
8.178769546353676
 20
14.18640278369768
 30
0.0
  0
VERTEX
  5
3A17
  8
HIDDEN
 10
8.178769546353676
 20
14.40240278369769
 30
0.0
  0
VERTEX
  5
3A18
  8
HIDDEN
 10
8.3347695463536766
 20
14.40240278369769
 30
0.0
  0
SEQEND
  5
3A19
  8
HIDDEN
  0
LINE
  5
3789
  8
HIDDEN
 10
8.178769546353676
 20
14.249402783697681
 30
0.0
 11
8.3347695463536766
 21
14.249402783697681
 31
0.0
  0
LINE
  5
378A
  8
HIDDEN
 10
8.178769546353676
 20
14.339402783697681
 30
0.0
 11
8.3347695463536766
 21
14.339402783697681
 31
0.0
  0
POLYLINE
  5
378B
  8
HIDDEN
 66
     1
 10
0.0
 20
0.0
 30
0.0
  0
VERTEX
  5
3A1A
  8
HIDDEN
 10
7.157769546353677
 20
14.18640278369768
 30
0.0
  0
VERTEX
  5
3A1B
  8
HIDDEN
 10
7.313769546353674
 20
14.18640278369768
 30
0.0
  0
VERTEX
  5
3A1C
  8
HIDDEN
 10
7.313769546353674
 20
14.40240278369769
 30
0.0
  0
VERTEX
  5
3A1D
  8
HIDDEN
 10
7.157769546353677
 20
14.40240278369769
 30
0.0
  0
SEQEND
  5
3A1E
  8
HIDDEN
  0
LINE
  5
3791
  8
HIDDEN
 10
7.313769546353674
 20
14.249402783697681
 30
0.0
 11
7.157769546353677
 21
14.249402783697681
 31
0.0
  0
LINE
  5
3792
  8
HIDDEN
 10
7.313769546353674
 20
14.339402783697681
 30
0.0
 11
7.157769546353677
 21
14.339402783697681
 31
0.0
  0
POLYLINE
  5
3793
  8
HIDDEN
 66
     1
 10
0.0
 20
0.0
 30
0.0
  0
VERTEX
  5
3A1F
  8
HIDDEN
 10
7.157769546353677
 20
9.4624027836976943
 30
0.0
  0
VERTEX
  5
3A20
  8
HIDDEN
 10
7.313769546353674
 20
9.4624027836976943
 30
0.0
  0
VERTEX
  5
3A21
  8
HIDDEN
 10
7.313769546353674
 20
9.6784027836976954
 30
0.0
  0
VERTEX
  5
3A22
  8
HIDDEN
 10
7.157769546353677
 20
9.6784027836976954
 30
0.0
  0
SEQEND
  5
3A23
  8
HIDDEN
  0
LINE
  5
3799
  8
HIDDEN
 10
7.313769546353674
 20
9.5254027836976967
 30
0.0
 11
7.157769546353677
 21
9.5254027836976967
 31
0.0
  0
LINE
  5
379A
  8
HIDDEN
 10
7.313769546353674
 20
9.6154027836976965
 30
0.0
 11
7.157769546353677
 21
9.6154027836976965
 31
0.0
  0
LINE
  5
379B
  8
HIDDEN
 10
8.2647695463536763
 20
9.1514027836976943
 30
0.0
 11
7.749769546353674
 21
9.1514027836976943
 31
0.0
  0
LINE
  5
379C
  8
HIDDEN
 10
8.2647695463536763
 20
9.2814027836976951
 30
0.0
 11
7.749769546353674
 21
9.2814027836976951
 31
0.0
  0
POLYLINE
  5
379D
  8
HIDDEN
 66
     1
 10
0.0
 20
0.0
 30
0.0
  0
VERTEX
  5
3A24
  8
HIDDEN
 10
8.3347695463536766
 20
9.0684027836976941
 30
0.0
  0
VERTEX
  5
3A25
  8
HIDDEN
 10
7.749769546353674
 20
9.0684027836976941
 30
0.0
  0
VERTEX
  5
3A26
  8
HIDDEN
 10
7.749769546353674
 20
9.3644027836976953
 30
0.0
  0
VERTEX
  5
3A27
  8
HIDDEN
 10
8.3347695463536766
 20
9.3644027836976953
 30
0.0
  0
SEQEND
  5
3A28
  8
HIDDEN
  0
POLYLINE
  5
37A3
  8
HIDDEN
 66
     1
 10
0.0
 20
0.0
 30
0.0
  0
VERTEX
  5
3A29
  8
HIDDEN
 10
7.157769546353677
 20
9.0684027836976941
 30
0.0
  0
VERTEX
  5
3A2A
  8
HIDDEN
 10
7.7427695463536734
 20
9.0684027836976941
 30
0.0
  0
VERTEX
  5
3A2B
  8
HIDDEN
 10
7.7427695463536734
 20
9.3644027836976953
 30
0.0
  0
VERTEX
  5
3A2C
  8
HIDDEN
 10
7.157769546353677
 20
9.3644027836976953
 30
0.0
  0
SEQEND
  5
3A2D
  8
HIDDEN
  0
POLYLINE
  5
37A9
  8
HIDDEN
 66
     1
 10
0.0
 20
0.0
 30
0.0
  0
VERTEX
  5
3A2E
  8
HIDDEN
 10
7.7427695463536734
 20
9.2614027836976955
 30
0.0
  0
VERTEX
  5
3A2F
  8
HIDDEN
 10
7.097769546353673
 20
9.2614027836976955
 30
0.0
  0
VERTEX
  5
3A30
  8
HIDDEN
 10
7.097769546353673
 20
9.1714027836976957
 30
0.0
  0
VERTEX
  5
3A31
  8
HIDDEN
 10
7.7427695463536734
 20
9.1714027836976957
 30
0.0
  0
SEQEND
  5
3A32
  8
HIDDEN
  0
POLYLINE
  5
37AF
  8
HIDDEN
 66
     1
 10
0.0
 20
0.0
 30
0.0
  0
VERTEX
  5
3A33
  8
HIDDEN
 10
8.4547695463536741
 20
9.3314027836976958
 30
0.0
  0
VERTEX
  5
3A34
  8
HIDDEN
 10
8.2647695463536763
 20
9.3314027836976958
 30
0.0
  0
VERTEX
  5
3A35
  8
HIDDEN
 10
8.2647695463536763
 20
9.1014027836976954
 30
0.0
  0
VERTEX
  5
3A36
  8
HIDDEN
 10
8.4547695463536741
 20
9.1014027836976954
 30
0.0
  0
SEQEND
  5
3A37
  8
HIDDEN
  0
POLYLINE
  5
37B5
  8
HIDDEN
 66
     1
 10
0.0
 20
0.0
 30
0.0
  0
VERTEX
  5
3A38
  8
HIDDEN
 10
8.3347695463536766
 20
14.500402783697689
 30
0.0
  0
VERTEX
  5
3A39
  8
HIDDEN
 10
7.749769546353674
 20
14.500402783697689
 30
0.0
  0
VERTEX
  5
3A3A
  8
HIDDEN
 10
7.749769546353674
 20
14.79640278369768
 30
0.0
  0
VERTEX
  5
3A3B
  8
HIDDEN
 10
8.3347695463536766
 20
14.79640278369768
 30
0.0
  0
SEQEND
  5
3A3C
  8
HIDDEN
  0
LINE
  5
37BB
  8
HIDDEN
 10
8.2647695463536763
 20
14.71340278369768
 30
0.0
 11
7.749769546353674
 21
14.71340278369768
 31
0.0
  0
LINE
  5
37BC
  8
HIDDEN
 10
8.2647695463536763
 20
14.583402783697681
 30
0.0
 11
7.749769546353674
 21
14.583402783697681
 31
0.0
  0
POLYLINE
  5
37BD
  8
HIDDEN
 66
     1
 10
0.0
 20
0.0
 30
0.0
  0
VERTEX
  5
3A3D
  8
HIDDEN
 10
7.157769546353677
 20
14.500402783697689
 30
0.0
  0
VERTEX
  5
3A3E
  8
HIDDEN
 10
7.742769546353677
 20
14.500402783697689
 30
0.0
  0
VERTEX
  5
3A3F
  8
HIDDEN
 10
7.742769546353677
 20
14.79640278369768
 30
0.0
  0
VERTEX
  5
3A40
  8
HIDDEN
 10
7.157769546353677
 20
14.79640278369768
 30
0.0
  0
SEQEND
  5
3A41
  8
HIDDEN
  0
POLYLINE
  5
37C3
  8
HIDDEN
 66
     1
 10
0.0
 20
0.0
 30
0.0
  0
VERTEX
  5
3A42
  8
HIDDEN
 10
7.742769546353677
 20
14.693402783697691
 30
0.0
  0
VERTEX
  5
3A43
  8
HIDDEN
 10
7.097769546353673
 20
14.693402783697691
 30
0.0
  0
VERTEX
  5
3A44
  8
HIDDEN
 10
7.097769546353673
 20
14.603402783697691
 30
0.0
  0
VERTEX
  5
3A45
  8
HIDDEN
 10
7.742769546353677
 20
14.603402783697691
 30
0.0
  0
SEQEND
  5
3A46
  8
HIDDEN
  0
POLYLINE
  5
37C9
  8
HIDDEN
 66
     1
 10
0.0
 20
0.0
 30
0.0
  0
VERTEX
  5
3A47
  8
HIDDEN
 10
8.4547695463536741
 20
14.763402783697691
 30
0.0
  0
VERTEX
  5
3A48
  8
HIDDEN
 10
8.2647695463536763
 20
14.763402783697691
 30
0.0
  0
VERTEX
  5
3A49
  8
HIDDEN
 10
8.2647695463536763
 20
14.53340278369768
 30
0.0
  0
VERTEX
  5
3A4A
  8
HIDDEN
 10
8.4547695463536741
 20
14.53340278369768
 30
0.0
  0
SEQEND
  5
3A4B
  8
HIDDEN
  0
POLYLINE
  5
37CF
  8
HIDDEN
 66
     1
 10
0.0
 20
0.0
 30
0.0
  0
VERTEX
  5
3A4C
  8
HIDDEN
 10
7.765769546353674
 20
9.0474027836976951
 30
0.0
  0
VERTEX
  5
3A4D
  8
HIDDEN
 10
7.8527695463536729
 20
9.0474027836976951
 30
0.0
  0
VERTEX
  5
3A4E
  8
HIDDEN
 10
7.8527695463536764
 20
14.8174027836977
 30
0.0
  0
VERTEX
  5
3A4F
  8
HIDDEN
 10
7.765769546353682
 20
14.8174027836977
 30
0.0
  0
SEQEND
  5
3A50
  8
HIDDEN
  0
LINE
  5
37D5
  8
HIDDEN
 10
7.8557695463536721
 20
9.0274027836976956
 30
0.0
 11
7.8557695463536827
 21
14.837402783697691
 31
0.0
  0
POLYLINE
  5
37D6
  8
HIDDEN
 66
     1
 10
0.0
 20
0.0
 30
0.0
  0
VERTEX
  5
3A51
  8
HIDDEN
 10
1.2449058440838121
 20
6.0783983120286491
 30
0.0
  0
VERTEX
  5
3A52
  8
HIDDEN
 10
1.2403463672861881
 20
6.1653983120286497
 30
0.0
  0
VERTEX
  5
3A53
  8
HIDDEN
 10
1.196313395942556
 20
6.165398312028648
 30
0.0
  0
VERTEX
  5
3A54
  8
HIDDEN
 10
1.196313395942556
 20
6.0783983120286491
 30
0.0
  0
SEQEND
  5
3A55
  8
HIDDEN
  0
POLYLINE
  5
37DC
  8
HIDDEN
 66
     1
 10
0.0
 20
0.0
 30
0.0
  0
VERTEX
  5
3A56
  8
HIDDEN
 10
1.1867850659560999
 20
6.0783983120286491
 30
0.0
  0
VERTEX
  5
3A57
  8
HIDDEN
 10
1.1867850659560999
 20
6.168398312028657
 30
0.0
  0
VERTEX
  5
3A58
  8
HIDDEN
 10
1.2516664476113271
 20
6.168398312028657
 30
0.0
  0
SEQEND
  5
3A59
  8
HIDDEN
  0
POLYLINE
  5
37E1
  8
HIDDEN
 66
     1
 10
0.0
 20
0.0
 30
0.0
  0
VERTEX
  5
3A5A
  8
HIDDEN
 10
1.3311334223546061
 20
6.6473983120286491
 30
0.0
  0
VERTEX
  5
3A5B
  8
HIDDEN
 10
1.3017850659561021
 20
6.0873983120286468
 30
0.0
  0
VERTEX
  5
3A5C
  8
HIDDEN
 10
1.2474214174894021
 20
6.0873983120286468
 30
0.0
  0
SEQEND
  5
3A5D
  8
HIDDEN
  0
POLYLINE
  5
37E6
  8
HIDDEN
 66
     1
 10
0.0
 20
0.0
 30
0.0
  0
VERTEX
  5
3A5E
  8
HIDDEN
 10
1.2474214174894021
 20
6.0303983120286491
 30
0.0
  0
VERTEX
  5
3A5F
  8
HIDDEN
 10
1.3017850659561021
 20
6.0303983120286491
 30
0.0
  0
VERTEX
  5
3A60
  8
HIDDEN
 10
1.3311334223546061
 20
5.4703983120286477
 30
0.0
  0
SEQEND
  5
3A61
  8
HIDDEN
  0
POLYLINE
  5
37EB
  8
HIDDEN
 66
     1
 10
0.0
 20
0.0
 30
0.0
  0
VERTEX
  5
3A62
  8
HIDDEN
 10
1.9047850659561001
 20
5.4703983120286512
 30
0.0
  0
VERTEX
  5
3A63
  8
HIDDEN
 10
1.9047850659561001
 20
5.62639831202865
 30
0.0
  0
VERTEX
  5
3A64
  8
HIDDEN
 10
2.1207850659561021
 20
5.62639831202865
 30
0.0
  0
VERTEX
  5
3A65
  8
HIDDEN
 10
2.1207850659561021
 20
5.4703983120286512
 30
0.0
  0
SEQEND
  5
3A66
  8
HIDDEN
  0
LINE
  5
37F1
  8
HIDDEN
 10
1.967785065956102
 20
5.62639831202865
 30
0.0
 11
1.967785065956102
 21
5.4703983120286512
 31
0.0
  0
LINE
  5
37F2
  8
HIDDEN
 10
2.0577850659561032
 20
5.62639831202865
 30
0.0
 11
2.0577850659561032
 21
5.4703983120286512
 31
0.0
  0
POLYLINE
  5
37F3
  8
HIDDEN
 66
     1
 10
0.0
 20
0.0
 30
0.0
  0
VERTEX
  5
3A67
  8
HIDDEN
 10
3.8727850659561009
 20
5.4703983120286512
 30
0.0
  0
VERTEX
  5
3A68
  8
HIDDEN
 10
3.8727850659561009
 20
5.62639831202865
 30
0.0
  0
VERTEX
  5
3A69
  8
HIDDEN
 10
4.0887850659561007
 20
5.62639831202865
 30
0.0
  0
VERTEX
  5
3A6A
  8
HIDDEN
 10
4.0887850659561007
 20
5.4703983120286512
 30
0.0
  0
SEQEND
  5
3A6B
  8
HIDDEN
  0
LINE
  5
37F9
  8
HIDDEN
 10
3.9357850659561029
 20
5.62639831202865
 30
0.0
 11
3.9357850659561029
 21
5.4703983120286512
 31
0.0
  0
LINE
  5
37FA
  8
HIDDEN
 10
4.0257850659561027
 20
5.62639831202865
 30
0.0
 11
4.0257850659561027
 21
5.4703983120286512
 31
0.0
  0
POLYLINE
  5
37FB
  8
HIDDEN
 66
     1
 10
0.0
 20
0.0
 30
0.0
  0
VERTEX
  5
3A6C
  8
HIDDEN
 10
1.9047850659561001
 20
6.6473983120286491
 30
0.0
  0
VERTEX
  5
3A6D
  8
HIDDEN
 10
1.9047850659561001
 20
6.4913983120286467
 30
0.0
  0
VERTEX
  5
3A6E
  8
HIDDEN
 10
2.1207850659561021
 20
6.4913983120286467
 30
0.0
  0
VERTEX
  5
3A6F
  8
HIDDEN
 10
2.1207850659561021
 20
6.6473983120286491
 30
0.0
  0
SEQEND
  5
3A70
  8
HIDDEN
  0
LINE
  5
3801
  8
HIDDEN
 10
1.967785065956102
 20
6.4913983120286467
 30
0.0
 11
1.967785065956102
 21
6.6473983120286491
 31
0.0
  0
LINE
  5
3802
  8
HIDDEN
 10
2.0577850659561032
 20
6.4913983120286467
 30
0.0
 11
2.0577850659561032
 21
6.6473983120286491
 31
0.0
  0
POLYLINE
  5
3803
  8
HIDDEN
 66
     1
 10
0.0
 20
0.0
 30
0.0
  0
VERTEX
  5
3A71
  8
HIDDEN
 10
3.8727850659561009
 20
6.6473983120286491
 30
0.0
  0
VERTEX
  5
3A72
  8
HIDDEN
 10
3.8727850659561009
 20
6.4913983120286467
 30
0.0
  0
VERTEX
  5
3A73
  8
HIDDEN
 10
4.0887850659561007
 20
6.4913983120286467
 30
0.0
  0
VERTEX
  5
3A74
  8
HIDDEN
 10
4.0887850659561007
 20
6.6473983120286491
 30
0.0
  0
SEQEND
  5
3A75
  8
HIDDEN
  0
LINE
  5
3809
  8
HIDDEN
 10
3.9357850659561029
 20
6.4913983120286467
 30
0.0
 11
3.9357850659561029
 21
6.6473983120286491
 31
0.0
  0
LINE
  5
380A
  8
HIDDEN
 10
4.0257850659561027
 20
6.4913983120286467
 30
0.0
 11
4.0257850659561027
 21
6.6473983120286491
 31
0.0
  0
LINE
  5
380B
  8
HIDDEN
 10
1.5067850659561011
 20
5.540398312028648
 30
0.0
 11
1.5067850659561011
 21
6.0553983120286494
 31
0.0
  0
LINE
  5
380C
  8
HIDDEN
 10
1.3767850659561021
 20
5.540398312028648
 30
0.0
 11
1.3767850659561021
 21
6.0553983120286494
 31
0.0
  0
POLYLINE
  5
380D
  8
HIDDEN
 66
     1
 10
0.0
 20
0.0
 30
0.0
  0
VERTEX
  5
3A76
  8
HIDDEN
 10
1.2937850659561001
 20
5.4703983120286477
 30
0.0
  0
VERTEX
  5
3A77
  8
HIDDEN
 10
1.2937850659561001
 20
6.0553983120286494
 30
0.0
  0
VERTEX
  5
3A78
  8
HIDDEN
 10
1.5897850659561019
 20
6.0553983120286494
 30
0.0
  0
VERTEX
  5
3A79
  8
HIDDEN
 10
1.5897850659561019
 20
5.4703983120286477
 30
0.0
  0
SEQEND
  5
3A7A
  8
HIDDEN
  0
POLYLINE
  5
3813
  8
HIDDEN
 66
     1
 10
0.0
 20
0.0
 30
0.0
  0
VERTEX
  5
3A7B
  8
HIDDEN
 10
1.5567850659561011
 20
5.3503983120286494
 30
0.0
  0
VERTEX
  5
3A7C
  8
HIDDEN
 10
1.5567850659561011
 20
5.540398312028648
 30
0.0
  0
VERTEX
  5
3A7D
  8
HIDDEN
 10
1.326785065956102
 20
5.540398312028648
 30
0.0
  0
VERTEX
  5
3A7E
  8
HIDDEN
 10
1.326785065956102
 20
5.3503983120286494
 30
0.0
  0
SEQEND
  5
3A7F
  8
HIDDEN
  0
POLYLINE
  5
3819
  8
HIDDEN
 66
     1
 10
0.0
 20
0.0
 30
0.0
  0
VERTEX
  5
3A80
  8
HIDDEN
 10
1.2937850659561001
 20
6.6473983120286491
 30
0.0
  0
VERTEX
  5
3A81
  8
HIDDEN
 10
1.2937850659561001
 20
6.0623983120286491
 30
0.0
  0
VERTEX
  5
3A82
  8
HIDDEN
 10
1.5897850659561019
 20
6.0623983120286491
 30
0.0
  0
VERTEX
  5
3A83
  8
HIDDEN
 10
1.5897850659561019
 20
6.6473983120286491
 30
0.0
  0
SEQEND
  5
3A84
  8
HIDDEN
  0
POLYLINE
  5
381F
  8
HIDDEN
 66
     1
 10
0.0
 20
0.0
 30
0.0
  0
VERTEX
  5
3A85
  8
HIDDEN
 10
1.486785065956101
 20
6.0623983120286491
 30
0.0
  0
VERTEX
  5
3A86
  8
HIDDEN
 10
1.486785065956101
 20
6.7073983120286478
 30
0.0
  0
VERTEX
  5
3A87
  8
HIDDEN
 10
1.3967850659561021
 20
6.7073983120286478
 30
0.0
  0
VERTEX
  5
3A88
  8
HIDDEN
 10
1.3967850659561021
 20
6.0623983120286491
 30
0.0
  0
SEQEND
  5
3A89
  8
HIDDEN
  0
LINE
  5
3825
  8
OBJECT
 10
1.1267850659561021
 20
6.0783983120286491
 30
0.0
 11
1.307032088235728
 21
6.0783983120286491
 31
0.0
  0
LINE
  5
3826
  8
OBJECT
 10
1.1267850659561021
 20
6.0393983120286494
 30
0.0
 11
1.307032088235728
 21
6.0393983120286494
 31
0.0
  0
LINE
  5
3827
  8
OBJECT
 10
1.307032088235728
 20
6.0393983120286494
 30
0.0
 11
1.307032088235728
 21
6.0783983120286491
 31
0.0
  0
LINE
  5
3828
  8
OBJECT
 10
4.65986248402141
 20
5.5303983120286491
 30
0.0
 11
1.333707647890797
 21
5.5303983120286491
 31
0.0
  0
LINE
  5
3829
  8
OBJECT
 10
1.333707647890797
 20
5.5303983120286491
 30
0.0
 11
1.307032088235728
 21
6.0393983120286494
 31
0.0
  0
LINE
  5
382A
  8
OBJECT
 10
1.333707647890797
 20
6.5873983120286486
 30
0.0
 11
1.307032088235728
 21
6.0783983120286491
 31
0.0
  0
LINE
  5
382B
  8
OBJECT
 10
4.65986248402141
 20
6.5873983120286486
 30
0.0
 11
1.333707647890797
 21
6.5873983120286486
 31
0.0
  0
LINE
  5
382C
  8
OBJECT
 10
4.6826376336225639
 20
6.637398312028651
 30
0.0
 11
1.3109324982896371
 21
6.637398312028651
 31
0.0
  0
ARC
  5
382D
  8
OBJECT
 10
1.3109324982896371
 20
6.6113983120286512
 30
0.0
 40
0.0259999999999997
 50
90.0
 51
177.0
  0
LINE
  5
382E
  8
OBJECT
 10
1.2849681303860181
 20
6.6127590468909681
 30
0.0
 11
1.256963470935833
 21
6.0783983120286491
 31
0.0
  0
LINE
  5
382F
  8
OBJECT
 10
1.2849681303860181
 20
5.5050375771663322
 30
0.0
 11
1.256963470935833
 21
6.0393983120286494
 31
0.0
  0
ARC
  5
3830
  8
OBJECT
 10
1.3109324982896371
 20
5.506398312028649
 30
0.0
 40
0.0259999999999997
 50
182.99999999999989
 51
270.0
  0
LINE
  5
3831
  8
OBJECT
 10
4.6826376336225639
 20
5.4803983120286492
 30
0.0
 11
1.3109324982896371
 21
5.4803983120286492
 31
0.0
  0
LINE
  5
3832
  8
OBJECT
 10
1.333707647890797
 20
6.5873983120286486
 30
0.0
 11
1.293035279321602
 21
6.63025804567497
 31
0.0
  0
LINE
  5
3833
  8
OBJECT
 10
1.333707647890797
 20
5.5303983120286491
 30
0.0
 11
1.293035279321602
 21
5.4875385783823294
 31
0.0
  0
LINE
  5
3834
  8
HIDDEN
 10
4.7168003580243001
 20
5.4703983120286477
 30
0.0
 11
1.276769773887902
 21
5.4703983120286477
 31
0.0
  0
LINE
  5
3835
  8
HIDDEN
 10
1.276769773887902
 20
5.4703983120286477
 30
0.0
 11
1.2469497474758511
 21
6.0393983120286494
 31
0.0
  0
LINE
  5
3836
  8
HIDDEN
 10
1.276769773887902
 20
6.6473983120286491
 30
0.0
 11
1.2469497474758511
 21
6.0783983120286491
 31
0.0
  0
LINE
  5
3837
  8
HIDDEN
 10
4.7168003580243001
 20
6.6473983120286491
 30
0.0
 11
1.276769773887902
 21
6.6473983120286491
 31
0.0
  0
LINE
  5
3838
  8
HIDDEN
 10
4.7168003580243001
 20
5.4703983120286477
 30
0.0
 11
4.7466203844363513
 21
6.0393983120286494
 31
0.0
  0
LINE
  5
3839
  8
OBJECT
 10
4.7086020015261827
 20
5.5050375771663322
 30
0.0
 11
4.7366066609763742
 21
6.0393983120286494
 31
0.0
  0
LINE
  5
383A
  8
OBJECT
 10
4.65986248402141
 20
5.5303983120286491
 30
0.0
 11
4.6865380436764781
 21
6.0393983120286494
 31
0.0
  0
POLYLINE
  5
383B
  8
HIDDEN
 66
     1
 10
0.0
 20
0.0
 30
0.0
  0
VERTEX
  5
3A8A
  8
HIDDEN
 10
4.6997850659561031
 20
5.4703983120286477
 30
0.0
  0
VERTEX
  5
3A8B
  8
HIDDEN
 10
4.6997850659561031
 20
6.0553983120286494
 30
0.0
  0
VERTEX
  5
3A8C
  8
HIDDEN
 10
4.403785065956102
 20
6.0553983120286494
 30
0.0
  0
VERTEX
  5
3A8D
  8
HIDDEN
 10
4.403785065956102
 20
5.4703983120286477
 30
0.0
  0
SEQEND
  5
3A8E
  8
HIDDEN
  0
LINE
  5
3841
  8
HIDDEN
 10
4.6167850659561029
 20
5.540398312028648
 30
0.0
 11
4.6167850659561029
 21
6.0553983120286494
 31
0.0
  0
LINE
  5
3842
  8
HIDDEN
 10
4.4867850659561022
 20
5.540398312028648
 30
0.0
 11
4.4867850659561022
 21
6.0553983120286494
 31
0.0
  0
POLYLINE
  5
3843
  8
HIDDEN
 66
     1
 10
0.0
 20
0.0
 30
0.0
  0
VERTEX
  5
3A8F
  8
HIDDEN
 10
4.7461487144228052
 20
6.0303983120286491
 30
0.0
  0
VERTEX
  5
3A90
  8
HIDDEN
 10
4.691785065956104
 20
6.0303983120286491
 30
0.0
  0
VERTEX
  5
3A91
  8
HIDDEN
 10
4.662436709557598
 20
5.4703983120286477
 30
0.0
  0
SEQEND
  5
3A92
  8
HIDDEN
  0
LINE
  5
3848
  8
OBJECT
 10
4.65986248402141
 20
5.5303983120286491
 30
0.0
 11
4.7005348525906019
 21
5.4875385783823294
 31
0.0
  0
ARC
  5
3849
  8
OBJECT
 10
4.6826376336225639
 20
5.506398312028649
 30
0.0
 40
0.0259999999999997
 50
270.0
 51
357.0
  0
POLYLINE
  5
384A
  8
HIDDEN
 66
     1
 10
0.0
 20
0.0
 30
0.0
  0
VERTEX
  5
3A93
  8
HIDDEN
 10
4.436785065956105
 20
5.3503983120286494
 30
0.0
  0
VERTEX
  5
3A94
  8
HIDDEN
 10
4.436785065956105
 20
5.540398312028648
 30
0.0
  0
VERTEX
  5
3A95
  8
HIDDEN
 10
4.6667850659561001
 20
5.540398312028648
 30
0.0
  0
VERTEX
  5
3A96
  8
HIDDEN
 10
4.6667850659561001
 20
5.3503983120286494
 30
0.0
  0
SEQEND
  5
3A97
  8
HIDDEN
  0
LINE
  5
3850
  8
HIDDEN
 10
4.7168003580243001
 20
6.6473983120286491
 30
0.0
 11
4.7466203844363513
 21
6.0783983120286491
 31
0.0
  0
LINE
  5
3851
  8
OBJECT
 10
4.65986248402141
 20
6.5873983120286486
 30
0.0
 11
4.6865380436764781
 21
6.0783983120286491
 31
0.0
  0
LINE
  5
3852
  8
OBJECT
 10
4.7086020015261827
 20
6.6127590468909681
 30
0.0
 11
4.7366066609763742
 21
6.0783983120286491
 31
0.0
  0
POLYLINE
  5
3853
  8
HIDDEN
 66
     1
 10
0.0
 20
0.0
 30
0.0
  0
VERTEX
  5
3A98
  8
HIDDEN
 10
4.5067850659561
 20
6.0623983120286491
 30
0.0
  0
VERTEX
  5
3A99
  8
HIDDEN
 10
4.5067850659561
 20
6.7073983120286478
 30
0.0
  0
VERTEX
  5
3A9A
  8
HIDDEN
 10
4.5967850659560998
 20
6.7073983120286478
 30
0.0
  0
VERTEX
  5
3A9B
  8
HIDDEN
 10
4.5967850659560998
 20
6.0623983120286491
 30
0.0
  0
SEQEND
  5
3A9C
  8
HIDDEN
  0
POLYLINE
  5
3859
  8
HIDDEN
 66
     1
 10
0.0
 20
0.0
 30
0.0
  0
VERTEX
  5
3A9D
  8
HIDDEN
 10
4.6997850659561031
 20
6.6473983120286491
 30
0.0
  0
VERTEX
  5
3A9E
  8
HIDDEN
 10
4.6997850659561031
 20
6.0623983120286491
 30
0.0
  0
VERTEX
  5
3A9F
  8
HIDDEN
 10
4.403785065956102
 20
6.0623983120286491
 30
0.0
  0
VERTEX
  5
3AA0
  8
HIDDEN
 10
4.403785065956102
 20
6.6473983120286491
 30
0.0
  0
SEQEND
  5
3AA1
  8
HIDDEN
  0
POLYLINE
  5
385F
  8
HIDDEN
 66
     1
 10
0.0
 20
0.0
 30
0.0
  0
VERTEX
  5
3AA2
  8
HIDDEN
 10
4.662436709557598
 20
6.6473983120286491
 30
0.0
  0
VERTEX
  5
3AA3
  8
HIDDEN
 10
4.691785065956104
 20
6.0873983120286468
 30
0.0
  0
VERTEX
  5
3AA4
  8
HIDDEN
 10
4.7461487144228052
 20
6.0873983120286468
 30
0.0
  0
SEQEND
  5
3AA5
  8
HIDDEN
  0
LINE
  5
3864
  8
OBJECT
 10
4.8667850659561029
 20
6.0393983120286494
 30
0.0
 11
4.6865380436764781
 21
6.0393983120286494
 31
0.0
  0
LINE
  5
3865
  8
OBJECT
 10
4.8667850659561029
 20
6.0783983120286491
 30
0.0
 11
4.6865380436764781
 21
6.0783983120286491
 31
0.0
  0
POLYLINE
  5
3866
  8
HIDDEN
 66
     1
 10
0.0
 20
0.0
 30
0.0
  0
VERTEX
  5
3AA6
  8
HIDDEN
 10
4.8067850659561024
 20
6.0393983120286494
 30
0.0
  0
VERTEX
  5
3AA7
  8
HIDDEN
 10
4.8067850659561024
 20
5.9493983120286398
 30
0.0
  0
VERTEX
  5
3AA8
  8
HIDDEN
 10
4.7419036843008779
 20
5.9493983120286398
 30
0.0
  0
SEQEND
  5
3AA9
  8
HIDDEN
  0
POLYLINE
  5
386B
  8
HIDDEN
 66
     1
 10
0.0
 20
0.0
 30
0.0
  0
VERTEX
  5
3AAA
  8
HIDDEN
 10
4.7486642878283902
 20
6.0393983120286494
 30
0.0
  0
VERTEX
  5
3AAB
  8
HIDDEN
 10
4.7532237646260143
 20
5.9523983120286488
 30
0.0
  0
VERTEX
  5
3AAC
  8
HIDDEN
 10
4.7972567359696487
 20
5.9523983120286488
 30
0.0
  0
VERTEX
  5
3AAD
  8
HIDDEN
 10
4.7972567359696487
 20
6.0393983120286494
 30
0.0
  0
SEQEND
  5
3AAE
  8
HIDDEN
  0
LINE
  5
3871
  8
OBJECT
 10
4.8467850659560998
 20
6.0783983120286482
 30
0.0
 11
4.8467850659560998
 21
6.0393983120286494
 31
0.0
  0
LINE
  5
3872
  8
OBJECT
 10
4.6865380436764781
 20
6.0393983120286494
 30
0.0
 11
4.6865380436764781
 21
6.0783983120286491
 31
0.0
  0
LINE
  5
3873
  8
OBJECT
 10
4.65986248402141
 20
6.5873983120286486
 30
0.0
 11
4.7005348525906019
 21
6.63025804567497
 31
0.0
  0
ARC
  5
3874
  8
OBJECT
 10
4.6826376336225639
 20
6.6113983120286512
 30
0.0
 40
0.0259999999999997
 50
2.999999999999992
 51
90.0
  0
LINE
  5
3875
  8
HIDDEN
 10
8.2747695463536743
 20
8.8874027836976968
 30
0.0
 11
8.3247695463536751
 21
8.8224027836976973
 31
0.0
  0
LINE
  5
3876
  8
HIDDEN
 10
8.2747695463536743
 20
8.9824027836976974
 30
0.0
 11
8.2747695463536743
 21
9.0274027836976991
 31
0.0
  0
LINE
  5
3877
  8
HIDDEN
 10
7.2177695463536731
 20
8.8874027836976968
 30
0.0
 11
7.167769546353675
 21
8.8224027836976973
 31
0.0
  0
LINE
  5
3878
  8
HIDDEN
 10
7.2177695463536731
 20
8.9824027836976974
 30
0.0
 11
7.2177695463536731
 21
9.0274027836976991
 31
0.0
  0
LINE
  5
3879
  8
HIDDEN
 10
7.2177695463536731
 20
14.882402783697691
 30
0.0
 11
7.2177695463536731
 21
14.837402783697691
 31
0.0
  0
LINE
  5
387A
  8
HIDDEN
 10
7.2177695463536731
 20
14.9774027836977
 30
0.0
 11
7.167769546353675
 21
15.042402783697691
 31
0.0
  0
LINE
  5
387B
  8
HIDDEN
 10
8.2747695463536743
 20
14.882402783697691
 30
0.0
 11
8.2747695463536743
 21
14.837402783697691
 31
0.0
  0
LINE
  5
387C
  8
HIDDEN
 10
8.2747695463536743
 20
14.9774027836977
 30
0.0
 11
8.3247695463536786
 21
15.042402783697691
 31
0.0
  0
POLYLINE
  5
387D
  8
BEND
 66
     1
 10
0.0
 20
0.0
 30
0.0
 70
     1
  0
VERTEX
  5
3AAF
  8
BEND
 10
4.6598624840214047
 20
3.1569337922827421
 30
0.0
  0
VERTEX
  5
3AB0
  8
BEND
 10
4.6865380436764728
 20
3.6659337922827429
 30
0.0
  0
VERTEX
  5
3AB1
  8
BEND
 10
4.6865380436764728
 20
3.7049337922827399
 30
0.0
  0
VERTEX
  5
3AB2
  8
BEND
 10
4.6598624840214047
 20
4.2139337922827433
 30
0.0
  0
VERTEX
  5
3AB3
  8
BEND
 10
1.3337076478907921
 20
4.2139337922827433
 30
0.0
  0
VERTEX
  5
3AB4
  8
BEND
 10
1.307032088235724
 20
3.7049337922827399
 30
0.0
  0
VERTEX
  5
3AB5
  8
BEND
 10
1.307032088235724
 20
3.6659337922827429
 30
0.0
  0
VERTEX
  5
3AB6
  8
BEND
 10
1.3337076478907921
 20
3.1569337922827421
 30
0.0
  0
SEQEND
  5
3AB7
  8
BEND
  0
LINE
  5
3887
  8
HIDDEN
 10
1.3067850659561091
 20
14.9774027836977
 30
0.0
 11
1.2567850659561071
 21
15.042402783697691
 31
0.0
  0
LINE
  5
3888
  8
HIDDEN
 10
1.3067850659561091
 20
14.882402783697691
 30
0.0
 11
1.3067850659561091
 21
14.837402783697691
 31
0.0
  0
LINE
  5
3889
  8
HIDDEN
 10
4.6867850659560997
 20
14.9774027836977
 30
0.0
 11
4.7367850659560968
 21
15.042402783697691
 31
0.0
  0
LINE
  5
388A
  8
HIDDEN
 10
4.6867850659560997
 20
14.882402783697691
 30
0.0
 11
4.6867850659560997
 21
14.837402783697691
 31
0.0
  0
LINE
  5
388B
  8
OBJECT
 10
1.3067850659560969
 20
8.8874027836976968
 30
0.0
 11
1.2567850659560971
 21
8.8224027836976973
 31
0.0
  0
LINE
  5
388C
  8
OBJECT
 10
1.3067850659560969
 20
8.9824027836976974
 30
0.0
 11
1.3067850659560969
 21
9.0274027836976956
 31
0.0
  0
LINE
  5
388D
  8
OBJECT
 10
4.6867850659560872
 20
8.8874027836976968
 30
0.0
 11
4.7367850659560871
 21
8.8224027836976973
 31
0.0
  0
LINE
  5
388E
  8
OBJECT
 10
4.6867850659560872
 20
8.9824027836976974
 30
0.0
 11
4.6867850659560872
 21
9.0274027836976956
 31
0.0
  0
ENDSEC
  0
EOF
