  0
SECTION
  2
HEADER
  9
$ACADVER
  1
AC1009
  9
$INSBASE
 10
0.0
 20
0.0
 30
0.0
  9
$EXTMIN
 10
0.0
 20
-0.0000000000000027
 30
-0.00000001
  9
$EXTMAX
 10
15.89999996025
 20
23.489999941274998
 30
0.00000001
  9
$LIMMIN
 10
0.0
 20
0.0
  9
$LIMMAX
 10
15.89999996025
 20
23.489999941274991
  9
$ORTHOMODE
 70
     1
  9
$REGENMODE
 70
     1
  9
$FILLMODE
 70
     1
  9
$QTEXTMODE
 70
     0
  9
$MIRRTEXT
 70
     0
  9
$DRAGMODE
 70
     2
  9
$LTSCALE
 40
0.5
  9
$OSMODE
 70
    37
  9
$ATTMODE
 70
     1
  9
$TEXTSIZE
 40
0.125
  9
$TRACEWID
 40
0.05
  9
$TEXTSTYLE
  7
TXT
  9
$CLAYER
  8
OBJECT
  9
$CELTYPE
  6
BYLAYER
  9
$CECOLOR
 62
   256
  9
$DIMSCALE
 40
1.5
  9
$DIMASZ
 40
0.18
  9
$DIMEXO
 40
0.063
  9
$DIMDLI
 40
0.281
  9
$DIMRND
 40
0.0
  9
$DIMDLE
 40
0.0
  9
$DIMEXE
 40
0.093
  9
$DIMTP
 40
0.0
  9
$DIMTM
 40
0.0
  9
$DIMTXT
 40
0.125
  9
$DIMCEN
 40
0.09
  9
$DIMTSZ
 40
0.0
  9
$DIMTOL
 70
     0
  9
$DIMLIM
 70
     0
  9
$DIMTIH
 70
     1
  9
$DIMTOH
 70
     1
  9
$DIMSE1
 70
     0
  9
$DIMSE2
 70
     0
  9
$DIMTAD
 70
     0
  9
$DIMZIN
 70
     0
  9
$DIMBLK
  1

  9
$DIMASO
 70
     1
  9
$DIMSHO
 70
     1
  9
$DIMPOST
  1

  9
$DIMAPOST
  1

  9
$DIMALT
 70
     0
  9
$DIMALTD
 70
     2
  9
$DIMALTF
 40
25.399999999999999
  9
$DIMLFAC
 40
1.0
  9
$DIMTOFL
 70
     0
  9
$DIMTVP
 40
0.0
  9
$DIMTIX
 70
     0
  9
$DIMSOXD
 70
     0
  9
$DIMSAH
 70
     0
  9
$DIMBLK1
  1

  9
$DIMBLK2
  1

  9
$DIMSTYLE
  2
DIM
  9
$DIMCLRD
 70
     0
  9
$DIMCLRE
 70
     0
  9
$DIMCLRT
 70
     0
  9
$DIMTFAC
 40
1.0
  9
$DIMGAP
 40
0.09
  9
$LUNITS
 70
     2
  9
$LUPREC
 70
     8
  9
$SKETCHINC
 40
0.1
  9
$FILLETRAD
 40
0.0
  9
$AUNITS
 70
     0
  9
$AUPREC
 70
     0
  9
$MENU
  1
acad
  9
$ELEVATION
 40
0.0
  9
$PELEVATION
 40
0.0
  9
$THICKNESS
 40
0.0
  9
$LIMCHECK
 70
     0
  9
$BLIPMODE
 70
     0
  9
$CHAMFERA
 40
0.125
  9
$CHAMFERB
 40
0.125
  9
$SKPOLY
 70
     0
  9
$TDCREATE
 40
2451572.3832693049
  9
$TDUPDATE
 40
2451852.357102314
  9
$TDINDWG
 40
0.8663125694
  9
$TDUSRTIMER
 40
0.8663111227
  9
$USRTIMER
 70
     1
  9
$ANGBASE
 50
0.0
  9
$ANGDIR
 70
     0
  9
$PDMODE
 70
     0
  9
$PDSIZE
 40
0.0
  9
$PLINEWID
 40
0.0
  9
$COORDS
 70
     2
  9
$SPLFRAME
 70
     0
  9
$SPLINETYPE
 70
     6
  9
$SPLINESEGS
 70
     8
  9
$ATTDIA
 70
     0
  9
$ATTREQ
 70
     1
  9
$HANDLING
 70
  4097
  9
$HANDSEED
  5
4593
  9
$SURFTAB1
 70
     6
  9
$SURFTAB2
 70
     6
  9
$SURFTYPE
 70
     6
  9
$SURFU
 70
     6
  9
$SURFV
 70
     6
  9
$UCSNAME
  2

  9
$UCSORG
 10
0.0
 20
0.0
 30
0.0
  9
$UCSXDIR
 10
1.0
 20
0.0
 30
0.0
  9
$UCSYDIR
 10
0.0
 20
1.0
 30
0.0
  9
$PUCSNAME
  2

  9
$PUCSORG
 10
0.0
 20
0.0
 30
0.0
  9
$PUCSXDIR
 10
1.0
 20
0.0
 30
0.0
  9
$PUCSYDIR
 10
0.0
 20
1.0
 30
0.0
  9
$USERI1
 70
     0
  9
$USERI2
 70
     0
  9
$USERI3
 70
     0
  9
$USERI4
 70
     0
  9
$USERI5
 70
     0
  9
$USERR1
 40
0.0
  9
$USERR2
 40
0.0
  9
$USERR3
 40
0.0
  9
$USERR4
 40
0.0
  9
$USERR5
 40
0.0
  9
$WORLDVIEW
 70
     1
  9
$SHADEDGE
 70
     3
  9
$SHADEDIF
 70
    70
  9
$TILEMODE
 70
     1
  9
$MAXACTVP
 70
    16
  9
$PLIMCHECK
 70
     0
  9
$PEXTMIN
 10
1.0000000000000000E+020
 20
1.0000000000000000E+020
 30
1.0000000000000000E+020
  9
$PEXTMAX
 10
-1.0000000000000000E+020
 20
-1.0000000000000000E+020
 30
-1.0000000000000000E+020
  9
$PLIMMIN
 10
0.0
 20
0.0
  9
$PLIMMAX
 10
12.0
 20
9.0
  9
$UNITMODE
 70
     0
  9
$VISRETAIN
 70
     0
  9
$PLINEGEN
 70
     0
  9
$PSLTSCALE
 70
     1
  0
ENDSEC
  0
SECTION
  2
TABLES
  0
TABLE
  2
VPORT
 70
     2
  0
VPORT
  2
*ACTIVE
 70
     0
 10
0.0
 20
0.0
 11
1.0
 21
1.0
 12
7.9496271984870068
 22
11.74491146040309
 13
0.0
 23
0.0
 14
0.125
 24
0.125
 15
0.5
 25
0.5
 16
0.0
 26
0.0
 36
1.0
 17
0.0
 27
0.0
 37
0.0
 40
23.745080699159971
 41
1.7450271247739599
 42
50.0
 43
0.0
 44
0.0
 50
0.0
 51
0.0
 71
     0
 72
   100
 73
     1
 74
     0
 75
     0
 76
     0
 77
     0
 78
     0
  0
ENDTAB
  0
TABLE
  2
LTYPE
 70
     6
  0
LTYPE
  2
CONTINUOUS
 70
     0
  3
Solid line
 72
    65
 73
     0
 40
0.0
  0
LTYPE
  2
HIDDEN
 70
     0
  3
_ _ _ _ _ _ _ _ _ _ _ _ _ _ _ _ _ _ _ _ _ _ _
 72
    65
 73
     2
 40
0.375
 49
0.25
 49
-0.125
  0
LTYPE
  2
PHANTOM
 70
     0
  3
_____ _ _ _____ _ _ _____ _ _ _____ _ _ ____
 72
    65
 73
     6
 40
2.5
 49
1.25
 49
-0.25
 49
0.25
 49
-0.25
 49
0.25
 49
-0.25
  0
LTYPE
  2
CENTER
 70
     0
  3
____ _ ____ _ ____ _ ____ _ ____ _ ____ _ ____
 72
    65
 73
     4
 40
2.0
 49
1.25
 49
-0.25
 49
0.25
 49
-0.25
  0
LTYPE
  2
HIDDEN2
 70
     0
  3
_ _ _ _ _ _ _ _ _ _ _ _ _ _ _ _ _ _ _ _ _ _ _ _
 72
    65
 73
     2
 40
0.1875
 49
0.125
 49
-0.0625
  0
LTYPE
  2
PHANTOM2
 70
     0
  3
___ _ _ ___ _ _ ___ _ _ ___ _ _ ___ _ _ ___ _ _
 72
    65
 73
     6
 40
1.25
 49
0.625
 49
-0.125
 49
0.125
 49
-0.125
 49
0.125
 49
-0.125
  0
ENDTAB
  0
TABLE
  2
LAYER
 70
     9
  0
LAYER
  2
0
 70
     0
 62
     7
  6
CONTINUOUS
  0
LAYER
  2
OBJECT
 70
     0
 62
     7
  6
CONTINUOUS
  0
LAYER
  2
DIM
 70
     0
 62
     2
  6
CONTINUOUS
  0
LAYER
  2
HIDDEN
 70
     0
 62
     6
  6
HIDDEN
  0
LAYER
  2
BEND
 70
     0
 62
     4
  6
PHANTOM
  0
LAYER
  2
TEXT
 70
     0
 62
     1
  6
CONTINUOUS
  0
LAYER
  2
TITLE
 70
     0
 62
     8
  6
CONTINUOUS
  0
LAYER
  2
CENTER
 70
     0
 62
     3
  6
CENTER
  0
LAYER
  2
DEFPOINTS
 70
     0
 62
     7
  6
CONTINUOUS
  0
ENDTAB
  0
TABLE
  2
STYLE
 70
     2
  0
STYLE
  2
TXT
 70
     0
 40
0.0
 41
0.75
 50
0.0
 71
     0
 42
0.125
  3
TXT.shx
  4

  0
STYLE
  2
SANSSERIF
 70
     0
 40
0.0
 41
1.0
 50
0.0
 71
     0
 42
0.234
  3
txt
  4

  0
ENDTAB
  0
TABLE
  2
VIEW
 70
     0
  0
ENDTAB
  0
TABLE
  2
UCS
 70
     0
  0
ENDTAB
  0
TABLE
  2
APPID
 70
     1
  0
APPID
  2
ACAD
 70
     0
  0
ENDTAB
  0
TABLE
  2
DIMSTYLE
 70
     2
  0
DIMSTYLE
  2
DIM
 70
     0
  3

  4

  5

  6

  7

 40
1.5
 41
0.18
 42
0.063
 43
0.281
 44
0.093
 45
0.0
 46
0.0
 47
0.0
 48
0.0
140
0.125
141
0.09
142
0.0
143
25.399999999999999
144
1.0
145
0.0
146
1.0
147
0.09
 71
     0
 72
     0
 73
     1
 74
     1
 75
     0
 76
     0
 77
     0
 78
     0
170
     0
171
     2
172
     0
173
     0
174
     0
175
     0
176
     0
177
     0
178
     0
  0
DIMSTYLE
  2
DIMIN
 70
     0
  3

  4

  5

  6

  7

 40
1.5
 41
0.18
 42
0.063
 43
0.281
 44
0.093
 45
0.0
 46
0.0
 47
0.0
 48
0.0
140
0.125
141
0.09
142
0.0
143
25.399999999999999
144
1.0
145
0.0
146
1.0
147
0.09
 71
     0
 72
     0
 73
     1
 74
     1
 75
     0
 76
     0
 77
     0
 78
     0
170
     0
171
     2
172
     0
173
     0
174
     1
175
     0
176
     0
177
     0
178
     0
  0
ENDTAB
  0
ENDSEC
  0
SECTION
  2
BLOCKS
  0
BLOCK
  8
0
  2
$MODEL_SPACE
 70
     0
 10
0.0
 20
0.0
 30
0.0
  3
$MODEL_SPACE
  1

  0
ENDBLK
  5
34
  8
0
  0
BLOCK
 67
     1
  8
0
  2
$PAPER_SPACE
 70
     0
 10
0.0
 20
0.0
 30
0.0
  3
$PAPER_SPACE
  1

  0
ENDBLK
  5
32
 67
     1
  8
0
  0
BLOCK
  8
0
  2
HB
 70
     0
 10
0.0
 20
0.0
 30
0.0
  3
HB
  1

  0
TEXT
  5
8C3
  8
TEXT
 10
0.2078333333333363
 20
15.22007919564008
 30
0.0
 40
0.125
  1
NAME
 72
     1
 11
0.437000000000003
 21
15.22007919564008
 31
0.0
  0
TEXT
  5
8C4
  8
TEXT
 10
0.2078333333333363
 20
15.428412528973411
 30
0.0
 40
0.125
  1
PART
 72
     1
 11
0.437000000000003
 21
15.428412528973411
 31
0.0
  0
TEXT
  5
8C5
  8
TEXT
 10
5.6119999999999983
 20
15.22007919564008
 30
0.0
 40
0.125
  1
No.
 72
     1
 11
5.7369999999999983
 21
15.22007919564008
 31
0.0
  0
TEXT
  5
8C6
  8
TEXT
 10
5.5078333333333314
 20
15.428412528973411
 30
0.0
 40
0.125
  1
PART
 72
     1
 11
5.7369999999999983
 21
15.428412528973411
 31
0.0
  0
LINE
  5
8C7
  8
TITLE
 10
6.112000000000001
 20
15.598000000000001
 30
0.0
 11
6.112000000000001
 21
15.179999999999991
 31
0.0
  0
LINE
  5
8C8
  8
TITLE
 10
5.362000000000001
 20
15.598000000000001
 30
0.0
 11
5.362000000000001
 21
15.179999999999991
 31
0.0
  0
LINE
  5
8C9
  8
TITLE
 10
5.2999999999999998
 20
15.598000000000001
 30
0.0
 11
5.2999999999999998
 21
15.179999999999991
 31
0.0
  0
LINE
  5
8CA
  8
TITLE
 10
0.8120000000000029
 20
15.179999999999991
 30
0.0
 11
0.8120000000000011
 21
15.598000000000001
 31
0.0
  0
LINE
  5
8CB
  8
TITLE
 10
0.0620000000000012
 20
15.179999999999991
 30
0.0
 11
10.538
 21
15.179999999999991
 31
0.0
  0
LINE
  5
8CC
  8
TITLE
 10
10.538
 20
0.0619999999999994
 30
0.0
 11
0.0619999999999976
 21
0.0620000000000012
 31
0.0
  0
LINE
  5
8CD
  8
TITLE
 10
10.538
 20
15.598000000000001
 30
0.0
 11
10.538
 21
0.0619999999999994
 31
0.0
  0
LINE
  5
8CE
  8
TITLE
 10
0.0620000000000012
 20
15.598000000000001
 30
0.0
 11
10.538
 21
15.598000000000001
 31
0.0
  0
LINE
  5
8CF
  8
TITLE
 10
0.0619999999999976
 20
0.0620000000000012
 30
0.0
 11
0.0620000000000012
 21
15.598000000000001
 31
0.0
  0
LINE
  5
8D0
  8
TITLE
 10
0.0
 20
0.0
 30
0.0
 11
0.0
 21
15.66
 31
0.0
  0
LINE
  5
8D1
  8
TITLE
 10
10.6
 20
-0.0000000000000018
 30
0.0
 11
0.0
 21
0.0
 31
0.0
  0
LINE
  5
8D2
  8
TITLE
 10
10.6
 20
15.659999999999989
 30
0.0
 11
10.6
 21
-0.0000000000000018
 31
0.0
  0
LINE
  5
8D3
  8
TITLE
 10
0.0
 20
15.66
 30
0.0
 11
10.6
 21
15.659999999999989
 31
0.0
  0
ENDBLK
  5
8D5
  8
0
  0
BLOCK
  8
0
  2
*D1
 70
     1
 10
0.0
 20
0.0
 30
0.0
  3
*D1
  1

  0
LINE
  5
3FB1
  8
DIM
 62
     0
 10
1.3182938554839181
 20
7.4448709423300317
 30
0.0
 11
1.3182938554839181
 21
7.938871915439436
 31
0.0
  0
LINE
  5
3FB2
  8
DIM
 62
     0
 10
7.173293855483915
 20
7.4138709423300329
 30
0.0
 11
7.173293855483915
 21
7.938871915439436
 31
0.0
  0
LINE
  5
3FB3
  8
DIM
 62
     0
 10
1.5882938554839181
 20
7.7993719154394361
 30
0.0
 11
3.8295438554839172
 21
7.7993719154394361
 31
0.0
  0
LINE
  5
3FB4
  8
DIM
 62
     0
 10
6.9032938554839163
 20
7.7993719154394361
 30
0.0
 11
4.6620438554839172
 21
7.7993719154394361
 31
0.0
  0
SOLID
  5
3FB5
  8
DIM
 62
     0
 10
1.5882938554839181
 20
7.844371915439436
 30
0.0
 11
1.5882938554839181
 21
7.754371915439437
 31
0.0
 12
1.3182938554839181
 22
7.7993719154394361
 32
0.0
 13
1.3182938554839181
 23
7.7993719154394361
 33
0.0
  0
SOLID
  5
3FB6
  8
DIM
 62
     0
 10
6.9032938554839163
 20
7.844371915439436
 30
0.0
 11
6.9032938554839163
 21
7.754371915439437
 31
0.0
 12
7.173293855483915
 22
7.7993719154394361
 32
0.0
 13
7.173293855483915
 23
7.7993719154394361
 33
0.0
  0
TEXT
  5
3FB7
  8
OBJECT
 62
     0
 10
3.964543855483917
 20
7.7056219154394361
 30
0.0
 40
0.1875
  1
5.855
 41
0.75
  0
POINT
  5
3FB8
  8
DEFPOINTS
 62
     0
 10
1.3182938554839181
 20
7.3503709423300316
 30
0.0
  0
POINT
  5
3FB9
  8
DEFPOINTS
 62
     0
 10
7.173293855483915
 20
7.3193709423300328
 30
0.0
  0
POINT
  5
3FBA
  8
DEFPOINTS
 62
     0
 10
7.173293855483915
 20
7.7993719154394361
 30
0.0
  0
ENDBLK
  5
E54
  8
0
  0
BLOCK
  8
0
  2
*D2
 70
     1
 10
0.0
 20
0.0
 30
0.0
  3
*D2
  1

  0
LINE
  5
3E38
  8
DIM
 62
     0
 10
1.2237938554839181
 20
7.3503709423300316
 30
0.0
 11
0.7850392839554687
 21
7.3503709423300316
 31
0.0
  0
LINE
  5
3E39
  8
DIM
 62
     0
 10
1.2237938554839181
 20
6.1503709423300332
 30
0.0
 11
0.7850392839554683
 21
6.1503709423300332
 31
0.0
  0
LINE
  5
3E3A
  8
DIM
 62
     0
 10
0.9245392839554686
 20
7.6203709423300321
 30
0.0
 11
0.9245392839554686
 21
7.8903709423300317
 31
0.0
  0
LINE
  5
3E3B
  8
DIM
 62
     0
 10
0.9245392839554683
 20
5.8803709423300328
 30
0.0
 11
0.924539283955468
 21
5.6103709423300332
 31
0.0
  0
SOLID
  5
3E3C
  8
DIM
 62
     0
 10
0.8795392839554684
 20
7.6203709423300321
 30
0.0
 11
0.9695392839554685
 21
7.6203709423300321
 31
0.0
 12
0.9245392839554686
 22
7.3503709423300316
 32
0.0
 13
0.9245392839554686
 23
7.3503709423300316
 33
0.0
  0
SOLID
  5
3E3D
  8
DIM
 62
     0
 10
0.8795392839554681
 20
5.8803709423300328
 30
0.0
 11
0.9695392839554683
 21
5.8803709423300328
 31
0.0
 12
0.9245392839554683
 22
6.1503709423300332
 32
0.0
 13
0.9245392839554683
 23
6.1503709423300332
 33
0.0
  0
TEXT
  5
3E3E
  8
OBJECT
 62
     0
 10
0.8776642839554673
 20
6.656620942330032
 30
0.0
 40
0.1875
  1
H
 41
0.75
  0
POINT
  5
3E3F
  8
DEFPOINTS
 62
     0
 10
1.3182938554839181
 20
7.3503709423300316
 30
0.0
  0
POINT
  5
3E40
  8
DEFPOINTS
 62
     0
 10
1.3182938554839181
 20
6.1503709423300332
 30
0.0
  0
POINT
  5
3E41
  8
DEFPOINTS
 62
     0
 10
0.9245392839554683
 20
6.1503709423300332
 30
0.0
  0
ENDBLK
  5
E62
  8
0
  0
BLOCK
  8
0
  2
*D3
 70
     1
 10
0.0
 20
0.0
 30
0.0
  3
*D3
  1

  0
LINE
  5
3F93
  8
DIM
 62
     0
 10
7.179381627882079
 20
7.2688709423300342
 30
0.0
 11
8.5168084251425853
 21
7.2688709423300342
 31
0.0
  0
LINE
  5
3F94
  8
DIM
 62
     0
 10
7.179381627882079
 20
6.2318709423300334
 30
0.0
 11
8.5168084251425853
 21
6.2318709423300334
 31
0.0
  0
LINE
  5
3F95
  8
DIM
 62
     0
 10
8.3773084251425853
 20
7.5388709423300329
 30
0.0
 11
8.3773084251425853
 21
7.8088709423300342
 31
0.0
  0
LINE
  5
3F96
  8
DIM
 62
     0
 10
8.3773084251425853
 20
5.9618709423300329
 30
0.0
 11
8.3773084251425853
 21
5.6918709423300333
 31
0.0
  0
SOLID
  5
3F97
  8
DIM
 62
     0
 10
8.3323084251425854
 20
7.5388709423300329
 30
0.0
 11
8.4223084251425853
 21
7.5388709423300329
 31
0.0
 12
8.3773084251425853
 22
7.2688709423300342
 32
0.0
 13
8.3773084251425853
 23
7.2688709423300342
 33
0.0
  0
SOLID
  5
3F98
  8
DIM
 62
     0
 10
8.3323084251425854
 20
5.9618709423300329
 30
0.0
 11
8.4223084251425853
 21
5.9618709423300329
 31
0.0
 12
8.3773084251425853
 22
6.2318709423300334
 32
0.0
 13
8.3773084251425853
 23
6.2318709423300334
 33
0.0
  0
TEXT
  5
3F99
  8
OBJECT
 62
     0
 10
7.3460584251425827
 20
6.6566209423300338
 30
0.0
 40
0.1875
  1
J EXPOSED PANEL
 41
0.75
  0
POINT
  5
3F9A
  8
DEFPOINTS
 62
     0
 10
7.084881627882079
 20
7.2688709423300342
 30
0.0
  0
POINT
  5
3F9B
  8
DEFPOINTS
 62
     0
 10
7.084881627882079
 20
6.2318709423300334
 30
0.0
  0
POINT
  5
3F9C
  8
DEFPOINTS
 62
     0
 10
8.3773084251425853
 20
6.2318709423300334
 30
0.0
  0
ENDBLK
  5
E70
  8
0
  0
BLOCK
  8
0
  2
*D4
 70
     1
 10
0.0
 20
0.0
 30
0.0
  3
*D4
  1

  0
LINE
  5
3FA7
  8
DIM
 62
     0
 10
1.375706083085763
 20
6.1373709423300333
 30
0.0
 11
1.375706083085763
 21
5.6000198739900506
 31
0.0
  0
LINE
  5
3FA8
  8
DIM
 62
     0
 10
7.084881627882079
 20
6.1373709423300333
 30
0.0
 11
7.084881627882079
 21
5.6000198739900506
 31
0.0
  0
LINE
  5
3FA9
  8
DIM
 62
     0
 10
1.645706083085763
 20
5.7395198739900506
 30
0.0
 11
2.8413876054839209
 21
5.7395198739900506
 31
0.0
  0
LINE
  5
3FAA
  8
DIM
 62
     0
 10
6.8148816278820803
 20
5.7395198739900506
 30
0.0
 11
5.6192001054839213
 21
5.7395198739900506
 31
0.0
  0
SOLID
  5
3FAB
  8
DIM
 62
     0
 10
1.645706083085763
 20
5.7845198739900514
 30
0.0
 11
1.645706083085763
 21
5.6945198739900507
 31
0.0
 12
1.375706083085763
 22
5.7395198739900506
 32
0.0
 13
1.375706083085763
 23
5.7395198739900506
 33
0.0
  0
SOLID
  5
3FAC
  8
DIM
 62
     0
 10
6.8148816278820803
 20
5.7845198739900514
 30
0.0
 11
6.8148816278820803
 21
5.6945198739900507
 31
0.0
 12
7.084881627882079
 22
5.7395198739900506
 32
0.0
 13
7.084881627882079
 23
5.7395198739900506
 33
0.0
  0
TEXT
  5
3FAD
  8
OBJECT
 62
     0
 10
2.9763876054839211
 20
5.6457698739900506
 30
0.0
 40
0.1875
  1
5.709 EXPOSED PANEL
 41
0.75
  0
POINT
  5
3FAE
  8
DEFPOINTS
 62
     0
 10
1.375706083085763
 20
6.2318709423300334
 30
0.0
  0
POINT
  5
3FAF
  8
DEFPOINTS
 62
     0
 10
7.084881627882079
 20
6.2318709423300334
 30
0.0
  0
POINT
  5
3FB0
  8
DEFPOINTS
 62
     0
 10
7.084881627882079
 20
5.7395198739900506
 30
0.0
  0
ENDBLK
  5
E7F
  8
0
  0
BLOCK
  8
0
  2
*D5
 70
     1
 10
0.0
 20
0.0
 30
0.0
  3
*D5
  1

  0
LINE
  5
3E1A
  8
DIM
 62
     0
 10
1.1592938554839229
 20
9.5528252093853698
 30
0.0
 11
1.1592938554839229
 21
10.561973012464261
 31
0.0
  0
LINE
  5
3E1B
  8
DIM
 62
     0
 10
7.3012938554839231
 20
9.5528252093853698
 30
0.0
 11
7.3012938554839231
 21
10.561973012464261
 31
0.0
  0
LINE
  5
3E1C
  8
DIM
 62
     0
 10
1.429293855483923
 20
10.42247301246427
 30
0.0
 11
3.8374813554839231
 21
10.42247301246427
 31
0.0
  0
LINE
  5
3E1D
  8
DIM
 62
     0
 10
7.0312938554839226
 20
10.42247301246427
 30
0.0
 11
4.6231063554839231
 21
10.42247301246427
 31
0.0
  0
SOLID
  5
3E1E
  8
DIM
 62
     0
 10
1.429293855483923
 20
10.46747301246427
 30
0.0
 11
1.429293855483923
 21
10.37747301246427
 31
0.0
 12
1.1592938554839229
 22
10.42247301246427
 32
0.0
 13
1.1592938554839229
 23
10.42247301246427
 33
0.0
  0
SOLID
  5
3E1F
  8
DIM
 62
     0
 10
7.0312938554839226
 20
10.46747301246427
 30
0.0
 11
7.0312938554839226
 21
10.37747301246427
 31
0.0
 12
7.3012938554839231
 22
10.42247301246427
 32
0.0
 13
7.3012938554839231
 23
10.42247301246427
 33
0.0
  0
TEXT
  5
3E20
  8
OBJECT
 62
     0
 10
3.9724813554839229
 20
10.328723012464261
 30
0.0
 40
0.1875
  1
6.142
 41
0.75
  0
POINT
  5
3E21
  8
DEFPOINTS
 62
     0
 10
1.1592938554839229
 20
9.4583252093853698
 30
0.0
  0
POINT
  5
3E22
  8
DEFPOINTS
 62
     0
 10
7.3012938554839231
 20
9.4583252093853698
 30
0.0
  0
POINT
  5
3E23
  8
DEFPOINTS
 62
     0
 10
7.3012938554839231
 20
10.42247301246427
 30
0.0
  0
ENDBLK
  5
EF1
  8
0
  0
BLOCK
  8
0
  2
*D6
 70
     1
 10
0.0
 20
0.0
 30
0.0
  3
*D6
  1

  0
LINE
  5
40E9
  8
DIM
 62
     0
 10
13.99143725492373
 20
14.213185741090991
 30
0.0
 11
13.99143725492373
 21
14.435002457235781
 31
0.0
  0
LINE
  5
40EA
  8
DIM
 62
     0
 10
14.85643725492373
 20
14.213185741090991
 30
0.0
 11
14.85643725492373
 21
14.435002457235781
 31
0.0
  0
LINE
  5
40EB
  8
DIM
 62
     0
 10
13.72143725492373
 20
14.295502457235781
 30
0.0
 11
13.45143725492373
 21
14.295502457235781
 31
0.0
  0
LINE
  5
40EC
  8
DIM
 62
     0
 10
15.126437254923729
 20
14.295502457235781
 30
0.0
 11
15.39643725492372
 21
14.295502457235781
 31
0.0
  0
SOLID
  5
40ED
  8
DIM
 62
     0
 10
13.72143725492373
 20
14.340502457235781
 30
0.0
 11
13.72143725492373
 21
14.250502457235781
 31
0.0
 12
13.99143725492373
 22
14.295502457235781
 32
0.0
 13
13.99143725492373
 23
14.295502457235781
 33
0.0
  0
SOLID
  5
40EE
  8
DIM
 62
     0
 10
15.126437254923729
 20
14.340502457235781
 30
0.0
 11
15.126437254923729
 21
14.250502457235781
 31
0.0
 12
14.85643725492373
 22
14.295502457235781
 32
0.0
 13
14.85643725492373
 23
14.295502457235781
 33
0.0
  0
TEXT
  5
40EF
  8
OBJECT
 62
     0
 10
14.377062254923731
 20
14.201752457235781
 30
0.0
 40
0.1875
  1
E
 41
0.75
  0
POINT
  5
40F0
  8
DEFPOINTS
 62
     0
 10
13.99143725492373
 20
14.118685741090991
 30
0.0
  0
POINT
  5
40F1
  8
DEFPOINTS
 62
     0
 10
14.85643725492373
 20
14.118685741090991
 30
0.0
  0
POINT
  5
40F2
  8
DEFPOINTS
 62
     0
 10
14.85643725492373
 20
14.295502457235781
 30
0.0
  0
ENDBLK
  5
F00
  8
0
  0
BLOCK
  8
0
  2
*D7
 70
     1
 10
0.0
 20
0.0
 30
0.0
  3
*D7
  1

  0
LINE
  5
4079
  8
DIM
 62
     0
 10
15.01243725492373
 20
15.20305985857604
 30
0.0
 11
15.01243725492373
 21
15.39205985857603
 31
0.0
  0
LINE
  5
407A
  8
DIM
 62
     0
 10
13.835437254923731
 20
15.20305985857604
 30
0.0
 11
13.835437254923731
 21
15.39205985857603
 31
0.0
  0
LINE
  5
407B
  8
DIM
 62
     0
 10
14.742437254923731
 20
15.25255985857604
 30
0.0
 11
14.595812254923731
 21
15.25255985857604
 31
0.0
  0
LINE
  5
407C
  8
DIM
 62
     0
 10
14.10543725492373
 20
15.25255985857604
 30
0.0
 11
14.232062254923729
 21
15.25255985857604
 31
0.0
  0
SOLID
  5
407D
  8
DIM
 62
     0
 10
14.742437254923731
 20
15.29755985857604
 30
0.0
 11
14.742437254923731
 21
15.20755985857603
 31
0.0
 12
15.01243725492373
 22
15.25255985857604
 32
0.0
 13
15.01243725492373
 23
15.25255985857604
 33
0.0
  0
SOLID
  5
407E
  8
DIM
 62
     0
 10
14.10543725492373
 20
15.29755985857604
 30
0.0
 11
14.10543725492373
 21
15.20755985857603
 31
0.0
 12
13.835437254923731
 22
15.25255985857604
 32
0.0
 13
13.835437254923731
 23
15.25255985857604
 33
0.0
  0
TEXT
  5
407F
  8
OBJECT
 62
     0
 10
14.367062254923731
 20
15.15880985857603
 30
0.0
 40
0.1875
  1
D
 41
0.75
  0
POINT
  5
4080
  8
DEFPOINTS
 62
     0
 10
15.01243725492373
 20
15.108559858576029
 30
0.0
  0
POINT
  5
4081
  8
DEFPOINTS
 62
     0
 10
13.835437254923731
 20
15.108559858576029
 30
0.0
  0
POINT
  5
4082
  8
DEFPOINTS
 62
     0
 10
13.835437254923731
 20
15.25255985857604
 30
0.0
  0
ENDBLK
  5
F0E
  8
0
  0
BLOCK
  8
0
  2
*D8
 70
     1
 10
0.0
 20
0.0
 30
0.0
  3
*D8
  1

  0
LINE
  5
406F
  8
DIM
 62
     0
 10
14.44243725492367
 20
16.155185741091
 30
0.0
 11
14.44243725492367
 21
15.73285113306371
 31
0.0
  0
LINE
  5
4070
  8
DIM
 62
     0
 10
15.132437254923721
 20
16.156185741091001
 30
0.0
 11
15.132437254923721
 21
15.73285113306371
 31
0.0
  0
LINE
  5
4071
  8
DIM
 62
     0
 10
14.17243725492367
 20
15.87235113306372
 30
0.0
 11
13.902437254923671
 21
15.87235113306372
 31
0.0
  0
LINE
  5
4072
  8
DIM
 62
     0
 10
15.402437254923729
 20
15.87235113306372
 30
0.0
 11
15.672437254923731
 21
15.87235113306372
 31
0.0
  0
SOLID
  5
4073
  8
DIM
 62
     0
 10
14.17243725492367
 20
15.91735113306372
 30
0.0
 11
14.17243725492367
 21
15.82735113306371
 31
0.0
 12
14.44243725492367
 22
15.87235113306372
 32
0.0
 13
14.44243725492367
 23
15.87235113306372
 33
0.0
  0
SOLID
  5
4074
  8
DIM
 62
     0
 10
15.402437254923729
 20
15.91735113306372
 30
0.0
 11
15.402437254923729
 21
15.82735113306371
 31
0.0
 12
15.132437254923721
 22
15.87235113306372
 32
0.0
 13
15.132437254923721
 23
15.87235113306372
 33
0.0
  0
TEXT
  5
4075
  8
OBJECT
 62
     0
 10
14.740562254923701
 20
15.778601133063709
 30
0.0
 40
0.1875
  1
F
 41
0.75
  0
POINT
  5
4076
  8
DEFPOINTS
 62
     0
 10
14.44243725492367
 20
16.249685741091
 30
0.0
  0
POINT
  5
4077
  8
DEFPOINTS
 62
     0
 10
15.132437254923721
 20
16.250685741091001
 30
0.0
  0
POINT
  5
4078
  8
DEFPOINTS
 62
     0
 10
15.132437254923721
 20
15.87235113306372
 30
0.0
  0
ENDBLK
  5
F30
  8
0
  0
BLOCK
  8
0
  2
*D9
 70
     1
 10
0.0
 20
0.0
 30
0.0
  3
*D9
  1

  0
LINE
  5
4083
  8
DIM
 62
     0
 10
14.405437254923671
 20
16.562185741091
 30
0.0
 11
14.405437254923671
 21
16.917654507964532
 31
0.0
  0
LINE
  5
4084
  8
DIM
 62
     0
 10
13.71543725492373
 20
16.562185741091
 30
0.0
 11
13.71543725492373
 21
16.917654507964532
 31
0.0
  0
LINE
  5
4085
  8
DIM
 62
     0
 10
14.67543725492367
 20
16.77815450796453
 30
0.0
 11
14.94543725492367
 21
16.77815450796453
 31
0.0
  0
LINE
  5
4086
  8
DIM
 62
     0
 10
13.44543725492373
 20
16.77815450796453
 30
0.0
 11
13.175437254923731
 21
16.77815450796453
 31
0.0
  0
SOLID
  5
4087
  8
DIM
 62
     0
 10
14.67543725492367
 20
16.823154507964531
 30
0.0
 11
14.67543725492367
 21
16.733154507964532
 31
0.0
 12
14.405437254923671
 22
16.77815450796453
 32
0.0
 13
14.405437254923671
 23
16.77815450796453
 33
0.0
  0
SOLID
  5
4088
  8
DIM
 62
     0
 10
13.44543725492373
 20
16.823154507964531
 30
0.0
 11
13.44543725492373
 21
16.733154507964532
 31
0.0
 12
13.71543725492373
 22
16.77815450796453
 32
0.0
 13
13.71543725492373
 23
16.77815450796453
 33
0.0
  0
TEXT
  5
4089
  8
OBJECT
 62
     0
 10
14.0135622549237
 20
16.68440450796453
 30
0.0
 40
0.1875
  1
G
 41
0.75
  0
POINT
  5
408A
  8
DEFPOINTS
 62
     0
 10
14.405437254923671
 20
16.467685741091
 30
0.0
  0
POINT
  5
408B
  8
DEFPOINTS
 62
     0
 10
13.71543725492373
 20
16.467685741091
 30
0.0
  0
POINT
  5
408C
  8
DEFPOINTS
 62
     0
 10
13.71543725492373
 20
16.77815450796453
 30
0.0
  0
ENDBLK
  5
F48
  8
0
  0
BLOCK
  8
0
  2
*D10
 70
     1
 10
0.0
 20
0.0
 30
0.0
  3
*D10
  1

  0
LINE
  5
4050
  8
DIM
 62
     0
 10
13.835437254923731
 20
17.316267405044599
 30
0.0
 11
13.835437254923731
 21
17.505267405044599
 31
0.0
  0
LINE
  5
4051
  8
DIM
 62
     0
 10
13.71543725492373
 20
17.316267405044599
 30
0.0
 11
13.71543725492373
 21
17.505267405044599
 31
0.0
  0
LINE
  5
4052
  8
DIM
 62
     0
 10
14.10543725492373
 20
17.3657674050446
 30
0.0
 11
14.37543725492373
 21
17.3657674050446
 31
0.0
  0
LINE
  5
4053
  8
DIM
 62
     0
 10
13.44543725492373
 20
17.3657674050446
 30
0.0
 11
13.175437254923731
 21
17.3657674050446
 31
0.0
  0
SOLID
  5
4054
  8
DIM
 62
     0
 10
14.10543725492373
 20
17.410767405044599
 30
0.0
 11
14.10543725492373
 21
17.320767405044599
 31
0.0
 12
13.835437254923731
 22
17.3657674050446
 32
0.0
 13
13.835437254923731
 23
17.3657674050446
 33
0.0
  0
SOLID
  5
4055
  8
DIM
 62
     0
 10
13.44543725492373
 20
17.410767405044599
 30
0.0
 11
13.44543725492373
 21
17.320767405044599
 31
0.0
 12
13.71543725492373
 22
17.3657674050446
 32
0.0
 13
13.71543725492373
 23
17.3657674050446
 33
0.0
  0
TEXT
  5
4056
  8
OBJECT
 62
     0
 10
11.962312254923731
 20
17.2720174050446
 30
0.0
 40
0.1875
  1
0.120 TYP.
 41
0.75
  0
POINT
  5
4057
  8
DEFPOINTS
 62
     0
 10
13.835437254923731
 20
17.221767405044599
 30
0.0
  0
POINT
  5
4058
  8
DEFPOINTS
 62
     0
 10
13.71543725492373
 20
17.221767405044599
 30
0.0
  0
POINT
  5
4059
  8
DEFPOINTS
 62
     0
 10
13.71543725492373
 20
17.3657674050446
 30
0.0
  0
ENDBLK
  5
F60
  8
0
  0
BLOCK
  8
0
  2
*D11
 70
     1
 10
0.0
 20
0.0
 30
0.0
  3
*D11
  1

  0
LINE
  5
40DE
  8
DIM
 62
     0
 10
13.99143725492373
 20
18.909185741091001
 30
0.0
 11
13.99143725492373
 21
19.189988089586102
 31
0.0
  0
LINE
  5
40DF
  8
DIM
 62
     0
 10
13.835437254923731
 20
18.909185741091001
 30
0.0
 11
13.835437254923731
 21
19.189988089586102
 31
0.0
  0
LINE
  5
40E0
  8
DIM
 62
     0
 10
14.261437254923729
 20
19.0504880895861
 30
0.0
 11
14.531437254923731
 21
19.0504880895861
 31
0.0
  0
LINE
  5
40E1
  8
DIM
 62
     0
 10
13.565437254923729
 20
19.0504880895861
 30
0.0
 11
13.29543725492373
 21
19.0504880895861
 31
0.0
  0
SOLID
  5
40E2
  8
DIM
 62
     0
 10
14.261437254923729
 20
19.095488089586109
 30
0.0
 11
14.261437254923729
 21
19.005488089586098
 31
0.0
 12
13.99143725492373
 22
19.0504880895861
 32
0.0
 13
13.99143725492373
 23
19.0504880895861
 33
0.0
  0
SOLID
  5
40E3
  8
DIM
 62
     0
 10
13.565437254923729
 20
19.095488089586109
 30
0.0
 11
13.565437254923729
 21
19.005488089586098
 31
0.0
 12
13.835437254923731
 22
19.0504880895861
 32
0.0
 13
13.835437254923731
 23
19.0504880895861
 33
0.0
  0
TEXT
  5
40E4
  8
OBJECT
 62
     0
 10
12.05887475492373
 20
18.9567380895861
 30
0.0
 40
0.1875
  1
0.156 TYP.
 41
0.75
  0
POINT
  5
40E5
  8
DEFPOINTS
 62
     0
 10
13.99143725492373
 20
18.814685741091001
 30
0.0
  0
POINT
  5
40E6
  8
DEFPOINTS
 62
     0
 10
13.835437254923731
 20
18.814685741091001
 30
0.0
  0
POINT
  5
40E7
  8
DEFPOINTS
 62
     0
 10
13.835437254923731
 20
19.0504880895861
 30
0.0
  0
ENDBLK
  5
F82
  8
0
  0
BLOCK
  8
0
  2
*D12
 70
     1
 10
0.0
 20
0.0
 30
0.0
  3
*D12
  1

  0
LINE
  5
40C9
  8
DIM
 62
     0
 10
6.9386808774590314
 20
18.80118574109099
 30
0.0
 11
6.9386808774590314
 21
20.615685741090989
 31
0.0
  0
LINE
  5
40CA
  8
DIM
 62
     0
 10
2.174680877459032
 20
18.80118574109099
 30
0.0
 11
2.174680877459032
 21
20.615685741090989
 31
0.0
  0
LINE
  5
40CB
  8
DIM
 62
     0
 10
6.6686808774590309
 20
20.47618574109099
 30
0.0
 11
4.9729308774590306
 21
20.47618574109099
 31
0.0
  0
LINE
  5
40CC
  8
DIM
 62
     0
 10
2.4446808774590321
 20
20.47618574109099
 30
0.0
 11
4.140430877459031
 21
20.47618574109099
 31
0.0
  0
SOLID
  5
40CD
  8
DIM
 62
     0
 10
6.6686808774590309
 20
20.521185741090989
 30
0.0
 11
6.6686808774590309
 21
20.431185741090989
 31
0.0
 12
6.9386808774590314
 22
20.47618574109099
 32
0.0
 13
6.9386808774590314
 23
20.47618574109099
 33
0.0
  0
SOLID
  5
40CE
  8
DIM
 62
     0
 10
2.4446808774590321
 20
20.521185741090989
 30
0.0
 11
2.4446808774590321
 21
20.431185741090989
 31
0.0
 12
2.174680877459032
 22
20.47618574109099
 32
0.0
 13
2.174680877459032
 23
20.47618574109099
 33
0.0
  0
TEXT
  5
40CF
  8
OBJECT
 62
     0
 10
4.2754308774590308
 20
20.38243574109099
 30
0.0
 40
0.1875
  1
4.764
 41
0.75
  0
POINT
  5
40D0
  8
DEFPOINTS
 62
     0
 10
6.9386808774590314
 20
18.70668574109099
 30
0.0
  0
POINT
  5
40D1
  8
DEFPOINTS
 62
     0
 10
2.174680877459032
 20
18.70668574109099
 30
0.0
  0
POINT
  5
40D2
  8
DEFPOINTS
 62
     0
 10
2.174680877459032
 20
20.47618574109099
 30
0.0
  0
ENDBLK
  5
F91
  8
0
  0
BLOCK
  8
0
  2
*D13
 70
     1
 10
0.0
 20
0.0
 30
0.0
  3
*D13
  1

  0
LINE
  5
40D3
  8
DIM
 62
     0
 10
2.174680877459032
 20
18.80118574109099
 30
0.0
 11
2.174680877459032
 21
20.615685741090989
 31
0.0
  0
LINE
  5
40D4
  8
DIM
 62
     0
 10
1.4856808774590311
 20
19.99618574109099
 30
0.0
 11
1.4856808774590311
 21
20.615685741090989
 31
0.0
  0
LINE
  5
40D5
  8
DIM
 62
     0
 10
2.4446808774590321
 20
20.47618574109099
 30
0.0
 11
2.7146808774590321
 21
20.47618574109099
 31
0.0
  0
LINE
  5
40D6
  8
DIM
 62
     0
 10
1.2156808774590311
 20
20.47618574109099
 30
0.0
 11
0.945680877459032
 21
20.47618574109099
 31
0.0
  0
SOLID
  5
40D7
  8
DIM
 62
     0
 10
2.4446808774590321
 20
20.521185741090989
 30
0.0
 11
2.4446808774590321
 21
20.431185741090989
 31
0.0
 12
2.174680877459032
 22
20.47618574109099
 32
0.0
 13
2.174680877459032
 23
20.47618574109099
 33
0.0
  0
SOLID
  5
40D8
  8
DIM
 62
     0
 10
1.2156808774590311
 20
20.521185741090989
 30
0.0
 11
1.2156808774590311
 21
20.431185741090989
 31
0.0
 12
1.4856808774590311
 22
20.47618574109099
 32
0.0
 13
1.4856808774590311
 23
20.47618574109099
 33
0.0
  0
TEXT
  5
40D9
  8
OBJECT
 62
     0
 10
1.560649627459032
 20
20.38243574109099
 30
0.0
 40
0.1875
  1
0.689
 41
0.75
  0
POINT
  5
40DA
  8
DEFPOINTS
 62
     0
 10
2.174680877459032
 20
18.70668574109099
 30
0.0
  0
POINT
  5
40DB
  8
DEFPOINTS
 62
     0
 10
1.4856808774590311
 20
19.90168574109099
 30
0.0
  0
POINT
  5
40DC
  8
DEFPOINTS
 62
     0
 10
1.4856808774590311
 20
20.47618574109099
 30
0.0
  0
ENDBLK
  5
F9F
  8
0
  0
BLOCK
  8
0
  2
*D14
 70
     1
 10
0.0
 20
0.0
 30
0.0
  3
*D14
  1

  0
LINE
  5
3EC5
  8
DIM
 62
     0
 10
7.3636808774590321
 20
13.287685741090989
 30
0.0
 11
8.2755989776915797
 21
13.287685741090989
 31
0.0
  0
LINE
  5
3EC6
  8
DIM
 62
     0
 10
7.7221808774590306
 20
12.81568574109099
 30
0.0
 11
8.2755989776915797
 21
12.81568574109099
 31
0.0
  0
LINE
  5
3EC7
  8
DIM
 62
     0
 10
8.1360989776915797
 20
13.557685741090991
 30
0.0
 11
8.1360989776915797
 21
13.82768574109099
 31
0.0
  0
LINE
  5
3EC8
  8
DIM
 62
     0
 10
8.1360989776915797
 20
12.54568574109099
 30
0.0
 11
8.1360989776915797
 21
12.275685741090991
 31
0.0
  0
SOLID
  5
3EC9
  8
DIM
 62
     0
 10
8.0910989776915798
 20
13.557685741090991
 30
0.0
 11
8.1810989776915797
 21
13.557685741090991
 31
0.0
 12
8.1360989776915797
 22
13.287685741090989
 32
0.0
 13
8.1360989776915797
 23
13.287685741090989
 33
0.0
  0
SOLID
  5
3ECA
  8
DIM
 62
     0
 10
8.0910989776915798
 20
12.54568574109099
 30
0.0
 11
8.1810989776915797
 21
12.54568574109099
 31
0.0
 12
8.1360989776915797
 22
12.81568574109099
 32
0.0
 13
8.1360989776915797
 23
12.81568574109099
 33
0.0
  0
TEXT
  5
3ECB
  8
OBJECT
 62
     0
 10
7.8665677276915762
 20
12.95793574109099
 30
0.0
 40
0.1875
  1
0.472
 41
0.75
  0
POINT
  5
3ECC
  8
DEFPOINTS
 62
     0
 10
7.2691808774590321
 20
13.287685741090989
 30
0.0
  0
POINT
  5
3ECD
  8
DEFPOINTS
 62
     0
 10
7.6276808774590306
 20
12.81568574109099
 30
0.0
  0
POINT
  5
3ECE
  8
DEFPOINTS
 62
     0
 10
8.1360989776915797
 20
12.81568574109099
 30
0.0
  0
ENDBLK
  5
1015
  8
0
  0
BLOCK
  8
0
  2
*D15
 70
     1
 10
0.0
 20
0.0
 30
0.0
  3
*D15
  1

  0
LINE
  5
3E60
  8
DIM
 62
     0
 10
7.4326808774590312
 20
14.83018574109099
 30
0.0
 11
7.4326808774590312
 21
15.511507020051461
 31
0.0
  0
LINE
  5
3E61
  8
DIM
 62
     0
 10
1.6806808774590101
 20
14.83018574109099
 30
0.0
 11
1.6806808774590101
 21
15.511507020051461
 31
0.0
  0
LINE
  5
3E62
  8
DIM
 62
     0
 10
7.1626808774590307
 20
15.372007020051459
 30
0.0
 11
4.97293087745902
 21
15.372007020051459
 31
0.0
  0
LINE
  5
3E63
  8
DIM
 62
     0
 10
1.9506808774590101
 20
15.372007020051459
 30
0.0
 11
4.1404308774590213
 21
15.372007020051459
 31
0.0
  0
SOLID
  5
3E64
  8
DIM
 62
     0
 10
7.1626808774590307
 20
15.417007020051461
 30
0.0
 11
7.1626808774590307
 21
15.327007020051459
 31
0.0
 12
7.4326808774590312
 22
15.372007020051459
 32
0.0
 13
7.4326808774590312
 23
15.372007020051459
 33
0.0
  0
SOLID
  5
3E65
  8
DIM
 62
     0
 10
1.9506808774590101
 20
15.417007020051461
 30
0.0
 11
1.9506808774590101
 21
15.327007020051459
 31
0.0
 12
1.6806808774590101
 22
15.372007020051459
 32
0.0
 13
1.6806808774590101
 23
15.372007020051459
 33
0.0
  0
TEXT
  5
3E66
  8
OBJECT
 62
     0
 10
4.2754308774590211
 20
15.278257020051459
 30
0.0
 40
0.1875
  1
5.752
 41
0.75
  0
POINT
  5
3E67
  8
DEFPOINTS
 62
     0
 10
7.4326808774590312
 20
14.73568574109099
 30
0.0
  0
POINT
  5
3E68
  8
DEFPOINTS
 62
     0
 10
1.6806808774590101
 20
14.73568574109099
 30
0.0
  0
POINT
  5
3E69
  8
DEFPOINTS
 62
     0
 10
1.6806808774590101
 20
15.372007020051459
 30
0.0
  0
ENDBLK
  5
1023
  8
0
  0
BLOCK
  8
0
  2
*D16
 70
     1
 10
0.0
 20
0.0
 30
0.0
  3
*D16
  1

  0
LINE
  5
3EB0
  8
DIM
 62
     0
 10
7.3381808774590338
 20
14.67568574109098
 30
0.0
 11
6.5250588324717507
 21
14.67568574109098
 31
0.0
  0
LINE
  5
3EB1
  8
DIM
 62
     0
 10
7.3381808774590338
 20
14.577685741090979
 30
0.0
 11
6.5250588324717507
 21
14.577685741090979
 31
0.0
  0
LINE
  5
3EB2
  8
DIM
 62
     0
 10
6.6645588324717506
 20
14.94568574109098
 30
0.0
 11
6.6645588324717506
 21
15.21568574109099
 31
0.0
  0
LINE
  5
3EB3
  8
DIM
 62
     0
 10
6.6645588324717506
 20
14.30768574109098
 30
0.0
 11
6.6645588324717506
 21
14.03768574109098
 31
0.0
  0
LINE
  5
3EB4
  8
DIM
 62
     0
 10
6.6645588324717506
 20
14.03768574109098
 30
0.0
 11
6.3945588324717511
 21
14.03768574109098
 31
0.0
  0
SOLID
  5
3EB5
  8
DIM
 62
     0
 10
6.6195588324717507
 20
14.94568574109098
 30
0.0
 11
6.7095588324717514
 21
14.94568574109098
 31
0.0
 12
6.6645588324717506
 22
14.67568574109098
 32
0.0
 13
6.6645588324717506
 23
14.67568574109098
 33
0.0
  0
SOLID
  5
3EB6
  8
DIM
 62
     0
 10
6.6195588324717507
 20
14.30768574109098
 30
0.0
 11
6.7095588324717514
 21
14.30768574109098
 31
0.0
 12
6.6645588324717506
 22
14.577685741090979
 32
0.0
 13
6.6645588324717506
 23
14.577685741090979
 33
0.0
  0
TEXT
  5
3EB7
  8
OBJECT
 62
     0
 10
5.1345588324717477
 20
13.94393574109098
 30
0.0
 40
0.1875
  1
0.098 TYP.
 41
0.75
  0
POINT
  5
3EB8
  8
DEFPOINTS
 62
     0
 10
7.4326808774590338
 20
14.67568574109098
 30
0.0
  0
POINT
  5
3EB9
  8
DEFPOINTS
 62
     0
 10
7.4326808774590338
 20
14.577685741090979
 30
0.0
  0
POINT
  5
3EBA
  8
DEFPOINTS
 62
     0
 10
6.6645588324717506
 20
14.577685741090979
 30
0.0
  0
ENDBLK
  5
1032
  8
0
  0
BLOCK
  8
0
  2
*D17
 70
     1
 10
0.0
 20
0.0
 30
0.0
  3
*D17
  1

  0
LINE
  5
3E74
  8
DIM
 62
     0
 10
1.6806808774590321
 20
14.423185741090981
 30
0.0
 11
1.6806808774590321
 21
14.20396601258364
 31
0.0
  0
LINE
  5
3E75
  8
DIM
 62
     0
 10
1.6256808774590319
 20
14.42318574109099
 30
0.0
 11
1.6256808774590319
 21
14.20396601258364
 31
0.0
  0
LINE
  5
3E76
  8
DIM
 62
     0
 10
1.3556808774590321
 20
14.34346601258364
 30
0.0
 11
1.0856808774590321
 21
14.34346601258364
 31
0.0
  0
LINE
  5
3E77
  8
DIM
 62
     0
 10
1.9506808774590321
 20
14.34346601258364
 30
0.0
 11
2.2206808774590319
 21
14.34346601258364
 31
0.0
  0
SOLID
  5
3E78
  8
DIM
 62
     0
 10
1.3556808774590321
 20
14.38846601258364
 30
0.0
 11
1.3556808774590321
 21
14.29846601258364
 31
0.0
 12
1.6256808774590319
 22
14.34346601258364
 32
0.0
 13
1.6256808774590319
 23
14.34346601258364
 33
0.0
  0
SOLID
  5
3E79
  8
DIM
 62
     0
 10
1.9506808774590321
 20
14.38846601258364
 30
0.0
 11
1.9506808774590321
 21
14.29846601258364
 31
0.0
 12
1.6806808774590321
 22
14.34346601258364
 32
0.0
 13
1.6806808774590321
 23
14.34346601258364
 33
0.0
  0
TEXT
  5
3E7A
  8
OBJECT
 62
     0
 10
2.3556808774590321
 20
14.24971601258364
 30
0.0
 40
0.1875
  1
0.055 TYP.
 41
0.75
  0
POINT
  5
3E7B
  8
DEFPOINTS
 62
     0
 10
1.6806808774590321
 20
14.517685741090981
 30
0.0
  0
POINT
  5
3E7C
  8
DEFPOINTS
 62
     0
 10
1.6256808774590319
 20
14.51768574109099
 30
0.0
  0
POINT
  5
3E7D
  8
DEFPOINTS
 62
     0
 10
1.6256808774590319
 20
14.34346601258364
 30
0.0
  0
ENDBLK
  5
1040
  8
0
  0
BLOCK
  8
0
  2
*D18
 70
     1
 10
0.0
 20
0.0
 30
0.0
  3
*D18
  1

  0
LINE
  5
3E88
  8
DIM
 62
     0
 10
7.6276808774590306
 20
16.043503381104831
 30
0.0
 11
7.6276808774590306
 21
15.93550338110483
 31
0.0
  0
LINE
  5
3E89
  8
DIM
 62
     0
 10
7.48768087745903
 20
16.043503381104831
 30
0.0
 11
7.48768087745903
 21
15.93550338110483
 31
0.0
  0
LINE
  5
3E8A
  8
DIM
 62
     0
 10
7.897680877459031
 20
16.075003381104821
 30
0.0
 11
8.1676808774590306
 21
16.075003381104821
 31
0.0
  0
LINE
  5
3E8B
  8
DIM
 62
     0
 10
7.2176808774590313
 20
16.075003381104821
 30
0.0
 11
6.94768087745903
 21
16.075003381104821
 31
0.0
  0
SOLID
  5
3E8C
  8
DIM
 62
     0
 10
7.897680877459031
 20
16.120003381104819
 30
0.0
 11
7.897680877459031
 21
16.030003381104819
 31
0.0
 12
7.6276808774590306
 22
16.075003381104821
 32
0.0
 13
7.6276808774590306
 23
16.075003381104821
 33
0.0
  0
SOLID
  5
3E8D
  8
DIM
 62
     0
 10
7.2176808774590313
 20
16.120003381104819
 30
0.0
 11
7.2176808774590313
 21
16.030003381104819
 31
0.0
 12
7.48768087745903
 22
16.075003381104821
 32
0.0
 13
7.48768087745903
 23
16.075003381104821
 33
0.0
  0
TEXT
  5
3E8E
  8
OBJECT
 62
     0
 10
5.7345558774590311
 20
15.98125338110483
 30
0.0
 40
0.1875
  1
0.140 TYP.
 41
0.75
  0
POINT
  5
3E8F
  8
DEFPOINTS
 62
     0
 10
7.6276808774590306
 20
16.138003381104831
 30
0.0
  0
POINT
  5
3E90
  8
DEFPOINTS
 62
     0
 10
7.48768087745903
 20
16.138003381104831
 30
0.0
  0
POINT
  5
3E91
  8
DEFPOINTS
 62
     0
 10
7.48768087745903
 20
16.075003381104821
 30
0.0
  0
ENDBLK
  5
104E
  8
0
  0
BLOCK
  8
0
  2
*D19
 70
     1
 10
0.0
 20
0.0
 30
0.0
  3
*D19
  1

  0
LINE
  5
3EBB
  8
DIM
 62
     0
 10
7.2691808774590321
 20
13.193185741090989
 30
0.0
 11
7.2691808774590321
 21
12.040687793244
 31
0.0
  0
LINE
  5
3EBC
  8
DIM
 62
     0
 10
7.6276808774590306
 20
12.72118574109099
 30
0.0
 11
7.6276808774590306
 21
12.040687793244
 31
0.0
  0
LINE
  5
3EBD
  8
DIM
 62
     0
 10
6.9991808774590316
 20
12.180187793244
 30
0.0
 11
6.729180877459032
 21
12.180187793244
 31
0.0
  0
LINE
  5
3EBE
  8
DIM
 62
     0
 10
7.897680877459031
 20
12.180187793244
 30
0.0
 11
8.1676808774590324
 21
12.180187793244
 31
0.0
  0
SOLID
  5
3EBF
  8
DIM
 62
     0
 10
6.9991808774590316
 20
12.225187793244
 30
0.0
 11
6.9991808774590316
 21
12.135187793244
 31
0.0
 12
7.2691808774590321
 22
12.180187793244
 32
0.0
 13
7.2691808774590321
 23
12.180187793244
 33
0.0
  0
SOLID
  5
3EC0
  8
DIM
 62
     0
 10
7.897680877459031
 20
12.225187793244
 30
0.0
 11
7.897680877459031
 21
12.135187793244
 31
0.0
 12
7.6276808774590306
 22
12.180187793244
 32
0.0
 13
7.6276808774590306
 23
12.180187793244
 33
0.0
  0
TEXT
  5
3EC1
  8
OBJECT
 62
     0
 10
8.3026808774590322
 20
12.086437793244
 30
0.0
 40
0.1875
  1
0.359
 41
0.75
  0
POINT
  5
3EC2
  8
DEFPOINTS
 62
     0
 10
7.2691808774590321
 20
13.287685741090989
 30
0.0
  0
POINT
  5
3EC3
  8
DEFPOINTS
 62
     0
 10
7.6276808774590306
 20
12.81568574109099
 30
0.0
  0
POINT
  5
3EC4
  8
DEFPOINTS
 62
     0
 10
7.6276808774590306
 20
12.180187793244
 30
0.0
  0
ENDBLK
  5
105D
  8
0
  0
BLOCK
  8
0
  2
*D20
 70
     1
 10
0.0
 20
0.0
 30
0.0
  3
*D20
  1

  0
LINE
  5
3EF7
  8
DIM
 62
     0
 10
10.262545576227801
 20
19.90168574109099
 30
0.0
 11
9.7474356629744197
 21
19.90168574109099
 31
0.0
  0
LINE
  5
3EF8
  8
DIM
 62
     0
 10
10.26254557622781
 20
12.81568574109099
 30
0.0
 11
9.7474356629744197
 21
12.81568574109099
 31
0.0
  0
LINE
  5
3EF9
  8
DIM
 62
     0
 10
9.8869356629744196
 20
19.63168574109099
 30
0.0
 11
9.8869356629744196
 21
16.587435741090989
 31
0.0
  0
LINE
  5
3EFA
  8
DIM
 62
     0
 10
9.8869356629744196
 20
13.085685741090989
 30
0.0
 11
9.8869356629744196
 21
16.129935741090989
 31
0.0
  0
SOLID
  5
3EFB
  8
DIM
 62
     0
 10
9.8419356629744197
 20
19.63168574109099
 30
0.0
 11
9.9319356629744195
 21
19.63168574109099
 31
0.0
 12
9.8869356629744196
 22
19.90168574109099
 32
0.0
 13
9.8869356629744196
 23
19.90168574109099
 33
0.0
  0
SOLID
  5
3EFC
  8
DIM
 62
     0
 10
9.8419356629744197
 20
13.085685741090989
 30
0.0
 11
9.9319356629744195
 21
13.085685741090989
 31
0.0
 12
9.8869356629744196
 22
12.81568574109099
 32
0.0
 13
9.8869356629744196
 23
12.81568574109099
 33
0.0
  0
TEXT
  5
3EFD
  8
OBJECT
 62
     0
 10
9.6174044129744178
 20
16.264935741090991
 30
0.0
 40
0.1875
  1
7.086
 41
0.75
  0
POINT
  5
3EFE
  8
DEFPOINTS
 62
     0
 10
10.357045576227801
 20
19.90168574109099
 30
0.0
  0
POINT
  5
3EFF
  8
DEFPOINTS
 62
     0
 10
10.35704557622781
 20
12.81568574109099
 30
0.0
  0
POINT
  5
3F00
  8
DEFPOINTS
 62
     0
 10
9.8869356629744196
 20
12.81568574109099
 30
0.0
  0
ENDBLK
  5
1145
  8
0
  0
BLOCK
  8
0
  2
*D21
 70
     1
 10
0.0
 20
0.0
 30
0.0
  3
*D21
  1

  0
LINE
  5
3EA6
  8
DIM
 62
     0
 10
3.9214425099449808
 20
13.020685741091
 30
0.0
 11
3.8134425099449811
 21
13.020685741091
 31
0.0
  0
LINE
  5
3EA7
  8
DIM
 62
     0
 10
3.9214425099449808
 20
19.696685741090992
 30
0.0
 11
3.813442509944982
 21
19.696685741090992
 31
0.0
  0
LINE
  5
3EA8
  8
DIM
 62
     0
 10
3.9529425099449802
 20
13.290685741090989
 30
0.0
 11
3.9529425099449811
 21
16.129935741090989
 31
0.0
  0
LINE
  5
3EA9
  8
DIM
 62
     0
 10
3.952942509944982
 20
19.426685741090989
 30
0.0
 11
3.9529425099449811
 21
16.587435741090999
 31
0.0
  0
SOLID
  5
3EAA
  8
DIM
 62
     0
 10
3.9079425099449812
 20
13.290685741090989
 30
0.0
 11
3.9979425099449801
 21
13.290685741090989
 31
0.0
 12
3.9529425099449802
 22
13.020685741091
 32
0.0
 13
3.9529425099449802
 23
13.020685741091
 33
0.0
  0
SOLID
  5
3EAB
  8
DIM
 62
     0
 10
3.907942509944982
 20
19.426685741090989
 30
0.0
 11
3.9979425099449819
 21
19.426685741090989
 31
0.0
 12
3.952942509944982
 22
19.696685741090992
 32
0.0
 13
3.952942509944982
 23
19.696685741090992
 33
0.0
  0
TEXT
  5
3EAC
  8
OBJECT
 62
     0
 10
3.671692509944978
 20
16.264935741090991
 30
0.0
 40
0.1875
  1
6.676
 41
0.75
  0
POINT
  5
3EAD
  8
DEFPOINTS
 62
     0
 10
4.0159425099449813
 20
13.02068574109099
 30
0.0
  0
POINT
  5
3EAE
  8
DEFPOINTS
 62
     0
 10
4.0159425099449813
 20
19.696685741090992
 30
0.0
  0
POINT
  5
3EAF
  8
DEFPOINTS
 62
     0
 10
3.952942509944982
 20
19.696685741090992
 30
0.0
  0
ENDBLK
  5
1154
  8
0
  0
BLOCK
  8
0
  2
*D22
 70
     1
 10
0.0
 20
0.0
 30
0.0
  3
*D22
  1

  0
LINE
  5
3E4C
  8
DIM
 62
     0
 10
1.6256808774590319
 20
15.77178915687637
 30
0.0
 11
1.6256808774590319
 21
15.663789156876369
 31
0.0
  0
LINE
  5
3E4D
  8
DIM
 62
     0
 10
7.4876808774590371
 20
15.77178915687637
 30
0.0
 11
7.4876808774590371
 21
15.663789156876369
 31
0.0
  0
LINE
  5
3E4E
  8
DIM
 62
     0
 10
1.8956808774590319
 20
15.803289156876369
 30
0.0
 11
4.1404308774590346
 21
15.803289156876369
 31
0.0
  0
LINE
  5
3E4F
  8
DIM
 62
     0
 10
7.2176808774590384
 20
15.803289156876369
 30
0.0
 11
4.9729308774590351
 21
15.803289156876369
 31
0.0
  0
SOLID
  5
3E50
  8
DIM
 62
     0
 10
1.8956808774590319
 20
15.848289156876371
 30
0.0
 11
1.8956808774590319
 21
15.758289156876369
 31
0.0
 12
1.6256808774590319
 22
15.803289156876369
 32
0.0
 13
1.6256808774590319
 23
15.803289156876369
 33
0.0
  0
SOLID
  5
3E51
  8
DIM
 62
     0
 10
7.2176808774590384
 20
15.848289156876371
 30
0.0
 11
7.2176808774590384
 21
15.758289156876369
 31
0.0
 12
7.4876808774590371
 22
15.803289156876369
 32
0.0
 13
7.4876808774590371
 23
15.803289156876369
 33
0.0
  0
TEXT
  5
3E52
  8
OBJECT
 62
     0
 10
4.2754308774590353
 20
15.709539156876369
 30
0.0
 40
0.1875
  1
5.862
 41
0.75
  0
POINT
  5
3E53
  8
DEFPOINTS
 62
     0
 10
1.6256808774590319
 20
15.86628915687637
 30
0.0
  0
POINT
  5
3E54
  8
DEFPOINTS
 62
     0
 10
7.4876808774590371
 20
15.86628915687637
 30
0.0
  0
POINT
  5
3E55
  8
DEFPOINTS
 62
     0
 10
7.4876808774590371
 20
15.803289156876369
 30
0.0
  0
ENDBLK
  5
1217
  8
0
  0
BLOCK
  8
0
  2
*D23
 70
     1
 10
0.0
 20
0.0
 30
0.0
  3
*D23
  1

  0
LINE
  5
3F33
  8
DIM
 62
     0
 10
11.04604557622782
 20
19.99618574109099
 30
0.0
 11
11.04604557622782
 21
20.84818574109099
 31
0.0
  0
LINE
  5
3F34
  8
DIM
 62
     0
 10
10.357045576227801
 20
19.99618574109099
 30
0.0
 11
10.357045576227801
 21
20.84818574109099
 31
0.0
  0
LINE
  5
3F35
  8
DIM
 62
     0
 10
11.31604557622782
 20
20.708685741090989
 30
0.0
 11
11.58604557622782
 21
20.708685741090989
 31
0.0
  0
LINE
  5
3F36
  8
DIM
 62
     0
 10
10.0870455762278
 20
20.708685741090989
 30
0.0
 11
9.8170455762278088
 21
20.708685741090989
 31
0.0
  0
SOLID
  5
3F37
  8
DIM
 62
     0
 10
11.31604557622782
 20
20.75368574109099
 30
0.0
 11
11.31604557622782
 21
20.66368574109099
 31
0.0
 12
11.04604557622782
 22
20.708685741090989
 32
0.0
 13
11.04604557622782
 23
20.708685741090989
 33
0.0
  0
SOLID
  5
3F38
  8
DIM
 62
     0
 10
10.0870455762278
 20
20.75368574109099
 30
0.0
 11
10.0870455762278
 21
20.66368574109099
 31
0.0
 12
10.357045576227801
 22
20.708685741090989
 32
0.0
 13
10.357045576227801
 23
20.708685741090989
 33
0.0
  0
TEXT
  5
3F39
  8
OBJECT
 62
     0
 10
10.65467057622781
 20
20.614935741090989
 30
0.0
 40
0.1875
  1
C
 41
0.75
  0
POINT
  5
3F3A
  8
DEFPOINTS
 62
     0
 10
11.04604557622782
 20
19.90168574109099
 30
0.0
  0
POINT
  5
3F3B
  8
DEFPOINTS
 62
     0
 10
10.357045576227801
 20
19.90168574109099
 30
0.0
  0
POINT
  5
3F3C
  8
DEFPOINTS
 62
     0
 10
10.357045576227801
 20
20.708685741090989
 30
0.0
  0
ENDBLK
  5
1285
  8
0
  0
BLOCK
  8
0
  2
*D24
 70
     1
 10
0.0
 20
0.0
 30
0.0
  3
*D24
  1

  0
LINE
  5
3F29
  8
DIM
 62
     0
 10
10.357045576227801
 20
19.99618574109099
 30
0.0
 11
10.357045576227801
 21
21.266685741090981
 31
0.0
  0
LINE
  5
3F2A
  8
DIM
 62
     0
 10
11.774045576227801
 20
19.99618574109099
 30
0.0
 11
11.774045576227801
 21
21.266685741090981
 31
0.0
  0
LINE
  5
3F2B
  8
DIM
 62
     0
 10
10.6270455762278
 20
21.12718574109099
 30
0.0
 11
10.8836705762278
 21
21.12718574109099
 31
0.0
  0
LINE
  5
3F2C
  8
DIM
 62
     0
 10
11.504045576227799
 20
21.12718574109099
 30
0.0
 11
11.2474205762278
 21
21.12718574109099
 31
0.0
  0
SOLID
  5
3F2D
  8
DIM
 62
     0
 10
10.6270455762278
 20
21.172185741090988
 30
0.0
 11
10.6270455762278
 21
21.082185741090981
 31
0.0
 12
10.357045576227801
 22
21.12718574109099
 32
0.0
 13
10.357045576227801
 23
21.12718574109099
 33
0.0
  0
SOLID
  5
3F2E
  8
DIM
 62
     0
 10
11.504045576227799
 20
21.172185741090988
 30
0.0
 11
11.504045576227799
 21
21.082185741090981
 31
0.0
 12
11.774045576227801
 22
21.12718574109099
 32
0.0
 13
11.774045576227801
 23
21.12718574109099
 33
0.0
  0
TEXT
  5
3F2F
  8
OBJECT
 62
     0
 10
11.0186705762278
 20
21.03343574109099
 30
0.0
 40
0.1875
  1
A
 41
0.75
  0
POINT
  5
3F30
  8
DEFPOINTS
 62
     0
 10
10.357045576227801
 20
19.90168574109099
 30
0.0
  0
POINT
  5
3F31
  8
DEFPOINTS
 62
     0
 10
11.774045576227801
 20
19.90168574109099
 30
0.0
  0
POINT
  5
3F32
  8
DEFPOINTS
 62
     0
 10
11.774045576227801
 20
21.12718574109099
 30
0.0
  0
ENDBLK
  5
1293
  8
0
  0
BLOCK
  8
0
  2
*D25
 70
     1
 10
0.0
 20
0.0
 30
0.0
  3
*D25
  1

  0
LINE
  5
3F3D
  8
DIM
 62
     0
 10
11.08504557622781
 20
19.99618574109099
 30
0.0
 11
11.08504557622781
 21
20.429685741090989
 31
0.0
  0
LINE
  5
3F3E
  8
DIM
 62
     0
 10
11.774045576227801
 20
19.99618574109099
 30
0.0
 11
11.774045576227801
 21
20.429685741090989
 31
0.0
  0
LINE
  5
3F3F
  8
DIM
 62
     0
 10
10.81504557622781
 20
20.290185741091001
 30
0.0
 11
10.54504557622781
 21
20.290185741091001
 31
0.0
  0
LINE
  5
3F40
  8
DIM
 62
     0
 10
12.0440455762278
 20
20.290185741091001
 30
0.0
 11
12.3140455762278
 21
20.290185741091001
 31
0.0
  0
SOLID
  5
3F41
  8
DIM
 62
     0
 10
10.81504557622781
 20
20.335185741090999
 30
0.0
 11
10.81504557622781
 21
20.245185741090989
 31
0.0
 12
11.08504557622781
 22
20.290185741091001
 32
0.0
 13
11.08504557622781
 23
20.290185741091001
 33
0.0
  0
SOLID
  5
3F42
  8
DIM
 62
     0
 10
12.0440455762278
 20
20.335185741090999
 30
0.0
 11
12.0440455762278
 21
20.245185741090989
 31
0.0
 12
11.774045576227801
 22
20.290185741091001
 32
0.0
 13
11.774045576227801
 23
20.290185741091001
 33
0.0
  0
TEXT
  5
3F43
  8
OBJECT
 62
     0
 10
11.38267057622781
 20
20.19643574109099
 30
0.0
 40
0.1875
  1
B
 41
0.75
  0
POINT
  5
3F44
  8
DEFPOINTS
 62
     0
 10
11.08504557622781
 20
19.90168574109099
 30
0.0
  0
POINT
  5
3F45
  8
DEFPOINTS
 62
     0
 10
11.774045576227801
 20
19.90168574109099
 30
0.0
  0
POINT
  5
3F46
  8
DEFPOINTS
 62
     0
 10
11.774045576227801
 20
20.290185741091001
 30
0.0
  0
ENDBLK
  5
12A1
  8
0
  0
BLOCK
  8
0
  2
*D26
 70
     1
 10
0.0
 20
0.0
 30
0.0
  3
*D26
  1

  0
LINE
  5
3E10
  8
DIM
 62
     0
 10
4.7411808774590334
 20
16.358685741090991
 30
0.0
 11
9.4741218033836265
 21
16.358685741090991
 31
0.0
  0
LINE
  5
3E11
  8
DIM
 62
     0
 10
7.7221808774590306
 20
12.81568574109099
 30
0.0
 11
9.4741218033836265
 21
12.81568574109099
 31
0.0
  0
LINE
  5
3E12
  8
DIM
 62
     0
 10
9.3346218033836266
 20
16.088685741090991
 30
0.0
 11
9.3346218033836266
 21
14.815935741090991
 31
0.0
  0
LINE
  5
3E13
  8
DIM
 62
     0
 10
9.3346218033836266
 20
13.085685741090989
 30
0.0
 11
9.3346218033836266
 21
14.35843574109099
 31
0.0
  0
SOLID
  5
3E14
  8
DIM
 62
     0
 10
9.2896218033836266
 20
16.088685741090991
 30
0.0
 11
9.3796218033836265
 21
16.088685741090991
 31
0.0
 12
9.3346218033836266
 22
16.358685741090991
 32
0.0
 13
9.3346218033836266
 23
16.358685741090991
 33
0.0
  0
SOLID
  5
3E15
  8
DIM
 62
     0
 10
9.2896218033836266
 20
13.085685741090989
 30
0.0
 11
9.3796218033836265
 21
13.085685741090989
 31
0.0
 12
9.3346218033836266
 22
12.81568574109099
 32
0.0
 13
9.3346218033836266
 23
12.81568574109099
 33
0.0
  0
TEXT
  5
3E16
  8
OBJECT
 62
     0
 10
9.0533718033836248
 20
14.493435741090989
 30
0.0
 40
0.1875
  1
3.543
 41
0.75
  0
POINT
  5
3E17
  8
DEFPOINTS
 62
     0
 10
4.6466808774590334
 20
16.358685741090991
 30
0.0
  0
POINT
  5
3E18
  8
DEFPOINTS
 62
     0
 10
7.6276808774590306
 20
12.81568574109099
 30
0.0
  0
POINT
  5
3E19
  8
DEFPOINTS
 62
     0
 10
9.3346218033836266
 20
12.81568574109099
 30
0.0
  0
ENDBLK
  5
1725
  8
0
  0
BLOCK
  8
0
  2
*D27
 70
     1
 10
0.0
 20
0.0
 30
0.0
  3
*D27
  1

  0
LINE
  5
3E92
  8
DIM
 62
     0
 10
4.7411808774590334
 20
16.358685741090991
 30
0.0
 11
8.5249753327702908
 21
16.358685741090991
 31
0.0
  0
LINE
  5
3E93
  8
DIM
 62
     0
 10
7.8221808774590356
 20
14.626685741090981
 30
0.0
 11
8.5249753327702908
 21
14.626685741090981
 31
0.0
  0
LINE
  5
3E94
  8
DIM
 62
     0
 10
8.3854753327702891
 20
16.088685741090991
 30
0.0
 11
8.3854753327702891
 21
15.72143574109098
 31
0.0
  0
LINE
  5
3E95
  8
DIM
 62
     0
 10
8.3854753327702891
 20
14.89668574109098
 30
0.0
 11
8.3854753327702891
 21
15.263935741090989
 31
0.0
  0
SOLID
  5
3E96
  8
DIM
 62
     0
 10
8.3404753327702892
 20
16.088685741090991
 30
0.0
 11
8.4304753327702908
 21
16.088685741090991
 31
0.0
 12
8.3854753327702891
 22
16.358685741090991
 32
0.0
 13
8.3854753327702891
 23
16.358685741090991
 33
0.0
  0
SOLID
  5
3E97
  8
DIM
 62
     0
 10
8.3404753327702892
 20
14.89668574109098
 30
0.0
 11
8.4304753327702908
 21
14.89668574109098
 31
0.0
 12
8.3854753327702891
 22
14.626685741090981
 32
0.0
 13
8.3854753327702891
 23
14.626685741090981
 33
0.0
  0
TEXT
  5
3E98
  8
OBJECT
 62
     0
 10
8.1276628327702891
 20
15.398935741090989
 30
0.0
 40
0.1875
  1
1.732
 41
0.75
  0
POINT
  5
3E99
  8
DEFPOINTS
 62
     0
 10
4.6466808774590334
 20
16.358685741090991
 30
0.0
  0
POINT
  5
3E9A
  8
DEFPOINTS
 62
     0
 10
7.7276808774590364
 20
14.626685741090981
 30
0.0
  0
POINT
  5
3E9B
  8
DEFPOINTS
 62
     0
 10
8.3854753327702891
 20
14.626685741090981
 30
0.0
  0
ENDBLK
  5
175F
  8
0
  0
BLOCK
  8
0
  2
*D28
 70
     1
 10
0.0
 20
0.0
 30
0.0
  3
*D28
  1

  0
LINE
  5
3ED9
  8
DIM
 62
     0
 10
4.7411808774590334
 20
16.358685741090991
 30
0.0
 11
8.5249753327702908
 21
16.35868574109098
 31
0.0
  0
LINE
  5
3EDA
  8
DIM
 62
     0
 10
7.8221808774590356
 20
18.09068574109099
 30
0.0
 11
8.5249753327702908
 21
18.09068574109099
 31
0.0
  0
LINE
  5
3EDB
  8
DIM
 62
     0
 10
8.3854753327702891
 20
16.62868574109098
 30
0.0
 11
8.3854753327702891
 21
16.995935741090989
 31
0.0
  0
LINE
  5
3EDC
  8
DIM
 62
     0
 10
8.3854753327702891
 20
17.82068574109099
 30
0.0
 11
8.3854753327702891
 21
17.453435741090988
 31
0.0
  0
SOLID
  5
3EDD
  8
DIM
 62
     0
 10
8.3404753327702892
 20
16.62868574109098
 30
0.0
 11
8.4304753327702908
 21
16.62868574109098
 31
0.0
 12
8.3854753327702891
 22
16.35868574109098
 32
0.0
 13
8.3854753327702891
 23
16.35868574109098
 33
0.0
  0
SOLID
  5
3EDE
  8
DIM
 62
     0
 10
8.3404753327702892
 20
17.82068574109099
 30
0.0
 11
8.4304753327702908
 21
17.82068574109099
 31
0.0
 12
8.3854753327702891
 22
18.09068574109099
 32
0.0
 13
8.3854753327702891
 23
18.09068574109099
 33
0.0
  0
TEXT
  5
3EDF
  8
OBJECT
 62
     0
 10
8.1276628327702891
 20
17.13093574109099
 30
0.0
 40
0.1875
  1
1.732
 41
0.75
  0
POINT
  5
3EE0
  8
DEFPOINTS
 62
     0
 10
4.6466808774590334
 20
16.358685741090991
 30
0.0
  0
POINT
  5
3EE1
  8
DEFPOINTS
 62
     0
 10
7.7276808774590364
 20
18.09068574109099
 30
0.0
  0
POINT
  5
3EE2
  8
DEFPOINTS
 62
     0
 10
8.3854753327702891
 20
18.09068574109099
 30
0.0
  0
ENDBLK
  5
31EF
  8
0
  0
BLOCK
  8
0
  2
*D29
 70
     1
 10
0.0
 20
0.0
 30
0.0
  3
*D29
  1

  0
LINE
  5
3E6A
  8
DIM
 62
     0
 10
1.8441808774590269
 20
13.193185741090989
 30
0.0
 11
1.8441808774590269
 21
12.040687793244
 31
0.0
  0
LINE
  5
3E6B
  8
DIM
 62
     0
 10
1.485680877459028
 20
12.72118574109099
 30
0.0
 11
1.485680877459028
 21
12.040687793244
 31
0.0
  0
LINE
  5
3E6C
  8
DIM
 62
     0
 10
2.1141808774590269
 20
12.180187793244
 30
0.0
 11
2.384180877459027
 21
12.180187793244
 31
0.0
  0
LINE
  5
3E6D
  8
DIM
 62
     0
 10
1.215680877459028
 20
12.180187793244
 30
0.0
 11
0.9456808774590284
 21
12.180187793244
 31
0.0
  0
SOLID
  5
3E6E
  8
DIM
 62
     0
 10
2.1141808774590269
 20
12.225187793244
 30
0.0
 11
2.1141808774590269
 21
12.135187793244
 31
0.0
 12
1.8441808774590269
 22
12.180187793244
 32
0.0
 13
1.8441808774590269
 23
12.180187793244
 33
0.0
  0
SOLID
  5
3E6F
  8
DIM
 62
     0
 10
1.215680877459028
 20
12.225187793244
 30
0.0
 11
1.215680877459028
 21
12.135187793244
 31
0.0
 12
1.485680877459028
 22
12.180187793244
 32
0.0
 13
1.485680877459028
 23
12.180187793244
 33
0.0
  0
TEXT
  5
3E70
  8
OBJECT
 62
     0
 10
0.2716183774590284
 20
12.086437793244
 30
0.0
 40
0.1875
  1
0.359
 41
0.75
  0
POINT
  5
3E71
  8
DEFPOINTS
 62
     0
 10
1.8441808774590269
 20
13.287685741090989
 30
0.0
  0
POINT
  5
3E72
  8
DEFPOINTS
 62
     0
 10
1.485680877459028
 20
12.81568574109099
 30
0.0
  0
POINT
  5
3E73
  8
DEFPOINTS
 62
     0
 10
1.485680877459028
 20
12.180187793244
 30
0.0
  0
ENDBLK
  5
321E
  8
0
  0
BLOCK
  8
0
  2
*D30
 70
     1
 10
0.0
 20
0.0
 30
0.0
  3
*D30
  1

  0
LINE
  5
3EE3
  8
DIM
 62
     0
 10
7.3636808774590321
 20
19.429685741090982
 30
0.0
 11
8.2755989776915797
 21
19.429685741090982
 31
0.0
  0
LINE
  5
3EE4
  8
DIM
 62
     0
 10
7.7221808774590306
 20
19.901685741090979
 30
0.0
 11
8.2755989776915797
 21
19.901685741090979
 31
0.0
  0
LINE
  5
3EE5
  8
DIM
 62
     0
 10
8.1360989776915797
 20
19.159685741090978
 30
0.0
 11
8.1360989776915797
 21
18.889685741090979
 31
0.0
  0
LINE
  5
3EE6
  8
DIM
 62
     0
 10
8.1360989776915815
 20
20.171685741090979
 30
0.0
 11
8.1360989776915815
 21
20.441685741090978
 31
0.0
  0
SOLID
  5
3EE7
  8
DIM
 62
     0
 10
8.0910989776915798
 20
19.159685741090978
 30
0.0
 11
8.1810989776915797
 21
19.159685741090978
 31
0.0
 12
8.1360989776915797
 22
19.429685741090982
 32
0.0
 13
8.1360989776915797
 23
19.429685741090982
 33
0.0
  0
SOLID
  5
3EE8
  8
DIM
 62
     0
 10
8.0910989776915816
 20
20.171685741090979
 30
0.0
 11
8.1810989776915815
 21
20.171685741090979
 31
0.0
 12
8.1360989776915797
 22
19.901685741090979
 32
0.0
 13
8.1360989776915797
 23
19.901685741090979
 33
0.0
  0
TEXT
  5
3EE9
  8
OBJECT
 62
     0
 10
7.8665677276915771
 20
19.571935741090989
 30
0.0
 40
0.1875
  1
0.472
 41
0.75
  0
POINT
  5
3EEA
  8
DEFPOINTS
 62
     0
 10
7.2691808774590321
 20
19.429685741090982
 30
0.0
  0
POINT
  5
3EEB
  8
DEFPOINTS
 62
     0
 10
7.6276808774590306
 20
19.901685741090979
 30
0.0
  0
POINT
  5
3EEC
  8
DEFPOINTS
 62
     0
 10
8.1360989776915797
 20
19.901685741090979
 30
0.0
  0
ENDBLK
  5
3236
  8
0
  0
BLOCK
  8
0
  2
*D31
 70
     1
 10
0.0
 20
0.0
 30
0.0
  3
*D31
  1

  0
LINE
  5
40F4
  8
DIM
 62
     0
 10
7.0331808774590314
 20
18.70668574109099
 30
0.0
 11
9.0174772405041193
 21
18.70668574109099
 31
0.0
  0
LINE
  5
40F5
  8
DIM
 62
     0
 10
7.0331808774590314
 20
16.358685741090991
 30
0.0
 11
9.0174772405041193
 21
16.358685741090991
 31
0.0
  0
LINE
  5
40F6
  8
DIM
 62
     0
 10
8.8779772405041193
 20
18.43668574109099
 30
0.0
 11
8.8779772405041193
 21
17.761435741090992
 31
0.0
  0
LINE
  5
40F7
  8
DIM
 62
     0
 10
8.8779772405041193
 20
16.62868574109099
 30
0.0
 11
8.8779772405041193
 21
17.303935741090989
 31
0.0
  0
SOLID
  5
40F8
  8
DIM
 62
     0
 10
8.8329772405041194
 20
18.43668574109099
 30
0.0
 11
8.9229772405041192
 21
18.43668574109099
 31
0.0
 12
8.8779772405041193
 22
18.70668574109099
 32
0.0
 13
8.8779772405041193
 23
18.70668574109099
 33
0.0
  0
SOLID
  5
40F9
  8
DIM
 62
     0
 10
8.8329772405041194
 20
16.62868574109099
 30
0.0
 11
8.9229772405041192
 21
16.62868574109099
 31
0.0
 12
8.8779772405041193
 22
16.358685741090991
 32
0.0
 13
8.8779772405041193
 23
16.358685741090991
 33
0.0
  0
TEXT
  5
40FA
  8
OBJECT
 62
     0
 10
8.5967272405041175
 20
17.43893574109099
 30
0.0
 40
0.1875
  1
2.348
 41
0.75
  0
POINT
  5
40FB
  8
DEFPOINTS
 62
     0
 10
6.9386808774590314
 20
18.70668574109099
 30
0.0
  0
POINT
  5
40FC
  8
DEFPOINTS
 62
     0
 10
6.9386808774590314
 20
16.358685741090991
 30
0.0
  0
POINT
  5
40FD
  8
DEFPOINTS
 62
     0
 10
8.8779772405041193
 20
16.358685741090991
 30
0.0
  0
ENDBLK
  5
409C
  8
0
  0
BLOCK
  8
0
  2
*D32
 70
     1
 10
0.0
 20
0.0
 30
0.0
  3
*D32
  1

  0
LINE
  5
40FE
  8
DIM
 62
     0
 10
7.0331808774590314
 20
16.358685741090991
 30
0.0
 11
9.0174772405041193
 21
16.358685741090991
 31
0.0
  0
LINE
  5
40FF
  8
DIM
 62
     0
 10
7.0331808774590314
 20
14.01068574109099
 30
0.0
 11
9.0174772405041193
 21
14.01068574109099
 31
0.0
  0
LINE
  5
4100
  8
DIM
 62
     0
 10
8.8779772405041193
 20
16.088685741090991
 30
0.0
 11
8.8779772405041193
 21
15.413435741090989
 31
0.0
  0
LINE
  5
4101
  8
DIM
 62
     0
 10
8.8779772405041193
 20
14.28068574109099
 30
0.0
 11
8.8779772405041193
 21
14.95593574109099
 31
0.0
  0
SOLID
  5
4102
  8
DIM
 62
     0
 10
8.8329772405041194
 20
16.088685741090991
 30
0.0
 11
8.9229772405041192
 21
16.088685741090991
 31
0.0
 12
8.8779772405041193
 22
16.358685741090991
 32
0.0
 13
8.8779772405041193
 23
16.358685741090991
 33
0.0
  0
SOLID
  5
4103
  8
DIM
 62
     0
 10
8.8329772405041194
 20
14.28068574109099
 30
0.0
 11
8.9229772405041192
 21
14.28068574109099
 31
0.0
 12
8.8779772405041193
 22
14.01068574109099
 32
0.0
 13
8.8779772405041193
 23
14.01068574109099
 33
0.0
  0
TEXT
  5
4104
  8
OBJECT
 62
     0
 10
8.5967272405041175
 20
15.090935741090989
 30
0.0
 40
0.1875
  1
2.348
 41
0.75
  0
POINT
  5
4105
  8
DEFPOINTS
 62
     0
 10
6.9386808774590314
 20
16.358685741090991
 30
0.0
  0
POINT
  5
4106
  8
DEFPOINTS
 62
     0
 10
6.9386808774590314
 20
14.01068574109099
 30
0.0
  0
POINT
  5
4107
  8
DEFPOINTS
 62
     0
 10
8.8779772405041193
 20
14.01068574109099
 30
0.0
  0
ENDBLK
  5
40AA
  8
0
  0
BLOCK
  8
0
  2
*U33
 70
     1
 10
0.0
 20
0.0
 30
0.0
  3
*U33
  1

  0
TEXT
  5
4113
  8
OBJECT
 10
3.639145360108059
 20
11.905102394753159
 30
0.0
 40
0.18749999953125
  1
0.216 DIA. BOSS WITH
 41
0.75
  0
TEXT
  5
4114
  8
OBJECT
 10
3.639145360108059
 20
11.59260239553441
 30
0.0
 40
0.18749999953125
  1
0.090 DIA. HOLE x 0.156 DEEP
 41
0.75
  0
TEXT
  5
4115
  8
OBJECT
 10
3.639145360108059
 20
11.280102396315661
 30
0.0
 40
0.18749999953125
  1
(12) PLACES
 41
0.75
  0
ENDBLK
  5
4117
  8
0
  0
BLOCK
  8
0
  2
*U34
 70
     1
 10
0.0
 20
0.0
 30
0.0
  3
*U34
  1

  0
TEXT
  5
4119
  8
OBJECT
 10
8.0218863786998895
 20
20.985306868201612
 30
0.0
 40
0.18749999953125
  1
0.296 DIA. BOSS
 41
0.75
  0
TEXT
  5
411A
  8
OBJECT
 10
8.0218863786998895
 20
20.67280686898286
 30
0.0
 40
0.18749999953125
  1
(8) PLACES
 41
0.75
  0
ENDBLK
  5
411C
  8
0
  0
BLOCK
  8
0
  2
*X35
 70
     1
 10
0.0
 20
0.0
 30
0.0
  3
*X35
  1

  0
LINE
  5
4307
  8
0
 62
     0
 10
13.859569217425859
 20
12.97568574109099
 30
0.0
 11
13.904569217425861
 21
13.02068574109099
 31
0.0
  0
LINE
  5
4308
  8
0
 62
     0
 10
13.71543725492373
 20
12.83155377858886
 30
0.0
 11
13.823937254923729
 21
12.94005377858886
 31
0.0
  0
LINE
  5
4309
  8
0
 62
     0
 10
13.71543725492373
 20
13.09671882153382
 30
0.0
 11
13.835437254923731
 21
13.216718821533821
 31
0.0
  0
LINE
  5
430A
  8
0
 62
     0
 10
13.71543725492373
 20
13.36188386447877
 30
0.0
 11
13.835437254923731
 21
13.48188386447878
 31
0.0
  0
LINE
  5
430B
  8
0
 62
     0
 10
13.71543725492373
 20
13.627048907423729
 30
0.0
 11
13.835437254923731
 21
13.74704890742373
 31
0.0
  0
LINE
  5
430C
  8
0
 62
     0
 10
13.71543725492373
 20
13.89221395036868
 30
0.0
 11
13.835437254923731
 21
14.012213950368681
 31
0.0
  0
LINE
  5
430D
  8
0
 62
     0
 10
13.71543725492373
 20
14.157378993313641
 30
0.0
 11
13.835437254923731
 21
14.27737899331364
 31
0.0
  0
LINE
  5
430E
  8
0
 62
     0
 10
13.71543725492373
 20
14.422544036258589
 30
0.0
 11
13.835437254923731
 21
14.54254403625859
 31
0.0
  0
LINE
  5
430F
  8
0
 62
     0
 10
13.71543725492373
 20
14.68770907920355
 30
0.0
 11
13.835437254923731
 21
14.80770907920355
 31
0.0
  0
LINE
  5
4310
  8
0
 62
     0
 10
13.71543725492373
 20
14.952874122148501
 30
0.0
 11
13.835437254923731
 21
15.0728741221485
 31
0.0
  0
LINE
  5
4311
  8
0
 62
     0
 10
13.71543725492373
 20
15.21803916509346
 30
0.0
 11
13.835437254923731
 21
15.338039165093461
 31
0.0
  0
LINE
  5
4312
  8
0
 62
     0
 10
13.71543725492373
 20
15.48320420803841
 30
0.0
 11
13.835437254923731
 21
15.603204208038409
 31
0.0
  0
LINE
  5
4313
  8
0
 62
     0
 10
13.71543725492373
 20
15.748369250983361
 30
0.0
 11
13.835437254923731
 21
15.86836925098337
 31
0.0
  0
LINE
  5
4314
  8
0
 62
     0
 10
13.71543725492373
 20
16.01353429392832
 30
0.0
 11
13.835437254923731
 21
16.133534293928321
 31
0.0
  0
LINE
  5
4315
  8
0
 62
     0
 10
13.71543725492373
 20
16.278699336873281
 30
0.0
 11
13.835437254923731
 21
16.398699336873278
 31
0.0
  0
LINE
  5
4316
  8
0
 62
     0
 10
13.71543725492373
 20
16.543864379818231
 30
0.0
 11
13.835437254923731
 21
16.663864379818239
 31
0.0
  0
LINE
  5
4317
  8
0
 62
     0
 10
13.71543725492373
 20
16.809029422763189
 30
0.0
 11
13.835437254923731
 21
16.92902942276319
 31
0.0
  0
LINE
  5
4318
  8
0
 62
     0
 10
13.71543725492373
 20
17.074194465708139
 30
0.0
 11
13.835437254923731
 21
17.19419446570814
 31
0.0
  0
LINE
  5
4319
  8
0
 62
     0
 10
13.71543725492373
 20
17.3393595086531
 30
0.0
 11
13.835437254923731
 21
17.459359508653101
 31
0.0
  0
LINE
  5
431A
  8
0
 62
     0
 10
13.71543725492373
 20
17.60452455159805
 30
0.0
 11
13.835437254923731
 21
17.724524551598059
 31
0.0
  0
LINE
  5
431B
  8
0
 62
     0
 10
13.71543725492373
 20
17.869689594543011
 30
0.0
 11
13.835437254923731
 21
17.989689594543009
 31
0.0
  0
LINE
  5
431C
  8
0
 62
     0
 10
13.71543725492373
 20
18.134854637487958
 30
0.0
 11
13.835437254923731
 21
18.25485463748797
 31
0.0
  0
LINE
  5
431D
  8
0
 62
     0
 10
13.71543725492373
 20
18.400019680432919
 30
0.0
 11
13.835437254923731
 21
18.52001968043292
 31
0.0
  0
LINE
  5
431E
  8
0
 62
     0
 10
13.71543725492373
 20
18.66518472337787
 30
0.0
 11
13.835437254923731
 21
18.785184723377871
 31
0.0
  0
LINE
  5
431F
  8
0
 62
     0
 10
13.71543725492373
 20
18.930349766322831
 30
0.0
 11
13.835437254923731
 21
19.050349766322832
 31
0.0
  0
LINE
  5
4320
  8
0
 62
     0
 10
13.715437254923719
 20
19.195514809267792
 30
0.0
 11
13.835437254923731
 21
19.315514809267789
 31
0.0
  0
LINE
  5
4321
  8
0
 62
     0
 10
13.71543725492373
 20
19.460679852212738
 30
0.0
 11
13.835437254923731
 21
19.580679852212739
 31
0.0
  0
LINE
  5
4322
  8
0
 62
     0
 10
13.826278100857021
 20
19.836685741090982
 30
0.0
 11
13.864391767629879
 21
19.874799407863851
 31
0.0
  0
LINE
  5
4323
  8
0
 62
     0
 10
13.715437254923719
 20
19.725844895157689
 30
0.0
 11
13.823937254923729
 21
19.834344895157699
 31
0.0
  0
LINE
  5
4324
  8
0
 62
     0
 10
13.71543725492373
 20
12.919942126088859
 30
0.0
 11
13.835437254923731
 21
13.03994212608886
 31
0.0
  0
LINE
  5
4325
  8
0
 62
     0
 10
13.71543725492373
 20
13.18510716903382
 30
0.0
 11
13.835437254923731
 21
13.305107169033819
 31
0.0
  0
LINE
  5
4326
  8
0
 62
     0
 10
13.71543725492373
 20
13.450272211978771
 30
0.0
 11
13.835437254923731
 21
13.57027221197877
 31
0.0
  0
LINE
  5
4327
  8
0
 62
     0
 10
13.71543725492373
 20
13.71543725492373
 30
0.0
 11
13.835437254923731
 21
13.835437254923731
 31
0.0
  0
LINE
  5
4328
  8
0
 62
     0
 10
13.71543725492373
 20
13.98060229786868
 30
0.0
 11
13.835437254923731
 21
14.10060229786869
 31
0.0
  0
LINE
  5
4329
  8
0
 62
     0
 10
13.71543725492373
 20
14.24576734081363
 30
0.0
 11
13.835437254923731
 21
14.36576734081364
 31
0.0
  0
LINE
  5
432A
  8
0
 62
     0
 10
13.71543725492373
 20
14.51093238375859
 30
0.0
 11
13.835437254923731
 21
14.630932383758591
 31
0.0
  0
LINE
  5
432B
  8
0
 62
     0
 10
13.71543725492373
 20
14.776097426703551
 30
0.0
 11
13.835437254923731
 21
14.89609742670355
 31
0.0
  0
LINE
  5
432C
  8
0
 62
     0
 10
13.71543725492373
 20
15.041262469648499
 30
0.0
 11
13.835437254923731
 21
15.1612624696485
 31
0.0
  0
LINE
  5
432D
  8
0
 62
     0
 10
13.71543725492373
 20
15.30642751259346
 30
0.0
 11
13.835437254923731
 21
15.42642751259346
 31
0.0
  0
LINE
  5
432E
  8
0
 62
     0
 10
13.71543725492373
 20
15.571592555538411
 30
0.0
 11
13.835437254923731
 21
15.69159255553841
 31
0.0
  0
LINE
  5
432F
  8
0
 62
     0
 10
13.71543725492373
 20
15.83675759848337
 30
0.0
 11
13.835437254923731
 21
15.956757598483369
 31
0.0
  0
LINE
  5
4330
  8
0
 62
     0
 10
13.71543725492373
 20
16.10192264142832
 30
0.0
 11
13.835437254923731
 21
16.221922641428328
 31
0.0
  0
LINE
  5
4331
  8
0
 62
     0
 10
13.71543725492373
 20
16.367087684373281
 30
0.0
 11
13.835437254923731
 21
16.487087684373279
 31
0.0
  0
LINE
  5
4332
  8
0
 62
     0
 10
13.71543725492373
 20
16.632252727318232
 30
0.0
 11
13.835437254923731
 21
16.752252727318229
 31
0.0
  0
LINE
  5
4333
  8
0
 62
     0
 10
13.71543725492373
 20
16.897417770263189
 30
0.0
 11
13.835437254923731
 21
17.01741777026319
 31
0.0
  0
LINE
  5
4334
  8
0
 62
     0
 10
13.71543725492373
 20
17.162582813208139
 30
0.0
 11
13.835437254923731
 21
17.282582813208151
 31
0.0
  0
LINE
  5
4335
  8
0
 62
     0
 10
13.71543725492373
 20
17.427747856153101
 30
0.0
 11
13.835437254923731
 21
17.547747856153102
 31
0.0
  0
LINE
  5
4336
  8
0
 62
     0
 10
13.715437254923719
 20
17.692912899098051
 30
0.0
 11
13.835437254923731
 21
17.812912899098059
 31
0.0
  0
LINE
  5
4337
  8
0
 62
     0
 10
13.71543725492373
 20
17.958077942043008
 30
0.0
 11
13.835437254923731
 21
18.078077942043009
 31
0.0
  0
LINE
  5
4338
  8
0
 62
     0
 10
13.71543725492373
 20
18.223242984987969
 30
0.0
 11
13.835437254923731
 21
18.34324298498796
 31
0.0
  0
LINE
  5
4339
  8
0
 62
     0
 10
13.71543725492373
 20
18.48840802793292
 30
0.0
 11
13.835437254923731
 21
18.608408027932921
 31
0.0
  0
LINE
  5
433A
  8
0
 62
     0
 10
13.715437254923719
 20
18.75357307087787
 30
0.0
 11
13.835437254923731
 21
18.873573070877882
 31
0.0
  0
LINE
  5
433B
  8
0
 62
     0
 10
13.715437254923719
 20
19.018738113822831
 30
0.0
 11
13.835437254923731
 21
19.138738113822829
 31
0.0
  0
LINE
  5
433C
  8
0
 62
     0
 10
13.71543725492373
 20
19.283903156767789
 30
0.0
 11
13.835437254923731
 21
19.40390315676779
 31
0.0
  0
LINE
  5
433D
  8
0
 62
     0
 10
13.863054796301981
 20
19.696685741090992
 30
0.0
 11
13.905437254923729
 21
19.73906819971274
 31
0.0
  0
LINE
  5
433E
  8
0
 62
     0
 10
13.715437254923719
 20
19.549068199712739
 30
0.0
 11
13.835437254923731
 21
19.66906819971274
 31
0.0
  0
LINE
  5
433F
  8
0
 62
     0
 10
13.715437254923719
 20
19.814233242657689
 30
0.0
 11
13.802889753357031
 21
19.90168574109099
 31
0.0
  0
ENDBLK
  5
4341
  8
0
  0
BLOCK
  8
0
  2
*X36
 70
     1
 10
0.0
 20
0.0
 30
0.0
  3
*X36
  1

  0
LINE
  5
4343
  8
0
 62
     0
 10
14.98832323219815
 20
19.836685741090989
 30
0.0
 11
14.96622998388084
 21
19.8587789894083
 31
0.0
  0
LINE
  5
4344
  8
0
 62
     0
 10
15.132437254923721
 20
19.692571718365421
 30
0.0
 11
15.02393725492372
 21
19.801071718365421
 31
0.0
  0
LINE
  5
4345
  8
0
 62
     0
 10
15.132437254923721
 20
19.42740667542046
 30
0.0
 11
15.01243725492372
 21
19.547406675420461
 31
0.0
  0
LINE
  5
4346
  8
0
 62
     0
 10
15.132437254923721
 20
19.16224163247551
 30
0.0
 11
15.01243725492372
 21
19.282241632475511
 31
0.0
  0
LINE
  5
4347
  8
0
 62
     0
 10
15.132437254923721
 20
18.897076589530549
 30
0.0
 11
15.01243725492372
 21
19.01707658953055
 31
0.0
  0
LINE
  5
4348
  8
0
 62
     0
 10
15.132437254923721
 20
18.631911546585599
 30
0.0
 11
15.01243725492372
 21
18.751911546585589
 31
0.0
  0
LINE
  5
4349
  8
0
 62
     0
 10
15.132437254923721
 20
18.366746503640648
 30
0.0
 11
15.01243725492372
 21
18.486746503640639
 31
0.0
  0
LINE
  5
434A
  8
0
 62
     0
 10
15.132437254923721
 20
18.10158146069568
 30
0.0
 11
15.01243725492372
 21
18.221581460695681
 31
0.0
  0
LINE
  5
434B
  8
0
 62
     0
 10
15.132437254923721
 20
17.83641641775073
 30
0.0
 11
15.01243725492372
 21
17.956416417750731
 31
0.0
  0
LINE
  5
434C
  8
0
 62
     0
 10
15.132437254923721
 20
17.571251374805779
 30
0.0
 11
15.01243725492372
 21
17.69125137480577
 31
0.0
  0
LINE
  5
434D
  8
0
 62
     0
 10
15.132437254923721
 20
17.306086331860818
 30
0.0
 11
15.01243725492373
 21
17.426086331860819
 31
0.0
  0
LINE
  5
434E
  8
0
 62
     0
 10
15.132437254923721
 20
17.040921288915861
 30
0.0
 11
15.01243725492373
 21
17.160921288915858
 31
0.0
  0
LINE
  5
434F
  8
0
 62
     0
 10
15.132437254923721
 20
16.775756245970911
 30
0.0
 11
15.01243725492373
 21
16.895756245970912
 31
0.0
  0
LINE
  5
4350
  8
0
 62
     0
 10
15.132437254923721
 20
16.51059120302595
 30
0.0
 11
15.01243725492373
 21
16.630591203025951
 31
0.0
  0
LINE
  5
4351
  8
0
 62
     0
 10
15.132437254923721
 20
16.245426160080999
 30
0.0
 11
15.01243725492372
 21
16.365426160081
 31
0.0
  0
LINE
  5
4352
  8
0
 62
     0
 10
15.13243725492373
 20
15.98026111713604
 30
0.0
 11
15.01243725492373
 21
16.100261117136039
 31
0.0
  0
LINE
  5
4353
  8
0
 62
     0
 10
15.13243725492373
 20
15.715096074191081
 30
0.0
 11
15.01243725492373
 21
15.83509607419108
 31
0.0
  0
LINE
  5
4354
  8
0
 62
     0
 10
15.13243725492373
 20
15.44993103124613
 30
0.0
 11
15.01243725492373
 21
15.56993103124613
 31
0.0
  0
LINE
  5
4355
  8
0
 62
     0
 10
15.132437254923721
 20
15.184765988301169
 30
0.0
 11
15.01243725492373
 21
15.30476598830117
 31
0.0
  0
LINE
  5
4356
  8
0
 62
     0
 10
15.13243725492373
 20
14.919600945356221
 30
0.0
 11
15.01243725492373
 21
15.03960094535622
 31
0.0
  0
LINE
  5
4357
  8
0
 62
     0
 10
15.13243725492373
 20
14.65443590241126
 30
0.0
 11
15.01243725492373
 21
14.774435902411261
 31
0.0
  0
LINE
  5
4358
  8
0
 62
     0
 10
15.13243725492373
 20
14.389270859466301
 30
0.0
 11
15.01243725492373
 21
14.50927085946631
 31
0.0
  0
LINE
  5
4359
  8
0
 62
     0
 10
15.13243725492373
 20
14.12410581652135
 30
0.0
 11
15.01243725492373
 21
14.244105816521349
 31
0.0
  0
LINE
  5
435A
  8
0
 62
     0
 10
15.13243725492373
 20
13.858940773576389
 30
0.0
 11
15.01243725492373
 21
13.978940773576401
 31
0.0
  0
LINE
  5
435B
  8
0
 62
     0
 10
15.13243725492373
 20
13.593775730631441
 30
0.0
 11
15.01243725492373
 21
13.71377573063144
 31
0.0
  0
LINE
  5
435C
  8
0
 62
     0
 10
15.13243725492373
 20
13.32861068768648
 30
0.0
 11
15.01243725492373
 21
13.448610687686481
 31
0.0
  0
LINE
  5
435D
  8
0
 62
     0
 10
15.13243725492373
 20
13.06344564474152
 30
0.0
 11
15.01243725492373
 21
13.18344564474153
 31
0.0
  0
LINE
  5
435E
  8
0
 62
     0
 10
14.95503211562931
 20
12.97568574109099
 30
0.0
 11
14.94243725492373
 21
12.98828060179658
 31
0.0
  0
LINE
  5
435F
  8
0
 62
     0
 10
15.11503211562931
 20
12.81568574109099
 30
0.0
 11
15.02393725492373
 21
12.906780601796569
 31
0.0
  0
LINE
  5
4360
  8
0
 62
     0
 10
15.132437254923721
 20
19.869348413810371
 30
0.0
 11
15.100099927643109
 21
19.90168574109099
 31
0.0
  0
LINE
  5
4361
  8
0
 62
     0
 10
15.132437254923721
 20
19.604183370865421
 30
0.0
 11
14.99493488469815
 21
19.741685741090979
 31
0.0
  0
LINE
  5
4362
  8
0
 62
     0
 10
15.132437254923721
 20
19.33901832792046
 30
0.0
 11
15.01243725492372
 21
19.459018327920461
 31
0.0
  0
LINE
  5
4363
  8
0
 62
     0
 10
15.132437254923721
 20
19.073853284975499
 30
0.0
 11
15.01243725492373
 21
19.193853284975511
 31
0.0
  0
LINE
  5
4364
  8
0
 62
     0
 10
15.132437254923721
 20
18.808688242030549
 30
0.0
 11
15.01243725492372
 21
18.92868824203055
 31
0.0
  0
LINE
  5
4365
  8
0
 62
     0
 10
15.132437254923721
 20
18.543523199085591
 30
0.0
 11
15.01243725492372
 21
18.663523199085589
 31
0.0
  0
LINE
  5
4366
  8
0
 62
     0
 10
15.132437254923721
 20
18.278358156140641
 30
0.0
 11
15.01243725492373
 21
18.398358156140642
 31
0.0
  0
LINE
  5
4367
  8
0
 62
     0
 10
15.132437254923721
 20
18.01319311319568
 30
0.0
 11
15.01243725492373
 21
18.133193113195681
 31
0.0
  0
LINE
  5
4368
  8
0
 62
     0
 10
15.132437254923721
 20
17.748028070250729
 30
0.0
 11
15.01243725492373
 21
17.86802807025073
 31
0.0
  0
LINE
  5
4369
  8
0
 62
     0
 10
15.132437254923721
 20
17.482863027305768
 30
0.0
 11
15.01243725492373
 21
17.602863027305769
 31
0.0
  0
LINE
  5
436A
  8
0
 62
     0
 10
15.132437254923721
 20
17.217697984360822
 30
0.0
 11
15.01243725492373
 21
17.337697984360819
 31
0.0
  0
LINE
  5
436B
  8
0
 62
     0
 10
15.132437254923721
 20
16.952532941415861
 30
0.0
 11
15.01243725492373
 21
17.072532941415862
 31
0.0
  0
LINE
  5
436C
  8
0
 62
     0
 10
15.13243725492373
 20
16.6873678984709
 30
0.0
 11
15.01243725492373
 21
16.807367898470901
 31
0.0
  0
LINE
  5
436D
  8
0
 62
     0
 10
15.132437254923721
 20
16.422202855525949
 30
0.0
 11
15.01243725492373
 21
16.54220285552595
 31
0.0
  0
LINE
  5
436E
  8
0
 62
     0
 10
15.13243725492373
 20
16.157037812580992
 30
0.0
 11
15.01243725492373
 21
16.277037812580989
 31
0.0
  0
LINE
  5
436F
  8
0
 62
     0
 10
15.13243725492373
 20
15.89187276963604
 30
0.0
 11
15.01243725492373
 21
16.011872769636039
 31
0.0
  0
LINE
  5
4370
  8
0
 62
     0
 10
15.13243725492373
 20
15.62670772669108
 30
0.0
 11
15.01243725492373
 21
15.74670772669108
 31
0.0
  0
LINE
  5
4371
  8
0
 62
     0
 10
15.13243725492373
 20
15.361542683746119
 30
0.0
 11
15.01243725492373
 21
15.481542683746129
 31
0.0
  0
LINE
  5
4372
  8
0
 62
     0
 10
15.13243725492373
 20
15.096377640801171
 30
0.0
 11
15.01243725492373
 21
15.21637764080117
 31
0.0
  0
LINE
  5
4373
  8
0
 62
     0
 10
15.13243725492373
 20
14.83121259785622
 30
0.0
 11
15.01243725492373
 21
14.95121259785622
 31
0.0
  0
LINE
  5
4374
  8
0
 62
     0
 10
15.13243725492373
 20
14.566047554911259
 30
0.0
 11
15.01243725492373
 21
14.68604755491126
 31
0.0
  0
LINE
  5
4375
  8
0
 62
     0
 10
15.13243725492373
 20
14.3008825119663
 30
0.0
 11
15.01243725492373
 21
14.420882511966299
 31
0.0
  0
LINE
  5
4376
  8
0
 62
     0
 10
15.13243725492373
 20
14.03571746902135
 30
0.0
 11
15.01243725492373
 21
14.155717469021351
 31
0.0
  0
LINE
  5
4377
  8
0
 62
     0
 10
15.13243725492373
 20
13.770552426076391
 30
0.0
 11
15.01243725492373
 21
13.89055242607639
 31
0.0
  0
LINE
  5
4378
  8
0
 62
     0
 10
15.13243725492373
 20
13.50538738313144
 30
0.0
 11
15.01243725492373
 21
13.625387383131439
 31
0.0
  0
LINE
  5
4379
  8
0
 62
     0
 10
15.13243725492373
 20
13.240222340186479
 30
0.0
 11
15.01243725492373
 21
13.36022234018648
 31
0.0
  0
LINE
  5
437A
  8
0
 62
     0
 10
15.13243725492373
 20
12.975057297241531
 30
0.0
 11
15.01243725492373
 21
13.095057297241519
 31
0.0
  0
LINE
  5
437B
  8
0
 62
     0
 10
15.026643768129309
 20
12.81568574109099
 30
0.0
 11
14.96164376812931
 21
12.880685741090989
 31
0.0
  0
ENDBLK
  5
437D
  8
0
  0
ENDSEC
  0
SECTION
  2
ENTITIES
  0
INSERT
  5
8D6
  8
TITLE
  2
HB
 10
0.0
 20
0.0
 30
0.0
 41
1.4999999962499999
 42
1.4999999962499999
 43
1.4999999962499999
  0
DIMENSION
  5
E47
  8
DIM
  2
*D1
 10
7.173293855483915
 20
7.7993719154394361
 30
0.0
 11
4.2457938554839174
 21
7.7993719154394361
 31
0.0
 70
     0
 13
1.3182938554839181
 23
7.3503709423300316
 33
0.0
 14
7.173293855483915
 24
7.3193709423300328
 34
0.0
  0
DIMENSION
  5
E55
  8
DIM
  2
*D2
 10
0.9245392839554683
 20
6.1503709423300332
 30
0.0
 11
0.9245392839554673
 21
6.750370942330032
 31
0.0
 70
     0
  1
H
 13
1.3182938554839181
 23
7.3503709423300316
 33
0.0
 14
1.3182938554839181
 24
6.1503709423300332
 34
0.0
 50
90.0
  0
DIMENSION
  5
E63
  8
DIM
  2
*D3
 10
8.3773084251425853
 20
6.2318709423300334
 30
0.0
 11
8.3773084251425836
 21
6.7503709423300338
 31
0.0
 70
     0
  1
J EXPOSED PANEL
 13
7.084881627882079
 23
7.2688709423300342
 33
0.0
 14
7.084881627882079
 24
6.2318709423300334
 34
0.0
 50
90.0
  0
DIMENSION
  5
E72
  8
DIM
  2
*D4
 10
7.084881627882079
 20
5.7395198739900506
 30
0.0
 11
4.2302938554839207
 21
5.7395198739900506
 31
0.0
 70
     0
  1
<> EXPOSED PANEL
 13
1.375706083085763
 23
6.2318709423300334
 33
0.0
 14
7.084881627882079
 24
6.2318709423300334
 34
0.0
  0
DIMENSION
  5
EE4
  8
DIM
  2
*D5
 10
7.3012938554839231
 20
10.42247301246427
 30
0.0
 11
4.2302938554839233
 21
10.42247301246427
 31
0.0
 70
     0
 13
1.1592938554839229
 23
9.4583252093853698
 33
0.0
 14
7.3012938554839231
 24
9.4583252093853698
 34
0.0
  0
DIMENSION
  5
EF3
  8
DIM
  2
*D6
 10
14.85643725492373
 20
14.295502457235781
 30
0.0
 11
14.423937254923731
 21
14.295502457235781
 31
0.0
 70
     0
  1
E
 13
13.99143725492373
 23
14.118685741090991
 33
0.0
 14
14.85643725492373
 24
14.118685741090991
 34
0.0
  0
DIMENSION
  5
F01
  8
DIM
  2
*D7
 10
13.835437254923731
 20
15.25255985857604
 30
0.0
 11
14.413937254923731
 21
15.25255985857604
 31
0.0
 70
   128
  1
D
 13
15.01243725492373
 23
15.108559858576029
 33
0.0
 14
13.835437254923731
 24
15.108559858576029
 34
0.0
  0
DIMENSION
  5
F23
  8
DIM
  2
*D8
 10
15.132437254923721
 20
15.87235113306372
 30
0.0
 11
14.787437254923701
 21
15.87235113306372
 31
0.0
 70
     0
  1
F
 13
14.44243725492367
 23
16.249685741091
 33
0.0
 14
15.132437254923721
 24
16.250685741091001
 34
0.0
  0
DIMENSION
  5
F3B
  8
DIM
  2
*D9
 10
13.71543725492373
 20
16.77815450796453
 30
0.0
 11
14.0604372549237
 21
16.77815450796453
 31
0.0
 70
     0
  1
G
 13
14.405437254923671
 23
16.467685741091
 33
0.0
 14
13.71543725492373
 24
16.467685741091
 34
0.0
  0
DIMENSION
  5
F53
  8
DIM
  2
*D10
 10
13.71543725492373
 20
17.3657674050446
 30
0.0
 11
12.501374754923731
 21
17.3657674050446
 31
0.0
 70
     0
  1
<> TYP.
 13
13.835437254923731
 23
17.221767405044599
 33
0.0
 14
13.71543725492373
 24
17.221767405044599
 34
0.0
  0
DIMENSION
  5
F75
  8
DIM
  2
*D11
 10
13.835437254923731
 20
19.0504880895861
 30
0.0
 11
12.60965600492373
 21
19.0504880895861
 31
0.0
 70
     0
  1
<> TYP.
 13
13.99143725492373
 23
18.814685741091001
 33
0.0
 14
13.835437254923731
 24
18.814685741091001
 34
0.0
  0
DIMENSION
  5
F84
  8
DIM
  2
*D12
 10
2.174680877459032
 20
20.47618574109099
 30
0.0
 11
4.5566808774590308
 21
20.47618574109099
 31
0.0
 70
     0
 13
6.9386808774590314
 23
18.70668574109099
 33
0.0
 14
2.174680877459032
 24
18.70668574109099
 34
0.0
  0
DIMENSION
  5
F92
  8
DIM
  2
*D13
 10
1.4856808774590311
 20
20.47618574109099
 30
0.0
 11
1.830180877459032
 21
20.47618574109099
 31
0.0
 70
   128
 13
2.174680877459032
 23
18.70668574109099
 33
0.0
 14
1.4856808774590311
 24
19.90168574109099
 34
0.0
  0
DIMENSION
  5
1008
  8
DIM
  2
*D14
 10
8.1360989776915797
 20
12.81568574109099
 30
0.0
 11
8.1360989776915762
 21
13.05168574109099
 31
0.0
 70
     0
 13
7.2691808774590321
 23
13.287685741090989
 33
0.0
 14
7.6276808774590306
 24
12.81568574109099
 34
0.0
 50
90.0
  0
DIMENSION
  5
1016
  8
DIM
  2
*D15
 10
1.6806808774590101
 20
15.372007020051459
 30
0.0
 11
4.5566808774590211
 21
15.372007020051459
 31
0.0
 70
     0
 13
7.4326808774590312
 23
14.73568574109099
 33
0.0
 14
1.6806808774590101
 24
14.73568574109099
 34
0.0
  0
DIMENSION
  5
1024
  8
DIM
  2
*D16
 10
6.6645588324717506
 20
14.577685741090979
 30
0.0
 11
5.6970588324717477
 21
14.037685741090989
 31
0.0
 70
     0
  1
<> TYP.
 13
7.4326808774590338
 23
14.67568574109098
 33
0.0
 14
7.4326808774590338
 24
14.577685741090979
 34
0.0
 50
270.0
  0
DIMENSION
  5
1033
  8
DIM
  2
*D17
 10
1.6256808774590319
 20
14.34346601258364
 30
0.0
 11
2.9181808774590321
 21
14.34346601258364
 31
0.0
 70
   128
  1
<> TYP.
 13
1.6806808774590321
 23
14.517685741090981
 33
0.0
 14
1.6256808774590319
 24
14.51768574109099
 34
0.0
 50
180.0
  0
DIMENSION
  5
1041
  8
DIM
  2
*D18
 10
7.48768087745903
 20
16.075003381104821
 30
0.0
 11
6.2736183774590311
 21
16.075003381104821
 31
0.0
 70
     0
  1
<> TYP.
 13
7.6276808774590306
 23
16.138003381104831
 33
0.0
 14
7.48768087745903
 24
16.138003381104831
 34
0.0
  0
DIMENSION
  5
1050
  8
DIM
  2
*D19
 10
7.6276808774590306
 20
12.180187793244
 30
0.0
 11
8.5722121274590322
 21
12.180187793244
 31
0.0
 70
     0
 13
7.2691808774590321
 23
13.287685741090989
 33
0.0
 14
7.6276808774590306
 24
12.81568574109099
 34
0.0
 50
180.0
  0
DIMENSION
  5
1138
  8
DIM
  2
*D20
 10
9.8869356629744196
 20
12.81568574109099
 30
0.0
 11
9.8869356629744178
 21
16.358685741090991
 31
0.0
 70
     0
 13
10.357045576227801
 23
19.90168574109099
 33
0.0
 14
10.35704557622781
 24
12.81568574109099
 34
0.0
 50
90.0
  0
DIMENSION
  5
1147
  8
DIM
  2
*D21
 10
3.952942509944982
 20
19.696685741090992
 30
0.0
 11
3.952942509944978
 21
16.358685741090991
 31
0.0
 70
     0
 13
4.0159425099449813
 23
13.02068574109099
 33
0.0
 14
4.0159425099449813
 24
19.696685741090992
 34
0.0
 50
90.0
  0
DIMENSION
  5
120A
  8
DIM
  2
*D22
 10
7.4876808774590371
 20
15.803289156876369
 30
0.0
 11
4.5566808774590353
 21
15.803289156876369
 31
0.0
 70
     0
 13
1.6256808774590319
 23
15.86628915687637
 33
0.0
 14
7.4876808774590371
 24
15.86628915687637
 34
0.0
  0
DIMENSION
  5
1278
  8
DIM
  2
*D23
 10
10.357045576227801
 20
20.708685741090989
 30
0.0
 11
10.70154557622781
 21
20.708685741090989
 31
0.0
 70
     0
  1
C
 13
11.04604557622782
 23
19.90168574109099
 33
0.0
 14
10.357045576227801
 24
19.90168574109099
 34
0.0
  0
DIMENSION
  5
1286
  8
DIM
  2
*D24
 10
11.774045576227801
 20
21.12718574109099
 30
0.0
 11
11.0655455762278
 21
21.12718574109099
 31
0.0
 70
     0
  1
A
 13
10.357045576227801
 23
19.90168574109099
 33
0.0
 14
11.774045576227801
 24
19.90168574109099
 34
0.0
  0
DIMENSION
  5
1294
  8
DIM
  2
*D25
 10
11.774045576227801
 20
20.290185741091001
 30
0.0
 11
11.42954557622781
 21
20.290185741091001
 31
0.0
 70
     0
  1
B
 13
11.08504557622781
 23
19.90168574109099
 33
0.0
 14
11.774045576227801
 24
19.90168574109099
 34
0.0
  0
LINE
  5
130C
  8
TITLE
 10
0.0929999997674964
 20
0.4054999989862516
 30
0.0
 11
15.8069999604825
 21
0.4054999989862516
 31
0.0
  0
LINE
  5
130D
  8
TITLE
 10
0.0929999997674964
 20
1.030499997423751
 30
0.0
 11
15.8069999604825
 21
1.030499997423751
 31
0.0
  0
LINE
  5
130E
  8
TITLE
 10
0.0929999997674964
 20
0.7179999982050015
 30
0.0
 11
15.8069999604825
 21
0.7179999982050015
 31
0.0
  0
LINE
  5
1310
  8
TITLE
 10
0.0929999997674966
 20
1.6554999958612511
 30
0.0
 11
15.8069999604825
 21
1.6554999958612511
 31
0.0
  0
TEXT
  5
149D
  8
TEXT
 10
2.7239188554839209
 20
6.8203462509720101
 30
0.0
 40
0.234
  1
PANEL - 0.090 THICK
 41
0.75
 72
     4
 11
4.2302938554839207
 21
6.9373462509720101
 31
0.0
  0
POLYLINE
  8
0
  5
437E
  66
     1
 10
0.000000
 20
0.000000
 30
0.000000
  70
     8
  0
VERTEX
  8
0
  5
437F
 10
2.23318
 20
13.9199
 30
0.000000
  70
    32
  0
VERTEX
  8
0
  5
4380
 10
3.23415
 20
11.9989
 30
0.000000
  70
    32
  0
VERTEX
  8
0
  5
4381
 10
3.50415
 20
11.9989
 30
0.000000
  70
    32
  0
SEQEND
  8
0
  5
4382
  0
INSERT
  5
14A1
  8
OBJECT
  2
*U33
 10
0.0
 20
0.0
 30
0.0
  0
TEXT
  5
14A6
  8
TEXT
 10
5.1158210089772531
 20
20.022706312122409
 30
0.0
 40
0.234
  1
A
  7
SANSSERIF
 72
     4
 11
5.2228703916933021
 21
20.13970631212241
 31
0.0
  0
TEXT
  5
14AE
  8
TEXT
 10
5.1158210089772531
 20
12.460665170059571
 30
0.0
 40
0.234
  1
A
  7
SANSSERIF
 72
     4
 11
5.2228703916933021
 21
12.57766517005957
 31
0.0
  0
POLYLINE
  8
0
  5
4383
  66
     1
 10
0.000000
 20
0.000000
 30
0.000000
  70
     8
  0
VERTEX
  8
0
  5
4384
 10
7.30703
 20
19.5728
 30
0.000000
  70
    32
  0
VERTEX
  8
0
  5
4385
 10
7.61689
 20
21.0681
 30
0.000000
  70
    32
  0
VERTEX
  8
0
  5
4386
 10
7.88689
 20
21.0681
 30
0.000000
  70
    32
  0
SEQEND
  8
0
  5
4387
  0
INSERT
  5
14ED
  8
OBJECT
  2
*U34
 10
0.0
 20
0.0
 30
0.0
  0
TEXT
  5
14EF
  8
TEXT
 10
13.29225458761621
 20
12.323680506948641
 30
0.0
 40
0.234
  1
%%uSECTION "A-A"
  7
SANSSERIF
 72
     4
 11
14.43176076045572
 21
12.43891507484987
 31
0.0
  0
TEXT
  5
156B
  8
TEXT
 10
3.7649999905875031
 20
22.966499942583749
 30
0.0
 40
0.233999999415
  1
PLASTICASE
 41
0.75
 72
     4
 11
4.5839999885400031
 21
23.083499942291251
 31
0.0
  0
TEXT
  5
156C
  8
TEXT
 10
10.19137497452156
 20
22.985999942534999
 30
0.0
 40
0.233999999415
  1
PC-11463, PC-11464 & PC-11465
 41
0.75
 72
     4
 11
12.48749996878125
 21
23.083499942291251
 31
0.0
  0
LINE
  5
1570
  8
TITLE
 10
1.6724999958187461
 20
1.6554999958612511
 30
0.0
 11
1.672499995818745
 21
0.0929999997675014
 31
0.0
  0
LINE
  5
1571
  8
TITLE
 10
3.2429999918924959
 20
1.6554999958612511
 30
0.0
 11
3.2429999918924941
 21
0.0929999997675014
 31
0.0
  0
LINE
  5
1572
  8
TITLE
 10
4.813499987966245
 20
1.6554999958612511
 30
0.0
 11
4.813499987966245
 21
0.0929999997675014
 31
0.0
  0
LINE
  5
1573
  8
TITLE
 10
6.3839999840399972
 20
1.6554999958612511
 30
0.0
 11
6.3839999840399964
 21
0.0929999997675014
 31
0.0
  0
LINE
  5
1574
  8
TITLE
 10
7.9544999801137459
 20
1.6554999958612511
 30
0.0
 11
7.954499980113745
 21
0.0929999997675014
 31
0.0
  0
LINE
  5
1575
  8
TITLE
 10
9.5249999761874964
 20
1.6554999958612511
 30
0.0
 11
9.5249999761874946
 21
0.0929999997675014
 31
0.0
  0
LINE
  5
1576
  8
TITLE
 10
11.095499972261241
 20
1.6554999958612511
 30
0.0
 11
11.095499972261241
 21
0.0929999997675014
 31
0.0
  0
LINE
  5
1577
  8
TITLE
 10
12.66599996833499
 20
1.6554999958612511
 30
0.0
 11
12.66599996833499
 21
0.0929999997675014
 31
0.0
  0
LINE
  5
1578
  8
TITLE
 10
14.23649996440874
 20
1.6554999958612511
 30
0.0
 11
14.23649996440874
 21
0.0929999997675014
 31
0.0
  0
TEXT
  5
157D
  8
TEXT
 10
0.3905624990235899
 20
1.249249996876876
 30
0.0
 40
0.18749999953125
  1
PART NO.
 41
0.75
 72
     4
 11
0.8827499977931212
 21
1.342999996642501
 31
0.0
  0
TEXT
  5
157E
  8
TEXT
 10
2.4108749939728078
 20
1.249249996876876
 30
0.0
 40
0.18749999953125
  1
A
 41
0.75
 72
     4
 11
2.4577499938556202
 21
1.342999996642501
 31
0.0
  0
TEXT
  5
1581
  8
TEXT
 10
0.3905624990235903
 20
0.7804999980487515
 30
0.0
 40
0.18749999953125
  1
PC-11463
 41
0.75
 72
     4
 11
0.8827499977931214
 21
0.8742499978143765
 31
0.0
  0
TEXT
  5
1582
  8
TEXT
 10
2.2233749944415582
 20
0.7804999980487516
 30
0.0
 40
0.18749999953125
  1
1.417
 41
0.75
 72
     4
 11
2.4577499938556202
 21
0.8742499978143765
 31
0.0
  0
TEXT
  5
1583
  8
TEXT
 10
0.5416249999999976
 20
0.5828333333333343
 30
0.0
 40
0.125
  1
 
 41
0.75
 72
     4
 11
0.5884999999999976
 21
0.5828333333333343
 31
0.0
  0
TEXT
  5
1584
  8
TEXT
 10
0.3905624990235903
 20
0.4679999988300016
 30
0.0
 40
0.18749999953125
  1
PC-11464
 41
0.75
 72
     4
 11
0.8827499977931214
 21
0.5617499985956266
 31
0.0
  0
TEXT
  5
1585
  8
TEXT
 10
0.3905624990235903
 20
0.1554999996112516
 30
0.0
 40
0.18749999953125
  1
PC-11465
 41
0.75
 72
     4
 11
0.8827499977931214
 21
0.2492499993768765
 31
0.0
  0
TEXT
  5
1587
  8
TEXT
 10
1.6031887038098629
 20
0.5871066726435004
 30
0.0
 40
0.125
  1
 
 41
0.75
 72
     4
 11
1.6500637038098629
 21
0.5871066726435004
 31
0.0
  0
TEXT
  5
1588
  8
TEXT
 10
2.2172830501715861
 20
0.4744100077792256
 30
0.0
 40
0.18749999953125
  1
1.732
 41
0.75
 72
     4
 11
2.475095549527055
 21
0.5681600075448506
 31
0.0
  0
TEXT
  5
1589
  8
TEXT
 10
2.205564300200884
 20
0.1619100085604756
 30
0.0
 40
0.18749999953125
  1
2.047
 41
0.75
 72
     4
 11
2.475095549527055
 21
0.2556600083261006
 31
0.0
  0
TEXT
  5
158B
  8
TEXT
 10
3.7587187406031979
 20
0.7804999980487515
 30
0.0
 40
0.18749999953125
  1
0.689
 41
0.75
 72
     4
 11
4.0282499899293702
 21
0.8742499978143765
 31
0.0
  0
TEXT
  5
158C
  8
TEXT
 10
3.9813749900465569
 20
1.249249996876876
 30
0.0
 40
0.18749999953125
  1
B
 41
0.75
 72
     4
 11
4.0282499899293702
 21
1.342999996642501
 31
0.0
  0
TEXT
  5
158D
  8
TEXT
 10
5.3292187366769479
 20
0.7804999980487515
 30
0.0
 40
0.18749999953125
  1
0.689
 41
0.75
 72
     4
 11
5.5987499860031198
 21
0.8742499978143765
 31
0.0
  0
TEXT
  5
158E
  8
TEXT
 10
5.5518749861203069
 20
1.249249996876876
 30
0.0
 40
0.18749999953125
  1
C
 41
0.75
 72
     4
 11
5.5987499860031198
 21
1.342999996642501
 31
0.0
  0
TEXT
  5
158F
  8
TEXT
 10
6.9348749826628078
 20
0.7804999980487516
 30
0.0
 40
0.18749999953125
  1
1.137
 41
0.75
 72
     4
 11
7.1692499820768711
 21
0.8742499978143765
 31
0.0
  0
TEXT
  5
1590
  8
TEXT
 10
7.1223749821940583
 20
1.249249996876876
 30
0.0
 40
0.18749999953125
  1
D
 41
0.75
 72
     4
 11
7.1692499820768711
 21
1.342999996642501
 31
0.0
  0
TEXT
  5
1591
  8
TEXT
 10
8.4702187288244488
 20
0.7804999980487515
 30
0.0
 40
0.18749999953125
  1
0.865
 41
0.75
 72
     4
 11
8.7397499781506198
 21
0.8742499978143765
 31
0.0
  0
TEXT
  5
1592
  8
TEXT
 10
8.6928749782678079
 20
1.249249996876876
 30
0.0
 40
0.18749999953125
  1
E
 41
0.75
 72
     4
 11
8.7397499781506198
 21
1.342999996642501
 31
0.0
  0
TEXT
  5
1593
  8
TEXT
 10
10.04071872489819
 20
0.7804999980487515
 30
0.0
 40
0.18749999953125
  1
0.689
 41
0.75
 72
     4
 11
10.310249974224369
 21
0.8742499978143765
 31
0.0
  0
TEXT
  5
1594
  8
TEXT
 10
10.26337497434155
 20
1.249249996876876
 30
0.0
 40
0.18749999953125
  1
F
 41
0.75
 72
     4
 11
10.310249974224369
 21
1.342999996642501
 31
0.0
  0
TEXT
  5
1595
  8
TEXT
 10
11.61121872097195
 20
0.7804999980487515
 30
0.0
 40
0.18749999953125
  1
0.689
 41
0.75
 72
     4
 11
11.880749970298121
 21
0.8742499978143765
 31
0.0
  0
TEXT
  5
1596
  8
TEXT
 10
11.833874970415311
 20
1.249249996876876
 30
0.0
 40
0.18749999953125
  1
G
 41
0.75
 72
     4
 11
11.880749970298121
 21
1.342999996642501
 31
0.0
  0
TEXT
  5
1597
  8
TEXT
 10
13.21687496695781
 20
0.7804999980487515
 30
0.0
 40
0.18749999953125
  1
1.200
 41
0.75
 72
     4
 11
13.45124996637187
 21
0.8742499978143765
 31
0.0
  0
TEXT
  5
1598
  8
TEXT
 10
13.40437496648906
 20
1.249249996876876
 30
0.0
 40
0.18749999953125
  1
H
 41
0.75
 72
     4
 11
13.45124996637187
 21
1.342999996642501
 31
0.0
  0
TEXT
  5
1599
  8
TEXT
 10
14.77565621306085
 20
0.7804999980487515
 30
0.0
 40
0.18749999953125
  1
1.037
 41
0.75
 72
     4
 11
15.02174996244562
 21
0.8742499978143765
 31
0.0
  0
TEXT
  5
159A
  8
TEXT
 10
14.974874962562801
 20
1.249249996876876
 30
0.0
 40
0.18749999953125
  1
J
 41
0.75
 72
     4
 11
15.02174996244562
 21
1.342999996642501
 31
0.0
  0
TEXT
  5
15AB
  8
TEXT
 10
3.7587187406031979
 20
0.4679999988300017
 30
0.0
 40
0.18749999953125
  1
0.689
 41
0.75
 72
     4
 11
4.0282499899293702
 21
0.5617499985956267
 31
0.0
  0
TEXT
  5
15AC
  8
TEXT
 10
10.04071872489819
 20
0.4679999988300017
 30
0.0
 40
0.18749999953125
  1
0.689
 41
0.75
 72
     4
 11
10.310249974224369
 21
0.5617499985956267
 31
0.0
  0
TEXT
  5
15AD
  8
TEXT
 10
2.6386249999999958
 20
0.3745000000000011
 30
0.0
 40
0.125
  1
 
 41
0.75
 72
     4
 11
2.6854999999999958
 21
0.3745000000000011
 31
0.0
  0
TEXT
  5
15AE
  8
TEXT
 10
3.7938749905153069
 20
0.1554999996112516
 30
0.0
 40
0.18749999953125
  1
1.004
 41
0.75
 72
     4
 11
4.0282499899293702
 21
0.2492499993768766
 31
0.0
  0
TEXT
  5
15AF
  8
TEXT
 10
3.6856249999999959
 20
0.5828333333333343
 30
0.0
 40
0.125
  1
 
 41
0.75
 72
     4
 11
3.7324999999999959
 21
0.5828333333333343
 31
0.0
  0
TEXT
  5
15B0
  8
TEXT
 10
5.3643749865890582
 20
0.4679999988300016
 30
0.0
 40
0.18749999953125
  1
1.004
 41
0.75
 72
     4
 11
5.5987499860031198
 21
0.5617499985956266
 31
0.0
  0
TEXT
  5
15B1
  8
TEXT
 10
5.3643749865890582
 20
0.1554999996112516
 30
0.0
 40
0.18749999953125
  1
1.004
 41
0.75
 72
     4
 11
5.5987499860031198
 21
0.2492499993768765
 31
0.0
  0
TEXT
  5
15B2
  8
TEXT
 10
4.7326249999999961
 20
0.5828333333333343
 30
0.0
 40
0.125
  1
 
 41
0.75
 72
     4
 11
4.7794999999999961
 21
0.5828333333333343
 31
0.0
  0
TEXT
  5
15B3
  8
TEXT
 10
6.9114374827214018
 20
0.4679999988300016
 30
0.0
 40
0.18749999953125
  1
1.452
 41
0.75
 72
     4
 11
7.1692499820768711
 21
0.5617499985956266
 31
0.0
  0
TEXT
  5
15B4
  8
TEXT
 10
6.9114374827214018
 20
0.1554999996112516
 30
0.0
 40
0.18749999953125
  1
1.767
 41
0.75
 72
     4
 11
7.1692499820768711
 21
0.2492499993768765
 31
0.0
  0
TEXT
  5
15B5
  8
TEXT
 10
5.7796249999999958
 20
0.5828333333333343
 30
0.0
 40
0.125
  1
 
 41
0.75
 72
     4
 11
5.8264999999999958
 21
0.5828333333333343
 31
0.0
  0
TEXT
  5
15B6
  8
TEXT
 10
8.5170937287072608
 20
0.4679999988300016
 30
0.0
 40
0.18749999953125
  1
1.180
 41
0.75
 72
     4
 11
8.7397499781506198
 21
0.5617499985956266
 31
0.0
  0
TEXT
  5
15B7
  8
TEXT
 10
8.4819374787951514
 20
0.1554999996112516
 30
0.0
 40
0.18749999953125
  1
1.495
 41
0.75
 72
     4
 11
8.7397499781506198
 21
0.2492499993768765
 31
0.0
  0
TEXT
  5
15B8
  8
TEXT
 10
6.8266249999999964
 20
0.3745000000000011
 30
0.0
 40
0.125
  1
 
 41
0.75
 72
     4
 11
6.8734999999999964
 21
0.3745000000000011
 31
0.0
  0
TEXT
  5
15B9
  8
TEXT
 10
10.099312474751709
 20
0.1554999996112516
 30
0.0
 40
0.18749999953125
  1
1.010
 41
0.75
 72
     4
 11
10.310249974224369
 21
0.2492499993768766
 31
0.0
  0
TEXT
  5
15BB
  8
TEXT
 10
7.8736249999999961
 20
0.5828333333333343
 30
0.0
 40
0.125
  1
 
 41
0.75
 72
     4
 11
7.9204999999999961
 21
0.5828333333333343
 31
0.0
  0
TEXT
  5
15BC
  8
TEXT
 10
11.646374970884059
 20
0.4679999988300016
 30
0.0
 40
0.18749999953125
  1
1.004
 41
0.75
 72
     4
 11
11.880749970298121
 21
0.5617499985956266
 31
0.0
  0
TEXT
  5
15BD
  8
TEXT
 10
11.646374970884059
 20
0.1554999996112516
 30
0.0
 40
0.18749999953125
  1
1.004
 41
0.75
 72
     4
 11
11.880749970298121
 21
0.2492499993768765
 31
0.0
  0
TEXT
  5
15BE
  8
TEXT
 10
8.9206249999999976
 20
0.5828333333333343
 30
0.0
 40
0.125
  1
 
 41
0.75
 72
     4
 11
8.9674999999999976
 21
0.5828333333333343
 31
0.0
  0
TEXT
  5
15BF
  8
TEXT
 10
13.21687496695781
 20
0.4679999988300017
 30
0.0
 40
0.18749999953125
  1
1.515
 41
0.75
 72
     4
 11
13.45124996637187
 21
0.5617499985956266
 31
0.0
  0
TEXT
  5
15C0
  8
TEXT
 10
13.205156216987101
 20
0.1554999996112516
 30
0.0
 40
0.18749999953125
  1
1.830
 41
0.75
 72
     4
 11
13.45124996637187
 21
0.2492499993768765
 31
0.0
  0
TEXT
  5
15C1
  8
TEXT
 10
9.9676249999999964
 20
0.5828333333333343
 30
0.0
 40
0.125
  1
 
 41
0.75
 72
     4
 11
10.014499999999989
 21
0.5828333333333343
 31
0.0
  0
TEXT
  5
15C2
  8
TEXT
 10
14.76393746309015
 20
0.4679999988300016
 30
0.0
 40
0.18749999953125
  1
1.352
 41
0.75
 72
     4
 11
15.02174996244562
 21
0.5617499985956266
 31
0.0
  0
TEXT
  5
15C3
  8
TEXT
 10
14.76393746309015
 20
0.1554999996112516
 30
0.0
 40
0.18749999953125
  1
1.667
 41
0.75
 72
     4
 11
15.02174996244562
 21
0.2492499993768765
 31
0.0
  0
TEXT
  5
15C5
  8
TEXT
 10
9.6767635971930943
 20
10.42017893980247
 30
0.0
 40
0.18749999953125
  1
MATERIAL: ABS THERMOPLASTIC (UL 94-HB RATED)
 41
0.75
  0
TEXT
  5
15C6
  8
TEXT
 10
6.1476215661518401
 20
5.987191056242084
 30
0.0
 40
0.125
  1
 
 41
0.75
  0
TEXT
  5
15C7
  8
TEXT
 10
9.6767635971930943
 20
9.7951789413649735
 30
0.0
 40
0.18749999953125
  1
FINISH: TOP & BOTTOM
 41
0.75
  0
TEXT
  5
15C8
  8
TEXT
 10
10.64695166059254
 20
9.4826789421462223
 30
0.0
 40
0.18749999953125
  1
PANELS
 41
0.75
  0
TEXT
  5
15C9
  8
TEXT
 10
13.37271820564578
 20
9.7951789413649735
 30
0.0
 40
0.18749999953125
  1
LIGHT GRAY
 41
0.75
  0
TEXT
  5
15CA
  8
TEXT
 10
13.37271820564578
 20
9.4826789421462223
 30
0.0
 40
0.18749999953125
  1
DARK GRAY
 41
0.75
  0
LINE
  5
15CB
  8
TEXT
 10
13.24566978071565
 20
9.7951789413649735
 30
0.0
 11
12.3519367074841
 21
9.7951789413649735
 31
0.0
  0
LINE
  5
15CD
  8
TEXT
 10
13.24566978071565
 20
9.4826789421462223
 30
0.0
 11
11.56654628922977
 21
9.4826789421462223
 31
0.0
  0
TEXT
  5
15D5
  8
TEXT
 10
6.1476215661518401
 20
5.778857722908751
 30
0.0
 40
0.125
  1
 
 41
0.75
  0
TEXT
  5
15D6
  8
TEXT
 10
6.1476215661518401
 20
5.570524389575418
 30
0.0
 40
0.125
  1
 
 41
0.75
  0
TEXT
  5
15D7
  8
TEXT
 10
6.1476215661518401
 20
5.3621910562420849
 30
0.0
 40
0.125
  1
 
 41
0.75
  0
TEXT
  5
15D8
  8
TEXT
 10
9.6767635971930943
 20
8.8576789437087236
 30
0.0
 40
0.18749999953125
  1
FOR PC-11463 & PC-11464
 41
0.75
  0
TEXT
  5
15D9
  8
TEXT
 10
9.8932816342342811
 20
8.5451789444899742
 30
0.0
 40
0.18749999953125
  1
FOUR (4) M3 x 1.000 LG SCREWS SUPPLIED
 41
0.75
  0
TEXT
  5
15DA
  8
TEXT
 10
9.8932816342342811
 20
8.2326789452712248
 30
0.0
 40
0.18749999953125
  1
FOR ASSEMBLING BOTTOM TO TOP.
 41
0.75
  0
TEXT
  5
15DC
  8
TEXT
 10
9.8932816342342811
 20
7.295178947614974
 30
0.0
 40
0.18749999953125
  1
FOUR (4) M3 x 1.218 LG SCREWS SUPPLIED
 41
0.75
  0
TEXT
  5
15DD
  8
TEXT
 10
9.8932816342342811
 20
6.9826789483962237
 30
0.0
 40
0.18749999953125
  1
FOR ASSEMBLING BOTTOM TO TOP.
 41
0.75
  0
TEXT
  5
15DE
  8
TEXT
 10
9.6767635971930943
 20
7.6076789468337251
 30
0.0
 40
0.18749999953125
  1
FOR PC-11465
 41
0.75
  0
TEXT
  5
15DF
  8
TEXT
 10
2.801451972156888
 20
3.0763348760015718
 30
0.0
 40
0.156
  1
 
 41
0.75
 72
     4
 11
2.859951972156888
 21
3.0763348760015718
 31
0.0
  0
TEXT
  5
15E0
  8
TEXT
 10
2.4167938554839208
 20
6.4463956336880583
 30
0.0
 40
0.234
  1
(TEXTURED ON ONE SIDE)
 41
0.75
 72
     4
 11
4.2302938554839207
 21
6.5633956336880583
 31
0.0
  0
TEXT
  5
15E2
  8
TEXT
 10
6.1476215661518401
 20
3.9038577229087541
 30
0.0
 40
0.125
  1
 
 41
0.75
  0
TEXT
  5
15E3
  8
TEXT
 10
6.1476215661518401
 20
3.6955243895754211
 30
0.0
 40
0.125
  1
 
 41
0.75
  0
TEXT
  5
15E4
  8
TEXT
 10
9.6767635971930943
 20
6.3576789499587241
 30
0.0
 40
0.18749999953125
  1
FOUR (4) RUBBER STICK-ON FEET SUPPLIED.
 41
0.75
  0
TEXT
  5
15E5
  8
TEXT
 10
6.1476215661518401
 20
3.2788577229087541
 30
0.0
 40
0.125
  1
 
 41
0.75
  0
TEXT
  5
15E6
  8
TEXT
 10
9.6767635971930943
 20
5.7326789515212271
 30
0.0
 40
0.18749999953125
  1
MOUNTING BOSSES USE EITHER M2.5 METRIC
 41
0.75
  0
TEXT
  5
15E7
  8
TEXT
 10
9.8932816342342811
 20
5.420178952302475
 30
0.0
 40
0.18749999953125
  1
OR #4 STD. SHEET METAL SCREWS x 3/16 LG.
 41
0.75
  0
TEXT
  5
15E8
  8
TEXT
 10
9.8932816342342811
 20
5.1076789530837239
 30
0.0
 40
0.18749999953125
  1
(NOT SUPPLIED)
 41
0.75
  0
TEXT
  5
15E9
  8
TEXT
 10
6.1476215661518401
 20
2.4455243895754202
 30
0.0
 40
0.125
  1
 
 41
0.75
  0
TEXT
  5
15EA
  8
TEXT
 10
9.6767635971930943
 20
4.4826789546462216
 30
0.0
 40
0.18749999953125
  1
NOTE: ALL DIMENSIONS HAVE %%p0.015 TOLERANCE
 41
0.75
  0
TEXT
  5
15EB
  8
TEXT
 10
10.42624897110591
 20
4.170178955427474
 30
0.0
 40
0.18749999953125
  1
UNLESS OTHERWISE SPECIFIED.
 41
0.75
  0
LINE
  5
1715
  8
CENTER
 10
7.3126808774590373
 20
14.626685741090981
 30
0.0
 11
7.7276808774590364
 21
14.626685741090981
 31
0.0
  0
DIMENSION
  5
1718
  8
DIM
  2
*D26
 10
9.3346218033836266
 20
12.81568574109099
 30
0.0
 11
9.3346218033836248
 21
14.587185741090989
 31
0.0
 70
     0
 13
4.6466808774590334
 23
16.358685741090991
 33
0.0
 14
7.6276808774590306
 24
12.81568574109099
 34
0.0
 50
90.0
  0
DIMENSION
  5
1752
  8
DIM
  2
*D27
 10
8.3854753327702891
 20
14.626685741090981
 30
0.0
 11
8.3854753327702891
 21
15.492685741090989
 31
0.0
 70
     0
 13
4.6466808774590334
 23
16.358685741090991
 33
0.0
 14
7.7276808774590364
 24
14.626685741090981
 34
0.0
 50
90.0
  0
LINE
  5
2887
  8
OBJECT
 10
1.179293855483923
 20
9.458325209385368
 30
0.0
 11
1.179293855483923
 21
9.4193252093853701
 31
0.0
  0
LINE
  5
2888
  8
OBJECT
 10
1.3757060830857659
 20
9.9573252093853704
 30
0.0
 11
1.3186605230924859
 21
10.01743868674181
 31
0.0
  0
LINE
  5
2889
  8
CENTER
 10
4.1402938554839253
 20
9.4388252093853708
 30
0.0
 11
4.3202938554839241
 21
9.4388252093853708
 31
0.0
  0
LINE
  5
288A
  8
CENTER
 10
4.2302938554839207
 20
9.3488252093853692
 30
0.0
 11
4.2302938554839207
 21
9.5288252093853707
 31
0.0
  0
LINE
  5
28BC
  8
OBJECT
 10
2.076680877459022
 20
16.886185741090991
 30
0.0
 11
2.076680877459022
 21
17.006185741090992
 31
0.0
  0
LINE
  5
28BD
  8
OBJECT
 10
1.502680877459035
 20
16.886185741090991
 30
0.0
 11
1.502680877459035
 21
17.006185741090992
 31
0.0
  0
LINE
  5
28BE
  8
OBJECT
 10
2.076680877459022
 20
16.886185741090991
 30
0.0
 11
1.4856808774590351
 21
16.886185741090991
 31
0.0
  0
LINE
  5
28BF
  8
OBJECT
 10
2.076680877459022
 20
16.651185741090991
 30
0.0
 11
1.4856808774590391
 21
16.651185741090991
 31
0.0
  0
LINE
  5
28C0
  8
OBJECT
 10
2.076680877459022
 20
16.771185741090989
 30
0.0
 11
1.4856808774590351
 21
16.771185741090989
 31
0.0
  0
LINE
  5
28C7
  8
OBJECT
 10
1.502680877459035
 20
16.651185741090991
 30
0.0
 11
1.502680877459035
 21
16.771185741090989
 31
0.0
  0
LINE
  5
28CA
  8
OBJECT
 10
2.0766808774590251
 20
16.651185741090991
 30
0.0
 11
2.076680877459022
 21
16.771185741090989
 31
0.0
  0
LINE
  5
28CB
  8
OBJECT
 10
2.076680877459022
 20
17.591185741090989
 30
0.0
 11
1.4856808774590351
 21
17.591185741090989
 31
0.0
  0
LINE
  5
28CC
  8
OBJECT
 10
2.076680877459018
 20
17.71118574109099
 30
0.0
 11
1.4856808774590351
 21
17.71118574109099
 31
0.0
  0
LINE
  5
28CD
  8
OBJECT
 10
2.076680877459022
 20
17.356185741090989
 30
0.0
 11
1.4856808774590351
 21
17.356185741090989
 31
0.0
  0
LINE
  5
28CE
  8
OBJECT
 10
2.076680877459022
 20
17.47618574109099
 30
0.0
 11
1.4856808774590351
 21
17.47618574109099
 31
0.0
  0
LINE
  5
28CF
  8
OBJECT
 10
2.076680877459022
 20
17.12118574109099
 30
0.0
 11
1.4856808774590351
 21
17.12118574109099
 31
0.0
  0
LINE
  5
28D0
  8
OBJECT
 10
2.076680877459022
 20
17.241185741090991
 30
0.0
 11
1.4856808774590351
 21
17.241185741090991
 31
0.0
  0
LINE
  5
28D1
  8
OBJECT
 10
2.076680877459022
 20
17.006185741090992
 30
0.0
 11
1.4856808774590351
 21
17.006185741090992
 31
0.0
  0
LINE
  5
28D2
  8
OBJECT
 10
1.502680877459035
 20
17.12118574109099
 30
0.0
 11
1.502680877459035
 21
17.241185741090991
 31
0.0
  0
LINE
  5
28D3
  8
OBJECT
 10
1.502680877459035
 20
17.356185741090989
 30
0.0
 11
1.502680877459035
 21
17.47618574109099
 31
0.0
  0
LINE
  5
28D4
  8
OBJECT
 10
1.502680877459035
 20
17.591185741090989
 30
0.0
 11
1.502680877459035
 21
17.71118574109099
 31
0.0
  0
LINE
  5
28D5
  8
OBJECT
 10
2.076680877459022
 20
17.12118574109099
 30
0.0
 11
2.076680877459022
 21
17.241185741090991
 31
0.0
  0
LINE
  5
28D6
  8
OBJECT
 10
2.076680877459022
 20
17.356185741090989
 30
0.0
 11
2.076680877459022
 21
17.47618574109099
 31
0.0
  0
LINE
  5
28D7
  8
OBJECT
 10
2.076680877459022
 20
17.591185741090989
 30
0.0
 11
2.076680877459018
 21
17.71118574109099
 31
0.0
  0
LINE
  5
28D8
  8
OBJECT
 10
2.076680877459018
 20
19.611185741090988
 30
0.0
 11
2.076680877459018
 21
19.236185741090988
 31
0.0
  0
LINE
  5
28D9
  8
OBJECT
 10
1.502680877459031
 20
19.611185741090988
 30
0.0
 11
1.502680877459031
 21
19.236185741090988
 31
0.0
  0
LINE
  5
28DA
  8
OBJECT
 10
2.076680877459018
 20
19.236185741090988
 30
0.0
 11
1.4856808774590311
 21
19.236185741090988
 31
0.0
  0
LINE
  5
28DB
  8
OBJECT
 10
2.076680877459018
 20
18.296185741090991
 30
0.0
 11
1.4856808774590311
 21
18.296185741090991
 31
0.0
  0
LINE
  5
28DC
  8
OBJECT
 10
2.076680877459018
 20
18.416185741090992
 30
0.0
 11
1.4856808774590311
 21
18.416185741090992
 31
0.0
  0
LINE
  5
28DD
  8
OBJECT
 10
2.076680877459018
 20
18.061185741090991
 30
0.0
 11
1.4856808774590311
 21
18.061185741090991
 31
0.0
  0
LINE
  5
28DE
  8
OBJECT
 10
2.076680877459018
 20
18.181185741090989
 30
0.0
 11
1.4856808774590311
 21
18.181185741090989
 31
0.0
  0
LINE
  5
28DF
  8
OBJECT
 10
2.076680877459018
 20
17.826185741090988
 30
0.0
 11
1.4856808774590351
 21
17.826185741090988
 31
0.0
  0
LINE
  5
28E0
  8
OBJECT
 10
2.076680877459018
 20
17.946185741090989
 30
0.0
 11
1.4856808774590351
 21
17.946185741090989
 31
0.0
  0
LINE
  5
28E1
  8
OBJECT
 10
1.502680877459035
 20
18.061185741090991
 30
0.0
 11
1.502680877459035
 21
18.181185741090989
 31
0.0
  0
LINE
  5
28E2
  8
OBJECT
 10
1.502680877459035
 20
17.826185741090988
 30
0.0
 11
1.502680877459035
 21
17.946185741090989
 31
0.0
  0
LINE
  5
28E3
  8
OBJECT
 10
1.502680877459035
 20
18.296185741090991
 30
0.0
 11
1.502680877459035
 21
18.416185741090992
 31
0.0
  0
LINE
  5
28E4
  8
OBJECT
 10
2.076680877459018
 20
18.061185741090991
 30
0.0
 11
2.076680877459018
 21
18.181185741090989
 31
0.0
  0
LINE
  5
28E5
  8
OBJECT
 10
2.076680877459022
 20
17.826185741090988
 30
0.0
 11
2.076680877459018
 21
17.946185741090989
 31
0.0
  0
LINE
  5
28E6
  8
OBJECT
 10
2.076680877459018
 20
18.296185741090991
 30
0.0
 11
2.076680877459018
 21
18.416185741090992
 31
0.0
  0
LINE
  5
28E7
  8
OBJECT
 10
2.076680877459018
 20
19.611185741090988
 30
0.0
 11
1.4856808774590311
 21
19.611185741090988
 31
0.0
  0
LINE
  5
28E8
  8
OBJECT
 10
2.076680877459018
 20
19.611185741090988
 30
0.0
 11
1.4856808774590311
 21
19.611185741090988
 31
0.0
  0
POLYLINE
  5
29D8
  8
HIDDEN
 66
     1
 10
0.0
 20
0.0
 30
0.0
  0
VERTEX
  5
411D
  8
HIDDEN
 10
1.2974146336116339
 20
9.4583252093853698
 30
0.0
  0
VERTEX
  5
411E
  8
HIDDEN
 10
1.2928551568140101
 20
9.5453252093853713
 30
0.0
  0
VERTEX
  5
411F
  8
HIDDEN
 10
1.2488221854703769
 20
9.5453252093853695
 30
0.0
  0
VERTEX
  5
4120
  8
HIDDEN
 10
1.2488221854703769
 20
9.4583252093853698
 30
0.0
  0
SEQEND
  5
4121
  8
HIDDEN
  0
POLYLINE
  5
29D9
  8
HIDDEN
 66
     1
 10
0.0
 20
0.0
 30
0.0
  0
VERTEX
  5
4122
  8
HIDDEN
 10
1.239293855483921
 20
9.4583252093853698
 30
0.0
  0
VERTEX
  5
4123
  8
HIDDEN
 10
1.239293855483921
 20
9.5483252093853785
 30
0.0
  0
VERTEX
  5
4124
  8
HIDDEN
 10
1.304175237139148
 20
9.5483252093853785
 30
0.0
  0
SEQEND
  5
4125
  8
HIDDEN
  0
POLYLINE
  5
29DA
  8
HIDDEN
 66
     1
 10
0.0
 20
0.0
 30
0.0
  0
VERTEX
  5
4126
  8
HIDDEN
 10
1.383669658802386
 20
10.027325209385371
 30
0.0
  0
VERTEX
  5
4127
  8
HIDDEN
 10
1.354321302403882
 20
9.4673252093853684
 30
0.0
  0
VERTEX
  5
4128
  8
HIDDEN
 10
1.29995765393718
 20
9.4673252093853684
 30
0.0
  0
SEQEND
  5
4129
  8
HIDDEN
  0
POLYLINE
  5
29DB
  8
HIDDEN
 66
     1
 10
0.0
 20
0.0
 30
0.0
  0
VERTEX
  5
412A
  8
HIDDEN
 10
1.29995765393718
 20
9.4103252093853698
 30
0.0
  0
VERTEX
  5
412B
  8
HIDDEN
 10
1.354321302403882
 20
9.4103252093853698
 30
0.0
  0
VERTEX
  5
412C
  8
HIDDEN
 10
1.383669658802386
 20
8.850325209385371
 30
0.0
  0
SEQEND
  5
412D
  8
HIDDEN
  0
POLYLINE
  5
29DC
  8
HIDDEN
 66
     1
 10
0.0
 20
0.0
 30
0.0
  0
VERTEX
  5
412E
  8
HIDDEN
 10
1.7402938554839229
 20
8.850325209385371
 30
0.0
  0
VERTEX
  5
412F
  8
HIDDEN
 10
1.7402938554839229
 20
9.0063252093853716
 30
0.0
  0
VERTEX
  5
4130
  8
HIDDEN
 10
1.956293855483924
 20
9.0063252093853716
 30
0.0
  0
VERTEX
  5
4131
  8
HIDDEN
 10
1.956293855483924
 20
8.850325209385371
 30
0.0
  0
SEQEND
  5
4132
  8
HIDDEN
  0
LINE
  5
29DD
  8
HIDDEN
 10
1.8032938554839211
 20
9.0063252093853716
 30
0.0
 11
1.8032938554839211
 21
8.850325209385371
 31
0.0
  0
LINE
  5
29DE
  8
HIDDEN
 10
1.8932938554839249
 20
9.0063252093853716
 30
0.0
 11
1.8932938554839249
 21
8.850325209385371
 31
0.0
  0
POLYLINE
  5
29DF
  8
HIDDEN
 66
     1
 10
0.0
 20
0.0
 30
0.0
  0
VERTEX
  5
4133
  8
HIDDEN
 10
6.5042938554839216
 20
8.850325209385371
 30
0.0
  0
VERTEX
  5
4134
  8
HIDDEN
 10
6.5042938554839216
 20
9.0063252093853716
 30
0.0
  0
VERTEX
  5
4135
  8
HIDDEN
 10
6.7202938554839227
 20
9.0063252093853716
 30
0.0
  0
VERTEX
  5
4136
  8
HIDDEN
 10
6.7202938554839227
 20
8.850325209385371
 30
0.0
  0
SEQEND
  5
4137
  8
HIDDEN
  0
LINE
  5
29E0
  8
HIDDEN
 10
6.567293855483924
 20
9.0063252093853716
 30
0.0
 11
6.567293855483924
 21
8.850325209385371
 31
0.0
  0
LINE
  5
29E1
  8
HIDDEN
 10
6.6572938554839212
 20
9.0063252093853716
 30
0.0
 11
6.6572938554839212
 21
8.850325209385371
 31
0.0
  0
POLYLINE
  5
29E2
  8
HIDDEN
 66
     1
 10
0.0
 20
0.0
 30
0.0
  0
VERTEX
  5
4138
  8
HIDDEN
 10
1.7402938554839229
 20
10.02732520938536
 30
0.0
  0
VERTEX
  5
4139
  8
HIDDEN
 10
1.7402938554839229
 20
9.8713252093853683
 30
0.0
  0
VERTEX
  5
413A
  8
HIDDEN
 10
1.956293855483924
 20
9.8713252093853683
 30
0.0
  0
VERTEX
  5
413B
  8
HIDDEN
 10
1.956293855483924
 20
10.02732520938536
 30
0.0
  0
SEQEND
  5
413C
  8
HIDDEN
  0
LINE
  5
29E3
  8
HIDDEN
 10
1.8032938554839211
 20
9.8713252093853683
 30
0.0
 11
1.8032938554839211
 21
10.02732520938536
 31
0.0
  0
LINE
  5
29E4
  8
HIDDEN
 10
1.8932938554839249
 20
9.8713252093853683
 30
0.0
 11
1.8932938554839249
 21
10.02732520938536
 31
0.0
  0
POLYLINE
  5
29E5
  8
HIDDEN
 66
     1
 10
0.0
 20
0.0
 30
0.0
  0
VERTEX
  5
413D
  8
HIDDEN
 10
6.5042938554839216
 20
10.02732520938536
 30
0.0
  0
VERTEX
  5
413E
  8
HIDDEN
 10
6.5042938554839216
 20
9.8713252093853683
 30
0.0
  0
VERTEX
  5
413F
  8
HIDDEN
 10
6.7202938554839227
 20
9.8713252093853683
 30
0.0
  0
VERTEX
  5
4140
  8
HIDDEN
 10
6.7202938554839227
 20
10.02732520938536
 30
0.0
  0
SEQEND
  5
4141
  8
HIDDEN
  0
LINE
  5
29E6
  8
HIDDEN
 10
6.567293855483924
 20
9.8713252093853683
 30
0.0
 11
6.567293855483924
 21
10.02732520938536
 31
0.0
  0
LINE
  5
29E7
  8
HIDDEN
 10
6.6572938554839212
 20
9.8713252093853683
 30
0.0
 11
6.6572938554839212
 21
10.02732520938536
 31
0.0
  0
LINE
  5
29E8
  8
HIDDEN
 10
1.582793855483924
 20
8.9203252093853695
 30
0.0
 11
1.582793855483924
 21
9.4353252093853701
 31
0.0
  0
LINE
  5
29E9
  8
HIDDEN
 10
1.452793855483921
 20
8.9203252093853695
 30
0.0
 11
1.452793855483921
 21
9.4353252093853701
 31
0.0
  0
POLYLINE
  5
29EA
  8
HIDDEN
 66
     1
 10
0.0
 20
0.0
 30
0.0
  0
VERTEX
  5
4142
  8
HIDDEN
 10
1.3697938554839231
 20
8.8503252093853693
 30
0.0
  0
VERTEX
  5
4143
  8
HIDDEN
 10
1.3697938554839231
 20
9.4353252093853701
 30
0.0
  0
VERTEX
  5
4144
  8
HIDDEN
 10
1.665793855483922
 20
9.4353252093853701
 30
0.0
  0
VERTEX
  5
4145
  8
HIDDEN
 10
1.665793855483922
 20
8.8503252093853693
 30
0.0
  0
SEQEND
  5
4146
  8
HIDDEN
  0
POLYLINE
  5
29EB
  8
HIDDEN
 66
     1
 10
0.0
 20
0.0
 30
0.0
  0
VERTEX
  5
4147
  8
HIDDEN
 10
1.6327938554839241
 20
8.73032520938537
 30
0.0
  0
VERTEX
  5
4148
  8
HIDDEN
 10
1.6327938554839241
 20
8.9203252093853695
 30
0.0
  0
VERTEX
  5
4149
  8
HIDDEN
 10
1.4027938554839241
 20
8.9203252093853695
 30
0.0
  0
VERTEX
  5
414A
  8
HIDDEN
 10
1.4027938554839241
 20
8.73032520938537
 30
0.0
  0
SEQEND
  5
414B
  8
HIDDEN
  0
POLYLINE
  5
29EC
  8
HIDDEN
 66
     1
 10
0.0
 20
0.0
 30
0.0
  0
VERTEX
  5
414C
  8
HIDDEN
 10
1.3697938554839231
 20
10.02732520938536
 30
0.0
  0
VERTEX
  5
414D
  8
HIDDEN
 10
1.3697938554839231
 20
9.4423252093853698
 30
0.0
  0
VERTEX
  5
414E
  8
HIDDEN
 10
1.665793855483922
 20
9.4423252093853698
 30
0.0
  0
VERTEX
  5
414F
  8
HIDDEN
 10
1.665793855483922
 20
10.02732520938536
 30
0.0
  0
SEQEND
  5
4150
  8
HIDDEN
  0
POLYLINE
  5
29ED
  8
HIDDEN
 66
     1
 10
0.0
 20
0.0
 30
0.0
  0
VERTEX
  5
4151
  8
HIDDEN
 10
1.562793855483924
 20
9.4423252093853698
 30
0.0
  0
VERTEX
  5
4152
  8
HIDDEN
 10
1.562793855483924
 20
10.08732520938536
 30
0.0
  0
VERTEX
  5
4153
  8
HIDDEN
 10
1.4727938554839239
 20
10.08732520938536
 30
0.0
  0
VERTEX
  5
4154
  8
HIDDEN
 10
1.4727938554839239
 20
9.4423252093853698
 30
0.0
  0
SEQEND
  5
4155
  8
HIDDEN
  0
POLYLINE
  5
29EE
  8
HIDDEN
 66
     1
 10
0.0
 20
0.0
 30
0.0
  0
VERTEX
  5
4156
  8
HIDDEN
 10
7.0577938554839221
 20
8.73032520938537
 30
0.0
  0
VERTEX
  5
4157
  8
HIDDEN
 10
7.0577938554839221
 20
8.9203252093853695
 30
0.0
  0
VERTEX
  5
4158
  8
HIDDEN
 10
6.8277938554839208
 20
8.9203252093853695
 30
0.0
  0
VERTEX
  5
4159
  8
HIDDEN
 10
6.8277938554839208
 20
8.73032520938537
 30
0.0
  0
SEQEND
  5
415A
  8
HIDDEN
  0
POLYLINE
  5
29EF
  8
HIDDEN
 66
     1
 10
0.0
 20
0.0
 30
0.0
  0
VERTEX
  5
415B
  8
HIDDEN
 10
6.794793855483924
 20
8.8503252093853693
 30
0.0
  0
VERTEX
  5
415C
  8
HIDDEN
 10
6.794793855483924
 20
9.4353252093853701
 30
0.0
  0
VERTEX
  5
415D
  8
HIDDEN
 10
7.0907938554839234
 20
9.4353252093853701
 30
0.0
  0
VERTEX
  5
415E
  8
HIDDEN
 10
7.0907938554839234
 20
8.8503252093853693
 30
0.0
  0
SEQEND
  5
415F
  8
HIDDEN
  0
LINE
  5
29F0
  8
HIDDEN
 10
7.0077938554839214
 20
8.9203252093853695
 30
0.0
 11
7.0077938554839214
 21
9.4353252093853701
 31
0.0
  0
POLYLINE
  5
29F1
  8
HIDDEN
 66
     1
 10
0.0
 20
0.0
 30
0.0
  0
VERTEX
  5
4160
  8
HIDDEN
 10
6.794793855483924
 20
10.02732520938536
 30
0.0
  0
VERTEX
  5
4161
  8
HIDDEN
 10
6.794793855483924
 20
9.4423252093853698
 30
0.0
  0
VERTEX
  5
4162
  8
HIDDEN
 10
7.0907938554839234
 20
9.4423252093853698
 30
0.0
  0
VERTEX
  5
4163
  8
HIDDEN
 10
7.0907938554839234
 20
10.02732520938536
 30
0.0
  0
SEQEND
  5
4164
  8
HIDDEN
  0
POLYLINE
  5
29F2
  8
HIDDEN
 66
     1
 10
0.0
 20
0.0
 30
0.0
  0
VERTEX
  5
4165
  8
HIDDEN
 10
6.987793855483921
 20
9.4423252093853698
 30
0.0
  0
VERTEX
  5
4166
  8
HIDDEN
 10
6.987793855483921
 20
10.08732520938536
 30
0.0
  0
VERTEX
  5
4167
  8
HIDDEN
 10
6.8977938554839211
 20
10.08732520938536
 30
0.0
  0
VERTEX
  5
4168
  8
HIDDEN
 10
6.8977938554839211
 20
9.4423252093853698
 30
0.0
  0
SEQEND
  5
4169
  8
HIDDEN
  0
LINE
  5
29F3
  8
HIDDEN
 10
6.8777938554839224
 20
8.9203252093853695
 30
0.0
 11
6.8777938554839224
 21
9.4353252093853701
 31
0.0
  0
POLYLINE
  5
29F4
  8
OBJECT
 66
     1
 10
0.0
 20
0.0
 30
0.0
 70
     1
  0
VERTEX
  5
416A
  8
OBJECT
 10
1.3182938554839181
 20
6.1503709423300332
 30
0.0
  0
VERTEX
  5
416B
  8
OBJECT
 10
7.1422938554839241
 20
6.1503709423300332
 30
0.0
 42
0.4142135623730951
  0
VERTEX
  5
416C
  8
OBJECT
 10
7.1732938554839221
 20
6.1813709423300329
 30
0.0
  0
VERTEX
  5
416D
  8
OBJECT
 10
7.173293855483915
 20
7.3193709423300328
 30
0.0
 42
0.4142135623730946
  0
VERTEX
  5
416E
  8
OBJECT
 10
7.142293855483917
 20
7.3503709423300316
 30
0.0
  0
VERTEX
  5
416F
  8
OBJECT
 10
1.3182938554839181
 20
7.3503709423300316
 30
0.0
 42
0.4142135623730951
  0
VERTEX
  5
4170
  8
OBJECT
 10
1.2872938554839199
 20
7.3193709423300328
 30
0.0
  0
VERTEX
  5
4171
  8
OBJECT
 10
1.2872938554839199
 20
6.1813709423300329
 30
0.0
 42
0.4142135623730953
  0
SEQEND
  5
4172
  8
OBJECT
  0
LINE
  5
29F7
  8
OBJECT
 10
1.3757060830857659
 20
8.9203252093853695
 30
0.0
 11
7.084881627882079
 21
8.9203252093853695
 31
0.0
  0
LINE
  5
29F8
  8
OBJECT
 10
7.1171464231503867
 20
8.73032520938537
 30
0.0
 11
1.3434412878174591
 21
8.73032520938537
 31
0.0
  0
LINE
  5
29F9
  8
OBJECT
 10
7.1171464231503867
 20
10.147325209385359
 30
0.0
 11
1.3434412878174591
 21
10.14732520938537
 31
0.0
  0
ARC
  5
29FA
  8
OBJECT
 10
1.3434412878174591
 20
9.9913252093853711
 30
0.0
 40
0.1559999999999997
 50
90.0
 51
177.0
  0
LINE
  5
29FB
  8
OBJECT
 10
1.187655080395746
 20
9.9994896185592701
 30
0.0
 11
1.1592938554839229
 21
9.4583252093853698
 31
0.0
  0
LINE
  5
29FC
  8
OBJECT
 10
1.1592938554839229
 20
9.4583252093853698
 30
0.0
 11
1.3495546012235271
 21
9.4583252093853698
 31
0.0
  0
LINE
  5
29FD
  8
OBJECT
 10
1.3495546012235271
 20
9.4583252093853698
 30
0.0
 11
1.3757060830857659
 21
9.9573252093853704
 31
0.0
  0
LINE
  5
29FE
  8
OBJECT
 10
1.3757060830857659
 20
9.9573252093853704
 30
0.0
 11
7.084881627882079
 21
9.9573252093853704
 31
0.0
  0
LINE
  5
29FF
  8
OBJECT
 10
7.1171464231503867
 20
10.02732520938536
 30
0.0
 11
1.3434412878174591
 21
10.02732520938536
 31
0.0
  0
ARC
  5
2A00
  8
OBJECT
 10
1.3434412878174591
 20
9.9913252093853693
 30
0.0
 40
0.036
 50
90.000000000000185
 51
177.00000000000031
  0
LINE
  5
2A01
  8
OBJECT
 10
1.3074906245662949
 20
9.9932093038101151
 30
0.0
 11
1.2794585370036731
 21
9.4583252093853698
 31
0.0
  0
LINE
  5
2A02
  8
OBJECT
 10
7.1171464231503867
 20
8.8503252093853693
 30
0.0
 11
1.3434412878174591
 21
8.8503252093853693
 31
0.0
  0
LINE
  5
2A03
  8
OBJECT
 10
1.187655080395746
 20
8.8781608002114698
 30
0.0
 11
1.1592938554839229
 21
9.4193252093853701
 31
0.0
  0
ARC
  5
2A04
  8
OBJECT
 10
1.3434412878174591
 20
8.8863252093853689
 30
0.0
 40
0.1559999999999997
 50
182.99999999999989
 51
270.0
  0
LINE
  5
2A05
  8
OBJECT
 10
1.1592938554839229
 20
9.4193252093853701
 30
0.0
 11
1.3495546012235271
 21
9.4193252093853701
 31
0.0
  0
LINE
  5
2A07
  8
OBJECT
 10
1.3074906245662949
 20
8.8844411149606248
 30
0.0
 11
1.2774146336116341
 21
9.4583252093853698
 31
0.0
  0
ARC
  5
2A08
  8
OBJECT
 10
1.3434412878174591
 20
8.8863252093853706
 30
0.0
 40
0.036
 50
182.9999999999996
 51
270.0
  0
LINE
  5
2A09
  8
OBJECT
 10
1.3757060830857659
 20
8.9203252093853695
 30
0.0
 11
1.3186605230924859
 21
8.8602117320289278
 31
0.0
  0
LINE
  5
2A0A
  8
OBJECT
 10
1.3495546012235271
 20
9.4193252093853701
 30
0.0
 11
1.3757060830857659
 21
8.9203252093853695
 31
0.0
  0
LINE
  5
2A0B
  8
OBJECT
 10
1.3495546012235271
 20
9.4193252093853701
 30
0.0
 11
1.3495546012235271
 21
9.4583252093853698
 31
0.0
  0
LINE
  5
2A0C
  8
OBJECT
 10
7.1530970864015506
 20
8.8844411149606248
 30
0.0
 11
7.1831730773562121
 21
9.4583252093853698
 31
0.0
  0
LINE
  5
2A0D
  8
OBJECT
 10
7.1110331097443193
 20
9.4193252093853701
 30
0.0
 11
7.084881627882079
 21
8.9203252093853695
 31
0.0
  0
LINE
  5
2A0E
  8
OBJECT
 10
7.2729326305721003
 20
8.8781608002114698
 30
0.0
 11
7.3012938554839231
 21
9.4193252093853701
 31
0.0
  0
ARC
  5
2A0F
  8
OBJECT
 10
7.1171464231503867
 20
8.8863252093853689
 30
0.0
 40
0.1559999999999997
 50
270.0
 51
357.0
  0
ARC
  5
2A10
  8
OBJECT
 10
7.1171464231503867
 20
8.8863252093853706
 30
0.0
 40
0.036
 50
270.0
 51
356.9999999999996
  0
LINE
  5
2A11
  8
OBJECT
 10
7.084881627882079
 20
8.9203252093853695
 30
0.0
 11
7.1419271878753596
 21
8.8602117320289278
 31
0.0
  0
LINE
  5
2A12
  8
OBJECT
 10
7.1530970864015506
 20
9.9932093038101151
 30
0.0
 11
7.1811291739641732
 21
9.4583252093853698
 31
0.0
  0
LINE
  5
2A13
  8
OBJECT
 10
7.1110331097443193
 20
9.4583252093853698
 30
0.0
 11
7.084881627882079
 21
9.9573252093853704
 31
0.0
  0
LINE
  5
2A14
  8
OBJECT
 10
7.2729326305721003
 20
9.9994896185592701
 30
0.0
 11
7.3012938554839231
 21
9.4583252093853698
 31
0.0
  0
LINE
  5
2A15
  8
OBJECT
 10
7.3012938554839231
 20
9.4193252093853701
 30
0.0
 11
7.1110331097443193
 21
9.4193252093853701
 31
0.0
  0
LINE
  5
2A16
  8
OBJECT
 10
7.3012938554839231
 20
9.4583252093853698
 30
0.0
 11
7.1110331097443193
 21
9.4583252093853698
 31
0.0
  0
LINE
  5
2A17
  8
OBJECT
 10
7.2812938554839226
 20
9.458325209385368
 30
0.0
 11
7.2812938554839226
 21
9.4193252093853701
 31
0.0
  0
LINE
  5
2A18
  8
OBJECT
 10
7.1110331097443193
 20
9.4193252093853701
 30
0.0
 11
7.1110331097443193
 21
9.4583252093853698
 31
0.0
  0
ARC
  5
2A19
  8
OBJECT
 10
7.1171464231503867
 20
9.9913252093853693
 30
0.0
 40
0.036
 50
2.9999999999996891
 51
90.0
  0
ARC
  5
2A1A
  8
OBJECT
 10
7.1171464231503867
 20
9.9913252093853711
 30
0.0
 40
0.1559999999999997
 50
2.9999999999999929
 51
90.0
  0
LINE
  5
2A1B
  8
OBJECT
 10
7.084881627882079
 20
9.9573252093853704
 30
0.0
 11
7.1419271878753596
 21
10.01743868674181
 31
0.0
  0
POLYLINE
  5
2A1C
  8
BEND
 66
     1
 10
0.0
 20
0.0
 30
0.0
 70
     1
  0
VERTEX
  5
4173
  8
BEND
 10
1.375706083085763
 20
7.2688709423300342
 30
0.0
  0
VERTEX
  5
4174
  8
BEND
 10
1.3495546012235231
 20
6.7698709423300309
 30
0.0
  0
VERTEX
  5
4175
  8
BEND
 10
1.3495546012235231
 20
6.730870942330033
 30
0.0
  0
VERTEX
  5
4176
  8
BEND
 10
1.375706083085763
 20
6.2318709423300334
 30
0.0
  0
VERTEX
  5
4177
  8
BEND
 10
7.084881627882079
 20
6.2318709423300334
 30
0.0
  0
VERTEX
  5
4178
  8
BEND
 10
7.1110331097443149
 20
6.730870942330033
 30
0.0
  0
VERTEX
  5
4179
  8
BEND
 10
7.1110331097443149
 20
6.7698709423300309
 30
0.0
  0
VERTEX
  5
417A
  8
BEND
 10
7.084881627882079
 20
7.2688709423300342
 30
0.0
  0
SEQEND
  5
417B
  8
BEND
  0
LINE
  5
2A1D
  8
HIDDEN
 10
7.48768087745903
 20
19.836685741090989
 30
0.0
 11
1.6256808774590319
 21
19.836685741090989
 31
0.0
  0
LINE
  5
2A1E
  8
HIDDEN
 10
7.5476808774590287
 20
19.696685741090992
 30
0.0
 11
1.5656808774590301
 21
19.696685741090992
 31
0.0
  0
LINE
  5
2A1F
  8
HIDDEN
 10
7.48768087745903
 20
19.74168574109099
 30
0.0
 11
1.6256808774590319
 21
19.74168574109099
 31
0.0
  0
POLYLINE
  5
2A20
  8
OBJECT
 66
     1
 10
0.0
 20
0.0
 30
0.0
 70
     1
  0
VERTEX
  5
417C
  8
OBJECT
 10
1.4856808774590311
 20
12.81568574109099
 30
0.0
  0
VERTEX
  5
417D
  8
OBJECT
 10
7.6276808774590306
 20
12.81568574109099
 30
0.0
  0
VERTEX
  5
417E
  8
OBJECT
 10
7.6276808774590306
 20
19.90168574109099
 30
0.0
  0
VERTEX
  5
417F
  8
OBJECT
 10
1.4856808774590311
 20
19.90168574109099
 30
0.0
  0
SEQEND
  5
4180
  8
OBJECT
  0
LINE
  5
2A21
  8
OBJECT
 10
7.5476808774590332
 20
13.02068574109099
 30
0.0
 11
1.5656808774590301
 21
13.02068574109099
 31
0.0
  0
LINE
  5
2A22
  8
OBJECT
 10
7.48768087745903
 20
12.97568574109099
 30
0.0
 11
1.6256808774590319
 21
12.97568574109099
 31
0.0
  0
LINE
  5
2A23
  8
OBJECT
 10
7.48768087745903
 20
12.880685741090989
 30
0.0
 11
1.6256808774590319
 21
12.880685741090989
 31
0.0
  0
LINE
  5
2A24
  8
CENTER
 10
4.4666808774590328
 20
16.358685741090991
 30
0.0
 11
4.6466808774590334
 21
16.358685741090991
 31
0.0
  0
LINE
  5
2A25
  8
CENTER
 10
4.5566808774590291
 20
16.268685741090991
 30
0.0
 11
4.5566808774590291
 21
16.448685741090991
 31
0.0
  0
POLYLINE
  5
2A26
  8
HIDDEN
 66
     1
 10
0.0
 20
0.0
 30
0.0
  0
VERTEX
  5
4181
  8
HIDDEN
 10
1.6256808774590319
 20
19.676685741090989
 30
0.0
  0
VERTEX
  5
4182
  8
HIDDEN
 10
1.5752092074454851
 20
19.676685741090989
 30
0.0
  0
VERTEX
  5
4183
  8
HIDDEN
 10
1.5752092074454851
 20
16.59124019339583
 30
0.0
  0
SEQEND
  5
4184
  8
HIDDEN
  0
LINE
  5
2A27
  8
HIDDEN
 10
1.5656808774590301
 20
19.696685741090992
 30
0.0
 11
1.5656808774590301
 21
16.591531474087699
 31
0.0
  0
LINE
  5
2A28
  8
HIDDEN
 10
1.6256808774590319
 20
19.836685741090989
 30
0.0
 11
1.6256808774590319
 21
16.590103081855499
 31
0.0
  0
CIRCLE
  5
2A29
  8
OBJECT
 10
1.8441808774590309
 20
13.287685741090989
 30
0.0
 40
0.045
  0
CIRCLE
  5
2A2A
  8
OBJECT
 10
1.8441808774590309
 20
13.287685741090989
 30
0.0
 40
0.148
  0
LINE
  5
2A2B
  8
OBJECT
 10
1.675941623198635
 20
12.880685741090989
 30
0.0
 11
1.605845558978781
 21
12.81568574109099
 31
0.0
  0
LINE
  5
2A2C
  8
OBJECT
 10
1.675941623198635
 20
12.97568574109099
 30
0.0
 11
1.675941623198635
 21
13.02068574109099
 31
0.0
  0
CIRCLE
  5
2A2D
  8
HIDDEN
 10
1.8441808774590309
 20
19.429685741090989
 30
0.0
 40
0.148
  0
POLYLINE
  5
2A2E
  8
OBJECT
 66
     1
 10
0.0
 20
0.0
 30
0.0
  0
VERTEX
  5
4185
  8
OBJECT
 10
1.6256808774590319
 20
16.249685741090978
 30
0.0
  0
VERTEX
  5
4186
  8
OBJECT
 10
1.6806808774590321
 20
16.249685741090978
 30
0.0
  0
VERTEX
  5
4187
  8
OBJECT
 10
1.6806808774590321
 20
16.309685741090991
 30
0.0
  0
VERTEX
  5
4188
  8
OBJECT
 10
1.6256808774590319
 20
16.309685741090991
 30
0.0
  0
SEQEND
  5
4189
  8
OBJECT
  0
POLYLINE
  5
2A2F
  8
OBJECT
 66
     1
 10
0.0
 20
0.0
 30
0.0
  0
VERTEX
  5
418A
  8
OBJECT
 10
1.6256808774590319
 20
16.467685741090978
 30
0.0
  0
VERTEX
  5
418B
  8
OBJECT
 10
1.6806808774590321
 20
16.467685741090989
 30
0.0
  0
VERTEX
  5
418C
  8
OBJECT
 10
1.6806808774590321
 20
16.40768574109099
 30
0.0
  0
VERTEX
  5
418D
  8
OBJECT
 10
1.6256808774590319
 20
16.40768574109099
 30
0.0
  0
SEQEND
  5
418E
  8
OBJECT
  0
CIRCLE
  5
2A30
  8
HIDDEN
 10
1.8441808774590309
 20
19.429685741090989
 30
0.0
 40
0.045
  0
POLYLINE
  5
2A31
  8
HIDDEN
 66
     1
 10
0.0
 20
0.0
 30
0.0
  0
VERTEX
  5
418F
  8
HIDDEN
 10
7.48768087745903
 20
19.676685741090989
 30
0.0
  0
VERTEX
  5
4190
  8
HIDDEN
 10
7.5381525474725768
 20
19.676685741090989
 30
0.0
  0
VERTEX
  5
4191
  8
HIDDEN
 10
7.5381525474725768
 20
16.59337472421322
 30
0.0
  0
SEQEND
  5
4192
  8
HIDDEN
  0
LINE
  5
2A32
  8
OBJECT
 10
7.5476808774590332
 20
13.02068574109099
 30
0.0
 11
7.5476808774590332
 21
16.593325812674969
 31
0.0
  0
LINE
  5
2A33
  8
OBJECT
 10
7.48768087745903
 20
12.880685741090989
 30
0.0
 11
7.48768087745903
 21
16.594008776835871
 31
0.0
  0
CIRCLE
  5
2A34
  8
OBJECT
 10
7.2691808774590321
 20
13.287685741090989
 30
0.0
 40
0.045
  0
CIRCLE
  5
2A35
  8
OBJECT
 10
7.2691808774590321
 20
13.287685741090989
 30
0.0
 40
0.148
  0
CIRCLE
  5
2A36
  8
HIDDEN
 10
7.2691808774590321
 20
19.429685741090989
 30
0.0
 40
0.148
  0
POLYLINE
  5
2A37
  8
OBJECT
 66
     1
 10
0.0
 20
0.0
 30
0.0
  0
VERTEX
  5
4193
  8
OBJECT
 10
7.48768087745903
 20
16.249685741090978
 30
0.0
  0
VERTEX
  5
4194
  8
OBJECT
 10
7.4326808774590312
 20
16.249685741090978
 30
0.0
  0
VERTEX
  5
4195
  8
OBJECT
 10
7.4326808774590312
 20
16.309685741090991
 30
0.0
  0
VERTEX
  5
4196
  8
OBJECT
 10
7.48768087745903
 20
16.309685741090991
 30
0.0
  0
SEQEND
  5
4197
  8
OBJECT
  0
POLYLINE
  5
2A38
  8
OBJECT
 66
     1
 10
0.0
 20
0.0
 30
0.0
  0
VERTEX
  5
4198
  8
OBJECT
 10
7.48768087745903
 20
16.467685741090978
 30
0.0
  0
VERTEX
  5
4199
  8
OBJECT
 10
7.4326808774590312
 20
16.467685741090989
 30
0.0
  0
VERTEX
  5
419A
  8
OBJECT
 10
7.4326808774590312
 20
16.40768574109099
 30
0.0
  0
VERTEX
  5
419B
  8
OBJECT
 10
7.48768087745903
 20
16.40768574109099
 30
0.0
  0
SEQEND
  5
419C
  8
OBJECT
  0
CIRCLE
  5
2A39
  8
HIDDEN
 10
7.2691808774590321
 20
19.429685741090989
 30
0.0
 40
0.045
  0
CIRCLE
  5
2A3A
  8
HIDDEN
 10
2.174680877459032
 20
18.70668574109099
 30
0.0
 40
0.108
  0
CIRCLE
  5
2A3B
  8
HIDDEN
 10
2.174680877459032
 20
18.70668574109099
 30
0.0
 40
0.045
  0
CIRCLE
  5
2A3C
  8
HIDDEN
 10
6.9386808774590314
 20
18.70668574109099
 30
0.0
 40
0.045
  0
CIRCLE
  5
2A3D
  8
HIDDEN
 10
6.9386808774590314
 20
18.70668574109099
 30
0.0
 40
0.108
  0
CIRCLE
  5
2A3E
  8
OBJECT
 10
2.174680877459032
 20
14.01068574109099
 30
0.0
 40
0.045
  0
CIRCLE
  5
2A3F
  8
OBJECT
 10
2.174680877459032
 20
14.01068574109099
 30
0.0
 40
0.108
  0
CIRCLE
  5
2A40
  8
OBJECT
 10
6.9386808774590314
 20
14.01068574109099
 30
0.0
 40
0.108
  0
CIRCLE
  5
2A41
  8
OBJECT
 10
6.9386808774590314
 20
14.01068574109099
 30
0.0
 40
0.045
  0
CIRCLE
  5
2A42
  8
OBJECT
 10
2.174680877459032
 20
16.358685741090991
 30
0.0
 40
0.108
  0
CIRCLE
  5
2A43
  8
OBJECT
 10
2.174680877459032
 20
16.358685741090991
 30
0.0
 40
0.045
  0
CIRCLE
  5
2A44
  8
OBJECT
 10
6.9386808774590314
 20
16.358685741090991
 30
0.0
 40
0.108
  0
CIRCLE
  5
2A45
  8
OBJECT
 10
6.9386808774590314
 20
16.358685741090991
 30
0.0
 40
0.045
  0
POLYLINE
  5
2A46
  8
HIDDEN
 66
     1
 10
0.0
 20
0.0
 30
0.0
  0
VERTEX
  5
419D
  8
HIDDEN
 10
1.6256808774590319
 20
18.199685741090988
 30
0.0
  0
VERTEX
  5
419E
  8
HIDDEN
 10
1.6806808774590321
 20
18.199685741090988
 30
0.0
  0
VERTEX
  5
419F
  8
HIDDEN
 10
1.6806808774590321
 20
18.139685741090979
 30
0.0
  0
VERTEX
  5
41A0
  8
HIDDEN
 10
1.6256808774590319
 20
18.139685741090979
 30
0.0
  0
SEQEND
  5
41A1
  8
HIDDEN
  0
POLYLINE
  5
2A47
  8
HIDDEN
 66
     1
 10
0.0
 20
0.0
 30
0.0
  0
VERTEX
  5
41A2
  8
HIDDEN
 10
1.6256808774590319
 20
17.981685741090981
 30
0.0
  0
VERTEX
  5
41A3
  8
HIDDEN
 10
1.6806808774590321
 20
17.981685741090981
 30
0.0
  0
VERTEX
  5
41A4
  8
HIDDEN
 10
1.6806808774590321
 20
18.041685741090991
 30
0.0
  0
VERTEX
  5
41A5
  8
HIDDEN
 10
1.6256808774590319
 20
18.041685741090991
 30
0.0
  0
SEQEND
  5
41A6
  8
HIDDEN
  0
POLYLINE
  5
2A48
  8
HIDDEN
 66
     1
 10
0.0
 20
0.0
 30
0.0
  0
VERTEX
  5
41A7
  8
HIDDEN
 10
7.48768087745903
 20
18.199685741090988
 30
0.0
  0
VERTEX
  5
41A8
  8
HIDDEN
 10
7.4326808774590312
 20
18.199685741090988
 30
0.0
  0
VERTEX
  5
41A9
  8
HIDDEN
 10
7.4326808774590312
 20
18.139685741090979
 30
0.0
  0
VERTEX
  5
41AA
  8
HIDDEN
 10
7.48768087745903
 20
18.139685741090979
 30
0.0
  0
SEQEND
  5
41AB
  8
HIDDEN
  0
POLYLINE
  5
2A49
  8
HIDDEN
 66
     1
 10
0.0
 20
0.0
 30
0.0
  0
VERTEX
  5
41AC
  8
HIDDEN
 10
7.48768087745903
 20
17.981685741090981
 30
0.0
  0
VERTEX
  5
41AD
  8
HIDDEN
 10
7.4326808774590312
 20
17.981685741090981
 30
0.0
  0
VERTEX
  5
41AE
  8
HIDDEN
 10
7.4326808774590312
 20
18.041685741090991
 30
0.0
  0
VERTEX
  5
41AF
  8
HIDDEN
 10
7.48768087745903
 20
18.041685741090991
 30
0.0
  0
SEQEND
  5
41B0
  8
HIDDEN
  0
POLYLINE
  5
2A4A
  8
OBJECT
 66
     1
 10
0.0
 20
0.0
 30
0.0
  0
VERTEX
  5
41B1
  8
OBJECT
 10
1.6256808774590319
 20
14.73568574109099
 30
0.0
  0
VERTEX
  5
41B2
  8
OBJECT
 10
1.6806808774590321
 20
14.73568574109099
 30
0.0
  0
VERTEX
  5
41B3
  8
OBJECT
 10
1.6806808774590321
 20
14.67568574109098
 30
0.0
  0
VERTEX
  5
41B4
  8
OBJECT
 10
1.6256808774590319
 20
14.67568574109098
 30
0.0
  0
SEQEND
  5
41B5
  8
OBJECT
  0
POLYLINE
  5
2A4B
  8
OBJECT
 66
     1
 10
0.0
 20
0.0
 30
0.0
  0
VERTEX
  5
41B6
  8
OBJECT
 10
1.6256808774590319
 20
14.51768574109099
 30
0.0
  0
VERTEX
  5
41B7
  8
OBJECT
 10
1.6806808774590321
 20
14.517685741090981
 30
0.0
  0
VERTEX
  5
41B8
  8
OBJECT
 10
1.6806808774590321
 20
14.577685741090979
 30
0.0
  0
VERTEX
  5
41B9
  8
OBJECT
 10
1.6256808774590319
 20
14.577685741090979
 30
0.0
  0
SEQEND
  5
41BA
  8
OBJECT
  0
POLYLINE
  5
2A4C
  8
OBJECT
 66
     1
 10
0.0
 20
0.0
 30
0.0
  0
VERTEX
  5
41BB
  8
OBJECT
 10
7.48768087745903
 20
14.73568574109099
 30
0.0
  0
VERTEX
  5
41BC
  8
OBJECT
 10
7.4326808774590312
 20
14.73568574109099
 30
0.0
  0
VERTEX
  5
41BD
  8
OBJECT
 10
7.4326808774590312
 20
14.67568574109098
 30
0.0
  0
VERTEX
  5
41BE
  8
OBJECT
 10
7.48768087745903
 20
14.67568574109098
 30
0.0
  0
SEQEND
  5
41BF
  8
OBJECT
  0
POLYLINE
  5
2A4D
  8
OBJECT
 66
     1
 10
0.0
 20
0.0
 30
0.0
  0
VERTEX
  5
41C0
  8
OBJECT
 10
7.48768087745903
 20
14.51768574109099
 30
0.0
  0
VERTEX
  5
41C1
  8
OBJECT
 10
7.4326808774590312
 20
14.517685741090981
 30
0.0
  0
VERTEX
  5
41C2
  8
OBJECT
 10
7.4326808774590312
 20
14.577685741090979
 30
0.0
  0
VERTEX
  5
41C3
  8
OBJECT
 10
7.48768087745903
 20
14.577685741090979
 30
0.0
  0
SEQEND
  5
41C4
  8
OBJECT
  0
LINE
  5
2A4E
  8
OBJECT
 10
2.076680877459018
 20
18.53118574109099
 30
0.0
 11
1.4856808774590311
 21
18.53118574109099
 31
0.0
  0
LINE
  5
2A4F
  8
OBJECT
 10
2.076680877459018
 20
18.651185741090991
 30
0.0
 11
1.4856808774590311
 21
18.651185741090991
 31
0.0
  0
LINE
  5
2A50
  8
OBJECT
 10
2.076680877459018
 20
18.53118574109099
 30
0.0
 11
2.076680877459018
 21
18.651185741090991
 31
0.0
  0
LINE
  5
2A51
  8
OBJECT
 10
1.502680877459035
 20
18.53118574109099
 30
0.0
 11
1.502680877459035
 21
18.651185741090991
 31
0.0
  0
LINE
  5
2A52
  8
OBJECT
 10
2.076680877459018
 20
19.001185741090989
 30
0.0
 11
1.4856808774590311
 21
19.001185741090989
 31
0.0
  0
LINE
  5
2A53
  8
OBJECT
 10
2.076680877459018
 20
19.12118574109099
 30
0.0
 11
1.4856808774590311
 21
19.12118574109099
 31
0.0
  0
LINE
  5
2A54
  8
OBJECT
 10
2.076680877459018
 20
18.76618574109099
 30
0.0
 11
1.4856808774590311
 21
18.76618574109099
 31
0.0
  0
LINE
  5
2A55
  8
OBJECT
 10
2.076680877459018
 20
18.886185741090991
 30
0.0
 11
1.4856808774590311
 21
18.886185741090991
 31
0.0
  0
LINE
  5
2A56
  8
OBJECT
 10
2.076680877459018
 20
19.001185741090989
 30
0.0
 11
2.076680877459018
 21
19.12118574109099
 31
0.0
  0
LINE
  5
2A57
  8
OBJECT
 10
2.076680877459018
 20
18.76618574109099
 30
0.0
 11
2.076680877459018
 21
18.886185741090991
 31
0.0
  0
LINE
  5
2A58
  8
OBJECT
 10
1.502680877459031
 20
19.001185741090989
 30
0.0
 11
1.502680877459031
 21
19.12118574109099
 31
0.0
  0
LINE
  5
2A59
  8
OBJECT
 10
1.502680877459031
 20
18.76618574109099
 30
0.0
 11
1.502680877459031
 21
18.886185741090991
 31
0.0
  0
LINE
  5
2A8B
  8
OBJECT
 10
7.6106808774590284
 20
18.53118574109099
 30
0.0
 11
7.6106808774590284
 21
18.651185741090991
 31
0.0
  0
LINE
  5
2A8C
  8
OBJECT
 10
7.036680877459041
 20
18.53118574109099
 30
0.0
 11
7.036680877459041
 21
18.651185741090991
 31
0.0
  0
LINE
  5
2A8D
  8
OBJECT
 10
7.610680877459024
 20
17.356185741090989
 30
0.0
 11
7.610680877459024
 21
17.47618574109099
 31
0.0
  0
LINE
  5
2A8E
  8
OBJECT
 10
7.036680877459041
 20
17.356185741090989
 30
0.0
 11
7.036680877459041
 21
17.47618574109099
 31
0.0
  0
LINE
  5
2A8F
  8
OBJECT
 10
7.0366808774590366
 20
16.651185741090991
 30
0.0
 11
7.6276808774590243
 21
16.651185741090991
 31
0.0
  0
LINE
  5
2A90
  8
OBJECT
 10
7.036680877459041
 20
16.771185741090989
 30
0.0
 11
7.6276808774590243
 21
16.771185741090989
 31
0.0
  0
LINE
  5
2A94
  8
OBJECT
 10
7.036680877459041
 20
16.886185741090991
 30
0.0
 11
7.6276808774590243
 21
16.886185741090991
 31
0.0
  0
LINE
  5
2A95
  8
OBJECT
 10
7.036680877459041
 20
17.356185741090989
 30
0.0
 11
7.627680877459027
 21
17.356185741090989
 31
0.0
  0
LINE
  5
2A96
  8
OBJECT
 10
7.036680877459041
 20
17.12118574109099
 30
0.0
 11
7.6276808774590243
 21
17.12118574109099
 31
0.0
  0
LINE
  5
2A97
  8
OBJECT
 10
7.036680877459041
 20
17.241185741090991
 30
0.0
 11
7.627680877459027
 21
17.241185741090991
 31
0.0
  0
LINE
  5
2A98
  8
OBJECT
 10
7.036680877459041
 20
17.006185741090992
 30
0.0
 11
7.6276808774590243
 21
17.006185741090992
 31
0.0
  0
LINE
  5
2A9C
  8
OBJECT
 10
7.0366808774590366
 20
16.651185741090991
 30
0.0
 11
7.036680877459041
 21
16.771185741090989
 31
0.0
  0
LINE
  5
2A9D
  8
OBJECT
 10
7.0366808774590366
 20
16.886185741090991
 30
0.0
 11
7.036680877459041
 21
17.006185741090992
 31
0.0
  0
LINE
  5
2A9E
  8
OBJECT
 10
7.0366808774590366
 20
17.12118574109099
 30
0.0
 11
7.036680877459041
 21
17.241185741090991
 31
0.0
  0
LINE
  5
2AA1
  8
OBJECT
 10
7.610680877459024
 20
16.651185741090991
 30
0.0
 11
7.610680877459024
 21
16.771185741090989
 31
0.0
  0
LINE
  5
2AA2
  8
OBJECT
 10
7.610680877459024
 20
16.886185741090991
 30
0.0
 11
7.610680877459024
 21
17.006185741090992
 31
0.0
  0
LINE
  5
2AA3
  8
OBJECT
 10
7.610680877459024
 20
17.12118574109099
 30
0.0
 11
7.610680877459024
 21
17.241185741090991
 31
0.0
  0
LINE
  5
2AA4
  8
OBJECT
 10
7.036680877459041
 20
17.591185741090989
 30
0.0
 11
7.627680877459027
 21
17.591185741090989
 31
0.0
  0
LINE
  5
2AA5
  8
OBJECT
 10
7.036680877459041
 20
17.71118574109099
 30
0.0
 11
7.627680877459027
 21
17.71118574109099
 31
0.0
  0
LINE
  5
2AA6
  8
OBJECT
 10
7.036680877459041
 20
17.47618574109099
 30
0.0
 11
7.627680877459027
 21
17.47618574109099
 31
0.0
  0
LINE
  5
2AA7
  8
OBJECT
 10
7.036680877459041
 20
17.826185741090988
 30
0.0
 11
7.627680877459027
 21
17.826185741090988
 31
0.0
  0
LINE
  5
2AA8
  8
OBJECT
 10
7.036680877459041
 20
17.946185741090989
 30
0.0
 11
7.627680877459027
 21
17.946185741090989
 31
0.0
  0
LINE
  5
2AA9
  8
OBJECT
 10
7.036680877459041
 20
18.53118574109099
 30
0.0
 11
7.627680877459027
 21
18.53118574109099
 31
0.0
  0
LINE
  5
2AAA
  8
OBJECT
 10
7.036680877459041
 20
18.296185741090991
 30
0.0
 11
7.627680877459027
 21
18.296185741090991
 31
0.0
  0
LINE
  5
2AAB
  8
OBJECT
 10
7.036680877459041
 20
18.416185741090992
 30
0.0
 11
7.627680877459027
 21
18.416185741090992
 31
0.0
  0
LINE
  5
2AAC
  8
OBJECT
 10
7.036680877459041
 20
18.061185741090991
 30
0.0
 11
7.627680877459027
 21
18.061185741090991
 31
0.0
  0
LINE
  5
2AAD
  8
OBJECT
 10
7.036680877459041
 20
18.181185741090989
 30
0.0
 11
7.627680877459027
 21
18.181185741090989
 31
0.0
  0
LINE
  5
2AAE
  8
OBJECT
 10
7.036680877459041
 20
17.591185741090989
 30
0.0
 11
7.036680877459041
 21
17.71118574109099
 31
0.0
  0
LINE
  5
2AAF
  8
OBJECT
 10
7.036680877459041
 20
17.826185741090988
 30
0.0
 11
7.036680877459041
 21
17.946185741090989
 31
0.0
  0
LINE
  5
2AB0
  8
OBJECT
 10
7.036680877459041
 20
18.061185741090991
 30
0.0
 11
7.036680877459041
 21
18.181185741090989
 31
0.0
  0
LINE
  5
2AB1
  8
OBJECT
 10
7.036680877459041
 20
18.296185741090991
 30
0.0
 11
7.036680877459041
 21
18.416185741090992
 31
0.0
  0
LINE
  5
2AB2
  8
OBJECT
 10
7.610680877459024
 20
17.591185741090989
 30
0.0
 11
7.6106808774590284
 21
17.71118574109099
 31
0.0
  0
LINE
  5
2AB3
  8
OBJECT
 10
7.6106808774590284
 20
17.826185741090988
 30
0.0
 11
7.6106808774590284
 21
17.946185741090989
 31
0.0
  0
LINE
  5
2AB4
  8
OBJECT
 10
7.6106808774590284
 20
18.061185741090991
 30
0.0
 11
7.6106808774590284
 21
18.181185741090989
 31
0.0
  0
LINE
  5
2AB5
  8
OBJECT
 10
7.6106808774590284
 20
18.296185741090991
 30
0.0
 11
7.6106808774590284
 21
18.416185741090992
 31
0.0
  0
LINE
  5
2AB6
  8
OBJECT
 10
7.036680877459041
 20
18.886185741090991
 30
0.0
 11
7.627680877459027
 21
18.886185741090991
 31
0.0
  0
LINE
  5
2AB7
  8
OBJECT
 10
7.036680877459041
 20
18.76618574109099
 30
0.0
 11
7.627680877459027
 21
18.76618574109099
 31
0.0
  0
LINE
  5
2AB8
  8
OBJECT
 10
7.036680877459041
 20
19.12118574109099
 30
0.0
 11
7.627680877459027
 21
19.12118574109099
 31
0.0
  0
LINE
  5
2AB9
  8
OBJECT
 10
7.036680877459041
 20
19.001185741090989
 30
0.0
 11
7.627680877459027
 21
19.001185741090989
 31
0.0
  0
LINE
  5
2ABA
  8
OBJECT
 10
7.036680877459041
 20
18.651185741090991
 30
0.0
 11
7.627680877459027
 21
18.651185741090991
 31
0.0
  0
LINE
  5
2ABB
  8
OBJECT
 10
7.036680877459041
 20
19.611185741090988
 30
0.0
 11
7.6276808774590306
 21
19.611185741090988
 31
0.0
  0
LINE
  5
2ABC
  8
OBJECT
 10
7.036680877459041
 20
19.611185741090988
 30
0.0
 11
7.6276808774590306
 21
19.611185741090988
 31
0.0
  0
LINE
  5
2ABD
  8
OBJECT
 10
7.0366808774590437
 20
19.236185741090988
 30
0.0
 11
7.627680877459027
 21
19.236185741090988
 31
0.0
  0
LINE
  5
2ABE
  8
OBJECT
 10
7.036680877459041
 20
18.76618574109099
 30
0.0
 11
7.036680877459041
 21
18.886185741090991
 31
0.0
  0
LINE
  5
2ABF
  8
OBJECT
 10
7.036680877459041
 20
19.001185741090989
 30
0.0
 11
7.036680877459041
 21
19.12118574109099
 31
0.0
  0
LINE
  5
2AC0
  8
OBJECT
 10
7.036680877459041
 20
19.611185741090988
 30
0.0
 11
7.036680877459041
 21
19.236185741090988
 31
0.0
  0
LINE
  5
2AC1
  8
OBJECT
 10
7.6106808774590284
 20
18.76618574109099
 30
0.0
 11
7.6106808774590284
 21
18.886185741090991
 31
0.0
  0
LINE
  5
2AC2
  8
OBJECT
 10
7.6106808774590284
 20
19.001185741090989
 30
0.0
 11
7.6106808774590284
 21
19.12118574109099
 31
0.0
  0
LINE
  5
2AC3
  8
OBJECT
 10
7.6106808774590311
 20
19.611185741090988
 30
0.0
 11
7.6106808774590311
 21
19.236185741090988
 31
0.0
  0
LINE
  5
2AF6
  8
HIDDEN
 10
7.1312817006321616
 20
10.02732520938536
 30
0.0
 11
1.3293060103356811
 21
10.027325209385371
 31
0.0
  0
LINE
  5
2AF7
  8
HIDDEN
 10
7.1312817006321598
 20
8.850325209385371
 30
0.0
 11
1.3293060103356811
 21
8.850325209385371
 31
0.0
  0
LINE
  5
2AF8
  8
HIDDEN
 10
1.3293060103356811
 20
8.850325209385371
 30
0.0
 11
1.299485983923631
 21
9.4193252093853701
 31
0.0
  0
LINE
  5
2AF9
  8
HIDDEN
 10
1.3293060103356811
 20
10.027325209385371
 30
0.0
 11
1.299485983923631
 21
9.4583252093853698
 31
0.0
  0
LINE
  5
2AFA
  8
HIDDEN
 10
7.1312817006321616
 20
10.02732520938536
 30
0.0
 11
7.161101727044211
 21
9.4583252093853698
 31
0.0
  0
LINE
  5
2AFB
  8
HIDDEN
 10
7.1312817006321598
 20
8.850325209385371
 30
0.0
 11
7.161101727044211
 21
9.4193252093853701
 31
0.0
  0
POLYLINE
  5
2AFC
  8
HIDDEN
 66
     1
 10
0.0
 20
0.0
 30
0.0
  0
VERTEX
  5
41C5
  8
HIDDEN
 10
7.2212938554839212
 20
9.4193252093853701
 30
0.0
  0
VERTEX
  5
41C6
  8
HIDDEN
 10
7.2212938554839212
 20
9.3293252093853614
 30
0.0
  0
VERTEX
  5
41C7
  8
HIDDEN
 10
7.1564124738286976
 20
9.3293252093853614
 30
0.0
  0
SEQEND
  5
41C8
  8
HIDDEN
  0
POLYLINE
  5
2AFD
  8
HIDDEN
 66
     1
 10
0.0
 20
0.0
 30
0.0
  0
VERTEX
  5
41C9
  8
HIDDEN
 10
7.1631730773562117
 20
9.4193252093853701
 30
0.0
  0
VERTEX
  5
41CA
  8
HIDDEN
 10
7.1677325541538357
 20
9.3323252093853704
 30
0.0
  0
VERTEX
  5
41CB
  8
HIDDEN
 10
7.2117655254974693
 20
9.3323252093853704
 30
0.0
  0
VERTEX
  5
41CC
  8
HIDDEN
 10
7.2117655254974693
 20
9.4193252093853701
 30
0.0
  0
SEQEND
  5
41CD
  8
HIDDEN
  0
POLYLINE
  5
2AFE
  8
HIDDEN
 66
     1
 10
0.0
 20
0.0
 30
0.0
  0
VERTEX
  5
41CE
  8
HIDDEN
 10
7.0769180521654604
 20
10.02732520938536
 30
0.0
  0
VERTEX
  5
41CF
  8
HIDDEN
 10
7.1062664085639637
 20
9.4673252093853684
 30
0.0
  0
VERTEX
  5
41D0
  8
HIDDEN
 10
7.1606300570306649
 20
9.4673252093853684
 30
0.0
  0
SEQEND
  5
41D1
  8
HIDDEN
  0
POLYLINE
  5
2AFF
  8
HIDDEN
 66
     1
 10
0.0
 20
0.0
 30
0.0
  0
VERTEX
  5
41D2
  8
HIDDEN
 10
7.1606300570306649
 20
9.4103252093853698
 30
0.0
  0
VERTEX
  5
41D3
  8
HIDDEN
 10
7.1062664085639637
 20
9.4103252093853698
 30
0.0
  0
VERTEX
  5
41D4
  8
HIDDEN
 10
7.0769180521654604
 20
8.850325209385371
 30
0.0
  0
SEQEND
  5
41D5
  8
HIDDEN
  0
LINE
  5
2B00
  8
OBJECT
 10
7.4374201317194268
 20
12.97568574109099
 30
0.0
 11
7.4374201317194268
 21
13.02068574109099
 31
0.0
  0
LINE
  5
2B01
  8
OBJECT
 10
7.4374201317194268
 20
12.880685741090989
 30
0.0
 11
7.5075161959392807
 21
12.81568574109099
 31
0.0
  0
LINE
  5
2B02
  8
HIDDEN
 10
1.675941623198635
 20
19.74168574109099
 30
0.0
 11
1.675941623198635
 21
19.696685741090992
 31
0.0
  0
LINE
  5
2B03
  8
HIDDEN
 10
1.675941623198635
 20
19.836685741090989
 30
0.0
 11
1.605845558978781
 21
19.90168574109099
 31
0.0
  0
LINE
  5
2B04
  8
HIDDEN
 10
7.4374201317194268
 20
19.836685741090989
 30
0.0
 11
7.5075161959392807
 21
19.90168574109099
 31
0.0
  0
LINE
  5
2B05
  8
HIDDEN
 10
7.4374201317194268
 20
19.74168574109099
 30
0.0
 11
7.4374201317194268
 21
19.696685741090992
 31
0.0
  0
LINE
  5
2C0D
  8
OBJECT
 10
11.085045576227801
 20
12.81568574109099
 30
0.0
 11
11.08504557622782
 21
19.90168574109099
 31
0.0
  0
POLYLINE
  5
2C0E
  8
HIDDEN
 66
     1
 10
0.0
 20
0.0
 30
0.0
  0
VERTEX
  5
41D6
  8
HIDDEN
 10
11.085045576227801
 20
13.040685741090989
 30
0.0
  0
VERTEX
  5
41D7
  8
HIDDEN
 10
11.1720455762278
 20
13.040685741090989
 30
0.0
  0
VERTEX
  5
41D8
  8
HIDDEN
 10
11.1720455762278
 20
19.676685741090989
 30
0.0
  0
VERTEX
  5
41D9
  8
HIDDEN
 10
11.08504557622782
 20
19.676685741090989
 30
0.0
  0
SEQEND
  5
41DA
  8
HIDDEN
  0
LINE
  5
2C0F
  8
HIDDEN
 10
11.1750455762278
 20
13.02068574109099
 30
0.0
 11
11.17504557622782
 21
19.696685741090992
 31
0.0
  0
LINE
  5
2C10
  8
HIDDEN
 10
10.477045576227811
 20
19.696685741090992
 30
0.0
 11
10.477045576227811
 21
13.02068574109099
 31
0.0
  0
LINE
  5
2C11
  8
HIDDEN
 10
11.6540455762278
 20
19.696685741090992
 30
0.0
 11
11.6540455762278
 21
13.02068574109099
 31
0.0
  0
LINE
  5
2C12
  8
OBJECT
 10
11.75704557622781
 20
14.65618574109099
 30
0.0
 11
11.75704557622781
 21
14.536185741090989
 31
0.0
  0
LINE
  5
2C13
  8
OBJECT
 10
11.30604557622781
 20
14.536185741090989
 30
0.0
 11
11.30604557622781
 21
14.65618574109099
 31
0.0
  0
LINE
  5
2C14
  8
OBJECT
 10
10.825045576227801
 20
14.536185741090989
 30
0.0
 11
10.825045576227801
 21
14.65618574109099
 31
0.0
  0
LINE
  5
2C15
  8
OBJECT
 10
10.3740455762278
 20
14.536185741090989
 30
0.0
 11
10.3740455762278
 21
14.65618574109099
 31
0.0
  0
LINE
  5
2C16
  8
OBJECT
 10
10.35704557622781
 20
12.81568574109099
 30
0.0
 11
10.357045576227801
 21
19.90168574109099
 31
0.0
  0
LINE
  5
2C17
  8
OBJECT
 10
11.774045576227801
 20
19.90168574109099
 30
0.0
 11
11.774045576227801
 21
12.81568574109099
 31
0.0
  0
LINE
  5
2C18
  8
OBJECT
 10
11.04604557622781
 20
12.81568574109099
 30
0.0
 11
11.04604557622779
 21
19.90168574109099
 31
0.0
  0
POLYLINE
  5
2C19
  8
HIDDEN
 66
     1
 10
0.0
 20
0.0
 30
0.0
  0
VERTEX
  5
41DB
  8
HIDDEN
 10
11.6540455762278
 20
14.517685741091
 30
0.0
  0
VERTEX
  5
41DC
  8
HIDDEN
 10
11.084045576227689
 20
14.517685741091
 30
0.0
  0
VERTEX
  5
41DD
  8
HIDDEN
 10
11.084045576227689
 20
14.577685741091001
 30
0.0
  0
VERTEX
  5
41DE
  8
HIDDEN
 10
11.6540455762278
 20
14.577685741091001
 30
0.0
  0
SEQEND
  5
41DF
  8
HIDDEN
  0
LINE
  5
2C1A
  8
HIDDEN
 10
11.584045576227799
 20
13.22268574109099
 30
0.0
 11
11.069045576227801
 21
13.22268574109099
 31
0.0
  0
LINE
  5
2C1B
  8
HIDDEN
 10
11.584045576227799
 20
13.35268574109099
 30
0.0
 11
11.069045576227801
 21
13.35268574109099
 31
0.0
  0
POLYLINE
  5
2C1C
  8
HIDDEN
 66
     1
 10
0.0
 20
0.0
 30
0.0
  0
VERTEX
  5
41E0
  8
HIDDEN
 10
11.6540455762278
 20
13.13968574109099
 30
0.0
  0
VERTEX
  5
41E1
  8
HIDDEN
 10
11.069045576227801
 20
13.13968574109099
 30
0.0
  0
VERTEX
  5
41E2
  8
HIDDEN
 10
11.069045576227801
 20
13.435685741090991
 30
0.0
  0
VERTEX
  5
41E3
  8
HIDDEN
 10
11.6540455762278
 20
13.435685741090991
 30
0.0
  0
SEQEND
  5
41E4
  8
HIDDEN
  0
LINE
  5
2C1D
  8
HIDDEN
 10
10.465545576227809
 20
12.880685741090989
 30
0.0
 11
11.6655455762278
 21
12.880685741090989
 31
0.0
  0
LINE
  5
2C1E
  8
HIDDEN
 10
10.465545576227809
 20
12.97568574109099
 30
0.0
 11
11.66554557622781
 21
12.97568574109099
 31
0.0
  0
LINE
  5
2C1F
  8
HIDDEN
 10
10.477045576227811
 20
13.02068574109099
 30
0.0
 11
11.6540455762278
 21
13.02068574109099
 31
0.0
  0
LINE
  5
2C20
  8
OBJECT
 10
11.774045576227801
 20
12.81568574109099
 30
0.0
 11
10.35704557622781
 21
12.81568574109099
 31
0.0
  0
LINE
  5
2C21
  8
OBJECT
 10
11.30604557622781
 20
13.59618574109099
 30
0.0
 11
11.30604557622781
 21
13.716185741090991
 31
0.0
  0
LINE
  5
2C22
  8
OBJECT
 10
11.75704557622781
 20
13.716185741090991
 30
0.0
 11
11.75704557622781
 21
13.59618574109099
 31
0.0
  0
POLYLINE
  5
2C23
  8
HIDDEN
 66
     1
 10
0.0
 20
0.0
 30
0.0
  0
VERTEX
  5
41E5
  8
HIDDEN
 10
11.774045576227801
 20
13.402685741090989
 30
0.0
  0
VERTEX
  5
41E6
  8
HIDDEN
 10
11.584045576227799
 20
13.402685741090989
 30
0.0
  0
VERTEX
  5
41E7
  8
HIDDEN
 10
11.584045576227799
 20
13.172685741090991
 30
0.0
  0
VERTEX
  5
41E8
  8
HIDDEN
 10
11.774045576227801
 20
13.172685741090991
 30
0.0
  0
SEQEND
  5
41E9
  8
HIDDEN
  0
LINE
  5
2C24
  8
OBJECT
 10
11.75704557622781
 20
13.481185741091
 30
0.0
 11
11.75704557622781
 21
13.106185741091
 31
0.0
  0
LINE
  5
2C25
  8
OBJECT
 10
11.30604557622781
 20
13.106185741091
 30
0.0
 11
11.30604557622781
 21
13.481185741091
 31
0.0
  0
LINE
  5
2C26
  8
HIDDEN
 10
11.584045576227799
 20
12.880685741091
 30
0.0
 11
11.6540455762278
 21
12.815685741091
 31
0.0
  0
LINE
  5
2C27
  8
OBJECT
 10
11.774045576227801
 20
13.106185741091
 30
0.0
 11
11.30604557622781
 21
13.106185741091
 31
0.0
  0
LINE
  5
2C28
  8
OBJECT
 10
11.774045576227801
 20
13.106185741091
 30
0.0
 11
11.30604557622781
 21
13.106185741091
 31
0.0
  0
LINE
  5
2C29
  8
HIDDEN
 10
11.66554557622781
 20
12.97568574109099
 30
0.0
 11
11.6655455762278
 21
12.880685741090989
 31
0.0
  0
LINE
  5
2C2A
  8
HIDDEN
 10
11.584045576227799
 20
12.975685741091
 30
0.0
 11
11.584045576227799
 21
13.020685741091
 31
0.0
  0
LINE
  5
2C2B
  8
OBJECT
 10
11.774045576227801
 20
13.59618574109099
 30
0.0
 11
11.30604557622781
 21
13.59618574109099
 31
0.0
  0
LINE
  5
2C2C
  8
OBJECT
 10
11.774045576227801
 20
13.481185741091
 30
0.0
 11
11.30604557622781
 21
13.481185741091
 31
0.0
  0
LINE
  5
2C2D
  8
OBJECT
 10
11.30604557622781
 20
14.06618574109099
 30
0.0
 11
11.30604557622781
 21
14.18618574109099
 31
0.0
  0
LINE
  5
2C2E
  8
OBJECT
 10
11.75704557622781
 20
14.18618574109099
 30
0.0
 11
11.75704557622781
 21
14.06618574109099
 31
0.0
  0
LINE
  5
2C2F
  8
OBJECT
 10
11.774045576227801
 20
13.716185741090991
 30
0.0
 11
11.30604557622781
 21
13.716185741090991
 31
0.0
  0
LINE
  5
2C30
  8
OBJECT
 10
11.774045576227801
 20
13.95118574109099
 30
0.0
 11
11.30604557622781
 21
13.95118574109099
 31
0.0
  0
LINE
  5
2C31
  8
OBJECT
 10
11.774045576227801
 20
13.831185741090991
 30
0.0
 11
11.30604557622781
 21
13.831185741090991
 31
0.0
  0
LINE
  5
2C32
  8
OBJECT
 10
11.774045576227801
 20
14.06618574109099
 30
0.0
 11
11.30604557622781
 21
14.06618574109099
 31
0.0
  0
LINE
  5
2C33
  8
HIDDEN
 10
11.498045576227801
 20
14.05568574109099
 30
0.0
 11
11.6540455762278
 21
14.05568574109099
 31
0.0
  0
LINE
  5
2C34
  8
HIDDEN
 10
11.498045576227801
 20
13.965685741091001
 30
0.0
 11
11.6540455762278
 21
13.965685741091001
 31
0.0
  0
POLYLINE
  5
2C35
  8
HIDDEN
 66
     1
 10
0.0
 20
0.0
 30
0.0
  0
VERTEX
  5
41EA
  8
HIDDEN
 10
11.6540455762278
 20
13.902685741090989
 30
0.0
  0
VERTEX
  5
41EB
  8
HIDDEN
 10
11.498045576227801
 20
13.902685741090989
 30
0.0
  0
VERTEX
  5
41EC
  8
HIDDEN
 10
11.498045576227801
 20
14.118685741090991
 30
0.0
  0
VERTEX
  5
41ED
  8
HIDDEN
 10
11.6540455762278
 20
14.118685741090991
 30
0.0
  0
SEQEND
  5
41EE
  8
HIDDEN
  0
LINE
  5
2C36
  8
OBJECT
 10
11.75704557622781
 20
13.95118574109099
 30
0.0
 11
11.75704557622781
 21
13.831185741090991
 31
0.0
  0
LINE
  5
2C37
  8
OBJECT
 10
11.30604557622781
 20
13.831185741090991
 30
0.0
 11
11.30604557622781
 21
13.95118574109099
 31
0.0
  0
LINE
  5
2C38
  8
OBJECT
 10
11.774045576227801
 20
14.18618574109099
 30
0.0
 11
11.30604557622781
 21
14.18618574109099
 31
0.0
  0
LINE
  5
2C39
  8
OBJECT
 10
11.774045576227801
 20
14.536185741090989
 30
0.0
 11
11.30604557622781
 21
14.536185741090989
 31
0.0
  0
LINE
  5
2C3A
  8
OBJECT
 10
11.774045576227801
 20
14.421185741090991
 30
0.0
 11
11.30604557622781
 21
14.421185741090991
 31
0.0
  0
LINE
  5
2C3B
  8
OBJECT
 10
11.774045576227801
 20
14.30118574109099
 30
0.0
 11
11.30604557622781
 21
14.30118574109099
 31
0.0
  0
LINE
  5
2C3C
  8
OBJECT
 10
11.75704557622781
 20
14.421185741090991
 30
0.0
 11
11.75704557622781
 21
14.30118574109099
 31
0.0
  0
LINE
  5
2C3D
  8
OBJECT
 10
11.30604557622781
 20
14.30118574109099
 30
0.0
 11
11.30604557622781
 21
14.421185741090991
 31
0.0
  0
LINE
  5
2C3E
  8
OBJECT
 10
10.3740455762278
 20
13.59618574109099
 30
0.0
 11
10.3740455762278
 21
13.716185741090991
 31
0.0
  0
LINE
  5
2C3F
  8
OBJECT
 10
10.825045576227801
 20
13.59618574109099
 30
0.0
 11
10.825045576227801
 21
13.716185741090991
 31
0.0
  0
LINE
  5
2C40
  8
HIDDEN
 10
10.5470455762278
 20
12.880685741091
 30
0.0
 11
10.477045576227811
 21
12.815685741091
 31
0.0
  0
LINE
  5
2C41
  8
OBJECT
 10
10.825045576227801
 20
13.59618574109099
 30
0.0
 11
10.357045576227801
 21
13.59618574109099
 31
0.0
  0
POLYLINE
  5
2C42
  8
HIDDEN
 66
     1
 10
0.0
 20
0.0
 30
0.0
  0
VERTEX
  5
41EF
  8
HIDDEN
 10
11.06204557622781
 20
13.332685741090989
 30
0.0
  0
VERTEX
  5
41F0
  8
HIDDEN
 10
10.41704557622781
 20
13.332685741090989
 30
0.0
  0
VERTEX
  5
41F1
  8
HIDDEN
 10
10.41704557622781
 20
13.242685741090989
 30
0.0
  0
VERTEX
  5
41F2
  8
HIDDEN
 10
11.06204557622781
 20
13.242685741090989
 30
0.0
  0
SEQEND
  5
41F3
  8
HIDDEN
  0
POLYLINE
  5
2C43
  8
HIDDEN
 66
     1
 10
0.0
 20
0.0
 30
0.0
  0
VERTEX
  5
41F4
  8
HIDDEN
 10
10.477045576227811
 20
13.13968574109099
 30
0.0
  0
VERTEX
  5
41F5
  8
HIDDEN
 10
11.06204557622781
 20
13.13968574109099
 30
0.0
  0
VERTEX
  5
41F6
  8
HIDDEN
 10
11.06204557622781
 20
13.435685741090991
 30
0.0
  0
VERTEX
  5
41F7
  8
HIDDEN
 10
10.477045576227811
 20
13.435685741090991
 30
0.0
  0
SEQEND
  5
41F8
  8
HIDDEN
  0
LINE
  5
2C44
  8
OBJECT
 10
10.825045576227801
 20
13.106185741091
 30
0.0
 11
10.35704557622781
 21
13.106185741091
 31
0.0
  0
LINE
  5
2C45
  8
OBJECT
 10
10.825045576227801
 20
13.106185741091
 30
0.0
 11
10.35704557622781
 21
13.106185741091
 31
0.0
  0
LINE
  5
2C46
  8
OBJECT
 10
10.825045576227801
 20
13.481185741091
 30
0.0
 11
10.35704557622781
 21
13.481185741091
 31
0.0
  0
LINE
  5
2C47
  8
OBJECT
 10
10.825045576227801
 20
13.106185741091
 30
0.0
 11
10.825045576227801
 21
13.481185741091
 31
0.0
  0
LINE
  5
2C48
  8
HIDDEN
 10
10.5470455762278
 20
12.975685741091
 30
0.0
 11
10.5470455762278
 21
13.020685741091
 31
0.0
  0
LINE
  5
2C49
  8
OBJECT
 10
10.3740455762278
 20
13.106185741091
 30
0.0
 11
10.3740455762278
 21
13.481185741091
 31
0.0
  0
LINE
  5
2C4A
  8
HIDDEN
 10
10.465545576227809
 20
12.97568574109099
 30
0.0
 11
10.465545576227809
 21
12.880685741090989
 31
0.0
  0
POLYLINE
  5
2C4B
  8
HIDDEN
 66
     1
 10
0.0
 20
0.0
 30
0.0
  0
VERTEX
  5
41F9
  8
HIDDEN
 10
10.477045576227811
 20
14.517685741091
 30
0.0
  0
VERTEX
  5
41FA
  8
HIDDEN
 10
11.04704557622769
 20
14.517685741091
 30
0.0
  0
VERTEX
  5
41FB
  8
HIDDEN
 10
11.04704557622769
 20
14.577685741091001
 30
0.0
  0
VERTEX
  5
41FC
  8
HIDDEN
 10
10.477045576227811
 20
14.577685741091001
 30
0.0
  0
SEQEND
  5
41FD
  8
HIDDEN
  0
LINE
  5
2C4C
  8
OBJECT
 10
10.825045576227801
 20
13.716185741090991
 30
0.0
 11
10.357045576227801
 21
13.716185741090991
 31
0.0
  0
LINE
  5
2C4D
  8
OBJECT
 10
10.825045576227801
 20
13.95118574109099
 30
0.0
 11
10.357045576227801
 21
13.95118574109099
 31
0.0
  0
LINE
  5
2C4E
  8
OBJECT
 10
10.825045576227801
 20
13.831185741090991
 30
0.0
 11
10.357045576227801
 21
13.831185741090991
 31
0.0
  0
LINE
  5
2C4F
  8
OBJECT
 10
10.825045576227801
 20
14.18618574109099
 30
0.0
 11
10.357045576227801
 21
14.18618574109099
 31
0.0
  0
LINE
  5
2C50
  8
OBJECT
 10
10.825045576227801
 20
14.06618574109099
 30
0.0
 11
10.357045576227801
 21
14.06618574109099
 31
0.0
  0
LINE
  5
2C51
  8
HIDDEN
 10
10.63304557622781
 20
14.05568574109099
 30
0.0
 11
10.477045576227811
 21
14.05568574109099
 31
0.0
  0
LINE
  5
2C52
  8
HIDDEN
 10
10.63304557622781
 20
13.965685741091001
 30
0.0
 11
10.477045576227811
 21
13.965685741091001
 31
0.0
  0
POLYLINE
  5
2C53
  8
HIDDEN
 66
     1
 10
0.0
 20
0.0
 30
0.0
  0
VERTEX
  5
41FE
  8
HIDDEN
 10
10.477045576227811
 20
13.902685741090989
 30
0.0
  0
VERTEX
  5
41FF
  8
HIDDEN
 10
10.63304557622781
 20
13.902685741090989
 30
0.0
  0
VERTEX
  5
4200
  8
HIDDEN
 10
10.63304557622781
 20
14.118685741090991
 30
0.0
  0
VERTEX
  5
4201
  8
HIDDEN
 10
10.477045576227811
 20
14.118685741090991
 30
0.0
  0
SEQEND
  5
4202
  8
HIDDEN
  0
LINE
  5
2C54
  8
OBJECT
 10
10.825045576227801
 20
14.536185741090989
 30
0.0
 11
10.357045576227801
 21
14.536185741090989
 31
0.0
  0
LINE
  5
2C55
  8
OBJECT
 10
10.825045576227801
 20
14.421185741090991
 30
0.0
 11
10.357045576227801
 21
14.421185741090991
 31
0.0
  0
LINE
  5
2C56
  8
OBJECT
 10
10.825045576227801
 20
14.30118574109099
 30
0.0
 11
10.357045576227801
 21
14.30118574109099
 31
0.0
  0
LINE
  5
2C57
  8
OBJECT
 10
10.825045576227801
 20
14.06618574109099
 30
0.0
 11
10.825045576227801
 21
14.18618574109099
 31
0.0
  0
LINE
  5
2C58
  8
OBJECT
 10
10.825045576227801
 20
13.831185741090991
 30
0.0
 11
10.825045576227801
 21
13.95118574109099
 31
0.0
  0
LINE
  5
2C59
  8
OBJECT
 10
10.825045576227801
 20
14.30118574109099
 30
0.0
 11
10.825045576227801
 21
14.421185741090991
 31
0.0
  0
LINE
  5
2C5A
  8
OBJECT
 10
10.3740455762278
 20
14.06618574109099
 30
0.0
 11
10.3740455762278
 21
14.18618574109099
 31
0.0
  0
LINE
  5
2C5B
  8
OBJECT
 10
10.3740455762278
 20
13.831185741090991
 30
0.0
 11
10.3740455762278
 21
13.95118574109099
 31
0.0
  0
LINE
  5
2C5C
  8
OBJECT
 10
10.3740455762278
 20
14.30118574109099
 30
0.0
 11
10.3740455762278
 21
14.421185741090991
 31
0.0
  0
POLYLINE
  5
2C5D
  8
HIDDEN
 66
     1
 10
0.0
 20
0.0
 30
0.0
  0
VERTEX
  5
4203
  8
HIDDEN
 10
11.6540455762278
 20
16.467685741091
 30
0.0
  0
VERTEX
  5
4204
  8
HIDDEN
 10
11.08404557622775
 20
16.467685741091
 30
0.0
  0
VERTEX
  5
4205
  8
HIDDEN
 10
11.08404557622775
 20
16.407685741091001
 30
0.0
  0
VERTEX
  5
4206
  8
HIDDEN
 10
11.6540455762278
 20
16.407685741091001
 30
0.0
  0
SEQEND
  5
4207
  8
HIDDEN
  0
POLYLINE
  5
2C5E
  8
HIDDEN
 66
     1
 10
0.0
 20
0.0
 30
0.0
  0
VERTEX
  5
4208
  8
HIDDEN
 10
10.477045576227811
 20
16.467685741091
 30
0.0
  0
VERTEX
  5
4209
  8
HIDDEN
 10
11.047045576227751
 20
16.467685741091
 30
0.0
  0
VERTEX
  5
420A
  8
HIDDEN
 10
11.047045576227751
 20
16.407685741091001
 30
0.0
  0
VERTEX
  5
420B
  8
HIDDEN
 10
10.477045576227811
 20
16.407685741091001
 30
0.0
  0
SEQEND
  5
420C
  8
HIDDEN
  0
POLYLINE
  5
2C5F
  8
HIDDEN
 66
     1
 10
0.0
 20
0.0
 30
0.0
  0
VERTEX
  5
420D
  8
HIDDEN
 10
10.477045576227811
 20
16.250685741091001
 30
0.0
  0
VERTEX
  5
420E
  8
HIDDEN
 10
10.63304557622781
 20
16.250685741091001
 30
0.0
  0
VERTEX
  5
420F
  8
HIDDEN
 10
10.63304557622781
 20
16.466685741090998
 30
0.0
  0
VERTEX
  5
4210
  8
HIDDEN
 10
10.477045576227811
 20
16.466685741090998
 30
0.0
  0
SEQEND
  5
4211
  8
HIDDEN
  0
POLYLINE
  5
2C60
  8
HIDDEN
 66
     1
 10
0.0
 20
0.0
 30
0.0
  0
VERTEX
  5
4212
  8
HIDDEN
 10
11.6540455762278
 20
16.250685741091001
 30
0.0
  0
VERTEX
  5
4213
  8
HIDDEN
 10
11.498045576227801
 20
16.250685741091001
 30
0.0
  0
VERTEX
  5
4214
  8
HIDDEN
 10
11.498045576227801
 20
16.466685741090998
 30
0.0
  0
VERTEX
  5
4215
  8
HIDDEN
 10
11.6540455762278
 20
16.466685741090998
 30
0.0
  0
SEQEND
  5
4216
  8
HIDDEN
  0
LINE
  5
2C61
  8
OBJECT
 10
11.75704557622781
 20
16.536185741090989
 30
0.0
 11
11.75704557622781
 21
16.416185741090992
 31
0.0
  0
LINE
  5
2C62
  8
OBJECT
 10
11.30604557622781
 20
16.416185741090992
 30
0.0
 11
11.30604557622781
 21
16.536185741090989
 31
0.0
  0
LINE
  5
2C63
  8
OBJECT
 10
10.825045576227801
 20
16.416185741090992
 30
0.0
 11
10.825045576227801
 21
16.536185741090989
 31
0.0
  0
LINE
  5
2C64
  8
OBJECT
 10
10.3740455762278
 20
16.416185741090992
 30
0.0
 11
10.3740455762278
 21
16.536185741090989
 31
0.0
  0
POLYLINE
  5
2C65
  8
HIDDEN
 66
     1
 10
0.0
 20
0.0
 30
0.0
  0
VERTEX
  5
4217
  8
HIDDEN
 10
11.6540455762278
 20
14.735685741091
 30
0.0
  0
VERTEX
  5
4218
  8
HIDDEN
 10
11.084045576227689
 20
14.735685741091
 30
0.0
  0
VERTEX
  5
4219
  8
HIDDEN
 10
11.084045576227689
 20
14.675685741091
 30
0.0
  0
VERTEX
  5
421A
  8
HIDDEN
 10
11.6540455762278
 20
14.675685741091
 30
0.0
  0
SEQEND
  5
421B
  8
HIDDEN
  0
POLYLINE
  5
2C66
  8
HIDDEN
 66
     1
 10
0.0
 20
0.0
 30
0.0
  0
VERTEX
  5
421C
  8
HIDDEN
 10
11.6540455762278
 20
16.249685741091
 30
0.0
  0
VERTEX
  5
421D
  8
HIDDEN
 10
11.08404557622775
 20
16.249685741091
 30
0.0
  0
VERTEX
  5
421E
  8
HIDDEN
 10
11.08404557622775
 20
16.309685741090998
 30
0.0
  0
VERTEX
  5
421F
  8
HIDDEN
 10
11.6540455762278
 20
16.309685741090998
 30
0.0
  0
SEQEND
  5
4220
  8
HIDDEN
  0
LINE
  5
2C67
  8
OBJECT
 10
11.75704557622781
 20
15.59618574109099
 30
0.0
 11
11.75704557622781
 21
15.47618574109099
 31
0.0
  0
LINE
  5
2C68
  8
OBJECT
 10
11.30604557622781
 20
15.47618574109099
 30
0.0
 11
11.30604557622781
 21
15.59618574109099
 31
0.0
  0
LINE
  5
2C69
  8
OBJECT
 10
11.75704557622781
 20
15.12618574109098
 30
0.0
 11
11.75704557622781
 21
15.00618574109099
 31
0.0
  0
LINE
  5
2C6A
  8
OBJECT
 10
11.30604557622781
 20
15.00618574109099
 30
0.0
 11
11.30604557622781
 21
15.126185741090991
 31
0.0
  0
LINE
  5
2C6B
  8
OBJECT
 10
11.774045576227801
 20
15.00618574109099
 30
0.0
 11
11.30604557622781
 21
15.00618574109099
 31
0.0
  0
LINE
  5
2C6C
  8
OBJECT
 10
11.774045576227801
 20
14.77118574109099
 30
0.0
 11
11.30604557622781
 21
14.77118574109099
 31
0.0
  0
LINE
  5
2C6D
  8
OBJECT
 10
11.774045576227801
 20
14.89118574109099
 30
0.0
 11
11.30604557622781
 21
14.89118574109099
 31
0.0
  0
LINE
  5
2C6E
  8
OBJECT
 10
11.774045576227801
 20
14.65618574109099
 30
0.0
 11
11.30604557622781
 21
14.65618574109099
 31
0.0
  0
LINE
  5
2C6F
  8
OBJECT
 10
11.75704557622781
 20
14.89118574109099
 30
0.0
 11
11.75704557622781
 21
14.77118574109099
 31
0.0
  0
LINE
  5
2C70
  8
OBJECT
 10
11.30604557622781
 20
14.77118574109099
 30
0.0
 11
11.30604557622781
 21
14.89118574109099
 31
0.0
  0
LINE
  5
2C71
  8
OBJECT
 10
11.774045576227801
 20
15.47618574109099
 30
0.0
 11
11.30604557622781
 21
15.47618574109099
 31
0.0
  0
LINE
  5
2C72
  8
OBJECT
 10
11.774045576227801
 20
15.241185741090989
 30
0.0
 11
11.30604557622781
 21
15.241185741090989
 31
0.0
  0
LINE
  5
2C73
  8
OBJECT
 10
11.774045576227801
 20
15.36118574109099
 30
0.0
 11
11.30604557622781
 21
15.36118574109099
 31
0.0
  0
LINE
  5
2C74
  8
OBJECT
 10
11.774045576227801
 20
15.126185741090991
 30
0.0
 11
11.30604557622781
 21
15.126185741090991
 31
0.0
  0
LINE
  5
2C75
  8
OBJECT
 10
11.75704557622781
 20
15.36118574109099
 30
0.0
 11
11.75704557622781
 21
15.241185741090989
 31
0.0
  0
LINE
  5
2C76
  8
OBJECT
 10
11.30604557622781
 20
15.241185741090989
 30
0.0
 11
11.30604557622781
 21
15.36118574109099
 31
0.0
  0
LINE
  5
2C77
  8
OBJECT
 10
11.75704557622781
 20
16.06618574109099
 30
0.0
 11
11.75704557622781
 21
15.946185741090989
 31
0.0
  0
LINE
  5
2C78
  8
OBJECT
 10
11.30604557622781
 20
15.946185741090989
 30
0.0
 11
11.30604557622781
 21
16.06618574109099
 31
0.0
  0
LINE
  5
2C79
  8
OBJECT
 10
11.774045576227801
 20
15.946185741090989
 30
0.0
 11
11.30604557622781
 21
15.946185741090989
 31
0.0
  0
LINE
  5
2C7A
  8
OBJECT
 10
11.774045576227801
 20
15.71118574109099
 30
0.0
 11
11.30604557622781
 21
15.71118574109099
 31
0.0
  0
LINE
  5
2C7B
  8
OBJECT
 10
11.774045576227801
 20
15.831185741090991
 30
0.0
 11
11.30604557622781
 21
15.831185741090991
 31
0.0
  0
LINE
  5
2C7C
  8
OBJECT
 10
11.774045576227801
 20
15.59618574109099
 30
0.0
 11
11.30604557622781
 21
15.59618574109099
 31
0.0
  0
LINE
  5
2C7D
  8
OBJECT
 10
11.75704557622781
 20
15.831185741090991
 30
0.0
 11
11.75704557622781
 21
15.71118574109099
 31
0.0
  0
LINE
  5
2C7E
  8
OBJECT
 10
11.30604557622781
 20
15.71118574109099
 30
0.0
 11
11.30604557622781
 21
15.831185741090991
 31
0.0
  0
LINE
  5
2C7F
  8
HIDDEN
 10
11.498045576227801
 20
16.313685741091
 30
0.0
 11
11.6540455762278
 21
16.313685741091
 31
0.0
  0
LINE
  5
2C80
  8
HIDDEN
 10
11.498045576227801
 20
16.403685741091
 30
0.0
 11
11.6540455762278
 21
16.403685741091
 31
0.0
  0
LINE
  5
2C81
  8
OBJECT
 10
11.774045576227801
 20
16.416185741090992
 30
0.0
 11
11.30604557622781
 21
16.416185741090992
 31
0.0
  0
LINE
  5
2C82
  8
OBJECT
 10
11.774045576227801
 20
16.181185741090989
 30
0.0
 11
11.30604557622781
 21
16.181185741090989
 31
0.0
  0
LINE
  5
2C83
  8
OBJECT
 10
11.774045576227801
 20
16.30118574109099
 30
0.0
 11
11.30604557622781
 21
16.30118574109099
 31
0.0
  0
LINE
  5
2C84
  8
OBJECT
 10
11.774045576227801
 20
16.06618574109099
 30
0.0
 11
11.30604557622781
 21
16.06618574109099
 31
0.0
  0
LINE
  5
2C85
  8
OBJECT
 10
11.75704557622781
 20
16.30118574109099
 30
0.0
 11
11.75704557622781
 21
16.181185741090989
 31
0.0
  0
LINE
  5
2C86
  8
OBJECT
 10
11.30604557622781
 20
16.181185741090989
 30
0.0
 11
11.30604557622781
 21
16.30118574109099
 31
0.0
  0
LINE
  5
2C87
  8
OBJECT
 10
10.825045576227801
 20
15.47618574109099
 30
0.0
 11
10.825045576227801
 21
15.59618574109099
 31
0.0
  0
LINE
  5
2C88
  8
OBJECT
 10
10.3740455762278
 20
15.47618574109099
 30
0.0
 11
10.3740455762278
 21
15.59618574109099
 31
0.0
  0
POLYLINE
  5
2C89
  8
HIDDEN
 66
     1
 10
0.0
 20
0.0
 30
0.0
  0
VERTEX
  5
4221
  8
HIDDEN
 10
10.477045576227811
 20
14.735685741091
 30
0.0
  0
VERTEX
  5
4222
  8
HIDDEN
 10
11.04704557622769
 20
14.735685741091
 30
0.0
  0
VERTEX
  5
4223
  8
HIDDEN
 10
11.04704557622769
 20
14.675685741091
 30
0.0
  0
VERTEX
  5
4224
  8
HIDDEN
 10
10.477045576227811
 20
14.675685741091
 30
0.0
  0
SEQEND
  5
4225
  8
HIDDEN
  0
LINE
  5
2C8A
  8
OBJECT
 10
10.825045576227801
 20
15.47618574109099
 30
0.0
 11
10.357045576227801
 21
15.47618574109099
 31
0.0
  0
LINE
  5
2C8B
  8
OBJECT
 10
10.825045576227801
 20
15.241185741090989
 30
0.0
 11
10.357045576227801
 21
15.241185741090989
 31
0.0
  0
LINE
  5
2C8C
  8
OBJECT
 10
10.825045576227801
 20
15.36118574109099
 30
0.0
 11
10.357045576227801
 21
15.36118574109099
 31
0.0
  0
LINE
  5
2C8D
  8
OBJECT
 10
10.825045576227801
 20
15.00618574109099
 30
0.0
 11
10.357045576227801
 21
15.00618574109099
 31
0.0
  0
LINE
  5
2C8E
  8
OBJECT
 10
10.825045576227801
 20
15.126185741090991
 30
0.0
 11
10.357045576227801
 21
15.126185741090991
 31
0.0
  0
LINE
  5
2C8F
  8
OBJECT
 10
10.825045576227801
 20
14.77118574109099
 30
0.0
 11
10.357045576227801
 21
14.77118574109099
 31
0.0
  0
LINE
  5
2C90
  8
OBJECT
 10
10.825045576227801
 20
14.89118574109099
 30
0.0
 11
10.357045576227801
 21
14.89118574109099
 31
0.0
  0
LINE
  5
2C91
  8
OBJECT
 10
10.825045576227801
 20
14.65618574109099
 30
0.0
 11
10.357045576227801
 21
14.65618574109099
 31
0.0
  0
LINE
  5
2C92
  8
OBJECT
 10
10.825045576227801
 20
15.00618574109099
 30
0.0
 11
10.825045576227801
 21
15.126185741090991
 31
0.0
  0
LINE
  5
2C93
  8
OBJECT
 10
10.825045576227801
 20
14.77118574109099
 30
0.0
 11
10.825045576227801
 21
14.89118574109099
 31
0.0
  0
LINE
  5
2C94
  8
OBJECT
 10
10.825045576227801
 20
15.241185741090989
 30
0.0
 11
10.825045576227801
 21
15.36118574109099
 31
0.0
  0
LINE
  5
2C95
  8
OBJECT
 10
10.3740455762278
 20
15.00618574109099
 30
0.0
 11
10.3740455762278
 21
15.126185741090991
 31
0.0
  0
LINE
  5
2C96
  8
OBJECT
 10
10.3740455762278
 20
14.77118574109099
 30
0.0
 11
10.3740455762278
 21
14.89118574109099
 31
0.0
  0
LINE
  5
2C97
  8
OBJECT
 10
10.3740455762278
 20
15.241185741090989
 30
0.0
 11
10.3740455762278
 21
15.36118574109099
 31
0.0
  0
POLYLINE
  5
2C98
  8
HIDDEN
 66
     1
 10
0.0
 20
0.0
 30
0.0
  0
VERTEX
  5
4226
  8
HIDDEN
 10
10.477045576227811
 20
16.249685741091
 30
0.0
  0
VERTEX
  5
4227
  8
HIDDEN
 10
11.047045576227751
 20
16.249685741091
 30
0.0
  0
VERTEX
  5
4228
  8
HIDDEN
 10
11.047045576227751
 20
16.309685741090998
 30
0.0
  0
VERTEX
  5
4229
  8
HIDDEN
 10
10.477045576227811
 20
16.309685741090998
 30
0.0
  0
SEQEND
  5
422A
  8
HIDDEN
  0
LINE
  5
2C99
  8
HIDDEN
 10
10.63304557622781
 20
16.313685741091
 30
0.0
 11
10.477045576227811
 21
16.313685741091
 31
0.0
  0
LINE
  5
2C9A
  8
HIDDEN
 10
10.63304557622781
 20
16.403685741091
 30
0.0
 11
10.477045576227811
 21
16.403685741091
 31
0.0
  0
LINE
  5
2C9B
  8
OBJECT
 10
10.825045576227801
 20
16.416185741090992
 30
0.0
 11
10.357045576227801
 21
16.416185741090992
 31
0.0
  0
LINE
  5
2C9C
  8
OBJECT
 10
10.825045576227801
 20
16.181185741090989
 30
0.0
 11
10.357045576227801
 21
16.181185741090989
 31
0.0
  0
LINE
  5
2C9D
  8
OBJECT
 10
10.825045576227801
 20
16.30118574109099
 30
0.0
 11
10.357045576227801
 21
16.30118574109099
 31
0.0
  0
LINE
  5
2C9E
  8
OBJECT
 10
10.825045576227801
 20
16.06618574109099
 30
0.0
 11
10.357045576227801
 21
16.06618574109099
 31
0.0
  0
LINE
  5
2C9F
  8
OBJECT
 10
10.825045576227801
 20
15.946185741090989
 30
0.0
 11
10.357045576227801
 21
15.946185741090989
 31
0.0
  0
LINE
  5
2CA0
  8
OBJECT
 10
10.825045576227801
 20
15.71118574109099
 30
0.0
 11
10.357045576227801
 21
15.71118574109099
 31
0.0
  0
LINE
  5
2CA1
  8
OBJECT
 10
10.825045576227801
 20
15.831185741090991
 30
0.0
 11
10.357045576227801
 21
15.831185741090991
 31
0.0
  0
LINE
  5
2CA2
  8
OBJECT
 10
10.825045576227801
 20
15.59618574109099
 30
0.0
 11
10.357045576227801
 21
15.59618574109099
 31
0.0
  0
LINE
  5
2CA3
  8
OBJECT
 10
10.825045576227801
 20
15.946185741090989
 30
0.0
 11
10.825045576227801
 21
16.06618574109099
 31
0.0
  0
LINE
  5
2CA4
  8
OBJECT
 10
10.825045576227801
 20
15.71118574109099
 30
0.0
 11
10.825045576227801
 21
15.831185741090991
 31
0.0
  0
LINE
  5
2CA5
  8
OBJECT
 10
10.825045576227801
 20
16.181185741090989
 30
0.0
 11
10.825045576227801
 21
16.30118574109099
 31
0.0
  0
LINE
  5
2CA6
  8
OBJECT
 10
10.3740455762278
 20
15.946185741090989
 30
0.0
 11
10.3740455762278
 21
16.06618574109099
 31
0.0
  0
LINE
  5
2CA7
  8
OBJECT
 10
10.3740455762278
 20
15.71118574109099
 30
0.0
 11
10.3740455762278
 21
15.831185741090991
 31
0.0
  0
LINE
  5
2CA8
  8
OBJECT
 10
10.3740455762278
 20
16.181185741090982
 30
0.0
 11
10.3740455762278
 21
16.30118574109099
 31
0.0
  0
POLYLINE
  5
2CA9
  8
HIDDEN
 66
     1
 10
0.0
 20
0.0
 30
0.0
  0
VERTEX
  5
422B
  8
HIDDEN
 10
11.6540455762278
 20
18.199685741090999
 30
0.0
  0
VERTEX
  5
422C
  8
HIDDEN
 10
11.084045576227799
 20
18.199685741090999
 30
0.0
  0
VERTEX
  5
422D
  8
HIDDEN
 10
11.084045576227799
 20
18.139685741091
 30
0.0
  0
VERTEX
  5
422E
  8
HIDDEN
 10
11.6540455762278
 20
18.139685741091
 30
0.0
  0
SEQEND
  5
422F
  8
HIDDEN
  0
POLYLINE
  5
2CAA
  8
HIDDEN
 66
     1
 10
0.0
 20
0.0
 30
0.0
  0
VERTEX
  5
4230
  8
HIDDEN
 10
11.6540455762278
 20
17.981685741090999
 30
0.0
  0
VERTEX
  5
4231
  8
HIDDEN
 10
11.084045576227799
 20
17.981685741090999
 30
0.0
  0
VERTEX
  5
4232
  8
HIDDEN
 10
11.084045576227799
 20
18.041685741091001
 30
0.0
  0
VERTEX
  5
4233
  8
HIDDEN
 10
11.6540455762278
 20
18.041685741091001
 30
0.0
  0
SEQEND
  5
4234
  8
HIDDEN
  0
LINE
  5
2CAB
  8
OBJECT
 10
11.774045576227801
 20
16.651185741090991
 30
0.0
 11
11.30604557622781
 21
16.651185741090991
 31
0.0
  0
LINE
  5
2CAC
  8
OBJECT
 10
11.774045576227801
 20
16.771185741090989
 30
0.0
 11
11.30604557622781
 21
16.771185741090989
 31
0.0
  0
LINE
  5
2CAD
  8
OBJECT
 10
11.774045576227801
 20
16.536185741090989
 30
0.0
 11
11.30604557622781
 21
16.536185741090989
 31
0.0
  0
LINE
  5
2CAE
  8
OBJECT
 10
11.75704557622781
 20
16.771185741090989
 30
0.0
 11
11.75704557622781
 21
16.651185741090991
 31
0.0
  0
LINE
  5
2CAF
  8
OBJECT
 10
11.30604557622781
 20
16.651185741090991
 30
0.0
 11
11.30604557622781
 21
16.771185741090989
 31
0.0
  0
LINE
  5
2CB0
  8
OBJECT
 10
11.774045576227801
 20
17.241185741090991
 30
0.0
 11
11.30604557622781
 21
17.241185741090991
 31
0.0
  0
LINE
  5
2CB1
  8
OBJECT
 10
11.774045576227801
 20
17.12118574109099
 30
0.0
 11
11.30604557622781
 21
17.12118574109099
 31
0.0
  0
LINE
  5
2CB2
  8
OBJECT
 10
11.774045576227801
 20
16.886185741090991
 30
0.0
 11
11.30604557622781
 21
16.886185741090991
 31
0.0
  0
LINE
  5
2CB3
  8
OBJECT
 10
11.774045576227801
 20
17.006185741090992
 30
0.0
 11
11.30604557622781
 21
17.006185741090992
 31
0.0
  0
LINE
  5
2CB4
  8
OBJECT
 10
11.75704557622781
 20
17.006185741090992
 30
0.0
 11
11.75704557622781
 21
16.886185741090991
 31
0.0
  0
LINE
  5
2CB5
  8
OBJECT
 10
11.75704557622781
 20
17.241185741090991
 30
0.0
 11
11.75704557622781
 21
17.12118574109099
 31
0.0
  0
LINE
  5
2CB6
  8
OBJECT
 10
11.30604557622781
 20
16.886185741090991
 30
0.0
 11
11.30604557622781
 21
17.006185741090992
 31
0.0
  0
LINE
  5
2CB7
  8
OBJECT
 10
11.30604557622781
 20
17.12118574109099
 30
0.0
 11
11.30604557622781
 21
17.241185741090991
 31
0.0
  0
LINE
  5
2CB8
  8
OBJECT
 10
11.774045576227801
 20
17.71118574109099
 30
0.0
 11
11.30604557622781
 21
17.71118574109099
 31
0.0
  0
LINE
  5
2CB9
  8
OBJECT
 10
11.774045576227801
 20
17.591185741090989
 30
0.0
 11
11.30604557622781
 21
17.591185741090989
 31
0.0
  0
LINE
  5
2CBA
  8
OBJECT
 10
11.774045576227801
 20
17.356185741090989
 30
0.0
 11
11.30604557622781
 21
17.356185741090989
 31
0.0
  0
LINE
  5
2CBB
  8
OBJECT
 10
11.774045576227801
 20
17.47618574109099
 30
0.0
 11
11.30604557622781
 21
17.47618574109099
 31
0.0
  0
LINE
  5
2CBC
  8
OBJECT
 10
11.75704557622781
 20
17.47618574109099
 30
0.0
 11
11.75704557622781
 21
17.356185741090989
 31
0.0
  0
LINE
  5
2CBD
  8
OBJECT
 10
11.75704557622781
 20
17.71118574109099
 30
0.0
 11
11.75704557622781
 21
17.591185741090989
 31
0.0
  0
LINE
  5
2CBE
  8
OBJECT
 10
11.30604557622781
 20
17.356185741090989
 30
0.0
 11
11.30604557622781
 21
17.47618574109099
 31
0.0
  0
LINE
  5
2CBF
  8
OBJECT
 10
11.30604557622781
 20
17.591185741090989
 30
0.0
 11
11.30604557622781
 21
17.71118574109099
 31
0.0
  0
LINE
  5
2CC0
  8
OBJECT
 10
11.774045576227801
 20
18.061185741090991
 30
0.0
 11
11.30604557622781
 21
18.061185741090991
 31
0.0
  0
LINE
  5
2CC1
  8
OBJECT
 10
11.774045576227801
 20
18.181185741090989
 30
0.0
 11
11.30604557622781
 21
18.181185741090989
 31
0.0
  0
LINE
  5
2CC2
  8
OBJECT
 10
11.774045576227801
 20
17.826185741090988
 30
0.0
 11
11.30604557622781
 21
17.826185741090988
 31
0.0
  0
LINE
  5
2CC3
  8
OBJECT
 10
11.774045576227801
 20
17.946185741090979
 30
0.0
 11
11.30604557622781
 21
17.946185741090979
 31
0.0
  0
LINE
  5
2CC4
  8
OBJECT
 10
11.75704557622781
 20
17.946185741090979
 30
0.0
 11
11.75704557622781
 21
17.826185741090988
 31
0.0
  0
LINE
  5
2CC5
  8
OBJECT
 10
11.75704557622781
 20
18.181185741090989
 30
0.0
 11
11.75704557622781
 21
18.061185741090991
 31
0.0
  0
LINE
  5
2CC6
  8
OBJECT
 10
11.30604557622781
 20
17.826185741090988
 30
0.0
 11
11.30604557622781
 21
17.946185741090979
 31
0.0
  0
LINE
  5
2CC7
  8
OBJECT
 10
11.30604557622781
 20
18.061185741090991
 30
0.0
 11
11.30604557622781
 21
18.181185741090989
 31
0.0
  0
LINE
  5
2CC8
  8
OBJECT
 10
10.825045576227801
 20
17.12118574109099
 30
0.0
 11
10.357045576227801
 21
17.12118574109099
 31
0.0
  0
LINE
  5
2CC9
  8
OBJECT
 10
10.825045576227801
 20
17.241185741090991
 30
0.0
 11
10.357045576227801
 21
17.241185741090991
 31
0.0
  0
LINE
  5
2CCA
  8
OBJECT
 10
10.825045576227801
 20
16.886185741090991
 30
0.0
 11
10.357045576227801
 21
16.886185741090991
 31
0.0
  0
LINE
  5
2CCB
  8
OBJECT
 10
10.825045576227801
 20
17.006185741090992
 30
0.0
 11
10.357045576227801
 21
17.006185741090992
 31
0.0
  0
LINE
  5
2CCC
  8
OBJECT
 10
10.825045576227801
 20
16.651185741090991
 30
0.0
 11
10.357045576227801
 21
16.651185741090991
 31
0.0
  0
LINE
  5
2CCD
  8
OBJECT
 10
10.825045576227801
 20
16.771185741090989
 30
0.0
 11
10.357045576227801
 21
16.771185741090989
 31
0.0
  0
LINE
  5
2CCE
  8
OBJECT
 10
10.825045576227801
 20
16.536185741090989
 30
0.0
 11
10.357045576227801
 21
16.536185741090989
 31
0.0
  0
LINE
  5
2CCF
  8
OBJECT
 10
10.825045576227801
 20
16.651185741090991
 30
0.0
 11
10.825045576227801
 21
16.771185741090989
 31
0.0
  0
LINE
  5
2CD0
  8
OBJECT
 10
10.825045576227801
 20
16.886185741090991
 30
0.0
 11
10.825045576227801
 21
17.006185741090992
 31
0.0
  0
LINE
  5
2CD1
  8
OBJECT
 10
10.825045576227801
 20
17.12118574109099
 30
0.0
 11
10.825045576227801
 21
17.241185741090991
 31
0.0
  0
LINE
  5
2CD2
  8
OBJECT
 10
10.3740455762278
 20
16.651185741090991
 30
0.0
 11
10.3740455762278
 21
16.771185741090989
 31
0.0
  0
LINE
  5
2CD3
  8
OBJECT
 10
10.3740455762278
 20
16.886185741090991
 30
0.0
 11
10.3740455762278
 21
17.006185741090992
 31
0.0
  0
LINE
  5
2CD4
  8
OBJECT
 10
10.3740455762278
 20
17.12118574109099
 30
0.0
 11
10.3740455762278
 21
17.241185741090991
 31
0.0
  0
POLYLINE
  5
2CD5
  8
HIDDEN
 66
     1
 10
0.0
 20
0.0
 30
0.0
  0
VERTEX
  5
4235
  8
HIDDEN
 10
10.4970455762278
 20
18.199685741090999
 30
0.0
  0
VERTEX
  5
4236
  8
HIDDEN
 10
11.0470455762278
 20
18.199685741090999
 30
0.0
  0
VERTEX
  5
4237
  8
HIDDEN
 10
11.0470455762278
 20
18.139685741091
 30
0.0
  0
VERTEX
  5
4238
  8
HIDDEN
 10
10.4970455762278
 20
18.139685741091
 30
0.0
  0
SEQEND
  5
4239
  8
HIDDEN
  0
POLYLINE
  5
2CD6
  8
HIDDEN
 66
     1
 10
0.0
 20
0.0
 30
0.0
  0
VERTEX
  5
423A
  8
HIDDEN
 10
10.4970455762278
 20
17.981685741090999
 30
0.0
  0
VERTEX
  5
423B
  8
HIDDEN
 10
11.0470455762278
 20
17.981685741090999
 30
0.0
  0
VERTEX
  5
423C
  8
HIDDEN
 10
11.0470455762278
 20
18.041685741091001
 30
0.0
  0
VERTEX
  5
423D
  8
HIDDEN
 10
10.4970455762278
 20
18.041685741091001
 30
0.0
  0
SEQEND
  5
423E
  8
HIDDEN
  0
LINE
  5
2CD7
  8
OBJECT
 10
10.825045576227801
 20
18.061185741090991
 30
0.0
 11
10.357045576227801
 21
18.061185741090991
 31
0.0
  0
LINE
  5
2CD8
  8
OBJECT
 10
10.825045576227801
 20
18.181185741090989
 30
0.0
 11
10.357045576227801
 21
18.181185741090989
 31
0.0
  0
LINE
  5
2CD9
  8
OBJECT
 10
10.825045576227801
 20
17.826185741090988
 30
0.0
 11
10.357045576227801
 21
17.826185741090988
 31
0.0
  0
LINE
  5
2CDA
  8
OBJECT
 10
10.825045576227801
 20
17.946185741090979
 30
0.0
 11
10.357045576227801
 21
17.946185741090979
 31
0.0
  0
LINE
  5
2CDB
  8
OBJECT
 10
10.825045576227801
 20
17.71118574109099
 30
0.0
 11
10.357045576227801
 21
17.71118574109099
 31
0.0
  0
LINE
  5
2CDC
  8
OBJECT
 10
10.825045576227801
 20
17.591185741090989
 30
0.0
 11
10.357045576227801
 21
17.591185741090989
 31
0.0
  0
LINE
  5
2CDD
  8
OBJECT
 10
10.825045576227801
 20
17.356185741090989
 30
0.0
 11
10.357045576227801
 21
17.356185741090989
 31
0.0
  0
LINE
  5
2CDE
  8
OBJECT
 10
10.825045576227801
 20
17.47618574109099
 30
0.0
 11
10.357045576227801
 21
17.47618574109099
 31
0.0
  0
LINE
  5
2CDF
  8
OBJECT
 10
10.825045576227801
 20
17.356185741090989
 30
0.0
 11
10.825045576227801
 21
17.47618574109099
 31
0.0
  0
LINE
  5
2CE0
  8
OBJECT
 10
10.825045576227801
 20
17.591185741090989
 30
0.0
 11
10.825045576227801
 21
17.71118574109099
 31
0.0
  0
LINE
  5
2CE1
  8
OBJECT
 10
10.825045576227801
 20
17.826185741090988
 30
0.0
 11
10.825045576227801
 21
17.946185741090979
 31
0.0
  0
LINE
  5
2CE2
  8
OBJECT
 10
10.825045576227801
 20
18.061185741090991
 30
0.0
 11
10.825045576227801
 21
18.181185741090989
 31
0.0
  0
LINE
  5
2CE3
  8
OBJECT
 10
10.3740455762278
 20
17.356185741090989
 30
0.0
 11
10.3740455762278
 21
17.47618574109099
 31
0.0
  0
LINE
  5
2CE4
  8
OBJECT
 10
10.3740455762278
 20
17.591185741090989
 30
0.0
 11
10.3740455762278
 21
17.71118574109099
 31
0.0
  0
LINE
  5
2CE5
  8
OBJECT
 10
10.3740455762278
 20
17.826185741090988
 30
0.0
 11
10.3740455762278
 21
17.946185741090979
 31
0.0
  0
LINE
  5
2CE6
  8
OBJECT
 10
10.3740455762278
 20
18.061185741090991
 30
0.0
 11
10.3740455762278
 21
18.181185741090989
 31
0.0
  0
LINE
  5
2CE7
  8
HIDDEN
 10
11.584045576227799
 20
19.49468574109099
 30
0.0
 11
11.069045576227801
 21
19.49468574109099
 31
0.0
  0
LINE
  5
2CE8
  8
HIDDEN
 10
11.584045576227799
 20
19.364685741090991
 30
0.0
 11
11.069045576227801
 21
19.364685741090991
 31
0.0
  0
POLYLINE
  5
2CE9
  8
HIDDEN
 66
     1
 10
0.0
 20
0.0
 30
0.0
  0
VERTEX
  5
423F
  8
HIDDEN
 10
11.6540455762278
 20
19.281685741091
 30
0.0
  0
VERTEX
  5
4240
  8
HIDDEN
 10
11.069045576227801
 20
19.281685741091
 30
0.0
  0
VERTEX
  5
4241
  8
HIDDEN
 10
11.069045576227801
 20
19.577685741090988
 30
0.0
  0
VERTEX
  5
4242
  8
HIDDEN
 10
11.6540455762278
 20
19.577685741090988
 30
0.0
  0
SEQEND
  5
4243
  8
HIDDEN
  0
LINE
  5
2CEA
  8
HIDDEN
 10
10.477045576227811
 20
19.696685741090992
 30
0.0
 11
11.6540455762278
 21
19.696685741090992
 31
0.0
  0
LINE
  5
2CEB
  8
HIDDEN
 10
10.4655455762278
 20
19.74168574109099
 30
0.0
 11
11.6655455762278
 21
19.74168574109099
 31
0.0
  0
LINE
  5
2CEC
  8
HIDDEN
 10
10.465545576227809
 20
19.836685741090989
 30
0.0
 11
11.6655455762278
 21
19.836685741090989
 31
0.0
  0
LINE
  5
2CED
  8
OBJECT
 10
10.357045576227801
 20
19.90168574109099
 30
0.0
 11
11.774045576227801
 21
19.90168574109099
 31
0.0
  0
POLYLINE
  5
2CEE
  8
HIDDEN
 66
     1
 10
0.0
 20
0.0
 30
0.0
  0
VERTEX
  5
4244
  8
HIDDEN
 10
11.6540455762278
 20
18.598685741091
 30
0.0
  0
VERTEX
  5
4245
  8
HIDDEN
 10
11.498045576227801
 20
18.598685741091
 30
0.0
  0
VERTEX
  5
4246
  8
HIDDEN
 10
11.498045576227801
 20
18.814685741091001
 30
0.0
  0
VERTEX
  5
4247
  8
HIDDEN
 10
11.6540455762278
 20
18.814685741091001
 30
0.0
  0
SEQEND
  5
4248
  8
HIDDEN
  0
LINE
  5
2CEF
  8
HIDDEN
 10
11.498045576227801
 20
18.661685741090992
 30
0.0
 11
11.6540455762278
 21
18.661685741090992
 31
0.0
  0
LINE
  5
2CF0
  8
OBJECT
 10
11.774045576227801
 20
18.53118574109099
 30
0.0
 11
11.30604557622781
 21
18.53118574109099
 31
0.0
  0
LINE
  5
2CF1
  8
OBJECT
 10
11.774045576227801
 20
18.651185741090991
 30
0.0
 11
11.30604557622781
 21
18.651185741090991
 31
0.0
  0
LINE
  5
2CF2
  8
OBJECT
 10
11.774045576227801
 20
18.296185741090991
 30
0.0
 11
11.30604557622781
 21
18.296185741090991
 31
0.0
  0
LINE
  5
2CF3
  8
OBJECT
 10
11.774045576227801
 20
18.416185741090981
 30
0.0
 11
11.30604557622781
 21
18.416185741090992
 31
0.0
  0
LINE
  5
2CF4
  8
OBJECT
 10
11.75704557622781
 20
18.416185741090981
 30
0.0
 11
11.75704557622781
 21
18.296185741090991
 31
0.0
  0
LINE
  5
2CF5
  8
OBJECT
 10
11.75704557622781
 20
18.65118574109098
 30
0.0
 11
11.75704557622781
 21
18.53118574109099
 31
0.0
  0
LINE
  5
2CF6
  8
OBJECT
 10
11.30604557622781
 20
18.296185741090991
 30
0.0
 11
11.30604557622781
 21
18.416185741090992
 31
0.0
  0
LINE
  5
2CF7
  8
OBJECT
 10
11.30604557622781
 20
18.53118574109099
 30
0.0
 11
11.30604557622781
 21
18.651185741090991
 31
0.0
  0
LINE
  5
2CF8
  8
HIDDEN
 10
11.498045576227801
 20
18.751685741090999
 30
0.0
 11
11.6540455762278
 21
18.751685741090999
 31
0.0
  0
LINE
  5
2CF9
  8
OBJECT
 10
11.774045576227801
 20
19.001185741090978
 30
0.0
 11
11.30604557622781
 21
19.001185741090989
 31
0.0
  0
LINE
  5
2CFA
  8
OBJECT
 10
11.774045576227801
 20
19.12118574109099
 30
0.0
 11
11.30604557622781
 21
19.12118574109099
 31
0.0
  0
LINE
  5
2CFB
  8
OBJECT
 10
11.774045576227801
 20
18.886185741090991
 30
0.0
 11
11.30604557622781
 21
18.886185741090991
 31
0.0
  0
LINE
  5
2CFC
  8
OBJECT
 10
11.774045576227801
 20
18.766185741090979
 30
0.0
 11
11.30604557622781
 21
18.76618574109099
 31
0.0
  0
LINE
  5
2CFD
  8
OBJECT
 10
11.75704557622781
 20
18.886185741090991
 30
0.0
 11
11.75704557622781
 21
18.766185741090979
 31
0.0
  0
LINE
  5
2CFE
  8
OBJECT
 10
11.75704557622781
 20
19.12118574109099
 30
0.0
 11
11.75704557622781
 21
19.001185741090978
 31
0.0
  0
LINE
  5
2CFF
  8
OBJECT
 10
11.30604557622781
 20
18.76618574109099
 30
0.0
 11
11.30604557622781
 21
18.886185741090991
 31
0.0
  0
LINE
  5
2D00
  8
OBJECT
 10
11.30604557622781
 20
19.001185741090989
 30
0.0
 11
11.30604557622781
 21
19.12118574109099
 31
0.0
  0
LINE
  5
2D01
  8
OBJECT
 10
11.30604557622781
 20
19.611185741090981
 30
0.0
 11
11.30604557622781
 21
19.236185741090988
 31
0.0
  0
LINE
  5
2D02
  8
OBJECT
 10
11.75704557622781
 20
19.236185741090988
 30
0.0
 11
11.75704557622781
 21
19.611185741090981
 31
0.0
  0
POLYLINE
  5
2D03
  8
HIDDEN
 66
     1
 10
0.0
 20
0.0
 30
0.0
  0
VERTEX
  5
4249
  8
HIDDEN
 10
11.774045576227801
 20
19.544685741090991
 30
0.0
  0
VERTEX
  5
424A
  8
HIDDEN
 10
11.584045576227799
 20
19.544685741090991
 30
0.0
  0
VERTEX
  5
424B
  8
HIDDEN
 10
11.584045576227799
 20
19.314685741091001
 30
0.0
  0
VERTEX
  5
424C
  8
HIDDEN
 10
11.774045576227801
 20
19.314685741091001
 30
0.0
  0
SEQEND
  5
424D
  8
HIDDEN
  0
LINE
  5
2D04
  8
OBJECT
 10
11.774045576227801
 20
19.236185741090988
 30
0.0
 11
11.30604557622781
 21
19.236185741090988
 31
0.0
  0
LINE
  5
2D05
  8
HIDDEN
 10
11.584045576227799
 20
19.836685741090989
 30
0.0
 11
11.6540455762278
 21
19.90168574109099
 31
0.0
  0
LINE
  5
2D06
  8
OBJECT
 10
11.774045576227801
 20
19.611185741090981
 30
0.0
 11
11.30604557622781
 21
19.611185741090981
 31
0.0
  0
LINE
  5
2D07
  8
OBJECT
 10
11.774045576227801
 20
19.611185741090981
 30
0.0
 11
11.30604557622781
 21
19.611185741090981
 31
0.0
  0
LINE
  5
2D08
  8
HIDDEN
 10
11.6655455762278
 20
19.74168574109099
 30
0.0
 11
11.6655455762278
 21
19.836685741090989
 31
0.0
  0
LINE
  5
2D09
  8
HIDDEN
 10
11.584045576227799
 20
19.74168574109099
 30
0.0
 11
11.584045576227799
 21
19.696685741090992
 31
0.0
  0
LINE
  5
2D0A
  8
HIDDEN
 10
10.63304557622781
 20
18.661685741090992
 30
0.0
 11
10.477045576227811
 21
18.661685741090992
 31
0.0
  0
LINE
  5
2D0B
  8
HIDDEN
 10
10.63304557622781
 20
18.751685741090999
 30
0.0
 11
10.477045576227811
 21
18.751685741090999
 31
0.0
  0
POLYLINE
  5
2D0C
  8
HIDDEN
 66
     1
 10
0.0
 20
0.0
 30
0.0
  0
VERTEX
  5
424E
  8
HIDDEN
 10
10.477045576227811
 20
18.598685741091
 30
0.0
  0
VERTEX
  5
424F
  8
HIDDEN
 10
10.63304557622781
 20
18.598685741091
 30
0.0
  0
VERTEX
  5
4250
  8
HIDDEN
 10
10.63304557622781
 20
18.814685741091001
 30
0.0
  0
VERTEX
  5
4251
  8
HIDDEN
 10
10.477045576227811
 20
18.814685741091001
 30
0.0
  0
SEQEND
  5
4252
  8
HIDDEN
  0
LINE
  5
2D0D
  8
OBJECT
 10
10.825045576227801
 20
19.001185741090978
 30
0.0
 11
10.357045576227801
 21
19.001185741090978
 31
0.0
  0
LINE
  5
2D0E
  8
OBJECT
 10
10.825045576227801
 20
19.12118574109099
 30
0.0
 11
10.357045576227801
 21
19.12118574109099
 31
0.0
  0
LINE
  5
2D0F
  8
OBJECT
 10
10.825045576227801
 20
18.766185741090979
 30
0.0
 11
10.357045576227801
 21
18.766185741090979
 31
0.0
  0
LINE
  5
2D10
  8
OBJECT
 10
10.825045576227801
 20
18.886185741090991
 30
0.0
 11
10.357045576227801
 21
18.886185741090991
 31
0.0
  0
LINE
  5
2D11
  8
OBJECT
 10
10.825045576227801
 20
18.53118574109099
 30
0.0
 11
10.357045576227801
 21
18.53118574109099
 31
0.0
  0
LINE
  5
2D12
  8
OBJECT
 10
10.825045576227801
 20
18.651185741090991
 30
0.0
 11
10.357045576227801
 21
18.651185741090991
 31
0.0
  0
LINE
  5
2D13
  8
OBJECT
 10
10.825045576227801
 20
18.296185741090991
 30
0.0
 11
10.357045576227801
 21
18.296185741090991
 31
0.0
  0
LINE
  5
2D14
  8
OBJECT
 10
10.825045576227801
 20
18.416185741090981
 30
0.0
 11
10.357045576227801
 21
18.416185741090981
 31
0.0
  0
LINE
  5
2D15
  8
OBJECT
 10
10.825045576227801
 20
18.296185741090991
 30
0.0
 11
10.825045576227801
 21
18.416185741090981
 31
0.0
  0
LINE
  5
2D16
  8
OBJECT
 10
10.825045576227801
 20
18.53118574109099
 30
0.0
 11
10.825045576227801
 21
18.651185741090991
 31
0.0
  0
LINE
  5
2D17
  8
OBJECT
 10
10.825045576227801
 20
18.76618574109099
 30
0.0
 11
10.825045576227801
 21
18.886185741090991
 31
0.0
  0
LINE
  5
2D18
  8
OBJECT
 10
10.825045576227801
 20
19.001185741090989
 30
0.0
 11
10.825045576227801
 21
19.12118574109099
 31
0.0
  0
LINE
  5
2D19
  8
OBJECT
 10
10.3740455762278
 20
18.296185741090991
 30
0.0
 11
10.3740455762278
 21
18.416185741090981
 31
0.0
  0
LINE
  5
2D1A
  8
OBJECT
 10
10.3740455762278
 20
18.53118574109099
 30
0.0
 11
10.3740455762278
 21
18.651185741090991
 31
0.0
  0
LINE
  5
2D1B
  8
OBJECT
 10
10.3740455762278
 20
18.766185741090979
 30
0.0
 11
10.3740455762278
 21
18.886185741090991
 31
0.0
  0
LINE
  5
2D1C
  8
OBJECT
 10
10.3740455762278
 20
19.001185741090978
 30
0.0
 11
10.3740455762278
 21
19.12118574109099
 31
0.0
  0
LINE
  5
2D1D
  8
HIDDEN
 10
10.5470455762278
 20
19.836685741090989
 30
0.0
 11
10.477045576227811
 21
19.90168574109099
 31
0.0
  0
POLYLINE
  5
2D1E
  8
HIDDEN
 66
     1
 10
0.0
 20
0.0
 30
0.0
  0
VERTEX
  5
4253
  8
HIDDEN
 10
10.477045576227811
 20
19.281685741091
 30
0.0
  0
VERTEX
  5
4254
  8
HIDDEN
 10
11.06204557622781
 20
19.281685741091
 30
0.0
  0
VERTEX
  5
4255
  8
HIDDEN
 10
11.06204557622781
 20
19.577685741090988
 30
0.0
  0
VERTEX
  5
4256
  8
HIDDEN
 10
10.477045576227811
 20
19.577685741090988
 30
0.0
  0
SEQEND
  5
4257
  8
HIDDEN
  0
POLYLINE
  5
2D1F
  8
HIDDEN
 66
     1
 10
0.0
 20
0.0
 30
0.0
  0
VERTEX
  5
4258
  8
HIDDEN
 10
11.06204557622781
 20
19.47468574109099
 30
0.0
  0
VERTEX
  5
4259
  8
HIDDEN
 10
10.4170455762278
 20
19.47468574109099
 30
0.0
  0
VERTEX
  5
425A
  8
HIDDEN
 10
10.4170455762278
 20
19.384685741090991
 30
0.0
  0
VERTEX
  5
425B
  8
HIDDEN
 10
11.06204557622781
 20
19.384685741090991
 30
0.0
  0
SEQEND
  5
425C
  8
HIDDEN
  0
LINE
  5
2D20
  8
OBJECT
 10
10.825045576227801
 20
19.611185741090981
 30
0.0
 11
10.357045576227801
 21
19.611185741090981
 31
0.0
  0
LINE
  5
2D21
  8
OBJECT
 10
10.825045576227801
 20
19.611185741090988
 30
0.0
 11
10.357045576227801
 21
19.611185741090981
 31
0.0
  0
LINE
  5
2D22
  8
OBJECT
 10
10.825045576227801
 20
19.236185741090988
 30
0.0
 11
10.357045576227801
 21
19.236185741090988
 31
0.0
  0
LINE
  5
2D23
  8
OBJECT
 10
10.825045576227801
 20
19.611185741090988
 30
0.0
 11
10.825045576227801
 21
19.236185741090988
 31
0.0
  0
LINE
  5
2D24
  8
HIDDEN
 10
10.5470455762278
 20
19.74168574109099
 30
0.0
 11
10.5470455762278
 21
19.696685741090992
 31
0.0
  0
LINE
  5
2D25
  8
OBJECT
 10
10.3740455762278
 20
19.611185741090981
 30
0.0
 11
10.3740455762278
 21
19.236185741090988
 31
0.0
  0
LINE
  5
2D26
  8
HIDDEN
 10
10.4655455762278
 20
19.74168574109099
 30
0.0
 11
10.465545576227809
 21
19.836685741090989
 31
0.0
  0
POLYLINE
  8
0
  5
4388
  66
     1
 10
0.000000
 20
0.000000
 30
0.000000
  70
     8
  0
VERTEX
  8
0
  5
4389
 10
1.48568
 20
16.5951
 30
0.000000
  70
    32
  0
VERTEX
  8
0
  5
438A
 10
1.48595
 20
16.5951
 30
0.000000
  70
    32
  0
VERTEX
  8
0
  5
438B
 10
1.48675
 20
16.5951
 30
0.000000
  70
    32
  0
VERTEX
  8
0
  5
438C
 10
1.48806
 20
16.5950
 30
0.000000
  70
    32
  0
VERTEX
  8
0
  5
438D
 10
1.48989
 20
16.5949
 30
0.000000
  70
    32
  0
VERTEX
  8
0
  5
438E
 10
1.49221
 20
16.5947
 30
0.000000
  70
    32
  0
VERTEX
  8
0
  5
438F
 10
1.49502
 20
16.5946
 30
0.000000
  70
    32
  0
VERTEX
  8
0
  5
4390
 10
1.49832
 20
16.5944
 30
0.000000
  70
    32
  0
VERTEX
  8
0
  5
4391
 10
1.50208
 20
16.5942
 30
0.000000
  70
    32
  0
VERTEX
  8
0
  5
4392
 10
1.50630
 20
16.5940
 30
0.000000
  70
    32
  0
VERTEX
  8
0
  5
4393
 10
1.51097
 20
16.5937
 30
0.000000
  70
    32
  0
VERTEX
  8
0
  5
4394
 10
1.51607
 20
16.5935
 30
0.000000
  70
    32
  0
VERTEX
  8
0
  5
4395
 10
1.52161
 20
16.5932
 30
0.000000
  70
    32
  0
VERTEX
  8
0
  5
4396
 10
1.52756
 20
16.5930
 30
0.000000
  70
    32
  0
VERTEX
  8
0
  5
4397
 10
1.53393
 20
16.5927
 30
0.000000
  70
    32
  0
VERTEX
  8
0
  5
4398
 10
1.54069
 20
16.5924
 30
0.000000
  70
    32
  0
VERTEX
  8
0
  5
4399
 10
1.54784
 20
16.5921
 30
0.000000
  70
    32
  0
VERTEX
  8
0
  5
439A
 10
1.55536
 20
16.5919
 30
0.000000
  70
    32
  0
VERTEX
  8
0
  5
439B
 10
1.56326
 20
16.5916
 30
0.000000
  70
    32
  0
VERTEX
  8
0
  5
439C
 10
1.57152
 20
16.5914
 30
0.000000
  70
    32
  0
VERTEX
  8
0
  5
439D
 10
1.58012
 20
16.5911
 30
0.000000
  70
    32
  0
VERTEX
  8
0
  5
439E
 10
1.58906
 20
16.5909
 30
0.000000
  70
    32
  0
VERTEX
  8
0
  5
439F
 10
1.59833
 20
16.5906
 30
0.000000
  70
    32
  0
VERTEX
  8
0
  5
43A0
 10
1.60792
 20
16.5904
 30
0.000000
  70
    32
  0
VERTEX
  8
0
  5
43A1
 10
1.61781
 20
16.5902
 30
0.000000
  70
    32
  0
VERTEX
  8
0
  5
43A2
 10
1.62800
 20
16.5901
 30
0.000000
  70
    32
  0
VERTEX
  8
0
  5
43A3
 10
1.63848
 20
16.5899
 30
0.000000
  70
    32
  0
VERTEX
  8
0
  5
43A4
 10
1.64924
 20
16.5898
 30
0.000000
  70
    32
  0
VERTEX
  8
0
  5
43A5
 10
1.66027
 20
16.5897
 30
0.000000
  70
    32
  0
VERTEX
  8
0
  5
43A6
 10
1.67155
 20
16.5896
 30
0.000000
  70
    32
  0
VERTEX
  8
0
  5
43A7
 10
1.68308
 20
16.5896
 30
0.000000
  70
    32
  0
VERTEX
  8
0
  5
43A8
 10
1.69485
 20
16.5896
 30
0.000000
  70
    32
  0
VERTEX
  8
0
  5
43A9
 10
1.70685
 20
16.5897
 30
0.000000
  70
    32
  0
VERTEX
  8
0
  5
43AA
 10
1.71906
 20
16.5897
 30
0.000000
  70
    32
  0
VERTEX
  8
0
  5
43AB
 10
1.73149
 20
16.5899
 30
0.000000
  70
    32
  0
VERTEX
  8
0
  5
43AC
 10
1.74411
 20
16.5900
 30
0.000000
  70
    32
  0
VERTEX
  8
0
  5
43AD
 10
1.75691
 20
16.5903
 30
0.000000
  70
    32
  0
VERTEX
  8
0
  5
43AE
 10
1.76990
 20
16.5905
 30
0.000000
  70
    32
  0
VERTEX
  8
0
  5
43AF
 10
1.78305
 20
16.5908
 30
0.000000
  70
    32
  0
VERTEX
  8
0
  5
43B0
 10
1.79636
 20
16.5912
 30
0.000000
  70
    32
  0
VERTEX
  8
0
  5
43B1
 10
1.80981
 20
16.5916
 30
0.000000
  70
    32
  0
VERTEX
  8
0
  5
43B2
 10
1.82340
 20
16.5921
 30
0.000000
  70
    32
  0
VERTEX
  8
0
  5
43B3
 10
1.83712
 20
16.5927
 30
0.000000
  70
    32
  0
VERTEX
  8
0
  5
43B4
 10
1.85096
 20
16.5933
 30
0.000000
  70
    32
  0
VERTEX
  8
0
  5
43B5
 10
1.86490
 20
16.5940
 30
0.000000
  70
    32
  0
VERTEX
  8
0
  5
43B6
 10
1.87894
 20
16.5947
 30
0.000000
  70
    32
  0
VERTEX
  8
0
  5
43B7
 10
1.89307
 20
16.5955
 30
0.000000
  70
    32
  0
VERTEX
  8
0
  5
43B8
 10
1.90727
 20
16.5964
 30
0.000000
  70
    32
  0
VERTEX
  8
0
  5
43B9
 10
1.92154
 20
16.5974
 30
0.000000
  70
    32
  0
VERTEX
  8
0
  5
43BA
 10
1.93587
 20
16.5984
 30
0.000000
  70
    32
  0
VERTEX
  8
0
  5
43BB
 10
1.95024
 20
16.5995
 30
0.000000
  70
    32
  0
VERTEX
  8
0
  5
43BC
 10
1.96465
 20
16.6007
 30
0.000000
  70
    32
  0
VERTEX
  8
0
  5
43BD
 10
1.97909
 20
16.6020
 30
0.000000
  70
    32
  0
VERTEX
  8
0
  5
43BE
 10
1.99354
 20
16.6034
 30
0.000000
  70
    32
  0
VERTEX
  8
0
  5
43BF
 10
2.00800
 20
16.6049
 30
0.000000
  70
    32
  0
VERTEX
  8
0
  5
43C0
 10
2.02246
 20
16.6064
 30
0.000000
  70
    32
  0
VERTEX
  8
0
  5
43C1
 10
2.03690
 20
16.6081
 30
0.000000
  70
    32
  0
VERTEX
  8
0
  5
43C2
 10
2.05132
 20
16.6098
 30
0.000000
  70
    32
  0
VERTEX
  8
0
  5
43C3
 10
2.06570
 20
16.6117
 30
0.000000
  70
    32
  0
VERTEX
  8
0
  5
43C4
 10
2.08004
 20
16.6136
 30
0.000000
  70
    32
  0
VERTEX
  8
0
  5
43C5
 10
2.09433
 20
16.6157
 30
0.000000
  70
    32
  0
VERTEX
  8
0
  5
43C6
 10
2.10855
 20
16.6178
 30
0.000000
  70
    32
  0
VERTEX
  8
0
  5
43C7
 10
2.12270
 20
16.6201
 30
0.000000
  70
    32
  0
VERTEX
  8
0
  5
43C8
 10
2.13676
 20
16.6225
 30
0.000000
  70
    32
  0
VERTEX
  8
0
  5
43C9
 10
2.15073
 20
16.6249
 30
0.000000
  70
    32
  0
VERTEX
  8
0
  5
43CA
 10
2.16460
 20
16.6276
 30
0.000000
  70
    32
  0
VERTEX
  8
0
  5
43CB
 10
2.17835
 20
16.6303
 30
0.000000
  70
    32
  0
VERTEX
  8
0
  5
43CC
 10
2.19198
 20
16.6331
 30
0.000000
  70
    32
  0
VERTEX
  8
0
  5
43CD
 10
2.20547
 20
16.6361
 30
0.000000
  70
    32
  0
VERTEX
  8
0
  5
43CE
 10
2.21882
 20
16.6392
 30
0.000000
  70
    32
  0
VERTEX
  8
0
  5
43CF
 10
2.23201
 20
16.6424
 30
0.000000
  70
    32
  0
VERTEX
  8
0
  5
43D0
 10
2.24504
 20
16.6457
 30
0.000000
  70
    32
  0
VERTEX
  8
0
  5
43D1
 10
2.25790
 20
16.6492
 30
0.000000
  70
    32
  0
VERTEX
  8
0
  5
43D2
 10
2.27059
 20
16.6528
 30
0.000000
  70
    32
  0
VERTEX
  8
0
  5
43D3
 10
2.28311
 20
16.6565
 30
0.000000
  70
    32
  0
VERTEX
  8
0
  5
43D4
 10
2.29547
 20
16.6603
 30
0.000000
  70
    32
  0
VERTEX
  8
0
  5
43D5
 10
2.30768
 20
16.6642
 30
0.000000
  70
    32
  0
VERTEX
  8
0
  5
43D6
 10
2.31973
 20
16.6682
 30
0.000000
  70
    32
  0
VERTEX
  8
0
  5
43D7
 10
2.33163
 20
16.6723
 30
0.000000
  70
    32
  0
VERTEX
  8
0
  5
43D8
 10
2.34338
 20
16.6764
 30
0.000000
  70
    32
  0
VERTEX
  8
0
  5
43D9
 10
2.35500
 20
16.6806
 30
0.000000
  70
    32
  0
VERTEX
  8
0
  5
43DA
 10
2.36647
 20
16.6848
 30
0.000000
  70
    32
  0
VERTEX
  8
0
  5
43DB
 10
2.37781
 20
16.6891
 30
0.000000
  70
    32
  0
VERTEX
  8
0
  5
43DC
 10
2.38901
 20
16.6934
 30
0.000000
  70
    32
  0
VERTEX
  8
0
  5
43DD
 10
2.40009
 20
16.6977
 30
0.000000
  70
    32
  0
VERTEX
  8
0
  5
43DE
 10
2.41104
 20
16.7021
 30
0.000000
  70
    32
  0
VERTEX
  8
0
  5
43DF
 10
2.42188
 20
16.7064
 30
0.000000
  70
    32
  0
VERTEX
  8
0
  5
43E0
 10
2.43259
 20
16.7107
 30
0.000000
  70
    32
  0
VERTEX
  8
0
  5
43E1
 10
2.44320
 20
16.7150
 30
0.000000
  70
    32
  0
VERTEX
  8
0
  5
43E2
 10
2.45369
 20
16.7193
 30
0.000000
  70
    32
  0
VERTEX
  8
0
  5
43E3
 10
2.46408
 20
16.7235
 30
0.000000
  70
    32
  0
VERTEX
  8
0
  5
43E4
 10
2.47437
 20
16.7277
 30
0.000000
  70
    32
  0
VERTEX
  8
0
  5
43E5
 10
2.48456
 20
16.7319
 30
0.000000
  70
    32
  0
VERTEX
  8
0
  5
43E6
 10
2.49465
 20
16.7360
 30
0.000000
  70
    32
  0
VERTEX
  8
0
  5
43E7
 10
2.50466
 20
16.7400
 30
0.000000
  70
    32
  0
VERTEX
  8
0
  5
43E8
 10
2.51457
 20
16.7439
 30
0.000000
  70
    32
  0
VERTEX
  8
0
  5
43E9
 10
2.52441
 20
16.7477
 30
0.000000
  70
    32
  0
VERTEX
  8
0
  5
43EA
 10
2.53416
 20
16.7514
 30
0.000000
  70
    32
  0
VERTEX
  8
0
  5
43EB
 10
2.54384
 20
16.7551
 30
0.000000
  70
    32
  0
VERTEX
  8
0
  5
43EC
 10
2.55345
 20
16.7586
 30
0.000000
  70
    32
  0
VERTEX
  8
0
  5
43ED
 10
2.56299
 20
16.7619
 30
0.000000
  70
    32
  0
VERTEX
  8
0
  5
43EE
 10
2.57246
 20
16.7652
 30
0.000000
  70
    32
  0
VERTEX
  8
0
  5
43EF
 10
2.58188
 20
16.7682
 30
0.000000
  70
    32
  0
VERTEX
  8
0
  5
43F0
 10
2.59124
 20
16.7712
 30
0.000000
  70
    32
  0
VERTEX
  8
0
  5
43F1
 10
2.60054
 20
16.7739
 30
0.000000
  70
    32
  0
VERTEX
  8
0
  5
43F2
 10
2.60980
 20
16.7765
 30
0.000000
  70
    32
  0
VERTEX
  8
0
  5
43F3
 10
2.61900
 20
16.7789
 30
0.000000
  70
    32
  0
VERTEX
  8
0
  5
43F4
 10
2.62817
 20
16.7811
 30
0.000000
  70
    32
  0
VERTEX
  8
0
  5
43F5
 10
2.63730
 20
16.7831
 30
0.000000
  70
    32
  0
VERTEX
  8
0
  5
43F6
 10
2.64639
 20
16.7849
 30
0.000000
  70
    32
  0
VERTEX
  8
0
  5
43F7
 10
2.65546
 20
16.7865
 30
0.000000
  70
    32
  0
VERTEX
  8
0
  5
43F8
 10
2.66449
 20
16.7879
 30
0.000000
  70
    32
  0
VERTEX
  8
0
  5
43F9
 10
2.67350
 20
16.7890
 30
0.000000
  70
    32
  0
VERTEX
  8
0
  5
43FA
 10
2.68250
 20
16.7898
 30
0.000000
  70
    32
  0
VERTEX
  8
0
  5
43FB
 10
2.69147
 20
16.7904
 30
0.000000
  70
    32
  0
VERTEX
  8
0
  5
43FC
 10
2.70044
 20
16.7907
 30
0.000000
  70
    32
  0
VERTEX
  8
0
  5
43FD
 10
2.70939
 20
16.7908
 30
0.000000
  70
    32
  0
VERTEX
  8
0
  5
43FE
 10
2.71835
 20
16.7906
 30
0.000000
  70
    32
  0
VERTEX
  8
0
  5
43FF
 10
2.72729
 20
16.7900
 30
0.000000
  70
    32
  0
VERTEX
  8
0
  5
4400
 10
2.73624
 20
16.7893
 30
0.000000
  70
    32
  0
VERTEX
  8
0
  5
4401
 10
2.74519
 20
16.7882
 30
0.000000
  70
    32
  0
VERTEX
  8
0
  5
4402
 10
2.75413
 20
16.7869
 30
0.000000
  70
    32
  0
VERTEX
  8
0
  5
4403
 10
2.76307
 20
16.7853
 30
0.000000
  70
    32
  0
VERTEX
  8
0
  5
4404
 10
2.77201
 20
16.7835
 30
0.000000
  70
    32
  0
VERTEX
  8
0
  5
4405
 10
2.78095
 20
16.7815
 30
0.000000
  70
    32
  0
VERTEX
  8
0
  5
4406
 10
2.78989
 20
16.7793
 30
0.000000
  70
    32
  0
VERTEX
  8
0
  5
4407
 10
2.79883
 20
16.7769
 30
0.000000
  70
    32
  0
VERTEX
  8
0
  5
4408
 10
2.80777
 20
16.7743
 30
0.000000
  70
    32
  0
VERTEX
  8
0
  5
4409
 10
2.81671
 20
16.7715
 30
0.000000
  70
    32
  0
VERTEX
  8
0
  5
440A
 10
2.82566
 20
16.7685
 30
0.000000
  70
    32
  0
VERTEX
  8
0
  5
440B
 10
2.83460
 20
16.7654
 30
0.000000
  70
    32
  0
VERTEX
  8
0
  5
440C
 10
2.84355
 20
16.7621
 30
0.000000
  70
    32
  0
VERTEX
  8
0
  5
440D
 10
2.85250
 20
16.7587
 30
0.000000
  70
    32
  0
VERTEX
  8
0
  5
440E
 10
2.86145
 20
16.7552
 30
0.000000
  70
    32
  0
VERTEX
  8
0
  5
440F
 10
2.87040
 20
16.7516
 30
0.000000
  70
    32
  0
VERTEX
  8
0
  5
4410
 10
2.87936
 20
16.7478
 30
0.000000
  70
    32
  0
VERTEX
  8
0
  5
4411
 10
2.88832
 20
16.7440
 30
0.000000
  70
    32
  0
VERTEX
  8
0
  5
4412
 10
2.89729
 20
16.7401
 30
0.000000
  70
    32
  0
VERTEX
  8
0
  5
4413
 10
2.90626
 20
16.7361
 30
0.000000
  70
    32
  0
VERTEX
  8
0
  5
4414
 10
2.91523
 20
16.7320
 30
0.000000
  70
    32
  0
VERTEX
  8
0
  5
4415
 10
2.92421
 20
16.7279
 30
0.000000
  70
    32
  0
VERTEX
  8
0
  5
4416
 10
2.93320
 20
16.7237
 30
0.000000
  70
    32
  0
VERTEX
  8
0
  5
4417
 10
2.94219
 20
16.7195
 30
0.000000
  70
    32
  0
VERTEX
  8
0
  5
4418
 10
2.95119
 20
16.7153
 30
0.000000
  70
    32
  0
VERTEX
  8
0
  5
4419
 10
2.96019
 20
16.7111
 30
0.000000
  70
    32
  0
VERTEX
  8
0
  5
441A
 10
2.96921
 20
16.7069
 30
0.000000
  70
    32
  0
VERTEX
  8
0
  5
441B
 10
2.97822
 20
16.7027
 30
0.000000
  70
    32
  0
VERTEX
  8
0
  5
441C
 10
2.98725
 20
16.6985
 30
0.000000
  70
    32
  0
VERTEX
  8
0
  5
441D
 10
2.99629
 20
16.6944
 30
0.000000
  70
    32
  0
VERTEX
  8
0
  5
441E
 10
3.00533
 20
16.6903
 30
0.000000
  70
    32
  0
VERTEX
  8
0
  5
441F
 10
3.01438
 20
16.6862
 30
0.000000
  70
    32
  0
VERTEX
  8
0
  5
4420
 10
3.02344
 20
16.6823
 30
0.000000
  70
    32
  0
VERTEX
  8
0
  5
4421
 10
3.03251
 20
16.6784
 30
0.000000
  70
    32
  0
VERTEX
  8
0
  5
4422
 10
3.04159
 20
16.6745
 30
0.000000
  70
    32
  0
VERTEX
  8
0
  5
4423
 10
3.05068
 20
16.6708
 30
0.000000
  70
    32
  0
VERTEX
  8
0
  5
4424
 10
3.05978
 20
16.6672
 30
0.000000
  70
    32
  0
VERTEX
  8
0
  5
4425
 10
3.06889
 20
16.6637
 30
0.000000
  70
    32
  0
VERTEX
  8
0
  5
4426
 10
3.07802
 20
16.6603
 30
0.000000
  70
    32
  0
VERTEX
  8
0
  5
4427
 10
3.08715
 20
16.6571
 30
0.000000
  70
    32
  0
VERTEX
  8
0
  5
4428
 10
3.09630
 20
16.6540
 30
0.000000
  70
    32
  0
VERTEX
  8
0
  5
4429
 10
3.10546
 20
16.6511
 30
0.000000
  70
    32
  0
VERTEX
  8
0
  5
442A
 10
3.11463
 20
16.6484
 30
0.000000
  70
    32
  0
VERTEX
  8
0
  5
442B
 10
3.12381
 20
16.6458
 30
0.000000
  70
    32
  0
VERTEX
  8
0
  5
442C
 10
3.13301
 20
16.6434
 30
0.000000
  70
    32
  0
VERTEX
  8
0
  5
442D
 10
3.14222
 20
16.6413
 30
0.000000
  70
    32
  0
VERTEX
  8
0
  5
442E
 10
3.15145
 20
16.6393
 30
0.000000
  70
    32
  0
VERTEX
  8
0
  5
442F
 10
3.16069
 20
16.6376
 30
0.000000
  70
    32
  0
VERTEX
  8
0
  5
4430
 10
3.16994
 20
16.6361
 30
0.000000
  70
    32
  0
VERTEX
  8
0
  5
4431
 10
3.17921
 20
16.6349
 30
0.000000
  70
    32
  0
VERTEX
  8
0
  5
4432
 10
3.18850
 20
16.6338
 30
0.000000
  70
    32
  0
VERTEX
  8
0
  5
4433
 10
3.19780
 20
16.6330
 30
0.000000
  70
    32
  0
VERTEX
  8
0
  5
4434
 10
3.20711
 20
16.6325
 30
0.000000
  70
    32
  0
VERTEX
  8
0
  5
4435
 10
3.21644
 20
16.6321
 30
0.000000
  70
    32
  0
VERTEX
  8
0
  5
4436
 10
3.22578
 20
16.6320
 30
0.000000
  70
    32
  0
VERTEX
  8
0
  5
4437
 10
3.23514
 20
16.6321
 30
0.000000
  70
    32
  0
VERTEX
  8
0
  5
4438
 10
3.24451
 20
16.6324
 30
0.000000
  70
    32
  0
VERTEX
  8
0
  5
4439
 10
3.25389
 20
16.6330
 30
0.000000
  70
    32
  0
VERTEX
  8
0
  5
443A
 10
3.26329
 20
16.6337
 30
0.000000
  70
    32
  0
VERTEX
  8
0
  5
443B
 10
3.27270
 20
16.6346
 30
0.000000
  70
    32
  0
VERTEX
  8
0
  5
443C
 10
3.28212
 20
16.6358
 30
0.000000
  70
    32
  0
VERTEX
  8
0
  5
443D
 10
3.29156
 20
16.6371
 30
0.000000
  70
    32
  0
VERTEX
  8
0
  5
443E
 10
3.30101
 20
16.6386
 30
0.000000
  70
    32
  0
VERTEX
  8
0
  5
443F
 10
3.31048
 20
16.6404
 30
0.000000
  70
    32
  0
VERTEX
  8
0
  5
4440
 10
3.31995
 20
16.6423
 30
0.000000
  70
    32
  0
VERTEX
  8
0
  5
4441
 10
3.32944
 20
16.6444
 30
0.000000
  70
    32
  0
VERTEX
  8
0
  5
4442
 10
3.33895
 20
16.6467
 30
0.000000
  70
    32
  0
VERTEX
  8
0
  5
4443
 10
3.34846
 20
16.6491
 30
0.000000
  70
    32
  0
VERTEX
  8
0
  5
4444
 10
3.35799
 20
16.6518
 30
0.000000
  70
    32
  0
VERTEX
  8
0
  5
4445
 10
3.36753
 20
16.6546
 30
0.000000
  70
    32
  0
VERTEX
  8
0
  5
4446
 10
3.37708
 20
16.6576
 30
0.000000
  70
    32
  0
VERTEX
  8
0
  5
4447
 10
3.38665
 20
16.6607
 30
0.000000
  70
    32
  0
VERTEX
  8
0
  5
4448
 10
3.39622
 20
16.6640
 30
0.000000
  70
    32
  0
VERTEX
  8
0
  5
4449
 10
3.40581
 20
16.6675
 30
0.000000
  70
    32
  0
VERTEX
  8
0
  5
444A
 10
3.41541
 20
16.6711
 30
0.000000
  70
    32
  0
VERTEX
  8
0
  5
444B
 10
3.42502
 20
16.6749
 30
0.000000
  70
    32
  0
VERTEX
  8
0
  5
444C
 10
3.43465
 20
16.6788
 30
0.000000
  70
    32
  0
VERTEX
  8
0
  5
444D
 10
3.44428
 20
16.6829
 30
0.000000
  70
    32
  0
VERTEX
  8
0
  5
444E
 10
3.45393
 20
16.6871
 30
0.000000
  70
    32
  0
VERTEX
  8
0
  5
444F
 10
3.46358
 20
16.6914
 30
0.000000
  70
    32
  0
VERTEX
  8
0
  5
4450
 10
3.47325
 20
16.6959
 30
0.000000
  70
    32
  0
VERTEX
  8
0
  5
4451
 10
3.48293
 20
16.7006
 30
0.000000
  70
    32
  0
VERTEX
  8
0
  5
4452
 10
3.49262
 20
16.7053
 30
0.000000
  70
    32
  0
VERTEX
  8
0
  5
4453
 10
3.50232
 20
16.7102
 30
0.000000
  70
    32
  0
VERTEX
  8
0
  5
4454
 10
3.51202
 20
16.7152
 30
0.000000
  70
    32
  0
VERTEX
  8
0
  5
4455
 10
3.52175
 20
16.7203
 30
0.000000
  70
    32
  0
VERTEX
  8
0
  5
4456
 10
3.53148
 20
16.7256
 30
0.000000
  70
    32
  0
VERTEX
  8
0
  5
4457
 10
3.54122
 20
16.7309
 30
0.000000
  70
    32
  0
VERTEX
  8
0
  5
4458
 10
3.55097
 20
16.7364
 30
0.000000
  70
    32
  0
VERTEX
  8
0
  5
4459
 10
3.56073
 20
16.7419
 30
0.000000
  70
    32
  0
VERTEX
  8
0
  5
445A
 10
3.57051
 20
16.7475
 30
0.000000
  70
    32
  0
VERTEX
  8
0
  5
445B
 10
3.58031
 20
16.7532
 30
0.000000
  70
    32
  0
VERTEX
  8
0
  5
445C
 10
3.59012
 20
16.7589
 30
0.000000
  70
    32
  0
VERTEX
  8
0
  5
445D
 10
3.59994
 20
16.7646
 30
0.000000
  70
    32
  0
VERTEX
  8
0
  5
445E
 10
3.60979
 20
16.7704
 30
0.000000
  70
    32
  0
VERTEX
  8
0
  5
445F
 10
3.61966
 20
16.7761
 30
0.000000
  70
    32
  0
VERTEX
  8
0
  5
4460
 10
3.62954
 20
16.7819
 30
0.000000
  70
    32
  0
VERTEX
  8
0
  5
4461
 10
3.63945
 20
16.7876
 30
0.000000
  70
    32
  0
VERTEX
  8
0
  5
4462
 10
3.64938
 20
16.7932
 30
0.000000
  70
    32
  0
VERTEX
  8
0
  5
4463
 10
3.65934
 20
16.7988
 30
0.000000
  70
    32
  0
VERTEX
  8
0
  5
4464
 10
3.66932
 20
16.8043
 30
0.000000
  70
    32
  0
VERTEX
  8
0
  5
4465
 10
3.67933
 20
16.8098
 30
0.000000
  70
    32
  0
VERTEX
  8
0
  5
4466
 10
3.68937
 20
16.8151
 30
0.000000
  70
    32
  0
VERTEX
  8
0
  5
4467
 10
3.69943
 20
16.8204
 30
0.000000
  70
    32
  0
VERTEX
  8
0
  5
4468
 10
3.70953
 20
16.8255
 30
0.000000
  70
    32
  0
VERTEX
  8
0
  5
4469
 10
3.71965
 20
16.8304
 30
0.000000
  70
    32
  0
VERTEX
  8
0
  5
446A
 10
3.72981
 20
16.8352
 30
0.000000
  70
    32
  0
VERTEX
  8
0
  5
446B
 10
3.74000
 20
16.8399
 30
0.000000
  70
    32
  0
VERTEX
  8
0
  5
446C
 10
3.75023
 20
16.8443
 30
0.000000
  70
    32
  0
VERTEX
  8
0
  5
446D
 10
3.76050
 20
16.8486
 30
0.000000
  70
    32
  0
VERTEX
  8
0
  5
446E
 10
3.77080
 20
16.8526
 30
0.000000
  70
    32
  0
VERTEX
  8
0
  5
446F
 10
3.78113
 20
16.8564
 30
0.000000
  70
    32
  0
VERTEX
  8
0
  5
4470
 10
3.79151
 20
16.8600
 30
0.000000
  70
    32
  0
VERTEX
  8
0
  5
4471
 10
3.80193
 20
16.8633
 30
0.000000
  70
    32
  0
VERTEX
  8
0
  5
4472
 10
3.81239
 20
16.8664
 30
0.000000
  70
    32
  0
VERTEX
  8
0
  5
4473
 10
3.82290
 20
16.8692
 30
0.000000
  70
    32
  0
VERTEX
  8
0
  5
4474
 10
3.83344
 20
16.8717
 30
0.000000
  70
    32
  0
VERTEX
  8
0
  5
4475
 10
3.84404
 20
16.8738
 30
0.000000
  70
    32
  0
VERTEX
  8
0
  5
4476
 10
3.85467
 20
16.8757
 30
0.000000
  70
    32
  0
VERTEX
  8
0
  5
4477
 10
3.86536
 20
16.8772
 30
0.000000
  70
    32
  0
VERTEX
  8
0
  5
4478
 10
3.87610
 20
16.8784
 30
0.000000
  70
    32
  0
VERTEX
  8
0
  5
4479
 10
3.88688
 20
16.8792
 30
0.000000
  70
    32
  0
VERTEX
  8
0
  5
447A
 10
3.89771
 20
16.8796
 30
0.000000
  70
    32
  0
VERTEX
  8
0
  5
447B
 10
3.90859
 20
16.8798
 30
0.000000
  70
    32
  0
VERTEX
  8
0
  5
447C
 10
3.91952
 20
16.8796
 30
0.000000
  70
    32
  0
VERTEX
  8
0
  5
447D
 10
3.93048
 20
16.8791
 30
0.000000
  70
    32
  0
VERTEX
  8
0
  5
447E
 10
3.94150
 20
16.8784
 30
0.000000
  70
    32
  0
VERTEX
  8
0
  5
447F
 10
3.95255
 20
16.8774
 30
0.000000
  70
    32
  0
VERTEX
  8
0
  5
4480
 10
3.96365
 20
16.8761
 30
0.000000
  70
    32
  0
VERTEX
  8
0
  5
4481
 10
3.97479
 20
16.8745
 30
0.000000
  70
    32
  0
VERTEX
  8
0
  5
4482
 10
3.98597
 20
16.8727
 30
0.000000
  70
    32
  0
VERTEX
  8
0
  5
4483
 10
3.99718
 20
16.8707
 30
0.000000
  70
    32
  0
VERTEX
  8
0
  5
4484
 10
4.00844
 20
16.8684
 30
0.000000
  70
    32
  0
VERTEX
  8
0
  5
4485
 10
4.01973
 20
16.8660
 30
0.000000
  70
    32
  0
VERTEX
  8
0
  5
4486
 10
4.03106
 20
16.8634
 30
0.000000
  70
    32
  0
VERTEX
  8
0
  5
4487
 10
4.04242
 20
16.8606
 30
0.000000
  70
    32
  0
VERTEX
  8
0
  5
4488
 10
4.05382
 20
16.8576
 30
0.000000
  70
    32
  0
VERTEX
  8
0
  5
4489
 10
4.06525
 20
16.8545
 30
0.000000
  70
    32
  0
VERTEX
  8
0
  5
448A
 10
4.07671
 20
16.8512
 30
0.000000
  70
    32
  0
VERTEX
  8
0
  5
448B
 10
4.08820
 20
16.8478
 30
0.000000
  70
    32
  0
VERTEX
  8
0
  5
448C
 10
4.09973
 20
16.8443
 30
0.000000
  70
    32
  0
VERTEX
  8
0
  5
448D
 10
4.11128
 20
16.8407
 30
0.000000
  70
    32
  0
VERTEX
  8
0
  5
448E
 10
4.12286
 20
16.8369
 30
0.000000
  70
    32
  0
VERTEX
  8
0
  5
448F
 10
4.13447
 20
16.8331
 30
0.000000
  70
    32
  0
VERTEX
  8
0
  5
4490
 10
4.14610
 20
16.8293
 30
0.000000
  70
    32
  0
VERTEX
  8
0
  5
4491
 10
4.15776
 20
16.8254
 30
0.000000
  70
    32
  0
VERTEX
  8
0
  5
4492
 10
4.16945
 20
16.8214
 30
0.000000
  70
    32
  0
VERTEX
  8
0
  5
4493
 10
4.18115
 20
16.8174
 30
0.000000
  70
    32
  0
VERTEX
  8
0
  5
4494
 10
4.19288
 20
16.8134
 30
0.000000
  70
    32
  0
VERTEX
  8
0
  5
4495
 10
4.20463
 20
16.8094
 30
0.000000
  70
    32
  0
VERTEX
  8
0
  5
4496
 10
4.21640
 20
16.8054
 30
0.000000
  70
    32
  0
VERTEX
  8
0
  5
4497
 10
4.22819
 20
16.8014
 30
0.000000
  70
    32
  0
VERTEX
  8
0
  5
4498
 10
4.24000
 20
16.7974
 30
0.000000
  70
    32
  0
VERTEX
  8
0
  5
4499
 10
4.25182
 20
16.7934
 30
0.000000
  70
    32
  0
VERTEX
  8
0
  5
449A
 10
4.26365
 20
16.7894
 30
0.000000
  70
    32
  0
VERTEX
  8
0
  5
449B
 10
4.27549
 20
16.7854
 30
0.000000
  70
    32
  0
VERTEX
  8
0
  5
449C
 10
4.28735
 20
16.7815
 30
0.000000
  70
    32
  0
VERTEX
  8
0
  5
449D
 10
4.29921
 20
16.7775
 30
0.000000
  70
    32
  0
VERTEX
  8
0
  5
449E
 10
4.31108
 20
16.7737
 30
0.000000
  70
    32
  0
VERTEX
  8
0
  5
449F
 10
4.32295
 20
16.7698
 30
0.000000
  70
    32
  0
VERTEX
  8
0
  5
44A0
 10
4.33483
 20
16.7660
 30
0.000000
  70
    32
  0
VERTEX
  8
0
  5
44A1
 10
4.34670
 20
16.7622
 30
0.000000
  70
    32
  0
VERTEX
  8
0
  5
44A2
 10
4.35858
 20
16.7585
 30
0.000000
  70
    32
  0
VERTEX
  8
0
  5
44A3
 10
4.37046
 20
16.7548
 30
0.000000
  70
    32
  0
VERTEX
  8
0
  5
44A4
 10
4.38233
 20
16.7512
 30
0.000000
  70
    32
  0
VERTEX
  8
0
  5
44A5
 10
4.39420
 20
16.7476
 30
0.000000
  70
    32
  0
VERTEX
  8
0
  5
44A6
 10
4.40606
 20
16.7441
 30
0.000000
  70
    32
  0
VERTEX
  8
0
  5
44A7
 10
4.41791
 20
16.7406
 30
0.000000
  70
    32
  0
VERTEX
  8
0
  5
44A8
 10
4.42975
 20
16.7373
 30
0.000000
  70
    32
  0
VERTEX
  8
0
  5
44A9
 10
4.44158
 20
16.7340
 30
0.000000
  70
    32
  0
VERTEX
  8
0
  5
44AA
 10
4.45340
 20
16.7307
 30
0.000000
  70
    32
  0
VERTEX
  8
0
  5
44AB
 10
4.46520
 20
16.7276
 30
0.000000
  70
    32
  0
VERTEX
  8
0
  5
44AC
 10
4.47699
 20
16.7245
 30
0.000000
  70
    32
  0
VERTEX
  8
0
  5
44AD
 10
4.48876
 20
16.7216
 30
0.000000
  70
    32
  0
VERTEX
  8
0
  5
44AE
 10
4.50050
 20
16.7187
 30
0.000000
  70
    32
  0
VERTEX
  8
0
  5
44AF
 10
4.51223
 20
16.7159
 30
0.000000
  70
    32
  0
VERTEX
  8
0
  5
44B0
 10
4.52393
 20
16.7132
 30
0.000000
  70
    32
  0
VERTEX
  8
0
  5
44B1
 10
4.53561
 20
16.7106
 30
0.000000
  70
    32
  0
VERTEX
  8
0
  5
44B2
 10
4.54726
 20
16.7082
 30
0.000000
  70
    32
  0
VERTEX
  8
0
  5
44B3
 10
4.55888
 20
16.7058
 30
0.000000
  70
    32
  0
VERTEX
  8
0
  5
44B4
 10
4.57047
 20
16.7036
 30
0.000000
  70
    32
  0
VERTEX
  8
0
  5
44B5
 10
4.58203
 20
16.7014
 30
0.000000
  70
    32
  0
VERTEX
  8
0
  5
44B6
 10
4.59356
 20
16.6995
 30
0.000000
  70
    32
  0
VERTEX
  8
0
  5
44B7
 10
4.60505
 20
16.6976
 30
0.000000
  70
    32
  0
VERTEX
  8
0
  5
44B8
 10
4.61651
 20
16.6958
 30
0.000000
  70
    32
  0
VERTEX
  8
0
  5
44B9
 10
4.62793
 20
16.6942
 30
0.000000
  70
    32
  0
VERTEX
  8
0
  5
44BA
 10
4.63930
 20
16.6928
 30
0.000000
  70
    32
  0
VERTEX
  8
0
  5
44BB
 10
4.65064
 20
16.6915
 30
0.000000
  70
    32
  0
VERTEX
  8
0
  5
44BC
 10
4.66193
 20
16.6903
 30
0.000000
  70
    32
  0
VERTEX
  8
0
  5
44BD
 10
4.67318
 20
16.6893
 30
0.000000
  70
    32
  0
VERTEX
  8
0
  5
44BE
 10
4.68438
 20
16.6884
 30
0.000000
  70
    32
  0
VERTEX
  8
0
  5
44BF
 10
4.69554
 20
16.6877
 30
0.000000
  70
    32
  0
VERTEX
  8
0
  5
44C0
 10
4.70664
 20
16.6872
 30
0.000000
  70
    32
  0
VERTEX
  8
0
  5
44C1
 10
4.71769
 20
16.6868
 30
0.000000
  70
    32
  0
VERTEX
  8
0
  5
44C2
 10
4.72869
 20
16.6866
 30
0.000000
  70
    32
  0
VERTEX
  8
0
  5
44C3
 10
4.73964
 20
16.6866
 30
0.000000
  70
    32
  0
VERTEX
  8
0
  5
44C4
 10
4.75053
 20
16.6868
 30
0.000000
  70
    32
  0
VERTEX
  8
0
  5
44C5
 10
4.76136
 20
16.6871
 30
0.000000
  70
    32
  0
VERTEX
  8
0
  5
44C6
 10
4.77213
 20
16.6876
 30
0.000000
  70
    32
  0
VERTEX
  8
0
  5
44C7
 10
4.78285
 20
16.6883
 30
0.000000
  70
    32
  0
VERTEX
  8
0
  5
44C8
 10
4.79352
 20
16.6892
 30
0.000000
  70
    32
  0
VERTEX
  8
0
  5
44C9
 10
4.80413
 20
16.6902
 30
0.000000
  70
    32
  0
VERTEX
  8
0
  5
44CA
 10
4.81471
 20
16.6914
 30
0.000000
  70
    32
  0
VERTEX
  8
0
  5
44CB
 10
4.82524
 20
16.6928
 30
0.000000
  70
    32
  0
VERTEX
  8
0
  5
44CC
 10
4.83573
 20
16.6942
 30
0.000000
  70
    32
  0
VERTEX
  8
0
  5
44CD
 10
4.84618
 20
16.6959
 30
0.000000
  70
    32
  0
VERTEX
  8
0
  5
44CE
 10
4.85660
 20
16.6977
 30
0.000000
  70
    32
  0
VERTEX
  8
0
  5
44CF
 10
4.86699
 20
16.6996
 30
0.000000
  70
    32
  0
VERTEX
  8
0
  5
44D0
 10
4.87735
 20
16.7016
 30
0.000000
  70
    32
  0
VERTEX
  8
0
  5
44D1
 10
4.88768
 20
16.7037
 30
0.000000
  70
    32
  0
VERTEX
  8
0
  5
44D2
 10
4.89799
 20
16.7060
 30
0.000000
  70
    32
  0
VERTEX
  8
0
  5
44D3
 10
4.90829
 20
16.7084
 30
0.000000
  70
    32
  0
VERTEX
  8
0
  5
44D4
 10
4.91856
 20
16.7108
 30
0.000000
  70
    32
  0
VERTEX
  8
0
  5
44D5
 10
4.92883
 20
16.7134
 30
0.000000
  70
    32
  0
VERTEX
  8
0
  5
44D6
 10
4.93908
 20
16.7160
 30
0.000000
  70
    32
  0
VERTEX
  8
0
  5
44D7
 10
4.94932
 20
16.7188
 30
0.000000
  70
    32
  0
VERTEX
  8
0
  5
44D8
 10
4.95956
 20
16.7216
 30
0.000000
  70
    32
  0
VERTEX
  8
0
  5
44D9
 10
4.96980
 20
16.7245
 30
0.000000
  70
    32
  0
VERTEX
  8
0
  5
44DA
 10
4.98004
 20
16.7275
 30
0.000000
  70
    32
  0
VERTEX
  8
0
  5
44DB
 10
4.99028
 20
16.7305
 30
0.000000
  70
    32
  0
VERTEX
  8
0
  5
44DC
 10
5.00053
 20
16.7335
 30
0.000000
  70
    32
  0
VERTEX
  8
0
  5
44DD
 10
5.01079
 20
16.7367
 30
0.000000
  70
    32
  0
VERTEX
  8
0
  5
44DE
 10
5.02106
 20
16.7398
 30
0.000000
  70
    32
  0
VERTEX
  8
0
  5
44DF
 10
5.03135
 20
16.7431
 30
0.000000
  70
    32
  0
VERTEX
  8
0
  5
44E0
 10
5.04166
 20
16.7463
 30
0.000000
  70
    32
  0
VERTEX
  8
0
  5
44E1
 10
5.05198
 20
16.7496
 30
0.000000
  70
    32
  0
VERTEX
  8
0
  5
44E2
 10
5.06233
 20
16.7529
 30
0.000000
  70
    32
  0
VERTEX
  8
0
  5
44E3
 10
5.07270
 20
16.7562
 30
0.000000
  70
    32
  0
VERTEX
  8
0
  5
44E4
 10
5.08310
 20
16.7595
 30
0.000000
  70
    32
  0
VERTEX
  8
0
  5
44E5
 10
5.09351
 20
16.7628
 30
0.000000
  70
    32
  0
VERTEX
  8
0
  5
44E6
 10
5.10393
 20
16.7661
 30
0.000000
  70
    32
  0
VERTEX
  8
0
  5
44E7
 10
5.11438
 20
16.7694
 30
0.000000
  70
    32
  0
VERTEX
  8
0
  5
44E8
 10
5.12484
 20
16.7727
 30
0.000000
  70
    32
  0
VERTEX
  8
0
  5
44E9
 10
5.13531
 20
16.7760
 30
0.000000
  70
    32
  0
VERTEX
  8
0
  5
44EA
 10
5.14580
 20
16.7793
 30
0.000000
  70
    32
  0
VERTEX
  8
0
  5
44EB
 10
5.15630
 20
16.7825
 30
0.000000
  70
    32
  0
VERTEX
  8
0
  5
44EC
 10
5.16681
 20
16.7857
 30
0.000000
  70
    32
  0
VERTEX
  8
0
  5
44ED
 10
5.17733
 20
16.7889
 30
0.000000
  70
    32
  0
VERTEX
  8
0
  5
44EE
 10
5.18786
 20
16.7920
 30
0.000000
  70
    32
  0
VERTEX
  8
0
  5
44EF
 10
5.19840
 20
16.7950
 30
0.000000
  70
    32
  0
VERTEX
  8
0
  5
44F0
 10
5.20894
 20
16.7980
 30
0.000000
  70
    32
  0
VERTEX
  8
0
  5
44F1
 10
5.21949
 20
16.8010
 30
0.000000
  70
    32
  0
VERTEX
  8
0
  5
44F2
 10
5.23005
 20
16.8038
 30
0.000000
  70
    32
  0
VERTEX
  8
0
  5
44F3
 10
5.24060
 20
16.8067
 30
0.000000
  70
    32
  0
VERTEX
  8
0
  5
44F4
 10
5.25116
 20
16.8094
 30
0.000000
  70
    32
  0
VERTEX
  8
0
  5
44F5
 10
5.26172
 20
16.8120
 30
0.000000
  70
    32
  0
VERTEX
  8
0
  5
44F6
 10
5.27227
 20
16.8146
 30
0.000000
  70
    32
  0
VERTEX
  8
0
  5
44F7
 10
5.28283
 20
16.8170
 30
0.000000
  70
    32
  0
VERTEX
  8
0
  5
44F8
 10
5.29338
 20
16.8194
 30
0.000000
  70
    32
  0
VERTEX
  8
0
  5
44F9
 10
5.30393
 20
16.8216
 30
0.000000
  70
    32
  0
VERTEX
  8
0
  5
44FA
 10
5.31447
 20
16.8238
 30
0.000000
  70
    32
  0
VERTEX
  8
0
  5
44FB
 10
5.32501
 20
16.8258
 30
0.000000
  70
    32
  0
VERTEX
  8
0
  5
44FC
 10
5.33554
 20
16.8277
 30
0.000000
  70
    32
  0
VERTEX
  8
0
  5
44FD
 10
5.34606
 20
16.8294
 30
0.000000
  70
    32
  0
VERTEX
  8
0
  5
44FE
 10
5.35657
 20
16.8311
 30
0.000000
  70
    32
  0
VERTEX
  8
0
  5
44FF
 10
5.36708
 20
16.8326
 30
0.000000
  70
    32
  0
VERTEX
  8
0
  5
4500
 10
5.37756
 20
16.8339
 30
0.000000
  70
    32
  0
VERTEX
  8
0
  5
4501
 10
5.38804
 20
16.8351
 30
0.000000
  70
    32
  0
VERTEX
  8
0
  5
4502
 10
5.39850
 20
16.8362
 30
0.000000
  70
    32
  0
VERTEX
  8
0
  5
4503
 10
5.40895
 20
16.8371
 30
0.000000
  70
    32
  0
VERTEX
  8
0
  5
4504
 10
5.41938
 20
16.8378
 30
0.000000
  70
    32
  0
VERTEX
  8
0
  5
4505
 10
5.42979
 20
16.8383
 30
0.000000
  70
    32
  0
VERTEX
  8
0
  5
4506
 10
5.44018
 20
16.8387
 30
0.000000
  70
    32
  0
VERTEX
  8
0
  5
4507
 10
5.45056
 20
16.8388
 30
0.000000
  70
    32
  0
VERTEX
  8
0
  5
4508
 10
5.46091
 20
16.8388
 30
0.000000
  70
    32
  0
VERTEX
  8
0
  5
4509
 10
5.47124
 20
16.8386
 30
0.000000
  70
    32
  0
VERTEX
  8
0
  5
450A
 10
5.48155
 20
16.8382
 30
0.000000
  70
    32
  0
VERTEX
  8
0
  5
450B
 10
5.49183
 20
16.8376
 30
0.000000
  70
    32
  0
VERTEX
  8
0
  5
450C
 10
5.50208
 20
16.8368
 30
0.000000
  70
    32
  0
VERTEX
  8
0
  5
450D
 10
5.51231
 20
16.8358
 30
0.000000
  70
    32
  0
VERTEX
  8
0
  5
450E
 10
5.52252
 20
16.8345
 30
0.000000
  70
    32
  0
VERTEX
  8
0
  5
450F
 10
5.53269
 20
16.8330
 30
0.000000
  70
    32
  0
VERTEX
  8
0
  5
4510
 10
5.54285
 20
16.8314
 30
0.000000
  70
    32
  0
VERTEX
  8
0
  5
4511
 10
5.55298
 20
16.8295
 30
0.000000
  70
    32
  0
VERTEX
  8
0
  5
4512
 10
5.56310
 20
16.8274
 30
0.000000
  70
    32
  0
VERTEX
  8
0
  5
4513
 10
5.57320
 20
16.8252
 30
0.000000
  70
    32
  0
VERTEX
  8
0
  5
4514
 10
5.58328
 20
16.8228
 30
0.000000
  70
    32
  0
VERTEX
  8
0
  5
4515
 10
5.59335
 20
16.8202
 30
0.000000
  70
    32
  0
VERTEX
  8
0
  5
4516
 10
5.60340
 20
16.8175
 30
0.000000
  70
    32
  0
VERTEX
  8
0
  5
4517
 10
5.61345
 20
16.8145
 30
0.000000
  70
    32
  0
VERTEX
  8
0
  5
4518
 10
5.62348
 20
16.8115
 30
0.000000
  70
    32
  0
VERTEX
  8
0
  5
4519
 10
5.63351
 20
16.8083
 30
0.000000
  70
    32
  0
VERTEX
  8
0
  5
451A
 10
5.64353
 20
16.8049
 30
0.000000
  70
    32
  0
VERTEX
  8
0
  5
451B
 10
5.65355
 20
16.8015
 30
0.000000
  70
    32
  0
VERTEX
  8
0
  5
451C
 10
5.66357
 20
16.7978
 30
0.000000
  70
    32
  0
VERTEX
  8
0
  5
451D
 10
5.67358
 20
16.7941
 30
0.000000
  70
    32
  0
VERTEX
  8
0
  5
451E
 10
5.68360
 20
16.7903
 30
0.000000
  70
    32
  0
VERTEX
  8
0
  5
451F
 10
5.69362
 20
16.7863
 30
0.000000
  70
    32
  0
VERTEX
  8
0
  5
4520
 10
5.70365
 20
16.7823
 30
0.000000
  70
    32
  0
VERTEX
  8
0
  5
4521
 10
5.71368
 20
16.7781
 30
0.000000
  70
    32
  0
VERTEX
  8
0
  5
4522
 10
5.72372
 20
16.7739
 30
0.000000
  70
    32
  0
VERTEX
  8
0
  5
4523
 10
5.73377
 20
16.7696
 30
0.000000
  70
    32
  0
VERTEX
  8
0
  5
4524
 10
5.74383
 20
16.7652
 30
0.000000
  70
    32
  0
VERTEX
  8
0
  5
4525
 10
5.75391
 20
16.7607
 30
0.000000
  70
    32
  0
VERTEX
  8
0
  5
4526
 10
5.76400
 20
16.7562
 30
0.000000
  70
    32
  0
VERTEX
  8
0
  5
4527
 10
5.77411
 20
16.7516
 30
0.000000
  70
    32
  0
VERTEX
  8
0
  5
4528
 10
5.78424
 20
16.7470
 30
0.000000
  70
    32
  0
VERTEX
  8
0
  5
4529
 10
5.79439
 20
16.7423
 30
0.000000
  70
    32
  0
VERTEX
  8
0
  5
452A
 10
5.80456
 20
16.7376
 30
0.000000
  70
    32
  0
VERTEX
  8
0
  5
452B
 10
5.81475
 20
16.7329
 30
0.000000
  70
    32
  0
VERTEX
  8
0
  5
452C
 10
5.82497
 20
16.7281
 30
0.000000
  70
    32
  0
VERTEX
  8
0
  5
452D
 10
5.83522
 20
16.7234
 30
0.000000
  70
    32
  0
VERTEX
  8
0
  5
452E
 10
5.84549
 20
16.7186
 30
0.000000
  70
    32
  0
VERTEX
  8
0
  5
452F
 10
5.85580
 20
16.7138
 30
0.000000
  70
    32
  0
VERTEX
  8
0
  5
4530
 10
5.86614
 20
16.7090
 30
0.000000
  70
    32
  0
VERTEX
  8
0
  5
4531
 10
5.87651
 20
16.7042
 30
0.000000
  70
    32
  0
VERTEX
  8
0
  5
4532
 10
5.88692
 20
16.6994
 30
0.000000
  70
    32
  0
VERTEX
  8
0
  5
4533
 10
5.89737
 20
16.6946
 30
0.000000
  70
    32
  0
VERTEX
  8
0
  5
4534
 10
5.90786
 20
16.6899
 30
0.000000
  70
    32
  0
VERTEX
  8
0
  5
4535
 10
5.91838
 20
16.6852
 30
0.000000
  70
    32
  0
VERTEX
  8
0
  5
4536
 10
5.92893
 20
16.6806
 30
0.000000
  70
    32
  0
VERTEX
  8
0
  5
4537
 10
5.93952
 20
16.6760
 30
0.000000
  70
    32
  0
VERTEX
  8
0
  5
4538
 10
5.95014
 20
16.6715
 30
0.000000
  70
    32
  0
VERTEX
  8
0
  5
4539
 10
5.96080
 20
16.6670
 30
0.000000
  70
    32
  0
VERTEX
  8
0
  5
453A
 10
5.97149
 20
16.6626
 30
0.000000
  70
    32
  0
VERTEX
  8
0
  5
453B
 10
5.98221
 20
16.6584
 30
0.000000
  70
    32
  0
VERTEX
  8
0
  5
453C
 10
5.99296
 20
16.6542
 30
0.000000
  70
    32
  0
VERTEX
  8
0
  5
453D
 10
6.00374
 20
16.6501
 30
0.000000
  70
    32
  0
VERTEX
  8
0
  5
453E
 10
6.01456
 20
16.6462
 30
0.000000
  70
    32
  0
VERTEX
  8
0
  5
453F
 10
6.02540
 20
16.6423
 30
0.000000
  70
    32
  0
VERTEX
  8
0
  5
4540
 10
6.03627
 20
16.6387
 30
0.000000
  70
    32
  0
VERTEX
  8
0
  5
4541
 10
6.04716
 20
16.6351
 30
0.000000
  70
    32
  0
VERTEX
  8
0
  5
4542
 10
6.05809
 20
16.6317
 30
0.000000
  70
    32
  0
VERTEX
  8
0
  5
4543
 10
6.06904
 20
16.6285
 30
0.000000
  70
    32
  0
VERTEX
  8
0
  5
4544
 10
6.08001
 20
16.6254
 30
0.000000
  70
    32
  0
VERTEX
  8
0
  5
4545
 10
6.09101
 20
16.6225
 30
0.000000
  70
    32
  0
VERTEX
  8
0
  5
4546
 10
6.10204
 20
16.6198
 30
0.000000
  70
    32
  0
VERTEX
  8
0
  5
4547
 10
6.11309
 20
16.6173
 30
0.000000
  70
    32
  0
VERTEX
  8
0
  5
4548
 10
6.12416
 20
16.6150
 30
0.000000
  70
    32
  0
VERTEX
  8
0
  5
4549
 10
6.13525
 20
16.6130
 30
0.000000
  70
    32
  0
VERTEX
  8
0
  5
454A
 10
6.14636
 20
16.6111
 30
0.000000
  70
    32
  0
VERTEX
  8
0
  5
454B
 10
6.15750
 20
16.6095
 30
0.000000
  70
    32
  0
VERTEX
  8
0
  5
454C
 10
6.16865
 20
16.6081
 30
0.000000
  70
    32
  0
VERTEX
  8
0
  5
454D
 10
6.17983
 20
16.6069
 30
0.000000
  70
    32
  0
VERTEX
  8
0
  5
454E
 10
6.19102
 20
16.6061
 30
0.000000
  70
    32
  0
VERTEX
  8
0
  5
454F
 10
6.20223
 20
16.6054
 30
0.000000
  70
    32
  0
VERTEX
  8
0
  5
4550
 10
6.21346
 20
16.6051
 30
0.000000
  70
    32
  0
VERTEX
  8
0
  5
4551
 10
6.22471
 20
16.6051
 30
0.000000
  70
    32
  0
VERTEX
  8
0
  5
4552
 10
6.23597
 20
16.6053
 30
0.000000
  70
    32
  0
VERTEX
  8
0
  5
4553
 10
6.24724
 20
16.6058
 30
0.000000
  70
    32
  0
VERTEX
  8
0
  5
4554
 10
6.25853
 20
16.6067
 30
0.000000
  70
    32
  0
VERTEX
  8
0
  5
4555
 10
6.26984
 20
16.6079
 30
0.000000
  70
    32
  0
VERTEX
  8
0
  5
4556
 10
6.28115
 20
16.6094
 30
0.000000
  70
    32
  0
VERTEX
  8
0
  5
4557
 10
6.29249
 20
16.6112
 30
0.000000
  70
    32
  0
VERTEX
  8
0
  5
4558
 10
6.30386
 20
16.6133
 30
0.000000
  70
    32
  0
VERTEX
  8
0
  5
4559
 10
6.31530
 20
16.6157
 30
0.000000
  70
    32
  0
VERTEX
  8
0
  5
455A
 10
6.32683
 20
16.6184
 30
0.000000
  70
    32
  0
VERTEX
  8
0
  5
455B
 10
6.33848
 20
16.6213
 30
0.000000
  70
    32
  0
VERTEX
  8
0
  5
455C
 10
6.35028
 20
16.6244
 30
0.000000
  70
    32
  0
VERTEX
  8
0
  5
455D
 10
6.36225
 20
16.6277
 30
0.000000
  70
    32
  0
VERTEX
  8
0
  5
455E
 10
6.37443
 20
16.6311
 30
0.000000
  70
    32
  0
VERTEX
  8
0
  5
455F
 10
6.38683
 20
16.6346
 30
0.000000
  70
    32
  0
VERTEX
  8
0
  5
4560
 10
6.39948
 20
16.6382
 30
0.000000
  70
    32
  0
VERTEX
  8
0
  5
4561
 10
6.41241
 20
16.6418
 30
0.000000
  70
    32
  0
VERTEX
  8
0
  5
4562
 10
6.42565
 20
16.6455
 30
0.000000
  70
    32
  0
VERTEX
  8
0
  5
4563
 10
6.43923
 20
16.6491
 30
0.000000
  70
    32
  0
VERTEX
  8
0
  5
4564
 10
6.45316
 20
16.6528
 30
0.000000
  70
    32
  0
VERTEX
  8
0
  5
4565
 10
6.46748
 20
16.6564
 30
0.000000
  70
    32
  0
VERTEX
  8
0
  5
4566
 10
6.48222
 20
16.6599
 30
0.000000
  70
    32
  0
VERTEX
  8
0
  5
4567
 10
6.49740
 20
16.6632
 30
0.000000
  70
    32
  0
VERTEX
  8
0
  5
4568
 10
6.51305
 20
16.6665
 30
0.000000
  70
    32
  0
VERTEX
  8
0
  5
4569
 10
6.52919
 20
16.6695
 30
0.000000
  70
    32
  0
VERTEX
  8
0
  5
456A
 10
6.54585
 20
16.6724
 30
0.000000
  70
    32
  0
VERTEX
  8
0
  5
456B
 10
6.56306
 20
16.6750
 30
0.000000
  70
    32
  0
VERTEX
  8
0
  5
456C
 10
6.58085
 20
16.6774
 30
0.000000
  70
    32
  0
VERTEX
  8
0
  5
456D
 10
6.59924
 20
16.6795
 30
0.000000
  70
    32
  0
VERTEX
  8
0
  5
456E
 10
6.61826
 20
16.6813
 30
0.000000
  70
    32
  0
VERTEX
  8
0
  5
456F
 10
6.63793
 20
16.6827
 30
0.000000
  70
    32
  0
VERTEX
  8
0
  5
4570
 10
6.65828
 20
16.6838
 30
0.000000
  70
    32
  0
VERTEX
  8
0
  5
4571
 10
6.67935
 20
16.6845
 30
0.000000
  70
    32
  0
VERTEX
  8
0
  5
4572
 10
6.70115
 20
16.6847
 30
0.000000
  70
    32
  0
VERTEX
  8
0
  5
4573
 10
6.72371
 20
16.6845
 30
0.000000
  70
    32
  0
VERTEX
  8
0
  5
4574
 10
6.74707
 20
16.6838
 30
0.000000
  70
    32
  0
VERTEX
  8
0
  5
4575
 10
6.77124
 20
16.6827
 30
0.000000
  70
    32
  0
VERTEX
  8
0
  5
4576
 10
6.79625
 20
16.6809
 30
0.000000
  70
    32
  0
VERTEX
  8
0
  5
4577
 10
6.82213
 20
16.6786
 30
0.000000
  70
    32
  0
VERTEX
  8
0
  5
4578
 10
6.84891
 20
16.6757
 30
0.000000
  70
    32
  0
VERTEX
  8
0
  5
4579
 10
6.87662
 20
16.6722
 30
0.000000
  70
    32
  0
VERTEX
  8
0
  5
457A
 10
6.90527
 20
16.6680
 30
0.000000
  70
    32
  0
VERTEX
  8
0
  5
457B
 10
6.93490
 20
16.6632
 30
0.000000
  70
    32
  0
VERTEX
  8
0
  5
457C
 10
6.96554
 20
16.6576
 30
0.000000
  70
    32
  0
VERTEX
  8
0
  5
457D
 10
6.99721
 20
16.6513
 30
0.000000
  70
    32
  0
VERTEX
  8
0
  5
457E
 10
7.03025
 20
16.6444
 30
0.000000
  70
    32
  0
VERTEX
  8
0
  5
457F
 10
7.06550
 20
16.6370
 30
0.000000
  70
    32
  0
VERTEX
  8
0
  5
4580
 10
7.10383
 20
16.6295
 30
0.000000
  70
    32
  0
VERTEX
  8
0
  5
4581
 10
7.14615
 20
16.6220
 30
0.000000
  70
    32
  0
VERTEX
  8
0
  5
4582
 10
7.19331
 20
16.6149
 30
0.000000
  70
    32
  0
VERTEX
  8
0
  5
4583
 10
7.24622
 20
16.6084
 30
0.000000
  70
    32
  0
VERTEX
  8
0
  5
4584
 10
7.30574
 20
16.6027
 30
0.000000
  70
    32
  0
VERTEX
  8
0
  5
4585
 10
7.37277
 20
16.5982
 30
0.000000
  70
    32
  0
VERTEX
  8
0
  5
4586
 10
7.44818
 20
16.5950
 30
0.000000
  70
    32
  0
VERTEX
  8
0
  5
4587
 10
7.53285
 20
16.5934
 30
0.000000
  70
    32
  0
VERTEX
  8
0
  5
4588
 10
7.62768
 20
16.5937
 30
0.000000
  70
    32
  0
SEQEND
  8
0
  5
4589
  0
POLYLINE
  5
2E11
  8
OBJECT
 66
     1
 10
0.0
 20
0.0
 30
0.0
  0
VERTEX
  5
425D
  8
OBJECT
 10
14.40443725492373
 20
12.81568574109099
 30
0.0
  0
VERTEX
  5
425E
  8
OBJECT
 10
14.404437254923719
 20
13.040685741090989
 30
0.0
  0
VERTEX
  5
425F
  8
OBJECT
 10
14.317437254923719
 20
13.040685741090989
 30
0.0
  0
VERTEX
  5
4260
  8
OBJECT
 10
14.317437254923719
 20
13.13968574109099
 30
0.0
  0
SEQEND
  5
4261
  8
OBJECT
  0
LINE
  5
2E12
  8
OBJECT
 10
14.314437254923719
 20
13.02068574109099
 30
0.0
 11
14.314437254923719
 21
13.13968574109099
 31
0.0
  0
LINE
  5
2E13
  8
OBJECT
 10
13.835437254923731
 20
19.696685741090992
 30
0.0
 11
13.835437254923731
 21
13.02068574109099
 31
0.0
  0
LINE
  5
2E14
  8
OBJECT
 10
15.01243725492372
 20
19.696685741090992
 30
0.0
 11
15.01243725492373
 21
13.02068574109099
 31
0.0
  0
POLYLINE
  5
2E15
  8
OBJECT
 66
     1
 10
0.0
 20
0.0
 30
0.0
  0
VERTEX
  5
4262
  8
OBJECT
 10
15.01243725492373
 20
13.13968574109099
 30
0.0
  0
VERTEX
  5
4263
  8
OBJECT
 10
14.42743725492373
 20
13.13968574109099
 30
0.0
  0
VERTEX
  5
4264
  8
OBJECT
 10
14.42743725492373
 20
13.435685741090991
 30
0.0
  0
VERTEX
  5
4265
  8
OBJECT
 10
15.01243725492373
 20
13.435685741090991
 30
0.0
  0
SEQEND
  5
4266
  8
OBJECT
  0
LINE
  5
2E16
  8
OBJECT
 10
14.94243725492373
 20
12.880685741091
 30
0.0
 11
15.01243725492373
 21
12.815685741091
 31
0.0
  0
LINE
  5
2E17
  8
OBJECT
 10
13.823937254923729
 20
12.880685741090989
 30
0.0
 11
15.02393725492373
 21
12.880685741090989
 31
0.0
  0
LINE
  5
2E18
  8
OBJECT
 10
13.835437254923731
 20
13.02068574109099
 30
0.0
 11
14.404437254923719
 21
13.02068574109099
 31
0.0
  0
LINE
  5
2E19
  8
OBJECT
 10
13.823937254923729
 20
12.97568574109099
 30
0.0
 11
15.02393725492373
 21
12.97568574109099
 31
0.0
  0
POLYLINE
  5
2E1A
  8
HIDDEN
 66
     1
 10
0.0
 20
0.0
 30
0.0
  0
VERTEX
  5
4267
  8
HIDDEN
 10
15.13243725492373
 20
13.402685741090989
 30
0.0
  0
VERTEX
  5
4268
  8
HIDDEN
 10
14.94243725492373
 20
13.402685741090989
 30
0.0
  0
VERTEX
  5
4269
  8
HIDDEN
 10
14.94243725492373
 20
13.172685741090991
 30
0.0
  0
VERTEX
  5
426A
  8
HIDDEN
 10
15.13243725492373
 20
13.172685741090991
 30
0.0
  0
SEQEND
  5
426B
  8
HIDDEN
  0
POLYLINE
  5
2E1B
  8
HIDDEN
 66
     1
 10
0.0
 20
0.0
 30
0.0
  0
VERTEX
  5
426C
  8
HIDDEN
 10
14.42043725492373
 20
13.332685741090989
 30
0.0
  0
VERTEX
  5
426D
  8
HIDDEN
 10
13.77543725492373
 20
13.332685741090989
 30
0.0
  0
VERTEX
  5
426E
  8
HIDDEN
 10
13.77543725492373
 20
13.242685741090989
 30
0.0
  0
VERTEX
  5
426F
  8
HIDDEN
 10
14.42043725492373
 20
13.242685741090989
 30
0.0
  0
SEQEND
  5
4270
  8
HIDDEN
  0
POLYLINE
  5
2E1C
  8
OBJECT
 66
     1
 10
0.0
 20
0.0
 30
0.0
  0
VERTEX
  5
4271
  8
OBJECT
 10
13.835437254923731
 20
13.13968574109099
 30
0.0
  0
VERTEX
  5
4272
  8
OBJECT
 10
14.42043725492373
 20
13.13968574109099
 30
0.0
  0
VERTEX
  5
4273
  8
OBJECT
 10
14.42043725492373
 20
13.435685741090991
 30
0.0
  0
VERTEX
  5
4274
  8
OBJECT
 10
13.835437254923731
 20
13.435685741090991
 30
0.0
  0
SEQEND
  5
4275
  8
OBJECT
  0
LINE
  5
2E1D
  8
OBJECT
 10
13.905437254923729
 20
12.880685741091
 30
0.0
 11
13.835437254923731
 21
12.815685741091
 31
0.0
  0
LINE
  5
2E1E
  8
OBJECT
 10
13.823937254923729
 20
12.97568574109099
 30
0.0
 11
13.823937254923729
 21
12.880685741090989
 31
0.0
  0
LINE
  5
2E1F
  8
OBJECT
 10
13.905437254923729
 20
12.975685741091
 30
0.0
 11
13.905437254923729
 21
13.020685741091
 31
0.0
  0
LINE
  5
2E20
  8
OBJECT
 10
14.94243725492373
 20
12.975685741091
 30
0.0
 11
14.94243725492373
 21
13.020685741091
 31
0.0
  0
LINE
  5
2E21
  8
HIDDEN
 10
14.94243725492373
 20
13.22268574109099
 30
0.0
 11
14.42743725492373
 21
13.22268574109099
 31
0.0
  0
LINE
  5
2E22
  8
HIDDEN
 10
14.94243725492373
 20
13.35268574109099
 30
0.0
 11
14.42743725492373
 21
13.35268574109099
 31
0.0
  0
LINE
  5
2E23
  8
OBJECT
 10
15.02393725492373
 20
12.97568574109099
 30
0.0
 11
15.02393725492373
 21
12.880685741090989
 31
0.0
  0
LINE
  5
2E24
  8
OBJECT
 10
14.94243725492373
 20
19.836685741090989
 30
0.0
 11
15.01243725492373
 21
19.90168574109099
 31
0.0
  0
POLYLINE
  5
2E25
  8
OBJECT
 66
     1
 10
0.0
 20
0.0
 30
0.0
  0
VERTEX
  5
4276
  8
OBJECT
 10
15.01243725492372
 20
19.281685741091
 30
0.0
  0
VERTEX
  5
4277
  8
OBJECT
 10
14.42743725492373
 20
19.281685741091
 30
0.0
  0
VERTEX
  5
4278
  8
OBJECT
 10
14.42743725492373
 20
19.577685741090988
 30
0.0
  0
VERTEX
  5
4279
  8
OBJECT
 10
15.01243725492372
 20
19.577685741090988
 30
0.0
  0
SEQEND
  5
427A
  8
OBJECT
  0
LINE
  5
2E26
  8
OBJECT
 10
13.835437254923731
 20
19.696685741090992
 30
0.0
 11
14.40443725492371
 21
19.696685741090992
 31
0.0
  0
LINE
  5
2E27
  8
OBJECT
 10
13.823937254923729
 20
19.74168574109099
 30
0.0
 11
15.02393725492373
 21
19.74168574109099
 31
0.0
  0
LINE
  5
2E28
  8
OBJECT
 10
13.823937254923729
 20
19.836685741090989
 30
0.0
 11
15.02393725492373
 21
19.836685741090989
 31
0.0
  0
POLYLINE
  5
2E29
  8
OBJECT
 66
     1
 10
0.0
 20
0.0
 30
0.0
  0
VERTEX
  5
427B
  8
OBJECT
 10
15.01243725492372
 20
18.598685741091
 30
0.0
  0
VERTEX
  5
427C
  8
OBJECT
 10
14.85643725492373
 20
18.598685741091
 30
0.0
  0
VERTEX
  5
427D
  8
OBJECT
 10
14.85643725492373
 20
18.814685741091001
 30
0.0
  0
VERTEX
  5
427E
  8
OBJECT
 10
15.01243725492372
 20
18.814685741091001
 30
0.0
  0
SEQEND
  5
427F
  8
OBJECT
  0
LINE
  5
2E2A
  8
HIDDEN
 10
14.85643725492373
 20
18.661685741090992
 30
0.0
 11
15.01243725492372
 21
18.661685741090992
 31
0.0
  0
LINE
  5
2E2B
  8
HIDDEN
 10
14.85643725492373
 20
18.751685741090999
 30
0.0
 11
15.01243725492372
 21
18.751685741090999
 31
0.0
  0
POLYLINE
  5
2E2C
  8
OBJECT
 66
     1
 10
0.0
 20
0.0
 30
0.0
  0
VERTEX
  5
4280
  8
OBJECT
 10
14.99243725492372
 20
18.199685741090999
 30
0.0
  0
VERTEX
  5
4281
  8
OBJECT
 10
14.44243725492373
 20
18.199685741090999
 30
0.0
  0
VERTEX
  5
4282
  8
OBJECT
 10
14.44243725492373
 20
18.139685741091
 30
0.0
  0
VERTEX
  5
4283
  8
OBJECT
 10
14.99243725492372
 20
18.139685741091
 30
0.0
  0
SEQEND
  5
4284
  8
OBJECT
  0
POLYLINE
  5
2E2D
  8
OBJECT
 66
     1
 10
0.0
 20
0.0
 30
0.0
  0
VERTEX
  5
4285
  8
OBJECT
 10
14.99243725492372
 20
17.981685741090999
 30
0.0
  0
VERTEX
  5
4286
  8
OBJECT
 10
14.44243725492373
 20
17.981685741090999
 30
0.0
  0
VERTEX
  5
4287
  8
OBJECT
 10
14.44243725492373
 20
18.041685741091001
 30
0.0
  0
VERTEX
  5
4288
  8
OBJECT
 10
14.99243725492372
 20
18.041685741091001
 30
0.0
  0
SEQEND
  5
4289
  8
OBJECT
  0
POLYLINE
  5
2E2E
  8
HIDDEN
 66
     1
 10
0.0
 20
0.0
 30
0.0
  0
VERTEX
  5
428A
  8
HIDDEN
 10
15.132437254923721
 20
19.544685741090991
 30
0.0
  0
VERTEX
  5
428B
  8
HIDDEN
 10
14.94243725492373
 20
19.544685741090991
 30
0.0
  0
VERTEX
  5
428C
  8
HIDDEN
 10
14.94243725492373
 20
19.314685741091001
 30
0.0
  0
VERTEX
  5
428D
  8
HIDDEN
 10
15.132437254923721
 20
19.314685741091001
 30
0.0
  0
SEQEND
  5
428E
  8
HIDDEN
  0
LINE
  5
2E2F
  8
HIDDEN
 10
14.85643725492373
 20
16.313685741091
 30
0.0
 11
15.01243725492372
 21
16.313685741091
 31
0.0
  0
LINE
  5
2E30
  8
HIDDEN
 10
14.85643725492373
 20
16.403685741091
 30
0.0
 11
15.01243725492372
 21
16.403685741091
 31
0.0
  0
POLYLINE
  5
2E31
  8
OBJECT
 66
     1
 10
0.0
 20
0.0
 30
0.0
  0
VERTEX
  5
428F
  8
OBJECT
 10
15.01243725492373
 20
16.249685741091
 30
0.0
  0
VERTEX
  5
4290
  8
OBJECT
 10
14.44243725492367
 20
16.249685741091
 30
0.0
  0
VERTEX
  5
4291
  8
OBJECT
 10
14.44243725492367
 20
16.309685741090998
 30
0.0
  0
VERTEX
  5
4292
  8
OBJECT
 10
14.85643725492373
 20
16.309685741090998
 30
0.0
  0
SEQEND
  5
4293
  8
OBJECT
  0
POLYLINE
  5
2E32
  8
OBJECT
 66
     1
 10
0.0
 20
0.0
 30
0.0
  0
VERTEX
  5
4294
  8
OBJECT
 10
15.01243725492372
 20
16.250685741091001
 30
0.0
  0
VERTEX
  5
4295
  8
OBJECT
 10
14.85643725492373
 20
16.250685741091001
 30
0.0
  0
VERTEX
  5
4296
  8
OBJECT
 10
14.85643725492373
 20
16.466685741090998
 30
0.0
  0
VERTEX
  5
4297
  8
OBJECT
 10
15.01243725492372
 20
16.466685741090998
 30
0.0
  0
SEQEND
  5
4298
  8
OBJECT
  0
POLYLINE
  5
2E33
  8
OBJECT
 66
     1
 10
0.0
 20
0.0
 30
0.0
  0
VERTEX
  5
4299
  8
OBJECT
 10
15.01243725492373
 20
16.467685741091
 30
0.0
  0
VERTEX
  5
429A
  8
OBJECT
 10
14.44243725492367
 20
16.467685741091
 30
0.0
  0
VERTEX
  5
429B
  8
OBJECT
 10
14.44243725492367
 20
16.407685741091001
 30
0.0
  0
VERTEX
  5
429C
  8
OBJECT
 10
14.85643725492373
 20
16.407685741091001
 30
0.0
  0
SEQEND
  5
429D
  8
OBJECT
  0
POLYLINE
  5
2E34
  8
OBJECT
 66
     1
 10
0.0
 20
0.0
 30
0.0
  0
VERTEX
  5
429E
  8
OBJECT
 10
15.01243725492373
 20
14.735685741091
 30
0.0
  0
VERTEX
  5
429F
  8
OBJECT
 10
14.44243725492362
 20
14.735685741091
 30
0.0
  0
VERTEX
  5
42A0
  8
OBJECT
 10
14.44243725492362
 20
14.675685741091
 30
0.0
  0
VERTEX
  5
42A1
  8
OBJECT
 10
15.01243725492373
 20
14.675685741091
 30
0.0
  0
SEQEND
  5
42A2
  8
OBJECT
  0
POLYLINE
  5
2E35
  8
OBJECT
 66
     1
 10
0.0
 20
0.0
 30
0.0
  0
VERTEX
  5
42A3
  8
OBJECT
 10
15.01243725492373
 20
14.517685741091
 30
0.0
  0
VERTEX
  5
42A4
  8
OBJECT
 10
14.44243725492362
 20
14.517685741091
 30
0.0
  0
VERTEX
  5
42A5
  8
OBJECT
 10
14.44243725492362
 20
14.577685741091001
 30
0.0
  0
VERTEX
  5
42A6
  8
OBJECT
 10
15.01243725492373
 20
14.577685741091001
 30
0.0
  0
SEQEND
  5
42A7
  8
OBJECT
  0
LINE
  5
2E36
  8
HIDDEN
 10
14.85643725492373
 20
14.05568574109099
 30
0.0
 11
15.01243725492372
 21
14.05568574109099
 31
0.0
  0
LINE
  5
2E37
  8
HIDDEN
 10
14.85643725492373
 20
13.965685741091001
 30
0.0
 11
15.01243725492372
 21
13.965685741091001
 31
0.0
  0
POLYLINE
  5
2E38
  8
OBJECT
 66
     1
 10
0.0
 20
0.0
 30
0.0
  0
VERTEX
  5
42A8
  8
OBJECT
 10
15.01243725492372
 20
13.902685741090989
 30
0.0
  0
VERTEX
  5
42A9
  8
OBJECT
 10
14.85643725492373
 20
13.902685741090989
 30
0.0
  0
VERTEX
  5
42AA
  8
OBJECT
 10
14.85643725492373
 20
14.118685741090991
 30
0.0
  0
VERTEX
  5
42AB
  8
OBJECT
 10
15.01243725492372
 20
14.118685741090991
 30
0.0
  0
SEQEND
  5
42AC
  8
OBJECT
  0
POLYLINE
  5
2E39
  8
OBJECT
 66
     1
 10
0.0
 20
0.0
 30
0.0
  0
VERTEX
  5
42AD
  8
OBJECT
 10
13.835437254923731
 20
14.517685741091
 30
0.0
  0
VERTEX
  5
42AE
  8
OBJECT
 10
14.405437254923619
 20
14.517685741091
 30
0.0
  0
VERTEX
  5
42AF
  8
OBJECT
 10
14.405437254923619
 20
14.577685741091001
 30
0.0
  0
VERTEX
  5
42B0
  8
OBJECT
 10
13.835437254923731
 20
14.577685741091001
 30
0.0
  0
SEQEND
  5
42B1
  8
OBJECT
  0
POLYLINE
  5
2E3A
  8
OBJECT
 66
     1
 10
0.0
 20
0.0
 30
0.0
  0
VERTEX
  5
42B2
  8
OBJECT
 10
13.835437254923731
 20
14.735685741091
 30
0.0
  0
VERTEX
  5
42B3
  8
OBJECT
 10
14.405437254923619
 20
14.735685741091
 30
0.0
  0
VERTEX
  5
42B4
  8
OBJECT
 10
14.405437254923619
 20
14.675685741091
 30
0.0
  0
VERTEX
  5
42B5
  8
OBJECT
 10
13.835437254923731
 20
14.675685741091
 30
0.0
  0
SEQEND
  5
42B6
  8
OBJECT
  0
LINE
  5
2E3B
  8
HIDDEN
 10
13.99143725492373
 20
14.05568574109099
 30
0.0
 11
13.835437254923731
 21
14.05568574109099
 31
0.0
  0
LINE
  5
2E3C
  8
HIDDEN
 10
13.99143725492373
 20
13.965685741091001
 30
0.0
 11
13.835437254923731
 21
13.965685741091001
 31
0.0
  0
POLYLINE
  5
2E3D
  8
OBJECT
 66
     1
 10
0.0
 20
0.0
 30
0.0
  0
VERTEX
  5
42B7
  8
OBJECT
 10
13.835437254923731
 20
13.902685741090989
 30
0.0
  0
VERTEX
  5
42B8
  8
OBJECT
 10
13.99143725492373
 20
13.902685741090989
 30
0.0
  0
VERTEX
  5
42B9
  8
OBJECT
 10
13.99143725492373
 20
14.118685741090991
 30
0.0
  0
VERTEX
  5
42BA
  8
OBJECT
 10
13.835437254923731
 20
14.118685741090991
 30
0.0
  0
SEQEND
  5
42BB
  8
OBJECT
  0
POLYLINE
  5
2E3E
  8
OBJECT
 66
     1
 10
0.0
 20
0.0
 30
0.0
  0
VERTEX
  5
42BC
  8
OBJECT
 10
13.835437254923731
 20
16.249685741091
 30
0.0
  0
VERTEX
  5
42BD
  8
OBJECT
 10
14.405437254923671
 20
16.249685741091
 30
0.0
  0
VERTEX
  5
42BE
  8
OBJECT
 10
14.405437254923671
 20
16.309685741090998
 30
0.0
  0
VERTEX
  5
42BF
  8
OBJECT
 10
13.99143725492373
 20
16.309685741090998
 30
0.0
  0
SEQEND
  5
42C0
  8
OBJECT
  0
POLYLINE
  5
2E3F
  8
OBJECT
 66
     1
 10
0.0
 20
0.0
 30
0.0
  0
VERTEX
  5
42C1
  8
OBJECT
 10
13.835437254923731
 20
16.467685741091
 30
0.0
  0
VERTEX
  5
42C2
  8
OBJECT
 10
14.405437254923671
 20
16.467685741091
 30
0.0
  0
VERTEX
  5
42C3
  8
OBJECT
 10
14.405437254923671
 20
16.407685741091001
 30
0.0
  0
VERTEX
  5
42C4
  8
OBJECT
 10
13.99143725492373
 20
16.407685741091001
 30
0.0
  0
SEQEND
  5
42C5
  8
OBJECT
  0
LINE
  5
2E40
  8
HIDDEN
 10
13.99143725492373
 20
16.313685741091
 30
0.0
 11
13.835437254923731
 21
16.313685741091
 31
0.0
  0
LINE
  5
2E41
  8
HIDDEN
 10
13.99143725492373
 20
16.403685741091
 30
0.0
 11
13.835437254923731
 21
16.403685741091
 31
0.0
  0
POLYLINE
  5
2E42
  8
OBJECT
 66
     1
 10
0.0
 20
0.0
 30
0.0
  0
VERTEX
  5
42C6
  8
OBJECT
 10
13.835437254923731
 20
16.250685741091001
 30
0.0
  0
VERTEX
  5
42C7
  8
OBJECT
 10
13.99143725492373
 20
16.250685741091001
 30
0.0
  0
VERTEX
  5
42C8
  8
OBJECT
 10
13.99143725492373
 20
16.466685741090998
 30
0.0
  0
VERTEX
  5
42C9
  8
OBJECT
 10
13.835437254923731
 20
16.466685741090998
 30
0.0
  0
SEQEND
  5
42CA
  8
OBJECT
  0
POLYLINE
  5
2E43
  8
OBJECT
 66
     1
 10
0.0
 20
0.0
 30
0.0
  0
VERTEX
  5
42CB
  8
OBJECT
 10
13.835437254923731
 20
18.199685741090999
 30
0.0
  0
VERTEX
  5
42CC
  8
OBJECT
 10
14.405437254923729
 20
18.199685741090999
 30
0.0
  0
VERTEX
  5
42CD
  8
OBJECT
 10
14.405437254923729
 20
18.139685741091
 30
0.0
  0
VERTEX
  5
42CE
  8
OBJECT
 10
13.835437254923731
 20
18.139685741091
 30
0.0
  0
SEQEND
  5
42CF
  8
OBJECT
  0
POLYLINE
  5
2E44
  8
OBJECT
 66
     1
 10
0.0
 20
0.0
 30
0.0
  0
VERTEX
  5
42D0
  8
OBJECT
 10
13.835437254923731
 20
17.981685741090999
 30
0.0
  0
VERTEX
  5
42D1
  8
OBJECT
 10
14.405437254923729
 20
17.981685741090999
 30
0.0
  0
VERTEX
  5
42D2
  8
OBJECT
 10
14.405437254923729
 20
18.041685741091001
 30
0.0
  0
VERTEX
  5
42D3
  8
OBJECT
 10
13.835437254923731
 20
18.041685741091001
 30
0.0
  0
SEQEND
  5
42D4
  8
OBJECT
  0
LINE
  5
2E45
  8
HIDDEN
 10
13.99143725492373
 20
18.751685741090999
 30
0.0
 11
13.835437254923731
 21
18.751685741090999
 31
0.0
  0
LINE
  5
2E46
  8
HIDDEN
 10
13.99143725492373
 20
18.661685741090992
 30
0.0
 11
13.835437254923731
 21
18.661685741090992
 31
0.0
  0
POLYLINE
  5
2E47
  8
OBJECT
 66
     1
 10
0.0
 20
0.0
 30
0.0
  0
VERTEX
  5
42D5
  8
OBJECT
 10
13.835437254923731
 20
18.598685741091
 30
0.0
  0
VERTEX
  5
42D6
  8
OBJECT
 10
13.99143725492373
 20
18.598685741091
 30
0.0
  0
VERTEX
  5
42D7
  8
OBJECT
 10
13.99143725492373
 20
18.814685741091001
 30
0.0
  0
VERTEX
  5
42D8
  8
OBJECT
 10
13.835437254923731
 20
18.814685741091001
 30
0.0
  0
SEQEND
  5
42D9
  8
OBJECT
  0
POLYLINE
  5
2E48
  8
OBJECT
 66
     1
 10
0.0
 20
0.0
 30
0.0
  0
VERTEX
  5
42DA
  8
OBJECT
 10
13.835437254923731
 20
19.281685741091
 30
0.0
  0
VERTEX
  5
42DB
  8
OBJECT
 10
14.42043725492373
 20
19.281685741091
 30
0.0
  0
VERTEX
  5
42DC
  8
OBJECT
 10
14.42043725492373
 20
19.577685741090988
 30
0.0
  0
VERTEX
  5
42DD
  8
OBJECT
 10
13.835437254923731
 20
19.577685741090988
 30
0.0
  0
SEQEND
  5
42DE
  8
OBJECT
  0
POLYLINE
  5
2E49
  8
HIDDEN
 66
     1
 10
0.0
 20
0.0
 30
0.0
  0
VERTEX
  5
42DF
  8
HIDDEN
 10
14.42043725492373
 20
19.47468574109099
 30
0.0
  0
VERTEX
  5
42E0
  8
HIDDEN
 10
13.77543725492373
 20
19.47468574109099
 30
0.0
  0
VERTEX
  5
42E1
  8
HIDDEN
 10
13.77543725492373
 20
19.384685741090991
 30
0.0
  0
VERTEX
  5
42E2
  8
HIDDEN
 10
14.42043725492373
 20
19.384685741090991
 30
0.0
  0
SEQEND
  5
42E3
  8
HIDDEN
  0
LINE
  5
2E4A
  8
OBJECT
 10
13.905437254923729
 20
19.836685741090989
 30
0.0
 11
13.835437254923731
 21
19.90168574109099
 31
0.0
  0
LINE
  5
2E4B
  8
OBJECT
 10
13.823937254923729
 20
19.74168574109099
 30
0.0
 11
13.823937254923729
 21
19.836685741090989
 31
0.0
  0
LINE
  5
2E4C
  8
OBJECT
 10
13.905437254923729
 20
19.74168574109099
 30
0.0
 11
13.905437254923729
 21
19.696685741090992
 31
0.0
  0
LINE
  5
2E4D
  8
HIDDEN
 10
14.94243725492373
 20
19.49468574109099
 30
0.0
 11
14.42743725492373
 21
19.49468574109099
 31
0.0
  0
LINE
  5
2E4E
  8
HIDDEN
 10
14.94243725492373
 20
19.364685741090991
 30
0.0
 11
14.42743725492373
 21
19.364685741090991
 31
0.0
  0
LINE
  5
2E4F
  8
OBJECT
 10
14.94243725492373
 20
19.74168574109099
 30
0.0
 11
14.94243725492373
 21
19.696685741090992
 31
0.0
  0
LINE
  5
2E50
  8
OBJECT
 10
15.02393725492373
 20
19.74168574109099
 30
0.0
 11
15.02393725492373
 21
19.836685741090989
 31
0.0
  0
LINE
  5
2E53
  8
OBJECT
 10
15.13243725492373
 20
12.81568574109099
 30
0.0
 11
13.71543725492373
 21
12.81568574109099
 31
0.0
  0
LINE
  5
2E54
  8
OBJECT
 10
13.71543725492373
 20
12.81568574109099
 30
0.0
 11
13.71543725492373
 21
19.90168574109099
 31
0.0
  0
LINE
  5
2E55
  8
OBJECT
 10
13.71543725492373
 20
19.90168574109099
 30
0.0
 11
15.132437254923721
 21
19.90168574109099
 31
0.0
  0
LINE
  5
2E56
  8
OBJECT
 10
15.132437254923721
 20
19.90168574109099
 30
0.0
 11
15.13243725492373
 21
12.81568574109099
 31
0.0
  0
LINE
  5
2E58
  8
OBJECT
 10
14.31443725492371
 20
19.577685741090988
 30
0.0
 11
14.31443725492371
 21
19.696685741090992
 31
0.0
  0
POLYLINE
  5
2E59
  8
OBJECT
 66
     1
 10
0.0
 20
0.0
 30
0.0
  0
VERTEX
  5
42E4
  8
OBJECT
 10
14.317437254923719
 20
19.577685741090988
 30
0.0
  0
VERTEX
  5
42E5
  8
OBJECT
 10
14.317437254923719
 20
19.676685741090989
 30
0.0
  0
VERTEX
  5
42E6
  8
OBJECT
 10
14.40443725492371
 20
19.676685741090989
 30
0.0
  0
VERTEX
  5
42E7
  8
OBJECT
 10
14.404437254923719
 20
19.90168574109099
 30
0.0
  0
SEQEND
  5
42E8
  8
OBJECT
  0
POLYLINE
  5
2E5B
  8
OBJECT
 66
     1
 10
0.0
 20
0.0
 30
0.0
  0
VERTEX
  5
42E9
  8
OBJECT
 10
14.317437254923719
 20
18.199685741090999
 30
0.0
  0
VERTEX
  5
42EA
  8
OBJECT
 10
14.317437254923719
 20
19.281685741091
 30
0.0
  0
SEQEND
  5
42EB
  8
OBJECT
  0
LINE
  5
2E5C
  8
OBJECT
 10
14.31443725492371
 20
18.199685741090999
 30
0.0
 11
14.31443725492371
 21
19.281685741091
 31
0.0
  0
LINE
  5
2E5D
  8
OBJECT
 10
14.31443725492371
 20
18.041685741091001
 30
0.0
 11
14.31443725492371
 21
18.139685741091
 31
0.0
  0
POLYLINE
  5
2E5E
  8
OBJECT
 66
     1
 10
0.0
 20
0.0
 30
0.0
  0
VERTEX
  5
42EC
  8
OBJECT
 10
14.317437254923719
 20
18.041685741091001
 30
0.0
  0
VERTEX
  5
42ED
  8
OBJECT
 10
14.317437254923719
 20
18.139685741091
 30
0.0
  0
SEQEND
  5
42EE
  8
OBJECT
  0
POLYLINE
  5
2E5F
  8
OBJECT
 66
     1
 10
0.0
 20
0.0
 30
0.0
  0
VERTEX
  5
42EF
  8
OBJECT
 10
14.317437254923719
 20
16.467685741091
 30
0.0
  0
VERTEX
  5
42F0
  8
OBJECT
 10
14.317437254923719
 20
17.981685741090999
 30
0.0
  0
SEQEND
  5
42F1
  8
OBJECT
  0
LINE
  5
2E60
  8
OBJECT
 10
14.314437254923719
 20
16.309685741090998
 30
0.0
 11
14.314437254923719
 21
16.407685741091001
 31
0.0
  0
POLYLINE
  5
2E61
  8
OBJECT
 66
     1
 10
0.0
 20
0.0
 30
0.0
  0
VERTEX
  5
42F2
  8
OBJECT
 10
14.317437254923719
 20
16.309685741090998
 30
0.0
  0
VERTEX
  5
42F3
  8
OBJECT
 10
14.317437254923719
 20
16.407685741091001
 30
0.0
  0
SEQEND
  5
42F4
  8
OBJECT
  0
POLYLINE
  5
2E62
  8
OBJECT
 66
     1
 10
0.0
 20
0.0
 30
0.0
  0
VERTEX
  5
42F5
  8
OBJECT
 10
14.317437254923719
 20
13.435685741090991
 30
0.0
  0
VERTEX
  5
42F6
  8
OBJECT
 10
14.317437254923719
 20
14.517685741091
 30
0.0
  0
SEQEND
  5
42F7
  8
OBJECT
  0
LINE
  5
2E63
  8
OBJECT
 10
14.314437254923719
 20
13.435685741090991
 30
0.0
 11
14.314437254923719
 21
14.517685741091
 31
0.0
  0
LINE
  5
2E65
  8
OBJECT
 10
14.314437254923719
 20
14.577685741091001
 30
0.0
 11
14.314437254923719
 21
14.675685741091
 31
0.0
  0
POLYLINE
  5
2E66
  8
OBJECT
 66
     1
 10
0.0
 20
0.0
 30
0.0
  0
VERTEX
  5
42F8
  8
OBJECT
 10
14.317437254923719
 20
14.577685741091001
 30
0.0
  0
VERTEX
  5
42F9
  8
OBJECT
 10
14.317437254923719
 20
14.675685741091
 30
0.0
  0
SEQEND
  5
42FA
  8
OBJECT
  0
POLYLINE
  5
2E67
  8
OBJECT
 66
     1
 10
0.0
 20
0.0
 30
0.0
  0
VERTEX
  5
42FB
  8
OBJECT
 10
14.317437254923719
 20
14.735685741091
 30
0.0
  0
VERTEX
  5
42FC
  8
OBJECT
 10
14.317437254923719
 20
16.249685741091
 30
0.0
  0
SEQEND
  5
42FD
  8
OBJECT
  0
LINE
  5
2E68
  8
OBJECT
 10
14.314437254923719
 20
14.735685741091
 30
0.0
 11
14.314437254923719
 21
16.249685741091
 31
0.0
  0
LINE
  5
2E6A
  8
OBJECT
 10
14.45243725492373
 20
13.02068574109099
 30
0.0
 11
14.45243725492373
 21
12.97568574109099
 31
0.0
  0
LINE
  5
2E6B
  8
OBJECT
 10
14.452437254923719
 20
13.02068574109099
 30
0.0
 11
15.01243725492373
 21
13.02068574109099
 31
0.0
  0
LINE
  5
2E6C
  8
OBJECT
 10
14.45243725492373
 20
19.696685741090992
 30
0.0
 11
14.45243725492373
 21
19.74168574109099
 31
0.0
  0
LINE
  5
2E6D
  8
OBJECT
 10
14.45243725492373
 20
19.696685741090992
 30
0.0
 11
15.01243725492372
 21
19.696685741090992
 31
0.0
  0
LINE
  5
2E70
  8
OBJECT
 10
1.5656808774590301
 20
16.591531474087699
 30
0.0
 11
1.5656808774590301
 21
13.02068574109099
 31
0.0
  0
POLYLINE
  5
2E71
  8
OBJECT
 66
     1
 10
0.0
 20
0.0
 30
0.0
  0
VERTEX
  5
42FE
  8
OBJECT
 10
1.5752092074454851
 20
16.59124019339583
 30
0.0
  0
VERTEX
  5
42FF
  8
OBJECT
 10
1.5752092074454851
 20
13.040685741090989
 30
0.0
  0
VERTEX
  5
4300
  8
OBJECT
 10
1.6256808774590319
 20
13.040685741090989
 30
0.0
  0
SEQEND
  5
4301
  8
OBJECT
  0
LINE
  5
2E72
  8
OBJECT
 10
1.6256808774590319
 20
16.590103081855499
 30
0.0
 11
1.6256808774590319
 21
12.880685741090989
 31
0.0
  0
POLYLINE
  5
2E73
  8
OBJECT
 66
     1
 10
0.0
 20
0.0
 30
0.0
  0
VERTEX
  5
4302
  8
OBJECT
 10
7.5381525474725768
 20
16.59337472421322
 30
0.0
  0
VERTEX
  5
4303
  8
OBJECT
 10
7.5381525474725768
 20
13.040685741090989
 30
0.0
  0
VERTEX
  5
4304
  8
OBJECT
 10
7.48768087745903
 20
13.040685741090989
 30
0.0
  0
SEQEND
  5
4305
  8
OBJECT
  0
LINE
  5
2E74
  8
HIDDEN
 10
7.5476808774590332
 20
16.593325812674969
 30
0.0
 11
7.5476808774590332
 21
19.696685741090992
 31
0.0
  0
LINE
  5
2E75
  8
HIDDEN
 10
7.48768087745903
 20
16.594008776835871
 30
0.0
 11
7.48768087745903
 21
19.836685741090989
 31
0.0
  0
DIMENSION
  5
31E1
  8
DIM
  2
*D28
 10
8.3854753327702891
 20
18.09068574109099
 30
0.0
 11
8.3854753327702891
 21
17.22468574109099
 31
0.0
 70
     0
 13
4.6466808774590334
 23
16.358685741090991
 33
0.0
 14
7.7276808774590364
 24
18.09068574109099
 34
0.0
 50
270.0
  0
LINE
  5
31E2
  8
CENTER
 10
7.3126808774590373
 20
18.09068574109099
 30
0.0
 11
7.7276808774590364
 21
18.09068574109099
 31
0.0
  0
DIMENSION
  5
3211
  8
DIM
  2
*D29
 10
1.485680877459028
 20
12.180187793244
 30
0.0
 11
0.5411496274590285
 21
12.180187793244
 31
0.0
 70
     0
 13
1.8441808774590269
 23
13.287685741090989
 33
0.0
 14
1.485680877459028
 24
12.81568574109099
 34
0.0
  0
DIMENSION
  5
3229
  8
DIM
  2
*D30
 10
8.1360989776915797
 20
19.901685741090979
 30
0.0
 11
8.1360989776915762
 21
19.665685741090979
 31
0.0
 70
     0
 13
7.2691808774590321
 23
19.429685741090982
 33
0.0
 14
7.6276808774590306
 24
19.901685741090979
 34
0.0
 50
270.0
  0
POLYLINE
  8
0
  5
458A
  66
     1
 10
0.000000
 20
0.000000
 30
0.000000
  70
     8
  0
VERTEX
  8
0
  5
458B
 10
4.38927
 20
20.1397
 30
0.000000
  70
    32
  0
VERTEX
  8
0
  5
458C
 10
5.04832
 20
20.1397
 30
0.000000
  70
    32
  0
VERTEX
  8
0
  5
458D
 10
5.04832
 20
12.5777
 30
0.000000
  70
    32
  0
SEQEND
  8
0
  5
458E
  0
POLYLINE
  8
0
  5
458F
  66
     1
 10
0.000000
 20
0.000000
 30
0.000000
  70
     8
  0
VERTEX
  8
0
  5
4590
 10
4.38927
 20
12.5777
 30
0.000000
  70
    32
  0
VERTEX
  8
0
  5
4591
 10
5.04832
 20
12.5777
 30
0.000000
  70
    32
  0
SEQEND
  8
0
  5
4592
  0
INSERT
  5
4022
  8
OBJECT
  6
CONTINUOUS
  2
*X35
 10
0.0
 20
0.0
 30
0.0
1001
ACAD
1000
HATCH
1002
{
1070
    19
1000
ANSI32
1040
0.5
1040
0.0
1000
R14_HATCH_DATA
1000
4022
1011
1.0
1021
0.0
1031
3.4860183952322352E+041
1021
0.0
1031
0.0
1011
0.0
1021
0.0
1031
3.4860183952322352E+041
1021
1.0
1031
0.0
1011
0.0
1021
0.0
1031
3.4860183952322352E+041
1021
0.0
1031
1.0
1040
0.0
1010
0.0
1020
0.0
1030
1.0
1000
ANSI32
1070
     0
1070
     0
1071
        1
1071
        7
1070
     0
1070
     1
1071
       16
1040
13.835437254923731
1040
19.696685741090992
1040
13.905437254923729
1040
19.696685741090999
1040
13.905437254923729
1040
19.74168574109099
1040
13.823937254923729
1040
19.74168574109099
1040
13.823937254923729
1040
19.836685741090989
1040
13.905437254923729
1040
19.836685741090989
1040
13.835437254923731
1040
19.90168574109099
1040
13.71543725492373
1040
19.90168574109099
1040
13.71543725492373
1040
12.81568574109099
1040
13.83543725492372
1040
12.81568574109099
1040
13.90543725492372
1040
12.880685741090989
1040
13.823937254923729
1040
12.880685741090989
1040
13.823937254923729
1040
12.97568574109099
1040
13.905437254923729
1040
12.97568574109099
1040
13.905437254923729
1040
13.02068574109099
1040
13.835437254923731
1040
13.02068574109099
1071
        0
1070
     0
1070
     1
1040
0.0
1040
0.5
1070
     0
1070
     2
1040
0.7853981633974483
1040
0.0
1040
0.0
1040
-0.1325825214724776
1040
0.1325825214724777
1070
     0
1040
0.7853981633974483
1040
0.0883883475
1040
0.0
1040
-0.1325825214724776
1040
0.1325825214724777
1070
     0
1040
0.0135391740166927
1071
        1
1040
13.76949705059398
1040
17.666907507070231
1040
0.0
1002
}
  0
INSERT
  5
4044
  8
OBJECT
  6
CONTINUOUS
  2
*X36
 10
0.0
 20
0.0
 30
0.0
1001
ACAD
1000
HATCH
1002
{
1070
    19
1000
ANSI32
1040
0.5
1040
1.5707963267948959
1000
R14_HATCH_DATA
1000
4044
1011
1.0
1021
0.0
1031
3.4860183952322352E+041
1021
0.0
1031
0.0
1011
0.0
1021
0.0
1031
3.4860183952322352E+041
1021
1.0
1031
0.0
1011
0.0
1021
0.0
1031
3.4860183952322352E+041
1021
0.0
1031
1.0
1040
0.0
1010
0.0
1020
0.0
1030
1.0
1000
ANSI32
1070
     0
1070
     0
1071
        1
1071
        7
1070
     0
1070
     1
1071
       16
1040
15.132437254923721
1040
19.90168574109099
1040
15.01243725492373
1040
19.90168574109099
1040
14.94243725492373
1040
19.836685741090989
1040
15.02393725492372
1040
19.836685741090989
1040
15.02393725492373
1040
19.741685741090979
1040
14.94243725492373
1040
19.741685741090979
1040
14.94243725492373
1040
19.696685741090992
1040
15.01243725492372
1040
19.696685741090992
1040
15.01243725492373
1040
13.02068574109099
1040
14.94243725492373
1040
13.02068574109099
1040
14.94243725492373
1040
12.97568574109099
1040
15.02393725492373
1040
12.97568574109099
1040
15.02393725492372
1040
12.880685741090989
1040
14.942437254923741
1040
12.880685741090989
1040
15.012437254923739
1040
12.81568574109099
1040
15.13243725492373
1040
12.81568574109099
1071
        0
1070
     0
1070
     1
1040
1.5707963267948959
1040
0.5
1070
     0
1070
     2
1040
2.3561944901923439
1040
0.0
1040
0.0
1040
-0.1325825214724777
1040
-0.1325825214724776
1070
     0
1040
2.3561944901923439
1040
0.0
1040
0.0883883475
1040
-0.1325825214724777
1040
-0.1325825214724776
1070
     0
1040
0.0135391740166927
1071
        1
1040
15.070260183685759
1040
17.734603390087809
1040
0.0
1002
}
  0
DIMENSION
  5
408F
  8
DIM
  2
*D31
 10
8.8779772405041193
 20
16.358685741090991
 30
0.0
 11
8.8779772405041175
 21
17.53268574109099
 31
0.0
 70
     0
 13
6.9386808774590314
 23
18.70668574109099
 33
0.0
 14
6.9386808774590314
 24
16.358685741090991
 34
0.0
 50
90.0
  0
DIMENSION
  5
409D
  8
DIM
  2
*D32
 10
8.8779772405041193
 20
14.01068574109099
 30
0.0
 11
8.8779772405041175
 21
15.184685741090989
 31
0.0
 70
     0
 13
6.9386808774590314
 23
16.358685741090991
 33
0.0
 14
6.9386808774590314
 24
14.01068574109099
 34
0.0
 50
90.0
  0
ENDSEC
  0
EOF
