  0
SECTION
  2
HEADER
  9
$ACADVER
  1
AC1009
  9
$INSBASE
 10
0.0
 20
0.0
 30
0.0
  9
$EXTMIN
 10
0.0
 20
-0.0000000000000027
 30
-0.00000001
  9
$EXTMAX
 10
15.89999996025
 20
23.489999941274998
 30
0.00000001
  9
$LIMMIN
 10
0.0
 20
0.0
  9
$LIMMAX
 10
15.89999996025
 20
23.489999941274991
  9
$ORTHOMODE
 70
     1
  9
$REGENMODE
 70
     1
  9
$FILLMODE
 70
     1
  9
$QTEXTMODE
 70
     0
  9
$MIRRTEXT
 70
     0
  9
$DRAGMODE
 70
     2
  9
$LTSCALE
 40
0.375
  9
$OSMODE
 70
    37
  9
$ATTMODE
 70
     1
  9
$TEXTSIZE
 40
0.125
  9
$TRACEWID
 40
0.05
  9
$TEXTSTYLE
  7
TXT
  9
$CLAYER
  8
OBJECT
  9
$CELTYPE
  6
BYLAYER
  9
$CECOLOR
 62
   256
  9
$DIMSCALE
 40
1.5
  9
$DIMASZ
 40
0.18
  9
$DIMEXO
 40
0.063
  9
$DIMDLI
 40
0.281
  9
$DIMRND
 40
0.0
  9
$DIMDLE
 40
0.0
  9
$DIMEXE
 40
0.093
  9
$DIMTP
 40
0.0
  9
$DIMTM
 40
0.0
  9
$DIMTXT
 40
0.125
  9
$DIMCEN
 40
0.09
  9
$DIMTSZ
 40
0.0
  9
$DIMTOL
 70
     0
  9
$DIMLIM
 70
     0
  9
$DIMTIH
 70
     1
  9
$DIMTOH
 70
     1
  9
$DIMSE1
 70
     0
  9
$DIMSE2
 70
     0
  9
$DIMTAD
 70
     0
  9
$DIMZIN
 70
     0
  9
$DIMBLK
  1

  9
$DIMASO
 70
     1
  9
$DIMSHO
 70
     1
  9
$DIMPOST
  1

  9
$DIMAPOST
  1

  9
$DIMALT
 70
     0
  9
$DIMALTD
 70
     2
  9
$DIMALTF
 40
25.399999999999999
  9
$DIMLFAC
 40
1.0
  9
$DIMTOFL
 70
     0
  9
$DIMTVP
 40
0.0
  9
$DIMTIX
 70
     0
  9
$DIMSOXD
 70
     0
  9
$DIMSAH
 70
     0
  9
$DIMBLK1
  1

  9
$DIMBLK2
  1

  9
$DIMSTYLE
  2
DIM
  9
$DIMCLRD
 70
     0
  9
$DIMCLRE
 70
     0
  9
$DIMCLRT
 70
     0
  9
$DIMTFAC
 40
1.0
  9
$DIMGAP
 40
0.09
  9
$LUNITS
 70
     2
  9
$LUPREC
 70
     8
  9
$SKETCHINC
 40
0.1
  9
$FILLETRAD
 40
0.0
  9
$AUNITS
 70
     0
  9
$AUPREC
 70
     0
  9
$MENU
  1
acad
  9
$ELEVATION
 40
0.0
  9
$PELEVATION
 40
0.0
  9
$THICKNESS
 40
0.0
  9
$LIMCHECK
 70
     0
  9
$BLIPMODE
 70
     0
  9
$CHAMFERA
 40
0.125
  9
$CHAMFERB
 40
0.125
  9
$SKPOLY
 70
     0
  9
$TDCREATE
 40
2451572.3832693049
  9
$TDUPDATE
 40
2451852.3578752419
  9
$TDINDWG
 40
1.0053345833
  9
$TDUSRTIMER
 40
1.0053331366
  9
$USRTIMER
 70
     1
  9
$ANGBASE
 50
0.0
  9
$ANGDIR
 70
     0
  9
$PDMODE
 70
     0
  9
$PDSIZE
 40
0.0
  9
$PLINEWID
 40
0.0
  9
$COORDS
 70
     2
  9
$SPLFRAME
 70
     0
  9
$SPLINETYPE
 70
     6
  9
$SPLINESEGS
 70
     8
  9
$ATTDIA
 70
     0
  9
$ATTREQ
 70
     1
  9
$HANDLING
 70
  4097
  9
$HANDSEED
  5
61E0
  9
$SURFTAB1
 70
     6
  9
$SURFTAB2
 70
     6
  9
$SURFTYPE
 70
     6
  9
$SURFU
 70
     6
  9
$SURFV
 70
     6
  9
$UCSNAME
  2

  9
$UCSORG
 10
0.0
 20
0.0
 30
0.0
  9
$UCSXDIR
 10
1.0
 20
0.0
 30
0.0
  9
$UCSYDIR
 10
0.0
 20
1.0
 30
0.0
  9
$PUCSNAME
  2

  9
$PUCSORG
 10
0.0
 20
0.0
 30
0.0
  9
$PUCSXDIR
 10
1.0
 20
0.0
 30
0.0
  9
$PUCSYDIR
 10
0.0
 20
1.0
 30
0.0
  9
$USERI1
 70
     0
  9
$USERI2
 70
     0
  9
$USERI3
 70
     0
  9
$USERI4
 70
     0
  9
$USERI5
 70
     0
  9
$USERR1
 40
0.0
  9
$USERR2
 40
0.0
  9
$USERR3
 40
0.0
  9
$USERR4
 40
0.0
  9
$USERR5
 40
0.0
  9
$WORLDVIEW
 70
     1
  9
$SHADEDGE
 70
     3
  9
$SHADEDIF
 70
    70
  9
$TILEMODE
 70
     1
  9
$MAXACTVP
 70
    16
  9
$PLIMCHECK
 70
     0
  9
$PEXTMIN
 10
1.0000000000000000E+020
 20
1.0000000000000000E+020
 30
1.0000000000000000E+020
  9
$PEXTMAX
 10
-1.0000000000000000E+020
 20
-1.0000000000000000E+020
 30
-1.0000000000000000E+020
  9
$PLIMMIN
 10
0.0
 20
0.0
  9
$PLIMMAX
 10
12.0
 20
9.0
  9
$UNITMODE
 70
     0
  9
$VISRETAIN
 70
     0
  9
$PLINEGEN
 70
     0
  9
$PSLTSCALE
 70
     1
  0
ENDSEC
  0
SECTION
  2
TABLES
  0
TABLE
  2
VPORT
 70
     2
  0
VPORT
  2
*ACTIVE
 70
     0
 10
0.0
 20
0.0
 11
1.0
 21
1.0
 12
7.9501322218191923
 22
11.7458077224005
 13
0.0
 23
0.0
 14
0.125
 24
0.125
 15
0.5
 25
0.5
 16
0.0
 26
0.0
 36
1.0
 17
0.0
 27
0.0
 37
0.0
 40
23.746167640579891
 41
1.7450271247739599
 42
50.0
 43
0.0
 44
0.0
 50
0.0
 51
0.0
 71
     0
 72
   100
 73
     1
 74
     0
 75
     0
 76
     0
 77
     0
 78
     0
  0
ENDTAB
  0
TABLE
  2
LTYPE
 70
     6
  0
LTYPE
  2
CONTINUOUS
 70
     0
  3
Solid line
 72
    65
 73
     0
 40
0.0
  0
LTYPE
  2
HIDDEN
 70
     0
  3
_ _ _ _ _ _ _ _ _ _ _ _ _ _ _ _ _ _ _ _ _ _ _
 72
    65
 73
     2
 40
0.375
 49
0.25
 49
-0.125
  0
LTYPE
  2
PHANTOM
 70
     0
  3
_____ _ _ _____ _ _ _____ _ _ _____ _ _ ____
 72
    65
 73
     6
 40
2.5
 49
1.25
 49
-0.25
 49
0.25
 49
-0.25
 49
0.25
 49
-0.25
  0
LTYPE
  2
CENTER
 70
     0
  3
____ _ ____ _ ____ _ ____ _ ____ _ ____ _ ____
 72
    65
 73
     4
 40
2.0
 49
1.25
 49
-0.25
 49
0.25
 49
-0.25
  0
LTYPE
  2
HIDDEN2
 70
     0
  3
_ _ _ _ _ _ _ _ _ _ _ _ _ _ _ _ _ _ _ _ _ _ _ _
 72
    65
 73
     2
 40
0.1875
 49
0.125
 49
-0.0625
  0
LTYPE
  2
PHANTOM2
 70
     0
  3
___ _ _ ___ _ _ ___ _ _ ___ _ _ ___ _ _ ___ _ _
 72
    65
 73
     6
 40
1.25
 49
0.625
 49
-0.125
 49
0.125
 49
-0.125
 49
0.125
 49
-0.125
  0
ENDTAB
  0
TABLE
  2
LAYER
 70
     9
  0
LAYER
  2
0
 70
     0
 62
     7
  6
CONTINUOUS
  0
LAYER
  2
OBJECT
 70
     0
 62
     7
  6
CONTINUOUS
  0
LAYER
  2
DIM
 70
     0
 62
     2
  6
CONTINUOUS
  0
LAYER
  2
HIDDEN
 70
     0
 62
     6
  6
HIDDEN
  0
LAYER
  2
BEND
 70
     0
 62
     4
  6
PHANTOM
  0
LAYER
  2
TEXT
 70
     0
 62
     1
  6
CONTINUOUS
  0
LAYER
  2
TITLE
 70
     0
 62
     8
  6
CONTINUOUS
  0
LAYER
  2
CENTER
 70
     0
 62
     3
  6
CENTER
  0
LAYER
  2
DEFPOINTS
 70
     0
 62
     7
  6
CONTINUOUS
  0
ENDTAB
  0
TABLE
  2
STYLE
 70
     2
  0
STYLE
  2
TXT
 70
     0
 40
0.0
 41
0.75
 50
0.0
 71
     0
 42
0.125
  3
TXT.shx
  4

  0
STYLE
  2
SANSSERIF
 70
     0
 40
0.0
 41
1.0
 50
0.0
 71
     0
 42
0.234
  3
txt
  4

  0
ENDTAB
  0
TABLE
  2
VIEW
 70
     0
  0
ENDTAB
  0
TABLE
  2
UCS
 70
     0
  0
ENDTAB
  0
TABLE
  2
APPID
 70
     1
  0
APPID
  2
ACAD
 70
     0
  0
ENDTAB
  0
TABLE
  2
DIMSTYLE
 70
     2
  0
DIMSTYLE
  2
DIM
 70
     0
  3

  4

  5

  6

  7

 40
1.5
 41
0.18
 42
0.063
 43
0.281
 44
0.093
 45
0.0
 46
0.0
 47
0.0
 48
0.0
140
0.125
141
0.09
142
0.0
143
25.399999999999999
144
1.0
145
0.0
146
1.0
147
0.09
 71
     0
 72
     0
 73
     1
 74
     1
 75
     0
 76
     0
 77
     0
 78
     0
170
     0
171
     2
172
     0
173
     0
174
     0
175
     0
176
     0
177
     0
178
     0
  0
DIMSTYLE
  2
DIMIN
 70
     0
  3

  4

  5

  6

  7

 40
1.5
 41
0.18
 42
0.063
 43
0.281
 44
0.093
 45
0.0
 46
0.0
 47
0.0
 48
0.0
140
0.125
141
0.09
142
0.0
143
25.399999999999999
144
1.0
145
0.0
146
1.0
147
0.09
 71
     0
 72
     0
 73
     1
 74
     1
 75
     0
 76
     0
 77
     0
 78
     0
170
     0
171
     2
172
     0
173
     0
174
     1
175
     0
176
     0
177
     0
178
     0
  0
ENDTAB
  0
ENDSEC
  0
SECTION
  2
BLOCKS
  0
BLOCK
  8
0
  2
$MODEL_SPACE
 70
     0
 10
0.0
 20
0.0
 30
0.0
  3
$MODEL_SPACE
  1

  0
ENDBLK
  5
34
  8
0
  0
BLOCK
 67
     1
  8
0
  2
$PAPER_SPACE
 70
     0
 10
0.0
 20
0.0
 30
0.0
  3
$PAPER_SPACE
  1

  0
ENDBLK
  5
32
 67
     1
  8
0
  0
BLOCK
  8
0
  2
HB
 70
     0
 10
0.0
 20
0.0
 30
0.0
  3
HB
  1

  0
TEXT
  5
8C3
  8
TEXT
 10
0.2078333333333363
 20
15.22007919564008
 30
0.0
 40
0.125
  1
NAME
 72
     1
 11
0.437000000000003
 21
15.22007919564008
 31
0.0
  0
TEXT
  5
8C4
  8
TEXT
 10
0.2078333333333363
 20
15.428412528973411
 30
0.0
 40
0.125
  1
PART
 72
     1
 11
0.437000000000003
 21
15.428412528973411
 31
0.0
  0
TEXT
  5
8C5
  8
TEXT
 10
5.6119999999999983
 20
15.22007919564008
 30
0.0
 40
0.125
  1
No.
 72
     1
 11
5.7369999999999983
 21
15.22007919564008
 31
0.0
  0
TEXT
  5
8C6
  8
TEXT
 10
5.5078333333333314
 20
15.428412528973411
 30
0.0
 40
0.125
  1
PART
 72
     1
 11
5.7369999999999983
 21
15.428412528973411
 31
0.0
  0
LINE
  5
8C7
  8
TITLE
 10
6.112000000000001
 20
15.598000000000001
 30
0.0
 11
6.112000000000001
 21
15.179999999999991
 31
0.0
  0
LINE
  5
8C8
  8
TITLE
 10
5.362000000000001
 20
15.598000000000001
 30
0.0
 11
5.362000000000001
 21
15.179999999999991
 31
0.0
  0
LINE
  5
8C9
  8
TITLE
 10
5.2999999999999998
 20
15.598000000000001
 30
0.0
 11
5.2999999999999998
 21
15.179999999999991
 31
0.0
  0
LINE
  5
8CA
  8
TITLE
 10
0.8120000000000029
 20
15.179999999999991
 30
0.0
 11
0.8120000000000011
 21
15.598000000000001
 31
0.0
  0
LINE
  5
8CB
  8
TITLE
 10
0.0620000000000012
 20
15.179999999999991
 30
0.0
 11
10.538
 21
15.179999999999991
 31
0.0
  0
LINE
  5
8CC
  8
TITLE
 10
10.538
 20
0.0619999999999994
 30
0.0
 11
0.0619999999999976
 21
0.0620000000000012
 31
0.0
  0
LINE
  5
8CD
  8
TITLE
 10
10.538
 20
15.598000000000001
 30
0.0
 11
10.538
 21
0.0619999999999994
 31
0.0
  0
LINE
  5
8CE
  8
TITLE
 10
0.0620000000000012
 20
15.598000000000001
 30
0.0
 11
10.538
 21
15.598000000000001
 31
0.0
  0
LINE
  5
8CF
  8
TITLE
 10
0.0619999999999976
 20
0.0620000000000012
 30
0.0
 11
0.0620000000000012
 21
15.598000000000001
 31
0.0
  0
LINE
  5
8D0
  8
TITLE
 10
0.0
 20
0.0
 30
0.0
 11
0.0
 21
15.66
 31
0.0
  0
LINE
  5
8D1
  8
TITLE
 10
10.6
 20
-0.0000000000000018
 30
0.0
 11
0.0
 21
0.0
 31
0.0
  0
LINE
  5
8D2
  8
TITLE
 10
10.6
 20
15.659999999999989
 30
0.0
 11
10.6
 21
-0.0000000000000018
 31
0.0
  0
LINE
  5
8D3
  8
TITLE
 10
0.0
 20
15.66
 30
0.0
 11
10.6
 21
15.659999999999989
 31
0.0
  0
ENDBLK
  5
8D5
  8
0
  0
BLOCK
  8
0
  2
*D1
 70
     1
 10
0.0
 20
0.0
 30
0.0
  3
*D1
  1

  0
LINE
  5
5CC7
  8
DIM
 62
     0
 10
1.551991768046272
 20
5.7884924891003626
 30
0.0
 11
1.1142371965178219
 21
5.7884924891003626
 31
0.0
  0
LINE
  5
5CC8
  8
DIM
 62
     0
 10
1.551991768046272
 20
4.432492489100361
 30
0.0
 11
1.114237196517821
 21
4.432492489100361
 31
0.0
  0
LINE
  5
5CC9
  8
DIM
 62
     0
 10
1.2537371965178219
 20
5.5184924891003631
 30
0.0
 11
1.253737196517821
 21
5.3392424891003616
 31
0.0
  0
LINE
  5
5CCA
  8
DIM
 62
     0
 10
1.253737196517821
 20
4.7024924891003614
 30
0.0
 11
1.253737196517821
 21
4.881742489100362
 31
0.0
  0
SOLID
  5
5CCB
  8
DIM
 62
     0
 10
1.208737196517822
 20
5.5184924891003631
 30
0.0
 11
1.298737196517822
 21
5.5184924891003631
 31
0.0
 12
1.2537371965178219
 22
5.7884924891003626
 32
0.0
 13
1.2537371965178219
 23
5.7884924891003626
 33
0.0
  0
SOLID
  5
5CCC
  8
DIM
 62
     0
 10
1.2087371965178211
 20
4.7024924891003614
 30
0.0
 11
1.2987371965178209
 21
4.7024924891003614
 31
0.0
 12
1.253737196517821
 22
4.432492489100361
 32
0.0
 13
1.253737196517821
 23
4.432492489100361
 33
0.0
  0
TEXT
  5
5CCD
  8
OBJECT
 62
     0
 10
1.206862196517821
 20
5.0167424891003618
 30
0.0
 40
0.1875
  1
H
 41
0.75
  0
POINT
  5
5CCE
  8
DEFPOINTS
 62
     0
 10
1.6464917680462721
 20
5.7884924891003626
 30
0.0
  0
POINT
  5
5CCF
  8
DEFPOINTS
 62
     0
 10
1.6464917680462721
 20
4.432492489100361
 30
0.0
  0
POINT
  5
5CD0
  8
DEFPOINTS
 62
     0
 10
1.253737196517821
 20
4.432492489100361
 30
0.0
  0
ENDBLK
  5
E62
  8
0
  0
BLOCK
  8
0
  2
*D2
 70
     1
 10
0.0
 20
0.0
 30
0.0
  3
*D2
  1

  0
LINE
  5
4C1D
  8
DIM
 62
     0
 10
6.805928971548215
 20
5.71799248910036
 30
0.0
 11
8.1433557688087195
 21
5.71799248910036
 31
0.0
  0
LINE
  5
4C1E
  8
DIM
 62
     0
 10
6.805928971548215
 20
4.5029924891003601
 30
0.0
 11
8.1433557688087195
 21
4.5029924891003601
 31
0.0
  0
LINE
  5
4C1F
  8
DIM
 62
     0
 10
8.0038557688087195
 20
5.9879924891003604
 30
0.0
 11
8.0038557688087195
 21
6.25799248910036
 31
0.0
  0
LINE
  5
4C20
  8
DIM
 62
     0
 10
8.0038557688087195
 20
4.2329924891003614
 30
0.0
 11
8.0038557688087177
 21
3.9629924891003601
 31
0.0
  0
SOLID
  5
4C21
  8
DIM
 62
     0
 10
7.9588557688087178
 20
5.9879924891003604
 30
0.0
 11
8.0488557688087194
 21
5.9879924891003604
 31
0.0
 12
8.0038557688087195
 22
5.71799248910036
 32
0.0
 13
8.0038557688087195
 23
5.71799248910036
 33
0.0
  0
SOLID
  5
4C22
  8
DIM
 62
     0
 10
7.9588557688087178
 20
4.2329924891003614
 30
0.0
 11
8.0488557688087194
 21
4.2329924891003614
 31
0.0
 12
8.0038557688087195
 22
4.5029924891003601
 32
0.0
 13
8.0038557688087195
 23
4.5029924891003601
 33
0.0
  0
TEXT
  5
4C23
  8
OBJECT
 62
     0
 10
6.9726057688087169
 20
5.0167424891003609
 30
0.0
 40
0.1875
  1
J EXPOSED PANEL
 41
0.75
  0
POINT
  5
4C24
  8
DEFPOINTS
 62
     0
 10
6.7114289715482149
 20
5.71799248910036
 30
0.0
  0
POINT
  5
4C25
  8
DEFPOINTS
 62
     0
 10
6.7114289715482149
 20
4.5029924891003601
 30
0.0
  0
POINT
  5
4C26
  8
DEFPOINTS
 62
     0
 10
8.0038557688087195
 20
4.5029924891003601
 30
0.0
  0
ENDBLK
  5
E70
  8
0
  0
BLOCK
  8
0
  2
*D3
 70
     1
 10
0.0
 20
0.0
 30
0.0
  3
*D3
  1

  0
LINE
  5
5CA5
  8
DIM
 62
     0
 10
1.699554564544328
 20
4.4084924891003601
 30
0.0
 11
1.699554564544328
 21
3.8711414207603791
 31
0.0
  0
LINE
  5
5CA6
  8
DIM
 62
     0
 10
6.7114289715482149
 20
4.4084924891003601
 30
0.0
 11
6.7114289715482149
 21
3.8711414207603791
 31
0.0
  0
LINE
  5
5CA7
  8
DIM
 62
     0
 10
1.969554564544328
 20
4.0106414207603791
 30
0.0
 11
2.840023018046272
 21
4.0106414207603791
 31
0.0
  0
LINE
  5
5CA8
  8
DIM
 62
     0
 10
6.4414289715482163
 20
4.0106414207603791
 30
0.0
 11
5.570960518046272
 21
4.0106414207603791
 31
0.0
  0
SOLID
  5
5CA9
  8
DIM
 62
     0
 10
1.969554564544328
 20
4.055641420760379
 30
0.0
 11
1.969554564544328
 21
3.9656414207603792
 31
0.0
 12
1.699554564544328
 22
4.0106414207603791
 32
0.0
 13
1.699554564544328
 23
4.0106414207603791
 33
0.0
  0
SOLID
  5
5CAA
  8
DIM
 62
     0
 10
6.4414289715482163
 20
4.055641420760379
 30
0.0
 11
6.4414289715482163
 21
3.9656414207603792
 31
0.0
 12
6.7114289715482149
 22
4.0106414207603791
 32
0.0
 13
6.7114289715482149
 23
4.0106414207603791
 33
0.0
  0
TEXT
  5
5CAB
  8
OBJECT
 62
     0
 10
2.9750230180462718
 20
3.9168914207603791
 30
0.0
 40
0.1875
  1
5.012 EXPOSED PANEL
 41
0.75
  0
POINT
  5
5CAC
  8
DEFPOINTS
 62
     0
 10
1.699554564544328
 20
4.5029924891003601
 30
0.0
  0
POINT
  5
5CAD
  8
DEFPOINTS
 62
     0
 10
6.7114289715482149
 20
4.5029924891003601
 30
0.0
  0
POINT
  5
5CAE
  8
DEFPOINTS
 62
     0
 10
6.7114289715482149
 20
4.0106414207603791
 30
0.0
  0
ENDBLK
  5
E7F
  8
0
  0
BLOCK
  8
0
  2
*D4
 70
     1
 10
0.0
 20
0.0
 30
0.0
  3
*D4
  1

  0
LINE
  5
4C31
  8
DIM
 62
     0
 10
1.488491768046273
 20
8.7752344840616932
 30
0.0
 11
1.488491768046273
 21
10.063382287140589
 31
0.0
  0
LINE
  5
4C32
  8
DIM
 62
     0
 10
6.9224917680462701
 20
8.7752344840616932
 30
0.0
 11
6.9224917680462701
 21
10.063382287140589
 31
0.0
  0
LINE
  5
4C33
  8
DIM
 62
     0
 10
1.7584917680462731
 20
9.9238822871405947
 30
0.0
 11
3.789241768046272
 21
9.9238822871405947
 31
0.0
  0
LINE
  5
4C34
  8
DIM
 62
     0
 10
6.6524917680462714
 20
9.9238822871405947
 30
0.0
 11
4.621741768046272
 21
9.9238822871405947
 31
0.0
  0
SOLID
  5
4C35
  8
DIM
 62
     0
 10
1.7584917680462731
 20
9.9688822871405947
 30
0.0
 11
1.7584917680462731
 21
9.8788822871405948
 31
0.0
 12
1.488491768046273
 22
9.9238822871405947
 32
0.0
 13
1.488491768046273
 23
9.9238822871405947
 33
0.0
  0
SOLID
  5
4C36
  8
DIM
 62
     0
 10
6.6524917680462714
 20
9.9688822871405947
 30
0.0
 11
6.6524917680462714
 21
9.8788822871405948
 31
0.0
 12
6.9224917680462701
 22
9.9238822871405947
 32
0.0
 13
6.9224917680462701
 23
9.9238822871405947
 33
0.0
  0
TEXT
  5
4C37
  8
OBJECT
 62
     0
 10
3.9242417680462718
 20
9.8301322871405947
 30
0.0
 40
0.1875
  1
5.434
 41
0.75
  0
POINT
  5
4C38
  8
DEFPOINTS
 62
     0
 10
1.488491768046273
 20
8.6807344840616931
 30
0.0
  0
POINT
  5
4C39
  8
DEFPOINTS
 62
     0
 10
6.9224917680462701
 20
8.6807344840616931
 30
0.0
  0
POINT
  5
4C3A
  8
DEFPOINTS
 62
     0
 10
6.9224917680462701
 20
9.9238822871405947
 30
0.0
  0
ENDBLK
  5
EF1
  8
0
  0
BLOCK
  8
0
  2
*D5
 70
     1
 10
0.0
 20
0.0
 30
0.0
  3
*D5
  1

  0
LINE
  5
4D54
  8
DIM
 62
     0
 10
13.775685509912369
 20
17.46718574109099
 30
0.0
 11
13.775685509912369
 21
18.152502457235769
 31
0.0
  0
LINE
  5
4D55
  8
DIM
 62
     0
 10
14.798685509912371
 20
17.46718574109099
 30
0.0
 11
14.798685509912371
 21
18.152502457235769
 31
0.0
  0
LINE
  5
4D56
  8
DIM
 62
     0
 10
13.50568550991237
 20
18.013002457235771
 30
0.0
 11
13.235685509912379
 21
18.013002457235771
 31
0.0
  0
LINE
  5
4D57
  8
DIM
 62
     0
 10
15.06868550991237
 20
18.013002457235771
 30
0.0
 11
15.33868550991237
 21
18.013002457235771
 31
0.0
  0
SOLID
  5
4D58
  8
DIM
 62
     0
 10
13.50568550991237
 20
18.058002457235769
 30
0.0
 11
13.50568550991237
 21
17.968002457235759
 31
0.0
 12
13.775685509912369
 22
18.013002457235771
 32
0.0
 13
13.775685509912369
 23
18.013002457235771
 33
0.0
  0
SOLID
  5
4D59
  8
DIM
 62
     0
 10
15.06868550991237
 20
18.058002457235769
 30
0.0
 11
15.06868550991237
 21
17.968002457235759
 31
0.0
 12
14.798685509912371
 22
18.013002457235771
 32
0.0
 13
14.798685509912371
 23
18.013002457235771
 33
0.0
  0
TEXT
  5
4D5A
  8
OBJECT
 62
     0
 10
14.240310509912369
 20
17.919252457235771
 30
0.0
 40
0.1875
  1
E
 41
0.75
  0
POINT
  5
4D5B
  8
DEFPOINTS
 62
     0
 10
13.775685509912369
 20
17.37268574109099
 30
0.0
  0
POINT
  5
4D5C
  8
DEFPOINTS
 62
     0
 10
14.798685509912371
 20
17.37268574109099
 30
0.0
  0
POINT
  5
4D5D
  8
DEFPOINTS
 62
     0
 10
14.798685509912371
 20
18.013002457235771
 30
0.0
  0
ENDBLK
  5
F00
  8
0
  0
BLOCK
  8
0
  2
*D6
 70
     1
 10
0.0
 20
0.0
 30
0.0
  3
*D6
  1

  0
LINE
  5
4D4A
  8
DIM
 62
     0
 10
14.95468550991237
 20
14.404448766386791
 30
0.0
 11
14.95468550991237
 21
14.593448766386789
 31
0.0
  0
LINE
  5
4D4B
  8
DIM
 62
     0
 10
13.619685509912379
 20
14.404448766386791
 30
0.0
 11
13.619685509912379
 21
14.593448766386789
 31
0.0
  0
LINE
  5
4D4C
  8
DIM
 62
     0
 10
14.68468550991237
 20
14.453948766386789
 30
0.0
 11
14.469060509912371
 21
14.453948766386789
 31
0.0
  0
LINE
  5
4D4D
  8
DIM
 62
     0
 10
13.88968550991237
 20
14.453948766386789
 30
0.0
 11
14.105310509912369
 21
14.453948766386789
 31
0.0
  0
SOLID
  5
4D4E
  8
DIM
 62
     0
 10
14.68468550991237
 20
14.498948766386791
 30
0.0
 11
14.68468550991237
 21
14.408948766386789
 31
0.0
 12
14.95468550991237
 22
14.453948766386789
 32
0.0
 13
14.95468550991237
 23
14.453948766386789
 33
0.0
  0
SOLID
  5
4D4F
  8
DIM
 62
     0
 10
13.88968550991237
 20
14.498948766386791
 30
0.0
 11
13.88968550991237
 21
14.408948766386789
 31
0.0
 12
13.619685509912379
 22
14.453948766386789
 32
0.0
 13
13.619685509912379
 23
14.453948766386789
 33
0.0
  0
TEXT
  5
4D50
  8
OBJECT
 62
     0
 10
14.240310509912369
 20
14.360198766386789
 30
0.0
 40
0.1875
  1
D
 41
0.75
  0
POINT
  5
4D51
  8
DEFPOINTS
 62
     0
 10
14.95468550991237
 20
14.309948766386791
 30
0.0
  0
POINT
  5
4D52
  8
DEFPOINTS
 62
     0
 10
13.619685509912379
 20
14.309948766386791
 30
0.0
  0
POINT
  5
4D53
  8
DEFPOINTS
 62
     0
 10
13.619685509912379
 20
14.453948766386789
 30
0.0
  0
ENDBLK
  5
F0E
  8
0
  0
BLOCK
  8
0
  2
*D7
 70
     1
 10
0.0
 20
0.0
 30
0.0
  3
*D7
  1

  0
LINE
  5
4D40
  8
DIM
 62
     0
 10
14.31568550991237
 20
15.32818574109098
 30
0.0
 11
14.31568550991237
 21
14.905851133063701
 31
0.0
  0
LINE
  5
4D41
  8
DIM
 62
     0
 10
15.074685509912371
 20
15.32918574109098
 30
0.0
 11
15.074685509912371
 21
14.905851133063701
 31
0.0
  0
LINE
  5
4D42
  8
DIM
 62
     0
 10
14.045685509912371
 20
15.045351133063701
 30
0.0
 11
13.775685509912369
 21
15.045351133063701
 31
0.0
  0
LINE
  5
4D43
  8
DIM
 62
     0
 10
15.34468550991237
 20
15.045351133063701
 30
0.0
 11
15.61468550991237
 21
15.045351133063701
 31
0.0
  0
SOLID
  5
4D44
  8
DIM
 62
     0
 10
14.045685509912371
 20
15.090351133063701
 30
0.0
 11
14.045685509912371
 21
15.000351133063701
 31
0.0
 12
14.31568550991237
 22
15.045351133063701
 32
0.0
 13
14.31568550991237
 23
15.045351133063701
 33
0.0
  0
SOLID
  5
4D45
  8
DIM
 62
     0
 10
15.34468550991237
 20
15.090351133063701
 30
0.0
 11
15.34468550991237
 21
15.000351133063701
 31
0.0
 12
15.074685509912371
 22
15.045351133063701
 32
0.0
 13
15.074685509912371
 23
15.045351133063701
 33
0.0
  0
TEXT
  5
4D46
  8
OBJECT
 62
     0
 10
14.64831050991237
 20
14.951601133063701
 30
0.0
 40
0.1875
  1
F
 41
0.75
  0
POINT
  5
4D47
  8
DEFPOINTS
 62
     0
 10
14.31568550991237
 20
15.42268574109098
 30
0.0
  0
POINT
  5
4D48
  8
DEFPOINTS
 62
     0
 10
15.074685509912371
 20
15.42368574109098
 30
0.0
  0
POINT
  5
4D49
  8
DEFPOINTS
 62
     0
 10
15.074685509912371
 20
15.045351133063701
 30
0.0
  0
ENDBLK
  5
F30
  8
0
  0
BLOCK
  8
0
  2
*D8
 70
     1
 10
0.0
 20
0.0
 30
0.0
  3
*D8
  1

  0
LINE
  5
4D5E
  8
DIM
 62
     0
 10
14.25868550991237
 20
15.735185741090991
 30
0.0
 11
14.25868550991237
 21
16.090654507964519
 31
0.0
  0
LINE
  5
4D5F
  8
DIM
 62
     0
 10
13.499685509912361
 20
15.73518574109098
 30
0.0
 11
13.499685509912361
 21
16.090654507964519
 31
0.0
  0
LINE
  5
4D60
  8
DIM
 62
     0
 10
14.52868550991237
 20
15.951154507964519
 30
0.0
 11
14.798685509912371
 21
15.951154507964519
 31
0.0
  0
LINE
  5
4D61
  8
DIM
 62
     0
 10
13.22968550991237
 20
15.951154507964519
 30
0.0
 11
12.95968550991236
 21
15.951154507964519
 31
0.0
  0
SOLID
  5
4D62
  8
DIM
 62
     0
 10
14.52868550991237
 20
15.996154507964521
 30
0.0
 11
14.52868550991237
 21
15.906154507964519
 31
0.0
 12
14.25868550991237
 22
15.951154507964519
 32
0.0
 13
14.25868550991237
 23
15.951154507964519
 33
0.0
  0
SOLID
  5
4D63
  8
DIM
 62
     0
 10
13.22968550991237
 20
15.996154507964521
 30
0.0
 11
13.22968550991237
 21
15.906154507964519
 31
0.0
 12
13.499685509912361
 22
15.951154507964519
 32
0.0
 13
13.499685509912361
 23
15.951154507964519
 33
0.0
  0
TEXT
  5
4D64
  8
OBJECT
 62
     0
 10
13.83231050991237
 20
15.857404507964519
 30
0.0
 40
0.1875
  1
G
 41
0.75
  0
POINT
  5
4D65
  8
DEFPOINTS
 62
     0
 10
14.25868550991237
 20
15.640685741090991
 30
0.0
  0
POINT
  5
4D66
  8
DEFPOINTS
 62
     0
 10
13.499685509912361
 20
15.64068574109098
 30
0.0
  0
POINT
  5
4D67
  8
DEFPOINTS
 62
     0
 10
13.499685509912361
 20
15.951154507964519
 30
0.0
  0
ENDBLK
  5
F48
  8
0
  0
BLOCK
  8
0
  2
*D9
 70
     1
 10
0.0
 20
0.0
 30
0.0
  3
*D9
  1

  0
LINE
  5
4D2C
  8
DIM
 62
     0
 10
13.619685509912379
 20
16.498880701318129
 30
0.0
 11
13.619685509912379
 21
16.687880701318139
 31
0.0
  0
LINE
  5
4D2D
  8
DIM
 62
     0
 10
13.499685509912361
 20
16.498880701318129
 30
0.0
 11
13.499685509912361
 21
16.687880701318139
 31
0.0
  0
LINE
  5
4D2E
  8
DIM
 62
     0
 10
13.88968550991237
 20
16.548380701318131
 30
0.0
 11
14.15968550991237
 21
16.548380701318131
 31
0.0
  0
LINE
  5
4D2F
  8
DIM
 62
     0
 10
13.22968550991237
 20
16.548380701318131
 30
0.0
 11
12.95968550991236
 21
16.548380701318131
 31
0.0
  0
SOLID
  5
4D30
  8
DIM
 62
     0
 10
13.88968550991237
 20
16.593380701318139
 30
0.0
 11
13.88968550991237
 21
16.503380701318129
 31
0.0
 12
13.619685509912379
 22
16.548380701318131
 32
0.0
 13
13.619685509912379
 23
16.548380701318131
 33
0.0
  0
SOLID
  5
4D31
  8
DIM
 62
     0
 10
13.22968550991237
 20
16.593380701318139
 30
0.0
 11
13.22968550991237
 21
16.503380701318129
 31
0.0
 12
13.499685509912361
 22
16.548380701318131
 32
0.0
 13
13.499685509912361
 23
16.548380701318131
 33
0.0
  0
TEXT
  5
4D32
  8
OBJECT
 62
     0
 10
11.74656050991236
 20
16.454630701318131
 30
0.0
 40
0.1875
  1
0.120 TYP.
 41
0.75
  0
POINT
  5
4D33
  8
DEFPOINTS
 62
     0
 10
13.619685509912379
 20
16.404380701318129
 30
0.0
  0
POINT
  5
4D34
  8
DEFPOINTS
 62
     0
 10
13.499685509912361
 20
16.404380701318129
 30
0.0
  0
POINT
  5
4D35
  8
DEFPOINTS
 62
     0
 10
13.499685509912361
 20
16.548380701318131
 30
0.0
  0
ENDBLK
  5
F60
  8
0
  0
BLOCK
  8
0
  2
*D10
 70
     1
 10
0.0
 20
0.0
 30
0.0
  3
*D10
  1

  0
LINE
  5
4D36
  8
DIM
 62
     0
 10
13.775685509912369
 20
17.46718574109099
 30
0.0
 11
13.775685509912369
 21
17.747988089586091
 31
0.0
  0
LINE
  5
4D37
  8
DIM
 62
     0
 10
13.619685509912371
 20
17.46718574109099
 30
0.0
 11
13.619685509912371
 21
17.747988089586091
 31
0.0
  0
LINE
  5
4D38
  8
DIM
 62
     0
 10
14.045685509912371
 20
17.608488089586089
 30
0.0
 11
14.31568550991237
 21
17.608488089586089
 31
0.0
  0
LINE
  5
4D39
  8
DIM
 62
     0
 10
13.349685509912369
 20
17.608488089586089
 30
0.0
 11
13.07968550991237
 21
17.608488089586089
 31
0.0
  0
SOLID
  5
4D3A
  8
DIM
 62
     0
 10
14.045685509912371
 20
17.653488089586091
 30
0.0
 11
14.045685509912371
 21
17.563488089586091
 31
0.0
 12
13.775685509912369
 22
17.608488089586089
 32
0.0
 13
13.775685509912369
 23
17.608488089586089
 33
0.0
  0
SOLID
  5
4D3B
  8
DIM
 62
     0
 10
13.349685509912369
 20
17.653488089586091
 30
0.0
 11
13.349685509912369
 21
17.563488089586091
 31
0.0
 12
13.619685509912371
 22
17.608488089586089
 32
0.0
 13
13.619685509912371
 23
17.608488089586089
 33
0.0
  0
TEXT
  5
4D3C
  8
OBJECT
 62
     0
 10
11.84312300991237
 20
17.514738089586089
 30
0.0
 40
0.1875
  1
0.156 TYP.
 41
0.75
  0
POINT
  5
4D3D
  8
DEFPOINTS
 62
     0
 10
13.775685509912369
 20
17.37268574109099
 30
0.0
  0
POINT
  5
4D3E
  8
DEFPOINTS
 62
     0
 10
13.619685509912371
 20
17.37268574109099
 30
0.0
  0
POINT
  5
4D3F
  8
DEFPOINTS
 62
     0
 10
13.619685509912371
 20
17.608488089586089
 30
0.0
  0
ENDBLK
  5
F82
  8
0
  0
BLOCK
  8
0
  2
*D11
 70
     1
 10
0.0
 20
0.0
 30
0.0
  3
*D11
  1

  0
LINE
  5
4D0E
  8
DIM
 62
     0
 10
5.9654917680462773
 20
19.445185741090981
 30
0.0
 11
5.9654917680462773
 21
20.812685741090991
 31
0.0
  0
LINE
  5
4D0F
  8
DIM
 62
     0
 10
2.4454917680462742
 20
19.445185741090981
 30
0.0
 11
2.4454917680462742
 21
20.812685741090991
 31
0.0
  0
LINE
  5
4D10
  8
DIM
 62
     0
 10
5.6954917680462769
 20
20.673185741090979
 30
0.0
 11
4.6100230180462747
 21
20.673185741090979
 31
0.0
  0
LINE
  5
4D11
  8
DIM
 62
     0
 10
2.7154917680462738
 20
20.673185741090979
 30
0.0
 11
3.8009605180462751
 21
20.673185741090979
 31
0.0
  0
SOLID
  5
4D12
  8
DIM
 62
     0
 10
5.6954917680462769
 20
20.718185741090981
 30
0.0
 11
5.6954917680462769
 21
20.628185741090981
 31
0.0
 12
5.9654917680462773
 22
20.673185741090979
 32
0.0
 13
5.9654917680462773
 23
20.673185741090979
 33
0.0
  0
SOLID
  5
4D13
  8
DIM
 62
     0
 10
2.7154917680462738
 20
20.718185741090981
 30
0.0
 11
2.7154917680462738
 21
20.628185741090981
 31
0.0
 12
2.4454917680462742
 22
20.673185741090979
 32
0.0
 13
2.4454917680462742
 23
20.673185741090979
 33
0.0
  0
TEXT
  5
4D14
  8
OBJECT
 62
     0
 10
3.9359605180462749
 20
20.579435741090979
 30
0.0
 40
0.1875
  1
3.520
 41
0.75
  0
POINT
  5
4D15
  8
DEFPOINTS
 62
     0
 10
5.9654917680462773
 20
19.350685741090981
 30
0.0
  0
POINT
  5
4D16
  8
DEFPOINTS
 62
     0
 10
2.4454917680462742
 20
19.350685741090981
 30
0.0
  0
POINT
  5
4D17
  8
DEFPOINTS
 62
     0
 10
2.4454917680462742
 20
20.673185741090979
 30
0.0
  0
ENDBLK
  5
F91
  8
0
  0
BLOCK
  8
0
  2
*D12
 70
     1
 10
0.0
 20
0.0
 30
0.0
  3
*D12
  1

  0
LINE
  5
4D18
  8
DIM
 62
     0
 10
2.4454917680462742
 20
19.445185741090981
 30
0.0
 11
2.4454917680462742
 21
20.812685741090991
 31
0.0
  0
LINE
  5
4D19
  8
DIM
 62
     0
 10
1.488491768046273
 20
20.193185741090979
 30
0.0
 11
1.488491768046273
 21
20.812685741090991
 31
0.0
  0
LINE
  5
4D1A
  8
DIM
 62
     0
 10
2.7154917680462738
 20
20.673185741090979
 30
0.0
 11
2.9854917680462738
 21
20.673185741090979
 31
0.0
  0
LINE
  5
4D1B
  8
DIM
 62
     0
 10
1.218491768046273
 20
20.673185741090979
 30
0.0
 11
0.9484917680462734
 21
20.673185741090979
 31
0.0
  0
SOLID
  5
4D1C
  8
DIM
 62
     0
 10
2.7154917680462738
 20
20.718185741090981
 30
0.0
 11
2.7154917680462738
 21
20.628185741090981
 31
0.0
 12
2.4454917680462742
 22
20.673185741090979
 32
0.0
 13
2.4454917680462742
 23
20.673185741090979
 33
0.0
  0
SOLID
  5
4D1D
  8
DIM
 62
     0
 10
1.218491768046273
 20
20.718185741090981
 30
0.0
 11
1.218491768046273
 21
20.628185741090981
 31
0.0
 12
1.488491768046273
 22
20.673185741090979
 32
0.0
 13
1.488491768046273
 23
20.673185741090979
 33
0.0
  0
TEXT
  5
4D1E
  8
OBJECT
 62
     0
 10
1.697460518046273
 20
20.579435741090979
 30
0.0
 40
0.1875
  1
0.957
 41
0.75
  0
POINT
  5
4D1F
  8
DEFPOINTS
 62
     0
 10
2.4454917680462742
 20
19.350685741090981
 30
0.0
  0
POINT
  5
4D20
  8
DEFPOINTS
 62
     0
 10
1.488491768046273
 20
20.098685741090978
 30
0.0
  0
POINT
  5
4D21
  8
DEFPOINTS
 62
     0
 10
1.488491768046273
 20
20.673185741090979
 30
0.0
  0
ENDBLK
  5
F9F
  8
0
  0
BLOCK
  8
0
  2
*D13
 70
     1
 10
0.0
 20
0.0
 30
0.0
  3
*D13
  1

  0
LINE
  5
4C95
  8
DIM
 62
     0
 10
6.6779917680462724
 20
13.366685741090979
 30
0.0
 11
7.5704098682788166
 21
13.366685741090979
 31
0.0
  0
LINE
  5
4C96
  8
DIM
 62
     0
 10
7.016991768046271
 20
12.61868574109098
 30
0.0
 11
7.5704098682788166
 21
12.61868574109098
 31
0.0
  0
LINE
  5
4C97
  8
DIM
 62
     0
 10
7.4309098682788166
 20
13.636685741090981
 30
0.0
 11
7.4309098682788166
 21
13.90668574109098
 31
0.0
  0
LINE
  5
4C98
  8
DIM
 62
     0
 10
7.4309098682788166
 20
12.34868574109098
 30
0.0
 11
7.4309098682788166
 21
12.078685741090981
 31
0.0
  0
SOLID
  5
4C99
  8
DIM
 62
     0
 10
7.3859098682788167
 20
13.636685741090981
 30
0.0
 11
7.4759098682788174
 21
13.636685741090981
 31
0.0
 12
7.4309098682788166
 22
13.366685741090979
 32
0.0
 13
7.4309098682788166
 23
13.366685741090979
 33
0.0
  0
SOLID
  5
4C9A
  8
DIM
 62
     0
 10
7.3859098682788167
 20
12.34868574109098
 30
0.0
 11
7.4759098682788174
 21
12.34868574109098
 31
0.0
 12
7.4309098682788166
 22
12.61868574109098
 32
0.0
 13
7.4309098682788166
 23
12.61868574109098
 33
0.0
  0
TEXT
  5
4C9B
  8
OBJECT
 62
     0
 10
7.1613786182788148
 20
12.89893574109098
 30
0.0
 40
0.1875
  1
0.748
 41
0.75
  0
POINT
  5
4C9C
  8
DEFPOINTS
 62
     0
 10
6.5834917680462723
 20
13.366685741090979
 30
0.0
  0
POINT
  5
4C9D
  8
DEFPOINTS
 62
     0
 10
6.9224917680462701
 20
12.61868574109098
 30
0.0
  0
POINT
  5
4C9E
  8
DEFPOINTS
 62
     0
 10
7.4309098682788166
 20
12.61868574109098
 30
0.0
  0
ENDBLK
  5
1015
  8
0
  0
BLOCK
  8
0
  2
*D14
 70
     1
 10
0.0
 20
0.0
 30
0.0
  3
*D14
  1

  0
LINE
  5
4CDB
  8
DIM
 62
     0
 10
6.7474917680461672
 20
14.08118574109098
 30
0.0
 11
6.7474917680461672
 21
14.90200702005146
 31
0.0
  0
LINE
  5
4CDC
  8
DIM
 62
     0
 10
1.6634917680461461
 20
14.081185741090991
 30
0.0
 11
1.6634917680461461
 21
14.90200702005146
 31
0.0
  0
LINE
  5
4CDD
  8
DIM
 62
     0
 10
6.4774917680461668
 20
14.76250702005146
 30
0.0
 11
4.6100230180461557
 21
14.76250702005146
 31
0.0
  0
LINE
  5
4CDE
  8
DIM
 62
     0
 10
1.9334917680461461
 20
14.76250702005146
 30
0.0
 11
3.8009605180461561
 21
14.76250702005146
 31
0.0
  0
SOLID
  5
4CDF
  8
DIM
 62
     0
 10
6.4774917680461668
 20
14.80750702005146
 30
0.0
 11
6.4774917680461668
 21
14.71750702005146
 31
0.0
 12
6.7474917680461672
 22
14.76250702005146
 32
0.0
 13
6.7474917680461672
 23
14.76250702005146
 33
0.0
  0
SOLID
  5
4CE0
  8
DIM
 62
     0
 10
1.9334917680461461
 20
14.80750702005146
 30
0.0
 11
1.9334917680461461
 21
14.71750702005146
 31
0.0
 12
1.6634917680461461
 22
14.76250702005146
 32
0.0
 13
1.6634917680461461
 23
14.76250702005146
 33
0.0
  0
TEXT
  5
4CE1
  8
OBJECT
 62
     0
 10
3.9359605180461559
 20
14.66875702005146
 30
0.0
 40
0.1875
  1
5.084
 41
0.75
  0
POINT
  5
4CE2
  8
DEFPOINTS
 62
     0
 10
6.7474917680461672
 20
13.98668574109098
 30
0.0
  0
POINT
  5
4CE3
  8
DEFPOINTS
 62
     0
 10
1.6634917680461461
 20
13.986685741090991
 30
0.0
  0
POINT
  5
4CE4
  8
DEFPOINTS
 62
     0
 10
1.6634917680461461
 20
14.76250702005146
 30
0.0
  0
ENDBLK
  5
1023
  8
0
  0
BLOCK
  8
0
  2
*D15
 70
     1
 10
0.0
 20
0.0
 30
0.0
  3
*D15
  1

  0
LINE
  5
4CE5
  8
DIM
 62
     0
 10
1.75799176804627
 20
13.91727351786553
 30
0.0
 11
2.297345886144265
 21
13.91727351786553
 31
0.0
  0
LINE
  5
4CE6
  8
DIM
 62
     0
 10
1.75799176804627
 20
13.819273517865531
 30
0.0
 11
2.297345886144265
 21
13.819273517865531
 31
0.0
  0
LINE
  5
4CE7
  8
DIM
 62
     0
 10
2.1578458861442651
 20
13.549273517865529
 30
0.0
 11
2.1578458861442651
 21
13.27927351786553
 31
0.0
  0
LINE
  5
4CE8
  8
DIM
 62
     0
 10
2.1578458861442651
 20
14.187273517865529
 30
0.0
 11
2.1578458861442651
 21
14.457273517865531
 31
0.0
  0
LINE
  5
4CE9
  8
DIM
 62
     0
 10
2.1578458861442651
 20
14.457273517865531
 30
0.0
 11
2.4278458861442651
 21
14.457273517865531
 31
0.0
  0
SOLID
  5
4CEA
  8
DIM
 62
     0
 10
2.1128458861442652
 20
13.549273517865529
 30
0.0
 11
2.202845886144265
 21
13.549273517865529
 31
0.0
 12
2.1578458861442651
 22
13.819273517865531
 32
0.0
 13
2.1578458861442651
 23
13.819273517865531
 33
0.0
  0
SOLID
  5
4CEB
  8
DIM
 62
     0
 10
2.1128458861442652
 20
14.187273517865529
 30
0.0
 11
2.202845886144265
 21
14.187273517865529
 31
0.0
 12
2.1578458861442651
 22
13.91727351786553
 32
0.0
 13
2.1578458861442651
 23
13.91727351786553
 33
0.0
  0
TEXT
  5
4CEC
  8
OBJECT
 62
     0
 10
2.5628458861442631
 20
14.363523517865531
 30
0.0
 40
0.1875
  1
0.098 TYP.
 41
0.75
  0
POINT
  5
4CED
  8
DEFPOINTS
 62
     0
 10
1.66349176804627
 20
13.91727351786553
 30
0.0
  0
POINT
  5
4CEE
  8
DEFPOINTS
 62
     0
 10
1.66349176804627
 20
13.819273517865531
 30
0.0
  0
POINT
  5
4CEF
  8
DEFPOINTS
 62
     0
 10
2.1578458861442651
 20
13.819273517865531
 30
0.0
  0
ENDBLK
  5
1032
  8
0
  0
BLOCK
  8
0
  2
*D16
 70
     1
 10
0.0
 20
0.0
 30
0.0
  3
*D16
  1

  0
LINE
  5
4D04
  8
DIM
 62
     0
 10
6.7474917680462729
 20
14.08118574109098
 30
0.0
 11
6.7474917680462729
 21
14.51487182261582
 31
0.0
  0
LINE
  5
4D05
  8
DIM
 62
     0
 10
6.8024917680462726
 20
14.08118574109098
 30
0.0
 11
6.8024917680462726
 21
14.51487182261582
 31
0.0
  0
LINE
  5
4D06
  8
DIM
 62
     0
 10
7.0724917680462731
 20
14.37537182261581
 30
0.0
 11
7.3424917680462727
 21
14.37537182261581
 31
0.0
  0
LINE
  5
4D07
  8
DIM
 62
     0
 10
6.4774917680462742
 20
14.37537182261581
 30
0.0
 11
6.2074917680462693
 21
14.37537182261581
 31
0.0
  0
SOLID
  5
4D08
  8
DIM
 62
     0
 10
7.0724917680462731
 20
14.42037182261581
 30
0.0
 11
7.0724917680462731
 21
14.33037182261581
 31
0.0
 12
6.8024917680462726
 22
14.37537182261581
 32
0.0
 13
6.8024917680462726
 23
14.37537182261581
 33
0.0
  0
SOLID
  5
4D09
  8
DIM
 62
     0
 10
6.4774917680462742
 20
14.42037182261581
 30
0.0
 11
6.4774917680462742
 21
14.33037182261581
 31
0.0
 12
6.7474917680462729
 22
14.37537182261581
 32
0.0
 13
6.7474917680462729
 23
14.37537182261581
 33
0.0
  0
TEXT
  5
4D0A
  8
OBJECT
 62
     0
 10
4.9474917680462687
 20
14.28162182261582
 30
0.0
 40
0.1875
  1
0.055 TYP.
 41
0.75
  0
POINT
  5
4D0B
  8
DEFPOINTS
 62
     0
 10
6.7474917680462729
 20
13.98668574109098
 30
0.0
  0
POINT
  5
4D0C
  8
DEFPOINTS
 62
     0
 10
6.8024917680462726
 20
13.98668574109098
 30
0.0
  0
POINT
  5
4D0D
  8
DEFPOINTS
 62
     0
 10
6.8024917680462726
 20
14.37537182261581
 30
0.0
  0
ENDBLK
  5
1040
  8
0
  0
BLOCK
  8
0
  2
*D17
 70
     1
 10
0.0
 20
0.0
 30
0.0
  3
*D17
  1

  0
LINE
  5
4C8B
  8
DIM
 62
     0
 10
6.9224917680462701
 20
16.00500145412359
 30
0.0
 11
6.9224917680462701
 21
15.86550145412359
 31
0.0
  0
LINE
  5
4C8C
  8
DIM
 62
     0
 10
6.8024917680462726
 20
16.00500145412359
 30
0.0
 11
6.8024917680462726
 21
15.86550145412359
 31
0.0
  0
LINE
  5
4C8D
  8
DIM
 62
     0
 10
7.1924917680462697
 20
16.00500145412359
 30
0.0
 11
7.462491768046271
 21
16.00500145412359
 31
0.0
  0
LINE
  5
4C8E
  8
DIM
 62
     0
 10
6.5324917680462731
 20
16.00500145412359
 30
0.0
 11
6.2624917680462726
 21
16.00500145412359
 31
0.0
  0
SOLID
  5
4C8F
  8
DIM
 62
     0
 10
7.1924917680462697
 20
16.050001454123588
 30
0.0
 11
7.1924917680462697
 21
15.96000145412359
 31
0.0
 12
6.9224917680462701
 22
16.00500145412359
 32
0.0
 13
6.9224917680462701
 23
16.00500145412359
 33
0.0
  0
SOLID
  5
4C90
  8
DIM
 62
     0
 10
6.5324917680462731
 20
16.050001454123588
 30
0.0
 11
6.5324917680462731
 21
15.96000145412359
 31
0.0
 12
6.8024917680462726
 22
16.00500145412359
 32
0.0
 13
6.8024917680462726
 23
16.00500145412359
 33
0.0
  0
TEXT
  5
4C91
  8
OBJECT
 62
     0
 10
5.0493667680462728
 20
15.91125145412359
 30
0.0
 40
0.1875
  1
0.120 TYP.
 41
0.75
  0
POINT
  5
4C92
  8
DEFPOINTS
 62
     0
 10
6.9224917680462701
 20
16.09950145412359
 30
0.0
  0
POINT
  5
4C93
  8
DEFPOINTS
 62
     0
 10
6.8024917680462726
 20
16.09950145412359
 30
0.0
  0
POINT
  5
4C94
  8
DEFPOINTS
 62
     0
 10
6.8024917680462726
 20
16.00500145412359
 30
0.0
  0
ENDBLK
  5
104E
  8
0
  0
BLOCK
  8
0
  2
*D18
 70
     1
 10
0.0
 20
0.0
 30
0.0
  3
*D18
  1

  0
LINE
  5
4C9F
  8
DIM
 62
     0
 10
6.5834917680462723
 20
13.272185741090979
 30
0.0
 11
6.5834917680462723
 21
11.843687793243991
 31
0.0
  0
LINE
  5
4CA0
  8
DIM
 62
     0
 10
6.9224917680462701
 20
12.52418574109098
 30
0.0
 11
6.9224917680462701
 21
11.843687793243991
 31
0.0
  0
LINE
  5
4CA1
  8
DIM
 62
     0
 10
6.3134917680462719
 20
11.983187793243991
 30
0.0
 11
6.0434917680462723
 21
11.983187793243991
 31
0.0
  0
LINE
  5
4CA2
  8
DIM
 62
     0
 10
7.1924917680462697
 20
11.983187793243991
 30
0.0
 11
7.462491768046271
 21
11.983187793243991
 31
0.0
  0
SOLID
  5
4CA3
  8
DIM
 62
     0
 10
6.3134917680462719
 20
12.02818779324399
 30
0.0
 11
6.3134917680462719
 21
11.938187793243991
 31
0.0
 12
6.5834917680462723
 22
11.983187793243991
 32
0.0
 13
6.5834917680462723
 23
11.983187793243991
 33
0.0
  0
SOLID
  5
4CA4
  8
DIM
 62
     0
 10
7.1924917680462697
 20
12.02818779324399
 30
0.0
 11
7.1924917680462697
 21
11.938187793243991
 31
0.0
 12
6.9224917680462701
 22
11.983187793243991
 32
0.0
 13
6.9224917680462701
 23
11.983187793243991
 33
0.0
  0
TEXT
  5
4CA5
  8
OBJECT
 62
     0
 10
7.5974917680462699
 20
11.889437793243991
 30
0.0
 40
0.1875
  1
0.339
 41
0.75
  0
POINT
  5
4CA6
  8
DEFPOINTS
 62
     0
 10
6.5834917680462723
 20
13.366685741090979
 30
0.0
  0
POINT
  5
4CA7
  8
DEFPOINTS
 62
     0
 10
6.9224917680462701
 20
12.61868574109098
 30
0.0
  0
POINT
  5
4CA8
  8
DEFPOINTS
 62
     0
 10
6.9224917680462701
 20
11.983187793243991
 30
0.0
  0
ENDBLK
  5
105D
  8
0
  0
BLOCK
  8
0
  2
*D19
 70
     1
 10
0.0
 20
0.0
 30
0.0
  3
*D19
  1

  0
LINE
  5
4D22
  8
DIM
 62
     0
 10
9.8076786714198825
 20
20.098685741090978
 30
0.0
 11
9.2925687581664942
 21
20.098685741090978
 31
0.0
  0
LINE
  5
4D23
  8
DIM
 62
     0
 10
9.8076786714198825
 20
12.61868574109098
 30
0.0
 11
9.2925687581664942
 21
12.61868574109098
 31
0.0
  0
LINE
  5
4D24
  8
DIM
 62
     0
 10
9.4320687581664941
 20
19.828685741090979
 30
0.0
 11
9.4320687581664941
 21
16.587435741090989
 31
0.0
  0
LINE
  5
4D25
  8
DIM
 62
     0
 10
9.4320687581664941
 20
12.888685741090979
 30
0.0
 11
9.4320687581664941
 21
16.129935741090978
 31
0.0
  0
SOLID
  5
4D26
  8
DIM
 62
     0
 10
9.3870687581664942
 20
19.828685741090979
 30
0.0
 11
9.4770687581664941
 21
19.828685741090979
 31
0.0
 12
9.4320687581664941
 22
20.098685741090978
 32
0.0
 13
9.4320687581664941
 23
20.098685741090978
 33
0.0
  0
SOLID
  5
4D27
  8
DIM
 62
     0
 10
9.3870687581664942
 20
12.888685741090979
 30
0.0
 11
9.4770687581664941
 21
12.888685741090979
 31
0.0
 12
9.4320687581664941
 22
12.61868574109098
 32
0.0
 13
9.4320687581664941
 23
12.61868574109098
 33
0.0
  0
TEXT
  5
4D28
  8
OBJECT
 62
     0
 10
9.1625375081664924
 20
16.264935741090991
 30
0.0
 40
0.1875
  1
7.480
 41
0.75
  0
POINT
  5
4D29
  8
DEFPOINTS
 62
     0
 10
9.9021786714198825
 20
20.098685741090978
 30
0.0
  0
POINT
  5
4D2A
  8
DEFPOINTS
 62
     0
 10
9.9021786714198825
 20
12.61868574109098
 30
0.0
  0
POINT
  5
4D2B
  8
DEFPOINTS
 62
     0
 10
9.4320687581664941
 20
12.61868574109098
 30
0.0
  0
ENDBLK
  5
1145
  8
0
  0
BLOCK
  8
0
  2
*D20
 70
     1
 10
0.0
 20
0.0
 30
0.0
  3
*D20
  1

  0
LINE
  5
4CB3
  8
DIM
 62
     0
 10
3.779697316337276
 20
12.82368574109098
 30
0.0
 11
3.6401973163372778
 21
12.82368574109098
 31
0.0
  0
LINE
  5
4CB4
  8
DIM
 62
     0
 10
3.779697316337276
 20
19.89368574109098
 30
0.0
 11
3.6401973163372801
 21
19.89368574109098
 31
0.0
  0
LINE
  5
4CB5
  8
DIM
 62
     0
 10
3.7796973163372791
 20
13.093685741090979
 30
0.0
 11
3.7796973163372791
 21
15.90118574109098
 31
0.0
  0
LINE
  5
4CB6
  8
DIM
 62
     0
 10
3.77969731633728
 20
19.623685741090981
 30
0.0
 11
3.7796973163372791
 21
16.35868574109098
 31
0.0
  0
SOLID
  5
4CB7
  8
DIM
 62
     0
 10
3.7346973163372792
 20
13.093685741090979
 30
0.0
 11
3.8246973163372782
 21
13.093685741090979
 31
0.0
 12
3.7796973163372778
 22
12.82368574109098
 32
0.0
 13
3.7796973163372778
 23
12.82368574109098
 33
0.0
  0
SOLID
  5
4CB8
  8
DIM
 62
     0
 10
3.7346973163372801
 20
19.623685741090981
 30
0.0
 11
3.8246973163372799
 21
19.623685741090981
 31
0.0
 12
3.77969731633728
 22
19.89368574109098
 32
0.0
 13
3.77969731633728
 23
19.89368574109098
 33
0.0
  0
TEXT
  5
4CB9
  8
OBJECT
 62
     0
 10
3.521884816337276
 20
16.036185741090978
 30
0.0
 40
0.1875
  1
7.070
 41
0.75
  0
POINT
  5
4CBA
  8
DEFPOINTS
 62
     0
 10
3.874197316337276
 20
12.82368574109098
 30
0.0
  0
POINT
  5
4CBB
  8
DEFPOINTS
 62
     0
 10
3.874197316337276
 20
19.89368574109098
 30
0.0
  0
POINT
  5
4CBC
  8
DEFPOINTS
 62
     0
 10
3.77969731633728
 20
19.89368574109098
 30
0.0
  0
ENDBLK
  5
1154
  8
0
  0
BLOCK
  8
0
  2
*D21
 70
     1
 10
0.0
 20
0.0
 30
0.0
  3
*D21
  1

  0
LINE
  5
4CD1
  8
DIM
 62
     0
 10
1.608491768046274
 20
16.81168115313222
 30
0.0
 11
1.608491768046274
 21
16.672181153132222
 31
0.0
  0
LINE
  5
4CD2
  8
DIM
 62
     0
 10
6.8024917680462726
 20
16.81168115313222
 30
0.0
 11
6.8024917680462726
 21
16.672181153132222
 31
0.0
  0
LINE
  5
4CD3
  8
DIM
 62
     0
 10
1.878491768046274
 20
16.81168115313222
 30
0.0
 11
3.8126792680462742
 21
16.81168115313222
 31
0.0
  0
LINE
  5
4CD4
  8
DIM
 62
     0
 10
6.5324917680462731
 20
16.81168115313222
 30
0.0
 11
4.5983042680462729
 21
16.81168115313222
 31
0.0
  0
SOLID
  5
4CD5
  8
DIM
 62
     0
 10
1.878491768046274
 20
16.856681153132222
 30
0.0
 11
1.878491768046274
 21
16.766681153132222
 31
0.0
 12
1.608491768046274
 22
16.81168115313222
 32
0.0
 13
1.608491768046274
 23
16.81168115313222
 33
0.0
  0
SOLID
  5
4CD6
  8
DIM
 62
     0
 10
6.5324917680462731
 20
16.856681153132222
 30
0.0
 11
6.5324917680462731
 21
16.766681153132222
 31
0.0
 12
6.8024917680462726
 22
16.81168115313222
 32
0.0
 13
6.8024917680462726
 23
16.81168115313222
 33
0.0
  0
TEXT
  5
4CD7
  8
OBJECT
 62
     0
 10
3.947679268046274
 20
16.71793115313222
 30
0.0
 40
0.1875
  1
5.194
 41
0.75
  0
POINT
  5
4CD8
  8
DEFPOINTS
 62
     0
 10
1.608491768046274
 20
16.90618115313222
 30
0.0
  0
POINT
  5
4CD9
  8
DEFPOINTS
 62
     0
 10
6.8024917680462726
 20
16.90618115313222
 30
0.0
  0
POINT
  5
4CDA
  8
DEFPOINTS
 62
     0
 10
6.8024917680462726
 20
16.81168115313222
 30
0.0
  0
ENDBLK
  5
1217
  8
0
  0
BLOCK
  8
0
  2
*D22
 70
     1
 10
0.0
 20
0.0
 30
0.0
  3
*D22
  1

  0
LINE
  5
4D68
  8
DIM
 62
     0
 10
10.670178671419871
 20
20.193185741090989
 30
0.0
 11
10.670178671419871
 21
21.045185741090989
 31
0.0
  0
LINE
  5
4D69
  8
DIM
 62
     0
 10
9.9021786714198825
 20
20.193185741090989
 30
0.0
 11
9.9021786714198825
 21
21.045185741090989
 31
0.0
  0
LINE
  5
4D6A
  8
DIM
 62
     0
 10
10.94017867141987
 20
20.905685741090981
 30
0.0
 11
11.21017867141987
 21
20.905685741090981
 31
0.0
  0
LINE
  5
4D6B
  8
DIM
 62
     0
 10
9.6321786714198812
 20
20.905685741090981
 30
0.0
 11
9.3621786714198834
 21
20.905685741090981
 31
0.0
  0
SOLID
  5
4D6C
  8
DIM
 62
     0
 10
10.94017867141987
 20
20.950685741090979
 30
0.0
 11
10.94017867141987
 21
20.860685741090979
 31
0.0
 12
10.670178671419871
 22
20.905685741090981
 32
0.0
 13
10.670178671419871
 23
20.905685741090981
 33
0.0
  0
SOLID
  5
4D6D
  8
DIM
 62
     0
 10
9.6321786714198812
 20
20.950685741090979
 30
0.0
 11
9.6321786714198812
 21
20.860685741090979
 31
0.0
 12
9.9021786714198825
 22
20.905685741090981
 32
0.0
 13
9.9021786714198825
 23
20.905685741090981
 33
0.0
  0
TEXT
  5
4D6E
  8
OBJECT
 62
     0
 10
10.23930367141987
 20
20.811935741090981
 30
0.0
 40
0.1875
  1
C
 41
0.75
  0
POINT
  5
4D6F
  8
DEFPOINTS
 62
     0
 10
10.670178671419871
 20
20.098685741090978
 30
0.0
  0
POINT
  5
4D70
  8
DEFPOINTS
 62
     0
 10
9.9021786714198825
 20
20.098685741090978
 30
0.0
  0
POINT
  5
4D71
  8
DEFPOINTS
 62
     0
 10
9.9021786714198825
 20
20.905685741090981
 30
0.0
  0
ENDBLK
  5
1285
  8
0
  0
BLOCK
  8
0
  2
*D23
 70
     1
 10
0.0
 20
0.0
 30
0.0
  3
*D23
  1

  0
LINE
  5
4D72
  8
DIM
 62
     0
 10
9.9021786714198825
 20
20.193185741090989
 30
0.0
 11
9.9021786714198825
 21
21.46368574109098
 31
0.0
  0
LINE
  5
4D73
  8
DIM
 62
     0
 10
11.477178671419869
 20
20.193185741090989
 30
0.0
 11
11.477178671419869
 21
21.46368574109098
 31
0.0
  0
LINE
  5
4D74
  8
DIM
 62
     0
 10
10.17217867141988
 20
21.324185741090979
 30
0.0
 11
10.507803671419881
 21
21.324185741090979
 31
0.0
  0
LINE
  5
4D75
  8
DIM
 62
     0
 10
11.20717867141987
 20
21.324185741090979
 30
0.0
 11
10.87155367141988
 21
21.324185741090979
 31
0.0
  0
SOLID
  5
4D76
  8
DIM
 62
     0
 10
10.17217867141988
 20
21.36918574109098
 30
0.0
 11
10.17217867141988
 21
21.279185741090981
 31
0.0
 12
9.9021786714198825
 22
21.324185741090979
 32
0.0
 13
9.9021786714198825
 23
21.324185741090979
 33
0.0
  0
SOLID
  5
4D77
  8
DIM
 62
     0
 10
11.20717867141987
 20
21.36918574109098
 30
0.0
 11
11.20717867141987
 21
21.279185741090981
 31
0.0
 12
11.477178671419869
 22
21.324185741090979
 32
0.0
 13
11.477178671419869
 23
21.324185741090979
 33
0.0
  0
TEXT
  5
4D78
  8
OBJECT
 62
     0
 10
10.64280367141988
 20
21.230435741090979
 30
0.0
 40
0.1875
  1
A
 41
0.75
  0
POINT
  5
4D79
  8
DEFPOINTS
 62
     0
 10
9.9021786714198825
 20
20.098685741090978
 30
0.0
  0
POINT
  5
4D7A
  8
DEFPOINTS
 62
     0
 10
11.477178671419869
 20
20.098685741090978
 30
0.0
  0
POINT
  5
4D7B
  8
DEFPOINTS
 62
     0
 10
11.477178671419869
 20
21.324185741090979
 30
0.0
  0
ENDBLK
  5
1293
  8
0
  0
BLOCK
  8
0
  2
*D24
 70
     1
 10
0.0
 20
0.0
 30
0.0
  3
*D24
  1

  0
LINE
  5
4D7C
  8
DIM
 62
     0
 10
10.70917867141989
 20
20.193185741090989
 30
0.0
 11
10.70917867141989
 21
20.626685741090981
 31
0.0
  0
LINE
  5
4D7D
  8
DIM
 62
     0
 10
11.477178671419869
 20
20.193185741090989
 30
0.0
 11
11.477178671419869
 21
20.626685741090981
 31
0.0
  0
LINE
  5
4D7E
  8
DIM
 62
     0
 10
10.43917867141989
 20
20.487185741090979
 30
0.0
 11
10.169178671419891
 21
20.487185741090979
 31
0.0
  0
LINE
  5
4D7F
  8
DIM
 62
     0
 10
11.747178671419871
 20
20.487185741090979
 30
0.0
 11
12.01717867141987
 21
20.487185741090979
 31
0.0
  0
SOLID
  5
4D80
  8
DIM
 62
     0
 10
10.43917867141989
 20
20.532185741090991
 30
0.0
 11
10.43917867141989
 21
20.442185741090981
 31
0.0
 12
10.70917867141989
 22
20.487185741090979
 32
0.0
 13
10.70917867141989
 23
20.487185741090979
 33
0.0
  0
SOLID
  5
4D81
  8
DIM
 62
     0
 10
11.747178671419871
 20
20.532185741090991
 30
0.0
 11
11.747178671419871
 21
20.442185741090981
 31
0.0
 12
11.477178671419869
 22
20.487185741090979
 32
0.0
 13
11.477178671419869
 23
20.487185741090979
 33
0.0
  0
TEXT
  5
4D82
  8
OBJECT
 62
     0
 10
11.04630367141988
 20
20.39343574109099
 30
0.0
 40
0.1875
  1
B
 41
0.75
  0
POINT
  5
4D83
  8
DEFPOINTS
 62
     0
 10
10.70917867141989
 20
20.098685741090978
 30
0.0
  0
POINT
  5
4D84
  8
DEFPOINTS
 62
     0
 10
11.477178671419869
 20
20.098685741090978
 30
0.0
  0
POINT
  5
4D85
  8
DEFPOINTS
 62
     0
 10
11.477178671419869
 20
20.487185741090979
 30
0.0
  0
ENDBLK
  5
12A1
  8
0
  0
BLOCK
  8
0
  2
*D25
 70
     1
 10
0.0
 20
0.0
 30
0.0
  3
*D25
  1

  0
LINE
  5
4C4F
  8
DIM
 62
     0
 10
4.3899917680462721
 20
16.35868574109098
 30
0.0
 11
8.9257564293173477
 21
16.35868574109098
 31
0.0
  0
LINE
  5
4C50
  8
DIM
 62
     0
 10
7.016991768046271
 20
12.61868574109098
 30
0.0
 11
8.9257564293173477
 21
12.61868574109098
 31
0.0
  0
LINE
  5
4C51
  8
DIM
 62
     0
 10
8.7862564293173477
 20
16.08868574109098
 30
0.0
 11
8.7862564293173477
 21
14.717435741090981
 31
0.0
  0
LINE
  5
4C52
  8
DIM
 62
     0
 10
8.7862564293173477
 20
12.888685741090979
 30
0.0
 11
8.7862564293173477
 21
14.259935741090979
 31
0.0
  0
SOLID
  5
4C53
  8
DIM
 62
     0
 10
8.7412564293173478
 20
16.08868574109098
 30
0.0
 11
8.8312564293173477
 21
16.08868574109098
 31
0.0
 12
8.7862564293173477
 22
16.35868574109098
 32
0.0
 13
8.7862564293173477
 23
16.35868574109098
 33
0.0
  0
SOLID
  5
4C54
  8
DIM
 62
     0
 10
8.7412564293173478
 20
12.888685741090979
 30
0.0
 11
8.8312564293173477
 21
12.888685741090979
 31
0.0
 12
8.7862564293173477
 22
12.61868574109098
 32
0.0
 13
8.7862564293173477
 23
12.61868574109098
 33
0.0
  0
TEXT
  5
4C55
  8
OBJECT
 62
     0
 10
8.5167251793173442
 20
14.394935741090981
 30
0.0
 40
0.1875
  1
3.740
 41
0.75
  0
POINT
  5
4C56
  8
DEFPOINTS
 62
     0
 10
4.2954917680462721
 20
16.35868574109098
 30
0.0
  0
POINT
  5
4C57
  8
DEFPOINTS
 62
     0
 10
6.9224917680462701
 20
12.61868574109098
 30
0.0
  0
POINT
  5
4C58
  8
DEFPOINTS
 62
     0
 10
8.7862564293173477
 20
12.61868574109098
 30
0.0
  0
ENDBLK
  5
1725
  8
0
  0
BLOCK
  8
0
  2
*D26
 70
     1
 10
0.0
 20
0.0
 30
0.0
  3
*D26
  1

  0
LINE
  5
4C63
  8
DIM
 62
     0
 10
4.3899917680462721
 20
16.35868574109098
 30
0.0
 11
8.3132862233575278
 21
16.35868574109098
 31
0.0
  0
LINE
  5
4C64
  8
DIM
 62
     0
 10
7.1369917680462791
 20
15.53168574109098
 30
0.0
 11
8.3132862233575278
 21
15.53168574109098
 31
0.0
  0
LINE
  5
4C65
  8
DIM
 62
     0
 10
8.1737862233575278
 20
16.62868574109098
 30
0.0
 11
8.1737862233575278
 21
16.898685741090969
 31
0.0
  0
LINE
  5
4C66
  8
DIM
 62
     0
 10
8.1737862233575278
 20
15.261685741090981
 30
0.0
 11
8.1737862233575278
 21
14.991685741090979
 31
0.0
  0
SOLID
  5
4C67
  8
DIM
 62
     0
 10
8.1287862233575279
 20
16.62868574109098
 30
0.0
 11
8.2187862233575277
 21
16.62868574109098
 31
0.0
 12
8.1737862233575278
 22
16.35868574109098
 32
0.0
 13
8.1737862233575278
 23
16.35868574109098
 33
0.0
  0
SOLID
  5
4C68
  8
DIM
 62
     0
 10
8.1287862233575279
 20
15.261685741090981
 30
0.0
 11
8.2187862233575277
 21
15.261685741090981
 31
0.0
 12
8.1737862233575278
 22
15.53168574109098
 32
0.0
 13
8.1737862233575278
 23
15.53168574109098
 33
0.0
  0
TEXT
  5
4C69
  8
OBJECT
 62
     0
 10
7.904254973357526
 20
15.851435741090979
 30
0.0
 40
0.1875
  1
0.827
 41
0.75
  0
POINT
  5
4C6A
  8
DEFPOINTS
 62
     0
 10
4.2954917680462721
 20
16.35868574109098
 30
0.0
  0
POINT
  5
4C6B
  8
DEFPOINTS
 62
     0
 10
7.0424917680462791
 20
15.53168574109098
 30
0.0
  0
POINT
  5
4C6C
  8
DEFPOINTS
 62
     0
 10
8.1737862233575278
 20
15.53168574109098
 30
0.0
  0
ENDBLK
  5
175F
  8
0
  0
BLOCK
  8
0
  2
*D27
 70
     1
 10
0.0
 20
0.0
 30
0.0
  3
*D27
  1

  0
LINE
  5
4C59
  8
DIM
 62
     0
 10
7.1369917680462791
 20
15.53168574109098
 30
0.0
 11
8.3132862233575278
 21
15.53168574109098
 31
0.0
  0
LINE
  5
4C5A
  8
DIM
 62
     0
 10
7.1369917680462791
 20
13.87768574109098
 30
0.0
 11
8.3132862233575278
 21
13.87768574109098
 31
0.0
  0
LINE
  5
4C5B
  8
DIM
 62
     0
 10
8.1737862233575278
 20
15.261685741090981
 30
0.0
 11
8.1737862233575278
 21
14.93343574109098
 31
0.0
  0
LINE
  5
4C5C
  8
DIM
 62
     0
 10
8.1737862233575278
 20
14.14768574109098
 30
0.0
 11
8.1737862233575278
 21
14.47593574109098
 31
0.0
  0
SOLID
  5
4C5D
  8
DIM
 62
     0
 10
8.1287862233575279
 20
15.261685741090981
 30
0.0
 11
8.2187862233575277
 21
15.261685741090981
 31
0.0
 12
8.1737862233575278
 22
15.53168574109098
 32
0.0
 13
8.1737862233575278
 23
15.53168574109098
 33
0.0
  0
SOLID
  5
4C5E
  8
DIM
 62
     0
 10
8.1287862233575279
 20
14.14768574109098
 30
0.0
 11
8.2187862233575277
 21
14.14768574109098
 31
0.0
 12
8.1737862233575278
 22
13.87768574109098
 32
0.0
 13
8.1737862233575278
 23
13.87768574109098
 33
0.0
  0
TEXT
  5
4C5F
  8
OBJECT
 62
     0
 10
7.915973723357526
 20
14.61093574109098
 30
0.0
 40
0.1875
  1
1.654
 41
0.75
  0
POINT
  5
4C60
  8
DEFPOINTS
 62
     0
 10
7.0424917680462791
 20
15.53168574109098
 30
0.0
  0
POINT
  5
4C61
  8
DEFPOINTS
 62
     0
 10
7.0424917680462791
 20
13.87768574109098
 30
0.0
  0
POINT
  5
4C62
  8
DEFPOINTS
 62
     0
 10
8.1737862233575278
 20
13.87768574109098
 30
0.0
  0
ENDBLK
  5
31D5
  8
0
  0
BLOCK
  8
0
  2
*D28
 70
     1
 10
0.0
 20
0.0
 30
0.0
  3
*D28
  1

  0
LINE
  5
4CC7
  8
DIM
 62
     0
 10
4.0209917680462723
 20
16.35868574109098
 30
0.0
 11
0.9357930011852301
 21
16.35868574109098
 31
0.0
  0
LINE
  5
4CC8
  8
DIM
 62
     0
 10
2.3509917680462742
 20
15.452685741090979
 30
0.0
 11
0.9357930011852301
 21
15.452685741090979
 31
0.0
  0
LINE
  5
4CC9
  8
DIM
 62
     0
 10
1.07529300118523
 20
16.62868574109098
 30
0.0
 11
1.07529300118523
 21
16.898685741090979
 31
0.0
  0
LINE
  5
4CCA
  8
DIM
 62
     0
 10
1.0752930011852291
 20
15.18268574109098
 30
0.0
 11
1.0752930011852291
 21
14.91268574109098
 31
0.0
  0
SOLID
  5
4CCB
  8
DIM
 62
     0
 10
1.03029300118523
 20
16.62868574109098
 30
0.0
 11
1.1202930011852299
 21
16.62868574109098
 31
0.0
 12
1.07529300118523
 22
16.35868574109098
 32
0.0
 13
1.07529300118523
 23
16.35868574109098
 33
0.0
  0
SOLID
  5
4CCC
  8
DIM
 62
     0
 10
1.03029300118523
 20
15.18268574109098
 30
0.0
 11
1.120293001185229
 21
15.18268574109098
 31
0.0
 12
1.0752930011852291
 22
15.452685741090979
 32
0.0
 13
1.0752930011852291
 23
15.452685741090979
 33
0.0
  0
TEXT
  5
4CCD
  8
OBJECT
 62
     0
 10
0.8174805011852274
 20
15.811935741090981
 30
0.0
 40
0.1875
  1
0.906
 41
0.75
  0
POINT
  5
4CCE
  8
DEFPOINTS
 62
     0
 10
4.1154917680462724
 20
16.35868574109098
 30
0.0
  0
POINT
  5
4CCF
  8
DEFPOINTS
 62
     0
 10
2.4454917680462742
 20
15.452685741090979
 30
0.0
  0
POINT
  5
4CD0
  8
DEFPOINTS
 62
     0
 10
1.0752930011852291
 20
15.452685741090979
 30
0.0
  0
ENDBLK
  5
4A51
  8
0
  0
BLOCK
  8
0
  2
*D29
 70
     1
 10
0.0
 20
0.0
 30
0.0
  3
*D29
  1

  0
LINE
  5
5F39
  8
DIM
 62
     0
 10
2.3509917680462742
 20
15.452685741090979
 30
0.0
 11
0.9357930011852305
 21
15.452685741090979
 31
0.0
  0
LINE
  5
5F3A
  8
DIM
 62
     0
 10
2.3509917680462742
 20
13.366685741090979
 30
0.0
 11
0.9357930011852301
 21
13.366685741090979
 31
0.0
  0
LINE
  5
5F3B
  8
DIM
 62
     0
 10
1.07529300118523
 20
15.18268574109098
 30
0.0
 11
1.07529300118523
 21
14.63843574109098
 31
0.0
  0
LINE
  5
5F3C
  8
DIM
 62
     0
 10
1.07529300118523
 20
13.636685741090981
 30
0.0
 11
1.07529300118523
 21
14.18093574109098
 31
0.0
  0
SOLID
  5
5F3D
  8
DIM
 62
     0
 10
1.03029300118523
 20
15.18268574109098
 30
0.0
 11
1.1202930011852299
 21
15.18268574109098
 31
0.0
 12
1.07529300118523
 22
15.452685741090979
 32
0.0
 13
1.07529300118523
 23
15.452685741090979
 33
0.0
  0
SOLID
  5
5F3E
  8
DIM
 62
     0
 10
1.03029300118523
 20
13.636685741090981
 30
0.0
 11
1.1202930011852299
 21
13.636685741090981
 31
0.0
 12
1.0752930011852291
 22
13.366685741090979
 32
0.0
 13
1.0752930011852291
 23
13.366685741090979
 33
0.0
  0
TEXT
  8
0
  40
0.1875
  5
5FC9
  62
0
  72
0
  71
0
 10
0.700293
 20
14.0778
 30
0.000000
  1
2.086
  0
POINT
  5
5F40
  8
DEFPOINTS
 62
     0
 10
2.4454917680462742
 20
15.452685741090979
 30
0.0
  0
POINT
  5
5F41
  8
DEFPOINTS
 62
     0
 10
2.4454917680462742
 20
13.366685741090979
 30
0.0
  0
POINT
  5
5F42
  8
DEFPOINTS
 62
     0
 10
1.0752930011852291
 20
13.366685741090979
 30
0.0
  0
ENDBLK
  5
4A5F
  8
0
  0
BLOCK
  8
0
  2
*D30
 70
     1
 10
0.0
 20
0.0
 30
0.0
  3
*D30
  1

  0
LINE
  5
4CFA
  8
DIM
 62
     0
 10
1.8274917680462719
 20
13.272185741090979
 30
0.0
 11
1.8274917680462719
 21
11.843687793243991
 31
0.0
  0
LINE
  5
4CFB
  8
DIM
 62
     0
 10
1.488491768046273
 20
12.52418574109098
 30
0.0
 11
1.488491768046273
 21
11.843687793243991
 31
0.0
  0
LINE
  5
4CFC
  8
DIM
 62
     0
 10
2.0974917680462721
 20
11.983187793243991
 30
0.0
 11
2.3674917680462721
 21
11.983187793243991
 31
0.0
  0
LINE
  5
4CFD
  8
DIM
 62
     0
 10
1.218491768046273
 20
11.983187793243991
 30
0.0
 11
0.9484917680462734
 21
11.983187793243991
 31
0.0
  0
SOLID
  5
4CFE
  8
DIM
 62
     0
 10
2.0974917680462721
 20
12.02818779324399
 30
0.0
 11
2.0974917680462721
 21
11.938187793243991
 31
0.0
 12
1.8274917680462719
 22
11.983187793243991
 32
0.0
 13
1.8274917680462719
 23
11.983187793243991
 33
0.0
  0
SOLID
  5
4CFF
  8
DIM
 62
     0
 10
1.218491768046273
 20
12.02818779324399
 30
0.0
 11
1.218491768046273
 21
11.938187793243991
 31
0.0
 12
1.488491768046273
 22
11.983187793243991
 32
0.0
 13
1.488491768046273
 23
11.983187793243991
 33
0.0
  0
TEXT
  5
4D00
  8
OBJECT
 62
     0
 10
0.2744292680462734
 20
11.889437793243991
 30
0.0
 40
0.1875
  1
0.339
 41
0.75
  0
POINT
  5
4D01
  8
DEFPOINTS
 62
     0
 10
1.8274917680462719
 20
13.366685741090979
 30
0.0
  0
POINT
  5
4D02
  8
DEFPOINTS
 62
     0
 10
1.488491768046273
 20
12.61868574109098
 30
0.0
  0
POINT
  5
4D03
  8
DEFPOINTS
 62
     0
 10
1.488491768046273
 20
11.983187793243991
 30
0.0
  0
ENDBLK
  5
4AA9
  8
0
  0
BLOCK
  8
0
  2
*D31
 70
     1
 10
0.0
 20
0.0
 30
0.0
  3
*D31
  1

  0
LINE
  5
4C81
  8
DIM
 62
     0
 10
6.6779917680462724
 20
19.350685741090981
 30
0.0
 11
7.5704098682788166
 21
19.350685741090981
 31
0.0
  0
LINE
  5
4C82
  8
DIM
 62
     0
 10
7.016991768046271
 20
20.098685741090978
 30
0.0
 11
7.5704098682788166
 21
20.098685741090978
 31
0.0
  0
LINE
  5
4C83
  8
DIM
 62
     0
 10
7.4309098682788166
 20
19.080685741090981
 30
0.0
 11
7.4309098682788166
 21
18.810685741090978
 31
0.0
  0
LINE
  5
4C84
  8
DIM
 62
     0
 10
7.4309098682788166
 20
20.368685741090982
 30
0.0
 11
7.4309098682788166
 21
20.638685741090981
 31
0.0
  0
SOLID
  5
4C85
  8
DIM
 62
     0
 10
7.3859098682788167
 20
19.080685741090981
 30
0.0
 11
7.4759098682788174
 21
19.080685741090981
 31
0.0
 12
7.4309098682788166
 22
19.350685741090981
 32
0.0
 13
7.4309098682788166
 23
19.350685741090981
 33
0.0
  0
SOLID
  5
4C86
  8
DIM
 62
     0
 10
7.3859098682788167
 20
20.368685741090982
 30
0.0
 11
7.4759098682788174
 21
20.368685741090982
 31
0.0
 12
7.4309098682788166
 22
20.098685741090978
 32
0.0
 13
7.4309098682788166
 23
20.098685741090978
 33
0.0
  0
TEXT
  5
4C87
  8
OBJECT
 62
     0
 10
7.1613786182788131
 20
19.63093574109098
 30
0.0
 40
0.1875
  1
0.748
 41
0.75
  0
POINT
  5
4C88
  8
DEFPOINTS
 62
     0
 10
6.5834917680462723
 20
19.350685741090981
 30
0.0
  0
POINT
  5
4C89
  8
DEFPOINTS
 62
     0
 10
6.9224917680462701
 20
20.098685741090978
 30
0.0
  0
POINT
  5
4C8A
  8
DEFPOINTS
 62
     0
 10
7.4309098682788166
 20
20.098685741090978
 30
0.0
  0
ENDBLK
  5
4AC5
  8
0
  0
BLOCK
  8
0
  2
*D32
 70
     1
 10
0.0
 20
0.0
 30
0.0
  3
*D32
  1

  0
LINE
  5
4C6D
  8
DIM
 62
     0
 10
4.3899917680462721
 20
16.35868574109098
 30
0.0
 11
7.7628267638980697
 21
16.35868574109098
 31
0.0
  0
LINE
  5
4C6E
  8
DIM
 62
     0
 10
7.1369917680462791
 20
17.185685741090978
 30
0.0
 11
7.7628267638980697
 21
17.185685741090978
 31
0.0
  0
LINE
  5
4C6F
  8
DIM
 62
     0
 10
7.6233267638980697
 20
16.08868574109098
 30
0.0
 11
7.6233267638980697
 21
15.818685741090979
 31
0.0
  0
LINE
  5
4C70
  8
DIM
 62
     0
 10
7.6233267638980697
 20
17.455685741090981
 30
0.0
 11
7.6233267638980697
 21
17.725685741090981
 31
0.0
  0
SOLID
  5
4C71
  8
DIM
 62
     0
 10
7.5783267638980698
 20
16.08868574109098
 30
0.0
 11
7.6683267638980697
 21
16.08868574109098
 31
0.0
 12
7.6233267638980697
 22
16.35868574109098
 32
0.0
 13
7.6233267638980697
 23
16.35868574109098
 33
0.0
  0
SOLID
  5
4C72
  8
DIM
 62
     0
 10
7.5783267638980698
 20
17.455685741090981
 30
0.0
 11
7.6683267638980697
 21
17.455685741090981
 31
0.0
 12
7.6233267638980697
 22
17.185685741090978
 32
0.0
 13
7.6233267638980697
 23
17.185685741090978
 33
0.0
  0
TEXT
  5
4C73
  8
OBJECT
 62
     0
 10
7.3537955138980671
 20
16.678435741090979
 30
0.0
 40
0.1875
  1
0.827
 41
0.75
  0
POINT
  5
4C74
  8
DEFPOINTS
 62
     0
 10
4.2954917680462721
 20
16.35868574109098
 30
0.0
  0
POINT
  5
4C75
  8
DEFPOINTS
 62
     0
 10
7.0424917680462791
 20
17.185685741090978
 30
0.0
  0
POINT
  5
4C76
  8
DEFPOINTS
 62
     0
 10
7.6233267638980697
 20
17.185685741090978
 30
0.0
  0
ENDBLK
  5
4AD2
  8
0
  0
BLOCK
  8
0
  2
*D33
 70
     1
 10
0.0
 20
0.0
 30
0.0
  3
*D33
  1

  0
LINE
  5
4C77
  8
DIM
 62
     0
 10
7.1369917680462791
 20
17.185685741090978
 30
0.0
 11
7.7628267638980688
 21
17.185685741090978
 31
0.0
  0
LINE
  5
4C78
  8
DIM
 62
     0
 10
7.1369917680462791
 20
18.839685741090982
 30
0.0
 11
7.7628267638980697
 21
18.839685741090982
 31
0.0
  0
LINE
  5
4C79
  8
DIM
 62
     0
 10
7.6233267638980688
 20
17.455685741090981
 30
0.0
 11
7.6233267638980688
 21
17.783935741090978
 31
0.0
  0
LINE
  5
4C7A
  8
DIM
 62
     0
 10
7.6233267638980697
 20
18.569685741090979
 30
0.0
 11
7.6233267638980697
 21
18.241435741090982
 31
0.0
  0
SOLID
  5
4C7B
  8
DIM
 62
     0
 10
7.5783267638980689
 20
17.455685741090981
 30
0.0
 11
7.6683267638980688
 21
17.455685741090981
 31
0.0
 12
7.6233267638980688
 22
17.185685741090978
 32
0.0
 13
7.6233267638980688
 23
17.185685741090978
 33
0.0
  0
SOLID
  5
4C7C
  8
DIM
 62
     0
 10
7.5783267638980698
 20
18.569685741090979
 30
0.0
 11
7.6683267638980697
 21
18.569685741090979
 31
0.0
 12
7.6233267638980697
 22
18.839685741090982
 32
0.0
 13
7.6233267638980697
 23
18.839685741090982
 33
0.0
  0
TEXT
  5
4C7D
  8
OBJECT
 62
     0
 10
7.3655142638980671
 20
17.91893574109098
 30
0.0
 40
0.1875
  1
1.654
 41
0.75
  0
POINT
  5
4C7E
  8
DEFPOINTS
 62
     0
 10
7.0424917680462791
 20
17.185685741090978
 30
0.0
  0
POINT
  5
4C7F
  8
DEFPOINTS
 62
     0
 10
7.0424917680462791
 20
18.839685741090982
 30
0.0
  0
POINT
  5
4C80
  8
DEFPOINTS
 62
     0
 10
7.6233267638980697
 20
18.839685741090982
 30
0.0
  0
ENDBLK
  5
4ADF
  8
0
  0
BLOCK
  8
0
  2
*D34
 70
     1
 10
0.0
 20
0.0
 30
0.0
  3
*D34
  1

  0
LINE
  5
4CBD
  8
DIM
 62
     0
 10
4.0209917680462723
 20
16.35868574109098
 30
0.0
 11
0.4756468889595681
 21
16.35868574109098
 31
0.0
  0
LINE
  5
4CBE
  8
DIM
 62
     0
 10
2.3509917680462742
 20
17.264685741090979
 30
0.0
 11
0.4756468889595683
 21
17.264685741090979
 31
0.0
  0
LINE
  5
4CBF
  8
DIM
 62
     0
 10
0.6151468889595682
 20
16.08868574109098
 30
0.0
 11
0.6151468889595682
 21
15.818685741090979
 31
0.0
  0
LINE
  5
4CC0
  8
DIM
 62
     0
 10
0.6151468889595684
 20
17.534685741090978
 30
0.0
 11
0.6151468889595685
 21
17.804685741090982
 31
0.0
  0
SOLID
  5
4CC1
  8
DIM
 62
     0
 10
0.570146888959568
 20
16.08868574109098
 30
0.0
 11
0.6601468889595682
 21
16.08868574109098
 31
0.0
 12
0.6151468889595682
 22
16.35868574109098
 32
0.0
 13
0.6151468889595682
 23
16.35868574109098
 33
0.0
  0
SOLID
  5
4CC2
  8
DIM
 62
     0
 10
0.5701468889595684
 20
17.534685741090978
 30
0.0
 11
0.6601468889595684
 21
17.534685741090978
 31
0.0
 12
0.6151468889595684
 22
17.264685741090979
 32
0.0
 13
0.6151468889595684
 23
17.264685741090979
 33
0.0
  0
TEXT
  5
4CC3
  8
OBJECT
 62
     0
 10
0.3573343889595655
 20
16.717935741090979
 30
0.0
 40
0.1875
  1
0.906
 41
0.75
  0
POINT
  5
4CC4
  8
DEFPOINTS
 62
     0
 10
4.1154917680462724
 20
16.35868574109098
 30
0.0
  0
POINT
  5
4CC5
  8
DEFPOINTS
 62
     0
 10
2.4454917680462742
 20
17.264685741090979
 30
0.0
  0
POINT
  5
4CC6
  8
DEFPOINTS
 62
     0
 10
0.6151468889595684
 20
17.264685741090979
 30
0.0
  0
ENDBLK
  5
4AEC
  8
0
  0
BLOCK
  8
0
  2
*D35
 70
     1
 10
0.0
 20
0.0
 30
0.0
  3
*D35
  1

  0
LINE
  5
5F43
  8
DIM
 62
     0
 10
2.3509917680462742
 20
17.264685741090979
 30
0.0
 11
0.4756468889595678
 21
17.264685741090979
 31
0.0
  0
LINE
  5
5F44
  8
DIM
 62
     0
 10
2.3509917680462742
 20
19.350685741090981
 30
0.0
 11
0.4756468889595683
 21
19.350685741090981
 31
0.0
  0
LINE
  5
5F45
  8
DIM
 62
     0
 10
0.615146888959568
 20
17.534685741090978
 30
0.0
 11
0.6151468889595682
 21
18.07893574109098
 31
0.0
  0
LINE
  5
5F46
  8
DIM
 62
     0
 10
0.6151468889595683
 20
19.080685741090981
 30
0.0
 11
0.6151468889595682
 21
18.53643574109098
 31
0.0
  0
SOLID
  5
5F47
  8
DIM
 62
     0
 10
0.5701468889595679
 20
17.534685741090978
 30
0.0
 11
0.660146888959568
 21
17.534685741090978
 31
0.0
 12
0.615146888959568
 22
17.264685741090979
 32
0.0
 13
0.615146888959568
 23
17.264685741090979
 33
0.0
  0
SOLID
  5
5F48
  8
DIM
 62
     0
 10
0.5701468889595683
 20
19.080685741090981
 30
0.0
 11
0.6601468889595683
 21
19.080685741090981
 31
0.0
 12
0.6151468889595684
 22
19.350685741090981
 32
0.0
 13
0.6151468889595684
 23
19.350685741090981
 33
0.0
  0
TEXT
  8
0
  40
0.1875
  5
5FCA
  62
0
  72
0
  71
0
 10
0.240147
 20
17.9758
 30
0.000000
  1
2.086
  0
POINT
  5
5F4A
  8
DEFPOINTS
 62
     0
 10
2.4454917680462742
 20
17.264685741090979
 30
0.0
  0
POINT
  5
5F4B
  8
DEFPOINTS
 62
     0
 10
2.4454917680462742
 20
19.350685741090981
 30
0.0
  0
POINT
  5
5F4C
  8
DEFPOINTS
 62
     0
 10
0.6151468889595684
 20
19.350685741090981
 30
0.0
  0
ENDBLK
  5
4AF9
  8
0
  0
BLOCK
  8
0
  2
*D36
 70
     1
 10
0.0
 20
0.0
 30
0.0
  3
*D36
  1

  0
LINE
  5
5CDB
  8
DIM
 62
     0
 10
1.615491768046273
 20
5.8519924891003612
 30
0.0
 11
1.615491768046273
 21
6.740136167680931
 31
0.0
  0
LINE
  5
5CDC
  8
DIM
 62
     0
 10
6.7954917680462712
 20
5.8519924891003612
 30
0.0
 11
6.7954917680462712
 21
6.740136167680931
 31
0.0
  0
LINE
  5
5CDD
  8
DIM
 62
     0
 10
1.8854917680462731
 20
6.6006361676809311
 30
0.0
 11
3.824398018046272
 21
6.6006361676809311
 31
0.0
  0
LINE
  5
5CDE
  8
DIM
 62
     0
 10
6.5254917680462698
 20
6.6006361676809311
 30
0.0
 11
4.586585518046272
 21
6.6006361676809311
 31
0.0
  0
SOLID
  5
5CDF
  8
DIM
 62
     0
 10
1.8854917680462731
 20
6.645636167680931
 30
0.0
 11
1.8854917680462731
 21
6.555636167680932
 31
0.0
 12
1.615491768046273
 22
6.6006361676809311
 32
0.0
 13
1.615491768046273
 23
6.6006361676809311
 33
0.0
  0
SOLID
  5
5CE0
  8
DIM
 62
     0
 10
6.5254917680462698
 20
6.645636167680931
 30
0.0
 11
6.5254917680462698
 21
6.555636167680932
 31
0.0
 12
6.7954917680462712
 22
6.6006361676809311
 32
0.0
 13
6.7954917680462712
 23
6.6006361676809311
 33
0.0
  0
TEXT
  5
5CE1
  8
OBJECT
 62
     0
 10
3.9593980180462718
 20
6.5068861676809311
 30
0.0
 40
0.1875
  1
5.180
 41
0.75
  0
POINT
  5
5CE2
  8
DEFPOINTS
 62
     0
 10
1.615491768046273
 20
5.7574924891003612
 30
0.0
  0
POINT
  5
5CE3
  8
DEFPOINTS
 62
     0
 10
6.7954917680462712
 20
5.7574924891003612
 30
0.0
  0
POINT
  5
5CE4
  8
DEFPOINTS
 62
     0
 10
6.7954917680462712
 20
6.6006361676809311
 30
0.0
  0
ENDBLK
  5
5CBC
  8
0
  0
BLOCK
  8
0
  2
*U37
 70
     1
 10
0.0
 20
0.0
 30
0.0
  3
*U37
  1

  0
TEXT
  5
5CF6
  8
OBJECT
 10
3.9099562506953021
 20
11.25910239475315
 30
0.0
 40
0.18749999953125
  1
0.216 DIA. BOSS WITH
 41
0.75
  0
TEXT
  5
5CF7
  8
OBJECT
 10
3.9099562506953021
 20
10.9466023955344
 30
0.0
 40
0.18749999953125
  1
0.090 DIA. HOLE x 0.156 DEEP
 41
0.75
  0
TEXT
  5
5CF8
  8
OBJECT
 10
3.9099562506953021
 20
10.634102396315649
 30
0.0
 40
0.18749999953125
  1
(16) PLACES
 41
0.75
  0
ENDBLK
  5
5CFA
  8
0
  0
BLOCK
  8
0
  2
*U38
 70
     1
 10
0.0
 20
0.0
 30
0.0
  3
*U38
  1

  0
TEXT
  5
5CFC
  8
OBJECT
 10
7.4666585658185189
 20
21.09289782540727
 30
0.0
 40
0.18749999953125
  1
0.296 DIA. BOSS
 41
0.75
  0
TEXT
  5
5CFD
  8
OBJECT
 10
7.4666585658185189
 20
20.780397826188519
 30
0.0
 40
0.18749999953125
  1
(8) PLACES
 41
0.75
  0
ENDBLK
  5
5CFF
  8
0
  0
BLOCK
  8
0
  2
*X39
 70
     1
 10
0.0
 20
0.0
 30
0.0
  3
*X39
  1

  0
LINE
  5
5F4E
  8
0
 62
     0
 10
13.662569217425849
 20
12.77868574109098
 30
0.0
 11
13.679685509912369
 21
12.7958020335775
 31
0.0
  0
LINE
  5
5F4F
  8
0
 62
     0
 10
13.502569217425849
 20
12.61868574109098
 30
0.0
 11
13.608185509912371
 21
12.7243020335775
 31
0.0
  0
LINE
  5
5F50
  8
0
 62
     0
 10
13.49968550991237
 20
12.88096707652246
 30
0.0
 11
13.619685509912371
 21
13.00096707652245
 31
0.0
  0
LINE
  5
5F51
  8
0
 62
     0
 10
13.49968550991237
 20
13.146132119467421
 30
0.0
 11
13.619685509912371
 21
13.266132119467411
 31
0.0
  0
LINE
  5
5F52
  8
0
 62
     0
 10
13.49968550991237
 20
13.411297162412369
 30
0.0
 11
13.619685509912371
 21
13.53129716241237
 31
0.0
  0
LINE
  5
5F53
  8
0
 62
     0
 10
13.49968550991237
 20
13.676462205357319
 30
0.0
 11
13.619685509912371
 21
13.79646220535732
 31
0.0
  0
LINE
  5
5F54
  8
0
 62
     0
 10
13.49968550991237
 20
13.941627248302281
 30
0.0
 11
13.619685509912371
 21
14.061627248302271
 31
0.0
  0
LINE
  5
5F55
  8
0
 62
     0
 10
13.49968550991237
 20
14.20679229124724
 30
0.0
 11
13.619685509912371
 21
14.32679229124723
 31
0.0
  0
LINE
  5
5F56
  8
0
 62
     0
 10
13.49968550991237
 20
14.47195733419219
 30
0.0
 11
13.619685509912371
 21
14.591957334192189
 31
0.0
  0
LINE
  5
5F57
  8
0
 62
     0
 10
13.49968550991237
 20
14.73712237713714
 30
0.0
 11
13.619685509912371
 21
14.85712237713714
 31
0.0
  0
LINE
  5
5F58
  8
0
 62
     0
 10
13.49968550991237
 20
15.0022874200821
 30
0.0
 11
13.619685509912371
 21
15.12228742008209
 31
0.0
  0
LINE
  5
5F59
  8
0
 62
     0
 10
13.49968550991237
 20
15.267452463027061
 30
0.0
 11
13.619685509912371
 21
15.387452463027049
 31
0.0
  0
LINE
  5
5F5A
  8
0
 62
     0
 10
13.49968550991237
 20
15.532617505972009
 30
0.0
 11
13.619685509912371
 21
15.65261750597201
 31
0.0
  0
LINE
  5
5F5B
  8
0
 62
     0
 10
13.49968550991237
 20
15.79778254891697
 30
0.0
 11
13.619685509912371
 21
15.917782548916961
 31
0.0
  0
LINE
  5
5F5C
  8
0
 62
     0
 10
13.49968550991237
 20
16.062947591861921
 30
0.0
 11
13.619685509912371
 21
16.182947591861922
 31
0.0
  0
LINE
  5
5F5D
  8
0
 62
     0
 10
13.49968550991237
 20
16.328112634806871
 30
0.0
 11
13.61968550991236
 21
16.448112634806868
 31
0.0
  0
LINE
  5
5F5E
  8
0
 62
     0
 10
13.49968550991237
 20
16.593277677751828
 30
0.0
 11
13.619685509912371
 21
16.713277677751829
 31
0.0
  0
LINE
  5
5F5F
  8
0
 62
     0
 10
13.49968550991237
 20
16.85844272069679
 30
0.0
 11
13.619685509912371
 21
16.97844272069678
 31
0.0
  0
LINE
  5
5F60
  8
0
 62
     0
 10
13.49968550991237
 20
17.12360776364174
 30
0.0
 11
13.619685509912371
 21
17.243607763641741
 31
0.0
  0
LINE
  5
5F61
  8
0
 62
     0
 10
13.49968550991237
 20
17.388772806586701
 30
0.0
 11
13.619685509912371
 21
17.508772806586691
 31
0.0
  0
LINE
  5
5F62
  8
0
 62
     0
 10
13.49968550991237
 20
17.653937849531658
 30
0.0
 11
13.619685509912371
 21
17.773937849531649
 31
0.0
  0
LINE
  5
5F63
  8
0
 62
     0
 10
13.49968550991237
 20
17.919102892476609
 30
0.0
 11
13.619685509912371
 21
18.039102892476599
 31
0.0
  0
LINE
  5
5F64
  8
0
 62
     0
 10
13.49968550991237
 20
18.184267935421559
 30
0.0
 11
13.619685509912371
 21
18.30426793542156
 31
0.0
  0
LINE
  5
5F65
  8
0
 62
     0
 10
13.49968550991237
 20
18.44943297836652
 30
0.0
 11
13.619685509912371
 21
18.56943297836651
 31
0.0
  0
LINE
  5
5F66
  8
0
 62
     0
 10
13.49968550991237
 20
18.71459802131147
 30
0.0
 11
13.619685509912371
 21
18.834598021311471
 31
0.0
  0
LINE
  5
5F67
  8
0
 62
     0
 10
13.49968550991237
 20
18.979763064256431
 30
0.0
 11
13.61968550991236
 21
19.099763064256418
 31
0.0
  0
LINE
  5
5F68
  8
0
 62
     0
 10
13.49968550991237
 20
19.244928107201378
 30
0.0
 11
13.619685509912371
 21
19.364928107201379
 31
0.0
  0
LINE
  5
5F69
  8
0
 62
     0
 10
13.49968550991237
 20
19.510093150146339
 30
0.0
 11
13.619685509912371
 21
19.63009315014634
 31
0.0
  0
LINE
  5
5F6A
  8
0
 62
     0
 10
13.49968550991237
 20
19.7752581930913
 30
0.0
 11
13.663113057912049
 21
19.938685741090978
 31
0.0
  0
LINE
  5
5F6B
  8
0
 62
     0
 10
13.49968550991237
 20
20.040423236036251
 30
0.0
 11
13.557948014967099
 21
20.098685741090989
 31
0.0
  0
LINE
  5
5F6C
  8
0
 62
     0
 10
13.49968550991237
 20
12.70419038107751
 30
0.0
 11
13.619685509912371
 21
12.8241903810775
 31
0.0
  0
LINE
  5
5F6D
  8
0
 62
     0
 10
13.49968550991238
 20
12.96935542402246
 30
0.0
 11
13.619685509912371
 21
13.08935542402245
 31
0.0
  0
LINE
  5
5F6E
  8
0
 62
     0
 10
13.49968550991237
 20
13.234520466967419
 30
0.0
 11
13.619685509912371
 21
13.35452046696741
 31
0.0
  0
LINE
  5
5F6F
  8
0
 62
     0
 10
13.49968550991238
 20
13.49968550991237
 30
0.0
 11
13.619685509912371
 21
13.619685509912371
 31
0.0
  0
LINE
  5
5F70
  8
0
 62
     0
 10
13.49968550991237
 20
13.76485055285732
 30
0.0
 11
13.619685509912371
 21
13.884850552857319
 31
0.0
  0
LINE
  5
5F71
  8
0
 62
     0
 10
13.49968550991237
 20
14.030015595802279
 30
0.0
 11
13.61968550991236
 21
14.15001559580227
 31
0.0
  0
LINE
  5
5F72
  8
0
 62
     0
 10
13.49968550991237
 20
14.29518063874724
 30
0.0
 11
13.619685509912371
 21
14.415180638747231
 31
0.0
  0
LINE
  5
5F73
  8
0
 62
     0
 10
13.49968550991237
 20
14.560345681692191
 30
0.0
 11
13.61968550991236
 21
14.68034568169219
 31
0.0
  0
LINE
  5
5F74
  8
0
 62
     0
 10
13.49968550991237
 20
14.825510724637139
 30
0.0
 11
13.619685509912371
 21
14.94551072463714
 31
0.0
  0
LINE
  5
5F75
  8
0
 62
     0
 10
13.49968550991237
 20
15.0906757675821
 30
0.0
 11
13.619685509912371
 21
15.210675767582091
 31
0.0
  0
LINE
  5
5F76
  8
0
 62
     0
 10
13.49968550991237
 20
15.355840810527059
 30
0.0
 11
13.61968550991236
 21
15.47584081052705
 31
0.0
  0
LINE
  5
5F77
  8
0
 62
     0
 10
13.49968550991237
 20
15.62100585347201
 30
0.0
 11
13.619685509912371
 21
15.741005853472
 31
0.0
  0
LINE
  5
5F78
  8
0
 62
     0
 10
13.49968550991237
 20
15.886170896416971
 30
0.0
 11
13.619685509912371
 21
16.006170896416961
 31
0.0
  0
LINE
  5
5F79
  8
0
 62
     0
 10
13.49968550991237
 20
16.151335939361921
 30
0.0
 11
13.619685509912371
 21
16.271335939361919
 31
0.0
  0
LINE
  5
5F7A
  8
0
 62
     0
 10
13.49968550991237
 20
16.416500982306871
 30
0.0
 11
13.619685509912371
 21
16.536500982306869
 31
0.0
  0
LINE
  5
5F7B
  8
0
 62
     0
 10
13.49968550991237
 20
16.681666025251829
 30
0.0
 11
13.619685509912371
 21
16.80166602525183
 31
0.0
  0
LINE
  5
5F7C
  8
0
 62
     0
 10
13.49968550991237
 20
16.946831068196779
 30
0.0
 11
13.619685509912371
 21
17.06683106819678
 31
0.0
  0
LINE
  5
5F7D
  8
0
 62
     0
 10
13.49968550991237
 20
17.21199611114174
 30
0.0
 11
13.61968550991236
 21
17.331996111141741
 31
0.0
  0
LINE
  5
5F7E
  8
0
 62
     0
 10
13.49968550991237
 20
17.477161154086701
 30
0.0
 11
13.619685509912371
 21
17.597161154086699
 31
0.0
  0
LINE
  5
5F7F
  8
0
 62
     0
 10
13.49968550991237
 20
17.742326197031652
 30
0.0
 11
13.619685509912371
 21
17.862326197031649
 31
0.0
  0
LINE
  5
5F80
  8
0
 62
     0
 10
13.49968550991237
 20
18.007491239976609
 30
0.0
 11
13.61968550991236
 21
18.1274912399766
 31
0.0
  0
LINE
  5
5F81
  8
0
 62
     0
 10
13.49968550991237
 20
18.27265628292156
 30
0.0
 11
13.619685509912371
 21
18.392656282921561
 31
0.0
  0
LINE
  5
5F82
  8
0
 62
     0
 10
13.49968550991237
 20
18.537821325866521
 30
0.0
 11
13.619685509912371
 21
18.657821325866511
 31
0.0
  0
LINE
  5
5F83
  8
0
 62
     0
 10
13.49968550991237
 20
18.802986368811471
 30
0.0
 11
13.619685509912371
 21
18.922986368811468
 31
0.0
  0
LINE
  5
5F84
  8
0
 62
     0
 10
13.49968550991237
 20
19.068151411756428
 30
0.0
 11
13.619685509912371
 21
19.188151411756429
 31
0.0
  0
LINE
  5
5F85
  8
0
 62
     0
 10
13.49968550991237
 20
19.333316454701379
 30
0.0
 11
13.619685509912371
 21
19.45331645470138
 31
0.0
  0
LINE
  5
5F86
  8
0
 62
     0
 10
13.49968550991237
 20
19.59848149764634
 30
0.0
 11
13.61968550991236
 21
19.718481497646341
 31
0.0
  0
LINE
  5
5F87
  8
0
 62
     0
 10
13.66972471041205
 20
20.033685741090981
 30
0.0
 11
13.675354727520929
 21
20.039315758199859
 31
0.0
  0
LINE
  5
5F88
  8
0
 62
     0
 10
13.49968550991237
 20
19.863646540591301
 30
0.0
 11
13.608185509912371
 21
19.9721465405913
 31
0.0
  0
ENDBLK
  5
5F8A
  8
0
  0
BLOCK
  8
0
  2
*X40
 70
     1
 10
0.0
 20
0.0
 30
0.0
  3
*X40
  1

  0
LINE
  5
5F8C
  8
0
 62
     0
 10
15.074685509912371
 20
20.015488506321731
 30
0.0
 11
14.99148827514311
 21
20.098685741090978
 31
0.0
  0
LINE
  5
5F8D
  8
0
 62
     0
 10
14.931323232198171
 20
19.89368574109097
 30
0.0
 11
14.894685509912369
 21
19.930323463376769
 31
0.0
  0
LINE
  5
5F8E
  8
0
 62
     0
 10
15.074685509912371
 20
19.75032346337677
 30
0.0
 11
14.95468550991237
 21
19.870323463376771
 31
0.0
  0
LINE
  5
5F8F
  8
0
 62
     0
 10
15.07468550991236
 20
19.485158420431819
 30
0.0
 11
14.95468550991237
 21
19.60515842043182
 31
0.0
  0
LINE
  5
5F90
  8
0
 62
     0
 10
15.074685509912371
 20
19.219993377486858
 30
0.0
 11
14.95468550991237
 21
19.339993377486859
 31
0.0
  0
LINE
  5
5F91
  8
0
 62
     0
 10
15.074685509912371
 20
18.954828334541912
 30
0.0
 11
14.95468550991237
 21
19.074828334541909
 31
0.0
  0
LINE
  5
5F92
  8
0
 62
     0
 10
15.074685509912371
 20
18.689663291596951
 30
0.0
 11
14.95468550991237
 21
18.809663291596951
 31
0.0
  0
LINE
  5
5F93
  8
0
 62
     0
 10
15.074685509912371
 20
18.424498248652
 30
0.0
 11
14.95468550991237
 21
18.544498248652001
 31
0.0
  0
LINE
  5
5F94
  8
0
 62
     0
 10
15.074685509912371
 20
18.159333205707039
 30
0.0
 11
14.95468550991237
 21
18.27933320570704
 31
0.0
  0
LINE
  5
5F95
  8
0
 62
     0
 10
15.074685509912371
 20
17.894168162762082
 30
0.0
 11
14.95468550991237
 21
18.014168162762079
 31
0.0
  0
LINE
  5
5F96
  8
0
 62
     0
 10
15.074685509912371
 20
17.629003119817131
 30
0.0
 11
14.95468550991237
 21
17.749003119817129
 31
0.0
  0
LINE
  5
5F97
  8
0
 62
     0
 10
15.074685509912371
 20
17.363838076872181
 30
0.0
 11
14.95468550991237
 21
17.483838076872178
 31
0.0
  0
LINE
  5
5F98
  8
0
 62
     0
 10
15.074685509912371
 20
17.09867303392722
 30
0.0
 11
14.95468550991237
 21
17.218673033927221
 31
0.0
  0
LINE
  5
5F99
  8
0
 62
     0
 10
15.074685509912371
 20
16.83350799098227
 30
0.0
 11
14.95468550991237
 21
16.95350799098226
 31
0.0
  0
LINE
  5
5F9A
  8
0
 62
     0
 10
15.074685509912371
 20
16.568342948037309
 30
0.0
 11
14.95468550991237
 21
16.68834294803731
 31
0.0
  0
LINE
  5
5F9B
  8
0
 62
     0
 10
15.07468550991236
 20
16.303177905092351
 30
0.0
 11
14.95468550991237
 21
16.423177905092349
 31
0.0
  0
LINE
  5
5F9C
  8
0
 62
     0
 10
15.074685509912371
 20
16.038012862147401
 30
0.0
 11
14.95468550991237
 21
16.158012862147402
 31
0.0
  0
LINE
  5
5F9D
  8
0
 62
     0
 10
15.074685509912371
 20
15.77284781920244
 30
0.0
 11
14.95468550991237
 21
15.892847819202441
 31
0.0
  0
LINE
  5
5F9E
  8
0
 62
     0
 10
15.074685509912371
 20
15.507682776257489
 30
0.0
 11
14.95468550991237
 21
15.62768277625749
 31
0.0
  0
LINE
  5
5F9F
  8
0
 62
     0
 10
15.074685509912371
 20
15.24251773331253
 30
0.0
 11
14.95468550991237
 21
15.362517733312529
 31
0.0
  0
LINE
  5
5FA0
  8
0
 62
     0
 10
15.074685509912371
 20
14.97735269036758
 30
0.0
 11
14.95468550991237
 21
15.097352690367581
 31
0.0
  0
LINE
  5
5FA1
  8
0
 62
     0
 10
15.074685509912371
 20
14.712187647422621
 30
0.0
 11
14.95468550991237
 21
14.83218764742262
 31
0.0
  0
LINE
  5
5FA2
  8
0
 62
     0
 10
15.074685509912371
 20
14.44702260447767
 30
0.0
 11
14.95468550991237
 21
14.567022604477669
 31
0.0
  0
LINE
  5
5FA3
  8
0
 62
     0
 10
15.074685509912371
 20
14.181857561532709
 30
0.0
 11
14.95468550991237
 21
14.30185756153271
 31
0.0
  0
LINE
  5
5FA4
  8
0
 62
     0
 10
15.074685509912371
 20
13.916692518587761
 30
0.0
 11
14.95468550991237
 21
14.036692518587749
 31
0.0
  0
LINE
  5
5FA5
  8
0
 62
     0
 10
15.074685509912371
 20
13.6515274756428
 30
0.0
 11
14.95468550991237
 21
13.771527475642801
 31
0.0
  0
LINE
  5
5FA6
  8
0
 62
     0
 10
15.07468550991236
 20
13.386362432697849
 30
0.0
 11
14.95468550991237
 21
13.50636243269784
 31
0.0
  0
LINE
  5
5FA7
  8
0
 62
     0
 10
15.074685509912371
 20
13.12119738975289
 30
0.0
 11
14.95468550991237
 21
13.241197389752889
 31
0.0
  0
LINE
  5
5FA8
  8
0
 62
     0
 10
15.074685509912371
 20
12.856032346807931
 30
0.0
 11
14.95468550991237
 21
12.97603234680793
 31
0.0
  0
LINE
  5
5FA9
  8
0
 62
     0
 10
15.046867072684369
 20
12.61868574109098
 30
0.0
 11
14.96618550991238
 21
12.699367303862971
 31
0.0
  0
LINE
  5
5FAA
  8
0
 62
     0
 10
15.074685509912371
 20
19.92710015882173
 30
0.0
 11
14.926604821969219
 21
20.07518084676488
 31
0.0
  0
LINE
  5
5FAB
  8
0
 62
     0
 10
15.074685509912371
 20
19.661935115876769
 30
0.0
 11
14.95468550991237
 21
19.78193511587677
 31
0.0
  0
LINE
  5
5FAC
  8
0
 62
     0
 10
15.074685509912371
 20
19.396770072931812
 30
0.0
 11
14.95468550991237
 21
19.51677007293182
 31
0.0
  0
LINE
  5
5FAD
  8
0
 62
     0
 10
15.074685509912371
 20
19.131605029986861
 30
0.0
 11
14.95468550991237
 21
19.251605029986859
 31
0.0
  0
LINE
  5
5FAE
  8
0
 62
     0
 10
15.074685509912371
 20
18.8664399870419
 30
0.0
 11
14.95468550991237
 21
18.986439987041908
 31
0.0
  0
LINE
  5
5FAF
  8
0
 62
     0
 10
15.074685509912371
 20
18.60127494409695
 30
0.0
 11
14.95468550991237
 21
18.721274944096951
 31
0.0
  0
LINE
  5
5FB0
  8
0
 62
     0
 10
15.074685509912371
 20
18.336109901151989
 30
0.0
 11
14.95468550991237
 21
18.45610990115199
 31
0.0
  0
LINE
  5
5FB1
  8
0
 62
     0
 10
15.074685509912371
 20
18.070944858207039
 30
0.0
 11
14.95468550991237
 21
18.19094485820704
 31
0.0
  0
LINE
  5
5FB2
  8
0
 62
     0
 10
15.074685509912371
 20
17.805779815262081
 30
0.0
 11
14.95468550991237
 21
17.925779815262079
 31
0.0
  0
LINE
  5
5FB3
  8
0
 62
     0
 10
15.074685509912371
 20
17.540614772317131
 30
0.0
 11
14.95468550991237
 21
17.660614772317128
 31
0.0
  0
LINE
  5
5FB4
  8
0
 62
     0
 10
15.074685509912371
 20
17.27544972937217
 30
0.0
 11
14.95468550991237
 21
17.395449729372171
 31
0.0
  0
LINE
  5
5FB5
  8
0
 62
     0
 10
15.074685509912371
 20
17.010284686427209
 30
0.0
 11
14.95468550991237
 21
17.13028468642722
 31
0.0
  0
LINE
  5
5FB6
  8
0
 62
     0
 10
15.074685509912371
 20
16.745119643482258
 30
0.0
 11
14.95468550991237
 21
16.865119643482259
 31
0.0
  0
LINE
  5
5FB7
  8
0
 62
     0
 10
15.074685509912371
 20
16.479954600537312
 30
0.0
 11
14.95468550991237
 21
16.599954600537298
 31
0.0
  0
LINE
  5
5FB8
  8
0
 62
     0
 10
15.074685509912371
 20
16.214789557592351
 30
0.0
 11
14.95468550991237
 21
16.334789557592352
 31
0.0
  0
LINE
  5
5FB9
  8
0
 62
     0
 10
15.074685509912371
 20
15.9496245146474
 30
0.0
 11
14.95468550991237
 21
16.069624514647391
 31
0.0
  0
LINE
  5
5FBA
  8
0
 62
     0
 10
15.074685509912371
 20
15.684459471702439
 30
0.0
 11
14.95468550991237
 21
15.80445947170244
 31
0.0
  0
LINE
  5
5FBB
  8
0
 62
     0
 10
15.074685509912371
 20
15.419294428757491
 30
0.0
 11
14.95468550991237
 21
15.539294428757479
 31
0.0
  0
LINE
  5
5FBC
  8
0
 62
     0
 10
15.074685509912371
 20
15.15412938581253
 30
0.0
 11
14.95468550991237
 21
15.274129385812531
 31
0.0
  0
LINE
  5
5FBD
  8
0
 62
     0
 10
15.074685509912371
 20
14.888964342867579
 30
0.0
 11
14.95468550991237
 21
15.00896434286757
 31
0.0
  0
LINE
  5
5FBE
  8
0
 62
     0
 10
15.074685509912371
 20
14.62379929992262
 30
0.0
 11
14.95468550991237
 21
14.743799299922619
 31
0.0
  0
LINE
  5
5FBF
  8
0
 62
     0
 10
15.074685509912371
 20
14.35863425697767
 30
0.0
 11
14.95468550991237
 21
14.47863425697766
 31
0.0
  0
LINE
  5
5FC0
  8
0
 62
     0
 10
15.074685509912371
 20
14.09346921403271
 30
0.0
 11
14.95468550991237
 21
14.21346921403271
 31
0.0
  0
LINE
  5
5FC1
  8
0
 62
     0
 10
15.074685509912371
 20
13.82830417108776
 30
0.0
 11
14.95468550991237
 21
13.94830417108775
 31
0.0
  0
LINE
  5
5FC2
  8
0
 62
     0
 10
15.074685509912371
 20
13.563139128142801
 30
0.0
 11
14.95468550991237
 21
13.6831391281428
 31
0.0
  0
LINE
  5
5FC3
  8
0
 62
     0
 10
15.07468550991236
 20
13.297974085197851
 30
0.0
 11
14.95468550991237
 21
13.417974085197841
 31
0.0
  0
LINE
  5
5FC4
  8
0
 62
     0
 10
15.074685509912371
 20
13.032809042252889
 30
0.0
 11
14.95468550991237
 21
13.15280904225288
 31
0.0
  0
LINE
  5
5FC5
  8
0
 62
     0
 10
15.074685509912371
 20
12.76764399930793
 30
0.0
 11
14.95468550991237
 21
12.887643999307929
 31
0.0
  0
LINE
  5
5FC6
  8
0
 62
     0
 10
14.95847872518436
 20
12.61868574109098
 30
0.0
 11
14.8987081256724
 21
12.67845634060294
 31
0.0
  0
ENDBLK
  5
5FC8
  8
0
  0
ENDSEC
  0
SECTION
  2
ENTITIES
  0
INSERT
  5
8D6
  8
TITLE
  2
HB
 10
0.0
 20
0.0
 30
0.0
 41
1.4999999962499999
 42
1.4999999962499999
 43
1.4999999962499999
  0
DIMENSION
  5
E55
  8
DIM
  2
*D1
 10
1.253737196517821
 20
4.432492489100361
 30
0.0
 11
1.253737196517821
 21
5.1104924891003618
 31
0.0
 70
     0
  1
H
 13
1.6464917680462721
 23
5.7884924891003626
 33
0.0
 14
1.6464917680462721
 24
4.432492489100361
 34
0.0
 50
90.0
  0
DIMENSION
  5
E63
  8
DIM
  2
*D2
 10
8.0038557688087195
 20
4.5029924891003601
 30
0.0
 11
8.0038557688087177
 21
5.1104924891003609
 31
0.0
 70
     0
  1
J EXPOSED PANEL
 13
6.7114289715482149
 23
5.71799248910036
 33
0.0
 14
6.7114289715482149
 24
4.5029924891003601
 34
0.0
 50
90.0
  0
DIMENSION
  5
E72
  8
DIM
  2
*D3
 10
6.7114289715482149
 20
4.0106414207603791
 30
0.0
 11
4.2054917680462722
 21
4.0106414207603791
 31
0.0
 70
     0
  1
<> EXPOSED PANEL
 13
1.699554564544328
 23
4.5029924891003601
 33
0.0
 14
6.7114289715482149
 24
4.5029924891003601
 34
0.0
  0
DIMENSION
  5
EE4
  8
DIM
  2
*D4
 10
6.9224917680462701
 20
9.9238822871405947
 30
0.0
 11
4.2054917680462722
 21
9.9238822871405947
 31
0.0
 70
     0
 13
1.488491768046273
 23
8.6807344840616931
 33
0.0
 14
6.9224917680462701
 24
8.6807344840616931
 34
0.0
  0
DIMENSION
  5
EF3
  8
DIM
  2
*D5
 10
14.798685509912371
 20
18.013002457235771
 30
0.0
 11
14.287185509912369
 21
18.013002457235771
 31
0.0
 70
     0
  1
E
 13
13.775685509912369
 23
17.37268574109099
 33
0.0
 14
14.798685509912371
 24
17.37268574109099
 34
0.0
  0
DIMENSION
  5
F01
  8
DIM
  2
*D6
 10
13.619685509912379
 20
14.453948766386789
 30
0.0
 11
14.287185509912369
 21
14.453948766386789
 31
0.0
 70
     0
  1
D
 13
14.95468550991237
 23
14.309948766386791
 33
0.0
 14
13.619685509912379
 24
14.309948766386791
 34
0.0
  0
DIMENSION
  5
F23
  8
DIM
  2
*D7
 10
15.074685509912371
 20
15.045351133063701
 30
0.0
 11
14.69518550991237
 21
15.045351133063701
 31
0.0
 70
     0
  1
F
 13
14.31568550991237
 23
15.42268574109098
 33
0.0
 14
15.074685509912371
 24
15.42368574109098
 34
0.0
  0
DIMENSION
  5
F3B
  8
DIM
  2
*D8
 10
13.499685509912361
 20
15.951154507964519
 30
0.0
 11
13.87918550991237
 21
15.951154507964519
 31
0.0
 70
     0
  1
G
 13
14.25868550991237
 23
15.640685741090991
 33
0.0
 14
13.499685509912361
 24
15.64068574109098
 34
0.0
  0
DIMENSION
  5
F53
  8
DIM
  2
*D9
 10
13.499685509912361
 20
16.548380701318131
 30
0.0
 11
12.28562300991236
 21
16.548380701318131
 31
0.0
 70
     0
  1
<> TYP.
 13
13.619685509912379
 23
16.404380701318129
 33
0.0
 14
13.499685509912361
 24
16.404380701318129
 34
0.0
  0
DIMENSION
  5
F75
  8
DIM
  2
*D10
 10
13.619685509912371
 20
17.608488089586089
 30
0.0
 11
12.39390425991237
 21
17.608488089586089
 31
0.0
 70
     0
  1
<> TYP.
 13
13.775685509912369
 23
17.37268574109099
 33
0.0
 14
13.619685509912371
 24
17.37268574109099
 34
0.0
  0
DIMENSION
  5
F84
  8
DIM
  2
*D11
 10
2.4454917680462742
 20
20.673185741090979
 30
0.0
 11
4.2054917680462749
 21
20.673185741090979
 31
0.0
 70
     0
 13
5.9654917680462773
 23
19.350685741090981
 33
0.0
 14
2.4454917680462742
 24
19.350685741090981
 34
0.0
  0
DIMENSION
  5
F92
  8
DIM
  2
*D12
 10
1.488491768046273
 20
20.673185741090979
 30
0.0
 11
1.966991768046273
 21
20.673185741090979
 31
0.0
 70
     0
 13
2.4454917680462742
 23
19.350685741090981
 33
0.0
 14
1.488491768046273
 24
20.098685741090978
 34
0.0
  0
DIMENSION
  5
1008
  8
DIM
  2
*D13
 10
7.4309098682788166
 20
12.61868574109098
 30
0.0
 11
7.4309098682788148
 21
12.99268574109098
 31
0.0
 70
     0
 13
6.5834917680462723
 23
13.366685741090979
 33
0.0
 14
6.9224917680462701
 24
12.61868574109098
 34
0.0
 50
90.0
  0
DIMENSION
  5
1016
  8
DIM
  2
*D14
 10
1.6634917680461461
 20
14.76250702005146
 30
0.0
 11
4.2054917680461559
 21
14.76250702005146
 31
0.0
 70
     0
 13
6.7474917680461672
 23
13.98668574109098
 33
0.0
 14
1.6634917680461461
 24
13.986685741090991
 34
0.0
  0
DIMENSION
  5
1024
  8
DIM
  2
*D15
 10
2.1578458861442651
 20
13.819273517865531
 30
0.0
 11
3.1253458861442631
 21
14.457273517865531
 31
0.0
 70
   128
  1
<> TYP.
 13
1.66349176804627
 23
13.91727351786553
 33
0.0
 14
1.66349176804627
 24
13.819273517865531
 34
0.0
 50
270.0
  0
DIMENSION
  5
1033
  8
DIM
  2
*D16
 10
6.8024917680462726
 20
14.37537182261581
 30
0.0
 11
5.5099917680462687
 21
14.37537182261581
 31
0.0
 70
   128
  1
<> TYP.
 13
6.7474917680462729
 23
13.98668574109098
 33
0.0
 14
6.8024917680462726
 24
13.98668574109098
 34
0.0
 50
0.000000000000007
  0
DIMENSION
  5
1041
  8
DIM
  2
*D17
 10
6.8024917680462726
 20
16.00500145412359
 30
0.0
 11
5.5884292680462728
 21
16.00500145412359
 31
0.0
 70
     0
  1
<> TYP.
 13
6.9224917680462701
 23
16.09950145412359
 33
0.0
 14
6.8024917680462726
 24
16.09950145412359
 34
0.0
  0
DIMENSION
  5
1050
  8
DIM
  2
*D18
 10
6.9224917680462701
 20
11.983187793243991
 30
0.0
 11
7.8670230180462699
 21
11.983187793243991
 31
0.0
 70
     0
 13
6.5834917680462723
 23
13.366685741090979
 33
0.0
 14
6.9224917680462701
 24
12.61868574109098
 34
0.0
 50
180.0
  0
DIMENSION
  5
1138
  8
DIM
  2
*D19
 10
9.4320687581664941
 20
12.61868574109098
 30
0.0
 11
9.4320687581664924
 21
16.358685741090991
 31
0.0
 70
     0
 13
9.9021786714198825
 23
20.098685741090978
 33
0.0
 14
9.9021786714198825
 24
12.61868574109098
 34
0.0
 50
90.0
  0
DIMENSION
  5
1147
  8
DIM
  2
*D20
 10
3.77969731633728
 20
19.89368574109098
 30
0.0
 11
3.779697316337276
 21
16.129935741090978
 31
0.0
 70
   128
 13
3.874197316337276
 23
12.82368574109098
 33
0.0
 14
3.874197316337276
 24
19.89368574109098
 34
0.0
 50
90.0
  0
DIMENSION
  5
120A
  8
DIM
  2
*D21
 10
6.8024917680462726
 20
16.81168115313222
 30
0.0
 11
4.205491768046274
 21
16.81168115313222
 31
0.0
 70
     0
 13
1.608491768046274
 23
16.90618115313222
 33
0.0
 14
6.8024917680462726
 24
16.90618115313222
 34
0.0
  0
DIMENSION
  5
1278
  8
DIM
  2
*D22
 10
9.9021786714198825
 20
20.905685741090981
 30
0.0
 11
10.28617867141987
 21
20.905685741090981
 31
0.0
 70
     0
  1
C
 13
10.670178671419871
 23
20.098685741090978
 33
0.0
 14
9.9021786714198825
 24
20.098685741090978
 34
0.0
  0
DIMENSION
  5
1286
  8
DIM
  2
*D23
 10
11.477178671419869
 20
21.324185741090979
 30
0.0
 11
10.68967867141987
 21
21.324185741090979
 31
0.0
 70
     0
  1
A
 13
9.9021786714198825
 23
20.098685741090978
 33
0.0
 14
11.477178671419869
 24
20.098685741090978
 34
0.0
  0
DIMENSION
  5
1294
  8
DIM
  2
*D24
 10
11.477178671419869
 20
20.487185741090979
 30
0.0
 11
11.09317867141988
 21
20.487185741090979
 31
0.0
 70
     0
  1
B
 13
10.70917867141989
 23
20.098685741090978
 33
0.0
 14
11.477178671419869
 24
20.098685741090978
 34
0.0
  0
LINE
  5
130C
  8
TITLE
 10
0.0929999997674964
 20
0.4054999989862516
 30
0.0
 11
15.8069999604825
 21
0.4054999989862516
 31
0.0
  0
LINE
  5
130D
  8
TITLE
 10
0.0929999997674964
 20
1.030499997423751
 30
0.0
 11
15.8069999604825
 21
1.030499997423751
 31
0.0
  0
LINE
  5
130E
  8
TITLE
 10
0.0929999997674964
 20
0.7179999982050015
 30
0.0
 11
15.8069999604825
 21
0.7179999982050015
 31
0.0
  0
LINE
  5
1310
  8
TITLE
 10
0.0929999997674966
 20
1.6554999958612511
 30
0.0
 11
15.8069999604825
 21
1.6554999958612511
 31
0.0
  0
TEXT
  5
149D
  8
TEXT
 10
2.6991167680462711
 20
5.180467797742339
 30
0.0
 40
0.234
  1
PANEL - 0.090 THICK
 41
0.75
 72
     4
 11
4.2054917680462722
 21
5.297467797742339
 31
0.0
  0
POLYLINE
  8
0
  5
5FCB
  66
     1
 10
0.000000
 20
0.000000
 30
0.000000
  70
     8
  0
VERTEX
  8
0
  5
5FCC
 10
2.50399
 20
13.2759
 30
0.000000
  70
    32
  0
VERTEX
  8
0
  5
5FCD
 10
3.50496
 20
11.3529
 30
0.000000
  70
    32
  0
VERTEX
  8
0
  5
5FCE
 10
3.77496
 20
11.3529
 30
0.000000
  70
    32
  0
SEQEND
  8
0
  5
5FCF
  0
INSERT
  5
14A1
  8
OBJECT
  2
*U37
 10
0.0
 20
0.0
 30
0.0
  0
TEXT
  5
14A6
  8
TEXT
 10
4.8385650714464141
 20
20.244849111649941
 30
0.0
 40
0.234
  1
A
  7
SANSSERIF
 72
     4
 11
4.9456144541624631
 21
20.361849111649938
 31
0.0
  0
TEXT
  5
14AE
  8
TEXT
 10
4.8385650714464141
 20
12.238522370532021
 30
0.0
 40
0.234
  1
A
  7
SANSSERIF
 72
     4
 11
4.9456144541624631
 21
12.35552237053202
 31
0.0
  0
POLYLINE
  8
0
  5
5FD0
  66
     1
 10
0.000000
 20
0.000000
 30
0.000000
  70
     8
  0
VERTEX
  8
0
  5
5FD1
 10
6.64534
 20
19.4938
 30
0.000000
  70
    32
  0
VERTEX
  8
0
  5
5FD2
 10
7.06166
 20
21.1757
 30
0.000000
  70
    32
  0
VERTEX
  8
0
  5
5FD3
 10
7.33166
 20
21.1757
 30
0.000000
  70
    32
  0
SEQEND
  8
0
  5
5FD4
  0
INSERT
  5
14ED
  8
OBJECT
  2
*U38
 10
0.0
 20
0.0
 30
0.0
  0
TEXT
  5
14EF
  8
TEXT
 10
13.20303800017364
 20
11.91899946771186
 30
0.0
 40
0.234
  1
%%uSECTION "A-A"
  7
SANSSERIF
 72
     4
 11
14.34254417301314
 21
12.034234035613091
 31
0.0
  0
TEXT
  5
156B
  8
TEXT
 10
3.7649999905875031
 20
22.966499942583749
 30
0.0
 40
0.233999999415
  1
PLASTICASE
 41
0.75
 72
     4
 11
4.5839999885400031
 21
23.083499942291251
 31
0.0
  0
TEXT
  5
156C
  8
TEXT
 10
10.19137497452156
 20
22.985999942534999
 30
0.0
 40
0.233999999415
  1
PC-11466, PC-11467 & PC-11468
 41
0.75
 72
     4
 11
12.48749996878125
 21
23.083499942291251
 31
0.0
  0
LINE
  5
1570
  8
TITLE
 10
1.6724999958187461
 20
1.6554999958612511
 30
0.0
 11
1.672499995818745
 21
0.0929999997675014
 31
0.0
  0
LINE
  5
1571
  8
TITLE
 10
3.2429999918924959
 20
1.6554999958612511
 30
0.0
 11
3.2429999918924941
 21
0.0929999997675014
 31
0.0
  0
LINE
  5
1572
  8
TITLE
 10
4.813499987966245
 20
1.6554999958612511
 30
0.0
 11
4.813499987966245
 21
0.0929999997675014
 31
0.0
  0
LINE
  5
1573
  8
TITLE
 10
6.3839999840399972
 20
1.6554999958612511
 30
0.0
 11
6.3839999840399964
 21
0.0929999997675014
 31
0.0
  0
LINE
  5
1574
  8
TITLE
 10
7.9544999801137459
 20
1.6554999958612511
 30
0.0
 11
7.954499980113745
 21
0.0929999997675014
 31
0.0
  0
LINE
  5
1575
  8
TITLE
 10
9.5249999761874964
 20
1.6554999958612511
 30
0.0
 11
9.5249999761874946
 21
0.0929999997675014
 31
0.0
  0
LINE
  5
1576
  8
TITLE
 10
11.095499972261241
 20
1.6554999958612511
 30
0.0
 11
11.095499972261241
 21
0.0929999997675014
 31
0.0
  0
LINE
  5
1577
  8
TITLE
 10
12.66599996833499
 20
1.6554999958612511
 30
0.0
 11
12.66599996833499
 21
0.0929999997675014
 31
0.0
  0
LINE
  5
1578
  8
TITLE
 10
14.23649996440874
 20
1.6554999958612511
 30
0.0
 11
14.23649996440874
 21
0.0929999997675014
 31
0.0
  0
TEXT
  5
157D
  8
TEXT
 10
0.3905624990235899
 20
1.249249996876876
 30
0.0
 40
0.18749999953125
  1
PART NO.
 41
0.75
 72
     4
 11
0.8827499977931212
 21
1.342999996642501
 31
0.0
  0
TEXT
  5
157E
  8
TEXT
 10
2.4108749939728078
 20
1.249249996876876
 30
0.0
 40
0.18749999953125
  1
A
 41
0.75
 72
     4
 11
2.4577499938556202
 21
1.342999996642501
 31
0.0
  0
TEXT
  5
1581
  8
TEXT
 10
0.3905624990235903
 20
0.7804999980487515
 30
0.0
 40
0.18749999953125
  1
PC-11466
 41
0.75
 72
     4
 11
0.8827499977931214
 21
0.8742499978143765
 31
0.0
  0
TEXT
  5
1582
  8
TEXT
 10
2.1999374945001509
 20
0.7804999980487516
 30
0.0
 40
0.18749999953125
  1
1.575
 41
0.75
 72
     4
 11
2.4577499938556202
 21
0.8742499978143765
 31
0.0
  0
TEXT
  5
1583
  8
TEXT
 10
0.5416249999999976
 20
0.5828333333333343
 30
0.0
 40
0.125
  1
 
 41
0.75
 72
     4
 11
0.5884999999999976
 21
0.5828333333333343
 31
0.0
  0
TEXT
  5
1584
  8
TEXT
 10
0.3905624990235903
 20
0.4679999988300016
 30
0.0
 40
0.18749999953125
  1
PC-11467
 41
0.75
 72
     4
 11
0.8827499977931214
 21
0.5617499985956266
 31
0.0
  0
TEXT
  5
1585
  8
TEXT
 10
0.3905624990235903
 20
0.1554999996112516
 30
0.0
 40
0.18749999953125
  1
PC-11468
 41
0.75
 72
     4
 11
0.8827499977931214
 21
0.2492499993768765
 31
0.0
  0
TEXT
  5
1587
  8
TEXT
 10
1.6031887038098629
 20
0.5871066726435004
 30
0.0
 40
0.125
  1
 
 41
0.75
 72
     4
 11
1.6500637038098629
 21
0.5871066726435004
 31
0.0
  0
TEXT
  5
1588
  8
TEXT
 10
2.193845550230181
 20
0.4744100077792255
 30
0.0
 40
0.18749999953125
  1
2.362
 41
0.75
 72
     4
 11
2.475095549527055
 21
0.5681600075448506
 31
0.0
  0
TEXT
  5
1589
  8
TEXT
 10
2.2172830501715861
 20
0.1619100085604756
 30
0.0
 40
0.18749999953125
  1
3.149
 41
0.75
 72
     4
 11
2.475095549527055
 21
0.2556600083261006
 31
0.0
  0
TEXT
  5
158B
  8
TEXT
 10
3.7587187406031979
 20
0.7804999980487515
 30
0.0
 40
0.18749999953125
  1
0.768
 41
0.75
 72
     4
 11
4.0282499899293702
 21
0.8742499978143765
 31
0.0
  0
TEXT
  5
158C
  8
TEXT
 10
3.9813749900465569
 20
1.249249996876876
 30
0.0
 40
0.18749999953125
  1
B
 41
0.75
 72
     4
 11
4.0282499899293702
 21
1.342999996642501
 31
0.0
  0
TEXT
  5
158D
  8
TEXT
 10
5.3292187366769479
 20
0.7804999980487515
 30
0.0
 40
0.18749999953125
  1
0.768
 41
0.75
 72
     4
 11
5.5987499860031198
 21
0.8742499978143765
 31
0.0
  0
TEXT
  5
158E
  8
TEXT
 10
5.5518749861203069
 20
1.249249996876876
 30
0.0
 40
0.18749999953125
  1
C
 41
0.75
 72
     4
 11
5.5987499860031198
 21
1.342999996642501
 31
0.0
  0
TEXT
  5
158F
  8
TEXT
 10
6.9114374827214018
 20
0.7804999980487515
 30
0.0
 40
0.18749999953125
  1
1.335
 41
0.75
 72
     4
 11
7.1692499820768711
 21
0.8742499978143765
 31
0.0
  0
TEXT
  5
1590
  8
TEXT
 10
7.1223749821940583
 20
1.249249996876876
 30
0.0
 40
0.18749999953125
  1
D
 41
0.75
 72
     4
 11
7.1692499820768711
 21
1.342999996642501
 31
0.0
  0
TEXT
  5
1591
  8
TEXT
 10
8.4936562287658521
 20
0.7804999980487515
 30
0.0
 40
0.18749999953125
  1
1.023
 41
0.75
 72
     4
 11
8.7397499781506198
 21
0.8742499978143765
 31
0.0
  0
TEXT
  5
1592
  8
TEXT
 10
8.6928749782678079
 20
1.249249996876876
 30
0.0
 40
0.18749999953125
  1
E
 41
0.75
 72
     4
 11
8.7397499781506198
 21
1.342999996642501
 31
0.0
  0
TEXT
  5
1593
  8
TEXT
 10
10.04071872489819
 20
0.7804999980487515
 30
0.0
 40
0.18749999953125
  1
0.759
 41
0.75
 72
     4
 11
10.310249974224369
 21
0.8742499978143765
 31
0.0
  0
TEXT
  5
1594
  8
TEXT
 10
10.26337497434155
 20
1.249249996876876
 30
0.0
 40
0.18749999953125
  1
F
 41
0.75
 72
     4
 11
10.310249974224369
 21
1.342999996642501
 31
0.0
  0
TEXT
  5
1595
  8
TEXT
 10
11.61121872097195
 20
0.7804999980487515
 30
0.0
 40
0.18749999953125
  1
0.759
 41
0.75
 72
     4
 11
11.880749970298121
 21
0.8742499978143765
 31
0.0
  0
TEXT
  5
1596
  8
TEXT
 10
11.833874970415311
 20
1.249249996876876
 30
0.0
 40
0.18749999953125
  1
G
 41
0.75
 72
     4
 11
11.880749970298121
 21
1.342999996642501
 31
0.0
  0
TEXT
  5
1597
  8
TEXT
 10
13.1934374670164
 20
0.7804999980487516
 30
0.0
 40
0.18749999953125
  1
1.356
 41
0.75
 72
     4
 11
13.45124996637187
 21
0.8742499978143765
 31
0.0
  0
TEXT
  5
1598
  8
TEXT
 10
13.40437496648906
 20
1.249249996876876
 30
0.0
 40
0.18749999953125
  1
H
 41
0.75
 72
     4
 11
13.45124996637187
 21
1.342999996642501
 31
0.0
  0
TEXT
  5
1599
  8
TEXT
 10
14.787374963031549
 20
0.7804999980487516
 30
0.0
 40
0.18749999953125
  1
1.215
 41
0.75
 72
     4
 11
15.02174996244562
 21
0.8742499978143765
 31
0.0
  0
TEXT
  5
159A
  8
TEXT
 10
14.974874962562801
 20
1.249249996876876
 30
0.0
 40
0.18749999953125
  1
J
 41
0.75
 72
     4
 11
15.02174996244562
 21
1.342999996642501
 31
0.0
  0
TEXT
  5
15AB
  8
TEXT
 10
3.7587187406031979
 20
0.4679999988300017
 30
0.0
 40
0.18749999953125
  1
0.768
 41
0.75
 72
     4
 11
4.0282499899293702
 21
0.5617499985956267
 31
0.0
  0
TEXT
  5
15AC
  8
TEXT
 10
10.04071872489819
 20
0.4679999988300017
 30
0.0
 40
0.18749999953125
  1
0.759
 41
0.75
 72
     4
 11
10.310249974224369
 21
0.5617499985956267
 31
0.0
  0
TEXT
  5
15AD
  8
TEXT
 10
2.6386249999999958
 20
0.3745000000000011
 30
0.0
 40
0.125
  1
 
 41
0.75
 72
     4
 11
2.6854999999999958
 21
0.3745000000000011
 31
0.0
  0
TEXT
  5
15AE
  8
TEXT
 10
3.7704374905739009
 20
0.1554999996112516
 30
0.0
 40
0.18749999953125
  1
1.555
 41
0.75
 72
     4
 11
4.0282499899293702
 21
0.2492499993768766
 31
0.0
  0
TEXT
  5
15AF
  8
TEXT
 10
3.6856249999999959
 20
0.5828333333333343
 30
0.0
 40
0.125
  1
 
 41
0.75
 72
     4
 11
3.7324999999999959
 21
0.5828333333333343
 31
0.0
  0
TEXT
  5
15B0
  8
TEXT
 10
5.3409374866476522
 20
0.4679999988300016
 30
0.0
 40
0.18749999953125
  1
1.555
 41
0.75
 72
     4
 11
5.5987499860031198
 21
0.5617499985956266
 31
0.0
  0
TEXT
  5
15B1
  8
TEXT
 10
5.3409374866476522
 20
0.1554999996112516
 30
0.0
 40
0.18749999953125
  1
1.555
 41
0.75
 72
     4
 11
5.5987499860031198
 21
0.2492499993768765
 31
0.0
  0
TEXT
  5
15B2
  8
TEXT
 10
4.7326249999999961
 20
0.5828333333333343
 30
0.0
 40
0.125
  1
 
 41
0.75
 72
     4
 11
4.7794999999999961
 21
0.5828333333333343
 31
0.0
  0
TEXT
  5
15B3
  8
TEXT
 10
6.9114374827214018
 20
0.4679999988300016
 30
0.0
 40
0.18749999953125
  1
2.122
 41
0.75
 72
     4
 11
7.1692499820768711
 21
0.5617499985956266
 31
0.0
  0
TEXT
  5
15B4
  8
TEXT
 10
6.8997187327506992
 20
0.1554999996112515
 30
0.0
 40
0.18749999953125
  1
2.909
 41
0.75
 72
     4
 11
7.1692499820768711
 21
0.2492499993768765
 31
0.0
  0
TEXT
  5
15B5
  8
TEXT
 10
5.7796249999999958
 20
0.5828333333333343
 30
0.0
 40
0.125
  1
 
 41
0.75
 72
     4
 11
5.8264999999999958
 21
0.5828333333333343
 31
0.0
  0
TEXT
  5
15B6
  8
TEXT
 10
8.5170937287072608
 20
0.4679999988300016
 30
0.0
 40
0.18749999953125
  1
1.810
 41
0.75
 72
     4
 11
8.7397499781506198
 21
0.5617499985956266
 31
0.0
  0
TEXT
  5
15B7
  8
TEXT
 10
8.4584999788537445
 20
0.1554999996112515
 30
0.0
 40
0.18749999953125
  1
2.597
 41
0.75
 72
     4
 11
8.7397499781506198
 21
0.2492499993768765
 31
0.0
  0
TEXT
  5
15B8
  8
TEXT
 10
6.8266249999999964
 20
0.3745000000000011
 30
0.0
 40
0.125
  1
 
 41
0.75
 72
     4
 11
6.8734999999999964
 21
0.3745000000000011
 31
0.0
  0
TEXT
  5
15B9
  8
TEXT
 10
10.052437474868899
 20
0.1554999996112516
 30
0.0
 40
0.18749999953125
  1
1.546
 41
0.75
 72
     4
 11
10.310249974224369
 21
0.2492499993768766
 31
0.0
  0
TEXT
  5
15BB
  8
TEXT
 10
7.8736249999999961
 20
0.5828333333333343
 30
0.0
 40
0.125
  1
 
 41
0.75
 72
     4
 11
7.9204999999999961
 21
0.5828333333333343
 31
0.0
  0
TEXT
  5
15BC
  8
TEXT
 10
11.622937470942651
 20
0.4679999988300016
 30
0.0
 40
0.18749999953125
  1
1.546
 41
0.75
 72
     4
 11
11.880749970298121
 21
0.5617499985956266
 31
0.0
  0
TEXT
  5
15BD
  8
TEXT
 10
11.622937470942651
 20
0.1554999996112516
 30
0.0
 40
0.18749999953125
  1
1.546
 41
0.75
 72
     4
 11
11.880749970298121
 21
0.2492499993768765
 31
0.0
  0
TEXT
  5
15BE
  8
TEXT
 10
8.9206249999999976
 20
0.5828333333333343
 30
0.0
 40
0.125
  1
 
 41
0.75
 72
     4
 11
8.9674999999999976
 21
0.5828333333333343
 31
0.0
  0
TEXT
  5
15BF
  8
TEXT
 10
13.1934374670164
 20
0.4679999988300016
 30
0.0
 40
0.18749999953125
  1
2.143
 41
0.75
 72
     4
 11
13.45124996637187
 21
0.5617499985956266
 31
0.0
  0
TEXT
  5
15C0
  8
TEXT
 10
13.181718717045699
 20
0.1554999996112515
 30
0.0
 40
0.18749999953125
  1
2.930
 41
0.75
 72
     4
 11
13.45124996637187
 21
0.2492499993768765
 31
0.0
  0
TEXT
  5
15C1
  8
TEXT
 10
9.9676249999999964
 20
0.5828333333333343
 30
0.0
 40
0.125
  1
 
 41
0.75
 72
     4
 11
10.014499999999989
 21
0.5828333333333343
 31
0.0
  0
TEXT
  5
15C2
  8
TEXT
 10
14.76393746309015
 20
0.4679999988300016
 30
0.0
 40
0.18749999953125
  1
2.002
 41
0.75
 72
     4
 11
15.02174996244562
 21
0.5617499985956266
 31
0.0
  0
TEXT
  5
15C3
  8
TEXT
 10
14.740499963148739
 20
0.1554999996112515
 30
0.0
 40
0.18749999953125
  1
2.789
 41
0.75
 72
     4
 11
15.02174996244562
 21
0.2492499993768765
 31
0.0
  0
TEXT
  5
15C5
  8
TEXT
 10
9.6649680173740862
 20
10.42017893980247
 30
0.0
 40
0.18749999953125
  1
MATERIAL: ABS THERMOPLASTIC (UL 94-HB RATED)
 41
0.75
  0
TEXT
  5
15C6
  8
TEXT
 10
6.1476215661518401
 20
5.987191056242084
 30
0.0
 40
0.125
  1
 
 41
0.75
  0
TEXT
  5
15C7
  8
TEXT
 10
9.6649680173740862
 20
9.7951789413649735
 30
0.0
 40
0.18749999953125
  1
FINISH: TOP & BOTTOM
 41
0.75
  0
TEXT
  5
15C8
  8
TEXT
 10
10.635156080773539
 20
9.4826789421462223
 30
0.0
 40
0.18749999953125
  1
PANELS
 41
0.75
  0
TEXT
  5
15C9
  8
TEXT
 10
13.36092262582677
 20
9.7951789413649735
 30
0.0
 40
0.18749999953125
  1
LIGHT GRAY
 41
0.75
  0
TEXT
  5
15CA
  8
TEXT
 10
13.36092262582677
 20
9.4826789421462223
 30
0.0
 40
0.18749999953125
  1
DARK GRAY
 41
0.75
  0
LINE
  5
15CB
  8
TEXT
 10
13.233874200896651
 20
9.7951789413649735
 30
0.0
 11
12.340141127665101
 21
9.7951789413649735
 31
0.0
  0
LINE
  5
15CD
  8
TEXT
 10
13.233874200896651
 20
9.4826789421462223
 30
0.0
 11
11.55475070941077
 21
9.4826789421462223
 31
0.0
  0
TEXT
  5
15D5
  8
TEXT
 10
6.1476215661518401
 20
5.778857722908751
 30
0.0
 40
0.125
  1
 
 41
0.75
  0
TEXT
  5
15D6
  8
TEXT
 10
6.1476215661518401
 20
5.570524389575418
 30
0.0
 40
0.125
  1
 
 41
0.75
  0
TEXT
  5
15D7
  8
TEXT
 10
6.1476215661518401
 20
5.3621910562420849
 30
0.0
 40
0.125
  1
 
 41
0.75
  0
TEXT
  5
15D8
  8
TEXT
 10
9.6649680173740862
 20
8.8576789437087236
 30
0.0
 40
0.18749999953125
  1
FOR PC-11466 & PC-11467
 41
0.75
  0
TEXT
  5
15D9
  8
TEXT
 10
9.8814860544152712
 20
8.5451789444899742
 30
0.0
 40
0.18749999953125
  1
FOUR (4) M3 x 1.087 LG SCREWS SUPPLIED
 41
0.75
  0
TEXT
  5
15DA
  8
TEXT
 10
9.8814860544152712
 20
8.2326789452712248
 30
0.0
 40
0.18749999953125
  1
FOR ASSEMBLING BOTTOM TO TOP.
 41
0.75
  0
TEXT
  5
15DC
  8
TEXT
 10
9.8814860544152712
 20
7.295178947614974
 30
0.0
 40
0.18749999953125
  1
FOUR (4) M3 x 1.887 LG SCREWS SUPPLIED
 41
0.75
  0
TEXT
  5
15DD
  8
TEXT
 10
9.8814860544152712
 20
6.9826789483962237
 30
0.0
 40
0.18749999953125
  1
FOR ASSEMBLING BOTTOM TO TOP.
 41
0.75
  0
TEXT
  5
15DE
  8
TEXT
 10
9.6649680173740862
 20
7.6076789468337251
 30
0.0
 40
0.18749999953125
  1
FOR PC-11468
 41
0.75
  0
TEXT
  5
15DF
  8
TEXT
 10
2.801451972156888
 20
3.0763348760015718
 30
0.0
 40
0.156
  1
 
 41
0.75
 72
     4
 11
2.859951972156888
 21
3.0763348760015718
 31
0.0
  0
TEXT
  5
15E0
  8
TEXT
 10
2.3919917680462719
 20
4.8065171804583873
 30
0.0
 40
0.234
  1
(TEXTURED ON ONE SIDE)
 41
0.75
 72
     4
 11
4.2054917680462722
 21
4.9235171804583873
 31
0.0
  0
TEXT
  5
15E2
  8
TEXT
 10
6.1476215661518401
 20
3.9038577229087541
 30
0.0
 40
0.125
  1
 
 41
0.75
  0
TEXT
  5
15E3
  8
TEXT
 10
6.1476215661518401
 20
3.6955243895754211
 30
0.0
 40
0.125
  1
 
 41
0.75
  0
TEXT
  5
15E4
  8
TEXT
 10
9.6649680173740862
 20
6.3576789499587241
 30
0.0
 40
0.18749999953125
  1
FOUR (4) RUBBER STICK-ON FEET SUPPLIED.
 41
0.75
  0
TEXT
  5
15E5
  8
TEXT
 10
6.1476215661518401
 20
3.2788577229087541
 30
0.0
 40
0.125
  1
 
 41
0.75
  0
TEXT
  5
15E6
  8
TEXT
 10
9.6649680173740862
 20
5.7326789515212271
 30
0.0
 40
0.18749999953125
  1
MOUNTING BOSSES USE EITHER M2.5 METRIC
 41
0.75
  0
TEXT
  5
15E7
  8
TEXT
 10
9.8814860544152712
 20
5.420178952302475
 30
0.0
 40
0.18749999953125
  1
OR #4 STD. SHEET METAL SCREWS x 3/16 LG.
 41
0.75
  0
TEXT
  5
15E8
  8
TEXT
 10
9.8814860544152712
 20
5.1076789530837239
 30
0.0
 40
0.18749999953125
  1
(NOT SUPPLIED)
 41
0.75
  0
TEXT
  5
15E9
  8
TEXT
 10
6.1476215661518401
 20
2.4455243895754202
 30
0.0
 40
0.125
  1
 
 41
0.75
  0
TEXT
  5
15EA
  8
TEXT
 10
9.6649680173740862
 20
4.4826789546462216
 30
0.0
 40
0.18749999953125
  1
NOTE: ALL DIMENSIONS HAVE %%p0.015 TOLERANCE
 41
0.75
  0
TEXT
  5
15EB
  8
TEXT
 10
10.4144533912869
 20
4.170178955427474
 30
0.0
 40
0.18749999953125
  1
UNLESS OTHERWISE SPECIFIED.
 41
0.75
  0
LINE
  5
1715
  8
CENTER
 10
6.627491768046279
 20
13.87768574109098
 30
0.0
 11
7.0424917680462791
 21
13.87768574109098
 31
0.0
  0
DIMENSION
  5
1718
  8
DIM
  2
*D25
 10
8.7862564293173477
 20
12.61868574109098
 30
0.0
 11
8.7862564293173442
 21
14.488685741090981
 31
0.0
 70
     0
 13
4.2954917680462721
 23
16.35868574109098
 33
0.0
 14
6.9224917680462701
 24
12.61868574109098
 34
0.0
 50
90.0
  0
DIMENSION
  5
1752
  8
DIM
  2
*D26
 10
8.1737862233575278
 20
15.53168574109098
 30
0.0
 11
8.173786223357526
 21
15.945185741090979
 31
0.0
 70
     0
 13
4.2954917680462721
 23
16.35868574109098
 33
0.0
 14
7.0424917680462791
 24
15.53168574109098
 34
0.0
 50
90.0
  0
POLYLINE
  8
0
  5
5FD5
  66
     1
 10
0.000000
 20
0.000000
 30
0.000000
  70
     8
  0
VERTEX
  8
0
  5
5FD6
 10
1.48849
 20
17.6263
 30
0.000000
  70
    32
  0
VERTEX
  8
0
  5
5FD7
 10
1.48863
 20
17.6263
 30
0.000000
  70
    32
  0
VERTEX
  8
0
  5
5FD8
 10
1.48905
 20
17.6262
 30
0.000000
  70
    32
  0
VERTEX
  8
0
  5
5FD9
 10
1.48974
 20
17.6261
 30
0.000000
  70
    32
  0
VERTEX
  8
0
  5
5FDA
 10
1.49070
 20
17.6259
 30
0.000000
  70
    32
  0
VERTEX
  8
0
  5
5FDB
 10
1.49193
 20
17.6257
 30
0.000000
  70
    32
  0
VERTEX
  8
0
  5
5FDC
 10
1.49341
 20
17.6254
 30
0.000000
  70
    32
  0
VERTEX
  8
0
  5
5FDD
 10
1.49516
 20
17.6251
 30
0.000000
  70
    32
  0
VERTEX
  8
0
  5
5FDE
 10
1.49715
 20
17.6248
 30
0.000000
  70
    32
  0
VERTEX
  8
0
  5
5FDF
 10
1.49940
 20
17.6244
 30
0.000000
  70
    32
  0
VERTEX
  8
0
  5
5FE0
 10
1.50189
 20
17.6240
 30
0.000000
  70
    32
  0
VERTEX
  8
0
  5
5FE1
 10
1.50461
 20
17.6236
 30
0.000000
  70
    32
  0
VERTEX
  8
0
  5
5FE2
 10
1.50758
 20
17.6232
 30
0.000000
  70
    32
  0
VERTEX
  8
0
  5
5FE3
 10
1.51077
 20
17.6227
 30
0.000000
  70
    32
  0
VERTEX
  8
0
  5
5FE4
 10
1.51419
 20
17.6222
 30
0.000000
  70
    32
  0
VERTEX
  8
0
  5
5FE5
 10
1.51784
 20
17.6217
 30
0.000000
  70
    32
  0
VERTEX
  8
0
  5
5FE6
 10
1.52170
 20
17.6212
 30
0.000000
  70
    32
  0
VERTEX
  8
0
  5
5FE7
 10
1.52578
 20
17.6207
 30
0.000000
  70
    32
  0
VERTEX
  8
0
  5
5FE8
 10
1.53007
 20
17.6201
 30
0.000000
  70
    32
  0
VERTEX
  8
0
  5
5FE9
 10
1.53456
 20
17.6196
 30
0.000000
  70
    32
  0
VERTEX
  8
0
  5
5FEA
 10
1.53926
 20
17.6190
 30
0.000000
  70
    32
  0
VERTEX
  8
0
  5
5FEB
 10
1.54415
 20
17.6185
 30
0.000000
  70
    32
  0
VERTEX
  8
0
  5
5FEC
 10
1.54924
 20
17.6180
 30
0.000000
  70
    32
  0
VERTEX
  8
0
  5
5FED
 10
1.55452
 20
17.6174
 30
0.000000
  70
    32
  0
VERTEX
  8
0
  5
5FEE
 10
1.55998
 20
17.6169
 30
0.000000
  70
    32
  0
VERTEX
  8
0
  5
5FEF
 10
1.56562
 20
17.6164
 30
0.000000
  70
    32
  0
VERTEX
  8
0
  5
5FF0
 10
1.57144
 20
17.6159
 30
0.000000
  70
    32
  0
VERTEX
  8
0
  5
5FF1
 10
1.57743
 20
17.6154
 30
0.000000
  70
    32
  0
VERTEX
  8
0
  5
5FF2
 10
1.58359
 20
17.6150
 30
0.000000
  70
    32
  0
VERTEX
  8
0
  5
5FF3
 10
1.58992
 20
17.6146
 30
0.000000
  70
    32
  0
VERTEX
  8
0
  5
5FF4
 10
1.59640
 20
17.6142
 30
0.000000
  70
    32
  0
VERTEX
  8
0
  5
5FF5
 10
1.60304
 20
17.6138
 30
0.000000
  70
    32
  0
VERTEX
  8
0
  5
5FF6
 10
1.60983
 20
17.6134
 30
0.000000
  70
    32
  0
VERTEX
  8
0
  5
5FF7
 10
1.61676
 20
17.6131
 30
0.000000
  70
    32
  0
VERTEX
  8
0
  5
5FF8
 10
1.62384
 20
17.6129
 30
0.000000
  70
    32
  0
VERTEX
  8
0
  5
5FF9
 10
1.63106
 20
17.6126
 30
0.000000
  70
    32
  0
VERTEX
  8
0
  5
5FFA
 10
1.63842
 20
17.6124
 30
0.000000
  70
    32
  0
VERTEX
  8
0
  5
5FFB
 10
1.64590
 20
17.6123
 30
0.000000
  70
    32
  0
VERTEX
  8
0
  5
5FFC
 10
1.65351
 20
17.6122
 30
0.000000
  70
    32
  0
VERTEX
  8
0
  5
5FFD
 10
1.66124
 20
17.6121
 30
0.000000
  70
    32
  0
VERTEX
  8
0
  5
5FFE
 10
1.66909
 20
17.6122
 30
0.000000
  70
    32
  0
VERTEX
  8
0
  5
5FFF
 10
1.67705
 20
17.6122
 30
0.000000
  70
    32
  0
VERTEX
  8
0
  5
6000
 10
1.68512
 20
17.6124
 30
0.000000
  70
    32
  0
VERTEX
  8
0
  5
6001
 10
1.69330
 20
17.6125
 30
0.000000
  70
    32
  0
VERTEX
  8
0
  5
6002
 10
1.70157
 20
17.6128
 30
0.000000
  70
    32
  0
VERTEX
  8
0
  5
6003
 10
1.70994
 20
17.6131
 30
0.000000
  70
    32
  0
VERTEX
  8
0
  5
6004
 10
1.71841
 20
17.6135
 30
0.000000
  70
    32
  0
VERTEX
  8
0
  5
6005
 10
1.72696
 20
17.6140
 30
0.000000
  70
    32
  0
VERTEX
  8
0
  5
6006
 10
1.73560
 20
17.6145
 30
0.000000
  70
    32
  0
VERTEX
  8
0
  5
6007
 10
1.74432
 20
17.6152
 30
0.000000
  70
    32
  0
VERTEX
  8
0
  5
6008
 10
1.75311
 20
17.6159
 30
0.000000
  70
    32
  0
VERTEX
  8
0
  5
6009
 10
1.76197
 20
17.6167
 30
0.000000
  70
    32
  0
VERTEX
  8
0
  5
600A
 10
1.77090
 20
17.6175
 30
0.000000
  70
    32
  0
VERTEX
  8
0
  5
600B
 10
1.77990
 20
17.6185
 30
0.000000
  70
    32
  0
VERTEX
  8
0
  5
600C
 10
1.78895
 20
17.6196
 30
0.000000
  70
    32
  0
VERTEX
  8
0
  5
600D
 10
1.79805
 20
17.6207
 30
0.000000
  70
    32
  0
VERTEX
  8
0
  5
600E
 10
1.80721
 20
17.6220
 30
0.000000
  70
    32
  0
VERTEX
  8
0
  5
600F
 10
1.81641
 20
17.6233
 30
0.000000
  70
    32
  0
VERTEX
  8
0
  5
6010
 10
1.82566
 20
17.6248
 30
0.000000
  70
    32
  0
VERTEX
  8
0
  5
6011
 10
1.83494
 20
17.6264
 30
0.000000
  70
    32
  0
VERTEX
  8
0
  5
6012
 10
1.84425
 20
17.6281
 30
0.000000
  70
    32
  0
VERTEX
  8
0
  5
6013
 10
1.85360
 20
17.6299
 30
0.000000
  70
    32
  0
VERTEX
  8
0
  5
6014
 10
1.86296
 20
17.6318
 30
0.000000
  70
    32
  0
VERTEX
  8
0
  5
6015
 10
1.87235
 20
17.6338
 30
0.000000
  70
    32
  0
VERTEX
  8
0
  5
6016
 10
1.88176
 20
17.6359
 30
0.000000
  70
    32
  0
VERTEX
  8
0
  5
6017
 10
1.89118
 20
17.6382
 30
0.000000
  70
    32
  0
VERTEX
  8
0
  5
6018
 10
1.90060
 20
17.6406
 30
0.000000
  70
    32
  0
VERTEX
  8
0
  5
6019
 10
1.91003
 20
17.6431
 30
0.000000
  70
    32
  0
VERTEX
  8
0
  5
601A
 10
1.91946
 20
17.6458
 30
0.000000
  70
    32
  0
VERTEX
  8
0
  5
601B
 10
1.92889
 20
17.6486
 30
0.000000
  70
    32
  0
VERTEX
  8
0
  5
601C
 10
1.93830
 20
17.6515
 30
0.000000
  70
    32
  0
VERTEX
  8
0
  5
601D
 10
1.94770
 20
17.6546
 30
0.000000
  70
    32
  0
VERTEX
  8
0
  5
601E
 10
1.95709
 20
17.6578
 30
0.000000
  70
    32
  0
VERTEX
  8
0
  5
601F
 10
1.96646
 20
17.6612
 30
0.000000
  70
    32
  0
VERTEX
  8
0
  5
6020
 10
1.97581
 20
17.6647
 30
0.000000
  70
    32
  0
VERTEX
  8
0
  5
6021
 10
1.98515
 20
17.6683
 30
0.000000
  70
    32
  0
VERTEX
  8
0
  5
6022
 10
1.99447
 20
17.6719
 30
0.000000
  70
    32
  0
VERTEX
  8
0
  5
6023
 10
2.00378
 20
17.6757
 30
0.000000
  70
    32
  0
VERTEX
  8
0
  5
6024
 10
2.01307
 20
17.6796
 30
0.000000
  70
    32
  0
VERTEX
  8
0
  5
6025
 10
2.02235
 20
17.6836
 30
0.000000
  70
    32
  0
VERTEX
  8
0
  5
6026
 10
2.03162
 20
17.6876
 30
0.000000
  70
    32
  0
VERTEX
  8
0
  5
6027
 10
2.04087
 20
17.6916
 30
0.000000
  70
    32
  0
VERTEX
  8
0
  5
6028
 10
2.05010
 20
17.6957
 30
0.000000
  70
    32
  0
VERTEX
  8
0
  5
6029
 10
2.05933
 20
17.6999
 30
0.000000
  70
    32
  0
VERTEX
  8
0
  5
602A
 10
2.06854
 20
17.7041
 30
0.000000
  70
    32
  0
VERTEX
  8
0
  5
602B
 10
2.07773
 20
17.7083
 30
0.000000
  70
    32
  0
VERTEX
  8
0
  5
602C
 10
2.08692
 20
17.7125
 30
0.000000
  70
    32
  0
VERTEX
  8
0
  5
602D
 10
2.09609
 20
17.7167
 30
0.000000
  70
    32
  0
VERTEX
  8
0
  5
602E
 10
2.10525
 20
17.7209
 30
0.000000
  70
    32
  0
VERTEX
  8
0
  5
602F
 10
2.11440
 20
17.7251
 30
0.000000
  70
    32
  0
VERTEX
  8
0
  5
6030
 10
2.12354
 20
17.7292
 30
0.000000
  70
    32
  0
VERTEX
  8
0
  5
6031
 10
2.13267
 20
17.7333
 30
0.000000
  70
    32
  0
VERTEX
  8
0
  5
6032
 10
2.14178
 20
17.7374
 30
0.000000
  70
    32
  0
VERTEX
  8
0
  5
6033
 10
2.15089
 20
17.7414
 30
0.000000
  70
    32
  0
VERTEX
  8
0
  5
6034
 10
2.15999
 20
17.7453
 30
0.000000
  70
    32
  0
VERTEX
  8
0
  5
6035
 10
2.16907
 20
17.7492
 30
0.000000
  70
    32
  0
VERTEX
  8
0
  5
6036
 10
2.17815
 20
17.7530
 30
0.000000
  70
    32
  0
VERTEX
  8
0
  5
6037
 10
2.18722
 20
17.7566
 30
0.000000
  70
    32
  0
VERTEX
  8
0
  5
6038
 10
2.19628
 20
17.7602
 30
0.000000
  70
    32
  0
VERTEX
  8
0
  5
6039
 10
2.20533
 20
17.7637
 30
0.000000
  70
    32
  0
VERTEX
  8
0
  5
603A
 10
2.21437
 20
17.7670
 30
0.000000
  70
    32
  0
VERTEX
  8
0
  5
603B
 10
2.22341
 20
17.7702
 30
0.000000
  70
    32
  0
VERTEX
  8
0
  5
603C
 10
2.23244
 20
17.7733
 30
0.000000
  70
    32
  0
VERTEX
  8
0
  5
603D
 10
2.24146
 20
17.7762
 30
0.000000
  70
    32
  0
VERTEX
  8
0
  5
603E
 10
2.25047
 20
17.7789
 30
0.000000
  70
    32
  0
VERTEX
  8
0
  5
603F
 10
2.25948
 20
17.7815
 30
0.000000
  70
    32
  0
VERTEX
  8
0
  5
6040
 10
2.26848
 20
17.7839
 30
0.000000
  70
    32
  0
VERTEX
  8
0
  5
6041
 10
2.27747
 20
17.7861
 30
0.000000
  70
    32
  0
VERTEX
  8
0
  5
6042
 10
2.28646
 20
17.7881
 30
0.000000
  70
    32
  0
VERTEX
  8
0
  5
6043
 10
2.29545
 20
17.7898
 30
0.000000
  70
    32
  0
VERTEX
  8
0
  5
6044
 10
2.30443
 20
17.7914
 30
0.000000
  70
    32
  0
VERTEX
  8
0
  5
6045
 10
2.31340
 20
17.7928
 30
0.000000
  70
    32
  0
VERTEX
  8
0
  5
6046
 10
2.32237
 20
17.7939
 30
0.000000
  70
    32
  0
VERTEX
  8
0
  5
6047
 10
2.33133
 20
17.7947
 30
0.000000
  70
    32
  0
VERTEX
  8
0
  5
6048
 10
2.34029
 20
17.7953
 30
0.000000
  70
    32
  0
VERTEX
  8
0
  5
6049
 10
2.34925
 20
17.7956
 30
0.000000
  70
    32
  0
VERTEX
  8
0
  5
604A
 10
2.35821
 20
17.7957
 30
0.000000
  70
    32
  0
VERTEX
  8
0
  5
604B
 10
2.36716
 20
17.7954
 30
0.000000
  70
    32
  0
VERTEX
  8
0
  5
604C
 10
2.37611
 20
17.7949
 30
0.000000
  70
    32
  0
VERTEX
  8
0
  5
604D
 10
2.38505
 20
17.7941
 30
0.000000
  70
    32
  0
VERTEX
  8
0
  5
604E
 10
2.39400
 20
17.7931
 30
0.000000
  70
    32
  0
VERTEX
  8
0
  5
604F
 10
2.40294
 20
17.7918
 30
0.000000
  70
    32
  0
VERTEX
  8
0
  5
6050
 10
2.41188
 20
17.7902
 30
0.000000
  70
    32
  0
VERTEX
  8
0
  5
6051
 10
2.42082
 20
17.7884
 30
0.000000
  70
    32
  0
VERTEX
  8
0
  5
6052
 10
2.42976
 20
17.7864
 30
0.000000
  70
    32
  0
VERTEX
  8
0
  5
6053
 10
2.43870
 20
17.7842
 30
0.000000
  70
    32
  0
VERTEX
  8
0
  5
6054
 10
2.44764
 20
17.7818
 30
0.000000
  70
    32
  0
VERTEX
  8
0
  5
6055
 10
2.45658
 20
17.7792
 30
0.000000
  70
    32
  0
VERTEX
  8
0
  5
6056
 10
2.46552
 20
17.7764
 30
0.000000
  70
    32
  0
VERTEX
  8
0
  5
6057
 10
2.47447
 20
17.7734
 30
0.000000
  70
    32
  0
VERTEX
  8
0
  5
6058
 10
2.48341
 20
17.7703
 30
0.000000
  70
    32
  0
VERTEX
  8
0
  5
6059
 10
2.49236
 20
17.7670
 30
0.000000
  70
    32
  0
VERTEX
  8
0
  5
605A
 10
2.50131
 20
17.7636
 30
0.000000
  70
    32
  0
VERTEX
  8
0
  5
605B
 10
2.51026
 20
17.7601
 30
0.000000
  70
    32
  0
VERTEX
  8
0
  5
605C
 10
2.51921
 20
17.7565
 30
0.000000
  70
    32
  0
VERTEX
  8
0
  5
605D
 10
2.52817
 20
17.7527
 30
0.000000
  70
    32
  0
VERTEX
  8
0
  5
605E
 10
2.53713
 20
17.7489
 30
0.000000
  70
    32
  0
VERTEX
  8
0
  5
605F
 10
2.54610
 20
17.7449
 30
0.000000
  70
    32
  0
VERTEX
  8
0
  5
6060
 10
2.55507
 20
17.7409
 30
0.000000
  70
    32
  0
VERTEX
  8
0
  5
6061
 10
2.56404
 20
17.7369
 30
0.000000
  70
    32
  0
VERTEX
  8
0
  5
6062
 10
2.57302
 20
17.7328
 30
0.000000
  70
    32
  0
VERTEX
  8
0
  5
6063
 10
2.58201
 20
17.7286
 30
0.000000
  70
    32
  0
VERTEX
  8
0
  5
6064
 10
2.59100
 20
17.7244
 30
0.000000
  70
    32
  0
VERTEX
  8
0
  5
6065
 10
2.60000
 20
17.7202
 30
0.000000
  70
    32
  0
VERTEX
  8
0
  5
6066
 10
2.60901
 20
17.7160
 30
0.000000
  70
    32
  0
VERTEX
  8
0
  5
6067
 10
2.61802
 20
17.7118
 30
0.000000
  70
    32
  0
VERTEX
  8
0
  5
6068
 10
2.62704
 20
17.7076
 30
0.000000
  70
    32
  0
VERTEX
  8
0
  5
6069
 10
2.63606
 20
17.7034
 30
0.000000
  70
    32
  0
VERTEX
  8
0
  5
606A
 10
2.64510
 20
17.6993
 30
0.000000
  70
    32
  0
VERTEX
  8
0
  5
606B
 10
2.65414
 20
17.6952
 30
0.000000
  70
    32
  0
VERTEX
  8
0
  5
606C
 10
2.66319
 20
17.6911
 30
0.000000
  70
    32
  0
VERTEX
  8
0
  5
606D
 10
2.67225
 20
17.6871
 30
0.000000
  70
    32
  0
VERTEX
  8
0
  5
606E
 10
2.68132
 20
17.6832
 30
0.000000
  70
    32
  0
VERTEX
  8
0
  5
606F
 10
2.69040
 20
17.6794
 30
0.000000
  70
    32
  0
VERTEX
  8
0
  5
6070
 10
2.69949
 20
17.6757
 30
0.000000
  70
    32
  0
VERTEX
  8
0
  5
6071
 10
2.70859
 20
17.6721
 30
0.000000
  70
    32
  0
VERTEX
  8
0
  5
6072
 10
2.71771
 20
17.6686
 30
0.000000
  70
    32
  0
VERTEX
  8
0
  5
6073
 10
2.72683
 20
17.6652
 30
0.000000
  70
    32
  0
VERTEX
  8
0
  5
6074
 10
2.73596
 20
17.6620
 30
0.000000
  70
    32
  0
VERTEX
  8
0
  5
6075
 10
2.74511
 20
17.6589
 30
0.000000
  70
    32
  0
VERTEX
  8
0
  5
6076
 10
2.75427
 20
17.6560
 30
0.000000
  70
    32
  0
VERTEX
  8
0
  5
6077
 10
2.76344
 20
17.6533
 30
0.000000
  70
    32
  0
VERTEX
  8
0
  5
6078
 10
2.77262
 20
17.6507
 30
0.000000
  70
    32
  0
VERTEX
  8
0
  5
6079
 10
2.78182
 20
17.6483
 30
0.000000
  70
    32
  0
VERTEX
  8
0
  5
607A
 10
2.79103
 20
17.6462
 30
0.000000
  70
    32
  0
VERTEX
  8
0
  5
607B
 10
2.80026
 20
17.6442
 30
0.000000
  70
    32
  0
VERTEX
  8
0
  5
607C
 10
2.80950
 20
17.6425
 30
0.000000
  70
    32
  0
VERTEX
  8
0
  5
607D
 10
2.81875
 20
17.6410
 30
0.000000
  70
    32
  0
VERTEX
  8
0
  5
607E
 10
2.82802
 20
17.6397
 30
0.000000
  70
    32
  0
VERTEX
  8
0
  5
607F
 10
2.83731
 20
17.6387
 30
0.000000
  70
    32
  0
VERTEX
  8
0
  5
6080
 10
2.84661
 20
17.6379
 30
0.000000
  70
    32
  0
VERTEX
  8
0
  5
6081
 10
2.85592
 20
17.6374
 30
0.000000
  70
    32
  0
VERTEX
  8
0
  5
6082
 10
2.86525
 20
17.6370
 30
0.000000
  70
    32
  0
VERTEX
  8
0
  5
6083
 10
2.87459
 20
17.6369
 30
0.000000
  70
    32
  0
VERTEX
  8
0
  5
6084
 10
2.88395
 20
17.6370
 30
0.000000
  70
    32
  0
VERTEX
  8
0
  5
6085
 10
2.89332
 20
17.6373
 30
0.000000
  70
    32
  0
VERTEX
  8
0
  5
6086
 10
2.90270
 20
17.6378
 30
0.000000
  70
    32
  0
VERTEX
  8
0
  5
6087
 10
2.91210
 20
17.6386
 30
0.000000
  70
    32
  0
VERTEX
  8
0
  5
6088
 10
2.92151
 20
17.6395
 30
0.000000
  70
    32
  0
VERTEX
  8
0
  5
6089
 10
2.93093
 20
17.6407
 30
0.000000
  70
    32
  0
VERTEX
  8
0
  5
608A
 10
2.94037
 20
17.6420
 30
0.000000
  70
    32
  0
VERTEX
  8
0
  5
608B
 10
2.94982
 20
17.6435
 30
0.000000
  70
    32
  0
VERTEX
  8
0
  5
608C
 10
2.95929
 20
17.6453
 30
0.000000
  70
    32
  0
VERTEX
  8
0
  5
608D
 10
2.96877
 20
17.6472
 30
0.000000
  70
    32
  0
VERTEX
  8
0
  5
608E
 10
2.97826
 20
17.6493
 30
0.000000
  70
    32
  0
VERTEX
  8
0
  5
608F
 10
2.98776
 20
17.6516
 30
0.000000
  70
    32
  0
VERTEX
  8
0
  5
6090
 10
2.99727
 20
17.6540
 30
0.000000
  70
    32
  0
VERTEX
  8
0
  5
6091
 10
3.00680
 20
17.6566
 30
0.000000
  70
    32
  0
VERTEX
  8
0
  5
6092
 10
3.01634
 20
17.6595
 30
0.000000
  70
    32
  0
VERTEX
  8
0
  5
6093
 10
3.02589
 20
17.6624
 30
0.000000
  70
    32
  0
VERTEX
  8
0
  5
6094
 10
3.03546
 20
17.6656
 30
0.000000
  70
    32
  0
VERTEX
  8
0
  5
6095
 10
3.04503
 20
17.6689
 30
0.000000
  70
    32
  0
VERTEX
  8
0
  5
6096
 10
3.05462
 20
17.6724
 30
0.000000
  70
    32
  0
VERTEX
  8
0
  5
6097
 10
3.06422
 20
17.6760
 30
0.000000
  70
    32
  0
VERTEX
  8
0
  5
6098
 10
3.07383
 20
17.6798
 30
0.000000
  70
    32
  0
VERTEX
  8
0
  5
6099
 10
3.08346
 20
17.6837
 30
0.000000
  70
    32
  0
VERTEX
  8
0
  5
609A
 10
3.09309
 20
17.6878
 30
0.000000
  70
    32
  0
VERTEX
  8
0
  5
609B
 10
3.10274
 20
17.6920
 30
0.000000
  70
    32
  0
VERTEX
  8
0
  5
609C
 10
3.11239
 20
17.6963
 30
0.000000
  70
    32
  0
VERTEX
  8
0
  5
609D
 10
3.12206
 20
17.7008
 30
0.000000
  70
    32
  0
VERTEX
  8
0
  5
609E
 10
3.13174
 20
17.7054
 30
0.000000
  70
    32
  0
VERTEX
  8
0
  5
609F
 10
3.14143
 20
17.7102
 30
0.000000
  70
    32
  0
VERTEX
  8
0
  5
60A0
 10
3.15113
 20
17.7151
 30
0.000000
  70
    32
  0
VERTEX
  8
0
  5
60A1
 10
3.16084
 20
17.7201
 30
0.000000
  70
    32
  0
VERTEX
  8
0
  5
60A2
 10
3.17056
 20
17.7252
 30
0.000000
  70
    32
  0
VERTEX
  8
0
  5
60A3
 10
3.18029
 20
17.7305
 30
0.000000
  70
    32
  0
VERTEX
  8
0
  5
60A4
 10
3.19003
 20
17.7358
 30
0.000000
  70
    32
  0
VERTEX
  8
0
  5
60A5
 10
3.19978
 20
17.7413
 30
0.000000
  70
    32
  0
VERTEX
  8
0
  5
60A6
 10
3.20954
 20
17.7468
 30
0.000000
  70
    32
  0
VERTEX
  8
0
  5
60A7
 10
3.21932
 20
17.7524
 30
0.000000
  70
    32
  0
VERTEX
  8
0
  5
60A8
 10
3.22912
 20
17.7581
 30
0.000000
  70
    32
  0
VERTEX
  8
0
  5
60A9
 10
3.23893
 20
17.7638
 30
0.000000
  70
    32
  0
VERTEX
  8
0
  5
60AA
 10
3.24876
 20
17.7695
 30
0.000000
  70
    32
  0
VERTEX
  8
0
  5
60AB
 10
3.25860
 20
17.7753
 30
0.000000
  70
    32
  0
VERTEX
  8
0
  5
60AC
 10
3.26847
 20
17.7810
 30
0.000000
  70
    32
  0
VERTEX
  8
0
  5
60AD
 10
3.27835
 20
17.7867
 30
0.000000
  70
    32
  0
VERTEX
  8
0
  5
60AE
 10
3.28826
 20
17.7924
 30
0.000000
  70
    32
  0
VERTEX
  8
0
  5
60AF
 10
3.29819
 20
17.7981
 30
0.000000
  70
    32
  0
VERTEX
  8
0
  5
60B0
 10
3.30815
 20
17.8037
 30
0.000000
  70
    32
  0
VERTEX
  8
0
  5
60B1
 10
3.31813
 20
17.8092
 30
0.000000
  70
    32
  0
VERTEX
  8
0
  5
60B2
 10
3.32814
 20
17.8147
 30
0.000000
  70
    32
  0
VERTEX
  8
0
  5
60B3
 10
3.33818
 20
17.8200
 30
0.000000
  70
    32
  0
VERTEX
  8
0
  5
60B4
 10
3.34824
 20
17.8252
 30
0.000000
  70
    32
  0
VERTEX
  8
0
  5
60B5
 10
3.35834
 20
17.8303
 30
0.000000
  70
    32
  0
VERTEX
  8
0
  5
60B6
 10
3.36846
 20
17.8353
 30
0.000000
  70
    32
  0
VERTEX
  8
0
  5
60B7
 10
3.37862
 20
17.8401
 30
0.000000
  70
    32
  0
VERTEX
  8
0
  5
60B8
 10
3.38882
 20
17.8447
 30
0.000000
  70
    32
  0
VERTEX
  8
0
  5
60B9
 10
3.39904
 20
17.8492
 30
0.000000
  70
    32
  0
VERTEX
  8
0
  5
60BA
 10
3.40931
 20
17.8535
 30
0.000000
  70
    32
  0
VERTEX
  8
0
  5
60BB
 10
3.41961
 20
17.8575
 30
0.000000
  70
    32
  0
VERTEX
  8
0
  5
60BC
 10
3.42995
 20
17.8613
 30
0.000000
  70
    32
  0
VERTEX
  8
0
  5
60BD
 10
3.44032
 20
17.8649
 30
0.000000
  70
    32
  0
VERTEX
  8
0
  5
60BE
 10
3.45074
 20
17.8682
 30
0.000000
  70
    32
  0
VERTEX
  8
0
  5
60BF
 10
3.46120
 20
17.8713
 30
0.000000
  70
    32
  0
VERTEX
  8
0
  5
60C0
 10
3.47171
 20
17.8741
 30
0.000000
  70
    32
  0
VERTEX
  8
0
  5
60C1
 10
3.48225
 20
17.8765
 30
0.000000
  70
    32
  0
VERTEX
  8
0
  5
60C2
 10
3.49285
 20
17.8787
 30
0.000000
  70
    32
  0
VERTEX
  8
0
  5
60C3
 10
3.50349
 20
17.8806
 30
0.000000
  70
    32
  0
VERTEX
  8
0
  5
60C4
 10
3.51417
 20
17.8821
 30
0.000000
  70
    32
  0
VERTEX
  8
0
  5
60C5
 10
3.52491
 20
17.8832
 30
0.000000
  70
    32
  0
VERTEX
  8
0
  5
60C6
 10
3.53569
 20
17.8841
 30
0.000000
  70
    32
  0
VERTEX
  8
0
  5
60C7
 10
3.54652
 20
17.8845
 30
0.000000
  70
    32
  0
VERTEX
  8
0
  5
60C8
 10
3.55740
 20
17.8847
 30
0.000000
  70
    32
  0
VERTEX
  8
0
  5
60C9
 10
3.56833
 20
17.8845
 30
0.000000
  70
    32
  0
VERTEX
  8
0
  5
60CA
 10
3.57930
 20
17.8840
 30
0.000000
  70
    32
  0
VERTEX
  8
0
  5
60CB
 10
3.59031
 20
17.8833
 30
0.000000
  70
    32
  0
VERTEX
  8
0
  5
60CC
 10
3.60136
 20
17.8822
 30
0.000000
  70
    32
  0
VERTEX
  8
0
  5
60CD
 10
3.61246
 20
17.8809
 30
0.000000
  70
    32
  0
VERTEX
  8
0
  5
60CE
 10
3.62360
 20
17.8794
 30
0.000000
  70
    32
  0
VERTEX
  8
0
  5
60CF
 10
3.63478
 20
17.8776
 30
0.000000
  70
    32
  0
VERTEX
  8
0
  5
60D0
 10
3.64599
 20
17.8756
 30
0.000000
  70
    32
  0
VERTEX
  8
0
  5
60D1
 10
3.65725
 20
17.8733
 30
0.000000
  70
    32
  0
VERTEX
  8
0
  5
60D2
 10
3.66854
 20
17.8709
 30
0.000000
  70
    32
  0
VERTEX
  8
0
  5
60D3
 10
3.67987
 20
17.8683
 30
0.000000
  70
    32
  0
VERTEX
  8
0
  5
60D4
 10
3.69123
 20
17.8654
 30
0.000000
  70
    32
  0
VERTEX
  8
0
  5
60D5
 10
3.70263
 20
17.8625
 30
0.000000
  70
    32
  0
VERTEX
  8
0
  5
60D6
 10
3.71406
 20
17.8593
 30
0.000000
  70
    32
  0
VERTEX
  8
0
  5
60D7
 10
3.72552
 20
17.8561
 30
0.000000
  70
    32
  0
VERTEX
  8
0
  5
60D8
 10
3.73702
 20
17.8527
 30
0.000000
  70
    32
  0
VERTEX
  8
0
  5
60D9
 10
3.74854
 20
17.8492
 30
0.000000
  70
    32
  0
VERTEX
  8
0
  5
60DA
 10
3.76009
 20
17.8455
 30
0.000000
  70
    32
  0
VERTEX
  8
0
  5
60DB
 10
3.77167
 20
17.8418
 30
0.000000
  70
    32
  0
VERTEX
  8
0
  5
60DC
 10
3.78328
 20
17.8380
 30
0.000000
  70
    32
  0
VERTEX
  8
0
  5
60DD
 10
3.79491
 20
17.8342
 30
0.000000
  70
    32
  0
VERTEX
  8
0
  5
60DE
 10
3.80657
 20
17.8303
 30
0.000000
  70
    32
  0
VERTEX
  8
0
  5
60DF
 10
3.81826
 20
17.8263
 30
0.000000
  70
    32
  0
VERTEX
  8
0
  5
60E0
 10
3.82996
 20
17.8223
 30
0.000000
  70
    32
  0
VERTEX
  8
0
  5
60E1
 10
3.84169
 20
17.8183
 30
0.000000
  70
    32
  0
VERTEX
  8
0
  5
60E2
 10
3.85344
 20
17.8143
 30
0.000000
  70
    32
  0
VERTEX
  8
0
  5
60E3
 10
3.86521
 20
17.8103
 30
0.000000
  70
    32
  0
VERTEX
  8
0
  5
60E4
 10
3.87700
 20
17.8062
 30
0.000000
  70
    32
  0
VERTEX
  8
0
  5
60E5
 10
3.88881
 20
17.8022
 30
0.000000
  70
    32
  0
VERTEX
  8
0
  5
60E6
 10
3.90063
 20
17.7982
 30
0.000000
  70
    32
  0
VERTEX
  8
0
  5
60E7
 10
3.91246
 20
17.7943
 30
0.000000
  70
    32
  0
VERTEX
  8
0
  5
60E8
 10
3.92430
 20
17.7903
 30
0.000000
  70
    32
  0
VERTEX
  8
0
  5
60E9
 10
3.93616
 20
17.7863
 30
0.000000
  70
    32
  0
VERTEX
  8
0
  5
60EA
 10
3.94802
 20
17.7824
 30
0.000000
  70
    32
  0
VERTEX
  8
0
  5
60EB
 10
3.95989
 20
17.7785
 30
0.000000
  70
    32
  0
VERTEX
  8
0
  5
60EC
 10
3.97176
 20
17.7747
 30
0.000000
  70
    32
  0
VERTEX
  8
0
  5
60ED
 10
3.98364
 20
17.7709
 30
0.000000
  70
    32
  0
VERTEX
  8
0
  5
60EE
 10
3.99552
 20
17.7671
 30
0.000000
  70
    32
  0
VERTEX
  8
0
  5
60EF
 10
4.00739
 20
17.7634
 30
0.000000
  70
    32
  0
VERTEX
  8
0
  5
60F0
 10
4.01927
 20
17.7597
 30
0.000000
  70
    32
  0
VERTEX
  8
0
  5
60F1
 10
4.03114
 20
17.7560
 30
0.000000
  70
    32
  0
VERTEX
  8
0
  5
60F2
 10
4.04301
 20
17.7525
 30
0.000000
  70
    32
  0
VERTEX
  8
0
  5
60F3
 10
4.05487
 20
17.7490
 30
0.000000
  70
    32
  0
VERTEX
  8
0
  5
60F4
 10
4.06672
 20
17.7455
 30
0.000000
  70
    32
  0
VERTEX
  8
0
  5
60F5
 10
4.07856
 20
17.7421
 30
0.000000
  70
    32
  0
VERTEX
  8
0
  5
60F6
 10
4.09039
 20
17.7388
 30
0.000000
  70
    32
  0
VERTEX
  8
0
  5
60F7
 10
4.10221
 20
17.7356
 30
0.000000
  70
    32
  0
VERTEX
  8
0
  5
60F8
 10
4.11401
 20
17.7325
 30
0.000000
  70
    32
  0
VERTEX
  8
0
  5
60F9
 10
4.12580
 20
17.7294
 30
0.000000
  70
    32
  0
VERTEX
  8
0
  5
60FA
 10
4.13757
 20
17.7264
 30
0.000000
  70
    32
  0
VERTEX
  8
0
  5
60FB
 10
4.14931
 20
17.7236
 30
0.000000
  70
    32
  0
VERTEX
  8
0
  5
60FC
 10
4.16104
 20
17.7208
 30
0.000000
  70
    32
  0
VERTEX
  8
0
  5
60FD
 10
4.17274
 20
17.7181
 30
0.000000
  70
    32
  0
VERTEX
  8
0
  5
60FE
 10
4.18442
 20
17.7155
 30
0.000000
  70
    32
  0
VERTEX
  8
0
  5
60FF
 10
4.19607
 20
17.7130
 30
0.000000
  70
    32
  0
VERTEX
  8
0
  5
6100
 10
4.20769
 20
17.7107
 30
0.000000
  70
    32
  0
VERTEX
  8
0
  5
6101
 10
4.21928
 20
17.7084
 30
0.000000
  70
    32
  0
VERTEX
  8
0
  5
6102
 10
4.23084
 20
17.7063
 30
0.000000
  70
    32
  0
VERTEX
  8
0
  5
6103
 10
4.24237
 20
17.7043
 30
0.000000
  70
    32
  0
VERTEX
  8
0
  5
6104
 10
4.25386
 20
17.7025
 30
0.000000
  70
    32
  0
VERTEX
  8
0
  5
6105
 10
4.26532
 20
17.7007
 30
0.000000
  70
    32
  0
VERTEX
  8
0
  5
6106
 10
4.27674
 20
17.6991
 30
0.000000
  70
    32
  0
VERTEX
  8
0
  5
6107
 10
4.28811
 20
17.6977
 30
0.000000
  70
    32
  0
VERTEX
  8
0
  5
6108
 10
4.29945
 20
17.6964
 30
0.000000
  70
    32
  0
VERTEX
  8
0
  5
6109
 10
4.31074
 20
17.6952
 30
0.000000
  70
    32
  0
VERTEX
  8
0
  5
610A
 10
4.32199
 20
17.6942
 30
0.000000
  70
    32
  0
VERTEX
  8
0
  5
610B
 10
4.33319
 20
17.6933
 30
0.000000
  70
    32
  0
VERTEX
  8
0
  5
610C
 10
4.34435
 20
17.6926
 30
0.000000
  70
    32
  0
VERTEX
  8
0
  5
610D
 10
4.35545
 20
17.6921
 30
0.000000
  70
    32
  0
VERTEX
  8
0
  5
610E
 10
4.36651
 20
17.6917
 30
0.000000
  70
    32
  0
VERTEX
  8
0
  5
610F
 10
4.37750
 20
17.6915
 30
0.000000
  70
    32
  0
VERTEX
  8
0
  5
6110
 10
4.38845
 20
17.6915
 30
0.000000
  70
    32
  0
VERTEX
  8
0
  5
6111
 10
4.39934
 20
17.6916
 30
0.000000
  70
    32
  0
VERTEX
  8
0
  5
6112
 10
4.41017
 20
17.6920
 30
0.000000
  70
    32
  0
VERTEX
  8
0
  5
6113
 10
4.42094
 20
17.6925
 30
0.000000
  70
    32
  0
VERTEX
  8
0
  5
6114
 10
4.43166
 20
17.6932
 30
0.000000
  70
    32
  0
VERTEX
  8
0
  5
6115
 10
4.44233
 20
17.6941
 30
0.000000
  70
    32
  0
VERTEX
  8
0
  5
6116
 10
4.45295
 20
17.6951
 30
0.000000
  70
    32
  0
VERTEX
  8
0
  5
6117
 10
4.46352
 20
17.6963
 30
0.000000
  70
    32
  0
VERTEX
  8
0
  5
6118
 10
4.47405
 20
17.6976
 30
0.000000
  70
    32
  0
VERTEX
  8
0
  5
6119
 10
4.48454
 20
17.6991
 30
0.000000
  70
    32
  0
VERTEX
  8
0
  5
611A
 10
4.49499
 20
17.7008
 30
0.000000
  70
    32
  0
VERTEX
  8
0
  5
611B
 10
4.50541
 20
17.7025
 30
0.000000
  70
    32
  0
VERTEX
  8
0
  5
611C
 10
4.51580
 20
17.7044
 30
0.000000
  70
    32
  0
VERTEX
  8
0
  5
611D
 10
4.52616
 20
17.7065
 30
0.000000
  70
    32
  0
VERTEX
  8
0
  5
611E
 10
4.53649
 20
17.7086
 30
0.000000
  70
    32
  0
VERTEX
  8
0
  5
611F
 10
4.54680
 20
17.7109
 30
0.000000
  70
    32
  0
VERTEX
  8
0
  5
6120
 10
4.55710
 20
17.7132
 30
0.000000
  70
    32
  0
VERTEX
  8
0
  5
6121
 10
4.56737
 20
17.7157
 30
0.000000
  70
    32
  0
VERTEX
  8
0
  5
6122
 10
4.57764
 20
17.7183
 30
0.000000
  70
    32
  0
VERTEX
  8
0
  5
6123
 10
4.58789
 20
17.7209
 30
0.000000
  70
    32
  0
VERTEX
  8
0
  5
6124
 10
4.59813
 20
17.7237
 30
0.000000
  70
    32
  0
VERTEX
  8
0
  5
6125
 10
4.60837
 20
17.7265
 30
0.000000
  70
    32
  0
VERTEX
  8
0
  5
6126
 10
4.61861
 20
17.7294
 30
0.000000
  70
    32
  0
VERTEX
  8
0
  5
6127
 10
4.62885
 20
17.7323
 30
0.000000
  70
    32
  0
VERTEX
  8
0
  5
6128
 10
4.63909
 20
17.7354
 30
0.000000
  70
    32
  0
VERTEX
  8
0
  5
6129
 10
4.64934
 20
17.7384
 30
0.000000
  70
    32
  0
VERTEX
  8
0
  5
612A
 10
4.65960
 20
17.7416
 30
0.000000
  70
    32
  0
VERTEX
  8
0
  5
612B
 10
4.66987
 20
17.7447
 30
0.000000
  70
    32
  0
VERTEX
  8
0
  5
612C
 10
4.68016
 20
17.7479
 30
0.000000
  70
    32
  0
VERTEX
  8
0
  5
612D
 10
4.69047
 20
17.7512
 30
0.000000
  70
    32
  0
VERTEX
  8
0
  5
612E
 10
4.70079
 20
17.7544
 30
0.000000
  70
    32
  0
VERTEX
  8
0
  5
612F
 10
4.71114
 20
17.7577
 30
0.000000
  70
    32
  0
VERTEX
  8
0
  5
6130
 10
4.72152
 20
17.7610
 30
0.000000
  70
    32
  0
VERTEX
  8
0
  5
6131
 10
4.73191
 20
17.7644
 30
0.000000
  70
    32
  0
VERTEX
  8
0
  5
6132
 10
4.74232
 20
17.7677
 30
0.000000
  70
    32
  0
VERTEX
  8
0
  5
6133
 10
4.75275
 20
17.7710
 30
0.000000
  70
    32
  0
VERTEX
  8
0
  5
6134
 10
4.76319
 20
17.7743
 30
0.000000
  70
    32
  0
VERTEX
  8
0
  5
6135
 10
4.77365
 20
17.7776
 30
0.000000
  70
    32
  0
VERTEX
  8
0
  5
6136
 10
4.78413
 20
17.7809
 30
0.000000
  70
    32
  0
VERTEX
  8
0
  5
6137
 10
4.79461
 20
17.7841
 30
0.000000
  70
    32
  0
VERTEX
  8
0
  5
6138
 10
4.80511
 20
17.7874
 30
0.000000
  70
    32
  0
VERTEX
  8
0
  5
6139
 10
4.81562
 20
17.7906
 30
0.000000
  70
    32
  0
VERTEX
  8
0
  5
613A
 10
4.82615
 20
17.7937
 30
0.000000
  70
    32
  0
VERTEX
  8
0
  5
613B
 10
4.83667
 20
17.7968
 30
0.000000
  70
    32
  0
VERTEX
  8
0
  5
613C
 10
4.84721
 20
17.7999
 30
0.000000
  70
    32
  0
VERTEX
  8
0
  5
613D
 10
4.85776
 20
17.8029
 30
0.000000
  70
    32
  0
VERTEX
  8
0
  5
613E
 10
4.86830
 20
17.8059
 30
0.000000
  70
    32
  0
VERTEX
  8
0
  5
613F
 10
4.87886
 20
17.8087
 30
0.000000
  70
    32
  0
VERTEX
  8
0
  5
6140
 10
4.88941
 20
17.8115
 30
0.000000
  70
    32
  0
VERTEX
  8
0
  5
6141
 10
4.89997
 20
17.8143
 30
0.000000
  70
    32
  0
VERTEX
  8
0
  5
6142
 10
4.91053
 20
17.8169
 30
0.000000
  70
    32
  0
VERTEX
  8
0
  5
6143
 10
4.92108
 20
17.8194
 30
0.000000
  70
    32
  0
VERTEX
  8
0
  5
6144
 10
4.93164
 20
17.8219
 30
0.000000
  70
    32
  0
VERTEX
  8
0
  5
6145
 10
4.94219
 20
17.8243
 30
0.000000
  70
    32
  0
VERTEX
  8
0
  5
6146
 10
4.95274
 20
17.8265
 30
0.000000
  70
    32
  0
VERTEX
  8
0
  5
6147
 10
4.96328
 20
17.8286
 30
0.000000
  70
    32
  0
VERTEX
  8
0
  5
6148
 10
4.97382
 20
17.8307
 30
0.000000
  70
    32
  0
VERTEX
  8
0
  5
6149
 10
4.98435
 20
17.8326
 30
0.000000
  70
    32
  0
VERTEX
  8
0
  5
614A
 10
4.99487
 20
17.8343
 30
0.000000
  70
    32
  0
VERTEX
  8
0
  5
614B
 10
5.00539
 20
17.8360
 30
0.000000
  70
    32
  0
VERTEX
  8
0
  5
614C
 10
5.01589
 20
17.8375
 30
0.000000
  70
    32
  0
VERTEX
  8
0
  5
614D
 10
5.02638
 20
17.8388
 30
0.000000
  70
    32
  0
VERTEX
  8
0
  5
614E
 10
5.03685
 20
17.8400
 30
0.000000
  70
    32
  0
VERTEX
  8
0
  5
614F
 10
5.04731
 20
17.8411
 30
0.000000
  70
    32
  0
VERTEX
  8
0
  5
6150
 10
5.05776
 20
17.8419
 30
0.000000
  70
    32
  0
VERTEX
  8
0
  5
6151
 10
5.06819
 20
17.8426
 30
0.000000
  70
    32
  0
VERTEX
  8
0
  5
6152
 10
5.07860
 20
17.8432
 30
0.000000
  70
    32
  0
VERTEX
  8
0
  5
6153
 10
5.08899
 20
17.8436
 30
0.000000
  70
    32
  0
VERTEX
  8
0
  5
6154
 10
5.09937
 20
17.8437
 30
0.000000
  70
    32
  0
VERTEX
  8
0
  5
6155
 10
5.10972
 20
17.8437
 30
0.000000
  70
    32
  0
VERTEX
  8
0
  5
6156
 10
5.12005
 20
17.8435
 30
0.000000
  70
    32
  0
VERTEX
  8
0
  5
6157
 10
5.13036
 20
17.8431
 30
0.000000
  70
    32
  0
VERTEX
  8
0
  5
6158
 10
5.14064
 20
17.8425
 30
0.000000
  70
    32
  0
VERTEX
  8
0
  5
6159
 10
5.15089
 20
17.8417
 30
0.000000
  70
    32
  0
VERTEX
  8
0
  5
615A
 10
5.16112
 20
17.8406
 30
0.000000
  70
    32
  0
VERTEX
  8
0
  5
615B
 10
5.17133
 20
17.8394
 30
0.000000
  70
    32
  0
VERTEX
  8
0
  5
615C
 10
5.18151
 20
17.8379
 30
0.000000
  70
    32
  0
VERTEX
  8
0
  5
615D
 10
5.19166
 20
17.8362
 30
0.000000
  70
    32
  0
VERTEX
  8
0
  5
615E
 10
5.20180
 20
17.8344
 30
0.000000
  70
    32
  0
VERTEX
  8
0
  5
615F
 10
5.21191
 20
17.8323
 30
0.000000
  70
    32
  0
VERTEX
  8
0
  5
6160
 10
5.22201
 20
17.8301
 30
0.000000
  70
    32
  0
VERTEX
  8
0
  5
6161
 10
5.23209
 20
17.8277
 30
0.000000
  70
    32
  0
VERTEX
  8
0
  5
6162
 10
5.24216
 20
17.8251
 30
0.000000
  70
    32
  0
VERTEX
  8
0
  5
6163
 10
5.25221
 20
17.8223
 30
0.000000
  70
    32
  0
VERTEX
  8
0
  5
6164
 10
5.26226
 20
17.8194
 30
0.000000
  70
    32
  0
VERTEX
  8
0
  5
6165
 10
5.27229
 20
17.8164
 30
0.000000
  70
    32
  0
VERTEX
  8
0
  5
6166
 10
5.28232
 20
17.8132
 30
0.000000
  70
    32
  0
VERTEX
  8
0
  5
6167
 10
5.29234
 20
17.8098
 30
0.000000
  70
    32
  0
VERTEX
  8
0
  5
6168
 10
5.30236
 20
17.8063
 30
0.000000
  70
    32
  0
VERTEX
  8
0
  5
6169
 10
5.31238
 20
17.8027
 30
0.000000
  70
    32
  0
VERTEX
  8
0
  5
616A
 10
5.32239
 20
17.7990
 30
0.000000
  70
    32
  0
VERTEX
  8
0
  5
616B
 10
5.33241
 20
17.7952
 30
0.000000
  70
    32
  0
VERTEX
  8
0
  5
616C
 10
5.34243
 20
17.7912
 30
0.000000
  70
    32
  0
VERTEX
  8
0
  5
616D
 10
5.35246
 20
17.7872
 30
0.000000
  70
    32
  0
VERTEX
  8
0
  5
616E
 10
5.36249
 20
17.7830
 30
0.000000
  70
    32
  0
VERTEX
  8
0
  5
616F
 10
5.37253
 20
17.7788
 30
0.000000
  70
    32
  0
VERTEX
  8
0
  5
6170
 10
5.38258
 20
17.7745
 30
0.000000
  70
    32
  0
VERTEX
  8
0
  5
6171
 10
5.39265
 20
17.7701
 30
0.000000
  70
    32
  0
VERTEX
  8
0
  5
6172
 10
5.40272
 20
17.7656
 30
0.000000
  70
    32
  0
VERTEX
  8
0
  5
6173
 10
5.41281
 20
17.7611
 30
0.000000
  70
    32
  0
VERTEX
  8
0
  5
6174
 10
5.42292
 20
17.7565
 30
0.000000
  70
    32
  0
VERTEX
  8
0
  5
6175
 10
5.43305
 20
17.7519
 30
0.000000
  70
    32
  0
VERTEX
  8
0
  5
6176
 10
5.44320
 20
17.7472
 30
0.000000
  70
    32
  0
VERTEX
  8
0
  5
6177
 10
5.45337
 20
17.7425
 30
0.000000
  70
    32
  0
VERTEX
  8
0
  5
6178
 10
5.46356
 20
17.7378
 30
0.000000
  70
    32
  0
VERTEX
  8
0
  5
6179
 10
5.47378
 20
17.7330
 30
0.000000
  70
    32
  0
VERTEX
  8
0
  5
617A
 10
5.48403
 20
17.7282
 30
0.000000
  70
    32
  0
VERTEX
  8
0
  5
617B
 10
5.49430
 20
17.7234
 30
0.000000
  70
    32
  0
VERTEX
  8
0
  5
617C
 10
5.50461
 20
17.7186
 30
0.000000
  70
    32
  0
VERTEX
  8
0
  5
617D
 10
5.51495
 20
17.7138
 30
0.000000
  70
    32
  0
VERTEX
  8
0
  5
617E
 10
5.52532
 20
17.7091
 30
0.000000
  70
    32
  0
VERTEX
  8
0
  5
617F
 10
5.53574
 20
17.7043
 30
0.000000
  70
    32
  0
VERTEX
  8
0
  5
6180
 10
5.54618
 20
17.6995
 30
0.000000
  70
    32
  0
VERTEX
  8
0
  5
6181
 10
5.55667
 20
17.6948
 30
0.000000
  70
    32
  0
VERTEX
  8
0
  5
6182
 10
5.56719
 20
17.6901
 30
0.000000
  70
    32
  0
VERTEX
  8
0
  5
6183
 10
5.57774
 20
17.6855
 30
0.000000
  70
    32
  0
VERTEX
  8
0
  5
6184
 10
5.58833
 20
17.6809
 30
0.000000
  70
    32
  0
VERTEX
  8
0
  5
6185
 10
5.59895
 20
17.6763
 30
0.000000
  70
    32
  0
VERTEX
  8
0
  5
6186
 10
5.60961
 20
17.6719
 30
0.000000
  70
    32
  0
VERTEX
  8
0
  5
6187
 10
5.62030
 20
17.6675
 30
0.000000
  70
    32
  0
VERTEX
  8
0
  5
6188
 10
5.63102
 20
17.6633
 30
0.000000
  70
    32
  0
VERTEX
  8
0
  5
6189
 10
5.64177
 20
17.6591
 30
0.000000
  70
    32
  0
VERTEX
  8
0
  5
618A
 10
5.65255
 20
17.6550
 30
0.000000
  70
    32
  0
VERTEX
  8
0
  5
618B
 10
5.66337
 20
17.6511
 30
0.000000
  70
    32
  0
VERTEX
  8
0
  5
618C
 10
5.67421
 20
17.6472
 30
0.000000
  70
    32
  0
VERTEX
  8
0
  5
618D
 10
5.68508
 20
17.6435
 30
0.000000
  70
    32
  0
VERTEX
  8
0
  5
618E
 10
5.69597
 20
17.6400
 30
0.000000
  70
    32
  0
VERTEX
  8
0
  5
618F
 10
5.70690
 20
17.6366
 30
0.000000
  70
    32
  0
VERTEX
  8
0
  5
6190
 10
5.71785
 20
17.6334
 30
0.000000
  70
    32
  0
VERTEX
  8
0
  5
6191
 10
5.72882
 20
17.6303
 30
0.000000
  70
    32
  0
VERTEX
  8
0
  5
6192
 10
5.73982
 20
17.6274
 30
0.000000
  70
    32
  0
VERTEX
  8
0
  5
6193
 10
5.75085
 20
17.6247
 30
0.000000
  70
    32
  0
VERTEX
  8
0
  5
6194
 10
5.76190
 20
17.6222
 30
0.000000
  70
    32
  0
VERTEX
  8
0
  5
6195
 10
5.77297
 20
17.6199
 30
0.000000
  70
    32
  0
VERTEX
  8
0
  5
6196
 10
5.78406
 20
17.6178
 30
0.000000
  70
    32
  0
VERTEX
  8
0
  5
6197
 10
5.79518
 20
17.6160
 30
0.000000
  70
    32
  0
VERTEX
  8
0
  5
6198
 10
5.80631
 20
17.6144
 30
0.000000
  70
    32
  0
VERTEX
  8
0
  5
6199
 10
5.81747
 20
17.6130
 30
0.000000
  70
    32
  0
VERTEX
  8
0
  5
619A
 10
5.82864
 20
17.6118
 30
0.000000
  70
    32
  0
VERTEX
  8
0
  5
619B
 10
5.83983
 20
17.6109
 30
0.000000
  70
    32
  0
VERTEX
  8
0
  5
619C
 10
5.85104
 20
17.6103
 30
0.000000
  70
    32
  0
VERTEX
  8
0
  5
619D
 10
5.86227
 20
17.6100
 30
0.000000
  70
    32
  0
VERTEX
  8
0
  5
619E
 10
5.87352
 20
17.6099
 30
0.000000
  70
    32
  0
VERTEX
  8
0
  5
619F
 10
5.88478
 20
17.6102
 30
0.000000
  70
    32
  0
VERTEX
  8
0
  5
61A0
 10
5.89605
 20
17.6107
 30
0.000000
  70
    32
  0
VERTEX
  8
0
  5
61A1
 10
5.90734
 20
17.6116
 30
0.000000
  70
    32
  0
VERTEX
  8
0
  5
61A2
 10
5.91865
 20
17.6127
 30
0.000000
  70
    32
  0
VERTEX
  8
0
  5
61A3
 10
5.92996
 20
17.6142
 30
0.000000
  70
    32
  0
VERTEX
  8
0
  5
61A4
 10
5.94130
 20
17.6161
 30
0.000000
  70
    32
  0
VERTEX
  8
0
  5
61A5
 10
5.95265
 20
17.6182
 30
0.000000
  70
    32
  0
VERTEX
  8
0
  5
61A6
 10
5.96406
 20
17.6206
 30
0.000000
  70
    32
  0
VERTEX
  8
0
  5
61A7
 10
5.97551
 20
17.6233
 30
0.000000
  70
    32
  0
VERTEX
  8
0
  5
61A8
 10
5.98704
 20
17.6262
 30
0.000000
  70
    32
  0
VERTEX
  8
0
  5
61A9
 10
5.99865
 20
17.6293
 30
0.000000
  70
    32
  0
VERTEX
  8
0
  5
61AA
 10
6.01037
 20
17.6325
 30
0.000000
  70
    32
  0
VERTEX
  8
0
  5
61AB
 10
6.02220
 20
17.6359
 30
0.000000
  70
    32
  0
VERTEX
  8
0
  5
61AC
 10
6.03415
 20
17.6394
 30
0.000000
  70
    32
  0
VERTEX
  8
0
  5
61AD
 10
6.04626
 20
17.6430
 30
0.000000
  70
    32
  0
VERTEX
  8
0
  5
61AE
 10
6.05852
 20
17.6467
 30
0.000000
  70
    32
  0
VERTEX
  8
0
  5
61AF
 10
6.07095
 20
17.6504
 30
0.000000
  70
    32
  0
VERTEX
  8
0
  5
61B0
 10
6.08357
 20
17.6540
 30
0.000000
  70
    32
  0
VERTEX
  8
0
  5
61B1
 10
6.09640
 20
17.6577
 30
0.000000
  70
    32
  0
VERTEX
  8
0
  5
61B2
 10
6.10944
 20
17.6612
 30
0.000000
  70
    32
  0
VERTEX
  8
0
  5
61B3
 10
6.12271
 20
17.6647
 30
0.000000
  70
    32
  0
VERTEX
  8
0
  5
61B4
 10
6.13623
 20
17.6681
 30
0.000000
  70
    32
  0
VERTEX
  8
0
  5
61B5
 10
6.15001
 20
17.6714
 30
0.000000
  70
    32
  0
VERTEX
  8
0
  5
61B6
 10
6.16406
 20
17.6744
 30
0.000000
  70
    32
  0
VERTEX
  8
0
  5
61B7
 10
6.17841
 20
17.6773
 30
0.000000
  70
    32
  0
VERTEX
  8
0
  5
61B8
 10
6.19306
 20
17.6799
 30
0.000000
  70
    32
  0
VERTEX
  8
0
  5
61B9
 10
6.20803
 20
17.6823
 30
0.000000
  70
    32
  0
VERTEX
  8
0
  5
61BA
 10
6.22333
 20
17.6844
 30
0.000000
  70
    32
  0
VERTEX
  8
0
  5
61BB
 10
6.23899
 20
17.6862
 30
0.000000
  70
    32
  0
VERTEX
  8
0
  5
61BC
 10
6.25500
 20
17.6876
 30
0.000000
  70
    32
  0
VERTEX
  8
0
  5
61BD
 10
6.27140
 20
17.6887
 30
0.000000
  70
    32
  0
VERTEX
  8
0
  5
61BE
 10
6.28818
 20
17.6894
 30
0.000000
  70
    32
  0
VERTEX
  8
0
  5
61BF
 10
6.30538
 20
17.6896
 30
0.000000
  70
    32
  0
VERTEX
  8
0
  5
61C0
 10
6.32299
 20
17.6894
 30
0.000000
  70
    32
  0
VERTEX
  8
0
  5
61C1
 10
6.34104
 20
17.6887
 30
0.000000
  70
    32
  0
VERTEX
  8
0
  5
61C2
 10
6.35954
 20
17.6875
 30
0.000000
  70
    32
  0
VERTEX
  8
0
  5
61C3
 10
6.37851
 20
17.6858
 30
0.000000
  70
    32
  0
VERTEX
  8
0
  5
61C4
 10
6.39796
 20
17.6835
 30
0.000000
  70
    32
  0
VERTEX
  8
0
  5
61C5
 10
6.41790
 20
17.6806
 30
0.000000
  70
    32
  0
VERTEX
  8
0
  5
61C6
 10
6.43835
 20
17.6771
 30
0.000000
  70
    32
  0
VERTEX
  8
0
  5
61C7
 10
6.45933
 20
17.6729
 30
0.000000
  70
    32
  0
VERTEX
  8
0
  5
61C8
 10
6.48084
 20
17.6681
 30
0.000000
  70
    32
  0
VERTEX
  8
0
  5
61C9
 10
6.50291
 20
17.6625
 30
0.000000
  70
    32
  0
VERTEX
  8
0
  5
61CA
 10
6.52555
 20
17.6562
 30
0.000000
  70
    32
  0
VERTEX
  8
0
  5
61CB
 10
6.54893
 20
17.6493
 30
0.000000
  70
    32
  0
VERTEX
  8
0
  5
61CC
 10
6.57349
 20
17.6419
 30
0.000000
  70
    32
  0
VERTEX
  8
0
  5
61CD
 10
6.59968
 20
17.6343
 30
0.000000
  70
    32
  0
VERTEX
  8
0
  5
61CE
 10
6.62795
 20
17.6269
 30
0.000000
  70
    32
  0
VERTEX
  8
0
  5
61CF
 10
6.65876
 20
17.6198
 30
0.000000
  70
    32
  0
VERTEX
  8
0
  5
61D0
 10
6.69257
 20
17.6133
 30
0.000000
  70
    32
  0
VERTEX
  8
0
  5
61D1
 10
6.72984
 20
17.6076
 30
0.000000
  70
    32
  0
VERTEX
  8
0
  5
61D2
 10
6.77100
 20
17.6031
 30
0.000000
  70
    32
  0
VERTEX
  8
0
  5
61D3
 10
6.81653
 20
17.5999
 30
0.000000
  70
    32
  0
VERTEX
  8
0
  5
61D4
 10
6.86688
 20
17.5983
 30
0.000000
  70
    32
  0
VERTEX
  8
0
  5
61D5
 10
6.92249
 20
17.5986
 30
0.000000
  70
    32
  0
SEQEND
  8
0
  5
61D6
  0
DIMENSION
  5
31C8
  8
DIM
  2
*D27
 10
8.1737862233575278
 20
13.87768574109098
 30
0.0
 11
8.173786223357526
 21
14.70468574109098
 31
0.0
 70
     0
 13
7.0424917680462791
 23
15.53168574109098
 33
0.0
 14
7.0424917680462791
 24
13.87768574109098
 34
0.0
 50
90.0
  0
POLYLINE
  8
0
  5
61D7
  66
     1
 10
0.000000
 20
0.000000
 30
0.000000
  70
     8
  0
VERTEX
  8
0
  5
61D8
 10
4.11201
 20
20.3618
 30
0.000000
  70
    32
  0
VERTEX
  8
0
  5
61D9
 10
4.77106
 20
20.3618
 30
0.000000
  70
    32
  0
VERTEX
  8
0
  5
61DA
 10
4.77106
 20
12.3555
 30
0.000000
  70
    32
  0
SEQEND
  8
0
  5
61DB
  0
POLYLINE
  8
0
  5
61DC
  66
     1
 10
0.000000
 20
0.000000
 30
0.000000
  70
     8
  0
VERTEX
  8
0
  5
61DD
 10
4.11201
 20
12.3555
 30
0.000000
  70
    32
  0
VERTEX
  8
0
  5
61DE
 10
4.77106
 20
12.3555
 30
0.000000
  70
    32
  0
SEQEND
  8
0
  5
61DF
  0
POLYLINE
  5
3FCC
  8
OBJECT
 66
     1
 10
0.0
 20
0.0
 30
0.0
 70
     1
  0
VERTEX
  5
5D00
  8
OBJECT
 10
1.488491768046273
 20
12.61868574109098
 30
0.0
  0
VERTEX
  5
5D01
  8
OBJECT
 10
6.9224917680462701
 20
12.61868574109098
 30
0.0
  0
VERTEX
  5
5D02
  8
OBJECT
 10
6.9224917680462701
 20
20.098685741090978
 30
0.0
  0
VERTEX
  5
5D03
  8
OBJECT
 10
1.488491768046273
 20
20.098685741090978
 30
0.0
  0
SEQEND
  5
5D04
  8
OBJECT
  0
LINE
  5
3FCD
  8
OBJECT
 10
1.5084917680462731
 20
8.6807344840616913
 30
0.0
 11
1.5084917680462731
 21
8.6417344840616934
 31
0.0
  0
LINE
  5
3FCE
  8
CENTER
 10
4.1154917680462724
 20
8.6612344840616942
 30
0.0
 11
4.2954917680462721
 21
8.6612344840616942
 31
0.0
  0
LINE
  5
3FCF
  8
CENTER
 10
4.2054917680462722
 20
8.5712344840616943
 30
0.0
 11
4.2054917680462722
 21
8.751234484061694
 31
0.0
  0
LINE
  5
4041
  8
OBJECT
 10
6.4224917680462852
 20
17.708685741090981
 30
0.0
 11
6.9224917680462701
 21
17.708685741090981
 31
0.0
  0
LINE
  5
4042
  8
OBJECT
 10
6.4224917680462852
 20
17.828685741090979
 30
0.0
 11
6.9224917680462701
 21
17.828685741090979
 31
0.0
  0
LINE
  5
404A
  8
OBJECT
 10
6.9054917680462671
 20
17.708685741090981
 30
0.0
 11
6.9054917680462671
 21
17.828685741090979
 31
0.0
  0
LINE
  5
404D
  8
OBJECT
 10
6.4224917680462852
 20
17.708685741090981
 30
0.0
 11
6.4224917680462852
 21
17.828685741090979
 31
0.0
  0
LINE
  5
4062
  8
OBJECT
 10
1.488491768046269
 20
17.708685741090989
 30
0.0
 11
1.9884917680462839
 21
17.708685741090989
 31
0.0
  0
LINE
  5
4063
  8
OBJECT
 10
1.488491768046269
 20
17.828685741090979
 30
0.0
 11
1.9884917680462839
 21
17.82868574109099
 31
0.0
  0
LINE
  5
4067
  8
OBJECT
 10
1.9884917680462839
 20
17.708685741090989
 30
0.0
 11
1.9884917680462839
 21
17.82868574109099
 31
0.0
  0
LINE
  5
4069
  8
OBJECT
 10
1.5054917680462689
 20
17.828685741090979
 30
0.0
 11
1.5054917680462689
 21
17.708685741090989
 31
0.0
  0
LINE
  5
406A
  8
OBJECT
 10
6.4224917680462852
 20
19.546685741090979
 30
0.0
 11
6.4224917680462852
 21
19.118685741090982
 31
0.0
  0
LINE
  5
406B
  8
OBJECT
 10
6.9054917680462751
 20
19.546685741090979
 30
0.0
 11
6.9054917680462751
 21
19.118685741090982
 31
0.0
  0
LINE
  5
406C
  8
OBJECT
 10
6.4224917680462852
 20
19.118685741090982
 30
0.0
 11
6.9224917680462701
 21
19.118685741090982
 31
0.0
  0
LINE
  5
406D
  8
OBJECT
 10
6.4224917680462852
 20
18.41368574109098
 30
0.0
 11
6.9224917680462701
 21
18.41368574109098
 31
0.0
  0
LINE
  5
406E
  8
OBJECT
 10
6.4224917680462852
 20
18.533685741090981
 30
0.0
 11
6.9224917680462701
 21
18.533685741090981
 31
0.0
  0
LINE
  5
406F
  8
OBJECT
 10
6.4224917680462852
 20
18.17868574109098
 30
0.0
 11
6.9224917680462701
 21
18.17868574109098
 31
0.0
  0
LINE
  5
4070
  8
OBJECT
 10
6.4224917680462852
 20
18.298685741090981
 30
0.0
 11
6.9224917680462701
 21
18.298685741090981
 31
0.0
  0
LINE
  5
4071
  8
OBJECT
 10
6.4224917680462852
 20
17.943685741090981
 30
0.0
 11
6.9224917680462701
 21
17.943685741090981
 31
0.0
  0
LINE
  5
4072
  8
OBJECT
 10
6.4224917680462852
 20
18.063685741090978
 30
0.0
 11
6.9224917680462701
 21
18.063685741090978
 31
0.0
  0
LINE
  5
4073
  8
OBJECT
 10
6.9054917680462751
 20
18.17868574109098
 30
0.0
 11
6.9054917680462751
 21
18.298685741090981
 31
0.0
  0
LINE
  5
4074
  8
OBJECT
 10
6.9054917680462671
 20
17.943685741090981
 30
0.0
 11
6.9054917680462671
 21
18.063685741090978
 31
0.0
  0
LINE
  5
4075
  8
OBJECT
 10
6.9054917680462751
 20
18.41368574109098
 30
0.0
 11
6.9054917680462751
 21
18.533685741090981
 31
0.0
  0
LINE
  5
4076
  8
OBJECT
 10
6.4224917680462852
 20
18.17868574109098
 30
0.0
 11
6.4224917680462852
 21
18.298685741090981
 31
0.0
  0
LINE
  5
4077
  8
OBJECT
 10
6.4224917680462852
 20
17.943685741090981
 30
0.0
 11
6.4224917680462852
 21
18.063685741090978
 31
0.0
  0
LINE
  5
4078
  8
OBJECT
 10
6.4224917680462852
 20
18.41368574109098
 30
0.0
 11
6.4224917680462852
 21
18.533685741090981
 31
0.0
  0
LINE
  5
4079
  8
OBJECT
 10
6.4224917680462852
 20
19.546685741090979
 30
0.0
 11
6.9224917680462701
 21
19.546685741090979
 31
0.0
  0
LINE
  5
407A
  8
OBJECT
 10
6.4224917680462852
 20
19.546685741090979
 30
0.0
 11
6.9224917680462701
 21
19.546685741090979
 31
0.0
  0
LINE
  5
407B
  8
OBJECT
 10
1.988491768046287
 20
19.546685741090979
 30
0.0
 11
1.988491768046287
 21
19.118685741090989
 31
0.0
  0
LINE
  5
407C
  8
OBJECT
 10
1.505491768046272
 20
19.118685741090989
 30
0.0
 11
1.505491768046272
 21
19.546685741090979
 31
0.0
  0
LINE
  5
407D
  8
OBJECT
 10
1.5054917680462689
 20
18.298685741090988
 30
0.0
 11
1.5054917680462689
 21
18.17868574109098
 31
0.0
  0
LINE
  5
407E
  8
OBJECT
 10
1.988491768046287
 20
18.17868574109098
 30
0.0
 11
1.988491768046287
 21
18.298685741090988
 31
0.0
  0
LINE
  5
407F
  8
OBJECT
 10
1.488491768046273
 20
18.17868574109098
 30
0.0
 11
1.988491768046287
 21
18.17868574109098
 31
0.0
  0
LINE
  5
4080
  8
OBJECT
 10
1.488491768046269
 20
17.943685741090981
 30
0.0
 11
1.9884917680462839
 21
17.943685741090981
 31
0.0
  0
LINE
  5
4081
  8
OBJECT
 10
1.488491768046269
 20
18.063685741090989
 30
0.0
 11
1.9884917680462839
 21
18.063685741090989
 31
0.0
  0
LINE
  5
4082
  8
OBJECT
 10
1.9884917680462839
 20
17.943685741090981
 30
0.0
 11
1.9884917680462839
 21
18.063685741090989
 31
0.0
  0
LINE
  5
4083
  8
OBJECT
 10
1.5054917680462689
 20
18.063685741090978
 30
0.0
 11
1.5054917680462689
 21
17.943685741090981
 31
0.0
  0
LINE
  5
4084
  8
OBJECT
 10
1.488491768046273
 20
19.118685741090989
 30
0.0
 11
1.988491768046287
 21
19.118685741090989
 31
0.0
  0
LINE
  5
4085
  8
OBJECT
 10
1.488491768046273
 20
18.41368574109098
 30
0.0
 11
1.988491768046287
 21
18.41368574109098
 31
0.0
  0
LINE
  5
4086
  8
OBJECT
 10
1.488491768046273
 20
18.533685741090991
 30
0.0
 11
1.988491768046287
 21
18.533685741090991
 31
0.0
  0
LINE
  5
4087
  8
OBJECT
 10
1.488491768046273
 20
18.298685741090988
 30
0.0
 11
1.988491768046287
 21
18.298685741090988
 31
0.0
  0
LINE
  5
4088
  8
OBJECT
 10
1.988491768046287
 20
18.41368574109098
 30
0.0
 11
1.988491768046287
 21
18.533685741090991
 31
0.0
  0
LINE
  5
4089
  8
OBJECT
 10
1.5054917680462689
 20
18.533685741090991
 30
0.0
 11
1.5054917680462689
 21
18.41368574109098
 31
0.0
  0
LINE
  5
408A
  8
OBJECT
 10
1.488491768046273
 20
19.546685741090979
 30
0.0
 11
1.988491768046287
 21
19.546685741090979
 31
0.0
  0
LINE
  5
408B
  8
OBJECT
 10
1.488491768046273
 20
19.546685741090979
 30
0.0
 11
1.988491768046287
 21
19.546685741090979
 31
0.0
  0
CIRCLE
  5
40EF
  8
OBJECT
 10
2.4454917680462742
 20
13.366685741090979
 30
0.0
 40
0.045
  0
CIRCLE
  5
40F0
  8
OBJECT
 10
2.4454917680462742
 20
13.366685741090979
 30
0.0
 40
0.108
  0
CIRCLE
  5
40F1
  8
OBJECT
 10
5.9654917680462702
 20
13.366685741090979
 30
0.0
 40
0.108
  0
CIRCLE
  5
40F2
  8
OBJECT
 10
5.9654917680462702
 20
13.366685741090979
 30
0.0
 40
0.045
  0
LINE
  5
40F3
  8
CENTER
 10
4.1154917680462724
 20
16.35868574109098
 30
0.0
 11
4.2954917680462721
 21
16.35868574109098
 31
0.0
  0
LINE
  5
40F4
  8
CENTER
 10
4.2054917680462722
 20
16.26868574109098
 30
0.0
 11
4.2054917680462722
 21
16.44868574109098
 31
0.0
  0
CIRCLE
  5
40F5
  8
HIDDEN
 10
2.4454917680462742
 20
19.350685741090981
 30
0.0
 40
0.108
  0
CIRCLE
  5
40F6
  8
HIDDEN
 10
2.4454917680462742
 20
19.350685741090981
 30
0.0
 40
0.045
  0
CIRCLE
  5
40F7
  8
HIDDEN
 10
5.9654917680462773
 20
19.350685741090981
 30
0.0
 40
0.108
  0
CIRCLE
  5
40F8
  8
HIDDEN
 10
5.9654917680462773
 20
19.350685741090981
 30
0.0
 40
0.045
  0
CIRCLE
  5
40F9
  8
OBJECT
 10
1.8274917680462719
 20
13.366685741090979
 30
0.0
 40
0.148
  0
CIRCLE
  5
40FA
  8
OBJECT
 10
6.5834917680462723
 20
13.366685741090979
 30
0.0
 40
0.148
  0
CIRCLE
  5
40FB
  8
HIDDEN
 10
6.5834917680462706
 20
19.350685741090981
 30
0.0
 40
0.148
  0
CIRCLE
  5
40FC
  8
HIDDEN
 10
1.8274917680462719
 20
19.350685741090981
 30
0.0
 40
0.148
  0
LINE
  5
40FD
  8
OBJECT
 10
6.8024917680462726
 20
12.683685741090979
 30
0.0
 11
1.608491768046274
 21
12.683685741090979
 31
0.0
  0
LINE
  5
40FE
  8
OBJECT
 10
6.8024917680462726
 20
12.77868574109098
 30
0.0
 11
1.608491768046274
 21
12.77868574109098
 31
0.0
  0
LINE
  5
40FF
  8
OBJECT
 10
6.8624917680462749
 20
12.82368574109098
 30
0.0
 11
1.548491768046272
 21
12.82368574109098
 31
0.0
  0
POLYLINE
  5
4100
  8
OBJECT
 66
     1
 10
0.0
 20
0.0
 30
0.0
  0
VERTEX
  5
5D05
  8
OBJECT
 10
1.608491768046274
 20
17.29468574109098
 30
0.0
  0
VERTEX
  5
5D06
  8
OBJECT
 10
1.663491768046274
 20
17.29468574109098
 30
0.0
  0
VERTEX
  5
5D07
  8
OBJECT
 10
1.663491768046274
 20
17.234685741090981
 30
0.0
  0
VERTEX
  5
5D08
  8
OBJECT
 10
1.608491768046274
 20
17.234685741090981
 30
0.0
  0
SEQEND
  5
5D09
  8
OBJECT
  0
POLYLINE
  5
4101
  8
OBJECT
 66
     1
 10
0.0
 20
0.0
 30
0.0
  0
VERTEX
  5
5D0A
  8
OBJECT
 10
1.608491768046274
 20
17.07668574109098
 30
0.0
  0
VERTEX
  5
5D0B
  8
OBJECT
 10
1.663491768046274
 20
17.07668574109098
 30
0.0
  0
VERTEX
  5
5D0C
  8
OBJECT
 10
1.663491768046274
 20
17.136685741090979
 30
0.0
  0
VERTEX
  5
5D0D
  8
OBJECT
 10
1.608491768046274
 20
17.136685741090979
 30
0.0
  0
SEQEND
  5
5D0E
  8
OBJECT
  0
POLYLINE
  5
4102
  8
OBJECT
 66
     1
 10
0.0
 20
0.0
 30
0.0
  0
VERTEX
  5
5D0F
  8
OBJECT
 10
6.8024917680462726
 20
17.29468574109098
 30
0.0
  0
VERTEX
  5
5D10
  8
OBJECT
 10
6.7474917680462729
 20
17.29468574109098
 30
0.0
  0
VERTEX
  5
5D11
  8
OBJECT
 10
6.7474917680462729
 20
17.234685741090981
 30
0.0
  0
VERTEX
  5
5D12
  8
OBJECT
 10
6.8024917680462726
 20
17.234685741090981
 30
0.0
  0
SEQEND
  5
5D13
  8
OBJECT
  0
POLYLINE
  5
4103
  8
OBJECT
 66
     1
 10
0.0
 20
0.0
 30
0.0
  0
VERTEX
  5
5D14
  8
OBJECT
 10
6.8024917680462726
 20
17.07668574109098
 30
0.0
  0
VERTEX
  5
5D15
  8
OBJECT
 10
6.7474917680462729
 20
17.07668574109098
 30
0.0
  0
VERTEX
  5
5D16
  8
OBJECT
 10
6.7474917680462729
 20
17.136685741090979
 30
0.0
  0
VERTEX
  5
5D17
  8
OBJECT
 10
6.8024917680462726
 20
17.136685741090979
 30
0.0
  0
SEQEND
  5
5D18
  8
OBJECT
  0
LINE
  5
4104
  8
OBJECT
 10
6.8024917680462726
 20
12.683685741090979
 30
0.0
 11
6.8024917680462726
 21
17.600654539372592
 31
0.0
  0
LINE
  5
4105
  8
HIDDEN
 10
1.608491768046274
 20
20.033685741090981
 30
0.0
 11
1.608491768046274
 21
17.613499116424411
 31
0.0
  0
LINE
  5
4106
  8
HIDDEN
 10
6.8024917680462726
 20
19.938685741090978
 30
0.0
 11
1.608491768046274
 21
19.938685741090978
 31
0.0
  0
LINE
  5
4107
  8
HIDDEN
 10
6.8624917680462678
 20
19.89368574109098
 30
0.0
 11
1.548491768046272
 21
19.89368574109098
 31
0.0
  0
LINE
  5
4108
  8
HIDDEN
 10
6.8024917680462726
 20
20.033685741090981
 30
0.0
 11
1.608491768046274
 21
20.033685741090981
 31
0.0
  0
CIRCLE
  5
4121
  8
OBJECT
 10
1.8274917680462719
 20
13.366685741090979
 30
0.0
 40
0.045
  0
CIRCLE
  5
4128
  8
HIDDEN
 10
1.8274917680462719
 20
19.350685741090981
 30
0.0
 40
0.045
  0
CIRCLE
  5
4129
  8
HIDDEN
 10
6.5834917680462706
 20
19.350685741090981
 30
0.0
 40
0.045
  0
CIRCLE
  5
412A
  8
OBJECT
 10
6.5834917680462723
 20
13.366685741090979
 30
0.0
 40
0.045
  0
LINE
  5
4131
  8
HIDDEN
 10
1.548491768046272
 20
19.89368574109098
 30
0.0
 11
1.548491768046272
 21
17.618047980066791
 31
0.0
  0
LINE
  5
4132
  8
OBJECT
 10
6.8624917680462749
 20
12.82368574109098
 30
0.0
 11
6.8624917680462723
 21
17.598355767903868
 31
0.0
  0
POLYLINE
  5
4133
  8
HIDDEN
 66
     1
 10
0.0
 20
0.0
 30
0.0
  0
VERTEX
  5
5D19
  8
HIDDEN
 10
6.8024917680462726
 20
19.873685741090981
 30
0.0
  0
VERTEX
  5
5D1A
  8
HIDDEN
 10
6.8529634380598159
 20
19.873685741090981
 30
0.0
  0
VERTEX
  5
5D1B
  8
HIDDEN
 10
6.8529634380598159
 20
17.59853891412833
 30
0.0
  0
SEQEND
  5
5D1C
  8
HIDDEN
  0
POLYLINE
  5
4134
  8
HIDDEN
 66
     1
 10
0.0
 20
0.0
 30
0.0
  0
VERTEX
  5
5D1D
  8
HIDDEN
 10
1.608491768046274
 20
19.873685741090981
 30
0.0
  0
VERTEX
  5
5D1E
  8
HIDDEN
 10
1.558020098032727
 20
19.873685741090981
 30
0.0
  0
VERTEX
  5
5D1F
  8
HIDDEN
 10
1.558020098032727
 20
17.617104624903401
 30
0.0
  0
SEQEND
  5
5D20
  8
HIDDEN
  0
POLYLINE
  5
4137
  8
HIDDEN
 66
     1
 10
0.0
 20
0.0
 30
0.0
  0
VERTEX
  5
5D21
  8
HIDDEN
 10
1.606612546173984
 20
8.6807344840616931
 30
0.0
  0
VERTEX
  5
5D22
  8
HIDDEN
 10
1.6020530693763599
 20
8.7677344840616946
 30
0.0
  0
VERTEX
  5
5D23
  8
HIDDEN
 10
1.558020098032727
 20
8.7677344840616946
 30
0.0
  0
VERTEX
  5
5D24
  8
HIDDEN
 10
1.558020098032727
 20
8.6807344840616931
 30
0.0
  0
SEQEND
  5
5D25
  8
HIDDEN
  0
POLYLINE
  5
4138
  8
HIDDEN
 66
     1
 10
0.0
 20
0.0
 30
0.0
  0
VERTEX
  5
5D26
  8
HIDDEN
 10
1.548491768046272
 20
8.6807344840616931
 30
0.0
  0
VERTEX
  5
5D27
  8
HIDDEN
 10
1.548491768046272
 20
8.7707344840617019
 30
0.0
  0
VERTEX
  5
5D28
  8
HIDDEN
 10
1.613373149701498
 20
8.7707344840617019
 30
0.0
  0
SEQEND
  5
5D29
  8
HIDDEN
  0
POLYLINE
  5
4139
  8
HIDDEN
 66
     1
 10
0.0
 20
0.0
 30
0.0
  0
VERTEX
  5
5D2A
  8
HIDDEN
 10
1.6969803390081379
 20
9.328734484061691
 30
0.0
  0
VERTEX
  5
5D2B
  8
HIDDEN
 10
1.663491768046274
 20
8.6897344840616917
 30
0.0
  0
VERTEX
  5
5D2C
  8
HIDDEN
 10
1.609128119579573
 20
8.6897344840616917
 30
0.0
  0
SEQEND
  5
5D2D
  8
HIDDEN
  0
POLYLINE
  5
413A
  8
HIDDEN
 66
     1
 10
0.0
 20
0.0
 30
0.0
  0
VERTEX
  5
5D2E
  8
HIDDEN
 10
1.609128119579573
 20
8.6327344840616931
 30
0.0
  0
VERTEX
  5
5D2F
  8
HIDDEN
 10
1.663491768046274
 20
8.6327344840616931
 30
0.0
  0
VERTEX
  5
5D30
  8
HIDDEN
 10
1.6928401244447779
 20
7.9937344840616928
 30
0.0
  0
SEQEND
  5
5D31
  8
HIDDEN
  0
POLYLINE
  5
413B
  8
HIDDEN
 66
     1
 10
0.0
 20
0.0
 30
0.0
  0
VERTEX
  5
5D32
  8
HIDDEN
 10
2.2664917680462722
 20
7.9937344840616928
 30
0.0
  0
VERTEX
  5
5D33
  8
HIDDEN
 10
2.2664917680462722
 20
8.1497344840616961
 30
0.0
  0
VERTEX
  5
5D34
  8
HIDDEN
 10
2.4824917680462728
 20
8.1497344840616961
 30
0.0
  0
VERTEX
  5
5D35
  8
HIDDEN
 10
2.4824917680462728
 20
7.9937344840616928
 30
0.0
  0
SEQEND
  5
5D36
  8
HIDDEN
  0
LINE
  5
413C
  8
HIDDEN
 10
2.3294917680462741
 20
8.1497344840616961
 30
0.0
 11
2.3294917680462741
 21
7.9937344840616928
 31
0.0
  0
LINE
  5
413D
  8
HIDDEN
 10
2.419491768046274
 20
8.1497344840616961
 30
0.0
 11
2.419491768046274
 21
7.9937344840616928
 31
0.0
  0
POLYLINE
  5
413E
  8
HIDDEN
 66
     1
 10
0.0
 20
0.0
 30
0.0
  0
VERTEX
  5
5D37
  8
HIDDEN
 10
5.9284917680462712
 20
7.9937344840616928
 30
0.0
  0
VERTEX
  5
5D38
  8
HIDDEN
 10
5.9284917680462712
 20
8.1497344840616961
 30
0.0
  0
VERTEX
  5
5D39
  8
HIDDEN
 10
6.1444917680462723
 20
8.1497344840616961
 30
0.0
  0
VERTEX
  5
5D3A
  8
HIDDEN
 10
6.1444917680462723
 20
7.9937344840616928
 30
0.0
  0
SEQEND
  5
5D3B
  8
HIDDEN
  0
LINE
  5
413F
  8
HIDDEN
 10
5.9914917680462727
 20
8.1497344840616961
 30
0.0
 11
5.9914917680462727
 21
7.9937344840616928
 31
0.0
  0
LINE
  5
4140
  8
HIDDEN
 10
6.081491768046269
 20
8.1497344840616961
 30
0.0
 11
6.081491768046269
 21
7.9937344840616928
 31
0.0
  0
POLYLINE
  5
4141
  8
HIDDEN
 66
     1
 10
0.0
 20
0.0
 30
0.0
  0
VERTEX
  5
5D3C
  8
HIDDEN
 10
2.2664917680462722
 20
9.328734484061691
 30
0.0
  0
VERTEX
  5
5D3D
  8
HIDDEN
 10
2.2664917680462722
 20
9.1727344840616922
 30
0.0
  0
VERTEX
  5
5D3E
  8
HIDDEN
 10
2.4824917680462728
 20
9.1727344840616922
 30
0.0
  0
VERTEX
  5
5D3F
  8
HIDDEN
 10
2.4824917680462728
 20
9.328734484061691
 30
0.0
  0
SEQEND
  5
5D40
  8
HIDDEN
  0
LINE
  5
4142
  8
HIDDEN
 10
2.3294917680462741
 20
9.1727344840616922
 30
0.0
 11
2.3294917680462741
 21
9.328734484061691
 31
0.0
  0
LINE
  5
4143
  8
HIDDEN
 10
2.419491768046274
 20
9.1727344840616922
 30
0.0
 11
2.419491768046274
 21
9.328734484061691
 31
0.0
  0
POLYLINE
  5
4144
  8
HIDDEN
 66
     1
 10
0.0
 20
0.0
 30
0.0
  0
VERTEX
  5
5D41
  8
HIDDEN
 10
5.9284917680462712
 20
9.328734484061691
 30
0.0
  0
VERTEX
  5
5D42
  8
HIDDEN
 10
5.9284917680462712
 20
9.1727344840616922
 30
0.0
  0
VERTEX
  5
5D43
  8
HIDDEN
 10
6.1444917680462723
 20
9.1727344840616922
 30
0.0
  0
VERTEX
  5
5D44
  8
HIDDEN
 10
6.1444917680462723
 20
9.328734484061691
 30
0.0
  0
SEQEND
  5
5D45
  8
HIDDEN
  0
LINE
  5
4145
  8
HIDDEN
 10
5.9914917680462727
 20
9.1727344840616922
 30
0.0
 11
5.9914917680462727
 21
9.328734484061691
 31
0.0
  0
LINE
  5
4146
  8
HIDDEN
 10
6.081491768046269
 20
9.1727344840616922
 30
0.0
 11
6.081491768046269
 21
9.328734484061691
 31
0.0
  0
LINE
  5
4147
  8
HIDDEN
 10
1.8924917680462729
 20
8.063734484061694
 30
0.0
 11
1.8924917680462729
 21
8.6577344840616917
 31
0.0
  0
LINE
  5
4148
  8
HIDDEN
 10
1.7624917680462739
 20
8.063734484061694
 30
0.0
 11
1.7624917680462739
 21
8.6577344840616917
 31
0.0
  0
POLYLINE
  5
4149
  8
HIDDEN
 66
     1
 10
0.0
 20
0.0
 30
0.0
  0
VERTEX
  5
5D46
  8
HIDDEN
 10
1.679491768046272
 20
7.9937344840616928
 30
0.0
  0
VERTEX
  5
5D47
  8
HIDDEN
 10
1.679491768046272
 20
8.6577344840616917
 30
0.0
  0
VERTEX
  5
5D48
  8
HIDDEN
 10
1.9754917680462709
 20
8.6577344840616917
 30
0.0
  0
VERTEX
  5
5D49
  8
HIDDEN
 10
1.9754917680462709
 20
7.9937344840616928
 30
0.0
  0
SEQEND
  5
5D4A
  8
HIDDEN
  0
POLYLINE
  5
414A
  8
HIDDEN
 66
     1
 10
0.0
 20
0.0
 30
0.0
  0
VERTEX
  5
5D4B
  8
HIDDEN
 10
1.9424917680462741
 20
7.8737344840616919
 30
0.0
  0
VERTEX
  5
5D4C
  8
HIDDEN
 10
1.9424917680462741
 20
8.063734484061694
 30
0.0
  0
VERTEX
  5
5D4D
  8
HIDDEN
 10
1.712491768046273
 20
8.063734484061694
 30
0.0
  0
VERTEX
  5
5D4E
  8
HIDDEN
 10
1.712491768046273
 20
7.8737344840616919
 30
0.0
  0
SEQEND
  5
5D4F
  8
HIDDEN
  0
POLYLINE
  5
414B
  8
HIDDEN
 66
     1
 10
0.0
 20
0.0
 30
0.0
  0
VERTEX
  5
5D50
  8
HIDDEN
 10
1.679491768046272
 20
9.328734484061691
 30
0.0
  0
VERTEX
  5
5D51
  8
HIDDEN
 10
1.679491768046272
 20
8.6647344840616931
 30
0.0
  0
VERTEX
  5
5D52
  8
HIDDEN
 10
1.9754917680462709
 20
8.6647344840616931
 30
0.0
  0
VERTEX
  5
5D53
  8
HIDDEN
 10
1.9754917680462709
 20
9.328734484061691
 30
0.0
  0
SEQEND
  5
5D54
  8
HIDDEN
  0
POLYLINE
  5
414C
  8
HIDDEN
 66
     1
 10
0.0
 20
0.0
 30
0.0
  0
VERTEX
  5
5D55
  8
HIDDEN
 10
1.8724917680462729
 20
8.6647344840616931
 30
0.0
  0
VERTEX
  5
5D56
  8
HIDDEN
 10
1.8724917680462729
 20
9.3827344840616931
 30
0.0
  0
VERTEX
  5
5D57
  8
HIDDEN
 10
1.7824917680462731
 20
9.3827344840616931
 30
0.0
  0
VERTEX
  5
5D58
  8
HIDDEN
 10
1.7824917680462731
 20
8.6647344840616931
 30
0.0
  0
SEQEND
  5
5D59
  8
HIDDEN
  0
POLYLINE
  5
414D
  8
OBJECT
 66
     1
 10
0.0
 20
0.0
 30
0.0
 70
     1
  0
VERTEX
  5
5D5A
  8
OBJECT
 10
1.6464917680462721
 20
4.432492489100361
 30
0.0
  0
VERTEX
  5
5D5B
  8
OBJECT
 10
6.7644917680462724
 20
4.432492489100361
 30
0.0
 42
0.4142135623730951
  0
VERTEX
  5
5D5C
  8
OBJECT
 10
6.7954917680462712
 20
4.4634924891003598
 30
0.0
  0
VERTEX
  5
5D5D
  8
OBJECT
 10
6.7954917680462712
 20
5.7574924891003612
 30
0.0
 42
0.4142135623730946
  0
VERTEX
  5
5D5E
  8
OBJECT
 10
6.7644917680462724
 20
5.7884924891003626
 30
0.0
  0
VERTEX
  5
5D5F
  8
OBJECT
 10
1.6464917680462721
 20
5.7884924891003626
 30
0.0
 42
0.4142135623730951
  0
VERTEX
  5
5D60
  8
OBJECT
 10
1.615491768046273
 20
5.7574924891003612
 30
0.0
  0
VERTEX
  5
5D61
  8
OBJECT
 10
1.615491768046273
 20
4.4634924891003598
 30
0.0
 42
0.4142135623730953
  0
SEQEND
  5
5D62
  8
OBJECT
  0
LINE
  5
4150
  8
OBJECT
 10
1.5209932075214561
 20
9.3008988932355905
 30
0.0
 11
1.488491768046273
 21
8.6807344840616931
 31
0.0
  0
LINE
  5
4151
  8
OBJECT
 10
1.488491768046273
 20
8.6807344840616931
 30
0.0
 11
1.6687387903258999
 21
8.6807344840616913
 31
0.0
  0
LINE
  5
4152
  8
OBJECT
 10
1.5209932075214561
 20
8.0215700748877943
 30
0.0
 11
1.488491768046273
 21
8.6417344840616934
 31
0.0
  0
LINE
  5
4153
  8
OBJECT
 10
1.488491768046273
 20
8.6417344840616934
 30
0.0
 11
1.6687387903258999
 21
8.6417344840616934
 31
0.0
  0
LINE
  5
4155
  8
OBJECT
 10
1.6687387903258999
 20
8.6417344840616934
 30
0.0
 11
1.6687387903258999
 21
8.6807344840616913
 31
0.0
  0
LINE
  5
4156
  8
OBJECT
 10
6.7114289715482149
 20
8.0537344840616925
 30
0.0
 11
1.699554564544328
 21
8.0537344840616925
 31
0.0
  0
LINE
  5
4157
  8
OBJECT
 10
1.699554564544328
 20
8.0537344840616925
 30
0.0
 11
1.6687387903258999
 21
8.6417344840616934
 31
0.0
  0
LINE
  5
4158
  8
OBJECT
 10
1.699554564544328
 20
9.2687344840616923
 30
0.0
 11
1.6687387903258999
 21
8.6807344840616913
 31
0.0
  0
LINE
  5
4159
  8
OBJECT
 10
6.711428971548222
 20
9.2687344840616923
 30
0.0
 11
1.699554564544328
 21
9.2687344840616923
 31
0.0
  0
LINE
  5
415A
  8
OBJECT
 10
6.7342041211493751
 20
9.318734484061693
 30
0.0
 11
1.676779414943169
 21
9.318734484061693
 31
0.0
  0
LINE
  5
415B
  8
OBJECT
 10
1.65081504703955
 20
9.29409521892401
 30
0.0
 11
1.618670173026004
 21
8.6807344840616931
 31
0.0
  0
LINE
  5
415C
  8
OBJECT
 10
1.65081504703955
 20
8.0283737491993747
 30
0.0
 11
1.618670173026004
 21
8.6417344840616934
 31
0.0
  0
LINE
  5
415D
  8
OBJECT
 10
6.7342041211493751
 20
8.0037344840616917
 30
0.0
 11
1.676779414943169
 21
8.0037344840616917
 31
0.0
  0
LINE
  5
415E
  8
HIDDEN
 10
1.6426166905414341
 20
7.9937344840616928
 30
0.0
 11
1.6086564495660229
 21
8.6417344840616934
 31
0.0
  0
LINE
  5
415F
  8
HIDDEN
 10
1.6426166905414341
 20
9.328734484061691
 30
0.0
 11
1.6086564495660229
 21
8.6807344840616931
 31
0.0
  0
LINE
  5
4160
  8
HIDDEN
 10
6.768366845551113
 20
7.9937344840616928
 30
0.0
 11
6.8023270865265237
 21
8.6417344840616934
 31
0.0
  0
LINE
  5
4161
  8
OBJECT
 10
6.7601684890529929
 20
8.0283737491993747
 30
0.0
 11
6.7923133630665404
 21
8.6417344840616934
 31
0.0
  0
LINE
  5
4162
  8
OBJECT
 10
6.7114289715482149
 20
8.0537344840616925
 30
0.0
 11
6.742244745766647
 21
8.6417344840616934
 31
0.0
  0
LINE
  5
4163
  8
OBJECT
 10
6.8899903285710868
 20
8.0215700748877943
 30
0.0
 11
6.9224917680462701
 21
8.6417344840616934
 31
0.0
  0
POLYLINE
  5
4164
  8
HIDDEN
 66
     1
 10
0.0
 20
0.0
 30
0.0
  0
VERTEX
  5
5D63
  8
HIDDEN
 10
6.7314917680462747
 20
7.9937344840616928
 30
0.0
  0
VERTEX
  5
5D64
  8
HIDDEN
 10
6.7314917680462747
 20
8.6577344840616917
 30
0.0
  0
VERTEX
  5
5D65
  8
HIDDEN
 10
6.4354917680462762
 20
8.6577344840616917
 30
0.0
  0
VERTEX
  5
5D66
  8
HIDDEN
 10
6.4354917680462762
 20
7.9937344840616928
 30
0.0
  0
SEQEND
  5
5D67
  8
HIDDEN
  0
LINE
  5
4165
  8
HIDDEN
 10
6.6484917680462701
 20
8.063734484061694
 30
0.0
 11
6.6484917680462701
 21
8.6577344840616917
 31
0.0
  0
LINE
  5
4166
  8
HIDDEN
 10
6.5184917680462737
 20
8.063734484061694
 30
0.0
 11
6.5184917680462737
 21
8.6577344840616917
 31
0.0
  0
POLYLINE
  5
4167
  8
HIDDEN
 66
     1
 10
0.0
 20
0.0
 30
0.0
  0
VERTEX
  5
5D68
  8
HIDDEN
 10
6.8018554165129776
 20
8.6327344840616931
 30
0.0
  0
VERTEX
  5
5D69
  8
HIDDEN
 10
6.7474917680462729
 20
8.6327344840616931
 30
0.0
  0
VERTEX
  5
5D6A
  8
HIDDEN
 10
6.7140031970844092
 20
7.9937344840616928
 30
0.0
  0
SEQEND
  5
5D6B
  8
HIDDEN
  0
POLYLINE
  5
4168
  8
HIDDEN
 66
     1
 10
0.0
 20
0.0
 30
0.0
  0
VERTEX
  5
5D6C
  8
HIDDEN
 10
6.4684917680462704
 20
7.8737344840616919
 30
0.0
  0
VERTEX
  5
5D6D
  8
HIDDEN
 10
6.4684917680462704
 20
8.063734484061694
 30
0.0
  0
VERTEX
  5
5D6E
  8
HIDDEN
 10
6.6984917680462743
 20
8.063734484061694
 30
0.0
  0
VERTEX
  5
5D6F
  8
HIDDEN
 10
6.6984917680462743
 20
7.8737344840616919
 30
0.0
  0
SEQEND
  5
5D70
  8
HIDDEN
  0
LINE
  5
4169
  8
HIDDEN
 10
6.768366845551113
 20
9.3287344840616946
 30
0.0
 11
6.8023270865265237
 21
8.6807344840616931
 31
0.0
  0
LINE
  5
416A
  8
OBJECT
 10
6.711428971548222
 20
9.2687344840616923
 30
0.0
 11
6.742244745766647
 21
8.6807344840616913
 31
0.0
  0
LINE
  5
416B
  8
OBJECT
 10
6.7601684890529929
 20
9.29409521892401
 30
0.0
 11
6.7923133630665404
 21
8.6807344840616931
 31
0.0
  0
LINE
  5
416C
  8
OBJECT
 10
6.8899903285710868
 20
9.300898893235594
 30
0.0
 11
6.9224917680462701
 21
8.6807344840616931
 31
0.0
  0
POLYLINE
  5
416D
  8
HIDDEN
 66
     1
 10
0.0
 20
0.0
 30
0.0
  0
VERTEX
  5
5D71
  8
HIDDEN
 10
6.5384917680462697
 20
8.6647344840616931
 30
0.0
  0
VERTEX
  5
5D72
  8
HIDDEN
 10
6.5384917680462697
 20
9.3827344840616931
 30
0.0
  0
VERTEX
  5
5D73
  8
HIDDEN
 10
6.628491768046274
 20
9.3827344840616931
 30
0.0
  0
VERTEX
  5
5D74
  8
HIDDEN
 10
6.628491768046274
 20
8.6647344840616931
 30
0.0
  0
SEQEND
  5
5D75
  8
HIDDEN
  0
POLYLINE
  5
416E
  8
HIDDEN
 66
     1
 10
0.0
 20
0.0
 30
0.0
  0
VERTEX
  5
5D76
  8
HIDDEN
 10
6.7314917680462747
 20
9.3287344840616946
 30
0.0
  0
VERTEX
  5
5D77
  8
HIDDEN
 10
6.7314917680462747
 20
8.6647344840616931
 30
0.0
  0
VERTEX
  5
5D78
  8
HIDDEN
 10
6.4354917680462762
 20
8.6647344840616931
 30
0.0
  0
VERTEX
  5
5D79
  8
HIDDEN
 10
6.4354917680462762
 20
9.3287344840616946
 30
0.0
  0
SEQEND
  5
5D7A
  8
HIDDEN
  0
POLYLINE
  5
416F
  8
HIDDEN
 66
     1
 10
0.0
 20
0.0
 30
0.0
  0
VERTEX
  5
5D7B
  8
HIDDEN
 10
6.7140031970844092
 20
9.3287344840616946
 30
0.0
  0
VERTEX
  5
5D7C
  8
HIDDEN
 10
6.7474917680462729
 20
8.6897344840616917
 30
0.0
  0
VERTEX
  5
5D7D
  8
HIDDEN
 10
6.8018554165129776
 20
8.6897344840616917
 30
0.0
  0
SEQEND
  5
5D7E
  8
HIDDEN
  0
LINE
  5
4170
  8
OBJECT
 10
6.9224917680462701
 20
8.6417344840616934
 30
0.0
 11
6.742244745766647
 21
8.6417344840616934
 31
0.0
  0
LINE
  5
4171
  8
OBJECT
 10
6.9224917680462701
 20
8.6807344840616931
 30
0.0
 11
6.742244745766647
 21
8.6807344840616913
 31
0.0
  0
POLYLINE
  5
4172
  8
HIDDEN
 66
     1
 10
0.0
 20
0.0
 30
0.0
  0
VERTEX
  5
5D7F
  8
HIDDEN
 10
6.8624917680462678
 20
8.6417344840616934
 30
0.0
  0
VERTEX
  5
5D80
  8
HIDDEN
 10
6.8624917680462678
 20
8.5517344840616865
 30
0.0
  0
VERTEX
  5
5D81
  8
HIDDEN
 10
6.7976103863910486
 20
8.5517344840616865
 30
0.0
  0
SEQEND
  5
5D82
  8
HIDDEN
  0
POLYLINE
  5
4173
  8
HIDDEN
 66
     1
 10
0.0
 20
0.0
 30
0.0
  0
VERTEX
  5
5D83
  8
HIDDEN
 10
6.80437098991856
 20
8.6417344840616934
 30
0.0
  0
VERTEX
  5
5D84
  8
HIDDEN
 10
6.8089304667161841
 20
8.5547344840616937
 30
0.0
  0
VERTEX
  5
5D85
  8
HIDDEN
 10
6.8529634380598159
 20
8.5547344840616937
 30
0.0
  0
VERTEX
  5
5D86
  8
HIDDEN
 10
6.8529634380598159
 20
8.6417344840616934
 30
0.0
  0
SEQEND
  5
5D87
  8
HIDDEN
  0
LINE
  5
4174
  8
OBJECT
 10
6.9024917680462741
 20
8.6807344840616913
 30
0.0
 11
6.9024917680462741
 21
8.6417344840616934
 31
0.0
  0
LINE
  5
4175
  8
OBJECT
 10
6.742244745766647
 20
8.6417344840616934
 30
0.0
 11
6.742244745766647
 21
8.6807344840616913
 31
0.0
  0
LINE
  5
417C
  8
HIDDEN
 10
1.668491768046283
 20
19.938685741090978
 30
0.0
 11
1.668491768046283
 21
19.89368574109098
 31
0.0
  0
LINE
  5
417D
  8
HIDDEN
 10
1.668491768046283
 20
20.033685741090981
 30
0.0
 11
1.6184917680462829
 21
20.098685741090978
 31
0.0
  0
LINE
  5
417E
  8
OBJECT
 10
1.668491768046273
 20
12.77868574109098
 30
0.0
 11
1.668491768046273
 21
12.82368574109098
 31
0.0
  0
LINE
  5
417F
  8
OBJECT
 10
1.668491768046273
 20
12.683685741090979
 30
0.0
 11
1.618491768046272
 21
12.61868574109098
 31
0.0
  0
LINE
  5
4180
  8
HIDDEN
 10
6.7424917680462713
 20
19.938685741090978
 30
0.0
 11
6.7424917680462713
 21
19.89368574109098
 31
0.0
  0
LINE
  5
4181
  8
HIDDEN
 10
6.7424917680462713
 20
20.033685741090981
 30
0.0
 11
6.7924917680462746
 21
20.098685741090978
 31
0.0
  0
LINE
  5
4182
  8
OBJECT
 10
6.7424917680462642
 20
12.77868574109098
 30
0.0
 11
6.7424917680462642
 21
12.82368574109098
 31
0.0
  0
LINE
  5
4183
  8
OBJECT
 10
6.7424917680462642
 20
12.683685741090979
 30
0.0
 11
6.7924917680462613
 21
12.61868574109098
 31
0.0
  0
LINE
  5
4184
  8
OBJECT
 10
1.676779414943169
 20
9.448734484061692
 30
0.0
 11
6.7342041211493751
 21
9.4487344840616956
 31
0.0
  0
LINE
  5
4185
  8
OBJECT
 10
1.676779414943169
 20
7.8737344840616919
 30
0.0
 11
6.7342041211493751
 21
7.8737344840616919
 31
0.0
  0
ARC
  5
4186
  8
OBJECT
 10
1.676779414943169
 20
8.0297344840616915
 30
0.0
 40
0.156
 50
183.00000000000011
 51
270.0
  0
ARC
  5
4187
  8
OBJECT
 10
1.676779414943169
 20
9.2927344840616932
 30
0.0
 40
0.156
 50
90.0
 51
176.99999999999989
  0
ARC
  5
4188
  8
OBJECT
 10
6.7342041211493751
 20
9.2927344840616932
 30
0.0
 40
0.156
 50
2.9999999999998912
 51
90.0
  0
ARC
  5
4189
  8
OBJECT
 10
6.7342041211493751
 20
8.0297344840616951
 30
0.0
 40
0.156
 50
270.0
 51
357.0
  0
ARC
  5
418A
  8
OBJECT
 10
1.676779414943169
 20
9.2927344840616932
 30
0.0
 40
0.026
 50
90.0
 51
176.99999999999989
  0
ARC
  5
418B
  8
OBJECT
 10
1.676779414943169
 20
8.0297344840616915
 30
0.0
 40
0.026
 50
183.00000000000011
 51
270.0
  0
ARC
  5
418C
  8
OBJECT
 10
6.7342041211493751
 20
9.2927344840616932
 30
0.0
 40
0.026
 50
3.000000000000095
 51
90.0
  0
ARC
  5
418D
  8
OBJECT
 10
6.7342041211493751
 20
8.0297344840616915
 30
0.0
 40
0.026
 50
270.0
 51
356.99999999999977
  0
LINE
  5
418E
  8
OBJECT
 10
1.699554564544328
 20
9.2687344840616923
 30
0.0
 11
1.6577924166772779
 21
9.3104966319287428
 31
0.0
  0
LINE
  5
418F
  8
OBJECT
 10
1.699554564544328
 20
8.0537344840616925
 30
0.0
 11
1.6577924166772779
 21
8.0119723361946402
 31
0.0
  0
LINE
  5
4190
  8
OBJECT
 10
6.7114289715482149
 20
9.2687344840616923
 30
0.0
 11
6.753191119415269
 21
9.3104966319287428
 31
0.0
  0
LINE
  5
4191
  8
OBJECT
 10
6.7114289715482149
 20
8.0537344840616925
 30
0.0
 11
6.753191119415269
 21
8.0119723361946402
 31
0.0
  0
LINE
  5
4192
  8
HIDDEN
 10
1.6426166905414341
 20
7.9937344840616928
 30
0.0
 11
6.768366845551113
 21
7.9937344840616928
 31
0.0
  0
LINE
  5
4193
  8
HIDDEN
 10
1.6426166905414341
 20
9.328734484061691
 30
0.0
 11
6.768366845551113
 21
9.3287344840616946
 31
0.0
  0
CIRCLE
  5
4194
  8
OBJECT
 10
2.4454917680462742
 20
15.452685741090979
 30
0.0
 40
0.045
  0
CIRCLE
  5
4195
  8
OBJECT
 10
2.4454917680462742
 20
15.452685741090979
 30
0.0
 40
0.108
  0
CIRCLE
  5
4196
  8
OBJECT
 10
5.9654917680462702
 20
15.452685741090979
 30
0.0
 40
0.045
  0
CIRCLE
  5
4197
  8
OBJECT
 10
5.9654917680462702
 20
15.452685741090979
 30
0.0
 40
0.108
  0
CIRCLE
  5
4198
  8
OBJECT
 10
2.4454917680462742
 20
17.264685741090979
 30
0.0
 40
0.108
  0
CIRCLE
  5
4199
  8
OBJECT
 10
2.4454917680462742
 20
17.264685741090979
 30
0.0
 40
0.045
  0
CIRCLE
  5
419A
  8
OBJECT
 10
5.9654917680462702
 20
17.264685741090979
 30
0.0
 40
0.108
  0
CIRCLE
  5
419B
  8
OBJECT
 10
5.9654917680462702
 20
17.264685741090979
 30
0.0
 40
0.045
  0
LINE
  5
419C
  8
OBJECT
 10
1.488491768046273
 20
18.648685741090979
 30
0.0
 11
1.988491768046287
 21
18.648685741090979
 31
0.0
  0
LINE
  5
419D
  8
OBJECT
 10
1.488491768046273
 20
18.768685741090991
 30
0.0
 11
1.988491768046287
 21
18.768685741090991
 31
0.0
  0
LINE
  5
419E
  8
OBJECT
 10
1.5054917680462689
 20
18.768685741090991
 30
0.0
 11
1.5054917680462689
 21
18.648685741090979
 31
0.0
  0
LINE
  5
419F
  8
OBJECT
 10
1.988491768046287
 20
18.648685741090979
 30
0.0
 11
1.988491768046287
 21
18.768685741090991
 31
0.0
  0
LINE
  5
41A0
  8
OBJECT
 10
1.488491768046273
 20
18.883685741090979
 30
0.0
 11
1.988491768046287
 21
18.883685741090979
 31
0.0
  0
LINE
  5
41A1
  8
OBJECT
 10
1.488491768046273
 20
19.00368574109099
 30
0.0
 11
1.988491768046287
 21
19.00368574109099
 31
0.0
  0
LINE
  5
41A2
  8
OBJECT
 10
1.5054917680462689
 20
19.00368574109099
 30
0.0
 11
1.5054917680462689
 21
18.883685741090979
 31
0.0
  0
LINE
  5
41A3
  8
OBJECT
 10
1.988491768046287
 20
18.883685741090979
 30
0.0
 11
1.988491768046287
 21
19.00368574109099
 31
0.0
  0
LINE
  5
41A4
  8
OBJECT
 10
6.4224917680462852
 20
18.76868574109098
 30
0.0
 11
6.9224917680462701
 21
18.76868574109098
 31
0.0
  0
LINE
  5
41A5
  8
OBJECT
 10
6.4224917680462852
 20
18.648685741090969
 30
0.0
 11
6.9224917680462701
 21
18.648685741090969
 31
0.0
  0
LINE
  5
41A6
  8
OBJECT
 10
6.4224917680462852
 20
18.648685741090979
 30
0.0
 11
6.4224917680462852
 21
18.76868574109098
 31
0.0
  0
LINE
  5
41A7
  8
OBJECT
 10
6.9054917680462751
 20
18.648685741090969
 30
0.0
 11
6.9054917680462751
 21
18.76868574109098
 31
0.0
  0
LINE
  5
41A8
  8
OBJECT
 10
6.4224917680462852
 20
19.00368574109098
 30
0.0
 11
6.9224917680462701
 21
19.00368574109098
 31
0.0
  0
LINE
  5
41A9
  8
OBJECT
 10
6.4224917680462852
 20
18.883685741090972
 30
0.0
 11
6.9224917680462701
 21
18.883685741090972
 31
0.0
  0
LINE
  5
41AA
  8
OBJECT
 10
6.4224917680462852
 20
18.883685741090979
 30
0.0
 11
6.4224917680462852
 21
19.00368574109098
 31
0.0
  0
LINE
  5
41AB
  8
OBJECT
 10
6.9054917680462751
 20
18.883685741090972
 30
0.0
 11
6.9054917680462751
 21
19.00368574109098
 31
0.0
  0
POLYLINE
  5
41AC
  8
OBJECT
 66
     1
 10
0.0
 20
0.0
 30
0.0
  0
VERTEX
  5
5D88
  8
OBJECT
 10
1.608491768046274
 20
15.42268574109098
 30
0.0
  0
VERTEX
  5
5D89
  8
OBJECT
 10
1.663491768046274
 20
15.42268574109098
 30
0.0
  0
VERTEX
  5
5D8A
  8
OBJECT
 10
1.663491768046274
 20
15.482685741090981
 30
0.0
  0
VERTEX
  5
5D8B
  8
OBJECT
 10
1.608491768046274
 20
15.482685741090981
 30
0.0
  0
SEQEND
  5
5D8C
  8
OBJECT
  0
POLYLINE
  5
41AD
  8
OBJECT
 66
     1
 10
0.0
 20
0.0
 30
0.0
  0
VERTEX
  5
5D8D
  8
OBJECT
 10
1.608491768046274
 20
15.64068574109098
 30
0.0
  0
VERTEX
  5
5D8E
  8
OBJECT
 10
1.663491768046274
 20
15.64068574109098
 30
0.0
  0
VERTEX
  5
5D8F
  8
OBJECT
 10
1.663491768046274
 20
15.58068574109098
 30
0.0
  0
VERTEX
  5
5D90
  8
OBJECT
 10
1.608491768046274
 20
15.58068574109098
 30
0.0
  0
SEQEND
  5
5D91
  8
OBJECT
  0
POLYLINE
  5
41AE
  8
OBJECT
 66
     1
 10
0.0
 20
0.0
 30
0.0
  0
VERTEX
  5
5D92
  8
OBJECT
 10
6.8024917680462726
 20
15.42268574109098
 30
0.0
  0
VERTEX
  5
5D93
  8
OBJECT
 10
6.7474917680462729
 20
15.42268574109098
 30
0.0
  0
VERTEX
  5
5D94
  8
OBJECT
 10
6.7474917680462729
 20
15.482685741090981
 30
0.0
  0
VERTEX
  5
5D95
  8
OBJECT
 10
6.8024917680462726
 20
15.482685741090981
 30
0.0
  0
SEQEND
  5
5D96
  8
OBJECT
  0
POLYLINE
  5
41AF
  8
OBJECT
 66
     1
 10
0.0
 20
0.0
 30
0.0
  0
VERTEX
  5
5D97
  8
OBJECT
 10
6.8024917680462726
 20
15.64068574109098
 30
0.0
  0
VERTEX
  5
5D98
  8
OBJECT
 10
6.7474917680462729
 20
15.64068574109098
 30
0.0
  0
VERTEX
  5
5D99
  8
OBJECT
 10
6.7474917680462729
 20
15.58068574109098
 30
0.0
  0
VERTEX
  5
5D9A
  8
OBJECT
 10
6.8024917680462726
 20
15.58068574109098
 30
0.0
  0
SEQEND
  5
5D9B
  8
OBJECT
  0
POLYLINE
  5
41B0
  8
HIDDEN
 66
     1
 10
0.0
 20
0.0
 30
0.0
  0
VERTEX
  5
5D9C
  8
HIDDEN
 10
1.608491768046274
 20
18.73068574109098
 30
0.0
  0
VERTEX
  5
5D9D
  8
HIDDEN
 10
1.663491768046274
 20
18.73068574109098
 30
0.0
  0
VERTEX
  5
5D9E
  8
HIDDEN
 10
1.663491768046274
 20
18.790685741090979
 30
0.0
  0
VERTEX
  5
5D9F
  8
HIDDEN
 10
1.608491768046274
 20
18.790685741090979
 30
0.0
  0
SEQEND
  5
5DA0
  8
HIDDEN
  0
POLYLINE
  5
41B1
  8
HIDDEN
 66
     1
 10
0.0
 20
0.0
 30
0.0
  0
VERTEX
  5
5DA1
  8
HIDDEN
 10
1.608491768046274
 20
18.94868574109098
 30
0.0
  0
VERTEX
  5
5DA2
  8
HIDDEN
 10
1.663491768046274
 20
18.94868574109098
 30
0.0
  0
VERTEX
  5
5DA3
  8
HIDDEN
 10
1.663491768046274
 20
18.888685741090981
 30
0.0
  0
VERTEX
  5
5DA4
  8
HIDDEN
 10
1.608491768046274
 20
18.888685741090981
 30
0.0
  0
SEQEND
  5
5DA5
  8
HIDDEN
  0
POLYLINE
  5
41B2
  8
HIDDEN
 66
     1
 10
0.0
 20
0.0
 30
0.0
  0
VERTEX
  5
5DA6
  8
HIDDEN
 10
6.8024917680462726
 20
18.73068574109098
 30
0.0
  0
VERTEX
  5
5DA7
  8
HIDDEN
 10
6.7474917680462729
 20
18.73068574109098
 30
0.0
  0
VERTEX
  5
5DA8
  8
HIDDEN
 10
6.7474917680462729
 20
18.790685741090979
 30
0.0
  0
VERTEX
  5
5DA9
  8
HIDDEN
 10
6.8024917680462726
 20
18.790685741090979
 30
0.0
  0
SEQEND
  5
5DAA
  8
HIDDEN
  0
POLYLINE
  5
41B3
  8
HIDDEN
 66
     1
 10
0.0
 20
0.0
 30
0.0
  0
VERTEX
  5
5DAB
  8
HIDDEN
 10
6.8024917680462726
 20
18.94868574109098
 30
0.0
  0
VERTEX
  5
5DAC
  8
HIDDEN
 10
6.7474917680462729
 20
18.94868574109098
 30
0.0
  0
VERTEX
  5
5DAD
  8
HIDDEN
 10
6.7474917680462729
 20
18.888685741090981
 30
0.0
  0
VERTEX
  5
5DAE
  8
HIDDEN
 10
6.8024917680462726
 20
18.888685741090981
 30
0.0
  0
SEQEND
  5
5DAF
  8
HIDDEN
  0
POLYLINE
  5
41B4
  8
OBJECT
 66
     1
 10
0.0
 20
0.0
 30
0.0
  0
VERTEX
  5
5DB0
  8
OBJECT
 10
1.608491768046274
 20
13.98668574109098
 30
0.0
  0
VERTEX
  5
5DB1
  8
OBJECT
 10
1.663491768046274
 20
13.98668574109098
 30
0.0
  0
VERTEX
  5
5DB2
  8
OBJECT
 10
1.663491768046274
 20
13.92668574109098
 30
0.0
  0
VERTEX
  5
5DB3
  8
OBJECT
 10
1.608491768046274
 20
13.92668574109098
 30
0.0
  0
SEQEND
  5
5DB4
  8
OBJECT
  0
POLYLINE
  5
41B5
  8
OBJECT
 66
     1
 10
0.0
 20
0.0
 30
0.0
  0
VERTEX
  5
5DB5
  8
OBJECT
 10
1.608491768046274
 20
13.76868574109098
 30
0.0
  0
VERTEX
  5
5DB6
  8
OBJECT
 10
1.663491768046274
 20
13.76868574109098
 30
0.0
  0
VERTEX
  5
5DB7
  8
OBJECT
 10
1.663491768046274
 20
13.828685741090981
 30
0.0
  0
VERTEX
  5
5DB8
  8
OBJECT
 10
1.608491768046274
 20
13.828685741090981
 30
0.0
  0
SEQEND
  5
5DB9
  8
OBJECT
  0
POLYLINE
  5
41B6
  8
OBJECT
 66
     1
 10
0.0
 20
0.0
 30
0.0
  0
VERTEX
  5
5DBA
  8
OBJECT
 10
6.8024917680462726
 20
13.98668574109098
 30
0.0
  0
VERTEX
  5
5DBB
  8
OBJECT
 10
6.7474917680462729
 20
13.98668574109098
 30
0.0
  0
VERTEX
  5
5DBC
  8
OBJECT
 10
6.7474917680462729
 20
13.92668574109098
 30
0.0
  0
VERTEX
  5
5DBD
  8
OBJECT
 10
6.8024917680462726
 20
13.92668574109098
 30
0.0
  0
SEQEND
  5
5DBE
  8
OBJECT
  0
POLYLINE
  5
41B7
  8
OBJECT
 66
     1
 10
0.0
 20
0.0
 30
0.0
  0
VERTEX
  5
5DBF
  8
OBJECT
 10
6.8024917680462726
 20
13.76868574109098
 30
0.0
  0
VERTEX
  5
5DC0
  8
OBJECT
 10
6.7474917680462729
 20
13.76868574109098
 30
0.0
  0
VERTEX
  5
5DC1
  8
OBJECT
 10
6.7474917680462729
 20
13.828685741090981
 30
0.0
  0
VERTEX
  5
5DC2
  8
OBJECT
 10
6.8024917680462726
 20
13.828685741090981
 30
0.0
  0
SEQEND
  5
5DC3
  8
OBJECT
  0
LINE
  5
4353
  8
HIDDEN
 10
10.01067867141988
 20
12.683685741090979
 30
0.0
 11
11.368678671419881
 21
12.683685741090979
 31
0.0
  0
LINE
  5
4354
  8
HIDDEN
 10
10.01067867141988
 20
12.77868574109098
 30
0.0
 11
11.368678671419881
 21
12.77868574109098
 31
0.0
  0
LINE
  5
4355
  8
HIDDEN
 10
10.02217867141988
 20
12.82368574109098
 30
0.0
 11
11.357178671419881
 21
12.82368574109098
 31
0.0
  0
LINE
  5
4356
  8
HIDDEN
 10
10.02217867141988
 20
19.89368574109098
 30
0.0
 11
11.357178671419881
 21
19.89368574109098
 31
0.0
  0
LINE
  5
4357
  8
HIDDEN
 10
10.01067867141988
 20
19.938685741090978
 30
0.0
 11
11.368678671419881
 21
19.938685741090978
 31
0.0
  0
LINE
  5
4358
  8
HIDDEN
 10
10.01067867141988
 20
20.033685741090981
 30
0.0
 11
11.368678671419881
 21
20.033685741090981
 31
0.0
  0
LINE
  5
4359
  8
OBJECT
 10
9.9021786714198825
 20
20.098685741090978
 30
0.0
 11
11.477178671419869
 21
20.098685741090978
 31
0.0
  0
LINE
  5
435A
  8
OBJECT
 10
11.477178671419869
 20
12.61868574109098
 30
0.0
 11
9.9021786714198825
 21
12.61868574109098
 31
0.0
  0
LINE
  5
435B
  8
OBJECT
 10
11.477178671419869
 20
20.098685741090978
 30
0.0
 11
11.477178671419869
 21
12.61868574109098
 31
0.0
  0
LINE
  5
435C
  8
HIDDEN
 10
11.357178671419881
 20
19.89368574109098
 30
0.0
 11
11.357178671419881
 21
12.82368574109098
 31
0.0
  0
LINE
  5
435D
  8
OBJECT
 10
10.70917867141987
 20
12.61868574109098
 30
0.0
 11
10.70917867141989
 21
20.098685741090978
 31
0.0
  0
LINE
  5
435E
  8
OBJECT
 10
11.460178671419881
 20
13.170685741090979
 30
0.0
 11
11.460178671419881
 21
13.59868574109098
 31
0.0
  0
LINE
  5
435F
  8
OBJECT
 10
11.00917867141988
 20
13.170685741090979
 30
0.0
 11
11.00917867141988
 21
13.59868574109098
 31
0.0
  0
POLYLINE
  5
4360
  8
HIDDEN
 66
     1
 10
0.0
 20
0.0
 30
0.0
  0
VERTEX
  5
5DC4
  8
HIDDEN
 10
11.357178671419881
 20
13.218685741090979
 30
0.0
  0
VERTEX
  5
5DC5
  8
HIDDEN
 10
10.693178671419879
 20
13.218685741090979
 30
0.0
  0
VERTEX
  5
5DC6
  8
HIDDEN
 10
10.693178671419879
 20
13.514685741090981
 30
0.0
  0
VERTEX
  5
5DC7
  8
HIDDEN
 10
11.357178671419881
 20
13.514685741090981
 30
0.0
  0
SEQEND
  5
5DC8
  8
HIDDEN
  0
LINE
  5
4361
  8
OBJECT
 10
11.00917867141988
 20
13.170685741090979
 30
0.0
 11
11.477178671419869
 21
13.170685741090979
 31
0.0
  0
LINE
  5
4362
  8
OBJECT
 10
11.00917867141988
 20
13.170685741090979
 30
0.0
 11
11.477178671419869
 21
13.170685741090979
 31
0.0
  0
LINE
  5
4363
  8
HIDDEN
 10
11.29717867141988
 20
12.68368574109099
 30
0.0
 11
11.347178671419879
 21
12.61868574109098
 31
0.0
  0
LINE
  5
4364
  8
HIDDEN
 10
11.368678671419881
 20
12.77868574109098
 30
0.0
 11
11.368678671419881
 21
12.683685741090979
 31
0.0
  0
LINE
  5
4365
  8
HIDDEN
 10
11.29717867141988
 20
12.77868574109098
 30
0.0
 11
11.29717867141988
 21
12.823685741090991
 31
0.0
  0
LINE
  5
4366
  8
OBJECT
 10
11.460178671419881
 20
14.65368574109098
 30
0.0
 11
11.460178671419881
 21
14.773685741090979
 31
0.0
  0
LINE
  5
4367
  8
OBJECT
 10
11.00917867141988
 20
14.65368574109098
 30
0.0
 11
11.00917867141988
 21
14.773685741090979
 31
0.0
  0
LINE
  5
4368
  8
OBJECT
 10
11.00917867141988
 20
13.948685741090991
 30
0.0
 11
11.00917867141988
 21
14.068685741090979
 31
0.0
  0
LINE
  5
4369
  8
OBJECT
 10
11.460178671419881
 20
13.948685741090991
 30
0.0
 11
11.460178671419881
 21
14.068685741090979
 31
0.0
  0
POLYLINE
  5
436A
  8
HIDDEN
 66
     1
 10
0.0
 20
0.0
 30
0.0
  0
VERTEX
  5
5DC9
  8
HIDDEN
 10
11.357178671419881
 20
13.98668574109098
 30
0.0
  0
VERTEX
  5
5DCA
  8
HIDDEN
 10
10.718178671419871
 20
13.98668574109098
 30
0.0
  0
VERTEX
  5
5DCB
  8
HIDDEN
 10
10.718178671419871
 20
13.92668574109098
 30
0.0
  0
VERTEX
  5
5DCC
  8
HIDDEN
 10
11.357178671419881
 20
13.92668574109098
 30
0.0
  0
SEQEND
  5
5DCD
  8
HIDDEN
  0
LINE
  5
436B
  8
OBJECT
 10
11.00917867141988
 20
13.59868574109098
 30
0.0
 11
11.477178671419869
 21
13.59868574109098
 31
0.0
  0
LINE
  5
436C
  8
OBJECT
 10
11.00917867141988
 20
13.71368574109098
 30
0.0
 11
11.477178671419869
 21
13.71368574109098
 31
0.0
  0
LINE
  5
436D
  8
OBJECT
 10
11.00917867141988
 20
13.83368574109098
 30
0.0
 11
11.477178671419869
 21
13.83368574109098
 31
0.0
  0
LINE
  5
436E
  8
OBJECT
 10
11.00917867141988
 20
13.948685741090991
 30
0.0
 11
11.477178671419869
 21
13.948685741090991
 31
0.0
  0
POLYLINE
  5
436F
  8
HIDDEN
 66
     1
 10
0.0
 20
0.0
 30
0.0
  0
VERTEX
  5
5DCE
  8
HIDDEN
 10
11.477178671419869
 20
13.48168574109099
 30
0.0
  0
VERTEX
  5
5DCF
  8
HIDDEN
 10
11.287178671419881
 20
13.48168574109099
 30
0.0
  0
VERTEX
  5
5DD0
  8
HIDDEN
 10
11.287178671419881
 20
13.251685741090981
 30
0.0
  0
VERTEX
  5
5DD1
  8
HIDDEN
 10
11.477178671419869
 20
13.251685741090981
 30
0.0
  0
SEQEND
  5
5DD2
  8
HIDDEN
  0
LINE
  5
4370
  8
OBJECT
 10
11.460178671419881
 20
13.71368574109098
 30
0.0
 11
11.460178671419881
 21
13.83368574109098
 31
0.0
  0
LINE
  5
4371
  8
HIDDEN
 10
11.287178671419881
 20
13.30168574109098
 30
0.0
 11
10.693178671419879
 21
13.30168574109098
 31
0.0
  0
LINE
  5
4372
  8
HIDDEN
 10
11.287178671419881
 20
13.43168574109098
 30
0.0
 11
10.693178671419879
 21
13.43168574109098
 31
0.0
  0
POLYLINE
  5
4373
  8
HIDDEN
 66
     1
 10
0.0
 20
0.0
 30
0.0
  0
VERTEX
  5
5DD3
  8
HIDDEN
 10
11.357178671419881
 20
13.25868574109098
 30
0.0
  0
VERTEX
  5
5DD4
  8
HIDDEN
 10
11.20117867141988
 20
13.25868574109098
 30
0.0
  0
VERTEX
  5
5DD5
  8
HIDDEN
 10
11.20117867141988
 20
13.47468574109098
 30
0.0
  0
VERTEX
  5
5DD6
  8
HIDDEN
 10
11.357178671419881
 20
13.47468574109098
 30
0.0
  0
SEQEND
  5
5DD7
  8
HIDDEN
  0
LINE
  5
4374
  8
HIDDEN
 10
11.20117867141988
 20
13.321685741090979
 30
0.0
 11
11.35717867141987
 21
13.321685741090979
 31
0.0
  0
LINE
  5
4375
  8
HIDDEN
 10
11.20117867141988
 20
13.411685741090981
 30
0.0
 11
11.35717867141987
 21
13.411685741090981
 31
0.0
  0
POLYLINE
  5
4376
  8
HIDDEN
 66
     1
 10
0.0
 20
0.0
 30
0.0
  0
VERTEX
  5
5DD8
  8
HIDDEN
 10
11.357178671419881
 20
13.76868574109098
 30
0.0
  0
VERTEX
  5
5DD9
  8
HIDDEN
 10
10.718178671419871
 20
13.76868574109098
 30
0.0
  0
VERTEX
  5
5DDA
  8
HIDDEN
 10
10.718178671419871
 20
13.828685741090981
 30
0.0
  0
VERTEX
  5
5DDB
  8
HIDDEN
 10
11.357178671419881
 20
13.828685741090981
 30
0.0
  0
SEQEND
  5
5DDC
  8
HIDDEN
  0
LINE
  5
4377
  8
OBJECT
 10
11.00917867141988
 20
13.713685741090989
 30
0.0
 11
11.00917867141988
 21
13.83368574109098
 31
0.0
  0
LINE
  5
4378
  8
OBJECT
 10
11.00917867141988
 20
14.65368574109098
 30
0.0
 11
11.477178671419869
 21
14.65368574109098
 31
0.0
  0
LINE
  5
4379
  8
OBJECT
 10
11.00917867141988
 20
14.418685741090989
 30
0.0
 11
11.477178671419869
 21
14.418685741090989
 31
0.0
  0
LINE
  5
437A
  8
OBJECT
 10
11.00917867141988
 20
14.53868574109098
 30
0.0
 11
11.477178671419869
 21
14.53868574109098
 31
0.0
  0
LINE
  5
437B
  8
OBJECT
 10
11.00917867141988
 20
14.30368574109098
 30
0.0
 11
11.477178671419869
 21
14.30368574109098
 31
0.0
  0
LINE
  5
437C
  8
OBJECT
 10
11.00917867141988
 20
14.18368574109099
 30
0.0
 11
11.477178671419869
 21
14.18368574109099
 31
0.0
  0
LINE
  5
437D
  8
OBJECT
 10
11.00917867141988
 20
14.068685741090979
 30
0.0
 11
11.477178671419869
 21
14.068685741090979
 31
0.0
  0
LINE
  5
437E
  8
OBJECT
 10
11.460178671419881
 20
14.183685741090979
 30
0.0
 11
11.460178671419881
 21
14.30368574109098
 31
0.0
  0
LINE
  5
437F
  8
OBJECT
 10
11.460178671419881
 20
14.418685741090989
 30
0.0
 11
11.460178671419881
 21
14.53868574109098
 31
0.0
  0
LINE
  5
4380
  8
OBJECT
 10
11.00917867141988
 20
14.18368574109099
 30
0.0
 11
11.00917867141988
 21
14.30368574109098
 31
0.0
  0
LINE
  5
4381
  8
OBJECT
 10
11.00917867141988
 20
14.418685741090989
 30
0.0
 11
11.00917867141988
 21
14.53868574109098
 31
0.0
  0
POLYLINE
  5
4382
  8
HIDDEN
 66
     1
 10
0.0
 20
0.0
 30
0.0
  0
VERTEX
  5
5DDD
  8
HIDDEN
 10
11.357178671419881
 20
15.34468574109099
 30
0.0
  0
VERTEX
  5
5DDE
  8
HIDDEN
 10
11.20117867141988
 20
15.34468574109099
 30
0.0
  0
VERTEX
  5
5DDF
  8
HIDDEN
 10
11.20117867141988
 20
15.56068574109098
 30
0.0
  0
VERTEX
  5
5DE0
  8
HIDDEN
 10
11.357178671419881
 20
15.56068574109098
 30
0.0
  0
SEQEND
  5
5DE1
  8
HIDDEN
  0
LINE
  5
4383
  8
OBJECT
 10
11.00917867141988
 20
15.35868574109098
 30
0.0
 11
11.477178671419869
 21
15.35868574109098
 31
0.0
  0
LINE
  5
4384
  8
OBJECT
 10
11.00917867141988
 20
15.123685741090981
 30
0.0
 11
11.477178671419869
 21
15.123685741090981
 31
0.0
  0
LINE
  5
4385
  8
OBJECT
 10
11.00917867141988
 20
15.24368574109098
 30
0.0
 11
11.477178671419869
 21
15.24368574109098
 31
0.0
  0
LINE
  5
4386
  8
OBJECT
 10
11.00917867141988
 20
14.88868574109099
 30
0.0
 11
11.477178671419869
 21
14.88868574109099
 31
0.0
  0
LINE
  5
4387
  8
OBJECT
 10
11.00917867141988
 20
15.00868574109098
 30
0.0
 11
11.477178671419869
 21
15.00868574109098
 31
0.0
  0
LINE
  5
4388
  8
OBJECT
 10
11.00917867141988
 20
14.773685741090979
 30
0.0
 11
11.477178671419869
 21
14.773685741090979
 31
0.0
  0
LINE
  5
4389
  8
OBJECT
 10
11.00917867141988
 20
15.478685741090979
 30
0.0
 11
11.477178671419869
 21
15.478685741090979
 31
0.0
  0
LINE
  5
438A
  8
OBJECT
 10
11.460178671419881
 20
15.123685741090981
 30
0.0
 11
11.460178671419881
 21
15.24368574109098
 31
0.0
  0
LINE
  5
438B
  8
OBJECT
 10
11.460178671419881
 20
14.88868574109099
 30
0.0
 11
11.460178671419881
 21
15.00868574109098
 31
0.0
  0
LINE
  5
438C
  8
OBJECT
 10
11.460178671419881
 20
15.35868574109098
 30
0.0
 11
11.460178671419881
 21
15.478685741090979
 31
0.0
  0
LINE
  5
438D
  8
OBJECT
 10
11.00917867141988
 20
15.123685741090981
 30
0.0
 11
11.00917867141988
 21
15.24368574109098
 31
0.0
  0
LINE
  5
438E
  8
OBJECT
 10
11.00917867141988
 20
14.88868574109099
 30
0.0
 11
11.00917867141988
 21
15.00868574109098
 31
0.0
  0
POLYLINE
  5
438F
  8
HIDDEN
 66
     1
 10
0.0
 20
0.0
 30
0.0
  0
VERTEX
  5
5DE2
  8
HIDDEN
 10
11.357178671419881
 20
15.42268574109098
 30
0.0
  0
VERTEX
  5
5DE3
  8
HIDDEN
 10
10.718178671419871
 20
15.42268574109098
 30
0.0
  0
VERTEX
  5
5DE4
  8
HIDDEN
 10
10.718178671419871
 20
15.482685741090989
 30
0.0
  0
VERTEX
  5
5DE5
  8
HIDDEN
 10
11.357178671419881
 20
15.482685741090981
 30
0.0
  0
SEQEND
  5
5DE6
  8
HIDDEN
  0
LINE
  5
4390
  8
HIDDEN
 10
11.20117867141988
 20
15.49768574109099
 30
0.0
 11
11.35717867141987
 21
15.49768574109099
 31
0.0
  0
LINE
  5
4391
  8
HIDDEN
 10
11.20117867141988
 20
15.40768574109098
 30
0.0
 11
11.35717867141987
 21
15.40768574109098
 31
0.0
  0
LINE
  5
4392
  8
OBJECT
 10
11.00917867141988
 20
15.35868574109098
 30
0.0
 11
11.00917867141988
 21
15.478685741090979
 31
0.0
  0
LINE
  5
4393
  8
OBJECT
 10
11.00917867141988
 20
16.063685741090978
 30
0.0
 11
11.477178671419869
 21
16.063685741090978
 31
0.0
  0
LINE
  5
4394
  8
OBJECT
 10
11.00917867141988
 20
16.183685741090979
 30
0.0
 11
11.477178671419869
 21
16.183685741090979
 31
0.0
  0
LINE
  5
4395
  8
OBJECT
 10
11.00917867141988
 20
15.94868574109098
 30
0.0
 11
11.477178671419869
 21
15.94868574109098
 31
0.0
  0
LINE
  5
4396
  8
OBJECT
 10
11.00917867141988
 20
15.828685741090981
 30
0.0
 11
11.477178671419869
 21
15.828685741090981
 31
0.0
  0
LINE
  5
4397
  8
OBJECT
 10
11.00917867141988
 20
15.593685741090979
 30
0.0
 11
11.477178671419869
 21
15.593685741090979
 31
0.0
  0
LINE
  5
4398
  8
OBJECT
 10
11.00917867141988
 20
15.71368574109098
 30
0.0
 11
11.477178671419869
 21
15.71368574109098
 31
0.0
  0
LINE
  5
4399
  8
OBJECT
 10
11.460178671419881
 20
15.828685741090981
 30
0.0
 11
11.460178671419881
 21
15.94868574109098
 31
0.0
  0
LINE
  5
439A
  8
OBJECT
 10
11.460178671419881
 20
15.593685741090979
 30
0.0
 11
11.460178671419881
 21
15.71368574109098
 31
0.0
  0
LINE
  5
439B
  8
OBJECT
 10
11.460178671419881
 20
16.063685741090978
 30
0.0
 11
11.460178671419881
 21
16.183685741090979
 31
0.0
  0
LINE
  5
439C
  8
OBJECT
 10
11.00917867141988
 20
15.828685741090981
 30
0.0
 11
11.00917867141988
 21
15.94868574109098
 31
0.0
  0
POLYLINE
  5
439D
  8
HIDDEN
 66
     1
 10
0.0
 20
0.0
 30
0.0
  0
VERTEX
  5
5DE7
  8
HIDDEN
 10
11.357178671419881
 20
15.64068574109098
 30
0.0
  0
VERTEX
  5
5DE8
  8
HIDDEN
 10
10.718178671419871
 20
15.640685741090991
 30
0.0
  0
VERTEX
  5
5DE9
  8
HIDDEN
 10
10.718178671419871
 20
15.58068574109098
 30
0.0
  0
VERTEX
  5
5DEA
  8
HIDDEN
 10
11.357178671419881
 20
15.58068574109098
 30
0.0
  0
SEQEND
  5
5DEB
  8
HIDDEN
  0
LINE
  5
439E
  8
OBJECT
 10
11.00917867141988
 20
15.593685741090979
 30
0.0
 11
11.00917867141988
 21
15.71368574109098
 31
0.0
  0
LINE
  5
439F
  8
OBJECT
 10
11.00917867141988
 20
16.063685741090978
 30
0.0
 11
11.00917867141988
 21
16.183685741090979
 31
0.0
  0
POLYLINE
  5
43A0
  8
HIDDEN
 66
     1
 10
0.0
 20
0.0
 30
0.0
  0
VERTEX
  5
5DEC
  8
HIDDEN
 10
11.357178671419881
 20
19.24268574109098
 30
0.0
  0
VERTEX
  5
5DED
  8
HIDDEN
 10
11.20117867141988
 20
19.24268574109098
 30
0.0
  0
VERTEX
  5
5DEE
  8
HIDDEN
 10
11.20117867141988
 20
19.458685741090981
 30
0.0
  0
VERTEX
  5
5DEF
  8
HIDDEN
 10
11.357178671419881
 20
19.458685741090981
 30
0.0
  0
SEQEND
  5
5DF0
  8
HIDDEN
  0
LINE
  5
43A1
  8
OBJECT
 10
11.460178671419881
 20
19.546685741090968
 30
0.0
 11
11.460178671419881
 21
19.118685741090982
 31
0.0
  0
LINE
  5
43A2
  8
OBJECT
 10
11.00917867141988
 20
19.546685741090979
 30
0.0
 11
11.00917867141988
 21
19.118685741090982
 31
0.0
  0
POLYLINE
  5
43A3
  8
HIDDEN
 66
     1
 10
0.0
 20
0.0
 30
0.0
  0
VERTEX
  5
5DF1
  8
HIDDEN
 10
11.357178671419881
 20
19.202685741090988
 30
0.0
  0
VERTEX
  5
5DF2
  8
HIDDEN
 10
10.693178671419879
 20
19.202685741090988
 30
0.0
  0
VERTEX
  5
5DF3
  8
HIDDEN
 10
10.693178671419879
 20
19.498685741090981
 30
0.0
  0
VERTEX
  5
5DF4
  8
HIDDEN
 10
11.357178671419881
 20
19.498685741090981
 30
0.0
  0
SEQEND
  5
5DF5
  8
HIDDEN
  0
POLYLINE
  5
43A4
  8
HIDDEN
 66
     1
 10
0.0
 20
0.0
 30
0.0
  0
VERTEX
  5
5DF6
  8
HIDDEN
 10
11.477178671419869
 20
19.465685741090979
 30
0.0
  0
VERTEX
  5
5DF7
  8
HIDDEN
 10
11.287178671419881
 20
19.465685741090979
 30
0.0
  0
VERTEX
  5
5DF8
  8
HIDDEN
 10
11.287178671419881
 20
19.23568574109099
 30
0.0
  0
VERTEX
  5
5DF9
  8
HIDDEN
 10
11.477178671419869
 20
19.23568574109099
 30
0.0
  0
SEQEND
  5
5DFA
  8
HIDDEN
  0
LINE
  5
43A5
  8
OBJECT
 10
11.460178671419881
 20
17.708685741090981
 30
0.0
 11
11.460178671419881
 21
17.828685741090979
 31
0.0
  0
LINE
  5
43A6
  8
OBJECT
 10
11.00917867141988
 20
17.708685741090989
 30
0.0
 11
11.00917867141988
 21
17.828685741090979
 31
0.0
  0
LINE
  5
43A7
  8
OBJECT
 10
11.00917867141988
 20
17.00368574109098
 30
0.0
 11
11.00917867141988
 21
17.123685741090981
 31
0.0
  0
LINE
  5
43A8
  8
OBJECT
 10
11.460178671419881
 20
17.00368574109098
 30
0.0
 11
11.460178671419881
 21
17.123685741090981
 31
0.0
  0
LINE
  5
43A9
  8
OBJECT
 10
11.00917867141988
 20
16.76868574109098
 30
0.0
 11
11.477178671419869
 21
16.76868574109098
 31
0.0
  0
LINE
  5
43AA
  8
OBJECT
 10
11.00917867141988
 20
16.888685741090988
 30
0.0
 11
11.477178671419869
 21
16.888685741090988
 31
0.0
  0
LINE
  5
43AB
  8
OBJECT
 10
11.00917867141988
 20
16.653685741090982
 30
0.0
 11
11.477178671419869
 21
16.653685741090982
 31
0.0
  0
LINE
  5
43AC
  8
OBJECT
 10
11.00917867141988
 20
16.533685741090981
 30
0.0
 11
11.477178671419869
 21
16.533685741090981
 31
0.0
  0
LINE
  5
43AD
  8
OBJECT
 10
11.00917867141988
 20
16.298685741090981
 30
0.0
 11
11.477178671419869
 21
16.298685741090981
 31
0.0
  0
LINE
  5
43AE
  8
OBJECT
 10
11.00917867141988
 20
16.418685741090989
 30
0.0
 11
11.477178671419869
 21
16.418685741090989
 31
0.0
  0
LINE
  5
43AF
  8
OBJECT
 10
11.00917867141988
 20
17.00368574109098
 30
0.0
 11
11.477178671419869
 21
17.00368574109098
 31
0.0
  0
LINE
  5
43B0
  8
OBJECT
 10
11.460178671419881
 20
16.533685741090981
 30
0.0
 11
11.460178671419881
 21
16.653685741090982
 31
0.0
  0
LINE
  5
43B1
  8
OBJECT
 10
11.460178671419881
 20
16.298685741090981
 30
0.0
 11
11.460178671419881
 21
16.418685741090989
 31
0.0
  0
LINE
  5
43B2
  8
OBJECT
 10
11.460178671419881
 20
16.76868574109098
 30
0.0
 11
11.460178671419881
 21
16.888685741090988
 31
0.0
  0
LINE
  5
43B3
  8
OBJECT
 10
11.00917867141988
 20
16.533685741090981
 30
0.0
 11
11.00917867141988
 21
16.653685741090982
 31
0.0
  0
LINE
  5
43B4
  8
OBJECT
 10
11.00917867141988
 20
16.298685741090981
 30
0.0
 11
11.00917867141988
 21
16.418685741090989
 31
0.0
  0
LINE
  5
43B5
  8
OBJECT
 10
11.00917867141988
 20
16.76868574109098
 30
0.0
 11
11.00917867141988
 21
16.888685741090988
 31
0.0
  0
LINE
  5
43B6
  8
OBJECT
 10
11.00917867141988
 20
17.708685741090981
 30
0.0
 11
11.477178671419869
 21
17.708685741090981
 31
0.0
  0
LINE
  5
43B7
  8
OBJECT
 10
11.00917867141988
 20
17.593685741090979
 30
0.0
 11
11.477178671419869
 21
17.593685741090979
 31
0.0
  0
LINE
  5
43B8
  8
OBJECT
 10
11.00917867141988
 20
17.473685741090978
 30
0.0
 11
11.477178671419869
 21
17.473685741090978
 31
0.0
  0
LINE
  5
43B9
  8
OBJECT
 10
11.00917867141988
 20
17.238685741090979
 30
0.0
 11
11.477178671419869
 21
17.238685741090979
 31
0.0
  0
LINE
  5
43BA
  8
OBJECT
 10
11.00917867141988
 20
17.35868574109098
 30
0.0
 11
11.477178671419869
 21
17.35868574109098
 31
0.0
  0
LINE
  5
43BB
  8
OBJECT
 10
11.00917867141988
 20
17.123685741090981
 30
0.0
 11
11.477178671419869
 21
17.123685741090981
 31
0.0
  0
LINE
  5
43BC
  8
OBJECT
 10
11.460178671419881
 20
17.238685741090979
 30
0.0
 11
11.460178671419881
 21
17.35868574109098
 31
0.0
  0
LINE
  5
43BD
  8
OBJECT
 10
11.460178671419881
 20
17.473685741090978
 30
0.0
 11
11.460178671419881
 21
17.593685741090979
 31
0.0
  0
POLYLINE
  5
43BE
  8
HIDDEN
 66
     1
 10
0.0
 20
0.0
 30
0.0
  0
VERTEX
  5
5DFB
  8
HIDDEN
 10
11.357178671419881
 20
17.29468574109098
 30
0.0
  0
VERTEX
  5
5DFC
  8
HIDDEN
 10
10.718178671419871
 20
17.294685741090991
 30
0.0
  0
VERTEX
  5
5DFD
  8
HIDDEN
 10
10.718178671419871
 20
17.234685741090988
 30
0.0
  0
VERTEX
  5
5DFE
  8
HIDDEN
 10
11.357178671419881
 20
17.234685741090981
 30
0.0
  0
SEQEND
  5
5DFF
  8
HIDDEN
  0
POLYLINE
  5
43BF
  8
HIDDEN
 66
     1
 10
0.0
 20
0.0
 30
0.0
  0
VERTEX
  5
5E00
  8
HIDDEN
 10
11.357178671419881
 20
17.076685741090991
 30
0.0
  0
VERTEX
  5
5E01
  8
HIDDEN
 10
10.718178671419871
 20
17.076685741090991
 30
0.0
  0
VERTEX
  5
5E02
  8
HIDDEN
 10
10.718178671419871
 20
17.136685741090989
 30
0.0
  0
VERTEX
  5
5E03
  8
HIDDEN
 10
11.357178671419881
 20
17.136685741090979
 30
0.0
  0
SEQEND
  5
5E04
  8
HIDDEN
  0
POLYLINE
  5
43C0
  8
HIDDEN
 66
     1
 10
0.0
 20
0.0
 30
0.0
  0
VERTEX
  5
5E05
  8
HIDDEN
 10
11.357178671419881
 20
17.156685741090978
 30
0.0
  0
VERTEX
  5
5E06
  8
HIDDEN
 10
11.20117867141988
 20
17.156685741090978
 30
0.0
  0
VERTEX
  5
5E07
  8
HIDDEN
 10
11.20117867141988
 20
17.37268574109099
 30
0.0
  0
VERTEX
  5
5E08
  8
HIDDEN
 10
11.357178671419881
 20
17.37268574109099
 30
0.0
  0
SEQEND
  5
5E09
  8
HIDDEN
  0
LINE
  5
43C1
  8
HIDDEN
 10
11.20117867141988
 20
17.219685741090991
 30
0.0
 11
11.35717867141987
 21
17.219685741090991
 31
0.0
  0
LINE
  5
43C2
  8
HIDDEN
 10
11.20117867141988
 20
17.309685741090981
 30
0.0
 11
11.35717867141987
 21
17.309685741090981
 31
0.0
  0
LINE
  5
43C3
  8
OBJECT
 10
11.00917867141988
 20
17.238685741090979
 30
0.0
 11
11.00917867141988
 21
17.35868574109098
 31
0.0
  0
LINE
  5
43C4
  8
OBJECT
 10
11.00917867141988
 20
17.473685741090978
 30
0.0
 11
11.00917867141988
 21
17.593685741090979
 31
0.0
  0
LINE
  5
43C5
  8
OBJECT
 10
11.00917867141988
 20
18.41368574109098
 30
0.0
 11
11.477178671419869
 21
18.41368574109098
 31
0.0
  0
LINE
  5
43C6
  8
OBJECT
 10
11.00917867141988
 20
18.17868574109098
 30
0.0
 11
11.477178671419869
 21
18.17868574109098
 31
0.0
  0
LINE
  5
43C7
  8
OBJECT
 10
11.00917867141988
 20
18.298685741090981
 30
0.0
 11
11.477178671419869
 21
18.298685741090981
 31
0.0
  0
LINE
  5
43C8
  8
OBJECT
 10
11.00917867141988
 20
17.943685741090981
 30
0.0
 11
11.477178671419869
 21
17.943685741090981
 31
0.0
  0
LINE
  5
43C9
  8
OBJECT
 10
11.00917867141988
 20
18.063685741090978
 30
0.0
 11
11.477178671419869
 21
18.063685741090978
 31
0.0
  0
LINE
  5
43CA
  8
OBJECT
 10
11.00917867141988
 20
17.828685741090979
 30
0.0
 11
11.477178671419869
 21
17.828685741090979
 31
0.0
  0
LINE
  5
43CB
  8
OBJECT
 10
11.00917867141988
 20
18.533685741090981
 30
0.0
 11
11.477178671419869
 21
18.533685741090981
 31
0.0
  0
LINE
  5
43CC
  8
OBJECT
 10
11.460178671419881
 20
17.943685741090981
 30
0.0
 11
11.460178671419881
 21
18.063685741090978
 31
0.0
  0
LINE
  5
43CD
  8
OBJECT
 10
11.460178671419881
 20
18.17868574109098
 30
0.0
 11
11.460178671419881
 21
18.298685741090981
 31
0.0
  0
LINE
  5
43CE
  8
OBJECT
 10
11.460178671419881
 20
18.41368574109098
 30
0.0
 11
11.460178671419881
 21
18.533685741090981
 31
0.0
  0
LINE
  5
43CF
  8
OBJECT
 10
11.00917867141988
 20
17.943685741090981
 30
0.0
 11
11.00917867141988
 21
18.063685741090978
 31
0.0
  0
LINE
  5
43D0
  8
OBJECT
 10
11.00917867141988
 20
18.17868574109098
 30
0.0
 11
11.00917867141988
 21
18.298685741090981
 31
0.0
  0
LINE
  5
43D1
  8
OBJECT
 10
11.00917867141988
 20
18.41368574109098
 30
0.0
 11
11.00917867141988
 21
18.533685741090981
 31
0.0
  0
LINE
  5
43D2
  8
OBJECT
 10
11.00917867141988
 20
19.118685741090982
 30
0.0
 11
11.477178671419869
 21
19.118685741090982
 31
0.0
  0
LINE
  5
43D3
  8
OBJECT
 10
11.00917867141988
 20
19.00368574109098
 30
0.0
 11
11.477178671419869
 21
19.00368574109098
 31
0.0
  0
LINE
  5
43D4
  8
OBJECT
 10
11.00917867141988
 20
18.883685741090979
 30
0.0
 11
11.477178671419869
 21
18.883685741090979
 31
0.0
  0
LINE
  5
43D5
  8
OBJECT
 10
11.00917867141988
 20
18.648685741090979
 30
0.0
 11
11.477178671419869
 21
18.648685741090979
 31
0.0
  0
LINE
  5
43D6
  8
OBJECT
 10
11.00917867141988
 20
18.76868574109098
 30
0.0
 11
11.477178671419869
 21
18.76868574109098
 31
0.0
  0
LINE
  5
43D7
  8
OBJECT
 10
11.460178671419881
 20
18.883685741090979
 30
0.0
 11
11.460178671419881
 21
19.00368574109098
 31
0.0
  0
LINE
  5
43D8
  8
OBJECT
 10
11.460178671419881
 20
18.648685741090979
 30
0.0
 11
11.460178671419881
 21
18.76868574109098
 31
0.0
  0
LINE
  5
43D9
  8
OBJECT
 10
11.00917867141988
 20
18.883685741090979
 30
0.0
 11
11.00917867141988
 21
19.00368574109098
 31
0.0
  0
POLYLINE
  5
43DA
  8
HIDDEN
 66
     1
 10
0.0
 20
0.0
 30
0.0
  0
VERTEX
  5
5E0A
  8
HIDDEN
 10
11.357178671419881
 20
18.948685741090991
 30
0.0
  0
VERTEX
  5
5E0B
  8
HIDDEN
 10
10.718178671419871
 20
18.948685741090991
 30
0.0
  0
VERTEX
  5
5E0C
  8
HIDDEN
 10
10.718178671419871
 20
18.888685741090981
 30
0.0
  0
VERTEX
  5
5E0D
  8
HIDDEN
 10
11.357178671419881
 20
18.888685741090981
 30
0.0
  0
SEQEND
  5
5E0E
  8
HIDDEN
  0
POLYLINE
  5
43DB
  8
HIDDEN
 66
     1
 10
0.0
 20
0.0
 30
0.0
  0
VERTEX
  5
5E0F
  8
HIDDEN
 10
11.357178671419881
 20
18.73068574109098
 30
0.0
  0
VERTEX
  5
5E10
  8
HIDDEN
 10
10.718178671419871
 20
18.73068574109098
 30
0.0
  0
VERTEX
  5
5E11
  8
HIDDEN
 10
10.718178671419871
 20
18.790685741090989
 30
0.0
  0
VERTEX
  5
5E12
  8
HIDDEN
 10
11.357178671419881
 20
18.790685741090989
 30
0.0
  0
SEQEND
  5
5E13
  8
HIDDEN
  0
LINE
  5
43DC
  8
OBJECT
 10
11.00917867141988
 20
18.648685741090979
 30
0.0
 11
11.00917867141988
 21
18.76868574109098
 31
0.0
  0
LINE
  5
43DD
  8
HIDDEN
 10
11.287178671419881
 20
19.28568574109098
 30
0.0
 11
10.693178671419879
 21
19.28568574109098
 31
0.0
  0
LINE
  5
43DE
  8
HIDDEN
 10
11.20117867141988
 20
19.305685741090979
 30
0.0
 11
11.35717867141987
 21
19.305685741090979
 31
0.0
  0
LINE
  5
43DF
  8
HIDDEN
 10
11.29717867141988
 20
20.033685741090981
 30
0.0
 11
11.347178671419879
 21
20.098685741090978
 31
0.0
  0
LINE
  5
43E0
  8
OBJECT
 10
11.00917867141988
 20
19.546685741090979
 30
0.0
 11
11.477178671419869
 21
19.546685741090968
 31
0.0
  0
LINE
  5
43E1
  8
OBJECT
 10
11.00917867141988
 20
19.546685741090968
 30
0.0
 11
11.477178671419869
 21
19.546685741090968
 31
0.0
  0
LINE
  5
43E2
  8
HIDDEN
 10
11.287178671419881
 20
19.415685741090989
 30
0.0
 11
10.693178671419879
 21
19.415685741090989
 31
0.0
  0
LINE
  5
43E3
  8
HIDDEN
 10
11.20117867141988
 20
19.395685741090979
 30
0.0
 11
11.35717867141987
 21
19.395685741090979
 31
0.0
  0
LINE
  5
43E4
  8
HIDDEN
 10
11.368678671419881
 20
19.938685741090978
 30
0.0
 11
11.368678671419881
 21
20.033685741090981
 31
0.0
  0
LINE
  5
43E5
  8
HIDDEN
 10
11.29717867141988
 20
19.938685741090978
 30
0.0
 11
11.29717867141988
 21
19.89368574109098
 31
0.0
  0
LINE
  5
43E6
  8
OBJECT
 10
9.9021786714198825
 20
12.61868574109098
 30
0.0
 11
9.9021786714198825
 21
20.098685741090978
 31
0.0
  0
LINE
  5
43E7
  8
HIDDEN
 10
10.02217867141988
 20
19.89368574109098
 30
0.0
 11
10.02217867141988
 21
12.82368574109098
 31
0.0
  0
POLYLINE
  5
43E8
  8
HIDDEN
 66
     1
 10
0.0
 20
0.0
 30
0.0
  0
VERTEX
  5
5E14
  8
HIDDEN
 10
10.70917867141987
 20
12.843685741090979
 30
0.0
  0
VERTEX
  5
5E15
  8
HIDDEN
 10
10.796178671419881
 20
12.843685741090979
 30
0.0
  0
VERTEX
  5
5E16
  8
HIDDEN
 10
10.796178671419881
 20
19.873685741090981
 30
0.0
  0
VERTEX
  5
5E17
  8
HIDDEN
 10
10.70917867141989
 20
19.873685741090981
 30
0.0
  0
SEQEND
  5
5E18
  8
HIDDEN
  0
LINE
  5
43E9
  8
HIDDEN
 10
10.799178671419879
 20
12.82368574109098
 30
0.0
 11
10.79917867141989
 21
19.89368574109098
 31
0.0
  0
LINE
  5
43EA
  8
OBJECT
 10
10.67017867141988
 20
12.61868574109098
 30
0.0
 11
10.670178671419871
 21
20.098685741090978
 31
0.0
  0
LINE
  5
43EB
  8
OBJECT
 10
10.37017867141987
 20
13.170685741090979
 30
0.0
 11
10.37017867141987
 21
13.59868574109098
 31
0.0
  0
LINE
  5
43EC
  8
OBJECT
 10
9.9191786714198855
 20
13.170685741090979
 30
0.0
 11
9.9191786714198855
 21
13.59868574109098
 31
0.0
  0
POLYLINE
  5
43ED
  8
HIDDEN
 66
     1
 10
0.0
 20
0.0
 30
0.0
  0
VERTEX
  5
5E19
  8
HIDDEN
 10
10.02217867141988
 20
13.218685741090979
 30
0.0
  0
VERTEX
  5
5E1A
  8
HIDDEN
 10
10.68617867141988
 20
13.218685741090979
 30
0.0
  0
VERTEX
  5
5E1B
  8
HIDDEN
 10
10.68617867141988
 20
13.514685741090981
 30
0.0
  0
VERTEX
  5
5E1C
  8
HIDDEN
 10
10.02217867141988
 20
13.514685741090981
 30
0.0
  0
SEQEND
  5
5E1D
  8
HIDDEN
  0
LINE
  5
43EE
  8
OBJECT
 10
10.37017867141987
 20
13.170685741090979
 30
0.0
 11
9.9021786714198825
 21
13.170685741090979
 31
0.0
  0
LINE
  5
43EF
  8
OBJECT
 10
10.37017867141987
 20
13.170685741090979
 30
0.0
 11
9.9021786714198825
 21
13.170685741090979
 31
0.0
  0
LINE
  5
43F0
  8
HIDDEN
 10
10.08217867141988
 20
12.68368574109099
 30
0.0
 11
10.03217867141988
 21
12.61868574109098
 31
0.0
  0
LINE
  5
43F1
  8
HIDDEN
 10
10.01067867141988
 20
12.77868574109098
 30
0.0
 11
10.01067867141988
 21
12.683685741090979
 31
0.0
  0
LINE
  5
43F2
  8
HIDDEN
 10
10.08217867141988
 20
12.77868574109098
 30
0.0
 11
10.08217867141988
 21
12.823685741090991
 31
0.0
  0
LINE
  5
43F3
  8
OBJECT
 10
10.37017867141987
 20
14.65368574109098
 30
0.0
 11
10.37017867141987
 21
14.773685741090979
 31
0.0
  0
LINE
  5
43F4
  8
OBJECT
 10
9.9191786714198855
 20
14.65368574109098
 30
0.0
 11
9.9191786714198855
 21
14.773685741090979
 31
0.0
  0
LINE
  5
43F5
  8
OBJECT
 10
9.9191786714198855
 20
13.948685741090991
 30
0.0
 11
9.9191786714198855
 21
14.068685741090979
 31
0.0
  0
LINE
  5
43F6
  8
OBJECT
 10
10.37017867141987
 20
13.948685741090991
 30
0.0
 11
10.37017867141987
 21
14.068685741090979
 31
0.0
  0
POLYLINE
  5
43F7
  8
HIDDEN
 66
     1
 10
0.0
 20
0.0
 30
0.0
  0
VERTEX
  5
5E1E
  8
HIDDEN
 10
10.02217867141988
 20
13.98668574109098
 30
0.0
  0
VERTEX
  5
5E1F
  8
HIDDEN
 10
10.661178671419879
 20
13.98668574109098
 30
0.0
  0
VERTEX
  5
5E20
  8
HIDDEN
 10
10.661178671419879
 20
13.92668574109098
 30
0.0
  0
VERTEX
  5
5E21
  8
HIDDEN
 10
10.02217867141988
 20
13.92668574109098
 30
0.0
  0
SEQEND
  5
5E22
  8
HIDDEN
  0
LINE
  5
43F8
  8
OBJECT
 10
10.37017867141987
 20
13.948685741090991
 30
0.0
 11
9.9021786714198825
 21
13.948685741090991
 31
0.0
  0
LINE
  5
43F9
  8
OBJECT
 10
10.37017867141987
 20
13.83368574109098
 30
0.0
 11
9.9021786714198825
 21
13.83368574109098
 31
0.0
  0
LINE
  5
43FA
  8
OBJECT
 10
10.37017867141987
 20
13.71368574109098
 30
0.0
 11
9.9021786714198825
 21
13.71368574109098
 31
0.0
  0
LINE
  5
43FB
  8
OBJECT
 10
10.37017867141987
 20
13.59868574109098
 30
0.0
 11
9.9021786714198825
 21
13.59868574109098
 31
0.0
  0
POLYLINE
  5
43FC
  8
HIDDEN
 66
     1
 10
0.0
 20
0.0
 30
0.0
  0
VERTEX
  5
5E23
  8
HIDDEN
 10
10.68617867141988
 20
13.411685741090981
 30
0.0
  0
VERTEX
  5
5E24
  8
HIDDEN
 10
9.9681786714198761
 20
13.411685741090981
 30
0.0
  0
VERTEX
  5
5E25
  8
HIDDEN
 10
9.9681786714198761
 20
13.321685741090979
 30
0.0
  0
VERTEX
  5
5E26
  8
HIDDEN
 10
10.68617867141988
 20
13.321685741090979
 30
0.0
  0
SEQEND
  5
5E27
  8
HIDDEN
  0
POLYLINE
  5
43FD
  8
HIDDEN
 66
     1
 10
0.0
 20
0.0
 30
0.0
  0
VERTEX
  5
5E28
  8
HIDDEN
 10
10.02217867141988
 20
13.25868574109098
 30
0.0
  0
VERTEX
  5
5E29
  8
HIDDEN
 10
10.178178671419881
 20
13.25868574109098
 30
0.0
  0
VERTEX
  5
5E2A
  8
HIDDEN
 10
10.178178671419881
 20
13.47468574109098
 30
0.0
  0
VERTEX
  5
5E2B
  8
HIDDEN
 10
10.02217867141988
 20
13.47468574109098
 30
0.0
  0
SEQEND
  5
5E2C
  8
HIDDEN
  0
LINE
  5
43FE
  8
HIDDEN
 10
10.178178671419881
 20
13.321685741090979
 30
0.0
 11
10.02217867141988
 21
13.321685741090979
 31
0.0
  0
LINE
  5
43FF
  8
HIDDEN
 10
10.178178671419881
 20
13.411685741090981
 30
0.0
 11
10.02217867141988
 21
13.411685741090981
 31
0.0
  0
POLYLINE
  5
4400
  8
HIDDEN
 66
     1
 10
0.0
 20
0.0
 30
0.0
  0
VERTEX
  5
5E2D
  8
HIDDEN
 10
10.02217867141988
 20
13.76868574109098
 30
0.0
  0
VERTEX
  5
5E2E
  8
HIDDEN
 10
10.661178671419879
 20
13.76868574109098
 30
0.0
  0
VERTEX
  5
5E2F
  8
HIDDEN
 10
10.661178671419879
 20
13.828685741090981
 30
0.0
  0
VERTEX
  5
5E30
  8
HIDDEN
 10
10.02217867141988
 20
13.828685741090981
 30
0.0
  0
SEQEND
  5
5E31
  8
HIDDEN
  0
LINE
  5
4401
  8
OBJECT
 10
10.37017867141987
 20
13.713685741090989
 30
0.0
 11
10.37017867141987
 21
13.83368574109098
 31
0.0
  0
LINE
  5
4402
  8
OBJECT
 10
9.9191786714198855
 20
13.71368574109098
 30
0.0
 11
9.9191786714198855
 21
13.83368574109098
 31
0.0
  0
LINE
  5
4403
  8
OBJECT
 10
10.37017867141987
 20
14.068685741090979
 30
0.0
 11
9.9021786714198825
 21
14.068685741090979
 31
0.0
  0
LINE
  5
4404
  8
OBJECT
 10
10.37017867141987
 20
14.18368574109099
 30
0.0
 11
9.9021786714198825
 21
14.18368574109099
 31
0.0
  0
LINE
  5
4405
  8
OBJECT
 10
10.37017867141987
 20
14.30368574109098
 30
0.0
 11
9.9021786714198825
 21
14.30368574109098
 31
0.0
  0
LINE
  5
4406
  8
OBJECT
 10
10.37017867141987
 20
14.53868574109098
 30
0.0
 11
9.9021786714198825
 21
14.53868574109098
 31
0.0
  0
LINE
  5
4407
  8
OBJECT
 10
10.37017867141987
 20
14.418685741090989
 30
0.0
 11
9.9021786714198825
 21
14.418685741090989
 31
0.0
  0
LINE
  5
4408
  8
OBJECT
 10
10.37017867141987
 20
14.65368574109098
 30
0.0
 11
9.9021786714198825
 21
14.65368574109098
 31
0.0
  0
LINE
  5
4409
  8
OBJECT
 10
10.37017867141987
 20
14.18368574109099
 30
0.0
 11
10.37017867141987
 21
14.30368574109098
 31
0.0
  0
LINE
  5
440A
  8
OBJECT
 10
10.37017867141987
 20
14.418685741090989
 30
0.0
 11
10.37017867141987
 21
14.53868574109098
 31
0.0
  0
LINE
  5
440B
  8
OBJECT
 10
9.9191786714198855
 20
14.183685741090979
 30
0.0
 11
9.9191786714198855
 21
14.30368574109098
 31
0.0
  0
LINE
  5
440C
  8
OBJECT
 10
9.9191786714198855
 20
14.418685741090989
 30
0.0
 11
9.9191786714198855
 21
14.53868574109098
 31
0.0
  0
POLYLINE
  5
440D
  8
HIDDEN
 66
     1
 10
0.0
 20
0.0
 30
0.0
  0
VERTEX
  5
5E32
  8
HIDDEN
 10
10.02217867141988
 20
15.34468574109099
 30
0.0
  0
VERTEX
  5
5E33
  8
HIDDEN
 10
10.178178671419881
 20
15.34468574109099
 30
0.0
  0
VERTEX
  5
5E34
  8
HIDDEN
 10
10.178178671419881
 20
15.56068574109098
 30
0.0
  0
VERTEX
  5
5E35
  8
HIDDEN
 10
10.02217867141988
 20
15.56068574109098
 30
0.0
  0
SEQEND
  5
5E36
  8
HIDDEN
  0
LINE
  5
440E
  8
OBJECT
 10
10.37017867141987
 20
15.478685741090979
 30
0.0
 11
9.9021786714198825
 21
15.478685741090979
 31
0.0
  0
LINE
  5
440F
  8
OBJECT
 10
10.37017867141987
 20
14.773685741090979
 30
0.0
 11
9.9021786714198825
 21
14.773685741090979
 31
0.0
  0
LINE
  5
4410
  8
OBJECT
 10
10.37017867141987
 20
15.00868574109098
 30
0.0
 11
9.9021786714198825
 21
15.00868574109098
 31
0.0
  0
LINE
  5
4411
  8
OBJECT
 10
10.37017867141987
 20
14.88868574109099
 30
0.0
 11
9.9021786714198825
 21
14.88868574109099
 31
0.0
  0
LINE
  5
4412
  8
OBJECT
 10
10.37017867141987
 20
15.24368574109098
 30
0.0
 11
9.9021786714198825
 21
15.24368574109098
 31
0.0
  0
LINE
  5
4413
  8
OBJECT
 10
10.37017867141987
 20
15.123685741090981
 30
0.0
 11
9.9021786714198825
 21
15.123685741090981
 31
0.0
  0
LINE
  5
4414
  8
OBJECT
 10
10.37017867141987
 20
15.35868574109098
 30
0.0
 11
9.9021786714198825
 21
15.35868574109098
 31
0.0
  0
LINE
  5
4415
  8
OBJECT
 10
10.37017867141987
 20
15.123685741090981
 30
0.0
 11
10.37017867141987
 21
15.24368574109098
 31
0.0
  0
LINE
  5
4416
  8
OBJECT
 10
10.37017867141987
 20
14.88868574109099
 30
0.0
 11
10.37017867141987
 21
15.00868574109098
 31
0.0
  0
POLYLINE
  5
4417
  8
HIDDEN
 66
     1
 10
0.0
 20
0.0
 30
0.0
  0
VERTEX
  5
5E37
  8
HIDDEN
 10
10.02217867141988
 20
15.42268574109098
 30
0.0
  0
VERTEX
  5
5E38
  8
HIDDEN
 10
10.661178671419879
 20
15.42268574109098
 30
0.0
  0
VERTEX
  5
5E39
  8
HIDDEN
 10
10.661178671419879
 20
15.482685741090989
 30
0.0
  0
VERTEX
  5
5E3A
  8
HIDDEN
 10
10.02217867141988
 20
15.482685741090981
 30
0.0
  0
SEQEND
  5
5E3B
  8
HIDDEN
  0
LINE
  5
4418
  8
OBJECT
 10
10.37017867141987
 20
15.35868574109098
 30
0.0
 11
10.37017867141987
 21
15.478685741090979
 31
0.0
  0
LINE
  5
4419
  8
HIDDEN
 10
10.178178671419881
 20
15.49768574109099
 30
0.0
 11
10.02217867141988
 21
15.49768574109099
 31
0.0
  0
LINE
  5
441A
  8
HIDDEN
 10
10.178178671419881
 20
15.40768574109098
 30
0.0
 11
10.02217867141988
 21
15.40768574109098
 31
0.0
  0
LINE
  5
441B
  8
OBJECT
 10
9.9191786714198855
 20
15.123685741090981
 30
0.0
 11
9.9191786714198855
 21
15.24368574109098
 31
0.0
  0
LINE
  5
441C
  8
OBJECT
 10
9.9191786714198855
 20
14.88868574109099
 30
0.0
 11
9.9191786714198855
 21
15.00868574109098
 31
0.0
  0
LINE
  5
441D
  8
OBJECT
 10
9.9191786714198855
 20
15.35868574109098
 30
0.0
 11
9.9191786714198855
 21
15.478685741090979
 31
0.0
  0
LINE
  5
441E
  8
OBJECT
 10
10.37017867141987
 20
15.71368574109098
 30
0.0
 11
9.9021786714198825
 21
15.71368574109098
 31
0.0
  0
LINE
  5
441F
  8
OBJECT
 10
10.37017867141987
 20
15.593685741090979
 30
0.0
 11
9.9021786714198825
 21
15.593685741090979
 31
0.0
  0
LINE
  5
4420
  8
OBJECT
 10
10.37017867141987
 20
15.828685741090981
 30
0.0
 11
9.9021786714198825
 21
15.828685741090981
 31
0.0
  0
LINE
  5
4421
  8
OBJECT
 10
10.37017867141987
 20
15.94868574109098
 30
0.0
 11
9.9021786714198825
 21
15.94868574109098
 31
0.0
  0
LINE
  5
4422
  8
OBJECT
 10
10.37017867141987
 20
16.183685741090979
 30
0.0
 11
9.9021786714198825
 21
16.183685741090979
 31
0.0
  0
LINE
  5
4423
  8
OBJECT
 10
10.37017867141987
 20
16.063685741090978
 30
0.0
 11
9.9021786714198825
 21
16.063685741090978
 31
0.0
  0
LINE
  5
4424
  8
OBJECT
 10
10.37017867141987
 20
15.828685741090981
 30
0.0
 11
10.37017867141987
 21
15.94868574109098
 31
0.0
  0
POLYLINE
  5
4425
  8
HIDDEN
 66
     1
 10
0.0
 20
0.0
 30
0.0
  0
VERTEX
  5
5E3C
  8
HIDDEN
 10
10.02217867141988
 20
15.64068574109098
 30
0.0
  0
VERTEX
  5
5E3D
  8
HIDDEN
 10
10.661178671419879
 20
15.640685741090991
 30
0.0
  0
VERTEX
  5
5E3E
  8
HIDDEN
 10
10.661178671419879
 20
15.58068574109098
 30
0.0
  0
VERTEX
  5
5E3F
  8
HIDDEN
 10
10.02217867141988
 20
15.58068574109098
 30
0.0
  0
SEQEND
  5
5E40
  8
HIDDEN
  0
LINE
  5
4426
  8
OBJECT
 10
10.37017867141987
 20
15.593685741090979
 30
0.0
 11
10.37017867141987
 21
15.71368574109098
 31
0.0
  0
LINE
  5
4427
  8
OBJECT
 10
10.37017867141987
 20
16.063685741090978
 30
0.0
 11
10.37017867141987
 21
16.183685741090979
 31
0.0
  0
LINE
  5
4428
  8
OBJECT
 10
9.9191786714198855
 20
15.828685741090981
 30
0.0
 11
9.9191786714198855
 21
15.94868574109098
 31
0.0
  0
LINE
  5
4429
  8
OBJECT
 10
9.9191786714198855
 20
15.593685741090979
 30
0.0
 11
9.9191786714198855
 21
15.71368574109098
 31
0.0
  0
LINE
  5
442A
  8
OBJECT
 10
9.9191786714198855
 20
16.063685741090978
 30
0.0
 11
9.9191786714198855
 21
16.183685741090979
 31
0.0
  0
POLYLINE
  5
442B
  8
HIDDEN
 66
     1
 10
0.0
 20
0.0
 30
0.0
  0
VERTEX
  5
5E41
  8
HIDDEN
 10
10.02217867141988
 20
19.24268574109098
 30
0.0
  0
VERTEX
  5
5E42
  8
HIDDEN
 10
10.178178671419881
 20
19.24268574109098
 30
0.0
  0
VERTEX
  5
5E43
  8
HIDDEN
 10
10.178178671419881
 20
19.458685741090981
 30
0.0
  0
VERTEX
  5
5E44
  8
HIDDEN
 10
10.02217867141988
 20
19.458685741090981
 30
0.0
  0
SEQEND
  5
5E45
  8
HIDDEN
  0
LINE
  5
442C
  8
OBJECT
 10
10.37017867141987
 20
19.546685741090979
 30
0.0
 11
10.37017867141987
 21
19.118685741090982
 31
0.0
  0
LINE
  5
442D
  8
OBJECT
 10
9.9191786714198855
 20
19.546685741090968
 30
0.0
 11
9.9191786714198855
 21
19.118685741090982
 31
0.0
  0
POLYLINE
  5
442E
  8
HIDDEN
 66
     1
 10
0.0
 20
0.0
 30
0.0
  0
VERTEX
  5
5E46
  8
HIDDEN
 10
10.68617867141988
 20
19.395685741090979
 30
0.0
  0
VERTEX
  5
5E47
  8
HIDDEN
 10
9.9681786714198761
 20
19.395685741090979
 30
0.0
  0
VERTEX
  5
5E48
  8
HIDDEN
 10
9.9681786714198761
 20
19.305685741090979
 30
0.0
  0
VERTEX
  5
5E49
  8
HIDDEN
 10
10.68617867141988
 20
19.305685741090979
 30
0.0
  0
SEQEND
  5
5E4A
  8
HIDDEN
  0
POLYLINE
  5
442F
  8
HIDDEN
 66
     1
 10
0.0
 20
0.0
 30
0.0
  0
VERTEX
  5
5E4B
  8
HIDDEN
 10
10.02217867141988
 20
19.202685741090988
 30
0.0
  0
VERTEX
  5
5E4C
  8
HIDDEN
 10
10.68617867141988
 20
19.202685741090988
 30
0.0
  0
VERTEX
  5
5E4D
  8
HIDDEN
 10
10.68617867141988
 20
19.498685741090981
 30
0.0
  0
VERTEX
  5
5E4E
  8
HIDDEN
 10
10.02217867141988
 20
19.498685741090981
 30
0.0
  0
SEQEND
  5
5E4F
  8
HIDDEN
  0
LINE
  5
4430
  8
OBJECT
 10
10.37017867141987
 20
17.708685741090989
 30
0.0
 11
10.37017867141987
 21
17.828685741090979
 31
0.0
  0
LINE
  5
4431
  8
OBJECT
 10
9.9191786714198855
 20
17.708685741090981
 30
0.0
 11
9.9191786714198855
 21
17.828685741090979
 31
0.0
  0
LINE
  5
4432
  8
OBJECT
 10
9.9191786714198855
 20
17.00368574109098
 30
0.0
 11
9.9191786714198855
 21
17.123685741090981
 31
0.0
  0
LINE
  5
4433
  8
OBJECT
 10
10.37017867141987
 20
17.00368574109098
 30
0.0
 11
10.37017867141987
 21
17.123685741090981
 31
0.0
  0
LINE
  5
4434
  8
OBJECT
 10
10.37017867141987
 20
17.00368574109098
 30
0.0
 11
9.9021786714198825
 21
17.00368574109098
 31
0.0
  0
LINE
  5
4435
  8
OBJECT
 10
10.37017867141987
 20
16.418685741090989
 30
0.0
 11
9.9021786714198825
 21
16.418685741090989
 31
0.0
  0
LINE
  5
4436
  8
OBJECT
 10
10.37017867141987
 20
16.298685741090981
 30
0.0
 11
9.9021786714198825
 21
16.298685741090981
 31
0.0
  0
LINE
  5
4437
  8
OBJECT
 10
10.37017867141987
 20
16.533685741090981
 30
0.0
 11
9.9021786714198825
 21
16.533685741090981
 31
0.0
  0
LINE
  5
4438
  8
OBJECT
 10
10.37017867141987
 20
16.653685741090982
 30
0.0
 11
9.9021786714198825
 21
16.653685741090982
 31
0.0
  0
LINE
  5
4439
  8
OBJECT
 10
10.37017867141987
 20
16.888685741090988
 30
0.0
 11
9.9021786714198825
 21
16.888685741090988
 31
0.0
  0
LINE
  5
443A
  8
OBJECT
 10
10.37017867141987
 20
16.76868574109098
 30
0.0
 11
9.9021786714198825
 21
16.76868574109098
 31
0.0
  0
LINE
  5
443B
  8
OBJECT
 10
10.37017867141987
 20
16.533685741090981
 30
0.0
 11
10.37017867141987
 21
16.653685741090982
 31
0.0
  0
LINE
  5
443C
  8
OBJECT
 10
10.37017867141987
 20
16.298685741090981
 30
0.0
 11
10.37017867141987
 21
16.418685741090989
 31
0.0
  0
LINE
  5
443D
  8
OBJECT
 10
10.37017867141987
 20
16.76868574109098
 30
0.0
 11
10.37017867141987
 21
16.888685741090988
 31
0.0
  0
LINE
  5
443E
  8
OBJECT
 10
9.9191786714198855
 20
16.533685741090981
 30
0.0
 11
9.9191786714198855
 21
16.653685741090982
 31
0.0
  0
LINE
  5
443F
  8
OBJECT
 10
9.9191786714198855
 20
16.298685741090981
 30
0.0
 11
9.9191786714198855
 21
16.418685741090989
 31
0.0
  0
LINE
  5
4440
  8
OBJECT
 10
9.9191786714198855
 20
16.76868574109098
 30
0.0
 11
9.9191786714198855
 21
16.888685741090988
 31
0.0
  0
LINE
  5
4441
  8
OBJECT
 10
10.37017867141987
 20
17.123685741090981
 30
0.0
 11
9.9021786714198825
 21
17.123685741090981
 31
0.0
  0
LINE
  5
4442
  8
OBJECT
 10
10.37017867141987
 20
17.35868574109098
 30
0.0
 11
9.9021786714198825
 21
17.35868574109098
 31
0.0
  0
LINE
  5
4443
  8
OBJECT
 10
10.37017867141987
 20
17.238685741090979
 30
0.0
 11
9.9021786714198825
 21
17.238685741090979
 31
0.0
  0
LINE
  5
4444
  8
OBJECT
 10
10.37017867141987
 20
17.473685741090978
 30
0.0
 11
9.9021786714198825
 21
17.473685741090978
 31
0.0
  0
LINE
  5
4445
  8
OBJECT
 10
10.37017867141987
 20
17.593685741090979
 30
0.0
 11
9.9021786714198825
 21
17.593685741090979
 31
0.0
  0
LINE
  5
4446
  8
OBJECT
 10
10.37017867141987
 20
17.708685741090981
 30
0.0
 11
9.9021786714198825
 21
17.708685741090981
 31
0.0
  0
POLYLINE
  5
4447
  8
HIDDEN
 66
     1
 10
0.0
 20
0.0
 30
0.0
  0
VERTEX
  5
5E50
  8
HIDDEN
 10
10.02217867141988
 20
17.29468574109098
 30
0.0
  0
VERTEX
  5
5E51
  8
HIDDEN
 10
10.661178671419879
 20
17.294685741090991
 30
0.0
  0
VERTEX
  5
5E52
  8
HIDDEN
 10
10.661178671419879
 20
17.234685741090988
 30
0.0
  0
VERTEX
  5
5E53
  8
HIDDEN
 10
10.02217867141988
 20
17.234685741090981
 30
0.0
  0
SEQEND
  5
5E54
  8
HIDDEN
  0
POLYLINE
  5
4448
  8
HIDDEN
 66
     1
 10
0.0
 20
0.0
 30
0.0
  0
VERTEX
  5
5E55
  8
HIDDEN
 10
10.02217867141988
 20
17.076685741090991
 30
0.0
  0
VERTEX
  5
5E56
  8
HIDDEN
 10
10.661178671419879
 20
17.076685741090991
 30
0.0
  0
VERTEX
  5
5E57
  8
HIDDEN
 10
10.661178671419879
 20
17.136685741090989
 30
0.0
  0
VERTEX
  5
5E58
  8
HIDDEN
 10
10.02217867141988
 20
17.136685741090979
 30
0.0
  0
SEQEND
  5
5E59
  8
HIDDEN
  0
LINE
  5
4449
  8
OBJECT
 10
10.37017867141987
 20
17.238685741090979
 30
0.0
 11
10.37017867141987
 21
17.35868574109098
 31
0.0
  0
POLYLINE
  5
444A
  8
HIDDEN
 66
     1
 10
0.0
 20
0.0
 30
0.0
  0
VERTEX
  5
5E5A
  8
HIDDEN
 10
10.02217867141988
 20
17.156685741090978
 30
0.0
  0
VERTEX
  5
5E5B
  8
HIDDEN
 10
10.178178671419881
 20
17.156685741090978
 30
0.0
  0
VERTEX
  5
5E5C
  8
HIDDEN
 10
10.178178671419881
 20
17.37268574109099
 30
0.0
  0
VERTEX
  5
5E5D
  8
HIDDEN
 10
10.02217867141988
 20
17.37268574109099
 30
0.0
  0
SEQEND
  5
5E5E
  8
HIDDEN
  0
LINE
  5
444B
  8
HIDDEN
 10
10.178178671419881
 20
17.219685741090991
 30
0.0
 11
10.02217867141988
 21
17.219685741090991
 31
0.0
  0
LINE
  5
444C
  8
HIDDEN
 10
10.178178671419881
 20
17.309685741090981
 30
0.0
 11
10.02217867141988
 21
17.309685741090981
 31
0.0
  0
LINE
  5
444D
  8
OBJECT
 10
10.37017867141987
 20
17.473685741090978
 30
0.0
 11
10.37017867141987
 21
17.593685741090979
 31
0.0
  0
LINE
  5
444E
  8
OBJECT
 10
9.9191786714198855
 20
17.238685741090979
 30
0.0
 11
9.9191786714198855
 21
17.35868574109098
 31
0.0
  0
LINE
  5
444F
  8
OBJECT
 10
9.9191786714198855
 20
17.473685741090978
 30
0.0
 11
9.9191786714198855
 21
17.593685741090979
 31
0.0
  0
LINE
  5
4450
  8
OBJECT
 10
10.37017867141987
 20
18.533685741090981
 30
0.0
 11
9.9021786714198825
 21
18.533685741090981
 31
0.0
  0
LINE
  5
4451
  8
OBJECT
 10
10.37017867141987
 20
17.828685741090979
 30
0.0
 11
9.9021786714198825
 21
17.828685741090979
 31
0.0
  0
LINE
  5
4452
  8
OBJECT
 10
10.37017867141987
 20
18.063685741090978
 30
0.0
 11
9.9021786714198825
 21
18.063685741090978
 31
0.0
  0
LINE
  5
4453
  8
OBJECT
 10
10.37017867141987
 20
17.943685741090981
 30
0.0
 11
9.9021786714198825
 21
17.943685741090981
 31
0.0
  0
LINE
  5
4454
  8
OBJECT
 10
10.37017867141987
 20
18.298685741090981
 30
0.0
 11
9.9021786714198825
 21
18.298685741090981
 31
0.0
  0
LINE
  5
4455
  8
OBJECT
 10
10.37017867141987
 20
18.17868574109098
 30
0.0
 11
9.9021786714198825
 21
18.17868574109098
 31
0.0
  0
LINE
  5
4456
  8
OBJECT
 10
10.37017867141987
 20
18.41368574109098
 30
0.0
 11
9.9021786714198825
 21
18.41368574109098
 31
0.0
  0
LINE
  5
4457
  8
OBJECT
 10
10.37017867141987
 20
17.943685741090981
 30
0.0
 11
10.37017867141987
 21
18.063685741090978
 31
0.0
  0
LINE
  5
4458
  8
OBJECT
 10
10.37017867141987
 20
18.17868574109098
 30
0.0
 11
10.37017867141987
 21
18.298685741090981
 31
0.0
  0
LINE
  5
4459
  8
OBJECT
 10
10.37017867141987
 20
18.41368574109098
 30
0.0
 11
10.37017867141987
 21
18.533685741090981
 31
0.0
  0
LINE
  5
445A
  8
OBJECT
 10
9.9191786714198855
 20
17.943685741090981
 30
0.0
 11
9.9191786714198855
 21
18.063685741090978
 31
0.0
  0
LINE
  5
445B
  8
OBJECT
 10
9.9191786714198855
 20
18.17868574109098
 30
0.0
 11
9.9191786714198855
 21
18.298685741090981
 31
0.0
  0
LINE
  5
445C
  8
OBJECT
 10
9.9191786714198855
 20
18.41368574109098
 30
0.0
 11
9.9191786714198855
 21
18.533685741090981
 31
0.0
  0
LINE
  5
445D
  8
OBJECT
 10
10.37017867141987
 20
18.76868574109098
 30
0.0
 11
9.9021786714198825
 21
18.76868574109098
 31
0.0
  0
LINE
  5
445E
  8
OBJECT
 10
10.37017867141987
 20
18.648685741090979
 30
0.0
 11
9.9021786714198825
 21
18.648685741090979
 31
0.0
  0
LINE
  5
445F
  8
OBJECT
 10
10.37017867141987
 20
18.883685741090979
 30
0.0
 11
9.9021786714198825
 21
18.883685741090979
 31
0.0
  0
LINE
  5
4460
  8
OBJECT
 10
10.37017867141987
 20
19.00368574109098
 30
0.0
 11
9.9021786714198825
 21
19.00368574109098
 31
0.0
  0
LINE
  5
4461
  8
OBJECT
 10
10.37017867141987
 20
19.118685741090982
 30
0.0
 11
9.9021786714198825
 21
19.118685741090982
 31
0.0
  0
LINE
  5
4462
  8
OBJECT
 10
10.37017867141987
 20
18.883685741090979
 30
0.0
 11
10.37017867141987
 21
19.00368574109098
 31
0.0
  0
POLYLINE
  5
4463
  8
HIDDEN
 66
     1
 10
0.0
 20
0.0
 30
0.0
  0
VERTEX
  5
5E5F
  8
HIDDEN
 10
10.02217867141988
 20
18.948685741090991
 30
0.0
  0
VERTEX
  5
5E60
  8
HIDDEN
 10
10.661178671419879
 20
18.948685741090991
 30
0.0
  0
VERTEX
  5
5E61
  8
HIDDEN
 10
10.661178671419879
 20
18.888685741090981
 30
0.0
  0
VERTEX
  5
5E62
  8
HIDDEN
 10
10.02217867141988
 20
18.888685741090981
 30
0.0
  0
SEQEND
  5
5E63
  8
HIDDEN
  0
POLYLINE
  5
4464
  8
HIDDEN
 66
     1
 10
0.0
 20
0.0
 30
0.0
  0
VERTEX
  5
5E64
  8
HIDDEN
 10
10.02217867141988
 20
18.73068574109098
 30
0.0
  0
VERTEX
  5
5E65
  8
HIDDEN
 10
10.661178671419879
 20
18.73068574109098
 30
0.0
  0
VERTEX
  5
5E66
  8
HIDDEN
 10
10.661178671419879
 20
18.790685741090989
 30
0.0
  0
VERTEX
  5
5E67
  8
HIDDEN
 10
10.02217867141988
 20
18.790685741090989
 30
0.0
  0
SEQEND
  5
5E68
  8
HIDDEN
  0
LINE
  5
4465
  8
OBJECT
 10
10.37017867141987
 20
18.648685741090979
 30
0.0
 11
10.37017867141987
 21
18.76868574109098
 31
0.0
  0
LINE
  5
4466
  8
HIDDEN
 10
10.178178671419881
 20
19.305685741090979
 30
0.0
 11
10.02217867141988
 21
19.305685741090979
 31
0.0
  0
LINE
  5
4467
  8
OBJECT
 10
9.9191786714198855
 20
18.883685741090979
 30
0.0
 11
9.9191786714198855
 21
19.00368574109098
 31
0.0
  0
LINE
  5
4468
  8
OBJECT
 10
9.9191786714198855
 20
18.648685741090979
 30
0.0
 11
9.9191786714198855
 21
18.76868574109098
 31
0.0
  0
LINE
  5
4469
  8
HIDDEN
 10
10.08217867141988
 20
20.033685741090981
 30
0.0
 11
10.03217867141988
 21
20.098685741090978
 31
0.0
  0
LINE
  5
446A
  8
OBJECT
 10
10.37017867141987
 20
19.546685741090968
 30
0.0
 11
9.9021786714198825
 21
19.546685741090968
 31
0.0
  0
LINE
  5
446B
  8
OBJECT
 10
10.37017867141987
 20
19.546685741090979
 30
0.0
 11
9.9021786714198825
 21
19.546685741090968
 31
0.0
  0
LINE
  5
446C
  8
HIDDEN
 10
10.178178671419881
 20
19.395685741090979
 30
0.0
 11
10.02217867141988
 21
19.395685741090979
 31
0.0
  0
LINE
  5
446D
  8
HIDDEN
 10
10.01067867141988
 20
19.938685741090978
 30
0.0
 11
10.01067867141988
 21
20.033685741090981
 31
0.0
  0
LINE
  5
446E
  8
HIDDEN
 10
10.08217867141988
 20
19.938685741090978
 30
0.0
 11
10.08217867141988
 21
19.89368574109098
 31
0.0
  0
POLYLINE
  5
446F
  8
BEND
 66
     1
 10
0.0
 20
0.0
 30
0.0
 70
     1
  0
VERTEX
  5
5E69
  8
BEND
 10
6.7114289715482149
 20
4.5029924891003601
 30
0.0
  0
VERTEX
  5
5E6A
  8
BEND
 10
6.742244745766647
 20
5.0909924891003611
 30
0.0
  0
VERTEX
  5
5E6B
  8
BEND
 10
6.742244745766647
 20
5.129992489100359
 30
0.0
  0
VERTEX
  5
5E6C
  8
BEND
 10
6.7114289715482149
 20
5.71799248910036
 30
0.0
  0
VERTEX
  5
5E6D
  8
BEND
 10
1.699554564544328
 20
5.71799248910036
 30
0.0
  0
VERTEX
  5
5E6E
  8
BEND
 10
1.6687387903258959
 20
5.129992489100359
 30
0.0
  0
VERTEX
  5
5E6F
  8
BEND
 10
1.6687387903258959
 20
5.0909924891003611
 30
0.0
  0
VERTEX
  5
5E70
  8
BEND
 10
1.699554564544328
 20
4.5029924891003601
 30
0.0
  0
SEQEND
  5
5E71
  8
BEND
  0
LINE
  5
44EA
  8
OBJECT
 10
14.95468550991237
 20
19.89368574109098
 30
0.0
 11
14.95468550991237
 21
12.82368574109098
 31
0.0
  0
LINE
  5
44EB
  8
OBJECT
 10
13.619685509912371
 20
19.89368574109098
 30
0.0
 11
13.619685509912371
 21
12.82368574109098
 31
0.0
  0
POLYLINE
  5
44EC
  8
OBJECT
 66
     1
 10
0.0
 20
0.0
 30
0.0
  0
VERTEX
  5
5E72
  8
OBJECT
 10
14.26768550991237
 20
12.843685741090979
 30
0.0
  0
VERTEX
  5
5E73
  8
OBJECT
 10
14.180685509912371
 20
12.843685741090979
 30
0.0
  0
VERTEX
  5
5E74
  8
OBJECT
 10
14.180685509912371
 20
13.218685741090979
 30
0.0
  0
SEQEND
  5
5E75
  8
OBJECT
  0
LINE
  5
44ED
  8
OBJECT
 10
14.17768550991237
 20
12.82368574109098
 30
0.0
 11
14.17768550991237
 21
13.218685741090979
 31
0.0
  0
POLYLINE
  5
44EE
  8
HIDDEN
 66
     1
 10
0.0
 20
0.0
 30
0.0
  0
VERTEX
  5
5E76
  8
HIDDEN
 10
14.28368550991237
 20
19.395685741090979
 30
0.0
  0
VERTEX
  5
5E77
  8
HIDDEN
 10
13.56568550991237
 20
19.395685741090979
 30
0.0
  0
VERTEX
  5
5E78
  8
HIDDEN
 10
13.56568550991237
 20
19.305685741090979
 30
0.0
  0
VERTEX
  5
5E79
  8
HIDDEN
 10
14.28368550991237
 20
19.305685741090979
 30
0.0
  0
SEQEND
  5
5E7A
  8
HIDDEN
  0
POLYLINE
  5
44EF
  8
OBJECT
 66
     1
 10
0.0
 20
0.0
 30
0.0
  0
VERTEX
  5
5E7B
  8
OBJECT
 10
13.619685509912371
 20
18.948685741090991
 30
0.0
  0
VERTEX
  5
5E7C
  8
OBJECT
 10
14.25868550991237
 20
18.948685741090991
 30
0.0
  0
VERTEX
  5
5E7D
  8
OBJECT
 10
14.25868550991237
 20
18.888685741090981
 30
0.0
  0
VERTEX
  5
5E7E
  8
OBJECT
 10
13.619685509912371
 20
18.888685741090981
 30
0.0
  0
SEQEND
  5
5E7F
  8
OBJECT
  0
POLYLINE
  5
44F0
  8
OBJECT
 66
     1
 10
0.0
 20
0.0
 30
0.0
  0
VERTEX
  5
5E80
  8
OBJECT
 10
13.619685509912371
 20
19.202685741090988
 30
0.0
  0
VERTEX
  5
5E81
  8
OBJECT
 10
14.28368550991237
 20
19.202685741090988
 30
0.0
  0
VERTEX
  5
5E82
  8
OBJECT
 10
14.28368550991237
 20
19.498685741090981
 30
0.0
  0
VERTEX
  5
5E83
  8
OBJECT
 10
13.619685509912371
 20
19.498685741090981
 30
0.0
  0
SEQEND
  5
5E84
  8
OBJECT
  0
POLYLINE
  5
44F1
  8
OBJECT
 66
     1
 10
0.0
 20
0.0
 30
0.0
  0
VERTEX
  5
5E85
  8
OBJECT
 10
13.619685509912371
 20
18.73068574109098
 30
0.0
  0
VERTEX
  5
5E86
  8
OBJECT
 10
14.25868550991237
 20
18.73068574109098
 30
0.0
  0
VERTEX
  5
5E87
  8
OBJECT
 10
14.25868550991237
 20
18.790685741090989
 30
0.0
  0
VERTEX
  5
5E88
  8
OBJECT
 10
13.619685509912371
 20
18.790685741090989
 30
0.0
  0
SEQEND
  5
5E89
  8
OBJECT
  0
POLYLINE
  5
44F2
  8
OBJECT
 66
     1
 10
0.0
 20
0.0
 30
0.0
  0
VERTEX
  5
5E8A
  8
OBJECT
 10
13.775685509912369
 20
17.29468574109098
 30
0.0
  0
VERTEX
  5
5E8B
  8
OBJECT
 10
14.25868550991237
 20
17.294685741090991
 30
0.0
  0
VERTEX
  5
5E8C
  8
OBJECT
 10
14.25868550991237
 20
17.234685741090988
 30
0.0
  0
VERTEX
  5
5E8D
  8
OBJECT
 10
13.775685509912369
 20
17.234685741090981
 30
0.0
  0
SEQEND
  5
5E8E
  8
OBJECT
  0
POLYLINE
  5
44F3
  8
OBJECT
 66
     1
 10
0.0
 20
0.0
 30
0.0
  0
VERTEX
  5
5E8F
  8
OBJECT
 10
13.619685509912371
 20
17.076685741090991
 30
0.0
  0
VERTEX
  5
5E90
  8
OBJECT
 10
14.25868550991237
 20
17.076685741090991
 30
0.0
  0
VERTEX
  5
5E91
  8
OBJECT
 10
14.25868550991237
 20
17.136685741090989
 30
0.0
  0
VERTEX
  5
5E92
  8
OBJECT
 10
13.619685509912371
 20
17.136685741090979
 30
0.0
  0
SEQEND
  5
5E93
  8
OBJECT
  0
POLYLINE
  5
44F4
  8
OBJECT
 66
     1
 10
0.0
 20
0.0
 30
0.0
  0
VERTEX
  5
5E94
  8
OBJECT
 10
13.619685509912371
 20
15.64068574109098
 30
0.0
  0
VERTEX
  5
5E95
  8
OBJECT
 10
14.25868550991237
 20
15.640685741090991
 30
0.0
  0
VERTEX
  5
5E96
  8
OBJECT
 10
14.25868550991237
 20
15.58068574109098
 30
0.0
  0
VERTEX
  5
5E97
  8
OBJECT
 10
13.619685509912371
 20
15.58068574109098
 30
0.0
  0
SEQEND
  5
5E98
  8
OBJECT
  0
POLYLINE
  5
44F5
  8
OBJECT
 66
     1
 10
0.0
 20
0.0
 30
0.0
  0
VERTEX
  5
5E99
  8
OBJECT
 10
13.775685509912369
 20
15.42268574109098
 30
0.0
  0
VERTEX
  5
5E9A
  8
OBJECT
 10
14.25868550991237
 20
15.42268574109098
 30
0.0
  0
VERTEX
  5
5E9B
  8
OBJECT
 10
14.25868550991237
 20
15.482685741090989
 30
0.0
  0
VERTEX
  5
5E9C
  8
OBJECT
 10
13.775685509912369
 20
15.482685741090981
 30
0.0
  0
SEQEND
  5
5E9D
  8
OBJECT
  0
POLYLINE
  5
44F6
  8
OBJECT
 66
     1
 10
0.0
 20
0.0
 30
0.0
  0
VERTEX
  5
5E9E
  8
OBJECT
 10
13.619685509912371
 20
13.98668574109098
 30
0.0
  0
VERTEX
  5
5E9F
  8
OBJECT
 10
14.25868550991237
 20
13.98668574109098
 30
0.0
  0
VERTEX
  5
5EA0
  8
OBJECT
 10
14.25868550991237
 20
13.92668574109098
 30
0.0
  0
VERTEX
  5
5EA1
  8
OBJECT
 10
13.619685509912371
 20
13.92668574109098
 30
0.0
  0
SEQEND
  5
5EA2
  8
OBJECT
  0
POLYLINE
  5
44F7
  8
OBJECT
 66
     1
 10
0.0
 20
0.0
 30
0.0
  0
VERTEX
  5
5EA3
  8
OBJECT
 10
13.619685509912371
 20
13.76868574109098
 30
0.0
  0
VERTEX
  5
5EA4
  8
OBJECT
 10
14.25868550991237
 20
13.76868574109098
 30
0.0
  0
VERTEX
  5
5EA5
  8
OBJECT
 10
14.25868550991237
 20
13.828685741090981
 30
0.0
  0
VERTEX
  5
5EA6
  8
OBJECT
 10
13.619685509912371
 20
13.828685741090981
 30
0.0
  0
SEQEND
  5
5EA7
  8
OBJECT
  0
POLYLINE
  5
44F8
  8
HIDDEN
 66
     1
 10
0.0
 20
0.0
 30
0.0
  0
VERTEX
  5
5EA8
  8
HIDDEN
 10
14.28368550991237
 20
13.411685741090981
 30
0.0
  0
VERTEX
  5
5EA9
  8
HIDDEN
 10
13.56568550991237
 20
13.411685741090981
 30
0.0
  0
VERTEX
  5
5EAA
  8
HIDDEN
 10
13.56568550991237
 20
13.321685741090979
 30
0.0
  0
VERTEX
  5
5EAB
  8
HIDDEN
 10
14.28368550991237
 20
13.321685741090979
 30
0.0
  0
SEQEND
  5
5EAC
  8
HIDDEN
  0
POLYLINE
  5
44F9
  8
OBJECT
 66
     1
 10
0.0
 20
0.0
 30
0.0
  0
VERTEX
  5
5EAD
  8
OBJECT
 10
13.619685509912371
 20
13.218685741090979
 30
0.0
  0
VERTEX
  5
5EAE
  8
OBJECT
 10
14.28368550991237
 20
13.218685741090979
 30
0.0
  0
VERTEX
  5
5EAF
  8
OBJECT
 10
14.28368550991237
 20
13.514685741090981
 30
0.0
  0
VERTEX
  5
5EB0
  8
OBJECT
 10
13.619685509912371
 20
13.514685741090981
 30
0.0
  0
SEQEND
  5
5EB1
  8
OBJECT
  0
LINE
  5
44FA
  8
OBJECT
 10
13.608185509912371
 20
12.683685741090979
 30
0.0
 11
14.96618550991238
 21
12.683685741090979
 31
0.0
  0
LINE
  5
44FB
  8
OBJECT
 10
13.608185509912371
 20
12.77868574109098
 30
0.0
 11
14.96618550991238
 21
12.77868574109098
 31
0.0
  0
LINE
  5
44FC
  8
OBJECT
 10
13.619685509912371
 20
12.82368574109098
 30
0.0
 11
14.267685509912379
 21
12.82368574109098
 31
0.0
  0
LINE
  5
44FD
  8
OBJECT
 10
13.608185509912371
 20
12.77868574109098
 30
0.0
 11
13.608185509912371
 21
12.683685741090979
 31
0.0
  0
LINE
  5
44FE
  8
OBJECT
 10
13.679685509912369
 20
12.68368574109099
 30
0.0
 11
13.62968550991237
 21
12.61868574109098
 31
0.0
  0
LINE
  5
44FF
  8
OBJECT
 10
13.679685509912369
 20
12.77868574109098
 30
0.0
 11
13.679685509912369
 21
12.823685741090991
 31
0.0
  0
LINE
  5
4500
  8
HIDDEN
 10
13.775685509912369
 20
13.321685741090979
 30
0.0
 11
13.619685509912371
 21
13.321685741090979
 31
0.0
  0
LINE
  5
4501
  8
HIDDEN
 10
13.775685509912369
 20
13.411685741090981
 30
0.0
 11
13.619685509912371
 21
13.411685741090981
 31
0.0
  0
POLYLINE
  5
4502
  8
OBJECT
 66
     1
 10
0.0
 20
0.0
 30
0.0
  0
VERTEX
  5
5EB2
  8
OBJECT
 10
13.619685509912371
 20
13.25868574109098
 30
0.0
  0
VERTEX
  5
5EB3
  8
OBJECT
 10
13.775685509912369
 20
13.25868574109098
 30
0.0
  0
VERTEX
  5
5EB4
  8
OBJECT
 10
13.775685509912369
 20
13.47468574109098
 30
0.0
  0
VERTEX
  5
5EB5
  8
OBJECT
 10
13.619685509912371
 20
13.47468574109098
 30
0.0
  0
SEQEND
  5
5EB6
  8
OBJECT
  0
POLYLINE
  5
4503
  8
OBJECT
 66
     1
 10
0.0
 20
0.0
 30
0.0
  0
VERTEX
  5
5EB7
  8
OBJECT
 10
13.619685509912371
 20
15.34468574109099
 30
0.0
  0
VERTEX
  5
5EB8
  8
OBJECT
 10
13.775685509912369
 20
15.34468574109099
 30
0.0
  0
VERTEX
  5
5EB9
  8
OBJECT
 10
13.775685509912369
 20
15.56068574109098
 30
0.0
  0
VERTEX
  5
5EBA
  8
OBJECT
 10
13.619685509912371
 20
15.56068574109098
 30
0.0
  0
SEQEND
  5
5EBB
  8
OBJECT
  0
LINE
  5
4504
  8
HIDDEN
 10
13.775685509912369
 20
15.40768574109098
 30
0.0
 11
13.619685509912371
 21
15.40768574109098
 31
0.0
  0
LINE
  5
4505
  8
HIDDEN
 10
13.775685509912369
 20
15.49768574109099
 30
0.0
 11
13.619685509912371
 21
15.49768574109099
 31
0.0
  0
POLYLINE
  5
4506
  8
OBJECT
 66
     1
 10
0.0
 20
0.0
 30
0.0
  0
VERTEX
  5
5EBC
  8
OBJECT
 10
13.619685509912371
 20
17.156685741090978
 30
0.0
  0
VERTEX
  5
5EBD
  8
OBJECT
 10
13.775685509912369
 20
17.156685741090978
 30
0.0
  0
VERTEX
  5
5EBE
  8
OBJECT
 10
13.775685509912369
 20
17.37268574109099
 30
0.0
  0
VERTEX
  5
5EBF
  8
OBJECT
 10
13.619685509912371
 20
17.37268574109099
 30
0.0
  0
SEQEND
  5
5EC0
  8
OBJECT
  0
LINE
  5
4507
  8
HIDDEN
 10
13.775685509912369
 20
17.219685741090991
 30
0.0
 11
13.619685509912371
 21
17.219685741090991
 31
0.0
  0
LINE
  5
4508
  8
HIDDEN
 10
13.775685509912369
 20
17.309685741090981
 30
0.0
 11
13.619685509912371
 21
17.309685741090981
 31
0.0
  0
LINE
  5
4509
  8
HIDDEN
 10
13.775685509912369
 20
19.395685741090979
 30
0.0
 11
13.619685509912371
 21
19.395685741090979
 31
0.0
  0
LINE
  5
450A
  8
HIDDEN
 10
13.775685509912369
 20
19.305685741090979
 30
0.0
 11
13.619685509912371
 21
19.305685741090979
 31
0.0
  0
POLYLINE
  5
450B
  8
OBJECT
 66
     1
 10
0.0
 20
0.0
 30
0.0
  0
VERTEX
  5
5EC1
  8
OBJECT
 10
13.619685509912371
 20
19.24268574109098
 30
0.0
  0
VERTEX
  5
5EC2
  8
OBJECT
 10
13.775685509912369
 20
19.24268574109098
 30
0.0
  0
VERTEX
  5
5EC3
  8
OBJECT
 10
13.775685509912369
 20
19.458685741090981
 30
0.0
  0
VERTEX
  5
5EC4
  8
OBJECT
 10
13.619685509912371
 20
19.458685741090981
 30
0.0
  0
SEQEND
  5
5EC5
  8
OBJECT
  0
POLYLINE
  5
450C
  8
HIDDEN
 66
     1
 10
0.0
 20
0.0
 30
0.0
  0
VERTEX
  5
5EC6
  8
HIDDEN
 10
15.074685509912371
 20
13.48168574109099
 30
0.0
  0
VERTEX
  5
5EC7
  8
HIDDEN
 10
14.884685509912369
 20
13.48168574109099
 30
0.0
  0
VERTEX
  5
5EC8
  8
HIDDEN
 10
14.884685509912369
 20
13.251685741090981
 30
0.0
  0
VERTEX
  5
5EC9
  8
HIDDEN
 10
15.074685509912371
 20
13.251685741090981
 30
0.0
  0
SEQEND
  5
5ECA
  8
HIDDEN
  0
POLYLINE
  5
450D
  8
OBJECT
 66
     1
 10
0.0
 20
0.0
 30
0.0
  0
VERTEX
  5
5ECB
  8
OBJECT
 10
14.95468550991237
 20
13.98668574109098
 30
0.0
  0
VERTEX
  5
5ECC
  8
OBJECT
 10
14.31568550991237
 20
13.98668574109098
 30
0.0
  0
VERTEX
  5
5ECD
  8
OBJECT
 10
14.31568550991237
 20
13.92668574109098
 30
0.0
  0
VERTEX
  5
5ECE
  8
OBJECT
 10
14.95468550991237
 20
13.92668574109098
 30
0.0
  0
SEQEND
  5
5ECF
  8
OBJECT
  0
POLYLINE
  5
450E
  8
OBJECT
 66
     1
 10
0.0
 20
0.0
 30
0.0
  0
VERTEX
  5
5ED0
  8
OBJECT
 10
14.95468550991237
 20
13.76868574109098
 30
0.0
  0
VERTEX
  5
5ED1
  8
OBJECT
 10
14.31568550991237
 20
13.76868574109098
 30
0.0
  0
VERTEX
  5
5ED2
  8
OBJECT
 10
14.31568550991237
 20
13.828685741090981
 30
0.0
  0
VERTEX
  5
5ED3
  8
OBJECT
 10
14.95468550991237
 20
13.828685741090981
 30
0.0
  0
SEQEND
  5
5ED4
  8
OBJECT
  0
LINE
  5
450F
  8
HIDDEN
 10
14.884685509912369
 20
13.30168574109098
 30
0.0
 11
14.29068550991237
 21
13.30168574109098
 31
0.0
  0
LINE
  5
4510
  8
HIDDEN
 10
14.884685509912369
 20
13.43168574109098
 30
0.0
 11
14.29068550991237
 21
13.43168574109098
 31
0.0
  0
POLYLINE
  5
4511
  8
OBJECT
 66
     1
 10
0.0
 20
0.0
 30
0.0
  0
VERTEX
  5
5ED5
  8
OBJECT
 10
14.95468550991237
 20
13.218685741090979
 30
0.0
  0
VERTEX
  5
5ED6
  8
OBJECT
 10
14.29068550991237
 20
13.218685741090979
 30
0.0
  0
VERTEX
  5
5ED7
  8
OBJECT
 10
14.29068550991237
 20
13.514685741090981
 30
0.0
  0
VERTEX
  5
5ED8
  8
OBJECT
 10
14.95468550991237
 20
13.514685741090981
 30
0.0
  0
SEQEND
  5
5ED9
  8
OBJECT
  0
LINE
  5
4512
  8
OBJECT
 10
14.96618550991238
 20
12.77868574109098
 30
0.0
 11
14.96618550991238
 21
12.683685741090979
 31
0.0
  0
LINE
  5
4513
  8
OBJECT
 10
14.894685509912369
 20
12.68368574109099
 30
0.0
 11
14.94468550991237
 21
12.61868574109098
 31
0.0
  0
LINE
  5
4514
  8
OBJECT
 10
14.894685509912369
 20
12.77868574109098
 30
0.0
 11
14.894685509912369
 21
12.823685741090991
 31
0.0
  0
LINE
  5
4515
  8
HIDDEN
 10
14.798685509912371
 20
13.321685741090979
 30
0.0
 11
14.954685509912361
 21
13.321685741090979
 31
0.0
  0
LINE
  5
4516
  8
HIDDEN
 10
14.798685509912371
 20
13.411685741090981
 30
0.0
 11
14.954685509912361
 21
13.411685741090981
 31
0.0
  0
POLYLINE
  5
4517
  8
OBJECT
 66
     1
 10
0.0
 20
0.0
 30
0.0
  0
VERTEX
  5
5EDA
  8
OBJECT
 10
14.95468550991237
 20
13.25868574109098
 30
0.0
  0
VERTEX
  5
5EDB
  8
OBJECT
 10
14.798685509912371
 20
13.25868574109098
 30
0.0
  0
VERTEX
  5
5EDC
  8
OBJECT
 10
14.798685509912371
 20
13.47468574109098
 30
0.0
  0
VERTEX
  5
5EDD
  8
OBJECT
 10
14.95468550991237
 20
13.47468574109098
 30
0.0
  0
SEQEND
  5
5EDE
  8
OBJECT
  0
POLYLINE
  5
4518
  8
OBJECT
 66
     1
 10
0.0
 20
0.0
 30
0.0
  0
VERTEX
  5
5EDF
  8
OBJECT
 10
14.95468550991237
 20
15.64068574109098
 30
0.0
  0
VERTEX
  5
5EE0
  8
OBJECT
 10
14.31568550991237
 20
15.640685741090991
 30
0.0
  0
VERTEX
  5
5EE1
  8
OBJECT
 10
14.31568550991237
 20
15.58068574109098
 30
0.0
  0
VERTEX
  5
5EE2
  8
OBJECT
 10
14.95468550991237
 20
15.58068574109098
 30
0.0
  0
SEQEND
  5
5EE3
  8
OBJECT
  0
POLYLINE
  5
4519
  8
OBJECT
 66
     1
 10
0.0
 20
0.0
 30
0.0
  0
VERTEX
  5
5EE4
  8
OBJECT
 10
14.798685509912371
 20
15.42268574109098
 30
0.0
  0
VERTEX
  5
5EE5
  8
OBJECT
 10
14.31568550991237
 20
15.42268574109098
 30
0.0
  0
VERTEX
  5
5EE6
  8
OBJECT
 10
14.31568550991237
 20
15.482685741090989
 30
0.0
  0
VERTEX
  5
5EE7
  8
OBJECT
 10
14.798685509912371
 20
15.482685741090981
 30
0.0
  0
SEQEND
  5
5EE8
  8
OBJECT
  0
POLYLINE
  5
451A
  8
OBJECT
 66
     1
 10
0.0
 20
0.0
 30
0.0
  0
VERTEX
  5
5EE9
  8
OBJECT
 10
14.95468550991237
 20
15.34468574109099
 30
0.0
  0
VERTEX
  5
5EEA
  8
OBJECT
 10
14.798685509912371
 20
15.34468574109099
 30
0.0
  0
VERTEX
  5
5EEB
  8
OBJECT
 10
14.798685509912371
 20
15.56068574109098
 30
0.0
  0
VERTEX
  5
5EEC
  8
OBJECT
 10
14.95468550991237
 20
15.56068574109098
 30
0.0
  0
SEQEND
  5
5EED
  8
OBJECT
  0
LINE
  5
451B
  8
HIDDEN
 10
14.798685509912371
 20
15.40768574109098
 30
0.0
 11
14.954685509912361
 21
15.40768574109098
 31
0.0
  0
LINE
  5
451C
  8
HIDDEN
 10
14.798685509912371
 20
15.49768574109099
 30
0.0
 11
14.954685509912361
 21
15.49768574109099
 31
0.0
  0
POLYLINE
  5
451D
  8
HIDDEN
 66
     1
 10
0.0
 20
0.0
 30
0.0
  0
VERTEX
  5
5EEE
  8
HIDDEN
 10
15.074685509912371
 20
19.465685741090979
 30
0.0
  0
VERTEX
  5
5EEF
  8
HIDDEN
 10
14.884685509912369
 20
19.465685741090979
 30
0.0
  0
VERTEX
  5
5EF0
  8
HIDDEN
 10
14.884685509912369
 20
19.23568574109099
 30
0.0
  0
VERTEX
  5
5EF1
  8
HIDDEN
 10
15.074685509912371
 20
19.23568574109099
 30
0.0
  0
SEQEND
  5
5EF2
  8
HIDDEN
  0
POLYLINE
  5
451E
  8
OBJECT
 66
     1
 10
0.0
 20
0.0
 30
0.0
  0
VERTEX
  5
5EF3
  8
OBJECT
 10
14.798685509912371
 20
17.29468574109098
 30
0.0
  0
VERTEX
  5
5EF4
  8
OBJECT
 10
14.31568550991237
 20
17.294685741090991
 30
0.0
  0
VERTEX
  5
5EF5
  8
OBJECT
 10
14.31568550991237
 20
17.234685741090988
 30
0.0
  0
VERTEX
  5
5EF6
  8
OBJECT
 10
14.798685509912371
 20
17.234685741090981
 30
0.0
  0
SEQEND
  5
5EF7
  8
OBJECT
  0
POLYLINE
  5
451F
  8
OBJECT
 66
     1
 10
0.0
 20
0.0
 30
0.0
  0
VERTEX
  5
5EF8
  8
OBJECT
 10
14.95468550991237
 20
17.076685741090991
 30
0.0
  0
VERTEX
  5
5EF9
  8
OBJECT
 10
14.31568550991237
 20
17.076685741090991
 30
0.0
  0
VERTEX
  5
5EFA
  8
OBJECT
 10
14.31568550991237
 20
17.136685741090989
 30
0.0
  0
VERTEX
  5
5EFB
  8
OBJECT
 10
14.95468550991237
 20
17.136685741090979
 30
0.0
  0
SEQEND
  5
5EFC
  8
OBJECT
  0
POLYLINE
  5
4520
  8
OBJECT
 66
     1
 10
0.0
 20
0.0
 30
0.0
  0
VERTEX
  5
5EFD
  8
OBJECT
 10
14.95468550991237
 20
17.156685741090978
 30
0.0
  0
VERTEX
  5
5EFE
  8
OBJECT
 10
14.798685509912371
 20
17.156685741090978
 30
0.0
  0
VERTEX
  5
5EFF
  8
OBJECT
 10
14.798685509912371
 20
17.37268574109099
 30
0.0
  0
VERTEX
  5
5F00
  8
OBJECT
 10
14.95468550991237
 20
17.37268574109099
 30
0.0
  0
SEQEND
  5
5F01
  8
OBJECT
  0
LINE
  5
4521
  8
HIDDEN
 10
14.798685509912371
 20
17.219685741090991
 30
0.0
 11
14.954685509912361
 21
17.219685741090991
 31
0.0
  0
LINE
  5
4522
  8
HIDDEN
 10
14.798685509912371
 20
17.309685741090981
 30
0.0
 11
14.954685509912361
 21
17.309685741090981
 31
0.0
  0
POLYLINE
  5
4523
  8
OBJECT
 66
     1
 10
0.0
 20
0.0
 30
0.0
  0
VERTEX
  5
5F02
  8
OBJECT
 10
14.95468550991237
 20
18.948685741090991
 30
0.0
  0
VERTEX
  5
5F03
  8
OBJECT
 10
14.31568550991237
 20
18.948685741090991
 30
0.0
  0
VERTEX
  5
5F04
  8
OBJECT
 10
14.31568550991237
 20
18.888685741090981
 30
0.0
  0
VERTEX
  5
5F05
  8
OBJECT
 10
14.95468550991237
 20
18.888685741090981
 30
0.0
  0
SEQEND
  5
5F06
  8
OBJECT
  0
LINE
  5
4524
  8
HIDDEN
 10
14.884685509912369
 20
19.28568574109098
 30
0.0
 11
14.29068550991237
 21
19.28568574109098
 31
0.0
  0
LINE
  5
4525
  8
HIDDEN
 10
14.884685509912369
 20
19.415685741090989
 30
0.0
 11
14.29068550991237
 21
19.415685741090989
 31
0.0
  0
POLYLINE
  5
4526
  8
OBJECT
 66
     1
 10
0.0
 20
0.0
 30
0.0
  0
VERTEX
  5
5F07
  8
OBJECT
 10
14.95468550991237
 20
19.202685741090988
 30
0.0
  0
VERTEX
  5
5F08
  8
OBJECT
 10
14.29068550991237
 20
19.202685741090988
 30
0.0
  0
VERTEX
  5
5F09
  8
OBJECT
 10
14.29068550991237
 20
19.498685741090981
 30
0.0
  0
VERTEX
  5
5F0A
  8
OBJECT
 10
14.95468550991237
 20
19.498685741090981
 30
0.0
  0
SEQEND
  5
5F0B
  8
OBJECT
  0
POLYLINE
  5
4527
  8
OBJECT
 66
     1
 10
0.0
 20
0.0
 30
0.0
  0
VERTEX
  5
5F0C
  8
OBJECT
 10
14.95468550991237
 20
18.73068574109098
 30
0.0
  0
VERTEX
  5
5F0D
  8
OBJECT
 10
14.31568550991237
 20
18.73068574109098
 30
0.0
  0
VERTEX
  5
5F0E
  8
OBJECT
 10
14.31568550991237
 20
18.790685741090989
 30
0.0
  0
VERTEX
  5
5F0F
  8
OBJECT
 10
14.95468550991237
 20
18.790685741090989
 30
0.0
  0
SEQEND
  5
5F10
  8
OBJECT
  0
LINE
  5
4528
  8
HIDDEN
 10
14.798685509912371
 20
19.395685741090979
 30
0.0
 11
14.954685509912361
 21
19.395685741090979
 31
0.0
  0
LINE
  5
4529
  8
HIDDEN
 10
14.798685509912371
 20
19.305685741090979
 30
0.0
 11
14.954685509912361
 21
19.305685741090979
 31
0.0
  0
POLYLINE
  5
452A
  8
OBJECT
 66
     1
 10
0.0
 20
0.0
 30
0.0
  0
VERTEX
  5
5F11
  8
OBJECT
 10
14.95468550991237
 20
19.24268574109098
 30
0.0
  0
VERTEX
  5
5F12
  8
OBJECT
 10
14.798685509912371
 20
19.24268574109098
 30
0.0
  0
VERTEX
  5
5F13
  8
OBJECT
 10
14.798685509912371
 20
19.458685741090981
 30
0.0
  0
VERTEX
  5
5F14
  8
OBJECT
 10
14.95468550991237
 20
19.458685741090981
 30
0.0
  0
SEQEND
  5
5F15
  8
OBJECT
  0
LINE
  5
452B
  8
OBJECT
 10
13.619685509912371
 20
19.89368574109098
 30
0.0
 11
14.26768550991236
 21
19.89368574109098
 31
0.0
  0
LINE
  5
452C
  8
OBJECT
 10
13.608185509912371
 20
19.938685741090978
 30
0.0
 11
14.96618550991238
 21
19.938685741090978
 31
0.0
  0
LINE
  5
452D
  8
OBJECT
 10
13.608185509912371
 20
20.033685741090981
 30
0.0
 11
14.96618550991238
 21
20.033685741090981
 31
0.0
  0
LINE
  5
452E
  8
OBJECT
 10
13.608185509912371
 20
19.938685741090978
 30
0.0
 11
13.608185509912371
 21
20.033685741090981
 31
0.0
  0
LINE
  5
452F
  8
OBJECT
 10
13.679685509912369
 20
19.938685741090978
 30
0.0
 11
13.679685509912369
 21
19.89368574109098
 31
0.0
  0
LINE
  5
4530
  8
OBJECT
 10
13.679685509912369
 20
20.033685741090981
 30
0.0
 11
13.62968550991237
 21
20.098685741090978
 31
0.0
  0
LINE
  5
4531
  8
OBJECT
 10
14.96618550991238
 20
19.938685741090978
 30
0.0
 11
14.96618550991238
 21
20.033685741090981
 31
0.0
  0
LINE
  5
4532
  8
OBJECT
 10
14.894685509912369
 20
19.938685741090978
 30
0.0
 11
14.894685509912369
 21
19.89368574109098
 31
0.0
  0
LINE
  5
4533
  8
OBJECT
 10
14.894685509912369
 20
20.033685741090981
 30
0.0
 11
14.94468550991237
 21
20.098685741090978
 31
0.0
  0
LINE
  5
4534
  8
OBJECT
 10
15.074685509912371
 20
20.098685741090978
 30
0.0
 11
15.074685509912371
 21
12.61868574109098
 31
0.0
  0
LINE
  5
4536
  8
OBJECT
 10
13.49968550991237
 20
12.61868574109098
 30
0.0
 11
13.49968550991237
 21
20.098685741090978
 31
0.0
  0
LINE
  5
4537
  8
OBJECT
 10
14.26768550991237
 20
12.61868574109098
 30
0.0
 11
14.26768550991237
 21
12.843685741090979
 31
0.0
  0
LINE
  5
4538
  8
OBJECT
 10
13.49968550991237
 20
20.098685741090978
 30
0.0
 11
15.074685509912371
 21
20.098685741090978
 31
0.0
  0
LINE
  5
4539
  8
OBJECT
 10
15.074685509912371
 20
12.61868574109098
 30
0.0
 11
13.49968550991237
 21
12.61868574109098
 31
0.0
  0
LINE
  5
453B
  8
OBJECT
 10
14.17768550991237
 20
13.514685741090981
 30
0.0
 11
14.17768550991237
 21
13.76868574109098
 31
0.0
  0
POLYLINE
  5
453C
  8
OBJECT
 66
     1
 10
0.0
 20
0.0
 30
0.0
  0
VERTEX
  5
5F16
  8
OBJECT
 10
14.180685509912371
 20
13.514685741090981
 30
0.0
  0
VERTEX
  5
5F17
  8
OBJECT
 10
14.180685509912371
 20
13.76868574109098
 30
0.0
  0
SEQEND
  5
5F18
  8
OBJECT
  0
LINE
  5
453E
  8
OBJECT
 10
14.31568550991237
 20
12.82368574109098
 30
0.0
 11
14.31568550991237
 21
12.77868574109098
 31
0.0
  0
LINE
  5
453F
  8
OBJECT
 10
14.31568550991237
 20
12.82368574109098
 30
0.0
 11
14.95468550991237
 21
12.82368574109098
 31
0.0
  0
POLYLINE
  5
4542
  8
OBJECT
 66
     1
 10
0.0
 20
0.0
 30
0.0
  0
VERTEX
  5
5F19
  8
OBJECT
 10
14.180685509912371
 20
13.98668574109098
 30
0.0
  0
VERTEX
  5
5F1A
  8
OBJECT
 10
14.180685509912371
 20
15.42268574109098
 30
0.0
  0
SEQEND
  5
5F1B
  8
OBJECT
  0
LINE
  5
4543
  8
OBJECT
 10
14.17768550991237
 20
13.98668574109098
 30
0.0
 11
14.17768550991236
 21
15.42268574109098
 31
0.0
  0
LINE
  5
4544
  8
OBJECT
 10
14.17768550991237
 20
13.828685741090981
 30
0.0
 11
14.17768550991237
 21
13.92668574109098
 31
0.0
  0
POLYLINE
  5
4545
  8
OBJECT
 66
     1
 10
0.0
 20
0.0
 30
0.0
  0
VERTEX
  5
5F1C
  8
OBJECT
 10
14.180685509912371
 20
13.828685741090981
 30
0.0
  0
VERTEX
  5
5F1D
  8
OBJECT
 10
14.180685509912371
 20
13.92668574109098
 30
0.0
  0
SEQEND
  5
5F1E
  8
OBJECT
  0
LINE
  5
4546
  8
OBJECT
 10
14.17768550991236
 20
15.482685741090981
 30
0.0
 11
14.17768550991236
 21
15.58068574109098
 31
0.0
  0
POLYLINE
  5
4547
  8
OBJECT
 66
     1
 10
0.0
 20
0.0
 30
0.0
  0
VERTEX
  5
5F1F
  8
OBJECT
 10
14.180685509912371
 20
15.482685741090989
 30
0.0
  0
VERTEX
  5
5F20
  8
OBJECT
 10
14.180685509912371
 20
15.58068574109098
 30
0.0
  0
SEQEND
  5
5F21
  8
OBJECT
  0
POLYLINE
  5
4548
  8
OBJECT
 66
     1
 10
0.0
 20
0.0
 30
0.0
  0
VERTEX
  5
5F22
  8
OBJECT
 10
14.180685509912371
 20
15.640685741090991
 30
0.0
  0
VERTEX
  5
5F23
  8
OBJECT
 10
14.180685509912371
 20
17.076685741090991
 30
0.0
  0
SEQEND
  5
5F24
  8
OBJECT
  0
LINE
  5
4549
  8
OBJECT
 10
14.17768550991236
 20
15.64068574109098
 30
0.0
 11
14.17768550991236
 21
17.076685741090991
 31
0.0
  0
LINE
  5
454A
  8
OBJECT
 10
14.17768550991236
 20
17.136685741090989
 30
0.0
 11
14.17768550991236
 21
17.234685741090988
 31
0.0
  0
POLYLINE
  5
454B
  8
OBJECT
 66
     1
 10
0.0
 20
0.0
 30
0.0
  0
VERTEX
  5
5F25
  8
OBJECT
 10
14.180685509912371
 20
17.136685741090989
 30
0.0
  0
VERTEX
  5
5F26
  8
OBJECT
 10
14.180685509912371
 20
17.234685741090988
 30
0.0
  0
SEQEND
  5
5F27
  8
OBJECT
  0
POLYLINE
  5
454C
  8
OBJECT
 66
     1
 10
0.0
 20
0.0
 30
0.0
  0
VERTEX
  5
5F28
  8
OBJECT
 10
14.180685509912371
 20
17.294685741090991
 30
0.0
  0
VERTEX
  5
5F29
  8
OBJECT
 10
14.180685509912371
 20
18.73068574109098
 30
0.0
  0
SEQEND
  5
5F2A
  8
OBJECT
  0
LINE
  5
454D
  8
OBJECT
 10
14.17768550991236
 20
17.294685741090991
 30
0.0
 11
14.17768550991236
 21
18.73068574109098
 31
0.0
  0
LINE
  5
454E
  8
OBJECT
 10
14.17768550991236
 20
18.790685741090989
 30
0.0
 11
14.17768550991236
 21
18.888685741090981
 31
0.0
  0
POLYLINE
  5
454F
  8
OBJECT
 66
     1
 10
0.0
 20
0.0
 30
0.0
  0
VERTEX
  5
5F2B
  8
OBJECT
 10
14.180685509912371
 20
18.790685741090989
 30
0.0
  0
VERTEX
  5
5F2C
  8
OBJECT
 10
14.180685509912371
 20
18.888685741090981
 30
0.0
  0
SEQEND
  5
5F2D
  8
OBJECT
  0
POLYLINE
  5
4550
  8
OBJECT
 66
     1
 10
0.0
 20
0.0
 30
0.0
  0
VERTEX
  5
5F2E
  8
OBJECT
 10
14.180685509912371
 20
18.948685741090991
 30
0.0
  0
VERTEX
  5
5F2F
  8
OBJECT
 10
14.180685509912371
 20
19.202685741090988
 30
0.0
  0
SEQEND
  5
5F30
  8
OBJECT
  0
LINE
  5
4551
  8
OBJECT
 10
14.17768550991236
 20
18.948685741090991
 30
0.0
 11
14.17768550991236
 21
19.202685741090988
 31
0.0
  0
LINE
  5
4552
  8
OBJECT
 10
14.177685509912351
 20
19.498685741090981
 30
0.0
 11
14.177685509912351
 21
19.89368574109098
 31
0.0
  0
POLYLINE
  5
4553
  8
OBJECT
 66
     1
 10
0.0
 20
0.0
 30
0.0
  0
VERTEX
  5
5F31
  8
OBJECT
 10
14.180685509912371
 20
19.498685741090981
 30
0.0
  0
VERTEX
  5
5F32
  8
OBJECT
 10
14.180685509912371
 20
19.873685741090981
 30
0.0
  0
VERTEX
  5
5F33
  8
OBJECT
 10
14.26768550991236
 20
19.873685741090981
 30
0.0
  0
SEQEND
  5
5F34
  8
OBJECT
  0
LINE
  5
4554
  8
OBJECT
 10
14.26768550991236
 20
19.873685741090981
 30
0.0
 11
14.26768550991236
 21
20.098685741090978
 31
0.0
  0
LINE
  5
4555
  8
OBJECT
 10
14.31568550991237
 20
19.89368574109098
 30
0.0
 11
14.31568550991237
 21
19.938685741090978
 31
0.0
  0
LINE
  5
4556
  8
OBJECT
 10
14.31568550991237
 20
19.89368574109098
 30
0.0
 11
14.95468550991237
 21
19.89368574109098
 31
0.0
  0
LINE
  5
4805
  8
OBJECT
 10
1.548491768046272
 20
17.618047980066791
 30
0.0
 11
1.548491768046272
 21
12.82368574109098
 31
0.0
  0
LINE
  5
4806
  8
OBJECT
 10
1.608491768046274
 20
17.61349911642456
 30
0.0
 11
1.608491768046274
 21
12.683685741090979
 31
0.0
  0
LINE
  5
4807
  8
HIDDEN
 10
6.8024917680462726
 20
17.600654539372592
 30
0.0
 11
6.8024917680462726
 21
20.033685741090981
 31
0.0
  0
POLYLINE
  5
4808
  8
OBJECT
 66
     1
 10
0.0
 20
0.0
 30
0.0
  0
VERTEX
  5
5F35
  8
OBJECT
 10
6.8529634380598159
 20
17.59853891412833
 30
0.0
  0
VERTEX
  5
5F36
  8
OBJECT
 10
6.8529634380598159
 20
12.843685741090979
 30
0.0
  0
VERTEX
  5
5F37
  8
OBJECT
 10
6.8024917680462726
 20
12.843685741090979
 30
0.0
  0
SEQEND
  5
5F38
  8
OBJECT
  0
LINE
  5
4809
  8
HIDDEN
 10
6.8624917680462723
 20
17.598355767903868
 30
0.0
 11
6.8624917680462678
 21
19.89368574109098
 31
0.0
  0
LINE
  5
480B
  8
OBJECT
 10
1.558020098032727
 20
17.617104624903401
 30
0.0
 11
1.558020098032727
 21
12.843685741090979
 31
0.0
  0
LINE
  5
480C
  8
OBJECT
 10
1.558020098032727
 20
12.843685741090979
 30
0.0
 11
1.608491768046274
 21
12.843685741090979
 31
0.0
  0
LINE
  5
49A8
  8
CENTER
 10
6.627491768046279
 20
15.53168574109098
 30
0.0
 11
7.0424917680462791
 21
15.53168574109098
 31
0.0
  0
LINE
  5
49AA
  8
CENTER
 10
6.627491768046279
 20
17.185685741090978
 30
0.0
 11
7.0424917680462791
 21
17.185685741090978
 31
0.0
  0
LINE
  5
49AB
  8
CENTER
 10
6.627491768046279
 20
18.839685741090982
 30
0.0
 11
7.0424917680462791
 21
18.839685741090982
 31
0.0
  0
DIMENSION
  5
4A44
  8
DIM
  2
*D28
 10
1.0752930011852291
 20
15.452685741090979
 30
0.0
 11
1.0752930011852271
 21
15.905685741090981
 31
0.0
 70
     0
 13
4.1154917680462724
 23
16.35868574109098
 33
0.0
 14
2.4454917680462742
 24
15.452685741090979
 34
0.0
 50
90.0
  0
DIMENSION
  5
4A52
  8
DIM
  2
*D29
 10
1.0752930011852291
 20
13.366685741090979
 30
0.0
 11
1.0752930011852271
 21
14.40968574109098
 31
0.0
 70
     0
 13
2.4454917680462742
 23
15.452685741090979
 33
0.0
 14
2.4454917680462742
 24
13.366685741090979
 34
0.0
 50
90.0
1001
ACAD
1000
DSTYLE
1002
{
1070
   287
1070
     4
1070
   279
1070
     1
1002
}
  0
DIMENSION
  5
4A9C
  8
DIM
  2
*D30
 10
1.488491768046273
 20
11.983187793243991
 30
0.0
 11
0.5439605180462735
 21
11.983187793243991
 31
0.0
 70
     0
 13
1.8274917680462719
 23
13.366685741090979
 33
0.0
 14
1.488491768046273
 24
12.61868574109098
 34
0.0
 50
0.000000000000007
  0
DIMENSION
  5
4AB4
  8
DIM
  2
*D34
 10
0.6151468889595684
 20
17.264685741090979
 30
0.0
 11
0.6151468889595656
 21
16.811685741090979
 31
0.0
 70
     0
 13
4.1154917680462724
 23
16.35868574109098
 33
0.0
 14
2.4454917680462742
 24
17.264685741090979
 34
0.0
 50
270.0
  0
DIMENSION
  5
4AB5
  8
DIM
  2
*D35
 10
0.6151468889595684
 20
19.350685741090981
 30
0.0
 11
0.6151468889595652
 21
18.307685741090982
 31
0.0
 70
     0
 13
2.4454917680462742
 23
17.264685741090979
 33
0.0
 14
2.4454917680462742
 24
19.350685741090981
 34
0.0
 50
270.0
1001
ACAD
1000
DSTYLE
1002
{
1070
   287
1070
     4
1070
   279
1070
     1
1002
}
  0
DIMENSION
  5
4AB6
  8
DIM
  2
*D33
 10
7.6233267638980697
 20
18.839685741090982
 30
0.0
 11
7.6233267638980671
 21
18.01268574109098
 31
0.0
 70
     0
 13
7.0424917680462791
 23
17.185685741090978
 33
0.0
 14
7.0424917680462791
 24
18.839685741090982
 34
0.0
 50
270.0
  0
DIMENSION
  5
4AB7
  8
DIM
  2
*D32
 10
7.6233267638980697
 20
17.185685741090978
 30
0.0
 11
7.6233267638980671
 21
16.772185741090979
 31
0.0
 70
     0
 13
4.2954917680462721
 23
16.35868574109098
 33
0.0
 14
7.0424917680462791
 24
17.185685741090978
 34
0.0
 50
270.0
  0
DIMENSION
  5
4AB8
  8
DIM
  2
*D31
 10
7.4309098682788166
 20
20.098685741090978
 30
0.0
 11
7.4309098682788131
 21
19.72468574109098
 31
0.0
 70
     0
 13
6.5834917680462723
 23
19.350685741090981
 33
0.0
 14
6.9224917680462701
 24
20.098685741090978
 34
0.0
 50
270.0
  0
TEXT
  5
5818
  8
TEXT
 10
37.262275731836858
 20
1.275103041732415
 30
0.0
 40
0.125
  1
 
 41
0.75
 72
     4
 11
37.309150731836858
 21
1.275103041732415
 31
0.0
  0
TEXT
  5
581B
  8
TEXT
 10
38.323839435646732
 20
1.2793763810425809
 30
0.0
 40
0.125
  1
 
 41
0.75
 72
     4
 11
38.370714435646732
 21
1.2793763810425809
 31
0.0
  0
TEXT
  5
5830
  8
TEXT
 10
39.35927573183686
 20
1.0667697083990819
 30
0.0
 40
0.125
  1
 
 41
0.75
 72
     4
 11
39.40615073183686
 21
1.0667697083990819
 31
0.0
  0
TEXT
  5
5832
  8
TEXT
 10
40.406275731836857
 20
1.275103041732415
 30
0.0
 40
0.125
  1
 
 41
0.75
 72
     4
 11
40.453150731836857
 21
1.275103041732415
 31
0.0
  0
TEXT
  5
5835
  8
TEXT
 10
41.453275731836868
 20
1.275103041732415
 30
0.0
 40
0.125
  1
 
 41
0.75
 72
     4
 11
41.500150731836868
 21
1.275103041732415
 31
0.0
  0
TEXT
  5
5838
  8
TEXT
 10
42.500275731836858
 20
1.275103041732415
 30
0.0
 40
0.125
  1
 
 41
0.75
 72
     4
 11
42.547150731836858
 21
1.275103041732415
 31
0.0
  0
TEXT
  5
583B
  8
TEXT
 10
43.547275731836862
 20
1.0667697083990819
 30
0.0
 40
0.125
  1
 
 41
0.75
 72
     4
 11
43.594150731836862
 21
1.0667697083990819
 31
0.0
  0
TEXT
  5
583D
  8
TEXT
 10
44.594275731836859
 20
1.275103041732415
 30
0.0
 40
0.125
  1
 
 41
0.75
 72
     4
 11
44.641150731836873
 21
1.275103041732415
 31
0.0
  0
TEXT
  5
5840
  8
TEXT
 10
45.64127573183687
 20
1.275103041732415
 30
0.0
 40
0.125
  1
 
 41
0.75
 72
     4
 11
45.68815073183687
 21
1.275103041732415
 31
0.0
  0
TEXT
  5
5843
  8
TEXT
 10
46.68827573183686
 20
1.275103041732415
 30
0.0
 40
0.125
  1
 
 41
0.75
 72
     4
 11
46.73515073183686
 21
1.275103041732415
 31
0.0
  0
TEXT
  5
5847
  8
TEXT
 10
42.86827229798871
 20
6.6794607646411661
 30
0.0
 40
0.125
  1
 
 41
0.75
  0
TEXT
  5
584E
  8
TEXT
 10
42.86827229798871
 20
6.4711274313078331
 30
0.0
 40
0.125
  1
 
 41
0.75
  0
TEXT
  5
584F
  8
TEXT
 10
42.86827229798871
 20
6.2627940979745
 30
0.0
 40
0.125
  1
 
 41
0.75
  0
TEXT
  5
5850
  8
TEXT
 10
42.86827229798871
 20
6.054460764641167
 30
0.0
 40
0.125
  1
 
 41
0.75
  0
TEXT
  5
5857
  8
TEXT
 10
39.52210270399376
 20
3.768604584400653
 30
0.0
 40
0.156
  1
 
 41
0.75
 72
     4
 11
39.580602703993762
 21
3.768604584400653
 31
0.0
  0
TEXT
  5
5859
  8
TEXT
 10
42.86827229798871
 20
4.5961274313078349
 30
0.0
 40
0.125
  1
 
 41
0.75
  0
TEXT
  5
585A
  8
TEXT
 10
42.86827229798871
 20
4.3877940979745018
 30
0.0
 40
0.125
  1
 
 41
0.75
  0
TEXT
  5
585C
  8
TEXT
 10
42.86827229798871
 20
3.9711274313078349
 30
0.0
 40
0.125
  1
 
 41
0.75
  0
TEXT
  5
5860
  8
TEXT
 10
42.86827229798871
 20
3.1377940979745009
 30
0.0
 40
0.125
  1
 
 41
0.75
  0
INSERT
  5
5C5C
  8
OBJECT
  6
CONTINUOUS
  2
*X39
 10
0.0
 20
0.0
 30
0.0
1001
ACAD
1000
HATCH
1002
{
1070
    19
1000
ANSI32
1040
0.5
1040
0.0
1000
R14_HATCH_DATA
1000
5C5C
1011
1.0
1021
0.0
1031
0.0
1021
0.0
1031
0.0
1011
0.0
1021
0.0
1031
0.0
1021
1.0
1031
0.0
1011
0.0
1021
0.0
1031
0.0
1021
0.0
1031
1.0
1040
0.0
1010
0.0
1020
0.0
1030
1.0
1000
ANSI32
1070
     0
1070
     0
1071
        1
1071
        7
1070
     0
1070
     1
1071
       16
1040
13.619685509912371
1040
19.89368574109098
1040
13.679685509912369
1040
19.89368574109098
1040
13.679685509912369
1040
19.938685741090978
1040
13.608185509912371
1040
19.938685741090978
1040
13.608185509912371
1040
20.033685741090981
1040
13.679685509912369
1040
20.033685741090981
1040
13.62968550991237
1040
20.098685741090978
1040
13.49968550991237
1040
20.098685741090978
1040
13.49968550991237
1040
12.61868574109098
1040
13.62968550991237
1040
12.61868574109098
1040
13.67968550991236
1040
12.683685741090979
1040
13.608185509912371
1040
12.683685741090979
1040
13.608185509912371
1040
12.77868574109098
1040
13.679685509912369
1040
12.77868574109098
1040
13.679685509912369
1040
12.82368574109098
1040
13.619685509912371
1040
12.82368574109098
1071
        0
1070
     0
1070
     1
1040
0.0
1040
0.5
1070
     0
1070
     2
1040
0.7853981633974483
1040
0.0
1040
0.0
1040
-0.1325825214724776
1040
0.1325825214724777
1070
     0
1040
0.7853981633974483
1040
0.0883883475
1040
0.0
1040
-0.1325825214724776
1040
0.1325825214724777
1070
     0
1040
0.0218861588505575
1071
        1
1040
13.548286534474251
1040
17.604825249606488
1040
0.0
1002
}
  0
INSERT
  5
5C7E
  8
OBJECT
  6
CONTINUOUS
  2
*X40
 10
0.0
 20
0.0
 30
0.0
1001
ACAD
1000
HATCH
1002
{
1070
    19
1000
ANSI32
1040
0.5
1040
1.5707963267948959
1000
R14_HATCH_DATA
1000
5C7E
1011
1.0
1021
0.0
1031
0.0
1021
0.0
1031
0.0
1011
0.0
1021
0.0
1031
0.0
1021
1.0
1031
0.0
1011
0.0
1021
0.0
1031
0.0
1021
0.0
1031
1.0
1040
0.0
1010
0.0
1020
0.0
1030
1.0
1000
ANSI32
1070
     0
1070
     0
1071
        1
1071
        7
1070
     0
1070
     1
1071
       16
1040
15.074685509912371
1040
20.098685741090978
1040
14.94468550991237
1040
20.098685741090978
1040
14.894685509912369
1040
20.033685741090981
1040
14.96618550991238
1040
20.033685741090981
1040
14.96618550991238
1040
19.938685741090978
1040
14.894685509912369
1040
19.938685741090978
1040
14.894685509912369
1040
19.89368574109097
1040
14.95468550991237
1040
19.89368574109098
1040
14.95468550991237
1040
12.82368574109098
1040
14.894685509912369
1040
12.82368574109098
1040
14.894685509912369
1040
12.77868574109098
1040
14.96618550991238
1040
12.77868574109098
1040
14.96618550991238
1040
12.683685741090979
1040
14.89468550991238
1040
12.68368574109097
1040
14.94468550991237
1040
12.61868574109098
1040
15.074685509912371
1040
12.61868574109098
1071
        0
1070
     0
1070
     1
1040
1.5707963267948959
1040
0.5
1070
     0
1070
     2
1040
2.3561944901923439
1040
0.0
1040
0.0
1040
-0.1325825214724777
1040
-0.1325825214724776
1070
     0
1040
2.3561944901923439
1040
0.0
1040
0.0883883475
1040
-0.1325825214724777
1040
-0.1325825214724776
1070
     0
1040
0.0218861588505575
1071
        1
1040
14.99399014693388
1040
14.606421451470739
1040
0.0
1002
}
  0
DIMENSION
  5
5CAF
  8
DIM
  2
*D36
 10
6.7954917680462712
 20
6.6006361676809311
 30
0.0
 11
4.2054917680462722
 21
6.6006361676809311
 31
0.0
 70
     0
 13
1.615491768046273
 23
5.7574924891003612
 33
0.0
 14
6.7954917680462712
 24
5.7574924891003612
 34
0.0
  0
ENDSEC
  0
EOF
