  0
SECTION
  2
HEADER
  9
$ACADVER
  1
AC1009
  9
$INSBASE
 10
0.0
 20
0.0
 30
0.0
  9
$EXTMIN
 10
0.0
 20
-0.0000000000000036
 30
-0.00000001
  9
$EXTMAX
 10
21.199999894000001
 20
31.319999843400002
 30
0.00000001
  9
$LIMMIN
 10
0.0
 20
0.0
  9
$LIMMAX
 10
15.89999996025
 20
23.489999941274991
  9
$ORTHOMODE
 70
     1
  9
$REGENMODE
 70
     1
  9
$FILLMODE
 70
     1
  9
$QTEXTMODE
 70
     0
  9
$MIRRTEXT
 70
     0
  9
$DRAGMODE
 70
     2
  9
$LTSCALE
 40
0.5
  9
$OSMODE
 70
    37
  9
$ATTMODE
 70
     1
  9
$TEXTSIZE
 40
0.125
  9
$TRACEWID
 40
0.05
  9
$TEXTSTYLE
  7
TXT
  9
$CLAYER
  8
OBJECT
  9
$CELTYPE
  6
BYLAYER
  9
$CECOLOR
 62
   256
  9
$DIMSCALE
 40
2.0
  9
$DIMASZ
 40
0.18
  9
$DIMEXO
 40
0.063
  9
$DIMDLI
 40
0.281
  9
$DIMRND
 40
0.0
  9
$DIMDLE
 40
0.0
  9
$DIMEXE
 40
0.093
  9
$DIMTP
 40
0.0
  9
$DIMTM
 40
0.0
  9
$DIMTXT
 40
0.125
  9
$DIMCEN
 40
0.09
  9
$DIMTSZ
 40
0.0
  9
$DIMTOL
 70
     0
  9
$DIMLIM
 70
     0
  9
$DIMTIH
 70
     1
  9
$DIMTOH
 70
     1
  9
$DIMSE1
 70
     0
  9
$DIMSE2
 70
     0
  9
$DIMTAD
 70
     0
  9
$DIMZIN
 70
     0
  9
$DIMBLK
  1

  9
$DIMASO
 70
     1
  9
$DIMSHO
 70
     1
  9
$DIMPOST
  1

  9
$DIMAPOST
  1

  9
$DIMALT
 70
     0
  9
$DIMALTD
 70
     2
  9
$DIMALTF
 40
25.399999999999999
  9
$DIMLFAC
 40
1.0
  9
$DIMTOFL
 70
     0
  9
$DIMTVP
 40
0.0
  9
$DIMTIX
 70
     0
  9
$DIMSOXD
 70
     0
  9
$DIMSAH
 70
     0
  9
$DIMBLK1
  1

  9
$DIMBLK2
  1

  9
$DIMSTYLE
  2
DIM
  9
$DIMCLRD
 70
     0
  9
$DIMCLRE
 70
     0
  9
$DIMCLRT
 70
     0
  9
$DIMTFAC
 40
1.0
  9
$DIMGAP
 40
0.09
  9
$LUNITS
 70
     2
  9
$LUPREC
 70
     8
  9
$SKETCHINC
 40
0.1
  9
$FILLETRAD
 40
0.0
  9
$AUNITS
 70
     0
  9
$AUPREC
 70
     0
  9
$MENU
  1
acad
  9
$ELEVATION
 40
0.0
  9
$PELEVATION
 40
0.0
  9
$THICKNESS
 40
0.0
  9
$LIMCHECK
 70
     0
  9
$BLIPMODE
 70
     0
  9
$CHAMFERA
 40
0.125
  9
$CHAMFERB
 40
0.125
  9
$SKPOLY
 70
     0
  9
$TDCREATE
 40
2451572.3832693049
  9
$TDUPDATE
 40
2451852.3590344558
  9
$TDINDWG
 40
1.0677831944
  9
$TDUSRTIMER
 40
1.0677817477
  9
$USRTIMER
 70
     1
  9
$ANGBASE
 50
0.0
  9
$ANGDIR
 70
     0
  9
$PDMODE
 70
     0
  9
$PDSIZE
 40
0.0
  9
$PLINEWID
 40
0.0
  9
$COORDS
 70
     2
  9
$SPLFRAME
 70
     0
  9
$SPLINETYPE
 70
     6
  9
$SPLINESEGS
 70
     8
  9
$ATTDIA
 70
     0
  9
$ATTREQ
 70
     1
  9
$HANDLING
 70
  4097
  9
$HANDSEED
  5
70D4
  9
$SURFTAB1
 70
     6
  9
$SURFTAB2
 70
     6
  9
$SURFTYPE
 70
     6
  9
$SURFU
 70
     6
  9
$SURFV
 70
     6
  9
$UCSNAME
  2

  9
$UCSORG
 10
0.0
 20
0.0
 30
0.0
  9
$UCSXDIR
 10
1.0
 20
0.0
 30
0.0
  9
$UCSYDIR
 10
0.0
 20
1.0
 30
0.0
  9
$PUCSNAME
  2

  9
$PUCSORG
 10
0.0
 20
0.0
 30
0.0
  9
$PUCSXDIR
 10
1.0
 20
0.0
 30
0.0
  9
$PUCSYDIR
 10
0.0
 20
1.0
 30
0.0
  9
$USERI1
 70
     0
  9
$USERI2
 70
     0
  9
$USERI3
 70
     0
  9
$USERI4
 70
     0
  9
$USERI5
 70
     0
  9
$USERR1
 40
0.0
  9
$USERR2
 40
0.0
  9
$USERR3
 40
0.0
  9
$USERR4
 40
0.0
  9
$USERR5
 40
0.0
  9
$WORLDVIEW
 70
     1
  9
$SHADEDGE
 70
     3
  9
$SHADEDIF
 70
    70
  9
$TILEMODE
 70
     1
  9
$MAXACTVP
 70
    16
  9
$PLIMCHECK
 70
     0
  9
$PEXTMIN
 10
1.0000000000000000E+020
 20
1.0000000000000000E+020
 30
1.0000000000000000E+020
  9
$PEXTMAX
 10
-1.0000000000000000E+020
 20
-1.0000000000000000E+020
 30
-1.0000000000000000E+020
  9
$PLIMMIN
 10
0.0
 20
0.0
  9
$PLIMMAX
 10
12.0
 20
9.0
  9
$UNITMODE
 70
     0
  9
$VISRETAIN
 70
     0
  9
$PLINEGEN
 70
     0
  9
$PSLTSCALE
 70
     1
  0
ENDSEC
  0
SECTION
  2
TABLES
  0
TABLE
  2
VPORT
 70
     2
  0
VPORT
  2
*ACTIVE
 70
     0
 10
0.0
 20
0.0
 11
1.0
 21
1.0
 12
10.60000014445091
 22
15.660000213405789
 13
0.0
 23
0.0
 14
0.125
 24
0.125
 15
0.5
 25
0.5
 16
0.0
 26
0.0
 36
1.0
 17
0.0
 27
0.0
 37
0.0
 40
31.66210392778828
 41
1.7450271247739599
 42
50.0
 43
0.0
 44
0.0
 50
0.0
 51
0.0
 71
     0
 72
   100
 73
     1
 74
     0
 75
     0
 76
     0
 77
     0
 78
     0
  0
ENDTAB
  0
TABLE
  2
LTYPE
 70
     6
  0
LTYPE
  2
CONTINUOUS
 70
     0
  3
Solid line
 72
    65
 73
     0
 40
0.0
  0
LTYPE
  2
HIDDEN
 70
     0
  3
_ _ _ _ _ _ _ _ _ _ _ _ _ _ _ _ _ _ _ _ _ _ _
 72
    65
 73
     2
 40
0.375
 49
0.25
 49
-0.125
  0
LTYPE
  2
PHANTOM
 70
     0
  3
_____ _ _ _____ _ _ _____ _ _ _____ _ _ ____
 72
    65
 73
     6
 40
2.5
 49
1.25
 49
-0.25
 49
0.25
 49
-0.25
 49
0.25
 49
-0.25
  0
LTYPE
  2
CENTER
 70
     0
  3
____ _ ____ _ ____ _ ____ _ ____ _ ____ _ ____
 72
    65
 73
     4
 40
2.0
 49
1.25
 49
-0.25
 49
0.25
 49
-0.25
  0
LTYPE
  2
HIDDEN2
 70
     0
  3
_ _ _ _ _ _ _ _ _ _ _ _ _ _ _ _ _ _ _ _ _ _ _ _
 72
    65
 73
     2
 40
0.1875
 49
0.125
 49
-0.0625
  0
LTYPE
  2
PHANTOM2
 70
     0
  3
___ _ _ ___ _ _ ___ _ _ ___ _ _ ___ _ _ ___ _ _
 72
    65
 73
     6
 40
1.25
 49
0.625
 49
-0.125
 49
0.125
 49
-0.125
 49
0.125
 49
-0.125
  0
ENDTAB
  0
TABLE
  2
LAYER
 70
     9
  0
LAYER
  2
0
 70
     0
 62
     7
  6
CONTINUOUS
  0
LAYER
  2
OBJECT
 70
     0
 62
     7
  6
CONTINUOUS
  0
LAYER
  2
DIM
 70
     0
 62
     2
  6
CONTINUOUS
  0
LAYER
  2
HIDDEN
 70
     0
 62
     6
  6
HIDDEN
  0
LAYER
  2
BEND
 70
     0
 62
     4
  6
PHANTOM
  0
LAYER
  2
TEXT
 70
     0
 62
     1
  6
CONTINUOUS
  0
LAYER
  2
TITLE
 70
     0
 62
     8
  6
CONTINUOUS
  0
LAYER
  2
CENTER
 70
     0
 62
     3
  6
CENTER
  0
LAYER
  2
DEFPOINTS
 70
     0
 62
     7
  6
CONTINUOUS
  0
ENDTAB
  0
TABLE
  2
STYLE
 70
     2
  0
STYLE
  2
TXT
 70
     0
 40
0.0
 41
0.75
 50
0.0
 71
     0
 42
0.125
  3
TXT.shx
  4

  0
STYLE
  2
SANSSERIF
 70
     0
 40
0.0
 41
1.0
 50
0.0
 71
     0
 42
0.234
  3
txt
  4

  0
ENDTAB
  0
TABLE
  2
VIEW
 70
     0
  0
ENDTAB
  0
TABLE
  2
UCS
 70
     0
  0
ENDTAB
  0
TABLE
  2
APPID
 70
     1
  0
APPID
  2
ACAD
 70
     0
  0
ENDTAB
  0
TABLE
  2
DIMSTYLE
 70
     2
  0
DIMSTYLE
  2
DIM
 70
     0
  3

  4

  5

  6

  7

 40
2.0
 41
0.18
 42
0.063
 43
0.281
 44
0.093
 45
0.0
 46
0.0
 47
0.0
 48
0.0
140
0.125
141
0.09
142
0.0
143
25.399999999999999
144
1.0
145
0.0
146
1.0
147
0.09
 71
     0
 72
     0
 73
     1
 74
     1
 75
     0
 76
     0
 77
     0
 78
     0
170
     0
171
     2
172
     0
173
     0
174
     0
175
     0
176
     0
177
     0
178
     0
  0
DIMSTYLE
  2
DIMIN
 70
     0
  3

  4

  5

  6

  7

 40
2.0
 41
0.18
 42
0.063
 43
0.281
 44
0.093
 45
0.0
 46
0.0
 47
0.0
 48
0.0
140
0.125
141
0.09
142
0.0
143
25.399999999999999
144
1.0
145
0.0
146
1.0
147
0.09
 71
     0
 72
     0
 73
     1
 74
     1
 75
     0
 76
     0
 77
     0
 78
     0
170
     0
171
     2
172
     0
173
     0
174
     1
175
     0
176
     0
177
     0
178
     0
  0
ENDTAB
  0
ENDSEC
  0
SECTION
  2
BLOCKS
  0
BLOCK
  8
0
  2
$MODEL_SPACE
 70
     0
 10
0.0
 20
0.0
 30
0.0
  3
$MODEL_SPACE
  1

  0
ENDBLK
  5
34
  8
0
  0
BLOCK
 67
     1
  8
0
  2
$PAPER_SPACE
 70
     0
 10
0.0
 20
0.0
 30
0.0
  3
$PAPER_SPACE
  1

  0
ENDBLK
  5
32
 67
     1
  8
0
  0
BLOCK
  8
0
  2
HB
 70
     0
 10
0.0
 20
0.0
 30
0.0
  3
HB
  1

  0
TEXT
  5
8C3
  8
TEXT
 10
0.2078333333333363
 20
15.22007919564008
 30
0.0
 40
0.125
  1
NAME
 72
     1
 11
0.437000000000003
 21
15.22007919564008
 31
0.0
  0
TEXT
  5
8C4
  8
TEXT
 10
0.2078333333333363
 20
15.428412528973411
 30
0.0
 40
0.125
  1
PART
 72
     1
 11
0.437000000000003
 21
15.428412528973411
 31
0.0
  0
TEXT
  5
8C5
  8
TEXT
 10
5.6119999999999983
 20
15.22007919564008
 30
0.0
 40
0.125
  1
No.
 72
     1
 11
5.7369999999999983
 21
15.22007919564008
 31
0.0
  0
TEXT
  5
8C6
  8
TEXT
 10
5.5078333333333314
 20
15.428412528973411
 30
0.0
 40
0.125
  1
PART
 72
     1
 11
5.7369999999999983
 21
15.428412528973411
 31
0.0
  0
LINE
  5
8C7
  8
TITLE
 10
6.112000000000001
 20
15.598000000000001
 30
0.0
 11
6.112000000000001
 21
15.179999999999991
 31
0.0
  0
LINE
  5
8C8
  8
TITLE
 10
5.362000000000001
 20
15.598000000000001
 30
0.0
 11
5.362000000000001
 21
15.179999999999991
 31
0.0
  0
LINE
  5
8C9
  8
TITLE
 10
5.2999999999999998
 20
15.598000000000001
 30
0.0
 11
5.2999999999999998
 21
15.179999999999991
 31
0.0
  0
LINE
  5
8CA
  8
TITLE
 10
0.8120000000000029
 20
15.179999999999991
 30
0.0
 11
0.8120000000000011
 21
15.598000000000001
 31
0.0
  0
LINE
  5
8CB
  8
TITLE
 10
0.0620000000000012
 20
15.179999999999991
 30
0.0
 11
10.538
 21
15.179999999999991
 31
0.0
  0
LINE
  5
8CC
  8
TITLE
 10
10.538
 20
0.0619999999999994
 30
0.0
 11
0.0619999999999976
 21
0.0620000000000012
 31
0.0
  0
LINE
  5
8CD
  8
TITLE
 10
10.538
 20
15.598000000000001
 30
0.0
 11
10.538
 21
0.0619999999999994
 31
0.0
  0
LINE
  5
8CE
  8
TITLE
 10
0.0620000000000012
 20
15.598000000000001
 30
0.0
 11
10.538
 21
15.598000000000001
 31
0.0
  0
LINE
  5
8CF
  8
TITLE
 10
0.0619999999999976
 20
0.0620000000000012
 30
0.0
 11
0.0620000000000012
 21
15.598000000000001
 31
0.0
  0
LINE
  5
8D0
  8
TITLE
 10
0.0
 20
0.0
 30
0.0
 11
0.0
 21
15.66
 31
0.0
  0
LINE
  5
8D1
  8
TITLE
 10
10.6
 20
-0.0000000000000018
 30
0.0
 11
0.0
 21
0.0
 31
0.0
  0
LINE
  5
8D2
  8
TITLE
 10
10.6
 20
15.659999999999989
 30
0.0
 11
10.6
 21
-0.0000000000000018
 31
0.0
  0
LINE
  5
8D3
  8
TITLE
 10
0.0
 20
15.66
 30
0.0
 11
10.6
 21
15.659999999999989
 31
0.0
  0
ENDBLK
  5
8D5
  8
0
  0
BLOCK
  8
0
  2
*D1
 70
     1
 10
0.0
 20
0.0
 30
0.0
  3
*D1
  1

  0
LINE
  5
6A70
  8
DIM
 62
     0
 10
2.2419967701608741
 20
8.0481631875867183
 30
0.0
 11
2.2419967701608741
 21
8.7431641606961232
 31
0.0
  0
LINE
  5
6A71
  8
DIM
 62
     0
 10
9.828996770160872
 20
8.0171631875867142
 30
0.0
 11
9.828996770160872
 21
8.7431641606961232
 31
0.0
  0
LINE
  5
6A72
  8
DIM
 62
     0
 10
2.6019967701608731
 20
8.5571641606961233
 30
0.0
 11
5.4804967701608733
 21
8.5571641606961233
 31
0.0
  0
LINE
  5
6A73
  8
DIM
 62
     0
 10
9.4689967701608726
 20
8.5571641606961233
 30
0.0
 11
6.5904967701608719
 21
8.5571641606961233
 31
0.0
  0
SOLID
  5
6A74
  8
DIM
 62
     0
 10
2.6019967701608731
 20
8.6171641606961238
 30
0.0
 11
2.6019967701608731
 21
8.4971641606961228
 31
0.0
 12
2.2419967701608741
 22
8.5571641606961233
 32
0.0
 13
2.2419967701608741
 23
8.5571641606961233
 33
0.0
  0
SOLID
  5
6A75
  8
DIM
 62
     0
 10
9.4689967701608726
 20
8.6171641606961238
 30
0.0
 11
9.4689967701608726
 21
8.4971641606961228
 31
0.0
 12
9.828996770160872
 22
8.5571641606961233
 32
0.0
 13
9.828996770160872
 23
8.5571641606961233
 33
0.0
  0
TEXT
  5
6A76
  8
OBJECT
 62
     0
 10
5.660496770160873
 20
8.4321641606961233
 30
0.0
 40
0.25
  1
7.587
 41
0.75
  0
POINT
  5
6A77
  8
DEFPOINTS
 62
     0
 10
2.2419967701608741
 20
7.922163187586718
 30
0.0
  0
POINT
  5
6A78
  8
DEFPOINTS
 62
     0
 10
9.828996770160872
 20
7.8911631875867156
 30
0.0
  0
POINT
  5
6A79
  8
DEFPOINTS
 62
     0
 10
9.828996770160872
 20
8.5571641606961233
 30
0.0
  0
ENDBLK
  5
E54
  8
0
  0
BLOCK
  8
0
  2
*D2
 70
     1
 10
0.0
 20
0.0
 30
0.0
  3
*D2
  1

  0
LINE
  5
6A7A
  8
DIM
 62
     0
 10
2.1159967701608742
 20
7.922163187586718
 30
0.0
 11
1.476242198632423
 21
7.9221631875867189
 31
0.0
  0
LINE
  5
6A7B
  8
DIM
 62
     0
 10
2.1159967701608742
 20
6.5661631875867172
 30
0.0
 11
1.476242198632423
 21
6.5661631875867181
 31
0.0
  0
LINE
  5
6A7C
  8
DIM
 62
     0
 10
1.662242198632423
 20
8.2821631875867201
 30
0.0
 11
1.662242198632423
 21
8.6421631875867195
 31
0.0
  0
LINE
  5
6A7D
  8
DIM
 62
     0
 10
1.662242198632423
 20
6.2061631875867169
 30
0.0
 11
1.662242198632423
 21
5.8461631875867184
 31
0.0
  0
SOLID
  5
6A7E
  8
DIM
 62
     0
 10
1.6022421986324229
 20
8.2821631875867201
 30
0.0
 11
1.722242198632423
 21
8.2821631875867201
 31
0.0
 12
1.662242198632423
 22
7.9221631875867189
 32
0.0
 13
1.662242198632423
 23
7.9221631875867189
 33
0.0
  0
SOLID
  5
6A7F
  8
DIM
 62
     0
 10
1.6022421986324229
 20
6.2061631875867169
 30
0.0
 11
1.722242198632423
 21
6.2061631875867169
 31
0.0
 12
1.662242198632423
 22
6.5661631875867181
 32
0.0
 13
1.662242198632423
 23
6.5661631875867181
 33
0.0
  0
TEXT
  5
6A80
  8
OBJECT
 62
     0
 10
1.5997421986324221
 20
7.1191631875867181
 30
0.0
 40
0.25
  1
H
 41
0.75
  0
POINT
  5
6A81
  8
DEFPOINTS
 62
     0
 10
2.2419967701608741
 20
7.922163187586718
 30
0.0
  0
POINT
  5
6A82
  8
DEFPOINTS
 62
     0
 10
2.2419967701608741
 20
6.5661631875867172
 30
0.0
  0
POINT
  5
6A83
  8
DEFPOINTS
 62
     0
 10
1.662242198632423
 20
6.5661631875867181
 30
0.0
  0
ENDBLK
  5
E62
  8
0
  0
BLOCK
  8
0
  2
*D3
 70
     1
 10
0.0
 20
0.0
 30
0.0
  3
*D3
  1

  0
LINE
  5
6A84
  8
DIM
 62
     0
 10
9.8719339736628164
 20
7.8516631875867162
 30
0.0
 11
11.596360770923321
 21
7.8516631875867153
 31
0.0
  0
LINE
  5
6A85
  8
DIM
 62
     0
 10
9.8719339736628164
 20
6.6366631875867164
 30
0.0
 11
11.596360770923321
 21
6.6366631875867146
 31
0.0
  0
LINE
  5
6A86
  8
DIM
 62
     0
 10
11.410360770923321
 20
8.2116631875867157
 30
0.0
 11
11.410360770923321
 21
8.5716631875867169
 31
0.0
  0
LINE
  5
6A87
  8
DIM
 62
     0
 10
11.410360770923321
 20
6.2766631875867152
 30
0.0
 11
11.410360770923321
 21
5.9166631875867148
 31
0.0
  0
SOLID
  5
6A88
  8
DIM
 62
     0
 10
11.35036077092332
 20
8.2116631875867157
 30
0.0
 11
11.470360770923319
 21
8.2116631875867157
 31
0.0
 12
11.410360770923321
 22
7.8516631875867153
 32
0.0
 13
11.410360770923321
 23
7.8516631875867153
 33
0.0
  0
SOLID
  5
6A89
  8
DIM
 62
     0
 10
11.35036077092332
 20
6.2766631875867152
 30
0.0
 11
11.470360770923319
 21
6.2766631875867152
 31
0.0
 12
11.410360770923321
 22
6.6366631875867146
 32
0.0
 13
11.410360770923321
 23
6.6366631875867146
 33
0.0
  0
TEXT
  5
6A8A
  8
OBJECT
 62
     0
 10
10.03536077092331
 20
7.1191631875867172
 30
0.0
 40
0.25
  1
J EXPOSED PANEL
 41
0.75
  0
POINT
  5
6A8B
  8
DEFPOINTS
 62
     0
 10
9.7459339736628152
 20
7.8516631875867162
 30
0.0
  0
POINT
  5
6A8C
  8
DEFPOINTS
 62
     0
 10
9.7459339736628152
 20
6.6366631875867164
 30
0.0
  0
POINT
  5
6A8D
  8
DEFPOINTS
 62
     0
 10
11.410360770923321
 20
6.6366631875867146
 30
0.0
  0
ENDBLK
  5
E70
  8
0
  0
BLOCK
  8
0
  2
*D4
 70
     1
 10
0.0
 20
0.0
 30
0.0
  3
*D4
  1

  0
LINE
  5
6A66
  8
DIM
 62
     0
 10
2.2940595666589298
 20
6.510663187586716
 30
0.0
 11
2.2940595666589298
 21
5.7723121192467337
 31
0.0
  0
LINE
  5
6A67
  8
DIM
 62
     0
 10
9.7459339736628152
 20
6.510663187586716
 30
0.0
 11
9.7459339736628152
 21
5.7723121192467337
 31
0.0
  0
LINE
  5
6A68
  8
DIM
 62
     0
 10
2.6540595666589302
 20
5.9583121192467337
 30
0.0
 11
4.152496770160873
 21
5.9583121192467337
 31
0.0
  0
LINE
  5
6A69
  8
DIM
 62
     0
 10
9.3859339736628176
 20
5.9583121192467337
 30
0.0
 11
7.8874967701608734
 21
5.9583121192467337
 31
0.0
  0
SOLID
  5
6A6A
  8
DIM
 62
     0
 10
2.6540595666589302
 20
6.0183121192467341
 30
0.0
 11
2.6540595666589302
 21
5.898312119246734
 31
0.0
 12
2.2940595666589298
 22
5.9583121192467337
 32
0.0
 13
2.2940595666589298
 23
5.9583121192467337
 33
0.0
  0
SOLID
  5
6A6B
  8
DIM
 62
     0
 10
9.3859339736628176
 20
6.0183121192467341
 30
0.0
 11
9.3859339736628176
 21
5.898312119246734
 31
0.0
 12
9.7459339736628152
 22
5.9583121192467337
 32
0.0
 13
9.7459339736628152
 23
5.9583121192467337
 33
0.0
  0
TEXT
  5
6A6C
  8
OBJECT
 62
     0
 10
4.3324967701608728
 20
5.8333121192467337
 30
0.0
 40
0.25
  1
7.452 EXPOSED PANEL
 41
0.75
  0
POINT
  5
6A6D
  8
DEFPOINTS
 62
     0
 10
2.2940595666589298
 20
6.6366631875867164
 30
0.0
  0
POINT
  5
6A6E
  8
DEFPOINTS
 62
     0
 10
9.7459339736628152
 20
6.6366631875867164
 30
0.0
  0
POINT
  5
6A6F
  8
DEFPOINTS
 62
     0
 10
9.7459339736628152
 20
5.9583121192467337
 30
0.0
  0
ENDBLK
  5
E7F
  8
0
  0
BLOCK
  8
0
  2
*D5
 70
     1
 10
0.0
 20
0.0
 30
0.0
  3
*D5
  1

  0
LINE
  5
6561
  8
DIM
 62
     0
 10
2.0829967701608751
 20
11.28590160286644
 30
0.0
 11
2.0829967701608751
 21
12.589049405945341
 31
0.0
  0
LINE
  5
6562
  8
DIM
 62
     0
 10
9.9569967701608721
 20
11.28590160286644
 30
0.0
 11
9.9569967701608721
 21
12.589049405945341
 31
0.0
  0
LINE
  5
6563
  8
DIM
 62
     0
 10
2.442996770160875
 20
12.403049405945341
 30
0.0
 11
5.464996770160873
 21
12.403049405945341
 31
0.0
  0
LINE
  5
6564
  8
DIM
 62
     0
 10
9.5969967701608727
 20
12.403049405945341
 30
0.0
 11
6.5749967701608734
 21
12.403049405945341
 31
0.0
  0
SOLID
  5
6565
  8
DIM
 62
     0
 10
2.442996770160875
 20
12.463049405945339
 30
0.0
 11
2.442996770160875
 21
12.34304940594534
 31
0.0
 12
2.0829967701608751
 22
12.403049405945341
 32
0.0
 13
2.0829967701608751
 23
12.403049405945341
 33
0.0
  0
SOLID
  5
6566
  8
DIM
 62
     0
 10
9.5969967701608727
 20
12.463049405945339
 30
0.0
 11
9.5969967701608727
 21
12.34304940594534
 31
0.0
 12
9.9569967701608721
 22
12.403049405945341
 32
0.0
 13
9.9569967701608721
 23
12.403049405945341
 33
0.0
  0
TEXT
  5
6567
  8
OBJECT
 62
     0
 10
5.6449967701608728
 20
12.278049405945341
 30
0.0
 40
0.25
  1
7.874
 41
0.75
  0
POINT
  5
6568
  8
DEFPOINTS
 62
     0
 10
2.0829967701608751
 20
11.159901602866441
 30
0.0
  0
POINT
  5
6569
  8
DEFPOINTS
 62
     0
 10
9.9569967701608721
 20
11.159901602866441
 30
0.0
  0
POINT
  5
656A
  8
DEFPOINTS
 62
     0
 10
9.9569967701608721
 20
12.403049405945341
 30
0.0
  0
ENDBLK
  5
EF1
  8
0
  0
BLOCK
  8
0
  2
*D6
 70
     1
 10
0.0
 20
0.0
 30
0.0
  3
*D6
  1

  0
LINE
  5
6AAC
  8
DIM
 62
     0
 10
18.762951131197362
 20
22.290490428254451
 30
0.0
 11
18.762951131197362
 21
23.22049042825445
 31
0.0
  0
LINE
  5
6AAD
  8
DIM
 62
     0
 10
19.785951131197361
 20
22.290490428254451
 30
0.0
 11
19.785951131197361
 21
23.22049042825445
 31
0.0
  0
LINE
  5
6AAE
  8
DIM
 62
     0
 10
18.402951131197359
 20
23.03449042825445
 30
0.0
 11
18.04295113119737
 21
23.03449042825445
 31
0.0
  0
LINE
  5
6AAF
  8
DIM
 62
     0
 10
20.145951131197361
 20
23.03449042825445
 30
0.0
 11
20.50595113119736
 21
23.03449042825445
 31
0.0
  0
SOLID
  5
6AB0
  8
DIM
 62
     0
 10
18.402951131197359
 20
23.094490428254449
 30
0.0
 11
18.402951131197359
 21
22.974490428254452
 31
0.0
 12
18.762951131197362
 22
23.03449042825445
 32
0.0
 13
18.762951131197362
 23
23.03449042825445
 33
0.0
  0
SOLID
  5
6AB1
  8
DIM
 62
     0
 10
20.145951131197361
 20
23.094490428254449
 30
0.0
 11
20.145951131197361
 21
22.974490428254452
 31
0.0
 12
19.785951131197361
 22
23.03449042825445
 32
0.0
 13
19.785951131197361
 23
23.03449042825445
 33
0.0
  0
TEXT
  5
6AB2
  8
OBJECT
 62
     0
 10
19.21195113119736
 20
22.90949042825445
 30
0.0
 40
0.25
  1
E
 41
0.75
  0
POINT
  5
6AB3
  8
DEFPOINTS
 62
     0
 10
18.762951131197362
 20
22.164490428254449
 30
0.0
  0
POINT
  5
6AB4
  8
DEFPOINTS
 62
     0
 10
19.785951131197361
 20
22.164490428254449
 30
0.0
  0
POINT
  5
6AB5
  8
DEFPOINTS
 62
     0
 10
19.785951131197361
 20
23.03449042825445
 30
0.0
  0
ENDBLK
  5
F00
  8
0
  0
BLOCK
  8
0
  2
*D7
 70
     1
 10
0.0
 20
0.0
 30
0.0
  3
*D7
  1

  0
LINE
  5
6AA2
  8
DIM
 62
     0
 10
19.94195113119736
 20
17.558079304416569
 30
0.0
 11
19.94195113119736
 21
17.76207930441657
 31
0.0
  0
LINE
  5
6AA3
  8
DIM
 62
     0
 10
18.60695113119737
 20
17.558079304416569
 30
0.0
 11
18.60695113119737
 21
17.76207930441657
 31
0.0
  0
LINE
  5
6AA4
  8
DIM
 62
     0
 10
20.30195113119736
 20
17.57607930441657
 30
0.0
 11
20.661951131197359
 21
17.57607930441657
 31
0.0
  0
LINE
  5
6AA5
  8
DIM
 62
     0
 10
18.24695113119737
 20
17.57607930441657
 30
0.0
 11
17.886951131197371
 21
17.57607930441657
 31
0.0
  0
SOLID
  5
6AA6
  8
DIM
 62
     0
 10
20.30195113119736
 20
17.636079304416569
 30
0.0
 11
20.30195113119736
 21
17.516079304416571
 31
0.0
 12
19.94195113119736
 22
17.57607930441657
 32
0.0
 13
19.94195113119736
 23
17.57607930441657
 33
0.0
  0
SOLID
  5
6AA7
  8
DIM
 62
     0
 10
18.24695113119737
 20
17.636079304416569
 30
0.0
 11
18.24695113119737
 21
17.516079304416571
 31
0.0
 12
18.60695113119737
 22
17.57607930441657
 32
0.0
 13
18.60695113119737
 23
17.57607930441657
 33
0.0
  0
TEXT
  5
6AA8
  8
OBJECT
 62
     0
 10
19.21195113119736
 20
17.45107930441657
 30
0.0
 40
0.25
  1
D
 41
0.75
  0
POINT
  5
6AA9
  8
DEFPOINTS
 62
     0
 10
19.94195113119736
 20
17.432079304416568
 30
0.0
  0
POINT
  5
6AAA
  8
DEFPOINTS
 62
     0
 10
18.60695113119737
 20
17.432079304416568
 30
0.0
  0
POINT
  5
6AAB
  8
DEFPOINTS
 62
     0
 10
18.60695113119737
 20
17.57607930441657
 30
0.0
  0
ENDBLK
  5
F0E
  8
0
  0
BLOCK
  8
0
  2
*D8
 70
     1
 10
0.0
 20
0.0
 30
0.0
  3
*D8
  1

  0
LINE
  5
6A98
  8
DIM
 62
     0
 10
19.302951131197361
 20
20.11849042825445
 30
0.0
 11
19.302951131197361
 21
19.495155820227168
 31
0.0
  0
LINE
  5
6A99
  8
DIM
 62
     0
 10
20.061951131197361
 20
20.119490428254441
 30
0.0
 11
20.061951131197361
 21
19.495155820227168
 31
0.0
  0
LINE
  5
6A9A
  8
DIM
 62
     0
 10
18.942951131197361
 20
19.681155820227168
 30
0.0
 11
18.582951131197358
 21
19.681155820227168
 31
0.0
  0
LINE
  5
6A9B
  8
DIM
 62
     0
 10
20.42195113119736
 20
19.681155820227168
 30
0.0
 11
20.78195113119736
 21
19.681155820227168
 31
0.0
  0
SOLID
  5
6A9C
  8
DIM
 62
     0
 10
18.942951131197361
 20
19.74115582022716
 30
0.0
 11
18.942951131197361
 21
19.621155820227159
 31
0.0
 12
19.302951131197361
 22
19.681155820227168
 32
0.0
 13
19.302951131197361
 23
19.681155820227168
 33
0.0
  0
SOLID
  5
6A9D
  8
DIM
 62
     0
 10
20.42195113119736
 20
19.74115582022716
 30
0.0
 11
20.42195113119736
 21
19.621155820227159
 31
0.0
 12
20.061951131197361
 22
19.681155820227168
 32
0.0
 13
20.061951131197361
 23
19.681155820227168
 33
0.0
  0
TEXT
  5
6A9E
  8
OBJECT
 62
     0
 10
19.619951131197361
 20
19.556155820227168
 30
0.0
 40
0.25
  1
F
 41
0.75
  0
POINT
  5
6A9F
  8
DEFPOINTS
 62
     0
 10
19.302951131197361
 20
20.244490428254451
 30
0.0
  0
POINT
  5
6AA0
  8
DEFPOINTS
 62
     0
 10
20.061951131197361
 20
20.245490428254438
 30
0.0
  0
POINT
  5
6AA1
  8
DEFPOINTS
 62
     0
 10
20.061951131197361
 20
19.681155820227168
 30
0.0
  0
ENDBLK
  5
F30
  8
0
  0
BLOCK
  8
0
  2
*D9
 70
     1
 10
0.0
 20
0.0
 30
0.0
  3
*D9
  1

  0
LINE
  5
6AB6
  8
DIM
 62
     0
 10
19.245951131197359
 20
20.588490428254449
 30
0.0
 11
19.245951131197359
 21
21.144959195127981
 31
0.0
  0
LINE
  5
6AB7
  8
DIM
 62
     0
 10
18.486951131197351
 20
20.588490428254449
 30
0.0
 11
18.486951131197351
 21
21.144959195127981
 31
0.0
  0
LINE
  5
6AB8
  8
DIM
 62
     0
 10
19.605951131197362
 20
20.958959195127981
 30
0.0
 11
19.965951131197361
 21
20.958959195127981
 31
0.0
  0
LINE
  5
6AB9
  8
DIM
 62
     0
 10
18.126951131197352
 20
20.958959195127981
 30
0.0
 11
17.766951131197349
 21
20.958959195127981
 31
0.0
  0
SOLID
  5
6ABA
  8
DIM
 62
     0
 10
19.605951131197362
 20
21.01895919512798
 30
0.0
 11
19.605951131197362
 21
20.898959195127979
 31
0.0
 12
19.245951131197359
 22
20.958959195127981
 32
0.0
 13
19.245951131197359
 23
20.958959195127981
 33
0.0
  0
SOLID
  5
6ABB
  8
DIM
 62
     0
 10
18.126951131197352
 20
21.01895919512798
 30
0.0
 11
18.126951131197352
 21
20.898959195127979
 31
0.0
 12
18.486951131197351
 22
20.958959195127981
 32
0.0
 13
18.486951131197351
 23
20.958959195127981
 33
0.0
  0
TEXT
  5
6ABC
  8
OBJECT
 62
     0
 10
18.803951131197358
 20
20.833959195127981
 30
0.0
 40
0.25
  1
G
 41
0.75
  0
POINT
  5
6ABD
  8
DEFPOINTS
 62
     0
 10
19.245951131197359
 20
20.462490428254451
 30
0.0
  0
POINT
  5
6ABE
  8
DEFPOINTS
 62
     0
 10
18.486951131197351
 20
20.462490428254451
 30
0.0
  0
POINT
  5
6ABF
  8
DEFPOINTS
 62
     0
 10
18.486951131197351
 20
20.958959195127981
 30
0.0
  0
ENDBLK
  5
F48
  8
0
  0
BLOCK
  8
0
  2
*D10
 70
     1
 10
0.0
 20
0.0
 30
0.0
  3
*D10
  1

  0
LINE
  5
6AC0
  8
DIM
 62
     0
 10
18.60695113119737
 20
18.178164666876341
 30
0.0
 11
18.60695113119737
 21
18.382164666876339
 31
0.0
  0
LINE
  5
6AC1
  8
DIM
 62
     0
 10
18.486951131197351
 20
18.178164666876331
 30
0.0
 11
18.486951131197351
 21
18.382164666876339
 31
0.0
  0
LINE
  5
6AC2
  8
DIM
 62
     0
 10
18.966951131197359
 20
18.196164666876339
 30
0.0
 11
19.326951131197362
 21
18.196164666876339
 31
0.0
  0
LINE
  5
6AC3
  8
DIM
 62
     0
 10
18.126951131197352
 20
18.196164666876339
 30
0.0
 11
17.766951131197349
 21
18.196164666876339
 31
0.0
  0
SOLID
  5
6AC4
  8
DIM
 62
     0
 10
18.966951131197359
 20
18.256164666876341
 30
0.0
 11
18.966951131197359
 21
18.13616466687634
 31
0.0
 12
18.60695113119737
 22
18.196164666876339
 32
0.0
 13
18.60695113119737
 23
18.196164666876339
 33
0.0
  0
SOLID
  5
6AC5
  8
DIM
 62
     0
 10
18.126951131197352
 20
18.256164666876341
 30
0.0
 11
18.126951131197352
 21
18.13616466687634
 31
0.0
 12
18.486951131197351
 22
18.196164666876339
 32
0.0
 13
18.486951131197351
 23
18.196164666876339
 33
0.0
  0
TEXT
  5
6AC6
  8
OBJECT
 62
     0
 10
16.14945113119736
 20
18.071164666876339
 30
0.0
 40
0.25
  1
0.120 TYP.
 41
0.75
  0
POINT
  5
6AC7
  8
DEFPOINTS
 62
     0
 10
18.60695113119737
 20
18.05216466687634
 30
0.0
  0
POINT
  5
6AC8
  8
DEFPOINTS
 62
     0
 10
18.486951131197351
 20
18.05216466687633
 30
0.0
  0
POINT
  5
6AC9
  8
DEFPOINTS
 62
     0
 10
18.486951131197351
 20
18.196164666876339
 30
0.0
  0
ENDBLK
  5
F60
  8
0
  0
BLOCK
  8
0
  2
*D11
 70
     1
 10
0.0
 20
0.0
 30
0.0
  3
*D11
  1

  0
LINE
  5
6ACA
  8
DIM
 62
     0
 10
18.762951131197362
 20
22.290490428254451
 30
0.0
 11
18.762951131197362
 21
22.662490428254451
 31
0.0
  0
LINE
  5
6ACB
  8
DIM
 62
     0
 10
18.606951131197359
 20
22.290490428254451
 30
0.0
 11
18.606951131197359
 21
22.662490428254451
 31
0.0
  0
LINE
  5
6ACC
  8
DIM
 62
     0
 10
19.122951131197361
 20
22.476490428254451
 30
0.0
 11
19.48295113119736
 21
22.476490428254451
 31
0.0
  0
LINE
  5
6ACD
  8
DIM
 62
     0
 10
18.24695113119736
 20
22.476490428254451
 30
0.0
 11
17.88695113119736
 21
22.476490428254451
 31
0.0
  0
SOLID
  5
6ACE
  8
DIM
 62
     0
 10
19.122951131197361
 20
22.536490428254449
 30
0.0
 11
19.122951131197361
 21
22.416490428254448
 31
0.0
 12
18.762951131197362
 22
22.476490428254451
 32
0.0
 13
18.762951131197362
 23
22.476490428254451
 33
0.0
  0
SOLID
  5
6ACF
  8
DIM
 62
     0
 10
18.24695113119736
 20
22.536490428254449
 30
0.0
 11
18.24695113119736
 21
22.416490428254448
 31
0.0
 12
18.606951131197359
 22
22.476490428254451
 32
0.0
 13
18.606951131197359
 23
22.476490428254451
 33
0.0
  0
TEXT
  5
6AD0
  8
OBJECT
 62
     0
 10
16.238201131197361
 20
22.351490428254451
 30
0.0
 40
0.25
  1
0.156 TYP.
 41
0.75
  0
POINT
  5
6AD1
  8
DEFPOINTS
 62
     0
 10
18.762951131197362
 20
22.164490428254449
 30
0.0
  0
POINT
  5
6AD2
  8
DEFPOINTS
 62
     0
 10
18.606951131197359
 20
22.164490428254449
 30
0.0
  0
POINT
  5
6AD3
  8
DEFPOINTS
 62
     0
 10
18.606951131197359
 20
22.476490428254451
 30
0.0
  0
ENDBLK
  5
F82
  8
0
  0
BLOCK
  8
0
  2
*D12
 70
     1
 10
0.0
 20
0.0
 30
0.0
  3
*D12
  1

  0
LINE
  5
65A8
  8
DIM
 62
     0
 10
9.0509967701608716
 20
25.680490428254451
 30
0.0
 11
9.0509967701608716
 21
27.638990428254449
 31
0.0
  0
LINE
  5
65A9
  8
DIM
 62
     0
 10
2.9889967701608731
 20
25.680490428254451
 30
0.0
 11
2.9889967701608731
 21
27.638990428254449
 31
0.0
  0
LINE
  5
65AA
  8
DIM
 62
     0
 10
8.6909967701608721
 20
27.452990428254449
 30
0.0
 11
6.5593717701608716
 21
27.452990428254449
 31
0.0
  0
LINE
  5
65AB
  8
DIM
 62
     0
 10
3.3489967701608729
 20
27.452990428254449
 30
0.0
 11
5.480621770160873
 21
27.452990428254449
 31
0.0
  0
SOLID
  5
65AC
  8
DIM
 62
     0
 10
8.6909967701608721
 20
27.512990428254451
 30
0.0
 11
8.6909967701608721
 21
27.39299042825445
 31
0.0
 12
9.0509967701608716
 22
27.452990428254449
 32
0.0
 13
9.0509967701608716
 23
27.452990428254449
 33
0.0
  0
SOLID
  5
65AD
  8
DIM
 62
     0
 10
3.3489967701608729
 20
27.512990428254451
 30
0.0
 11
3.3489967701608729
 21
27.39299042825445
 31
0.0
 12
2.9889967701608731
 22
27.452990428254449
 32
0.0
 13
2.9889967701608731
 23
27.452990428254449
 33
0.0
  0
TEXT
  5
65AE
  8
OBJECT
 62
     0
 10
5.6606217701608719
 20
27.327990428254449
 30
0.0
 40
0.25
  1
6.062
 41
0.75
  0
POINT
  5
65AF
  8
DEFPOINTS
 62
     0
 10
9.0509967701608716
 20
25.55449042825445
 30
0.0
  0
POINT
  5
65B0
  8
DEFPOINTS
 62
     0
 10
2.9889967701608731
 20
25.55449042825445
 30
0.0
  0
POINT
  5
65B1
  8
DEFPOINTS
 62
     0
 10
2.9889967701608731
 20
27.452990428254449
 30
0.0
  0
ENDBLK
  5
F91
  8
0
  0
BLOCK
  8
0
  2
*D13
 70
     1
 10
0.0
 20
0.0
 30
0.0
  3
*D13
  1

  0
LINE
  5
65B2
  8
DIM
 62
     0
 10
2.9889967701608731
 20
25.680490428254451
 30
0.0
 11
2.9889967701608731
 21
27.638990428254449
 31
0.0
  0
LINE
  5
65B3
  8
DIM
 62
     0
 10
2.0829967701608751
 20
26.818490428254449
 30
0.0
 11
2.0829967701608751
 21
27.638990428254449
 31
0.0
  0
LINE
  5
65B4
  8
DIM
 62
     0
 10
3.3489967701608729
 20
27.452990428254449
 30
0.0
 11
3.7089967701608728
 21
27.452990428254449
 31
0.0
  0
LINE
  5
65B5
  8
DIM
 62
     0
 10
1.722996770160875
 20
27.452990428254449
 30
0.0
 11
1.3629967701608749
 21
27.452990428254449
 31
0.0
  0
SOLID
  5
65B6
  8
DIM
 62
     0
 10
3.3489967701608729
 20
27.512990428254451
 30
0.0
 11
3.3489967701608729
 21
27.39299042825445
 31
0.0
 12
2.9889967701608731
 22
27.452990428254449
 32
0.0
 13
2.9889967701608731
 23
27.452990428254449
 33
0.0
  0
SOLID
  5
65B7
  8
DIM
 62
     0
 10
1.722996770160875
 20
27.512990428254451
 30
0.0
 11
1.722996770160875
 21
27.39299042825445
 31
0.0
 12
2.0829967701608751
 22
27.452990428254449
 32
0.0
 13
2.0829967701608751
 23
27.452990428254449
 33
0.0
  0
TEXT
  5
65B8
  8
OBJECT
 62
     0
 10
2.1922467701608741
 20
27.327990428254449
 30
0.0
 40
0.25
  1
0.906
 41
0.75
  0
POINT
  5
65B9
  8
DEFPOINTS
 62
     0
 10
2.9889967701608731
 20
25.55449042825445
 30
0.0
  0
POINT
  5
65BA
  8
DEFPOINTS
 62
     0
 10
2.0829967701608751
 20
26.692490428254452
 30
0.0
  0
POINT
  5
65BB
  8
DEFPOINTS
 62
     0
 10
2.0829967701608751
 20
27.452990428254449
 30
0.0
  0
ENDBLK
  5
F9F
  8
0
  0
BLOCK
  8
0
  2
*D14
 70
     1
 10
0.0
 20
0.0
 30
0.0
  3
*D14
  1

  0
LINE
  5
67C2
  8
DIM
 62
     0
 10
9.5909967701608725
 20
16.160490428254441
 30
0.0
 11
10.92436188253143
 21
16.160490428254441
 31
0.0
  0
LINE
  5
67C3
  8
DIM
 62
     0
 10
10.08299677016087
 20
15.668490428254451
 30
0.0
 11
10.92436188253143
 21
15.668490428254451
 31
0.0
  0
LINE
  5
67C4
  8
DIM
 62
     0
 10
10.73836188253143
 20
16.52049042825444
 30
0.0
 11
10.73836188253143
 21
16.88049042825444
 31
0.0
  0
LINE
  5
67C5
  8
DIM
 62
     0
 10
10.73836188253143
 20
15.30849042825445
 30
0.0
 11
10.73836188253143
 21
14.94849042825445
 31
0.0
  0
SOLID
  5
67C6
  8
DIM
 62
     0
 10
10.67836188253143
 20
16.52049042825444
 30
0.0
 11
10.798361882531429
 21
16.52049042825444
 31
0.0
 12
10.73836188253143
 22
16.160490428254441
 32
0.0
 13
10.73836188253143
 23
16.160490428254441
 33
0.0
  0
SOLID
  5
67C7
  8
DIM
 62
     0
 10
10.67836188253143
 20
15.30849042825445
 30
0.0
 11
10.798361882531429
 21
15.30849042825445
 31
0.0
 12
10.73836188253143
 22
15.668490428254451
 32
0.0
 13
10.73836188253143
 23
15.668490428254451
 33
0.0
  0
TEXT
  5
67C8
  8
OBJECT
 62
     0
 10
10.37898688253143
 20
15.789490428254449
 30
0.0
 40
0.25
  1
0.492
 41
0.75
  0
POINT
  5
67C9
  8
DEFPOINTS
 62
     0
 10
9.464996770160873
 20
16.160490428254441
 30
0.0
  0
POINT
  5
67CA
  8
DEFPOINTS
 62
     0
 10
9.9569967701608721
 20
15.668490428254451
 30
0.0
  0
POINT
  5
67CB
  8
DEFPOINTS
 62
     0
 10
10.73836188253143
 20
15.668490428254451
 30
0.0
  0
ENDBLK
  5
1015
  8
0
  0
BLOCK
  8
0
  2
*D15
 70
     1
 10
0.0
 20
0.0
 30
0.0
  3
*D15
  1

  0
LINE
  5
69E1
  8
DIM
 62
     0
 10
9.7819967701607702
 20
17.280490428254449
 30
0.0
 11
9.7819967701607702
 21
17.838490428254449
 31
0.0
  0
LINE
  5
69E2
  8
DIM
 62
     0
 10
2.2579967701607511
 20
17.280490428254449
 30
0.0
 11
2.2579967701607511
 21
17.838490428254449
 31
0.0
  0
LINE
  5
69E3
  8
DIM
 62
     0
 10
9.4219967701607725
 20
17.652490428254449
 30
0.0
 11
6.5749967701607606
 21
17.652490428254449
 31
0.0
  0
LINE
  5
69E4
  8
DIM
 62
     0
 10
2.6179967701607509
 20
17.652490428254449
 30
0.0
 11
5.464996770160762
 21
17.652490428254449
 31
0.0
  0
SOLID
  5
69E5
  8
DIM
 62
     0
 10
9.4219967701607725
 20
17.712490428254451
 30
0.0
 11
9.4219967701607725
 21
17.59249042825445
 31
0.0
 12
9.7819967701607702
 22
17.652490428254449
 32
0.0
 13
9.7819967701607702
 23
17.652490428254449
 33
0.0
  0
SOLID
  5
69E6
  8
DIM
 62
     0
 10
2.6179967701607509
 20
17.712490428254451
 30
0.0
 11
2.6179967701607509
 21
17.59249042825445
 31
0.0
 12
2.2579967701607511
 22
17.652490428254449
 32
0.0
 13
2.2579967701607511
 23
17.652490428254449
 33
0.0
  0
TEXT
  5
69E7
  8
OBJECT
 62
     0
 10
5.6449967701607608
 20
17.527490428254449
 30
0.0
 40
0.25
  1
7.524
 41
0.75
  0
POINT
  5
69E8
  8
DEFPOINTS
 62
     0
 10
9.7819967701607702
 20
17.154490428254451
 30
0.0
  0
POINT
  5
69E9
  8
DEFPOINTS
 62
     0
 10
2.2579967701607511
 20
17.154490428254451
 30
0.0
  0
POINT
  5
69EA
  8
DEFPOINTS
 62
     0
 10
2.2579967701607511
 20
17.652490428254449
 30
0.0
  0
ENDBLK
  5
1023
  8
0
  0
BLOCK
  8
0
  2
*D16
 70
     1
 10
0.0
 20
0.0
 30
0.0
  3
*D16
  1

  0
LINE
  5
6A01
  8
DIM
 62
     0
 10
2.3839967701608749
 20
18.739078205028999
 30
0.0
 11
2.9419967701608751
 21
18.739078205028999
 31
0.0
  0
LINE
  5
6A02
  8
DIM
 62
     0
 10
2.3839967701608749
 20
18.641078205029
 30
0.0
 11
2.9419967701608751
 21
18.641078205029
 31
0.0
  0
LINE
  5
6A03
  8
DIM
 62
     0
 10
2.7559967701608752
 20
18.281078205029001
 30
0.0
 11
2.7559967701608752
 21
17.921078205029001
 31
0.0
  0
LINE
  5
6A04
  8
DIM
 62
     0
 10
2.7559967701608761
 20
19.099078205028992
 30
0.0
 11
2.7559967701608761
 21
19.459078205028991
 31
0.0
  0
LINE
  5
6A05
  8
DIM
 62
     0
 10
2.7559967701608761
 20
19.459078205028991
 30
0.0
 11
3.1159967701608751
 21
19.459078205028991
 31
0.0
  0
SOLID
  5
6A06
  8
DIM
 62
     0
 10
2.6959967701608751
 20
18.281078205029001
 30
0.0
 11
2.8159967701608748
 21
18.281078205029001
 31
0.0
 12
2.7559967701608752
 22
18.641078205029
 32
0.0
 13
2.7559967701608752
 23
18.641078205029
 33
0.0
  0
SOLID
  5
6A07
  8
DIM
 62
     0
 10
2.695996770160876
 20
19.099078205028992
 30
0.0
 11
2.8159967701608761
 21
19.099078205028992
 31
0.0
 12
2.7559967701608752
 22
18.739078205028999
 32
0.0
 13
2.7559967701608752
 23
18.739078205028999
 33
0.0
  0
TEXT
  5
6A08
  8
OBJECT
 62
     0
 10
3.2959967701608721
 20
19.334078205028991
 30
0.0
 40
0.25
  1
0.098 TYP.
 41
0.75
  0
POINT
  5
6A09
  8
DEFPOINTS
 62
     0
 10
2.257996770160875
 20
18.739078205028999
 30
0.0
  0
POINT
  5
6A0A
  8
DEFPOINTS
 62
     0
 10
2.257996770160875
 20
18.641078205029
 30
0.0
  0
POINT
  5
6A0B
  8
DEFPOINTS
 62
     0
 10
2.7559967701608752
 20
18.641078205029
 30
0.0
  0
ENDBLK
  5
1032
  8
0
  0
BLOCK
  8
0
  2
*D17
 70
     1
 10
0.0
 20
0.0
 30
0.0
  3
*D17
  1

  0
LINE
  5
6A16
  8
DIM
 62
     0
 10
9.7819967701608785
 20
18.46449042825445
 30
0.0
 11
9.7819967701608785
 21
18.01580434672962
 31
0.0
  0
LINE
  5
6A17
  8
DIM
 62
     0
 10
9.8369967701608783
 20
18.46449042825445
 30
0.0
 11
9.8369967701608783
 21
18.01580434672962
 31
0.0
  0
LINE
  5
6A18
  8
DIM
 62
     0
 10
10.196996770160871
 20
18.20180434672962
 30
0.0
 11
10.556996770160881
 21
18.20180434672962
 31
0.0
  0
LINE
  5
6A19
  8
DIM
 62
     0
 10
9.4219967701608791
 20
18.20180434672962
 30
0.0
 11
9.0619967701608761
 21
18.20180434672962
 31
0.0
  0
SOLID
  5
6A1A
  8
DIM
 62
     0
 10
10.196996770160871
 20
18.261804346729608
 30
0.0
 11
10.196996770160871
 21
18.141804346729621
 31
0.0
 12
9.8369967701608783
 22
18.20180434672962
 32
0.0
 13
9.8369967701608783
 23
18.20180434672962
 33
0.0
  0
SOLID
  5
6A1B
  8
DIM
 62
     0
 10
9.4219967701608791
 20
18.261804346729608
 30
0.0
 11
9.4219967701608791
 21
18.141804346729621
 31
0.0
 12
9.7819967701608785
 22
18.20180434672962
 32
0.0
 13
9.7819967701608785
 23
18.20180434672962
 33
0.0
  0
TEXT
  5
6A1C
  8
OBJECT
 62
     0
 10
7.3819967701608782
 20
18.07680434672962
 30
0.0
 40
0.25
  1
0.055 TYP.
 41
0.75
  0
POINT
  5
6A1D
  8
DEFPOINTS
 62
     0
 10
9.7819967701608785
 20
18.590490428254451
 30
0.0
  0
POINT
  5
6A1E
  8
DEFPOINTS
 62
     0
 10
9.8369967701608783
 20
18.590490428254451
 30
0.0
  0
POINT
  5
6A1F
  8
DEFPOINTS
 62
     0
 10
9.8369967701608783
 20
18.20180434672962
 30
0.0
  0
ENDBLK
  5
1040
  8
0
  0
BLOCK
  8
0
  2
*D18
 70
     1
 10
0.0
 20
0.0
 30
0.0
  3
*D18
  1

  0
LINE
  5
6A20
  8
DIM
 62
     0
 10
9.9569967701608757
 20
19.387940888901721
 30
0.0
 11
9.9569967701608757
 21
19.201940888901721
 31
0.0
  0
LINE
  5
6A21
  8
DIM
 62
     0
 10
9.8369967701608783
 20
19.387940888901721
 30
0.0
 11
9.8369967701608783
 21
19.201940888901721
 31
0.0
  0
LINE
  5
6A22
  8
DIM
 62
     0
 10
10.31699677016087
 20
19.387940888901721
 30
0.0
 11
10.676996770160869
 21
19.387940888901721
 31
0.0
  0
LINE
  5
6A23
  8
DIM
 62
     0
 10
9.4769967701608788
 20
19.387940888901721
 30
0.0
 11
9.1169967701608776
 21
19.387940888901721
 31
0.0
  0
SOLID
  5
6A24
  8
DIM
 62
     0
 10
10.31699677016087
 20
19.447940888901719
 30
0.0
 11
10.31699677016087
 21
19.327940888901718
 31
0.0
 12
9.9569967701608757
 22
19.387940888901721
 32
0.0
 13
9.9569967701608757
 23
19.387940888901721
 33
0.0
  0
SOLID
  5
6A25
  8
DIM
 62
     0
 10
9.4769967701608788
 20
19.447940888901719
 30
0.0
 11
9.4769967701608788
 21
19.327940888901718
 31
0.0
 12
9.8369967701608783
 22
19.387940888901721
 32
0.0
 13
9.8369967701608783
 23
19.387940888901721
 33
0.0
  0
TEXT
  5
6A26
  8
OBJECT
 62
     0
 10
7.499496770160877
 20
19.262940888901721
 30
0.0
 40
0.25
  1
0.120 TYP.
 41
0.75
  0
POINT
  5
6A27
  8
DEFPOINTS
 62
     0
 10
9.9569967701608757
 20
19.513940888901718
 30
0.0
  0
POINT
  5
6A28
  8
DEFPOINTS
 62
     0
 10
9.8369967701608783
 20
19.513940888901718
 30
0.0
  0
POINT
  5
6A29
  8
DEFPOINTS
 62
     0
 10
9.8369967701608783
 20
19.387940888901721
 30
0.0
  0
ENDBLK
  5
104E
  8
0
  0
BLOCK
  8
0
  2
*D19
 70
     1
 10
0.0
 20
0.0
 30
0.0
  3
*D19
  1

  0
LINE
  5
67CC
  8
DIM
 62
     0
 10
9.464996770160873
 20
16.03449042825444
 30
0.0
 11
9.464996770160873
 21
14.47499248040746
 31
0.0
  0
LINE
  5
67CD
  8
DIM
 62
     0
 10
9.9569967701608721
 20
15.54249042825445
 30
0.0
 11
9.9569967701608721
 21
14.47499248040746
 31
0.0
  0
LINE
  5
67CE
  8
DIM
 62
     0
 10
9.1049967701608736
 20
14.66099248040746
 30
0.0
 11
8.7449967701608724
 21
14.66099248040746
 31
0.0
  0
LINE
  5
67CF
  8
DIM
 62
     0
 10
10.31699677016087
 20
14.66099248040746
 30
0.0
 11
10.676996770160869
 21
14.66099248040746
 31
0.0
  0
SOLID
  5
67D0
  8
DIM
 62
     0
 10
9.1049967701608736
 20
14.72099248040746
 30
0.0
 11
9.1049967701608736
 21
14.600992480407459
 31
0.0
 12
9.464996770160873
 22
14.66099248040746
 32
0.0
 13
9.464996770160873
 23
14.66099248040746
 33
0.0
  0
SOLID
  5
67D1
  8
DIM
 62
     0
 10
10.31699677016087
 20
14.72099248040746
 30
0.0
 11
10.31699677016087
 21
14.600992480407459
 31
0.0
 12
9.9569967701608721
 22
14.66099248040746
 32
0.0
 13
9.9569967701608721
 23
14.66099248040746
 33
0.0
  0
TEXT
  5
67D2
  8
OBJECT
 62
     0
 10
10.856996770160871
 20
14.53599248040746
 30
0.0
 40
0.25
  1
0.492
 41
0.75
  0
POINT
  5
67D3
  8
DEFPOINTS
 62
     0
 10
9.464996770160873
 20
16.160490428254441
 30
0.0
  0
POINT
  5
67D4
  8
DEFPOINTS
 62
     0
 10
9.9569967701608721
 20
15.668490428254451
 30
0.0
  0
POINT
  5
67D5
  8
DEFPOINTS
 62
     0
 10
9.9569967701608721
 20
14.66099248040746
 30
0.0
  0
ENDBLK
  5
105D
  8
0
  0
BLOCK
  8
0
  2
*D20
 70
     1
 10
0.0
 20
0.0
 30
0.0
  3
*D20
  1

  0
LINE
  5
6A8E
  8
DIM
 62
     0
 10
14.17335475120411
 20
26.692490428254441
 30
0.0
 11
13.45724483795072
 21
26.692490428254441
 31
0.0
  0
LINE
  5
6A8F
  8
DIM
 62
     0
 10
14.17335475120411
 20
15.668490428254451
 30
0.0
 11
13.45724483795072
 21
15.668490428254451
 31
0.0
  0
LINE
  5
6A90
  8
DIM
 62
     0
 10
13.64324483795072
 20
26.332490428254442
 30
0.0
 11
13.64324483795072
 21
21.485490428254451
 31
0.0
  0
LINE
  5
6A91
  8
DIM
 62
     0
 10
13.64324483795072
 20
16.02849042825445
 30
0.0
 11
13.64324483795072
 21
20.875490428254452
 31
0.0
  0
SOLID
  5
6A92
  8
DIM
 62
     0
 10
13.583244837950719
 20
26.332490428254442
 30
0.0
 11
13.70324483795072
 21
26.332490428254442
 31
0.0
 12
13.64324483795072
 22
26.692490428254441
 32
0.0
 13
13.64324483795072
 23
26.692490428254441
 33
0.0
  0
SOLID
  5
6A93
  8
DIM
 62
     0
 10
13.583244837950719
 20
16.02849042825445
 30
0.0
 11
13.70324483795072
 21
16.02849042825445
 31
0.0
 12
13.64324483795072
 22
15.668490428254451
 32
0.0
 13
13.64324483795072
 23
15.668490428254451
 33
0.0
  0
TEXT
  5
6A94
  8
OBJECT
 62
     0
 10
13.25261983795072
 20
21.055490428254451
 30
0.0
 40
0.25
  1
11.024
 41
0.75
  0
POINT
  5
6A95
  8
DEFPOINTS
 62
     0
 10
14.29935475120411
 20
26.692490428254441
 30
0.0
  0
POINT
  5
6A96
  8
DEFPOINTS
 62
     0
 10
14.29935475120411
 20
15.668490428254451
 30
0.0
  0
POINT
  5
6A97
  8
DEFPOINTS
 62
     0
 10
13.64324483795072
 20
15.668490428254451
 30
0.0
  0
ENDBLK
  5
1145
  8
0
  0
BLOCK
  8
0
  2
*D21
 70
     1
 10
0.0
 20
0.0
 30
0.0
  3
*D21
  1

  0
LINE
  5
6A0C
  8
DIM
 62
     0
 10
5.0994349832309753
 20
15.873490428254449
 30
0.0
 11
4.9134349832309727
 21
15.873490428254449
 31
0.0
  0
LINE
  5
6A0D
  8
DIM
 62
     0
 10
5.0994349832309753
 20
26.48749042825445
 30
0.0
 11
4.9134349832309763
 21
26.48749042825445
 31
0.0
  0
LINE
  5
6A0E
  8
DIM
 62
     0
 10
5.0994349832309727
 20
16.233490428254449
 30
0.0
 11
5.0994349832309744
 21
20.64674042825445
 31
0.0
  0
LINE
  5
6A0F
  8
DIM
 62
     0
 10
5.0994349832309762
 20
26.12749042825445
 30
0.0
 11
5.0994349832309744
 21
21.256740428254449
 31
0.0
  0
SOLID
  5
6A10
  8
DIM
 62
     0
 10
5.0394349832309731
 20
16.233490428254449
 30
0.0
 11
5.1594349832309732
 21
16.233490428254449
 31
0.0
 12
5.0994349832309727
 22
15.873490428254449
 32
0.0
 13
5.0994349832309727
 23
15.873490428254449
 33
0.0
  0
SOLID
  5
6A11
  8
DIM
 62
     0
 10
5.0394349832309757
 20
26.12749042825445
 30
0.0
 11
5.1594349832309749
 21
26.12749042825445
 31
0.0
 12
5.0994349832309762
 22
26.48749042825445
 32
0.0
 13
5.0994349832309762
 23
26.48749042825445
 33
0.0
  0
TEXT
  5
6A12
  8
OBJECT
 62
     0
 10
4.70880998323097
 20
20.82674042825445
 30
0.0
 40
0.25
  1
10.614
 41
0.75
  0
POINT
  5
6A13
  8
DEFPOINTS
 62
     0
 10
5.2254349832309748
 20
15.873490428254449
 30
0.0
  0
POINT
  5
6A14
  8
DEFPOINTS
 62
     0
 10
5.2254349832309748
 20
26.48749042825445
 30
0.0
  0
POINT
  5
6A15
  8
DEFPOINTS
 62
     0
 10
5.0994349832309762
 20
26.48749042825445
 30
0.0
  0
ENDBLK
  5
1154
  8
0
  0
BLOCK
  8
0
  2
*D22
 70
     1
 10
0.0
 20
0.0
 30
0.0
  3
*D22
  1

  0
LINE
  5
67AE
  8
DIM
 62
     0
 10
2.2029967701608788
 20
21.601985840295679
 30
0.0
 11
2.2029967701608788
 21
21.41598584029569
 31
0.0
  0
LINE
  5
67AF
  8
DIM
 62
     0
 10
9.8369967701608783
 20
21.601985840295679
 30
0.0
 11
9.8369967701608783
 21
21.41598584029569
 31
0.0
  0
LINE
  5
67B0
  8
DIM
 62
     0
 10
2.5629967701608791
 20
21.601985840295679
 30
0.0
 11
5.4649967701608793
 21
21.601985840295679
 31
0.0
  0
LINE
  5
67B1
  8
DIM
 62
     0
 10
9.4769967701608788
 20
21.601985840295679
 30
0.0
 11
6.5749967701608778
 21
21.601985840295679
 31
0.0
  0
SOLID
  5
67B2
  8
DIM
 62
     0
 10
2.5629967701608791
 20
21.661985840295682
 30
0.0
 11
2.5629967701608791
 21
21.541985840295691
 31
0.0
 12
2.2029967701608788
 22
21.601985840295679
 32
0.0
 13
2.2029967701608788
 23
21.601985840295679
 33
0.0
  0
SOLID
  5
67B3
  8
DIM
 62
     0
 10
9.4769967701608788
 20
21.661985840295682
 30
0.0
 11
9.4769967701608788
 21
21.541985840295691
 31
0.0
 12
9.8369967701608783
 22
21.601985840295679
 32
0.0
 13
9.8369967701608783
 23
21.601985840295679
 33
0.0
  0
TEXT
  5
67B4
  8
OBJECT
 62
     0
 10
5.6449967701608781
 20
21.47698584029569
 30
0.0
 40
0.25
  1
7.634
 41
0.75
  0
POINT
  5
67B5
  8
DEFPOINTS
 62
     0
 10
2.2029967701608788
 20
21.727985840295691
 30
0.0
  0
POINT
  5
67B6
  8
DEFPOINTS
 62
     0
 10
9.8369967701608783
 20
21.727985840295691
 30
0.0
  0
POINT
  5
67B7
  8
DEFPOINTS
 62
     0
 10
9.8369967701608783
 20
21.601985840295679
 30
0.0
  0
ENDBLK
  5
1217
  8
0
  0
BLOCK
  8
0
  2
*D23
 70
     1
 10
0.0
 20
0.0
 30
0.0
  3
*D23
  1

  0
LINE
  5
6ADE
  8
DIM
 62
     0
 10
15.0673547512041
 20
26.818490428254439
 30
0.0
 11
15.0673547512041
 21
27.934490428254438
 31
0.0
  0
LINE
  5
6ADF
  8
DIM
 62
     0
 10
14.29935475120411
 20
26.818490428254439
 30
0.0
 11
14.29935475120411
 21
27.934490428254438
 31
0.0
  0
LINE
  5
6AE0
  8
DIM
 62
     0
 10
15.427354751204099
 20
27.748490428254438
 30
0.0
 11
15.7873547512041
 21
27.748490428254438
 31
0.0
  0
LINE
  5
6AE1
  8
DIM
 62
     0
 10
13.93935475120411
 20
27.748490428254438
 30
0.0
 11
13.579354751204111
 21
27.748490428254438
 31
0.0
  0
SOLID
  5
6AE2
  8
DIM
 62
     0
 10
15.427354751204099
 20
27.808490428254441
 30
0.0
 11
15.427354751204099
 21
27.68849042825444
 31
0.0
 12
15.0673547512041
 22
27.748490428254438
 32
0.0
 13
15.0673547512041
 23
27.748490428254438
 33
0.0
  0
SOLID
  5
6AE3
  8
DIM
 62
     0
 10
13.93935475120411
 20
27.808490428254441
 30
0.0
 11
13.93935475120411
 21
27.68849042825444
 31
0.0
 12
14.29935475120411
 22
27.748490428254438
 32
0.0
 13
14.29935475120411
 23
27.748490428254438
 33
0.0
  0
TEXT
  5
6AE4
  8
OBJECT
 62
     0
 10
14.62085475120411
 20
27.623490428254438
 30
0.0
 40
0.25
  1
C
 41
0.75
  0
POINT
  5
6AE5
  8
DEFPOINTS
 62
     0
 10
15.0673547512041
 20
26.692490428254441
 30
0.0
  0
POINT
  5
6AE6
  8
DEFPOINTS
 62
     0
 10
14.29935475120411
 20
26.692490428254441
 30
0.0
  0
POINT
  5
6AE7
  8
DEFPOINTS
 62
     0
 10
14.29935475120411
 20
27.748490428254438
 30
0.0
  0
ENDBLK
  5
1285
  8
0
  0
BLOCK
  8
0
  2
*D24
 70
     1
 10
0.0
 20
0.0
 30
0.0
  3
*D24
  1

  0
LINE
  5
6AD4
  8
DIM
 62
     0
 10
14.29935475120411
 20
26.818490428254439
 30
0.0
 11
14.29935475120411
 21
28.492490428254438
 31
0.0
  0
LINE
  5
6AD5
  8
DIM
 62
     0
 10
15.8743547512041
 20
26.818490428254439
 30
0.0
 11
15.8743547512041
 21
28.492490428254438
 31
0.0
  0
LINE
  5
6AD6
  8
DIM
 62
     0
 10
14.659354751204109
 20
28.306490428254438
 30
0.0
 11
14.84435475120411
 21
28.306490428254438
 31
0.0
  0
LINE
  5
6AD7
  8
DIM
 62
     0
 10
15.51435475120411
 20
28.306490428254438
 30
0.0
 11
15.329354751204111
 21
28.306490428254438
 31
0.0
  0
SOLID
  5
6AD8
  8
DIM
 62
     0
 10
14.659354751204109
 20
28.366490428254441
 30
0.0
 11
14.659354751204109
 21
28.24649042825445
 31
0.0
 12
14.29935475120411
 22
28.306490428254438
 32
0.0
 13
14.29935475120411
 23
28.306490428254438
 33
0.0
  0
SOLID
  5
6AD9
  8
DIM
 62
     0
 10
15.51435475120411
 20
28.366490428254441
 30
0.0
 11
15.51435475120411
 21
28.24649042825445
 31
0.0
 12
15.8743547512041
 22
28.306490428254438
 32
0.0
 13
15.8743547512041
 23
28.306490428254438
 33
0.0
  0
TEXT
  5
6ADA
  8
OBJECT
 62
     0
 10
15.024354751204109
 20
28.181490428254438
 30
0.0
 40
0.25
  1
A
 41
0.75
  0
POINT
  5
6ADB
  8
DEFPOINTS
 62
     0
 10
14.29935475120411
 20
26.692490428254441
 30
0.0
  0
POINT
  5
6ADC
  8
DEFPOINTS
 62
     0
 10
15.8743547512041
 20
26.692490428254441
 30
0.0
  0
POINT
  5
6ADD
  8
DEFPOINTS
 62
     0
 10
15.8743547512041
 20
28.306490428254438
 30
0.0
  0
ENDBLK
  5
1293
  8
0
  0
BLOCK
  8
0
  2
*D25
 70
     1
 10
0.0
 20
0.0
 30
0.0
  3
*D25
  1

  0
LINE
  5
6AE8
  8
DIM
 62
     0
 10
15.106354751204121
 20
26.818490428254439
 30
0.0
 11
15.106354751204121
 21
27.376490428254439
 31
0.0
  0
LINE
  5
6AE9
  8
DIM
 62
     0
 10
15.8743547512041
 20
26.818490428254439
 30
0.0
 11
15.8743547512041
 21
27.376490428254439
 31
0.0
  0
LINE
  5
6AEA
  8
DIM
 62
     0
 10
14.74635475120412
 20
27.190490428254439
 30
0.0
 11
14.38635475120412
 21
27.190490428254439
 31
0.0
  0
LINE
  5
6AEB
  8
DIM
 62
     0
 10
16.234354751204108
 20
27.190490428254439
 30
0.0
 11
16.594354751204101
 21
27.190490428254439
 31
0.0
  0
SOLID
  5
6AEC
  8
DIM
 62
     0
 10
14.74635475120412
 20
27.250490428254441
 30
0.0
 11
14.74635475120412
 21
27.13049042825444
 31
0.0
 12
15.106354751204121
 22
27.190490428254439
 32
0.0
 13
15.106354751204121
 23
27.190490428254439
 33
0.0
  0
SOLID
  5
6AED
  8
DIM
 62
     0
 10
16.234354751204108
 20
27.250490428254441
 30
0.0
 11
16.234354751204108
 21
27.13049042825444
 31
0.0
 12
15.8743547512041
 22
27.190490428254439
 32
0.0
 13
15.8743547512041
 23
27.190490428254439
 33
0.0
  0
TEXT
  5
6AEE
  8
OBJECT
 62
     0
 10
15.42785475120411
 20
27.065490428254439
 30
0.0
 40
0.25
  1
B
 41
0.75
  0
POINT
  5
6AEF
  8
DEFPOINTS
 62
     0
 10
15.106354751204121
 20
26.692490428254441
 30
0.0
  0
POINT
  5
6AF0
  8
DEFPOINTS
 62
     0
 10
15.8743547512041
 20
26.692490428254441
 30
0.0
  0
POINT
  5
6AF1
  8
DEFPOINTS
 62
     0
 10
15.8743547512041
 20
27.190490428254439
 30
0.0
  0
ENDBLK
  5
12A1
  8
0
  0
BLOCK
  8
0
  2
*D26
 70
     1
 10
0.0
 20
0.0
 30
0.0
  3
*D26
  1

  0
LINE
  5
6967
  8
DIM
 62
     0
 10
6.2359967701608756
 20
21.180490428254451
 30
0.0
 11
13.100806602530289
 21
21.180490428254451
 31
0.0
  0
LINE
  5
6968
  8
DIM
 62
     0
 10
10.08299677016087
 20
15.668490428254451
 30
0.0
 11
13.100806602530289
 21
15.66849042825444
 31
0.0
  0
LINE
  5
6969
  8
DIM
 62
     0
 10
12.914806602530289
 20
20.820490428254448
 30
0.0
 11
12.914806602530289
 21
18.72949042825444
 31
0.0
  0
LINE
  5
696A
  8
DIM
 62
     0
 10
12.914806602530289
 20
16.02849042825445
 30
0.0
 11
12.914806602530289
 21
18.119490428254441
 31
0.0
  0
SOLID
  5
696B
  8
DIM
 62
     0
 10
12.854806602530291
 20
20.820490428254448
 30
0.0
 11
12.97480660253029
 21
20.820490428254448
 31
0.0
 12
12.914806602530289
 22
21.180490428254451
 32
0.0
 13
12.914806602530289
 23
21.180490428254451
 33
0.0
  0
SOLID
  5
696C
  8
DIM
 62
     0
 10
12.854806602530291
 20
16.02849042825445
 30
0.0
 11
12.97480660253029
 21
16.02849042825445
 31
0.0
 12
12.914806602530289
 22
15.66849042825444
 32
0.0
 13
12.914806602530289
 23
15.66849042825444
 33
0.0
  0
TEXT
  5
696D
  8
OBJECT
 62
     0
 10
12.571056602530289
 20
18.299490428254451
 30
0.0
 40
0.25
  1
5.512
 41
0.75
  0
POINT
  5
696E
  8
DEFPOINTS
 62
     0
 10
6.1099967701608762
 20
21.180490428254451
 30
0.0
  0
POINT
  5
696F
  8
DEFPOINTS
 62
     0
 10
9.9569967701608757
 20
15.668490428254451
 30
0.0
  0
POINT
  5
6970
  8
DEFPOINTS
 62
     0
 10
12.914806602530289
 20
15.66849042825444
 30
0.0
  0
ENDBLK
  5
1725
  8
0
  0
BLOCK
  8
0
  2
*D27
 70
     1
 10
0.0
 20
0.0
 30
0.0
  3
*D27
  1

  0
LINE
  5
688D
  8
DIM
 62
     0
 10
6.2359967701608756
 20
21.180490428254451
 30
0.0
 11
11.580291225472131
 21
21.180490428254451
 31
0.0
  0
LINE
  5
688E
  8
DIM
 62
     0
 10
10.20299677016088
 20
20.35349042825445
 30
0.0
 11
11.580291225472131
 21
20.35349042825445
 31
0.0
  0
LINE
  5
688F
  8
DIM
 62
     0
 10
11.394291225472131
 20
21.54049042825444
 30
0.0
 11
11.394291225472131
 21
21.900490428254439
 31
0.0
  0
LINE
  5
6890
  8
DIM
 62
     0
 10
11.394291225472131
 20
19.99349042825445
 30
0.0
 11
11.394291225472131
 21
19.633490428254451
 31
0.0
  0
SOLID
  5
6891
  8
DIM
 62
     0
 10
11.33429122547213
 20
21.54049042825444
 30
0.0
 11
11.454291225472129
 21
21.54049042825444
 31
0.0
 12
11.394291225472131
 22
21.180490428254451
 32
0.0
 13
11.394291225472131
 23
21.180490428254451
 33
0.0
  0
SOLID
  5
6892
  8
DIM
 62
     0
 10
11.33429122547213
 20
19.99349042825445
 30
0.0
 11
11.454291225472129
 21
19.99349042825445
 31
0.0
 12
11.394291225472131
 22
20.35349042825445
 32
0.0
 13
11.394291225472131
 23
20.35349042825445
 33
0.0
  0
TEXT
  5
6893
  8
OBJECT
 62
     0
 10
11.03491622547212
 20
20.641990428254449
 30
0.0
 40
0.25
  1
0.827
 41
0.75
  0
POINT
  5
6894
  8
DEFPOINTS
 62
     0
 10
6.1099967701608762
 20
21.180490428254451
 30
0.0
  0
POINT
  5
6895
  8
DEFPOINTS
 62
     0
 10
10.07699677016088
 20
20.35349042825445
 30
0.0
  0
POINT
  5
6896
  8
DEFPOINTS
 62
     0
 10
11.394291225472131
 20
20.35349042825445
 30
0.0
  0
ENDBLK
  5
175F
  8
0
  0
BLOCK
  8
0
  2
*D28
 70
     1
 10
0.0
 20
0.0
 30
0.0
  3
*D28
  1

  0
LINE
  5
6897
  8
DIM
 62
     0
 10
10.20299677016088
 20
20.35349042825445
 30
0.0
 11
12.249227139841601
 21
20.35349042825445
 31
0.0
  0
LINE
  5
6898
  8
DIM
 62
     0
 10
10.20299677016088
 20
18.69949042825445
 30
0.0
 11
12.249227139841601
 21
18.69949042825445
 31
0.0
  0
LINE
  5
6899
  8
DIM
 62
     0
 10
12.063227139841601
 20
20.713490428254449
 30
0.0
 11
12.063227139841601
 21
21.073490428254448
 31
0.0
  0
LINE
  5
689A
  8
DIM
 62
     0
 10
12.063227139841601
 20
18.33949042825445
 30
0.0
 11
12.063227139841601
 21
17.979490428254451
 31
0.0
  0
SOLID
  5
689B
  8
DIM
 62
     0
 10
12.0032271398416
 20
20.713490428254449
 30
0.0
 11
12.1232271398416
 21
20.713490428254449
 31
0.0
 12
12.063227139841601
 22
20.35349042825445
 32
0.0
 13
12.063227139841601
 23
20.35349042825445
 33
0.0
  0
SOLID
  5
689C
  8
DIM
 62
     0
 10
12.0032271398416
 20
18.33949042825445
 30
0.0
 11
12.1232271398416
 21
18.33949042825445
 31
0.0
 12
12.063227139841601
 22
18.69949042825445
 32
0.0
 13
12.063227139841601
 23
18.69949042825445
 33
0.0
  0
TEXT
  5
689D
  8
OBJECT
 62
     0
 10
11.719477139841601
 20
19.401490428254451
 30
0.0
 40
0.25
  1
1.654
 41
0.75
  0
POINT
  5
689E
  8
DEFPOINTS
 62
     0
 10
10.07699677016088
 20
20.35349042825445
 30
0.0
  0
POINT
  5
689F
  8
DEFPOINTS
 62
     0
 10
10.07699677016088
 20
18.69949042825445
 30
0.0
  0
POINT
  5
68A0
  8
DEFPOINTS
 62
     0
 10
12.063227139841601
 20
18.69949042825445
 30
0.0
  0
ENDBLK
  5
31D5
  8
0
  0
BLOCK
  8
0
  2
*D29
 70
     1
 10
0.0
 20
0.0
 30
0.0
  3
*D29
  1

  0
LINE
  5
6A34
  8
DIM
 62
     0
 10
5.8039967701608761
 20
21.180490428254451
 30
0.0
 11
1.2977980032998351
 21
21.180490428254451
 31
0.0
  0
LINE
  5
6A35
  8
DIM
 62
     0
 10
2.8629967701608741
 20
20.304490428254439
 30
0.0
 11
1.2977980032998351
 21
20.304490428254439
 31
0.0
  0
LINE
  5
6A36
  8
DIM
 62
     0
 10
1.483798003299835
 20
21.540490428254451
 30
0.0
 11
1.483798003299835
 21
21.90049042825445
 31
0.0
  0
LINE
  5
6A37
  8
DIM
 62
     0
 10
1.483798003299835
 20
19.944490428254451
 30
0.0
 11
1.483798003299835
 21
19.584490428254451
 31
0.0
  0
SOLID
  5
6A38
  8
DIM
 62
     0
 10
1.423798003299835
 20
21.540490428254451
 30
0.0
 11
1.5437980032998351
 21
21.540490428254451
 31
0.0
 12
1.483798003299835
 22
21.180490428254451
 32
0.0
 13
1.483798003299835
 23
21.180490428254451
 33
0.0
  0
SOLID
  5
6A39
  8
DIM
 62
     0
 10
1.423798003299835
 20
19.944490428254451
 30
0.0
 11
1.5437980032998351
 21
19.944490428254451
 31
0.0
 12
1.483798003299835
 22
20.304490428254439
 32
0.0
 13
1.483798003299835
 23
20.304490428254439
 33
0.0
  0
TEXT
  5
6A3A
  8
OBJECT
 62
     0
 10
1.1244230032998319
 20
20.617490428254438
 30
0.0
 40
0.25
  1
0.876
 41
0.75
  0
POINT
  5
6A3B
  8
DEFPOINTS
 62
     0
 10
5.9299967701608756
 20
21.180490428254451
 30
0.0
  0
POINT
  5
6A3C
  8
DEFPOINTS
 62
     0
 10
2.9889967701608731
 20
20.304490428254439
 30
0.0
  0
POINT
  5
6A3D
  8
DEFPOINTS
 62
     0
 10
1.483798003299835
 20
20.304490428254439
 30
0.0
  0
ENDBLK
  5
4A51
  8
0
  0
BLOCK
  8
0
  2
*D30
 70
     1
 10
0.0
 20
0.0
 30
0.0
  3
*D30
  1

  0
LINE
  5
6B49
  8
DIM
 62
     0
 10
2.8629967701608741
 20
20.304490428254439
 30
0.0
 11
1.2977980032998351
 21
20.304490428254439
 31
0.0
  0
LINE
  5
6B4A
  8
DIM
 62
     0
 10
2.8629967701608741
 20
16.806490428254449
 30
0.0
 11
1.2977980032998351
 21
16.806490428254449
 31
0.0
  0
LINE
  5
6B4B
  8
DIM
 62
     0
 10
1.483798003299835
 20
19.944490428254451
 30
0.0
 11
1.483798003299835
 21
18.860490428254451
 31
0.0
  0
LINE
  5
6B4C
  8
DIM
 62
     0
 10
1.483798003299835
 20
17.166490428254441
 30
0.0
 11
1.483798003299835
 21
18.250490428254452
 31
0.0
  0
SOLID
  5
6B4D
  8
DIM
 62
     0
 10
1.423798003299835
 20
19.944490428254451
 30
0.0
 11
1.5437980032998351
 21
19.944490428254451
 31
0.0
 12
1.483798003299835
 22
20.304490428254439
 32
0.0
 13
1.483798003299835
 23
20.304490428254439
 33
0.0
  0
SOLID
  5
6B4E
  8
DIM
 62
     0
 10
1.4237980032998341
 20
17.166490428254441
 30
0.0
 11
1.5437980032998351
 21
17.166490428254441
 31
0.0
 12
1.483798003299835
 22
16.806490428254449
 32
0.0
 13
1.483798003299835
 23
16.806490428254449
 33
0.0
  0
TEXT
  8
0
  40
0.25
  5
6EBD
  62
0
  72
0
  71
0
 10
0.983798
 20
18.1130
 30
0.000000
  1
3.498
  0
POINT
  5
6B50
  8
DEFPOINTS
 62
     0
 10
2.9889967701608731
 20
20.304490428254439
 30
0.0
  0
POINT
  5
6B51
  8
DEFPOINTS
 62
     0
 10
2.9889967701608731
 20
16.806490428254449
 30
0.0
  0
POINT
  5
6B52
  8
DEFPOINTS
 62
     0
 10
1.483798003299835
 20
16.806490428254449
 30
0.0
  0
ENDBLK
  5
4A5F
  8
0
  0
BLOCK
  8
0
  2
*D31
 70
     1
 10
0.0
 20
0.0
 30
0.0
  3
*D31
  1

  0
LINE
  5
68A1
  8
DIM
 62
     0
 10
6.2359967701608756
 20
21.180490428254451
 30
0.0
 11
10.84383176601267
 21
21.180490428254451
 31
0.0
  0
LINE
  5
68A2
  8
DIM
 62
     0
 10
10.20299677016088
 20
22.007490428254449
 30
0.0
 11
10.84383176601267
 21
22.007490428254449
 31
0.0
  0
LINE
  5
68A3
  8
DIM
 62
     0
 10
10.65783176601267
 20
20.820490428254448
 30
0.0
 11
10.65783176601267
 21
20.460490428254442
 31
0.0
  0
LINE
  5
68A4
  8
DIM
 62
     0
 10
10.65783176601267
 20
22.367490428254449
 30
0.0
 11
10.65783176601267
 21
22.727490428254448
 31
0.0
  0
SOLID
  5
68A5
  8
DIM
 62
     0
 10
10.59783176601267
 20
20.820490428254448
 30
0.0
 11
10.717831766012671
 21
20.820490428254448
 31
0.0
 12
10.65783176601267
 22
21.180490428254451
 32
0.0
 13
10.65783176601267
 23
21.180490428254451
 33
0.0
  0
SOLID
  5
68A6
  8
DIM
 62
     0
 10
10.59783176601267
 20
22.367490428254449
 30
0.0
 11
10.717831766012671
 21
22.367490428254449
 31
0.0
 12
10.65783176601267
 22
22.007490428254449
 32
0.0
 13
10.65783176601267
 23
22.007490428254449
 33
0.0
  0
TEXT
  5
68A7
  8
OBJECT
 62
     0
 10
10.29845676601267
 20
21.46899042825445
 30
0.0
 40
0.25
  1
0.827
 41
0.75
  0
POINT
  5
68A8
  8
DEFPOINTS
 62
     0
 10
6.1099967701608762
 20
21.180490428254451
 30
0.0
  0
POINT
  5
68A9
  8
DEFPOINTS
 62
     0
 10
10.07699677016088
 20
22.007490428254449
 30
0.0
  0
POINT
  5
68AA
  8
DEFPOINTS
 62
     0
 10
10.65783176601267
 20
22.007490428254449
 30
0.0
  0
ENDBLK
  5
4AD2
  8
0
  0
BLOCK
  8
0
  2
*D32
 70
     1
 10
0.0
 20
0.0
 30
0.0
  3
*D32
  1

  0
LINE
  5
69B9
  8
DIM
 62
     0
 10
10.20299677016088
 20
22.007490428254449
 30
0.0
 11
12.068254166868631
 21
22.007490428254449
 31
0.0
  0
LINE
  5
69BA
  8
DIM
 62
     0
 10
10.20299677016088
 20
23.661490428254449
 30
0.0
 11
12.068254166868631
 21
23.661490428254449
 31
0.0
  0
LINE
  5
69BB
  8
DIM
 62
     0
 10
11.882254166868631
 20
21.64749042825445
 30
0.0
 11
11.882254166868631
 21
21.28749042825444
 31
0.0
  0
LINE
  5
69BC
  8
DIM
 62
     0
 10
11.882254166868631
 20
24.021490428254449
 30
0.0
 11
11.882254166868631
 21
24.381490428254448
 31
0.0
  0
SOLID
  5
69BD
  8
DIM
 62
     0
 10
11.82225416686863
 20
21.64749042825445
 30
0.0
 11
11.942254166868629
 21
21.64749042825445
 31
0.0
 12
11.882254166868631
 22
22.007490428254449
 32
0.0
 13
11.882254166868631
 23
22.007490428254449
 33
0.0
  0
SOLID
  5
69BE
  8
DIM
 62
     0
 10
11.82225416686863
 20
24.021490428254449
 30
0.0
 11
11.942254166868629
 21
24.021490428254449
 31
0.0
 12
11.882254166868631
 22
23.661490428254449
 32
0.0
 13
11.882254166868631
 23
23.661490428254449
 33
0.0
  0
TEXT
  5
69BF
  8
OBJECT
 62
     0
 10
11.53850416686862
 20
22.709490428254451
 30
0.0
 40
0.25
  1
1.654
 41
0.75
  0
POINT
  5
69C0
  8
DEFPOINTS
 62
     0
 10
10.07699677016088
 20
22.007490428254449
 30
0.0
  0
POINT
  5
69C1
  8
DEFPOINTS
 62
     0
 10
10.07699677016088
 20
23.661490428254449
 30
0.0
  0
POINT
  5
69C2
  8
DEFPOINTS
 62
     0
 10
11.882254166868631
 20
23.661490428254449
 30
0.0
  0
ENDBLK
  5
4ADF
  8
0
  0
BLOCK
  8
0
  2
*D33
 70
     1
 10
0.0
 20
0.0
 30
0.0
  3
*D33
  1

  0
LINE
  5
6A5C
  8
DIM
 62
     0
 10
5.8039967701608761
 20
21.180490428254451
 30
0.0
 11
0.651651891074174
 21
21.180490428254451
 31
0.0
  0
LINE
  5
6A5D
  8
DIM
 62
     0
 10
2.8629967701608741
 20
22.056490428254449
 30
0.0
 11
0.6516518910741738
 21
22.056490428254449
 31
0.0
  0
LINE
  5
6A5E
  8
DIM
 62
     0
 10
0.8376518910741735
 20
20.820490428254448
 30
0.0
 11
0.8376518910741733
 21
20.460490428254449
 31
0.0
  0
LINE
  5
6A5F
  8
DIM
 62
     0
 10
0.8376518910741738
 20
22.416490428254441
 30
0.0
 11
0.8376518910741738
 21
22.776490428254441
 31
0.0
  0
SOLID
  5
6A60
  8
DIM
 62
     0
 10
0.7776518910741734
 20
20.820490428254448
 30
0.0
 11
0.8976518910741734
 21
20.820490428254448
 31
0.0
 12
0.8376518910741735
 22
21.180490428254451
 32
0.0
 13
0.8376518910741735
 23
21.180490428254451
 33
0.0
  0
SOLID
  5
6A61
  8
DIM
 62
     0
 10
0.7776518910741738
 20
22.416490428254441
 30
0.0
 11
0.8976518910741738
 21
22.416490428254441
 31
0.0
 12
0.8376518910741737
 22
22.056490428254449
 32
0.0
 13
0.8376518910741737
 23
22.056490428254449
 33
0.0
  0
TEXT
  5
6A62
  8
OBJECT
 62
     0
 10
0.4782768910741702
 20
21.493490428254439
 30
0.0
 40
0.25
  1
0.876
 41
0.75
  0
POINT
  5
6A63
  8
DEFPOINTS
 62
     0
 10
5.9299967701608756
 20
21.180490428254451
 30
0.0
  0
POINT
  5
6A64
  8
DEFPOINTS
 62
     0
 10
2.9889967701608731
 20
22.056490428254449
 30
0.0
  0
POINT
  5
6A65
  8
DEFPOINTS
 62
     0
 10
0.8376518910741737
 20
22.056490428254449
 30
0.0
  0
ENDBLK
  5
4AEC
  8
0
  0
BLOCK
  8
0
  2
*D34
 70
     1
 10
0.0
 20
0.0
 30
0.0
  3
*D34
  1

  0
LINE
  5
6B53
  8
DIM
 62
     0
 10
2.8629967701608741
 20
22.056490428254449
 30
0.0
 11
0.6516518910741734
 21
22.056490428254449
 31
0.0
  0
LINE
  5
6B54
  8
DIM
 62
     0
 10
2.8629967701608741
 20
25.55449042825445
 30
0.0
 11
0.6516518910741742
 21
25.55449042825445
 31
0.0
  0
LINE
  5
6B55
  8
DIM
 62
     0
 10
0.8376518910741735
 20
22.416490428254441
 30
0.0
 11
0.8376518910741737
 21
23.500490428254452
 31
0.0
  0
LINE
  5
6B56
  8
DIM
 62
     0
 10
0.837651891074174
 20
25.194490428254451
 30
0.0
 11
0.8376518910741738
 21
24.110490428254451
 31
0.0
  0
SOLID
  5
6B57
  8
DIM
 62
     0
 10
0.7776518910741737
 20
22.416490428254441
 30
0.0
 11
0.8976518910741734
 21
22.416490428254441
 31
0.0
 12
0.8376518910741733
 22
22.056490428254449
 32
0.0
 13
0.8376518910741733
 23
22.056490428254449
 33
0.0
  0
SOLID
  5
6B58
  8
DIM
 62
     0
 10
0.7776518910741741
 20
25.194490428254451
 30
0.0
 11
0.897651891074174
 21
25.194490428254451
 31
0.0
 12
0.837651891074174
 22
25.55449042825445
 32
0.0
 13
0.837651891074174
 23
25.55449042825445
 33
0.0
  0
TEXT
  8
0
  40
0.25
  5
6EBE
  62
0
  72
0
  71
0
 10
0.337652
 20
23.3630
 30
0.000000
  1
3.498
  0
POINT
  5
6B5A
  8
DEFPOINTS
 62
     0
 10
2.9889967701608731
 20
22.056490428254449
 30
0.0
  0
POINT
  5
6B5B
  8
DEFPOINTS
 62
     0
 10
2.9889967701608731
 20
25.55449042825445
 30
0.0
  0
POINT
  5
6B5C
  8
DEFPOINTS
 62
     0
 10
0.837651891074174
 20
25.55449042825445
 30
0.0
  0
ENDBLK
  5
4AF9
  8
0
  0
BLOCK
  8
0
  2
*D35
 70
     1
 10
0.0
 20
0.0
 30
0.0
  3
*D35
  1

  0
LINE
  5
6945
  8
DIM
 62
     0
 10
2.5749967701608791
 20
16.03449042825444
 30
0.0
 11
2.5749967701608791
 21
14.47499248040746
 31
0.0
  0
LINE
  5
6946
  8
DIM
 62
     0
 10
2.08299677016088
 20
15.54249042825445
 30
0.0
 11
2.08299677016088
 21
14.47499248040746
 31
0.0
  0
LINE
  5
6947
  8
DIM
 62
     0
 10
2.934996770160879
 20
14.66099248040746
 30
0.0
 11
3.2949967701608789
 21
14.66099248040746
 31
0.0
  0
LINE
  5
6948
  8
DIM
 62
     0
 10
1.7229967701608799
 20
14.66099248040746
 30
0.0
 11
1.3629967701608801
 21
14.66099248040746
 31
0.0
  0
SOLID
  5
6949
  8
DIM
 62
     0
 10
2.934996770160879
 20
14.72099248040746
 30
0.0
 11
2.934996770160879
 21
14.600992480407459
 31
0.0
 12
2.5749967701608791
 22
14.66099248040746
 32
0.0
 13
2.5749967701608791
 23
14.66099248040746
 33
0.0
  0
SOLID
  5
694A
  8
DIM
 62
     0
 10
1.7229967701608799
 20
14.72099248040746
 30
0.0
 11
1.7229967701608799
 21
14.600992480407459
 31
0.0
 12
2.08299677016088
 22
14.66099248040746
 32
0.0
 13
2.08299677016088
 23
14.66099248040746
 33
0.0
  0
TEXT
  5
694B
  8
OBJECT
 62
     0
 10
0.4642467701608806
 20
14.53599248040746
 30
0.0
 40
0.25
  1
0.492
 41
0.75
  0
POINT
  5
694C
  8
DEFPOINTS
 62
     0
 10
2.5749967701608791
 20
16.160490428254441
 30
0.0
  0
POINT
  5
694D
  8
DEFPOINTS
 62
     0
 10
2.08299677016088
 20
15.668490428254451
 30
0.0
  0
POINT
  5
694E
  8
DEFPOINTS
 62
     0
 10
2.08299677016088
 20
14.66099248040746
 30
0.0
  0
ENDBLK
  5
6944
  8
0
  0
BLOCK
  8
0
  2
*D36
 70
     1
 10
0.0
 20
0.0
 30
0.0
  3
*D36
  1

  0
LINE
  5
695D
  8
DIM
 62
     0
 10
9.5909967701608725
 20
26.200490428254451
 30
0.0
 11
10.92436188253143
 21
26.200490428254451
 31
0.0
  0
LINE
  5
695E
  8
DIM
 62
     0
 10
10.08299677016087
 20
26.692490428254452
 30
0.0
 11
10.92436188253143
 21
26.692490428254452
 31
0.0
  0
LINE
  5
695F
  8
DIM
 62
     0
 10
10.73836188253143
 20
25.840490428254451
 30
0.0
 11
10.73836188253143
 21
25.480490428254448
 31
0.0
  0
LINE
  5
6960
  8
DIM
 62
     0
 10
10.73836188253143
 20
27.052490428254451
 30
0.0
 11
10.73836188253143
 21
27.412490428254451
 31
0.0
  0
SOLID
  5
6961
  8
DIM
 62
     0
 10
10.67836188253143
 20
25.840490428254451
 30
0.0
 11
10.798361882531429
 21
25.840490428254451
 31
0.0
 12
10.73836188253143
 22
26.200490428254451
 32
0.0
 13
10.73836188253143
 23
26.200490428254451
 33
0.0
  0
SOLID
  5
6962
  8
DIM
 62
     0
 10
10.67836188253143
 20
27.052490428254451
 30
0.0
 11
10.798361882531429
 21
27.052490428254451
 31
0.0
 12
10.73836188253143
 22
26.692490428254452
 32
0.0
 13
10.73836188253143
 23
26.692490428254452
 33
0.0
  0
TEXT
  5
6963
  8
OBJECT
 62
     0
 10
10.37898688253143
 20
26.32149042825445
 30
0.0
 40
0.25
  1
0.492
 41
0.75
  0
POINT
  5
6964
  8
DEFPOINTS
 62
     0
 10
9.464996770160873
 20
26.200490428254451
 30
0.0
  0
POINT
  5
6965
  8
DEFPOINTS
 62
     0
 10
9.9569967701608721
 20
26.692490428254452
 30
0.0
  0
POINT
  5
6966
  8
DEFPOINTS
 62
     0
 10
10.73836188253143
 20
26.692490428254452
 30
0.0
  0
ENDBLK
  5
695C
  8
0
  0
BLOCK
  8
0
  2
*D37
 70
     1
 10
0.0
 20
0.0
 30
0.0
  3
*D37
  1

  0
LINE
  5
698A
  8
DIM
 62
     0
 10
10.20299677016088
 20
18.69949042825445
 30
0.0
 11
11.746057540424699
 21
18.69949042825445
 31
0.0
  0
LINE
  5
698B
  8
DIM
 62
     0
 10
10.20299677016088
 20
17.04549042825445
 30
0.0
 11
11.746057540424699
 21
17.04549042825445
 31
0.0
  0
LINE
  5
698C
  8
DIM
 62
     0
 10
11.560057540424699
 20
19.059490428254449
 30
0.0
 11
11.560057540424699
 21
19.419490428254448
 31
0.0
  0
LINE
  5
698D
  8
DIM
 62
     0
 10
11.560057540424699
 20
16.68549042825445
 30
0.0
 11
11.560057540424699
 21
16.325490428254451
 31
0.0
  0
SOLID
  5
698E
  8
DIM
 62
     0
 10
11.500057540424701
 20
19.059490428254449
 30
0.0
 11
11.6200575404247
 21
19.059490428254449
 31
0.0
 12
11.560057540424699
 22
18.69949042825445
 32
0.0
 13
11.560057540424699
 23
18.69949042825445
 33
0.0
  0
SOLID
  5
698F
  8
DIM
 62
     0
 10
11.500057540424701
 20
16.68549042825445
 30
0.0
 11
11.6200575404247
 21
16.68549042825445
 31
0.0
 12
11.560057540424699
 22
17.04549042825445
 32
0.0
 13
11.560057540424699
 23
17.04549042825445
 33
0.0
  0
TEXT
  5
6990
  8
OBJECT
 62
     0
 10
11.216307540424699
 20
17.747490428254459
 30
0.0
 40
0.25
  1
1.654
 41
0.75
  0
POINT
  5
6991
  8
DEFPOINTS
 62
     0
 10
10.07699677016088
 20
18.69949042825445
 30
0.0
  0
POINT
  5
6992
  8
DEFPOINTS
 62
     0
 10
10.07699677016088
 20
17.04549042825445
 30
0.0
  0
POINT
  5
6993
  8
DEFPOINTS
 62
     0
 10
11.560057540424699
 20
17.04549042825445
 30
0.0
  0
ENDBLK
  5
697F
  8
0
  0
BLOCK
  8
0
  2
*D38
 70
     1
 10
0.0
 20
0.0
 30
0.0
  3
*D38
  1

  0
LINE
  5
69AF
  8
DIM
 62
     0
 10
10.20299677016088
 20
23.661490428254439
 30
0.0
 11
11.565084567451731
 21
23.661490428254439
 31
0.0
  0
LINE
  5
69B0
  8
DIM
 62
     0
 10
10.20299677016088
 20
25.315490428254439
 30
0.0
 11
11.565084567451731
 21
25.315490428254439
 31
0.0
  0
LINE
  5
69B1
  8
DIM
 62
     0
 10
11.379084567451731
 20
23.301490428254439
 30
0.0
 11
11.379084567451731
 21
22.94149042825444
 31
0.0
  0
LINE
  5
69B2
  8
DIM
 62
     0
 10
11.379084567451731
 20
25.675490428254442
 30
0.0
 11
11.379084567451731
 21
26.035490428254441
 31
0.0
  0
SOLID
  5
69B3
  8
DIM
 62
     0
 10
11.31908456745173
 20
23.301490428254439
 30
0.0
 11
11.439084567451729
 21
23.301490428254439
 31
0.0
 12
11.379084567451731
 22
23.661490428254439
 32
0.0
 13
11.379084567451731
 23
23.661490428254439
 33
0.0
  0
SOLID
  5
69B4
  8
DIM
 62
     0
 10
11.31908456745173
 20
25.675490428254442
 30
0.0
 11
11.439084567451729
 21
25.675490428254442
 31
0.0
 12
11.379084567451731
 22
25.315490428254439
 32
0.0
 13
11.379084567451731
 23
25.315490428254439
 33
0.0
  0
TEXT
  5
69B5
  8
OBJECT
 62
     0
 10
11.035334567451731
 20
24.36349042825444
 30
0.0
 40
0.25
  1
1.654
 41
0.75
  0
POINT
  5
69B6
  8
DEFPOINTS
 62
     0
 10
10.07699677016088
 20
23.661490428254439
 30
0.0
  0
POINT
  5
69B7
  8
DEFPOINTS
 62
     0
 10
10.07699677016088
 20
25.315490428254439
 30
0.0
  0
POINT
  5
69B8
  8
DEFPOINTS
 62
     0
 10
11.379084567451731
 20
25.315490428254439
 30
0.0
  0
ENDBLK
  5
69A4
  8
0
  0
BLOCK
  8
0
  2
*U39
 70
     1
 10
0.0
 20
0.0
 30
0.0
  3
*U39
  1

  0
TEXT
  5
6B2D
  8
OBJECT
 10
4.9287605200959952
 20
14.031284507502431
 30
0.0
 40
0.24999999875
  1
0.216 DIA. BOSS WITH
 41
0.75
  0
TEXT
  5
6B2E
  8
OBJECT
 10
4.9287605200959952
 20
13.61461784291909
 30
0.0
 40
0.24999999875
  1
0.090 DIA. HOLE x 0.156 DEEP
 41
0.75
  0
TEXT
  5
6B2F
  8
OBJECT
 10
4.9287605200959952
 20
13.19795117833576
 30
0.0
 40
0.24999999875
  1
(16) PLACES
 41
0.75
  0
ENDBLK
  5
6B31
  8
0
  0
BLOCK
  8
0
  2
*U40
 70
     1
 10
0.0
 20
0.0
 30
0.0
  3
*U40
  1

  0
TEXT
  5
6B33
  8
OBJECT
 10
10.611167523367049
 20
28.47157474394244
 30
0.0
 40
0.24999999875
  1
0.296 DIA. BOSS
 41
0.75
  0
TEXT
  5
6B34
  8
OBJECT
 10
10.611167523367049
 20
28.054908079359102
 30
0.0
 40
0.24999999875
  1
(8) PLACES
 41
0.75
  0
ENDBLK
  5
6B36
  8
0
  0
BLOCK
  8
0
  2
*X41
 70
     1
 10
0.0
 20
0.0
 30
0.0
  3
*X41
  1

  0
LINE
  5
6E05
  8
0
 62
     0
 10
18.634810820196329
 20
15.82849042825444
 30
0.0
 11
18.666951131197361
 21
15.86063073925547
 31
0.0
  0
LINE
  5
6E06
  8
0
 62
     0
 10
18.486951131197351
 20
15.68063073925547
 30
0.0
 11
18.595451131197361
 21
15.789130739255469
 31
0.0
  0
LINE
  5
6E07
  8
0
 62
     0
 10
18.486951131197351
 20
15.94579578220042
 30
0.0
 11
18.606951131197359
 21
16.065795782200421
 31
0.0
  0
LINE
  5
6E08
  8
0
 62
     0
 10
18.486951131197362
 20
16.210960825145381
 30
0.0
 11
18.606951131197359
 21
16.330960825145379
 31
0.0
  0
LINE
  5
6E09
  8
0
 62
     0
 10
18.486951131197351
 20
16.476125868090332
 30
0.0
 11
18.606951131197359
 21
16.59612586809034
 31
0.0
  0
LINE
  5
6E0A
  8
0
 62
     0
 10
18.486951131197351
 20
16.741290911035289
 30
0.0
 11
18.606951131197359
 21
16.86129091103529
 31
0.0
  0
LINE
  5
6E0B
  8
0
 62
     0
 10
18.486951131197362
 20
17.00645595398025
 30
0.0
 11
18.606951131197359
 21
17.126455953980241
 31
0.0
  0
LINE
  5
6E0C
  8
0
 62
     0
 10
18.486951131197362
 20
17.271620996925201
 30
0.0
 11
18.606951131197359
 21
17.391620996925202
 31
0.0
  0
LINE
  5
6E0D
  8
0
 62
     0
 10
18.486951131197351
 20
17.536786039870151
 30
0.0
 11
18.606951131197359
 21
17.656786039870159
 31
0.0
  0
LINE
  5
6E0E
  8
0
 62
     0
 10
18.486951131197362
 20
17.801951082815108
 30
0.0
 11
18.606951131197359
 21
17.921951082815109
 31
0.0
  0
LINE
  5
6E0F
  8
0
 62
     0
 10
18.486951131197362
 20
18.067116125760059
 30
0.0
 11
18.606951131197359
 21
18.18711612576007
 31
0.0
  0
LINE
  5
6E10
  8
0
 62
     0
 10
18.486951131197351
 20
18.33228116870502
 30
0.0
 11
18.606951131197359
 21
18.452281168705021
 31
0.0
  0
LINE
  5
6E11
  8
0
 62
     0
 10
18.486951131197351
 20
18.597446211649981
 30
0.0
 11
18.606951131197359
 21
18.717446211649978
 31
0.0
  0
LINE
  5
6E12
  8
0
 62
     0
 10
18.486951131197362
 20
18.862611254594931
 30
0.0
 11
18.606951131197359
 21
18.982611254594929
 31
0.0
  0
LINE
  5
6E13
  8
0
 62
     0
 10
18.486951131197351
 20
19.127776297539882
 30
0.0
 11
18.606951131197359
 21
19.24777629753989
 31
0.0
  0
LINE
  5
6E14
  8
0
 62
     0
 10
18.486951131197351
 20
19.392941340484839
 30
0.0
 11
18.606951131197359
 21
19.51294134048484
 31
0.0
  0
LINE
  5
6E15
  8
0
 62
     0
 10
18.486951131197362
 20
19.6581063834298
 30
0.0
 11
18.606951131197359
 21
19.778106383429801
 31
0.0
  0
LINE
  5
6E16
  8
0
 62
     0
 10
18.486951131197362
 20
19.92327142637475
 30
0.0
 11
18.606951131197359
 21
20.043271426374758
 31
0.0
  0
LINE
  5
6E17
  8
0
 62
     0
 10
18.486951131197351
 20
20.188436469319711
 30
0.0
 11
18.606951131197359
 21
20.308436469319709
 31
0.0
  0
LINE
  5
6E18
  8
0
 62
     0
 10
18.486951131197362
 20
20.453601512264662
 30
0.0
 11
18.606951131197359
 21
20.573601512264659
 31
0.0
  0
LINE
  5
6E19
  8
0
 62
     0
 10
18.486951131197362
 20
20.718766555209619
 30
0.0
 11
18.606951131197359
 21
20.83876655520962
 31
0.0
  0
LINE
  5
6E1A
  8
0
 62
     0
 10
18.486951131197351
 20
20.98393159815457
 30
0.0
 11
18.606951131197359
 21
21.103931598154571
 31
0.0
  0
LINE
  5
6E1B
  8
0
 62
     0
 10
18.486951131197362
 20
21.249096641099531
 30
0.0
 11
18.606951131197359
 21
21.369096641099532
 31
0.0
  0
LINE
  5
6E1C
  8
0
 62
     0
 10
18.486951131197362
 20
21.514261684044492
 30
0.0
 11
18.606951131197359
 21
21.634261684044478
 31
0.0
  0
LINE
  5
6E1D
  8
0
 62
     0
 10
18.486951131197351
 20
21.779426726989438
 30
0.0
 11
18.606951131197359
 21
21.899426726989439
 31
0.0
  0
LINE
  5
6E1E
  8
0
 62
     0
 10
18.486951131197351
 20
22.044591769934389
 30
0.0
 11
18.606951131197359
 21
22.1645917699344
 31
0.0
  0
LINE
  5
6E1F
  8
0
 62
     0
 10
18.486951131197362
 20
22.30975681287935
 30
0.0
 11
18.606951131197359
 21
22.429756812879351
 31
0.0
  0
LINE
  5
6E20
  8
0
 62
     0
 10
18.486951131197362
 20
22.5749218558243
 30
0.0
 11
18.606951131197359
 21
22.694921855824312
 31
0.0
  0
LINE
  5
6E21
  8
0
 62
     0
 10
18.486951131197351
 20
22.840086898769261
 30
0.0
 11
18.606951131197349
 21
22.960086898769259
 31
0.0
  0
LINE
  5
6E22
  8
0
 62
     0
 10
18.486951131197362
 20
23.105251941714219
 30
0.0
 11
18.606951131197349
 21
23.22525194171422
 31
0.0
  0
LINE
  5
6E23
  8
0
 62
     0
 10
18.486951131197362
 20
23.37041698465918
 30
0.0
 11
18.606951131197349
 21
23.49041698465917
 31
0.0
  0
LINE
  5
6E24
  8
0
 62
     0
 10
18.486951131197351
 20
23.63558202760413
 30
0.0
 11
18.606951131197349
 21
23.75558202760412
 31
0.0
  0
LINE
  5
6E25
  8
0
 62
     0
 10
18.486951131197362
 20
23.90074707054908
 30
0.0
 11
18.606951131197349
 21
24.020747070549071
 31
0.0
  0
LINE
  5
6E26
  8
0
 62
     0
 10
18.486951131197362
 20
24.165912113494041
 30
0.0
 11
18.606951131197349
 21
24.285912113494032
 31
0.0
  0
LINE
  5
6E27
  8
0
 62
     0
 10
18.486951131197351
 20
24.431077156438992
 30
0.0
 11
18.606951131197349
 21
24.551077156438989
 31
0.0
  0
LINE
  5
6E28
  8
0
 62
     0
 10
18.486951131197362
 20
24.696242199383949
 30
0.0
 11
18.606951131197349
 21
24.816242199383939
 31
0.0
  0
LINE
  5
6E29
  8
0
 62
     0
 10
18.486951131197362
 20
24.96140724232891
 30
0.0
 11
18.606951131197349
 21
25.081407242328901
 31
0.0
  0
LINE
  5
6E2A
  8
0
 62
     0
 10
18.486951131197362
 20
25.226572285273861
 30
0.0
 11
18.606951131197349
 21
25.346572285273851
 31
0.0
  0
LINE
  5
6E2B
  8
0
 62
     0
 10
18.486951131197362
 20
25.491737328218811
 30
0.0
 11
18.606951131197349
 21
25.611737328218808
 31
0.0
  0
LINE
  5
6E2C
  8
0
 62
     0
 10
18.486951131197362
 20
25.756902371163768
 30
0.0
 11
18.606951131197349
 21
25.876902371163759
 31
0.0
  0
LINE
  5
6E2D
  8
0
 62
     0
 10
18.486951131197362
 20
26.022067414108719
 30
0.0
 11
18.606951131197349
 21
26.14206741410872
 31
0.0
  0
LINE
  5
6E2E
  8
0
 62
     0
 10
18.486951131197351
 20
26.28723245705368
 30
0.0
 11
18.606951131197349
 21
26.407232457053681
 31
0.0
  0
LINE
  5
6E2F
  8
0
 62
     0
 10
18.486951131197362
 20
26.552397499998641
 30
0.0
 11
18.621339360873801
 21
26.686785729675069
 31
0.0
  0
LINE
  5
6E30
  8
0
 62
     0
 10
18.486951131197362
 20
15.76901908675547
 30
0.0
 11
18.606951131197349
 21
15.889019086755461
 31
0.0
  0
LINE
  5
6E31
  8
0
 62
     0
 10
18.486951131197351
 20
16.034184129700421
 30
0.0
 11
18.568257429751391
 21
16.11549042825445
 31
0.0
  0
LINE
  5
6E32
  8
0
 62
     0
 10
18.486951131197351
 20
16.299349172645371
 30
0.0
 11
18.606951131197349
 21
16.419349172645379
 31
0.0
  0
LINE
  5
6E33
  8
0
 62
     0
 10
18.486951131197362
 20
16.564514215590339
 30
0.0
 11
18.606951131197349
 21
16.68451421559033
 31
0.0
  0
LINE
  5
6E34
  8
0
 62
     0
 10
18.486951131197351
 20
16.82967925853529
 30
0.0
 11
18.606951131197349
 21
16.949679258535291
 31
0.0
  0
LINE
  5
6E35
  8
0
 62
     0
 10
18.486951131197351
 20
17.09484430148024
 30
0.0
 11
18.606951131197349
 21
17.214844301480241
 31
0.0
  0
LINE
  5
6E36
  8
0
 62
     0
 10
18.486951131197362
 20
17.360009344425201
 30
0.0
 11
18.606951131197349
 21
17.480009344425198
 31
0.0
  0
LINE
  5
6E37
  8
0
 62
     0
 10
18.486951131197351
 20
17.625174387370151
 30
0.0
 11
18.606951131197349
 21
17.745174387370149
 31
0.0
  0
LINE
  5
6E38
  8
0
 62
     0
 10
18.486951131197362
 20
17.890339430315109
 30
0.0
 11
18.606951131197349
 21
18.01033943031511
 31
0.0
  0
LINE
  5
6E39
  8
0
 62
     0
 10
18.486951131197362
 20
18.15550447326007
 30
0.0
 11
18.606951131197349
 21
18.27550447326006
 31
0.0
  0
LINE
  5
6E3A
  8
0
 62
     0
 10
18.486951131197362
 20
18.42066951620502
 30
0.0
 11
18.606951131197349
 21
18.540669516205021
 31
0.0
  0
LINE
  5
6E3B
  8
0
 62
     0
 10
18.486951131197351
 20
18.685834559149981
 30
0.0
 11
18.606951131197349
 21
18.805834559149972
 31
0.0
  0
LINE
  5
6E3C
  8
0
 62
     0
 10
18.486951131197362
 20
18.950999602094939
 30
0.0
 11
18.606951131197349
 21
19.070999602094929
 31
0.0
  0
LINE
  5
6E3D
  8
0
 62
     0
 10
18.486951131197362
 20
19.216164645039889
 30
0.0
 11
18.606951131197349
 21
19.336164645039879
 31
0.0
  0
LINE
  5
6E3E
  8
0
 62
     0
 10
18.486951131197351
 20
19.481329687984839
 30
0.0
 11
18.606951131197349
 21
19.60132968798484
 31
0.0
  0
LINE
  5
6E3F
  8
0
 62
     0
 10
18.486951131197362
 20
19.7464947309298
 30
0.0
 11
18.606951131197349
 21
19.866494730929801
 31
0.0
  0
LINE
  5
6E40
  8
0
 62
     0
 10
18.486951131197362
 20
20.011659773874751
 30
0.0
 11
18.606951131197349
 21
20.131659773874748
 31
0.0
  0
LINE
  5
6E41
  8
0
 62
     0
 10
18.486951131197351
 20
20.276824816819708
 30
0.0
 11
18.606951131197349
 21
20.396824816819709
 31
0.0
  0
LINE
  5
6E42
  8
0
 62
     0
 10
18.486951131197362
 20
20.541989859764669
 30
0.0
 11
18.606951131197349
 21
20.66198985976466
 31
0.0
  0
LINE
  5
6E43
  8
0
 62
     0
 10
18.486951131197362
 20
20.80715490270962
 30
0.0
 11
18.606951131197349
 21
20.927154902709621
 31
0.0
  0
LINE
  5
6E44
  8
0
 62
     0
 10
18.486951131197362
 20
21.07231994565457
 30
0.0
 11
18.606951131197349
 21
21.192319945654571
 31
0.0
  0
LINE
  5
6E45
  8
0
 62
     0
 10
18.486951131197362
 20
21.337484988599531
 30
0.0
 11
18.606951131197349
 21
21.457484988599528
 31
0.0
  0
LINE
  5
6E46
  8
0
 62
     0
 10
18.486951131197362
 20
21.602650031544488
 30
0.0
 11
18.606951131197349
 21
21.722650031544489
 31
0.0
  0
LINE
  5
6E47
  8
0
 62
     0
 10
18.486951131197362
 20
21.867815074489439
 30
0.0
 11
18.606951131197349
 21
21.98781507448944
 31
0.0
  0
LINE
  5
6E48
  8
0
 62
     0
 10
18.486951131197351
 20
22.132980117434389
 30
0.0
 11
18.606951131197349
 21
22.25298011743439
 31
0.0
  0
LINE
  5
6E49
  8
0
 62
     0
 10
18.486951131197362
 20
22.39814516037935
 30
0.0
 11
18.606951131197349
 21
22.518145160379351
 31
0.0
  0
LINE
  5
6E4A
  8
0
 62
     0
 10
18.486951131197362
 20
22.663310203324311
 30
0.0
 11
18.606951131197359
 21
22.783310203324302
 31
0.0
  0
LINE
  5
6E4B
  8
0
 62
     0
 10
18.486951131197351
 20
22.928475246269262
 30
0.0
 11
18.606951131197349
 21
23.048475246269259
 31
0.0
  0
LINE
  5
6E4C
  8
0
 62
     0
 10
18.486951131197362
 20
23.193640289214219
 30
0.0
 11
18.606951131197349
 21
23.313640289214209
 31
0.0
  0
LINE
  5
6E4D
  8
0
 62
     0
 10
18.486951131197362
 20
23.45880533215918
 30
0.0
 11
18.606951131197349
 21
23.57880533215916
 31
0.0
  0
LINE
  5
6E4E
  8
0
 62
     0
 10
18.486951131197362
 20
23.72397037510413
 30
0.0
 11
18.606951131197349
 21
23.843970375104121
 31
0.0
  0
LINE
  5
6E4F
  8
0
 62
     0
 10
18.486951131197362
 20
23.989135418049081
 30
0.0
 11
18.606951131197349
 21
24.109135418049071
 31
0.0
  0
LINE
  5
6E50
  8
0
 62
     0
 10
18.486951131197362
 20
24.254300460994038
 30
0.0
 11
18.606951131197349
 21
24.374300460994029
 31
0.0
  0
LINE
  5
6E51
  8
0
 62
     0
 10
18.486951131197362
 20
24.519465503938999
 30
0.0
 11
18.606951131197349
 21
24.63946550393899
 31
0.0
  0
LINE
  5
6E52
  8
0
 62
     0
 10
18.486951131197362
 20
24.78463054688395
 30
0.0
 11
18.606951131197349
 21
24.90463054688394
 31
0.0
  0
LINE
  5
6E53
  8
0
 62
     0
 10
18.486951131197362
 20
25.049795589828911
 30
0.0
 11
18.606951131197349
 21
25.169795589828901
 31
0.0
  0
LINE
  5
6E54
  8
0
 62
     0
 10
18.486951131197362
 20
25.314960632773861
 30
0.0
 11
18.606951131197349
 21
25.434960632773851
 31
0.0
  0
LINE
  5
6E55
  8
0
 62
     0
 10
18.486951131197362
 20
25.580125675718818
 30
0.0
 11
18.606951131197349
 21
25.700125675718809
 31
0.0
  0
LINE
  5
6E56
  8
0
 62
     0
 10
18.486951131197362
 20
25.845290718663769
 30
0.0
 11
18.606951131197341
 21
25.965290718663759
 31
0.0
  0
LINE
  5
6E57
  8
0
 62
     0
 10
18.486951131197362
 20
26.11045576160873
 30
0.0
 11
18.552951131197361
 21
26.176455761608722
 31
0.0
  0
LINE
  5
6E58
  8
0
 62
     0
 10
18.486951131197362
 20
26.37562080455368
 30
0.0
 11
18.643820754898119
 21
26.532490428254452
 31
0.0
  0
LINE
  5
6E59
  8
0
 62
     0
 10
18.486951131197362
 20
26.640785847498641
 30
0.0
 11
18.538655711953162
 21
26.692490428254441
 31
0.0
  0
ENDBLK
  5
6E5B
  8
0
  0
BLOCK
  8
0
  2
*X42
 70
     1
 10
0.0
 20
0.0
 30
0.0
  3
*X42
  1

  0
LINE
  5
6E5D
  8
0
 62
     0
 10
20.06195113119735
 20
26.55633632201004
 30
0.0
 11
19.92927543283022
 21
26.68901202037717
 31
0.0
  0
LINE
  5
6E5E
  8
0
 62
     0
 10
20.06195113119735
 20
26.291171279065079
 30
0.0
 11
19.94195113119736
 21
26.411171279065069
 31
0.0
  0
LINE
  5
6E5F
  8
0
 62
     0
 10
20.06195113119735
 20
26.026006236120121
 30
0.0
 11
19.94195113119736
 21
26.146006236120119
 31
0.0
  0
LINE
  5
6E60
  8
0
 62
     0
 10
20.061951131197361
 20
25.760841193175171
 30
0.0
 11
19.94195113119736
 21
25.880841193175161
 31
0.0
  0
LINE
  5
6E61
  8
0
 62
     0
 10
20.06195113119735
 20
25.49567615023021
 30
0.0
 11
19.94195113119736
 21
25.615676150230211
 31
0.0
  0
LINE
  5
6E62
  8
0
 62
     0
 10
20.06195113119735
 20
25.23051110728526
 30
0.0
 11
19.94195113119736
 21
25.350511107285261
 31
0.0
  0
LINE
  5
6E63
  8
0
 62
     0
 10
20.061951131197361
 20
24.965346064340292
 30
0.0
 11
19.94195113119736
 21
25.085346064340289
 31
0.0
  0
LINE
  5
6E64
  8
0
 62
     0
 10
20.061951131197361
 20
24.700181021395348
 30
0.0
 11
19.94195113119736
 21
24.820181021395339
 31
0.0
  0
LINE
  5
6E65
  8
0
 62
     0
 10
20.06195113119735
 20
24.435015978450391
 30
0.0
 11
19.94195113119736
 21
24.555015978450381
 31
0.0
  0
LINE
  5
6E66
  8
0
 62
     0
 10
20.061951131197361
 20
24.16985093550543
 30
0.0
 11
19.94195113119736
 21
24.289850935505431
 31
0.0
  0
LINE
  5
6E67
  8
0
 62
     0
 10
20.061951131197361
 20
23.904685892560479
 30
0.0
 11
19.94195113119736
 21
24.02468589256047
 31
0.0
  0
LINE
  5
6E68
  8
0
 62
     0
 10
20.061951131197361
 20
23.639520849615518
 30
0.0
 11
19.94195113119736
 21
23.759520849615509
 31
0.0
  0
LINE
  5
6E69
  8
0
 62
     0
 10
20.061951131197361
 20
23.374355806670572
 30
0.0
 11
19.94195113119736
 21
23.494355806670558
 31
0.0
  0
LINE
  5
6E6A
  8
0
 62
     0
 10
20.061951131197361
 20
23.1091907637256
 30
0.0
 11
19.94195113119736
 21
23.229190763725601
 31
0.0
  0
LINE
  5
6E6B
  8
0
 62
     0
 10
20.061951131197361
 20
22.84402572078065
 30
0.0
 11
19.94195113119736
 21
22.964025720780651
 31
0.0
  0
LINE
  5
6E6C
  8
0
 62
     0
 10
20.061951131197361
 20
22.578860677835689
 30
0.0
 11
19.94195113119736
 21
22.69886067783569
 31
0.0
  0
LINE
  5
6E6D
  8
0
 62
     0
 10
20.061951131197361
 20
22.313695634890738
 30
0.0
 11
19.94195113119736
 21
22.433695634890739
 31
0.0
  0
LINE
  5
6E6E
  8
0
 62
     0
 10
20.061951131197361
 20
22.048530591945791
 30
0.0
 11
19.94195113119736
 21
22.168530591945778
 31
0.0
  0
LINE
  5
6E6F
  8
0
 62
     0
 10
20.061951131197361
 20
21.78336554900083
 30
0.0
 11
19.94195113119736
 21
21.903365549000831
 31
0.0
  0
LINE
  5
6E70
  8
0
 62
     0
 10
20.061951131197361
 20
21.518200506055869
 30
0.0
 11
19.94195113119736
 21
21.63820050605587
 31
0.0
  0
LINE
  5
6E71
  8
0
 62
     0
 10
20.061951131197361
 20
21.253035463110919
 30
0.0
 11
19.94195113119736
 21
21.37303546311092
 31
0.0
  0
LINE
  5
6E72
  8
0
 62
     0
 10
20.061951131197361
 20
20.987870420165969
 30
0.0
 11
19.94195113119736
 21
21.107870420165959
 31
0.0
  0
LINE
  5
6E73
  8
0
 62
     0
 10
20.061951131197361
 20
20.722705377221011
 30
0.0
 11
19.94195113119736
 21
20.842705377221009
 31
0.0
  0
LINE
  5
6E74
  8
0
 62
     0
 10
20.061951131197361
 20
20.45754033427605
 30
0.0
 11
19.94195113119736
 21
20.577540334276051
 31
0.0
  0
LINE
  5
6E75
  8
0
 62
     0
 10
20.061951131197361
 20
20.1923752913311
 30
0.0
 11
19.94195113119736
 21
20.312375291331101
 31
0.0
  0
LINE
  5
6E76
  8
0
 62
     0
 10
20.061951131197361
 20
19.927210248386139
 30
0.0
 11
19.94195113119736
 21
20.04721024838614
 31
0.0
  0
LINE
  5
6E77
  8
0
 62
     0
 10
20.061951131197361
 20
19.662045205441189
 30
0.0
 11
19.94195113119736
 21
19.782045205441179
 31
0.0
  0
LINE
  5
6E78
  8
0
 62
     0
 10
20.061951131197361
 20
19.396880162496231
 30
0.0
 11
19.94195113119736
 21
19.516880162496221
 31
0.0
  0
LINE
  5
6E79
  8
0
 62
     0
 10
20.061951131197361
 20
19.131715119551281
 30
0.0
 11
19.94195113119736
 21
19.251715119551271
 31
0.0
  0
LINE
  5
6E7A
  8
0
 62
     0
 10
20.061951131197361
 20
18.86655007660632
 30
0.0
 11
19.94195113119736
 21
18.986550076606321
 31
0.0
  0
LINE
  5
6E7B
  8
0
 62
     0
 10
20.061951131197361
 20
18.601385033661359
 30
0.0
 11
19.94195113119736
 21
18.72138503366136
 31
0.0
  0
LINE
  5
6E7C
  8
0
 62
     0
 10
20.061951131197361
 20
18.336219990716408
 30
0.0
 11
19.94195113119736
 21
18.456219990716409
 31
0.0
  0
LINE
  5
6E7D
  8
0
 62
     0
 10
20.061951131197361
 20
18.071054947771451
 30
0.0
 11
19.94195113119736
 21
18.191054947771448
 31
0.0
  0
LINE
  5
6E7E
  8
0
 62
     0
 10
20.061951131197361
 20
17.8058899048265
 30
0.0
 11
19.94195113119736
 21
17.925889904826491
 31
0.0
  0
LINE
  5
6E7F
  8
0
 62
     0
 10
20.061951131197361
 20
17.54072486188155
 30
0.0
 11
19.94195113119736
 21
17.66072486188154
 31
0.0
  0
LINE
  5
6E80
  8
0
 62
     0
 10
20.061951131197361
 20
17.275559818936589
 30
0.0
 11
19.94195113119736
 21
17.39555981893659
 31
0.0
  0
LINE
  5
6E81
  8
0
 62
     0
 10
20.061951131197361
 20
17.010394775991632
 30
0.0
 11
19.941951131197371
 21
17.130394775991629
 31
0.0
  0
LINE
  5
6E82
  8
0
 62
     0
 10
20.061951131197361
 20
16.745229733046681
 30
0.0
 11
19.94195113119736
 21
16.865229733046679
 31
0.0
  0
LINE
  5
6E83
  8
0
 62
     0
 10
20.061951131197361
 20
16.48006469010172
 30
0.0
 11
19.94195113119736
 21
16.600064690101721
 31
0.0
  0
LINE
  5
6E84
  8
0
 62
     0
 10
20.061951131197361
 20
16.21489964715677
 30
0.0
 11
19.94195113119736
 21
16.33489964715676
 31
0.0
  0
LINE
  5
6E85
  8
0
 62
     0
 10
20.061951131197361
 20
15.949734604211811
 30
0.0
 11
19.94195113119736
 21
16.06973460421181
 31
0.0
  0
LINE
  5
6E86
  8
0
 62
     0
 10
19.918030264209769
 20
15.82849042825444
 30
0.0
 11
19.881951131197361
 21
15.86456956126686
 31
0.0
  0
LINE
  5
6E87
  8
0
 62
     0
 10
20.061951131197361
 20
15.68456956126686
 30
0.0
 11
19.953451131197362
 21
15.79306956126686
 31
0.0
  0
LINE
  5
6E88
  8
0
 62
     0
 10
19.902408677452939
 20
26.62749042825444
 30
0.0
 11
19.890845716525881
 21
26.639053389181509
 31
0.0
  0
LINE
  5
6E89
  8
0
 62
     0
 10
20.061951131197361
 20
26.467947974510029
 30
0.0
 11
19.953451131197369
 21
26.576447974510021
 31
0.0
  0
LINE
  5
6E8A
  8
0
 62
     0
 10
20.061951131197361
 20
26.202782931565078
 30
0.0
 11
19.94195113119736
 21
26.322782931565069
 31
0.0
  0
LINE
  5
6E8B
  8
0
 62
     0
 10
20.06195113119735
 20
25.937617888620121
 30
0.0
 11
19.94195113119736
 21
26.057617888620111
 31
0.0
  0
LINE
  5
6E8C
  8
0
 62
     0
 10
20.061951131197361
 20
25.67245284567516
 30
0.0
 11
19.94195113119736
 21
25.792452845675161
 31
0.0
  0
LINE
  5
6E8D
  8
0
 62
     0
 10
20.061951131197361
 20
25.407287802730199
 30
0.0
 11
19.94195113119736
 21
25.5272878027302
 31
0.0
  0
LINE
  5
6E8E
  8
0
 62
     0
 10
20.061951131197361
 20
25.142122759785249
 30
0.0
 11
19.94195113119736
 21
25.26212275978525
 31
0.0
  0
LINE
  5
6E8F
  8
0
 62
     0
 10
20.061951131197361
 20
24.876957716840291
 30
0.0
 11
19.94195113119736
 21
24.996957716840289
 31
0.0
  0
LINE
  5
6E90
  8
0
 62
     0
 10
20.061951131197361
 20
24.611792673895341
 30
0.0
 11
19.94195113119736
 21
24.731792673895342
 31
0.0
  0
LINE
  5
6E91
  8
0
 62
     0
 10
20.061951131197361
 20
24.34662763095039
 30
0.0
 11
19.94195113119736
 21
24.466627630950381
 31
0.0
  0
LINE
  5
6E92
  8
0
 62
     0
 10
20.061951131197361
 20
24.081462588005429
 30
0.0
 11
19.94195113119736
 21
24.20146258800542
 31
0.0
  0
LINE
  5
6E93
  8
0
 62
     0
 10
20.061951131197361
 20
23.816297545060468
 30
0.0
 11
19.94195113119736
 21
23.936297545060469
 31
0.0
  0
LINE
  5
6E94
  8
0
 62
     0
 10
20.061951131197361
 20
23.551132502115522
 30
0.0
 11
19.94195113119736
 21
23.671132502115508
 31
0.0
  0
LINE
  5
6E95
  8
0
 62
     0
 10
20.061951131197361
 20
23.285967459170571
 30
0.0
 11
19.94195113119736
 21
23.405967459170569
 31
0.0
  0
LINE
  5
6E96
  8
0
 62
     0
 10
20.061951131197361
 20
23.0208024162256
 30
0.0
 11
19.94195113119736
 21
23.140802416225601
 31
0.0
  0
LINE
  5
6E97
  8
0
 62
     0
 10
20.061951131197361
 20
22.755637373280649
 30
0.0
 11
19.94195113119736
 21
22.87563737328065
 31
0.0
  0
LINE
  5
6E98
  8
0
 62
     0
 10
20.061951131197361
 20
22.490472330335692
 30
0.0
 11
19.94195113119736
 21
22.610472330335689
 31
0.0
  0
LINE
  5
6E99
  8
0
 62
     0
 10
20.061951131197361
 20
22.225307287390741
 30
0.0
 11
19.94195113119736
 21
22.345307287390732
 31
0.0
  0
LINE
  5
6E9A
  8
0
 62
     0
 10
20.061951131197361
 20
21.96014224444578
 30
0.0
 11
19.94195113119736
 21
22.080142244445781
 31
0.0
  0
LINE
  5
6E9B
  8
0
 62
     0
 10
20.061951131197361
 20
21.69497720150083
 30
0.0
 11
19.94195113119736
 21
21.814977201500831
 31
0.0
  0
LINE
  5
6E9C
  8
0
 62
     0
 10
20.061951131197361
 20
21.429812158555869
 30
0.0
 11
19.94195113119736
 21
21.54981215855587
 31
0.0
  0
LINE
  5
6E9D
  8
0
 62
     0
 10
20.061951131197361
 20
21.164647115610911
 30
0.0
 11
19.94195113119736
 21
21.284647115610909
 31
0.0
  0
LINE
  5
6E9E
  8
0
 62
     0
 10
20.061951131197361
 20
20.899482072665961
 30
0.0
 11
19.94195113119736
 21
21.019482072665959
 31
0.0
  0
LINE
  5
6E9F
  8
0
 62
     0
 10
20.061951131197361
 20
20.634317029721
 30
0.0
 11
19.94195113119736
 21
20.754317029721008
 31
0.0
  0
LINE
  5
6EA0
  8
0
 62
     0
 10
20.061951131197361
 20
20.36915198677605
 30
0.0
 11
19.94195113119736
 21
20.489151986776051
 31
0.0
  0
LINE
  5
6EA1
  8
0
 62
     0
 10
20.061951131197361
 20
20.103986943831099
 30
0.0
 11
19.94195113119736
 21
20.2239869438311
 31
0.0
  0
LINE
  5
6EA2
  8
0
 62
     0
 10
20.061951131197361
 20
19.838821900886138
 30
0.0
 11
19.94195113119736
 21
19.958821900886139
 31
0.0
  0
LINE
  5
6EA3
  8
0
 62
     0
 10
20.061951131197361
 20
19.573656857941181
 30
0.0
 11
19.94195113119736
 21
19.693656857941178
 31
0.0
  0
LINE
  5
6EA4
  8
0
 62
     0
 10
20.061951131197361
 20
19.308491814996231
 30
0.0
 11
19.94195113119736
 21
19.428491814996221
 31
0.0
  0
LINE
  5
6EA5
  8
0
 62
     0
 10
20.061951131197361
 20
19.04332677205128
 30
0.0
 11
19.94195113119736
 21
19.163326772051271
 31
0.0
  0
LINE
  5
6EA6
  8
0
 62
     0
 10
20.061951131197361
 20
18.778161729106319
 30
0.0
 11
19.94195113119736
 21
18.89816172910632
 31
0.0
  0
LINE
  5
6EA7
  8
0
 62
     0
 10
20.061951131197361
 20
18.512996686161362
 30
0.0
 11
19.94195113119736
 21
18.632996686161359
 31
0.0
  0
LINE
  5
6EA8
  8
0
 62
     0
 10
20.061951131197361
 20
18.247831643216411
 30
0.0
 11
19.94195113119736
 21
18.367831643216409
 31
0.0
  0
LINE
  5
6EA9
  8
0
 62
     0
 10
20.061951131197361
 20
17.98266660027145
 30
0.0
 11
19.94195113119736
 21
18.102666600271451
 31
0.0
  0
LINE
  5
6EAA
  8
0
 62
     0
 10
20.061951131197361
 20
17.7175015573265
 30
0.0
 11
19.94195113119736
 21
17.83750155732649
 31
0.0
  0
LINE
  5
6EAB
  8
0
 62
     0
 10
20.061951131197361
 20
17.452336514381539
 30
0.0
 11
19.94195113119736
 21
17.57233651438154
 31
0.0
  0
LINE
  5
6EAC
  8
0
 62
     0
 10
20.061951131197361
 20
17.187171471436589
 30
0.0
 11
19.941951131197371
 21
17.307171471436579
 31
0.0
  0
LINE
  5
6EAD
  8
0
 62
     0
 10
20.061951131197361
 20
16.922006428491631
 30
0.0
 11
19.941951131197371
 21
17.042006428491629
 31
0.0
  0
LINE
  5
6EAE
  8
0
 62
     0
 10
20.061951131197361
 20
16.656841385546681
 30
0.0
 11
19.941951131197371
 21
16.776841385546671
 31
0.0
  0
LINE
  5
6EAF
  8
0
 62
     0
 10
20.061951131197361
 20
16.39167634260172
 30
0.0
 11
19.94195113119736
 21
16.511676342601721
 31
0.0
  0
LINE
  5
6EB0
  8
0
 62
     0
 10
20.061951131197361
 20
16.126511299656759
 30
0.0
 11
19.94195113119736
 21
16.24651129965676
 31
0.0
  0
LINE
  5
6EB1
  8
0
 62
     0
 10
20.061951131197361
 20
15.86134625671181
 30
0.0
 11
19.941951131197371
 21
15.981346256711801
 31
0.0
  0
LINE
  5
6EB2
  8
0
 62
     0
 10
19.989641916709768
 20
15.668490428254451
 30
0.0
 11
19.924641916709771
 21
15.73349042825444
 31
0.0
  0
ENDBLK
  5
6EB4
  8
0
  0
ENDSEC
  0
SECTION
  2
ENTITIES
  0
INSERT
  5
8D6
  8
TITLE
  2
HB
 10
0.0
 20
0.0
 30
0.0
 41
1.9999999900000001
 42
1.9999999900000001
 43
1.9999999900000001
  0
DIMENSION
  5
E47
  8
DIM
  2
*D1
 10
9.828996770160872
 20
8.5571641606961233
 30
0.0
 11
6.035496770160873
 21
8.5571641606961233
 31
0.0
 70
     0
 13
2.2419967701608741
 23
7.922163187586718
 33
0.0
 14
9.828996770160872
 24
7.8911631875867156
 34
0.0
  0
DIMENSION
  5
E55
  8
DIM
  2
*D2
 10
1.662242198632423
 20
6.5661631875867181
 30
0.0
 11
1.6622421986324221
 21
7.2441631875867181
 31
0.0
 70
     0
  1
H
 13
2.2419967701608741
 23
7.922163187586718
 33
0.0
 14
2.2419967701608741
 24
6.5661631875867172
 34
0.0
 50
90.0
  0
DIMENSION
  5
E63
  8
DIM
  2
*D3
 10
11.410360770923321
 20
6.6366631875867146
 30
0.0
 11
11.410360770923321
 21
7.2441631875867172
 31
0.0
 70
     0
  1
J EXPOSED PANEL
 13
9.7459339736628152
 23
7.8516631875867162
 33
0.0
 14
9.7459339736628152
 24
6.6366631875867164
 34
0.0
 50
90.0
  0
DIMENSION
  5
E72
  8
DIM
  2
*D4
 10
9.7459339736628152
 20
5.9583121192467337
 30
0.0
 11
6.0199967701608728
 21
5.9583121192467337
 31
0.0
 70
     0
  1
<> EXPOSED PANEL
 13
2.2940595666589298
 23
6.6366631875867164
 33
0.0
 14
9.7459339736628152
 24
6.6366631875867164
 34
0.0
  0
DIMENSION
  5
EE4
  8
DIM
  2
*D5
 10
9.9569967701608721
 20
12.403049405945341
 30
0.0
 11
6.0199967701608728
 21
12.403049405945341
 31
0.0
 70
     0
 13
2.0829967701608751
 23
11.159901602866441
 33
0.0
 14
9.9569967701608721
 24
11.159901602866441
 34
0.0
  0
DIMENSION
  5
EF3
  8
DIM
  2
*D6
 10
19.785951131197361
 20
23.03449042825445
 30
0.0
 11
19.27445113119736
 21
23.03449042825445
 31
0.0
 70
     0
  1
E
 13
18.762951131197362
 23
22.164490428254449
 33
0.0
 14
19.785951131197361
 24
22.164490428254449
 34
0.0
  0
DIMENSION
  5
F01
  8
DIM
  2
*D7
 10
18.60695113119737
 20
17.57607930441657
 30
0.0
 11
19.27445113119736
 21
17.57607930441657
 31
0.0
 70
     0
  1
D
 13
19.94195113119736
 23
17.432079304416568
 33
0.0
 14
18.60695113119737
 24
17.432079304416568
 34
0.0
  0
DIMENSION
  5
F23
  8
DIM
  2
*D8
 10
20.061951131197361
 20
19.681155820227168
 30
0.0
 11
19.682451131197361
 21
19.681155820227168
 31
0.0
 70
     0
  1
F
 13
19.302951131197361
 23
20.244490428254451
 33
0.0
 14
20.061951131197361
 24
20.245490428254438
 34
0.0
  0
DIMENSION
  5
F3B
  8
DIM
  2
*D9
 10
18.486951131197351
 20
20.958959195127981
 30
0.0
 11
18.866451131197358
 21
20.958959195127981
 31
0.0
 70
     0
  1
G
 13
19.245951131197359
 23
20.462490428254451
 33
0.0
 14
18.486951131197351
 24
20.462490428254451
 34
0.0
  0
DIMENSION
  5
F53
  8
DIM
  2
*D10
 10
18.486951131197351
 20
18.196164666876339
 30
0.0
 11
16.868201131197349
 21
18.196164666876339
 31
0.0
 70
     0
  1
<> TYP.
 13
18.60695113119737
 23
18.05216466687634
 33
0.0
 14
18.486951131197351
 24
18.05216466687633
 34
0.0
  0
DIMENSION
  5
F75
  8
DIM
  2
*D11
 10
18.606951131197359
 20
22.476490428254451
 30
0.0
 11
16.972576131197361
 21
22.476490428254451
 31
0.0
 70
     0
  1
<> TYP.
 13
18.762951131197362
 23
22.164490428254449
 33
0.0
 14
18.606951131197359
 24
22.164490428254449
 34
0.0
  0
DIMENSION
  5
F84
  8
DIM
  2
*D12
 10
2.9889967701608731
 20
27.452990428254449
 30
0.0
 11
6.0199967701608719
 21
27.452990428254449
 31
0.0
 70
     0
 13
9.0509967701608716
 23
25.55449042825445
 33
0.0
 14
2.9889967701608731
 24
25.55449042825445
 34
0.0
  0
DIMENSION
  5
F92
  8
DIM
  2
*D13
 10
2.0829967701608751
 20
27.452990428254449
 30
0.0
 11
2.5359967701608741
 21
27.452990428254449
 31
0.0
 70
   128
 13
2.9889967701608731
 23
25.55449042825445
 33
0.0
 14
2.0829967701608751
 24
26.692490428254452
 34
0.0
  0
DIMENSION
  5
1008
  8
DIM
  2
*D14
 10
10.73836188253143
 20
15.668490428254451
 30
0.0
 11
10.73836188253143
 21
15.914490428254449
 31
0.0
 70
   128
 13
9.464996770160873
 23
16.160490428254441
 33
0.0
 14
9.9569967701608721
 24
15.668490428254451
 34
0.0
 50
90.0
  0
DIMENSION
  5
1016
  8
DIM
  2
*D15
 10
2.2579967701607511
 20
17.652490428254449
 30
0.0
 11
6.0199967701607608
 21
17.652490428254449
 31
0.0
 70
     0
 13
9.7819967701607702
 23
17.154490428254451
 33
0.0
 14
2.2579967701607511
 24
17.154490428254451
 34
0.0
  0
DIMENSION
  5
1024
  8
DIM
  2
*D16
 10
2.7559967701608752
 20
18.641078205029
 30
0.0
 11
4.0459967701608717
 21
19.459078205028991
 31
0.0
 70
   128
  1
<> TYP.
 13
2.257996770160875
 23
18.739078205028999
 33
0.0
 14
2.257996770160875
 24
18.641078205029
 34
0.0
 50
270.0
  0
DIMENSION
  5
1033
  8
DIM
  2
*D17
 10
9.8369967701608783
 20
18.20180434672962
 30
0.0
 11
8.1319967701608782
 21
18.20180434672962
 31
0.0
 70
   128
  1
<> TYP.
 13
9.7819967701608785
 23
18.590490428254451
 33
0.0
 14
9.8369967701608783
 24
18.590490428254451
 34
0.0
  0
DIMENSION
  5
1041
  8
DIM
  2
*D18
 10
9.8369967701608783
 20
19.387940888901721
 30
0.0
 11
8.2182467701608761
 21
19.387940888901721
 31
0.0
 70
     0
  1
<> TYP.
 13
9.9569967701608757
 23
19.513940888901718
 33
0.0
 14
9.8369967701608783
 24
19.513940888901718
 34
0.0
  0
DIMENSION
  5
1050
  8
DIM
  2
*D19
 10
9.9569967701608721
 20
14.66099248040746
 30
0.0
 11
11.216371770160871
 21
14.66099248040746
 31
0.0
 70
     0
 13
9.464996770160873
 23
16.160490428254441
 33
0.0
 14
9.9569967701608721
 24
15.668490428254451
 34
0.0
 50
180.0
  0
DIMENSION
  5
1138
  8
DIM
  2
*D20
 10
13.64324483795072
 20
15.668490428254451
 30
0.0
 11
13.64324483795072
 21
21.180490428254451
 31
0.0
 70
     0
 13
14.29935475120411
 23
26.692490428254441
 33
0.0
 14
14.29935475120411
 24
15.668490428254451
 34
0.0
 50
90.0
  0
DIMENSION
  5
1147
  8
DIM
  2
*D21
 10
5.0994349832309762
 20
26.48749042825445
 30
0.0
 11
5.09943498323097
 21
20.95174042825445
 31
0.0
 70
   128
 13
5.2254349832309748
 23
15.873490428254449
 33
0.0
 14
5.2254349832309748
 24
26.48749042825445
 34
0.0
 50
90.0
  0
DIMENSION
  5
120A
  8
DIM
  2
*D22
 10
9.8369967701608783
 20
21.601985840295679
 30
0.0
 11
6.0199967701608781
 21
21.601985840295679
 31
0.0
 70
     0
 13
2.2029967701608788
 23
21.727985840295691
 33
0.0
 14
9.8369967701608783
 24
21.727985840295691
 34
0.0
  0
DIMENSION
  5
1278
  8
DIM
  2
*D23
 10
14.29935475120411
 20
27.748490428254438
 30
0.0
 11
14.68335475120411
 21
27.748490428254438
 31
0.0
 70
     0
  1
C
 13
15.0673547512041
 23
26.692490428254441
 33
0.0
 14
14.29935475120411
 24
26.692490428254441
 34
0.0
  0
DIMENSION
  5
1286
  8
DIM
  2
*D24
 10
15.8743547512041
 20
28.306490428254438
 30
0.0
 11
15.086854751204109
 21
28.306490428254438
 31
0.0
 70
     0
  1
A
 13
14.29935475120411
 23
26.692490428254441
 33
0.0
 14
15.8743547512041
 24
26.692490428254441
 34
0.0
  0
DIMENSION
  5
1294
  8
DIM
  2
*D25
 10
15.8743547512041
 20
27.190490428254439
 30
0.0
 11
15.49035475120411
 21
27.190490428254439
 31
0.0
 70
     0
  1
B
 13
15.106354751204121
 23
26.692490428254441
 33
0.0
 14
15.8743547512041
 24
26.692490428254441
 34
0.0
  0
LINE
  5
130C
  8
TITLE
 10
0.1239999993799952
 20
0.5406666639633356
 30
0.0
 11
21.075999894620001
 21
0.5406666639633356
 31
0.0
  0
LINE
  5
130D
  8
TITLE
 10
0.1239999993799952
 20
1.3739999931300011
 30
0.0
 11
21.075999894620001
 21
1.3739999931300011
 31
0.0
  0
LINE
  5
130E
  8
TITLE
 10
0.1239999993799952
 20
0.9573333285466688
 30
0.0
 11
21.075999894620001
 21
0.9573333285466688
 31
0.0
  0
LINE
  5
1310
  8
TITLE
 10
0.1239999993799954
 20
2.2073333222966678
 30
0.0
 11
21.075999894620001
 21
2.2073333222966678
 31
0.0
  0
TEXT
  5
149D
  8
TEXT
 10
4.011496775182124
 20
7.3374635988761021
 30
0.0
 40
0.31199999922
  1
PANEL - 0.090 THICK
 41
0.75
 72
     4
 11
6.0199967701608736
 21
7.4934635984861009
 31
0.0
  0
POLYLINE
  8
0
  5
6EBF
  66
     1
 10
0.000000
 20
0.000000
 30
0.000000
  70
     8
  0
VERTEX
  8
0
  5
6EC0
 10
3.05414
 20
16.7204
 30
0.000000
  70
    32
  0
VERTEX
  8
0
  5
6EC1
 10
4.38876
 20
14.1563
 30
0.000000
  70
    32
  0
VERTEX
  8
0
  5
6EC2
 10
4.74876
 20
14.1563
 30
0.000000
  70
    32
  0
SEQEND
  8
0
  5
6EC3
  0
INSERT
  5
14A1
  8
OBJECT
  2
*U39
 10
0.0
 20
0.0
 30
0.0
  0
TEXT
  5
14A6
  8
TEXT
 10
6.5566725326755941
 20
26.914375316176219
 30
0.0
 40
0.31199999922
  1
A
  7
SANSSERIF
 72
     4
 11
6.6994050426068279
 21
27.070375315786219
 31
0.0
  0
TEXT
  5
14AE
  8
TEXT
 10
6.5566725326755941
 20
15.134605541112681
 30
0.0
 40
0.31199999922
  1
A
  7
SANSSERIF
 72
     4
 11
6.6994050426068279
 21
15.29060554072268
 31
0.0
  0
POLYLINE
  8
0
  5
6EC4
  66
     1
 10
0.000000
 20
0.000000
 30
0.000000
  70
     8
  0
VERTEX
  8
0
  5
6EC5
 10
9.51607
 20
26.3394
 30
0.000000
  70
    32
  0
VERTEX
  8
0
  5
6EC6
 10
10.0712
 20
28.5820
 30
0.000000
  70
    32
  0
VERTEX
  8
0
  5
6EC7
 10
10.4312
 20
28.5820
 30
0.000000
  70
    32
  0
SEQEND
  8
0
  5
6EC8
  0
INSERT
  5
14ED
  8
OBJECT
  2
*U40
 10
0.0
 20
0.0
 30
0.0
  0
TEXT
  5
14EF
  8
TEXT
 10
17.709202781281739
 20
15.031162180155899
 30
0.0
 40
0.312
  1
%%uSECTION "A-A"
  7
SANSSERIF
 72
     4
 11
19.228544345067739
 21
15.18480827069088
 31
0.0
  0
TEXT
  5
156B
  8
TEXT
 10
5.0199999749000037
 20
30.621999846889999
 30
0.0
 40
0.3119999984400001
  1
PLASTICASE
 41
0.75
 72
     4
 11
6.1119999694400038
 21
30.777999846109999
 31
0.0
  0
TEXT
  5
156C
  8
TEXT
 10
13.646999931765
 20
30.647999846760001
 30
0.0
 40
0.3119999984400001
  1
PC-11469, PC-11470 & PC-11471
 41
0.75
 72
     4
 11
16.649999916750001
 21
30.777999846109999
 31
0.0
  0
LINE
  5
1570
  8
TITLE
 10
2.2299999888499951
 20
2.2073333222966678
 30
0.0
 11
2.2299999888499928
 21
0.1239999993800019
 31
0.0
  0
LINE
  5
1571
  8
TITLE
 10
4.3239999783799954
 20
2.2073333222966678
 30
0.0
 11
4.3239999783799918
 21
0.1239999993800019
 31
0.0
  0
LINE
  5
1572
  8
TITLE
 10
6.4179999679099939
 20
2.2073333222966678
 30
0.0
 11
6.4179999679099931
 21
0.1239999993800019
 31
0.0
  0
LINE
  5
1573
  8
TITLE
 10
8.5119999574399952
 20
2.2073333222966678
 30
0.0
 11
8.5119999574399952
 21
0.1239999993800019
 31
0.0
  0
LINE
  5
1574
  8
TITLE
 10
10.605999946969989
 20
2.2073333222966678
 30
0.0
 11
10.605999946969989
 21
0.1239999993800019
 31
0.0
  0
LINE
  5
1575
  8
TITLE
 10
12.69999993649999
 20
2.2073333222966678
 30
0.0
 11
12.69999993649999
 21
0.1239999993800019
 31
0.0
  0
LINE
  5
1576
  8
TITLE
 10
14.79399992602999
 20
2.2073333222966678
 30
0.0
 11
14.79399992602999
 21
0.1239999993800019
 31
0.0
  0
LINE
  5
1577
  8
TITLE
 10
16.887999915559991
 20
2.2073333222966678
 30
0.0
 11
16.887999915559991
 21
0.1239999993800019
 31
0.0
  0
LINE
  5
1578
  8
TITLE
 10
18.981999905089989
 20
2.2073333222966678
 30
0.0
 11
18.981999905089989
 21
0.1239999993800019
 31
0.0
  0
TEXT
  5
157D
  8
TEXT
 10
0.5207499973962451
 20
1.665666658338335
 30
0.0
 40
0.24999999875
  1
PART NO.
 41
0.75
 72
     4
 11
1.1769999941149949
 21
1.790666657713335
 31
0.0
  0
TEXT
  5
157E
  8
TEXT
 10
3.2144999839274941
 20
1.665666658338335
 30
0.0
 40
0.24999999875
  1
A
 41
0.75
 72
     4
 11
3.2769999836149939
 21
1.790666657713335
 31
0.0
  0
TEXT
  5
1581
  8
TEXT
 10
0.5207499973962451
 20
1.0406666614633351
 30
0.0
 40
0.24999999875
  1
PC-11469
 41
0.75
 72
     4
 11
1.1769999941149949
 21
1.165666660838335
 31
0.0
  0
TEXT
  5
1582
  8
TEXT
 10
2.9332499853337439
 20
1.0406666614633351
 30
0.0
 40
0.24999999875
  1
1.575
 41
0.75
 72
     4
 11
3.2769999836149939
 21
1.165666660838335
 31
0.0
  0
TEXT
  5
1583
  8
TEXT
 10
0.5416249999999976
 20
0.5828333333333343
 30
0.0
 40
0.125
  1
 
 41
0.75
 72
     4
 11
0.5884999999999976
 21
0.5828333333333343
 31
0.0
  0
TEXT
  5
1584
  8
TEXT
 10
0.5363749973181202
 20
0.6239999968800022
 30
0.0
 40
0.24999999875
  1
PC-11470
 41
0.75
 72
     4
 11
1.1769999941149949
 21
0.7489999962550021
 31
0.0
  0
TEXT
  5
1585
  8
TEXT
 10
0.5519999972399954
 20
0.2073333322966688
 30
0.0
 40
0.24999999875
  1
PC-11471
 41
0.75
 72
     4
 11
1.1769999941149949
 21
0.3323333316716687
 31
0.0
  0
TEXT
  5
1587
  8
TEXT
 10
1.6031887038098629
 20
0.5871066726435004
 30
0.0
 40
0.125
  1
 
 41
0.75
 72
     4
 11
1.6500637038098629
 21
0.5871066726435004
 31
0.0
  0
TEXT
  5
1588
  8
TEXT
 10
2.9251273929940891
 20
0.6325466754576007
 30
0.0
 40
0.24999999875
  1
2.362
 41
0.75
 72
     4
 11
3.3001273911190889
 21
0.7575466748326009
 31
0.0
  0
TEXT
  5
1589
  8
TEXT
 10
2.956377392837839
 20
0.2158800108742675
 30
0.0
 40
0.24999999875
  1
3.149
 41
0.75
 72
     4
 11
3.3001273911190889
 21
0.3408800102492675
 31
0.0
  0
TEXT
  5
158B
  8
TEXT
 10
5.011624974941868
 20
1.0406666614633351
 30
0.0
 40
0.24999999875
  1
0.768
 41
0.75
 72
     4
 11
5.3709999731449942
 21
1.165666660838335
 31
0.0
  0
TEXT
  5
158C
  8
TEXT
 10
5.3084999734574936
 20
1.665666658338335
 30
0.0
 40
0.24999999875
  1
B
 41
0.75
 72
     4
 11
5.3709999731449942
 21
1.790666657713335
 31
0.0
  0
TEXT
  5
158D
  8
TEXT
 10
7.1056249644718692
 20
1.0406666614633351
 30
0.0
 40
0.24999999875
  1
0.768
 41
0.75
 72
     4
 11
7.4649999626749937
 21
1.165666660838335
 31
0.0
  0
TEXT
  5
158E
  8
TEXT
 10
7.4024999629874939
 20
1.665666658338335
 30
0.0
 40
0.24999999875
  1
C
 41
0.75
 72
     4
 11
7.4649999626749937
 21
1.790666657713335
 31
0.0
  0
TEXT
  5
158F
  8
TEXT
 10
9.2152499539237454
 20
1.0406666614633351
 30
0.0
 40
0.24999999875
  1
1.335
 41
0.75
 72
     4
 11
9.5589999522049958
 21
1.165666660838335
 31
0.0
  0
TEXT
  5
1590
  8
TEXT
 10
9.496499952517496
 20
1.665666658338335
 30
0.0
 40
0.24999999875
  1
D
 41
0.75
 72
     4
 11
9.5589999522049958
 21
1.790666657713335
 31
0.0
  0
TEXT
  5
1591
  8
TEXT
 10
11.324874943375621
 20
1.0406666614633351
 30
0.0
 40
0.24999999875
  1
1.023
 41
0.75
 72
     4
 11
11.65299994173499
 21
1.165666660838335
 31
0.0
  0
TEXT
  5
1592
  8
TEXT
 10
11.59049994204749
 20
1.665666658338335
 30
0.0
 40
0.24999999875
  1
E
 41
0.75
 72
     4
 11
11.65299994173499
 21
1.790666657713335
 31
0.0
  0
TEXT
  5
1593
  8
TEXT
 10
13.38762493306187
 20
1.0406666614633351
 30
0.0
 40
0.24999999875
  1
0.759
 41
0.75
 72
     4
 11
13.746999931264989
 21
1.165666660838335
 31
0.0
  0
TEXT
  5
1594
  8
TEXT
 10
13.68449993157749
 20
1.665666658338335
 30
0.0
 40
0.24999999875
  1
F
 41
0.75
 72
     4
 11
13.746999931264989
 21
1.790666657713335
 31
0.0
  0
TEXT
  5
1595
  8
TEXT
 10
15.48162492259187
 20
1.0406666614633351
 30
0.0
 40
0.24999999875
  1
0.759
 41
0.75
 72
     4
 11
15.840999920794991
 21
1.165666660838335
 31
0.0
  0
TEXT
  5
1596
  8
TEXT
 10
15.778499921107491
 20
1.665666658338335
 30
0.0
 40
0.24999999875
  1
G
 41
0.75
 72
     4
 11
15.840999920794991
 21
1.790666657713335
 31
0.0
  0
TEXT
  5
1597
  8
TEXT
 10
17.59124991204374
 20
1.0406666614633351
 30
0.0
 40
0.24999999875
  1
1.356
 41
0.75
 72
     4
 11
17.93499991032499
 21
1.165666660838335
 31
0.0
  0
TEXT
  5
1598
  8
TEXT
 10
17.87249991063749
 20
1.665666658338335
 30
0.0
 40
0.24999999875
  1
H
 41
0.75
 72
     4
 11
17.93499991032499
 21
1.790666657713335
 31
0.0
  0
TEXT
  5
1599
  8
TEXT
 10
19.7164999014175
 20
1.0406666614633351
 30
0.0
 40
0.24999999875
  1
1.215
 41
0.75
 72
     4
 11
20.028999899854998
 21
1.165666660838335
 31
0.0
  0
TEXT
  5
159A
  8
TEXT
 10
19.966499900167499
 20
1.665666658338335
 30
0.0
 40
0.24999999875
  1
J
 41
0.75
 72
     4
 11
20.028999899854998
 21
1.790666657713335
 31
0.0
  0
TEXT
  5
15AB
  8
TEXT
 10
5.011624974941868
 20
0.6239999968800023
 30
0.0
 40
0.24999999875
  1
0.768
 41
0.75
 72
     4
 11
5.3709999731449942
 21
0.7489999962550024
 31
0.0
  0
TEXT
  5
15AC
  8
TEXT
 10
13.38762493306187
 20
0.6239999968800023
 30
0.0
 40
0.24999999875
  1
0.759
 41
0.75
 72
     4
 11
13.746999931264989
 21
0.7489999962550024
 31
0.0
  0
TEXT
  5
15AD
  8
TEXT
 10
2.6386249999999958
 20
0.3745000000000011
 30
0.0
 40
0.125
  1
 
 41
0.75
 72
     4
 11
2.6854999999999958
 21
0.3745000000000011
 31
0.0
  0
TEXT
  5
15AE
  8
TEXT
 10
5.0272499748637429
 20
0.2073333322966689
 30
0.0
 40
0.24999999875
  1
1.555
 41
0.75
 72
     4
 11
5.3709999731449942
 21
0.3323333316716688
 31
0.0
  0
TEXT
  5
15AF
  8
TEXT
 10
3.6856249999999959
 20
0.5828333333333343
 30
0.0
 40
0.125
  1
 
 41
0.75
 72
     4
 11
3.7324999999999959
 21
0.5828333333333343
 31
0.0
  0
TEXT
  5
15B0
  8
TEXT
 10
7.1212499643937441
 20
0.6239999968800022
 30
0.0
 40
0.24999999875
  1
1.555
 41
0.75
 72
     4
 11
7.4649999626749937
 21
0.7489999962550021
 31
0.0
  0
TEXT
  5
15B1
  8
TEXT
 10
7.1212499643937441
 20
0.2073333322966688
 30
0.0
 40
0.24999999875
  1
1.555
 41
0.75
 72
     4
 11
7.4649999626749937
 21
0.3323333316716687
 31
0.0
  0
TEXT
  5
15B2
  8
TEXT
 10
4.7326249999999961
 20
0.5828333333333343
 30
0.0
 40
0.125
  1
 
 41
0.75
 72
     4
 11
4.7794999999999961
 21
0.5828333333333343
 31
0.0
  0
TEXT
  5
15B3
  8
TEXT
 10
9.2152499539237454
 20
0.6239999968800022
 30
0.0
 40
0.24999999875
  1
2.122
 41
0.75
 72
     4
 11
9.5589999522049958
 21
0.7489999962550021
 31
0.0
  0
TEXT
  5
15B4
  8
TEXT
 10
9.1996249540018713
 20
0.2073333322966687
 30
0.0
 40
0.24999999875
  1
2.909
 41
0.75
 72
     4
 11
9.5589999522049958
 21
0.3323333316716687
 31
0.0
  0
TEXT
  5
15B5
  8
TEXT
 10
5.7796249999999958
 20
0.5828333333333343
 30
0.0
 40
0.125
  1
 
 41
0.75
 72
     4
 11
5.8264999999999958
 21
0.5828333333333343
 31
0.0
  0
TEXT
  5
15B6
  8
TEXT
 10
11.35612494321937
 20
0.6239999968800022
 30
0.0
 40
0.24999999875
  1
1.810
 41
0.75
 72
     4
 11
11.65299994173499
 21
0.7489999962550021
 31
0.0
  0
TEXT
  5
15B7
  8
TEXT
 10
11.27799994360999
 20
0.2073333322966687
 30
0.0
 40
0.24999999875
  1
2.597
 41
0.75
 72
     4
 11
11.65299994173499
 21
0.3323333316716687
 31
0.0
  0
TEXT
  5
15B8
  8
TEXT
 10
6.8266249999999964
 20
0.3745000000000011
 30
0.0
 40
0.125
  1
 
 41
0.75
 72
     4
 11
6.8734999999999964
 21
0.3745000000000011
 31
0.0
  0
TEXT
  5
15B9
  8
TEXT
 10
13.403249932983741
 20
0.2073333322966689
 30
0.0
 40
0.24999999875
  1
1.546
 41
0.75
 72
     4
 11
13.746999931264989
 21
0.3323333316716688
 31
0.0
  0
TEXT
  5
15BB
  8
TEXT
 10
7.8736249999999961
 20
0.5828333333333343
 30
0.0
 40
0.125
  1
 
 41
0.75
 72
     4
 11
7.9204999999999961
 21
0.5828333333333343
 31
0.0
  0
TEXT
  5
15BC
  8
TEXT
 10
15.49724992251374
 20
0.6239999968800022
 30
0.0
 40
0.24999999875
  1
1.546
 41
0.75
 72
     4
 11
15.840999920794991
 21
0.7489999962550021
 31
0.0
  0
TEXT
  5
15BD
  8
TEXT
 10
15.49724992251374
 20
0.2073333322966688
 30
0.0
 40
0.24999999875
  1
1.546
 41
0.75
 72
     4
 11
15.840999920794991
 21
0.3323333316716687
 31
0.0
  0
TEXT
  5
15BE
  8
TEXT
 10
8.9206249999999976
 20
0.5828333333333343
 30
0.0
 40
0.125
  1
 
 41
0.75
 72
     4
 11
8.9674999999999976
 21
0.5828333333333343
 31
0.0
  0
TEXT
  5
15BF
  8
TEXT
 10
17.59124991204374
 20
0.6239999968800022
 30
0.0
 40
0.24999999875
  1
2.143
 41
0.75
 72
     4
 11
17.93499991032499
 21
0.7489999962550021
 31
0.0
  0
TEXT
  5
15C0
  8
TEXT
 10
17.575624912121871
 20
0.2073333322966687
 30
0.0
 40
0.24999999875
  1
2.930
 41
0.75
 72
     4
 11
17.93499991032499
 21
0.3323333316716687
 31
0.0
  0
TEXT
  5
15C1
  8
TEXT
 10
9.9676249999999964
 20
0.5828333333333343
 30
0.0
 40
0.125
  1
 
 41
0.75
 72
     4
 11
10.014499999999989
 21
0.5828333333333343
 31
0.0
  0
TEXT
  5
15C2
  8
TEXT
 10
19.685249901573741
 20
0.6239999968800021
 30
0.0
 40
0.24999999875
  1
2.002
 41
0.75
 72
     4
 11
20.028999899854998
 21
0.7489999962550021
 31
0.0
  0
TEXT
  5
15C3
  8
TEXT
 10
19.65399990173
 20
0.2073333322966687
 30
0.0
 40
0.24999999875
  1
2.789
 41
0.75
 72
     4
 11
20.028999899854998
 21
0.3323333316716687
 31
0.0
  0
TEXT
  5
15C5
  8
TEXT
 10
12.97865771316601
 20
11.75314374645137
 30
0.0
 40
0.24999999875
  1
MATERIAL: ABS THERMOPLASTIC (UL 94-HB RATED)
 41
0.75
  0
TEXT
  5
15C6
  8
TEXT
 10
6.1476215661518401
 20
5.987191056242084
 30
0.0
 40
0.125
  1
 
 41
0.75
  0
TEXT
  5
15C7
  8
TEXT
 10
12.97865771316601
 20
10.919810417284699
 30
0.0
 40
0.24999999875
  1
FINISH: TOP & BOTTOM
 41
0.75
  0
TEXT
  5
15C8
  8
TEXT
 10
14.27224179446466
 20
10.503143752701369
 30
0.0
 40
0.24999999875
  1
PANELS
 41
0.75
  0
TEXT
  5
15C9
  8
TEXT
 10
17.906597178783091
 20
10.919810417284699
 30
0.0
 40
0.24999999875
  1
LIGHT GRAY
 41
0.75
  0
TEXT
  5
15CA
  8
TEXT
 10
17.906597178783091
 20
10.503143752701369
 30
0.0
 40
0.24999999875
  1
DARK GRAY
 41
0.75
  0
LINE
  5
15CB
  8
TEXT
 10
17.737199279299752
 20
10.919810417284699
 30
0.0
 11
16.54555518463679
 21
10.919810417284699
 31
0.0
  0
LINE
  5
15CD
  8
TEXT
 10
17.737199279299752
 20
10.503143752701369
 30
0.0
 11
15.49836796291566
 21
10.503143752701369
 31
0.0
  0
TEXT
  5
15D5
  8
TEXT
 10
6.1476215661518401
 20
5.778857722908751
 30
0.0
 40
0.125
  1
 
 41
0.75
  0
TEXT
  5
15D6
  8
TEXT
 10
6.1476215661518401
 20
5.570524389575418
 30
0.0
 40
0.125
  1
 
 41
0.75
  0
TEXT
  5
15D7
  8
TEXT
 10
6.1476215661518401
 20
5.3621910562420849
 30
0.0
 40
0.125
  1
 
 41
0.75
  0
TEXT
  5
15D8
  8
TEXT
 10
12.97865771316601
 20
9.6698104235347078
 30
0.0
 40
0.24999999875
  1
FOR PC-11469 & PC-11470
 41
0.75
  0
TEXT
  5
15D9
  8
TEXT
 10
13.267348428499201
 20
9.2531437589513743
 30
0.0
 40
0.24999999875
  1
FOUR (4) M3 x 1.087 LG SCREWS SUPPLIED
 41
0.75
  0
TEXT
  5
15DA
  8
TEXT
 10
13.267348428499201
 20
8.8364770943680426
 30
0.0
 40
0.24999999875
  1
FOR ASSEMBLING BOTTOM TO TOP.
 41
0.75
  0
TEXT
  5
15DC
  8
TEXT
 10
13.267348428499201
 20
7.5864771006180423
 30
0.0
 40
0.24999999875
  1
FOUR (4) M3 x 1.887 LG SCREWS SUPPLIED
 41
0.75
  0
TEXT
  5
15DD
  8
TEXT
 10
13.267348428499201
 20
7.1698104360347079
 30
0.0
 40
0.24999999875
  1
FOR ASSEMBLING BOTTOM TO TOP.
 41
0.75
  0
TEXT
  5
15DE
  8
TEXT
 10
12.97865771316601
 20
8.0031437652013757
 30
0.0
 40
0.24999999875
  1
FOR PC-11471
 41
0.75
  0
TEXT
  5
15DF
  8
TEXT
 10
2.801451972156888
 20
3.0763348760015718
 30
0.0
 40
0.156
  1
 
 41
0.75
 72
     4
 11
2.859951972156888
 21
3.0763348760015718
 31
0.0
  0
TEXT
  5
15E0
  8
TEXT
 10
3.6019967762058749
 20
6.8388627770773356
 30
0.0
 40
0.31199999922
  1
(TEXTURED ON ONE SIDE)
 41
0.75
 72
     4
 11
6.0199967701608736
 21
6.9948627766873361
 31
0.0
  0
TEXT
  5
15E2
  8
TEXT
 10
6.1476215661518401
 20
3.9038577229087541
 30
0.0
 40
0.125
  1
 
 41
0.75
  0
TEXT
  5
15E3
  8
TEXT
 10
6.1476215661518401
 20
3.6955243895754211
 30
0.0
 40
0.125
  1
 
 41
0.75
  0
TEXT
  5
15E4
  8
TEXT
 10
12.97865771316601
 20
6.336477106868041
 30
0.0
 40
0.24999999875
  1
FOUR (4) RUBBER STICK-ON FEET SUPPLIED.
 41
0.75
  0
TEXT
  5
15E5
  8
TEXT
 10
6.1476215661518401
 20
3.2788577229087541
 30
0.0
 40
0.125
  1
 
 41
0.75
  0
TEXT
  5
15E6
  8
TEXT
 10
12.97865771316601
 20
5.5031437777013776
 30
0.0
 40
0.24999999875
  1
MOUNTING BOSSES USE EITHER M2.5 METRIC
 41
0.75
  0
TEXT
  5
15E7
  8
TEXT
 10
13.267348428499201
 20
5.0864771131180424
 30
0.0
 40
0.24999999875
  1
OR #4 STD. SHEET METAL SCREWS x 3/16 LG.
 41
0.75
  0
TEXT
  5
15E8
  8
TEXT
 10
13.267348428499201
 20
4.6698104485347081
 30
0.0
 40
0.24999999875
  1
(NOT SUPPLIED)
 41
0.75
  0
TEXT
  5
15E9
  8
TEXT
 10
6.1476215661518401
 20
2.4455243895754202
 30
0.0
 40
0.125
  1
 
 41
0.75
  0
TEXT
  5
15EA
  8
TEXT
 10
12.97865771316601
 20
3.836477119368038
 30
0.0
 40
0.24999999875
  1
NOTE: ALL DIMENSIONS HAVE %%p0.015 TOLERANCE
 41
0.75
  0
TEXT
  5
15EB
  8
TEXT
 10
13.97797154255149
 20
3.4198104547847081
 30
0.0
 40
0.24999999875
  1
UNLESS OTHERWISE SPECIFIED.
 41
0.75
  0
LINE
  5
1715
  8
CENTER
 10
9.6619967701608847
 20
18.69949042825445
 30
0.0
 11
10.07699677016088
 21
18.69949042825445
 31
0.0
  0
DIMENSION
  5
1718
  8
DIM
  2
*D26
 10
12.914806602530289
 20
15.66849042825444
 30
0.0
 11
12.914806602530289
 21
18.424490428254451
 31
0.0
 70
     0
 13
6.1099967701608762
 23
21.180490428254451
 33
0.0
 14
9.9569967701608757
 24
15.668490428254451
 34
0.0
 50
90.0
  0
DIMENSION
  5
1752
  8
DIM
  2
*D27
 10
11.394291225472131
 20
20.35349042825445
 30
0.0
 11
11.39429122547212
 21
20.766990428254449
 31
0.0
 70
     0
 13
6.1099967701608762
 23
21.180490428254451
 33
0.0
 14
10.07699677016088
 24
20.35349042825445
 34
0.0
 50
90.0
  0
POLYLINE
  8
0
  5
6EC9
  66
     1
 10
0.000000
 20
0.000000
 30
0.000000
  70
     8
  0
VERTEX
  8
0
  5
6ECA
 10
2.08300
 20
22.5962
 30
0.000000
  70
    32
  0
VERTEX
  8
0
  5
6ECB
 10
2.08321
 20
22.5961
 30
0.000000
  70
    32
  0
VERTEX
  8
0
  5
6ECC
 10
2.08383
 20
22.5961
 30
0.000000
  70
    32
  0
VERTEX
  8
0
  5
6ECD
 10
2.08486
 20
22.5959
 30
0.000000
  70
    32
  0
VERTEX
  8
0
  5
6ECE
 10
2.08629
 20
22.5958
 30
0.000000
  70
    32
  0
VERTEX
  8
0
  5
6ECF
 10
2.08811
 20
22.5955
 30
0.000000
  70
    32
  0
VERTEX
  8
0
  5
6ED0
 10
2.09032
 20
22.5953
 30
0.000000
  70
    32
  0
VERTEX
  8
0
  5
6ED1
 10
2.09291
 20
22.5950
 30
0.000000
  70
    32
  0
VERTEX
  8
0
  5
6ED2
 10
2.09587
 20
22.5946
 30
0.000000
  70
    32
  0
VERTEX
  8
0
  5
6ED3
 10
2.09919
 20
22.5943
 30
0.000000
  70
    32
  0
VERTEX
  8
0
  5
6ED4
 10
2.10288
 20
22.5939
 30
0.000000
  70
    32
  0
VERTEX
  8
0
  5
6ED5
 10
2.10692
 20
22.5935
 30
0.000000
  70
    32
  0
VERTEX
  8
0
  5
6ED6
 10
2.11131
 20
22.5930
 30
0.000000
  70
    32
  0
VERTEX
  8
0
  5
6ED7
 10
2.11603
 20
22.5925
 30
0.000000
  70
    32
  0
VERTEX
  8
0
  5
6ED8
 10
2.12109
 20
22.5921
 30
0.000000
  70
    32
  0
VERTEX
  8
0
  5
6ED9
 10
2.12647
 20
22.5916
 30
0.000000
  70
    32
  0
VERTEX
  8
0
  5
6EDA
 10
2.13217
 20
22.5910
 30
0.000000
  70
    32
  0
VERTEX
  8
0
  5
6EDB
 10
2.13818
 20
22.5905
 30
0.000000
  70
    32
  0
VERTEX
  8
0
  5
6EDC
 10
2.14450
 20
22.5900
 30
0.000000
  70
    32
  0
VERTEX
  8
0
  5
6EDD
 10
2.15112
 20
22.5894
 30
0.000000
  70
    32
  0
VERTEX
  8
0
  5
6EDE
 10
2.15803
 20
22.5889
 30
0.000000
  70
    32
  0
VERTEX
  8
0
  5
6EDF
 10
2.16522
 20
22.5884
 30
0.000000
  70
    32
  0
VERTEX
  8
0
  5
6EE0
 10
2.17269
 20
22.5878
 30
0.000000
  70
    32
  0
VERTEX
  8
0
  5
6EE1
 10
2.18044
 20
22.5873
 30
0.000000
  70
    32
  0
VERTEX
  8
0
  5
6EE2
 10
2.18844
 20
22.5868
 30
0.000000
  70
    32
  0
VERTEX
  8
0
  5
6EE3
 10
2.19671
 20
22.5863
 30
0.000000
  70
    32
  0
VERTEX
  8
0
  5
6EE4
 10
2.20523
 20
22.5858
 30
0.000000
  70
    32
  0
VERTEX
  8
0
  5
6EE5
 10
2.21399
 20
22.5853
 30
0.000000
  70
    32
  0
VERTEX
  8
0
  5
6EE6
 10
2.22299
 20
22.5848
 30
0.000000
  70
    32
  0
VERTEX
  8
0
  5
6EE7
 10
2.23222
 20
22.5844
 30
0.000000
  70
    32
  0
VERTEX
  8
0
  5
6EE8
 10
2.24167
 20
22.5840
 30
0.000000
  70
    32
  0
VERTEX
  8
0
  5
6EE9
 10
2.25134
 20
22.5836
 30
0.000000
  70
    32
  0
VERTEX
  8
0
  5
6EEA
 10
2.26122
 20
22.5833
 30
0.000000
  70
    32
  0
VERTEX
  8
0
  5
6EEB
 10
2.27131
 20
22.5830
 30
0.000000
  70
    32
  0
VERTEX
  8
0
  5
6EEC
 10
2.28159
 20
22.5827
 30
0.000000
  70
    32
  0
VERTEX
  8
0
  5
6EED
 10
2.29206
 20
22.5825
 30
0.000000
  70
    32
  0
VERTEX
  8
0
  5
6EEE
 10
2.30272
 20
22.5823
 30
0.000000
  70
    32
  0
VERTEX
  8
0
  5
6EEF
 10
2.31355
 20
22.5821
 30
0.000000
  70
    32
  0
VERTEX
  8
0
  5
6EF0
 10
2.32456
 20
22.5820
 30
0.000000
  70
    32
  0
VERTEX
  8
0
  5
6EF1
 10
2.33572
 20
22.5820
 30
0.000000
  70
    32
  0
VERTEX
  8
0
  5
6EF2
 10
2.34705
 20
22.5820
 30
0.000000
  70
    32
  0
VERTEX
  8
0
  5
6EF3
 10
2.35852
 20
22.5821
 30
0.000000
  70
    32
  0
VERTEX
  8
0
  5
6EF4
 10
2.37013
 20
22.5822
 30
0.000000
  70
    32
  0
VERTEX
  8
0
  5
6EF5
 10
2.38189
 20
22.5824
 30
0.000000
  70
    32
  0
VERTEX
  8
0
  5
6EF6
 10
2.39377
 20
22.5826
 30
0.000000
  70
    32
  0
VERTEX
  8
0
  5
6EF7
 10
2.40577
 20
22.5830
 30
0.000000
  70
    32
  0
VERTEX
  8
0
  5
6EF8
 10
2.41789
 20
22.5834
 30
0.000000
  70
    32
  0
VERTEX
  8
0
  5
6EF9
 10
2.43012
 20
22.5838
 30
0.000000
  70
    32
  0
VERTEX
  8
0
  5
6EFA
 10
2.44245
 20
22.5844
 30
0.000000
  70
    32
  0
VERTEX
  8
0
  5
6EFB
 10
2.45488
 20
22.5850
 30
0.000000
  70
    32
  0
VERTEX
  8
0
  5
6EFC
 10
2.46739
 20
22.5857
 30
0.000000
  70
    32
  0
VERTEX
  8
0
  5
6EFD
 10
2.47999
 20
22.5865
 30
0.000000
  70
    32
  0
VERTEX
  8
0
  5
6EFE
 10
2.49266
 20
22.5874
 30
0.000000
  70
    32
  0
VERTEX
  8
0
  5
6EFF
 10
2.50540
 20
22.5883
 30
0.000000
  70
    32
  0
VERTEX
  8
0
  5
6F00
 10
2.51821
 20
22.5894
 30
0.000000
  70
    32
  0
VERTEX
  8
0
  5
6F01
 10
2.53106
 20
22.5906
 30
0.000000
  70
    32
  0
VERTEX
  8
0
  5
6F02
 10
2.54397
 20
22.5918
 30
0.000000
  70
    32
  0
VERTEX
  8
0
  5
6F03
 10
2.55692
 20
22.5932
 30
0.000000
  70
    32
  0
VERTEX
  8
0
  5
6F04
 10
2.56990
 20
22.5947
 30
0.000000
  70
    32
  0
VERTEX
  8
0
  5
6F05
 10
2.58291
 20
22.5962
 30
0.000000
  70
    32
  0
VERTEX
  8
0
  5
6F06
 10
2.59594
 20
22.5979
 30
0.000000
  70
    32
  0
VERTEX
  8
0
  5
6F07
 10
2.60899
 20
22.5997
 30
0.000000
  70
    32
  0
VERTEX
  8
0
  5
6F08
 10
2.62204
 20
22.6016
 30
0.000000
  70
    32
  0
VERTEX
  8
0
  5
6F09
 10
2.63510
 20
22.6036
 30
0.000000
  70
    32
  0
VERTEX
  8
0
  5
6F0A
 10
2.64815
 20
22.6058
 30
0.000000
  70
    32
  0
VERTEX
  8
0
  5
6F0B
 10
2.66118
 20
22.6081
 30
0.000000
  70
    32
  0
VERTEX
  8
0
  5
6F0C
 10
2.67420
 20
22.6105
 30
0.000000
  70
    32
  0
VERTEX
  8
0
  5
6F0D
 10
2.68719
 20
22.6130
 30
0.000000
  70
    32
  0
VERTEX
  8
0
  5
6F0E
 10
2.70015
 20
22.6157
 30
0.000000
  70
    32
  0
VERTEX
  8
0
  5
6F0F
 10
2.71306
 20
22.6185
 30
0.000000
  70
    32
  0
VERTEX
  8
0
  5
6F10
 10
2.72594
 20
22.6214
 30
0.000000
  70
    32
  0
VERTEX
  8
0
  5
6F11
 10
2.73875
 20
22.6245
 30
0.000000
  70
    32
  0
VERTEX
  8
0
  5
6F12
 10
2.75151
 20
22.6277
 30
0.000000
  70
    32
  0
VERTEX
  8
0
  5
6F13
 10
2.76422
 20
22.6310
 30
0.000000
  70
    32
  0
VERTEX
  8
0
  5
6F14
 10
2.77687
 20
22.6345
 30
0.000000
  70
    32
  0
VERTEX
  8
0
  5
6F15
 10
2.78946
 20
22.6381
 30
0.000000
  70
    32
  0
VERTEX
  8
0
  5
6F16
 10
2.80201
 20
22.6418
 30
0.000000
  70
    32
  0
VERTEX
  8
0
  5
6F17
 10
2.81451
 20
22.6456
 30
0.000000
  70
    32
  0
VERTEX
  8
0
  5
6F18
 10
2.82696
 20
22.6495
 30
0.000000
  70
    32
  0
VERTEX
  8
0
  5
6F19
 10
2.83936
 20
22.6534
 30
0.000000
  70
    32
  0
VERTEX
  8
0
  5
6F1A
 10
2.85173
 20
22.6574
 30
0.000000
  70
    32
  0
VERTEX
  8
0
  5
6F1B
 10
2.86405
 20
22.6615
 30
0.000000
  70
    32
  0
VERTEX
  8
0
  5
6F1C
 10
2.87633
 20
22.6656
 30
0.000000
  70
    32
  0
VERTEX
  8
0
  5
6F1D
 10
2.88858
 20
22.6697
 30
0.000000
  70
    32
  0
VERTEX
  8
0
  5
6F1E
 10
2.90080
 20
22.6739
 30
0.000000
  70
    32
  0
VERTEX
  8
0
  5
6F1F
 10
2.91298
 20
22.6781
 30
0.000000
  70
    32
  0
VERTEX
  8
0
  5
6F20
 10
2.92513
 20
22.6823
 30
0.000000
  70
    32
  0
VERTEX
  8
0
  5
6F21
 10
2.93725
 20
22.6865
 30
0.000000
  70
    32
  0
VERTEX
  8
0
  5
6F22
 10
2.94935
 20
22.6907
 30
0.000000
  70
    32
  0
VERTEX
  8
0
  5
6F23
 10
2.96142
 20
22.6949
 30
0.000000
  70
    32
  0
VERTEX
  8
0
  5
6F24
 10
2.97347
 20
22.6991
 30
0.000000
  70
    32
  0
VERTEX
  8
0
  5
6F25
 10
2.98550
 20
22.7032
 30
0.000000
  70
    32
  0
VERTEX
  8
0
  5
6F26
 10
2.99751
 20
22.7072
 30
0.000000
  70
    32
  0
VERTEX
  8
0
  5
6F27
 10
3.00950
 20
22.7112
 30
0.000000
  70
    32
  0
VERTEX
  8
0
  5
6F28
 10
3.02148
 20
22.7152
 30
0.000000
  70
    32
  0
VERTEX
  8
0
  5
6F29
 10
3.03345
 20
22.7190
 30
0.000000
  70
    32
  0
VERTEX
  8
0
  5
6F2A
 10
3.04541
 20
22.7228
 30
0.000000
  70
    32
  0
VERTEX
  8
0
  5
6F2B
 10
3.05736
 20
22.7265
 30
0.000000
  70
    32
  0
VERTEX
  8
0
  5
6F2C
 10
3.06930
 20
22.7301
 30
0.000000
  70
    32
  0
VERTEX
  8
0
  5
6F2D
 10
3.08124
 20
22.7335
 30
0.000000
  70
    32
  0
VERTEX
  8
0
  5
6F2E
 10
3.09318
 20
22.7368
 30
0.000000
  70
    32
  0
VERTEX
  8
0
  5
6F2F
 10
3.10512
 20
22.7400
 30
0.000000
  70
    32
  0
VERTEX
  8
0
  5
6F30
 10
3.11706
 20
22.7431
 30
0.000000
  70
    32
  0
VERTEX
  8
0
  5
6F31
 10
3.12900
 20
22.7460
 30
0.000000
  70
    32
  0
VERTEX
  8
0
  5
6F32
 10
3.14095
 20
22.7488
 30
0.000000
  70
    32
  0
VERTEX
  8
0
  5
6F33
 10
3.15291
 20
22.7513
 30
0.000000
  70
    32
  0
VERTEX
  8
0
  5
6F34
 10
3.16488
 20
22.7537
 30
0.000000
  70
    32
  0
VERTEX
  8
0
  5
6F35
 10
3.17686
 20
22.7559
 30
0.000000
  70
    32
  0
VERTEX
  8
0
  5
6F36
 10
3.18885
 20
22.7579
 30
0.000000
  70
    32
  0
VERTEX
  8
0
  5
6F37
 10
3.20086
 20
22.7597
 30
0.000000
  70
    32
  0
VERTEX
  8
0
  5
6F38
 10
3.21289
 20
22.7613
 30
0.000000
  70
    32
  0
VERTEX
  8
0
  5
6F39
 10
3.22494
 20
22.7626
 30
0.000000
  70
    32
  0
VERTEX
  8
0
  5
6F3A
 10
3.23701
 20
22.7637
 30
0.000000
  70
    32
  0
VERTEX
  8
0
  5
6F3B
 10
3.24911
 20
22.7646
 30
0.000000
  70
    32
  0
VERTEX
  8
0
  5
6F3C
 10
3.26123
 20
22.7651
 30
0.000000
  70
    32
  0
VERTEX
  8
0
  5
6F3D
 10
3.27338
 20
22.7655
 30
0.000000
  70
    32
  0
VERTEX
  8
0
  5
6F3E
 10
3.28556
 20
22.7655
 30
0.000000
  70
    32
  0
VERTEX
  8
0
  5
6F3F
 10
3.29777
 20
22.7653
 30
0.000000
  70
    32
  0
VERTEX
  8
0
  5
6F40
 10
3.31002
 20
22.7648
 30
0.000000
  70
    32
  0
VERTEX
  8
0
  5
6F41
 10
3.32230
 20
22.7640
 30
0.000000
  70
    32
  0
VERTEX
  8
0
  5
6F42
 10
3.33461
 20
22.7629
 30
0.000000
  70
    32
  0
VERTEX
  8
0
  5
6F43
 10
3.34696
 20
22.7616
 30
0.000000
  70
    32
  0
VERTEX
  8
0
  5
6F44
 10
3.35934
 20
22.7601
 30
0.000000
  70
    32
  0
VERTEX
  8
0
  5
6F45
 10
3.37175
 20
22.7583
 30
0.000000
  70
    32
  0
VERTEX
  8
0
  5
6F46
 10
3.38420
 20
22.7563
 30
0.000000
  70
    32
  0
VERTEX
  8
0
  5
6F47
 10
3.39668
 20
22.7540
 30
0.000000
  70
    32
  0
VERTEX
  8
0
  5
6F48
 10
3.40920
 20
22.7516
 30
0.000000
  70
    32
  0
VERTEX
  8
0
  5
6F49
 10
3.42176
 20
22.7490
 30
0.000000
  70
    32
  0
VERTEX
  8
0
  5
6F4A
 10
3.43435
 20
22.7462
 30
0.000000
  70
    32
  0
VERTEX
  8
0
  5
6F4B
 10
3.44697
 20
22.7433
 30
0.000000
  70
    32
  0
VERTEX
  8
0
  5
6F4C
 10
3.45963
 20
22.7401
 30
0.000000
  70
    32
  0
VERTEX
  8
0
  5
6F4D
 10
3.47232
 20
22.7369
 30
0.000000
  70
    32
  0
VERTEX
  8
0
  5
6F4E
 10
3.48505
 20
22.7335
 30
0.000000
  70
    32
  0
VERTEX
  8
0
  5
6F4F
 10
3.49782
 20
22.7299
 30
0.000000
  70
    32
  0
VERTEX
  8
0
  5
6F50
 10
3.51062
 20
22.7263
 30
0.000000
  70
    32
  0
VERTEX
  8
0
  5
6F51
 10
3.52345
 20
22.7226
 30
0.000000
  70
    32
  0
VERTEX
  8
0
  5
6F52
 10
3.53633
 20
22.7187
 30
0.000000
  70
    32
  0
VERTEX
  8
0
  5
6F53
 10
3.54924
 20
22.7148
 30
0.000000
  70
    32
  0
VERTEX
  8
0
  5
6F54
 10
3.56218
 20
22.7108
 30
0.000000
  70
    32
  0
VERTEX
  8
0
  5
6F55
 10
3.57517
 20
22.7067
 30
0.000000
  70
    32
  0
VERTEX
  8
0
  5
6F56
 10
3.58818
 20
22.7026
 30
0.000000
  70
    32
  0
VERTEX
  8
0
  5
6F57
 10
3.60124
 20
22.6985
 30
0.000000
  70
    32
  0
VERTEX
  8
0
  5
6F58
 10
3.61433
 20
22.6943
 30
0.000000
  70
    32
  0
VERTEX
  8
0
  5
6F59
 10
3.62746
 20
22.6901
 30
0.000000
  70
    32
  0
VERTEX
  8
0
  5
6F5A
 10
3.64063
 20
22.6859
 30
0.000000
  70
    32
  0
VERTEX
  8
0
  5
6F5B
 10
3.65384
 20
22.6816
 30
0.000000
  70
    32
  0
VERTEX
  8
0
  5
6F5C
 10
3.66708
 20
22.6774
 30
0.000000
  70
    32
  0
VERTEX
  8
0
  5
6F5D
 10
3.68036
 20
22.6733
 30
0.000000
  70
    32
  0
VERTEX
  8
0
  5
6F5E
 10
3.69368
 20
22.6691
 30
0.000000
  70
    32
  0
VERTEX
  8
0
  5
6F5F
 10
3.70703
 20
22.6650
 30
0.000000
  70
    32
  0
VERTEX
  8
0
  5
6F60
 10
3.72043
 20
22.6610
 30
0.000000
  70
    32
  0
VERTEX
  8
0
  5
6F61
 10
3.73386
 20
22.6570
 30
0.000000
  70
    32
  0
VERTEX
  8
0
  5
6F62
 10
3.74733
 20
22.6531
 30
0.000000
  70
    32
  0
VERTEX
  8
0
  5
6F63
 10
3.76084
 20
22.6493
 30
0.000000
  70
    32
  0
VERTEX
  8
0
  5
6F64
 10
3.77439
 20
22.6455
 30
0.000000
  70
    32
  0
VERTEX
  8
0
  5
6F65
 10
3.78798
 20
22.6419
 30
0.000000
  70
    32
  0
VERTEX
  8
0
  5
6F66
 10
3.80161
 20
22.6384
 30
0.000000
  70
    32
  0
VERTEX
  8
0
  5
6F67
 10
3.81527
 20
22.6351
 30
0.000000
  70
    32
  0
VERTEX
  8
0
  5
6F68
 10
3.82898
 20
22.6318
 30
0.000000
  70
    32
  0
VERTEX
  8
0
  5
6F69
 10
3.84272
 20
22.6288
 30
0.000000
  70
    32
  0
VERTEX
  8
0
  5
6F6A
 10
3.85651
 20
22.6258
 30
0.000000
  70
    32
  0
VERTEX
  8
0
  5
6F6B
 10
3.87033
 20
22.6231
 30
0.000000
  70
    32
  0
VERTEX
  8
0
  5
6F6C
 10
3.88420
 20
22.6205
 30
0.000000
  70
    32
  0
VERTEX
  8
0
  5
6F6D
 10
3.89810
 20
22.6182
 30
0.000000
  70
    32
  0
VERTEX
  8
0
  5
6F6E
 10
3.91205
 20
22.6160
 30
0.000000
  70
    32
  0
VERTEX
  8
0
  5
6F6F
 10
3.92603
 20
22.6141
 30
0.000000
  70
    32
  0
VERTEX
  8
0
  5
6F70
 10
3.94006
 20
22.6123
 30
0.000000
  70
    32
  0
VERTEX
  8
0
  5
6F71
 10
3.95412
 20
22.6108
 30
0.000000
  70
    32
  0
VERTEX
  8
0
  5
6F72
 10
3.96823
 20
22.6096
 30
0.000000
  70
    32
  0
VERTEX
  8
0
  5
6F73
 10
3.98238
 20
22.6086
 30
0.000000
  70
    32
  0
VERTEX
  8
0
  5
6F74
 10
3.99656
 20
22.6078
 30
0.000000
  70
    32
  0
VERTEX
  8
0
  5
6F75
 10
4.01077
 20
22.6072
 30
0.000000
  70
    32
  0
VERTEX
  8
0
  5
6F76
 10
4.02502
 20
22.6069
 30
0.000000
  70
    32
  0
VERTEX
  8
0
  5
6F77
 10
4.03931
 20
22.6068
 30
0.000000
  70
    32
  0
VERTEX
  8
0
  5
6F78
 10
4.05362
 20
22.6069
 30
0.000000
  70
    32
  0
VERTEX
  8
0
  5
6F79
 10
4.06796
 20
22.6072
 30
0.000000
  70
    32
  0
VERTEX
  8
0
  5
6F7A
 10
4.08233
 20
22.6077
 30
0.000000
  70
    32
  0
VERTEX
  8
0
  5
6F7B
 10
4.09673
 20
22.6084
 30
0.000000
  70
    32
  0
VERTEX
  8
0
  5
6F7C
 10
4.11115
 20
22.6094
 30
0.000000
  70
    32
  0
VERTEX
  8
0
  5
6F7D
 10
4.12559
 20
22.6105
 30
0.000000
  70
    32
  0
VERTEX
  8
0
  5
6F7E
 10
4.14006
 20
22.6118
 30
0.000000
  70
    32
  0
VERTEX
  8
0
  5
6F7F
 10
4.15454
 20
22.6134
 30
0.000000
  70
    32
  0
VERTEX
  8
0
  5
6F80
 10
4.16904
 20
22.6151
 30
0.000000
  70
    32
  0
VERTEX
  8
0
  5
6F81
 10
4.18356
 20
22.6170
 30
0.000000
  70
    32
  0
VERTEX
  8
0
  5
6F82
 10
4.19810
 20
22.6191
 30
0.000000
  70
    32
  0
VERTEX
  8
0
  5
6F83
 10
4.21265
 20
22.6214
 30
0.000000
  70
    32
  0
VERTEX
  8
0
  5
6F84
 10
4.22721
 20
22.6239
 30
0.000000
  70
    32
  0
VERTEX
  8
0
  5
6F85
 10
4.24178
 20
22.6265
 30
0.000000
  70
    32
  0
VERTEX
  8
0
  5
6F86
 10
4.25636
 20
22.6293
 30
0.000000
  70
    32
  0
VERTEX
  8
0
  5
6F87
 10
4.27095
 20
22.6323
 30
0.000000
  70
    32
  0
VERTEX
  8
0
  5
6F88
 10
4.28554
 20
22.6354
 30
0.000000
  70
    32
  0
VERTEX
  8
0
  5
6F89
 10
4.30014
 20
22.6387
 30
0.000000
  70
    32
  0
VERTEX
  8
0
  5
6F8A
 10
4.31474
 20
22.6422
 30
0.000000
  70
    32
  0
VERTEX
  8
0
  5
6F8B
 10
4.32935
 20
22.6458
 30
0.000000
  70
    32
  0
VERTEX
  8
0
  5
6F8C
 10
4.34395
 20
22.6496
 30
0.000000
  70
    32
  0
VERTEX
  8
0
  5
6F8D
 10
4.35855
 20
22.6535
 30
0.000000
  70
    32
  0
VERTEX
  8
0
  5
6F8E
 10
4.37315
 20
22.6576
 30
0.000000
  70
    32
  0
VERTEX
  8
0
  5
6F8F
 10
4.38774
 20
22.6618
 30
0.000000
  70
    32
  0
VERTEX
  8
0
  5
6F90
 10
4.40233
 20
22.6662
 30
0.000000
  70
    32
  0
VERTEX
  8
0
  5
6F91
 10
4.41691
 20
22.6707
 30
0.000000
  70
    32
  0
VERTEX
  8
0
  5
6F92
 10
4.43148
 20
22.6753
 30
0.000000
  70
    32
  0
VERTEX
  8
0
  5
6F93
 10
4.44604
 20
22.6801
 30
0.000000
  70
    32
  0
VERTEX
  8
0
  5
6F94
 10
4.46059
 20
22.6849
 30
0.000000
  70
    32
  0
VERTEX
  8
0
  5
6F95
 10
4.47512
 20
22.6899
 30
0.000000
  70
    32
  0
VERTEX
  8
0
  5
6F96
 10
4.48964
 20
22.6951
 30
0.000000
  70
    32
  0
VERTEX
  8
0
  5
6F97
 10
4.50414
 20
22.7003
 30
0.000000
  70
    32
  0
VERTEX
  8
0
  5
6F98
 10
4.51863
 20
22.7057
 30
0.000000
  70
    32
  0
VERTEX
  8
0
  5
6F99
 10
4.53310
 20
22.7111
 30
0.000000
  70
    32
  0
VERTEX
  8
0
  5
6F9A
 10
4.54755
 20
22.7167
 30
0.000000
  70
    32
  0
VERTEX
  8
0
  5
6F9B
 10
4.56201
 20
22.7223
 30
0.000000
  70
    32
  0
VERTEX
  8
0
  5
6F9C
 10
4.57645
 20
22.7279
 30
0.000000
  70
    32
  0
VERTEX
  8
0
  5
6F9D
 10
4.59090
 20
22.7336
 30
0.000000
  70
    32
  0
VERTEX
  8
0
  5
6F9E
 10
4.60534
 20
22.7394
 30
0.000000
  70
    32
  0
VERTEX
  8
0
  5
6F9F
 10
4.61980
 20
22.7451
 30
0.000000
  70
    32
  0
VERTEX
  8
0
  5
6FA0
 10
4.63425
 20
22.7509
 30
0.000000
  70
    32
  0
VERTEX
  8
0
  5
6FA1
 10
4.64872
 20
22.7566
 30
0.000000
  70
    32
  0
VERTEX
  8
0
  5
6FA2
 10
4.66321
 20
22.7623
 30
0.000000
  70
    32
  0
VERTEX
  8
0
  5
6FA3
 10
4.67771
 20
22.7679
 30
0.000000
  70
    32
  0
VERTEX
  8
0
  5
6FA4
 10
4.69223
 20
22.7735
 30
0.000000
  70
    32
  0
VERTEX
  8
0
  5
6FA5
 10
4.70678
 20
22.7791
 30
0.000000
  70
    32
  0
VERTEX
  8
0
  5
6FA6
 10
4.72135
 20
22.7845
 30
0.000000
  70
    32
  0
VERTEX
  8
0
  5
6FA7
 10
4.73595
 20
22.7899
 30
0.000000
  70
    32
  0
VERTEX
  8
0
  5
6FA8
 10
4.75058
 20
22.7951
 30
0.000000
  70
    32
  0
VERTEX
  8
0
  5
6FA9
 10
4.76525
 20
22.8002
 30
0.000000
  70
    32
  0
VERTEX
  8
0
  5
6FAA
 10
4.77996
 20
22.8051
 30
0.000000
  70
    32
  0
VERTEX
  8
0
  5
6FAB
 10
4.79471
 20
22.8100
 30
0.000000
  70
    32
  0
VERTEX
  8
0
  5
6FAC
 10
4.80951
 20
22.8146
 30
0.000000
  70
    32
  0
VERTEX
  8
0
  5
6FAD
 10
4.82435
 20
22.8190
 30
0.000000
  70
    32
  0
VERTEX
  8
0
  5
6FAE
 10
4.83925
 20
22.8233
 30
0.000000
  70
    32
  0
VERTEX
  8
0
  5
6FAF
 10
4.85420
 20
22.8273
 30
0.000000
  70
    32
  0
VERTEX
  8
0
  5
6FB0
 10
4.86921
 20
22.8312
 30
0.000000
  70
    32
  0
VERTEX
  8
0
  5
6FB1
 10
4.88428
 20
22.8347
 30
0.000000
  70
    32
  0
VERTEX
  8
0
  5
6FB2
 10
4.89941
 20
22.8381
 30
0.000000
  70
    32
  0
VERTEX
  8
0
  5
6FB3
 10
4.91461
 20
22.8411
 30
0.000000
  70
    32
  0
VERTEX
  8
0
  5
6FB4
 10
4.92988
 20
22.8439
 30
0.000000
  70
    32
  0
VERTEX
  8
0
  5
6FB5
 10
4.94522
 20
22.8464
 30
0.000000
  70
    32
  0
VERTEX
  8
0
  5
6FB6
 10
4.96064
 20
22.8486
 30
0.000000
  70
    32
  0
VERTEX
  8
0
  5
6FB7
 10
4.97614
 20
22.8504
 30
0.000000
  70
    32
  0
VERTEX
  8
0
  5
6FB8
 10
4.99173
 20
22.8519
 30
0.000000
  70
    32
  0
VERTEX
  8
0
  5
6FB9
 10
5.00739
 20
22.8531
 30
0.000000
  70
    32
  0
VERTEX
  8
0
  5
6FBA
 10
5.02315
 20
22.8539
 30
0.000000
  70
    32
  0
VERTEX
  8
0
  5
6FBB
 10
5.03898
 20
22.8544
 30
0.000000
  70
    32
  0
VERTEX
  8
0
  5
6FBC
 10
5.05489
 20
22.8545
 30
0.000000
  70
    32
  0
VERTEX
  8
0
  5
6FBD
 10
5.07087
 20
22.8543
 30
0.000000
  70
    32
  0
VERTEX
  8
0
  5
6FBE
 10
5.08691
 20
22.8539
 30
0.000000
  70
    32
  0
VERTEX
  8
0
  5
6FBF
 10
5.10302
 20
22.8531
 30
0.000000
  70
    32
  0
VERTEX
  8
0
  5
6FC0
 10
5.11918
 20
22.8521
 30
0.000000
  70
    32
  0
VERTEX
  8
0
  5
6FC1
 10
5.13539
 20
22.8508
 30
0.000000
  70
    32
  0
VERTEX
  8
0
  5
6FC2
 10
5.15165
 20
22.8492
 30
0.000000
  70
    32
  0
VERTEX
  8
0
  5
6FC3
 10
5.16796
 20
22.8474
 30
0.000000
  70
    32
  0
VERTEX
  8
0
  5
6FC4
 10
5.18430
 20
22.8454
 30
0.000000
  70
    32
  0
VERTEX
  8
0
  5
6FC5
 10
5.20067
 20
22.8432
 30
0.000000
  70
    32
  0
VERTEX
  8
0
  5
6FC6
 10
5.21707
 20
22.8407
 30
0.000000
  70
    32
  0
VERTEX
  8
0
  5
6FC7
 10
5.23350
 20
22.8381
 30
0.000000
  70
    32
  0
VERTEX
  8
0
  5
6FC8
 10
5.24995
 20
22.8353
 30
0.000000
  70
    32
  0
VERTEX
  8
0
  5
6FC9
 10
5.26641
 20
22.8323
 30
0.000000
  70
    32
  0
VERTEX
  8
0
  5
6FCA
 10
5.28288
 20
22.8292
 30
0.000000
  70
    32
  0
VERTEX
  8
0
  5
6FCB
 10
5.29935
 20
22.8259
 30
0.000000
  70
    32
  0
VERTEX
  8
0
  5
6FCC
 10
5.31583
 20
22.8225
 30
0.000000
  70
    32
  0
VERTEX
  8
0
  5
6FCD
 10
5.33230
 20
22.8190
 30
0.000000
  70
    32
  0
VERTEX
  8
0
  5
6FCE
 10
5.34876
 20
22.8154
 30
0.000000
  70
    32
  0
VERTEX
  8
0
  5
6FCF
 10
5.36521
 20
22.8117
 30
0.000000
  70
    32
  0
VERTEX
  8
0
  5
6FD0
 10
5.38163
 20
22.8079
 30
0.000000
  70
    32
  0
VERTEX
  8
0
  5
6FD1
 10
5.39804
 20
22.8040
 30
0.000000
  70
    32
  0
VERTEX
  8
0
  5
6FD2
 10
5.41442
 20
22.8001
 30
0.000000
  70
    32
  0
VERTEX
  8
0
  5
6FD3
 10
5.43077
 20
22.7961
 30
0.000000
  70
    32
  0
VERTEX
  8
0
  5
6FD4
 10
5.44707
 20
22.7922
 30
0.000000
  70
    32
  0
VERTEX
  8
0
  5
6FD5
 10
5.46334
 20
22.7881
 30
0.000000
  70
    32
  0
VERTEX
  8
0
  5
6FD6
 10
5.47956
 20
22.7841
 30
0.000000
  70
    32
  0
VERTEX
  8
0
  5
6FD7
 10
5.49574
 20
22.7801
 30
0.000000
  70
    32
  0
VERTEX
  8
0
  5
6FD8
 10
5.51187
 20
22.7761
 30
0.000000
  70
    32
  0
VERTEX
  8
0
  5
6FD9
 10
5.52795
 20
22.7721
 30
0.000000
  70
    32
  0
VERTEX
  8
0
  5
6FDA
 10
5.54398
 20
22.7681
 30
0.000000
  70
    32
  0
VERTEX
  8
0
  5
6FDB
 10
5.55998
 20
22.7641
 30
0.000000
  70
    32
  0
VERTEX
  8
0
  5
6FDC
 10
5.57592
 20
22.7601
 30
0.000000
  70
    32
  0
VERTEX
  8
0
  5
6FDD
 10
5.59182
 20
22.7562
 30
0.000000
  70
    32
  0
VERTEX
  8
0
  5
6FDE
 10
5.60768
 20
22.7523
 30
0.000000
  70
    32
  0
VERTEX
  8
0
  5
6FDF
 10
5.62349
 20
22.7484
 30
0.000000
  70
    32
  0
VERTEX
  8
0
  5
6FE0
 10
5.63925
 20
22.7445
 30
0.000000
  70
    32
  0
VERTEX
  8
0
  5
6FE1
 10
5.65497
 20
22.7407
 30
0.000000
  70
    32
  0
VERTEX
  8
0
  5
6FE2
 10
5.67065
 20
22.7369
 30
0.000000
  70
    32
  0
VERTEX
  8
0
  5
6FE3
 10
5.68629
 20
22.7332
 30
0.000000
  70
    32
  0
VERTEX
  8
0
  5
6FE4
 10
5.70188
 20
22.7295
 30
0.000000
  70
    32
  0
VERTEX
  8
0
  5
6FE5
 10
5.71742
 20
22.7259
 30
0.000000
  70
    32
  0
VERTEX
  8
0
  5
6FE6
 10
5.73292
 20
22.7223
 30
0.000000
  70
    32
  0
VERTEX
  8
0
  5
6FE7
 10
5.74838
 20
22.7188
 30
0.000000
  70
    32
  0
VERTEX
  8
0
  5
6FE8
 10
5.76380
 20
22.7154
 30
0.000000
  70
    32
  0
VERTEX
  8
0
  5
6FE9
 10
5.77917
 20
22.7120
 30
0.000000
  70
    32
  0
VERTEX
  8
0
  5
6FEA
 10
5.79451
 20
22.7087
 30
0.000000
  70
    32
  0
VERTEX
  8
0
  5
6FEB
 10
5.80980
 20
22.7055
 30
0.000000
  70
    32
  0
VERTEX
  8
0
  5
6FEC
 10
5.82504
 20
22.7023
 30
0.000000
  70
    32
  0
VERTEX
  8
0
  5
6FED
 10
5.84025
 20
22.6993
 30
0.000000
  70
    32
  0
VERTEX
  8
0
  5
6FEE
 10
5.85541
 20
22.6963
 30
0.000000
  70
    32
  0
VERTEX
  8
0
  5
6FEF
 10
5.87053
 20
22.6934
 30
0.000000
  70
    32
  0
VERTEX
  8
0
  5
6FF0
 10
5.88561
 20
22.6906
 30
0.000000
  70
    32
  0
VERTEX
  8
0
  5
6FF1
 10
5.90065
 20
22.6879
 30
0.000000
  70
    32
  0
VERTEX
  8
0
  5
6FF2
 10
5.91565
 20
22.6854
 30
0.000000
  70
    32
  0
VERTEX
  8
0
  5
6FF3
 10
5.93061
 20
22.6829
 30
0.000000
  70
    32
  0
VERTEX
  8
0
  5
6FF4
 10
5.94553
 20
22.6805
 30
0.000000
  70
    32
  0
VERTEX
  8
0
  5
6FF5
 10
5.96041
 20
22.6783
 30
0.000000
  70
    32
  0
VERTEX
  8
0
  5
6FF6
 10
5.97524
 20
22.6762
 30
0.000000
  70
    32
  0
VERTEX
  8
0
  5
6FF7
 10
5.99004
 20
22.6742
 30
0.000000
  70
    32
  0
VERTEX
  8
0
  5
6FF8
 10
6.00480
 20
22.6723
 30
0.000000
  70
    32
  0
VERTEX
  8
0
  5
6FF9
 10
6.01952
 20
22.6706
 30
0.000000
  70
    32
  0
VERTEX
  8
0
  5
6FFA
 10
6.03420
 20
22.6690
 30
0.000000
  70
    32
  0
VERTEX
  8
0
  5
6FFB
 10
6.04884
 20
22.6675
 30
0.000000
  70
    32
  0
VERTEX
  8
0
  5
6FFC
 10
6.06344
 20
22.6662
 30
0.000000
  70
    32
  0
VERTEX
  8
0
  5
6FFD
 10
6.07801
 20
22.6650
 30
0.000000
  70
    32
  0
VERTEX
  8
0
  5
6FFE
 10
6.09253
 20
22.6640
 30
0.000000
  70
    32
  0
VERTEX
  8
0
  5
6FFF
 10
6.10702
 20
22.6632
 30
0.000000
  70
    32
  0
VERTEX
  8
0
  5
7000
 10
6.12147
 20
22.6625
 30
0.000000
  70
    32
  0
VERTEX
  8
0
  5
7001
 10
6.13588
 20
22.6619
 30
0.000000
  70
    32
  0
VERTEX
  8
0
  5
7002
 10
6.15026
 20
22.6615
 30
0.000000
  70
    32
  0
VERTEX
  8
0
  5
7003
 10
6.16459
 20
22.6614
 30
0.000000
  70
    32
  0
VERTEX
  8
0
  5
7004
 10
6.17889
 20
22.6613
 30
0.000000
  70
    32
  0
VERTEX
  8
0
  5
7005
 10
6.19316
 20
22.6615
 30
0.000000
  70
    32
  0
VERTEX
  8
0
  5
7006
 10
6.20738
 20
22.6618
 30
0.000000
  70
    32
  0
VERTEX
  8
0
  5
7007
 10
6.22157
 20
22.6623
 30
0.000000
  70
    32
  0
VERTEX
  8
0
  5
7008
 10
6.23573
 20
22.6630
 30
0.000000
  70
    32
  0
VERTEX
  8
0
  5
7009
 10
6.24986
 20
22.6639
 30
0.000000
  70
    32
  0
VERTEX
  8
0
  5
700A
 10
6.26397
 20
22.6649
 30
0.000000
  70
    32
  0
VERTEX
  8
0
  5
700B
 10
6.27805
 20
22.6661
 30
0.000000
  70
    32
  0
VERTEX
  8
0
  5
700C
 10
6.29211
 20
22.6675
 30
0.000000
  70
    32
  0
VERTEX
  8
0
  5
700D
 10
6.30615
 20
22.6690
 30
0.000000
  70
    32
  0
VERTEX
  8
0
  5
700E
 10
6.32018
 20
22.6706
 30
0.000000
  70
    32
  0
VERTEX
  8
0
  5
700F
 10
6.33420
 20
22.6724
 30
0.000000
  70
    32
  0
VERTEX
  8
0
  5
7010
 10
6.34821
 20
22.6743
 30
0.000000
  70
    32
  0
VERTEX
  8
0
  5
7011
 10
6.36221
 20
22.6763
 30
0.000000
  70
    32
  0
VERTEX
  8
0
  5
7012
 10
6.37622
 20
22.6785
 30
0.000000
  70
    32
  0
VERTEX
  8
0
  5
7013
 10
6.39022
 20
22.6807
 30
0.000000
  70
    32
  0
VERTEX
  8
0
  5
7014
 10
6.40423
 20
22.6831
 30
0.000000
  70
    32
  0
VERTEX
  8
0
  5
7015
 10
6.41824
 20
22.6856
 30
0.000000
  70
    32
  0
VERTEX
  8
0
  5
7016
 10
6.43226
 20
22.6881
 30
0.000000
  70
    32
  0
VERTEX
  8
0
  5
7017
 10
6.44630
 20
22.6908
 30
0.000000
  70
    32
  0
VERTEX
  8
0
  5
7018
 10
6.46035
 20
22.6935
 30
0.000000
  70
    32
  0
VERTEX
  8
0
  5
7019
 10
6.47442
 20
22.6963
 30
0.000000
  70
    32
  0
VERTEX
  8
0
  5
701A
 10
6.48851
 20
22.6992
 30
0.000000
  70
    32
  0
VERTEX
  8
0
  5
701B
 10
6.50263
 20
22.7022
 30
0.000000
  70
    32
  0
VERTEX
  8
0
  5
701C
 10
6.51677
 20
22.7052
 30
0.000000
  70
    32
  0
VERTEX
  8
0
  5
701D
 10
6.53094
 20
22.7083
 30
0.000000
  70
    32
  0
VERTEX
  8
0
  5
701E
 10
6.54515
 20
22.7114
 30
0.000000
  70
    32
  0
VERTEX
  8
0
  5
701F
 10
6.55939
 20
22.7146
 30
0.000000
  70
    32
  0
VERTEX
  8
0
  5
7020
 10
6.57367
 20
22.7178
 30
0.000000
  70
    32
  0
VERTEX
  8
0
  5
7021
 10
6.58800
 20
22.7210
 30
0.000000
  70
    32
  0
VERTEX
  8
0
  5
7022
 10
6.60237
 20
22.7243
 30
0.000000
  70
    32
  0
VERTEX
  8
0
  5
7023
 10
6.61679
 20
22.7276
 30
0.000000
  70
    32
  0
VERTEX
  8
0
  5
7024
 10
6.63125
 20
22.7309
 30
0.000000
  70
    32
  0
VERTEX
  8
0
  5
7025
 10
6.64575
 20
22.7342
 30
0.000000
  70
    32
  0
VERTEX
  8
0
  5
7026
 10
6.66030
 20
22.7375
 30
0.000000
  70
    32
  0
VERTEX
  8
0
  5
7027
 10
6.67488
 20
22.7408
 30
0.000000
  70
    32
  0
VERTEX
  8
0
  5
7028
 10
6.68950
 20
22.7441
 30
0.000000
  70
    32
  0
VERTEX
  8
0
  5
7029
 10
6.70417
 20
22.7474
 30
0.000000
  70
    32
  0
VERTEX
  8
0
  5
702A
 10
6.71886
 20
22.7507
 30
0.000000
  70
    32
  0
VERTEX
  8
0
  5
702B
 10
6.73359
 20
22.7539
 30
0.000000
  70
    32
  0
VERTEX
  8
0
  5
702C
 10
6.74835
 20
22.7572
 30
0.000000
  70
    32
  0
VERTEX
  8
0
  5
702D
 10
6.76315
 20
22.7603
 30
0.000000
  70
    32
  0
VERTEX
  8
0
  5
702E
 10
6.77797
 20
22.7635
 30
0.000000
  70
    32
  0
VERTEX
  8
0
  5
702F
 10
6.79282
 20
22.7665
 30
0.000000
  70
    32
  0
VERTEX
  8
0
  5
7030
 10
6.80769
 20
22.7696
 30
0.000000
  70
    32
  0
VERTEX
  8
0
  5
7031
 10
6.82260
 20
22.7725
 30
0.000000
  70
    32
  0
VERTEX
  8
0
  5
7032
 10
6.83752
 20
22.7754
 30
0.000000
  70
    32
  0
VERTEX
  8
0
  5
7033
 10
6.85247
 20
22.7782
 30
0.000000
  70
    32
  0
VERTEX
  8
0
  5
7034
 10
6.86743
 20
22.7810
 30
0.000000
  70
    32
  0
VERTEX
  8
0
  5
7035
 10
6.88242
 20
22.7836
 30
0.000000
  70
    32
  0
VERTEX
  8
0
  5
7036
 10
6.89742
 20
22.7862
 30
0.000000
  70
    32
  0
VERTEX
  8
0
  5
7037
 10
6.91244
 20
22.7887
 30
0.000000
  70
    32
  0
VERTEX
  8
0
  5
7038
 10
6.92747
 20
22.7910
 30
0.000000
  70
    32
  0
VERTEX
  8
0
  5
7039
 10
6.94252
 20
22.7933
 30
0.000000
  70
    32
  0
VERTEX
  8
0
  5
703A
 10
6.95757
 20
22.7954
 30
0.000000
  70
    32
  0
VERTEX
  8
0
  5
703B
 10
6.97264
 20
22.7975
 30
0.000000
  70
    32
  0
VERTEX
  8
0
  5
703C
 10
6.98771
 20
22.7994
 30
0.000000
  70
    32
  0
VERTEX
  8
0
  5
703D
 10
7.00279
 20
22.8011
 30
0.000000
  70
    32
  0
VERTEX
  8
0
  5
703E
 10
7.01788
 20
22.8027
 30
0.000000
  70
    32
  0
VERTEX
  8
0
  5
703F
 10
7.03297
 20
22.8042
 30
0.000000
  70
    32
  0
VERTEX
  8
0
  5
7040
 10
7.04806
 20
22.8055
 30
0.000000
  70
    32
  0
VERTEX
  8
0
  5
7041
 10
7.06315
 20
22.8067
 30
0.000000
  70
    32
  0
VERTEX
  8
0
  5
7042
 10
7.07824
 20
22.8077
 30
0.000000
  70
    32
  0
VERTEX
  8
0
  5
7043
 10
7.09333
 20
22.8086
 30
0.000000
  70
    32
  0
VERTEX
  8
0
  5
7044
 10
7.10841
 20
22.8092
 30
0.000000
  70
    32
  0
VERTEX
  8
0
  5
7045
 10
7.12349
 20
22.8097
 30
0.000000
  70
    32
  0
VERTEX
  8
0
  5
7046
 10
7.13856
 20
22.8100
 30
0.000000
  70
    32
  0
VERTEX
  8
0
  5
7047
 10
7.15362
 20
22.8101
 30
0.000000
  70
    32
  0
VERTEX
  8
0
  5
7048
 10
7.16867
 20
22.8100
 30
0.000000
  70
    32
  0
VERTEX
  8
0
  5
7049
 10
7.18372
 20
22.8097
 30
0.000000
  70
    32
  0
VERTEX
  8
0
  5
704A
 10
7.19874
 20
22.8092
 30
0.000000
  70
    32
  0
VERTEX
  8
0
  5
704B
 10
7.21376
 20
22.8085
 30
0.000000
  70
    32
  0
VERTEX
  8
0
  5
704C
 10
7.22875
 20
22.8076
 30
0.000000
  70
    32
  0
VERTEX
  8
0
  5
704D
 10
7.24373
 20
22.8064
 30
0.000000
  70
    32
  0
VERTEX
  8
0
  5
704E
 10
7.25869
 20
22.8050
 30
0.000000
  70
    32
  0
VERTEX
  8
0
  5
704F
 10
7.27363
 20
22.8034
 30
0.000000
  70
    32
  0
VERTEX
  8
0
  5
7050
 10
7.28856
 20
22.8015
 30
0.000000
  70
    32
  0
VERTEX
  8
0
  5
7051
 10
7.30348
 20
22.7994
 30
0.000000
  70
    32
  0
VERTEX
  8
0
  5
7052
 10
7.31839
 20
22.7972
 30
0.000000
  70
    32
  0
VERTEX
  8
0
  5
7053
 10
7.33330
 20
22.7947
 30
0.000000
  70
    32
  0
VERTEX
  8
0
  5
7054
 10
7.34821
 20
22.7920
 30
0.000000
  70
    32
  0
VERTEX
  8
0
  5
7055
 10
7.36313
 20
22.7892
 30
0.000000
  70
    32
  0
VERTEX
  8
0
  5
7056
 10
7.37805
 20
22.7861
 30
0.000000
  70
    32
  0
VERTEX
  8
0
  5
7057
 10
7.39298
 20
22.7829
 30
0.000000
  70
    32
  0
VERTEX
  8
0
  5
7058
 10
7.40793
 20
22.7796
 30
0.000000
  70
    32
  0
VERTEX
  8
0
  5
7059
 10
7.42290
 20
22.7760
 30
0.000000
  70
    32
  0
VERTEX
  8
0
  5
705A
 10
7.43789
 20
22.7724
 30
0.000000
  70
    32
  0
VERTEX
  8
0
  5
705B
 10
7.45291
 20
22.7686
 30
0.000000
  70
    32
  0
VERTEX
  8
0
  5
705C
 10
7.46796
 20
22.7647
 30
0.000000
  70
    32
  0
VERTEX
  8
0
  5
705D
 10
7.48305
 20
22.7606
 30
0.000000
  70
    32
  0
VERTEX
  8
0
  5
705E
 10
7.49817
 20
22.7564
 30
0.000000
  70
    32
  0
VERTEX
  8
0
  5
705F
 10
7.51333
 20
22.7522
 30
0.000000
  70
    32
  0
VERTEX
  8
0
  5
7060
 10
7.52854
 20
22.7478
 30
0.000000
  70
    32
  0
VERTEX
  8
0
  5
7061
 10
7.54380
 20
22.7433
 30
0.000000
  70
    32
  0
VERTEX
  8
0
  5
7062
 10
7.55910
 20
22.7388
 30
0.000000
  70
    32
  0
VERTEX
  8
0
  5
7063
 10
7.57447
 20
22.7342
 30
0.000000
  70
    32
  0
VERTEX
  8
0
  5
7064
 10
7.58990
 20
22.7295
 30
0.000000
  70
    32
  0
VERTEX
  8
0
  5
7065
 10
7.60539
 20
22.7247
 30
0.000000
  70
    32
  0
VERTEX
  8
0
  5
7066
 10
7.62094
 20
22.7199
 30
0.000000
  70
    32
  0
VERTEX
  8
0
  5
7067
 10
7.63657
 20
22.7151
 30
0.000000
  70
    32
  0
VERTEX
  8
0
  5
7068
 10
7.65227
 20
22.7102
 30
0.000000
  70
    32
  0
VERTEX
  8
0
  5
7069
 10
7.66806
 20
22.7053
 30
0.000000
  70
    32
  0
VERTEX
  8
0
  5
706A
 10
7.68392
 20
22.7004
 30
0.000000
  70
    32
  0
VERTEX
  8
0
  5
706B
 10
7.69987
 20
22.6954
 30
0.000000
  70
    32
  0
VERTEX
  8
0
  5
706C
 10
7.71591
 20
22.6905
 30
0.000000
  70
    32
  0
VERTEX
  8
0
  5
706D
 10
7.73204
 20
22.6856
 30
0.000000
  70
    32
  0
VERTEX
  8
0
  5
706E
 10
7.74827
 20
22.6806
 30
0.000000
  70
    32
  0
VERTEX
  8
0
  5
706F
 10
7.76460
 20
22.6757
 30
0.000000
  70
    32
  0
VERTEX
  8
0
  5
7070
 10
7.78103
 20
22.6708
 30
0.000000
  70
    32
  0
VERTEX
  8
0
  5
7071
 10
7.79758
 20
22.6660
 30
0.000000
  70
    32
  0
VERTEX
  8
0
  5
7072
 10
7.81423
 20
22.6612
 30
0.000000
  70
    32
  0
VERTEX
  8
0
  5
7073
 10
7.83100
 20
22.6564
 30
0.000000
  70
    32
  0
VERTEX
  8
0
  5
7074
 10
7.84789
 20
22.6517
 30
0.000000
  70
    32
  0
VERTEX
  8
0
  5
7075
 10
7.86489
 20
22.6471
 30
0.000000
  70
    32
  0
VERTEX
  8
0
  5
7076
 10
7.88201
 20
22.6425
 30
0.000000
  70
    32
  0
VERTEX
  8
0
  5
7077
 10
7.89924
 20
22.6380
 30
0.000000
  70
    32
  0
VERTEX
  8
0
  5
7078
 10
7.91658
 20
22.6336
 30
0.000000
  70
    32
  0
VERTEX
  8
0
  5
7079
 10
7.93403
 20
22.6293
 30
0.000000
  70
    32
  0
VERTEX
  8
0
  5
707A
 10
7.95159
 20
22.6251
 30
0.000000
  70
    32
  0
VERTEX
  8
0
  5
707B
 10
7.96926
 20
22.6210
 30
0.000000
  70
    32
  0
VERTEX
  8
0
  5
707C
 10
7.98703
 20
22.6170
 30
0.000000
  70
    32
  0
VERTEX
  8
0
  5
707D
 10
8.00490
 20
22.6131
 30
0.000000
  70
    32
  0
VERTEX
  8
0
  5
707E
 10
8.02287
 20
22.6094
 30
0.000000
  70
    32
  0
VERTEX
  8
0
  5
707F
 10
8.04094
 20
22.6058
 30
0.000000
  70
    32
  0
VERTEX
  8
0
  5
7080
 10
8.05910
 20
22.6023
 30
0.000000
  70
    32
  0
VERTEX
  8
0
  5
7081
 10
8.07736
 20
22.5990
 30
0.000000
  70
    32
  0
VERTEX
  8
0
  5
7082
 10
8.09572
 20
22.5959
 30
0.000000
  70
    32
  0
VERTEX
  8
0
  5
7083
 10
8.11417
 20
22.5929
 30
0.000000
  70
    32
  0
VERTEX
  8
0
  5
7084
 10
8.13270
 20
22.5901
 30
0.000000
  70
    32
  0
VERTEX
  8
0
  5
7085
 10
8.15133
 20
22.5875
 30
0.000000
  70
    32
  0
VERTEX
  8
0
  5
7086
 10
8.17004
 20
22.5851
 30
0.000000
  70
    32
  0
VERTEX
  8
0
  5
7087
 10
8.18883
 20
22.5828
 30
0.000000
  70
    32
  0
VERTEX
  8
0
  5
7088
 10
8.20771
 20
22.5808
 30
0.000000
  70
    32
  0
VERTEX
  8
0
  5
7089
 10
8.22667
 20
22.5790
 30
0.000000
  70
    32
  0
VERTEX
  8
0
  5
708A
 10
8.24571
 20
22.5773
 30
0.000000
  70
    32
  0
VERTEX
  8
0
  5
708B
 10
8.26482
 20
22.5760
 30
0.000000
  70
    32
  0
VERTEX
  8
0
  5
708C
 10
8.28402
 20
22.5748
 30
0.000000
  70
    32
  0
VERTEX
  8
0
  5
708D
 10
8.30328
 20
22.5739
 30
0.000000
  70
    32
  0
VERTEX
  8
0
  5
708E
 10
8.32262
 20
22.5732
 30
0.000000
  70
    32
  0
VERTEX
  8
0
  5
708F
 10
8.34203
 20
22.5728
 30
0.000000
  70
    32
  0
VERTEX
  8
0
  5
7090
 10
8.36150
 20
22.5726
 30
0.000000
  70
    32
  0
VERTEX
  8
0
  5
7091
 10
8.38105
 20
22.5728
 30
0.000000
  70
    32
  0
VERTEX
  8
0
  5
7092
 10
8.40066
 20
22.5731
 30
0.000000
  70
    32
  0
VERTEX
  8
0
  5
7093
 10
8.42033
 20
22.5738
 30
0.000000
  70
    32
  0
VERTEX
  8
0
  5
7094
 10
8.44006
 20
22.5748
 30
0.000000
  70
    32
  0
VERTEX
  8
0
  5
7095
 10
8.45986
 20
22.5760
 30
0.000000
  70
    32
  0
VERTEX
  8
0
  5
7096
 10
8.47971
 20
22.5776
 30
0.000000
  70
    32
  0
VERTEX
  8
0
  5
7097
 10
8.49962
 20
22.5794
 30
0.000000
  70
    32
  0
VERTEX
  8
0
  5
7098
 10
8.51958
 20
22.5816
 30
0.000000
  70
    32
  0
VERTEX
  8
0
  5
7099
 10
8.53961
 20
22.5841
 30
0.000000
  70
    32
  0
VERTEX
  8
0
  5
709A
 10
8.55969
 20
22.5868
 30
0.000000
  70
    32
  0
VERTEX
  8
0
  5
709B
 10
8.57985
 20
22.5898
 30
0.000000
  70
    32
  0
VERTEX
  8
0
  5
709C
 10
8.60009
 20
22.5930
 30
0.000000
  70
    32
  0
VERTEX
  8
0
  5
709D
 10
8.62040
 20
22.5963
 30
0.000000
  70
    32
  0
VERTEX
  8
0
  5
709E
 10
8.64080
 20
22.5998
 30
0.000000
  70
    32
  0
VERTEX
  8
0
  5
709F
 10
8.66129
 20
22.6035
 30
0.000000
  70
    32
  0
VERTEX
  8
0
  5
70A0
 10
8.68187
 20
22.6072
 30
0.000000
  70
    32
  0
VERTEX
  8
0
  5
70A1
 10
8.70256
 20
22.6110
 30
0.000000
  70
    32
  0
VERTEX
  8
0
  5
70A2
 10
8.72335
 20
22.6148
 30
0.000000
  70
    32
  0
VERTEX
  8
0
  5
70A3
 10
8.74425
 20
22.6187
 30
0.000000
  70
    32
  0
VERTEX
  8
0
  5
70A4
 10
8.76527
 20
22.6225
 30
0.000000
  70
    32
  0
VERTEX
  8
0
  5
70A5
 10
8.78641
 20
22.6263
 30
0.000000
  70
    32
  0
VERTEX
  8
0
  5
70A6
 10
8.80768
 20
22.6300
 30
0.000000
  70
    32
  0
VERTEX
  8
0
  5
70A7
 10
8.82908
 20
22.6336
 30
0.000000
  70
    32
  0
VERTEX
  8
0
  5
70A8
 10
8.85061
 20
22.6371
 30
0.000000
  70
    32
  0
VERTEX
  8
0
  5
70A9
 10
8.87228
 20
22.6405
 30
0.000000
  70
    32
  0
VERTEX
  8
0
  5
70AA
 10
8.89410
 20
22.6437
 30
0.000000
  70
    32
  0
VERTEX
  8
0
  5
70AB
 10
8.91608
 20
22.6466
 30
0.000000
  70
    32
  0
VERTEX
  8
0
  5
70AC
 10
8.93821
 20
22.6493
 30
0.000000
  70
    32
  0
VERTEX
  8
0
  5
70AD
 10
8.96050
 20
22.6518
 30
0.000000
  70
    32
  0
VERTEX
  8
0
  5
70AE
 10
8.98296
 20
22.6539
 30
0.000000
  70
    32
  0
VERTEX
  8
0
  5
70AF
 10
9.00559
 20
22.6558
 30
0.000000
  70
    32
  0
VERTEX
  8
0
  5
70B0
 10
9.02840
 20
22.6573
 30
0.000000
  70
    32
  0
VERTEX
  8
0
  5
70B1
 10
9.05139
 20
22.6584
 30
0.000000
  70
    32
  0
VERTEX
  8
0
  5
70B2
 10
9.07457
 20
22.6591
 30
0.000000
  70
    32
  0
VERTEX
  8
0
  5
70B3
 10
9.09794
 20
22.6594
 30
0.000000
  70
    32
  0
VERTEX
  8
0
  5
70B4
 10
9.12151
 20
22.6592
 30
0.000000
  70
    32
  0
VERTEX
  8
0
  5
70B5
 10
9.14528
 20
22.6585
 30
0.000000
  70
    32
  0
VERTEX
  8
0
  5
70B6
 10
9.16926
 20
22.6573
 30
0.000000
  70
    32
  0
VERTEX
  8
0
  5
70B7
 10
9.19346
 20
22.6556
 30
0.000000
  70
    32
  0
VERTEX
  8
0
  5
70B8
 10
9.21787
 20
22.6533
 30
0.000000
  70
    32
  0
VERTEX
  8
0
  5
70B9
 10
9.24250
 20
22.6504
 30
0.000000
  70
    32
  0
VERTEX
  8
0
  5
70BA
 10
9.26737
 20
22.6469
 30
0.000000
  70
    32
  0
VERTEX
  8
0
  5
70BB
 10
9.29246
 20
22.6428
 30
0.000000
  70
    32
  0
VERTEX
  8
0
  5
70BC
 10
9.31780
 20
22.6379
 30
0.000000
  70
    32
  0
VERTEX
  8
0
  5
70BD
 10
9.34338
 20
22.6323
 30
0.000000
  70
    32
  0
VERTEX
  8
0
  5
70BE
 10
9.36921
 20
22.6261
 30
0.000000
  70
    32
  0
VERTEX
  8
0
  5
70BF
 10
9.39573
 20
22.6191
 30
0.000000
  70
    32
  0
VERTEX
  8
0
  5
70C0
 10
9.42407
 20
22.6117
 30
0.000000
  70
    32
  0
VERTEX
  8
0
  5
70C1
 10
9.45541
 20
22.6042
 30
0.000000
  70
    32
  0
VERTEX
  8
0
  5
70C2
 10
9.49094
 20
22.5967
 30
0.000000
  70
    32
  0
VERTEX
  8
0
  5
70C3
 10
9.53186
 20
22.5896
 30
0.000000
  70
    32
  0
VERTEX
  8
0
  5
70C4
 10
9.57935
 20
22.5831
 30
0.000000
  70
    32
  0
VERTEX
  8
0
  5
70C5
 10
9.63460
 20
22.5774
 30
0.000000
  70
    32
  0
VERTEX
  8
0
  5
70C6
 10
9.69880
 20
22.5729
 30
0.000000
  70
    32
  0
VERTEX
  8
0
  5
70C7
 10
9.77314
 20
22.5697
 30
0.000000
  70
    32
  0
VERTEX
  8
0
  5
70C8
 10
9.85881
 20
22.5681
 30
0.000000
  70
    32
  0
VERTEX
  8
0
  5
70C9
 10
9.95700
 20
22.5684
 30
0.000000
  70
    32
  0
SEQEND
  8
0
  5
70CA
  0
DIMENSION
  5
31C8
  8
DIM
  2
*D28
 10
12.063227139841601
 20
18.69949042825445
 30
0.0
 11
12.063227139841601
 21
19.526490428254451
 31
0.0
 70
     0
 13
10.07699677016088
 23
20.35349042825445
 33
0.0
 14
10.07699677016088
 24
18.69949042825445
 34
0.0
 50
90.0
  0
POLYLINE
  8
0
  5
70CB
  66
     1
 10
0.000000
 20
0.000000
 30
0.000000
  70
     8
  0
VERTEX
  8
0
  5
70CC
 10
5.69158
 20
27.0704
 30
0.000000
  70
    32
  0
VERTEX
  8
0
  5
70CD
 10
6.46667
 20
27.0704
 30
0.000000
  70
    32
  0
VERTEX
  8
0
  5
70CE
 10
6.46667
 20
15.2906
 30
0.000000
  70
    32
  0
SEQEND
  8
0
  5
70CF
  0
POLYLINE
  8
0
  5
70D0
  66
     1
 10
0.000000
 20
0.000000
 30
0.000000
  70
     8
  0
VERTEX
  8
0
  5
70D1
 10
5.69158
 20
15.2906
 30
0.000000
  70
    32
  0
VERTEX
  8
0
  5
70D2
 10
6.46667
 20
15.2906
 30
0.000000
  70
    32
  0
SEQEND
  8
0
  5
70D3
  0
POLYLINE
  5
414D
  8
OBJECT
 66
     1
 10
0.0
 20
0.0
 30
0.0
 70
     1
  0
VERTEX
  5
6B37
  8
OBJECT
 10
2.2419967701608741
 20
6.5661631875867172
 30
0.0
  0
VERTEX
  5
6B38
  8
OBJECT
 10
9.7979967701608732
 20
6.5661631875867172
 30
0.0
 42
0.4142135623730951
  0
VERTEX
  5
6B39
  8
OBJECT
 10
9.828996770160872
 20
6.597163187586716
 30
0.0
  0
VERTEX
  5
6B3A
  8
OBJECT
 10
9.828996770160872
 20
7.8911631875867156
 30
0.0
 42
0.4142135623730946
  0
VERTEX
  5
6B3B
  8
OBJECT
 10
9.7979967701608732
 20
7.922163187586718
 30
0.0
  0
VERTEX
  5
6B3C
  8
OBJECT
 10
2.2419967701608741
 20
7.922163187586718
 30
0.0
 42
0.4142135623730951
  0
VERTEX
  5
6B3D
  8
OBJECT
 10
2.2109967701608748
 20
7.8911631875867156
 30
0.0
  0
VERTEX
  5
6B3E
  8
OBJECT
 10
2.2109967701608748
 20
6.597163187586716
 30
0.0
 42
0.4142135623730953
  0
SEQEND
  5
6B3F
  8
OBJECT
  0
POLYLINE
  5
446F
  8
BEND
 66
     1
 10
0.0
 20
0.0
 30
0.0
 70
     1
  0
VERTEX
  5
6B40
  8
BEND
 10
9.7459339736628152
 20
6.6366631875867164
 30
0.0
  0
VERTEX
  5
6B41
  8
BEND
 10
9.7767497478812491
 20
7.2246631875867173
 30
0.0
  0
VERTEX
  5
6B42
  8
BEND
 10
9.7767497478812491
 20
7.2636631875867153
 30
0.0
  0
VERTEX
  5
6B43
  8
BEND
 10
9.7459339736628152
 20
7.8516631875867162
 30
0.0
  0
VERTEX
  5
6B44
  8
BEND
 10
2.2940595666589298
 20
7.8516631875867162
 30
0.0
  0
VERTEX
  5
6B45
  8
BEND
 10
2.2632437924404978
 20
7.2636631875867153
 30
0.0
  0
VERTEX
  5
6B46
  8
BEND
 10
2.2632437924404978
 20
7.2246631875867173
 30
0.0
  0
VERTEX
  5
6B47
  8
BEND
 10
2.2940595666589298
 20
6.6366631875867164
 30
0.0
  0
SEQEND
  5
6B48
  8
BEND
  0
LINE
  5
49A8
  8
CENTER
 10
9.6619967701608847
 20
20.35349042825445
 30
0.0
 11
10.07699677016088
 21
20.35349042825445
 31
0.0
  0
LINE
  5
49AA
  8
CENTER
 10
9.6619967701608847
 20
22.007490428254449
 30
0.0
 11
10.07699677016088
 21
22.007490428254449
 31
0.0
  0
LINE
  5
49AB
  8
CENTER
 10
9.6619967701608847
 20
23.661490428254449
 30
0.0
 11
10.07699677016088
 21
23.661490428254449
 31
0.0
  0
DIMENSION
  5
4A44
  8
DIM
  2
*D29
 10
1.483798003299835
 20
20.304490428254439
 30
0.0
 11
1.4837980032998319
 21
20.742490428254438
 31
0.0
 70
     0
 13
5.9299967701608756
 23
21.180490428254451
 33
0.0
 14
2.9889967701608731
 24
20.304490428254439
 34
0.0
 50
90.0
  0
DIMENSION
  5
4A52
  8
DIM
  2
*D30
 10
1.483798003299835
 20
16.806490428254449
 30
0.0
 11
1.4837980032998319
 21
18.555490428254451
 31
0.0
 70
     0
 13
2.9889967701608731
 23
20.304490428254439
 33
0.0
 14
2.9889967701608731
 24
16.806490428254449
 34
0.0
 50
90.0
1001
ACAD
1000
DSTYLE
1002
{
1070
   287
1070
     4
1070
   279
1070
     1
1002
}
  0
DIMENSION
  5
4AB4
  8
DIM
  2
*D33
 10
0.8376518910741737
 20
22.056490428254449
 30
0.0
 11
0.8376518910741702
 21
21.61849042825445
 31
0.0
 70
     0
 13
5.9299967701608756
 23
21.180490428254451
 33
0.0
 14
2.9889967701608731
 24
22.056490428254449
 34
0.0
 50
270.0
  0
DIMENSION
  5
4AB5
  8
DIM
  2
*D34
 10
0.837651891074174
 20
25.55449042825445
 30
0.0
 11
0.8376518910741699
 21
23.805490428254451
 31
0.0
 70
     0
 13
2.9889967701608731
 23
22.056490428254449
 33
0.0
 14
2.9889967701608731
 24
25.55449042825445
 34
0.0
 50
270.0
1001
ACAD
1000
DSTYLE
1002
{
1070
   287
1070
     4
1070
   279
1070
     1
1002
}
  0
DIMENSION
  5
4AB6
  8
DIM
  2
*D32
 10
11.882254166868631
 20
23.661490428254449
 30
0.0
 11
11.88225416686862
 21
22.834490428254451
 31
0.0
 70
     0
 13
10.07699677016088
 23
22.007490428254449
 33
0.0
 14
10.07699677016088
 24
23.661490428254449
 34
0.0
 50
270.0
  0
DIMENSION
  5
4AB7
  8
DIM
  2
*D31
 10
10.65783176601267
 20
22.007490428254449
 30
0.0
 11
10.65783176601267
 21
21.59399042825445
 31
0.0
 70
     0
 13
6.1099967701608762
 23
21.180490428254451
 33
0.0
 14
10.07699677016088
 24
22.007490428254449
 34
0.0
 50
270.0
  0
POLYLINE
  5
4D8E
  8
OBJECT
 66
     1
 10
0.0
 20
0.0
 30
0.0
 70
     1
  0
VERTEX
  5
6B5D
  8
OBJECT
 10
2.0829967701608751
 20
15.668490428254451
 30
0.0
  0
VERTEX
  5
6B5E
  8
OBJECT
 10
9.9569967701608704
 20
15.668490428254451
 30
0.0
  0
VERTEX
  5
6B5F
  8
OBJECT
 10
9.9569967701608704
 20
26.692490428254452
 30
0.0
  0
VERTEX
  5
6B60
  8
OBJECT
 10
2.0829967701608751
 20
26.692490428254452
 30
0.0
  0
SEQEND
  5
6B61
  8
OBJECT
  0
LINE
  5
4D8F
  8
OBJECT
 10
2.1029967701608738
 20
11.15990160286643
 30
0.0
 11
2.1029967701608738
 21
11.12090160286643
 31
0.0
  0
LINE
  5
4D90
  8
CENTER
 10
5.9299967701608756
 20
11.14040160286644
 30
0.0
 11
6.1099967701608762
 21
11.14040160286644
 31
0.0
  0
LINE
  5
4D91
  8
CENTER
 10
6.0199967701608763
 20
11.05040160286643
 30
0.0
 11
6.0199967701608763
 21
11.230401602866429
 31
0.0
  0
LINE
  5
4E2C
  8
OBJECT
 10
9.2779967701608754
 20
26.437990428254441
 30
0.0
 11
9.2779967701608754
 21
25.93799042825443
 31
0.0
  0
LINE
  5
4E2D
  8
OBJECT
 10
9.9399967701608745
 20
26.437990428254441
 30
0.0
 11
9.9399967701608745
 21
25.93799042825443
 31
0.0
  0
LINE
  5
4E2E
  8
OBJECT
 10
9.2779967701608754
 20
25.93799042825443
 30
0.0
 11
9.9569967701608704
 21
25.93799042825443
 31
0.0
  0
LINE
  5
4E3B
  8
OBJECT
 10
9.2779967701608754
 20
26.437990428254441
 30
0.0
 11
9.9569967701608704
 21
26.437990428254441
 31
0.0
  0
LINE
  5
4E3C
  8
OBJECT
 10
9.2779967701608754
 20
26.437990428254441
 30
0.0
 11
9.9569967701608704
 21
26.437990428254441
 31
0.0
  0
LINE
  5
4E3D
  8
OBJECT
 10
2.7619967701608772
 20
26.437990428254441
 30
0.0
 11
2.7619967701608772
 21
25.937990428254441
 31
0.0
  0
LINE
  5
4E3E
  8
OBJECT
 10
2.0999967701608742
 20
25.937990428254441
 30
0.0
 11
2.0999967701608742
 21
26.437990428254441
 31
0.0
  0
LINE
  5
4E46
  8
OBJECT
 10
2.0829967701608751
 20
25.937990428254441
 30
0.0
 11
2.7619967701608772
 21
25.937990428254441
 31
0.0
  0
LINE
  5
4E4C
  8
OBJECT
 10
2.0829967701608751
 20
26.437990428254441
 30
0.0
 11
2.7619967701608772
 21
26.437990428254441
 31
0.0
  0
LINE
  5
4E4D
  8
OBJECT
 10
2.0829967701608751
 20
26.437990428254441
 30
0.0
 11
2.7619967701608772
 21
26.437990428254441
 31
0.0
  0
LINE
  5
4E4E
  8
OBJECT
 10
14.76735475120411
 20
21.002990428254449
 30
0.0
 11
14.76735475120411
 21
21.12299042825445
 31
0.0
  0
LINE
  5
4E4F
  8
OBJECT
 10
14.316354751204109
 20
21.002990428254449
 30
0.0
 11
14.316354751204109
 21
21.12299042825445
 31
0.0
  0
LINE
  5
4E50
  8
OBJECT
 10
15.06735475120411
 20
15.66849042825444
 30
0.0
 11
15.0673547512041
 21
26.692490428254452
 31
0.0
  0
LINE
  5
4E51
  8
OBJECT
 10
15.8743547512041
 20
26.692490428254452
 30
0.0
 11
15.8743547512041
 21
15.668490428254451
 31
0.0
  0
LINE
  5
4E52
  8
OBJECT
 10
14.29935475120411
 20
15.668490428254451
 30
0.0
 11
14.29935475120411
 21
26.692490428254441
 31
0.0
  0
LINE
  5
4E53
  8
OBJECT
 10
15.8743547512041
 20
15.668490428254451
 30
0.0
 11
14.29935475120411
 21
15.668490428254451
 31
0.0
  0
LINE
  5
4E54
  8
OBJECT
 10
14.76735475120411
 20
21.002990428254449
 30
0.0
 11
14.29935475120411
 21
21.002990428254449
 31
0.0
  0
LINE
  5
4E55
  8
OBJECT
 10
14.76735475120411
 20
16.422990428254451
 30
0.0
 11
14.29935475120411
 21
16.422990428254451
 31
0.0
  0
LINE
  5
4E56
  8
OBJECT
 10
14.76735475120411
 20
15.922990428254449
 30
0.0
 11
14.29935475120411
 21
15.922990428254449
 31
0.0
  0
LINE
  5
4E57
  8
OBJECT
 10
14.76735475120411
 20
15.922990428254449
 30
0.0
 11
14.29935475120411
 21
15.922990428254449
 31
0.0
  0
LINE
  5
4E58
  8
OBJECT
 10
14.316354751204109
 20
15.922990428254449
 30
0.0
 11
14.316354751204109
 21
16.422990428254451
 31
0.0
  0
LINE
  5
4E59
  8
OBJECT
 10
14.76735475120411
 20
15.922990428254449
 30
0.0
 11
14.76735475120411
 21
16.422990428254451
 31
0.0
  0
LINE
  5
4E5A
  8
OBJECT
 10
14.316354751204109
 20
24.292990428254441
 30
0.0
 11
14.316354751204109
 21
24.412990428254439
 31
0.0
  0
LINE
  5
4E5B
  8
OBJECT
 10
14.76735475120411
 20
24.292990428254448
 30
0.0
 11
14.76735475120411
 21
24.412990428254439
 31
0.0
  0
LINE
  5
4E5C
  8
OBJECT
 10
14.316354751204109
 20
22.647990428254442
 30
0.0
 11
14.316354751204109
 21
22.767990428254439
 31
0.0
  0
LINE
  5
4E5D
  8
OBJECT
 10
14.76735475120411
 20
22.647990428254449
 30
0.0
 11
14.76735475120411
 21
22.767990428254439
 31
0.0
  0
LINE
  5
4E5E
  8
OBJECT
 10
14.76735475120411
 20
21.12299042825445
 30
0.0
 11
14.29935475120411
 21
21.12299042825445
 31
0.0
  0
LINE
  5
4E5F
  8
OBJECT
 10
14.76735475120411
 20
21.35799042825445
 30
0.0
 11
14.29935475120411
 21
21.35799042825445
 31
0.0
  0
LINE
  5
4E60
  8
OBJECT
 10
14.76735475120411
 20
21.237990428254442
 30
0.0
 11
14.29935475120411
 21
21.237990428254442
 31
0.0
  0
LINE
  5
4E61
  8
OBJECT
 10
14.76735475120411
 20
21.592990428254449
 30
0.0
 11
14.29935475120411
 21
21.592990428254449
 31
0.0
  0
LINE
  5
4E62
  8
OBJECT
 10
14.76735475120411
 20
21.472990428254441
 30
0.0
 11
14.29935475120411
 21
21.472990428254441
 31
0.0
  0
LINE
  5
4E63
  8
OBJECT
 10
14.76735475120411
 20
21.827990428254449
 30
0.0
 11
14.29935475120411
 21
21.827990428254449
 31
0.0
  0
LINE
  5
4E64
  8
OBJECT
 10
14.76735475120411
 20
21.70799042825444
 30
0.0
 11
14.29935475120411
 21
21.70799042825444
 31
0.0
  0
LINE
  5
4E65
  8
OBJECT
 10
14.316354751204109
 20
21.237990428254442
 30
0.0
 11
14.316354751204109
 21
21.35799042825445
 31
0.0
  0
LINE
  5
4E66
  8
OBJECT
 10
14.316354751204109
 20
21.472990428254441
 30
0.0
 11
14.316354751204109
 21
21.592990428254449
 31
0.0
  0
LINE
  5
4E67
  8
OBJECT
 10
14.316354751204109
 20
21.70799042825444
 30
0.0
 11
14.316354751204109
 21
21.827990428254449
 31
0.0
  0
LINE
  5
4E68
  8
OBJECT
 10
14.76735475120411
 20
21.237990428254442
 30
0.0
 11
14.76735475120411
 21
21.35799042825445
 31
0.0
  0
LINE
  5
4E69
  8
OBJECT
 10
14.76735475120411
 20
21.472990428254441
 30
0.0
 11
14.76735475120411
 21
21.592990428254449
 31
0.0
  0
LINE
  5
4E6A
  8
OBJECT
 10
14.76735475120411
 20
21.70799042825444
 30
0.0
 11
14.76735475120411
 21
21.827990428254449
 31
0.0
  0
LINE
  5
4E6B
  8
OBJECT
 10
14.76735475120411
 20
22.062990428254452
 30
0.0
 11
14.29935475120411
 21
22.062990428254452
 31
0.0
  0
LINE
  5
4E6C
  8
OBJECT
 10
14.76735475120411
 20
21.94299042825444
 30
0.0
 11
14.29935475120411
 21
21.94299042825444
 31
0.0
  0
LINE
  5
4E6D
  8
OBJECT
 10
14.76735475120411
 20
22.297990428254451
 30
0.0
 11
14.29935475120411
 21
22.297990428254451
 31
0.0
  0
LINE
  5
4E6E
  8
OBJECT
 10
14.76735475120411
 20
22.177990428254439
 30
0.0
 11
14.29935475120411
 21
22.177990428254439
 31
0.0
  0
LINE
  5
4E6F
  8
OBJECT
 10
14.76735475120411
 20
22.53299042825445
 30
0.0
 11
14.29935475120411
 21
22.53299042825445
 31
0.0
  0
LINE
  5
4E70
  8
OBJECT
 10
14.76735475120411
 20
22.412990428254449
 30
0.0
 11
14.29935475120411
 21
22.412990428254449
 31
0.0
  0
LINE
  5
4E71
  8
OBJECT
 10
14.76735475120411
 20
22.647990428254449
 30
0.0
 11
14.29935475120411
 21
22.647990428254449
 31
0.0
  0
LINE
  5
4E72
  8
OBJECT
 10
14.316354751204109
 20
22.177990428254439
 30
0.0
 11
14.316354751204109
 21
22.297990428254451
 31
0.0
  0
LINE
  5
4E73
  8
OBJECT
 10
14.316354751204109
 20
21.94299042825444
 30
0.0
 11
14.316354751204109
 21
22.062990428254452
 31
0.0
  0
LINE
  5
4E74
  8
OBJECT
 10
14.316354751204109
 20
22.412990428254439
 30
0.0
 11
14.316354751204109
 21
22.53299042825445
 31
0.0
  0
LINE
  5
4E75
  8
OBJECT
 10
14.76735475120411
 20
22.17799042825445
 30
0.0
 11
14.76735475120411
 21
22.297990428254451
 31
0.0
  0
LINE
  5
4E76
  8
OBJECT
 10
14.76735475120411
 20
21.94299042825444
 30
0.0
 11
14.76735475120411
 21
22.062990428254452
 31
0.0
  0
LINE
  5
4E77
  8
OBJECT
 10
14.76735475120411
 20
22.412990428254449
 30
0.0
 11
14.76735475120411
 21
22.53299042825445
 31
0.0
  0
LINE
  5
4E78
  8
OBJECT
 10
14.76735475120411
 20
22.767990428254439
 30
0.0
 11
14.29935475120411
 21
22.767990428254439
 31
0.0
  0
LINE
  5
4E79
  8
OBJECT
 10
14.76735475120411
 20
23.002990428254439
 30
0.0
 11
14.29935475120411
 21
23.002990428254439
 31
0.0
  0
LINE
  5
4E7A
  8
OBJECT
 10
14.76735475120411
 20
22.882990428254448
 30
0.0
 11
14.29935475120411
 21
22.882990428254448
 31
0.0
  0
LINE
  5
4E7B
  8
OBJECT
 10
14.76735475120411
 20
23.237990428254449
 30
0.0
 11
14.29935475120411
 21
23.237990428254449
 31
0.0
  0
LINE
  5
4E7C
  8
OBJECT
 10
14.76735475120411
 20
23.117990428254451
 30
0.0
 11
14.29935475120411
 21
23.117990428254451
 31
0.0
  0
LINE
  5
4E7D
  8
OBJECT
 10
14.76735475120411
 20
23.472990428254441
 30
0.0
 11
14.29935475120411
 21
23.472990428254441
 31
0.0
  0
LINE
  5
4E7E
  8
OBJECT
 10
14.76735475120411
 20
23.35299042825444
 30
0.0
 11
14.29935475120411
 21
23.35299042825444
 31
0.0
  0
LINE
  5
4E7F
  8
OBJECT
 10
14.316354751204109
 20
22.882990428254441
 30
0.0
 11
14.316354751204109
 21
23.002990428254439
 31
0.0
  0
LINE
  5
4E80
  8
OBJECT
 10
14.316354751204109
 20
23.117990428254451
 30
0.0
 11
14.316354751204109
 21
23.237990428254449
 31
0.0
  0
LINE
  5
4E81
  8
OBJECT
 10
14.316354751204109
 20
23.35299042825444
 30
0.0
 11
14.316354751204109
 21
23.472990428254441
 31
0.0
  0
LINE
  5
4E82
  8
OBJECT
 10
14.76735475120411
 20
22.882990428254448
 30
0.0
 11
14.76735475120411
 21
23.002990428254439
 31
0.0
  0
LINE
  5
4E83
  8
OBJECT
 10
14.76735475120411
 20
23.117990428254451
 30
0.0
 11
14.76735475120411
 21
23.237990428254449
 31
0.0
  0
LINE
  5
4E84
  8
OBJECT
 10
14.76735475120411
 20
23.35299042825444
 30
0.0
 11
14.76735475120411
 21
23.472990428254441
 31
0.0
  0
LINE
  5
4E85
  8
OBJECT
 10
14.76735475120411
 20
23.70799042825444
 30
0.0
 11
14.29935475120411
 21
23.70799042825444
 31
0.0
  0
LINE
  5
4E86
  8
OBJECT
 10
14.76735475120411
 20
23.58799042825445
 30
0.0
 11
14.29935475120411
 21
23.58799042825445
 31
0.0
  0
LINE
  5
4E87
  8
OBJECT
 10
14.76735475120411
 20
23.94299042825444
 30
0.0
 11
14.29935475120411
 21
23.94299042825444
 31
0.0
  0
LINE
  5
4E88
  8
OBJECT
 10
14.76735475120411
 20
23.82299042825445
 30
0.0
 11
14.29935475120411
 21
23.82299042825445
 31
0.0
  0
LINE
  5
4E89
  8
OBJECT
 10
14.76735475120411
 20
24.177990428254439
 30
0.0
 11
14.29935475120411
 21
24.177990428254439
 31
0.0
  0
LINE
  5
4E8A
  8
OBJECT
 10
14.76735475120411
 20
24.057990428254438
 30
0.0
 11
14.29935475120411
 21
24.057990428254438
 31
0.0
  0
LINE
  5
4E8B
  8
OBJECT
 10
14.76735475120411
 20
24.292990428254441
 30
0.0
 11
14.29935475120411
 21
24.292990428254441
 31
0.0
  0
LINE
  5
4E8C
  8
OBJECT
 10
14.316354751204109
 20
23.82299042825445
 30
0.0
 11
14.316354751204109
 21
23.94299042825444
 31
0.0
  0
LINE
  5
4E8D
  8
OBJECT
 10
14.316354751204109
 20
23.58799042825445
 30
0.0
 11
14.316354751204109
 21
23.70799042825444
 31
0.0
  0
LINE
  5
4E8E
  8
OBJECT
 10
14.316354751204109
 20
24.057990428254438
 30
0.0
 11
14.316354751204109
 21
24.177990428254439
 31
0.0
  0
LINE
  5
4E8F
  8
OBJECT
 10
14.76735475120411
 20
23.82299042825445
 30
0.0
 11
14.76735475120411
 21
23.94299042825444
 31
0.0
  0
LINE
  5
4E90
  8
OBJECT
 10
14.76735475120411
 20
23.58799042825445
 30
0.0
 11
14.76735475120411
 21
23.70799042825444
 31
0.0
  0
LINE
  5
4E91
  8
OBJECT
 10
14.76735475120411
 20
24.057990428254438
 30
0.0
 11
14.76735475120411
 21
24.177990428254439
 31
0.0
  0
LINE
  5
4E92
  8
OBJECT
 10
14.316354751204109
 20
26.437990428254441
 30
0.0
 11
14.316354751204109
 21
25.937990428254452
 31
0.0
  0
LINE
  5
4E93
  8
OBJECT
 10
14.76735475120411
 20
26.437990428254452
 30
0.0
 11
14.76735475120411
 21
25.937990428254452
 31
0.0
  0
LINE
  5
4E94
  8
OBJECT
 10
14.76735475120411
 20
24.412990428254439
 30
0.0
 11
14.29935475120411
 21
24.412990428254439
 31
0.0
  0
LINE
  5
4E95
  8
OBJECT
 10
14.76735475120411
 20
24.647990428254449
 30
0.0
 11
14.29935475120411
 21
24.647990428254449
 31
0.0
  0
LINE
  5
4E96
  8
OBJECT
 10
14.76735475120411
 20
24.527990428254451
 30
0.0
 11
14.29935475120411
 21
24.527990428254451
 31
0.0
  0
LINE
  5
4E97
  8
OBJECT
 10
14.76735475120411
 20
24.882990428254448
 30
0.0
 11
14.29935475120411
 21
24.882990428254448
 31
0.0
  0
LINE
  5
4E98
  8
OBJECT
 10
14.76735475120411
 20
24.762990428254451
 30
0.0
 11
14.29935475120411
 21
24.762990428254451
 31
0.0
  0
LINE
  5
4E99
  8
OBJECT
 10
14.76735475120411
 20
25.117990428254451
 30
0.0
 11
14.29935475120411
 21
25.117990428254451
 31
0.0
  0
LINE
  5
4E9A
  8
OBJECT
 10
14.76735475120411
 20
24.99799042825445
 30
0.0
 11
14.29935475120411
 21
24.99799042825445
 31
0.0
  0
LINE
  5
4E9B
  8
OBJECT
 10
14.316354751204109
 20
24.527990428254451
 30
0.0
 11
14.316354751204109
 21
24.647990428254449
 31
0.0
  0
LINE
  5
4E9C
  8
OBJECT
 10
14.316354751204109
 20
24.76299042825444
 30
0.0
 11
14.316354751204109
 21
24.882990428254448
 31
0.0
  0
LINE
  5
4E9D
  8
OBJECT
 10
14.316354751204109
 20
24.99799042825444
 30
0.0
 11
14.316354751204109
 21
25.117990428254451
 31
0.0
  0
LINE
  5
4E9E
  8
OBJECT
 10
14.76735475120411
 20
24.527990428254451
 30
0.0
 11
14.76735475120411
 21
24.647990428254449
 31
0.0
  0
LINE
  5
4E9F
  8
OBJECT
 10
14.76735475120411
 20
24.762990428254451
 30
0.0
 11
14.76735475120411
 21
24.882990428254448
 31
0.0
  0
LINE
  5
4EA0
  8
OBJECT
 10
14.76735475120411
 20
24.99799042825445
 30
0.0
 11
14.76735475120411
 21
25.117990428254451
 31
0.0
  0
LINE
  5
4EA1
  8
OBJECT
 10
14.76735475120411
 20
25.352990428254451
 30
0.0
 11
14.29935475120411
 21
25.352990428254451
 31
0.0
  0
LINE
  5
4EA2
  8
OBJECT
 10
14.76735475120411
 20
25.23299042825445
 30
0.0
 11
14.29935475120411
 21
25.23299042825445
 31
0.0
  0
LINE
  5
4EA3
  8
OBJECT
 10
14.76735475120411
 20
25.58799042825445
 30
0.0
 11
14.29935475120411
 21
25.58799042825445
 31
0.0
  0
LINE
  5
4EA4
  8
OBJECT
 10
14.76735475120411
 20
25.467990428254449
 30
0.0
 11
14.29935475120411
 21
25.467990428254449
 31
0.0
  0
LINE
  5
4EA5
  8
OBJECT
 10
14.76735475120411
 20
25.82299042825445
 30
0.0
 11
14.29935475120411
 21
25.82299042825445
 31
0.0
  0
LINE
  5
4EA6
  8
OBJECT
 10
14.76735475120411
 20
25.702990428254449
 30
0.0
 11
14.29935475120411
 21
25.702990428254449
 31
0.0
  0
LINE
  5
4EA7
  8
OBJECT
 10
14.76735475120411
 20
25.937990428254452
 30
0.0
 11
14.29935475120411
 21
25.937990428254452
 31
0.0
  0
LINE
  5
4EA8
  8
OBJECT
 10
14.316354751204109
 20
25.467990428254449
 30
0.0
 11
14.316354751204109
 21
25.58799042825445
 31
0.0
  0
LINE
  5
4EA9
  8
OBJECT
 10
14.316354751204109
 20
25.23299042825445
 30
0.0
 11
14.316354751204109
 21
25.352990428254451
 31
0.0
  0
LINE
  5
4EAA
  8
OBJECT
 10
14.316354751204109
 20
25.702990428254449
 30
0.0
 11
14.316354751204109
 21
25.82299042825445
 31
0.0
  0
LINE
  5
4EAB
  8
OBJECT
 10
14.76735475120411
 20
25.467990428254449
 30
0.0
 11
14.76735475120411
 21
25.58799042825445
 31
0.0
  0
LINE
  5
4EAC
  8
OBJECT
 10
14.76735475120411
 20
25.23299042825445
 30
0.0
 11
14.76735475120411
 21
25.352990428254451
 31
0.0
  0
LINE
  5
4EAD
  8
OBJECT
 10
14.76735475120411
 20
25.702990428254449
 30
0.0
 11
14.76735475120411
 21
25.82299042825445
 31
0.0
  0
LINE
  5
4EAE
  8
OBJECT
 10
14.29935475120411
 20
26.692490428254441
 30
0.0
 11
15.8743547512041
 21
26.692490428254452
 31
0.0
  0
LINE
  5
4EAF
  8
OBJECT
 10
14.76735475120411
 20
26.437990428254452
 30
0.0
 11
14.29935475120411
 21
26.437990428254441
 31
0.0
  0
LINE
  5
4EB0
  8
OBJECT
 10
14.76735475120411
 20
26.437990428254441
 30
0.0
 11
14.29935475120411
 21
26.437990428254441
 31
0.0
  0
LINE
  5
4EB1
  8
CENTER
 10
5.9299967701608756
 20
21.180490428254451
 30
0.0
 11
6.1099967701608762
 21
21.180490428254451
 31
0.0
  0
LINE
  5
4EB2
  8
CENTER
 10
6.0199967701608763
 20
21.090490428254441
 30
0.0
 11
6.0199967701608763
 21
21.27049042825444
 31
0.0
  0
CIRCLE
  5
4EB3
  8
OBJECT
 10
2.574996770160876
 20
16.160490428254441
 30
0.0
 40
0.148
  0
CIRCLE
  5
4EB4
  8
OBJECT
 10
9.464996770160873
 20
16.160490428254441
 30
0.0
 40
0.148
  0
CIRCLE
  5
4EB5
  8
HIDDEN
 10
9.464996770160873
 20
26.200490428254451
 30
0.0
 40
0.148
  0
CIRCLE
  5
4EB6
  8
HIDDEN
 10
2.574996770160872
 20
26.20049042825444
 30
0.0
 40
0.148
  0
LINE
  5
4EB7
  8
OBJECT
 10
9.8369967701608712
 20
15.73349042825445
 30
0.0
 11
2.2029967701608761
 21
15.73349042825444
 31
0.0
  0
LINE
  5
4EB8
  8
OBJECT
 10
9.8369967701608712
 20
15.828490428254449
 30
0.0
 11
2.2029967701608761
 21
15.828490428254449
 31
0.0
  0
LINE
  5
4EB9
  8
OBJECT
 10
9.8969967701608752
 20
15.873490428254449
 30
0.0
 11
2.142996770160873
 21
15.873490428254449
 31
0.0
  0
POLYLINE
  5
4EBA
  8
OBJECT
 66
     1
 10
0.0
 20
0.0
 30
0.0
  0
VERTEX
  5
6B62
  8
OBJECT
 10
2.2029967701608761
 20
22.116490428254451
 30
0.0
  0
VERTEX
  5
6B63
  8
OBJECT
 10
2.257996770160875
 20
22.116490428254451
 30
0.0
  0
VERTEX
  5
6B64
  8
OBJECT
 10
2.257996770160875
 20
22.056490428254449
 30
0.0
  0
VERTEX
  5
6B65
  8
OBJECT
 10
2.2029967701608761
 20
22.056490428254449
 30
0.0
  0
SEQEND
  5
6B66
  8
OBJECT
  0
POLYLINE
  5
4EBB
  8
OBJECT
 66
     1
 10
0.0
 20
0.0
 30
0.0
  0
VERTEX
  5
6B67
  8
OBJECT
 10
2.2029967701608761
 20
21.898490428254451
 30
0.0
  0
VERTEX
  5
6B68
  8
OBJECT
 10
2.257996770160875
 20
21.898490428254441
 30
0.0
  0
VERTEX
  5
6B69
  8
OBJECT
 10
2.257996770160875
 20
21.958490428254439
 30
0.0
  0
VERTEX
  5
6B6A
  8
OBJECT
 10
2.2029967701608761
 20
21.958490428254439
 30
0.0
  0
SEQEND
  5
6B6B
  8
OBJECT
  0
POLYLINE
  5
4EBC
  8
OBJECT
 66
     1
 10
0.0
 20
0.0
 30
0.0
  0
VERTEX
  5
6B6C
  8
OBJECT
 10
9.8369967701608712
 20
22.116490428254451
 30
0.0
  0
VERTEX
  5
6B6D
  8
OBJECT
 10
9.7819967701608732
 20
22.116490428254451
 30
0.0
  0
VERTEX
  5
6B6E
  8
OBJECT
 10
9.7819967701608732
 20
22.056490428254449
 30
0.0
  0
VERTEX
  5
6B6F
  8
OBJECT
 10
9.8369967701608712
 20
22.056490428254449
 30
0.0
  0
SEQEND
  5
6B70
  8
OBJECT
  0
POLYLINE
  5
4EBD
  8
OBJECT
 66
     1
 10
0.0
 20
0.0
 30
0.0
  0
VERTEX
  5
6B71
  8
OBJECT
 10
9.8369967701608712
 20
21.898490428254451
 30
0.0
  0
VERTEX
  5
6B72
  8
OBJECT
 10
9.7819967701608732
 20
21.898490428254441
 30
0.0
  0
VERTEX
  5
6B73
  8
OBJECT
 10
9.7819967701608732
 20
21.958490428254439
 30
0.0
  0
VERTEX
  5
6B74
  8
OBJECT
 10
9.8369967701608712
 20
21.958490428254439
 30
0.0
  0
SEQEND
  5
6B75
  8
OBJECT
  0
LINE
  5
4EBE
  8
OBJECT
 10
9.8369967701608712
 20
15.73349042825445
 30
0.0
 11
9.8369967701608712
 21
22.568358277347869
 31
0.0
  0
LINE
  5
4EBF
  8
HIDDEN
 10
2.2029967701608761
 20
26.62749042825445
 30
0.0
 11
2.2029967701608761
 21
22.585894391492221
 31
0.0
  0
LINE
  5
4EC0
  8
HIDDEN
 10
9.8369967701608712
 20
26.532490428254452
 30
0.0
 11
2.2029967701608761
 21
26.532490428254452
 31
0.0
  0
LINE
  5
4EC1
  8
HIDDEN
 10
9.8969967701608752
 20
26.48749042825445
 30
0.0
 11
2.142996770160873
 21
26.48749042825445
 31
0.0
  0
LINE
  5
4EC2
  8
HIDDEN
 10
9.8369967701608712
 20
26.62749042825445
 30
0.0
 11
2.2029967701608761
 21
26.62749042825445
 31
0.0
  0
LINE
  5
4EC3
  8
HIDDEN
 10
14.407854751204111
 20
26.62749042825444
 30
0.0
 11
15.76585475120411
 21
26.62749042825444
 31
0.0
  0
LINE
  5
4EC4
  8
HIDDEN
 10
14.407854751204111
 20
26.532490428254452
 30
0.0
 11
15.76585475120411
 21
26.532490428254452
 31
0.0
  0
LINE
  5
4EC5
  8
HIDDEN
 10
14.419354751204111
 20
26.487490428254439
 30
0.0
 11
15.75435475120411
 21
26.487490428254439
 31
0.0
  0
LINE
  5
4EC6
  8
HIDDEN
 10
15.75435475120411
 20
26.487490428254439
 30
0.0
 11
15.75435475120411
 21
15.873490428254449
 31
0.0
  0
LINE
  5
4EC7
  8
HIDDEN
 10
15.76585475120411
 20
26.532490428254452
 30
0.0
 11
15.76585475120411
 21
26.62749042825444
 31
0.0
  0
LINE
  5
4EC8
  8
HIDDEN
 10
15.694354751204109
 20
26.532490428254452
 30
0.0
 11
15.694354751204109
 21
26.487490428254439
 31
0.0
  0
LINE
  5
4EC9
  8
HIDDEN
 10
15.694354751204109
 20
26.62749042825444
 30
0.0
 11
15.74435475120411
 21
26.692490428254452
 31
0.0
  0
LINE
  5
4ECA
  8
HIDDEN
 10
14.407854751204111
 20
26.532490428254452
 30
0.0
 11
14.407854751204111
 21
26.62749042825444
 31
0.0
  0
LINE
  5
4ECB
  8
HIDDEN
 10
14.419354751204111
 20
26.487490428254439
 30
0.0
 11
14.419354751204111
 21
15.873490428254449
 31
0.0
  0
LINE
  5
4ECC
  8
HIDDEN
 10
14.419354751204111
 20
15.873490428254449
 30
0.0
 11
15.75435475120411
 21
15.873490428254449
 31
0.0
  0
LINE
  5
4ECD
  8
HIDDEN
 10
14.407854751204111
 20
15.82849042825444
 30
0.0
 11
15.76585475120411
 21
15.82849042825444
 31
0.0
  0
LINE
  5
4ECE
  8
HIDDEN
 10
14.407854751204111
 20
15.73349042825444
 30
0.0
 11
15.76585475120411
 21
15.73349042825444
 31
0.0
  0
LINE
  5
4ECF
  8
HIDDEN
 10
15.76585475120411
 20
15.82849042825444
 30
0.0
 11
15.76585475120411
 21
15.73349042825444
 31
0.0
  0
LINE
  5
4ED0
  8
HIDDEN
 10
14.407854751204111
 20
15.82849042825444
 30
0.0
 11
14.407854751204111
 21
15.73349042825444
 31
0.0
  0
POLYLINE
  5
4ED1
  8
HIDDEN
 66
     1
 10
0.0
 20
0.0
 30
0.0
  0
VERTEX
  5
6B76
  8
HIDDEN
 10
15.75435475120411
 20
20.462490428254441
 30
0.0
  0
VERTEX
  5
6B77
  8
HIDDEN
 10
15.1153547512041
 20
20.462490428254451
 30
0.0
  0
VERTEX
  5
6B78
  8
HIDDEN
 10
15.1153547512041
 20
20.402490428254449
 30
0.0
  0
VERTEX
  5
6B79
  8
HIDDEN
 10
15.75435475120411
 20
20.402490428254438
 30
0.0
  0
SEQEND
  5
6B7A
  8
HIDDEN
  0
POLYLINE
  5
4ED2
  8
HIDDEN
 66
     1
 10
0.0
 20
0.0
 30
0.0
  0
VERTEX
  5
6B7B
  8
HIDDEN
 10
15.75435475120411
 20
20.244490428254451
 30
0.0
  0
VERTEX
  5
6B7C
  8
HIDDEN
 10
15.1153547512041
 20
20.244490428254451
 30
0.0
  0
VERTEX
  5
6B7D
  8
HIDDEN
 10
15.1153547512041
 20
20.30449042825445
 30
0.0
  0
VERTEX
  5
6B7E
  8
HIDDEN
 10
15.75435475120411
 20
20.304490428254439
 30
0.0
  0
SEQEND
  5
6B7F
  8
HIDDEN
  0
POLYLINE
  5
4ED3
  8
HIDDEN
 66
     1
 10
0.0
 20
0.0
 30
0.0
  0
VERTEX
  5
6B80
  8
HIDDEN
 10
14.419354751204111
 20
20.462490428254441
 30
0.0
  0
VERTEX
  5
6B81
  8
HIDDEN
 10
15.05835475120411
 20
20.462490428254451
 30
0.0
  0
VERTEX
  5
6B82
  8
HIDDEN
 10
15.05835475120411
 20
20.402490428254449
 30
0.0
  0
VERTEX
  5
6B83
  8
HIDDEN
 10
14.419354751204111
 20
20.402490428254438
 30
0.0
  0
SEQEND
  5
6B84
  8
HIDDEN
  0
POLYLINE
  5
4ED4
  8
HIDDEN
 66
     1
 10
0.0
 20
0.0
 30
0.0
  0
VERTEX
  5
6B85
  8
HIDDEN
 10
14.419354751204111
 20
20.244490428254451
 30
0.0
  0
VERTEX
  5
6B86
  8
HIDDEN
 10
15.05835475120411
 20
20.244490428254451
 30
0.0
  0
VERTEX
  5
6B87
  8
HIDDEN
 10
15.05835475120411
 20
20.30449042825445
 30
0.0
  0
VERTEX
  5
6B88
  8
HIDDEN
 10
14.419354751204111
 20
20.304490428254439
 30
0.0
  0
SEQEND
  5
6B89
  8
HIDDEN
  0
POLYLINE
  5
4ED5
  8
HIDDEN
 66
     1
 10
0.0
 20
0.0
 30
0.0
  0
VERTEX
  5
6B8A
  8
HIDDEN
 10
15.75435475120411
 20
20.19649042825445
 30
0.0
  0
VERTEX
  5
6B8B
  8
HIDDEN
 10
15.5983547512041
 20
20.19649042825445
 30
0.0
  0
VERTEX
  5
6B8C
  8
HIDDEN
 10
15.5983547512041
 20
20.412490428254451
 30
0.0
  0
VERTEX
  5
6B8D
  8
HIDDEN
 10
15.75435475120411
 20
20.412490428254451
 30
0.0
  0
SEQEND
  5
6B8E
  8
HIDDEN
  0
LINE
  5
4ED6
  8
HIDDEN
 10
15.5983547512041
 20
20.259490428254448
 30
0.0
 11
15.75435475120411
 21
20.259490428254448
 31
0.0
  0
LINE
  5
4ED7
  8
HIDDEN
 10
15.5983547512041
 20
20.349490428254452
 30
0.0
 11
15.75435475120411
 21
20.349490428254452
 31
0.0
  0
POLYLINE
  5
4ED8
  8
HIDDEN
 66
     1
 10
0.0
 20
0.0
 30
0.0
  0
VERTEX
  5
6B8F
  8
HIDDEN
 10
14.419354751204111
 20
20.19649042825445
 30
0.0
  0
VERTEX
  5
6B90
  8
HIDDEN
 10
14.57535475120411
 20
20.19649042825445
 30
0.0
  0
VERTEX
  5
6B91
  8
HIDDEN
 10
14.57535475120411
 20
20.412490428254451
 30
0.0
  0
VERTEX
  5
6B92
  8
HIDDEN
 10
14.419354751204111
 20
20.412490428254451
 30
0.0
  0
SEQEND
  5
6B93
  8
HIDDEN
  0
LINE
  5
4ED9
  8
HIDDEN
 10
14.57535475120411
 20
20.259490428254448
 30
0.0
 11
14.419354751204111
 21
20.259490428254448
 31
0.0
  0
LINE
  5
4EDA
  8
HIDDEN
 10
14.57535475120411
 20
20.349490428254452
 30
0.0
 11
14.419354751204111
 21
20.349490428254452
 31
0.0
  0
CIRCLE
  5
4EDB
  8
OBJECT
 10
2.574996770160876
 20
16.160490428254441
 30
0.0
 40
0.045
  0
POLYLINE
  5
4EDC
  8
HIDDEN
 66
     1
 10
0.0
 20
0.0
 30
0.0
  0
VERTEX
  5
6B94
  8
HIDDEN
 10
15.08335475120411
 20
26.245490428254438
 30
0.0
  0
VERTEX
  5
6B95
  8
HIDDEN
 10
14.3653547512041
 20
26.245490428254438
 30
0.0
  0
VERTEX
  5
6B96
  8
HIDDEN
 10
14.3653547512041
 20
26.155490428254449
 30
0.0
  0
VERTEX
  5
6B97
  8
HIDDEN
 10
15.08335475120411
 20
26.155490428254449
 30
0.0
  0
SEQEND
  5
6B98
  8
HIDDEN
  0
POLYLINE
  5
4EDD
  8
HIDDEN
 66
     1
 10
0.0
 20
0.0
 30
0.0
  0
VERTEX
  5
6B99
  8
HIDDEN
 10
14.419354751204111
 20
26.052490428254451
 30
0.0
  0
VERTEX
  5
6B9A
  8
HIDDEN
 10
15.08335475120411
 20
26.052490428254451
 30
0.0
  0
VERTEX
  5
6B9B
  8
HIDDEN
 10
15.08335475120411
 20
26.348490428254451
 30
0.0
  0
VERTEX
  5
6B9C
  8
HIDDEN
 10
14.419354751204111
 20
26.348490428254451
 30
0.0
  0
SEQEND
  5
6B9D
  8
HIDDEN
  0
POLYLINE
  5
4EDE
  8
HIDDEN
 66
     1
 10
0.0
 20
0.0
 30
0.0
  0
VERTEX
  5
6B9E
  8
HIDDEN
 10
15.75435475120411
 20
26.052490428254451
 30
0.0
  0
VERTEX
  5
6B9F
  8
HIDDEN
 10
15.09035475120411
 20
26.052490428254451
 30
0.0
  0
VERTEX
  5
6BA0
  8
HIDDEN
 10
15.09035475120411
 20
26.348490428254451
 30
0.0
  0
VERTEX
  5
6BA1
  8
HIDDEN
 10
15.75435475120411
 20
26.348490428254451
 30
0.0
  0
SEQEND
  5
6BA2
  8
HIDDEN
  0
LINE
  5
4EDF
  8
HIDDEN
 10
15.684354751204109
 20
26.13549042825445
 30
0.0
 11
15.09035475120411
 21
26.13549042825445
 31
0.0
  0
LINE
  5
4EE0
  8
HIDDEN
 10
15.684354751204109
 20
26.265490428254449
 30
0.0
 11
15.09035475120411
 21
26.265490428254449
 31
0.0
  0
POLYLINE
  5
4EE1
  8
HIDDEN
 66
     1
 10
0.0
 20
0.0
 30
0.0
  0
VERTEX
  5
6BA3
  8
HIDDEN
 10
15.8743547512041
 20
26.315490428254449
 30
0.0
  0
VERTEX
  5
6BA4
  8
HIDDEN
 10
15.684354751204109
 20
26.315490428254449
 30
0.0
  0
VERTEX
  5
6BA5
  8
HIDDEN
 10
15.684354751204109
 20
26.085490428254442
 30
0.0
  0
VERTEX
  5
6BA6
  8
HIDDEN
 10
15.8743547512041
 20
26.085490428254442
 30
0.0
  0
SEQEND
  5
6BA7
  8
HIDDEN
  0
CIRCLE
  5
4EE2
  8
HIDDEN
 10
2.574996770160872
 20
26.20049042825444
 30
0.0
 40
0.045
  0
CIRCLE
  5
4EE3
  8
HIDDEN
 10
9.464996770160873
 20
26.200490428254451
 30
0.0
 40
0.045
  0
CIRCLE
  5
4EE4
  8
OBJECT
 10
9.464996770160873
 20
16.160490428254441
 30
0.0
 40
0.045
  0
POLYLINE
  5
4EE5
  8
HIDDEN
 66
     1
 10
0.0
 20
0.0
 30
0.0
  0
VERTEX
  5
6BA8
  8
HIDDEN
 10
15.75435475120411
 20
16.012490428254448
 30
0.0
  0
VERTEX
  5
6BA9
  8
HIDDEN
 10
15.09035475120411
 20
16.012490428254448
 30
0.0
  0
VERTEX
  5
6BAA
  8
HIDDEN
 10
15.09035475120411
 20
16.308490428254451
 30
0.0
  0
VERTEX
  5
6BAB
  8
HIDDEN
 10
15.75435475120411
 20
16.308490428254451
 30
0.0
  0
SEQEND
  5
6BAC
  8
HIDDEN
  0
LINE
  5
4EE6
  8
HIDDEN
 10
15.684354751204109
 20
16.225490428254449
 30
0.0
 11
15.09035475120411
 21
16.225490428254449
 31
0.0
  0
LINE
  5
4EE7
  8
HIDDEN
 10
15.684354751204109
 20
16.09549042825445
 30
0.0
 11
15.09035475120411
 21
16.09549042825445
 31
0.0
  0
POLYLINE
  5
4EE8
  8
HIDDEN
 66
     1
 10
0.0
 20
0.0
 30
0.0
  0
VERTEX
  5
6BAD
  8
HIDDEN
 10
14.419354751204111
 20
16.012490428254448
 30
0.0
  0
VERTEX
  5
6BAE
  8
HIDDEN
 10
15.08335475120411
 20
16.012490428254448
 30
0.0
  0
VERTEX
  5
6BAF
  8
HIDDEN
 10
15.08335475120411
 20
16.308490428254451
 30
0.0
  0
VERTEX
  5
6BB0
  8
HIDDEN
 10
14.419354751204111
 20
16.308490428254451
 30
0.0
  0
SEQEND
  5
6BB1
  8
HIDDEN
  0
POLYLINE
  5
4EE9
  8
HIDDEN
 66
     1
 10
0.0
 20
0.0
 30
0.0
  0
VERTEX
  5
6BB2
  8
HIDDEN
 10
15.08335475120411
 20
16.205490428254439
 30
0.0
  0
VERTEX
  5
6BB3
  8
HIDDEN
 10
14.3653547512041
 20
16.205490428254439
 30
0.0
  0
VERTEX
  5
6BB4
  8
HIDDEN
 10
14.3653547512041
 20
16.11549042825445
 30
0.0
  0
VERTEX
  5
6BB5
  8
HIDDEN
 10
15.08335475120411
 20
16.11549042825445
 30
0.0
  0
SEQEND
  5
6BB6
  8
HIDDEN
  0
POLYLINE
  5
4EEA
  8
HIDDEN
 66
     1
 10
0.0
 20
0.0
 30
0.0
  0
VERTEX
  5
6BB7
  8
HIDDEN
 10
15.8743547512041
 20
16.27549042825445
 30
0.0
  0
VERTEX
  5
6BB8
  8
HIDDEN
 10
15.684354751204109
 20
16.27549042825445
 30
0.0
  0
VERTEX
  5
6BB9
  8
HIDDEN
 10
15.684354751204109
 20
16.04549042825445
 30
0.0
  0
VERTEX
  5
6BBA
  8
HIDDEN
 10
15.8743547512041
 20
16.04549042825445
 30
0.0
  0
SEQEND
  5
6BBB
  8
HIDDEN
  0
LINE
  5
4EEB
  8
HIDDEN
 10
2.142996770160873
 20
26.48749042825445
 30
0.0
 11
2.142996770160873
 21
22.590098733449231
 31
0.0
  0
LINE
  5
4EEC
  8
OBJECT
 10
9.8969967701608752
 20
15.873490428254449
 30
0.0
 11
9.8969967701608752
 21
22.568023274237429
 31
0.0
  0
POLYLINE
  5
4EED
  8
HIDDEN
 66
     1
 10
0.0
 20
0.0
 30
0.0
  0
VERTEX
  5
6BBC
  8
HIDDEN
 10
9.8369967701608712
 20
26.46749042825445
 30
0.0
  0
VERTEX
  5
6BBD
  8
HIDDEN
 10
9.8874684401744233
 20
26.46749042825445
 30
0.0
  0
VERTEX
  5
6BBE
  8
HIDDEN
 10
9.8874684401744233
 20
22.56802271011793
 30
0.0
  0
SEQEND
  5
6BBF
  8
HIDDEN
  0
POLYLINE
  5
4EEE
  8
HIDDEN
 66
     1
 10
0.0
 20
0.0
 30
0.0
  0
VERTEX
  5
6BC0
  8
HIDDEN
 10
2.2029967701608761
 20
26.46749042825445
 30
0.0
  0
VERTEX
  5
6BC1
  8
HIDDEN
 10
2.1525251001473289
 20
26.46749042825445
 30
0.0
  0
VERTEX
  5
6BC2
  8
HIDDEN
 10
2.1525251001473289
 20
22.58932260797868
 30
0.0
  0
SEQEND
  5
6BC3
  8
HIDDEN
  0
LINE
  5
4EEF
  8
HIDDEN
 10
15.19635475120411
 20
15.873490428254449
 30
0.0
 11
15.196354751204121
 21
26.487490428254439
 31
0.0
  0
POLYLINE
  5
4EF0
  8
HIDDEN
 66
     1
 10
0.0
 20
0.0
 30
0.0
  0
VERTEX
  5
6BC4
  8
HIDDEN
 10
15.10635475120411
 20
15.89349042825445
 30
0.0
  0
VERTEX
  5
6BC5
  8
HIDDEN
 10
15.19335475120412
 20
15.89349042825445
 30
0.0
  0
VERTEX
  5
6BC6
  8
HIDDEN
 10
15.19335475120412
 20
26.46749042825445
 30
0.0
  0
VERTEX
  5
6BC7
  8
HIDDEN
 10
15.106354751204121
 20
26.46749042825445
 30
0.0
  0
SEQEND
  5
6BC8
  8
HIDDEN
  0
POLYLINE
  5
4EF1
  8
HIDDEN
 66
     1
 10
0.0
 20
0.0
 30
0.0
  0
VERTEX
  5
6BC9
  8
HIDDEN
 10
2.2011175482885861
 20
11.159901602866441
 30
0.0
  0
VERTEX
  5
6BCA
  8
HIDDEN
 10
2.196558071490962
 20
11.246901602866441
 30
0.0
  0
VERTEX
  5
6BCB
  8
HIDDEN
 10
2.1525251001473289
 20
11.246901602866441
 30
0.0
  0
VERTEX
  5
6BCC
  8
HIDDEN
 10
2.1525251001473289
 20
11.159901602866441
 30
0.0
  0
SEQEND
  5
6BCD
  8
HIDDEN
  0
POLYLINE
  5
4EF2
  8
HIDDEN
 66
     1
 10
0.0
 20
0.0
 30
0.0
  0
VERTEX
  5
6BCE
  8
HIDDEN
 10
2.142996770160873
 20
11.159901602866441
 30
0.0
  0
VERTEX
  5
6BCF
  8
HIDDEN
 10
2.142996770160873
 20
11.249901602866441
 30
0.0
  0
VERTEX
  5
6BD0
  8
HIDDEN
 10
2.2078781518161001
 20
11.249901602866441
 30
0.0
  0
SEQEND
  5
6BD1
  8
HIDDEN
  0
POLYLINE
  5
4EF3
  8
HIDDEN
 66
     1
 10
0.0
 20
0.0
 30
0.0
  0
VERTEX
  5
6BD2
  8
HIDDEN
 10
2.29148534112274
 20
11.80790160286643
 30
0.0
  0
VERTEX
  5
6BD3
  8
HIDDEN
 10
2.257996770160875
 20
11.168901602866431
 30
0.0
  0
VERTEX
  5
6BD4
  8
HIDDEN
 10
2.2036331216941738
 20
11.168901602866431
 30
0.0
  0
SEQEND
  5
6BD5
  8
HIDDEN
  0
POLYLINE
  5
4EF4
  8
HIDDEN
 66
     1
 10
0.0
 20
0.0
 30
0.0
  0
VERTEX
  5
6BD6
  8
HIDDEN
 10
2.2036331216941738
 20
11.11190160286643
 30
0.0
  0
VERTEX
  5
6BD7
  8
HIDDEN
 10
2.257996770160875
 20
11.11190160286643
 30
0.0
  0
VERTEX
  5
6BD8
  8
HIDDEN
 10
2.28734512655938
 20
10.47290160286644
 30
0.0
  0
SEQEND
  5
6BD9
  8
HIDDEN
  0
POLYLINE
  5
4EF5
  8
HIDDEN
 66
     1
 10
0.0
 20
0.0
 30
0.0
  0
VERTEX
  5
6BDA
  8
HIDDEN
 10
2.8609967701608729
 20
10.47290160286644
 30
0.0
  0
VERTEX
  5
6BDB
  8
HIDDEN
 10
2.8609967701608729
 20
10.62890160286644
 30
0.0
  0
VERTEX
  5
6BDC
  8
HIDDEN
 10
3.076996770160874
 20
10.62890160286644
 30
0.0
  0
VERTEX
  5
6BDD
  8
HIDDEN
 10
3.076996770160874
 20
10.47290160286644
 30
0.0
  0
SEQEND
  5
6BDE
  8
HIDDEN
  0
LINE
  5
4EF6
  8
HIDDEN
 10
2.9239967701608758
 20
10.62890160286644
 30
0.0
 11
2.9239967701608758
 21
10.47290160286644
 31
0.0
  0
LINE
  5
4EF7
  8
HIDDEN
 10
3.0139967701608761
 20
10.62890160286644
 30
0.0
 11
3.0139967701608761
 21
10.47290160286644
 31
0.0
  0
POLYLINE
  5
4EF8
  8
HIDDEN
 66
     1
 10
0.0
 20
0.0
 30
0.0
  0
VERTEX
  5
6BDF
  8
HIDDEN
 10
8.9629967701608706
 20
10.47290160286644
 30
0.0
  0
VERTEX
  5
6BE0
  8
HIDDEN
 10
8.9629967701608706
 20
10.62890160286644
 30
0.0
  0
VERTEX
  5
6BE1
  8
HIDDEN
 10
9.1789967701608717
 20
10.62890160286644
 30
0.0
  0
VERTEX
  5
6BE2
  8
HIDDEN
 10
9.1789967701608717
 20
10.47290160286644
 30
0.0
  0
SEQEND
  5
6BE3
  8
HIDDEN
  0
LINE
  5
4EF9
  8
HIDDEN
 10
9.0259967701608712
 20
10.62890160286644
 30
0.0
 11
9.0259967701608712
 21
10.47290160286644
 31
0.0
  0
LINE
  5
4EFA
  8
HIDDEN
 10
9.1159967701608764
 20
10.62890160286644
 30
0.0
 11
9.1159967701608764
 21
10.47290160286644
 31
0.0
  0
POLYLINE
  5
4EFB
  8
HIDDEN
 66
     1
 10
0.0
 20
0.0
 30
0.0
  0
VERTEX
  5
6BE4
  8
HIDDEN
 10
2.8609967701608729
 20
11.80790160286643
 30
0.0
  0
VERTEX
  5
6BE5
  8
HIDDEN
 10
2.8609967701608729
 20
11.651901602866429
 30
0.0
  0
VERTEX
  5
6BE6
  8
HIDDEN
 10
3.076996770160874
 20
11.651901602866429
 30
0.0
  0
VERTEX
  5
6BE7
  8
HIDDEN
 10
3.076996770160874
 20
11.80790160286643
 30
0.0
  0
SEQEND
  5
6BE8
  8
HIDDEN
  0
LINE
  5
4EFC
  8
HIDDEN
 10
2.9239967701608758
 20
11.651901602866429
 30
0.0
 11
2.9239967701608758
 21
11.80790160286643
 31
0.0
  0
LINE
  5
4EFD
  8
HIDDEN
 10
3.0139967701608761
 20
11.651901602866429
 30
0.0
 11
3.0139967701608761
 21
11.80790160286643
 31
0.0
  0
POLYLINE
  5
4EFE
  8
HIDDEN
 66
     1
 10
0.0
 20
0.0
 30
0.0
  0
VERTEX
  5
6BE9
  8
HIDDEN
 10
8.9629967701608706
 20
11.80790160286643
 30
0.0
  0
VERTEX
  5
6BEA
  8
HIDDEN
 10
8.9629967701608706
 20
11.651901602866429
 30
0.0
  0
VERTEX
  5
6BEB
  8
HIDDEN
 10
9.1789967701608717
 20
11.651901602866429
 30
0.0
  0
VERTEX
  5
6BEC
  8
HIDDEN
 10
9.1789967701608717
 20
11.80790160286643
 30
0.0
  0
SEQEND
  5
6BED
  8
HIDDEN
  0
LINE
  5
4EFF
  8
HIDDEN
 10
9.0259967701608712
 20
11.651901602866429
 30
0.0
 11
9.0259967701608712
 21
11.80790160286643
 31
0.0
  0
LINE
  5
4F00
  8
HIDDEN
 10
9.1159967701608764
 20
11.651901602866429
 30
0.0
 11
9.1159967701608764
 21
11.80790160286643
 31
0.0
  0
LINE
  5
4F01
  8
HIDDEN
 10
2.6399967701608791
 20
10.54290160286644
 30
0.0
 11
2.6399967701608791
 21
11.13690160286643
 31
0.0
  0
LINE
  5
4F02
  8
HIDDEN
 10
2.5099967701608801
 20
10.54290160286644
 30
0.0
 11
2.5099967701608801
 21
11.13690160286643
 31
0.0
  0
POLYLINE
  5
4F03
  8
HIDDEN
 66
     1
 10
0.0
 20
0.0
 30
0.0
  0
VERTEX
  5
6BEE
  8
HIDDEN
 10
2.4269967701608781
 20
10.47290160286644
 30
0.0
  0
VERTEX
  5
6BEF
  8
HIDDEN
 10
2.4269967701608781
 20
11.13690160286643
 30
0.0
  0
VERTEX
  5
6BF0
  8
HIDDEN
 10
2.722996770160877
 20
11.13690160286643
 30
0.0
  0
VERTEX
  5
6BF1
  8
HIDDEN
 10
2.722996770160877
 20
10.47290160286644
 30
0.0
  0
SEQEND
  5
6BF2
  8
HIDDEN
  0
POLYLINE
  5
4F04
  8
HIDDEN
 66
     1
 10
0.0
 20
0.0
 30
0.0
  0
VERTEX
  5
6BF3
  8
HIDDEN
 10
2.6899967701608789
 20
10.35290160286644
 30
0.0
  0
VERTEX
  5
6BF4
  8
HIDDEN
 10
2.6899967701608789
 20
10.54290160286644
 30
0.0
  0
VERTEX
  5
6BF5
  8
HIDDEN
 10
2.4599967701608789
 20
10.54290160286644
 30
0.0
  0
VERTEX
  5
6BF6
  8
HIDDEN
 10
2.4599967701608789
 20
10.35290160286644
 30
0.0
  0
SEQEND
  5
6BF7
  8
HIDDEN
  0
POLYLINE
  5
4F05
  8
HIDDEN
 66
     1
 10
0.0
 20
0.0
 30
0.0
  0
VERTEX
  5
6BF8
  8
HIDDEN
 10
2.4269967701608781
 20
11.80790160286643
 30
0.0
  0
VERTEX
  5
6BF9
  8
HIDDEN
 10
2.4269967701608781
 20
11.14390160286643
 30
0.0
  0
VERTEX
  5
6BFA
  8
HIDDEN
 10
2.722996770160877
 20
11.14390160286643
 30
0.0
  0
VERTEX
  5
6BFB
  8
HIDDEN
 10
2.722996770160877
 20
11.80790160286643
 30
0.0
  0
SEQEND
  5
6BFC
  8
HIDDEN
  0
POLYLINE
  5
4F06
  8
HIDDEN
 66
     1
 10
0.0
 20
0.0
 30
0.0
  0
VERTEX
  5
6BFD
  8
HIDDEN
 10
2.6199967701608791
 20
11.14390160286643
 30
0.0
  0
VERTEX
  5
6BFE
  8
HIDDEN
 10
2.6199967701608791
 20
11.861901602866441
 30
0.0
  0
VERTEX
  5
6BFF
  8
HIDDEN
 10
2.5299967701608792
 20
11.861901602866441
 30
0.0
  0
VERTEX
  5
6C00
  8
HIDDEN
 10
2.5299967701608792
 20
11.14390160286643
 30
0.0
  0
SEQEND
  5
6C01
  8
HIDDEN
  0
LINE
  5
4F0A
  8
OBJECT
 10
2.1154982096360579
 20
11.780066012040329
 30
0.0
 11
2.0829967701608751
 21
11.159901602866441
 31
0.0
  0
LINE
  5
4F0B
  8
OBJECT
 10
2.0829967701608751
 20
11.159901602866441
 30
0.0
 11
2.2632437924405009
 21
11.15990160286643
 31
0.0
  0
LINE
  5
4F0C
  8
OBJECT
 10
2.1154982096360579
 20
10.50073719369253
 30
0.0
 11
2.0829967701608751
 21
11.12090160286643
 31
0.0
  0
LINE
  5
4F0D
  8
OBJECT
 10
2.0829967701608751
 20
11.12090160286643
 30
0.0
 11
2.2632437924405009
 21
11.12090160286643
 31
0.0
  0
LINE
  5
4F0E
  8
OBJECT
 10
15.10635475120411
 20
15.66849042825444
 30
0.0
 11
15.106354751204121
 21
26.692490428254452
 31
0.0
  0
LINE
  5
4F0F
  8
OBJECT
 10
2.2632437924405009
 20
11.12090160286643
 30
0.0
 11
2.2632437924405009
 21
11.15990160286643
 31
0.0
  0
LINE
  5
4F10
  8
OBJECT
 10
9.7459339736628223
 20
10.53290160286643
 30
0.0
 11
2.2940595666589298
 21
10.53290160286643
 31
0.0
  0
LINE
  5
4F11
  8
OBJECT
 10
2.2940595666589298
 20
10.53290160286643
 30
0.0
 11
2.2632437924405009
 21
11.12090160286643
 31
0.0
  0
LINE
  5
4F12
  8
OBJECT
 10
2.2940595666589298
 20
11.747901602866429
 30
0.0
 11
2.2632437924405009
 21
11.15990160286643
 31
0.0
  0
LINE
  5
4F13
  8
OBJECT
 10
9.7459339736628223
 20
11.747901602866429
 30
0.0
 11
2.2940595666589298
 21
11.747901602866429
 31
0.0
  0
LINE
  5
4F14
  8
OBJECT
 10
9.7687091232639744
 20
11.79790160286643
 30
0.0
 11
2.2712844170577711
 21
11.79790160286643
 31
0.0
  0
LINE
  5
4F15
  8
OBJECT
 10
2.2453200491541518
 20
11.773262337728751
 30
0.0
 11
2.2131751751406048
 21
11.159901602866441
 31
0.0
  0
LINE
  5
4F16
  8
OBJECT
 10
2.2453200491541518
 20
10.507540868004121
 30
0.0
 11
2.2131751751406048
 21
11.12090160286643
 31
0.0
  0
LINE
  5
4F17
  8
OBJECT
 10
9.7687091232639744
 20
10.482901602866431
 30
0.0
 11
2.2712844170577711
 21
10.482901602866431
 31
0.0
  0
LINE
  5
4F18
  8
HIDDEN
 10
2.2371216926560349
 20
10.47290160286644
 30
0.0
 11
2.203161451680625
 21
11.12090160286643
 31
0.0
  0
LINE
  5
4F19
  8
HIDDEN
 10
2.2371216926560349
 20
11.80790160286643
 30
0.0
 11
2.203161451680625
 21
11.159901602866441
 31
0.0
  0
LINE
  5
4F1A
  8
HIDDEN
 10
9.8028718476657133
 20
10.47290160286644
 30
0.0
 11
9.836832088641124
 21
11.12090160286643
 31
0.0
  0
LINE
  5
4F1B
  8
OBJECT
 10
9.7946734911675932
 20
10.507540868004121
 30
0.0
 11
9.8268183651811398
 21
11.12090160286643
 31
0.0
  0
LINE
  5
4F1C
  8
OBJECT
 10
9.7459339736628223
 20
10.53290160286643
 30
0.0
 11
9.7767497478812473
 21
11.12090160286643
 31
0.0
  0
LINE
  5
4F1D
  8
OBJECT
 10
9.9244953306856871
 20
10.50073719369253
 30
0.0
 11
9.9569967701608704
 21
11.12090160286643
 31
0.0
  0
POLYLINE
  5
4F1E
  8
HIDDEN
 66
     1
 10
0.0
 20
0.0
 30
0.0
  0
VERTEX
  5
6C02
  8
HIDDEN
 10
9.6129967701608727
 20
10.47290160286644
 30
0.0
  0
VERTEX
  5
6C03
  8
HIDDEN
 10
9.6129967701608727
 20
11.13690160286643
 30
0.0
  0
VERTEX
  5
6C04
  8
HIDDEN
 10
9.3169967701608734
 20
11.13690160286643
 30
0.0
  0
VERTEX
  5
6C05
  8
HIDDEN
 10
9.3169967701608734
 20
10.47290160286644
 30
0.0
  0
SEQEND
  5
6C06
  8
HIDDEN
  0
LINE
  5
4F1F
  8
HIDDEN
 10
9.5299967701608743
 20
10.54290160286644
 30
0.0
 11
9.5299967701608743
 21
11.13690160286643
 31
0.0
  0
LINE
  5
4F20
  8
HIDDEN
 10
9.3999967701608718
 20
10.54290160286644
 30
0.0
 11
9.3999967701608718
 21
11.13690160286643
 31
0.0
  0
POLYLINE
  5
4F21
  8
HIDDEN
 66
     1
 10
0.0
 20
0.0
 30
0.0
  0
VERTEX
  5
6C07
  8
HIDDEN
 10
9.8363604186275762
 20
11.11190160286643
 30
0.0
  0
VERTEX
  5
6C08
  8
HIDDEN
 10
9.7819967701608732
 20
11.11190160286643
 30
0.0
  0
VERTEX
  5
6C09
  8
HIDDEN
 10
9.7485081991990086
 20
10.47290160286644
 30
0.0
  0
SEQEND
  5
6C0A
  8
HIDDEN
  0
POLYLINE
  5
4F22
  8
HIDDEN
 66
     1
 10
0.0
 20
0.0
 30
0.0
  0
VERTEX
  5
6C0B
  8
HIDDEN
 10
9.3499967701608746
 20
10.35290160286644
 30
0.0
  0
VERTEX
  5
6C0C
  8
HIDDEN
 10
9.3499967701608746
 20
10.54290160286644
 30
0.0
  0
VERTEX
  5
6C0D
  8
HIDDEN
 10
9.5799967701608715
 20
10.54290160286644
 30
0.0
  0
VERTEX
  5
6C0E
  8
HIDDEN
 10
9.5799967701608715
 20
10.35290160286644
 30
0.0
  0
SEQEND
  5
6C0F
  8
HIDDEN
  0
LINE
  5
4F23
  8
HIDDEN
 10
9.8028718476657133
 20
11.807901602866441
 30
0.0
 11
9.836832088641124
 21
11.159901602866441
 31
0.0
  0
LINE
  5
4F24
  8
OBJECT
 10
9.7459339736628223
 20
11.747901602866429
 30
0.0
 11
9.7767497478812473
 21
11.15990160286643
 31
0.0
  0
LINE
  5
4F25
  8
OBJECT
 10
9.7946734911675932
 20
11.773262337728751
 30
0.0
 11
9.8268183651811398
 21
11.159901602866441
 31
0.0
  0
LINE
  5
4F26
  8
OBJECT
 10
9.9244953306856871
 20
11.780066012040329
 30
0.0
 11
9.9569967701608704
 21
11.159901602866441
 31
0.0
  0
POLYLINE
  5
4F27
  8
HIDDEN
 66
     1
 10
0.0
 20
0.0
 30
0.0
  0
VERTEX
  5
6C10
  8
HIDDEN
 10
9.4199967701608731
 20
11.14390160286643
 30
0.0
  0
VERTEX
  5
6C11
  8
HIDDEN
 10
9.4199967701608731
 20
11.861901602866441
 30
0.0
  0
VERTEX
  5
6C12
  8
HIDDEN
 10
9.5099967701608712
 20
11.861901602866441
 30
0.0
  0
VERTEX
  5
6C13
  8
HIDDEN
 10
9.5099967701608712
 20
11.14390160286643
 30
0.0
  0
SEQEND
  5
6C14
  8
HIDDEN
  0
POLYLINE
  5
4F28
  8
HIDDEN
 66
     1
 10
0.0
 20
0.0
 30
0.0
  0
VERTEX
  5
6C15
  8
HIDDEN
 10
9.6129967701608727
 20
11.807901602866441
 30
0.0
  0
VERTEX
  5
6C16
  8
HIDDEN
 10
9.6129967701608727
 20
11.14390160286643
 30
0.0
  0
VERTEX
  5
6C17
  8
HIDDEN
 10
9.3169967701608734
 20
11.14390160286643
 30
0.0
  0
VERTEX
  5
6C18
  8
HIDDEN
 10
9.3169967701608734
 20
11.807901602866441
 30
0.0
  0
SEQEND
  5
6C19
  8
HIDDEN
  0
POLYLINE
  5
4F29
  8
HIDDEN
 66
     1
 10
0.0
 20
0.0
 30
0.0
  0
VERTEX
  5
6C1A
  8
HIDDEN
 10
9.7485081991990086
 20
11.807901602866441
 30
0.0
  0
VERTEX
  5
6C1B
  8
HIDDEN
 10
9.7819967701608732
 20
11.168901602866431
 30
0.0
  0
VERTEX
  5
6C1C
  8
HIDDEN
 10
9.8363604186275762
 20
11.168901602866431
 30
0.0
  0
SEQEND
  5
6C1D
  8
HIDDEN
  0
LINE
  5
4F2A
  8
OBJECT
 10
9.9569967701608704
 20
11.12090160286643
 30
0.0
 11
9.7767497478812473
 21
11.12090160286643
 31
0.0
  0
LINE
  5
4F2B
  8
OBJECT
 10
9.9569967701608704
 20
11.159901602866441
 30
0.0
 11
9.7767497478812473
 21
11.15990160286643
 31
0.0
  0
POLYLINE
  5
4F2C
  8
HIDDEN
 66
     1
 10
0.0
 20
0.0
 30
0.0
  0
VERTEX
  5
6C1E
  8
HIDDEN
 10
9.8969967701608752
 20
11.12090160286643
 30
0.0
  0
VERTEX
  5
6C1F
  8
HIDDEN
 10
9.8969967701608752
 20
11.030901602866431
 30
0.0
  0
VERTEX
  5
6C20
  8
HIDDEN
 10
9.8321153885056471
 20
11.030901602866431
 30
0.0
  0
SEQEND
  5
6C21
  8
HIDDEN
  0
POLYLINE
  5
4F2D
  8
HIDDEN
 66
     1
 10
0.0
 20
0.0
 30
0.0
  0
VERTEX
  5
6C22
  8
HIDDEN
 10
9.8388759920331665
 20
11.12090160286643
 30
0.0
  0
VERTEX
  5
6C23
  8
HIDDEN
 10
9.8434354688307906
 20
11.03390160286644
 30
0.0
  0
VERTEX
  5
6C24
  8
HIDDEN
 10
9.8874684401744233
 20
11.03390160286644
 30
0.0
  0
VERTEX
  5
6C25
  8
HIDDEN
 10
9.8874684401744233
 20
11.12090160286643
 30
0.0
  0
SEQEND
  5
6C26
  8
HIDDEN
  0
LINE
  5
4F2E
  8
OBJECT
 10
9.9369967701608743
 20
11.15990160286643
 30
0.0
 11
9.9369967701608743
 21
11.12090160286643
 31
0.0
  0
LINE
  5
4F2F
  8
OBJECT
 10
9.7767497478812473
 20
11.12090160286643
 30
0.0
 11
9.7767497478812473
 21
11.15990160286643
 31
0.0
  0
LINE
  5
4F30
  8
HIDDEN
 10
14.479354751204109
 20
26.532490428254452
 30
0.0
 11
14.479354751204109
 21
26.487490428254439
 31
0.0
  0
LINE
  5
4F31
  8
HIDDEN
 10
14.479354751204109
 20
26.62749042825444
 30
0.0
 11
14.42935475120411
 21
26.692490428254441
 31
0.0
  0
LINE
  5
4F32
  8
HIDDEN
 10
15.6943547512041
 20
15.82849042825444
 30
0.0
 11
15.6943547512041
 21
15.873490428254449
 31
0.0
  0
LINE
  5
4F33
  8
HIDDEN
 10
15.6943547512041
 20
15.73349042825444
 30
0.0
 11
15.74435475120411
 21
15.668490428254451
 31
0.0
  0
LINE
  5
4F34
  8
HIDDEN
 10
14.479354751204109
 20
15.82849042825444
 30
0.0
 11
14.479354751204109
 21
15.873490428254449
 31
0.0
  0
LINE
  5
4F35
  8
HIDDEN
 10
14.479354751204109
 20
15.73349042825444
 30
0.0
 11
14.4293547512041
 21
15.668490428254451
 31
0.0
  0
LINE
  5
4F36
  8
HIDDEN
 10
2.2629967701608851
 20
26.532490428254452
 30
0.0
 11
2.2629967701608851
 21
26.48749042825445
 31
0.0
  0
LINE
  5
4F37
  8
HIDDEN
 10
2.2629967701608851
 20
26.62749042825445
 30
0.0
 11
2.2129967701608839
 21
26.692490428254452
 31
0.0
  0
LINE
  5
4F38
  8
OBJECT
 10
2.262996770160874
 20
15.828490428254449
 30
0.0
 11
2.262996770160874
 21
15.873490428254449
 31
0.0
  0
LINE
  5
4F39
  8
OBJECT
 10
2.262996770160874
 20
15.73349042825444
 30
0.0
 11
2.2129967701608741
 21
15.668490428254451
 31
0.0
  0
LINE
  5
4F3A
  8
HIDDEN
 10
9.7769967701608778
 20
26.532490428254452
 30
0.0
 11
9.7769967701608778
 21
26.48749042825445
 31
0.0
  0
LINE
  5
4F3B
  8
HIDDEN
 10
9.7769967701608778
 20
26.62749042825445
 30
0.0
 11
9.8269967701608731
 21
26.692490428254452
 31
0.0
  0
LINE
  5
4F3C
  8
OBJECT
 10
9.7769967701608635
 20
15.828490428254449
 30
0.0
 11
9.7769967701608635
 21
15.873490428254449
 31
0.0
  0
LINE
  5
4F3D
  8
OBJECT
 10
9.7769967701608635
 20
15.73349042825444
 30
0.0
 11
9.8269967701608607
 21
15.668490428254451
 31
0.0
  0
LINE
  5
4F3E
  8
OBJECT
 10
2.2712844170577711
 20
11.927901602866431
 30
0.0
 11
9.7687091232639744
 21
11.92790160286644
 31
0.0
  0
LINE
  5
4F3F
  8
OBJECT
 10
2.2712844170577711
 20
10.35290160286644
 30
0.0
 11
9.7687091232639744
 21
10.35290160286644
 31
0.0
  0
ARC
  5
4F40
  8
OBJECT
 10
2.2712844170577711
 20
10.50890160286643
 30
0.0
 40
0.156
 50
183.00000000000011
 51
270.0
  0
ARC
  5
4F41
  8
OBJECT
 10
2.2712844170577711
 20
11.77190160286643
 30
0.0
 40
0.156
 50
90.0
 51
176.99999999999989
  0
ARC
  5
4F42
  8
OBJECT
 10
9.7687091232639744
 20
11.77190160286643
 30
0.0
 40
0.156
 50
2.9999999999998912
 51
90.0
  0
ARC
  5
4F43
  8
OBJECT
 10
9.7687091232639744
 20
10.508901602866439
 30
0.0
 40
0.156
 50
270.0
 51
357.0
  0
ARC
  5
4F44
  8
OBJECT
 10
2.2712844170577711
 20
11.77190160286643
 30
0.0
 40
0.026
 50
90.0
 51
176.99999999999989
  0
ARC
  5
4F45
  8
OBJECT
 10
2.2712844170577711
 20
10.50890160286643
 30
0.0
 40
0.026
 50
183.00000000000011
 51
270.0
  0
ARC
  5
4F46
  8
OBJECT
 10
9.7687091232639744
 20
11.77190160286643
 30
0.0
 40
0.026
 50
3.000000000000095
 51
90.0
  0
ARC
  5
4F47
  8
OBJECT
 10
9.7687091232639744
 20
10.50890160286643
 30
0.0
 40
0.026
 50
270.0
 51
356.99999999999977
  0
LINE
  5
4F48
  8
OBJECT
 10
2.2940595666589298
 20
11.747901602866429
 30
0.0
 11
2.2522974187918789
 21
11.78966375073349
 31
0.0
  0
LINE
  5
4F49
  8
OBJECT
 10
2.2940595666589298
 20
10.53290160286643
 30
0.0
 11
2.2522974187918789
 21
10.491139454999381
 31
0.0
  0
LINE
  5
4F4A
  8
OBJECT
 10
9.7459339736628223
 20
11.747901602866429
 30
0.0
 11
9.7876961215298692
 21
11.78966375073349
 31
0.0
  0
LINE
  5
4F4B
  8
OBJECT
 10
9.7459339736628223
 20
10.53290160286643
 30
0.0
 11
9.7876961215298692
 21
10.491139454999381
 31
0.0
  0
LINE
  5
4F4C
  8
HIDDEN
 10
2.2371216926560349
 20
10.47290160286644
 30
0.0
 11
9.8028718476657133
 21
10.47290160286644
 31
0.0
  0
LINE
  5
4F4D
  8
HIDDEN
 10
2.2371216926560349
 20
11.80790160286643
 30
0.0
 11
9.8028718476657133
 21
11.807901602866441
 31
0.0
  0
CIRCLE
  5
4F4E
  8
OBJECT
 10
2.9889967701608731
 20
20.304490428254439
 30
0.0
 40
0.045
  0
CIRCLE
  5
4F4F
  8
OBJECT
 10
2.9889967701608731
 20
20.304490428254439
 30
0.0
 40
0.108
  0
CIRCLE
  5
4F50
  8
OBJECT
 10
9.0509967701608716
 20
20.304490428254439
 30
0.0
 40
0.045
  0
CIRCLE
  5
4F51
  8
OBJECT
 10
9.0509967701608716
 20
20.304490428254439
 30
0.0
 40
0.108
  0
CIRCLE
  5
4F52
  8
OBJECT
 10
2.9889967701608731
 20
22.056490428254449
 30
0.0
 40
0.108
  0
CIRCLE
  5
4F53
  8
OBJECT
 10
2.9889967701608731
 20
22.056490428254449
 30
0.0
 40
0.045
  0
CIRCLE
  5
4F54
  8
OBJECT
 10
9.0509967701608716
 20
22.056490428254449
 30
0.0
 40
0.108
  0
CIRCLE
  5
4F55
  8
OBJECT
 10
9.0509967701608716
 20
22.056490428254449
 30
0.0
 40
0.045
  0
POLYLINE
  5
4F66
  8
OBJECT
 66
     1
 10
0.0
 20
0.0
 30
0.0
  0
VERTEX
  5
6C27
  8
OBJECT
 10
2.2029967701608761
 20
20.244490428254451
 30
0.0
  0
VERTEX
  5
6C28
  8
OBJECT
 10
2.257996770160875
 20
20.244490428254441
 30
0.0
  0
VERTEX
  5
6C29
  8
OBJECT
 10
2.257996770160875
 20
20.304490428254439
 30
0.0
  0
VERTEX
  5
6C2A
  8
OBJECT
 10
2.2029967701608761
 20
20.304490428254439
 30
0.0
  0
SEQEND
  5
6C2B
  8
OBJECT
  0
POLYLINE
  5
4F67
  8
OBJECT
 66
     1
 10
0.0
 20
0.0
 30
0.0
  0
VERTEX
  5
6C2C
  8
OBJECT
 10
2.2029967701608761
 20
20.462490428254451
 30
0.0
  0
VERTEX
  5
6C2D
  8
OBJECT
 10
2.257996770160875
 20
20.462490428254451
 30
0.0
  0
VERTEX
  5
6C2E
  8
OBJECT
 10
2.257996770160875
 20
20.402490428254449
 30
0.0
  0
VERTEX
  5
6C2F
  8
OBJECT
 10
2.2029967701608761
 20
20.402490428254449
 30
0.0
  0
SEQEND
  5
6C30
  8
OBJECT
  0
POLYLINE
  5
4F68
  8
OBJECT
 66
     1
 10
0.0
 20
0.0
 30
0.0
  0
VERTEX
  5
6C31
  8
OBJECT
 10
9.8369967701608712
 20
20.244490428254451
 30
0.0
  0
VERTEX
  5
6C32
  8
OBJECT
 10
9.7819967701608732
 20
20.244490428254441
 30
0.0
  0
VERTEX
  5
6C33
  8
OBJECT
 10
9.7819967701608732
 20
20.304490428254439
 30
0.0
  0
VERTEX
  5
6C34
  8
OBJECT
 10
9.8369967701608712
 20
20.304490428254439
 30
0.0
  0
SEQEND
  5
6C35
  8
OBJECT
  0
POLYLINE
  5
4F69
  8
OBJECT
 66
     1
 10
0.0
 20
0.0
 30
0.0
  0
VERTEX
  5
6C36
  8
OBJECT
 10
9.8369967701608712
 20
20.462490428254451
 30
0.0
  0
VERTEX
  5
6C37
  8
OBJECT
 10
9.7819967701608732
 20
20.462490428254451
 30
0.0
  0
VERTEX
  5
6C38
  8
OBJECT
 10
9.7819967701608732
 20
20.402490428254449
 30
0.0
  0
VERTEX
  5
6C39
  8
OBJECT
 10
9.8369967701608712
 20
20.402490428254449
 30
0.0
  0
SEQEND
  5
6C3A
  8
OBJECT
  0
POLYLINE
  5
4F6A
  8
HIDDEN
 66
     1
 10
0.0
 20
0.0
 30
0.0
  0
VERTEX
  5
6C3B
  8
HIDDEN
 10
2.2029967701608761
 20
23.552490428254451
 30
0.0
  0
VERTEX
  5
6C3C
  8
HIDDEN
 10
2.257996770160875
 20
23.552490428254451
 30
0.0
  0
VERTEX
  5
6C3D
  8
HIDDEN
 10
2.257996770160875
 20
23.61249042825445
 30
0.0
  0
VERTEX
  5
6C3E
  8
HIDDEN
 10
2.2029967701608761
 20
23.61249042825445
 30
0.0
  0
SEQEND
  5
6C3F
  8
HIDDEN
  0
POLYLINE
  5
4F6B
  8
HIDDEN
 66
     1
 10
0.0
 20
0.0
 30
0.0
  0
VERTEX
  5
6C40
  8
HIDDEN
 10
2.2029967701608761
 20
23.770490428254451
 30
0.0
  0
VERTEX
  5
6C41
  8
HIDDEN
 10
2.257996770160875
 20
23.770490428254451
 30
0.0
  0
VERTEX
  5
6C42
  8
HIDDEN
 10
2.257996770160875
 20
23.710490428254449
 30
0.0
  0
VERTEX
  5
6C43
  8
HIDDEN
 10
2.2029967701608761
 20
23.710490428254449
 30
0.0
  0
SEQEND
  5
6C44
  8
HIDDEN
  0
POLYLINE
  5
4F6C
  8
HIDDEN
 66
     1
 10
0.0
 20
0.0
 30
0.0
  0
VERTEX
  5
6C45
  8
HIDDEN
 10
9.8369967701608712
 20
23.552490428254451
 30
0.0
  0
VERTEX
  5
6C46
  8
HIDDEN
 10
9.7819967701608732
 20
23.552490428254451
 30
0.0
  0
VERTEX
  5
6C47
  8
HIDDEN
 10
9.7819967701608732
 20
23.61249042825445
 30
0.0
  0
VERTEX
  5
6C48
  8
HIDDEN
 10
9.8369967701608712
 20
23.61249042825445
 30
0.0
  0
SEQEND
  5
6C49
  8
HIDDEN
  0
POLYLINE
  5
4F6D
  8
HIDDEN
 66
     1
 10
0.0
 20
0.0
 30
0.0
  0
VERTEX
  5
6C4A
  8
HIDDEN
 10
9.8369967701608712
 20
23.770490428254451
 30
0.0
  0
VERTEX
  5
6C4B
  8
HIDDEN
 10
9.7819967701608732
 20
23.770490428254451
 30
0.0
  0
VERTEX
  5
6C4C
  8
HIDDEN
 10
9.7819967701608732
 20
23.710490428254449
 30
0.0
  0
VERTEX
  5
6C4D
  8
HIDDEN
 10
9.8369967701608712
 20
23.710490428254449
 30
0.0
  0
SEQEND
  5
6C4E
  8
HIDDEN
  0
POLYLINE
  5
4F6E
  8
OBJECT
 66
     1
 10
0.0
 20
0.0
 30
0.0
  0
VERTEX
  5
6C4F
  8
OBJECT
 10
2.2029967701608761
 20
18.808490428254451
 30
0.0
  0
VERTEX
  5
6C50
  8
OBJECT
 10
2.257996770160875
 20
18.808490428254451
 30
0.0
  0
VERTEX
  5
6C51
  8
OBJECT
 10
2.257996770160875
 20
18.748490428254438
 30
0.0
  0
VERTEX
  5
6C52
  8
OBJECT
 10
2.2029967701608761
 20
18.748490428254438
 30
0.0
  0
SEQEND
  5
6C53
  8
OBJECT
  0
POLYLINE
  5
4F6F
  8
OBJECT
 66
     1
 10
0.0
 20
0.0
 30
0.0
  0
VERTEX
  5
6C54
  8
OBJECT
 10
2.2029967701608761
 20
18.590490428254451
 30
0.0
  0
VERTEX
  5
6C55
  8
OBJECT
 10
2.257996770160875
 20
18.590490428254441
 30
0.0
  0
VERTEX
  5
6C56
  8
OBJECT
 10
2.257996770160875
 20
18.65049042825445
 30
0.0
  0
VERTEX
  5
6C57
  8
OBJECT
 10
2.2029967701608761
 20
18.65049042825445
 30
0.0
  0
SEQEND
  5
6C58
  8
OBJECT
  0
POLYLINE
  5
4F70
  8
OBJECT
 66
     1
 10
0.0
 20
0.0
 30
0.0
  0
VERTEX
  5
6C59
  8
OBJECT
 10
9.8369967701608712
 20
18.808490428254451
 30
0.0
  0
VERTEX
  5
6C5A
  8
OBJECT
 10
9.7819967701608732
 20
18.808490428254451
 30
0.0
  0
VERTEX
  5
6C5B
  8
OBJECT
 10
9.7819967701608732
 20
18.748490428254438
 30
0.0
  0
VERTEX
  5
6C5C
  8
OBJECT
 10
9.8369967701608712
 20
18.748490428254438
 30
0.0
  0
SEQEND
  5
6C5D
  8
OBJECT
  0
POLYLINE
  5
4F71
  8
OBJECT
 66
     1
 10
0.0
 20
0.0
 30
0.0
  0
VERTEX
  5
6C5E
  8
OBJECT
 10
9.8369967701608712
 20
18.590490428254451
 30
0.0
  0
VERTEX
  5
6C5F
  8
OBJECT
 10
9.7819967701608732
 20
18.590490428254441
 30
0.0
  0
VERTEX
  5
6C60
  8
OBJECT
 10
9.7819967701608732
 20
18.65049042825445
 30
0.0
  0
VERTEX
  5
6C61
  8
OBJECT
 10
9.8369967701608712
 20
18.65049042825445
 30
0.0
  0
SEQEND
  5
6C62
  8
OBJECT
  0
POLYLINE
  5
4F72
  8
HIDDEN
 66
     1
 10
0.0
 20
0.0
 30
0.0
  0
VERTEX
  5
6C63
  8
HIDDEN
 10
15.75435475120411
 20
18.590490428254441
 30
0.0
  0
VERTEX
  5
6C64
  8
HIDDEN
 10
15.1153547512041
 20
18.590490428254441
 30
0.0
  0
VERTEX
  5
6C65
  8
HIDDEN
 10
15.1153547512041
 20
18.65049042825445
 30
0.0
  0
VERTEX
  5
6C66
  8
HIDDEN
 10
15.75435475120411
 20
18.65049042825445
 30
0.0
  0
SEQEND
  5
6C67
  8
HIDDEN
  0
POLYLINE
  5
4F73
  8
HIDDEN
 66
     1
 10
0.0
 20
0.0
 30
0.0
  0
VERTEX
  5
6C68
  8
HIDDEN
 10
15.75435475120411
 20
18.808490428254441
 30
0.0
  0
VERTEX
  5
6C69
  8
HIDDEN
 10
15.1153547512041
 20
18.808490428254451
 30
0.0
  0
VERTEX
  5
6C6A
  8
HIDDEN
 10
15.1153547512041
 20
18.748490428254438
 30
0.0
  0
VERTEX
  5
6C6B
  8
HIDDEN
 10
15.75435475120411
 20
18.748490428254438
 30
0.0
  0
SEQEND
  5
6C6C
  8
HIDDEN
  0
POLYLINE
  5
4F74
  8
HIDDEN
 66
     1
 10
0.0
 20
0.0
 30
0.0
  0
VERTEX
  5
6C6D
  8
HIDDEN
 10
14.419354751204111
 20
18.590490428254441
 30
0.0
  0
VERTEX
  5
6C6E
  8
HIDDEN
 10
15.05835475120411
 20
18.590490428254441
 30
0.0
  0
VERTEX
  5
6C6F
  8
HIDDEN
 10
15.05835475120411
 20
18.65049042825445
 30
0.0
  0
VERTEX
  5
6C70
  8
HIDDEN
 10
14.419354751204111
 20
18.65049042825445
 30
0.0
  0
SEQEND
  5
6C71
  8
HIDDEN
  0
POLYLINE
  5
4F75
  8
HIDDEN
 66
     1
 10
0.0
 20
0.0
 30
0.0
  0
VERTEX
  5
6C72
  8
HIDDEN
 10
14.419354751204111
 20
18.808490428254441
 30
0.0
  0
VERTEX
  5
6C73
  8
HIDDEN
 10
15.05835475120411
 20
18.808490428254451
 30
0.0
  0
VERTEX
  5
6C74
  8
HIDDEN
 10
15.05835475120411
 20
18.748490428254438
 30
0.0
  0
VERTEX
  5
6C75
  8
HIDDEN
 10
14.419354751204111
 20
18.748490428254438
 30
0.0
  0
SEQEND
  5
6C76
  8
HIDDEN
  0
POLYLINE
  5
4F76
  8
HIDDEN
 66
     1
 10
0.0
 20
0.0
 30
0.0
  0
VERTEX
  5
6C77
  8
HIDDEN
 10
15.75435475120411
 20
21.898490428254441
 30
0.0
  0
VERTEX
  5
6C78
  8
HIDDEN
 10
15.1153547512041
 20
21.898490428254441
 30
0.0
  0
VERTEX
  5
6C79
  8
HIDDEN
 10
15.1153547512041
 20
21.958490428254439
 30
0.0
  0
VERTEX
  5
6C7A
  8
HIDDEN
 10
15.75435475120411
 20
21.958490428254439
 30
0.0
  0
SEQEND
  5
6C7B
  8
HIDDEN
  0
POLYLINE
  5
4F77
  8
HIDDEN
 66
     1
 10
0.0
 20
0.0
 30
0.0
  0
VERTEX
  5
6C7C
  8
HIDDEN
 10
15.75435475120411
 20
22.116490428254451
 30
0.0
  0
VERTEX
  5
6C7D
  8
HIDDEN
 10
15.1153547512041
 20
22.116490428254451
 30
0.0
  0
VERTEX
  5
6C7E
  8
HIDDEN
 10
15.1153547512041
 20
22.056490428254449
 30
0.0
  0
VERTEX
  5
6C7F
  8
HIDDEN
 10
15.75435475120411
 20
22.056490428254449
 30
0.0
  0
SEQEND
  5
6C80
  8
HIDDEN
  0
POLYLINE
  5
4F78
  8
HIDDEN
 66
     1
 10
0.0
 20
0.0
 30
0.0
  0
VERTEX
  5
6C81
  8
HIDDEN
 10
14.419354751204111
 20
21.898490428254441
 30
0.0
  0
VERTEX
  5
6C82
  8
HIDDEN
 10
15.05835475120411
 20
21.898490428254441
 30
0.0
  0
VERTEX
  5
6C83
  8
HIDDEN
 10
15.05835475120411
 20
21.958490428254439
 30
0.0
  0
VERTEX
  5
6C84
  8
HIDDEN
 10
14.419354751204111
 20
21.958490428254439
 30
0.0
  0
SEQEND
  5
6C85
  8
HIDDEN
  0
POLYLINE
  5
4F79
  8
HIDDEN
 66
     1
 10
0.0
 20
0.0
 30
0.0
  0
VERTEX
  5
6C86
  8
HIDDEN
 10
14.419354751204111
 20
22.116490428254451
 30
0.0
  0
VERTEX
  5
6C87
  8
HIDDEN
 10
15.05835475120411
 20
22.116490428254451
 30
0.0
  0
VERTEX
  5
6C88
  8
HIDDEN
 10
15.05835475120411
 20
22.056490428254449
 30
0.0
  0
VERTEX
  5
6C89
  8
HIDDEN
 10
14.419354751204111
 20
22.056490428254449
 30
0.0
  0
SEQEND
  5
6C8A
  8
HIDDEN
  0
POLYLINE
  5
4F7A
  8
HIDDEN
 66
     1
 10
0.0
 20
0.0
 30
0.0
  0
VERTEX
  5
6C8B
  8
HIDDEN
 10
15.75435475120411
 20
23.552490428254441
 30
0.0
  0
VERTEX
  5
6C8C
  8
HIDDEN
 10
15.11535475120411
 20
23.552490428254441
 30
0.0
  0
VERTEX
  5
6C8D
  8
HIDDEN
 10
15.11535475120411
 20
23.612490428254439
 30
0.0
  0
VERTEX
  5
6C8E
  8
HIDDEN
 10
15.75435475120411
 20
23.612490428254439
 30
0.0
  0
SEQEND
  5
6C8F
  8
HIDDEN
  0
POLYLINE
  5
4F7B
  8
HIDDEN
 66
     1
 10
0.0
 20
0.0
 30
0.0
  0
VERTEX
  5
6C90
  8
HIDDEN
 10
15.75435475120411
 20
23.77049042825444
 30
0.0
  0
VERTEX
  5
6C91
  8
HIDDEN
 10
15.11535475120411
 20
23.77049042825444
 30
0.0
  0
VERTEX
  5
6C92
  8
HIDDEN
 10
15.11535475120411
 20
23.710490428254442
 30
0.0
  0
VERTEX
  5
6C93
  8
HIDDEN
 10
15.75435475120411
 20
23.710490428254442
 30
0.0
  0
SEQEND
  5
6C94
  8
HIDDEN
  0
POLYLINE
  5
4F7C
  8
HIDDEN
 66
     1
 10
0.0
 20
0.0
 30
0.0
  0
VERTEX
  5
6C95
  8
HIDDEN
 10
14.419354751204111
 20
23.552490428254441
 30
0.0
  0
VERTEX
  5
6C96
  8
HIDDEN
 10
15.05835475120411
 20
23.552490428254441
 30
0.0
  0
VERTEX
  5
6C97
  8
HIDDEN
 10
15.05835475120411
 20
23.612490428254439
 30
0.0
  0
VERTEX
  5
6C98
  8
HIDDEN
 10
14.419354751204111
 20
23.612490428254439
 30
0.0
  0
SEQEND
  5
6C99
  8
HIDDEN
  0
POLYLINE
  5
4F7D
  8
HIDDEN
 66
     1
 10
0.0
 20
0.0
 30
0.0
  0
VERTEX
  5
6C9A
  8
HIDDEN
 10
14.419354751204111
 20
23.77049042825444
 30
0.0
  0
VERTEX
  5
6C9B
  8
HIDDEN
 10
15.05835475120411
 20
23.77049042825444
 30
0.0
  0
VERTEX
  5
6C9C
  8
HIDDEN
 10
15.05835475120411
 20
23.710490428254442
 30
0.0
  0
VERTEX
  5
6C9D
  8
HIDDEN
 10
14.419354751204111
 20
23.710490428254442
 30
0.0
  0
SEQEND
  5
6C9E
  8
HIDDEN
  0
LINE
  5
4F7E
  8
OBJECT
 10
14.76735475120411
 20
20.53299042825444
 30
0.0
 11
14.29935475120411
 21
20.53299042825444
 31
0.0
  0
LINE
  5
4F7F
  8
OBJECT
 10
14.76735475120411
 20
20.652990428254451
 30
0.0
 11
14.29935475120411
 21
20.652990428254451
 31
0.0
  0
LINE
  5
4F80
  8
OBJECT
 10
14.76735475120411
 20
20.887990428254451
 30
0.0
 11
14.29935475120411
 21
20.887990428254451
 31
0.0
  0
LINE
  5
4F81
  8
OBJECT
 10
14.76735475120411
 20
20.76799042825445
 30
0.0
 11
14.29935475120411
 21
20.76799042825445
 31
0.0
  0
LINE
  5
4F82
  8
OBJECT
 10
14.76735475120411
 20
20.53299042825444
 30
0.0
 11
14.76735475120411
 21
20.652990428254451
 31
0.0
  0
LINE
  5
4F83
  8
OBJECT
 10
14.76735475120411
 20
20.76799042825445
 30
0.0
 11
14.76735475120411
 21
20.887990428254451
 31
0.0
  0
LINE
  5
4F84
  8
OBJECT
 10
14.316354751204109
 20
20.53299042825444
 30
0.0
 11
14.316354751204109
 21
20.652990428254451
 31
0.0
  0
LINE
  5
4F85
  8
OBJECT
 10
14.316354751204109
 20
20.76799042825445
 30
0.0
 11
14.316354751204109
 21
20.887990428254451
 31
0.0
  0
LINE
  5
4F86
  8
OBJECT
 10
15.4063547512041
 20
15.922990428254449
 30
0.0
 11
15.406354751204111
 21
16.422990428254451
 31
0.0
  0
LINE
  5
4F87
  8
OBJECT
 10
15.857354751204101
 20
15.922990428254449
 30
0.0
 11
15.85735475120411
 21
16.422990428254451
 31
0.0
  0
LINE
  5
4F88
  8
OBJECT
 10
15.4063547512041
 20
15.922990428254449
 30
0.0
 11
15.8743547512041
 21
15.922990428254449
 31
0.0
  0
LINE
  5
4F89
  8
OBJECT
 10
15.4063547512041
 20
15.922990428254449
 30
0.0
 11
15.8743547512041
 21
15.922990428254449
 31
0.0
  0
LINE
  5
4F8A
  8
OBJECT
 10
15.406354751204111
 20
21.472990428254441
 30
0.0
 11
15.406354751204111
 21
21.592990428254449
 31
0.0
  0
LINE
  5
4F8B
  8
OBJECT
 10
15.85735475120411
 20
21.472990428254441
 30
0.0
 11
15.85735475120411
 21
21.592990428254449
 31
0.0
  0
LINE
  5
4F8C
  8
OBJECT
 10
15.85735475120411
 20
20.76799042825445
 30
0.0
 11
15.85735475120411
 21
20.887990428254451
 31
0.0
  0
LINE
  5
4F8D
  8
OBJECT
 10
15.406354751204111
 20
20.76799042825445
 30
0.0
 11
15.406354751204111
 21
20.887990428254451
 31
0.0
  0
LINE
  5
4F8E
  8
OBJECT
 10
15.406354751204111
 20
20.76799042825445
 30
0.0
 11
15.8743547512041
 21
20.76799042825445
 31
0.0
  0
LINE
  5
4F8F
  8
OBJECT
 10
15.406354751204111
 20
20.652990428254451
 30
0.0
 11
15.8743547512041
 21
20.652990428254451
 31
0.0
  0
LINE
  5
4F90
  8
OBJECT
 10
15.406354751204111
 20
20.53299042825444
 30
0.0
 11
15.8743547512041
 21
20.53299042825444
 31
0.0
  0
LINE
  5
4F91
  8
OBJECT
 10
15.406354751204111
 20
16.422990428254451
 30
0.0
 11
15.8743547512041
 21
16.422990428254451
 31
0.0
  0
LINE
  5
4F92
  8
OBJECT
 10
15.406354751204111
 20
20.53299042825444
 30
0.0
 11
15.406354751204111
 21
20.652990428254451
 31
0.0
  0
LINE
  5
4F93
  8
OBJECT
 10
15.85735475120411
 20
20.53299042825444
 30
0.0
 11
15.85735475120411
 21
20.652990428254451
 31
0.0
  0
LINE
  5
4F94
  8
OBJECT
 10
15.406354751204111
 20
20.887990428254451
 30
0.0
 11
15.8743547512041
 21
20.887990428254451
 31
0.0
  0
LINE
  5
4F95
  8
OBJECT
 10
15.406354751204111
 20
21.002990428254449
 30
0.0
 11
15.8743547512041
 21
21.002990428254449
 31
0.0
  0
LINE
  5
4F96
  8
OBJECT
 10
15.406354751204111
 20
21.12299042825445
 30
0.0
 11
15.8743547512041
 21
21.12299042825445
 31
0.0
  0
LINE
  5
4F97
  8
OBJECT
 10
15.406354751204111
 20
21.35799042825445
 30
0.0
 11
15.8743547512041
 21
21.35799042825445
 31
0.0
  0
LINE
  5
4F98
  8
OBJECT
 10
15.406354751204111
 20
21.237990428254442
 30
0.0
 11
15.8743547512041
 21
21.237990428254442
 31
0.0
  0
LINE
  5
4F99
  8
OBJECT
 10
15.406354751204111
 20
21.472990428254441
 30
0.0
 11
15.8743547512041
 21
21.472990428254441
 31
0.0
  0
LINE
  5
4F9A
  8
OBJECT
 10
15.406354751204111
 20
21.002990428254449
 30
0.0
 11
15.406354751204111
 21
21.12299042825445
 31
0.0
  0
LINE
  5
4F9B
  8
OBJECT
 10
15.406354751204111
 20
21.237990428254442
 30
0.0
 11
15.406354751204111
 21
21.35799042825445
 31
0.0
  0
LINE
  5
4F9C
  8
OBJECT
 10
15.85735475120411
 20
21.002990428254449
 30
0.0
 11
15.85735475120411
 21
21.12299042825445
 31
0.0
  0
LINE
  5
4F9D
  8
OBJECT
 10
15.85735475120411
 20
21.237990428254442
 30
0.0
 11
15.85735475120411
 21
21.35799042825445
 31
0.0
  0
LINE
  5
4F9E
  8
OBJECT
 10
15.406354751204111
 20
22.297990428254451
 30
0.0
 11
15.8743547512041
 21
22.297990428254451
 31
0.0
  0
LINE
  5
4F9F
  8
OBJECT
 10
15.406354751204111
 20
21.592990428254449
 30
0.0
 11
15.8743547512041
 21
21.592990428254449
 31
0.0
  0
LINE
  5
4FA0
  8
OBJECT
 10
15.406354751204111
 20
21.827990428254449
 30
0.0
 11
15.8743547512041
 21
21.827990428254449
 31
0.0
  0
LINE
  5
4FA1
  8
OBJECT
 10
15.406354751204111
 20
21.70799042825444
 30
0.0
 11
15.8743547512041
 21
21.70799042825444
 31
0.0
  0
LINE
  5
4FA2
  8
OBJECT
 10
15.406354751204111
 20
22.062990428254452
 30
0.0
 11
15.8743547512041
 21
22.062990428254452
 31
0.0
  0
LINE
  5
4FA3
  8
OBJECT
 10
15.406354751204111
 20
21.94299042825444
 30
0.0
 11
15.8743547512041
 21
21.94299042825444
 31
0.0
  0
LINE
  5
4FA4
  8
OBJECT
 10
15.406354751204111
 20
22.177990428254439
 30
0.0
 11
15.8743547512041
 21
22.177990428254439
 31
0.0
  0
LINE
  5
4FA5
  8
OBJECT
 10
15.406354751204111
 20
21.94299042825444
 30
0.0
 11
15.406354751204111
 21
22.062990428254452
 31
0.0
  0
LINE
  5
4FA6
  8
OBJECT
 10
15.406354751204111
 20
21.70799042825444
 30
0.0
 11
15.406354751204111
 21
21.827990428254449
 31
0.0
  0
LINE
  5
4FA7
  8
OBJECT
 10
15.406354751204111
 20
22.17799042825445
 30
0.0
 11
15.406354751204111
 21
22.297990428254451
 31
0.0
  0
LINE
  5
4FA8
  8
OBJECT
 10
15.85735475120411
 20
21.94299042825444
 30
0.0
 11
15.85735475120411
 21
22.062990428254452
 31
0.0
  0
LINE
  5
4FA9
  8
OBJECT
 10
15.85735475120411
 20
21.70799042825444
 30
0.0
 11
15.85735475120411
 21
21.827990428254449
 31
0.0
  0
LINE
  5
4FAA
  8
OBJECT
 10
15.85735475120411
 20
22.177990428254439
 30
0.0
 11
15.85735475120411
 21
22.297990428254451
 31
0.0
  0
LINE
  5
4FAB
  8
OBJECT
 10
15.406354751204111
 20
22.53299042825445
 30
0.0
 11
15.8743547512041
 21
22.53299042825445
 31
0.0
  0
LINE
  5
4FAC
  8
OBJECT
 10
15.406354751204111
 20
22.412990428254449
 30
0.0
 11
15.8743547512041
 21
22.412990428254449
 31
0.0
  0
LINE
  5
4FAD
  8
OBJECT
 10
15.406354751204111
 20
22.647990428254449
 30
0.0
 11
15.8743547512041
 21
22.647990428254449
 31
0.0
  0
LINE
  5
4FAE
  8
OBJECT
 10
15.406354751204111
 20
22.767990428254439
 30
0.0
 11
15.8743547512041
 21
22.767990428254439
 31
0.0
  0
LINE
  5
4FAF
  8
OBJECT
 10
15.406354751204111
 20
23.002990428254439
 30
0.0
 11
15.8743547512041
 21
23.002990428254439
 31
0.0
  0
LINE
  5
4FB0
  8
OBJECT
 10
15.406354751204111
 20
22.882990428254448
 30
0.0
 11
15.8743547512041
 21
22.882990428254448
 31
0.0
  0
LINE
  5
4FB1
  8
OBJECT
 10
15.406354751204111
 20
22.647990428254449
 30
0.0
 11
15.406354751204111
 21
22.767990428254439
 31
0.0
  0
LINE
  5
4FB2
  8
OBJECT
 10
15.406354751204111
 20
22.412990428254449
 30
0.0
 11
15.406354751204111
 21
22.53299042825445
 31
0.0
  0
LINE
  5
4FB3
  8
OBJECT
 10
15.406354751204111
 20
22.882990428254448
 30
0.0
 11
15.406354751204111
 21
23.002990428254439
 31
0.0
  0
LINE
  5
4FB4
  8
OBJECT
 10
15.85735475120411
 20
22.647990428254442
 30
0.0
 11
15.85735475120411
 21
22.767990428254439
 31
0.0
  0
LINE
  5
4FB5
  8
OBJECT
 10
15.85735475120411
 20
22.412990428254439
 30
0.0
 11
15.85735475120411
 21
22.53299042825445
 31
0.0
  0
LINE
  5
4FB6
  8
OBJECT
 10
15.85735475120411
 20
22.882990428254441
 30
0.0
 11
15.85735475120411
 21
23.002990428254439
 31
0.0
  0
LINE
  5
4FB7
  8
OBJECT
 10
15.406354751204111
 20
26.437990428254452
 30
0.0
 11
15.406354751204111
 21
25.937990428254452
 31
0.0
  0
LINE
  5
4FB8
  8
OBJECT
 10
15.85735475120411
 20
26.437990428254441
 30
0.0
 11
15.85735475120411
 21
25.937990428254452
 31
0.0
  0
LINE
  5
4FB9
  8
OBJECT
 10
15.406354751204111
 20
24.527990428254451
 30
0.0
 11
15.406354751204111
 21
24.647990428254449
 31
0.0
  0
LINE
  5
4FBA
  8
OBJECT
 10
15.85735475120411
 20
24.527990428254451
 30
0.0
 11
15.85735475120411
 21
24.647990428254449
 31
0.0
  0
LINE
  5
4FBB
  8
OBJECT
 10
15.85735475120411
 20
23.82299042825445
 30
0.0
 11
15.85735475120411
 21
23.94299042825444
 31
0.0
  0
LINE
  5
4FBC
  8
OBJECT
 10
15.406354751204111
 20
23.82299042825445
 30
0.0
 11
15.406354751204111
 21
23.94299042825444
 31
0.0
  0
LINE
  5
4FBD
  8
OBJECT
 10
15.406354751204111
 20
23.82299042825445
 30
0.0
 11
15.8743547512041
 21
23.82299042825445
 31
0.0
  0
LINE
  5
4FBE
  8
OBJECT
 10
15.406354751204111
 20
23.237990428254449
 30
0.0
 11
15.8743547512041
 21
23.237990428254449
 31
0.0
  0
LINE
  5
4FBF
  8
OBJECT
 10
15.406354751204111
 20
23.117990428254451
 30
0.0
 11
15.8743547512041
 21
23.117990428254451
 31
0.0
  0
LINE
  5
4FC0
  8
OBJECT
 10
15.406354751204111
 20
23.35299042825444
 30
0.0
 11
15.8743547512041
 21
23.35299042825444
 31
0.0
  0
LINE
  5
4FC1
  8
OBJECT
 10
15.406354751204111
 20
23.472990428254441
 30
0.0
 11
15.8743547512041
 21
23.472990428254441
 31
0.0
  0
LINE
  5
4FC2
  8
OBJECT
 10
15.406354751204111
 20
23.70799042825444
 30
0.0
 11
15.8743547512041
 21
23.70799042825444
 31
0.0
  0
LINE
  5
4FC3
  8
OBJECT
 10
15.406354751204111
 20
23.58799042825445
 30
0.0
 11
15.8743547512041
 21
23.58799042825445
 31
0.0
  0
LINE
  5
4FC4
  8
OBJECT
 10
15.406354751204111
 20
23.35299042825444
 30
0.0
 11
15.406354751204111
 21
23.472990428254441
 31
0.0
  0
LINE
  5
4FC5
  8
OBJECT
 10
15.406354751204111
 20
23.117990428254451
 30
0.0
 11
15.406354751204111
 21
23.237990428254449
 31
0.0
  0
LINE
  5
4FC6
  8
OBJECT
 10
15.406354751204111
 20
23.58799042825445
 30
0.0
 11
15.406354751204111
 21
23.70799042825444
 31
0.0
  0
LINE
  5
4FC7
  8
OBJECT
 10
15.85735475120411
 20
23.35299042825444
 30
0.0
 11
15.85735475120411
 21
23.472990428254441
 31
0.0
  0
LINE
  5
4FC8
  8
OBJECT
 10
15.85735475120411
 20
23.117990428254451
 30
0.0
 11
15.85735475120411
 21
23.237990428254449
 31
0.0
  0
LINE
  5
4FC9
  8
OBJECT
 10
15.85735475120411
 20
23.58799042825445
 30
0.0
 11
15.85735475120411
 21
23.70799042825444
 31
0.0
  0
LINE
  5
4FCA
  8
OBJECT
 10
15.406354751204111
 20
23.94299042825444
 30
0.0
 11
15.8743547512041
 21
23.94299042825444
 31
0.0
  0
LINE
  5
4FCB
  8
OBJECT
 10
15.406354751204111
 20
24.177990428254439
 30
0.0
 11
15.8743547512041
 21
24.177990428254439
 31
0.0
  0
LINE
  5
4FCC
  8
OBJECT
 10
15.406354751204111
 20
24.057990428254438
 30
0.0
 11
15.8743547512041
 21
24.057990428254438
 31
0.0
  0
LINE
  5
4FCD
  8
OBJECT
 10
15.406354751204111
 20
24.292990428254441
 30
0.0
 11
15.8743547512041
 21
24.292990428254441
 31
0.0
  0
LINE
  5
4FCE
  8
OBJECT
 10
15.406354751204111
 20
24.412990428254439
 30
0.0
 11
15.8743547512041
 21
24.412990428254439
 31
0.0
  0
LINE
  5
4FCF
  8
OBJECT
 10
15.406354751204111
 20
24.527990428254451
 30
0.0
 11
15.8743547512041
 21
24.527990428254451
 31
0.0
  0
LINE
  5
4FD0
  8
OBJECT
 10
15.406354751204111
 20
24.057990428254438
 30
0.0
 11
15.406354751204111
 21
24.177990428254439
 31
0.0
  0
LINE
  5
4FD1
  8
OBJECT
 10
15.406354751204111
 20
24.292990428254448
 30
0.0
 11
15.406354751204111
 21
24.412990428254439
 31
0.0
  0
LINE
  5
4FD2
  8
OBJECT
 10
15.85735475120411
 20
24.057990428254438
 30
0.0
 11
15.85735475120411
 21
24.177990428254439
 31
0.0
  0
LINE
  5
4FD3
  8
OBJECT
 10
15.85735475120411
 20
24.292990428254441
 30
0.0
 11
15.85735475120411
 21
24.412990428254439
 31
0.0
  0
LINE
  5
4FD4
  8
OBJECT
 10
15.406354751204111
 20
25.352990428254451
 30
0.0
 11
15.8743547512041
 21
25.352990428254451
 31
0.0
  0
LINE
  5
4FD5
  8
OBJECT
 10
15.406354751204111
 20
24.647990428254449
 30
0.0
 11
15.8743547512041
 21
24.647990428254449
 31
0.0
  0
LINE
  5
4FD6
  8
OBJECT
 10
15.406354751204111
 20
24.882990428254448
 30
0.0
 11
15.8743547512041
 21
24.882990428254448
 31
0.0
  0
LINE
  5
4FD7
  8
OBJECT
 10
15.406354751204111
 20
24.762990428254451
 30
0.0
 11
15.8743547512041
 21
24.762990428254451
 31
0.0
  0
LINE
  5
4FD8
  8
OBJECT
 10
15.406354751204111
 20
25.117990428254451
 30
0.0
 11
15.8743547512041
 21
25.117990428254451
 31
0.0
  0
LINE
  5
4FD9
  8
OBJECT
 10
15.406354751204111
 20
24.99799042825445
 30
0.0
 11
15.8743547512041
 21
24.99799042825445
 31
0.0
  0
LINE
  5
4FDA
  8
OBJECT
 10
15.406354751204111
 20
25.23299042825445
 30
0.0
 11
15.8743547512041
 21
25.23299042825445
 31
0.0
  0
LINE
  5
4FDB
  8
OBJECT
 10
15.406354751204111
 20
24.762990428254451
 30
0.0
 11
15.406354751204111
 21
24.882990428254448
 31
0.0
  0
LINE
  5
4FDC
  8
OBJECT
 10
15.406354751204111
 20
24.99799042825445
 30
0.0
 11
15.406354751204111
 21
25.117990428254451
 31
0.0
  0
LINE
  5
4FDD
  8
OBJECT
 10
15.406354751204111
 20
25.23299042825445
 30
0.0
 11
15.406354751204111
 21
25.352990428254451
 31
0.0
  0
LINE
  5
4FDE
  8
OBJECT
 10
15.85735475120411
 20
24.76299042825444
 30
0.0
 11
15.85735475120411
 21
24.882990428254448
 31
0.0
  0
LINE
  5
4FDF
  8
OBJECT
 10
15.85735475120411
 20
24.99799042825444
 30
0.0
 11
15.85735475120411
 21
25.117990428254451
 31
0.0
  0
LINE
  5
4FE0
  8
OBJECT
 10
15.85735475120411
 20
25.23299042825445
 30
0.0
 11
15.85735475120411
 21
25.352990428254451
 31
0.0
  0
LINE
  5
4FE1
  8
OBJECT
 10
15.406354751204111
 20
25.58799042825445
 30
0.0
 11
15.8743547512041
 21
25.58799042825445
 31
0.0
  0
LINE
  5
4FE2
  8
OBJECT
 10
15.406354751204111
 20
25.467990428254449
 30
0.0
 11
15.8743547512041
 21
25.467990428254449
 31
0.0
  0
LINE
  5
4FE3
  8
OBJECT
 10
15.406354751204111
 20
25.702990428254449
 30
0.0
 11
15.8743547512041
 21
25.702990428254449
 31
0.0
  0
LINE
  5
4FE4
  8
OBJECT
 10
15.406354751204111
 20
25.82299042825445
 30
0.0
 11
15.8743547512041
 21
25.82299042825445
 31
0.0
  0
LINE
  5
4FE5
  8
OBJECT
 10
15.406354751204111
 20
25.937990428254452
 30
0.0
 11
15.8743547512041
 21
25.937990428254452
 31
0.0
  0
LINE
  5
4FE6
  8
OBJECT
 10
15.406354751204111
 20
25.702990428254449
 30
0.0
 11
15.406354751204111
 21
25.82299042825445
 31
0.0
  0
LINE
  5
4FE7
  8
OBJECT
 10
15.406354751204111
 20
25.467990428254449
 30
0.0
 11
15.406354751204111
 21
25.58799042825445
 31
0.0
  0
LINE
  5
4FE8
  8
OBJECT
 10
15.85735475120411
 20
25.702990428254449
 30
0.0
 11
15.85735475120411
 21
25.82299042825445
 31
0.0
  0
LINE
  5
4FE9
  8
OBJECT
 10
15.85735475120411
 20
25.467990428254449
 30
0.0
 11
15.85735475120411
 21
25.58799042825445
 31
0.0
  0
LINE
  5
4FEA
  8
OBJECT
 10
15.406354751204111
 20
26.437990428254441
 30
0.0
 11
15.8743547512041
 21
26.437990428254441
 31
0.0
  0
LINE
  5
4FEB
  8
OBJECT
 10
15.406354751204111
 20
26.437990428254452
 30
0.0
 11
15.8743547512041
 21
26.437990428254441
 31
0.0
  0
POLYLINE
  5
4FED
  8
HIDDEN
 66
     1
 10
0.0
 20
0.0
 30
0.0
  0
VERTEX
  5
6C9F
  8
HIDDEN
 10
2.2029967701608761
 20
25.206490428254451
 30
0.0
  0
VERTEX
  5
6CA0
  8
HIDDEN
 10
2.257996770160875
 20
25.206490428254451
 30
0.0
  0
VERTEX
  5
6CA1
  8
HIDDEN
 10
2.257996770160875
 20
25.26649042825445
 30
0.0
  0
VERTEX
  5
6CA2
  8
HIDDEN
 10
2.2029967701608761
 20
25.26649042825445
 30
0.0
  0
SEQEND
  5
6CA3
  8
HIDDEN
  0
POLYLINE
  5
4FEE
  8
HIDDEN
 66
     1
 10
0.0
 20
0.0
 30
0.0
  0
VERTEX
  5
6CA4
  8
HIDDEN
 10
2.2029967701608761
 20
25.424490428254451
 30
0.0
  0
VERTEX
  5
6CA5
  8
HIDDEN
 10
2.257996770160875
 20
25.424490428254451
 30
0.0
  0
VERTEX
  5
6CA6
  8
HIDDEN
 10
2.257996770160875
 20
25.364490428254449
 30
0.0
  0
VERTEX
  5
6CA7
  8
HIDDEN
 10
2.2029967701608761
 20
25.364490428254449
 30
0.0
  0
SEQEND
  5
6CA8
  8
HIDDEN
  0
POLYLINE
  5
4FEF
  8
HIDDEN
 66
     1
 10
0.0
 20
0.0
 30
0.0
  0
VERTEX
  5
6CA9
  8
HIDDEN
 10
9.8369967701608712
 20
25.206490428254451
 30
0.0
  0
VERTEX
  5
6CAA
  8
HIDDEN
 10
9.7819967701608732
 20
25.206490428254451
 30
0.0
  0
VERTEX
  5
6CAB
  8
HIDDEN
 10
9.7819967701608732
 20
25.26649042825445
 30
0.0
  0
VERTEX
  5
6CAC
  8
HIDDEN
 10
9.8369967701608712
 20
25.26649042825445
 30
0.0
  0
SEQEND
  5
6CAD
  8
HIDDEN
  0
POLYLINE
  5
4FF0
  8
HIDDEN
 66
     1
 10
0.0
 20
0.0
 30
0.0
  0
VERTEX
  5
6CAE
  8
HIDDEN
 10
9.8369967701608712
 20
25.424490428254451
 30
0.0
  0
VERTEX
  5
6CAF
  8
HIDDEN
 10
9.7819967701608732
 20
25.424490428254451
 30
0.0
  0
VERTEX
  5
6CB0
  8
HIDDEN
 10
9.7819967701608732
 20
25.364490428254449
 30
0.0
  0
VERTEX
  5
6CB1
  8
HIDDEN
 10
9.8369967701608712
 20
25.364490428254449
 30
0.0
  0
SEQEND
  5
6CB2
  8
HIDDEN
  0
POLYLINE
  5
4FF1
  8
OBJECT
 66
     1
 10
0.0
 20
0.0
 30
0.0
  0
VERTEX
  5
6CB3
  8
OBJECT
 10
2.2029967701608761
 20
17.154490428254451
 30
0.0
  0
VERTEX
  5
6CB4
  8
OBJECT
 10
2.257996770160875
 20
17.154490428254451
 30
0.0
  0
VERTEX
  5
6CB5
  8
OBJECT
 10
2.257996770160875
 20
17.094490428254439
 30
0.0
  0
VERTEX
  5
6CB6
  8
OBJECT
 10
2.2029967701608761
 20
17.094490428254439
 30
0.0
  0
SEQEND
  5
6CB7
  8
OBJECT
  0
POLYLINE
  5
4FF2
  8
OBJECT
 66
     1
 10
0.0
 20
0.0
 30
0.0
  0
VERTEX
  5
6CB8
  8
OBJECT
 10
2.2029967701608761
 20
16.936490428254452
 30
0.0
  0
VERTEX
  5
6CB9
  8
OBJECT
 10
2.257996770160875
 20
16.936490428254441
 30
0.0
  0
VERTEX
  5
6CBA
  8
OBJECT
 10
2.257996770160875
 20
16.99649042825445
 30
0.0
  0
VERTEX
  5
6CBB
  8
OBJECT
 10
2.2029967701608761
 20
16.99649042825445
 30
0.0
  0
SEQEND
  5
6CBC
  8
OBJECT
  0
POLYLINE
  5
4FF3
  8
OBJECT
 66
     1
 10
0.0
 20
0.0
 30
0.0
  0
VERTEX
  5
6CBD
  8
OBJECT
 10
9.8369967701608712
 20
17.154490428254451
 30
0.0
  0
VERTEX
  5
6CBE
  8
OBJECT
 10
9.7819967701608732
 20
17.154490428254451
 30
0.0
  0
VERTEX
  5
6CBF
  8
OBJECT
 10
9.7819967701608732
 20
17.094490428254439
 30
0.0
  0
VERTEX
  5
6CC0
  8
OBJECT
 10
9.8369967701608712
 20
17.094490428254439
 30
0.0
  0
SEQEND
  5
6CC1
  8
OBJECT
  0
POLYLINE
  5
4FF4
  8
OBJECT
 66
     1
 10
0.0
 20
0.0
 30
0.0
  0
VERTEX
  5
6CC2
  8
OBJECT
 10
9.8369967701608712
 20
16.936490428254452
 30
0.0
  0
VERTEX
  5
6CC3
  8
OBJECT
 10
9.7819967701608732
 20
16.936490428254441
 30
0.0
  0
VERTEX
  5
6CC4
  8
OBJECT
 10
9.7819967701608732
 20
16.99649042825445
 30
0.0
  0
VERTEX
  5
6CC5
  8
OBJECT
 10
9.8369967701608712
 20
16.99649042825445
 30
0.0
  0
SEQEND
  5
6CC6
  8
OBJECT
  0
CIRCLE
  5
4FF5
  8
HIDDEN
 10
2.9889967701608731
 20
25.55449042825445
 30
0.0
 40
0.045
  0
CIRCLE
  5
4FF6
  8
HIDDEN
 10
2.9889967701608731
 20
25.55449042825445
 30
0.0
 40
0.108
  0
CIRCLE
  5
4FF7
  8
HIDDEN
 10
9.0509967701608716
 20
25.55449042825445
 30
0.0
 40
0.108
  0
CIRCLE
  5
4FF8
  8
HIDDEN
 10
9.0509967701608716
 20
25.55449042825445
 30
0.0
 40
0.045
  0
CIRCLE
  5
4FF9
  8
OBJECT
 10
2.9889967701608731
 20
16.806490428254449
 30
0.0
 40
0.108
  0
CIRCLE
  5
4FFA
  8
OBJECT
 10
2.9889967701608731
 20
16.806490428254449
 30
0.0
 40
0.045
  0
CIRCLE
  5
4FFB
  8
OBJECT
 10
9.0509967701608716
 20
16.806490428254449
 30
0.0
 40
0.108
  0
CIRCLE
  5
4FFC
  8
OBJECT
 10
9.0509967701608716
 20
16.806490428254449
 30
0.0
 40
0.045
  0
LINE
  5
4FFD
  8
OBJECT
 10
2.0999967701608782
 20
23.70799042825444
 30
0.0
 11
2.0999967701608782
 21
23.58799042825445
 31
0.0
  0
LINE
  5
4FFE
  8
OBJECT
 10
2.7619967701608799
 20
23.58799042825445
 30
0.0
 11
2.7619967701608799
 21
23.70799042825444
 31
0.0
  0
LINE
  5
4FFF
  8
OBJECT
 10
2.0829967701608778
 20
23.472990428254441
 30
0.0
 11
2.7619967701608799
 21
23.472990428254441
 31
0.0
  0
LINE
  5
5000
  8
OBJECT
 10
2.0829967701608778
 20
23.58799042825445
 30
0.0
 11
2.7619967701608799
 21
23.58799042825445
 31
0.0
  0
LINE
  5
5001
  8
OBJECT
 10
2.0829967701608751
 20
23.237990428254449
 30
0.0
 11
2.7619967701608799
 21
23.237990428254449
 31
0.0
  0
LINE
  5
5002
  8
OBJECT
 10
2.0829967701608751
 20
23.117990428254451
 30
0.0
 11
2.7619967701608799
 21
23.117990428254451
 31
0.0
  0
LINE
  5
5003
  8
OBJECT
 10
2.0829967701608778
 20
23.35299042825444
 30
0.0
 11
2.7619967701608799
 21
23.35299042825444
 31
0.0
  0
LINE
  5
5004
  8
OBJECT
 10
2.0829967701608751
 20
22.767990428254439
 30
0.0
 11
2.7619967701608799
 21
22.767990428254439
 31
0.0
  0
LINE
  5
5005
  8
OBJECT
 10
2.0829967701608751
 20
22.647990428254442
 30
0.0
 11
2.7619967701608799
 21
22.647990428254449
 31
0.0
  0
LINE
  5
5006
  8
OBJECT
 10
2.0829967701608751
 20
23.002990428254439
 30
0.0
 11
2.7619967701608799
 21
23.002990428254439
 31
0.0
  0
LINE
  5
5007
  8
OBJECT
 10
2.0829967701608751
 20
22.882990428254448
 30
0.0
 11
2.7619967701608799
 21
22.882990428254448
 31
0.0
  0
LINE
  5
5010
  8
OBJECT
 10
2.0999967701608782
 20
23.002990428254439
 30
0.0
 11
2.0999967701608782
 21
22.882990428254448
 31
0.0
  0
LINE
  5
5012
  8
OBJECT
 10
2.0999967701608742
 20
22.767990428254439
 30
0.0
 11
2.0999967701608742
 21
22.647990428254442
 31
0.0
  0
LINE
  5
5013
  8
OBJECT
 10
2.0999967701608782
 20
23.237990428254449
 30
0.0
 11
2.0999967701608782
 21
23.117990428254451
 31
0.0
  0
LINE
  5
5014
  8
OBJECT
 10
2.0999967701608782
 20
23.472990428254441
 30
0.0
 11
2.0999967701608782
 21
23.35299042825444
 31
0.0
  0
LINE
  5
5017
  8
OBJECT
 10
2.7619967701608799
 20
22.882990428254448
 30
0.0
 11
2.7619967701608799
 21
23.002990428254439
 31
0.0
  0
LINE
  5
5019
  8
OBJECT
 10
2.7619967701608799
 20
22.647990428254449
 30
0.0
 11
2.7619967701608799
 21
22.767990428254439
 31
0.0
  0
LINE
  5
501A
  8
OBJECT
 10
2.7619967701608799
 20
23.117990428254451
 30
0.0
 11
2.7619967701608799
 21
23.237990428254449
 31
0.0
  0
LINE
  5
501B
  8
OBJECT
 10
2.7619967701608799
 20
23.35299042825444
 30
0.0
 11
2.7619967701608799
 21
23.472990428254441
 31
0.0
  0
LINE
  5
501C
  8
OBJECT
 10
2.0829967701608818
 20
25.82299042825445
 30
0.0
 11
2.7619967701608839
 21
25.82299042825445
 31
0.0
  0
LINE
  5
501D
  8
OBJECT
 10
2.0829967701608818
 20
25.702990428254441
 30
0.0
 11
2.7619967701608839
 21
25.702990428254441
 31
0.0
  0
LINE
  5
501E
  8
OBJECT
 10
2.0829967701608818
 20
25.58799042825445
 30
0.0
 11
2.7619967701608839
 21
25.58799042825445
 31
0.0
  0
LINE
  5
501F
  8
OBJECT
 10
2.0829967701608818
 20
25.467990428254438
 30
0.0
 11
2.7619967701608839
 21
25.467990428254438
 31
0.0
  0
LINE
  5
5020
  8
OBJECT
 10
2.0829967701608818
 20
25.117990428254451
 30
0.0
 11
2.7619967701608839
 21
25.117990428254451
 31
0.0
  0
LINE
  5
5021
  8
OBJECT
 10
2.0829967701608818
 20
25.352990428254451
 30
0.0
 11
2.7619967701608839
 21
25.352990428254451
 31
0.0
  0
LINE
  5
5022
  8
OBJECT
 10
2.0829967701608818
 20
25.232990428254439
 30
0.0
 11
2.7619967701608839
 21
25.232990428254439
 31
0.0
  0
LINE
  5
5023
  8
OBJECT
 10
2.0829967701608818
 20
24.882990428254448
 30
0.0
 11
2.7619967701608839
 21
24.882990428254448
 31
0.0
  0
LINE
  5
5024
  8
OBJECT
 10
2.0829967701608818
 20
24.76299042825444
 30
0.0
 11
2.7619967701608839
 21
24.76299042825444
 31
0.0
  0
LINE
  5
5025
  8
OBJECT
 10
2.0829967701608818
 20
24.99799042825444
 30
0.0
 11
2.7619967701608839
 21
24.99799042825444
 31
0.0
  0
LINE
  5
5026
  8
OBJECT
 10
2.0829967701608778
 20
24.412990428254439
 30
0.0
 11
2.7619967701608839
 21
24.412990428254449
 31
0.0
  0
LINE
  5
5027
  8
OBJECT
 10
2.0829967701608778
 20
24.292990428254441
 30
0.0
 11
2.7619967701608839
 21
24.292990428254441
 31
0.0
  0
LINE
  5
5028
  8
OBJECT
 10
2.0829967701608818
 20
24.647990428254442
 30
0.0
 11
2.7619967701608839
 21
24.647990428254449
 31
0.0
  0
LINE
  5
5029
  8
OBJECT
 10
2.0829967701608778
 20
24.527990428254451
 30
0.0
 11
2.7619967701608839
 21
24.527990428254451
 31
0.0
  0
LINE
  5
502A
  8
OBJECT
 10
2.0829967701608778
 20
23.94299042825444
 30
0.0
 11
2.7619967701608799
 21
23.94299042825444
 31
0.0
  0
LINE
  5
502B
  8
OBJECT
 10
2.0829967701608778
 20
24.177990428254439
 30
0.0
 11
2.7619967701608839
 21
24.177990428254439
 31
0.0
  0
LINE
  5
502C
  8
OBJECT
 10
2.0829967701608778
 20
24.057990428254438
 30
0.0
 11
2.7619967701608799
 21
24.057990428254438
 31
0.0
  0
LINE
  5
502D
  8
OBJECT
 10
2.0829967701608778
 20
23.70799042825444
 30
0.0
 11
2.7619967701608799
 21
23.70799042825444
 31
0.0
  0
LINE
  5
502E
  8
OBJECT
 10
2.0829967701608778
 20
23.82299042825445
 30
0.0
 11
2.7619967701608799
 21
23.82299042825445
 31
0.0
  0
LINE
  5
502F
  8
OBJECT
 10
2.0999967701608808
 20
25.117990428254451
 30
0.0
 11
2.0999967701608808
 21
24.99799042825444
 31
0.0
  0
LINE
  5
5030
  8
OBJECT
 10
2.0999967701608782
 20
24.412990428254439
 30
0.0
 11
2.0999967701608782
 21
24.292990428254441
 31
0.0
  0
LINE
  5
5031
  8
OBJECT
 10
2.0999967701608782
 20
23.94299042825444
 30
0.0
 11
2.0999967701608782
 21
23.82299042825445
 31
0.0
  0
LINE
  5
5032
  8
OBJECT
 10
2.0999967701608782
 20
24.177990428254439
 30
0.0
 11
2.0999967701608782
 21
24.057990428254438
 31
0.0
  0
LINE
  5
5033
  8
OBJECT
 10
2.0999967701608782
 20
24.647990428254442
 30
0.0
 11
2.0999967701608782
 21
24.527990428254451
 31
0.0
  0
LINE
  5
5034
  8
OBJECT
 10
2.0999967701608782
 20
24.882990428254441
 30
0.0
 11
2.0999967701608782
 21
24.76299042825444
 31
0.0
  0
LINE
  5
5035
  8
OBJECT
 10
2.0999967701608808
 20
25.352990428254451
 30
0.0
 11
2.0999967701608808
 21
25.232990428254439
 31
0.0
  0
LINE
  5
5036
  8
OBJECT
 10
2.0999967701608808
 20
25.58799042825445
 30
0.0
 11
2.0999967701608808
 21
25.467990428254438
 31
0.0
  0
LINE
  5
5037
  8
OBJECT
 10
2.0999967701608808
 20
25.82299042825445
 30
0.0
 11
2.0999967701608808
 21
25.702990428254441
 31
0.0
  0
LINE
  5
5038
  8
OBJECT
 10
2.7619967701608839
 20
24.99799042825444
 30
0.0
 11
2.7619967701608839
 21
25.117990428254451
 31
0.0
  0
LINE
  5
5039
  8
OBJECT
 10
2.7619967701608839
 20
24.292990428254441
 30
0.0
 11
2.7619967701608839
 21
24.412990428254449
 31
0.0
  0
LINE
  5
503A
  8
OBJECT
 10
2.7619967701608799
 20
23.82299042825445
 30
0.0
 11
2.7619967701608799
 21
23.94299042825444
 31
0.0
  0
LINE
  5
503B
  8
OBJECT
 10
2.7619967701608799
 20
24.057990428254438
 30
0.0
 11
2.7619967701608839
 21
24.177990428254439
 31
0.0
  0
LINE
  5
503C
  8
OBJECT
 10
2.7619967701608839
 20
24.527990428254451
 30
0.0
 11
2.7619967701608839
 21
24.647990428254449
 31
0.0
  0
LINE
  5
503D
  8
OBJECT
 10
2.7619967701608839
 20
24.76299042825444
 30
0.0
 11
2.7619967701608839
 21
24.882990428254448
 31
0.0
  0
LINE
  5
503E
  8
OBJECT
 10
2.7619967701608839
 20
25.232990428254439
 30
0.0
 11
2.7619967701608839
 21
25.352990428254451
 31
0.0
  0
LINE
  5
503F
  8
OBJECT
 10
2.7619967701608839
 20
25.467990428254438
 30
0.0
 11
2.7619967701608839
 21
25.58799042825445
 31
0.0
  0
LINE
  5
5040
  8
OBJECT
 10
2.7619967701608839
 20
25.702990428254441
 30
0.0
 11
2.7619967701608839
 21
25.82299042825445
 31
0.0
  0
LINE
  5
5041
  8
OBJECT
 10
9.2779967701608825
 20
25.822990428254439
 30
0.0
 11
9.9569967701608846
 21
25.822990428254439
 31
0.0
  0
LINE
  5
5042
  8
OBJECT
 10
9.2779967701608825
 20
25.702990428254431
 30
0.0
 11
9.9569967701608846
 21
25.702990428254431
 31
0.0
  0
LINE
  5
5043
  8
OBJECT
 10
9.2779967701608825
 20
25.232990428254439
 30
0.0
 11
9.9569967701608846
 21
25.232990428254439
 31
0.0
  0
LINE
  5
5044
  8
OBJECT
 10
9.2779967701608825
 20
25.35299042825444
 30
0.0
 11
9.9569967701608846
 21
25.35299042825444
 31
0.0
  0
LINE
  5
5045
  8
OBJECT
 10
9.2779967701608825
 20
25.117990428254441
 30
0.0
 11
9.9569967701608846
 21
25.117990428254441
 31
0.0
  0
LINE
  5
5046
  8
OBJECT
 10
9.2779967701608825
 20
25.587990428254439
 30
0.0
 11
9.9569967701608846
 21
25.587990428254439
 31
0.0
  0
LINE
  5
5047
  8
OBJECT
 10
9.2779967701608825
 20
25.467990428254438
 30
0.0
 11
9.9569967701608846
 21
25.467990428254438
 31
0.0
  0
LINE
  5
5048
  8
OBJECT
 10
9.2779967701608825
 20
24.527990428254441
 30
0.0
 11
9.9569967701608775
 21
24.527990428254441
 31
0.0
  0
LINE
  5
5049
  8
OBJECT
 10
9.2779967701608825
 20
24.647990428254442
 30
0.0
 11
9.9569967701608775
 21
24.647990428254442
 31
0.0
  0
LINE
  5
504A
  8
OBJECT
 10
9.2779967701608825
 20
24.412990428254439
 30
0.0
 11
9.9569967701608775
 21
24.412990428254439
 31
0.0
  0
LINE
  5
504B
  8
OBJECT
 10
9.2779967701608825
 20
24.997990428254429
 30
0.0
 11
9.9569967701608846
 21
24.997990428254429
 31
0.0
  0
LINE
  5
504C
  8
OBJECT
 10
9.2779967701608825
 20
24.76299042825444
 30
0.0
 11
9.9569967701608775
 21
24.76299042825444
 31
0.0
  0
LINE
  5
504D
  8
OBJECT
 10
9.2779967701608825
 20
24.882990428254441
 30
0.0
 11
9.9569967701608775
 21
24.882990428254441
 31
0.0
  0
LINE
  5
504E
  8
OBJECT
 10
9.2779967701608825
 20
23.822990428254439
 30
0.0
 11
9.9569967701608775
 21
23.822990428254439
 31
0.0
  0
LINE
  5
504F
  8
OBJECT
 10
9.2779967701608825
 20
23.70799042825443
 30
0.0
 11
9.9569967701608775
 21
23.70799042825443
 31
0.0
  0
LINE
  5
5050
  8
OBJECT
 10
9.2779967701608825
 20
24.292990428254441
 30
0.0
 11
9.9569967701608775
 21
24.292990428254441
 31
0.0
  0
LINE
  5
5051
  8
OBJECT
 10
9.2779967701608825
 20
24.057990428254438
 30
0.0
 11
9.9569967701608775
 21
24.057990428254438
 31
0.0
  0
LINE
  5
5052
  8
OBJECT
 10
9.2779967701608825
 20
24.177990428254439
 30
0.0
 11
9.9569967701608775
 21
24.177990428254439
 31
0.0
  0
LINE
  5
5053
  8
OBJECT
 10
9.2779967701608825
 20
23.94299042825444
 30
0.0
 11
9.9569967701608775
 21
23.94299042825444
 31
0.0
  0
LINE
  5
5054
  8
OBJECT
 10
9.2779967701608754
 20
23.002990428254439
 30
0.0
 11
9.9569967701608704
 21
23.002990428254439
 31
0.0
  0
LINE
  5
5055
  8
OBJECT
 10
9.2779967701608754
 20
23.587990428254439
 30
0.0
 11
9.9569967701608775
 21
23.587990428254439
 31
0.0
  0
LINE
  5
5056
  8
OBJECT
 10
9.2779967701608754
 20
23.35299042825444
 30
0.0
 11
9.9569967701608775
 21
23.35299042825444
 31
0.0
  0
LINE
  5
5057
  8
OBJECT
 10
9.2779967701608754
 20
23.472990428254441
 30
0.0
 11
9.9569967701608775
 21
23.472990428254441
 31
0.0
  0
LINE
  5
5058
  8
OBJECT
 10
9.2779967701608754
 20
23.117990428254441
 30
0.0
 11
9.9569967701608704
 21
23.117990428254441
 31
0.0
  0
LINE
  5
5059
  8
OBJECT
 10
9.2779967701608754
 20
23.237990428254442
 30
0.0
 11
9.9569967701608704
 21
23.237990428254442
 31
0.0
  0
LINE
  5
505A
  8
OBJECT
 10
9.2779967701608754
 20
22.882990428254441
 30
0.0
 11
9.9569967701608704
 21
22.882990428254441
 31
0.0
  0
LINE
  5
505B
  8
OBJECT
 10
9.2779967701608754
 20
22.647990428254442
 30
0.0
 11
9.9569967701608704
 21
22.647990428254442
 31
0.0
  0
LINE
  5
505C
  8
OBJECT
 10
9.2779967701608754
 20
22.767990428254439
 30
0.0
 11
9.9569967701608704
 21
22.767990428254439
 31
0.0
  0
LINE
  5
5063
  8
OBJECT
 10
9.2779967701608754
 20
23.587990428254439
 30
0.0
 11
9.2779967701608825
 21
23.70799042825443
 31
0.0
  0
LINE
  5
5066
  8
OBJECT
 10
9.2779967701608754
 20
22.882990428254441
 30
0.0
 11
9.2779967701608754
 21
23.002990428254439
 31
0.0
  0
LINE
  5
5068
  8
OBJECT
 10
9.2779967701608754
 20
22.647990428254442
 30
0.0
 11
9.2779967701608754
 21
22.767990428254439
 31
0.0
  0
LINE
  5
5069
  8
OBJECT
 10
9.2779967701608754
 20
23.117990428254441
 30
0.0
 11
9.2779967701608754
 21
23.237990428254442
 31
0.0
  0
LINE
  5
506A
  8
OBJECT
 10
9.2779967701608754
 20
23.35299042825444
 30
0.0
 11
9.2779967701608754
 21
23.472990428254441
 31
0.0
  0
LINE
  5
506B
  8
OBJECT
 10
9.2779967701608825
 20
24.99799042825444
 30
0.0
 11
9.2779967701608825
 21
25.117990428254441
 31
0.0
  0
LINE
  5
506C
  8
OBJECT
 10
9.2779967701608825
 20
24.292990428254441
 30
0.0
 11
9.2779967701608825
 21
24.412990428254439
 31
0.0
  0
LINE
  5
506D
  8
OBJECT
 10
9.2779967701608754
 20
23.822990428254439
 30
0.0
 11
9.2779967701608825
 21
23.94299042825444
 31
0.0
  0
LINE
  5
506E
  8
OBJECT
 10
9.2779967701608754
 20
24.057990428254438
 30
0.0
 11
9.2779967701608825
 21
24.177990428254439
 31
0.0
  0
LINE
  5
506F
  8
OBJECT
 10
9.2779967701608825
 20
24.527990428254441
 30
0.0
 11
9.2779967701608825
 21
24.647990428254442
 31
0.0
  0
LINE
  5
5070
  8
OBJECT
 10
9.2779967701608825
 20
24.76299042825444
 30
0.0
 11
9.2779967701608825
 21
24.882990428254441
 31
0.0
  0
LINE
  5
5071
  8
OBJECT
 10
9.2779967701608825
 20
25.232990428254439
 30
0.0
 11
9.2779967701608825
 21
25.35299042825444
 31
0.0
  0
LINE
  5
5072
  8
OBJECT
 10
9.2779967701608825
 20
25.467990428254438
 30
0.0
 11
9.2779967701608825
 21
25.587990428254439
 31
0.0
  0
LINE
  5
5073
  8
OBJECT
 10
9.2779967701608825
 20
25.702990428254441
 30
0.0
 11
9.2779967701608825
 21
25.822990428254439
 31
0.0
  0
LINE
  5
5074
  8
OBJECT
 10
9.9399967701608745
 20
23.587990428254439
 30
0.0
 11
9.9399967701608745
 21
23.70799042825443
 31
0.0
  0
LINE
  5
5077
  8
OBJECT
 10
9.9399967701608745
 20
22.882990428254441
 30
0.0
 11
9.9399967701608745
 21
23.002990428254439
 31
0.0
  0
LINE
  5
5079
  8
OBJECT
 10
9.9399967701608745
 20
22.647990428254442
 30
0.0
 11
9.9399967701608745
 21
22.767990428254439
 31
0.0
  0
LINE
  5
507A
  8
OBJECT
 10
9.9399967701608745
 20
23.117990428254441
 30
0.0
 11
9.9399967701608745
 21
23.237990428254442
 31
0.0
  0
LINE
  5
507B
  8
OBJECT
 10
9.9399967701608745
 20
23.35299042825444
 30
0.0
 11
9.9399967701608745
 21
23.472990428254441
 31
0.0
  0
LINE
  5
507C
  8
OBJECT
 10
9.9399967701608816
 20
24.997990428254429
 30
0.0
 11
9.9399967701608816
 21
25.117990428254441
 31
0.0
  0
LINE
  5
507D
  8
OBJECT
 10
9.9399967701608745
 20
24.292990428254441
 30
0.0
 11
9.9399967701608745
 21
24.412990428254439
 31
0.0
  0
LINE
  5
507E
  8
OBJECT
 10
9.9399967701608745
 20
23.822990428254439
 30
0.0
 11
9.9399967701608745
 21
23.94299042825444
 31
0.0
  0
LINE
  5
507F
  8
OBJECT
 10
9.9399967701608745
 20
24.057990428254438
 30
0.0
 11
9.9399967701608745
 21
24.177990428254439
 31
0.0
  0
LINE
  5
5080
  8
OBJECT
 10
9.9399967701608745
 20
24.527990428254441
 30
0.0
 11
9.9399967701608745
 21
24.647990428254442
 31
0.0
  0
LINE
  5
5081
  8
OBJECT
 10
9.9399967701608745
 20
24.76299042825444
 30
0.0
 11
9.9399967701608745
 21
24.882990428254441
 31
0.0
  0
LINE
  5
5082
  8
OBJECT
 10
9.9399967701608816
 20
25.232990428254439
 30
0.0
 11
9.9399967701608816
 21
25.35299042825444
 31
0.0
  0
LINE
  5
5083
  8
OBJECT
 10
9.9399967701608816
 20
25.467990428254438
 30
0.0
 11
9.9399967701608816
 21
25.587990428254439
 31
0.0
  0
LINE
  5
5084
  8
OBJECT
 10
9.9399967701608816
 20
25.702990428254431
 30
0.0
 11
9.9399967701608816
 21
25.822990428254439
 31
0.0
  0
LINE
  5
5224
  8
OBJECT
 10
15.406354751204111
 20
17.242990428254451
 30
0.0
 11
15.406354751204111
 21
17.362990428254449
 31
0.0
  0
LINE
  5
5225
  8
OBJECT
 10
15.85735475120411
 20
17.242990428254451
 30
0.0
 11
15.85735475120411
 21
17.362990428254449
 31
0.0
  0
LINE
  5
5226
  8
OBJECT
 10
15.406354751204111
 20
16.537990428254449
 30
0.0
 11
15.406354751204111
 21
16.65799042825445
 31
0.0
  0
LINE
  5
5227
  8
OBJECT
 10
15.85735475120411
 20
16.537990428254449
 30
0.0
 11
15.85735475120411
 21
16.65799042825445
 31
0.0
  0
LINE
  5
5228
  8
OBJECT
 10
15.406354751204111
 20
16.537990428254449
 30
0.0
 11
15.8743547512041
 21
16.537990428254449
 31
0.0
  0
LINE
  5
5229
  8
OBJECT
 10
15.406354751204111
 20
16.89299042825445
 30
0.0
 11
15.8743547512041
 21
16.89299042825445
 31
0.0
  0
LINE
  5
522A
  8
OBJECT
 10
15.406354751204111
 20
17.007990428254448
 30
0.0
 11
15.8743547512041
 21
17.007990428254448
 31
0.0
  0
LINE
  5
522B
  8
OBJECT
 10
15.406354751204111
 20
17.127990428254439
 30
0.0
 11
15.8743547512041
 21
17.127990428254439
 31
0.0
  0
LINE
  5
522C
  8
OBJECT
 10
15.406354751204111
 20
17.242990428254451
 30
0.0
 11
15.8743547512041
 21
17.242990428254451
 31
0.0
  0
LINE
  5
522D
  8
OBJECT
 10
15.406354751204111
 20
16.772990428254449
 30
0.0
 11
15.8743547512041
 21
16.772990428254449
 31
0.0
  0
LINE
  5
522E
  8
OBJECT
 10
15.406354751204111
 20
16.65799042825445
 30
0.0
 11
15.8743547512041
 21
16.65799042825445
 31
0.0
  0
LINE
  5
522F
  8
OBJECT
 10
15.85735475120411
 20
16.772990428254449
 30
0.0
 11
15.85735475120411
 21
16.89299042825445
 31
0.0
  0
LINE
  5
5230
  8
OBJECT
 10
15.85735475120411
 20
17.007990428254448
 30
0.0
 11
15.85735475120411
 21
17.127990428254439
 31
0.0
  0
LINE
  5
5231
  8
OBJECT
 10
15.406354751204111
 20
16.772990428254449
 30
0.0
 11
15.406354751204111
 21
16.89299042825445
 31
0.0
  0
LINE
  5
5232
  8
OBJECT
 10
15.406354751204111
 20
17.007990428254448
 30
0.0
 11
15.406354751204111
 21
17.127990428254439
 31
0.0
  0
LINE
  5
5233
  8
OBJECT
 10
15.406354751204111
 20
17.597990428254441
 30
0.0
 11
15.8743547512041
 21
17.597990428254441
 31
0.0
  0
LINE
  5
5234
  8
OBJECT
 10
15.406354751204111
 20
17.83299042825444
 30
0.0
 11
15.8743547512041
 21
17.83299042825444
 31
0.0
  0
LINE
  5
5235
  8
OBJECT
 10
15.406354751204111
 20
17.71299042825445
 30
0.0
 11
15.8743547512041
 21
17.71299042825445
 31
0.0
  0
LINE
  5
5236
  8
OBJECT
 10
15.406354751204111
 20
18.06799042825444
 30
0.0
 11
15.8743547512041
 21
18.06799042825444
 31
0.0
  0
LINE
  5
5237
  8
OBJECT
 10
15.406354751204111
 20
17.947990428254439
 30
0.0
 11
15.8743547512041
 21
17.947990428254439
 31
0.0
  0
LINE
  5
5238
  8
OBJECT
 10
15.406354751204111
 20
17.362990428254449
 30
0.0
 11
15.8743547512041
 21
17.362990428254449
 31
0.0
  0
LINE
  5
5239
  8
OBJECT
 10
15.406354751204111
 20
17.477990428254451
 30
0.0
 11
15.8743547512041
 21
17.477990428254451
 31
0.0
  0
LINE
  5
523A
  8
OBJECT
 10
15.85735475120411
 20
17.71299042825445
 30
0.0
 11
15.85735475120411
 21
17.83299042825444
 31
0.0
  0
LINE
  5
523B
  8
OBJECT
 10
15.85735475120411
 20
17.477990428254451
 30
0.0
 11
15.85735475120411
 21
17.597990428254441
 31
0.0
  0
LINE
  5
523C
  8
OBJECT
 10
15.85735475120411
 20
17.947990428254439
 30
0.0
 11
15.85735475120411
 21
18.06799042825444
 31
0.0
  0
LINE
  5
523D
  8
OBJECT
 10
15.406354751204111
 20
17.71299042825445
 30
0.0
 11
15.406354751204111
 21
17.83299042825444
 31
0.0
  0
LINE
  5
523E
  8
OBJECT
 10
15.406354751204111
 20
17.477990428254451
 30
0.0
 11
15.406354751204111
 21
17.597990428254441
 31
0.0
  0
LINE
  5
523F
  8
OBJECT
 10
15.406354751204111
 20
17.947990428254439
 30
0.0
 11
15.406354751204111
 21
18.06799042825444
 31
0.0
  0
LINE
  5
5240
  8
OBJECT
 10
15.406354751204111
 20
18.537990428254449
 30
0.0
 11
15.8743547512041
 21
18.537990428254449
 31
0.0
  0
LINE
  5
5241
  8
OBJECT
 10
15.406354751204111
 20
18.417990428254448
 30
0.0
 11
15.8743547512041
 21
18.417990428254448
 31
0.0
  0
LINE
  5
5242
  8
OBJECT
 10
15.406354751204111
 20
18.652990428254451
 30
0.0
 11
15.8743547512041
 21
18.652990428254451
 31
0.0
  0
LINE
  5
5243
  8
OBJECT
 10
15.406354751204111
 20
18.772990428254449
 30
0.0
 11
15.8743547512041
 21
18.772990428254449
 31
0.0
  0
LINE
  5
5244
  8
OBJECT
 10
15.406354751204111
 20
18.30299042825445
 30
0.0
 11
15.8743547512041
 21
18.30299042825445
 31
0.0
  0
LINE
  5
5245
  8
OBJECT
 10
15.406354751204111
 20
18.182990428254449
 30
0.0
 11
15.8743547512041
 21
18.182990428254449
 31
0.0
  0
LINE
  5
5246
  8
OBJECT
 10
15.85735475120411
 20
18.417990428254441
 30
0.0
 11
15.85735475120411
 21
18.537990428254449
 31
0.0
  0
LINE
  5
5247
  8
OBJECT
 10
15.85735475120411
 20
18.182990428254449
 30
0.0
 11
15.85735475120411
 21
18.30299042825445
 31
0.0
  0
LINE
  5
5248
  8
OBJECT
 10
15.85735475120411
 20
18.652990428254441
 30
0.0
 11
15.85735475120411
 21
18.772990428254449
 31
0.0
  0
LINE
  5
5249
  8
OBJECT
 10
15.406354751204111
 20
18.417990428254448
 30
0.0
 11
15.406354751204111
 21
18.537990428254449
 31
0.0
  0
LINE
  5
524A
  8
OBJECT
 10
15.406354751204111
 20
18.182990428254449
 30
0.0
 11
15.406354751204111
 21
18.30299042825445
 31
0.0
  0
LINE
  5
524B
  8
OBJECT
 10
15.406354751204111
 20
18.652990428254451
 30
0.0
 11
15.406354751204111
 21
18.772990428254449
 31
0.0
  0
LINE
  5
524C
  8
OBJECT
 10
15.406354751204111
 20
20.297990428254451
 30
0.0
 11
15.406354751204111
 21
20.417990428254448
 31
0.0
  0
LINE
  5
524D
  8
OBJECT
 10
15.85735475120411
 20
20.297990428254451
 30
0.0
 11
15.85735475120411
 21
20.417990428254448
 31
0.0
  0
LINE
  5
524E
  8
OBJECT
 10
15.406354751204111
 20
19.592990428254449
 30
0.0
 11
15.406354751204111
 21
19.71299042825445
 31
0.0
  0
LINE
  5
524F
  8
OBJECT
 10
15.85735475120411
 20
19.592990428254449
 30
0.0
 11
15.85735475120411
 21
19.71299042825445
 31
0.0
  0
LINE
  5
5250
  8
OBJECT
 10
15.406354751204111
 20
19.242990428254451
 30
0.0
 11
15.8743547512041
 21
19.242990428254451
 31
0.0
  0
LINE
  5
5251
  8
OBJECT
 10
15.406354751204111
 20
19.12299042825445
 30
0.0
 11
15.8743547512041
 21
19.12299042825445
 31
0.0
  0
LINE
  5
5252
  8
OBJECT
 10
15.406354751204111
 20
19.35799042825445
 30
0.0
 11
15.8743547512041
 21
19.35799042825445
 31
0.0
  0
LINE
  5
5253
  8
OBJECT
 10
15.406354751204111
 20
19.477990428254451
 30
0.0
 11
15.8743547512041
 21
19.477990428254451
 31
0.0
  0
LINE
  5
5254
  8
OBJECT
 10
15.406354751204111
 20
19.592990428254449
 30
0.0
 11
15.8743547512041
 21
19.592990428254449
 31
0.0
  0
LINE
  5
5255
  8
OBJECT
 10
15.406354751204111
 20
19.007990428254448
 30
0.0
 11
15.8743547512041
 21
19.007990428254448
 31
0.0
  0
LINE
  5
5256
  8
OBJECT
 10
15.406354751204111
 20
18.887990428254451
 30
0.0
 11
15.8743547512041
 21
18.887990428254451
 31
0.0
  0
LINE
  5
5257
  8
OBJECT
 10
15.85735475120411
 20
18.88799042825444
 30
0.0
 11
15.85735475120411
 21
19.007990428254448
 31
0.0
  0
LINE
  5
5258
  8
OBJECT
 10
15.85735475120411
 20
19.12299042825445
 30
0.0
 11
15.85735475120411
 21
19.242990428254451
 31
0.0
  0
LINE
  5
5259
  8
OBJECT
 10
15.85735475120411
 20
19.35799042825445
 30
0.0
 11
15.85735475120411
 21
19.477990428254451
 31
0.0
  0
LINE
  5
525A
  8
OBJECT
 10
15.406354751204111
 20
18.887990428254451
 30
0.0
 11
15.406354751204111
 21
19.007990428254448
 31
0.0
  0
LINE
  5
525B
  8
OBJECT
 10
15.406354751204111
 20
19.12299042825445
 30
0.0
 11
15.406354751204111
 21
19.242990428254451
 31
0.0
  0
LINE
  5
525C
  8
OBJECT
 10
15.406354751204111
 20
19.35799042825445
 30
0.0
 11
15.406354751204111
 21
19.477990428254451
 31
0.0
  0
LINE
  5
525D
  8
OBJECT
 10
15.406354751204111
 20
19.947990428254439
 30
0.0
 11
15.8743547512041
 21
19.947990428254439
 31
0.0
  0
LINE
  5
525E
  8
OBJECT
 10
15.406354751204111
 20
20.182990428254438
 30
0.0
 11
15.8743547512041
 21
20.182990428254438
 31
0.0
  0
LINE
  5
525F
  8
OBJECT
 10
15.406354751204111
 20
20.062990428254452
 30
0.0
 11
15.8743547512041
 21
20.062990428254452
 31
0.0
  0
LINE
  5
5260
  8
OBJECT
 10
15.406354751204111
 20
20.297990428254451
 30
0.0
 11
15.8743547512041
 21
20.297990428254451
 31
0.0
  0
LINE
  5
5261
  8
OBJECT
 10
15.406354751204111
 20
19.827990428254449
 30
0.0
 11
15.8743547512041
 21
19.827990428254449
 31
0.0
  0
LINE
  5
5262
  8
OBJECT
 10
15.406354751204111
 20
19.71299042825445
 30
0.0
 11
15.8743547512041
 21
19.71299042825445
 31
0.0
  0
LINE
  5
5263
  8
OBJECT
 10
15.85735475120411
 20
19.827990428254449
 30
0.0
 11
15.85735475120411
 21
19.947990428254439
 31
0.0
  0
LINE
  5
5264
  8
OBJECT
 10
15.85735475120411
 20
20.062990428254452
 30
0.0
 11
15.85735475120411
 21
20.182990428254438
 31
0.0
  0
LINE
  5
5265
  8
OBJECT
 10
15.406354751204111
 20
19.827990428254449
 30
0.0
 11
15.406354751204111
 21
19.947990428254439
 31
0.0
  0
LINE
  5
5266
  8
OBJECT
 10
15.406354751204111
 20
20.062990428254452
 30
0.0
 11
15.406354751204111
 21
20.182990428254438
 31
0.0
  0
LINE
  5
5267
  8
OBJECT
 10
15.406354751204111
 20
20.417990428254448
 30
0.0
 11
15.8743547512041
 21
20.417990428254448
 31
0.0
  0
LINE
  5
5268
  8
OBJECT
 10
14.316354751204109
 20
17.242990428254451
 30
0.0
 11
14.316354751204109
 21
17.362990428254449
 31
0.0
  0
LINE
  5
5269
  8
OBJECT
 10
14.76735475120411
 20
17.242990428254451
 30
0.0
 11
14.76735475120411
 21
17.362990428254449
 31
0.0
  0
LINE
  5
526A
  8
OBJECT
 10
14.316354751204109
 20
16.537990428254449
 30
0.0
 11
14.316354751204109
 21
16.65799042825445
 31
0.0
  0
LINE
  5
526B
  8
OBJECT
 10
14.76735475120411
 20
16.537990428254449
 30
0.0
 11
14.76735475120411
 21
16.65799042825445
 31
0.0
  0
LINE
  5
526C
  8
OBJECT
 10
14.76735475120411
 20
16.537990428254449
 30
0.0
 11
14.299354751204101
 21
16.537990428254449
 31
0.0
  0
LINE
  5
526D
  8
OBJECT
 10
14.76735475120411
 20
17.242990428254451
 30
0.0
 11
14.299354751204101
 21
17.242990428254451
 31
0.0
  0
LINE
  5
526E
  8
OBJECT
 10
14.76735475120411
 20
17.127990428254439
 30
0.0
 11
14.299354751204101
 21
17.127990428254439
 31
0.0
  0
LINE
  5
526F
  8
OBJECT
 10
14.76735475120411
 20
17.007990428254448
 30
0.0
 11
14.299354751204101
 21
17.007990428254448
 31
0.0
  0
LINE
  5
5270
  8
OBJECT
 10
14.76735475120411
 20
16.89299042825445
 30
0.0
 11
14.299354751204101
 21
16.89299042825445
 31
0.0
  0
LINE
  5
5271
  8
OBJECT
 10
14.76735475120411
 20
16.65799042825445
 30
0.0
 11
14.299354751204101
 21
16.65799042825445
 31
0.0
  0
LINE
  5
5272
  8
OBJECT
 10
14.76735475120411
 20
16.772990428254449
 30
0.0
 11
14.299354751204101
 21
16.772990428254449
 31
0.0
  0
LINE
  5
5273
  8
OBJECT
 10
14.76735475120411
 20
16.772990428254449
 30
0.0
 11
14.76735475120411
 21
16.89299042825445
 31
0.0
  0
LINE
  5
5274
  8
OBJECT
 10
14.76735475120411
 20
17.007990428254448
 30
0.0
 11
14.76735475120411
 21
17.127990428254439
 31
0.0
  0
LINE
  5
5275
  8
OBJECT
 10
14.316354751204109
 20
16.772990428254449
 30
0.0
 11
14.316354751204109
 21
16.89299042825445
 31
0.0
  0
LINE
  5
5276
  8
OBJECT
 10
14.316354751204109
 20
17.007990428254448
 30
0.0
 11
14.316354751204109
 21
17.127990428254439
 31
0.0
  0
LINE
  5
5277
  8
OBJECT
 10
14.76735475120411
 20
17.947990428254439
 30
0.0
 11
14.299354751204101
 21
17.947990428254439
 31
0.0
  0
LINE
  5
5278
  8
OBJECT
 10
14.76735475120411
 20
18.06799042825444
 30
0.0
 11
14.299354751204101
 21
18.06799042825444
 31
0.0
  0
LINE
  5
5279
  8
OBJECT
 10
14.76735475120411
 20
17.71299042825445
 30
0.0
 11
14.299354751204101
 21
17.71299042825445
 31
0.0
  0
LINE
  5
527A
  8
OBJECT
 10
14.76735475120411
 20
17.83299042825444
 30
0.0
 11
14.299354751204101
 21
17.83299042825444
 31
0.0
  0
LINE
  5
527B
  8
OBJECT
 10
14.76735475120411
 20
17.597990428254441
 30
0.0
 11
14.299354751204101
 21
17.597990428254441
 31
0.0
  0
LINE
  5
527C
  8
OBJECT
 10
14.76735475120411
 20
17.477990428254451
 30
0.0
 11
14.299354751204101
 21
17.477990428254451
 31
0.0
  0
LINE
  5
527D
  8
OBJECT
 10
14.76735475120411
 20
17.362990428254449
 30
0.0
 11
14.299354751204101
 21
17.362990428254449
 31
0.0
  0
LINE
  5
527E
  8
OBJECT
 10
14.76735475120411
 20
17.71299042825445
 30
0.0
 11
14.76735475120411
 21
17.83299042825444
 31
0.0
  0
LINE
  5
527F
  8
OBJECT
 10
14.76735475120411
 20
17.477990428254451
 30
0.0
 11
14.76735475120411
 21
17.597990428254441
 31
0.0
  0
LINE
  5
5280
  8
OBJECT
 10
14.76735475120411
 20
17.947990428254439
 30
0.0
 11
14.76735475120411
 21
18.06799042825444
 31
0.0
  0
LINE
  5
5281
  8
OBJECT
 10
14.316354751204109
 20
17.71299042825445
 30
0.0
 11
14.316354751204109
 21
17.83299042825444
 31
0.0
  0
LINE
  5
5282
  8
OBJECT
 10
14.316354751204109
 20
17.477990428254451
 30
0.0
 11
14.316354751204109
 21
17.597990428254441
 31
0.0
  0
LINE
  5
5283
  8
OBJECT
 10
14.316354751204109
 20
17.947990428254439
 30
0.0
 11
14.316354751204109
 21
18.06799042825444
 31
0.0
  0
LINE
  5
5284
  8
OBJECT
 10
14.76735475120411
 20
18.772990428254449
 30
0.0
 11
14.299354751204101
 21
18.772990428254449
 31
0.0
  0
LINE
  5
5285
  8
OBJECT
 10
14.76735475120411
 20
18.652990428254451
 30
0.0
 11
14.299354751204101
 21
18.652990428254451
 31
0.0
  0
LINE
  5
5286
  8
OBJECT
 10
14.76735475120411
 20
18.417990428254448
 30
0.0
 11
14.299354751204101
 21
18.417990428254448
 31
0.0
  0
LINE
  5
5287
  8
OBJECT
 10
14.76735475120411
 20
18.537990428254449
 30
0.0
 11
14.299354751204101
 21
18.537990428254449
 31
0.0
  0
LINE
  5
5288
  8
OBJECT
 10
14.76735475120411
 20
18.182990428254449
 30
0.0
 11
14.299354751204101
 21
18.182990428254449
 31
0.0
  0
LINE
  5
5289
  8
OBJECT
 10
14.76735475120411
 20
18.30299042825445
 30
0.0
 11
14.299354751204101
 21
18.30299042825445
 31
0.0
  0
LINE
  5
528A
  8
OBJECT
 10
14.76735475120411
 20
18.417990428254448
 30
0.0
 11
14.76735475120411
 21
18.537990428254449
 31
0.0
  0
LINE
  5
528B
  8
OBJECT
 10
14.76735475120411
 20
18.182990428254449
 30
0.0
 11
14.76735475120411
 21
18.30299042825445
 31
0.0
  0
LINE
  5
528C
  8
OBJECT
 10
14.76735475120411
 20
18.652990428254451
 30
0.0
 11
14.76735475120411
 21
18.772990428254449
 31
0.0
  0
LINE
  5
528D
  8
OBJECT
 10
14.316354751204109
 20
18.417990428254441
 30
0.0
 11
14.316354751204109
 21
18.537990428254449
 31
0.0
  0
LINE
  5
528E
  8
OBJECT
 10
14.316354751204109
 20
18.182990428254449
 30
0.0
 11
14.316354751204109
 21
18.30299042825445
 31
0.0
  0
LINE
  5
528F
  8
OBJECT
 10
14.316354751204109
 20
18.652990428254441
 30
0.0
 11
14.316354751204109
 21
18.772990428254449
 31
0.0
  0
LINE
  5
5290
  8
OBJECT
 10
14.316354751204109
 20
20.297990428254451
 30
0.0
 11
14.316354751204109
 21
20.417990428254448
 31
0.0
  0
LINE
  5
5291
  8
OBJECT
 10
14.76735475120411
 20
20.297990428254451
 30
0.0
 11
14.76735475120411
 21
20.417990428254448
 31
0.0
  0
LINE
  5
5292
  8
OBJECT
 10
14.316354751204109
 20
19.592990428254449
 30
0.0
 11
14.316354751204109
 21
19.71299042825445
 31
0.0
  0
LINE
  5
5293
  8
OBJECT
 10
14.76735475120411
 20
19.592990428254449
 30
0.0
 11
14.76735475120411
 21
19.71299042825445
 31
0.0
  0
LINE
  5
5294
  8
OBJECT
 10
14.76735475120411
 20
19.592990428254449
 30
0.0
 11
14.299354751204101
 21
19.592990428254449
 31
0.0
  0
LINE
  5
5295
  8
OBJECT
 10
14.76735475120411
 20
19.477990428254451
 30
0.0
 11
14.299354751204101
 21
19.477990428254451
 31
0.0
  0
LINE
  5
5296
  8
OBJECT
 10
14.76735475120411
 20
19.35799042825445
 30
0.0
 11
14.299354751204101
 21
19.35799042825445
 31
0.0
  0
LINE
  5
5297
  8
OBJECT
 10
14.76735475120411
 20
19.12299042825445
 30
0.0
 11
14.299354751204101
 21
19.12299042825445
 31
0.0
  0
LINE
  5
5298
  8
OBJECT
 10
14.76735475120411
 20
19.242990428254451
 30
0.0
 11
14.299354751204101
 21
19.242990428254451
 31
0.0
  0
LINE
  5
5299
  8
OBJECT
 10
14.76735475120411
 20
18.887990428254451
 30
0.0
 11
14.299354751204101
 21
18.887990428254451
 31
0.0
  0
LINE
  5
529A
  8
OBJECT
 10
14.76735475120411
 20
19.007990428254448
 30
0.0
 11
14.299354751204101
 21
19.007990428254448
 31
0.0
  0
LINE
  5
529B
  8
OBJECT
 10
14.76735475120411
 20
18.887990428254451
 30
0.0
 11
14.76735475120411
 21
19.007990428254448
 31
0.0
  0
LINE
  5
529C
  8
OBJECT
 10
14.76735475120411
 20
19.12299042825445
 30
0.0
 11
14.76735475120411
 21
19.242990428254451
 31
0.0
  0
LINE
  5
529D
  8
OBJECT
 10
14.76735475120411
 20
19.35799042825445
 30
0.0
 11
14.76735475120411
 21
19.477990428254451
 31
0.0
  0
LINE
  5
529E
  8
OBJECT
 10
14.316354751204109
 20
18.88799042825444
 30
0.0
 11
14.316354751204109
 21
19.007990428254448
 31
0.0
  0
LINE
  5
529F
  8
OBJECT
 10
14.316354751204109
 20
19.12299042825445
 30
0.0
 11
14.316354751204109
 21
19.242990428254451
 31
0.0
  0
LINE
  5
52A0
  8
OBJECT
 10
14.316354751204109
 20
19.35799042825445
 30
0.0
 11
14.316354751204109
 21
19.477990428254451
 31
0.0
  0
LINE
  5
52A1
  8
OBJECT
 10
14.76735475120411
 20
20.297990428254451
 30
0.0
 11
14.299354751204101
 21
20.297990428254451
 31
0.0
  0
LINE
  5
52A2
  8
OBJECT
 10
14.76735475120411
 20
20.062990428254452
 30
0.0
 11
14.299354751204101
 21
20.062990428254452
 31
0.0
  0
LINE
  5
52A3
  8
OBJECT
 10
14.76735475120411
 20
20.182990428254438
 30
0.0
 11
14.299354751204101
 21
20.182990428254438
 31
0.0
  0
LINE
  5
52A4
  8
OBJECT
 10
14.76735475120411
 20
19.947990428254439
 30
0.0
 11
14.299354751204101
 21
19.947990428254439
 31
0.0
  0
LINE
  5
52A5
  8
OBJECT
 10
14.76735475120411
 20
19.71299042825445
 30
0.0
 11
14.299354751204101
 21
19.71299042825445
 31
0.0
  0
LINE
  5
52A6
  8
OBJECT
 10
14.76735475120411
 20
19.827990428254449
 30
0.0
 11
14.299354751204101
 21
19.827990428254449
 31
0.0
  0
LINE
  5
52A7
  8
OBJECT
 10
14.76735475120411
 20
19.827990428254449
 30
0.0
 11
14.76735475120411
 21
19.947990428254439
 31
0.0
  0
LINE
  5
52A8
  8
OBJECT
 10
14.76735475120411
 20
20.062990428254452
 30
0.0
 11
14.76735475120411
 21
20.182990428254438
 31
0.0
  0
LINE
  5
52A9
  8
OBJECT
 10
14.316354751204109
 20
19.827990428254449
 30
0.0
 11
14.316354751204109
 21
19.947990428254439
 31
0.0
  0
LINE
  5
52AA
  8
OBJECT
 10
14.316354751204109
 20
20.062990428254452
 30
0.0
 11
14.316354751204109
 21
20.182990428254438
 31
0.0
  0
LINE
  5
52AB
  8
OBJECT
 10
14.76735475120411
 20
20.417990428254448
 30
0.0
 11
14.299354751204101
 21
20.417990428254448
 31
0.0
  0
POLYLINE
  5
52AC
  8
HIDDEN
 66
     1
 10
0.0
 20
0.0
 30
0.0
  0
VERTEX
  5
6CC7
  8
HIDDEN
 10
14.419354751204111
 20
21.948490428254448
 30
0.0
  0
VERTEX
  5
6CC8
  8
HIDDEN
 10
14.57535475120411
 20
21.948490428254448
 30
0.0
  0
VERTEX
  5
6CC9
  8
HIDDEN
 10
14.57535475120411
 20
22.164490428254449
 30
0.0
  0
VERTEX
  5
6CCA
  8
HIDDEN
 10
14.419354751204111
 20
22.164490428254449
 30
0.0
  0
SEQEND
  5
6CCB
  8
HIDDEN
  0
LINE
  5
52AD
  8
HIDDEN
 10
14.57535475120411
 20
22.101490428254451
 30
0.0
 11
14.419354751204111
 21
22.101490428254451
 31
0.0
  0
LINE
  5
52AE
  8
HIDDEN
 10
14.57535475120411
 20
22.01149042825444
 30
0.0
 11
14.419354751204111
 21
22.01149042825444
 31
0.0
  0
POLYLINE
  5
52AF
  8
HIDDEN
 66
     1
 10
0.0
 20
0.0
 30
0.0
  0
VERTEX
  5
6CCC
  8
HIDDEN
 10
15.75435475120411
 20
21.948490428254448
 30
0.0
  0
VERTEX
  5
6CCD
  8
HIDDEN
 10
15.5983547512041
 20
21.948490428254448
 30
0.0
  0
VERTEX
  5
6CCE
  8
HIDDEN
 10
15.5983547512041
 20
22.164490428254449
 30
0.0
  0
VERTEX
  5
6CCF
  8
HIDDEN
 10
15.75435475120411
 20
22.164490428254449
 30
0.0
  0
SEQEND
  5
6CD0
  8
HIDDEN
  0
LINE
  5
52B0
  8
HIDDEN
 10
15.5983547512041
 20
22.101490428254451
 30
0.0
 11
15.754354751204099
 21
22.101490428254451
 31
0.0
  0
LINE
  5
52B1
  8
HIDDEN
 10
15.5983547512041
 20
22.01149042825444
 30
0.0
 11
15.754354751204099
 21
22.01149042825444
 31
0.0
  0
POLYLINE
  5
52B2
  8
HIDDEN
 66
     1
 10
0.0
 20
0.0
 30
0.0
  0
VERTEX
  5
6CD1
  8
HIDDEN
 10
14.419354751204111
 20
25.44649042825445
 30
0.0
  0
VERTEX
  5
6CD2
  8
HIDDEN
 10
14.57535475120411
 20
25.44649042825445
 30
0.0
  0
VERTEX
  5
6CD3
  8
HIDDEN
 10
14.57535475120411
 20
25.662490428254451
 30
0.0
  0
VERTEX
  5
6CD4
  8
HIDDEN
 10
14.419354751204111
 20
25.662490428254451
 30
0.0
  0
SEQEND
  5
6CD5
  8
HIDDEN
  0
LINE
  5
52B3
  8
HIDDEN
 10
14.57535475120411
 20
25.599490428254441
 30
0.0
 11
14.419354751204111
 21
25.599490428254441
 31
0.0
  0
LINE
  5
52B4
  8
HIDDEN
 10
14.57535475120411
 20
25.509490428254448
 30
0.0
 11
14.419354751204111
 21
25.509490428254448
 31
0.0
  0
POLYLINE
  5
52B5
  8
HIDDEN
 66
     1
 10
0.0
 20
0.0
 30
0.0
  0
VERTEX
  5
6CD6
  8
HIDDEN
 10
15.75435475120411
 20
25.44649042825445
 30
0.0
  0
VERTEX
  5
6CD7
  8
HIDDEN
 10
15.598354751204109
 20
25.44649042825445
 30
0.0
  0
VERTEX
  5
6CD8
  8
HIDDEN
 10
15.598354751204109
 20
25.662490428254451
 30
0.0
  0
VERTEX
  5
6CD9
  8
HIDDEN
 10
15.75435475120411
 20
25.662490428254451
 30
0.0
  0
SEQEND
  5
6CDA
  8
HIDDEN
  0
LINE
  5
52B6
  8
HIDDEN
 10
15.598354751204109
 20
25.599490428254441
 30
0.0
 11
15.75435475120411
 21
25.599490428254441
 31
0.0
  0
LINE
  5
52B7
  8
HIDDEN
 10
15.598354751204109
 20
25.509490428254448
 30
0.0
 11
15.75435475120411
 21
25.509490428254448
 31
0.0
  0
POLYLINE
  5
52B8
  8
HIDDEN
 66
     1
 10
0.0
 20
0.0
 30
0.0
  0
VERTEX
  5
6CDB
  8
HIDDEN
 10
14.419354751204111
 20
16.698490428254441
 30
0.0
  0
VERTEX
  5
6CDC
  8
HIDDEN
 10
14.57535475120411
 20
16.698490428254441
 30
0.0
  0
VERTEX
  5
6CDD
  8
HIDDEN
 10
14.57535475120411
 20
16.914490428254449
 30
0.0
  0
VERTEX
  5
6CDE
  8
HIDDEN
 10
14.419354751204111
 20
16.914490428254449
 30
0.0
  0
SEQEND
  5
6CDF
  8
HIDDEN
  0
LINE
  5
52B9
  8
HIDDEN
 10
14.57535475120411
 20
16.851490428254451
 30
0.0
 11
14.419354751204111
 21
16.851490428254451
 31
0.0
  0
LINE
  5
52BA
  8
HIDDEN
 10
14.57535475120411
 20
16.76149042825444
 30
0.0
 11
14.419354751204111
 21
16.76149042825444
 31
0.0
  0
POLYLINE
  5
52BB
  8
HIDDEN
 66
     1
 10
0.0
 20
0.0
 30
0.0
  0
VERTEX
  5
6CE0
  8
HIDDEN
 10
15.75435475120411
 20
16.698490428254441
 30
0.0
  0
VERTEX
  5
6CE1
  8
HIDDEN
 10
15.5983547512041
 20
16.698490428254441
 30
0.0
  0
VERTEX
  5
6CE2
  8
HIDDEN
 10
15.5983547512041
 20
16.914490428254449
 30
0.0
  0
VERTEX
  5
6CE3
  8
HIDDEN
 10
15.75435475120411
 20
16.914490428254449
 30
0.0
  0
SEQEND
  5
6CE4
  8
HIDDEN
  0
LINE
  5
52BC
  8
HIDDEN
 10
15.5983547512041
 20
16.851490428254451
 30
0.0
 11
15.754354751204099
 21
16.851490428254451
 31
0.0
  0
LINE
  5
52BD
  8
HIDDEN
 10
15.5983547512041
 20
16.76149042825444
 30
0.0
 11
15.754354751204099
 21
16.76149042825444
 31
0.0
  0
POLYLINE
  5
52BE
  8
HIDDEN
 66
     1
 10
0.0
 20
0.0
 30
0.0
  0
VERTEX
  5
6CE5
  8
HIDDEN
 10
15.75435475120411
 20
16.936490428254441
 30
0.0
  0
VERTEX
  5
6CE6
  8
HIDDEN
 10
15.1153547512041
 20
16.936490428254441
 30
0.0
  0
VERTEX
  5
6CE7
  8
HIDDEN
 10
15.1153547512041
 20
16.99649042825444
 30
0.0
  0
VERTEX
  5
6CE8
  8
HIDDEN
 10
15.75435475120411
 20
16.99649042825444
 30
0.0
  0
SEQEND
  5
6CE9
  8
HIDDEN
  0
POLYLINE
  5
52BF
  8
HIDDEN
 66
     1
 10
0.0
 20
0.0
 30
0.0
  0
VERTEX
  5
6CEA
  8
HIDDEN
 10
15.75435475120411
 20
17.154490428254441
 30
0.0
  0
VERTEX
  5
6CEB
  8
HIDDEN
 10
15.1153547512041
 20
17.154490428254441
 30
0.0
  0
VERTEX
  5
6CEC
  8
HIDDEN
 10
15.1153547512041
 20
17.094490428254439
 30
0.0
  0
VERTEX
  5
6CED
  8
HIDDEN
 10
15.75435475120411
 20
17.094490428254439
 30
0.0
  0
SEQEND
  5
6CEE
  8
HIDDEN
  0
POLYLINE
  5
52C0
  8
HIDDEN
 66
     1
 10
0.0
 20
0.0
 30
0.0
  0
VERTEX
  5
6CEF
  8
HIDDEN
 10
14.419354751204111
 20
16.936490428254441
 30
0.0
  0
VERTEX
  5
6CF0
  8
HIDDEN
 10
15.05835475120411
 20
16.936490428254441
 30
0.0
  0
VERTEX
  5
6CF1
  8
HIDDEN
 10
15.05835475120411
 20
16.99649042825444
 30
0.0
  0
VERTEX
  5
6CF2
  8
HIDDEN
 10
14.419354751204111
 20
16.99649042825444
 30
0.0
  0
SEQEND
  5
6CF3
  8
HIDDEN
  0
POLYLINE
  5
52C1
  8
HIDDEN
 66
     1
 10
0.0
 20
0.0
 30
0.0
  0
VERTEX
  5
6CF4
  8
HIDDEN
 10
14.419354751204111
 20
17.154490428254441
 30
0.0
  0
VERTEX
  5
6CF5
  8
HIDDEN
 10
15.05835475120411
 20
17.154490428254441
 30
0.0
  0
VERTEX
  5
6CF6
  8
HIDDEN
 10
15.05835475120411
 20
17.094490428254439
 30
0.0
  0
VERTEX
  5
6CF7
  8
HIDDEN
 10
14.419354751204111
 20
17.094490428254439
 30
0.0
  0
SEQEND
  5
6CF8
  8
HIDDEN
  0
POLYLINE
  5
52C2
  8
HIDDEN
 66
     1
 10
0.0
 20
0.0
 30
0.0
  0
VERTEX
  5
6CF9
  8
HIDDEN
 10
15.75435475120411
 20
25.206490428254451
 30
0.0
  0
VERTEX
  5
6CFA
  8
HIDDEN
 10
15.11535475120411
 20
25.206490428254451
 30
0.0
  0
VERTEX
  5
6CFB
  8
HIDDEN
 10
15.11535475120411
 20
25.26649042825445
 30
0.0
  0
VERTEX
  5
6CFC
  8
HIDDEN
 10
15.75435475120411
 20
25.26649042825445
 30
0.0
  0
SEQEND
  5
6CFD
  8
HIDDEN
  0
POLYLINE
  5
52C3
  8
HIDDEN
 66
     1
 10
0.0
 20
0.0
 30
0.0
  0
VERTEX
  5
6CFE
  8
HIDDEN
 10
15.75435475120411
 20
25.42449042825444
 30
0.0
  0
VERTEX
  5
6CFF
  8
HIDDEN
 10
15.11535475120411
 20
25.424490428254451
 30
0.0
  0
VERTEX
  5
6D00
  8
HIDDEN
 10
15.11535475120411
 20
25.364490428254449
 30
0.0
  0
VERTEX
  5
6D01
  8
HIDDEN
 10
15.75435475120411
 20
25.364490428254449
 30
0.0
  0
SEQEND
  5
6D02
  8
HIDDEN
  0
POLYLINE
  5
52C4
  8
HIDDEN
 66
     1
 10
0.0
 20
0.0
 30
0.0
  0
VERTEX
  5
6D03
  8
HIDDEN
 10
14.419354751204111
 20
25.206490428254451
 30
0.0
  0
VERTEX
  5
6D04
  8
HIDDEN
 10
15.05835475120411
 20
25.206490428254451
 30
0.0
  0
VERTEX
  5
6D05
  8
HIDDEN
 10
15.05835475120411
 20
25.26649042825445
 30
0.0
  0
VERTEX
  5
6D06
  8
HIDDEN
 10
14.419354751204111
 20
25.26649042825445
 30
0.0
  0
SEQEND
  5
6D07
  8
HIDDEN
  0
POLYLINE
  5
52C5
  8
HIDDEN
 66
     1
 10
0.0
 20
0.0
 30
0.0
  0
VERTEX
  5
6D08
  8
HIDDEN
 10
14.419354751204111
 20
25.42449042825444
 30
0.0
  0
VERTEX
  5
6D09
  8
HIDDEN
 10
15.05835475120411
 20
25.424490428254451
 30
0.0
  0
VERTEX
  5
6D0A
  8
HIDDEN
 10
15.05835475120411
 20
25.364490428254449
 30
0.0
  0
VERTEX
  5
6D0B
  8
HIDDEN
 10
14.419354751204111
 20
25.364490428254449
 30
0.0
  0
SEQEND
  5
6D0C
  8
HIDDEN
  0
POLYLINE
  5
5473
  8
OBJECT
 66
     1
 10
0.0
 20
0.0
 30
0.0
  0
VERTEX
  5
6D0D
  8
OBJECT
 10
18.606951131197359
 20
18.808490428254441
 30
0.0
  0
VERTEX
  5
6D0E
  8
OBJECT
 10
19.245951131197359
 20
18.808490428254451
 30
0.0
  0
VERTEX
  5
6D0F
  8
OBJECT
 10
19.245951131197359
 20
18.748490428254438
 30
0.0
  0
VERTEX
  5
6D10
  8
OBJECT
 10
18.606951131197359
 20
18.748490428254438
 30
0.0
  0
SEQEND
  5
6D11
  8
OBJECT
  0
POLYLINE
  5
5474
  8
OBJECT
 66
     1
 10
0.0
 20
0.0
 30
0.0
  0
VERTEX
  5
6D12
  8
OBJECT
 10
19.94195113119736
 20
18.808490428254441
 30
0.0
  0
VERTEX
  5
6D13
  8
OBJECT
 10
19.302951131197361
 20
18.808490428254451
 30
0.0
  0
VERTEX
  5
6D14
  8
OBJECT
 10
19.302951131197361
 20
18.748490428254438
 30
0.0
  0
VERTEX
  5
6D15
  8
OBJECT
 10
19.94195113119736
 20
18.748490428254438
 30
0.0
  0
SEQEND
  5
6D16
  8
OBJECT
  0
POLYLINE
  5
5476
  8
OBJECT
 66
     1
 10
0.0
 20
0.0
 30
0.0
  0
VERTEX
  5
6D17
  8
OBJECT
 10
19.254951131197359
 20
15.89349042825445
 30
0.0
  0
VERTEX
  5
6D18
  8
OBJECT
 10
19.167951131197359
 20
15.89349042825445
 30
0.0
  0
VERTEX
  5
6D19
  8
OBJECT
 10
19.167951131197359
 20
16.012490428254448
 30
0.0
  0
SEQEND
  5
6D1A
  8
OBJECT
  0
LINE
  5
5477
  8
OBJECT
 10
19.164951131197359
 20
15.873490428254449
 30
0.0
 11
19.164951131197359
 21
16.012490428254448
 31
0.0
  0
LINE
  5
5478
  8
OBJECT
 10
18.606951131197359
 20
26.487490428254439
 30
0.0
 11
18.606951131197359
 21
15.873490428254449
 31
0.0
  0
LINE
  5
5479
  8
OBJECT
 10
19.94195113119736
 20
26.487490428254439
 30
0.0
 11
19.94195113119736
 21
15.873490428254449
 31
0.0
  0
LINE
  5
547A
  8
OBJECT
 10
18.486951131197362
 20
15.668490428254451
 30
0.0
 11
18.486951131197362
 21
26.692490428254441
 31
0.0
  0
LINE
  5
547B
  8
OBJECT
 10
20.061951131197361
 20
26.692490428254452
 30
0.0
 11
20.061951131197361
 21
15.668490428254451
 31
0.0
  0
LINE
  5
547C
  8
OBJECT
 10
19.254951131197359
 20
15.66849042825444
 30
0.0
 11
19.254951131197359
 21
15.89349042825445
 31
0.0
  0
POLYLINE
  5
547D
  8
OBJECT
 66
     1
 10
0.0
 20
0.0
 30
0.0
  0
VERTEX
  5
6D1B
  8
OBJECT
 10
18.606951131197359
 20
16.936490428254441
 30
0.0
  0
VERTEX
  5
6D1C
  8
OBJECT
 10
19.245951131197359
 20
16.936490428254441
 30
0.0
  0
VERTEX
  5
6D1D
  8
OBJECT
 10
19.245951131197359
 20
16.99649042825444
 30
0.0
  0
VERTEX
  5
6D1E
  8
OBJECT
 10
18.606951131197359
 20
16.99649042825444
 30
0.0
  0
SEQEND
  5
6D1F
  8
OBJECT
  0
POLYLINE
  5
547E
  8
OBJECT
 66
     1
 10
0.0
 20
0.0
 30
0.0
  0
VERTEX
  5
6D20
  8
OBJECT
 10
19.94195113119736
 20
16.936490428254441
 30
0.0
  0
VERTEX
  5
6D21
  8
OBJECT
 10
19.302951131197361
 20
16.936490428254441
 30
0.0
  0
VERTEX
  5
6D22
  8
OBJECT
 10
19.302951131197361
 20
16.99649042825444
 30
0.0
  0
VERTEX
  5
6D23
  8
OBJECT
 10
19.94195113119736
 20
16.99649042825444
 30
0.0
  0
SEQEND
  5
6D24
  8
OBJECT
  0
LINE
  5
547F
  8
OBJECT
 10
20.061951131197361
 20
15.668490428254451
 30
0.0
 11
18.486951131197362
 21
15.668490428254451
 31
0.0
  0
POLYLINE
  5
5480
  8
OBJECT
 66
     1
 10
0.0
 20
0.0
 30
0.0
  0
VERTEX
  5
6D25
  8
OBJECT
 10
19.94195113119736
 20
16.012490428254448
 30
0.0
  0
VERTEX
  5
6D26
  8
OBJECT
 10
19.277951131197359
 20
16.012490428254448
 30
0.0
  0
VERTEX
  5
6D27
  8
OBJECT
 10
19.277951131197359
 20
16.308490428254451
 30
0.0
  0
VERTEX
  5
6D28
  8
OBJECT
 10
19.94195113119736
 20
16.308490428254451
 30
0.0
  0
SEQEND
  5
6D29
  8
OBJECT
  0
LINE
  5
5481
  8
HIDDEN
 10
19.87195113119736
 20
16.09549042825445
 30
0.0
 11
19.277951131197359
 21
16.09549042825445
 31
0.0
  0
LINE
  5
5482
  8
OBJECT
 10
18.606951131197359
 20
15.873490428254449
 30
0.0
 11
19.25495113119737
 21
15.873490428254449
 31
0.0
  0
LINE
  5
5483
  8
HIDDEN
 10
19.87195113119736
 20
16.225490428254449
 30
0.0
 11
19.277951131197359
 21
16.225490428254449
 31
0.0
  0
LINE
  5
5484
  8
OBJECT
 10
18.595451131197361
 20
15.73349042825444
 30
0.0
 11
19.953451131197362
 21
15.73349042825444
 31
0.0
  0
LINE
  5
5485
  8
OBJECT
 10
18.595451131197361
 20
15.82849042825444
 30
0.0
 11
19.953451131197362
 21
15.82849042825444
 31
0.0
  0
POLYLINE
  5
5488
  8
OBJECT
 66
     1
 10
0.0
 20
0.0
 30
0.0
  0
VERTEX
  5
6D2A
  8
OBJECT
 10
18.606951131197359
 20
16.012490428254448
 30
0.0
  0
VERTEX
  5
6D2B
  8
OBJECT
 10
19.270951131197361
 20
16.012490428254448
 30
0.0
  0
VERTEX
  5
6D2C
  8
OBJECT
 10
19.270951131197361
 20
16.308490428254451
 30
0.0
  0
VERTEX
  5
6D2D
  8
OBJECT
 10
18.606951131197359
 20
16.308490428254451
 30
0.0
  0
SEQEND
  5
6D2E
  8
OBJECT
  0
LINE
  5
548B
  8
OBJECT
 10
18.595451131197361
 20
15.82849042825444
 30
0.0
 11
18.595451131197361
 21
15.73349042825444
 31
0.0
  0
LINE
  5
548C
  8
OBJECT
 10
18.666951131197361
 20
15.82849042825444
 30
0.0
 11
18.666951131197361
 21
15.873490428254449
 31
0.0
  0
LINE
  5
548D
  8
OBJECT
 10
18.666951131197361
 20
15.73349042825444
 30
0.0
 11
18.616951131197361
 21
15.668490428254451
 31
0.0
  0
POLYLINE
  5
548E
  8
HIDDEN
 66
     1
 10
0.0
 20
0.0
 30
0.0
  0
VERTEX
  5
6D2F
  8
HIDDEN
 10
19.270951131197361
 20
16.205490428254439
 30
0.0
  0
VERTEX
  5
6D30
  8
HIDDEN
 10
18.552951131197361
 20
16.205490428254439
 30
0.0
  0
VERTEX
  5
6D31
  8
HIDDEN
 10
18.552951131197361
 20
16.11549042825445
 30
0.0
  0
VERTEX
  5
6D32
  8
HIDDEN
 10
19.270951131197361
 20
16.11549042825445
 30
0.0
  0
SEQEND
  5
6D33
  8
HIDDEN
  0
POLYLINE
  5
5494
  8
OBJECT
 66
     1
 10
0.0
 20
0.0
 30
0.0
  0
VERTEX
  5
6D34
  8
OBJECT
 10
18.606951131197359
 20
16.698490428254441
 30
0.0
  0
VERTEX
  5
6D35
  8
OBJECT
 10
18.762951131197362
 20
16.698490428254441
 30
0.0
  0
VERTEX
  5
6D36
  8
OBJECT
 10
18.762951131197362
 20
16.914490428254449
 30
0.0
  0
VERTEX
  5
6D37
  8
OBJECT
 10
18.606951131197359
 20
16.914490428254449
 30
0.0
  0
SEQEND
  5
6D38
  8
OBJECT
  0
LINE
  5
5495
  8
HIDDEN
 10
18.762951131197362
 20
16.76149042825444
 30
0.0
 11
18.606951131197359
 21
16.76149042825444
 31
0.0
  0
LINE
  5
5496
  8
HIDDEN
 10
18.762951131197362
 20
16.851490428254451
 30
0.0
 11
18.606951131197359
 21
16.851490428254451
 31
0.0
  0
POLYLINE
  5
549D
  8
HIDDEN
 66
     1
 10
0.0
 20
0.0
 30
0.0
  0
VERTEX
  5
6D39
  8
HIDDEN
 10
20.061951131197361
 20
16.27549042825445
 30
0.0
  0
VERTEX
  5
6D3A
  8
HIDDEN
 10
19.87195113119736
 20
16.27549042825445
 30
0.0
  0
VERTEX
  5
6D3B
  8
HIDDEN
 10
19.87195113119736
 20
16.04549042825445
 30
0.0
  0
VERTEX
  5
6D3C
  8
HIDDEN
 10
20.061951131197361
 20
16.04549042825445
 30
0.0
  0
SEQEND
  5
6D3D
  8
HIDDEN
  0
LINE
  5
549E
  8
OBJECT
 10
19.881951131197361
 20
15.73349042825444
 30
0.0
 11
19.931951131197359
 21
15.668490428254451
 31
0.0
  0
LINE
  5
54A1
  8
OBJECT
 10
19.881951131197361
 20
15.82849042825444
 30
0.0
 11
19.881951131197361
 21
15.873490428254449
 31
0.0
  0
LINE
  5
54A2
  8
OBJECT
 10
19.953451131197362
 20
15.82849042825444
 30
0.0
 11
19.953451131197362
 21
15.73349042825444
 31
0.0
  0
POLYLINE
  5
54A4
  8
OBJECT
 66
     1
 10
0.0
 20
0.0
 30
0.0
  0
VERTEX
  5
6D3E
  8
OBJECT
 10
19.94195113119736
 20
16.698490428254441
 30
0.0
  0
VERTEX
  5
6D3F
  8
OBJECT
 10
19.785951131197351
 20
16.698490428254441
 30
0.0
  0
VERTEX
  5
6D40
  8
OBJECT
 10
19.785951131197351
 20
16.914490428254449
 30
0.0
  0
VERTEX
  5
6D41
  8
OBJECT
 10
19.94195113119736
 20
16.914490428254449
 30
0.0
  0
SEQEND
  5
6D42
  8
OBJECT
  0
LINE
  5
54A5
  8
HIDDEN
 10
19.785951131197351
 20
16.76149042825444
 30
0.0
 11
19.941951131197349
 21
16.76149042825444
 31
0.0
  0
LINE
  5
54A9
  8
HIDDEN
 10
19.785951131197351
 20
16.851490428254451
 30
0.0
 11
19.941951131197349
 21
16.851490428254451
 31
0.0
  0
POLYLINE
  5
54AF
  8
OBJECT
 66
     1
 10
0.0
 20
0.0
 30
0.0
  0
VERTEX
  5
6D43
  8
OBJECT
 10
19.94195113119736
 20
18.590490428254441
 30
0.0
  0
VERTEX
  5
6D44
  8
OBJECT
 10
19.302951131197361
 20
18.590490428254441
 30
0.0
  0
VERTEX
  5
6D45
  8
OBJECT
 10
19.302951131197361
 20
18.65049042825445
 30
0.0
  0
VERTEX
  5
6D46
  8
OBJECT
 10
19.94195113119736
 20
18.65049042825445
 30
0.0
  0
SEQEND
  5
6D47
  8
OBJECT
  0
POLYLINE
  5
54B0
  8
OBJECT
 66
     1
 10
0.0
 20
0.0
 30
0.0
  0
VERTEX
  5
6D48
  8
OBJECT
 10
19.94195113119736
 20
17.154490428254441
 30
0.0
  0
VERTEX
  5
6D49
  8
OBJECT
 10
19.302951131197361
 20
17.154490428254441
 30
0.0
  0
VERTEX
  5
6D4A
  8
OBJECT
 10
19.302951131197361
 20
17.094490428254439
 30
0.0
  0
VERTEX
  5
6D4B
  8
OBJECT
 10
19.94195113119736
 20
17.094490428254439
 30
0.0
  0
SEQEND
  5
6D4C
  8
OBJECT
  0
POLYLINE
  5
54B1
  8
OBJECT
 66
     1
 10
0.0
 20
0.0
 30
0.0
  0
VERTEX
  5
6D4D
  8
OBJECT
 10
18.606951131197359
 20
17.154490428254441
 30
0.0
  0
VERTEX
  5
6D4E
  8
OBJECT
 10
19.245951131197359
 20
17.154490428254441
 30
0.0
  0
VERTEX
  5
6D4F
  8
OBJECT
 10
19.245951131197359
 20
17.094490428254439
 30
0.0
  0
VERTEX
  5
6D50
  8
OBJECT
 10
18.606951131197359
 20
17.094490428254439
 30
0.0
  0
SEQEND
  5
6D51
  8
OBJECT
  0
POLYLINE
  5
54C2
  8
OBJECT
 66
     1
 10
0.0
 20
0.0
 30
0.0
  0
VERTEX
  5
6D52
  8
OBJECT
 10
18.606951131197359
 20
18.590490428254441
 30
0.0
  0
VERTEX
  5
6D53
  8
OBJECT
 10
19.245951131197359
 20
18.590490428254441
 30
0.0
  0
VERTEX
  5
6D54
  8
OBJECT
 10
19.245951131197359
 20
18.65049042825445
 30
0.0
  0
VERTEX
  5
6D55
  8
OBJECT
 10
18.606951131197359
 20
18.65049042825445
 30
0.0
  0
SEQEND
  5
6D56
  8
OBJECT
  0
POLYLINE
  5
54F5
  8
HIDDEN
 66
     1
 10
0.0
 20
0.0
 30
0.0
  0
VERTEX
  5
6D57
  8
HIDDEN
 10
20.061951131197361
 20
26.315490428254449
 30
0.0
  0
VERTEX
  5
6D58
  8
HIDDEN
 10
19.87195113119736
 20
26.315490428254449
 30
0.0
  0
VERTEX
  5
6D59
  8
HIDDEN
 10
19.87195113119736
 20
26.085490428254442
 30
0.0
  0
VERTEX
  5
6D5A
  8
HIDDEN
 10
20.061951131197361
 20
26.085490428254442
 30
0.0
  0
SEQEND
  5
6D5B
  8
HIDDEN
  0
POLYLINE
  5
54F8
  8
OBJECT
 66
     1
 10
0.0
 20
0.0
 30
0.0
  0
VERTEX
  5
6D5C
  8
OBJECT
 10
18.606951131197359
 20
26.052490428254451
 30
0.0
  0
VERTEX
  5
6D5D
  8
OBJECT
 10
19.270951131197361
 20
26.052490428254451
 30
0.0
  0
VERTEX
  5
6D5E
  8
OBJECT
 10
19.270951131197361
 20
26.348490428254451
 30
0.0
  0
VERTEX
  5
6D5F
  8
OBJECT
 10
18.606951131197359
 20
26.348490428254451
 30
0.0
  0
SEQEND
  5
6D60
  8
OBJECT
  0
POLYLINE
  5
54F9
  8
OBJECT
 66
     1
 10
0.0
 20
0.0
 30
0.0
  0
VERTEX
  5
6D61
  8
OBJECT
 10
19.94195113119736
 20
26.052490428254451
 30
0.0
  0
VERTEX
  5
6D62
  8
OBJECT
 10
19.277951131197369
 20
26.052490428254451
 30
0.0
  0
VERTEX
  5
6D63
  8
OBJECT
 10
19.277951131197369
 20
26.348490428254451
 30
0.0
  0
VERTEX
  5
6D64
  8
OBJECT
 10
19.94195113119736
 20
26.348490428254451
 30
0.0
  0
SEQEND
  5
6D65
  8
OBJECT
  0
POLYLINE
  5
5502
  8
OBJECT
 66
     1
 10
0.0
 20
0.0
 30
0.0
  0
VERTEX
  5
6D66
  8
OBJECT
 10
19.785951131197351
 20
20.244490428254451
 30
0.0
  0
VERTEX
  5
6D67
  8
OBJECT
 10
19.302951131197361
 20
20.244490428254451
 30
0.0
  0
VERTEX
  5
6D68
  8
OBJECT
 10
19.302951131197361
 20
20.30449042825445
 30
0.0
  0
VERTEX
  5
6D69
  8
OBJECT
 10
19.785951131197351
 20
20.304490428254439
 30
0.0
  0
SEQEND
  5
6D6A
  8
OBJECT
  0
POLYLINE
  5
5503
  8
OBJECT
 66
     1
 10
0.0
 20
0.0
 30
0.0
  0
VERTEX
  5
6D6B
  8
OBJECT
 10
19.94195113119736
 20
20.462490428254441
 30
0.0
  0
VERTEX
  5
6D6C
  8
OBJECT
 10
19.302951131197361
 20
20.462490428254451
 30
0.0
  0
VERTEX
  5
6D6D
  8
OBJECT
 10
19.302951131197361
 20
20.402490428254449
 30
0.0
  0
VERTEX
  5
6D6E
  8
OBJECT
 10
19.785951131197351
 20
20.402490428254438
 30
0.0
  0
SEQEND
  5
6D6F
  8
OBJECT
  0
POLYLINE
  5
5514
  8
OBJECT
 66
     1
 10
0.0
 20
0.0
 30
0.0
  0
VERTEX
  5
6D70
  8
OBJECT
 10
18.762951131197362
 20
20.244490428254451
 30
0.0
  0
VERTEX
  5
6D71
  8
OBJECT
 10
19.245951131197359
 20
20.244490428254451
 30
0.0
  0
VERTEX
  5
6D72
  8
OBJECT
 10
19.245951131197359
 20
20.30449042825445
 30
0.0
  0
VERTEX
  5
6D73
  8
OBJECT
 10
18.762951131197362
 20
20.304490428254439
 30
0.0
  0
SEQEND
  5
6D74
  8
OBJECT
  0
POLYLINE
  5
5515
  8
OBJECT
 66
     1
 10
0.0
 20
0.0
 30
0.0
  0
VERTEX
  5
6D75
  8
OBJECT
 10
18.606951131197359
 20
20.462490428254441
 30
0.0
  0
VERTEX
  5
6D76
  8
OBJECT
 10
19.245951131197359
 20
20.462490428254451
 30
0.0
  0
VERTEX
  5
6D77
  8
OBJECT
 10
19.245951131197359
 20
20.402490428254449
 30
0.0
  0
VERTEX
  5
6D78
  8
OBJECT
 10
18.762951131197362
 20
20.402490428254438
 30
0.0
  0
SEQEND
  5
6D79
  8
OBJECT
  0
LINE
  5
551E
  8
HIDDEN
 10
18.762951131197362
 20
20.259490428254448
 30
0.0
 11
18.606951131197359
 21
20.259490428254448
 31
0.0
  0
LINE
  5
5521
  8
HIDDEN
 10
18.762951131197362
 20
20.349490428254452
 30
0.0
 11
18.606951131197359
 21
20.349490428254452
 31
0.0
  0
POLYLINE
  5
5523
  8
OBJECT
 66
     1
 10
0.0
 20
0.0
 30
0.0
  0
VERTEX
  5
6D7A
  8
OBJECT
 10
18.606951131197359
 20
20.19649042825445
 30
0.0
  0
VERTEX
  5
6D7B
  8
OBJECT
 10
18.762951131197362
 20
20.19649042825445
 30
0.0
  0
VERTEX
  5
6D7C
  8
OBJECT
 10
18.762951131197362
 20
20.412490428254451
 30
0.0
  0
VERTEX
  5
6D7D
  8
OBJECT
 10
18.606951131197359
 20
20.412490428254451
 30
0.0
  0
SEQEND
  5
6D7E
  8
OBJECT
  0
LINE
  5
553D
  8
HIDDEN
 10
19.785951131197351
 20
20.259490428254448
 30
0.0
 11
19.94195113119736
 21
20.259490428254448
 31
0.0
  0
LINE
  5
553F
  8
HIDDEN
 10
19.785951131197351
 20
20.349490428254452
 30
0.0
 11
19.94195113119736
 21
20.349490428254452
 31
0.0
  0
POLYLINE
  5
5543
  8
OBJECT
 66
     1
 10
0.0
 20
0.0
 30
0.0
  0
VERTEX
  5
6D7F
  8
OBJECT
 10
19.94195113119736
 20
20.19649042825445
 30
0.0
  0
VERTEX
  5
6D80
  8
OBJECT
 10
19.785951131197351
 20
20.19649042825445
 30
0.0
  0
VERTEX
  5
6D81
  8
OBJECT
 10
19.785951131197351
 20
20.412490428254451
 30
0.0
  0
VERTEX
  5
6D82
  8
OBJECT
 10
19.94195113119736
 20
20.412490428254451
 30
0.0
  0
SEQEND
  5
6D83
  8
OBJECT
  0
POLYLINE
  5
5546
  8
OBJECT
 66
     1
 10
0.0
 20
0.0
 30
0.0
  0
VERTEX
  5
6D84
  8
OBJECT
 10
19.785951131197351
 20
22.116490428254451
 30
0.0
  0
VERTEX
  5
6D85
  8
OBJECT
 10
19.302951131197361
 20
22.116490428254451
 30
0.0
  0
VERTEX
  5
6D86
  8
OBJECT
 10
19.302951131197361
 20
22.056490428254449
 30
0.0
  0
VERTEX
  5
6D87
  8
OBJECT
 10
19.785951131197351
 20
22.056490428254449
 30
0.0
  0
SEQEND
  5
6D88
  8
OBJECT
  0
POLYLINE
  5
5547
  8
OBJECT
 66
     1
 10
0.0
 20
0.0
 30
0.0
  0
VERTEX
  5
6D89
  8
OBJECT
 10
19.94195113119736
 20
21.898490428254441
 30
0.0
  0
VERTEX
  5
6D8A
  8
OBJECT
 10
19.302951131197361
 20
21.898490428254441
 30
0.0
  0
VERTEX
  5
6D8B
  8
OBJECT
 10
19.302951131197361
 20
21.958490428254439
 30
0.0
  0
VERTEX
  5
6D8C
  8
OBJECT
 10
19.785951131197351
 20
21.958490428254439
 30
0.0
  0
SEQEND
  5
6D8D
  8
OBJECT
  0
POLYLINE
  5
5558
  8
OBJECT
 66
     1
 10
0.0
 20
0.0
 30
0.0
  0
VERTEX
  5
6D8E
  8
OBJECT
 10
18.762951131197362
 20
22.116490428254451
 30
0.0
  0
VERTEX
  5
6D8F
  8
OBJECT
 10
19.245951131197359
 20
22.116490428254451
 30
0.0
  0
VERTEX
  5
6D90
  8
OBJECT
 10
19.245951131197359
 20
22.056490428254449
 30
0.0
  0
VERTEX
  5
6D91
  8
OBJECT
 10
18.762951131197362
 20
22.056490428254449
 30
0.0
  0
SEQEND
  5
6D92
  8
OBJECT
  0
POLYLINE
  5
5559
  8
OBJECT
 66
     1
 10
0.0
 20
0.0
 30
0.0
  0
VERTEX
  5
6D93
  8
OBJECT
 10
18.606951131197359
 20
21.898490428254441
 30
0.0
  0
VERTEX
  5
6D94
  8
OBJECT
 10
19.245951131197359
 20
21.898490428254441
 30
0.0
  0
VERTEX
  5
6D95
  8
OBJECT
 10
19.245951131197359
 20
21.958490428254439
 30
0.0
  0
VERTEX
  5
6D96
  8
OBJECT
 10
18.762951131197362
 20
21.958490428254439
 30
0.0
  0
SEQEND
  5
6D97
  8
OBJECT
  0
POLYLINE
  5
555A
  8
OBJECT
 66
     1
 10
0.0
 20
0.0
 30
0.0
  0
VERTEX
  5
6D98
  8
OBJECT
 10
18.606951131197359
 20
21.948490428254448
 30
0.0
  0
VERTEX
  5
6D99
  8
OBJECT
 10
18.762951131197362
 20
21.948490428254448
 30
0.0
  0
VERTEX
  5
6D9A
  8
OBJECT
 10
18.762951131197362
 20
22.164490428254449
 30
0.0
  0
VERTEX
  5
6D9B
  8
OBJECT
 10
18.606951131197359
 20
22.164490428254449
 30
0.0
  0
SEQEND
  5
6D9C
  8
OBJECT
  0
LINE
  5
5561
  8
HIDDEN
 10
18.762951131197362
 20
22.01149042825444
 30
0.0
 11
18.606951131197359
 21
22.01149042825444
 31
0.0
  0
LINE
  5
5568
  8
HIDDEN
 10
18.762951131197362
 20
22.101490428254451
 30
0.0
 11
18.606951131197359
 21
22.101490428254451
 31
0.0
  0
POLYLINE
  5
557B
  8
OBJECT
 66
     1
 10
0.0
 20
0.0
 30
0.0
  0
VERTEX
  5
6D9D
  8
OBJECT
 10
19.94195113119736
 20
21.948490428254448
 30
0.0
  0
VERTEX
  5
6D9E
  8
OBJECT
 10
19.785951131197351
 20
21.948490428254448
 30
0.0
  0
VERTEX
  5
6D9F
  8
OBJECT
 10
19.785951131197351
 20
22.164490428254449
 30
0.0
  0
VERTEX
  5
6DA0
  8
OBJECT
 10
19.94195113119736
 20
22.164490428254449
 30
0.0
  0
SEQEND
  5
6DA1
  8
OBJECT
  0
LINE
  5
557E
  8
HIDDEN
 10
19.785951131197351
 20
22.01149042825444
 30
0.0
 11
19.941951131197349
 21
22.01149042825444
 31
0.0
  0
LINE
  5
5586
  8
HIDDEN
 10
19.785951131197351
 20
22.101490428254451
 30
0.0
 11
19.941951131197349
 21
22.101490428254451
 31
0.0
  0
POLYLINE
  5
5590
  8
OBJECT
 66
     1
 10
0.0
 20
0.0
 30
0.0
  0
VERTEX
  5
6DA2
  8
OBJECT
 10
19.94195113119736
 20
23.552490428254441
 30
0.0
  0
VERTEX
  5
6DA3
  8
OBJECT
 10
19.302951131197361
 20
23.552490428254441
 30
0.0
  0
VERTEX
  5
6DA4
  8
OBJECT
 10
19.302951131197361
 20
23.612490428254439
 30
0.0
  0
VERTEX
  5
6DA5
  8
OBJECT
 10
19.94195113119736
 20
23.612490428254439
 30
0.0
  0
SEQEND
  5
6DA6
  8
OBJECT
  0
POLYLINE
  5
5591
  8
OBJECT
 66
     1
 10
0.0
 20
0.0
 30
0.0
  0
VERTEX
  5
6DA7
  8
OBJECT
 10
19.94195113119736
 20
23.77049042825444
 30
0.0
  0
VERTEX
  5
6DA8
  8
OBJECT
 10
19.302951131197361
 20
23.77049042825444
 30
0.0
  0
VERTEX
  5
6DA9
  8
OBJECT
 10
19.302951131197361
 20
23.710490428254442
 30
0.0
  0
VERTEX
  5
6DAA
  8
OBJECT
 10
19.94195113119736
 20
23.710490428254442
 30
0.0
  0
SEQEND
  5
6DAB
  8
OBJECT
  0
POLYLINE
  5
55A2
  8
OBJECT
 66
     1
 10
0.0
 20
0.0
 30
0.0
  0
VERTEX
  5
6DAC
  8
OBJECT
 10
18.606951131197359
 20
23.552490428254441
 30
0.0
  0
VERTEX
  5
6DAD
  8
OBJECT
 10
19.245951131197359
 20
23.552490428254441
 30
0.0
  0
VERTEX
  5
6DAE
  8
OBJECT
 10
19.245951131197359
 20
23.612490428254439
 30
0.0
  0
VERTEX
  5
6DAF
  8
OBJECT
 10
18.606951131197359
 20
23.612490428254439
 30
0.0
  0
SEQEND
  5
6DB0
  8
OBJECT
  0
POLYLINE
  5
55A3
  8
OBJECT
 66
     1
 10
0.0
 20
0.0
 30
0.0
  0
VERTEX
  5
6DB1
  8
OBJECT
 10
18.606951131197359
 20
23.77049042825444
 30
0.0
  0
VERTEX
  5
6DB2
  8
OBJECT
 10
19.245951131197359
 20
23.77049042825444
 30
0.0
  0
VERTEX
  5
6DB3
  8
OBJECT
 10
19.245951131197359
 20
23.710490428254442
 30
0.0
  0
VERTEX
  5
6DB4
  8
OBJECT
 10
18.606951131197359
 20
23.710490428254442
 30
0.0
  0
SEQEND
  5
6DB5
  8
OBJECT
  0
LINE
  5
55D0
  8
HIDDEN
 10
19.87195113119736
 20
26.13549042825445
 30
0.0
 11
19.277951131197369
 21
26.13549042825445
 31
0.0
  0
POLYLINE
  5
55D1
  8
OBJECT
 66
     1
 10
0.0
 20
0.0
 30
0.0
  0
VERTEX
  5
6DB6
  8
OBJECT
 10
19.94195113119736
 20
25.42449042825444
 30
0.0
  0
VERTEX
  5
6DB7
  8
OBJECT
 10
19.302951131197361
 20
25.424490428254451
 30
0.0
  0
VERTEX
  5
6DB8
  8
OBJECT
 10
19.302951131197361
 20
25.364490428254449
 30
0.0
  0
VERTEX
  5
6DB9
  8
OBJECT
 10
19.94195113119736
 20
25.364490428254449
 30
0.0
  0
SEQEND
  5
6DBA
  8
OBJECT
  0
POLYLINE
  5
55D2
  8
OBJECT
 66
     1
 10
0.0
 20
0.0
 30
0.0
  0
VERTEX
  5
6DBB
  8
OBJECT
 10
19.94195113119736
 20
25.206490428254451
 30
0.0
  0
VERTEX
  5
6DBC
  8
OBJECT
 10
19.302951131197361
 20
25.206490428254451
 30
0.0
  0
VERTEX
  5
6DBD
  8
OBJECT
 10
19.302951131197361
 20
25.26649042825445
 30
0.0
  0
VERTEX
  5
6DBE
  8
OBJECT
 10
19.94195113119736
 20
25.26649042825445
 30
0.0
  0
SEQEND
  5
6DBF
  8
OBJECT
  0
POLYLINE
  5
55D3
  8
OBJECT
 66
     1
 10
0.0
 20
0.0
 30
0.0
  0
VERTEX
  5
6DC0
  8
OBJECT
 10
18.606951131197359
 20
25.206490428254451
 30
0.0
  0
VERTEX
  5
6DC1
  8
OBJECT
 10
19.245951131197359
 20
25.206490428254451
 30
0.0
  0
VERTEX
  5
6DC2
  8
OBJECT
 10
19.245951131197359
 20
25.26649042825445
 30
0.0
  0
VERTEX
  5
6DC3
  8
OBJECT
 10
18.606951131197359
 20
25.26649042825445
 30
0.0
  0
SEQEND
  5
6DC4
  8
OBJECT
  0
POLYLINE
  5
55E1
  8
OBJECT
 66
     1
 10
0.0
 20
0.0
 30
0.0
  0
VERTEX
  5
6DC5
  8
OBJECT
 10
18.606951131197359
 20
25.42449042825444
 30
0.0
  0
VERTEX
  5
6DC6
  8
OBJECT
 10
19.245951131197359
 20
25.424490428254451
 30
0.0
  0
VERTEX
  5
6DC7
  8
OBJECT
 10
19.245951131197359
 20
25.364490428254449
 30
0.0
  0
VERTEX
  5
6DC8
  8
OBJECT
 10
18.606951131197359
 20
25.364490428254449
 30
0.0
  0
SEQEND
  5
6DC9
  8
OBJECT
  0
POLYLINE
  5
55E5
  8
OBJECT
 66
     1
 10
0.0
 20
0.0
 30
0.0
  0
VERTEX
  5
6DCA
  8
OBJECT
 10
18.606951131197359
 20
25.44649042825445
 30
0.0
  0
VERTEX
  5
6DCB
  8
OBJECT
 10
18.762951131197362
 20
25.44649042825445
 30
0.0
  0
VERTEX
  5
6DCC
  8
OBJECT
 10
18.762951131197362
 20
25.662490428254451
 30
0.0
  0
VERTEX
  5
6DCD
  8
OBJECT
 10
18.606951131197359
 20
25.662490428254451
 30
0.0
  0
SEQEND
  5
6DCE
  8
OBJECT
  0
LINE
  5
55E6
  8
HIDDEN
 10
18.762951131197362
 20
25.599490428254441
 30
0.0
 11
18.606951131197359
 21
25.599490428254441
 31
0.0
  0
LINE
  5
55E7
  8
HIDDEN
 10
18.762951131197362
 20
25.509490428254448
 30
0.0
 11
18.606951131197359
 21
25.509490428254448
 31
0.0
  0
POLYLINE
  5
55FF
  8
OBJECT
 66
     1
 10
0.0
 20
0.0
 30
0.0
  0
VERTEX
  5
6DCF
  8
OBJECT
 10
19.94195113119736
 20
25.44649042825445
 30
0.0
  0
VERTEX
  5
6DD0
  8
OBJECT
 10
19.785951131197361
 20
25.44649042825445
 30
0.0
  0
VERTEX
  5
6DD1
  8
OBJECT
 10
19.785951131197361
 20
25.662490428254451
 30
0.0
  0
VERTEX
  5
6DD2
  8
OBJECT
 10
19.94195113119736
 20
25.662490428254451
 30
0.0
  0
SEQEND
  5
6DD3
  8
OBJECT
  0
LINE
  5
5600
  8
HIDDEN
 10
19.785951131197361
 20
25.599490428254441
 30
0.0
 11
19.94195113119736
 21
25.599490428254441
 31
0.0
  0
LINE
  5
5602
  8
HIDDEN
 10
19.785951131197361
 20
25.509490428254448
 30
0.0
 11
19.94195113119736
 21
25.509490428254448
 31
0.0
  0
LINE
  5
560F
  8
OBJECT
 10
18.486951131197362
 20
26.692490428254441
 30
0.0
 11
20.061951131197361
 21
26.692490428254452
 31
0.0
  0
LINE
  5
5610
  8
HIDDEN
 10
19.87195113119736
 20
26.265490428254449
 30
0.0
 11
19.277951131197369
 21
26.265490428254449
 31
0.0
  0
LINE
  5
5611
  8
OBJECT
 10
18.606951131197359
 20
26.487490428254439
 30
0.0
 11
19.254951131197348
 21
26.487490428254439
 31
0.0
  0
LINE
  5
5612
  8
OBJECT
 10
18.595451131197361
 20
26.532490428254452
 30
0.0
 11
19.953451131197369
 21
26.532490428254452
 31
0.0
  0
LINE
  5
5613
  8
OBJECT
 10
18.595451131197361
 20
26.62749042825444
 30
0.0
 11
19.953451131197369
 21
26.62749042825444
 31
0.0
  0
POLYLINE
  5
5614
  8
HIDDEN
 66
     1
 10
0.0
 20
0.0
 30
0.0
  0
VERTEX
  5
6DD4
  8
HIDDEN
 10
19.270951131197361
 20
26.245490428254438
 30
0.0
  0
VERTEX
  5
6DD5
  8
HIDDEN
 10
18.552951131197361
 20
26.245490428254438
 30
0.0
  0
VERTEX
  5
6DD6
  8
HIDDEN
 10
18.552951131197361
 20
26.155490428254449
 30
0.0
  0
VERTEX
  5
6DD7
  8
HIDDEN
 10
19.270951131197361
 20
26.155490428254449
 30
0.0
  0
SEQEND
  5
6DD8
  8
HIDDEN
  0
LINE
  5
5615
  8
OBJECT
 10
18.595451131197361
 20
26.532490428254452
 30
0.0
 11
18.595451131197361
 21
26.62749042825444
 31
0.0
  0
LINE
  5
5618
  8
OBJECT
 10
18.666951131197361
 20
26.532490428254452
 30
0.0
 11
18.666951131197361
 21
26.487490428254439
 31
0.0
  0
LINE
  5
5619
  8
OBJECT
 10
18.666951131197361
 20
26.62749042825444
 30
0.0
 11
18.616951131197361
 21
26.692490428254441
 31
0.0
  0
LINE
  5
561A
  8
OBJECT
 10
19.953451131197369
 20
26.532490428254452
 30
0.0
 11
19.953451131197369
 21
26.62749042825444
 31
0.0
  0
LINE
  5
561D
  8
OBJECT
 10
19.881951131197361
 20
26.532490428254452
 30
0.0
 11
19.881951131197361
 21
26.487490428254439
 31
0.0
  0
LINE
  5
561E
  8
OBJECT
 10
19.881951131197361
 20
26.62749042825444
 30
0.0
 11
19.931951131197359
 21
26.692490428254452
 31
0.0
  0
LINE
  5
5620
  8
OBJECT
 10
19.254951131197348
 20
26.46749042825445
 30
0.0
 11
19.254951131197348
 21
26.692490428254452
 31
0.0
  0
LINE
  5
5621
  8
OBJECT
 10
19.302951131197361
 20
15.873490428254449
 30
0.0
 11
19.302951131197361
 21
15.82849042825444
 31
0.0
  0
LINE
  5
5622
  8
OBJECT
 10
19.302951131197361
 20
15.873490428254449
 30
0.0
 11
19.94195113119736
 21
15.873490428254449
 31
0.0
  0
LINE
  5
5623
  8
OBJECT
 10
19.302951131197361
 20
26.487490428254439
 30
0.0
 11
19.302951131197361
 21
26.532490428254452
 31
0.0
  0
LINE
  5
5624
  8
OBJECT
 10
19.302951131197361
 20
26.487490428254439
 30
0.0
 11
19.94195113119736
 21
26.487490428254439
 31
0.0
  0
LINE
  5
5625
  8
OBJECT
 10
19.164951131197348
 20
26.348490428254451
 30
0.0
 11
19.164951131197348
 21
26.487490428254439
 31
0.0
  0
POLYLINE
  5
5626
  8
OBJECT
 66
     1
 10
0.0
 20
0.0
 30
0.0
  0
VERTEX
  5
6DD9
  8
OBJECT
 10
19.167951131197359
 20
26.348490428254451
 30
0.0
  0
VERTEX
  5
6DDA
  8
OBJECT
 10
19.167951131197359
 20
26.46749042825445
 30
0.0
  0
VERTEX
  5
6DDB
  8
OBJECT
 10
19.254951131197348
 20
26.46749042825445
 30
0.0
  0
SEQEND
  5
6DDC
  8
OBJECT
  0
POLYLINE
  5
5627
  8
OBJECT
 66
     1
 10
0.0
 20
0.0
 30
0.0
  0
VERTEX
  5
6DDD
  8
OBJECT
 10
19.167951131197359
 20
25.424490428254451
 30
0.0
  0
VERTEX
  5
6DDE
  8
OBJECT
 10
19.167951131197359
 20
26.052490428254451
 30
0.0
  0
SEQEND
  5
6DDF
  8
OBJECT
  0
LINE
  5
5628
  8
OBJECT
 10
19.164951131197348
 20
25.424490428254451
 30
0.0
 11
19.164951131197348
 21
26.052490428254451
 31
0.0
  0
LINE
  5
5629
  8
OBJECT
 10
19.164951131197348
 20
25.26649042825445
 30
0.0
 11
19.164951131197348
 21
25.364490428254449
 31
0.0
  0
POLYLINE
  5
562A
  8
OBJECT
 66
     1
 10
0.0
 20
0.0
 30
0.0
  0
VERTEX
  5
6DE0
  8
OBJECT
 10
19.167951131197359
 20
25.26649042825445
 30
0.0
  0
VERTEX
  5
6DE1
  8
OBJECT
 10
19.167951131197359
 20
25.364490428254449
 30
0.0
  0
SEQEND
  5
6DE2
  8
OBJECT
  0
POLYLINE
  5
562B
  8
OBJECT
 66
     1
 10
0.0
 20
0.0
 30
0.0
  0
VERTEX
  5
6DE3
  8
OBJECT
 10
19.167951131197359
 20
23.77049042825444
 30
0.0
  0
VERTEX
  5
6DE4
  8
OBJECT
 10
19.167951131197359
 20
25.206490428254451
 30
0.0
  0
SEQEND
  5
6DE5
  8
OBJECT
  0
LINE
  5
562C
  8
OBJECT
 10
19.164951131197348
 20
23.77049042825444
 30
0.0
 11
19.164951131197348
 21
25.206490428254451
 31
0.0
  0
LINE
  5
562D
  8
OBJECT
 10
19.164951131197348
 20
23.612490428254439
 30
0.0
 11
19.164951131197348
 21
23.710490428254442
 31
0.0
  0
POLYLINE
  5
562E
  8
OBJECT
 66
     1
 10
0.0
 20
0.0
 30
0.0
  0
VERTEX
  5
6DE6
  8
OBJECT
 10
19.167951131197359
 20
23.612490428254439
 30
0.0
  0
VERTEX
  5
6DE7
  8
OBJECT
 10
19.167951131197359
 20
23.710490428254442
 30
0.0
  0
SEQEND
  5
6DE8
  8
OBJECT
  0
POLYLINE
  5
562F
  8
OBJECT
 66
     1
 10
0.0
 20
0.0
 30
0.0
  0
VERTEX
  5
6DE9
  8
OBJECT
 10
19.167951131197359
 20
22.116490428254451
 30
0.0
  0
VERTEX
  5
6DEA
  8
OBJECT
 10
19.167951131197359
 20
23.552490428254441
 30
0.0
  0
SEQEND
  5
6DEB
  8
OBJECT
  0
LINE
  5
5630
  8
OBJECT
 10
19.164951131197348
 20
22.116490428254451
 30
0.0
 11
19.164951131197348
 21
23.552490428254441
 31
0.0
  0
LINE
  5
5631
  8
OBJECT
 10
19.164951131197348
 20
21.958490428254439
 30
0.0
 11
19.164951131197348
 21
22.056490428254449
 31
0.0
  0
POLYLINE
  5
5632
  8
OBJECT
 66
     1
 10
0.0
 20
0.0
 30
0.0
  0
VERTEX
  5
6DEC
  8
OBJECT
 10
19.167951131197359
 20
21.958490428254439
 30
0.0
  0
VERTEX
  5
6DED
  8
OBJECT
 10
19.167951131197359
 20
22.056490428254449
 30
0.0
  0
SEQEND
  5
6DEE
  8
OBJECT
  0
POLYLINE
  5
5633
  8
OBJECT
 66
     1
 10
0.0
 20
0.0
 30
0.0
  0
VERTEX
  5
6DEF
  8
OBJECT
 10
19.167951131197359
 20
20.462490428254451
 30
0.0
  0
VERTEX
  5
6DF0
  8
OBJECT
 10
19.167951131197359
 20
21.898490428254441
 30
0.0
  0
SEQEND
  5
6DF1
  8
OBJECT
  0
LINE
  5
5634
  8
OBJECT
 10
19.164951131197348
 20
20.462490428254451
 30
0.0
 11
19.164951131197348
 21
21.898490428254441
 31
0.0
  0
LINE
  5
5635
  8
OBJECT
 10
19.164951131197348
 20
20.30449042825445
 30
0.0
 11
19.164951131197348
 21
20.402490428254449
 31
0.0
  0
POLYLINE
  5
5636
  8
OBJECT
 66
     1
 10
0.0
 20
0.0
 30
0.0
  0
VERTEX
  5
6DF2
  8
OBJECT
 10
19.167951131197359
 20
20.30449042825445
 30
0.0
  0
VERTEX
  5
6DF3
  8
OBJECT
 10
19.167951131197359
 20
20.402490428254449
 30
0.0
  0
SEQEND
  5
6DF4
  8
OBJECT
  0
POLYLINE
  5
5638
  8
OBJECT
 66
     1
 10
0.0
 20
0.0
 30
0.0
  0
VERTEX
  5
6DF5
  8
OBJECT
 10
19.167951131197359
 20
18.808490428254451
 30
0.0
  0
VERTEX
  5
6DF6
  8
OBJECT
 10
19.167951131197359
 20
20.244490428254451
 30
0.0
  0
SEQEND
  5
6DF7
  8
OBJECT
  0
LINE
  5
5639
  8
OBJECT
 10
19.164951131197348
 20
18.808490428254451
 30
0.0
 11
19.164951131197348
 21
20.244490428254451
 31
0.0
  0
LINE
  5
563A
  8
OBJECT
 10
19.164951131197348
 20
18.65049042825445
 30
0.0
 11
19.164951131197348
 21
18.748490428254438
 31
0.0
  0
POLYLINE
  5
563B
  8
OBJECT
 66
     1
 10
0.0
 20
0.0
 30
0.0
  0
VERTEX
  5
6DF8
  8
OBJECT
 10
19.167951131197359
 20
18.65049042825445
 30
0.0
  0
VERTEX
  5
6DF9
  8
OBJECT
 10
19.167951131197359
 20
18.748490428254438
 30
0.0
  0
SEQEND
  5
6DFA
  8
OBJECT
  0
POLYLINE
  5
563C
  8
OBJECT
 66
     1
 10
0.0
 20
0.0
 30
0.0
  0
VERTEX
  5
6DFB
  8
OBJECT
 10
19.167951131197359
 20
17.154490428254441
 30
0.0
  0
VERTEX
  5
6DFC
  8
OBJECT
 10
19.167951131197359
 20
18.590490428254441
 30
0.0
  0
SEQEND
  5
6DFD
  8
OBJECT
  0
LINE
  5
563D
  8
OBJECT
 10
19.164951131197359
 20
17.154490428254441
 30
0.0
 11
19.164951131197348
 21
18.590490428254441
 31
0.0
  0
LINE
  5
563E
  8
OBJECT
 10
19.164951131197359
 20
16.99649042825444
 30
0.0
 11
19.164951131197359
 21
17.094490428254439
 31
0.0
  0
POLYLINE
  5
563F
  8
OBJECT
 66
     1
 10
0.0
 20
0.0
 30
0.0
  0
VERTEX
  5
6DFE
  8
OBJECT
 10
19.167951131197359
 20
16.99649042825444
 30
0.0
  0
VERTEX
  5
6DFF
  8
OBJECT
 10
19.167951131197359
 20
17.094490428254439
 30
0.0
  0
SEQEND
  5
6E00
  8
OBJECT
  0
POLYLINE
  5
5640
  8
OBJECT
 66
     1
 10
0.0
 20
0.0
 30
0.0
  0
VERTEX
  5
6E01
  8
OBJECT
 10
19.167951131197359
 20
16.308490428254451
 30
0.0
  0
VERTEX
  5
6E02
  8
OBJECT
 10
19.167951131197359
 20
16.936490428254441
 30
0.0
  0
SEQEND
  5
6E03
  8
OBJECT
  0
LINE
  5
5641
  8
OBJECT
 10
19.164951131197359
 20
16.308490428254451
 30
0.0
 11
19.164951131197359
 21
16.936490428254441
 31
0.0
  0
TEXT
  5
5818
  8
TEXT
 10
37.262275731836858
 20
1.275103041732415
 30
0.0
 40
0.125
  1
 
 41
0.75
 72
     4
 11
37.309150731836858
 21
1.275103041732415
 31
0.0
  0
TEXT
  5
581B
  8
TEXT
 10
38.323839435646732
 20
1.2793763810425809
 30
0.0
 40
0.125
  1
 
 41
0.75
 72
     4
 11
38.370714435646732
 21
1.2793763810425809
 31
0.0
  0
TEXT
  5
5830
  8
TEXT
 10
39.35927573183686
 20
1.0667697083990819
 30
0.0
 40
0.125
  1
 
 41
0.75
 72
     4
 11
39.40615073183686
 21
1.0667697083990819
 31
0.0
  0
TEXT
  5
5832
  8
TEXT
 10
40.406275731836857
 20
1.275103041732415
 30
0.0
 40
0.125
  1
 
 41
0.75
 72
     4
 11
40.453150731836857
 21
1.275103041732415
 31
0.0
  0
TEXT
  5
5835
  8
TEXT
 10
41.453275731836868
 20
1.275103041732415
 30
0.0
 40
0.125
  1
 
 41
0.75
 72
     4
 11
41.500150731836868
 21
1.275103041732415
 31
0.0
  0
TEXT
  5
5838
  8
TEXT
 10
42.500275731836858
 20
1.275103041732415
 30
0.0
 40
0.125
  1
 
 41
0.75
 72
     4
 11
42.547150731836858
 21
1.275103041732415
 31
0.0
  0
TEXT
  5
583B
  8
TEXT
 10
43.547275731836862
 20
1.0667697083990819
 30
0.0
 40
0.125
  1
 
 41
0.75
 72
     4
 11
43.594150731836862
 21
1.0667697083990819
 31
0.0
  0
TEXT
  5
583D
  8
TEXT
 10
44.594275731836859
 20
1.275103041732415
 30
0.0
 40
0.125
  1
 
 41
0.75
 72
     4
 11
44.641150731836873
 21
1.275103041732415
 31
0.0
  0
TEXT
  5
5840
  8
TEXT
 10
45.64127573183687
 20
1.275103041732415
 30
0.0
 40
0.125
  1
 
 41
0.75
 72
     4
 11
45.68815073183687
 21
1.275103041732415
 31
0.0
  0
TEXT
  5
5843
  8
TEXT
 10
46.68827573183686
 20
1.275103041732415
 30
0.0
 40
0.125
  1
 
 41
0.75
 72
     4
 11
46.73515073183686
 21
1.275103041732415
 31
0.0
  0
TEXT
  5
5847
  8
TEXT
 10
42.86827229798871
 20
6.6794607646411661
 30
0.0
 40
0.125
  1
 
 41
0.75
  0
TEXT
  5
584E
  8
TEXT
 10
42.86827229798871
 20
6.4711274313078331
 30
0.0
 40
0.125
  1
 
 41
0.75
  0
TEXT
  5
584F
  8
TEXT
 10
42.86827229798871
 20
6.2627940979745
 30
0.0
 40
0.125
  1
 
 41
0.75
  0
TEXT
  5
5850
  8
TEXT
 10
42.86827229798871
 20
6.054460764641167
 30
0.0
 40
0.125
  1
 
 41
0.75
  0
TEXT
  5
5857
  8
TEXT
 10
39.52210270399376
 20
3.768604584400653
 30
0.0
 40
0.156
  1
 
 41
0.75
 72
     4
 11
39.580602703993762
 21
3.768604584400653
 31
0.0
  0
TEXT
  5
5859
  8
TEXT
 10
42.86827229798871
 20
4.5961274313078349
 30
0.0
 40
0.125
  1
 
 41
0.75
  0
TEXT
  5
585A
  8
TEXT
 10
42.86827229798871
 20
4.3877940979745018
 30
0.0
 40
0.125
  1
 
 41
0.75
  0
TEXT
  5
585C
  8
TEXT
 10
42.86827229798871
 20
3.9711274313078349
 30
0.0
 40
0.125
  1
 
 41
0.75
  0
TEXT
  5
5860
  8
TEXT
 10
42.86827229798871
 20
3.1377940979745009
 30
0.0
 40
0.125
  1
 
 41
0.75
  0
INSERT
  5
5CAE
  8
OBJECT
  6
CONTINUOUS
  2
*X41
 10
0.0
 20
0.0
 30
0.0
1001
ACAD
1000
HATCH
1002
{
1070
    19
1000
ANSI32
1040
0.5
1040
0.0
1000
R14_HATCH_DATA
1000
5CAE
1011
1.0
1021
0.0
1031
8.7966152990720000E+012
1021
0.0
1031
0.0
1011
0.0
1021
0.0
1031
8.7966152990720000E+012
1021
1.0
1031
0.0
1011
0.0
1021
0.0
1031
8.7966152990720000E+012
1021
0.0
1031
1.0
1040
0.0
1010
0.0
1020
0.0
1030
1.0
1000
ANSI32
1070
     0
1070
     0
1071
        1
1071
        7
1070
     0
1070
     1
1071
       24
1040
18.606951131197349
1040
26.155490428254449
1040
18.552951131197361
1040
26.155490428254449
1040
18.552951131197361
1040
26.245490428254438
1040
18.606951131197359
1040
26.245490428254438
1040
18.606951131197349
1040
26.487490428254439
1040
18.666951131197361
1040
26.487490428254439
1040
18.666951131197361
1040
26.532490428254452
1040
18.595451131197361
1040
26.532490428254441
1040
18.595451131197361
1040
26.62749042825444
1040
18.666951131197351
1040
26.62749042825444
1040
18.616951131197361
1040
26.692490428254452
1040
18.486951131197362
1040
26.692490428254441
1040
18.486951131197362
1040
15.668490428254451
1040
18.616951131197361
1040
15.668490428254451
1040
18.666951131197361
1040
15.73349042825445
1040
18.595451131197361
1040
15.73349042825444
1040
18.595451131197361
1040
15.82849042825444
1040
18.666951131197361
1040
15.82849042825444
1040
18.666951131197361
1040
15.873490428254449
1040
18.606951131197359
1040
15.873490428254449
1040
18.606951131197359
1040
16.11549042825445
1040
18.552951131197361
1040
16.11549042825445
1040
18.552951131197361
1040
16.205490428254439
1040
18.606951131197359
1040
16.205490428254439
1071
        0
1070
     0
1070
     1
1040
0.0
1040
0.5
1070
     0
1070
     2
1040
0.7853981633974483
1040
-15.150840866668659
1040
7.0567411257152548
1040
-0.1325825214724776
1040
0.1325825214724777
1070
     0
1040
0.7853981633974483
1040
-15.06245251916865
1040
7.0567411257152548
1040
-0.1325825214724776
1040
0.1325825214724777
1070
     0
1040
0.0211413645348386
1071
        1
1040
18.553304420497209
1040
22.35863503914166
1040
0.0
1002
}
  0
INSERT
  5
5CCD
  8
OBJECT
  6
CONTINUOUS
  2
*X42
 10
0.0
 20
0.0
 30
0.0
1001
ACAD
1000
HATCH
1002
{
1070
    19
1000
ANSI32
1040
0.5
1040
1.5707963267948959
1000
R14_HATCH_DATA
1000
5CCD
1011
1.0
1021
0.0
1031
8.7966152990720000E+012
1021
0.0
1031
0.0
1011
0.0
1021
0.0
1031
8.7966152990720000E+012
1021
1.0
1031
0.0
1011
0.0
1021
0.0
1031
8.7966152990720000E+012
1021
0.0
1031
1.0
1040
0.0
1010
0.0
1020
0.0
1030
1.0
1000
ANSI32
1070
     0
1070
     0
1071
        1
1071
        7
1070
     0
1070
     1
1071
       16
1040
20.061951131197361
1040
26.692490428254452
1040
19.931951131197359
1040
26.692490428254452
1040
19.881951131197361
1040
26.62749042825444
1040
19.953451131197369
1040
26.62749042825444
1040
19.953451131197362
1040
26.532490428254452
1040
19.881951131197361
1040
26.532490428254452
1040
19.881951131197368
1040
26.487490428254439
1040
19.94195113119736
1040
26.487490428254439
1040
19.94195113119736
1040
15.873490428254449
1040
19.881951131197361
1040
15.873490428254449
1040
19.881951131197361
1040
15.82849042825444
1040
19.953451131197362
1040
15.82849042825444
1040
19.953451131197362
1040
15.73349042825444
1040
19.881951131197361
1040
15.73349042825444
1040
19.931951131197351
1040
15.668490428254451
1040
20.061951131197361
1040
15.66849042825444
1071
        0
1070
     0
1070
     1
1040
1.5707963267948959
1040
0.5
1070
     0
1070
     2
1040
2.3561944901923439
1040
-15.150840866668659
1040
7.0567411257152548
1040
-0.1325825214724777
1040
-0.1325825214724776
1070
     0
1040
2.3561944901923439
1040
-15.150840866668659
1040
7.1451294732152562
1040
-0.1325825214724777
1040
-0.1325825214724776
1070
     0
1040
0.0211413645348386
1071
        1
1040
19.9921284588204
1040
20.9421636040192
1040
0.0
1002
}
  0
LINE
  5
6780
  8
OBJECT
 10
2.2029967701608761
 20
22.585894391494669
 30
0.0
 11
2.2029967701608761
 21
15.73349042825444
 31
0.0
  0
LINE
  5
6781
  8
OBJECT
 10
2.142996770160873
 20
22.590098733449231
 30
0.0
 11
2.142996770160873
 21
15.873490428254449
 31
0.0
  0
POLYLINE
  5
6782
  8
OBJECT
 66
     1
 10
0.0
 20
0.0
 30
0.0
  0
VERTEX
  5
6EB5
  8
OBJECT
 10
2.1525251001473289
 20
22.58932260797868
 30
0.0
  0
VERTEX
  5
6EB6
  8
OBJECT
 10
2.1525251001473289
 20
15.89349042825445
 30
0.0
  0
VERTEX
  5
6EB7
  8
OBJECT
 10
2.2029967701608761
 20
15.89349042825445
 30
0.0
  0
SEQEND
  5
6EB8
  8
OBJECT
  0
LINE
  5
6783
  8
HIDDEN
 10
9.8969967701608752
 20
22.568023274237429
 30
0.0
 11
9.8969967701608752
 21
26.48749042825445
 31
0.0
  0
POLYLINE
  5
6784
  8
OBJECT
 66
     1
 10
0.0
 20
0.0
 30
0.0
  0
VERTEX
  5
6EB9
  8
OBJECT
 10
9.8874684401744233
 20
22.56802271011793
 30
0.0
  0
VERTEX
  5
6EBA
  8
OBJECT
 10
9.8874684401744233
 20
15.89349042825445
 30
0.0
  0
VERTEX
  5
6EBB
  8
OBJECT
 10
9.8369967701608712
 20
15.89349042825445
 30
0.0
  0
SEQEND
  5
6EBC
  8
OBJECT
  0
LINE
  5
6785
  8
HIDDEN
 10
9.8369967701608712
 20
22.568358277347869
 30
0.0
 11
9.8369967701608712
 21
26.62749042825445
 31
0.0
  0
DIMENSION
  5
6937
  8
DIM
  2
*D35
 10
2.08299677016088
 20
14.66099248040746
 30
0.0
 11
0.8236217701608805
 21
14.66099248040746
 31
0.0
 70
     0
 13
2.5749967701608791
 23
16.160490428254441
 33
0.0
 14
2.08299677016088
 24
15.668490428254451
 34
0.0
 50
0.000000000000007
  0
DIMENSION
  5
694F
  8
DIM
  2
*D36
 10
10.73836188253143
 20
26.692490428254452
 30
0.0
 11
10.73836188253143
 21
26.44649042825445
 31
0.0
 70
   128
 13
9.464996770160873
 23
26.200490428254451
 33
0.0
 14
9.9569967701608721
 24
26.692490428254452
 34
0.0
 50
270.0
  0
DIMENSION
  5
6971
  8
DIM
  2
*D37
 10
11.560057540424699
 20
17.04549042825445
 30
0.0
 11
11.560057540424699
 21
17.872490428254451
 31
0.0
 70
     0
 13
10.07699677016088
 23
18.69949042825445
 33
0.0
 14
10.07699677016088
 24
17.04549042825445
 34
0.0
 50
90.0
  0
LINE
  5
6972
  8
CENTER
 10
9.6619967701608847
 20
17.04549042825445
 30
0.0
 11
10.07699677016088
 21
17.04549042825445
 31
0.0
  0
DIMENSION
  5
6996
  8
DIM
  2
*D38
 10
11.379084567451731
 20
25.315490428254439
 30
0.0
 11
11.379084567451731
 21
24.48849042825444
 31
0.0
 70
     0
 13
10.07699677016088
 23
23.661490428254439
 33
0.0
 14
10.07699677016088
 24
25.315490428254439
 34
0.0
 50
270.0
  0
LINE
  5
6997
  8
CENTER
 10
9.6619967701608847
 20
25.315490428254439
 30
0.0
 11
10.07699677016088
 21
25.315490428254439
 31
0.0
  0
LINE
  5
6B0D
  8
OBJECT
 10
2.4291235375237661
 20
16.18549042825444
 30
0.0
 11
2.2029967701608761
 21
16.18549042825444
 31
0.0
  0
LINE
  5
6B0E
  8
OBJECT
 10
2.429123537523767
 20
16.13549042825445
 30
0.0
 11
2.2029967701608761
 21
16.13549042825445
 31
0.0
  0
LINE
  5
6B0F
  8
OBJECT
 10
9.6108700027979861
 20
16.18549042825444
 30
0.0
 11
9.8369967701608765
 21
16.18549042825444
 31
0.0
  0
LINE
  5
6B10
  8
OBJECT
 10
9.6108700027979843
 20
16.13549042825445
 30
0.0
 11
9.8369967701608765
 21
16.13549042825445
 31
0.0
  0
LINE
  5
6B11
  8
HIDDEN
 10
2.4291235375237661
 20
26.175490428254459
 30
0.0
 11
2.2029967701608761
 21
26.175490428254449
 31
0.0
  0
LINE
  5
6B12
  8
HIDDEN
 10
2.429123537523767
 20
26.225490428254449
 30
0.0
 11
2.2029967701608761
 21
26.225490428254449
 31
0.0
  0
LINE
  5
6B13
  8
HIDDEN
 10
9.6108700027979843
 20
26.225490428254449
 30
0.0
 11
9.8369967701608765
 21
26.225490428254449
 31
0.0
  0
LINE
  5
6B14
  8
HIDDEN
 10
9.6108700027979861
 20
26.175490428254459
 30
0.0
 11
9.8369967701608765
 21
26.175490428254449
 31
0.0
  0
ENDSEC
  0
EOF
