  0
SECTION
  2
HEADER
  9
$ACADVER
  1
AC1015
  9
$ACADMAINTVER
 70
     6
  9
$DWGCODEPAGE
  3
ANSI_1252
  9
$INSBASE
 10
0.0
 20
0.0
 30
0.0
  9
$EXTMIN
 10
-0.0007094795591058
 20
-0.3710686906742282
 30
-0.0015258207003583
  9
$EXTMAX
 10
23.25070958782537
 20
15.18046329218016
 30
0.0000000349246037
  9
$LIMMIN
 10
0.0
 20
0.0
  9
$LIMMAX
 10
23.25
 20
15.17999999999999
  9
$ORTHOMODE
 70
     1
  9
$REGENMODE
 70
     1
  9
$FILLMODE
 70
     1
  9
$QTEXTMODE
 70
     0
  9
$MIRRTEXT
 70
     0
  9
$LTSCALE
 40
0.4379999999999999
  9
$ATTMODE
 70
     1
  9
$TEXTSIZE
 40
0.1875
  9
$TRACEWID
 40
0.05
  9
$TEXTSTYLE
  7
TXT
  9
$CLAYER
  8
OBJECT
  9
$CELTYPE
  6
ByLayer
  9
$CECOLOR
 62
   256
  9
$CELTSCALE
 40
1.0
  9
$DISPSILH
 70
     0
  9
$DIMSCALE
 40
1.5
  9
$DIMASZ
 40
0.18
  9
$DIMEXO
 40
0.063
  9
$DIMDLI
 40
0.25
  9
$DIMRND
 40
0.0
  9
$DIMDLE
 40
0.0
  9
$DIMEXE
 40
0.093
  9
$DIMTP
 40
0.0
  9
$DIMTM
 40
0.0
  9
$DIMTXT
 40
0.125
  9
$DIMCEN
 40
0.09
  9
$DIMTSZ
 40
0.0
  9
$DIMTOL
 70
     0
  9
$DIMLIM
 70
     0
  9
$DIMTIH
 70
     1
  9
$DIMTOH
 70
     1
  9
$DIMSE1
 70
     0
  9
$DIMSE2
 70
     0
  9
$DIMTAD
 70
     0
  9
$DIMZIN
 70
     0
  9
$DIMBLK
  1

  9
$DIMASO
 70
     1
  9
$DIMSHO
 70
     1
  9
$DIMPOST
  1

  9
$DIMAPOST
  1

  9
$DIMALT
 70
     0
  9
$DIMALTD
 70
     2
  9
$DIMALTF
 40
25.4
  9
$DIMLFAC
 40
1.0
  9
$DIMTOFL
 70
     0
  9
$DIMTVP
 40
0.0
  9
$DIMTIX
 70
     0
  9
$DIMSOXD
 70
     0
  9
$DIMSAH
 70
     0
  9
$DIMBLK1
  1

  9
$DIMBLK2
  1

  9
$DIMSTYLE
  2
23NSTD
  9
$DIMCLRD
 70
     0
  9
$DIMCLRE
 70
     0
  9
$DIMCLRT
 70
     0
  9
$DIMTFAC
 40
1.0
  9
$DIMGAP
 40
0.09
  9
$DIMJUST
 70
     0
  9
$DIMSD1
 70
     0
  9
$DIMSD2
 70
     0
  9
$DIMTOLJ
 70
     1
  9
$DIMTZIN
 70
     0
  9
$DIMALTZ
 70
     0
  9
$DIMALTTZ
 70
     0
  9
$DIMUPT
 70
     0
  9
$DIMDEC
 70
     3
  9
$DIMTDEC
 70
     3
  9
$DIMALTU
 70
     2
  9
$DIMALTTD
 70
     2
  9
$DIMTXSTY
  7
STANDARD
  9
$DIMAUNIT
 70
     0
  9
$DIMADEC
 70
     0
  9
$DIMALTRND
 40
0.0
  9
$DIMAZIN
 70
     0
  9
$DIMDSEP
 70
    46
  9
$DIMATFIT
 70
     3
  9
$DIMFRAC
 70
     0
  9
$DIMLDRBLK
  1

  9
$DIMLUNIT
 70
     2
  9
$DIMLWD
 70
    -2
  9
$DIMLWE
 70
    -2
  9
$DIMTMOVE
 70
     2
  9
$LUNITS
 70
     2
  9
$LUPREC
 70
     3
  9
$SKETCHINC
 40
0.1
  9
$FILLETRAD
 40
0.0
  9
$AUNITS
 70
     0
  9
$AUPREC
 70
     0
  9
$MENU
  1
acad
  9
$ELEVATION
 40
0.0
  9
$PELEVATION
 40
0.0
  9
$THICKNESS
 40
0.0
  9
$LIMCHECK
 70
     0
  9
$CHAMFERA
 40
0.0
  9
$CHAMFERB
 40
0.0
  9
$CHAMFERC
 40
0.0
  9
$CHAMFERD
 40
0.0
  9
$SKPOLY
 70
     0
  9
$TDCREATE
 40
2449842.499702430
  9
$TDUCREATE
 40
2449842.666369097
  9
$TDUPDATE
 40
2454281.325121701
  9
$TDUUPDATE
 40
2454281.491788368
  9
$TDINDWG
 40
0.6841067014
  9
$TDUSRTIMER
 40
0.6841067014
  9
$USRTIMER
 70
     1
  9
$ANGBASE
 50
0.0
  9
$ANGDIR
 70
     0
  9
$PDMODE
 70
     0
  9
$PDSIZE
 40
0.0
  9
$PLINEWID
 40
0.0
  9
$SPLFRAME
 70
     0
  9
$SPLINETYPE
 70
     6
  9
$SPLINESEGS
 70
     8
  9
$HANDSEED
  5
394
  9
$SURFTAB1
 70
     6
  9
$SURFTAB2
 70
     6
  9
$SURFTYPE
 70
     6
  9
$SURFU
 70
     6
  9
$SURFV
 70
     6
  9
$UCSBASE
  2

  9
$UCSNAME
  2

  9
$UCSORG
 10
0.0
 20
0.0
 30
0.0
  9
$UCSXDIR
 10
1.0
 20
0.0
 30
0.0
  9
$UCSYDIR
 10
0.0
 20
1.0
 30
0.0
  9
$UCSORTHOREF
  2

  9
$UCSORTHOVIEW
 70
     0
  9
$UCSORGTOP
 10
0.0
 20
0.0
 30
0.0
  9
$UCSORGBOTTOM
 10
0.0
 20
0.0
 30
0.0
  9
$UCSORGLEFT
 10
0.0
 20
0.0
 30
0.0
  9
$UCSORGRIGHT
 10
0.0
 20
0.0
 30
0.0
  9
$UCSORGFRONT
 10
0.0
 20
0.0
 30
0.0
  9
$UCSORGBACK
 10
0.0
 20
0.0
 30
0.0
  9
$PUCSBASE
  2

  9
$PUCSNAME
  2

  9
$PUCSORG
 10
0.0
 20
0.0
 30
0.0
  9
$PUCSXDIR
 10
1.0
 20
0.0
 30
0.0
  9
$PUCSYDIR
 10
0.0
 20
1.0
 30
0.0
  9
$PUCSORTHOREF
  2

  9
$PUCSORTHOVIEW
 70
     0
  9
$PUCSORGTOP
 10
0.0
 20
0.0
 30
0.0
  9
$PUCSORGBOTTOM
 10
0.0
 20
0.0
 30
0.0
  9
$PUCSORGLEFT
 10
0.0
 20
0.0
 30
0.0
  9
$PUCSORGRIGHT
 10
0.0
 20
0.0
 30
0.0
  9
$PUCSORGFRONT
 10
0.0
 20
0.0
 30
0.0
  9
$PUCSORGBACK
 10
0.0
 20
0.0
 30
0.0
  9
$USERI1
 70
     0
  9
$USERI2
 70
     0
  9
$USERI3
 70
     0
  9
$USERI4
 70
     0
  9
$USERI5
 70
     0
  9
$USERR1
 40
0.0
  9
$USERR2
 40
0.0
  9
$USERR3
 40
0.0
  9
$USERR4
 40
0.0
  9
$USERR5
 40
0.0
  9
$WORLDVIEW
 70
     1
  9
$SHADEDGE
 70
     3
  9
$SHADEDIF
 70
    70
  9
$TILEMODE
 70
     1
  9
$MAXACTVP
 70
    16
  9
$PINSBASE
 10
0.0
 20
0.0
 30
0.0
  9
$PLIMCHECK
 70
     0
  9
$PEXTMIN
 10
1.000000000000000E+20
 20
1.000000000000000E+20
 30
1.000000000000000E+20
  9
$PEXTMAX
 10
-1.000000000000000E+20
 20
-1.000000000000000E+20
 30
-1.000000000000000E+20
  9
$PLIMMIN
 10
0.0
 20
0.0
  9
$PLIMMAX
 10
12.0
 20
9.0
  9
$UNITMODE
 70
     0
  9
$VISRETAIN
 70
     0
  9
$PLINEGEN
 70
     0
  9
$PSLTSCALE
 70
     1
  9
$TREEDEPTH
 70
  3020
  9
$CMLSTYLE
  2
Standard
  9
$CMLJUST
 70
     0
  9
$CMLSCALE
 40
1.0
  9
$PROXYGRAPHICS
 70
     1
  9
$MEASUREMENT
 70
     0
  9
$CELWEIGHT
370
    -1
  9
$ENDCAPS
280
     0
  9
$JOINSTYLE
280
     0
  9
$LWDISPLAY
290
     0
  9
$INSUNITS
 70
     0
  9
$HYPERLINKBASE
  1

  9
$STYLESHEET
  1

  9
$XEDIT
290
     1
  9
$CEPSNTYPE
380
     0
  9
$PSTYLEMODE
290
     1
  9
$FINGERPRINTGUID
  2
{950304EA-BF29-4579-B48D-8C4DCF57209C}
  9
$VERSIONGUID
  2
{C934F596-174A-450C-AC38-32FDBD90DBA3}
  9
$EXTNAMES
290
     1
  9
$PSVPSCALE
 40
0.0
  9
$OLESTARTUP
290
     0
  0
ENDSEC
  0
SECTION
  2
CLASSES
  0
CLASS
  1
ACDBDICTIONARYWDFLT
  2
AcDbDictionaryWithDefault
  3
AutoCAD 2000
 90
        0
280
     0
281
     0
  0
CLASS
  1
ACDBPLACEHOLDER
  2
AcDbPlaceHolder
  3
AutoCAD 2000
 90
        0
280
     0
281
     0
  0
CLASS
  1
LAYOUT
  2
AcDbLayout
  3
AutoCAD 2000
 90
        0
280
     0
281
     0
  0
ENDSEC
  0
SECTION
  2
TABLES
  0
TABLE
  2
VPORT
  5
8
330
0
100
AcDbSymbolTable
 70
     5
  0
VPORT
  5
393
330
8
100
AcDbSymbolTableRecord
100
AcDbViewportTableRecord
  2
*Active
 70
     0
 10
0.0
 20
0.0
 11
1.0
 21
1.0
 12
11.62500005413312
 22
7.404697300752967
 13
0.0
 23
0.0
 14
1.0
 24
1.0
 15
0.0
 25
0.0
 16
0.0
 26
0.0
 36
1.0
 17
0.0
 27
0.0
 37
0.0
 40
15.66532368028991
 41
1.536019536019536
 42
50.0
 43
0.0
 44
0.0
 50
0.0
 51
0.0
 71
     0
 72
   100
 73
     1
 74
     0
 75
     0
 76
     0
 77
     0
 78
     0
281
     0
 65
     1
110
0.0
120
0.0
130
0.0
111
1.0
121
0.0
131
0.0
112
0.0
122
1.0
132
0.0
 79
     0
146
0.0
  0
ENDTAB
  0
TABLE
  2
LTYPE
  5
5
330
0
100
AcDbSymbolTable
 70
     6
  0
LTYPE
  5
13
330
5
100
AcDbSymbolTableRecord
100
AcDbLinetypeTableRecord
  2
ByBlock
 70
     0
  3

 72
    65
 73
     0
 40
0.0
  0
LTYPE
  5
14
330
5
100
AcDbSymbolTableRecord
100
AcDbLinetypeTableRecord
  2
ByLayer
 70
     0
  3

 72
    65
 73
     0
 40
0.0
  0
LTYPE
  5
15
330
5
100
AcDbSymbolTableRecord
100
AcDbLinetypeTableRecord
  2
CONTINUOUS
 70
     0
  3
Solid line
 72
    65
 73
     0
 40
0.0
  0
LTYPE
  5
40
330
5
100
AcDbSymbolTableRecord
100
AcDbLinetypeTableRecord
  2
HIDDEN
 70
     0
  3
_ _ _ _ _ _ _ _ _ _ _ _ _ _ _ _ _ _ _ _ _ _ _
 72
    65
 73
     2
 40
0.375
 49
0.25
 74
     0
 49
-0.125
 74
     0
  0
LTYPE
  5
41
330
5
100
AcDbSymbolTableRecord
100
AcDbLinetypeTableRecord
  2
PHANTOM
 70
     0
  3
_____ _ _ _____ _ _ _____ _ _ _____ _ _ ____
 72
    65
 73
     6
 40
2.5
 49
1.25
 74
     0
 49
-0.25
 74
     0
 49
0.25
 74
     0
 49
-0.25
 74
     0
 49
0.25
 74
     0
 49
-0.25
 74
     0
  0
LTYPE
  5
42
330
5
100
AcDbSymbolTableRecord
100
AcDbLinetypeTableRecord
  2
CENTER
 70
     0
  3
____ _ ____ _ ____ _ ____ _ ____ _ ____ _ ____
 72
    65
 73
     4
 40
2.0
 49
1.25
 74
     0
 49
-0.25
 74
     0
 49
0.25
 74
     0
 49
-0.25
 74
     0
  0
LTYPE
  5
43
330
5
100
AcDbSymbolTableRecord
100
AcDbLinetypeTableRecord
  2
CENTER2
 70
     0
  3
___ _ ___ _ ___ _ ___ _ ___ _ ___ _ ___ _ ___ _
 72
    65
 73
     4
 40
1.125
 49
0.75
 74
     0
 49
-0.125
 74
     0
 49
0.125
 74
     0
 49
-0.125
 74
     0
  0
LTYPE
  5
44
330
5
100
AcDbSymbolTableRecord
100
AcDbLinetypeTableRecord
  2
HIDDEN2
 70
     0
  3
_ _ _ _ _ _ _ _ _ _ _ _ _ _ _ _ _ _ _ _ _ _ _ _
 72
    65
 73
     2
 40
0.1875
 49
0.125
 74
     0
 49
-0.0625
 74
     0
  0
ENDTAB
  0
TABLE
  2
LAYER
  5
2
330
0
100
AcDbSymbolTable
 70
     9
  0
LAYER
  5
10
330
2
100
AcDbSymbolTableRecord
100
AcDbLayerTableRecord
  2
0
 70
     0
 62
     7
  6
CONTINUOUS
370
    -3
390
F
  0
LAYER
  5
49
330
2
100
AcDbSymbolTableRecord
100
AcDbLayerTableRecord
  2
OBJECT
 70
     0
 62
     7
  6
CONTINUOUS
370
    -3
390
F
  0
LAYER
  5
4A
330
2
100
AcDbSymbolTableRecord
100
AcDbLayerTableRecord
  2
DIM
 70
     0
 62
     2
  6
CONTINUOUS
370
    -3
390
F
  0
LAYER
  5
4B
330
2
100
AcDbSymbolTableRecord
100
AcDbLayerTableRecord
  2
HIDDEN
 70
     0
 62
     6
  6
HIDDEN
370
    -3
390
F
  0
LAYER
  5
4C
330
2
100
AcDbSymbolTableRecord
100
AcDbLayerTableRecord
  2
BEND
 70
     0
 62
     4
  6
PHANTOM
370
    -3
390
F
  0
LAYER
  5
4D
330
2
100
AcDbSymbolTableRecord
100
AcDbLayerTableRecord
  2
TEXT
 70
     0
 62
     1
  6
CONTINUOUS
370
    -3
390
F
  0
LAYER
  5
4E
330
2
100
AcDbSymbolTableRecord
100
AcDbLayerTableRecord
  2
TITLE
 70
     0
 62
     8
  6
CONTINUOUS
370
    -3
390
F
  0
LAYER
  5
4F
330
2
100
AcDbSymbolTableRecord
100
AcDbLayerTableRecord
  2
CENTER
 70
     0
 62
     3
  6
CENTER
370
    -3
390
F
  0
LAYER
  5
50
330
2
100
AcDbSymbolTableRecord
100
AcDbLayerTableRecord
  2
DEFPOINTS
 70
     0
 62
     7
  6
CONTINUOUS
290
     0
370
    -3
390
F
  0
ENDTAB
  0
TABLE
  2
STYLE
  5
3
330
0
100
AcDbSymbolTable
 70
     2
  0
STYLE
  5
11
330
3
100
AcDbSymbolTableRecord
100
AcDbTextStyleTableRecord
  2
STANDARD
 70
     0
 40
0.0
 41
1.0
 50
0.0
 71
     0
 42
0.2
  3
txt
  4

  0
STYLE
  5
3F
330
3
100
AcDbSymbolTableRecord
100
AcDbTextStyleTableRecord
  2
TXT
 70
     0
 40
0.0
 41
0.75
 50
0.0
 71
     0
 42
0.1875
  3
txt
  4

  0
ENDTAB
  0
TABLE
  2
VIEW
  5
6
330
0
100
AcDbSymbolTable
 70
     0
  0
ENDTAB
  0
TABLE
  2
UCS
  5
7
330
0
100
AcDbSymbolTable
 70
     0
  0
ENDTAB
  0
TABLE
  2
APPID
  5
9
330
0
100
AcDbSymbolTable
 70
     1
  0
APPID
  5
12
330
9
100
AcDbSymbolTableRecord
100
AcDbRegAppTableRecord
  2
ACAD
 70
     0
  0
ENDTAB
  0
TABLE
  2
DIMSTYLE
  5
A
330
0
100
AcDbSymbolTable
 70
     2
100
AcDbDimStyleTable
 71
     0
  0
DIMSTYLE
105
47
102
{ACAD_REACTORS
330
328
330
32A
330
32E
330
33E
330
33F
330
340
330
344
330
345
330
346
330
347
330
348
330
351
330
366
330
37E
330
38A
102
}
330
A
100
AcDbSymbolTableRecord
100
AcDbDimStyleTableRecord
  2
23NSTD
 70
     0
 40
1.5
 42
0.063
 43
0.25
 44
0.093
140
0.125
271
     3
272
     3
279
     2
340
11
  0
DIMSTYLE
105
48
102
{ACAD_REACTORS
330
329
330
32B
330
32F
330
330
330
331
330
33D
330
341
330
342
330
343
330
349
330
34A
330
386
102
}
330
A
100
AcDbSymbolTableRecord
100
AcDbDimStyleTableRecord
  2
23NSTDI
 70
     0
 40
1.5
 42
0.063
 43
0.25
 44
0.093
140
0.125
174
     1
271
     3
272
     3
279
     2
340
11
  0
ENDTAB
  0
TABLE
  2
BLOCK_RECORD
  5
1
330
0
100
AcDbSymbolTable
 70
    29
  0
BLOCK_RECORD
  5
1E
330
1
100
AcDbSymbolTableRecord
100
AcDbBlockTableRecord
  2
*Model_Space
340
21
  0
BLOCK_RECORD
  5
1A
330
1
100
AcDbSymbolTableRecord
100
AcDbBlockTableRecord
  2
*Paper_Space
340
1D
  0
BLOCK_RECORD
  5
22
330
1
100
AcDbSymbolTableRecord
100
AcDbBlockTableRecord
  2
*X0
340
0
102
{BLKREFS
331
33C
102
}
  0
BLOCK_RECORD
  5
23
330
1
100
AcDbSymbolTableRecord
100
AcDbBlockTableRecord
  2
*X1
340
0
102
{BLKREFS
331
352
102
}
  0
BLOCK_RECORD
  5
24
330
1
100
AcDbSymbolTableRecord
100
AcDbBlockTableRecord
  2
*X2
340
0
102
{BLKREFS
331
353
102
}
  0
BLOCK_RECORD
  5
25
330
1
100
AcDbSymbolTableRecord
100
AcDbBlockTableRecord
  2
*X3
340
0
102
{BLKREFS
331
361
102
}
  0
BLOCK_RECORD
  5
26
330
1
100
AcDbSymbolTableRecord
100
AcDbBlockTableRecord
  2
*D4
340
0
  0
BLOCK_RECORD
  5
27
330
1
100
AcDbSymbolTableRecord
100
AcDbBlockTableRecord
  2
*D5
340
0
  0
BLOCK_RECORD
  5
28
330
1
100
AcDbSymbolTableRecord
100
AcDbBlockTableRecord
  2
*D6
340
0
  0
BLOCK_RECORD
  5
29
330
1
100
AcDbSymbolTableRecord
100
AcDbBlockTableRecord
  2
*D7
340
0
  0
BLOCK_RECORD
  5
2A
330
1
100
AcDbSymbolTableRecord
100
AcDbBlockTableRecord
  2
*D8
340
0
  0
BLOCK_RECORD
  5
2B
330
1
100
AcDbSymbolTableRecord
100
AcDbBlockTableRecord
  2
*D9
340
0
  0
BLOCK_RECORD
  5
2C
330
1
100
AcDbSymbolTableRecord
100
AcDbBlockTableRecord
  2
*D10
340
0
  0
BLOCK_RECORD
  5
2D
330
1
100
AcDbSymbolTableRecord
100
AcDbBlockTableRecord
  2
*D11
340
0
  0
BLOCK_RECORD
  5
2E
330
1
100
AcDbSymbolTableRecord
100
AcDbBlockTableRecord
  2
*D12
340
0
  0
BLOCK_RECORD
  5
2F
330
1
100
AcDbSymbolTableRecord
100
AcDbBlockTableRecord
  2
*D13
340
0
  0
BLOCK_RECORD
  5
30
330
1
100
AcDbSymbolTableRecord
100
AcDbBlockTableRecord
  2
*D14
340
0
  0
BLOCK_RECORD
  5
31
330
1
100
AcDbSymbolTableRecord
100
AcDbBlockTableRecord
  2
*D15
340
0
  0
BLOCK_RECORD
  5
32
330
1
100
AcDbSymbolTableRecord
100
AcDbBlockTableRecord
  2
*D16
340
0
  0
BLOCK_RECORD
  5
33
330
1
100
AcDbSymbolTableRecord
100
AcDbBlockTableRecord
  2
*D17
340
0
  0
BLOCK_RECORD
  5
34
330
1
100
AcDbSymbolTableRecord
100
AcDbBlockTableRecord
  2
*D18
340
0
  0
BLOCK_RECORD
  5
35
330
1
100
AcDbSymbolTableRecord
100
AcDbBlockTableRecord
  2
*D19
340
0
  0
BLOCK_RECORD
  5
36
330
1
100
AcDbSymbolTableRecord
100
AcDbBlockTableRecord
  2
*D20
340
0
  0
BLOCK_RECORD
  5
37
330
1
100
AcDbSymbolTableRecord
100
AcDbBlockTableRecord
  2
*D21
340
0
  0
BLOCK_RECORD
  5
38
330
1
100
AcDbSymbolTableRecord
100
AcDbBlockTableRecord
  2
*D22
340
0
  0
BLOCK_RECORD
  5
39
330
1
100
AcDbSymbolTableRecord
100
AcDbBlockTableRecord
  2
*D23
340
0
  0
BLOCK_RECORD
  5
3A
330
1
100
AcDbSymbolTableRecord
100
AcDbBlockTableRecord
  2
*D24
340
0
  0
BLOCK_RECORD
  5
3B
330
1
100
AcDbSymbolTableRecord
100
AcDbBlockTableRecord
  2
*D25
340
0
  0
BLOCK_RECORD
  5
3C
330
1
100
AcDbSymbolTableRecord
100
AcDbBlockTableRecord
  2
*D26
340
0
  0
BLOCK_RECORD
  5
3D
330
1
100
AcDbSymbolTableRecord
100
AcDbBlockTableRecord
  2
*D27
340
0
  0
BLOCK_RECORD
  5
3E
330
1
100
AcDbSymbolTableRecord
100
AcDbBlockTableRecord
  2
*D28
340
0
  0
ENDTAB
  0
ENDSEC
  0
SECTION
  2
BLOCKS
  0
BLOCK
  5
53
330
1E
100
AcDbEntity
  8
0
100
AcDbBlockBegin
  2
*Model_Space
 70
     0
 10
0.0
 20
0.0
 30
0.0
  3
*Model_Space
  1

  0
ENDBLK
  5
54
330
1E
100
AcDbEntity
  8
0
100
AcDbBlockEnd
  0
BLOCK
  5
51
330
1A
100
AcDbEntity
 67
     1
  8
0
100
AcDbBlockBegin
  2
*Paper_Space
 70
     0
 10
0.0
 20
0.0
 30
0.0
  3
*Paper_Space
  1

  0
ENDBLK
  5
52
330
1A
100
AcDbEntity
 67
     1
  8
0
100
AcDbBlockEnd
  0
BLOCK
  5
55
330
22
100
AcDbEntity
  8
0
100
AcDbBlockBegin
  2
*X0
 70
     1
 10
0.0
 20
0.0
 30
0.0
  3
*X0
  1

  0
LINE
  5
56
330
22
100
AcDbEntity
  8
0
 62
     0
100
AcDbLine
 10
24.67957075303495
 20
6.11801774688808
 30
0.0
 11
24.77957075303494
 21
6.218017746888077
 31
0.0
  0
LINE
  5
57
330
22
100
AcDbEntity
  8
0
 62
     0
100
AcDbLine
 10
24.41440571008999
 20
6.118017746888079
 30
0.0
 11
24.51440571008999
 21
6.218017746888076
 31
0.0
  0
LINE
  5
58
330
22
100
AcDbEntity
  8
0
 62
     0
100
AcDbLine
 10
24.14924066714504
 20
6.118017746888078
 30
0.0
 11
24.24924066714504
 21
6.218017746888076
 31
0.0
  0
LINE
  5
59
330
22
100
AcDbEntity
  8
0
 62
     0
100
AcDbLine
 10
23.88407562420008
 20
6.118017746888077
 30
0.0
 11
23.98407562420008
 21
6.218017746888075
 31
0.0
  0
LINE
  5
5A
330
22
100
AcDbEntity
  8
0
 62
     0
100
AcDbLine
 10
23.61891058125512
 20
6.118017746888076
 30
0.0
 11
23.71891058125512
 21
6.218017746888074
 31
0.0
  0
LINE
  5
5B
330
22
100
AcDbEntity
  8
0
 62
     0
100
AcDbLine
 10
22.82463272854096
 20
5.588904937118863
 30
0.0
 11
22.91891903998075
 21
5.683191248558658
 31
0.0
  0
LINE
  5
5C
330
22
100
AcDbEntity
  8
0
 62
     0
100
AcDbLine
 10
23.35374553831017
 20
6.118017746888075
 30
0.0
 11
23.45374553831017
 21
6.218017746888073
 31
0.0
  0
LINE
  5
5D
330
22
100
AcDbEntity
  8
0
 62
     0
100
AcDbLine
 10
22.82934342713202
 20
5.858780678654882
 30
0.0
 11
22.91891903998075
 21
5.948356291503618
 31
0.0
  0
LINE
  5
5E
330
22
100
AcDbEntity
  8
0
 62
     0
100
AcDbLine
 10
23.08858049536521
 20
6.118017746888074
 30
0.0
 11
23.18858049536521
 21
6.218017746888073
 31
0.0
  0
LINE
  5
5F
330
22
100
AcDbEntity
  8
0
 62
     0
100
AcDbLine
 10
24.94473579597991
 20
6.118017746888081
 30
0.0
 11
25.0447357959799
 21
6.218017746888078
 31
0.0
  0
LINE
  5
60
330
22
100
AcDbEntity
  8
0
 62
     0
100
AcDbLine
 10
25.20990083892486
 20
6.118017746888082
 30
0.0
 11
25.30990083892486
 21
6.218017746888078
 31
0.0
  0
LINE
  5
61
330
22
100
AcDbEntity
  8
0
 62
     0
100
AcDbLine
 10
25.47506588186982
 20
6.118017746888082
 30
0.0
 11
25.57506588186981
 21
6.218017746888079
 31
0.0
  0
LINE
  5
62
330
22
100
AcDbEntity
  8
0
 62
     0
100
AcDbLine
 10
25.74023092481477
 20
6.118017746888083
 30
0.0
 11
25.84023092481477
 21
6.218017746888079
 31
0.0
  0
LINE
  5
63
330
22
100
AcDbEntity
  8
0
 62
     0
100
AcDbLine
 10
26.00539596775973
 20
6.118017746888084
 30
0.0
 11
26.0547617546207
 21
6.167383533749046
 31
0.0
  0
LINE
  5
64
330
22
100
AcDbEntity
  8
0
 62
     0
100
AcDbLine
 10
24.50279405758999
 20
6.118017746888079
 30
0.0
 11
24.60279405758999
 21
6.218017746888077
 31
0.0
  0
LINE
  5
65
330
22
100
AcDbEntity
  8
0
 62
     0
100
AcDbLine
 10
24.23762901464503
 20
6.118017746888078
 30
0.0
 11
24.33762901464503
 21
6.218017746888076
 31
0.0
  0
LINE
  5
66
330
22
100
AcDbEntity
  8
0
 62
     0
100
AcDbLine
 10
23.97246397170008
 20
6.118017746888077
 30
0.0
 11
24.07246397170008
 21
6.218017746888075
 31
0.0
  0
LINE
  5
67
330
22
100
AcDbEntity
  8
0
 62
     0
100
AcDbLine
 10
23.70729892875512
 20
6.118017746888076
 30
0.0
 11
23.80729892875512
 21
6.218017746888074
 31
0.0
  0
LINE
  5
68
330
22
100
AcDbEntity
  8
0
 62
     0
100
AcDbLine
 10
22.87213388581016
 20
5.54801774688807
 30
0.0
 11
22.87891903998074
 21
5.554802901058652
 31
0.0
  0
LINE
  5
69
330
22
100
AcDbEntity
  8
0
 62
     0
100
AcDbLine
 10
23.44213388581017
 20
6.118017746888075
 30
0.0
 11
23.54213388581016
 21
6.218017746888074
 31
0.0
  0
LINE
  5
6A
330
22
100
AcDbEntity
  8
0
 62
     0
100
AcDbLine
 10
22.82777319427097
 20
5.76882209829383
 30
0.0
 11
22.91891903998075
 21
5.859967944003618
 31
0.0
  0
LINE
  5
6B
330
22
100
AcDbEntity
  8
0
 62
     0
100
AcDbLine
 10
23.17696884286521
 20
6.118017746888074
 30
0.0
 11
23.27696884286521
 21
6.218017746888073
 31
0.0
  0
LINE
  5
6C
330
22
100
AcDbEntity
  8
0
 62
     0
100
AcDbLine
 10
22.83248389286203
 20
6.03869783982985
 30
0.0
 11
23.01180379992025
 21
6.218017746888072
 31
0.0
  0
LINE
  5
6D
330
22
100
AcDbEntity
  8
0
 62
     0
100
AcDbLine
 10
24.76795910053495
 20
6.11801774688808
 30
0.0
 11
24.86795910053494
 21
6.218017746888077
 31
0.0
  0
LINE
  5
6E
330
22
100
AcDbEntity
  8
0
 62
     0
100
AcDbLine
 10
25.0331241434799
 20
6.118017746888081
 30
0.0
 11
25.1331241434799
 21
6.218017746888078
 31
0.0
  0
LINE
  5
6F
330
22
100
AcDbEntity
  8
0
 62
     0
100
AcDbLine
 10
25.29828918642486
 20
6.118017746888082
 30
0.0
 11
25.39828918642486
 21
6.218017746888079
 31
0.0
  0
LINE
  5
70
330
22
100
AcDbEntity
  8
0
 62
     0
100
AcDbLine
 10
25.56345422936981
 20
6.118017746888082
 30
0.0
 11
25.66345422936981
 21
6.218017746888079
 31
0.0
  0
LINE
  5
71
330
22
100
AcDbEntity
  8
0
 62
     0
100
AcDbLine
 10
25.82861927231477
 20
6.118017746888083
 30
0.0
 11
25.92861927231477
 21
6.218017746888079
 31
0.0
  0
ENDBLK
  5
72
330
22
100
AcDbEntity
  8
0
100
AcDbBlockEnd
  0
BLOCK
  5
73
330
23
100
AcDbEntity
  8
0
100
AcDbBlockBegin
  2
*X1
 70
     1
 10
0.0
 20
0.0
 30
0.0
  3
*X1
  1

  0
LINE
  5
74
330
23
100
AcDbEntity
  8
0
 62
     0
100
AcDbLine
 10
27.05266938577763
 20
13.61764054323323
 30
0.0
 11
27.12266938577764
 21
13.68764054323324
 31
0.0
  0
LINE
  5
75
330
23
100
AcDbEntity
  8
0
 62
     0
100
AcDbLine
 10
26.34556260459109
 20
13.61764054323323
 30
0.0
 11
26.41556260459109
 21
13.68764054323324
 31
0.0
  0
LINE
  5
76
330
23
100
AcDbEntity
  8
0
 62
     0
100
AcDbLine
 10
25.63845582340454
 20
13.61764054323323
 30
0.0
 11
25.70845582340455
 21
13.68764054323324
 31
0.0
  0
LINE
  5
77
330
23
100
AcDbEntity
  8
0
 62
     0
100
AcDbLine
 10
27.75977616696418
 20
13.61764054323323
 30
0.0
 11
27.82977616696419
 21
13.68764054323324
 31
0.0
  0
LINE
  5
78
330
23
100
AcDbEntity
  8
0
 62
     0
100
AcDbLine
 10
28.46688294815073
 20
13.61764054323323
 30
0.0
 11
28.53688294815073
 21
13.68764054323324
 31
0.0
  0
LINE
  5
79
330
23
100
AcDbEntity
  8
0
 62
     0
100
AcDbLine
 10
29.17398972933728
 20
13.61764054323323
 30
0.0
 11
29.24398972933728
 21
13.68764054323324
 31
0.0
  0
LINE
  5
7A
330
23
100
AcDbEntity
  8
0
 62
     0
100
AcDbLine
 10
26.96428103812932
 20
13.61764054323323
 30
0.0
 11
27.03428103812932
 21
13.68764054323324
 31
0.0
  0
LINE
  5
7B
330
23
100
AcDbEntity
  8
0
 62
     0
100
AcDbLine
 10
26.25717425694277
 20
13.61764054323323
 30
0.0
 11
26.32717425694278
 21
13.68764054323324
 31
0.0
  0
LINE
  5
7C
330
23
100
AcDbEntity
  8
0
 62
     0
100
AcDbLine
 10
25.55006747575622
 20
13.61764054323323
 30
0.0
 11
25.62006747575623
 21
13.68764054323324
 31
0.0
  0
LINE
  5
7D
330
23
100
AcDbEntity
  8
0
 62
     0
100
AcDbLine
 10
27.67138781931587
 20
13.61764054323323
 30
0.0
 11
27.74138781931587
 21
13.68764054323324
 31
0.0
  0
LINE
  5
7E
330
23
100
AcDbEntity
  8
0
 62
     0
100
AcDbLine
 10
28.37849460050241
 20
13.61764054323323
 30
0.0
 11
28.44849460050242
 21
13.68764054323324
 31
0.0
  0
LINE
  5
7F
330
23
100
AcDbEntity
  8
0
 62
     0
100
AcDbLine
 10
29.08560138168896
 20
13.61764054323323
 30
0.0
 11
29.15560138168896
 21
13.68764054323324
 31
0.0
  0
LINE
  5
80
330
23
100
AcDbEntity
  8
0
 62
     0
100
AcDbLine
 10
26.875892690481
 20
13.61764054323323
 30
0.0
 11
26.945892690481
 21
13.68764054323324
 31
0.0
  0
LINE
  5
81
330
23
100
AcDbEntity
  8
0
 62
     0
100
AcDbLine
 10
26.16878590929445
 20
13.61764054323323
 30
0.0
 11
26.23878590929446
 21
13.68764054323324
 31
0.0
  0
LINE
  5
82
330
23
100
AcDbEntity
  8
0
 62
     0
100
AcDbLine
 10
25.46167912810791
 20
13.61764054323323
 30
0.0
 11
25.53167912810791
 21
13.68764054323324
 31
0.0
  0
LINE
  5
83
330
23
100
AcDbEntity
  8
0
 62
     0
100
AcDbLine
 10
27.58299947166754
 20
13.61764054323323
 30
0.0
 11
27.65299947166755
 21
13.68764054323324
 31
0.0
  0
LINE
  5
84
330
23
100
AcDbEntity
  8
0
 62
     0
100
AcDbLine
 10
28.29010625285409
 20
13.61764054323323
 30
0.0
 11
28.3601062528541
 21
13.68764054323324
 31
0.0
  0
LINE
  5
85
330
23
100
AcDbEntity
  8
0
 62
     0
100
AcDbLine
 10
28.99721303404064
 20
13.61764054323323
 30
0.0
 11
29.06721303404065
 21
13.68764054323324
 31
0.0
  0
ENDBLK
  5
86
330
23
100
AcDbEntity
  8
0
100
AcDbBlockEnd
  0
BLOCK
  5
87
330
24
100
AcDbEntity
  8
0
100
AcDbBlockBegin
  2
*X2
 70
     1
 10
0.0
 20
0.0
 30
0.0
  3
*X2
  1

  0
LINE
  5
88
330
24
100
AcDbEntity
  8
0
 62
     0
100
AcDbLine
 10
27.15531007289692
 20
9.477640543233237
 30
0.0
 11
27.22531007289692
 21
9.547640543233235
 31
0.0
  0
LINE
  5
89
330
24
100
AcDbEntity
  8
0
 62
     0
100
AcDbLine
 10
26.44820329171038
 20
9.477640543233237
 30
0.0
 11
26.51820329171037
 21
9.547640543233237
 31
0.0
  0
LINE
  5
8A
330
24
100
AcDbEntity
  8
0
 62
     0
100
AcDbLine
 10
25.74109651052383
 20
9.477640543233237
 30
0.0
 11
25.81109651052383
 21
9.547640543233237
 31
0.0
  0
LINE
  5
8B
330
24
100
AcDbEntity
  8
0
 62
     0
100
AcDbLine
 10
25.09378163624681
 20
9.537432450142766
 30
0.0
 11
25.10398972933728
 21
9.547640543233237
 31
0.0
  0
LINE
  5
8C
330
24
100
AcDbEntity
  8
0
 62
     0
100
AcDbLine
 10
27.86241685408347
 20
9.477640543233237
 30
0.0
 11
27.93241685408347
 21
9.547640543233235
 31
0.0
  0
LINE
  5
8D
330
24
100
AcDbEntity
  8
0
 62
     0
100
AcDbLine
 10
28.56952363527001
 20
9.477640543233237
 30
0.0
 11
28.63952363527001
 21
9.547640543233235
 31
0.0
  0
LINE
  5
8E
330
24
100
AcDbEntity
  8
0
 62
     0
100
AcDbLine
 10
27.0669217252486
 20
9.477640543233237
 30
0.0
 11
27.1369217252486
 21
9.547640543233237
 31
0.0
  0
LINE
  5
8F
330
24
100
AcDbEntity
  8
0
 62
     0
100
AcDbLine
 10
26.35981494406205
 20
9.477640543233237
 30
0.0
 11
26.42981494406205
 21
9.547640543233237
 31
0.0
  0
LINE
  5
90
330
24
100
AcDbEntity
  8
0
 62
     0
100
AcDbLine
 10
25.65270816287551
 20
9.477640543233237
 30
0.0
 11
25.7227081628755
 21
9.547640543233237
 31
0.0
  0
LINE
  5
91
330
24
100
AcDbEntity
  8
0
 62
     0
100
AcDbLine
 10
27.77402850643515
 20
9.477640543233237
 30
0.0
 11
27.84402850643515
 21
9.547640543233235
 31
0.0
  0
LINE
  5
92
330
24
100
AcDbEntity
  8
0
 62
     0
100
AcDbLine
 10
28.4811352876217
 20
9.477640543233237
 30
0.0
 11
28.55113528762169
 21
9.547640543233235
 31
0.0
  0
LINE
  5
93
330
24
100
AcDbEntity
  8
0
 62
     0
100
AcDbLine
 10
29.18824206880824
 20
9.477640543233237
 30
0.0
 11
29.25824206880824
 21
9.547640543233235
 31
0.0
  0
LINE
  5
94
330
24
100
AcDbEntity
  8
0
 62
     0
100
AcDbLine
 10
26.97853337760028
 20
9.477640543233237
 30
0.0
 11
27.04853337760028
 21
9.547640543233237
 31
0.0
  0
LINE
  5
95
330
24
100
AcDbEntity
  8
0
 62
     0
100
AcDbLine
 10
26.27142659641374
 20
9.477640543233237
 30
0.0
 11
26.34142659641374
 21
9.547640543233237
 31
0.0
  0
LINE
  5
96
330
24
100
AcDbEntity
  8
0
 62
     0
100
AcDbLine
 10
25.56431981522719
 20
9.477640543233237
 30
0.0
 11
25.63431981522719
 21
9.547640543233237
 31
0.0
  0
LINE
  5
97
330
24
100
AcDbEntity
  8
0
 62
     0
100
AcDbLine
 10
27.68564015878683
 20
9.477640543233237
 30
0.0
 11
27.75564015878683
 21
9.547640543233235
 31
0.0
  0
LINE
  5
98
330
24
100
AcDbEntity
  8
0
 62
     0
100
AcDbLine
 10
28.39274693997338
 20
9.477640543233237
 30
0.0
 11
28.46274693997338
 21
9.547640543233235
 31
0.0
  0
LINE
  5
99
330
24
100
AcDbEntity
  8
0
 62
     0
100
AcDbLine
 10
29.09985372115993
 20
9.477640543233237
 30
0.0
 11
29.16985372115993
 21
9.547640543233235
 31
0.0
  0
ENDBLK
  5
9A
330
24
100
AcDbEntity
  8
0
100
AcDbBlockEnd
  0
BLOCK
  5
9B
330
25
100
AcDbEntity
  8
0
100
AcDbBlockBegin
  2
*X3
 70
     1
 10
0.0
 20
0.0
 30
0.0
  3
*X3
  1

  0
LINE
  5
9C
330
25
100
AcDbEntity
  8
0
 62
     0
100
AcDbLine
 10
4.163764345799153
 20
22.08757490575141
 30
0.0
 11
4.063764345799155
 21
22.18757490575142
 31
0.0
  0
LINE
  5
9D
330
25
100
AcDbEntity
  8
0
 62
     0
100
AcDbLine
 10
3.898599302854198
 20
22.08757490575141
 30
0.0
 11
3.7985993028542
 21
22.18757490575142
 31
0.0
  0
LINE
  5
9E
330
25
100
AcDbEntity
  8
0
 62
     0
100
AcDbLine
 10
3.633434259909242
 20
22.08757490575141
 30
0.0
 11
3.533434259909244
 21
22.18757490575142
 31
0.0
  0
LINE
  5
9F
330
25
100
AcDbEntity
  8
0
 62
     0
100
AcDbLine
 10
3.368269216964287
 20
22.08757490575141
 30
0.0
 11
3.268269216964288
 21
22.18757490575142
 31
0.0
  0
LINE
  5
A0
330
25
100
AcDbEntity
  8
0
 62
     0
100
AcDbLine
 10
3.103104174019332
 20
22.08757490575141
 30
0.0
 11
3.003104174019333
 21
22.18757490575142
 31
0.0
  0
LINE
  5
A1
330
25
100
AcDbEntity
  8
0
 62
     0
100
AcDbLine
 10
2.466943196337705
 20
22.72373588343304
 30
0.0
 11
2.423104174019332
 21
22.76757490575142
 31
0.0
  0
LINE
  5
A2
330
25
100
AcDbEntity
  8
0
 62
     0
100
AcDbLine
 10
2.837939131074377
 20
22.08757490575141
 30
0.0
 11
2.737939131074377
 21
22.18757490575142
 31
0.0
  0
LINE
  5
A3
330
25
100
AcDbEntity
  8
0
 62
     0
100
AcDbLine
 10
2.466943196337707
 20
22.45857084048809
 30
0.0
 11
2.375745012133344
 21
22.54976902469245
 31
0.0
  0
LINE
  5
A4
330
25
100
AcDbEntity
  8
0
 62
     0
100
AcDbLine
 10
2.572774088129421
 20
22.08757490575141
 30
0.0
 11
2.472774088129421
 21
22.18757490575142
 31
0.0
  0
LINE
  5
A5
330
25
100
AcDbEntity
  8
0
 62
     0
100
AcDbLine
 10
2.46694319633771
 20
22.19340579754313
 30
0.0
 11
2.380455710724407
 21
22.27989328315643
 31
0.0
  0
LINE
  5
A6
330
25
100
AcDbEntity
  8
0
 62
     0
100
AcDbLine
 10
4.428929388744109
 20
22.08757490575141
 30
0.0
 11
4.328929388744111
 21
22.18757490575142
 31
0.0
  0
LINE
  5
A7
330
25
100
AcDbEntity
  8
0
 62
     0
100
AcDbLine
 10
4.694094431689064
 20
22.08757490575141
 30
0.0
 11
4.594094431689066
 21
22.18757490575142
 31
0.0
  0
LINE
  5
A8
330
25
100
AcDbEntity
  8
0
 62
     0
100
AcDbLine
 10
4.959259474634019
 20
22.08757490575141
 30
0.0
 11
4.859259474634022
 21
22.18757490575141
 31
0.0
  0
LINE
  5
A9
330
25
100
AcDbEntity
  8
0
 62
     0
100
AcDbLine
 10
5.224424517578975
 20
22.08757490575141
 30
0.0
 11
5.124424517578978
 21
22.18757490575141
 31
0.0
  0
LINE
  5
AA
330
25
100
AcDbEntity
  8
0
 62
     0
100
AcDbLine
 10
5.489589560523929
 20
22.08757490575141
 30
0.0
 11
5.389589560523933
 21
22.18757490575141
 31
0.0
  0
LINE
  5
AB
330
25
100
AcDbEntity
  8
0
 62
     0
100
AcDbLine
 10
4.252152693299154
 20
22.08757490575141
 30
0.0
 11
4.152152693299156
 21
22.18757490575142
 31
0.0
  0
LINE
  5
AC
330
25
100
AcDbEntity
  8
0
 62
     0
100
AcDbLine
 10
3.986987650354199
 20
22.08757490575141
 30
0.0
 11
3.886987650354201
 21
22.18757490575142
 31
0.0
  0
LINE
  5
AD
330
25
100
AcDbEntity
  8
0
 62
     0
100
AcDbLine
 10
3.721822607409244
 20
22.08757490575141
 30
0.0
 11
3.621822607409245
 21
22.18757490575142
 31
0.0
  0
LINE
  5
AE
330
25
100
AcDbEntity
  8
0
 62
     0
100
AcDbLine
 10
3.456657564464288
 20
22.08757490575141
 30
0.0
 11
3.35665756446429
 21
22.18757490575142
 31
0.0
  0
LINE
  5
AF
330
25
100
AcDbEntity
  8
0
 62
     0
100
AcDbLine
 10
3.191492521519333
 20
22.08757490575141
 30
0.0
 11
3.091492521519334
 21
22.18757490575142
 31
0.0
  0
LINE
  5
B0
330
25
100
AcDbEntity
  8
0
 62
     0
100
AcDbLine
 10
2.926327478574378
 20
22.08757490575141
 30
0.0
 11
2.826327478574378
 21
22.18757490575142
 31
0.0
  0
LINE
  5
B1
330
25
100
AcDbEntity
  8
0
 62
     0
100
AcDbLine
 10
2.466943196337707
 20
22.54695918798808
 30
0.0
 11
2.374174779272292
 21
22.6397276050535
 31
0.0
  0
LINE
  5
B2
330
25
100
AcDbEntity
  8
0
 62
     0
100
AcDbLine
 10
2.661162435629422
 20
22.08757490575141
 30
0.0
 11
2.561162435629423
 21
22.18757490575142
 31
0.0
  0
LINE
  5
B3
330
25
100
AcDbEntity
  8
0
 62
     0
100
AcDbLine
 10
2.466943196337709
 20
22.28179414504313
 30
0.0
 11
2.378885477863355
 21
22.36985186351748
 31
0.0
  0
LINE
  5
B4
330
25
100
AcDbEntity
  8
0
 62
     0
100
AcDbLine
 10
4.51731773624411
 20
22.08757490575141
 30
0.0
 11
4.417317736244112
 21
22.18757490575142
 31
0.0
  0
LINE
  5
B5
330
25
100
AcDbEntity
  8
0
 62
     0
100
AcDbLine
 10
4.782482779189065
 20
22.08757490575141
 30
0.0
 11
4.682482779189068
 21
22.18757490575141
 31
0.0
  0
LINE
  5
B6
330
25
100
AcDbEntity
  8
0
 62
     0
100
AcDbLine
 10
5.04764782213402
 20
22.08757490575141
 30
0.0
 11
4.947647822134023
 21
22.18757490575141
 31
0.0
  0
LINE
  5
B7
330
25
100
AcDbEntity
  8
0
 62
     0
100
AcDbLine
 10
5.312812865078976
 20
22.08757490575141
 30
0.0
 11
5.212812865078979
 21
22.18757490575141
 31
0.0
  0
LINE
  5
B8
330
25
100
AcDbEntity
  8
0
 62
     0
100
AcDbLine
 10
5.549014151526752
 20
22.1165386622486
 30
0.0
 11
5.477977908023935
 21
22.18757490575141
 31
0.0
  0
ENDBLK
  5
B9
330
25
100
AcDbEntity
  8
0
100
AcDbBlockEnd
  0
BLOCK
  5
BA
330
26
100
AcDbEntity
  8
0
100
AcDbBlockBegin
  2
*D4
 70
     1
 10
0.0
 20
0.0
 30
0.0
  3
*D4
  1

  0
LINE
  5
BB
330
26
100
AcDbEntity
  8
0
  6
ByBlock
 62
     0
100
AcDbLine
 10
9.979041418941196
 20
2.907616763196104
 30
0.0
 11
9.979041418941196
 21
3.38214543661726
 31
0.0
  0
LINE
  5
BC
330
26
100
AcDbEntity
  8
0
  6
ByBlock
 62
     0
100
AcDbLine
 10
15.28904141894119
 20
2.907616763196104
 30
0.0
 11
15.28904141894119
 21
3.38214543661726
 31
0.0
  0
LINE
  5
BD
330
26
100
AcDbEntity
  8
0
  6
ByBlock
 62
     0
100
AcDbLine
 10
10.24904141894119
 20
3.242645436617261
 30
0.0
 11
12.25294766894119
 21
3.242645436617261
 31
0.0
  0
LINE
  5
BE
330
26
100
AcDbEntity
  8
0
  6
ByBlock
 62
     0
100
AcDbLine
 10
15.01904141894119
 20
3.242645436617261
 30
0.0
 11
13.01513516894119
 21
3.242645436617261
 31
0.0
  0
SOLID
  5
BF
330
26
100
AcDbEntity
  8
0
  6
ByBlock
 62
     0
100
AcDbTrace
 10
10.24904141894119
 20
3.28764543661726
 30
0.0
 11
10.24904141894119
 21
3.197645436617261
 31
0.0
 12
9.979041418941196
 22
3.242645436617261
 32
0.0
 13
9.979041418941196
 23
3.242645436617261
 33
0.0
  0
SOLID
  5
C0
330
26
100
AcDbEntity
  8
0
  6
ByBlock
 62
     0
100
AcDbTrace
 10
15.01904141894119
 20
3.28764543661726
 30
0.0
 11
15.01904141894119
 21
3.197645436617261
 31
0.0
 12
15.28904141894119
 22
3.242645436617261
 32
0.0
 13
15.28904141894119
 23
3.242645436617261
 33
0.0
  0
TEXT
  5
C1
330
26
100
AcDbEntity
  8
0
  6
ByBlock
 62
     0
100
AcDbText
 10
12.38794766894119
 20
3.148895436617261
 30
0.0
 40
0.1875
  1
5.310
 41
0.75
  7
TXT
 72
     1
 11
12.63404141894119
 21
3.242645436617261
 31
0.0
100
AcDbText
 73
     2
  0
POINT
  5
C3
330
26
100
AcDbEntity
  8
DEFPOINTS
  6
ByBlock
 62
     0
100
AcDbPoint
 10
9.979041418941196
 20
2.813116763196104
 30
0.0
  0
POINT
  5
C4
330
26
100
AcDbEntity
  8
DEFPOINTS
  6
ByBlock
 62
     0
100
AcDbPoint
 10
15.28904141894119
 20
2.813116763196104
 30
0.0
  0
POINT
  5
C5
330
26
100
AcDbEntity
  8
DEFPOINTS
  6
ByBlock
 62
     0
100
AcDbPoint
 10
15.28904141894119
 20
3.242645436617261
 30
0.0
  0
ENDBLK
  5
C6
330
26
100
AcDbEntity
  8
0
100
AcDbBlockEnd
  0
BLOCK
  5
C7
330
27
100
AcDbEntity
  8
0
100
AcDbBlockBegin
  2
*D5
 70
     1
 10
0.0
 20
0.0
 30
0.0
  3
*D5
  1

  0
LINE
  5
C8
330
27
100
AcDbEntity
  8
0
  6
ByBlock
 62
     0
100
AcDbLine
 10
10.05604141894119
 20
1.567616763196104
 30
0.0
 11
10.05604141894119
 21
0.9532030961574502
 31
0.0
  0
LINE
  5
C9
330
27
100
AcDbEntity
  8
0
  6
ByBlock
 62
     0
100
AcDbLine
 10
15.21204141894119
 20
1.567616763196104
 30
0.0
 11
15.21204141894119
 21
0.9532030961574502
 31
0.0
  0
LINE
  5
CA
330
27
100
AcDbEntity
  8
0
  6
ByBlock
 62
     0
100
AcDbLine
 10
10.32604141894119
 20
1.09270309615745
 30
0.0
 11
11.25685391894119
 21
1.09270309615745
 31
0.0
  0
LINE
  5
CB
330
27
100
AcDbEntity
  8
0
  6
ByBlock
 62
     0
100
AcDbLine
 10
14.94204141894119
 20
1.09270309615745
 30
0.0
 11
14.01122891894119
 21
1.09270309615745
 31
0.0
  0
SOLID
  5
CC
330
27
100
AcDbEntity
  8
0
  6
ByBlock
 62
     0
100
AcDbTrace
 10
10.32604141894119
 20
1.13770309615745
 30
0.0
 11
10.32604141894119
 21
1.04770309615745
 31
0.0
 12
10.05604141894119
 22
1.09270309615745
 32
0.0
 13
10.05604141894119
 23
1.09270309615745
 33
0.0
  0
SOLID
  5
CD
330
27
100
AcDbEntity
  8
0
  6
ByBlock
 62
     0
100
AcDbTrace
 10
14.94204141894119
 20
1.13770309615745
 30
0.0
 11
14.94204141894119
 21
1.04770309615745
 31
0.0
 12
15.21204141894119
 22
1.09270309615745
 32
0.0
 13
15.21204141894119
 23
1.09270309615745
 33
0.0
  0
TEXT
  5
CE
330
27
100
AcDbEntity
  8
0
  6
ByBlock
 62
     0
100
AcDbText
 10
11.88404141894119
 20
0.9989530961574502
 30
0.0
 40
0.1875
  1
 EXPOSED PANEL
 41
0.75
  7
TXT
 72
     1
 11
12.91529141894119
 21
1.09270309615745
 31
0.0
100
AcDbText
 73
     2
  0
TEXT
  5
CF
330
27
100
AcDbEntity
  8
0
  6
ByBlock
 62
     0
100
AcDbText
 10
11.39185391894119
 20
0.9989530961574502
 30
0.0
 40
0.1875
  1
5.156
 41
0.75
  7
TXT
 72
     1
 11
11.64966641894119
 21
1.09270309615745
 31
0.0
100
AcDbText
 73
     2
  0
POINT
  5
D0
330
27
100
AcDbEntity
  8
DEFPOINTS
  6
ByBlock
 62
     0
100
AcDbPoint
 10
10.05604141894119
 20
1.662116763196104
 30
0.0
  0
POINT
  5
D1
330
27
100
AcDbEntity
  8
DEFPOINTS
  6
ByBlock
 62
     0
100
AcDbPoint
 10
15.21204141894119
 20
1.662116763196104
 30
0.0
  0
POINT
  5
D2
330
27
100
AcDbEntity
  8
DEFPOINTS
  6
ByBlock
 62
     0
100
AcDbPoint
 10
15.21204141894119
 20
1.09270309615745
 30
0.0
  0
ENDBLK
  5
D3
330
27
100
AcDbEntity
  8
0
100
AcDbBlockEnd
  0
BLOCK
  5
D4
330
28
100
AcDbEntity
  8
0
100
AcDbBlockBegin
  2
*D6
 70
     1
 10
0.0
 20
0.0
 30
0.0
  3
*D6
  1

  0
LINE
  5
D5
330
28
100
AcDbEntity
  8
0
  6
ByBlock
 62
     0
100
AcDbLine
 10
5.478640539862269
 20
2.803116763196117
 30
0.0
 11
5.704447473590248
 21
2.803116763196117
 31
0.0
  0
LINE
  5
D6
330
28
100
AcDbEntity
  8
0
  6
ByBlock
 62
     0
100
AcDbLine
 10
5.478640539862269
 20
2.903116763196104
 30
0.0
 11
5.704447473590248
 21
2.903116763196104
 31
0.0
  0
LINE
  5
D7
330
28
100
AcDbEntity
  8
0
  6
ByBlock
 62
     0
100
AcDbLine
 10
5.564947473590248
 20
2.533116763196117
 30
0.0
 11
5.564947473590248
 21
2.263116763196117
 31
0.0
  0
LINE
  5
D8
330
28
100
AcDbEntity
  8
0
  6
ByBlock
 62
     0
100
AcDbLine
 10
5.564947473590248
 20
3.173116763196104
 30
0.0
 11
5.564947473590248
 21
3.443116763196104
 31
0.0
  0
LINE
  5
D9
330
28
100
AcDbEntity
  8
0
  6
ByBlock
 62
     0
100
AcDbLine
 10
5.564947473590248
 20
3.443116763196104
 30
0.0
 11
5.834947473590249
 21
3.443116763196104
 31
0.0
  0
SOLID
  5
DA
330
28
100
AcDbEntity
  8
0
  6
ByBlock
 62
     0
100
AcDbTrace
 10
5.519947473590248
 20
2.533116763196117
 30
0.0
 11
5.609947473590248
 21
2.533116763196117
 31
0.0
 12
5.564947473590248
 22
2.803116763196117
 32
0.0
 13
5.564947473590248
 23
2.803116763196117
 33
0.0
  0
SOLID
  5
DB
330
28
100
AcDbEntity
  8
0
  6
ByBlock
 62
     0
100
AcDbTrace
 10
5.519947473590248
 20
3.173116763196104
 30
0.0
 11
5.609947473590248
 21
3.173116763196104
 31
0.0
 12
5.564947473590248
 22
2.903116763196104
 32
0.0
 13
5.564947473590248
 23
2.903116763196104
 33
0.0
  0
TEXT
  5
DC
330
28
100
AcDbEntity
  8
0
  6
ByBlock
 62
     0
100
AcDbText
 10
5.969947473590249
 20
3.349366763196104
 30
0.0
 40
0.1875
  1
0.100
 41
0.75
  7
TXT
 72
     1
 11
6.192603723590249
 21
3.443116763196104
 31
0.0
100
AcDbText
 73
     2
  0
POINT
  5
DD
330
28
100
AcDbEntity
  8
DEFPOINTS
  6
ByBlock
 62
     0
100
AcDbPoint
 10
5.384140539862269
 20
2.803116763196117
 30
0.0
  0
POINT
  5
DE
330
28
100
AcDbEntity
  8
DEFPOINTS
  6
ByBlock
 62
     0
100
AcDbPoint
 10
5.384140539862269
 20
2.903116763196104
 30
0.0
  0
POINT
  5
DF
330
28
100
AcDbEntity
  8
DEFPOINTS
  6
ByBlock
 62
     0
100
AcDbPoint
 10
5.564947473590248
 20
2.903116763196104
 30
0.0
  0
ENDBLK
  5
E0
330
28
100
AcDbEntity
  8
0
100
AcDbBlockEnd
  0
BLOCK
  5
E1
330
29
100
AcDbEntity
  8
0
100
AcDbBlockBegin
  2
*D7
 70
     1
 10
0.0
 20
0.0
 30
0.0
  3
*D7
  1

  0
LINE
  5
E2
330
29
100
AcDbEntity
  8
0
  6
ByBlock
 62
     0
100
AcDbLine
 10
3.292682141878782
 20
7.048473345346961
 30
0.0
 11
3.292682141878782
 21
6.021549289195341
 31
0.0
  0
LINE
  5
E3
330
29
100
AcDbEntity
  8
0
  6
ByBlock
 62
     0
100
AcDbLine
 10
2.703182141878788
 20
6.55647334534696
 30
0.0
 11
2.703182141878788
 21
6.021549289195341
 31
0.0
  0
LINE
  5
E4
330
29
100
AcDbEntity
  8
0
  6
ByBlock
 62
     0
100
AcDbLine
 10
3.562682141878782
 20
6.161049289195341
 30
0.0
 11
3.832682141878782
 21
6.161049289195341
 31
0.0
  0
LINE
  5
E5
330
29
100
AcDbEntity
  8
0
  6
ByBlock
 62
     0
100
AcDbLine
 10
2.433182141878788
 20
6.161049289195341
 30
0.0
 11
2.163182141878788
 21
6.161049289195341
 31
0.0
  0
SOLID
  5
E6
330
29
100
AcDbEntity
  8
0
  6
ByBlock
 62
     0
100
AcDbTrace
 10
3.562682141878782
 20
6.206049289195341
 30
0.0
 11
3.562682141878782
 21
6.116049289195341
 31
0.0
 12
3.292682141878782
 22
6.161049289195341
 32
0.0
 13
3.292682141878782
 23
6.161049289195341
 33
0.0
  0
SOLID
  5
E7
330
29
100
AcDbEntity
  8
0
  6
ByBlock
 62
     0
100
AcDbTrace
 10
2.433182141878788
 20
6.206049289195341
 30
0.0
 11
2.433182141878788
 21
6.116049289195341
 31
0.0
 12
2.703182141878788
 22
6.161049289195341
 32
0.0
 13
2.703182141878788
 23
6.161049289195341
 33
0.0
  0
TEXT
  5
E8
330
29
100
AcDbEntity
  8
0
  6
ByBlock
 62
     0
100
AcDbText
 10
1.489119641878788
 20
6.067299289195341
 30
0.0
 40
0.1875
  1
0.589
 41
0.75
  7
TXT
 72
     1
 11
1.758650891878788
 21
6.161049289195341
 31
0.0
100
AcDbText
 73
     2
  0
POINT
  5
E9
330
29
100
AcDbEntity
  8
DEFPOINTS
  6
ByBlock
 62
     0
100
AcDbPoint
 10
3.292682141878782
 20
7.142973345346961
 30
0.0
  0
POINT
  5
EA
330
29
100
AcDbEntity
  8
DEFPOINTS
  6
ByBlock
 62
     0
100
AcDbPoint
 10
2.703182141878788
 20
6.65097334534696
 30
0.0
  0
POINT
  5
EB
330
29
100
AcDbEntity
  8
DEFPOINTS
  6
ByBlock
 62
     0
100
AcDbPoint
 10
2.703182141878788
 20
6.161049289195341
 30
0.0
  0
ENDBLK
  5
EC
330
29
100
AcDbEntity
  8
0
100
AcDbBlockEnd
  0
BLOCK
  5
ED
330
2A
100
AcDbEntity
  8
0
100
AcDbBlockBegin
  2
*D8
 70
     1
 10
0.0
 20
0.0
 30
0.0
  3
*D8
  1

  0
LINE
  5
EE
330
2A
100
AcDbEntity
  8
0
  6
ByBlock
 62
     0
100
AcDbLine
 10
7.918182141878777
 20
8.910473345346959
 30
0.0
 11
7.918182141878777
 21
11.66312978926305
 31
0.0
  0
LINE
  5
EF
330
2A
100
AcDbEntity
  8
0
  6
ByBlock
 62
     0
100
AcDbLine
 10
2.998182141878776
 20
8.910473345346959
 30
0.0
 11
2.998182141878776
 21
11.66312978926305
 31
0.0
  0
LINE
  5
F0
330
2A
100
AcDbEntity
  8
0
  6
ByBlock
 62
     0
100
AcDbLine
 10
7.648182141878777
 20
11.52362978926305
 30
0.0
 11
5.862713391878776
 21
11.52362978926305
 31
0.0
  0
LINE
  5
F1
330
2A
100
AcDbEntity
  8
0
  6
ByBlock
 62
     0
100
AcDbLine
 10
3.268182141878776
 20
11.52362978926305
 30
0.0
 11
5.053650891878777
 21
11.52362978926305
 31
0.0
  0
SOLID
  5
F2
330
2A
100
AcDbEntity
  8
0
  6
ByBlock
 62
     0
100
AcDbTrace
 10
7.648182141878777
 20
11.56862978926305
 30
0.0
 11
7.648182141878777
 21
11.47862978926305
 31
0.0
 12
7.918182141878777
 22
11.52362978926305
 32
0.0
 13
7.918182141878777
 23
11.52362978926305
 33
0.0
  0
SOLID
  5
F3
330
2A
100
AcDbEntity
  8
0
  6
ByBlock
 62
     0
100
AcDbTrace
 10
3.268182141878776
 20
11.56862978926305
 30
0.0
 11
3.268182141878776
 21
11.47862978926305
 31
0.0
 12
2.998182141878776
 22
11.52362978926305
 32
0.0
 13
2.998182141878776
 23
11.52362978926305
 33
0.0
  0
TEXT
  5
F4
330
2A
100
AcDbEntity
  8
0
  6
ByBlock
 62
     0
100
AcDbText
 10
5.188650891878777
 20
11.42987978926305
 30
0.0
 40
0.1875
  1
4.920
 41
0.75
  7
TXT
 72
     1
 11
5.458182141878777
 21
11.52362978926305
 31
0.0
100
AcDbText
 73
     2
  0
POINT
  5
F5
330
2A
100
AcDbEntity
  8
DEFPOINTS
  6
ByBlock
 62
     0
100
AcDbPoint
 10
7.918182141878777
 20
8.815973345346959
 30
0.0
  0
POINT
  5
F6
330
2A
100
AcDbEntity
  8
DEFPOINTS
  6
ByBlock
 62
     0
100
AcDbPoint
 10
2.998182141878776
 20
8.815973345346959
 30
0.0
  0
POINT
  5
F7
330
2A
100
AcDbEntity
  8
DEFPOINTS
  6
ByBlock
 62
     0
100
AcDbPoint
 10
2.998182141878776
 20
11.52362978926305
 30
0.0
  0
ENDBLK
  5
F8
330
2A
100
AcDbEntity
  8
0
100
AcDbBlockEnd
  0
BLOCK
  5
F9
330
2B
100
AcDbEntity
  8
0
100
AcDbBlockBegin
  2
*D9
 70
     1
 10
0.0
 20
0.0
 30
0.0
  3
*D9
  1

  0
LINE
  5
FA
330
2B
100
AcDbEntity
  8
0
  6
ByBlock
 62
     0
100
AcDbLine
 10
2.998182141878776
 20
8.910473345346959
 30
0.0
 11
2.998182141878776
 21
11.66312978926305
 31
0.0
  0
LINE
  5
FB
330
2B
100
AcDbEntity
  8
0
  6
ByBlock
 62
     0
100
AcDbLine
 10
2.703182141878788
 20
11.07547334534696
 30
0.0
 11
2.703182141878788
 21
11.66312978926305
 31
0.0
  0
LINE
  5
FC
330
2B
100
AcDbEntity
  8
0
  6
ByBlock
 62
     0
100
AcDbLine
 10
3.268182141878776
 20
11.52362978926305
 30
0.0
 11
3.538182141878776
 21
11.52362978926305
 31
0.0
  0
LINE
  5
FD
330
2B
100
AcDbEntity
  8
0
  6
ByBlock
 62
     0
100
AcDbLine
 10
2.433182141878788
 20
11.52362978926305
 30
0.0
 11
2.163182141878788
 21
11.52362978926305
 31
0.0
  0
SOLID
  5
FE
330
2B
100
AcDbEntity
  8
0
  6
ByBlock
 62
     0
100
AcDbTrace
 10
3.268182141878776
 20
11.56862978926305
 30
0.0
 11
3.268182141878776
 21
11.47862978926305
 31
0.0
 12
2.998182141878776
 22
11.52362978926305
 32
0.0
 13
2.998182141878776
 23
11.52362978926305
 33
0.0
  0
SOLID
  5
FF
330
2B
100
AcDbEntity
  8
0
  6
ByBlock
 62
     0
100
AcDbTrace
 10
2.433182141878788
 20
11.56862978926305
 30
0.0
 11
2.433182141878788
 21
11.47862978926305
 31
0.0
 12
2.703182141878788
 22
11.52362978926305
 32
0.0
 13
2.703182141878788
 23
11.52362978926305
 33
0.0
  0
TEXT
  5
100
330
2B
100
AcDbEntity
  8
0
  6
ByBlock
 62
     0
100
AcDbText
 10
1.489119641878788
 20
11.42987978926305
 30
0.0
 40
0.1875
  1
0.295
 41
0.75
  7
TXT
 72
     1
 11
1.758650891878788
 21
11.52362978926305
 31
0.0
100
AcDbText
 73
     2
  0
POINT
  5
101
330
2B
100
AcDbEntity
  8
DEFPOINTS
  6
ByBlock
 62
     0
100
AcDbPoint
 10
2.998182141878776
 20
8.815973345346959
 30
0.0
  0
POINT
  5
102
330
2B
100
AcDbEntity
  8
DEFPOINTS
  6
ByBlock
 62
     0
100
AcDbPoint
 10
2.703182141878788
 20
10.98097334534696
 30
0.0
  0
POINT
  5
103
330
2B
100
AcDbEntity
  8
DEFPOINTS
  6
ByBlock
 62
     0
100
AcDbPoint
 10
2.703182141878788
 20
11.52362978926305
 30
0.0
  0
ENDBLK
  5
104
330
2B
100
AcDbEntity
  8
0
100
AcDbBlockEnd
  0
BLOCK
  5
105
330
2C
100
AcDbEntity
  8
0
100
AcDbBlockBegin
  2
*D10
 70
     1
 10
0.0
 20
0.0
 30
0.0
  3
*D10
  1

  0
LINE
  5
106
330
2C
100
AcDbEntity
  8
0
  6
ByBlock
 62
     0
100
AcDbLine
 10
6.27235125086753
 20
6.780973345346962
 30
0.0
 11
6.052220924556872
 21
6.780973345346962
 31
0.0
  0
LINE
  5
107
330
2C
100
AcDbEntity
  8
0
  6
ByBlock
 62
     0
100
AcDbLine
 10
6.27235125086753
 20
10.85097334534696
 30
0.0
 11
6.052220924556872
 21
10.85097334534696
 31
0.0
  0
LINE
  5
108
330
2C
100
AcDbEntity
  8
0
  6
ByBlock
 62
     0
100
AcDbLine
 10
6.191720924556872
 20
7.050973345346962
 30
0.0
 11
6.191720924556872
 21
8.587223345346965
 31
0.0
  0
LINE
  5
109
330
2C
100
AcDbEntity
  8
0
  6
ByBlock
 62
     0
100
AcDbLine
 10
6.191720924556872
 20
10.58097334534696
 30
0.0
 11
6.191720924556872
 21
9.044723345346964
 31
0.0
  0
SOLID
  5
10A
330
2C
100
AcDbEntity
  8
0
  6
ByBlock
 62
     0
100
AcDbTrace
 10
6.146720924556873
 20
7.050973345346962
 30
0.0
 11
6.236720924556872
 21
7.050973345346962
 31
0.0
 12
6.191720924556872
 22
6.780973345346962
 32
0.0
 13
6.191720924556872
 23
6.780973345346962
 33
0.0
  0
SOLID
  5
10B
330
2C
100
AcDbEntity
  8
0
  6
ByBlock
 62
     0
100
AcDbTrace
 10
6.146720924556873
 20
10.58097334534696
 30
0.0
 11
6.236720924556872
 21
10.58097334534696
 31
0.0
 12
6.191720924556872
 22
10.85097334534696
 32
0.0
 13
6.191720924556872
 23
10.85097334534696
 33
0.0
  0
TEXT
  5
10C
330
2C
100
AcDbEntity
  8
0
  6
ByBlock
 62
     0
100
AcDbText
 10
5.933908424556872
 20
8.722223345346964
 30
0.0
 40
0.1875
  1
4.070
 41
0.75
  7
TXT
 72
     1
 11
6.191720924556872
 21
8.815973345346964
 31
0.0
100
AcDbText
 73
     2
  0
POINT
  5
10D
330
2C
100
AcDbEntity
  8
DEFPOINTS
  6
ByBlock
 62
     0
100
AcDbPoint
 10
6.36685125086753
 20
6.780973345346962
 30
0.0
  0
POINT
  5
10E
330
2C
100
AcDbEntity
  8
DEFPOINTS
  6
ByBlock
 62
     0
100
AcDbPoint
 10
6.36685125086753
 20
10.85097334534696
 30
0.0
  0
POINT
  5
10F
330
2C
100
AcDbEntity
  8
DEFPOINTS
  6
ByBlock
 62
     0
100
AcDbPoint
 10
6.191720924556872
 20
10.85097334534696
 30
0.0
  0
ENDBLK
  5
110
330
2C
100
AcDbEntity
  8
0
100
AcDbBlockEnd
  0
BLOCK
  5
111
330
2D
100
AcDbEntity
  8
0
100
AcDbBlockBegin
  2
*D11
 70
     1
 10
0.0
 20
0.0
 30
0.0
  3
*D11
  1

  0
LINE
  5
112
330
2D
100
AcDbEntity
  8
0
  6
ByBlock
 62
     0
100
AcDbLine
 10
3.135682141878775
 20
8.721473345346959
 30
0.0
 11
3.135682141878775
 21
8.289724372183233
 31
0.0
  0
LINE
  5
113
330
2D
100
AcDbEntity
  8
0
  6
ByBlock
 62
     0
100
AcDbLine
 10
7.780682141878782
 20
8.721473345346959
 30
0.0
 11
7.780682141878782
 21
8.289724372183233
 31
0.0
  0
LINE
  5
114
330
2D
100
AcDbEntity
  8
0
  6
ByBlock
 62
     0
100
AcDbLine
 10
3.405682141878775
 20
8.429224372183233
 30
0.0
 11
4.647102218989306
 21
8.429224372183233
 31
0.0
  0
LINE
  5
115
330
2D
100
AcDbEntity
  8
0
  6
ByBlock
 62
     0
100
AcDbLine
 10
7.510682141878781
 20
8.429224372183233
 30
0.0
 11
5.479602218989306
 21
8.429224372183233
 31
0.0
  0
SOLID
  5
116
330
2D
100
AcDbEntity
  8
0
  6
ByBlock
 62
     0
100
AcDbTrace
 10
3.405682141878775
 20
8.474224372183233
 30
0.0
 11
3.405682141878775
 21
8.384224372183233
 31
0.0
 12
3.135682141878775
 22
8.429224372183233
 32
0.0
 13
3.135682141878775
 23
8.429224372183233
 33
0.0
  0
SOLID
  5
117
330
2D
100
AcDbEntity
  8
0
  6
ByBlock
 62
     0
100
AcDbTrace
 10
7.510682141878781
 20
8.474224372183233
 30
0.0
 11
7.510682141878781
 21
8.384224372183233
 31
0.0
 12
7.780682141878782
 22
8.429224372183233
 32
0.0
 13
7.780682141878782
 23
8.429224372183233
 33
0.0
  0
TEXT
  5
118
330
2D
100
AcDbEntity
  8
0
  6
ByBlock
 62
     0
100
AcDbText
 10
4.782102218989305
 20
8.335474372183233
 30
0.0
 40
0.1875
  1
4.645
 41
0.75
  7
TXT
 72
     1
 11
5.063352218989305
 21
8.429224372183233
 31
0.0
100
AcDbText
 73
     2
  0
POINT
  5
119
330
2D
100
AcDbEntity
  8
DEFPOINTS
  6
ByBlock
 62
     0
100
AcDbPoint
 10
3.135682141878775
 20
8.815973345346959
 30
0.0
  0
POINT
  5
11A
330
2D
100
AcDbEntity
  8
DEFPOINTS
  6
ByBlock
 62
     0
100
AcDbPoint
 10
7.780682141878782
 20
8.815973345346959
 30
0.0
  0
POINT
  5
11B
330
2D
100
AcDbEntity
  8
DEFPOINTS
  6
ByBlock
 62
     0
100
AcDbPoint
 10
7.780682141878782
 20
8.429224372183233
 30
0.0
  0
ENDBLK
  5
11C
330
2D
100
AcDbEntity
  8
0
100
AcDbBlockEnd
  0
BLOCK
  5
11D
330
2E
100
AcDbEntity
  8
0
100
AcDbBlockBegin
  2
*D12
 70
     1
 10
0.0
 20
0.0
 30
0.0
  3
*D12
  1

  0
LINE
  5
11E
330
2E
100
AcDbEntity
  8
0
  6
ByBlock
 62
     0
100
AcDbLine
 10
2.798182141878773
 20
7.978979842419564
 30
0.0
 11
2.798182141878773
 21
8.036004415559006
 31
0.0
  0
LINE
  5
11F
330
2E
100
AcDbEntity
  8
0
  6
ByBlock
 62
     0
100
AcDbLine
 10
8.118182141878779
 20
7.978979842419478
 30
0.0
 11
8.118182141878779
 21
8.036004415559006
 31
0.0
  0
LINE
  5
120
330
2E
100
AcDbEntity
  8
0
  6
ByBlock
 62
     0
100
AcDbLine
 10
3.068182141878773
 20
7.896504415559006
 30
0.0
 11
5.053650891878776
 21
7.896504415559006
 31
0.0
  0
LINE
  5
121
330
2E
100
AcDbEntity
  8
0
  6
ByBlock
 62
     0
100
AcDbLine
 10
7.84818214187878
 20
7.896504415559006
 30
0.0
 11
5.862713391878775
 21
7.896504415559006
 31
0.0
  0
SOLID
  5
122
330
2E
100
AcDbEntity
  8
0
  6
ByBlock
 62
     0
100
AcDbTrace
 10
3.068182141878773
 20
7.941504415559005
 30
0.0
 11
3.068182141878773
 21
7.851504415559006
 31
0.0
 12
2.798182141878773
 22
7.896504415559006
 32
0.0
 13
2.798182141878773
 23
7.896504415559006
 33
0.0
  0
SOLID
  5
123
330
2E
100
AcDbEntity
  8
0
  6
ByBlock
 62
     0
100
AcDbTrace
 10
7.84818214187878
 20
7.941504415559005
 30
0.0
 11
7.84818214187878
 21
7.851504415559006
 31
0.0
 12
8.118182141878779
 22
7.896504415559006
 32
0.0
 13
8.118182141878779
 23
7.896504415559006
 33
0.0
  0
TEXT
  5
124
330
2E
100
AcDbEntity
  8
0
  6
ByBlock
 62
     0
100
AcDbText
 10
5.188650891878776
 20
7.802754415559006
 30
0.0
 40
0.1875
  1
5.320
 41
0.75
  7
TXT
 72
     1
 11
5.458182141878776
 21
7.896504415559006
 31
0.0
100
AcDbText
 73
     2
  0
POINT
  5
125
330
2E
100
AcDbEntity
  8
DEFPOINTS
  6
ByBlock
 62
     0
100
AcDbPoint
 10
2.798182141878773
 20
7.884479842419564
 30
0.0
  0
POINT
  5
126
330
2E
100
AcDbEntity
  8
DEFPOINTS
  6
ByBlock
 62
     0
100
AcDbPoint
 10
8.118182141878779
 20
7.884479842419478
 30
0.0
  0
POINT
  5
127
330
2E
100
AcDbEntity
  8
DEFPOINTS
  6
ByBlock
 62
     0
100
AcDbPoint
 10
8.118182141878779
 20
7.896504415559006
 30
0.0
  0
ENDBLK
  5
128
330
2E
100
AcDbEntity
  8
0
100
AcDbBlockEnd
  0
BLOCK
  5
129
330
2F
100
AcDbEntity
  8
0
100
AcDbBlockBegin
  2
*D13
 70
     1
 10
0.0
 20
0.0
 30
0.0
  3
*D13
  1

  0
LINE
  5
12A
330
2F
100
AcDbEntity
  8
0
  6
ByBlock
 62
     0
100
AcDbLine
 10
10.58328868938464
 20
10.98097334534696
 30
0.0
 11
10.02181754645318
 21
10.98097334534696
 31
0.0
  0
LINE
  5
12B
330
2F
100
AcDbEntity
  8
0
  6
ByBlock
 62
     0
100
AcDbLine
 10
10.58328868938464
 20
6.65097334534696
 30
0.0
 11
10.02181754645318
 21
6.65097334534696
 31
0.0
  0
LINE
  5
12C
330
2F
100
AcDbEntity
  8
0
  6
ByBlock
 62
     0
100
AcDbLine
 10
10.16131754645318
 20
10.71097334534696
 30
0.0
 11
10.16131754645318
 21
9.044723345346961
 31
0.0
  0
LINE
  5
12D
330
2F
100
AcDbEntity
  8
0
  6
ByBlock
 62
     0
100
AcDbLine
 10
10.16131754645318
 20
6.920973345346959
 30
0.0
 11
10.16131754645318
 21
8.587223345346961
 31
0.0
  0
SOLID
  5
12E
330
2F
100
AcDbEntity
  8
0
  6
ByBlock
 62
     0
100
AcDbTrace
 10
10.11631754645317
 20
10.71097334534696
 30
0.0
 11
10.20631754645318
 21
10.71097334534696
 31
0.0
 12
10.16131754645318
 22
10.98097334534696
 32
0.0
 13
10.16131754645318
 23
10.98097334534696
 33
0.0
  0
SOLID
  5
12F
330
2F
100
AcDbEntity
  8
0
  6
ByBlock
 62
     0
100
AcDbTrace
 10
10.11631754645317
 20
6.920973345346959
 30
0.0
 11
10.20631754645318
 21
6.920973345346959
 31
0.0
 12
10.16131754645318
 22
6.65097334534696
 32
0.0
 13
10.16131754645318
 23
6.65097334534696
 33
0.0
  0
TEXT
  5
130
330
2F
100
AcDbEntity
  8
0
  6
ByBlock
 62
     0
100
AcDbText
 10
9.891786296453179
 20
8.722223345346961
 30
0.0
 40
0.1875
  1
4.330
 41
0.75
  7
TXT
 72
     1
 11
10.16131754645318
 21
8.815973345346961
 31
0.0
100
AcDbText
 73
     2
  0
POINT
  5
131
330
2F
100
AcDbEntity
  8
DEFPOINTS
  6
ByBlock
 62
     0
100
AcDbPoint
 10
10.67778868938464
 20
10.98097334534696
 30
0.0
  0
POINT
  5
132
330
2F
100
AcDbEntity
  8
DEFPOINTS
  6
ByBlock
 62
     0
100
AcDbPoint
 10
10.67778868938464
 20
6.65097334534696
 30
0.0
  0
POINT
  5
133
330
2F
100
AcDbEntity
  8
DEFPOINTS
  6
ByBlock
 62
     0
100
AcDbPoint
 10
10.16131754645318
 20
6.65097334534696
 30
0.0
  0
ENDBLK
  5
134
330
2F
100
AcDbEntity
  8
0
100
AcDbBlockEnd
  0
BLOCK
  5
135
330
30
100
AcDbEntity
  8
0
100
AcDbBlockBegin
  2
*D14
 70
     1
 10
0.0
 20
0.0
 30
0.0
  3
*D14
  1

  0
LINE
  5
136
330
30
100
AcDbEntity
  8
0
  6
ByBlock
 62
     0
100
AcDbLine
 10
2.773677808426719
 20
2.903116763196104
 30
0.0
 11
1.818432448817328
 21
2.903116763196104
 31
0.0
  0
LINE
  5
137
330
30
100
AcDbEntity
  8
0
  6
ByBlock
 62
     0
100
AcDbLine
 10
2.77385235907601
 20
1.523116763196105
 30
0.0
 11
1.818432448817328
 21
1.523116763196105
 31
0.0
  0
LINE
  5
138
330
30
100
AcDbEntity
  8
0
  6
ByBlock
 62
     0
100
AcDbLine
 10
1.957932448817328
 20
2.633116763196104
 30
0.0
 11
1.957932448817328
 21
2.441866763196104
 31
0.0
  0
LINE
  5
139
330
30
100
AcDbEntity
  8
0
  6
ByBlock
 62
     0
100
AcDbLine
 10
1.957932448817328
 20
1.793116763196105
 30
0.0
 11
1.957932448817328
 21
1.984366763196104
 31
0.0
  0
SOLID
  5
13A
330
30
100
AcDbEntity
  8
0
  6
ByBlock
 62
     0
100
AcDbTrace
 10
1.912932448817328
 20
2.633116763196104
 30
0.0
 11
2.002932448817328
 21
2.633116763196104
 31
0.0
 12
1.957932448817328
 22
2.903116763196104
 32
0.0
 13
1.957932448817328
 23
2.903116763196104
 33
0.0
  0
SOLID
  5
13B
330
30
100
AcDbEntity
  8
0
  6
ByBlock
 62
     0
100
AcDbTrace
 10
1.912932448817328
 20
1.793116763196105
 30
0.0
 11
2.002932448817328
 21
1.793116763196105
 31
0.0
 12
1.957932448817328
 22
1.523116763196105
 32
0.0
 13
1.957932448817328
 23
1.523116763196105
 33
0.0
  0
TEXT
  5
13C
330
30
100
AcDbEntity
  8
0
  6
ByBlock
 62
     0
100
AcDbText
 10
1.711838698817328
 20
2.119366763196104
 30
0.0
 40
0.1875
  1
1.380
 41
0.75
  7
TXT
 72
     1
 11
1.957932448817328
 21
2.213116763196104
 31
0.0
100
AcDbText
 73
     2
  0
POINT
  5
13D
330
30
100
AcDbEntity
  8
DEFPOINTS
  6
ByBlock
 62
     0
100
AcDbPoint
 10
2.868177808426719
 20
2.903116763196104
 30
0.0
  0
POINT
  5
13E
330
30
100
AcDbEntity
  8
DEFPOINTS
  6
ByBlock
 62
     0
100
AcDbPoint
 10
2.86835235907601
 20
1.523116763196105
 30
0.0
  0
POINT
  5
13F
330
30
100
AcDbEntity
  8
DEFPOINTS
  6
ByBlock
 62
     0
100
AcDbPoint
 10
1.957932448817328
 20
1.523116763196105
 30
0.0
  0
ENDBLK
  5
140
330
30
100
AcDbEntity
  8
0
100
AcDbBlockEnd
  0
BLOCK
  5
141
330
31
100
AcDbEntity
  8
0
100
AcDbBlockBegin
  2
*D15
 70
     1
 10
0.0
 20
0.0
 30
0.0
  3
*D15
  1

  0
LINE
  5
142
330
31
100
AcDbEntity
  8
0
  6
ByBlock
 62
     0
100
AcDbLine
 10
4.897123661741361
 20
1.623116763196103
 30
0.0
 11
4.71839477709837
 21
1.623116763196103
 31
0.0
  0
LINE
  5
143
330
31
100
AcDbEntity
  8
0
  6
ByBlock
 62
     0
100
AcDbLine
 10
4.897123661741361
 20
2.803116763196113
 30
0.0
 11
4.71839477709837
 21
2.803116763196113
 31
0.0
  0
LINE
  5
144
330
31
100
AcDbEntity
  8
0
  6
ByBlock
 62
     0
100
AcDbLine
 10
4.85789477709837
 20
1.353116763196103
 30
0.0
 11
4.85789477709837
 21
1.083116763196103
 31
0.0
  0
LINE
  5
145
330
31
100
AcDbEntity
  8
0
  6
ByBlock
 62
     0
100
AcDbLine
 10
4.85789477709837
 20
3.073116763196113
 30
0.0
 11
4.85789477709837
 21
3.343116763196113
 31
0.0
  0
SOLID
  5
146
330
31
100
AcDbEntity
  8
0
  6
ByBlock
 62
     0
100
AcDbTrace
 10
4.81289477709837
 20
1.353116763196103
 30
0.0
 11
4.90289477709837
 21
1.353116763196103
 31
0.0
 12
4.85789477709837
 22
1.623116763196103
 32
0.0
 13
4.85789477709837
 23
1.623116763196103
 33
0.0
  0
SOLID
  5
147
330
31
100
AcDbEntity
  8
0
  6
ByBlock
 62
     0
100
AcDbTrace
 10
4.81289477709837
 20
3.073116763196113
 30
0.0
 11
4.90289477709837
 21
3.073116763196113
 31
0.0
 12
4.85789477709837
 22
2.803116763196113
 32
0.0
 13
4.85789477709837
 23
2.803116763196113
 33
0.0
  0
TEXT
  5
148
330
31
100
AcDbEntity
  8
0
  6
ByBlock
 62
     0
100
AcDbText
 10
4.63523852709837
 20
2.119366763196108
 30
0.0
 40
0.1875
  1
1.180
 41
0.75
  7
TXT
 72
     1
 11
4.85789477709837
 21
2.213116763196108
 31
0.0
100
AcDbText
 73
     2
  0
POINT
  5
149
330
31
100
AcDbEntity
  8
DEFPOINTS
  6
ByBlock
 62
     0
100
AcDbPoint
 10
4.991623661741361
 20
1.623116763196103
 30
0.0
  0
POINT
  5
14A
330
31
100
AcDbEntity
  8
DEFPOINTS
  6
ByBlock
 62
     0
100
AcDbPoint
 10
4.991623661741361
 20
2.803116763196113
 30
0.0
  0
POINT
  5
14B
330
31
100
AcDbEntity
  8
DEFPOINTS
  6
ByBlock
 62
     0
100
AcDbPoint
 10
4.85789477709837
 20
2.803116763196113
 30
0.0
  0
ENDBLK
  5
14C
330
31
100
AcDbEntity
  8
0
100
AcDbBlockEnd
  0
BLOCK
  5
14D
330
32
100
AcDbEntity
  8
0
100
AcDbBlockBegin
  2
*D16
 70
     1
 10
0.0
 20
0.0
 30
0.0
  3
*D16
  1

  0
LINE
  5
14E
330
32
100
AcDbEntity
  8
0
  6
ByBlock
 62
     0
100
AcDbLine
 10
7.718182141878771
 20
7.142973345346957
 30
0.0
 11
8.894063607822465
 21
7.142973345346957
 31
0.0
  0
LINE
  5
14F
330
32
100
AcDbEntity
  8
0
  6
ByBlock
 62
     0
100
AcDbLine
 10
8.012682141878777
 20
8.815973345346959
 30
0.0
 11
8.894063607822465
 21
8.815973345346959
 31
0.0
  0
LINE
  5
150
330
32
100
AcDbEntity
  8
0
  6
ByBlock
 62
     0
100
AcDbLine
 10
8.754563607822465
 20
7.412973345346957
 30
0.0
 11
8.754563607822465
 21
7.750723345346958
 31
0.0
  0
LINE
  5
151
330
32
100
AcDbEntity
  8
0
  6
ByBlock
 62
     0
100
AcDbLine
 10
8.754563607822465
 20
8.545973345346959
 30
0.0
 11
8.754563607822465
 21
8.208223345346958
 31
0.0
  0
SOLID
  5
152
330
32
100
AcDbEntity
  8
0
  6
ByBlock
 62
     0
100
AcDbTrace
 10
8.709563607822465
 20
7.412973345346957
 30
0.0
 11
8.799563607822465
 21
7.412973345346957
 31
0.0
 12
8.754563607822465
 22
7.142973345346957
 32
0.0
 13
8.754563607822465
 23
7.142973345346957
 33
0.0
  0
SOLID
  5
153
330
32
100
AcDbEntity
  8
0
  6
ByBlock
 62
     0
100
AcDbTrace
 10
8.709563607822465
 20
8.545973345346959
 30
0.0
 11
8.799563607822465
 21
8.545973345346959
 31
0.0
 12
8.754563607822465
 22
8.815973345346959
 32
0.0
 13
8.754563607822465
 23
8.815973345346959
 33
0.0
  0
TEXT
  5
154
330
32
100
AcDbEntity
  8
0
  6
ByBlock
 62
     0
100
AcDbText
 10
8.496751107822465
 20
7.885723345346958
 30
0.0
 40
0.1875
  1
1.673
 41
0.75
  7
TXT
 72
     1
 11
8.754563607822465
 21
7.979473345346958
 31
0.0
100
AcDbText
 73
     2
  0
POINT
  5
155
330
32
100
AcDbEntity
  8
DEFPOINTS
  6
ByBlock
 62
     0
100
AcDbPoint
 10
7.623682141878771
 20
7.142973345346957
 30
0.0
  0
POINT
  5
156
330
32
100
AcDbEntity
  8
DEFPOINTS
  6
ByBlock
 62
     0
100
AcDbPoint
 10
7.918182141878777
 20
8.815973345346959
 30
0.0
  0
POINT
  5
157
330
32
100
AcDbEntity
  8
DEFPOINTS
  6
ByBlock
 62
     0
100
AcDbPoint
 10
8.754563607822465
 20
8.815973345346959
 30
0.0
  0
ENDBLK
  5
158
330
32
100
AcDbEntity
  8
0
100
AcDbBlockEnd
  0
BLOCK
  5
159
330
33
100
AcDbEntity
  8
0
100
AcDbBlockBegin
  2
*D17
 70
     1
 10
0.0
 20
0.0
 30
0.0
  3
*D17
  1

  0
LINE
  5
15A
330
33
100
AcDbEntity
  8
0
  6
ByBlock
 62
     0
100
AcDbLine
 10
2.703182141878788
 20
11.07547334534696
 30
0.0
 11
2.703182141878788
 21
12.03812978926305
 31
0.0
  0
LINE
  5
15B
330
33
100
AcDbEntity
  8
0
  6
ByBlock
 62
     0
100
AcDbLine
 10
8.213182141878771
 20
11.07547334534696
 30
0.0
 11
8.213182141878771
 21
12.03812978926305
 31
0.0
  0
LINE
  5
15C
330
33
100
AcDbEntity
  8
0
  6
ByBlock
 62
     0
100
AcDbLine
 10
2.973182141878788
 20
11.89862978926305
 30
0.0
 11
5.077088391878779
 21
11.89862978926305
 31
0.0
  0
LINE
  5
15D
330
33
100
AcDbEntity
  8
0
  6
ByBlock
 62
     0
100
AcDbLine
 10
7.943182141878772
 20
11.89862978926305
 30
0.0
 11
5.839275891878779
 21
11.89862978926305
 31
0.0
  0
SOLID
  5
15E
330
33
100
AcDbEntity
  8
0
  6
ByBlock
 62
     0
100
AcDbTrace
 10
2.973182141878788
 20
11.94362978926305
 30
0.0
 11
2.973182141878788
 21
11.85362978926305
 31
0.0
 12
2.703182141878788
 22
11.89862978926305
 32
0.0
 13
2.703182141878788
 23
11.89862978926305
 33
0.0
  0
SOLID
  5
15F
330
33
100
AcDbEntity
  8
0
  6
ByBlock
 62
     0
100
AcDbTrace
 10
7.943182141878772
 20
11.94362978926305
 30
0.0
 11
7.943182141878772
 21
11.85362978926305
 31
0.0
 12
8.213182141878771
 22
11.89862978926305
 32
0.0
 13
8.213182141878771
 23
11.89862978926305
 33
0.0
  0
TEXT
  5
160
330
33
100
AcDbEntity
  8
0
  6
ByBlock
 62
     0
100
AcDbText
 10
5.212088391878779
 20
11.80487978926305
 30
0.0
 40
0.1875
  1
5.510
 41
0.75
  7
TXT
 72
     1
 11
5.458182141878779
 21
11.89862978926305
 31
0.0
100
AcDbText
 73
     2
  0
POINT
  5
161
330
33
100
AcDbEntity
  8
DEFPOINTS
  6
ByBlock
 62
     0
100
AcDbPoint
 10
2.703182141878788
 20
10.98097334534696
 30
0.0
  0
POINT
  5
162
330
33
100
AcDbEntity
  8
DEFPOINTS
  6
ByBlock
 62
     0
100
AcDbPoint
 10
8.213182141878771
 20
10.98097334534696
 30
0.0
  0
POINT
  5
163
330
33
100
AcDbEntity
  8
DEFPOINTS
  6
ByBlock
 62
     0
100
AcDbPoint
 10
8.213182141878771
 20
11.89862978926305
 30
0.0
  0
ENDBLK
  5
164
330
33
100
AcDbEntity
  8
0
100
AcDbBlockEnd
  0
BLOCK
  5
165
330
34
100
AcDbEntity
  8
0
100
AcDbBlockBegin
  2
*D18
 70
     1
 10
0.0
 20
0.0
 30
0.0
  3
*D18
  1

  0
LINE
  5
166
330
34
100
AcDbEntity
  8
0
  6
ByBlock
 62
     0
100
AcDbLine
 10
4.375682141878781
 20
7.048473345346961
 30
0.0
 11
4.375682141878781
 21
5.646549289195341
 31
0.0
  0
LINE
  5
167
330
34
100
AcDbEntity
  8
0
  6
ByBlock
 62
     0
100
AcDbLine
 10
3.292682141878782
 20
7.048473345346961
 30
0.0
 11
3.292682141878782
 21
5.646549289195341
 31
0.0
  0
LINE
  5
168
330
34
100
AcDbEntity
  8
0
  6
ByBlock
 62
     0
100
AcDbLine
 10
4.645682141878781
 20
5.786049289195341
 30
0.0
 11
4.915682141878781
 21
5.786049289195341
 31
0.0
  0
LINE
  5
169
330
34
100
AcDbEntity
  8
0
  6
ByBlock
 62
     0
100
AcDbLine
 10
3.022682141878782
 20
5.786049289195341
 30
0.0
 11
2.752682141878782
 21
5.786049289195341
 31
0.0
  0
SOLID
  5
16A
330
34
100
AcDbEntity
  8
0
  6
ByBlock
 62
     0
100
AcDbTrace
 10
4.645682141878781
 20
5.831049289195341
 30
0.0
 11
4.645682141878781
 21
5.741049289195341
 31
0.0
 12
4.375682141878781
 22
5.786049289195341
 32
0.0
 13
4.375682141878781
 23
5.786049289195341
 33
0.0
  0
SOLID
  5
16B
330
34
100
AcDbEntity
  8
0
  6
ByBlock
 62
     0
100
AcDbTrace
 10
3.022682141878782
 20
5.831049289195341
 30
0.0
 11
3.022682141878782
 21
5.741049289195341
 31
0.0
 12
3.292682141878782
 22
5.786049289195341
 32
0.0
 13
3.292682141878782
 23
5.786049289195341
 33
0.0
  0
TEXT
  5
16C
330
34
100
AcDbEntity
  8
0
  6
ByBlock
 62
     0
100
AcDbText
 10
3.588088391878781
 20
5.692299289195341
 30
0.0
 40
0.1875
  1
1.083
 41
0.75
  7
TXT
 72
     1
 11
3.834182141878781
 21
5.786049289195341
 31
0.0
100
AcDbText
 73
     2
  0
POINT
  5
16D
330
34
100
AcDbEntity
  8
DEFPOINTS
  6
ByBlock
 62
     0
100
AcDbPoint
 10
4.375682141878781
 20
7.142973345346961
 30
0.0
  0
POINT
  5
16E
330
34
100
AcDbEntity
  8
DEFPOINTS
  6
ByBlock
 62
     0
100
AcDbPoint
 10
3.292682141878782
 20
7.142973345346961
 30
0.0
  0
POINT
  5
16F
330
34
100
AcDbEntity
  8
DEFPOINTS
  6
ByBlock
 62
     0
100
AcDbPoint
 10
3.292682141878782
 20
5.786049289195341
 30
0.0
  0
ENDBLK
  5
170
330
34
100
AcDbEntity
  8
0
100
AcDbBlockEnd
  0
BLOCK
  5
171
330
35
100
AcDbEntity
  8
0
100
AcDbBlockBegin
  2
*D19
 70
     1
 10
0.0
 20
0.0
 30
0.0
  3
*D19
  1

  0
LINE
  5
172
330
35
100
AcDbEntity
  8
0
  6
ByBlock
 62
     0
100
AcDbLine
 10
6.54068214187878
 20
7.048473345346961
 30
0.0
 11
6.54068214187878
 21
5.646549289195341
 31
0.0
  0
LINE
  5
173
330
35
100
AcDbEntity
  8
0
  6
ByBlock
 62
     0
100
AcDbLine
 10
4.375682141878781
 20
7.048473345346961
 30
0.0
 11
4.375682141878781
 21
5.646549289195341
 31
0.0
  0
LINE
  5
174
330
35
100
AcDbEntity
  8
0
  6
ByBlock
 62
     0
100
AcDbLine
 10
6.270682141878779
 20
5.786049289195341
 30
0.0
 11
5.85099464187878
 21
5.786049289195341
 31
0.0
  0
LINE
  5
175
330
35
100
AcDbEntity
  8
0
  6
ByBlock
 62
     0
100
AcDbLine
 10
4.645682141878781
 20
5.786049289195341
 30
0.0
 11
5.06536964187878
 21
5.786049289195341
 31
0.0
  0
SOLID
  5
176
330
35
100
AcDbEntity
  8
0
  6
ByBlock
 62
     0
100
AcDbTrace
 10
6.270682141878779
 20
5.831049289195341
 30
0.0
 11
6.270682141878779
 21
5.741049289195341
 31
0.0
 12
6.54068214187878
 22
5.786049289195341
 32
0.0
 13
6.54068214187878
 23
5.786049289195341
 33
0.0
  0
SOLID
  5
177
330
35
100
AcDbEntity
  8
0
  6
ByBlock
 62
     0
100
AcDbTrace
 10
4.645682141878781
 20
5.831049289195341
 30
0.0
 11
4.645682141878781
 21
5.741049289195341
 31
0.0
 12
4.375682141878781
 22
5.786049289195341
 32
0.0
 13
4.375682141878781
 23
5.786049289195341
 33
0.0
  0
TEXT
  5
178
330
35
100
AcDbEntity
  8
0
  6
ByBlock
 62
     0
100
AcDbText
 10
5.20036964187878
 20
5.692299289195341
 30
0.0
 40
0.1875
  1
2.165
 41
0.75
  7
TXT
 72
     1
 11
5.45818214187878
 21
5.786049289195341
 31
0.0
100
AcDbText
 73
     2
  0
POINT
  5
179
330
35
100
AcDbEntity
  8
DEFPOINTS
  6
ByBlock
 62
     0
100
AcDbPoint
 10
6.54068214187878
 20
7.142973345346961
 30
0.0
  0
POINT
  5
17A
330
35
100
AcDbEntity
  8
DEFPOINTS
  6
ByBlock
 62
     0
100
AcDbPoint
 10
4.375682141878781
 20
7.142973345346961
 30
0.0
  0
POINT
  5
17B
330
35
100
AcDbEntity
  8
DEFPOINTS
  6
ByBlock
 62
     0
100
AcDbPoint
 10
4.375682141878781
 20
5.786049289195341
 30
0.0
  0
ENDBLK
  5
17C
330
35
100
AcDbEntity
  8
0
100
AcDbBlockEnd
  0
BLOCK
  5
17D
330
36
100
AcDbEntity
  8
0
100
AcDbBlockBegin
  2
*D20
 70
     1
 10
0.0
 20
0.0
 30
0.0
  3
*D20
  1

  0
LINE
  5
17E
330
36
100
AcDbEntity
  8
0
  6
ByBlock
 62
     0
100
AcDbLine
 10
7.623682141878771
 20
7.048473345346961
 30
0.0
 11
7.623682141878771
 21
5.646549289195341
 31
0.0
  0
LINE
  5
17F
330
36
100
AcDbEntity
  8
0
  6
ByBlock
 62
     0
100
AcDbLine
 10
6.54068214187878
 20
7.048473345346961
 30
0.0
 11
6.54068214187878
 21
5.646549289195341
 31
0.0
  0
LINE
  5
180
330
36
100
AcDbEntity
  8
0
  6
ByBlock
 62
     0
100
AcDbLine
 10
7.893682141878771
 20
5.786049289195341
 30
0.0
 11
8.163682141878771
 21
5.786049289195341
 31
0.0
  0
LINE
  5
181
330
36
100
AcDbEntity
  8
0
  6
ByBlock
 62
     0
100
AcDbLine
 10
6.270682141878779
 20
5.786049289195341
 30
0.0
 11
6.00068214187878
 21
5.786049289195341
 31
0.0
  0
SOLID
  5
182
330
36
100
AcDbEntity
  8
0
  6
ByBlock
 62
     0
100
AcDbTrace
 10
7.893682141878771
 20
5.831049289195341
 30
0.0
 11
7.893682141878771
 21
5.741049289195341
 31
0.0
 12
7.623682141878771
 22
5.786049289195341
 32
0.0
 13
7.623682141878771
 23
5.786049289195341
 33
0.0
  0
SOLID
  5
183
330
36
100
AcDbEntity
  8
0
  6
ByBlock
 62
     0
100
AcDbTrace
 10
6.270682141878779
 20
5.831049289195341
 30
0.0
 11
6.270682141878779
 21
5.741049289195341
 31
0.0
 12
6.54068214187878
 22
5.786049289195341
 32
0.0
 13
6.54068214187878
 23
5.786049289195341
 33
0.0
  0
TEXT
  5
184
330
36
100
AcDbEntity
  8
0
  6
ByBlock
 62
     0
100
AcDbText
 10
6.836088391878775
 20
5.692299289195341
 30
0.0
 40
0.1875
  1
1.083
 41
0.75
  7
TXT
 72
     1
 11
7.082182141878775
 21
5.786049289195341
 31
0.0
100
AcDbText
 73
     2
  0
POINT
  5
185
330
36
100
AcDbEntity
  8
DEFPOINTS
  6
ByBlock
 62
     0
100
AcDbPoint
 10
7.623682141878771
 20
7.142973345346961
 30
0.0
  0
POINT
  5
186
330
36
100
AcDbEntity
  8
DEFPOINTS
  6
ByBlock
 62
     0
100
AcDbPoint
 10
6.54068214187878
 20
7.142973345346961
 30
0.0
  0
POINT
  5
187
330
36
100
AcDbEntity
  8
DEFPOINTS
  6
ByBlock
 62
     0
100
AcDbPoint
 10
6.54068214187878
 20
5.786049289195341
 30
0.0
  0
ENDBLK
  5
188
330
36
100
AcDbEntity
  8
0
100
AcDbBlockEnd
  0
BLOCK
  5
189
330
37
100
AcDbEntity
  8
0
100
AcDbBlockBegin
  2
*D21
 70
     1
 10
0.0
 20
0.0
 30
0.0
  3
*D21
  1

  0
LINE
  5
18A
330
37
100
AcDbEntity
  8
0
  6
ByBlock
 62
     0
100
AcDbLine
 10
8.012682141878777
 20
8.815973345346959
 30
0.0
 11
8.894063607822465
 21
8.815973345346959
 31
0.0
  0
LINE
  5
18B
330
37
100
AcDbEntity
  8
0
  6
ByBlock
 62
     0
100
AcDbLine
 10
7.718182141878771
 20
10.48897334534696
 30
0.0
 11
8.894063607822465
 21
10.48897334534696
 31
0.0
  0
LINE
  5
18C
330
37
100
AcDbEntity
  8
0
  6
ByBlock
 62
     0
100
AcDbLine
 10
8.754563607822465
 20
9.085973345346959
 30
0.0
 11
8.754563607822465
 21
9.42372334534696
 31
0.0
  0
LINE
  5
18D
330
37
100
AcDbEntity
  8
0
  6
ByBlock
 62
     0
100
AcDbLine
 10
8.754563607822465
 20
10.21897334534696
 30
0.0
 11
8.754563607822465
 21
9.88122334534696
 31
0.0
  0
SOLID
  5
18E
330
37
100
AcDbEntity
  8
0
  6
ByBlock
 62
     0
100
AcDbTrace
 10
8.709563607822465
 20
9.085973345346959
 30
0.0
 11
8.799563607822465
 21
9.085973345346959
 31
0.0
 12
8.754563607822465
 22
8.815973345346959
 32
0.0
 13
8.754563607822465
 23
8.815973345346959
 33
0.0
  0
SOLID
  5
18F
330
37
100
AcDbEntity
  8
0
  6
ByBlock
 62
     0
100
AcDbTrace
 10
8.709563607822465
 20
10.21897334534696
 30
0.0
 11
8.799563607822465
 21
10.21897334534696
 31
0.0
 12
8.754563607822465
 22
10.48897334534696
 32
0.0
 13
8.754563607822465
 23
10.48897334534696
 33
0.0
  0
TEXT
  5
190
330
37
100
AcDbEntity
  8
0
  6
ByBlock
 62
     0
100
AcDbText
 10
8.496751107822465
 20
9.55872334534696
 30
0.0
 40
0.1875
  1
1.673
 41
0.75
  7
TXT
 72
     1
 11
8.754563607822465
 21
9.65247334534696
 31
0.0
100
AcDbText
 73
     2
  0
POINT
  5
191
330
37
100
AcDbEntity
  8
DEFPOINTS
  6
ByBlock
 62
     0
100
AcDbPoint
 10
7.918182141878777
 20
8.815973345346959
 30
0.0
  0
POINT
  5
192
330
37
100
AcDbEntity
  8
DEFPOINTS
  6
ByBlock
 62
     0
100
AcDbPoint
 10
7.623682141878771
 20
10.48897334534696
 30
0.0
  0
POINT
  5
193
330
37
100
AcDbEntity
  8
DEFPOINTS
  6
ByBlock
 62
     0
100
AcDbPoint
 10
8.754563607822465
 20
10.48897334534696
 30
0.0
  0
ENDBLK
  5
194
330
37
100
AcDbEntity
  8
0
100
AcDbBlockEnd
  0
BLOCK
  5
195
330
38
100
AcDbEntity
  8
0
100
AcDbBlockBegin
  2
*D22
 70
     1
 10
0.0
 20
0.0
 30
0.0
  3
*D22
  1

  0
LINE
  5
196
330
38
100
AcDbEntity
  8
0
  6
ByBlock
 62
     0
100
AcDbLine
 10
2.903682141878776
 20
8.815973345346959
 30
0.0
 11
1.356614639040355
 21
8.815973345346959
 31
0.0
  0
LINE
  5
197
330
38
100
AcDbEntity
  8
0
  6
ByBlock
 62
     0
100
AcDbLine
 10
2.421389540515492
 20
7.635973345346959
 30
0.0
 11
1.356614639040355
 21
7.635973345346959
 31
0.0
  0
LINE
  5
198
330
38
100
AcDbEntity
  8
0
  6
ByBlock
 62
     0
100
AcDbLine
 10
1.496114639040355
 20
9.085973345346959
 30
0.0
 11
1.496114639040355
 21
9.35597334534696
 31
0.0
  0
LINE
  5
199
330
38
100
AcDbEntity
  8
0
  6
ByBlock
 62
     0
100
AcDbLine
 10
1.496114639040355
 20
7.36597334534696
 30
0.0
 11
1.496114639040355
 21
7.095973345346959
 31
0.0
  0
SOLID
  5
19A
330
38
100
AcDbEntity
  8
0
  6
ByBlock
 62
     0
100
AcDbTrace
 10
1.451114639040355
 20
9.085973345346959
 30
0.0
 11
1.541114639040354
 21
9.085973345346959
 31
0.0
 12
1.496114639040355
 22
8.815973345346959
 32
0.0
 13
1.496114639040355
 23
8.815973345346959
 33
0.0
  0
SOLID
  5
19B
330
38
100
AcDbEntity
  8
0
  6
ByBlock
 62
     0
100
AcDbTrace
 10
1.451114639040355
 20
7.36597334534696
 30
0.0
 11
1.541114639040354
 21
7.36597334534696
 31
0.0
 12
1.496114639040355
 22
7.635973345346959
 32
0.0
 13
1.496114639040355
 23
7.635973345346959
 33
0.0
  0
TEXT
  5
19C
330
38
100
AcDbEntity
  8
0
  6
ByBlock
 62
     0
100
AcDbText
 10
1.273458389040355
 20
8.132223345346959
 30
0.0
 40
0.1875
  1
1.180
 41
0.75
  7
TXT
 72
     1
 11
1.496114639040355
 21
8.225973345346959
 31
0.0
100
AcDbText
 73
     2
  0
POINT
  5
19D
330
38
100
AcDbEntity
  8
DEFPOINTS
  6
ByBlock
 62
     0
100
AcDbPoint
 10
2.998182141878776
 20
8.815973345346959
 30
0.0
  0
POINT
  5
19E
330
38
100
AcDbEntity
  8
DEFPOINTS
  6
ByBlock
 62
     0
100
AcDbPoint
 10
2.515889540515492
 20
7.635973345346959
 30
0.0
  0
POINT
  5
19F
330
38
100
AcDbEntity
  8
DEFPOINTS
  6
ByBlock
 62
     0
100
AcDbPoint
 10
1.496114639040355
 20
7.635973345346959
 30
0.0
  0
ENDBLK
  5
1A0
330
38
100
AcDbEntity
  8
0
100
AcDbBlockEnd
  0
BLOCK
  5
1A1
330
39
100
AcDbEntity
  8
0
100
AcDbBlockBegin
  2
*D23
 70
     1
 10
0.0
 20
0.0
 30
0.0
  3
*D23
  1

  0
LINE
  5
1A2
330
39
100
AcDbEntity
  8
0
  6
ByBlock
 62
     0
100
AcDbLine
 10
2.608682141878788
 20
10.98097334534696
 30
0.0
 11
1.356614639040355
 21
10.98097334534696
 31
0.0
  0
LINE
  5
1A3
330
39
100
AcDbEntity
  8
0
  6
ByBlock
 62
     0
100
AcDbLine
 10
2.903682141878776
 20
8.815973345346959
 30
0.0
 11
1.356614639040355
 21
8.815973345346959
 31
0.0
  0
LINE
  5
1A4
330
39
100
AcDbEntity
  8
0
  6
ByBlock
 62
     0
100
AcDbLine
 10
1.496114639040355
 20
10.71097334534696
 30
0.0
 11
1.496114639040355
 21
10.12722334534696
 31
0.0
  0
LINE
  5
1A5
330
39
100
AcDbEntity
  8
0
  6
ByBlock
 62
     0
100
AcDbLine
 10
1.496114639040355
 20
9.085973345346959
 30
0.0
 11
1.496114639040355
 21
9.669723345346961
 31
0.0
  0
SOLID
  5
1A6
330
39
100
AcDbEntity
  8
0
  6
ByBlock
 62
     0
100
AcDbTrace
 10
1.451114639040355
 20
10.71097334534696
 30
0.0
 11
1.541114639040354
 21
10.71097334534696
 31
0.0
 12
1.496114639040355
 22
10.98097334534696
 32
0.0
 13
1.496114639040355
 23
10.98097334534696
 33
0.0
  0
SOLID
  5
1A7
330
39
100
AcDbEntity
  8
0
  6
ByBlock
 62
     0
100
AcDbTrace
 10
1.451114639040355
 20
9.085973345346959
 30
0.0
 11
1.541114639040354
 21
9.085973345346959
 31
0.0
 12
1.496114639040355
 22
8.815973345346959
 32
0.0
 13
1.496114639040355
 23
8.815973345346959
 33
0.0
  0
TEXT
  5
1A8
330
39
100
AcDbEntity
  8
0
  6
ByBlock
 62
     0
100
AcDbText
 10
1.238302139040355
 20
9.80472334534696
 30
0.0
 40
0.1875
  1
2.165
 41
0.75
  7
TXT
 72
     1
 11
1.496114639040355
 21
9.89847334534696
 31
0.0
100
AcDbText
 73
     2
  0
POINT
  5
1A9
330
39
100
AcDbEntity
  8
DEFPOINTS
  6
ByBlock
 62
     0
100
AcDbPoint
 10
2.703182141878788
 20
10.98097334534696
 30
0.0
  0
POINT
  5
1AA
330
39
100
AcDbEntity
  8
DEFPOINTS
  6
ByBlock
 62
     0
100
AcDbPoint
 10
2.998182141878776
 20
8.815973345346959
 30
0.0
  0
POINT
  5
1AB
330
39
100
AcDbEntity
  8
DEFPOINTS
  6
ByBlock
 62
     0
100
AcDbPoint
 10
1.496114639040355
 20
8.815973345346959
 30
0.0
  0
ENDBLK
  5
1AC
330
39
100
AcDbEntity
  8
0
100
AcDbBlockEnd
  0
BLOCK
  5
1AD
330
3A
100
AcDbEntity
  8
0
100
AcDbBlockBegin
  2
*D24
 70
     1
 10
0.0
 20
0.0
 30
0.0
  3
*D24
  1

  0
LINE
  5
1AE
330
3A
100
AcDbEntity
  8
0
  6
ByBlock
 62
     0
100
AcDbLine
 10
2.421389540515492
 20
9.995973345346959
 30
0.0
 11
1.967161896651925
 21
9.995973345346959
 31
0.0
  0
LINE
  5
1AF
330
3A
100
AcDbEntity
  8
0
  6
ByBlock
 62
     0
100
AcDbLine
 10
2.903682141878776
 20
8.815973345346959
 30
0.0
 11
1.967161896651925
 21
8.815973345346959
 31
0.0
  0
LINE
  5
1B0
330
3A
100
AcDbEntity
  8
0
  6
ByBlock
 62
     0
100
AcDbLine
 10
2.106661896651925
 20
10.26597334534695
 30
0.0
 11
2.106661896651925
 21
10.53597334534696
 31
0.0
  0
LINE
  5
1B1
330
3A
100
AcDbEntity
  8
0
  6
ByBlock
 62
     0
100
AcDbLine
 10
2.106661896651925
 20
8.545973345346959
 30
0.0
 11
2.106661896651925
 21
8.275973345346958
 31
0.0
  0
SOLID
  5
1B2
330
3A
100
AcDbEntity
  8
0
  6
ByBlock
 62
     0
100
AcDbTrace
 10
2.061661896651925
 20
10.26597334534695
 30
0.0
 11
2.151661896651924
 21
10.26597334534695
 31
0.0
 12
2.106661896651925
 22
9.995973345346959
 32
0.0
 13
2.106661896651925
 23
9.995973345346959
 33
0.0
  0
SOLID
  5
1B3
330
3A
100
AcDbEntity
  8
0
  6
ByBlock
 62
     0
100
AcDbTrace
 10
2.061661896651925
 20
8.545973345346959
 30
0.0
 11
2.151661896651924
 21
8.545973345346959
 31
0.0
 12
2.106661896651925
 22
8.815973345346959
 32
0.0
 13
2.106661896651925
 23
8.815973345346959
 33
0.0
  0
TEXT
  5
1B4
330
3A
100
AcDbEntity
  8
0
  6
ByBlock
 62
     0
100
AcDbText
 10
1.884005646651925
 20
9.312223345346959
 30
0.0
 40
0.1875
  1
1.180
 41
0.75
  7
TXT
 72
     1
 11
2.106661896651925
 21
9.405973345346959
 31
0.0
100
AcDbText
 73
     2
  0
POINT
  5
1B5
330
3A
100
AcDbEntity
  8
DEFPOINTS
  6
ByBlock
 62
     0
100
AcDbPoint
 10
2.515889540515492
 20
9.995973345346959
 30
0.0
  0
POINT
  5
1B6
330
3A
100
AcDbEntity
  8
DEFPOINTS
  6
ByBlock
 62
     0
100
AcDbPoint
 10
2.998182141878776
 20
8.815973345346959
 30
0.0
  0
POINT
  5
1B7
330
3A
100
AcDbEntity
  8
DEFPOINTS
  6
ByBlock
 62
     0
100
AcDbPoint
 10
2.106661896651925
 20
8.815973345346959
 30
0.0
  0
ENDBLK
  5
1B8
330
3A
100
AcDbEntity
  8
0
100
AcDbBlockEnd
  0
BLOCK
  5
1B9
330
3B
100
AcDbEntity
  8
0
100
AcDbBlockBegin
  2
*D25
 70
     1
 10
0.0
 20
0.0
 30
0.0
  3
*D25
  1

  0
LINE
  5
1BA
330
3B
100
AcDbEntity
  8
0
  6
ByBlock
 62
     0
100
AcDbLine
 10
15.30654141894119
 20
1.662116763196104
 30
0.0
 11
16.89252555785927
 21
1.662116763196104
 31
0.0
  0
LINE
  5
1BB
330
3B
100
AcDbEntity
  8
0
  6
ByBlock
 62
     0
100
AcDbLine
 10
15.30654141894119
 20
2.764116763196104
 30
0.0
 11
16.89252555785927
 21
2.764116763196104
 31
0.0
  0
LINE
  5
1BC
330
3B
100
AcDbEntity
  8
0
  6
ByBlock
 62
     0
100
AcDbLine
 10
16.75302555785927
 20
1.392116763196104
 30
0.0
 11
16.75302555785927
 21
1.122116763196104
 31
0.0
  0
LINE
  5
1BD
330
3B
100
AcDbEntity
  8
0
  6
ByBlock
 62
     0
100
AcDbLine
 10
16.75302555785927
 20
3.034116763196105
 30
0.0
 11
16.75302555785927
 21
3.304116763196105
 31
0.0
  0
SOLID
  5
1BE
330
3B
100
AcDbEntity
  8
0
  6
ByBlock
 62
     0
100
AcDbTrace
 10
16.70802555785927
 20
1.392116763196104
 30
0.0
 11
16.79802555785927
 21
1.392116763196104
 31
0.0
 12
16.75302555785927
 22
1.662116763196104
 32
0.0
 13
16.75302555785927
 23
1.662116763196104
 33
0.0
  0
SOLID
  5
1BF
330
3B
100
AcDbEntity
  8
0
  6
ByBlock
 62
     0
100
AcDbTrace
 10
16.70802555785927
 20
3.034116763196105
 30
0.0
 11
16.79802555785927
 21
3.034116763196105
 31
0.0
 12
16.75302555785927
 22
2.764116763196104
 32
0.0
 13
16.75302555785927
 23
2.764116763196104
 33
0.0
  0
TEXT
  5
1C0
330
3B
100
AcDbEntity
  8
0
  6
ByBlock
 62
     0
100
AcDbText
 10
15.96786930785927
 20
2.119366763196104
 30
0.0
 40
0.1875
  1
 EXPOSED PANEL
 41
0.75
  7
TXT
 72
     1
 11
16.99911930785927
 21
2.213116763196104
 31
0.0
100
AcDbText
 73
     2
  0
TEXT
  5
1C1
330
3B
100
AcDbEntity
  8
0
  6
ByBlock
 62
     0
100
AcDbText
 10
15.54599430785927
 20
2.119366763196104
 30
0.0
 40
0.1875
  1
1.102
 41
0.75
  7
TXT
 72
     1
 11
15.76865055785927
 21
2.213116763196104
 31
0.0
100
AcDbText
 73
     2
  0
POINT
  5
1C2
330
3B
100
AcDbEntity
  8
DEFPOINTS
  6
ByBlock
 62
     0
100
AcDbPoint
 10
15.21204141894119
 20
1.662116763196104
 30
0.0
  0
POINT
  5
1C3
330
3B
100
AcDbEntity
  8
DEFPOINTS
  6
ByBlock
 62
     0
100
AcDbPoint
 10
15.21204141894119
 20
2.764116763196104
 30
0.0
  0
POINT
  5
1C4
330
3B
100
AcDbEntity
  8
DEFPOINTS
  6
ByBlock
 62
     0
100
AcDbPoint
 10
16.75302555785927
 20
2.764116763196104
 30
0.0
  0
ENDBLK
  5
1C5
330
3B
100
AcDbEntity
  8
0
100
AcDbBlockEnd
  0
BLOCK
  5
1C6
330
3C
100
AcDbEntity
  8
0
100
AcDbBlockBegin
  2
*D26
 70
     1
 10
0.0
 20
0.0
 30
0.0
  3
*D26
  1

  0
LINE
  5
1C7
330
3C
100
AcDbEntity
  8
0
  6
ByBlock
 62
     0
100
AcDbLine
 10
9.094497320838977
 20
4.120227637371304
 30
0.0
 11
8.559857622471605
 21
4.120227637371304
 31
0.0
  0
LINE
  5
1C8
330
3C
100
AcDbEntity
  8
0
  6
ByBlock
 62
     0
100
AcDbLine
 10
9.094497320838977
 20
2.920227637371304
 30
0.0
 11
8.559857622471605
 21
2.920227637371304
 31
0.0
  0
LINE
  5
1C9
330
3C
100
AcDbEntity
  8
0
  6
ByBlock
 62
     0
100
AcDbLine
 10
8.699357622471605
 20
4.390227637371303
 30
0.0
 11
8.699357622471605
 21
4.660227637371304
 31
0.0
  0
LINE
  5
1CA
330
3C
100
AcDbEntity
  8
0
  6
ByBlock
 62
     0
100
AcDbLine
 10
8.699357622471605
 20
2.650227637371304
 30
0.0
 11
8.699357622471605
 21
2.380227637371304
 31
0.0
  0
SOLID
  5
1CB
330
3C
100
AcDbEntity
  8
0
  6
ByBlock
 62
     0
100
AcDbTrace
 10
8.654357622471605
 20
4.390227637371303
 30
0.0
 11
8.744357622471605
 21
4.390227637371303
 31
0.0
 12
8.699357622471605
 22
4.120227637371304
 32
0.0
 13
8.699357622471605
 23
4.120227637371304
 33
0.0
  0
SOLID
  5
1CC
330
3C
100
AcDbEntity
  8
0
  6
ByBlock
 62
     0
100
AcDbTrace
 10
8.654357622471605
 20
2.650227637371304
 30
0.0
 11
8.744357622471605
 21
2.650227637371304
 31
0.0
 12
8.699357622471605
 22
2.920227637371304
 32
0.0
 13
8.699357622471605
 23
2.920227637371304
 33
0.0
  0
TEXT
  5
1CD
330
3C
100
AcDbEntity
  8
0
  6
ByBlock
 62
     0
100
AcDbText
 10
8.464982622471605
 20
3.426477637371304
 30
0.0
 40
0.1875
  1
1.200
 41
0.75
  7
TXT
 72
     1
 11
8.699357622471605
 21
3.520227637371304
 31
0.0
100
AcDbText
 73
     2
  0
POINT
  5
1CE
330
3C
100
AcDbEntity
  8
DEFPOINTS
  6
ByBlock
 62
     0
100
AcDbPoint
 10
9.188997320838977
 20
4.120227637371304
 30
0.0
  0
POINT
  5
1CF
330
3C
100
AcDbEntity
  8
DEFPOINTS
  6
ByBlock
 62
     0
100
AcDbPoint
 10
9.188997320838977
 20
2.920227637371304
 30
0.0
  0
POINT
  5
1D0
330
3C
100
AcDbEntity
  8
DEFPOINTS
  6
ByBlock
 62
     0
100
AcDbPoint
 10
8.699357622471605
 20
2.920227637371304
 30
0.0
  0
ENDBLK
  5
1D1
330
3C
100
AcDbEntity
  8
0
100
AcDbBlockEnd
  0
BLOCK
  5
1D2
330
3D
100
AcDbEntity
  8
0
100
AcDbBlockBegin
  2
*D27
 70
     1
 10
0.0
 20
0.0
 30
0.0
  3
*D27
  1

  0
LINE
  5
1D3
330
3D
100
AcDbEntity
  8
0
  6
ByBlock
 62
     0
100
AcDbLine
 10
3.094541523808932
 20
11.8979569957547
 30
0.0
 11
4.324130573526961
 21
11.8979569957547
 31
0.0
  0
LINE
  5
1D4
330
3D
100
AcDbEntity
  8
0
  6
ByBlock
 62
     0
100
AcDbLine
 10
3.094541523808932
 20
11.8279569957547
 30
0.0
 11
4.324130573526961
 21
11.8279569957547
 31
0.0
  0
LINE
  5
1D5
330
3D
100
AcDbEntity
  8
0
  6
ByBlock
 62
     0
100
AcDbLine
 10
4.184630573526961
 20
12.1679569957547
 30
0.0
 11
4.184630573526961
 21
12.4379569957547
 31
0.0
  0
LINE
  5
1D6
330
3D
100
AcDbEntity
  8
0
  6
ByBlock
 62
     0
100
AcDbLine
 10
4.184630573526961
 20
11.5579569957547
 30
0.0
 11
4.184630573526961
 21
11.2879569957547
 31
0.0
  0
LINE
  5
1D7
330
3D
100
AcDbEntity
  8
0
  6
ByBlock
 62
     0
100
AcDbLine
 10
4.184630573526961
 20
11.2879569957547
 30
0.0
 11
3.914630573526961
 21
11.2879569957547
 31
0.0
  0
SOLID
  5
1D8
330
3D
100
AcDbEntity
  8
0
  6
ByBlock
 62
     0
100
AcDbTrace
 10
4.139630573526961
 20
12.1679569957547
 30
0.0
 11
4.229630573526961
 21
12.1679569957547
 31
0.0
 12
4.184630573526961
 22
11.8979569957547
 32
0.0
 13
4.184630573526961
 23
11.8979569957547
 33
0.0
  0
SOLID
  5
1D9
330
3D
100
AcDbEntity
  8
0
  6
ByBlock
 62
     0
100
AcDbTrace
 10
4.139630573526961
 20
11.5579569957547
 30
0.0
 11
4.229630573526961
 21
11.5579569957547
 31
0.0
 12
4.184630573526961
 22
11.8279569957547
 32
0.0
 13
4.184630573526961
 23
11.8279569957547
 33
0.0
  0
TEXT
  5
1DA
330
3D
100
AcDbEntity
  8
0
  6
ByBlock
 62
     0
100
AcDbText
 10
3.287443073526961
 20
11.1942069957547
 30
0.0
 40
0.1875
  1
0.070
 41
0.75
  7
TXT
 72
     1
 11
3.533536823526961
 21
11.2879569957547
 31
0.0
100
AcDbText
 73
     2
  0
POINT
  5
1DB
330
3D
100
AcDbEntity
  8
DEFPOINTS
  6
ByBlock
 62
     0
100
AcDbPoint
 10
3.000041523808932
 20
11.8979569957547
 30
0.0
  0
POINT
  5
1DC
330
3D
100
AcDbEntity
  8
DEFPOINTS
  6
ByBlock
 62
     0
100
AcDbPoint
 10
3.000041523808932
 20
11.8279569957547
 30
0.0
  0
POINT
  5
1DD
330
3D
100
AcDbEntity
  8
DEFPOINTS
  6
ByBlock
 62
     0
100
AcDbPoint
 10
4.184630573526961
 20
11.8279569957547
 30
0.0
  0
ENDBLK
  5
1DE
330
3D
100
AcDbEntity
  8
0
100
AcDbBlockEnd
  0
BLOCK
  5
1DF
330
3E
100
AcDbEntity
  8
0
100
AcDbBlockBegin
  2
*D28
 70
     1
 10
0.0
 20
0.0
 30
0.0
  3
*D28
  1

  0
LINE
  5
1E0
330
3E
100
AcDbEntity
  8
0
  6
ByBlock
 62
     0
100
AcDbLine
 10
4.319041523808938
 20
4.953211287779049
 30
0.0
 11
4.056106727742671
 21
4.953211287779049
 31
0.0
  0
LINE
  5
1E1
330
3E
100
AcDbEntity
  8
0
  6
ByBlock
 62
     0
100
AcDbLine
 10
4.114493308149719
 20
4.79721128777905
 30
0.0
 11
4.056106727742671
 21
4.79721128777905
 31
0.0
  0
LINE
  5
1E2
330
3E
100
AcDbEntity
  8
0
  6
ByBlock
 62
     0
100
AcDbLine
 10
4.195606727742671
 20
5.223211287779049
 30
0.0
 11
4.195606727742671
 21
5.493211287779049
 31
0.0
  0
LINE
  5
1E3
330
3E
100
AcDbEntity
  8
0
  6
ByBlock
 62
     0
100
AcDbLine
 10
4.195606727742671
 20
4.527211287779049
 30
0.0
 11
4.195606727742671
 21
4.25721128777905
 31
0.0
  0
LINE
  5
1E4
330
3E
100
AcDbEntity
  8
0
  6
ByBlock
 62
     0
100
AcDbLine
 10
4.195606727742671
 20
4.25721128777905
 30
0.0
 11
3.925606727742671
 21
4.25721128777905
 31
0.0
  0
SOLID
  5
1E5
330
3E
100
AcDbEntity
  8
0
  6
ByBlock
 62
     0
100
AcDbTrace
 10
4.150606727742671
 20
5.223211287779049
 30
0.0
 11
4.240606727742671
 21
5.223211287779049
 31
0.0
 12
4.195606727742671
 22
4.953211287779049
 32
0.0
 13
4.195606727742671
 23
4.953211287779049
 33
0.0
  0
SOLID
  5
1E6
330
3E
100
AcDbEntity
  8
0
  6
ByBlock
 62
     0
100
AcDbTrace
 10
4.150606727742671
 20
4.527211287779049
 30
0.0
 11
4.240606727742671
 21
4.527211287779049
 31
0.0
 12
4.195606727742671
 22
4.79721128777905
 32
0.0
 13
4.195606727742671
 23
4.79721128777905
 33
0.0
  0
TEXT
  5
1E7
330
3E
100
AcDbEntity
  8
0
  6
ByBlock
 62
     0
100
AcDbText
 10
3.29841922774267
 20
4.16346128777905
 30
0.0
 40
0.1875
  1
0.156
 41
0.75
  7
TXT
 72
     1
 11
3.54451297774267
 21
4.25721128777905
 31
0.0
100
AcDbText
 73
     2
  0
POINT
  5
1E8
330
3E
100
AcDbEntity
  8
DEFPOINTS
  6
ByBlock
 62
     0
100
AcDbPoint
 10
4.413541523808938
 20
4.953211287779049
 30
0.0
  0
POINT
  5
1E9
330
3E
100
AcDbEntity
  8
DEFPOINTS
  6
ByBlock
 62
     0
100
AcDbPoint
 10
4.208993308149719
 20
4.79721128777905
 30
0.0
  0
POINT
  5
1EA
330
3E
100
AcDbEntity
  8
DEFPOINTS
  6
ByBlock
 62
     0
100
AcDbPoint
 10
4.195606727742671
 20
4.79721128777905
 30
0.0
  0
ENDBLK
  5
1EB
330
3E
100
AcDbEntity
  8
0
100
AcDbBlockEnd
  0
ENDSEC
  0
SECTION
  2
ENTITIES
  0
TEXT
  5
1EC
330
1E
100
AcDbEntity
  8
TEXT
100
AcDbText
 10
17.32928709344717
 20
13.03789680516022
 30
0.0
 40
0.1875
  1
DARK GRAY PLASTIC COVERS WITH
 41
0.75
  7
TXT
100
AcDbText
  0
LWPOLYLINE
  5
1ED
330
1E
100
AcDbEntity
  8
DIM
100
AcDbPolyline
 90
        4
 70
     0
 10
6.777520635161738
 20
8.948436596534936
 40
0.0
 41
0.10125
 10
7.009309843833613
 20
8.809967239840879
 40
0.0
 41
0.0
 10
8.275574197662489
 20
8.053509199865812
 40
0.0
 41
0.0
 10
8.545574197662489
 20
8.053509199865812
 40
0.0
 41
0.0
  0
TEXT
  5
1F3
330
1E
100
AcDbEntity
  8
DIM
100
AcDbText
 10
8.680574197662494
 20
7.959759199865811
 30
0.0
 40
0.1875
  1
0.218 DIA. BOSS WITH 0.090 DIA.
 41
0.75
  7
TXT
 11
8.680574197662494
 21
8.053509199865811
 31
0.0
100
AcDbText
 73
     2
  0
TEXT
  5
1F4
330
1E
100
AcDbEntity
  8
DIM
100
AcDbText
 10
8.680574197662494
 20
7.669353736169138
 30
0.0
 40
0.1875
  1
HOLE x 0.218 DEEP - (8) PLACES
 41
0.75
  7
TXT
 11
8.680574197662494
 21
7.763103736169138
 31
0.0
100
AcDbText
 73
     2
  0
TEXT
  5
1F5
330
1E
100
AcDbEntity
  8
DIM
100
AcDbText
 10
8.680574197662494
 20
7.362997521023833
 30
0.0
 40
0.1875
  1
MOUNTING BOSSES USE EITHER M2.5 METRIC
 41
0.75
  7
TXT
 11
8.680574197662494
 21
7.456747521023833
 31
0.0
100
AcDbText
 73
     2
  0
LINE
  5
1F6
330
1E
100
AcDbEntity
  8
OBJECT
100
AcDbLine
 10
3.015211741006161
 20
4.356491522536926
 30
0.0
 11
8.195045857260971
 21
4.356491522536926
 31
0.0
  0
LINE
  5
1F7
330
1E
100
AcDbEntity
  8
OBJECT
100
AcDbLine
 10
8.35102209770536
 20
4.509768947132712
 30
0.0
 11
8.360041523808924
 21
5.026491522536928
 31
0.0
  0
LINE
  5
1F8
330
1E
100
AcDbEntity
  8
OBJECT
100
AcDbLine
 10
8.194871306611688
 20
5.736491522536925
 30
0.0
 11
3.01503719035687
 21
5.736491522536925
 31
0.0
  0
LINE
  5
1F9
330
1E
100
AcDbEntity
  8
OBJECT
100
AcDbLine
 10
12.21194025562355
 20
12.84795699575471
 30
0.0
 11
12.21194025562355
 21
8.517956995754705
 31
0.0
  0
LINE
  5
1FA
330
1E
100
AcDbEntity
  8
OBJECT
100
AcDbLine
 10
13.59194025562355
 20
8.517956995754698
 30
0.0
 11
13.59194025562355
 21
12.8479569957547
 31
0.0
  0
LINE
  5
1FB
330
1E
100
AcDbEntity
  8
OBJECT
100
AcDbLine
 10
12.21194025562355
 20
8.517956995754705
 30
0.0
 11
13.59194025562355
 21
8.517956995754698
 31
0.0
  0
LINE
  5
1FC
330
1E
100
AcDbEntity
  8
OBJECT
100
AcDbLine
 10
12.21194025562357
 20
12.84795699575471
 30
0.0
 11
13.59194025562357
 21
12.8479569957547
 31
0.0
  0
LINE
  5
1FD
330
1E
100
AcDbEntity
  8
OBJECT
100
AcDbLine
 10
2.945041523808924
 20
4.456491522536928
 30
0.0
 11
6.008810633046066
 21
4.456491522536924
 31
0.0
  0
LINE
  5
1FE
330
1E
100
AcDbEntity
  8
HIDDEN
100
AcDbLine
 10
8.265041523808925
 20
5.636491522536927
 30
0.0
 11
6.174054212646814
 21
5.636491522536938
 31
0.0
  0
LINE
  5
1FF
330
1E
100
AcDbEntity
  8
HIDDEN
100
AcDbLine
 10
13.49194025562354
 20
8.647956995754714
 30
0.0
 11
13.49194025562354
 21
12.67795699575471
 31
0.0
  0
LINE
  5
200
330
1E
100
AcDbEntity
  8
OBJECT
100
AcDbLine
 10
2.905041523808924
 20
5.121491522536923
 30
0.0
 11
2.945041523808916
 21
5.121491522536927
 31
0.0
  0
LINE
  5
201
330
1E
100
AcDbEntity
  8
OBJECT
100
AcDbLine
 10
2.945041523808916
 20
5.121491522536927
 30
0.0
 11
2.945041523808924
 21
4.456491522536928
 31
0.0
  0
LINE
  5
202
330
1E
100
AcDbEntity
  8
OBJECT
100
AcDbLine
 10
8.265041523808925
 20
5.026491522536928
 30
0.0
 11
8.26504152380891
 21
4.509491522536928
 31
0.0
  0
LINE
  5
203
330
1E
100
AcDbEntity
  8
OBJECT
100
AcDbLine
 10
2.850041523808918
 20
5.066491522536924
 30
0.0
 11
2.905041523808917
 21
5.066491522536923
 31
0.0
  0
LINE
  5
204
330
1E
100
AcDbEntity
  8
OBJECT
100
AcDbLine
 10
8.215041523808892
 20
5.02649152253693
 30
0.0
 11
8.360041523808924
 21
5.026491522536928
 31
0.0
  0
LINE
  5
205
330
1E
100
AcDbEntity
  8
OBJECT
100
AcDbLine
 10
2.850041523808925
 20
5.036491522536922
 30
0.0
 11
2.859235500561765
 21
4.509768947132712
 31
0.0
  0
LINE
  5
206
330
1E
100
AcDbEntity
  8
OBJECT
100
AcDbLine
 10
2.865041523808925
 20
5.066491522536924
 30
0.0
 11
2.865041523808918
 21
5.036491522536923
 31
0.0
  0
LINE
  5
207
330
1E
100
AcDbEntity
  8
OBJECT
100
AcDbLine
 10
2.850041523808925
 20
5.036491522536922
 30
0.0
 11
2.865041523808918
 21
5.036491522536923
 31
0.0
  0
LINE
  5
208
330
1E
100
AcDbEntity
  8
OBJECT
100
AcDbLine
 10
8.360041523808924
 20
5.056491522536929
 30
0.0
 11
8.350847547056083
 21
5.583214097941143
 31
0.0
  0
LINE
  5
209
330
1E
100
AcDbEntity
  8
OBJECT
100
AcDbLine
 10
8.265041523808925
 20
5.026491522536929
 30
0.0
 11
8.265041523808925
 21
5.583491522536927
 31
0.0
  0
LINE
  5
20A
330
1E
100
AcDbEntity
  8
OBJECT
100
AcDbLine
 10
8.360041523808924
 20
5.056491522536929
 30
0.0
 11
8.265041523808925
 21
5.056491522536926
 31
0.0
  0
LINE
  5
20B
330
1E
100
AcDbEntity
  8
OBJECT
100
AcDbLine
 10
8.345041523808923
 20
5.026491522536928
 30
0.0
 11
8.345041523808923
 21
5.056491522536929
 31
0.0
  0
LINE
  5
20C
330
1E
100
AcDbEntity
  8
OBJECT
100
AcDbLine
 10
2.859060949912474
 20
5.58321409794114
 30
0.0
 11
2.850041523808918
 21
5.066491522536924
 31
0.0
  0
LINE
  5
20D
330
1E
100
AcDbEntity
  8
OBJECT
100
AcDbLine
 10
2.945041523808924
 20
5.131491522536928
 30
0.0
 11
2.905041523808917
 21
5.131491522536928
 31
0.0
  0
LINE
  5
20E
330
1E
100
AcDbEntity
  8
OBJECT
100
AcDbLine
 10
2.905041523808917
 20
5.131491522536928
 30
0.0
 11
2.905041523808917
 21
5.066491522536923
 31
0.0
  0
LINE
  5
20F
330
1E
100
AcDbEntity
  8
OBJECT
100
AcDbLine
 10
2.945041523808924
 20
5.131491522536928
 30
0.0
 11
2.945041523808931
 21
5.636491522536927
 31
0.0
  0
ARC
  5
210
330
1E
100
AcDbEntity
  8
OBJECT
100
AcDbCircle
 10
8.194871306611688
 20
5.580491522536926
 30
0.0
 40
0.156
100
AcDbArc
 50
1.000000000000026
 51
90.0
  0
ARC
  5
211
330
1E
100
AcDbEntity
  8
OBJECT
100
AcDbCircle
 10
8.195045857260971
 20
4.512491522536929
 30
0.0
 40
0.156
100
AcDbArc
 50
270.0
 51
359.0
  0
ARC
  5
212
330
1E
100
AcDbEntity
  8
OBJECT
100
AcDbCircle
 10
3.01503719035687
 20
5.580491522536926
 30
0.0
 40
0.156
100
AcDbArc
 50
90.0
 51
179.0000000000003
  0
ARC
  5
213
330
1E
100
AcDbEntity
  8
OBJECT
100
AcDbCircle
 10
3.015211741006161
 20
4.512491522536929
 30
0.0
 40
0.156
100
AcDbArc
 50
181.0
 51
270.0
  0
LINE
  5
214
330
1E
100
AcDbEntity
  8
OBJECT
100
AcDbLine
 10
6.014156269568942
 20
4.431491522536926
 30
0.0
 11
8.187041523808922
 21
4.431491522536926
 31
0.0
  0
LINE
  5
215
330
1E
100
AcDbEntity
  8
OBJECT
100
AcDbLine
 10
8.187041523808922
 20
5.661491522536926
 30
0.0
 11
6.097167536298903
 21
5.661491522536944
 31
0.0
  0
ARC
  5
216
330
1E
100
AcDbEntity
  8
OBJECT
100
AcDbCircle
 10
8.187041523808922
 20
5.583491522536927
 30
0.0
 40
0.078
100
AcDbArc
 50
0.0
 51
90.0
  0
ARC
  5
217
330
1E
100
AcDbEntity
  8
OBJECT
100
AcDbCircle
 10
8.187041523808922
 20
4.509491522536928
 30
0.0
 40
0.078
100
AcDbArc
 50
270.0
 51
359.9999999999996
  0
LINE
  5
218
330
1E
100
AcDbEntity
  8
OBJECT
100
AcDbLine
 10
6.003635184565104
 20
4.488491522536928
 30
0.0
 11
8.215041523808885
 21
4.488491522536924
 31
0.0
  0
LINE
  5
219
330
1E
100
AcDbEntity
  8
OBJECT
100
AcDbLine
 10
8.215041523808885
 20
5.604491522536927
 30
0.0
 11
6.135247304651492
 21
5.604491522536934
 31
0.0
  0
LINE
  5
21A
330
1E
100
AcDbEntity
  8
OBJECT
100
AcDbLine
 10
8.215041523808892
 20
5.026491522536928
 30
0.0
 11
8.215041523808885
 21
4.488491522536924
 31
0.0
  0
LINE
  5
21B
330
1E
100
AcDbEntity
  8
OBJECT
100
AcDbLine
 10
8.215041523808885
 20
5.026491522536928
 30
0.0
 11
8.215041523808885
 21
5.604491522536927
 31
0.0
  0
LINE
  5
21C
330
1E
100
AcDbEntity
  8
HIDDEN
100
AcDbLine
 10
13.49194025562354
 20
9.537956995754708
 30
0.0
 11
12.92194025562355
 21
9.537956995754708
 31
0.0
  0
LINE
  5
21D
330
1E
100
AcDbEntity
  8
HIDDEN
100
AcDbLine
 10
13.49194025562354
 20
9.57795699575475
 30
0.0
 11
12.92194025562355
 21
9.577956995754671
 31
0.0
  0
LINE
  5
21E
330
1E
100
AcDbEntity
  8
HIDDEN
100
AcDbLine
 10
13.49194025562354
 20
9.427956995754708
 30
0.0
 11
12.92194025562355
 21
9.427956995754708
 31
0.0
  0
LINE
  5
21F
330
1E
100
AcDbEntity
  8
HIDDEN
100
AcDbLine
 10
13.49194025562354
 20
9.467956995754708
 30
0.0
 11
12.92194025562355
 21
9.4679569957547
 31
0.0
  0
LINE
  5
220
330
1E
100
AcDbEntity
  8
HIDDEN
100
AcDbLine
 10
13.45994025562355
 20
8.647956995754707
 30
0.0
 11
13.45994025562355
 21
8.687956995754699
 31
0.0
  0
LINE
  5
221
330
1E
100
AcDbEntity
  8
OBJECT
100
AcDbLine
 10
12.92194025562355
 20
8.517956995754698
 30
0.0
 11
12.92194025562355
 21
12.8479569957547
 31
0.0
  0
LINE
  5
222
330
1E
100
AcDbEntity
  8
OBJECT
100
AcDbLine
 10
12.89194025562355
 20
8.517956995754705
 30
0.0
 11
12.89194025562355
 21
12.8479569957547
 31
0.0
  0
LINE
  5
223
330
1E
100
AcDbEntity
  8
HIDDEN
100
AcDbLine
 10
12.92194025562355
 20
8.647956995754707
 30
0.0
 11
13.50194025562355
 21
8.647956995754714
 31
0.0
  0
LINE
  5
224
330
1E
100
AcDbEntity
  8
HIDDEN
100
AcDbLine
 10
12.92194025562355
 20
8.687956995754642
 30
0.0
 11
13.49194025562354
 21
8.687956995754706
 31
0.0
  0
LINE
  5
225
330
1E
100
AcDbEntity
  8
HIDDEN
100
AcDbLine
 10
12.92194025562355
 20
8.577956995754714
 30
0.0
 11
13.50194025562355
 21
8.577956995754707
 31
0.0
  0
LINE
  5
226
330
1E
100
AcDbEntity
  8
HIDDEN
100
AcDbLine
 10
13.51694025562355
 20
8.517956995754698
 30
0.0
 11
13.45994025562355
 21
8.577956995754707
 31
0.0
  0
LINE
  5
227
330
1E
100
AcDbEntity
  8
HIDDEN
100
AcDbLine
 10
12.98694025562355
 20
8.687956995754657
 30
0.0
 11
12.98694025562355
 21
12.67795699575477
 31
0.0
  0
LINE
  5
228
330
1E
100
AcDbEntity
  8
HIDDEN
100
AcDbLine
 10
12.92194025562355
 20
12.78795699575471
 30
0.0
 11
13.50194025562355
 21
12.78795699575471
 31
0.0
  0
LINE
  5
229
330
1E
100
AcDbEntity
  8
HIDDEN
100
AcDbLine
 10
13.49194025562354
 20
11.93795699575471
 30
0.0
 11
12.92194025562355
 21
11.93795699575471
 31
0.0
  0
LINE
  5
22A
330
1E
100
AcDbEntity
  8
HIDDEN
100
AcDbLine
 10
13.49194025562354
 20
11.89795699575471
 30
0.0
 11
12.92194025562355
 21
11.89795699575471
 31
0.0
  0
LINE
  5
22B
330
1E
100
AcDbEntity
  8
HIDDEN
100
AcDbLine
 10
13.49194025562354
 20
11.82795699575471
 30
0.0
 11
12.92194025562355
 21
11.82795699575471
 31
0.0
  0
LINE
  5
22C
330
1E
100
AcDbEntity
  8
HIDDEN
100
AcDbLine
 10
13.49194025562354
 20
11.78795699575466
 30
0.0
 11
12.92194025562355
 21
11.78795699575474
 31
0.0
  0
LINE
  5
22D
330
1E
100
AcDbEntity
  8
HIDDEN
100
AcDbLine
 10
12.92194025562355
 20
12.71795699575471
 30
0.0
 11
13.50194025562355
 21
12.71795699575471
 31
0.0
  0
LINE
  5
22E
330
1E
100
AcDbEntity
  8
HIDDEN
100
AcDbLine
 10
12.92194025562355
 20
12.67795699575477
 30
0.0
 11
13.49194025562354
 21
12.67795699575471
 31
0.0
  0
LINE
  5
22F
330
1E
100
AcDbEntity
  8
HIDDEN
100
AcDbLine
 10
13.51694025562355
 20
12.84795699575472
 30
0.0
 11
13.45994025562355
 21
12.78795699575471
 31
0.0
  0
LINE
  5
230
330
1E
100
AcDbEntity
  8
HIDDEN
100
AcDbLine
 10
13.45994025562355
 20
12.71795699575471
 30
0.0
 11
13.45994025562355
 21
12.67795699575472
 31
0.0
  0
LINE
  5
231
330
1E
100
AcDbEntity
  8
HIDDEN
100
AcDbLine
 10
12.28694025562354
 20
8.517956995754705
 30
0.0
 11
12.34394025562355
 21
8.577956995754714
 31
0.0
  0
LINE
  5
232
330
1E
100
AcDbEntity
  8
HIDDEN
100
AcDbLine
 10
12.34394025562355
 20
8.647956995754714
 30
0.0
 11
12.34394025562355
 21
8.687956995754706
 31
0.0
  0
LINE
  5
233
330
1E
100
AcDbEntity
  8
HIDDEN
100
AcDbLine
 10
12.88194025562354
 20
10.5454569957547
 30
0.0
 11
12.31194025562355
 21
10.5454569957547
 31
0.0
  0
LINE
  5
234
330
1E
100
AcDbEntity
  8
HIDDEN
100
AcDbLine
 10
12.88194025562354
 20
10.8204569957547
 30
0.0
 11
12.31194025562355
 21
10.8204569957547
 31
0.0
  0
LINE
  5
235
330
1E
100
AcDbEntity
  8
HIDDEN
100
AcDbLine
 10
12.31194025562355
 20
11.78795699575467
 30
0.0
 11
12.88194025562354
 21
11.78795699575475
 31
0.0
  0
LINE
  5
236
330
1E
100
AcDbEntity
  8
HIDDEN
100
AcDbLine
 10
12.31194025562355
 20
11.82795699575471
 30
0.0
 11
12.88194025562354
 21
11.82795699575471
 31
0.0
  0
LINE
  5
237
330
1E
100
AcDbEntity
  8
HIDDEN
100
AcDbLine
 10
12.31194025562355
 20
11.89795699575471
 30
0.0
 11
12.88194025562354
 21
11.89795699575472
 31
0.0
  0
LINE
  5
238
330
1E
100
AcDbEntity
  8
HIDDEN
100
AcDbLine
 10
12.31194025562355
 20
11.93795699575471
 30
0.0
 11
12.88194025562354
 21
11.93795699575471
 31
0.0
  0
LINE
  5
239
330
1E
100
AcDbEntity
  8
HIDDEN
100
AcDbLine
 10
12.88194025562354
 20
11.93795699575471
 30
0.0
 11
12.88194025562354
 21
11.89795699575472
 31
0.0
  0
LINE
  5
23A
330
1E
100
AcDbEntity
  8
HIDDEN
100
AcDbLine
 10
12.88194025562354
 20
11.82795699575471
 30
0.0
 11
12.88194025562354
 21
11.78795699575475
 31
0.0
  0
LINE
  5
23B
330
1E
100
AcDbEntity
  8
HIDDEN
100
AcDbLine
 10
12.28694025562354
 20
12.84795699575473
 30
0.0
 11
12.34394025562355
 21
12.78795699575472
 31
0.0
  0
LINE
  5
23C
330
1E
100
AcDbEntity
  8
HIDDEN
100
AcDbLine
 10
12.34394025562355
 20
12.71795699575472
 30
0.0
 11
12.34394025562355
 21
12.67795699575473
 31
0.0
  0
LINE
  5
23D
330
1E
100
AcDbEntity
  8
HIDDEN
100
AcDbLine
 10
12.92194025562354
 20
12.78795699575471
 30
0.0
 11
12.30194025562354
 21
12.78795699575472
 31
0.0
  0
LINE
  5
23E
330
1E
100
AcDbEntity
  8
HIDDEN
100
AcDbLine
 10
12.88194025562354
 20
12.67795699575478
 30
0.0
 11
12.31194025562355
 21
12.67795699575472
 31
0.0
  0
LINE
  5
23F
330
1E
100
AcDbEntity
  8
HIDDEN
100
AcDbLine
 10
12.88194025562354
 20
12.71795699575472
 30
0.0
 11
12.30194025562354
 21
12.71795699575471
 31
0.0
  0
LINE
  5
240
330
1E
100
AcDbEntity
  8
HIDDEN
100
AcDbLine
 10
12.88194025562354
 20
12.71795699575472
 30
0.0
 11
12.88194025562354
 21
12.67795699575478
 31
0.0
  0
LINE
  5
241
330
1E
100
AcDbEntity
  8
HIDDEN
100
AcDbLine
 10
12.31194025562355
 20
8.647956995754714
 30
0.0
 11
12.31194025562355
 21
12.71795699575471
 31
0.0
  0
LINE
  5
242
330
1E
100
AcDbEntity
  8
HIDDEN
100
AcDbLine
 10
12.31194025562355
 20
9.467956995754715
 30
0.0
 11
12.88194025562354
 21
9.467956995754708
 31
0.0
  0
LINE
  5
243
330
1E
100
AcDbEntity
  8
HIDDEN
100
AcDbLine
 10
12.31194025562355
 20
9.427956995754716
 30
0.0
 11
12.88194025562354
 21
9.427956995754716
 31
0.0
  0
LINE
  5
244
330
1E
100
AcDbEntity
  8
HIDDEN
100
AcDbLine
 10
12.31194025562355
 20
9.577956995754757
 30
0.0
 11
12.88194025562354
 21
9.577956995754679
 31
0.0
  0
LINE
  5
245
330
1E
100
AcDbEntity
  8
HIDDEN
100
AcDbLine
 10
12.31194025562355
 20
9.537956995754715
 30
0.0
 11
12.88194025562354
 21
9.537956995754715
 31
0.0
  0
LINE
  5
246
330
1E
100
AcDbEntity
  8
HIDDEN
100
AcDbLine
 10
12.88194025562354
 20
9.577956995754679
 30
0.0
 11
12.88194025562354
 21
9.537956995754715
 31
0.0
  0
LINE
  5
247
330
1E
100
AcDbEntity
  8
HIDDEN
100
AcDbLine
 10
12.88194025562354
 20
9.467956995754708
 30
0.0
 11
12.88194025562354
 21
9.427956995754716
 31
0.0
  0
LINE
  5
248
330
1E
100
AcDbEntity
  8
HIDDEN
100
AcDbLine
 10
12.92194025562354
 20
8.577956995754721
 30
0.0
 11
12.30194025562354
 21
8.577956995754721
 31
0.0
  0
LINE
  5
249
330
1E
100
AcDbEntity
  8
HIDDEN
100
AcDbLine
 10
12.88194025562354
 20
8.68795699575465
 30
0.0
 11
12.31194025562355
 21
8.687956995754714
 31
0.0
  0
LINE
  5
24A
330
1E
100
AcDbEntity
  8
HIDDEN
100
AcDbLine
 10
12.88194025562354
 20
8.647956995754714
 30
0.0
 11
12.30194025562354
 21
8.647956995754714
 31
0.0
  0
LINE
  5
24B
330
1E
100
AcDbEntity
  8
HIDDEN
100
AcDbLine
 10
12.88194025562354
 20
8.68795699575465
 30
0.0
 11
12.88194025562354
 21
8.647956995754714
 31
0.0
  0
LINE
  5
24C
330
1E
100
AcDbEntity
  8
HIDDEN
  6
HIDDEN2
100
AcDbLine
 10
13.33594025562354
 20
9.11895699575469
 30
0.0
 11
13.49194025562354
 21
9.11895699575469
 31
0.0
  0
LINE
  5
24D
330
1E
100
AcDbEntity
  8
HIDDEN
  6
HIDDEN2
100
AcDbLine
 10
13.36344025562354
 20
9.054956995754697
 30
0.0
 11
13.55394025562354
 21
9.054956995754697
 31
0.0
  0
LINE
  5
24E
330
1E
100
AcDbEntity
  8
HIDDEN
  6
HIDDEN2
100
AcDbLine
 10
13.33594025562355
 20
9.0824569957547
 30
0.0
 11
13.36344025562354
 21
9.054956995754697
 31
0.0
  0
LINE
  5
24F
330
1E
100
AcDbEntity
  8
HIDDEN
  6
HIDDEN2
100
AcDbLine
 10
13.33594025562355
 20
8.9009569957547
 30
0.0
 11
13.49194025562354
 21
8.9009569957547
 31
0.0
  0
LINE
  5
250
330
1E
100
AcDbEntity
  8
HIDDEN
  6
HIDDEN2
100
AcDbLine
 10
13.36344025562354
 20
8.964956995754693
 30
0.0
 11
13.55394025562354
 21
8.964956995754693
 31
0.0
  0
LINE
  5
251
330
1E
100
AcDbEntity
  8
HIDDEN
  6
HIDDEN2
100
AcDbLine
 10
13.33594025562355
 20
8.93745699575469
 30
0.0
 11
13.36344025562354
 21
8.964956995754693
 31
0.0
  0
LINE
  5
252
330
1E
100
AcDbEntity
  8
HIDDEN
  6
HIDDEN2
100
AcDbLine
 10
13.33594025562355
 20
8.9009569957547
 30
0.0
 11
13.33594025562354
 21
9.11895699575469
 31
0.0
  0
LINE
  5
253
330
1E
100
AcDbEntity
  8
HIDDEN
  6
HIDDEN2
100
AcDbLine
 10
13.55394025562354
 20
8.964956995754693
 30
0.0
 11
13.55394025562354
 21
9.054956995754697
 31
0.0
  0
LINE
  5
254
330
1E
100
AcDbEntity
  8
HIDDEN
  6
HIDDEN2
100
AcDbLine
 10
13.36344025562354
 20
8.964956995754693
 30
0.0
 11
13.36344025562354
 21
9.054956995754697
 31
0.0
  0
LINE
  5
255
330
1E
100
AcDbEntity
  8
HIDDEN
100
AcDbLine
 10
12.88194025562354
 20
10.6179569957547
 30
0.0
 11
13.50508744087838
 21
10.61795699575469
 31
0.0
  0
LINE
  5
256
330
1E
100
AcDbEntity
  8
HIDDEN
100
AcDbLine
 10
12.88194025562354
 20
10.74795699575469
 30
0.0
 11
13.50508744087837
 21
10.74795699575469
 31
0.0
  0
LINE
  5
257
330
1E
100
AcDbEntity
  8
HIDDEN
100
AcDbLine
 10
12.88194025562354
 20
10.54545699575469
 30
0.0
 11
13.49194025562354
 21
10.54545699575469
 31
0.0
  0
LINE
  5
258
330
1E
100
AcDbEntity
  8
HIDDEN
100
AcDbLine
 10
12.88194025562354
 20
10.8204569957547
 30
0.0
 11
13.49194025562354
 21
10.8204569957547
 31
0.0
  0
LINE
  5
259
330
1E
100
AcDbEntity
  8
HIDDEN
  6
HIDDEN2
100
AcDbLine
 10
13.59194025562355
 20
10.82345699575468
 30
0.0
 11
13.50508744087837
 21
10.74795699575469
 31
0.0
  0
LINE
  5
25A
330
1E
100
AcDbEntity
  8
HIDDEN
  6
HIDDEN2
100
AcDbLine
 10
13.59194025562355
 20
10.5424569957547
 30
0.0
 11
13.50508744087838
 21
10.61795699575469
 31
0.0
  0
LINE
  5
25B
330
1E
100
AcDbEntity
  8
HIDDEN
  6
HIDDEN2
100
AcDbLine
 10
13.50508744087838
 20
10.61795699575469
 30
0.0
 11
13.50508744087837
 21
10.74795699575469
 31
0.0
  0
LINE
  5
25C
330
1E
100
AcDbEntity
  8
HIDDEN
  6
HIDDEN2
100
AcDbLine
 10
13.33594025562354
 20
12.4649569957547
 30
0.0
 11
13.49194025562354
 21
12.4649569957547
 31
0.0
  0
LINE
  5
25D
330
1E
100
AcDbEntity
  8
HIDDEN
  6
HIDDEN2
100
AcDbLine
 10
13.36344025562354
 20
12.4009569957547
 30
0.0
 11
13.55394025562354
 21
12.4009569957547
 31
0.0
  0
LINE
  5
25E
330
1E
100
AcDbEntity
  8
HIDDEN
  6
HIDDEN2
100
AcDbLine
 10
13.33594025562355
 20
12.4284569957547
 30
0.0
 11
13.36344025562354
 21
12.4009569957547
 31
0.0
  0
LINE
  5
25F
330
1E
100
AcDbEntity
  8
HIDDEN
  6
HIDDEN2
100
AcDbLine
 10
13.33594025562355
 20
12.2469569957547
 30
0.0
 11
13.49194025562354
 21
12.2469569957547
 31
0.0
  0
LINE
  5
260
330
1E
100
AcDbEntity
  8
HIDDEN
  6
HIDDEN2
100
AcDbLine
 10
13.36344025562354
 20
12.3109569957547
 30
0.0
 11
13.55394025562354
 21
12.3109569957547
 31
0.0
  0
LINE
  5
261
330
1E
100
AcDbEntity
  8
HIDDEN
  6
HIDDEN2
100
AcDbLine
 10
13.33594025562355
 20
12.28345699575469
 30
0.0
 11
13.36344025562354
 21
12.3109569957547
 31
0.0
  0
LINE
  5
262
330
1E
100
AcDbEntity
  8
HIDDEN
  6
HIDDEN2
100
AcDbLine
 10
13.33594025562355
 20
12.2469569957547
 30
0.0
 11
13.33594025562354
 21
12.4649569957547
 31
0.0
  0
LINE
  5
263
330
1E
100
AcDbEntity
  8
HIDDEN
  6
HIDDEN2
100
AcDbLine
 10
13.55394025562354
 20
12.3109569957547
 30
0.0
 11
13.55394025562354
 21
12.4009569957547
 31
0.0
  0
LINE
  5
264
330
1E
100
AcDbEntity
  8
HIDDEN
  6
HIDDEN2
100
AcDbLine
 10
13.36344025562354
 20
12.3109569957547
 30
0.0
 11
13.36344025562354
 21
12.4009569957547
 31
0.0
  0
LINE
  5
265
330
1E
100
AcDbEntity
  8
HIDDEN
100
AcDbLine
 10
12.88194025562354
 20
10.6357824451054
 30
0.0
 11
12.28794025562355
 21
10.6357824451054
 31
0.0
  0
LINE
  5
266
330
1E
100
AcDbEntity
  8
HIDDEN
  6
HIDDEN2
100
AcDbLine
 10
12.28794025562355
 20
10.730131546404
 30
0.0
 11
12.28794025562355
 21
10.6357824451054
 31
0.0
  0
LINE
  5
267
330
1E
100
AcDbEntity
  8
HIDDEN
100
AcDbLine
 10
12.88194025562354
 20
10.730131546404
 30
0.0
 11
12.28794025562355
 21
10.730131546404
 31
0.0
  0
LINE
  5
268
330
1E
100
AcDbEntity
  8
HIDDEN
  6
HIDDEN2
100
AcDbLine
 10
12.88194025562354
 20
10.5454569957547
 30
0.0
 11
12.88194025562354
 21
10.8204569957547
 31
0.0
  0
LWPOLYLINE
  5
269
330
1E
100
AcDbEntity
  8
OBJECT
100
AcDbPolyline
 90
        4
 70
     1
 43
0.0
 10
15.65812420064479
 20
4.446491522536926
 10
15.65812420064479
 20
5.646491522536925
 10
10.34812420064479
 20
5.646491522536925
 10
10.34812420064479
 20
4.446491522536926
  0
LINE
  5
26F
330
1E
100
AcDbEntity
  8
HIDDEN
100
AcDbLine
 10
12.30194025562354
 20
8.577956995754721
 30
0.0
 11
12.30194025562354
 21
8.647956995754714
 31
0.0
  0
LINE
  5
270
330
1E
100
AcDbEntity
  8
HIDDEN
100
AcDbLine
 10
13.50194025562355
 20
8.577956995754707
 30
0.0
 11
13.50194025562355
 21
8.647956995754714
 31
0.0
  0
LINE
  5
271
330
1E
100
AcDbEntity
  8
HIDDEN
100
AcDbLine
 10
13.50194025562355
 20
12.71795699575471
 30
0.0
 11
13.50194025562355
 21
12.78795699575471
 31
0.0
  0
LINE
  5
272
330
1E
100
AcDbEntity
  8
HIDDEN
100
AcDbLine
 10
12.30194025562354
 20
12.71795699575471
 30
0.0
 11
12.30194025562354
 21
12.78795699575472
 31
0.0
  0
LWPOLYLINE
  5
273
330
1E
100
AcDbEntity
  8
BEND
100
AcDbPolyline
 90
        4
 70
     1
 43
0.0
 10
10.42512420064479
 20
4.495491522536926
 10
15.58112420064479
 20
4.495491522536926
 10
15.58112420064479
 20
5.597491522536926
 10
10.42512420064479
 20
5.597491522536926
  0
LINE
  5
279
330
1E
100
AcDbEntity
  8
HIDDEN
  6
HIDDEN2
100
AcDbLine
 10
3.394541523808931
 20
4.584991522536934
 30
0.0
 11
3.484541523808935
 21
4.58499152253693
 31
0.0
  0
LINE
  5
27A
330
1E
100
AcDbEntity
  8
HIDDEN
  6
HIDDEN2
100
AcDbLine
 10
3.394541523808931
 20
4.394491522536926
 30
0.0
 11
3.484541523808935
 21
4.394491522536926
 31
0.0
  0
LINE
  5
27B
330
1E
100
AcDbEntity
  8
OBJECT
100
AcDbLine
 10
3.330541523808938
 20
4.612491522536926
 30
0.0
 11
3.548541523808935
 21
4.61249152253693
 31
0.0
  0
LINE
  5
27C
330
1E
100
AcDbEntity
  8
HIDDEN
  6
HIDDEN2
100
AcDbLine
 10
3.367041523808935
 20
4.612491522536926
 30
0.0
 11
3.394541523808931
 21
4.584991522536934
 31
0.0
  0
LINE
  5
27D
330
1E
100
AcDbEntity
  8
HIDDEN
  6
HIDDEN2
100
AcDbLine
 10
3.394541523808931
 20
4.584991522536934
 30
0.0
 11
3.394541523808931
 21
4.394491522536926
 31
0.0
  0
LINE
  5
27E
330
1E
100
AcDbEntity
  8
OBJECT
100
AcDbLine
 10
3.330541523808938
 20
4.612491522536926
 30
0.0
 11
3.330541523808938
 21
4.456491522536924
 31
0.0
  0
LINE
  5
27F
330
1E
100
AcDbEntity
  8
HIDDEN
  6
HIDDEN2
100
AcDbLine
 10
3.512041523808938
 20
4.612491522536926
 30
0.0
 11
3.484541523808935
 21
4.584991522536934
 31
0.0
  0
LINE
  5
280
330
1E
100
AcDbEntity
  8
HIDDEN
  6
HIDDEN2
100
AcDbLine
 10
3.484541523808935
 20
4.58499152253693
 30
0.0
 11
3.484541523808935
 21
4.394491522536926
 31
0.0
  0
LINE
  5
281
330
1E
100
AcDbEntity
  8
OBJECT
100
AcDbLine
 10
3.548541523808935
 20
4.61249152253693
 30
0.0
 11
3.548541523808935
 21
4.456491522536924
 31
0.0
  0
LINE
  5
282
330
1E
100
AcDbEntity
  8
OBJECT
100
AcDbLine
 10
4.631541523808935
 20
4.61249152253693
 30
0.0
 11
4.631541523808935
 21
4.456491522536924
 31
0.0
  0
LINE
  5
283
330
1E
100
AcDbEntity
  8
HIDDEN
  6
HIDDEN2
100
AcDbLine
 10
4.567541523808935
 20
4.58499152253693
 30
0.0
 11
4.567541523808935
 21
4.394491522536926
 31
0.0
  0
LINE
  5
284
330
1E
100
AcDbEntity
  8
HIDDEN
  6
HIDDEN2
100
AcDbLine
 10
4.595041523808938
 20
4.612491522536926
 30
0.0
 11
4.567541523808935
 21
4.584991522536934
 31
0.0
  0
LINE
  5
285
330
1E
100
AcDbEntity
  8
OBJECT
100
AcDbLine
 10
4.413541523808938
 20
4.612491522536926
 30
0.0
 11
4.413541523808938
 21
4.456491522536924
 31
0.0
  0
LINE
  5
286
330
1E
100
AcDbEntity
  8
HIDDEN
  6
HIDDEN2
100
AcDbLine
 10
4.477541523808931
 20
4.584991522536934
 30
0.0
 11
4.477541523808931
 21
4.394491522536926
 31
0.0
  0
LINE
  5
287
330
1E
100
AcDbEntity
  8
HIDDEN
  6
HIDDEN2
100
AcDbLine
 10
4.450041523808935
 20
4.612491522536926
 30
0.0
 11
4.477541523808931
 21
4.584991522536934
 31
0.0
  0
LINE
  5
288
330
1E
100
AcDbEntity
  8
OBJECT
100
AcDbLine
 10
4.413541523808938
 20
4.612491522536926
 30
0.0
 11
4.631541523808935
 21
4.61249152253693
 31
0.0
  0
LINE
  5
289
330
1E
100
AcDbEntity
  8
HIDDEN
  6
HIDDEN2
100
AcDbLine
 10
4.477541523808931
 20
4.394491522536926
 30
0.0
 11
4.567541523808935
 21
4.394491522536926
 31
0.0
  0
LINE
  5
28A
330
1E
100
AcDbEntity
  8
HIDDEN
  6
HIDDEN2
100
AcDbLine
 10
4.477541523808931
 20
4.584991522536934
 30
0.0
 11
4.567541523808935
 21
4.58499152253693
 31
0.0
  0
LINE
  5
28B
330
1E
100
AcDbEntity
  8
HIDDEN
100
AcDbLine
 10
3.080041523808922
 20
5.066491522536927
 30
0.0
 11
3.080041523808922
 21
4.443344337282101
 31
0.0
  0
LINE
  5
28C
330
1E
100
AcDbEntity
  8
HIDDEN
100
AcDbLine
 10
3.210041523808924
 20
5.066491522536927
 30
0.0
 11
3.210041523808924
 21
4.443344337282101
 31
0.0
  0
LINE
  5
28D
330
1E
100
AcDbEntity
  8
OBJECT
100
AcDbLine
 10
3.282541523808922
 20
5.066491522536927
 30
0.0
 11
3.282541523808922
 21
4.456491522536924
 31
0.0
  0
LINE
  5
28E
330
1E
100
AcDbEntity
  8
OBJECT
100
AcDbLine
 10
3.007541523808909
 20
5.066491522536927
 30
0.0
 11
3.282541523808922
 21
5.066491522536927
 31
0.0
  0
LINE
  5
28F
330
1E
100
AcDbEntity
  8
HIDDEN
  6
HIDDEN2
100
AcDbLine
 10
3.285541523808912
 20
4.356491522536926
 30
0.0
 11
3.210041523808921
 21
4.443344337282101
 31
0.0
  0
LINE
  5
290
330
1E
100
AcDbEntity
  8
HIDDEN
  6
HIDDEN2
100
AcDbLine
 10
3.004541523808927
 20
4.356491522536926
 30
0.0
 11
3.080041523808922
 21
4.443344337282101
 31
0.0
  0
LINE
  5
291
330
1E
100
AcDbEntity
  8
HIDDEN
  6
HIDDEN2
100
AcDbLine
 10
3.080041523808914
 20
4.443344337282094
 30
0.0
 11
3.210041523808924
 21
4.443344337282101
 31
0.0
  0
LINE
  5
292
330
1E
100
AcDbEntity
  8
HIDDEN
  6
HIDDEN2
100
AcDbLine
 10
7.66154152380892
 20
4.612491522536926
 30
0.0
 11
7.879541523808923
 21
4.61249152253693
 31
0.0
  0
LINE
  5
293
330
1E
100
AcDbEntity
  8
HIDDEN
  6
HIDDEN2
100
AcDbLine
 10
7.72554152380892
 20
4.394491522536926
 30
0.0
 11
7.815541523808923
 21
4.394491522536926
 31
0.0
  0
LINE
  5
294
330
1E
100
AcDbEntity
  8
HIDDEN
  6
HIDDEN2
100
AcDbLine
 10
7.72554152380892
 20
4.584991522536934
 30
0.0
 11
7.815541523808916
 21
4.58499152253693
 31
0.0
  0
LINE
  5
295
330
1E
100
AcDbEntity
  8
HIDDEN
  6
HIDDEN2
100
AcDbLine
 10
6.796541523808925
 20
4.61249152253693
 30
0.0
 11
6.796541523808925
 21
4.456491522536924
 31
0.0
  0
LINE
  5
296
330
1E
100
AcDbEntity
  8
HIDDEN
  6
HIDDEN2
100
AcDbLine
 10
6.732541523808932
 20
4.58499152253693
 30
0.0
 11
6.732541523808932
 21
4.394491522536926
 31
0.0
  0
LINE
  5
297
330
1E
100
AcDbEntity
  8
HIDDEN
  6
HIDDEN2
100
AcDbLine
 10
6.760041523808935
 20
4.612491522536926
 30
0.0
 11
6.732541523808932
 21
4.584991522536934
 31
0.0
  0
LINE
  5
298
330
1E
100
AcDbEntity
  8
HIDDEN
  6
HIDDEN2
100
AcDbLine
 10
6.578541523808936
 20
4.612491522536926
 30
0.0
 11
6.578541523808936
 21
4.456491522536924
 31
0.0
  0
LINE
  5
299
330
1E
100
AcDbEntity
  8
HIDDEN
  6
HIDDEN2
100
AcDbLine
 10
6.642541523808929
 20
4.584991522536934
 30
0.0
 11
6.642541523808929
 21
4.394491522536926
 31
0.0
  0
LINE
  5
29A
330
1E
100
AcDbEntity
  8
HIDDEN
  6
HIDDEN2
100
AcDbLine
 10
6.615041523808925
 20
4.612491522536926
 30
0.0
 11
6.642541523808929
 21
4.584991522536934
 31
0.0
  0
LINE
  5
29B
330
1E
100
AcDbEntity
  8
HIDDEN
  6
HIDDEN2
100
AcDbLine
 10
6.578541523808936
 20
4.612491522536926
 30
0.0
 11
6.796541523808925
 21
4.61249152253693
 31
0.0
  0
LINE
  5
29C
330
1E
100
AcDbEntity
  8
HIDDEN
  6
HIDDEN2
100
AcDbLine
 10
6.642541523808929
 20
4.394491522536926
 30
0.0
 11
6.732541523808932
 21
4.394491522536926
 31
0.0
  0
LINE
  5
29D
330
1E
100
AcDbEntity
  8
HIDDEN
  6
HIDDEN2
100
AcDbLine
 10
6.642541523808929
 20
4.584991522536934
 30
0.0
 11
6.732541523808932
 21
4.58499152253693
 31
0.0
  0
LINE
  5
29E
330
1E
100
AcDbEntity
  8
HIDDEN
  6
HIDDEN2
100
AcDbLine
 10
7.66154152380892
 20
4.612491522536926
 30
0.0
 11
7.66154152380892
 21
4.456491522536924
 31
0.0
  0
LINE
  5
29F
330
1E
100
AcDbEntity
  8
HIDDEN
  6
HIDDEN2
100
AcDbLine
 10
7.72554152380892
 20
4.584991522536934
 30
0.0
 11
7.72554152380892
 21
4.394491522536926
 31
0.0
  0
LINE
  5
2A0
330
1E
100
AcDbEntity
  8
HIDDEN
  6
HIDDEN2
100
AcDbLine
 10
7.698041523808924
 20
4.612491522536926
 30
0.0
 11
7.72554152380892
 21
4.584991522536934
 31
0.0
  0
LINE
  5
2A1
330
1E
100
AcDbEntity
  8
HIDDEN
100
AcDbLine
 10
8.000041523808917
 20
5.066491522536927
 30
0.0
 11
8.000041523808917
 21
4.443344337282101
 31
0.0
  0
LINE
  5
2A2
330
1E
100
AcDbEntity
  8
HIDDEN
100
AcDbLine
 10
7.927541523808918
 20
5.066491522536927
 30
0.0
 11
7.927541523808918
 21
4.456491522536924
 31
0.0
  0
LINE
  5
2A3
330
1E
100
AcDbEntity
  8
HIDDEN
  6
HIDDEN2
100
AcDbLine
 10
7.924541523808925
 20
4.356491522536926
 30
0.0
 11
8.000041523808917
 21
4.443344337282101
 31
0.0
  0
LINE
  5
2A4
330
1E
100
AcDbEntity
  8
HIDDEN
  6
HIDDEN2
100
AcDbLine
 10
7.879541523808923
 20
4.61249152253693
 30
0.0
 11
7.879541523808923
 21
4.456491522536924
 31
0.0
  0
LINE
  5
2A5
330
1E
100
AcDbEntity
  8
HIDDEN
  6
HIDDEN2
100
AcDbLine
 10
7.815541523808916
 20
4.58499152253693
 30
0.0
 11
7.815541523808923
 21
4.394491522536926
 31
0.0
  0
LINE
  5
2A6
330
1E
100
AcDbEntity
  8
HIDDEN
  6
HIDDEN2
100
AcDbLine
 10
7.84304152380892
 20
4.612491522536926
 30
0.0
 11
7.815541523808923
 21
4.584991522536934
 31
0.0
  0
LINE
  5
2A7
330
1E
100
AcDbEntity
  8
HIDDEN
100
AcDbLine
 10
8.13004152380892
 20
5.066491522536927
 30
0.0
 11
8.13004152380892
 21
4.443344337282101
 31
0.0
  0
LINE
  5
2A8
330
1E
100
AcDbEntity
  8
HIDDEN
100
AcDbLine
 10
8.202541523808932
 20
5.066491522536927
 30
0.0
 11
7.927541523808918
 21
5.066491522536927
 31
0.0
  0
LINE
  5
2A9
330
1E
100
AcDbEntity
  8
HIDDEN
  6
HIDDEN2
100
AcDbLine
 10
8.130041523808927
 20
4.443344337282094
 30
0.0
 11
8.000041523808917
 21
4.443344337282101
 31
0.0
  0
LINE
  5
2AA
330
1E
100
AcDbEntity
  8
HIDDEN
  6
HIDDEN2
100
AcDbLine
 10
8.205541523808918
 20
4.356491522536926
 30
0.0
 11
8.13004152380892
 21
4.443344337282101
 31
0.0
  0
LINE
  5
2AB
330
1E
100
AcDbEntity
  8
HIDDEN
100
AcDbLine
 10
7.927628799133564
 20
5.066491522536924
 30
0.0
 11
7.927628799133564
 21
5.636491522536927
 31
0.0
  0
LINE
  5
2AC
330
1E
100
AcDbEntity
  8
HIDDEN
100
AcDbLine
 10
8.017954248484265
 20
5.066491522536924
 30
0.0
 11
8.017954248484265
 21
5.660491522536925
 31
0.0
  0
LINE
  5
2AD
330
1E
100
AcDbEntity
  8
HIDDEN
100
AcDbLine
 10
8.11230334978287
 20
5.066491522536924
 30
0.0
 11
8.11230334978287
 21
5.660491522536925
 31
0.0
  0
LINE
  5
2AE
330
1E
100
AcDbEntity
  8
HIDDEN
100
AcDbLine
 10
3.097954248484255
 20
5.066491522536924
 30
0.0
 11
3.097954248484255
 21
5.660491522536925
 31
0.0
  0
LINE
  5
2AF
330
1E
100
AcDbEntity
  8
HIDDEN
100
AcDbLine
 10
3.19230334978286
 20
5.066491522536924
 30
0.0
 11
3.19230334978286
 21
5.660491522536925
 31
0.0
  0
LINE
  5
2B0
330
1E
100
AcDbEntity
  8
OBJECT
100
AcDbLine
 10
3.282628799133568
 20
5.066491522536924
 30
0.0
 11
3.282628799133568
 21
5.636491522536927
 31
0.0
  0
LINE
  5
2B1
330
1E
100
AcDbEntity
  8
OBJECT
100
AcDbLine
 10
8.360041523808924
 20
12.84795699575471
 30
0.0
 11
2.850041523808941
 21
12.84795699575471
 31
0.0
  0
LINE
  5
2B2
330
1E
100
AcDbEntity
  8
HIDDEN
100
AcDbLine
 10
8.305041523808931
 20
12.6779569957547
 30
0.0
 11
7.150329159621841
 21
12.6779569957547
 31
0.0
  0
LINE
  5
2B3
330
1E
100
AcDbEntity
  8
HIDDEN
100
AcDbLine
 10
8.265041523808974
 20
12.7179569957547
 30
0.0
 11
7.157398689840243
 21
12.7179569957547
 31
0.0
  0
LINE
  5
2B4
330
1E
100
AcDbEntity
  8
HIDDEN
100
AcDbLine
 10
8.265041523808982
 20
12.78795699575471
 30
0.0
 11
7.16977036772245
 21
12.78795699575471
 31
0.0
  0
LINE
  5
2B5
330
1E
100
AcDbEntity
  8
OBJECT
100
AcDbLine
 10
2.850041523808926
 20
8.517956995754705
 30
0.0
 11
8.360041523808924
 21
8.517956995754705
 31
0.0
  0
LINE
  5
2B6
330
1E
100
AcDbEntity
  8
OBJECT
100
AcDbLine
 10
2.945041523808925
 20
8.687956995754706
 30
0.0
 11
7.185738069486498
 21
8.687956995754706
 31
0.0
  0
LINE
  5
2B7
330
1E
100
AcDbEntity
  8
OBJECT
100
AcDbLine
 10
2.945041523808925
 20
8.647956995754707
 30
0.0
 11
7.158298424564912
 21
8.647956995754707
 31
0.0
  0
LINE
  5
2B8
330
1E
100
AcDbEntity
  8
OBJECT
100
AcDbLine
 10
2.945041523808925
 20
8.577956995754707
 30
0.0
 11
7.102900870008824
 21
8.577956995754707
 31
0.0
  0
LINE
  5
2B9
330
1E
100
AcDbEntity
  8
OBJECT
100
AcDbLine
 10
2.850041523808941
 20
12.84795699575471
 30
0.0
 11
2.850041523808926
 21
8.517956995754705
 31
0.0
  0
LINE
  5
2BA
330
1E
100
AcDbEntity
  8
OBJECT
100
AcDbLine
 10
2.945041523808925
 20
12.78795699575471
 30
0.0
 11
2.945041523808925
 21
8.577956995754707
 31
0.0
  0
LINE
  5
2BB
330
1E
100
AcDbEntity
  8
OBJECT
100
AcDbLine
 10
2.905041523808933
 20
12.67295699575471
 30
0.0
 11
2.905041523808919
 21
8.692956995754702
 31
0.0
  0
LINE
  5
2BC
330
1E
100
AcDbEntity
  8
OBJECT
100
AcDbLine
 10
2.865041523808934
 20
8.532956995754705
 30
0.0
 11
2.865041523808934
 21
12.83295699575471
 31
0.0
  0
CIRCLE
  5
2BD
330
1E
100
AcDbEntity
  8
OBJECT
100
AcDbCircle
 10
3.439541523808935
 20
9.009956995754702
 30
0.0
 40
0.0725
  0
CIRCLE
  5
2BE
330
1E
100
AcDbEntity
  8
OBJECT
100
AcDbCircle
 10
3.439541523808935
 20
9.009956995754702
 30
0.0
 40
0.045
  0
CIRCLE
  5
2BF
330
1E
100
AcDbEntity
  8
OBJECT
100
AcDbCircle
 10
3.439541523808935
 20
9.009956995754702
 30
0.0
 40
0.109
  0
LINE
  5
2C0
330
1E
100
AcDbEntity
  8
OBJECT
100
AcDbLine
 10
2.905041523808919
 20
8.692956995754702
 30
0.0
 11
2.945041523808925
 21
8.692956995754702
 31
0.0
  0
LINE
  5
2C1
330
1E
100
AcDbEntity
  8
OBJECT
100
AcDbLine
 10
3.000041523808925
 20
8.687956995754706
 30
0.0
 11
3.000041523808925
 21
8.647956995754707
 31
0.0
  0
LINE
  5
2C2
330
1E
100
AcDbEntity
  8
OBJECT
100
AcDbLine
 10
2.865041523808934
 20
8.532956995754705
 30
0.0
 11
2.957541523808949
 21
8.532956995754705
 31
0.0
  0
LINE
  5
2C3
330
1E
100
AcDbEntity
  8
OBJECT
100
AcDbLine
 10
2.995041523808958
 20
8.577956995754707
 30
0.0
 11
2.945041523808947
 21
8.517956995754705
 31
0.0
  0
CIRCLE
  5
2C4
330
1E
100
AcDbEntity
  8
OBJECT
100
AcDbCircle
 10
4.522541523808933
 20
9.009956995754702
 30
0.0
 40
0.0725
  0
CIRCLE
  5
2C5
330
1E
100
AcDbEntity
  8
OBJECT
100
AcDbCircle
 10
4.522541523808933
 20
9.009956995754702
 30
0.0
 40
0.045
  0
CIRCLE
  5
2C6
330
1E
100
AcDbEntity
  8
OBJECT
100
AcDbCircle
 10
4.522541523808933
 20
9.009956995754702
 30
0.0
 40
0.109
  0
LINE
  5
2C7
330
1E
100
AcDbEntity
  8
OBJECT
100
AcDbLine
 10
2.945041523808904
 20
9.427956995754701
 30
0.0
 11
3.000041523808932
 21
9.427956995754708
 31
0.0
  0
LINE
  5
2C8
330
1E
100
AcDbEntity
  8
OBJECT
100
AcDbLine
 10
3.000041523808932
 20
9.427956995754708
 30
0.0
 11
3.000041523808932
 21
9.467956995754708
 31
0.0
  0
LINE
  5
2C9
330
1E
100
AcDbEntity
  8
OBJECT
100
AcDbLine
 10
2.945041523808904
 20
9.4679569957547
 30
0.0
 11
3.000041523808932
 21
9.467956995754708
 31
0.0
  0
LINE
  5
2CA
330
1E
100
AcDbEntity
  8
OBJECT
100
AcDbLine
 10
2.945041523808904
 20
9.537956995754701
 30
0.0
 11
3.000041523808932
 21
9.537956995754701
 31
0.0
  0
LINE
  5
2CB
330
1E
100
AcDbEntity
  8
OBJECT
100
AcDbLine
 10
3.000041523808932
 20
9.5779569957547
 30
0.0
 11
3.000041523808932
 21
9.537956995754701
 31
0.0
  0
LINE
  5
2CC
330
1E
100
AcDbEntity
  8
OBJECT
100
AcDbLine
 10
2.945041523808904
 20
9.5779569957547
 30
0.0
 11
3.000041523808932
 21
9.5779569957547
 31
0.0
  0
LINE
  5
2CD
330
1E
100
AcDbEntity
  8
OBJECT
100
AcDbLine
 10
3.009003845204799
 20
10.70295699575469
 30
0.0
 11
2.945041523808918
 21
10.70295699575469
 31
0.0
  0
LINE
  5
2CE
330
1E
100
AcDbEntity
  8
OBJECT
100
AcDbLine
 10
3.009003845204799
 20
10.6629569957547
 30
0.0
 11
2.945041523808918
 21
10.6629569957547
 31
0.0
  0
CIRCLE
  5
2CF
330
1E
100
AcDbEntity
  8
OBJECT
100
AcDbCircle
 10
3.145041523808928
 20
10.6829569957547
 30
0.0
 40
0.1375
  0
CIRCLE
  5
2D0
330
1E
100
AcDbEntity
  8
OBJECT
100
AcDbCircle
 10
3.145041523808928
 20
10.6829569957547
 30
0.0
 40
0.065
  0
CIRCLE
  5
2D1
330
1E
100
AcDbEntity
  8
OBJECT
100
AcDbCircle
 10
3.439541523808935
 20
12.3559569957547
 30
0.0
 40
0.109
  0
CIRCLE
  5
2D2
330
1E
100
AcDbEntity
  8
OBJECT
100
AcDbCircle
 10
3.439541523808935
 20
12.3559569957547
 30
0.0
 40
0.045
  0
CIRCLE
  5
2D3
330
1E
100
AcDbEntity
  8
OBJECT
100
AcDbCircle
 10
3.439541523808935
 20
12.3559569957547
 30
0.0
 40
0.0725
  0
LINE
  5
2D4
330
1E
100
AcDbEntity
  8
OBJECT
100
AcDbLine
 10
2.945041523808904
 20
11.7879569957547
 30
0.0
 11
3.000041523808932
 21
11.7879569957547
 31
0.0
  0
LINE
  5
2D5
330
1E
100
AcDbEntity
  8
OBJECT
100
AcDbLine
 10
3.000041523808932
 20
11.7879569957547
 30
0.0
 11
3.000041523808932
 21
11.8279569957547
 31
0.0
  0
LINE
  5
2D6
330
1E
100
AcDbEntity
  8
OBJECT
100
AcDbLine
 10
2.945041523808904
 20
11.8279569957547
 30
0.0
 11
3.000041523808932
 21
11.8279569957547
 31
0.0
  0
LINE
  5
2D7
330
1E
100
AcDbEntity
  8
OBJECT
100
AcDbLine
 10
2.945041523808904
 20
11.8979569957547
 30
0.0
 11
3.000041523808932
 21
11.8979569957547
 31
0.0
  0
LINE
  5
2D8
330
1E
100
AcDbEntity
  8
OBJECT
100
AcDbLine
 10
3.000041523808932
 20
11.9379569957547
 30
0.0
 11
3.000041523808932
 21
11.8979569957547
 31
0.0
  0
LINE
  5
2D9
330
1E
100
AcDbEntity
  8
OBJECT
100
AcDbLine
 10
2.945041523808904
 20
11.9379569957547
 30
0.0
 11
3.000041523808932
 21
11.9379569957547
 31
0.0
  0
LINE
  5
2DA
330
1E
100
AcDbEntity
  8
OBJECT
100
AcDbLine
 10
2.945041523808925
 20
12.67295699575471
 30
0.0
 11
2.905041523808933
 21
12.67295699575471
 31
0.0
  0
LINE
  5
2DB
330
1E
100
AcDbEntity
  8
OBJECT
100
AcDbLine
 10
2.957541523808942
 20
12.83295699575471
 30
0.0
 11
2.865041523808934
 21
12.83295699575471
 31
0.0
  0
LINE
  5
2DC
330
1E
100
AcDbEntity
  8
OBJECT
100
AcDbLine
 10
3.000041523808925
 20
12.71795699575471
 30
0.0
 11
3.000041523808925
 21
12.6779569957547
 31
0.0
  0
LINE
  5
2DD
330
1E
100
AcDbEntity
  8
OBJECT
100
AcDbLine
 10
2.995041523808958
 20
12.78795699575471
 30
0.0
 11
2.945041523808947
 21
12.84795699575471
 31
0.0
  0
CIRCLE
  5
2DE
330
1E
100
AcDbEntity
  8
OBJECT
100
AcDbCircle
 10
4.522541523808933
 20
12.3559569957547
 30
0.0
 40
0.109
  0
CIRCLE
  5
2DF
330
1E
100
AcDbEntity
  8
OBJECT
100
AcDbCircle
 10
4.522541523808933
 20
12.3559569957547
 30
0.0
 40
0.045
  0
CIRCLE
  5
2E0
330
1E
100
AcDbEntity
  8
OBJECT
100
AcDbCircle
 10
4.522541523808933
 20
12.3559569957547
 30
0.0
 40
0.0725
  0
LINE
  5
2E1
330
1E
100
AcDbEntity
  8
OBJECT
100
AcDbLine
 10
8.360041523808924
 20
8.517956995754705
 30
0.0
 11
8.360041523808924
 21
12.84795699575471
 31
0.0
  0
LINE
  5
2E2
330
1E
100
AcDbEntity
  8
HIDDEN
100
AcDbLine
 10
8.305041523808931
 20
8.687956995754706
 30
0.0
 11
8.305041523808931
 21
12.6779569957547
 31
0.0
  0
LINE
  5
2E3
330
1E
100
AcDbEntity
  8
HIDDEN
100
AcDbLine
 10
8.265041523808974
 20
12.6779569957547
 30
0.0
 11
8.26504152380891
 21
8.687956995754706
 31
0.0
  0
CIRCLE
  5
2E4
330
1E
100
AcDbEntity
  8
HIDDEN
  6
HIDDEN2
100
AcDbCircle
 10
7.770541523808923
 20
9.009956995754702
 30
0.0
 40
0.0725
  0
CIRCLE
  5
2E5
330
1E
100
AcDbEntity
  8
HIDDEN
  6
HIDDEN2
100
AcDbCircle
 10
7.770541523808923
 20
9.009956995754702
 30
0.0
 40
0.045
  0
CIRCLE
  5
2E6
330
1E
100
AcDbEntity
  8
HIDDEN
  6
HIDDEN2
100
AcDbCircle
 10
7.770541523808923
 20
9.009956995754702
 30
0.0
 40
0.109
  0
CIRCLE
  5
2E7
330
1E
100
AcDbEntity
  8
OBJECT
100
AcDbCircle
 10
6.687541523808932
 20
9.009956995754702
 30
0.0
 40
0.0725
  0
CIRCLE
  5
2E8
330
1E
100
AcDbEntity
  8
OBJECT
100
AcDbCircle
 10
6.687541523808932
 20
9.009956995754702
 30
0.0
 40
0.045
  0
CIRCLE
  5
2E9
330
1E
100
AcDbEntity
  8
OBJECT
100
AcDbCircle
 10
6.687541523808932
 20
9.009956995754702
 30
0.0
 40
0.109
  0
LINE
  5
2EA
330
1E
100
AcDbEntity
  8
HIDDEN
  6
HIDDEN
100
AcDbLine
 10
8.210041523808904
 20
8.687956995754706
 30
0.0
 11
8.210041523808911
 21
8.647956995754707
 31
0.0
  0
LINE
  5
2EB
330
1E
100
AcDbEntity
  8
HIDDEN
  6
HIDDEN
100
AcDbLine
 10
8.26504152380891
 20
8.647956995754707
 30
0.0
 11
8.26504152380891
 21
8.577956995754707
 31
0.0
  0
LINE
  5
2EC
330
1E
100
AcDbEntity
  8
HIDDEN
  6
HIDDEN
100
AcDbLine
 10
8.215041523808899
 20
8.577956995754707
 30
0.0
 11
8.26504152380891
 21
8.517956995754705
 31
0.0
  0
LINE
  5
2ED
330
1E
100
AcDbEntity
  8
HIDDEN
  6
HIDDEN
100
AcDbLine
 10
8.265041523808953
 20
9.5779569957547
 30
0.0
 11
8.210041523808932
 21
9.5779569957547
 31
0.0
  0
LINE
  5
2EE
330
1E
100
AcDbEntity
  8
HIDDEN
  6
HIDDEN
100
AcDbLine
 10
8.210041523808932
 20
9.5779569957547
 30
0.0
 11
8.210041523808932
 21
9.537956995754701
 31
0.0
  0
LINE
  5
2EF
330
1E
100
AcDbEntity
  8
HIDDEN
  6
HIDDEN
100
AcDbLine
 10
8.265041523808953
 20
9.537956995754701
 30
0.0
 11
8.210041523808932
 21
9.537956995754701
 31
0.0
  0
LINE
  5
2F0
330
1E
100
AcDbEntity
  8
HIDDEN
  6
HIDDEN
100
AcDbLine
 10
8.265041523808953
 20
9.4679569957547
 30
0.0
 11
8.210041523808932
 21
9.467956995754708
 31
0.0
  0
LINE
  5
2F1
330
1E
100
AcDbEntity
  8
HIDDEN
  6
HIDDEN
100
AcDbLine
 10
8.210041523808932
 20
9.427956995754708
 30
0.0
 11
8.210041523808932
 21
9.467956995754708
 31
0.0
  0
LINE
  5
2F2
330
1E
100
AcDbEntity
  8
HIDDEN
  6
HIDDEN
100
AcDbLine
 10
8.265041523808953
 20
9.427956995754701
 30
0.0
 11
8.210041523808932
 21
9.427956995754708
 31
0.0
  0
LINE
  5
2F3
330
1E
100
AcDbEntity
  8
HIDDEN
  6
HIDDEN2
100
AcDbLine
 10
8.201079202413062
 20
10.6629569957547
 30
0.0
 11
8.265041523808939
 21
10.6629569957547
 31
0.0
  0
LINE
  5
2F4
330
1E
100
AcDbEntity
  8
HIDDEN
  6
HIDDEN2
100
AcDbLine
 10
8.201079202413062
 20
10.70295699575469
 30
0.0
 11
8.265041523808939
 21
10.70295699575469
 31
0.0
  0
CIRCLE
  5
2F5
330
1E
100
AcDbEntity
  8
HIDDEN
  6
HIDDEN2
100
AcDbCircle
 10
8.065041523808929
 20
10.6829569957547
 30
0.0
 40
0.065
  0
CIRCLE
  5
2F6
330
1E
100
AcDbEntity
  8
HIDDEN
  6
HIDDEN2
100
AcDbCircle
 10
8.065041523808929
 20
10.6829569957547
 30
0.0
 40
0.1375
  0
CIRCLE
  5
2F7
330
1E
100
AcDbEntity
  8
HIDDEN
  6
HIDDEN2
100
AcDbCircle
 10
7.770541523808923
 20
12.3559569957547
 30
0.0
 40
0.109
  0
CIRCLE
  5
2F8
330
1E
100
AcDbEntity
  8
HIDDEN
  6
HIDDEN2
100
AcDbCircle
 10
7.770541523808923
 20
12.3559569957547
 30
0.0
 40
0.045
  0
CIRCLE
  5
2F9
330
1E
100
AcDbEntity
  8
HIDDEN
  6
HIDDEN2
100
AcDbCircle
 10
7.770541523808923
 20
12.3559569957547
 30
0.0
 40
0.0725
  0
CIRCLE
  5
2FA
330
1E
100
AcDbEntity
  8
OBJECT
100
AcDbCircle
 10
6.687541523808932
 20
12.3559569957547
 30
0.0
 40
0.109
  0
CIRCLE
  5
2FB
330
1E
100
AcDbEntity
  8
OBJECT
100
AcDbCircle
 10
6.687541523808932
 20
12.3559569957547
 30
0.0
 40
0.045
  0
CIRCLE
  5
2FC
330
1E
100
AcDbEntity
  8
OBJECT
100
AcDbCircle
 10
6.687541523808932
 20
12.3559569957547
 30
0.0
 40
0.0725
  0
LINE
  5
2FD
330
1E
100
AcDbEntity
  8
HIDDEN
  6
HIDDEN
100
AcDbLine
 10
8.265041523808953
 20
11.8979569957547
 30
0.0
 11
8.210041523808932
 21
11.8979569957547
 31
0.0
  0
LINE
  5
2FE
330
1E
100
AcDbEntity
  8
HIDDEN
  6
HIDDEN
100
AcDbLine
 10
8.265041523808953
 20
11.9379569957547
 30
0.0
 11
8.210041523808932
 21
11.9379569957547
 31
0.0
  0
LINE
  5
2FF
330
1E
100
AcDbEntity
  8
HIDDEN
  6
HIDDEN
100
AcDbLine
 10
8.210041523808932
 20
11.9379569957547
 30
0.0
 11
8.210041523808932
 21
11.8979569957547
 31
0.0
  0
LINE
  5
300
330
1E
100
AcDbEntity
  8
HIDDEN
  6
HIDDEN
100
AcDbLine
 10
8.265041523808953
 20
11.8279569957547
 30
0.0
 11
8.210041523808932
 21
11.8279569957547
 31
0.0
  0
LINE
  5
301
330
1E
100
AcDbEntity
  8
HIDDEN
  6
HIDDEN
100
AcDbLine
 10
8.210041523808932
 20
11.7879569957547
 30
0.0
 11
8.210041523808932
 21
11.8279569957547
 31
0.0
  0
LINE
  5
302
330
1E
100
AcDbEntity
  8
HIDDEN
  6
HIDDEN
100
AcDbLine
 10
8.265041523808953
 20
11.7879569957547
 30
0.0
 11
8.210041523808932
 21
11.7879569957547
 31
0.0
  0
LINE
  5
303
330
1E
100
AcDbEntity
  8
HIDDEN
  6
HIDDEN
100
AcDbLine
 10
8.265041523808982
 20
12.78795699575471
 30
0.0
 11
8.265041523808974
 21
12.7179569957547
 31
0.0
  0
LINE
  5
304
330
1E
100
AcDbEntity
  8
HIDDEN
  6
HIDDEN
100
AcDbLine
 10
8.210041523808975
 20
12.7179569957547
 30
0.0
 11
8.210041523808975
 21
12.6779569957547
 31
0.0
  0
LINE
  5
305
330
1E
100
AcDbEntity
  8
HIDDEN
  6
HIDDEN
100
AcDbLine
 10
8.215041523808899
 20
12.78795699575471
 30
0.0
 11
8.26504152380891
 21
12.84795699575471
 31
0.0
  0
LWPOLYLINE
  5
306
330
1E
100
AcDbEntity
  8
OBJECT
100
AcDbPolyline
 90
       31
 70
     0
 43
0.0
 10
7.129198197652926
 20
12.84795699575471
 10
7.129189287604142
 20
12.843214727367
 10
7.088140889797132
 20
12.61095942021715
 10
7.022549743248249
 20
12.4040405890364
 10
6.948426157929206
 20
12.21641162614871
 10
6.881780443811707
 20
12.04202592387801
 10
6.838622910867472
 20
11.87483687454824
 10
6.830845448437586
 20
11.70989748212425
 10
6.853866263340692
 20
11.54665919713468
 10
6.898985141764783
 20
11.3856730817491
 10
6.957501869897897
 20
11.22749019813708
 10
7.020716233928035
 20
11.07266160846816
 10
7.079928020043213
 20
10.92173837491193
 10
7.126437014431453
 20
10.77527155963794
 10
7.151543003280765
 20
10.63381222481577
 10
7.149343982071827
 20
10.49767184028612
 10
7.125130783456044
 20
10.36620350657432
 10
7.086992449377462
 20
10.23852073187685
 10
7.043018021780143
 20
10.11373702439016
 10
7.00129654260816
 20
9.990965892310736
 10
6.969917053805546
 20
9.869320843835044
 10
6.95696859731639
 20
9.747915387159562
 10
6.970540215084725
 20
9.625863030480747
 10
7.014914106062506
 20
9.502273727767057
 10
7.079145097233117
 20
9.376243216074787
 10
7.14848117258785
 20
9.246863678232219
 10
7.208170316117972
 20
9.113227297067641
 10
7.243460511814761
 20
8.974426255409323
 10
7.239599743669494
 20
8.829552736085542
 10
7.181835995673453
 20
8.677698921924577
 10
7.055417251817901
 20
8.517956995754705
  0
TEXT
  5
327
330
1E
100
AcDbEntity
  8
TEXT
100
AcDbText
 10
11.25703045064478
 20
5.096963848300137
 30
0.0
 40
0.1875
  1
PLASTIC PANEL - 0.070 THICK
 41
0.75
  7
TXT
 72
     4
 11
13.00312420064479
 21
5.190713848300137
 31
0.0
100
AcDbText
  0
DIMENSION
  5
328
330
1E
100
AcDbEntity
  8
DIM
100
AcDbDimension
  2
*D4
 10
15.65812420064479
 20
6.076020195958082
 30
0.0
 11
13.56987214677933
 21
6.076020195958082
 31
0.0
 12
0.3690827817035984
 22
2.833374759340822
 32
0.0
 71
     5
 42
-1.0
  3
23NSTD
100
AcDbAlignedDimension
 13
10.34812420064479
 23
5.646491522536925
 33
0.0
 14
15.65812420064479
 24
5.646491522536925
 34
0.0
100
AcDbRotatedDimension
  0
DIMENSION
  5
329
330
1E
100
AcDbEntity
  8
DIM
100
AcDbDimension
  2
*D26
 10
9.858484502277425
 20
4.446491522536926
 30
0.0
 11
10.42523244841196
 21
5.046491522536926
 31
0.0
 12
1.159126879805819
 22
1.526263885165622
 32
0.0
 71
     5
 42
-1.0
  3
23NSTDI
100
AcDbAlignedDimension
 13
10.34812420064479
 23
5.646491522536925
 33
0.0
 14
10.34812420064479
 24
4.446491522536926
 34
0.0
 50
90.0
100
AcDbRotatedDimension
  0
DIMENSION
  5
32A
330
1E
100
AcDbEntity
  8
DIM
100
AcDbDimension
  2
*D5
 10
15.58112420064479
 20
3.926077855498272
 30
0.0
 11
13.56987214677933
 21
3.926077855498272
 31
0.0
 12
0.3690827817035984
 22
2.833374759340822
 32
0.0
  1
<> EXPOSED PANEL
 71
     5
 42
-1.0
  3
23NSTD
100
AcDbAlignedDimension
 13
10.42512420064479
 23
4.495491522536926
 33
0.0
 14
15.58112420064479
 24
4.495491522536926
 34
0.0
100
AcDbRotatedDimension
  0
DIMENSION
  5
32B
330
1E
100
AcDbEntity
  8
DIM
100
AcDbDimension
  2
*D25
 10
17.12210833956287
 20
5.597491522536926
 30
0.0
 11
17.68885628569741
 21
5.046491522536926
 31
0.0
 12
0.3690827817035984
 22
2.833374759340822
 32
0.0
  1
<> EXPOSED PANEL
 71
     5
 42
-1.0
  3
23NSTDI
100
AcDbAlignedDimension
 13
15.58112420064479
 23
4.495491522536926
 33
0.0
 14
15.58112420064479
 24
5.597491522536926
 34
0.0
 50
90.0
100
AcDbRotatedDimension
  0
LINE
  5
32C
330
1E
100
AcDbEntity
  8
CENTER
  6
CENTER2
100
AcDbLine
 10
3.232433043745722
 20
11.8629569957547
 30
0.0
 11
2.662748922445644
 21
11.8629569957547
 31
0.0
  0
LINE
  5
32D
330
1E
100
AcDbEntity
  8
CENTER
  6
CENTER2
100
AcDbLine
 10
3.232433043745722
 20
9.502956995754704
 30
0.0
 11
2.662748922445644
 21
9.502956995754704
 31
0.0
  0
DIMENSION
  5
32E
330
1E
100
AcDbEntity
  8
DIM
100
AcDbDimension
  2
*D23
 10
1.642974020970506
 20
10.6829569957547
 30
0.0
 11
1.642974020970506
 21
11.7654569957547
 31
0.0
 12
0.1468593819301516
 22
1.866983650407744
 32
0.0
 71
     5
 42
-1.0
  3
23NSTD
100
AcDbAlignedDimension
 13
2.850041523808941
 23
12.84795699575471
 33
0.0
 14
3.145041523808928
 24
10.6829569957547
 34
0.0
 50
90.0
100
AcDbRotatedDimension
  0
DIMENSION
  5
32F
330
1E
100
AcDbEntity
  8
DIM
100
AcDbDimension
  2
*D24
 10
2.253521278582076
 20
10.6829569957547
 30
0.0
 11
2.253521278582076
 21
11.2729569957547
 31
0.0
 12
0.1468593819301516
 22
1.866983650407744
 32
0.0
 71
     5
 42
-1.0
  3
23NSTDI
100
AcDbAlignedDimension
 13
2.662748922445644
 23
11.8629569957547
 33
0.0
 14
3.145041523808928
 24
10.6829569957547
 34
0.0
 50
90.0
100
AcDbRotatedDimension
  0
DIMENSION
  5
330
330
1E
100
AcDbEntity
  8
DIM
100
AcDbDimension
  2
*D22
 10
1.642974020970506
 20
9.502956995754704
 30
0.0
 11
1.642974020970506
 21
10.0929569957547
 31
0.0
 12
0.1468593819301516
 22
1.866983650407744
 32
0.0
 71
     5
 42
-1.0
  3
23NSTDI
100
AcDbAlignedDimension
 13
3.145041523808928
 23
10.6829569957547
 33
0.0
 14
2.662748922445644
 24
9.502956995754704
 34
0.0
 50
90.0
100
AcDbRotatedDimension
  0
DIMENSION
  5
331
330
1E
100
AcDbEntity
  8
DIM
100
AcDbDimension
  2
*D14
 10
2.104791830747479
 20
4.356491522536926
 30
0.0
 11
2.104791830747479
 21
5.046491522536926
 31
0.0
 12
0.1468593819301516
 22
2.833374759340822
 32
0.0
 71
     5
 42
-1.0
  3
23NSTDI
100
AcDbAlignedDimension
 13
3.01503719035687
 23
5.736491522536925
 33
0.0
 14
3.015211741006161
 24
4.356491522536926
 34
0.0
 50
90.0
100
AcDbRotatedDimension
  0
LWPOLYLINE
  5
332
330
1E
100
AcDbEntity
  8
OBJECT
100
AcDbPolyline
 90
        4
 70
     0
 43
0.0
 10
6.037440359309825
 20
4.356491522536926
 42
-0.2224163107849989
 10
6.070881390683189
 20
4.843902387858597
 42
0.1819774479161976
 10
6.174269712704954
 20
5.546053328836889
 42
0.0001773552878112
 10
6.04703590196589
 20
5.736491522536932
 42
-0.1555598849313293
  0
LINE
  5
338
330
1E
100
AcDbEntity
  8
OBJECT
100
AcDbLine
 10
3.007454248484275
 20
5.066491522536924
 30
0.0
 11
3.007454248484275
 21
5.636491522536927
 31
0.0
  0
LINE
  5
339
330
1E
100
AcDbEntity
  8
OBJECT
100
AcDbLine
 10
3.00754152380892
 20
5.066491522536927
 30
0.0
 11
3.00754152380892
 21
4.456491522536924
 31
0.0
  0
LINE
  5
33A
330
1E
100
AcDbEntity
  8
HIDDEN
100
AcDbLine
 10
6.06899350151007
 20
4.456491522536924
 30
0.0
 11
8.26504152380891
 21
4.456491522536924
 31
0.0
  0
LINE
  5
33B
330
1E
100
AcDbEntity
  8
OBJECT
100
AcDbLine
 10
6.113871344182817
 20
5.636491522536938
 30
0.0
 11
2.945041523808931
 21
5.636491522536927
 31
0.0
  0
INSERT
  5
33C
330
1E
100
AcDbEntity
  8
OBJECT
 62
     4
100
AcDbBlockReference
  2
*X0
 10
-19.97387751617183
 20
-0.4815262243511488
 30
0.0
1001
ACAD
1000
HATCH
1002
{
1070
    16
1000
ANSI32
1040
0.5
1040
0.0
1002
}
  0
DIMENSION
  5
33D
330
1E
100
AcDbEntity
  8
DIM
100
AcDbDimension
  2
*D15
 10
5.004754159028521
 20
5.636491522536934
 30
0.0
 11
5.004754159028521
 21
5.046491522536929
 31
0.0
 12
0.1468593819301516
 22
2.833374759340822
 32
0.0
 71
     5
 42
-1.0
  3
23NSTDI
100
AcDbAlignedDimension
 13
5.138483043671512
 23
4.456491522536924
 33
0.0
 14
5.138483043671512
 24
5.636491522536934
 34
0.0
 50
90.0
100
AcDbRotatedDimension
  0
DIMENSION
  5
33E
330
1E
100
AcDbEntity
  8
DIM
100
AcDbDimension
  2
*D6
 10
5.711806855520399
 20
5.736491522536925
 30
0.0
 11
6.3394631055204
 21
6.276491522536925
 31
0.0
 12
0.1468593819301516
 22
2.833374759340822
 32
0.0
 71
     5
 42
-1.0
  3
23NSTD
100
AcDbAlignedDimension
 13
5.53099992179242
 23
5.636491522536938
 33
0.0
 14
5.53099992179242
 24
5.736491522536925
 34
0.0
 50
90.0
100
AcDbRotatedDimension
  0
DIMENSION
  5
33F
330
1E
100
AcDbEntity
  8
DIM
100
AcDbDimension
  2
*D27
 10
4.184630573526961
 20
11.8279569957547
 30
0.0
 11
3.533536823526961
 21
11.2879569957547
 31
0.0
 71
     5
 42
-1.0
  3
23NSTD
100
AcDbAlignedDimension
 13
3.000041523808932
 23
11.8979569957547
 33
0.0
 14
3.000041523808932
 24
11.8279569957547
 34
0.0
 50
90.0
100
AcDbRotatedDimension
  0
DIMENSION
  5
340
330
1E
100
AcDbEntity
  8
DIM
100
AcDbDimension
  2
*D7
 10
2.850041523808941
 20
8.028032939603086
 30
0.0
 11
1.90551027380894
 21
8.028032939603086
 31
0.0
 12
0.1468593819301516
 22
1.866983650407744
 32
0.0
 71
     5
 42
-1.0
  3
23NSTD
100
AcDbAlignedDimension
 13
3.439541523808935
 23
9.009956995754706
 33
0.0
 14
2.850041523808941
 24
8.517956995754705
 34
0.0
 50
180.0
100
AcDbRotatedDimension
  0
DIMENSION
  5
341
330
1E
100
AcDbEntity
  8
DIM
100
AcDbDimension
  2
*D19
 10
4.522541523808933
 20
7.653032939603086
 30
0.0
 11
5.605041523808933
 21
7.653032939603086
 31
0.0
 12
0.1468593819301516
 22
1.866983650407744
 32
0.0
 71
     5
 42
-1.0
  3
23NSTDI
100
AcDbAlignedDimension
 13
6.687541523808932
 23
9.009956995754706
 33
0.0
 14
4.522541523808933
 24
9.009956995754706
 34
0.0
 50
180.0
100
AcDbRotatedDimension
  0
DIMENSION
  5
342
330
1E
100
AcDbEntity
  8
DIM
100
AcDbDimension
  2
*D18
 10
3.439541523808935
 20
7.653032939603086
 30
0.0
 11
3.981041523808934
 21
7.653032939603086
 31
0.0
 12
0.1468593819301516
 22
1.866983650407744
 32
0.0
 71
     5
 42
-1.0
  3
23NSTDI
100
AcDbAlignedDimension
 13
4.522541523808933
 23
9.009956995754706
 33
0.0
 14
3.439541523808935
 24
9.009956995754706
 34
0.0
 50
180.0
100
AcDbRotatedDimension
  0
DIMENSION
  5
343
330
1E
100
AcDbEntity
  8
DIM
100
AcDbDimension
  2
*D20
 10
6.687541523808932
 20
7.653032939603086
 30
0.0
 11
7.229041523808928
 21
7.653032939603086
 31
0.0
 12
0.1468593819301516
 22
1.866983650407744
 32
0.0
 71
     5
 42
-1.0
  3
23NSTDI
100
AcDbAlignedDimension
 13
7.770541523808923
 23
9.009956995754706
 33
0.0
 14
6.687541523808932
 24
9.009956995754706
 34
0.0
 50
180.0
100
AcDbRotatedDimension
  0
DIMENSION
  5
344
330
1E
100
AcDbEntity
  8
DIM
100
AcDbDimension
  2
*D8
 10
3.145041523808928
 20
13.39061343967079
 30
0.0
 11
5.605041523808929
 21
13.39061343967079
 31
0.0
 12
0.1468593819301516
 22
1.866983650407744
 32
0.0
 71
     5
 42
-1.0
  3
23NSTD
100
AcDbAlignedDimension
 13
8.065041523808929
 23
10.6829569957547
 33
0.0
 14
3.145041523808928
 24
10.6829569957547
 34
0.0
100
AcDbRotatedDimension
  0
DIMENSION
  5
345
330
1E
100
AcDbEntity
  8
DIM
100
AcDbDimension
  2
*D9
 10
2.850041523808941
 20
13.39061343967079
 30
0.0
 11
1.90551027380894
 21
13.39061343967079
 31
0.0
 12
0.1468593819301516
 22
1.866983650407744
 32
0.0
 71
     5
 42
-1.0
  3
23NSTD
100
AcDbAlignedDimension
 13
3.145041523808928
 23
10.6829569957547
 33
0.0
 14
2.850041523808941
 24
12.84795699575471
 34
0.0
100
AcDbRotatedDimension
  0
DIMENSION
  5
346
330
1E
100
AcDbEntity
  8
DIM
100
AcDbDimension
  2
*D10
 10
6.338580306487025
 20
12.71795699575471
 30
0.0
 11
6.338580306487025
 21
10.68295699575471
 31
0.0
 12
0.1468593819301516
 22
1.866983650407744
 32
0.0
 71
     5
 42
-1.0
  3
23NSTD
100
AcDbAlignedDimension
 13
6.513710632797683
 23
8.647956995754707
 33
0.0
 14
6.513710632797683
 24
12.71795699575471
 34
0.0
 50
90.0
100
AcDbRotatedDimension
  0
DIMENSION
  5
347
330
1E
100
AcDbEntity
  8
DIM
100
AcDbDimension
  2
*D11
 10
7.927541523808934
 20
10.29620802259097
 30
0.0
 11
5.210211600919458
 21
10.29620802259097
 31
0.0
 12
0.1468593819301516
 22
1.866983650407744
 32
0.0
 70
   128
 71
     5
 42
-1.0
  3
23NSTD
100
AcDbAlignedDimension
 13
3.282541523808927
 23
10.6829569957547
 33
0.0
 14
7.927541523808934
 24
10.6829569957547
 34
0.0
 50
180.0
100
AcDbRotatedDimension
  0
DIMENSION
  5
348
330
1E
100
AcDbEntity
  8
DIM
100
AcDbDimension
  2
*D12
 10
8.265041523808932
 20
9.76348806596675
 30
0.0
 11
5.605041523808927
 21
9.76348806596675
 31
0.0
 12
0.1468593819301516
 22
1.866983650407744
 32
0.0
 71
     5
 42
-1.0
  3
23NSTD
100
AcDbAlignedDimension
 13
2.945041523808925
 23
9.751463492827308
 33
0.0
 14
8.265041523808932
 24
9.751463492827223
 34
0.0
100
AcDbRotatedDimension
  0
DIMENSION
  5
349
330
1E
100
AcDbEntity
  8
DIM
100
AcDbDimension
  2
*D16
 10
8.901422989752617
 20
10.6829569957547
 30
0.0
 11
8.901422989752617
 21
9.846456995754703
 31
0.0
 12
0.1468593819301516
 22
1.866983650407744
 32
0.0
 71
     5
 42
-1.0
  3
23NSTDI
100
AcDbAlignedDimension
 13
7.770541523808923
 23
9.009956995754702
 33
0.0
 14
8.065041523808929
 24
10.6829569957547
 34
0.0
 50
90.0
100
AcDbRotatedDimension
  0
DIMENSION
  5
34A
330
1E
100
AcDbEntity
  8
DIM
100
AcDbDimension
  2
*D21
 10
8.901422989752617
 20
12.3559569957547
 30
0.0
 11
8.901422989752617
 21
11.5194569957547
 31
0.0
 12
0.1468593819301516
 22
1.866983650407744
 32
0.0
 71
     5
 42
-1.0
  3
23NSTDI
100
AcDbAlignedDimension
 13
8.065041523808929
 23
10.6829569957547
 33
0.0
 14
7.770541523808923
 24
12.3559569957547
 34
0.0
 50
90.0
100
AcDbRotatedDimension
  0
LINE
  5
34B
330
1E
100
AcDbEntity
  8
HIDDEN
100
AcDbLine
 10
7.244003711472623
 20
8.687956995754706
 30
0.0
 11
8.305041523808931
 21
8.687956995754706
 31
0.0
  0
LINE
  5
34C
330
1E
100
AcDbEntity
  8
HIDDEN
100
AcDbLine
 10
7.21656406655103
 20
8.647956995754707
 30
0.0
 11
8.26504152380891
 21
8.647956995754707
 31
0.0
  0
LINE
  5
34D
330
1E
100
AcDbEntity
  8
HIDDEN
100
AcDbLine
 10
7.16116651199495
 20
8.577956995754707
 30
0.0
 11
8.26504152380891
 21
8.577956995754707
 31
0.0
  0
LINE
  5
34E
330
1E
100
AcDbEntity
  8
OBJECT
100
AcDbLine
 10
7.1194231325183
 20
12.78795699575471
 30
0.0
 11
2.945041523808925
 21
12.78795699575471
 31
0.0
  0
LINE
  5
34F
330
1E
100
AcDbEntity
  8
OBJECT
100
AcDbLine
 10
7.107051454636093
 20
12.7179569957547
 30
0.0
 11
2.945041523808925
 21
12.71795699575471
 31
0.0
  0
LINE
  5
350
330
1E
100
AcDbEntity
  8
OBJECT
100
AcDbLine
 10
7.099981924417691
 20
12.6779569957547
 30
0.0
 11
2.945041523808925
 21
12.67795699575471
 31
0.0
  0
DIMENSION
  5
351
330
1E
100
AcDbEntity
  8
DIM
100
AcDbDimension
  2
*D13
 10
11.69546911269208
 20
8.517956995754705
 30
0.0
 11
11.69546911269208
 21
10.6829569957547
 31
0.0
 12
1.534151566238906
 22
1.866983650407744
 32
0.0
 71
     5
 42
-1.0
  3
23NSTD
100
AcDbAlignedDimension
 13
12.21194025562355
 23
12.84795699575471
 33
0.0
 14
12.21194025562355
 24
8.517956995754705
 34
0.0
 50
90.0
100
AcDbRotatedDimension
  0
INSERT
  5
352
330
1E
100
AcDbEntity
  8
OBJECT
 62
     4
100
AcDbBlockReference
  2
*X1
 10
-22.14874011243789
 20
-0.8996835474785314
 30
0.0
1001
ACAD
1000
HATCH
1002
{
1070
    16
1000
PLAST
1040
2.0
1040
0.7853981633974483
1002
}
  0
INSERT
  5
353
330
1E
100
AcDbEntity
  8
OBJECT
 62
     4
100
AcDbBlockReference
  2
*X2
 10
-22.14874011243789
 20
-0.8996835474785314
 30
0.0
1001
ACAD
1000
HATCH
1002
{
1070
    16
1000
PLAST
1040
2.0
1040
0.7853981633974483
1002
}
  0
TEXT
  5
354
330
1E
100
AcDbEntity
  8
TEXT
100
AcDbText
 10
15.6212240626845
 20
13.35039680516022
 30
0.0
 40
0.1875
  1
(NO SUFFIX) UL94V-O FLAME RETARDANT ABS
 41
0.75
  7
TXT
100
AcDbText
  0
TEXT
  5
355
330
1E
100
AcDbEntity
  8
TEXT
100
AcDbText
 10
15.32839319676787
 20
13.66289680516022
 30
0.0
 40
0.1875
  1
%%uMATERIAL & FINISH:
 41
0.75
  7
TXT
100
AcDbText
  0
TEXT
  5
356
330
1E
100
AcDbEntity
  8
TEXT
100
AcDbText
 10
15.6212240626845
 20
12.41289680516022
 30
0.0
 40
0.1875
  1
(SUFFIX -A) UL94V-O FLAME RETARDANT ABS
 41
0.75
  7
TXT
100
AcDbText
  0
TEXT
  5
357
330
1E
100
AcDbEntity
  8
TEXT
100
AcDbText
 10
17.32928709344717
 20
12.10039680516022
 30
0.0
 40
0.1875
  1
DARK GRAY PLASTIC COVERS WITH
 41
0.75
  7
TXT
100
AcDbText
  0
TEXT
  5
358
330
1E
100
AcDbEntity
  8
TEXT
100
AcDbText
 10
15.46888606698304
 20
11.47539680516021
 30
0.0
 40
0.1875
  1
(SUFFIX -LG) HIGH-IMPACT ABS
 41
0.75
  7
TXT
100
AcDbText
  0
TEXT
  5
359
330
1E
100
AcDbEntity
  8
TEXT
100
AcDbText
 10
17.32928709344717
 20
11.16289680516022
 30
0.0
 40
0.1875
  1
LIGHT GRAY PLASTIC COVERS WITH
 41
0.75
  7
TXT
100
AcDbText
  0
TEXT
  5
35A
330
1E
100
AcDbEntity
  8
TEXT
100
AcDbText
 10
17.32928709344717
 20
11.78789680516022
 30
0.0
 40
0.1875
  1
NATURAL FINISH ALUMINUM PANELS.
 41
0.75
  7
TXT
100
AcDbText
  0
TEXT
  5
35B
330
1E
100
AcDbEntity
  8
TEXT
100
AcDbText
 10
17.32928709344717
 20
10.85039680516021
 30
0.0
 40
0.1875
  1
BLACK PLASTIC PANELS.
 41
0.75
  7
TXT
100
AcDbText
  0
TEXT
  5
35C
330
1E
100
AcDbEntity
  8
TEXT
100
AcDbText
 10
17.32928709344717
 20
10.22689680516021
 30
0.0
 40
0.1875
  1
LIGHT GRAY PLASTIC COVERS WITH
 41
0.75
  7
TXT
100
AcDbText
  0
TEXT
  5
35D
330
1E
100
AcDbEntity
  8
TEXT
100
AcDbText
 10
15.32839319676787
 20
10.53939680516021
 30
0.0
 40
0.1875
  1
(SUFFIX -LGA) HIGH-IMPACT ABS
 41
0.75
  7
TXT
100
AcDbText
  0
TEXT
  5
35E
330
1E
100
AcDbEntity
  8
TEXT
100
AcDbText
 10
17.32928709344717
 20
9.914396805160214
 30
0.0
 40
0.1875
  1
NATURAL FINISH ALUMINUM PANELS.
 41
0.75
  7
TXT
100
AcDbText
  0
TEXT
  5
35F
330
1E
100
AcDbEntity
  8
TEXT
100
AcDbText
 10
17.32928709344717
 20
8.95736051232132
 30
0.0
 40
0.1875
  1
SUPPLIED FOR ASSEMBLY.
 41
0.75
  7
TXT
100
AcDbText
  0
TEXT
  5
360
330
1E
100
AcDbEntity
  8
TEXT
100
AcDbText
 10
17.32928709344717
 20
9.269860512321319
 30
0.0
 40
0.1875
  1
TWO (2) M3 x 0.812" LG. SCREWS
 41
0.75
  7
TXT
100
AcDbText
  0
INSERT
  5
361
330
1E
100
AcDbEntity
  8
OBJECT
 62
     4
100
AcDbBlockReference
  2
*X3
 10
0.4780983274712112
 20
-17.73108338321449
 30
0.0
1001
ACAD
1000
HATCH
1002
{
1070
    16
1000
ANSI32
1040
0.5
1040
1.570796326794896
1002
}
  0
LINE
  5
362
330
1E
100
AcDbEntity
  8
HIDDEN
  6
HIDDEN2
100
AcDbLine
 10
3.097954248484255
 20
5.660491522536925
 30
0.0
 11
3.19230334978286
 21
5.660491522536925
 31
0.0
  0
LINE
  5
363
330
1E
100
AcDbEntity
  8
HIDDEN
  6
HIDDEN2
100
AcDbLine
 10
8.11230334978287
 20
5.660491522536925
 30
0.0
 11
8.017954248484265
 21
5.660491522536925
 31
0.0
  0
LINE
  5
364
330
1E
100
AcDbEntity
  8
HIDDEN
100
AcDbLine
 10
8.20262879913357
 20
5.066491522536924
 30
0.0
 11
8.20262879913357
 21
5.636491522536927
 31
0.0
  0
LINE
  5
365
330
1E
100
AcDbEntity
  8
HIDDEN
100
AcDbLine
 10
8.202541523808925
 20
5.066491522536927
 30
0.0
 11
8.202541523808925
 21
4.456491522536924
 31
0.0
  0
DIMENSION
  5
366
330
1E
100
AcDbEntity
  8
DIM
100
AcDbDimension
  2
*D17
 10
8.360041523808924
 20
13.76561343967079
 30
0.0
 11
5.605041523808931
 21
13.76561343967079
 31
0.0
 12
0.1468593819301516
 22
1.866983650407744
 32
0.0
 71
     5
 42
-1.0
  3
23NSTD
100
AcDbAlignedDimension
 13
2.850041523808941
 23
12.84795699575471
 33
0.0
 14
8.360041523808924
 24
12.84795699575471
 34
0.0
100
AcDbRotatedDimension
  0
TEXT
  5
367
330
1E
100
AcDbEntity
  8
TEXT
100
AcDbText
 10
0.3117500000000017
 20
14.52011879346011
 30
0.0
 40
0.1875
  1
NAME
 72
     1
 11
0.6555000000000018
 21
14.52011879346011
 31
0.0
100
AcDbText
  0
TEXT
  5
368
330
1E
100
AcDbEntity
  8
TEXT
100
AcDbText
 10
0.3117500000000017
 20
14.83261879346011
 30
0.0
 40
0.1875
  1
PART
 72
     1
 11
0.6555000000000018
 21
14.83261879346011
 31
0.0
100
AcDbText
  0
TEXT
  5
369
330
1E
100
AcDbEntity
  8
TEXT
100
AcDbText
 10
12.04649999999999
 20
14.52011879346011
 30
0.0
 40
0.1875
  1
No.
 72
     1
 11
12.23399999999999
 21
14.52011879346011
 31
0.0
100
AcDbText
  0
TEXT
  5
36A
330
1E
100
AcDbEntity
  8
TEXT
100
AcDbText
 10
11.89024999999999
 20
14.83261879346011
 30
0.0
 40
0.1875
  1
PART
 72
     1
 11
12.23399999999999
 21
14.83261879346011
 31
0.0
100
AcDbText
  0
LINE
  5
36B
330
1E
100
AcDbEntity
  8
TITLE
100
AcDbLine
 10
12.79649999999999
 20
15.087
 30
0.0
 11
12.79649999999999
 21
14.46
 31
0.0
  0
LINE
  5
36C
330
1E
100
AcDbEntity
  8
TITLE
100
AcDbLine
 10
11.67149999999999
 20
15.087
 30
0.0
 11
11.67149999999999
 21
14.46
 31
0.0
  0
LINE
  5
36D
330
1E
100
AcDbEntity
  8
TITLE
100
AcDbLine
 10
11.5785
 20
15.087
 30
0.0
 11
11.5785
 21
14.46
 31
0.0
  0
LINE
  5
36E
330
1E
100
AcDbEntity
  8
TITLE
100
AcDbLine
 10
1.218000000000001
 20
14.46
 30
0.0
 11
1.217999999999996
 21
15.087
 31
0.0
  0
LINE
  5
36F
330
1E
100
AcDbEntity
  8
TITLE
100
AcDbLine
 10
0.0929999999999964
 20
14.46
 30
0.0
 11
23.15699999999999
 21
14.46
 31
0.0
  0
LWPOLYLINE
  5
370
330
1E
100
AcDbEntity
  8
TITLE
100
AcDbPolyline
 90
        4
 70
     1
 43
0.0
 10
23.25
 20
15.17999999999999
 10
23.24999999999998
 20
0.0
 10
0.0
 20
0.0
 10
0.0
 20
15.17999999999999
  0
LWPOLYLINE
  5
376
330
1E
100
AcDbEntity
  8
TITLE
100
AcDbPolyline
 90
        4
 70
     1
 43
0.0
 10
23.15699999999999
 20
15.08700000000001
 10
23.15699999999999
 20
0.0930000000000018
 10
0.0930000000000018
 20
0.0930000000000018
 10
0.0930000000000018
 20
15.087
  0
TEXT
  5
37C
330
1E
100
AcDbEntity
  8
TEXT
100
AcDbText
 10
13.38449999999999
 20
14.65649999999999
 30
0.0
 40
0.234
  1
PC-11480  &  PC-11480-A  &  PC-11480-LG  &  PC-11480-LGA
 41
0.75
  7
TXT
 72
     4
 11
17.97674999999999
 21
14.77349999999999
 31
0.0
100
AcDbText
  0
TEXT
  5
37D
330
1E
100
AcDbEntity
  8
TEXT
100
AcDbText
 10
4.672499999999999
 20
14.65649999999999
 30
0.0
 40
0.234
  1
PLASTICASE  (STYLE D)
 41
0.75
  7
TXT
 72
     4
 11
6.398249999999999
 21
14.77349999999999
 31
0.0
100
AcDbText
  0
DIMENSION
  5
37E
330
1E
100
AcDbEntity
  8
DIM
100
AcDbDimension
  2
*D4
 10
15.65812420064479
 20
2.693782155924024
 30
0.0
 11
13.56987214677933
 21
2.693782155924024
 31
0.0
 12
0.3690827817035984
 22
-0.5488632806932367
 32
0.0
 71
     5
 42
-1.0
  3
23NSTD
100
AcDbAlignedDimension
 13
10.34812420064479
 23
2.264253482502867
 33
0.0
 14
15.65812420064479
 24
2.264253482502867
 34
0.0
100
AcDbRotatedDimension
  0
LWPOLYLINE
  5
37F
330
1E
100
AcDbEntity
  8
OBJECT
100
AcDbPolyline
 90
        4
 70
     1
 43
0.0
 10
15.65812420064479
 20
1.064253482502868
 10
15.65812420064479
 20
2.264253482502867
 10
10.34812420064479
 20
2.264253482502867
 10
10.34812420064479
 20
1.064253482502868
  0
TEXT
  5
385
330
1E
100
AcDbEntity
  8
TEXT
100
AcDbText
 10
11.18671795064478
 20
1.72675348250287
 30
0.0
 40
0.1875
  1
ALUMINUM PANEL - 0.060 THICK
 41
0.75
  7
TXT
 72
     4
 11
13.00312420064479
 21
1.82050348250287
 31
0.0
100
AcDbText
  0
DIMENSION
  5
386
330
1E
100
AcDbEntity
  8
DIM
100
AcDbDimension
  2
*D26
 10
9.858484502277425
 20
1.064253482502868
 30
0.0
 11
10.42523244841196
 21
1.664253482502868
 31
0.0
 12
1.159126879805819
 22
-1.855974154868436
 32
0.0
 71
     5
 42
-1.0
  3
23NSTDI
100
AcDbAlignedDimension
 13
10.34812420064479
 23
2.264253482502867
 33
0.0
 14
10.34812420064479
 24
1.064253482502868
 34
0.0
 50
90.0
100
AcDbRotatedDimension
  0
TEXT
  5
387
330
1E
100
AcDbEntity
  8
TEXT
100
AcDbText
 10
11.54999920064478
 20
4.784463848300137
 30
0.0
 40
0.1875
  1
(TEXTURED ON ONE SIDE)
 41
0.75
  7
TXT
 72
     4
 11
13.00312420064479
 21
4.878213848300137
 31
0.0
100
AcDbText
  0
TEXT
  5
388
330
1E
100
AcDbEntity
  8
TEXT
100
AcDbText
 10
10.51874920064479
 20
1.41425348250287
 30
0.0
 40
0.1875
  1
(PRESSURE-SENSITIVE TAPE ON ONE SIDE)
 41
0.75
  7
TXT
 72
     4
 11
13.00312420064479
 21
1.50800348250287
 31
0.0
100
AcDbText
  0
TEXT
  5
389
330
1E
100
AcDbEntity
  8
TEXT
100
AcDbText
 10
17.32928709344717
 20
12.72539680516022
 30
0.0
 40
0.1875
  1
LIGHT GRAY PLASTIC PANELS.
 41
0.75
  7
TXT
100
AcDbText
  0
DIMENSION
  5
38A
330
1E
100
AcDbEntity
  8
DIM
100
AcDbDimension
  2
*D28
 10
4.195606727742671
 20
4.456491522536927
 30
0.0
 11
3.54451297774267
 21
3.916491522536928
 31
0.0
 12
0.0
 22
-0.3407197652421226
 32
0.0
 71
     5
 42
-1.0
  3
23NSTD
100
AcDbAlignedDimension
 13
4.413541523808938
 23
4.612491522536926
 33
0.0
 14
4.208993308149719
 24
4.456491522536927
 34
0.0
 50
90.0
100
AcDbRotatedDimension
  0
TEXT
  5
38B
330
1E
100
AcDbEntity
  8
DIM
100
AcDbText
 10
8.680574197662494
 20
7.059435021023833
 30
0.0
 40
0.1875
  1
OR #4 STD. SHEET METAL SCREWS x 0.188" LG.
 41
0.75
  7
TXT
 11
8.680574197662494
 21
7.153185021023833
 31
0.0
100
AcDbText
 73
     2
  0
TEXT
  5
38C
330
1E
100
AcDbEntity
  8
DIM
100
AcDbText
 10
8.680574197662494
 20
6.746935021023833
 30
0.0
 40
0.1875
  1
(NOT SUPPLIED)
 41
0.75
  7
TXT
 11
8.680574197662494
 21
6.840685021023833
 31
0.0
100
AcDbText
 73
     2
  0
TEXT
  5
38D
330
1E
100
AcDbEntity
  8
TEXT
100
AcDbText
 10
17.35363260015097
 20
8.345049703513431
 30
0.0
 40
0.1875
  1
%%UNOTE:%%U ALL DIMENSIONS HAVE %%P0.015 TOLERANCE
 41
0.75
  7
TXT
100
AcDbText
  0
TEXT
  5
38E
330
1E
100
AcDbEntity
  8
TEXT
100
AcDbText
 10
17.84054360035702
 20
8.041487203513431
 30
0.0
 40
0.1875
  1
UNLESS OTHERWISE SPECIFIED
 41
0.75
  7
TXT
100
AcDbText
  0
TEXT
  5
390
330
1E
100
AcDbEntity
  8
OBJECT
100
AcDbText
 10
21.52415385903107
 20
-0.3700972016453861
 30
0.0
 40
0.1875
  1
REV 30JUN07
 41
0.75
  7
TXT
100
AcDbText
  0
ENDSEC
  0
SECTION
  2
OBJECTS
  0
DICTIONARY
  5
C
330
0
100
AcDbDictionary
281
     1
  3
ACAD_GROUP
350
D
  3
ACAD_PLOTSTYLENAME
350
E
  3
ACAD_MLINESTYLE
350
16
  3
ACAD_PLOTSETTINGS
350
18
  3
ACAD_LAYOUT
350
19
  0
DICTIONARY
  5
D
102
{ACAD_REACTORS
330
C
102
}
330
C
100
AcDbDictionary
281
     1
  0
ACDBDICTIONARYWDFLT
  5
E
102
{ACAD_REACTORS
330
C
102
}
330
C
100
AcDbDictionary
281
     1
  3
Normal
350
F
100
AcDbDictionaryWithDefault
340
F
  0
DICTIONARY
  5
16
102
{ACAD_REACTORS
330
C
102
}
330
C
100
AcDbDictionary
281
     1
  3
Standard
350
17
  0
DICTIONARY
  5
18
102
{ACAD_REACTORS
330
C
102
}
330
C
100
AcDbDictionary
281
     1
  0
DICTIONARY
  5
19
102
{ACAD_REACTORS
330
C
102
}
330
C
100
AcDbDictionary
281
     1
  3
Layout1
350
1D
  3
Model
350
21
  0
ACDBPLACEHOLDER
  5
F
102
{ACAD_REACTORS
330
E
102
}
330
E
  0
MLINESTYLE
  5
17
102
{ACAD_REACTORS
330
16
102
}
330
16
100
AcDbMlineStyle
  2
STANDARD
 70
     0
  3

 62
   256
 51
90.0
 52
90.0
 71
     2
 49
0.5
 62
   256
  6
BYLAYER
 49
-0.5
 62
   256
  6
BYLAYER
  0
LAYOUT
  5
1D
102
{ACAD_REACTORS
330
19
102
}
330
19
100
AcDbPlotSettings
  1

  2
Acrobat PDFWriter
  4

  6

 40
0.0
 41
0.0
 42
0.0
 43
0.0
 44
0.0
 45
0.0
 46
0.0
 47
0.0
 48
0.0
 49
0.0
140
0.0
141
0.0
142
1.0
143
1.0
 70
   688
 72
     0
 73
     0
 74
     5
  7
monochrome.ctb
 75
    16
147
1.0
148
0.0
149
0.0
100
AcDbLayout
  1
Layout1
 70
     1
 71
     1
 10
0.0
 20
0.0
 11
12.0
 21
9.0
 12
0.0
 22
0.0
 32
0.0
 14
1.000000000000000E+20
 24
1.000000000000000E+20
 34
1.000000000000000E+20
 15
-1.000000000000000E+20
 25
-1.000000000000000E+20
 35
-1.000000000000000E+20
146
0.0
 13
0.0
 23
0.0
 33
0.0
 16
1.0
 26
0.0
 36
0.0
 17
0.0
 27
1.0
 37
0.0
 76
     0
330
1A
  0
LAYOUT
  5
21
102
{ACAD_REACTORS
330
19
102
}
330
19
100
AcDbPlotSettings
  1

  2
Acrobat PDFWriter
  4

  6

 40
0.0
 41
0.0
 42
0.0
 43
0.0
 44
0.0
 45
0.0
 46
0.0
 47
0.0
 48
0.0
 49
0.0
140
0.0
141
0.0
142
1.0
143
1.0
 70
  1712
 72
     0
 73
     0
 74
     0
  7
monochrome.ctb
 75
     0
147
1.0
148
0.0
149
0.0
100
AcDbLayout
  1
Model
 70
     1
 71
     0
 10
0.0
 20
0.0
 11
12.0
 21
9.0
 12
0.0
 22
0.0
 32
0.0
 14
0.0
 24
0.0
 34
0.0
 15
0.0
 25
0.0
 35
0.0
146
0.0
 13
0.0
 23
0.0
 33
0.0
 16
1.0
 26
0.0
 36
0.0
 17
0.0
 27
1.0
 37
0.0
 76
     0
330
1E
  0
ENDSEC
  0
EOF
