  0
SECTION
  2
HEADER
  9
$ACADVER
  1
AC1015
  9
$ACADMAINTVER
 70
     6
  9
$DWGCODEPAGE
  3
ANSI_1252
  9
$INSBASE
 10
0.0
 20
0.0
 30
0.0
  9
$EXTMIN
 10
-0.0009459727454768
 20
-0.3851208029327964
 30
-0.0015258207003583
  9
$EXTMAX
 10
31.00094611710046
 20
20.24061772290688
 30
0.0000000349246037
  9
$LIMMIN
 10
0.0
 20
0.0
  9
$LIMMAX
 10
31.0
 20
20.23999999999999
  9
$ORTHOMODE
 70
     1
  9
$REGENMODE
 70
     1
  9
$FILLMODE
 70
     1
  9
$QTEXTMODE
 70
     0
  9
$MIRRTEXT
 70
     0
  9
$LTSCALE
 40
0.4379999999999999
  9
$ATTMODE
 70
     1
  9
$TEXTSIZE
 40
0.188
  9
$TRACEWID
 40
0.05
  9
$TEXTSTYLE
  7
TXT
  9
$CLAYER
  8
OBJECT
  9
$CELTYPE
  6
ByLayer
  9
$CECOLOR
 62
   256
  9
$CELTSCALE
 40
1.0
  9
$DISPSILH
 70
     0
  9
$DIMSCALE
 40
2.0
  9
$DIMASZ
 40
0.18
  9
$DIMEXO
 40
0.063
  9
$DIMDLI
 40
0.25
  9
$DIMRND
 40
0.0
  9
$DIMDLE
 40
0.0
  9
$DIMEXE
 40
0.093
  9
$DIMTP
 40
0.0
  9
$DIMTM
 40
0.0
  9
$DIMTXT
 40
0.125
  9
$DIMCEN
 40
0.09
  9
$DIMTSZ
 40
0.0
  9
$DIMTOL
 70
     0
  9
$DIMLIM
 70
     0
  9
$DIMTIH
 70
     1
  9
$DIMTOH
 70
     1
  9
$DIMSE1
 70
     0
  9
$DIMSE2
 70
     0
  9
$DIMTAD
 70
     0
  9
$DIMZIN
 70
     0
  9
$DIMBLK
  1

  9
$DIMASO
 70
     1
  9
$DIMSHO
 70
     1
  9
$DIMPOST
  1

  9
$DIMAPOST
  1

  9
$DIMALT
 70
     0
  9
$DIMALTD
 70
     2
  9
$DIMALTF
 40
25.4
  9
$DIMLFAC
 40
1.0
  9
$DIMTOFL
 70
     0
  9
$DIMTVP
 40
0.0
  9
$DIMTIX
 70
     0
  9
$DIMSOXD
 70
     0
  9
$DIMSAH
 70
     0
  9
$DIMBLK1
  1

  9
$DIMBLK2
  1

  9
$DIMSTYLE
  2
23NSTD
  9
$DIMCLRD
 70
     0
  9
$DIMCLRE
 70
     0
  9
$DIMCLRT
 70
     0
  9
$DIMTFAC
 40
1.0
  9
$DIMGAP
 40
0.09
  9
$DIMJUST
 70
     0
  9
$DIMSD1
 70
     0
  9
$DIMSD2
 70
     0
  9
$DIMTOLJ
 70
     1
  9
$DIMTZIN
 70
     0
  9
$DIMALTZ
 70
     0
  9
$DIMALTTZ
 70
     0
  9
$DIMUPT
 70
     0
  9
$DIMDEC
 70
     3
  9
$DIMTDEC
 70
     3
  9
$DIMALTU
 70
     2
  9
$DIMALTTD
 70
     2
  9
$DIMTXSTY
  7
STANDARD
  9
$DIMAUNIT
 70
     0
  9
$DIMADEC
 70
     0
  9
$DIMALTRND
 40
0.0
  9
$DIMAZIN
 70
     0
  9
$DIMDSEP
 70
    46
  9
$DIMATFIT
 70
     3
  9
$DIMFRAC
 70
     0
  9
$DIMLDRBLK
  1

  9
$DIMLUNIT
 70
     2
  9
$DIMLWD
 70
    -2
  9
$DIMLWE
 70
    -2
  9
$DIMTMOVE
 70
     2
  9
$LUNITS
 70
     2
  9
$LUPREC
 70
     3
  9
$SKETCHINC
 40
0.1
  9
$FILLETRAD
 40
0.0
  9
$AUNITS
 70
     0
  9
$AUPREC
 70
     0
  9
$MENU
  1
acad
  9
$ELEVATION
 40
0.0
  9
$PELEVATION
 40
0.0
  9
$THICKNESS
 40
0.0
  9
$LIMCHECK
 70
     0
  9
$CHAMFERA
 40
0.0
  9
$CHAMFERB
 40
0.0
  9
$CHAMFERC
 40
0.0
  9
$CHAMFERD
 40
0.0
  9
$SKPOLY
 70
     0
  9
$TDCREATE
 40
2449842.499702430
  9
$TDUCREATE
 40
2449842.666369097
  9
$TDUPDATE
 40
2454281.327329815
  9
$TDUUPDATE
 40
2454281.493996481
  9
$TDINDWG
 40
0.7349141898
  9
$TDUSRTIMER
 40
0.7349141898
  9
$USRTIMER
 70
     1
  9
$ANGBASE
 50
0.0
  9
$ANGDIR
 70
     0
  9
$PDMODE
 70
     0
  9
$PDSIZE
 40
0.0
  9
$PLINEWID
 40
0.0
  9
$SPLFRAME
 70
     0
  9
$SPLINETYPE
 70
     6
  9
$SPLINESEGS
 70
     8
  9
$HANDSEED
  5
526
  9
$SURFTAB1
 70
     6
  9
$SURFTAB2
 70
     6
  9
$SURFTYPE
 70
     6
  9
$SURFU
 70
     6
  9
$SURFV
 70
     6
  9
$UCSBASE
  2

  9
$UCSNAME
  2

  9
$UCSORG
 10
0.0
 20
0.0
 30
0.0
  9
$UCSXDIR
 10
1.0
 20
0.0
 30
0.0
  9
$UCSYDIR
 10
0.0
 20
1.0
 30
0.0
  9
$UCSORTHOREF
  2

  9
$UCSORTHOVIEW
 70
     0
  9
$UCSORGTOP
 10
0.0
 20
0.0
 30
0.0
  9
$UCSORGBOTTOM
 10
0.0
 20
0.0
 30
0.0
  9
$UCSORGLEFT
 10
0.0
 20
0.0
 30
0.0
  9
$UCSORGRIGHT
 10
0.0
 20
0.0
 30
0.0
  9
$UCSORGFRONT
 10
0.0
 20
0.0
 30
0.0
  9
$UCSORGBACK
 10
0.0
 20
0.0
 30
0.0
  9
$PUCSBASE
  2

  9
$PUCSNAME
  2

  9
$PUCSORG
 10
0.0
 20
0.0
 30
0.0
  9
$PUCSXDIR
 10
1.0
 20
0.0
 30
0.0
  9
$PUCSYDIR
 10
0.0
 20
1.0
 30
0.0
  9
$PUCSORTHOREF
  2

  9
$PUCSORTHOVIEW
 70
     0
  9
$PUCSORGTOP
 10
0.0
 20
0.0
 30
0.0
  9
$PUCSORGBOTTOM
 10
0.0
 20
0.0
 30
0.0
  9
$PUCSORGLEFT
 10
0.0
 20
0.0
 30
0.0
  9
$PUCSORGRIGHT
 10
0.0
 20
0.0
 30
0.0
  9
$PUCSORGFRONT
 10
0.0
 20
0.0
 30
0.0
  9
$PUCSORGBACK
 10
0.0
 20
0.0
 30
0.0
  9
$USERI1
 70
     0
  9
$USERI2
 70
     0
  9
$USERI3
 70
     0
  9
$USERI4
 70
     0
  9
$USERI5
 70
     0
  9
$USERR1
 40
0.0
  9
$USERR2
 40
0.0
  9
$USERR3
 40
0.0
  9
$USERR4
 40
0.0
  9
$USERR5
 40
0.0
  9
$WORLDVIEW
 70
     1
  9
$SHADEDGE
 70
     3
  9
$SHADEDIF
 70
    70
  9
$TILEMODE
 70
     1
  9
$MAXACTVP
 70
    16
  9
$PINSBASE
 10
0.0
 20
0.0
 30
0.0
  9
$PLIMCHECK
 70
     0
  9
$PEXTMIN
 10
1.000000000000000E+20
 20
1.000000000000000E+20
 30
1.000000000000000E+20
  9
$PEXTMAX
 10
-1.000000000000000E+20
 20
-1.000000000000000E+20
 30
-1.000000000000000E+20
  9
$PLIMMIN
 10
0.0
 20
0.0
  9
$PLIMMAX
 10
12.0
 20
9.0
  9
$UNITMODE
 70
     0
  9
$VISRETAIN
 70
     0
  9
$PLINEGEN
 70
     0
  9
$PSLTSCALE
 70
     1
  9
$TREEDEPTH
 70
  3020
  9
$CMLSTYLE
  2
Standard
  9
$CMLJUST
 70
     0
  9
$CMLSCALE
 40
1.0
  9
$PROXYGRAPHICS
 70
     1
  9
$MEASUREMENT
 70
     0
  9
$CELWEIGHT
370
    -1
  9
$ENDCAPS
280
     0
  9
$JOINSTYLE
280
     0
  9
$LWDISPLAY
290
     0
  9
$INSUNITS
 70
     0
  9
$HYPERLINKBASE
  1

  9
$STYLESHEET
  1

  9
$XEDIT
290
     1
  9
$CEPSNTYPE
380
     0
  9
$PSTYLEMODE
290
     1
  9
$FINGERPRINTGUID
  2
{E434BAC0-29F9-4221-8E86-B7D9A7BEAEB6}
  9
$VERSIONGUID
  2
{B0EEEAC9-47F0-4D98-90F2-F008BA0FE896}
  9
$EXTNAMES
290
     1
  9
$PSVPSCALE
 40
0.0
  9
$OLESTARTUP
290
     0
  0
ENDSEC
  0
SECTION
  2
CLASSES
  0
CLASS
  1
ACDBDICTIONARYWDFLT
  2
AcDbDictionaryWithDefault
  3
AutoCAD 2000
 90
        0
280
     0
281
     0
  0
CLASS
  1
ACDBPLACEHOLDER
  2
AcDbPlaceHolder
  3
AutoCAD 2000
 90
        0
280
     0
281
     0
  0
CLASS
  1
LAYOUT
  2
AcDbLayout
  3
AutoCAD 2000
 90
        0
280
     0
281
     0
  0
ENDSEC
  0
SECTION
  2
TABLES
  0
TABLE
  2
VPORT
  5
8
330
0
100
AcDbSymbolTable
 70
     5
  0
VPORT
  5
525
330
8
100
AcDbSymbolTableRecord
100
AcDbViewportTableRecord
  2
*Active
 70
     0
 10
0.0
 20
0.0
 11
1.0
 21
1.0
 12
15.50000007217749
 22
9.927748459987043
 13
0.0
 23
0.0
 14
1.0
 24
1.0
 15
0.0
 25
0.0
 16
0.0
 26
0.0
 36
1.0
 17
0.0
 27
0.0
 37
0.0
 40
20.77665856383362
 41
1.536019536019536
 42
50.0
 43
0.0
 44
0.0
 50
0.0
 51
0.0
 71
     0
 72
   100
 73
     1
 74
     0
 75
     0
 76
     0
 77
     0
 78
     0
281
     0
 65
     1
110
0.0
120
0.0
130
0.0
111
1.0
121
0.0
131
0.0
112
0.0
122
1.0
132
0.0
 79
     0
146
0.0
  0
ENDTAB
  0
TABLE
  2
LTYPE
  5
5
330
0
100
AcDbSymbolTable
 70
     6
  0
LTYPE
  5
13
330
5
100
AcDbSymbolTableRecord
100
AcDbLinetypeTableRecord
  2
ByBlock
 70
     0
  3

 72
    65
 73
     0
 40
0.0
  0
LTYPE
  5
14
330
5
100
AcDbSymbolTableRecord
100
AcDbLinetypeTableRecord
  2
ByLayer
 70
     0
  3

 72
    65
 73
     0
 40
0.0
  0
LTYPE
  5
15
330
5
100
AcDbSymbolTableRecord
100
AcDbLinetypeTableRecord
  2
CONTINUOUS
 70
     0
  3
Solid line
 72
    65
 73
     0
 40
0.0
  0
LTYPE
  5
49
330
5
100
AcDbSymbolTableRecord
100
AcDbLinetypeTableRecord
  2
HIDDEN
 70
     0
  3
_ _ _ _ _ _ _ _ _ _ _ _ _ _ _ _ _ _ _ _ _ _ _
 72
    65
 73
     2
 40
0.375
 49
0.25
 74
     0
 49
-0.125
 74
     0
  0
LTYPE
  5
4A
330
5
100
AcDbSymbolTableRecord
100
AcDbLinetypeTableRecord
  2
PHANTOM
 70
     0
  3
_____ _ _ _____ _ _ _____ _ _ _____ _ _ ____
 72
    65
 73
     6
 40
2.5
 49
1.25
 74
     0
 49
-0.25
 74
     0
 49
0.25
 74
     0
 49
-0.25
 74
     0
 49
0.25
 74
     0
 49
-0.25
 74
     0
  0
LTYPE
  5
4B
330
5
100
AcDbSymbolTableRecord
100
AcDbLinetypeTableRecord
  2
CENTER
 70
     0
  3
____ _ ____ _ ____ _ ____ _ ____ _ ____ _ ____
 72
    65
 73
     4
 40
2.0
 49
1.25
 74
     0
 49
-0.25
 74
     0
 49
0.25
 74
     0
 49
-0.25
 74
     0
  0
LTYPE
  5
4C
330
5
100
AcDbSymbolTableRecord
100
AcDbLinetypeTableRecord
  2
CENTER2
 70
     0
  3
___ _ ___ _ ___ _ ___ _ ___ _ ___ _ ___ _ ___ _
 72
    65
 73
     4
 40
1.125
 49
0.75
 74
     0
 49
-0.125
 74
     0
 49
0.125
 74
     0
 49
-0.125
 74
     0
  0
LTYPE
  5
4D
330
5
100
AcDbSymbolTableRecord
100
AcDbLinetypeTableRecord
  2
HIDDEN2
 70
     0
  3
_ _ _ _ _ _ _ _ _ _ _ _ _ _ _ _ _ _ _ _ _ _ _ _
 72
    65
 73
     2
 40
0.1875
 49
0.125
 74
     0
 49
-0.0625
 74
     0
  0
ENDTAB
  0
TABLE
  2
LAYER
  5
2
330
0
100
AcDbSymbolTable
 70
     9
  0
LAYER
  5
10
330
2
100
AcDbSymbolTableRecord
100
AcDbLayerTableRecord
  2
0
 70
     0
 62
     7
  6
CONTINUOUS
370
    -3
390
F
  0
LAYER
  5
52
330
2
100
AcDbSymbolTableRecord
100
AcDbLayerTableRecord
  2
OBJECT
 70
     0
 62
     7
  6
CONTINUOUS
370
    -3
390
F
  0
LAYER
  5
53
330
2
100
AcDbSymbolTableRecord
100
AcDbLayerTableRecord
  2
DIM
 70
     0
 62
     2
  6
CONTINUOUS
370
    -3
390
F
  0
LAYER
  5
54
330
2
100
AcDbSymbolTableRecord
100
AcDbLayerTableRecord
  2
HIDDEN
 70
     0
 62
     6
  6
HIDDEN
370
    -3
390
F
  0
LAYER
  5
55
330
2
100
AcDbSymbolTableRecord
100
AcDbLayerTableRecord
  2
BEND
 70
     0
 62
     4
  6
PHANTOM
370
    -3
390
F
  0
LAYER
  5
56
330
2
100
AcDbSymbolTableRecord
100
AcDbLayerTableRecord
  2
TEXT
 70
     0
 62
     1
  6
CONTINUOUS
370
    -3
390
F
  0
LAYER
  5
57
330
2
100
AcDbSymbolTableRecord
100
AcDbLayerTableRecord
  2
TITLE
 70
     0
 62
     8
  6
CONTINUOUS
370
    -3
390
F
  0
LAYER
  5
58
330
2
100
AcDbSymbolTableRecord
100
AcDbLayerTableRecord
  2
CENTER
 70
     0
 62
     3
  6
CENTER
370
    -3
390
F
  0
LAYER
  5
59
330
2
100
AcDbSymbolTableRecord
100
AcDbLayerTableRecord
  2
DEFPOINTS
 70
     0
 62
     7
  6
CONTINUOUS
290
     0
370
    -3
390
F
  0
ENDTAB
  0
TABLE
  2
STYLE
  5
3
330
0
100
AcDbSymbolTable
 70
     2
  0
STYLE
  5
11
330
3
100
AcDbSymbolTableRecord
100
AcDbTextStyleTableRecord
  2
STANDARD
 70
     0
 40
0.0
 41
1.0
 50
0.0
 71
     0
 42
0.2
  3
txt
  4

  0
STYLE
  5
48
330
3
100
AcDbSymbolTableRecord
100
AcDbTextStyleTableRecord
  2
TXT
 70
     0
 40
0.0
 41
0.75
 50
0.0
 71
     0
 42
0.188
  3
txt
  4

  0
ENDTAB
  0
TABLE
  2
VIEW
  5
6
330
0
100
AcDbSymbolTable
 70
     0
  0
ENDTAB
  0
TABLE
  2
UCS
  5
7
330
0
100
AcDbSymbolTable
 70
     0
  0
ENDTAB
  0
TABLE
  2
APPID
  5
9
330
0
100
AcDbSymbolTable
 70
     1
  0
APPID
  5
12
330
9
100
AcDbSymbolTableRecord
100
AcDbRegAppTableRecord
  2
ACAD
 70
     0
  0
ENDTAB
  0
TABLE
  2
DIMSTYLE
  5
A
330
0
100
AcDbSymbolTable
 70
     2
100
AcDbDimStyleTable
 71
     0
  0
DIMSTYLE
105
50
102
{ACAD_REACTORS
330
2B6
330
3E0
330
3E1
330
3E2
330
3E3
330
3E4
330
3E5
330
3E7
330
3E8
330
3E9
330
3EA
330
3EC
330
3ED
330
3EE
330
3EF
330
3F0
330
3F1
330
3F2
330
3F3
330
3F4
330
42D
330
4D0
330
519
102
}
330
A
100
AcDbSymbolTableRecord
100
AcDbDimStyleTableRecord
  2
23NSTD
 70
     0
 40
2.0
 42
0.063
 43
0.25
 44
0.093
140
0.125
271
     3
272
     3
279
     2
340
11
  0
DIMSTYLE
105
51
102
{ACAD_REACTORS
330
2B5
330
2C3
330
2C5
330
3DF
330
3E6
330
3EB
330
42E
330
436
330
437
330
438
330
4CE
330
4CF
102
}
330
A
100
AcDbSymbolTableRecord
100
AcDbDimStyleTableRecord
  2
23NSTDI
 70
     0
 40
2.0
 42
0.063
 43
0.25
 44
0.093
140
0.125
174
     1
271
     3
272
     3
279
     2
340
11
  0
ENDTAB
  0
TABLE
  2
BLOCK_RECORD
  5
1
330
0
100
AcDbSymbolTable
 70
    38
  0
BLOCK_RECORD
  5
1E
330
1
100
AcDbSymbolTableRecord
100
AcDbBlockTableRecord
  2
*Model_Space
340
21
  0
BLOCK_RECORD
  5
1A
330
1
100
AcDbSymbolTableRecord
100
AcDbBlockTableRecord
  2
*Paper_Space
340
1D
  0
BLOCK_RECORD
  5
22
330
1
100
AcDbSymbolTableRecord
100
AcDbBlockTableRecord
  2
*X0
340
0
102
{BLKREFS
331
3F5
102
}
  0
BLOCK_RECORD
  5
23
330
1
100
AcDbSymbolTableRecord
100
AcDbBlockTableRecord
  2
*X1
340
0
102
{BLKREFS
331
3F6
102
}
  0
BLOCK_RECORD
  5
24
330
1
100
AcDbSymbolTableRecord
100
AcDbBlockTableRecord
  2
*D2
340
0
  0
BLOCK_RECORD
  5
25
330
1
100
AcDbSymbolTableRecord
100
AcDbBlockTableRecord
  2
*D3
340
0
  0
BLOCK_RECORD
  5
26
330
1
100
AcDbSymbolTableRecord
100
AcDbBlockTableRecord
  2
*D4
340
0
  0
BLOCK_RECORD
  5
27
330
1
100
AcDbSymbolTableRecord
100
AcDbBlockTableRecord
  2
*D5
340
0
  0
BLOCK_RECORD
  5
28
330
1
100
AcDbSymbolTableRecord
100
AcDbBlockTableRecord
  2
*D6
340
0
  0
BLOCK_RECORD
  5
29
330
1
100
AcDbSymbolTableRecord
100
AcDbBlockTableRecord
  2
*D7
340
0
  0
BLOCK_RECORD
  5
2A
330
1
100
AcDbSymbolTableRecord
100
AcDbBlockTableRecord
  2
*D8
340
0
  0
BLOCK_RECORD
  5
2B
330
1
100
AcDbSymbolTableRecord
100
AcDbBlockTableRecord
  2
*D9
340
0
  0
BLOCK_RECORD
  5
2C
330
1
100
AcDbSymbolTableRecord
100
AcDbBlockTableRecord
  2
*D10
340
0
  0
BLOCK_RECORD
  5
2D
330
1
100
AcDbSymbolTableRecord
100
AcDbBlockTableRecord
  2
*D11
340
0
  0
BLOCK_RECORD
  5
2E
330
1
100
AcDbSymbolTableRecord
100
AcDbBlockTableRecord
  2
*D12
340
0
  0
BLOCK_RECORD
  5
2F
330
1
100
AcDbSymbolTableRecord
100
AcDbBlockTableRecord
  2
*D13
340
0
  0
BLOCK_RECORD
  5
30
330
1
100
AcDbSymbolTableRecord
100
AcDbBlockTableRecord
  2
*D14
340
0
  0
BLOCK_RECORD
  5
31
330
1
100
AcDbSymbolTableRecord
100
AcDbBlockTableRecord
  2
*D15
340
0
  0
BLOCK_RECORD
  5
32
330
1
100
AcDbSymbolTableRecord
100
AcDbBlockTableRecord
  2
*D16
340
0
  0
BLOCK_RECORD
  5
33
330
1
100
AcDbSymbolTableRecord
100
AcDbBlockTableRecord
  2
*D17
340
0
  0
BLOCK_RECORD
  5
34
330
1
100
AcDbSymbolTableRecord
100
AcDbBlockTableRecord
  2
*D18
340
0
  0
BLOCK_RECORD
  5
35
330
1
100
AcDbSymbolTableRecord
100
AcDbBlockTableRecord
  2
*D19
340
0
  0
BLOCK_RECORD
  5
36
330
1
100
AcDbSymbolTableRecord
100
AcDbBlockTableRecord
  2
*D20
340
0
  0
BLOCK_RECORD
  5
37
330
1
100
AcDbSymbolTableRecord
100
AcDbBlockTableRecord
  2
*D21
340
0
  0
BLOCK_RECORD
  5
38
330
1
100
AcDbSymbolTableRecord
100
AcDbBlockTableRecord
  2
*D22
340
0
  0
BLOCK_RECORD
  5
39
330
1
100
AcDbSymbolTableRecord
100
AcDbBlockTableRecord
  2
*D23
340
0
  0
BLOCK_RECORD
  5
3A
330
1
100
AcDbSymbolTableRecord
100
AcDbBlockTableRecord
  2
*D24
340
0
  0
BLOCK_RECORD
  5
3B
330
1
100
AcDbSymbolTableRecord
100
AcDbBlockTableRecord
  2
*D25
340
0
  0
BLOCK_RECORD
  5
3C
330
1
100
AcDbSymbolTableRecord
100
AcDbBlockTableRecord
  2
*D26
340
0
  0
BLOCK_RECORD
  5
3D
330
1
100
AcDbSymbolTableRecord
100
AcDbBlockTableRecord
  2
*D27
340
0
  0
BLOCK_RECORD
  5
3E
330
1
100
AcDbSymbolTableRecord
100
AcDbBlockTableRecord
  2
*D28
340
0
  0
BLOCK_RECORD
  5
3F
330
1
100
AcDbSymbolTableRecord
100
AcDbBlockTableRecord
  2
*D29
340
0
  0
BLOCK_RECORD
  5
40
330
1
100
AcDbSymbolTableRecord
100
AcDbBlockTableRecord
  2
*X30
340
0
102
{BLKREFS
331
4CC
102
}
  0
BLOCK_RECORD
  5
41
330
1
100
AcDbSymbolTableRecord
100
AcDbBlockTableRecord
  2
*X31
340
0
102
{BLKREFS
331
4CD
102
}
  0
BLOCK_RECORD
  5
42
330
1
100
AcDbSymbolTableRecord
100
AcDbBlockTableRecord
  2
*D32
340
0
  0
BLOCK_RECORD
  5
43
330
1
100
AcDbSymbolTableRecord
100
AcDbBlockTableRecord
  2
*D33
340
0
  0
BLOCK_RECORD
  5
44
330
1
100
AcDbSymbolTableRecord
100
AcDbBlockTableRecord
  2
*D34
340
0
  0
BLOCK_RECORD
  5
45
330
1
100
AcDbSymbolTableRecord
100
AcDbBlockTableRecord
  2
*D35
340
0
  0
BLOCK_RECORD
  5
46
330
1
100
AcDbSymbolTableRecord
100
AcDbBlockTableRecord
  2
*D36
340
0
  0
BLOCK_RECORD
  5
47
330
1
100
AcDbSymbolTableRecord
100
AcDbBlockTableRecord
  2
*D37
340
0
  0
ENDTAB
  0
ENDSEC
  0
SECTION
  2
BLOCKS
  0
BLOCK
  5
5C
330
1E
100
AcDbEntity
  8
0
100
AcDbBlockBegin
  2
*Model_Space
 70
     0
 10
0.0
 20
0.0
 30
0.0
  3
*Model_Space
  1

  0
ENDBLK
  5
5D
330
1E
100
AcDbEntity
  8
0
100
AcDbBlockEnd
  0
BLOCK
  5
5A
330
1A
100
AcDbEntity
 67
     1
  8
0
100
AcDbBlockBegin
  2
*Paper_Space
 70
     0
 10
0.0
 20
0.0
 30
0.0
  3
*Paper_Space
  1

  0
ENDBLK
  5
5B
330
1A
100
AcDbEntity
 67
     1
  8
0
100
AcDbBlockEnd
  0
BLOCK
  5
5E
330
22
100
AcDbEntity
  8
0
100
AcDbBlockBegin
  2
*X0
 70
     1
 10
0.0
 20
0.0
 30
0.0
  3
*X0
  1

  0
LINE
  5
5F
330
22
100
AcDbEntity
  8
0
 62
     0
100
AcDbLine
 10
7.999155941836581
 20
16.48443731607515
 30
0.0
 11
8.069155941836582
 21
16.55443731607515
 31
0.0
  0
LINE
  5
60
330
22
100
AcDbEntity
  8
0
 62
     0
100
AcDbLine
 10
7.292049160650033
 20
16.48443731607515
 30
0.0
 11
7.362049160650034
 21
16.55443731607515
 31
0.0
  0
LINE
  5
61
330
22
100
AcDbEntity
  8
0
 62
     0
100
AcDbLine
 10
6.584942379463486
 20
16.48443731607515
 30
0.0
 11
6.654942379463488
 21
16.55443731607515
 31
0.0
  0
LINE
  5
62
330
22
100
AcDbEntity
  8
0
 62
     0
100
AcDbLine
 10
5.877835598276939
 20
16.48443731607515
 30
0.0
 11
5.947835598276941
 21
16.55443731607515
 31
0.0
  0
LINE
  5
63
330
22
100
AcDbEntity
  8
0
 62
     0
100
AcDbLine
 10
5.170728817090393
 20
16.48443731607515
 30
0.0
 11
5.240728817090395
 21
16.55443731607515
 31
0.0
  0
LINE
  5
64
330
22
100
AcDbEntity
  8
0
 62
     0
100
AcDbLine
 10
4.463622035903845
 20
16.48443731607515
 30
0.0
 11
4.533622035903848
 21
16.55443731607515
 31
0.0
  0
LINE
  5
65
330
22
100
AcDbEntity
  8
0
 62
     0
100
AcDbLine
 10
8.706262723023128
 20
16.48443731607515
 30
0.0
 11
8.776262723023128
 21
16.55443731607515
 31
0.0
  0
LINE
  5
66
330
22
100
AcDbEntity
  8
0
 62
     0
100
AcDbLine
 10
9.413369504209676
 20
16.48443731607515
 30
0.0
 11
9.483369504209676
 21
16.55443731607515
 31
0.0
  0
LINE
  5
67
330
22
100
AcDbEntity
  8
0
 62
     0
100
AcDbLine
 10
10.12047628539622
 20
16.48443731607515
 30
0.0
 11
10.19047628539622
 21
16.55443731607515
 31
0.0
  0
LINE
  5
68
330
22
100
AcDbEntity
  8
0
 62
     0
100
AcDbLine
 10
10.82758306658277
 20
16.48443731607515
 30
0.0
 11
10.89758306658277
 21
16.55443731607515
 31
0.0
  0
LINE
  5
69
330
22
100
AcDbEntity
  8
0
 62
     0
100
AcDbLine
 10
7.910767594188262
 20
16.48443731607515
 30
0.0
 11
7.980767594188263
 21
16.55443731607515
 31
0.0
  0
LINE
  5
6A
330
22
100
AcDbEntity
  8
0
 62
     0
100
AcDbLine
 10
7.203660813001715
 20
16.48443731607515
 30
0.0
 11
7.273660813001716
 21
16.55443731607515
 31
0.0
  0
LINE
  5
6B
330
22
100
AcDbEntity
  8
0
 62
     0
100
AcDbLine
 10
6.496554031815167
 20
16.48443731607515
 30
0.0
 11
6.566554031815169
 21
16.55443731607515
 31
0.0
  0
LINE
  5
6C
330
22
100
AcDbEntity
  8
0
 62
     0
100
AcDbLine
 10
5.789447250628621
 20
16.48443731607515
 30
0.0
 11
5.859447250628623
 21
16.55443731607515
 31
0.0
  0
LINE
  5
6D
330
22
100
AcDbEntity
  8
0
 62
     0
100
AcDbLine
 10
5.082340469442074
 20
16.48443731607515
 30
0.0
 11
5.152340469442076
 21
16.55443731607515
 31
0.0
  0
LINE
  5
6E
330
22
100
AcDbEntity
  8
0
 62
     0
100
AcDbLine
 10
4.375233688255526
 20
16.48443731607515
 30
0.0
 11
4.445233688255529
 21
16.55443731607515
 31
0.0
  0
LINE
  5
6F
330
22
100
AcDbEntity
  8
0
 62
     0
100
AcDbLine
 10
8.617874375374809
 20
16.48443731607515
 30
0.0
 11
8.687874375374811
 21
16.55443731607515
 31
0.0
  0
LINE
  5
70
330
22
100
AcDbEntity
  8
0
 62
     0
100
AcDbLine
 10
9.324981156561356
 20
16.48443731607515
 30
0.0
 11
9.394981156561357
 21
16.55443731607515
 31
0.0
  0
LINE
  5
71
330
22
100
AcDbEntity
  8
0
 62
     0
100
AcDbLine
 10
10.0320879377479
 20
16.48443731607515
 30
0.0
 11
10.1020879377479
 21
16.55443731607515
 31
0.0
  0
LINE
  5
72
330
22
100
AcDbEntity
  8
0
 62
     0
100
AcDbLine
 10
10.73919471893445
 20
16.48443731607515
 30
0.0
 11
10.80919471893445
 21
16.55443731607515
 31
0.0
  0
LINE
  5
73
330
22
100
AcDbEntity
  8
0
 62
     0
100
AcDbLine
 10
7.822379246539943
 20
16.48443731607515
 30
0.0
 11
7.892379246539944
 21
16.55443731607515
 31
0.0
  0
LINE
  5
74
330
22
100
AcDbEntity
  8
0
 62
     0
100
AcDbLine
 10
7.115272465353396
 20
16.48443731607515
 30
0.0
 11
7.185272465353397
 21
16.55443731607515
 31
0.0
  0
LINE
  5
75
330
22
100
AcDbEntity
  8
0
 62
     0
100
AcDbLine
 10
6.408165684166849
 20
16.48443731607515
 30
0.0
 11
6.47816568416685
 21
16.55443731607515
 31
0.0
  0
LINE
  5
76
330
22
100
AcDbEntity
  8
0
 62
     0
100
AcDbLine
 10
5.701058902980303
 20
16.48443731607515
 30
0.0
 11
5.771058902980305
 21
16.55443731607515
 31
0.0
  0
LINE
  5
77
330
22
100
AcDbEntity
  8
0
 62
     0
100
AcDbLine
 10
4.993952121793755
 20
16.48443731607515
 30
0.0
 11
5.063952121793758
 21
16.55443731607515
 31
0.0
  0
LINE
  5
78
330
22
100
AcDbEntity
  8
0
 62
     0
100
AcDbLine
 10
4.286845340607208
 20
16.48443731607515
 30
0.0
 11
4.356845340607211
 21
16.55443731607515
 31
0.0
  0
LINE
  5
79
330
22
100
AcDbEntity
  8
0
 62
     0
100
AcDbLine
 10
8.529486027726491
 20
16.48443731607515
 30
0.0
 11
8.599486027726491
 21
16.55443731607515
 31
0.0
  0
LINE
  5
7A
330
22
100
AcDbEntity
  8
0
 62
     0
100
AcDbLine
 10
9.236592808913037
 20
16.48443731607515
 30
0.0
 11
9.306592808913038
 21
16.55443731607515
 31
0.0
  0
LINE
  5
7B
330
22
100
AcDbEntity
  8
0
 62
     0
100
AcDbLine
 10
9.943699590099585
 20
16.48443731607515
 30
0.0
 11
10.01369959009958
 21
16.55443731607515
 31
0.0
  0
LINE
  5
7C
330
22
100
AcDbEntity
  8
0
 62
     0
100
AcDbLine
 10
10.65080637128613
 20
16.48443731607515
 30
0.0
 11
10.72080637128613
 21
16.55443731607515
 31
0.0
  0
LINE
  5
7D
330
22
100
AcDbEntity
  8
0
 62
     0
100
AcDbLine
 10
11.35791315247268
 20
16.48443731607514
 30
0.0
 11
11.36301114306746
 21
16.48953530666993
 31
0.0
  0
ENDBLK
  5
7E
330
22
100
AcDbEntity
  8
0
100
AcDbBlockEnd
  0
BLOCK
  5
7F
330
23
100
AcDbEntity
  8
0
100
AcDbBlockBegin
  2
*X1
 70
     1
 10
0.0
 20
0.0
 30
0.0
  3
*X1
  1

  0
LINE
  5
80
330
23
100
AcDbEntity
  8
0
 62
     0
100
AcDbLine
 10
8.05311697251551
 20
10.17443731607515
 30
0.0
 11
8.123116972515511
 21
10.24443731607515
 31
0.0
  0
LINE
  5
81
330
23
100
AcDbEntity
  8
0
 62
     0
100
AcDbLine
 10
7.346010191328963
 20
10.17443731607515
 30
0.0
 11
7.416010191328963
 21
10.24443731607515
 31
0.0
  0
LINE
  5
82
330
23
100
AcDbEntity
  8
0
 62
     0
100
AcDbLine
 10
6.638903410142416
 20
10.17443731607515
 30
0.0
 11
6.708903410142415
 21
10.24443731607515
 31
0.0
  0
LINE
  5
83
330
23
100
AcDbEntity
  8
0
 62
     0
100
AcDbLine
 10
5.931796628955869
 20
10.17443731607515
 30
0.0
 11
6.001796628955868
 21
10.24443731607515
 31
0.0
  0
LINE
  5
84
330
23
100
AcDbEntity
  8
0
 62
     0
100
AcDbLine
 10
5.224689847769321
 20
10.17443731607515
 30
0.0
 11
5.29468984776932
 21
10.24443731607515
 31
0.0
  0
LINE
  5
85
330
23
100
AcDbEntity
  8
0
 62
     0
100
AcDbLine
 10
4.517583066582774
 20
10.17443731607515
 30
0.0
 11
4.587583066582773
 21
10.24443731607515
 31
0.0
  0
LINE
  5
86
330
23
100
AcDbEntity
  8
0
 62
     0
100
AcDbLine
 10
8.760223753702058
 20
10.17443731607515
 30
0.0
 11
8.830223753702057
 21
10.24443731607515
 31
0.0
  0
LINE
  5
87
330
23
100
AcDbEntity
  8
0
 62
     0
100
AcDbLine
 10
9.467330534888606
 20
10.17443731607515
 30
0.0
 11
9.537330534888605
 21
10.24443731607515
 31
0.0
  0
LINE
  5
88
330
23
100
AcDbEntity
  8
0
 62
     0
100
AcDbLine
 10
10.17443731607515
 20
10.17443731607515
 30
0.0
 11
10.24443731607515
 21
10.24443731607515
 31
0.0
  0
LINE
  5
89
330
23
100
AcDbEntity
  8
0
 62
     0
100
AcDbLine
 10
10.8815440972617
 20
10.17443731607515
 30
0.0
 11
10.9515440972617
 21
10.24443731607515
 31
0.0
  0
LINE
  5
8A
330
23
100
AcDbEntity
  8
0
 62
     0
100
AcDbLine
 10
7.964728624867192
 20
10.17443731607515
 30
0.0
 11
8.034728624867192
 21
10.24443731607515
 31
0.0
  0
LINE
  5
8B
330
23
100
AcDbEntity
  8
0
 62
     0
100
AcDbLine
 10
7.257621843680645
 20
10.17443731607515
 30
0.0
 11
7.327621843680645
 21
10.24443731607515
 31
0.0
  0
LINE
  5
8C
330
23
100
AcDbEntity
  8
0
 62
     0
100
AcDbLine
 10
6.550515062494097
 20
10.17443731607515
 30
0.0
 11
6.620515062494097
 21
10.24443731607515
 31
0.0
  0
LINE
  5
8D
330
23
100
AcDbEntity
  8
0
 62
     0
100
AcDbLine
 10
5.843408281307549
 20
10.17443731607515
 30
0.0
 11
5.91340828130755
 21
10.24443731607515
 31
0.0
  0
LINE
  5
8E
330
23
100
AcDbEntity
  8
0
 62
     0
100
AcDbLine
 10
5.136301500121002
 20
10.17443731607515
 30
0.0
 11
5.206301500121002
 21
10.24443731607515
 31
0.0
  0
LINE
  5
8F
330
23
100
AcDbEntity
  8
0
 62
     0
100
AcDbLine
 10
4.429194718934455
 20
10.17443731607515
 30
0.0
 11
4.499194718934455
 21
10.24443731607515
 31
0.0
  0
LINE
  5
90
330
23
100
AcDbEntity
  8
0
 62
     0
100
AcDbLine
 10
8.671835406053739
 20
10.17443731607515
 30
0.0
 11
8.741835406053739
 21
10.24443731607515
 31
0.0
  0
LINE
  5
91
330
23
100
AcDbEntity
  8
0
 62
     0
100
AcDbLine
 10
9.378942187240287
 20
10.17443731607515
 30
0.0
 11
9.448942187240287
 21
10.24443731607515
 31
0.0
  0
LINE
  5
92
330
23
100
AcDbEntity
  8
0
 62
     0
100
AcDbLine
 10
10.08604896842683
 20
10.17443731607515
 30
0.0
 11
10.15604896842683
 21
10.24443731607515
 31
0.0
  0
LINE
  5
93
330
23
100
AcDbEntity
  8
0
 62
     0
100
AcDbLine
 10
10.79315574961338
 20
10.17443731607515
 30
0.0
 11
10.86315574961338
 21
10.24443731607515
 31
0.0
  0
LINE
  5
94
330
23
100
AcDbEntity
  8
0
 62
     0
100
AcDbLine
 10
7.876340277218874
 20
10.17443731607515
 30
0.0
 11
7.946340277218873
 21
10.24443731607515
 31
0.0
  0
LINE
  5
95
330
23
100
AcDbEntity
  8
0
 62
     0
100
AcDbLine
 10
7.169233496032327
 20
10.17443731607515
 30
0.0
 11
7.239233496032326
 21
10.24443731607515
 31
0.0
  0
LINE
  5
96
330
23
100
AcDbEntity
  8
0
 62
     0
100
AcDbLine
 10
6.462126714845779
 20
10.17443731607515
 30
0.0
 11
6.532126714845778
 21
10.24443731607515
 31
0.0
  0
LINE
  5
97
330
23
100
AcDbEntity
  8
0
 62
     0
100
AcDbLine
 10
5.755019933659231
 20
10.17443731607515
 30
0.0
 11
5.82501993365923
 21
10.24443731607515
 31
0.0
  0
LINE
  5
98
330
23
100
AcDbEntity
  8
0
 62
     0
100
AcDbLine
 10
5.047913152472684
 20
10.17443731607515
 30
0.0
 11
5.117913152472683
 21
10.24443731607515
 31
0.0
  0
LINE
  5
99
330
23
100
AcDbEntity
  8
0
 62
     0
100
AcDbLine
 10
4.340806371286137
 20
10.17443731607515
 30
0.0
 11
4.410806371286136
 21
10.24443731607515
 31
0.0
  0
LINE
  5
9A
330
23
100
AcDbEntity
  8
0
 62
     0
100
AcDbLine
 10
8.583447058405422
 20
10.17443731607515
 30
0.0
 11
8.65344705840542
 21
10.24443731607515
 31
0.0
  0
LINE
  5
9B
330
23
100
AcDbEntity
  8
0
 62
     0
100
AcDbLine
 10
9.29055383959197
 20
10.17443731607515
 30
0.0
 11
9.360553839591968
 21
10.24443731607515
 31
0.0
  0
LINE
  5
9C
330
23
100
AcDbEntity
  8
0
 62
     0
100
AcDbLine
 10
9.997660620778516
 20
10.17443731607515
 30
0.0
 11
10.06766062077851
 21
10.24443731607515
 31
0.0
  0
LINE
  5
9D
330
23
100
AcDbEntity
  8
0
 62
     0
100
AcDbLine
 10
10.70476740196506
 20
10.17443731607515
 30
0.0
 11
10.77476740196506
 21
10.24443731607515
 31
0.0
  0
ENDBLK
  5
9E
330
23
100
AcDbEntity
  8
0
100
AcDbBlockEnd
  0
BLOCK
  5
9F
330
24
100
AcDbEntity
  8
0
100
AcDbBlockBegin
  2
*D2
 70
     1
 10
0.0
 20
0.0
 30
0.0
  3
*D2
  1

  0
LINE
  5
A0
330
24
100
AcDbEntity
  8
0
  6
ByBlock
 62
     0
100
AcDbLine
 10
2.668253564121904
 20
18.54609572679166
 30
0.0
 11
2.668253564121904
 21
19.181667570366
 31
0.0
  0
LINE
  5
A1
330
24
100
AcDbEntity
  8
0
  6
ByBlock
 62
     0
100
AcDbLine
 10
3.025253564121889
 20
18.15109572679167
 30
0.0
 11
3.025253564121889
 21
19.181667570366
 31
0.0
  0
LINE
  5
A2
330
24
100
AcDbEntity
  8
0
  6
ByBlock
 62
     0
100
AcDbLine
 10
2.308253564121904
 20
18.995667570366
 30
0.0
 11
1.948253564121904
 21
18.995667570366
 31
0.0
  0
LINE
  5
A3
330
24
100
AcDbEntity
  8
0
  6
ByBlock
 62
     0
100
AcDbLine
 10
3.385253564121889
 20
18.995667570366
 30
0.0
 11
3.745253564121889
 21
18.995667570366
 31
0.0
  0
SOLID
  5
A4
330
24
100
AcDbEntity
  8
0
  6
ByBlock
 62
     0
100
AcDbTrace
 10
2.308253564121904
 20
19.055667570366
 30
0.0
 11
2.308253564121904
 21
18.93566757036601
 31
0.0
 12
2.668253564121904
 22
18.995667570366
 32
0.0
 13
2.668253564121904
 23
18.995667570366
 33
0.0
  0
SOLID
  5
A5
330
24
100
AcDbEntity
  8
0
  6
ByBlock
 62
     0
100
AcDbTrace
 10
3.385253564121889
 20
19.055667570366
 30
0.0
 11
3.385253564121889
 21
18.93566757036601
 31
0.0
 12
3.025253564121889
 22
18.995667570366
 32
0.0
 13
3.025253564121889
 23
18.995667570366
 33
0.0
  0
TEXT
  5
A6
330
24
100
AcDbEntity
  8
0
  6
ByBlock
 62
     0
100
AcDbText
 10
3.925253564121889
 20
18.87066757036601
 30
0.0
 40
0.25
  1
0.357
 41
0.75
  7
TXT
 72
     1
 11
4.284628564121889
 21
18.995667570366
 31
0.0
100
AcDbText
 73
     2
  0
POINT
  5
A8
330
24
100
AcDbEntity
  8
DEFPOINTS
  6
ByBlock
 62
     0
100
AcDbPoint
 10
2.668253564121904
 20
18.42009572679166
 30
0.0
  0
POINT
  5
A9
330
24
100
AcDbEntity
  8
DEFPOINTS
  6
ByBlock
 62
     0
100
AcDbPoint
 10
3.025253564121889
 20
18.02509572679166
 30
0.0
  0
POINT
  5
AA
330
24
100
AcDbEntity
  8
DEFPOINTS
  6
ByBlock
 62
     0
100
AcDbPoint
 10
3.025253564121889
 20
18.995667570366
 30
0.0
  0
ENDBLK
  5
AB
330
24
100
AcDbEntity
  8
0
100
AcDbBlockEnd
  0
BLOCK
  5
AC
330
25
100
AcDbEntity
  8
0
100
AcDbBlockBegin
  2
*D3
 70
     1
 10
0.0
 20
0.0
 30
0.0
  3
*D3
  1

  0
LINE
  5
AD
330
25
100
AcDbEntity
  8
0
  6
ByBlock
 62
     0
100
AcDbLine
 10
2.378960962758616
 20
15.17009572679166
 30
0.0
 11
1.814494459683949
 21
15.17009572679166
 31
0.0
  0
LINE
  5
AE
330
25
100
AcDbEntity
  8
0
  6
ByBlock
 62
     0
100
AcDbLine
 10
2.378960962758616
 20
17.13809572679166
 30
0.0
 11
1.814494459683949
 21
17.13809572679166
 31
0.0
  0
LINE
  5
AF
330
25
100
AcDbEntity
  8
0
  6
ByBlock
 62
     0
100
AcDbLine
 10
2.000494459683949
 20
15.53009572679166
 30
0.0
 11
2.000494459683949
 21
15.84909572679166
 31
0.0
  0
LINE
  5
B0
330
25
100
AcDbEntity
  8
0
  6
ByBlock
 62
     0
100
AcDbLine
 10
2.000494459683949
 20
16.77809572679167
 30
0.0
 11
2.000494459683949
 21
16.45909572679166
 31
0.0
  0
SOLID
  5
B1
330
25
100
AcDbEntity
  8
0
  6
ByBlock
 62
     0
100
AcDbTrace
 10
1.940494459683949
 20
15.53009572679166
 30
0.0
 11
2.060494459683949
 21
15.53009572679166
 31
0.0
 12
2.000494459683949
 22
15.17009572679166
 32
0.0
 13
2.000494459683949
 23
15.17009572679166
 33
0.0
  0
SOLID
  5
B2
330
25
100
AcDbEntity
  8
0
  6
ByBlock
 62
     0
100
AcDbTrace
 10
1.940494459683949
 20
16.77809572679167
 30
0.0
 11
2.060494459683949
 21
16.77809572679167
 31
0.0
 12
2.000494459683949
 22
17.13809572679166
 32
0.0
 13
2.000494459683949
 23
17.13809572679166
 33
0.0
  0
TEXT
  5
B3
330
25
100
AcDbEntity
  8
0
  6
ByBlock
 62
     0
100
AcDbText
 10
1.656744459683949
 20
16.02909572679166
 30
0.0
 40
0.25
  1
1.968
 41
0.75
  7
TXT
 72
     1
 11
2.000494459683949
 21
16.15409572679166
 31
0.0
100
AcDbText
 73
     2
  0
POINT
  5
B4
330
25
100
AcDbEntity
  8
DEFPOINTS
  6
ByBlock
 62
     0
100
AcDbPoint
 10
2.504960962758616
 20
15.17009572679166
 30
0.0
  0
POINT
  5
B5
330
25
100
AcDbEntity
  8
DEFPOINTS
  6
ByBlock
 62
     0
100
AcDbPoint
 10
2.504960962758616
 20
17.13809572679166
 30
0.0
  0
POINT
  5
B6
330
25
100
AcDbEntity
  8
DEFPOINTS
  6
ByBlock
 62
     0
100
AcDbPoint
 10
2.000494459683949
 20
17.13809572679166
 30
0.0
  0
ENDBLK
  5
B7
330
25
100
AcDbEntity
  8
0
100
AcDbBlockEnd
  0
BLOCK
  5
B8
330
26
100
AcDbEntity
  8
0
100
AcDbBlockBegin
  2
*D4
 70
     1
 10
0.0
 20
0.0
 30
0.0
  3
*D4
  1

  0
LINE
  5
B9
330
26
100
AcDbEntity
  8
0
  6
ByBlock
 62
     0
100
AcDbLine
 10
2.378960962758616
 20
15.17009572679166
 30
0.0
 11
1.814494459683949
 21
15.17009572679166
 31
0.0
  0
LINE
  5
BA
330
26
100
AcDbEntity
  8
0
  6
ByBlock
 62
     0
100
AcDbLine
 10
2.378960962758616
 20
13.20209572679166
 30
0.0
 11
1.814494459683949
 21
13.20209572679166
 31
0.0
  0
LINE
  5
BB
330
26
100
AcDbEntity
  8
0
  6
ByBlock
 62
     0
100
AcDbLine
 10
2.000494459683949
 20
14.81009572679166
 30
0.0
 11
2.000494459683949
 21
14.49109572679166
 31
0.0
  0
LINE
  5
BC
330
26
100
AcDbEntity
  8
0
  6
ByBlock
 62
     0
100
AcDbLine
 10
2.000494459683949
 20
13.56209572679166
 30
0.0
 11
2.000494459683949
 21
13.88109572679166
 31
0.0
  0
SOLID
  5
BD
330
26
100
AcDbEntity
  8
0
  6
ByBlock
 62
     0
100
AcDbTrace
 10
1.940494459683949
 20
14.81009572679166
 30
0.0
 11
2.060494459683949
 21
14.81009572679166
 31
0.0
 12
2.000494459683949
 22
15.17009572679166
 32
0.0
 13
2.000494459683949
 23
15.17009572679166
 33
0.0
  0
SOLID
  5
BE
330
26
100
AcDbEntity
  8
0
  6
ByBlock
 62
     0
100
AcDbTrace
 10
1.940494459683949
 20
13.56209572679166
 30
0.0
 11
2.060494459683949
 21
13.56209572679166
 31
0.0
 12
2.000494459683949
 22
13.20209572679166
 32
0.0
 13
2.000494459683949
 23
13.20209572679166
 33
0.0
  0
TEXT
  5
BF
330
26
100
AcDbEntity
  8
0
  6
ByBlock
 62
     0
100
AcDbText
 10
1.656744459683949
 20
14.06109572679166
 30
0.0
 40
0.25
  1
1.968
 41
0.75
  7
TXT
 72
     1
 11
2.000494459683949
 21
14.18609572679166
 31
0.0
100
AcDbText
 73
     2
  0
POINT
  5
C0
330
26
100
AcDbEntity
  8
DEFPOINTS
  6
ByBlock
 62
     0
100
AcDbPoint
 10
2.504960962758616
 20
15.17009572679166
 30
0.0
  0
POINT
  5
C1
330
26
100
AcDbEntity
  8
DEFPOINTS
  6
ByBlock
 62
     0
100
AcDbPoint
 10
2.504960962758616
 20
13.20209572679166
 30
0.0
  0
POINT
  5
C2
330
26
100
AcDbEntity
  8
DEFPOINTS
  6
ByBlock
 62
     0
100
AcDbPoint
 10
2.000494459683949
 20
13.20209572679166
 30
0.0
  0
ENDBLK
  5
C3
330
26
100
AcDbEntity
  8
0
100
AcDbBlockEnd
  0
BLOCK
  5
C4
330
27
100
AcDbEntity
  8
0
100
AcDbBlockBegin
  2
*D5
 70
     1
 10
0.0
 20
0.0
 30
0.0
  3
*D5
  1

  0
LINE
  5
C5
330
27
100
AcDbEntity
  8
0
  6
ByBlock
 62
     0
100
AcDbLine
 10
2.378960962758616
 20
15.17009572679166
 30
0.0
 11
0.6464212145564297
 21
15.17009572679166
 31
0.0
  0
LINE
  5
C6
330
27
100
AcDbEntity
  8
0
  6
ByBlock
 62
     0
100
AcDbLine
 10
2.542253564121904
 20
18.42009572679166
 30
0.0
 11
0.6464212145564297
 21
18.42009572679166
 31
0.0
  0
LINE
  5
C7
330
27
100
AcDbEntity
  8
0
  6
ByBlock
 62
     0
100
AcDbLine
 10
0.8324212145564295
 20
15.53009572679166
 30
0.0
 11
0.8324212145564295
 21
16.49009572679166
 31
0.0
  0
LINE
  5
C8
330
27
100
AcDbEntity
  8
0
  6
ByBlock
 62
     0
100
AcDbLine
 10
0.8324212145564295
 20
18.06009572679166
 30
0.0
 11
0.8324212145564295
 21
17.10009572679166
 31
0.0
  0
SOLID
  5
C9
330
27
100
AcDbEntity
  8
0
  6
ByBlock
 62
     0
100
AcDbTrace
 10
0.7724212145564296
 20
15.53009572679166
 30
0.0
 11
0.8924212145564297
 21
15.53009572679166
 31
0.0
 12
0.8324212145564295
 22
15.17009572679166
 32
0.0
 13
0.8324212145564295
 23
15.17009572679166
 33
0.0
  0
SOLID
  5
CA
330
27
100
AcDbEntity
  8
0
  6
ByBlock
 62
     0
100
AcDbTrace
 10
0.7724212145564296
 20
18.06009572679166
 30
0.0
 11
0.8924212145564297
 21
18.06009572679166
 31
0.0
 12
0.8324212145564295
 22
18.42009572679166
 32
0.0
 13
0.8324212145564295
 23
18.42009572679166
 33
0.0
  0
TEXT
  5
CB
330
27
100
AcDbEntity
  8
0
  6
ByBlock
 62
     0
100
AcDbText
 10
0.4730462145564296
 20
16.67009572679166
 30
0.0
 40
0.25
  1
3.250
 41
0.75
  7
TXT
 72
     1
 11
0.8324212145564295
 21
16.79509572679166
 31
0.0
100
AcDbText
 73
     2
  0
POINT
  5
CC
330
27
100
AcDbEntity
  8
DEFPOINTS
  6
ByBlock
 62
     0
100
AcDbPoint
 10
2.504960962758616
 20
15.17009572679166
 30
0.0
  0
POINT
  5
CD
330
27
100
AcDbEntity
  8
DEFPOINTS
  6
ByBlock
 62
     0
100
AcDbPoint
 10
2.668253564121904
 20
18.42009572679166
 30
0.0
  0
POINT
  5
CE
330
27
100
AcDbEntity
  8
DEFPOINTS
  6
ByBlock
 62
     0
100
AcDbPoint
 10
0.8324212145564295
 20
18.42009572679166
 30
0.0
  0
ENDBLK
  5
CF
330
27
100
AcDbEntity
  8
0
100
AcDbBlockEnd
  0
BLOCK
  5
D0
330
28
100
AcDbEntity
  8
0
100
AcDbBlockBegin
  2
*D6
 70
     1
 10
0.0
 20
0.0
 30
0.0
  3
*D6
  1

  0
LINE
  5
D1
330
28
100
AcDbEntity
  8
0
  6
ByBlock
 62
     0
100
AcDbLine
 10
11.65425356412189
 20
18.42009572679166
 30
0.0
 11
13.23059660233656
 21
18.42009572679166
 31
0.0
  0
LINE
  5
D2
330
28
100
AcDbEntity
  8
0
  6
ByBlock
 62
     0
100
AcDbLine
 10
11.65425356412189
 20
11.92009572679167
 30
0.0
 11
13.23059660233656
 21
11.92009572679167
 31
0.0
  0
LINE
  5
D3
330
28
100
AcDbEntity
  8
0
  6
ByBlock
 62
     0
100
AcDbLine
 10
13.04459660233656
 20
18.06009572679166
 30
0.0
 11
13.04459660233656
 21
15.47509572679167
 31
0.0
  0
LINE
  5
D4
330
28
100
AcDbEntity
  8
0
  6
ByBlock
 62
     0
100
AcDbLine
 10
13.04459660233656
 20
12.28009572679167
 30
0.0
 11
13.04459660233656
 21
14.86509572679167
 31
0.0
  0
SOLID
  5
D5
330
28
100
AcDbEntity
  8
0
  6
ByBlock
 62
     0
100
AcDbTrace
 10
12.98459660233656
 20
18.06009572679166
 30
0.0
 11
13.10459660233656
 21
18.06009572679166
 31
0.0
 12
13.04459660233656
 22
18.42009572679166
 32
0.0
 13
13.04459660233656
 23
18.42009572679166
 33
0.0
  0
SOLID
  5
D6
330
28
100
AcDbEntity
  8
0
  6
ByBlock
 62
     0
100
AcDbTrace
 10
12.98459660233656
 20
12.28009572679167
 30
0.0
 11
13.10459660233656
 21
12.28009572679167
 31
0.0
 12
13.04459660233656
 22
11.92009572679167
 32
0.0
 13
13.04459660233656
 23
11.92009572679167
 33
0.0
  0
TEXT
  5
D7
330
28
100
AcDbEntity
  8
0
  6
ByBlock
 62
     0
100
AcDbText
 10
12.70084660233656
 20
15.04509572679166
 30
0.0
 40
0.25
  1
6.500
 41
0.75
  7
TXT
 72
     1
 11
13.04459660233656
 21
15.17009572679167
 31
0.0
100
AcDbText
 73
     2
  0
POINT
  5
D8
330
28
100
AcDbEntity
  8
DEFPOINTS
  6
ByBlock
 62
     0
100
AcDbPoint
 10
11.52825356412189
 20
18.42009572679166
 30
0.0
  0
POINT
  5
D9
330
28
100
AcDbEntity
  8
DEFPOINTS
  6
ByBlock
 62
     0
100
AcDbPoint
 10
11.52825356412189
 20
11.92009572679167
 30
0.0
  0
POINT
  5
DA
330
28
100
AcDbEntity
  8
DEFPOINTS
  6
ByBlock
 62
     0
100
AcDbPoint
 10
13.04459660233656
 20
11.92009572679167
 30
0.0
  0
ENDBLK
  5
DB
330
28
100
AcDbEntity
  8
0
100
AcDbBlockEnd
  0
BLOCK
  5
DC
330
29
100
AcDbEntity
  8
0
100
AcDbBlockBegin
  2
*D7
 70
     1
 10
0.0
 20
0.0
 30
0.0
  3
*D7
  1

  0
LINE
  5
DD
330
29
100
AcDbEntity
  8
0
  6
ByBlock
 62
     0
100
AcDbLine
 10
3.102253564121895
 20
12.83509572679166
 30
0.0
 11
3.102253564121895
 21
13.53260802189341
 31
0.0
  0
LINE
  5
DE
330
29
100
AcDbEntity
  8
0
  6
ByBlock
 62
     0
100
AcDbLine
 10
7.944253564121893
 20
12.83509572679166
 30
0.0
 11
7.944253564121893
 21
13.53260802189341
 31
0.0
  0
LINE
  5
DF
330
29
100
AcDbEntity
  8
0
  6
ByBlock
 62
     0
100
AcDbLine
 10
3.462253564121894
 20
13.34660802189341
 30
0.0
 11
4.968253564121894
 21
13.34660802189341
 31
0.0
  0
LINE
  5
E0
330
29
100
AcDbEntity
  8
0
  6
ByBlock
 62
     0
100
AcDbLine
 10
7.584253564121893
 20
13.34660802189341
 30
0.0
 11
6.078253564121894
 21
13.34660802189341
 31
0.0
  0
SOLID
  5
E1
330
29
100
AcDbEntity
  8
0
  6
ByBlock
 62
     0
100
AcDbTrace
 10
3.462253564121894
 20
13.40660802189341
 30
0.0
 11
3.462253564121894
 21
13.28660802189341
 31
0.0
 12
3.102253564121895
 22
13.34660802189341
 32
0.0
 13
3.102253564121895
 23
13.34660802189341
 33
0.0
  0
SOLID
  5
E2
330
29
100
AcDbEntity
  8
0
  6
ByBlock
 62
     0
100
AcDbTrace
 10
7.584253564121893
 20
13.40660802189341
 30
0.0
 11
7.584253564121893
 21
13.28660802189341
 31
0.0
 12
7.944253564121893
 22
13.34660802189341
 32
0.0
 13
7.944253564121893
 23
13.34660802189341
 33
0.0
  0
TEXT
  5
E3
330
29
100
AcDbEntity
  8
0
  6
ByBlock
 62
     0
100
AcDbText
 10
5.148253564121894
 20
13.22160802189341
 30
0.0
 40
0.25
  1
4.842
 41
0.75
  7
TXT
 72
     1
 11
5.523253564121894
 21
13.34660802189341
 31
0.0
100
AcDbText
 73
     2
  0
POINT
  5
E4
330
29
100
AcDbEntity
  8
DEFPOINTS
  6
ByBlock
 62
     0
100
AcDbPoint
 10
3.102253564121895
 20
12.70909572679166
 30
0.0
  0
POINT
  5
E5
330
29
100
AcDbEntity
  8
DEFPOINTS
  6
ByBlock
 62
     0
100
AcDbPoint
 10
7.944253564121893
 20
12.70909572679166
 30
0.0
  0
POINT
  5
E6
330
29
100
AcDbEntity
  8
DEFPOINTS
  6
ByBlock
 62
     0
100
AcDbPoint
 10
7.944253564121893
 20
13.34660802189341
 30
0.0
  0
ENDBLK
  5
E7
330
29
100
AcDbEntity
  8
0
100
AcDbBlockEnd
  0
BLOCK
  5
E8
330
2A
100
AcDbEntity
  8
0
100
AcDbBlockBegin
  2
*D8
 70
     1
 10
0.0
 20
0.0
 30
0.0
  3
*D8
  1

  0
LINE
  5
E9
330
2A
100
AcDbEntity
  8
0
  6
ByBlock
 62
     0
100
AcDbLine
 10
7.944253564121893
 20
12.83509572679166
 30
0.0
 11
7.944253564121893
 21
13.53260802189341
 31
0.0
  0
LINE
  5
EA
330
2A
100
AcDbEntity
  8
0
  6
ByBlock
 62
     0
100
AcDbLine
 10
11.09425356412189
 20
12.83509572679166
 30
0.0
 11
11.09425356412189
 21
13.53260802189341
 31
0.0
  0
LINE
  5
EB
330
2A
100
AcDbEntity
  8
0
  6
ByBlock
 62
     0
100
AcDbLine
 10
8.304253564121893
 20
13.34660802189341
 30
0.0
 11
9.011128564121893
 21
13.34660802189341
 31
0.0
  0
LINE
  5
EC
330
2A
100
AcDbEntity
  8
0
  6
ByBlock
 62
     0
100
AcDbLine
 10
10.73425356412189
 20
13.34660802189341
 30
0.0
 11
10.02737856412189
 21
13.34660802189341
 31
0.0
  0
SOLID
  5
ED
330
2A
100
AcDbEntity
  8
0
  6
ByBlock
 62
     0
100
AcDbTrace
 10
8.304253564121893
 20
13.40660802189341
 30
0.0
 11
8.304253564121893
 21
13.28660802189341
 31
0.0
 12
7.944253564121893
 22
13.34660802189341
 32
0.0
 13
7.944253564121893
 23
13.34660802189341
 33
0.0
  0
SOLID
  5
EE
330
2A
100
AcDbEntity
  8
0
  6
ByBlock
 62
     0
100
AcDbTrace
 10
10.73425356412189
 20
13.40660802189341
 30
0.0
 11
10.73425356412189
 21
13.28660802189341
 31
0.0
 12
11.09425356412189
 22
13.34660802189341
 32
0.0
 13
11.09425356412189
 23
13.34660802189341
 33
0.0
  0
TEXT
  5
EF
330
2A
100
AcDbEntity
  8
0
  6
ByBlock
 62
     0
100
AcDbText
 10
9.191128564121893
 20
13.22160802189341
 30
0.0
 40
0.25
  1
3.150
 41
0.75
  7
TXT
 72
     1
 11
9.519253564121893
 21
13.34660802189341
 31
0.0
100
AcDbText
 73
     2
  0
POINT
  5
F0
330
2A
100
AcDbEntity
  8
DEFPOINTS
  6
ByBlock
 62
     0
100
AcDbPoint
 10
7.944253564121893
 20
12.70909572679166
 30
0.0
  0
POINT
  5
F1
330
2A
100
AcDbEntity
  8
DEFPOINTS
  6
ByBlock
 62
     0
100
AcDbPoint
 10
11.09425356412189
 20
12.70909572679166
 30
0.0
  0
POINT
  5
F2
330
2A
100
AcDbEntity
  8
DEFPOINTS
  6
ByBlock
 62
     0
100
AcDbPoint
 10
11.09425356412189
 20
13.34660802189341
 30
0.0
  0
ENDBLK
  5
F3
330
2A
100
AcDbEntity
  8
0
100
AcDbBlockEnd
  0
BLOCK
  5
F4
330
2B
100
AcDbEntity
  8
0
100
AcDbBlockBegin
  2
*D9
 70
     1
 10
0.0
 20
0.0
 30
0.0
  3
*D9
  1

  0
LINE
  5
F5
330
2B
100
AcDbEntity
  8
0
  6
ByBlock
 62
     0
100
AcDbLine
 10
8.589314106041349
 20
12.05009572679166
 30
0.0
 11
8.704021415742559
 21
12.05009572679166
 31
0.0
  0
LINE
  5
F6
330
2B
100
AcDbEntity
  8
0
  6
ByBlock
 62
     0
100
AcDbLine
 10
8.589314106041353
 20
18.29009572679167
 30
0.0
 11
8.704021415742559
 21
18.29009572679167
 31
0.0
  0
LINE
  5
F7
330
2B
100
AcDbEntity
  8
0
  6
ByBlock
 62
     0
100
AcDbLine
 10
8.518021415742559
 20
12.41009572679167
 30
0.0
 11
8.518021415742559
 21
14.86509572679167
 31
0.0
  0
LINE
  5
F8
330
2B
100
AcDbEntity
  8
0
  6
ByBlock
 62
     0
100
AcDbLine
 10
8.518021415742559
 20
17.93009572679167
 30
0.0
 11
8.518021415742559
 21
15.47509572679167
 31
0.0
  0
SOLID
  5
F9
330
2B
100
AcDbEntity
  8
0
  6
ByBlock
 62
     0
100
AcDbTrace
 10
8.458021415742559
 20
12.41009572679167
 30
0.0
 11
8.57802141574256
 21
12.41009572679167
 31
0.0
 12
8.518021415742559
 22
12.05009572679166
 32
0.0
 13
8.518021415742559
 23
12.05009572679166
 33
0.0
  0
SOLID
  5
FA
330
2B
100
AcDbEntity
  8
0
  6
ByBlock
 62
     0
100
AcDbTrace
 10
8.458021415742559
 20
17.93009572679167
 30
0.0
 11
8.57802141574256
 21
17.93009572679167
 31
0.0
 12
8.518021415742559
 22
18.29009572679167
 32
0.0
 13
8.518021415742559
 23
18.29009572679167
 33
0.0
  0
TEXT
  5
FB
330
2B
100
AcDbEntity
  8
0
  6
ByBlock
 62
     0
100
AcDbText
 10
8.158646415742559
 20
15.04509572679166
 30
0.0
 40
0.25
  1
6.240
 41
0.75
  7
TXT
 72
     1
 11
8.518021415742559
 21
15.17009572679167
 31
0.0
100
AcDbText
 73
     2
  0
POINT
  5
FC
330
2B
100
AcDbEntity
  8
DEFPOINTS
  6
ByBlock
 62
     0
100
AcDbPoint
 10
8.46331410604135
 20
12.05009572679166
 30
0.0
  0
POINT
  5
FD
330
2B
100
AcDbEntity
  8
DEFPOINTS
  6
ByBlock
 62
     0
100
AcDbPoint
 10
8.463314106041353
 20
18.29009572679167
 30
0.0
  0
POINT
  5
FE
330
2B
100
AcDbEntity
  8
DEFPOINTS
  6
ByBlock
 62
     0
100
AcDbPoint
 10
8.518021415742559
 20
18.29009572679167
 30
0.0
  0
ENDBLK
  5
FF
330
2B
100
AcDbEntity
  8
0
100
AcDbBlockEnd
  0
BLOCK
  5
100
330
2C
100
AcDbEntity
  8
0
100
AcDbBlockBegin
  2
*D10
 70
     1
 10
0.0
 20
0.0
 30
0.0
  3
*D10
  1

  0
LINE
  5
101
330
2C
100
AcDbEntity
  8
0
  6
ByBlock
 62
     0
100
AcDbLine
 10
2.787253564121897
 20
14.52251291107598
 30
0.0
 11
2.787253564121897
 21
14.69236788648611
 31
0.0
  0
LINE
  5
102
330
2C
100
AcDbEntity
  8
0
  6
ByBlock
 62
     0
100
AcDbLine
 10
11.40925356412189
 20
14.52251291107589
 30
0.0
 11
11.40925356412189
 21
14.69236788648611
 31
0.0
  0
LINE
  5
103
330
2C
100
AcDbEntity
  8
0
  6
ByBlock
 62
     0
100
AcDbLine
 10
3.147253564121897
 20
14.50636788648612
 30
0.0
 11
6.543253564121896
 21
14.50636788648612
 31
0.0
  0
LINE
  5
104
330
2C
100
AcDbEntity
  8
0
  6
ByBlock
 62
     0
100
AcDbLine
 10
11.04925356412189
 20
14.50636788648612
 30
0.0
 11
7.653253564121896
 21
14.50636788648612
 31
0.0
  0
SOLID
  5
105
330
2C
100
AcDbEntity
  8
0
  6
ByBlock
 62
     0
100
AcDbTrace
 10
3.147253564121897
 20
14.56636788648611
 30
0.0
 11
3.147253564121897
 21
14.44636788648612
 31
0.0
 12
2.787253564121897
 22
14.50636788648612
 32
0.0
 13
2.787253564121897
 23
14.50636788648612
 33
0.0
  0
SOLID
  5
106
330
2C
100
AcDbEntity
  8
0
  6
ByBlock
 62
     0
100
AcDbTrace
 10
11.04925356412189
 20
14.56636788648611
 30
0.0
 11
11.04925356412189
 21
14.44636788648612
 31
0.0
 12
11.40925356412189
 22
14.50636788648612
 32
0.0
 13
11.40925356412189
 23
14.50636788648612
 33
0.0
  0
TEXT
  5
107
330
2C
100
AcDbEntity
  8
0
  6
ByBlock
 62
     0
100
AcDbText
 10
6.723253564121896
 20
14.38136788648612
 30
0.0
 40
0.25
  1
8.622
 41
0.75
  7
TXT
 72
     1
 11
7.098253564121896
 21
14.50636788648612
 31
0.0
100
AcDbText
 73
     2
  0
POINT
  5
108
330
2C
100
AcDbEntity
  8
DEFPOINTS
  6
ByBlock
 62
     0
100
AcDbPoint
 10
2.787253564121897
 20
14.39651291107598
 30
0.0
  0
POINT
  5
109
330
2C
100
AcDbEntity
  8
DEFPOINTS
  6
ByBlock
 62
     0
100
AcDbPoint
 10
11.40925356412189
 20
14.39651291107589
 30
0.0
  0
POINT
  5
10A
330
2C
100
AcDbEntity
  8
DEFPOINTS
  6
ByBlock
 62
     0
100
AcDbPoint
 10
11.40925356412189
 20
14.50636788648612
 30
0.0
  0
ENDBLK
  5
10B
330
2C
100
AcDbEntity
  8
0
100
AcDbBlockEnd
  0
BLOCK
  5
10C
330
2D
100
AcDbEntity
  8
0
100
AcDbBlockBegin
  2
*D11
 70
     1
 10
0.0
 20
0.0
 30
0.0
  3
*D11
  1

  0
LINE
  5
10D
330
2D
100
AcDbEntity
  8
0
  6
ByBlock
 62
     0
100
AcDbLine
 10
2.968253564121904
 20
17.17309572679166
 30
0.0
 11
4.487727703889307
 21
17.17309572679166
 31
0.0
  0
LINE
  5
10E
330
2D
100
AcDbEntity
  8
0
  6
ByBlock
 62
     0
100
AcDbLine
 10
2.968253564121904
 20
17.10309572679167
 30
0.0
 11
4.487727703889307
 21
17.10309572679167
 31
0.0
  0
LINE
  5
10F
330
2D
100
AcDbEntity
  8
0
  6
ByBlock
 62
     0
100
AcDbLine
 10
4.301727703889307
 20
17.53309572679166
 30
0.0
 11
4.301727703889307
 21
17.89309572679166
 31
0.0
  0
LINE
  5
110
330
2D
100
AcDbEntity
  8
0
  6
ByBlock
 62
     0
100
AcDbLine
 10
4.301727703889307
 20
16.74309572679167
 30
0.0
 11
4.301727703889307
 21
16.38309572679167
 31
0.0
  0
LINE
  5
111
330
2D
100
AcDbEntity
  8
0
  6
ByBlock
 62
     0
100
AcDbLine
 10
4.301727703889307
 20
16.38309572679167
 30
0.0
 11
3.941727703889307
 21
16.38309572679167
 31
0.0
  0
SOLID
  5
112
330
2D
100
AcDbEntity
  8
0
  6
ByBlock
 62
     0
100
AcDbTrace
 10
4.241727703889307
 20
17.53309572679166
 30
0.0
 11
4.361727703889306
 21
17.53309572679166
 31
0.0
 12
4.301727703889307
 22
17.17309572679166
 32
0.0
 13
4.301727703889307
 23
17.17309572679166
 33
0.0
  0
SOLID
  5
113
330
2D
100
AcDbEntity
  8
0
  6
ByBlock
 62
     0
100
AcDbTrace
 10
4.241727703889307
 20
16.74309572679167
 30
0.0
 11
4.361727703889306
 21
16.74309572679167
 31
0.0
 12
4.301727703889307
 22
17.10309572679167
 32
0.0
 13
4.301727703889307
 23
17.10309572679167
 33
0.0
  0
TEXT
  5
114
330
2D
100
AcDbEntity
  8
0
  6
ByBlock
 62
     0
100
AcDbText
 10
3.105477703889307
 20
16.25809572679167
 30
0.0
 40
0.25
  1
0.070
 41
0.75
  7
TXT
 72
     1
 11
3.433602703889307
 21
16.38309572679167
 31
0.0
100
AcDbText
 73
     2
  0
POINT
  5
115
330
2D
100
AcDbEntity
  8
DEFPOINTS
  6
ByBlock
 62
     0
100
AcDbPoint
 10
2.842253564121904
 20
17.17309572679166
 30
0.0
  0
POINT
  5
116
330
2D
100
AcDbEntity
  8
DEFPOINTS
  6
ByBlock
 62
     0
100
AcDbPoint
 10
2.842253564121904
 20
17.10309572679167
 30
0.0
  0
POINT
  5
117
330
2D
100
AcDbEntity
  8
DEFPOINTS
  6
ByBlock
 62
     0
100
AcDbPoint
 10
4.301727703889307
 20
17.10309572679167
 30
0.0
  0
ENDBLK
  5
118
330
2D
100
AcDbEntity
  8
0
100
AcDbBlockEnd
  0
BLOCK
  5
119
330
2E
100
AcDbEntity
  8
0
100
AcDbBlockBegin
  2
*D12
 70
     1
 10
0.0
 20
0.0
 30
0.0
  3
*D12
  1

  0
LINE
  5
11A
330
2E
100
AcDbEntity
  8
0
  6
ByBlock
 62
     0
100
AcDbLine
 10
5.374253564121896
 20
17.92609572679166
 30
0.0
 11
5.892082391106558
 21
17.92609572679166
 31
0.0
  0
LINE
  5
11B
330
2E
100
AcDbEntity
  8
0
  6
ByBlock
 62
     0
100
AcDbLine
 10
3.200645084058694
 20
15.17009572679166
 30
0.0
 11
5.892082391106558
 21
15.17009572679166
 31
0.0
  0
LINE
  5
11C
330
2E
100
AcDbEntity
  8
0
  6
ByBlock
 62
     0
100
AcDbLine
 10
5.706082391106559
 20
17.56609572679166
 30
0.0
 11
5.706082391106559
 21
16.85309572679166
 31
0.0
  0
LINE
  5
11D
330
2E
100
AcDbEntity
  8
0
  6
ByBlock
 62
     0
100
AcDbLine
 10
5.706082391106559
 20
15.53009572679166
 30
0.0
 11
5.706082391106559
 21
16.24309572679166
 31
0.0
  0
SOLID
  5
11E
330
2E
100
AcDbEntity
  8
0
  6
ByBlock
 62
     0
100
AcDbTrace
 10
5.646082391106559
 20
17.56609572679166
 30
0.0
 11
5.766082391106558
 21
17.56609572679166
 31
0.0
 12
5.706082391106559
 22
17.92609572679166
 32
0.0
 13
5.706082391106559
 23
17.92609572679166
 33
0.0
  0
SOLID
  5
11F
330
2E
100
AcDbEntity
  8
0
  6
ByBlock
 62
     0
100
AcDbTrace
 10
5.646082391106559
 20
15.53009572679166
 30
0.0
 11
5.766082391106558
 21
15.53009572679166
 31
0.0
 12
5.706082391106559
 22
15.17009572679166
 32
0.0
 13
5.706082391106559
 23
15.17009572679166
 33
0.0
  0
TEXT
  5
120
330
2E
100
AcDbEntity
  8
0
  6
ByBlock
 62
     0
100
AcDbText
 10
5.331082391106559
 20
16.42309572679166
 30
0.0
 40
0.25
  1
2.756
 41
0.75
  7
TXT
 72
     1
 11
5.706082391106559
 21
16.54809572679166
 31
0.0
100
AcDbText
 73
     2
  0
POINT
  5
121
330
2E
100
AcDbEntity
  8
DEFPOINTS
  6
ByBlock
 62
     0
100
AcDbPoint
 10
5.248253564121895
 20
17.92609572679166
 30
0.0
  0
POINT
  5
122
330
2E
100
AcDbEntity
  8
DEFPOINTS
  6
ByBlock
 62
     0
100
AcDbPoint
 10
3.074645084058694
 20
15.17009572679166
 30
0.0
  0
POINT
  5
123
330
2E
100
AcDbEntity
  8
DEFPOINTS
  6
ByBlock
 62
     0
100
AcDbPoint
 10
5.706082391106559
 20
15.17009572679166
 30
0.0
  0
ENDBLK
  5
124
330
2E
100
AcDbEntity
  8
0
100
AcDbBlockEnd
  0
BLOCK
  5
125
330
2F
100
AcDbEntity
  8
0
100
AcDbBlockBegin
  2
*D13
 70
     1
 10
0.0
 20
0.0
 30
0.0
  3
*D13
  1

  0
LINE
  5
126
330
2F
100
AcDbEntity
  8
0
  6
ByBlock
 62
     0
100
AcDbLine
 10
3.200645084058694
 20
15.17009572679166
 30
0.0
 11
4.645159185139338
 21
15.17009572679166
 31
0.0
  0
LINE
  5
127
330
2F
100
AcDbEntity
  8
0
  6
ByBlock
 62
     0
100
AcDbLine
 10
5.122253564121895
 20
12.41409572679166
 30
0.0
 11
4.273159185139338
 21
12.41409572679166
 31
0.0
  0
LINE
  5
128
330
2F
100
AcDbEntity
  8
0
  6
ByBlock
 62
     0
100
AcDbLine
 10
4.459159185139338
 20
14.81009572679166
 30
0.0
 11
4.459159185139338
 21
14.09709572679166
 31
0.0
  0
LINE
  5
129
330
2F
100
AcDbEntity
  8
0
  6
ByBlock
 62
     0
100
AcDbLine
 10
4.459159185139338
 20
12.77409572679166
 30
0.0
 11
4.459159185139338
 21
13.48709572679166
 31
0.0
  0
SOLID
  5
12A
330
2F
100
AcDbEntity
  8
0
  6
ByBlock
 62
     0
100
AcDbTrace
 10
4.399159185139338
 20
14.81009572679166
 30
0.0
 11
4.519159185139337
 21
14.81009572679166
 31
0.0
 12
4.459159185139338
 22
15.17009572679166
 32
0.0
 13
4.459159185139338
 23
15.17009572679166
 33
0.0
  0
SOLID
  5
12B
330
2F
100
AcDbEntity
  8
0
  6
ByBlock
 62
     0
100
AcDbTrace
 10
4.399159185139338
 20
12.77409572679166
 30
0.0
 11
4.519159185139337
 21
12.77409572679166
 31
0.0
 12
4.459159185139338
 22
12.41409572679166
 32
0.0
 13
4.459159185139338
 23
12.41409572679166
 33
0.0
  0
TEXT
  5
12C
330
2F
100
AcDbEntity
  8
0
  6
ByBlock
 62
     0
100
AcDbText
 10
4.084159185139338
 20
13.66709572679166
 30
0.0
 40
0.25
  1
2.756
 41
0.75
  7
TXT
 72
     1
 11
4.459159185139338
 21
13.79209572679166
 31
0.0
100
AcDbText
 73
     2
  0
POINT
  5
12D
330
2F
100
AcDbEntity
  8
DEFPOINTS
  6
ByBlock
 62
     0
100
AcDbPoint
 10
3.074645084058694
 20
15.17009572679166
 30
0.0
  0
POINT
  5
12E
330
2F
100
AcDbEntity
  8
DEFPOINTS
  6
ByBlock
 62
     0
100
AcDbPoint
 10
5.248253564121895
 20
12.41409572679166
 30
0.0
  0
POINT
  5
12F
330
2F
100
AcDbEntity
  8
DEFPOINTS
  6
ByBlock
 62
     0
100
AcDbPoint
 10
4.459159185139338
 20
12.41409572679166
 30
0.0
  0
ENDBLK
  5
130
330
2F
100
AcDbEntity
  8
0
100
AcDbBlockEnd
  0
BLOCK
  5
131
330
30
100
AcDbEntity
  8
0
100
AcDbBlockBegin
  2
*D14
 70
     1
 10
0.0
 20
0.0
 30
0.0
  3
*D14
  1

  0
LINE
  5
132
330
30
100
AcDbEntity
  8
0
  6
ByBlock
 62
     0
100
AcDbLine
 10
11.22025356412188
 20
17.63109572679167
 30
0.0
 11
12.37460674035071
 21
17.63109572679167
 31
0.0
  0
LINE
  5
133
330
30
100
AcDbEntity
  8
0
  6
ByBlock
 62
     0
100
AcDbLine
 10
11.65425356412189
 20
15.17009572679167
 30
0.0
 11
12.37460674035071
 21
15.17009572679167
 31
0.0
  0
LINE
  5
134
330
30
100
AcDbEntity
  8
0
  6
ByBlock
 62
     0
100
AcDbLine
 10
12.18860674035071
 20
17.27109572679167
 30
0.0
 11
12.18860674035071
 21
16.70559572679167
 31
0.0
  0
LINE
  5
135
330
30
100
AcDbEntity
  8
0
  6
ByBlock
 62
     0
100
AcDbLine
 10
12.18860674035071
 20
15.53009572679166
 30
0.0
 11
12.18860674035071
 21
16.09559572679167
 31
0.0
  0
SOLID
  5
136
330
30
100
AcDbEntity
  8
0
  6
ByBlock
 62
     0
100
AcDbTrace
 10
12.12860674035071
 20
17.27109572679167
 30
0.0
 11
12.24860674035071
 21
17.27109572679167
 31
0.0
 12
12.18860674035071
 22
17.63109572679167
 32
0.0
 13
12.18860674035071
 23
17.63109572679167
 33
0.0
  0
SOLID
  5
137
330
30
100
AcDbEntity
  8
0
  6
ByBlock
 62
     0
100
AcDbTrace
 10
12.12860674035071
 20
15.53009572679166
 30
0.0
 11
12.24860674035071
 21
15.53009572679166
 31
0.0
 12
12.18860674035071
 22
15.17009572679167
 32
0.0
 13
12.18860674035071
 23
15.17009572679167
 33
0.0
  0
TEXT
  5
138
330
30
100
AcDbEntity
  8
0
  6
ByBlock
 62
     0
100
AcDbText
 10
11.84485674035071
 20
16.27559572679167
 30
0.0
 40
0.25
  1
2.461
 41
0.75
  7
TXT
 72
     1
 11
12.18860674035071
 21
16.40059572679167
 31
0.0
100
AcDbText
 73
     2
  0
POINT
  5
139
330
30
100
AcDbEntity
  8
DEFPOINTS
  6
ByBlock
 62
     0
100
AcDbPoint
 10
11.09425356412188
 20
17.63109572679167
 30
0.0
  0
POINT
  5
13A
330
30
100
AcDbEntity
  8
DEFPOINTS
  6
ByBlock
 62
     0
100
AcDbPoint
 10
11.52825356412189
 20
15.17009572679167
 30
0.0
  0
POINT
  5
13B
330
30
100
AcDbEntity
  8
DEFPOINTS
  6
ByBlock
 62
     0
100
AcDbPoint
 10
12.18860674035071
 20
15.17009572679167
 30
0.0
  0
ENDBLK
  5
13C
330
30
100
AcDbEntity
  8
0
100
AcDbBlockEnd
  0
BLOCK
  5
13D
330
31
100
AcDbEntity
  8
0
100
AcDbBlockBegin
  2
*D15
 70
     1
 10
0.0
 20
0.0
 30
0.0
  3
*D15
  1

  0
LINE
  5
13E
330
31
100
AcDbEntity
  8
0
  6
ByBlock
 62
     0
100
AcDbLine
 10
11.65425356412189
 20
15.17009572679167
 30
0.0
 11
12.37460674035071
 21
15.17009572679167
 31
0.0
  0
LINE
  5
13F
330
31
100
AcDbEntity
  8
0
  6
ByBlock
 62
     0
100
AcDbLine
 10
11.22025356412188
 20
12.70909572679166
 30
0.0
 11
12.37460674035071
 21
12.70909572679166
 31
0.0
  0
LINE
  5
140
330
31
100
AcDbEntity
  8
0
  6
ByBlock
 62
     0
100
AcDbLine
 10
12.18860674035071
 20
14.81009572679166
 30
0.0
 11
12.18860674035071
 21
14.24459572679166
 31
0.0
  0
LINE
  5
141
330
31
100
AcDbEntity
  8
0
  6
ByBlock
 62
     0
100
AcDbLine
 10
12.18860674035071
 20
13.06909572679166
 30
0.0
 11
12.18860674035071
 21
13.63459572679166
 31
0.0
  0
SOLID
  5
142
330
31
100
AcDbEntity
  8
0
  6
ByBlock
 62
     0
100
AcDbTrace
 10
12.12860674035071
 20
14.81009572679166
 30
0.0
 11
12.24860674035071
 21
14.81009572679166
 31
0.0
 12
12.18860674035071
 22
15.17009572679167
 32
0.0
 13
12.18860674035071
 23
15.17009572679167
 33
0.0
  0
SOLID
  5
143
330
31
100
AcDbEntity
  8
0
  6
ByBlock
 62
     0
100
AcDbTrace
 10
12.12860674035071
 20
13.06909572679166
 30
0.0
 11
12.24860674035071
 21
13.06909572679166
 31
0.0
 12
12.18860674035071
 22
12.70909572679166
 32
0.0
 13
12.18860674035071
 23
12.70909572679166
 33
0.0
  0
TEXT
  5
144
330
31
100
AcDbEntity
  8
0
  6
ByBlock
 62
     0
100
AcDbText
 10
11.84485674035071
 20
13.81459572679166
 30
0.0
 40
0.25
  1
2.461
 41
0.75
  7
TXT
 72
     1
 11
12.18860674035071
 21
13.93959572679166
 31
0.0
100
AcDbText
 73
     2
  0
POINT
  5
145
330
31
100
AcDbEntity
  8
DEFPOINTS
  6
ByBlock
 62
     0
100
AcDbPoint
 10
11.52825356412189
 20
15.17009572679167
 30
0.0
  0
POINT
  5
146
330
31
100
AcDbEntity
  8
DEFPOINTS
  6
ByBlock
 62
     0
100
AcDbPoint
 10
11.09425356412188
 20
12.70909572679166
 30
0.0
  0
POINT
  5
147
330
31
100
AcDbEntity
  8
DEFPOINTS
  6
ByBlock
 62
     0
100
AcDbPoint
 10
12.18860674035071
 20
12.70909572679166
 30
0.0
  0
ENDBLK
  5
148
330
31
100
AcDbEntity
  8
0
100
AcDbBlockEnd
  0
BLOCK
  5
149
330
32
100
AcDbEntity
  8
0
100
AcDbBlockBegin
  2
*D16
 70
     1
 10
0.0
 20
0.0
 30
0.0
  3
*D16
  1

  0
LINE
  5
14A
330
32
100
AcDbEntity
  8
0
  6
ByBlock
 62
     0
100
AcDbLine
 10
11.52825356412189
 20
18.54609572679166
 30
0.0
 11
11.52825356412189
 21
19.181667570366
 31
0.0
  0
LINE
  5
14B
330
32
100
AcDbEntity
  8
0
  6
ByBlock
 62
     0
100
AcDbLine
 10
11.1712535641219
 20
18.15109572679167
 30
0.0
 11
11.1712535641219
 21
19.181667570366
 31
0.0
  0
LINE
  5
14C
330
32
100
AcDbEntity
  8
0
  6
ByBlock
 62
     0
100
AcDbLine
 10
11.88825356412189
 20
18.995667570366
 30
0.0
 11
12.24825356412189
 21
18.995667570366
 31
0.0
  0
LINE
  5
14D
330
32
100
AcDbEntity
  8
0
  6
ByBlock
 62
     0
100
AcDbLine
 10
10.8112535641219
 20
18.995667570366
 30
0.0
 11
10.4512535641219
 21
18.995667570366
 31
0.0
  0
SOLID
  5
14E
330
32
100
AcDbEntity
  8
0
  6
ByBlock
 62
     0
100
AcDbTrace
 10
11.88825356412189
 20
19.055667570366
 30
0.0
 11
11.88825356412189
 21
18.93566757036601
 31
0.0
 12
11.52825356412189
 22
18.995667570366
 32
0.0
 13
11.52825356412189
 23
18.995667570366
 33
0.0
  0
SOLID
  5
14F
330
32
100
AcDbEntity
  8
0
  6
ByBlock
 62
     0
100
AcDbTrace
 10
10.8112535641219
 20
19.055667570366
 30
0.0
 11
10.8112535641219
 21
18.93566757036601
 31
0.0
 12
11.1712535641219
 22
18.995667570366
 32
0.0
 13
11.1712535641219
 23
18.995667570366
 33
0.0
  0
TEXT
  5
150
330
32
100
AcDbEntity
  8
0
  6
ByBlock
 62
     0
100
AcDbText
 10
9.552503564121906
 20
18.87066757036601
 30
0.0
 40
0.25
  1
0.357
 41
0.75
  7
TXT
 72
     1
 11
9.911878564121906
 21
18.995667570366
 31
0.0
100
AcDbText
 73
     2
  0
POINT
  5
151
330
32
100
AcDbEntity
  8
DEFPOINTS
  6
ByBlock
 62
     0
100
AcDbPoint
 10
11.52825356412189
 20
18.42009572679166
 30
0.0
  0
POINT
  5
152
330
32
100
AcDbEntity
  8
DEFPOINTS
  6
ByBlock
 62
     0
100
AcDbPoint
 10
11.1712535641219
 20
18.02509572679166
 30
0.0
  0
POINT
  5
153
330
32
100
AcDbEntity
  8
DEFPOINTS
  6
ByBlock
 62
     0
100
AcDbPoint
 10
11.1712535641219
 20
18.995667570366
 30
0.0
  0
ENDBLK
  5
154
330
32
100
AcDbEntity
  8
0
100
AcDbBlockEnd
  0
BLOCK
  5
155
330
33
100
AcDbEntity
  8
0
100
AcDbBlockBegin
  2
*D17
 70
     1
 10
0.0
 20
0.0
 30
0.0
  3
*D17
  1

  0
LINE
  5
156
330
33
100
AcDbEntity
  8
0
  6
ByBlock
 62
     0
100
AcDbLine
 10
2.89925356412189
 20
18.02509572679166
 30
0.0
 11
1.391494459683947
 21
18.02509572679166
 31
0.0
  0
LINE
  5
157
330
33
100
AcDbEntity
  8
0
  6
ByBlock
 62
     0
100
AcDbLine
 10
2.542253564121904
 20
18.42009572679166
 30
0.0
 11
1.391494459683947
 21
18.42009572679166
 31
0.0
  0
LINE
  5
158
330
33
100
AcDbEntity
  8
0
  6
ByBlock
 62
     0
100
AcDbLine
 10
1.577494459683947
 20
17.66509572679167
 30
0.0
 11
1.577494459683947
 21
17.30509572679167
 31
0.0
  0
LINE
  5
159
330
33
100
AcDbEntity
  8
0
  6
ByBlock
 62
     0
100
AcDbLine
 10
1.577494459683947
 20
18.78009572679166
 30
0.0
 11
1.577494459683947
 21
19.14009572679166
 31
0.0
  0
SOLID
  5
15A
330
33
100
AcDbEntity
  8
0
  6
ByBlock
 62
     0
100
AcDbTrace
 10
1.517494459683947
 20
17.66509572679167
 30
0.0
 11
1.637494459683947
 21
17.66509572679167
 31
0.0
 12
1.577494459683947
 22
18.02509572679166
 32
0.0
 13
1.577494459683947
 23
18.02509572679166
 33
0.0
  0
SOLID
  5
15B
330
33
100
AcDbEntity
  8
0
  6
ByBlock
 62
     0
100
AcDbTrace
 10
1.517494459683947
 20
18.78009572679166
 30
0.0
 11
1.637494459683947
 21
18.78009572679166
 31
0.0
 12
1.577494459683947
 22
18.42009572679166
 32
0.0
 13
1.577494459683947
 23
18.42009572679166
 33
0.0
  0
TEXT
  5
15C
330
33
100
AcDbEntity
  8
0
  6
ByBlock
 62
     0
100
AcDbText
 10
1.218119459683947
 20
18.09759572679166
 30
0.0
 40
0.25
  1
0.395
 41
0.75
  7
TXT
 72
     1
 11
1.577494459683947
 21
18.22259572679166
 31
0.0
100
AcDbText
 73
     2
  0
POINT
  5
15D
330
33
100
AcDbEntity
  8
DEFPOINTS
  6
ByBlock
 62
     0
100
AcDbPoint
 10
3.025253564121889
 20
18.02509572679166
 30
0.0
  0
POINT
  5
15E
330
33
100
AcDbEntity
  8
DEFPOINTS
  6
ByBlock
 62
     0
100
AcDbPoint
 10
2.668253564121904
 20
18.42009572679166
 30
0.0
  0
POINT
  5
15F
330
33
100
AcDbEntity
  8
DEFPOINTS
  6
ByBlock
 62
     0
100
AcDbPoint
 10
1.577494459683947
 20
18.42009572679166
 30
0.0
  0
ENDBLK
  5
160
330
33
100
AcDbEntity
  8
0
100
AcDbBlockEnd
  0
BLOCK
  5
161
330
34
100
AcDbEntity
  8
0
100
AcDbBlockBegin
  2
*D18
 70
     1
 10
0.0
 20
0.0
 30
0.0
  3
*D18
  1

  0
LINE
  5
162
330
34
100
AcDbEntity
  8
0
  6
ByBlock
 62
     0
100
AcDbLine
 10
2.89925356412189
 20
12.31509572679166
 30
0.0
 11
1.391494459683947
 21
12.31509572679166
 31
0.0
  0
LINE
  5
163
330
34
100
AcDbEntity
  8
0
  6
ByBlock
 62
     0
100
AcDbLine
 10
2.542253564121904
 20
11.92009572679166
 30
0.0
 11
1.391494459683947
 21
11.92009572679166
 31
0.0
  0
LINE
  5
164
330
34
100
AcDbEntity
  8
0
  6
ByBlock
 62
     0
100
AcDbLine
 10
1.577494459683947
 20
12.67509572679166
 30
0.0
 11
1.577494459683947
 21
13.03509572679166
 31
0.0
  0
LINE
  5
165
330
34
100
AcDbEntity
  8
0
  6
ByBlock
 62
     0
100
AcDbLine
 10
1.577494459683947
 20
11.56009572679166
 30
0.0
 11
1.577494459683947
 21
11.20009572679166
 31
0.0
  0
SOLID
  5
166
330
34
100
AcDbEntity
  8
0
  6
ByBlock
 62
     0
100
AcDbTrace
 10
1.517494459683947
 20
12.67509572679166
 30
0.0
 11
1.637494459683947
 21
12.67509572679166
 31
0.0
 12
1.577494459683947
 22
12.31509572679166
 32
0.0
 13
1.577494459683947
 23
12.31509572679166
 33
0.0
  0
SOLID
  5
167
330
34
100
AcDbEntity
  8
0
  6
ByBlock
 62
     0
100
AcDbTrace
 10
1.517494459683947
 20
11.56009572679166
 30
0.0
 11
1.637494459683947
 21
11.56009572679166
 31
0.0
 12
1.577494459683947
 22
11.92009572679166
 32
0.0
 13
1.577494459683947
 23
11.92009572679166
 33
0.0
  0
TEXT
  5
168
330
34
100
AcDbEntity
  8
0
  6
ByBlock
 62
     0
100
AcDbText
 10
1.218119459683947
 20
11.99259572679166
 30
0.0
 40
0.25
  1
0.395
 41
0.75
  7
TXT
 72
     1
 11
1.577494459683947
 21
12.11759572679166
 31
0.0
100
AcDbText
 73
     2
  0
POINT
  5
169
330
34
100
AcDbEntity
  8
DEFPOINTS
  6
ByBlock
 62
     0
100
AcDbPoint
 10
3.025253564121889
 20
12.31509572679166
 30
0.0
  0
POINT
  5
16A
330
34
100
AcDbEntity
  8
DEFPOINTS
  6
ByBlock
 62
     0
100
AcDbPoint
 10
2.668253564121904
 20
11.92009572679166
 30
0.0
  0
POINT
  5
16B
330
34
100
AcDbEntity
  8
DEFPOINTS
  6
ByBlock
 62
     0
100
AcDbPoint
 10
1.577494459683947
 20
11.92009572679166
 30
0.0
  0
ENDBLK
  5
16C
330
34
100
AcDbEntity
  8
0
100
AcDbBlockEnd
  0
BLOCK
  5
16D
330
35
100
AcDbEntity
  8
0
100
AcDbBlockBegin
  2
*D19
 70
     1
 10
0.0
 20
0.0
 30
0.0
  3
*D19
  1

  0
LINE
  5
16E
330
35
100
AcDbEntity
  8
0
  6
ByBlock
 62
     0
100
AcDbLine
 10
14.43798013417715
 20
2.377876952714025
 30
0.0
 11
16.66314046370668
 21
2.377876952714025
 31
0.0
  0
LINE
  5
16F
330
35
100
AcDbEntity
  8
0
  6
ByBlock
 62
     0
100
AcDbLine
 10
14.43798013417715
 20
3.637876952714027
 30
0.0
 11
16.66314046370668
 21
3.637876952714027
 31
0.0
  0
LINE
  5
170
330
35
100
AcDbEntity
  8
0
  6
ByBlock
 62
     0
100
AcDbLine
 10
16.47714046370668
 20
2.017876952714025
 30
0.0
 11
16.47714046370668
 21
1.657876952714025
 31
0.0
  0
LINE
  5
171
330
35
100
AcDbEntity
  8
0
  6
ByBlock
 62
     0
100
AcDbLine
 10
16.47714046370668
 20
3.997876952714026
 30
0.0
 11
16.47714046370668
 21
4.357876952714026
 31
0.0
  0
SOLID
  5
172
330
35
100
AcDbEntity
  8
0
  6
ByBlock
 62
     0
100
AcDbTrace
 10
16.41714046370669
 20
2.017876952714025
 30
0.0
 11
16.53714046370668
 21
2.017876952714025
 31
0.0
 12
16.47714046370668
 22
2.377876952714025
 32
0.0
 13
16.47714046370668
 23
2.377876952714025
 33
0.0
  0
SOLID
  5
173
330
35
100
AcDbEntity
  8
0
  6
ByBlock
 62
     0
100
AcDbTrace
 10
16.41714046370669
 20
3.997876952714026
 30
0.0
 11
16.53714046370668
 21
3.997876952714026
 31
0.0
 12
16.47714046370668
 22
3.637876952714027
 32
0.0
 13
16.47714046370668
 23
3.637876952714027
 33
0.0
  0
TEXT
  5
174
330
35
100
AcDbEntity
  8
0
  6
ByBlock
 62
     0
100
AcDbText
 10
15.46151546370668
 20
2.882876952714026
 30
0.0
 40
0.25
  1
 EXPOSED PANEL
 41
0.75
  7
TXT
 72
     1
 11
16.83651546370668
 21
3.007876952714026
 31
0.0
100
AcDbText
 73
     2
  0
TEXT
  5
175
330
35
100
AcDbEntity
  8
0
  6
ByBlock
 62
     0
100
AcDbText
 10
14.83651546370668
 20
2.882876952714026
 30
0.0
 40
0.25
  1
1.260
 41
0.75
  7
TXT
 72
     1
 11
15.16464046370669
 21
3.007876952714026
 31
0.0
100
AcDbText
 73
     2
  0
POINT
  5
176
330
35
100
AcDbEntity
  8
DEFPOINTS
  6
ByBlock
 62
     0
100
AcDbPoint
 10
14.31198013417715
 20
2.377876952714025
 30
0.0
  0
POINT
  5
177
330
35
100
AcDbEntity
  8
DEFPOINTS
  6
ByBlock
 62
     0
100
AcDbPoint
 10
14.31198013417715
 20
3.637876952714027
 30
0.0
  0
POINT
  5
178
330
35
100
AcDbEntity
  8
DEFPOINTS
  6
ByBlock
 62
     0
100
AcDbPoint
 10
16.47714046370668
 20
3.637876952714027
 30
0.0
  0
ENDBLK
  5
179
330
35
100
AcDbEntity
  8
0
100
AcDbBlockEnd
  0
BLOCK
  5
17A
330
36
100
AcDbEntity
  8
0
100
AcDbBlockBegin
  2
*D20
 70
     1
 10
0.0
 20
0.0
 30
0.0
  3
*D20
  1

  0
LINE
  5
17B
330
36
100
AcDbEntity
  8
0
  6
ByBlock
 62
     0
100
AcDbLine
 10
17.39893321262946
 20
6.170694238410804
 30
0.0
 11
17.39893321262946
 21
5.581447570831566
 31
0.0
  0
LINE
  5
17C
330
36
100
AcDbEntity
  8
0
  6
ByBlock
 62
     0
100
AcDbLine
 10
25.90293321262945
 20
6.170694238410804
 30
0.0
 11
25.90293321262945
 21
5.581447570831566
 31
0.0
  0
LINE
  5
17D
330
36
100
AcDbEntity
  8
0
  6
ByBlock
 62
     0
100
AcDbLine
 10
17.75893321262946
 20
5.767447570831566
 30
0.0
 11
19.79905821262946
 21
5.767447570831566
 31
0.0
  0
LINE
  5
17E
330
36
100
AcDbEntity
  8
0
  6
ByBlock
 62
     0
100
AcDbLine
 10
25.54293321262946
 20
5.767447570831566
 30
0.0
 11
23.50280821262946
 21
5.767447570831566
 31
0.0
  0
SOLID
  5
17F
330
36
100
AcDbEntity
  8
0
  6
ByBlock
 62
     0
100
AcDbTrace
 10
17.75893321262946
 20
5.827447570831566
 30
0.0
 11
17.75893321262946
 21
5.707447570831567
 31
0.0
 12
17.39893321262946
 22
5.767447570831566
 32
0.0
 13
17.39893321262946
 23
5.767447570831566
 33
0.0
  0
SOLID
  5
180
330
36
100
AcDbEntity
  8
0
  6
ByBlock
 62
     0
100
AcDbTrace
 10
25.54293321262946
 20
5.827447570831566
 30
0.0
 11
25.54293321262946
 21
5.707447570831567
 31
0.0
 12
25.90293321262945
 22
5.767447570831566
 32
0.0
 13
25.90293321262945
 23
5.767447570831566
 33
0.0
  0
TEXT
  5
181
330
36
100
AcDbEntity
  8
0
  6
ByBlock
 62
     0
100
AcDbText
 10
20.66655821262946
 20
5.642447570831566
 30
0.0
 40
0.25
  1
 EXPOSED PANEL
 41
0.75
  7
TXT
 72
     1
 11
22.04155821262946
 21
5.767447570831566
 31
0.0
100
AcDbText
 73
     2
  0
TEXT
  5
182
330
36
100
AcDbEntity
  8
0
  6
ByBlock
 62
     0
100
AcDbText
 10
19.97905821262946
 20
5.642447570831566
 30
0.0
 40
0.25
  1
8.504
 41
0.75
  7
TXT
 72
     1
 11
20.33843321262946
 21
5.767447570831566
 31
0.0
100
AcDbText
 73
     2
  0
POINT
  5
183
330
36
100
AcDbEntity
  8
DEFPOINTS
  6
ByBlock
 62
     0
100
AcDbPoint
 10
17.39893321262946
 20
6.296694238410804
 30
0.0
  0
POINT
  5
184
330
36
100
AcDbEntity
  8
DEFPOINTS
  6
ByBlock
 62
     0
100
AcDbPoint
 10
25.90293321262945
 20
6.296694238410804
 30
0.0
  0
POINT
  5
185
330
36
100
AcDbEntity
  8
DEFPOINTS
  6
ByBlock
 62
     0
100
AcDbPoint
 10
25.90293321262945
 20
5.767447570831566
 30
0.0
  0
ENDBLK
  5
186
330
36
100
AcDbEntity
  8
0
100
AcDbBlockEnd
  0
BLOCK
  5
187
330
37
100
AcDbEntity
  8
0
100
AcDbBlockBegin
  2
*D21
 70
     1
 10
0.0
 20
0.0
 30
0.0
  3
*D21
  1

  0
LINE
  5
188
330
37
100
AcDbEntity
  8
0
  6
ByBlock
 62
     0
100
AcDbLine
 10
17.34093321262946
 20
7.740194238410803
 30
0.0
 11
17.34093321262946
 21
8.415722911831952
 31
0.0
  0
LINE
  5
189
330
37
100
AcDbEntity
  8
0
  6
ByBlock
 62
     0
100
AcDbLine
 10
25.96093321262945
 20
7.740194238410803
 30
0.0
 11
25.96093321262945
 21
8.415722911831952
 31
0.0
  0
LINE
  5
18A
330
37
100
AcDbEntity
  8
0
  6
ByBlock
 62
     0
100
AcDbLine
 10
17.70093321262946
 20
8.229722911831952
 30
0.0
 11
21.11155821262946
 21
8.229722911831952
 31
0.0
  0
LINE
  5
18B
330
37
100
AcDbEntity
  8
0
  6
ByBlock
 62
     0
100
AcDbLine
 10
25.60093321262945
 20
8.229722911831952
 30
0.0
 11
22.19030821262946
 21
8.229722911831952
 31
0.0
  0
SOLID
  5
18C
330
37
100
AcDbEntity
  8
0
  6
ByBlock
 62
     0
100
AcDbTrace
 10
17.70093321262946
 20
8.289722911831953
 30
0.0
 11
17.70093321262946
 21
8.169722911831952
 31
0.0
 12
17.34093321262946
 22
8.229722911831952
 32
0.0
 13
17.34093321262946
 23
8.229722911831952
 33
0.0
  0
SOLID
  5
18D
330
37
100
AcDbEntity
  8
0
  6
ByBlock
 62
     0
100
AcDbTrace
 10
25.60093321262945
 20
8.289722911831953
 30
0.0
 11
25.60093321262945
 21
8.169722911831952
 31
0.0
 12
25.96093321262945
 22
8.229722911831952
 32
0.0
 13
25.96093321262945
 23
8.229722911831952
 33
0.0
  0
TEXT
  5
18E
330
37
100
AcDbEntity
  8
0
  6
ByBlock
 62
     0
100
AcDbText
 10
21.29155821262946
 20
8.104722911831952
 30
0.0
 40
0.25
  1
8.620
 41
0.75
  7
TXT
 72
     1
 11
21.65093321262946
 21
8.229722911831952
 31
0.0
100
AcDbText
 73
     2
  0
POINT
  5
18F
330
37
100
AcDbEntity
  8
DEFPOINTS
  6
ByBlock
 62
     0
100
AcDbPoint
 10
17.34093321262946
 20
7.614194238410803
 30
0.0
  0
POINT
  5
190
330
37
100
AcDbEntity
  8
DEFPOINTS
  6
ByBlock
 62
     0
100
AcDbPoint
 10
25.96093321262945
 20
7.614194238410803
 30
0.0
  0
POINT
  5
191
330
37
100
AcDbEntity
  8
DEFPOINTS
  6
ByBlock
 62
     0
100
AcDbPoint
 10
25.96093321262945
 20
8.229722911831952
 30
0.0
  0
ENDBLK
  5
192
330
37
100
AcDbEntity
  8
0
100
AcDbBlockEnd
  0
BLOCK
  5
193
330
38
100
AcDbEntity
  8
0
100
AcDbBlockBegin
  2
*D22
 70
     1
 10
0.0
 20
0.0
 30
0.0
  3
*D22
  1

  0
LINE
  5
194
330
38
100
AcDbEntity
  8
0
  6
ByBlock
 62
     0
100
AcDbLine
 10
4.282066759971009
 20
17.12612344293008
 30
0.0
 11
4.282066759971009
 21
18.25169528650443
 31
0.0
  0
LINE
  5
195
330
38
100
AcDbEntity
  8
0
  6
ByBlock
 62
     0
100
AcDbLine
 10
13.142066759971
 20
17.11612344293008
 30
0.0
 11
13.142066759971
 21
18.25169528650443
 31
0.0
  0
LINE
  5
196
330
38
100
AcDbEntity
  8
0
  6
ByBlock
 62
     0
100
AcDbLine
 10
4.642066759971009
 20
18.06569528650443
 30
0.0
 11
8.172691759971009
 21
18.06569528650443
 31
0.0
  0
LINE
  5
197
330
38
100
AcDbEntity
  8
0
  6
ByBlock
 62
     0
100
AcDbLine
 10
12.782066759971
 20
18.06569528650443
 30
0.0
 11
9.251441759971008
 21
18.06569528650443
 31
0.0
  0
SOLID
  5
198
330
38
100
AcDbEntity
  8
0
  6
ByBlock
 62
     0
100
AcDbTrace
 10
4.642066759971009
 20
18.12569528650442
 30
0.0
 11
4.642066759971009
 21
18.00569528650443
 31
0.0
 12
4.282066759971009
 22
18.06569528650443
 32
0.0
 13
4.282066759971009
 23
18.06569528650443
 33
0.0
  0
SOLID
  5
199
330
38
100
AcDbEntity
  8
0
  6
ByBlock
 62
     0
100
AcDbTrace
 10
12.782066759971
 20
18.12569528650442
 30
0.0
 11
12.782066759971
 21
18.00569528650443
 31
0.0
 12
13.142066759971
 22
18.06569528650443
 32
0.0
 13
13.142066759971
 23
18.06569528650443
 33
0.0
  0
TEXT
  5
19A
330
38
100
AcDbEntity
  8
0
  6
ByBlock
 62
     0
100
AcDbText
 10
8.352691759971008
 20
17.94069528650442
 30
0.0
 40
0.25
  1
8.860
 41
0.75
  7
TXT
 72
     1
 11
8.712066759971008
 21
18.06569528650443
 31
0.0
100
AcDbText
 73
     2
  0
POINT
  5
19B
330
38
100
AcDbEntity
  8
DEFPOINTS
  6
ByBlock
 62
     0
100
AcDbPoint
 10
4.282066759971009
 20
17.00012344293007
 30
0.0
  0
POINT
  5
19C
330
38
100
AcDbEntity
  8
DEFPOINTS
  6
ByBlock
 62
     0
100
AcDbPoint
 10
13.142066759971
 20
16.99012344293008
 30
0.0
  0
POINT
  5
19D
330
38
100
AcDbEntity
  8
DEFPOINTS
  6
ByBlock
 62
     0
100
AcDbPoint
 10
13.142066759971
 20
18.06569528650443
 30
0.0
  0
ENDBLK
  5
19E
330
38
100
AcDbEntity
  8
0
100
AcDbBlockEnd
  0
BLOCK
  5
19F
330
39
100
AcDbEntity
  8
0
100
AcDbBlockBegin
  2
*D23
 70
     1
 10
0.0
 20
0.0
 30
0.0
  3
*D23
  1

  0
LINE
  5
1A0
330
39
100
AcDbEntity
  8
0
  6
ByBlock
 62
     0
100
AcDbLine
 10
5.012066759971008
 20
10.85812344293008
 30
0.0
 11
5.012066759971008
 21
9.863657264411042
 31
0.0
  0
LINE
  5
1A1
330
39
100
AcDbEntity
  8
0
  6
ByBlock
 62
     0
100
AcDbLine
 10
6.862066759971016
 20
10.85812344293008
 30
0.0
 11
6.862066759971016
 21
9.863657264411042
 31
0.0
  0
LINE
  5
1A2
330
39
100
AcDbEntity
  8
0
  6
ByBlock
 62
     0
100
AcDbLine
 10
4.652066759971008
 20
10.04965726441104
 30
0.0
 11
4.292066759971008
 21
10.04965726441104
 31
0.0
  0
LINE
  5
1A3
330
39
100
AcDbEntity
  8
0
  6
ByBlock
 62
     0
100
AcDbLine
 10
7.222066759971016
 20
10.04965726441104
 30
0.0
 11
7.582066759971016
 21
10.04965726441104
 31
0.0
  0
SOLID
  5
1A4
330
39
100
AcDbEntity
  8
0
  6
ByBlock
 62
     0
100
AcDbTrace
 10
4.652066759971008
 20
10.10965726441104
 30
0.0
 11
4.652066759971008
 21
9.989657264411041
 31
0.0
 12
5.012066759971008
 22
10.04965726441104
 32
0.0
 13
5.012066759971008
 23
10.04965726441104
 33
0.0
  0
SOLID
  5
1A5
330
39
100
AcDbEntity
  8
0
  6
ByBlock
 62
     0
100
AcDbTrace
 10
7.222066759971016
 20
10.10965726441104
 30
0.0
 11
7.222066759971016
 21
9.989657264411041
 31
0.0
 12
6.862066759971016
 22
10.04965726441104
 32
0.0
 13
6.862066759971016
 23
10.04965726441104
 33
0.0
  0
TEXT
  5
1A6
330
39
100
AcDbEntity
  8
0
  6
ByBlock
 62
     0
100
AcDbText
 10
5.608941759971012
 20
9.924657264411042
 30
0.0
 40
0.25
  1
1.850
 41
0.75
  7
TXT
 72
     1
 11
5.937066759971012
 21
10.04965726441104
 31
0.0
100
AcDbText
 73
     2
  0
POINT
  5
1A7
330
39
100
AcDbEntity
  8
DEFPOINTS
  6
ByBlock
 62
     0
100
AcDbPoint
 10
5.012066759971008
 20
10.98412344293008
 30
0.0
  0
POINT
  5
1A8
330
39
100
AcDbEntity
  8
DEFPOINTS
  6
ByBlock
 62
     0
100
AcDbPoint
 10
6.862066759971016
 20
10.98412344293008
 30
0.0
  0
POINT
  5
1A9
330
39
100
AcDbEntity
  8
DEFPOINTS
  6
ByBlock
 62
     0
100
AcDbPoint
 10
6.862066759971016
 20
10.04965726441104
 30
0.0
  0
ENDBLK
  5
1AA
330
39
100
AcDbEntity
  8
0
100
AcDbBlockEnd
  0
BLOCK
  5
1AB
330
3A
100
AcDbEntity
  8
0
100
AcDbBlockBegin
  2
*D24
 70
     1
 10
0.0
 20
0.0
 30
0.0
  3
*D24
  1

  0
LINE
  5
1AC
330
3A
100
AcDbEntity
  8
0
  6
ByBlock
 62
     0
100
AcDbLine
 10
6.862066759971016
 20
10.85812344293008
 30
0.0
 11
6.862066759971016
 21
9.363657264411042
 31
0.0
  0
LINE
  5
1AD
330
3A
100
AcDbEntity
  8
0
  6
ByBlock
 62
     0
100
AcDbLine
 10
8.71206675997101
 20
10.85812344293008
 30
0.0
 11
8.71206675997101
 21
9.363657264411042
 31
0.0
  0
LINE
  5
1AE
330
3A
100
AcDbEntity
  8
0
  6
ByBlock
 62
     0
100
AcDbLine
 10
6.502066759971016
 20
9.549657264411042
 30
0.0
 11
6.142066759971016
 21
9.549657264411042
 31
0.0
  0
LINE
  5
1AF
330
3A
100
AcDbEntity
  8
0
  6
ByBlock
 62
     0
100
AcDbLine
 10
9.07206675997101
 20
9.549657264411042
 30
0.0
 11
9.432066759971011
 21
9.549657264411042
 31
0.0
  0
SOLID
  5
1B0
330
3A
100
AcDbEntity
  8
0
  6
ByBlock
 62
     0
100
AcDbTrace
 10
6.502066759971016
 20
9.609657264411042
 30
0.0
 11
6.502066759971016
 21
9.489657264411041
 31
0.0
 12
6.862066759971016
 22
9.549657264411042
 32
0.0
 13
6.862066759971016
 23
9.549657264411042
 33
0.0
  0
SOLID
  5
1B1
330
3A
100
AcDbEntity
  8
0
  6
ByBlock
 62
     0
100
AcDbTrace
 10
9.07206675997101
 20
9.609657264411042
 30
0.0
 11
9.07206675997101
 21
9.489657264411041
 31
0.0
 12
8.71206675997101
 22
9.549657264411042
 32
0.0
 13
8.71206675997101
 23
9.549657264411042
 33
0.0
  0
TEXT
  5
1B2
330
3A
100
AcDbEntity
  8
0
  6
ByBlock
 62
     0
100
AcDbText
 10
7.458941759971013
 20
9.424657264411042
 30
0.0
 40
0.25
  1
1.850
 41
0.75
  7
TXT
 72
     1
 11
7.787066759971013
 21
9.549657264411042
 31
0.0
100
AcDbText
 73
     2
  0
POINT
  5
1B3
330
3A
100
AcDbEntity
  8
DEFPOINTS
  6
ByBlock
 62
     0
100
AcDbPoint
 10
6.862066759971016
 20
10.98412344293008
 30
0.0
  0
POINT
  5
1B4
330
3A
100
AcDbEntity
  8
DEFPOINTS
  6
ByBlock
 62
     0
100
AcDbPoint
 10
8.71206675997101
 20
10.98412344293008
 30
0.0
  0
POINT
  5
1B5
330
3A
100
AcDbEntity
  8
DEFPOINTS
  6
ByBlock
 62
     0
100
AcDbPoint
 10
8.71206675997101
 20
9.549657264411042
 30
0.0
  0
ENDBLK
  5
1B6
330
3A
100
AcDbEntity
  8
0
100
AcDbBlockEnd
  0
BLOCK
  5
1B7
330
3B
100
AcDbEntity
  8
0
100
AcDbBlockBegin
  2
*D25
 70
     1
 10
0.0
 20
0.0
 30
0.0
  3
*D25
  1

  0
LINE
  5
1B8
330
3B
100
AcDbEntity
  8
0
  6
ByBlock
 62
     0
100
AcDbLine
 10
8.71206675997101
 20
10.85812344293008
 30
0.0
 11
8.71206675997101
 21
8.863657264411042
 31
0.0
  0
LINE
  5
1B9
330
3B
100
AcDbEntity
  8
0
  6
ByBlock
 62
     0
100
AcDbLine
 10
10.56206675997101
 20
10.85812344293008
 30
0.0
 11
10.56206675997101
 21
8.863657264411042
 31
0.0
  0
LINE
  5
1BA
330
3B
100
AcDbEntity
  8
0
  6
ByBlock
 62
     0
100
AcDbLine
 10
8.352066759971011
 20
9.049657264411042
 30
0.0
 11
7.99206675997101
 21
9.049657264411042
 31
0.0
  0
LINE
  5
1BB
330
3B
100
AcDbEntity
  8
0
  6
ByBlock
 62
     0
100
AcDbLine
 10
10.92206675997101
 20
9.049657264411042
 30
0.0
 11
11.28206675997101
 21
9.049657264411042
 31
0.0
  0
SOLID
  5
1BC
330
3B
100
AcDbEntity
  8
0
  6
ByBlock
 62
     0
100
AcDbTrace
 10
8.352066759971011
 20
9.109657264411042
 30
0.0
 11
8.352066759971011
 21
8.989657264411041
 31
0.0
 12
8.71206675997101
 22
9.049657264411042
 32
0.0
 13
8.71206675997101
 23
9.049657264411042
 33
0.0
  0
SOLID
  5
1BD
330
3B
100
AcDbEntity
  8
0
  6
ByBlock
 62
     0
100
AcDbTrace
 10
10.92206675997101
 20
9.109657264411042
 30
0.0
 11
10.92206675997101
 21
8.989657264411041
 31
0.0
 12
10.56206675997101
 22
9.049657264411042
 32
0.0
 13
10.56206675997101
 23
9.049657264411042
 33
0.0
  0
TEXT
  5
1BE
330
3B
100
AcDbEntity
  8
0
  6
ByBlock
 62
     0
100
AcDbText
 10
9.308941759971011
 20
8.924657264411042
 30
0.0
 40
0.25
  1
1.850
 41
0.75
  7
TXT
 72
     1
 11
9.637066759971011
 21
9.049657264411042
 31
0.0
100
AcDbText
 73
     2
  0
POINT
  5
1BF
330
3B
100
AcDbEntity
  8
DEFPOINTS
  6
ByBlock
 62
     0
100
AcDbPoint
 10
8.71206675997101
 20
10.98412344293008
 30
0.0
  0
POINT
  5
1C0
330
3B
100
AcDbEntity
  8
DEFPOINTS
  6
ByBlock
 62
     0
100
AcDbPoint
 10
10.56206675997101
 20
10.98412344293008
 30
0.0
  0
POINT
  5
1C1
330
3B
100
AcDbEntity
  8
DEFPOINTS
  6
ByBlock
 62
     0
100
AcDbPoint
 10
10.56206675997101
 20
9.049657264411042
 30
0.0
  0
ENDBLK
  5
1C2
330
3B
100
AcDbEntity
  8
0
100
AcDbBlockEnd
  0
BLOCK
  5
1C3
330
3C
100
AcDbEntity
  8
0
100
AcDbBlockBegin
  2
*D26
 70
     1
 10
0.0
 20
0.0
 30
0.0
  3
*D26
  1

  0
LINE
  5
1C4
330
3C
100
AcDbEntity
  8
0
  6
ByBlock
 62
     0
100
AcDbLine
 10
10.56206675997101
 20
10.85812344293008
 30
0.0
 11
10.56206675997101
 21
8.363657264411042
 31
0.0
  0
LINE
  5
1C5
330
3C
100
AcDbEntity
  8
0
  6
ByBlock
 62
     0
100
AcDbLine
 10
12.41206675997101
 20
10.85812344293008
 30
0.0
 11
12.41206675997101
 21
8.363657264411042
 31
0.0
  0
LINE
  5
1C6
330
3C
100
AcDbEntity
  8
0
  6
ByBlock
 62
     0
100
AcDbLine
 10
10.20206675997101
 20
8.549657264411042
 30
0.0
 11
9.842066759971011
 21
8.549657264411042
 31
0.0
  0
LINE
  5
1C7
330
3C
100
AcDbEntity
  8
0
  6
ByBlock
 62
     0
100
AcDbLine
 10
12.77206675997101
 20
8.549657264411042
 30
0.0
 11
13.13206675997101
 21
8.549657264411042
 31
0.0
  0
SOLID
  5
1C8
330
3C
100
AcDbEntity
  8
0
  6
ByBlock
 62
     0
100
AcDbTrace
 10
10.20206675997101
 20
8.609657264411042
 30
0.0
 11
10.20206675997101
 21
8.489657264411041
 31
0.0
 12
10.56206675997101
 22
8.549657264411042
 32
0.0
 13
10.56206675997101
 23
8.549657264411042
 33
0.0
  0
SOLID
  5
1C9
330
3C
100
AcDbEntity
  8
0
  6
ByBlock
 62
     0
100
AcDbTrace
 10
12.77206675997101
 20
8.609657264411042
 30
0.0
 11
12.77206675997101
 21
8.489657264411041
 31
0.0
 12
12.41206675997101
 22
8.549657264411042
 32
0.0
 13
12.41206675997101
 23
8.549657264411042
 33
0.0
  0
TEXT
  5
1CA
330
3C
100
AcDbEntity
  8
0
  6
ByBlock
 62
     0
100
AcDbText
 10
11.15894175997101
 20
8.424657264411042
 30
0.0
 40
0.25
  1
1.850
 41
0.75
  7
TXT
 72
     1
 11
11.48706675997101
 21
8.549657264411042
 31
0.0
100
AcDbText
 73
     2
  0
POINT
  5
1CB
330
3C
100
AcDbEntity
  8
DEFPOINTS
  6
ByBlock
 62
     0
100
AcDbPoint
 10
10.56206675997101
 20
10.98412344293008
 30
0.0
  0
POINT
  5
1CC
330
3C
100
AcDbEntity
  8
DEFPOINTS
  6
ByBlock
 62
     0
100
AcDbPoint
 10
12.41206675997101
 20
10.98412344293008
 30
0.0
  0
POINT
  5
1CD
330
3C
100
AcDbEntity
  8
DEFPOINTS
  6
ByBlock
 62
     0
100
AcDbPoint
 10
12.41206675997101
 20
8.549657264411042
 30
0.0
  0
ENDBLK
  5
1CE
330
3C
100
AcDbEntity
  8
0
100
AcDbBlockEnd
  0
BLOCK
  5
1CF
330
3D
100
AcDbEntity
  8
0
100
AcDbBlockBegin
  2
*D27
 70
     1
 10
0.0
 20
0.0
 30
0.0
  3
*D27
  1

  0
LINE
  5
1D0
330
3D
100
AcDbEntity
  8
0
  6
ByBlock
 62
     0
100
AcDbLine
 10
5.012066759971008
 20
10.85812344293008
 30
0.0
 11
5.012066759971008
 21
7.863657264411042
 31
0.0
  0
LINE
  5
1D1
330
3D
100
AcDbEntity
  8
0
  6
ByBlock
 62
     0
100
AcDbLine
 10
12.41206675997101
 20
10.85812344293008
 30
0.0
 11
12.41206675997101
 21
7.863657264411042
 31
0.0
  0
LINE
  5
1D2
330
3D
100
AcDbEntity
  8
0
  6
ByBlock
 62
     0
100
AcDbLine
 10
5.372066759971009
 20
8.049657264411042
 30
0.0
 11
8.18831675997101
 21
8.049657264411042
 31
0.0
  0
LINE
  5
1D3
330
3D
100
AcDbEntity
  8
0
  6
ByBlock
 62
     0
100
AcDbLine
 10
12.05206675997101
 20
8.049657264411042
 30
0.0
 11
9.23581675997101
 21
8.049657264411042
 31
0.0
  0
SOLID
  5
1D4
330
3D
100
AcDbEntity
  8
0
  6
ByBlock
 62
     0
100
AcDbTrace
 10
5.372066759971009
 20
8.109657264411042
 30
0.0
 11
5.372066759971009
 21
7.989657264411042
 31
0.0
 12
5.012066759971008
 22
8.049657264411042
 32
0.0
 13
5.012066759971008
 23
8.049657264411042
 33
0.0
  0
SOLID
  5
1D5
330
3D
100
AcDbEntity
  8
0
  6
ByBlock
 62
     0
100
AcDbTrace
 10
12.05206675997101
 20
8.109657264411042
 30
0.0
 11
12.05206675997101
 21
7.989657264411042
 31
0.0
 12
12.41206675997101
 22
8.049657264411042
 32
0.0
 13
12.41206675997101
 23
8.049657264411042
 33
0.0
  0
TEXT
  5
1D6
330
3D
100
AcDbEntity
  8
0
  6
ByBlock
 62
     0
100
AcDbText
 10
8.36831675997101
 20
7.924657264411042
 30
0.0
 40
0.25
  1
7.400
 41
0.75
  7
TXT
 72
     1
 11
8.71206675997101
 21
8.049657264411042
 31
0.0
100
AcDbText
 73
     2
  0
POINT
  5
1D7
330
3D
100
AcDbEntity
  8
DEFPOINTS
  6
ByBlock
 62
     0
100
AcDbPoint
 10
5.012066759971008
 20
10.98412344293008
 30
0.0
  0
POINT
  5
1D8
330
3D
100
AcDbEntity
  8
DEFPOINTS
  6
ByBlock
 62
     0
100
AcDbPoint
 10
12.41206675997101
 20
10.98412344293008
 30
0.0
  0
POINT
  5
1D9
330
3D
100
AcDbEntity
  8
DEFPOINTS
  6
ByBlock
 62
     0
100
AcDbPoint
 10
12.41206675997101
 20
8.049657264411042
 30
0.0
  0
ENDBLK
  5
1DA
330
3D
100
AcDbEntity
  8
0
100
AcDbBlockEnd
  0
BLOCK
  5
1DB
330
3E
100
AcDbEntity
  8
0
100
AcDbBlockBegin
  2
*D28
 70
     1
 10
0.0
 20
0.0
 30
0.0
  3
*D28
  1

  0
LINE
  5
1DC
330
3E
100
AcDbEntity
  8
0
  6
ByBlock
 62
     0
100
AcDbLine
 10
5.012066759971008
 20
10.85812344293008
 30
0.0
 11
5.012066759971008
 21
7.863657264411042
 31
0.0
  0
LINE
  5
1DD
330
3E
100
AcDbEntity
  8
0
  6
ByBlock
 62
     0
100
AcDbLine
 10
4.282066759971011
 20
10.36412344293009
 30
0.0
 11
4.282066759971011
 21
7.863657264411042
 31
0.0
  0
LINE
  5
1DE
330
3E
100
AcDbEntity
  8
0
  6
ByBlock
 62
     0
100
AcDbLine
 10
5.372066759971009
 20
8.049657264411042
 30
0.0
 11
5.732066759971008
 21
8.049657264411042
 31
0.0
  0
LINE
  5
1DF
330
3E
100
AcDbEntity
  8
0
  6
ByBlock
 62
     0
100
AcDbLine
 10
3.922066759971011
 20
8.049657264411042
 30
0.0
 11
3.562066759971012
 21
8.049657264411042
 31
0.0
  0
SOLID
  5
1E0
330
3E
100
AcDbEntity
  8
0
  6
ByBlock
 62
     0
100
AcDbTrace
 10
5.372066759971009
 20
8.109657264411042
 30
0.0
 11
5.372066759971009
 21
7.989657264411042
 31
0.0
 12
5.012066759971008
 22
8.049657264411042
 32
0.0
 13
5.012066759971008
 23
8.049657264411042
 33
0.0
  0
SOLID
  5
1E1
330
3E
100
AcDbEntity
  8
0
  6
ByBlock
 62
     0
100
AcDbTrace
 10
3.922066759971011
 20
8.109657264411042
 30
0.0
 11
3.922066759971011
 21
7.989657264411042
 31
0.0
 12
4.282066759971011
 22
8.049657264411042
 32
0.0
 13
4.282066759971011
 23
8.049657264411042
 33
0.0
  0
TEXT
  5
1E2
330
3E
100
AcDbEntity
  8
0
  6
ByBlock
 62
     0
100
AcDbText
 10
2.694566759971012
 20
7.924657264411042
 30
0.0
 40
0.25
  1
0.730
 41
0.75
  7
TXT
 72
     1
 11
3.038316759971012
 21
8.049657264411042
 31
0.0
100
AcDbText
 73
     2
  0
POINT
  5
1E3
330
3E
100
AcDbEntity
  8
DEFPOINTS
  6
ByBlock
 62
     0
100
AcDbPoint
 10
5.012066759971008
 20
10.98412344293008
 30
0.0
  0
POINT
  5
1E4
330
3E
100
AcDbEntity
  8
DEFPOINTS
  6
ByBlock
 62
     0
100
AcDbPoint
 10
4.282066759971011
 20
10.49012344293009
 30
0.0
  0
POINT
  5
1E5
330
3E
100
AcDbEntity
  8
DEFPOINTS
  6
ByBlock
 62
     0
100
AcDbPoint
 10
4.282066759971011
 20
8.049657264411042
 30
0.0
  0
ENDBLK
  5
1E6
330
3E
100
AcDbEntity
  8
0
100
AcDbBlockEnd
  0
BLOCK
  5
1E7
330
3F
100
AcDbEntity
  8
0
100
AcDbBlockBegin
  2
*D29
 70
     1
 10
0.0
 20
0.0
 30
0.0
  3
*D29
  1

  0
LINE
  5
1E8
330
3F
100
AcDbEntity
  8
0
  6
ByBlock
 62
     0
100
AcDbLine
 10
4.716066759971016
 20
11.15312344293008
 30
0.0
 11
4.716066759971016
 21
8.863657264411042
 31
0.0
  0
LINE
  5
1E9
330
3F
100
AcDbEntity
  8
0
  6
ByBlock
 62
     0
100
AcDbLine
 10
4.282066759971011
 20
10.36412344293009
 30
0.0
 11
4.282066759971011
 21
8.863657264411042
 31
0.0
  0
LINE
  5
1EA
330
3F
100
AcDbEntity
  8
0
  6
ByBlock
 62
     0
100
AcDbLine
 10
5.076066759971016
 20
9.049657264411042
 30
0.0
 11
5.436066759971016
 21
9.049657264411042
 31
0.0
  0
LINE
  5
1EB
330
3F
100
AcDbEntity
  8
0
  6
ByBlock
 62
     0
100
AcDbLine
 10
3.922066759971011
 20
9.049657264411042
 30
0.0
 11
3.562066759971012
 21
9.049657264411042
 31
0.0
  0
SOLID
  5
1EC
330
3F
100
AcDbEntity
  8
0
  6
ByBlock
 62
     0
100
AcDbTrace
 10
5.076066759971016
 20
9.109657264411042
 30
0.0
 11
5.076066759971016
 21
8.989657264411041
 31
0.0
 12
4.716066759971016
 22
9.049657264411042
 32
0.0
 13
4.716066759971016
 23
9.049657264411042
 33
0.0
  0
SOLID
  5
1ED
330
3F
100
AcDbEntity
  8
0
  6
ByBlock
 62
     0
100
AcDbTrace
 10
3.922066759971011
 20
9.109657264411042
 30
0.0
 11
3.922066759971011
 21
8.989657264411041
 31
0.0
 12
4.282066759971011
 22
9.049657264411042
 32
0.0
 13
4.282066759971011
 23
9.049657264411042
 33
0.0
  0
TEXT
  5
1EE
330
3F
100
AcDbEntity
  8
0
  6
ByBlock
 62
     0
100
AcDbText
 10
2.663316759971012
 20
8.924657264411042
 30
0.0
 40
0.25
  1
0.434
 41
0.75
  7
TXT
 72
     1
 11
3.022691759971012
 21
9.049657264411042
 31
0.0
100
AcDbText
 73
     2
  0
POINT
  5
1EF
330
3F
100
AcDbEntity
  8
DEFPOINTS
  6
ByBlock
 62
     0
100
AcDbPoint
 10
4.716066759971016
 20
11.27912344293008
 30
0.0
  0
POINT
  5
1F0
330
3F
100
AcDbEntity
  8
DEFPOINTS
  6
ByBlock
 62
     0
100
AcDbPoint
 10
4.282066759971011
 20
10.49012344293009
 30
0.0
  0
POINT
  5
1F1
330
3F
100
AcDbEntity
  8
DEFPOINTS
  6
ByBlock
 62
     0
100
AcDbPoint
 10
4.282066759971011
 20
9.049657264411042
 30
0.0
  0
ENDBLK
  5
1F2
330
3F
100
AcDbEntity
  8
0
100
AcDbBlockEnd
  0
BLOCK
  5
1F3
330
40
100
AcDbEntity
  8
0
100
AcDbBlockBegin
  2
*X30
 70
     1
 10
0.0
 20
0.0
 30
0.0
  3
*X30
  1

  0
LINE
  5
1F4
330
40
100
AcDbEntity
  8
0
 62
     0
100
AcDbLine
 10
7.778097615280929
 20
2.209631713436869
 30
0.0
 11
7.896097615280936
 21
2.327631713436876
 31
0.0
  0
LINE
  5
1F5
330
40
100
AcDbEntity
  8
0
 62
     0
100
AcDbLine
 10
7.512932572335975
 20
2.209631713436869
 30
0.0
 11
7.630932572335981
 21
2.327631713436875
 31
0.0
  0
LINE
  5
1F6
330
40
100
AcDbEntity
  8
0
 62
     0
100
AcDbLine
 10
7.24776752939102
 20
2.209631713436869
 30
0.0
 11
7.365767529391025
 21
2.327631713436874
 31
0.0
  0
LINE
  5
1F7
330
40
100
AcDbEntity
  8
0
 62
     0
100
AcDbLine
 10
6.982602486446065
 20
2.20963171343687
 30
0.0
 11
7.100602486446069
 21
2.327631713436873
 31
0.0
  0
LINE
  5
1F8
330
40
100
AcDbEntity
  8
0
 62
     0
100
AcDbLine
 10
6.71743744350111
 20
2.20963171343687
 30
0.0
 11
6.835437443501112
 21
2.327631713436872
 31
0.0
  0
LINE
  5
1F9
330
40
100
AcDbEntity
  8
0
 62
     0
100
AcDbLine
 10
6.452272400556156
 20
2.209631713436871
 30
0.0
 11
6.570272400556156
 21
2.327631713436872
 31
0.0
  0
LINE
  5
1FA
330
40
100
AcDbEntity
  8
0
 62
     0
100
AcDbLine
 10
6.1871073576112
 20
2.209631713436871
 30
0.0
 11
6.3051073576112
 21
2.327631713436871
 31
0.0
  0
LINE
  5
1FB
330
40
100
AcDbEntity
  8
0
 62
     0
100
AcDbLine
 10
5.921942314666245
 20
2.209631713436872
 30
0.0
 11
6.039942314666244
 21
2.32763171343687
 31
0.0
  0
LINE
  5
1FC
330
40
100
AcDbEntity
  8
0
 62
     0
100
AcDbLine
 10
5.65677727172129
 20
2.209631713436872
 30
0.0
 11
5.774777271721288
 21
2.327631713436869
 31
0.0
  0
LINE
  5
1FD
330
40
100
AcDbEntity
  8
0
 62
     0
100
AcDbLine
 10
5.391612228776335
 20
2.209631713436873
 30
0.0
 11
5.509612228776331
 21
2.327631713436868
 31
0.0
  0
LINE
  5
1FE
330
40
100
AcDbEntity
  8
0
 62
     0
100
AcDbLine
 10
5.126447185831381
 20
2.209631713436873
 30
0.0
 11
5.244447185831376
 21
2.327631713436868
 31
0.0
  0
LINE
  5
1FF
330
40
100
AcDbEntity
  8
0
 62
     0
100
AcDbLine
 10
4.28367920830362
 20
1.632028778854067
 30
0.0
 11
4.401241310620289
 21
1.749590881170736
 31
0.0
  0
LINE
  5
200
330
40
100
AcDbEntity
  8
0
 62
     0
100
AcDbLine
 10
4.861282142886426
 20
2.209631713436873
 30
0.0
 11
4.97928214288642
 21
2.327631713436867
 31
0.0
  0
LINE
  5
201
330
40
100
AcDbEntity
  8
0
 62
     0
100
AcDbLine
 10
4.288275206688929
 20
1.901789820184332
 30
0.0
 11
4.401241310620296
 21
2.014755924115698
 31
0.0
  0
LINE
  5
202
330
40
100
AcDbEntity
  8
0
 62
     0
100
AcDbLine
 10
4.596117099941471
 20
2.209631713436874
 30
0.0
 11
4.714117099941463
 21
2.327631713436866
 31
0.0
  0
LINE
  5
203
330
40
100
AcDbEntity
  8
0
 62
     0
100
AcDbLine
 10
4.292871205074239
 20
2.171550861514596
 30
0.0
 11
4.448952056996508
 21
2.327631713436865
 31
0.0
  0
LINE
  5
204
330
40
100
AcDbEntity
  8
0
 62
     0
100
AcDbLine
 10
8.043262658225884
 20
2.209631713436868
 30
0.0
 11
8.161262658225892
 21
2.327631713436877
 31
0.0
  0
LINE
  5
205
330
40
100
AcDbEntity
  8
0
 62
     0
100
AcDbLine
 10
8.308427701170838
 20
2.209631713436868
 30
0.0
 11
8.426427701170849
 21
2.327631713436878
 31
0.0
  0
LINE
  5
206
330
40
100
AcDbEntity
  8
0
 62
     0
100
AcDbLine
 10
8.573592744115794
 20
2.209631713436867
 30
0.0
 11
8.691592744115805
 21
2.327631713436879
 31
0.0
  0
LINE
  5
207
330
40
100
AcDbEntity
  8
0
 62
     0
100
AcDbLine
 10
8.838757787060748
 20
2.209631713436867
 30
0.0
 11
8.956757787060761
 21
2.327631713436879
 31
0.0
  0
LINE
  5
208
330
40
100
AcDbEntity
  8
0
 62
     0
100
AcDbLine
 10
9.103922830005704
 20
2.209631713436866
 30
0.0
 11
9.221922830005718
 21
2.32763171343688
 31
0.0
  0
LINE
  5
209
330
40
100
AcDbEntity
  8
0
 62
     0
100
AcDbLine
 10
9.369087872950657
 20
2.209631713436865
 30
0.0
 11
9.487087872950674
 21
2.327631713436881
 31
0.0
  0
LINE
  5
20A
330
40
100
AcDbEntity
  8
0
 62
     0
100
AcDbLine
 10
9.634252915895613
 20
2.209631713436865
 30
0.0
 11
9.752252915895629
 21
2.327631713436882
 31
0.0
  0
LINE
  5
20B
330
40
100
AcDbEntity
  8
0
 62
     0
100
AcDbLine
 10
9.899417958840567
 20
2.209631713436865
 30
0.0
 11
10.01741795884058
 21
2.327631713436883
 31
0.0
  0
LINE
  5
20C
330
40
100
AcDbEntity
  8
0
 62
     0
100
AcDbLine
 10
10.16458300178552
 20
2.209631713436864
 30
0.0
 11
10.28258300178554
 21
2.327631713436884
 31
0.0
  0
LINE
  5
20D
330
40
100
AcDbEntity
  8
0
 62
     0
100
AcDbLine
 10
10.42974804473048
 20
2.209631713436864
 30
0.0
 11
10.54774804473049
 21
2.327631713436884
 31
0.0
  0
LINE
  5
20E
330
40
100
AcDbEntity
  8
0
 62
     0
100
AcDbLine
 10
10.69491308767543
 20
2.209631713436863
 30
0.0
 11
10.81291308767545
 21
2.327631713436885
 31
0.0
  0
LINE
  5
20F
330
40
100
AcDbEntity
  8
0
 62
     0
100
AcDbLine
 10
10.96007813062038
 20
2.209631713436863
 30
0.0
 11
11.07018833546897
 21
2.319741918285447
 31
0.0
  0
LINE
  5
210
330
40
100
AcDbEntity
  8
0
 62
     0
100
AcDbLine
 10
7.866485962780929
 20
2.209631713436868
 30
0.0
 11
7.984485962780937
 21
2.327631713436876
 31
0.0
  0
LINE
  5
211
330
40
100
AcDbEntity
  8
0
 62
     0
100
AcDbLine
 10
7.601320919835974
 20
2.209631713436869
 30
0.0
 11
7.719320919835981
 21
2.327631713436876
 31
0.0
  0
LINE
  5
212
330
40
100
AcDbEntity
  8
0
 62
     0
100
AcDbLine
 10
7.33615587689102
 20
2.209631713436869
 30
0.0
 11
7.454155876891025
 21
2.327631713436875
 31
0.0
  0
LINE
  5
213
330
40
100
AcDbEntity
  8
0
 62
     0
100
AcDbLine
 10
7.070990833946065
 20
2.209631713436869
 30
0.0
 11
7.188990833946069
 21
2.327631713436874
 31
0.0
  0
LINE
  5
214
330
40
100
AcDbEntity
  8
0
 62
     0
100
AcDbLine
 10
6.80582579100111
 20
2.20963171343687
 30
0.0
 11
6.923825791001113
 21
2.327631713436873
 31
0.0
  0
LINE
  5
215
330
40
100
AcDbEntity
  8
0
 62
     0
100
AcDbLine
 10
6.540660748056155
 20
2.20963171343687
 30
0.0
 11
6.658660748056156
 21
2.327631713436872
 31
0.0
  0
LINE
  5
216
330
40
100
AcDbEntity
  8
0
 62
     0
100
AcDbLine
 10
6.2754957051112
 20
2.209631713436871
 30
0.0
 11
6.393495705111201
 21
2.327631713436871
 31
0.0
  0
LINE
  5
217
330
40
100
AcDbEntity
  8
0
 62
     0
100
AcDbLine
 10
6.010330662166246
 20
2.209631713436871
 30
0.0
 11
6.128330662166244
 21
2.32763171343687
 31
0.0
  0
LINE
  5
218
330
40
100
AcDbEntity
  8
0
 62
     0
100
AcDbLine
 10
5.745165619221291
 20
2.209631713436872
 30
0.0
 11
5.863165619221288
 21
2.327631713436869
 31
0.0
  0
LINE
  5
219
330
40
100
AcDbEntity
  8
0
 62
     0
100
AcDbLine
 10
5.480000576276336
 20
2.209631713436872
 30
0.0
 11
5.598000576276332
 21
2.327631713436869
 31
0.0
  0
LINE
  5
21A
330
40
100
AcDbEntity
  8
0
 62
     0
100
AcDbLine
 10
5.21483553333138
 20
2.209631713436873
 30
0.0
 11
5.332835533331376
 21
2.327631713436868
 31
0.0
  0
LINE
  5
21B
330
40
100
AcDbEntity
  8
0
 62
     0
100
AcDbLine
 10
4.287670490386427
 20
1.547631713436874
 30
0.0
 11
4.351066759971005
 21
1.611027983021451
 31
0.0
  0
LINE
  5
21C
330
40
100
AcDbEntity
  8
0
 62
     0
100
AcDbLine
 10
4.949670490386426
 20
2.209631713436873
 30
0.0
 11
5.06767049038642
 21
2.327631713436867
 31
0.0
  0
LINE
  5
21D
330
40
100
AcDbEntity
  8
0
 62
     0
100
AcDbLine
 10
4.362670490386425
 20
1.622631713436872
 30
0.0
 11
4.401241310620287
 21
1.661202533670734
 31
0.0
  0
LINE
  5
21E
330
40
100
AcDbEntity
  8
0
 62
     0
100
AcDbLine
 10
4.28674320722973
 20
1.811869473225133
 30
0.0
 11
4.401241310620293
 21
1.926367576615696
 31
0.0
  0
LINE
  5
21F
330
40
100
AcDbEntity
  8
0
 62
     0
100
AcDbLine
 10
4.684505447441472
 20
2.209631713436874
 30
0.0
 11
4.802505447441464
 21
2.327631713436866
 31
0.0
  0
LINE
  5
220
330
40
100
AcDbEntity
  8
0
 62
     0
100
AcDbLine
 10
4.29133920561504
 20
2.081630514555397
 30
0.0
 11
4.4012413106203
 21
2.191532619560658
 31
0.0
  0
LINE
  5
221
330
40
100
AcDbEntity
  8
0
 62
     0
100
AcDbLine
 10
4.419340404496517
 20
2.209631713436874
 30
0.0
 11
4.537340404496507
 21
2.327631713436865
 31
0.0
  0
LINE
  5
222
330
40
100
AcDbEntity
  8
0
 62
     0
100
AcDbLine
 10
8.131651005725883
 20
2.209631713436868
 30
0.0
 11
8.249651005725892
 21
2.327631713436877
 31
0.0
  0
LINE
  5
223
330
40
100
AcDbEntity
  8
0
 62
     0
100
AcDbLine
 10
8.396816048670839
 20
2.209631713436867
 30
0.0
 11
8.51481604867085
 21
2.327631713436878
 31
0.0
  0
LINE
  5
224
330
40
100
AcDbEntity
  8
0
 62
     0
100
AcDbLine
 10
8.661981091615793
 20
2.209631713436867
 30
0.0
 11
8.779981091615805
 21
2.327631713436879
 31
0.0
  0
LINE
  5
225
330
40
100
AcDbEntity
  8
0
 62
     0
100
AcDbLine
 10
8.927146134560748
 20
2.209631713436866
 30
0.0
 11
9.045146134560761
 21
2.32763171343688
 31
0.0
  0
LINE
  5
226
330
40
100
AcDbEntity
  8
0
 62
     0
100
AcDbLine
 10
9.192311177505702
 20
2.209631713436866
 30
0.0
 11
9.310311177505717
 21
2.32763171343688
 31
0.0
  0
LINE
  5
227
330
40
100
AcDbEntity
  8
0
 62
     0
100
AcDbLine
 10
9.457476220450658
 20
2.209631713436865
 30
0.0
 11
9.575476220450674
 21
2.327631713436881
 31
0.0
  0
LINE
  5
228
330
40
100
AcDbEntity
  8
0
 62
     0
100
AcDbLine
 10
9.722641263395614
 20
2.209631713436865
 30
0.0
 11
9.84064126339563
 21
2.327631713436882
 31
0.0
  0
LINE
  5
229
330
40
100
AcDbEntity
  8
0
 62
     0
100
AcDbLine
 10
9.987806306340567
 20
2.209631713436865
 30
0.0
 11
10.10580630634058
 21
2.327631713436883
 31
0.0
  0
LINE
  5
22A
330
40
100
AcDbEntity
  8
0
 62
     0
100
AcDbLine
 10
10.25297134928552
 20
2.209631713436864
 30
0.0
 11
10.37097134928554
 21
2.327631713436884
 31
0.0
  0
LINE
  5
22B
330
40
100
AcDbEntity
  8
0
 62
     0
100
AcDbLine
 10
10.51813639223047
 20
2.209631713436864
 30
0.0
 11
10.63613639223049
 21
2.327631713436884
 31
0.0
  0
LINE
  5
22C
330
40
100
AcDbEntity
  8
0
 62
     0
100
AcDbLine
 10
10.78330143517543
 20
2.209631713436863
 30
0.0
 11
10.90130143517545
 21
2.327631713436885
 31
0.0
  0
LINE
  5
22D
330
40
100
AcDbEntity
  8
0
 62
     0
100
AcDbLine
 10
11.04846647812038
 20
2.209631713436863
 30
0.0
 11
11.10560342114814
 21
2.266768656464622
 31
0.0
  0
ENDBLK
  5
22E
330
40
100
AcDbEntity
  8
0
100
AcDbBlockEnd
  0
BLOCK
  5
22F
330
41
100
AcDbEntity
  8
0
100
AcDbBlockBegin
  2
*X31
 70
     1
 10
0.0
 20
0.0
 30
0.0
  3
*X31
  1

  0
LINE
  5
230
330
41
100
AcDbEntity
  8
0
 62
     0
100
AcDbLine
 10
8.01281470374665
 20
0.7376317134368749
 30
0.0
 11
7.89481470374665
 21
0.855631713436875
 31
0.0
  0
LINE
  5
231
330
41
100
AcDbEntity
  8
0
 62
     0
100
AcDbLine
 10
7.747649660801695
 20
0.7376317134368749
 30
0.0
 11
7.629649660801694
 21
0.855631713436875
 31
0.0
  0
LINE
  5
232
330
41
100
AcDbEntity
  8
0
 62
     0
100
AcDbLine
 10
7.482484617856739
 20
0.7376317134368749
 30
0.0
 11
7.36448461785674
 21
0.855631713436875
 31
0.0
  0
LINE
  5
233
330
41
100
AcDbEntity
  8
0
 62
     0
100
AcDbLine
 10
7.217319574911783
 20
0.7376317134368749
 30
0.0
 11
7.099319574911784
 21
0.855631713436875
 31
0.0
  0
LINE
  5
234
330
41
100
AcDbEntity
  8
0
 62
     0
100
AcDbLine
 10
6.952154531966828
 20
0.7376317134368749
 30
0.0
 11
6.834154531966828
 21
0.855631713436875
 31
0.0
  0
LINE
  5
235
330
41
100
AcDbEntity
  8
0
 62
     0
100
AcDbLine
 10
6.686989489021873
 20
0.7376317134368749
 30
0.0
 11
6.568989489021873
 21
0.855631713436875
 31
0.0
  0
LINE
  5
236
330
41
100
AcDbEntity
  8
0
 62
     0
100
AcDbLine
 10
6.421824446076917
 20
0.7376317134368749
 30
0.0
 11
6.303824446076918
 21
0.855631713436875
 31
0.0
  0
LINE
  5
237
330
41
100
AcDbEntity
  8
0
 62
     0
100
AcDbLine
 10
6.156659403131962
 20
0.7376317134368749
 30
0.0
 11
6.038659403131962
 21
0.855631713436875
 31
0.0
  0
LINE
  5
238
330
41
100
AcDbEntity
  8
0
 62
     0
100
AcDbLine
 10
5.891494360187007
 20
0.7376317134368749
 30
0.0
 11
5.773494360187007
 21
0.855631713436875
 31
0.0
  0
LINE
  5
239
330
41
100
AcDbEntity
  8
0
 62
     0
100
AcDbLine
 10
5.626329317242052
 20
0.7376317134368749
 30
0.0
 11
5.508329317242051
 21
0.8556317134368752
 31
0.0
  0
LINE
  5
23A
330
41
100
AcDbEntity
  8
0
 62
     0
100
AcDbLine
 10
5.361164274297096
 20
0.7376317134368749
 30
0.0
 11
5.243164274297096
 21
0.8556317134368752
 31
0.0
  0
LINE
  5
23B
330
41
100
AcDbEntity
  8
0
 62
     0
100
AcDbLine
 10
5.09599923135214
 20
0.7376317134368749
 30
0.0
 11
4.977999231352141
 21
0.8556317134368752
 31
0.0
  0
LINE
  5
23C
330
41
100
AcDbEntity
  8
0
 62
     0
100
AcDbLine
 10
4.40106675997101
 20
1.432564184818005
 30
0.0
 11
4.301066759971009
 21
1.532564184818007
 31
0.0
  0
LINE
  5
23D
330
41
100
AcDbEntity
  8
0
 62
     0
100
AcDbLine
 10
4.830834188407186
 20
0.7376317134368749
 30
0.0
 11
4.712834188407185
 21
0.8556317134368752
 31
0.0
  0
LINE
  5
23E
330
41
100
AcDbEntity
  8
0
 62
     0
100
AcDbLine
 10
4.401066759971014
 20
1.167399141873046
 30
0.0
 11
4.286141292660381
 21
1.282324609183679
 31
0.0
  0
LINE
  5
23F
330
41
100
AcDbEntity
  8
0
 62
     0
100
AcDbLine
 10
4.565669145462231
 20
0.7376317134368749
 30
0.0
 11
4.447669145462231
 21
0.8556317134368752
 31
0.0
  0
LINE
  5
240
330
41
100
AcDbEntity
  8
0
 62
     0
100
AcDbLine
 10
4.401066759971017
 20
0.9022340989280891
 30
0.0
 11
4.290813747013368
 21
1.012487111885737
 31
0.0
  0
LINE
  5
241
330
41
100
AcDbEntity
  8
0
 62
     0
100
AcDbLine
 10
8.277979746691604
 20
0.7376317134368749
 30
0.0
 11
8.159979746691606
 21
0.855631713436875
 31
0.0
  0
LINE
  5
242
330
41
100
AcDbEntity
  8
0
 62
     0
100
AcDbLine
 10
8.54314478963656
 20
0.7376317134368749
 30
0.0
 11
8.425144789636561
 21
0.855631713436875
 31
0.0
  0
LINE
  5
243
330
41
100
AcDbEntity
  8
0
 62
     0
100
AcDbLine
 10
8.808309832581516
 20
0.7376317134368749
 30
0.0
 11
8.690309832581515
 21
0.855631713436875
 31
0.0
  0
LINE
  5
244
330
41
100
AcDbEntity
  8
0
 62
     0
100
AcDbLine
 10
9.073474875526471
 20
0.7376317134368749
 30
0.0
 11
8.955474875526471
 21
0.855631713436875
 31
0.0
  0
LINE
  5
245
330
41
100
AcDbEntity
  8
0
 62
     0
100
AcDbLine
 10
9.338639918471427
 20
0.7376317134368749
 30
0.0
 11
9.220639918471427
 21
0.855631713436875
 31
0.0
  0
LINE
  5
246
330
41
100
AcDbEntity
  8
0
 62
     0
100
AcDbLine
 10
9.603804961416381
 20
0.7376317134368749
 30
0.0
 11
9.485804961416382
 21
0.855631713436875
 31
0.0
  0
LINE
  5
247
330
41
100
AcDbEntity
  8
0
 62
     0
100
AcDbLine
 10
9.868970004361337
 20
0.7376317134368749
 30
0.0
 11
9.750970004361338
 21
0.855631713436875
 31
0.0
  0
LINE
  5
248
330
41
100
AcDbEntity
  8
0
 62
     0
100
AcDbLine
 10
10.13413504730629
 20
0.7376317134368749
 30
0.0
 11
10.01613504730629
 21
0.8556317134368748
 31
0.0
  0
LINE
  5
249
330
41
100
AcDbEntity
  8
0
 62
     0
100
AcDbLine
 10
10.39930009025124
 20
0.7376317134368749
 30
0.0
 11
10.28130009025124
 21
0.8556317134368748
 31
0.0
  0
LINE
  5
24A
330
41
100
AcDbEntity
  8
0
 62
     0
100
AcDbLine
 10
10.6644651331962
 20
0.7376317134368749
 30
0.0
 11
10.5464651331962
 21
0.8556317134368748
 31
0.0
  0
LINE
  5
24B
330
41
100
AcDbEntity
  8
0
 62
     0
100
AcDbLine
 10
10.92963017614115
 20
0.7376317134368749
 30
0.0
 11
10.81163017614115
 21
0.8556317134368748
 31
0.0
  0
LINE
  5
24C
330
41
100
AcDbEntity
  8
0
 62
     0
100
AcDbLine
 10
11.15346619624794
 20
0.7789607362750406
 30
0.0
 11
11.07679521908611
 21
0.8556317134368748
 31
0.0
  0
LINE
  5
24D
330
41
100
AcDbEntity
  8
0
 62
     0
100
AcDbLine
 10
8.101203051246649
 20
0.7376317134368749
 30
0.0
 11
7.98320305124665
 21
0.855631713436875
 31
0.0
  0
LINE
  5
24E
330
41
100
AcDbEntity
  8
0
 62
     0
100
AcDbLine
 10
7.836038008301694
 20
0.7376317134368749
 30
0.0
 11
7.718038008301695
 21
0.855631713436875
 31
0.0
  0
LINE
  5
24F
330
41
100
AcDbEntity
  8
0
 62
     0
100
AcDbLine
 10
7.570872965356739
 20
0.7376317134368749
 30
0.0
 11
7.452872965356739
 21
0.855631713436875
 31
0.0
  0
LINE
  5
250
330
41
100
AcDbEntity
  8
0
 62
     0
100
AcDbLine
 10
7.305707922411784
 20
0.7376317134368749
 30
0.0
 11
7.187707922411783
 21
0.855631713436875
 31
0.0
  0
LINE
  5
251
330
41
100
AcDbEntity
  8
0
 62
     0
100
AcDbLine
 10
7.040542879466828
 20
0.7376317134368749
 30
0.0
 11
6.922542879466829
 21
0.855631713436875
 31
0.0
  0
LINE
  5
252
330
41
100
AcDbEntity
  8
0
 62
     0
100
AcDbLine
 10
6.775377836521873
 20
0.7376317134368749
 30
0.0
 11
6.657377836521873
 21
0.855631713436875
 31
0.0
  0
LINE
  5
253
330
41
100
AcDbEntity
  8
0
 62
     0
100
AcDbLine
 10
6.510212793576918
 20
0.7376317134368749
 30
0.0
 11
6.392212793576917
 21
0.855631713436875
 31
0.0
  0
LINE
  5
254
330
41
100
AcDbEntity
  8
0
 62
     0
100
AcDbLine
 10
6.245047750631962
 20
0.7376317134368749
 30
0.0
 11
6.127047750631962
 21
0.855631713436875
 31
0.0
  0
LINE
  5
255
330
41
100
AcDbEntity
  8
0
 62
     0
100
AcDbLine
 10
5.979882707687007
 20
0.7376317134368749
 30
0.0
 11
5.861882707687007
 21
0.855631713436875
 31
0.0
  0
LINE
  5
256
330
41
100
AcDbEntity
  8
0
 62
     0
100
AcDbLine
 10
5.714717664742051
 20
0.7376317134368749
 30
0.0
 11
5.596717664742052
 21
0.855631713436875
 31
0.0
  0
LINE
  5
257
330
41
100
AcDbEntity
  8
0
 62
     0
100
AcDbLine
 10
5.449552621797097
 20
0.7376317134368749
 30
0.0
 11
5.331552621797096
 21
0.8556317134368752
 31
0.0
  0
LINE
  5
258
330
41
100
AcDbEntity
  8
0
 62
     0
100
AcDbLine
 10
5.184387578852141
 20
0.7376317134368749
 30
0.0
 11
5.066387578852141
 21
0.8556317134368752
 31
0.0
  0
LINE
  5
259
330
41
100
AcDbEntity
  8
0
 62
     0
100
AcDbLine
 10
4.401066759971009
 20
1.520952532318006
 30
0.0
 11
4.351066759971002
 21
1.570952532318014
 31
0.0
  0
LINE
  5
25A
330
41
100
AcDbEntity
  8
0
 62
     0
100
AcDbLine
 10
4.919222535907185
 20
0.7376317134368749
 30
0.0
 11
4.801222535907186
 21
0.8556317134368752
 31
0.0
  0
LINE
  5
25B
330
41
100
AcDbEntity
  8
0
 62
     0
100
AcDbLine
 10
4.401066759971013
 20
1.255787489373048
 30
0.0
 11
4.284583807878665
 21
1.372270441465394
 31
0.0
  0
LINE
  5
25C
330
41
100
AcDbEntity
  8
0
 62
     0
100
AcDbLine
 10
4.65405749296223
 20
0.7376317134368749
 30
0.0
 11
4.536057492962231
 21
0.8556317134368752
 31
0.0
  0
LINE
  5
25D
330
41
100
AcDbEntity
  8
0
 62
     0
100
AcDbLine
 10
4.401066759971016
 20
0.9906224464280901
 30
0.0
 11
4.289256262231653
 21
1.102432944167452
 31
0.0
  0
LINE
  5
25E
330
41
100
AcDbEntity
  8
0
 62
     0
100
AcDbLine
 10
4.363337137748232
 20
0.7631870257059182
 30
0.0
 11
4.318450520605469
 21
0.8080736428486819
 31
0.0
  0
LINE
  5
25F
330
41
100
AcDbEntity
  8
0
 62
     0
100
AcDbLine
 10
8.366368094191605
 20
0.7376317134368749
 30
0.0
 11
8.248368094191604
 21
0.855631713436875
 31
0.0
  0
LINE
  5
260
330
41
100
AcDbEntity
  8
0
 62
     0
100
AcDbLine
 10
8.63153313713656
 20
0.7376317134368749
 30
0.0
 11
8.51353313713656
 21
0.855631713436875
 31
0.0
  0
LINE
  5
261
330
41
100
AcDbEntity
  8
0
 62
     0
100
AcDbLine
 10
8.896698180081516
 20
0.7376317134368749
 30
0.0
 11
8.778698180081516
 21
0.855631713436875
 31
0.0
  0
LINE
  5
262
330
41
100
AcDbEntity
  8
0
 62
     0
100
AcDbLine
 10
9.161863223026472
 20
0.7376317134368749
 30
0.0
 11
9.043863223026471
 21
0.855631713436875
 31
0.0
  0
LINE
  5
263
330
41
100
AcDbEntity
  8
0
 62
     0
100
AcDbLine
 10
9.427028265971426
 20
0.7376317134368749
 30
0.0
 11
9.309028265971427
 21
0.855631713436875
 31
0.0
  0
LINE
  5
264
330
41
100
AcDbEntity
  8
0
 62
     0
100
AcDbLine
 10
9.692193308916381
 20
0.7376317134368749
 30
0.0
 11
9.574193308916383
 21
0.855631713436875
 31
0.0
  0
LINE
  5
265
330
41
100
AcDbEntity
  8
0
 62
     0
100
AcDbLine
 10
9.957358351861337
 20
0.7376317134368749
 30
0.0
 11
9.839358351861337
 21
0.855631713436875
 31
0.0
  0
LINE
  5
266
330
41
100
AcDbEntity
  8
0
 62
     0
100
AcDbLine
 10
10.22252339480629
 20
0.7376317134368749
 30
0.0
 11
10.10452339480629
 21
0.8556317134368748
 31
0.0
  0
LINE
  5
267
330
41
100
AcDbEntity
  8
0
 62
     0
100
AcDbLine
 10
10.48768843775124
 20
0.7376317134368749
 30
0.0
 11
10.36968843775124
 21
0.8556317134368748
 31
0.0
  0
LINE
  5
268
330
41
100
AcDbEntity
  8
0
 62
     0
100
AcDbLine
 10
10.7528534806962
 20
0.7376317134368749
 30
0.0
 11
10.6348534806962
 21
0.8556317134368748
 31
0.0
  0
LINE
  5
269
330
41
100
AcDbEntity
  8
0
 62
     0
100
AcDbLine
 10
11.01801852364115
 20
0.7376317134368749
 30
0.0
 11
10.90001852364115
 21
0.8556317134368748
 31
0.0
  0
ENDBLK
  5
26A
330
41
100
AcDbEntity
  8
0
100
AcDbBlockEnd
  0
BLOCK
  5
26B
330
42
100
AcDbEntity
  8
0
100
AcDbBlockBegin
  2
*D32
 70
     1
 10
0.0
 20
0.0
 30
0.0
  3
*D32
  1

  0
LINE
  5
26C
330
42
100
AcDbEntity
  8
0
  6
ByBlock
 62
     0
100
AcDbLine
 10
9.956389018245399
 20
2.209631713436884
 30
0.0
 11
10.20193463380442
 21
2.209631713436884
 31
0.0
  0
LINE
  5
26D
330
42
100
AcDbEntity
  8
0
  6
ByBlock
 62
     0
100
AcDbLine
 10
9.956389018245399
 20
2.327631713436871
 30
0.0
 11
10.20193463380442
 21
2.327631713436871
 31
0.0
  0
LINE
  5
26E
330
42
100
AcDbEntity
  8
0
  6
ByBlock
 62
     0
100
AcDbLine
 10
10.01593463380441
 20
1.849631713436884
 30
0.0
 11
10.01593463380441
 21
1.489631713436884
 31
0.0
  0
LINE
  5
26F
330
42
100
AcDbEntity
  8
0
  6
ByBlock
 62
     0
100
AcDbLine
 10
10.01593463380441
 20
2.687631713436871
 30
0.0
 11
10.01593463380441
 21
3.047631713436871
 31
0.0
  0
LINE
  5
270
330
42
100
AcDbEntity
  8
0
  6
ByBlock
 62
     0
100
AcDbLine
 10
10.01593463380441
 20
3.047631713436871
 30
0.0
 11
10.37593463380442
 21
3.047631713436871
 31
0.0
  0
SOLID
  5
271
330
42
100
AcDbEntity
  8
0
  6
ByBlock
 62
     0
100
AcDbTrace
 10
9.955934633804419
 20
1.849631713436884
 30
0.0
 11
10.07593463380442
 21
1.849631713436884
 31
0.0
 12
10.01593463380441
 22
2.209631713436884
 32
0.0
 13
10.01593463380441
 23
2.209631713436884
 33
0.0
  0
SOLID
  5
272
330
42
100
AcDbEntity
  8
0
  6
ByBlock
 62
     0
100
AcDbTrace
 10
9.955934633804419
 20
2.687631713436871
 30
0.0
 11
10.07593463380442
 21
2.687631713436871
 31
0.0
 12
10.01593463380441
 22
2.327631713436871
 32
0.0
 13
10.01593463380441
 23
2.327631713436871
 33
0.0
  0
TEXT
  5
273
330
42
100
AcDbEntity
  8
0
  6
ByBlock
 62
     0
100
AcDbText
 10
10.55593463380442
 20
2.922631713436871
 30
0.0
 40
0.25
  1
0.118
 41
0.75
  7
TXT
 72
     1
 11
10.85280963380441
 21
3.047631713436871
 31
0.0
100
AcDbText
 73
     2
  0
POINT
  5
274
330
42
100
AcDbEntity
  8
DEFPOINTS
  6
ByBlock
 62
     0
100
AcDbPoint
 10
9.8303890182454
 20
2.209631713436884
 30
0.0
  0
POINT
  5
275
330
42
100
AcDbEntity
  8
DEFPOINTS
  6
ByBlock
 62
     0
100
AcDbPoint
 10
9.8303890182454
 20
2.327631713436871
 30
0.0
  0
POINT
  5
276
330
42
100
AcDbEntity
  8
DEFPOINTS
  6
ByBlock
 62
     0
100
AcDbPoint
 10
10.01593463380441
 20
2.327631713436871
 30
0.0
  0
ENDBLK
  5
277
330
42
100
AcDbEntity
  8
0
100
AcDbBlockEnd
  0
BLOCK
  5
278
330
43
100
AcDbEntity
  8
0
100
AcDbBlockBegin
  2
*D33
 70
     1
 10
0.0
 20
0.0
 30
0.0
  3
*D33
  1

  0
LINE
  5
279
330
43
100
AcDbEntity
  8
0
  6
ByBlock
 62
     0
100
AcDbLine
 10
7.699828494943512
 20
0.855631713436875
 30
0.0
 11
7.947374654258944
 21
0.855631713436875
 31
0.0
  0
LINE
  5
27A
330
43
100
AcDbEntity
  8
0
  6
ByBlock
 62
     0
100
AcDbLine
 10
7.69982849494351
 20
2.20963171343688
 30
0.0
 11
7.947374654258944
 21
2.20963171343688
 31
0.0
  0
LINE
  5
27B
330
43
100
AcDbEntity
  8
0
  6
ByBlock
 62
     0
100
AcDbLine
 10
7.761374654258944
 20
0.4956317134368751
 30
0.0
 11
7.761374654258944
 21
0.1356317134368751
 31
0.0
  0
LINE
  5
27C
330
43
100
AcDbEntity
  8
0
  6
ByBlock
 62
     0
100
AcDbLine
 10
7.761374654258944
 20
2.56963171343688
 30
0.0
 11
7.761374654258944
 21
2.92963171343688
 31
0.0
  0
SOLID
  5
27D
330
43
100
AcDbEntity
  8
0
  6
ByBlock
 62
     0
100
AcDbTrace
 10
7.701374654258945
 20
0.4956317134368751
 30
0.0
 11
7.821374654258944
 21
0.4956317134368751
 31
0.0
 12
7.761374654258944
 22
0.855631713436875
 32
0.0
 13
7.761374654258944
 23
0.855631713436875
 33
0.0
  0
SOLID
  5
27E
330
43
100
AcDbEntity
  8
0
  6
ByBlock
 62
     0
100
AcDbTrace
 10
7.701374654258945
 20
2.56963171343688
 30
0.0
 11
7.821374654258944
 21
2.56963171343688
 31
0.0
 12
7.761374654258944
 22
2.20963171343688
 32
0.0
 13
7.761374654258944
 23
2.20963171343688
 33
0.0
  0
TEXT
  5
27F
330
43
100
AcDbEntity
  8
0
  6
ByBlock
 62
     0
100
AcDbText
 10
7.417624654258944
 20
1.407631713436877
 30
0.0
 40
0.25
  1
1.354
 41
0.75
  7
TXT
 72
     1
 11
7.761374654258944
 21
1.532631713436877
 31
0.0
100
AcDbText
 73
     2
  0
POINT
  5
280
330
43
100
AcDbEntity
  8
DEFPOINTS
  6
ByBlock
 62
     0
100
AcDbPoint
 10
7.573828494943512
 20
0.855631713436875
 30
0.0
  0
POINT
  5
281
330
43
100
AcDbEntity
  8
DEFPOINTS
  6
ByBlock
 62
     0
100
AcDbPoint
 10
7.573828494943509
 20
2.20963171343688
 30
0.0
  0
POINT
  5
282
330
43
100
AcDbEntity
  8
DEFPOINTS
  6
ByBlock
 62
     0
100
AcDbPoint
 10
7.761374654258944
 20
2.20963171343688
 30
0.0
  0
ENDBLK
  5
283
330
43
100
AcDbEntity
  8
0
100
AcDbBlockEnd
  0
BLOCK
  5
284
330
44
100
AcDbEntity
  8
0
100
AcDbBlockBegin
  2
*D34
 70
     1
 10
0.0
 20
0.0
 30
0.0
  3
*D34
  1

  0
LINE
  5
285
330
44
100
AcDbEntity
  8
0
  6
ByBlock
 62
     0
100
AcDbLine
 10
4.322895208336421
 20
2.327631713436865
 30
0.0
 11
3.356618063551009
 21
2.327631713436865
 31
0.0
  0
LINE
  5
286
330
44
100
AcDbEntity
  8
0
  6
ByBlock
 62
     0
100
AcDbLine
 10
4.322895208336425
 20
0.7376317134368749
 30
0.0
 11
3.356618063551009
 21
0.7376317134368749
 31
0.0
  0
LINE
  5
287
330
44
100
AcDbEntity
  8
0
  6
ByBlock
 62
     0
100
AcDbLine
 10
3.542618063551009
 20
2.687631713436865
 30
0.0
 11
3.542618063551009
 21
3.047631713436866
 31
0.0
  0
LINE
  5
288
330
44
100
AcDbEntity
  8
0
  6
ByBlock
 62
     0
100
AcDbLine
 10
3.542618063551009
 20
0.3776317134368749
 30
0.0
 11
3.542618063551009
 21
0.0176317134368749
 31
0.0
  0
SOLID
  5
289
330
44
100
AcDbEntity
  8
0
  6
ByBlock
 62
     0
100
AcDbTrace
 10
3.482618063551009
 20
2.687631713436865
 30
0.0
 11
3.602618063551009
 21
2.687631713436865
 31
0.0
 12
3.542618063551009
 22
2.327631713436865
 32
0.0
 13
3.542618063551009
 23
2.327631713436865
 33
0.0
  0
SOLID
  5
28A
330
44
100
AcDbEntity
  8
0
  6
ByBlock
 62
     0
100
AcDbTrace
 10
3.482618063551009
 20
0.3776317134368749
 30
0.0
 11
3.602618063551009
 21
0.3776317134368749
 31
0.0
 12
3.542618063551009
 22
0.7376317134368749
 32
0.0
 13
3.542618063551009
 23
0.7376317134368749
 33
0.0
  0
TEXT
  5
28B
330
44
100
AcDbEntity
  8
0
  6
ByBlock
 62
     0
100
AcDbText
 10
3.214493063551009
 20
1.40763171343687
 30
0.0
 40
0.25
  1
1.590
 41
0.75
  7
TXT
 72
     1
 11
3.542618063551009
 21
1.53263171343687
 31
0.0
100
AcDbText
 73
     2
  0
POINT
  5
28C
330
44
100
AcDbEntity
  8
DEFPOINTS
  6
ByBlock
 62
     0
100
AcDbPoint
 10
4.448895208336422
 20
2.327631713436865
 30
0.0
  0
POINT
  5
28D
330
44
100
AcDbEntity
  8
DEFPOINTS
  6
ByBlock
 62
     0
100
AcDbPoint
 10
4.448895208336425
 20
0.7376317134368749
 30
0.0
  0
POINT
  5
28E
330
44
100
AcDbEntity
  8
DEFPOINTS
  6
ByBlock
 62
     0
100
AcDbPoint
 10
3.542618063551009
 20
0.7376317134368749
 30
0.0
  0
ENDBLK
  5
28F
330
44
100
AcDbEntity
  8
0
100
AcDbBlockEnd
  0
BLOCK
  5
290
330
45
100
AcDbEntity
  8
0
100
AcDbBlockBegin
  2
*D35
 70
     1
 10
0.0
 20
0.0
 30
0.0
  3
*D35
  1

  0
LINE
  5
291
330
45
100
AcDbEntity
  8
0
  6
ByBlock
 62
     0
100
AcDbLine
 10
17.21493321262946
 20
2.455170570108371
 30
0.0
 11
16.37962281066837
 21
2.455170570108371
 31
0.0
  0
LINE
  5
292
330
45
100
AcDbEntity
  8
0
  6
ByBlock
 62
     0
100
AcDbLine
 10
17.21493321262946
 20
1.080170570108371
 30
0.0
 11
16.37962281066837
 21
1.080170570108371
 31
0.0
  0
LINE
  5
293
330
45
100
AcDbEntity
  8
0
  6
ByBlock
 62
     0
100
AcDbLine
 10
16.56562281066837
 20
2.815170570108371
 30
0.0
 11
16.56562281066837
 21
3.175170570108371
 31
0.0
  0
LINE
  5
294
330
45
100
AcDbEntity
  8
0
  6
ByBlock
 62
     0
100
AcDbLine
 10
16.56562281066837
 20
0.720170570108372
 30
0.0
 11
16.56562281066837
 21
0.3601705701083719
 31
0.0
  0
SOLID
  5
295
330
45
100
AcDbEntity
  8
0
  6
ByBlock
 62
     0
100
AcDbTrace
 10
16.50562281066837
 20
2.815170570108371
 30
0.0
 11
16.62562281066836
 21
2.815170570108371
 31
0.0
 12
16.56562281066837
 22
2.455170570108371
 32
0.0
 13
16.56562281066837
 23
2.455170570108371
 33
0.0
  0
SOLID
  5
296
330
45
100
AcDbEntity
  8
0
  6
ByBlock
 62
     0
100
AcDbTrace
 10
16.50562281066837
 20
0.720170570108372
 30
0.0
 11
16.62562281066836
 21
0.720170570108372
 31
0.0
 12
16.56562281066837
 22
1.080170570108371
 32
0.0
 13
16.56562281066837
 23
1.080170570108371
 33
0.0
  0
TEXT
  5
297
330
45
100
AcDbEntity
  8
0
  6
ByBlock
 62
     0
100
AcDbText
 10
16.22187281066836
 20
1.642670570108371
 30
0.0
 40
0.25
  1
1.375
 41
0.75
  7
TXT
 72
     1
 11
16.56562281066837
 21
1.767670570108371
 31
0.0
100
AcDbText
 73
     2
  0
POINT
  5
298
330
45
100
AcDbEntity
  8
DEFPOINTS
  6
ByBlock
 62
     0
100
AcDbPoint
 10
17.34093321262946
 20
2.455170570108371
 30
0.0
  0
POINT
  5
299
330
45
100
AcDbEntity
  8
DEFPOINTS
  6
ByBlock
 62
     0
100
AcDbPoint
 10
17.34093321262946
 20
1.080170570108371
 30
0.0
  0
POINT
  5
29A
330
45
100
AcDbEntity
  8
DEFPOINTS
  6
ByBlock
 62
     0
100
AcDbPoint
 10
16.56562281066837
 20
1.080170570108371
 30
0.0
  0
ENDBLK
  5
29B
330
45
100
AcDbEntity
  8
0
100
AcDbBlockEnd
  0
BLOCK
  5
29C
330
46
100
AcDbEntity
  8
0
100
AcDbBlockBegin
  2
*D36
 70
     1
 10
0.0
 20
0.0
 30
0.0
  3
*D36
  1

  0
LINE
  5
29D
330
46
100
AcDbEntity
  8
0
  6
ByBlock
 62
     0
100
AcDbLine
 10
17.21493321262946
 20
6.29979333708327
 30
0.0
 11
16.37962281066837
 21
6.29979333708327
 31
0.0
  0
LINE
  5
29E
330
46
100
AcDbEntity
  8
0
  6
ByBlock
 62
     0
100
AcDbLine
 10
17.21493321262946
 20
4.92479333708327
 30
0.0
 11
16.37962281066837
 21
4.92479333708327
 31
0.0
  0
LINE
  5
29F
330
46
100
AcDbEntity
  8
0
  6
ByBlock
 62
     0
100
AcDbLine
 10
16.56562281066837
 20
6.659793337083271
 30
0.0
 11
16.56562281066837
 21
7.01979333708327
 31
0.0
  0
LINE
  5
2A0
330
46
100
AcDbEntity
  8
0
  6
ByBlock
 62
     0
100
AcDbLine
 10
16.56562281066837
 20
4.56479333708327
 30
0.0
 11
16.56562281066837
 21
4.204793337083271
 31
0.0
  0
SOLID
  5
2A1
330
46
100
AcDbEntity
  8
0
  6
ByBlock
 62
     0
100
AcDbTrace
 10
16.50562281066837
 20
6.659793337083271
 30
0.0
 11
16.62562281066836
 21
6.659793337083271
 31
0.0
 12
16.56562281066837
 22
6.29979333708327
 32
0.0
 13
16.56562281066837
 23
6.29979333708327
 33
0.0
  0
SOLID
  5
2A2
330
46
100
AcDbEntity
  8
0
  6
ByBlock
 62
     0
100
AcDbTrace
 10
16.50562281066837
 20
4.56479333708327
 30
0.0
 11
16.62562281066836
 21
4.56479333708327
 31
0.0
 12
16.56562281066837
 22
4.92479333708327
 32
0.0
 13
16.56562281066837
 23
4.92479333708327
 33
0.0
  0
TEXT
  5
2A3
330
46
100
AcDbEntity
  8
0
  6
ByBlock
 62
     0
100
AcDbText
 10
16.22187281066836
 20
5.48729333708327
 30
0.0
 40
0.25
  1
1.375
 41
0.75
  7
TXT
 72
     1
 11
16.56562281066837
 21
5.61229333708327
 31
0.0
100
AcDbText
 73
     2
  0
POINT
  5
2A4
330
46
100
AcDbEntity
  8
DEFPOINTS
  6
ByBlock
 62
     0
100
AcDbPoint
 10
17.34093321262946
 20
6.29979333708327
 30
0.0
  0
POINT
  5
2A5
330
46
100
AcDbEntity
  8
DEFPOINTS
  6
ByBlock
 62
     0
100
AcDbPoint
 10
17.34093321262946
 20
4.92479333708327
 30
0.0
  0
POINT
  5
2A6
330
46
100
AcDbEntity
  8
DEFPOINTS
  6
ByBlock
 62
     0
100
AcDbPoint
 10
16.56562281066837
 20
4.92479333708327
 30
0.0
  0
ENDBLK
  5
2A7
330
46
100
AcDbEntity
  8
0
100
AcDbBlockEnd
  0
BLOCK
  5
2A8
330
47
100
AcDbEntity
  8
0
100
AcDbBlockBegin
  2
*D37
 70
     1
 10
0.0
 20
0.0
 30
0.0
  3
*D37
  1

  0
LINE
  5
2A9
330
47
100
AcDbEntity
  8
0
  6
ByBlock
 62
     0
100
AcDbLine
 10
6.627066759971014
 20
5.091293337083271
 30
0.0
 11
6.102976253977931
 21
5.091293337083271
 31
0.0
  0
LINE
  5
2AA
330
47
100
AcDbEntity
  8
0
  6
ByBlock
 62
     0
100
AcDbLine
 10
6.365437732370023
 20
4.935293337083273
 30
0.0
 11
6.47497625397793
 21
4.935293337083273
 31
0.0
  0
LINE
  5
2AB
330
47
100
AcDbEntity
  8
0
  6
ByBlock
 62
     0
100
AcDbLine
 10
6.288976253977931
 20
5.451293337083272
 30
0.0
 11
6.288976253977931
 21
5.811293337083271
 31
0.0
  0
LINE
  5
2AC
330
47
100
AcDbEntity
  8
0
  6
ByBlock
 62
     0
100
AcDbLine
 10
6.288976253977931
 20
4.575293337083272
 30
0.0
 11
6.288976253977931
 21
4.215293337083273
 31
0.0
  0
LINE
  5
2AD
330
47
100
AcDbEntity
  8
0
  6
ByBlock
 62
     0
100
AcDbLine
 10
6.288976253977931
 20
4.215293337083273
 30
0.0
 11
5.92897625397793
 21
4.215293337083273
 31
0.0
  0
SOLID
  5
2AE
330
47
100
AcDbEntity
  8
0
  6
ByBlock
 62
     0
100
AcDbTrace
 10
6.228976253977931
 20
5.451293337083272
 30
0.0
 11
6.34897625397793
 21
5.451293337083272
 31
0.0
 12
6.288976253977931
 22
5.091293337083271
 32
0.0
 13
6.288976253977931
 23
5.091293337083271
 33
0.0
  0
SOLID
  5
2AF
330
47
100
AcDbEntity
  8
0
  6
ByBlock
 62
     0
100
AcDbTrace
 10
6.228976253977931
 20
4.575293337083272
 30
0.0
 11
6.34897625397793
 21
4.575293337083272
 31
0.0
 12
6.288976253977931
 22
4.935293337083273
 32
0.0
 13
6.288976253977931
 23
4.935293337083273
 33
0.0
  0
TEXT
  5
2B0
330
47
100
AcDbEntity
  8
0
  6
ByBlock
 62
     0
100
AcDbText
 10
5.09272625397793
 20
4.090293337083273
 30
0.0
 40
0.25
  1
0.156
 41
0.75
  7
TXT
 72
     1
 11
5.42085125397793
 21
4.215293337083273
 31
0.0
100
AcDbText
 73
     2
  0
POINT
  5
2B1
330
47
100
AcDbEntity
  8
DEFPOINTS
  6
ByBlock
 62
     0
100
AcDbPoint
 10
6.753066759971014
 20
5.091293337083271
 30
0.0
  0
POINT
  5
2B2
330
47
100
AcDbEntity
  8
DEFPOINTS
  6
ByBlock
 62
     0
100
AcDbPoint
 10
6.239437732370022
 20
4.935293337083273
 30
0.0
  0
POINT
  5
2B3
330
47
100
AcDbEntity
  8
DEFPOINTS
  6
ByBlock
 62
     0
100
AcDbPoint
 10
6.288976253977931
 20
4.935293337083273
 30
0.0
  0
ENDBLK
  5
2B4
330
47
100
AcDbEntity
  8
0
100
AcDbBlockEnd
  0
ENDSEC
  0
SECTION
  2
ENTITIES
  0
DIMENSION
  5
2B5
330
1E
100
AcDbEntity
  8
DIM
100
AcDbDimension
  2
*D20
 10
25.90293321262945
 20
4.453046669504033
 30
0.0
 11
21.65093321262946
 21
4.453046669504033
 31
0.0
 12
0.0
 22
-1.314400901327533
 32
0.0
  1
<> EXPOSED PANEL
 71
     5
 42
-1.0
  3
23NSTDI
100
AcDbAlignedDimension
 13
17.39893321262946
 23
4.982293337083271
 33
0.0
 14
25.90293321262945
 24
4.982293337083271
 34
0.0
100
AcDbRotatedDimension
  0
DIMENSION
  5
2B6
330
1E
100
AcDbEntity
  8
DIM
100
AcDbDimension
  2
*D21
 10
25.96093321262945
 20
6.91532201050442
 30
0.0
 11
21.65093321262946
 21
6.91532201050442
 31
0.0
 12
0.0
 22
-1.314400901327533
 32
0.0
 71
     5
 42
-1.0
  3
23NSTD
100
AcDbAlignedDimension
 13
17.34093321262946
 23
6.29979333708327
 33
0.0
 14
25.96093321262945
 24
6.29979333708327
 34
0.0
100
AcDbRotatedDimension
  0
LWPOLYLINE
  5
2B7
330
1E
100
AcDbEntity
  8
BEND
100
AcDbPolyline
 90
        4
 70
     1
 43
0.0
 10
17.39893321262946
 20
4.982293337083271
 10
25.90293321262945
 20
4.982293337083271
 10
25.90293321262945
 20
6.242293337083273
 10
17.39893321262946
 20
6.242293337083273
  0
LWPOLYLINE
  5
2BD
330
1E
100
AcDbEntity
  8
OBJECT
100
AcDbPolyline
 90
        4
 70
     1
 43
0.0
 10
25.96093321262945
 20
4.92479333708327
 10
25.96093321262945
 20
6.29979333708327
 10
17.34093321262946
 20
6.29979333708327
 10
17.34093321262946
 20
4.92479333708327
  0
DIMENSION
  5
2C3
330
1E
100
AcDbEntity
  8
DIM
100
AcDbDimension
  2
*D36
 10
16.56562281066837
 20
4.92479333708327
 30
0.0
 11
16.56562281066837
 21
5.61229333708327
 31
0.0
 71
     5
 42
-1.0
  3
23NSTDI
100
AcDbAlignedDimension
 13
17.34093321262946
 23
6.29979333708327
 33
0.0
 14
17.34093321262946
 24
4.92479333708327
 34
0.0
 50
90.0
100
AcDbRotatedDimension
  0
TEXT
  5
2C4
330
1E
100
AcDbEntity
  8
TEXT
100
AcDbText
 10
19.32280821262946
 20
5.695626670416604
 30
0.0
 40
0.25
  1
PLASTIC PANEL - 0.070 THICK
 41
0.75
  7
TXT
 72
     4
 11
21.65093321262946
 21
5.820626670416604
 31
0.0
100
AcDbText
  0
DIMENSION
  5
2C5
330
1E
100
AcDbEntity
  8
DIM
100
AcDbDimension
  2
*D19
 10
28.068093542159
 20
6.242293337083273
 30
0.0
 11
28.068093542159
 21
5.612293337083272
 31
0.0
 12
11.5909530784523
 22
2.604416384369245
 32
0.0
  1
<> EXPOSED PANEL
 71
     5
 42
-1.0
  3
23NSTDI
100
AcDbAlignedDimension
 13
25.90293321262945
 23
4.982293337083271
 33
0.0
 14
25.90293321262945
 24
6.242293337083273
 34
0.0
 50
90.0
100
AcDbRotatedDimension
  0
LINE
  5
2C6
330
1E
100
AcDbEntity
  8
OBJECT
100
AcDbLine
 10
4.282066759971011
 20
10.49012344293009
 30
0.0
 11
13.14206675997101
 21
10.49012344293009
 31
0.0
  0
LINE
  5
2C7
330
1E
100
AcDbEntity
  8
OBJECT
100
AcDbLine
 10
13.14206675997101
 20
16.99012344293008
 30
0.0
 11
4.282066759971026
 21
16.99012344293008
 31
0.0
  0
LINE
  5
2C8
330
1E
100
AcDbEntity
  8
OBJECT
100
AcDbLine
 10
4.401066759971018
 20
10.66012344293008
 30
0.0
 11
11.80364155421693
 21
10.66012344293008
 31
0.0
  0
LINE
  5
2C9
330
1E
100
AcDbEntity
  8
HIDDEN
100
AcDbLine
 10
13.07306675997101
 20
16.82012344293008
 30
0.0
 11
11.92478000348127
 21
16.82012344293009
 31
0.0
  0
LINE
  5
2CA
330
1E
100
AcDbEntity
  8
OBJECT
100
AcDbLine
 10
4.401066759971018
 20
10.62012344293008
 30
0.0
 11
11.79874886144671
 21
10.62012344293008
 31
0.0
  0
LINE
  5
2CB
330
1E
100
AcDbEntity
  8
HIDDEN
100
AcDbLine
 10
13.02306675997106
 20
16.86012344293008
 30
0.0
 11
11.90929206710214
 21
16.86012344293008
 31
0.0
  0
LINE
  5
2CC
330
1E
100
AcDbEntity
  8
HIDDEN
100
AcDbLine
 10
13.02306675997106
 20
16.93012344293008
 30
0.0
 11
11.86333531313061
 21
16.93012344293008
 31
0.0
  0
LINE
  5
2CD
330
1E
100
AcDbEntity
  8
OBJECT
100
AcDbLine
 10
4.401066759971018
 20
10.55012344293008
 30
0.0
 11
11.77882567649969
 21
10.55012344293008
 31
0.0
  0
LINE
  5
2CE
330
1E
100
AcDbEntity
  8
OBJECT
100
AcDbLine
 10
4.282066759971026
 20
16.99012344293008
 30
0.0
 11
4.282066759971011
 21
10.49012344293009
 31
0.0
  0
LINE
  5
2CF
330
1E
100
AcDbEntity
  8
OBJECT
100
AcDbLine
 10
4.401066759971018
 20
16.93012344293008
 30
0.0
 11
4.401066759971018
 21
10.55012344293008
 31
0.0
  0
LINE
  5
2D0
330
1E
100
AcDbEntity
  8
OBJECT
100
AcDbLine
 10
4.351066759971021
 20
16.81512344293008
 30
0.0
 11
4.351066759971007
 21
10.66512344293009
 31
0.0
  0
LINE
  5
2D1
330
1E
100
AcDbEntity
  8
OBJECT
100
AcDbLine
 10
4.299408528802845
 20
10.50512344293009
 30
0.0
 11
4.299408528802845
 21
16.97512344293008
 31
0.0
  0
CIRCLE
  5
2D2
330
1E
100
AcDbEntity
  8
OBJECT
100
AcDbCircle
 10
4.639066759971011
 20
10.88512344293008
 30
0.0
 40
0.156
  0
LINE
  5
2D3
330
1E
100
AcDbEntity
  8
OBJECT
100
AcDbLine
 10
4.451066759971044
 20
10.55012344293008
 30
0.0
 11
4.401066759971032
 21
10.49012344293009
 31
0.0
  0
LINE
  5
2D4
330
1E
100
AcDbEntity
  8
OBJECT
100
AcDbLine
 10
4.351066759971007
 20
10.66512344293009
 30
0.0
 11
4.401066759971018
 21
10.66512344293009
 31
0.0
  0
LINE
  5
2D5
330
1E
100
AcDbEntity
  8
OBJECT
100
AcDbLine
 10
4.299408528802845
 20
10.50512344293009
 30
0.0
 11
4.413566759971035
 21
10.50512344293009
 31
0.0
  0
LINE
  5
2D6
330
1E
100
AcDbEntity
  8
OBJECT
100
AcDbLine
 10
4.456066759971011
 20
10.66012344293008
 30
0.0
 11
4.456066759971011
 21
10.62012344293008
 31
0.0
  0
CIRCLE
  5
2D7
330
1E
100
AcDbEntity
  8
OBJECT
100
AcDbCircle
 10
4.716066759971016
 20
11.27912344293008
 30
0.0
 40
0.109
  0
CIRCLE
  5
2D8
330
1E
100
AcDbEntity
  8
OBJECT
100
AcDbCircle
 10
4.716066759971016
 20
11.27912344293008
 30
0.0
 40
0.045
  0
CIRCLE
  5
2D9
330
1E
100
AcDbEntity
  8
OBJECT
100
AcDbCircle
 10
4.716066759971016
 20
11.27912344293008
 30
0.0
 40
0.0725
  0
CIRCLE
  5
2DA
330
1E
100
AcDbEntity
  8
OBJECT
100
AcDbCircle
 10
4.639066759971011
 20
10.88512344293008
 30
0.0
 40
0.065
  0
LINE
  5
2DB
330
1E
100
AcDbEntity
  8
OBJECT
100
AcDbLine
 10
4.40106675997099
 20
11.80712344293008
 30
0.0
 11
4.456066759971025
 21
11.80712344293008
 31
0.0
  0
LINE
  5
2DC
330
1E
100
AcDbEntity
  8
OBJECT
100
AcDbLine
 10
4.40106675997099
 20
11.84712344293008
 30
0.0
 11
4.456066759971025
 21
11.84712344293008
 31
0.0
  0
LINE
  5
2DD
330
1E
100
AcDbEntity
  8
OBJECT
100
AcDbLine
 10
4.40106675997099
 20
11.69712344293008
 30
0.0
 11
4.456066759971025
 21
11.69712344293009
 31
0.0
  0
LINE
  5
2DE
330
1E
100
AcDbEntity
  8
OBJECT
100
AcDbLine
 10
4.40106675997099
 20
11.73712344293008
 30
0.0
 11
4.456066759971025
 21
11.73712344293009
 31
0.0
  0
LINE
  5
2DF
330
1E
100
AcDbEntity
  8
OBJECT
100
AcDbLine
 10
4.456066759971025
 20
11.84712344293008
 30
0.0
 11
4.456066759971025
 21
11.80712344293008
 31
0.0
  0
LINE
  5
2E0
330
1E
100
AcDbEntity
  8
OBJECT
100
AcDbLine
 10
4.456066759971025
 20
11.69712344293009
 30
0.0
 11
4.456066759971025
 21
11.73712344293009
 31
0.0
  0
CIRCLE
  5
2E1
330
1E
100
AcDbEntity
  8
OBJECT
100
AcDbCircle
 10
5.012066759971008
 20
10.98412344293008
 30
0.0
 40
0.0725
  0
CIRCLE
  5
2E2
330
1E
100
AcDbEntity
  8
OBJECT
100
AcDbCircle
 10
5.012066759971008
 20
10.98412344293008
 30
0.0
 40
0.045
  0
CIRCLE
  5
2E3
330
1E
100
AcDbEntity
  8
OBJECT
100
AcDbCircle
 10
5.012066759971008
 20
10.98412344293008
 30
0.0
 40
0.109
  0
CIRCLE
  5
2E4
330
1E
100
AcDbEntity
  8
OBJECT
100
AcDbCircle
 10
6.862066759971016
 20
10.98412344293008
 30
0.0
 40
0.0725
  0
CIRCLE
  5
2E5
330
1E
100
AcDbEntity
  8
OBJECT
100
AcDbCircle
 10
6.862066759971016
 20
10.98412344293008
 30
0.0
 40
0.109
  0
CIRCLE
  5
2E6
330
1E
100
AcDbEntity
  8
OBJECT
100
AcDbCircle
 10
6.862066759971016
 20
10.98412344293008
 30
0.0
 40
0.045
  0
CIRCLE
  5
2E7
330
1E
100
AcDbEntity
  8
OBJECT
100
AcDbCircle
 10
8.71206675997101
 20
10.98412344293008
 30
0.0
 40
0.0725
  0
CIRCLE
  5
2E8
330
1E
100
AcDbEntity
  8
OBJECT
100
AcDbCircle
 10
8.71206675997101
 20
10.98412344293008
 30
0.0
 40
0.045
  0
CIRCLE
  5
2E9
330
1E
100
AcDbEntity
  8
OBJECT
100
AcDbCircle
 10
8.71206675997101
 20
10.98412344293008
 30
0.0
 40
0.109
  0
CIRCLE
  5
2EA
330
1E
100
AcDbEntity
  8
OBJECT
100
AcDbCircle
 10
9.558066759971014
 20
11.27912344293008
 30
0.0
 40
0.109
  0
CIRCLE
  5
2EB
330
1E
100
AcDbEntity
  8
OBJECT
100
AcDbCircle
 10
9.558066759971014
 20
11.27912344293008
 30
0.0
 40
0.045
  0
CIRCLE
  5
2EC
330
1E
100
AcDbEntity
  8
OBJECT
100
AcDbCircle
 10
9.558066759971014
 20
11.27912344293008
 30
0.0
 40
0.0725
  0
CIRCLE
  5
2ED
330
1E
100
AcDbEntity
  8
OBJECT
100
AcDbCircle
 10
10.56206675997101
 20
10.98412344293008
 30
0.0
 40
0.109
  0
CIRCLE
  5
2EE
330
1E
100
AcDbEntity
  8
OBJECT
100
AcDbCircle
 10
10.56206675997101
 20
10.98412344293008
 30
0.0
 40
0.045
  0
CIRCLE
  5
2EF
330
1E
100
AcDbEntity
  8
OBJECT
100
AcDbCircle
 10
10.56206675997101
 20
10.98412344293008
 30
0.0
 40
0.0725
  0
CIRCLE
  5
2F0
330
1E
100
AcDbEntity
  8
OBJECT
100
AcDbCircle
 10
4.716066759971016
 20
16.20112344293008
 30
0.0
 40
0.0725
  0
CIRCLE
  5
2F1
330
1E
100
AcDbEntity
  8
OBJECT
100
AcDbCircle
 10
4.716066759971016
 20
16.20112344293008
 30
0.0
 40
0.109
  0
LINE
  5
2F2
330
1E
100
AcDbEntity
  8
OBJECT
100
AcDbLine
 10
4.40106675997099
 20
13.81512344293009
 30
0.0
 11
4.456066759971025
 21
13.81512344293009
 31
0.0
  0
LINE
  5
2F3
330
1E
100
AcDbEntity
  8
OBJECT
100
AcDbLine
 10
4.40106675997099
 20
13.77512344293009
 30
0.0
 11
4.456066759971025
 21
13.77512344293009
 31
0.0
  0
LINE
  5
2F4
330
1E
100
AcDbEntity
  8
OBJECT
100
AcDbLine
 10
4.40106675997099
 20
13.70512344293008
 30
0.0
 11
4.456066759971025
 21
13.70512344293008
 31
0.0
  0
LINE
  5
2F5
330
1E
100
AcDbEntity
  8
OBJECT
100
AcDbLine
 10
4.40106675997099
 20
13.66512344293009
 30
0.0
 11
4.456066759971025
 21
13.66512344293009
 31
0.0
  0
LINE
  5
2F6
330
1E
100
AcDbEntity
  8
OBJECT
100
AcDbLine
 10
4.456066759971025
 20
13.81512344293009
 30
0.0
 11
4.456066759971025
 21
13.77512344293009
 31
0.0
  0
LINE
  5
2F7
330
1E
100
AcDbEntity
  8
OBJECT
100
AcDbLine
 10
4.456066759971025
 20
13.66512344293009
 30
0.0
 11
4.456066759971025
 21
13.70512344293008
 31
0.0
  0
LINE
  5
2F8
330
1E
100
AcDbEntity
  8
OBJECT
100
AcDbLine
 10
4.40106675997099
 20
15.63312344293008
 30
0.0
 11
4.456066759971025
 21
15.63312344293009
 31
0.0
  0
LINE
  5
2F9
330
1E
100
AcDbEntity
  8
OBJECT
100
AcDbLine
 10
4.40106675997099
 20
15.67312344293008
 30
0.0
 11
4.456066759971025
 21
15.67312344293009
 31
0.0
  0
LINE
  5
2FA
330
1E
100
AcDbEntity
  8
OBJECT
100
AcDbLine
 10
4.40106675997099
 20
15.74312344293008
 30
0.0
 11
4.456066759971025
 21
15.74312344293008
 31
0.0
  0
LINE
  5
2FB
330
1E
100
AcDbEntity
  8
OBJECT
100
AcDbLine
 10
4.40106675997099
 20
15.78312344293008
 30
0.0
 11
4.456066759971025
 21
15.78312344293008
 31
0.0
  0
CIRCLE
  5
2FC
330
1E
100
AcDbEntity
  8
OBJECT
100
AcDbCircle
 10
4.716066759971016
 20
16.20112344293008
 30
0.0
 40
0.045
  0
LINE
  5
2FD
330
1E
100
AcDbEntity
  8
OBJECT
100
AcDbLine
 10
4.456066759971025
 20
15.63312344293009
 30
0.0
 11
4.456066759971025
 21
15.67312344293009
 31
0.0
  0
LINE
  5
2FE
330
1E
100
AcDbEntity
  8
OBJECT
100
AcDbLine
 10
4.456066759971025
 20
15.78312344293008
 30
0.0
 11
4.456066759971025
 21
15.74312344293008
 31
0.0
  0
LINE
  5
2FF
330
1E
100
AcDbEntity
  8
OBJECT
100
AcDbLine
 10
4.451066759971044
 20
16.93012344293008
 30
0.0
 11
4.401066759971032
 21
16.99012344293008
 31
0.0
  0
LINE
  5
300
330
1E
100
AcDbEntity
  8
OBJECT
100
AcDbLine
 10
4.401066759971018
 20
16.81512344293008
 30
0.0
 11
4.351066759971021
 21
16.81512344293008
 31
0.0
  0
LINE
  5
301
330
1E
100
AcDbEntity
  8
OBJECT
100
AcDbLine
 10
4.456066759971011
 20
16.86012344293009
 30
0.0
 11
4.456066759971011
 21
16.82012344293008
 31
0.0
  0
CIRCLE
  5
302
330
1E
100
AcDbEntity
  8
OBJECT
100
AcDbCircle
 10
4.639066759971011
 20
16.59512344293008
 30
0.0
 40
0.065
  0
CIRCLE
  5
303
330
1E
100
AcDbEntity
  8
OBJECT
100
AcDbCircle
 10
4.639066759971011
 20
16.59512344293008
 30
0.0
 40
0.156
  0
LINE
  5
304
330
1E
100
AcDbEntity
  8
OBJECT
100
AcDbLine
 10
4.413566759971035
 20
16.97512344293008
 30
0.0
 11
4.299408528802845
 21
16.97512344293008
 31
0.0
  0
CIRCLE
  5
305
330
1E
100
AcDbEntity
  8
OBJECT
100
AcDbCircle
 10
5.012066759971008
 20
16.49612344293008
 30
0.0
 40
0.045
  0
CIRCLE
  5
306
330
1E
100
AcDbEntity
  8
OBJECT
100
AcDbCircle
 10
5.012066759971008
 20
16.49612344293008
 30
0.0
 40
0.109
  0
CIRCLE
  5
307
330
1E
100
AcDbEntity
  8
OBJECT
100
AcDbCircle
 10
5.012066759971008
 20
16.49612344293008
 30
0.0
 40
0.0725
  0
CIRCLE
  5
308
330
1E
100
AcDbEntity
  8
OBJECT
100
AcDbCircle
 10
6.862066759971016
 20
16.49612344293008
 30
0.0
 40
0.045
  0
CIRCLE
  5
309
330
1E
100
AcDbEntity
  8
OBJECT
100
AcDbCircle
 10
6.862066759971016
 20
16.49612344293008
 30
0.0
 40
0.109
  0
CIRCLE
  5
30A
330
1E
100
AcDbEntity
  8
OBJECT
100
AcDbCircle
 10
6.862066759971016
 20
16.49612344293008
 30
0.0
 40
0.0725
  0
CIRCLE
  5
30B
330
1E
100
AcDbEntity
  8
OBJECT
100
AcDbCircle
 10
9.558066759971014
 20
16.20112344293008
 30
0.0
 40
0.109
  0
CIRCLE
  5
30C
330
1E
100
AcDbEntity
  8
OBJECT
100
AcDbCircle
 10
9.558066759971014
 20
16.20112344293008
 30
0.0
 40
0.0725
  0
CIRCLE
  5
30D
330
1E
100
AcDbEntity
  8
OBJECT
100
AcDbCircle
 10
9.558066759971014
 20
16.20112344293008
 30
0.0
 40
0.045
  0
CIRCLE
  5
30E
330
1E
100
AcDbEntity
  8
OBJECT
100
AcDbCircle
 10
8.71206675997101
 20
16.49612344293008
 30
0.0
 40
0.045
  0
CIRCLE
  5
30F
330
1E
100
AcDbEntity
  8
OBJECT
100
AcDbCircle
 10
8.71206675997101
 20
16.49612344293008
 30
0.0
 40
0.109
  0
CIRCLE
  5
310
330
1E
100
AcDbEntity
  8
OBJECT
100
AcDbCircle
 10
8.71206675997101
 20
16.49612344293008
 30
0.0
 40
0.0725
  0
CIRCLE
  5
311
330
1E
100
AcDbEntity
  8
OBJECT
100
AcDbCircle
 10
10.56206675997101
 20
16.49612344293008
 30
0.0
 40
0.109
  0
CIRCLE
  5
312
330
1E
100
AcDbEntity
  8
OBJECT
100
AcDbCircle
 10
10.56206675997101
 20
16.49612344293008
 30
0.0
 40
0.0725
  0
CIRCLE
  5
313
330
1E
100
AcDbEntity
  8
OBJECT
100
AcDbCircle
 10
10.56206675997101
 20
16.49612344293008
 30
0.0
 40
0.045
  0
LINE
  5
314
330
1E
100
AcDbEntity
  8
OBJECT
100
AcDbLine
 10
13.14206675997101
 20
10.49012344293009
 30
0.0
 11
13.14206675997101
 21
16.99012344293008
 31
0.0
  0
LINE
  5
315
330
1E
100
AcDbEntity
  8
HIDDEN
100
AcDbLine
 10
13.07306675997101
 20
10.66012344293008
 30
0.0
 11
13.07306675997101
 21
16.82012344293008
 31
0.0
  0
LINE
  5
316
330
1E
100
AcDbEntity
  8
HIDDEN
100
AcDbLine
 10
13.02306675997106
 20
16.82012344293008
 30
0.0
 11
13.02306675997099
 21
10.66012344293008
 31
0.0
  0
LINE
  5
317
330
1E
100
AcDbEntity
  8
HIDDEN
100
AcDbLine
 10
17.84583820121843
 20
10.66012344293005
 30
0.0
 11
17.84583820121843
 21
16.82012344293015
 31
0.0
  0
LINE
  5
318
330
1E
100
AcDbEntity
  8
OBJECT
100
AcDbLine
 10
17.77083820121843
 20
10.49012344293009
 30
0.0
 11
17.77083820121843
 21
16.99012344293008
 31
0.0
  0
LINE
  5
319
330
1E
100
AcDbEntity
  8
HIDDEN
100
AcDbLine
 10
18.43283820121844
 20
10.6601234429301
 30
0.0
 11
18.43283820121844
 21
16.82012344293009
 31
0.0
  0
LINE
  5
31A
330
1E
100
AcDbEntity
  8
OBJECT
100
AcDbLine
 10
18.55083820121843
 20
10.49012344293009
 30
0.0
 11
18.55083820121843
 21
16.99012344293008
 31
0.0
  0
CIRCLE
  5
31B
330
1E
100
AcDbEntity
  8
HIDDEN
  6
HIDDEN2
100
AcDbCircle
 10
12.78506675997101
 20
10.88512344293008
 30
0.0
 40
0.156
  0
LINE
  5
31C
330
1E
100
AcDbEntity
  8
HIDDEN
100
AcDbLine
 10
12.97306675997098
 20
10.55012344293008
 30
0.0
 11
13.02306675997099
 21
10.49012344293009
 31
0.0
  0
LINE
  5
31D
330
1E
100
AcDbEntity
  8
HIDDEN
100
AcDbLine
 10
12.96806675997099
 20
10.66012344293008
 30
0.0
 11
12.96806675997099
 21
10.62012344293008
 31
0.0
  0
LINE
  5
31E
330
1E
100
AcDbEntity
  8
HIDDEN
100
AcDbLine
 10
13.02306675997099
 20
10.62012344293008
 30
0.0
 11
13.02306675997099
 21
10.55012344293008
 31
0.0
  0
LINE
  5
31F
330
1E
100
AcDbEntity
  8
HIDDEN
100
AcDbLine
 10
13.02306675997104
 20
11.80712344293008
 30
0.0
 11
12.96806675997101
 21
11.80712344293008
 31
0.0
  0
LINE
  5
320
330
1E
100
AcDbEntity
  8
HIDDEN
100
AcDbLine
 10
13.02306675997104
 20
11.84712344293008
 30
0.0
 11
12.96806675997101
 21
11.84712344293008
 31
0.0
  0
LINE
  5
321
330
1E
100
AcDbEntity
  8
HIDDEN
100
AcDbLine
 10
13.02306675997104
 20
11.69712344293008
 30
0.0
 11
12.96806675997101
 21
11.69712344293009
 31
0.0
  0
LINE
  5
322
330
1E
100
AcDbEntity
  8
HIDDEN
100
AcDbLine
 10
13.02306675997104
 20
11.73712344293008
 30
0.0
 11
12.96806675997101
 21
11.73712344293009
 31
0.0
  0
CIRCLE
  5
323
330
1E
100
AcDbEntity
  8
HIDDEN
  6
HIDDEN2
100
AcDbCircle
 10
12.70806675997101
 20
11.27912344293008
 30
0.0
 40
0.109
  0
CIRCLE
  5
324
330
1E
100
AcDbEntity
  8
HIDDEN
  6
HIDDEN2
100
AcDbCircle
 10
12.41206675997101
 20
10.98412344293008
 30
0.0
 40
0.045
  0
CIRCLE
  5
325
330
1E
100
AcDbEntity
  8
HIDDEN
  6
HIDDEN2
100
AcDbCircle
 10
12.41206675997101
 20
10.98412344293008
 30
0.0
 40
0.109
  0
CIRCLE
  5
326
330
1E
100
AcDbEntity
  8
HIDDEN
  6
HIDDEN2
100
AcDbCircle
 10
12.41206675997101
 20
10.98412344293008
 30
0.0
 40
0.0725
  0
CIRCLE
  5
327
330
1E
100
AcDbEntity
  8
HIDDEN
  6
HIDDEN2
100
AcDbCircle
 10
12.70806675997101
 20
11.27912344293008
 30
0.0
 40
0.0725
  0
CIRCLE
  5
328
330
1E
100
AcDbEntity
  8
HIDDEN
  6
HIDDEN2
100
AcDbCircle
 10
12.70806675997101
 20
11.27912344293008
 30
0.0
 40
0.045
  0
CIRCLE
  5
329
330
1E
100
AcDbEntity
  8
HIDDEN
  6
HIDDEN2
100
AcDbCircle
 10
12.78506675997101
 20
10.88512344293008
 30
0.0
 40
0.065
  0
LINE
  5
32A
330
1E
100
AcDbEntity
  8
HIDDEN
100
AcDbLine
 10
12.96806675997101
 20
11.84712344293008
 30
0.0
 11
12.96806675997101
 21
11.80712344293008
 31
0.0
  0
LINE
  5
32B
330
1E
100
AcDbEntity
  8
HIDDEN
100
AcDbLine
 10
12.96806675997101
 20
11.69712344293009
 30
0.0
 11
12.96806675997101
 21
11.73712344293009
 31
0.0
  0
LINE
  5
32C
330
1E
100
AcDbEntity
  8
OBJECT
100
AcDbLine
 10
17.77083820121843
 20
10.49012344293009
 30
0.0
 11
18.55083820121843
 21
10.49012344293009
 31
0.0
  0
LINE
  5
32D
330
1E
100
AcDbEntity
  8
HIDDEN
100
AcDbLine
 10
17.77083820121843
 20
10.5501234429301
 30
0.0
 11
18.45683820121843
 21
10.5501234429301
 31
0.0
  0
LINE
  5
32E
330
1E
100
AcDbEntity
  8
HIDDEN
100
AcDbLine
 10
17.77083820121843
 20
10.66012344293003
 30
0.0
 11
18.43283820121844
 21
10.6601234429301
 31
0.0
  0
LINE
  5
32F
330
1E
100
AcDbEntity
  8
HIDDEN
100
AcDbLine
 10
17.77083820121843
 20
10.6201234429301
 30
0.0
 11
18.45683820121843
 21
10.6201234429301
 31
0.0
  0
LINE
  5
330
330
1E
100
AcDbEntity
  8
HIDDEN
  6
HIDDEN2
100
AcDbLine
 10
18.30433820121843
 20
10.93912344293008
 30
0.0
 11
18.49483820121844
 21
10.93912344293008
 31
0.0
  0
LINE
  5
331
330
1E
100
AcDbEntity
  8
HIDDEN
  6
HIDDEN2
100
AcDbLine
 10
18.30433820121844
 20
11.02912344293008
 30
0.0
 11
18.49483820121844
 21
11.02912344293008
 31
0.0
  0
LINE
  5
332
330
1E
100
AcDbEntity
  8
HIDDEN
  6
HIDDEN2
100
AcDbLine
 10
18.30433820121844
 20
11.32412344293008
 30
0.0
 11
18.49483820121844
 21
11.32412344293008
 31
0.0
  0
LINE
  5
333
330
1E
100
AcDbEntity
  8
HIDDEN
  6
HIDDEN2
100
AcDbLine
 10
18.30433820121843
 20
11.23412344293008
 30
0.0
 11
18.49483820121844
 21
11.23412344293008
 31
0.0
  0
LINE
  5
334
330
1E
100
AcDbEntity
  8
HIDDEN
  6
HIDDEN2
100
AcDbLine
 10
18.27683820121844
 20
11.38812344293008
 30
0.0
 11
18.43283820121844
 21
11.38812344293008
 31
0.0
  0
LINE
  5
335
330
1E
100
AcDbEntity
  8
HIDDEN
  6
HIDDEN2
100
AcDbLine
 10
18.27683820121844
 20
11.17012344293009
 30
0.0
 11
18.43283820121844
 21
11.17012344293009
 31
0.0
  0
LINE
  5
336
330
1E
100
AcDbEntity
  8
HIDDEN
  6
HIDDEN2
100
AcDbLine
 10
18.27683820121844
 20
11.20662344293008
 30
0.0
 11
18.30433820121843
 21
11.23412344293008
 31
0.0
  0
LINE
  5
337
330
1E
100
AcDbEntity
  8
HIDDEN
  6
HIDDEN2
100
AcDbLine
 10
18.30433820121843
 20
11.23412344293008
 30
0.0
 11
18.30433820121844
 21
11.32412344293008
 31
0.0
  0
LINE
  5
338
330
1E
100
AcDbEntity
  8
HIDDEN
  6
HIDDEN2
100
AcDbLine
 10
18.27683820121844
 20
11.35162344293009
 30
0.0
 11
18.30433820121843
 21
11.32412344293008
 31
0.0
  0
LINE
  5
339
330
1E
100
AcDbEntity
  8
HIDDEN
  6
HIDDEN2
100
AcDbLine
 10
18.27683820121844
 20
11.17012344293009
 30
0.0
 11
18.27683820121844
 21
11.38812344293008
 31
0.0
  0
LINE
  5
33A
330
1E
100
AcDbEntity
  8
HIDDEN
  6
HIDDEN2
100
AcDbLine
 10
18.30433820121843
 20
10.93912344293008
 30
0.0
 11
18.30433820121844
 21
11.02912344293008
 31
0.0
  0
LINE
  5
33B
330
1E
100
AcDbEntity
  8
HIDDEN
  6
HIDDEN2
100
AcDbLine
 10
18.27683820121844
 20
10.87512344293009
 30
0.0
 11
18.27683820121844
 21
11.09312344293008
 31
0.0
  0
LINE
  5
33C
330
1E
100
AcDbEntity
  8
HIDDEN
  6
HIDDEN2
100
AcDbLine
 10
18.27683820121844
 20
10.91162344293008
 30
0.0
 11
18.30433820121843
 21
10.93912344293008
 31
0.0
  0
LINE
  5
33D
330
1E
100
AcDbEntity
  8
HIDDEN
  6
HIDDEN2
100
AcDbLine
 10
18.27683820121844
 20
10.87512344293009
 30
0.0
 11
18.43283820121844
 21
10.87512344293009
 31
0.0
  0
LINE
  5
33E
330
1E
100
AcDbEntity
  8
HIDDEN
  6
HIDDEN2
100
AcDbLine
 10
18.27683820121844
 20
11.05662344293009
 30
0.0
 11
18.30433820121843
 21
11.02912344293008
 31
0.0
  0
LINE
  5
33F
330
1E
100
AcDbEntity
  8
HIDDEN
  6
HIDDEN2
100
AcDbLine
 10
18.27683820121844
 20
11.09312344293008
 30
0.0
 11
18.43283820121844
 21
11.09312344293008
 31
0.0
  0
LINE
  5
340
330
1E
100
AcDbEntity
  8
HIDDEN
100
AcDbLine
 10
18.43283820121844
 20
11.8071234429301
 30
0.0
 11
17.78283820121844
 21
11.8071234429301
 31
0.0
  0
LINE
  5
341
330
1E
100
AcDbEntity
  8
HIDDEN
100
AcDbLine
 10
18.43283820121844
 20
11.84712344293014
 30
0.0
 11
17.78283820121844
 21
11.84712344293006
 31
0.0
  0
LINE
  5
342
330
1E
100
AcDbEntity
  8
HIDDEN
100
AcDbLine
 10
18.43283820121844
 20
11.6971234429301
 30
0.0
 11
17.78283820121844
 21
11.6971234429301
 31
0.0
  0
LINE
  5
343
330
1E
100
AcDbEntity
  8
HIDDEN
100
AcDbLine
 10
18.43283820121844
 20
11.73712344293009
 30
0.0
 11
17.78283820121844
 21
11.73712344293009
 31
0.0
  0
LINE
  5
344
330
1E
100
AcDbEntity
  8
HIDDEN
  6
HIDDEN2
100
AcDbLine
 10
18.49483820121844
 20
11.23412344293008
 30
0.0
 11
18.49483820121844
 21
11.32412344293008
 31
0.0
  0
LINE
  5
345
330
1E
100
AcDbEntity
  8
HIDDEN
  6
HIDDEN2
100
AcDbLine
 10
18.49483820121844
 20
10.93912344293008
 30
0.0
 11
18.49483820121844
 21
11.02912344293008
 31
0.0
  0
CIRCLE
  5
346
330
1E
100
AcDbEntity
  8
HIDDEN
  6
HIDDEN2
100
AcDbCircle
 10
12.70806675997101
 20
16.20112344293008
 30
0.0
 40
0.0725
  0
CIRCLE
  5
347
330
1E
100
AcDbEntity
  8
HIDDEN
  6
HIDDEN2
100
AcDbCircle
 10
12.70806675997101
 20
16.20112344293008
 30
0.0
 40
0.109
  0
LINE
  5
348
330
1E
100
AcDbEntity
  8
HIDDEN
100
AcDbLine
 10
13.02306675997104
 20
15.63312344293008
 30
0.0
 11
12.96806675997101
 21
15.63312344293009
 31
0.0
  0
LINE
  5
349
330
1E
100
AcDbEntity
  8
HIDDEN
100
AcDbLine
 10
13.02306675997104
 20
15.67312344293008
 30
0.0
 11
12.96806675997101
 21
15.67312344293009
 31
0.0
  0
LINE
  5
34A
330
1E
100
AcDbEntity
  8
HIDDEN
100
AcDbLine
 10
13.02306675997104
 20
15.74312344293008
 30
0.0
 11
12.96806675997101
 21
15.74312344293008
 31
0.0
  0
LINE
  5
34B
330
1E
100
AcDbEntity
  8
HIDDEN
100
AcDbLine
 10
13.02306675997104
 20
15.78312344293008
 30
0.0
 11
12.96806675997101
 21
15.78312344293008
 31
0.0
  0
LINE
  5
34C
330
1E
100
AcDbEntity
  8
HIDDEN
100
AcDbLine
 10
13.02306675997104
 20
13.81512344293009
 30
0.0
 11
12.96806675997101
 21
13.81512344293009
 31
0.0
  0
LINE
  5
34D
330
1E
100
AcDbEntity
  8
HIDDEN
100
AcDbLine
 10
13.02306675997104
 20
13.77512344293009
 30
0.0
 11
12.96806675997101
 21
13.77512344293009
 31
0.0
  0
LINE
  5
34E
330
1E
100
AcDbEntity
  8
HIDDEN
100
AcDbLine
 10
13.02306675997104
 20
13.70512344293008
 30
0.0
 11
12.96806675997101
 21
13.70512344293008
 31
0.0
  0
LINE
  5
34F
330
1E
100
AcDbEntity
  8
HIDDEN
100
AcDbLine
 10
13.02306675997104
 20
13.66512344293009
 30
0.0
 11
12.96806675997101
 21
13.66512344293009
 31
0.0
  0
LINE
  5
350
330
1E
100
AcDbEntity
  8
HIDDEN
100
AcDbLine
 10
12.96806675997101
 20
13.81512344293009
 30
0.0
 11
12.96806675997101
 21
13.77512344293009
 31
0.0
  0
LINE
  5
351
330
1E
100
AcDbEntity
  8
HIDDEN
100
AcDbLine
 10
12.96806675997101
 20
13.66512344293009
 30
0.0
 11
12.96806675997101
 21
13.70512344293008
 31
0.0
  0
CIRCLE
  5
352
330
1E
100
AcDbEntity
  8
HIDDEN
  6
HIDDEN2
100
AcDbCircle
 10
12.70806675997101
 20
16.20112344293008
 30
0.0
 40
0.045
  0
LINE
  5
353
330
1E
100
AcDbEntity
  8
HIDDEN
100
AcDbLine
 10
12.96806675997101
 20
15.63312344293009
 30
0.0
 11
12.96806675997101
 21
15.67312344293009
 31
0.0
  0
LINE
  5
354
330
1E
100
AcDbEntity
  8
HIDDEN
100
AcDbLine
 10
12.96806675997101
 20
15.78312344293008
 30
0.0
 11
12.96806675997101
 21
15.74312344293008
 31
0.0
  0
LINE
  5
355
330
1E
100
AcDbEntity
  8
HIDDEN
100
AcDbLine
 10
12.97306675997098
 20
16.93012344293008
 30
0.0
 11
13.02306675997099
 21
16.99012344293008
 31
0.0
  0
CIRCLE
  5
356
330
1E
100
AcDbEntity
  8
HIDDEN
  6
HIDDEN2
100
AcDbCircle
 10
12.41206675997101
 20
16.49612344293008
 30
0.0
 40
0.045
  0
CIRCLE
  5
357
330
1E
100
AcDbEntity
  8
HIDDEN
  6
HIDDEN2
100
AcDbCircle
 10
12.41206675997101
 20
16.49612344293008
 30
0.0
 40
0.0725
  0
CIRCLE
  5
358
330
1E
100
AcDbEntity
  8
HIDDEN
  6
HIDDEN2
100
AcDbCircle
 10
12.41206675997101
 20
16.49612344293008
 30
0.0
 40
0.109
  0
LINE
  5
359
330
1E
100
AcDbEntity
  8
HIDDEN
100
AcDbLine
 10
12.96806675997106
 20
16.86012344293008
 30
0.0
 11
12.96806675997106
 21
16.82012344293008
 31
0.0
  0
CIRCLE
  5
35A
330
1E
100
AcDbEntity
  8
HIDDEN
  6
HIDDEN2
100
AcDbCircle
 10
12.78506675997101
 20
16.59512344293008
 30
0.0
 40
0.065
  0
CIRCLE
  5
35B
330
1E
100
AcDbEntity
  8
HIDDEN
  6
HIDDEN2
100
AcDbCircle
 10
12.78506675997101
 20
16.59512344293008
 30
0.0
 40
0.156
  0
LINE
  5
35C
330
1E
100
AcDbEntity
  8
HIDDEN
100
AcDbLine
 10
13.02306675997106
 20
16.93012344293008
 30
0.0
 11
13.02306675997106
 21
16.86012344293008
 31
0.0
  0
LINE
  5
35D
330
1E
100
AcDbEntity
  8
HIDDEN
100
AcDbLine
 10
18.43283820121844
 20
13.7051234429301
 30
0.0
 11
17.78283820121844
 21
13.70512344293009
 31
0.0
  0
LINE
  5
35E
330
1E
100
AcDbEntity
  8
HIDDEN
100
AcDbLine
 10
18.43283820121844
 20
13.6651234429301
 30
0.0
 11
17.78283820121844
 21
13.6651234429301
 31
0.0
  0
LINE
  5
35F
330
1E
100
AcDbEntity
  8
HIDDEN
100
AcDbLine
 10
18.43283820121844
 20
13.81512344293014
 30
0.0
 11
17.78283820121844
 21
13.81512344293006
 31
0.0
  0
LINE
  5
360
330
1E
100
AcDbEntity
  8
HIDDEN
100
AcDbLine
 10
18.43283820121844
 20
13.7751234429301
 30
0.0
 11
17.78283820121844
 21
13.7751234429301
 31
0.0
  0
LINE
  5
361
330
1E
100
AcDbEntity
  8
HIDDEN
100
AcDbLine
 10
18.43283820121844
 20
15.7431234429301
 30
0.0
 11
17.78283820121844
 21
15.7431234429301
 31
0.0
  0
LINE
  5
362
330
1E
100
AcDbEntity
  8
HIDDEN
100
AcDbLine
 10
18.43283820121844
 20
15.78312344293014
 30
0.0
 11
17.78283820121844
 21
15.78312344293006
 31
0.0
  0
LINE
  5
363
330
1E
100
AcDbEntity
  8
HIDDEN
100
AcDbLine
 10
18.43283820121844
 20
15.6331234429301
 30
0.0
 11
17.78283820121844
 21
15.6331234429301
 31
0.0
  0
LINE
  5
364
330
1E
100
AcDbEntity
  8
HIDDEN
100
AcDbLine
 10
18.43283820121844
 20
15.6731234429301
 30
0.0
 11
17.78283820121844
 21
15.67312344293009
 31
0.0
  0
LINE
  5
365
330
1E
100
AcDbEntity
  8
OBJECT
100
AcDbLine
 10
17.74083820121842
 20
16.99012344293008
 30
0.0
 11
17.74083820121841
 21
10.4901234429301
 31
0.0
  0
LINE
  5
366
330
1E
100
AcDbEntity
  8
OBJECT
100
AcDbLine
 10
16.96083820121843
 20
16.99012344293008
 30
0.0
 11
16.96083820121844
 21
10.49012344293009
 31
0.0
  0
LINE
  5
367
330
1E
100
AcDbEntity
  8
HIDDEN
100
AcDbLine
 10
17.07883820121844
 20
16.82012344293007
 30
0.0
 11
17.07883820121844
 21
10.66012344293008
 31
0.0
  0
LINE
  5
368
330
1E
100
AcDbEntity
  8
OBJECT
100
AcDbLine
 10
17.74083820121841
 20
10.4901234429301
 30
0.0
 11
16.96083820121844
 21
10.49012344293009
 31
0.0
  0
LINE
  5
369
330
1E
100
AcDbEntity
  8
HIDDEN
100
AcDbLine
 10
17.72883820121845
 20
10.62012344293008
 30
0.0
 11
17.72883820121845
 21
10.66012344293001
 31
0.0
  0
LINE
  5
36A
330
1E
100
AcDbEntity
  8
HIDDEN
100
AcDbLine
 10
17.77083820121843
 20
10.55012344293008
 30
0.0
 11
17.05483820121844
 21
10.55012344293008
 31
0.0
  0
LINE
  5
36B
330
1E
100
AcDbEntity
  8
HIDDEN
100
AcDbLine
 10
17.72883820121845
 20
10.62012344293008
 30
0.0
 11
17.05483820121844
 21
10.62012344293008
 31
0.0
  0
LINE
  5
36C
330
1E
100
AcDbEntity
  8
OBJECT
100
AcDbLine
 10
17.77083820121843
 20
10.50512344293009
 30
0.0
 11
17.74083820121841
 21
10.50512344293009
 31
0.0
  0
LINE
  5
36D
330
1E
100
AcDbEntity
  8
HIDDEN
100
AcDbLine
 10
17.03583820121844
 20
10.49012344293009
 30
0.0
 11
17.09683820121844
 21
10.55012344293008
 31
0.0
  0
LINE
  5
36E
330
1E
100
AcDbEntity
  8
HIDDEN
100
AcDbLine
 10
17.05483820121844
 20
10.62012344293008
 30
0.0
 11
17.05483820121844
 21
10.55012344293008
 31
0.0
  0
LINE
  5
36F
330
1E
100
AcDbEntity
  8
HIDDEN
100
AcDbLine
 10
17.72883820121845
 20
10.66012344293001
 30
0.0
 11
17.07883820121844
 21
10.66012344293008
 31
0.0
  0
LINE
  5
370
330
1E
100
AcDbEntity
  8
HIDDEN
100
AcDbLine
 10
17.07883820121843
 20
11.73712344293007
 30
0.0
 11
17.72883820121845
 21
11.73712344293007
 31
0.0
  0
LINE
  5
371
330
1E
100
AcDbEntity
  8
HIDDEN
100
AcDbLine
 10
17.07883820121843
 20
11.69712344293003
 30
0.0
 11
17.72883820121845
 21
11.69712344293011
 31
0.0
  0
LINE
  5
372
330
1E
100
AcDbEntity
  8
HIDDEN
100
AcDbLine
 10
17.07883820121843
 20
11.84712344293007
 30
0.0
 11
17.72883820121845
 21
11.84712344293007
 31
0.0
  0
LINE
  5
373
330
1E
100
AcDbEntity
  8
HIDDEN
100
AcDbLine
 10
17.07883820121843
 20
11.80712344293007
 30
0.0
 11
17.72883820121845
 21
11.80712344293008
 31
0.0
  0
LINE
  5
374
330
1E
100
AcDbEntity
  8
HIDDEN
100
AcDbLine
 10
17.72883820121845
 20
11.69712344293011
 30
0.0
 11
17.72883820121845
 21
11.73712344293007
 31
0.0
  0
LINE
  5
375
330
1E
100
AcDbEntity
  8
HIDDEN
100
AcDbLine
 10
17.72883820121845
 20
11.80712344293008
 30
0.0
 11
17.72883820121845
 21
11.84712344293007
 31
0.0
  0
LINE
  5
376
330
1E
100
AcDbEntity
  8
HIDDEN
100
AcDbLine
 10
17.07883820121843
 20
13.77512344293007
 30
0.0
 11
17.72883820121845
 21
13.77512344293008
 31
0.0
  0
LINE
  5
377
330
1E
100
AcDbEntity
  8
HIDDEN
100
AcDbLine
 10
17.07883820121843
 20
13.81512344293007
 30
0.0
 11
17.72883820121845
 21
13.81512344293007
 31
0.0
  0
LINE
  5
378
330
1E
100
AcDbEntity
  8
HIDDEN
100
AcDbLine
 10
17.07883820121843
 20
13.66512344293003
 30
0.0
 11
17.72883820121845
 21
13.66512344293011
 31
0.0
  0
LINE
  5
379
330
1E
100
AcDbEntity
  8
HIDDEN
100
AcDbLine
 10
17.07883820121843
 20
13.70512344293007
 30
0.0
 11
17.72883820121845
 21
13.70512344293007
 31
0.0
  0
LINE
  5
37A
330
1E
100
AcDbEntity
  8
HIDDEN
100
AcDbLine
 10
17.72883820121845
 20
13.77512344293008
 30
0.0
 11
17.72883820121845
 21
13.81512344293007
 31
0.0
  0
LINE
  5
37B
330
1E
100
AcDbEntity
  8
HIDDEN
100
AcDbLine
 10
17.72883820121845
 20
13.66512344293011
 30
0.0
 11
17.72883820121845
 21
13.70512344293007
 31
0.0
  0
LINE
  5
37C
330
1E
100
AcDbEntity
  8
HIDDEN
100
AcDbLine
 10
17.07883820121843
 20
15.67312344293007
 30
0.0
 11
17.72883820121845
 21
15.67312344293007
 31
0.0
  0
LINE
  5
37D
330
1E
100
AcDbEntity
  8
HIDDEN
100
AcDbLine
 10
17.07883820121843
 20
15.63312344293003
 30
0.0
 11
17.72883820121845
 21
15.63312344293011
 31
0.0
  0
LINE
  5
37E
330
1E
100
AcDbEntity
  8
HIDDEN
100
AcDbLine
 10
17.07883820121843
 20
15.78312344293007
 30
0.0
 11
17.72883820121845
 21
15.78312344293007
 31
0.0
  0
LINE
  5
37F
330
1E
100
AcDbEntity
  8
HIDDEN
100
AcDbLine
 10
17.07883820121843
 20
15.74312344293008
 30
0.0
 11
17.72883820121845
 21
15.74312344293008
 31
0.0
  0
LINE
  5
380
330
1E
100
AcDbEntity
  8
HIDDEN
100
AcDbLine
 10
17.72883820121845
 20
15.63312344293011
 30
0.0
 11
17.72883820121845
 21
15.67312344293007
 31
0.0
  0
LINE
  5
381
330
1E
100
AcDbEntity
  8
HIDDEN
100
AcDbLine
 10
17.72883820121845
 20
15.74312344293008
 30
0.0
 11
17.72883820121845
 21
15.78312344293007
 31
0.0
  0
LINE
  5
382
330
1E
100
AcDbEntity
  8
CENTER
  6
CENTER2
100
AcDbLine
 10
4.688458279907815
 20
15.70812344293009
 30
0.0
 11
4.118774158607737
 21
15.70812344293009
 31
0.0
  0
LINE
  5
383
330
1E
100
AcDbEntity
  8
CENTER
  6
CENTER2
100
AcDbLine
 10
4.688458279907815
 20
13.74012344293008
 30
0.0
 11
4.118774158607737
 21
13.74012344293008
 31
0.0
  0
LINE
  5
384
330
1E
100
AcDbEntity
  8
CENTER
  6
CENTER2
100
AcDbLine
 10
4.688458279907815
 20
11.77212344293008
 30
0.0
 11
4.118774158607737
 21
11.77212344293008
 31
0.0
  0
LWPOLYLINE
  5
385
330
1E
100
AcDbEntity
  8
OBJECT
100
AcDbPolyline
 90
       82
 70
     0
 43
0.0
 10
11.75394415287451
 20
16.99012344293008
 10
11.8379111891679
 20
16.87413643295005
 10
11.8872431502216
 20
16.74672898538292
 10
11.89551330547789
 20
16.63215488615511
 10
11.87559727976002
 20
16.52800480927395
 10
11.84037069789121
 20
16.43186942874677
 10
11.8027091846947
 20
16.34133941858091
 10
11.77548836499372
 20
16.25400545278369
 10
11.76851765304227
 20
16.16783107722693
 10
11.77934162081755
 20
16.08227132524036
 10
11.80243862972751
 20
15.99715410201819
 10
11.83228704118012
 20
15.91230731275465
 10
11.86336521658335
 20
15.82755886264393
 10
11.89015151734515
 20
15.74273665688027
 10
11.90712430487349
 20
15.65766860065786
 10
11.90876194057634
 20
15.57218259917094
 10
11.89140587771945
 20
15.48615163010119
 10
11.85884993699972
 20
15.39962896108021
 10
11.81675103097183
 20
15.31271293222708
 10
11.77076607219048
 20
15.22550188366087
 10
11.72655197321033
 20
15.13809415550068
 10
11.68976564658609
 20
15.05058808786556
 10
11.66606400487243
 20
14.96308202087461
 10
11.66110396062404
 20
14.87567429464691
 10
11.6785174156731
 20
14.78849602915333
 10
11.71383622896172
 20
14.70180946377202
 10
11.76056724870947
 20
14.61590961773293
 10
11.81221732313599
 20
14.53109151026601
 10
11.86229330046084
 20
14.44765016060121
 10
11.90430202890364
 20
14.36588058796848
 10
11.93175035668397
 20
14.28607781159778
 10
11.93814513202145
 20
14.20853685071903
 10
11.91922317440423
 20
14.13341750736818
 10
11.87964118839482
 20
14.06033871480502
 10
11.82628584982431
 20
13.98878418909531
 10
11.76604383452374
 20
13.91823764630482
 10
11.70580181832421
 20
13.84818280249931
 10
11.6524464770568
 20
13.77810337374455
 10
11.61286448655256
 20
13.70748307610632
 10
11.5939425226426
 20
13.63580562565036
 10
11.60031269470177
 20
13.56262439577182
 10
11.62758884628017
 20
13.48777138918329
 10
11.66913025447169
 20
13.41114826592674
 10
11.71829619637023
 20
13.33265668604411
 10
11.76844594906967
 20
13.25219830957739
 10
11.81293878966391
 20
13.16967479656853
 10
11.84513399524684
 20
13.0849878070595
 10
11.85839084291234
 20
12.99803900109224
 10
11.84824529118129
 20
12.90891442593547
 10
11.81894002428241
 20
12.81843767776478
 10
11.77689440787138
 20
12.72761673998253
 10
11.72852780760394
 20
12.63745959599104
 10
11.68025958913575
 20
12.54897422919266
 10
11.63850911812251
 20
12.46316862298974
 10
11.60969576021994
 20
12.38105076078461
 10
11.60023888108372
 20
12.30362862597961
 10
11.61437296645932
 20
12.23152913510268
 10
11.64759298245123
 20
12.16385493718415
 10
11.69320901525371
 20
12.09932761437991
 10
11.74453115106103
 20
12.03666874884591
 10
11.79486947606744
 20
11.97459992273805
 10
11.83753407646721
 20
11.91184271821225
 10
11.86583503845459
 20
11.84711871742444
 10
11.87308244822385
 20
11.77914950253052
 10
11.85489014902543
 20
11.70704591751706
 10
11.81608701233444
 20
11.63147585369322
 10
11.76380566668219
 20
11.55349646419878
 10
11.70517874059998
 20
11.47416490217357
 10
11.64733886261913
 20
11.39453832075735
 10
11.59741866127091
 20
11.31567387308995
 10
11.56255076508665
 20
11.23862871231115
 10
11.54986780259764
 20
11.16445999156076
 10
11.56394654379124
 20
11.0938007734564
 10
11.59914032447905
 20
11.02558775852702
 10
11.64724662192875
 20
10.9583335567794
 10
11.70006291340798
 20
10.89055077822033
 10
11.74938667618441
 20
10.82075203285657
 10
11.78701538752571
 20
10.74744993069491
 10
11.80474652469954
 20
10.66915708174213
 10
11.79437756497355
 20
10.58438609600499
 10
11.75239958316534
 20
10.49190362804639
 10
11.75136560268432
 20
10.49012344293009
  0
LINE
  5
3D9
330
1E
100
AcDbEntity
  8
OBJECT
100
AcDbLine
 10
11.79738024264414
 20
16.93012344293008
 30
0.0
 11
4.401066759971018
 21
16.93012344293008
 31
0.0
  0
LINE
  5
3DA
330
1E
100
AcDbEntity
  8
OBJECT
100
AcDbLine
 10
11.84333699661567
 20
16.86012344293008
 30
0.0
 11
4.401066759971018
 21
16.86012344293009
 31
0.0
  0
LINE
  5
3DB
330
1E
100
AcDbEntity
  8
OBJECT
100
AcDbLine
 10
11.85882493299481
 20
16.82012344293009
 30
0.0
 11
4.401066759971018
 21
16.82012344293009
 31
0.0
  0
LINE
  5
3DC
330
1E
100
AcDbEntity
  8
HIDDEN
100
AcDbLine
 10
11.85108877992756
 20
10.66012344293008
 30
0.0
 11
13.07306675997101
 21
10.66012344293008
 31
0.0
  0
LINE
  5
3DD
330
1E
100
AcDbEntity
  8
HIDDEN
100
AcDbLine
 10
11.84619608715735
 20
10.62012344293008
 30
0.0
 11
13.02306675997099
 21
10.62012344293008
 31
0.0
  0
LINE
  5
3DE
330
1E
100
AcDbEntity
  8
HIDDEN
100
AcDbLine
 10
11.82627290221032
 20
10.55012344293008
 30
0.0
 11
13.02306675997099
 21
10.55012344293008
 31
0.0
  0
DIMENSION
  5
3DF
330
1E
100
AcDbEntity
  8
DIM
100
AcDbDimension
  2
*D23
 10
6.862066759971016
 20
10.04965726441104
 30
0.0
 11
5.937066759971012
 21
10.04965726441104
 31
0.0
  1
<>
 71
     5
 42
-1.0
  3
23NSTDI
100
AcDbAlignedDimension
 13
5.012066759971008
 23
10.98412344293008
 33
0.0
 14
6.862066759971016
 24
10.98412344293008
 34
0.0
100
AcDbRotatedDimension
  0
DIMENSION
  5
3E0
330
1E
100
AcDbEntity
  8
DIM
100
AcDbDimension
  2
*D27
 10
12.41206675997101
 20
8.049657264411042
 30
0.0
 11
8.71206675997101
 21
8.049657264411042
 31
0.0
 71
     5
 42
-1.0
  3
23NSTD
100
AcDbAlignedDimension
 13
5.012066759971008
 23
10.98412344293008
 33
0.0
 14
12.41206675997101
 24
10.98412344293008
 34
0.0
100
AcDbRotatedDimension
  0
DIMENSION
  5
3E1
330
1E
100
AcDbEntity
  8
DIM
100
AcDbDimension
  2
*D2
 10
4.639066759971011
 20
17.56569528650443
 30
0.0
 11
5.898441759971009
 21
17.56569528650443
 31
0.0
 12
1.61381319584912
 22
-1.429972283861579
 32
0.0
 71
     5
 42
-1.0
  3
23NSTD
100
AcDbAlignedDimension
 13
4.282066759971026
 23
16.99012344293008
 33
0.0
 14
4.639066759971011
 24
16.59512344293008
 34
0.0
100
AcDbRotatedDimension
  0
DIMENSION
  5
3E2
330
1E
100
AcDbEntity
  8
DIM
100
AcDbDimension
  2
*D3
 10
3.61430765553307
 20
15.70812344293009
 30
0.0
 11
3.61430765553307
 21
14.72412344293008
 31
0.0
 12
1.61381319584912
 22
-1.429972283861579
 32
0.0
 71
     5
 42
-1.0
  3
23NSTD
100
AcDbAlignedDimension
 13
4.118774158607737
 23
13.74012344293008
 33
0.0
 14
4.118774158607737
 24
15.70812344293009
 34
0.0
 50
90.0
100
AcDbRotatedDimension
  0
DIMENSION
  5
3E3
330
1E
100
AcDbEntity
  8
DIM
100
AcDbDimension
  2
*D4
 10
3.61430765553307
 20
11.77212344293008
 30
0.0
 11
3.61430765553307
 21
12.75612344293009
 31
0.0
 12
1.61381319584912
 22
-1.429972283861579
 32
0.0
 71
     5
 42
-1.0
  3
23NSTD
100
AcDbAlignedDimension
 13
4.118774158607737
 23
13.74012344293008
 33
0.0
 14
4.118774158607737
 24
11.77212344293008
 34
0.0
 50
90.0
100
AcDbRotatedDimension
  0
DIMENSION
  5
3E4
330
1E
100
AcDbEntity
  8
DIM
100
AcDbDimension
  2
*D5
 10
2.446234410405546
 20
16.99012344293008
 30
0.0
 11
2.446234410405546
 21
15.36512344293008
 31
0.0
 12
1.61381319584912
 22
-1.429972283861579
 32
0.0
 71
     5
 42
-1.0
  3
23NSTD
100
AcDbAlignedDimension
 13
4.118774158607737
 23
13.74012344293008
 33
0.0
 14
4.282066759971026
 24
16.99012344293008
 34
0.0
 50
90.0
100
AcDbRotatedDimension
  0
DIMENSION
  5
3E5
330
1E
100
AcDbEntity
  8
DIM
100
AcDbDimension
  2
*D6
 10
14.65840979818568
 20
10.49012344293009
 30
0.0
 11
14.65840979818568
 21
13.74012344293008
 31
0.0
 12
1.61381319584912
 22
-1.429972283861579
 32
0.0
 71
     5
 42
-1.0
  3
23NSTD
100
AcDbAlignedDimension
 13
13.14206675997101
 23
16.99012344293008
 33
0.0
 14
13.14206675997101
 24
10.49012344293009
 34
0.0
 50
90.0
100
AcDbRotatedDimension
  0
DIMENSION
  5
3E6
330
1E
100
AcDbEntity
  8
DIM
100
AcDbDimension
  2
*D17
 10
3.191307655533068
 20
16.99012344293008
 30
0.0
 11
3.191307655533068
 21
16.79262344293008
 31
0.0
 12
1.61381319584912
 22
-1.429972283861579
 32
0.0
 71
     5
 42
-1.0
  3
23NSTDI
100
AcDbAlignedDimension
 13
4.639066759971011
 23
16.59512344293008
 33
0.0
 14
4.282066759971026
 24
16.99012344293008
 34
0.0
 50
90.0
100
AcDbRotatedDimension
  0
DIMENSION
  5
3E7
330
1E
100
AcDbEntity
  8
DIM
100
AcDbDimension
  2
*D28
 10
4.282066759971011
 20
8.049657264411042
 30
0.0
 11
3.038316759971012
 21
8.049657264411042
 31
0.0
 71
     5
 42
-1.0
  3
23NSTD
100
AcDbAlignedDimension
 13
5.012066759971008
 23
10.98412344293008
 33
0.0
 14
4.282066759971011
 24
10.49012344293009
 34
0.0
100
AcDbRotatedDimension
  0
DIMENSION
  5
3E8
330
1E
100
AcDbEntity
  8
DIM
100
AcDbDimension
  2
*D7
 10
9.558066759971014
 20
11.91663573803183
 30
0.0
 11
7.137066759971014
 21
11.91663573803183
 31
0.0
 12
1.61381319584912
 22
-1.429972283861579
 32
0.0
 71
     5
 42
-1.0
  3
23NSTD
100
AcDbAlignedDimension
 13
4.716066759971016
 23
11.27912344293008
 33
0.0
 14
9.558066759971014
 24
11.27912344293008
 34
0.0
100
AcDbRotatedDimension
  0
DIMENSION
  5
3E9
330
1E
100
AcDbEntity
  8
DIM
100
AcDbDimension
  2
*D8
 10
12.70806675997101
 20
11.91663573803183
 30
0.0
 11
11.13306675997101
 21
11.91663573803183
 31
0.0
 12
1.61381319584912
 22
-1.429972283861579
 32
0.0
 71
     5
 42
-1.0
  3
23NSTD
100
AcDbAlignedDimension
 13
9.558066759971014
 23
11.27912344293008
 33
0.0
 14
12.70806675997101
 24
11.27912344293008
 34
0.0
100
AcDbRotatedDimension
  0
DIMENSION
  5
3EA
330
1E
100
AcDbEntity
  8
DIM
100
AcDbDimension
  2
*D29
 10
4.282066759971011
 20
9.049657264411042
 30
0.0
 11
3.022691759971012
 21
9.049657264411042
 31
0.0
 71
     5
 42
-1.0
  3
23NSTD
100
AcDbAlignedDimension
 13
4.716066759971016
 23
11.27912344293008
 33
0.0
 14
4.282066759971011
 24
10.49012344293009
 34
0.0
100
AcDbRotatedDimension
  0
DIMENSION
  5
3EB
330
1E
100
AcDbEntity
  8
DIM
100
AcDbDimension
  2
*D18
 10
3.191307655533068
 20
10.49012344293008
 30
0.0
 11
3.191307655533068
 21
10.68762344293009
 31
0.0
 12
1.61381319584912
 22
-1.429972283861579
 32
0.0
 71
     5
 42
-1.0
  3
23NSTDI
100
AcDbAlignedDimension
 13
4.639066759971011
 23
10.88512344293008
 33
0.0
 14
4.282066759971026
 24
10.49012344293008
 34
0.0
 50
90.0
100
AcDbRotatedDimension
  0
DIMENSION
  5
3EC
330
1E
100
AcDbEntity
  8
DIM
100
AcDbDimension
  2
*D9
 10
10.13183461159168
 20
16.86012344293009
 30
0.0
 11
10.13183461159168
 21
13.74012344293008
 31
0.0
 12
1.61381319584912
 22
-1.429972283861579
 32
0.0
 71
     5
 42
-1.0
  3
23NSTD
100
AcDbAlignedDimension
 13
10.07712730189046
 23
10.62012344293008
 33
0.0
 14
10.07712730189047
 24
16.86012344293009
 34
0.0
 50
90.0
100
AcDbRotatedDimension
  0
DIMENSION
  5
3ED
330
1E
100
AcDbEntity
  8
DIM
100
AcDbDimension
  2
*D10
 10
13.02306675997101
 20
13.07639560262453
 30
0.0
 11
8.712066759971017
 21
13.07639560262453
 31
0.0
 12
1.61381319584912
 22
-1.429972283861579
 32
0.0
 71
     5
 42
-1.0
  3
23NSTD
100
AcDbAlignedDimension
 13
4.401066759971018
 23
12.9665406272144
 33
0.0
 14
13.02306675997101
 24
12.96654062721431
 34
0.0
100
AcDbRotatedDimension
  0
DIMENSION
  5
3EE
330
1E
100
AcDbEntity
  8
DIM
100
AcDbDimension
  2
*D22
 10
13.142066759971
 20
18.06569528650443
 30
0.0
 11
8.712066759971008
 21
18.06569528650443
 31
0.0
 71
     5
 42
-1.0
  3
23NSTD
100
AcDbAlignedDimension
 13
4.282066759971009
 23
17.00012344293007
 33
0.0
 14
13.142066759971
 24
16.99012344293008
 34
0.0
100
AcDbRotatedDimension
  0
DIMENSION
  5
3EF
330
1E
100
AcDbEntity
  8
DIM
100
AcDbDimension
  2
*D11
 10
5.915540899738426
 20
15.67312344293009
 30
0.0
 11
5.047415899738427
 21
14.95312344293009
 31
0.0
 12
1.61381319584912
 22
-1.429972283861579
 32
0.0
 71
     5
 42
-1.0
  3
23NSTD
100
AcDbAlignedDimension
 13
4.456066759971025
 23
15.74312344293008
 33
0.0
 14
4.456066759971025
 24
15.67312344293009
 34
0.0
 50
90.0
100
AcDbRotatedDimension
  0
DIMENSION
  5
3F0
330
1E
100
AcDbEntity
  8
DIM
100
AcDbDimension
  2
*D12
 10
7.319895586955675
 20
13.74012344293008
 30
0.0
 11
7.319895586955675
 21
15.11812344293008
 31
0.0
 12
1.61381319584912
 22
-1.429972283861579
 32
0.0
 71
     5
 42
-1.0
  3
23NSTD
100
AcDbAlignedDimension
 13
6.862066759971016
 23
16.49612344293008
 33
0.0
 14
4.688458279907815
 24
13.74012344293008
 34
0.0
 50
90.0
100
AcDbRotatedDimension
  0
DIMENSION
  5
3F1
330
1E
100
AcDbEntity
  8
DIM
100
AcDbDimension
  2
*D13
 10
6.072972380988455
 20
10.98412344293008
 30
0.0
 11
6.072972380988455
 21
12.36212344293008
 31
0.0
 12
1.61381319584912
 22
-1.429972283861579
 32
0.0
 71
     5
 42
-1.0
  3
23NSTD
100
AcDbAlignedDimension
 13
4.688458279907815
 23
13.74012344293008
 33
0.0
 14
6.862066759971016
 24
10.98412344293008
 34
0.0
 50
90.0
100
AcDbRotatedDimension
  0
DIMENSION
  5
3F2
330
1E
100
AcDbEntity
  8
DIM
100
AcDbDimension
  2
*D14
 10
13.80241993619983
 20
13.74012344293008
 30
0.0
 11
13.80241993619983
 21
14.97062344293009
 31
0.0
 12
1.61381319584912
 22
-1.429972283861579
 32
0.0
 71
     5
 42
-1.0
  3
23NSTD
100
AcDbAlignedDimension
 13
12.708066759971
 23
16.20112344293008
 33
0.0
 14
13.14206675997101
 24
13.74012344293008
 34
0.0
 50
270.0
100
AcDbRotatedDimension
  0
DIMENSION
  5
3F3
330
1E
100
AcDbEntity
  8
DIM
100
AcDbDimension
  2
*D15
 10
13.80241993619983
 20
11.27912344293008
 30
0.0
 11
13.80241993619983
 21
12.50962344293009
 31
0.0
 12
1.61381319584912
 22
-1.429972283861579
 32
0.0
 71
     5
 42
-1.0
  3
23NSTD
100
AcDbAlignedDimension
 13
13.14206675997101
 23
13.74012344293008
 33
0.0
 14
12.708066759971
 24
11.27912344293008
 34
0.0
 50
270.0
100
AcDbRotatedDimension
  0
DIMENSION
  5
3F4
330
1E
100
AcDbEntity
  8
DIM
100
AcDbDimension
  2
*D16
 10
12.78506675997102
 20
17.56569528650443
 30
0.0
 11
11.52569175997102
 21
17.56569528650443
 31
0.0
 12
1.61381319584912
 22
-1.429972283861579
 32
0.0
 71
     5
 42
-1.0
  3
23NSTD
100
AcDbAlignedDimension
 13
13.14206675997101
 23
16.99012344293008
 33
0.0
 14
12.78506675997102
 24
16.59512344293008
 34
0.0
100
AcDbRotatedDimension
  0
INSERT
  5
3F5
330
1E
100
AcDbEntity
  8
OBJECT
 62
     4
100
AcDbBlockReference
  2
*X0
 10
0.4783519196983779
 20
0.3756861268549385
 30
0.0
1001
ACAD
1000
HATCH
1002
{
1070
    16
1000
PLAST
1040
2.0
1040
0.7853981633974483
1002
}
  0
INSERT
  5
3F6
330
1E
100
AcDbEntity
  8
OBJECT
 62
     4
100
AcDbBlockReference
  2
*X1
 10
0.4783519196983779
 20
0.3756861268549385
 30
0.0
1001
ACAD
1000
HATCH
1002
{
1070
    16
1000
PLAST
1040
2.0
1040
0.7853981633974483
1002
}
  0
TEXT
  5
3F7
330
1E
100
AcDbEntity
  8
TEXT
100
AcDbText
 10
20.83761807453344
 20
18.02152136937596
 30
0.0
 40
0.25
  1
(NO SUFFIX) UL94V-O FLAME RETARDANT ABS
 41
0.75
  7
TXT
100
AcDbText
  0
TEXT
  5
3F8
330
1E
100
AcDbEntity
  8
TEXT
100
AcDbText
 10
20.83761807453344
 20
16.77152136937596
 30
0.0
 40
0.25
  1
(SUFFIX -A) UL94V-O FLAME RETARDANT ABS
 41
0.75
  7
TXT
100
AcDbText
  0
TEXT
  5
3F9
330
1E
100
AcDbEntity
  8
TEXT
100
AcDbText
 10
23.11503544888365
 20
17.60485470270929
 30
0.0
 40
0.25
  1
DARK GRAY PLASTIC COVERS WITH
 41
0.75
  7
TXT
100
AcDbText
  0
TEXT
  5
3FA
330
1E
100
AcDbEntity
  8
TEXT
100
AcDbText
 10
23.11503544888365
 20
12.58080631225742
 30
0.0
 40
0.25
  1
FOUR (4) M3 x 0.984" LG. SCREWS
 41
0.75
  7
TXT
100
AcDbText
  0
TEXT
  5
3FB
330
1E
100
AcDbEntity
  8
TEXT
100
AcDbText
 10
23.11503544888365
 20
11.38256577161677
 30
0.0
 40
0.25
  1
FOUR (4) RUBBER SELF-ADHESIVE
 41
0.75
  7
TXT
100
AcDbText
  0
TEXT
  5
3FC
330
1E
100
AcDbEntity
  8
TEXT
100
AcDbText
 10
23.11503544888365
 20
16.35485470270928
 30
0.0
 40
0.25
  1
DARK GRAY PLASTIC COVERS WITH
 41
0.75
  7
TXT
100
AcDbText
  0
TEXT
  5
3FD
330
1E
100
AcDbEntity
  8
TEXT
100
AcDbText
 10
23.11503544888365
 20
15.10485470270929
 30
0.0
 40
0.25
  1
LIGHT GRAY PLASTIC COVERS WITH
 41
0.75
  7
TXT
100
AcDbText
  0
TEXT
  5
3FE
330
1E
100
AcDbEntity
  8
TEXT
100
AcDbText
 10
23.11503544888365
 20
15.93818803604263
 30
0.0
 40
0.25
  1
NATURAL FINISH ALUMINUM PANELS.
 41
0.75
  7
TXT
100
AcDbText
  0
TEXT
  5
3FF
330
1E
100
AcDbEntity
  8
TEXT
100
AcDbText
 10
23.11503544888365
 20
13.85685470270928
 30
0.0
 40
0.25
  1
LIGHT GRAY PLASTIC COVERS WITH
 41
0.75
  7
TXT
100
AcDbText
  0
TEXT
  5
400
330
1E
100
AcDbEntity
  8
TEXT
100
AcDbText
 10
23.11503544888365
 20
13.44018803604262
 30
0.0
 40
0.25
  1
NATURAL FINISH ALUMINUM PANELS.
 41
0.75
  7
TXT
100
AcDbText
  0
TEXT
  5
401
330
1E
100
AcDbEntity
  8
TEXT
100
AcDbText
 10
23.11503544888365
 20
10.96589910495009
 30
0.0
 40
0.25
  1
FEET SUPPLIED.
 41
0.75
  7
TXT
100
AcDbText
  0
TEXT
  5
402
330
1E
100
AcDbEntity
  8
TEXT
100
AcDbText
 10
23.11503544888365
 20
12.16413964559076
 30
0.0
 40
0.25
  1
SUPPLIED FOR ASSEMBLY.
 41
0.75
  7
TXT
100
AcDbText
  0
TEXT
  5
403
330
1E
100
AcDbEntity
  8
TEXT
100
AcDbText
 10
20.63450074693148
 20
15.52152136937595
 30
0.0
 40
0.25
  1
(SUFFIX -LG) HIGH-IMPACT ABS
 41
0.75
  7
TXT
100
AcDbText
  0
TEXT
  5
404
330
1E
100
AcDbEntity
  8
TEXT
100
AcDbText
 10
20.44717691997792
 20
18.43818803604262
 30
0.0
 40
0.25
  1
%%uMATERIAL & FINISH:
 41
0.75
  7
TXT
100
AcDbText
  0
TEXT
  5
405
330
1E
100
AcDbEntity
  8
TEXT
100
AcDbText
 10
20.44717691997792
 20
14.27352136937595
 30
0.0
 40
0.25
  1
(SUFFIX -LGA) HIGH-IMPACT ABS
 41
0.75
  7
TXT
100
AcDbText
  0
TEXT
  5
406
330
1E
100
AcDbEntity
  8
TEXT
100
AcDbText
 10
23.11503544888365
 20
14.68818803604261
 30
0.0
 40
0.25
  1
BLACK PLASTIC PANELS.
 41
0.75
  7
TXT
100
AcDbText
  0
TEXT
  5
407
330
1E
100
AcDbEntity
  8
TEXT
100
AcDbText
 10
0.4156666666666691
 20
19.36015839128016
 30
0.0
 40
0.25
  1
NAME
 72
     1
 11
0.8740000000000023
 21
19.36015839128016
 31
0.0
100
AcDbText
  0
TEXT
  5
408
330
1E
100
AcDbEntity
  8
TEXT
100
AcDbText
 10
0.4156666666666691
 20
19.77682505794682
 30
0.0
 40
0.25
  1
PART
 72
     1
 11
0.8740000000000023
 21
19.77682505794682
 31
0.0
100
AcDbText
  0
TEXT
  5
409
330
1E
100
AcDbEntity
  8
TEXT
100
AcDbText
 10
16.06199999999999
 20
19.36015839128016
 30
0.0
 40
0.25
  1
No.
 72
     1
 11
16.31199999999999
 21
19.36015839128016
 31
0.0
100
AcDbText
  0
TEXT
  5
40A
330
1E
100
AcDbEntity
  8
TEXT
100
AcDbText
 10
15.85366666666666
 20
19.77682505794682
 30
0.0
 40
0.25
  1
PART
 72
     1
 11
16.31199999999999
 21
19.77682505794682
 31
0.0
100
AcDbText
  0
LINE
  5
40B
330
1E
100
AcDbEntity
  8
TITLE
100
AcDbLine
 10
17.06199999999999
 20
20.116
 30
0.0
 11
17.06199999999999
 21
19.28
 31
0.0
  0
LINE
  5
40C
330
1E
100
AcDbEntity
  8
TITLE
100
AcDbLine
 10
15.56199999999999
 20
20.116
 30
0.0
 11
15.56199999999999
 21
19.28
 31
0.0
  0
LINE
  5
40D
330
1E
100
AcDbEntity
  8
TITLE
100
AcDbLine
 10
15.438
 20
20.116
 30
0.0
 11
15.438
 21
19.28
 31
0.0
  0
LINE
  5
40E
330
1E
100
AcDbEntity
  8
TITLE
100
AcDbLine
 10
1.624000000000002
 20
19.28
 30
0.0
 11
1.623999999999995
 21
20.116
 31
0.0
  0
LINE
  5
40F
330
1E
100
AcDbEntity
  8
TITLE
100
AcDbLine
 10
0.1239999999999952
 20
19.28
 30
0.0
 11
30.87599999999999
 21
19.28
 31
0.0
  0
LWPOLYLINE
  5
410
330
1E
100
AcDbEntity
  8
TITLE
100
AcDbPolyline
 90
        4
 70
     1
 43
0.0
 10
31.0
 20
20.23999999999999
 10
30.99999999999998
 20
0.0
 10
0.0
 20
0.0
 10
0.0
 20
20.23999999999999
  0
LWPOLYLINE
  5
416
330
1E
100
AcDbEntity
  8
TITLE
100
AcDbPolyline
 90
        4
 70
     1
 43
0.0
 10
30.87599999999999
 20
20.11600000000001
 10
30.87599999999999
 20
0.1240000000000023
 10
0.1240000000000023
 20
0.1240000000000023
 10
0.1240000000000023
 20
20.116
  0
TEXT
  5
41C
330
1E
100
AcDbEntity
  8
TEXT
100
AcDbText
 10
17.92399999999999
 20
19.54199999999999
 30
0.0
 40
0.312
  1
PC-11481  &  PC-11481-A  &  PC-11481-LG  &  PC-11481-LGA
 41
0.75
  7
TXT
 72
     4
 11
23.96899999999999
 21
19.69799999999999
 31
0.0
100
AcDbText
  0
TEXT
  5
41D
330
1E
100
AcDbEntity
  8
TEXT
100
AcDbText
 10
6.229999999999998
 20
19.54199999999999
 30
0.0
 40
0.312
  1
PLASTICASE  (STYLE D)
 41
0.75
  7
TXT
 72
     4
 11
8.530999999999998
 21
19.69799999999999
 31
0.0
100
AcDbText
  0
LWPOLYLINE
  5
41E
330
1E
100
AcDbEntity
  8
DIM
100
AcDbPolyline
 90
        4
 70
     0
 10
10.6486357015696
 20
10.91789038207299
 40
0.0
 41
0.135
 10
10.95768797979877
 20
10.73326457314759
 40
0.0
 41
0.0
 10
13.29525511851201
 20
9.400158815415979
 40
0.0
 41
0.0
 10
13.65525511851201
 20
9.400158815415979
 40
0.0
 41
0.0
  0
TEXT
  5
424
330
1E
100
AcDbEntity
  8
DIM
100
AcDbText
 10
13.83525511851202
 20
8.858492148749304
 30
0.0
 40
0.25
  1
HOLE x 0.218 DEEP - (16) PLACES
 41
0.75
  7
TXT
 11
13.83525511851202
 21
8.983492148749304
 31
0.0
100
AcDbText
 73
     2
  0
TEXT
  5
425
330
1E
100
AcDbEntity
  8
DIM
100
AcDbText
 10
13.83525511851202
 20
9.275158815415979
 30
0.0
 40
0.25
  1
0.218 DIA. BOSS WITH 0.090 DIA.
 41
0.75
  7
TXT
 11
13.83525511851202
 21
9.400158815415979
 31
0.0
100
AcDbText
 73
     2
  0
TEXT
  5
426
330
1E
100
AcDbEntity
  8
DIM
100
AcDbText
 10
13.83525511851202
 20
8.450017195222232
 30
0.0
 40
0.25
  1
MOUNTING BOSSES USE EITHER M2.5 METRIC
 41
0.75
  7
TXT
 11
13.83525511851202
 21
8.575017195222232
 31
0.0
100
AcDbText
 73
     2
  0
LWPOLYLINE
  5
427
330
1E
100
AcDbEntity
  8
OBJECT
100
AcDbPolyline
 90
        4
 70
     1
 43
0.0
 10
25.96093321262945
 20
1.080170570108371
 10
25.96093321262945
 20
2.455170570108371
 10
17.34093321262946
 20
2.455170570108371
 10
17.34093321262946
 20
1.080170570108371
  0
DIMENSION
  5
42D
330
1E
100
AcDbEntity
  8
DIM
100
AcDbDimension
  2
*D21
 10
25.96093321262945
 20
3.07069924352952
 30
0.0
 11
21.65093321262946
 21
3.07069924352952
 31
0.0
 12
0.0
 22
-5.159023668302431
 32
0.0
 71
     5
 42
-1.0
  3
23NSTD
100
AcDbAlignedDimension
 13
17.34093321262946
 23
2.455170570108371
 33
0.0
 14
25.96093321262945
 24
2.455170570108371
 34
0.0
100
AcDbRotatedDimension
  0
DIMENSION
  5
42E
330
1E
100
AcDbEntity
  8
DIM
100
AcDbDimension
  2
*D35
 10
16.56562281066837
 20
1.080170570108371
 30
0.0
 11
16.56562281066837
 21
1.767670570108371
 31
0.0
 71
     5
 42
-1.0
  3
23NSTDI
100
AcDbAlignedDimension
 13
17.34093321262946
 23
2.455170570108371
 33
0.0
 14
17.34093321262946
 24
1.080170570108371
 34
0.0
 50
90.0
100
AcDbRotatedDimension
  0
TEXT
  5
42F
330
1E
100
AcDbEntity
  8
TEXT
100
AcDbText
 10
19.22905821262946
 20
1.851003903441705
 30
0.0
 40
0.25
  1
ALUMINUM PANEL - 0.060 THICK
 41
0.75
  7
TXT
 72
     4
 11
21.65093321262946
 21
1.976003903441705
 31
0.0
100
AcDbText
  0
LINE
  5
430
330
1E
100
AcDbEntity
  8
HIDDEN
100
AcDbLine
 10
17.78283820121844
 20
11.6971234429301
 30
0.0
 11
17.78283820121844
 21
11.73712344293006
 31
0.0
  0
LINE
  5
431
330
1E
100
AcDbEntity
  8
HIDDEN
100
AcDbLine
 10
17.78283820121844
 20
11.80712344293007
 30
0.0
 11
17.78283820121844
 21
11.84712344293006
 31
0.0
  0
LINE
  5
432
330
1E
100
AcDbEntity
  8
HIDDEN
100
AcDbLine
 10
17.78283820121844
 20
13.77512344293006
 30
0.0
 11
17.78283820121844
 21
13.81512344293006
 31
0.0
  0
LINE
  5
433
330
1E
100
AcDbEntity
  8
HIDDEN
100
AcDbLine
 10
17.78283820121844
 20
13.66512344293009
 30
0.0
 11
17.78283820121844
 21
13.70512344293006
 31
0.0
  0
LINE
  5
434
330
1E
100
AcDbEntity
  8
HIDDEN
100
AcDbLine
 10
17.78283820121844
 20
15.6331234429301
 30
0.0
 11
17.78283820121844
 21
15.67312344293006
 31
0.0
  0
LINE
  5
435
330
1E
100
AcDbEntity
  8
HIDDEN
100
AcDbLine
 10
17.78283820121844
 20
15.74312344293007
 30
0.0
 11
17.78283820121844
 21
15.78312344293006
 31
0.0
  0
DIMENSION
  5
436
330
1E
100
AcDbEntity
  8
DIM
100
AcDbDimension
  2
*D24
 10
8.71206675997101
 20
9.549657264411042
 30
0.0
 11
7.787066759971013
 21
9.549657264411042
 31
0.0
 71
     5
 42
-1.0
  3
23NSTDI
100
AcDbAlignedDimension
 13
6.862066759971016
 23
10.98412344293008
 33
0.0
 14
8.71206675997101
 24
10.98412344293008
 34
0.0
100
AcDbRotatedDimension
  0
DIMENSION
  5
437
330
1E
100
AcDbEntity
  8
DIM
100
AcDbDimension
  2
*D25
 10
10.56206675997101
 20
9.049657264411042
 30
0.0
 11
9.637066759971011
 21
9.049657264411042
 31
0.0
 71
     5
 42
-1.0
  3
23NSTDI
100
AcDbAlignedDimension
 13
8.71206675997101
 23
10.98412344293008
 33
0.0
 14
10.56206675997101
 24
10.98412344293008
 34
0.0
100
AcDbRotatedDimension
  0
DIMENSION
  5
438
330
1E
100
AcDbEntity
  8
DIM
100
AcDbDimension
  2
*D26
 10
12.41206675997101
 20
8.549657264411042
 30
0.0
 11
11.48706675997101
 21
8.549657264411042
 31
0.0
 71
     5
 42
-1.0
  3
23NSTDI
100
AcDbAlignedDimension
 13
10.56206675997101
 23
10.98412344293008
 33
0.0
 14
12.41206675997101
 24
10.98412344293008
 34
0.0
100
AcDbRotatedDimension
  0
LINE
  5
439
330
1E
100
AcDbEntity
  8
OBJECT
100
AcDbLine
 10
4.448895208336425
 20
4.817293337083272
 30
0.0
 11
12.97541286225487
 21
4.817293337083272
 31
0.0
  0
LINE
  5
43A
330
1E
100
AcDbEntity
  8
OBJECT
100
AcDbLine
 10
4.483066759971011
 20
5.600293337083273
 30
0.0
 11
4.483066759971011
 21
4.935293337083273
 31
0.0
  0
LINE
  5
43B
330
1E
100
AcDbEntity
  8
OBJECT
100
AcDbLine
 10
4.795066759971009
 20
5.600293337083273
 30
0.0
 11
4.795066759971009
 21
4.935293337083273
 31
0.0
  0
LINE
  5
43C
330
1E
100
AcDbEntity
  8
HIDDEN
100
AcDbLine
 10
4.704066759971015
 20
5.600293337083273
 30
0.0
 11
4.704066759971022
 21
4.909146151828439
 31
0.0
  0
LINE
  5
43D
330
1E
100
AcDbEntity
  8
HIDDEN
100
AcDbLine
 10
4.574066759971019
 20
5.600293337083273
 30
0.0
 11
4.574066759971019
 21
4.909146151828439
 31
0.0
  0
LINE
  5
43E
330
1E
100
AcDbEntity
  8
OBJECT
100
AcDbLine
 10
4.282066759971018
 20
5.597293337083265
 30
0.0
 11
4.292918967892029
 21
4.970570761679057
 31
0.0
  0
LINE
  5
43F
330
1E
100
AcDbEntity
  8
OBJECT
100
AcDbLine
 10
4.401066759971008
 20
5.687293337083273
 30
0.0
 11
4.401066759971017
 21
4.935293337083273
 31
0.0
  0
LINE
  5
440
330
1E
100
AcDbEntity
  8
HIDDEN
  6
HIDDEN2
100
AcDbLine
 10
4.574066759971012
 20
4.909146151828432
 30
0.0
 11
4.704066759971022
 21
4.909146151828439
 31
0.0
  0
ARC
  5
441
330
1E
100
AcDbEntity
  8
OBJECT
100
AcDbCircle
 10
4.448895208336425
 20
4.973293337083271
 30
0.0
 40
0.156
100
AcDbArc
 50
181.0
 51
270.0
  0
LINE
  5
442
330
1E
100
AcDbEntity
  8
HIDDEN
  6
HIDDEN2
100
AcDbLine
 10
4.498566759971028
 20
4.822293337083268
 30
0.0
 11
4.574066759971019
 21
4.909146151828439
 31
0.0
  0
LINE
  5
443
330
1E
100
AcDbEntity
  8
HIDDEN
  6
HIDDEN2
100
AcDbLine
 10
5.057066759971009
 20
5.063793337083275
 30
0.0
 11
5.057066759971009
 21
4.873293337083268
 31
0.0
  0
LINE
  5
444
330
1E
100
AcDbEntity
  8
HIDDEN
  6
HIDDEN2
100
AcDbLine
 10
4.967066759971006
 20
5.063793337083275
 30
0.0
 11
4.967066759971006
 21
4.873293337083268
 31
0.0
  0
LINE
  5
445
330
1E
100
AcDbEntity
  8
OBJECT
100
AcDbLine
 10
5.121066759971009
 20
5.091293337083271
 30
0.0
 11
5.121066759971009
 21
4.935293337083273
 31
0.0
  0
LINE
  5
446
330
1E
100
AcDbEntity
  8
HIDDEN
  6
HIDDEN2
100
AcDbLine
 10
4.607066759971006
 20
5.091293337083271
 30
0.0
 11
4.607066759971006
 21
4.935293337083273
 31
0.0
  0
LINE
  5
447
330
1E
100
AcDbEntity
  8
OBJECT
100
AcDbLine
 10
4.82506675997101
 20
5.091293337083271
 30
0.0
 11
4.82506675997101
 21
4.935293337083273
 31
0.0
  0
LINE
  5
448
330
1E
100
AcDbEntity
  8
HIDDEN
  6
HIDDEN2
100
AcDbLine
 10
4.671066759971006
 20
5.063793337083275
 30
0.0
 11
4.671066759971006
 21
4.873293337083268
 31
0.0
  0
LINE
  5
449
330
1E
100
AcDbEntity
  8
HIDDEN
  6
HIDDEN2
100
AcDbLine
 10
4.761066759971003
 20
5.063793337083275
 30
0.0
 11
4.76106675997101
 21
4.873293337083268
 31
0.0
  0
LINE
  5
44A
330
1E
100
AcDbEntity
  8
OBJECT
100
AcDbLine
 10
4.903066759971013
 20
5.091293337083271
 30
0.0
 11
4.903066759971013
 21
4.935293337083273
 31
0.0
  0
LINE
  5
44B
330
1E
100
AcDbEntity
  8
HIDDEN
  6
HIDDEN2
100
AcDbLine
 10
4.671066759971006
 20
4.873293337083268
 30
0.0
 11
4.76106675997101
 21
4.873293337083268
 31
0.0
  0
LINE
  5
44C
330
1E
100
AcDbEntity
  8
HIDDEN
  6
HIDDEN2
100
AcDbLine
 10
4.779566759971006
 20
4.822293337083268
 30
0.0
 11
4.704066759971015
 21
4.909146151828439
 31
0.0
  0
LINE
  5
44D
330
1E
100
AcDbEntity
  8
HIDDEN
  6
HIDDEN2
100
AcDbLine
 10
4.967066759971006
 20
4.873293337083268
 30
0.0
 11
5.057066759971009
 21
4.873293337083268
 31
0.0
  0
LINE
  5
44E
330
1E
100
AcDbEntity
  8
OBJECT
100
AcDbLine
 10
4.903066759971013
 20
5.091293337083271
 30
0.0
 11
5.121066759971009
 21
5.091293337083271
 31
0.0
  0
LINE
  5
44F
330
1E
100
AcDbEntity
  8
HIDDEN
  6
HIDDEN2
100
AcDbLine
 10
4.607066759971006
 20
5.091293337083271
 30
0.0
 11
4.82506675997101
 21
5.091293337083271
 31
0.0
  0
LINE
  5
450
330
1E
100
AcDbEntity
  8
HIDDEN
  6
HIDDEN2
100
AcDbLine
 10
4.64356675997101
 20
5.091293337083271
 30
0.0
 11
4.671066759971006
 21
5.063793337083275
 31
0.0
  0
LINE
  5
451
330
1E
100
AcDbEntity
  8
HIDDEN
  6
HIDDEN2
100
AcDbLine
 10
4.671066759971006
 20
5.063793337083275
 30
0.0
 11
4.761066759971003
 21
5.063793337083275
 31
0.0
  0
LINE
  5
452
330
1E
100
AcDbEntity
  8
HIDDEN
  6
HIDDEN2
100
AcDbLine
 10
4.788566759971006
 20
5.091293337083271
 30
0.0
 11
4.76106675997101
 21
5.063793337083275
 31
0.0
  0
LINE
  5
453
330
1E
100
AcDbEntity
  8
HIDDEN
  6
HIDDEN2
100
AcDbLine
 10
5.084566759971012
 20
5.091293337083271
 30
0.0
 11
5.057066759971009
 21
5.063793337083275
 31
0.0
  0
LINE
  5
454
330
1E
100
AcDbEntity
  8
HIDDEN
  6
HIDDEN2
100
AcDbLine
 10
4.967066759971006
 20
5.063793337083275
 30
0.0
 11
5.057066759971009
 21
5.063793337083275
 31
0.0
  0
LINE
  5
455
330
1E
100
AcDbEntity
  8
HIDDEN
  6
HIDDEN2
100
AcDbLine
 10
4.939566759971009
 20
5.091293337083271
 30
0.0
 11
4.967066759971006
 21
5.063793337083275
 31
0.0
  0
LINE
  5
456
330
1E
100
AcDbEntity
  8
OBJECT
100
AcDbLine
 10
4.483066759971011
 20
5.600293337083273
 30
0.0
 11
4.795066759971009
 21
5.600293337083273
 31
0.0
  0
LINE
  5
457
330
1E
100
AcDbEntity
  8
OBJECT
100
AcDbLine
 10
4.282066759971018
 20
5.597293337083265
 30
0.0
 11
4.301066759971009
 21
5.597293337083266
 31
0.0
  0
LINE
  5
458
330
1E
100
AcDbEntity
  8
OBJECT
100
AcDbLine
 10
4.351066759971004
 20
5.687293337083266
 30
0.0
 11
4.401066759971008
 21
5.687293337083273
 31
0.0
  0
LINE
  5
459
330
1E
100
AcDbEntity
  8
OBJECT
100
AcDbLine
 10
4.301066759971009
 20
5.627293337083273
 30
0.0
 11
4.301066759971009
 21
5.597293337083272
 31
0.0
  0
LINE
  5
45A
330
1E
100
AcDbEntity
  8
OBJECT
100
AcDbLine
 10
10.671066759971
 20
5.091293337083271
 30
0.0
 11
10.45306675997101
 21
5.091293337083271
 31
0.0
  0
LINE
  5
45B
330
1E
100
AcDbEntity
  8
OBJECT
100
AcDbLine
 10
6.753066759971014
 20
5.091293337083271
 30
0.0
 11
6.753066759971014
 21
4.935293337083273
 31
0.0
  0
LINE
  5
45C
330
1E
100
AcDbEntity
  8
OBJECT
100
AcDbLine
 10
6.97106675997101
 20
5.091293337083271
 30
0.0
 11
6.97106675997101
 21
4.935293337083273
 31
0.0
  0
LINE
  5
45D
330
1E
100
AcDbEntity
  8
HIDDEN
  6
HIDDEN2
100
AcDbLine
 10
6.90706675997101
 20
5.063793337083275
 30
0.0
 11
6.907066759971018
 21
4.873293337083268
 31
0.0
  0
LINE
  5
45E
330
1E
100
AcDbEntity
  8
HIDDEN
  6
HIDDEN2
100
AcDbLine
 10
6.817066759971014
 20
5.063793337083275
 30
0.0
 11
6.817066759971014
 21
4.873293337083268
 31
0.0
  0
LINE
  5
45F
330
1E
100
AcDbEntity
  8
HIDDEN
  6
HIDDEN2
100
AcDbLine
 10
6.817066759971014
 20
4.873293337083268
 30
0.0
 11
6.907066759971018
 21
4.873293337083268
 31
0.0
  0
LINE
  5
460
330
1E
100
AcDbEntity
  8
OBJECT
100
AcDbLine
 10
6.753066759971014
 20
5.091293337083271
 30
0.0
 11
6.97106675997101
 21
5.091293337083271
 31
0.0
  0
LINE
  5
461
330
1E
100
AcDbEntity
  8
HIDDEN
  6
HIDDEN2
100
AcDbLine
 10
6.817066759971014
 20
5.063793337083275
 30
0.0
 11
6.90706675997101
 21
5.063793337083275
 31
0.0
  0
LINE
  5
462
330
1E
100
AcDbEntity
  8
HIDDEN
  6
HIDDEN2
100
AcDbLine
 10
6.789566759971011
 20
5.091293337083271
 30
0.0
 11
6.817066759971014
 21
5.063793337083275
 31
0.0
  0
LINE
  5
463
330
1E
100
AcDbEntity
  8
HIDDEN
  6
HIDDEN2
100
AcDbLine
 10
6.934566759971014
 20
5.091293337083271
 30
0.0
 11
6.907066759971018
 21
5.063793337083275
 31
0.0
  0
LINE
  5
464
330
1E
100
AcDbEntity
  8
OBJECT
100
AcDbLine
 10
8.821066759971005
 20
5.091293337083271
 30
0.0
 11
8.821066759971005
 21
4.935293337083273
 31
0.0
  0
LINE
  5
465
330
1E
100
AcDbEntity
  8
HIDDEN
  6
HIDDEN2
100
AcDbLine
 10
8.757066759971012
 20
5.063793337083275
 30
0.0
 11
8.757066759971012
 21
4.873293337083268
 31
0.0
  0
LINE
  5
466
330
1E
100
AcDbEntity
  8
OBJECT
100
AcDbLine
 10
8.603066759971015
 20
5.091293337083271
 30
0.0
 11
8.603066759971015
 21
4.935293337083273
 31
0.0
  0
LINE
  5
467
330
1E
100
AcDbEntity
  8
HIDDEN
  6
HIDDEN2
100
AcDbLine
 10
8.667066759971008
 20
5.063793337083275
 30
0.0
 11
8.667066759971008
 21
4.873293337083268
 31
0.0
  0
LINE
  5
468
330
1E
100
AcDbEntity
  8
HIDDEN
  6
HIDDEN2
100
AcDbLine
 10
8.667066759971008
 20
4.873293337083268
 30
0.0
 11
8.757066759971012
 21
4.873293337083268
 31
0.0
  0
LINE
  5
469
330
1E
100
AcDbEntity
  8
HIDDEN
  6
HIDDEN2
100
AcDbLine
 10
8.784566759971015
 20
5.091293337083271
 30
0.0
 11
8.757066759971012
 21
5.063793337083275
 31
0.0
  0
LINE
  5
46A
330
1E
100
AcDbEntity
  8
HIDDEN
  6
HIDDEN2
100
AcDbLine
 10
8.639566759971005
 20
5.091293337083271
 30
0.0
 11
8.667066759971008
 21
5.063793337083275
 31
0.0
  0
LINE
  5
46B
330
1E
100
AcDbEntity
  8
OBJECT
100
AcDbLine
 10
8.603066759971015
 20
5.091293337083271
 30
0.0
 11
8.821066759971005
 21
5.091293337083271
 31
0.0
  0
LINE
  5
46C
330
1E
100
AcDbEntity
  8
HIDDEN
  6
HIDDEN2
100
AcDbLine
 10
8.667066759971008
 20
5.063793337083275
 30
0.0
 11
8.757066759971012
 21
5.063793337083275
 31
0.0
  0
LINE
  5
46D
330
1E
100
AcDbEntity
  8
HIDDEN
  6
HIDDEN2
100
AcDbLine
 10
9.603066759971001
 20
5.063793337083275
 30
0.0
 11
9.603066759971001
 21
4.873293337083268
 31
0.0
  0
LINE
  5
46E
330
1E
100
AcDbEntity
  8
OBJECT
100
AcDbLine
 10
9.667066759970994
 20
5.091293337083271
 30
0.0
 11
9.667066759970994
 21
4.935293337083273
 31
0.0
  0
LINE
  5
46F
330
1E
100
AcDbEntity
  8
OBJECT
100
AcDbLine
 10
9.449066759971005
 20
5.091293337083271
 30
0.0
 11
9.449066759971005
 21
4.935293337083273
 31
0.0
  0
LINE
  5
470
330
1E
100
AcDbEntity
  8
HIDDEN
  6
HIDDEN2
100
AcDbLine
 10
9.513066759970998
 20
5.063793337083275
 30
0.0
 11
9.513066759970998
 21
4.873293337083268
 31
0.0
  0
LINE
  5
471
330
1E
100
AcDbEntity
  8
HIDDEN
  6
HIDDEN2
100
AcDbLine
 10
9.513066759970998
 20
4.873293337083268
 30
0.0
 11
9.603066759971001
 21
4.873293337083268
 31
0.0
  0
LINE
  5
472
330
1E
100
AcDbEntity
  8
HIDDEN
  6
HIDDEN2
100
AcDbLine
 10
9.630566759971005
 20
5.091293337083271
 30
0.0
 11
9.603066759971001
 21
5.063793337083275
 31
0.0
  0
LINE
  5
473
330
1E
100
AcDbEntity
  8
HIDDEN
  6
HIDDEN2
100
AcDbLine
 10
9.485566759970994
 20
5.091293337083271
 30
0.0
 11
9.513066759970998
 21
5.063793337083275
 31
0.0
  0
LINE
  5
474
330
1E
100
AcDbEntity
  8
OBJECT
100
AcDbLine
 10
9.449066759971005
 20
5.091293337083271
 30
0.0
 11
9.667066759970994
 21
5.091293337083271
 31
0.0
  0
LINE
  5
475
330
1E
100
AcDbEntity
  8
HIDDEN
  6
HIDDEN2
100
AcDbLine
 10
9.513066759970998
 20
5.063793337083275
 30
0.0
 11
9.603066759971001
 21
5.063793337083275
 31
0.0
  0
LINE
  5
476
330
1E
100
AcDbEntity
  8
HIDDEN
  6
HIDDEN2
100
AcDbLine
 10
10.517066759971
 20
5.063793337083275
 30
0.0
 11
10.517066759971
 21
4.873293337083268
 31
0.0
  0
LINE
  5
477
330
1E
100
AcDbEntity
  8
OBJECT
100
AcDbLine
 10
10.45306675997101
 20
5.091293337083271
 30
0.0
 11
10.45306675997101
 21
4.935293337083273
 31
0.0
  0
LINE
  5
478
330
1E
100
AcDbEntity
  8
HIDDEN
  6
HIDDEN2
100
AcDbLine
 10
10.60706675997101
 20
5.063793337083275
 30
0.0
 11
10.60706675997101
 21
4.873293337083268
 31
0.0
  0
LINE
  5
479
330
1E
100
AcDbEntity
  8
HIDDEN
  6
HIDDEN2
100
AcDbLine
 10
10.60706675997101
 20
4.873293337083268
 30
0.0
 11
10.517066759971
 21
4.873293337083268
 31
0.0
  0
LINE
  5
47A
330
1E
100
AcDbEntity
  8
HIDDEN
  6
HIDDEN2
100
AcDbLine
 10
10.60706675997101
 20
5.063793337083275
 30
0.0
 11
10.517066759971
 21
5.063793337083275
 31
0.0
  0
LINE
  5
47B
330
1E
100
AcDbEntity
  8
HIDDEN
  6
HIDDEN2
100
AcDbLine
 10
10.489566759971
 20
5.091293337083271
 30
0.0
 11
10.517066759971
 21
5.063793337083275
 31
0.0
  0
LINE
  5
47C
330
1E
100
AcDbEntity
  8
HIDDEN
  6
HIDDEN2
100
AcDbLine
 10
10.63456675997101
 20
5.091293337083271
 30
0.0
 11
10.60706675997101
 21
5.063793337083275
 31
0.0
  0
LINE
  5
47D
330
1E
100
AcDbEntity
  8
HIDDEN
100
AcDbLine
 10
12.94106675997101
 20
5.600293337083273
 30
0.0
 11
12.94106675997101
 21
4.935293337083273
 31
0.0
  0
LINE
  5
47E
330
1E
100
AcDbEntity
  8
HIDDEN
100
AcDbLine
 10
12.62906675997101
 20
5.600293337083273
 30
0.0
 11
12.62906675997101
 21
4.935293337083273
 31
0.0
  0
LINE
  5
47F
330
1E
100
AcDbEntity
  8
HIDDEN
100
AcDbLine
 10
12.85006675997101
 20
5.600293337083273
 30
0.0
 11
12.85006675997101
 21
4.909146151828439
 31
0.0
  0
LINE
  5
480
330
1E
100
AcDbEntity
  8
HIDDEN
100
AcDbLine
 10
12.72006675997101
 20
5.600293337083273
 30
0.0
 11
12.720066759971
 21
4.909146151828439
 31
0.0
  0
LINE
  5
481
330
1E
100
AcDbEntity
  8
OBJECT
100
AcDbLine
 10
13.02306675997101
 20
5.597293337083273
 30
0.0
 11
13.02306675997099
 21
4.935293337083273
 31
0.0
  0
LINE
  5
482
330
1E
100
AcDbEntity
  8
OBJECT
100
AcDbLine
 10
12.97306675997098
 20
5.597293337083273
 30
0.0
 11
12.97306675997097
 21
4.953293337083273
 31
0.0
  0
LWPOLYLINE
  5
483
330
1E
100
AcDbEntity
  8
OBJECT
100
AcDbPolyline
 90
        4
 70
     0
 43
0.0
 10
11.18933348159182
 20
4.817293337083272
 42
-0.3281930673372885
 10
11.10213139255576
 20
5.494704202404941
 42
0.1819774479161976
 10
11.20551971457753
 20
6.196855143383233
 42
0.0001959861891849
 10
11.06491234644676
 20
6.407293337083261
 42
-0.1555598849313293
  0
LINE
  5
489
330
1E
100
AcDbEntity
  8
HIDDEN
100
AcDbLine
 10
11.13651785324249
 20
4.93529333708328
 30
0.0
 11
13.02306675997099
 21
4.935293337083273
 31
0.0
  0
LINE
  5
48A
330
1E
100
AcDbEntity
  8
OBJECT
100
AcDbLine
 10
12.945066759971
 20
4.892293337083275
 30
0.0
 11
11.12886039297227
 21
4.892293337083275
 31
0.0
  0
LINE
  5
48B
330
1E
100
AcDbEntity
  8
OBJECT
100
AcDbLine
 10
10.671066759971
 20
5.091293337083271
 30
0.0
 11
10.671066759971
 21
4.935293337083273
 31
0.0
  0
LINE
  5
48C
330
1E
100
AcDbEntity
  8
HIDDEN
  6
HIDDEN2
100
AcDbLine
 10
12.52106675997101
 20
5.091293337083271
 30
0.0
 11
12.30306675997101
 21
5.091293337083271
 31
0.0
  0
LINE
  5
48D
330
1E
100
AcDbEntity
  8
HIDDEN
  6
HIDDEN2
100
AcDbLine
 10
12.48456675997101
 20
5.091293337083271
 30
0.0
 11
12.45706675997101
 21
5.063793337083275
 31
0.0
  0
LINE
  5
48E
330
1E
100
AcDbEntity
  8
HIDDEN
  6
HIDDEN2
100
AcDbLine
 10
12.30306675997101
 20
5.091293337083271
 30
0.0
 11
12.30306675997101
 21
4.935293337083273
 31
0.0
  0
LINE
  5
48F
330
1E
100
AcDbEntity
  8
HIDDEN
  6
HIDDEN2
100
AcDbLine
 10
12.45706675997101
 20
5.063793337083275
 30
0.0
 11
12.45706675997101
 21
4.873293337083268
 31
0.0
  0
LINE
  5
490
330
1E
100
AcDbEntity
  8
HIDDEN
  6
HIDDEN2
100
AcDbLine
 10
12.36706675997101
 20
5.063793337083275
 30
0.0
 11
12.36706675997101
 21
4.873293337083268
 31
0.0
  0
LINE
  5
491
330
1E
100
AcDbEntity
  8
HIDDEN
  6
HIDDEN2
100
AcDbLine
 10
12.45706675997101
 20
4.873293337083268
 30
0.0
 11
12.36706675997101
 21
4.873293337083268
 31
0.0
  0
LINE
  5
492
330
1E
100
AcDbEntity
  8
HIDDEN
  6
HIDDEN2
100
AcDbLine
 10
12.45706675997101
 20
5.063793337083275
 30
0.0
 11
12.36706675997101
 21
5.063793337083275
 31
0.0
  0
LINE
  5
493
330
1E
100
AcDbEntity
  8
HIDDEN
  6
HIDDEN2
100
AcDbLine
 10
12.33956675997101
 20
5.091293337083271
 30
0.0
 11
12.36706675997101
 21
5.063793337083275
 31
0.0
  0
LINE
  5
494
330
1E
100
AcDbEntity
  8
HIDDEN
  6
HIDDEN2
100
AcDbLine
 10
12.81706675997101
 20
5.091293337083271
 30
0.0
 11
12.81706675997101
 21
4.935293337083273
 31
0.0
  0
LINE
  5
495
330
1E
100
AcDbEntity
  8
HIDDEN
  6
HIDDEN2
100
AcDbLine
 10
12.66306675997102
 20
5.063793337083275
 30
0.0
 11
12.66306675997101
 21
4.873293337083268
 31
0.0
  0
LINE
  5
496
330
1E
100
AcDbEntity
  8
HIDDEN
  6
HIDDEN2
100
AcDbLine
 10
12.75306675997101
 20
5.063793337083275
 30
0.0
 11
12.75306675997101
 21
4.873293337083268
 31
0.0
  0
LINE
  5
497
330
1E
100
AcDbEntity
  8
HIDDEN
  6
HIDDEN2
100
AcDbLine
 10
12.59906675997101
 20
5.091293337083271
 30
0.0
 11
12.59906675997101
 21
4.935293337083273
 31
0.0
  0
LINE
  5
498
330
1E
100
AcDbEntity
  8
HIDDEN
  6
HIDDEN2
100
AcDbLine
 10
12.52106675997101
 20
5.091293337083271
 30
0.0
 11
12.52106675997101
 21
4.935293337083273
 31
0.0
  0
LINE
  5
499
330
1E
100
AcDbEntity
  8
HIDDEN
  6
HIDDEN2
100
AcDbLine
 10
12.85006675997101
 20
4.909146151828432
 30
0.0
 11
12.720066759971
 21
4.909146151828439
 31
0.0
  0
LINE
  5
49A
330
1E
100
AcDbEntity
  8
HIDDEN
  6
HIDDEN2
100
AcDbLine
 10
12.75306675997101
 20
4.873293337083268
 30
0.0
 11
12.66306675997101
 21
4.873293337083268
 31
0.0
  0
LINE
  5
49B
330
1E
100
AcDbEntity
  8
HIDDEN
  6
HIDDEN2
100
AcDbLine
 10
12.64456675997102
 20
4.822293337083268
 30
0.0
 11
12.72006675997101
 21
4.909146151828439
 31
0.0
  0
ARC
  5
49C
330
1E
100
AcDbEntity
  8
OBJECT
100
AcDbCircle
 10
12.945066759971
 20
4.970293337083271
 30
0.0
 40
0.078
100
AcDbArc
 50
270.0
 51
359.9999999999996
  0
LINE
  5
49D
330
1E
100
AcDbEntity
  8
HIDDEN
  6
HIDDEN2
100
AcDbLine
 10
12.925566759971
 20
4.822293337083268
 30
0.0
 11
12.85006675997101
 21
4.909146151828439
 31
0.0
  0
LINE
  5
49E
330
1E
100
AcDbEntity
  8
HIDDEN
  6
HIDDEN2
100
AcDbLine
 10
12.81706675997101
 20
5.091293337083271
 30
0.0
 11
12.59906675997101
 21
5.091293337083271
 31
0.0
  0
LINE
  5
49F
330
1E
100
AcDbEntity
  8
HIDDEN
  6
HIDDEN2
100
AcDbLine
 10
12.78056675997101
 20
5.091293337083271
 30
0.0
 11
12.75306675997101
 21
5.063793337083275
 31
0.0
  0
LINE
  5
4A0
330
1E
100
AcDbEntity
  8
HIDDEN
  6
HIDDEN2
100
AcDbLine
 10
12.63556675997101
 20
5.091293337083271
 30
0.0
 11
12.66306675997101
 21
5.063793337083275
 31
0.0
  0
LINE
  5
4A1
330
1E
100
AcDbEntity
  8
HIDDEN
  6
HIDDEN2
100
AcDbLine
 10
12.75306675997101
 20
5.063793337083275
 30
0.0
 11
12.66306675997102
 21
5.063793337083275
 31
0.0
  0
LINE
  5
4A2
330
1E
100
AcDbEntity
  8
HIDDEN
100
AcDbLine
 10
13.02324131062028
 20
6.289293337083272
 30
0.0
 11
11.18942870872093
 21
6.289293337083287
 31
0.0
  0
LINE
  5
4A3
330
1E
100
AcDbEntity
  8
OBJECT
100
AcDbLine
 10
12.97324131062024
 20
5.597293337083273
 30
0.0
 11
12.97324131062024
 21
6.271293337083273
 31
0.0
  0
LINE
  5
4A4
330
1E
100
AcDbEntity
  8
OBJECT
100
AcDbLine
 10
13.02324131062029
 20
5.597293337083273
 30
0.0
 11
13.02324131062028
 21
6.289293337083272
 31
0.0
  0
LINE
  5
4A5
330
1E
100
AcDbEntity
  8
HIDDEN
  6
HIDDEN2
100
AcDbLine
 10
12.94106675997101
 20
5.600293337083273
 30
0.0
 11
12.62906675997101
 21
5.600293337083273
 31
0.0
  0
LINE
  5
4A6
330
1E
100
AcDbEntity
  8
OBJECT
100
AcDbLine
 10
4.401066759971017
 20
4.935293337083273
 30
0.0
 11
11.10243239613583
 21
4.935293337083273
 31
0.0
  0
LINE
  5
4A7
330
1E
100
AcDbEntity
  8
OBJECT
100
AcDbLine
 10
13.142066759971
 20
5.597293337083273
 30
0.0
 11
12.97306675997098
 21
5.597293337083273
 31
0.0
  0
ARC
  5
4A8
330
1E
100
AcDbEntity
  8
OBJECT
100
AcDbCircle
 10
12.97541286225486
 20
4.973293337083271
 30
0.0
 40
0.1559999999999997
100
AcDbArc
 50
270.0000000000031
 51
358.999999999999
  0
LINE
  5
4A9
330
1E
100
AcDbEntity
  8
OBJECT
100
AcDbLine
 10
13.13138910269925
 20
4.970570761679057
 30
0.0
 11
13.142066759971
 21
5.597293337083273
 31
0.0
  0
LINE
  5
4AA
330
1E
100
AcDbEntity
  8
HIDDEN
100
AcDbLine
 10
12.94106675997101
 20
5.624293337083264
 30
0.0
 11
12.94106675997101
 21
6.289293337083265
 31
0.0
  0
LINE
  5
4AB
330
1E
100
AcDbEntity
  8
HIDDEN
100
AcDbLine
 10
12.62906675997101
 20
5.624293337083264
 30
0.0
 11
12.62906675997101
 21
6.289293337083265
 31
0.0
  0
LINE
  5
4AC
330
1E
100
AcDbEntity
  8
HIDDEN
100
AcDbLine
 10
12.695066759971
 20
5.624293337083264
 30
0.0
 11
12.695066759971
 21
6.332293337083255
 31
0.0
  0
LINE
  5
4AD
330
1E
100
AcDbEntity
  8
HIDDEN
  6
HIDDEN2
100
AcDbLine
 10
12.74006675997101
 20
5.624293337083264
 30
0.0
 11
12.740066759971
 21
5.874293337083264
 31
0.0
  0
LINE
  5
4AE
330
1E
100
AcDbEntity
  8
HIDDEN
  6
HIDDEN2
100
AcDbLine
 10
12.830066759971
 20
5.624293337083264
 30
0.0
 11
12.830066759971
 21
5.874293337083264
 31
0.0
  0
LINE
  5
4AF
330
1E
100
AcDbEntity
  8
HIDDEN
100
AcDbLine
 10
12.875066759971
 20
5.624293337083264
 30
0.0
 11
12.875066759971
 21
6.332293337083255
 31
0.0
  0
LINE
  5
4B0
330
1E
100
AcDbEntity
  8
HIDDEN
  6
HIDDEN2
100
AcDbLine
 10
12.94106675997101
 20
5.624293337083264
 30
0.0
 11
12.62906675997101
 21
5.624293337083264
 31
0.0
  0
LINE
  5
4B1
330
1E
100
AcDbEntity
  8
HIDDEN
  6
HIDDEN2
100
AcDbLine
 10
12.875066759971
 20
5.874293337083264
 30
0.0
 11
12.695066759971
 21
5.874293337083264
 31
0.0
  0
LINE
  5
4B2
330
1E
100
AcDbEntity
  8
HIDDEN
  6
HIDDEN2
100
AcDbLine
 10
12.87506675997101
 20
6.332293337083262
 30
0.0
 11
12.695066759971
 21
6.332293337083255
 31
0.0
  0
LINE
  5
4B3
330
1E
100
AcDbEntity
  8
OBJECT
100
AcDbLine
 10
13.14224131062027
 20
5.62729333708328
 30
0.0
 11
13.13138910269926
 21
6.254015912487488
 31
0.0
  0
LINE
  5
4B4
330
1E
100
AcDbEntity
  8
OBJECT
100
AcDbLine
 10
13.12324131062028
 20
5.597293337083273
 30
0.0
 11
13.12324131062028
 21
5.627293337083273
 31
0.0
  0
LINE
  5
4B5
330
1E
100
AcDbEntity
  8
OBJECT
100
AcDbLine
 10
13.14224131062027
 20
5.62729333708328
 30
0.0
 11
13.02324131062029
 21
5.627293337083274
 31
0.0
  0
ARC
  5
4B6
330
1E
100
AcDbEntity
  8
OBJECT
100
AcDbCircle
 10
12.97541286225486
 20
6.251293337083274
 30
0.0
 40
0.156
100
AcDbArc
 50
1.000000000000039
 51
90.0
  0
LINE
  5
4B7
330
1E
100
AcDbEntity
  8
OBJECT
100
AcDbLine
 10
12.97541286225486
 20
6.407293337083272
 30
0.0
 11
4.448895208336422
 21
6.407293337083263
 31
0.0
  0
LINE
  5
4B8
330
1E
100
AcDbEntity
  8
OBJECT
100
AcDbLine
 10
11.14378516535322
 20
6.289293337083284
 30
0.0
 11
4.401241310620301
 21
6.289293337083273
 31
0.0
  0
LINE
  5
4B9
330
1E
100
AcDbEntity
  8
HIDDEN
  6
HIDDEN2
100
AcDbLine
 10
4.549241310620288
 20
5.874293337083273
 30
0.0
 11
4.729241310620281
 21
5.874293337083273
 31
0.0
  0
LINE
  5
4BA
330
1E
100
AcDbEntity
  8
OBJECT
100
AcDbLine
 10
4.483241310620279
 20
5.624293337083273
 30
0.0
 11
4.795241310620276
 21
5.624293337083273
 31
0.0
  0
LINE
  5
4BB
330
1E
100
AcDbEntity
  8
HIDDEN
  6
HIDDEN2
100
AcDbLine
 10
4.549241310620281
 20
6.332293337083271
 30
0.0
 11
4.729241310620288
 21
6.332293337083264
 31
0.0
  0
LINE
  5
4BC
330
1E
100
AcDbEntity
  8
OBJECT
100
AcDbLine
 10
4.401241310620287
 20
5.70229333708327
 30
0.0
 11
4.401241310620301
 21
6.289293337083273
 31
0.0
  0
LINE
  5
4BD
330
1E
100
AcDbEntity
  8
OBJECT
100
AcDbLine
 10
4.483241310620279
 20
5.624293337083273
 30
0.0
 11
4.483241310620279
 21
6.289293337083273
 31
0.0
  0
LINE
  5
4BE
330
1E
100
AcDbEntity
  8
HIDDEN
100
AcDbLine
 10
4.549241310620288
 20
5.624293337083273
 30
0.0
 11
4.549241310620288
 21
6.332293337083264
 31
0.0
  0
LINE
  5
4BF
330
1E
100
AcDbEntity
  8
HIDDEN
  6
HIDDEN2
100
AcDbLine
 10
4.59424131062029
 20
5.624293337083273
 30
0.0
 11
4.59424131062029
 21
5.874293337083273
 31
0.0
  0
LINE
  5
4C0
330
1E
100
AcDbEntity
  8
OBJECT
100
AcDbLine
 10
4.292918967892036
 20
6.254015912487487
 30
0.0
 11
4.282241310620287
 21
5.627293337083273
 31
0.0
  0
LINE
  5
4C1
330
1E
100
AcDbEntity
  8
OBJECT
100
AcDbLine
 10
4.282241310620287
 20
5.627293337083273
 30
0.0
 11
4.351066759970999
 21
5.627293337083273
 31
0.0
  0
LINE
  5
4C2
330
1E
100
AcDbEntity
  8
OBJECT
100
AcDbLine
 10
4.351066759971006
 20
5.70229333708327
 30
0.0
 11
4.401241310620287
 21
5.70229333708327
 31
0.0
  0
LINE
  5
4C3
330
1E
100
AcDbEntity
  8
OBJECT
100
AcDbLine
 10
4.351066759970999
 20
5.627293337083273
 30
0.0
 11
4.351066759971006
 21
5.70229333708327
 31
0.0
  0
ARC
  5
4C4
330
1E
100
AcDbEntity
  8
OBJECT
100
AcDbCircle
 10
4.448895208336432
 20
6.251293337083273
 30
0.0
 40
0.1559999999999997
100
AcDbArc
 50
90.0000000000031
 51
178.999999999999
  0
LINE
  5
4C5
330
1E
100
AcDbEntity
  8
OBJECT
100
AcDbLine
 10
4.795241310620276
 20
5.624293337083273
 30
0.0
 11
4.795241310620276
 21
6.289293337083273
 31
0.0
  0
LINE
  5
4C6
330
1E
100
AcDbEntity
  8
HIDDEN
100
AcDbLine
 10
4.729241310620281
 20
5.624293337083273
 30
0.0
 11
4.729241310620288
 21
6.332293337083264
 31
0.0
  0
LINE
  5
4C7
330
1E
100
AcDbEntity
  8
HIDDEN
  6
HIDDEN2
100
AcDbLine
 10
4.684241310620279
 20
5.624293337083273
 30
0.0
 11
4.684241310620286
 21
5.874293337083273
 31
0.0
  0
LINE
  5
4C8
330
1E
100
AcDbEntity
  8
OBJECT
100
AcDbLine
 10
11.09284088888825
 20
4.953293337083273
 30
0.0
 11
12.97306675997097
 21
4.953293337083273
 31
0.0
  0
LINE
  5
4C9
330
1E
100
AcDbEntity
  8
OBJECT
100
AcDbLine
 10
12.97324131062024
 20
6.271293337083273
 30
0.0
 11
11.15581001585059
 21
6.271293337083283
 31
0.0
  0
ARC
  5
4CA
330
1E
100
AcDbEntity
  8
OBJECT
100
AcDbCircle
 10
12.945066759971
 20
6.254293337083272
 30
0.0
 40
0.078
100
AcDbArc
 50
0.0000000000004071
 51
90.0
  0
LINE
  5
4CB
330
1E
100
AcDbEntity
  8
OBJECT
100
AcDbLine
 10
12.945066759971
 20
6.332293337083267
 30
0.0
 11
11.1150520669147
 21
6.332293337083259
 31
0.0
  0
INSERT
  5
4CC
330
1E
100
AcDbEntity
  8
OBJECT
 62
     4
100
AcDbBlockReference
  2
*X30
 10
0.0
 20
4.079661623646398
 30
0.0
1001
ACAD
1000
HATCH
1002
{
1070
    16
1000
ANSI32
1040
0.5
1040
0.0
1002
}
  0
INSERT
  5
4CD
330
1E
100
AcDbEntity
  8
OBJECT
 62
     4
100
AcDbBlockReference
  2
*X31
 10
0.0
 20
4.079661623646398
 30
0.0
1001
ACAD
1000
HATCH
1002
{
1070
    16
1000
ANSI32
1040
0.5
1040
1.570796326794896
1002
}
  0
DIMENSION
  5
4CE
330
1E
100
AcDbEntity
  8
DIM
100
AcDbDimension
  2
*D34
 10
3.542618063551008
 20
4.817293337083272
 30
0.0
 11
3.542618063551008
 21
5.612293337083269
 31
0.0
 12
0.0
 22
4.079661623646398
 32
0.0
 71
     5
 42
-1.0
  3
23NSTDI
100
AcDbAlignedDimension
 13
4.448895208336422
 23
6.407293337083263
 33
0.0
 14
4.448895208336425
 24
4.817293337083272
 34
0.0
 50
90.0
100
AcDbRotatedDimension
  0
DIMENSION
  5
4CF
330
1E
100
AcDbEntity
  8
DIM
100
AcDbDimension
  2
*D33
 10
7.761374654258944
 20
6.289293337083279
 30
0.0
 11
7.761374654258944
 21
5.612293337083276
 31
0.0
 12
0.0
 22
4.079661623646398
 32
0.0
 71
     5
 42
-1.0
  3
23NSTDI
100
AcDbAlignedDimension
 13
7.573828494943512
 23
4.935293337083273
 33
0.0
 14
7.573828494943509
 24
6.289293337083279
 34
0.0
 50
90.0
100
AcDbRotatedDimension
  0
DIMENSION
  5
4D0
330
1E
100
AcDbEntity
  8
DIM
100
AcDbDimension
  2
*D32
 10
9.077200930870318
 20
6.407293337083269
 30
0.0
 11
9.914075930870318
 21
7.127293337083269
 31
0.0
 12
-0.9387337029341011
 22
4.079661623646398
 32
0.0
 71
     5
 42
-1.0
  3
23NSTD
100
AcDbAlignedDimension
 13
8.891655315311298
 23
6.289293337083282
 33
0.0
 14
8.891655315311298
 24
6.407293337083269
 34
0.0
 50
90.0
100
AcDbRotatedDimension
  0
LINE
  5
4D1
330
1E
100
AcDbEntity
  8
HIDDEN
100
AcDbLine
 10
17.74383820121844
 20
10.97512344293008
 30
0.0
 11
17.03583820121845
 21
10.97512344293008
 31
0.0
  0
LINE
  5
4D2
330
1E
100
AcDbEntity
  8
HIDDEN
100
AcDbLine
 10
17.74383820121844
 20
10.79512344293009
 30
0.0
 11
17.03583820121845
 21
10.79512344293008
 31
0.0
  0
LINE
  5
4D3
330
1E
100
AcDbEntity
  8
HIDDEN
100
AcDbLine
 10
17.76783820121843
 20
10.7291234429301
 30
0.0
 11
18.43283820121843
 21
10.7291234429301
 31
0.0
  0
LINE
  5
4D4
330
1E
100
AcDbEntity
  8
HIDDEN
100
AcDbLine
 10
17.76783820121843
 20
11.04112344293009
 30
0.0
 11
18.43283820121843
 21
11.04112344293009
 31
0.0
  0
LINE
  5
4D5
330
1E
100
AcDbEntity
  8
HIDDEN
100
AcDbLine
 10
17.76783820121843
 20
10.95012344293009
 30
0.0
 11
18.45898538647326
 21
10.95012344293009
 31
0.0
  0
LINE
  5
4D6
330
1E
100
AcDbEntity
  8
HIDDEN
100
AcDbLine
 10
17.76783820121843
 20
10.82012344293009
 30
0.0
 11
18.45898538647326
 21
10.82012344293008
 31
0.0
  0
LINE
  5
4D7
330
1E
100
AcDbEntity
  8
HIDDEN
  6
HIDDEN2
100
AcDbLine
 10
18.45898538647327
 20
10.95012344293009
 30
0.0
 11
18.45898538647326
 21
10.82012344293008
 31
0.0
  0
LINE
  5
4D8
330
1E
100
AcDbEntity
  8
HIDDEN
  6
HIDDEN2
100
AcDbLine
 10
18.54583820121844
 20
10.7446234429301
 30
0.0
 11
18.45898538647326
 21
10.82012344293009
 31
0.0
  0
LINE
  5
4D9
330
1E
100
AcDbEntity
  8
HIDDEN
  6
HIDDEN2
100
AcDbLine
 10
18.54583820121844
 20
11.02562344293008
 30
0.0
 11
18.45898538647326
 21
10.95012344293009
 31
0.0
  0
LINE
  5
4DA
330
1E
100
AcDbEntity
  8
HIDDEN
100
AcDbLine
 10
17.74383820121844
 20
10.72912344293009
 30
0.0
 11
17.07883820121844
 21
10.72912344293009
 31
0.0
  0
LINE
  5
4DB
330
1E
100
AcDbEntity
  8
HIDDEN
100
AcDbLine
 10
17.74383820121844
 20
11.04112344293009
 30
0.0
 11
17.07883820121844
 21
11.04112344293009
 31
0.0
  0
LINE
  5
4DC
330
1E
100
AcDbEntity
  8
HIDDEN
  6
HIDDEN2
100
AcDbLine
 10
17.49383820121845
 20
10.97512344293008
 30
0.0
 11
17.49383820121845
 21
10.79512344293009
 31
0.0
  0
LINE
  5
4DD
330
1E
100
AcDbEntity
  8
HIDDEN
  6
HIDDEN2
100
AcDbLine
 10
17.74383820121844
 20
11.04112344293009
 30
0.0
 11
17.74383820121844
 21
10.72912344293009
 31
0.0
  0
LINE
  5
4DE
330
1E
100
AcDbEntity
  8
HIDDEN
  6
HIDDEN2
100
AcDbLine
 10
17.76783820121843
 20
11.04112344293009
 30
0.0
 11
17.76783820121843
 21
10.7291234429301
 31
0.0
  0
LINE
  5
4DF
330
1E
100
AcDbEntity
  8
HIDDEN
  6
HIDDEN2
100
AcDbLine
 10
17.74383820121844
 20
10.84012344293009
 30
0.0
 11
17.49383820121845
 21
10.84012344293008
 31
0.0
  0
LINE
  5
4E0
330
1E
100
AcDbEntity
  8
HIDDEN
  6
HIDDEN2
100
AcDbLine
 10
17.74383820121844
 20
10.93012344293008
 30
0.0
 11
17.49383820121845
 21
10.93012344293008
 31
0.0
  0
LINE
  5
4E1
330
1E
100
AcDbEntity
  8
HIDDEN
  6
HIDDEN2
100
AcDbLine
 10
17.03583820121845
 20
10.97512344293009
 30
0.0
 11
17.03583820121845
 21
10.79512344293008
 31
0.0
  0
LINE
  5
4E2
330
1E
100
AcDbEntity
  8
HIDDEN
100
AcDbLine
 10
17.11083820121843
 20
10.66012344293007
 30
0.0
 11
17.11083820121843
 21
10.62012344293008
 31
0.0
  0
LINE
  5
4E3
330
1E
100
AcDbEntity
  8
HIDDEN
100
AcDbLine
 10
18.47583820121843
 20
10.49012344293009
 30
0.0
 11
18.41483820121843
 21
10.55012344293008
 31
0.0
  0
LINE
  5
4E4
330
1E
100
AcDbEntity
  8
HIDDEN
100
AcDbLine
 10
18.40083820121843
 20
10.66012344293007
 30
0.0
 11
18.40083820121843
 21
10.62012344293008
 31
0.0
  0
LINE
  5
4E5
330
1E
100
AcDbEntity
  8
HIDDEN
100
AcDbLine
 10
18.45683820121843
 20
10.6201234429301
 30
0.0
 11
18.45683820121843
 21
10.5501234429301
 31
0.0
  0
LINE
  5
4E6
330
1E
100
AcDbEntity
  8
HIDDEN
100
AcDbLine
 10
17.76783820121843
 20
16.43912344293008
 30
0.0
 11
18.43283820121843
 21
16.43912344293008
 31
0.0
  0
LINE
  5
4E7
330
1E
100
AcDbEntity
  8
HIDDEN
100
AcDbLine
 10
17.76783820121843
 20
16.53012344293009
 30
0.0
 11
18.45898538647326
 21
16.53012344293009
 31
0.0
  0
LINE
  5
4E8
330
1E
100
AcDbEntity
  8
HIDDEN
100
AcDbLine
 10
17.76783820121843
 20
16.66012344293008
 30
0.0
 11
18.45898538647326
 21
16.66012344293009
 31
0.0
  0
LINE
  5
4E9
330
1E
100
AcDbEntity
  8
HIDDEN
100
AcDbLine
 10
17.76783820121843
 20
16.75112344293007
 30
0.0
 11
18.43283820121843
 21
16.75112344293007
 31
0.0
  0
LINE
  5
4EA
330
1E
100
AcDbEntity
  8
HIDDEN
100
AcDbLine
 10
17.77083820121843
 20
16.86012344293007
 30
0.0
 11
18.45683820121843
 21
16.86012344293007
 31
0.0
  0
LINE
  5
4EB
330
1E
100
AcDbEntity
  8
HIDDEN
100
AcDbLine
 10
17.77083820121843
 20
16.82012344293013
 30
0.0
 11
18.43283820121844
 21
16.82012344293007
 31
0.0
  0
LINE
  5
4EC
330
1E
100
AcDbEntity
  8
OBJECT
100
AcDbLine
 10
17.77083820121843
 20
16.99012344293008
 30
0.0
 11
18.55083820121843
 21
16.99012344293008
 31
0.0
  0
LINE
  5
4ED
330
1E
100
AcDbEntity
  8
HIDDEN
100
AcDbLine
 10
17.77083820121843
 20
16.93012344293007
 30
0.0
 11
18.45683820121843
 21
16.93012344293007
 31
0.0
  0
LINE
  5
4EE
330
1E
100
AcDbEntity
  8
HIDDEN
100
AcDbLine
 10
17.74383820121844
 20
16.50512344293009
 30
0.0
 11
17.03583820121845
 21
16.50512344293009
 31
0.0
  0
LINE
  5
4EF
330
1E
100
AcDbEntity
  8
HIDDEN
100
AcDbLine
 10
17.74383820121844
 20
16.68512344293008
 30
0.0
 11
17.03583820121845
 21
16.68512344293009
 31
0.0
  0
LINE
  5
4F0
330
1E
100
AcDbEntity
  8
HIDDEN
100
AcDbLine
 10
17.74383820121844
 20
16.43912344293008
 30
0.0
 11
17.07883820121844
 21
16.43912344293008
 31
0.0
  0
LINE
  5
4F1
330
1E
100
AcDbEntity
  8
HIDDEN
100
AcDbLine
 10
17.74383820121844
 20
16.75112344293007
 30
0.0
 11
17.07883820121844
 21
16.75112344293007
 31
0.0
  0
LINE
  5
4F2
330
1E
100
AcDbEntity
  8
HIDDEN
100
AcDbLine
 10
17.72883820121845
 20
16.86012344293009
 30
0.0
 11
17.05483820121844
 21
16.86012344293009
 31
0.0
  0
LINE
  5
4F3
330
1E
100
AcDbEntity
  8
HIDDEN
100
AcDbLine
 10
17.72883820121845
 20
16.82012344293016
 30
0.0
 11
17.07883820121844
 21
16.82012344293009
 31
0.0
  0
LINE
  5
4F4
330
1E
100
AcDbEntity
  8
HIDDEN
100
AcDbLine
 10
17.77083820121843
 20
16.93012344293008
 30
0.0
 11
17.05483820121844
 21
16.93012344293008
 31
0.0
  0
LINE
  5
4F5
330
1E
100
AcDbEntity
  8
OBJECT
100
AcDbLine
 10
17.74083820121841
 20
16.99012344293007
 30
0.0
 11
16.96083820121844
 21
16.99012344293008
 31
0.0
  0
LINE
  5
4F6
330
1E
100
AcDbEntity
  8
HIDDEN
  6
HIDDEN2
100
AcDbLine
 10
17.03583820121845
 20
16.50512344293008
 30
0.0
 11
17.03583820121845
 21
16.68512344293009
 31
0.0
  0
LINE
  5
4F7
330
1E
100
AcDbEntity
  8
HIDDEN
100
AcDbLine
 10
17.03583820121844
 20
16.99012344293008
 30
0.0
 11
17.09683820121844
 21
16.93012344293009
 31
0.0
  0
LINE
  5
4F8
330
1E
100
AcDbEntity
  8
HIDDEN
100
AcDbLine
 10
17.11083820121843
 20
16.8201234429301
 30
0.0
 11
17.11083820121843
 21
16.86012344293009
 31
0.0
  0
LINE
  5
4F9
330
1E
100
AcDbEntity
  8
HIDDEN
100
AcDbLine
 10
17.05483820121844
 20
16.86012344293009
 30
0.0
 11
17.05483820121844
 21
16.93012344293008
 31
0.0
  0
LINE
  5
4FA
330
1E
100
AcDbEntity
  8
HIDDEN
  6
HIDDEN2
100
AcDbLine
 10
17.49383820121845
 20
16.50512344293009
 30
0.0
 11
17.49383820121845
 21
16.68512344293008
 31
0.0
  0
LINE
  5
4FB
330
1E
100
AcDbEntity
  8
HIDDEN
  6
HIDDEN2
100
AcDbLine
 10
17.74383820121844
 20
16.43912344293008
 30
0.0
 11
17.74383820121844
 21
16.75112344293007
 31
0.0
  0
LINE
  5
4FC
330
1E
100
AcDbEntity
  8
HIDDEN
  6
HIDDEN2
100
AcDbLine
 10
17.76783820121843
 20
16.43912344293008
 30
0.0
 11
17.76783820121843
 21
16.75112344293007
 31
0.0
  0
LINE
  5
4FD
330
1E
100
AcDbEntity
  8
HIDDEN
  6
HIDDEN2
100
AcDbLine
 10
17.74383820121844
 20
16.64012344293008
 30
0.0
 11
17.49383820121845
 21
16.64012344293008
 31
0.0
  0
LINE
  5
4FE
330
1E
100
AcDbEntity
  8
HIDDEN
100
AcDbLine
 10
17.72883820121845
 20
16.86012344293009
 30
0.0
 11
17.72883820121845
 21
16.82012344293016
 31
0.0
  0
LINE
  5
4FF
330
1E
100
AcDbEntity
  8
OBJECT
100
AcDbLine
 10
17.77083820121843
 20
16.97512344293008
 30
0.0
 11
17.74083820121841
 21
16.97512344293008
 31
0.0
  0
LINE
  5
500
330
1E
100
AcDbEntity
  8
HIDDEN
  6
HIDDEN2
100
AcDbLine
 10
17.74383820121844
 20
16.55012344293009
 30
0.0
 11
17.49383820121845
 21
16.55012344293009
 31
0.0
  0
LINE
  5
501
330
1E
100
AcDbEntity
  8
HIDDEN
  6
HIDDEN2
100
AcDbLine
 10
18.27683820121844
 20
16.31012344293008
 30
0.0
 11
18.27683820121844
 21
16.09212344293009
 31
0.0
  0
LINE
  5
502
330
1E
100
AcDbEntity
  8
HIDDEN
  6
HIDDEN2
100
AcDbLine
 10
18.49483820121844
 20
16.24612344293009
 30
0.0
 11
18.49483820121844
 21
16.15612344293008
 31
0.0
  0
LINE
  5
503
330
1E
100
AcDbEntity
  8
HIDDEN
  6
HIDDEN2
100
AcDbLine
 10
18.30433820121843
 20
16.24612344293009
 30
0.0
 11
18.30433820121844
 21
16.15612344293008
 31
0.0
  0
LINE
  5
504
330
1E
100
AcDbEntity
  8
HIDDEN
  6
HIDDEN2
100
AcDbLine
 10
18.54583820121844
 20
16.4546234429301
 30
0.0
 11
18.45898538647326
 21
16.53012344293009
 31
0.0
  0
LINE
  5
505
330
1E
100
AcDbEntity
  8
HIDDEN
  6
HIDDEN2
100
AcDbLine
 10
18.54583820121844
 20
16.73562344293007
 30
0.0
 11
18.45898538647326
 21
16.66012344293008
 31
0.0
  0
LINE
  5
506
330
1E
100
AcDbEntity
  8
HIDDEN
  6
HIDDEN2
100
AcDbLine
 10
18.45898538647327
 20
16.53012344293008
 30
0.0
 11
18.45898538647326
 21
16.66012344293009
 31
0.0
  0
LINE
  5
507
330
1E
100
AcDbEntity
  8
HIDDEN
  6
HIDDEN2
100
AcDbLine
 10
18.27683820121844
 20
16.60512344293008
 30
0.0
 11
18.27683820121844
 21
16.38712344293009
 31
0.0
  0
LINE
  5
508
330
1E
100
AcDbEntity
  8
HIDDEN
100
AcDbLine
 10
18.45683820121843
 20
16.86012344293007
 30
0.0
 11
18.45683820121843
 21
16.93012344293007
 31
0.0
  0
LINE
  5
509
330
1E
100
AcDbEntity
  8
HIDDEN
100
AcDbLine
 10
18.40083820121843
 20
16.8201234429301
 30
0.0
 11
18.40083820121843
 21
16.86012344293009
 31
0.0
  0
LINE
  5
50A
330
1E
100
AcDbEntity
  8
HIDDEN
100
AcDbLine
 10
18.47583820121843
 20
16.99012344293008
 30
0.0
 11
18.41483820121843
 21
16.93012344293009
 31
0.0
  0
LINE
  5
50B
330
1E
100
AcDbEntity
  8
HIDDEN
  6
HIDDEN2
100
AcDbLine
 10
18.27683820121844
 20
16.60512344293008
 30
0.0
 11
18.43283820121844
 21
16.60512344293008
 31
0.0
  0
LINE
  5
50C
330
1E
100
AcDbEntity
  8
HIDDEN
  6
HIDDEN2
100
AcDbLine
 10
18.49483820121844
 20
16.54112344293009
 30
0.0
 11
18.49483820121844
 21
16.45112344293009
 31
0.0
  0
LINE
  5
50D
330
1E
100
AcDbEntity
  8
HIDDEN
  6
HIDDEN2
100
AcDbLine
 10
18.27683820121844
 20
16.38712344293009
 30
0.0
 11
18.43283820121844
 21
16.38712344293009
 31
0.0
  0
LINE
  5
50E
330
1E
100
AcDbEntity
  8
HIDDEN
  6
HIDDEN2
100
AcDbLine
 10
18.27683820121844
 20
16.42362344293008
 30
0.0
 11
18.30433820121843
 21
16.45112344293009
 31
0.0
  0
LINE
  5
50F
330
1E
100
AcDbEntity
  8
HIDDEN
  6
HIDDEN2
100
AcDbLine
 10
18.27683820121844
 20
16.56862344293009
 30
0.0
 11
18.30433820121843
 21
16.54112344293009
 31
0.0
  0
LINE
  5
510
330
1E
100
AcDbEntity
  8
HIDDEN
  6
HIDDEN2
100
AcDbLine
 10
18.30433820121843
 20
16.54112344293009
 30
0.0
 11
18.30433820121844
 21
16.45112344293009
 31
0.0
  0
LINE
  5
511
330
1E
100
AcDbEntity
  8
HIDDEN
  6
HIDDEN2
100
AcDbLine
 10
18.30433820121844
 20
16.45112344293009
 30
0.0
 11
18.49483820121844
 21
16.45112344293009
 31
0.0
  0
LINE
  5
512
330
1E
100
AcDbEntity
  8
HIDDEN
  6
HIDDEN2
100
AcDbLine
 10
18.30433820121843
 20
16.54112344293009
 30
0.0
 11
18.49483820121844
 21
16.54112344293009
 31
0.0
  0
LINE
  5
513
330
1E
100
AcDbEntity
  8
HIDDEN
  6
HIDDEN2
100
AcDbLine
 10
18.27683820121844
 20
16.31012344293008
 30
0.0
 11
18.43283820121844
 21
16.31012344293008
 31
0.0
  0
LINE
  5
514
330
1E
100
AcDbEntity
  8
HIDDEN
  6
HIDDEN2
100
AcDbLine
 10
18.27683820121844
 20
16.27362344293009
 30
0.0
 11
18.30433820121843
 21
16.24612344293009
 31
0.0
  0
LINE
  5
515
330
1E
100
AcDbEntity
  8
HIDDEN
  6
HIDDEN2
100
AcDbLine
 10
18.30433820121843
 20
16.24612344293009
 30
0.0
 11
18.49483820121844
 21
16.24612344293009
 31
0.0
  0
LINE
  5
516
330
1E
100
AcDbEntity
  8
HIDDEN
  6
HIDDEN2
100
AcDbLine
 10
18.27683820121844
 20
16.12862344293008
 30
0.0
 11
18.30433820121843
 21
16.15612344293008
 31
0.0
  0
LINE
  5
517
330
1E
100
AcDbEntity
  8
HIDDEN
  6
HIDDEN2
100
AcDbLine
 10
18.27683820121844
 20
16.09212344293009
 30
0.0
 11
18.43283820121844
 21
16.09212344293009
 31
0.0
  0
LINE
  5
518
330
1E
100
AcDbEntity
  8
HIDDEN
  6
HIDDEN2
100
AcDbLine
 10
18.30433820121844
 20
16.15612344293008
 30
0.0
 11
18.49483820121844
 21
16.15612344293008
 31
0.0
  0
DIMENSION
  5
519
330
1E
100
AcDbEntity
  8
DIM
100
AcDbDimension
  2
*D37
 10
6.288976253977931
 20
4.935293337083273
 30
0.0
 11
5.42085125397793
 21
4.215293337083273
 31
0.0
 71
     5
 42
-1.0
  3
23NSTD
100
AcDbAlignedDimension
 13
6.753066759971014
 23
5.091293337083271
 33
0.0
 14
6.239437732370022
 24
4.935293337083273
 34
0.0
 50
90.0
100
AcDbRotatedDimension
  0
TEXT
  5
51A
330
1E
100
AcDbEntity
  8
TEXT
100
AcDbText
 10
19.71343321262946
 20
5.278960003749937
 30
0.0
 40
0.25
  1
(TEXTURED ON ONE SIDE)
 41
0.75
  7
TXT
 72
     4
 11
21.65093321262946
 21
5.403960003749937
 31
0.0
100
AcDbText
  0
TEXT
  5
51B
330
1E
100
AcDbEntity
  8
TEXT
100
AcDbText
 10
18.33843321262946
 20
1.434337236775038
 30
0.0
 40
0.25
  1
(PRESSURE-SENSITIVE TAPE ON ONE SIDE)
 41
0.75
  7
TXT
 72
     4
 11
21.65093321262946
 21
1.559337236775038
 31
0.0
100
AcDbText
  0
TEXT
  5
51C
330
1E
100
AcDbEntity
  8
TEXT
100
AcDbText
 10
23.11503544888365
 20
17.18818803604263
 30
0.0
 40
0.25
  1
LIGHT GRAY PLASTIC PANELS.
 41
0.75
  7
TXT
100
AcDbText
  0
TEXT
  5
51D
330
1E
100
AcDbEntity
  8
TEXT
100
AcDbText
 10
23.09581155269019
 20
10.07557019840644
 30
0.0
 40
0.25
  1
%%UNOTE:%%U ALL DIMENSIONS HAVE %%P0.015 TOLERANCE
 41
0.75
  7
TXT
100
AcDbText
  0
TEXT
  5
51E
330
1E
100
AcDbEntity
  8
TEXT
100
AcDbText
 10
23.48534030954853
 20
9.658903531739783
 30
0.0
 40
0.25
  1
UNLESS OTHERWISE SPECIFIED.
 41
0.75
  7
TXT
100
AcDbText
  0
TEXT
  5
51F
330
1E
100
AcDbEntity
  8
DIM
100
AcDbText
 10
13.83525511851202
 20
8.045267195222232
 30
0.0
 40
0.25
  1
OR #4 STD. SHEET METAL SCREWS x 0.188" LG.
 41
0.75
  7
TXT
 11
13.83525511851202
 21
8.170267195222232
 31
0.0
100
AcDbText
 73
     2
  0
TEXT
  5
520
330
1E
100
AcDbEntity
  8
DIM
100
AcDbText
 10
13.83525511851202
 20
7.628600528555565
 30
0.0
 40
0.25
  1
(NOT SUPPLIED)
 41
0.75
  7
TXT
 11
13.83525511851202
 21
7.753600528555565
 31
0.0
100
AcDbText
 73
     2
  0
TEXT
  5
522
330
1E
100
AcDbEntity
  8
OBJECT
100
AcDbText
 10
29.30266671497138
 20
-0.3845367680913085
 30
0.0
 40
0.188
  1
REV 30JUN07
 41
0.75
  7
TXT
100
AcDbText
  0
ENDSEC
  0
SECTION
  2
OBJECTS
  0
DICTIONARY
  5
C
330
0
100
AcDbDictionary
281
     1
  3
ACAD_GROUP
350
D
  3
ACAD_PLOTSTYLENAME
350
E
  3
ACAD_MLINESTYLE
350
16
  3
ACAD_PLOTSETTINGS
350
18
  3
ACAD_LAYOUT
350
19
  0
DICTIONARY
  5
D
102
{ACAD_REACTORS
330
C
102
}
330
C
100
AcDbDictionary
281
     1
  0
ACDBDICTIONARYWDFLT
  5
E
102
{ACAD_REACTORS
330
C
102
}
330
C
100
AcDbDictionary
281
     1
  3
Normal
350
F
100
AcDbDictionaryWithDefault
340
F
  0
DICTIONARY
  5
16
102
{ACAD_REACTORS
330
C
102
}
330
C
100
AcDbDictionary
281
     1
  3
Standard
350
17
  0
DICTIONARY
  5
18
102
{ACAD_REACTORS
330
C
102
}
330
C
100
AcDbDictionary
281
     1
  0
DICTIONARY
  5
19
102
{ACAD_REACTORS
330
C
102
}
330
C
100
AcDbDictionary
281
     1
  3
Layout1
350
1D
  3
Model
350
21
  0
ACDBPLACEHOLDER
  5
F
102
{ACAD_REACTORS
330
E
102
}
330
E
  0
MLINESTYLE
  5
17
102
{ACAD_REACTORS
330
16
102
}
330
16
100
AcDbMlineStyle
  2
STANDARD
 70
     0
  3

 62
   256
 51
90.0
 52
90.0
 71
     2
 49
0.5
 62
   256
  6
BYLAYER
 49
-0.5
 62
   256
  6
BYLAYER
  0
LAYOUT
  5
1D
102
{ACAD_REACTORS
330
19
102
}
330
19
100
AcDbPlotSettings
  1

  2
Acrobat PDFWriter
  4

  6

 40
0.0
 41
0.0
 42
0.0
 43
0.0
 44
0.0
 45
0.0
 46
0.0
 47
0.0
 48
0.0
 49
0.0
140
0.0
141
0.0
142
1.0
143
1.0
 70
   688
 72
     0
 73
     0
 74
     5
  7
monochrome.ctb
 75
    16
147
1.0
148
0.0
149
0.0
100
AcDbLayout
  1
Layout1
 70
     1
 71
     1
 10
0.0
 20
0.0
 11
12.0
 21
9.0
 12
0.0
 22
0.0
 32
0.0
 14
1.000000000000000E+20
 24
1.000000000000000E+20
 34
1.000000000000000E+20
 15
-1.000000000000000E+20
 25
-1.000000000000000E+20
 35
-1.000000000000000E+20
146
0.0
 13
0.0
 23
0.0
 33
0.0
 16
1.0
 26
0.0
 36
0.0
 17
0.0
 27
1.0
 37
0.0
 76
     0
330
1A
  0
LAYOUT
  5
21
102
{ACAD_REACTORS
330
19
102
}
330
19
100
AcDbPlotSettings
  1

  2
Acrobat PDFWriter
  4

  6

 40
0.0
 41
0.0
 42
0.0
 43
0.0
 44
0.0
 45
0.0
 46
0.0
 47
0.0
 48
0.0
 49
0.0
140
0.0
141
0.0
142
1.0
143
1.0
 70
  1712
 72
     0
 73
     0
 74
     0
  7
monochrome.ctb
 75
     0
147
1.0
148
0.0
149
0.0
100
AcDbLayout
  1
Model
 70
     1
 71
     0
 10
0.0
 20
0.0
 11
12.0
 21
9.0
 12
0.0
 22
0.0
 32
0.0
 14
0.0
 24
0.0
 34
0.0
 15
0.0
 25
0.0
 35
0.0
146
0.0
 13
0.0
 23
0.0
 33
0.0
 16
1.0
 26
0.0
 36
0.0
 17
0.0
 27
1.0
 37
0.0
 76
     0
330
1E
  0
ENDSEC
  0
EOF
