  0
SECTION
  2
HEADER
  9
$ACADVER
  1
AC1015
  9
$ACADMAINTVER
 70
     6
  9
$DWGCODEPAGE
  3
ANSI_1252
  9
$INSBASE
 10
0.0
 20
0.0
 30
0.0
  9
$EXTMIN
 10
-0.0009455035564869
 20
-0.00097331310252
 30
-0.0000000000000053
  9
$EXTMAX
 10
31.00094633364946
 20
20.24061083888259
 30
0.0000000000000099
  9
$LIMMIN
 10
0.0
 20
0.0
  9
$LIMMAX
 10
31.0
 20
20.23999999999998
  9
$ORTHOMODE
 70
     0
  9
$REGENMODE
 70
     1
  9
$FILLMODE
 70
     1
  9
$QTEXTMODE
 70
     0
  9
$MIRRTEXT
 70
     0
  9
$LTSCALE
 40
0.4379999999999999
  9
$ATTMODE
 70
     1
  9
$TEXTSIZE
 40
0.2
  9
$TRACEWID
 40
0.05
  9
$TEXTSTYLE
  7
TXT
  9
$CLAYER
  8
OBJECT
  9
$CELTYPE
  6
ByLayer
  9
$CECOLOR
 62
   256
  9
$CELTSCALE
 40
1.0
  9
$DISPSILH
 70
     0
  9
$DIMSCALE
 40
2.0
  9
$DIMASZ
 40
0.18
  9
$DIMEXO
 40
0.063
  9
$DIMDLI
 40
0.375
  9
$DIMRND
 40
0.0
  9
$DIMDLE
 40
0.0
  9
$DIMEXE
 40
0.093
  9
$DIMTP
 40
0.0
  9
$DIMTM
 40
0.0
  9
$DIMTXT
 40
0.125
  9
$DIMCEN
 40
0.09
  9
$DIMTSZ
 40
0.0
  9
$DIMTOL
 70
     0
  9
$DIMLIM
 70
     0
  9
$DIMTIH
 70
     1
  9
$DIMTOH
 70
     1
  9
$DIMSE1
 70
     0
  9
$DIMSE2
 70
     0
  9
$DIMTAD
 70
     0
  9
$DIMZIN
 70
     0
  9
$DIMBLK
  1

  9
$DIMASO
 70
     1
  9
$DIMSHO
 70
     1
  9
$DIMPOST
  1

  9
$DIMAPOST
  1

  9
$DIMALT
 70
     0
  9
$DIMALTD
 70
     2
  9
$DIMALTF
 40
25.4
  9
$DIMLFAC
 40
1.0
  9
$DIMTOFL
 70
     0
  9
$DIMTVP
 40
0.0
  9
$DIMTIX
 70
     0
  9
$DIMSOXD
 70
     0
  9
$DIMSAH
 70
     0
  9
$DIMBLK1
  1

  9
$DIMBLK2
  1

  9
$DIMSTYLE
  2
23NSTD
  9
$DIMCLRD
 70
     0
  9
$DIMCLRE
 70
     0
  9
$DIMCLRT
 70
     0
  9
$DIMTFAC
 40
1.0
  9
$DIMGAP
 40
0.09
  9
$DIMJUST
 70
     0
  9
$DIMSD1
 70
     0
  9
$DIMSD2
 70
     0
  9
$DIMTOLJ
 70
     1
  9
$DIMTZIN
 70
     0
  9
$DIMALTZ
 70
     0
  9
$DIMALTTZ
 70
     0
  9
$DIMUPT
 70
     0
  9
$DIMDEC
 70
     3
  9
$DIMTDEC
 70
     3
  9
$DIMALTU
 70
     2
  9
$DIMALTTD
 70
     2
  9
$DIMTXSTY
  7
TXT
  9
$DIMAUNIT
 70
     0
  9
$DIMADEC
 70
     0
  9
$DIMALTRND
 40
0.0
  9
$DIMAZIN
 70
     0
  9
$DIMDSEP
 70
    46
  9
$DIMATFIT
 70
     1
  9
$DIMFRAC
 70
     0
  9
$DIMLDRBLK
  1

  9
$DIMLUNIT
 70
     2
  9
$DIMLWD
 70
    -2
  9
$DIMLWE
 70
    -2
  9
$DIMTMOVE
 70
     0
  9
$LUNITS
 70
     2
  9
$LUPREC
 70
     3
  9
$SKETCHINC
 40
0.1
  9
$FILLETRAD
 40
0.0
  9
$AUNITS
 70
     0
  9
$AUPREC
 70
     0
  9
$MENU
  1
acad
  9
$ELEVATION
 40
0.0
  9
$PELEVATION
 40
0.0
  9
$THICKNESS
 40
0.0
  9
$LIMCHECK
 70
     0
  9
$CHAMFERA
 40
0.0
  9
$CHAMFERB
 40
0.0
  9
$CHAMFERC
 40
0.0
  9
$CHAMFERD
 40
0.0
  9
$SKPOLY
 70
     0
  9
$TDCREATE
 40
2449842.458035763
  9
$TDUCREATE
 40
2449842.666369097
  9
$TDUPDATE
 40
2455540.692420961
  9
$TDUUPDATE
 40
2455540.900754293
  9
$TDINDWG
 40
0.9454328588
  9
$TDUSRTIMER
 40
0.9454328588
  9
$USRTIMER
 70
     1
  9
$ANGBASE
 50
0.0
  9
$ANGDIR
 70
     0
  9
$PDMODE
 70
     0
  9
$PDSIZE
 40
0.0
  9
$PLINEWID
 40
0.0
  9
$SPLFRAME
 70
     0
  9
$SPLINETYPE
 70
     6
  9
$SPLINESEGS
 70
     8
  9
$HANDSEED
  5
94E
  9
$SURFTAB1
 70
     6
  9
$SURFTAB2
 70
     6
  9
$SURFTYPE
 70
     6
  9
$SURFU
 70
     6
  9
$SURFV
 70
     6
  9
$UCSBASE
  2

  9
$UCSNAME
  2

  9
$UCSORG
 10
0.0
 20
0.0
 30
0.0
  9
$UCSXDIR
 10
1.0
 20
0.0
 30
0.0
  9
$UCSYDIR
 10
0.0
 20
1.0
 30
0.0
  9
$UCSORTHOREF
  2

  9
$UCSORTHOVIEW
 70
     0
  9
$UCSORGTOP
 10
0.0
 20
0.0
 30
0.0
  9
$UCSORGBOTTOM
 10
0.0
 20
0.0
 30
0.0
  9
$UCSORGLEFT
 10
0.0
 20
0.0
 30
0.0
  9
$UCSORGRIGHT
 10
0.0
 20
0.0
 30
0.0
  9
$UCSORGFRONT
 10
0.0
 20
0.0
 30
0.0
  9
$UCSORGBACK
 10
0.0
 20
0.0
 30
0.0
  9
$PUCSBASE
  2

  9
$PUCSNAME
  2

  9
$PUCSORG
 10
0.0
 20
0.0
 30
0.0
  9
$PUCSXDIR
 10
1.0
 20
0.0
 30
0.0
  9
$PUCSYDIR
 10
0.0
 20
1.0
 30
0.0
  9
$PUCSORTHOREF
  2

  9
$PUCSORTHOVIEW
 70
     0
  9
$PUCSORGTOP
 10
0.0
 20
0.0
 30
0.0
  9
$PUCSORGBOTTOM
 10
0.0
 20
0.0
 30
0.0
  9
$PUCSORGLEFT
 10
0.0
 20
0.0
 30
0.0
  9
$PUCSORGRIGHT
 10
0.0
 20
0.0
 30
0.0
  9
$PUCSORGFRONT
 10
0.0
 20
0.0
 30
0.0
  9
$PUCSORGBACK
 10
0.0
 20
0.0
 30
0.0
  9
$USERI1
 70
     0
  9
$USERI2
 70
     0
  9
$USERI3
 70
     0
  9
$USERI4
 70
     0
  9
$USERI5
 70
     0
  9
$USERR1
 40
0.0
  9
$USERR2
 40
0.0
  9
$USERR3
 40
0.0
  9
$USERR4
 40
0.0
  9
$USERR5
 40
0.0
  9
$WORLDVIEW
 70
     1
  9
$SHADEDGE
 70
     3
  9
$SHADEDIF
 70
    70
  9
$TILEMODE
 70
     1
  9
$MAXACTVP
 70
    16
  9
$PINSBASE
 10
0.0
 20
0.0
 30
0.0
  9
$PLIMCHECK
 70
     0
  9
$PEXTMIN
 10
1.000000000000000E+20
 20
1.000000000000000E+20
 30
1.000000000000000E+20
  9
$PEXTMAX
 10
-1.000000000000000E+20
 20
-1.000000000000000E+20
 30
-1.000000000000000E+20
  9
$PLIMMIN
 10
0.0
 20
0.0
  9
$PLIMMAX
 10
12.0
 20
9.0
  9
$UNITMODE
 70
     0
  9
$VISRETAIN
 70
     0
  9
$PLINEGEN
 70
     0
  9
$PSLTSCALE
 70
     1
  9
$TREEDEPTH
 70
  3020
  9
$CMLSTYLE
  2
Standard
  9
$CMLJUST
 70
     0
  9
$CMLSCALE
 40
1.0
  9
$PROXYGRAPHICS
 70
     1
  9
$MEASUREMENT
 70
     0
  9
$CELWEIGHT
370
    -1
  9
$ENDCAPS
280
     0
  9
$JOINSTYLE
280
     0
  9
$LWDISPLAY
290
     0
  9
$INSUNITS
 70
     0
  9
$HYPERLINKBASE
  1

  9
$STYLESHEET
  1
monochrome.ctb
  9
$XEDIT
290
     1
  9
$CEPSNTYPE
380
     0
  9
$PSTYLEMODE
290
     1
  9
$FINGERPRINTGUID
  2
{AA9A5D1A-F70E-4216-ACE1-F9F64575CF37}
  9
$VERSIONGUID
  2
{E5DD0B8C-71A7-4ACA-B6F5-124770756F59}
  9
$EXTNAMES
290
     1
  9
$PSVPSCALE
 40
0.0
  9
$OLESTARTUP
290
     0
  0
ENDSEC
  0
SECTION
  2
CLASSES
  0
CLASS
  1
ACDBDICTIONARYWDFLT
  2
AcDbDictionaryWithDefault
  3
AutoCAD 2000
 90
        0
280
     0
281
     0
  0
CLASS
  1
ACDBPLACEHOLDER
  2
AcDbPlaceHolder
  3
AutoCAD 2000
 90
        0
280
     0
281
     0
  0
CLASS
  1
LAYOUT
  2
AcDbLayout
  3
AutoCAD 2000
 90
        0
280
     0
281
     0
  0
ENDSEC
  0
SECTION
  2
TABLES
  0
TABLE
  2
VPORT
  5
8
330
0
100
AcDbSymbolTable
 70
     3
  0
VPORT
  5
94D
330
8
100
AcDbSymbolTableRecord
100
AcDbViewportTableRecord
  2
*Active
 70
     0
 10
0.0
 20
0.0
 11
1.0
 21
1.0
 12
15.50000041504649
 22
10.11981876289003
 13
0.0
 23
0.0
 14
1.0
 24
1.0
 15
0.0
 25
0.0
 16
0.0
 26
0.0
 36
1.0
 17
0.0
 27
0.0
 37
0.0
 40
20.44535848908563
 41
1.836974789915966
 42
50.0
 43
0.0
 44
0.0
 50
0.0
 51
0.0
 71
     0
 72
   100
 73
     1
 74
     0
 75
     0
 76
     0
 77
     0
 78
     0
281
     0
 65
     1
110
0.0
120
0.0
130
0.0
111
1.0
121
0.0
131
0.0
112
0.0
122
1.0
132
0.0
 79
     0
146
0.0
  0
ENDTAB
  0
TABLE
  2
LTYPE
  5
5
330
0
100
AcDbSymbolTable
 70
     6
  0
LTYPE
  5
13
330
5
100
AcDbSymbolTableRecord
100
AcDbLinetypeTableRecord
  2
ByBlock
 70
     0
  3

 72
    65
 73
     0
 40
0.0
  0
LTYPE
  5
14
330
5
100
AcDbSymbolTableRecord
100
AcDbLinetypeTableRecord
  2
ByLayer
 70
     0
  3

 72
    65
 73
     0
 40
0.0
  0
LTYPE
  5
15
330
5
100
AcDbSymbolTableRecord
100
AcDbLinetypeTableRecord
  2
CONTINUOUS
 70
     0
  3
Solid line
 72
    65
 73
     0
 40
0.0
  0
LTYPE
  5
4B
330
5
100
AcDbSymbolTableRecord
100
AcDbLinetypeTableRecord
  2
HIDDEN
 70
     0
  3
_ _ _ _ _ _ _ _ _ _ _ _ _ _ _ _ _ _ _ _ _ _ _
 72
    65
 73
     2
 40
0.375
 49
0.25
 74
     0
 49
-0.125
 74
     0
  0
LTYPE
  5
4C
330
5
100
AcDbSymbolTableRecord
100
AcDbLinetypeTableRecord
  2
PHANTOM
 70
     0
  3
_____ _ _ _____ _ _ _____ _ _ _____ _ _ ____
 72
    65
 73
     6
 40
2.5
 49
1.25
 74
     0
 49
-0.25
 74
     0
 49
0.25
 74
     0
 49
-0.25
 74
     0
 49
0.25
 74
     0
 49
-0.25
 74
     0
  0
LTYPE
  5
4D
330
5
100
AcDbSymbolTableRecord
100
AcDbLinetypeTableRecord
  2
CENTER
 70
     0
  3
____ _ ____ _ ____ _ ____ _ ____ _ ____ _ ____
 72
    65
 73
     4
 40
2.0
 49
1.25
 74
     0
 49
-0.25
 74
     0
 49
0.25
 74
     0
 49
-0.25
 74
     0
  0
LTYPE
  5
4E
330
5
100
AcDbSymbolTableRecord
100
AcDbLinetypeTableRecord
  2
CENTER2
 70
     0
  3
___ _ ___ _ ___ _ ___ _ ___ _ ___ _ ___ _ ___ _
 72
    65
 73
     4
 40
1.125
 49
0.75
 74
     0
 49
-0.125
 74
     0
 49
0.125
 74
     0
 49
-0.125
 74
     0
  0
LTYPE
  5
4F
330
5
100
AcDbSymbolTableRecord
100
AcDbLinetypeTableRecord
  2
HIDDEN2
 70
     0
  3
_ _ _ _ _ _ _ _ _ _ _ _ _ _ _ _ _ _ _ _ _ _ _ _
 72
    65
 73
     2
 40
0.1875
 49
0.125
 74
     0
 49
-0.0625
 74
     0
  0
ENDTAB
  0
TABLE
  2
LAYER
  5
2
330
0
100
AcDbSymbolTable
 70
     9
  0
LAYER
  5
10
330
2
100
AcDbSymbolTableRecord
100
AcDbLayerTableRecord
  2
0
 70
     0
 62
     7
  6
CONTINUOUS
370
    -3
390
F
  0
LAYER
  5
54
330
2
100
AcDbSymbolTableRecord
100
AcDbLayerTableRecord
  2
OBJECT
 70
     0
 62
     7
  6
CONTINUOUS
370
    -3
390
F
  0
LAYER
  5
55
330
2
100
AcDbSymbolTableRecord
100
AcDbLayerTableRecord
  2
DIM
 70
     0
 62
     7
  6
CONTINUOUS
370
    -3
390
F
  0
LAYER
  5
56
330
2
100
AcDbSymbolTableRecord
100
AcDbLayerTableRecord
  2
HIDDEN
 70
     0
 62
     7
  6
HIDDEN
370
    -3
390
F
  0
LAYER
  5
57
330
2
100
AcDbSymbolTableRecord
100
AcDbLayerTableRecord
  2
BEND
 70
     0
 62
     7
  6
PHANTOM
370
    -3
390
F
  0
LAYER
  5
58
330
2
100
AcDbSymbolTableRecord
100
AcDbLayerTableRecord
  2
TEXT
 70
     0
 62
     7
  6
CONTINUOUS
370
    -3
390
F
  0
LAYER
  5
59
330
2
100
AcDbSymbolTableRecord
100
AcDbLayerTableRecord
  2
TITLE
 70
     0
 62
     7
  6
CONTINUOUS
370
    -3
390
F
  0
LAYER
  5
5A
330
2
100
AcDbSymbolTableRecord
100
AcDbLayerTableRecord
  2
CENTER
 70
     0
 62
     7
  6
CENTER
370
    -3
390
F
  0
LAYER
  5
5B
330
2
100
AcDbSymbolTableRecord
100
AcDbLayerTableRecord
  2
DEFPOINTS
 70
     0
 62
     7
  6
CONTINUOUS
290
     0
370
    -3
390
F
  0
ENDTAB
  0
TABLE
  2
STYLE
  5
3
330
0
100
AcDbSymbolTable
 70
     1
  0
STYLE
  5
11
330
3
100
AcDbSymbolTableRecord
100
AcDbTextStyleTableRecord
  2
TXT
 70
     0
 40
0.0
 41
0.75
 50
0.0
 71
     0
 42
0.2
  3
txt.shx
  4

  0
ENDTAB
  0
TABLE
  2
VIEW
  5
6
330
0
100
AcDbSymbolTable
 70
     0
  0
ENDTAB
  0
TABLE
  2
UCS
  5
7
330
0
100
AcDbSymbolTable
 70
     0
  0
ENDTAB
  0
TABLE
  2
APPID
  5
9
330
0
100
AcDbSymbolTable
 70
     1
  0
APPID
  5
12
330
9
100
AcDbSymbolTableRecord
100
AcDbRegAppTableRecord
  2
ACAD
 70
     0
  0
ENDTAB
  0
TABLE
  2
DIMSTYLE
  5
A
330
0
100
AcDbSymbolTable
 70
     2
100
AcDbDimStyleTable
 71
     2
340
52
340
53
  0
DIMSTYLE
105
52
102
{ACAD_REACTORS
330
47E
330
480
330
484
330
52B
330
540
330
541
330
542
330
543
330
544
330
545
330
546
330
547
330
548
330
549
330
54E
330
54F
330
550
330
551
330
552
330
553
330
554
330
555
330
556
330
557
330
590
102
}
330
A
100
AcDbSymbolTableRecord
100
AcDbDimStyleTableRecord
  2
23NSTD
 70
     0
 40
2.0
 42
0.063
 43
0.375
 44
0.093
140
0.125
271
     3
272
     3
289
     1
340
11
  0
DIMSTYLE
105
53
102
{ACAD_REACTORS
330
47F
330
481
330
482
330
483
330
485
330
532
330
54A
330
54B
330
54C
330
54D
330
5B5
102
}
330
A
100
AcDbSymbolTableRecord
100
AcDbDimStyleTableRecord
  2
23NSTDI
 70
     0
 40
2.0
 42
0.063
 43
0.375
 44
0.093
140
0.125
174
     1
271
     3
272
     3
340
11
  0
ENDTAB
  0
TABLE
  2
BLOCK_RECORD
  5
1
330
0
100
AcDbSymbolTable
 70
    40
  0
BLOCK_RECORD
  5
1E
330
1
100
AcDbSymbolTableRecord
100
AcDbBlockTableRecord
  2
*Model_Space
340
21
  0
BLOCK_RECORD
  5
1A
330
1
100
AcDbSymbolTableRecord
100
AcDbBlockTableRecord
  2
*Paper_Space
340
1D
  0
BLOCK_RECORD
  5
22
330
1
100
AcDbSymbolTableRecord
100
AcDbBlockTableRecord
  2
*X0
340
0
102
{BLKREFS
331
535
102
}
  0
BLOCK_RECORD
  5
23
330
1
100
AcDbSymbolTableRecord
100
AcDbBlockTableRecord
  2
*X1
340
0
102
{BLKREFS
331
536
102
}
  0
BLOCK_RECORD
  5
3A
330
1
100
AcDbSymbolTableRecord
100
AcDbBlockTableRecord
  2
*X2
340
0
102
{BLKREFS
331
558
102
}
  0
BLOCK_RECORD
  5
3B
330
1
100
AcDbSymbolTableRecord
100
AcDbBlockTableRecord
  2
*X3
340
0
102
{BLKREFS
331
559
102
}
  0
BLOCK_RECORD
  5
5BB
330
1
100
AcDbSymbolTableRecord
100
AcDbBlockTableRecord
  2
*D4
340
0
  0
BLOCK_RECORD
  5
5C8
330
1
100
AcDbSymbolTableRecord
100
AcDbBlockTableRecord
  2
*D5
340
0
  0
BLOCK_RECORD
  5
5D5
330
1
100
AcDbSymbolTableRecord
100
AcDbBlockTableRecord
  2
*D6
340
0
  0
BLOCK_RECORD
  5
5E2
330
1
100
AcDbSymbolTableRecord
100
AcDbBlockTableRecord
  2
*D7
340
0
  0
BLOCK_RECORD
  5
5EF
330
1
100
AcDbSymbolTableRecord
100
AcDbBlockTableRecord
  2
*D8
340
0
  0
BLOCK_RECORD
  5
5FC
330
1
100
AcDbSymbolTableRecord
100
AcDbBlockTableRecord
  2
*D9
340
0
  0
BLOCK_RECORD
  5
609
330
1
100
AcDbSymbolTableRecord
100
AcDbBlockTableRecord
  2
*D10
340
0
  0
BLOCK_RECORD
  5
616
330
1
100
AcDbSymbolTableRecord
100
AcDbBlockTableRecord
  2
*D11
340
0
  0
BLOCK_RECORD
  5
623
330
1
100
AcDbSymbolTableRecord
100
AcDbBlockTableRecord
  2
*D12
340
0
  0
BLOCK_RECORD
  5
630
330
1
100
AcDbSymbolTableRecord
100
AcDbBlockTableRecord
  2
*D13
340
0
  0
BLOCK_RECORD
  5
63D
330
1
100
AcDbSymbolTableRecord
100
AcDbBlockTableRecord
  2
*D14
340
0
  0
BLOCK_RECORD
  5
64A
330
1
100
AcDbSymbolTableRecord
100
AcDbBlockTableRecord
  2
*D15
340
0
  0
BLOCK_RECORD
  5
658
330
1
100
AcDbSymbolTableRecord
100
AcDbBlockTableRecord
  2
*D16
340
0
  0
BLOCK_RECORD
  5
666
330
1
100
AcDbSymbolTableRecord
100
AcDbBlockTableRecord
  2
*D17
340
0
  0
BLOCK_RECORD
  5
673
330
1
100
AcDbSymbolTableRecord
100
AcDbBlockTableRecord
  2
*D18
340
0
  0
BLOCK_RECORD
  5
680
330
1
100
AcDbSymbolTableRecord
100
AcDbBlockTableRecord
  2
*D19
340
0
  0
BLOCK_RECORD
  5
68D
330
1
100
AcDbSymbolTableRecord
100
AcDbBlockTableRecord
  2
*D20
340
0
  0
BLOCK_RECORD
  5
69A
330
1
100
AcDbSymbolTableRecord
100
AcDbBlockTableRecord
  2
*D21
340
0
  0
BLOCK_RECORD
  5
6A7
330
1
100
AcDbSymbolTableRecord
100
AcDbBlockTableRecord
  2
*D22
340
0
  0
BLOCK_RECORD
  5
6B4
330
1
100
AcDbSymbolTableRecord
100
AcDbBlockTableRecord
  2
*D23
340
0
  0
BLOCK_RECORD
  5
6C1
330
1
100
AcDbSymbolTableRecord
100
AcDbBlockTableRecord
  2
*D24
340
0
  0
BLOCK_RECORD
  5
6CE
330
1
100
AcDbSymbolTableRecord
100
AcDbBlockTableRecord
  2
*D25
340
0
  0
BLOCK_RECORD
  5
6DB
330
1
100
AcDbSymbolTableRecord
100
AcDbBlockTableRecord
  2
*D26
340
0
  0
BLOCK_RECORD
  5
6E9
330
1
100
AcDbSymbolTableRecord
100
AcDbBlockTableRecord
  2
*D27
340
0
  0
BLOCK_RECORD
  5
6F6
330
1
100
AcDbSymbolTableRecord
100
AcDbBlockTableRecord
  2
*D28
340
0
  0
BLOCK_RECORD
  5
704
330
1
100
AcDbSymbolTableRecord
100
AcDbBlockTableRecord
  2
*D29
340
0
  0
BLOCK_RECORD
  5
711
330
1
100
AcDbSymbolTableRecord
100
AcDbBlockTableRecord
  2
*D30
340
0
  0
BLOCK_RECORD
  5
71E
330
1
100
AcDbSymbolTableRecord
100
AcDbBlockTableRecord
  2
*D31
340
0
  0
BLOCK_RECORD
  5
72B
330
1
100
AcDbSymbolTableRecord
100
AcDbBlockTableRecord
  2
*D32
340
0
  0
BLOCK_RECORD
  5
738
330
1
100
AcDbSymbolTableRecord
100
AcDbBlockTableRecord
  2
*D33
340
0
  0
BLOCK_RECORD
  5
745
330
1
100
AcDbSymbolTableRecord
100
AcDbBlockTableRecord
  2
*D34
340
0
  0
BLOCK_RECORD
  5
752
330
1
100
AcDbSymbolTableRecord
100
AcDbBlockTableRecord
  2
*D35
340
0
  0
BLOCK_RECORD
  5
75F
330
1
100
AcDbSymbolTableRecord
100
AcDbBlockTableRecord
  2
*D36
340
0
  0
BLOCK_RECORD
  5
76C
330
1
100
AcDbSymbolTableRecord
100
AcDbBlockTableRecord
  2
*D37
340
0
  0
BLOCK_RECORD
  5
779
330
1
100
AcDbSymbolTableRecord
100
AcDbBlockTableRecord
  2
*D38
340
0
  0
BLOCK_RECORD
  5
786
330
1
100
AcDbSymbolTableRecord
100
AcDbBlockTableRecord
  2
*D39
340
0
  0
ENDTAB
  0
ENDSEC
  0
SECTION
  2
BLOCKS
  0
BLOCK
  5
5E
330
1E
100
AcDbEntity
  8
0
100
AcDbBlockBegin
  2
*Model_Space
 70
     0
 10
0.0
 20
0.0
 30
0.0
  3
*Model_Space
  1

  0
ENDBLK
  5
5F
330
1E
100
AcDbEntity
  8
0
100
AcDbBlockEnd
  0
BLOCK
  5
5C
330
1A
100
AcDbEntity
 67
     1
  8
0
100
AcDbBlockBegin
  2
*Paper_Space
 70
     0
 10
0.0
 20
0.0
 30
0.0
  3
*Paper_Space
  1

  0
ENDBLK
  5
5D
330
1A
100
AcDbEntity
 67
     1
  8
0
100
AcDbBlockEnd
  0
BLOCK
  5
60
330
22
100
AcDbEntity
  8
0
100
AcDbBlockBegin
  2
*X0
 70
     1
 10
0.0
 20
0.0
 30
0.0
  3
*X0
  1

  0
LINE
  5
61
330
22
100
AcDbEntity
  8
0
 62
     0
100
AcDbLine
 10
33.55541406645389
 20
32.1412005040808
 30
0.0
 11
33.6254140664539
 21
32.2112005040808
 31
0.0
  0
LINE
  5
62
330
22
100
AcDbEntity
  8
0
 62
     0
100
AcDbLine
 10
32.84830728526735
 20
32.1412005040808
 30
0.0
 11
32.91830728526736
 21
32.2112005040808
 31
0.0
  0
LINE
  5
63
330
22
100
AcDbEntity
  8
0
 62
     0
100
AcDbLine
 10
32.1412005040808
 20
32.1412005040808
 30
0.0
 11
32.2112005040808
 21
32.2112005040808
 31
0.0
  0
LINE
  5
64
330
22
100
AcDbEntity
  8
0
 62
     0
100
AcDbLine
 10
31.43409372289426
 20
32.1412005040808
 30
0.0
 11
31.50409372289426
 21
32.2112005040808
 31
0.0
  0
LINE
  5
65
330
22
100
AcDbEntity
  8
0
 62
     0
100
AcDbLine
 10
30.72698694170771
 20
32.1412005040808
 30
0.0
 11
30.79698694170771
 21
32.2112005040808
 31
0.0
  0
LINE
  5
66
330
22
100
AcDbEntity
  8
0
 62
     0
100
AcDbLine
 10
30.01988016052115
 20
32.1412005040808
 30
0.0
 11
30.08988016052116
 21
32.2112005040808
 31
0.0
  0
LINE
  5
67
330
22
100
AcDbEntity
  8
0
 62
     0
100
AcDbLine
 10
34.26252084764044
 20
32.1412005040808
 30
0.0
 11
34.33252084764044
 21
32.2112005040808
 31
0.0
  0
LINE
  5
68
330
22
100
AcDbEntity
  8
0
 62
     0
100
AcDbLine
 10
34.969627628827
 20
32.1412005040808
 30
0.0
 11
35.039627628827
 21
32.2112005040808
 31
0.0
  0
LINE
  5
69
330
22
100
AcDbEntity
  8
0
 62
     0
100
AcDbLine
 10
35.67673441001353
 20
32.1412005040808
 30
0.0
 11
35.74673441001353
 21
32.2112005040808
 31
0.0
  0
LINE
  5
6A
330
22
100
AcDbEntity
  8
0
 62
     0
100
AcDbLine
 10
36.38384119120009
 20
32.1412005040808
 30
0.0
 11
36.45384119120009
 21
32.2112005040808
 31
0.0
  0
LINE
  5
6B
330
22
100
AcDbEntity
  8
0
 62
     0
100
AcDbLine
 10
37.09094797238662
 20
32.1412005040808
 30
0.0
 11
37.16094797238664
 21
32.2112005040808
 31
0.0
  0
LINE
  5
6C
330
22
100
AcDbEntity
  8
0
 62
     0
100
AcDbLine
 10
37.79805475357317
 20
32.1412005040808
 30
0.0
 11
37.86805475357319
 21
32.2112005040808
 31
0.0
  0
LINE
  5
6D
330
22
100
AcDbEntity
  8
0
 62
     0
100
AcDbLine
 10
33.46702571880558
 20
32.1412005040808
 30
0.0
 11
33.53702571880559
 21
32.2112005040808
 31
0.0
  0
LINE
  5
6E
330
22
100
AcDbEntity
  8
0
 62
     0
100
AcDbLine
 10
32.75991893761903
 20
32.1412005040808
 30
0.0
 11
32.82991893761903
 21
32.2112005040808
 31
0.0
  0
LINE
  5
6F
330
22
100
AcDbEntity
  8
0
 62
     0
100
AcDbLine
 10
32.05281215643248
 20
32.1412005040808
 30
0.0
 11
32.12281215643248
 21
32.2112005040808
 31
0.0
  0
LINE
  5
70
330
22
100
AcDbEntity
  8
0
 62
     0
100
AcDbLine
 10
31.34570537524594
 20
32.1412005040808
 30
0.0
 11
31.41570537524594
 21
32.2112005040808
 31
0.0
  0
LINE
  5
71
330
22
100
AcDbEntity
  8
0
 62
     0
100
AcDbLine
 10
30.63859859405939
 20
32.1412005040808
 30
0.0
 11
30.70859859405939
 21
32.2112005040808
 31
0.0
  0
LINE
  5
72
330
22
100
AcDbEntity
  8
0
 62
     0
100
AcDbLine
 10
29.93149181287284
 20
32.1412005040808
 30
0.0
 11
30.00149181287285
 21
32.2112005040808
 31
0.0
  0
LINE
  5
73
330
22
100
AcDbEntity
  8
0
 62
     0
100
AcDbLine
 10
34.17413249999212
 20
32.1412005040808
 30
0.0
 11
34.24413249999212
 21
32.2112005040808
 31
0.0
  0
LINE
  5
74
330
22
100
AcDbEntity
  8
0
 62
     0
100
AcDbLine
 10
34.88123928117868
 20
32.1412005040808
 30
0.0
 11
34.95123928117868
 21
32.2112005040808
 31
0.0
  0
LINE
  5
75
330
22
100
AcDbEntity
  8
0
 62
     0
100
AcDbLine
 10
35.58834606236521
 20
32.1412005040808
 30
0.0
 11
35.65834606236522
 21
32.2112005040808
 31
0.0
  0
LINE
  5
76
330
22
100
AcDbEntity
  8
0
 62
     0
100
AcDbLine
 10
36.29545284355177
 20
32.1412005040808
 30
0.0
 11
36.36545284355177
 21
32.2112005040808
 31
0.0
  0
LINE
  5
77
330
22
100
AcDbEntity
  8
0
 62
     0
100
AcDbLine
 10
37.00255962473832
 20
32.1412005040808
 30
0.0
 11
37.07255962473832
 21
32.2112005040808
 31
0.0
  0
LINE
  5
78
330
22
100
AcDbEntity
  8
0
 62
     0
100
AcDbLine
 10
37.70966640592485
 20
32.1412005040808
 30
0.0
 11
37.77966640592487
 21
32.2112005040808
 31
0.0
  0
LINE
  5
79
330
22
100
AcDbEntity
  8
0
 62
     0
100
AcDbLine
 10
33.37863737115726
 20
32.1412005040808
 30
0.0
 11
33.44863737115726
 21
32.2112005040808
 31
0.0
  0
LINE
  5
7A
330
22
100
AcDbEntity
  8
0
 62
     0
100
AcDbLine
 10
32.67153058997071
 20
32.1412005040808
 30
0.0
 11
32.74153058997071
 21
32.2112005040808
 31
0.0
  0
LINE
  5
7B
330
22
100
AcDbEntity
  8
0
 62
     0
100
AcDbLine
 10
31.96442380878417
 20
32.1412005040808
 30
0.0
 11
32.03442380878417
 21
32.2112005040808
 31
0.0
  0
LINE
  5
7C
330
22
100
AcDbEntity
  8
0
 62
     0
100
AcDbLine
 10
31.25731702759762
 20
32.1412005040808
 30
0.0
 11
31.32731702759762
 21
32.2112005040808
 31
0.0
  0
LINE
  5
7D
330
22
100
AcDbEntity
  8
0
 62
     0
100
AcDbLine
 10
30.55021024641106
 20
32.1412005040808
 30
0.0
 11
30.62021024641107
 21
32.2112005040808
 31
0.0
  0
LINE
  5
7E
330
22
100
AcDbEntity
  8
0
 62
     0
100
AcDbLine
 10
29.84310346522452
 20
32.1412005040808
 30
0.0
 11
29.91310346522453
 21
32.2112005040808
 31
0.0
  0
LINE
  5
7F
330
22
100
AcDbEntity
  8
0
 62
     0
100
AcDbLine
 10
34.0857441523438
 20
32.1412005040808
 30
0.0
 11
34.1557441523438
 21
32.2112005040808
 31
0.0
  0
LINE
  5
80
330
22
100
AcDbEntity
  8
0
 62
     0
100
AcDbLine
 10
34.79285093353036
 20
32.1412005040808
 30
0.0
 11
34.86285093353036
 21
32.2112005040808
 31
0.0
  0
LINE
  5
81
330
22
100
AcDbEntity
  8
0
 62
     0
100
AcDbLine
 10
35.4999577147169
 20
32.1412005040808
 30
0.0
 11
35.5699577147169
 21
32.2112005040808
 31
0.0
  0
LINE
  5
82
330
22
100
AcDbEntity
  8
0
 62
     0
100
AcDbLine
 10
36.20706449590345
 20
32.1412005040808
 30
0.0
 11
36.27706449590346
 21
32.2112005040808
 31
0.0
  0
LINE
  5
83
330
22
100
AcDbEntity
  8
0
 62
     0
100
AcDbLine
 10
36.91417127709
 20
32.1412005040808
 30
0.0
 11
36.98417127708999
 21
32.2112005040808
 31
0.0
  0
LINE
  5
84
330
22
100
AcDbEntity
  8
0
 62
     0
100
AcDbLine
 10
37.62127805827653
 20
32.1412005040808
 30
0.0
 11
37.69127805827654
 21
32.2112005040808
 31
0.0
  0
ENDBLK
  5
85
330
22
100
AcDbEntity
  8
0
100
AcDbBlockEnd
  0
BLOCK
  5
86
330
23
100
AcDbEntity
  8
0
100
AcDbBlockBegin
  2
*X1
 70
     1
 10
0.0
 20
0.0
 30
0.0
  3
*X1
  1

  0
LINE
  5
87
330
23
100
AcDbEntity
  8
0
 62
     0
100
AcDbLine
 10
34.09145303577497
 20
39.04120050408081
 30
0.0
 11
34.16145303577497
 21
39.11120050408079
 31
0.0
  0
LINE
  5
88
330
23
100
AcDbEntity
  8
0
 62
     0
100
AcDbLine
 10
33.38434625458843
 20
39.04120050408081
 30
0.0
 11
33.45434625458842
 21
39.11120050408079
 31
0.0
  0
LINE
  5
89
330
23
100
AcDbEntity
  8
0
 62
     0
100
AcDbLine
 10
32.67723947340188
 20
39.04120050408081
 30
0.0
 11
32.74723947340187
 21
39.11120050408079
 31
0.0
  0
LINE
  5
8A
330
23
100
AcDbEntity
  8
0
 62
     0
100
AcDbLine
 10
31.97013269221533
 20
39.04120050408081
 30
0.0
 11
32.04013269221533
 21
39.11120050408079
 31
0.0
  0
LINE
  5
8B
330
23
100
AcDbEntity
  8
0
 62
     0
100
AcDbLine
 10
31.26302591102879
 20
39.04120050408081
 30
0.0
 11
31.33302591102879
 21
39.11120050408079
 31
0.0
  0
LINE
  5
8C
330
23
100
AcDbEntity
  8
0
 62
     0
100
AcDbLine
 10
30.55591912984223
 20
39.04120050408081
 30
0.0
 11
30.62591912984224
 21
39.11120050408081
 31
0.0
  0
LINE
  5
8D
330
23
100
AcDbEntity
  8
0
 62
     0
100
AcDbLine
 10
29.84881234865569
 20
39.04120050408081
 30
0.0
 11
29.91881234865569
 21
39.11120050408081
 31
0.0
  0
LINE
  5
8E
330
23
100
AcDbEntity
  8
0
 62
     0
100
AcDbLine
 10
34.79855981696151
 20
39.04120050408081
 30
0.0
 11
34.86855981696151
 21
39.11120050408079
 31
0.0
  0
LINE
  5
8F
330
23
100
AcDbEntity
  8
0
 62
     0
100
AcDbLine
 10
35.50566659814807
 20
39.04120050408081
 30
0.0
 11
35.57566659814806
 21
39.11120050408078
 31
0.0
  0
LINE
  5
90
330
23
100
AcDbEntity
  8
0
 62
     0
100
AcDbLine
 10
36.21277337933461
 20
39.04120050408081
 30
0.0
 11
36.2827733793346
 21
39.11120050408078
 31
0.0
  0
LINE
  5
91
330
23
100
AcDbEntity
  8
0
 62
     0
100
AcDbLine
 10
36.91988016052115
 20
39.04120050408081
 30
0.0
 11
36.98988016052115
 21
39.11120050408078
 31
0.0
  0
LINE
  5
92
330
23
100
AcDbEntity
  8
0
 62
     0
100
AcDbLine
 10
37.62698694170771
 20
39.04120050408081
 30
0.0
 11
37.6969869417077
 21
39.11120050408078
 31
0.0
  0
LINE
  5
93
330
23
100
AcDbEntity
  8
0
 62
     0
100
AcDbLine
 10
34.00306468812665
 20
39.04120050408081
 30
0.0
 11
34.07306468812665
 21
39.11120050408079
 31
0.0
  0
LINE
  5
94
330
23
100
AcDbEntity
  8
0
 62
     0
100
AcDbLine
 10
33.29595790694011
 20
39.04120050408081
 30
0.0
 11
33.36595790694011
 21
39.11120050408079
 31
0.0
  0
LINE
  5
95
330
23
100
AcDbEntity
  8
0
 62
     0
100
AcDbLine
 10
32.58885112575355
 20
39.04120050408081
 30
0.0
 11
32.65885112575356
 21
39.11120050408079
 31
0.0
  0
LINE
  5
96
330
23
100
AcDbEntity
  8
0
 62
     0
100
AcDbLine
 10
31.88174434456701
 20
39.04120050408081
 30
0.0
 11
31.95174434456701
 21
39.11120050408079
 31
0.0
  0
LINE
  5
97
330
23
100
AcDbEntity
  8
0
 62
     0
100
AcDbLine
 10
31.17463756338047
 20
39.04120050408081
 30
0.0
 11
31.24463756338046
 21
39.11120050408079
 31
0.0
  0
LINE
  5
98
330
23
100
AcDbEntity
  8
0
 62
     0
100
AcDbLine
 10
30.46753078219392
 20
39.04120050408081
 30
0.0
 11
30.53753078219392
 21
39.11120050408081
 31
0.0
  0
LINE
  5
99
330
23
100
AcDbEntity
  8
0
 62
     0
100
AcDbLine
 10
29.82794607368249
 20
39.10872257675593
 30
0.0
 11
29.83042400100737
 21
39.11120050408081
 31
0.0
  0
LINE
  5
9A
330
23
100
AcDbEntity
  8
0
 62
     0
100
AcDbLine
 10
34.71017146931319
 20
39.04120050408081
 30
0.0
 11
34.78017146931319
 21
39.11120050408079
 31
0.0
  0
LINE
  5
9B
330
23
100
AcDbEntity
  8
0
 62
     0
100
AcDbLine
 10
35.41727825049974
 20
39.04120050408081
 30
0.0
 11
35.48727825049974
 21
39.11120050408078
 31
0.0
  0
LINE
  5
9C
330
23
100
AcDbEntity
  8
0
 62
     0
100
AcDbLine
 10
36.12438503168629
 20
39.04120050408081
 30
0.0
 11
36.19438503168629
 21
39.11120050408078
 31
0.0
  0
LINE
  5
9D
330
23
100
AcDbEntity
  8
0
 62
     0
100
AcDbLine
 10
36.83149181287284
 20
39.04120050408081
 30
0.0
 11
36.90149181287284
 21
39.11120050408078
 31
0.0
  0
LINE
  5
9E
330
23
100
AcDbEntity
  8
0
 62
     0
100
AcDbLine
 10
37.53859859405939
 20
39.04120050408081
 30
0.0
 11
37.60859859405938
 21
39.11120050408078
 31
0.0
  0
LINE
  5
9F
330
23
100
AcDbEntity
  8
0
 62
     0
100
AcDbLine
 10
33.91467634047833
 20
39.04120050408081
 30
0.0
 11
33.98467634047833
 21
39.11120050408079
 31
0.0
  0
LINE
  5
A0
330
23
100
AcDbEntity
  8
0
 62
     0
100
AcDbLine
 10
33.20756955929178
 20
39.04120050408081
 30
0.0
 11
33.27756955929178
 21
39.11120050408079
 31
0.0
  0
LINE
  5
A1
330
23
100
AcDbEntity
  8
0
 62
     0
100
AcDbLine
 10
32.50046277810524
 20
39.04120050408081
 30
0.0
 11
32.57046277810523
 21
39.11120050408079
 31
0.0
  0
LINE
  5
A2
330
23
100
AcDbEntity
  8
0
 62
     0
100
AcDbLine
 10
31.79335599691869
 20
39.04120050408081
 30
0.0
 11
31.86335599691869
 21
39.11120050408079
 31
0.0
  0
LINE
  5
A3
330
23
100
AcDbEntity
  8
0
 62
     0
100
AcDbLine
 10
31.08624921573214
 20
39.04120050408081
 30
0.0
 11
31.15624921573215
 21
39.11120050408079
 31
0.0
  0
LINE
  5
A4
330
23
100
AcDbEntity
  8
0
 62
     0
100
AcDbLine
 10
30.3791424345456
 20
39.04120050408081
 30
0.0
 11
30.4491424345456
 21
39.11120050408081
 31
0.0
  0
LINE
  5
A5
330
23
100
AcDbEntity
  8
0
 62
     0
100
AcDbLine
 10
34.62178312166489
 20
39.04120050408081
 30
0.0
 11
34.69178312166487
 21
39.11120050408079
 31
0.0
  0
LINE
  5
A6
330
23
100
AcDbEntity
  8
0
 62
     0
100
AcDbLine
 10
35.32888990285143
 20
39.04120050408081
 30
0.0
 11
35.39888990285143
 21
39.11120050408078
 31
0.0
  0
LINE
  5
A7
330
23
100
AcDbEntity
  8
0
 62
     0
100
AcDbLine
 10
36.03599668403797
 20
39.04120050408081
 30
0.0
 11
36.10599668403796
 21
39.11120050408078
 31
0.0
  0
LINE
  5
A8
330
23
100
AcDbEntity
  8
0
 62
     0
100
AcDbLine
 10
36.74310346522453
 20
39.04120050408081
 30
0.0
 11
36.81310346522452
 21
39.11120050408078
 31
0.0
  0
LINE
  5
A9
330
23
100
AcDbEntity
  8
0
 62
     0
100
AcDbLine
 10
37.45021024641106
 20
39.04120050408081
 30
0.0
 11
37.52021024641106
 21
39.11120050408078
 31
0.0
  0
ENDBLK
  5
AA
330
23
100
AcDbEntity
  8
0
100
AcDbBlockEnd
  0
BLOCK
  5
1B8
330
3A
100
AcDbEntity
  8
0
100
AcDbBlockBegin
  2
*X2
 70
     1
 10
0.0
 20
0.0
 30
0.0
  3
*X2
  1

  0
LINE
  5
1B9
330
3A
100
AcDbEntity
  8
0
 62
     0
100
AcDbLine
 10
8.363555906267292
 20
7.037730691542517
 30
0.0
 11
8.483555906267286
 21
7.157730691542508
 31
0.0
  0
LINE
  5
1BA
330
3A
100
AcDbEntity
  8
0
 62
     0
100
AcDbLine
 10
8.098390863322334
 20
7.037730691542514
 30
0.0
 11
8.21839086332233
 21
7.157730691542508
 31
0.0
  0
LINE
  5
1BB
330
3A
100
AcDbEntity
  8
0
 62
     0
100
AcDbLine
 10
7.83322582037738
 20
7.037730691542514
 30
0.0
 11
7.953225820377374
 21
7.157730691542508
 31
0.0
  0
LINE
  5
1BC
330
3A
100
AcDbEntity
  8
0
 62
     0
100
AcDbLine
 10
7.568060777432426
 20
7.037730691542514
 30
0.0
 11
7.688060777432419
 21
7.157730691542508
 31
0.0
  0
LINE
  5
1BD
330
3A
100
AcDbEntity
  8
0
 62
     0
100
AcDbLine
 10
7.302895734487469
 20
7.037730691542513
 30
0.0
 11
7.422895734487464
 21
7.157730691542508
 31
0.0
  0
LINE
  5
1BE
330
3A
100
AcDbEntity
  8
0
 62
     0
100
AcDbLine
 10
7.037730691542513
 20
7.037730691542513
 30
0.0
 11
7.157730691542508
 21
7.157730691542508
 31
0.0
  0
LINE
  5
1BF
330
3A
100
AcDbEntity
  8
0
 62
     0
100
AcDbLine
 10
6.772565648597557
 20
7.037730691542513
 30
0.0
 11
6.892565648597553
 21
7.157730691542508
 31
0.0
  0
LINE
  5
1C0
330
3A
100
AcDbEntity
  8
0
 62
     0
100
AcDbLine
 10
6.507400605652603
 20
7.037730691542511
 30
0.0
 11
6.627400605652598
 21
7.157730691542508
 31
0.0
  0
LINE
  5
1C1
330
3A
100
AcDbEntity
  8
0
 62
     0
100
AcDbLine
 10
6.242235562707646
 20
7.037730691542511
 30
0.0
 11
6.362235562707643
 21
7.157730691542508
 31
0.0
  0
LINE
  5
1C2
330
3A
100
AcDbEntity
  8
0
 62
     0
100
AcDbLine
 10
5.97707051976269
 20
7.037730691542511
 30
0.0
 11
6.097070519762687
 21
7.157730691542508
 31
0.0
  0
LINE
  5
1C3
330
3A
100
AcDbEntity
  8
0
 62
     0
100
AcDbLine
 10
5.711905476817737
 20
7.037730691542511
 30
0.0
 11
5.831905476817731
 21
7.157730691542508
 31
0.0
  0
LINE
  5
1C4
330
3A
100
AcDbEntity
  8
0
 62
     0
100
AcDbLine
 10
5.44674043387278
 20
7.037730691542511
 30
0.0
 11
5.566740433872777
 21
7.157730691542508
 31
0.0
  0
LINE
  5
1C5
330
3A
100
AcDbEntity
  8
0
 62
     0
100
AcDbLine
 10
4.200456982428835
 20
6.056612283043521
 30
0.0
 11
4.317509143284001
 21
6.173664443898687
 31
0.0
  0
LINE
  5
1C6
330
3A
100
AcDbEntity
  8
0
 62
     0
100
AcDbLine
 10
5.181575390927824
 20
7.037730691542511
 30
0.0
 11
5.301575390927822
 21
7.157730691542508
 31
0.0
  0
LINE
  5
1C7
330
3A
100
AcDbEntity
  8
0
 62
     0
100
AcDbLine
 10
4.205167681019903
 20
6.326488024579544
 30
0.0
 11
4.317509143284002
 21
6.438829486843644
 31
0.0
  0
LINE
  5
1C8
330
3A
100
AcDbEntity
  8
0
 62
     0
100
AcDbLine
 10
4.91641034798287
 20
7.037730691542511
 30
0.0
 11
5.036410347982867
 21
7.157730691542508
 31
0.0
  0
LINE
  5
1C9
330
3A
100
AcDbEntity
  8
0
 62
     0
100
AcDbLine
 10
4.20987837961097
 20
6.596363766115568
 30
0.0
 11
4.317509143284003
 21
6.703994529788602
 31
0.0
  0
LINE
  5
1CA
330
3A
100
AcDbEntity
  8
0
 62
     0
100
AcDbLine
 10
4.651245305037914
 20
7.037730691542511
 30
0.0
 11
4.77124530503791
 21
7.157730691542509
 31
0.0
  0
LINE
  5
1CB
330
3A
100
AcDbEntity
  8
0
 62
     0
100
AcDbLine
 10
4.21458907820204
 20
6.866239507651592
 30
0.0
 11
4.317509143284005
 21
6.969159572733556
 31
0.0
  0
LINE
  5
1CC
330
3A
100
AcDbEntity
  8
0
 62
     0
100
AcDbLine
 10
4.386080262092957
 20
7.037730691542511
 30
0.0
 11
4.506080262092956
 21
7.157730691542509
 31
0.0
  0
LINE
  5
1CD
330
3A
100
AcDbEntity
  8
0
 62
     0
100
AcDbLine
 10
8.628720949212247
 20
7.037730691542517
 30
0.0
 11
8.748720949212241
 21
7.157730691542508
 31
0.0
  0
LINE
  5
1CE
330
3A
100
AcDbEntity
  8
0
 62
     0
100
AcDbLine
 10
8.893885992157203
 20
7.037730691542517
 30
0.0
 11
9.013885992157195
 21
7.157730691542508
 31
0.0
  0
LINE
  5
1CF
330
3A
100
AcDbEntity
  8
0
 62
     0
100
AcDbLine
 10
9.159051035102159
 20
7.037730691542518
 30
0.0
 11
9.279051035102153
 21
7.157730691542508
 31
0.0
  0
LINE
  5
1D0
330
3A
100
AcDbEntity
  8
0
 62
     0
100
AcDbLine
 10
9.424216078047113
 20
7.037730691542518
 30
0.0
 11
9.544216078047107
 21
7.157730691542508
 31
0.0
  0
LINE
  5
1D1
330
3A
100
AcDbEntity
  8
0
 62
     0
100
AcDbLine
 10
9.68938112099207
 20
7.037730691542518
 30
0.0
 11
9.809381120992062
 21
7.157730691542508
 31
0.0
  0
LINE
  5
1D2
330
3A
100
AcDbEntity
  8
0
 62
     0
100
AcDbLine
 10
9.954546163937024
 20
7.037730691542518
 30
0.0
 11
10.07454616393701
 21
7.157730691542508
 31
0.0
  0
LINE
  5
1D3
330
3A
100
AcDbEntity
  8
0
 62
     0
100
AcDbLine
 10
10.21971120688198
 20
7.037730691542518
 30
0.0
 11
10.33971120688197
 21
7.157730691542508
 31
0.0
  0
LINE
  5
1D4
330
3A
100
AcDbEntity
  8
0
 62
     0
100
AcDbLine
 10
10.48487624982692
 20
7.037730691542518
 30
0.0
 11
10.60487624982692
 21
7.157730691542508
 31
0.0
  0
LINE
  5
1D5
330
3A
100
AcDbEntity
  8
0
 62
     0
100
AcDbLine
 10
10.75004129277189
 20
7.037730691542518
 30
0.0
 11
10.87004129277188
 21
7.157730691542508
 31
0.0
  0
LINE
  5
1D6
330
3A
100
AcDbEntity
  8
0
 62
     0
100
AcDbLine
 10
11.01520633571683
 20
7.037730691542518
 30
0.0
 11
11.13520633571684
 21
7.157730691542508
 31
0.0
  0
LINE
  5
1D7
330
3A
100
AcDbEntity
  8
0
 62
     0
100
AcDbLine
 10
11.2803713786618
 20
7.037730691542518
 30
0.0
 11
11.40037137866179
 21
7.157730691542508
 31
0.0
  0
LINE
  5
1D8
330
3A
100
AcDbEntity
  8
0
 62
     0
100
AcDbLine
 10
11.54553642160676
 20
7.037730691542518
 30
0.0
 11
11.66553642160675
 21
7.157730691542508
 31
0.0
  0
LINE
  5
1D9
330
3A
100
AcDbEntity
  8
0
 62
     0
100
AcDbLine
 10
8.451944253767292
 20
7.037730691542517
 30
0.0
 11
8.571944253767286
 21
7.157730691542508
 31
0.0
  0
LINE
  5
1DA
330
3A
100
AcDbEntity
  8
0
 62
     0
100
AcDbLine
 10
8.186779210822335
 20
7.037730691542514
 30
0.0
 11
8.306779210822329
 21
7.157730691542508
 31
0.0
  0
LINE
  5
1DB
330
3A
100
AcDbEntity
  8
0
 62
     0
100
AcDbLine
 10
7.921614167877381
 20
7.037730691542514
 30
0.0
 11
8.041614167877375
 21
7.157730691542508
 31
0.0
  0
LINE
  5
1DC
330
3A
100
AcDbEntity
  8
0
 62
     0
100
AcDbLine
 10
7.656449124932424
 20
7.037730691542514
 30
0.0
 11
7.77644912493242
 21
7.157730691542508
 31
0.0
  0
LINE
  5
1DD
330
3A
100
AcDbEntity
  8
0
 62
     0
100
AcDbLine
 10
7.391284081987469
 20
7.037730691542514
 30
0.0
 11
7.511284081987464
 21
7.157730691542508
 31
0.0
  0
LINE
  5
1DE
330
3A
100
AcDbEntity
  8
0
 62
     0
100
AcDbLine
 10
7.126119039042514
 20
7.037730691542513
 30
0.0
 11
7.246119039042508
 21
7.157730691542508
 31
0.0
  0
LINE
  5
1DF
330
3A
100
AcDbEntity
  8
0
 62
     0
100
AcDbLine
 10
6.860953996097558
 20
7.037730691542513
 30
0.0
 11
6.980953996097554
 21
7.157730691542508
 31
0.0
  0
LINE
  5
1E0
330
3A
100
AcDbEntity
  8
0
 62
     0
100
AcDbLine
 10
6.595788953152602
 20
7.037730691542513
 30
0.0
 11
6.715788953152598
 21
7.157730691542508
 31
0.0
  0
LINE
  5
1E1
330
3A
100
AcDbEntity
  8
0
 62
     0
100
AcDbLine
 10
6.330623910207647
 20
7.037730691542511
 30
0.0
 11
6.450623910207641
 21
7.157730691542508
 31
0.0
  0
LINE
  5
1E2
330
3A
100
AcDbEntity
  8
0
 62
     0
100
AcDbLine
 10
6.065458867262692
 20
7.037730691542511
 30
0.0
 11
6.185458867262688
 21
7.157730691542508
 31
0.0
  0
LINE
  5
1E3
330
3A
100
AcDbEntity
  8
0
 62
     0
100
AcDbLine
 10
5.800293824317736
 20
7.037730691542511
 30
0.0
 11
5.920293824317731
 21
7.157730691542508
 31
0.0
  0
LINE
  5
1E4
330
3A
100
AcDbEntity
  8
0
 62
     0
100
AcDbLine
 10
5.53512878137278
 20
7.037730691542511
 30
0.0
 11
5.655128781372777
 21
7.157730691542508
 31
0.0
  0
LINE
  5
1E5
330
3A
100
AcDbEntity
  8
0
 62
     0
100
AcDbLine
 10
4.19888674956778
 20
5.966653702682465
 30
0.0
 11
4.317509143284
 21
6.085276096398688
 31
0.0
  0
LINE
  5
1E6
330
3A
100
AcDbEntity
  8
0
 62
     0
100
AcDbLine
 10
5.269963738427825
 20
7.037730691542511
 30
0.0
 11
5.389963738427822
 21
7.157730691542508
 31
0.0
  0
LINE
  5
1E7
330
3A
100
AcDbEntity
  8
0
 62
     0
100
AcDbLine
 10
4.203597448158848
 20
6.236529444218491
 30
0.0
 11
4.317509143284001
 21
6.350441139343644
 31
0.0
  0
LINE
  5
1E8
330
3A
100
AcDbEntity
  8
0
 62
     0
100
AcDbLine
 10
5.004798695482868
 20
7.037730691542511
 30
0.0
 11
5.124798695482867
 21
7.157730691542508
 31
0.0
  0
LINE
  5
1E9
330
3A
100
AcDbEntity
  8
0
 62
     0
100
AcDbLine
 10
4.208308146749917
 20
6.506405185754513
 30
0.0
 11
4.317509143284002
 21
6.615606182288601
 31
0.0
  0
LINE
  5
1EA
330
3A
100
AcDbEntity
  8
0
 62
     0
100
AcDbLine
 10
4.739633652537913
 20
7.037730691542511
 30
0.0
 11
4.859633652537912
 21
7.157730691542509
 31
0.0
  0
LINE
  5
1EB
330
3A
100
AcDbEntity
  8
0
 62
     0
100
AcDbLine
 10
4.213018845340984
 20
6.776280927290537
 30
0.0
 11
4.317509143284003
 21
6.880771225233557
 31
0.0
  0
LINE
  5
1EC
330
3A
100
AcDbEntity
  8
0
 62
     0
100
AcDbLine
 10
4.474468609592959
 20
7.037730691542511
 30
0.0
 11
4.594468609592956
 21
7.157730691542509
 31
0.0
  0
LINE
  5
1ED
330
3A
100
AcDbEntity
  8
0
 62
     0
100
AcDbLine
 10
4.226230737958514
 20
7.054657862853024
 30
0.0
 11
4.320050677478396
 21
7.148477802372902
 31
0.0
  0
LINE
  5
1EE
330
3A
100
AcDbEntity
  8
0
 62
     0
100
AcDbLine
 10
8.717109296712246
 20
7.037730691542517
 30
0.0
 11
8.83710929671224
 21
7.157730691542508
 31
0.0
  0
LINE
  5
1EF
330
3A
100
AcDbEntity
  8
0
 62
     0
100
AcDbLine
 10
8.982274339657202
 20
7.037730691542517
 30
0.0
 11
9.102274339657196
 21
7.157730691542508
 31
0.0
  0
LINE
  5
1F0
330
3A
100
AcDbEntity
  8
0
 62
     0
100
AcDbLine
 10
9.247439382602159
 20
7.037730691542518
 30
0.0
 11
9.367439382602153
 21
7.157730691542508
 31
0.0
  0
LINE
  5
1F1
330
3A
100
AcDbEntity
  8
0
 62
     0
100
AcDbLine
 10
9.512604425547117
 20
7.037730691542518
 30
0.0
 11
9.632604425547107
 21
7.157730691542508
 31
0.0
  0
LINE
  5
1F2
330
3A
100
AcDbEntity
  8
0
 62
     0
100
AcDbLine
 10
9.777769468492072
 20
7.037730691542518
 30
0.0
 11
9.897769468492064
 21
7.157730691542508
 31
0.0
  0
LINE
  5
1F3
330
3A
100
AcDbEntity
  8
0
 62
     0
100
AcDbLine
 10
10.04293451143702
 20
7.037730691542518
 30
0.0
 11
10.162934511437
 21
7.157730691542508
 31
0.0
  0
LINE
  5
1F4
330
3A
100
AcDbEntity
  8
0
 62
     0
100
AcDbLine
 10
10.30809955438198
 20
7.037730691542518
 30
0.0
 11
10.42809955438197
 21
7.157730691542508
 31
0.0
  0
LINE
  5
1F5
330
3A
100
AcDbEntity
  8
0
 62
     0
100
AcDbLine
 10
10.57326459732693
 20
7.037730691542518
 30
0.0
 11
10.69326459732691
 21
7.157730691542508
 31
0.0
  0
LINE
  5
1F6
330
3A
100
AcDbEntity
  8
0
 62
     0
100
AcDbLine
 10
10.83842964027189
 20
7.037730691542518
 30
0.0
 11
10.95842964027188
 21
7.157730691542508
 31
0.0
  0
LINE
  5
1F7
330
3A
100
AcDbEntity
  8
0
 62
     0
100
AcDbLine
 10
11.10359468321685
 20
7.037730691542518
 30
0.0
 11
11.22359468321682
 21
7.157730691542508
 31
0.0
  0
LINE
  5
1F8
330
3A
100
AcDbEntity
  8
0
 62
     0
100
AcDbLine
 10
11.3687597261618
 20
7.037730691542518
 30
0.0
 11
11.48875972616179
 21
7.157730691542508
 31
0.0
  0
LINE
  5
1F9
330
3A
100
AcDbEntity
  8
0
 62
     0
100
AcDbLine
 10
11.63392476910676
 20
7.037730691542518
 30
0.0
 11
11.75392476910674
 21
7.157730691542508
 31
0.0
  0
ENDBLK
  5
1FA
330
3A
100
AcDbEntity
  8
0
100
AcDbBlockEnd
  0
BLOCK
  5
1FB
330
3B
100
AcDbEntity
  8
0
100
AcDbBlockBegin
  2
*X3
 70
     1
 10
0.0
 20
0.0
 30
0.0
  3
*X3
  1

  0
LINE
  5
1FC
330
3B
100
AcDbEntity
  8
0
 62
     0
100
AcDbLine
 10
8.660521455705259
 20
4.597730691542503
 30
0.0
 11
8.540521455705254
 21
4.717730691542509
 31
0.0
  0
LINE
  5
1FD
330
3B
100
AcDbEntity
  8
0
 62
     0
100
AcDbLine
 10
8.395356412760303
 20
4.597730691542503
 30
0.0
 11
8.275356412760297
 21
4.717730691542509
 31
0.0
  0
LINE
  5
1FE
330
3B
100
AcDbEntity
  8
0
 62
     0
100
AcDbLine
 10
8.130191369815348
 20
4.597730691542503
 30
0.0
 11
8.010191369815341
 21
4.717730691542509
 31
0.0
  0
LINE
  5
1FF
330
3B
100
AcDbEntity
  8
0
 62
     0
100
AcDbLine
 10
7.865026326870392
 20
4.597730691542503
 30
0.0
 11
7.745026326870387
 21
4.717730691542509
 31
0.0
  0
LINE
  5
200
330
3B
100
AcDbEntity
  8
0
 62
     0
100
AcDbLine
 10
7.599861283925437
 20
4.597730691542503
 30
0.0
 11
7.479861283925433
 21
4.717730691542509
 31
0.0
  0
LINE
  5
201
330
3B
100
AcDbEntity
  8
0
 62
     0
100
AcDbLine
 10
7.334696240980481
 20
4.597730691542503
 30
0.0
 11
7.214696240980477
 21
4.717730691542509
 31
0.0
  0
LINE
  5
202
330
3B
100
AcDbEntity
  8
0
 62
     0
100
AcDbLine
 10
7.069531198035527
 20
4.597730691542503
 30
0.0
 11
6.949531198035522
 21
4.717730691542509
 31
0.0
  0
LINE
  5
203
330
3B
100
AcDbEntity
  8
0
 62
     0
100
AcDbLine
 10
6.804366155090571
 20
4.597730691542503
 30
0.0
 11
6.684366155090566
 21
4.717730691542509
 31
0.0
  0
LINE
  5
204
330
3B
100
AcDbEntity
  8
0
 62
     0
100
AcDbLine
 10
6.539201112145615
 20
4.597730691542503
 30
0.0
 11
6.419201112145612
 21
4.717730691542509
 31
0.0
  0
LINE
  5
205
330
3B
100
AcDbEntity
  8
0
 62
     0
100
AcDbLine
 10
6.27403606920066
 20
4.597730691542505
 30
0.0
 11
6.154036069200656
 21
4.717730691542509
 31
0.0
  0
LINE
  5
206
330
3B
100
AcDbEntity
  8
0
 62
     0
100
AcDbLine
 10
6.008871026255706
 20
4.597730691542505
 30
0.0
 11
5.888871026255701
 21
4.717730691542509
 31
0.0
  0
LINE
  5
207
330
3B
100
AcDbEntity
  8
0
 62
     0
100
AcDbLine
 10
5.74370598331075
 20
4.597730691542505
 30
0.0
 11
5.623705983310746
 21
4.717730691542509
 31
0.0
  0
LINE
  5
208
330
3B
100
AcDbEntity
  8
0
 62
     0
100
AcDbLine
 10
5.478540940365796
 20
4.597730691542505
 30
0.0
 11
5.358540940365791
 21
4.717730691542509
 31
0.0
  0
LINE
  5
209
330
3B
100
AcDbEntity
  8
0
 62
     0
100
AcDbLine
 10
4.317509143284001
 20
5.7587624886243
 30
0.0
 11
4.208540940365798
 21
5.867730691542502
 31
0.0
  0
LINE
  5
20A
330
3B
100
AcDbEntity
  8
0
 62
     0
100
AcDbLine
 10
5.213375897420839
 20
4.597730691542505
 30
0.0
 11
5.093375897420836
 21
4.717730691542509
 31
0.0
  0
LINE
  5
20B
330
3B
100
AcDbEntity
  8
0
 62
     0
100
AcDbLine
 10
4.317509143284002
 20
5.493597445679342
 30
0.0
 11
4.202023860269069
 21
5.609082728694272
 31
0.0
  0
LINE
  5
20C
330
3B
100
AcDbEntity
  8
0
 62
     0
100
AcDbLine
 10
4.948210854475885
 20
4.597730691542505
 30
0.0
 11
4.82821085447588
 21
4.717730691542509
 31
0.0
  0
LINE
  5
20D
330
3B
100
AcDbEntity
  8
0
 62
     0
100
AcDbLine
 10
4.317509143284003
 20
5.228432402734386
 30
0.0
 11
4.206734558860132
 21
5.339206987158258
 31
0.0
  0
LINE
  5
20E
330
3B
100
AcDbEntity
  8
0
 62
     0
100
AcDbLine
 10
4.683045811530929
 20
4.597730691542505
 30
0.0
 11
4.563045811530924
 21
4.717730691542509
 31
0.0
  0
LINE
  5
20F
330
3B
100
AcDbEntity
  8
0
 62
     0
100
AcDbLine
 10
4.317509143284005
 20
4.963267359789432
 30
0.0
 11
4.211445257451193
 21
5.069331245622241
 31
0.0
  0
LINE
  5
210
330
3B
100
AcDbEntity
  8
0
 62
     0
100
AcDbLine
 10
4.417880768585973
 20
4.597730691542505
 30
0.0
 11
4.216155956042253
 21
4.799455504086224
 31
0.0
  0
LINE
  5
211
330
3B
100
AcDbEntity
  8
0
 62
     0
100
AcDbLine
 10
8.925686498650215
 20
4.597730691542503
 30
0.0
 11
8.80568649865021
 21
4.717730691542509
 31
0.0
  0
LINE
  5
212
330
3B
100
AcDbEntity
  8
0
 62
     0
100
AcDbLine
 10
9.190851541595167
 20
4.597730691542503
 30
0.0
 11
9.070851541595166
 21
4.717730691542509
 31
0.0
  0
LINE
  5
213
330
3B
100
AcDbEntity
  8
0
 62
     0
100
AcDbLine
 10
9.456016584540122
 20
4.597730691542503
 30
0.0
 11
9.336016584540118
 21
4.717730691542509
 31
0.0
  0
LINE
  5
214
330
3B
100
AcDbEntity
  8
0
 62
     0
100
AcDbLine
 10
9.72118162748508
 20
4.597730691542503
 30
0.0
 11
9.601181627485075
 21
4.717730691542509
 31
0.0
  0
LINE
  5
215
330
3B
100
AcDbEntity
  8
0
 62
     0
100
AcDbLine
 10
9.986346670430036
 20
4.597730691542503
 30
0.0
 11
9.866346670430033
 21
4.717730691542509
 31
0.0
  0
LINE
  5
216
330
3B
100
AcDbEntity
  8
0
 62
     0
100
AcDbLine
 10
10.25151171337499
 20
4.597730691542503
 30
0.0
 11
10.13151171337498
 21
4.717730691542509
 31
0.0
  0
LINE
  5
217
330
3B
100
AcDbEntity
  8
0
 62
     0
100
AcDbLine
 10
10.51667675631993
 20
4.597730691542503
 30
0.0
 11
10.39667675631994
 21
4.717730691542509
 31
0.0
  0
LINE
  5
218
330
3B
100
AcDbEntity
  8
0
 62
     0
100
AcDbLine
 10
10.7818417992649
 20
4.597730691542503
 30
0.0
 11
10.66184179926489
 21
4.717730691542509
 31
0.0
  0
LINE
  5
219
330
3B
100
AcDbEntity
  8
0
 62
     0
100
AcDbLine
 10
11.04700684220984
 20
4.597730691542503
 30
0.0
 11
10.92700684220984
 21
4.717730691542509
 31
0.0
  0
LINE
  5
21A
330
3B
100
AcDbEntity
  8
0
 62
     0
100
AcDbLine
 10
11.3121718851548
 20
4.597730691542503
 30
0.0
 11
11.1921718851548
 21
4.717730691542509
 31
0.0
  0
LINE
  5
21B
330
3B
100
AcDbEntity
  8
0
 62
     0
100
AcDbLine
 10
11.57733692809975
 20
4.597730691542503
 30
0.0
 11
11.45733692809975
 21
4.717730691542509
 31
0.0
  0
LINE
  5
21C
330
3B
100
AcDbEntity
  8
0
 62
     0
100
AcDbLine
 10
11.84250197104472
 20
4.597730691542503
 30
0.0
 11
11.72250197104472
 21
4.717730691542509
 31
0.0
  0
LINE
  5
21D
330
3B
100
AcDbEntity
  8
0
 62
     0
100
AcDbLine
 10
8.483744760260304
 20
4.597730691542503
 30
0.0
 11
8.363744760260301
 21
4.717730691542509
 31
0.0
  0
LINE
  5
21E
330
3B
100
AcDbEntity
  8
0
 62
     0
100
AcDbLine
 10
8.21857971731535
 20
4.597730691542503
 30
0.0
 11
8.098579717315343
 21
4.717730691542509
 31
0.0
  0
LINE
  5
21F
330
3B
100
AcDbEntity
  8
0
 62
     0
100
AcDbLine
 10
7.953414674370393
 20
4.597730691542503
 30
0.0
 11
7.83341467437039
 21
4.717730691542509
 31
0.0
  0
LINE
  5
220
330
3B
100
AcDbEntity
  8
0
 62
     0
100
AcDbLine
 10
7.688249631425438
 20
4.597730691542503
 30
0.0
 11
7.568249631425433
 21
4.717730691542509
 31
0.0
  0
LINE
  5
221
330
3B
100
AcDbEntity
  8
0
 62
     0
100
AcDbLine
 10
7.423084588480482
 20
4.597730691542503
 30
0.0
 11
7.303084588480478
 21
4.717730691542509
 31
0.0
  0
LINE
  5
222
330
3B
100
AcDbEntity
  8
0
 62
     0
100
AcDbLine
 10
7.157919545535527
 20
4.597730691542503
 30
0.0
 11
7.037919545535523
 21
4.717730691542509
 31
0.0
  0
LINE
  5
223
330
3B
100
AcDbEntity
  8
0
 62
     0
100
AcDbLine
 10
6.892754502590572
 20
4.597730691542503
 30
0.0
 11
6.772754502590568
 21
4.717730691542509
 31
0.0
  0
LINE
  5
224
330
3B
100
AcDbEntity
  8
0
 62
     0
100
AcDbLine
 10
6.627589459645616
 20
4.597730691542503
 30
0.0
 11
6.507589459645612
 21
4.717730691542509
 31
0.0
  0
LINE
  5
225
330
3B
100
AcDbEntity
  8
0
 62
     0
100
AcDbLine
 10
6.362424416700659
 20
4.597730691542505
 30
0.0
 11
6.242424416700656
 21
4.717730691542509
 31
0.0
  0
LINE
  5
226
330
3B
100
AcDbEntity
  8
0
 62
     0
100
AcDbLine
 10
6.097259373755706
 20
4.597730691542505
 30
0.0
 11
5.977259373755702
 21
4.717730691542509
 31
0.0
  0
LINE
  5
227
330
3B
100
AcDbEntity
  8
0
 62
     0
100
AcDbLine
 10
5.83209433081075
 20
4.597730691542505
 30
0.0
 11
5.712094330810747
 21
4.717730691542509
 31
0.0
  0
LINE
  5
228
330
3B
100
AcDbEntity
  8
0
 62
     0
100
AcDbLine
 10
5.566929287865796
 20
4.597730691542505
 30
0.0
 11
5.446929287865791
 21
4.717730691542509
 31
0.0
  0
LINE
  5
229
330
3B
100
AcDbEntity
  8
0
 62
     0
100
AcDbLine
 10
4.317509143284001
 20
5.847150836124298
 30
0.0
 11
4.266929287865787
 21
5.897730691542513
 31
0.0
  0
LINE
  5
22A
330
3B
100
AcDbEntity
  8
0
 62
     0
100
AcDbLine
 10
5.301764244920839
 20
4.597730691542505
 30
0.0
 11
5.181764244920835
 21
4.717730691542509
 31
0.0
  0
LINE
  5
22B
330
3B
100
AcDbEntity
  8
0
 62
     0
100
AcDbLine
 10
4.317509143284002
 20
5.581985793179343
 30
0.0
 11
4.200453627408018
 21
5.699041309055327
 31
0.0
  0
LINE
  5
22C
330
3B
100
AcDbEntity
  8
0
 62
     0
100
AcDbLine
 10
5.036599201975884
 20
4.597730691542505
 30
0.0
 11
4.916599201975881
 21
4.717730691542509
 31
0.0
  0
LINE
  5
22D
330
3B
100
AcDbEntity
  8
0
 62
     0
100
AcDbLine
 10
4.317509143284003
 20
5.316820750234386
 30
0.0
 11
4.20516432599908
 21
5.429165567519309
 31
0.0
  0
LINE
  5
22E
330
3B
100
AcDbEntity
  8
0
 62
     0
100
AcDbLine
 10
4.771434159030929
 20
4.597730691542505
 30
0.0
 11
4.651434159030925
 21
4.717730691542509
 31
0.0
  0
LINE
  5
22F
330
3B
100
AcDbEntity
  8
0
 62
     0
100
AcDbLine
 10
4.317509143284005
 20
5.051655707289429
 30
0.0
 11
4.209875024590139
 21
5.159289825983293
 31
0.0
  0
LINE
  5
230
330
3B
100
AcDbEntity
  8
0
 62
     0
100
AcDbLine
 10
4.506269116085973
 20
4.597730691542505
 30
0.0
 11
4.38626911608597
 21
4.717730691542509
 31
0.0
  0
LINE
  5
231
330
3B
100
AcDbEntity
  8
0
 62
     0
100
AcDbLine
 10
4.317509143284006
 20
4.786490664344474
 30
0.0
 11
4.214585723181201
 21
4.889414084447277
 31
0.0
  0
LINE
  5
232
330
3B
100
AcDbEntity
  8
0
 62
     0
100
AcDbLine
 10
8.748909803205258
 20
4.597730691542503
 30
0.0
 11
8.628909803205255
 21
4.717730691542509
 31
0.0
  0
LINE
  5
233
330
3B
100
AcDbEntity
  8
0
 62
     0
100
AcDbLine
 10
9.014074846150217
 20
4.597730691542503
 30
0.0
 11
8.894074846150211
 21
4.717730691542509
 31
0.0
  0
LINE
  5
234
330
3B
100
AcDbEntity
  8
0
 62
     0
100
AcDbLine
 10
9.279239889095171
 20
4.597730691542503
 30
0.0
 11
9.159239889095164
 21
4.717730691542509
 31
0.0
  0
LINE
  5
235
330
3B
100
AcDbEntity
  8
0
 62
     0
100
AcDbLine
 10
9.544404932040126
 20
4.597730691542503
 30
0.0
 11
9.424404932040122
 21
4.717730691542509
 31
0.0
  0
LINE
  5
236
330
3B
100
AcDbEntity
  8
0
 62
     0
100
AcDbLine
 10
9.809569974985079
 20
4.597730691542503
 30
0.0
 11
9.689569974985074
 21
4.717730691542509
 31
0.0
  0
LINE
  5
237
330
3B
100
AcDbEntity
  8
0
 62
     0
100
AcDbLine
 10
10.07473501793002
 20
4.597730691542503
 30
0.0
 11
9.95473501793003
 21
4.717730691542509
 31
0.0
  0
LINE
  5
238
330
3B
100
AcDbEntity
  8
0
 62
     0
100
AcDbLine
 10
10.33990006087499
 20
4.597730691542503
 30
0.0
 11
10.21990006087498
 21
4.717730691542509
 31
0.0
  0
LINE
  5
239
330
3B
100
AcDbEntity
  8
0
 62
     0
100
AcDbLine
 10
10.60506510381993
 20
4.597730691542503
 30
0.0
 11
10.48506510381993
 21
4.717730691542509
 31
0.0
  0
LINE
  5
23A
330
3B
100
AcDbEntity
  8
0
 62
     0
100
AcDbLine
 10
10.8702301467649
 20
4.597730691542503
 30
0.0
 11
10.75023014676489
 21
4.717730691542509
 31
0.0
  0
LINE
  5
23B
330
3B
100
AcDbEntity
  8
0
 62
     0
100
AcDbLine
 10
11.13539518970984
 20
4.597730691542503
 30
0.0
 11
11.01539518970984
 21
4.717730691542509
 31
0.0
  0
LINE
  5
23C
330
3B
100
AcDbEntity
  8
0
 62
     0
100
AcDbLine
 10
11.40056023265481
 20
4.597730691542503
 30
0.0
 11
11.28056023265479
 21
4.717730691542509
 31
0.0
  0
LINE
  5
23D
330
3B
100
AcDbEntity
  8
0
 62
     0
100
AcDbLine
 10
11.66572527559975
 20
4.597730691542503
 30
0.0
 11
11.54572527559975
 21
4.717730691542509
 31
0.0
  0
LINE
  5
23E
330
3B
100
AcDbEntity
  8
0
 62
     0
100
AcDbLine
 10
11.82240559643533
 20
4.706215413651889
 30
0.0
 11
11.81089031854471
 21
4.717730691542509
 31
0.0
  0
ENDBLK
  5
23F
330
3B
100
AcDbEntity
  8
0
100
AcDbBlockEnd
  0
BLOCK
  5
5C6
330
5BB
100
AcDbEntity
  8
0
100
AcDbBlockBegin
  2
*D4
 70
     1
 10
0.0
 20
0.0
 30
0.0
  3
*D4
  1

  0
LINE
  5
873
330
5BB
100
AcDbEntity
  8
DIM
 62
     0
370
    -2
100
AcDbLine
 10
4.197509143284018
 20
17.35947521364296
 30
0.0
 11
4.197509143284018
 21
17.99504705721731
 31
0.0
  0
LINE
  5
874
330
5BB
100
AcDbEntity
  8
DIM
 62
     0
370
    -2
100
AcDbLine
 10
4.596509143284006
 20
16.91947521364296
 30
0.0
 11
4.596509143284006
 21
17.99504705721731
 31
0.0
  0
LINE
  5
875
330
5BB
100
AcDbEntity
  8
DIM
 62
     0
370
    -2
100
AcDbLine
 10
3.837509143284018
 20
17.80904705721731
 30
0.0
 11
3.477509143284018
 21
17.80904705721731
 31
0.0
  0
LINE
  5
876
330
5BB
100
AcDbEntity
  8
DIM
 62
     0
370
    -2
100
AcDbLine
 10
4.956509143284006
 20
17.80904705721731
 30
0.0
 11
5.316509143284005
 21
17.80904705721731
 31
0.0
  0
SOLID
  5
877
330
5BB
100
AcDbEntity
  8
DIM
 62
     0
100
AcDbTrace
 10
3.837509143284018
 20
17.8690470572173
 30
0.0
 11
3.837509143284018
 21
17.74904705721731
 31
0.0
 12
4.197509143284018
 22
17.80904705721731
 32
0.0
 13
4.197509143284018
 23
17.80904705721731
 33
0.0
  0
SOLID
  5
878
330
5BB
100
AcDbEntity
  8
DIM
 62
     0
100
AcDbTrace
 10
4.956509143284006
 20
17.8690470572173
 30
0.0
 11
4.956509143284006
 21
17.74904705721731
 31
0.0
 12
4.596509143284006
 22
17.80904705721731
 32
0.0
 13
4.596509143284006
 23
17.80904705721731
 33
0.0
  0
MTEXT
  5
879
330
5BB
100
AcDbEntity
  8
DIM
 62
     0
100
AcDbMText
 10
5.855884143284006
 20
17.80904705721731
 30
0.0
 40
0.25
 41
0.0
 71
     5
 72
     1
  1
\A1;0.399
 73
     1
 44
1.0
  0
POINT
  5
87A
330
5BB
100
AcDbEntity
  8
DEFPOINTS
 62
     0
100
AcDbPoint
 10
4.197509143284018
 20
17.23347521364295
 30
0.0
  0
POINT
  5
87B
330
5BB
100
AcDbEntity
  8
DEFPOINTS
 62
     0
100
AcDbPoint
 10
4.596509143284006
 20
16.79347521364296
 30
0.0
  0
POINT
  5
87C
330
5BB
100
AcDbEntity
  8
DEFPOINTS
 62
     0
100
AcDbPoint
 10
4.596509143284006
 20
17.80904705721731
 30
0.0
  0
ENDBLK
  5
5C7
330
5BB
100
AcDbEntity
  8
0
100
AcDbBlockEnd
  0
BLOCK
  5
5D3
330
5C8
100
AcDbEntity
  8
0
100
AcDbBlockBegin
  2
*D5
 70
     1
 10
0.0
 20
0.0
 30
0.0
  3
*D5
  1

  0
LINE
  5
8EB
330
5C8
100
AcDbEntity
  8
DIM
 62
     0
370
    -2
100
AcDbLine
 10
16.20362805245135
 20
7.023983199783382
 30
0.0
 11
16.20362805245135
 21
7.513511873204542
 31
0.0
  0
LINE
  5
8EC
330
5C8
100
AcDbEntity
  8
DIM
 62
     0
370
    -2
100
AcDbLine
 10
26.20362805245135
 20
7.023983199783382
 30
0.0
 11
26.20362805245135
 21
7.513511873204542
 31
0.0
  0
LINE
  5
8ED
330
5C8
100
AcDbEntity
  8
DIM
 62
     0
370
    -2
100
AcDbLine
 10
16.56362805245135
 20
7.327511873204542
 30
0.0
 11
20.64862805245135
 21
7.327511873204542
 31
0.0
  0
LINE
  5
8EE
330
5C8
100
AcDbEntity
  8
DIM
 62
     0
370
    -2
100
AcDbLine
 10
25.84362805245135
 20
7.327511873204542
 30
0.0
 11
21.75862805245135
 21
7.327511873204542
 31
0.0
  0
SOLID
  5
8EF
330
5C8
100
AcDbEntity
  8
DIM
 62
     0
100
AcDbTrace
 10
16.56362805245135
 20
7.387511873204542
 30
0.0
 11
16.56362805245135
 21
7.267511873204543
 31
0.0
 12
16.20362805245135
 22
7.327511873204542
 32
0.0
 13
16.20362805245135
 23
7.327511873204542
 33
0.0
  0
SOLID
  5
8F0
330
5C8
100
AcDbEntity
  8
DIM
 62
     0
100
AcDbTrace
 10
25.84362805245135
 20
7.387511873204542
 30
0.0
 11
25.84362805245135
 21
7.267511873204543
 31
0.0
 12
26.20362805245135
 22
7.327511873204542
 32
0.0
 13
26.20362805245135
 23
7.327511873204542
 33
0.0
  0
MTEXT
  5
8F1
330
5C8
100
AcDbEntity
  8
DIM
 62
     0
100
AcDbMText
 10
21.20362805245135
 20
7.327511873204542
 30
0.0
 40
0.25
 41
0.0
 71
     5
 72
     1
  1
\A1;10.000
 73
     1
 44
1.0
  0
POINT
  5
8F2
330
5C8
100
AcDbEntity
  8
DEFPOINTS
 62
     0
100
AcDbPoint
 10
16.20362805245135
 20
6.897983199783382
 30
0.0
  0
POINT
  5
8F3
330
5C8
100
AcDbEntity
  8
DEFPOINTS
 62
     0
100
AcDbPoint
 10
26.20362805245135
 20
6.897983199783382
 30
0.0
  0
POINT
  5
8F4
330
5C8
100
AcDbEntity
  8
DEFPOINTS
 62
     0
100
AcDbPoint
 10
26.20362805245135
 20
7.327511873204542
 30
0.0
  0
ENDBLK
  5
5D4
330
5C8
100
AcDbEntity
  8
0
100
AcDbBlockEnd
  0
BLOCK
  5
5E0
330
5D5
100
AcDbEntity
  8
0
100
AcDbBlockBegin
  2
*D6
 70
     1
 10
0.0
 20
0.0
 30
0.0
  3
*D6
  1

  0
LINE
  5
8CD
330
5D5
100
AcDbEntity
  8
DIM
 62
     0
370
    -2
100
AcDbLine
 10
14.43750914328401
 20
17.35947521364296
 30
0.0
 11
14.43750914328401
 21
17.99504705721731
 31
0.0
  0
LINE
  5
8CE
330
5D5
100
AcDbEntity
  8
DIM
 62
     0
370
    -2
100
AcDbLine
 10
14.03850914328402
 20
16.91947521364296
 30
0.0
 11
14.03850914328402
 21
17.99504705721731
 31
0.0
  0
LINE
  5
8CF
330
5D5
100
AcDbEntity
  8
DIM
 62
     0
370
    -2
100
AcDbLine
 10
14.79750914328401
 20
17.80904705721731
 30
0.0
 11
15.15750914328401
 21
17.80904705721731
 31
0.0
  0
LINE
  5
8D0
330
5D5
100
AcDbEntity
  8
DIM
 62
     0
370
    -2
100
AcDbLine
 10
13.67850914328402
 20
17.80904705721731
 30
0.0
 11
13.31850914328402
 21
17.80904705721731
 31
0.0
  0
SOLID
  5
8D1
330
5D5
100
AcDbEntity
  8
DIM
 62
     0
100
AcDbTrace
 10
14.79750914328401
 20
17.8690470572173
 30
0.0
 11
14.79750914328401
 21
17.74904705721731
 31
0.0
 12
14.43750914328401
 22
17.80904705721731
 32
0.0
 13
14.43750914328401
 23
17.80904705721731
 33
0.0
  0
SOLID
  5
8D2
330
5D5
100
AcDbEntity
  8
DIM
 62
     0
100
AcDbTrace
 10
13.67850914328402
 20
17.8690470572173
 30
0.0
 11
13.67850914328402
 21
17.74904705721731
 31
0.0
 12
14.03850914328402
 22
17.80904705721731
 32
0.0
 13
14.03850914328402
 23
17.80904705721731
 33
0.0
  0
MTEXT
  5
8D3
330
5D5
100
AcDbEntity
  8
DIM
 62
     0
100
AcDbMText
 10
12.77913414328402
 20
17.80904705721731
 30
0.0
 40
0.25
 41
0.0
 71
     5
 72
     1
  1
\A1;0.399
 73
     1
 44
1.0
  0
POINT
  5
8D4
330
5D5
100
AcDbEntity
  8
DEFPOINTS
 62
     0
100
AcDbPoint
 10
14.43750914328401
 20
17.23347521364295
 30
0.0
  0
POINT
  5
8D5
330
5D5
100
AcDbEntity
  8
DEFPOINTS
 62
     0
100
AcDbPoint
 10
14.03850914328402
 20
16.79347521364296
 30
0.0
  0
POINT
  5
8D6
330
5D5
100
AcDbEntity
  8
DEFPOINTS
 62
     0
100
AcDbPoint
 10
14.03850914328402
 20
17.80904705721731
 30
0.0
  0
ENDBLK
  5
5E1
330
5D5
100
AcDbEntity
  8
0
100
AcDbBlockEnd
  0
BLOCK
  5
5ED
330
5E2
100
AcDbEntity
  8
0
100
AcDbBlockBegin
  2
*D7
 70
     1
 10
0.0
 20
0.0
 30
0.0
  3
*D7
  1

  0
LINE
  5
8D7
330
5E2
100
AcDbEntity
  8
DIM
 62
     0
370
    -2
100
AcDbLine
 10
16.20362805245135
 20
2.95867124668994
 30
0.0
 11
16.20362805245135
 21
3.448199920111099
 31
0.0
  0
LINE
  5
8D8
330
5E2
100
AcDbEntity
  8
DIM
 62
     0
370
    -2
100
AcDbLine
 10
26.20362805245135
 20
2.95867124668994
 30
0.0
 11
26.20362805245135
 21
3.448199920111099
 31
0.0
  0
LINE
  5
8D9
330
5E2
100
AcDbEntity
  8
DIM
 62
     0
370
    -2
100
AcDbLine
 10
16.56362805245135
 20
3.2621999201111
 30
0.0
 11
20.64862805245135
 21
3.2621999201111
 31
0.0
  0
LINE
  5
8DA
330
5E2
100
AcDbEntity
  8
DIM
 62
     0
370
    -2
100
AcDbLine
 10
25.84362805245135
 20
3.2621999201111
 30
0.0
 11
21.75862805245135
 21
3.2621999201111
 31
0.0
  0
SOLID
  5
8DB
330
5E2
100
AcDbEntity
  8
DIM
 62
     0
100
AcDbTrace
 10
16.56362805245135
 20
3.3221999201111
 30
0.0
 11
16.56362805245135
 21
3.202199920111099
 31
0.0
 12
16.20362805245135
 22
3.2621999201111
 32
0.0
 13
16.20362805245135
 23
3.2621999201111
 33
0.0
  0
SOLID
  5
8DC
330
5E2
100
AcDbEntity
  8
DIM
 62
     0
100
AcDbTrace
 10
25.84362805245135
 20
3.3221999201111
 30
0.0
 11
25.84362805245135
 21
3.202199920111099
 31
0.0
 12
26.20362805245135
 22
3.2621999201111
 32
0.0
 13
26.20362805245135
 23
3.2621999201111
 33
0.0
  0
MTEXT
  5
8DD
330
5E2
100
AcDbEntity
  8
DIM
 62
     0
100
AcDbMText
 10
21.20362805245135
 20
3.2621999201111
 30
0.0
 40
0.25
 41
0.0
 71
     5
 72
     1
  1
\A1;10.000
 73
     1
 44
1.0
  0
POINT
  5
8DE
330
5E2
100
AcDbEntity
  8
DEFPOINTS
 62
     0
100
AcDbPoint
 10
16.20362805245135
 20
2.832671246689939
 30
0.0
  0
POINT
  5
8DF
330
5E2
100
AcDbEntity
  8
DEFPOINTS
 62
     0
100
AcDbPoint
 10
26.20362805245135
 20
2.832671246689939
 30
0.0
  0
POINT
  5
8E0
330
5E2
100
AcDbEntity
  8
DEFPOINTS
 62
     0
100
AcDbPoint
 10
26.20362805245135
 20
3.2621999201111
 30
0.0
  0
ENDBLK
  5
5EE
330
5E2
100
AcDbEntity
  8
0
100
AcDbBlockEnd
  0
BLOCK
  5
5FA
330
5EF
100
AcDbEntity
  8
0
100
AcDbBlockBegin
  2
*D8
 70
     1
 10
0.0
 20
0.0
 30
0.0
  3
*D8
  1

  0
LINE
  5
869
330
5EF
100
AcDbEntity
  8
DIM
 62
     0
370
    -2
100
AcDbLine
 10
4.197509143284018
 20
17.35947521364296
 30
0.0
 11
4.197509143284018
 21
18.99504705721731
 31
0.0
  0
LINE
  5
86A
330
5EF
100
AcDbEntity
  8
DIM
 62
     0
370
    -2
100
AcDbLine
 10
14.43750914328401
 20
17.35947521364296
 30
0.0
 11
14.43750914328401
 21
18.99504705721731
 31
0.0
  0
LINE
  5
86B
330
5EF
100
AcDbEntity
  8
DIM
 62
     0
370
    -2
100
AcDbLine
 10
4.557509143284018
 20
18.8090470572173
 30
0.0
 11
8.731259143284013
 21
18.8090470572173
 31
0.0
  0
LINE
  5
86C
330
5EF
100
AcDbEntity
  8
DIM
 62
     0
370
    -2
100
AcDbLine
 10
14.07750914328401
 20
18.8090470572173
 30
0.0
 11
9.903759143284013
 21
18.8090470572173
 31
0.0
  0
SOLID
  5
86D
330
5EF
100
AcDbEntity
  8
DIM
 62
     0
100
AcDbTrace
 10
4.557509143284018
 20
18.86904705721731
 30
0.0
 11
4.557509143284018
 21
18.74904705721731
 31
0.0
 12
4.197509143284018
 22
18.8090470572173
 32
0.0
 13
4.197509143284018
 23
18.8090470572173
 33
0.0
  0
SOLID
  5
86E
330
5EF
100
AcDbEntity
  8
DIM
 62
     0
100
AcDbTrace
 10
14.07750914328401
 20
18.86904705721731
 30
0.0
 11
14.07750914328401
 21
18.74904705721731
 31
0.0
 12
14.43750914328401
 22
18.8090470572173
 32
0.0
 13
14.43750914328401
 23
18.8090470572173
 33
0.0
  0
MTEXT
  5
86F
330
5EF
100
AcDbEntity
  8
DIM
 62
     0
100
AcDbMText
 10
9.317509143284015
 20
18.8090470572173
 30
0.0
 40
0.25
 41
0.0
 71
     5
 72
     1
  1
\A1;10.240
 73
     1
 44
1.0
  0
POINT
  5
870
330
5EF
100
AcDbEntity
  8
DEFPOINTS
 62
     0
100
AcDbPoint
 10
4.197509143284018
 20
17.23347521364295
 30
0.0
  0
POINT
  5
871
330
5EF
100
AcDbEntity
  8
DEFPOINTS
 62
     0
100
AcDbPoint
 10
14.43750914328401
 20
17.23347521364295
 30
0.0
  0
POINT
  5
872
330
5EF
100
AcDbEntity
  8
DEFPOINTS
 62
     0
100
AcDbPoint
 10
14.43750914328401
 20
18.8090470572173
 30
0.0
  0
ENDBLK
  5
5FB
330
5EF
100
AcDbEntity
  8
0
100
AcDbBlockEnd
  0
BLOCK
  5
607
330
5FC
100
AcDbEntity
  8
0
100
AcDbBlockBegin
  2
*D9
 70
     1
 10
0.0
 20
0.0
 30
0.0
  3
*D9
  1

  0
LINE
  5
7E3
330
5FC
100
AcDbEntity
  8
DIM
 62
     0
370
    -2
100
AcDbLine
 10
13.81750914328401
 20
10.85397521364298
 30
0.0
 11
13.81750914328401
 21
8.769351509500616
 31
0.0
  0
LINE
  5
7E4
330
5FC
100
AcDbEntity
  8
DIM
 62
     0
370
    -2
100
AcDbLine
 10
10.82150914328401
 20
10.85397521364298
 30
0.0
 11
10.82150914328401
 21
8.769351509500616
 31
0.0
  0
LINE
  5
7E5
330
5FC
100
AcDbEntity
  8
DIM
 62
     0
370
    -2
100
AcDbLine
 10
13.45750914328401
 20
8.955351509500616
 30
0.0
 11
12.87450914328401
 21
8.955351509500616
 31
0.0
  0
LINE
  5
7E6
330
5FC
100
AcDbEntity
  8
DIM
 62
     0
370
    -2
100
AcDbLine
 10
11.18150914328401
 20
8.955351509500616
 30
0.0
 11
11.76450914328401
 21
8.955351509500616
 31
0.0
  0
SOLID
  5
7E7
330
5FC
100
AcDbEntity
  8
DIM
 62
     0
100
AcDbTrace
 10
13.45750914328401
 20
9.015351509500616
 30
0.0
 11
13.45750914328401
 21
8.895351509500615
 31
0.0
 12
13.81750914328401
 22
8.955351509500616
 32
0.0
 13
13.81750914328401
 23
8.955351509500616
 33
0.0
  0
SOLID
  5
7E8
330
5FC
100
AcDbEntity
  8
DIM
 62
     0
100
AcDbTrace
 10
11.18150914328401
 20
9.015351509500616
 30
0.0
 11
11.18150914328401
 21
8.895351509500615
 31
0.0
 12
10.82150914328401
 22
8.955351509500616
 32
0.0
 13
10.82150914328401
 23
8.955351509500616
 33
0.0
  0
MTEXT
  5
7E9
330
5FC
100
AcDbEntity
  8
DIM
 62
     0
100
AcDbMText
 10
12.31950914328401
 20
8.955351509500616
 30
0.0
 40
0.25
 41
0.0
 71
     5
 72
     1
  1
\A1;2.996
 73
     1
 44
1.0
  0
POINT
  5
7EA
330
5FC
100
AcDbEntity
  8
DEFPOINTS
 62
     0
100
AcDbPoint
 10
13.81750914328401
 20
10.97997521364298
 30
0.0
  0
POINT
  5
7EB
330
5FC
100
AcDbEntity
  8
DEFPOINTS
 62
     0
100
AcDbPoint
 10
10.82150914328401
 20
10.97997521364298
 30
0.0
  0
POINT
  5
7EC
330
5FC
100
AcDbEntity
  8
DEFPOINTS
 62
     0
100
AcDbPoint
 10
10.82150914328401
 20
8.955351509500616
 30
0.0
  0
ENDBLK
  5
608
330
5FC
100
AcDbEntity
  8
0
100
AcDbBlockEnd
  0
BLOCK
  5
614
330
609
100
AcDbEntity
  8
0
100
AcDbBlockBegin
  2
*D10
 70
     1
 10
0.0
 20
0.0
 30
0.0
  3
*D10
  1

  0
LINE
  5
7D9
330
609
100
AcDbEntity
  8
DIM
 62
     0
370
    -2
100
AcDbLine
 10
10.82150914328401
 20
10.85397521364298
 30
0.0
 11
10.82150914328401
 21
8.769351509500616
 31
0.0
  0
LINE
  5
7DA
330
609
100
AcDbEntity
  8
DIM
 62
     0
370
    -2
100
AcDbLine
 10
7.825509143284016
 20
10.85397521364298
 30
0.0
 11
7.825509143284016
 21
8.769351509500616
 31
0.0
  0
LINE
  5
7DB
330
609
100
AcDbEntity
  8
DIM
 62
     0
370
    -2
100
AcDbLine
 10
10.46150914328401
 20
8.955351509500616
 30
0.0
 11
9.878509143284011
 21
8.955351509500616
 31
0.0
  0
LINE
  5
7DC
330
609
100
AcDbEntity
  8
DIM
 62
     0
370
    -2
100
AcDbLine
 10
8.185509143284013
 20
8.955351509500616
 30
0.0
 11
8.768509143284013
 21
8.955351509500616
 31
0.0
  0
SOLID
  5
7DD
330
609
100
AcDbEntity
  8
DIM
 62
     0
100
AcDbTrace
 10
10.46150914328401
 20
9.015351509500616
 30
0.0
 11
10.46150914328401
 21
8.895351509500615
 31
0.0
 12
10.82150914328401
 22
8.955351509500616
 32
0.0
 13
10.82150914328401
 23
8.955351509500616
 33
0.0
  0
SOLID
  5
7DE
330
609
100
AcDbEntity
  8
DIM
 62
     0
100
AcDbTrace
 10
8.185509143284013
 20
9.015351509500616
 30
0.0
 11
8.185509143284013
 21
8.895351509500615
 31
0.0
 12
7.825509143284016
 22
8.955351509500616
 32
0.0
 13
7.825509143284016
 23
8.955351509500616
 33
0.0
  0
MTEXT
  5
7DF
330
609
100
AcDbEntity
  8
DIM
 62
     0
100
AcDbMText
 10
9.323509143284011
 20
8.955351509500616
 30
0.0
 40
0.25
 41
0.0
 71
     5
 72
     1
  1
\A1;2.996
 73
     1
 44
1.0
  0
POINT
  5
7E0
330
609
100
AcDbEntity
  8
DEFPOINTS
 62
     0
100
AcDbPoint
 10
10.82150914328401
 20
10.97997521364298
 30
0.0
  0
POINT
  5
7E1
330
609
100
AcDbEntity
  8
DEFPOINTS
 62
     0
100
AcDbPoint
 10
7.825509143284016
 20
10.97997521364298
 30
0.0
  0
POINT
  5
7E2
330
609
100
AcDbEntity
  8
DEFPOINTS
 62
     0
100
AcDbPoint
 10
7.825509143284016
 20
8.955351509500616
 30
0.0
  0
ENDBLK
  5
615
330
609
100
AcDbEntity
  8
0
100
AcDbBlockEnd
  0
BLOCK
  5
621
330
616
100
AcDbEntity
  8
0
100
AcDbBlockBegin
  2
*D11
 70
     1
 10
0.0
 20
0.0
 30
0.0
  3
*D11
  1

  0
LINE
  5
7CF
330
616
100
AcDbEntity
  8
DIM
 62
     0
370
    -2
100
AcDbLine
 10
7.825509143284016
 20
10.85397521364298
 30
0.0
 11
7.825509143284016
 21
8.769351509500616
 31
0.0
  0
LINE
  5
7D0
330
616
100
AcDbEntity
  8
DIM
 62
     0
370
    -2
100
AcDbLine
 10
4.829509143284012
 20
10.85397521364298
 30
0.0
 11
4.829509143284012
 21
8.769351509500616
 31
0.0
  0
LINE
  5
7D1
330
616
100
AcDbEntity
  8
DIM
 62
     0
370
    -2
100
AcDbLine
 10
7.465509143284014
 20
8.955351509500616
 30
0.0
 11
6.882509143284012
 21
8.955351509500616
 31
0.0
  0
LINE
  5
7D2
330
616
100
AcDbEntity
  8
DIM
 62
     0
370
    -2
100
AcDbLine
 10
5.189509143284014
 20
8.955351509500616
 30
0.0
 11
5.772509143284014
 21
8.955351509500616
 31
0.0
  0
SOLID
  5
7D3
330
616
100
AcDbEntity
  8
DIM
 62
     0
100
AcDbTrace
 10
7.465509143284014
 20
9.015351509500616
 30
0.0
 11
7.465509143284014
 21
8.895351509500615
 31
0.0
 12
7.825509143284016
 22
8.955351509500616
 32
0.0
 13
7.825509143284016
 23
8.955351509500616
 33
0.0
  0
SOLID
  5
7D4
330
616
100
AcDbEntity
  8
DIM
 62
     0
100
AcDbTrace
 10
5.189509143284014
 20
9.015351509500616
 30
0.0
 11
5.189509143284014
 21
8.895351509500615
 31
0.0
 12
4.829509143284012
 22
8.955351509500616
 32
0.0
 13
4.829509143284012
 23
8.955351509500616
 33
0.0
  0
MTEXT
  5
7D5
330
616
100
AcDbEntity
  8
DIM
 62
     0
100
AcDbMText
 10
6.327509143284013
 20
8.955351509500616
 30
0.0
 40
0.25
 41
0.0
 71
     5
 72
     1
  1
\A1;2.996
 73
     1
 44
1.0
  0
POINT
  5
7D6
330
616
100
AcDbEntity
  8
DEFPOINTS
 62
     0
100
AcDbPoint
 10
7.825509143284016
 20
10.97997521364298
 30
0.0
  0
POINT
  5
7D7
330
616
100
AcDbEntity
  8
DEFPOINTS
 62
     0
100
AcDbPoint
 10
4.829509143284012
 20
10.97997521364298
 30
0.0
  0
POINT
  5
7D8
330
616
100
AcDbEntity
  8
DEFPOINTS
 62
     0
100
AcDbPoint
 10
4.829509143284012
 20
8.955351509500616
 30
0.0
  0
ENDBLK
  5
622
330
616
100
AcDbEntity
  8
0
100
AcDbBlockEnd
  0
BLOCK
  5
62E
330
623
100
AcDbEntity
  8
0
100
AcDbBlockBegin
  2
*D12
 70
     1
 10
0.0
 20
0.0
 30
0.0
  3
*D12
  1

  0
LINE
  5
7C5
330
623
100
AcDbEntity
  8
DIM
 62
     0
370
    -2
100
AcDbLine
 10
4.829509143284012
 20
10.85397521364298
 30
0.0
 11
4.829509143284012
 21
8.769351509500616
 31
0.0
  0
LINE
  5
7C6
330
623
100
AcDbEntity
  8
DIM
 62
     0
370
    -2
100
AcDbLine
 10
4.197509143284005
 20
10.03247521364297
 30
0.0
 11
4.197509143284005
 21
8.769351509500616
 31
0.0
  0
LINE
  5
7C7
330
623
100
AcDbEntity
  8
DIM
 62
     0
370
    -2
100
AcDbLine
 10
5.189509143284014
 20
8.955351509500616
 30
0.0
 11
5.549509143284013
 21
8.955351509500616
 31
0.0
  0
LINE
  5
7C8
330
623
100
AcDbEntity
  8
DIM
 62
     0
370
    -2
100
AcDbLine
 10
3.837509143284004
 20
8.955351509500616
 30
0.0
 11
3.477509143284005
 21
8.955351509500616
 31
0.0
  0
SOLID
  5
7C9
330
623
100
AcDbEntity
  8
DIM
 62
     0
100
AcDbTrace
 10
5.189509143284014
 20
9.015351509500616
 30
0.0
 11
5.189509143284014
 21
8.895351509500615
 31
0.0
 12
4.829509143284012
 22
8.955351509500616
 32
0.0
 13
4.829509143284012
 23
8.955351509500616
 33
0.0
  0
SOLID
  5
7CA
330
623
100
AcDbEntity
  8
DIM
 62
     0
100
AcDbTrace
 10
3.837509143284004
 20
9.015351509500616
 30
0.0
 11
3.837509143284004
 21
8.895351509500615
 31
0.0
 12
4.197509143284005
 22
8.955351509500616
 32
0.0
 13
4.197509143284005
 23
8.955351509500616
 33
0.0
  0
MTEXT
  5
7CB
330
623
100
AcDbEntity
  8
DIM
 62
     0
100
AcDbMText
 10
2.938134143284004
 20
8.955351509500616
 30
0.0
 40
0.25
 41
0.0
 71
     5
 72
     1
  1
\A1;0.632
 73
     1
 44
1.0
  0
POINT
  5
7CC
330
623
100
AcDbEntity
  8
DEFPOINTS
 62
     0
100
AcDbPoint
 10
4.829509143284012
 20
10.97997521364298
 30
0.0
  0
POINT
  5
7CD
330
623
100
AcDbEntity
  8
DEFPOINTS
 62
     0
100
AcDbPoint
 10
4.197509143284005
 20
10.15847521364297
 30
0.0
  0
POINT
  5
7CE
330
623
100
AcDbEntity
  8
DEFPOINTS
 62
     0
100
AcDbPoint
 10
4.197509143284005
 20
8.955351509500616
 30
0.0
  0
ENDBLK
  5
62F
330
623
100
AcDbEntity
  8
0
100
AcDbBlockEnd
  0
BLOCK
  5
63B
330
630
100
AcDbEntity
  8
0
100
AcDbBlockBegin
  2
*D13
 70
     1
 10
0.0
 20
0.0
 30
0.0
  3
*D13
  1

  0
LINE
  5
7F7
330
630
100
AcDbEntity
  8
DIM
 62
     0
370
    -2
100
AcDbLine
 10
4.246977848788906
 20
6.995483199783387
 30
0.0
 11
3.310239039810566
 21
6.995483199783387
 31
0.0
  0
LINE
  5
7F8
330
630
100
AcDbEntity
  8
DIM
 62
     0
370
    -2
100
AcDbLine
 10
4.246977848788882
 20
4.435483199783383
 30
0.0
 11
3.310239039810566
 21
4.435483199783383
 31
0.0
  0
LINE
  5
7F9
330
630
100
AcDbEntity
  8
DIM
 62
     0
370
    -2
100
AcDbLine
 10
3.496239039810566
 20
6.635483199783386
 30
0.0
 11
3.496239039810566
 21
6.020483199783383
 31
0.0
  0
LINE
  5
7FA
330
630
100
AcDbEntity
  8
DIM
 62
     0
370
    -2
100
AcDbLine
 10
3.496239039810566
 20
4.795483199783382
 30
0.0
 11
3.496239039810566
 21
5.410483199783384
 31
0.0
  0
SOLID
  5
7FB
330
630
100
AcDbEntity
  8
DIM
 62
     0
100
AcDbTrace
 10
3.436239039810566
 20
6.635483199783386
 30
0.0
 11
3.556239039810566
 21
6.635483199783386
 31
0.0
 12
3.496239039810566
 22
6.995483199783387
 32
0.0
 13
3.496239039810566
 23
6.995483199783387
 33
0.0
  0
SOLID
  5
7FC
330
630
100
AcDbEntity
  8
DIM
 62
     0
100
AcDbTrace
 10
3.436239039810566
 20
4.795483199783382
 30
0.0
 11
3.556239039810566
 21
4.795483199783382
 31
0.0
 12
3.496239039810566
 22
4.435483199783383
 32
0.0
 13
3.496239039810566
 23
4.435483199783383
 33
0.0
  0
MTEXT
  5
7FD
330
630
100
AcDbEntity
  8
DIM
 62
     0
100
AcDbMText
 10
3.496239039810566
 20
5.715483199783387
 30
0.0
 40
0.25
 41
0.0
 71
     5
 72
     1
  1
\A1;2.560
 73
     1
 44
1.0
  0
POINT
  5
7FE
330
630
100
AcDbEntity
  8
DEFPOINTS
 62
     0
100
AcDbPoint
 10
4.372977848788908
 20
6.995483199783387
 30
0.0
  0
POINT
  5
7FF
330
630
100
AcDbEntity
  8
DEFPOINTS
 62
     0
100
AcDbPoint
 10
4.372977848788883
 20
4.435483199783383
 30
0.0
  0
POINT
  5
800
330
630
100
AcDbEntity
  8
DEFPOINTS
 62
     0
100
AcDbPoint
 10
3.496239039810566
 20
4.435483199783383
 30
0.0
  0
ENDBLK
  5
63C
330
630
100
AcDbEntity
  8
0
100
AcDbBlockEnd
  0
BLOCK
  5
648
330
63D
100
AcDbEntity
  8
0
100
AcDbBlockBegin
  2
*D14
 70
     1
 10
0.0
 20
0.0
 30
0.0
  3
*D14
  1

  0
LINE
  5
82C
330
63D
100
AcDbEntity
  8
DIM
 62
     0
370
    -2
100
AcDbLine
 10
9.898348363015717
 20
4.555483199783387
 30
0.0
 11
10.16108608155944
 21
4.555483199783386
 31
0.0
  0
LINE
  5
82D
330
63D
100
AcDbEntity
  8
DIM
 62
     0
370
    -2
100
AcDbLine
 10
9.898348363015717
 20
6.875483199783391
 30
0.0
 11
10.16108608155944
 21
6.875483199783389
 31
0.0
  0
LINE
  5
82E
330
63D
100
AcDbEntity
  8
DIM
 62
     0
370
    -2
100
AcDbLine
 10
9.975086081559439
 20
4.915483199783388
 30
0.0
 11
9.975086081559439
 21
5.410483199783389
 31
0.0
  0
LINE
  5
82F
330
63D
100
AcDbEntity
  8
DIM
 62
     0
370
    -2
100
AcDbLine
 10
9.975086081559439
 20
6.515483199783392
 30
0.0
 11
9.975086081559439
 21
6.020483199783389
 31
0.0
  0
SOLID
  5
830
330
63D
100
AcDbEntity
  8
DIM
 62
     0
100
AcDbTrace
 10
9.91508608155944
 20
4.915483199783388
 30
0.0
 11
10.03508608155944
 21
4.915483199783388
 31
0.0
 12
9.975086081559439
 22
4.555483199783387
 32
0.0
 13
9.975086081559439
 23
4.555483199783387
 33
0.0
  0
SOLID
  5
831
330
63D
100
AcDbEntity
  8
DIM
 62
     0
100
AcDbTrace
 10
9.91508608155944
 20
6.515483199783392
 30
0.0
 11
10.03508608155944
 21
6.515483199783389
 31
0.0
 12
9.975086081559439
 22
6.875483199783391
 32
0.0
 13
9.975086081559439
 23
6.875483199783391
 33
0.0
  0
MTEXT
  5
832
330
63D
100
AcDbEntity
  8
DIM
 62
     0
100
AcDbMText
 10
9.975086081559439
 20
5.715483199783392
 30
0.0
 40
0.25
 41
0.0
 71
     5
 72
     1
  1
\A1;2.320
 73
     1
 44
1.0
  0
POINT
  5
833
330
63D
100
AcDbEntity
  8
DEFPOINTS
 62
     0
100
AcDbPoint
 10
9.772348363015717
 20
4.555483199783387
 30
0.0
  0
POINT
  5
834
330
63D
100
AcDbEntity
  8
DEFPOINTS
 62
     0
100
AcDbPoint
 10
9.772348363015717
 20
6.875483199783391
 30
0.0
  0
POINT
  5
835
330
63D
100
AcDbEntity
  8
DEFPOINTS
 62
     0
100
AcDbPoint
 10
9.975086081559439
 20
6.875483199783391
 30
0.0
  0
ENDBLK
  5
649
330
63D
100
AcDbEntity
  8
0
100
AcDbBlockEnd
  0
BLOCK
  5
656
330
64A
100
AcDbEntity
  8
0
100
AcDbBlockBegin
  2
*D15
 70
     1
 10
0.0
 20
0.0
 30
0.0
  3
*D15
  1

  0
LINE
  5
80C
330
64A
100
AcDbEntity
  8
DIM
 62
     0
370
    -2
100
AcDbLine
 10
9.898348363015717
 20
6.875483199783391
 30
0.0
 11
10.16108608155944
 21
6.875483199783389
 31
0.0
  0
LINE
  5
80D
330
64A
100
AcDbEntity
  8
DIM
 62
     0
370
    -2
100
AcDbLine
 10
9.849086081559439
 20
6.995483199783387
 30
0.0
 11
9.789086081559439
 21
6.995483199783387
 31
0.0
  0
LINE
  5
80E
330
64A
100
AcDbEntity
  8
DIM
 62
     0
370
    -2
100
AcDbLine
 10
9.975086081559439
 20
6.515483199783392
 30
0.0
 11
9.975086081559439
 21
6.155483199783391
 31
0.0
  0
LINE
  5
80F
330
64A
100
AcDbEntity
  8
DIM
 62
     0
370
    -2
100
AcDbLine
 10
9.975086081559439
 20
7.355483199783387
 30
0.0
 11
9.975086081559439
 21
7.715483199783387
 31
0.0
  0
LINE
  5
810
330
64A
100
AcDbEntity
  8
DIM
 62
     0
370
    -2
100
AcDbLine
 10
9.975086081559439
 20
7.715483199783387
 30
0.0
 11
10.33508608155944
 21
7.715483199783387
 31
0.0
  0
SOLID
  5
811
330
64A
100
AcDbEntity
  8
DIM
 62
     0
100
AcDbTrace
 10
9.91508608155944
 20
6.515483199783392
 30
0.0
 11
10.03508608155944
 21
6.515483199783389
 31
0.0
 12
9.975086081559439
 22
6.875483199783391
 32
0.0
 13
9.975086081559439
 23
6.875483199783391
 33
0.0
  0
SOLID
  5
812
330
64A
100
AcDbEntity
  8
DIM
 62
     0
100
AcDbTrace
 10
9.91508608155944
 20
7.355483199783387
 30
0.0
 11
10.03508608155944
 21
7.355483199783387
 31
0.0
 12
9.975086081559439
 22
6.995483199783387
 32
0.0
 13
9.975086081559439
 23
6.995483199783387
 33
0.0
  0
MTEXT
  5
813
330
64A
100
AcDbEntity
  8
DIM
 62
     0
100
AcDbMText
 10
10.82758608155943
 20
7.715483199783387
 30
0.0
 40
0.25
 41
0.0
 71
     5
 72
     1
  1
\A1;0.120
 73
     1
 44
1.0
  0
POINT
  5
814
330
64A
100
AcDbEntity
  8
DEFPOINTS
 62
     0
100
AcDbPoint
 10
9.772348363015717
 20
6.875483199783391
 30
0.0
  0
POINT
  5
815
330
64A
100
AcDbEntity
  8
DEFPOINTS
 62
     0
100
AcDbPoint
 10
9.975086081559439
 20
6.995483199783387
 30
0.0
  0
POINT
  5
816
330
64A
100
AcDbEntity
  8
DEFPOINTS
 62
     0
100
AcDbPoint
 10
9.975086081559439
 20
6.995483199783387
 30
0.0
  0
ENDBLK
  5
657
330
64A
100
AcDbEntity
  8
0
100
AcDbBlockEnd
  0
BLOCK
  5
664
330
658
100
AcDbEntity
  8
0
100
AcDbBlockBegin
  2
*D16
 70
     1
 10
0.0
 20
0.0
 30
0.0
  3
*D16
  1

  0
LINE
  5
801
330
658
100
AcDbEntity
  8
DIM
 62
     0
370
    -2
100
AcDbLine
 10
7.590509143284013
 20
4.711483199783378
 30
0.0
 11
7.111969916880082
 21
4.711483199783378
 31
0.0
  0
LINE
  5
802
330
658
100
AcDbEntity
  8
DIM
 62
     0
370
    -2
100
AcDbLine
 10
7.457341272858267
 20
4.555483199783387
 30
0.0
 11
7.111969916880082
 21
4.555483199783387
 31
0.0
  0
LINE
  5
803
330
658
100
AcDbEntity
  8
DIM
 62
     0
370
    -2
100
AcDbLine
 10
7.297969916880082
 20
5.071483199783378
 30
0.0
 11
7.297969916880082
 21
5.431483199783379
 31
0.0
  0
LINE
  5
804
330
658
100
AcDbEntity
  8
DIM
 62
     0
370
    -2
100
AcDbLine
 10
7.297969916880082
 20
4.195483199783388
 30
0.0
 11
7.297969916880082
 21
3.835483199783388
 31
0.0
  0
LINE
  5
805
330
658
100
AcDbEntity
  8
DIM
 62
     0
370
    -2
100
AcDbLine
 10
7.297969916880082
 20
3.835483199783388
 30
0.0
 11
6.937969916880081
 21
3.835483199783388
 31
0.0
  0
SOLID
  5
806
330
658
100
AcDbEntity
  8
DIM
 62
     0
100
AcDbTrace
 10
7.237969916880081
 20
5.071483199783378
 30
0.0
 11
7.35796991688008
 21
5.071483199783378
 31
0.0
 12
7.297969916880082
 22
4.711483199783378
 32
0.0
 13
7.297969916880082
 23
4.711483199783378
 33
0.0
  0
SOLID
  5
807
330
658
100
AcDbEntity
  8
DIM
 62
     0
100
AcDbTrace
 10
7.237969916880081
 20
4.195483199783388
 30
0.0
 11
7.35796991688008
 21
4.195483199783388
 31
0.0
 12
7.297969916880082
 22
4.555483199783387
 32
0.0
 13
7.297969916880082
 23
4.555483199783387
 33
0.0
  0
MTEXT
  5
808
330
658
100
AcDbEntity
  8
DIM
 62
     0
100
AcDbMText
 10
6.42984491688008
 20
3.83548319978339
 30
0.0
 40
0.25
 41
0.0
 71
     5
 72
     1
  1
\A1;0.156
 73
     1
 44
1.0
  0
POINT
  5
809
330
658
100
AcDbEntity
  8
DEFPOINTS
 62
     0
100
AcDbPoint
 10
7.716509143284013
 20
4.711483199783378
 30
0.0
  0
POINT
  5
80A
330
658
100
AcDbEntity
  8
DEFPOINTS
 62
     0
100
AcDbPoint
 10
7.583341272858269
 20
4.555483199783387
 30
0.0
  0
POINT
  5
80B
330
658
100
AcDbEntity
  8
DEFPOINTS
 62
     0
100
AcDbPoint
 10
7.297969916880082
 20
4.555483199783387
 30
0.0
  0
ENDBLK
  5
665
330
658
100
AcDbEntity
  8
0
100
AcDbBlockEnd
  0
BLOCK
  5
671
330
666
100
AcDbEntity
  8
0
100
AcDbBlockBegin
  2
*D17
 70
     1
 10
0.0
 20
0.0
 30
0.0
  3
*D17
  1

  0
LINE
  5
887
330
666
100
AcDbEntity
  8
DIM
 62
     0
370
    -2
100
AcDbLine
 10
4.071509143284018
 20
17.23347521364295
 30
0.0
 11
0.682364251489127
 21
17.23347521364295
 31
0.0
  0
LINE
  5
888
330
666
100
AcDbEntity
  8
DIM
 62
     0
370
    -2
100
AcDbLine
 10
4.467509143284011
 20
13.69597521364297
 30
0.0
 11
0.6823642514891261
 21
13.69597521364297
 31
0.0
  0
LINE
  5
889
330
666
100
AcDbEntity
  8
DIM
 62
     0
370
    -2
100
AcDbLine
 10
0.8683642514891268
 20
16.87347521364295
 30
0.0
 11
0.8683642514891264
 21
15.76972521364296
 31
0.0
  0
LINE
  5
88A
330
666
100
AcDbEntity
  8
DIM
 62
     0
370
    -2
100
AcDbLine
 10
0.8683642514891262
 20
14.05597521364297
 30
0.0
 11
0.8683642514891264
 21
15.15972521364296
 31
0.0
  0
SOLID
  5
88B
330
666
100
AcDbEntity
  8
DIM
 62
     0
100
AcDbTrace
 10
0.8083642514891272
 20
16.87347521364295
 30
0.0
 11
0.9283642514891267
 21
16.87347521364295
 31
0.0
 12
0.8683642514891268
 22
17.23347521364295
 32
0.0
 13
0.8683642514891268
 23
17.23347521364295
 33
0.0
  0
SOLID
  5
88C
330
666
100
AcDbEntity
  8
DIM
 62
     0
100
AcDbTrace
 10
0.8083642514891263
 20
14.05597521364297
 30
0.0
 11
0.9283642514891262
 21
14.05597521364297
 31
0.0
 12
0.8683642514891261
 22
13.69597521364297
 32
0.0
 13
0.8683642514891261
 23
13.69597521364297
 33
0.0
  0
MTEXT
  5
88D
330
666
100
AcDbEntity
  8
DIM
 62
     0
100
AcDbMText
 10
0.8683642514891241
 20
15.46472521364296
 30
0.0
 40
0.25
 41
0.0
 71
     5
 72
     1
  1
\A1;3.538
 73
     1
 44
1.0
  0
POINT
  5
88E
330
666
100
AcDbEntity
  8
DEFPOINTS
 62
     0
100
AcDbPoint
 10
4.197509143284018
 20
17.23347521364295
 30
0.0
  0
POINT
  5
88F
330
666
100
AcDbEntity
  8
DEFPOINTS
 62
     0
100
AcDbPoint
 10
4.593509143284012
 20
13.69597521364297
 30
0.0
  0
POINT
  5
890
330
666
100
AcDbEntity
  8
DEFPOINTS
 62
     0
100
AcDbPoint
 10
0.8683642514891261
 20
13.69597521364297
 30
0.0
  0
ENDBLK
  5
672
330
666
100
AcDbEntity
  8
0
100
AcDbBlockEnd
  0
BLOCK
  5
67E
330
673
100
AcDbEntity
  8
0
100
AcDbBlockBegin
  2
*D18
 70
     1
 10
0.0
 20
0.0
 30
0.0
  3
*D18
  1

  0
LINE
  5
85F
330
673
100
AcDbEntity
  8
DIM
 62
     0
370
    -2
100
AcDbLine
 10
9.317509143284011
 20
13.82197521364297
 30
0.0
 11
9.317509143284011
 21
18.49504705721731
 31
0.0
  0
LINE
  5
860
330
673
100
AcDbEntity
  8
DIM
 62
     0
370
    -2
100
AcDbLine
 10
4.197509143284018
 20
17.35947521364296
 30
0.0
 11
4.197509143284018
 21
18.49504705721731
 31
0.0
  0
LINE
  5
861
330
673
100
AcDbEntity
  8
DIM
 62
     0
370
    -2
100
AcDbLine
 10
8.957509143284012
 20
18.30904705721731
 30
0.0
 11
7.265634143284017
 21
18.30904705721731
 31
0.0
  0
LINE
  5
862
330
673
100
AcDbEntity
  8
DIM
 62
     0
370
    -2
100
AcDbLine
 10
4.557509143284018
 20
18.30904705721731
 30
0.0
 11
6.249384143284016
 21
18.30904705721731
 31
0.0
  0
SOLID
  5
863
330
673
100
AcDbEntity
  8
DIM
 62
     0
100
AcDbTrace
 10
8.957509143284012
 20
18.3690470572173
 30
0.0
 11
8.957509143284012
 21
18.24904705721731
 31
0.0
 12
9.317509143284011
 22
18.30904705721731
 32
0.0
 13
9.317509143284011
 23
18.30904705721731
 33
0.0
  0
SOLID
  5
864
330
673
100
AcDbEntity
  8
DIM
 62
     0
100
AcDbTrace
 10
4.557509143284018
 20
18.3690470572173
 30
0.0
 11
4.557509143284018
 21
18.24904705721731
 31
0.0
 12
4.197509143284018
 22
18.30904705721731
 32
0.0
 13
4.197509143284018
 23
18.30904705721731
 33
0.0
  0
MTEXT
  5
865
330
673
100
AcDbEntity
  8
DIM
 62
     0
100
AcDbMText
 10
6.757509143284016
 20
18.30904705721731
 30
0.0
 40
0.25
 41
0.0
 71
     5
 72
     1
  1
\A1;5.120
 73
     1
 44
1.0
  0
POINT
  5
866
330
673
100
AcDbEntity
  8
DEFPOINTS
 62
     0
100
AcDbPoint
 10
9.317509143284011
 20
13.69597521364297
 30
0.0
  0
POINT
  5
867
330
673
100
AcDbEntity
  8
DEFPOINTS
 62
     0
100
AcDbPoint
 10
4.197509143284018
 20
17.23347521364295
 30
0.0
  0
POINT
  5
868
330
673
100
AcDbEntity
  8
DEFPOINTS
 62
     0
100
AcDbPoint
 10
4.197509143284018
 20
18.30904705721731
 30
0.0
  0
ENDBLK
  5
67F
330
673
100
AcDbEntity
  8
0
100
AcDbBlockEnd
  0
BLOCK
  5
68B
330
680
100
AcDbEntity
  8
0
100
AcDbBlockBegin
  2
*D19
 70
     1
 10
0.0
 20
0.0
 30
0.0
  3
*D19
  1

  0
LINE
  5
855
330
680
100
AcDbEntity
  8
DIM
 62
     0
370
    -2
100
AcDbLine
 10
4.593509143284012
 20
13.56997521364297
 30
0.0
 11
4.593509143284012
 21
13.09909229686715
 31
0.0
  0
LINE
  5
856
330
680
100
AcDbEntity
  8
DIM
 62
     0
370
    -2
100
AcDbLine
 10
9.317509143284011
 20
13.56997521364297
 30
0.0
 11
9.317509143284011
 21
13.09909229686715
 31
0.0
  0
LINE
  5
857
330
680
100
AcDbEntity
  8
DIM
 62
     0
370
    -2
100
AcDbLine
 10
4.953509143284012
 20
13.28509229686715
 30
0.0
 11
6.400509143284013
 21
13.28509229686715
 31
0.0
  0
LINE
  5
858
330
680
100
AcDbEntity
  8
DIM
 62
     0
370
    -2
100
AcDbLine
 10
8.957509143284012
 20
13.28509229686715
 30
0.0
 11
7.510509143284012
 21
13.28509229686715
 31
0.0
  0
SOLID
  5
859
330
680
100
AcDbEntity
  8
DIM
 62
     0
100
AcDbTrace
 10
4.953509143284012
 20
13.34509229686715
 30
0.0
 11
4.953509143284012
 21
13.22509229686715
 31
0.0
 12
4.593509143284012
 22
13.28509229686715
 32
0.0
 13
4.593509143284012
 23
13.28509229686715
 33
0.0
  0
SOLID
  5
85A
330
680
100
AcDbEntity
  8
DIM
 62
     0
100
AcDbTrace
 10
8.957509143284012
 20
13.34509229686715
 30
0.0
 11
8.957509143284012
 21
13.22509229686715
 31
0.0
 12
9.317509143284011
 22
13.28509229686715
 32
0.0
 13
9.317509143284011
 23
13.28509229686715
 33
0.0
  0
MTEXT
  5
85B
330
680
100
AcDbEntity
  8
DIM
 62
     0
100
AcDbMText
 10
6.955509143284013
 20
13.28509229686715
 30
0.0
 40
0.25
 41
0.0
 71
     5
 72
     1
  1
\A1;4.724
 73
     1
 44
1.0
  0
POINT
  5
85C
330
680
100
AcDbEntity
  8
DEFPOINTS
 62
     0
100
AcDbPoint
 10
4.593509143284012
 20
13.69597521364297
 30
0.0
  0
POINT
  5
85D
330
680
100
AcDbEntity
  8
DEFPOINTS
 62
     0
100
AcDbPoint
 10
9.317509143284011
 20
13.69597521364297
 30
0.0
  0
POINT
  5
85E
330
680
100
AcDbEntity
  8
DEFPOINTS
 62
     0
100
AcDbPoint
 10
9.317509143284011
 20
13.28509229686715
 30
0.0
  0
ENDBLK
  5
68C
330
680
100
AcDbEntity
  8
0
100
AcDbBlockEnd
  0
BLOCK
  5
698
330
68D
100
AcDbEntity
  8
0
100
AcDbBlockBegin
  2
*D20
 70
     1
 10
0.0
 20
0.0
 30
0.0
  3
*D20
  1

  0
LINE
  5
8C3
330
68D
100
AcDbEntity
  8
DIM
 62
     0
370
    -2
100
AcDbLine
 10
9.317509143284011
 20
13.56997521364297
 30
0.0
 11
9.317509143284011
 21
13.09909229686715
 31
0.0
  0
LINE
  5
8C4
330
68D
100
AcDbEntity
  8
DIM
 62
     0
370
    -2
100
AcDbLine
 10
14.04150914328401
 20
13.56997521364297
 30
0.0
 11
14.04150914328401
 21
13.09909229686715
 31
0.0
  0
LINE
  5
8C5
330
68D
100
AcDbEntity
  8
DIM
 62
     0
370
    -2
100
AcDbLine
 10
9.677509143284012
 20
13.28509229686715
 30
0.0
 11
11.12450914328401
 21
13.28509229686715
 31
0.0
  0
LINE
  5
8C6
330
68D
100
AcDbEntity
  8
DIM
 62
     0
370
    -2
100
AcDbLine
 10
13.68150914328401
 20
13.28509229686715
 30
0.0
 11
12.23450914328401
 21
13.28509229686715
 31
0.0
  0
SOLID
  5
8C7
330
68D
100
AcDbEntity
  8
DIM
 62
     0
100
AcDbTrace
 10
9.677509143284012
 20
13.34509229686715
 30
0.0
 11
9.677509143284012
 21
13.22509229686715
 31
0.0
 12
9.317509143284011
 22
13.28509229686715
 32
0.0
 13
9.317509143284011
 23
13.28509229686715
 33
0.0
  0
SOLID
  5
8C8
330
68D
100
AcDbEntity
  8
DIM
 62
     0
100
AcDbTrace
 10
13.68150914328401
 20
13.34509229686715
 30
0.0
 11
13.68150914328401
 21
13.22509229686715
 31
0.0
 12
14.04150914328401
 22
13.28509229686715
 32
0.0
 13
14.04150914328401
 23
13.28509229686715
 33
0.0
  0
MTEXT
  5
8C9
330
68D
100
AcDbEntity
  8
DIM
 62
     0
100
AcDbMText
 10
11.67950914328401
 20
13.28509229686715
 30
0.0
 40
0.25
 41
0.0
 71
     5
 72
     1
  1
\A1;4.724
 73
     1
 44
1.0
  0
POINT
  5
8CA
330
68D
100
AcDbEntity
  8
DEFPOINTS
 62
     0
100
AcDbPoint
 10
9.317509143284011
 20
13.69597521364297
 30
0.0
  0
POINT
  5
8CB
330
68D
100
AcDbEntity
  8
DEFPOINTS
 62
     0
100
AcDbPoint
 10
14.04150914328401
 20
13.69597521364297
 30
0.0
  0
POINT
  5
8CC
330
68D
100
AcDbEntity
  8
DEFPOINTS
 62
     0
100
AcDbPoint
 10
14.04150914328401
 20
13.28509229686715
 30
0.0
  0
ENDBLK
  5
699
330
68D
100
AcDbEntity
  8
0
100
AcDbBlockEnd
  0
BLOCK
  5
6A5
330
69A
100
AcDbEntity
  8
0
100
AcDbBlockBegin
  2
*D21
 70
     1
 10
0.0
 20
0.0
 30
0.0
  3
*D21
  1

  0
LINE
  5
7A7
330
69A
100
AcDbEntity
  8
DIM
 62
     0
370
    -2
100
AcDbLine
 10
13.94350914328401
 20
16.41197521364295
 30
0.0
 11
15.3978225632811
 21
16.41197521364295
 31
0.0
  0
LINE
  5
7A8
330
69A
100
AcDbEntity
  8
DIM
 62
     0
370
    -2
100
AcDbLine
 10
14.167509143284
 20
13.69597521364297
 30
0.0
 11
15.3978225632811
 21
13.69597521364297
 31
0.0
  0
LINE
  5
7A9
330
69A
100
AcDbEntity
  8
DIM
 62
     0
370
    -2
100
AcDbLine
 10
15.21182256328111
 20
16.05197521364295
 30
0.0
 11
15.21182256328111
 21
15.35897521364296
 31
0.0
  0
LINE
  5
7AA
330
69A
100
AcDbEntity
  8
DIM
 62
     0
370
    -2
100
AcDbLine
 10
15.21182256328111
 20
14.05597521364297
 30
0.0
 11
15.21182256328111
 21
14.74897521364296
 31
0.0
  0
SOLID
  5
7AB
330
69A
100
AcDbEntity
  8
DIM
 62
     0
100
AcDbTrace
 10
15.1518225632811
 20
16.05197521364295
 30
0.0
 11
15.2718225632811
 21
16.05197521364295
 31
0.0
 12
15.21182256328111
 22
16.41197521364295
 32
0.0
 13
15.21182256328111
 23
16.41197521364295
 33
0.0
  0
SOLID
  5
7AC
330
69A
100
AcDbEntity
  8
DIM
 62
     0
100
AcDbTrace
 10
15.1518225632811
 20
14.05597521364297
 30
0.0
 11
15.2718225632811
 21
14.05597521364297
 31
0.0
 12
15.21182256328111
 22
13.69597521364297
 32
0.0
 13
15.21182256328111
 23
13.69597521364297
 33
0.0
  0
MTEXT
  5
7AD
330
69A
100
AcDbEntity
  8
DIM
 62
     0
100
AcDbMText
 10
15.21182256328111
 20
15.05397521364296
 30
0.0
 40
0.25
 41
0.0
 71
     5
 72
     1
  1
\A1;2.716
 73
     1
 44
1.0
  0
POINT
  5
7AE
330
69A
100
AcDbEntity
  8
DEFPOINTS
 62
     0
100
AcDbPoint
 10
13.81750914328401
 20
16.41197521364295
 30
0.0
  0
POINT
  5
7AF
330
69A
100
AcDbEntity
  8
DEFPOINTS
 62
     0
100
AcDbPoint
 10
14.04150914328401
 20
13.69597521364297
 30
0.0
  0
POINT
  5
7B0
330
69A
100
AcDbEntity
  8
DEFPOINTS
 62
     0
100
AcDbPoint
 10
15.21182256328111
 20
13.69597521364297
 30
0.0
  0
ENDBLK
  5
6A6
330
69A
100
AcDbEntity
  8
0
100
AcDbBlockEnd
  0
BLOCK
  5
6B2
330
6A7
100
AcDbEntity
  8
0
100
AcDbBlockBegin
  2
*D22
 70
     1
 10
0.0
 20
0.0
 30
0.0
  3
*D22
  1

  0
LINE
  5
79D
330
6A7
100
AcDbEntity
  8
DIM
 62
     0
370
    -2
100
AcDbLine
 10
14.167509143284
 20
13.69597521364297
 30
0.0
 11
15.39782256328112
 21
13.69597521364297
 31
0.0
  0
LINE
  5
79E
330
6A7
100
AcDbEntity
  8
DIM
 62
     0
370
    -2
100
AcDbLine
 10
13.94350914328401
 20
10.97997521364298
 30
0.0
 11
15.3978225632811
 21
10.97997521364298
 31
0.0
  0
LINE
  5
79F
330
6A7
100
AcDbEntity
  8
DIM
 62
     0
370
    -2
100
AcDbLine
 10
15.21182256328112
 20
13.33597521364297
 30
0.0
 11
15.21182256328112
 21
12.64297521364298
 31
0.0
  0
LINE
  5
7A0
330
6A7
100
AcDbEntity
  8
DIM
 62
     0
370
    -2
100
AcDbLine
 10
15.21182256328111
 20
11.33997521364298
 30
0.0
 11
15.21182256328112
 21
12.03297521364298
 31
0.0
  0
SOLID
  5
7A1
330
6A7
100
AcDbEntity
  8
DIM
 62
     0
100
AcDbTrace
 10
15.1518225632811
 20
13.33597521364297
 30
0.0
 11
15.27182256328112
 21
13.33597521364297
 31
0.0
 12
15.21182256328112
 22
13.69597521364297
 32
0.0
 13
15.21182256328112
 23
13.69597521364297
 33
0.0
  0
SOLID
  5
7A2
330
6A7
100
AcDbEntity
  8
DIM
 62
     0
100
AcDbTrace
 10
15.1518225632811
 20
11.33997521364298
 30
0.0
 11
15.2718225632811
 21
11.33997521364298
 31
0.0
 12
15.21182256328111
 22
10.97997521364298
 32
0.0
 13
15.21182256328111
 23
10.97997521364298
 33
0.0
  0
MTEXT
  5
7A3
330
6A7
100
AcDbEntity
  8
DIM
 62
     0
100
AcDbMText
 10
15.21182256328111
 20
12.33797521364298
 30
0.0
 40
0.25
 41
0.0
 71
     5
 72
     1
  1
\A1;2.716
 73
     1
 44
1.0
  0
POINT
  5
7A4
330
6A7
100
AcDbEntity
  8
DEFPOINTS
 62
     0
100
AcDbPoint
 10
14.04150914328401
 20
13.69597521364297
 30
0.0
  0
POINT
  5
7A5
330
6A7
100
AcDbEntity
  8
DEFPOINTS
 62
     0
100
AcDbPoint
 10
13.81750914328401
 20
10.97997521364298
 30
0.0
  0
POINT
  5
7A6
330
6A7
100
AcDbEntity
  8
DEFPOINTS
 62
     0
100
AcDbPoint
 10
15.21182256328111
 20
10.97997521364298
 30
0.0
  0
ENDBLK
  5
6B3
330
6A7
100
AcDbEntity
  8
0
100
AcDbBlockEnd
  0
BLOCK
  5
6BF
330
6B4
100
AcDbEntity
  8
0
100
AcDbBlockBegin
  2
*D23
 70
     1
 10
0.0
 20
0.0
 30
0.0
  3
*D23
  1

  0
LINE
  5
793
330
6B4
100
AcDbEntity
  8
DIM
 62
     0
370
    -2
100
AcDbLine
 10
14.56350914328401
 20
17.23347521364295
 30
0.0
 11
16.13676858643514
 21
17.23347521364295
 31
0.0
  0
LINE
  5
794
330
6B4
100
AcDbEntity
  8
DIM
 62
     0
370
    -2
100
AcDbLine
 10
14.56350914328401
 20
10.15847521364297
 30
0.0
 11
16.13676858643514
 21
10.15847521364297
 31
0.0
  0
LINE
  5
795
330
6B4
100
AcDbEntity
  8
DIM
 62
     0
370
    -2
100
AcDbLine
 10
15.95076858643514
 20
16.87347521364295
 30
0.0
 11
15.95076858643514
 21
14.00097521364296
 31
0.0
  0
LINE
  5
796
330
6B4
100
AcDbEntity
  8
DIM
 62
     0
370
    -2
100
AcDbLine
 10
15.95076858643514
 20
10.51847521364297
 30
0.0
 11
15.95076858643514
 21
13.39097521364296
 31
0.0
  0
SOLID
  5
797
330
6B4
100
AcDbEntity
  8
DIM
 62
     0
100
AcDbTrace
 10
15.89076858643514
 20
16.87347521364295
 30
0.0
 11
16.01076858643514
 21
16.87347521364295
 31
0.0
 12
15.95076858643514
 22
17.23347521364295
 32
0.0
 13
15.95076858643514
 23
17.23347521364295
 33
0.0
  0
SOLID
  5
798
330
6B4
100
AcDbEntity
  8
DIM
 62
     0
100
AcDbTrace
 10
15.89076858643514
 20
10.51847521364297
 30
0.0
 11
16.01076858643514
 21
10.51847521364297
 31
0.0
 12
15.95076858643514
 22
10.15847521364297
 32
0.0
 13
15.95076858643514
 23
10.15847521364297
 33
0.0
  0
MTEXT
  5
799
330
6B4
100
AcDbEntity
  8
DIM
 62
     0
100
AcDbMText
 10
15.95076858643514
 20
13.69597521364296
 30
0.0
 40
0.25
 41
0.0
 71
     5
 72
     1
  1
\A1;7.075
 73
     1
 44
1.0
  0
POINT
  5
79A
330
6B4
100
AcDbEntity
  8
DEFPOINTS
 62
     0
100
AcDbPoint
 10
14.43750914328401
 20
17.23347521364295
 30
0.0
  0
POINT
  5
79B
330
6B4
100
AcDbEntity
  8
DEFPOINTS
 62
     0
100
AcDbPoint
 10
14.43750914328401
 20
10.15847521364297
 30
0.0
  0
POINT
  5
79C
330
6B4
100
AcDbEntity
  8
DEFPOINTS
 62
     0
100
AcDbPoint
 10
15.95076858643514
 20
10.15847521364297
 30
0.0
  0
ENDBLK
  5
6C0
330
6B4
100
AcDbEntity
  8
0
100
AcDbBlockEnd
  0
BLOCK
  5
6CC
330
6C1
100
AcDbEntity
  8
0
100
AcDbBlockBegin
  2
*D24
 70
     1
 10
0.0
 20
0.0
 30
0.0
  3
*D24
  1

  0
LINE
  5
84B
330
6C1
100
AcDbEntity
  8
DIM
 62
     0
370
    -2
100
AcDbLine
 10
14.31750914328401
 20
12.25263575655578
 30
0.0
 11
14.31750914328401
 21
12.44098805015604
 31
0.0
  0
LINE
  5
84C
330
6C1
100
AcDbEntity
  8
DIM
 62
     0
370
    -2
100
AcDbLine
 10
4.317509143284008
 20
12.2526357565558
 30
0.0
 11
4.317509143284008
 21
12.44098805015604
 31
0.0
  0
LINE
  5
84D
330
6C1
100
AcDbEntity
  8
DIM
 62
     0
370
    -2
100
AcDbLine
 10
13.95750914328401
 20
12.25498805015604
 30
0.0
 11
9.872509143284011
 21
12.25498805015604
 31
0.0
  0
LINE
  5
84E
330
6C1
100
AcDbEntity
  8
DIM
 62
     0
370
    -2
100
AcDbLine
 10
4.67750914328401
 20
12.25498805015604
 30
0.0
 11
8.762509143284011
 21
12.25498805015604
 31
0.0
  0
SOLID
  5
84F
330
6C1
100
AcDbEntity
  8
DIM
 62
     0
100
AcDbTrace
 10
13.95750914328401
 20
12.31498805015604
 30
0.0
 11
13.95750914328401
 21
12.19498805015604
 31
0.0
 12
14.31750914328401
 22
12.25498805015604
 32
0.0
 13
14.31750914328401
 23
12.25498805015604
 33
0.0
  0
SOLID
  5
850
330
6C1
100
AcDbEntity
  8
DIM
 62
     0
100
AcDbTrace
 10
4.67750914328401
 20
12.31498805015604
 30
0.0
 11
4.67750914328401
 21
12.19498805015604
 31
0.0
 12
4.317509143284008
 22
12.25498805015604
 32
0.0
 13
4.317509143284008
 23
12.25498805015604
 33
0.0
  0
MTEXT
  5
851
330
6C1
100
AcDbEntity
  8
DIM
 62
     0
100
AcDbMText
 10
9.317509143284011
 20
12.25498805015604
 30
0.0
 40
0.25
 41
0.0
 71
     5
 72
     1
  1
\A1;10.000
 73
     1
 44
1.0
  0
POINT
  5
852
330
6C1
100
AcDbEntity
  8
DEFPOINTS
 62
     0
100
AcDbPoint
 10
14.31750914328401
 20
12.12663575655579
 30
0.0
  0
POINT
  5
853
330
6C1
100
AcDbEntity
  8
DEFPOINTS
 62
     0
100
AcDbPoint
 10
4.317509143284008
 20
12.12663575655581
 30
0.0
  0
POINT
  5
854
330
6C1
100
AcDbEntity
  8
DEFPOINTS
 62
     0
100
AcDbPoint
 10
4.317509143284008
 20
12.25498805015604
 30
0.0
  0
ENDBLK
  5
6CD
330
6C1
100
AcDbEntity
  8
0
100
AcDbBlockEnd
  0
BLOCK
  5
6D9
330
6CE
100
AcDbEntity
  8
0
100
AcDbBlockBegin
  2
*D25
 70
     1
 10
0.0
 20
0.0
 30
0.0
  3
*D25
  1

  0
LINE
  5
8B9
330
6CE
100
AcDbEntity
  8
DIM
 62
     0
370
    -2
100
AcDbLine
 10
10.32779546536484
 20
10.30347521364296
 30
0.0
 11
10.17114048250312
 21
10.30347521364296
 31
0.0
  0
LINE
  5
8BA
330
6CE
100
AcDbEntity
  8
DIM
 62
     0
370
    -2
100
AcDbLine
 10
10.32779546536484
 20
17.08847521364296
 30
0.0
 11
10.17114048250312
 21
17.08847521364296
 31
0.0
  0
LINE
  5
8BB
330
6CE
100
AcDbEntity
  8
DIM
 62
     0
370
    -2
100
AcDbLine
 10
10.35714048250311
 20
10.66347521364296
 30
0.0
 11
10.35714048250311
 21
13.39097521364296
 31
0.0
  0
LINE
  5
8BC
330
6CE
100
AcDbEntity
  8
DIM
 62
     0
370
    -2
100
AcDbLine
 10
10.35714048250311
 20
16.72847521364296
 30
0.0
 11
10.35714048250311
 21
14.00097521364296
 31
0.0
  0
SOLID
  5
8BD
330
6CE
100
AcDbEntity
  8
DIM
 62
     0
100
AcDbTrace
 10
10.29714048250311
 20
10.66347521364296
 30
0.0
 11
10.41714048250311
 21
10.66347521364296
 31
0.0
 12
10.35714048250311
 22
10.30347521364296
 32
0.0
 13
10.35714048250311
 23
10.30347521364296
 33
0.0
  0
SOLID
  5
8BE
330
6CE
100
AcDbEntity
  8
DIM
 62
     0
100
AcDbTrace
 10
10.29714048250311
 20
16.72847521364296
 30
0.0
 11
10.41714048250311
 21
16.72847521364296
 31
0.0
 12
10.35714048250311
 22
17.08847521364296
 32
0.0
 13
10.35714048250311
 23
17.08847521364296
 33
0.0
  0
MTEXT
  5
8BF
330
6CE
100
AcDbEntity
  8
DIM
 62
     0
100
AcDbMText
 10
10.35714048250311
 20
13.69597521364296
 30
0.0
 40
0.25
 41
0.0
 71
     5
 72
     1
  1
\A1;6.785
 73
     1
 44
1.0
  0
POINT
  5
8C0
330
6CE
100
AcDbEntity
  8
DEFPOINTS
 62
     0
100
AcDbPoint
 10
10.45379546536485
 20
10.30347521364296
 30
0.0
  0
POINT
  5
8C1
330
6CE
100
AcDbEntity
  8
DEFPOINTS
 62
     0
100
AcDbPoint
 10
10.45379546536485
 20
17.08847521364296
 30
0.0
  0
POINT
  5
8C2
330
6CE
100
AcDbEntity
  8
DEFPOINTS
 62
     0
100
AcDbPoint
 10
10.35714048250311
 20
17.08847521364296
 30
0.0
  0
ENDBLK
  5
6DA
330
6CE
100
AcDbEntity
  8
0
100
AcDbBlockEnd
  0
BLOCK
  5
6E7
330
6DB
100
AcDbEntity
  8
0
100
AcDbBlockBegin
  2
*D26
 70
     1
 10
0.0
 20
0.0
 30
0.0
  3
*D26
  1

  0
LINE
  5
840
330
6DB
100
AcDbEntity
  8
DIM
 62
     0
370
    -2
100
AcDbLine
 10
4.498509143284053
 20
14.40197521364297
 30
0.0
 11
5.156999285154079
 21
14.40197521364297
 31
0.0
  0
LINE
  5
841
330
6DB
100
AcDbEntity
  8
DIM
 62
     0
370
    -2
100
AcDbLine
 10
4.498509143284053
 20
14.47997521364296
 30
0.0
 11
5.156999285154079
 21
14.47997521364296
 31
0.0
  0
LINE
  5
842
330
6DB
100
AcDbEntity
  8
DIM
 62
     0
370
    -2
100
AcDbLine
 10
4.970999285154079
 20
14.04197521364297
 30
0.0
 11
4.970999285154078
 21
13.68197521364296
 31
0.0
  0
LINE
  5
843
330
6DB
100
AcDbEntity
  8
DIM
 62
     0
370
    -2
100
AcDbLine
 10
4.970999285154079
 20
14.83997521364296
 30
0.0
 11
4.970999285154079
 21
15.19997521364296
 31
0.0
  0
LINE
  5
844
330
6DB
100
AcDbEntity
  8
DIM
 62
     0
370
    -2
100
AcDbLine
 10
4.970999285154079
 20
15.19997521364296
 30
0.0
 11
5.330999285154081
 21
15.19997521364296
 31
0.0
  0
SOLID
  5
845
330
6DB
100
AcDbEntity
  8
DIM
 62
     0
100
AcDbTrace
 10
4.910999285154081
 20
14.04197521364297
 30
0.0
 11
5.030999285154079
 21
14.04197521364297
 31
0.0
 12
4.970999285154079
 22
14.40197521364297
 32
0.0
 13
4.970999285154079
 23
14.40197521364297
 33
0.0
  0
SOLID
  5
846
330
6DB
100
AcDbEntity
  8
DIM
 62
     0
100
AcDbTrace
 10
4.910999285154081
 20
14.83997521364296
 30
0.0
 11
5.030999285154079
 21
14.83997521364296
 31
0.0
 12
4.970999285154079
 22
14.47997521364296
 32
0.0
 13
4.970999285154079
 23
14.47997521364296
 33
0.0
  0
MTEXT
  5
847
330
6DB
100
AcDbEntity
  8
DIM
 62
     0
100
AcDbMText
 10
5.854749285154077
 20
15.19997521364296
 30
0.0
 40
0.25
 41
0.0
 71
     5
 72
     1
  1
\A1;0.078
 73
     1
 44
1.0
  0
POINT
  5
848
330
6DB
100
AcDbEntity
  8
DEFPOINTS
 62
     0
100
AcDbPoint
 10
4.372509143284053
 20
14.40197521364297
 30
0.0
  0
POINT
  5
849
330
6DB
100
AcDbEntity
  8
DEFPOINTS
 62
     0
100
AcDbPoint
 10
4.372509143284053
 20
14.47997521364296
 30
0.0
  0
POINT
  5
84A
330
6DB
100
AcDbEntity
  8
DEFPOINTS
 62
     0
100
AcDbPoint
 10
4.970999285154079
 20
14.47997521364296
 30
0.0
  0
ENDBLK
  5
6E8
330
6DB
100
AcDbEntity
  8
0
100
AcDbBlockEnd
  0
BLOCK
  5
6F4
330
6E9
100
AcDbEntity
  8
0
100
AcDbBlockBegin
  2
*D27
 70
     1
 10
0.0
 20
0.0
 30
0.0
  3
*D27
  1

  0
LINE
  5
836
330
6E9
100
AcDbEntity
  8
DIM
 62
     0
370
    -2
100
AcDbLine
 10
4.317509143284017
 20
15.60939774083725
 30
0.0
 11
4.317509143284017
 21
15.42499661366495
 31
0.0
  0
LINE
  5
837
330
6E9
100
AcDbEntity
  8
DIM
 62
     0
370
    -2
100
AcDbLine
 10
4.372509143284053
 20
15.72597521364297
 30
0.0
 11
4.372509143284053
 21
15.42499661366495
 31
0.0
  0
LINE
  5
838
330
6E9
100
AcDbEntity
  8
DIM
 62
     0
370
    -2
100
AcDbLine
 10
3.957509143284017
 20
15.61099661366494
 30
0.0
 11
3.597509143284018
 21
15.61099661366494
 31
0.0
  0
LINE
  5
839
330
6E9
100
AcDbEntity
  8
DIM
 62
     0
370
    -2
100
AcDbLine
 10
4.732509143284053
 20
15.61099661366494
 30
0.0
 11
5.092509143284053
 21
15.61099661366494
 31
0.0
  0
SOLID
  5
83A
330
6E9
100
AcDbEntity
  8
DIM
 62
     0
100
AcDbTrace
 10
3.957509143284017
 20
15.67099661366494
 30
0.0
 11
3.957509143284017
 21
15.55099661366495
 31
0.0
 12
4.317509143284017
 22
15.61099661366494
 32
0.0
 13
4.317509143284017
 23
15.61099661366494
 33
0.0
  0
SOLID
  5
83B
330
6E9
100
AcDbEntity
  8
DIM
 62
     0
100
AcDbTrace
 10
4.732509143284053
 20
15.67099661366494
 30
0.0
 11
4.732509143284053
 21
15.55099661366495
 31
0.0
 12
4.372509143284053
 22
15.61099661366494
 32
0.0
 13
4.372509143284053
 23
15.61099661366494
 33
0.0
  0
MTEXT
  5
83C
330
6E9
100
AcDbEntity
  8
DIM
 62
     0
100
AcDbMText
 10
5.616259143284053
 20
15.61099661366494
 30
0.0
 40
0.25
 41
0.0
 71
     5
 72
     1
  1
\A1;0.055
 73
     1
 44
1.0
  0
POINT
  5
83D
330
6E9
100
AcDbEntity
  8
DEFPOINTS
 62
     0
100
AcDbPoint
 10
4.317509143284017
 20
15.73539774083725
 30
0.0
  0
POINT
  5
83E
330
6E9
100
AcDbEntity
  8
DEFPOINTS
 62
     0
100
AcDbPoint
 10
4.372509143284053
 20
15.85197521364297
 30
0.0
  0
POINT
  5
83F
330
6E9
100
AcDbEntity
  8
DEFPOINTS
 62
     0
100
AcDbPoint
 10
4.372509143284053
 20
15.61099661366494
 30
0.0
  0
ENDBLK
  5
6F5
330
6E9
100
AcDbEntity
  8
0
100
AcDbBlockEnd
  0
BLOCK
  5
702
330
6F6
100
AcDbEntity
  8
0
100
AcDbBlockBegin
  2
*D28
 70
     1
 10
0.0
 20
0.0
 30
0.0
  3
*D28
  1

  0
LINE
  5
817
330
6F6
100
AcDbEntity
  8
DIM
 62
     0
370
    -2
100
AcDbLine
 10
7.590509143284013
 20
6.719483199783391
 30
0.0
 11
7.111969916880082
 21
6.719483199783391
 31
0.0
  0
LINE
  5
818
330
6F6
100
AcDbEntity
  8
DIM
 62
     0
370
    -2
100
AcDbLine
 10
7.457341272858267
 20
6.87548319978338
 30
0.0
 11
7.111969916880082
 21
6.87548319978338
 31
0.0
  0
LINE
  5
819
330
6F6
100
AcDbEntity
  8
DIM
 62
     0
370
    -2
100
AcDbLine
 10
7.297969916880082
 20
6.359483199783389
 30
0.0
 11
7.29796991688008
 21
5.999483199783392
 31
0.0
  0
LINE
  5
81A
330
6F6
100
AcDbEntity
  8
DIM
 62
     0
370
    -2
100
AcDbLine
 10
7.297969916880082
 20
7.235483199783382
 30
0.0
 11
7.297969916880082
 21
7.595483199783381
 31
0.0
  0
LINE
  5
81B
330
6F6
100
AcDbEntity
  8
DIM
 62
     0
370
    -2
100
AcDbLine
 10
7.297969916880082
 20
7.595483199783381
 30
0.0
 11
7.657969916880081
 21
7.595483199783381
 31
0.0
  0
SOLID
  5
81C
330
6F6
100
AcDbEntity
  8
DIM
 62
     0
100
AcDbTrace
 10
7.237969916880081
 20
6.359483199783389
 30
0.0
 11
7.35796991688008
 21
6.359483199783389
 31
0.0
 12
7.297969916880082
 22
6.719483199783391
 32
0.0
 13
7.297969916880082
 23
6.719483199783391
 33
0.0
  0
SOLID
  5
81D
330
6F6
100
AcDbEntity
  8
DIM
 62
     0
100
AcDbTrace
 10
7.237969916880081
 20
7.235483199783382
 30
0.0
 11
7.35796991688008
 21
7.235483199783382
 31
0.0
 12
7.297969916880082
 22
6.87548319978338
 32
0.0
 13
7.297969916880082
 23
6.87548319978338
 33
0.0
  0
MTEXT
  5
81E
330
6F6
100
AcDbEntity
  8
DIM
 62
     0
100
AcDbMText
 10
8.166094916880078
 20
7.595483199783382
 30
0.0
 40
0.25
 41
0.0
 71
     5
 72
     1
  1
\A1;0.156
 73
     1
 44
1.0
  0
POINT
  5
81F
330
6F6
100
AcDbEntity
  8
DEFPOINTS
 62
     0
100
AcDbPoint
 10
7.716509143284013
 20
6.719483199783391
 30
0.0
  0
POINT
  5
820
330
6F6
100
AcDbEntity
  8
DEFPOINTS
 62
     0
100
AcDbPoint
 10
7.583341272858269
 20
6.87548319978338
 30
0.0
  0
POINT
  5
821
330
6F6
100
AcDbEntity
  8
DEFPOINTS
 62
     0
100
AcDbPoint
 10
7.297969916880082
 20
6.87548319978338
 30
0.0
  0
ENDBLK
  5
703
330
6F6
100
AcDbEntity
  8
0
100
AcDbBlockEnd
  0
BLOCK
  5
70F
330
704
100
AcDbEntity
  8
0
100
AcDbBlockBegin
  2
*D29
 70
     1
 10
0.0
 20
0.0
 30
0.0
  3
*D29
  1

  0
LINE
  5
891
330
704
100
AcDbEntity
  8
DIM
 62
     0
370
    -2
100
AcDbLine
 10
4.470509143284004
 20
16.79347521364296
 30
0.0
 11
2.920750038846061
 21
16.79347521364296
 31
0.0
  0
LINE
  5
892
330
704
100
AcDbEntity
  8
DIM
 62
     0
370
    -2
100
AcDbLine
 10
4.071509143284018
 20
17.23347521364295
 30
0.0
 11
2.920750038846061
 21
17.23347521364295
 31
0.0
  0
LINE
  5
893
330
704
100
AcDbEntity
  8
DIM
 62
     0
370
    -2
100
AcDbLine
 10
3.106750038846061
 20
16.43347521364296
 30
0.0
 11
3.106750038846061
 21
16.07347521364296
 31
0.0
  0
LINE
  5
894
330
704
100
AcDbEntity
  8
DIM
 62
     0
370
    -2
100
AcDbLine
 10
3.106750038846061
 20
17.59347521364295
 30
0.0
 11
3.106750038846061
 21
17.95347521364295
 31
0.0
  0
SOLID
  5
895
330
704
100
AcDbEntity
  8
DIM
 62
     0
100
AcDbTrace
 10
3.046750038846061
 20
16.43347521364296
 30
0.0
 11
3.166750038846061
 21
16.43347521364296
 31
0.0
 12
3.106750038846061
 22
16.79347521364296
 32
0.0
 13
3.106750038846061
 23
16.79347521364296
 33
0.0
  0
SOLID
  5
896
330
704
100
AcDbEntity
  8
DIM
 62
     0
100
AcDbTrace
 10
3.046750038846061
 20
17.59347521364295
 30
0.0
 11
3.166750038846061
 21
17.59347521364295
 31
0.0
 12
3.106750038846061
 22
17.23347521364295
 32
0.0
 13
3.106750038846061
 23
17.23347521364295
 33
0.0
  0
MTEXT
  5
897
330
704
100
AcDbEntity
  8
DIM
 62
     0
100
AcDbMText
 10
3.106750038846058
 20
17.01347521364296
 30
0.0
 40
0.25
 41
0.0
 71
     5
 72
     1
  1
\A1;0.440
 73
     1
 44
1.0
  0
POINT
  5
898
330
704
100
AcDbEntity
  8
DEFPOINTS
 62
     0
100
AcDbPoint
 10
4.596509143284006
 20
16.79347521364296
 30
0.0
  0
POINT
  5
899
330
704
100
AcDbEntity
  8
DEFPOINTS
 62
     0
100
AcDbPoint
 10
4.197509143284018
 20
17.23347521364295
 30
0.0
  0
POINT
  5
89A
330
704
100
AcDbEntity
  8
DEFPOINTS
 62
     0
100
AcDbPoint
 10
3.106750038846061
 20
17.23347521364295
 30
0.0
  0
ENDBLK
  5
710
330
704
100
AcDbEntity
  8
0
100
AcDbBlockEnd
  0
BLOCK
  5
71C
330
711
100
AcDbEntity
  8
0
100
AcDbBlockBegin
  2
*D30
 70
     1
 10
0.0
 20
0.0
 30
0.0
  3
*D30
  1

  0
LINE
  5
7BB
330
711
100
AcDbEntity
  8
DIM
 62
     0
370
    -2
100
AcDbLine
 10
16.07762805245135
 20
6.897983199783382
 30
0.0
 11
15.31582237203914
 21
6.897983199783382
 31
0.0
  0
LINE
  5
7BC
330
711
100
AcDbEntity
  8
DIM
 62
     0
370
    -2
100
AcDbLine
 10
16.07762805245135
 20
4.532983199783385
 30
0.0
 11
15.31582237203914
 21
4.532983199783385
 31
0.0
  0
LINE
  5
7BD
330
711
100
AcDbEntity
  8
DIM
 62
     0
370
    -2
100
AcDbLine
 10
15.50182237203914
 20
6.537983199783382
 30
0.0
 11
15.50182237203914
 21
6.020483199783383
 31
0.0
  0
LINE
  5
7BE
330
711
100
AcDbEntity
  8
DIM
 62
     0
370
    -2
100
AcDbLine
 10
15.50182237203914
 20
4.892983199783384
 30
0.0
 11
15.50182237203914
 21
5.410483199783383
 31
0.0
  0
SOLID
  5
7BF
330
711
100
AcDbEntity
  8
DIM
 62
     0
100
AcDbTrace
 10
15.44182237203914
 20
6.537983199783382
 30
0.0
 11
15.56182237203914
 21
6.537983199783382
 31
0.0
 12
15.50182237203914
 22
6.897983199783382
 32
0.0
 13
15.50182237203914
 23
6.897983199783382
 33
0.0
  0
SOLID
  5
7C0
330
711
100
AcDbEntity
  8
DIM
 62
     0
100
AcDbTrace
 10
15.44182237203914
 20
4.892983199783384
 30
0.0
 11
15.56182237203914
 21
4.892983199783384
 31
0.0
 12
15.50182237203914
 22
4.532983199783385
 32
0.0
 13
15.50182237203914
 23
4.532983199783385
 33
0.0
  0
MTEXT
  5
7C1
330
711
100
AcDbEntity
  8
DIM
 62
     0
100
AcDbMText
 10
15.50182237203912
 20
5.715483199783387
 30
0.0
 40
0.25
 41
0.0
 71
     5
 72
     1
  1
\A1;2.365
 73
     1
 44
1.0
  0
POINT
  5
7C2
330
711
100
AcDbEntity
  8
DEFPOINTS
 62
     0
100
AcDbPoint
 10
16.20362805245135
 20
6.897983199783382
 30
0.0
  0
POINT
  5
7C3
330
711
100
AcDbEntity
  8
DEFPOINTS
 62
     0
100
AcDbPoint
 10
16.20362805245135
 20
4.532983199783385
 30
0.0
  0
POINT
  5
7C4
330
711
100
AcDbEntity
  8
DEFPOINTS
 62
     0
100
AcDbPoint
 10
15.50182237203914
 20
4.532983199783385
 30
0.0
  0
ENDBLK
  5
71D
330
711
100
AcDbEntity
  8
0
100
AcDbBlockEnd
  0
BLOCK
  5
729
330
71E
100
AcDbEntity
  8
0
100
AcDbBlockBegin
  2
*D31
 70
     1
 10
0.0
 20
0.0
 30
0.0
  3
*D31
  1

  0
LINE
  5
8E1
330
71E
100
AcDbEntity
  8
DIM
 62
     0
370
    -2
100
AcDbLine
 10
16.28262805245136
 20
4.469483199783383
 30
0.0
 11
16.28262805245136
 21
3.730345775975032
 31
0.0
  0
LINE
  5
8E2
330
71E
100
AcDbEntity
  8
DIM
 62
     0
370
    -2
100
AcDbLine
 10
26.12462805245135
 20
4.469483199783383
 30
0.0
 11
26.12462805245135
 21
3.730345775975032
 31
0.0
  0
LINE
  5
8E3
330
71E
100
AcDbEntity
  8
DIM
 62
     0
370
    -2
100
AcDbLine
 10
16.64262805245136
 20
3.916345775975031
 30
0.0
 11
19.33612805245136
 21
3.916345775975031
 31
0.0
  0
LINE
  5
8E4
330
71E
100
AcDbEntity
  8
DIM
 62
     0
370
    -2
100
AcDbLine
 10
25.76462805245135
 20
3.916345775975031
 30
0.0
 11
23.07112805245135
 21
3.916345775975031
 31
0.0
  0
SOLID
  5
8E5
330
71E
100
AcDbEntity
  8
DIM
 62
     0
100
AcDbTrace
 10
16.64262805245136
 20
3.976345775975032
 30
0.0
 11
16.64262805245136
 21
3.856345775975031
 31
0.0
 12
16.28262805245136
 22
3.916345775975031
 32
0.0
 13
16.28262805245136
 23
3.916345775975031
 33
0.0
  0
SOLID
  5
8E6
330
71E
100
AcDbEntity
  8
DIM
 62
     0
100
AcDbTrace
 10
25.76462805245135
 20
3.976345775975032
 30
0.0
 11
25.76462805245135
 21
3.856345775975031
 31
0.0
 12
26.12462805245135
 22
3.916345775975031
 32
0.0
 13
26.12462805245135
 23
3.916345775975031
 33
0.0
  0
MTEXT
  5
8E7
330
71E
100
AcDbEntity
  8
DIM
 62
     0
100
AcDbMText
 10
21.20362805245135
 20
3.916345775975031
 30
0.0
 40
0.25
 41
0.0
 71
     5
 72
     1
  1
\A1;9.842 EXPOSED PANEL
 73
     1
 44
1.0
  0
POINT
  5
8E8
330
71E
100
AcDbEntity
  8
DEFPOINTS
 62
     0
100
AcDbPoint
 10
16.28262805245136
 20
4.595483199783385
 30
0.0
  0
POINT
  5
8E9
330
71E
100
AcDbEntity
  8
DEFPOINTS
 62
     0
100
AcDbPoint
 10
26.12462805245135
 20
4.595483199783385
 30
0.0
  0
POINT
  5
8EA
330
71E
100
AcDbEntity
  8
DEFPOINTS
 62
     0
100
AcDbPoint
 10
26.12462805245135
 20
3.916345775975031
 30
0.0
  0
ENDBLK
  5
72A
330
71E
100
AcDbEntity
  8
0
100
AcDbBlockEnd
  0
BLOCK
  5
736
330
72B
100
AcDbEntity
  8
0
100
AcDbBlockBegin
  2
*D32
 70
     1
 10
0.0
 20
0.0
 30
0.0
  3
*D32
  1

  0
LINE
  5
8F5
330
72B
100
AcDbEntity
  8
DIM
 62
     0
370
    -2
100
AcDbLine
 10
26.10887805245135
 20
4.595483199783383
 30
0.0
 11
28.30088405895422
 21
4.595483199783383
 31
0.0
  0
LINE
  5
8F6
330
72B
100
AcDbEntity
  8
DIM
 62
     0
370
    -2
100
AcDbLine
 10
26.10887805245135
 20
6.835483199783387
 30
0.0
 11
28.30088405895422
 21
6.835483199783387
 31
0.0
  0
LINE
  5
8F7
330
72B
100
AcDbEntity
  8
DIM
 62
     0
370
    -2
100
AcDbLine
 10
28.11488405895422
 20
4.955483199783383
 30
0.0
 11
28.11488405895422
 21
5.410483199783384
 31
0.0
  0
LINE
  5
8F8
330
72B
100
AcDbEntity
  8
DIM
 62
     0
370
    -2
100
AcDbLine
 10
28.11488405895422
 20
6.475483199783385
 30
0.0
 11
28.11488405895422
 21
6.020483199783383
 31
0.0
  0
SOLID
  5
8F9
330
72B
100
AcDbEntity
  8
DIM
 62
     0
100
AcDbTrace
 10
28.05488405895424
 20
4.955483199783383
 30
0.0
 11
28.17488405895423
 21
4.955483199783383
 31
0.0
 12
28.11488405895422
 22
4.595483199783383
 32
0.0
 13
28.11488405895422
 23
4.595483199783383
 33
0.0
  0
SOLID
  5
8FA
330
72B
100
AcDbEntity
  8
DIM
 62
     0
100
AcDbTrace
 10
28.05488405895424
 20
6.475483199783385
 30
0.0
 11
28.17488405895423
 21
6.475483199783385
 31
0.0
 12
28.11488405895422
 22
6.835483199783387
 32
0.0
 13
28.11488405895422
 23
6.835483199783387
 33
0.0
  0
MTEXT
  5
8FB
330
72B
100
AcDbEntity
  8
DIM
 62
     0
100
AcDbMText
 10
28.11488405895422
 20
5.715483199783388
 30
0.0
 40
0.25
 41
0.0
 71
     5
 72
     1
  1
\A1;2.240 EXPOSED PANEL
 73
     1
 44
1.0
  0
POINT
  5
8FC
330
72B
100
AcDbEntity
  8
DEFPOINTS
 62
     0
100
AcDbPoint
 10
25.98287805245135
 20
4.595483199783385
 30
0.0
  0
POINT
  5
8FD
330
72B
100
AcDbEntity
  8
DEFPOINTS
 62
     0
100
AcDbPoint
 10
25.98287805245135
 20
6.835483199783387
 30
0.0
  0
POINT
  5
8FE
330
72B
100
AcDbEntity
  8
DEFPOINTS
 62
     0
100
AcDbPoint
 10
28.11488405895422
 20
6.835483199783387
 30
0.0
  0
ENDBLK
  5
737
330
72B
100
AcDbEntity
  8
0
100
AcDbBlockEnd
  0
BLOCK
  5
743
330
738
100
AcDbEntity
  8
0
100
AcDbBlockBegin
  2
*D33
 70
     1
 10
0.0
 20
0.0
 30
0.0
  3
*D33
  1

  0
LINE
  5
933
330
738
100
AcDbEntity
  8
DIM
 62
     0
370
    -2
100
AcDbLine
 10
4.470509143284005
 20
10.59847521364296
 30
0.0
 11
2.920750038846061
 21
10.59847521364296
 31
0.0
  0
LINE
  5
934
330
738
100
AcDbEntity
  8
DIM
 62
     0
370
    -2
100
AcDbLine
 10
4.071509143284018
 20
10.15847521364297
 30
0.0
 11
2.920750038846061
 21
10.15847521364297
 31
0.0
  0
LINE
  5
935
330
738
100
AcDbEntity
  8
DIM
 62
     0
370
    -2
100
AcDbLine
 10
3.106750038846061
 20
10.95847521364296
 30
0.0
 11
3.106750038846062
 21
11.31847521364296
 31
0.0
  0
LINE
  5
936
330
738
100
AcDbEntity
  8
DIM
 62
     0
370
    -2
100
AcDbLine
 10
3.106750038846061
 20
9.798475213642973
 30
0.0
 11
3.106750038846061
 21
9.438475213642972
 31
0.0
  0
SOLID
  5
937
330
738
100
AcDbEntity
  8
DIM
 62
     0
100
AcDbTrace
 10
3.046750038846061
 20
10.95847521364296
 30
0.0
 11
3.166750038846061
 21
10.95847521364296
 31
0.0
 12
3.106750038846061
 22
10.59847521364296
 32
0.0
 13
3.106750038846061
 23
10.59847521364296
 33
0.0
  0
SOLID
  5
938
330
738
100
AcDbEntity
  8
DIM
 62
     0
100
AcDbTrace
 10
3.046750038846061
 20
9.798475213642973
 30
0.0
 11
3.166750038846061
 21
9.798475213642973
 31
0.0
 12
3.106750038846061
 22
10.15847521364297
 32
0.0
 13
3.106750038846061
 23
10.15847521364297
 33
0.0
  0
MTEXT
  5
939
330
738
100
AcDbEntity
  8
DIM
 62
     0
100
AcDbMText
 10
3.10675003884606
 20
10.37847521364296
 30
0.0
 40
0.25
 41
0.0
 71
     5
 72
     1
  1
\A1;0.440
 73
     1
 44
1.0
  0
POINT
  5
93A
330
738
100
AcDbEntity
  8
DEFPOINTS
 62
     0
100
AcDbPoint
 10
4.596509143284006
 20
10.59847521364296
 30
0.0
  0
POINT
  5
93B
330
738
100
AcDbEntity
  8
DEFPOINTS
 62
     0
100
AcDbPoint
 10
4.197509143284018
 20
10.15847521364297
 30
0.0
  0
POINT
  5
93C
330
738
100
AcDbEntity
  8
DEFPOINTS
 62
     0
100
AcDbPoint
 10
3.106750038846061
 20
10.15847521364297
 30
0.0
  0
ENDBLK
  5
744
330
738
100
AcDbEntity
  8
0
100
AcDbBlockEnd
  0
BLOCK
  5
750
330
745
100
AcDbEntity
  8
0
100
AcDbBlockBegin
  2
*D34
 70
     1
 10
0.0
 20
0.0
 30
0.0
  3
*D34
  1

  0
LINE
  5
7B1
330
745
100
AcDbEntity
  8
DIM
 62
     0
370
    -2
100
AcDbLine
 10
16.07762805245135
 20
2.832671246689939
 30
0.0
 11
15.31582237203914
 21
2.832671246689939
 31
0.0
  0
LINE
  5
7B2
330
745
100
AcDbEntity
  8
DIM
 62
     0
370
    -2
100
AcDbLine
 10
16.07762805245135
 20
0.467671246689943
 30
0.0
 11
15.31582237203914
 21
0.4676712466899433
 31
0.0
  0
LINE
  5
7B3
330
745
100
AcDbEntity
  8
DIM
 62
     0
370
    -2
100
AcDbLine
 10
15.50182237203914
 20
2.472671246689939
 30
0.0
 11
15.50182237203914
 21
1.955171246689941
 31
0.0
  0
LINE
  5
7B4
330
745
100
AcDbEntity
  8
DIM
 62
     0
370
    -2
100
AcDbLine
 10
15.50182237203914
 20
0.8276712466899429
 30
0.0
 11
15.50182237203914
 21
1.345171246689942
 31
0.0
  0
SOLID
  5
7B5
330
745
100
AcDbEntity
  8
DIM
 62
     0
100
AcDbTrace
 10
15.44182237203914
 20
2.472671246689939
 30
0.0
 11
15.56182237203914
 21
2.472671246689939
 31
0.0
 12
15.50182237203914
 22
2.832671246689939
 32
0.0
 13
15.50182237203914
 23
2.832671246689939
 33
0.0
  0
SOLID
  5
7B6
330
745
100
AcDbEntity
  8
DIM
 62
     0
100
AcDbTrace
 10
15.44182237203914
 20
0.8276712466899429
 30
0.0
 11
15.56182237203914
 21
0.8276712466899429
 31
0.0
 12
15.50182237203914
 22
0.4676712466899433
 32
0.0
 13
15.50182237203914
 23
0.4676712466899433
 33
0.0
  0
MTEXT
  5
7B7
330
745
100
AcDbEntity
  8
DIM
 62
     0
100
AcDbMText
 10
15.50182237203914
 20
1.650171246689943
 30
0.0
 40
0.25
 41
0.0
 71
     5
 72
     1
  1
\A1;2.365
 73
     1
 44
1.0
  0
POINT
  5
7B8
330
745
100
AcDbEntity
  8
DEFPOINTS
 62
     0
100
AcDbPoint
 10
16.20362805245135
 20
2.832671246689939
 30
0.0
  0
POINT
  5
7B9
330
745
100
AcDbEntity
  8
DEFPOINTS
 62
     0
100
AcDbPoint
 10
16.20362805245135
 20
0.467671246689943
 30
0.0
  0
POINT
  5
7BA
330
745
100
AcDbEntity
  8
DEFPOINTS
 62
     0
100
AcDbPoint
 10
15.50182237203914
 20
0.4676712466899433
 30
0.0
  0
ENDBLK
  5
751
330
745
100
AcDbEntity
  8
0
100
AcDbBlockEnd
  0
BLOCK
  5
75D
330
752
100
AcDbEntity
  8
0
100
AcDbBlockBegin
  2
*D35
 70
     1
 10
0.0
 20
0.0
 30
0.0
  3
*D35
  1

  0
LINE
  5
8AF
330
752
100
AcDbEntity
  8
DIM
 62
     0
370
    -2
100
AcDbLine
 10
4.467509143284011
 20
13.69597521364297
 30
0.0
 11
3.118364251489126
 21
13.69597521364297
 31
0.0
  0
LINE
  5
8B0
330
752
100
AcDbEntity
  8
DIM
 62
     0
370
    -2
100
AcDbLine
 10
3.908216541920731
 20
12.95097521364297
 30
0.0
 11
3.118364251489126
 21
12.95097521364297
 31
0.0
  0
LINE
  5
8B1
330
752
100
AcDbEntity
  8
DIM
 62
     0
370
    -2
100
AcDbLine
 10
3.304364251489126
 20
14.05597521364297
 30
0.0
 11
3.304364251489126
 21
14.41597521364297
 31
0.0
  0
LINE
  5
8B2
330
752
100
AcDbEntity
  8
DIM
 62
     0
370
    -2
100
AcDbLine
 10
3.304364251489126
 20
12.59097521364297
 30
0.0
 11
3.304364251489126
 21
12.23097521364297
 31
0.0
  0
SOLID
  5
8B3
330
752
100
AcDbEntity
  8
DIM
 62
     0
100
AcDbTrace
 10
3.244364251489126
 20
14.05597521364297
 30
0.0
 11
3.364364251489126
 21
14.05597521364297
 31
0.0
 12
3.304364251489126
 22
13.69597521364297
 32
0.0
 13
3.304364251489126
 23
13.69597521364297
 33
0.0
  0
SOLID
  5
8B4
330
752
100
AcDbEntity
  8
DIM
 62
     0
100
AcDbTrace
 10
3.244364251489125
 20
12.59097521364297
 30
0.0
 11
3.364364251489126
 21
12.59097521364297
 31
0.0
 12
3.304364251489126
 22
12.95097521364297
 32
0.0
 13
3.304364251489126
 23
12.95097521364297
 33
0.0
  0
MTEXT
  5
8B5
330
752
100
AcDbEntity
  8
DIM
 62
     0
100
AcDbMText
 10
3.304364251489123
 20
13.32347521364297
 30
0.0
 40
0.25
 41
0.0
 71
     5
 72
     1
  1
\A1;0.745
 73
     1
 44
1.0
  0
POINT
  5
8B6
330
752
100
AcDbEntity
  8
DEFPOINTS
 62
     0
100
AcDbPoint
 10
4.593509143284012
 20
13.69597521364297
 30
0.0
  0
POINT
  5
8B7
330
752
100
AcDbEntity
  8
DEFPOINTS
 62
     0
100
AcDbPoint
 10
4.034216541920732
 20
12.95097521364297
 30
0.0
  0
POINT
  5
8B8
330
752
100
AcDbEntity
  8
DEFPOINTS
 62
     0
100
AcDbPoint
 10
3.304364251489126
 20
12.95097521364297
 30
0.0
  0
ENDBLK
  5
75E
330
752
100
AcDbEntity
  8
0
100
AcDbBlockEnd
  0
BLOCK
  5
76A
330
75F
100
AcDbEntity
  8
0
100
AcDbBlockBegin
  2
*D36
 70
     1
 10
0.0
 20
0.0
 30
0.0
  3
*D36
  1

  0
LINE
  5
8A5
330
75F
100
AcDbEntity
  8
DIM
 62
     0
370
    -2
100
AcDbLine
 10
3.908216541920731
 20
12.95097521364297
 30
0.0
 11
1.804364251489126
 21
12.95097521364297
 31
0.0
  0
LINE
  5
8A6
330
75F
100
AcDbEntity
  8
DIM
 62
     0
370
    -2
100
AcDbLine
 10
3.908216541920731
 20
11.46097521364297
 30
0.0
 11
1.804364251489124
 21
11.46097521364297
 31
0.0
  0
LINE
  5
8A7
330
75F
100
AcDbEntity
  8
DIM
 62
     0
370
    -2
100
AcDbLine
 10
1.990364251489125
 20
13.31097521364297
 30
0.0
 11
1.990364251489125
 21
13.67097521364297
 31
0.0
  0
LINE
  5
8A8
330
75F
100
AcDbEntity
  8
DIM
 62
     0
370
    -2
100
AcDbLine
 10
1.990364251489124
 20
11.10097521364297
 30
0.0
 11
1.990364251489124
 21
10.74097521364297
 31
0.0
  0
SOLID
  5
8A9
330
75F
100
AcDbEntity
  8
DIM
 62
     0
100
AcDbTrace
 10
1.930364251489126
 20
13.31097521364297
 30
0.0
 11
2.050364251489126
 21
13.31097521364297
 31
0.0
 12
1.990364251489125
 22
12.95097521364297
 32
0.0
 13
1.990364251489125
 23
12.95097521364297
 33
0.0
  0
SOLID
  5
8AA
330
75F
100
AcDbEntity
  8
DIM
 62
     0
100
AcDbTrace
 10
1.930364251489124
 20
11.10097521364297
 30
0.0
 11
2.050364251489126
 21
11.10097521364297
 31
0.0
 12
1.990364251489124
 22
11.46097521364297
 32
0.0
 13
1.990364251489124
 23
11.46097521364297
 33
0.0
  0
MTEXT
  5
8AB
330
75F
100
AcDbEntity
  8
DIM
 62
     0
100
AcDbMText
 10
1.990364251489124
 20
12.20597521364297
 30
0.0
 40
0.25
 41
0.0
 71
     5
 72
     1
  1
\A1;1.490
 73
     1
 44
1.0
  0
POINT
  5
8AC
330
75F
100
AcDbEntity
  8
DEFPOINTS
 62
     0
100
AcDbPoint
 10
4.034216541920732
 20
12.95097521364297
 30
0.0
  0
POINT
  5
8AD
330
75F
100
AcDbEntity
  8
DEFPOINTS
 62
     0
100
AcDbPoint
 10
4.034216541920732
 20
11.46097521364297
 30
0.0
  0
POINT
  5
8AE
330
75F
100
AcDbEntity
  8
DEFPOINTS
 62
     0
100
AcDbPoint
 10
1.990364251489124
 20
11.46097521364297
 30
0.0
  0
ENDBLK
  5
76B
330
75F
100
AcDbEntity
  8
0
100
AcDbBlockEnd
  0
BLOCK
  5
777
330
76C
100
AcDbEntity
  8
0
100
AcDbBlockBegin
  2
*D37
 70
     1
 10
0.0
 20
0.0
 30
0.0
  3
*D37
  1

  0
LINE
  5
89B
330
76C
100
AcDbEntity
  8
DIM
 62
     0
370
    -2
100
AcDbLine
 10
4.467509143284011
 20
13.69597521364297
 30
0.0
 11
2.368364251489126
 21
13.69597521364297
 31
0.0
  0
LINE
  5
89C
330
76C
100
AcDbEntity
  8
DIM
 62
     0
370
    -2
100
AcDbLine
 10
3.908216541920729
 20
14.44097521364298
 30
0.0
 11
2.368364251489126
 21
14.44097521364298
 31
0.0
  0
LINE
  5
89D
330
76C
100
AcDbEntity
  8
DIM
 62
     0
370
    -2
100
AcDbLine
 10
2.554364251489126
 20
13.33597521364297
 30
0.0
 11
2.554364251489124
 21
12.97597521364297
 31
0.0
  0
LINE
  5
89E
330
76C
100
AcDbEntity
  8
DIM
 62
     0
370
    -2
100
AcDbLine
 10
2.554364251489126
 20
14.80097521364298
 30
0.0
 11
2.554364251489126
 21
15.16097521364298
 31
0.0
  0
SOLID
  5
89F
330
76C
100
AcDbEntity
  8
DIM
 62
     0
100
AcDbTrace
 10
2.494364251489125
 20
13.33597521364297
 30
0.0
 11
2.614364251489126
 21
13.33597521364297
 31
0.0
 12
2.554364251489126
 22
13.69597521364297
 32
0.0
 13
2.554364251489126
 23
13.69597521364297
 33
0.0
  0
SOLID
  5
8A0
330
76C
100
AcDbEntity
  8
DIM
 62
     0
100
AcDbTrace
 10
2.494364251489125
 20
14.80097521364298
 30
0.0
 11
2.614364251489126
 21
14.80097521364298
 31
0.0
 12
2.554364251489126
 22
14.44097521364298
 32
0.0
 13
2.554364251489126
 23
14.44097521364298
 33
0.0
  0
MTEXT
  5
8A1
330
76C
100
AcDbEntity
  8
DIM
 62
     0
100
AcDbMText
 10
2.554364251489122
 20
14.06847521364297
 30
0.0
 40
0.25
 41
0.0
 71
     5
 72
     1
  1
\A1;0.745
 73
     1
 44
1.0
  0
POINT
  5
8A2
330
76C
100
AcDbEntity
  8
DEFPOINTS
 62
     0
100
AcDbPoint
 10
4.593509143284012
 20
13.69597521364297
 30
0.0
  0
POINT
  5
8A3
330
76C
100
AcDbEntity
  8
DEFPOINTS
 62
     0
100
AcDbPoint
 10
4.034216541920732
 20
14.44097521364297
 30
0.0
  0
POINT
  5
8A4
330
76C
100
AcDbEntity
  8
DEFPOINTS
 62
     0
100
AcDbPoint
 10
2.554364251489126
 20
14.44097521364298
 30
0.0
  0
ENDBLK
  5
778
330
76C
100
AcDbEntity
  8
0
100
AcDbBlockEnd
  0
BLOCK
  5
784
330
779
100
AcDbEntity
  8
0
100
AcDbBlockBegin
  2
*D38
 70
     1
 10
0.0
 20
0.0
 30
0.0
  3
*D38
  1

  0
LINE
  5
87D
330
779
100
AcDbEntity
  8
DIM
 62
     0
370
    -2
100
AcDbLine
 10
3.908216541920729
 20
14.44097521364298
 30
0.0
 11
1.618364251489125
 21
14.44097521364298
 31
0.0
  0
LINE
  5
87E
330
779
100
AcDbEntity
  8
DIM
 62
     0
370
    -2
100
AcDbLine
 10
3.908216541920731
 20
15.93097521364297
 30
0.0
 11
1.618364251489126
 21
15.93097521364297
 31
0.0
  0
LINE
  5
87F
330
779
100
AcDbEntity
  8
DIM
 62
     0
370
    -2
100
AcDbLine
 10
1.804364251489124
 20
14.08097521364298
 30
0.0
 11
1.804364251489124
 21
13.72097521364298
 31
0.0
  0
LINE
  5
880
330
779
100
AcDbEntity
  8
DIM
 62
     0
370
    -2
100
AcDbLine
 10
1.804364251489126
 20
16.29097521364297
 30
0.0
 11
1.804364251489126
 21
16.65097521364297
 31
0.0
  0
SOLID
  5
881
330
779
100
AcDbEntity
  8
DIM
 62
     0
100
AcDbTrace
 10
1.744364251489124
 20
14.08097521364298
 30
0.0
 11
1.864364251489124
 21
14.08097521364298
 31
0.0
 12
1.804364251489124
 22
14.44097521364298
 32
0.0
 13
1.804364251489124
 23
14.44097521364298
 33
0.0
  0
SOLID
  5
882
330
779
100
AcDbEntity
  8
DIM
 62
     0
100
AcDbTrace
 10
1.744364251489124
 20
16.29097521364297
 30
0.0
 11
1.864364251489126
 21
16.29097521364297
 31
0.0
 12
1.804364251489126
 22
15.93097521364297
 32
0.0
 13
1.804364251489126
 23
15.93097521364297
 33
0.0
  0
MTEXT
  5
883
330
779
100
AcDbEntity
  8
DIM
 62
     0
100
AcDbMText
 10
1.804364251489123
 20
15.18597521364297
 30
0.0
 40
0.25
 41
0.0
 71
     5
 72
     1
  1
\A1;1.490
 73
     1
 44
1.0
  0
POINT
  5
884
330
779
100
AcDbEntity
  8
DEFPOINTS
 62
     0
100
AcDbPoint
 10
4.034216541920732
 20
14.44097521364297
 30
0.0
  0
POINT
  5
885
330
779
100
AcDbEntity
  8
DEFPOINTS
 62
     0
100
AcDbPoint
 10
4.034216541920732
 20
15.93097521364297
 30
0.0
  0
POINT
  5
886
330
779
100
AcDbEntity
  8
DEFPOINTS
 62
     0
100
AcDbPoint
 10
1.804364251489126
 20
15.93097521364297
 30
0.0
  0
ENDBLK
  5
785
330
779
100
AcDbEntity
  8
0
100
AcDbBlockEnd
  0
BLOCK
  5
791
330
786
100
AcDbEntity
  8
0
100
AcDbBlockBegin
  2
*D39
 70
     1
 10
0.0
 20
0.0
 30
0.0
  3
*D39
  1

  0
LINE
  5
822
330
786
100
AcDbEntity
  8
DIM
 62
     0
370
    -2
100
AcDbLine
 10
7.590509143284013
 20
4.711483199783378
 30
0.0
 11
7.11196991688008
 21
4.711483199783378
 31
0.0
  0
LINE
  5
823
330
786
100
AcDbEntity
  8
DIM
 62
     0
370
    -2
100
AcDbLine
 10
7.590509143284013
 20
6.719483199783391
 30
0.0
 11
7.111969916880082
 21
6.719483199783391
 31
0.0
  0
LINE
  5
824
330
786
100
AcDbEntity
  8
DIM
 62
     0
370
    -2
100
AcDbLine
 10
7.29796991688008
 20
5.071483199783378
 30
0.0
 11
7.29796991688008
 21
5.410483199783384
 31
0.0
  0
LINE
  5
825
330
786
100
AcDbEntity
  8
DIM
 62
     0
370
    -2
100
AcDbLine
 10
7.297969916880082
 20
6.359483199783389
 30
0.0
 11
7.297969916880082
 21
6.020483199783383
 31
0.0
  0
SOLID
  5
826
330
786
100
AcDbEntity
  8
DIM
 62
     0
100
AcDbTrace
 10
7.23796991688008
 20
5.071483199783378
 30
0.0
 11
7.357969916880079
 21
5.071483199783378
 31
0.0
 12
7.29796991688008
 22
4.711483199783378
 32
0.0
 13
7.29796991688008
 23
4.711483199783378
 33
0.0
  0
SOLID
  5
827
330
786
100
AcDbEntity
  8
DIM
 62
     0
100
AcDbTrace
 10
7.237969916880081
 20
6.359483199783389
 30
0.0
 11
7.35796991688008
 21
6.359483199783389
 31
0.0
 12
7.297969916880082
 22
6.719483199783391
 32
0.0
 13
7.297969916880082
 23
6.719483199783391
 33
0.0
  0
MTEXT
  5
828
330
786
100
AcDbEntity
  8
DIM
 62
     0
100
AcDbMText
 10
7.297969916880079
 20
5.715483199783387
 30
0.0
 40
0.25
 41
0.0
 71
     5
 72
     1
  1
\A1;2.008
 73
     1
 44
1.0
  0
POINT
  5
829
330
786
100
AcDbEntity
  8
DEFPOINTS
 62
     0
100
AcDbPoint
 10
7.716509143284013
 20
4.711483199783378
 30
0.0
  0
POINT
  5
82A
330
786
100
AcDbEntity
  8
DEFPOINTS
 62
     0
100
AcDbPoint
 10
7.716509143284013
 20
6.719483199783391
 30
0.0
  0
POINT
  5
82B
330
786
100
AcDbEntity
  8
DEFPOINTS
 62
     0
100
AcDbPoint
 10
7.297969916880082
 20
6.719483199783391
 30
0.0
  0
ENDBLK
  5
792
330
786
100
AcDbEntity
  8
0
100
AcDbBlockEnd
  0
ENDSEC
  0
SECTION
  2
ENTITIES
  0
TEXT
  5
2EA
330
1E
100
AcDbEntity
  8
TEXT
100
AcDbText
 10
20.7726965789683
 20
18.02152136937596
 30
0.0
 40
0.25
  1
(NO SUFFIX) UL94V-O FLAME RETARDANT ABS
 41
0.75
100
AcDbText
  0
TEXT
  5
2EB
330
1E
100
AcDbEntity
  8
TEXT
100
AcDbText
 10
20.7726965789683
 20
16.77152136937596
 30
0.0
 40
0.25
  1
(SUFFIX -A) UL94V-O FLAME RETARDANT ABS
 41
0.75
100
AcDbText
  0
TEXT
  5
2EC
330
1E
100
AcDbEntity
  8
TEXT
100
AcDbText
 10
23.05011395331851
 20
17.60485470270928
 30
0.0
 40
0.25
  1
DARK GRAY PLASTIC COVERS WITH
 41
0.75
100
AcDbText
  0
TEXT
  5
2ED
330
1E
100
AcDbEntity
  8
TEXT
100
AcDbText
 10
23.05011395331851
 20
12.58080631225742
 30
0.0
 40
0.25
  1
FOUR (4) M3 x 1.750" LG. SCREWS
 41
0.75
100
AcDbText
  0
TEXT
  5
2EE
330
1E
100
AcDbEntity
  8
TEXT
100
AcDbText
 10
23.05011395331851
 20
11.38256577161676
 30
0.0
 40
0.25
  1
FOUR (4) RUBBER SELF-ADHESIVE
 41
0.75
100
AcDbText
  0
TEXT
  5
2EF
330
1E
100
AcDbEntity
  8
TEXT
100
AcDbText
 10
23.05011395331851
 20
16.35485470270928
 30
0.0
 40
0.25
  1
DARK GRAY PLASTIC COVERS WITH
 41
0.75
100
AcDbText
  0
TEXT
  5
2F0
330
1E
100
AcDbEntity
  8
TEXT
100
AcDbText
 10
23.05011395331851
 20
15.10485470270928
 30
0.0
 40
0.25
  1
LIGHT GRAY PLASTIC COVERS WITH
 41
0.75
100
AcDbText
  0
TEXT
  5
2F1
330
1E
100
AcDbEntity
  8
TEXT
100
AcDbText
 10
23.05011395331851
 20
15.93818803604263
 30
0.0
 40
0.25
  1
NATURAL FINISH ALUMINUM PANELS.
 41
0.75
100
AcDbText
  0
TEXT
  5
2F2
330
1E
100
AcDbEntity
  8
TEXT
100
AcDbText
 10
23.05011395331851
 20
13.85685470270928
 30
0.0
 40
0.25
  1
LIGHT GRAY PLASTIC COVERS WITH
 41
0.75
100
AcDbText
  0
TEXT
  5
2F3
330
1E
100
AcDbEntity
  8
TEXT
100
AcDbText
 10
23.05011395331851
 20
13.44018803604261
 30
0.0
 40
0.25
  1
NATURAL FINISH ALUMINUM PANELS.
 41
0.75
100
AcDbText
  0
TEXT
  5
2F4
330
1E
100
AcDbEntity
  8
TEXT
100
AcDbText
 10
23.05011395331851
 20
10.96589910495008
 30
0.0
 40
0.25
  1
FEET SUPPLIED.
 41
0.75
100
AcDbText
  0
TEXT
  5
2F5
330
1E
100
AcDbEntity
  8
TEXT
100
AcDbText
 10
23.05011395331851
 20
12.16413964559076
 30
0.0
 40
0.25
  1
SUPPLIED FOR ASSEMBLY.
 41
0.75
100
AcDbText
  0
TEXT
  5
2F6
330
1E
100
AcDbEntity
  8
TEXT
100
AcDbText
 10
20.56957925136634
 20
15.52152136937595
 30
0.0
 40
0.25
  1
(SUFFIX -LG) HIGH-IMPACT ABS
 41
0.75
100
AcDbText
  0
TEXT
  5
2F7
330
1E
100
AcDbEntity
  8
TEXT
100
AcDbText
 10
20.38225542441278
 20
18.43818803604262
 30
0.0
 40
0.25
  1
%%uMATERIAL & FINISH:
 41
0.75
100
AcDbText
  0
TEXT
  5
2F8
330
1E
100
AcDbEntity
  8
TEXT
100
AcDbText
 10
20.38225542441278
 20
14.27352136937594
 30
0.0
 40
0.25
  1
(SUFFIX -LGA) HIGH-IMPACT ABS
 41
0.75
100
AcDbText
  0
TEXT
  5
2F9
330
1E
100
AcDbEntity
  8
TEXT
100
AcDbText
 10
23.05011395331851
 20
14.68818803604261
 30
0.0
 40
0.25
  1
BLACK PLASTIC PANELS.
 41
0.75
100
AcDbText
  0
TEXT
  5
2FA
330
1E
100
AcDbEntity
  8
TEXT
100
AcDbText
 10
0.4156666666666691
 20
19.36015839128016
 30
0.0
 40
0.25
  1
NAME
 72
     1
 11
0.8740000000000023
 21
19.36015839128016
 31
0.0
100
AcDbText
  0
TEXT
  5
2FB
330
1E
100
AcDbEntity
  8
TEXT
100
AcDbText
 10
0.4156666666666691
 20
19.77682505794682
 30
0.0
 40
0.25
  1
PART
 72
     1
 11
0.8740000000000023
 21
19.77682505794682
 31
0.0
100
AcDbText
  0
TEXT
  5
2FC
330
1E
100
AcDbEntity
  8
TEXT
100
AcDbText
 10
11.24799999999998
 20
19.36015839128016
 30
0.0
 40
0.25
  1
No.
 72
     1
 11
11.49799999999998
 21
19.36015839128016
 31
0.0
100
AcDbText
  0
TEXT
  5
2FD
330
1E
100
AcDbEntity
  8
TEXT
100
AcDbText
 10
11.03966666666664
 20
19.77682505794682
 30
0.0
 40
0.25
  1
PART
 72
     1
 11
11.49799999999998
 21
19.77682505794682
 31
0.0
100
AcDbText
  0
LINE
  5
2FE
330
1E
100
AcDbEntity
  8
TITLE
100
AcDbLine
 10
12.24799999999999
 20
20.116
 30
0.0
 11
12.24799999999999
 21
19.28
 31
0.0
  0
LINE
  5
2FF
330
1E
100
AcDbEntity
  8
TITLE
100
AcDbLine
 10
10.74799999999998
 20
20.116
 30
0.0
 11
10.74799999999998
 21
19.28
 31
0.0
  0
LINE
  5
300
330
1E
100
AcDbEntity
  8
TITLE
100
AcDbLine
 10
10.62399999999999
 20
20.116
 30
0.0
 11
10.62399999999999
 21
19.28
 31
0.0
  0
LINE
  5
301
330
1E
100
AcDbEntity
  8
TITLE
100
AcDbLine
 10
1.624000000000002
 20
19.28
 30
0.0
 11
1.623999999999995
 21
20.116
 31
0.0
  0
LINE
  5
302
330
1E
100
AcDbEntity
  8
TITLE
100
AcDbLine
 10
0.1239999999999952
 20
19.28
 30
0.0
 11
30.87599999999999
 21
19.28
 31
0.0
  0
LWPOLYLINE
  5
303
330
1E
100
AcDbEntity
  8
TITLE
100
AcDbPolyline
 90
        4
 70
     1
 43
0.0
 10
31.0
 20
20.23999999999998
 10
30.99999999999998
 20
0.0
 10
0.0
 20
0.0
 10
0.0
 20
20.23999999999998
  0
LWPOLYLINE
  5
309
330
1E
100
AcDbEntity
  8
TITLE
100
AcDbPolyline
 90
        4
 70
     1
 43
0.0
 10
30.87599999999999
 20
20.116
 10
30.87599999999999
 20
0.1240000000000023
 10
0.1240000000000023
 20
0.1240000000000023
 10
0.1240000000000023
 20
20.116
  0
TEXT
  5
30F
330
1E
100
AcDbEntity
  8
TEXT
100
AcDbText
 10
13.29899999999998
 20
19.542
 30
0.0
 40
0.312
  1
PC-11482  &  PC-11482-A  &  PC-11482-LG  &  PC-11482-LGA
 41
0.75
 72
     4
 11
19.49999999999999
 21
19.698
 31
0.0
100
AcDbText
  0
TEXT
  5
310
330
1E
100
AcDbEntity
  8
TEXT
100
AcDbText
 10
3.822999999999997
 20
19.542
 30
0.0
 40
0.312
  1
PLASTICASE  (STYLE D)
 41
0.75
 72
     4
 11
6.123999999999997
 21
19.698
 31
0.0
100
AcDbText
  0
TEXT
  5
311
330
1E
100
AcDbEntity
  8
TEXT
100
AcDbText
 10
23.05011395331851
 20
17.18818803604263
 30
0.0
 40
0.25
  1
LIGHT GRAY PLASTIC PANELS.
 41
0.75
100
AcDbText
  0
LWPOLYLINE
  5
312
330
1E
100
AcDbEntity
  8
OBJECT
100
AcDbPolyline
 90
       82
 70
     0
 43
0.0
 10
12.30749115378755
 20
17.23347521364295
 10
12.60501896478164
 20
16.82248820366292
 10
12.65435092583533
 20
16.6950807560958
 10
12.66262108109161
 20
16.58050665686799
 10
12.64270505537376
 20
16.48385657998682
 10
12.60747847350494
 20
16.38772119945965
 10
12.56981696030844
 20
16.29719118929378
 10
12.54259614060745
 20
16.20985722349657
 10
12.535625428656
 20
16.1236828479398
 10
12.54644939643128
 20
16.03812309595324
 10
12.56954640534124
 20
15.95300587273107
 10
12.59939481679386
 20
15.86815908346752
 10
12.63047299219707
 20
15.78341063335681
 10
12.65725929295888
 20
15.69858842759314
 10
12.67423208048723
 20
15.61352037137074
 10
12.67586971619008
 20
15.52803436988382
 10
12.65851365333318
 20
15.44200340081406
 10
12.62595771261346
 20
15.35548073179308
 10
12.58385880658557
 20
15.26856470293996
 10
12.53787384780421
 20
15.18135365437375
 10
12.49365974882407
 20
15.09394592621355
 10
12.45687342219982
 20
15.00643985857844
 10
12.43317178048616
 20
14.91893379158749
 10
12.42821173623777
 20
14.83152606535978
 10
12.44562519128683
 20
14.74434779986621
 10
12.48094400457543
 20
14.6576612344849
 10
12.52767502432321
 20
14.57176138844581
 10
12.57932509874972
 20
14.48694328097889
 10
12.62940107607458
 20
14.40350193131409
 10
12.67140980451738
 20
14.32173235868136
 10
12.69885813229771
 20
14.24192958231065
 10
12.70525290763518
 20
14.16438862143191
 10
12.68633095001796
 20
14.08926927808106
 10
12.64674896400856
 20
14.0161904855179
 10
12.59339362543804
 20
13.94463595980819
 10
12.53315161013747
 20
13.87408941701769
 10
12.47290959393795
 20
13.80403457321219
 10
12.41955425267053
 20
13.73395514445744
 10
12.3799722621663
 20
13.66333484681919
 10
12.36105029825633
 20
13.59165739636323
 10
12.36742047031549
 20
13.5184761664847
 10
12.3946966218939
 20
13.44362315989616
 10
12.43623803008543
 20
13.36700003663961
 10
12.48540397198397
 20
13.28850845675699
 10
12.53555372468341
 20
13.20805008029027
 10
12.58004656527764
 20
13.12552656728141
 10
12.61224177086057
 20
13.04083957777236
 10
12.62549861852608
 20
12.95389077180511
 10
12.61535306679502
 20
12.86476619664835
 10
12.58604779989614
 20
12.77428944847766
 10
12.54400218348512
 20
12.68346851069541
 10
12.49563558321767
 20
12.59331136670392
 10
12.44736736474947
 20
12.50482599990554
 10
12.40561689373625
 20
12.41902039370262
 10
12.37680353583368
 20
12.33690253149749
 10
12.36734665669746
 20
12.25948039669249
 10
12.38148074207305
 20
12.18738090581556
 10
12.41470075806496
 20
12.11970670789701
 10
12.46031679086745
 20
12.0551793850928
 10
12.51163892667475
 20
11.99252051955878
 10
12.56197725168117
 20
11.93045169345092
 10
12.60464185208094
 20
11.86769448892514
 10
12.63294281406833
 20
11.8029704881373
 10
12.64019022383759
 20
11.7350012732434
 10
12.62199792463916
 20
11.66289768822994
 10
12.58319478794817
 20
11.58732762440609
 10
12.53091344229592
 20
11.50934823491166
 10
12.47228651621371
 20
11.43001667288645
 10
12.41444663823286
 20
11.35039009147023
 10
12.36452643688465
 20
11.27152564380283
 10
12.32965854070038
 20
11.19448048302402
 10
12.31697557821137
 20
11.12031176227364
 10
12.33105431940497
 20
11.04965254416927
 10
12.36624810009279
 20
10.9814395292399
 10
12.41435439754248
 20
10.91418532749228
 10
12.46717068902171
 20
10.84640254893319
 10
12.51649445179815
 20
10.78410380356945
 10
12.55412316313944
 20
10.71080170140777
 10
12.57185430031326
 20
10.632508852455
 10
12.56148534058728
 20
10.54773786671787
 10
12.51950735877908
 20
10.45525539875927
 10
12.34712926407707
 20
10.15847521364297
  0
LINE
  5
366
330
1E
100
AcDbEntity
  8
HIDDEN
100
AcDbLine
 10
14.31750914328406
 20
17.04847521364294
 30
0.0
 11
14.31750914328399
 21
10.34347521364296
 31
0.0
  0
LINE
  5
367
330
1E
100
AcDbEntity
  8
HIDDEN
100
AcDbLine
 10
14.36750914328401
 20
10.34347521364296
 30
0.0
 11
14.36750914328401
 21
17.04847521364294
 31
0.0
  0
LINE
  5
368
330
1E
100
AcDbEntity
  8
OBJECT
100
AcDbLine
 10
14.43750914328401
 20
10.15847521364297
 30
0.0
 11
14.43750914328401
 21
17.23347521364295
 31
0.0
  0
LINE
  5
369
330
1E
100
AcDbEntity
  8
OBJECT
100
AcDbLine
 10
4.214850912115839
 20
10.17347521364297
 30
0.0
 11
4.214850912115839
 21
17.21847521364295
 31
0.0
  0
LINE
  5
36A
330
1E
100
AcDbEntity
  8
OBJECT
100
AcDbLine
 10
4.267509143284022
 20
17.04847521364297
 30
0.0
 11
4.267509143284008
 21
10.34347521364296
 31
0.0
  0
LINE
  5
36B
330
1E
100
AcDbEntity
  8
OBJECT
100
AcDbLine
 10
4.317509143284019
 20
17.15847521364296
 30
0.0
 11
4.317509143284006
 21
10.23347521364296
 31
0.0
  0
LINE
  5
36C
330
1E
100
AcDbEntity
  8
OBJECT
100
AcDbLine
 10
4.197509143284018
 20
17.23347521364295
 30
0.0
 11
4.197509143284005
 21
10.15847521364297
 31
0.0
  0
LINE
  5
36D
330
1E
100
AcDbEntity
  8
OBJECT
100
AcDbLine
 10
4.317509143284006
 20
10.23347521364296
 30
0.0
 11
12.38197891442708
 21
10.23347521364296
 31
0.0
  0
LINE
  5
36E
330
1E
100
AcDbEntity
  8
OBJECT
100
AcDbLine
 10
4.317509143284006
 20
10.30347521364296
 30
0.0
 11
12.42263683983547
 21
10.30347521364296
 31
0.0
  0
LINE
  5
36F
330
1E
100
AcDbEntity
  8
OBJECT
100
AcDbLine
 10
4.267509143284008
 20
10.34347521364296
 30
0.0
 11
12.44586994006881
 21
10.34347521364296
 31
0.0
  0
LINE
  5
370
330
1E
100
AcDbEntity
  8
OBJECT
100
AcDbLine
 10
4.197509143284005
 20
10.15847521364297
 30
0.0
 11
14.43750914328401
 21
10.15847521364297
 31
0.0
  0
LINE
  5
371
330
1E
100
AcDbEntity
  8
OBJECT
100
AcDbLine
 10
4.197509143284003
 20
5.705483199783381
 30
0.0
 11
4.217001608344486
 21
4.588760624379168
 31
0.0
  0
LINE
  5
372
330
1E
100
AcDbEntity
  8
OBJECT
100
AcDbLine
 10
4.720509143284012
 20
4.711483199783378
 30
0.0
 11
4.938509143284009
 21
4.711483199783386
 31
0.0
  0
LINE
  5
373
330
1E
100
AcDbEntity
  8
HIDDEN
  6
HIDDEN2
100
AcDbLine
 10
4.784509143284005
 20
4.683983199783389
 30
0.0
 11
4.874509143284009
 21
4.683983199783383
 31
0.0
  0
LINE
  5
374
330
1E
100
AcDbEntity
  8
HIDDEN
  6
HIDDEN2
100
AcDbLine
 10
4.784509143284005
 20
4.493483199783383
 30
0.0
 11
4.874509143284009
 21
4.493483199783383
 31
0.0
  0
LINE
  5
375
330
1E
100
AcDbEntity
  8
HIDDEN
  6
HIDDEN2
100
AcDbLine
 10
4.757009143284009
 20
4.711483199783378
 30
0.0
 11
4.784509143284005
 21
4.683983199783389
 31
0.0
  0
LINE
  5
376
330
1E
100
AcDbEntity
  8
HIDDEN
  6
HIDDEN2
100
AcDbLine
 10
4.720509143284012
 20
4.711483199783378
 30
0.0
 11
4.720509143284012
 21
4.555483199783379
 31
0.0
  0
LINE
  5
377
330
1E
100
AcDbEntity
  8
HIDDEN
  6
HIDDEN2
100
AcDbLine
 10
4.784509143284005
 20
4.683983199783389
 30
0.0
 11
4.784509143284005
 21
4.493483199783383
 31
0.0
  0
LINE
  5
378
330
1E
100
AcDbEntity
  8
HIDDEN
  6
HIDDEN2
100
AcDbLine
 10
4.902009143284012
 20
4.711483199783378
 30
0.0
 11
4.874509143284009
 21
4.683983199783389
 31
0.0
  0
LINE
  5
379
330
1E
100
AcDbEntity
  8
OBJECT
100
AcDbLine
 10
4.938509143284009
 20
4.711483199783386
 30
0.0
 11
4.938509143284009
 21
4.555483199783379
 31
0.0
  0
LINE
  5
37A
330
1E
100
AcDbEntity
  8
HIDDEN
  6
HIDDEN2
100
AcDbLine
 10
4.874509143284009
 20
4.683983199783383
 30
0.0
 11
4.874509143284009
 21
4.493483199783383
 31
0.0
  0
LINE
  5
37B
330
1E
100
AcDbEntity
  8
OBJECT
100
AcDbLine
 10
4.217001608344512
 20
6.842205775187608
 30
0.0
 11
4.197683693933279
 21
5.735483199783388
 31
0.0
  0
LINE
  5
37C
330
1E
100
AcDbEntity
  8
OBJECT
100
AcDbLine
 10
4.267509143284
 20
5.810483199783393
 30
0.0
 11
4.317509143284
 21
5.810483199783386
 31
0.0
  0
LINE
  5
37D
330
1E
100
AcDbEntity
  8
OBJECT
100
AcDbLine
 10
4.267509143283993
 20
5.735483199783392
 30
0.0
 11
4.267509143284
 21
5.810483199783393
 31
0.0
  0
LINE
  5
37E
330
1E
100
AcDbEntity
  8
OBJECT
100
AcDbLine
 10
4.267509143283995
 20
5.79048319978338
 30
0.0
 11
4.317509143284
 21
5.790483199783393
 31
0.0
  0
LINE
  5
37F
330
1E
100
AcDbEntity
  8
OBJECT
100
AcDbLine
 10
4.267509143283993
 20
5.735483199783392
 30
0.0
 11
4.197683693933279
 21
5.735483199783388
 31
0.0
  0
LINE
  5
380
330
1E
100
AcDbEntity
  8
OBJECT
100
AcDbLine
 10
4.216509143284
 20
5.735483199783382
 30
0.0
 11
4.216509143283991
 21
5.705483199783381
 31
0.0
  0
LINE
  5
381
330
1E
100
AcDbEntity
  8
OBJECT
100
AcDbLine
 10
4.197509143284003
 20
5.705483199783381
 30
0.0
 11
4.216509143283991
 21
5.705483199783381
 31
0.0
  0
LINE
  5
382
330
1E
100
AcDbEntity
  8
OBJECT
100
AcDbLine
 10
4.214850912115839
 20
10.17347521364297
 30
0.0
 11
4.332509143284005
 21
10.17347521364297
 31
0.0
  0
CIRCLE
  5
383
330
1E
100
AcDbEntity
  8
OBJECT
100
AcDbCircle
 10
4.596509143284006
 20
10.59847521364297
 30
0.0
 40
0.156
  0
CIRCLE
  5
384
330
1E
100
AcDbEntity
  8
OBJECT
100
AcDbCircle
 10
4.829509143284012
 20
10.97997521364298
 30
0.0
 40
0.109
  0
CIRCLE
  5
385
330
1E
100
AcDbEntity
  8
OBJECT
100
AcDbCircle
 10
4.829509143284012
 20
10.97997521364298
 30
0.0
 40
0.045
  0
CIRCLE
  5
386
330
1E
100
AcDbEntity
  8
OBJECT
100
AcDbCircle
 10
4.829509143284012
 20
10.97997521364298
 30
0.0
 40
0.0725
  0
CIRCLE
  5
387
330
1E
100
AcDbEntity
  8
OBJECT
100
AcDbCircle
 10
4.596509143284006
 20
10.59847521364297
 30
0.0
 40
0.065
  0
LINE
  5
388
330
1E
100
AcDbEntity
  8
CENTER
  6
CENTER2
100
AcDbLine
 10
4.603900663220808
 20
15.93097521364297
 30
0.0
 11
4.034216541920732
 21
15.93097521364297
 31
0.0
  0
LINE
  5
389
330
1E
100
AcDbEntity
  8
OBJECT
100
AcDbLine
 10
4.372509143284053
 20
16.00997521364296
 30
0.0
 11
4.372509143284053
 21
15.96997521364295
 31
0.0
  0
LINE
  5
38A
330
1E
100
AcDbEntity
  8
OBJECT
100
AcDbLine
 10
4.372509143284053
 20
15.85197521364297
 30
0.0
 11
4.372509143284053
 21
15.89197521364297
 31
0.0
  0
LINE
  5
38B
330
1E
100
AcDbEntity
  8
OBJECT
100
AcDbLine
 10
4.317509143284017
 20
16.00997521364296
 30
0.0
 11
4.372509143284053
 21
16.00997521364296
 31
0.0
  0
LINE
  5
38C
330
1E
100
AcDbEntity
  8
OBJECT
100
AcDbLine
 10
4.317509143284017
 20
15.96997521364295
 30
0.0
 11
4.372509143284053
 21
15.96997521364295
 31
0.0
  0
LINE
  5
38D
330
1E
100
AcDbEntity
  8
OBJECT
100
AcDbLine
 10
4.317509143284017
 20
15.89197521364296
 30
0.0
 11
4.372509143284053
 21
15.89197521364297
 31
0.0
  0
LINE
  5
38E
330
1E
100
AcDbEntity
  8
OBJECT
100
AcDbLine
 10
4.317509143284017
 20
15.85197521364296
 30
0.0
 11
4.372509143284053
 21
15.85197521364297
 31
0.0
  0
LINE
  5
38F
330
1E
100
AcDbEntity
  8
OBJECT
100
AcDbLine
 10
14.25733459263474
 20
5.695483199783392
 30
0.0
 11
14.25733459263474
 21
4.595483199783386
 31
0.0
  0
LINE
  5
390
330
1E
100
AcDbEntity
  8
OBJECT
100
AcDbLine
 10
14.41819122887277
 20
4.588760624379168
 30
0.0
 11
14.43750914328401
 21
5.695483199783389
 31
0.0
  0
LINE
  5
391
330
1E
100
AcDbEntity
  8
HIDDEN
100
AcDbLine
 10
14.31750914328401
 20
10.30347521364296
 30
0.0
 11
14.31750914328401
 21
10.23347521364296
 31
0.0
  0
LINE
  5
392
330
1E
100
AcDbEntity
  8
HIDDEN
100
AcDbLine
 10
12.44397891442709
 20
10.23347521364296
 30
0.0
 11
14.31750914328401
 21
10.23347521364296
 31
0.0
  0
LINE
  5
393
330
1E
100
AcDbEntity
  8
OBJECT
100
AcDbLine
 10
14.43768369393327
 20
5.725483199783392
 30
0.0
 11
14.41819122887278
 21
6.842205775187605
 31
0.0
  0
LINE
  5
394
330
1E
100
AcDbEntity
  8
OBJECT
100
AcDbLine
 10
14.25750914328401
 20
5.695483199783389
 30
0.0
 11
14.25750914328401
 21
6.835483199783389
 31
0.0
  0
LINE
  5
395
330
1E
100
AcDbEntity
  8
OBJECT
100
AcDbLine
 10
14.41868369393328
 20
5.695483199783389
 30
0.0
 11
14.41868369393328
 21
5.725483199783392
 31
0.0
  0
LINE
  5
396
330
1E
100
AcDbEntity
  8
OBJECT
100
AcDbLine
 10
14.43768369393327
 20
5.725483199783392
 30
0.0
 11
14.31868369393328
 21
5.725483199783392
 31
0.0
  0
LINE
  5
397
330
1E
100
AcDbEntity
  8
OBJECT
100
AcDbLine
 10
14.25733459263474
 20
5.695483199783392
 30
0.0
 11
14.43750914328401
 21
5.695483199783389
 31
0.0
  0
ARC
  5
398
330
1E
100
AcDbEntity
  8
OBJECT
100
AcDbCircle
 10
14.23950914328399
 20
6.817483199783387
 30
0.0
 40
0.078
100
AcDbArc
 50
0.0
 51
90.0
  0
LINE
  5
399
330
1E
100
AcDbEntity
  8
HIDDEN
100
AcDbLine
 10
12.48463683983546
 20
10.30347521364296
 30
0.0
 11
14.31750914328401
 21
10.30347521364296
 31
0.0
  0
LINE
  5
39A
330
1E
100
AcDbEntity
  8
HIDDEN
100
AcDbLine
 10
12.5078699400688
 20
10.34347521364296
 30
0.0
 11
14.36750914328401
 21
10.34347521364296
 31
0.0
  0
CIRCLE
  5
39B
330
1E
100
AcDbEntity
  8
HIDDEN
100
AcDbCircle
 10
14.03850914328401
 20
10.59847521364297
 30
0.0
 40
0.065
  0
CIRCLE
  5
39C
330
1E
100
AcDbEntity
  8
HIDDEN
100
AcDbCircle
 10
14.03850914328401
 20
10.59847521364297
 30
0.0
 40
0.156
  0
LINE
  5
39D
330
1E
100
AcDbEntity
  8
HIDDEN
100
AcDbLine
 10
14.26250914328401
 20
16.00997521364296
 30
0.0
 11
14.26250914328401
 21
15.96997521364295
 31
0.0
  0
LINE
  5
39E
330
1E
100
AcDbEntity
  8
HIDDEN
100
AcDbLine
 10
14.26250914328401
 20
15.85197521364297
 30
0.0
 11
14.26250914328401
 21
15.89197521364297
 31
0.0
  0
LINE
  5
39F
330
1E
100
AcDbEntity
  8
HIDDEN
100
AcDbLine
 10
14.31750914328404
 20
16.00997521364296
 30
0.0
 11
14.26250914328401
 21
16.00997521364296
 31
0.0
  0
LINE
  5
3A0
330
1E
100
AcDbEntity
  8
HIDDEN
100
AcDbLine
 10
14.31750914328404
 20
15.96997521364295
 30
0.0
 11
14.26250914328401
 21
15.96997521364295
 31
0.0
  0
LINE
  5
3A1
330
1E
100
AcDbEntity
  8
HIDDEN
100
AcDbLine
 10
14.31750914328404
 20
15.89197521364296
 30
0.0
 11
14.26250914328401
 21
15.89197521364297
 31
0.0
  0
LINE
  5
3A2
330
1E
100
AcDbEntity
  8
HIDDEN
100
AcDbLine
 10
14.31750914328404
 20
15.85197521364296
 30
0.0
 11
14.26250914328401
 21
15.85197521364297
 31
0.0
  0
LINE
  5
3A3
330
1E
100
AcDbEntity
  8
OBJECT
100
AcDbLine
 10
12.4305600748015
 20
17.04847521364297
 30
0.0
 11
4.267509143284022
 21
17.04847521364297
 31
0.0
  0
LINE
  5
3A4
330
1E
100
AcDbEntity
  8
OBJECT
100
AcDbLine
 10
12.40160268162175
 20
17.08847521364296
 30
0.0
 11
4.317509143284019
 21
17.08847521364296
 31
0.0
  0
LINE
  5
3A5
330
1E
100
AcDbEntity
  8
OBJECT
100
AcDbLine
 10
12.35092724355717
 20
17.15847521364295
 30
0.0
 11
4.317509143284019
 21
17.15847521364296
 31
0.0
  0
LINE
  5
3A6
330
1E
100
AcDbEntity
  8
OBJECT
100
AcDbLine
 10
14.43750914328401
 20
17.23347521364295
 30
0.0
 11
4.197509143284018
 21
17.23347521364295
 31
0.0
  0
CIRCLE
  5
3A7
330
1E
100
AcDbEntity
  8
OBJECT
100
AcDbCircle
 10
4.596509143284006
 20
16.79347521364296
 30
0.0
 40
0.156
  0
LINE
  5
3A8
330
1E
100
AcDbEntity
  8
OBJECT
100
AcDbLine
 10
4.33250914328403
 20
17.21847521364295
 30
0.0
 11
4.214850912115839
 21
17.21847521364295
 31
0.0
  0
CIRCLE
  5
3A9
330
1E
100
AcDbEntity
  8
OBJECT
100
AcDbCircle
 10
4.596509143284006
 20
16.79347521364296
 30
0.0
 40
0.065
  0
CIRCLE
  5
3AA
330
1E
100
AcDbEntity
  8
HIDDEN
100
AcDbCircle
 10
14.03850914328401
 20
16.79347521364296
 30
0.0
 40
0.156
  0
CIRCLE
  5
3AB
330
1E
100
AcDbEntity
  8
HIDDEN
100
AcDbCircle
 10
14.03850914328401
 20
16.79347521364296
 30
0.0
 40
0.065
  0
LINE
  5
3AC
330
1E
100
AcDbEntity
  8
HIDDEN
100
AcDbLine
 10
14.31750914328401
 20
17.15847521364295
 30
0.0
 11
12.41292724355717
 21
17.15847521364295
 31
0.0
  0
LINE
  5
3AD
330
1E
100
AcDbEntity
  8
HIDDEN
100
AcDbLine
 10
14.31750914328399
 20
17.08847521364296
 30
0.0
 11
12.46360268162175
 21
17.08847521364296
 31
0.0
  0
LINE
  5
3AE
330
1E
100
AcDbEntity
  8
HIDDEN
100
AcDbLine
 10
14.36750914328401
 20
17.04847521364294
 30
0.0
 11
12.49256007480149
 21
17.04847521364297
 31
0.0
  0
LINE
  5
3AF
330
1E
100
AcDbEntity
  8
HIDDEN
100
AcDbLine
 10
14.31750914328401
 20
17.15847521364295
 30
0.0
 11
14.31750914328399
 21
17.08847521364296
 31
0.0
  0
LINE
  5
3B0
330
1E
100
AcDbEntity
  8
OBJECT
100
AcDbLine
 10
17.36032697677691
 20
17.23347521364295
 30
0.0
 11
17.36032697677691
 21
10.15847521364297
 31
0.0
  0
LINE
  5
3B1
330
1E
100
AcDbEntity
  8
OBJECT
100
AcDbLine
 10
18.63032697677691
 20
17.23347521364295
 30
0.0
 11
18.63032697677691
 21
10.15847521364298
 31
0.0
  0
LINE
  5
3B2
330
1E
100
AcDbEntity
  8
OBJECT
100
AcDbLine
 10
19.9203269767769
 20
10.15847521364297
 30
0.0
 11
19.9203269767769
 21
17.23347521364295
 31
0.0
  0
LINE
  5
3B3
330
1E
100
AcDbEntity
  8
OBJECT
100
AcDbLine
 10
18.66032697677691
 20
10.15847521364297
 30
0.0
 11
18.66032697677691
 21
17.23347521364295
 31
0.0
  0
LINE
  5
3B4
330
1E
100
AcDbEntity
  8
HIDDEN
100
AcDbLine
 10
18.73532697677691
 20
10.34347521364293
 30
0.0
 11
18.73532697677691
 21
17.04847521364301
 31
0.0
  0
LINE
  5
3B5
330
1E
100
AcDbEntity
  8
HIDDEN
100
AcDbLine
 10
17.4803269767769
 20
15.96997521364295
 30
0.0
 11
18.6203269767769
 21
15.96997521364295
 31
0.0
  0
LINE
  5
3B6
330
1E
100
AcDbEntity
  8
HIDDEN
100
AcDbLine
 10
17.4803269767769
 20
16.00997521364295
 30
0.0
 11
18.6203269767769
 21
16.00997521364295
 31
0.0
  0
LINE
  5
3B7
330
1E
100
AcDbEntity
  8
HIDDEN
100
AcDbLine
 10
17.4803269767769
 20
15.85197521364291
 30
0.0
 11
18.6203269767769
 21
15.85197521364299
 31
0.0
  0
LINE
  5
3B8
330
1E
100
AcDbEntity
  8
HIDDEN
100
AcDbLine
 10
17.4803269767769
 20
15.89197521364295
 30
0.0
 11
18.6203269767769
 21
15.89197521364295
 31
0.0
  0
LINE
  5
3B9
330
1E
100
AcDbEntity
  8
HIDDEN
100
AcDbLine
 10
18.63632697677688
 20
10.50847521364297
 30
0.0
 11
17.43232697677692
 21
10.50847521364296
 31
0.0
  0
LINE
  5
3BA
330
1E
100
AcDbEntity
  8
HIDDEN
100
AcDbLine
 10
18.63632697677688
 20
10.68847521364296
 30
0.0
 11
17.43232697677692
 21
10.68847521364296
 31
0.0
  0
LINE
  5
3BB
330
1E
100
AcDbEntity
  8
HIDDEN
100
AcDbLine
 10
18.63632697677688
 20
10.44247521364296
 30
0.0
 11
17.4803269767769
 21
10.44247521364296
 31
0.0
  0
LINE
  5
3BC
330
1E
100
AcDbEntity
  8
HIDDEN
100
AcDbLine
 10
18.63632697677688
 20
10.75447521364296
 30
0.0
 11
17.4803269767769
 21
10.75447521364296
 31
0.0
  0
LINE
  5
3BD
330
1E
100
AcDbEntity
  8
HIDDEN
100
AcDbLine
 10
18.6203269767769
 20
10.34347521364288
 30
0.0
 11
17.4803269767769
 21
10.34347521364296
 31
0.0
  0
LINE
  5
3BE
330
1E
100
AcDbEntity
  8
HIDDEN
100
AcDbLine
 10
18.6203269767769
 20
10.30347521364296
 30
0.0
 11
17.4603269767769
 21
10.30347521364296
 31
0.0
  0
LINE
  5
3BF
330
1E
100
AcDbEntity
  8
HIDDEN
100
AcDbLine
 10
18.66032697677691
 20
10.23347521364296
 30
0.0
 11
17.4603269767769
 21
10.23347521364296
 31
0.0
  0
LINE
  5
3C0
330
1E
100
AcDbEntity
  8
OBJECT
100
AcDbLine
 10
18.63032697677691
 20
10.15847521364298
 30
0.0
 11
17.36032697677688
 21
10.15847521364297
 31
0.0
  0
LINE
  5
3C1
330
1E
100
AcDbEntity
  8
HIDDEN
100
AcDbLine
 10
17.4603269767769
 20
10.30347521364296
 30
0.0
 11
17.4603269767769
 21
10.23347521364296
 31
0.0
  0
LINE
  5
3C2
330
1E
100
AcDbEntity
  8
HIDDEN
100
AcDbLine
 10
17.46032697677691
 20
10.15847521364297
 30
0.0
 11
17.5203269767769
 21
10.23347521364296
 31
0.0
  0
LINE
  5
3C3
330
1E
100
AcDbEntity
  8
HIDDEN
100
AcDbLine
 10
17.43232697677692
 20
10.68847521364297
 30
0.0
 11
17.43232697677692
 21
10.50847521364296
 31
0.0
  0
LINE
  5
3C4
330
1E
100
AcDbEntity
  8
HIDDEN
100
AcDbLine
 10
17.54032697677691
 20
10.30347521364296
 30
0.0
 11
17.54032697677691
 21
10.34347521364296
 31
0.0
  0
LINE
  5
3C5
330
1E
100
AcDbEntity
  8
HIDDEN
100
AcDbLine
 10
18.66032697677689
 20
10.23347521364299
 30
0.0
 11
19.82032697677692
 21
10.23347521364298
 31
0.0
  0
LINE
  5
3C6
330
1E
100
AcDbEntity
  8
OBJECT
100
AcDbLine
 10
18.66032697677691
 20
10.15847521364297
 30
0.0
 11
19.9203269767769
 21
10.15847521364297
 31
0.0
  0
LINE
  5
3C7
330
1E
100
AcDbEntity
  8
OBJECT
100
AcDbLine
 10
18.66032697677691
 20
10.17347521364297
 30
0.0
 11
18.63032697677691
 21
10.17347521364297
 31
0.0
  0
LINE
  5
3C8
330
1E
100
AcDbEntity
  8
HIDDEN
100
AcDbLine
 10
18.64432697677689
 20
10.75447521364296
 30
0.0
 11
19.80032697677689
 21
10.75447521364296
 31
0.0
  0
LINE
  5
3C9
330
1E
100
AcDbEntity
  8
HIDDEN
100
AcDbLine
 10
18.64432697677689
 20
10.66347521364296
 30
0.0
 11
19.83347416203173
 21
10.66347521364296
 31
0.0
  0
LINE
  5
3CA
330
1E
100
AcDbEntity
  8
HIDDEN
100
AcDbLine
 10
18.64432697677689
 20
10.53347521364297
 30
0.0
 11
19.83347416203175
 21
10.53347521364295
 31
0.0
  0
LINE
  5
3CB
330
1E
100
AcDbEntity
  8
HIDDEN
100
AcDbLine
 10
18.64432697677689
 20
10.44247521364296
 30
0.0
 11
19.80032697677689
 21
10.44247521364296
 31
0.0
  0
LINE
  5
3CC
330
1E
100
AcDbEntity
  8
HIDDEN
100
AcDbLine
 10
18.66032697677691
 20
10.30347521364298
 30
0.0
 11
19.82032697677692
 21
10.30347521364298
 31
0.0
  0
LINE
  5
3CD
330
1E
100
AcDbEntity
  8
HIDDEN
100
AcDbLine
 10
18.66032697677691
 20
10.34347521364291
 30
0.0
 11
19.80032697677689
 21
10.34347521364298
 31
0.0
  0
LINE
  5
3CE
330
1E
100
AcDbEntity
  8
HIDDEN
  6
HIDDEN2
100
AcDbLine
 10
18.37532697677689
 20
10.68847521364296
 30
0.0
 11
18.37532697677689
 21
10.50847521364297
 31
0.0
  0
LINE
  5
3CF
330
1E
100
AcDbEntity
  8
HIDDEN
  6
HIDDEN2
100
AcDbLine
 10
18.63632697677688
 20
10.75447521364296
 30
0.0
 11
18.63632697677688
 21
10.44247521364296
 31
0.0
  0
LINE
  5
3D0
330
1E
100
AcDbEntity
  8
HIDDEN
  6
HIDDEN2
100
AcDbLine
 10
18.63632697677688
 20
10.64347521364296
 30
0.0
 11
18.37532697677689
 21
10.64347521364296
 31
0.0
  0
LINE
  5
3D1
330
1E
100
AcDbEntity
  8
HIDDEN
  6
HIDDEN2
100
AcDbLine
 10
18.63632697677688
 20
10.55347521364297
 30
0.0
 11
18.37532697677689
 21
10.55347521364295
 31
0.0
  0
LINE
  5
3D2
330
1E
100
AcDbEntity
  8
HIDDEN
100
AcDbLine
 10
18.6203269767769
 20
10.30347521364296
 30
0.0
 11
18.6203269767769
 21
10.34347521364288
 31
0.0
  0
LINE
  5
3D3
330
1E
100
AcDbEntity
  8
HIDDEN
  6
HIDDEN2
100
AcDbLine
 10
18.64432697677689
 20
10.44247521364296
 30
0.0
 11
18.64432697677689
 21
10.75447521364296
 31
0.0
  0
LINE
  5
3D4
330
1E
100
AcDbEntity
  8
HIDDEN
  6
HIDDEN2
100
AcDbLine
 10
19.8623269767769
 20
10.93497521364295
 30
0.0
 11
19.8623269767769
 21
11.02497521364296
 31
0.0
  0
LINE
  5
3D5
330
1E
100
AcDbEntity
  8
HIDDEN
  6
HIDDEN2
100
AcDbLine
 10
19.64432697677689
 20
10.87097521364296
 30
0.0
 11
19.64432697677689
 21
11.08897521364295
 31
0.0
  0
LINE
  5
3D6
330
1E
100
AcDbEntity
  8
HIDDEN
  6
HIDDEN2
100
AcDbLine
 10
19.67182697677689
 20
10.93497521364295
 30
0.0
 11
19.6718269767769
 21
11.02497521364296
 31
0.0
  0
LINE
  5
3D7
330
1E
100
AcDbEntity
  8
HIDDEN
  6
HIDDEN2
100
AcDbLine
 10
19.83347416203175
 20
10.53347521364295
 30
0.0
 11
19.83347416203173
 21
10.66347521364296
 31
0.0
  0
LINE
  5
3D8
330
1E
100
AcDbEntity
  8
HIDDEN
  6
HIDDEN2
100
AcDbLine
 10
19.64432697677689
 20
10.90747521364294
 30
0.0
 11
19.67182697677689
 21
10.93497521364295
 31
0.0
  0
LINE
  5
3D9
330
1E
100
AcDbEntity
  8
HIDDEN
  6
HIDDEN2
100
AcDbLine
 10
19.64432697677689
 20
10.87097521364296
 30
0.0
 11
19.80032697677689
 21
10.87097521364296
 31
0.0
  0
LINE
  5
3DA
330
1E
100
AcDbEntity
  8
HIDDEN
  6
HIDDEN2
100
AcDbLine
 10
19.67182697677689
 20
10.93497521364295
 30
0.0
 11
19.8623269767769
 21
10.93497521364295
 31
0.0
  0
LINE
  5
3DB
330
1E
100
AcDbEntity
  8
HIDDEN
  6
HIDDEN2
100
AcDbLine
 10
19.9203269767769
 20
10.73897521364296
 30
0.0
 11
19.83347416203173
 21
10.66347521364296
 31
0.0
  0
LINE
  5
3DC
330
1E
100
AcDbEntity
  8
HIDDEN
  6
HIDDEN2
100
AcDbLine
 10
19.9203269767769
 20
10.45797521364298
 30
0.0
 11
19.83347416203175
 21
10.53347521364295
 31
0.0
  0
LINE
  5
3DD
330
1E
100
AcDbEntity
  8
HIDDEN
  6
HIDDEN2
100
AcDbLine
 10
19.64432697677689
 20
11.05247521364296
 30
0.0
 11
19.67182697677689
 21
11.02497521364296
 31
0.0
  0
LINE
  5
3DE
330
1E
100
AcDbEntity
  8
HIDDEN
  6
HIDDEN2
100
AcDbLine
 10
19.64432697677689
 20
11.08897521364295
 30
0.0
 11
19.80032697677689
 21
11.08897521364295
 31
0.0
  0
LINE
  5
3DF
330
1E
100
AcDbEntity
  8
HIDDEN
  6
HIDDEN2
100
AcDbLine
 10
19.6718269767769
 20
11.02497521364296
 30
0.0
 11
19.8623269767769
 21
11.02497521364296
 31
0.0
  0
LINE
  5
3E0
330
1E
100
AcDbEntity
  8
HIDDEN
100
AcDbLine
 10
19.80032697677691
 20
15.89197521364297
 30
0.0
 11
18.66032697677691
 21
15.89197521364297
 31
0.0
  0
LINE
  5
3E1
330
1E
100
AcDbEntity
  8
HIDDEN
100
AcDbLine
 10
19.80032697677691
 20
15.85197521364298
 30
0.0
 11
18.66032697677691
 21
15.85197521364298
 31
0.0
  0
LINE
  5
3E2
330
1E
100
AcDbEntity
  8
HIDDEN
100
AcDbLine
 10
19.80032697677691
 20
16.00997521364302
 30
0.0
 11
18.66032697677691
 21
16.00997521364292
 31
0.0
  0
LINE
  5
3E3
330
1E
100
AcDbEntity
  8
HIDDEN
100
AcDbLine
 10
19.80032697677691
 20
15.96997521364297
 30
0.0
 11
18.66032697677691
 21
15.96997521364297
 31
0.0
  0
LINE
  5
3E4
330
1E
100
AcDbEntity
  8
HIDDEN
100
AcDbLine
 10
18.6203269767769
 20
15.96997521364295
 30
0.0
 11
18.6203269767769
 21
16.00997521364295
 31
0.0
  0
LINE
  5
3E5
330
1E
100
AcDbEntity
  8
HIDDEN
100
AcDbLine
 10
18.6203269767769
 20
15.85197521364299
 30
0.0
 11
18.6203269767769
 21
15.89197521364295
 31
0.0
  0
LINE
  5
3E6
330
1E
100
AcDbEntity
  8
OBJECT
100
AcDbLine
 10
18.63032697677691
 20
17.23347521364295
 30
0.0
 11
17.36032697677691
 21
17.23347521364295
 31
0.0
  0
LINE
  5
3E7
330
1E
100
AcDbEntity
  8
OBJECT
100
AcDbLine
 10
18.66032697677691
 20
17.23347521364295
 30
0.0
 11
19.92032697677694
 21
17.23347521364295
 31
0.0
  0
LINE
  5
3E8
330
1E
100
AcDbEntity
  8
OBJECT
100
AcDbLine
 10
18.66032697677691
 20
17.21847521364297
 30
0.0
 11
18.63032697677691
 21
17.21847521364295
 31
0.0
  0
LWPOLYLINE
  5
3E9
330
1E
100
AcDbEntity
  8
OBJECT
100
AcDbPolyline
 90
        4
 70
     1
 43
0.0
 10
26.20362805245135
 20
4.532983199783385
 10
26.20362805245135
 20
6.897983199783382
 10
16.20362805245135
 20
6.897983199783382
 10
16.20362805245135
 20
4.532983199783385
  0
LWPOLYLINE
  5
3EF
330
1E
100
AcDbEntity
  8
BEND
100
AcDbPolyline
 90
        4
 70
     1
 43
0.0
 10
16.28262805245135
 20
4.595483199783385
 10
26.12462805245135
 20
4.595483199783385
 10
26.12462805245135
 20
6.835483199783387
 10
16.28262805245135
 20
6.835483199783387
  0
LINE
  5
3F5
330
1E
100
AcDbEntity
  8
OBJECT
100
AcDbLine
 10
14.26221498842838
 20
6.995483199783387
 30
0.0
 11
4.372977848788908
 21
6.995483199783387
 31
0.0
  0
LINE
  5
3F6
330
1E
100
AcDbEntity
  8
OBJECT
100
AcDbLine
 10
11.79867658102609
 20
6.875483199783396
 30
0.0
 11
4.317509143284003
 21
6.875483199783388
 31
0.0
  0
LINE
  5
3F7
330
1E
100
AcDbEntity
  8
OBJECT
100
AcDbLine
 10
4.372977848788883
 20
4.435483199783383
 30
0.0
 11
14.26221498842838
 21
4.435483199783383
 31
0.0
  0
LINE
  5
3F8
330
1E
100
AcDbEntity
  8
OBJECT
100
AcDbLine
 10
4.317509143284003
 20
4.555483199783386
 30
0.0
 11
11.81844489310647
 21
4.555483199783386
 31
0.0
  0
LINE
  5
3F9
330
1E
100
AcDbEntity
  8
HIDDEN
100
AcDbLine
 10
14.31750914328399
 20
6.875483199783387
 30
0.0
 11
11.86067658102609
 21
6.875483199783396
 31
0.0
  0
ARC
  5
3FA
330
1E
100
AcDbEntity
  8
OBJECT
100
AcDbCircle
 10
4.372977848788908
 20
6.839483199783387
 30
0.0
 40
0.156
100
AcDbArc
 50
90.0
 51
178.9999999999985
  0
ARC
  5
3FB
330
1E
100
AcDbEntity
  8
OBJECT
100
AcDbCircle
 10
4.372977848788883
 20
4.591483199783382
 30
0.0
 40
0.156
100
AcDbArc
 50
180.9999999999996
 51
270.0
  0
LINE
  5
3FC
330
1E
100
AcDbEntity
  8
OBJECT
100
AcDbLine
 10
14.25750914328401
 20
6.835483199783389
 30
0.0
 11
11.80098639598411
 21
6.83548319978338
 31
0.0
  0
ARC
  5
3FD
330
1E
100
AcDbEntity
  8
OBJECT
100
AcDbCircle
 10
14.26221498842838
 20
4.591483199783382
 30
0.0
 40
0.156
100
AcDbArc
 50
270.0
 51
358.9999999999988
  0
ARC
  5
3FE
330
1E
100
AcDbEntity
  8
OBJECT
100
AcDbCircle
 10
14.26221498842838
 20
6.839483199783387
 30
0.0
 40
0.156
100
AcDbArc
 50
0.9999999999999884
 51
90.0
  0
LINE
  5
3FF
330
1E
100
AcDbEntity
  8
HIDDEN
  6
HIDDEN2
100
AcDbLine
 10
9.390009143284004
 20
4.711483199783378
 30
0.0
 11
9.362509143284007
 21
4.683983199783389
 31
0.0
  0
LINE
  5
400
330
1E
100
AcDbEntity
  8
HIDDEN
  6
HIDDEN2
100
AcDbLine
 10
9.245009143283999
 20
4.711483199783378
 30
0.0
 11
9.272509143284004
 21
4.683983199783389
 31
0.0
  0
LINE
  5
401
330
1E
100
AcDbEntity
  8
HIDDEN
  6
HIDDEN2
100
AcDbLine
 10
9.272509143284004
 20
4.683983199783389
 30
0.0
 11
9.362509143284
 21
4.683983199783383
 31
0.0
  0
LINE
  5
402
330
1E
100
AcDbEntity
  8
OBJECT
100
AcDbLine
 10
9.208509143284004
 20
4.711483199783378
 30
0.0
 11
9.426509143284
 21
4.711483199783386
 31
0.0
  0
LINE
  5
403
330
1E
100
AcDbEntity
  8
OBJECT
100
AcDbLine
 10
9.426509143284
 20
4.711483199783386
 30
0.0
 11
9.426509143284
 21
4.555483199783379
 31
0.0
  0
LINE
  5
404
330
1E
100
AcDbEntity
  8
OBJECT
100
AcDbLine
 10
9.208509143284004
 20
4.711483199783378
 30
0.0
 11
9.208509143284004
 21
4.555483199783379
 31
0.0
  0
LINE
  5
405
330
1E
100
AcDbEntity
  8
HIDDEN
  6
HIDDEN2
100
AcDbLine
 10
9.272509143284004
 20
4.493483199783383
 30
0.0
 11
9.362509143284007
 21
4.493483199783383
 31
0.0
  0
LINE
  5
406
330
1E
100
AcDbEntity
  8
HIDDEN
  6
HIDDEN2
100
AcDbLine
 10
9.272509143284004
 20
4.683983199783389
 30
0.0
 11
9.272509143284004
 21
4.493483199783383
 31
0.0
  0
LINE
  5
407
330
1E
100
AcDbEntity
  8
HIDDEN
  6
HIDDEN2
100
AcDbLine
 10
9.362509143284
 20
4.683983199783383
 30
0.0
 11
9.362509143284007
 21
4.493483199783383
 31
0.0
  0
CIRCLE
  5
408
330
1E
100
AcDbEntity
  8
OBJECT
100
AcDbCircle
 10
9.317509143284011
 20
13.69597521364297
 30
0.0
 40
0.109
  0
CIRCLE
  5
409
330
1E
100
AcDbEntity
  8
OBJECT
100
AcDbCircle
 10
9.317509143284011
 20
13.69597521364297
 30
0.0
 40
0.0725
  0
CIRCLE
  5
40A
330
1E
100
AcDbEntity
  8
OBJECT
100
AcDbCircle
 10
9.317509143284011
 20
13.69597521364297
 30
0.0
 40
0.045
  0
LINE
  5
40B
330
1E
100
AcDbEntity
  8
HIDDEN
  6
HIDDEN2
100
AcDbLine
 10
19.6718269767769
 20
13.74097521364296
 30
0.0
 11
19.8623269767769
 21
13.74097521364296
 31
0.0
  0
LINE
  5
40C
330
1E
100
AcDbEntity
  8
HIDDEN
  6
HIDDEN2
100
AcDbLine
 10
19.6718269767769
 20
13.65097521364295
 30
0.0
 11
19.8623269767769
 21
13.65097521364295
 31
0.0
  0
LINE
  5
40D
330
1E
100
AcDbEntity
  8
HIDDEN
  6
HIDDEN2
100
AcDbLine
 10
19.6443269767769
 20
13.80497521364294
 30
0.0
 11
19.80032697677691
 21
13.80497521364294
 31
0.0
  0
LINE
  5
40E
330
1E
100
AcDbEntity
  8
HIDDEN
  6
HIDDEN2
100
AcDbLine
 10
19.6443269767769
 20
13.58697521364296
 30
0.0
 11
19.80032697677691
 21
13.58697521364296
 31
0.0
  0
LINE
  5
40F
330
1E
100
AcDbEntity
  8
HIDDEN
  6
HIDDEN2
100
AcDbLine
 10
19.6443269767769
 20
13.76847521364296
 30
0.0
 11
19.6718269767769
 21
13.74097521364296
 31
0.0
  0
LINE
  5
410
330
1E
100
AcDbEntity
  8
HIDDEN
  6
HIDDEN2
100
AcDbLine
 10
19.6443269767769
 20
13.62347521364295
 30
0.0
 11
19.6718269767769
 21
13.65097521364295
 31
0.0
  0
LINE
  5
411
330
1E
100
AcDbEntity
  8
HIDDEN
  6
HIDDEN2
100
AcDbLine
 10
19.6718269767769
 20
13.65097521364295
 30
0.0
 11
19.6718269767769
 21
13.74097521364296
 31
0.0
  0
LINE
  5
412
330
1E
100
AcDbEntity
  8
HIDDEN
  6
HIDDEN2
100
AcDbLine
 10
19.6443269767769
 20
13.58697521364296
 30
0.0
 11
19.6443269767769
 21
13.80497521364294
 31
0.0
  0
LINE
  5
413
330
1E
100
AcDbEntity
  8
HIDDEN
  6
HIDDEN2
100
AcDbLine
 10
19.8623269767769
 20
13.65097521364295
 30
0.0
 11
19.8623269767769
 21
13.74097521364296
 31
0.0
  0
LINE
  5
414
330
1E
100
AcDbEntity
  8
OBJECT
100
AcDbLine
 10
14.23950914328399
 20
6.895483199783384
 30
0.0
 11
11.7968720380901
 21
6.895483199783384
 31
0.0
  0
CIRCLE
  5
415
330
1E
100
AcDbEntity
  8
OBJECT
100
AcDbCircle
 10
4.829509143284012
 20
16.41197521364295
 30
0.0
 40
0.0725
  0
CIRCLE
  5
416
330
1E
100
AcDbEntity
  8
OBJECT
100
AcDbCircle
 10
4.829509143284012
 20
16.41197521364295
 30
0.0
 40
0.109
  0
CIRCLE
  5
417
330
1E
100
AcDbEntity
  8
OBJECT
100
AcDbCircle
 10
4.829509143284012
 20
16.41197521364295
 30
0.0
 40
0.045
  0
CIRCLE
  5
418
330
1E
100
AcDbEntity
  8
OBJECT
100
AcDbCircle
 10
7.825509143284016
 20
10.97997521364298
 30
0.0
 40
0.0725
  0
CIRCLE
  5
419
330
1E
100
AcDbEntity
  8
OBJECT
100
AcDbCircle
 10
7.825509143284016
 20
10.97997521364298
 30
0.0
 40
0.109
  0
CIRCLE
  5
41A
330
1E
100
AcDbEntity
  8
OBJECT
100
AcDbCircle
 10
7.825509143284016
 20
10.97997521364298
 30
0.0
 40
0.045
  0
CIRCLE
  5
41B
330
1E
100
AcDbEntity
  8
OBJECT
100
AcDbCircle
 10
7.825509143284016
 20
16.41197521364295
 30
0.0
 40
0.109
  0
CIRCLE
  5
41C
330
1E
100
AcDbEntity
  8
OBJECT
100
AcDbCircle
 10
7.825509143284016
 20
16.41197521364295
 30
0.0
 40
0.0725
  0
CIRCLE
  5
41D
330
1E
100
AcDbEntity
  8
OBJECT
100
AcDbCircle
 10
7.825509143284016
 20
16.41197521364295
 30
0.0
 40
0.045
  0
LINE
  5
41E
330
1E
100
AcDbEntity
  8
HIDDEN
  6
HIDDEN2
100
AcDbLine
 10
7.898009143284013
 20
4.711483199783378
 30
0.0
 11
7.870509143284008
 21
4.683983199783389
 31
0.0
  0
LINE
  5
41F
330
1E
100
AcDbEntity
  8
OBJECT
100
AcDbLine
 10
7.716509143284013
 20
4.711483199783378
 30
0.0
 11
7.934509143284008
 21
4.711483199783386
 31
0.0
  0
LINE
  5
420
330
1E
100
AcDbEntity
  8
HIDDEN
  6
HIDDEN2
100
AcDbLine
 10
7.870509143284008
 20
4.683983199783383
 30
0.0
 11
7.870509143284008
 21
4.493483199783383
 31
0.0
  0
LINE
  5
421
330
1E
100
AcDbEntity
  8
HIDDEN
  6
HIDDEN2
100
AcDbLine
 10
7.780509143284006
 20
4.683983199783389
 30
0.0
 11
7.780509143284006
 21
4.493483199783383
 31
0.0
  0
LINE
  5
422
330
1E
100
AcDbEntity
  8
OBJECT
100
AcDbLine
 10
7.716509143284013
 20
4.711483199783378
 30
0.0
 11
7.716509143284013
 21
4.555483199783379
 31
0.0
  0
LINE
  5
423
330
1E
100
AcDbEntity
  8
HIDDEN
  6
HIDDEN2
100
AcDbLine
 10
7.75300914328401
 20
4.711483199783378
 30
0.0
 11
7.780509143284006
 21
4.683983199783389
 31
0.0
  0
LINE
  5
424
330
1E
100
AcDbEntity
  8
HIDDEN
  6
HIDDEN2
100
AcDbLine
 10
7.780509143284006
 20
4.493483199783383
 30
0.0
 11
7.870509143284008
 21
4.493483199783383
 31
0.0
  0
LINE
  5
425
330
1E
100
AcDbEntity
  8
HIDDEN
  6
HIDDEN2
100
AcDbLine
 10
7.780509143284006
 20
4.683983199783389
 30
0.0
 11
7.870509143284008
 21
4.683983199783383
 31
0.0
  0
LINE
  5
426
330
1E
100
AcDbEntity
  8
OBJECT
100
AcDbLine
 10
7.934509143284008
 20
4.711483199783386
 30
0.0
 11
7.934509143284008
 21
4.555483199783379
 31
0.0
  0
CIRCLE
  5
427
330
1E
100
AcDbEntity
  8
OBJECT
100
AcDbCircle
 10
10.82150914328401
 20
10.97997521364298
 30
0.0
 40
0.0725
  0
CIRCLE
  5
428
330
1E
100
AcDbEntity
  8
OBJECT
100
AcDbCircle
 10
10.82150914328401
 20
10.97997521364298
 30
0.0
 40
0.109
  0
CIRCLE
  5
429
330
1E
100
AcDbEntity
  8
OBJECT
100
AcDbCircle
 10
10.82150914328401
 20
10.97997521364298
 30
0.0
 40
0.045
  0
CIRCLE
  5
42A
330
1E
100
AcDbEntity
  8
OBJECT
100
AcDbCircle
 10
10.82150914328401
 20
16.41197521364295
 30
0.0
 40
0.109
  0
CIRCLE
  5
42B
330
1E
100
AcDbEntity
  8
OBJECT
100
AcDbCircle
 10
10.82150914328401
 20
16.41197521364295
 30
0.0
 40
0.0725
  0
CIRCLE
  5
42C
330
1E
100
AcDbEntity
  8
OBJECT
100
AcDbCircle
 10
10.82150914328401
 20
16.41197521364295
 30
0.0
 40
0.045
  0
LINE
  5
42D
330
1E
100
AcDbEntity
  8
HIDDEN
  6
HIDDEN2
100
AcDbLine
 10
10.89400914328401
 20
4.711483199783378
 30
0.0
 11
10.86650914328401
 21
4.683983199783389
 31
0.0
  0
LINE
  5
42E
330
1E
100
AcDbEntity
  8
OBJECT
100
AcDbLine
 10
10.71250914328401
 20
4.711483199783378
 30
0.0
 11
10.93050914328401
 21
4.711483199783386
 31
0.0
  0
LINE
  5
42F
330
1E
100
AcDbEntity
  8
HIDDEN
  6
HIDDEN2
100
AcDbLine
 10
10.86650914328401
 20
4.683983199783383
 30
0.0
 11
10.86650914328401
 21
4.493483199783383
 31
0.0
  0
LINE
  5
430
330
1E
100
AcDbEntity
  8
HIDDEN
  6
HIDDEN2
100
AcDbLine
 10
10.77650914328399
 20
4.683983199783389
 30
0.0
 11
10.77650914328399
 21
4.493483199783383
 31
0.0
  0
LINE
  5
431
330
1E
100
AcDbEntity
  8
OBJECT
100
AcDbLine
 10
10.71250914328401
 20
4.711483199783378
 30
0.0
 11
10.71250914328401
 21
4.555483199783379
 31
0.0
  0
LINE
  5
432
330
1E
100
AcDbEntity
  8
HIDDEN
  6
HIDDEN2
100
AcDbLine
 10
10.74900914328401
 20
4.711483199783378
 30
0.0
 11
10.77650914328399
 21
4.683983199783389
 31
0.0
  0
LINE
  5
433
330
1E
100
AcDbEntity
  8
HIDDEN
  6
HIDDEN2
100
AcDbLine
 10
10.77650914328399
 20
4.493483199783383
 30
0.0
 11
10.86650914328401
 21
4.493483199783383
 31
0.0
  0
LINE
  5
434
330
1E
100
AcDbEntity
  8
HIDDEN
  6
HIDDEN2
100
AcDbLine
 10
10.77650914328399
 20
4.683983199783389
 30
0.0
 11
10.86650914328401
 21
4.683983199783383
 31
0.0
  0
LINE
  5
435
330
1E
100
AcDbEntity
  8
OBJECT
100
AcDbLine
 10
10.93050914328401
 20
4.711483199783386
 30
0.0
 11
10.93050914328401
 21
4.555483199783379
 31
0.0
  0
CIRCLE
  5
436
330
1E
100
AcDbEntity
  8
HIDDEN
100
AcDbCircle
 10
13.81750914328401
 20
10.97997521364298
 30
0.0
 40
0.0725
  0
CIRCLE
  5
437
330
1E
100
AcDbEntity
  8
HIDDEN
100
AcDbCircle
 10
13.81750914328401
 20
10.97997521364298
 30
0.0
 40
0.109
  0
CIRCLE
  5
438
330
1E
100
AcDbEntity
  8
HIDDEN
100
AcDbCircle
 10
13.81750914328401
 20
10.97997521364298
 30
0.0
 40
0.045
  0
CIRCLE
  5
439
330
1E
100
AcDbEntity
  8
HIDDEN
100
AcDbCircle
 10
13.81750914328401
 20
16.41197521364295
 30
0.0
 40
0.109
  0
CIRCLE
  5
43A
330
1E
100
AcDbEntity
  8
HIDDEN
100
AcDbCircle
 10
13.81750914328401
 20
16.41197521364295
 30
0.0
 40
0.0725
  0
CIRCLE
  5
43B
330
1E
100
AcDbEntity
  8
HIDDEN
100
AcDbCircle
 10
13.81750914328401
 20
16.41197521364295
 30
0.0
 40
0.045
  0
LINE
  5
43C
330
1E
100
AcDbEntity
  8
HIDDEN
  6
HIDDEN2
100
AcDbLine
 10
13.89000914328401
 20
4.711483199783378
 30
0.0
 11
13.86250914328401
 21
4.683983199783389
 31
0.0
  0
LINE
  5
43D
330
1E
100
AcDbEntity
  8
HIDDEN
  6
HIDDEN2
100
AcDbLine
 10
13.70850914328402
 20
4.711483199783378
 30
0.0
 11
13.92650914328401
 21
4.711483199783386
 31
0.0
  0
LINE
  5
43E
330
1E
100
AcDbEntity
  8
HIDDEN
  6
HIDDEN2
100
AcDbLine
 10
13.86250914328401
 20
4.673983199783385
 30
0.0
 11
13.86250914328401
 21
4.483483199783377
 31
0.0
  0
LINE
  5
43F
330
1E
100
AcDbEntity
  8
HIDDEN
  6
HIDDEN2
100
AcDbLine
 10
13.77250914328401
 20
4.673983199783385
 30
0.0
 11
13.77250914328401
 21
4.483483199783377
 31
0.0
  0
LINE
  5
440
330
1E
100
AcDbEntity
  8
HIDDEN
  6
HIDDEN2
100
AcDbLine
 10
13.70850914328402
 20
4.711483199783378
 30
0.0
 11
13.70850914328402
 21
4.555483199783379
 31
0.0
  0
LINE
  5
441
330
1E
100
AcDbEntity
  8
HIDDEN
  6
HIDDEN2
100
AcDbLine
 10
13.74500914328401
 20
4.711483199783378
 30
0.0
 11
13.77250914328401
 21
4.683983199783389
 31
0.0
  0
LINE
  5
442
330
1E
100
AcDbEntity
  8
HIDDEN
  6
HIDDEN2
100
AcDbLine
 10
13.77250914328401
 20
4.483483199783377
 30
0.0
 11
13.86250914328401
 21
4.483483199783377
 31
0.0
  0
LINE
  5
443
330
1E
100
AcDbEntity
  8
HIDDEN
  6
HIDDEN2
100
AcDbLine
 10
13.77250914328401
 20
4.683983199783389
 30
0.0
 11
13.86250914328401
 21
4.683983199783383
 31
0.0
  0
LINE
  5
444
330
1E
100
AcDbEntity
  8
HIDDEN
  6
HIDDEN2
100
AcDbLine
 10
13.92650914328401
 20
4.711483199783386
 30
0.0
 11
13.92650914328401
 21
4.555483199783379
 31
0.0
  0
LINE
  5
445
330
1E
100
AcDbEntity
  8
HIDDEN
  6
HIDDEN2
100
AcDbLine
 10
4.638509143283997
 20
4.673983199783385
 30
0.0
 11
4.638509143284005
 21
4.483483199783377
 31
0.0
  0
LINE
  5
446
330
1E
100
AcDbEntity
  8
HIDDEN
  6
HIDDEN2
100
AcDbLine
 10
4.548509143284001
 20
4.673983199783385
 30
0.0
 11
4.548509143284001
 21
4.483483199783377
 31
0.0
  0
LINE
  5
447
330
1E
100
AcDbEntity
  8
HIDDEN
  6
HIDDEN2
100
AcDbLine
 10
4.548509143284001
 20
4.483483199783377
 30
0.0
 11
4.638509143284005
 21
4.483483199783377
 31
0.0
  0
LINE
  5
448
330
1E
100
AcDbEntity
  8
HIDDEN
  6
HIDDEN2
100
AcDbLine
 10
4.484509143284001
 20
4.711483199783378
 30
0.0
 11
4.484509143284001
 21
4.555483199783379
 31
0.0
  0
LINE
  5
449
330
1E
100
AcDbEntity
  8
HIDDEN
  6
HIDDEN2
100
AcDbLine
 10
4.702509143283998
 20
4.711483199783386
 30
0.0
 11
4.702509143283998
 21
4.555483199783379
 31
0.0
  0
LINE
  5
44A
330
1E
100
AcDbEntity
  8
HIDDEN
  6
HIDDEN2
100
AcDbLine
 10
4.484509143284001
 20
4.711483199783378
 30
0.0
 11
4.702509143283998
 21
4.711483199783386
 31
0.0
  0
LINE
  5
44B
330
1E
100
AcDbEntity
  8
HIDDEN
  6
HIDDEN2
100
AcDbLine
 10
4.548509143284001
 20
4.683983199783389
 30
0.0
 11
4.638509143283997
 21
4.683983199783383
 31
0.0
  0
LINE
  5
44C
330
1E
100
AcDbEntity
  8
HIDDEN
  6
HIDDEN2
100
AcDbLine
 10
4.521009143283999
 20
4.711483199783378
 30
0.0
 11
4.548509143284001
 21
4.683983199783389
 31
0.0
  0
LINE
  5
44D
330
1E
100
AcDbEntity
  8
HIDDEN
  6
HIDDEN2
100
AcDbLine
 10
4.666009143284002
 20
4.711483199783378
 30
0.0
 11
4.638509143284005
 21
4.683983199783389
 31
0.0
  0
CIRCLE
  5
44E
330
1E
100
AcDbEntity
  8
OBJECT
100
AcDbCircle
 10
4.593509143284012
 20
13.69597521364297
 30
0.0
 40
0.045
  0
CIRCLE
  5
44F
330
1E
100
AcDbEntity
  8
OBJECT
100
AcDbCircle
 10
4.593509143284012
 20
13.69597521364297
 30
0.0
 40
0.0725
  0
CIRCLE
  5
450
330
1E
100
AcDbEntity
  8
OBJECT
100
AcDbCircle
 10
4.593509143284012
 20
13.69597521364297
 30
0.0
 40
0.109
  0
LINE
  5
451
330
1E
100
AcDbEntity
  8
HIDDEN
  6
HIDDEN2
100
AcDbLine
 10
14.08650914328398
 20
4.663983199783386
 30
0.0
 11
14.086509143284
 21
4.473483199783386
 31
0.0
  0
LINE
  5
452
330
1E
100
AcDbEntity
  8
HIDDEN
  6
HIDDEN2
100
AcDbLine
 10
13.99650914328399
 20
4.663983199783393
 30
0.0
 11
13.99650914328399
 21
4.473483199783386
 31
0.0
  0
LINE
  5
453
330
1E
100
AcDbEntity
  8
HIDDEN
  6
HIDDEN2
100
AcDbLine
 10
13.99650914328399
 20
4.473483199783386
 30
0.0
 11
14.086509143284
 21
4.473483199783386
 31
0.0
  0
LINE
  5
454
330
1E
100
AcDbEntity
  8
HIDDEN
  6
HIDDEN2
100
AcDbLine
 10
13.93250914328399
 20
4.711483199783378
 30
0.0
 11
13.93250914328399
 21
4.555483199783379
 31
0.0
  0
LINE
  5
455
330
1E
100
AcDbEntity
  8
HIDDEN
  6
HIDDEN2
100
AcDbLine
 10
14.15050914328398
 20
4.711483199783386
 30
0.0
 11
14.15050914328398
 21
4.555483199783379
 31
0.0
  0
LINE
  5
456
330
1E
100
AcDbEntity
  8
HIDDEN
  6
HIDDEN2
100
AcDbLine
 10
13.93250914328399
 20
4.711483199783378
 30
0.0
 11
14.15050914328398
 21
4.711483199783386
 31
0.0
  0
LINE
  5
457
330
1E
100
AcDbEntity
  8
HIDDEN
  6
HIDDEN2
100
AcDbLine
 10
13.99650914328399
 20
4.683983199783389
 30
0.0
 11
14.08650914328398
 21
4.683983199783383
 31
0.0
  0
LINE
  5
458
330
1E
100
AcDbEntity
  8
HIDDEN
  6
HIDDEN2
100
AcDbLine
 10
13.96900914328399
 20
4.711483199783378
 30
0.0
 11
13.99650914328399
 21
4.683983199783389
 31
0.0
  0
LINE
  5
459
330
1E
100
AcDbEntity
  8
HIDDEN
  6
HIDDEN2
100
AcDbLine
 10
14.114009143284
 20
4.711483199783378
 30
0.0
 11
14.086509143284
 21
4.683983199783389
 31
0.0
  0
CIRCLE
  5
45A
330
1E
100
AcDbEntity
  8
HIDDEN
100
AcDbCircle
 10
14.04150914328401
 20
13.69597521364297
 30
0.0
 40
0.045
  0
CIRCLE
  5
45B
330
1E
100
AcDbEntity
  8
HIDDEN
100
AcDbCircle
 10
14.04150914328401
 20
13.69597521364297
 30
0.0
 40
0.0725
  0
CIRCLE
  5
45C
330
1E
100
AcDbEntity
  8
HIDDEN
100
AcDbCircle
 10
14.04150914328401
 20
13.69597521364297
 30
0.0
 40
0.109
  0
LWPOLYLINE
  5
45D
330
1E
100
AcDbEntity
  8
OBJECT
100
AcDbPolyline
 90
       31
 70
     0
 43
0.0
 10
11.77938294690116
 20
6.995483199783387
 10
11.79422533445015
 20
6.957150429850321
 10
11.80249548970645
 20
6.842576330622507
 10
11.78257946398858
 20
6.738426253741343
 10
11.74735288211977
 20
6.642290873214172
 10
11.70969136892326
 20
6.551760863048309
 10
11.68247054922227
 20
6.464426897251087
 10
11.67549983727082
 20
6.378252521694328
 10
11.68632380504611
 20
6.292692769707755
 10
11.70942081395607
 20
6.207575546485585
 10
11.73926922540868
 20
6.122728757222043
 10
11.7703474008119
 20
6.037980307111326
 10
11.79713370157369
 20
5.953158101347661
 10
11.81410648910205
 20
5.868090045125257
 10
11.81574412480489
 20
5.782604043638337
 10
11.79838806194801
 20
5.696573074568584
 10
11.76583212122828
 20
5.610050405547603
 10
11.72373321520039
 20
5.523134376694471
 10
11.67774825641902
 20
5.435923328128268
 10
11.63353415743889
 20
5.348515599968075
 10
11.59674783081465
 20
5.261009532332963
 10
11.57304618910099
 20
5.173503465342008
 10
11.5680861448526
 20
5.086095739114306
 10
11.58549959990166
 20
4.99891747362072
 10
11.62081841319027
 20
4.912230908239414
 10
11.66754943293802
 20
4.826331062200323
 10
11.71919950736455
 20
4.741512954733408
 10
11.7692754846894
 20
4.658071605068605
 10
11.8112842131322
 20
4.576302032435874
 10
11.83873254091253
 20
4.496499256065169
 10
11.8437645132724
 20
4.435483199783383
  0
DIMENSION
  5
47E
330
1E
100
AcDbEntity
  8
DIM
100
AcDbDimension
  2
*D4
 10
4.596509143284006
 20
17.80904705721731
 30
0.0
 11
5.855884143284006
 21
17.80904705721731
 31
0.0
 70
    32
 71
     5
 42
0.3989999999999867
  3
23NSTD
100
AcDbAlignedDimension
 13
4.197509143284018
 23
17.23347521364295
 33
0.0
 14
4.596509143284006
 24
16.79347521364296
 34
0.0
100
AcDbRotatedDimension
  0
DIMENSION
  5
47F
330
1E
100
AcDbEntity
  8
DIM
100
AcDbDimension
  2
*D29
 10
3.106750038846061
 20
17.23347521364295
 30
0.0
 11
3.106750038846058
 21
17.01347521364296
 31
0.0
 70
    32
 71
     5
 42
0.4399999999999907
  3
23NSTDI
100
AcDbAlignedDimension
 13
4.596509143284006
 23
16.79347521364296
 33
0.0
 14
4.197509143284018
 24
17.23347521364295
 34
0.0
 50
90.0
100
AcDbRotatedDimension
  0
DIMENSION
  5
480
330
1E
100
AcDbEntity
  8
DIM
100
AcDbDimension
  2
*D5
 10
26.20362805245135
 20
7.327511873204542
 30
0.0
 11
21.20362805245135
 21
7.327511873204542
 31
0.0
 70
    32
 71
     5
 42
10.0
  3
23NSTD
100
AcDbAlignedDimension
 13
16.20362805245135
 23
6.897983199783382
 33
0.0
 14
26.20362805245135
 24
6.897983199783382
 34
0.0
100
AcDbRotatedDimension
  0
DIMENSION
  5
481
330
1E
100
AcDbEntity
  8
DIM
100
AcDbDimension
  2
*D30
 10
15.50182237203914
 20
4.532983199783385
 30
0.0
 11
15.50182237203912
 21
5.715483199783387
 31
0.0
 70
    32
 71
     5
 42
2.364999999999997
  3
23NSTDI
100
AcDbAlignedDimension
 13
16.20362805245135
 23
6.897983199783382
 33
0.0
 14
16.20362805245135
 24
4.532983199783385
 34
0.0
 50
90.0
100
AcDbRotatedDimension
  0
DIMENSION
  5
482
330
1E
100
AcDbEntity
  8
DIM
100
AcDbDimension
  2
*D31
 10
26.12462805245135
 20
3.916345775975031
 30
0.0
 11
21.20362805245135
 21
3.916345775975031
 31
0.0
 70
    32
  1
<> EXPOSED PANEL
 71
     5
 42
9.841999999999996
  3
23NSTDI
100
AcDbAlignedDimension
 13
16.28262805245136
 23
4.595483199783385
 33
0.0
 14
26.12462805245135
 24
4.595483199783385
 34
0.0
100
AcDbRotatedDimension
  0
DIMENSION
  5
483
330
1E
100
AcDbEntity
  8
DIM
100
AcDbDimension
  2
*D32
 10
28.11488405895422
 20
6.835483199783387
 30
0.0
 11
28.11488405895422
 21
5.715483199783388
 31
0.0
 70
    32
  1
<> EXPOSED PANEL
 71
     5
 42
2.240000000000001
  3
23NSTDI
100
AcDbAlignedDimension
 13
25.98287805245135
 23
4.595483199783385
 33
0.0
 14
25.98287805245135
 24
6.835483199783387
 34
0.0
 50
90.0
100
AcDbRotatedDimension
  0
DIMENSION
  5
484
330
1E
100
AcDbEntity
  8
DIM
100
AcDbDimension
  2
*D6
 10
14.03850914328402
 20
17.80904705721731
 30
0.0
 11
12.77913414328402
 21
17.80904705721731
 31
0.0
 70
    32
 71
     5
 42
0.3989999999999867
  3
23NSTD
100
AcDbAlignedDimension
 13
14.43750914328401
 23
17.23347521364295
 33
0.0
 14
14.03850914328402
 24
16.79347521364296
 34
0.0
100
AcDbRotatedDimension
  0
DIMENSION
  5
485
330
1E
100
AcDbEntity
  8
DIM
100
AcDbDimension
  2
*D33
 10
3.106750038846061
 20
10.15847521364297
 30
0.0
 11
3.10675003884606
 21
10.37847521364296
 31
0.0
 70
    32
 71
     5
 42
0.4399999999999907
  3
23NSTDI
100
AcDbAlignedDimension
 13
4.596509143284006
 23
10.59847521364296
 33
0.0
 14
4.197509143284018
 24
10.15847521364297
 34
0.0
 50
90.0
100
AcDbRotatedDimension
  0
LINE
  5
486
330
1E
100
AcDbEntity
  8
CENTER
  6
CENTER2
100
AcDbLine
 10
4.603900663220808
 20
14.44097521364297
 30
0.0
 11
4.034216541920732
 21
14.44097521364297
 31
0.0
  0
LINE
  5
487
330
1E
100
AcDbEntity
  8
OBJECT
100
AcDbLine
 10
4.372509143284053
 20
14.36197521364297
 30
0.0
 11
4.372509143284053
 21
14.40197521364297
 31
0.0
  0
LINE
  5
488
330
1E
100
AcDbEntity
  8
OBJECT
100
AcDbLine
 10
4.317509143284017
 20
14.40197521364296
 30
0.0
 11
4.372509143284053
 21
14.40197521364297
 31
0.0
  0
LINE
  5
489
330
1E
100
AcDbEntity
  8
OBJECT
100
AcDbLine
 10
4.317509143284017
 20
14.36197521364296
 30
0.0
 11
4.372509143284053
 21
14.36197521364297
 31
0.0
  0
LINE
  5
48A
330
1E
100
AcDbEntity
  8
OBJECT
100
AcDbLine
 10
4.317509143284017
 20
14.47997521364296
 30
0.0
 11
4.372509143284053
 21
14.47997521364296
 31
0.0
  0
LINE
  5
48B
330
1E
100
AcDbEntity
  8
OBJECT
100
AcDbLine
 10
4.317509143284017
 20
14.51997521364296
 30
0.0
 11
4.372509143284053
 21
14.51997521364296
 31
0.0
  0
LINE
  5
48C
330
1E
100
AcDbEntity
  8
OBJECT
100
AcDbLine
 10
4.372509143284053
 20
14.51997521364296
 30
0.0
 11
4.372509143284053
 21
14.47997521364296
 31
0.0
  0
LINE
  5
48D
330
1E
100
AcDbEntity
  8
HIDDEN
100
AcDbLine
 10
19.80032697677691
 20
14.40197521364297
 30
0.0
 11
18.66032697677691
 21
14.40197521364297
 31
0.0
  0
LINE
  5
48E
330
1E
100
AcDbEntity
  8
HIDDEN
100
AcDbLine
 10
19.80032697677691
 20
14.36197521364297
 30
0.0
 11
18.66032697677691
 21
14.36197521364297
 31
0.0
  0
LINE
  5
48F
330
1E
100
AcDbEntity
  8
HIDDEN
100
AcDbLine
 10
19.80032697677691
 20
14.47997521364298
 30
0.0
 11
18.66032697677691
 21
14.47997521364298
 31
0.0
  0
LINE
  5
490
330
1E
100
AcDbEntity
  8
HIDDEN
100
AcDbLine
 10
19.80032697677691
 20
14.51997521364301
 30
0.0
 11
18.66032697677691
 21
14.51997521364294
 31
0.0
  0
LINE
  5
491
330
1E
100
AcDbEntity
  8
HIDDEN
100
AcDbLine
 10
17.4803269767769
 20
14.36197521364291
 30
0.0
 11
18.6203269767769
 21
14.36197521364299
 31
0.0
  0
LINE
  5
492
330
1E
100
AcDbEntity
  8
HIDDEN
100
AcDbLine
 10
17.4803269767769
 20
14.40197521364295
 30
0.0
 11
18.6203269767769
 21
14.40197521364295
 31
0.0
  0
LINE
  5
493
330
1E
100
AcDbEntity
  8
HIDDEN
100
AcDbLine
 10
17.4803269767769
 20
14.51997521364295
 30
0.0
 11
18.6203269767769
 21
14.51997521364295
 31
0.0
  0
LINE
  5
494
330
1E
100
AcDbEntity
  8
HIDDEN
100
AcDbLine
 10
17.4803269767769
 20
14.47997521364295
 30
0.0
 11
18.6203269767769
 21
14.47997521364296
 31
0.0
  0
LINE
  5
495
330
1E
100
AcDbEntity
  8
HIDDEN
100
AcDbLine
 10
14.26250914328401
 20
14.36197521364297
 30
0.0
 11
14.26250914328401
 21
14.40197521364297
 31
0.0
  0
LINE
  5
496
330
1E
100
AcDbEntity
  8
HIDDEN
100
AcDbLine
 10
14.31750914328404
 20
14.40197521364296
 30
0.0
 11
14.26250914328401
 21
14.40197521364297
 31
0.0
  0
LINE
  5
497
330
1E
100
AcDbEntity
  8
HIDDEN
100
AcDbLine
 10
14.31750914328404
 20
14.36197521364296
 30
0.0
 11
14.26250914328401
 21
14.36197521364297
 31
0.0
  0
LINE
  5
498
330
1E
100
AcDbEntity
  8
HIDDEN
100
AcDbLine
 10
14.31750914328404
 20
14.47997521364296
 30
0.0
 11
14.26250914328401
 21
14.47997521364296
 31
0.0
  0
LINE
  5
499
330
1E
100
AcDbEntity
  8
HIDDEN
100
AcDbLine
 10
14.31750914328404
 20
14.51997521364296
 30
0.0
 11
14.26250914328401
 21
14.51997521364296
 31
0.0
  0
LINE
  5
49A
330
1E
100
AcDbEntity
  8
HIDDEN
100
AcDbLine
 10
14.26250914328401
 20
14.51997521364296
 30
0.0
 11
14.26250914328401
 21
14.47997521364296
 31
0.0
  0
LINE
  5
49B
330
1E
100
AcDbEntity
  8
HIDDEN
100
AcDbLine
 10
18.6203269767769
 20
14.36197521364299
 30
0.0
 11
18.6203269767769
 21
14.40197521364295
 31
0.0
  0
LINE
  5
49C
330
1E
100
AcDbEntity
  8
HIDDEN
100
AcDbLine
 10
18.6203269767769
 20
14.47997521364296
 30
0.0
 11
18.6203269767769
 21
14.51997521364295
 31
0.0
  0
LINE
  5
49D
330
1E
100
AcDbEntity
  8
CENTER
  6
CENTER2
100
AcDbLine
 10
4.603900663220808
 20
12.95097521364297
 30
0.0
 11
4.034216541920732
 21
12.95097521364297
 31
0.0
  0
LINE
  5
49E
330
1E
100
AcDbEntity
  8
OBJECT
100
AcDbLine
 10
4.372509143284053
 20
12.87197521364297
 30
0.0
 11
4.372509143284053
 21
12.91197521364297
 31
0.0
  0
LINE
  5
49F
330
1E
100
AcDbEntity
  8
OBJECT
100
AcDbLine
 10
4.317509143284017
 20
12.91197521364296
 30
0.0
 11
4.372509143284053
 21
12.91197521364297
 31
0.0
  0
LINE
  5
4A0
330
1E
100
AcDbEntity
  8
OBJECT
100
AcDbLine
 10
4.317509143284017
 20
12.87197521364296
 30
0.0
 11
4.372509143284053
 21
12.87197521364297
 31
0.0
  0
LINE
  5
4A1
330
1E
100
AcDbEntity
  8
OBJECT
100
AcDbLine
 10
4.317509143284017
 20
12.98997521364296
 30
0.0
 11
4.372509143284053
 21
12.98997521364296
 31
0.0
  0
LINE
  5
4A2
330
1E
100
AcDbEntity
  8
OBJECT
100
AcDbLine
 10
4.317509143284017
 20
13.02997521364296
 30
0.0
 11
4.372509143284053
 21
13.02997521364296
 31
0.0
  0
LINE
  5
4A3
330
1E
100
AcDbEntity
  8
OBJECT
100
AcDbLine
 10
4.372509143284053
 20
13.02997521364296
 30
0.0
 11
4.372509143284053
 21
12.98997521364296
 31
0.0
  0
LINE
  5
4A4
330
1E
100
AcDbEntity
  8
HIDDEN
100
AcDbLine
 10
19.80032697677691
 20
12.91197521364298
 30
0.0
 11
18.66032697677691
 21
12.91197521364297
 31
0.0
  0
LINE
  5
4A5
330
1E
100
AcDbEntity
  8
HIDDEN
100
AcDbLine
 10
19.80032697677691
 20
12.87197521364298
 30
0.0
 11
18.66032697677691
 21
12.87197521364298
 31
0.0
  0
LINE
  5
4A6
330
1E
100
AcDbEntity
  8
HIDDEN
100
AcDbLine
 10
19.80032697677691
 20
12.98997521364297
 30
0.0
 11
18.66032697677691
 21
12.98997521364297
 31
0.0
  0
LINE
  5
4A7
330
1E
100
AcDbEntity
  8
HIDDEN
100
AcDbLine
 10
19.80032697677691
 20
13.02997521364302
 30
0.0
 11
18.66032697677691
 21
13.02997521364294
 31
0.0
  0
LINE
  5
4A8
330
1E
100
AcDbEntity
  8
HIDDEN
100
AcDbLine
 10
17.4803269767769
 20
12.87197521364292
 30
0.0
 11
18.6203269767769
 21
12.87197521364299
 31
0.0
  0
LINE
  5
4A9
330
1E
100
AcDbEntity
  8
HIDDEN
100
AcDbLine
 10
17.4803269767769
 20
12.91197521364296
 30
0.0
 11
18.6203269767769
 21
12.91197521364296
 31
0.0
  0
LINE
  5
4AA
330
1E
100
AcDbEntity
  8
HIDDEN
100
AcDbLine
 10
17.4803269767769
 20
13.02997521364295
 30
0.0
 11
18.6203269767769
 21
13.02997521364295
 31
0.0
  0
LINE
  5
4AB
330
1E
100
AcDbEntity
  8
HIDDEN
100
AcDbLine
 10
17.4803269767769
 20
12.98997521364295
 30
0.0
 11
18.6203269767769
 21
12.98997521364296
 31
0.0
  0
LINE
  5
4AC
330
1E
100
AcDbEntity
  8
HIDDEN
100
AcDbLine
 10
14.26250914328401
 20
12.87197521364297
 30
0.0
 11
14.26250914328401
 21
12.91197521364297
 31
0.0
  0
LINE
  5
4AD
330
1E
100
AcDbEntity
  8
HIDDEN
100
AcDbLine
 10
14.31750914328404
 20
12.91197521364296
 30
0.0
 11
14.26250914328401
 21
12.91197521364297
 31
0.0
  0
LINE
  5
4AE
330
1E
100
AcDbEntity
  8
HIDDEN
100
AcDbLine
 10
14.31750914328404
 20
12.87197521364296
 30
0.0
 11
14.26250914328401
 21
12.87197521364297
 31
0.0
  0
LINE
  5
4AF
330
1E
100
AcDbEntity
  8
HIDDEN
100
AcDbLine
 10
14.31750914328404
 20
12.98997521364296
 30
0.0
 11
14.26250914328401
 21
12.98997521364296
 31
0.0
  0
LINE
  5
4B0
330
1E
100
AcDbEntity
  8
HIDDEN
100
AcDbLine
 10
14.31750914328404
 20
13.02997521364296
 30
0.0
 11
14.26250914328401
 21
13.02997521364296
 31
0.0
  0
LINE
  5
4B1
330
1E
100
AcDbEntity
  8
HIDDEN
100
AcDbLine
 10
14.26250914328401
 20
13.02997521364296
 30
0.0
 11
14.26250914328401
 21
12.98997521364296
 31
0.0
  0
LINE
  5
4B2
330
1E
100
AcDbEntity
  8
HIDDEN
100
AcDbLine
 10
18.6203269767769
 20
12.87197521364299
 30
0.0
 11
18.6203269767769
 21
12.91197521364296
 31
0.0
  0
LINE
  5
4B3
330
1E
100
AcDbEntity
  8
HIDDEN
100
AcDbLine
 10
18.6203269767769
 20
12.98997521364296
 30
0.0
 11
18.6203269767769
 21
13.02997521364295
 31
0.0
  0
LINE
  5
4B4
330
1E
100
AcDbEntity
  8
CENTER
  6
CENTER2
100
AcDbLine
 10
4.603900663220808
 20
11.46097521364297
 30
0.0
 11
4.034216541920732
 21
11.46097521364297
 31
0.0
  0
LINE
  5
4B5
330
1E
100
AcDbEntity
  8
OBJECT
100
AcDbLine
 10
4.371509143284018
 20
11.38197521364297
 30
0.0
 11
4.371509143284018
 21
11.42197521364297
 31
0.0
  0
LINE
  5
4B6
330
1E
100
AcDbEntity
  8
OBJECT
100
AcDbLine
 10
4.316509143283982
 20
11.42197521364296
 30
0.0
 11
4.371509143284018
 21
11.42197521364297
 31
0.0
  0
LINE
  5
4B7
330
1E
100
AcDbEntity
  8
OBJECT
100
AcDbLine
 10
4.316509143283982
 20
11.38197521364296
 30
0.0
 11
4.371509143284018
 21
11.38197521364297
 31
0.0
  0
LINE
  5
4B8
330
1E
100
AcDbEntity
  8
OBJECT
100
AcDbLine
 10
4.316509143283982
 20
11.49997521364296
 30
0.0
 11
4.371509143284018
 21
11.49997521364296
 31
0.0
  0
LINE
  5
4B9
330
1E
100
AcDbEntity
  8
OBJECT
100
AcDbLine
 10
4.316509143283982
 20
11.53997521364296
 30
0.0
 11
4.371509143284018
 21
11.53997521364296
 31
0.0
  0
LINE
  5
4BA
330
1E
100
AcDbEntity
  8
OBJECT
100
AcDbLine
 10
4.371509143284018
 20
11.53997521364296
 30
0.0
 11
4.371509143284018
 21
11.49997521364296
 31
0.0
  0
LINE
  5
4BB
330
1E
100
AcDbEntity
  8
HIDDEN
100
AcDbLine
 10
19.80032697677691
 20
11.42197521364298
 30
0.0
 11
18.66032697677691
 21
11.42197521364297
 31
0.0
  0
LINE
  5
4BC
330
1E
100
AcDbEntity
  8
HIDDEN
100
AcDbLine
 10
19.80032697677691
 20
11.38197521364298
 30
0.0
 11
18.66032697677691
 21
11.38197521364298
 31
0.0
  0
LINE
  5
4BD
330
1E
100
AcDbEntity
  8
HIDDEN
100
AcDbLine
 10
19.80032697677691
 20
11.49997521364297
 30
0.0
 11
18.66032697677691
 21
11.49997521364297
 31
0.0
  0
LINE
  5
4BE
330
1E
100
AcDbEntity
  8
HIDDEN
100
AcDbLine
 10
19.80032697677691
 20
11.53997521364302
 30
0.0
 11
18.66032697677691
 21
11.53997521364294
 31
0.0
  0
LINE
  5
4BF
330
1E
100
AcDbEntity
  8
HIDDEN
100
AcDbLine
 10
17.4803269767769
 20
11.3819752136429
 30
0.0
 11
18.6203269767769
 21
11.38197521364298
 31
0.0
  0
LINE
  5
4C0
330
1E
100
AcDbEntity
  8
HIDDEN
100
AcDbLine
 10
17.4803269767769
 20
11.42197521364294
 30
0.0
 11
18.6203269767769
 21
11.42197521364294
 31
0.0
  0
LINE
  5
4C1
330
1E
100
AcDbEntity
  8
HIDDEN
100
AcDbLine
 10
17.4803269767769
 20
11.53997521364295
 30
0.0
 11
18.6203269767769
 21
11.53997521364295
 31
0.0
  0
LINE
  5
4C2
330
1E
100
AcDbEntity
  8
HIDDEN
100
AcDbLine
 10
17.4803269767769
 20
11.49997521364296
 30
0.0
 11
18.6203269767769
 21
11.49997521364296
 31
0.0
  0
LINE
  5
4C3
330
1E
100
AcDbEntity
  8
HIDDEN
100
AcDbLine
 10
14.26250914328401
 20
11.38197521364297
 30
0.0
 11
14.26250914328401
 21
11.42197521364297
 31
0.0
  0
LINE
  5
4C4
330
1E
100
AcDbEntity
  8
HIDDEN
100
AcDbLine
 10
14.31750914328404
 20
11.42197521364296
 30
0.0
 11
14.26250914328401
 21
11.42197521364297
 31
0.0
  0
LINE
  5
4C5
330
1E
100
AcDbEntity
  8
HIDDEN
100
AcDbLine
 10
14.31750914328404
 20
11.38197521364296
 30
0.0
 11
14.26250914328401
 21
11.38197521364297
 31
0.0
  0
LINE
  5
4C6
330
1E
100
AcDbEntity
  8
HIDDEN
100
AcDbLine
 10
14.31750914328404
 20
11.49997521364296
 30
0.0
 11
14.26250914328401
 21
11.49997521364296
 31
0.0
  0
LINE
  5
4C7
330
1E
100
AcDbEntity
  8
HIDDEN
100
AcDbLine
 10
14.31750914328404
 20
11.53997521364296
 30
0.0
 11
14.26250914328401
 21
11.53997521364296
 31
0.0
  0
LINE
  5
4C8
330
1E
100
AcDbEntity
  8
HIDDEN
100
AcDbLine
 10
14.26250914328401
 20
11.53997521364296
 30
0.0
 11
14.26250914328401
 21
11.49997521364296
 31
0.0
  0
LINE
  5
4C9
330
1E
100
AcDbEntity
  8
HIDDEN
100
AcDbLine
 10
18.6203269767769
 20
11.38197521364298
 30
0.0
 11
18.6203269767769
 21
11.42197521364294
 31
0.0
  0
LINE
  5
4CA
330
1E
100
AcDbEntity
  8
HIDDEN
100
AcDbLine
 10
18.6203269767769
 20
11.49997521364296
 30
0.0
 11
18.6203269767769
 21
11.53997521364295
 31
0.0
  0
TEXT
  5
4CB
330
1E
100
AcDbEntity
  8
TEXT
100
AcDbText
 10
19.26612805245135
 20
5.382149866450049
 30
0.0
 40
0.25
  1
(TEXTURED ON ONE SIDE)
 41
0.75
 72
     4
 11
21.20362805245135
 21
5.507149866450049
 31
0.0
100
AcDbText
  0
TEXT
  5
4CC
330
1E
100
AcDbEntity
  8
TEXT
100
AcDbText
 10
18.87550305245135
 20
5.798816533116717
 30
0.0
 40
0.25
  1
PLASTIC PANEL - 0.070 THICK
 41
0.75
 72
     4
 11
21.20362805245135
 21
5.923816533116717
 31
0.0
100
AcDbText
  0
LINE
  5
4CD
330
1E
100
AcDbEntity
  8
HIDDEN
100
AcDbLine
 10
17.4803269767769
 20
17.04847521364297
 30
0.0
 11
17.4803269767769
 21
10.34347521364296
 31
0.0
  0
LINE
  5
4CE
330
1E
100
AcDbEntity
  8
HIDDEN
100
AcDbLine
 10
19.82032697677692
 20
10.30347521364298
 30
0.0
 11
19.82032697677692
 21
10.23347521364298
 31
0.0
  0
LINE
  5
4CF
330
1E
100
AcDbEntity
  8
HIDDEN
100
AcDbLine
 10
19.82032697677691
 20
10.15847521364297
 30
0.0
 11
19.7603269767769
 21
10.23347521364296
 31
0.0
  0
LINE
  5
4D0
330
1E
100
AcDbEntity
  8
HIDDEN
100
AcDbLine
 10
19.7403269767769
 20
10.30347521364296
 30
0.0
 11
19.7403269767769
 21
10.34347521364296
 31
0.0
  0
LINE
  5
4D1
330
1E
100
AcDbEntity
  8
HIDDEN
100
AcDbLine
 10
19.80032697677691
 20
17.04847521364294
 30
0.0
 11
19.80032697677689
 21
10.34347521364298
 31
0.0
  0
LINE
  5
4D2
330
1E
100
AcDbEntity
  8
HIDDEN
100
AcDbLine
 10
17.46032697677691
 20
17.23347521364295
 30
0.0
 11
17.5203269767769
 21
17.15847521364296
 31
0.0
  0
LINE
  5
4D3
330
1E
100
AcDbEntity
  8
HIDDEN
100
AcDbLine
 10
17.54032697677691
 20
17.08847521364296
 30
0.0
 11
17.54032697677691
 21
17.04847521364297
 31
0.0
  0
LINE
  5
4D4
330
1E
100
AcDbEntity
  8
HIDDEN
100
AcDbLine
 10
17.43232697677692
 20
16.70347521364295
 30
0.0
 11
17.43232697677692
 21
16.88347521364296
 31
0.0
  0
LINE
  5
4D5
330
1E
100
AcDbEntity
  8
HIDDEN
100
AcDbLine
 10
17.4603269767769
 20
17.08847521364297
 30
0.0
 11
17.4603269767769
 21
17.15847521364296
 31
0.0
  0
LINE
  5
4D6
330
1E
100
AcDbEntity
  8
HIDDEN
100
AcDbLine
 10
19.82032697677691
 20
17.23347521364295
 30
0.0
 11
19.7603269767769
 21
17.15847521364296
 31
0.0
  0
LINE
  5
4D7
330
1E
100
AcDbEntity
  8
HIDDEN
  6
HIDDEN2
100
AcDbLine
 10
19.8623269767769
 20
16.45697521364296
 30
0.0
 11
19.8623269767769
 21
16.36697521364297
 31
0.0
  0
LINE
  5
4D8
330
1E
100
AcDbEntity
  8
HIDDEN
  6
HIDDEN2
100
AcDbLine
 10
19.64432697677689
 20
16.52097521364296
 30
0.0
 11
19.64432697677689
 21
16.30297521364297
 31
0.0
  0
LINE
  5
4D9
330
1E
100
AcDbEntity
  8
HIDDEN
  6
HIDDEN2
100
AcDbLine
 10
19.67182697677689
 20
16.45697521364296
 30
0.0
 11
19.6718269767769
 21
16.36697521364297
 31
0.0
  0
LINE
  5
4DA
330
1E
100
AcDbEntity
  8
HIDDEN
  6
HIDDEN2
100
AcDbLine
 10
19.64432697677689
 20
16.48447521364297
 30
0.0
 11
19.67182697677689
 21
16.45697521364296
 31
0.0
  0
LINE
  5
4DB
330
1E
100
AcDbEntity
  8
HIDDEN
  6
HIDDEN2
100
AcDbLine
 10
19.64432697677689
 20
16.52097521364296
 30
0.0
 11
19.80032697677689
 21
16.52097521364296
 31
0.0
  0
LINE
  5
4DC
330
1E
100
AcDbEntity
  8
HIDDEN
  6
HIDDEN2
100
AcDbLine
 10
19.67182697677689
 20
16.45697521364296
 30
0.0
 11
19.8623269767769
 21
16.45697521364296
 31
0.0
  0
LINE
  5
4DD
330
1E
100
AcDbEntity
  8
HIDDEN
100
AcDbLine
 10
19.7403269767769
 20
17.08847521364296
 30
0.0
 11
19.7403269767769
 21
17.04847521364297
 31
0.0
  0
LINE
  5
4DE
330
1E
100
AcDbEntity
  8
HIDDEN
  6
HIDDEN2
100
AcDbLine
 10
19.83347416203175
 20
16.85847521364296
 30
0.0
 11
19.83347416203173
 21
16.72847521364296
 31
0.0
  0
LINE
  5
4DF
330
1E
100
AcDbEntity
  8
HIDDEN
  6
HIDDEN2
100
AcDbLine
 10
19.9203269767769
 20
16.65297521364297
 30
0.0
 11
19.83347416203173
 21
16.72847521364296
 31
0.0
  0
LINE
  5
4E0
330
1E
100
AcDbEntity
  8
HIDDEN
  6
HIDDEN2
100
AcDbLine
 10
19.9203269767769
 20
16.93397521364294
 30
0.0
 11
19.83347416203175
 21
16.85847521364296
 31
0.0
  0
LINE
  5
4E1
330
1E
100
AcDbEntity
  8
HIDDEN
100
AcDbLine
 10
19.82032697677692
 20
17.08847521364294
 30
0.0
 11
19.82032697677692
 21
17.15847521364294
 31
0.0
  0
LINE
  5
4E2
330
1E
100
AcDbEntity
  8
HIDDEN
  6
HIDDEN2
100
AcDbLine
 10
19.64432697677689
 20
16.33947521364296
 30
0.0
 11
19.67182697677689
 21
16.36697521364297
 31
0.0
  0
LINE
  5
4E3
330
1E
100
AcDbEntity
  8
HIDDEN
  6
HIDDEN2
100
AcDbLine
 10
19.64432697677689
 20
16.30297521364297
 30
0.0
 11
19.80032697677689
 21
16.30297521364297
 31
0.0
  0
LINE
  5
4E4
330
1E
100
AcDbEntity
  8
HIDDEN
  6
HIDDEN2
100
AcDbLine
 10
19.6718269767769
 20
16.36697521364297
 30
0.0
 11
19.8623269767769
 21
16.36697521364297
 31
0.0
  0
LINE
  5
4E5
330
1E
100
AcDbEntity
  8
HIDDEN
100
AcDbLine
 10
18.64432697677689
 20
16.94947521364294
 30
0.0
 11
19.80032697677689
 21
16.94947521364294
 31
0.0
  0
LINE
  5
4E6
330
1E
100
AcDbEntity
  8
HIDDEN
100
AcDbLine
 10
18.64432697677689
 20
16.63747521364296
 30
0.0
 11
19.80032697677689
 21
16.63747521364296
 31
0.0
  0
LINE
  5
4E7
330
1E
100
AcDbEntity
  8
HIDDEN
100
AcDbLine
 10
18.64432697677689
 20
16.85847521364295
 30
0.0
 11
19.83347416203175
 21
16.85847521364296
 31
0.0
  0
LINE
  5
4E8
330
1E
100
AcDbEntity
  8
HIDDEN
100
AcDbLine
 10
18.64432697677689
 20
16.72847521364296
 30
0.0
 11
19.83347416203173
 21
16.72847521364296
 31
0.0
  0
LINE
  5
4E9
330
1E
100
AcDbEntity
  8
HIDDEN
100
AcDbLine
 10
18.66032697677691
 20
17.08847521364294
 30
0.0
 11
19.82032697677692
 21
17.08847521364294
 31
0.0
  0
LINE
  5
4EA
330
1E
100
AcDbEntity
  8
HIDDEN
100
AcDbLine
 10
18.66032697677691
 20
17.04847521364301
 30
0.0
 11
19.80032697677691
 21
17.04847521364294
 31
0.0
  0
LINE
  5
4EB
330
1E
100
AcDbEntity
  8
HIDDEN
100
AcDbLine
 10
18.66032697677689
 20
17.15847521364294
 30
0.0
 11
19.82032697677692
 21
17.15847521364294
 31
0.0
  0
LINE
  5
4EC
330
1E
100
AcDbEntity
  8
HIDDEN
100
AcDbLine
 10
18.63632697677688
 20
16.88347521364295
 30
0.0
 11
17.43232697677692
 21
16.88347521364296
 31
0.0
  0
LINE
  5
4ED
330
1E
100
AcDbEntity
  8
HIDDEN
100
AcDbLine
 10
18.63632697677688
 20
16.70347521364296
 30
0.0
 11
17.43232697677692
 21
16.70347521364296
 31
0.0
  0
LINE
  5
4EE
330
1E
100
AcDbEntity
  8
HIDDEN
100
AcDbLine
 10
18.63632697677688
 20
16.94947521364294
 30
0.0
 11
17.4803269767769
 21
16.94947521364296
 31
0.0
  0
LINE
  5
4EF
330
1E
100
AcDbEntity
  8
HIDDEN
100
AcDbLine
 10
18.63632697677688
 20
16.63747521364296
 30
0.0
 11
17.4803269767769
 21
16.63747521364296
 31
0.0
  0
LINE
  5
4F0
330
1E
100
AcDbEntity
  8
HIDDEN
100
AcDbLine
 10
18.66032697677691
 20
17.15847521364296
 30
0.0
 11
17.4603269767769
 21
17.15847521364296
 31
0.0
  0
LINE
  5
4F1
330
1E
100
AcDbEntity
  8
HIDDEN
100
AcDbLine
 10
18.6203269767769
 20
17.08847521364297
 30
0.0
 11
17.4603269767769
 21
17.08847521364297
 31
0.0
  0
LINE
  5
4F2
330
1E
100
AcDbEntity
  8
HIDDEN
100
AcDbLine
 10
18.6203269767769
 20
17.04847521364303
 30
0.0
 11
17.4803269767769
 21
17.04847521364297
 31
0.0
  0
LINE
  5
4F3
330
1E
100
AcDbEntity
  8
HIDDEN
  6
HIDDEN2
100
AcDbLine
 10
18.64432697677689
 20
16.94947521364294
 30
0.0
 11
18.64432697677689
 21
16.63747521364296
 31
0.0
  0
LINE
  5
4F4
330
1E
100
AcDbEntity
  8
HIDDEN
  6
HIDDEN2
100
AcDbLine
 10
18.63632697677688
 20
16.63747521364296
 30
0.0
 11
18.63632697677688
 21
16.94947521364294
 31
0.0
  0
LINE
  5
4F5
330
1E
100
AcDbEntity
  8
HIDDEN
  6
HIDDEN2
100
AcDbLine
 10
18.63632697677688
 20
16.83847521364295
 30
0.0
 11
18.37532697677689
 21
16.83847521364296
 31
0.0
  0
LINE
  5
4F6
330
1E
100
AcDbEntity
  8
HIDDEN
  6
HIDDEN2
100
AcDbLine
 10
18.63632697677688
 20
16.74847521364296
 30
0.0
 11
18.37532697677689
 21
16.74847521364296
 31
0.0
  0
LINE
  5
4F7
330
1E
100
AcDbEntity
  8
HIDDEN
100
AcDbLine
 10
18.6203269767769
 20
17.08847521364297
 30
0.0
 11
18.6203269767769
 21
17.04847521364303
 31
0.0
  0
LINE
  5
4F8
330
1E
100
AcDbEntity
  8
HIDDEN
  6
HIDDEN2
100
AcDbLine
 10
18.37532697677689
 20
16.70347521364296
 30
0.0
 11
18.37532697677689
 21
16.88347521364295
 31
0.0
  0
LINE
  5
4F9
330
1E
100
AcDbEntity
  8
HIDDEN
100
AcDbLine
 10
14.31750914328401
 20
10.15847521364297
 30
0.0
 11
14.25750914328401
 21
10.23347521364296
 31
0.0
  0
LINE
  5
4FA
330
1E
100
AcDbEntity
  8
HIDDEN
100
AcDbLine
 10
14.25750914328399
 20
10.30347521364296
 30
0.0
 11
14.25750914328399
 21
10.34347521364296
 31
0.0
  0
LINE
  5
4FB
330
1E
100
AcDbEntity
  8
OBJECT
100
AcDbLine
 10
4.317509143284006
 20
10.15847521364297
 30
0.0
 11
4.377509143284001
 21
10.23347521364296
 31
0.0
  0
LINE
  5
4FC
330
1E
100
AcDbEntity
  8
OBJECT
100
AcDbLine
 10
4.377509143284011
 20
10.30347521364296
 30
0.0
 11
4.377509143284011
 21
10.34347521364296
 31
0.0
  0
LINE
  5
4FD
330
1E
100
AcDbEntity
  8
HIDDEN
100
AcDbLine
 10
14.25750914328399
 20
17.08847521364296
 30
0.0
 11
14.25750914328399
 21
17.04847521364297
 31
0.0
  0
LINE
  5
4FE
330
1E
100
AcDbEntity
  8
HIDDEN
100
AcDbLine
 10
14.31750914328401
 20
17.23347521364295
 30
0.0
 11
14.25750914328401
 21
17.15847521364296
 31
0.0
  0
LINE
  5
4FF
330
1E
100
AcDbEntity
  8
OBJECT
100
AcDbLine
 10
4.317509143284019
 20
17.23347521364297
 30
0.0
 11
4.377509143284014
 21
17.15847521364298
 31
0.0
  0
LINE
  5
500
330
1E
100
AcDbEntity
  8
OBJECT
100
AcDbLine
 10
4.377509143284011
 20
17.08847521364297
 30
0.0
 11
4.377509143284011
 21
17.04847521364299
 31
0.0
  0
LINE
  5
501
330
1E
100
AcDbEntity
  8
OBJECT
100
AcDbLine
 10
14.31750914328399
 20
6.875483199783387
 30
0.0
 11
14.31750914328397
 21
5.695483199783392
 31
0.0
  0
LINE
  5
502
330
1E
100
AcDbEntity
  8
HIDDEN
100
AcDbLine
 10
14.31750914328397
 20
4.555483199783386
 30
0.0
 11
11.86067658102609
 21
4.555483199783379
 31
0.0
  0
LINE
  5
503
330
1E
100
AcDbEntity
  8
OBJECT
100
AcDbLine
 10
14.23950914328399
 20
4.535483199783391
 30
0.0
 11
11.825323933919
 21
4.535483199783391
 31
0.0
  0
LINE
  5
504
330
1E
100
AcDbEntity
  8
OBJECT
100
AcDbLine
 10
14.25733459263474
 20
4.595483199783386
 30
0.0
 11
11.80098639598411
 21
4.595483199783394
 31
0.0
  0
ARC
  5
505
330
1E
100
AcDbEntity
  8
OBJECT
100
AcDbCircle
 10
14.23950914328399
 20
4.613483199783386
 30
0.0
 40
0.078
100
AcDbArc
 50
270.0
 51
0.0
  0
LINE
  5
506
330
1E
100
AcDbEntity
  8
OBJECT
100
AcDbLine
 10
14.31750914328397
 20
5.695483199783392
 30
0.0
 11
14.31750914328397
 21
4.555483199783386
 31
0.0
  0
LINE
  5
507
330
1E
100
AcDbEntity
  8
HIDDEN
100
AcDbLine
 10
14.19468369393328
 20
5.711483199783394
 30
0.0
 11
14.19468369393328
 21
4.555483199783401
 31
0.0
  0
LINE
  5
508
330
1E
100
AcDbEntity
  8
HIDDEN
100
AcDbLine
 10
13.88268369393329
 20
5.711483199783394
 30
0.0
 11
13.88268369393329
 21
4.555483199783393
 31
0.0
  0
LINE
  5
509
330
1E
100
AcDbEntity
  8
HIDDEN
100
AcDbLine
 10
13.97368369393328
 20
5.711483199783394
 30
0.0
 11
13.97368369393328
 21
4.522336014528553
 31
0.0
  0
LINE
  5
50A
330
1E
100
AcDbEntity
  8
HIDDEN
100
AcDbLine
 10
14.10368369393327
 20
5.711483199783394
 30
0.0
 11
14.10368369393329
 21
4.522336014528546
 31
0.0
  0
LINE
  5
50B
330
1E
100
AcDbEntity
  8
HIDDEN
  6
HIDDEN2
100
AcDbLine
 10
14.17918369393327
 20
4.435483199783383
 30
0.0
 11
14.10368369393329
 21
4.522336014528546
 31
0.0
  0
LINE
  5
50C
330
1E
100
AcDbEntity
  8
HIDDEN
  6
HIDDEN2
100
AcDbLine
 10
14.10368369393329
 20
4.522336014528546
 30
0.0
 11
13.97368369393328
 21
4.522336014528553
 31
0.0
  0
LINE
  5
50D
330
1E
100
AcDbEntity
  8
HIDDEN
  6
HIDDEN2
100
AcDbLine
 10
13.89818369393329
 20
4.435483199783383
 30
0.0
 11
13.97368369393328
 21
4.522336014528553
 31
0.0
  0
LINE
  5
50E
330
1E
100
AcDbEntity
  8
HIDDEN
100
AcDbLine
 10
14.12868369393327
 20
5.719483199783398
 30
0.0
 11
14.12868369393328
 21
6.92348319978337
 31
0.0
  0
LINE
  5
50F
330
1E
100
AcDbEntity
  8
HIDDEN
100
AcDbLine
 10
14.19468369393328
 20
5.719483199783398
 30
0.0
 11
14.19468369393328
 21
6.875483199783382
 31
0.0
  0
LINE
  5
510
330
1E
100
AcDbEntity
  8
HIDDEN
100
AcDbLine
 10
13.94868369393329
 20
5.719483199783398
 30
0.0
 11
13.94868369393329
 21
6.92348319978337
 31
0.0
  0
LINE
  5
511
330
1E
100
AcDbEntity
  8
HIDDEN
100
AcDbLine
 10
13.88268369393329
 20
5.719483199783398
 30
0.0
 11
13.88268369393327
 21
6.875483199783382
 31
0.0
  0
LINE
  5
512
330
1E
100
AcDbEntity
  8
HIDDEN
  6
HIDDEN2
100
AcDbLine
 10
13.88268369393329
 20
5.719483199783398
 30
0.0
 11
14.19468369393328
 21
5.719483199783398
 31
0.0
  0
LINE
  5
513
330
1E
100
AcDbEntity
  8
HIDDEN
  6
HIDDEN2
100
AcDbLine
 10
14.19468369393328
 20
5.711483199783394
 30
0.0
 11
13.88268369393329
 21
5.711483199783394
 31
0.0
  0
LINE
  5
514
330
1E
100
AcDbEntity
  8
HIDDEN
  6
HIDDEN2
100
AcDbLine
 10
13.94868369393329
 20
5.980483199783392
 30
0.0
 11
14.12868369393327
 21
5.980483199783392
 31
0.0
  0
LINE
  5
515
330
1E
100
AcDbEntity
  8
HIDDEN
  6
HIDDEN2
100
AcDbLine
 10
13.99368369393328
 20
5.719483199783398
 30
0.0
 11
13.99368369393328
 21
5.980483199783392
 31
0.0
  0
LINE
  5
516
330
1E
100
AcDbEntity
  8
HIDDEN
  6
HIDDEN2
100
AcDbLine
 10
14.08368369393327
 20
5.719483199783398
 30
0.0
 11
14.08368369393327
 21
5.980483199783392
 31
0.0
  0
LINE
  5
517
330
1E
100
AcDbEntity
  8
HIDDEN
100
AcDbLine
 10
13.94868369393328
 20
6.923483199783377
 30
0.0
 11
14.12868369393328
 21
6.92348319978337
 31
0.0
  0
LINE
  5
518
330
1E
100
AcDbEntity
  8
HIDDEN
100
AcDbLine
 10
4.531509143283988
 20
5.711483199783394
 30
0.0
 11
4.531509143283981
 21
4.522336014528546
 31
0.0
  0
LINE
  5
519
330
1E
100
AcDbEntity
  8
HIDDEN
100
AcDbLine
 10
4.661509143283983
 20
5.711483199783394
 30
0.0
 11
4.661509143283983
 21
4.522336014528553
 31
0.0
  0
LINE
  5
51A
330
1E
100
AcDbEntity
  8
OBJECT
100
AcDbLine
 10
4.752509143283978
 20
5.711483199783394
 30
0.0
 11
4.752509143283978
 21
4.555483199783393
 31
0.0
  0
LINE
  5
51B
330
1E
100
AcDbEntity
  8
OBJECT
100
AcDbLine
 10
4.440509143283986
 20
5.711483199783394
 30
0.0
 11
4.440509143283986
 21
4.555483199783401
 31
0.0
  0
LINE
  5
51C
330
1E
100
AcDbEntity
  8
OBJECT
100
AcDbLine
 10
4.752509143283978
 20
5.719483199783398
 30
0.0
 11
4.752509143283985
 21
6.875483199783382
 31
0.0
  0
LINE
  5
51D
330
1E
100
AcDbEntity
  8
HIDDEN
100
AcDbLine
 10
4.686509143283982
 20
5.719483199783398
 30
0.0
 11
4.686509143283982
 21
6.92348319978337
 31
0.0
  0
LINE
  5
51E
330
1E
100
AcDbEntity
  8
OBJECT
100
AcDbLine
 10
4.440509143283986
 20
5.719483199783398
 30
0.0
 11
4.44050914328398
 21
6.875483199783382
 31
0.0
  0
LINE
  5
51F
330
1E
100
AcDbEntity
  8
HIDDEN
100
AcDbLine
 10
4.50650914328399
 20
5.719483199783398
 30
0.0
 11
4.506509143283983
 21
6.92348319978337
 31
0.0
  0
LINE
  5
520
330
1E
100
AcDbEntity
  8
HIDDEN
  6
HIDDEN2
100
AcDbLine
 10
4.551509143283992
 20
5.719483199783398
 30
0.0
 11
4.551509143283983
 21
5.980483199783392
 31
0.0
  0
LINE
  5
521
330
1E
100
AcDbEntity
  8
HIDDEN
  6
HIDDEN2
100
AcDbLine
 10
4.641509143283982
 20
5.719483199783398
 30
0.0
 11
4.641509143283982
 21
5.980483199783392
 31
0.0
  0
LINE
  5
522
330
1E
100
AcDbEntity
  8
HIDDEN
  6
HIDDEN2
100
AcDbLine
 10
4.686509143283982
 20
5.980483199783392
 30
0.0
 11
4.50650914328399
 21
5.980483199783392
 31
0.0
  0
LINE
  5
523
330
1E
100
AcDbEntity
  8
OBJECT
100
AcDbLine
 10
4.440509143283986
 20
5.711483199783394
 30
0.0
 11
4.752509143283978
 21
5.711483199783394
 31
0.0
  0
LINE
  5
524
330
1E
100
AcDbEntity
  8
OBJECT
100
AcDbLine
 10
4.752509143283978
 20
5.719483199783398
 30
0.0
 11
4.440509143283986
 21
5.719483199783398
 31
0.0
  0
LINE
  5
525
330
1E
100
AcDbEntity
  8
HIDDEN
100
AcDbLine
 10
4.68650914328399
 20
6.923483199783377
 30
0.0
 11
4.506509143283983
 21
6.92348319978337
 31
0.0
  0
LINE
  5
526
330
1E
100
AcDbEntity
  8
HIDDEN
  6
HIDDEN2
100
AcDbLine
 10
4.737009143283974
 20
4.435483199783383
 30
0.0
 11
4.661509143283983
 21
4.522336014528553
 31
0.0
  0
LINE
  5
527
330
1E
100
AcDbEntity
  8
HIDDEN
  6
HIDDEN2
100
AcDbLine
 10
4.531509143283981
 20
4.522336014528546
 30
0.0
 11
4.661509143283983
 21
4.522336014528553
 31
0.0
  0
LINE
  5
528
330
1E
100
AcDbEntity
  8
HIDDEN
  6
HIDDEN2
100
AcDbLine
 10
4.456009143283996
 20
4.435483199783383
 30
0.0
 11
4.531509143283981
 21
4.522336014528546
 31
0.0
  0
LINE
  5
529
330
1E
100
AcDbEntity
  8
OBJECT
100
AcDbLine
 10
4.317509143284003
 20
6.875483199783388
 30
0.0
 11
4.317509143284
 21
5.810483199783385
 31
0.0
  0
LINE
  5
52A
330
1E
100
AcDbEntity
  8
OBJECT
100
AcDbLine
 10
4.317509143284
 20
5.790483199783387
 30
0.0
 11
4.317509143284003
 21
4.555483199783386
 31
0.0
  0
DIMENSION
  5
52B
330
1E
100
AcDbEntity
  8
DIM
100
AcDbDimension
  2
*D7
 10
26.20362805245135
 20
3.2621999201111
 30
0.0
 11
21.20362805245135
 21
3.2621999201111
 31
0.0
 70
    32
 71
     5
 42
10.0
  3
23NSTD
100
AcDbAlignedDimension
 13
16.20362805245135
 23
2.832671246689939
 33
0.0
 14
26.20362805245135
 24
2.832671246689939
 34
0.0
100
AcDbRotatedDimension
  0
LWPOLYLINE
  5
52C
330
1E
100
AcDbEntity
  8
OBJECT
100
AcDbPolyline
 90
        4
 70
     1
 43
0.0
 10
26.20362805245135
 20
0.467671246689943
 10
26.20362805245135
 20
2.832671246689939
 10
16.20362805245135
 20
2.832671246689939
 10
16.20362805245135
 20
0.467671246689943
  0
DIMENSION
  5
532
330
1E
100
AcDbEntity
  8
DIM
100
AcDbDimension
  2
*D34
 10
15.50182237203914
 20
0.4676712466899433
 30
0.0
 11
15.50182237203914
 21
1.650171246689943
 31
0.0
 70
    32
 71
     5
 42
2.364999999999997
  3
23NSTDI
100
AcDbAlignedDimension
 13
16.20362805245135
 23
2.832671246689939
 33
0.0
 14
16.20362805245135
 24
0.467671246689943
 34
0.0
 50
90.0
100
AcDbRotatedDimension
  0
TEXT
  5
533
330
1E
100
AcDbEntity
  8
TEXT
100
AcDbText
 10
17.89112805245135
 20
1.31683791335661
 30
0.0
 40
0.25
  1
(PRESSURE-SENSITIVE TAPE ON ONE SIDE)
 41
0.75
 72
     4
 11
21.20362805245135
 21
1.44183791335661
 31
0.0
100
AcDbText
  0
TEXT
  5
534
330
1E
100
AcDbEntity
  8
TEXT
100
AcDbText
 10
18.78175305245135
 20
1.733504580023275
 30
0.0
 40
0.25
  1
ALUMINUM PANEL - 0.060 THICK
 41
0.75
 72
     4
 11
21.20362805245135
 21
1.858504580023275
 31
0.0
100
AcDbText
  0
INSERT
  5
535
330
1E
100
AcDbEntity
  8
OBJECT
100
AcDbBlockReference
  2
*X0
 10
-25.51043693039847
 20
-21.90772529043782
 30
0.0
1001
ACAD
1000
HATCH
1002
{
1070
    16
1000
PLAST
1040
2.0
1040
0.7853981633974483
1002
}
  0
INSERT
  5
536
330
1E
100
AcDbEntity
  8
OBJECT
100
AcDbBlockReference
  2
*X1
 10
-25.51043693039847
 20
-21.95272529043784
 30
0.0
1001
ACAD
1000
HATCH
1002
{
1070
    16
1000
PLAST
1040
2.0
1040
0.7853981633974483
1002
}
  0
LWPOLYLINE
  5
537
330
1E
100
AcDbEntity
  8
DIM
100
AcDbPolyline
 90
        4
 70
     0
 10
10.91576138551902
 20
10.93668693751772
 40
0.0
 41
0.135
 10
11.24516573025775
 20
10.79895340947669
 40
0.0
 41
0.0
 10
14.23030676851804
 20
9.577326449820539
 40
0.0
 41
0.0
 10
14.59030676851804
 20
9.577326449820539
 40
0.0
 41
0.0
  0
TEXT
  5
53D
330
1E
100
AcDbEntity
  8
DIM
100
AcDbText
 10
14.77030676851804
 20
9.452326449820539
 30
0.0
 40
0.25
  1
0.218 DIA. BOSS WITH 0.090 DIA.
 41
0.75
 11
14.77030676851804
 21
9.577326449820539
 31
0.0
100
AcDbText
 73
     2
  0
TEXT
  5
53E
330
1E
100
AcDbEntity
  8
DIM
100
AcDbText
 10
14.77030676851804
 20
9.035659783153867
 30
0.0
 40
0.25
  1
HOLE x 0.218 DEEP - (22) PLACES
 41
0.75
 11
14.77030676851804
 21
9.160659783153867
 31
0.0
100
AcDbText
 73
     2
  0
TEXT
  5
53F
330
1E
100
AcDbEntity
  8
DIM
100
AcDbText
 10
14.77030676851804
 20
8.627184829626791
 30
0.0
 40
0.25
  1
MOUNTING BOSSES USE EITHER M2.5 METRIC
 41
0.75
 11
14.77030676851804
 21
8.752184829626791
 31
0.0
100
AcDbText
 73
     2
  0
DIMENSION
  5
540
330
1E
100
AcDbEntity
  8
DIM
100
AcDbDimension
  2
*D8
 10
14.43750914328401
 20
18.8090470572173
 30
0.0
 11
9.317509143284015
 21
18.8090470572173
 31
0.0
 70
    32
 71
     5
 42
10.23999999999999
  3
23NSTD
100
AcDbAlignedDimension
 13
4.197509143284018
 23
17.23347521364295
 33
0.0
 14
14.43750914328401
 24
17.23347521364295
 34
0.0
100
AcDbRotatedDimension
  0
DIMENSION
  5
541
330
1E
100
AcDbEntity
  8
DIM
100
AcDbDimension
  2
*D9
 10
10.82150914328401
 20
8.955351509500616
 30
0.0
 11
12.31950914328401
 21
8.955351509500616
 31
0.0
 70
    32
 71
     5
 42
2.996000000000001
  3
23NSTD
100
AcDbAlignedDimension
 13
13.81750914328401
 23
10.97997521364298
 33
0.0
 14
10.82150914328401
 24
10.97997521364298
 34
0.0
100
AcDbRotatedDimension
  0
DIMENSION
  5
542
330
1E
100
AcDbEntity
  8
DIM
100
AcDbDimension
  2
*D10
 10
7.825509143284016
 20
8.955351509500616
 30
0.0
 11
9.323509143284011
 21
8.955351509500616
 31
0.0
 70
    32
 71
     5
 42
2.995999999999995
  3
23NSTD
100
AcDbAlignedDimension
 13
10.82150914328401
 23
10.97997521364298
 33
0.0
 14
7.825509143284016
 24
10.97997521364298
 34
0.0
100
AcDbRotatedDimension
  0
DIMENSION
  5
543
330
1E
100
AcDbEntity
  8
DIM
100
AcDbDimension
  2
*D11
 10
4.829509143284012
 20
8.955351509500616
 30
0.0
 11
6.327509143284013
 21
8.955351509500616
 31
0.0
 70
    32
 71
     5
 42
2.996000000000001
  3
23NSTD
100
AcDbAlignedDimension
 13
7.825509143284016
 23
10.97997521364298
 33
0.0
 14
4.829509143284012
 24
10.97997521364298
 34
0.0
100
AcDbRotatedDimension
  0
DIMENSION
  5
544
330
1E
100
AcDbEntity
  8
DIM
100
AcDbDimension
  2
*D12
 10
4.197509143284005
 20
8.955351509500616
 30
0.0
 11
2.938134143284004
 21
8.955351509500616
 31
0.0
 70
    32
 71
     5
 42
0.6320000000000086
  3
23NSTD
100
AcDbAlignedDimension
 13
4.829509143284012
 23
10.97997521364298
 33
0.0
 14
4.197509143284005
 24
10.15847521364297
 34
0.0
100
AcDbRotatedDimension
  0
DIMENSION
  5
545
330
1E
100
AcDbEntity
  8
DIM
100
AcDbDimension
  2
*D13
 10
3.496239039810566
 20
4.435483199783383
 30
0.0
 11
3.496239039810566
 21
5.715483199783387
 31
0.0
 70
    32
 71
     5
 42
2.560000000000004
  3
23NSTD
100
AcDbAlignedDimension
 13
4.372977848788908
 23
6.995483199783387
 33
0.0
 14
4.372977848788883
 24
4.435483199783383
 34
0.0
 50
90.0
100
AcDbRotatedDimension
  0
DIMENSION
  5
546
330
1E
100
AcDbEntity
  8
DIM
100
AcDbDimension
  2
*D14
 10
9.975086081559439
 20
6.875483199783391
 30
0.0
 11
9.975086081559439
 21
5.715483199783392
 31
0.0
 70
    32
 71
     5
 42
2.320000000000002
  3
23NSTD
100
AcDbAlignedDimension
 13
9.772348363015717
 23
4.555483199783387
 33
0.0
 14
9.772348363015717
 24
6.875483199783391
 34
0.0
 50
90.0
100
AcDbRotatedDimension
  0
DIMENSION
  5
547
330
1E
100
AcDbEntity
  8
DIM
100
AcDbDimension
  2
*D15
 10
9.975086081559439
 20
6.995483199783387
 30
0.0
 11
10.82758608155943
 21
7.715483199783387
 31
0.0
 70
    32
 71
     5
 42
0.1199999999999957
  3
23NSTD
100
AcDbAlignedDimension
 13
9.772348363015717
 23
6.875483199783391
 33
0.0
 14
9.975086081559439
 24
6.995483199783387
 34
0.0
 50
90.0
100
AcDbRotatedDimension
  0
DIMENSION
  5
548
330
1E
100
AcDbEntity
  8
DIM
100
AcDbDimension
  2
*D16
 10
7.297969916880082
 20
4.555483199783387
 30
0.0
 11
6.42984491688008
 21
3.83548319978339
 31
0.0
 70
    32
 71
     5
 42
0.1559999999999908
  3
23NSTD
100
AcDbAlignedDimension
 13
7.716509143284013
 23
4.711483199783378
 33
0.0
 14
7.583341272858269
 24
4.555483199783387
 34
0.0
 50
90.0
100
AcDbRotatedDimension
  0
DIMENSION
  5
549
330
1E
100
AcDbEntity
  8
DIM
100
AcDbDimension
  2
*D17
 10
0.8683642514891261
 20
13.69597521364297
 30
0.0
 11
0.8683642514891241
 21
15.46472521364296
 31
0.0
 70
    32
 71
     5
 42
3.537499999999981
  3
23NSTD
100
AcDbAlignedDimension
 13
4.197509143284018
 23
17.23347521364295
 33
0.0
 14
4.593509143284012
 24
13.69597521364297
 34
0.0
 50
90.0
100
AcDbRotatedDimension
  0
DIMENSION
  5
54A
330
1E
100
AcDbEntity
  8
DIM
100
AcDbDimension
  2
*D35
 10
3.304364251489126
 20
12.95097521364297
 30
0.0
 11
3.304364251489123
 21
13.32347521364297
 31
0.0
 70
    32
 71
     5
 42
0.7450000000000046
  3
23NSTDI
100
AcDbAlignedDimension
 13
4.593509143284012
 23
13.69597521364297
 33
0.0
 14
4.034216541920732
 24
12.95097521364297
 34
0.0
 50
90.0
100
AcDbRotatedDimension
  0
DIMENSION
  5
54B
330
1E
100
AcDbEntity
  8
DIM
100
AcDbDimension
  2
*D36
 10
1.990364251489124
 20
11.46097521364297
 30
0.0
 11
1.990364251489124
 21
12.20597521364297
 31
0.0
 70
    32
 71
     5
 42
1.489999999999993
  3
23NSTDI
100
AcDbAlignedDimension
 13
4.034216541920732
 23
12.95097521364297
 33
0.0
 14
4.034216541920732
 24
11.46097521364297
 34
0.0
 50
90.0
100
AcDbRotatedDimension
  0
DIMENSION
  5
54C
330
1E
100
AcDbEntity
  8
DIM
100
AcDbDimension
  2
*D37
 10
2.554364251489126
 20
14.44097521364298
 30
0.0
 11
2.554364251489122
 21
14.06847521364297
 31
0.0
 70
    32
 71
     5
 42
0.7450000000000046
  3
23NSTDI
100
AcDbAlignedDimension
 13
4.593509143284012
 23
13.69597521364297
 33
0.0
 14
4.034216541920732
 24
14.44097521364297
 34
0.0
 50
90.0
100
AcDbRotatedDimension
  0
DIMENSION
  5
54D
330
1E
100
AcDbEntity
  8
DIM
100
AcDbDimension
  2
*D38
 10
1.804364251489126
 20
15.93097521364297
 30
0.0
 11
1.804364251489123
 21
15.18597521364297
 31
0.0
 70
    32
 71
     5
 42
1.489999999999991
  3
23NSTDI
100
AcDbAlignedDimension
 13
4.034216541920732
 23
14.44097521364297
 33
0.0
 14
4.034216541920732
 24
15.93097521364297
 34
0.0
 50
90.0
100
AcDbRotatedDimension
  0
DIMENSION
  5
54E
330
1E
100
AcDbEntity
  8
DIM
100
AcDbDimension
  2
*D18
 10
4.197509143284018
 20
18.30904705721731
 30
0.0
 11
6.757509143284016
 21
18.30904705721731
 31
0.0
 70
    32
 71
     5
 42
5.119999999999993
  3
23NSTD
100
AcDbAlignedDimension
 13
9.317509143284011
 23
13.69597521364297
 33
0.0
 14
4.197509143284018
 24
17.23347521364295
 34
0.0
100
AcDbRotatedDimension
  0
DIMENSION
  5
54F
330
1E
100
AcDbEntity
  8
DIM
100
AcDbDimension
  2
*D19
 10
9.317509143284011
 20
13.28509229686715
 30
0.0
 11
6.955509143284013
 21
13.28509229686715
 31
0.0
 70
    32
 71
     5
 42
4.724
  3
23NSTD
100
AcDbAlignedDimension
 13
4.593509143284012
 23
13.69597521364297
 33
0.0
 14
9.317509143284011
 24
13.69597521364297
 34
0.0
100
AcDbRotatedDimension
  0
DIMENSION
  5
550
330
1E
100
AcDbEntity
  8
DIM
100
AcDbDimension
  2
*D20
 10
14.04150914328401
 20
13.28509229686715
 30
0.0
 11
11.67950914328401
 21
13.28509229686715
 31
0.0
 70
    32
 71
     5
 42
4.723999999999995
  3
23NSTD
100
AcDbAlignedDimension
 13
9.317509143284011
 23
13.69597521364297
 33
0.0
 14
14.04150914328401
 24
13.69597521364297
 34
0.0
100
AcDbRotatedDimension
  0
DIMENSION
  5
551
330
1E
100
AcDbEntity
  8
DIM
100
AcDbDimension
  2
*D21
 10
15.21182256328111
 20
13.69597521364297
 30
0.0
 11
15.21182256328111
 21
15.05397521364296
 31
0.0
 70
    32
 71
     5
 42
2.715999999999976
  3
23NSTD
100
AcDbAlignedDimension
 13
13.81750914328401
 23
16.41197521364295
 33
0.0
 14
14.04150914328401
 24
13.69597521364297
 34
0.0
 50
90.0
100
AcDbRotatedDimension
  0
DIMENSION
  5
552
330
1E
100
AcDbEntity
  8
DIM
100
AcDbDimension
  2
*D22
 10
15.21182256328111
 20
10.97997521364298
 30
0.0
 11
15.21182256328111
 21
12.33797521364298
 31
0.0
 70
    32
 71
     5
 42
2.715999999999985
  3
23NSTD
100
AcDbAlignedDimension
 13
14.04150914328401
 23
13.69597521364297
 33
0.0
 14
13.81750914328401
 24
10.97997521364298
 34
0.0
 50
90.0
100
AcDbRotatedDimension
  0
DIMENSION
  5
553
330
1E
100
AcDbEntity
  8
DIM
100
AcDbDimension
  2
*D23
 10
15.95076858643514
 20
10.15847521364297
 30
0.0
 11
15.95076858643514
 21
13.69597521364296
 31
0.0
 70
    32
 71
     5
 42
7.074999999999985
  3
23NSTD
100
AcDbAlignedDimension
 13
14.43750914328401
 23
17.23347521364295
 33
0.0
 14
14.43750914328401
 24
10.15847521364297
 34
0.0
 50
90.0
100
AcDbRotatedDimension
  0
DIMENSION
  5
554
330
1E
100
AcDbEntity
  8
DIM
100
AcDbDimension
  2
*D24
 10
4.317509143284008
 20
12.25498805015604
 30
0.0
 11
9.317509143284011
 21
12.25498805015604
 31
0.0
 70
    32
 71
     5
 42
10.0
  3
23NSTD
100
AcDbAlignedDimension
 13
14.31750914328401
 23
12.12663575655579
 33
0.0
 14
4.317509143284008
 24
12.12663575655581
 34
0.0
100
AcDbRotatedDimension
  0
DIMENSION
  5
555
330
1E
100
AcDbEntity
  8
DIM
100
AcDbDimension
  2
*D25
 10
10.35714048250311
 20
17.08847521364296
 30
0.0
 11
10.35714048250311
 21
13.69597521364296
 31
0.0
 70
    32
 71
     5
 42
6.784999999999993
  3
23NSTD
100
AcDbAlignedDimension
 13
10.45379546536485
 23
10.30347521364296
 33
0.0
 14
10.45379546536485
 24
17.08847521364296
 34
0.0
 50
90.0
100
AcDbRotatedDimension
  0
DIMENSION
  5
556
330
1E
100
AcDbEntity
  8
DIM
100
AcDbDimension
  2
*D26
 10
4.970999285154079
 20
14.47997521364296
 30
0.0
 11
5.854749285154077
 21
15.19997521364296
 31
0.0
 70
    32
 71
     5
 42
0.0779999999999959
  3
23NSTD
100
AcDbAlignedDimension
 13
4.372509143284053
 23
14.40197521364297
 33
0.0
 14
4.372509143284053
 24
14.47997521364296
 34
0.0
 50
90.0
100
AcDbRotatedDimension
  0
DIMENSION
  5
557
330
1E
100
AcDbEntity
  8
DIM
100
AcDbDimension
  2
*D27
 10
4.372509143284053
 20
15.61099661366494
 30
0.0
 11
5.616259143284053
 21
15.61099661366494
 31
0.0
 70
    32
 71
     5
 42
0.0550000000000353
  3
23NSTD
100
AcDbAlignedDimension
 13
4.317509143284017
 23
15.73539774083725
 33
0.0
 14
4.372509143284053
 24
15.85197521364297
 34
0.0
100
AcDbRotatedDimension
  0
INSERT
  5
558
330
1E
100
AcDbEntity
  8
OBJECT
100
AcDbBlockReference
  2
*X2
 10
0.0
 20
-0.1622474917591221
 30
0.0
1001
ACAD
1000
HATCH
1002
{
1070
    16
1000
ANSI32
1040
0.5
1040
0.0
1002
}
  0
INSERT
  5
559
330
1E
100
AcDbEntity
  8
OBJECT
100
AcDbBlockReference
  2
*X3
 10
0.0
 20
-0.1622474917591221
 30
0.0
1001
ACAD
1000
HATCH
1002
{
1070
    16
1000
ANSI32
1040
0.5
1040
1.570796326794896
1002
}
  0
LINE
  5
55A
330
1E
100
AcDbEntity
  8
HIDDEN
  6
HIDDEN2
100
AcDbLine
 10
17.63632697677692
 20
13.58697521364296
 30
0.0
 11
17.4803269767769
 21
13.58697521364296
 31
0.0
  0
LINE
  5
55B
330
1E
100
AcDbEntity
  8
HIDDEN
  6
HIDDEN2
100
AcDbLine
 10
17.63632697677692
 20
13.80497521364294
 30
0.0
 11
17.4803269767769
 21
13.80497521364294
 31
0.0
  0
LINE
  5
55C
330
1E
100
AcDbEntity
  8
HIDDEN
  6
HIDDEN2
100
AcDbLine
 10
17.60882697677693
 20
13.65097521364295
 30
0.0
 11
17.41832697677692
 21
13.65097521364295
 31
0.0
  0
LINE
  5
55D
330
1E
100
AcDbEntity
  8
HIDDEN
  6
HIDDEN2
100
AcDbLine
 10
17.60882697677692
 20
13.74097521364296
 30
0.0
 11
17.41832697677692
 21
13.74097521364296
 31
0.0
  0
LINE
  5
55E
330
1E
100
AcDbEntity
  8
HIDDEN
  6
HIDDEN2
100
AcDbLine
 10
17.63632697677692
 20
13.58697521364296
 30
0.0
 11
17.63632697677692
 21
13.80497521364294
 31
0.0
  0
LINE
  5
55F
330
1E
100
AcDbEntity
  8
HIDDEN
  6
HIDDEN2
100
AcDbLine
 10
17.60882697677693
 20
13.65097521364295
 30
0.0
 11
17.60882697677692
 21
13.74097521364296
 31
0.0
  0
LINE
  5
560
330
1E
100
AcDbEntity
  8
HIDDEN
  6
HIDDEN2
100
AcDbLine
 10
17.63632697677692
 20
13.62347521364295
 30
0.0
 11
17.60882697677693
 21
13.65097521364295
 31
0.0
  0
LINE
  5
561
330
1E
100
AcDbEntity
  8
HIDDEN
  6
HIDDEN2
100
AcDbLine
 10
17.63632697677692
 20
13.76847521364296
 30
0.0
 11
17.60882697677693
 21
13.74097521364296
 31
0.0
  0
LINE
  5
562
330
1E
100
AcDbEntity
  8
HIDDEN
  6
HIDDEN2
100
AcDbLine
 10
17.41832697677692
 20
13.65097521364295
 30
0.0
 11
17.41832697677692
 21
13.74097521364296
 31
0.0
  0
LINE
  5
563
330
1E
100
AcDbEntity
  8
HIDDEN
  6
HIDDEN2
100
AcDbLine
 10
17.60882697677693
 20
16.36697521364297
 30
0.0
 11
17.41832697677692
 21
16.36697521364297
 31
0.0
  0
LINE
  5
564
330
1E
100
AcDbEntity
  8
HIDDEN
  6
HIDDEN2
100
AcDbLine
 10
17.63632697677692
 20
16.30297521364297
 30
0.0
 11
17.48032697677691
 21
16.30297521364297
 31
0.0
  0
LINE
  5
565
330
1E
100
AcDbEntity
  8
HIDDEN
  6
HIDDEN2
100
AcDbLine
 10
17.60882697677693
 20
16.45697521364296
 30
0.0
 11
17.41832697677692
 21
16.45697521364296
 31
0.0
  0
LINE
  5
566
330
1E
100
AcDbEntity
  8
HIDDEN
  6
HIDDEN2
100
AcDbLine
 10
17.63632697677692
 20
16.52097521364296
 30
0.0
 11
17.48032697677691
 21
16.52097521364296
 31
0.0
  0
LINE
  5
567
330
1E
100
AcDbEntity
  8
HIDDEN
  6
HIDDEN2
100
AcDbLine
 10
17.63632697677692
 20
16.33947521364296
 30
0.0
 11
17.60882697677693
 21
16.36697521364297
 31
0.0
  0
LINE
  5
568
330
1E
100
AcDbEntity
  8
HIDDEN
  6
HIDDEN2
100
AcDbLine
 10
17.63632697677692
 20
16.48447521364297
 30
0.0
 11
17.60882697677693
 21
16.45697521364296
 31
0.0
  0
LINE
  5
569
330
1E
100
AcDbEntity
  8
HIDDEN
  6
HIDDEN2
100
AcDbLine
 10
17.60882697677693
 20
16.45697521364296
 30
0.0
 11
17.60882697677693
 21
16.36697521364297
 31
0.0
  0
LINE
  5
56A
330
1E
100
AcDbEntity
  8
HIDDEN
  6
HIDDEN2
100
AcDbLine
 10
17.63632697677692
 20
16.52097521364296
 30
0.0
 11
17.63632697677692
 21
16.30297521364297
 31
0.0
  0
LINE
  5
56B
330
1E
100
AcDbEntity
  8
HIDDEN
  6
HIDDEN2
100
AcDbLine
 10
17.41832697677692
 20
16.45697521364296
 30
0.0
 11
17.41832697677692
 21
16.36697521364297
 31
0.0
  0
LINE
  5
56C
330
1E
100
AcDbEntity
  8
HIDDEN
  6
HIDDEN2
100
AcDbLine
 10
17.60882697677693
 20
11.02497521364296
 30
0.0
 11
17.41832697677692
 21
11.02497521364296
 31
0.0
  0
LINE
  5
56D
330
1E
100
AcDbEntity
  8
HIDDEN
  6
HIDDEN2
100
AcDbLine
 10
17.63632697677692
 20
11.08897521364295
 30
0.0
 11
17.48032697677691
 21
11.08897521364295
 31
0.0
  0
LINE
  5
56E
330
1E
100
AcDbEntity
  8
HIDDEN
  6
HIDDEN2
100
AcDbLine
 10
17.60882697677693
 20
10.93497521364295
 30
0.0
 11
17.41832697677692
 21
10.93497521364295
 31
0.0
  0
LINE
  5
56F
330
1E
100
AcDbEntity
  8
HIDDEN
  6
HIDDEN2
100
AcDbLine
 10
17.63632697677692
 20
10.87097521364296
 30
0.0
 11
17.48032697677691
 21
10.87097521364296
 31
0.0
  0
LINE
  5
570
330
1E
100
AcDbEntity
  8
HIDDEN
  6
HIDDEN2
100
AcDbLine
 10
17.63632697677692
 20
11.05247521364296
 30
0.0
 11
17.60882697677693
 21
11.02497521364296
 31
0.0
  0
LINE
  5
571
330
1E
100
AcDbEntity
  8
HIDDEN
  6
HIDDEN2
100
AcDbLine
 10
17.63632697677692
 20
10.90747521364294
 30
0.0
 11
17.60882697677693
 21
10.93497521364295
 31
0.0
  0
LINE
  5
572
330
1E
100
AcDbEntity
  8
HIDDEN
  6
HIDDEN2
100
AcDbLine
 10
17.60882697677693
 20
10.93497521364295
 30
0.0
 11
17.60882697677693
 21
11.02497521364296
 31
0.0
  0
LINE
  5
573
330
1E
100
AcDbEntity
  8
HIDDEN
  6
HIDDEN2
100
AcDbLine
 10
17.63632697677692
 20
10.87097521364296
 30
0.0
 11
17.63632697677692
 21
11.08897521364295
 31
0.0
  0
LINE
  5
574
330
1E
100
AcDbEntity
  8
HIDDEN
  6
HIDDEN2
100
AcDbLine
 10
17.41832697677692
 20
10.93497521364295
 30
0.0
 11
17.41832697677692
 21
11.02497521364296
 31
0.0
  0
LINE
  5
575
330
1E
100
AcDbEntity
  8
OBJECT
100
AcDbLine
 10
7.716509143284013
 20
6.719483199783391
 30
0.0
 11
7.934509143284008
 21
6.719483199783382
 31
0.0
  0
LINE
  5
576
330
1E
100
AcDbEntity
  8
HIDDEN
  6
HIDDEN2
100
AcDbLine
 10
7.780509143284006
 20
6.74698319978338
 30
0.0
 11
7.870509143284008
 21
6.746983199783387
 31
0.0
  0
LINE
  5
577
330
1E
100
AcDbEntity
  8
HIDDEN
  6
HIDDEN2
100
AcDbLine
 10
7.780509143284006
 20
6.937483199783387
 30
0.0
 11
7.870509143284008
 21
6.937483199783387
 31
0.0
  0
LINE
  5
578
330
1E
100
AcDbEntity
  8
HIDDEN
  6
HIDDEN2
100
AcDbLine
 10
7.75300914328401
 20
6.719483199783391
 30
0.0
 11
7.780509143284006
 21
6.74698319978338
 31
0.0
  0
LINE
  5
579
330
1E
100
AcDbEntity
  8
OBJECT
100
AcDbLine
 10
7.716509143284013
 20
6.719483199783391
 30
0.0
 11
7.716509143284013
 21
6.875483199783388
 31
0.0
  0
LINE
  5
57A
330
1E
100
AcDbEntity
  8
HIDDEN
  6
HIDDEN2
100
AcDbLine
 10
7.780509143284006
 20
6.74698319978338
 30
0.0
 11
7.780509143284006
 21
6.937483199783387
 31
0.0
  0
LINE
  5
57B
330
1E
100
AcDbEntity
  8
HIDDEN
  6
HIDDEN2
100
AcDbLine
 10
7.870509143284008
 20
6.746983199783387
 30
0.0
 11
7.870509143284008
 21
6.937483199783387
 31
0.0
  0
LINE
  5
57C
330
1E
100
AcDbEntity
  8
HIDDEN
  6
HIDDEN2
100
AcDbLine
 10
7.898009143284013
 20
6.719483199783391
 30
0.0
 11
7.870509143284008
 21
6.74698319978338
 31
0.0
  0
LINE
  5
57D
330
1E
100
AcDbEntity
  8
OBJECT
100
AcDbLine
 10
7.934509143284008
 20
6.719483199783382
 30
0.0
 11
7.934509143284008
 21
6.875483199783388
 31
0.0
  0
LINE
  5
57E
330
1E
100
AcDbEntity
  8
HIDDEN
  6
HIDDEN2
100
AcDbLine
 10
9.362509143284
 20
6.746983199783387
 30
0.0
 11
9.362509143284007
 21
6.937483199783387
 31
0.0
  0
LINE
  5
57F
330
1E
100
AcDbEntity
  8
HIDDEN
  6
HIDDEN2
100
AcDbLine
 10
9.272509143284004
 20
6.74698319978338
 30
0.0
 11
9.272509143284004
 21
6.937483199783387
 31
0.0
  0
LINE
  5
580
330
1E
100
AcDbEntity
  8
HIDDEN
  6
HIDDEN2
100
AcDbLine
 10
9.272509143284004
 20
6.937483199783387
 30
0.0
 11
9.362509143284007
 21
6.937483199783387
 31
0.0
  0
LINE
  5
581
330
1E
100
AcDbEntity
  8
OBJECT
100
AcDbLine
 10
9.208509143284004
 20
6.719483199783391
 30
0.0
 11
9.208509143284004
 21
6.875483199783388
 31
0.0
  0
LINE
  5
582
330
1E
100
AcDbEntity
  8
OBJECT
100
AcDbLine
 10
9.426509143284
 20
6.719483199783382
 30
0.0
 11
9.426509143284
 21
6.875483199783388
 31
0.0
  0
LINE
  5
583
330
1E
100
AcDbEntity
  8
OBJECT
100
AcDbLine
 10
9.208509143284004
 20
6.719483199783391
 30
0.0
 11
9.426509143284
 21
6.719483199783382
 31
0.0
  0
LINE
  5
584
330
1E
100
AcDbEntity
  8
HIDDEN
  6
HIDDEN2
100
AcDbLine
 10
9.272509143284004
 20
6.74698319978338
 30
0.0
 11
9.362509143284
 21
6.746983199783387
 31
0.0
  0
LINE
  5
585
330
1E
100
AcDbEntity
  8
HIDDEN
  6
HIDDEN2
100
AcDbLine
 10
9.245009143283999
 20
6.719483199783391
 30
0.0
 11
9.272509143284004
 21
6.74698319978338
 31
0.0
  0
LINE
  5
586
330
1E
100
AcDbEntity
  8
HIDDEN
  6
HIDDEN2
100
AcDbLine
 10
9.390009143284004
 20
6.719483199783391
 30
0.0
 11
9.362509143284007
 21
6.74698319978338
 31
0.0
  0
LINE
  5
587
330
1E
100
AcDbEntity
  8
OBJECT
100
AcDbLine
 10
10.93050914328401
 20
6.719483199783382
 30
0.0
 11
10.93050914328401
 21
6.875483199783388
 31
0.0
  0
LINE
  5
588
330
1E
100
AcDbEntity
  8
HIDDEN
  6
HIDDEN2
100
AcDbLine
 10
10.77650914328399
 20
6.74698319978338
 30
0.0
 11
10.86650914328401
 21
6.746983199783387
 31
0.0
  0
LINE
  5
589
330
1E
100
AcDbEntity
  8
HIDDEN
  6
HIDDEN2
100
AcDbLine
 10
10.77650914328399
 20
6.937483199783387
 30
0.0
 11
10.86650914328401
 21
6.937483199783387
 31
0.0
  0
LINE
  5
58A
330
1E
100
AcDbEntity
  8
HIDDEN
  6
HIDDEN2
100
AcDbLine
 10
10.74900914328401
 20
6.719483199783391
 30
0.0
 11
10.77650914328399
 21
6.74698319978338
 31
0.0
  0
LINE
  5
58B
330
1E
100
AcDbEntity
  8
OBJECT
100
AcDbLine
 10
10.71250914328401
 20
6.719483199783391
 30
0.0
 11
10.71250914328401
 21
6.875483199783388
 31
0.0
  0
LINE
  5
58C
330
1E
100
AcDbEntity
  8
HIDDEN
  6
HIDDEN2
100
AcDbLine
 10
10.77650914328399
 20
6.74698319978338
 30
0.0
 11
10.77650914328399
 21
6.937483199783387
 31
0.0
  0
LINE
  5
58D
330
1E
100
AcDbEntity
  8
HIDDEN
  6
HIDDEN2
100
AcDbLine
 10
10.86650914328401
 20
6.746983199783387
 30
0.0
 11
10.86650914328401
 21
6.937483199783387
 31
0.0
  0
LINE
  5
58E
330
1E
100
AcDbEntity
  8
OBJECT
100
AcDbLine
 10
10.71250914328401
 20
6.719483199783391
 30
0.0
 11
10.93050914328401
 21
6.719483199783382
 31
0.0
  0
LINE
  5
58F
330
1E
100
AcDbEntity
  8
HIDDEN
  6
HIDDEN2
100
AcDbLine
 10
10.89400914328401
 20
6.719483199783391
 30
0.0
 11
10.86650914328401
 21
6.74698319978338
 31
0.0
  0
DIMENSION
  5
590
330
1E
100
AcDbEntity
  8
DIM
100
AcDbDimension
  2
*D28
 10
7.297969916880082
 20
6.87548319978338
 30
0.0
 11
8.166094916880078
 21
7.595483199783382
 31
0.0
 70
    32
 71
     5
 42
0.1559999999999908
  3
23NSTD
100
AcDbAlignedDimension
 13
7.716509143284013
 23
6.719483199783391
 33
0.0
 14
7.583341272858269
 24
6.87548319978338
 34
0.0
 50
90.0
100
AcDbRotatedDimension
  0
LINE
  5
591
330
1E
100
AcDbEntity
  8
HIDDEN
  6
HIDDEN2
100
AcDbLine
 10
13.96900914328399
 20
6.719483199783391
 30
0.0
 11
13.99650914328399
 21
6.74698319978338
 31
0.0
  0
LINE
  5
592
330
1E
100
AcDbEntity
  8
HIDDEN
  6
HIDDEN2
100
AcDbLine
 10
13.93250914328399
 20
6.719483199783391
 30
0.0
 11
14.15050914328398
 21
6.719483199783382
 31
0.0
  0
LINE
  5
593
330
1E
100
AcDbEntity
  8
HIDDEN
  6
HIDDEN2
100
AcDbLine
 10
13.93250914328399
 20
6.719483199783391
 30
0.0
 11
13.93250914328399
 21
6.875483199783388
 31
0.0
  0
LINE
  5
594
330
1E
100
AcDbEntity
  8
HIDDEN
  6
HIDDEN2
100
AcDbLine
 10
13.92650914328401
 20
6.719483199783382
 30
0.0
 11
13.92650914328401
 21
6.875483199783388
 31
0.0
  0
LINE
  5
595
330
1E
100
AcDbEntity
  8
HIDDEN
  6
HIDDEN2
100
AcDbLine
 10
13.77250914328401
 20
6.74698319978338
 30
0.0
 11
13.86250914328401
 21
6.746983199783387
 31
0.0
  0
LINE
  5
596
330
1E
100
AcDbEntity
  8
HIDDEN
  6
HIDDEN2
100
AcDbLine
 10
13.77250914328401
 20
6.947483199783393
 30
0.0
 11
13.86250914328401
 21
6.947483199783393
 31
0.0
  0
LINE
  5
597
330
1E
100
AcDbEntity
  8
HIDDEN
  6
HIDDEN2
100
AcDbLine
 10
13.74500914328401
 20
6.719483199783391
 30
0.0
 11
13.77250914328401
 21
6.74698319978338
 31
0.0
  0
LINE
  5
598
330
1E
100
AcDbEntity
  8
HIDDEN
  6
HIDDEN2
100
AcDbLine
 10
13.70850914328402
 20
6.719483199783391
 30
0.0
 11
13.70850914328402
 21
6.875483199783388
 31
0.0
  0
LINE
  5
599
330
1E
100
AcDbEntity
  8
HIDDEN
  6
HIDDEN2
100
AcDbLine
 10
13.77250914328401
 20
6.756983199783384
 30
0.0
 11
13.77250914328401
 21
6.947483199783393
 31
0.0
  0
LINE
  5
59A
330
1E
100
AcDbEntity
  8
HIDDEN
  6
HIDDEN2
100
AcDbLine
 10
13.86250914328401
 20
6.756983199783384
 30
0.0
 11
13.86250914328401
 21
6.947483199783393
 31
0.0
  0
LINE
  5
59B
330
1E
100
AcDbEntity
  8
HIDDEN
  6
HIDDEN2
100
AcDbLine
 10
13.70850914328402
 20
6.719483199783391
 30
0.0
 11
13.92650914328401
 21
6.719483199783382
 31
0.0
  0
LINE
  5
59C
330
1E
100
AcDbEntity
  8
HIDDEN
  6
HIDDEN2
100
AcDbLine
 10
13.89000914328401
 20
6.719483199783391
 30
0.0
 11
13.86250914328401
 21
6.74698319978338
 31
0.0
  0
LINE
  5
59D
330
1E
100
AcDbEntity
  8
HIDDEN
  6
HIDDEN2
100
AcDbLine
 10
14.114009143284
 20
6.719483199783391
 30
0.0
 11
14.086509143284
 21
6.74698319978338
 31
0.0
  0
LINE
  5
59E
330
1E
100
AcDbEntity
  8
HIDDEN
  6
HIDDEN2
100
AcDbLine
 10
13.99650914328399
 20
6.74698319978338
 30
0.0
 11
14.08650914328398
 21
6.746983199783387
 31
0.0
  0
LINE
  5
59F
330
1E
100
AcDbEntity
  8
HIDDEN
  6
HIDDEN2
100
AcDbLine
 10
14.15050914328398
 20
6.719483199783382
 30
0.0
 11
14.15050914328398
 21
6.875483199783388
 31
0.0
  0
LINE
  5
5A0
330
1E
100
AcDbEntity
  8
HIDDEN
  6
HIDDEN2
100
AcDbLine
 10
13.99650914328399
 20
6.957483199783382
 30
0.0
 11
14.086509143284
 21
6.957483199783382
 31
0.0
  0
LINE
  5
5A1
330
1E
100
AcDbEntity
  8
HIDDEN
  6
HIDDEN2
100
AcDbLine
 10
13.99650914328399
 20
6.766983199783376
 30
0.0
 11
13.99650914328399
 21
6.957483199783382
 31
0.0
  0
LINE
  5
5A2
330
1E
100
AcDbEntity
  8
HIDDEN
  6
HIDDEN2
100
AcDbLine
 10
14.08650914328398
 20
6.766983199783382
 30
0.0
 11
14.086509143284
 21
6.957483199783382
 31
0.0
  0
LINE
  5
5A3
330
1E
100
AcDbEntity
  8
HIDDEN
  6
HIDDEN2
100
AcDbLine
 10
4.548509143284001
 20
6.74698319978338
 30
0.0
 11
4.638509143283997
 21
6.746983199783387
 31
0.0
  0
LINE
  5
5A4
330
1E
100
AcDbEntity
  8
HIDDEN
  6
HIDDEN2
100
AcDbLine
 10
4.484509143284001
 20
6.719483199783391
 30
0.0
 11
4.702509143283998
 21
6.719483199783382
 31
0.0
  0
LINE
  5
5A5
330
1E
100
AcDbEntity
  8
HIDDEN
  6
HIDDEN2
100
AcDbLine
 10
4.548509143284001
 20
6.947483199783393
 30
0.0
 11
4.638509143284005
 21
6.947483199783393
 31
0.0
  0
LINE
  5
5A6
330
1E
100
AcDbEntity
  8
HIDDEN
  6
HIDDEN2
100
AcDbLine
 10
4.521009143283999
 20
6.719483199783391
 30
0.0
 11
4.548509143284001
 21
6.74698319978338
 31
0.0
  0
LINE
  5
5A7
330
1E
100
AcDbEntity
  8
HIDDEN
  6
HIDDEN2
100
AcDbLine
 10
4.484509143284001
 20
6.719483199783391
 30
0.0
 11
4.484509143284001
 21
6.875483199783388
 31
0.0
  0
LINE
  5
5A8
330
1E
100
AcDbEntity
  8
HIDDEN
  6
HIDDEN2
100
AcDbLine
 10
4.548509143284001
 20
6.756983199783384
 30
0.0
 11
4.548509143284001
 21
6.947483199783393
 31
0.0
  0
LINE
  5
5A9
330
1E
100
AcDbEntity
  8
OBJECT
100
AcDbLine
 10
4.720509143284012
 20
6.719483199783391
 30
0.0
 11
4.938509143284009
 21
6.719483199783382
 31
0.0
  0
LINE
  5
5AA
330
1E
100
AcDbEntity
  8
HIDDEN
  6
HIDDEN2
100
AcDbLine
 10
4.666009143284002
 20
6.719483199783391
 30
0.0
 11
4.638509143284005
 21
6.74698319978338
 31
0.0
  0
LINE
  5
5AB
330
1E
100
AcDbEntity
  8
HIDDEN
  6
HIDDEN2
100
AcDbLine
 10
4.702509143283998
 20
6.719483199783382
 30
0.0
 11
4.702509143283998
 21
6.875483199783388
 31
0.0
  0
LINE
  5
5AC
330
1E
100
AcDbEntity
  8
HIDDEN
  6
HIDDEN2
100
AcDbLine
 10
4.638509143283997
 20
6.756983199783384
 30
0.0
 11
4.638509143284005
 21
6.947483199783393
 31
0.0
  0
LINE
  5
5AD
330
1E
100
AcDbEntity
  8
HIDDEN
  6
HIDDEN2
100
AcDbLine
 10
4.874509143284009
 20
6.746983199783387
 30
0.0
 11
4.874509143284009
 21
6.937483199783387
 31
0.0
  0
LINE
  5
5AE
330
1E
100
AcDbEntity
  8
HIDDEN
  6
HIDDEN2
100
AcDbLine
 10
4.902009143284012
 20
6.719483199783391
 30
0.0
 11
4.874509143284009
 21
6.74698319978338
 31
0.0
  0
LINE
  5
5AF
330
1E
100
AcDbEntity
  8
HIDDEN
  6
HIDDEN2
100
AcDbLine
 10
4.784509143284005
 20
6.74698319978338
 30
0.0
 11
4.784509143284005
 21
6.937483199783387
 31
0.0
  0
LINE
  5
5B0
330
1E
100
AcDbEntity
  8
HIDDEN
  6
HIDDEN2
100
AcDbLine
 10
4.720509143284012
 20
6.719483199783391
 30
0.0
 11
4.720509143284012
 21
6.875483199783388
 31
0.0
  0
LINE
  5
5B1
330
1E
100
AcDbEntity
  8
HIDDEN
  6
HIDDEN2
100
AcDbLine
 10
4.757009143284009
 20
6.719483199783391
 30
0.0
 11
4.784509143284005
 21
6.74698319978338
 31
0.0
  0
LINE
  5
5B2
330
1E
100
AcDbEntity
  8
HIDDEN
  6
HIDDEN2
100
AcDbLine
 10
4.784509143284005
 20
6.937483199783387
 30
0.0
 11
4.874509143284009
 21
6.937483199783387
 31
0.0
  0
LINE
  5
5B3
330
1E
100
AcDbEntity
  8
HIDDEN
  6
HIDDEN2
100
AcDbLine
 10
4.784509143284005
 20
6.74698319978338
 30
0.0
 11
4.874509143284009
 21
6.746983199783387
 31
0.0
  0
LINE
  5
5B4
330
1E
100
AcDbEntity
  8
OBJECT
100
AcDbLine
 10
4.938509143284009
 20
6.719483199783382
 30
0.0
 11
4.938509143284009
 21
6.875483199783388
 31
0.0
  0
DIMENSION
  5
5B5
330
1E
100
AcDbEntity
  8
DIM
100
AcDbDimension
  2
*D39
 10
7.297969916880082
 20
6.719483199783391
 30
0.0
 11
7.297969916880079
 21
5.715483199783387
 31
0.0
 70
    32
 71
     5
 42
2.008000000000011
  3
23NSTDI
100
AcDbAlignedDimension
 13
7.716509143284013
 23
4.711483199783378
 33
0.0
 14
7.716509143284013
 24
6.719483199783391
 34
0.0
 50
90.0
100
AcDbRotatedDimension
  0
TEXT
  5
5B6
330
1E
100
AcDbEntity
  8
TEXT
100
AcDbText
 10
23.03089005712505
 20
10.17291872600988
 30
0.0
 40
0.25
  1
%%UNOTE:%%U ALL DIMENSIONS HAVE %%P0.015 TOLERANCE
 41
0.75
100
AcDbText
  0
TEXT
  5
5B7
330
1E
100
AcDbEntity
  8
TEXT
100
AcDbText
 10
23.45287963394345
 20
9.756252059343225
 30
0.0
 40
0.25
  1
UNLESS OTHERWISE SPECIFIED.
 41
0.75
100
AcDbText
  0
TEXT
  5
5B8
330
1E
100
AcDbEntity
  8
DIM
100
AcDbText
 10
14.77030676851804
 20
8.222434829626791
 30
0.0
 40
0.25
  1
OR #4 STD. SHEET METAL SCREWS x 0.188" LG.
 41
0.75
 11
14.77030676851804
 21
8.347434829626791
 31
0.0
100
AcDbText
 73
     2
  0
TEXT
  5
5B9
330
1E
100
AcDbEntity
  8
DIM
100
AcDbText
 10
14.77030676851804
 20
7.805768162960124
 30
0.0
 40
0.25
  1
(NOT SUPPLIED)
 41
0.75
 11
14.77030676851804
 21
7.930768162960124
 31
0.0
100
AcDbText
 73
     2
  0
LEADER
  5
900
330
1E
100
AcDbEntity
  8
DIM
100
AcDbLeader
  3
23NSTD
 73
     0
 75
     1
 40
0.6666666666666666
 41
4.65625
 76
     3
 10
4.440509143283983
 20
6.199537492040107
 30
0.0
 10
3.73576705259326
 20
7.914395083649445
 30
0.0
 10
3.375767052593261
 20
7.914395083649445
 30
0.0
340
901
213
0.0
223
-0.125
233
0.0
1001
ACAD
1000
DSTYLE
1002
{
1070
   147
1040
0.09
1070
    77
1070
     0
1002
}
  0
MTEXT
  5
901
102
{ACAD_REACTORS
330
900
102
}
330
1E
100
AcDbEntity
  8
DIM
100
AcDbMText
 10
3.195767052593259
 20
8.039395083649445
 30
0.0
 40
0.25
 41
0.0
 71
     3
 72
     1
  1
0.312 %%p0.015 DIA.\PBOSS W/M3 x 0.5\PTHREADED INSERT
 73
     1
 44
1.0
  0
LEADER
  5
903
330
1E
100
AcDbEntity
  8
DIM
100
AcDbLeader
  3
23NSTD
 73
     0
 75
     1
 40
1.083333333333333
 41
3.8125
 76
     3
 10
4.752509143283978
 20
5.275217107436808
 30
0.0
 10
5.485798078762819
 20
3.763736530531871
 30
0.0
 10
5.125798078762819
 20
3.763736530531871
 30
0.0
340
904
213
0.0
223
-0.125
233
0.0
1001
ACAD
1000
DSTYLE
1002
{
1070
   147
1040
0.09
1070
    77
1070
     0
1002
}
  0
MTEXT
  5
904
102
{ACAD_REACTORS
330
903
102
}
330
1E
100
AcDbEntity
  8
DIM
100
AcDbMText
 10
4.94579807876282
 20
3.888736530531872
 30
0.0
 40
0.25
 41
0.0
 71
     3
 72
     1
  1
\A1;0.312 %%p0.015 DIA.\PBOSS W/0.130 %%p0.015 DIA.\PTHRU HOLE
 73
     1
 44
1.0
  0
LINE
  5
907
330
1E
100
AcDbEntity
  8
TITLE
100
AcDbLine
 10
26.75199999999999
 20
20.116
 30
0.0
 11
26.75199999999999
 21
19.28
 31
0.0
  0
TEXT
  5
908
330
1E
100
AcDbEntity
  8
TEXT
100
AcDbText
 10
27.16766666666666
 20
19.36015839128016
 30
0.0
 40
0.25
  1
DATE
 72
     1
 11
27.62599999999999
 21
19.36015839128016
 31
0.0
100
AcDbText
  0
LINE
  5
909
330
1E
100
AcDbEntity
  8
TITLE
100
AcDbLine
 10
26.87599999999997
 20
20.116
 30
0.0
 11
26.87599999999997
 21
19.28
 31
0.0
  0
LINE
  5
90A
330
1E
100
AcDbEntity
  8
TITLE
100
AcDbLine
 10
28.37599999999998
 20
20.116
 30
0.0
 11
28.37599999999998
 21
19.28
 31
0.0
  0
TEXT
  5
90B
330
1E
100
AcDbEntity
  8
TEXT
100
AcDbText
 10
27.20933333333332
 20
19.77682505794682
 30
0.0
 40
0.25
  1
REV.
 72
     1
 11
27.62599999999999
 21
19.77682505794682
 31
0.0
100
AcDbText
  0
TEXT
  5
913
330
1E
100
AcDbEntity
  8
TEXT
100
AcDbText
 10
28.94349999999999
 20
19.542
 30
0.0
 40
0.312
  1
12-9-10
 41
0.75
 72
     4
 11
29.62599999999999
 21
19.698
 31
0.0
100
AcDbText
  0
ENDSEC
  0
SECTION
  2
OBJECTS
  0
DICTIONARY
  5
C
330
0
100
AcDbDictionary
281
     1
  3
ACAD_GROUP
350
D
  3
ACAD_LAYOUT
350
19
  3
ACAD_MLINESTYLE
350
16
  3
ACAD_PLOTSETTINGS
350
18
  3
ACAD_PLOTSTYLENAME
350
E
  3
AcadDim
350
8FF
  0
DICTIONARY
  5
D
102
{ACAD_REACTORS
330
C
102
}
330
C
100
AcDbDictionary
281
     1
  0
DICTIONARY
  5
19
102
{ACAD_REACTORS
330
C
102
}
330
C
100
AcDbDictionary
281
     1
  3
Layout1
350
1D
  3
Model
350
21
  0
DICTIONARY
  5
16
102
{ACAD_REACTORS
330
C
102
}
330
C
100
AcDbDictionary
281
     1
  3
Standard
350
17
  0
DICTIONARY
  5
18
102
{ACAD_REACTORS
330
C
102
}
330
C
100
AcDbDictionary
281
     1
  0
ACDBDICTIONARYWDFLT
  5
E
102
{ACAD_REACTORS
330
C
102
}
330
C
100
AcDbDictionary
281
     1
  3
Normal
350
F
100
AcDbDictionaryWithDefault
340
F
  0
XRECORD
  5
8FF
102
{ACAD_REACTORS
330
C
102
}
330
C
100
AcDbXrecord
280
     1
 90
   990106
  3

 60
     0
 61
     0
 62
     1
 63
     1
 64
     0
 65
     0
 66
     0
 67
     3
 68
     1
 69
     0
 70
     0
 71
     0
 72
     0
 40
0.0
170
     2
340
904
  0
LAYOUT
  5
1D
102
{ACAD_REACTORS
330
19
102
}
330
19
100
AcDbPlotSettings
  1

  2
RICOH1060
  4

  6

 40
0.0
 41
0.0
 42
0.0
 43
0.0
 44
0.0
 45
0.0
 46
0.0
 47
0.0
 48
0.0
 49
0.0
140
0.0
141
0.0
142
1.0
143
1.0
 70
   688
 72
     0
 73
     0
 74
     5
  7
monochrome.ctb
 75
    16
147
1.0
148
0.0
149
0.0
100
AcDbLayout
  1
Layout1
 70
     1
 71
     1
 10
0.0
 20
0.0
 11
12.0
 21
9.0
 12
0.0
 22
0.0
 32
0.0
 14
1.000000000000000E+20
 24
1.000000000000000E+20
 34
1.000000000000000E+20
 15
-1.000000000000000E+20
 25
-1.000000000000000E+20
 35
-1.000000000000000E+20
146
0.0
 13
0.0
 23
0.0
 33
0.0
 16
1.0
 26
0.0
 36
0.0
 17
0.0
 27
1.0
 37
0.0
 76
     0
330
1A
  0
LAYOUT
  5
21
102
{ACAD_REACTORS
330
19
102
}
330
19
100
AcDbPlotSettings
  1

  2
none_device
  4
Letter_(8.50_x_11.00_Inches)
  6

 40
6.349999904632568
 41
6.349999904632568
 42
6.350006103515625
 43
6.350006103515625
 44
215.8999938964843
 45
279.3999938964843
 46
0.0
 47
0.0
 48
0.0
 49
0.0
140
0.0
141
0.0
142
1.0
143
1.0
 70
 11952
 72
     0
 73
     1
 74
     0
  7
monochrome.ctb
 75
     0
147
1.0
148
-134.0360302669796
149
2.620583182702591
100
AcDbLayout
  1
Model
 70
     1
 71
     0
 10
0.0
 20
0.0
 11
12.0
 21
9.0
 12
0.0
 22
0.0
 32
0.0
 14
0.0
 24
0.0
 34
0.0
 15
0.0
 25
0.0
 35
0.0
146
0.0
 13
0.0
 23
0.0
 33
0.0
 16
1.0
 26
0.0
 36
0.0
 17
0.0
 27
1.0
 37
0.0
 76
     0
330
1E
  0
MLINESTYLE
  5
17
102
{ACAD_REACTORS
330
16
102
}
330
16
100
AcDbMlineStyle
  2
STANDARD
 70
     0
  3

 62
   256
 51
90.0
 52
90.0
 71
     2
 49
0.5
 62
   256
  6
BYLAYER
 49
-0.5
 62
   256
  6
BYLAYER
  0
ACDBPLACEHOLDER
  5
F
102
{ACAD_REACTORS
330
E
102
}
330
E
  0
ENDSEC
  0
EOF
