  0
SECTION
  2
HEADER
  9
$ACADVER
  1
AC1015
  9
$ACADMAINTVER
 70
     6
  9
$DWGCODEPAGE
  3
ANSI_1252
  9
$INSBASE
 10
0.0
 20
0.0
 30
0.0
  9
$EXTMIN
 10
-0.0005660578847966
 20
-0.0008362704222478
 30
-0.0015258207003583
  9
$EXTMAX
 10
18.55056614426495
 20
27.40583639803673
 30
0.0000000349246037
  9
$LIMMIN
 10
0.0
 20
0.0
  9
$LIMMAX
 10
12.0
 20
9.0
  9
$ORTHOMODE
 70
     1
  9
$REGENMODE
 70
     1
  9
$FILLMODE
 70
     1
  9
$QTEXTMODE
 70
     0
  9
$MIRRTEXT
 70
     0
  9
$LTSCALE
 40
0.375
  9
$ATTMODE
 70
     1
  9
$TEXTSIZE
 40
0.218
  9
$TRACEWID
 40
0.05
  9
$TEXTSTYLE
  7
STANDARD
  9
$CLAYER
  8
DIM
  9
$CELTYPE
  6
ByLayer
  9
$CECOLOR
 62
   256
  9
$CELTSCALE
 40
1.0
  9
$DISPSILH
 70
     0
  9
$DIMSCALE
 40
1.75
  9
$DIMASZ
 40
0.18
  9
$DIMEXO
 40
0.0625
  9
$DIMDLI
 40
0.281
  9
$DIMRND
 40
0.0
  9
$DIMDLE
 40
0.0
  9
$DIMEXE
 40
0.093
  9
$DIMTP
 40
0.0
  9
$DIMTM
 40
0.0
  9
$DIMTXT
 40
0.125
  9
$DIMCEN
 40
0.09
  9
$DIMTSZ
 40
0.0
  9
$DIMTOL
 70
     0
  9
$DIMLIM
 70
     0
  9
$DIMTIH
 70
     1
  9
$DIMTOH
 70
     1
  9
$DIMSE1
 70
     0
  9
$DIMSE2
 70
     0
  9
$DIMTAD
 70
     0
  9
$DIMZIN
 70
     0
  9
$DIMBLK
  1

  9
$DIMASO
 70
     1
  9
$DIMSHO
 70
     1
  9
$DIMPOST
  1

  9
$DIMAPOST
  1

  9
$DIMALT
 70
     0
  9
$DIMALTD
 70
     2
  9
$DIMALTF
 40
25.4
  9
$DIMLFAC
 40
1.0
  9
$DIMTOFL
 70
     0
  9
$DIMTVP
 40
0.0
  9
$DIMTIX
 70
     0
  9
$DIMSOXD
 70
     0
  9
$DIMSAH
 70
     0
  9
$DIMBLK1
  1

  9
$DIMBLK2
  1

  9
$DIMSTYLE
  2
23NSTD
  9
$DIMCLRD
 70
     0
  9
$DIMCLRE
 70
     0
  9
$DIMCLRT
 70
     0
  9
$DIMTFAC
 40
1.0
  9
$DIMGAP
 40
0.09
  9
$DIMJUST
 70
     0
  9
$DIMSD1
 70
     0
  9
$DIMSD2
 70
     0
  9
$DIMTOLJ
 70
     1
  9
$DIMTZIN
 70
     0
  9
$DIMALTZ
 70
     0
  9
$DIMALTTZ
 70
     0
  9
$DIMUPT
 70
     0
  9
$DIMDEC
 70
     3
  9
$DIMTDEC
 70
     3
  9
$DIMALTU
 70
     2
  9
$DIMALTTD
 70
     2
  9
$DIMTXSTY
  7
STANDARD
  9
$DIMAUNIT
 70
     0
  9
$DIMADEC
 70
     0
  9
$DIMALTRND
 40
0.0
  9
$DIMAZIN
 70
     0
  9
$DIMDSEP
 70
    46
  9
$DIMATFIT
 70
     1
  9
$DIMFRAC
 70
     0
  9
$DIMLDRBLK
  1

  9
$DIMLUNIT
 70
     2
  9
$DIMLWD
 70
    -2
  9
$DIMLWE
 70
    -2
  9
$DIMTMOVE
 70
     0
  9
$LUNITS
 70
     2
  9
$LUPREC
 70
     4
  9
$SKETCHINC
 40
0.1
  9
$FILLETRAD
 40
0.0
  9
$AUNITS
 70
     0
  9
$AUPREC
 70
     0
  9
$MENU
  1
.
  9
$ELEVATION
 40
0.0
  9
$PELEVATION
 40
0.0
  9
$THICKNESS
 40
0.0
  9
$LIMCHECK
 70
     0
  9
$CHAMFERA
 40
0.5
  9
$CHAMFERB
 40
0.5
  9
$CHAMFERC
 40
0.0
  9
$CHAMFERD
 40
0.0
  9
$SKPOLY
 70
     0
  9
$TDCREATE
 40
2451570.547316793
  9
$TDUCREATE
 40
2451570.755650127
  9
$TDUPDATE
 40
2454823.322596388
  9
$TDUUPDATE
 40
2454823.530929722
  9
$TDINDWG
 40
0.4159134259
  9
$TDUSRTIMER
 40
0.4159128819
  9
$USRTIMER
 70
     1
  9
$ANGBASE
 50
0.0
  9
$ANGDIR
 70
     0
  9
$PDMODE
 70
     0
  9
$PDSIZE
 40
0.0
  9
$PLINEWID
 40
0.0
  9
$SPLFRAME
 70
     0
  9
$SPLINETYPE
 70
     6
  9
$SPLINESEGS
 70
     8
  9
$HANDSEED
  5
4991
  9
$SURFTAB1
 70
     6
  9
$SURFTAB2
 70
     6
  9
$SURFTYPE
 70
     6
  9
$SURFU
 70
     6
  9
$SURFV
 70
     6
  9
$UCSBASE
  2

  9
$UCSNAME
  2

  9
$UCSORG
 10
0.0
 20
0.0
 30
0.0
  9
$UCSXDIR
 10
1.0
 20
0.0
 30
0.0
  9
$UCSYDIR
 10
0.0
 20
1.0
 30
0.0
  9
$UCSORTHOREF
  2

  9
$UCSORTHOVIEW
 70
     0
  9
$UCSORGTOP
 10
0.0
 20
0.0
 30
0.0
  9
$UCSORGBOTTOM
 10
0.0
 20
0.0
 30
0.0
  9
$UCSORGLEFT
 10
0.0
 20
0.0
 30
0.0
  9
$UCSORGRIGHT
 10
0.0
 20
0.0
 30
0.0
  9
$UCSORGFRONT
 10
0.0
 20
0.0
 30
0.0
  9
$UCSORGBACK
 10
0.0
 20
0.0
 30
0.0
  9
$PUCSBASE
  2

  9
$PUCSNAME
  2

  9
$PUCSORG
 10
0.0
 20
0.0
 30
0.0
  9
$PUCSXDIR
 10
1.0
 20
0.0
 30
0.0
  9
$PUCSYDIR
 10
0.0
 20
1.0
 30
0.0
  9
$PUCSORTHOREF
  2

  9
$PUCSORTHOVIEW
 70
     0
  9
$PUCSORGTOP
 10
0.0
 20
0.0
 30
0.0
  9
$PUCSORGBOTTOM
 10
0.0
 20
0.0
 30
0.0
  9
$PUCSORGLEFT
 10
0.0
 20
0.0
 30
0.0
  9
$PUCSORGRIGHT
 10
0.0
 20
0.0
 30
0.0
  9
$PUCSORGFRONT
 10
0.0
 20
0.0
 30
0.0
  9
$PUCSORGBACK
 10
0.0
 20
0.0
 30
0.0
  9
$USERI1
 70
     0
  9
$USERI2
 70
     0
  9
$USERI3
 70
     0
  9
$USERI4
 70
     0
  9
$USERI5
 70
     0
  9
$USERR1
 40
0.0
  9
$USERR2
 40
0.0
  9
$USERR3
 40
0.0
  9
$USERR4
 40
0.0
  9
$USERR5
 40
0.0
  9
$WORLDVIEW
 70
     1
  9
$SHADEDGE
 70
     3
  9
$SHADEDIF
 70
    70
  9
$TILEMODE
 70
     1
  9
$MAXACTVP
 70
    64
  9
$PINSBASE
 10
0.0
 20
0.0
 30
0.0
  9
$PLIMCHECK
 70
     0
  9
$PEXTMIN
 10
1.000000000000000E+20
 20
1.000000000000000E+20
 30
1.000000000000000E+20
  9
$PEXTMAX
 10
-1.000000000000000E+20
 20
-1.000000000000000E+20
 30
-1.000000000000000E+20
  9
$PLIMMIN
 10
0.0
 20
0.0
  9
$PLIMMAX
 10
12.0
 20
9.0
  9
$UNITMODE
 70
     0
  9
$VISRETAIN
 70
     1
  9
$PLINEGEN
 70
     0
  9
$PSLTSCALE
 70
     1
  9
$TREEDEPTH
 70
  3020
  9
$CMLSTYLE
  2
Standard
  9
$CMLJUST
 70
     0
  9
$CMLSCALE
 40
1.0
  9
$PROXYGRAPHICS
 70
     1
  9
$MEASUREMENT
 70
     0
  9
$CELWEIGHT
370
    -1
  9
$ENDCAPS
280
     0
  9
$JOINSTYLE
280
     0
  9
$LWDISPLAY
290
     0
  9
$INSUNITS
 70
     0
  9
$HYPERLINKBASE
  1

  9
$STYLESHEET
  1

  9
$XEDIT
290
     1
  9
$CEPSNTYPE
380
     0
  9
$PSTYLEMODE
290
     1
  9
$FINGERPRINTGUID
  2
{E1C568F7-0D98-4F13-8062-DEEE725E0345}
  9
$VERSIONGUID
  2
{3F5F11CB-C8A3-4192-80FF-478FEC5895ED}
  9
$EXTNAMES
290
     1
  9
$PSVPSCALE
 40
0.0
  9
$OLESTARTUP
290
     0
  0
ENDSEC
  0
SECTION
  2
CLASSES
  0
CLASS
  1
ACDBDICTIONARYWDFLT
  2
AcDbDictionaryWithDefault
  3
AutoCAD 2000
 90
        0
280
     0
281
     0
  0
CLASS
  1
ACDBPLACEHOLDER
  2
AcDbPlaceHolder
  3
AutoCAD 2000
 90
        0
280
     0
281
     0
  0
CLASS
  1
LAYOUT
  2
AcDbLayout
  3
AutoCAD 2000
 90
        0
280
     0
281
     0
  0
ENDSEC
  0
SECTION
  2
TABLES
  0
TABLE
  2
VPORT
  5
3543
330
0
100
AcDbSymbolTable
 70
     9
  0
VPORT
  5
4990
330
3543
100
AcDbSymbolTableRecord
100
AcDbViewportTableRecord
  2
*Active
 70
     0
 10
0.0
 20
0.0
 11
1.0
 21
1.0
 12
9.275000043190079
 22
13.70250006380724
 13
0.0
 23
0.0
 14
0.5
 24
0.5
 15
0.5
 25
0.5
 16
0.0
 26
0.0
 36
1.0
 17
0.0
 27
0.0
 37
0.0
 40
27.68073939514357
 41
1.796327212020033
 42
50.0
 43
0.0
 44
0.0
 50
0.0
 51
0.0
 71
     0
 72
   100
 73
     1
 74
     2
 75
     0
 76
     0
 77
     0
 78
     2
281
     0
 65
     0
110
0.0
120
0.0
130
0.0
111
1.0
121
0.0
131
0.0
112
0.0
122
1.0
132
0.0
 79
     0
146
0.0
  0
ENDTAB
  0
TABLE
  2
LTYPE
  5
3540
330
0
100
AcDbSymbolTable
 70
     6
  0
LTYPE
  5
354E
330
3540
100
AcDbSymbolTableRecord
100
AcDbLinetypeTableRecord
  2
ByBlock
 70
     0
  3

 72
    65
 73
     0
 40
0.0
  0
LTYPE
  5
354F
330
3540
100
AcDbSymbolTableRecord
100
AcDbLinetypeTableRecord
  2
ByLayer
 70
     0
  3

 72
    65
 73
     0
 40
0.0
  0
LTYPE
  5
3550
330
3540
100
AcDbSymbolTableRecord
100
AcDbLinetypeTableRecord
  2
CONTINUOUS
 70
     0
  3
Solid line
 72
    65
 73
     0
 40
0.0
  0
LTYPE
  5
355F
330
3540
100
AcDbSymbolTableRecord
100
AcDbLinetypeTableRecord
  2
HIDDEN
 70
     0
  3
_ _ _ _ _ _ _ _ _ _ _ _ _ _ _ _ _ _ _ _ _ _ _
 72
    65
 73
     2
 40
0.375
 49
0.25
 74
     0
 49
-0.125
 74
     0
  0
LTYPE
  5
3560
330
3540
100
AcDbSymbolTableRecord
100
AcDbLinetypeTableRecord
  2
PHANTOM
 70
     0
  3
_____ _ _ _____ _ _ _____ _ _ _____ _ _ ____
 72
    65
 73
     6
 40
2.5
 49
1.25
 74
     0
 49
-0.25
 74
     0
 49
0.25
 74
     0
 49
-0.25
 74
     0
 49
0.25
 74
     0
 49
-0.25
 74
     0
  0
LTYPE
  5
3561
330
3540
100
AcDbSymbolTableRecord
100
AcDbLinetypeTableRecord
  2
CENTER
 70
     0
  3
____ _ ____ _ ____ _ ____ _ ____ _ ____ _ ____
 72
    65
 73
     4
 40
2.0
 49
1.25
 74
     0
 49
-0.25
 74
     0
 49
0.25
 74
     0
 49
-0.25
 74
     0
  0
LTYPE
  5
3562
330
3540
100
AcDbSymbolTableRecord
100
AcDbLinetypeTableRecord
  2
HIDDEN2
 70
     0
  3
_ _ _ _ _ _ _ _ _ _ _ _ _ _ _ _ _ _ _ _ _ _ _ _
 72
    65
 73
     2
 40
0.1875
 49
0.125
 74
     0
 49
-0.0625
 74
     0
  0
LTYPE
  5
3563
330
3540
100
AcDbSymbolTableRecord
100
AcDbLinetypeTableRecord
  2
PHANTOM2
 70
     0
  3
___ _ _ ___ _ _ ___ _ _ ___ _ _ ___ _ _ ___ _ _
 72
    65
 73
     6
 40
1.25
 49
0.625
 74
     0
 49
-0.125
 74
     0
 49
0.125
 74
     0
 49
-0.125
 74
     0
 49
0.125
 74
     0
 49
-0.125
 74
     0
  0
ENDTAB
  0
TABLE
  2
LAYER
  5
353D
330
0
100
AcDbSymbolTable
 70
     9
  0
LAYER
  5
354B
330
353D
100
AcDbSymbolTableRecord
100
AcDbLayerTableRecord
  2
0
 70
     0
 62
     7
  6
CONTINUOUS
370
    -3
390
354A
  0
LAYER
  5
355D
330
353D
100
AcDbSymbolTableRecord
100
AcDbLayerTableRecord
  2
OBJECT
 70
     0
 62
     7
  6
CONTINUOUS
370
    -3
390
354A
  0
LAYER
  5
3564
330
353D
100
AcDbSymbolTableRecord
100
AcDbLayerTableRecord
  2
DIM
 70
     0
 62
     2
  6
CONTINUOUS
370
    -3
390
354A
  0
LAYER
  5
3565
330
353D
100
AcDbSymbolTableRecord
100
AcDbLayerTableRecord
  2
HIDDEN
 70
     0
 62
     6
  6
HIDDEN
370
    -3
390
354A
  0
LAYER
  5
3566
330
353D
100
AcDbSymbolTableRecord
100
AcDbLayerTableRecord
  2
BEND
 70
     0
 62
     4
  6
PHANTOM
370
    -3
390
354A
  0
LAYER
  5
3567
330
353D
100
AcDbSymbolTableRecord
100
AcDbLayerTableRecord
  2
TEXT
 70
     0
 62
     1
  6
CONTINUOUS
370
    -3
390
354A
  0
LAYER
  5
3568
330
353D
100
AcDbSymbolTableRecord
100
AcDbLayerTableRecord
  2
TITLE
 70
     0
 62
     8
  6
CONTINUOUS
370
    -3
390
354A
  0
LAYER
  5
3569
330
353D
100
AcDbSymbolTableRecord
100
AcDbLayerTableRecord
  2
CENTER
 70
     0
 62
     3
  6
CENTER
370
    -3
390
354A
  0
LAYER
  5
356A
330
353D
100
AcDbSymbolTableRecord
100
AcDbLayerTableRecord
  2
DEFPOINTS
 70
     0
 62
     7
  6
CONTINUOUS
290
     0
370
    -3
390
354A
  0
ENDTAB
  0
TABLE
  2
STYLE
  5
353E
330
0
100
AcDbSymbolTable
 70
     2
  0
STYLE
  5
354C
330
353E
100
AcDbSymbolTableRecord
100
AcDbTextStyleTableRecord
  2
STANDARD
 70
     0
 40
0.0
 41
0.75
 50
0.0
 71
     0
 42
0.218
  3
txt.shx
  4

  0
STYLE
  5
356B
330
353E
100
AcDbSymbolTableRecord
100
AcDbTextStyleTableRecord
  2
TXT
 70
     0
 40
0.0
 41
0.75
 50
0.0
 71
     0
 42
0.125
  3
TXT.shx
  4

  0
ENDTAB
  0
TABLE
  2
VIEW
  5
3541
330
0
100
AcDbSymbolTable
 70
     0
  0
ENDTAB
  0
TABLE
  2
UCS
  5
3542
330
0
100
AcDbSymbolTable
 70
     0
  0
ENDTAB
  0
TABLE
  2
APPID
  5
3544
330
0
100
AcDbSymbolTable
 70
     1
  0
APPID
  5
354D
330
3544
100
AcDbSymbolTableRecord
100
AcDbRegAppTableRecord
  2
ACAD
 70
     0
  0
ENDTAB
  0
TABLE
  2
DIMSTYLE
  5
3545
330
0
100
AcDbSymbolTable
 70
     3
100
AcDbDimStyleTable
 71
     2
340
48CE
340
356D
  0
DIMSTYLE
105
356D
102
{ACAD_REACTORS
330
3A2C
330
39FE
330
39EF
330
39E0
330
37DB
330
3A1F
330
38AD
330
3860
330
37CD
330
39A3
330
384B
330
383D
330
3A8A
330
3821
330
37B1
330
37F7
330
37E9
330
382F
330
3AAE
330
3A9C
330
3805
330
3A0E
330
39C3
330
3813
330
3A6E
330
3A60
330
37BF
330
39B1
330
450A
330
4550
330
44F7
330
44FA
330
44FE
330
3A7C
330
48C0
102
}
330
3545
100
AcDbSymbolTableRecord
100
AcDbDimStyleTableRecord
  2
23NSTD
 70
     0
 40
1.75
 43
0.281
 44
0.093
140
0.125
271
     3
272
     3
289
     1
340
354C
  0
DIMSTYLE
105
48CE
102
{ACAD_REACTORS
330
39D1
102
}
330
3545
100
AcDbSymbolTableRecord
100
AcDbDimStyleTableRecord
  2
23NSTDI
 70
     0
 40
1.75
 43
0.281
 44
0.093
140
0.125
174
     1
271
     3
272
     3
289
     1
340
354C
  0
ENDTAB
  0
TABLE
  2
BLOCK_RECORD
  5
353C
330
0
100
AcDbSymbolTable
 70
    69
  0
BLOCK_RECORD
  5
3559
330
353C
100
AcDbSymbolTableRecord
100
AcDbBlockTableRecord
  2
*Model_Space
340
355C
  0
BLOCK_RECORD
  5
3555
330
353C
100
AcDbSymbolTableRecord
100
AcDbBlockTableRecord
  2
*Paper_Space
340
3558
  0
BLOCK_RECORD
  5
3575
330
353C
100
AcDbSymbolTableRecord
100
AcDbBlockTableRecord
  2
HB
340
0
102
{BLKREFS
331
37B0
102
}
  0
BLOCK_RECORD
  5
37B2
330
353C
100
AcDbSymbolTableRecord
100
AcDbBlockTableRecord
  2
*D36
340
0
  0
BLOCK_RECORD
  5
37C0
330
353C
100
AcDbSymbolTableRecord
100
AcDbBlockTableRecord
  2
*D37
340
0
  0
BLOCK_RECORD
  5
37CE
330
353C
100
AcDbSymbolTableRecord
100
AcDbBlockTableRecord
  2
*D38
340
0
  0
BLOCK_RECORD
  5
37DC
330
353C
100
AcDbSymbolTableRecord
100
AcDbBlockTableRecord
  2
*D39
340
0
  0
BLOCK_RECORD
  5
37EA
330
353C
100
AcDbSymbolTableRecord
100
AcDbBlockTableRecord
  2
*D40
340
0
  0
BLOCK_RECORD
  5
37F8
330
353C
100
AcDbSymbolTableRecord
100
AcDbBlockTableRecord
  2
*D41
340
0
  0
BLOCK_RECORD
  5
3806
330
353C
100
AcDbSymbolTableRecord
100
AcDbBlockTableRecord
  2
*D42
340
0
  0
BLOCK_RECORD
  5
3814
330
353C
100
AcDbSymbolTableRecord
100
AcDbBlockTableRecord
  2
*D43
340
0
  0
BLOCK_RECORD
  5
3822
330
353C
100
AcDbSymbolTableRecord
100
AcDbBlockTableRecord
  2
*D44
340
0
  0
BLOCK_RECORD
  5
3830
330
353C
100
AcDbSymbolTableRecord
100
AcDbBlockTableRecord
  2
*D45
340
0
  0
BLOCK_RECORD
  5
383E
330
353C
100
AcDbSymbolTableRecord
100
AcDbBlockTableRecord
  2
*D46
340
0
  0
BLOCK_RECORD
  5
384C
330
353C
100
AcDbSymbolTableRecord
100
AcDbBlockTableRecord
  2
*D47
340
0
  0
BLOCK_RECORD
  5
3861
330
353C
100
AcDbSymbolTableRecord
100
AcDbBlockTableRecord
  2
*D48
340
0
  0
BLOCK_RECORD
  5
38AE
330
353C
100
AcDbSymbolTableRecord
100
AcDbBlockTableRecord
  2
*D49
340
0
  0
BLOCK_RECORD
  5
39A4
330
353C
100
AcDbSymbolTableRecord
100
AcDbBlockTableRecord
  2
*D50
340
0
  0
BLOCK_RECORD
  5
39B2
330
353C
100
AcDbSymbolTableRecord
100
AcDbBlockTableRecord
  2
*D51
340
0
  0
BLOCK_RECORD
  5
39C4
330
353C
100
AcDbSymbolTableRecord
100
AcDbBlockTableRecord
  2
*D52
340
0
  0
BLOCK_RECORD
  5
39D2
330
353C
100
AcDbSymbolTableRecord
100
AcDbBlockTableRecord
  2
*D53
340
0
  0
BLOCK_RECORD
  5
39E1
330
353C
100
AcDbSymbolTableRecord
100
AcDbBlockTableRecord
  2
*D54
340
0
  0
BLOCK_RECORD
  5
39F0
330
353C
100
AcDbSymbolTableRecord
100
AcDbBlockTableRecord
  2
*D55
340
0
  0
BLOCK_RECORD
  5
39FF
330
353C
100
AcDbSymbolTableRecord
100
AcDbBlockTableRecord
  2
*D56
340
0
  0
BLOCK_RECORD
  5
3A0F
330
353C
100
AcDbSymbolTableRecord
100
AcDbBlockTableRecord
  2
*D57
340
0
  0
BLOCK_RECORD
  5
3A20
330
353C
100
AcDbSymbolTableRecord
100
AcDbBlockTableRecord
  2
*D58
340
0
  0
BLOCK_RECORD
  5
3A2D
330
353C
100
AcDbSymbolTableRecord
100
AcDbBlockTableRecord
  2
*D59
340
0
  0
BLOCK_RECORD
  5
3A61
330
353C
100
AcDbSymbolTableRecord
100
AcDbBlockTableRecord
  2
*D60
340
0
  0
BLOCK_RECORD
  5
3A6F
330
353C
100
AcDbSymbolTableRecord
100
AcDbBlockTableRecord
  2
*D61
340
0
  0
BLOCK_RECORD
  5
3A7D
330
353C
100
AcDbSymbolTableRecord
100
AcDbBlockTableRecord
  2
*D62
340
0
  0
BLOCK_RECORD
  5
3A8B
330
353C
100
AcDbSymbolTableRecord
100
AcDbBlockTableRecord
  2
*D63
340
0
  0
BLOCK_RECORD
  5
3A9D
330
353C
100
AcDbSymbolTableRecord
100
AcDbBlockTableRecord
  2
*D64
340
0
  0
BLOCK_RECORD
  5
3AAF
330
353C
100
AcDbSymbolTableRecord
100
AcDbBlockTableRecord
  2
*D65
340
0
  0
BLOCK_RECORD
  5
450B
330
353C
100
AcDbSymbolTableRecord
100
AcDbBlockTableRecord
  2
*D66
340
0
  0
BLOCK_RECORD
  5
4551
330
353C
100
AcDbSymbolTableRecord
100
AcDbBlockTableRecord
  2
*D67
340
0
  0
ENDTAB
  0
ENDSEC
  0
SECTION
  2
BLOCKS
  0
BLOCK
  5
355A
330
3559
100
AcDbEntity
  8
0
100
AcDbBlockBegin
  2
*Model_Space
 70
     0
 10
0.0
 20
0.0
 30
0.0
  3
*Model_Space
  1

  0
ENDBLK
  5
355B
330
3559
100
AcDbEntity
  8
0
100
AcDbBlockEnd
  0
BLOCK
  5
3556
330
3555
100
AcDbEntity
 67
     1
  8
0
100
AcDbBlockBegin
  2
*Paper_Space
 70
     0
 10
0.0
 20
0.0
 30
0.0
  3
*Paper_Space
  1

  0
ENDBLK
  5
3557
330
3555
100
AcDbEntity
 67
     1
  8
0
100
AcDbBlockEnd
  0
BLOCK
  5
3576
330
3575
100
AcDbEntity
  8
0
100
AcDbBlockBegin
  2
HB
 70
     0
 10
0.0
 20
0.0
 30
0.0
  3
HB
  1

  0
TEXT
  5
3577
330
3575
100
AcDbEntity
  8
TEXT
100
AcDbText
 10
0.2078333333333363
 20
15.22007919564008
 30
0.0
 40
0.125
  1
NAME
  7
TXT
 72
     1
 11
0.4370000000000031
 21
15.22007919564008
 31
0.0
100
AcDbText
  0
TEXT
  5
3578
330
3575
100
AcDbEntity
  8
TEXT
100
AcDbText
 10
0.2078333333333363
 20
15.42841252897341
 30
0.0
 40
0.125
  1
PART
  7
TXT
 72
     1
 11
0.4370000000000031
 21
15.42841252897341
 31
0.0
100
AcDbText
  0
TEXT
  5
3579
330
3575
100
AcDbEntity
  8
TEXT
100
AcDbText
 10
5.611999999999998
 20
15.22007919564008
 30
0.0
 40
0.125
  1
No.
  7
TXT
 72
     1
 11
5.736999999999998
 21
15.22007919564008
 31
0.0
100
AcDbText
  0
TEXT
  5
357A
330
3575
100
AcDbEntity
  8
TEXT
100
AcDbText
 10
5.507833333333331
 20
15.42841252897341
 30
0.0
 40
0.125
  1
PART
  7
TXT
 72
     1
 11
5.736999999999998
 21
15.42841252897341
 31
0.0
100
AcDbText
  0
LINE
  5
357B
330
3575
100
AcDbEntity
  8
TITLE
100
AcDbLine
 10
6.112
 20
15.598
 30
0.0
 11
6.112
 21
15.17999999999999
 31
0.0
  0
LINE
  5
357C
330
3575
100
AcDbEntity
  8
TITLE
100
AcDbLine
 10
5.362
 20
15.598
 30
0.0
 11
5.362
 21
15.17999999999999
 31
0.0
  0
LINE
  5
357D
330
3575
100
AcDbEntity
  8
TITLE
100
AcDbLine
 10
5.299999999999999
 20
15.598
 30
0.0
 11
5.299999999999999
 21
15.17999999999999
 31
0.0
  0
LINE
  5
357E
330
3575
100
AcDbEntity
  8
TITLE
100
AcDbLine
 10
0.8120000000000029
 20
15.17999999999999
 30
0.0
 11
0.8120000000000009
 21
15.598
 31
0.0
  0
LINE
  5
357F
330
3575
100
AcDbEntity
  8
TITLE
100
AcDbLine
 10
0.0620000000000012
 20
15.17999999999999
 30
0.0
 11
10.538
 21
15.17999999999999
 31
0.0
  0
LINE
  5
3580
330
3575
100
AcDbEntity
  8
TITLE
100
AcDbLine
 10
10.538
 20
0.0619999999999994
 30
0.0
 11
0.0619999999999976
 21
0.0620000000000012
 31
0.0
  0
LINE
  5
3581
330
3575
100
AcDbEntity
  8
TITLE
100
AcDbLine
 10
10.538
 20
15.598
 30
0.0
 11
10.538
 21
0.0619999999999994
 31
0.0
  0
LINE
  5
3582
330
3575
100
AcDbEntity
  8
TITLE
100
AcDbLine
 10
0.0620000000000012
 20
15.598
 30
0.0
 11
10.538
 21
15.598
 31
0.0
  0
LINE
  5
3583
330
3575
100
AcDbEntity
  8
TITLE
100
AcDbLine
 10
0.0619999999999976
 20
0.0620000000000012
 30
0.0
 11
0.0620000000000012
 21
15.598
 31
0.0
  0
LINE
  5
3584
330
3575
100
AcDbEntity
  8
TITLE
100
AcDbLine
 10
0.0
 20
0.0
 30
0.0
 11
0.0
 21
15.66
 31
0.0
  0
LINE
  5
3585
330
3575
100
AcDbEntity
  8
TITLE
100
AcDbLine
 10
10.6
 20
-0.0000000000000018
 30
0.0
 11
0.0
 21
0.0
 31
0.0
  0
LINE
  5
3586
330
3575
100
AcDbEntity
  8
TITLE
100
AcDbLine
 10
10.6
 20
15.65999999999998
 30
0.0
 11
10.6
 21
-0.0000000000000018
 31
0.0
  0
LINE
  5
3587
330
3575
100
AcDbEntity
  8
TITLE
100
AcDbLine
 10
0.0
 20
15.66
 30
0.0
 11
10.6
 21
15.65999999999998
 31
0.0
  0
ENDBLK
  5
3588
330
3575
100
AcDbEntity
  8
0
100
AcDbBlockEnd
  0
BLOCK
  5
37BD
330
37B2
100
AcDbEntity
  8
0
100
AcDbBlockBegin
  2
*D36
 70
     1
 10
0.0
 20
0.0
 30
0.0
  3
*D36
  1

  0
LINE
  5
480B
330
37B2
100
AcDbEntity
  8
DIM
 62
     0
370
    -2
100
AcDbLine
 10
3.076916688764526
 20
1.916577583850322
 30
0.0
 11
3.076916688764526
 21
1.104206697155301
 31
0.0
  0
LINE
  5
480C
330
37B2
100
AcDbEntity
  8
DIM
 62
     0
370
    -2
100
AcDbLine
 10
6.476916688764529
 20
1.916577583850322
 30
0.0
 11
6.476916688764529
 21
1.104206697155301
 31
0.0
  0
LINE
  5
480D
330
37B2
100
AcDbEntity
  8
DIM
 62
     0
370
    -2
100
AcDbLine
 10
3.391916688764526
 20
1.266956697155301
 30
0.0
 11
4.318635438764527
 21
1.266956697155301
 31
0.0
  0
LINE
  5
480E
330
37B2
100
AcDbEntity
  8
DIM
 62
     0
370
    -2
100
AcDbLine
 10
6.161916688764528
 20
1.266956697155301
 30
0.0
 11
5.235197938764526
 21
1.266956697155301
 31
0.0
  0
SOLID
  5
480F
330
37B2
100
AcDbEntity
  8
DIM
 62
     0
100
AcDbTrace
 10
3.391916688764526
 20
1.319456697155301
 30
0.0
 11
3.391916688764526
 21
1.214456697155301
 31
0.0
 12
3.076916688764526
 22
1.266956697155301
 32
0.0
 13
3.076916688764526
 23
1.266956697155301
 33
0.0
  0
SOLID
  5
4810
330
37B2
100
AcDbEntity
  8
DIM
 62
     0
100
AcDbTrace
 10
6.161916688764528
 20
1.319456697155301
 30
0.0
 11
6.161916688764528
 21
1.214456697155301
 31
0.0
 12
6.476916688764529
 22
1.266956697155301
 32
0.0
 13
6.476916688764529
 23
1.266956697155301
 33
0.0
  0
MTEXT
  5
4811
330
37B2
100
AcDbEntity
  8
DIM
 62
     0
100
AcDbMText
 10
4.776916688764527
 20
1.266956697155301
 30
0.0
 40
0.21875
 41
0.0
 71
     5
 72
     1
  1
\A1;3.400
 73
     1
 44
1.0
  0
POINT
  5
4812
330
37B2
100
AcDbEntity
  8
DEFPOINTS
 62
     0
100
AcDbPoint
 10
3.076916688764526
 20
2.025952583850322
 30
0.0
  0
POINT
  5
4813
330
37B2
100
AcDbEntity
  8
DEFPOINTS
 62
     0
100
AcDbPoint
 10
6.476916688764529
 20
2.025952583850322
 30
0.0
  0
POINT
  5
4814
330
37B2
100
AcDbEntity
  8
DEFPOINTS
 62
     0
100
AcDbPoint
 10
6.476916688764529
 20
1.266956697155301
 30
0.0
  0
ENDBLK
  5
37BE
330
37B2
100
AcDbEntity
  8
0
100
AcDbBlockEnd
  0
BLOCK
  5
37CB
330
37C0
100
AcDbEntity
  8
0
100
AcDbBlockBegin
  2
*D37
 70
     1
 10
0.0
 20
0.0
 30
0.0
  3
*D37
  1

  0
LINE
  5
488D
330
37C0
100
AcDbEntity
  8
DIM
 62
     0
370
    -2
100
AcDbLine
 10
2.967541688764527
 20
3.125952583850324
 30
0.0
 11
1.629317930717024
 21
3.125952583850324
 31
0.0
  0
LINE
  5
488E
330
37C0
100
AcDbEntity
  8
DIM
 62
     0
370
    -2
100
AcDbLine
 10
2.967541688764526
 20
2.025952583850322
 30
0.0
 11
1.629317930717024
 21
2.025952583850322
 31
0.0
  0
LINE
  5
488F
330
37C0
100
AcDbEntity
  8
DIM
 62
     0
370
    -2
100
AcDbLine
 10
1.792067930717024
 20
3.440952583850324
 30
0.0
 11
1.792067930717024
 21
3.755952583850324
 31
0.0
  0
LINE
  5
4890
330
37C0
100
AcDbEntity
  8
DIM
 62
     0
370
    -2
100
AcDbLine
 10
1.792067930717024
 20
1.710952583850322
 30
0.0
 11
1.792067930717023
 21
1.395952583850322
 31
0.0
  0
SOLID
  5
4891
330
37C0
100
AcDbEntity
  8
DIM
 62
     0
100
AcDbTrace
 10
1.739567930717024
 20
3.440952583850324
 30
0.0
 11
1.844567930717024
 21
3.440952583850324
 31
0.0
 12
1.792067930717024
 22
3.125952583850324
 32
0.0
 13
1.792067930717024
 23
3.125952583850324
 33
0.0
  0
SOLID
  5
4892
330
37C0
100
AcDbEntity
  8
DIM
 62
     0
100
AcDbTrace
 10
1.739567930717024
 20
1.710952583850322
 30
0.0
 11
1.844567930717024
 21
1.710952583850322
 31
0.0
 12
1.792067930717024
 22
2.025952583850322
 32
0.0
 13
1.792067930717024
 23
2.025952583850322
 33
0.0
  0
MTEXT
  5
4893
330
37C0
100
AcDbEntity
  8
DIM
 62
     0
100
AcDbMText
 10
1.792067930717023
 20
2.575952583850323
 30
0.0
 40
0.21875
 41
0.0
 71
     5
 72
     1
  1
\A1;1.100
 73
     1
 44
1.0
  0
POINT
  5
4894
330
37C0
100
AcDbEntity
  8
DEFPOINTS
 62
     0
100
AcDbPoint
 10
3.076916688764527
 20
3.125952583850323
 30
0.0
  0
POINT
  5
4895
330
37C0
100
AcDbEntity
  8
DEFPOINTS
 62
     0
100
AcDbPoint
 10
3.076916688764526
 20
2.025952583850322
 30
0.0
  0
POINT
  5
4896
330
37C0
100
AcDbEntity
  8
DEFPOINTS
 62
     0
100
AcDbPoint
 10
1.792067930717024
 20
2.025952583850322
 30
0.0
  0
ENDBLK
  5
37CC
330
37C0
100
AcDbEntity
  8
0
100
AcDbBlockEnd
  0
BLOCK
  5
37D9
330
37CE
100
AcDbEntity
  8
0
100
AcDbBlockBegin
  2
*D38
 70
     1
 10
0.0
 20
0.0
 30
0.0
  3
*D38
  1

  0
LINE
  5
495D
330
37CE
100
AcDbEntity
  8
DIM
 62
     0
370
    -2
100
AcDbLine
 10
16.64340883877152
 20
23.58525931464669
 30
0.0
 11
18.1541748105111
 21
23.58525931464669
 31
0.0
  0
LINE
  5
495E
330
37CE
100
AcDbEntity
  8
DIM
 62
     0
370
    -2
100
AcDbLine
 10
16.64340883877152
 20
17.45525931464668
 30
0.0
 11
18.1541748105111
 21
17.45525931464668
 31
0.0
  0
LINE
  5
495F
330
37CE
100
AcDbEntity
  8
DIM
 62
     0
370
    -2
100
AcDbLine
 10
17.9914248105111
 20
23.27025931464669
 30
0.0
 11
17.9914248105111
 21
20.78713431464668
 31
0.0
  0
LINE
  5
4960
330
37CE
100
AcDbEntity
  8
DIM
 62
     0
370
    -2
100
AcDbLine
 10
17.9914248105111
 20
17.77025931464669
 30
0.0
 11
17.9914248105111
 21
20.25338431464669
 31
0.0
  0
SOLID
  5
4961
330
37CE
100
AcDbEntity
  8
DIM
 62
     0
100
AcDbTrace
 10
17.9389248105111
 20
23.27025931464669
 30
0.0
 11
18.0439248105111
 21
23.27025931464669
 31
0.0
 12
17.9914248105111
 22
23.58525931464669
 32
0.0
 13
17.9914248105111
 23
23.58525931464669
 33
0.0
  0
SOLID
  5
4962
330
37CE
100
AcDbEntity
  8
DIM
 62
     0
100
AcDbTrace
 10
17.9389248105111
 20
17.77025931464669
 30
0.0
 11
18.0439248105111
 21
17.77025931464669
 31
0.0
 12
17.9914248105111
 22
17.45525931464668
 32
0.0
 13
17.9914248105111
 23
17.45525931464668
 33
0.0
  0
MTEXT
  5
4963
330
37CE
100
AcDbEntity
  8
DIM
 62
     0
100
AcDbMText
 10
17.9914248105111
 20
20.52025931464669
 30
0.0
 40
0.21875
 41
0.0
 71
     5
 72
     1
  1
\A1;6.130
 73
     1
 44
1.0
  0
POINT
  5
4964
330
37CE
100
AcDbEntity
  8
DEFPOINTS
 62
     0
100
AcDbPoint
 10
16.53403383877152
 20
23.58525931464669
 30
0.0
  0
POINT
  5
4965
330
37CE
100
AcDbEntity
  8
DEFPOINTS
 62
     0
100
AcDbPoint
 10
16.53403383877152
 20
17.45525931464668
 30
0.0
  0
POINT
  5
4966
330
37CE
100
AcDbEntity
  8
DEFPOINTS
 62
     0
100
AcDbPoint
 10
17.9914248105111
 20
17.45525931464668
 30
0.0
  0
ENDBLK
  5
37DA
330
37CE
100
AcDbEntity
  8
0
100
AcDbBlockEnd
  0
BLOCK
  5
37E7
330
37DC
100
AcDbEntity
  8
0
100
AcDbBlockBegin
  2
*D39
 70
     1
 10
0.0
 20
0.0
 30
0.0
  3
*D39
  1

  0
LINE
  5
493F
330
37DC
100
AcDbEntity
  8
DIM
 62
     0
370
    -2
100
AcDbLine
 10
13.54903383877152
 20
23.5317104198385
 30
0.0
 11
13.54903383877152
 21
24.38040444951723
 31
0.0
  0
LINE
  5
4940
330
37DC
100
AcDbEntity
  8
DIM
 62
     0
370
    -2
100
AcDbLine
 10
17.48403383877152
 20
23.67805200296487
 30
0.0
 11
17.48403383877152
 21
24.38040444951723
 31
0.0
  0
LINE
  5
4941
330
37DC
100
AcDbEntity
  8
DIM
 62
     0
370
    -2
100
AcDbLine
 10
13.86403383877152
 20
24.21765444951723
 30
0.0
 11
15.03090883877152
 21
24.21765444951723
 31
0.0
  0
LINE
  5
4942
330
37DC
100
AcDbEntity
  8
DIM
 62
     0
370
    -2
100
AcDbLine
 10
17.16903383877152
 20
24.21765444951723
 30
0.0
 11
16.00215883877152
 21
24.21765444951723
 31
0.0
  0
SOLID
  5
4943
330
37DC
100
AcDbEntity
  8
DIM
 62
     0
100
AcDbTrace
 10
13.86403383877152
 20
24.27015444951722
 30
0.0
 11
13.86403383877152
 21
24.16515444951723
 31
0.0
 12
13.54903383877152
 22
24.21765444951723
 32
0.0
 13
13.54903383877152
 23
24.21765444951723
 33
0.0
  0
SOLID
  5
4944
330
37DC
100
AcDbEntity
  8
DIM
 62
     0
100
AcDbTrace
 10
17.16903383877152
 20
24.27015444951722
 30
0.0
 11
17.16903383877152
 21
24.16515444951723
 31
0.0
 12
17.48403383877152
 22
24.21765444951723
 32
0.0
 13
17.48403383877152
 23
24.21765444951723
 33
0.0
  0
MTEXT
  5
4945
330
37DC
100
AcDbEntity
  8
DIM
 62
     0
100
AcDbMText
 10
15.51653383877152
 20
24.21765444951723
 30
0.0
 40
0.21875
 41
0.0
 71
     5
 72
     1
  1
\A1;3.935
 73
     1
 44
1.0
  0
POINT
  5
4946
330
37DC
100
AcDbEntity
  8
DEFPOINTS
 62
     0
100
AcDbPoint
 10
13.54903383877152
 20
23.4223354198385
 30
0.0
  0
POINT
  5
4947
330
37DC
100
AcDbEntity
  8
DEFPOINTS
 62
     0
100
AcDbPoint
 10
17.48403383877152
 20
23.56867700296488
 30
0.0
  0
POINT
  5
4948
330
37DC
100
AcDbEntity
  8
DEFPOINTS
 62
     0
100
AcDbPoint
 10
17.48403383877152
 20
24.21765444951723
 30
0.0
  0
ENDBLK
  5
37E8
330
37DC
100
AcDbEntity
  8
0
100
AcDbBlockEnd
  0
BLOCK
  5
37F5
330
37EA
100
AcDbEntity
  8
0
100
AcDbBlockBegin
  2
*D40
 70
     1
 10
0.0
 20
0.0
 30
0.0
  3
*D40
  1

  0
LINE
  5
481F
330
37EA
100
AcDbEntity
  8
DIM
 62
     0
370
    -2
100
AcDbLine
 10
2.517541688764527
 20
11.73152478947695
 30
0.0
 11
1.629317930717025
 21
11.73152478947695
 31
0.0
  0
LINE
  5
4820
330
37EA
100
AcDbEntity
  8
DIM
 62
     0
370
    -2
100
AcDbLine
 10
2.999041688764528
 20
12.95052478947694
 30
0.0
 11
1.629317930717026
 21
12.95052478947694
 31
0.0
  0
LINE
  5
4821
330
37EA
100
AcDbEntity
  8
DIM
 62
     0
370
    -2
100
AcDbLine
 10
1.792067930717025
 20
11.41652478947695
 30
0.0
 11
1.792067930717025
 21
11.10152478947694
 31
0.0
  0
LINE
  5
4822
330
37EA
100
AcDbEntity
  8
DIM
 62
     0
370
    -2
100
AcDbLine
 10
1.792067930717025
 20
13.26552478947694
 30
0.0
 11
1.792067930717026
 21
13.58052478947694
 31
0.0
  0
SOLID
  5
4823
330
37EA
100
AcDbEntity
  8
DIM
 62
     0
100
AcDbTrace
 10
1.739567930717025
 20
11.41652478947695
 30
0.0
 11
1.844567930717025
 21
11.41652478947695
 31
0.0
 12
1.792067930717025
 22
11.73152478947695
 32
0.0
 13
1.792067930717025
 23
11.73152478947695
 33
0.0
  0
SOLID
  5
4824
330
37EA
100
AcDbEntity
  8
DIM
 62
     0
100
AcDbTrace
 10
1.739567930717026
 20
13.26552478947694
 30
0.0
 11
1.844567930717025
 21
13.26552478947694
 31
0.0
 12
1.792067930717025
 22
12.95052478947694
 32
0.0
 13
1.792067930717025
 23
12.95052478947694
 33
0.0
  0
MTEXT
  5
4825
330
37EA
100
AcDbEntity
  8
DIM
 62
     0
100
AcDbMText
 10
1.792067930717023
 20
12.34102478947694
 30
0.0
 40
0.21875
 41
0.0
 71
     5
 72
     1
  1
\A1;1.219
 73
     1
 44
1.0
  0
POINT
  5
4826
330
37EA
100
AcDbEntity
  8
DEFPOINTS
 62
     0
100
AcDbPoint
 10
2.626916688764527
 20
11.73152478947695
 30
0.0
  0
POINT
  5
4827
330
37EA
100
AcDbEntity
  8
DEFPOINTS
 62
     0
100
AcDbPoint
 10
3.108416688764528
 20
12.95052478947694
 30
0.0
  0
POINT
  5
4828
330
37EA
100
AcDbEntity
  8
DEFPOINTS
 62
     0
100
AcDbPoint
 10
1.792067930717025
 20
12.95052478947694
 30
0.0
  0
ENDBLK
  5
37F6
330
37EA
100
AcDbEntity
  8
0
100
AcDbBlockEnd
  0
BLOCK
  5
3803
330
37F8
100
AcDbEntity
  8
0
100
AcDbBlockBegin
  2
*D41
 70
     1
 10
0.0
 20
0.0
 30
0.0
  3
*D41
  1

  0
LINE
  5
4815
330
37F8
100
AcDbEntity
  8
DIM
 62
     0
370
    -2
100
AcDbLine
 10
2.517541688764525
 20
11.73152478947695
 30
0.0
 11
1.629317930717026
 21
11.73152478947695
 31
0.0
  0
LINE
  5
4816
330
37F8
100
AcDbEntity
  8
DIM
 62
     0
370
    -2
100
AcDbLine
 10
2.999041688764528
 20
9.408524789476953
 30
0.0
 11
1.629317930717026
 21
9.408524789476953
 31
0.0
  0
LINE
  5
4817
330
37F8
100
AcDbEntity
  8
DIM
 62
     0
370
    -2
100
AcDbLine
 10
1.792067930717026
 20
11.41652478947695
 30
0.0
 11
1.792067930717026
 21
10.83689978947695
 31
0.0
  0
LINE
  5
4818
330
37F8
100
AcDbEntity
  8
DIM
 62
     0
370
    -2
100
AcDbLine
 10
1.792067930717026
 20
9.723524789476952
 30
0.0
 11
1.792067930717026
 21
10.30314978947695
 31
0.0
  0
SOLID
  5
4819
330
37F8
100
AcDbEntity
  8
DIM
 62
     0
100
AcDbTrace
 10
1.739567930717026
 20
11.41652478947695
 30
0.0
 11
1.844567930717026
 21
11.41652478947695
 31
0.0
 12
1.792067930717026
 22
11.73152478947695
 32
0.0
 13
1.792067930717026
 23
11.73152478947695
 33
0.0
  0
SOLID
  5
481A
330
37F8
100
AcDbEntity
  8
DIM
 62
     0
100
AcDbTrace
 10
1.739567930717026
 20
9.723524789476952
 30
0.0
 11
1.844567930717026
 21
9.723524789476952
 31
0.0
 12
1.792067930717025
 22
9.408524789476953
 32
0.0
 13
1.792067930717025
 23
9.408524789476953
 33
0.0
  0
MTEXT
  5
481B
330
37F8
100
AcDbEntity
  8
DIM
 62
     0
100
AcDbMText
 10
1.792067930717024
 20
10.57002478947695
 30
0.0
 40
0.21875
 41
0.0
 71
     5
 72
     1
  1
\A1;2.323
 73
     1
 44
1.0
  0
POINT
  5
481C
330
37F8
100
AcDbEntity
  8
DEFPOINTS
 62
     0
100
AcDbPoint
 10
2.626916688764525
 20
11.73152478947695
 30
0.0
  0
POINT
  5
481D
330
37F8
100
AcDbEntity
  8
DEFPOINTS
 62
     0
100
AcDbPoint
 10
3.108416688764528
 20
9.408524789476953
 30
0.0
  0
POINT
  5
481E
330
37F8
100
AcDbEntity
  8
DEFPOINTS
 62
     0
100
AcDbPoint
 10
1.792067930717025
 20
9.408524789476953
 30
0.0
  0
ENDBLK
  5
3804
330
37F8
100
AcDbEntity
  8
0
100
AcDbBlockEnd
  0
BLOCK
  5
3811
330
3806
100
AcDbEntity
  8
0
100
AcDbBlockBegin
  2
*D42
 70
     1
 10
0.0
 20
0.0
 30
0.0
  3
*D42
  1

  0
LINE
  5
4847
330
3806
100
AcDbEntity
  8
DIM
 62
     0
370
    -2
100
AcDbLine
 10
11.39729168876452
 20
11.73152478947695
 30
0.0
 11
12.28917139159512
 21
11.73152478947694
 31
0.0
  0
LINE
  5
4848
330
3806
100
AcDbEntity
  8
DIM
 62
     0
370
    -2
100
AcDbLine
 10
10.91979168876453
 20
13.81252478947694
 30
0.0
 11
12.28917139159513
 21
13.81252478947693
 31
0.0
  0
LINE
  5
4849
330
3806
100
AcDbEntity
  8
DIM
 62
     0
370
    -2
100
AcDbLine
 10
12.12642139159513
 20
12.04652478947694
 30
0.0
 11
12.12642139159513
 21
12.50514978947694
 31
0.0
  0
LINE
  5
484A
330
3806
100
AcDbEntity
  8
DIM
 62
     0
370
    -2
100
AcDbLine
 10
12.12642139159513
 20
13.49752478947694
 30
0.0
 11
12.12642139159513
 21
13.03889978947694
 31
0.0
  0
SOLID
  5
484B
330
3806
100
AcDbEntity
  8
DIM
 62
     0
100
AcDbTrace
 10
12.07392139159513
 20
12.04652478947694
 30
0.0
 11
12.17892139159513
 21
12.04652478947694
 31
0.0
 12
12.12642139159513
 22
11.73152478947694
 32
0.0
 13
12.12642139159513
 23
11.73152478947694
 33
0.0
  0
SOLID
  5
484C
330
3806
100
AcDbEntity
  8
DIM
 62
     0
100
AcDbTrace
 10
12.07392139159513
 20
13.49752478947694
 30
0.0
 11
12.17892139159513
 21
13.49752478947694
 31
0.0
 12
12.12642139159513
 22
13.81252478947693
 32
0.0
 13
12.12642139159513
 23
13.81252478947693
 33
0.0
  0
MTEXT
  5
484D
330
3806
100
AcDbEntity
  8
DIM
 62
     0
100
AcDbMText
 10
12.12642139159512
 20
12.77202478947694
 30
0.0
 40
0.21875
 41
0.0
 71
     5
 72
     1
  1
\A1;2.081
 73
     1
 44
1.0
  0
POINT
  5
484E
330
3806
100
AcDbEntity
  8
DEFPOINTS
 62
     0
100
AcDbPoint
 10
11.28791668876452
 20
11.73152478947695
 30
0.0
  0
POINT
  5
484F
330
3806
100
AcDbEntity
  8
DEFPOINTS
 62
     0
100
AcDbPoint
 10
10.81041668876453
 20
13.81252478947694
 30
0.0
  0
POINT
  5
4850
330
3806
100
AcDbEntity
  8
DEFPOINTS
 62
     0
100
AcDbPoint
 10
12.12642139159513
 20
13.81252478947693
 30
0.0
  0
ENDBLK
  5
3812
330
3806
100
AcDbEntity
  8
0
100
AcDbBlockEnd
  0
BLOCK
  5
381F
330
3814
100
AcDbEntity
  8
0
100
AcDbBlockBegin
  2
*D43
 70
     1
 10
0.0
 20
0.0
 30
0.0
  3
*D43
  1

  0
LINE
  5
4865
330
3814
100
AcDbEntity
  8
DIM
 62
     0
370
    -2
100
AcDbLine
 10
11.39729168876452
 20
11.73152478947695
 30
0.0
 11
12.28917139159513
 21
11.73152478947694
 31
0.0
  0
LINE
  5
4866
330
3814
100
AcDbEntity
  8
DIM
 62
     0
370
    -2
100
AcDbLine
 10
10.91979168876453
 20
9.389524789476951
 30
0.0
 11
12.28917139159513
 21
9.389524789476949
 31
0.0
  0
LINE
  5
4867
330
3814
100
AcDbEntity
  8
DIM
 62
     0
370
    -2
100
AcDbLine
 10
12.12642139159513
 20
11.41652478947694
 30
0.0
 11
12.12642139159513
 21
10.82739978947695
 31
0.0
  0
LINE
  5
4868
330
3814
100
AcDbEntity
  8
DIM
 62
     0
370
    -2
100
AcDbLine
 10
12.12642139159513
 20
9.704524789476948
 30
0.0
 11
12.12642139159513
 21
10.29364978947694
 31
0.0
  0
SOLID
  5
4869
330
3814
100
AcDbEntity
  8
DIM
 62
     0
100
AcDbTrace
 10
12.07392139159513
 20
11.41652478947694
 30
0.0
 11
12.17892139159513
 21
11.41652478947694
 31
0.0
 12
12.12642139159513
 22
11.73152478947694
 32
0.0
 13
12.12642139159513
 23
11.73152478947694
 33
0.0
  0
SOLID
  5
486A
330
3814
100
AcDbEntity
  8
DIM
 62
     0
100
AcDbTrace
 10
12.07392139159513
 20
9.704524789476948
 30
0.0
 11
12.17892139159513
 21
9.704524789476948
 31
0.0
 12
12.12642139159513
 22
9.389524789476949
 32
0.0
 13
12.12642139159513
 23
9.389524789476949
 33
0.0
  0
MTEXT
  5
486B
330
3814
100
AcDbEntity
  8
DIM
 62
     0
100
AcDbMText
 10
12.12642139159513
 20
10.56052478947695
 30
0.0
 40
0.21875
 41
0.0
 71
     5
 72
     1
  1
\A1;2.342
 73
     1
 44
1.0
  0
POINT
  5
486C
330
3814
100
AcDbEntity
  8
DEFPOINTS
 62
     0
100
AcDbPoint
 10
11.28791668876452
 20
11.73152478947695
 30
0.0
  0
POINT
  5
486D
330
3814
100
AcDbEntity
  8
DEFPOINTS
 62
     0
100
AcDbPoint
 10
10.81041668876453
 20
9.389524789476951
 30
0.0
  0
POINT
  5
486E
330
3814
100
AcDbEntity
  8
DEFPOINTS
 62
     0
100
AcDbPoint
 10
12.12642139159513
 20
9.389524789476949
 30
0.0
  0
ENDBLK
  5
3820
330
3814
100
AcDbEntity
  8
0
100
AcDbBlockEnd
  0
BLOCK
  5
382D
330
3822
100
AcDbEntity
  8
0
100
AcDbBlockBegin
  2
*D44
 70
     1
 10
0.0
 20
0.0
 30
0.0
  3
*D44
  1

  0
LINE
  5
4801
330
3822
100
AcDbEntity
  8
DIM
 62
     0
370
    -2
100
AcDbLine
 10
6.957416688764528
 20
8.557149789476955
 30
0.0
 11
6.957416688764528
 21
7.878163752715289
 31
0.0
  0
LINE
  5
4802
330
3822
100
AcDbEntity
  8
DIM
 62
     0
370
    -2
100
AcDbLine
 10
3.108416688764528
 20
9.299149789476953
 30
0.0
 11
3.108416688764528
 21
7.878163752715289
 31
0.0
  0
LINE
  5
4803
330
3822
100
AcDbEntity
  8
DIM
 62
     0
370
    -2
100
AcDbLine
 10
6.642416688764527
 20
8.040913752715288
 30
0.0
 11
5.518541688764527
 21
8.040913752715288
 31
0.0
  0
LINE
  5
4804
330
3822
100
AcDbEntity
  8
DIM
 62
     0
370
    -2
100
AcDbLine
 10
3.423416688764528
 20
8.040913752715288
 30
0.0
 11
4.547291688764528
 21
8.040913752715288
 31
0.0
  0
SOLID
  5
4805
330
3822
100
AcDbEntity
  8
DIM
 62
     0
100
AcDbTrace
 10
6.642416688764527
 20
8.093413752715289
 30
0.0
 11
6.642416688764527
 21
7.988413752715288
 31
0.0
 12
6.957416688764528
 22
8.040913752715288
 32
0.0
 13
6.957416688764528
 23
8.040913752715288
 33
0.0
  0
SOLID
  5
4806
330
3822
100
AcDbEntity
  8
DIM
 62
     0
100
AcDbTrace
 10
3.423416688764528
 20
8.093413752715289
 30
0.0
 11
3.423416688764528
 21
7.988413752715288
 31
0.0
 12
3.108416688764528
 22
8.040913752715288
 32
0.0
 13
3.108416688764528
 23
8.040913752715288
 33
0.0
  0
MTEXT
  5
4807
330
3822
100
AcDbEntity
  8
DIM
 62
     0
100
AcDbMText
 10
5.032916688764528
 20
8.040913752715288
 30
0.0
 40
0.21875
 41
0.0
 71
     5
 72
     1
  1
\A1;3.849
 73
     1
 44
1.0
  0
POINT
  5
4808
330
3822
100
AcDbEntity
  8
DEFPOINTS
 62
     0
100
AcDbPoint
 10
6.957416688764528
 20
8.666524789476955
 30
0.0
  0
POINT
  5
4809
330
3822
100
AcDbEntity
  8
DEFPOINTS
 62
     0
100
AcDbPoint
 10
3.108416688764528
 20
9.408524789476953
 30
0.0
  0
POINT
  5
480A
330
3822
100
AcDbEntity
  8
DEFPOINTS
 62
     0
100
AcDbPoint
 10
3.108416688764528
 20
8.040913752715288
 30
0.0
  0
ENDBLK
  5
382E
330
3822
100
AcDbEntity
  8
0
100
AcDbBlockEnd
  0
BLOCK
  5
383B
330
3830
100
AcDbEntity
  8
0
100
AcDbBlockBegin
  2
*D45
 70
     1
 10
0.0
 20
0.0
 30
0.0
  3
*D45
  1

  0
LINE
  5
4829
330
3830
100
AcDbEntity
  8
DIM
 62
     0
370
    -2
100
AcDbLine
 10
6.957416688764528
 20
8.557149789476955
 30
0.0
 11
6.957416688764528
 21
7.878163752715289
 31
0.0
  0
LINE
  5
482A
330
3830
100
AcDbEntity
  8
DIM
 62
     0
370
    -2
100
AcDbLine
 10
8.982416688764525
 20
9.434149789476952
 30
0.0
 11
8.982416688764525
 21
7.878163752715289
 31
0.0
  0
LINE
  5
482B
330
3830
100
AcDbEntity
  8
DIM
 62
     0
370
    -2
100
AcDbLine
 10
7.272416688764528
 20
8.040913752715288
 30
0.0
 11
7.497963563764527
 21
8.040913752715288
 31
0.0
  0
LINE
  5
482C
330
3830
100
AcDbEntity
  8
DIM
 62
     0
370
    -2
100
AcDbLine
 10
8.667416688764525
 20
8.040913752715288
 30
0.0
 11
8.441869813764528
 21
8.040913752715288
 31
0.0
  0
SOLID
  5
482D
330
3830
100
AcDbEntity
  8
DIM
 62
     0
100
AcDbTrace
 10
7.272416688764528
 20
8.093413752715289
 30
0.0
 11
7.272416688764528
 21
7.988413752715288
 31
0.0
 12
6.957416688764528
 22
8.040913752715288
 32
0.0
 13
6.957416688764528
 23
8.040913752715288
 33
0.0
  0
SOLID
  5
482E
330
3830
100
AcDbEntity
  8
DIM
 62
     0
100
AcDbTrace
 10
8.667416688764525
 20
8.093413752715289
 30
0.0
 11
8.667416688764525
 21
7.988413752715288
 31
0.0
 12
8.982416688764525
 22
8.040913752715288
 32
0.0
 13
8.982416688764525
 23
8.040913752715288
 33
0.0
  0
MTEXT
  5
482F
330
3830
100
AcDbEntity
  8
DIM
 62
     0
100
AcDbMText
 10
7.969916688764527
 20
8.040913752715288
 30
0.0
 40
0.21875
 41
0.0
 71
     5
 72
     1
  1
\A1;2.025
 73
     1
 44
1.0
  0
POINT
  5
4830
330
3830
100
AcDbEntity
  8
DEFPOINTS
 62
     0
100
AcDbPoint
 10
6.957416688764528
 20
8.666524789476955
 30
0.0
  0
POINT
  5
4831
330
3830
100
AcDbEntity
  8
DEFPOINTS
 62
     0
100
AcDbPoint
 10
8.982416688764525
 20
9.543524789476952
 30
0.0
  0
POINT
  5
4832
330
3830
100
AcDbEntity
  8
DEFPOINTS
 62
     0
100
AcDbPoint
 10
8.982416688764525
 20
8.040913752715288
 30
0.0
  0
ENDBLK
  5
383C
330
3830
100
AcDbEntity
  8
0
100
AcDbBlockEnd
  0
BLOCK
  5
3849
330
383E
100
AcDbEntity
  8
0
100
AcDbBlockBegin
  2
*D46
 70
     1
 10
0.0
 20
0.0
 30
0.0
  3
*D46
  1

  0
LINE
  5
47ED
330
383E
100
AcDbEntity
  8
DIM
 62
     0
370
    -2
100
AcDbLine
 10
6.957416688764528
 20
8.557149789476955
 30
0.0
 11
6.957416688764528
 21
7.380031721320095
 31
0.0
  0
LINE
  5
47EE
330
383E
100
AcDbEntity
  8
DIM
 62
     0
370
    -2
100
AcDbLine
 10
9.354416688764528
 20
9.280149789476951
 30
0.0
 11
9.354416688764528
 21
7.380031721320095
 31
0.0
  0
LINE
  5
47EF
330
383E
100
AcDbEntity
  8
DIM
 62
     0
370
    -2
100
AcDbLine
 10
7.272416688764528
 20
7.542781721320095
 30
0.0
 11
7.670291688764529
 21
7.542781721320095
 31
0.0
  0
LINE
  5
47F0
330
383E
100
AcDbEntity
  8
DIM
 62
     0
370
    -2
100
AcDbLine
 10
9.039416688764529
 20
7.542781721320095
 30
0.0
 11
8.641541688764529
 21
7.542781721320095
 31
0.0
  0
SOLID
  5
47F1
330
383E
100
AcDbEntity
  8
DIM
 62
     0
100
AcDbTrace
 10
7.272416688764528
 20
7.595281721320096
 30
0.0
 11
7.272416688764528
 21
7.490281721320095
 31
0.0
 12
6.957416688764528
 22
7.542781721320095
 32
0.0
 13
6.957416688764528
 23
7.542781721320095
 33
0.0
  0
SOLID
  5
47F2
330
383E
100
AcDbEntity
  8
DIM
 62
     0
100
AcDbTrace
 10
9.039416688764529
 20
7.595281721320096
 30
0.0
 11
9.039416688764529
 21
7.490281721320095
 31
0.0
 12
9.354416688764528
 22
7.542781721320095
 32
0.0
 13
9.354416688764528
 23
7.542781721320095
 33
0.0
  0
MTEXT
  5
47F3
330
383E
100
AcDbEntity
  8
DIM
 62
     0
100
AcDbMText
 10
8.155916688764529
 20
7.542781721320095
 30
0.0
 40
0.21875
 41
0.0
 71
     5
 72
     1
  1
\A1;2.397
 73
     1
 44
1.0
  0
POINT
  5
47F4
330
383E
100
AcDbEntity
  8
DEFPOINTS
 62
     0
100
AcDbPoint
 10
6.957416688764528
 20
8.666524789476955
 30
0.0
  0
POINT
  5
47F5
330
383E
100
AcDbEntity
  8
DEFPOINTS
 62
     0
100
AcDbPoint
 10
9.354416688764528
 20
9.389524789476951
 30
0.0
  0
POINT
  5
47F6
330
383E
100
AcDbEntity
  8
DEFPOINTS
 62
     0
100
AcDbPoint
 10
9.354416688764528
 20
7.542781721320095
 30
0.0
  0
ENDBLK
  5
384A
330
383E
100
AcDbEntity
  8
0
100
AcDbBlockEnd
  0
BLOCK
  5
3857
330
384C
100
AcDbEntity
  8
0
100
AcDbBlockBegin
  2
*D47
 70
     1
 10
0.0
 20
0.0
 30
0.0
  3
*D47
  1

  0
LINE
  5
47E3
330
384C
100
AcDbEntity
  8
DIM
 62
     0
370
    -2
100
AcDbLine
 10
6.957416688764528
 20
8.557149789476955
 30
0.0
 11
6.957416688764528
 21
6.911542694359151
 31
0.0
  0
LINE
  5
47E4
330
384C
100
AcDbEntity
  8
DIM
 62
     0
370
    -2
100
AcDbLine
 10
10.81041668876453
 20
9.280149789476951
 30
0.0
 11
10.81041668876453
 21
6.911542694359151
 31
0.0
  0
LINE
  5
47E5
330
384C
100
AcDbEntity
  8
DIM
 62
     0
370
    -2
100
AcDbLine
 10
7.272416688764528
 20
7.074292694359151
 30
0.0
 11
8.398291688764528
 21
7.074292694359151
 31
0.0
  0
LINE
  5
47E6
330
384C
100
AcDbEntity
  8
DIM
 62
     0
370
    -2
100
AcDbLine
 10
10.49541668876453
 20
7.074292694359151
 30
0.0
 11
9.369541688764529
 21
7.074292694359151
 31
0.0
  0
SOLID
  5
47E7
330
384C
100
AcDbEntity
  8
DIM
 62
     0
100
AcDbTrace
 10
7.272416688764528
 20
7.126792694359151
 30
0.0
 11
7.272416688764528
 21
7.021792694359151
 31
0.0
 12
6.957416688764528
 22
7.074292694359151
 32
0.0
 13
6.957416688764528
 23
7.074292694359151
 33
0.0
  0
SOLID
  5
47E8
330
384C
100
AcDbEntity
  8
DIM
 62
     0
100
AcDbTrace
 10
10.49541668876453
 20
7.126792694359151
 30
0.0
 11
10.49541668876453
 21
7.021792694359151
 31
0.0
 12
10.81041668876453
 22
7.074292694359151
 32
0.0
 13
10.81041668876453
 23
7.074292694359151
 33
0.0
  0
MTEXT
  5
47E9
330
384C
100
AcDbEntity
  8
DIM
 62
     0
100
AcDbMText
 10
8.883916688764529
 20
7.074292694359151
 30
0.0
 40
0.21875
 41
0.0
 71
     5
 72
     1
  1
\A1;3.853
 73
     1
 44
1.0
  0
POINT
  5
47EA
330
384C
100
AcDbEntity
  8
DEFPOINTS
 62
     0
100
AcDbPoint
 10
6.957416688764528
 20
8.666524789476955
 30
0.0
  0
POINT
  5
47EB
330
384C
100
AcDbEntity
  8
DEFPOINTS
 62
     0
100
AcDbPoint
 10
10.81041668876453
 20
9.389524789476951
 30
0.0
  0
POINT
  5
47EC
330
384C
100
AcDbEntity
  8
DEFPOINTS
 62
     0
100
AcDbPoint
 10
10.81041668876453
 20
7.074292694359151
 30
0.0
  0
ENDBLK
  5
3858
330
384C
100
AcDbEntity
  8
0
100
AcDbBlockEnd
  0
BLOCK
  5
386C
330
3861
100
AcDbEntity
  8
0
100
AcDbBlockBegin
  2
*D48
 70
     1
 10
0.0
 20
0.0
 30
0.0
  3
*D48
  1

  0
LINE
  5
497B
330
3861
100
AcDbEntity
  8
DIM
 62
     0
370
    -2
100
AcDbLine
 10
11.1242916887645
 20
22.47288694912832
 30
0.0
 11
12.3265198298822
 21
22.47288694912832
 31
0.0
  0
LINE
  5
497C
330
3861
100
AcDbEntity
  8
DIM
 62
     0
370
    -2
100
AcDbLine
 10
11.1242916887645
 20
17.67004499776653
 30
0.0
 11
12.3265198298822
 21
17.67004499776653
 31
0.0
  0
LINE
  5
497D
330
3861
100
AcDbEntity
  8
DIM
 62
     0
370
    -2
100
AcDbLine
 10
12.1637698298822
 20
22.15788694912832
 30
0.0
 11
12.1637698298822
 21
20.07146597344743
 31
0.0
  0
LINE
  5
497E
330
3861
100
AcDbEntity
  8
DIM
 62
     0
370
    -2
100
AcDbLine
 10
12.1637698298822
 20
17.98504499776654
 30
0.0
 11
12.1637698298822
 21
19.53771597344743
 31
0.0
  0
SOLID
  5
497F
330
3861
100
AcDbEntity
  8
DIM
 62
     0
100
AcDbTrace
 10
12.1112698298822
 20
22.15788694912832
 30
0.0
 11
12.2162698298822
 21
22.15788694912832
 31
0.0
 12
12.1637698298822
 22
22.47288694912832
 32
0.0
 13
12.1637698298822
 23
22.47288694912832
 33
0.0
  0
SOLID
  5
4980
330
3861
100
AcDbEntity
  8
DIM
 62
     0
100
AcDbTrace
 10
12.1112698298822
 20
17.98504499776654
 30
0.0
 11
12.2162698298822
 21
17.98504499776654
 31
0.0
 12
12.1637698298822
 22
17.67004499776653
 32
0.0
 13
12.1637698298822
 23
17.67004499776653
 33
0.0
  0
MTEXT
  5
4981
330
3861
100
AcDbEntity
  8
DIM
 62
     0
100
AcDbMText
 10
12.1637698298822
 20
19.80459097344743
 30
0.0
 40
0.21875
 41
0.0
 71
     5
 72
     1
  1
\A1;5.100
 73
     1
 44
1.0
  0
POINT
  5
4982
330
3861
100
AcDbEntity
  8
DEFPOINTS
 62
     0
100
AcDbPoint
 10
11.01491668876451
 20
22.47288694912832
 30
0.0
  0
POINT
  5
4983
330
3861
100
AcDbEntity
  8
DEFPOINTS
 62
     0
100
AcDbPoint
 10
11.01491668876451
 20
17.67004499776653
 30
0.0
  0
POINT
  5
4984
330
3861
100
AcDbEntity
  8
DEFPOINTS
 62
     0
100
AcDbPoint
 10
12.1637698298822
 20
17.67004499776653
 30
0.0
  0
ENDBLK
  5
386D
330
3861
100
AcDbEntity
  8
0
100
AcDbBlockEnd
  0
BLOCK
  5
38B9
330
38AE
100
AcDbEntity
  8
0
100
AcDbBlockBegin
  2
*D49
 70
     1
 10
0.0
 20
0.0
 30
0.0
  3
*D49
  1

  0
LINE
  5
4971
330
38AE
100
AcDbEntity
  8
DIM
 62
     0
370
    -2
100
AcDbLine
 10
10.74579168876452
 20
22.40299638455604
 30
0.0
 11
11.91906611379499
 21
22.40299638455604
 31
0.0
  0
LINE
  5
4972
330
38AE
100
AcDbEntity
  8
DIM
 62
     0
370
    -2
100
AcDbLine
 10
10.74579168876452
 20
17.79835293088833
 30
0.0
 11
11.91906611379499
 21
17.79835293088833
 31
0.0
  0
LINE
  5
4973
330
38AE
100
AcDbEntity
  8
DIM
 62
     0
370
    -2
100
AcDbLine
 10
11.75631611379499
 20
22.08799638455604
 30
0.0
 11
11.75631611379499
 21
20.63442465772218
 31
0.0
  0
LINE
  5
4974
330
38AE
100
AcDbEntity
  8
DIM
 62
     0
370
    -2
100
AcDbLine
 10
11.75631611379498
 20
18.11335293088833
 30
0.0
 11
11.75631611379499
 21
20.10067465772218
 31
0.0
  0
SOLID
  5
4975
330
38AE
100
AcDbEntity
  8
DIM
 62
     0
100
AcDbTrace
 10
11.70381611379499
 20
22.08799638455604
 30
0.0
 11
11.80881611379499
 21
22.08799638455604
 31
0.0
 12
11.75631611379499
 22
22.40299638455604
 32
0.0
 13
11.75631611379499
 23
22.40299638455604
 33
0.0
  0
SOLID
  5
4976
330
38AE
100
AcDbEntity
  8
DIM
 62
     0
100
AcDbTrace
 10
11.70381611379498
 20
18.11335293088833
 30
0.0
 11
11.80881611379499
 21
18.11335293088833
 31
0.0
 12
11.75631611379498
 22
17.79835293088833
 32
0.0
 13
11.75631611379498
 23
17.79835293088833
 33
0.0
  0
MTEXT
  5
4977
330
38AE
100
AcDbEntity
  8
DIM
 62
     0
100
AcDbMText
 10
11.75631611379498
 20
20.36754965772219
 30
0.0
 40
0.21875
 41
0.0
 71
     5
 72
     1
  1
\A1;4.890
 73
     1
 44
1.0
  0
POINT
  5
4978
330
38AE
100
AcDbEntity
  8
DEFPOINTS
 62
     0
100
AcDbPoint
 10
10.63641668876452
 20
22.40299638455604
 30
0.0
  0
POINT
  5
4979
330
38AE
100
AcDbEntity
  8
DEFPOINTS
 62
     0
100
AcDbPoint
 10
10.63641668876452
 20
17.79835293088833
 30
0.0
  0
POINT
  5
497A
330
38AE
100
AcDbEntity
  8
DEFPOINTS
 62
     0
100
AcDbPoint
 10
11.75631611379498
 20
17.79835293088833
 30
0.0
  0
ENDBLK
  5
38BA
330
38AE
100
AcDbEntity
  8
0
100
AcDbBlockEnd
  0
BLOCK
  5
39AF
330
39A4
100
AcDbEntity
  8
0
100
AcDbBlockBegin
  2
*D50
 70
     1
 10
0.0
 20
0.0
 30
0.0
  3
*D50
  1

  0
LINE
  5
47D9
330
39A4
100
AcDbEntity
  8
DIM
 62
     0
370
    -2
100
AcDbLine
 10
2.748580078888071
 20
10.05001702225742
 30
0.0
 11
2.748580078888071
 21
10.32437788646893
 31
0.0
  0
LINE
  5
47DA
330
39A4
100
AcDbEntity
  8
DIM
 62
     0
370
    -2
100
AcDbLine
 10
11.16625329864098
 20
10.05001702225742
 30
0.0
 11
11.16625329864098
 21
10.32437788646893
 31
0.0
  0
LINE
  5
47DB
330
39A4
100
AcDbEntity
  8
DIM
 62
     0
370
    -2
100
AcDbLine
 10
3.063580078888071
 20
10.16162788646892
 30
0.0
 11
5.876791688764527
 21
10.16162788646892
 31
0.0
  0
LINE
  5
47DC
330
39A4
100
AcDbEntity
  8
DIM
 62
     0
370
    -2
100
AcDbLine
 10
10.85125329864098
 20
10.16162788646892
 30
0.0
 11
6.957416688764526
 21
10.16162788646892
 31
0.0
  0
SOLID
  5
47DD
330
39A4
100
AcDbEntity
  8
DIM
 62
     0
100
AcDbTrace
 10
3.063580078888071
 20
10.21412788646893
 30
0.0
 11
3.063580078888071
 21
10.10912788646892
 31
0.0
 12
2.748580078888071
 22
10.16162788646892
 32
0.0
 13
2.748580078888071
 23
10.16162788646892
 33
0.0
  0
SOLID
  5
47DE
330
39A4
100
AcDbEntity
  8
DIM
 62
     0
100
AcDbTrace
 10
10.85125329864098
 20
10.21412788646893
 30
0.0
 11
10.85125329864098
 21
10.10912788646892
 31
0.0
 12
11.16625329864098
 22
10.16162788646892
 32
0.0
 13
11.16625329864098
 23
10.16162788646892
 33
0.0
  0
MTEXT
  5
47DF
330
39A4
100
AcDbEntity
  8
DIM
 62
     0
100
AcDbMText
 10
6.417104188764526
 20
10.16162788646892
 30
0.0
 40
0.21875
 41
0.0
 71
     5
 72
     1
  1
\A1;*8.418
 73
     1
 44
1.0
  0
POINT
  5
47E0
330
39A4
100
AcDbEntity
  8
DEFPOINTS
 62
     0
100
AcDbPoint
 10
2.748580078888071
 20
9.940642022257421
 30
0.0
  0
POINT
  5
47E1
330
39A4
100
AcDbEntity
  8
DEFPOINTS
 62
     0
100
AcDbPoint
 10
11.16625329864098
 20
9.940642022257421
 30
0.0
  0
POINT
  5
47E2
330
39A4
100
AcDbEntity
  8
DEFPOINTS
 62
     0
100
AcDbPoint
 10
11.16625329864098
 20
10.16162788646892
 30
0.0
  0
ENDBLK
  5
39B0
330
39A4
100
AcDbEntity
  8
0
100
AcDbBlockEnd
  0
BLOCK
  5
39BD
330
39B2
100
AcDbEntity
  8
0
100
AcDbBlockBegin
  2
*D51
 70
     1
 10
0.0
 20
0.0
 30
0.0
  3
*D51
  1

  0
LINE
  5
4897
330
39B2
100
AcDbEntity
  8
DIM
 62
     0
370
    -2
100
AcDbLine
 10
4.698595771794045
 20
14.65536139935341
 30
0.0
 11
4.535114327524787
 21
14.65536139935341
 31
0.0
  0
LINE
  5
4898
330
39B2
100
AcDbEntity
  8
DIM
 62
     0
370
    -2
100
AcDbLine
 10
4.698595771794048
 20
8.807688179600486
 30
0.0
 11
4.535114327524786
 21
8.807688179600486
 31
0.0
  0
LINE
  5
4899
330
39B2
100
AcDbEntity
  8
DIM
 62
     0
370
    -2
100
AcDbLine
 10
4.697864327524787
 20
14.34036139935341
 30
0.0
 11
4.697864327524786
 21
11.46464978947694
 31
0.0
  0
LINE
  5
489A
330
39B2
100
AcDbEntity
  8
DIM
 62
     0
370
    -2
100
AcDbLine
 10
4.697864327524785
 20
9.122688179600485
 30
0.0
 11
4.697864327524786
 21
10.93089978947694
 31
0.0
  0
SOLID
  5
489B
330
39B2
100
AcDbEntity
  8
DIM
 62
     0
100
AcDbTrace
 10
4.645364327524787
 20
14.34036139935341
 30
0.0
 11
4.750364327524787
 21
14.34036139935341
 31
0.0
 12
4.697864327524787
 22
14.65536139935341
 32
0.0
 13
4.697864327524787
 23
14.65536139935341
 33
0.0
  0
SOLID
  5
489C
330
39B2
100
AcDbEntity
  8
DIM
 62
     0
100
AcDbTrace
 10
4.645364327524785
 20
9.122688179600485
 30
0.0
 11
4.750364327524786
 21
9.122688179600485
 31
0.0
 12
4.697864327524785
 22
8.807688179600486
 32
0.0
 13
4.697864327524785
 23
8.807688179600486
 33
0.0
  0
MTEXT
  5
489D
330
39B2
100
AcDbEntity
  8
DIM
 62
     0
100
AcDbMText
 10
4.697864327524785
 20
11.19777478947694
 30
0.0
 40
0.21875
 41
0.0
 71
     5
 72
     1
  1
\A1;*5.848
 73
     1
 44
1.0
  0
POINT
  5
489E
330
39B2
100
AcDbEntity
  8
DEFPOINTS
 62
     0
100
AcDbPoint
 10
4.807970771794045
 20
14.65536139935341
 30
0.0
  0
POINT
  5
489F
330
39B2
100
AcDbEntity
  8
DEFPOINTS
 62
     0
100
AcDbPoint
 10
4.807970771794048
 20
8.807688179600486
 30
0.0
  0
POINT
  5
48A0
330
39B2
100
AcDbEntity
  8
DEFPOINTS
 62
     0
100
AcDbPoint
 10
4.697864327524785
 20
8.807688179600486
 30
0.0
  0
ENDBLK
  5
39BE
330
39B2
100
AcDbEntity
  8
0
100
AcDbBlockEnd
  0
BLOCK
  5
39CF
330
39C4
100
AcDbEntity
  8
0
100
AcDbBlockBegin
  2
*D52
 70
     1
 10
0.0
 20
0.0
 30
0.0
  3
*D52
  1

  0
LINE
  5
485B
330
39C4
100
AcDbEntity
  8
DIM
 62
     0
370
    -2
100
AcDbLine
 10
14.78550216204648
 20
12.65952734454056
 30
0.0
 11
14.78550216204648
 21
12.14687423928261
 31
0.0
  0
LINE
  5
485C
330
39C4
100
AcDbEntity
  8
DIM
 62
     0
370
    -2
100
AcDbLine
 10
14.98550216204647
 20
12.25918239351207
 30
0.0
 11
14.98550216204647
 21
12.14687423928261
 31
0.0
  0
LINE
  5
485D
330
39C4
100
AcDbEntity
  8
DIM
 62
     0
370
    -2
100
AcDbLine
 10
14.47050216204648
 20
12.30962423928262
 30
0.0
 11
14.15550216204648
 21
12.30962423928262
 31
0.0
  0
LINE
  5
485E
330
39C4
100
AcDbEntity
  8
DIM
 62
     0
370
    -2
100
AcDbLine
 10
15.30050216204648
 20
12.30962423928262
 30
0.0
 11
15.61550216204648
 21
12.30962423928262
 31
0.0
  0
SOLID
  5
485F
330
39C4
100
AcDbEntity
  8
DIM
 62
     0
100
AcDbTrace
 10
14.47050216204648
 20
12.36212423928262
 30
0.0
 11
14.47050216204648
 21
12.25712423928261
 31
0.0
 12
14.78550216204648
 22
12.30962423928262
 32
0.0
 13
14.78550216204648
 23
12.30962423928262
 33
0.0
  0
SOLID
  5
4860
330
39C4
100
AcDbEntity
  8
DIM
 62
     0
100
AcDbTrace
 10
15.30050216204648
 20
12.36212423928262
 30
0.0
 11
15.30050216204648
 21
12.25712423928261
 31
0.0
 12
14.98550216204647
 22
12.30962423928262
 32
0.0
 13
14.98550216204647
 23
12.30962423928262
 33
0.0
  0
MTEXT
  5
4861
330
39C4
100
AcDbEntity
  8
DIM
 62
     0
100
AcDbMText
 10
16.06011153704648
 20
12.30962423928262
 30
0.0
 40
0.21875
 41
0.0
 71
     5
 72
     1
  1
\A1;0.200
 73
     1
 44
1.0
  0
POINT
  5
4862
330
39C4
100
AcDbEntity
  8
DEFPOINTS
 62
     0
100
AcDbPoint
 10
14.78550216204648
 20
12.76890234454056
 30
0.0
  0
POINT
  5
4863
330
39C4
100
AcDbEntity
  8
DEFPOINTS
 62
     0
100
AcDbPoint
 10
14.98550216204647
 20
12.36855739351207
 30
0.0
  0
POINT
  5
4864
330
39C4
100
AcDbEntity
  8
DEFPOINTS
 62
     0
100
AcDbPoint
 10
14.98550216204647
 20
12.30962423928262
 30
0.0
  0
ENDBLK
  5
39D0
330
39C4
100
AcDbEntity
  8
0
100
AcDbBlockEnd
  0
BLOCK
  5
39DE
330
39D2
100
AcDbEntity
  8
0
100
AcDbBlockBegin
  2
*D53
 70
     1
 10
0.0
 20
0.0
 30
0.0
  3
*D53
  1

  0
LINE
  5
4902
330
39D2
100
AcDbEntity
  8
DIM
 62
     0
370
    -2
100
AcDbLine
 10
13.54903383877152
 20
22.51837441804352
 30
0.0
 11
13.54903383877152
 21
20.41238417019602
 31
0.0
  0
ARC
  5
4903
330
39D2
100
AcDbEntity
  8
DIM
 62
     0
370
    -2
100
AcDbCircle
 10
13.54903383877152
 20
22.62774941804353
 30
0.0
 40
2.052615247847505
100
AcDbArc
 50
252.3971608545314
 51
261.1985804272657
  0
ARC
  5
4904
330
39D2
100
AcDbEntity
  8
DIM
 62
     0
370
    -2
100
AcDbCircle
 10
13.54903383877152
 20
22.62774941804353
 30
0.0
 40
2.052615247847505
100
AcDbArc
 50
298.4717668764212
 51
307.2731864491555
  0
SOLID
  5
4905
330
39D2
100
AcDbEntity
  8
DIM
 62
     0
100
AcDbTrace
 10
13.23899091865657
 20
20.65164977439926
 30
0.0
 11
13.23093412378605
 21
20.54695933521586
 31
0.0
 12
13.54903383877152
 22
20.57513417019602
 32
0.0
 13
13.54903383877152
 23
20.57513417019602
 33
0.0
  0
SOLID
  5
4906
330
39D2
100
AcDbEntity
  8
DIM
 62
     0
100
AcDbTrace
 10
14.54898132622818
 20
20.77545899270604
 30
0.0
 11
14.50615505067696
 21
20.87132822719976
 31
0.0
 12
14.23996048497142
 22
20.69491478329925
 32
0.0
 13
14.23996048497142
 23
20.69491478329925
 33
0.0
  0
MTEXT
  5
4907
330
39D2
100
AcDbEntity
  8
DIM
 62
     0
100
AcDbMText
 10
13.89965009114169
 20
20.60530100108205
 30
0.0
 40
0.21875
 41
0.0
 71
     5
 72
     1
  1
\A1;20°
 73
     1
 44
1.0
  0
POINT
  5
4908
330
39D2
100
AcDbEntity
  8
DEFPOINTS
 62
     0
100
AcDbPoint
 10
13.78341751544638
 20
20.5885599595075
 30
0.0
  0
POINT
  5
4909
330
39D2
100
AcDbEntity
  8
DEFPOINTS
 62
     0
100
AcDbPoint
 10
13.54903383877152
 20
23.4223354198385
 30
0.0
  0
POINT
  5
490A
330
39D2
100
AcDbEntity
  8
DEFPOINTS
 62
     0
100
AcDbPoint
 10
13.55265185633238
 20
22.61762818492968
 30
0.0
  0
POINT
  5
490B
330
39D2
100
AcDbEntity
  8
DEFPOINTS
 62
     0
100
AcDbPoint
 10
15.36993930700594
 20
17.53385243931786
 30
0.0
  0
POINT
  5
490C
330
39D2
100
AcDbEntity
  8
DEFPOINTS
 62
     0
100
AcDbPoint
 10
13.54903383877152
 20
22.63849787890146
 30
0.0
  0
ENDBLK
  5
39DF
330
39D2
100
AcDbEntity
  8
0
100
AcDbBlockEnd
  0
BLOCK
  5
39EC
330
39E1
100
AcDbEntity
  8
0
100
AcDbBlockBegin
  2
*D54
 70
     1
 10
0.0
 20
0.0
 30
0.0
  3
*D54
  1

  0
LINE
  5
4935
330
39E1
100
AcDbEntity
  8
DIM
 62
     0
370
    -2
100
AcDbLine
 10
15.01780520504573
 20
18.76253777564954
 30
0.0
 11
14.90598990541474
 21
19.07533579119831
 31
0.0
  0
LINE
  5
4936
330
39E1
100
AcDbEntity
  8
DIM
 62
     0
370
    -2
100
AcDbLine
 10
17.01395589842489
 20
19.47609789046427
 30
0.0
 11
16.9021405987939
 21
19.78889590601304
 31
0.0
  0
LINE
  5
4937
330
39E1
100
AcDbEntity
  8
DIM
 62
     0
370
    -2
100
AcDbLine
 10
15.25739098867663
 20
19.02811459699091
 30
0.0
 11
15.51423882378025
 21
19.11992949418998
 31
0.0
  0
LINE
  5
4938
330
39E1
100
AcDbEntity
  8
DIM
 62
     0
370
    -2
100
AcDbLine
 10
16.66030540888387
 20
19.52961169241495
 30
0.0
 11
16.40345757378025
 21
19.43779679521588
 31
0.0
  0
SOLID
  5
4939
330
39E1
100
AcDbEntity
  8
DIM
 62
     0
100
AcDbTrace
 10
15.23971907039407
 20
19.07755095308857
 30
0.0
 11
15.27506290695919
 21
18.97867824089326
 31
0.0
 12
14.96077285209067
 22
18.92208308729556
 32
0.0
 13
14.96077285209067
 23
18.92208308729556
 33
0.0
  0
SOLID
  5
493A
330
39E1
100
AcDbEntity
  8
DIM
 62
     0
100
AcDbTrace
 10
16.64263349060131
 20
19.57904804851261
 30
0.0
 11
16.67797732716643
 21
19.48017533631729
 31
0.0
 12
16.95692354546983
 22
19.6356432021103
 32
0.0
 13
16.95692354546983
 23
19.6356432021103
 33
0.0
  0
MTEXT
  5
493B
330
39E1
100
AcDbEntity
  8
DIM
 62
     0
100
AcDbMText
 10
15.95884819878025
 20
19.27886314470293
 30
0.0
 40
0.21875
 41
0.0
 71
     5
 72
     1
  1
\A1;2.120
 73
     1
 44
1.0
  0
POINT
  5
493C
330
39E1
100
AcDbEntity
  8
DEFPOINTS
 62
     0
100
AcDbPoint
 10
15.05462170146773
 20
18.65954536711275
 30
0.0
  0
POINT
  5
493D
330
39E1
100
AcDbEntity
  8
DEFPOINTS
 62
     0
100
AcDbPoint
 10
17.05077239484688
 20
19.37310548192749
 30
0.0
  0
POINT
  5
493E
330
39E1
100
AcDbEntity
  8
DEFPOINTS
 62
     0
100
AcDbPoint
 10
16.95692354546983
 20
19.6356432021103
 30
0.0
  0
ENDBLK
  5
39ED
330
39E1
100
AcDbEntity
  8
0
100
AcDbBlockEnd
  0
BLOCK
  5
39FB
330
39F0
100
AcDbEntity
  8
0
100
AcDbBlockBegin
  2
*D55
 70
     1
 10
0.0
 20
0.0
 30
0.0
  3
*D55
  1

  0
LINE
  5
492B
330
39F0
100
AcDbEntity
  8
DIM
 62
     0
370
    -2
100
AcDbLine
 10
17.01220497657427
 20
22.65345431777244
 30
0.0
 11
17.09791493585693
 21
22.41368475792814
 31
0.0
  0
LINE
  5
492C
330
39F0
100
AcDbEntity
  8
DIM
 62
     0
370
    -2
100
AcDbLine
 10
14.01049550222714
 20
21.5804390568205
 30
0.0
 11
14.0962054615098
 21
21.3406694969762
 31
0.0
  0
LINE
  5
492D
330
39F0
100
AcDbEntity
  8
DIM
 62
     0
370
    -2
100
AcDbLine
 10
16.74651385259504
 20
22.46090595213554
 30
0.0
 11
16.00055850200743
 21
22.19425074049373
 31
0.0
  0
LINE
  5
492E
330
39F0
100
AcDbEntity
  8
DIM
 62
     0
370
    -2
100
AcDbLine
 10
14.33804065141983
 20
21.5999537105743
 30
0.0
 11
15.08399600200744
 21
21.86660892221611
 31
0.0
  0
SOLID
  5
492F
330
39F0
100
AcDbEntity
  8
DIM
 62
     0
100
AcDbTrace
 10
16.72884193431248
 20
22.5103423082332
 30
0.0
 11
16.76418577087759
 21
22.41146959603788
 31
0.0
 12
17.043131989181
 22
22.56693746183088
 32
0.0
 13
17.043131989181
 23
22.56693746183088
 33
0.0
  0
SOLID
  5
4930
330
39F0
100
AcDbEntity
  8
DIM
 62
     0
100
AcDbTrace
 10
14.32036873313727
 20
21.64939006667196
 30
0.0
 11
14.35571256970238
 21
21.55051735447663
 31
0.0
 12
14.04142251483387
 22
21.49392220087894
 32
0.0
 13
14.04142251483387
 23
21.49392220087894
 33
0.0
  0
MTEXT
  5
4931
330
39F0
100
AcDbEntity
  8
DIM
 62
     0
100
AcDbMText
 10
15.54227725200743
 20
22.03042983135492
 30
0.0
 40
0.21875
 41
0.0
 71
     5
 72
     1
  1
\A1;3.188
 73
     1
 44
1.0
  0
POINT
  5
4932
330
39F0
100
AcDbEntity
  8
DEFPOINTS
 62
     0
100
AcDbPoint
 10
16.97538848015228
 20
22.75644672630923
 30
0.0
  0
POINT
  5
4933
330
39F0
100
AcDbEntity
  8
DEFPOINTS
 62
     0
100
AcDbPoint
 10
13.97367900580515
 20
21.68343146535729
 30
0.0
  0
POINT
  5
4934
330
39F0
100
AcDbEntity
  8
DEFPOINTS
 62
     0
100
AcDbPoint
 10
14.04142251483387
 20
21.49392220087894
 30
0.0
  0
ENDBLK
  5
39FC
330
39F0
100
AcDbEntity
  8
0
100
AcDbBlockEnd
  0
BLOCK
  5
3A0A
330
39FF
100
AcDbEntity
  8
0
100
AcDbBlockBegin
  2
*D56
 70
     1
 10
0.0
 20
0.0
 30
0.0
  3
*D56
  1

  0
LINE
  5
4967
330
39FF
100
AcDbEntity
  8
DIM
 62
     0
370
    -2
100
AcDbLine
 10
15.3841036151623
 20
17.38485345675421
 30
0.0
 11
15.3841036151623
 21
16.69667021059109
 31
0.0
  0
LINE
  5
4968
330
39FF
100
AcDbEntity
  8
DIM
 62
     0
370
    -2
100
AcDbLine
 10
17.48403383877152
 20
17.42339385664167
 30
0.0
 11
17.48403383877152
 21
16.69667021059109
 31
0.0
  0
LINE
  5
4969
330
39FF
100
AcDbEntity
  8
DIM
 62
     0
370
    -2
100
AcDbLine
 10
15.6991036151623
 20
16.85942021059108
 30
0.0
 11
16.00313122696691
 21
16.85942021059108
 31
0.0
  0
LINE
  5
496A
330
39FF
100
AcDbEntity
  8
DIM
 62
     0
370
    -2
100
AcDbLine
 10
17.16903383877152
 20
16.85942021059108
 30
0.0
 11
16.86500622696691
 21
16.85942021059108
 31
0.0
  0
SOLID
  5
496B
330
39FF
100
AcDbEntity
  8
DIM
 62
     0
100
AcDbTrace
 10
15.6991036151623
 20
16.91192021059108
 30
0.0
 11
15.6991036151623
 21
16.80692021059109
 31
0.0
 12
15.3841036151623
 22
16.85942021059108
 32
0.0
 13
15.3841036151623
 23
16.85942021059108
 33
0.0
  0
SOLID
  5
496C
330
39FF
100
AcDbEntity
  8
DIM
 62
     0
100
AcDbTrace
 10
17.16903383877152
 20
16.91192021059108
 30
0.0
 11
17.16903383877152
 21
16.80692021059109
 31
0.0
 12
17.48403383877152
 22
16.85942021059108
 32
0.0
 13
17.48403383877152
 23
16.85942021059108
 33
0.0
  0
MTEXT
  5
496D
330
39FF
100
AcDbEntity
  8
DIM
 62
     0
100
AcDbMText
 10
16.43406872696691
 20
16.85942021059108
 30
0.0
 40
0.21875
 41
0.0
 71
     5
 72
     1
  1
\A1;2.100
 73
     1
 44
1.0
  0
POINT
  5
496E
330
39FF
100
AcDbEntity
  8
DEFPOINTS
 62
     0
100
AcDbPoint
 10
15.3841036151623
 20
17.49422845675421
 30
0.0
  0
POINT
  5
496F
330
39FF
100
AcDbEntity
  8
DEFPOINTS
 62
     0
100
AcDbPoint
 10
17.48403383877152
 20
17.53276885664167
 30
0.0
  0
POINT
  5
4970
330
39FF
100
AcDbEntity
  8
DEFPOINTS
 62
     0
100
AcDbPoint
 10
17.48403383877152
 20
16.85942021059108
 30
0.0
  0
ENDBLK
  5
3A0B
330
39FF
100
AcDbEntity
  8
0
100
AcDbBlockEnd
  0
BLOCK
  5
3A1A
330
3A0F
100
AcDbEntity
  8
0
100
AcDbBlockBegin
  2
*D57
 70
     1
 10
0.0
 20
0.0
 30
0.0
  3
*D57
  1

  0
LINE
  5
4851
330
3A0F
100
AcDbEntity
  8
DIM
 62
     0
370
    -2
100
AcDbLine
 10
14.98550216204647
 20
11.07469957531809
 30
0.0
 11
14.98550216204647
 21
11.16123232555643
 31
0.0
  0
LINE
  5
4852
330
3A0F
100
AcDbEntity
  8
DIM
 62
     0
370
    -2
100
AcDbLine
 10
14.05950216204647
 20
11.07469957531809
 30
0.0
 11
14.05950216204647
 21
11.16123232555643
 31
0.0
  0
LINE
  5
4853
330
3A0F
100
AcDbEntity
  8
DIM
 62
     0
370
    -2
100
AcDbLine
 10
15.30050216204648
 20
10.99848232555643
 30
0.0
 11
15.61550216204648
 21
10.99848232555643
 31
0.0
  0
LINE
  5
4854
330
3A0F
100
AcDbEntity
  8
DIM
 62
     0
370
    -2
100
AcDbLine
 10
13.74450216204648
 20
10.99848232555643
 30
0.0
 11
13.42950216204648
 21
10.99848232555643
 31
0.0
  0
SOLID
  5
4855
330
3A0F
100
AcDbEntity
  8
DIM
 62
     0
100
AcDbTrace
 10
15.30050216204648
 20
11.05098232555643
 30
0.0
 11
15.30050216204648
 21
10.94598232555643
 31
0.0
 12
14.98550216204647
 22
10.99848232555643
 32
0.0
 13
14.98550216204647
 23
10.99848232555643
 33
0.0
  0
SOLID
  5
4856
330
3A0F
100
AcDbEntity
  8
DIM
 62
     0
100
AcDbTrace
 10
13.74450216204648
 20
11.05098232555643
 30
0.0
 11
13.74450216204648
 21
10.94598232555643
 31
0.0
 12
14.05950216204647
 22
10.99848232555643
 32
0.0
 13
14.05950216204647
 23
10.99848232555643
 33
0.0
  0
MTEXT
  5
4857
330
3A0F
100
AcDbEntity
  8
DIM
 62
     0
100
AcDbMText
 10
12.95754903704648
 20
10.99848232555643
 30
0.0
 40
0.21875
 41
0.0
 71
     5
 72
     1
  1
\A1;0.926
 73
     1
 44
1.0
  0
POINT
  5
4858
330
3A0F
100
AcDbEntity
  8
DEFPOINTS
 62
     0
100
AcDbPoint
 10
14.98550216204647
 20
10.96532457531809
 30
0.0
  0
POINT
  5
4859
330
3A0F
100
AcDbEntity
  8
DEFPOINTS
 62
     0
100
AcDbPoint
 10
14.05950216204647
 20
10.96532457531809
 30
0.0
  0
POINT
  5
485A
330
3A0F
100
AcDbEntity
  8
DEFPOINTS
 62
     0
100
AcDbPoint
 10
14.05950216204647
 20
10.99848232555643
 30
0.0
  0
ENDBLK
  5
3A1B
330
3A0F
100
AcDbEntity
  8
0
100
AcDbBlockEnd
  0
BLOCK
  5
3A2A
330
3A20
100
AcDbEntity
  8
0
100
AcDbBlockBegin
  2
*D58
 70
     1
 10
0.0
 20
0.0
 30
0.0
  3
*D58
  1

  0
LINE
  5
4985
330
3A20
100
AcDbEntity
  8
DIM
 62
     0
370
    -2
100
AcDbLine
 10
17.16703383877152
 20
18.40935276244017
 30
0.0
 11
17.16703383877152
 21
18.84248792116747
 31
0.0
  0
LINE
  5
4986
330
3A20
100
AcDbEntity
  8
DIM
 62
     0
370
    -2
100
AcDbLine
 10
15.55146667493643
 20
17.72066376375289
 30
0.0
 11
15.55146667493643
 21
18.84248792116747
 31
0.0
  0
LINE
  5
4987
330
3A20
100
AcDbEntity
  8
DIM
 62
     0
370
    -2
100
AcDbLine
 10
17.48203383877152
 20
18.67973792116748
 30
0.0
 11
17.79703383877152
 21
18.67973792116748
 31
0.0
  0
LINE
  5
4988
330
3A20
100
AcDbEntity
  8
DIM
 62
     0
370
    -2
100
AcDbLine
 10
15.23646667493643
 20
18.67973792116748
 30
0.0
 11
14.71346913649439
 21
18.67973792116748
 31
0.0
  0
SOLID
  5
4989
330
3A20
100
AcDbEntity
  8
DIM
 62
     0
100
AcDbTrace
 10
17.48203383877152
 20
18.73223792116747
 30
0.0
 11
17.48203383877152
 21
18.62723792116748
 31
0.0
 12
17.16703383877152
 22
18.67973792116748
 32
0.0
 13
17.16703383877152
 23
18.67973792116748
 33
0.0
  0
SOLID
  5
498A
330
3A20
100
AcDbEntity
  8
DIM
 62
     0
100
AcDbTrace
 10
15.23646667493643
 20
18.73223792116747
 30
0.0
 11
15.23646667493643
 21
18.62723792116748
 31
0.0
 12
15.55146667493643
 22
18.67973792116748
 32
0.0
 13
15.55146667493643
 23
18.67973792116748
 33
0.0
  0
MTEXT
  5
498B
330
3A20
100
AcDbEntity
  8
DIM
 62
     0
100
AcDbMText
 10
14.28253163649439
 20
18.67973792116748
 30
0.0
 40
0.21875
 41
0.0
 71
     5
 72
     1
  1
\A1;1.616
 73
     1
 44
1.0
  0
POINT
  5
498C
330
3A20
100
AcDbEntity
  8
DEFPOINTS
 62
     0
100
AcDbPoint
 10
17.16703383877152
 20
18.29997776244017
 30
0.0
  0
POINT
  5
498D
330
3A20
100
AcDbEntity
  8
DEFPOINTS
 62
     0
100
AcDbPoint
 10
15.55146667493643
 20
17.61128876375289
 30
0.0
  0
POINT
  5
498E
330
3A20
100
AcDbEntity
  8
DEFPOINTS
 62
     0
100
AcDbPoint
 10
15.55146667493643
 20
18.67973792116748
 30
0.0
  0
ENDBLK
  5
3A2B
330
3A20
100
AcDbEntity
  8
0
100
AcDbBlockEnd
  0
BLOCK
  5
3A38
330
3A2D
100
AcDbEntity
  8
0
100
AcDbBlockBegin
  2
*D59
 70
     1
 10
0.0
 20
0.0
 30
0.0
  3
*D59
  1

  0
LINE
  5
4917
330
3A2D
100
AcDbEntity
  8
DIM
 62
     0
370
    -2
100
AcDbLine
 10
17.16703383877153
 20
22.79216075672596
 30
0.0
 11
17.16703383877153
 21
23.00666312071495
 31
0.0
  0
LINE
  5
4918
330
3A2D
100
AcDbEntity
  8
DIM
 62
     0
370
    -2
100
AcDbLine
 10
13.83215934633565
 20
22.53034474908832
 30
0.0
 11
13.83215934633565
 21
23.00666312071495
 31
0.0
  0
LINE
  5
4919
330
3A2D
100
AcDbEntity
  8
DIM
 62
     0
370
    -2
100
AcDbLine
 10
16.85203383877153
 20
22.84391312071496
 30
0.0
 11
15.98522159255359
 21
22.84391312071496
 31
0.0
  0
LINE
  5
491A
330
3A2D
100
AcDbEntity
  8
DIM
 62
     0
370
    -2
100
AcDbLine
 10
14.14715934633564
 20
22.84391312071496
 30
0.0
 11
15.01397159255358
 21
22.84391312071496
 31
0.0
  0
SOLID
  5
491B
330
3A2D
100
AcDbEntity
  8
DIM
 62
     0
100
AcDbTrace
 10
16.85203383877153
 20
22.89641312071495
 30
0.0
 11
16.85203383877153
 21
22.79141312071496
 31
0.0
 12
17.16703383877153
 22
22.84391312071496
 32
0.0
 13
17.16703383877153
 23
22.84391312071496
 33
0.0
  0
SOLID
  5
491C
330
3A2D
100
AcDbEntity
  8
DIM
 62
     0
100
AcDbTrace
 10
14.14715934633564
 20
22.89641312071495
 30
0.0
 11
14.14715934633564
 21
22.79141312071496
 31
0.0
 12
13.83215934633565
 22
22.84391312071496
 32
0.0
 13
13.83215934633565
 23
22.84391312071496
 33
0.0
  0
MTEXT
  5
491D
330
3A2D
100
AcDbEntity
  8
DIM
 62
     0
100
AcDbMText
 10
15.49959659255359
 20
22.84391312071496
 30
0.0
 40
0.21875
 41
0.0
 71
     5
 72
     1
  1
\A1;3.335
 73
     1
 44
1.0
  0
POINT
  5
491E
330
3A2D
100
AcDbEntity
  8
DEFPOINTS
 62
     0
100
AcDbPoint
 10
17.16703383877153
 20
22.68278575672597
 30
0.0
  0
POINT
  5
491F
330
3A2D
100
AcDbEntity
  8
DEFPOINTS
 62
     0
100
AcDbPoint
 10
13.83215934633565
 20
22.42096974908832
 30
0.0
  0
POINT
  5
4920
330
3A2D
100
AcDbEntity
  8
DEFPOINTS
 62
     0
100
AcDbPoint
 10
13.83215934633565
 20
22.84391312071496
 30
0.0
  0
ENDBLK
  5
3A39
330
3A2D
100
AcDbEntity
  8
0
100
AcDbBlockEnd
  0
BLOCK
  5
3A6C
330
3A61
100
AcDbEntity
  8
0
100
AcDbBlockBegin
  2
*D60
 70
     1
 10
0.0
 20
0.0
 30
0.0
  3
*D60
  1

  0
LINE
  5
48F8
330
3A61
100
AcDbEntity
  8
DIM
 62
     0
370
    -2
100
AcDbLine
 10
3.02141668876453
 20
17.96067465121752
 30
0.0
 11
3.02141668876453
 21
16.43598925797713
 31
0.0
  0
LINE
  5
48F9
330
3A61
100
AcDbEntity
  8
DIM
 62
     0
370
    -2
100
AcDbLine
 10
10.89341668876451
 20
17.96067465121752
 30
0.0
 11
10.89341668876451
 21
16.43598925797713
 31
0.0
  0
LINE
  5
48FA
330
3A61
100
AcDbEntity
  8
DIM
 62
     0
370
    -2
100
AcDbLine
 10
3.33641668876453
 20
16.59873925797713
 30
0.0
 11
6.471791688764525
 21
16.59873925797713
 31
0.0
  0
LINE
  5
48FB
330
3A61
100
AcDbEntity
  8
DIM
 62
     0
370
    -2
100
AcDbLine
 10
10.57841668876452
 20
16.59873925797713
 30
0.0
 11
7.443041688764524
 21
16.59873925797713
 31
0.0
  0
SOLID
  5
48FC
330
3A61
100
AcDbEntity
  8
DIM
 62
     0
100
AcDbTrace
 10
3.33641668876453
 20
16.65123925797712
 30
0.0
 11
3.33641668876453
 21
16.54623925797713
 31
0.0
 12
3.02141668876453
 22
16.59873925797713
 32
0.0
 13
3.02141668876453
 23
16.59873925797713
 33
0.0
  0
SOLID
  5
48FD
330
3A61
100
AcDbEntity
  8
DIM
 62
     0
100
AcDbTrace
 10
10.57841668876452
 20
16.65123925797712
 30
0.0
 11
10.57841668876452
 21
16.54623925797713
 31
0.0
 12
10.89341668876451
 22
16.59873925797713
 32
0.0
 13
10.89341668876451
 23
16.59873925797713
 33
0.0
  0
MTEXT
  5
48FE
330
3A61
100
AcDbEntity
  8
DIM
 62
     0
100
AcDbMText
 10
6.957416688764524
 20
16.59873925797713
 30
0.0
 40
0.21875
 41
0.0
 71
     5
 72
     1
  1
\A1;7.872
 73
     1
 44
1.0
  0
POINT
  5
48FF
330
3A61
100
AcDbEntity
  8
DEFPOINTS
 62
     0
100
AcDbPoint
 10
3.02141668876453
 20
18.07004965121752
 30
0.0
  0
POINT
  5
4900
330
3A61
100
AcDbEntity
  8
DEFPOINTS
 62
     0
100
AcDbPoint
 10
10.89341668876451
 20
18.07004965121752
 30
0.0
  0
POINT
  5
4901
330
3A61
100
AcDbEntity
  8
DEFPOINTS
 62
     0
100
AcDbPoint
 10
10.89341668876451
 20
16.59873925797713
 30
0.0
  0
ENDBLK
  5
3A6D
330
3A61
100
AcDbEntity
  8
0
100
AcDbBlockEnd
  0
BLOCK
  5
3A7A
330
3A6F
100
AcDbEntity
  8
0
100
AcDbBlockBegin
  2
*D61
 70
     1
 10
0.0
 20
0.0
 30
0.0
  3
*D61
  1

  0
LINE
  5
48EE
330
3A6F
100
AcDbEntity
  8
DIM
 62
     0
370
    -2
100
AcDbLine
 10
2.899916688764522
 20
17.56112307107001
 30
0.0
 11
2.899916688764522
 21
15.97157903005992
 31
0.0
  0
LINE
  5
48EF
330
3A6F
100
AcDbEntity
  8
DIM
 62
     0
370
    -2
100
AcDbLine
 10
11.01491668876452
 20
17.56112307107
 30
0.0
 11
11.01491668876452
 21
15.97157903005992
 31
0.0
  0
LINE
  5
48F0
330
3A6F
100
AcDbEntity
  8
DIM
 62
     0
370
    -2
100
AcDbLine
 10
3.214916688764521
 20
16.13432903005992
 30
0.0
 11
6.526479188764525
 21
16.13432903005992
 31
0.0
  0
LINE
  5
48F1
330
3A6F
100
AcDbEntity
  8
DIM
 62
     0
370
    -2
100
AcDbLine
 10
10.69991668876452
 20
16.13432903005992
 30
0.0
 11
7.388354188764524
 21
16.13432903005992
 31
0.0
  0
SOLID
  5
48F2
330
3A6F
100
AcDbEntity
  8
DIM
 62
     0
100
AcDbTrace
 10
3.214916688764521
 20
16.18682903005992
 30
0.0
 11
3.214916688764521
 21
16.08182903005992
 31
0.0
 12
2.899916688764522
 22
16.13432903005992
 32
0.0
 13
2.899916688764522
 23
16.13432903005992
 33
0.0
  0
SOLID
  5
48F3
330
3A6F
100
AcDbEntity
  8
DIM
 62
     0
100
AcDbTrace
 10
10.69991668876452
 20
16.18682903005992
 30
0.0
 11
10.69991668876452
 21
16.08182903005992
 31
0.0
 12
11.01491668876452
 22
16.13432903005992
 32
0.0
 13
11.01491668876452
 23
16.13432903005992
 33
0.0
  0
MTEXT
  5
48F4
330
3A6F
100
AcDbEntity
  8
DIM
 62
     0
100
AcDbMText
 10
6.957416688764524
 20
16.13432903005992
 30
0.0
 40
0.21875
 41
0.0
 71
     5
 72
     1
  1
\A1;8.115
 73
     1
 44
1.0
  0
POINT
  5
48F5
330
3A6F
100
AcDbEntity
  8
DEFPOINTS
 62
     0
100
AcDbPoint
 10
2.899916688764522
 20
17.67049807107001
 30
0.0
  0
POINT
  5
48F6
330
3A6F
100
AcDbEntity
  8
DEFPOINTS
 62
     0
100
AcDbPoint
 10
11.01491668876452
 20
17.67049807106999
 30
0.0
  0
POINT
  5
48F7
330
3A6F
100
AcDbEntity
  8
DEFPOINTS
 62
     0
100
AcDbPoint
 10
11.01491668876452
 20
16.13432903005992
 30
0.0
  0
ENDBLK
  5
3A7B
330
3A6F
100
AcDbEntity
  8
0
100
AcDbBlockEnd
  0
BLOCK
  5
3A88
330
3A7D
100
AcDbEntity
  8
0
100
AcDbBlockBegin
  2
*D62
 70
     1
 10
0.0
 20
0.0
 30
0.0
  3
*D62
  1

  0
LINE
  5
48DA
330
3A7D
100
AcDbEntity
  8
DIM
 62
     0
370
    -2
100
AcDbLine
 10
2.607416688764526
 20
17.55324057204687
 30
0.0
 11
2.607416688764526
 21
15.54814955848409
 31
0.0
  0
LINE
  5
48DB
330
3A7D
100
AcDbEntity
  8
DIM
 62
     0
370
    -2
100
AcDbLine
 10
11.30741668876451
 20
17.55324057204687
 30
0.0
 11
11.30741668876451
 21
15.54814955848409
 31
0.0
  0
LINE
  5
48DC
330
3A7D
100
AcDbEntity
  8
DIM
 62
     0
370
    -2
100
AcDbLine
 10
2.922416688764526
 20
15.71089955848409
 30
0.0
 11
6.499135438764523
 21
15.71089955848409
 31
0.0
  0
LINE
  5
48DD
330
3A7D
100
AcDbEntity
  8
DIM
 62
     0
370
    -2
100
AcDbLine
 10
10.99241668876451
 20
15.71089955848409
 30
0.0
 11
7.415697938764522
 21
15.71089955848409
 31
0.0
  0
SOLID
  5
48DE
330
3A7D
100
AcDbEntity
  8
DIM
 62
     0
100
AcDbTrace
 10
2.922416688764526
 20
15.76339955848409
 30
0.0
 11
2.922416688764526
 21
15.65839955848409
 31
0.0
 12
2.607416688764526
 22
15.71089955848409
 32
0.0
 13
2.607416688764526
 23
15.71089955848409
 33
0.0
  0
SOLID
  5
48DF
330
3A7D
100
AcDbEntity
  8
DIM
 62
     0
100
AcDbTrace
 10
10.99241668876451
 20
15.76339955848409
 30
0.0
 11
10.99241668876451
 21
15.65839955848409
 31
0.0
 12
11.30741668876451
 22
15.71089955848409
 32
0.0
 13
11.30741668876451
 23
15.71089955848409
 33
0.0
  0
MTEXT
  5
48E0
330
3A7D
100
AcDbEntity
  8
DIM
 62
     0
100
AcDbMText
 10
6.957416688764523
 20
15.71089955848409
 30
0.0
 40
0.21875
 41
0.0
 71
     5
 72
     1
  1
\A1;8.700
 73
     1
 44
1.0
  0
POINT
  5
48E1
330
3A7D
100
AcDbEntity
  8
DEFPOINTS
 62
     0
100
AcDbPoint
 10
2.607416688764526
 20
17.66261557204687
 30
0.0
  0
POINT
  5
48E2
330
3A7D
100
AcDbEntity
  8
DEFPOINTS
 62
     0
100
AcDbPoint
 10
11.30741668876451
 20
17.66261557204687
 30
0.0
  0
POINT
  5
48E3
330
3A7D
100
AcDbEntity
  8
DEFPOINTS
 62
     0
100
AcDbPoint
 10
11.30741668876451
 20
15.71089955848409
 30
0.0
  0
ENDBLK
  5
3A89
330
3A7D
100
AcDbEntity
  8
0
100
AcDbBlockEnd
  0
BLOCK
  5
3A96
330
3A8B
100
AcDbEntity
  8
0
100
AcDbBlockBegin
  2
*D63
 70
     1
 10
0.0
 20
0.0
 30
0.0
  3
*D63
  1

  0
LINE
  5
47F7
330
3A8B
100
AcDbEntity
  8
DIM
 62
     0
370
    -2
100
AcDbLine
 10
3.076916688764527
 20
3.235327583850323
 30
0.0
 11
3.076916688764527
 21
6.492405936173152
 31
0.0
  0
LINE
  5
47F8
330
3A8B
100
AcDbEntity
  8
DIM
 62
     0
370
    -2
100
AcDbLine
 10
2.607416688764526
 20
2.938327583850324
 30
0.0
 11
2.607416688764527
 21
6.492405936173152
 31
0.0
  0
LINE
  5
47F9
330
3A8B
100
AcDbEntity
  8
DIM
 62
     0
370
    -2
100
AcDbLine
 10
3.391916688764527
 20
6.329655936173153
 30
0.0
 11
3.706916688764527
 21
6.329655936173153
 31
0.0
  0
LINE
  5
47FA
330
3A8B
100
AcDbEntity
  8
DIM
 62
     0
370
    -2
100
AcDbLine
 10
2.292416688764526
 20
6.329655936173153
 30
0.0
 11
1.977416688764527
 21
6.329655936173153
 31
0.0
  0
SOLID
  5
47FB
330
3A8B
100
AcDbEntity
  8
DIM
 62
     0
100
AcDbTrace
 10
3.391916688764527
 20
6.382155936173153
 30
0.0
 11
3.391916688764527
 21
6.277155936173152
 31
0.0
 12
3.076916688764527
 22
6.329655936173153
 32
0.0
 13
3.076916688764527
 23
6.329655936173153
 33
0.0
  0
SOLID
  5
47FC
330
3A8B
100
AcDbEntity
  8
DIM
 62
     0
100
AcDbTrace
 10
2.292416688764526
 20
6.382155936173153
 30
0.0
 11
2.292416688764526
 21
6.277155936173152
 31
0.0
 12
2.607416688764526
 22
6.329655936173153
 32
0.0
 13
2.607416688764526
 23
6.329655936173153
 33
0.0
  0
MTEXT
  5
47FD
330
3A8B
100
AcDbEntity
  8
DIM
 62
     0
100
AcDbMText
 10
1.519135438764527
 20
6.329655936173153
 30
0.0
 40
0.21875
 41
0.0
 71
     5
 72
     1
  1
\A1;0.470
 73
     1
 44
1.0
  0
POINT
  5
47FE
330
3A8B
100
AcDbEntity
  8
DEFPOINTS
 62
     0
100
AcDbPoint
 10
3.076916688764527
 20
3.125952583850323
 30
0.0
  0
POINT
  5
47FF
330
3A8B
100
AcDbEntity
  8
DEFPOINTS
 62
     0
100
AcDbPoint
 10
2.607416688764526
 20
2.828952583850324
 30
0.0
  0
POINT
  5
4800
330
3A8B
100
AcDbEntity
  8
DEFPOINTS
 62
     0
100
AcDbPoint
 10
2.607416688764526
 20
6.329655936173153
 30
0.0
  0
ENDBLK
  5
3A97
330
3A8B
100
AcDbEntity
  8
0
100
AcDbBlockEnd
  0
BLOCK
  5
3AA8
330
3A9D
100
AcDbEntity
  8
0
100
AcDbBlockBegin
  2
*D64
 70
     1
 10
0.0
 20
0.0
 30
0.0
  3
*D64
  1

  0
LINE
  5
483D
330
3A9D
100
AcDbEntity
  8
DIM
 62
     0
370
    -2
100
AcDbLine
 10
8.58195279685732
 20
11.73152478947695
 30
0.0
 11
8.108615496723885
 21
11.73152478947695
 31
0.0
  0
LINE
  5
483E
330
3A9D
100
AcDbEntity
  8
DIM
 62
     0
370
    -2
100
AcDbLine
 10
8.873041688764525
 20
12.89052478947695
 30
0.0
 11
8.108615496723887
 21
12.89052478947695
 31
0.0
  0
LINE
  5
483F
330
3A9D
100
AcDbEntity
  8
DIM
 62
     0
370
    -2
100
AcDbLine
 10
8.271365496723886
 20
11.41652478947695
 30
0.0
 11
8.271365496723886
 21
11.10152478947694
 31
0.0
  0
LINE
  5
4840
330
3A9D
100
AcDbEntity
  8
DIM
 62
     0
370
    -2
100
AcDbLine
 10
8.271365496723888
 20
13.20552478947695
 30
0.0
 11
8.271365496723888
 21
13.52052478947695
 31
0.0
  0
SOLID
  5
4841
330
3A9D
100
AcDbEntity
  8
DIM
 62
     0
100
AcDbTrace
 10
8.218865496723886
 20
11.41652478947695
 30
0.0
 11
8.323865496723886
 21
11.41652478947695
 31
0.0
 12
8.271365496723886
 22
11.73152478947695
 32
0.0
 13
8.271365496723886
 23
11.73152478947695
 33
0.0
  0
SOLID
  5
4842
330
3A9D
100
AcDbEntity
  8
DIM
 62
     0
100
AcDbTrace
 10
8.218865496723887
 20
13.20552478947695
 30
0.0
 11
8.323865496723888
 21
13.20552478947695
 31
0.0
 12
8.271365496723888
 22
12.89052478947695
 32
0.0
 13
8.271365496723888
 23
12.89052478947695
 33
0.0
  0
MTEXT
  5
4843
330
3A9D
100
AcDbEntity
  8
DIM
 62
     0
100
AcDbMText
 10
8.271365496723884
 20
12.31102478947695
 30
0.0
 40
0.21875
 41
0.0
 71
     5
 72
     1
  1
\A1;1.159
 73
     1
 44
1.0
  0
POINT
  5
4844
330
3A9D
100
AcDbEntity
  8
DEFPOINTS
 62
     0
100
AcDbPoint
 10
8.69132779685732
 20
11.73152478947695
 30
0.0
  0
POINT
  5
4845
330
3A9D
100
AcDbEntity
  8
DEFPOINTS
 62
     0
100
AcDbPoint
 10
8.982416688764525
 20
12.89052478947695
 30
0.0
  0
POINT
  5
4846
330
3A9D
100
AcDbEntity
  8
DEFPOINTS
 62
     0
100
AcDbPoint
 10
8.271365496723888
 20
12.89052478947695
 30
0.0
  0
ENDBLK
  5
3AA9
330
3A9D
100
AcDbEntity
  8
0
100
AcDbBlockEnd
  0
BLOCK
  5
3ABA
330
3AAF
100
AcDbEntity
  8
0
100
AcDbBlockBegin
  2
*D65
 70
     1
 10
0.0
 20
0.0
 30
0.0
  3
*D65
  1

  0
LINE
  5
4833
330
3AAF
100
AcDbEntity
  8
DIM
 62
     0
370
    -2
100
AcDbLine
 10
8.431966253142146
 20
11.73152478947695
 30
0.0
 11
8.108615496723885
 21
11.73152478947695
 31
0.0
  0
LINE
  5
4834
330
3AAF
100
AcDbEntity
  8
DIM
 62
     0
370
    -2
100
AcDbLine
 10
8.873041688764525
 20
9.543524789476952
 30
0.0
 11
8.108615496723885
 21
9.543524789476952
 31
0.0
  0
LINE
  5
4835
330
3AAF
100
AcDbEntity
  8
DIM
 62
     0
370
    -2
100
AcDbLine
 10
8.271365496723886
 20
11.41652478947695
 30
0.0
 11
8.271365496723886
 21
10.90439978947695
 31
0.0
  0
LINE
  5
4836
330
3AAF
100
AcDbEntity
  8
DIM
 62
     0
370
    -2
100
AcDbLine
 10
8.271365496723886
 20
9.858524789476952
 30
0.0
 11
8.271365496723886
 21
10.37064978947695
 31
0.0
  0
SOLID
  5
4837
330
3AAF
100
AcDbEntity
  8
DIM
 62
     0
100
AcDbTrace
 10
8.218865496723886
 20
11.41652478947695
 30
0.0
 11
8.323865496723886
 21
11.41652478947695
 31
0.0
 12
8.271365496723886
 22
11.73152478947695
 32
0.0
 13
8.271365496723886
 23
11.73152478947695
 33
0.0
  0
SOLID
  5
4838
330
3AAF
100
AcDbEntity
  8
DIM
 62
     0
100
AcDbTrace
 10
8.218865496723886
 20
9.858524789476952
 30
0.0
 11
8.323865496723886
 21
9.858524789476952
 31
0.0
 12
8.271365496723886
 22
9.543524789476952
 32
0.0
 13
8.271365496723886
 23
9.543524789476952
 33
0.0
  0
MTEXT
  5
4839
330
3AAF
100
AcDbEntity
  8
DIM
 62
     0
100
AcDbMText
 10
8.271365496723884
 20
10.63752478947695
 30
0.0
 40
0.21875
 41
0.0
 71
     5
 72
     1
  1
\A1;2.188
 73
     1
 44
1.0
  0
POINT
  5
483A
330
3AAF
100
AcDbEntity
  8
DEFPOINTS
 62
     0
100
AcDbPoint
 10
8.541341253142146
 20
11.73152478947695
 30
0.0
  0
POINT
  5
483B
330
3AAF
100
AcDbEntity
  8
DEFPOINTS
 62
     0
100
AcDbPoint
 10
8.982416688764525
 20
9.543524789476952
 30
0.0
  0
POINT
  5
483C
330
3AAF
100
AcDbEntity
  8
DEFPOINTS
 62
     0
100
AcDbPoint
 10
8.271365496723886
 20
9.543524789476952
 30
0.0
  0
ENDBLK
  5
3ABB
330
3AAF
100
AcDbEntity
  8
0
100
AcDbBlockEnd
  0
BLOCK
  5
4516
330
450B
100
AcDbEntity
  8
0
100
AcDbBlockBegin
  2
*D66
 70
     1
 10
0.0
 20
0.0
 30
0.0
  3
*D66
  1

  0
LINE
  5
48E4
330
450B
100
AcDbEntity
  8
DIM
 62
     0
370
    -2
100
AcDbLine
 10
3.157416688764527
 20
17.73821042487585
 30
0.0
 11
3.157416688764527
 21
16.88676405883771
 31
0.0
  0
LINE
  5
48E5
330
450B
100
AcDbEntity
  8
DIM
 62
     0
370
    -2
100
AcDbLine
 10
10.75741668876452
 20
17.73821042487585
 30
0.0
 11
10.75741668876452
 21
16.88676405883771
 31
0.0
  0
LINE
  5
48E6
330
450B
100
AcDbEntity
  8
DIM
 62
     0
370
    -2
100
AcDbLine
 10
3.472416688764527
 20
17.04951405883771
 30
0.0
 11
6.499135438764524
 21
17.04951405883771
 31
0.0
  0
LINE
  5
48E7
330
450B
100
AcDbEntity
  8
DIM
 62
     0
370
    -2
100
AcDbLine
 10
10.44241668876452
 20
17.04951405883771
 30
0.0
 11
7.415697938764523
 21
17.04951405883771
 31
0.0
  0
SOLID
  5
48E8
330
450B
100
AcDbEntity
  8
DIM
 62
     0
100
AcDbTrace
 10
3.472416688764527
 20
17.10201405883771
 30
0.0
 11
3.472416688764527
 21
16.99701405883771
 31
0.0
 12
3.157416688764527
 22
17.04951405883771
 32
0.0
 13
3.157416688764527
 23
17.04951405883771
 33
0.0
  0
SOLID
  5
48E9
330
450B
100
AcDbEntity
  8
DIM
 62
     0
100
AcDbTrace
 10
10.44241668876452
 20
17.10201405883771
 30
0.0
 11
10.44241668876452
 21
16.99701405883771
 31
0.0
 12
10.75741668876452
 22
17.04951405883771
 32
0.0
 13
10.75741668876452
 23
17.04951405883771
 33
0.0
  0
MTEXT
  5
48EA
330
450B
100
AcDbEntity
  8
DIM
 62
     0
100
AcDbMText
 10
6.957416688764523
 20
17.04951405883771
 30
0.0
 40
0.21875
 41
0.0
 71
     5
 72
     1
  1
\A1;7.600
 73
     1
 44
1.0
  0
POINT
  5
48EB
330
450B
100
AcDbEntity
  8
DEFPOINTS
 62
     0
100
AcDbPoint
 10
3.157416688764527
 20
17.84758542487586
 30
0.0
  0
POINT
  5
48EC
330
450B
100
AcDbEntity
  8
DEFPOINTS
 62
     0
100
AcDbPoint
 10
10.75741668876452
 20
17.84758542487586
 30
0.0
  0
POINT
  5
48ED
330
450B
100
AcDbEntity
  8
DEFPOINTS
 62
     0
100
AcDbPoint
 10
10.75741668876452
 20
17.04951405883771
 30
0.0
  0
ENDBLK
  5
4517
330
450B
100
AcDbEntity
  8
0
100
AcDbBlockEnd
  0
BLOCK
  5
455C
330
4551
100
AcDbEntity
  8
0
100
AcDbBlockBegin
  2
*D67
 70
     1
 10
0.0
 20
0.0
 30
0.0
  3
*D67
  1

  0
LINE
  5
490D
330
4551
100
AcDbEntity
  8
DIM
 62
     0
370
    -2
100
AcDbLine
 10
15.20697451867856
 20
17.90841267105366
 30
0.0
 11
13.81532572996797
 21
17.41094267905966
 31
0.0
  0
LINE
  5
490E
330
4551
100
AcDbEntity
  8
DIM
 62
     0
370
    -2
100
AcDbLine
 10
13.68079399500009
 20
22.17783054813532
 30
0.0
 11
12.2891452062895
 21
21.68036055614132
 31
0.0
  0
LINE
  5
490F
330
4551
100
AcDbEntity
  8
DIM
 62
     0
370
    -2
100
AcDbLine
 10
13.86254692417536
 20
17.76234376232155
 30
0.0
 11
13.30088746040826
 21
19.33355956427642
 31
0.0
  0
LINE
  5
4910
330
4551
100
AcDbEntity
  8
DIM
 62
     0
370
    -2
100
AcDbLine
 10
12.54842941988759
 20
21.4385253662313
 30
0.0
 11
13.1100888836547
 21
19.86730956427642
 31
0.0
  0
SOLID
  5
4911
330
4551
100
AcDbEntity
  8
DIM
 62
     0
100
AcDbTrace
 10
13.91198328027302
 20
17.7800156806041
 30
0.0
 11
13.81311056807771
 21
17.74467184403899
 31
0.0
 12
13.96857843387072
 22
17.46572562573559
 32
0.0
 13
13.96857843387072
 23
17.46572562573559
 33
0.0
  0
SOLID
  5
4912
330
4551
100
AcDbEntity
  8
DIM
 62
     0
100
AcDbTrace
 10
12.59786577598525
 20
21.45619728451385
 30
0.0
 11
12.49899306378993
 21
21.42085344794874
 31
0.0
 12
12.44239791019224
 22
21.73514350281725
 32
0.0
 13
12.44239791019224
 23
21.73514350281725
 33
0.0
  0
MTEXT
  5
4913
330
4551
100
AcDbEntity
  8
DIM
 62
     0
100
AcDbMText
 10
13.20548817203148
 20
19.60043456427642
 30
0.0
 40
0.21875
 41
0.0
 71
     5
 72
     1
  1
\A1;4.534
 73
     1
 44
1.0
  0
POINT
  5
4914
330
4551
100
AcDbEntity
  8
DEFPOINTS
 62
     0
100
AcDbPoint
 10
15.30996692721535
 20
17.94522916747565
 30
0.0
  0
POINT
  5
4915
330
4551
100
AcDbEntity
  8
DEFPOINTS
 62
     0
100
AcDbPoint
 10
13.78378640353688
 20
22.21464704455732
 30
0.0
  0
POINT
  5
4916
330
4551
100
AcDbEntity
  8
DEFPOINTS
 62
     0
100
AcDbPoint
 10
12.44239791019224
 20
21.73514350281725
 30
0.0
  0
ENDBLK
  5
455D
330
4551
100
AcDbEntity
  8
0
100
AcDbBlockEnd
  0
ENDSEC
  0
SECTION
  2
ENTITIES
  0
LINE
  5
3725
330
3559
100
AcDbEntity
  8
OBJECT
100
AcDbLine
 10
2.795416688764527
 20
14.79652478947694
 30
0.0
 11
7.343916688764528
 21
14.79652478947694
 31
0.0
  0
LINE
  5
3726
330
3559
100
AcDbEntity
  8
OBJECT
100
AcDbLine
 10
11.30741668876453
 20
14.60852478947695
 30
0.0
 11
11.30741668876451
 21
8.854524789476952
 31
0.0
  0
LINE
  5
3727
330
3559
100
AcDbEntity
  8
OBJECT
100
AcDbLine
 10
11.11941668876452
 20
8.666524789476955
 30
0.0
 11
2.795416688764526
 21
8.666524789476955
 31
0.0
  0
LINE
  5
3728
330
3559
100
AcDbEntity
  8
OBJECT
100
AcDbLine
 10
2.607416688764526
 20
8.854524789476952
 30
0.0
 11
2.607416688764526
 21
14.60852478947695
 31
0.0
  0
ARC
  5
3729
330
3559
100
AcDbEntity
  8
OBJECT
100
AcDbCircle
 10
2.795416688764527
 20
14.60852478947695
 30
0.0
 40
0.188
100
AcDbArc
 50
90.0
 51
180.0
  0
ARC
  5
372A
330
3559
100
AcDbEntity
  8
OBJECT
100
AcDbCircle
 10
11.11941668876452
 20
14.60852478947695
 30
0.0
 40
0.188
100
AcDbArc
 50
0.0
 51
90.0
  0
ARC
  5
372B
330
3559
100
AcDbEntity
  8
OBJECT
100
AcDbCircle
 10
11.11941668876452
 20
8.854524789476952
 30
0.0
 40
0.188
100
AcDbArc
 50
270.0
 51
0.0
  0
ARC
  5
372C
330
3559
100
AcDbEntity
  8
OBJECT
100
AcDbCircle
 10
2.795416688764526
 20
8.854524789476952
 30
0.0
 40
0.188
100
AcDbArc
 50
180.0
 51
270.0
  0
LINE
  5
372D
330
3559
100
AcDbEntity
  8
OBJECT
100
AcDbLine
 10
2.732416688764526
 20
8.791524789476955
 30
0.0
 11
2.732416688764526
 21
14.67152478947694
 31
0.0
  0
LINE
  5
372E
330
3559
100
AcDbEntity
  8
OBJECT
100
AcDbLine
 10
2.732416688764526
 20
14.67152478947694
 30
0.0
 11
7.382916688764527
 21
14.67152478947694
 31
0.0
  0
LINE
  5
372F
330
3559
100
AcDbEntity
  8
OBJECT
100
AcDbLine
 10
11.18241668876452
 20
14.67152478947694
 30
0.0
 11
11.18241668876452
 21
8.791524789476955
 31
0.0
  0
LINE
  5
3730
330
3559
100
AcDbEntity
  8
OBJECT
100
AcDbLine
 10
11.18241668876452
 20
8.791524789476952
 30
0.0
 11
2.732416688764526
 21
8.791524789476955
 31
0.0
  0
LINE
  5
3731
330
3559
100
AcDbEntity
  8
OBJECT
100
AcDbLine
 10
2.682416688764527
 20
8.854524789476952
 30
0.0
 11
2.682416688764527
 21
14.60852478947695
 31
0.0
  0
ARC
  5
3732
330
3559
100
AcDbEntity
  8
OBJECT
100
AcDbCircle
 10
2.795416688764527
 20
14.60852478947695
 30
0.0
 40
0.113
100
AcDbArc
 50
90.0
 51
180.0
  0
LINE
  5
3733
330
3559
100
AcDbEntity
  8
OBJECT
100
AcDbLine
 10
2.795416688764527
 20
14.72152478947695
 30
0.0
 11
7.382916688764527
 21
14.72152478947695
 31
0.0
  0
ARC
  5
3734
330
3559
100
AcDbEntity
  8
OBJECT
100
AcDbCircle
 10
11.11941668876452
 20
14.60852478947695
 30
0.0
 40
0.113
100
AcDbArc
 50
0.0
 51
90.0
  0
LINE
  5
3735
330
3559
100
AcDbEntity
  8
OBJECT
100
AcDbLine
 10
11.23241668876451
 20
14.60852478947695
 30
0.0
 11
11.23241668876451
 21
8.854524789476952
 31
0.0
  0
ARC
  5
3736
330
3559
100
AcDbEntity
  8
OBJECT
100
AcDbCircle
 10
11.11941668876452
 20
8.854524789476952
 30
0.0
 40
0.113
100
AcDbArc
 50
270.0
 51
0.0
  0
LINE
  5
3737
330
3559
100
AcDbEntity
  8
OBJECT
100
AcDbLine
 10
11.11941668876452
 20
8.741524789476953
 30
0.0
 11
2.795416688764526
 21
8.741524789476956
 31
0.0
  0
ARC
  5
3738
330
3559
100
AcDbEntity
  8
OBJECT
100
AcDbCircle
 10
2.795416688764526
 20
8.854524789476952
 30
0.0
 40
0.113
100
AcDbArc
 50
180.0
 51
270.0
  0
LINE
  5
3739
330
3559
100
AcDbEntity
  8
CENTER
100
AcDbLine
 10
6.957416688764528
 20
14.79652478947694
 30
0.0
 11
6.957416688764528
 21
8.666524789476955
 31
0.0
  0
LINE
  5
373A
330
3559
100
AcDbEntity
  8
CENTER
100
AcDbLine
 10
2.626916688764527
 20
11.73152478947695
 30
0.0
 11
11.28791668876452
 21
11.73152478947695
 31
0.0
  0
CIRCLE
  5
373B
330
3559
100
AcDbEntity
  8
OBJECT
100
AcDbCircle
 10
3.027416688764526
 20
9.059524789476952
 30
0.0
 40
0.1675
  0
CIRCLE
  5
373C
330
3559
100
AcDbEntity
  8
OBJECT
100
AcDbCircle
 10
3.027416688764526
 20
9.059524789476952
 30
0.0
 40
0.0625
  0
CIRCLE
  5
373D
330
3559
100
AcDbEntity
  8
OBJECT
100
AcDbCircle
 10
3.027416688764526
 20
14.40352478947695
 30
0.0
 40
0.0625
  0
CIRCLE
  5
373E
330
3559
100
AcDbEntity
  8
OBJECT
100
AcDbCircle
 10
3.027416688764526
 20
14.40352478947695
 30
0.0
 40
0.1675
  0
CIRCLE
  5
373F
330
3559
100
AcDbEntity
  8
OBJECT
100
AcDbCircle
 10
10.88741668876451
 20
9.059524789476952
 30
0.0
 40
0.0625
  0
CIRCLE
  5
3740
330
3559
100
AcDbEntity
  8
OBJECT
100
AcDbCircle
 10
10.88741668876451
 20
9.059524789476952
 30
0.0
 40
0.1675
  0
CIRCLE
  5
3741
330
3559
100
AcDbEntity
  8
OBJECT
100
AcDbCircle
 10
10.88741668876451
 20
14.40352478947695
 30
0.0
 40
0.1675
  0
CIRCLE
  5
3742
330
3559
100
AcDbEntity
  8
OBJECT
100
AcDbCircle
 10
10.88741668876451
 20
14.40352478947695
 30
0.0
 40
0.0625
  0
LINE
  5
3743
330
3559
100
AcDbEntity
  8
OBJECT
100
AcDbLine
 10
2.861792868014008
 20
14.42852478947695
 30
0.0
 11
2.732416688764526
 21
14.42852478947694
 31
0.0
  0
LINE
  5
3744
330
3559
100
AcDbEntity
  8
OBJECT
100
AcDbLine
 10
2.861792868014008
 20
14.37852478947695
 30
0.0
 11
2.732416688764526
 21
14.37852478947695
 31
0.0
  0
LINE
  5
3745
330
3559
100
AcDbEntity
  8
OBJECT
100
AcDbLine
 10
2.861792868014008
 20
9.084524789476951
 30
0.0
 11
2.732416688764526
 21
9.084524789476951
 31
0.0
  0
LINE
  5
3746
330
3559
100
AcDbEntity
  8
OBJECT
100
AcDbLine
 10
2.861792868014008
 20
9.034524789476954
 30
0.0
 11
2.732416688764526
 21
9.034524789476954
 31
0.0
  0
LINE
  5
3747
330
3559
100
AcDbEntity
  8
OBJECT
100
AcDbLine
 10
11.05304050951503
 20
9.034524789476954
 30
0.0
 11
11.18241668876452
 21
9.034524789476954
 31
0.0
  0
LINE
  5
3748
330
3559
100
AcDbEntity
  8
OBJECT
100
AcDbLine
 10
11.05304050951503
 20
9.084524789476951
 30
0.0
 11
11.18241668876452
 21
9.084524789476951
 31
0.0
  0
LINE
  5
3749
330
3559
100
AcDbEntity
  8
OBJECT
100
AcDbLine
 10
11.05304050951503
 20
14.37852478947695
 30
0.0
 11
11.18241668876452
 21
14.37852478947695
 31
0.0
  0
LINE
  5
374A
330
3559
100
AcDbEntity
  8
OBJECT
100
AcDbLine
 10
11.05304050951503
 20
14.42852478947695
 30
0.0
 11
11.18241668876452
 21
14.42852478947695
 31
0.0
  0
CIRCLE
  5
374B
330
3559
100
AcDbEntity
  8
OBJECT
100
AcDbCircle
 10
10.81041668876453
 20
13.81252478947694
 30
0.0
 40
0.125
  0
CIRCLE
  5
374C
330
3559
100
AcDbEntity
  8
OBJECT
100
AcDbCircle
 10
10.81041668876453
 20
13.81252478947694
 30
0.0
 40
0.047
  0
CIRCLE
  5
374D
330
3559
100
AcDbEntity
  8
OBJECT
100
AcDbCircle
 10
9.354416688764528
 20
13.81252478947694
 30
0.0
 40
0.125
  0
CIRCLE
  5
374E
330
3559
100
AcDbEntity
  8
OBJECT
100
AcDbCircle
 10
9.354416688764528
 20
13.81252478947694
 30
0.0
 40
0.047
  0
CIRCLE
  5
374F
330
3559
100
AcDbEntity
  8
OBJECT
100
AcDbCircle
 10
9.354416688764528
 20
9.389524789476951
 30
0.0
 40
0.125
  0
CIRCLE
  5
3750
330
3559
100
AcDbEntity
  8
OBJECT
100
AcDbCircle
 10
9.354416688764528
 20
9.389524789476951
 30
0.0
 40
0.047
  0
CIRCLE
  5
3751
330
3559
100
AcDbEntity
  8
OBJECT
100
AcDbCircle
 10
10.81041668876453
 20
9.389524789476951
 30
0.0
 40
0.125
  0
CIRCLE
  5
3752
330
3559
100
AcDbEntity
  8
OBJECT
100
AcDbCircle
 10
10.81041668876453
 20
9.389524789476951
 30
0.0
 40
0.047
  0
CIRCLE
  5
3753
330
3559
100
AcDbEntity
  8
OBJECT
100
AcDbCircle
 10
3.108416688764528
 20
12.95052478947694
 30
0.0
 40
0.125
  0
CIRCLE
  5
3754
330
3559
100
AcDbEntity
  8
OBJECT
100
AcDbCircle
 10
3.108416688764528
 20
12.95052478947694
 30
0.0
 40
0.047
  0
CIRCLE
  5
3755
330
3559
100
AcDbEntity
  8
OBJECT
100
AcDbCircle
 10
8.982416688764525
 20
12.89052478947695
 30
0.0
 40
0.125
  0
CIRCLE
  5
3756
330
3559
100
AcDbEntity
  8
OBJECT
100
AcDbCircle
 10
8.982416688764525
 20
12.89052478947695
 30
0.0
 40
0.047
  0
CIRCLE
  5
3757
330
3559
100
AcDbEntity
  8
OBJECT
100
AcDbCircle
 10
3.108416688764528
 20
9.408524789476953
 30
0.0
 40
0.125
  0
CIRCLE
  5
3758
330
3559
100
AcDbEntity
  8
OBJECT
100
AcDbCircle
 10
3.108416688764528
 20
9.408524789476953
 30
0.0
 40
0.047
  0
CIRCLE
  5
3759
330
3559
100
AcDbEntity
  8
OBJECT
100
AcDbCircle
 10
8.982416688764525
 20
9.543524789476952
 30
0.0
 40
0.125
  0
CIRCLE
  5
375A
330
3559
100
AcDbEntity
  8
OBJECT
100
AcDbCircle
 10
8.982416688764525
 20
9.543524789476952
 30
0.0
 40
0.047
  0
LINE
  5
375B
330
3559
100
AcDbEntity
  8
OBJECT
100
AcDbLine
 10
10.83791668876451
 20
14.85252478947695
 30
0.0
 11
10.83791668876451
 21
14.79652478947694
 31
0.0
  0
LINE
  5
375C
330
3559
100
AcDbEntity
  8
OBJECT
100
AcDbLine
 10
7.437916688764526
 20
14.85252478947695
 30
0.0
 11
7.437916688764524
 21
14.79652478947694
 31
0.0
  0
LINE
  5
375D
330
3559
100
AcDbEntity
  8
OBJECT
100
AcDbLine
 10
7.343916688764526
 20
14.85252478947695
 30
0.0
 11
10.93191668876452
 21
14.85252478947695
 31
0.0
  0
LINE
  5
375E
330
3559
100
AcDbEntity
  8
OBJECT
100
AcDbLine
 10
10.89291668876452
 20
14.79652478947694
 30
0.0
 11
10.89291668876452
 21
14.67152478947694
 31
0.0
  0
LINE
  5
375F
330
3559
100
AcDbEntity
  8
OBJECT
100
AcDbLine
 10
7.382916688764527
 20
14.79652478947694
 30
0.0
 11
7.382916688764527
 21
14.67152478947694
 31
0.0
  0
LINE
  5
3760
330
3559
100
AcDbEntity
  8
OBJECT
100
AcDbLine
 10
7.455916688764524
 20
14.69252478947695
 30
0.0
 11
7.455916688764524
 21
14.63352478947694
 31
0.0
  0
LINE
  5
3761
330
3559
100
AcDbEntity
  8
OBJECT
100
AcDbLine
 10
10.81991668876452
 20
14.69252478947695
 30
0.0
 11
10.81991668876452
 21
14.63352478947694
 31
0.0
  0
LINE
  5
3762
330
3559
100
AcDbEntity
  8
OBJECT
100
AcDbLine
 10
10.93191668876452
 20
14.85252478947695
 30
0.0
 11
10.93191668876452
 21
14.79652478947694
 31
0.0
  0
LINE
  5
3763
330
3559
100
AcDbEntity
  8
OBJECT
100
AcDbLine
 10
7.343916688764526
 20
14.85252478947695
 30
0.0
 11
7.343916688764526
 21
14.79652478947694
 31
0.0
  0
LINE
  5
3764
330
3559
100
AcDbEntity
  8
OBJECT
100
AcDbLine
 10
10.93191668876452
 20
14.79652478947694
 30
0.0
 11
11.11941668876452
 21
14.79652478947694
 31
0.0
  0
LINE
  5
3765
330
3559
100
AcDbEntity
  8
OBJECT
100
AcDbLine
 10
7.382916688764527
 20
14.79652478947694
 30
0.0
 11
10.89291668876452
 21
14.79652478947694
 31
0.0
  0
LINE
  5
3766
330
3559
100
AcDbEntity
  8
OBJECT
100
AcDbLine
 10
7.343916688764526
 20
14.63352478947694
 30
0.0
 11
10.93191668876452
 21
14.63352478947694
 31
0.0
  0
LINE
  5
3767
330
3559
100
AcDbEntity
  8
OBJECT
100
AcDbLine
 10
10.89291668876452
 20
14.72152478947695
 30
0.0
 11
11.11941668876452
 21
14.72152478947695
 31
0.0
  0
LINE
  5
3768
330
3559
100
AcDbEntity
  8
OBJECT
100
AcDbLine
 10
7.382916688764527
 20
14.69252478947695
 30
0.0
 11
10.89291668876452
 21
14.69252478947695
 31
0.0
  0
LINE
  5
3769
330
3559
100
AcDbEntity
  8
OBJECT
100
AcDbLine
 10
7.343916688764526
 20
14.67152478947694
 30
0.0
 11
7.343916688764526
 21
14.63352478947694
 31
0.0
  0
LINE
  5
376A
330
3559
100
AcDbEntity
  8
OBJECT
100
AcDbLine
 10
10.93191668876452
 20
14.67152478947694
 30
0.0
 11
10.93191668876452
 21
14.63352478947694
 31
0.0
  0
LINE
  5
376B
330
3559
100
AcDbEntity
  8
OBJECT
100
AcDbLine
 10
10.89291668876452
 20
14.67152478947694
 30
0.0
 11
11.18241668876452
 21
14.67152478947694
 31
0.0
  0
LINE
  5
376C
330
3559
100
AcDbEntity
  8
OBJECT
100
AcDbLine
 10
14.15350216204648
 20
14.79652478947694
 30
0.0
 11
14.15350216204648
 21
8.666524789476955
 31
0.0
  0
LINE
  5
376D
330
3559
100
AcDbEntity
  8
OBJECT
100
AcDbLine
 10
15.10350216204649
 20
14.71901524748197
 30
0.0
 11
15.10350216204649
 21
8.744034331471928
 31
0.0
  0
LINE
  5
376E
330
3559
100
AcDbEntity
  8
OBJECT
100
AcDbLine
 10
14.05950216204649
 20
14.72152478947695
 30
0.0
 11
14.05950216204647
 21
8.741524789476953
 31
0.0
  0
LINE
  5
376F
330
3559
100
AcDbEntity
  8
OBJECT
100
AcDbLine
 10
14.05950216204647
 20
14.72152478947695
 30
0.0
 11
14.15350216204648
 21
14.72152478947695
 31
0.0
  0
LINE
  5
3770
330
3559
100
AcDbEntity
  8
OBJECT
100
AcDbLine
 10
14.05950216204647
 20
8.741524789476953
 30
0.0
 11
14.15350216204648
 21
8.741524789476953
 31
0.0
  0
LINE
  5
3771
330
3559
100
AcDbEntity
  8
OBJECT
100
AcDbLine
 10
14.15350216204648
 20
14.79652478947694
 30
0.0
 11
15.0425842112456
 21
14.78100580458167
 31
0.0
  0
LINE
  5
3772
330
3559
100
AcDbEntity
  8
OBJECT
100
AcDbLine
 10
14.15350216204648
 20
8.666524789476946
 30
0.0
 11
15.0425842112456
 21
8.682043774372234
 31
0.0
  0
LINE
  5
3773
330
3559
100
AcDbEntity
  8
OBJECT
100
AcDbLine
 10
13.17550216204649
 20
14.23602478947695
 30
0.0
 11
14.05950216204649
 21
14.23602478947695
 31
0.0
  0
LINE
  5
3774
330
3559
100
AcDbEntity
  8
OBJECT
100
AcDbLine
 10
13.17550216204648
 20
14.57102478947694
 30
0.0
 11
14.05950216204647
 21
14.57102478947694
 31
0.0
  0
LINE
  5
3775
330
3559
100
AcDbEntity
  8
OBJECT
100
AcDbLine
 10
13.17550216204648
 20
14.57102478947694
 30
0.0
 11
13.17550216204649
 21
14.23602478947695
 31
0.0
  0
LINE
  5
3776
330
3559
100
AcDbEntity
  8
OBJECT
100
AcDbLine
 10
14.02450216204647
 20
9.227024789476951
 30
0.0
 11
14.02450216204647
 21
8.892024789476954
 31
0.0
  0
LINE
  5
3777
330
3559
100
AcDbEntity
  8
HIDDEN
100
AcDbLine
 10
14.02450216204647
 20
8.892024789476954
 30
0.0
 11
14.98550216204647
 21
8.892024789476954
 31
0.0
  0
LINE
  5
3778
330
3559
100
AcDbEntity
  8
HIDDEN
100
AcDbLine
 10
14.02450216204647
 20
9.227024789476951
 30
0.0
 11
14.98550216204647
 21
9.227024789476999
 31
0.0
  0
LINE
  5
3779
330
3559
100
AcDbEntity
  8
OBJECT
100
AcDbLine
 10
6.476916688764531
 20
3.125952583850326
 30
0.0
 11
3.076916688764527
 21
3.125952583850323
 31
0.0
  0
LINE
  5
377A
330
3559
100
AcDbEntity
  8
OBJECT
100
AcDbLine
 10
6.520916688764528
 20
3.242952583850323
 30
0.0
 11
3.032916688764526
 21
3.24295258385032
 31
0.0
  0
LINE
  5
377B
330
3559
100
AcDbEntity
  8
OBJECT
100
AcDbLine
 10
6.520916688764528
 20
1.932952583850326
 30
0.0
 11
3.032916688764527
 21
1.932952583850326
 31
0.0
  0
LINE
  5
377C
330
3559
100
AcDbEntity
  8
OBJECT
100
AcDbLine
 10
6.476916688764529
 20
2.025952583850322
 30
0.0
 11
3.076916688764526
 21
2.025952583850322
 31
0.0
  0
LINE
  5
377D
330
3559
100
AcDbEntity
  8
OBJECT
100
AcDbLine
 10
11.14449279395633
 20
5.779952583850325
 30
0.0
 11
2.770340583572727
 21
5.779952583850325
 31
0.0
  0
LINE
  5
377E
330
3559
100
AcDbEntity
  8
OBJECT
100
AcDbLine
 10
11.22990714676955
 20
1.844952583850324
 30
0.0
 11
2.684926230759506
 21
1.844952583850324
 31
0.0
  0
LINE
  5
377F
330
3559
100
AcDbEntity
  8
OBJECT
100
AcDbLine
 10
11.30741668876453
 20
2.794952583850323
 30
0.0
 11
6.47691668876453
 21
2.794952583850326
 31
0.0
  0
LINE
  5
3780
330
3559
100
AcDbEntity
  8
OBJECT
100
AcDbLine
 10
11.30741668876453
 20
2.828952583850324
 30
0.0
 11
6.47691668876453
 21
2.828952583850324
 31
0.0
  0
LINE
  5
3781
330
3559
100
AcDbEntity
  8
OBJECT
100
AcDbLine
 10
11.30741668876453
 20
2.828952583850324
 30
0.0
 11
11.2064550252315
 21
5.720116352645876
 31
0.0
  0
LINE
  5
3782
330
3559
100
AcDbEntity
  8
OBJECT
100
AcDbLine
 10
11.30741668876453
 20
2.794952583850323
 30
0.0
 11
11.29189770386924
 21
1.905870534651213
 31
0.0
  0
LINE
  5
3783
330
3559
100
AcDbEntity
  8
OBJECT
100
AcDbLine
 10
11.23241668876451
 20
2.828952583850326
 30
0.0
 11
11.23241668876451
 21
2.794952583850323
 31
0.0
  0
LINE
  5
3784
330
3559
100
AcDbEntity
  8
OBJECT
100
AcDbLine
 10
6.570916688764529
 20
3.192952583850321
 30
0.0
 11
6.570916688764529
 21
2.828952583850324
 31
0.0
  0
LINE
  5
3785
330
3559
100
AcDbEntity
  8
OBJECT
100
AcDbLine
 10
6.476916688764531
 20
3.125952583850326
 30
0.0
 11
6.47691668876453
 21
2.828952583850324
 31
0.0
  0
ARC
  5
3786
330
3559
100
AcDbEntity
  8
OBJECT
100
AcDbCircle
 10
6.520916688764528
 20
3.192952583850321
 30
0.0
 40
0.05
100
AcDbArc
 50
0.000000000000007
 51
89.99999999999998
  0
LINE
  5
3787
330
3559
100
AcDbEntity
  8
OBJECT
100
AcDbLine
 10
6.570916688764529
 20
2.794952583850328
 30
0.0
 11
6.570916688764527
 21
1.982952583850329
 31
0.0
  0
LINE
  5
3788
330
3559
100
AcDbEntity
  8
OBJECT
100
AcDbLine
 10
6.47691668876453
 20
2.794952583850326
 30
0.0
 11
6.476916688764529
 21
2.025952583850322
 31
0.0
  0
LINE
  5
3789
330
3559
100
AcDbEntity
  8
OBJECT
100
AcDbLine
 10
6.531916688764527
 20
2.828952583850322
 30
0.0
 11
6.531916688764527
 21
2.794952583850328
 31
0.0
  0
ARC
  5
378A
330
3559
100
AcDbEntity
  8
OBJECT
100
AcDbCircle
 10
6.520916688764528
 20
1.982952583850329
 30
0.0
 40
0.05
100
AcDbArc
 50
270.0
 51
0.000000000000007
  0
LINE
  5
378B
330
3559
100
AcDbEntity
  8
OBJECT
100
AcDbLine
 10
2.982916688764524
 20
3.19295258385032
 30
0.0
 11
2.982916688764524
 21
2.828952583850326
 31
0.0
  0
LINE
  5
378C
330
3559
100
AcDbEntity
  8
OBJECT
100
AcDbLine
 10
3.076916688764527
 20
3.125952583850323
 30
0.0
 11
3.076916688764526
 21
2.828952583850328
 31
0.0
  0
ARC
  5
378D
330
3559
100
AcDbEntity
  8
OBJECT
100
AcDbCircle
 10
3.032916688764526
 20
3.19295258385032
 30
0.0
 40
0.05
100
AcDbArc
 50
89.99999999999998
 51
180.0
  0
LINE
  5
378E
330
3559
100
AcDbEntity
  8
OBJECT
100
AcDbLine
 10
2.982916688764524
 20
2.794952583850326
 30
0.0
 11
2.982916688764527
 21
1.982952583850323
 31
0.0
  0
LINE
  5
378F
330
3559
100
AcDbEntity
  8
OBJECT
100
AcDbLine
 10
3.076916688764526
 20
2.794952583850323
 30
0.0
 11
3.076916688764526
 21
2.025952583850322
 31
0.0
  0
LINE
  5
3790
330
3559
100
AcDbEntity
  8
OBJECT
100
AcDbLine
 10
2.607416688764526
 20
2.794952583850323
 30
0.0
 11
2.622935673659811
 21
1.905870534651213
 31
0.0
  0
LINE
  5
3791
330
3559
100
AcDbEntity
  8
OBJECT
100
AcDbLine
 10
3.076916688764526
 20
2.794952583850323
 30
0.0
 11
2.607416688764526
 21
2.794952583850324
 31
0.0
  0
LINE
  5
3792
330
3559
100
AcDbEntity
  8
OBJECT
100
AcDbLine
 10
3.076916688764526
 20
2.828952583850326
 30
0.0
 11
2.607416688764526
 21
2.828952583850324
 31
0.0
  0
LINE
  5
3793
330
3559
100
AcDbEntity
  8
OBJECT
100
AcDbLine
 10
3.021916688764529
 20
2.828952583850328
 30
0.0
 11
3.021916688764532
 21
2.794952583850326
 31
0.0
  0
LINE
  5
3794
330
3559
100
AcDbEntity
  8
OBJECT
100
AcDbLine
 10
2.682416688764531
 20
2.828952583850326
 30
0.0
 11
2.682416688764531
 21
2.794952583850323
 31
0.0
  0
ARC
  5
3795
330
3559
100
AcDbEntity
  8
OBJECT
100
AcDbCircle
 10
3.032916688764527
 20
1.982952583850323
 30
0.0
 40
0.05
100
AcDbArc
 50
180.0
 51
270.0
  0
LINE
  5
3796
330
3559
100
AcDbEntity
  8
OBJECT
100
AcDbLine
 10
17.48403383877153
 20
23.5077497726517
 30
0.0
 11
17.48403383877152
 21
17.53276885664167
 31
0.0
  0
LINE
  5
3797
330
3559
100
AcDbEntity
  8
OBJECT
100
AcDbLine
 10
16.53403383877152
 20
23.58525931464669
 30
0.0
 11
16.53403383877152
 21
17.45525931464668
 31
0.0
  0
LINE
  5
3798
330
3559
100
AcDbEntity
  8
OBJECT
100
AcDbLine
 10
16.53403383877152
 20
17.45525931464667
 30
0.0
 11
17.42311588797064
 21
17.47077829954196
 31
0.0
  0
LINE
  5
3799
330
3559
100
AcDbEntity
  8
OBJECT
100
AcDbLine
 10
16.50003383877153
 20
17.53025931464669
 30
0.0
 11
16.53403383877152
 21
17.53025931464669
 31
0.0
  0
LINE
  5
379A
330
3559
100
AcDbEntity
  8
OBJECT
100
AcDbLine
 10
16.53403383877152
 20
23.58525931464669
 30
0.0
 11
17.42311588797064
 21
23.56974032975139
 31
0.0
  0
LINE
  5
379B
330
3559
100
AcDbEntity
  8
OBJECT
100
AcDbLine
 10
16.50003383877153
 20
23.51025931464667
 30
0.0
 11
16.53403383877152
 21
23.51025931464667
 31
0.0
  0
LINE
  5
379C
330
3559
100
AcDbEntity
  8
OBJECT
100
AcDbLine
 10
16.50003383877153
 20
23.58525931464669
 30
0.0
 11
16.50003383877153
 21
17.45525931464668
 31
0.0
  0
LINE
  5
379D
330
3559
100
AcDbEntity
  8
OBJECT
100
AcDbLine
 10
13.54903383877152
 20
23.4223354198385
 30
0.0
 11
13.54903383877152
 21
22.63849787890146
 31
0.0
  0
LINE
  5
379E
330
3559
100
AcDbEntity
  8
OBJECT
100
AcDbLine
 10
13.55265185633238
 20
22.61762818492968
 30
0.0
 11
15.36993930700594
 21
17.53385243931786
 31
0.0
  0
LINE
  5
379F
330
3559
100
AcDbEntity
  8
OBJECT
100
AcDbLine
 10
2.795416688764527
 20
23.60461557204688
 30
0.0
 11
11.11941668876452
 21
23.60461557204686
 31
0.0
  0
LINE
  5
37A0
330
3559
100
AcDbEntity
  8
OBJECT
100
AcDbLine
 10
7.343916688764526
 20
23.66061557204687
 30
0.0
 11
10.93191668876452
 21
23.66061557204687
 31
0.0
  0
LINE
  5
37A1
330
3559
100
AcDbEntity
  8
OBJECT
100
AcDbLine
 10
7.343916688764526
 20
23.66061557204687
 30
0.0
 11
7.343916688764526
 21
23.60461557204688
 31
0.0
  0
LINE
  5
37A2
330
3559
100
AcDbEntity
  8
OBJECT
100
AcDbLine
 10
10.93191668876452
 20
23.66061557204687
 30
0.0
 11
10.93191668876452
 21
23.60461557204688
 31
0.0
  0
ARC
  5
37A3
330
3559
100
AcDbEntity
  8
OBJECT
100
AcDbCircle
 10
11.11941668876452
 20
23.41661557204687
 30
0.0
 40
0.188
100
AcDbArc
 50
0.0
 51
90.0
  0
LINE
  5
37A4
330
3559
100
AcDbEntity
  8
OBJECT
100
AcDbLine
 10
11.30741668876453
 20
23.41661557204687
 30
0.0
 11
11.30741668876451
 21
17.66261557204687
 31
0.0
  0
ARC
  5
37A5
330
3559
100
AcDbEntity
  8
OBJECT
100
AcDbCircle
 10
11.11941668876452
 20
17.66261557204687
 30
0.0
 40
0.188
100
AcDbArc
 50
270.0
 51
0.0
  0
LINE
  5
37A6
330
3559
100
AcDbEntity
  8
OBJECT
100
AcDbLine
 10
11.11941668876452
 20
17.47461557204688
 30
0.0
 11
2.795416688764526
 21
17.47461557204688
 31
0.0
  0
ARC
  5
37A7
330
3559
100
AcDbEntity
  8
OBJECT
100
AcDbCircle
 10
2.795416688764526
 20
17.66261557204687
 30
0.0
 40
0.188
100
AcDbArc
 50
180.0
 51
270.0
  0
LINE
  5
37A8
330
3559
100
AcDbEntity
  8
OBJECT
100
AcDbLine
 10
2.607416688764526
 20
17.66261557204687
 30
0.0
 11
2.607416688764526
 21
23.41661557204687
 31
0.0
  0
ARC
  5
37A9
330
3559
100
AcDbEntity
  8
OBJECT
100
AcDbCircle
 10
2.795416688764527
 20
23.41661557204687
 30
0.0
 40
0.188
100
AcDbArc
 50
90.0
 51
180.0
  0
LINE
  5
37AA
330
3559
100
AcDbEntity
  8
OBJECT
100
AcDbLine
 10
11.22591668876451
 20
22.62774941804351
 30
0.0
 11
2.688916688764527
 21
22.62774941804351
 31
0.0
  0
LINE
  5
37AB
330
3559
100
AcDbEntity
  8
OBJECT
100
AcDbLine
 10
11.01491668876452
 20
17.67049807106999
 30
0.0
 11
2.899916688764522
 21
17.67049807107001
 31
0.0
  0
CIRCLE
  5
37AC
330
3559
100
AcDbEntity
  8
OBJECT
100
AcDbCircle
 10
3.157416688764528
 20
22.23400330195751
 30
0.0
 40
0.117
  0
CIRCLE
  5
37AD
330
3559
100
AcDbEntity
  8
OBJECT
100
AcDbCircle
 10
3.157416688764527
 20
17.96458542487586
 30
0.0
 40
0.117
  0
LINE
  5
37AE
330
3559
100
AcDbEntity
  8
HIDDEN
100
AcDbLine
 10
10.63641668876452
 20
22.40161609025052
 30
0.0
 11
3.278416688764527
 21
22.40161609025052
 31
0.0
  0
LINE
  5
37AF
330
3559
100
AcDbEntity
  8
HIDDEN
100
AcDbLine
 10
10.63641668876452
 20
17.79697263658284
 30
0.0
 11
3.278416688764521
 21
17.79697263658284
 31
0.0
  0
INSERT
  5
37B0
330
3559
100
AcDbEntity
  8
OBJECT
100
AcDbBlockReference
  2
HB
 10
0.0
 20
0.0
 30
0.0
 41
1.75
 42
1.75
 43
1.75
  0
DIMENSION
  5
37B1
330
3559
100
AcDbEntity
  8
DIM
100
AcDbDimension
  2
*D36
 10
6.476916688764529
 20
1.266956697155301
 30
0.0
 11
4.776916688764527
 21
1.266956697155301
 31
0.0
 70
    32
 71
     5
 42
3.400000000000003
  3
23NSTD
100
AcDbAlignedDimension
 13
3.076916688764526
 23
2.025952583850322
 33
0.0
 14
6.476916688764529
 24
2.025952583850322
 34
0.0
100
AcDbRotatedDimension
  0
DIMENSION
  5
37BF
330
3559
100
AcDbEntity
  8
DIM
100
AcDbDimension
  2
*D37
 10
1.792067930717024
 20
2.025952583850322
 30
0.0
 11
1.792067930717023
 21
2.575952583850323
 31
0.0
 70
    32
 71
     5
 42
1.100000000000001
  3
23NSTD
100
AcDbAlignedDimension
 13
3.076916688764527
 23
3.125952583850323
 33
0.0
 14
3.076916688764526
 24
2.025952583850322
 34
0.0
 50
90.0
100
AcDbRotatedDimension
  0
DIMENSION
  5
37CD
330
3559
100
AcDbEntity
  8
DIM
100
AcDbDimension
  2
*D38
 10
17.9914248105111
 20
17.45525931464668
 30
0.0
 11
17.9914248105111
 21
20.52025931464669
 31
0.0
 70
    32
 71
     5
 42
6.130000000000002
  3
23NSTD
100
AcDbAlignedDimension
 13
16.53403383877152
 23
23.58525931464669
 33
0.0
 14
16.53403383877152
 24
17.45525931464668
 34
0.0
 50
90.0
100
AcDbRotatedDimension
  0
DIMENSION
  5
37DB
330
3559
100
AcDbEntity
  8
DIM
100
AcDbDimension
  2
*D39
 10
17.48403383877152
 20
24.21765444951723
 30
0.0
 11
15.51653383877152
 21
24.21765444951723
 31
0.0
 70
    32
 71
     5
 42
3.935
  3
23NSTD
100
AcDbAlignedDimension
 13
13.54903383877152
 23
23.4223354198385
 33
0.0
 14
17.48403383877152
 24
23.56867700296488
 34
0.0
100
AcDbRotatedDimension
  0
DIMENSION
  5
37E9
330
3559
100
AcDbEntity
  8
DIM
100
AcDbDimension
  2
*D40
 10
1.792067930717025
 20
12.95052478947694
 30
0.0
 11
1.792067930717023
 21
12.34102478947694
 31
0.0
 70
    32
 71
     5
 42
1.218999999999997
  3
23NSTD
100
AcDbAlignedDimension
 13
2.626916688764527
 23
11.73152478947695
 33
0.0
 14
3.108416688764528
 24
12.95052478947694
 34
0.0
 50
90.0
100
AcDbRotatedDimension
  0
DIMENSION
  5
37F7
330
3559
100
AcDbEntity
  8
DIM
100
AcDbDimension
  2
*D41
 10
1.792067930717025
 20
9.408524789476953
 30
0.0
 11
1.792067930717024
 21
10.57002478947695
 31
0.0
 70
    32
 71
     5
 42
2.322999999999996
  3
23NSTD
100
AcDbAlignedDimension
 13
2.626916688764525
 23
11.73152478947695
 33
0.0
 14
3.108416688764528
 24
9.408524789476953
 34
0.0
 50
90.0
100
AcDbRotatedDimension
  0
DIMENSION
  5
3805
330
3559
100
AcDbEntity
  8
DIM
100
AcDbDimension
  2
*D42
 10
12.12642139159513
 20
13.81252478947693
 30
0.0
 11
12.12642139159512
 21
12.77202478947694
 31
0.0
 70
    32
 71
     5
 42
2.08099999999999
  3
23NSTD
100
AcDbAlignedDimension
 13
11.28791668876452
 23
11.73152478947695
 33
0.0
 14
10.81041668876453
 24
13.81252478947694
 34
0.0
 50
90.0
100
AcDbRotatedDimension
  0
DIMENSION
  5
3813
330
3559
100
AcDbEntity
  8
DIM
100
AcDbDimension
  2
*D43
 10
12.12642139159513
 20
9.389524789476949
 30
0.0
 11
12.12642139159513
 21
10.56052478947695
 31
0.0
 70
    32
 71
     5
 42
2.341999999999998
  3
23NSTD
100
AcDbAlignedDimension
 13
11.28791668876452
 23
11.73152478947695
 33
0.0
 14
10.81041668876453
 24
9.389524789476951
 34
0.0
 50
90.0
100
AcDbRotatedDimension
  0
DIMENSION
  5
3821
330
3559
100
AcDbEntity
  8
DIM
100
AcDbDimension
  2
*D44
 10
3.108416688764528
 20
8.040913752715288
 30
0.0
 11
5.032916688764528
 21
8.040913752715288
 31
0.0
 70
    32
 71
     5
 42
3.849
  3
23NSTD
100
AcDbAlignedDimension
 13
6.957416688764528
 23
8.666524789476955
 33
0.0
 14
3.108416688764528
 24
9.408524789476953
 34
0.0
100
AcDbRotatedDimension
  0
DIMENSION
  5
382F
330
3559
100
AcDbEntity
  8
DIM
100
AcDbDimension
  2
*D45
 10
8.982416688764525
 20
8.040913752715288
 30
0.0
 11
7.969916688764527
 21
8.040913752715288
 31
0.0
 70
    32
 71
     5
 42
2.024999999999996
  3
23NSTD
100
AcDbAlignedDimension
 13
6.957416688764528
 23
8.666524789476955
 33
0.0
 14
8.982416688764525
 24
9.543524789476952
 34
0.0
100
AcDbRotatedDimension
  0
DIMENSION
  5
383D
330
3559
100
AcDbEntity
  8
DIM
100
AcDbDimension
  2
*D46
 10
9.354416688764528
 20
7.542781721320095
 30
0.0
 11
8.155916688764529
 21
7.542781721320095
 31
0.0
 70
    32
 71
     5
 42
2.397
  3
23NSTD
100
AcDbAlignedDimension
 13
6.957416688764528
 23
8.666524789476955
 33
0.0
 14
9.354416688764528
 24
9.389524789476951
 34
0.0
100
AcDbRotatedDimension
  0
DIMENSION
  5
384B
330
3559
100
AcDbEntity
  8
DIM
100
AcDbDimension
  2
*D47
 10
10.81041668876453
 20
7.074292694359151
 30
0.0
 11
8.883916688764529
 21
7.074292694359151
 31
0.0
 70
    32
 71
     5
 42
3.853000000000001
  3
23NSTD
100
AcDbAlignedDimension
 13
6.957416688764528
 23
8.666524789476955
 33
0.0
 14
10.81041668876453
 24
9.389524789476951
 34
0.0
100
AcDbRotatedDimension
  0
LINE
  5
3859
330
3559
100
AcDbEntity
  8
OBJECT
100
AcDbLine
 10
17.39603383877153
 20
23.64556930607875
 30
0.0
 11
17.39603383877153
 21
23.57021304867856
 31
0.0
  0
LINE
  5
385A
330
3559
100
AcDbEntity
  8
OBJECT
100
AcDbLine
 10
16.50003383877153
 20
23.66061557204687
 30
0.0
 11
16.08622301099221
 21
23.64616497951681
 31
0.0
  0
LINE
  5
385B
330
3559
100
AcDbEntity
  8
OBJECT
100
AcDbLine
 10
16.53403383877152
 20
23.66061557204687
 30
0.0
 11
17.39603383877153
 21
23.64556930607875
 31
0.0
  0
LINE
  5
385C
330
3559
100
AcDbEntity
  8
OBJECT
100
AcDbLine
 10
16.53403383877152
 20
23.58525931464669
 30
0.0
 11
16.53403383877152
 21
23.66061557204687
 31
0.0
  0
LINE
  5
385D
330
3559
100
AcDbEntity
  8
OBJECT
100
AcDbLine
 10
16.50003383877153
 20
23.58525931464669
 30
0.0
 11
16.50003383877153
 21
23.66061557204687
 31
0.0
  0
TEXT
  5
385E
330
3559
100
AcDbEntity
  8
TEXT
100
AcDbText
 10
4.167901006958606
 20
26.76511607901448
 30
0.0
 40
0.3279999999999999
  1
PLASTICASE
 41
0.75
 72
     1
 11
5.315901006958607
 21
26.76511607901448
 31
0.0
100
AcDbText
  0
TEXT
  5
385F
330
3559
100
AcDbEntity
  8
TEXT
100
AcDbText
 10
13.70899478198777
 20
26.76511607901448
 30
0.0
 40
0.3279999999999999
  1
PC-11491
 41
0.75
 72
     1
 11
14.52899478198776
 21
26.76511607901448
 31
0.0
100
AcDbText
  0
DIMENSION
  5
3860
330
3559
100
AcDbEntity
  8
DIM
100
AcDbDimension
  2
*D48
 10
12.1637698298822
 20
17.67004499776653
 30
0.0
 11
12.1637698298822
 21
19.80459097344743
 31
0.0
 70
   161
  1
5.100
 71
     5
 42
4.802841951361788
  3
23NSTD
100
AcDbAlignedDimension
 13
11.01491668876451
 23
22.47288694912832
 33
0.0
 14
11.01491668876451
 24
17.67004499776653
 34
0.0
  0
TEXT
  5
386E
330
3559
100
AcDbEntity
  8
TEXT
100
AcDbText
 10
0.7415356693260124
 20
26.06629743371392
 30
0.0
 40
0.218
  1
MATERIAL: BODY TOP & BOTTOM, REAR PANEL
 41
0.75
100
AcDbText
  0
TEXT
  5
386F
330
3559
100
AcDbEntity
  8
TEXT
100
AcDbText
 10
0.7415356693260124
 20
24.74795955891067
 30
0.0
 40
0.218
  1
FINISH: BODY TOP & BOTTOM
 41
0.75
100
AcDbText
  0
TEXT
  5
3870
330
3559
100
AcDbEntity
  8
TEXT
100
AcDbText
 10
1.847223284155218
 20
24.38462622557732
 30
0.0
 40
0.218
  1
REAR PANEL
 41
0.75
100
AcDbText
  0
TEXT
  5
3871
330
3559
100
AcDbEntity
  8
TEXT
100
AcDbText
 10
1.847223284155218
 20
24.021292892244
 30
0.0
 40
0.218
  1
SLOPE PANEL
 41
0.75
100
AcDbText
  0
TEXT
  5
3872
330
3559
100
AcDbEntity
  8
TEXT
100
AcDbText
 10
8.112786512901365
 20
24.74304065874369
 30
0.0
 40
0.218
  1
LIGHT GRAY
 41
0.75
100
AcDbText
  0
TEXT
  5
3873
330
3559
100
AcDbEntity
  8
TEXT
100
AcDbText
 10
8.112786512901365
 20
24.37970732541035
 30
0.0
 40
0.218
  1
DARK GRAY
 41
0.75
100
AcDbText
  0
TEXT
  5
3874
330
3559
100
AcDbEntity
  8
TEXT
100
AcDbText
 10
8.112786512901365
 20
24.01637399207702
 30
0.0
 40
0.218
  1
NATURAL
 41
0.75
100
AcDbText
  0
LINE
  5
3875
330
3559
100
AcDbEntity
  8
TEXT
100
AcDbLine
 10
6.925195999053456
 20
26.06629743371392
 30
0.0
 11
7.989932281444339
 21
26.06629743371392
 31
0.0
  0
LINE
  5
3876
330
3559
100
AcDbEntity
  8
TEXT
100
AcDbLine
 10
4.693345161711405
 20
24.74304065874369
 30
0.0
 11
7.96945655668965
 21
24.74304065874369
 31
0.0
  0
LINE
  5
3877
330
3559
100
AcDbEntity
  8
TEXT
100
AcDbLine
 10
3.587657546882212
 20
24.37478836070265
 30
0.0
 11
7.96945655668965
 21
24.37478836070265
 31
0.0
  0
LINE
  5
3878
330
3559
100
AcDbEntity
  8
TEXT
100
AcDbLine
 10
3.751463110777563
 20
24.02699456669105
 30
0.0
 11
7.948980831934973
 21
24.02699456669105
 31
0.0
  0
ARC
  5
3885
330
3559
100
AcDbEntity
  8
OBJECT
100
AcDbCircle
 10
17.42203383877153
 20
17.53276885664167
 30
0.0
 40
0.062
100
AcDbArc
 50
271.0
 51
0.0
  0
ARC
  5
3886
330
3559
100
AcDbEntity
  8
OBJECT
100
AcDbCircle
 10
17.42203383877153
 20
23.5077497726517
 30
0.0
 40
0.062
100
AcDbArc
 50
0.0
 51
88.99999999999987
  0
ARC
  5
3887
330
3559
100
AcDbEntity
  8
OBJECT
100
AcDbCircle
 10
13.61103383877152
 20
22.63849787890146
 30
0.0
 40
0.062
100
AcDbArc
 50
180.0000000000001
 51
199.6703473036869
  0
ARC
  5
3888
330
3559
100
AcDbEntity
  8
OBJECT
100
AcDbCircle
 10
15.04150216204648
 20
8.744034331471928
 30
0.0
 40
0.062
100
AcDbArc
 50
271.0
 51
0.0
  0
ARC
  5
3889
330
3559
100
AcDbEntity
  8
OBJECT
100
AcDbCircle
 10
15.04150216204648
 20
14.71901524748197
 30
0.0
 40
0.062
100
AcDbArc
 50
0.0
 51
88.99999999999987
  0
ARC
  5
388A
330
3559
100
AcDbEntity
  8
OBJECT
100
AcDbCircle
 10
11.22990714676955
 20
1.906952583850326
 30
0.0
 40
0.062
100
AcDbArc
 50
270.0
 51
358.9999999999997
  0
ARC
  5
388B
330
3559
100
AcDbEntity
  8
OBJECT
100
AcDbCircle
 10
2.684926230759506
 20
1.906952583850324
 30
0.0
 40
0.062
100
AcDbArc
 50
181.0
 51
270.0
  0
LINE
  5
388C
330
3559
100
AcDbEntity
  8
OBJECT
100
AcDbLine
 10
14.15350216204648
 20
14.79652478947694
 30
0.0
 11
14.15350216204648
 21
14.87188104687714
 31
0.0
  0
LINE
  5
388D
330
3559
100
AcDbEntity
  8
OBJECT
100
AcDbLine
 10
14.15350216204648
 20
14.87188104687714
 30
0.0
 11
15.01550216204648
 21
14.856834780909
 31
0.0
  0
LINE
  5
388E
330
3559
100
AcDbEntity
  8
OBJECT
100
AcDbLine
 10
15.01550216204648
 20
14.85683478090901
 30
0.0
 11
15.01550216204648
 21
14.78147852350882
 31
0.0
  0
TEXT
  5
3895
330
3559
100
AcDbEntity
  8
TEXT
100
AcDbText
 10
12.16320465916675
 20
7.471463519108283
 30
0.0
 40
0.218
  1
FOUR (4) M3 x 0.630" LG. SCREWS
 41
0.75
100
AcDbText
  0
TEXT
  5
3896
330
3559
100
AcDbEntity
  8
TEXT
100
AcDbText
 10
12.48327208040504
 20
7.10813018577495
 30
0.0
 40
0.218
  1
SUPPLIED FOR ASSEMBLING BODY
 41
0.75
100
AcDbText
  0
TEXT
  5
3897
330
3559
100
AcDbEntity
  8
TEXT
100
AcDbText
 10
12.48327208040504
 20
6.744796852441615
 30
0.0
 40
0.218
  1
TOP TO BOTTOM
 41
0.75
100
AcDbText
  0
TEXT
  5
3898
330
3559
100
AcDbEntity
  8
TEXT
100
AcDbText
 10
12.16320465916675
 20
6.12562508114863
 30
0.0
 40
0.218
  1
FOUR (4) M3 x 0.315" LG. CSK. SCREWS
 41
0.75
100
AcDbText
  0
TEXT
  5
3899
330
3559
100
AcDbEntity
  8
TEXT
100
AcDbText
 10
12.48327208040504
 20
5.762291747815297
 30
0.0
 40
0.218
  1
SUPPLIED FOR ASSEMBLING SLOPE
 41
0.75
100
AcDbText
  0
TEXT
  5
389A
330
3559
100
AcDbEntity
  8
TEXT
100
AcDbText
 10
12.48327208040504
 20
5.398958414481962
 30
0.0
 40
0.218
  1
PANEL TO BODY TOP
 41
0.75
100
AcDbText
  0
TEXT
  5
389B
330
3559
100
AcDbEntity
  8
TEXT
100
AcDbText
 10
12.16320465916675
 20
4.69450718538266
 30
0.0
 40
0.218
  1
FOUR (4) RUBBER PUSH-ON FEET SUPPLIED
 41
0.75
100
AcDbText
  0
TEXT
  5
389C
330
3559
100
AcDbEntity
  8
TEXT
100
AcDbText
 10
12.16320465916675
 20
4.008953680393299
 30
0.0
 40
0.218
  1
MOUNTING BOSSES USE EITHER M2.5 METRIC
 41
0.75
100
AcDbText
  0
TEXT
  5
389D
330
3559
100
AcDbEntity
  8
TEXT
100
AcDbText
 10
12.48327208040504
 20
3.645620347059967
 30
0.0
 40
0.218
  1
OR #4 STD. SHEET METAL SCREWS x 0.188"
 41
0.75
100
AcDbText
  0
TEXT
  5
389E
330
3559
100
AcDbEntity
  8
TEXT
100
AcDbText
 10
12.48327208040504
 20
3.282287013726633
 30
0.0
 40
0.218
  1
LG. (NOT SUPPLIED)
 41
0.75
100
AcDbText
  0
TEXT
  5
389F
330
3559
100
AcDbEntity
  8
TEXT
100
AcDbText
 10
12.16320465916675
 20
2.673613949368771
 30
0.0
 40
0.218
  1
NOTE: ALL DIMENSIONS HAVE %%P0.015
 41
0.75
100
AcDbText
  0
TEXT
  5
38A0
330
3559
100
AcDbEntity
  8
TEXT
100
AcDbText
 10
12.48327208040504
 20
2.310280616035437
 30
0.0
 40
0.218
  1
TOLERANCE UNLESS OTHERWISE SPECIFIED
 41
0.75
100
AcDbText
  0
LINE
  5
38A1
330
3559
100
AcDbEntity
  8
OBJECT
100
AcDbLine
 10
16.50003383877153
 20
17.45525931464667
 30
0.0
 11
15.42615752064953
 21
17.49275990201446
 31
0.0
  0
ARC
  5
38A2
330
3559
100
AcDbEntity
  8
OBJECT
100
AcDbCircle
 10
15.42832128944508
 20
17.55472213328965
 30
0.0
 40
0.062
100
AcDbArc
 50
199.670347303687
 51
268.0
  0
LINE
  5
38A3
330
3559
100
AcDbEntity
  8
OBJECT
100
AcDbLine
 10
16.50003383877153
 20
23.58525931464669
 30
0.0
 11
13.60887006997597
 21
23.48429765111369
 31
0.0
  0
LINE
  5
38A4
330
3559
100
AcDbEntity
  8
OBJECT
100
AcDbLine
 10
16.08622301099221
 20
23.57080872211662
 30
0.0
 11
16.08622301099221
 21
23.64616497951681
 31
0.0
  0
ARC
  5
38A5
330
3559
100
AcDbEntity
  8
OBJECT
100
AcDbCircle
 10
13.61103383877152
 20
23.4223354198385
 30
0.0
 40
0.062
100
AcDbArc
 50
91.99999999999997
 51
180.0000000000001
  0
ARC
  5
38A6
330
3559
100
AcDbEntity
  8
OBJECT
100
AcDbCircle
 10
11.14449279395633
 20
5.717952583850323
 30
0.0
 40
0.062
100
AcDbArc
 50
2.00000000000023
 51
89.99999999999998
  0
ARC
  5
38A7
330
3559
100
AcDbEntity
  8
OBJECT
100
AcDbCircle
 10
2.770340583572727
 20
5.717952583850323
 30
0.0
 40
0.062
100
AcDbArc
 50
90.00000000000005
 51
177.9999999999996
  0
LINE
  5
38A8
330
3559
100
AcDbEntity
  8
OBJECT
100
AcDbLine
 10
2.607416688764526
 20
2.828952583850324
 30
0.0
 11
2.708378352297544
 21
5.720116352645876
 31
0.0
  0
TEXT
  5
38A9
330
3559
100
AcDbEntity
  8
TEXT
100
AcDbText
 10
8.133262237656055
 20
26.06629743371392
 30
0.0
 40
0.218
  1
ABS THERMOPLASTIC
 41
0.75
100
AcDbText
  0
TEXT
  5
38AA
330
3559
100
AcDbEntity
  8
TEXT
100
AcDbText
 10
8.133262237656055
 20
25.37725286376005
 30
0.0
 40
0.218
  1
0.080 THK. ALUMINUM
 41
0.75
100
AcDbText
  0
TEXT
  5
38AB
330
3559
100
AcDbEntity
  8
TEXT
100
AcDbText
 10
2.212912312492051
 20
25.37725286376005
 30
0.0
 40
0.218
  1
SLOPE PANEL
 41
0.75
100
AcDbText
  0
LINE
  5
38AC
330
3559
100
AcDbEntity
  8
TEXT
100
AcDbLine
 10
4.099019269862593
 20
25.37725286376005
 30
0.0
 11
7.989932281444339
 21
25.37725286376005
 31
0.0
  0
DIMENSION
  5
38AD
330
3559
100
AcDbEntity
  8
DIM
100
AcDbDimension
  2
*D49
 10
11.75631611379498
 20
17.79835293088833
 30
0.0
 11
11.75631611379498
 21
20.36754965772219
 31
0.0
 70
   160
  1
4.890
 71
     5
 42
4.604643453667708
  3
23NSTD
100
AcDbAlignedDimension
 13
10.63641668876452
 23
22.40299638455604
 33
0.0
 14
10.63641668876452
 24
17.79835293088833
 34
0.0
 50
90.0
100
AcDbRotatedDimension
  0
TEXT
  5
38BB
330
3559
100
AcDbEntity
  8
TEXT
100
AcDbText
 10
8.133262237656055
 20
25.74204962645085
 30
0.0
 40
0.218
  1
(UL94-HB RATED)
 41
0.75
100
AcDbText
  0
LINE
  5
38BC
330
3559
100
AcDbEntity
  8
HIDDEN
100
AcDbLine
 10
14.05950216204647
 20
8.791524789476955
 30
0.0
 11
14.98550216204647
 21
8.807688179600486
 31
0.0
  0
LINE
  5
38BD
330
3559
100
AcDbEntity
  8
HIDDEN
100
AcDbLine
 10
14.98550216204647
 20
14.65536139935341
 30
0.0
 11
14.98550216204647
 21
8.807688179600486
 31
0.0
  0
LINE
  5
38BE
330
3559
100
AcDbEntity
  8
HIDDEN
100
AcDbLine
 10
14.02450216204647
 20
9.122024789476956
 30
0.0
 11
14.20850216204648
 21
9.122024789476956
 31
0.0
  0
LINE
  5
38BF
330
3559
100
AcDbEntity
  8
HIDDEN
100
AcDbLine
 10
14.02450216204647
 20
8.997024789476952
 30
0.0
 11
14.20850216204648
 21
8.997024789476951
 31
0.0
  0
LINE
  5
38C0
330
3559
100
AcDbEntity
  8
HIDDEN
100
AcDbLine
 10
13.17550216204648
 20
14.34102478947695
 30
0.0
 11
13.35950216204649
 21
14.34102478947695
 31
0.0
  0
LINE
  5
38C1
330
3559
100
AcDbEntity
  8
HIDDEN
100
AcDbLine
 10
13.17550216204648
 20
14.46602478947695
 30
0.0
 11
13.35950216204649
 21
14.46602478947695
 31
0.0
  0
LINE
  5
38C2
330
3559
100
AcDbEntity
  8
HIDDEN
100
AcDbLine
 10
14.05950216204647
 20
14.57102478947694
 30
0.0
 11
14.98550216204647
 21
14.57102478947694
 31
0.0
  0
LINE
  5
38C3
330
3559
100
AcDbEntity
  8
HIDDEN
100
AcDbLine
 10
14.05950216204647
 20
14.23602478947695
 30
0.0
 11
14.98550216204647
 21
14.23602478947695
 31
0.0
  0
LINE
  5
38C4
330
3559
100
AcDbEntity
  8
HIDDEN
100
AcDbLine
 10
14.05950216204647
 20
14.67152478947694
 30
0.0
 11
14.98550216204647
 21
14.65536139935341
 31
0.0
  0
LINE
  5
38C5
330
3559
100
AcDbEntity
  8
HIDDEN
100
AcDbLine
 10
14.15350216204648
 20
14.79652478947694
 30
0.0
 11
14.99550216204649
 21
14.79652478947694
 31
0.0
  0
LINE
  5
38C6
330
3559
100
AcDbEntity
  8
HIDDEN
100
AcDbLine
 10
14.15350216204648
 20
14.69252478947693
 30
0.0
 11
14.99550216204649
 21
14.69252478947695
 31
0.0
  0
LINE
  5
38C7
330
3559
100
AcDbEntity
  8
HIDDEN
100
AcDbLine
 10
14.9225021620465
 20
14.85845810194734
 30
0.0
 11
14.9225021620465
 21
14.79652478947694
 31
0.0
  0
LINE
  5
38C8
330
3559
100
AcDbEntity
  8
HIDDEN
100
AcDbLine
 10
14.99550216204649
 20
14.79652478947694
 30
0.0
 11
14.99550216204649
 21
14.69252478947695
 31
0.0
  0
LINE
  5
38C9
330
3559
100
AcDbEntity
  8
HIDDEN
100
AcDbLine
 10
14.9225021620465
 20
14.69252478947695
 30
0.0
 11
14.9225021620465
 21
14.65646106844389
 31
0.0
  0
LINE
  5
38CA
330
3559
100
AcDbEntity
  8
HIDDEN
100
AcDbLine
 10
14.05950216204649
 20
14.63352478947694
 30
0.0
 11
14.98450216204649
 21
14.63352478947694
 31
0.0
  0
LINE
  5
38CB
330
3559
100
AcDbEntity
  8
HIDDEN
100
AcDbLine
 10
14.78550216204648
 20
13.93414723441334
 30
0.0
 11
14.78550216204648
 21
13.69090234454055
 31
0.0
  0
LINE
  5
38CC
330
3559
100
AcDbEntity
  8
HIDDEN
100
AcDbLine
 10
14.78550216204648
 20
13.69090234454055
 30
0.0
 11
14.98550216204649
 21
13.68742878661984
 31
0.0
  0
LWPOLYLINE
  5
38CD
330
3559
100
AcDbEntity
  8
HIDDEN
100
AcDbPolyline
 90
        2
 70
     0
 43
0.0
 10
14.78550216204648
 20
13.93395522869913
 10
14.98550216204649
 20
13.93742878661984
  0
LWPOLYLINE
  5
38D1
330
3559
100
AcDbEntity
  8
HIDDEN
100
AcDbPolyline
 90
        4
 70
     0
 43
0.0
 10
14.78550216204648
 20
13.76542878661983
 10
15.02650216204648
 20
13.76542878661983
 10
15.02650216204648
 20
13.85942878661984
 10
14.78550216204648
 20
13.85942878661984
  0
LWPOLYLINE
  5
38D7
330
3559
100
AcDbEntity
  8
HIDDEN
100
AcDbPolyline
 90
        4
 70
     0
 43
0.0
 10
15.10350216204649
 20
14.52852478947695
 10
13.35950216204649
 20
14.52852478947695
 10
13.35950216204649
 20
14.27852478947695
 10
15.10350216204649
 20
14.27852478947695
  0
LWPOLYLINE
  5
38DD
330
3559
100
AcDbEntity
  8
HIDDEN
100
AcDbPolyline
 90
        4
 70
     0
 43
0.0
 10
15.10350216204649
 20
9.184524789476952
 10
14.20850216204648
 20
9.184524789476952
 10
14.20850216204648
 20
8.934524789476952
 10
15.10350216204649
 20
8.934524789476952
  0
LINE
  5
38E3
330
3559
100
AcDbEntity
  8
HIDDEN
100
AcDbLine
 10
14.78550216204648
 20
13.01214723441334
 30
0.0
 11
14.78550216204648
 21
12.76890234454056
 31
0.0
  0
LINE
  5
38E4
330
3559
100
AcDbEntity
  8
HIDDEN
100
AcDbLine
 10
14.78550216204648
 20
12.76890234454056
 30
0.0
 11
14.98550216204649
 21
12.76542878661985
 31
0.0
  0
LWPOLYLINE
  5
38E5
330
3559
100
AcDbEntity
  8
HIDDEN
100
AcDbPolyline
 90
        4
 70
     0
 43
0.0
 10
14.78550216204648
 20
12.84342878661985
 10
15.02650216204648
 20
12.84342878661985
 10
15.02650216204648
 20
12.93742878661985
 10
14.78550216204648
 20
12.93742878661985
  0
LWPOLYLINE
  5
38EB
330
3559
100
AcDbEntity
  8
HIDDEN
100
AcDbPolyline
 90
        2
 70
     0
 43
0.0
 10
14.78550216204648
 20
13.01195522869912
 10
14.98550216204649
 20
13.01542878661984
  0
LWPOLYLINE
  5
38EF
330
3559
100
AcDbEntity
  8
HIDDEN
100
AcDbPolyline
 90
        2
 70
     0
 43
0.0
 10
14.78550216204648
 20
9.511051231556237
 10
14.98550216204647
 20
9.514524789476947
  0
LWPOLYLINE
  5
38F3
330
3559
100
AcDbEntity
  8
HIDDEN
100
AcDbPolyline
 90
        4
 70
     0
 43
0.0
 10
14.78550216204648
 20
9.342524789476943
 10
15.02650216204648
 20
9.342524789476943
 10
15.02650216204648
 20
9.436524789476946
 10
14.78550216204648
 20
9.436524789476946
  0
LINE
  5
38F9
330
3559
100
AcDbEntity
  8
HIDDEN
100
AcDbLine
 10
14.78550216204648
 20
9.267998347397661
 30
0.0
 11
14.98550216204647
 21
9.264524789476947
 31
0.0
  0
LINE
  5
38FA
330
3559
100
AcDbEntity
  8
HIDDEN
100
AcDbLine
 10
14.78550216204648
 20
9.511243237270445
 30
0.0
 11
14.78550216204648
 21
9.267998347397661
 31
0.0
  0
LINE
  5
38FB
330
3559
100
AcDbEntity
  8
HIDDEN
100
AcDbLine
 10
2.732416688764539
 20
2.888952583850326
 30
0.0
 11
2.748580078888073
 21
1.962952583850325
 31
0.0
  0
LINE
  5
38FC
330
3559
100
AcDbEntity
  8
HIDDEN
100
AcDbLine
 10
11.2324166887645
 20
2.888952583850315
 30
0.0
 11
6.531916688764538
 21
2.888952583850319
 31
0.0
  0
LINE
  5
38FD
330
3559
100
AcDbEntity
  8
HIDDEN
100
AcDbLine
 10
11.16625329864098
 20
1.962952583850319
 30
0.0
 11
2.748580078888073
 21
1.962952583850325
 31
0.0
  0
LINE
  5
38FE
330
3559
100
AcDbEntity
  8
HIDDEN
100
AcDbLine
 10
2.682416688764543
 20
2.888952583850326
 30
0.0
 11
2.682416688764531
 21
2.828952583850326
 31
0.0
  0
LINE
  5
38FF
330
3559
100
AcDbEntity
  8
HIDDEN
100
AcDbLine
 10
11.18241668876451
 20
2.888952583850326
 30
0.0
 11
11.16625329864098
 21
1.962952583850319
 31
0.0
  0
LINE
  5
3900
330
3559
100
AcDbEntity
  8
HIDDEN
100
AcDbLine
 10
11.2324166887645
 20
2.888952583850326
 30
0.0
 11
11.23241668876451
 21
2.828952583850326
 31
0.0
  0
LINE
  5
3901
330
3559
100
AcDbEntity
  8
HIDDEN
100
AcDbLine
 10
2.964916688764524
 20
3.772952583850329
 30
0.0
 11
2.964916688764524
 21
3.588952583850321
 31
0.0
  0
LINE
  5
3902
330
3559
100
AcDbEntity
  8
HIDDEN
100
AcDbLine
 10
3.089916688764528
 20
3.772952583850329
 30
0.0
 11
3.089916688764532
 21
3.588952583850321
 31
0.0
  0
LINE
  5
3903
330
3559
100
AcDbEntity
  8
HIDDEN
100
AcDbLine
 10
2.859916688764528
 20
3.772952583850329
 30
0.0
 11
3.194916688764524
 21
3.772952583850325
 31
0.0
  0
LWPOLYLINE
  5
3904
330
3559
100
AcDbEntity
  8
HIDDEN
100
AcDbPolyline
 90
        4
 70
     0
 43
0.0
 10
2.902416688764524
 20
1.844952583850324
 10
2.902416688764524
 20
3.588952583850321
 10
3.152416688764524
 20
3.588952583850321
 10
3.152416688764528
 20
1.844952583850324
  0
LINE
  5
390A
330
3559
100
AcDbEntity
  8
HIDDEN
100
AcDbLine
 10
3.194916688764524
 20
3.772952583850325
 30
0.0
 11
3.194916688764524
 21
1.962952583850325
 31
0.0
  0
LINE
  5
390B
330
3559
100
AcDbEntity
  8
HIDDEN
100
AcDbLine
 10
2.859916688764528
 20
3.772952583850328
 30
0.0
 11
2.859916688764528
 21
1.962952583850325
 31
0.0
  0
LINE
  5
390C
330
3559
100
AcDbEntity
  8
HIDDEN
100
AcDbLine
 10
11.05491668876452
 20
3.772952583850329
 30
0.0
 11
10.71991668876452
 21
3.772952583850325
 31
0.0
  0
LINE
  5
390D
330
3559
100
AcDbEntity
  8
HIDDEN
100
AcDbLine
 10
10.82491668876451
 20
3.772952583850329
 30
0.0
 11
10.82491668876451
 21
3.588952583850321
 31
0.0
  0
LINE
  5
390E
330
3559
100
AcDbEntity
  8
HIDDEN
100
AcDbLine
 10
10.94991668876452
 20
3.772952583850329
 30
0.0
 11
10.94991668876452
 21
3.588952583850321
 31
0.0
  0
LWPOLYLINE
  5
390F
330
3559
100
AcDbEntity
  8
HIDDEN
100
AcDbPolyline
 90
        4
 70
     0
 43
0.0
 10
11.01241668876453
 20
1.844952583850324
 10
11.01241668876453
 20
3.588952583850321
 10
10.76241668876453
 20
3.588952583850321
 10
10.76241668876452
 20
1.844952583850324
  0
LINE
  5
3915
330
3559
100
AcDbEntity
  8
HIDDEN
100
AcDbLine
 10
10.71991668876452
 20
3.772952583850325
 30
0.0
 11
10.71991668876452
 21
1.962952583850319
 31
0.0
  0
LINE
  5
3916
330
3559
100
AcDbEntity
  8
HIDDEN
100
AcDbLine
 10
11.05491668876452
 20
3.772952583850328
 30
0.0
 11
11.05491668876452
 21
1.962952583850319
 31
0.0
  0
LWPOLYLINE
  5
3917
330
3559
100
AcDbEntity
  8
HIDDEN
100
AcDbPolyline
 90
        4
 70
     0
 43
0.0
 10
4.979512691621631
 20
2.162952583850334
 10
4.979512691621631
 20
1.921952583850335
 10
4.885512691621632
 20
1.921952583850331
 10
4.885512691621632
 20
2.16295258385033
  0
LINE
  5
391D
330
3559
100
AcDbEntity
  8
HIDDEN
100
AcDbLine
 10
4.810794243828136
 20
2.162952583850323
 30
0.0
 11
5.05403913370092
 21
2.162952583850334
 31
0.0
  0
LINE
  5
391E
330
3559
100
AcDbEntity
  8
HIDDEN
100
AcDbLine
 10
5.05403913370092
 20
2.162952583850334
 30
0.0
 11
5.057512691621634
 21
1.962952583850329
 31
0.0
  0
LWPOLYLINE
  5
391F
330
3559
100
AcDbEntity
  8
HIDDEN
100
AcDbPolyline
 90
        2
 70
     0
 43
0.0
 10
4.810986249542344
 20
2.162952583850334
 10
4.807512691621634
 20
1.962952583850329
  0
LWPOLYLINE
  5
3923
330
3559
100
AcDbEntity
  8
HIDDEN
100
AcDbPolyline
 90
        4
 70
     0
 43
0.0
 10
4.607512691621631
 20
2.162952583850334
 10
4.607512691621631
 20
1.921952583850335
 10
4.513512691621631
 20
1.921952583850331
 10
4.513512691621631
 20
2.16295258385033
  0
LINE
  5
3929
330
3559
100
AcDbEntity
  8
HIDDEN
100
AcDbLine
 10
4.438794243828136
 20
2.162952583850323
 30
0.0
 11
4.682039133700921
 21
2.162952583850334
 31
0.0
  0
LINE
  5
392A
330
3559
100
AcDbEntity
  8
HIDDEN
100
AcDbLine
 10
4.682039133700921
 20
2.162952583850334
 30
0.0
 11
4.685512691621634
 21
1.962952583850329
 31
0.0
  0
LWPOLYLINE
  5
392B
330
3559
100
AcDbEntity
  8
HIDDEN
100
AcDbPolyline
 90
        2
 70
     0
 43
0.0
 10
4.438986249542344
 20
2.162952583850334
 10
4.435512691621634
 20
1.962952583850329
  0
LINE
  5
392F
330
3559
100
AcDbEntity
  8
HIDDEN
100
AcDbLine
 10
11.08558139496388
 20
5.661952583850323
 30
0.0
 11
2.829251982565169
 21
5.661952583850324
 31
0.0
  0
LINE
  5
3930
330
3559
100
AcDbEntity
  8
HIDDEN
100
AcDbLine
 10
2.732416688764539
 20
2.888952583850326
 30
0.0
 11
2.829251982565171
 21
5.661952583850325
 31
0.0
  0
LINE
  5
3931
330
3559
100
AcDbEntity
  8
HIDDEN
100
AcDbLine
 10
11.18241668876451
 20
2.888952583850326
 30
0.0
 11
11.08558139496388
 21
5.661952583850323
 31
0.0
  0
LINE
  5
3932
330
3559
100
AcDbEntity
  8
OBJECT
100
AcDbLine
 10
11.16625329864098
 20
14.65536139935341
 30
0.0
 11
10.93191668876452
 21
14.65536139935341
 31
0.0
  0
LINE
  5
3933
330
3559
100
AcDbEntity
  8
OBJECT
100
AcDbLine
 10
7.343916688764526
 20
14.65536139935341
 30
0.0
 11
2.748580078888072
 21
14.65536139935341
 31
0.0
  0
LINE
  5
3934
330
3559
100
AcDbEntity
  8
OBJECT
100
AcDbLine
 10
11.16625329864098
 20
8.807688179600486
 30
0.0
 11
2.748580078888071
 21
8.807688179600482
 31
0.0
  0
LINE
  5
3935
330
3559
100
AcDbEntity
  8
OBJECT
100
AcDbLine
 10
11.16625329864098
 20
8.807688179600486
 30
0.0
 11
11.16625329864098
 21
9.034524789476954
 31
0.0
  0
LINE
  5
3936
330
3559
100
AcDbEntity
  8
OBJECT
100
AcDbLine
 10
2.748580078888069
 20
8.807688179600482
 30
0.0
 11
2.748580078888071
 21
9.034524789476954
 31
0.0
  0
LINE
  5
3937
330
3559
100
AcDbEntity
  8
HIDDEN
100
AcDbLine
 10
3.021916688764596
 20
3.198952583850331
 30
0.0
 11
3.021916688764529
 21
2.828952583850326
 31
0.0
  0
LINE
  5
3938
330
3559
100
AcDbEntity
  8
HIDDEN
100
AcDbLine
 10
6.531916688764592
 20
3.198952583850331
 30
0.0
 11
6.531916688764527
 21
2.828952583850324
 31
0.0
  0
LINE
  5
3939
330
3559
100
AcDbEntity
  8
HIDDEN
100
AcDbLine
 10
3.021916688764541
 20
2.888952583850324
 30
0.0
 11
2.682416688764542
 21
2.888952583850326
 31
0.0
  0
LINE
  5
393A
330
3559
100
AcDbEntity
  8
HIDDEN
100
AcDbLine
 10
3.021916688764532
 20
1.952952583850315
 30
0.0
 11
6.531916688764527
 21
1.952952583850315
 31
0.0
  0
LINE
  5
393B
330
3559
100
AcDbEntity
  8
HIDDEN
100
AcDbLine
 10
3.021916688764532
 20
2.794952583850323
 30
0.0
 11
3.021916688764532
 21
1.952952583850315
 31
0.0
  0
LINE
  5
393C
330
3559
100
AcDbEntity
  8
HIDDEN
100
AcDbLine
 10
6.531916688764527
 20
2.794952583850323
 30
0.0
 11
6.531916688764527
 21
1.952952583850315
 31
0.0
  0
LINE
  5
393D
330
3559
100
AcDbEntity
  8
HIDDEN
100
AcDbLine
 10
3.021916688764596
 20
3.198952583850331
 30
0.0
 11
6.531916688764592
 21
3.198952583850331
 31
0.0
  0
LINE
  5
393E
330
3559
100
AcDbEntity
  8
HIDDEN
100
AcDbLine
 10
2.912416688764526
 20
3.772952583850328
 30
0.0
 11
2.912416688764526
 21
5.661952583850325
 31
0.0
  0
LINE
  5
393F
330
3559
100
AcDbEntity
  8
HIDDEN
100
AcDbLine
 10
3.142416688764527
 20
3.772952583850328
 30
0.0
 11
3.142416688764526
 21
5.661952583850325
 31
0.0
  0
LINE
  5
3940
330
3559
100
AcDbEntity
  8
HIDDEN
100
AcDbLine
 10
2.982416688764526
 20
3.772952583850328
 30
0.0
 11
2.982416688764526
 21
5.661952583850325
 31
0.0
  0
LINE
  5
3941
330
3559
100
AcDbEntity
  8
HIDDEN
100
AcDbLine
 10
3.072416688764525
 20
3.772952583850328
 30
0.0
 11
3.072416688764525
 21
5.661952583850325
 31
0.0
  0
LINE
  5
3942
330
3559
100
AcDbEntity
  8
HIDDEN
100
AcDbLine
 10
11.00241668876453
 20
3.772952583850328
 30
0.0
 11
11.00241668876453
 21
5.661952583850325
 31
0.0
  0
LINE
  5
3943
330
3559
100
AcDbEntity
  8
HIDDEN
100
AcDbLine
 10
10.93241668876453
 20
3.772952583850328
 30
0.0
 11
10.93241668876453
 21
5.661952583850325
 31
0.0
  0
LINE
  5
3944
330
3559
100
AcDbEntity
  8
HIDDEN
100
AcDbLine
 10
10.84241668876453
 20
3.772952583850328
 30
0.0
 11
10.84241668876453
 21
5.661952583850325
 31
0.0
  0
LINE
  5
3945
330
3559
100
AcDbEntity
  8
HIDDEN
100
AcDbLine
 10
10.77241668876453
 20
3.772952583850328
 30
0.0
 11
10.77241668876453
 21
5.661952583850325
 31
0.0
  0
LINE
  5
3946
330
3559
100
AcDbEntity
  8
HIDDEN
100
AcDbLine
 10
16.44003383877152
 20
23.51025931464667
 30
0.0
 11
16.44003383877152
 21
17.53025931464669
 31
0.0
  0
LINE
  5
3947
330
3559
100
AcDbEntity
  8
HIDDEN
100
AcDbLine
 10
17.16703383877152
 20
18.29997776244017
 30
0.0
 11
17.16703383877152
 21
18.05673287256739
 31
0.0
  0
LWPOLYLINE
  5
3948
330
3559
100
AcDbEntity
  8
HIDDEN
100
AcDbPolyline
 90
        4
 70
     0
 43
0.0
 10
17.16703383877152
 20
18.13125931464668
 10
17.40703383877151
 20
18.13125931464668
 10
17.40703383877153
 20
18.22525931464668
 10
17.16703383877152
 20
18.22525931464668
  0
LWPOLYLINE
  5
394E
330
3559
100
AcDbEntity
  8
HIDDEN
100
AcDbPolyline
 90
        4
 70
     0
 43
0.0
 10
17.48403383877152
 20
17.97325931464667
 10
16.58903383877153
 20
17.97325931464667
 10
16.58903383877153
 20
17.72325931464669
 10
17.48403383877152
 20
17.72325931464669
  0
LINE
  5
3954
330
3559
100
AcDbEntity
  8
HIDDEN
100
AcDbLine
 10
16.40503383877152
 20
18.01575931464669
 30
0.0
 11
17.36603383877152
 21
18.01575931464672
 31
0.0
  0
LINE
  5
3955
330
3559
100
AcDbEntity
  8
HIDDEN
100
AcDbLine
 10
16.40503383877152
 20
17.68075931464669
 30
0.0
 11
17.36603383877152
 21
17.68075931464669
 31
0.0
  0
LINE
  5
3956
330
3559
100
AcDbEntity
  8
HIDDEN
100
AcDbLine
 10
16.40503383877152
 20
17.78575931464668
 30
0.0
 11
16.58903383877153
 21
17.78575931464668
 31
0.0
  0
LINE
  5
3957
330
3559
100
AcDbEntity
  8
HIDDEN
100
AcDbLine
 10
16.40503383877152
 20
17.91075931464669
 30
0.0
 11
16.58903383877153
 21
17.91075931464669
 31
0.0
  0
LINE
  5
3958
330
3559
100
AcDbEntity
  8
HIDDEN
100
AcDbLine
 10
16.40503383877152
 20
18.01575931464669
 30
0.0
 11
16.40503383877152
 21
17.68075931464669
 31
0.0
  0
LINE
  5
3959
330
3559
100
AcDbEntity
  8
HIDDEN
100
AcDbLine
 10
17.16703383877152
 20
18.05673287256739
 30
0.0
 11
17.36603383877152
 21
18.05325931464668
 31
0.0
  0
LWPOLYLINE
  5
395A
330
3559
100
AcDbEntity
  8
HIDDEN
100
AcDbPolyline
 90
        2
 70
     0
 43
0.0
 10
17.16703383877152
 20
18.29978575672597
 10
17.36603383877152
 20
18.30325931464668
  0
LINE
  5
395E
330
3559
100
AcDbEntity
  8
HIDDEN
100
AcDbLine
 10
16.44003383877152
 20
17.58025931464668
 30
0.0
 11
17.36603383877152
 21
17.59642270477022
 31
0.0
  0
LINE
  5
395F
330
3559
100
AcDbEntity
  8
HIDDEN
100
AcDbLine
 10
17.36603383877152
 20
23.44409592452314
 30
0.0
 11
17.36603383877152
 21
17.59642270477022
 31
0.0
  0
LINE
  5
3960
330
3559
100
AcDbEntity
  8
HIDDEN
100
AcDbLine
 10
17.16703383877153
 20
22.68297776244018
 30
0.0
 11
17.16703383877152
 21
22.43973287256739
 31
0.0
  0
LWPOLYLINE
  5
3961
330
3559
100
AcDbEntity
  8
HIDDEN
100
AcDbPolyline
 90
        2
 70
     0
 43
0.0
 10
17.16703383877152
 20
21.81178575672598
 10
17.36603383877152
 20
21.81525931464669
  0
LWPOLYLINE
  5
3965
330
3559
100
AcDbEntity
  8
HIDDEN
100
AcDbPolyline
 90
        4
 70
     0
 43
0.0
 10
17.16703383877152
 20
21.64325931464668
 10
17.40703383877153
 20
21.64325931464668
 10
17.40703383877153
 20
21.73725931464669
 10
17.16703383877152
 20
21.73725931464669
  0
LINE
  5
396B
330
3559
100
AcDbEntity
  8
HIDDEN
100
AcDbLine
 10
17.16703383877152
 20
21.56873287256739
 30
0.0
 11
17.36603383877152
 21
21.56525931464668
 31
0.0
  0
LINE
  5
396C
330
3559
100
AcDbEntity
  8
HIDDEN
100
AcDbLine
 10
17.16703383877153
 20
21.81197776244017
 30
0.0
 11
17.16703383877152
 21
21.56873287256739
 31
0.0
  0
LINE
  5
396D
330
3559
100
AcDbEntity
  8
HIDDEN
100
AcDbLine
 10
17.16703383877152
 20
22.43973287256739
 30
0.0
 11
17.36603383877152
 21
22.43625931464667
 31
0.0
  0
LWPOLYLINE
  5
396E
330
3559
100
AcDbEntity
  8
HIDDEN
100
AcDbPolyline
 90
        4
 70
     0
 43
0.0
 10
17.16703383877152
 20
22.51425931464667
 10
17.40703383877153
 20
22.51425931464667
 10
17.40703383877153
 20
22.60825931464669
 10
17.16703383877152
 20
22.60825931464669
  0
LWPOLYLINE
  5
3974
330
3559
100
AcDbEntity
  8
HIDDEN
100
AcDbPolyline
 90
        2
 70
     0
 43
0.0
 10
17.16703383877152
 20
22.68278575672597
 10
17.36603383877152
 20
22.68625931464667
  0
LWPOLYLINE
  5
3978
330
3559
100
AcDbEntity
  8
HIDDEN
100
AcDbPolyline
 90
        4
 70
     0
 43
0.0
 10
17.48403383877152
 20
23.31725931464667
 10
15.74003383877153
 20
23.31725931464667
 10
15.74003383877153
 20
23.06725931464669
 10
17.48403383877152
 20
23.06725931464667
  0
LINE
  5
397E
330
3559
100
AcDbEntity
  8
HIDDEN
100
AcDbLine
 10
15.55603383877152
 20
23.25475931464669
 30
0.0
 11
15.74003383877153
 21
23.25475931464669
 31
0.0
  0
LINE
  5
397F
330
3559
100
AcDbEntity
  8
HIDDEN
100
AcDbLine
 10
15.55603383877152
 20
23.12975931464667
 30
0.0
 11
15.74003383877153
 21
23.12975931464667
 31
0.0
  0
LINE
  5
3980
330
3559
100
AcDbEntity
  8
HIDDEN
100
AcDbLine
 10
16.13003383877153
 20
23.58525931464667
 30
0.0
 11
17.37603383877153
 21
23.58525931464669
 31
0.0
  0
LINE
  5
3981
330
3559
100
AcDbEntity
  8
HIDDEN
100
AcDbLine
 10
16.13003383877153
 20
23.48125931464666
 30
0.0
 11
17.37603383877153
 21
23.48125931464668
 31
0.0
  0
LINE
  5
3982
330
3559
100
AcDbEntity
  8
HIDDEN
100
AcDbLine
 10
16.44003383877152
 20
23.42225931464669
 30
0.0
 11
17.36503383877152
 21
23.42225931464669
 31
0.0
  0
LINE
  5
3983
330
3559
100
AcDbEntity
  8
HIDDEN
100
AcDbLine
 10
16.44003383877152
 20
23.46025931464667
 30
0.0
 11
17.36603383877152
 21
23.44409592452314
 31
0.0
  0
LINE
  5
3984
330
3559
100
AcDbEntity
  8
HIDDEN
100
AcDbLine
 10
17.30303383877153
 20
23.48125931464668
 30
0.0
 11
17.30303383877153
 21
23.44519559361363
 31
0.0
  0
LINE
  5
3985
330
3559
100
AcDbEntity
  8
HIDDEN
100
AcDbLine
 10
17.30303383877153
 20
23.64719262711707
 30
0.0
 11
17.30303383877153
 21
23.58525931464669
 31
0.0
  0
LWPOLYLINE
  5
3986
330
3559
100
AcDbEntity
  8
HIDDEN
100
AcDbPolyline
 90
        4
 70
     0
 43
0.0
 10
17.36603383877152
 20
23.02475931464669
 10
15.55603383877152
 20
23.02475931464669
 10
15.55603383877152
 20
23.35975931464667
 10
17.36603383877152
 20
23.35975931464667
  0
LINE
  5
398C
330
3559
100
AcDbEntity
  8
HIDDEN
100
AcDbLine
 10
17.37603383877153
 20
23.58525931464669
 30
0.0
 11
17.37603383877153
 21
23.48125931464669
 31
0.0
  0
LINE
  5
398D
330
3559
100
AcDbEntity
  8
HIDDEN
100
AcDbLine
 10
16.44003383877152
 20
17.58025931464668
 30
0.0
 11
15.55146667493643
 21
17.61128876375289
 31
0.0
  0
LINE
  5
398E
330
3559
100
AcDbEntity
  8
HIDDEN
100
AcDbLine
 10
16.44003383877152
 20
17.53025931464669
 30
0.0
 11
16.50003383877153
 21
17.53025931464669
 31
0.0
  0
LINE
  5
398F
330
3559
100
AcDbEntity
  8
HIDDEN
100
AcDbLine
 10
16.44003383877152
 20
23.51025931464667
 30
0.0
 11
16.50003383877153
 21
23.51025931464667
 31
0.0
  0
LINE
  5
3990
330
3559
100
AcDbEntity
  8
HIDDEN
100
AcDbLine
 10
13.66703383877152
 20
22.88290055151871
 30
0.0
 11
15.55146667493643
 21
17.61128876375289
 31
0.0
  0
LINE
  5
3991
330
3559
100
AcDbEntity
  8
HIDDEN
100
AcDbLine
 10
15.55603383877152
 20
23.30725931464669
 30
0.0
 11
13.66703383877153
 21
23.30725931464669
 31
0.0
  0
LINE
  5
3992
330
3559
100
AcDbEntity
  8
HIDDEN
100
AcDbLine
 10
15.55603383877152
 20
23.23725931464668
 30
0.0
 11
13.66703383877153
 21
23.23725931464668
 31
0.0
  0
LINE
  5
3993
330
3559
100
AcDbEntity
  8
HIDDEN
100
AcDbLine
 10
15.55603383877152
 20
23.14725931464669
 30
0.0
 11
13.66703383877153
 21
23.14725931464669
 31
0.0
  0
LINE
  5
3994
330
3559
100
AcDbEntity
  8
HIDDEN
100
AcDbLine
 10
15.55603383877152
 20
23.07725931464668
 30
0.0
 11
13.66703383877153
 21
23.07725931464668
 31
0.0
  0
LINE
  5
3995
330
3559
100
AcDbEntity
  8
HIDDEN
100
AcDbLine
 10
13.66703383877152
 20
23.36342402084607
 30
0.0
 11
13.66703383877152
 21
22.88290055151871
 31
0.0
  0
LINE
  5
3996
330
3559
100
AcDbEntity
  8
HIDDEN
100
AcDbLine
 10
16.44003383877152
 20
23.46025931464667
 30
0.0
 11
13.66703383877152
 21
23.36342402084607
 31
0.0
  0
LINE
  5
3997
330
3559
100
AcDbEntity
  8
HIDDEN
100
AcDbLine
 10
16.40503383877152
 20
17.73325931464669
 30
0.0
 11
15.50786609879333
 21
17.73325931464669
 31
0.0
  0
LINE
  5
3998
330
3559
100
AcDbEntity
  8
HIDDEN
100
AcDbLine
 10
16.40503383877152
 20
17.80325931464669
 30
0.0
 11
15.48284333462892
 21
17.80325931464668
 31
0.0
  0
LINE
  5
3999
330
3559
100
AcDbEntity
  8
HIDDEN
100
AcDbLine
 10
16.40503383877152
 20
17.89325931464669
 30
0.0
 11
15.4506712092747
 21
17.89325931464668
 31
0.0
  0
LINE
  5
399A
330
3559
100
AcDbEntity
  8
HIDDEN
100
AcDbLine
 10
16.40503383877152
 20
17.96325931464669
 30
0.0
 11
15.42564844511029
 21
17.96325931464669
 31
0.0
  0
LINE
  5
399B
330
3559
100
AcDbEntity
  8
OBJECT
100
AcDbLine
 10
3.113929621721556
 20
22.27749036900048
 30
0.0
 11
3.200903755807499
 21
22.19051623491453
 31
0.0
  0
LINE
  5
399C
330
3559
100
AcDbEntity
  8
OBJECT
100
AcDbLine
 10
3.113929621721552
 20
22.19051623491453
 30
0.0
 11
3.200903755807499
 21
22.27749036900048
 31
0.0
  0
LINE
  5
399D
330
3559
100
AcDbEntity
  8
OBJECT
100
AcDbLine
 10
3.113929621721552
 20
17.92109835783287
 30
0.0
 11
3.200903755807499
 21
18.00807249191883
 31
0.0
  0
LINE
  5
399E
330
3559
100
AcDbEntity
  8
OBJECT
100
AcDbLine
 10
3.113929621721556
 20
18.00807249191883
 30
0.0
 11
3.200903755807499
 21
17.92109835783287
 31
0.0
  0
LINE
  5
399F
330
3559
100
AcDbEntity
  8
HIDDEN
100
AcDbLine
 10
16.20303383877153
 20
23.64719262711707
 30
0.0
 11
16.20303383877153
 21
23.58525931464669
 31
0.0
  0
LINE
  5
39A0
330
3559
100
AcDbEntity
  8
HIDDEN
100
AcDbLine
 10
16.13003383877153
 20
23.58525931464669
 30
0.0
 11
16.13003383877153
 21
23.48125931464669
 31
0.0
  0
LINE
  5
39A1
330
3559
100
AcDbEntity
  8
HIDDEN
100
AcDbLine
 10
16.20303383877153
 20
23.48125931464668
 30
0.0
 11
16.20303383877153
 21
23.42225931464669
 31
0.0
  0
LINE
  5
39A2
330
3559
100
AcDbEntity
  8
HIDDEN
100
AcDbLine
 10
16.44003383877152
 20
23.42225931464669
 30
0.0
 11
15.35185621402092
 21
23.42225931464669
 31
0.0
  0
DIMENSION
  5
39A3
330
3559
100
AcDbEntity
  8
DIM
100
AcDbDimension
  2
*D50
 10
11.16625329864098
 20
10.16162788646892
 30
0.0
 11
6.417104188764526
 21
10.16162788646892
 31
0.0
 70
   160
  1
*<>
 71
     5
 42
8.417673219752909
  3
23NSTD
100
AcDbAlignedDimension
 13
2.748580078888071
 23
9.940642022257421
 33
0.0
 14
11.16625329864098
 24
9.940642022257421
 34
0.0
100
AcDbRotatedDimension
  0
DIMENSION
  5
39B1
330
3559
100
AcDbEntity
  8
DIM
100
AcDbDimension
  2
*D51
 10
4.697864327524785
 20
8.807688179600486
 30
0.0
 11
4.697864327524785
 21
11.19777478947694
 31
0.0
 70
   160
  1
*<>
 71
     5
 42
5.847673219752925
  3
23NSTD
100
AcDbAlignedDimension
 13
4.807970771794045
 23
14.65536139935341
 33
0.0
 14
4.807970771794048
 24
8.807688179600486
 34
0.0
 50
90.0
100
AcDbRotatedDimension
  0
TEXT
  5
39BF
330
3559
100
AcDbEntity
  8
TEXT
100
AcDbText
 10
12.48327208040504
 20
1.321236267774555
 30
0.0
 40
0.218
  1
FROM CLOSED END OF THE BOX.
 41
0.75
100
AcDbText
  0
TEXT
  5
39C0
330
3559
100
AcDbEntity
  8
TEXT
100
AcDbText
 10
12.16320465916675
 20
1.684569601107887
 30
0.0
 40
0.218
  1
* THESE INSIDE DIMENSIONS ARE TAKEN
 41
0.75
100
AcDbText
  0
TEXT
  5
39C1
330
3559
100
AcDbEntity
  8
TEXT
100
AcDbText
 10
12.48327208040504
 20
0.585257745768903
 30
0.0
 40
0.218
  1
OPEN END DUE TO TAPER.
 41
0.75
100
AcDbText
  0
TEXT
  5
39C2
330
3559
100
AcDbEntity
  8
TEXT
100
AcDbText
 10
12.48331470316177
 20
0.9485910791022361
 30
0.0
 40
0.218
  1
DIMENSIONS INCREASE SLIGHTLY AT
 41
0.75
100
AcDbText
  0
DIMENSION
  5
39C3
330
3559
100
AcDbEntity
  8
DIM
100
AcDbDimension
  2
*D52
 10
14.98550216204647
 20
12.30962423928262
 30
0.0
 11
16.06011153704648
 21
12.30962423928262
 31
0.0
 70
    32
 71
     5
 42
0.1999999999999993
  3
23NSTD
100
AcDbAlignedDimension
 13
14.78550216204648
 23
12.76890234454056
 33
0.0
 14
14.98550216204647
 24
12.36855739351207
 34
0.0
100
AcDbRotatedDimension
  0
DIMENSION
  5
39D1
330
3559
100
AcDbEntity
  8
DIM
100
AcDbDimension
  2
*D53
 10
13.54903383877152
 20
22.63849787890146
 30
0.0
 11
13.89965009114169
 21
20.60530100108206
 31
0.0
 70
    34
 71
     5
 42
0.3433123254601273
  3
23NSTDI
100
AcDb2LineAngularDimension
 13
13.55265185633238
 23
22.61762818492968
 33
0.0
 14
15.36993930700594
 24
17.53385243931786
 34
0.0
 15
13.54903383877152
 25
23.4223354198385
 35
0.0
 16
13.78341751544638
 26
20.5885599595075
 36
0.0
  0
DIMENSION
  5
39E0
330
3559
100
AcDbEntity
  8
DIM
100
AcDbDimension
  2
*D54
 10
16.95692354546983
 20
19.6356432021103
 30
0.0
 11
15.95884819878025
 21
19.27886314470293
 31
0.0
 70
    33
 71
     5
 42
2.119855096022483
  3
23NSTD
100
AcDbAlignedDimension
 13
15.05462170146773
 23
18.65954536711275
 33
0.0
 14
17.05077239484688
 24
19.37310548192749
 34
0.0
  0
LINE
  5
39EE
330
3559
100
AcDbEntity
  8
DIM
100
AcDbLine
 10
17.01395589842489
 20
19.47609789046429
 30
0.0
 11
17.36603383877152
 21
18.49117649399736
 31
0.0
  0
DIMENSION
  5
39EF
330
3559
100
AcDbEntity
  8
DIM
100
AcDbDimension
  2
*D55
 10
14.04142251483387
 20
21.49392220087894
 30
0.0
 11
15.54227725200743
 21
22.03042983135492
 31
0.0
 70
    33
 71
     5
 42
3.187729837771872
  3
23NSTD
100
AcDbAlignedDimension
 13
16.97538848015227
 23
22.75644672630923
 33
0.0
 14
13.97367900580514
 24
21.68343146535729
 34
0.0
  0
LINE
  5
39FD
330
3559
100
AcDbEntity
  8
DIM
100
AcDbLine
 10
17.01220497657426
 20
22.65345431777244
 30
0.0
 11
16.72557965970695
 21
23.45527509380227
 31
0.0
  0
DIMENSION
  5
39FE
330
3559
100
AcDbEntity
  8
DIM
100
AcDbDimension
  2
*D56
 10
17.48403383877152
 20
16.85942021059108
 30
0.0
 11
16.43406872696691
 21
16.85942021059108
 31
0.0
 70
    32
 71
     5
 42
2.099930223609218
  3
23NSTD
100
AcDbAlignedDimension
 13
15.3841036151623
 23
17.49422845675421
 33
0.0
 14
17.48403383877152
 24
17.53276885664167
 34
0.0
100
AcDbRotatedDimension
  0
LINE
  5
3A0C
330
3559
100
AcDbEntity
  8
HIDDEN
100
AcDbLine
 10
11.18063627214183
 20
2.786952583850315
 30
0.0
 11
11.05491668876452
 21
2.786952583850315
 31
0.0
  0
LINE
  5
3A0D
330
3559
100
AcDbEntity
  8
HIDDEN
100
AcDbLine
 10
2.734197105387218
 20
2.786952583850315
 30
0.0
 11
2.859916688764528
 21
2.786952583850315
 31
0.0
  0
DIMENSION
  5
3A0E
330
3559
100
AcDbEntity
  8
DIM
100
AcDbDimension
  2
*D57
 10
14.05950216204647
 20
10.99848232555643
 30
0.0
 11
12.95754903704648
 21
10.99848232555643
 31
0.0
 70
    32
 71
     5
 42
0.9260000000000001
  3
23NSTD
100
AcDbAlignedDimension
 13
14.98550216204647
 23
10.96532457531809
 33
0.0
 14
14.05950216204647
 24
10.96532457531809
 34
0.0
100
AcDbRotatedDimension
  0
TEXT
  5
3A1C
330
3559
100
AcDbEntity
  8
TEXT
100
AcDbText
 10
2.35366339610762
 20
7.257323843691083
 30
0.0
 40
0.218
  1
%%UBODY BOTTOM
 41
0.75
100
AcDbText
  0
TEXT
  5
3A1D
330
3559
100
AcDbEntity
  8
TEXT
100
AcDbText
 10
1.870825282094003
 20
0.5235950280241683
 30
0.0
 40
0.218
  1
%%UREAR VIEW
 41
0.75
100
AcDbText
  0
TEXT
  5
3A1E
330
3559
100
AcDbEntity
  8
TEXT
100
AcDbText
 10
1.335256542232541
 20
6.906084140932469
 30
0.0
 40
0.218
  1
(WITH BODY TOP REMOVED)
 41
0.75
100
AcDbText
  0
DIMENSION
  5
3A1F
330
3559
100
AcDbEntity
  8
DIM
100
AcDbDimension
  2
*D58
 10
15.55146667493643
 20
18.67973792116748
 30
0.0
 11
14.28253163649439
 21
18.67973792116748
 31
0.0
 70
   160
 71
     5
 42
1.615567163835089
  3
23NSTD
100
AcDbAlignedDimension
 13
17.16703383877152
 23
18.29997776244017
 33
0.0
 14
15.55146667493643
 24
17.61128876375289
 34
0.0
100
AcDbRotatedDimension
  0
DIMENSION
  5
3A2C
330
3559
100
AcDbEntity
  8
DIM
100
AcDbDimension
  2
*D59
 10
13.83215934633565
 20
22.84391312071496
 30
0.0
 11
15.49959659255359
 21
22.84391312071496
 31
0.0
 70
    32
 71
     5
 42
3.334874492435885
  3
23NSTD
100
AcDbAlignedDimension
 13
17.16703383877153
 23
22.68278575672597
 33
0.0
 14
13.83215934633565
 24
22.42096974908832
 34
0.0
100
AcDbRotatedDimension
  0
TEXT
  5
3A3A
330
3559
100
AcDbEntity
  8
DIM
100
AcDbText
 10
15.31511578426889
 20
21.63150289483322
 30
0.0
 40
0.218
  1
MAX.
 41
0.75
100
AcDbText
  0
TEXT
  5
3A3B
330
3559
100
AcDbEntity
  8
DIM
100
AcDbText
 10
15.24992539899642
 20
22.43755428874643
 30
0.0
 40
0.218
  1
MAX.
 41
0.75
100
AcDbText
  0
TEXT
  5
3A3C
330
3559
100
AcDbEntity
  8
DIM
100
AcDbText
 10
14.07159722710542
 20
18.26667086416316
 30
0.0
 40
0.218
  1
MIN.
 41
0.75
100
AcDbText
  0
TEXT
  5
3A3D
330
3559
100
AcDbEntity
  8
DIM
100
AcDbText
 10
15.75283764100896
 20
18.87766670928148
 30
0.0
 40
0.218
  1
MIN.
 41
0.75
100
AcDbText
  0
LINE
  5
3A3E
330
3559
100
AcDbEntity
  8
OBJECT
100
AcDbLine
 10
2.899916688764535
 20
22.47288694912834
 30
0.0
 11
11.01491668876451
 21
22.47288694912832
 31
0.0
  0
LINE
  5
3A3F
330
3559
100
AcDbEntity
  8
OBJECT
100
AcDbLine
 10
2.899916688764522
 20
17.67049807107001
 30
0.0
 11
2.899916688764535
 21
22.47288694912834
 31
0.0
  0
LINE
  5
3A40
330
3559
100
AcDbEntity
  8
HIDDEN
100
AcDbLine
 10
3.02141668876453
 20
18.07004965121752
 30
0.0
 11
3.02141668876453
 21
22.12853907561584
 31
0.0
  0
LINE
  5
3A41
330
3559
100
AcDbEntity
  8
HIDDEN
100
AcDbLine
 10
3.02141668876453
 20
22.12853907561584
 30
0.0
 11
3.161416688764532
 21
22.12853907561584
 31
0.0
  0
ARC
  5
3A42
330
3559
100
AcDbEntity
  8
HIDDEN
100
AcDbCircle
 10
3.161416688764532
 20
22.24553907561584
 30
0.0
 40
0.117
100
AcDbArc
 50
270.0
 51
0.0000000000003197
  0
LINE
  5
3A43
330
3559
100
AcDbEntity
  8
HIDDEN
100
AcDbLine
 10
3.278416688764528
 20
22.24553907561584
 30
0.0
 11
3.278416688764536
 21
22.40161609025052
 31
0.0
  0
LINE
  5
3A44
330
3559
100
AcDbEntity
  8
HIDDEN
100
AcDbLine
 10
3.278416688764521
 20
17.79697263658284
 30
0.0
 11
3.278416688764521
 21
17.95304965121753
 31
0.0
  0
ARC
  5
3A45
330
3559
100
AcDbEntity
  8
HIDDEN
100
AcDbCircle
 10
3.161416688764524
 20
17.95304965121753
 30
0.0
 40
0.117
100
AcDbArc
 50
0.0
 51
90.0
  0
LINE
  5
3A46
330
3559
100
AcDbEntity
  8
HIDDEN
100
AcDbLine
 10
3.02141668876453
 20
18.07004965121752
 30
0.0
 11
3.161416688764524
 21
18.07004965121752
 31
0.0
  0
LINE
  5
3A47
330
3559
100
AcDbEntity
  8
OBJECT
100
AcDbLine
 10
11.01491668876452
 20
17.67049807106999
 30
0.0
 11
11.01491668876451
 21
22.47288694912832
 31
0.0
  0
LINE
  5
3A48
330
3559
100
AcDbEntity
  8
HIDDEN
100
AcDbLine
 10
10.63641668876452
 20
22.24553907561584
 30
0.0
 11
10.63641668876451
 21
22.40161609025052
 31
0.0
  0
LINE
  5
3A49
330
3559
100
AcDbEntity
  8
OBJECT
100
AcDbLine
 10
10.8009037558075
 20
22.19051623491453
 30
0.0
 11
10.71392962172154
 21
22.27749036900048
 31
0.0
  0
LINE
  5
3A4A
330
3559
100
AcDbEntity
  8
OBJECT
100
AcDbLine
 10
10.80090375580748
 20
22.27749036900048
 30
0.0
 11
10.71392962172154
 21
22.19051623491453
 31
0.0
  0
CIRCLE
  5
3A4B
330
3559
100
AcDbEntity
  8
OBJECT
100
AcDbCircle
 10
10.75741668876452
 20
22.23400330195751
 30
0.0
 40
0.117
  0
LINE
  5
3A4C
330
3559
100
AcDbEntity
  8
OBJECT
100
AcDbLine
 10
10.8009037558075
 20
17.92109835783287
 30
0.0
 11
10.71392962172154
 21
18.00807249191883
 31
0.0
  0
LINE
  5
3A4D
330
3559
100
AcDbEntity
  8
OBJECT
100
AcDbLine
 10
10.80090375580748
 20
18.00807249191883
 30
0.0
 11
10.71392962172154
 21
17.92109835783287
 31
0.0
  0
CIRCLE
  5
3A4E
330
3559
100
AcDbEntity
  8
OBJECT
100
AcDbCircle
 10
10.75741668876452
 20
17.96458542487586
 30
0.0
 40
0.117
  0
ARC
  5
3A4F
330
3559
100
AcDbEntity
  8
HIDDEN
100
AcDbCircle
 10
10.75341668876451
 20
17.95304965121753
 30
0.0
 40
0.117
100
AcDbArc
 50
90.0
 51
180.0
  0
LINE
  5
3A50
330
3559
100
AcDbEntity
  8
HIDDEN
100
AcDbLine
 10
10.63641668876452
 20
17.79697263658284
 30
0.0
 11
10.63641668876452
 21
17.95304965121753
 31
0.0
  0
LINE
  5
3A51
330
3559
100
AcDbEntity
  8
HIDDEN
100
AcDbLine
 10
10.89341668876451
 20
18.07004965121752
 30
0.0
 11
10.89341668876451
 21
22.12853907561584
 31
0.0
  0
LINE
  5
3A52
330
3559
100
AcDbEntity
  8
HIDDEN
100
AcDbLine
 10
10.89341668876451
 20
18.07004965121752
 30
0.0
 11
10.75341668876451
 21
18.07004965121752
 31
0.0
  0
LINE
  5
3A53
330
3559
100
AcDbEntity
  8
HIDDEN
100
AcDbLine
 10
10.89341668876451
 20
22.12853907561584
 30
0.0
 11
10.75341668876451
 21
22.12853907561584
 31
0.0
  0
ARC
  5
3A54
330
3559
100
AcDbEntity
  8
HIDDEN
100
AcDbCircle
 10
10.75341668876451
 20
22.24553907561584
 30
0.0
 40
0.117
100
AcDbArc
 50
179.9999999999995
 51
270.0
  0
LINE
  5
3A55
330
3559
100
AcDbEntity
  8
HIDDEN
100
AcDbLine
 10
13.72387018535982
 20
22.38225983285034
 30
0.0
 11
13.83215934633565
 21
22.42096974908832
 31
0.0
  0
LINE
  5
3A56
330
3559
100
AcDbEntity
  8
HIDDEN
100
AcDbLine
 10
13.79893376206478
 20
22.17227302504503
 30
0.0
 11
13.9072229230406
 21
22.21098294128303
 31
0.0
  0
LINE
  5
3A57
330
3559
100
AcDbEntity
  8
HIDDEN
100
AcDbLine
 10
13.76863904500896
 20
22.2570210640696
 30
0.0
 11
13.87692820598479
 21
22.29573098030758
 31
0.0
  0
LINE
  5
3A58
330
3559
100
AcDbEntity
  8
HIDDEN
100
AcDbLine
 10
13.68852634879471
 20
22.48113254504566
 30
0.0
 11
13.60871761186822
 21
22.45260347072608
 31
0.0
  0
LINE
  5
3A59
330
3559
100
AcDbEntity
  8
HIDDEN
100
AcDbLine
 10
13.821486495873
 20
22.10918281821564
 30
0.0
 11
13.92977565684882
 21
22.14789273445363
 31
0.0
  0
LINE
  5
3A5A
330
3559
100
AcDbEntity
  8
HIDDEN
100
AcDbLine
 10
15.40522698195748
 20
17.6787436669873
 30
0.0
 11
15.32801210195738
 21
17.6511418136698
 31
0.0
  0
LINE
  5
3A5B
330
3559
100
AcDbEntity
  8
HIDDEN
100
AcDbLine
 10
15.2722668348792
 20
18.05069339381732
 30
0.0
 11
15.38055599585503
 21
18.0894033100553
 31
0.0
  0
LINE
  5
3A5C
330
3559
100
AcDbEntity
  8
HIDDEN
100
AcDbLine
 10
15.32511428574323
 20
17.90285514796336
 30
0.0
 11
15.43340344671906
 21
17.94156506420135
 31
0.0
  0
LINE
  5
3A5D
330
3559
100
AcDbEntity
  8
HIDDEN
100
AcDbLine
 10
15.29481956868742
 20
17.98760318698792
 30
0.0
 11
15.40310872966325
 21
18.0263131032259
 31
0.0
  0
LINE
  5
3A5E
330
3559
100
AcDbEntity
  8
HIDDEN
100
AcDbLine
 10
15.36988314539238
 20
17.77761637918263
 30
0.0
 11
15.4781723063682
 21
17.81632629542062
 31
0.0
  0
LINE
  5
3A5F
330
3559
100
AcDbEntity
  8
HIDDEN
100
AcDbLine
 10
13.68852634879471
 20
22.48113254504566
 30
0.0
 11
15.40522698195755
 21
17.67874366698733
 31
0.0
  0
DIMENSION
  5
3A60
330
3559
100
AcDbEntity
  8
DIM
100
AcDbDimension
  2
*D60
 10
10.89341668876451
 20
16.59873925797713
 30
0.0
 11
6.957416688764524
 21
16.59873925797713
 31
0.0
 70
    32
 71
     5
 42
7.871999999999989
  3
23NSTD
100
AcDbAlignedDimension
 13
3.02141668876453
 23
18.07004965121752
 33
0.0
 14
10.89341668876451
 24
18.07004965121752
 34
0.0
100
AcDbRotatedDimension
  0
DIMENSION
  5
3A6E
330
3559
100
AcDbEntity
  8
DIM
100
AcDbDimension
  2
*D61
 10
11.01491668876452
 20
16.13432903005992
 30
0.0
 11
6.957416688764524
 21
16.13432903005992
 31
0.0
 70
    32
 71
     5
 42
8.115000000000005
  3
23NSTD
100
AcDbAlignedDimension
 13
2.899916688764522
 23
17.67049807107001
 33
0.0
 14
11.01491668876452
 24
17.67049807106999
 34
0.0
100
AcDbRotatedDimension
  0
DIMENSION
  5
3A7C
330
3559
100
AcDbEntity
  8
DIM
100
AcDbDimension
  2
*D62
 10
11.30741668876451
 20
15.71089955848409
 30
0.0
 11
6.957416688764523
 21
15.71089955848409
 31
0.0
 70
    32
 71
     5
 42
8.699999999999992
  3
23NSTD
100
AcDbAlignedDimension
 13
2.607416688764526
 23
17.66261557204687
 33
0.0
 14
11.30741668876451
 24
17.66261557204687
 34
0.0
100
AcDbRotatedDimension
  0
DIMENSION
  5
3A8A
330
3559
100
AcDbEntity
  8
DIM
100
AcDbDimension
  2
*D63
 10
2.607416688764526
 20
6.329655936173153
 30
0.0
 11
1.519135438764527
 21
6.329655936173153
 31
0.0
 70
    32
 71
     5
 42
0.469500000000001
  3
23NSTD
100
AcDbAlignedDimension
 13
3.076916688764527
 23
3.125952583850323
 33
0.0
 14
2.607416688764526
 24
2.828952583850324
 34
0.0
100
AcDbRotatedDimension
  0
LINE
  5
3A98
330
3559
100
AcDbEntity
  8
OBJECT
100
AcDbLine
 10
2.748580078888071
 20
9.084524789476951
 30
0.0
 11
2.748580078888072
 21
14.37852478947695
 31
0.0
  0
LINE
  5
3A99
330
3559
100
AcDbEntity
  8
OBJECT
100
AcDbLine
 10
2.748580078888072
 20
14.42852478947694
 30
0.0
 11
2.748580078888072
 21
14.65536139935341
 31
0.0
  0
LINE
  5
3A9A
330
3559
100
AcDbEntity
  8
OBJECT
100
AcDbLine
 10
11.16625329864098
 20
9.084524789476951
 30
0.0
 11
11.16625329864098
 21
14.37852478947695
 31
0.0
  0
LINE
  5
3A9B
330
3559
100
AcDbEntity
  8
OBJECT
100
AcDbLine
 10
11.16625329864098
 20
14.42852478947695
 30
0.0
 11
11.16625329864098
 21
14.65536139935341
 31
0.0
  0
DIMENSION
  5
3A9C
330
3559
100
AcDbEntity
  8
DIM
100
AcDbDimension
  2
*D64
 10
8.271365496723888
 20
12.89052478947695
 30
0.0
 11
8.271365496723884
 21
12.31102478947695
 31
0.0
 70
    32
 71
     5
 42
1.159000000000002
  3
23NSTD
100
AcDbAlignedDimension
 13
8.69132779685732
 23
11.73152478947695
 33
0.0
 14
8.982416688764525
 24
12.89052478947695
 34
0.0
 50
90.0
100
AcDbRotatedDimension
  0
LINE
  5
3AAA
330
3559
100
AcDbEntity
  8
CENTER
100
AcDbLine
 10
9.354416688764528
 20
13.81252478947694
 30
0.0
 11
9.354416688764528
 21
9.389524789476951
 31
0.0
  0
LINE
  5
3AAB
330
3559
100
AcDbEntity
  8
CENTER
100
AcDbLine
 10
9.354416688764528
 20
9.389524789476951
 30
0.0
 11
10.81041668876453
 21
9.389524789476951
 31
0.0
  0
LINE
  5
3AAC
330
3559
100
AcDbEntity
  8
CENTER
100
AcDbLine
 10
10.81041668876453
 20
9.389524789476951
 30
0.0
 11
10.81041668876453
 21
13.81252478947694
 31
0.0
  0
LINE
  5
3AAD
330
3559
100
AcDbEntity
  8
CENTER
100
AcDbLine
 10
10.81041668876453
 20
13.81252478947694
 30
0.0
 11
9.354416688764528
 21
13.81252478947694
 31
0.0
  0
DIMENSION
  5
3AAE
330
3559
100
AcDbEntity
  8
DIM
100
AcDbDimension
  2
*D65
 10
8.271365496723886
 20
9.543524789476952
 30
0.0
 11
8.271365496723884
 21
10.63752478947695
 31
0.0
 70
    32
 71
     5
 42
2.187999999999997
  3
23NSTD
100
AcDbAlignedDimension
 13
8.541341253142146
 23
11.73152478947695
 33
0.0
 14
8.982416688764525
 24
9.543524789476952
 34
0.0
 50
90.0
100
AcDbRotatedDimension
  0
LINE
  5
3ABC
330
3559
100
AcDbEntity
  8
CENTER
100
AcDbLine
 10
3.108416688764528
 20
12.95052478947694
 30
0.0
 11
3.108416688764528
 21
9.408524789476953
 31
0.0
  0
LINE
  5
3ABD
330
3559
100
AcDbEntity
  8
CENTER
100
AcDbLine
 10
8.982416688764525
 20
12.89052478947695
 30
0.0
 11
8.982416688764525
 21
9.543524789476952
 31
0.0
  0
LEADER
  5
44F7
330
3559
100
AcDbEntity
  8
DIM
100
AcDbLeader
  3
23NSTD
 73
     0
 75
     1
 40
2.406249999999999
 41
1.4765625
 76
     3
 10
4.795253257807715
 20
20.36721477073559
 30
0.0
 10
2.533490320706821
 20
21.36414664652026
 30
0.0
 10
2.218490320706821
 20
21.36414664652026
 30
0.0
340
44F8
213
0.0
223
-0.109375
233
0.0
1001
ACAD
1000
DSTYLE
1002
{
1070
   147
1040
0.09
1070
    77
1070
     0
1002
}
  0
MTEXT
  5
44F8
102
{ACAD_REACTORS
330
44F7
102
}
330
3559
100
AcDbEntity
  8
DIM
100
AcDbMText
 10
2.060990320706821
 20
21.47352164652026
 30
0.0
 40
0.21875
 41
0.0
 71
     3
 72
     1
  1
\A1;REMOVABLE\PALUMINUM\PPANEL\P(PRESSURE\PSENSITIVE\PTAPE ON\PONE SIDE)
 73
     1
 44
1.0
  0
LEADER
  5
44FA
330
3559
100
AcDbEntity
  8
DIM
100
AcDbLeader
  3
23NSTD
 73
     0
 74
     0
 75
     1
 40
0.9479166666666666
 41
2.8984375
 76
     3
 10
10.92389999999999
 20
13.8872
 30
0.0
 10
12.27286696545001
 20
15.96924798255097
 30
0.0
 10
12.58786696545001
 20
15.96924798255097
 30
0.0
340
44FB
213
0.0
223
-0.109375
233
0.0
1001
ACAD
1000
DSTYLE
1002
{
1070
   147
1040
0.09
1070
    77
1070
     0
1002
}
  0
MTEXT
  5
44FB
102
{ACAD_REACTORS
330
44FA
102
}
330
3559
100
AcDbEntity
  8
DIM
100
AcDbMText
 10
12.74536696545001
 20
16.07862298255097
 30
0.0
 40
0.21875
 41
0.0
 71
     1
 72
     1
  1
\A1;0.250 DIA. BOSS WITH\P0.094 DIA. HOLE\P(8) PLACES
 73
     1
 44
1.0
  0
LEADER
  5
44FE
330
3559
100
AcDbEntity
  8
DIM
100
AcDbLeader
  3
23NSTD
 73
     0
 74
     0
 75
     1
 40
0.5833333333333333
 41
5.11328125
 76
     3
 10
5.440809999999999
 20
2.423669999999999
 30
0.0
 10
5.92090302837175
 20
0.7929856705507845
 30
0.0
 10
6.23590302837175
 20
0.7929856705507845
 30
0.0
340
44FF
213
0.0
223
-0.109375
233
0.0
1001
ACAD
1000
DSTYLE
1002
{
1070
   147
1040
0.09
1070
    77
1070
     0
1002
}
  0
MTEXT
  5
44FF
102
{ACAD_REACTORS
330
44FE
102
}
330
3559
100
AcDbEntity
  8
DIM
100
AcDbMText
 10
6.39340302837175
 20
0.9023606705507845
 30
0.0
 40
0.21875
 41
0.0
 71
     1
 72
     1
  1
\A1;REMOVABLE REAR PANEL\P0.090 THICK (TEXTURED ON ONE SIDE)
 73
     1
 44
1.0
  0
DIMENSION
  5
450A
330
3559
100
AcDbEntity
  8
DIM
100
AcDbDimension
  2
*D66
 10
10.75741668876452
 20
17.04951405883771
 30
0.0
 11
6.957416688764523
 21
17.04951405883771
 31
0.0
 70
    32
 71
     5
 42
7.599999999999992
  3
23NSTD
100
AcDbAlignedDimension
 13
3.157416688764527
 23
17.84758542487586
 33
0.0
 14
10.75741668876452
 24
17.84758542487586
 34
0.0
100
AcDbRotatedDimension
  0
DIMENSION
  5
4550
330
3559
100
AcDbEntity
  8
DIM
100
AcDbDimension
  2
*D67
 10
12.44239791019224
 20
21.73514350281725
 30
0.0
 11
13.20548817203148
 21
19.60043456427642
 31
0.0
 70
    33
 71
     5
 42
4.534
  3
23NSTD
100
AcDbAlignedDimension
 13
15.30996692721535
 23
17.94522916747565
 33
0.0
 14
13.78378640353687
 24
22.21464704455732
 34
0.0
  0
ENDSEC
  0
SECTION
  2
OBJECTS
  0
DICTIONARY
  5
3547
330
0
100
AcDbDictionary
281
     1
  3
ACAD_GROUP
350
3548
  3
ACAD_PLOTSTYLENAME
350
3549
  3
ACAD_MLINESTYLE
350
3551
  3
ACAD_PLOTSETTINGS
350
3553
  3
ACAD_LAYOUT
350
3554
  3
AcadDim
350
44FD
  0
DICTIONARY
  5
3548
102
{ACAD_REACTORS
330
3547
102
}
330
3547
100
AcDbDictionary
281
     1
  0
ACDBDICTIONARYWDFLT
  5
3549
102
{ACAD_REACTORS
330
3547
102
}
330
3547
100
AcDbDictionary
281
     1
  3
Normal
350
354A
100
AcDbDictionaryWithDefault
340
354A
  0
DICTIONARY
  5
3551
102
{ACAD_REACTORS
330
3547
102
}
330
3547
100
AcDbDictionary
281
     1
  3
Standard
350
3552
  0
DICTIONARY
  5
3553
102
{ACAD_REACTORS
330
3547
102
}
330
3547
100
AcDbDictionary
281
     1
  0
DICTIONARY
  5
3554
102
{ACAD_REACTORS
330
3547
102
}
330
3547
100
AcDbDictionary
281
     1
  3
Layout1
350
3558
  3
Model
350
355C
  0
XRECORD
  5
44FD
102
{ACAD_REACTORS
330
3547
102
}
330
3547
100
AcDbXrecord
280
     1
 90
   990106
  3

 60
     0
 61
     0
 62
     1
 63
     3
 64
     0
 65
     0
 66
     0
 67
     3
 68
     1
 69
     0
 70
     0
 71
     0
 72
     0
 40
0.0
170
     0
340
44FF
  0
ACDBPLACEHOLDER
  5
354A
102
{ACAD_REACTORS
330
3549
102
}
330
3549
  0
MLINESTYLE
  5
3552
102
{ACAD_REACTORS
330
3551
102
}
330
3551
100
AcDbMlineStyle
  2
STANDARD
 70
     0
  3

 62
   256
 51
90.0
 52
90.0
 71
     2
 49
0.5
 62
   256
  6
BYLAYER
 49
-0.5
 62
   256
  6
BYLAYER
  0
LAYOUT
  5
3558
102
{ACAD_REACTORS
330
3554
102
}
330
3554
100
AcDbPlotSettings
  1

  2
Auto RICOH Aficio 1060 RPCS on RICOH
  4

  6

 40
0.0
 41
0.0
 42
0.0
 43
0.0
 44
0.0
 45
0.0
 46
0.0
 47
0.0
 48
0.0
 49
0.0
140
0.0
141
0.0
142
1.0
143
1.0
 70
   688
 72
     0
 73
     0
 74
     5
  7

 75
    16
147
1.0
148
0.0
149
0.0
100
AcDbLayout
  1
Layout1
 70
     1
 71
     1
 10
0.0
 20
0.0
 11
12.0
 21
9.0
 12
0.0
 22
0.0
 32
0.0
 14
1.000000000000000E+20
 24
1.000000000000000E+20
 34
1.000000000000000E+20
 15
-1.000000000000000E+20
 25
-1.000000000000000E+20
 35
-1.000000000000000E+20
146
0.0
 13
0.0
 23
0.0
 33
0.0
 16
1.0
 26
0.0
 36
0.0
 17
0.0
 27
1.0
 37
0.0
 76
     0
330
3555
  0
LAYOUT
  5
355C
102
{ACAD_REACTORS
330
3554
102
}
330
3554
100
AcDbPlotSettings
  1

  2
Auto RICOH Aficio 1060 RPCS on RICOH
  4

  6

 40
0.0
 41
0.0
 42
0.0
 43
0.0
 44
0.0
 45
0.0
 46
0.0
 47
0.0
 48
0.0
 49
0.0
140
0.0
141
0.0
142
1.0
143
1.0
 70
  1712
 72
     0
 73
     0
 74
     0
  7

 75
     0
147
1.0
148
0.0
149
0.0
100
AcDbLayout
  1
Model
 70
     1
 71
     0
 10
0.0
 20
0.0
 11
12.0
 21
9.0
 12
0.0
 22
0.0
 32
0.0
 14
0.0
 24
0.0
 34
0.0
 15
0.0
 25
0.0
 35
0.0
146
0.0
 13
0.0
 23
0.0
 33
0.0
 16
1.0
 26
0.0
 36
0.0
 17
0.0
 27
1.0
 37
0.0
 76
     0
330
3559
  0
ENDSEC
  0
EOF
