  0
SECTION
  2
HEADER
  9
$ACADVER
  1
AC1015
  9
$ACADMAINTVER
 70
     6
  9
$DWGCODEPAGE
  3
ANSI_1252
  9
$INSBASE
 10
0.0
 20
0.0
 30
0.0
  9
$EXTMIN
 10
68.1090356383585
 20
48.56234683942233
 30
-0.000000000000013
  9
$EXTMAX
 10
89.61873532742357
 20
64.19049314894076
 30
0.0000000000000023
  9
$LIMMIN
 10
0.0
 20
0.0
  9
$LIMMAX
 10
18.0
 20
12.0
  9
$ORTHOMODE
 70
     0
  9
$REGENMODE
 70
     1
  9
$FILLMODE
 70
     1
  9
$QTEXTMODE
 70
     0
  9
$MIRRTEXT
 70
     1
  9
$LTSCALE
 40
1.333333333333333
  9
$ATTMODE
 70
     1
  9
$TEXTSIZE
 40
0.125
  9
$TRACEWID
 40
0.05
  9
$TEXTSTYLE
  7
STANDARD
  9
$CLAYER
  8
0
  9
$CELTYPE
  6
BYLAYER
  9
$CECOLOR
 62
   256
  9
$CELTSCALE
 40
1.0
  9
$DISPSILH
 70
     0
  9
$DIMSCALE
 40
1.0
  9
$DIMASZ
 40
0.18
  9
$DIMEXO
 40
0.0625
  9
$DIMDLI
 40
0.38
  9
$DIMRND
 40
0.0
  9
$DIMDLE
 40
0.0
  9
$DIMEXE
 40
0.1
  9
$DIMTP
 40
0.0
  9
$DIMTM
 40
0.0
  9
$DIMTXT
 40
0.125
  9
$DIMCEN
 40
0.03
  9
$DIMTSZ
 40
0.0
  9
$DIMTOL
 70
     0
  9
$DIMLIM
 70
     0
  9
$DIMTIH
 70
     1
  9
$DIMTOH
 70
     1
  9
$DIMSE1
 70
     0
  9
$DIMSE2
 70
     0
  9
$DIMTAD
 70
     0
  9
$DIMZIN
 70
     0
  9
$DIMBLK
  1

  9
$DIMASO
 70
     1
  9
$DIMSHO
 70
     1
  9
$DIMPOST
  1

  9
$DIMAPOST
  1

  9
$DIMALT
 70
     0
  9
$DIMALTD
 70
     2
  9
$DIMALTF
 40
25.4
  9
$DIMLFAC
 40
1.0
  9
$DIMTOFL
 70
     0
  9
$DIMTVP
 40
0.0
  9
$DIMTIX
 70
     0
  9
$DIMSOXD
 70
     0
  9
$DIMSAH
 70
     0
  9
$DIMBLK1
  1

  9
$DIMBLK2
  1

  9
$DIMSTYLE
  2
STANDARD_WS
  9
$DIMCLRD
 70
     1
  9
$DIMCLRE
 70
     1
  9
$DIMCLRT
 70
     4
  9
$DIMTFAC
 40
1.0
  9
$DIMGAP
 40
0.09
  9
$DIMJUST
 70
     0
  9
$DIMSD1
 70
     0
  9
$DIMSD2
 70
     0
  9
$DIMTOLJ
 70
     1
  9
$DIMTZIN
 70
     0
  9
$DIMALTZ
 70
     0
  9
$DIMALTTZ
 70
     0
  9
$DIMUPT
 70
     0
  9
$DIMDEC
 70
     3
  9
$DIMTDEC
 70
     3
  9
$DIMALTU
 70
     2
  9
$DIMALTTD
 70
     2
  9
$DIMTXSTY
  7
STANDARD
  9
$DIMAUNIT
 70
     0
  9
$DIMADEC
 70
     0
  9
$DIMALTRND
 40
0.0
  9
$DIMAZIN
 70
     0
  9
$DIMDSEP
 70
    46
  9
$DIMATFIT
 70
     3
  9
$DIMFRAC
 70
     0
  9
$DIMLDRBLK
  1

  9
$DIMLUNIT
 70
     2
  9
$DIMLWD
 70
    -2
  9
$DIMLWE
 70
    -2
  9
$DIMTMOVE
 70
     0
  9
$LUNITS
 70
     2
  9
$LUPREC
 70
     4
  9
$SKETCHINC
 40
0.1
  9
$FILLETRAD
 40
0.4970000000000001
  9
$AUNITS
 70
     0
  9
$AUPREC
 70
     2
  9
$MENU
  1
.
  9
$ELEVATION
 40
0.0
  9
$PELEVATION
 40
0.0
  9
$THICKNESS
 40
0.0
  9
$LIMCHECK
 70
     0
  9
$CHAMFERA
 40
0.0
  9
$CHAMFERB
 40
0.0
  9
$CHAMFERC
 40
1.333333333333333
  9
$CHAMFERD
 40
0.0
  9
$SKPOLY
 70
     1
  9
$TDCREATE
 40
2451003.498089004
  9
$TDUCREATE
 40
2451003.664755671
  9
$TDUPDATE
 40
2453906.448190104
  9
$TDUUPDATE
 40
2453906.614856770
  9
$TDINDWG
 40
1.2583781944
  9
$TDUSRTIMER
 40
1.2583781944
  9
$USRTIMER
 70
     1
  9
$ANGBASE
 50
0.0
  9
$ANGDIR
 70
     0
  9
$PDMODE
 70
     0
  9
$PDSIZE
 40
0.0
  9
$PLINEWID
 40
0.02
  9
$SPLFRAME
 70
     0
  9
$SPLINETYPE
 70
     6
  9
$SPLINESEGS
 70
     8
  9
$HANDSEED
  5
5DA2
  9
$SURFTAB1
 70
     6
  9
$SURFTAB2
 70
     6
  9
$SURFTYPE
 70
     6
  9
$SURFU
 70
     6
  9
$SURFV
 70
     6
  9
$UCSBASE
  2

  9
$UCSNAME
  2

  9
$UCSORG
 10
0.0
 20
0.0
 30
0.0
  9
$UCSXDIR
 10
1.0
 20
0.0
 30
0.0
  9
$UCSYDIR
 10
0.0
 20
1.0
 30
0.0
  9
$UCSORTHOREF
  2

  9
$UCSORTHOVIEW
 70
     0
  9
$UCSORGTOP
 10
0.0
 20
0.0
 30
0.0
  9
$UCSORGBOTTOM
 10
0.0
 20
0.0
 30
0.0
  9
$UCSORGLEFT
 10
0.0
 20
0.0
 30
0.0
  9
$UCSORGRIGHT
 10
0.0
 20
0.0
 30
0.0
  9
$UCSORGFRONT
 10
0.0
 20
0.0
 30
0.0
  9
$UCSORGBACK
 10
0.0
 20
0.0
 30
0.0
  9
$PUCSBASE
  2

  9
$PUCSNAME
  2

  9
$PUCSORG
 10
0.0
 20
0.0
 30
0.0
  9
$PUCSXDIR
 10
1.0
 20
0.0
 30
0.0
  9
$PUCSYDIR
 10
0.0
 20
1.0
 30
0.0
  9
$PUCSORTHOREF
  2

  9
$PUCSORTHOVIEW
 70
     0
  9
$PUCSORGTOP
 10
0.0
 20
0.0
 30
0.0
  9
$PUCSORGBOTTOM
 10
0.0
 20
0.0
 30
0.0
  9
$PUCSORGLEFT
 10
0.0
 20
0.0
 30
0.0
  9
$PUCSORGRIGHT
 10
0.0
 20
0.0
 30
0.0
  9
$PUCSORGFRONT
 10
0.0
 20
0.0
 30
0.0
  9
$PUCSORGBACK
 10
0.0
 20
0.0
 30
0.0
  9
$USERI1
 70
     0
  9
$USERI2
 70
     0
  9
$USERI3
 70
     0
  9
$USERI4
 70
     0
  9
$USERI5
 70
     0
  9
$USERR1
 40
0.0
  9
$USERR2
 40
0.0
  9
$USERR3
 40
0.0
  9
$USERR4
 40
0.0
  9
$USERR5
 40
0.0
  9
$WORLDVIEW
 70
     1
  9
$SHADEDGE
 70
     3
  9
$SHADEDIF
 70
    70
  9
$TILEMODE
 70
     1
  9
$MAXACTVP
 70
    48
  9
$PINSBASE
 10
0.0
 20
0.0
 30
0.0
  9
$PLIMCHECK
 70
     0
  9
$PEXTMIN
 10
1.000000000000000E+20
 20
1.000000000000000E+20
 30
1.000000000000000E+20
  9
$PEXTMAX
 10
-1.000000000000000E+20
 20
-1.000000000000000E+20
 30
-1.000000000000000E+20
  9
$PLIMMIN
 10
0.0
 20
0.0
  9
$PLIMMAX
 10
12.0
 20
9.0
  9
$UNITMODE
 70
     0
  9
$VISRETAIN
 70
     1
  9
$PLINEGEN
 70
     0
  9
$PSLTSCALE
 70
     1
  9
$TREEDEPTH
 70
  3020
  9
$CMLSTYLE
  2
STANDARD
  9
$CMLJUST
 70
     0
  9
$CMLSCALE
 40
1.0
  9
$PROXYGRAPHICS
 70
     1
  9
$MEASUREMENT
 70
     0
  9
$CELWEIGHT
370
    -1
  9
$ENDCAPS
280
     0
  9
$JOINSTYLE
280
     0
  9
$LWDISPLAY
290
     0
  9
$INSUNITS
 70
     0
  9
$HYPERLINKBASE
  1

  9
$STYLESHEET
  1
monochrome.ctb
  9
$XEDIT
290
     1
  9
$CEPSNTYPE
380
     0
  9
$PSTYLEMODE
290
     1
  9
$FINGERPRINTGUID
  2
{8C7C5C65-1EF5-11D7-BFD2-00B0D0230E80}
  9
$VERSIONGUID
  2
{B2BD90E5-F962-4A95-8057-B464A52E6BE4}
  9
$EXTNAMES
290
     1
  9
$PSVPSCALE
 40
0.0
  9
$OLESTARTUP
290
     0
  0
ENDSEC
  0
SECTION
  2
CLASSES
  0
CLASS
  1
DICTIONARYVAR
  2
AcDbDictionaryVar
  3
AutoCAD 2000
 90
        0
280
     0
281
     0
  0
CLASS
  1
LWPOLYLINE
  2
AcDbPolyline
  3
AutoCAD 2000
 90
    32768
280
     0
281
     1
  0
CLASS
  1
HATCH
  2
AcDbHatch
  3
AutoCAD 2000
 90
    32768
280
     0
281
     1
  0
CLASS
  1
ACDBDICTIONARYWDFLT
  2
AcDbDictionaryWithDefault
  3
AutoCAD 2000
 90
        0
280
     0
281
     0
  0
CLASS
  1
ACDBPLACEHOLDER
  2
AcDbPlaceHolder
  3
AutoCAD 2000
 90
        0
280
     0
281
     0
  0
CLASS
  1
LAYOUT
  2
AcDbLayout
  3
AutoCAD 2000
 90
        0
280
     0
281
     0
  0
CLASS
  1
LONG_TRANSACTION
  2
AcDbLongTransaction
  3
AutoCAD 2000
 90
    32768
280
     0
281
     0
  0
CLASS
  1
LWPOLYLINE
  2
AcDbPolyline
  3
AutoCAD 2000
 90
    32768
280
     0
281
     1
  0
CLASS
  1
HATCH
  2
AcDbHatch
  3
AutoCAD 2000
 90
    32768
280
     0
281
     1
  0
CLASS
  1
XRECORD
  2
AcDbXrecord
  3
AutoCAD 2000
 90
    32768
280
     0
281
     0
  0
CLASS
  1
LONG_TRANSACTION
  2
AcDbLongTransaction
  3
AutoCAD 2000
 90
    32768
280
     0
281
     0
  0
CLASS
  1
LWPOLYLINE
  2
AcDbPolyline
  3
AutoCAD 2000
 90
    32768
280
     0
281
     1
  0
CLASS
  1
HATCH
  2
AcDbHatch
  3
AutoCAD 2000
 90
    32768
280
     0
281
     1
  0
CLASS
  1
XRECORD
  2
AcDbXrecord
  3
AutoCAD 2000
 90
    32768
280
     0
281
     0
  0
ENDSEC
  0
SECTION
  2
TABLES
  0
TABLE
  2
VPORT
  5
8
330
0
100
AcDbSymbolTable
 70
     5
  0
VPORT
  5
5DA1
330
8
100
AcDbSymbolTableRecord
100
AcDbViewportTableRecord
  2
*Active
 70
     0
 10
0.0
 20
0.0
 11
1.0
 21
1.0
 12
78.86388548289104
 22
56.37641999418154
 13
0.0
 23
0.0
 14
0.7
 24
0.7
 15
0.7
 25
0.7
 16
0.0
 26
0.0
 36
1.0
 17
0.0
 27
0.0
 37
0.0
 40
15.79323236208375
 41
1.767195767195767
 42
50.0
 43
0.0
 44
0.0
 50
0.0
 51
0.0
 71
     0
 72
   100
 73
     1
 74
     0
 75
     0
 76
     0
 77
     0
 78
     0
281
     0
 65
     1
110
0.0
120
0.0
130
0.0
111
1.0
121
0.0
131
0.0
112
0.0
122
1.0
132
0.0
 79
     0
146
0.0
  0
ENDTAB
  0
TABLE
  2
LTYPE
  5
5
330
0
100
AcDbSymbolTable
 70
     3
  0
LTYPE
  5
13
330
5
100
AcDbSymbolTableRecord
100
AcDbLinetypeTableRecord
  2
BYBLOCK
 70
     0
  3

 72
    65
 73
     0
 40
0.0
  0
LTYPE
  5
14
330
5
100
AcDbSymbolTableRecord
100
AcDbLinetypeTableRecord
  2
BYLAYER
 70
     0
  3

 72
    65
 73
     0
 40
0.0
  0
LTYPE
  5
15
330
5
100
AcDbSymbolTableRecord
100
AcDbLinetypeTableRecord
  2
CONTINUOUS
 70
     0
  3
Solid line
 72
    65
 73
     0
 40
0.0
  0
LTYPE
  5
66
330
5
100
AcDbSymbolTableRecord
100
AcDbLinetypeTableRecord
  2
HIDDEN2
 70
     0
  3
Hidden (.5x) _ _ _ _ _ _ _ _ _ _ _ _ _ _ _ _ _
 72
    65
 73
     2
 40
0.1875
 49
0.125
 74
     0
 49
-0.0625
 74
     0
  0
LTYPE
  5
2EDF
330
5
100
AcDbSymbolTableRecord
100
AcDbLinetypeTableRecord
  2
CENTER2
 70
     0
  3
Center (.5x) ___ _ ___ _ ___ _ ___ _ ___ _ ___
 72
    65
 73
     4
 40
1.125
 49
0.75
 74
     0
 49
-0.125
 74
     0
 49
0.125
 74
     0
 49
-0.125
 74
     0
  0
ENDTAB
  0
TABLE
  2
LAYER
  5
2
330
0
100
AcDbSymbolTable
 70
     7
  0
LAYER
  5
F
330
2
100
AcDbSymbolTableRecord
100
AcDbLayerTableRecord
  2
0
 70
     0
 62
     7
  6
CONTINUOUS
370
    -3
390
5B6D
  0
LAYER
  5
262
330
2
100
AcDbSymbolTableRecord
100
AcDbLayerTableRecord
  2
DEFPOINTS
 70
     0
 62
     7
  6
CONTINUOUS
290
     0
370
    -3
390
5B6D
  0
LAYER
  5
5514
330
2
100
AcDbSymbolTableRecord
100
AcDbLayerTableRecord
  2
JB-55B
 70
     0
 62
    14
  6
CONTINUOUS
370
    -3
390
5B6D
  0
LAYER
  5
5515
330
2
100
AcDbSymbolTableRecord
100
AcDbLayerTableRecord
  2
JB-55T
 70
     0
 62
    14
  6
CONTINUOUS
370
    -3
390
5B6D
  0
LAYER
  5
5516
330
2
100
AcDbSymbolTableRecord
100
AcDbLayerTableRecord
  2
JB-55EP
 70
     0
 62
    14
  6
CONTINUOUS
370
    -3
390
5B6D
  0
LAYER
  5
5BDE
330
2
100
AcDbSymbolTableRecord
100
AcDbLayerTableRecord
  2
TITLE
 70
     0
 62
     8
  6
CONTINUOUS
370
    -3
390
5B6D
  0
LAYER
  5
5BDF
330
2
100
AcDbSymbolTableRecord
100
AcDbLayerTableRecord
  2
TEXT
 70
     0
 62
     1
  6
CONTINUOUS
370
    -3
390
5B6D
  0
ENDTAB
  0
TABLE
  2
STYLE
  5
3
330
0
100
AcDbSymbolTable
 70
     5
  0
STYLE
  5
10
330
3
100
AcDbSymbolTableRecord
100
AcDbTextStyleTableRecord
  2
STANDARD
 70
     0
 40
0.125
 41
1.0
 50
0.0
 71
     0
 42
0.125
  3
ARIAL.TTF
  4

1001
ACAD
1000
Arial
1071
       34
  0
STYLE
  5
67
330
3
100
AcDbSymbolTableRecord
100
AcDbTextStyleTableRecord
  2
ROMANS
 70
     0
 40
0.125
 41
1.0
 50
0.0
 71
     0
 42
0.125
  3
romab___.ttf
  4

1001
ACAD
1000
Romantic
1071
 33554946
  0
STYLE
  5
68
330
3
100
AcDbSymbolTableRecord
100
AcDbTextStyleTableRecord
  2
SANSSERIFBOLDOBLIQUE
 70
     0
 40
0.125
 41
1.074999999999999
 50
0.0
 71
     0
 42
1.199999999999999
  3
sasbo___.pfb
  4

  0
STYLE
  5
5ACF
330
3
100
AcDbSymbolTableRecord
100
AcDbTextStyleTableRecord
  2

 70
     1
 40
0.0
 41
1.0
 50
0.0
 71
     0
 42
0.125
  3
ltypeshp.shx
  4

  0
STYLE
  5
5BE0
330
3
100
AcDbSymbolTableRecord
100
AcDbTextStyleTableRecord
  2
TXT
 70
     0
 40
0.0
 41
0.75
 50
0.0
 71
     0
 42
0.125
  3
txt
  4

  0
ENDTAB
  0
TABLE
  2
VIEW
  5
6
330
0
100
AcDbSymbolTable
 70
     0
  0
ENDTAB
  0
TABLE
  2
UCS
  5
7
330
0
100
AcDbSymbolTable
 70
     0
  0
ENDTAB
  0
TABLE
  2
APPID
  5
9
330
0
100
AcDbSymbolTable
 70
     1
  0
APPID
  5
11
330
9
100
AcDbSymbolTableRecord
100
AcDbRegAppTableRecord
  2
ACAD
 70
     0
  0
ENDTAB
  0
TABLE
  2
DIMSTYLE
  5
A
330
0
100
AcDbSymbolTable
 70
    12
100
AcDbDimStyleTable
 71
     1
340
4E
  0
DIMSTYLE
105
1D
330
A
100
AcDbSymbolTableRecord
100
AcDbDimStyleTableRecord
  2
STANDARD
 70
     0
340
10
  0
DIMSTYLE
105
4E
102
{ACAD_REACTORS
330
524B
330
534D
330
5367
330
5375
330
5383
330
53D9
330
53E7
330
53F5
330
5403
330
5471
330
548B
330
54D0
330
54FE
330
5D17
330
5D09
330
5D3B
330
5D2D
330
5D5E
330
5D6C
330
5D7A
330
5D88
102
}
330
A
100
AcDbSymbolTableRecord
100
AcDbDimStyleTableRecord
  2
STANDARD_WS
 70
     0
 44
0.1
140
0.125
141
0.03
176
     1
177
     1
178
     4
271
     3
272
     3
340
10
  0
DIMSTYLE
105
3F28
102
{ACAD_REACTORS
330
54E8
102
}
330
A
100
AcDbSymbolTableRecord
100
AcDbDimStyleTableRecord
  2
STANDARD_WS$3
 70
     0
 44
0.1
140
0.125
141
0.0
176
     1
177
     1
178
     4
271
     3
272
     3
340
10
  0
DIMSTYLE
105
5AD0
330
A
100
AcDbSymbolTableRecord
100
AcDbDimStyleTableRecord
  2
LITTLE
 70
     0
 41
0.09
 42
0.03
 43
0.18
 44
0.03
140
0.05
141
0.03
147
0.04
176
     1
177
     1
178
     4
271
     3
272
     3
275
     1
340
10
  0
DIMSTYLE
105
5AD1
330
A
100
AcDbSymbolTableRecord
100
AcDbDimStyleTableRecord
  2
LITTLE$3
 70
     0
 41
0.09
 42
0.03
 43
0.18
 44
0.03
140
0.05
141
0.0
147
0.04
176
     1
177
     1
178
     4
271
     3
272
     3
275
     1
340
10
  0
DIMSTYLE
105
5AD2
330
A
100
AcDbSymbolTableRecord
100
AcDbDimStyleTableRecord
  2
LITTLE$4
 70
     0
 41
0.09
 42
0.03
 43
0.18
 44
0.03
140
0.05
141
0.0
147
0.04
176
     1
177
     1
178
     4
271
     3
272
     3
275
     1
340
10
  0
DIMSTYLE
105
5AD3
330
A
100
AcDbSymbolTableRecord
100
AcDbDimStyleTableRecord
  2
LITTLE$0
 70
     0
 41
0.09
 42
0.03
 43
0.18
 44
0.03
140
0.05
141
0.03
147
0.04
176
     1
177
     1
178
     4
271
     3
272
     3
275
     1
340
10
  0
DIMSTYLE
105
5AD4
330
A
100
AcDbSymbolTableRecord
100
AcDbDimStyleTableRecord
  2
STANDARD$4
 70
     0
 44
0.1
140
0.125
141
0.0
176
     1
177
     1
178
     4
271
     3
272
     3
275
     1
340
10
  0
DIMSTYLE
105
5AD5
330
A
100
AcDbSymbolTableRecord
100
AcDbDimStyleTableRecord
  2
STANDARD$3
 70
     0
 44
0.1
140
0.125
141
0.0
176
     1
177
     1
178
     4
271
     3
272
     3
275
     1
340
10
  0
DIMSTYLE
105
5AD6
330
A
100
AcDbSymbolTableRecord
100
AcDbDimStyleTableRecord
  2
STANDARD$7
 70
     0
 44
0.1
140
0.125
141
0.03
176
     1
177
     1
178
     4
271
     3
272
     3
275
     1
288
     1
340
10
  0
DIMSTYLE
105
5AD7
330
A
100
AcDbSymbolTableRecord
100
AcDbDimStyleTableRecord
  2
LITTLE$7
 70
     0
 41
0.09
 42
0.03
 43
0.18
 44
0.03
140
0.05
141
0.03
147
0.04
176
     1
177
     1
178
     4
271
     3
272
     3
275
     1
288
     1
340
10
  0
DIMSTYLE
105
5BE1
330
A
100
AcDbSymbolTableRecord
100
AcDbDimStyleTableRecord
  2
23NSTD
 70
     0
 44
0.09
140
0.125
271
     3
272
     3
289
     1
340
5BE0
  0
ENDTAB
  0
TABLE
  2
BLOCK_RECORD
  5
1
330
0
100
AcDbSymbolTable
 70
    31
  0
BLOCK_RECORD
  5
19
102
{ACAD_XDICTIONARY
360
5B9E
102
}
330
1
100
AcDbSymbolTableRecord
100
AcDbBlockTableRecord
  2
*MODEL_SPACE
340
5B70
  0
BLOCK_RECORD
  5
16
102
{ACAD_XDICTIONARY
360
5B9C
102
}
330
1
100
AcDbSymbolTableRecord
100
AcDbBlockTableRecord
  2
*PAPER_SPACE
340
5B71
  0
BLOCK_RECORD
  5
2E6B
330
1
100
AcDbSymbolTableRecord
100
AcDbBlockTableRecord
  2
CL
340
0
102
{BLKREFS
331
5760
331
5770
331
57BD
331
581F
331
5AF1
331
5AF4
102
}
  0
BLOCK_RECORD
  5
2E70
330
1
100
AcDbSymbolTableRecord
100
AcDbBlockTableRecord
  2
POLYCASELOGO
340
0
102
{BLKREFS
331
5AB6
102
}
  0
BLOCK_RECORD
  5
523E
330
1
100
AcDbSymbolTableRecord
100
AcDbBlockTableRecord
  2
*D2
340
0
  0
BLOCK_RECORD
  5
5340
330
1
100
AcDbSymbolTableRecord
100
AcDbBlockTableRecord
  2
*D3
340
0
  0
BLOCK_RECORD
  5
535A
330
1
100
AcDbSymbolTableRecord
100
AcDbBlockTableRecord
  2
*D4
340
0
  0
BLOCK_RECORD
  5
5368
330
1
100
AcDbSymbolTableRecord
100
AcDbBlockTableRecord
  2
*D5
340
0
  0
BLOCK_RECORD
  5
5376
330
1
100
AcDbSymbolTableRecord
100
AcDbBlockTableRecord
  2
*D6
340
0
  0
BLOCK_RECORD
  5
53CC
330
1
100
AcDbSymbolTableRecord
100
AcDbBlockTableRecord
  2
*D7
340
0
  0
BLOCK_RECORD
  5
53DA
330
1
100
AcDbSymbolTableRecord
100
AcDbBlockTableRecord
  2
*D8
340
0
  0
BLOCK_RECORD
  5
53E8
330
1
100
AcDbSymbolTableRecord
100
AcDbBlockTableRecord
  2
*D9
340
0
  0
BLOCK_RECORD
  5
53F6
330
1
100
AcDbSymbolTableRecord
100
AcDbBlockTableRecord
  2
*D10
340
0
  0
BLOCK_RECORD
  5
5464
330
1
100
AcDbSymbolTableRecord
100
AcDbBlockTableRecord
  2
*D11
340
0
  0
BLOCK_RECORD
  5
547E
330
1
100
AcDbSymbolTableRecord
100
AcDbBlockTableRecord
  2
*D12
340
0
  0
BLOCK_RECORD
  5
54C2
330
1
100
AcDbSymbolTableRecord
100
AcDbBlockTableRecord
  2
*D13
340
0
  0
BLOCK_RECORD
  5
54DF
330
1
100
AcDbSymbolTableRecord
100
AcDbBlockTableRecord
  2
*D14
340
0
  0
BLOCK_RECORD
  5
54F1
330
1
100
AcDbSymbolTableRecord
100
AcDbBlockTableRecord
  2
*D15
340
0
  0
BLOCK_RECORD
  5
5A94
330
1
100
AcDbSymbolTableRecord
100
AcDbBlockTableRecord
  2
REVGRID
340
0
102
{BLKREFS
331
5AF7
102
}
  0
BLOCK_RECORD
  5
5AA6
330
1
100
AcDbSymbolTableRecord
100
AcDbBlockTableRecord
  2
TITLEBLK
340
0
102
{BLKREFS
331
5AF9
102
}
  0
BLOCK_RECORD
  5
5AD8
330
1
100
AcDbSymbolTableRecord
100
AcDbBlockTableRecord
  2
B-SIZE
340
0
  0
BLOCK_RECORD
  5
5B60
330
1
100
AcDbSymbolTableRecord
100
AcDbBlockTableRecord
  2
_DOT
340
0
  0
BLOCK_RECORD
  5
5BE2
330
1
100
AcDbSymbolTableRecord
100
AcDbBlockTableRecord
  2
B
340
0
  0
BLOCK_RECORD
  5
5C47
330
1
100
AcDbSymbolTableRecord
100
AcDbBlockTableRecord
  2
C
340
0
102
{BLKREFS
331
5CAB
102
}
  0
BLOCK_RECORD
  5
5D0A
330
1
100
AcDbSymbolTableRecord
100
AcDbBlockTableRecord
  2
*D22
340
0
  0
BLOCK_RECORD
  5
5D18
330
1
100
AcDbSymbolTableRecord
100
AcDbBlockTableRecord
  2
*D23
340
0
  0
BLOCK_RECORD
  5
5D2E
330
1
100
AcDbSymbolTableRecord
100
AcDbBlockTableRecord
  2
*D24
340
0
  0
BLOCK_RECORD
  5
5D3C
330
1
100
AcDbSymbolTableRecord
100
AcDbBlockTableRecord
  2
*D25
340
0
  0
BLOCK_RECORD
  5
5D5F
330
1
100
AcDbSymbolTableRecord
100
AcDbBlockTableRecord
  2
*D27
340
0
  0
BLOCK_RECORD
  5
5D6D
330
1
100
AcDbSymbolTableRecord
100
AcDbBlockTableRecord
  2
*D28
340
0
  0
BLOCK_RECORD
  5
5D7B
330
1
100
AcDbSymbolTableRecord
100
AcDbBlockTableRecord
  2
*D29
340
0
  0
BLOCK_RECORD
  5
5D89
330
1
100
AcDbSymbolTableRecord
100
AcDbBlockTableRecord
  2
*D30
340
0
  0
ENDTAB
  0
ENDSEC
  0
SECTION
  2
BLOCKS
  0
BLOCK
  5
1A
330
19
100
AcDbEntity
  8
0
100
AcDbBlockBegin
  2
*MODEL_SPACE
 70
     0
 10
0.0
 20
0.0
 30
0.0
  3
*MODEL_SPACE
  1

  0
ENDBLK
  5
1B
330
19
100
AcDbEntity
  8
0
100
AcDbBlockEnd
  0
BLOCK
  5
17
330
16
100
AcDbEntity
 67
     1
  8
0
100
AcDbBlockBegin
  2
*PAPER_SPACE
 70
     0
 10
0.0
 20
0.0
 30
0.0
  3
*PAPER_SPACE
  1

  0
ENDBLK
  5
18
330
16
100
AcDbEntity
 67
     1
  8
0
100
AcDbBlockEnd
  0
BLOCK
  5
2E6E
330
2E6B
100
AcDbEntity
  8
0
100
AcDbBlockBegin
  2
CL
 70
     0
 10
0.0
 20
0.0
 30
0.0
  3
CL
  1

  0
TEXT
  5
2E6C
330
2E6B
100
AcDbEntity
  8
0
 62
     4
100
AcDbText
 10
-0.0446487846840817
 20
-0.0006419411893219
 30
0.0
 40
0.125
  1
C
100
AcDbText
  0
TEXT
  5
2E6D
330
2E6B
100
AcDbEntity
  8
0
 62
     4
100
AcDbText
 10
0.0023360547861877
 20
-0.065809302625766
 30
0.0
 40
0.125
  1
L
100
AcDbText
  0
ENDBLK
  5
2E6F
330
2E6B
100
AcDbEntity
  8
0
100
AcDbBlockEnd
  0
BLOCK
  5
2E9F
330
2E70
100
AcDbEntity
  8
0
100
AcDbBlockBegin
  2
POLYCASELOGO
 70
     0
 10
0.0
 20
0.0
 30
0.0
  3
POLYCASELOGO
  1

  0
TEXT
  5
2E71
330
2E70
100
AcDbEntity
  8
0
  6
Continuous
 62
     5
100
AcDbText
 10
0.5543786009275298
 20
0.2596875577735744
 30
0.0
 40
0.2560714469563737
  1
POLYCASE
 41
1.074999999999999
  7
SANSSERIFBOLDOBLIQUE
100
AcDbText
  0
LWPOLYLINE
  5
2E72
330
2E70
100
AcDbEntity
  8
0
 62
     5
100
AcDbPolyline
 90
        2
 70
     0
 43
0.0283704365880094
 10
0.5653711824815968
 20
0.0874383236000913
 10
2.515371182481596
 20
0.0874383236000913
  0
TEXT
  5
2E73
330
2E70
100
AcDbEntity
  8
0
 62
     5
100
AcDbText
 10
0.5605156599830235
 20
0.1323139789410757
 30
0.0
 40
0.075654497568025
  1
YOUR PERFECT FIT
 41
1.8
  7
ROMANS
100
AcDbText
  0
ARC
  5
2E74
330
2E70
100
AcDbEntity
  8
0
  6
Continuous
 62
     5
100
AcDbCircle
 10
0.3887432458373094
 20
0.3774800182460627
 30
0.0
 40
0.031265452549206
100
AcDbArc
 50
266.7706331822096
 51
34.98953924178366
  0
ARC
  5
2E75
330
2E70
100
AcDbEntity
  8
0
  6
Continuous
 62
     5
100
AcDbCircle
 10
0.416855386687077
 20
0.3701236067504201
 30
0.0
 40
0.037429262845715
100
AcDbArc
 50
284.5083814713476
 51
357.5532058373056
  0
HATCH
  5
2E76
330
2E70
100
AcDbEntity
  8
0
 62
     5
100
AcDbHatch
 10
0.0
 20
0.0
 30
0.0
210
0.0
220
0.0
230
1.0
  2
ANSI37
 70
     0
 71
     0
 91
        1
 92
        1
 93
       11
 72
     2
 10
0.2931730151761709
 20
0.2945838597867372
 40
0.1588767169960905
 50
44.89452214437227
 51
75.72101642693887
 73
     1
 72
     1
 10
0.3323589335387709
 20
0.4485522818918409
 11
0.3265929222653341
 21
0.4668852408125282
 72
     2
 10
0.2969666889642948
 20
0.2837087256641109
 40
0.1855568629868643
 50
279.1872322025628
 51
321.2114153013091
 73
     0
 72
     2
 10
0.391360930001218
 20
0.3614695140686965
 40
0.0632842065627897
 50
322.5501373864274
 51
353.5982204382204
 73
     0
 72
     2
 10
0.4168553866870788
 20
0.3701236067504183
 40
0.037429262845715
 50
2.446794162694425
 51
75.49161852865238
 73
     0
 72
     2
 10
0.3842397376361806
 20
0.451177177154813
 40
0.1245798445307902
 50
70.3013609867947
 51
93.48971079086757
 73
     0
 72
     2
 10
0.3785106583832878
 20
0.5442257936888897
 40
0.2174053638482186
 50
90.4886177031712
 51
92.08518751394512
 73
     0
 72
     1
 10
0.3706002871579663
 20
0.3269643883333746
 11
0.3647966485473173
 21
0.345416982890306
 72
     2
 10
0.368138231815232
 20
0.5488074975796167
 40
0.2034179629342476
 50
269.0587496435967
 51
275.3152451116762
 73
     1
 72
     2
 10
0.3887432458373094
 20
0.3774800182460609
 40
0.031265452549206
 50
266.7706331822096
 51
394.9895392417836
 73
     1
 72
     2
 10
0.3624406169004164
 20
0.364725498726969
 40
0.060306102378538
 50
30.58307632047512
 51
44.13489854844378
 73
     1
 97
        0
 75
     0
 76
     1
 52
0.0
 41
0.0453750276742311
 77
     0
 78
     2
 53
45.0
 43
-3.289467215457912
 44
-3.001277648028757
 45
-0.004010623720622
 46
0.004010623720622
 79
     0
 53
135.0
 43
-3.289467215457912
 44
-3.001277648028757
 45
-0.004010623720622
 46
-0.004010623720622
 79
     0
 98
        1
 10
-3.289467215457912
 20
-3.001277648028757
  0
HATCH
  5
2E77
330
2E70
100
AcDbEntity
  8
0
 62
     5
100
AcDbHatch
 10
0.0
 20
0.0
 30
0.0
210
0.0
220
0.0
230
1.0
  2
ANSI37
 70
     0
 71
     0
 91
        1
 92
        1
 93
        4
 72
     2
 10
0.368138231815232
 20
0.5488074975796167
 40
0.2034179629342476
 50
241.2725538880669
 51
261.6978642764231
 73
     1
 72
     1
 10
0.3387660844240354
 20
0.3475212720152516
 11
0.3444315302060072
 21
0.3295080597853945
 72
     2
 10
0.3785106583832878
 20
0.5442257936888897
 40
0.2174053638482186
 50
99.0185280917996
 51
114.1854177949883
 73
     0
 72
     1
 10
0.2894416637327222
 20
0.3459033128101137
 11
0.2703666862890426
 21
0.3704270263117728
 97
        0
 75
     0
 76
     1
 52
0.0
 41
0.0453750276742311
 77
     0
 78
     2
 53
45.0
 43
-3.289467215457912
 44
-3.001277648028757
 45
-0.004010623720622
 46
0.004010623720622
 79
     0
 53
135.0
 43
-3.289467215457912
 44
-3.001277648028757
 45
-0.004010623720622
 46
-0.004010623720622
 79
     0
 98
        1
 10
-3.289467215457912
 20
-3.001277648028757
  0
ARC
  5
2E78
330
2E70
100
AcDbEntity
  8
0
 62
     5
100
AcDbCircle
 10
-1.004282102263919
 20
-0.757961875977971
 30
0.0
 40
1.684093940752742
100
AcDbArc
 50
34.18447411692975
 51
41.30254825040066
  0
ARC
  5
2E79
330
2E70
100
AcDbEntity
  8
0
  6
Continuous
 62
     5
100
AcDbCircle
 10
0.3785106583832878
 20
0.5442257936888933
 30
0.0
 40
0.2174053638482186
100
AcDbArc
 50
245.8145822050116
 51
260.9814719082004
  0
HATCH
  5
2E7A
330
2E70
100
AcDbEntity
  8
0
 62
     5
100
AcDbHatch
 10
0.0
 20
0.0
 30
0.0
210
0.0
220
0.0
230
1.0
  2
ANSI37
 70
     0
 71
     0
 91
        1
 92
       33
 93
       10
 72
     1
 10
0.3444315302060072
 20
0.329508059785395
 11
0.3706002871579646
 21
0.3269643883333757
 72
     2
 10
-1.004282102263919
 20
-0.7579618759779727
 40
1.684093940752742
 50
34.18447411692975
 51
41.30254825040066
 73
     1
 72
     2
 10
-1.13904507603075
 20
-0.7417938831336617
 40
1.760202787403546
 50
28.95584779356306
 51
37.65348787016842
 73
     1
 72
     1
 10
0.3444315302060072
 20
0.329508059785395
 11
0.3888557381376909
 21
0.1882618602077355
 72
     1
 10
0.3706002871579663
 20
0.3269643883333746
 11
0.4387571520870335
 21
0.1102605100973615
 72
     1
 10
0.254542153127181
 20
0.3334867720960002
 11
0.2608678370467192
 21
0.3535992030196624
 72
     2
 10
-1.004282102263919
 20
-0.7579618759779727
 40
1.684093940752742
 50
28.16790426947593
 51
31.03859275647719
 73
     1
 72
     1
 10
0.4198612308673102
 20
0.0755952402932767
 11
0.4803612677662859
 21
0.0370264667701803
 72
     2
 10
-1.13904507603075
 20
-0.7417938831336617
 40
1.760202787403546
 50
27.66959516185725
 51
28.05942494817616
 73
     1
 72
     1
 10
0.4011201161180545
 20
0.1103827615101878
 11
0.4142638285818255
 21
0.0861827467505974
 97
        0
 75
     0
 76
     1
 52
0.0
 41
0.0453750276742311
 77
     0
 78
     2
 53
45.0
 43
-3.289467215457912
 44
-3.001277648028757
 45
-0.004010623720622
 46
0.004010623720622
 79
     0
 53
135.0
 43
-3.289467215457912
 44
-3.001277648028757
 45
-0.004010623720622
 46
-0.004010623720622
 79
     0
 98
        1
 10
-3.289467215457912
 20
-3.001277648028757
  0
HATCH
  5
2E7B
330
2E70
100
AcDbEntity
  8
0
 62
     5
100
AcDbHatch
 10
0.0
 20
0.0
 30
0.0
210
0.0
220
0.0
230
1.0
  2
ANSI37
 70
     0
 71
     0
 91
        1
 92
        1
 93
        6
 72
     1
 10
0.1843723433461601
 20
0.1103827615101878
 11
0.4011201161180545
 21
0.1103827615101878
 72
     1
 10
0.4011201161180545
 20
0.1103827615101878
 11
0.4142638285818255
 21
0.0861827467505974
 72
     1
 10
0.4142638285818255
 20
0.0861827467505965
 11
0.1513923171281082
 21
0.0861827467505974
 72
     1
 10
0.15139231712811
 20
0.0861827467505965
 11
0.2364303266177767
 21
0.3565600076920983
 72
     1
 10
0.2364303266177767
 20
0.3565600076920994
 11
0.2545421531271828
 21
0.3334867720959997
 72
     1
 10
0.254542153127181
 20
0.3334867720960002
 11
0.1843723433461584
 21
0.1103827615101873
 97
        0
 75
     0
 76
     1
 52
0.0
 41
0.0453750276742311
 77
     0
 78
     2
 53
45.0
 43
-3.289467215457912
 44
-3.001277648028757
 45
-0.004010623720622
 46
0.004010623720622
 79
     0
 53
135.0
 43
-3.289467215457912
 44
-3.001277648028757
 45
-0.004010623720622
 46
-0.004010623720622
 79
     0
 98
        1
 10
-3.289467215457912
 20
-3.001277648028757
  0
LINE
  5
2E7C
330
2E70
100
AcDbEntity
  8
0
 62
     5
100
AcDbLine
 10
0.236430326617775
 20
0.3565600076921012
 30
0.0
 11
0.15139231712811
 21
0.0861827467505982
 31
0.0
  0
HATCH
  5
2E7D
330
2E70
100
AcDbEntity
  8
0
 62
     5
100
AcDbHatch
 10
0.0
 20
0.0
 30
0.0
210
0.0
220
0.0
230
1.0
  2
ANSI37
 70
     0
 71
     0
 91
        1
 92
        1
 93
       14
 72
     1
 10
0.2988611570693607
 20
0.5550580327176516
 11
0.3265929222653288
 21
0.4668852408125276
 72
     1
 10
0.3265929222653323
 20
0.4668852408125268
 11
0.3323589335387691
 21
0.4485522818918395
 72
     1
 10
0.3323589335387709
 20
0.4485522818918409
 11
0.3647966485473173
 21
0.3454169828903064
 72
     1
 10
0.3647966485473173
 20
0.3454169828903062
 11
0.3706002871579646
 21
0.3269643883333748
 72
     1
 10
0.3706002871579663
 20
0.3269643883333746
 11
0.3444315302060072
 21
0.3295080597853939
 72
     1
 10
0.3444315302060072
 20
0.329508059785395
 11
0.3387660844240354
 21
0.3475212720152521
 72
     1
 10
0.3387660844240354
 20
0.3475212720152516
 11
0.2988611570693624
 21
0.474398476937804
 72
     1
 10
0.2988611570693607
 20
0.4743984769378056
 11
0.2608678370467192
 21
0.3535992030196637
 72
     1
 10
0.260867837046721
 20
0.3535992030196624
 11
0.254542153127181
 21
0.3334867720960002
 72
     1
 10
0.254542153127181
 20
0.3334867720960002
 11
0.236430326617775
 21
0.3565600076920998
 72
     1
 10
0.2364303266177767
 20
0.3565600076920994
 11
0.242103905929854
 21
0.3745990803766492
 72
     1
 10
0.242103905929854
 20
0.3745990803766492
 11
0.2689368903660263
 21
0.4599142103788421
 72
     1
 10
0.2689368903660245
 20
0.4599142103788428
 11
0.2739367623135447
 21
0.4758112391350588
 72
     1
 10
0.2739367623135447
 20
0.4758112391350587
 11
0.2988611570693624
 21
0.5550580327176525
 97
        0
 75
     0
 76
     1
 52
0.0
 41
0.0453750276742311
 77
     0
 78
     2
 53
45.0
 43
-3.289467215457912
 44
-3.001277648028757
 45
-0.004010623720622
 46
0.004010623720622
 79
     0
 53
135.0
 43
-3.289467215457912
 44
-3.001277648028757
 45
-0.004010623720622
 46
-0.004010623720622
 79
     0
 98
        1
 10
-3.289467215457912
 20
-3.001277648028757
  0
LINE
  5
2E7E
330
2E70
100
AcDbEntity
  8
0
 62
     5
100
AcDbLine
 10
0.1843723433461601
 20
0.1103827615101895
 30
0.0
 11
0.4011201161180545
 21
0.1103827615101895
 31
0.0
  0
LINE
  5
2E7F
330
2E70
100
AcDbEntity
  8
0
 62
     5
100
AcDbLine
 10
0.15139231712811
 20
0.0861827467505982
 30
0.0
 11
0.4142638285818255
 21
0.0861827467505982
 31
0.0
  0
ARC
  5
2E80
330
2E70
100
AcDbEntity
  8
0
 62
     5
100
AcDbCircle
 10
-1.13904507603075
 20
-0.7417938831336599
 30
0.0
 40
1.760202787403546
100
AcDbArc
 50
28.95584779356306
 51
37.65348787016842
  0
LINE
  5
2E81
330
2E70
100
AcDbEntity
  8
0
 62
     5
100
AcDbLine
 10
0.254542153127181
 20
0.333486772096002
 30
0.0
 11
0.1843723433461601
 21
0.1103827615101895
 31
0.0
  0
LINE
  5
2E82
330
2E70
100
AcDbEntity
  8
0
 62
     5
100
AcDbLine
 10
0.3706002871579646
 20
0.3269643883333746
 30
0.0
 11
0.4387571520870335
 21
0.1102605100973619
 31
0.0
  0
LINE
  5
2E83
330
2E70
100
AcDbEntity
  8
0
 62
     5
100
AcDbLine
 10
0.4198612308673102
 20
0.0755952402932785
 30
0.0
 11
0.4803612677662859
 21
0.0370264667701807
 31
0.0
  0
LINE
  5
2E84
330
2E70
100
AcDbEntity
  8
0
 62
     5
100
AcDbLine
 10
0.4011201161180527
 20
0.1103827615101895
 30
0.0
 11
0.4142638285818255
 21
0.0861827467505982
 31
0.0
  0
ARC
  5
2E85
330
2E70
100
AcDbEntity
  8
0
 62
     5
100
AcDbCircle
 10
-1.13904507603075
 20
-0.7417938831336599
 30
0.0
 40
1.760202787403546
100
AcDbArc
 50
27.66959516185725
 51
28.05942494817616
  0
ARC
  5
2E86
330
2E70
100
AcDbEntity
  8
0
 62
     5
100
AcDbCircle
 10
-1.004282102263919
 20
-0.757961875977971
 30
0.0
 40
1.684093940752742
100
AcDbArc
 50
28.16790426947593
 51
31.03859275647719
  0
ARC
  5
2E87
330
2E70
100
AcDbEntity
  8
0
  6
Continuous
 62
     5
100
AcDbCircle
 10
0.3785106583832878
 20
0.5442257936888933
 30
0.0
 40
0.2174053638482186
100
AcDbArc
 50
267.9148124860548
 51
269.5113822968287
  0
ARC
  5
2E88
330
2E70
100
AcDbEntity
  8
0
  6
Continuous
 62
     5
100
AcDbCircle
 10
0.3842397376361806
 20
0.451177177154813
 30
0.0
 40
0.1245798445307902
100
AcDbArc
 50
266.5102892091324
 51
289.6986390132052
  0
LINE
  5
2E89
330
2E70
100
AcDbEntity
  8
0
 62
     5
100
AcDbLine
 10
0.3444315302060072
 20
0.329508059785395
 30
0.0
 11
0.3888557381376909
 21
0.1882618602077368
 31
0.0
  0
HATCH
  5
2E8A
330
2E70
100
AcDbEntity
  8
0
 62
     5
100
AcDbHatch
 10
0.0
 20
0.0
 30
0.0
210
0.0
220
0.0
230
1.0
  2
ANSI37
 70
     0
 71
     0
 91
        1
 92
        1
 93
        3
 72
     1
 10
0.242103905929854
 20
0.3745990803766492
 11
0.2364303266177767
 21
0.3565600076920994
 72
     2
 10
-1.13904507603075
 20
-0.7417938831336617
 40
1.760202787403546
 50
38.60830081639222
 51
47.20214679696134
 73
     1
 72
     2
 10
-1.004282102263919
 20
-0.7579618759779727
 40
1.684093940752742
 50
309.0573044417869
 51
317.7393318345313
 73
     0
 97
        0
 75
     0
 76
     1
 52
0.0
 41
0.0453750276742311
 77
     0
 78
     2
 53
45.0
 43
-3.289467215457912
 44
-3.001277648028757
 45
-0.004010623720622
 46
0.004010623720622
 79
     0
 53
135.0
 43
-3.289467215457912
 44
-3.001277648028757
 45
-0.004010623720622
 46
-0.004010623720622
 79
     0
 98
        1
 10
-3.289467215457912
 20
-3.001277648028757
  0
ARC
  5
2E8B
330
2E70
100
AcDbEntity
  8
0
 62
     5
100
AcDbCircle
 10
-1.13904507603075
 20
-0.7417938831336599
 30
0.0
 40
1.760202787403546
100
AcDbArc
 50
38.60830081639222
 51
47.20214679696134
  0
ARC
  5
2E8C
330
2E70
100
AcDbEntity
  8
0
 62
     5
100
AcDbCircle
 10
-1.004282102263919
 20
-0.757961875977971
 30
0.0
 40
1.684093940752742
100
AcDbArc
 50
42.26066816546867
 51
50.9426955582131
  0
ARC
  5
2E8D
330
2E70
100
AcDbEntity
  8
0
  6
Continuous
 62
     5
100
AcDbCircle
 10
0.368138231815232
 20
0.5488074975796185
 30
0.0
 40
0.2034179629342476
100
AcDbArc
 50
241.2725538880669
 51
261.6978642764231
  0
ARC
  5
2E8E
330
2E70
100
AcDbEntity
  8
0
  6
Continuous
 62
     5
100
AcDbCircle
 10
0.296966688964293
 20
0.2837087256641126
 30
0.0
 40
0.1855568629868643
100
AcDbArc
 50
38.78858469869091
 51
80.81276779743708
  0
LINE
  5
2E8F
330
2E70
100
AcDbEntity
  8
0
 62
     5
100
AcDbLine
 10
0.2988611570693607
 20
0.4743984769378056
 30
0.0
 11
0.3387660844240354
 21
0.3475212720152516
 31
0.0
  0
LINE
  5
2E90
330
2E70
100
AcDbEntity
  8
0
 62
     5
100
AcDbLine
 10
0.2988611570693607
 20
0.5550580327176551
 30
0.0
 11
0.3265929222653288
 21
0.4668852408125286
 31
0.0
  0
LINE
  5
2E91
330
2E70
100
AcDbEntity
  8
0
 62
     5
100
AcDbLine
 10
0.2988611570693607
 20
0.5550580327176551
 30
0.0
 11
0.2739367623135447
 21
0.4758112391350604
 31
0.0
  0
HATCH
  5
2E92
330
2E70
100
AcDbEntity
  8
0
 62
     5
100
AcDbHatch
 10
0.0
 20
0.0
 30
0.0
210
0.0
220
0.0
230
1.0
  2
ANSI37
 70
     0
 71
     0
 91
        1
 92
        1
 93
        4
 72
     1
 10
0.2739367623135447
 20
0.4758112391350587
 11
0.2689368903660245
 21
0.4599142103788426
 72
     2
 10
0.2614843996869069
 20
0.4001510777290509
 40
0.0602260046943093
 50
82.89188209876458
 51
145.8760929220745
 73
     1
 72
     1
 10
0.2116277271373637
 20
0.4339369304447463
 11
0.1901760796845497
 21
0.4553973803790768
 72
     2
 10
0.2578538046943688
 20
0.3597543333174435
 40
0.1171659801893835
 50
234.7164937370072
 51
277.8896979387382
 73
     0
 97
        0
 75
     0
 76
     1
 52
0.0
 41
0.0453750276742311
 77
     0
 78
     2
 53
45.0
 43
-3.289467215457912
 44
-3.001277648028757
 45
-0.004010623720622
 46
0.004010623720622
 79
     0
 53
135.0
 43
-3.289467215457912
 44
-3.001277648028757
 45
-0.004010623720622
 46
-0.004010623720622
 79
     0
 98
        1
 10
-3.289467215457912
 20
-3.001277648028757
  0
ARC
  5
2E93
330
2E70
100
AcDbEntity
  8
0
  6
Continuous
 62
     5
100
AcDbCircle
 10
0.2578538046943688
 20
0.3597543333174453
 30
0.0
 40
0.1171659801893835
100
AcDbArc
 50
82.11030206126171
 51
125.2835062629927
  0
ARC
  5
2E94
330
2E70
100
AcDbEntity
  8
0
  6
Continuous
 62
     5
100
AcDbCircle
 10
0.2614843996869052
 20
0.4001510777290545
 30
0.0
 40
0.0602260046943093
100
AcDbArc
 50
82.89188209876458
 51
145.8760929220745
  0
LINE
  5
2E95
330
2E70
100
AcDbEntity
  8
0
  6
Continuous
 62
     5
100
AcDbLine
 10
0.2116277271373619
 20
0.4339369304447498
 30
0.0
 11
0.190176079684548
 21
0.4553973803790772
 31
0.0
  0
LINE
  5
2E96
330
2E70
100
AcDbEntity
  8
0
 62
     5
100
AcDbLine
 10
0.2689368903660263
 20
0.4599142103788428
 30
0.0
 11
0.242103905929854
 21
0.374599080376651
 31
0.0
  0
LINE
  5
2E97
330
2E70
100
AcDbEntity
  8
0
  6
Continuous
 62
     5
100
AcDbLine
 10
0.2703666862890408
 20
0.3704270263117717
 30
0.0
 11
0.2894416637327204
 21
0.3459033128101137
 31
0.0
  0
LINE
  5
2E98
330
2E70
100
AcDbEntity
  8
0
 62
     5
100
AcDbLine
 10
0.2988611570693607
 20
0.4743984769378056
 30
0.0
 11
0.2608678370467192
 21
0.3535992030196642
 31
0.0
  0
LINE
  5
2E99
330
2E70
100
AcDbEntity
  8
0
 62
     5
100
AcDbLine
 10
0.3323589335387691
 20
0.4485522818918409
 30
0.0
 11
0.3647966485473173
 21
0.3454169828903062
 31
0.0
  0
ARC
  5
2E9A
330
2E70
100
AcDbEntity
  8
0
  6
Continuous
 62
     5
100
AcDbCircle
 10
0.368138231815232
 20
0.5488074975796185
 30
0.0
 40
0.2034179629342476
100
AcDbArc
 50
269.0587496435967
 51
275.3152451116762
  0
ARC
  5
2E9B
330
2E70
100
AcDbEntity
  8
0
  6
Continuous
 62
     5
100
AcDbCircle
 10
0.3624406169004164
 20
0.3647254987269708
 30
0.0
 40
0.060306102378538
100
AcDbArc
 50
30.58307632047512
 51
44.13489854844378
  0
ARC
  5
2E9C
330
2E70
100
AcDbEntity
  8
0
  6
Continuous
 62
     5
100
AcDbCircle
 10
0.2931730151761673
 20
0.2945838597867389
 30
0.0
 40
0.1588767169960905
100
AcDbArc
 50
44.89452214437227
 51
75.72101642693887
  0
ARC
  5
2E9D
330
2E70
100
AcDbEntity
  8
0
  6
Continuous
 62
     5
100
AcDbCircle
 10
0.391360930001218
 20
0.3614695140686965
 30
0.0
 40
0.0632842065627897
100
AcDbArc
 50
6.401779561779607
 51
37.44986261357257
  0
TEXT
  5
2E9E
330
2E70
100
AcDbEntity
  8
0
 62
     5
100
AcDbText
 10
2.608221457526555
 20
0.5412305374466282
 30
0.0
 40
0.0283704365880094
  1
TM
 41
1.399999999999999
  7
ROMANS
100
AcDbText
  0
ENDBLK
  5
2EA0
330
2E70
100
AcDbEntity
  8
0
100
AcDbBlockEnd
  0
BLOCK
  5
58CA
330
523E
100
AcDbEntity
  8
0
100
AcDbBlockBegin
  2
*D2
 70
     1
 10
0.0
 20
0.0
 30
0.0
  3
*D2
  1

  0
LINE
  5
5CC3
330
523E
100
AcDbEntity
  8
0
 62
     1
370
    -2
100
AcDbLine
 10
77.98122900505122
 20
52.90605529769037
 30
0.0
 11
79.78990190754558
 21
52.90605529769037
 31
0.0
  0
LINE
  5
5CC4
330
523E
100
AcDbEntity
  8
0
 62
     1
370
    -2
100
AcDbLine
 10
78.32809783595941
 20
51.27605529769037
 30
0.0
 11
79.78990190754558
 21
51.27605529769037
 31
0.0
  0
LINE
  5
5CC5
330
523E
100
AcDbEntity
  8
0
 62
     1
370
    -2
100
AcDbLine
 10
79.68990190754559
 20
52.72605529769037
 30
0.0
 11
79.68990190754559
 21
52.24491955417059
 31
0.0
  0
LINE
  5
5CC6
330
523E
100
AcDbEntity
  8
0
 62
     1
370
    -2
100
AcDbLine
 10
79.68990190754559
 20
51.45605529769037
 30
0.0
 11
79.68990190754559
 21
51.93719104121015
 31
0.0
  0
SOLID
  5
5CC7
330
523E
100
AcDbEntity
  8
0
 62
     1
100
AcDbTrace
 10
79.65990190754559
 20
52.72605529769037
 30
0.0
 11
79.71990190754559
 21
52.72605529769037
 31
0.0
 12
79.68990190754559
 22
52.90605529769037
 32
0.0
 13
79.68990190754559
 23
52.90605529769037
 33
0.0
  0
SOLID
  5
5CC8
330
523E
100
AcDbEntity
  8
0
 62
     1
100
AcDbTrace
 10
79.65990190754559
 20
51.45605529769037
 30
0.0
 11
79.71990190754559
 21
51.45605529769037
 31
0.0
 12
79.68990190754559
 22
51.27605529769037
 32
0.0
 13
79.68990190754559
 23
51.27605529769037
 33
0.0
  0
MTEXT
  5
5CC9
330
523E
100
AcDbEntity
  8
0
 62
     4
100
AcDbMText
 10
79.68990190754557
 20
52.09105529769038
 30
0.0
 40
0.125
 41
0.0
 71
     5
 72
     1
  1
\A1;1.630
 73
     1
 44
1.0
  0
POINT
  5
5CCA
330
523E
100
AcDbEntity
  8
DEFPOINTS
 62
     0
100
AcDbPoint
 10
77.91872900505122
 20
52.90605529769037
 30
0.0
  0
POINT
  5
5CCB
330
523E
100
AcDbEntity
  8
DEFPOINTS
 62
     0
100
AcDbPoint
 10
78.26559783595941
 20
51.27605529769037
 30
0.0
  0
POINT
  5
5CCC
330
523E
100
AcDbEntity
  8
DEFPOINTS
 62
     0
100
AcDbPoint
 10
79.68990190754559
 20
51.27605529769037
 30
0.0
  0
ENDBLK
  5
58D5
330
523E
100
AcDbEntity
  8
0
100
AcDbBlockEnd
  0
BLOCK
  5
5A63
330
5340
100
AcDbEntity
  8
0
100
AcDbBlockBegin
  2
*D3
 70
     1
 10
0.0
 20
0.0
 30
0.0
  3
*D3
  1

  0
LINE
  5
5A64
330
5340
100
AcDbEntity
  8
0
  6
ByBlock
 62
     1
100
AcDbLine
 10
58.75668545189405
 20
58.36397802400242
 30
0.0
 11
58.75668545189405
 21
60.54262155317171
 31
0.0
  0
LINE
  5
5A65
330
5340
100
AcDbEntity
  8
0
  6
ByBlock
 62
     1
100
AcDbLine
 10
53.50643719176105
 20
58.36397802400241
 30
0.0
 11
53.50643719176105
 21
60.54262155317171
 31
0.0
  0
LINE
  5
5A66
330
5340
100
AcDbEntity
  8
0
  6
ByBlock
 62
     1
100
AcDbLine
 10
58.57668545189405
 20
60.4426215531717
 30
0.0
 11
56.43887952094328
 21
60.4426215531717
 31
0.0
  0
LINE
  5
5A67
330
5340
100
AcDbEntity
  8
0
  6
ByBlock
 62
     1
100
AcDbLine
 10
53.68643719176105
 20
60.4426215531717
 30
0.0
 11
55.83749480061586
 21
60.4426215531717
 31
0.0
  0
SOLID
  5
5A68
330
5340
100
AcDbEntity
  8
0
  6
ByBlock
 62
     1
100
AcDbTrace
 10
58.57668545189405
 20
60.4726215531717
 30
0.0
 11
58.57668545189405
 21
60.4126215531717
 31
0.0
 12
58.75668545189405
 22
60.4426215531717
 32
0.0
 13
58.75668545189405
 23
60.4426215531717
 33
0.0
  0
SOLID
  5
5A69
330
5340
100
AcDbEntity
  8
0
  6
ByBlock
 62
     1
100
AcDbTrace
 10
53.68643719176105
 20
60.4726215531717
 30
0.0
 11
53.68643719176105
 21
60.4126215531717
 31
0.0
 12
53.50643719176105
 22
60.4426215531717
 32
0.0
 13
53.50643719176105
 23
60.4426215531717
 33
0.0
  0
MTEXT
  5
5A6A
330
5340
100
AcDbEntity
  8
0
  6
ByBlock
 62
     4
100
AcDbMText
 10
56.13818716077957
 20
60.4426215531717
 30
0.0
 40
0.125
 41
0.0
 71
     5
 72
     1
  1
\A1;5.250
 73
     1
 44
1.0
1001
ACAD
1000
MTEXTBEGIN
1070
    73
1070
     1
1070
    44
1040
1.0
1070
    74
1070
     0
1000
MTEXTEND
  0
POINT
  5
5A6B
330
5340
100
AcDbEntity
  8
DEFPOINTS
  6
ByBlock
 62
     0
100
AcDbPoint
 10
58.75668545189405
 20
58.30147802400241
 30
0.0
  0
POINT
  5
5A6C
330
5340
100
AcDbEntity
  8
DEFPOINTS
  6
ByBlock
 62
     0
100
AcDbPoint
 10
53.50643719176105
 20
58.3014780240024
 30
0.0
  0
POINT
  5
5A6D
330
5340
100
AcDbEntity
  8
DEFPOINTS
  6
ByBlock
 62
     0
100
AcDbPoint
 10
53.50643719176105
 20
60.4426215531717
 30
0.0
  0
ENDBLK
  5
5A6E
330
5340
100
AcDbEntity
  8
0
100
AcDbBlockEnd
  0
BLOCK
  5
5A57
330
535A
100
AcDbEntity
  8
0
100
AcDbBlockBegin
  2
*D4
 70
     1
 10
0.0
 20
0.0
 30
0.0
  3
*D4
  1

  0
LINE
  5
5A58
330
535A
100
AcDbEntity
  8
0
  6
ByBlock
 62
     1
100
AcDbLine
 10
58.51548807906024
 20
58.05017464775841
 30
0.0
 11
58.51548807906024
 21
60.09368601897308
 31
0.0
  0
LINE
  5
5A59
330
535A
100
AcDbEntity
  8
0
  6
ByBlock
 62
     1
100
AcDbLine
 10
53.75656392949954
 20
58.04992464775842
 30
0.0
 11
53.75656392949954
 21
60.09368601897308
 31
0.0
  0
LINE
  5
5A5A
330
535A
100
AcDbEntity
  8
0
  6
ByBlock
 62
     1
100
AcDbLine
 10
58.33548807906025
 20
59.99368601897308
 30
0.0
 11
56.60305926173454
 21
59.99368601897308
 31
0.0
  0
LINE
  5
5A5B
330
535A
100
AcDbEntity
  8
0
  6
ByBlock
 62
     1
100
AcDbLine
 10
53.93656392949954
 20
59.99368601897308
 30
0.0
 11
55.67331505982458
 21
59.99368601897308
 31
0.0
  0
SOLID
  5
5A5C
330
535A
100
AcDbEntity
  8
0
  6
ByBlock
 62
     1
100
AcDbTrace
 10
58.33548807906025
 20
60.02368601897308
 30
0.0
 11
58.33548807906025
 21
59.96368601897308
 31
0.0
 12
58.51548807906024
 22
59.99368601897308
 32
0.0
 13
58.51548807906024
 23
59.99368601897308
 33
0.0
  0
SOLID
  5
5A5D
330
535A
100
AcDbEntity
  8
0
  6
ByBlock
 62
     1
100
AcDbTrace
 10
53.93656392949954
 20
60.02368601897308
 30
0.0
 11
53.93656392949954
 21
59.96368601897308
 31
0.0
 12
53.75656392949954
 22
59.99368601897308
 32
0.0
 13
53.75656392949954
 23
59.99368601897308
 33
0.0
  0
MTEXT
  5
5A5E
330
535A
100
AcDbEntity
  8
0
  6
ByBlock
 62
     4
100
AcDbMText
 10
56.13818716077957
 20
59.99368601897308
 30
0.0
 40
0.125
 41
0.0
 71
     5
 72
     1
  1
\A1;4.759\P(2 PLCS.)
 73
     1
 44
1.0
1001
ACAD
1000
MTEXTBEGIN
1070
    73
1070
     1
1070
    44
1040
1.0
1070
    74
1070
     0
1000
MTEXTEND
  0
POINT
  5
5A5F
330
535A
100
AcDbEntity
  8
DEFPOINTS
  6
ByBlock
 62
     0
100
AcDbPoint
 10
58.51548807906024
 20
57.98767464775841
 30
0.0
  0
POINT
  5
5A60
330
535A
100
AcDbEntity
  8
DEFPOINTS
  6
ByBlock
 62
     0
100
AcDbPoint
 10
53.75656392949954
 20
57.98742464775841
 30
0.0
  0
POINT
  5
5A61
330
535A
100
AcDbEntity
  8
DEFPOINTS
  6
ByBlock
 62
     0
100
AcDbPoint
 10
53.75656392949954
 20
59.99368601897308
 30
0.0
  0
ENDBLK
  5
5A62
330
535A
100
AcDbEntity
  8
0
100
AcDbBlockEnd
  0
BLOCK
  5
5A4B
330
5368
100
AcDbEntity
  8
0
100
AcDbBlockBegin
  2
*D5
 70
     1
 10
0.0
 20
0.0
 30
0.0
  3
*D5
  1

  0
LINE
  5
5A4C
330
5368
100
AcDbEntity
  8
0
  6
ByBlock
 62
     1
100
AcDbLine
 10
58.13156132105356
 20
57.79992638569042
 30
0.0
 11
58.13156132105356
 21
59.64633290914975
 31
0.0
  0
LINE
  5
5A4D
330
5368
100
AcDbEntity
  8
0
  6
ByBlock
 62
     1
100
AcDbLine
 10
54.13156132260155
 20
57.79992638569042
 30
0.0
 11
54.13156132260155
 21
59.64633290914975
 31
0.0
  0
LINE
  5
5A4E
330
5368
100
AcDbEntity
  8
0
  6
ByBlock
 62
     1
100
AcDbLine
 10
57.95156132105356
 20
59.54633290914975
 30
0.0
 11
56.60305926173454
 21
59.54633290914975
 31
0.0
  0
LINE
  5
5A4F
330
5368
100
AcDbEntity
  8
0
  6
ByBlock
 62
     1
100
AcDbLine
 10
54.31156132260155
 20
59.54633290914975
 30
0.0
 11
55.67331505982458
 21
59.54633290914975
 31
0.0
  0
SOLID
  5
5A50
330
5368
100
AcDbEntity
  8
0
  6
ByBlock
 62
     1
100
AcDbTrace
 10
57.95156132105356
 20
59.57633290914976
 30
0.0
 11
57.95156132105356
 21
59.51633290914975
 31
0.0
 12
58.13156132105356
 22
59.54633290914975
 32
0.0
 13
58.13156132105356
 23
59.54633290914975
 33
0.0
  0
SOLID
  5
5A51
330
5368
100
AcDbEntity
  8
0
  6
ByBlock
 62
     1
100
AcDbTrace
 10
54.31156132260155
 20
59.57633290914976
 30
0.0
 11
54.31156132260155
 21
59.51633290914975
 31
0.0
 12
54.13156132260155
 22
59.54633290914975
 32
0.0
 13
54.13156132260155
 23
59.54633290914975
 33
0.0
  0
MTEXT
  5
5A52
330
5368
100
AcDbEntity
  8
0
  6
ByBlock
 62
     4
100
AcDbMText
 10
56.13818716077957
 20
59.54633290914975
 30
0.0
 40
0.125
 41
0.0
 71
     5
 72
     1
  1
\A1;\fArial|b0|i0|c0|p32;4.000\P(3 PLCS.)
 73
     1
 44
1.0
1001
ACAD
1000
MTEXTBEGIN
1070
    73
1070
     1
1070
    44
1040
1.0
1070
    74
1070
     0
1000
MTEXTEND
  0
POINT
  5
5A53
330
5368
100
AcDbEntity
  8
DEFPOINTS
  6
ByBlock
 62
     0
100
AcDbPoint
 10
58.13156132105356
 20
57.73742638569042
 30
0.0
  0
POINT
  5
5A54
330
5368
100
AcDbEntity
  8
DEFPOINTS
  6
ByBlock
 62
     0
100
AcDbPoint
 10
54.13156132260155
 20
57.73742638569042
 30
0.0
  0
POINT
  5
5A55
330
5368
100
AcDbEntity
  8
DEFPOINTS
  6
ByBlock
 62
     0
100
AcDbPoint
 10
54.13156132260155
 20
59.54633290914975
 30
0.0
  0
ENDBLK
  5
5A56
330
5368
100
AcDbEntity
  8
0
100
AcDbBlockEnd
  0
BLOCK
  5
5A3F
330
5376
100
AcDbEntity
  8
0
100
AcDbBlockBegin
  2
*D6
 70
     1
 10
0.0
 20
0.0
 30
0.0
  3
*D6
  1

  0
LINE
  5
5A40
330
5376
100
AcDbEntity
  8
0
  6
ByBlock
 62
     1
100
AcDbLine
 10
54.50643719137405
 20
57.42505051691791
 30
0.0
 11
54.50643719137405
 21
59.18300296465157
 31
0.0
  0
LINE
  5
5A41
330
5376
100
AcDbEntity
  8
0
  6
ByBlock
 62
     1
100
AcDbLine
 10
57.75668545228104
 20
57.42505051691792
 30
0.0
 11
57.75668545228104
 21
59.18300296465157
 31
0.0
  0
LINE
  5
5A42
330
5376
100
AcDbEntity
  8
0
  6
ByBlock
 62
     1
100
AcDbLine
 10
54.68643719137404
 20
59.08300296465156
 30
0.0
 11
55.66668922087256
 21
59.08300296465156
 31
0.0
  0
LINE
  5
5A43
330
5376
100
AcDbEntity
  8
0
  6
ByBlock
 62
     1
100
AcDbLine
 10
57.57668545228105
 20
59.08300296465156
 30
0.0
 11
56.59643342278251
 21
59.08300296465156
 31
0.0
  0
SOLID
  5
5A44
330
5376
100
AcDbEntity
  8
0
  6
ByBlock
 62
     1
100
AcDbTrace
 10
54.68643719137404
 20
59.11300296465157
 30
0.0
 11
54.68643719137404
 21
59.05300296465156
 31
0.0
 12
54.50643719137405
 22
59.08300296465156
 32
0.0
 13
54.50643719137405
 23
59.08300296465156
 33
0.0
  0
SOLID
  5
5A45
330
5376
100
AcDbEntity
  8
0
  6
ByBlock
 62
     1
100
AcDbTrace
 10
57.57668545228105
 20
59.11300296465157
 30
0.0
 11
57.57668545228105
 21
59.05300296465156
 31
0.0
 12
57.75668545228104
 22
59.08300296465156
 32
0.0
 13
57.75668545228104
 23
59.08300296465156
 33
0.0
  0
MTEXT
  5
5A46
330
5376
100
AcDbEntity
  8
0
  6
ByBlock
 62
     4
100
AcDbMText
 10
56.13156132182755
 20
59.08300296465156
 30
0.0
 40
0.125
 41
0.0
 71
     5
 72
     1
  1
\A1;\fArial|b0|i0|c0|p32;3.250\P(3 PLCS.)
 73
     1
 44
1.0
1001
ACAD
1000
MTEXTBEGIN
1070
    73
1070
     1
1070
    44
1040
1.0
1070
    74
1070
     0
1000
MTEXTEND
  0
POINT
  5
5A47
330
5376
100
AcDbEntity
  8
DEFPOINTS
  6
ByBlock
 62
     0
100
AcDbPoint
 10
54.50643719137405
 20
57.36255051691792
 30
0.0
  0
POINT
  5
5A48
330
5376
100
AcDbEntity
  8
DEFPOINTS
  6
ByBlock
 62
     0
100
AcDbPoint
 10
57.75668545228104
 20
57.36255051691792
 30
0.0
  0
POINT
  5
5A49
330
5376
100
AcDbEntity
  8
DEFPOINTS
  6
ByBlock
 62
     0
100
AcDbPoint
 10
57.75668545228104
 20
59.08300296465156
 30
0.0
  0
ENDBLK
  5
5A4A
330
5376
100
AcDbEntity
  8
0
100
AcDbBlockEnd
  0
BLOCK
  5
5A27
330
53CC
100
AcDbEntity
  8
0
100
AcDbBlockBegin
  2
*D7
 70
     1
 10
0.0
 20
0.0
 30
0.0
  3
*D7
  1

  0
LINE
  5
5A28
330
53CC
100
AcDbEntity
  8
0
  6
ByBlock
 62
     1
100
AcDbLine
 10
53.63013381532355
 20
58.48767464756491
 30
0.0
 11
50.29430919835007
 21
58.48767464756491
 31
0.0
  0
LINE
  5
5A29
330
53CC
100
AcDbEntity
  8
0
  6
ByBlock
 62
     1
100
AcDbLine
 10
53.63013381532355
 20
52.98717812536391
 30
0.0
 11
50.29430919835007
 21
52.98717812536391
 31
0.0
  0
LINE
  5
5A2A
330
53CC
100
AcDbEntity
  8
0
  6
ByBlock
 62
     1
100
AcDbLine
 10
50.39430919835008
 20
58.3076746475649
 30
0.0
 11
50.39430919835007
 21
55.89124800992962
 31
0.0
  0
LINE
  5
5A2B
330
53CC
100
AcDbEntity
  8
0
  6
ByBlock
 62
     1
100
AcDbLine
 10
50.39430919835007
 20
53.16717812536392
 30
0.0
 11
50.39430919835007
 21
55.58360476299919
 31
0.0
  0
SOLID
  5
5A2C
330
53CC
100
AcDbEntity
  8
0
  6
ByBlock
 62
     1
100
AcDbTrace
 10
50.36430919835008
 20
58.3076746475649
 30
0.0
 11
50.42430919835008
 21
58.3076746475649
 31
0.0
 12
50.39430919835008
 22
58.48767464756491
 32
0.0
 13
50.39430919835008
 23
58.48767464756491
 33
0.0
  0
SOLID
  5
5A2D
330
53CC
100
AcDbEntity
  8
0
  6
ByBlock
 62
     1
100
AcDbTrace
 10
50.36430919835007
 20
53.16717812536392
 30
0.0
 11
50.42430919835007
 21
53.16717812536392
 31
0.0
 12
50.39430919835007
 22
52.98717812536391
 32
0.0
 13
50.39430919835007
 23
52.98717812536391
 33
0.0
  0
MTEXT
  5
5A2E
330
53CC
100
AcDbEntity
  8
0
  6
ByBlock
 62
     4
100
AcDbMText
 10
50.39430919835007
 20
55.73742638646441
 30
0.0
 40
0.125
 41
0.0
 71
     5
 72
     1
  1
\A1;5.501
 73
     1
 44
1.0
1001
ACAD
1000
MTEXTBEGIN
1070
    73
1070
     1
1070
    44
1040
1.0
1070
    74
1070
     0
1000
MTEXTEND
  0
POINT
  5
5A2F
330
53CC
100
AcDbEntity
  8
DEFPOINTS
  6
ByBlock
 62
     0
100
AcDbPoint
 10
53.69263381532356
 20
58.48767464756491
 30
0.0
  0
POINT
  5
5A30
330
53CC
100
AcDbEntity
  8
DEFPOINTS
  6
ByBlock
 62
     0
100
AcDbPoint
 10
53.69263381532356
 20
52.98717812536391
 30
0.0
  0
POINT
  5
5A31
330
53CC
100
AcDbEntity
  8
DEFPOINTS
  6
ByBlock
 62
     0
100
AcDbPoint
 10
50.39430919835007
 20
52.98717812536391
 30
0.0
  0
ENDBLK
  5
5A32
330
53CC
100
AcDbEntity
  8
0
100
AcDbBlockEnd
  0
BLOCK
  5
5A1B
330
53DA
100
AcDbEntity
  8
0
100
AcDbBlockBegin
  2
*D8
 70
     1
 10
0.0
 20
0.0
 30
0.0
  3
*D8
  1

  0
LINE
  5
5A1C
330
53DA
100
AcDbEntity
  8
0
  6
ByBlock
 62
     1
100
AcDbLine
 10
53.69368892949955
 20
57.98742644775842
 30
0.0
 11
51.0298511899767
 21
57.98742644775842
 31
0.0
  0
LINE
  5
5A1D
330
53DA
100
AcDbEntity
  8
0
  6
ByBlock
 62
     1
100
AcDbLine
 10
53.69406392949955
 20
53.48742812517041
 30
0.0
 11
51.0298511899767
 21
53.48742812517041
 31
0.0
  0
LINE
  5
5A1E
330
53DA
100
AcDbEntity
  8
0
  6
ByBlock
 62
     1
100
AcDbLine
 10
51.1298511899767
 20
57.80742644775841
 30
0.0
 11
51.1298511899767
 21
56.01624890992964
 31
0.0
  0
LINE
  5
5A1F
330
53DA
100
AcDbEntity
  8
0
  6
ByBlock
 62
     1
100
AcDbLine
 10
51.1298511899767
 20
53.66742812517042
 30
0.0
 11
51.1298511899767
 21
55.45860566299921
 31
0.0
  0
SOLID
  5
5A20
330
53DA
100
AcDbEntity
  8
0
  6
ByBlock
 62
     1
100
AcDbTrace
 10
51.0998511899767
 20
57.80742644775841
 30
0.0
 11
51.1598511899767
 21
57.80742644775841
 31
0.0
 12
51.1298511899767
 22
57.98742644775842
 32
0.0
 13
51.1298511899767
 23
57.98742644775842
 33
0.0
  0
SOLID
  5
5A21
330
53DA
100
AcDbEntity
  8
0
  6
ByBlock
 62
     1
100
AcDbTrace
 10
51.0998511899767
 20
53.66742812517042
 30
0.0
 11
51.1598511899767
 21
53.66742812517042
 31
0.0
 12
51.1298511899767
 22
53.48742812517041
 32
0.0
 13
51.1298511899767
 23
53.48742812517041
 33
0.0
  0
MTEXT
  5
5A22
330
53DA
100
AcDbEntity
  8
0
  6
ByBlock
 62
     4
100
AcDbMText
 10
51.1298511899767
 20
55.73742728646442
 30
0.0
 40
0.125
 41
0.0
 71
     5
 72
     1
  1
\A1;\fArial|b0|i0|c0|p32;4.500\P(2 PLCS.)
 73
     1
 44
1.0
1001
ACAD
1000
MTEXTBEGIN
1070
    73
1070
     1
1070
    44
1040
1.0
1070
    74
1070
     0
1000
MTEXTEND
  0
POINT
  5
5A23
330
53DA
100
AcDbEntity
  8
DEFPOINTS
  6
ByBlock
 62
     0
100
AcDbPoint
 10
53.75618892949955
 20
57.98742644775842
 30
0.0
  0
POINT
  5
5A24
330
53DA
100
AcDbEntity
  8
DEFPOINTS
  6
ByBlock
 62
     0
100
AcDbPoint
 10
53.75656392949956
 20
53.48742812517041
 30
0.0
  0
POINT
  5
5A25
330
53DA
100
AcDbEntity
  8
DEFPOINTS
  6
ByBlock
 62
     0
100
AcDbPoint
 10
51.1298511899767
 20
53.48742812517041
 30
0.0
  0
ENDBLK
  5
5A26
330
53DA
100
AcDbEntity
  8
0
100
AcDbBlockEnd
  0
BLOCK
  5
5A0F
330
53E8
100
AcDbEntity
  8
0
100
AcDbBlockBegin
  2
*D9
 70
     1
 10
0.0
 20
0.0
 30
0.0
  3
*D9
  1

  0
LINE
  5
5A10
330
53E8
100
AcDbEntity
  8
0
  6
ByBlock
 62
     1
100
AcDbLine
 10
54.06906132260155
 20
57.73742638569042
 30
0.0
 11
51.92529345915422
 21
57.73742638569042
 31
0.0
  0
LINE
  5
5A11
330
53E8
100
AcDbEntity
  8
0
  6
ByBlock
 62
     1
100
AcDbLine
 10
54.06906132260155
 20
53.73742638723841
 30
0.0
 11
51.92529345915422
 21
53.73742638723841
 31
0.0
  0
LINE
  5
5A12
330
53E8
100
AcDbEntity
  8
0
  6
ByBlock
 62
     1
100
AcDbLine
 10
52.02529345915422
 20
57.55742638569042
 30
0.0
 11
52.02529345915422
 21
56.01624800992963
 31
0.0
  0
LINE
  5
5A13
330
53E8
100
AcDbEntity
  8
0
  6
ByBlock
 62
     1
100
AcDbLine
 10
52.02529345915422
 20
53.91742638723841
 30
0.0
 11
52.02529345915422
 21
55.45860476299921
 31
0.0
  0
SOLID
  5
5A14
330
53E8
100
AcDbEntity
  8
0
  6
ByBlock
 62
     1
100
AcDbTrace
 10
51.99529345915422
 20
57.55742638569042
 30
0.0
 11
52.05529345915422
 21
57.55742638569042
 31
0.0
 12
52.02529345915422
 22
57.73742638569042
 32
0.0
 13
52.02529345915422
 23
57.73742638569042
 33
0.0
  0
SOLID
  5
5A15
330
53E8
100
AcDbEntity
  8
0
  6
ByBlock
 62
     1
100
AcDbTrace
 10
51.99529345915422
 20
53.91742638723841
 30
0.0
 11
52.05529345915422
 21
53.91742638723841
 31
0.0
 12
52.02529345915422
 22
53.73742638723841
 32
0.0
 13
52.02529345915422
 23
53.73742638723841
 33
0.0
  0
MTEXT
  5
5A16
330
53E8
100
AcDbEntity
  8
0
  6
ByBlock
 62
     4
100
AcDbMText
 10
52.02529345915422
 20
55.73742638646442
 30
0.0
 40
0.125
 41
0.0
 71
     5
 72
     1
  1
\A1;\fArial|b0|i0|c0|p32;4.000\P(2 PLCS.)
 73
     1
 44
1.0
1001
ACAD
1000
MTEXTBEGIN
1070
    73
1070
     1
1070
    44
1040
1.0
1070
    74
1070
     0
1000
MTEXTEND
  0
POINT
  5
5A17
330
53E8
100
AcDbEntity
  8
DEFPOINTS
  6
ByBlock
 62
     0
100
AcDbPoint
 10
54.13156132260155
 20
57.73742638569042
 30
0.0
  0
POINT
  5
5A18
330
53E8
100
AcDbEntity
  8
DEFPOINTS
  6
ByBlock
 62
     0
100
AcDbPoint
 10
54.13156132260155
 20
53.73742638723841
 30
0.0
  0
POINT
  5
5A19
330
53E8
100
AcDbEntity
  8
DEFPOINTS
  6
ByBlock
 62
     0
100
AcDbPoint
 10
52.02529345915422
 20
53.73742638723841
 30
0.0
  0
ENDBLK
  5
5A1A
330
53E8
100
AcDbEntity
  8
0
100
AcDbBlockEnd
  0
BLOCK
  5
5A03
330
53F6
100
AcDbEntity
  8
0
100
AcDbBlockBegin
  2
*D10
 70
     1
 10
0.0
 20
0.0
 30
0.0
  3
*D10
  1

  0
LINE
  5
5A04
330
53F6
100
AcDbEntity
  8
0
  6
ByBlock
 62
     1
100
AcDbLine
 10
54.44393719137405
 20
54.11230225601091
 30
0.0
 11
52.77276567059836
 21
54.11230225601091
 31
0.0
  0
LINE
  5
5A05
330
53F6
100
AcDbEntity
  8
0
  6
ByBlock
 62
     1
100
AcDbLine
 10
54.44393719137405
 20
57.36255051691792
 30
0.0
 11
52.77276567059836
 21
57.36255051691792
 31
0.0
  0
LINE
  5
5A06
330
53F6
100
AcDbEntity
  8
0
  6
ByBlock
 62
     1
100
AcDbLine
 10
52.87276567059837
 20
54.29230225601092
 30
0.0
 11
52.87276567059837
 21
55.45860476299921
 31
0.0
  0
LINE
  5
5A07
330
53F6
100
AcDbEntity
  8
0
  6
ByBlock
 62
     1
100
AcDbLine
 10
52.87276567059837
 20
57.18255051691791
 30
0.0
 11
52.87276567059837
 21
56.01624800992963
 31
0.0
  0
SOLID
  5
5A08
330
53F6
100
AcDbEntity
  8
0
  6
ByBlock
 62
     1
100
AcDbTrace
 10
52.84276567059837
 20
54.29230225601092
 30
0.0
 11
52.90276567059837
 21
54.29230225601092
 31
0.0
 12
52.87276567059837
 22
54.11230225601091
 32
0.0
 13
52.87276567059837
 23
54.11230225601091
 33
0.0
  0
SOLID
  5
5A09
330
53F6
100
AcDbEntity
  8
0
  6
ByBlock
 62
     1
100
AcDbTrace
 10
52.84276567059837
 20
57.18255051691791
 30
0.0
 11
52.90276567059837
 21
57.18255051691791
 31
0.0
 12
52.87276567059837
 22
57.36255051691792
 32
0.0
 13
52.87276567059837
 23
57.36255051691792
 33
0.0
  0
MTEXT
  5
5A0A
330
53F6
100
AcDbEntity
  8
0
  6
ByBlock
 62
     4
100
AcDbMText
 10
52.87276567059837
 20
55.73742638646441
 30
0.0
 40
0.125
 41
0.0
 71
     5
 72
     1
  1
\A1;\fArial|b0|i0|c0|p32;3.250\P(2 PLCS.)
 73
     1
 44
1.0
1001
ACAD
1000
MTEXTBEGIN
1070
    73
1070
     1
1070
    44
1040
1.0
1070
    74
1070
     0
1000
MTEXTEND
  0
POINT
  5
5A0B
330
53F6
100
AcDbEntity
  8
DEFPOINTS
  6
ByBlock
 62
     0
100
AcDbPoint
 10
54.50643719137405
 20
54.11230225601091
 30
0.0
  0
POINT
  5
5A0C
330
53F6
100
AcDbEntity
  8
DEFPOINTS
  6
ByBlock
 62
     0
100
AcDbPoint
 10
54.50643719137405
 20
57.36255051691792
 30
0.0
  0
POINT
  5
5A0D
330
53F6
100
AcDbEntity
  8
DEFPOINTS
  6
ByBlock
 62
     0
100
AcDbPoint
 10
52.87276567059837
 20
57.36255051691792
 30
0.0
  0
ENDBLK
  5
5A0E
330
53F6
100
AcDbEntity
  8
0
100
AcDbBlockEnd
  0
BLOCK
  5
591E
330
5464
100
AcDbEntity
  8
0
100
AcDbBlockBegin
  2
*D11
 70
     1
 10
0.0
 20
0.0
 30
0.0
  3
*D11
  1

  0
LINE
  5
591F
330
5464
100
AcDbEntity
  8
0
  6
ByBlock
 62
     1
100
AcDbLine
 10
57.95920531320006
 20
58.25232211538192
 30
0.0
 11
59.30482222756267
 21
58.25232211538191
 31
0.0
  0
LINE
  5
5920
330
5464
100
AcDbEntity
  8
0
  6
ByBlock
 62
     1
100
AcDbLine
 10
57.95920531320006
 20
53.22253065754691
 30
0.0
 11
59.30482222756266
 21
53.2225306575469
 31
0.0
  0
LINE
  5
5921
330
5464
100
AcDbEntity
  8
0
  6
ByBlock
 62
     1
100
AcDbLine
 10
59.20482222756266
 20
58.07232211538191
 30
0.0
 11
59.20482222756266
 21
55.89129064294463
 31
0.0
  0
LINE
  5
5922
330
5464
100
AcDbEntity
  8
0
  6
ByBlock
 62
     1
100
AcDbLine
 10
59.20482222756266
 20
53.40253065754691
 30
0.0
 11
59.20482222756266
 21
55.58356212998419
 31
0.0
  0
SOLID
  5
5923
330
5464
100
AcDbEntity
  8
0
  6
ByBlock
 62
     1
100
AcDbTrace
 10
59.17482222756266
 20
58.07232211538191
 30
0.0
 11
59.23482222756266
 21
58.07232211538191
 31
0.0
 12
59.20482222756266
 22
58.25232211538191
 32
0.0
 13
59.20482222756266
 23
58.25232211538191
 33
0.0
  0
SOLID
  5
5924
330
5464
100
AcDbEntity
  8
0
  6
ByBlock
 62
     1
100
AcDbTrace
 10
59.17482222756266
 20
53.40253065754691
 30
0.0
 11
59.23482222756266
 21
53.40253065754691
 31
0.0
 12
59.20482222756266
 22
53.2225306575469
 32
0.0
 13
59.20482222756266
 23
53.2225306575469
 33
0.0
  0
MTEXT
  5
5925
330
5464
100
AcDbEntity
  8
0
  6
ByBlock
 62
     4
100
AcDbMText
 10
59.20482222756266
 20
55.73742638646442
 30
0.0
 40
0.125
 41
0.0
 71
     5
 72
     1
  1
\A1;5.030
 73
     1
 44
1.0
1001
ACAD
1000
MTEXTBEGIN
1070
    73
1070
     1
1070
    44
1040
1.0
1070
    74
1070
     0
1000
MTEXTEND
  0
POINT
  5
5926
330
5464
100
AcDbEntity
  8
DEFPOINTS
  6
ByBlock
 62
     0
100
AcDbPoint
 10
57.89670531320005
 20
58.25232211538192
 30
0.0
  0
POINT
  5
5927
330
5464
100
AcDbEntity
  8
DEFPOINTS
  6
ByBlock
 62
     0
100
AcDbPoint
 10
57.89670531320005
 20
53.22253065754691
 30
0.0
  0
POINT
  5
5928
330
5464
100
AcDbEntity
  8
DEFPOINTS
  6
ByBlock
 62
     0
100
AcDbPoint
 10
59.20482222756266
 20
53.2225306575469
 30
0.0
  0
ENDBLK
  5
5929
330
5464
100
AcDbEntity
  8
0
100
AcDbBlockEnd
  0
BLOCK
  5
5B0C
330
547E
100
AcDbEntity
  8
0
100
AcDbBlockBegin
  2
*D12
 70
     1
 10
0.0
 20
0.0
 30
0.0
  3
*D12
  1

  0
LINE
  5
5B0D
330
547E
100
AcDbEntity
  8
0
  6
ByBlock
 62
     1
100
AcDbLine
 10
57.89670531320005
 20
53.16003065754691
 30
0.0
 11
57.89670531320005
 21
52.0517419104278
 31
0.0
  0
LINE
  5
5B0E
330
547E
100
AcDbEntity
  8
0
  6
ByBlock
 62
     1
100
AcDbLine
 10
54.36641733045505
 20
53.16003065754691
 30
0.0
 11
54.36641733045505
 21
52.0517419104278
 31
0.0
  0
LINE
  5
5B0F
330
547E
100
AcDbEntity
  8
0
  6
ByBlock
 62
     1
100
AcDbLine
 10
57.71670531320006
 20
52.1517419104278
 30
0.0
 11
56.43221104897625
 21
52.1517419104278
 31
0.0
  0
LINE
  5
5B10
330
547E
100
AcDbEntity
  8
0
  6
ByBlock
 62
     1
100
AcDbLine
 10
54.54641733045505
 20
52.1517419104278
 30
0.0
 11
55.83091159467884
 21
52.1517419104278
 31
0.0
  0
SOLID
  5
5B11
330
547E
100
AcDbEntity
  8
0
  6
ByBlock
 62
     1
100
AcDbTrace
 10
57.71670531320006
 20
52.18174191042781
 30
0.0
 11
57.71670531320006
 21
52.1217419104278
 31
0.0
 12
57.89670531320005
 22
52.1517419104278
 32
0.0
 13
57.89670531320005
 23
52.1517419104278
 33
0.0
  0
SOLID
  5
5B12
330
547E
100
AcDbEntity
  8
0
  6
ByBlock
 62
     1
100
AcDbTrace
 10
54.54641733045505
 20
52.18174191042781
 30
0.0
 11
54.54641733045505
 21
52.1217419104278
 31
0.0
 12
54.36641733045505
 22
52.1517419104278
 32
0.0
 13
54.36641733045505
 23
52.1517419104278
 33
0.0
  0
MTEXT
  5
5B13
330
547E
100
AcDbEntity
  8
0
  6
ByBlock
 62
     4
100
AcDbMText
 10
56.13156132182755
 20
52.1517419104278
 30
0.0
 40
0.125
 41
0.0
 71
     5
 72
     1
  1
\A1;3.530
 73
     1
 44
1.0
1001
ACAD
1000
MTEXTBEGIN
1070
    73
1070
     1
1070
    44
1040
1.0
1070
    74
1070
     0
1000
MTEXTEND
  0
POINT
  5
5B14
330
547E
100
AcDbEntity
  8
DEFPOINTS
  6
ByBlock
 62
     0
100
AcDbPoint
 10
57.89670531320005
 20
53.22253065754691
 30
0.0
  0
POINT
  5
5B15
330
547E
100
AcDbEntity
  8
DEFPOINTS
  6
ByBlock
 62
     0
100
AcDbPoint
 10
54.36641733045505
 20
53.22253065754691
 30
0.0
  0
POINT
  5
5B16
330
547E
100
AcDbEntity
  8
DEFPOINTS
  6
ByBlock
 62
     0
100
AcDbPoint
 10
54.36641733045505
 20
52.1517419104278
 30
0.0
  0
ENDBLK
  5
5B17
330
547E
100
AcDbEntity
  8
0
100
AcDbBlockEnd
  0
BLOCK
  5
5875
330
54C2
100
AcDbEntity
  8
0
100
AcDbBlockBegin
  2
*D13
 70
     1
 10
0.0
 20
0.0
 30
0.0
  3
*D13
  1

  0
LINE
  5
5CB8
330
54C2
100
AcDbEntity
  8
0
 62
     1
370
    -2
100
AcDbLine
 10
73.9806549378914
 20
51.62660147431737
 30
0.0
 11
72.97494065658987
 21
51.62660147431737
 31
0.0
  0
LINE
  5
5CB9
330
54C2
100
AcDbEntity
  8
0
 62
     1
370
    -2
100
AcDbLine
 10
73.97628683822883
 20
51.37635321224937
 30
0.0
 11
72.97494065658987
 21
51.37635321224937
 31
0.0
  0
LINE
  5
5CBA
330
54C2
100
AcDbEntity
  8
0
 62
     1
370
    -2
100
AcDbLine
 10
73.07494065658985
 20
51.80660147431737
 30
0.0
 11
73.07494065658985
 21
51.98660147431738
 31
0.0
  0
LINE
  5
5CBB
330
54C2
100
AcDbEntity
  8
0
 62
     1
370
    -2
100
AcDbLine
 10
73.07494065658985
 20
51.19635321224937
 30
0.0
 11
73.07494065658985
 21
51.01635321224938
 31
0.0
  0
LINE
  5
5CBC
330
54C2
100
AcDbEntity
  8
0
 62
     1
370
    -2
100
AcDbLine
 10
73.07494065658985
 20
51.01635321224938
 30
0.0
 11
72.89494065658985
 21
51.01635321224938
 31
0.0
  0
SOLID
  5
5CBD
330
54C2
100
AcDbEntity
  8
0
 62
     1
100
AcDbTrace
 10
73.04494065658985
 20
51.80660147431737
 30
0.0
 11
73.10494065658986
 21
51.80660147431737
 31
0.0
 12
73.07494065658985
 22
51.62660147431737
 32
0.0
 13
73.07494065658985
 23
51.62660147431737
 33
0.0
  0
SOLID
  5
5CBE
330
54C2
100
AcDbEntity
  8
0
 62
     1
100
AcDbTrace
 10
73.04494065658985
 20
51.19635321224937
 30
0.0
 11
73.10494065658986
 21
51.19635321224937
 31
0.0
 12
73.07494065658985
 22
51.37635321224937
 32
0.0
 13
73.07494065658985
 23
51.37635321224937
 33
0.0
  0
MTEXT
  5
5CBF
330
54C2
100
AcDbEntity
  8
0
 62
     4
100
AcDbMText
 10
71.72832912862259
 20
51.01635321224939
 30
0.0
 40
0.125
 41
0.0
 71
     5
 72
     1
  1
\A1;\fArial|b0|i0|c0|p32;0.250 MTG. BOSS HEIGHT\P(6 PLCS. ON COVER)\P(6 PLCS. ON BASE)
 73
     1
 44
1.0
  0
POINT
  5
5CC0
330
54C2
100
AcDbEntity
  8
DEFPOINTS
 62
     0
100
AcDbPoint
 10
74.0431549378914
 20
51.62660147431737
 30
0.0
  0
POINT
  5
5CC1
330
54C2
100
AcDbEntity
  8
DEFPOINTS
 62
     0
100
AcDbPoint
 10
74.03878683822883
 20
51.37635321224937
 30
0.0
  0
POINT
  5
5CC2
330
54C2
100
AcDbEntity
  8
DEFPOINTS
 62
     0
100
AcDbPoint
 10
73.07494065658985
 20
51.37635321224937
 30
0.0
  0
ENDBLK
  5
5881
330
54C2
100
AcDbEntity
  8
0
100
AcDbBlockEnd
  0
BLOCK
  5
54E9
330
54DF
100
AcDbEntity
  8
0
100
AcDbBlockBegin
  2
*D14
 70
     1
 10
0.0
 20
0.0
 30
0.0
  3
*D14
  1

  0
LINE
  5
54EA
330
54DF
100
AcDbEntity
  8
0
  6
ByBlock
 62
     1
100
AcDbLine
 10
60.16815307802889
 20
59.78774423298581
 30
0.0
 11
59.98815307802888
 21
59.78774423298581
 31
0.0
  0
LINE
  5
54EB
330
54DF
100
AcDbEntity
  8
0
  6
ByBlock
 62
     1
100
AcDbLine
 10
59.98815307802888
 20
59.78774423298581
 30
0.0
 11
58.82964642399195
 21
58.54164760523644
 31
0.0
  0
MTEXT
  5
54EC
330
54DF
100
AcDbEntity
  8
0
  6
ByBlock
 62
     4
100
AcDbMText
 10
60.74510737543679
 20
59.78774423298581
 30
0.0
 40
0.125
 41
0.0
 71
     5
 72
     1
  1
\A1;\U+22050.188 O.D.\P\U+22050.090 I.D.\P(12 PLCS.)
 73
     1
 44
1.0
1001
ACAD
1000
MTEXTBEGIN
1070
    73
1070
     1
1070
    44
1040
1.0
1070
    74
1070
     0
1000
MTEXTEND
  0
SOLID
  5
54ED
330
54DF
100
AcDbEntity
  8
0
  6
ByBlock
 62
     1
100
AcDbTrace
 10
58.80767508084757
 20
58.56207455019726
 30
0.0
 11
58.85161776713633
 21
58.52122066027564
 31
0.0
 12
58.70708475422707
 22
58.40981954637019
 32
0.0
 13
58.70708475422707
 23
58.40981954637019
 33
0.0
  0
POINT
  5
54EE
330
54DF
100
AcDbEntity
  8
DEFPOINTS
  6
ByBlock
 62
     0
100
AcDbPoint
 10
58.70708475422707
 20
58.40981954637019
 30
0.0
  0
POINT
  5
54EF
330
54DF
100
AcDbEntity
  8
DEFPOINTS
  6
ByBlock
 62
     0
100
AcDbPoint
 10
58.57928956733204
 20
58.27236228544069
 30
0.0
  0
ENDBLK
  5
54F0
330
54DF
100
AcDbEntity
  8
0
100
AcDbBlockEnd
  0
BLOCK
  5
58B2
330
54F1
100
AcDbEntity
  8
0
100
AcDbBlockBegin
  2
*D15
 70
     1
 10
0.0
 20
0.0
 30
0.0
  3
*D15
  1

  0
LINE
  5
5CCD
330
54F1
100
AcDbEntity
  8
0
 62
     1
370
    -2
100
AcDbLine
 10
77.99556242781602
 20
52.78093116665637
 30
0.0
 11
79.2471725710252
 21
52.78093116665637
 31
0.0
  0
LINE
  5
5CCE
330
54F1
100
AcDbEntity
  8
0
 62
     1
370
    -2
100
AcDbLine
 10
78.3280978359594
 20
51.37635321224937
 30
0.0
 11
79.2471725710252
 21
51.37635321224937
 31
0.0
  0
LINE
  5
5CCF
330
54F1
100
AcDbEntity
  8
0
 62
     1
370
    -2
100
AcDbLine
 10
79.14717257102521
 20
52.60093116665637
 30
0.0
 11
79.14717257102521
 21
52.23246381291809
 31
0.0
  0
LINE
  5
5CD0
330
54F1
100
AcDbEntity
  8
0
 62
     1
370
    -2
100
AcDbLine
 10
79.14717257102521
 20
51.55635321224938
 30
0.0
 11
79.14717257102521
 21
51.92482056598766
 31
0.0
  0
SOLID
  5
5CD1
330
54F1
100
AcDbEntity
  8
0
 62
     1
100
AcDbTrace
 10
79.1171725710252
 20
52.60093116665637
 30
0.0
 11
79.17717257102521
 21
52.60093116665637
 31
0.0
 12
79.14717257102521
 22
52.78093116665637
 32
0.0
 13
79.14717257102521
 23
52.78093116665637
 33
0.0
  0
SOLID
  5
5CD2
330
54F1
100
AcDbEntity
  8
0
 62
     1
100
AcDbTrace
 10
79.1171725710252
 20
51.55635321224938
 30
0.0
 11
79.17717257102521
 21
51.55635321224938
 31
0.0
 12
79.14717257102521
 22
51.37635321224937
 32
0.0
 13
79.14717257102521
 23
51.37635321224937
 33
0.0
  0
MTEXT
  5
5CD3
330
54F1
100
AcDbEntity
  8
0
 62
     4
100
AcDbMText
 10
79.1471725710252
 20
52.07864218945289
 30
0.0
 40
0.125
 41
0.0
 71
     5
 72
     1
  1
\A1;1.405
 73
     1
 44
1.0
  0
POINT
  5
5CD4
330
54F1
100
AcDbEntity
  8
DEFPOINTS
 62
     0
100
AcDbPoint
 10
77.93306242781603
 20
52.78093116665637
 30
0.0
  0
POINT
  5
5CD5
330
54F1
100
AcDbEntity
  8
DEFPOINTS
 62
     0
100
AcDbPoint
 10
78.26559783595939
 20
51.37635321224937
 30
0.0
  0
POINT
  5
5CD6
330
54F1
100
AcDbEntity
  8
DEFPOINTS
 62
     0
100
AcDbPoint
 10
79.14717257102521
 20
51.37635321224937
 30
0.0
  0
ENDBLK
  5
58BD
330
54F1
100
AcDbEntity
  8
0
100
AcDbBlockEnd
  0
BLOCK
  5
5AA4
330
5A94
100
AcDbEntity
  8
0
100
AcDbBlockBegin
  2
REVGRID
 70
     0
 10
0.0
 20
0.0
 30
0.0
  3
REVGRID
  1

  0
LWPOLYLINE
  5
5A95
330
5A94
100
AcDbEntity
  8
0
 62
    14
100
AcDbPolyline
 90
        2
 70
     0
 43
0.02
 10
-5.199999999999999
 20
0.199999999999998
 10
0.0
 20
0.1999999999999864
  0
LINE
  5
5A96
330
5A94
100
AcDbEntity
  8
0
 62
    14
100
AcDbLine
 10
-5.199999999999999
 20
0.3999999999999975
 30
0.0
 11
0.0
 21
0.3999999999999888
 31
0.0
  0
LINE
  5
5A97
330
5A94
100
AcDbEntity
  8
0
 62
    14
100
AcDbLine
 10
-5.199999999999999
 20
0.5999999999999966
 30
0.0
 11
0.0
 21
0.5999999999999849
 31
0.0
  0
LINE
  5
5A98
330
5A94
100
AcDbEntity
  8
0
 62
    14
100
AcDbLine
 10
-5.199999999999999
 20
0.7999999999999964
 30
0.0
 11
0.0
 21
0.7999999999999849
 31
0.0
  0
LINE
  5
5A99
330
5A94
100
AcDbEntity
  8
0
 62
    14
100
AcDbLine
 10
-5.199999999999999
 20
0.9999999999999964
 30
0.0
 11
0.0
 21
0.999999999999985
 31
0.0
  0
LWPOLYLINE
  5
5A9A
330
5A94
100
AcDbEntity
  8
0
 62
    14
100
AcDbPolyline
 90
        3
 70
     0
 43
0.02
 10
-5.199999999999999
 20
0.0000000000000023
 10
-5.199999999999999
 20
1.199999999999997
 10
0.0
 20
1.199999999999986
  0
LWPOLYLINE
  5
5A9B
330
5A94
100
AcDbEntity
  8
0
 62
    14
100
AcDbPolyline
 90
        2
 70
     0
 43
0.0
 10
-4.899999999999999
 20
-0.0000000000000088
 10
-4.899999999999999
 20
1.199999999999993
  0
TEXT
  5
5A9C
330
5A94
100
AcDbEntity
  8
0
 62
     4
100
AcDbText
 10
-5.176267910328195
 20
0.0487971290527042
 30
0.0
 40
0.09
  1
REV
 72
     1
 11
-5.047008019468713
 21
0.0487971290527042
 31
0.0
100
AcDbText
  0
TEXT
  5
5A9D
330
5A94
100
AcDbEntity
  8
0
 62
     4
100
AcDbText
 10
-3.704618008185539
 20
0.048797129052709
 30
0.0
 40
0.09
  1
DESCRIPTION
 72
     1
 11
-3.275
 21
0.048797129052709
 31
0.0
100
AcDbText
  0
LWPOLYLINE
  5
5A9E
330
5A94
100
AcDbEntity
  8
0
 62
    14
100
AcDbPolyline
 90
        2
 70
     0
 43
0.0
 10
-1.650000000000002
 20
-0.000000000000016
 10
-1.650000000000002
 20
1.199999999999979
  0
LWPOLYLINE
  5
5A9F
330
5A94
100
AcDbEntity
  8
0
 62
    14
100
AcDbPolyline
 90
        2
 70
     0
 43
0.0
 10
-1.100000000000001
 20
-0.0000000000000107
 10
-1.100000000000001
 20
1.199999999999984
  0
LWPOLYLINE
  5
5AA0
330
5A94
100
AcDbEntity
  8
0
 62
    14
100
AcDbPolyline
 90
        2
 70
     0
 43
0.0
 10
-0.5500000000000007
 20
-0.0000000000000053
 10
-0.5500000000000007
 20
1.19999999999999
  0
TEXT
  5
5AA1
330
5A94
100
AcDbEntity
  8
0
 62
     4
100
AcDbText
 10
-0.9547365324291515
 20
0.048797129052695
 30
0.0
 40
0.09
  1
CHK
 72
     1
 11
-0.8220080194687149
 21
0.048797129052695
 31
0.0
100
AcDbText
  0
TEXT
  5
5AA2
330
5A94
100
AcDbEntity
  8
0
 62
     4
100
AcDbText
 10
-1.455868865307733
 20
0.0487971290526897
 30
0.0
 40
0.09
  1
BY
 72
     1
 11
-1.372008019468715
 21
0.0487971290526897
 31
0.0
100
AcDbText
  0
TEXT
  5
5AA3
330
5A94
100
AcDbEntity
  8
0
 62
     4
100
AcDbText
 10
-0.4396683196051399
 20
0.0487971290527003
 30
0.0
 40
0.09
  1
DATE
 72
     1
 11
-0.2720080194687142
 21
0.0487971290527003
 31
0.0
100
AcDbText
  0
ENDBLK
  5
5AA5
330
5A94
100
AcDbEntity
  8
0
100
AcDbBlockEnd
  0
BLOCK
  5
5ACD
330
5AA6
100
AcDbEntity
  8
0
100
AcDbBlockBegin
  2
TITLEBLK
 70
     2
 10
0.0
 20
0.0
 30
0.0
  3
TITLEBLK
  1

  0
ATTDEF
  5
5AA7
330
5AA6
100
AcDbEntity
  8
0
 62
     4
100
AcDbText
 10
-2.199883038560267
 20
0.93
 30
0.0
 40
0.09
  1
M.M.T.
 72
     1
 11
-2.00514906857391
 21
0.9750000000000001
 31
0.0
100
AcDbAttributeDefinition
  3
Drawn by
  2
DRWN_BY
 70
     8
 74
     2
  0
ATTDEF
  5
5AA8
330
5AA6
100
AcDbEntity
  8
0
 62
     4
100
AcDbText
 10
-1.335696500023342
 20
0.93
 30
0.0
 40
0.09
  1

 72
     1
 11
-1.335696500023342
 21
0.9750000000000001
 31
0.0
100
AcDbAttributeDefinition
  3
Approved by
  2
APPRV_BY
 70
     8
 74
     2
  0
ATTDEF
  5
5AA9
330
5AA6
100
AcDbEntity
  8
0
 62
     4
100
AcDbText
 10
-0.911750510193495
 20
0.93
 30
0.0
 40
0.09
  1
FULL
 72
     1
 11
-0.7629681091020899
 21
0.9750000000000001
 31
0.0
100
AcDbAttributeDefinition
  3
Drawing Scale
  2
SCALE
 70
     8
 74
     2
  0
ATTDEF
  5
5AAA
330
5AA6
100
AcDbEntity
  8
0
 62
     4
100
AcDbText
 10
-0.500609627175169
 20
0.93
 30
0.0
 40
0.09
  1
mm/dd/yy
 72
     1
 11
-0.2324206776526587
 21
0.9750000000000001
 31
0.0
100
AcDbAttributeDefinition
  3
Date Drawn
  2
DATE
 70
     8
 74
     2
  0
ATTDEF
  5
5AAB
330
5AA6
100
AcDbEntity
  8
0
 62
     4
100
AcDbText
 10
-1.777654052137822
 20
0.6299999999999998
 30
0.0
 40
0.09
  1
-
 72
     1
 11
-1.756688840678068
 21
0.6749999999999998
 31
0.0
100
AcDbAttributeDefinition
  3
Job Number (Base)
  2
JOB_NUMBER
 70
     8
 74
     2
  0
ATTDEF
  5
5AAC
330
5AA6
100
AcDbEntity
  8
0
 62
     4
100
AcDbText
 10
-0.5776540521378232
 20
0.6299999999999998
 30
0.0
 40
0.09
  1
-
 72
     1
 11
-0.5566888406780688
 21
0.6749999999999998
 31
0.0
100
AcDbAttributeDefinition
  3
Product (Base)
  2
PRODUCT
 70
     8
 74
     2
  0
ATTDEF
  5
5AAD
330
5AA6
100
AcDbEntity
  8
0
 62
     4
100
AcDbText
 10
-1.777654052137822
 20
0.4799999999999998
 30
0.0
 40
0.09
  1
-
 72
     1
 11
-1.756688840678068
 21
0.5249999999999999
 31
0.0
100
AcDbAttributeDefinition
  3
Job Number (Cover)
  2
JOB_NUMBER
 70
     8
 74
     2
  0
ATTDEF
  5
5AAE
330
5AA6
100
AcDbEntity
  8
0
 62
     4
100
AcDbText
 10
-0.5776540521378232
 20
0.4799999999999998
 30
0.0
 40
0.09
  1
-
 72
     1
 11
-0.5566888406780688
 21
0.5249999999999999
 31
0.0
100
AcDbAttributeDefinition
  3
Product (Cover)
  2
PRODUCT
 70
     8
 74
     2
  0
ATTDEF
  5
5AAF
330
5AA6
100
AcDbEntity
  8
0
 62
     4
100
AcDbText
 10
-2.299397734766415
 20
0.1965997167108784
 30
0.0
 40
0.09
  1

100
AcDbAttributeDefinition
  3
Customer Name
  2
CUSTOMER_NAME
 70
     8
  0
ATTDEF
  5
5AB0
330
5AA6
100
AcDbEntity
  8
0
 62
     4
100
AcDbText
 10
-1.896803912600208
 20
0.0273723706496532
 30
0.0
 40
0.09
  1
Secondary Operations Drawing
100
AcDbAttributeDefinition
  3
Drawing Title
  2
DRAWING_TITLE
 70
     8
  0
ATTDEF
  5
5AB1
330
5AA6
100
AcDbEntity
  8
0
 62
     4
100
AcDbText
 10
-1.576525129900442
 20
1.261252546324116
 30
0.0
 40
0.12
  1
Page 1 of 1
 72
     1
 11
-1.156688840678068
 21
1.321252546324116
 31
0.0
100
AcDbAttributeDefinition
  3
Page ? OF ?
  2
PAGES
 70
     8
 74
     2
  0
ATTDEF
  5
5AB2
330
5AA6
100
AcDbEntity
  8
0
 62
     4
100
AcDbText
 10
-5.179716405494941
 20
0.226026458281394
 30
0.0
 40
0.09
  1
X.XX %%P.010
 72
     1
 11
-4.864869884348966
 21
0.226026458281394
 31
0.0
100
AcDbAttributeDefinition
  3
2 Place Decimal Tolerance
  2
TOLERANCE
 70
     8
  0
ATTDEF
  5
5AB3
330
5AA6
100
AcDbEntity
  8
0
 62
     4
100
AcDbText
 10
-5.222137960747328
 20
0.0814493777902621
 30
0.0
 40
0.09
  1
X.XXX %%P.005
 72
     1
 11
-4.864869884348966
 21
0.0814493777902621
 31
0.0
100
AcDbAttributeDefinition
  3
3 Place Deimal Tolerance
  2
TOLERANCE
 70
     8
  0
LWPOLYLINE
  5
5AB4
330
5AA6
100
AcDbEntity
  8
0
 62
    14
100
AcDbPolyline
 90
        2
 70
     0
 43
0.02
 10
-5.3
 20
1.199999999999999
 10
-0.0000000000000018
 20
1.199999999999999
  0
LWPOLYLINE
  5
5AB5
330
5AA6
100
AcDbEntity
  8
0
 62
    14
100
AcDbPolyline
 90
        2
 70
     0
 43
0.02
 10
-5.3
 20
0.5999999999999997
 10
-2.4
 20
0.5999999999999997
  0
INSERT
  5
5AB6
330
5AA6
100
AcDbEntity
  8
0
100
AcDbBlockReference
  2
POLYCASELOGO
 10
-5.234970677598697
 20
0.5999999999999996
 30
0.0
  0
LWPOLYLINE
  5
5AB7
330
5AA6
100
AcDbEntity
  8
0
 62
    14
100
AcDbPolyline
 90
        2
 70
     0
 43
0.02
 10
-4.4
 20
0.3499999999999996
 10
-2.4
 20
0.3499999999999996
  0
MTEXT
  5
5AB8
330
5AA6
100
AcDbEntity
  8
0
100
AcDbMText
 10
-4.374358606929241
 20
0.3247194075175938
 30
0.0
 40
0.05
 41
2.0
 71
     1
 72
     5
  1
\C4;THIS DRAWING AND THE INFORMATION CONTAINED ARE THE PROPERTY OF PLYCASE AND IT IS NOT TO BE REPRODUCED, COPIED OR USED IN ANY WAY DETRIMENTAL TO THE INTEREST OF POLYCASE.
 73
     1
 44
1.0
1001
ACAD
1000
MTEXTBEGIN
1070
    73
1070
     1
1070
    44
1040
1.0
1070
    74
1070
     0
1000
MTEXTEND
  0
MTEXT
  5
5AB9
330
5AA6
100
AcDbEntity
  8
0
100
AcDbMText
 10
-3.420035318937893
 20
0.4756805368882859
 30
0.0
 40
0.05
 41
2.0
 71
     5
 72
     5
  1
{\C4;1305 CHESTER IND. PARKWAY  AVON, OHIO 44011 U.S.A.\PPH# 1-800-248-1233, 440-934-0444  FAX# 440-934-0088}
 73
     1
 44
1.0
1001
ACAD
1000
MTEXTBEGIN
1070
    73
1070
     1
1070
    44
1040
1.0
1070
    74
1070
     0
1000
MTEXTEND
  0
MTEXT
  5
5ABA
330
5AA6
100
AcDbEntity
  8
0
100
AcDbMText
 10
-4.864869884348966
 20
0.4448402454957234
 30
0.0
 40
0.05
 41
1.241999999999999
 71
     5
 72
     5
  1
\C4;TOLERANCES UNLESS\POTHERWISE SPECIFIED
 73
     1
 44
1.0
1001
ACAD
1000
MTEXTBEGIN
1070
    73
1070
     1
1070
    44
1040
1.0
1070
    74
1070
     0
1000
MTEXTEND
  0
LWPOLYLINE
  5
5ABB
330
5AA6
100
AcDbEntity
  8
0
 62
    14
100
AcDbPolyline
 90
        2
 70
     0
 43
0.02
 10
-5.3
 20
0.0000000000000003
 10
-5.3
 20
1.199999999999999
  0
LWPOLYLINE
  5
5ABC
330
5AA6
100
AcDbEntity
  8
0
 62
    14
100
AcDbPolyline
 90
        2
 70
     0
 43
0.02
 10
-4.4
 20
0.0000000000000002
 10
-4.4
 20
0.5999999999999997
  0
LWPOLYLINE
  5
5ABD
330
5AA6
100
AcDbEntity
  8
0
 62
    14
100
AcDbPolyline
 90
        2
 70
     0
 43
0.02
 10
-2.4
 20
0.149999999999999
 10
-0.0000000000000018
 20
0.149999999999999
  0
LWPOLYLINE
  5
5ABE
330
5AA6
100
AcDbEntity
  8
0
 62
    14
100
AcDbPolyline
 90
        2
 70
     0
 43
0.02
 10
-2.4
 20
0.9000000000000005
 10
-0.0000000000000018
 20
0.9000000000000005
  0
LWPOLYLINE
  5
5ABF
330
5AA6
100
AcDbEntity
  8
0
 62
    14
100
AcDbPolyline
 90
        2
 70
     0
 43
0.02
 10
-2.4
 20
0.4499999999999997
 10
-0.0000000000000018
 20
0.4499999999999997
  0
LWPOLYLINE
  5
5AC0
330
5AA6
100
AcDbEntity
  8
0
 62
    14
100
AcDbPolyline
 90
        2
 70
     0
 43
0.02
 10
-2.4
 20
0.0
 10
-2.4
 20
1.199999999999999
  0
TEXT
  5
5AC1
330
5AA6
100
AcDbEntity
  8
0
 62
     4
100
AcDbText
 10
-2.303074675751723
 20
0.0273723706496532
 30
0.0
 40
0.09
  1
TITLE:
100
AcDbText
  0
TEXT
  5
5AC2
330
5AA6
100
AcDbEntity
  8
0
 62
     4
100
AcDbText
 10
-2.303074675751723
 20
0.3157031656057045
 30
0.0
 40
0.09
  1
CUSTOMER:
100
AcDbText
  0
TEXT
  5
5AC3
330
5AA6
100
AcDbEntity
  8
0
 62
     4
100
AcDbText
 10
-1.57771128246307
 20
1.065703165605704
 30
0.0
 40
0.09
  1
APP. BY
100
AcDbText
  0
TEXT
  5
5AC4
330
5AA6
100
AcDbEntity
  8
0
 62
     4
100
AcDbText
 10
-2.305458981304663
 20
0.7657031656057036
 30
0.0
 40
0.09
  1
JOB NO:
100
AcDbText
  0
TEXT
  5
5AC5
330
5AA6
100
AcDbEntity
  8
0
 62
     4
100
AcDbText
 10
-2.304227624677977
 20
1.065703165605704
 30
0.0
 40
0.09
  1
DRWN BY
100
AcDbText
  0
LWPOLYLINE
  5
5AC6
330
5AA6
100
AcDbEntity
  8
0
 62
    14
100
AcDbPolyline
 90
        2
 70
     0
 43
0.02
 10
-1.696920455791685
 20
0.9000000000000005
 10
-1.696920455791685
 20
1.199999999999999
  0
TEXT
  5
5AC7
330
5AA6
100
AcDbEntity
  8
0
 62
     4
100
AcDbText
 10
-1.105458981304664
 20
0.7657031656057036
 30
0.0
 40
0.09
  1
PRODUCT:
100
AcDbText
  0
LWPOLYLINE
  5
5AC8
330
5AA6
100
AcDbEntity
  8
0
 62
    14
100
AcDbPolyline
 90
        2
 70
     0
 43
0.02
 10
-1.200000000000001
 20
0.4499999999999997
 10
-1.200000000000001
 20
0.9000000000000005
  0
TEXT
  5
5AC9
330
5AA6
100
AcDbEntity
  8
0
 62
     4
100
AcDbText
 10
-0.9841713932981347
 20
1.065703165605704
 30
0.0
 40
0.09
  1
SCALE:
 72
     1
 11
-0.7605527029843558
 21
1.065703165605704
 31
0.0
100
AcDbText
  0
LWPOLYLINE
  5
5ACA
330
5AA6
100
AcDbEntity
  8
0
 62
    14
100
AcDbPolyline
 90
        2
 70
     0
 43
0.02
 10
-1.061094862898864
 20
0.9000000000000005
 10
-1.061094862898864
 20
1.199999999999999
  0
LWPOLYLINE
  5
5ACB
330
5AA6
100
AcDbEntity
  8
0
 62
    14
100
AcDbPolyline
 90
        2
 70
     0
 43
0.02
 10
-0.551463673949181
 20
0.9000000000000005
 10
-0.551463673949181
 20
1.199999999999999
  0
TEXT
  5
5ACC
330
5AA6
100
AcDbEntity
  8
0
 62
     4
100
AcDbText
 10
-0.3944934674764495
 20
1.065703165605704
 30
0.0
 40
0.09
  1
DATE:
 72
     1
 11
-0.2093672737520293
 21
1.065703165605704
 31
0.0
100
AcDbText
  0
ENDBLK
  5
5ACE
330
5AA6
100
AcDbEntity
  8
0
100
AcDbBlockEnd
  0
BLOCK
  5
5B08
330
5AD8
100
AcDbEntity
  8
0
100
AcDbBlockBegin
  2
B-SIZE
 70
     0
 10
0.0
 20
0.0
 30
0.0
  3
B-SIZE
  1

  0
MTEXT
  5
5AD9
330
5AD8
100
AcDbEntity
  8
0
 62
     4
100
AcDbMText
 10
-0.8570336689668316
 20
67.4671197253598
 30
0.0
 40
0.125
 41
0.0
 71
     6
 72
     1
  1
\A1;
 73
     1
 44
1.0
1001
ACAD
1000
MTEXTBEGIN
1070
    73
1070
     1
1070
    44
1040
1.0
1070
    74
1070
     0
1000
MTEXTEND
  0
MTEXT
  5
5ADA
330
5AD8
100
AcDbEntity
  8
0
 62
     4
100
AcDbMText
 10
-2.015100724569212
 20
67.79148780027966
 30
0.0
 40
0.125
 41
0.0
 71
     4
 72
     1
  1
\A1;
 73
     1
 44
1.0
1001
ACAD
1000
MTEXTBEGIN
1070
    73
1070
     1
1070
    44
1040
1.0
1070
    74
1070
     0
1000
MTEXTEND
  0
MTEXT
  5
5ADB
330
5AD8
100
AcDbEntity
  8
0
 62
     4
100
AcDbMText
 10
-6.091926682906855
 20
65.3336474358754
 30
0.0
 40
0.125
 41
0.0
 71
     6
 72
     1
  1
\A1;
 73
     1
 44
1.0
1001
ACAD
1000
MTEXTBEGIN
1070
    73
1070
     1
1070
    44
1040
1.0
1070
    74
1070
     0
1000
MTEXTEND
  0
MTEXT
  5
5ADC
330
5AD8
100
AcDbEntity
  8
0
 62
     4
100
AcDbMText
 10
-5.587880456161553
 20
64.78799918167474
 30
0.0
 40
0.125
 41
0.0
 71
     6
 72
     1
  1
\A1;
 73
     1
 44
1.0
1001
ACAD
1000
MTEXTBEGIN
1070
    73
1070
     1
1070
    44
1040
1.0
1070
    74
1070
     0
1000
MTEXTEND
  0
MTEXT
  5
5ADD
330
5AD8
100
AcDbEntity
  8
0
 62
     4
100
AcDbMText
 10
-5.959973487149692
 20
63.54426384598022
 30
0.0
 40
0.125
 41
0.0
 71
     6
 72
     1
  1
\A1;
 73
     1
 44
1.0
1001
ACAD
1000
MTEXTBEGIN
1070
    73
1070
     1
1070
    44
1040
1.0
1070
    74
1070
     0
1000
MTEXTEND
  0
MTEXT
  5
5ADE
330
5AD8
100
AcDbEntity
  8
0
 62
     4
100
AcDbMText
 10
-5.907254284497835
 20
63.29358492132218
 30
0.0
 40
0.125
 41
0.0
 71
     6
 72
     1
  1
\A1;
 73
     1
 44
1.0
1001
ACAD
1000
MTEXTBEGIN
1070
    73
1070
     1
1070
    44
1040
1.0
1070
    74
1070
     0
1000
MTEXTEND
  0
MTEXT
  5
5ADF
330
5AD8
100
AcDbEntity
  8
0
 62
     4
100
AcDbMText
 10
8.853714375528472
 20
51.92441435155942
 30
0.0
 40
0.125
 41
0.0
 71
     6
 72
     1
  1
\A1;
 73
     1
 44
1.0
1001
ACAD
1000
MTEXTBEGIN
1070
    73
1070
     1
1070
    44
1040
1.0
1070
    74
1070
     0
1000
MTEXTEND
  0
MTEXT
  5
5AE0
330
5AD8
100
AcDbEntity
  8
0
 62
     4
100
AcDbMText
 10
14.83870373717059
 20
49.97370191900953
 30
0.0
 40
0.125
 41
0.0
 71
     4
 72
     1
  1
\A1;
 73
     1
 44
1.0
1001
ACAD
1000
MTEXTBEGIN
1070
    73
1070
     1
1070
    44
1040
1.0
1070
    74
1070
     0
1000
MTEXTEND
  0
MTEXT
  5
5AE1
330
5AD8
100
AcDbEntity
  8
0
 62
     4
100
AcDbMText
 10
-11.83150703266406
 20
44.53165929598728
 30
0.0
 40
0.125
 41
0.0
 71
     4
 72
     1
  1
\A1;
 73
     1
 44
1.0
1001
ACAD
1000
MTEXTBEGIN
1070
    73
1070
     1
1070
    44
1040
1.0
1070
    74
1070
     0
1000
MTEXTEND
  0
MTEXT
  5
5AE2
330
5AD8
100
AcDbEntity
  8
0
 62
     4
100
AcDbMText
 10
-15.77258932311332
 20
40.77755492596499
 30
0.0
 40
0.125
 41
0.0
 71
     6
 72
     1
  1
\A1;
 73
     1
 44
1.0
1001
ACAD
1000
MTEXTBEGIN
1070
    73
1070
     1
1070
    44
1040
1.0
1070
    74
1070
     0
1000
MTEXTEND
  0
MTEXT
  5
5AE3
330
5AD8
100
AcDbEntity
  8
0
 62
     4
100
AcDbMText
 10
-15.4576345334646
 20
41.52804832460016
 30
0.0
 40
0.125
 41
0.0
 71
     6
 72
     1
  1
\A1;
 73
     1
 44
1.0
1001
ACAD
1000
MTEXTBEGIN
1070
    73
1070
     1
1070
    44
1040
1.0
1070
    74
1070
     0
1000
MTEXTEND
  0
MTEXT
  5
5AE4
330
5AD8
100
AcDbEntity
  8
0
 62
     4
100
AcDbMText
 10
-15.88565000716195
 20
42.0767961868691
 30
0.0
 40
0.125
 41
0.0
 71
     6
 72
     1
  1
\A1;
 73
     1
 44
1.0
1001
ACAD
1000
MTEXTBEGIN
1070
    73
1070
     1
1070
    44
1040
1.0
1070
    74
1070
     0
1000
MTEXTEND
  0
MTEXT
  5
5AE5
330
5AD8
100
AcDbEntity
  8
0
 62
     4
100
AcDbMText
 10
-7.422913639482967
 20
43.73250221593379
 30
0.0
 40
0.125
 41
0.0
 71
     6
 72
     1
  1
\A1;
 73
     1
 44
1.0
1001
ACAD
1000
MTEXTBEGIN
1070
    73
1070
     1
1070
    44
1040
1.0
1070
    74
1070
     0
1000
MTEXTEND
  0
MTEXT
  5
5AE6
330
5AD8
100
AcDbEntity
  8
0
 62
     4
100
AcDbMText
 10
-1.55073435664244
 20
41.79545023057957
 30
0.0
 40
0.125
 41
0.0
 71
     4
 72
     1
  1
\A1;
 73
     1
 44
1.0
1001
ACAD
1000
MTEXTBEGIN
1070
    73
1070
     1
1070
    44
1040
1.0
1070
    74
1070
     0
1000
MTEXTEND
  0
MTEXT
  5
5AE7
330
5AD8
100
AcDbEntity
  8
0
 62
     5
100
AcDbMText
 10
-11.54583188566252
 20
44.45584176503877
 30
0.0
 40
0.125
 41
0.0
 71
     4
 72
     1
  1
\A1;
 73
     1
 44
1.0
1001
ACAD
1000
MTEXTBEGIN
1070
    73
1070
     1
1070
    44
1040
1.0
1070
    74
1070
     0
1000
MTEXTEND
  0
MTEXT
  5
5AE8
330
5AD8
100
AcDbEntity
  8
0
 62
     5
100
AcDbMText
 10
-15.63418743486616
 20
41.83876579128194
 30
0.0
 40
0.125
 41
0.0
 71
     6
 72
     1
  1
\A1;
 73
     1
 44
1.0
1001
ACAD
1000
MTEXTBEGIN
1070
    73
1070
     1
1070
    44
1040
1.0
1070
    74
1070
     0
1000
MTEXTEND
  0
MTEXT
  5
5AE9
330
5AD8
100
AcDbEntity
  8
0
 62
     5
100
AcDbMText
 10
-15.3672110556729
 20
41.19168246713974
 30
0.0
 40
0.125
 41
0.0
 71
     6
 72
     1
  1
\A1;
 73
     1
 44
1.0
1001
ACAD
1000
MTEXTBEGIN
1070
    73
1070
     1
1070
    44
1040
1.0
1070
    74
1070
     0
1000
MTEXTEND
  0
MTEXT
  5
5AEA
330
5AD8
100
AcDbEntity
  8
0
 62
     5
100
AcDbMText
 10
-15.64469883475312
 20
40.48043223583092
 30
0.0
 40
0.125
 41
0.0
 71
     6
 72
     1
  1
\A1;
 73
     1
 44
1.0
1001
ACAD
1000
MTEXTBEGIN
1070
    73
1070
     1
1070
    44
1040
1.0
1070
    74
1070
     0
1000
MTEXTEND
  0
MTEXT
  5
5AEB
330
5AD8
100
AcDbEntity
  8
0
 62
     5
100
AcDbMText
 10
-15.67338167340203
 20
39.45555614419905
 30
0.0
 40
0.125
 41
0.0
 71
     6
 72
     1
  1
\A1;
 73
     1
 44
1.0
1001
ACAD
1000
MTEXTBEGIN
1070
    73
1070
     1
1070
    44
1040
1.0
1070
    74
1070
     0
1000
MTEXTEND
  0
MTEXT
  5
5AEC
330
5AD8
100
AcDbEntity
  8
0
 62
     5
100
AcDbMText
 10
-7.435930437192151
 20
43.97887613045535
 30
0.0
 40
0.125
 41
0.0
 71
     6
 72
     1
  1
\A1;
 73
     1
 44
1.0
1001
ACAD
1000
MTEXTBEGIN
1070
    73
1070
     1
1070
    44
1040
1.0
1070
    74
1070
     0
1000
MTEXTEND
  0
MTEXT
  5
5AED
330
5AD8
100
AcDbEntity
  8
0
 62
     5
100
AcDbMText
 10
-1.580568950739053
 20
41.60014115011655
 30
0.0
 40
0.125
 41
0.0
 71
     4
 72
     1
  1
\A1;
 73
     1
 44
1.0
1001
ACAD
1000
MTEXTBEGIN
1070
    73
1070
     1
1070
    44
1040
1.0
1070
    74
1070
     0
1000
MTEXTEND
  0
MTEXT
  5
5AEE
330
5AD8
100
AcDbEntity
  8
0
 62
     5
100
AcDbMText
 10
-6.179934397015937
 20
37.79672558496987
 30
0.0
 40
0.125
 41
0.0
 71
     4
 72
     1
  1
\A1;
 73
     1
 44
1.0
1001
ACAD
1000
MTEXTBEGIN
1070
    73
1070
     1
1070
    44
1040
1.0
1070
    74
1070
     0
1000
MTEXTEND
  0
MTEXT
  5
5AEF
330
5AD8
100
AcDbEntity
  8
0
 62
     4
100
AcDbMText
 10
4.99845743837621
 20
7.229241988369494
 30
0.0
 40
0.125
 41
0.0
 71
     4
 72
     1
  1
\A1;
 73
     1
 44
1.0
1001
ACAD
1000
MTEXTBEGIN
1070
    73
1070
     1
1070
    44
1040
1.0
1070
    74
1070
     0
1000
MTEXTEND
  0
LINE
  5
5AF0
330
5AD8
100
AcDbEntity
  8
0
  6
CENTER2
 62
     1
100
AcDbLine
 10
-3.599833914503739
 20
3.624307464718229
 30
0.0
 11
-0.5998339145037399
 21
3.624307464718229
 31
0.0
  0
INSERT
  5
5AF1
330
5AD8
100
AcDbEntity
  8
0
100
AcDbBlockReference
  2
CL
 10
-3.599833914503739
 20
3.624307464718229
 30
0.0
  0
LINE
  5
5AF2
330
5AD8
100
AcDbEntity
  8
0
100
AcDbLine
 10
-3.49983391450374
 20
3.878802038714465
 30
0.0
 11
-3.49983391450374
 21
3.256437695068329
 31
0.0
  0
LINE
  5
5AF3
330
5AD8
100
AcDbEntity
  8
0
  6
CENTER2
 62
     1
100
AcDbLine
 10
-2.132380614585112
 20
5.090989553251216
 30
0.0
 11
-2.132380614585112
 21
2.090989553251216
 31
0.0
  0
INSERT
  5
5AF4
330
5AD8
100
AcDbEntity
  8
0
100
AcDbBlockReference
  2
CL
 10
-2.132380614585112
 20
5.090989553251216
 30
0.0
  0
LINE
  5
5AF5
330
5AD8
100
AcDbEntity
  8
0
100
AcDbLine
 10
-2.550786743797533
 20
4.990989553251217
 30
0.0
 11
-1.640337966636525
 21
4.990989553251217
 31
0.0
  0
LWPOLYLINE
  5
5AF6
330
5AD8
100
AcDbEntity
  8
0
 62
    14
100
AcDbPolyline
 90
        4
 70
     1
 43
0.02
 10
16.0
 20
-0.0000000000000039
 10
16.0
 20
10.0
 10
0.0000000000000004
 20
10.0
 10
0.0
 20
0.0
  0
INSERT
  5
5AF7
330
5AD8
100
AcDbEntity
  8
0
100
AcDbBlockReference
  2
REVGRID
 10
10.7
 20
-0.0000000000000036
 30
0.0
  0
MTEXT
  5
5AF8
330
5AD8
100
AcDbEntity
  8
0
100
AcDbMText
 10
10.96382434871027
 20
2.040989277911819
 30
0.0
 40
0.125
 41
4.8822
 71
     1
 72
     5
  1
{\C4;NOTES:\P  1) ALL UNMARKED RADII 1/32" UNLESS OTHERWISE SPECIFIED.}
 73
     1
 44
1.0
1001
ACAD
1000
MTEXTBEGIN
1070
    73
1070
     1
1070
    44
1040
1.0
1070
    74
1070
     0
1000
MTEXTEND
  0
INSERT
  5
5AF9
330
5AD8
100
AcDbEntity
  8
0
100
AcDbBlockReference
 66
     1
  2
TITLEBLK
 10
16.0
 20
-0.0000000000000039
 30
0.0
  0
ATTRIB
  5
5AFA
330
5AF9
100
AcDbEntity
  8
0
 62
     4
100
AcDbText
 10
13.7993188713988
 20
0.9299999999999963
 30
0.0
 40
0.09
  1
M.M.T.
 72
     1
 11
13.99485093142609
 21
0.9749999999999962
 31
0.0
100
AcDbAttribute
  2
DRWN_BY
 70
     8
 74
     2
  0
ATTRIB
  5
5AFB
330
5AF9
100
AcDbEntity
  8
0
 62
     4
100
AcDbText
 10
14.66430349997665
 20
0.9299999999999963
 30
0.0
 40
0.09
  1

 72
     1
 11
14.66430349997665
 21
0.9749999999999962
 31
0.0
100
AcDbAttribute
  2
APPRV_BY
 70
     8
 74
     2
  0
ATTRIB
  5
5AFC
330
5AF9
100
AcDbEntity
  8
0
 62
     4
100
AcDbText
 10
15.08330747070691
 20
0.9299999999999963
 30
0.0
 40
0.09
  1
FULL
 72
     1
 11
15.23703189089791
 21
0.9749999999999962
 31
0.0
100
AcDbAttribute
  2
SCALE
 70
     8
 74
     2
  0
ATTRIB
  5
5AFD
330
5AF9
100
AcDbEntity
  8
0
 62
     4
100
AcDbText
 10
15.49512366068294
 20
0.9299999999999963
 30
0.0
 40
0.09
  1
mm/dd/yy
 72
     1
 11
15.76757932234734
 21
0.9749999999999962
 31
0.0
100
AcDbAttribute
  2
DATE
 70
     8
 74
     2
  0
ATTRIB
  5
5AFE
330
5AF9
100
AcDbEntity
  8
0
 62
     4
100
AcDbText
 10
14.22237664363298
 20
0.6299999999999958
 30
0.0
 40
0.09
  1
-
 72
     1
 11
14.24331115932193
 21
0.6749999999999959
 31
0.0
100
AcDbAttribute
  2
JOB_NUMBER
 70
     8
 74
     2
  0
ATTRIB
  5
5AFF
330
5AF9
100
AcDbEntity
  8
0
 62
     4
100
AcDbText
 10
15.42237664363298
 20
0.6299999999999958
 30
0.0
 40
0.09
  1
-
 72
     1
 11
15.44331115932193
 21
0.6749999999999959
 31
0.0
100
AcDbAttribute
  2
PRODUCT
 70
     8
 74
     2
  0
ATTRIB
  5
5B00
330
5AF9
100
AcDbEntity
  8
0
 62
     4
100
AcDbText
 10
14.22237664363298
 20
0.4799999999999959
 30
0.0
 40
0.09
  1
-
 72
     1
 11
14.24331115932193
 21
0.524999999999996
 31
0.0
100
AcDbAttribute
  2
JOB_NUMBER
 70
     8
 74
     2
  0
ATTRIB
  5
5B01
330
5AF9
100
AcDbEntity
  8
0
 62
     4
100
AcDbText
 10
15.42237664363298
 20
0.4799999999999959
 30
0.0
 40
0.09
  1
-
 72
     1
 11
15.44331115932193
 21
0.524999999999996
 31
0.0
100
AcDbAttribute
  2
PRODUCT
 70
     8
 74
     2
  0
ATTRIB
  5
5B02
330
5AF9
100
AcDbEntity
  8
0
 62
     4
100
AcDbText
 10
13.70060226523358
 20
0.1965997167108745
 30
0.0
 40
0.09
  1

100
AcDbAttribute
  2
CUSTOMER_NAME
 70
     8
  0
ATTRIB
  5
5B03
330
5AF9
100
AcDbEntity
  8
0
 62
     4
100
AcDbText
 10
14.10319608739979
 20
0.0273723706496492
 30
0.0
 40
0.09
  1
Secondary Operations Drawing
100
AcDbAttribute
  2
DRAWING_TITLE
 70
     8
  0
ATTRIB
  5
5B04
330
5AF9
100
AcDbEntity
  8
0
 62
     4
100
AcDbText
 10
14.41455263271893
 20
1.261252546324112
 30
0.0
 40
0.12
  1
Page 1 of 1
 72
     1
 11
14.84331115932193
 21
1.321252546324112
 31
0.0
100
AcDbAttribute
  2
PAGES
 70
     8
 74
     2
  0
ATTRIB
  5
5B05
330
5AF9
100
AcDbEntity
  8
0
 62
     4
100
AcDbText
 10
10.81755167090342
 20
0.2260264582813901
 30
0.0
 40
0.09
  1
X.XX %%P.010
 72
     1
 11
11.13513011565103
 21
0.2260264582813901
 31
0.0
100
AcDbAttribute
  2
TOLERANCE
 70
     8
  0
ATTRIB
  5
5B06
330
5AF9
100
AcDbEntity
  8
0
 62
     4
100
AcDbText
 10
10.77562124798391
 20
0.0814493777902582
 30
0.0
 40
0.09
  1
X.XXX %%P.005
 72
     1
 11
11.13513011565103
 21
0.0814493777902582
 31
0.0
100
AcDbAttribute
  2
TOLERANCE
 70
     8
  0
SEQEND
  5
5B07
330
5AF9
100
AcDbEntity
  8
0
  0
ENDBLK
  5
5B09
330
5AD8
100
AcDbEntity
  8
0
100
AcDbBlockEnd
  0
BLOCK
  5
5B61
330
5B60
100
AcDbEntity
  8
0
100
AcDbBlockBegin
  2
_DOT
 70
     0
 10
0.0
 20
0.0
 30
0.0
  3
_DOT
  1

  0
LWPOLYLINE
  5
5B62
330
5B60
100
AcDbEntity
  8
0
  6
ByBlock
 62
     0
100
AcDbPolyline
 90
        2
 70
     1
 43
0.5
 10
-0.25
 20
0.0
 42
1.0
 10
0.25
 20
0.0
 42
1.0
  0
LINE
  5
5B66
330
5B60
100
AcDbEntity
  8
0
  6
ByBlock
 62
     0
100
AcDbLine
 10
-0.5
 20
0.0
 30
0.0
 11
-1.0
 21
0.0
 31
0.0
  0
ENDBLK
  5
5B67
330
5B60
100
AcDbEntity
  8
0
100
AcDbBlockEnd
  0
BLOCK
  5
5C44
330
5BE2
100
AcDbEntity
  8
0
100
AcDbBlockBegin
  2
B
 70
     2
 10
0.0
 20
0.0
 30
0.0
  3
B
  1

  0
ATTDEF
  5
5BE3
330
5BE2
100
AcDbEntity
  8
TEXT
100
AcDbText
 10
11.57785051577858
 20
0.5394050456177202
 30
0.0
 40
0.125
  1

 41
0.75
  7
TXT
 72
     1
 11
11.57785051577858
 21
0.5394050456177202
 31
0.0
100
AcDbAttributeDefinition
  3
ENTER INITIALS
  2
NAME
 70
     4
  0
ATTDEF
  5
5BE4
330
5BE2
100
AcDbEntity
  8
TEXT
100
AcDbText
 10
12.27323597631695
 20
0.5394050456177202
 30
0.0
 40
0.125
  1

 41
0.75
  7
TXT
 72
     1
 11
12.27323597631695
 21
0.5394050456177202
 31
0.0
100
AcDbAttributeDefinition
  3
ENTER DATE
  2
DATE
 70
     4
  0
ATTDEF
  5
5BE5
330
5BE2
100
AcDbEntity
  8
TEXT
100
AcDbText
 10
15.53362280004441
 20
0.7382877313450514
 30
0.0
 40
0.125
  1

 41
0.75
  7
TXT
 72
     1
 11
15.53362280004441
 21
0.7382877313450514
 31
0.0
100
AcDbAttributeDefinition
  3
ENTER TITLE LINE #1
  2
TITLE1
 70
     4
  0
ATTDEF
  5
5BE6
330
5BE2
100
AcDbEntity
  8
TEXT
100
AcDbText
 10
15.48674780004441
 20
0.5109922890761207
 30
0.0
 40
0.125
  1
 
 41
0.75
  7
TXT
 72
     1
 11
15.53362280004441
 21
0.5109922890761207
 31
0.0
100
AcDbAttributeDefinition
  3
ENTER TITLE LINE #2
  2
TITLE2
 70
     4
  0
ATTDEF
  5
5BE7
330
5BE2
100
AcDbEntity
  8
TEXT
100
AcDbText
 10
15.66691965511983
 20
0.1181742385894946
 30
0.0
 40
0.156
  1
 
 41
0.75
  7
TXT
 72
     1
 11
15.72541965511983
 21
0.1181742385894946
 31
0.0
100
AcDbAttributeDefinition
  3
ENTER PART #
  2
PART
 70
     4
  0
ATTDEF
  5
5BE8
330
5BE2
100
AcDbEntity
  8
TEXT
100
AcDbText
 10
15.72541965511983
 20
9.302640836036475
 30
0.0
 40
0.156
  1

 41
0.75
  7
TXT
 72
     1
 11
15.72541965511983
 21
9.302640836036475
 31
0.0
100
AcDbAttributeDefinition
  3
ENTER PART #
  2
PART
 70
     4
  0
ATTDEF
  5
5BE9
330
5BE2
100
AcDbEntity
  8
TEXT
100
AcDbText
 10
7.156897604150746
 20
1.182012335097561
 30
0.0
 40
0.125
  1

 41
4.93641642638573
  7
TXT
 72
     5
 11
11.06489394170611
 21
1.182012335097561
 31
0.0
100
AcDbAttributeDefinition
  3
ENTER CUT SIZE
  2
CUTSIZE
 70
     4
  0
ATTDEF
  5
5BEA
330
5BE2
100
AcDbEntity
  8
TEXT
100
AcDbText
 10
7.324173832727304
 20
0.2867788269611924
 30
0.0
 40
0.125
  1

 41
0.75
  7
TXT
 72
     1
 11
7.324173832727304
 21
0.2867788269611924
 31
0.0
100
AcDbAttributeDefinition
  3
ENTER QUANTITY
  2
QTY
 70
     4
  0
ATTDEF
  5
5BEB
330
5BE2
100
AcDbEntity
  8
TEXT
100
AcDbText
 10
8.239054202526999
 20
0.2867788269611924
 30
0.0
 40
0.125
  1

 41
0.75
  7
TXT
 72
     1
 11
8.239054202526999
 21
0.2867788269611924
 31
0.0
100
AcDbAttributeDefinition
  3
ENTER "USED ON" PART #
  2
USED
 70
     4
  0
ATTDEF
  5
5BEC
330
5BE2
100
AcDbEntity
  8
TEXT
100
AcDbText
 10
11.82398122291403
 20
0.9555323710702353
 30
0.0
 40
0.125
  1
AS NOTED
 41
0.75
  7
TXT
 72
     1
 11
12.18335622291403
 21
0.9555323710702353
 31
0.0
100
AcDbAttributeDefinition
  3
ENTER MATERIAL
  2
MAT
 70
     4
  0
ATTDEF
  5
5BED
330
5BE2
100
AcDbEntity
  8
TEXT
100
AcDbText
 10
11.80835622291403
 20
0.7436542078606632
 30
0.0
 40
0.125
  1
SEE SPEC.
 41
0.75
  7
TXT
 72
     1
 11
12.18335622291403
 21
0.7436542078606632
 31
0.0
100
AcDbAttributeDefinition
  3
ENTER FINISH
  2
FINISH
 70
     4
  0
LINE
  5
5BEE
330
5BE2
100
AcDbEntity
  8
TITLE
100
AcDbLine
 10
0.0
 20
9.625000000000001
 30
0.0
 11
0.0
 21
0.0
 31
0.0
  0
LINE
  5
5BEF
330
5BE2
100
AcDbEntity
  8
TITLE
100
AcDbLine
 10
0.0
 20
0.0
 30
0.0
 11
16.6
 21
0.0
 31
0.0
  0
LINE
  5
5BF0
330
5BE2
100
AcDbEntity
  8
TITLE
100
AcDbLine
 10
7.119999999999997
 20
1.377
 30
0.0
 11
7.119999999999997
 21
-0.0000000000000004
 31
0.0
  0
LINE
  5
5BF1
330
5BE2
100
AcDbEntity
  8
TITLE
100
AcDbLine
 10
14.7875
 20
8.937499999999998
 30
0.0
 11
14.7875
 21
9.187499999999998
 31
0.0
  0
TEXT
  5
5BF2
330
5BE2
100
AcDbEntity
  8
TITLE
100
AcDbText
 10
14.2875
 20
9.437499999999998
 30
0.0
 40
0.09375
  1
DWG.
  7
TXT
100
AcDbText
  0
TEXT
  5
5BF3
330
5BE2
100
AcDbEntity
  8
TITLE
100
AcDbText
 10
14.27928468339758
 20
9.023672468686173
 30
0.0
 40
0.09375
  1
ISSUE
  7
TXT
100
AcDbText
  0
LINE
  5
5BF4
330
5BE2
100
AcDbEntity
  8
TITLE
100
AcDbLine
 10
14.1625
 20
8.937499999999998
 30
0.0
 11
14.1625
 21
9.624999999999998
 31
0.0
  0
TEXT
  5
5BF5
330
5BE2
100
AcDbEntity
  8
TITLE
100
AcDbText
 10
14.2875
 20
9.281249999999998
 30
0.0
 40
0.09375
  1
NO.
  7
TXT
100
AcDbText
  0
LINE
  5
5BF6
330
5BE2
100
AcDbEntity
  8
TITLE
100
AcDbLine
 10
14.1625
 20
8.937499999999998
 30
0.0
 11
16.6
 21
8.937499999999998
 31
0.0
  0
LINE
  5
5BF7
330
5BE2
100
AcDbEntity
  8
TITLE
100
AcDbLine
 10
14.1625
 20
9.187499999999998
 30
0.0
 11
16.6
 21
9.187499999999998
 31
0.0
  0
TEXT
  5
5BF8
330
5BE2
100
AcDbEntity
  8
TITLE
100
AcDbText
 10
15.22324012267809
 20
9.02584779209924
 30
0.0
 40
0.09375
  1
REVISIONS
  7
TXT
100
AcDbText
  0
TEXT
  5
5BF9
330
5BE2
100
AcDbEntity
  8
TITLE
100
AcDbText
 10
14.5375
 20
0.9903543852819179
 30
0.0
 40
0.09375
  1
NAME:
  7
TXT
100
AcDbText
  0
TEXT
  5
5BFA
330
5BE2
100
AcDbEntity
  8
TITLE
100
AcDbText
 10
14.5375
 20
0.0631657164931343
 30
0.0
 40
0.0938
  1
NO.
  7
TXT
100
AcDbText
  0
TEXT
  5
5BFB
330
5BE2
100
AcDbEntity
  8
TITLE
100
AcDbText
 10
14.5375
 20
0.2194990498264686
 30
0.0
 40
0.0938
  1
DWG.
  7
TXT
100
AcDbText
  0
LINE
  5
5BFC
330
5BE2
100
AcDbEntity
  8
TITLE
100
AcDbLine
 10
14.46724560008883
 20
-0.0000000000000004
 30
0.0
 11
14.46724560008883
 21
1.127
 31
0.0
  0
LINE
  5
5BFD
330
5BE2
100
AcDbEntity
  8
TITLE
100
AcDbLine
 10
13.5365
 20
1.127
 30
0.0
 11
13.5365
 21
1.377
 31
0.0
  0
LINE
  5
5BFE
330
5BE2
100
AcDbEntity
  8
TITLE
100
AcDbLine
 10
13.73673299114846
 20
0.8590073451518431
 30
0.0
 11
13.76976251320413
 21
0.8590073451518431
 31
0.0
  0
ARC
  5
5BFF
330
5BE2
100
AcDbEntity
  8
TITLE
100
AcDbCircle
 10
13.76976251320413
 20
0.7660701812170974
 30
0.0
 40
0.0929371639347451
100
AcDbArc
 50
0.0
 51
90.0
  0
LINE
  5
5C00
330
5BE2
100
AcDbEntity
  8
TITLE
100
AcDbLine
 10
13.81386129933556
 20
0.7328783369546899
 30
0.0
 11
13.77256370982727
 21
0.7328783369546899
 31
0.0
  0
LINE
  5
5C01
330
5BE2
100
AcDbEntity
  8
TITLE
100
AcDbLine
 10
13.73673299114846
 20
0.5934725910525716
 30
0.0
 11
13.76976251320413
 21
0.5934725910525716
 31
0.0
  0
ARC
  5
5C02
330
5BE2
100
AcDbEntity
  8
TITLE
100
AcDbCircle
 10
13.76976251320413
 20
0.6864097549873174
 30
0.0
 40
0.0929371639347451
100
AcDbArc
 50
270.0
 51
0.0
  0
LINE
  5
5C03
330
5BE2
100
AcDbEntity
  8
TITLE
100
AcDbLine
 10
13.81386129933556
 20
0.7196015992497254
 30
0.0
 11
13.77256370982727
 21
0.7196015992497254
 31
0.0
  0
LINE
  5
5C04
330
5BE2
100
AcDbEntity
  8
TITLE
100
AcDbLine
 10
13.73673299114846
 20
0.5934725910525716
 30
0.0
 11
13.73673299114846
 21
0.8590073451518431
 31
0.0
  0
LINE
  5
5C05
330
5BE2
100
AcDbEntity
  8
TITLE
100
AcDbLine
 10
13.77256370982727
 20
0.7196015992497254
 30
0.0
 11
13.77256370982727
 21
0.7328783369546899
 31
0.0
  0
LINE
  5
5C06
330
5BE2
100
AcDbEntity
  8
TITLE
100
AcDbLine
 10
13.86269967713888
 20
0.6864097549873174
 30
0.0
 11
13.86269967713888
 21
0.7660701812170974
 31
0.0
  0
LINE
  5
5C07
330
5BE2
100
AcDbEntity
  8
TITLE
100
AcDbLine
 10
13.81386129933556
 20
0.7196015992497254
 30
0.0
 11
13.81386129933556
 21
0.7328783369546899
 31
0.0
  0
LINE
  5
5C08
330
5BE2
100
AcDbEntity
  8
TITLE
100
AcDbLine
 10
13.63388478947084
 20
0.8590073451518431
 30
0.0
 11
13.68242241159558
 21
0.8590073451518431
 31
0.0
  0
LINE
  5
5C09
330
5BE2
100
AcDbEntity
  8
TITLE
100
AcDbLine
 10
13.56223401395335
 20
0.8590073451518431
 30
0.0
 11
13.6107716360781
 21
0.8590073451518431
 31
0.0
  0
ARC
  5
5C0A
330
5BE2
100
AcDbEntity
  8
TITLE
100
AcDbCircle
 10
13.62404837378307
 20
0.6367964281680929
 30
0.0
 40
0.0132767377049636
100
AcDbArc
 50
180.0
 51
262.5557159022863
  0
ARC
  5
5C0B
330
5BE2
100
AcDbEntity
  8
TITLE
100
AcDbCircle
 10
13.62060805176588
 20
0.6367964281680929
 30
0.0
 40
0.0132767377049636
100
AcDbArc
 50
277.4442840977136
 51
0.0
  0
ARC
  5
5C0C
330
5BE2
100
AcDbEntity
  8
TITLE
100
AcDbCircle
 10
13.66582648946438
 20
0.6100685131837765
 30
0.0
 40
0.0165959221312045
100
AcDbArc
 50
270.0
 51
0.0
  0
ARC
  5
5C0D
330
5BE2
100
AcDbEntity
  8
TITLE
100
AcDbCircle
 10
13.57882993608456
 20
0.6100685131837765
 30
0.0
 40
0.0165959221312045
100
AcDbArc
 50
180.0
 51
270.0
  0
LINE
  5
5C0E
330
5BE2
100
AcDbEntity
  8
TITLE
100
AcDbLine
 10
13.57882993608456
 20
0.5934725910525716
 30
0.0
 11
13.66582648946438
 21
0.5934725910525716
 31
0.0
  0
LINE
  5
5C0F
330
5BE2
100
AcDbEntity
  8
TITLE
100
AcDbLine
 10
13.6107716360781
 20
0.6367964281680929
 30
0.0
 11
13.6107716360781
 21
0.8590073451518431
 31
0.0
  0
LINE
  5
5C10
330
5BE2
100
AcDbEntity
  8
TITLE
100
AcDbLine
 10
13.63388478947084
 20
0.6367964281680929
 30
0.0
 11
13.63388478947084
 21
0.8590073451518431
 31
0.0
  0
LINE
  5
5C11
330
5BE2
100
AcDbEntity
  8
TITLE
100
AcDbLine
 10
13.56223401395335
 20
0.6100685131837765
 30
0.0
 11
13.56223401395335
 21
0.8590073451518431
 31
0.0
  0
LINE
  5
5C12
330
5BE2
100
AcDbEntity
  8
TITLE
100
AcDbLine
 10
13.68242241159558
 20
0.6100685131837765
 30
0.0
 11
13.68242241159558
 21
0.8590073451518431
 31
0.0
  0
LINE
  5
5C13
330
5BE2
100
AcDbEntity
  8
TITLE
100
AcDbLine
 10
13.46284745436459
 20
0.7328783369546899
 30
0.0
 11
13.39004102117747
 21
0.7328783369546899
 31
0.0
  0
LINE
  5
5C14
330
5BE2
100
AcDbEntity
  8
TITLE
100
AcDbLine
 10
13.37732878681146
 20
0.8590073451518431
 30
0.0
 11
13.46284745436459
 21
0.8590073451518431
 31
0.0
  0
LINE
  5
5C15
330
5BE2
100
AcDbEntity
  8
TITLE
100
AcDbLine
 10
13.39004102117747
 20
0.7196015992497254
 30
0.0
 11
13.39004102117747
 21
0.7262399681022083
 31
0.0
  0
LINE
  5
5C16
330
5BE2
100
AcDbEntity
  8
TITLE
100
AcDbLine
 10
13.37732878681146
 20
0.5934725910525716
 30
0.0
 11
13.46284745436459
 21
0.5934725910525716
 31
0.0
  0
LINE
  5
5C17
330
5BE2
100
AcDbEntity
  8
TITLE
100
AcDbLine
 10
13.46284745436459
 20
0.7196015992497254
 30
0.0
 11
13.39004102117747
 21
0.7196015992497254
 31
0.0
  0
LINE
  5
5C18
330
5BE2
100
AcDbEntity
  8
TITLE
100
AcDbLine
 10
13.37732878681146
 20
0.5934725910525716
 30
0.0
 11
13.37732878681146
 21
0.8590073451518431
 31
0.0
  0
LINE
  5
5C19
330
5BE2
100
AcDbEntity
  8
TITLE
100
AcDbLine
 10
13.39004102117747
 20
0.7328783369546899
 30
0.0
 11
13.39004102117747
 21
0.7262399681022083
 31
0.0
  0
ARC
  5
5C1A
330
5BE2
100
AcDbEntity
  8
TITLE
100
AcDbCircle
 10
13.46284745436459
 20
0.7959428410532668
 30
0.0
 40
0.063064504098577
100
AcDbArc
 50
270.0
 51
90.0
  0
ARC
  5
5C1B
330
5BE2
100
AcDbEntity
  8
TITLE
100
AcDbCircle
 10
13.46284745436459
 20
0.6565370951511494
 30
0.0
 40
0.063064504098577
100
AcDbArc
 50
270.0
 51
90.00000000000003
  0
TEXT
  5
5C1C
330
5BE2
100
AcDbEntity
  8
TITLE
100
AcDbText
 10
12.4755
 20
1.197740762992484
 30
0.0
 40
0.09375
  1
PART NO.
  7
TXT
100
AcDbText
  0
TEXT
  5
5C1D
330
5BE2
100
AcDbEntity
  8
TITLE
100
AcDbText
 10
12.80237987390002
 20
0.9755983592151281
 30
0.0
 40
0.09375
  1
SCALE:
  7
TXT
100
AcDbText
  0
LINE
  5
5C1E
330
5BE2
100
AcDbEntity
  8
TITLE
100
AcDbLine
 10
12.76353790782162
 20
-0.0000000000000004
 30
0.0
 11
12.76353790782162
 21
1.127
 31
0.0
  0
TEXT
  5
5C1F
330
5BE2
100
AcDbEntity
  8
TITLE
100
AcDbText
 10
12.86389543567033
 20
0.1249999999999996
 30
0.0
 40
0.09375
  1
WILLOUGHBY, OHIO
  7
TXT
100
AcDbText
  0
TEXT
  5
5C20
330
5BE2
100
AcDbEntity
  8
TITLE
100
AcDbText
 10
12.80461451425917
 20
0.3749999999999996
 30
0.0
 40
0.09375
  1
BUD INDUSTRIES, INC.
  7
TXT
100
AcDbText
  0
LINE
  5
5C21
330
5BE2
100
AcDbEntity
  8
TITLE
100
AcDbLine
 10
14.46724560008883
 20
0.3819999999999992
 30
0.0
 11
16.59999999999999
 21
0.3819999999999992
 31
0.0
  0
TEXT
  5
5C22
330
5BE2
100
AcDbEntity
  8
TITLE
100
AcDbText
 10
14.60244590285365
 20
1.197740762992484
 30
0.0
 40
0.09375
  1
DESCRIPTION
  7
TXT
100
AcDbText
  0
LINE
  5
5C23
330
5BE2
100
AcDbEntity
  8
TITLE
100
AcDbLine
 10
12.03749999999999
 20
1.127
 30
0.0
 11
12.0375
 21
1.377
 31
0.0
  0
LINE
  5
5C24
330
5BE2
100
AcDbEntity
  8
TITLE
100
AcDbLine
 10
11.51929648007106
 20
1.127
 30
0.0
 11
11.51929648007106
 21
1.377
 31
0.0
  0
TEXT
  5
5C25
330
5BE2
100
AcDbEntity
  8
TITLE
100
AcDbText
 10
11.5708473600533
 20
1.197740762992484
 30
0.0
 40
0.09375
  1
REQ'D.
  7
TXT
100
AcDbText
  0
TEXT
  5
5C26
330
5BE2
100
AcDbEntity
  8
TITLE
100
AcDbText
 10
11.163
 20
0.9728772779084607
 30
0.0
 40
0.09375
  1
MAT:
  7
TXT
100
AcDbText
  0
TEXT
  5
5C27
330
5BE2
100
AcDbEntity
  8
TITLE
100
AcDbText
 10
11.15657245370309
 20
1.199407818911626
 30
0.0
 40
0.09375
  1
ITEM
  7
TXT
100
AcDbText
  0
TEXT
  5
5C28
330
5BE2
100
AcDbEntity
  8
TITLE
100
AcDbText
 10
11.163
 20
0.3124999999999996
 30
0.0
 40
0.09375
  1
CH.
  7
TXT
100
AcDbText
  0
TEXT
  5
5C29
330
5BE2
100
AcDbEntity
  8
TITLE
100
AcDbText
 10
11.163
 20
0.5693740809498898
 30
0.0
 40
0.09375
  1
DR.
  7
TXT
100
AcDbText
  0
TEXT
  5
5C2A
330
5BE2
100
AcDbEntity
  8
TITLE
100
AcDbText
 10
11.163
 20
0.7741181638829385
 30
0.0
 40
0.09375
  1
FINISH:
  7
TXT
100
AcDbText
  0
TEXT
  5
5C2B
330
5BE2
100
AcDbEntity
  8
TITLE
100
AcDbText
 10
11.163
 20
0.0624999999999996
 30
0.0
 40
0.09375
  1
APP.
  7
TXT
100
AcDbText
  0
LINE
  5
5C2C
330
5BE2
100
AcDbEntity
  8
TITLE
100
AcDbLine
 10
11.7977560980471
 20
-0.0000000000000004
 30
0.0
 11
11.79775609804711
 21
0.709000000000001
 31
0.0
  0
LINE
  5
5C2D
330
5BE2
100
AcDbEntity
  8
TITLE
100
AcDbLine
 10
11.10049999999999
 20
-0.0000000000000004
 30
0.0
 11
11.10049999999999
 21
1.377
 31
0.0
  0
TEXT
  5
5C2E
330
5BE2
100
AcDbEntity
  8
TITLE
100
AcDbText
 10
9.145905996309931
 20
0.9520717565666277
 30
0.0
 40
0.1117888355610499
  1
%%uTOLERANCES:
  7
TXT
100
AcDbText
  0
TEXT
  5
5C2F
330
5BE2
100
AcDbEntity
  8
TITLE
100
AcDbText
 10
9.191485367583922
 20
0.2344895723568654
 30
0.0
 40
0.0772424143690822
  1
    SURFACES
  7
TXT
100
AcDbText
  0
TEXT
  5
5C30
330
5BE2
100
AcDbEntity
  8
TITLE
100
AcDbText
 10
9.093719946747782
 20
0.7494390014840789
 30
0.0
 40
0.0772424143690822
  1
%%p.005 BETWEEN HOLE CENTERS
  7
TXT
100
AcDbText
  0
TEXT
  5
5C31
330
5BE2
100
AcDbEntity
  8
TITLE
100
AcDbText
 10
9.093719946747782
 20
0.6207016442022755
 30
0.0
 40
0.0772424143690822
  1
%%p.015 FROM SHEARED EDGE
  7
TXT
100
AcDbText
  0
TEXT
  5
5C32
330
5BE2
100
AcDbEntity
  8
TITLE
100
AcDbText
 10
9.093719946747782
 20
0.4919642869204704
 30
0.0
 40
0.0772424143690822
  1
%%p.032 FROM A BENT SURFACE
  7
TXT
100
AcDbText
  0
TEXT
  5
5C33
330
5BE2
100
AcDbEntity
  8
TITLE
100
AcDbText
 10
9.098649805283812
 20
0.0564750904941671
 30
0.0
 40
0.0772424143690822
  1
UNLESS OTHERWISE SPECIFIED
  7
TXT
100
AcDbText
  0
TEXT
  5
5C34
330
5BE2
100
AcDbEntity
  8
TITLE
100
AcDbText
 10
9.093719946747782
 20
0.363226929638667
 30
0.0
 40
0.0772424143690822
  1
%%p.063 BETWEEN ASSEMBLED
  7
TXT
100
AcDbText
  0
LINE
  5
5C35
330
5BE2
100
AcDbEntity
  8
TITLE
100
AcDbLine
 10
7.494999999999997
 20
0.0000000000000013
 30
0.0
 11
7.494999999999997
 21
0.2499999999999996
 31
0.0
  0
TEXT
  5
5C36
330
5BE2
100
AcDbEntity
  8
TITLE
100
AcDbText
 10
7.917259741149376
 20
0.0776282744477839
 30
0.0
 40
0.09375
  1
USED ON
  7
TXT
100
AcDbText
  0
LINE
  5
5C37
330
5BE2
100
AcDbEntity
  8
TITLE
100
AcDbLine
 10
9.0225
 20
0.0000000000000013
 30
0.0
 11
9.0225
 21
1.127
 31
0.0
  0
LINE
  5
5C38
330
5BE2
100
AcDbEntity
  8
TITLE
100
AcDbLine
 10
7.119999999999997
 20
0.2499999999999996
 30
0.0
 11
9.0225
 21
0.2499999999999996
 31
0.0
  0
LINE
  5
5C39
330
5BE2
100
AcDbEntity
  8
TITLE
100
AcDbLine
 10
9.0225
 20
1.127
 30
0.0
 11
7.119999999999997
 21
1.127
 31
0.0
  0
TEXT
  5
5C3A
330
5BE2
100
AcDbEntity
  8
TITLE
100
AcDbText
 10
7.171749183812263
 20
0.0776282744477839
 30
0.0
 40
0.09375
  1
QTY.
  7
TXT
100
AcDbText
  0
LINE
  5
5C3B
330
5BE2
100
AcDbEntity
  8
TITLE
100
AcDbLine
 10
11.10049999999999
 20
1.377
 30
0.0
 11
7.119999999999997
 21
1.377
 31
0.0
  0
LINE
  5
5C3C
330
5BE2
100
AcDbEntity
  8
TITLE
100
AcDbLine
 10
11.10049999999999
 20
1.377
 30
0.0
 11
16.59999999999999
 21
1.377
 31
0.0
  0
LINE
  5
5C3D
330
5BE2
100
AcDbEntity
  8
TITLE
100
AcDbLine
 10
9.0225
 20
1.127
 30
0.0
 11
16.59999999999999
 21
1.127
 31
0.0
  0
LINE
  5
5C3E
330
5BE2
100
AcDbEntity
  8
TITLE
100
AcDbLine
 10
11.10049999999999
 20
0.9180000000000006
 30
0.0
 11
14.46724560008883
 21
0.9180000000000006
 31
0.0
  0
LINE
  5
5C3F
330
5BE2
100
AcDbEntity
  8
TITLE
100
AcDbLine
 10
11.10049999999999
 20
0.2499999999999996
 30
0.0
 11
12.76353790782162
 21
0.2499999999999996
 31
0.0
  0
LINE
  5
5C40
330
5BE2
100
AcDbEntity
  8
TITLE
100
AcDbLine
 10
11.10049999999999
 20
0.709000000000001
 30
0.0
 11
12.76353790782162
 21
0.709000000000001
 31
0.0
  0
LINE
  5
5C41
330
5BE2
100
AcDbEntity
  8
TITLE
100
AcDbLine
 10
11.10049999999999
 20
0.4999999999999996
 30
0.0
 11
12.76353790782162
 21
0.4999999999999996
 31
0.0
  0
LINE
  5
5C42
330
5BE2
100
AcDbEntity
  8
TITLE
100
AcDbLine
 10
16.6
 20
9.624999999999998
 30
0.0
 11
16.6
 21
0.0
 31
0.0
  0
LINE
  5
5C43
330
5BE2
100
AcDbEntity
  8
TITLE
100
AcDbLine
 10
0.0
 20
9.625000000000001
 30
0.0
 11
16.6
 21
9.624999999999998
 31
0.0
  0
ENDBLK
  5
5C45
330
5BE2
100
AcDbEntity
  8
0
100
AcDbBlockEnd
  0
BLOCK
  5
5CA9
330
5C47
100
AcDbEntity
  8
0
100
AcDbBlockBegin
  2
C
 70
     2
 10
0.0
 20
0.0
 30
0.0
  3
C
  1

  0
ATTDEF
  5
5C48
330
5C47
100
AcDbEntity
  8
TEXT
100
AcDbText
 10
16.47785051577857
 20
0.5394050456177202
 30
0.0
 40
0.125
  1

 41
0.75
  7
TXT
 72
     1
 11
16.47785051577857
 21
0.5394050456177202
 31
0.0
100
AcDbAttributeDefinition
  3
ENTER INITIALS
  2
NAME
 70
     4
  0
ATTDEF
  5
5C49
330
5C47
100
AcDbEntity
  8
TEXT
100
AcDbText
 10
17.17323597631695
 20
0.5394050456177202
 30
0.0
 40
0.125
  1

 41
0.75
  7
TXT
 72
     1
 11
17.17323597631695
 21
0.5394050456177202
 31
0.0
100
AcDbAttributeDefinition
  3
ENTER DATE
  2
DATE
 70
     4
  0
ATTDEF
  5
5C4A
330
5C47
100
AcDbEntity
  8
TEXT
100
AcDbText
 10
20.4336228000444
 20
0.7106068173304485
 30
0.0
 40
0.125
  1

 41
0.75
  7
TXT
 72
     1
 11
20.4336228000444
 21
0.7106068173304485
 31
0.0
100
AcDbAttributeDefinition
  3
ENTER TITLE LINE #1
  2
TITLE1
 70
     4
  0
ATTDEF
  5
5C4B
330
5C47
100
AcDbEntity
  8
TEXT
100
AcDbText
 10
20.3867478000444
 20
0.4994773512041509
 30
0.0
 40
0.125
  1
 
 41
0.75
  7
TXT
 72
     1
 11
20.4336228000444
 21
0.4994773512041509
 31
0.0
100
AcDbAttributeDefinition
  3
ENTER TITLE LINE #2
  2
TITLE2
 70
     4
  0
ATTDEF
  5
5C4C
330
5C47
100
AcDbEntity
  8
TEXT
100
AcDbText
 10
20.57174758838052
 20
0.1062243331644149
 30
0.0
 40
0.156
  1
 
 41
0.75
  7
TXT
 72
     1
 11
20.63024758838051
 21
0.1062243331644149
 31
0.0
100
AcDbAttributeDefinition
  3
ENTER PART #
  2
PART
 70
     4
  0
ATTDEF
  5
5C4D
330
5C47
100
AcDbEntity
  8
TEXT
100
AcDbText
 10
20.63024758838051
 20
15.30264083603648
 30
0.0
 40
0.156
  1

 41
0.75
  7
TXT
 72
     1
 11
20.63024758838051
 21
15.30264083603648
 31
0.0
100
AcDbAttributeDefinition
  3
ENTER PART #
  2
PART
 70
     4
  0
ATTDEF
  5
5C4E
330
5C47
100
AcDbEntity
  8
TEXT
100
AcDbText
 10
12.05689760415074
 20
1.182012335097561
 30
0.0
 40
0.125
  1

 41
4.93641642638573
  7
TXT
 72
     5
 11
15.96489394170611
 21
1.182012335097561
 31
0.0
100
AcDbAttributeDefinition
  3
ENTER CUT SIZE
  2
CUTSIZE
 70
     4
  0
ATTDEF
  5
5C4F
330
5C47
100
AcDbEntity
  8
TEXT
100
AcDbText
 10
12.19437068912895
 20
0.2867788269611924
 30
0.0
 40
0.125
  1

 41
0.75
  7
TXT
 72
     1
 11
12.19437068912895
 21
0.2867788269611924
 31
0.0
100
AcDbAttributeDefinition
  3
ENTER QUANTITY
  2
QTY
 70
     4
  0
ATTDEF
  5
5C50
330
5C47
100
AcDbEntity
  8
TEXT
100
AcDbText
 10
13.13905420252699
 20
0.2867788269611924
 30
0.0
 40
0.125
  1

 41
0.75
  7
TXT
 72
     1
 11
13.13905420252699
 21
0.2867788269611924
 31
0.0
100
AcDbAttributeDefinition
  3
ENTER "USED ON" PART #
  2
USED
 70
     4
  0
ATTDEF
  5
5C51
330
5C47
100
AcDbEntity
  8
TEXT
100
AcDbText
 10
16.72398122291403
 20
0.9555323710702353
 30
0.0
 40
0.125
  1
AS NOTED
 41
0.75
  7
TXT
 72
     1
 11
17.08335622291403
 21
0.9555323710702353
 31
0.0
100
AcDbAttributeDefinition
  3
ENTER MATERIAL
  2
MAT
 70
     4
  0
ATTDEF
  5
5C52
330
5C47
100
AcDbEntity
  8
TEXT
100
AcDbText
 10
16.70835622291403
 20
0.7436542078606632
 30
0.0
 40
0.125
  1
SEE SPEC.
 41
0.75
  7
TXT
 72
     1
 11
17.08335622291403
 21
0.7436542078606632
 31
0.0
100
AcDbAttributeDefinition
  3
ENTER FINISH
  2
FINISH
 70
     4
  0
LINE
  5
5C53
330
5C47
100
AcDbEntity
  8
TITLE
100
AcDbLine
 10
0.0
 20
0.0
 30
0.0
 11
21.49999999999999
 21
0.0
 31
0.0
  0
LINE
  5
5C54
330
5C47
100
AcDbEntity
  8
TITLE
100
AcDbLine
 10
0.0
 20
15.625
 30
0.0
 11
0.0
 21
0.0
 31
0.0
  0
LINE
  5
5C55
330
5C47
100
AcDbEntity
  8
TITLE
100
AcDbLine
 10
12.01999999999999
 20
1.377
 30
0.0
 11
12.01999999999999
 21
-0.0000000000000004
 31
0.0
  0
LINE
  5
5C56
330
5C47
100
AcDbEntity
  8
TITLE
100
AcDbLine
 10
19.6875
 20
14.9375
 30
0.0
 11
19.6875
 21
15.1875
 31
0.0
  0
TEXT
  5
5C57
330
5C47
100
AcDbEntity
  8
TITLE
100
AcDbText
 10
19.1875
 20
15.4375
 30
0.0
 40
0.09375
  1
DWG.
  7
TXT
100
AcDbText
  0
TEXT
  5
5C58
330
5C47
100
AcDbEntity
  8
TITLE
100
AcDbText
 10
19.17928468339757
 20
15.02367246868617
 30
0.0
 40
0.09375
  1
ISSUE
  7
TXT
100
AcDbText
  0
LINE
  5
5C59
330
5C47
100
AcDbEntity
  8
TITLE
100
AcDbLine
 10
19.0625
 20
14.9375
 30
0.0
 11
19.0625
 21
15.625
 31
0.0
  0
TEXT
  5
5C5A
330
5C47
100
AcDbEntity
  8
TITLE
100
AcDbText
 10
19.1875
 20
15.28125
 30
0.0
 40
0.09375
  1
NO.
  7
TXT
100
AcDbText
  0
LINE
  5
5C5B
330
5C47
100
AcDbEntity
  8
TITLE
100
AcDbLine
 10
19.0625
 20
14.9375
 30
0.0
 11
21.49999999999999
 21
14.9375
 31
0.0
  0
LINE
  5
5C5C
330
5C47
100
AcDbEntity
  8
TITLE
100
AcDbLine
 10
19.0625
 20
15.1875
 30
0.0
 11
21.49999999999999
 21
15.1875
 31
0.0
  0
TEXT
  5
5C5D
330
5C47
100
AcDbEntity
  8
TITLE
100
AcDbText
 10
20.12324012267808
 20
15.02584779209924
 30
0.0
 40
0.09375
  1
REVISIONS
  7
TXT
100
AcDbText
  0
TEXT
  5
5C5E
330
5C47
100
AcDbEntity
  8
TITLE
100
AcDbText
 10
19.4375
 20
0.9903543852819179
 30
0.0
 40
0.09375
  1
NAME:
  7
TXT
100
AcDbText
  0
TEXT
  5
5C5F
330
5C47
100
AcDbEntity
  8
TITLE
100
AcDbText
 10
19.4375
 20
0.0631657164931343
 30
0.0
 40
0.0938
  1
NO.
  7
TXT
100
AcDbText
  0
TEXT
  5
5C60
330
5C47
100
AcDbEntity
  8
TITLE
100
AcDbText
 10
19.4375
 20
0.2194990498264686
 30
0.0
 40
0.0938
  1
DWG.
  7
TXT
100
AcDbText
  0
LINE
  5
5C61
330
5C47
100
AcDbEntity
  8
TITLE
100
AcDbLine
 10
19.36724560008882
 20
-0.0000000000000004
 30
0.0
 11
19.36724560008882
 21
1.127
 31
0.0
  0
LINE
  5
5C62
330
5C47
100
AcDbEntity
  8
TITLE
100
AcDbLine
 10
18.4365
 20
1.127
 30
0.0
 11
18.4365
 21
1.377
 31
0.0
  0
LINE
  5
5C63
330
5C47
100
AcDbEntity
  8
TITLE
100
AcDbLine
 10
18.63673299114847
 20
0.8590073451518431
 30
0.0
 11
18.66976251320413
 21
0.8590073451518431
 31
0.0
  0
ARC
  5
5C64
330
5C47
100
AcDbEntity
  8
TITLE
100
AcDbCircle
 10
18.66976251320413
 20
0.7660701812170974
 30
0.0
 40
0.0929371639347451
100
AcDbArc
 50
0.0
 51
90.0
  0
LINE
  5
5C65
330
5C47
100
AcDbEntity
  8
TITLE
100
AcDbLine
 10
18.71386129933556
 20
0.7328783369546899
 30
0.0
 11
18.67256370982726
 21
0.7328783369546899
 31
0.0
  0
LINE
  5
5C66
330
5C47
100
AcDbEntity
  8
TITLE
100
AcDbLine
 10
18.63673299114847
 20
0.5934725910525716
 30
0.0
 11
18.66976251320413
 21
0.5934725910525716
 31
0.0
  0
ARC
  5
5C67
330
5C47
100
AcDbEntity
  8
TITLE
100
AcDbCircle
 10
18.66976251320413
 20
0.6864097549873174
 30
0.0
 40
0.0929371639347451
100
AcDbArc
 50
270.0
 51
0.0
  0
LINE
  5
5C68
330
5C47
100
AcDbEntity
  8
TITLE
100
AcDbLine
 10
18.71386129933556
 20
0.7196015992497254
 30
0.0
 11
18.67256370982726
 21
0.7196015992497254
 31
0.0
  0
LINE
  5
5C69
330
5C47
100
AcDbEntity
  8
TITLE
100
AcDbLine
 10
18.63673299114847
 20
0.5934725910525716
 30
0.0
 11
18.63673299114847
 21
0.8590073451518431
 31
0.0
  0
LINE
  5
5C6A
330
5C47
100
AcDbEntity
  8
TITLE
100
AcDbLine
 10
18.67256370982726
 20
0.7196015992497254
 30
0.0
 11
18.67256370982726
 21
0.7328783369546899
 31
0.0
  0
LINE
  5
5C6B
330
5C47
100
AcDbEntity
  8
TITLE
100
AcDbLine
 10
18.76269967713888
 20
0.6864097549873174
 30
0.0
 11
18.76269967713888
 21
0.7660701812170974
 31
0.0
  0
LINE
  5
5C6C
330
5C47
100
AcDbEntity
  8
TITLE
100
AcDbLine
 10
18.71386129933556
 20
0.7196015992497254
 30
0.0
 11
18.71386129933556
 21
0.7328783369546899
 31
0.0
  0
LINE
  5
5C6D
330
5C47
100
AcDbEntity
  8
TITLE
100
AcDbLine
 10
18.53388478947083
 20
0.8590073451518431
 30
0.0
 11
18.58242241159558
 21
0.8590073451518431
 31
0.0
  0
LINE
  5
5C6E
330
5C47
100
AcDbEntity
  8
TITLE
100
AcDbLine
 10
18.46223401395335
 20
0.8590073451518431
 30
0.0
 11
18.5107716360781
 21
0.8590073451518431
 31
0.0
  0
ARC
  5
5C6F
330
5C47
100
AcDbEntity
  8
TITLE
100
AcDbCircle
 10
18.52404837378307
 20
0.6367964281680929
 30
0.0
 40
0.0132767377049636
100
AcDbArc
 50
180.0
 51
262.5557159022863
  0
ARC
  5
5C70
330
5C47
100
AcDbEntity
  8
TITLE
100
AcDbCircle
 10
18.52060805176588
 20
0.6367964281680929
 30
0.0
 40
0.0132767377049636
100
AcDbArc
 50
277.4442840977136
 51
0.0
  0
ARC
  5
5C71
330
5C47
100
AcDbEntity
  8
TITLE
100
AcDbCircle
 10
18.56582648946438
 20
0.6100685131837765
 30
0.0
 40
0.0165959221312045
100
AcDbArc
 50
270.0
 51
0.0
  0
ARC
  5
5C72
330
5C47
100
AcDbEntity
  8
TITLE
100
AcDbCircle
 10
18.47882993608456
 20
0.6100685131837765
 30
0.0
 40
0.0165959221312045
100
AcDbArc
 50
180.0
 51
270.0
  0
LINE
  5
5C73
330
5C47
100
AcDbEntity
  8
TITLE
100
AcDbLine
 10
18.47882993608456
 20
0.5934725910525716
 30
0.0
 11
18.56582648946438
 21
0.5934725910525716
 31
0.0
  0
LINE
  5
5C74
330
5C47
100
AcDbEntity
  8
TITLE
100
AcDbLine
 10
18.5107716360781
 20
0.6367964281680929
 30
0.0
 11
18.5107716360781
 21
0.8590073451518431
 31
0.0
  0
LINE
  5
5C75
330
5C47
100
AcDbEntity
  8
TITLE
100
AcDbLine
 10
18.53388478947083
 20
0.6367964281680929
 30
0.0
 11
18.53388478947083
 21
0.8590073451518431
 31
0.0
  0
LINE
  5
5C76
330
5C47
100
AcDbEntity
  8
TITLE
100
AcDbLine
 10
18.46223401395335
 20
0.6100685131837765
 30
0.0
 11
18.46223401395335
 21
0.8590073451518431
 31
0.0
  0
LINE
  5
5C77
330
5C47
100
AcDbEntity
  8
TITLE
100
AcDbLine
 10
18.58242241159558
 20
0.6100685131837765
 30
0.0
 11
18.58242241159558
 21
0.8590073451518431
 31
0.0
  0
LINE
  5
5C78
330
5C47
100
AcDbEntity
  8
TITLE
100
AcDbLine
 10
18.36284745436459
 20
0.7328783369546899
 30
0.0
 11
18.29004102117746
 21
0.7328783369546899
 31
0.0
  0
LINE
  5
5C79
330
5C47
100
AcDbEntity
  8
TITLE
100
AcDbLine
 10
18.27732878681146
 20
0.8590073451518431
 30
0.0
 11
18.36284745436459
 21
0.8590073451518431
 31
0.0
  0
LINE
  5
5C7A
330
5C47
100
AcDbEntity
  8
TITLE
100
AcDbLine
 10
18.29004102117746
 20
0.7196015992497254
 30
0.0
 11
18.29004102117746
 21
0.7262399681022083
 31
0.0
  0
LINE
  5
5C7B
330
5C47
100
AcDbEntity
  8
TITLE
100
AcDbLine
 10
18.27732878681146
 20
0.5934725910525716
 30
0.0
 11
18.36284745436459
 21
0.5934725910525716
 31
0.0
  0
LINE
  5
5C7C
330
5C47
100
AcDbEntity
  8
TITLE
100
AcDbLine
 10
18.36284745436459
 20
0.7196015992497254
 30
0.0
 11
18.29004102117746
 21
0.7196015992497254
 31
0.0
  0
LINE
  5
5C7D
330
5C47
100
AcDbEntity
  8
TITLE
100
AcDbLine
 10
18.27732878681146
 20
0.5934725910525716
 30
0.0
 11
18.27732878681146
 21
0.8590073451518431
 31
0.0
  0
LINE
  5
5C7E
330
5C47
100
AcDbEntity
  8
TITLE
100
AcDbLine
 10
18.29004102117746
 20
0.7328783369546899
 30
0.0
 11
18.29004102117746
 21
0.7262399681022083
 31
0.0
  0
ARC
  5
5C7F
330
5C47
100
AcDbEntity
  8
TITLE
100
AcDbCircle
 10
18.36284745436459
 20
0.7959428410532668
 30
0.0
 40
0.063064504098577
100
AcDbArc
 50
270.0
 51
90.0
  0
ARC
  5
5C80
330
5C47
100
AcDbEntity
  8
TITLE
100
AcDbCircle
 10
18.36284745436459
 20
0.6565370951511494
 30
0.0
 40
0.063064504098577
100
AcDbArc
 50
270.0
 51
90.00000000000003
  0
TEXT
  5
5C81
330
5C47
100
AcDbEntity
  8
TITLE
100
AcDbText
 10
17.37549999999999
 20
1.197740762992484
 30
0.0
 40
0.09375
  1
PART NO.
  7
TXT
100
AcDbText
  0
TEXT
  5
5C82
330
5C47
100
AcDbEntity
  8
TITLE
100
AcDbText
 10
17.70237987390002
 20
0.9755983592151281
 30
0.0
 40
0.09375
  1
SCALE:
  7
TXT
100
AcDbText
  0
LINE
  5
5C83
330
5C47
100
AcDbEntity
  8
TITLE
100
AcDbLine
 10
17.66353790782162
 20
-0.0000000000000004
 30
0.0
 11
17.66353790782162
 21
1.127
 31
0.0
  0
TEXT
  5
5C84
330
5C47
100
AcDbEntity
  8
TITLE
100
AcDbText
 10
17.76389543567033
 20
0.1249999999999996
 30
0.0
 40
0.09375
  1
WILLOUGHBY, OHIO
  7
TXT
100
AcDbText
  0
TEXT
  5
5C85
330
5C47
100
AcDbEntity
  8
TITLE
100
AcDbText
 10
17.70461451425917
 20
0.3749999999999996
 30
0.0
 40
0.09375
  1
BUD INDUSTRIES, INC.
  7
TXT
100
AcDbText
  0
LINE
  5
5C86
330
5C47
100
AcDbEntity
  8
TITLE
100
AcDbLine
 10
19.36724560008882
 20
0.3819999999999992
 30
0.0
 11
21.49999999999999
 21
0.3819999999999992
 31
0.0
  0
TEXT
  5
5C87
330
5C47
100
AcDbEntity
  8
TITLE
100
AcDbText
 10
19.50244590285365
 20
1.197740762992484
 30
0.0
 40
0.09375
  1
DESCRIPTION
  7
TXT
100
AcDbText
  0
LINE
  5
5C88
330
5C47
100
AcDbEntity
  8
TITLE
100
AcDbLine
 10
16.93749999999999
 20
1.127
 30
0.0
 11
16.9375
 21
1.377
 31
0.0
  0
LINE
  5
5C89
330
5C47
100
AcDbEntity
  8
TITLE
100
AcDbLine
 10
16.41929648007106
 20
1.127
 30
0.0
 11
16.41929648007106
 21
1.377
 31
0.0
  0
TEXT
  5
5C8A
330
5C47
100
AcDbEntity
  8
TITLE
100
AcDbText
 10
16.4708473600533
 20
1.197740762992484
 30
0.0
 40
0.09375
  1
REQ'D.
  7
TXT
100
AcDbText
  0
TEXT
  5
5C8B
330
5C47
100
AcDbEntity
  8
TITLE
100
AcDbText
 10
16.06299999999999
 20
0.9728772779084607
 30
0.0
 40
0.09375
  1
MAT:
  7
TXT
100
AcDbText
  0
TEXT
  5
5C8C
330
5C47
100
AcDbEntity
  8
TITLE
100
AcDbText
 10
16.05657245370309
 20
1.199407818911626
 30
0.0
 40
0.09375
  1
ITEM
  7
TXT
100
AcDbText
  0
TEXT
  5
5C8D
330
5C47
100
AcDbEntity
  8
TITLE
100
AcDbText
 10
16.06299999999999
 20
0.3124999999999996
 30
0.0
 40
0.09375
  1
CH.
  7
TXT
100
AcDbText
  0
TEXT
  5
5C8E
330
5C47
100
AcDbEntity
  8
TITLE
100
AcDbText
 10
16.06299999999999
 20
0.5693740809498898
 30
0.0
 40
0.09375
  1
DR.
  7
TXT
100
AcDbText
  0
TEXT
  5
5C8F
330
5C47
100
AcDbEntity
  8
TITLE
100
AcDbText
 10
16.06299999999999
 20
0.7741181638829385
 30
0.0
 40
0.09375
  1
FINISH:
  7
TXT
100
AcDbText
  0
TEXT
  5
5C90
330
5C47
100
AcDbEntity
  8
TITLE
100
AcDbText
 10
16.06299999999999
 20
0.0624999999999996
 30
0.0
 40
0.09375
  1
APP.
  7
TXT
100
AcDbText
  0
LINE
  5
5C91
330
5C47
100
AcDbEntity
  8
TITLE
100
AcDbLine
 10
16.6977560980471
 20
-0.0000000000000004
 30
0.0
 11
16.69775609804711
 21
0.709000000000001
 31
0.0
  0
LINE
  5
5C92
330
5C47
100
AcDbEntity
  8
TITLE
100
AcDbLine
 10
16.00049999999999
 20
-0.0000000000000004
 30
0.0
 11
16.00049999999999
 21
1.377
 31
0.0
  0
TEXT
  5
5C93
330
5C47
100
AcDbEntity
  8
TITLE
100
AcDbText
 10
14.04590599630992
 20
0.9520717565666277
 30
0.0
 40
0.1117888355610499
  1
%%uTOLERANCES:
  7
TXT
100
AcDbText
  0
TEXT
  5
5C94
330
5C47
100
AcDbEntity
  8
TITLE
100
AcDbText
 10
14.09148536758392
 20
0.2344895723568654
 30
0.0
 40
0.0772424143690822
  1
    SURFACES
  7
TXT
100
AcDbText
  0
TEXT
  5
5C95
330
5C47
100
AcDbEntity
  8
TITLE
100
AcDbText
 10
13.99371994674778
 20
0.7494390014840789
 30
0.0
 40
0.0772424143690822
  1
%%p.005 BETWEEN HOLE CENTERS
  7
TXT
100
AcDbText
  0
TEXT
  5
5C96
330
5C47
100
AcDbEntity
  8
TITLE
100
AcDbText
 10
13.99371994674778
 20
0.6207016442022755
 30
0.0
 40
0.0772424143690822
  1
%%p.015 FROM SHEARED EDGE
  7
TXT
100
AcDbText
  0
TEXT
  5
5C97
330
5C47
100
AcDbEntity
  8
TITLE
100
AcDbText
 10
13.99371994674778
 20
0.4919642869204704
 30
0.0
 40
0.0772424143690822
  1
%%p.032 FROM A BENT SURFACE
  7
TXT
100
AcDbText
  0
TEXT
  5
5C98
330
5C47
100
AcDbEntity
  8
TITLE
100
AcDbText
 10
13.99864980528381
 20
0.0564750904941671
 30
0.0
 40
0.0772424143690822
  1
UNLESS OTHERWISE SPECIFIED
  7
TXT
100
AcDbText
  0
TEXT
  5
5C99
330
5C47
100
AcDbEntity
  8
TITLE
100
AcDbText
 10
13.99371994674778
 20
0.363226929638667
 30
0.0
 40
0.0772424143690822
  1
%%p.063 BETWEEN ASSEMBLED
  7
TXT
100
AcDbText
  0
LINE
  5
5C9A
330
5C47
100
AcDbEntity
  8
TITLE
100
AcDbLine
 10
12.39499999999999
 20
0.0000000000000013
 30
0.0
 11
12.39499999999999
 21
0.2499999999999996
 31
0.0
  0
TEXT
  5
5C9B
330
5C47
100
AcDbEntity
  8
TITLE
100
AcDbText
 10
12.81725974114937
 20
0.0776282744477839
 30
0.0
 40
0.09375
  1
USED ON
  7
TXT
100
AcDbText
  0
LINE
  5
5C9C
330
5C47
100
AcDbEntity
  8
TITLE
100
AcDbLine
 10
13.92249999999999
 20
0.0000000000000013
 30
0.0
 11
13.92249999999999
 21
1.127
 31
0.0
  0
LINE
  5
5C9D
330
5C47
100
AcDbEntity
  8
TITLE
100
AcDbLine
 10
12.01999999999999
 20
0.2499999999999996
 30
0.0
 11
13.92249999999999
 21
0.2499999999999996
 31
0.0
  0
LINE
  5
5C9E
330
5C47
100
AcDbEntity
  8
TITLE
100
AcDbLine
 10
13.92249999999999
 20
1.127
 30
0.0
 11
12.01999999999999
 21
1.127
 31
0.0
  0
TEXT
  5
5C9F
330
5C47
100
AcDbEntity
  8
TITLE
100
AcDbText
 10
12.07174918381226
 20
0.0776282744477839
 30
0.0
 40
0.09375
  1
QTY.
  7
TXT
100
AcDbText
  0
LINE
  5
5CA0
330
5C47
100
AcDbEntity
  8
TITLE
100
AcDbLine
 10
16.00049999999999
 20
1.377
 30
0.0
 11
12.01999999999999
 21
1.377
 31
0.0
  0
LINE
  5
5CA1
330
5C47
100
AcDbEntity
  8
TITLE
100
AcDbLine
 10
16.00049999999999
 20
1.377
 30
0.0
 11
21.49999999999999
 21
1.377
 31
0.0
  0
LINE
  5
5CA2
330
5C47
100
AcDbEntity
  8
TITLE
100
AcDbLine
 10
13.92249999999999
 20
1.127
 30
0.0
 11
21.49999999999999
 21
1.127
 31
0.0
  0
LINE
  5
5CA3
330
5C47
100
AcDbEntity
  8
TITLE
100
AcDbLine
 10
16.00049999999999
 20
0.9180000000000006
 30
0.0
 11
19.36724560008882
 21
0.9180000000000006
 31
0.0
  0
LINE
  5
5CA4
330
5C47
100
AcDbEntity
  8
TITLE
100
AcDbLine
 10
16.00049999999999
 20
0.2499999999999996
 30
0.0
 11
17.66353790782162
 21
0.2499999999999996
 31
0.0
  0
LINE
  5
5CA5
330
5C47
100
AcDbEntity
  8
TITLE
100
AcDbLine
 10
16.00049999999999
 20
0.709000000000001
 30
0.0
 11
17.66353790782162
 21
0.709000000000001
 31
0.0
  0
LINE
  5
5CA6
330
5C47
100
AcDbEntity
  8
TITLE
100
AcDbLine
 10
16.00049999999999
 20
0.4999999999999996
 30
0.0
 11
17.66353790782162
 21
0.4999999999999996
 31
0.0
  0
LINE
  5
5CA7
330
5C47
100
AcDbEntity
  8
TITLE
100
AcDbLine
 10
21.49999999999999
 20
15.625
 30
0.0
 11
21.49999999999999
 21
0.0
 31
0.0
  0
LINE
  5
5CA8
330
5C47
100
AcDbEntity
  8
TITLE
100
AcDbLine
 10
0.0
 20
15.625
 30
0.0
 11
21.49999999999999
 21
15.625
 31
0.0
  0
ENDBLK
  5
5CAA
330
5C47
100
AcDbEntity
  8
0
100
AcDbBlockEnd
  0
BLOCK
  5
5D15
330
5D0A
100
AcDbEntity
  8
0
100
AcDbBlockBegin
  2
*D22
 70
     1
 10
0.0
 20
0.0
 30
0.0
  3
*D22
  1

  0
LINE
  5
5D0B
330
5D0A
100
AcDbEntity
  8
0
 62
     1
370
    -2
100
AcDbLine
 10
76.1369980353929
 20
51.23855529769038
 30
0.0
 11
76.1369980353929
 21
52.02938517001168
 31
0.0
  0
LINE
  5
5D0C
330
5D0A
100
AcDbEntity
  8
0
 62
     1
370
    -2
100
AcDbLine
 10
74.0431549378914
 20
51.68910147431738
 30
0.0
 11
74.0431549378914
 21
52.02938517001168
 31
0.0
  0
LINE
  5
5D0D
330
5D0A
100
AcDbEntity
  8
0
 62
     1
370
    -2
100
AcDbLine
 10
75.95699803539289
 20
51.92938517001168
 30
0.0
 11
75.39179203916602
 21
51.92938517001168
 31
0.0
  0
LINE
  5
5D0E
330
5D0A
100
AcDbEntity
  8
0
 62
     1
370
    -2
100
AcDbLine
 10
74.22315493789141
 20
51.92938517001168
 30
0.0
 11
74.78836093411827
 21
51.92938517001168
 31
0.0
  0
SOLID
  5
5D0F
330
5D0A
100
AcDbEntity
  8
0
 62
     1
100
AcDbTrace
 10
75.95699803539289
 20
51.95938517001168
 30
0.0
 11
75.95699803539289
 21
51.89938517001168
 31
0.0
 12
76.1369980353929
 22
51.92938517001168
 32
0.0
 13
76.1369980353929
 23
51.92938517001168
 33
0.0
  0
SOLID
  5
5D10
330
5D0A
100
AcDbEntity
  8
0
 62
     1
100
AcDbTrace
 10
74.22315493789141
 20
51.95938517001168
 30
0.0
 11
74.22315493789141
 21
51.89938517001168
 31
0.0
 12
74.0431549378914
 22
51.92938517001168
 32
0.0
 13
74.0431549378914
 23
51.92938517001168
 33
0.0
  0
MTEXT
  5
5D11
330
5D0A
100
AcDbEntity
  8
0
 62
     4
100
AcDbMText
 10
75.09007648664215
 20
51.92938517001168
 30
0.0
 40
0.125
 41
0.0
 71
     5
 72
     1
  1
\A1;2.094
 73
     1
 44
1.0
  0
POINT
  5
5D12
330
5D0A
100
AcDbEntity
  8
DEFPOINTS
 62
     0
100
AcDbPoint
 10
76.1369980353929
 20
51.17605529769037
 30
0.0
  0
POINT
  5
5D13
330
5D0A
100
AcDbEntity
  8
DEFPOINTS
 62
     0
100
AcDbPoint
 10
74.0431549378914
 20
51.62660147431737
 30
0.0
  0
POINT
  5
5D14
330
5D0A
100
AcDbEntity
  8
DEFPOINTS
 62
     0
100
AcDbPoint
 10
74.0431549378914
 20
51.92938517001168
 30
0.0
  0
ENDBLK
  5
5D16
330
5D0A
100
AcDbEntity
  8
0
100
AcDbBlockEnd
  0
BLOCK
  5
5D23
330
5D18
100
AcDbEntity
  8
0
100
AcDbBlockBegin
  2
*D23
 70
     1
 10
0.0
 20
0.0
 30
0.0
  3
*D23
  1

  0
LINE
  5
5D19
330
5D18
100
AcDbEntity
  8
0
 62
     1
370
    -2
100
AcDbLine
 10
76.1369980353929
 20
51.30105529769037
 30
0.0
 11
76.1369980353929
 21
52.22517948107499
 31
0.0
  0
LINE
  5
5D1A
330
5D18
100
AcDbEntity
  8
0
 62
     1
370
    -2
100
AcDbLine
 10
73.88922997580848
 20
51.83535692461131
 30
0.0
 11
73.88922997580848
 21
52.22517948107499
 31
0.0
  0
LINE
  5
5D1B
330
5D18
100
AcDbEntity
  8
0
 62
     1
370
    -2
100
AcDbLine
 10
75.95699803539289
 20
52.12517948107499
 30
0.0
 11
75.31521325525964
 21
52.12517948107499
 31
0.0
  0
LINE
  5
5D1C
330
5D18
100
AcDbEntity
  8
0
 62
     1
370
    -2
100
AcDbLine
 10
74.06922997580848
 20
52.12517948107499
 30
0.0
 11
74.71101475594176
 21
52.12517948107499
 31
0.0
  0
SOLID
  5
5D1D
330
5D18
100
AcDbEntity
  8
0
 62
     1
100
AcDbTrace
 10
75.95699803539289
 20
52.15517948107499
 30
0.0
 11
75.95699803539289
 21
52.09517948107499
 31
0.0
 12
76.1369980353929
 22
52.12517948107499
 32
0.0
 13
76.1369980353929
 23
52.12517948107499
 33
0.0
  0
SOLID
  5
5D1E
330
5D18
100
AcDbEntity
  8
0
 62
     1
100
AcDbTrace
 10
74.06922997580848
 20
52.15517948107499
 30
0.0
 11
74.06922997580848
 21
52.09517948107499
 31
0.0
 12
73.88922997580848
 22
52.12517948107499
 32
0.0
 13
73.88922997580848
 23
52.12517948107499
 33
0.0
  0
MTEXT
  5
5D1F
330
5D18
100
AcDbEntity
  8
0
 62
     4
100
AcDbMText
 10
75.01311400560069
 20
52.12517948107499
 30
0.0
 40
0.125
 41
0.0
 71
     5
 72
     1
  1
\A1;2.248
 73
     1
 44
1.0
  0
POINT
  5
5D20
330
5D18
100
AcDbEntity
  8
DEFPOINTS
 62
     0
100
AcDbPoint
 10
76.1369980353929
 20
51.23855529769038
 30
0.0
  0
POINT
  5
5D21
330
5D18
100
AcDbEntity
  8
DEFPOINTS
 62
     0
100
AcDbPoint
 10
73.88922997580848
 20
51.77285692461132
 30
0.0
  0
POINT
  5
5D22
330
5D18
100
AcDbEntity
  8
DEFPOINTS
 62
     0
100
AcDbPoint
 10
73.88922997580848
 20
52.12517948107499
 30
0.0
  0
ENDBLK
  5
5D24
330
5D18
100
AcDbEntity
  8
0
100
AcDbBlockEnd
  0
BLOCK
  5
5D39
330
5D2E
100
AcDbEntity
  8
0
100
AcDbBlockBegin
  2
*D24
 70
     1
 10
0.0
 20
0.0
 30
0.0
  3
*D24
  1

  0
LINE
  5
5D2F
330
5D2E
100
AcDbEntity
  8
0
 62
     1
370
    -2
100
AcDbLine
 10
76.1369980353929
 20
52.94355529769037
 30
0.0
 11
76.1369980353929
 21
52.12377053627661
 31
0.0
  0
LINE
  5
5D30
330
5D2E
100
AcDbEntity
  8
0
 62
     1
370
    -2
100
AcDbLine
 10
74.41803080666383
 20
52.46818290458838
 30
0.0
 11
74.41803080666383
 21
52.12377053627661
 31
0.0
  0
LINE
  5
5D31
330
5D2E
100
AcDbEntity
  8
0
 62
     1
370
    -2
100
AcDbLine
 10
75.95699803539289
 20
52.22377053627661
 30
0.0
 11
75.57266448924119
 21
52.22377053627661
 31
0.0
  0
LINE
  5
5D32
330
5D2E
100
AcDbEntity
  8
0
 62
     1
370
    -2
100
AcDbLine
 10
74.59803080666384
 20
52.22377053627661
 30
0.0
 11
74.98236435281555
 21
52.22377053627661
 31
0.0
  0
SOLID
  5
5D33
330
5D2E
100
AcDbEntity
  8
0
 62
     1
100
AcDbTrace
 10
75.95699803539289
 20
52.25377053627661
 30
0.0
 11
75.95699803539289
 21
52.19377053627661
 31
0.0
 12
76.1369980353929
 22
52.22377053627661
 32
0.0
 13
76.1369980353929
 23
52.22377053627661
 33
0.0
  0
SOLID
  5
5D34
330
5D2E
100
AcDbEntity
  8
0
 62
     1
100
AcDbTrace
 10
74.59803080666384
 20
52.25377053627661
 30
0.0
 11
74.59803080666384
 21
52.19377053627661
 31
0.0
 12
74.41803080666383
 22
52.22377053627661
 32
0.0
 13
74.41803080666383
 23
52.22377053627661
 33
0.0
  0
MTEXT
  5
5D35
330
5D2E
100
AcDbEntity
  8
0
 62
     4
100
AcDbMText
 10
75.27751442102837
 20
52.22377053627661
 30
0.0
 40
0.125
 41
0.0
 71
     5
 72
     1
  1
\A1;1.719
 73
     1
 44
1.0
  0
POINT
  5
5D36
330
5D2E
100
AcDbEntity
  8
DEFPOINTS
 62
     0
100
AcDbPoint
 10
76.1369980353929
 20
53.00605529769037
 30
0.0
  0
POINT
  5
5D37
330
5D2E
100
AcDbEntity
  8
DEFPOINTS
 62
     0
100
AcDbPoint
 10
74.41803080666383
 20
52.53068290458838
 30
0.0
  0
POINT
  5
5D38
330
5D2E
100
AcDbEntity
  8
DEFPOINTS
 62
     0
100
AcDbPoint
 10
74.41803080666383
 20
52.22377053627661
 30
0.0
  0
ENDBLK
  5
5D3A
330
5D2E
100
AcDbEntity
  8
0
100
AcDbBlockEnd
  0
BLOCK
  5
5D47
330
5D3C
100
AcDbEntity
  8
0
100
AcDbBlockBegin
  2
*D25
 70
     1
 10
0.0
 20
0.0
 30
0.0
  3
*D25
  1

  0
LINE
  5
5D3D
330
5D3C
100
AcDbEntity
  8
0
 62
     1
370
    -2
100
AcDbLine
 10
76.1369980353929
 20
52.0612705362766
 30
0.0
 11
76.1369980353929
 21
51.89768993084793
 31
0.0
  0
LINE
  5
5D3E
330
5D3C
100
AcDbEntity
  8
0
 62
     1
370
    -2
100
AcDbLine
 10
74.11014743510207
 20
52.48027188175644
 30
0.0
 11
74.11014743510207
 21
51.89768993084793
 31
0.0
  0
LINE
  5
5D3F
330
5D3C
100
AcDbEntity
  8
0
 62
     1
370
    -2
100
AcDbLine
 10
75.95699803539289
 20
51.99768993084792
 30
0.0
 11
75.4255440858614
 21
51.99768993084792
 31
0.0
  0
LINE
  5
5D40
330
5D3C
100
AcDbEntity
  8
0
 62
     1
370
    -2
100
AcDbLine
 10
74.29014743510208
 20
51.99768993084792
 30
0.0
 11
74.82160138463358
 21
51.99768993084792
 31
0.0
  0
SOLID
  5
5D41
330
5D3C
100
AcDbEntity
  8
0
 62
     1
100
AcDbTrace
 10
75.95699803539289
 20
52.02768993084792
 30
0.0
 11
75.95699803539289
 21
51.96768993084792
 31
0.0
 12
76.1369980353929
 22
51.99768993084792
 32
0.0
 13
76.1369980353929
 23
51.99768993084792
 33
0.0
  0
SOLID
  5
5D42
330
5D3C
100
AcDbEntity
  8
0
 62
     1
100
AcDbTrace
 10
74.29014743510208
 20
52.02768993084792
 30
0.0
 11
74.29014743510208
 21
51.96768993084792
 31
0.0
 12
74.11014743510207
 22
51.99768993084792
 32
0.0
 13
74.11014743510207
 23
51.99768993084792
 33
0.0
  0
MTEXT
  5
5D43
330
5D3C
100
AcDbEntity
  8
0
 62
     4
100
AcDbMText
 10
75.12357273524749
 20
51.99768993084792
 30
0.0
 40
0.125
 41
0.0
 71
     5
 72
     1
  1
\A1;2.027
 73
     1
 44
1.0
  0
POINT
  5
5D44
330
5D3C
100
AcDbEntity
  8
DEFPOINTS
 62
     0
100
AcDbPoint
 10
76.1369980353929
 20
52.12377053627661
 30
0.0
  0
POINT
  5
5D45
330
5D3C
100
AcDbEntity
  8
DEFPOINTS
 62
     0
100
AcDbPoint
 10
74.11014743510207
 20
52.54277188175644
 30
0.0
  0
POINT
  5
5D46
330
5D3C
100
AcDbEntity
  8
DEFPOINTS
 62
     0
100
AcDbPoint
 10
74.11014743510207
 20
51.99768993084792
 30
0.0
  0
ENDBLK
  5
5D48
330
5D3C
100
AcDbEntity
  8
0
100
AcDbBlockEnd
  0
BLOCK
  5
5D6A
330
5D5F
100
AcDbEntity
  8
0
100
AcDbBlockBegin
  2
*D27
 70
     1
 10
0.0
 20
0.0
 30
0.0
  3
*D27
  1

  0
LINE
  5
5D60
330
5D5F
100
AcDbEntity
  8
0
 62
     1
370
    -2
100
AcDbLine
 10
84.05359757420262
 20
60.65998764633635
 30
0.0
 11
83.01344063534708
 21
60.65998764633635
 31
0.0
  0
LINE
  5
5D61
330
5D5F
100
AcDbEntity
  8
0
 62
     1
370
    -2
100
AcDbLine
 10
84.05359757420256
 20
55.59798764633637
 30
0.0
 11
83.01344063534708
 21
55.59798764633637
 31
0.0
  0
LINE
  5
5D62
330
5D5F
100
AcDbEntity
  8
0
 62
     1
370
    -2
100
AcDbLine
 10
83.11344063534708
 20
60.47998764633636
 30
0.0
 11
83.11344063534708
 21
58.28280926980157
 31
0.0
  0
LINE
  5
5D63
330
5D5F
100
AcDbEntity
  8
0
 62
     1
370
    -2
100
AcDbLine
 10
83.11344063534708
 20
55.77798764633636
 30
0.0
 11
83.11344063534708
 21
57.97516602287115
 31
0.0
  0
SOLID
  5
5D64
330
5D5F
100
AcDbEntity
  8
0
 62
     1
100
AcDbTrace
 10
83.08344063534708
 20
60.47998764633636
 30
0.0
 11
83.14344063534708
 21
60.47998764633636
 31
0.0
 12
83.11344063534708
 22
60.65998764633635
 32
0.0
 13
83.11344063534708
 23
60.65998764633635
 33
0.0
  0
SOLID
  5
5D65
330
5D5F
100
AcDbEntity
  8
0
 62
     1
100
AcDbTrace
 10
83.08344063534708
 20
55.77798764633636
 30
0.0
 11
83.14344063534708
 21
55.77798764633636
 31
0.0
 12
83.11344063534708
 22
55.59798764633637
 32
0.0
 13
83.11344063534708
 23
55.59798764633637
 33
0.0
  0
MTEXT
  5
5D66
330
5D5F
100
AcDbEntity
  8
0
 62
     4
100
AcDbMText
 10
83.11344063534706
 20
58.12898764633637
 30
0.0
 40
0.125
 41
0.0
 71
     5
 72
     1
  1
\A1;5.062
 73
     1
 44
1.0
  0
POINT
  5
5D67
330
5D5F
100
AcDbEntity
  8
DEFPOINTS
 62
     0
100
AcDbPoint
 10
84.11609757420263
 20
60.65998764633635
 30
0.0
  0
POINT
  5
5D68
330
5D5F
100
AcDbEntity
  8
DEFPOINTS
 62
     0
100
AcDbPoint
 10
84.11609757420256
 20
55.59798764633637
 30
0.0
  0
POINT
  5
5D69
330
5D5F
100
AcDbEntity
  8
DEFPOINTS
 62
     0
100
AcDbPoint
 10
83.11344063534708
 20
55.59798764633637
 30
0.0
  0
ENDBLK
  5
5D6B
330
5D5F
100
AcDbEntity
  8
0
100
AcDbBlockEnd
  0
BLOCK
  5
5D78
330
5D6D
100
AcDbEntity
  8
0
100
AcDbBlockBegin
  2
*D28
 70
     1
 10
0.0
 20
0.0
 30
0.0
  3
*D28
  1

  0
LINE
  5
5D6E
330
5D6D
100
AcDbEntity
  8
0
 62
     1
370
    -2
100
AcDbLine
 10
85.08267900447362
 20
60.65998764633635
 30
0.0
 11
86.20485847343402
 21
60.65998764633635
 31
0.0
  0
LINE
  5
5D6F
330
5D6D
100
AcDbEntity
  8
0
 62
     1
370
    -2
100
AcDbLine
 10
85.08267900447357
 20
55.59798764633637
 30
0.0
 11
86.20485847343402
 21
55.59798764633637
 31
0.0
  0
LINE
  5
5D70
330
5D6D
100
AcDbEntity
  8
0
 62
     1
370
    -2
100
AcDbLine
 10
86.10485847343403
 20
60.47998764633636
 30
0.0
 11
86.10485847343403
 21
58.28280926980157
 31
0.0
  0
LINE
  5
5D71
330
5D6D
100
AcDbEntity
  8
0
 62
     1
370
    -2
100
AcDbLine
 10
86.10485847343403
 20
55.77798764633636
 30
0.0
 11
86.10485847343403
 21
57.97516602287115
 31
0.0
  0
SOLID
  5
5D72
330
5D6D
100
AcDbEntity
  8
0
 62
     1
100
AcDbTrace
 10
86.07485847343403
 20
60.47998764633636
 30
0.0
 11
86.13485847343403
 21
60.47998764633636
 31
0.0
 12
86.10485847343403
 22
60.65998764633635
 32
0.0
 13
86.10485847343403
 23
60.65998764633635
 33
0.0
  0
SOLID
  5
5D73
330
5D6D
100
AcDbEntity
  8
0
 62
     1
100
AcDbTrace
 10
86.07485847343403
 20
55.77798764633636
 30
0.0
 11
86.13485847343403
 21
55.77798764633636
 31
0.0
 12
86.10485847343403
 22
55.59798764633637
 32
0.0
 13
86.10485847343403
 23
55.59798764633637
 33
0.0
  0
MTEXT
  5
5D74
330
5D6D
100
AcDbEntity
  8
0
 62
     4
100
AcDbMText
 10
86.10485847343403
 20
58.12898764633637
 30
0.0
 40
0.125
 41
0.0
 71
     5
 72
     1
  1
\A1;5.062
 73
     1
 44
1.0
  0
POINT
  5
5D75
330
5D6D
100
AcDbEntity
  8
DEFPOINTS
 62
     0
100
AcDbPoint
 10
85.02017900447363
 20
60.65998764633635
 30
0.0
  0
POINT
  5
5D76
330
5D6D
100
AcDbEntity
  8
DEFPOINTS
 62
     0
100
AcDbPoint
 10
85.02017900447357
 20
55.59798764633637
 30
0.0
  0
POINT
  5
5D77
330
5D6D
100
AcDbEntity
  8
DEFPOINTS
 62
     0
100
AcDbPoint
 10
86.10485847343403
 20
55.59798764633637
 30
0.0
  0
ENDBLK
  5
5D79
330
5D6D
100
AcDbEntity
  8
0
100
AcDbBlockEnd
  0
BLOCK
  5
5D86
330
5D7B
100
AcDbEntity
  8
0
100
AcDbBlockBegin
  2
*D29
 70
     1
 10
0.0
 20
0.0
 30
0.0
  3
*D29
  1

  0
LINE
  5
5D7C
330
5D7B
100
AcDbEntity
  8
0
 62
     1
370
    -2
100
AcDbLine
 10
74.1999980353929
 20
52.59318290458839
 30
0.0
 11
74.1999980353929
 21
53.57334905139961
 31
0.0
  0
LINE
  5
5D7D
330
5D7B
100
AcDbEntity
  8
0
 62
     1
370
    -2
100
AcDbLine
 10
78.0739980353929
 20
52.59318290458837
 30
0.0
 11
78.0739980353929
 21
53.57334905139961
 31
0.0
  0
LINE
  5
5D7E
330
5D7B
100
AcDbEntity
  8
0
 62
     1
370
    -2
100
AcDbLine
 10
74.37999803539291
 20
53.47334905139962
 30
0.0
 11
75.83639094125921
 21
53.47334905139962
 31
0.0
  0
LINE
  5
5D7F
330
5D7B
100
AcDbEntity
  8
0
 62
     1
370
    -2
100
AcDbLine
 10
77.89399803539289
 20
53.47334905139962
 30
0.0
 11
76.4376051295266
 21
53.47334905139962
 31
0.0
  0
SOLID
  5
5D80
330
5D7B
100
AcDbEntity
  8
0
 62
     1
100
AcDbTrace
 10
74.37999803539291
 20
53.50334905139962
 30
0.0
 11
74.37999803539291
 21
53.44334905139962
 31
0.0
 12
74.1999980353929
 22
53.47334905139962
 32
0.0
 13
74.1999980353929
 23
53.47334905139962
 33
0.0
  0
SOLID
  5
5D81
330
5D7B
100
AcDbEntity
  8
0
 62
     1
100
AcDbTrace
 10
77.89399803539289
 20
53.50334905139962
 30
0.0
 11
77.89399803539289
 21
53.44334905139962
 31
0.0
 12
78.0739980353929
 22
53.47334905139962
 32
0.0
 13
78.0739980353929
 23
53.47334905139962
 33
0.0
  0
MTEXT
  5
5D82
330
5D7B
100
AcDbEntity
  8
0
 62
     4
100
AcDbMText
 10
76.1369980353929
 20
53.47334905139962
 30
0.0
 40
0.125
 41
0.0
 71
     5
 72
     1
  1
\A1;3.874
 73
     1
 44
1.0
  0
POINT
  5
5D83
330
5D7B
100
AcDbEntity
  8
DEFPOINTS
 62
     0
100
AcDbPoint
 10
74.1999980353929
 20
52.53068290458839
 30
0.0
  0
POINT
  5
5D84
330
5D7B
100
AcDbEntity
  8
DEFPOINTS
 62
     0
100
AcDbPoint
 10
78.0739980353929
 20
52.53068290458838
 30
0.0
  0
POINT
  5
5D85
330
5D7B
100
AcDbEntity
  8
DEFPOINTS
 62
     0
100
AcDbPoint
 10
78.0739980353929
 20
53.47334905139962
 30
0.0
  0
ENDBLK
  5
5D87
330
5D7B
100
AcDbEntity
  8
0
100
AcDbBlockEnd
  0
BLOCK
  5
5D94
330
5D89
100
AcDbEntity
  8
0
100
AcDbBlockBegin
  2
*D30
 70
     1
 10
0.0
 20
0.0
 30
0.0
  3
*D30
  1

  0
LINE
  5
5D8A
330
5D89
100
AcDbEntity
  8
0
 62
     1
370
    -2
100
AcDbLine
 10
73.94999803539289
 20
51.56410147431737
 30
0.0
 11
73.94999803539289
 21
50.7491340732016
 31
0.0
  0
LINE
  5
5D8B
330
5D89
100
AcDbEntity
  8
0
 62
     1
370
    -2
100
AcDbLine
 10
78.32399803539292
 20
51.56410147431738
 30
0.0
 11
78.32399803539292
 21
50.7491340732016
 31
0.0
  0
LINE
  5
5D8C
330
5D89
100
AcDbEntity
  8
0
 62
     1
370
    -2
100
AcDbLine
 10
74.1299980353929
 20
50.8491340732016
 30
0.0
 11
75.8338329603588
 21
50.8491340732016
 31
0.0
  0
LINE
  5
5D8D
330
5D89
100
AcDbEntity
  8
0
 62
     1
370
    -2
100
AcDbLine
 10
78.14399803539291
 20
50.8491340732016
 30
0.0
 11
76.44016311042701
 21
50.8491340732016
 31
0.0
  0
SOLID
  5
5D8E
330
5D89
100
AcDbEntity
  8
0
 62
     1
100
AcDbTrace
 10
74.1299980353929
 20
50.87913407320161
 30
0.0
 11
74.1299980353929
 21
50.8191340732016
 31
0.0
 12
73.94999803539289
 22
50.8491340732016
 32
0.0
 13
73.94999803539289
 23
50.8491340732016
 33
0.0
  0
SOLID
  5
5D8F
330
5D89
100
AcDbEntity
  8
0
 62
     1
100
AcDbTrace
 10
78.14399803539291
 20
50.87913407320161
 30
0.0
 11
78.14399803539291
 21
50.8191340732016
 31
0.0
 12
78.32399803539292
 22
50.8491340732016
 32
0.0
 13
78.32399803539292
 23
50.8491340732016
 33
0.0
  0
MTEXT
  5
5D90
330
5D89
100
AcDbEntity
  8
0
 62
     4
100
AcDbMText
 10
76.1369980353929
 20
50.8491340732016
 30
0.0
 40
0.125
 41
0.0
 71
     5
 72
     1
  1
\A1;4.374
 73
     1
 44
1.0
  0
POINT
  5
5D91
330
5D89
100
AcDbEntity
  8
DEFPOINTS
 62
     0
100
AcDbPoint
 10
73.94999803539289
 20
51.62660147431736
 30
0.0
  0
POINT
  5
5D92
330
5D89
100
AcDbEntity
  8
DEFPOINTS
 62
     0
100
AcDbPoint
 10
78.32399803539292
 20
51.62660147431738
 30
0.0
  0
POINT
  5
5D93
330
5D89
100
AcDbEntity
  8
DEFPOINTS
 62
     0
100
AcDbPoint
 10
78.32399803539292
 20
50.8491340732016
 30
0.0
  0
ENDBLK
  5
5D95
330
5D89
100
AcDbEntity
  8
0
100
AcDbBlockEnd
  0
ENDSEC
  0
SECTION
  2
ENTITIES
  0
MTEXT
  5
1B9F
330
19
100
AcDbEntity
  8
0
 62
     4
100
AcDbMText
 10
9.899042505138194
 20
7.797816396439145
 30
0.0
 40
0.125
 41
0.0
 71
     4
 72
     1
  1
\A1;
 73
     1
 44
1.0
1001
ACAD
1000
MTEXTBEGIN
1070
    73
1070
     1
1070
    44
1040
1.0
1070
    74
1070
     0
1000
MTEXTEND
  0
MTEXT
  5
1CE4
330
19
100
AcDbEntity
  8
0
 62
     4
100
AcDbMText
 10
12.89254718568397
 20
20.7979334242222
 30
0.0
 40
0.125
 41
0.0
 71
     4
 72
     1
  1
\A1;
 73
     1
 44
1.0
1001
ACAD
1000
MTEXTBEGIN
1070
    73
1070
     1
1070
    44
1040
1.0
1070
    74
1070
     0
1000
MTEXTEND
  0
MTEXT
  5
2CEE
330
19
100
AcDbEntity
  8
0
 62
     4
100
AcDbMText
 10
9.890399818237622
 20
8.918457966797902
 30
0.0
 40
0.125
 41
0.0
 71
     4
 72
     1
  1
\A1;
 73
     1
 44
1.0
1001
ACAD
1000
MTEXTBEGIN
1070
    73
1070
     1
1070
    44
1040
1.0
1070
    74
1070
     0
1000
MTEXTEND
  0
MTEXT
  5
3116
330
19
100
AcDbEntity
  8
0
 62
     4
100
AcDbMText
 10
35.81221690290858
 20
104.6524265605371
 30
0.0
 40
0.125
 41
0.0
 71
     6
 72
     1
  1
\A1;
 73
     1
 44
1.0
1001
ACAD
1000
MTEXTBEGIN
1070
    73
1070
     1
1070
    44
1040
1.0
1070
    74
1070
     0
1000
MTEXTEND
  0
MTEXT
  5
3117
330
19
100
AcDbEntity
  8
0
 62
     4
100
AcDbMText
 10
34.6541498473062
 20
104.976794635457
 30
0.0
 40
0.125
 41
0.0
 71
     4
 72
     1
  1
\A1;
 73
     1
 44
1.0
1001
ACAD
1000
MTEXTBEGIN
1070
    73
1070
     1
1070
    44
1040
1.0
1070
    74
1070
     0
1000
MTEXTEND
  0
MTEXT
  5
3118
330
19
100
AcDbEntity
  8
0
 62
     4
100
AcDbMText
 10
30.57732388896855
 20
102.5189542710527
 30
0.0
 40
0.125
 41
0.0
 71
     6
 72
     1
  1
\A1;
 73
     1
 44
1.0
1001
ACAD
1000
MTEXTBEGIN
1070
    73
1070
     1
1070
    44
1040
1.0
1070
    74
1070
     0
1000
MTEXTEND
  0
MTEXT
  5
3119
330
19
100
AcDbEntity
  8
0
 62
     4
100
AcDbMText
 10
31.08137011571386
 20
101.973306016852
 30
0.0
 40
0.125
 41
0.0
 71
     6
 72
     1
  1
\A1;
 73
     1
 44
1.0
1001
ACAD
1000
MTEXTBEGIN
1070
    73
1070
     1
1070
    44
1040
1.0
1070
    74
1070
     0
1000
MTEXTEND
  0
MTEXT
  5
311A
330
19
100
AcDbEntity
  8
0
 62
     4
100
AcDbMText
 10
30.70927708472572
 20
100.7295706811575
 30
0.0
 40
0.125
 41
0.0
 71
     6
 72
     1
  1
\A1;
 73
     1
 44
1.0
1001
ACAD
1000
MTEXTBEGIN
1070
    73
1070
     1
1070
    44
1040
1.0
1070
    74
1070
     0
1000
MTEXTEND
  0
MTEXT
  5
311B
330
19
100
AcDbEntity
  8
0
 62
     4
100
AcDbMText
 10
30.76199628737757
 20
100.4788917564995
 30
0.0
 40
0.125
 41
0.0
 71
     6
 72
     1
  1
\A1;
 73
     1
 44
1.0
1001
ACAD
1000
MTEXTBEGIN
1070
    73
1070
     1
1070
    44
1040
1.0
1070
    74
1070
     0
1000
MTEXTEND
  0
MTEXT
  5
311C
330
19
100
AcDbEntity
  8
0
 62
     4
100
AcDbMText
 10
45.52296494740388
 20
89.10972118673678
 30
0.0
 40
0.125
 41
0.0
 71
     6
 72
     1
  1
\A1;
 73
     1
 44
1.0
1001
ACAD
1000
MTEXTBEGIN
1070
    73
1070
     1
1070
    44
1040
1.0
1070
    74
1070
     0
1000
MTEXTEND
  0
MTEXT
  5
311D
330
19
100
AcDbEntity
  8
0
 62
     4
100
AcDbMText
 10
51.507954309046
 20
87.15900875418688
 30
0.0
 40
0.125
 41
0.0
 71
     4
 72
     1
  1
\A1;
 73
     1
 44
1.0
1001
ACAD
1000
MTEXTBEGIN
1070
    73
1070
     1
1070
    44
1040
1.0
1070
    74
1070
     0
1000
MTEXTEND
  0
MTEXT
  5
311E
330
19
100
AcDbEntity
  8
0
 62
     4
100
AcDbMText
 10
24.83774353921135
 20
81.71696613116465
 30
0.0
 40
0.125
 41
0.0
 71
     4
 72
     1
  1
\A1;
 73
     1
 44
1.0
1001
ACAD
1000
MTEXTBEGIN
1070
    73
1070
     1
1070
    44
1040
1.0
1070
    74
1070
     0
1000
MTEXTEND
  0
MTEXT
  5
311F
330
19
100
AcDbEntity
  8
0
 62
     4
100
AcDbMText
 10
20.89666124876208
 20
77.96286176114233
 30
0.0
 40
0.125
 41
0.0
 71
     6
 72
     1
  1
\A1;
 73
     1
 44
1.0
1001
ACAD
1000
MTEXTBEGIN
1070
    73
1070
     1
1070
    44
1040
1.0
1070
    74
1070
     0
1000
MTEXTEND
  0
MTEXT
  5
3120
330
19
100
AcDbEntity
  8
0
 62
     4
100
AcDbMText
 10
21.2116160384108
 20
78.71335515977751
 30
0.0
 40
0.125
 41
0.0
 71
     6
 72
     1
  1
\A1;
 73
     1
 44
1.0
1001
ACAD
1000
MTEXTBEGIN
1070
    73
1070
     1
1070
    44
1040
1.0
1070
    74
1070
     0
1000
MTEXTEND
  0
MTEXT
  5
3121
330
19
100
AcDbEntity
  8
0
 62
     4
100
AcDbMText
 10
20.78360056471346
 20
79.26210302204644
 30
0.0
 40
0.125
 41
0.0
 71
     6
 72
     1
  1
\A1;
 73
     1
 44
1.0
1001
ACAD
1000
MTEXTBEGIN
1070
    73
1070
     1
1070
    44
1040
1.0
1070
    74
1070
     0
1000
MTEXTEND
  0
MTEXT
  5
3122
330
19
100
AcDbEntity
  8
0
 62
     4
100
AcDbMText
 10
29.24633693239244
 20
80.91780905111113
 30
0.0
 40
0.125
 41
0.0
 71
     6
 72
     1
  1
\A1;
 73
     1
 44
1.0
1001
ACAD
1000
MTEXTBEGIN
1070
    73
1070
     1
1070
    44
1040
1.0
1070
    74
1070
     0
1000
MTEXTEND
  0
MTEXT
  5
3123
330
19
100
AcDbEntity
  8
0
 62
     4
100
AcDbMText
 10
35.11851621523297
 20
78.98075706575692
 30
0.0
 40
0.125
 41
0.0
 71
     4
 72
     1
  1
\A1;
 73
     1
 44
1.0
1001
ACAD
1000
MTEXTBEGIN
1070
    73
1070
     1
1070
    44
1040
1.0
1070
    74
1070
     0
1000
MTEXTEND
  0
MTEXT
  5
3124
330
19
100
AcDbEntity
  8
0
 62
     5
100
AcDbMText
 10
25.12341868621288
 20
81.6411486002161
 30
0.0
 40
0.125
 41
0.0
 71
     4
 72
     1
  1
\A1;
 73
     1
 44
1.0
1001
ACAD
1000
MTEXTBEGIN
1070
    73
1070
     1
1070
    44
1040
1.0
1070
    74
1070
     0
1000
MTEXTEND
  0
MTEXT
  5
3125
330
19
100
AcDbEntity
  8
0
 62
     5
100
AcDbMText
 10
21.03506313700924
 20
79.02407262645929
 30
0.0
 40
0.125
 41
0.0
 71
     6
 72
     1
  1
\A1;
 73
     1
 44
1.0
1001
ACAD
1000
MTEXTBEGIN
1070
    73
1070
     1
1070
    44
1040
1.0
1070
    74
1070
     0
1000
MTEXTEND
  0
MTEXT
  5
3126
330
19
100
AcDbEntity
  8
0
 62
     5
100
AcDbMText
 10
21.30203951620251
 20
78.37698930231709
 30
0.0
 40
0.125
 41
0.0
 71
     6
 72
     1
  1
\A1;
 73
     1
 44
1.0
1001
ACAD
1000
MTEXTBEGIN
1070
    73
1070
     1
1070
    44
1040
1.0
1070
    74
1070
     0
1000
MTEXTEND
  0
MTEXT
  5
3127
330
19
100
AcDbEntity
  8
0
 62
     5
100
AcDbMText
 10
21.02455173712229
 20
77.66573907100826
 30
0.0
 40
0.125
 41
0.0
 71
     6
 72
     1
  1
\A1;
 73
     1
 44
1.0
1001
ACAD
1000
MTEXTBEGIN
1070
    73
1070
     1
1070
    44
1040
1.0
1070
    74
1070
     0
1000
MTEXTEND
  0
MTEXT
  5
3128
330
19
100
AcDbEntity
  8
0
 62
     5
100
AcDbMText
 10
20.99586889847338
 20
76.6408629793764
 30
0.0
 40
0.125
 41
0.0
 71
     6
 72
     1
  1
\A1;
 73
     1
 44
1.0
1001
ACAD
1000
MTEXTBEGIN
1070
    73
1070
     1
1070
    44
1040
1.0
1070
    74
1070
     0
1000
MTEXTEND
  0
MTEXT
  5
3129
330
19
100
AcDbEntity
  8
0
 62
     5
100
AcDbMText
 10
29.23332013468326
 20
81.16418296563269
 30
0.0
 40
0.125
 41
0.0
 71
     6
 72
     1
  1
\A1;
 73
     1
 44
1.0
1001
ACAD
1000
MTEXTBEGIN
1070
    73
1070
     1
1070
    44
1040
1.0
1070
    74
1070
     0
1000
MTEXTEND
  0
MTEXT
  5
312A
330
19
100
AcDbEntity
  8
0
 62
     5
100
AcDbMText
 10
35.08868162113635
 20
78.78544798529389
 30
0.0
 40
0.125
 41
0.0
 71
     4
 72
     1
  1
\A1;
 73
     1
 44
1.0
1001
ACAD
1000
MTEXTBEGIN
1070
    73
1070
     1
1070
    44
1040
1.0
1070
    74
1070
     0
1000
MTEXTEND
  0
MTEXT
  5
312B
330
19
100
AcDbEntity
  8
0
 62
     5
100
AcDbMText
 10
30.48931617485947
 20
74.98203242014722
 30
0.0
 40
0.125
 41
0.0
 71
     4
 72
     1
  1
\A1;
 73
     1
 44
1.0
1001
ACAD
1000
MTEXTBEGIN
1070
    73
1070
     1
1070
    44
1040
1.0
1070
    74
1070
     0
1000
MTEXTEND
  0
MTEXT
  5
312C
330
19
100
AcDbEntity
  8
0
 62
     4
100
AcDbMText
 10
41.66770801025162
 20
44.41454882354683
 30
0.0
 40
0.125
 41
0.0
 71
     4
 72
     1
  1
\A1;
 73
     1
 44
1.0
1001
ACAD
1000
MTEXTBEGIN
1070
    73
1070
     1
1070
    44
1040
1.0
1070
    74
1070
     0
1000
MTEXTEND
  0
MTEXT
  5
3446
330
19
100
AcDbEntity
  8
0
 62
     4
100
AcDbMText
 10
65.06170487187334
 20
90.55286773149353
 30
0.0
 40
0.125
 41
0.0
 71
     6
 72
     1
  1
\A1;
 73
     1
 44
1.0
1001
ACAD
1000
MTEXTBEGIN
1070
    73
1070
     1
1070
    44
1040
1.0
1070
    74
1070
     0
1000
MTEXTEND
  0
MTEXT
  5
3447
330
19
100
AcDbEntity
  8
0
 62
     4
100
AcDbMText
 10
63.90363781627096
 20
90.87723580641341
 30
0.0
 40
0.125
 41
0.0
 71
     4
 72
     1
  1
\A1;
 73
     1
 44
1.0
1001
ACAD
1000
MTEXTBEGIN
1070
    73
1070
     1
1070
    44
1040
1.0
1070
    74
1070
     0
1000
MTEXTEND
  0
MTEXT
  5
3448
330
19
100
AcDbEntity
  8
0
 62
     4
100
AcDbMText
 10
59.82681185793332
 20
88.41939544200915
 30
0.0
 40
0.125
 41
0.0
 71
     6
 72
     1
  1
\A1;
 73
     1
 44
1.0
1001
ACAD
1000
MTEXTBEGIN
1070
    73
1070
     1
1070
    44
1040
1.0
1070
    74
1070
     0
1000
MTEXTEND
  0
MTEXT
  5
3449
330
19
100
AcDbEntity
  8
0
 62
     4
100
AcDbMText
 10
60.33085808467862
 20
87.87374718780849
 30
0.0
 40
0.125
 41
0.0
 71
     6
 72
     1
  1
\A1;
 73
     1
 44
1.0
1001
ACAD
1000
MTEXTBEGIN
1070
    73
1070
     1
1070
    44
1040
1.0
1070
    74
1070
     0
1000
MTEXTEND
  0
MTEXT
  5
344A
330
19
100
AcDbEntity
  8
0
 62
     4
100
AcDbMText
 10
59.95876505369047
 20
86.63001185211397
 30
0.0
 40
0.125
 41
0.0
 71
     6
 72
     1
  1
\A1;
 73
     1
 44
1.0
1001
ACAD
1000
MTEXTBEGIN
1070
    73
1070
     1
1070
    44
1040
1.0
1070
    74
1070
     0
1000
MTEXTEND
  0
MTEXT
  5
344B
330
19
100
AcDbEntity
  8
0
 62
     4
100
AcDbMText
 10
60.01148425634234
 20
86.37933292745591
 30
0.0
 40
0.125
 41
0.0
 71
     6
 72
     1
  1
\A1;
 73
     1
 44
1.0
1001
ACAD
1000
MTEXTBEGIN
1070
    73
1070
     1
1070
    44
1040
1.0
1070
    74
1070
     0
1000
MTEXTEND
  0
MTEXT
  5
344C
330
19
100
AcDbEntity
  8
0
 62
     4
100
AcDbMText
 10
74.77245291636865
 20
75.01016235769316
 30
0.0
 40
0.125
 41
0.0
 71
     6
 72
     1
  1
\A1;
 73
     1
 44
1.0
1001
ACAD
1000
MTEXTBEGIN
1070
    73
1070
     1
1070
    44
1040
1.0
1070
    74
1070
     0
1000
MTEXTEND
  0
MTEXT
  5
344D
330
19
100
AcDbEntity
  8
0
 62
     4
100
AcDbMText
 10
80.75744227801076
 20
73.05944992514326
 30
0.0
 40
0.125
 41
0.0
 71
     4
 72
     1
  1
\A1;
 73
     1
 44
1.0
1001
ACAD
1000
MTEXTBEGIN
1070
    73
1070
     1
1070
    44
1040
1.0
1070
    74
1070
     0
1000
MTEXTEND
  0
MTEXT
  5
344E
330
19
100
AcDbEntity
  8
0
 62
     4
100
AcDbMText
 10
54.08723150817611
 20
67.61740730212102
 30
0.0
 40
0.125
 41
0.0
 71
     4
 72
     1
  1
\A1;
 73
     1
 44
1.0
1001
ACAD
1000
MTEXTBEGIN
1070
    73
1070
     1
1070
    44
1040
1.0
1070
    74
1070
     0
1000
MTEXTEND
  0
MTEXT
  5
344F
330
19
100
AcDbEntity
  8
0
 62
     4
100
AcDbMText
 10
50.14614921772684
 20
63.86330293209873
 30
0.0
 40
0.125
 41
0.0
 71
     6
 72
     1
  1
\A1;
 73
     1
 44
1.0
1001
ACAD
1000
MTEXTBEGIN
1070
    73
1070
     1
1070
    44
1040
1.0
1070
    74
1070
     0
1000
MTEXTEND
  0
MTEXT
  5
3450
330
19
100
AcDbEntity
  8
0
 62
     4
100
AcDbMText
 10
50.46110400737557
 20
64.61379633073391
 30
0.0
 40
0.125
 41
0.0
 71
     6
 72
     1
  1
\A1;
 73
     1
 44
1.0
1001
ACAD
1000
MTEXTBEGIN
1070
    73
1070
     1
1070
    44
1040
1.0
1070
    74
1070
     0
1000
MTEXTEND
  0
MTEXT
  5
3451
330
19
100
AcDbEntity
  8
0
 62
     4
100
AcDbMText
 10
50.03308853367822
 20
65.16254419300285
 30
0.0
 40
0.125
 41
0.0
 71
     6
 72
     1
  1
\A1;
 73
     1
 44
1.0
1001
ACAD
1000
MTEXTBEGIN
1070
    73
1070
     1
1070
    44
1040
1.0
1070
    74
1070
     0
1000
MTEXTEND
  0
MTEXT
  5
3452
330
19
100
AcDbEntity
  8
0
 62
     4
100
AcDbMText
 10
58.4958249013572
 20
66.81825022206753
 30
0.0
 40
0.125
 41
0.0
 71
     6
 72
     1
  1
\A1;
 73
     1
 44
1.0
1001
ACAD
1000
MTEXTBEGIN
1070
    73
1070
     1
1070
    44
1040
1.0
1070
    74
1070
     0
1000
MTEXTEND
  0
MTEXT
  5
3453
330
19
100
AcDbEntity
  8
0
 62
     4
100
AcDbMText
 10
64.36800418419773
 20
64.88119823671332
 30
0.0
 40
0.125
 41
0.0
 71
     4
 72
     1
  1
\A1;
 73
     1
 44
1.0
1001
ACAD
1000
MTEXTBEGIN
1070
    73
1070
     1
1070
    44
1040
1.0
1070
    74
1070
     0
1000
MTEXTEND
  0
MTEXT
  5
3454
330
19
100
AcDbEntity
  8
0
 62
     5
100
AcDbMText
 10
54.37290665517764
 20
67.54158977117251
 30
0.0
 40
0.125
 41
0.0
 71
     4
 72
     1
  1
\A1;
 73
     1
 44
1.0
1001
ACAD
1000
MTEXTBEGIN
1070
    73
1070
     1
1070
    44
1040
1.0
1070
    74
1070
     0
1000
MTEXTEND
  0
MTEXT
  5
3455
330
19
100
AcDbEntity
  8
0
 62
     5
100
AcDbMText
 10
50.284551105974
 20
64.92451379741568
 30
0.0
 40
0.125
 41
0.0
 71
     6
 72
     1
  1
\A1;
 73
     1
 44
1.0
1001
ACAD
1000
MTEXTBEGIN
1070
    73
1070
     1
1070
    44
1040
1.0
1070
    74
1070
     0
1000
MTEXTEND
  0
MTEXT
  5
3456
330
19
100
AcDbEntity
  8
0
 62
     5
100
AcDbMText
 10
50.55152748516727
 20
64.27743047327348
 30
0.0
 40
0.125
 41
0.0
 71
     6
 72
     1
  1
\A1;
 73
     1
 44
1.0
1001
ACAD
1000
MTEXTBEGIN
1070
    73
1070
     1
1070
    44
1040
1.0
1070
    74
1070
     0
1000
MTEXTEND
  0
MTEXT
  5
3457
330
19
100
AcDbEntity
  8
0
 62
     5
100
AcDbMText
 10
50.27403970608705
 20
63.56618024196466
 30
0.0
 40
0.125
 41
0.0
 71
     6
 72
     1
  1
\A1;
 73
     1
 44
1.0
1001
ACAD
1000
MTEXTBEGIN
1070
    73
1070
     1
1070
    44
1040
1.0
1070
    74
1070
     0
1000
MTEXTEND
  0
MTEXT
  5
3458
330
19
100
AcDbEntity
  8
0
 62
     5
100
AcDbMText
 10
50.24535686743814
 20
62.54130415033279
 30
0.0
 40
0.125
 41
0.0
 71
     6
 72
     1
  1
\A1;
 73
     1
 44
1.0
1001
ACAD
1000
MTEXTBEGIN
1070
    73
1070
     1
1070
    44
1040
1.0
1070
    74
1070
     0
1000
MTEXTEND
  0
MTEXT
  5
3459
330
19
100
AcDbEntity
  8
0
 62
     5
100
AcDbMText
 10
58.48280810364801
 20
67.06462413658909
 30
0.0
 40
0.125
 41
0.0
 71
     6
 72
     1
  1
\A1;
 73
     1
 44
1.0
1001
ACAD
1000
MTEXTBEGIN
1070
    73
1070
     1
1070
    44
1040
1.0
1070
    74
1070
     0
1000
MTEXTEND
  0
MTEXT
  5
345A
330
19
100
AcDbEntity
  8
0
 62
     5
100
AcDbMText
 10
64.33816959010112
 20
64.6858891562503
 30
0.0
 40
0.125
 41
0.0
 71
     4
 72
     1
  1
\A1;
 73
     1
 44
1.0
1001
ACAD
1000
MTEXTBEGIN
1070
    73
1070
     1
1070
    44
1040
1.0
1070
    74
1070
     0
1000
MTEXTEND
  0
MTEXT
  5
345B
330
19
100
AcDbEntity
  8
0
 62
     5
100
AcDbMText
 10
59.73880414382423
 20
60.88247359110361
 30
0.0
 40
0.125
 41
0.0
 71
     4
 72
     1
  1
\A1;
 73
     1
 44
1.0
1001
ACAD
1000
MTEXTBEGIN
1070
    73
1070
     1
1070
    44
1040
1.0
1070
    74
1070
     0
1000
MTEXTEND
  0
MTEXT
  5
345C
330
19
100
AcDbEntity
  8
0
 62
     4
100
AcDbMText
 10
70.91719597921638
 20
30.31498999450323
 30
0.0
 40
0.125
 41
0.0
 71
     4
 72
     1
  1
\A1;
 73
     1
 44
1.0
1001
ACAD
1000
MTEXTBEGIN
1070
    73
1070
     1
1070
    44
1040
1.0
1070
    74
1070
     0
1000
MTEXTEND
  0
MTEXT
  5
3543
330
19
100
AcDbEntity
  8
0
 62
     4
100
AcDbMText
 10
48.53820631571469
 20
91.10255304380071
 30
0.0
 40
0.125
 41
0.0
 71
     6
 72
     1
  1
\A1;
 73
     1
 44
1.0
1001
ACAD
1000
MTEXTBEGIN
1070
    73
1070
     1
1070
    44
1040
1.0
1070
    74
1070
     0
1000
MTEXTEND
  0
MTEXT
  5
3544
330
19
100
AcDbEntity
  8
0
 62
     4
100
AcDbMText
 10
47.38013926011231
 20
91.42692111872058
 30
0.0
 40
0.125
 41
0.0
 71
     4
 72
     1
  1
\A1;
 73
     1
 44
1.0
1001
ACAD
1000
MTEXTBEGIN
1070
    73
1070
     1
1070
    44
1040
1.0
1070
    74
1070
     0
1000
MTEXTEND
  0
MTEXT
  5
3545
330
19
100
AcDbEntity
  8
0
 62
     4
100
AcDbMText
 10
43.30331330177467
 20
88.96908075431632
 30
0.0
 40
0.125
 41
0.0
 71
     6
 72
     1
  1
\A1;
 73
     1
 44
1.0
1001
ACAD
1000
MTEXTBEGIN
1070
    73
1070
     1
1070
    44
1040
1.0
1070
    74
1070
     0
1000
MTEXTEND
  0
MTEXT
  5
3546
330
19
100
AcDbEntity
  8
0
 62
     4
100
AcDbMText
 10
43.80735952851997
 20
88.42343250011566
 30
0.0
 40
0.125
 41
0.0
 71
     6
 72
     1
  1
\A1;
 73
     1
 44
1.0
1001
ACAD
1000
MTEXTBEGIN
1070
    73
1070
     1
1070
    44
1040
1.0
1070
    74
1070
     0
1000
MTEXTEND
  0
MTEXT
  5
3547
330
19
100
AcDbEntity
  8
0
 62
     4
100
AcDbMText
 10
43.43526649753183
 20
87.17969716442114
 30
0.0
 40
0.125
 41
0.0
 71
     6
 72
     1
  1
\A1;
 73
     1
 44
1.0
1001
ACAD
1000
MTEXTBEGIN
1070
    73
1070
     1
1070
    44
1040
1.0
1070
    74
1070
     0
1000
MTEXTEND
  0
MTEXT
  5
3548
330
19
100
AcDbEntity
  8
0
 62
     4
100
AcDbMText
 10
43.48798570018369
 20
86.9290182397631
 30
0.0
 40
0.125
 41
0.0
 71
     6
 72
     1
  1
\A1;
 73
     1
 44
1.0
1001
ACAD
1000
MTEXTBEGIN
1070
    73
1070
     1
1070
    44
1040
1.0
1070
    74
1070
     0
1000
MTEXTEND
  0
MTEXT
  5
3549
330
19
100
AcDbEntity
  8
0
 62
     4
100
AcDbMText
 10
58.24895436021
 20
75.55984767000035
 30
0.0
 40
0.125
 41
0.0
 71
     6
 72
     1
  1
\A1;
 73
     1
 44
1.0
1001
ACAD
1000
MTEXTBEGIN
1070
    73
1070
     1
1070
    44
1040
1.0
1070
    74
1070
     0
1000
MTEXTEND
  0
MTEXT
  5
354A
330
19
100
AcDbEntity
  8
0
 62
     4
100
AcDbMText
 10
64.23394372185211
 20
73.60913523745046
 30
0.0
 40
0.125
 41
0.0
 71
     4
 72
     1
  1
\A1;
 73
     1
 44
1.0
1001
ACAD
1000
MTEXTBEGIN
1070
    73
1070
     1
1070
    44
1040
1.0
1070
    74
1070
     0
1000
MTEXTEND
  0
MTEXT
  5
354B
330
19
100
AcDbEntity
  8
0
 62
     4
100
AcDbMText
 10
37.56373295201747
 20
68.16709261442821
 30
0.0
 40
0.125
 41
0.0
 71
     4
 72
     1
  1
\A1;
 73
     1
 44
1.0
1001
ACAD
1000
MTEXTBEGIN
1070
    73
1070
     1
1070
    44
1040
1.0
1070
    74
1070
     0
1000
MTEXTEND
  0
MTEXT
  5
354C
330
19
100
AcDbEntity
  8
0
 62
     4
100
AcDbMText
 10
33.6226506615682
 20
64.41298824440591
 30
0.0
 40
0.125
 41
0.0
 71
     6
 72
     1
  1
\A1;
 73
     1
 44
1.0
1001
ACAD
1000
MTEXTBEGIN
1070
    73
1070
     1
1070
    44
1040
1.0
1070
    74
1070
     0
1000
MTEXTEND
  0
MTEXT
  5
354D
330
19
100
AcDbEntity
  8
0
 62
     4
100
AcDbMText
 10
33.93760545121692
 20
65.16348164304108
 30
0.0
 40
0.125
 41
0.0
 71
     6
 72
     1
  1
\A1;
 73
     1
 44
1.0
1001
ACAD
1000
MTEXTBEGIN
1070
    73
1070
     1
1070
    44
1040
1.0
1070
    74
1070
     0
1000
MTEXTEND
  0
MTEXT
  5
354E
330
19
100
AcDbEntity
  8
0
 62
     4
100
AcDbMText
 10
33.50958997751957
 20
65.71222950531002
 30
0.0
 40
0.125
 41
0.0
 71
     6
 72
     1
  1
\A1;
 73
     1
 44
1.0
1001
ACAD
1000
MTEXTBEGIN
1070
    73
1070
     1
1070
    44
1040
1.0
1070
    74
1070
     0
1000
MTEXTEND
  0
MTEXT
  5
354F
330
19
100
AcDbEntity
  8
0
 62
     4
100
AcDbMText
 10
41.97232634519855
 20
67.36793553437471
 30
0.0
 40
0.125
 41
0.0
 71
     6
 72
     1
  1
\A1;
 73
     1
 44
1.0
1001
ACAD
1000
MTEXTBEGIN
1070
    73
1070
     1
1070
    44
1040
1.0
1070
    74
1070
     0
1000
MTEXTEND
  0
MTEXT
  5
3550
330
19
100
AcDbEntity
  8
0
 62
     4
100
AcDbMText
 10
47.84450562803908
 20
65.43088354902049
 30
0.0
 40
0.125
 41
0.0
 71
     4
 72
     1
  1
\A1;
 73
     1
 44
1.0
1001
ACAD
1000
MTEXTBEGIN
1070
    73
1070
     1
1070
    44
1040
1.0
1070
    74
1070
     0
1000
MTEXTEND
  0
MTEXT
  5
3551
330
19
100
AcDbEntity
  8
0
 62
     5
100
AcDbMText
 10
37.849408099019
 20
68.09127508347969
 30
0.0
 40
0.125
 41
0.0
 71
     4
 72
     1
  1
\A1;
 73
     1
 44
1.0
1001
ACAD
1000
MTEXTBEGIN
1070
    73
1070
     1
1070
    44
1040
1.0
1070
    74
1070
     0
1000
MTEXTEND
  0
MTEXT
  5
3552
330
19
100
AcDbEntity
  8
0
 62
     5
100
AcDbMText
 10
33.76105254981536
 20
65.47419910972286
 30
0.0
 40
0.125
 41
0.0
 71
     6
 72
     1
  1
\A1;
 73
     1
 44
1.0
1001
ACAD
1000
MTEXTBEGIN
1070
    73
1070
     1
1070
    44
1040
1.0
1070
    74
1070
     0
1000
MTEXTEND
  0
MTEXT
  5
3553
330
19
100
AcDbEntity
  8
0
 62
     5
100
AcDbMText
 10
34.02802892900862
 20
64.82711578558066
 30
0.0
 40
0.125
 41
0.0
 71
     6
 72
     1
  1
\A1;
 73
     1
 44
1.0
1001
ACAD
1000
MTEXTBEGIN
1070
    73
1070
     1
1070
    44
1040
1.0
1070
    74
1070
     0
1000
MTEXTEND
  0
MTEXT
  5
3554
330
19
100
AcDbEntity
  8
0
 62
     5
100
AcDbMText
 10
33.7505411499284
 20
64.11586555427184
 30
0.0
 40
0.125
 41
0.0
 71
     6
 72
     1
  1
\A1;
 73
     1
 44
1.0
1001
ACAD
1000
MTEXTBEGIN
1070
    73
1070
     1
1070
    44
1040
1.0
1070
    74
1070
     0
1000
MTEXTEND
  0
MTEXT
  5
3555
330
19
100
AcDbEntity
  8
0
 62
     5
100
AcDbMText
 10
33.7218583112795
 20
63.09098946263997
 30
0.0
 40
0.125
 41
0.0
 71
     6
 72
     1
  1
\A1;
 73
     1
 44
1.0
1001
ACAD
1000
MTEXTBEGIN
1070
    73
1070
     1
1070
    44
1040
1.0
1070
    74
1070
     0
1000
MTEXTEND
  0
MTEXT
  5
3556
330
19
100
AcDbEntity
  8
0
 62
     5
100
AcDbMText
 10
41.95930954748937
 20
67.61430944889626
 30
0.0
 40
0.125
 41
0.0
 71
     6
 72
     1
  1
\A1;
 73
     1
 44
1.0
1001
ACAD
1000
MTEXTBEGIN
1070
    73
1070
     1
1070
    44
1040
1.0
1070
    74
1070
     0
1000
MTEXTEND
  0
MTEXT
  5
3557
330
19
100
AcDbEntity
  8
0
 62
     5
100
AcDbMText
 10
47.81467103394247
 20
65.23557446855747
 30
0.0
 40
0.125
 41
0.0
 71
     4
 72
     1
  1
\A1;
 73
     1
 44
1.0
1001
ACAD
1000
MTEXTBEGIN
1070
    73
1070
     1
1070
    44
1040
1.0
1070
    74
1070
     0
1000
MTEXTEND
  0
MTEXT
  5
3558
330
19
100
AcDbEntity
  8
0
 62
     5
100
AcDbMText
 10
43.21530558766559
 20
61.43215890341079
 30
0.0
 40
0.125
 41
0.0
 71
     4
 72
     1
  1
\A1;
 73
     1
 44
1.0
1001
ACAD
1000
MTEXTBEGIN
1070
    73
1070
     1
1070
    44
1040
1.0
1070
    74
1070
     0
1000
MTEXTEND
  0
MTEXT
  5
3559
330
19
100
AcDbEntity
  8
0
 62
     4
100
AcDbMText
 10
54.39369742305774
 20
30.86467530681041
 30
0.0
 40
0.125
 41
0.0
 71
     4
 72
     1
  1
\A1;
 73
     1
 44
1.0
1001
ACAD
1000
MTEXTBEGIN
1070
    73
1070
     1
1070
    44
1040
1.0
1070
    74
1070
     0
1000
MTEXTEND
  0
MTEXT
  5
4904
330
19
100
AcDbEntity
  8
0
 62
     4
100
AcDbMText
 10
25.44649056276481
 20
132.2637948317192
 30
0.0
 40
0.125
 41
0.0
 71
     6
 72
     1
  1
\A1;
 73
     1
 44
1.0
1001
ACAD
1000
MTEXTBEGIN
1070
    73
1070
     1
1070
    44
1040
1.0
1070
    74
1070
     0
1000
MTEXTEND
  0
MTEXT
  5
4905
330
19
100
AcDbEntity
  8
0
 62
     4
100
AcDbMText
 10
24.28842350716243
 20
132.5881629066391
 30
0.0
 40
0.125
 41
0.0
 71
     4
 72
     1
  1
\A1;
 73
     1
 44
1.0
1001
ACAD
1000
MTEXTBEGIN
1070
    73
1070
     1
1070
    44
1040
1.0
1070
    74
1070
     0
1000
MTEXTEND
  0
MTEXT
  5
4906
330
19
100
AcDbEntity
  8
0
 62
     4
100
AcDbMText
 10
20.21159754882479
 20
130.1303225422348
 30
0.0
 40
0.125
 41
0.0
 71
     6
 72
     1
  1
\A1;
 73
     1
 44
1.0
1001
ACAD
1000
MTEXTBEGIN
1070
    73
1070
     1
1070
    44
1040
1.0
1070
    74
1070
     0
1000
MTEXTEND
  0
MTEXT
  5
4907
330
19
100
AcDbEntity
  8
0
 62
     4
100
AcDbMText
 10
20.71564377557009
 20
129.5846742880342
 30
0.0
 40
0.125
 41
0.0
 71
     6
 72
     1
  1
\A1;
 73
     1
 44
1.0
1001
ACAD
1000
MTEXTBEGIN
1070
    73
1070
     1
1070
    44
1040
1.0
1070
    74
1070
     0
1000
MTEXTEND
  0
MTEXT
  5
4908
330
19
100
AcDbEntity
  8
0
 62
     4
100
AcDbMText
 10
20.34355074458195
 20
128.3409389523397
 30
0.0
 40
0.125
 41
0.0
 71
     6
 72
     1
  1
\A1;
 73
     1
 44
1.0
1001
ACAD
1000
MTEXTBEGIN
1070
    73
1070
     1
1070
    44
1040
1.0
1070
    74
1070
     0
1000
MTEXTEND
  0
MTEXT
  5
4909
330
19
100
AcDbEntity
  8
0
 62
     4
100
AcDbMText
 10
20.39626994723381
 20
128.0902600276816
 30
0.0
 40
0.125
 41
0.0
 71
     6
 72
     1
  1
\A1;
 73
     1
 44
1.0
1001
ACAD
1000
MTEXTBEGIN
1070
    73
1070
     1
1070
    44
1040
1.0
1070
    74
1070
     0
1000
MTEXTEND
  0
MTEXT
  5
490A
330
19
100
AcDbEntity
  8
0
 62
     4
100
AcDbMText
 10
35.15723860726012
 20
116.7210894579189
 30
0.0
 40
0.125
 41
0.0
 71
     6
 72
     1
  1
\A1;
 73
     1
 44
1.0
1001
ACAD
1000
MTEXTBEGIN
1070
    73
1070
     1
1070
    44
1040
1.0
1070
    74
1070
     0
1000
MTEXTEND
  0
MTEXT
  5
490B
330
19
100
AcDbEntity
  8
0
 62
     4
100
AcDbMText
 10
41.14222796890223
 20
114.770377025369
 30
0.0
 40
0.125
 41
0.0
 71
     4
 72
     1
  1
\A1;
 73
     1
 44
1.0
1001
ACAD
1000
MTEXTBEGIN
1070
    73
1070
     1
1070
    44
1040
1.0
1070
    74
1070
     0
1000
MTEXTEND
  0
MTEXT
  5
490C
330
19
100
AcDbEntity
  8
0
 62
     4
100
AcDbMText
 10
14.47201719906758
 20
109.3283344023467
 30
0.0
 40
0.125
 41
0.0
 71
     4
 72
     1
  1
\A1;
 73
     1
 44
1.0
1001
ACAD
1000
MTEXTBEGIN
1070
    73
1070
     1
1070
    44
1040
1.0
1070
    74
1070
     0
1000
MTEXTEND
  0
MTEXT
  5
490D
330
19
100
AcDbEntity
  8
0
 62
     4
100
AcDbMText
 10
10.53093490861832
 20
105.5742300323244
 30
0.0
 40
0.125
 41
0.0
 71
     6
 72
     1
  1
\A1;
 73
     1
 44
1.0
1001
ACAD
1000
MTEXTBEGIN
1070
    73
1070
     1
1070
    44
1040
1.0
1070
    74
1070
     0
1000
MTEXTEND
  0
MTEXT
  5
490E
330
19
100
AcDbEntity
  8
0
 62
     4
100
AcDbMText
 10
10.84588969826704
 20
106.3247234309596
 30
0.0
 40
0.125
 41
0.0
 71
     6
 72
     1
  1
\A1;
 73
     1
 44
1.0
1001
ACAD
1000
MTEXTBEGIN
1070
    73
1070
     1
1070
    44
1040
1.0
1070
    74
1070
     0
1000
MTEXTEND
  0
MTEXT
  5
490F
330
19
100
AcDbEntity
  8
0
 62
     4
100
AcDbMText
 10
10.41787422456969
 20
106.8734712932285
 30
0.0
 40
0.125
 41
0.0
 71
     6
 72
     1
  1
\A1;
 73
     1
 44
1.0
1001
ACAD
1000
MTEXTBEGIN
1070
    73
1070
     1
1070
    44
1040
1.0
1070
    74
1070
     0
1000
MTEXTEND
  0
MTEXT
  5
4910
330
19
100
AcDbEntity
  8
0
 62
     4
100
AcDbMText
 10
18.88061059224868
 20
108.5291773222932
 30
0.0
 40
0.125
 41
0.0
 71
     6
 72
     1
  1
\A1;
 73
     1
 44
1.0
1001
ACAD
1000
MTEXTBEGIN
1070
    73
1070
     1
1070
    44
1040
1.0
1070
    74
1070
     0
1000
MTEXTEND
  0
MTEXT
  5
4911
330
19
100
AcDbEntity
  8
0
 62
     4
100
AcDbMText
 10
24.7527898750892
 20
106.592125336939
 30
0.0
 40
0.125
 41
0.0
 71
     4
 72
     1
  1
\A1;
 73
     1
 44
1.0
1001
ACAD
1000
MTEXTBEGIN
1070
    73
1070
     1
1070
    44
1040
1.0
1070
    74
1070
     0
1000
MTEXTEND
  0
MTEXT
  5
4912
330
19
100
AcDbEntity
  8
0
 62
     5
100
AcDbMText
 10
14.75769234606912
 20
109.2525168713982
 30
0.0
 40
0.125
 41
0.0
 71
     4
 72
     1
  1
\A1;
 73
     1
 44
1.0
1001
ACAD
1000
MTEXTBEGIN
1070
    73
1070
     1
1070
    44
1040
1.0
1070
    74
1070
     0
1000
MTEXTEND
  0
MTEXT
  5
4913
330
19
100
AcDbEntity
  8
0
 62
     5
100
AcDbMText
 10
10.66933679686548
 20
106.6354408976414
 30
0.0
 40
0.125
 41
0.0
 71
     6
 72
     1
  1
\A1;
 73
     1
 44
1.0
1001
ACAD
1000
MTEXTBEGIN
1070
    73
1070
     1
1070
    44
1040
1.0
1070
    74
1070
     0
1000
MTEXTEND
  0
MTEXT
  5
4914
330
19
100
AcDbEntity
  8
0
 62
     5
100
AcDbMText
 10
10.93631317605874
 20
105.9883575734992
 30
0.0
 40
0.125
 41
0.0
 71
     6
 72
     1
  1
\A1;
 73
     1
 44
1.0
1001
ACAD
1000
MTEXTBEGIN
1070
    73
1070
     1
1070
    44
1040
1.0
1070
    74
1070
     0
1000
MTEXTEND
  0
MTEXT
  5
4915
330
19
100
AcDbEntity
  8
0
 62
     5
100
AcDbMText
 10
10.65882539697852
 20
105.2771073421904
 30
0.0
 40
0.125
 41
0.0
 71
     6
 72
     1
  1
\A1;
 73
     1
 44
1.0
1001
ACAD
1000
MTEXTBEGIN
1070
    73
1070
     1
1070
    44
1040
1.0
1070
    74
1070
     0
1000
MTEXTEND
  0
MTEXT
  5
4916
330
19
100
AcDbEntity
  8
0
 62
     5
100
AcDbMText
 10
10.63014255832961
 20
104.2522312505585
 30
0.0
 40
0.125
 41
0.0
 71
     6
 72
     1
  1
\A1;
 73
     1
 44
1.0
1001
ACAD
1000
MTEXTBEGIN
1070
    73
1070
     1
1070
    44
1040
1.0
1070
    74
1070
     0
1000
MTEXTEND
  0
MTEXT
  5
4917
330
19
100
AcDbEntity
  8
0
 62
     5
100
AcDbMText
 10
18.86759379453949
 20
108.7755512368148
 30
0.0
 40
0.125
 41
0.0
 71
     6
 72
     1
  1
\A1;
 73
     1
 44
1.0
1001
ACAD
1000
MTEXTBEGIN
1070
    73
1070
     1
1070
    44
1040
1.0
1070
    74
1070
     0
1000
MTEXTEND
  0
MTEXT
  5
4918
330
19
100
AcDbEntity
  8
0
 62
     5
100
AcDbMText
 10
24.72295528099259
 20
106.396816256476
 30
0.0
 40
0.125
 41
0.0
 71
     4
 72
     1
  1
\A1;
 73
     1
 44
1.0
1001
ACAD
1000
MTEXTBEGIN
1070
    73
1070
     1
1070
    44
1040
1.0
1070
    74
1070
     0
1000
MTEXTEND
  0
MTEXT
  5
4919
330
19
100
AcDbEntity
  8
0
 62
     5
100
AcDbMText
 10
20.12358983471571
 20
102.5934006913293
 30
0.0
 40
0.125
 41
0.0
 71
     4
 72
     1
  1
\A1;
 73
     1
 44
1.0
1001
ACAD
1000
MTEXTBEGIN
1070
    73
1070
     1
1070
    44
1040
1.0
1070
    74
1070
     0
1000
MTEXTEND
  0
MTEXT
  5
491A
330
19
100
AcDbEntity
  8
0
 62
     4
100
AcDbMText
 10
31.30198167010785
 20
72.02591709472898
 30
0.0
 40
0.125
 41
0.0
 71
     4
 72
     1
  1
\A1;
 73
     1
 44
1.0
1001
ACAD
1000
MTEXTBEGIN
1070
    73
1070
     1
1070
    44
1040
1.0
1070
    74
1070
     0
1000
MTEXTEND
  0
MTEXT
  5
4B43
330
19
100
AcDbEntity
  8
0
 62
     4
100
AcDbMText
 10
53.68167558080161
 20
51.57619261210535
 30
0.0
 40
0.125
 41
0.0
 71
     6
 72
     1
  1
\A1;
 73
     1
 44
1.0
1001
ACAD
1000
MTEXTBEGIN
1070
    73
1070
     1
1070
    44
1040
1.0
1070
    74
1070
     0
1000
MTEXTEND
  0
MTEXT
  5
4F58
330
19
100
AcDbEntity
  8
0
 62
     4
100
AcDbMText
 10
82.60430274885825
 20
53.73075433622965
 30
0.0
 40
0.125
 41
0.0
 71
     4
 72
     1
  1
\A1;
 73
     1
 44
1.0
1001
ACAD
1000
MTEXTBEGIN
1070
    73
1070
     1
1070
    44
1040
1.0
1070
    74
1070
     0
1000
MTEXTEND
  0
MTEXT
  5
4F59
330
19
100
AcDbEntity
  8
0
 62
     4
100
AcDbMText
 10
85.59780742940402
 20
66.73087136401271
 30
0.0
 40
0.125
 41
0.0
 71
     4
 72
     1
  1
\A1;
 73
     1
 44
1.0
1001
ACAD
1000
MTEXTBEGIN
1070
    73
1070
     1
1070
    44
1040
1.0
1070
    74
1070
     0
1000
MTEXTEND
  0
MTEXT
  5
4F5A
330
19
100
AcDbEntity
  8
0
 62
     4
100
AcDbMText
 10
82.59566006195766
 20
54.85139590658841
 30
0.0
 40
0.125
 41
0.0
 71
     4
 72
     1
  1
\A1;
 73
     1
 44
1.0
1001
ACAD
1000
MTEXTBEGIN
1070
    73
1070
     1
1070
    44
1040
1.0
1070
    74
1070
     0
1000
MTEXTEND
  0
MTEXT
  5
4FBA
330
19
100
AcDbEntity
  8
0
 62
     4
100
AcDbMText
 10
108.5174771466286
 20
150.5853645003276
 30
0.0
 40
0.125
 41
0.0
 71
     6
 72
     1
  1
\A1;
 73
     1
 44
1.0
1001
ACAD
1000
MTEXTBEGIN
1070
    73
1070
     1
1070
    44
1040
1.0
1070
    74
1070
     0
1000
MTEXTEND
  0
MTEXT
  5
4FBB
330
19
100
AcDbEntity
  8
0
 62
     4
100
AcDbMText
 10
107.3594100910262
 20
150.9097325752475
 30
0.0
 40
0.125
 41
0.0
 71
     4
 72
     1
  1
\A1;
 73
     1
 44
1.0
1001
ACAD
1000
MTEXTBEGIN
1070
    73
1070
     1
1070
    44
1040
1.0
1070
    74
1070
     0
1000
MTEXTEND
  0
MTEXT
  5
4FBC
330
19
100
AcDbEntity
  8
0
 62
     4
100
AcDbMText
 10
103.2825841326886
 20
148.4518922108432
 30
0.0
 40
0.125
 41
0.0
 71
     6
 72
     1
  1
\A1;
 73
     1
 44
1.0
1001
ACAD
1000
MTEXTBEGIN
1070
    73
1070
     1
1070
    44
1040
1.0
1070
    74
1070
     0
1000
MTEXTEND
  0
MTEXT
  5
4FBD
330
19
100
AcDbEntity
  8
0
 62
     4
100
AcDbMText
 10
103.7866303594338
 20
147.9062439566425
 30
0.0
 40
0.125
 41
0.0
 71
     6
 72
     1
  1
\A1;
 73
     1
 44
1.0
1001
ACAD
1000
MTEXTBEGIN
1070
    73
1070
     1
1070
    44
1040
1.0
1070
    74
1070
     0
1000
MTEXTEND
  0
MTEXT
  5
4FBE
330
19
100
AcDbEntity
  8
0
 62
     4
100
AcDbMText
 10
103.4145373284457
 20
146.662508620948
 30
0.0
 40
0.125
 41
0.0
 71
     6
 72
     1
  1
\A1;
 73
     1
 44
1.0
1001
ACAD
1000
MTEXTBEGIN
1070
    73
1070
     1
1070
    44
1040
1.0
1070
    74
1070
     0
1000
MTEXTEND
  0
MTEXT
  5
4FBF
330
19
100
AcDbEntity
  8
0
 62
     4
100
AcDbMText
 10
103.4672565310976
 20
146.41182969629
 30
0.0
 40
0.125
 41
0.0
 71
     6
 72
     1
  1
\A1;
 73
     1
 44
1.0
1001
ACAD
1000
MTEXTBEGIN
1070
    73
1070
     1
1070
    44
1040
1.0
1070
    74
1070
     0
1000
MTEXTEND
  0
MTEXT
  5
4FC0
330
19
100
AcDbEntity
  8
0
 62
     4
100
AcDbMText
 10
118.2282251911239
 20
135.0426591265272
 30
0.0
 40
0.125
 41
0.0
 71
     6
 72
     1
  1
\A1;
 73
     1
 44
1.0
1001
ACAD
1000
MTEXTBEGIN
1070
    73
1070
     1
1070
    44
1040
1.0
1070
    74
1070
     0
1000
MTEXTEND
  0
MTEXT
  5
4FC1
330
19
100
AcDbEntity
  8
0
 62
     4
100
AcDbMText
 10
124.213214552766
 20
133.0919466939773
 30
0.0
 40
0.125
 41
0.0
 71
     4
 72
     1
  1
\A1;
 73
     1
 44
1.0
1001
ACAD
1000
MTEXTBEGIN
1070
    73
1070
     1
1070
    44
1040
1.0
1070
    74
1070
     0
1000
MTEXTEND
  0
MTEXT
  5
4FC2
330
19
100
AcDbEntity
  8
0
 62
     4
100
AcDbMText
 10
97.54300378293141
 20
127.6499040709551
 30
0.0
 40
0.125
 41
0.0
 71
     4
 72
     1
  1
\A1;
 73
     1
 44
1.0
1001
ACAD
1000
MTEXTBEGIN
1070
    73
1070
     1
1070
    44
1040
1.0
1070
    74
1070
     0
1000
MTEXTEND
  0
MTEXT
  5
4FC3
330
19
100
AcDbEntity
  8
0
 62
     4
100
AcDbMText
 10
93.60192149248213
 20
123.8957997009328
 30
0.0
 40
0.125
 41
0.0
 71
     6
 72
     1
  1
\A1;
 73
     1
 44
1.0
1001
ACAD
1000
MTEXTBEGIN
1070
    73
1070
     1
1070
    44
1040
1.0
1070
    74
1070
     0
1000
MTEXTEND
  0
MTEXT
  5
4FC4
330
19
100
AcDbEntity
  8
0
 62
     4
100
AcDbMText
 10
93.91687628213086
 20
124.646293099568
 30
0.0
 40
0.125
 41
0.0
 71
     6
 72
     1
  1
\A1;
 73
     1
 44
1.0
1001
ACAD
1000
MTEXTBEGIN
1070
    73
1070
     1
1070
    44
1040
1.0
1070
    74
1070
     0
1000
MTEXTEND
  0
MTEXT
  5
4FC5
330
19
100
AcDbEntity
  8
0
 62
     4
100
AcDbMText
 10
93.48886080843351
 20
125.1950409618369
 30
0.0
 40
0.125
 41
0.0
 71
     6
 72
     1
  1
\A1;
 73
     1
 44
1.0
1001
ACAD
1000
MTEXTBEGIN
1070
    73
1070
     1
1070
    44
1040
1.0
1070
    74
1070
     0
1000
MTEXTEND
  0
MTEXT
  5
4FC6
330
19
100
AcDbEntity
  8
0
 62
     4
100
AcDbMText
 10
101.9515971761125
 20
126.8507469909016
 30
0.0
 40
0.125
 41
0.0
 71
     6
 72
     1
  1
\A1;
 73
     1
 44
1.0
1001
ACAD
1000
MTEXTBEGIN
1070
    73
1070
     1
1070
    44
1040
1.0
1070
    74
1070
     0
1000
MTEXTEND
  0
MTEXT
  5
4FC7
330
19
100
AcDbEntity
  8
0
 62
     4
100
AcDbMText
 10
107.823776458953
 20
124.9136950055474
 30
0.0
 40
0.125
 41
0.0
 71
     4
 72
     1
  1
\A1;
 73
     1
 44
1.0
1001
ACAD
1000
MTEXTBEGIN
1070
    73
1070
     1
1070
    44
1040
1.0
1070
    74
1070
     0
1000
MTEXTEND
  0
MTEXT
  5
4FC8
330
19
100
AcDbEntity
  8
0
 62
     5
100
AcDbMText
 10
97.82867892993294
 20
127.5740865400066
 30
0.0
 40
0.125
 41
0.0
 71
     4
 72
     1
  1
\A1;
 73
     1
 44
1.0
1001
ACAD
1000
MTEXTBEGIN
1070
    73
1070
     1
1070
    44
1040
1.0
1070
    74
1070
     0
1000
MTEXTEND
  0
MTEXT
  5
4FC9
330
19
100
AcDbEntity
  8
0
 62
     5
100
AcDbMText
 10
93.74032338072929
 20
124.9570105662497
 30
0.0
 40
0.125
 41
0.0
 71
     6
 72
     1
  1
\A1;
 73
     1
 44
1.0
1001
ACAD
1000
MTEXTBEGIN
1070
    73
1070
     1
1070
    44
1040
1.0
1070
    74
1070
     0
1000
MTEXTEND
  0
MTEXT
  5
4FCA
330
19
100
AcDbEntity
  8
0
 62
     5
100
AcDbMText
 10
94.00729975992256
 20
124.3099272421075
 30
0.0
 40
0.125
 41
0.0
 71
     6
 72
     1
  1
\A1;
 73
     1
 44
1.0
1001
ACAD
1000
MTEXTBEGIN
1070
    73
1070
     1
1070
    44
1040
1.0
1070
    74
1070
     0
1000
MTEXTEND
  0
MTEXT
  5
4FCB
330
19
100
AcDbEntity
  8
0
 62
     5
100
AcDbMText
 10
93.72981198084232
 20
123.5986770107987
 30
0.0
 40
0.125
 41
0.0
 71
     6
 72
     1
  1
\A1;
 73
     1
 44
1.0
1001
ACAD
1000
MTEXTBEGIN
1070
    73
1070
     1
1070
    44
1040
1.0
1070
    74
1070
     0
1000
MTEXTEND
  0
MTEXT
  5
4FCC
330
19
100
AcDbEntity
  8
0
 62
     5
100
AcDbMText
 10
93.70112914219342
 20
122.5738009191668
 30
0.0
 40
0.125
 41
0.0
 71
     6
 72
     1
  1
\A1;
 73
     1
 44
1.0
1001
ACAD
1000
MTEXTBEGIN
1070
    73
1070
     1
1070
    44
1040
1.0
1070
    74
1070
     0
1000
MTEXTEND
  0
MTEXT
  5
4FCD
330
19
100
AcDbEntity
  8
0
 62
     5
100
AcDbMText
 10
101.9385803784033
 20
127.0971209054231
 30
0.0
 40
0.125
 41
0.0
 71
     6
 72
     1
  1
\A1;
 73
     1
 44
1.0
1001
ACAD
1000
MTEXTBEGIN
1070
    73
1070
     1
1070
    44
1040
1.0
1070
    74
1070
     0
1000
MTEXTEND
  0
MTEXT
  5
4FCE
330
19
100
AcDbEntity
  8
0
 62
     5
100
AcDbMText
 10
107.7939418648564
 20
124.7183859250844
 30
0.0
 40
0.125
 41
0.0
 71
     4
 72
     1
  1
\A1;
 73
     1
 44
1.0
1001
ACAD
1000
MTEXTBEGIN
1070
    73
1070
     1
1070
    44
1040
1.0
1070
    74
1070
     0
1000
MTEXTEND
  0
MTEXT
  5
4FCF
330
19
100
AcDbEntity
  8
0
 62
     5
100
AcDbMText
 10
103.1945764185795
 20
120.9149703599377
 30
0.0
 40
0.125
 41
0.0
 71
     4
 72
     1
  1
\A1;
 73
     1
 44
1.0
1001
ACAD
1000
MTEXTBEGIN
1070
    73
1070
     1
1070
    44
1040
1.0
1070
    74
1070
     0
1000
MTEXTEND
  0
MTEXT
  5
4FD0
330
19
100
AcDbEntity
  8
0
 62
     4
100
AcDbMText
 10
114.3729682539716
 20
90.34748676333734
 30
0.0
 40
0.125
 41
0.0
 71
     4
 72
     1
  1
\A1;
 73
     1
 44
1.0
1001
ACAD
1000
MTEXTBEGIN
1070
    73
1070
     1
1070
    44
1040
1.0
1070
    74
1070
     0
1000
MTEXTEND
  0
MTEXT
  5
4FDF
330
19
100
AcDbEntity
  8
0
 62
     4
100
AcDbMText
 10
137.7669651155933
 20
136.485805671284
 30
0.0
 40
0.125
 41
0.0
 71
     6
 72
     1
  1
\A1;
 73
     1
 44
1.0
1001
ACAD
1000
MTEXTBEGIN
1070
    73
1070
     1
1070
    44
1040
1.0
1070
    74
1070
     0
1000
MTEXTEND
  0
MTEXT
  5
4FE0
330
19
100
AcDbEntity
  8
0
 62
     4
100
AcDbMText
 10
136.608898059991
 20
136.8101737462039
 30
0.0
 40
0.125
 41
0.0
 71
     4
 72
     1
  1
\A1;
 73
     1
 44
1.0
1001
ACAD
1000
MTEXTBEGIN
1070
    73
1070
     1
1070
    44
1040
1.0
1070
    74
1070
     0
1000
MTEXTEND
  0
MTEXT
  5
4FE1
330
19
100
AcDbEntity
  8
0
 62
     4
100
AcDbMText
 10
132.5320721016533
 20
134.3523333817996
 30
0.0
 40
0.125
 41
0.0
 71
     6
 72
     1
  1
\A1;
 73
     1
 44
1.0
1001
ACAD
1000
MTEXTBEGIN
1070
    73
1070
     1
1070
    44
1040
1.0
1070
    74
1070
     0
1000
MTEXTEND
  0
MTEXT
  5
4FE2
330
19
100
AcDbEntity
  8
0
 62
     4
100
AcDbMText
 10
133.0361183283986
 20
133.8066851275989
 30
0.0
 40
0.125
 41
0.0
 71
     6
 72
     1
  1
\A1;
 73
     1
 44
1.0
1001
ACAD
1000
MTEXTBEGIN
1070
    73
1070
     1
1070
    44
1040
1.0
1070
    74
1070
     0
1000
MTEXTEND
  0
MTEXT
  5
4FE3
330
19
100
AcDbEntity
  8
0
 62
     4
100
AcDbMText
 10
132.6640252974105
 20
132.5629497919044
 30
0.0
 40
0.125
 41
0.0
 71
     6
 72
     1
  1
\A1;
 73
     1
 44
1.0
1001
ACAD
1000
MTEXTBEGIN
1070
    73
1070
     1
1070
    44
1040
1.0
1070
    74
1070
     0
1000
MTEXTEND
  0
MTEXT
  5
4FE4
330
19
100
AcDbEntity
  8
0
 62
     4
100
AcDbMText
 10
132.7167445000623
 20
132.3122708672464
 30
0.0
 40
0.125
 41
0.0
 71
     6
 72
     1
  1
\A1;
 73
     1
 44
1.0
1001
ACAD
1000
MTEXTBEGIN
1070
    73
1070
     1
1070
    44
1040
1.0
1070
    74
1070
     0
1000
MTEXTEND
  0
MTEXT
  5
4FE5
330
19
100
AcDbEntity
  8
0
 62
     4
100
AcDbMText
 10
147.4777131600886
 20
120.9431002974836
 30
0.0
 40
0.125
 41
0.0
 71
     6
 72
     1
  1
\A1;
 73
     1
 44
1.0
1001
ACAD
1000
MTEXTBEGIN
1070
    73
1070
     1
1070
    44
1040
1.0
1070
    74
1070
     0
1000
MTEXTEND
  0
MTEXT
  5
4FE6
330
19
100
AcDbEntity
  8
0
 62
     4
100
AcDbMText
 10
153.4627025217308
 20
118.9923878649337
 30
0.0
 40
0.125
 41
0.0
 71
     4
 72
     1
  1
\A1;
 73
     1
 44
1.0
1001
ACAD
1000
MTEXTBEGIN
1070
    73
1070
     1
1070
    44
1040
1.0
1070
    74
1070
     0
1000
MTEXTEND
  0
MTEXT
  5
4FE7
330
19
100
AcDbEntity
  8
0
 62
     4
100
AcDbMText
 10
126.7924917518961
 20
113.5503452419115
 30
0.0
 40
0.125
 41
0.0
 71
     4
 72
     1
  1
\A1;
 73
     1
 44
1.0
1001
ACAD
1000
MTEXTBEGIN
1070
    73
1070
     1
1070
    44
1040
1.0
1070
    74
1070
     0
1000
MTEXTEND
  0
MTEXT
  5
4FE8
330
19
100
AcDbEntity
  8
0
 62
     4
100
AcDbMText
 10
122.8514094614469
 20
109.7962408718892
 30
0.0
 40
0.125
 41
0.0
 71
     6
 72
     1
  1
\A1;
 73
     1
 44
1.0
1001
ACAD
1000
MTEXTBEGIN
1070
    73
1070
     1
1070
    44
1040
1.0
1070
    74
1070
     0
1000
MTEXTEND
  0
MTEXT
  5
4FE9
330
19
100
AcDbEntity
  8
0
 62
     4
100
AcDbMText
 10
123.1663642510956
 20
110.5467342705244
 30
0.0
 40
0.125
 41
0.0
 71
     6
 72
     1
  1
\A1;
 73
     1
 44
1.0
1001
ACAD
1000
MTEXTBEGIN
1070
    73
1070
     1
1070
    44
1040
1.0
1070
    74
1070
     0
1000
MTEXTEND
  0
MTEXT
  5
4FEA
330
19
100
AcDbEntity
  8
0
 62
     4
100
AcDbMText
 10
122.7383487773982
 20
111.0954821327933
 30
0.0
 40
0.125
 41
0.0
 71
     6
 72
     1
  1
\A1;
 73
     1
 44
1.0
1001
ACAD
1000
MTEXTBEGIN
1070
    73
1070
     1
1070
    44
1040
1.0
1070
    74
1070
     0
1000
MTEXTEND
  0
MTEXT
  5
4FEB
330
19
100
AcDbEntity
  8
0
 62
     4
100
AcDbMText
 10
131.2010851450772
 20
112.751188161858
 30
0.0
 40
0.125
 41
0.0
 71
     6
 72
     1
  1
\A1;
 73
     1
 44
1.0
1001
ACAD
1000
MTEXTBEGIN
1070
    73
1070
     1
1070
    44
1040
1.0
1070
    74
1070
     0
1000
MTEXTEND
  0
MTEXT
  5
4FEC
330
19
100
AcDbEntity
  8
0
 62
     4
100
AcDbMText
 10
137.0732644279177
 20
110.8141361765038
 30
0.0
 40
0.125
 41
0.0
 71
     4
 72
     1
  1
\A1;
 73
     1
 44
1.0
1001
ACAD
1000
MTEXTBEGIN
1070
    73
1070
     1
1070
    44
1040
1.0
1070
    74
1070
     0
1000
MTEXTEND
  0
MTEXT
  5
4FED
330
19
100
AcDbEntity
  8
0
 62
     5
100
AcDbMText
 10
127.0781668988977
 20
113.474527710963
 30
0.0
 40
0.125
 41
0.0
 71
     4
 72
     1
  1
\A1;
 73
     1
 44
1.0
1001
ACAD
1000
MTEXTBEGIN
1070
    73
1070
     1
1070
    44
1040
1.0
1070
    74
1070
     0
1000
MTEXTEND
  0
MTEXT
  5
4FEE
330
19
100
AcDbEntity
  8
0
 62
     5
100
AcDbMText
 10
122.989811349694
 20
110.8574517372062
 30
0.0
 40
0.125
 41
0.0
 71
     6
 72
     1
  1
\A1;
 73
     1
 44
1.0
1001
ACAD
1000
MTEXTBEGIN
1070
    73
1070
     1
1070
    44
1040
1.0
1070
    74
1070
     0
1000
MTEXTEND
  0
MTEXT
  5
4FEF
330
19
100
AcDbEntity
  8
0
 62
     5
100
AcDbMText
 10
123.2567877288873
 20
110.2103684130639
 30
0.0
 40
0.125
 41
0.0
 71
     6
 72
     1
  1
\A1;
 73
     1
 44
1.0
1001
ACAD
1000
MTEXTBEGIN
1070
    73
1070
     1
1070
    44
1040
1.0
1070
    74
1070
     0
1000
MTEXTEND
  0
MTEXT
  5
4FF0
330
19
100
AcDbEntity
  8
0
 62
     5
100
AcDbMText
 10
122.979299949807
 20
109.4991181817551
 30
0.0
 40
0.125
 41
0.0
 71
     6
 72
     1
  1
\A1;
 73
     1
 44
1.0
1001
ACAD
1000
MTEXTBEGIN
1070
    73
1070
     1
1070
    44
1040
1.0
1070
    74
1070
     0
1000
MTEXTEND
  0
MTEXT
  5
4FF1
330
19
100
AcDbEntity
  8
0
 62
     5
100
AcDbMText
 10
122.9506171111581
 20
108.4742420901233
 30
0.0
 40
0.125
 41
0.0
 71
     6
 72
     1
  1
\A1;
 73
     1
 44
1.0
1001
ACAD
1000
MTEXTBEGIN
1070
    73
1070
     1
1070
    44
1040
1.0
1070
    74
1070
     0
1000
MTEXTEND
  0
MTEXT
  5
4FF2
330
19
100
AcDbEntity
  8
0
 62
     5
100
AcDbMText
 10
131.188068347368
 20
112.9975620763795
 30
0.0
 40
0.125
 41
0.0
 71
     6
 72
     1
  1
\A1;
 73
     1
 44
1.0
1001
ACAD
1000
MTEXTBEGIN
1070
    73
1070
     1
1070
    44
1040
1.0
1070
    74
1070
     0
1000
MTEXTEND
  0
MTEXT
  5
4FF3
330
19
100
AcDbEntity
  8
0
 62
     5
100
AcDbMText
 10
137.0434298338211
 20
110.6188270960408
 30
0.0
 40
0.125
 41
0.0
 71
     4
 72
     1
  1
\A1;
 73
     1
 44
1.0
1001
ACAD
1000
MTEXTBEGIN
1070
    73
1070
     1
1070
    44
1040
1.0
1070
    74
1070
     0
1000
MTEXTEND
  0
MTEXT
  5
4FF4
330
19
100
AcDbEntity
  8
0
 62
     5
100
AcDbMText
 10
132.4440643875442
 20
106.8154115308941
 30
0.0
 40
0.125
 41
0.0
 71
     4
 72
     1
  1
\A1;
 73
     1
 44
1.0
1001
ACAD
1000
MTEXTBEGIN
1070
    73
1070
     1
1070
    44
1040
1.0
1070
    74
1070
     0
1000
MTEXTEND
  0
MTEXT
  5
4FF5
330
19
100
AcDbEntity
  8
0
 62
     4
100
AcDbMText
 10
143.6224562229364
 20
76.24792793429374
 30
0.0
 40
0.125
 41
0.0
 71
     4
 72
     1
  1
\A1;
 73
     1
 44
1.0
1001
ACAD
1000
MTEXTBEGIN
1070
    73
1070
     1
1070
    44
1040
1.0
1070
    74
1070
     0
1000
MTEXTEND
  0
MTEXT
  5
4FF6
330
19
100
AcDbEntity
  8
0
 62
     4
100
AcDbMText
 10
121.2434665594347
 20
137.0354909835912
 30
0.0
 40
0.125
 41
0.0
 71
     6
 72
     1
  1
\A1;
 73
     1
 44
1.0
1001
ACAD
1000
MTEXTBEGIN
1070
    73
1070
     1
1070
    44
1040
1.0
1070
    74
1070
     0
1000
MTEXTEND
  0
MTEXT
  5
4FF7
330
19
100
AcDbEntity
  8
0
 62
     4
100
AcDbMText
 10
120.0853995038323
 20
137.359859058511
 30
0.0
 40
0.125
 41
0.0
 71
     4
 72
     1
  1
\A1;
 73
     1
 44
1.0
1001
ACAD
1000
MTEXTBEGIN
1070
    73
1070
     1
1070
    44
1040
1.0
1070
    74
1070
     0
1000
MTEXTEND
  0
MTEXT
  5
4FF8
330
19
100
AcDbEntity
  8
0
 62
     4
100
AcDbMText
 10
116.0085735454947
 20
134.9020186941068
 30
0.0
 40
0.125
 41
0.0
 71
     6
 72
     1
  1
\A1;
 73
     1
 44
1.0
1001
ACAD
1000
MTEXTBEGIN
1070
    73
1070
     1
1070
    44
1040
1.0
1070
    74
1070
     0
1000
MTEXTEND
  0
MTEXT
  5
4FF9
330
19
100
AcDbEntity
  8
0
 62
     4
100
AcDbMText
 10
116.51261977224
 20
134.3563704399061
 30
0.0
 40
0.125
 41
0.0
 71
     6
 72
     1
  1
\A1;
 73
     1
 44
1.0
1001
ACAD
1000
MTEXTBEGIN
1070
    73
1070
     1
1070
    44
1040
1.0
1070
    74
1070
     0
1000
MTEXTEND
  0
MTEXT
  5
4FFA
330
19
100
AcDbEntity
  8
0
 62
     4
100
AcDbMText
 10
116.1405267412518
 20
133.1126351042116
 30
0.0
 40
0.125
 41
0.0
 71
     6
 72
     1
  1
\A1;
 73
     1
 44
1.0
1001
ACAD
1000
MTEXTBEGIN
1070
    73
1070
     1
1070
    44
1040
1.0
1070
    74
1070
     0
1000
MTEXTEND
  0
MTEXT
  5
4FFB
330
19
100
AcDbEntity
  8
0
 62
     4
100
AcDbMText
 10
116.1932459439037
 20
132.8619561795536
 30
0.0
 40
0.125
 41
0.0
 71
     6
 72
     1
  1
\A1;
 73
     1
 44
1.0
1001
ACAD
1000
MTEXTBEGIN
1070
    73
1070
     1
1070
    44
1040
1.0
1070
    74
1070
     0
1000
MTEXTEND
  0
MTEXT
  5
4FFC
330
19
100
AcDbEntity
  8
0
 62
     4
100
AcDbMText
 10
130.95421460393
 20
121.4927856097908
 30
0.0
 40
0.125
 41
0.0
 71
     6
 72
     1
  1
\A1;
 73
     1
 44
1.0
1001
ACAD
1000
MTEXTBEGIN
1070
    73
1070
     1
1070
    44
1040
1.0
1070
    74
1070
     0
1000
MTEXTEND
  0
MTEXT
  5
4FFD
330
19
100
AcDbEntity
  8
0
 62
     4
100
AcDbMText
 10
136.9392039655721
 20
119.5420731772409
 30
0.0
 40
0.125
 41
0.0
 71
     4
 72
     1
  1
\A1;
 73
     1
 44
1.0
1001
ACAD
1000
MTEXTBEGIN
1070
    73
1070
     1
1070
    44
1040
1.0
1070
    74
1070
     0
1000
MTEXTEND
  0
MTEXT
  5
4FFE
330
19
100
AcDbEntity
  8
0
 62
     4
100
AcDbMText
 10
110.2689931957375
 20
114.1000305542187
 30
0.0
 40
0.125
 41
0.0
 71
     4
 72
     1
  1
\A1;
 73
     1
 44
1.0
1001
ACAD
1000
MTEXTBEGIN
1070
    73
1070
     1
1070
    44
1040
1.0
1070
    74
1070
     0
1000
MTEXTEND
  0
MTEXT
  5
4FFF
330
19
100
AcDbEntity
  8
0
 62
     4
100
AcDbMText
 10
106.3279109052882
 20
110.3459261841964
 30
0.0
 40
0.125
 41
0.0
 71
     6
 72
     1
  1
\A1;
 73
     1
 44
1.0
1001
ACAD
1000
MTEXTBEGIN
1070
    73
1070
     1
1070
    44
1040
1.0
1070
    74
1070
     0
1000
MTEXTEND
  0
MTEXT
  5
5000
330
19
100
AcDbEntity
  8
0
 62
     4
100
AcDbMText
 10
106.6428656949369
 20
111.0964195828315
 30
0.0
 40
0.125
 41
0.0
 71
     6
 72
     1
  1
\A1;
 73
     1
 44
1.0
1001
ACAD
1000
MTEXTBEGIN
1070
    73
1070
     1
1070
    44
1040
1.0
1070
    74
1070
     0
1000
MTEXTEND
  0
MTEXT
  5
5001
330
19
100
AcDbEntity
  8
0
 62
     4
100
AcDbMText
 10
106.2148502212396
 20
111.6451674451005
 30
0.0
 40
0.125
 41
0.0
 71
     6
 72
     1
  1
\A1;
 73
     1
 44
1.0
1001
ACAD
1000
MTEXTBEGIN
1070
    73
1070
     1
1070
    44
1040
1.0
1070
    74
1070
     0
1000
MTEXTEND
  0
MTEXT
  5
5002
330
19
100
AcDbEntity
  8
0
 62
     4
100
AcDbMText
 10
114.6775865889186
 20
113.3008734741652
 30
0.0
 40
0.125
 41
0.0
 71
     6
 72
     1
  1
\A1;
 73
     1
 44
1.0
1001
ACAD
1000
MTEXTBEGIN
1070
    73
1070
     1
1070
    44
1040
1.0
1070
    74
1070
     0
1000
MTEXTEND
  0
MTEXT
  5
5003
330
19
100
AcDbEntity
  8
0
 62
     4
100
AcDbMText
 10
120.5497658717591
 20
111.363821488811
 30
0.0
 40
0.125
 41
0.0
 71
     4
 72
     1
  1
\A1;
 73
     1
 44
1.0
1001
ACAD
1000
MTEXTBEGIN
1070
    73
1070
     1
1070
    44
1040
1.0
1070
    74
1070
     0
1000
MTEXTEND
  0
MTEXT
  5
5004
330
19
100
AcDbEntity
  8
0
 62
     5
100
AcDbMText
 10
110.554668342739
 20
114.0242130232701
 30
0.0
 40
0.125
 41
0.0
 71
     4
 72
     1
  1
\A1;
 73
     1
 44
1.0
1001
ACAD
1000
MTEXTBEGIN
1070
    73
1070
     1
1070
    44
1040
1.0
1070
    74
1070
     0
1000
MTEXTEND
  0
MTEXT
  5
5005
330
19
100
AcDbEntity
  8
0
 62
     5
100
AcDbMText
 10
106.4663127935354
 20
111.4071370495133
 30
0.0
 40
0.125
 41
0.0
 71
     6
 72
     1
  1
\A1;
 73
     1
 44
1.0
1001
ACAD
1000
MTEXTBEGIN
1070
    73
1070
     1
1070
    44
1040
1.0
1070
    74
1070
     0
1000
MTEXTEND
  0
MTEXT
  5
5006
330
19
100
AcDbEntity
  8
0
 62
     5
100
AcDbMText
 10
106.7332891727286
 20
110.7600537253711
 30
0.0
 40
0.125
 41
0.0
 71
     6
 72
     1
  1
\A1;
 73
     1
 44
1.0
1001
ACAD
1000
MTEXTBEGIN
1070
    73
1070
     1
1070
    44
1040
1.0
1070
    74
1070
     0
1000
MTEXTEND
  0
MTEXT
  5
5007
330
19
100
AcDbEntity
  8
0
 62
     5
100
AcDbMText
 10
106.4558013936484
 20
110.0488034940623
 30
0.0
 40
0.125
 41
0.0
 71
     6
 72
     1
  1
\A1;
 73
     1
 44
1.0
1001
ACAD
1000
MTEXTBEGIN
1070
    73
1070
     1
1070
    44
1040
1.0
1070
    74
1070
     0
1000
MTEXTEND
  0
MTEXT
  5
5008
330
19
100
AcDbEntity
  8
0
 62
     5
100
AcDbMText
 10
106.4271185549995
 20
109.0239274024304
 30
0.0
 40
0.125
 41
0.0
 71
     6
 72
     1
  1
\A1;
 73
     1
 44
1.0
1001
ACAD
1000
MTEXTBEGIN
1070
    73
1070
     1
1070
    44
1040
1.0
1070
    74
1070
     0
1000
MTEXTEND
  0
MTEXT
  5
5009
330
19
100
AcDbEntity
  8
0
 62
     5
100
AcDbMText
 10
114.6645697912094
 20
113.5472473886867
 30
0.0
 40
0.125
 41
0.0
 71
     6
 72
     1
  1
\A1;
 73
     1
 44
1.0
1001
ACAD
1000
MTEXTBEGIN
1070
    73
1070
     1
1070
    44
1040
1.0
1070
    74
1070
     0
1000
MTEXTEND
  0
MTEXT
  5
500A
330
19
100
AcDbEntity
  8
0
 62
     5
100
AcDbMText
 10
120.5199312776625
 20
111.1685124083479
 30
0.0
 40
0.125
 41
0.0
 71
     4
 72
     1
  1
\A1;
 73
     1
 44
1.0
1001
ACAD
1000
MTEXTBEGIN
1070
    73
1070
     1
1070
    44
1040
1.0
1070
    74
1070
     0
1000
MTEXTEND
  0
MTEXT
  5
500B
330
19
100
AcDbEntity
  8
0
 62
     5
100
AcDbMText
 10
115.9205658313856
 20
107.3650968432013
 30
0.0
 40
0.125
 41
0.0
 71
     4
 72
     1
  1
\A1;
 73
     1
 44
1.0
1001
ACAD
1000
MTEXTBEGIN
1070
    73
1070
     1
1070
    44
1040
1.0
1070
    74
1070
     0
1000
MTEXTEND
  0
MTEXT
  5
500C
330
19
100
AcDbEntity
  8
0
 62
     4
100
AcDbMText
 10
127.0989576667777
 20
76.79761324660091
 30
0.0
 40
0.125
 41
0.0
 71
     4
 72
     1
  1
\A1;
 73
     1
 44
1.0
1001
ACAD
1000
MTEXTBEGIN
1070
    73
1070
     1
1070
    44
1040
1.0
1070
    74
1070
     0
1000
MTEXTEND
  0
MTEXT
  5
506D
330
19
100
AcDbEntity
  8
0
 62
     4
100
AcDbMText
 10
131.1955589662698
 20
166.1522604668243
 30
0.0
 40
0.125
 41
0.0
 71
     6
 72
     1
  1
\A1;
 73
     1
 44
1.0
1001
ACAD
1000
MTEXTBEGIN
1070
    73
1070
     1
1070
    44
1040
1.0
1070
    74
1070
     0
1000
MTEXTEND
  0
MTEXT
  5
506E
330
19
100
AcDbEntity
  8
0
 62
     4
100
AcDbMText
 10
130.0374919106674
 20
166.4766285417442
 30
0.0
 40
0.125
 41
0.0
 71
     4
 72
     1
  1
\A1;
 73
     1
 44
1.0
1001
ACAD
1000
MTEXTBEGIN
1070
    73
1070
     1
1070
    44
1040
1.0
1070
    74
1070
     0
1000
MTEXTEND
  0
MTEXT
  5
506F
330
19
100
AcDbEntity
  8
0
 62
     4
100
AcDbMText
 10
125.9606659523298
 20
164.0187881773399
 30
0.0
 40
0.125
 41
0.0
 71
     6
 72
     1
  1
\A1;
 73
     1
 44
1.0
1001
ACAD
1000
MTEXTBEGIN
1070
    73
1070
     1
1070
    44
1040
1.0
1070
    74
1070
     0
1000
MTEXTEND
  0
MTEXT
  5
5070
330
19
100
AcDbEntity
  8
0
 62
     4
100
AcDbMText
 10
126.4647121790751
 20
163.4731399231393
 30
0.0
 40
0.125
 41
0.0
 71
     6
 72
     1
  1
\A1;
 73
     1
 44
1.0
1001
ACAD
1000
MTEXTBEGIN
1070
    73
1070
     1
1070
    44
1040
1.0
1070
    74
1070
     0
1000
MTEXTEND
  0
MTEXT
  5
5071
330
19
100
AcDbEntity
  8
0
 62
     4
100
AcDbMText
 10
126.092619148087
 20
162.2294045874447
 30
0.0
 40
0.125
 41
0.0
 71
     6
 72
     1
  1
\A1;
 73
     1
 44
1.0
1001
ACAD
1000
MTEXTBEGIN
1070
    73
1070
     1
1070
    44
1040
1.0
1070
    74
1070
     0
1000
MTEXTEND
  0
MTEXT
  5
5072
330
19
100
AcDbEntity
  8
0
 62
     4
100
AcDbMText
 10
126.1453383507388
 20
161.9787256627867
 30
0.0
 40
0.125
 41
0.0
 71
     6
 72
     1
  1
\A1;
 73
     1
 44
1.0
1001
ACAD
1000
MTEXTBEGIN
1070
    73
1070
     1
1070
    44
1040
1.0
1070
    74
1070
     0
1000
MTEXTEND
  0
MTEXT
  5
5073
330
19
100
AcDbEntity
  8
0
 62
     4
100
AcDbMText
 10
140.9063070107651
 20
150.6095550930239
 30
0.0
 40
0.125
 41
0.0
 71
     6
 72
     1
  1
\A1;
 73
     1
 44
1.0
1001
ACAD
1000
MTEXTBEGIN
1070
    73
1070
     1
1070
    44
1040
1.0
1070
    74
1070
     0
1000
MTEXTEND
  0
MTEXT
  5
5074
330
19
100
AcDbEntity
  8
0
 62
     4
100
AcDbMText
 10
146.8912963724072
 20
148.658842660474
 30
0.0
 40
0.125
 41
0.0
 71
     4
 72
     1
  1
\A1;
 73
     1
 44
1.0
1001
ACAD
1000
MTEXTBEGIN
1070
    73
1070
     1
1070
    44
1040
1.0
1070
    74
1070
     0
1000
MTEXTEND
  0
MTEXT
  5
5075
330
19
100
AcDbEntity
  8
0
 62
     4
100
AcDbMText
 10
120.2210856025726
 20
143.2168000374518
 30
0.0
 40
0.125
 41
0.0
 71
     4
 72
     1
  1
\A1;
 73
     1
 44
1.0
1001
ACAD
1000
MTEXTBEGIN
1070
    73
1070
     1
1070
    44
1040
1.0
1070
    74
1070
     0
1000
MTEXTEND
  0
MTEXT
  5
5076
330
19
100
AcDbEntity
  8
0
 62
     4
100
AcDbMText
 10
116.2800033121233
 20
139.4626956674295
 30
0.0
 40
0.125
 41
0.0
 71
     6
 72
     1
  1
\A1;
 73
     1
 44
1.0
1001
ACAD
1000
MTEXTBEGIN
1070
    73
1070
     1
1070
    44
1040
1.0
1070
    74
1070
     0
1000
MTEXTEND
  0
MTEXT
  5
5077
330
19
100
AcDbEntity
  8
0
 62
     4
100
AcDbMText
 10
116.594958101772
 20
140.2131890660647
 30
0.0
 40
0.125
 41
0.0
 71
     6
 72
     1
  1
\A1;
 73
     1
 44
1.0
1001
ACAD
1000
MTEXTBEGIN
1070
    73
1070
     1
1070
    44
1040
1.0
1070
    74
1070
     0
1000
MTEXTEND
  0
MTEXT
  5
5078
330
19
100
AcDbEntity
  8
0
 62
     4
100
AcDbMText
 10
116.1669426280747
 20
140.7619369283336
 30
0.0
 40
0.125
 41
0.0
 71
     6
 72
     1
  1
\A1;
 73
     1
 44
1.0
1001
ACAD
1000
MTEXTBEGIN
1070
    73
1070
     1
1070
    44
1040
1.0
1070
    74
1070
     0
1000
MTEXTEND
  0
MTEXT
  5
5079
330
19
100
AcDbEntity
  8
0
 62
     4
100
AcDbMText
 10
124.6296789957537
 20
142.4176429573983
 30
0.0
 40
0.125
 41
0.0
 71
     6
 72
     1
  1
\A1;
 73
     1
 44
1.0
1001
ACAD
1000
MTEXTBEGIN
1070
    73
1070
     1
1070
    44
1040
1.0
1070
    74
1070
     0
1000
MTEXTEND
  0
MTEXT
  5
507A
330
19
100
AcDbEntity
  8
0
 62
     4
100
AcDbMText
 10
130.5018582785942
 20
140.4805909720441
 30
0.0
 40
0.125
 41
0.0
 71
     4
 72
     1
  1
\A1;
 73
     1
 44
1.0
1001
ACAD
1000
MTEXTBEGIN
1070
    73
1070
     1
1070
    44
1040
1.0
1070
    74
1070
     0
1000
MTEXTEND
  0
MTEXT
  5
507B
330
19
100
AcDbEntity
  8
0
 62
     5
100
AcDbMText
 10
120.5067607495741
 20
143.1409825065032
 30
0.0
 40
0.125
 41
0.0
 71
     4
 72
     1
  1
\A1;
 73
     1
 44
1.0
1001
ACAD
1000
MTEXTBEGIN
1070
    73
1070
     1
1070
    44
1040
1.0
1070
    74
1070
     0
1000
MTEXTEND
  0
MTEXT
  5
507C
330
19
100
AcDbEntity
  8
0
 62
     5
100
AcDbMText
 10
116.4184052003705
 20
140.5239065327464
 30
0.0
 40
0.125
 41
0.0
 71
     6
 72
     1
  1
\A1;
 73
     1
 44
1.0
1001
ACAD
1000
MTEXTBEGIN
1070
    73
1070
     1
1070
    44
1040
1.0
1070
    74
1070
     0
1000
MTEXTEND
  0
MTEXT
  5
507D
330
19
100
AcDbEntity
  8
0
 62
     5
100
AcDbMText
 10
116.6853815795638
 20
139.8768232086042
 30
0.0
 40
0.125
 41
0.0
 71
     6
 72
     1
  1
\A1;
 73
     1
 44
1.0
1001
ACAD
1000
MTEXTBEGIN
1070
    73
1070
     1
1070
    44
1040
1.0
1070
    74
1070
     0
1000
MTEXTEND
  0
MTEXT
  5
507E
330
19
100
AcDbEntity
  8
0
 62
     5
100
AcDbMText
 10
116.4078938004835
 20
139.1655729772954
 30
0.0
 40
0.125
 41
0.0
 71
     6
 72
     1
  1
\A1;
 73
     1
 44
1.0
1001
ACAD
1000
MTEXTBEGIN
1070
    73
1070
     1
1070
    44
1040
1.0
1070
    74
1070
     0
1000
MTEXTEND
  0
MTEXT
  5
507F
330
19
100
AcDbEntity
  8
0
 62
     5
100
AcDbMText
 10
116.3792109618346
 20
138.1406968856635
 30
0.0
 40
0.125
 41
0.0
 71
     6
 72
     1
  1
\A1;
 73
     1
 44
1.0
1001
ACAD
1000
MTEXTBEGIN
1070
    73
1070
     1
1070
    44
1040
1.0
1070
    74
1070
     0
1000
MTEXTEND
  0
MTEXT
  5
5080
330
19
100
AcDbEntity
  8
0
 62
     5
100
AcDbMText
 10
124.6166621980445
 20
142.6640168719198
 30
0.0
 40
0.125
 41
0.0
 71
     6
 72
     1
  1
\A1;
 73
     1
 44
1.0
1001
ACAD
1000
MTEXTBEGIN
1070
    73
1070
     1
1070
    44
1040
1.0
1070
    74
1070
     0
1000
MTEXTEND
  0
MTEXT
  5
5081
330
19
100
AcDbEntity
  8
0
 62
     5
100
AcDbMText
 10
130.4720236844976
 20
140.285281891581
 30
0.0
 40
0.125
 41
0.0
 71
     4
 72
     1
  1
\A1;
 73
     1
 44
1.0
1001
ACAD
1000
MTEXTBEGIN
1070
    73
1070
     1
1070
    44
1040
1.0
1070
    74
1070
     0
1000
MTEXTEND
  0
MTEXT
  5
5082
330
19
100
AcDbEntity
  8
0
 62
     5
100
AcDbMText
 10
125.8726582382207
 20
136.4818663264344
 30
0.0
 40
0.125
 41
0.0
 71
     4
 72
     1
  1
\A1;
 73
     1
 44
1.0
1001
ACAD
1000
MTEXTBEGIN
1070
    73
1070
     1
1070
    44
1040
1.0
1070
    74
1070
     0
1000
MTEXTEND
  0
MTEXT
  5
5083
330
19
100
AcDbEntity
  8
0
 62
     4
100
AcDbMText
 10
137.0510500736129
 20
105.914382729834
 30
0.0
 40
0.125
 41
0.0
 71
     4
 72
     1
  1
\A1;
 73
     1
 44
1.0
1001
ACAD
1000
MTEXTBEGIN
1070
    73
1070
     1
1070
    44
1040
1.0
1070
    74
1070
     0
1000
MTEXTEND
  0
DIMENSION
  5
524B
330
19
100
AcDbEntity
  8
0
100
AcDbDimension
  2
*D2
 10
79.68990190754559
 20
51.27605529769037
 30
0.0
 11
79.68990190754557
 21
52.09105529769038
 31
0.0
 70
    32
 71
     5
 42
1.630000000000002
  3
STANDARD_WS
100
AcDbAlignedDimension
 13
77.91872900505122
 23
52.90605529769037
 33
0.0
 14
78.26559783595941
 24
51.27605529769037
 34
0.0
 50
90.0
100
AcDbRotatedDimension
  0
MTEXT
  5
52D2
330
19
100
AcDbEntity
  8
0
 62
     4
100
AcDbMText
 10
10.70837548378358
 20
24.90629105899165
 30
0.0
 40
0.125
 41
0.0
 71
     4
 72
     1
  1
\A1;
 73
     1
 44
1.0
1001
ACAD
1000
MTEXTBEGIN
1070
    73
1070
     1
1070
    44
1040
1.0
1070
    74
1070
     0
1000
MTEXTEND
  0
MTEXT
  5
52D3
330
19
100
AcDbEntity
  8
0
 62
     4
100
AcDbMText
 10
13.70188016432936
 20
37.90640808677471
 30
0.0
 40
0.125
 41
0.0
 71
     4
 72
     1
  1
\A1;
 73
     1
 44
1.0
1001
ACAD
1000
MTEXTBEGIN
1070
    73
1070
     1
1070
    44
1040
1.0
1070
    74
1070
     0
1000
MTEXTEND
  0
MTEXT
  5
52D4
330
19
100
AcDbEntity
  8
0
 62
     4
100
AcDbMText
 10
10.699732796883
 20
26.02693262935041
 30
0.0
 40
0.125
 41
0.0
 71
     4
 72
     1
  1
\A1;
 73
     1
 44
1.0
1001
ACAD
1000
MTEXTBEGIN
1070
    73
1070
     1
1070
    44
1040
1.0
1070
    74
1070
     0
1000
MTEXTEND
  0
MTEXT
  5
52D5
330
19
100
AcDbEntity
  8
0
 62
     4
100
AcDbMText
 10
36.62154988155396
 20
121.7609012230896
 30
0.0
 40
0.125
 41
0.0
 71
     6
 72
     1
  1
\A1;
 73
     1
 44
1.0
1001
ACAD
1000
MTEXTBEGIN
1070
    73
1070
     1
1070
    44
1040
1.0
1070
    74
1070
     0
1000
MTEXTEND
  0
MTEXT
  5
52D6
330
19
100
AcDbEntity
  8
0
 62
     4
100
AcDbMText
 10
35.46348282595158
 20
122.0852692980095
 30
0.0
 40
0.125
 41
0.0
 71
     4
 72
     1
  1
\A1;
 73
     1
 44
1.0
1001
ACAD
1000
MTEXTBEGIN
1070
    73
1070
     1
1070
    44
1040
1.0
1070
    74
1070
     0
1000
MTEXTEND
  0
MTEXT
  5
52D7
330
19
100
AcDbEntity
  8
0
 62
     4
100
AcDbMText
 10
31.38665686761394
 20
119.6274289336052
 30
0.0
 40
0.125
 41
0.0
 71
     6
 72
     1
  1
\A1;
 73
     1
 44
1.0
1001
ACAD
1000
MTEXTBEGIN
1070
    73
1070
     1
1070
    44
1040
1.0
1070
    74
1070
     0
1000
MTEXTEND
  0
MTEXT
  5
52D8
330
19
100
AcDbEntity
  8
0
 62
     4
100
AcDbMText
 10
31.89070309435924
 20
119.0817806794046
 30
0.0
 40
0.125
 41
0.0
 71
     6
 72
     1
  1
\A1;
 73
     1
 44
1.0
1001
ACAD
1000
MTEXTBEGIN
1070
    73
1070
     1
1070
    44
1040
1.0
1070
    74
1070
     0
1000
MTEXTEND
  0
MTEXT
  5
52D9
330
19
100
AcDbEntity
  8
0
 62
     4
100
AcDbMText
 10
31.5186100633711
 20
117.83804534371
 30
0.0
 40
0.125
 41
0.0
 71
     6
 72
     1
  1
\A1;
 73
     1
 44
1.0
1001
ACAD
1000
MTEXTBEGIN
1070
    73
1070
     1
1070
    44
1040
1.0
1070
    74
1070
     0
1000
MTEXTEND
  0
MTEXT
  5
52DA
330
19
100
AcDbEntity
  8
0
 62
     4
100
AcDbMText
 10
31.57132926602296
 20
117.587366419052
 30
0.0
 40
0.125
 41
0.0
 71
     6
 72
     1
  1
\A1;
 73
     1
 44
1.0
1001
ACAD
1000
MTEXTBEGIN
1070
    73
1070
     1
1070
    44
1040
1.0
1070
    74
1070
     0
1000
MTEXTEND
  0
MTEXT
  5
52DB
330
19
100
AcDbEntity
  8
0
 62
     4
100
AcDbMText
 10
46.33229792604927
 20
106.2181958492892
 30
0.0
 40
0.125
 41
0.0
 71
     6
 72
     1
  1
\A1;
 73
     1
 44
1.0
1001
ACAD
1000
MTEXTBEGIN
1070
    73
1070
     1
1070
    44
1040
1.0
1070
    74
1070
     0
1000
MTEXTEND
  0
MTEXT
  5
52DC
330
19
100
AcDbEntity
  8
0
 62
     4
100
AcDbMText
 10
52.31728728769138
 20
104.2674834167393
 30
0.0
 40
0.125
 41
0.0
 71
     4
 72
     1
  1
\A1;
 73
     1
 44
1.0
1001
ACAD
1000
MTEXTBEGIN
1070
    73
1070
     1
1070
    44
1040
1.0
1070
    74
1070
     0
1000
MTEXTEND
  0
MTEXT
  5
52DD
330
19
100
AcDbEntity
  8
0
 62
     4
100
AcDbMText
 10
25.64707651785674
 20
98.82544079371715
 30
0.0
 40
0.125
 41
0.0
 71
     4
 72
     1
  1
\A1;
 73
     1
 44
1.0
1001
ACAD
1000
MTEXTBEGIN
1070
    73
1070
     1
1070
    44
1040
1.0
1070
    74
1070
     0
1000
MTEXTEND
  0
MTEXT
  5
52DE
330
19
100
AcDbEntity
  8
0
 62
     4
100
AcDbMText
 10
21.70599422740747
 20
95.07133642369485
 30
0.0
 40
0.125
 41
0.0
 71
     6
 72
     1
  1
\A1;
 73
     1
 44
1.0
1001
ACAD
1000
MTEXTBEGIN
1070
    73
1070
     1
1070
    44
1040
1.0
1070
    74
1070
     0
1000
MTEXTEND
  0
MTEXT
  5
52DF
330
19
100
AcDbEntity
  8
0
 62
     4
100
AcDbMText
 10
22.02094901705619
 20
95.82182982233002
 30
0.0
 40
0.125
 41
0.0
 71
     6
 72
     1
  1
\A1;
 73
     1
 44
1.0
1001
ACAD
1000
MTEXTBEGIN
1070
    73
1070
     1
1070
    44
1040
1.0
1070
    74
1070
     0
1000
MTEXTEND
  0
MTEXT
  5
52E0
330
19
100
AcDbEntity
  8
0
 62
     4
100
AcDbMText
 10
21.59293354335884
 20
96.37057768459897
 30
0.0
 40
0.125
 41
0.0
 71
     6
 72
     1
  1
\A1;
 73
     1
 44
1.0
1001
ACAD
1000
MTEXTBEGIN
1070
    73
1070
     1
1070
    44
1040
1.0
1070
    74
1070
     0
1000
MTEXTEND
  0
MTEXT
  5
52E1
330
19
100
AcDbEntity
  8
0
 62
     4
100
AcDbMText
 10
30.05566991103783
 20
98.02628371366365
 30
0.0
 40
0.125
 41
0.0
 71
     6
 72
     1
  1
\A1;
 73
     1
 44
1.0
1001
ACAD
1000
MTEXTBEGIN
1070
    73
1070
     1
1070
    44
1040
1.0
1070
    74
1070
     0
1000
MTEXTEND
  0
MTEXT
  5
52E2
330
19
100
AcDbEntity
  8
0
 62
     4
100
AcDbMText
 10
35.92784919387836
 20
96.08923172830943
 30
0.0
 40
0.125
 41
0.0
 71
     4
 72
     1
  1
\A1;
 73
     1
 44
1.0
1001
ACAD
1000
MTEXTBEGIN
1070
    73
1070
     1
1070
    44
1040
1.0
1070
    74
1070
     0
1000
MTEXTEND
  0
MTEXT
  5
52E3
330
19
100
AcDbEntity
  8
0
 62
     5
100
AcDbMText
 10
25.93275166485827
 20
98.74962326276863
 30
0.0
 40
0.125
 41
0.0
 71
     4
 72
     1
  1
\A1;
 73
     1
 44
1.0
1001
ACAD
1000
MTEXTBEGIN
1070
    73
1070
     1
1070
    44
1040
1.0
1070
    74
1070
     0
1000
MTEXTEND
  0
MTEXT
  5
52E4
330
19
100
AcDbEntity
  8
0
 62
     5
100
AcDbMText
 10
21.84439611565463
 20
96.1325472890118
 30
0.0
 40
0.125
 41
0.0
 71
     6
 72
     1
  1
\A1;
 73
     1
 44
1.0
1001
ACAD
1000
MTEXTBEGIN
1070
    73
1070
     1
1070
    44
1040
1.0
1070
    74
1070
     0
1000
MTEXTEND
  0
MTEXT
  5
52E5
330
19
100
AcDbEntity
  8
0
 62
     5
100
AcDbMText
 10
22.1113724948479
 20
95.4854639648696
 30
0.0
 40
0.125
 41
0.0
 71
     6
 72
     1
  1
\A1;
 73
     1
 44
1.0
1001
ACAD
1000
MTEXTBEGIN
1070
    73
1070
     1
1070
    44
1040
1.0
1070
    74
1070
     0
1000
MTEXTEND
  0
MTEXT
  5
52E6
330
19
100
AcDbEntity
  8
0
 62
     5
100
AcDbMText
 10
21.83388471576767
 20
94.77421373356078
 30
0.0
 40
0.125
 41
0.0
 71
     6
 72
     1
  1
\A1;
 73
     1
 44
1.0
1001
ACAD
1000
MTEXTBEGIN
1070
    73
1070
     1
1070
    44
1040
1.0
1070
    74
1070
     0
1000
MTEXTEND
  0
MTEXT
  5
52E7
330
19
100
AcDbEntity
  8
0
 62
     5
100
AcDbMText
 10
21.80520187711877
 20
93.7493376419289
 30
0.0
 40
0.125
 41
0.0
 71
     6
 72
     1
  1
\A1;
 73
     1
 44
1.0
1001
ACAD
1000
MTEXTBEGIN
1070
    73
1070
     1
1070
    44
1040
1.0
1070
    74
1070
     0
1000
MTEXTEND
  0
MTEXT
  5
52E8
330
19
100
AcDbEntity
  8
0
 62
     5
100
AcDbMText
 10
30.04265311332865
 20
98.2726576281852
 30
0.0
 40
0.125
 41
0.0
 71
     6
 72
     1
  1
\A1;
 73
     1
 44
1.0
1001
ACAD
1000
MTEXTBEGIN
1070
    73
1070
     1
1070
    44
1040
1.0
1070
    74
1070
     0
1000
MTEXTEND
  0
MTEXT
  5
52E9
330
19
100
AcDbEntity
  8
0
 62
     5
100
AcDbMText
 10
35.89801459978174
 20
95.8939226478464
 30
0.0
 40
0.125
 41
0.0
 71
     4
 72
     1
  1
\A1;
 73
     1
 44
1.0
1001
ACAD
1000
MTEXTBEGIN
1070
    73
1070
     1
1070
    44
1040
1.0
1070
    74
1070
     0
1000
MTEXTEND
  0
MTEXT
  5
52EA
330
19
100
AcDbEntity
  8
0
 62
     5
100
AcDbMText
 10
31.29864915350486
 20
92.09050708269973
 30
0.0
 40
0.125
 41
0.0
 71
     4
 72
     1
  1
\A1;
 73
     1
 44
1.0
1001
ACAD
1000
MTEXTBEGIN
1070
    73
1070
     1
1070
    44
1040
1.0
1070
    74
1070
     0
1000
MTEXTEND
  0
MTEXT
  5
52EB
330
19
100
AcDbEntity
  8
0
 62
     4
100
AcDbMText
 10
42.47704098889701
 20
61.52302348609935
 30
0.0
 40
0.125
 41
0.0
 71
     4
 72
     1
  1
\A1;
 73
     1
 44
1.0
1001
ACAD
1000
MTEXTBEGIN
1070
    73
1070
     1
1070
    44
1040
1.0
1070
    74
1070
     0
1000
MTEXTEND
  0
MTEXT
  5
52EC
330
19
100
AcDbEntity
  8
0
 62
     4
100
AcDbMText
 10
65.87103785051873
 20
107.661342394046
 30
0.0
 40
0.125
 41
0.0
 71
     6
 72
     1
  1
\A1;
 73
     1
 44
1.0
1001
ACAD
1000
MTEXTBEGIN
1070
    73
1070
     1
1070
    44
1040
1.0
1070
    74
1070
     0
1000
MTEXTEND
  0
MTEXT
  5
52ED
330
19
100
AcDbEntity
  8
0
 62
     4
100
AcDbMText
 10
64.71297079491634
 20
107.9857104689659
 30
0.0
 40
0.125
 41
0.0
 71
     4
 72
     1
  1
\A1;
 73
     1
 44
1.0
1001
ACAD
1000
MTEXTBEGIN
1070
    73
1070
     1
1070
    44
1040
1.0
1070
    74
1070
     0
1000
MTEXTEND
  0
MTEXT
  5
52EE
330
19
100
AcDbEntity
  8
0
 62
     4
100
AcDbMText
 10
60.6361448365787
 20
105.5278701045616
 30
0.0
 40
0.125
 41
0.0
 71
     6
 72
     1
  1
\A1;
 73
     1
 44
1.0
1001
ACAD
1000
MTEXTBEGIN
1070
    73
1070
     1
1070
    44
1040
1.0
1070
    74
1070
     0
1000
MTEXTEND
  0
MTEXT
  5
52EF
330
19
100
AcDbEntity
  8
0
 62
     4
100
AcDbMText
 10
61.140191063324
 20
104.982221850361
 30
0.0
 40
0.125
 41
0.0
 71
     6
 72
     1
  1
\A1;
 73
     1
 44
1.0
1001
ACAD
1000
MTEXTBEGIN
1070
    73
1070
     1
1070
    44
1040
1.0
1070
    74
1070
     0
1000
MTEXTEND
  0
MTEXT
  5
52F0
330
19
100
AcDbEntity
  8
0
 62
     4
100
AcDbMText
 10
60.76809803233587
 20
103.7384865146664
 30
0.0
 40
0.125
 41
0.0
 71
     6
 72
     1
  1
\A1;
 73
     1
 44
1.0
1001
ACAD
1000
MTEXTBEGIN
1070
    73
1070
     1
1070
    44
1040
1.0
1070
    74
1070
     0
1000
MTEXTEND
  0
MTEXT
  5
52F1
330
19
100
AcDbEntity
  8
0
 62
     4
100
AcDbMText
 10
60.82081723498772
 20
103.4878075900084
 30
0.0
 40
0.125
 41
0.0
 71
     6
 72
     1
  1
\A1;
 73
     1
 44
1.0
1001
ACAD
1000
MTEXTBEGIN
1070
    73
1070
     1
1070
    44
1040
1.0
1070
    74
1070
     0
1000
MTEXTEND
  0
MTEXT
  5
52F2
330
19
100
AcDbEntity
  8
0
 62
     4
100
AcDbMText
 10
75.58178589501403
 20
92.11863702024567
 30
0.0
 40
0.125
 41
0.0
 71
     6
 72
     1
  1
\A1;
 73
     1
 44
1.0
1001
ACAD
1000
MTEXTBEGIN
1070
    73
1070
     1
1070
    44
1040
1.0
1070
    74
1070
     0
1000
MTEXTEND
  0
MTEXT
  5
52F3
330
19
100
AcDbEntity
  8
0
 62
     4
100
AcDbMText
 10
81.56677525665614
 20
90.16792458769577
 30
0.0
 40
0.125
 41
0.0
 71
     4
 72
     1
  1
\A1;
 73
     1
 44
1.0
1001
ACAD
1000
MTEXTBEGIN
1070
    73
1070
     1
1070
    44
1040
1.0
1070
    74
1070
     0
1000
MTEXTEND
  0
MTEXT
  5
52F4
330
19
100
AcDbEntity
  8
0
 62
     4
100
AcDbMText
 10
54.8965644868215
 20
84.72588196467354
 30
0.0
 40
0.125
 41
0.0
 71
     4
 72
     1
  1
\A1;
 73
     1
 44
1.0
1001
ACAD
1000
MTEXTBEGIN
1070
    73
1070
     1
1070
    44
1040
1.0
1070
    74
1070
     0
1000
MTEXTEND
  0
MTEXT
  5
52F5
330
19
100
AcDbEntity
  8
0
 62
     4
100
AcDbMText
 10
50.95548219637223
 20
80.97177759465123
 30
0.0
 40
0.125
 41
0.0
 71
     6
 72
     1
  1
\A1;
 73
     1
 44
1.0
1001
ACAD
1000
MTEXTBEGIN
1070
    73
1070
     1
1070
    44
1040
1.0
1070
    74
1070
     0
1000
MTEXTEND
  0
MTEXT
  5
52F6
330
19
100
AcDbEntity
  8
0
 62
     4
100
AcDbMText
 10
51.27043698602095
 20
81.72227099328642
 30
0.0
 40
0.125
 41
0.0
 71
     6
 72
     1
  1
\A1;
 73
     1
 44
1.0
1001
ACAD
1000
MTEXTBEGIN
1070
    73
1070
     1
1070
    44
1040
1.0
1070
    74
1070
     0
1000
MTEXTEND
  0
MTEXT
  5
52F7
330
19
100
AcDbEntity
  8
0
 62
     4
100
AcDbMText
 10
50.8424215123236
 20
82.27101885555535
 30
0.0
 40
0.125
 41
0.0
 71
     6
 72
     1
  1
\A1;
 73
     1
 44
1.0
1001
ACAD
1000
MTEXTBEGIN
1070
    73
1070
     1
1070
    44
1040
1.0
1070
    74
1070
     0
1000
MTEXTEND
  0
MTEXT
  5
52F8
330
19
100
AcDbEntity
  8
0
 62
     4
100
AcDbMText
 10
59.30515788000259
 20
83.92672488462004
 30
0.0
 40
0.125
 41
0.0
 71
     6
 72
     1
  1
\A1;
 73
     1
 44
1.0
1001
ACAD
1000
MTEXTBEGIN
1070
    73
1070
     1
1070
    44
1040
1.0
1070
    74
1070
     0
1000
MTEXTEND
  0
MTEXT
  5
52F9
330
19
100
AcDbEntity
  8
0
 62
     4
100
AcDbMText
 10
65.17733716284311
 20
81.98967289926583
 30
0.0
 40
0.125
 41
0.0
 71
     4
 72
     1
  1
\A1;
 73
     1
 44
1.0
1001
ACAD
1000
MTEXTBEGIN
1070
    73
1070
     1
1070
    44
1040
1.0
1070
    74
1070
     0
1000
MTEXTEND
  0
MTEXT
  5
52FA
330
19
100
AcDbEntity
  8
0
 62
     5
100
AcDbMText
 10
55.18223963382303
 20
84.65006443372502
 30
0.0
 40
0.125
 41
0.0
 71
     4
 72
     1
  1
\A1;
 73
     1
 44
1.0
1001
ACAD
1000
MTEXTBEGIN
1070
    73
1070
     1
1070
    44
1040
1.0
1070
    74
1070
     0
1000
MTEXTEND
  0
MTEXT
  5
52FB
330
19
100
AcDbEntity
  8
0
 62
     5
100
AcDbMText
 10
51.09388408461938
 20
82.03298845996819
 30
0.0
 40
0.125
 41
0.0
 71
     6
 72
     1
  1
\A1;
 73
     1
 44
1.0
1001
ACAD
1000
MTEXTBEGIN
1070
    73
1070
     1
1070
    44
1040
1.0
1070
    74
1070
     0
1000
MTEXTEND
  0
MTEXT
  5
52FC
330
19
100
AcDbEntity
  8
0
 62
     5
100
AcDbMText
 10
51.36086046381265
 20
81.38590513582599
 30
0.0
 40
0.125
 41
0.0
 71
     6
 72
     1
  1
\A1;
 73
     1
 44
1.0
1001
ACAD
1000
MTEXTBEGIN
1070
    73
1070
     1
1070
    44
1040
1.0
1070
    74
1070
     0
1000
MTEXTEND
  0
MTEXT
  5
52FD
330
19
100
AcDbEntity
  8
0
 62
     5
100
AcDbMText
 10
51.08337268473243
 20
80.67465490451716
 30
0.0
 40
0.125
 41
0.0
 71
     6
 72
     1
  1
\A1;
 73
     1
 44
1.0
1001
ACAD
1000
MTEXTBEGIN
1070
    73
1070
     1
1070
    44
1040
1.0
1070
    74
1070
     0
1000
MTEXTEND
  0
MTEXT
  5
52FE
330
19
100
AcDbEntity
  8
0
 62
     5
100
AcDbMText
 10
51.05468984608353
 20
79.6497788128853
 30
0.0
 40
0.125
 41
0.0
 71
     6
 72
     1
  1
\A1;
 73
     1
 44
1.0
1001
ACAD
1000
MTEXTBEGIN
1070
    73
1070
     1
1070
    44
1040
1.0
1070
    74
1070
     0
1000
MTEXTEND
  0
MTEXT
  5
52FF
330
19
100
AcDbEntity
  8
0
 62
     5
100
AcDbMText
 10
59.29214108229341
 20
84.1730987991416
 30
0.0
 40
0.125
 41
0.0
 71
     6
 72
     1
  1
\A1;
 73
     1
 44
1.0
1001
ACAD
1000
MTEXTBEGIN
1070
    73
1070
     1
1070
    44
1040
1.0
1070
    74
1070
     0
1000
MTEXTEND
  0
MTEXT
  5
5300
330
19
100
AcDbEntity
  8
0
 62
     5
100
AcDbMText
 10
65.1475025687465
 20
81.79436381880281
 30
0.0
 40
0.125
 41
0.0
 71
     4
 72
     1
  1
\A1;
 73
     1
 44
1.0
1001
ACAD
1000
MTEXTBEGIN
1070
    73
1070
     1
1070
    44
1040
1.0
1070
    74
1070
     0
1000
MTEXTEND
  0
MTEXT
  5
5301
330
19
100
AcDbEntity
  8
0
 62
     5
100
AcDbMText
 10
60.54813712246962
 20
77.99094825365613
 30
0.0
 40
0.125
 41
0.0
 71
     4
 72
     1
  1
\A1;
 73
     1
 44
1.0
1001
ACAD
1000
MTEXTBEGIN
1070
    73
1070
     1
1070
    44
1040
1.0
1070
    74
1070
     0
1000
MTEXTEND
  0
MTEXT
  5
5302
330
19
100
AcDbEntity
  8
0
 62
     4
100
AcDbMText
 10
71.72652895786177
 20
47.42346465705574
 30
0.0
 40
0.125
 41
0.0
 71
     4
 72
     1
  1
\A1;
 73
     1
 44
1.0
1001
ACAD
1000
MTEXTBEGIN
1070
    73
1070
     1
1070
    44
1040
1.0
1070
    74
1070
     0
1000
MTEXTEND
  0
MTEXT
  5
5303
330
19
100
AcDbEntity
  8
0
 62
     4
100
AcDbMText
 10
49.34753929436008
 20
108.2110277063532
 30
0.0
 40
0.125
 41
0.0
 71
     6
 72
     1
  1
\A1;
 73
     1
 44
1.0
1001
ACAD
1000
MTEXTBEGIN
1070
    73
1070
     1
1070
    44
1040
1.0
1070
    74
1070
     0
1000
MTEXTEND
  0
MTEXT
  5
5304
330
19
100
AcDbEntity
  8
0
 62
     4
100
AcDbMText
 10
48.1894722387577
 20
108.535395781273
 30
0.0
 40
0.125
 41
0.0
 71
     4
 72
     1
  1
\A1;
 73
     1
 44
1.0
1001
ACAD
1000
MTEXTBEGIN
1070
    73
1070
     1
1070
    44
1040
1.0
1070
    74
1070
     0
1000
MTEXTEND
  0
MTEXT
  5
5305
330
19
100
AcDbEntity
  8
0
 62
     4
100
AcDbMText
 10
44.11264628042006
 20
106.0775554168688
 30
0.0
 40
0.125
 41
0.0
 71
     6
 72
     1
  1
\A1;
 73
     1
 44
1.0
1001
ACAD
1000
MTEXTBEGIN
1070
    73
1070
     1
1070
    44
1040
1.0
1070
    74
1070
     0
1000
MTEXTEND
  0
MTEXT
  5
5306
330
19
100
AcDbEntity
  8
0
 62
     4
100
AcDbMText
 10
44.61669250716536
 20
105.5319071626681
 30
0.0
 40
0.125
 41
0.0
 71
     6
 72
     1
  1
\A1;
 73
     1
 44
1.0
1001
ACAD
1000
MTEXTBEGIN
1070
    73
1070
     1
1070
    44
1040
1.0
1070
    74
1070
     0
1000
MTEXTEND
  0
MTEXT
  5
5307
330
19
100
AcDbEntity
  8
0
 62
     4
100
AcDbMText
 10
44.24459947617722
 20
104.2881718269736
 30
0.0
 40
0.125
 41
0.0
 71
     6
 72
     1
  1
\A1;
 73
     1
 44
1.0
1001
ACAD
1000
MTEXTBEGIN
1070
    73
1070
     1
1070
    44
1040
1.0
1070
    74
1070
     0
1000
MTEXTEND
  0
MTEXT
  5
5308
330
19
100
AcDbEntity
  8
0
 62
     4
100
AcDbMText
 10
44.29731867882908
 20
104.0374929023156
 30
0.0
 40
0.125
 41
0.0
 71
     6
 72
     1
  1
\A1;
 73
     1
 44
1.0
1001
ACAD
1000
MTEXTBEGIN
1070
    73
1070
     1
1070
    44
1040
1.0
1070
    74
1070
     0
1000
MTEXTEND
  0
MTEXT
  5
5309
330
19
100
AcDbEntity
  8
0
 62
     4
100
AcDbMText
 10
59.05828733885538
 20
92.66832233255286
 30
0.0
 40
0.125
 41
0.0
 71
     6
 72
     1
  1
\A1;
 73
     1
 44
1.0
1001
ACAD
1000
MTEXTBEGIN
1070
    73
1070
     1
1070
    44
1040
1.0
1070
    74
1070
     0
1000
MTEXTEND
  0
MTEXT
  5
530A
330
19
100
AcDbEntity
  8
0
 62
     4
100
AcDbMText
 10
65.0432767004975
 20
90.71760990000298
 30
0.0
 40
0.125
 41
0.0
 71
     4
 72
     1
  1
\A1;
 73
     1
 44
1.0
1001
ACAD
1000
MTEXTBEGIN
1070
    73
1070
     1
1070
    44
1040
1.0
1070
    74
1070
     0
1000
MTEXTEND
  0
MTEXT
  5
530B
330
19
100
AcDbEntity
  8
0
 62
     4
100
AcDbMText
 10
38.37306593066285
 20
85.27556727698073
 30
0.0
 40
0.125
 41
0.0
 71
     4
 72
     1
  1
\A1;
 73
     1
 44
1.0
1001
ACAD
1000
MTEXTBEGIN
1070
    73
1070
     1
1070
    44
1040
1.0
1070
    74
1070
     0
1000
MTEXTEND
  0
MTEXT
  5
530C
330
19
100
AcDbEntity
  8
0
 62
     4
100
AcDbMText
 10
34.43198364021359
 20
81.52146290695842
 30
0.0
 40
0.125
 41
0.0
 71
     6
 72
     1
  1
\A1;
 73
     1
 44
1.0
1001
ACAD
1000
MTEXTBEGIN
1070
    73
1070
     1
1070
    44
1040
1.0
1070
    74
1070
     0
1000
MTEXTEND
  0
MTEXT
  5
530D
330
19
100
AcDbEntity
  8
0
 62
     4
100
AcDbMText
 10
34.74693842986231
 20
82.27195630559359
 30
0.0
 40
0.125
 41
0.0
 71
     6
 72
     1
  1
\A1;
 73
     1
 44
1.0
1001
ACAD
1000
MTEXTBEGIN
1070
    73
1070
     1
1070
    44
1040
1.0
1070
    74
1070
     0
1000
MTEXTEND
  0
MTEXT
  5
530E
330
19
100
AcDbEntity
  8
0
 62
     4
100
AcDbMText
 10
34.31892295616496
 20
82.82070416786252
 30
0.0
 40
0.125
 41
0.0
 71
     6
 72
     1
  1
\A1;
 73
     1
 44
1.0
1001
ACAD
1000
MTEXTBEGIN
1070
    73
1070
     1
1070
    44
1040
1.0
1070
    74
1070
     0
1000
MTEXTEND
  0
MTEXT
  5
530F
330
19
100
AcDbEntity
  8
0
 62
     4
100
AcDbMText
 10
42.78165932384395
 20
84.47641019692722
 30
0.0
 40
0.125
 41
0.0
 71
     6
 72
     1
  1
\A1;
 73
     1
 44
1.0
1001
ACAD
1000
MTEXTBEGIN
1070
    73
1070
     1
1070
    44
1040
1.0
1070
    74
1070
     0
1000
MTEXTEND
  0
MTEXT
  5
5310
330
19
100
AcDbEntity
  8
0
 62
     4
100
AcDbMText
 10
48.65383860668448
 20
82.539358211573
 30
0.0
 40
0.125
 41
0.0
 71
     4
 72
     1
  1
\A1;
 73
     1
 44
1.0
1001
ACAD
1000
MTEXTBEGIN
1070
    73
1070
     1
1070
    44
1040
1.0
1070
    74
1070
     0
1000
MTEXTEND
  0
MTEXT
  5
5311
330
19
100
AcDbEntity
  8
0
 62
     5
100
AcDbMText
 10
38.65874107766439
 20
85.1997497460322
 30
0.0
 40
0.125
 41
0.0
 71
     4
 72
     1
  1
\A1;
 73
     1
 44
1.0
1001
ACAD
1000
MTEXTBEGIN
1070
    73
1070
     1
1070
    44
1040
1.0
1070
    74
1070
     0
1000
MTEXTEND
  0
MTEXT
  5
5312
330
19
100
AcDbEntity
  8
0
 62
     5
100
AcDbMText
 10
34.57038552846074
 20
82.58267377227538
 30
0.0
 40
0.125
 41
0.0
 71
     6
 72
     1
  1
\A1;
 73
     1
 44
1.0
1001
ACAD
1000
MTEXTBEGIN
1070
    73
1070
     1
1070
    44
1040
1.0
1070
    74
1070
     0
1000
MTEXTEND
  0
MTEXT
  5
5313
330
19
100
AcDbEntity
  8
0
 62
     5
100
AcDbMText
 10
34.83736190765401
 20
81.93559044813317
 30
0.0
 40
0.125
 41
0.0
 71
     6
 72
     1
  1
\A1;
 73
     1
 44
1.0
1001
ACAD
1000
MTEXTBEGIN
1070
    73
1070
     1
1070
    44
1040
1.0
1070
    74
1070
     0
1000
MTEXTEND
  0
MTEXT
  5
5314
330
19
100
AcDbEntity
  8
0
 62
     5
100
AcDbMText
 10
34.55987412857378
 20
81.22434021682435
 30
0.0
 40
0.125
 41
0.0
 71
     6
 72
     1
  1
\A1;
 73
     1
 44
1.0
1001
ACAD
1000
MTEXTBEGIN
1070
    73
1070
     1
1070
    44
1040
1.0
1070
    74
1070
     0
1000
MTEXTEND
  0
MTEXT
  5
5315
330
19
100
AcDbEntity
  8
0
 62
     5
100
AcDbMText
 10
34.53119128992488
 20
80.19946412519248
 30
0.0
 40
0.125
 41
0.0
 71
     6
 72
     1
  1
\A1;
 73
     1
 44
1.0
1001
ACAD
1000
MTEXTBEGIN
1070
    73
1070
     1
1070
    44
1040
1.0
1070
    74
1070
     0
1000
MTEXTEND
  0
MTEXT
  5
5316
330
19
100
AcDbEntity
  8
0
 62
     5
100
AcDbMText
 10
42.76864252613476
 20
84.72278411144877
 30
0.0
 40
0.125
 41
0.0
 71
     6
 72
     1
  1
\A1;
 73
     1
 44
1.0
1001
ACAD
1000
MTEXTBEGIN
1070
    73
1070
     1
1070
    44
1040
1.0
1070
    74
1070
     0
1000
MTEXTEND
  0
MTEXT
  5
5317
330
19
100
AcDbEntity
  8
0
 62
     5
100
AcDbMText
 10
48.62400401258786
 20
82.34404913110997
 30
0.0
 40
0.125
 41
0.0
 71
     4
 72
     1
  1
\A1;
 73
     1
 44
1.0
1001
ACAD
1000
MTEXTBEGIN
1070
    73
1070
     1
1070
    44
1040
1.0
1070
    74
1070
     0
1000
MTEXTEND
  0
MTEXT
  5
5318
330
19
100
AcDbEntity
  8
0
 62
     5
100
AcDbMText
 10
44.02463856631097
 20
78.54063356596331
 30
0.0
 40
0.125
 41
0.0
 71
     4
 72
     1
  1
\A1;
 73
     1
 44
1.0
1001
ACAD
1000
MTEXTBEGIN
1070
    73
1070
     1
1070
    44
1040
1.0
1070
    74
1070
     0
1000
MTEXTEND
  0
MTEXT
  5
5319
330
19
100
AcDbEntity
  8
0
 62
     4
100
AcDbMText
 10
55.20303040170312
 20
47.97314996936292
 30
0.0
 40
0.125
 41
0.0
 71
     4
 72
     1
  1
\A1;
 73
     1
 44
1.0
1001
ACAD
1000
MTEXTBEGIN
1070
    73
1070
     1
1070
    44
1040
1.0
1070
    74
1070
     0
1000
MTEXTEND
  0
DIMENSION
  5
534D
330
19
100
AcDbEntity
  8
0
100
AcDbDimension
  2
*D3
 10
73.60913845041548
 20
62.8349586323085
 30
0.0
 11
76.24088841943398
 21
62.8349586323085
 31
0.0
 12
20.10270125865442
 22
2.392337079136794
 32
0.0
 70
   160
 71
     5
 42
-1.0
  3
STANDARD_WS
100
AcDbAlignedDimension
 13
78.85938671054848
 23
60.6938151031392
 33
0.0
 14
73.60913845041548
 24
60.6938151031392
 34
0.0
100
AcDbRotatedDimension
1001
ACAD
1000
DSTYLE
1002
{
1002
}
  0
DIMENSION
  5
5367
330
19
100
AcDbEntity
  8
0
100
AcDbDimension
  2
*D4
 10
73.85926518815397
 20
62.38602309810987
 30
0.0
 11
76.24088841943398
 21
62.38602309810987
 31
0.0
 12
20.10270125865442
 22
2.392337079136794
 32
0.0
 70
   160
  1
<>\P(2 PLCS.)
 71
     5
 42
-1.0
  3
STANDARD_WS
100
AcDbAlignedDimension
 13
78.61818933771468
 23
60.3800117268952
 33
0.0
 14
73.85926518815397
 24
60.37976172689521
 34
0.0
100
AcDbRotatedDimension
  0
DIMENSION
  5
5375
330
19
100
AcDbEntity
  8
0
100
AcDbDimension
  2
*D5
 10
74.23426258125598
 20
61.93866998828655
 30
0.0
 11
76.24088841943398
 21
61.93866998828655
 31
0.0
 12
20.10270125865442
 22
2.392337079136794
 32
0.0
 70
   160
  1
\fArial|b0|i0|c0|p32;<>\P(3 PLCS.)
 71
     5
 42
-1.0
  3
STANDARD_WS
100
AcDbAlignedDimension
 13
78.23426257970798
 23
60.12976346482721
 33
0.0
 14
74.23426258125598
 24
60.12976346482721
 34
0.0
100
AcDbRotatedDimension
  0
DIMENSION
  5
5383
330
19
100
AcDbEntity
  8
0
100
AcDbDimension
  2
*D6
 10
77.85938671093546
 20
61.47534004378837
 30
0.0
 11
76.23426258048198
 21
61.98768177514497
 31
0.0
 12
20.10270125865442
 22
2.392337079136794
 32
0.0
 70
    32
  1
\fArial|b0|i0|c0|p32;<>\P(3 PLCS.)
 71
     5
 42
-1.0
  3
STANDARD_WS
100
AcDbAlignedDimension
 13
74.60913845002846
 23
59.75488759605471
 33
0.0
 14
77.85938671093546
 24
59.75488759605472
 34
0.0
100
AcDbRotatedDimension
  0
DIMENSION
  5
53D9
330
19
100
AcDbEntity
  8
0
100
AcDbDimension
  2
*D7
 10
70.49701045700451
 20
55.37951520450071
 30
0.0
 11
70.49701045700451
 21
58.64210519695781
 31
0.0
 12
20.10270125865442
 22
2.392337079136794
 32
0.0
 70
    32
 71
     5
 42
-1.0
  3
STANDARD_WS
100
AcDbAlignedDimension
 13
73.79533507397798
 23
60.8800117267017
 33
0.0
 14
73.79533507397798
 24
55.37951520450071
 34
0.0
 50
90.0
100
AcDbRotatedDimension
  0
DIMENSION
  5
53E7
330
19
100
AcDbEntity
  8
0
100
AcDbDimension
  2
*D8
 10
71.23255244863114
 20
55.87976520430721
 30
0.0
 11
71.23255244863114
 21
58.64210609695781
 31
0.0
 12
20.10270125865442
 22
2.392337079136794
 32
0.0
 70
    32
  1
\fArial|b0|i0|c0|p32;<>\P(2 PLCS.)
 71
     5
 42
-1.0
  3
STANDARD_WS
100
AcDbAlignedDimension
 13
73.85889018815397
 23
60.37976352689521
 33
0.0
 14
73.85926518815399
 24
55.87976520430721
 34
0.0
 50
90.0
100
AcDbRotatedDimension
  0
DIMENSION
  5
53F5
330
19
100
AcDbEntity
  8
0
100
AcDbDimension
  2
*D9
 10
72.12799471780866
 20
56.12976346637521
 30
0.0
 11
72.12799471780866
 21
58.64210519695782
 31
0.0
 12
20.10270125865442
 22
2.392337079136794
 32
0.0
 70
    32
  1
\fArial|b0|i0|c0|p32;<>\P(2 PLCS.)
 71
     5
 42
-1.0
  3
STANDARD_WS
100
AcDbAlignedDimension
 13
74.23426258125598
 23
60.12976346482721
 33
0.0
 14
74.23426258125598
 24
56.12976346637521
 34
0.0
 50
90.0
100
AcDbRotatedDimension
  0
DIMENSION
  5
5403
330
19
100
AcDbEntity
  8
0
100
AcDbDimension
  2
*D10
 10
72.9754669292528
 20
59.75488759605471
 30
0.0
 11
72.9754669292528
 21
58.64210519695781
 31
0.0
 12
20.10270125865442
 22
2.392337079136794
 32
0.0
 70
    32
  1
\fArial|b0|i0|c0|p32;<>\P(2 PLCS.)
 71
     5
 42
-1.0
  3
STANDARD_WS
100
AcDbAlignedDimension
 13
74.60913845002846
 23
56.50463933514771
 33
0.0
 14
74.60913845002846
 24
59.75488759605471
 34
0.0
 50
90.0
100
AcDbRotatedDimension
  0
DIMENSION
  5
5471
330
19
100
AcDbEntity
  8
0
100
AcDbDimension
  2
*D11
 10
79.30752348621709
 20
55.6148677366837
 30
0.0
 11
79.30752348621709
 21
58.12976346560121
 31
0.0
 12
20.10270125865442
 22
2.392337079136794
 32
0.0
 70
   160
 71
     5
 42
-1.0
  3
STANDARD_WS
100
AcDbAlignedDimension
 13
77.99940657185448
 23
60.64465919451871
 33
0.0
 14
77.99940657185448
 24
55.6148677366837
 34
0.0
 50
90.0
100
AcDbRotatedDimension
  0
DIMENSION
  5
548B
330
19
100
AcDbEntity
  8
0
100
AcDbDimension
  2
*D12
 10
74.46911858910948
 20
54.5440789895646
 30
0.0
 11
76.23426258048198
 21
54.5440789895646
 31
0.0
 12
20.10270125865442
 22
2.392337079136794
 32
0.0
 70
   160
 71
     5
 42
-1.0
  3
STANDARD_WS
100
AcDbAlignedDimension
 13
77.99940657185448
 23
55.6148677366837
 33
0.0
 14
74.46911858910948
 24
55.6148677366837
 34
0.0
100
AcDbRotatedDimension
  0
DIMENSION
  5
54D0
330
19
100
AcDbEntity
  8
0
100
AcDbDimension
  2
*D13
 10
73.07494065658985
 20
51.37635321224937
 30
0.0
 11
71.72832912862259
 21
51.01635321224939
 31
0.0
 70
    32
  1
\fArial|b0|i0|c0|p32;<> MTG. BOSS HEIGHT\P(6 PLCS. ON COVER)\P(6 PLCS. ON BASE)
 71
     5
 42
0.2502482620679984
  3
STANDARD_WS
100
AcDbAlignedDimension
 13
74.0431549378914
 23
51.62660147431737
 33
0.0
 14
74.03878683822883
 24
51.37635321224937
 34
0.0
 50
90.0
100
AcDbRotatedDimension
  0
DIMENSION
  5
54E8
330
19
100
AcDbEntity
  8
0
100
AcDbDimension
  2
*D14
 10
78.18079450798437
 20
60.04959500772744
 30
0.0
 11
80.34661231608913
 21
61.56497695527255
 31
0.0
 12
19.60150494065233
 22
1.77723272228674
 32
0.0
 70
   163
  1
<> O.D.\P%%C0.090 I.D.\P(12 PLCS.)
 71
     5
 42
-1.0
  3
STANDARD_WS$3
100
AcDbDiametricDimension
 15
78.3085896948794
 25
60.18705226865693
 35
0.0
 40
0.0
1001
ACAD
1000
DSTYLE
1002
{
1070
   288
1070
     1
1002
}
  0
DIMENSION
  5
54FE
330
19
100
AcDbEntity
  8
0
100
AcDbDimension
  2
*D15
 10
79.14717257102521
 20
51.37635321224937
 30
0.0
 11
79.1471725710252
 21
52.07864218945289
 31
0.0
 70
    32
 71
     5
 42
1.404577954406995
  3
STANDARD_WS
100
AcDbAlignedDimension
 13
77.93306242781603
 23
52.78093116665637
 33
0.0
 14
78.26559783595939
 24
51.37635321224937
 34
0.0
 50
90.0
100
AcDbRotatedDimension
  0
LWPOLYLINE
  5
5728
330
19
100
AcDbEntity
  8
JB-55T
100
AcDbPolyline
 90
        4
 70
     0
 43
0.0
 10
78.79038244234502
 20
55.87951520430721
 10
78.44599623308432
 20
55.87951520430721
 10
78.44599623308432
 20
60.38001172689521
 10
78.79038244234502
 20
60.3800117268952
  0
LWPOLYLINE
  5
5729
330
19
100
AcDbEntity
  8
JB-55T
100
AcDbPolyline
 90
        4
 70
     1
 43
0.0
 10
78.49284109023606
 20
60.36653219164719
 10
78.49284109023606
 20
55.89299473955522
 10
78.7890204751352
 20
55.89299473955522
 10
78.7890204751352
 20
60.36653219164719
  0
LWPOLYLINE
  5
572A
330
19
100
AcDbEntity
  8
JB-55T
100
AcDbPolyline
 90
        4
 70
     1
 43
0.0
 10
73.97568407072791
 20
60.36653219164719
 10
73.97568407072791
 20
55.89299473955522
 10
73.67950468582873
 20
55.89299473955522
 10
73.67950468582873
 20
60.36653219164719
  0
LWPOLYLINE
  5
572B
330
19
100
AcDbEntity
  8
JB-55T
100
AcDbPolyline
 90
        4
 70
     0
 43
0.0
 10
73.67814271861892
 20
55.87951520430721
 10
74.02252892787962
 20
55.87951520430721
 10
74.02252892787962
 20
60.38001172689521
 10
73.67814271861892
 20
60.3800117268952
  0
LWPOLYLINE
  5
572C
330
19
100
AcDbEntity
  8
JB-55T
  6
HIDDEN2
 62
     4
100
AcDbPolyline
 90
        8
 70
     1
 43
0.0
 10
73.70943636497447
 20
60.69381510313921
 10
73.70943636497447
 20
55.56571182806322
 42
0.1571292690319154
 10
73.72559505467589
 20
55.51556287078371
 10
78.74293010628804
 20
55.51556287078375
 42
0.1571292690319154
 10
78.75908879598947
 20
55.56571182806322
 10
78.75908879598947
 20
60.69381510313921
 42
0.1571292690319155
 10
78.74293010628804
 20
60.74396406041866
 10
73.72559505467589
 20
60.7439640604187
 42
0.1571292690319155
  0
LWPOLYLINE
  5
572D
330
19
100
AcDbEntity
  8
JB-55T
100
AcDbPolyline
 90
        8
 70
     1
 43
0.0
 10
78.85938671054848
 20
60.69381510313921
 42
0.414213562373095
 10
78.67319008698598
 20
60.88001172670171
 10
73.79533507397798
 20
60.8800117267017
 42
0.4142135623730953
 10
73.60913845041548
 20
60.6938151031392
 10
73.60913845041548
 20
55.56571182806322
 42
0.4142135623730951
 10
73.79533507397798
 20
55.37951520450071
 10
78.67319008698598
 20
55.37951520450071
 42
0.4142135623730951
 10
78.85938671054848
 20
55.56571182806322
  0
LWPOLYLINE
  5
572E
330
19
100
AcDbEntity
  8
JB-55T
  6
HIDDEN2
 62
     4
100
AcDbPolyline
 90
        9
 70
     0
 43
0.0
 10
78.81072732625748
 20
60.69381510313921
 10
78.81072732625748
 20
55.55925701110971
 42
-0.4142135623730951
 10
78.68163100125747
 20
55.4301606861097
 10
73.78689415970646
 20
55.4301606861097
 42
-0.4142135623730951
 10
73.65779783470646
 20
55.55925701110971
 10
73.65779783470646
 20
60.70026992009271
 42
-0.4142135623730953
 10
73.78689415970646
 20
60.8293662450927
 10
78.68163100125747
 20
60.82936624509271
 42
-0.4142135623730951
 10
78.81072732625748
 20
60.70026992009271
  0
LWPOLYLINE
  5
572F
330
19
100
AcDbEntity
  8
JB-55B
100
AcDbPolyline
 90
        8
 70
     1
 43
0.0
 10
78.85938671054848
 20
60.6938151031392
 10
78.85938671054848
 20
55.56571182806322
 42
-0.4142135623730951
 10
78.67319008698598
 20
55.37951520450071
 10
73.79533507397798
 20
55.37951520450071
 42
-0.4142135623730951
 10
73.60913845041548
 20
55.56571182806322
 10
73.60913845041546
 20
60.6938151031392
 42
-0.4142135623730951
 10
73.79533507397798
 20
60.8800117267017
 10
78.67319008698598
 20
60.88001172670171
 42
-0.4142135623730951
  0
LWPOLYLINE
  5
5730
330
19
100
AcDbEntity
  8
JB-55B
  6
HIDDEN2
 62
     4
100
AcDbPolyline
 90
        8
 70
     1
 43
0.0
 10
73.70943636497447
 20
60.6938151031392
 42
-0.1571292690319154
 10
73.72559505467588
 20
60.7439640604187
 10
78.74293010628808
 20
60.74396406041871
 42
-0.1571292690319154
 10
78.75908879598949
 20
60.6938151031392
 10
78.75908879598949
 20
55.56571182806322
 42
-0.1571292690319154
 10
78.74293010628804
 20
55.51556287078375
 10
73.72559505467589
 20
55.51556287078371
 42
-0.1571292690319154
 10
73.70943636497448
 20
55.56571182806322
  0
LWPOLYLINE
  5
5731
330
19
100
AcDbEntity
  8
JB-55B
  6
HIDDEN2
 62
     4
100
AcDbPolyline
 90
        8
 70
     1
 43
0.0
 10
73.79533507397797
 20
60.82936624509271
 10
78.67319008698598
 20
60.82936624509271
 42
-0.4142135623730951
 10
78.80874122893948
 20
60.6938151031392
 10
78.80874122893948
 20
55.56571182806322
 42
-0.4142135623730951
 10
78.67319008698598
 20
55.4301606861097
 10
73.79533507397798
 20
55.43016068610971
 42
-0.4142135623730951
 10
73.65978393202448
 20
55.56571182806322
 10
73.65978393202448
 20
60.6938151031392
 42
-0.4142135623730951
  0
LWPOLYLINE
  5
5732
330
19
100
AcDbEntity
  8
JB-55T
100
AcDbPolyline
 90
        4
 70
     1
 43
0.0
 10
74.50011858910947
 20
55.64586773668371
 10
74.50011858910947
 20
60.6136591945187
 10
77.96840657185447
 20
60.6136591945187
 10
77.9684065718545
 20
55.6458677366837
  0
LWPOLYLINE
  5
5733
330
19
100
AcDbEntity
  8
JB-55T
100
AcDbPolyline
 90
        4
 70
     1
 43
0.0
 10
74.46911858910948
 20
55.6148677366837
 10
74.46911858910948
 20
60.64465919451871
 10
77.99940657185448
 20
60.64465919451871
 10
77.99940657185448
 20
55.6148677366837
  0
LWPOLYLINE
  5
5734
330
19
100
AcDbEntity
  8
JB-55B
  6
HIDDEN2
 62
     4
100
AcDbPolyline
 90
        4
 70
     1
 43
0.0
 10
77.24915830997997
 20
56.61486773629672
 10
75.21936685098399
 20
56.61486773629671
 10
75.21936685098399
 20
59.64465919490571
 10
77.24915830997997
 20
59.64465919490571
  0
LINE
  5
5735
330
19
100
AcDbEntity
  8
JB-55B
  6
CENTER2
 62
     1
100
AcDbLine
 10
76.23426258048198
 20
55.27951520450071
 30
0.0
 11
76.23426258048198
 21
60.9800117267017
 31
0.0
  0
LWPOLYLINE
  5
5736
330
19
100
AcDbEntity
  8
JB-55EP
100
AcDbPolyline
 90
       12
 70
     1
 43
0.0
 10
78.26587886968539
 20
51.49526582412837
 42
0.4142135623730951
 10
78.54587886968539
 20
51.77526582412838
 10
78.54587886968539
 20
51.80605033255737
 42
0.1316524975873977
 10
78.50836598274504
 20
51.94605033255736
 10
78.16149715183684
 20
52.54684477125238
 42
0.2679491924311212
 10
77.9190100387772
 20
52.68684477125237
 10
74.35498603200858
 20
52.68684477125237
 42
0.2679491924311212
 10
74.11249891894894
 20
52.54684477125238
 10
73.76563008804075
 20
51.94605033255736
 42
0.1316524975873977
 10
73.72811720110039
 20
51.80605033255737
 10
73.72811720110039
 20
51.77526582412838
 42
0.4142135623730951
 10
74.00811720110039
 20
51.49526582412837
  0
LWPOLYLINE
  5
5737
330
19
100
AcDbEntity
  8
JB-55EP
  6
HIDDEN2
 62
     4
100
AcDbPolyline
 90
       12
 70
     1
 43
0.0
 10
78.26587886968541
 20
51.43526582412837
 42
0.4142135623730864
 10
78.6058788696854
 20
51.77526582412836
 10
78.6058788696854
 20
51.80605033255735
 42
0.1316524975874111
 10
78.56032750697211
 20
51.97605033255737
 10
78.21345867606391
 20
52.57684477125238
 42
0.2679491924311216
 10
77.9190100387772
 20
52.74684477125237
 10
74.35498603200858
 20
52.74684477125237
 42
0.2679491924311216
 10
74.06053739472188
 20
52.57684477125238
 10
73.71366856381368
 20
51.97605033255737
 42
0.1316524975874109
 10
73.66811720110039
 20
51.80605033255735
 10
73.66811720110039
 20
51.77526582412836
 42
0.4142135623730864
 10
74.00811720110039
 20
51.43526582412837
  0
LWPOLYLINE
  5
5738
330
19
100
AcDbEntity
  8
JB-55B
  6
HIDDEN2
 62
     4
100
AcDbPolyline
 90
        4
 70
     0
 43
0.0
 10
75.12210230589491
 20
51.27605529769038
 10
75.12210230589491
 20
51.28598578428037
 10
77.1518937648909
 20
51.28598578428037
 10
77.1518937648909
 20
51.27605529769038
  0
LWPOLYLINE
  5
5739
330
19
100
AcDbEntity
  8
JB-55T
100
AcDbPolyline
 90
        8
 70
     0
 43
0.0
 10
78.7621221654594
 20
51.80873652949538
 42
0.1316524975873959
 10
78.69560051890345
 20
52.05699869424537
 10
78.34873168799525
 20
52.65779313294038
 42
0.2679491924311228
 10
77.91872900505122
 20
52.90605529769037
 10
74.35526706573458
 20
52.90605529769038
 42
0.2679491924311227
 10
73.92526438279054
 20
52.65779313294038
 10
73.57839555188235
 20
52.05699869424538
 42
0.1316524975873959
 10
73.51187390532638
 20
51.80873652949538
 42
0.1316524975873959
  0
LWPOLYLINE
  5
573A
330
19
100
AcDbEntity
  8
JB-55T
100
AcDbPolyline
 90
        8
 70
     0
 43
0.0
 10
78.5759255418969
 20
51.80873652949538
 42
0.1316524975873959
 10
78.53434951279943
 20
51.96390038246413
 10
78.18748068189124
 20
52.56469482115913
 42
0.2679491924311228
 10
77.91872900505122
 20
52.71985867412787
 10
74.35526706573458
 20
52.71985867412787
 42
0.2679491924311227
 10
74.08651538889455
 20
52.56469482115913
 10
73.73964655798637
 20
51.96390038246413
 42
0.1316524975873959
 10
73.69807052888887
 20
51.80873652949538
  0
LWPOLYLINE
  5
573B
330
19
100
AcDbEntity
  8
JB-55T
  6
HIDDEN2
 62
     4
100
AcDbPolyline
 90
        8
 70
     0
 43
0.0
 10
78.6063152042143
 20
51.83952103792438
 42
0.1087991215155284
 10
78.56186968450784
 20
51.97978916100812
 10
78.21500085359966
 20
52.58058359970313
 42
0.2679491924311228
 10
77.91872900505122
 20
52.75163623121587
 10
74.35526706573458
 20
52.75163623121588
 42
0.2679491924311227
 10
74.05899521718613
 20
52.58058359970313
 10
73.71212638627794
 20
51.97978916100812
 42
0.1087991215155283
 10
73.66768086657152
 20
51.83952103792438
 42
0.1087991215155283
  0
LWPOLYLINE
  5
573C
330
19
100
AcDbEntity
  8
JB-55T
  6
HIDDEN2
 62
     4
100
AcDbPolyline
 90
        8
 70
     0
 43
0.0
 10
78.66062655129258
 20
51.83952103792438
 42
0.1119203704730636
 10
78.60873997694875
 20
52.00684973696588
 10
78.27620456880535
 20
52.58281795918588
 42
0.2679491924311224
 10
77.93306242781603
 20
52.78093116665637
 10
74.34093364296979
 20
52.78093116665637
 42
0.2679491924311224
 10
73.99779150198044
 20
52.58281795918588
 10
73.66525609383704
 20
52.00684973696588
 42
0.1119203704730634
 10
73.6133695194932
 20
51.83952103792438
  0
LWPOLYLINE
  5
573D
330
19
100
AcDbEntity
  8
JB-55T
  6
HIDDEN2
 62
     4
100
AcDbPolyline
 90
        4
 70
     0
 43
0.0
 10
74.3718540440204
 20
52.90605529769037
 10
74.3718540440204
 20
52.89627078926137
 10
77.90214202676541
 20
52.89627078926137
 10
77.90214202676541
 20
52.90605529769037
  0
LWPOLYLINE
  5
573E
330
19
100
AcDbEntity
  8
JB-55B
  6
HIDDEN2
 62
     4
100
AcDbPolyline
 90
        6
 70
     0
 43
0.0
 10
73.66629297180089
 20
51.83414864404838
 10
73.66629297180089
 20
51.77257962719037
 42
0.4142135623730951
 10
74.0083982348264
 20
51.43047436416487
 10
78.26559783595941
 20
51.43047436416487
 42
0.4142135623730951
 10
78.6077030989849
 20
51.77257962719037
 10
78.6077030989849
 20
51.83414864404838
  0
LWPOLYLINE
  5
573F
330
19
100
AcDbEntity
  8
JB-55B
  6
HIDDEN2
 62
     4
100
AcDbPolyline
 90
        6
 70
     0
 43
0.0
 10
73.6121718198854
 20
51.83414864404838
 10
73.6121718198854
 20
51.77257962719037
 42
0.4142135623730951
 10
74.0083982348264
 20
51.37635321224937
 10
78.26559783595939
 20
51.37635321224937
 42
0.4142135623730951
 10
78.66182425090041
 20
51.77257962719037
 10
78.66182425090041
 20
51.83414864404838
  0
LWPOLYLINE
  5
5740
330
19
100
AcDbEntity
  8
JB-55B
100
AcDbPolyline
 90
        4
 70
     0
 43
0.0
 10
73.51187390532641
 20
51.77257962719037
 42
0.4142135623730951
 10
74.0083982348264
 20
51.27605529769038
 10
78.26559783595941
 20
51.27605529769037
 42
0.4142135623730951
 10
78.7621221654594
 20
51.77257962719037
 42
0.4142135623730951
  0
LWPOLYLINE
  5
5741
330
19
100
AcDbEntity
  8
JB-55B
100
AcDbPolyline
 90
        4
 70
     0
 43
0.0
 10
73.69807052888891
 20
51.77257962719037
 42
0.4142135623730951
 10
74.0083982348264
 20
51.46225192125287
 10
78.26559783595939
 20
51.46225192125287
 42
0.4142135623730951
 10
78.5759255418969
 20
51.77257962719037
  0
LINE
  5
5742
330
19
100
AcDbEntity
  8
JB-55T
  6
HIDDEN2
 62
     4
100
AcDbLine
 10
73.76355751688999
 20
55.48378531369571
 30
0.0
 11
78.70496764407397
 21
55.48378531369571
 31
0.0
  0
LINE
  5
5743
330
19
100
AcDbEntity
  8
JB-55B
  6
HIDDEN2
 62
     4
100
AcDbLine
 10
73.76355751688997
 20
55.48378531369571
 30
0.0
 11
78.70496764407397
 21
55.48378531369571
 31
0.0
  0
LINE
  5
5744
330
19
100
AcDbEntity
  8
JB-55B
  6
CENTER2
 62
     1
100
AcDbLine
 10
78.95938671054847
 20
58.12976346560121
 30
0.0
 11
73.50913845041549
 21
58.1297634656012
 31
0.0
  0
LWPOLYLINE
  5
5745
330
19
100
AcDbEntity
  8
JB-55T
100
AcDbPolyline
 90
        4
 70
     0
 43
0.0
 10
73.58087817352985
 20
52.06129872107482
 10
73.58224014073967
 20
52.11331015043044
 10
73.87841952563883
 20
52.6263078932303
 10
73.92278176114304
 20
52.65349310611093
  0
LWPOLYLINE
  5
5746
330
19
100
AcDbEntity
  8
JB-55B
  6
HIDDEN2
 62
     4
100
AcDbPolyline
 90
        5
 70
     0
 43
0.0
 10
73.93914967367604
 20
51.38245143200883
 10
73.93761548275326
 20
51.47034517110963
 10
73.93689873137841
 20
51.51140782987337
 10
73.84078983002928
 20
51.51140782987337
 10
73.71043067923821
 20
51.51140782987337
  0
LWPOLYLINE
  5
5747
330
19
100
AcDbEntity
  8
JB-55B
  6
HIDDEN2
 62
     4
100
AcDbPolyline
 90
        4
 70
     0
 43
0.0
 10
73.81922246528691
 20
51.77257962719037
 10
73.84514125753632
 20
51.4763264761551
 10
73.87799853279147
 20
51.43852850475422
 10
73.87799853279147
 20
51.29348430526098
  0
LINE
  5
5748
330
19
100
AcDbEntity
  8
JB-55B
  6
HIDDEN2
 62
     4
100
AcDbLine
 10
73.64990766892741
 20
51.78846840573437
 30
0.0
 11
73.87334361720241
 21
51.78846840573437
 31
0.0
  0
ARC
  5
5749
330
19
100
AcDbEntity
  8
JB-55B
  6
HIDDEN2
 62
     4
100
AcDbCircle
 10
73.87334361720241
 20
51.77257962719037
 30
0.0
 40
0.015888778544
100
AcDbArc
 50
0.0
 51
180.0
  0
LINE
  5
574A
330
19
100
AcDbEntity
  8
JB-55B
  6
HIDDEN2
 62
     4
100
AcDbLine
 10
73.64525275333834
 20
51.43852850475422
 30
0.0
 11
73.87799853279147
 21
51.43852850475422
 31
0.0
  0
LWPOLYLINE
  5
574B
330
19
100
AcDbEntity
  8
JB-55B
  6
HIDDEN2
 62
     4
100
AcDbPolyline
 90
        4
 70
     0
 43
0.0
 10
73.70402882084291
 20
51.77257962719037
 10
73.67811002859349
 20
51.47632647615511
 10
73.64525275333834
 20
51.43852850475422
 10
73.64525275333834
 20
51.43396218957053
  0
LINE
  5
574C
330
19
100
AcDbEntity
  8
JB-55B
  6
HIDDEN2
 62
     4
100
AcDbLine
 10
73.84514125753632
 20
51.4763264761551
 30
0.0
 11
73.67811002859349
 21
51.47632647615511
 31
0.0
  0
LWPOLYLINE
  5
574D
330
19
100
AcDbEntity
  8
JB-55T
  6
HIDDEN2
 62
     4
100
AcDbPolyline
 90
        4
 70
     0
 43
0.0
 10
73.86586966022571
 20
52.35432262663865
 10
73.85584374134038
 20
51.77993811838438
 10
73.66815754478938
 20
51.77993811838438
 10
73.66423921414099
 20
52.00441913088692
  0
LINE
  5
574E
330
19
100
AcDbEntity
  8
JB-55T
100
AcDbLine
 10
73.5118739053264
 20
51.80873652949537
 30
0.0
 11
73.69807052888889
 21
51.80873652949537
 31
0.0
  0
LINE
  5
574F
330
19
100
AcDbEntity
  8
JB-55B
100
AcDbLine
 10
73.51187390532641
 20
51.77257962719037
 30
0.0
 11
73.69807052888891
 21
51.77257962719037
 31
0.0
  0
LWPOLYLINE
  5
5750
330
19
100
AcDbEntity
  8
JB-55T
  6
HIDDEN2
 62
     4
100
AcDbPolyline
 90
        4
 70
     0
 43
0.0
 10
73.80718435704938
 20
51.77993811838438
 10
73.80151622772533
 20
52.10466502987738
 10
73.72248505840443
 20
52.10466502987738
 10
73.71681692908038
 20
51.77993811838438
  0
LWPOLYLINE
  5
5751
330
19
100
AcDbEntity
  8
JB-55T
  6
HIDDEN2
 62
     4
100
AcDbPolyline
 90
        3
 70
     0
 43
0.0
 10
73.56053328961739
 20
51.80873652949537
 10
73.56053328961739
 20
51.83952103792437
 10
73.69960121555124
 20
51.83952103792437
  0
LWPOLYLINE
  5
5752
330
19
100
AcDbEntity
  8
JB-55B
  6
HIDDEN2
 62
     4
100
AcDbPolyline
 90
        4
 70
     0
 43
0.0
 10
73.69807052888891
 20
51.77257962719037
 10
73.69807052888891
 20
51.83414864404838
 10
73.5625193869354
 20
51.83414864404838
 10
73.5625193869354
 20
51.77257962719037
  0
LWPOLYLINE
  5
5753
330
19
100
AcDbEntity
  8
JB-55B
  6
HIDDEN2
 62
     4
100
AcDbPolyline
 90
        2
 70
     0
 43
0.0
 10
73.63402131032135
 20
51.77285692461131
 10
73.63186327641876
 20
51.64922324513436
  0
ARC
  5
5754
330
19
100
AcDbEntity
  8
JB-55B
  6
HIDDEN2
 62
     4
100
AcDbCircle
 10
73.64990766892741
 20
51.77257962719037
 30
0.0
 40
0.015888778544
100
AcDbArc
 50
0.0000000000008142
 51
180.0000000000007
  0
LINE
  5
5755
330
19
100
AcDbEntity
  8
JB-55B
  6
HIDDEN2
 62
     4
100
AcDbLine
 10
73.69807052888891
 20
51.77257962719037
 30
0.0
 11
73.85745483865841
 21
51.77257962719037
 31
0.0
  0
LWPOLYLINE
  5
5756
330
19
100
AcDbEntity
  8
JB-55B
  6
HIDDEN2
 62
     4
100
AcDbPolyline
 90
        2
 70
     0
 43
0.0
 10
73.88922997580848
 20
51.77285692461132
 10
73.89379358673256
 20
51.51140782987337
  0
LINE
  5
5757
330
19
100
AcDbEntity
  8
JB-55B
  6
CENTER2
 62
     1
100
AcDbLine
 10
76.1369980353929
 20
51.17605529769037
 30
0.0
 11
76.1369980353929
 21
53.00605529769037
 31
0.0
  0
LWPOLYLINE
  5
5758
330
19
100
AcDbEntity
  8
JB-55B
  6
HIDDEN2
 62
     4
100
AcDbPolyline
 90
        4
 70
     0
 43
0.0
 10
74.19757400436592
 20
51.27605529769038
 10
74.19757400436592
 20
51.28598578428037
 10
74.7020427231379
 20
51.28598578428037
 10
74.7020427231379
 20
51.27605529769038
  0
LWPOLYLINE
  5
5759
330
19
100
AcDbEntity
  8
JB-55B
  6
HIDDEN2
 62
     4
100
AcDbPolyline
 90
        4
 70
     0
 43
0.0
 10
74.03878683822883
 20
51.37635321224937
 10
74.0431549378914
 20
51.62660147431737
 10
74.23084113444241
 20
51.62660147431737
 10
74.23520923410497
 20
51.37635321224937
  0
LINE
  5
575A
330
19
100
AcDbEntity
  8
JB-55B
  6
HIDDEN2
 62
     4
100
AcDbLine
 10
74.1821817501514
 20
51.62660147431737
 30
0.0
 11
74.17781365048883
 21
51.37635321224937
 31
0.0
  0
LINE
  5
575B
330
19
100
AcDbEntity
  8
JB-55B
  6
HIDDEN2
 62
     4
100
AcDbLine
 10
74.0918143221824
 20
51.62660147431737
 30
0.0
 11
74.09618242184497
 21
51.37635321224937
 31
0.0
  0
LINE
  5
575C
330
19
100
AcDbEntity
  8
JB-55T
  6
HIDDEN2
 62
     4
100
AcDbLine
 10
74.46669019095489
 20
52.53068290458838
 30
0.0
 11
74.47105829061746
 21
52.78093116665637
 31
0.0
  0
LINE
  5
575D
330
19
100
AcDbEntity
  8
JB-55T
  6
HIDDEN2
 62
     4
100
AcDbLine
 10
74.55705761892389
 20
52.53068290458838
 30
0.0
 11
74.55268951926132
 21
52.78093116665637
 31
0.0
  0
LWPOLYLINE
  5
575E
330
19
100
AcDbEntity
  8
JB-55T
  6
HIDDEN2
 62
     4
100
AcDbPolyline
 90
        4
 70
     0
 43
0.0
 10
74.61008510287746
 20
52.78093116665637
 10
74.60571700321489
 20
52.53068290458838
 10
74.41803080666383
 20
52.53068290458838
 10
74.41366270700132
 20
52.78093116665638
  0
LINE
  5
575F
330
19
100
AcDbEntity
  8
JB-55T
  6
HIDDEN2
 62
     4
100
AcDbLine
 10
74.40285404402041
 20
52.89627078926137
 30
0.0
 11
74.40285404402041
 21
52.90605529769037
 31
0.0
  0
INSERT
  5
5760
330
19
100
AcDbEntity
  8
JB-55B
100
AcDbBlockReference
  2
CL
 10
76.1369980353929
 20
53.00605529769037
 30
0.0
  0
ARC
  5
5761
330
19
100
AcDbEntity
  8
JB-55B
  6
HIDDEN2
 62
     4
100
AcDbCircle
 10
73.85889018815397
 20
55.87976340430721
 30
0.0
 40
0.1752730883135043
100
AcDbArc
 50
253.0170660770219
 51
106.982933922978
  0
LINE
  5
5762
330
19
100
AcDbEntity
  8
JB-55T
100
AcDbLine
 10
73.97568407072791
 20
55.89299473955522
 30
0.0
 11
74.02252892787962
 21
55.87951520430721
 31
0.0
  0
LINE
  5
5763
330
19
100
AcDbEntity
  8
JB-55T
100
AcDbLine
 10
73.67950468582873
 20
55.89299473955522
 30
0.0
 11
73.67814271861892
 21
55.87951520430721
 31
0.0
  0
CIRCLE
  5
5764
330
19
100
AcDbEntity
  8
JB-55T
  6
HIDDEN2
 62
     4
100
AcDbCircle
 10
73.85926518815399
 20
55.87976520430721
 30
0.0
 40
0.0938430982755
  0
CIRCLE
  5
5765
330
19
100
AcDbEntity
  8
JB-55T
  6
HIDDEN2
 62
     4
100
AcDbCircle
 10
73.85926518815399
 20
55.87976520430721
 30
0.0
 40
0.0451837139845
  0
CIRCLE
  5
5766
330
19
100
AcDbEntity
  8
JB-55B
  6
HIDDEN2
 62
     4
100
AcDbCircle
 10
73.85889018815397
 20
55.87976340430721
 30
0.0
 40
0.0575968222219981
  0
CIRCLE
  5
5767
330
19
100
AcDbEntity
  8
JB-55B
  6
HIDDEN2
 62
     4
100
AcDbCircle
 10
73.85889018815397
 20
55.87976340430721
 30
0.0
 40
0.1163728897265607
  0
CIRCLE
  5
5768
330
19
100
AcDbEntity
  8
JB-55B
  6
HIDDEN2
 62
     4
100
AcDbCircle
 10
73.85889018815397
 20
55.87976340430721
 30
0.0
 40
0.1321679436676421
  0
CIRCLE
  5
5769
330
19
100
AcDbEntity
  8
JB-55B
  6
HIDDEN2
 62
     4
100
AcDbCircle
 10
73.85889018815397
 20
55.87976340430721
 30
0.0
 40
0.095829195593499
  0
LINE
  5
576A
330
19
100
AcDbEntity
  8
JB-55T
  6
HIDDEN2
 62
     4
100
AcDbLine
 10
73.79533507397798
 20
55.4301606861097
 30
0.0
 11
73.79533507397798
 21
55.37951520450071
 31
0.0
  0
LINE
  5
576B
330
19
100
AcDbEntity
  8
JB-55T
  6
HIDDEN2
 62
     4
100
AcDbLine
 10
73.76355751688999
 20
55.48378531369571
 30
0.0
 11
73.76355751688999
 21
55.43228747842348
 31
0.0
  0
LINE
  5
576C
330
19
100
AcDbEntity
  8
JB-55T
  6
HIDDEN2
 62
     4
100
AcDbLine
 10
73.79533507397798
 20
55.51556287078371
 30
0.0
 11
73.79533507397798
 21
55.48378531369571
 31
0.0
  0
LINE
  5
576D
330
19
100
AcDbEntity
  8
JB-55B
  6
HIDDEN2
 62
     4
100
AcDbLine
 10
73.79533507397798
 20
55.51556287078371
 30
0.0
 11
73.79533507397798
 21
55.48378531369571
 31
0.0
  0
LINE
  5
576E
330
19
100
AcDbEntity
  8
JB-55B
  6
HIDDEN2
 62
     4
100
AcDbLine
 10
73.79533507397798
 20
55.4301606861097
 30
0.0
 11
73.79533507397798
 21
55.37951520450071
 31
0.0
  0
LINE
  5
576F
330
19
100
AcDbEntity
  8
JB-55B
  6
HIDDEN2
 62
     4
100
AcDbLine
 10
73.76355751688997
 20
55.48378531369571
 30
0.0
 11
73.76355751688997
 21
55.43393816244517
 31
0.0
  0
INSERT
  5
5770
330
19
100
AcDbEntity
  8
JB-55B
100
AcDbBlockReference
  2
CL
 10
73.50913845041549
 20
58.1297634656012
 30
0.0
  0
CIRCLE
  5
5771
330
19
100
AcDbEntity
  8
JB-55T
  6
HIDDEN2
 62
     4
100
AcDbCircle
 10
74.60913845002846
 20
56.50463933514771
 30
0.0
 40
0.0938430982755
  0
CIRCLE
  5
5772
330
19
100
AcDbEntity
  8
JB-55B
  6
HIDDEN2
 62
     4
100
AcDbCircle
 10
74.54707290884099
 20
56.00463933534121
 30
0.0
 40
0.252234359386
  0
CIRCLE
  5
5773
330
19
100
AcDbEntity
  8
JB-55B
  6
HIDDEN2
 62
     4
100
AcDbCircle
 10
74.23426258125598
 20
56.12976346637521
 30
0.0
 40
0.0451837139845
  0
CIRCLE
  5
5774
330
19
100
AcDbEntity
  8
JB-55B
  6
HIDDEN2
 62
     4
100
AcDbCircle
 10
74.23426258125598
 20
56.12976346637521
 30
0.0
 40
0.0938430982755
  0
CIRCLE
  5
5775
330
19
100
AcDbEntity
  8
JB-55T
  6
HIDDEN2
 62
     4
100
AcDbCircle
 10
74.60913845002846
 20
56.50463933514771
 30
0.0
 40
0.0451837139845
  0
CIRCLE
  5
5776
330
19
100
AcDbEntity
  8
JB-55T
  6
HIDDEN2
 62
     4
100
AcDbCircle
 10
74.60913845002846
 20
58.1297634656012
 30
0.0
 40
0.0451837139845
  0
CIRCLE
  5
5777
330
19
100
AcDbEntity
  8
JB-55T
  6
HIDDEN2
 62
     4
100
AcDbCircle
 10
74.60913845002846
 20
58.1297634656012
 30
0.0
 40
0.0938430982755
  0
CIRCLE
  5
5778
330
19
100
AcDbEntity
  8
JB-55B
  6
HIDDEN2
 62
     4
100
AcDbCircle
 10
74.23426258125598
 20
58.1297634656012
 30
0.0
 40
0.0938430982755
  0
CIRCLE
  5
5779
330
19
100
AcDbEntity
  8
JB-55B
  6
HIDDEN2
 62
     4
100
AcDbCircle
 10
74.23426258125598
 20
58.1297634656012
 30
0.0
 40
0.0451837139845
  0
LWPOLYLINE
  5
577A
330
19
100
AcDbEntity
  8
JB-55B
  6
HIDDEN2
 62
     4
100
AcDbPolyline
 90
        4
 70
     0
 43
0.0
 10
78.56996724994289
 20
51.77257962719037
 10
78.5958860421923
 20
51.47632647615511
 10
78.62874331744746
 20
51.43852850475422
 10
78.62874331744746
 20
51.43396218957053
  0
LWPOLYLINE
  5
577B
330
19
100
AcDbEntity
  8
JB-55B
  6
HIDDEN2
 62
     4
100
AcDbPolyline
 90
        4
 70
     0
 43
0.0
 10
78.45477360549889
 20
51.77257962719037
 10
78.42885481324947
 20
51.4763264761551
 10
78.39599753799433
 20
51.43852850475422
 10
78.39599753799433
 20
51.29348430526098
  0
LWPOLYLINE
  5
577C
330
19
100
AcDbEntity
  8
JB-55B
  6
HIDDEN2
 62
     4
100
AcDbPolyline
 90
        2
 70
     0
 43
0.0
 10
78.38476609497732
 20
51.77285692461132
 10
78.38020248405324
 20
51.51140782987337
  0
LWPOLYLINE
  5
577D
330
19
100
AcDbEntity
  8
JB-55B
  6
HIDDEN2
 62
     4
100
AcDbPolyline
 90
        4
 70
     0
 43
0.0
 10
78.03878683668083
 20
51.37635321224937
 10
78.04315493634341
 20
51.62660147431737
 10
78.23084113289441
 20
51.62660147431737
 10
78.23520923255698
 20
51.37635321224937
  0
LWPOLYLINE
  5
577E
330
19
100
AcDbEntity
  8
JB-55B
  6
HIDDEN2
 62
     4
100
AcDbPolyline
 90
        4
 70
     0
 43
0.0
 10
78.0764220664199
 20
51.27605529769038
 10
78.0764220664199
 20
51.28598578428037
 10
77.57195334764789
 20
51.28598578428037
 10
77.57195334764789
 20
51.27605529769038
  0
LINE
  5
577F
330
19
100
AcDbEntity
  8
JB-55B
  6
HIDDEN2
 62
     4
100
AcDbLine
 10
78.09181432063441
 20
51.62660147431737
 30
0.0
 11
78.09618242029697
 21
51.37635321224937
 31
0.0
  0
LINE
  5
5780
330
19
100
AcDbEntity
  8
JB-55B
  6
HIDDEN2
 62
     4
100
AcDbLine
 10
78.62874331744746
 20
51.43852850475422
 30
0.0
 11
78.39599753799433
 21
51.43852850475422
 31
0.0
  0
LINE
  5
5781
330
19
100
AcDbEntity
  8
JB-55B
  6
HIDDEN2
 62
     4
100
AcDbLine
 10
78.42885481324947
 20
51.4763264761551
 30
0.0
 11
78.5958860421923
 21
51.47632647615511
 31
0.0
  0
LWPOLYLINE
  5
5782
330
19
100
AcDbEntity
  8
JB-55B
  6
HIDDEN2
 62
     4
100
AcDbPolyline
 90
        5
 70
     0
 43
0.0
 10
78.33484639710976
 20
51.38245143200883
 10
78.33638058803254
 20
51.47034517110963
 10
78.33709733940739
 20
51.51140782987337
 10
78.43320624075651
 20
51.51140782987337
 10
78.56356539154758
 20
51.51140782987337
  0
LINE
  5
5783
330
19
100
AcDbEntity
  8
JB-55B
  6
HIDDEN2
 62
     4
100
AcDbLine
 10
78.18218174860341
 20
51.62660147431737
 30
0.0
 11
78.17781364894084
 21
51.37635321224937
 31
0.0
  0
LWPOLYLINE
  5
5784
330
19
100
AcDbEntity
  8
JB-55T
  6
HIDDEN2
 62
     4
100
AcDbPolyline
 90
        4
 70
     0
 43
0.0
 10
77.66391096790833
 20
52.78093116665637
 10
77.6682790675709
 20
52.53068290458838
 10
77.85596526412195
 20
52.53068290458838
 10
77.86033336378448
 20
52.78093116665638
  0
LINE
  5
5785
330
19
100
AcDbEntity
  8
JB-55T
  6
HIDDEN2
 62
     4
100
AcDbLine
 10
77.71693845186191
 20
52.53068290458838
 30
0.0
 11
77.72130655152448
 21
52.78093116665637
 31
0.0
  0
LINE
  5
5786
330
19
100
AcDbEntity
  8
JB-55T
  6
HIDDEN2
 62
     4
100
AcDbLine
 10
77.8073058798309
 20
52.53068290458838
 30
0.0
 11
77.80293778016833
 21
52.78093116665637
 31
0.0
  0
LINE
  5
5787
330
19
100
AcDbEntity
  8
JB-55T
  6
HIDDEN2
 62
     4
100
AcDbLine
 10
77.8711420267654
 20
52.89627078926137
 30
0.0
 11
77.8711420267654
 21
52.90605529769037
 31
0.0
  0
LWPOLYLINE
  5
5788
330
19
100
AcDbEntity
  8
JB-55T
100
AcDbPolyline
 90
        4
 70
     0
 43
0.0
 10
78.69311789725594
 20
52.06129872107482
 10
78.69175593004614
 20
52.11331015043044
 10
78.39557654514696
 20
52.6263078932303
 10
78.35121430964275
 20
52.65349310611093
  0
LWPOLYLINE
  5
5789
330
19
100
AcDbEntity
  8
JB-55T
  6
HIDDEN2
 62
     4
100
AcDbPolyline
 90
        4
 70
     0
 43
0.0
 10
78.40812641056007
 20
52.35432262663865
 10
78.4181523294454
 20
51.77993811838438
 10
78.6058385259964
 20
51.77993811838438
 10
78.60975685664479
 20
52.00441913088692
  0
LWPOLYLINE
  5
578A
330
19
100
AcDbEntity
  8
JB-55T
  6
HIDDEN2
 62
     4
100
AcDbPolyline
 90
        4
 70
     0
 43
0.0
 10
78.4668117137364
 20
51.77993811838438
 10
78.47247984306045
 20
52.10466502987738
 10
78.55151101238135
 20
52.10466502987738
 10
78.5571791417054
 20
51.77993811838438
  0
LINE
  5
578B
330
19
100
AcDbEntity
  8
JB-55B
  6
HIDDEN2
 62
     4
100
AcDbLine
 10
78.62408840185839
 20
51.78846840573437
 30
0.0
 11
78.40065245358339
 21
51.78846840573437
 31
0.0
  0
LINE
  5
578C
330
19
100
AcDbEntity
  8
JB-55B
  6
HIDDEN2
 62
     4
100
AcDbLine
 10
78.5759255418969
 20
51.77257962719037
 30
0.0
 11
78.41654123212738
 21
51.77257962719037
 31
0.0
  0
ARC
  5
578D
330
19
100
AcDbEntity
  8
JB-55B
  6
HIDDEN2
 62
     4
100
AcDbCircle
 10
78.40065245358339
 20
51.77257962719037
 30
0.0
 40
0.015888778544
100
AcDbArc
 50
0.000000000000007
 51
180.0
  0
LWPOLYLINE
  5
578E
330
19
100
AcDbEntity
  8
JB-55T
  6
HIDDEN2
 62
     4
100
AcDbPolyline
 90
        3
 70
     0
 43
0.0
 10
78.71346278116842
 20
51.80873652949538
 10
78.71346278116842
 20
51.83952103792438
 10
78.57439485523456
 20
51.83952103792438
  0
LWPOLYLINE
  5
578F
330
19
100
AcDbEntity
  8
JB-55B
  6
HIDDEN2
 62
     4
100
AcDbPolyline
 90
        4
 70
     0
 43
0.0
 10
78.5759255418969
 20
51.77257962719037
 10
78.5759255418969
 20
51.83414864404838
 10
78.71147668385041
 20
51.83414864404838
 10
78.71147668385041
 20
51.77257962719037
  0
LINE
  5
5790
330
19
100
AcDbEntity
  8
JB-55T
100
AcDbLine
 10
78.76212216545941
 20
51.80873652949538
 30
0.0
 11
78.5759255418969
 21
51.80873652949538
 31
0.0
  0
LINE
  5
5791
330
19
100
AcDbEntity
  8
JB-55B
100
AcDbLine
 10
78.7621221654594
 20
51.77257962719037
 30
0.0
 11
78.5759255418969
 21
51.77257962719037
 31
0.0
  0
ARC
  5
5792
330
19
100
AcDbEntity
  8
JB-55B
  6
HIDDEN2
 62
     4
100
AcDbCircle
 10
78.62408840185839
 20
51.77257962719037
 30
0.0
 40
0.015888778544
100
AcDbArc
 50
359.9999999999992
 51
179.9999999999991
  0
LWPOLYLINE
  5
5793
330
19
100
AcDbEntity
  8
JB-55B
  6
HIDDEN2
 62
     4
100
AcDbPolyline
 90
        2
 70
     0
 43
0.0
 10
78.63997476046446
 20
51.77285692461131
 10
78.64213279436704
 20
51.64922324513436
  0
CIRCLE
  5
5794
330
19
100
AcDbEntity
  8
JB-55T
  6
HIDDEN2
 62
     4
100
AcDbCircle
 10
77.85938671093546
 20
56.50463933514771
 30
0.0
 40
0.0938430982755
  0
CIRCLE
  5
5795
330
19
100
AcDbEntity
  8
JB-55B
  6
HIDDEN2
 62
     4
100
AcDbCircle
 10
78.23426257970798
 20
56.12976346637521
 30
0.0
 40
0.0938430982755
  0
CIRCLE
  5
5796
330
19
100
AcDbEntity
  8
JB-55B
  6
HIDDEN2
 62
     4
100
AcDbCircle
 10
77.92145225212298
 20
56.00463933534121
 30
0.0
 40
0.252234359386
  0
CIRCLE
  5
5797
330
19
100
AcDbEntity
  8
JB-55B
  6
HIDDEN2
 62
     4
100
AcDbCircle
 10
78.23426257970798
 20
56.12976346637521
 30
0.0
 40
0.0451837139845
  0
LINE
  5
5798
330
19
100
AcDbEntity
  8
JB-55T
100
AcDbLine
 10
78.7890204751352
 20
55.89299473955522
 30
0.0
 11
78.79038244234502
 21
55.87951520430721
 31
0.0
  0
LINE
  5
5799
330
19
100
AcDbEntity
  8
JB-55T
100
AcDbLine
 10
78.49284109023606
 20
55.89299473955522
 30
0.0
 11
78.44599623308432
 21
55.87951520430721
 31
0.0
  0
CIRCLE
  5
579A
330
19
100
AcDbEntity
  8
JB-55T
  6
HIDDEN2
 62
     4
100
AcDbCircle
 10
78.60925997280998
 20
55.87976520430721
 30
0.0
 40
0.0451837139845
  0
CIRCLE
  5
579B
330
19
100
AcDbEntity
  8
JB-55T
  6
HIDDEN2
 62
     4
100
AcDbCircle
 10
78.60925997280998
 20
55.87976520430721
 30
0.0
 40
0.0938430982755
  0
CIRCLE
  5
579C
330
19
100
AcDbEntity
  8
JB-55B
  6
HIDDEN2
 62
     4
100
AcDbCircle
 10
78.60963497280997
 20
55.87976340430721
 30
0.0
 40
0.0575968222219981
  0
ARC
  5
579D
330
19
100
AcDbEntity
  8
JB-55B
  6
HIDDEN2
 62
     4
100
AcDbCircle
 10
78.60963497280997
 20
55.87976340430721
 30
0.0
 40
0.1752730883135043
100
AcDbArc
 50
73.01706607702199
 51
286.982933922978
  0
CIRCLE
  5
579E
330
19
100
AcDbEntity
  8
JB-55B
  6
HIDDEN2
 62
     4
100
AcDbCircle
 10
78.60963497280997
 20
55.87976340430721
 30
0.0
 40
0.1163728897265607
  0
CIRCLE
  5
579F
330
19
100
AcDbEntity
  8
JB-55B
  6
HIDDEN2
 62
     4
100
AcDbCircle
 10
78.60963497280997
 20
55.87976340430721
 30
0.0
 40
0.1321679436676421
  0
CIRCLE
  5
57A0
330
19
100
AcDbEntity
  8
JB-55B
  6
HIDDEN2
 62
     4
100
AcDbCircle
 10
78.60963497280997
 20
55.87976340430721
 30
0.0
 40
0.095829195593499
  0
LINE
  5
57A1
330
19
100
AcDbEntity
  8
JB-55T
  6
HIDDEN2
 62
     4
100
AcDbLine
 10
78.67319008698598
 20
55.51556287078371
 30
0.0
 11
78.67319008698598
 21
55.48378531369571
 31
0.0
  0
LINE
  5
57A2
330
19
100
AcDbEntity
  8
JB-55T
  6
HIDDEN2
 62
     4
100
AcDbLine
 10
78.70496764407397
 20
55.48378531369571
 30
0.0
 11
78.70496764407397
 21
55.43228747842348
 31
0.0
  0
LINE
  5
57A3
330
19
100
AcDbEntity
  8
JB-55T
  6
HIDDEN2
 62
     4
100
AcDbLine
 10
78.67319008698598
 20
55.4301606861097
 30
0.0
 11
78.67319008698598
 21
55.37951520450071
 31
0.0
  0
LINE
  5
57A4
330
19
100
AcDbEntity
  8
JB-55B
  6
HIDDEN2
 62
     4
100
AcDbLine
 10
78.70496764407397
 20
55.48378531369571
 30
0.0
 11
78.70496764407397
 21
55.43393816244517
 31
0.0
  0
LINE
  5
57A5
330
19
100
AcDbEntity
  8
JB-55B
  6
HIDDEN2
 62
     4
100
AcDbLine
 10
78.67319008698598
 20
55.51556287078371
 30
0.0
 11
78.67319008698598
 21
55.48378531369571
 31
0.0
  0
LINE
  5
57A6
330
19
100
AcDbEntity
  8
JB-55B
  6
HIDDEN2
 62
     4
100
AcDbLine
 10
78.67319008698598
 20
55.4301606861097
 30
0.0
 11
78.67319008698598
 21
55.37951520450071
 31
0.0
  0
CIRCLE
  5
57A7
330
19
100
AcDbEntity
  8
JB-55B
  6
HIDDEN2
 62
     4
100
AcDbCircle
 10
78.23426257970798
 20
58.12976346560121
 30
0.0
 40
0.0938430982755
  0
CIRCLE
  5
57A8
330
19
100
AcDbEntity
  8
JB-55T
  6
HIDDEN2
 62
     4
100
AcDbCircle
 10
77.85938671093546
 20
56.50463933514771
 30
0.0
 40
0.0451837139845
  0
CIRCLE
  5
57A9
330
19
100
AcDbEntity
  8
JB-55T
  6
HIDDEN2
 62
     4
100
AcDbCircle
 10
77.85938671093546
 20
58.12976346560121
 30
0.0
 40
0.0451837139845
  0
CIRCLE
  5
57AA
330
19
100
AcDbEntity
  8
JB-55T
  6
HIDDEN2
 62
     4
100
AcDbCircle
 10
77.85938671093546
 20
58.12976346560121
 30
0.0
 40
0.0938430982755
  0
CIRCLE
  5
57AB
330
19
100
AcDbEntity
  8
JB-55B
  6
HIDDEN2
 62
     4
100
AcDbCircle
 10
78.23426257970798
 20
58.12976346560121
 30
0.0
 40
0.0451837139845
  0
LINE
  5
57AC
330
19
100
AcDbEntity
  8
JB-55T
  6
HIDDEN2
 62
     4
100
AcDbLine
 10
73.76355751688996
 20
60.77574161750671
 30
0.0
 11
78.70496764407397
 21
60.77574161750671
 31
0.0
  0
LINE
  5
57AD
330
19
100
AcDbEntity
  8
JB-55B
  6
HIDDEN2
 62
     4
100
AcDbLine
 10
73.76355751688997
 20
60.7757416175067
 30
0.0
 11
78.70496764407397
 21
60.77574161750671
 31
0.0
  0
ARC
  5
57AE
330
19
100
AcDbEntity
  8
JB-55B
  6
HIDDEN2
 62
     4
100
AcDbCircle
 10
73.85889018815397
 20
60.37976352689521
 30
0.0
 40
0.1752730883135043
100
AcDbArc
 50
253.0170660770219
 51
106.982933922978
  0
CIRCLE
  5
57AF
330
19
100
AcDbEntity
  8
JB-55T
  6
HIDDEN2
 62
     4
100
AcDbCircle
 10
73.85926518815397
 20
60.37976172689521
 30
0.0
 40
0.0938430982755
  0
CIRCLE
  5
57B0
330
19
100
AcDbEntity
  8
JB-55B
  6
HIDDEN2
 62
     4
100
AcDbCircle
 10
73.85889018815397
 20
60.37976352689521
 30
0.0
 40
0.095829195593499
  0
CIRCLE
  5
57B1
330
19
100
AcDbEntity
  8
JB-55B
  6
HIDDEN2
 62
     4
100
AcDbCircle
 10
73.85889018815397
 20
60.37976352689521
 30
0.0
 40
0.1321679436676421
  0
CIRCLE
  5
57B2
330
19
100
AcDbEntity
  8
JB-55B
  6
HIDDEN2
 62
     4
100
AcDbCircle
 10
73.85889018815397
 20
60.37976352689521
 30
0.0
 40
0.1163728897265607
  0
CIRCLE
  5
57B3
330
19
100
AcDbEntity
  8
JB-55T
  6
HIDDEN2
 62
     4
100
AcDbCircle
 10
73.85926518815397
 20
60.37976172689521
 30
0.0
 40
0.0451837139845
  0
CIRCLE
  5
57B4
330
19
100
AcDbEntity
  8
JB-55B
  6
HIDDEN2
 62
     4
100
AcDbCircle
 10
73.85889018815397
 20
60.37976352689521
 30
0.0
 40
0.0575968222219981
  0
LINE
  5
57B5
330
19
100
AcDbEntity
  8
JB-55T
100
AcDbLine
 10
73.67950468582873
 20
60.36653219164719
 30
0.0
 11
73.67814271861892
 21
60.3800117268952
 31
0.0
  0
LINE
  5
57B6
330
19
100
AcDbEntity
  8
JB-55T
100
AcDbLine
 10
73.97568407072791
 20
60.36653219164719
 30
0.0
 11
74.02252892787962
 21
60.3800117268952
 31
0.0
  0
LINE
  5
57B7
330
19
100
AcDbEntity
  8
JB-55T
  6
HIDDEN2
 62
     4
100
AcDbLine
 10
73.76355751688996
 20
60.77574161750671
 30
0.0
 11
73.76355751688996
 21
60.82723945277894
 31
0.0
  0
LINE
  5
57B8
330
19
100
AcDbEntity
  8
JB-55T
  6
HIDDEN2
 62
     4
100
AcDbLine
 10
73.79533507397798
 20
60.7439640604187
 30
0.0
 11
73.79533507397798
 21
60.77574161750671
 31
0.0
  0
LINE
  5
57B9
330
19
100
AcDbEntity
  8
JB-55T
  6
HIDDEN2
 62
     4
100
AcDbLine
 10
73.79533507397798
 20
60.8293662450927
 30
0.0
 11
73.79533507397798
 21
60.88001172670171
 31
0.0
  0
LINE
  5
57BA
330
19
100
AcDbEntity
  8
JB-55B
  6
HIDDEN2
 62
     4
100
AcDbLine
 10
73.76355751688997
 20
60.7757416175067
 30
0.0
 11
73.76355751688997
 21
60.82558876875725
 31
0.0
  0
LINE
  5
57BB
330
19
100
AcDbEntity
  8
JB-55B
  6
HIDDEN2
 62
     4
100
AcDbLine
 10
73.79533507397797
 20
60.7439640604187
 30
0.0
 11
73.79533507397797
 21
60.7757416175067
 31
0.0
  0
LINE
  5
57BC
330
19
100
AcDbEntity
  8
JB-55B
  6
HIDDEN2
 62
     4
100
AcDbLine
 10
73.79533507397797
 20
60.82936624509271
 30
0.0
 11
73.79533507397797
 21
60.8800117267017
 31
0.0
  0
INSERT
  5
57BD
330
19
100
AcDbEntity
  8
JB-55B
100
AcDbBlockReference
  2
CL
 10
76.23426258048198
 20
60.9800117267017
 30
0.0
  0
CIRCLE
  5
57BE
330
19
100
AcDbEntity
  8
JB-55T
  6
HIDDEN2
 62
     4
100
AcDbCircle
 10
74.60913845002846
 20
59.75488759605471
 30
0.0
 40
0.0938430982755
  0
CIRCLE
  5
57BF
330
19
100
AcDbEntity
  8
JB-55T
  6
HIDDEN2
 62
     4
100
AcDbCircle
 10
74.60913845002846
 20
59.75488759605471
 30
0.0
 40
0.0451837139845
  0
CIRCLE
  5
57C0
330
19
100
AcDbEntity
  8
JB-55B
  6
HIDDEN2
 62
     4
100
AcDbCircle
 10
74.54707290884099
 20
60.25488759586121
 30
0.0
 40
0.252234359386
  0
CIRCLE
  5
57C1
330
19
100
AcDbEntity
  8
JB-55B
  6
HIDDEN2
 62
     4
100
AcDbCircle
 10
74.23426258125598
 20
60.12976346482721
 30
0.0
 40
0.0451837139845
  0
CIRCLE
  5
57C2
330
19
100
AcDbEntity
  8
JB-55B
  6
HIDDEN2
 62
     4
100
AcDbCircle
 10
74.23426258125598
 20
60.12976346482721
 30
0.0
 40
0.0938430982755
  0
CIRCLE
  5
57C3
330
19
100
AcDbEntity
  8
JB-55B
  6
HIDDEN2
 62
     4
100
AcDbCircle
 10
78.23426257970798
 20
60.12976346482721
 30
0.0
 40
0.0938430982755
  0
CIRCLE
  5
57C4
330
19
100
AcDbEntity
  8
JB-55T
  6
HIDDEN2
 62
     4
100
AcDbCircle
 10
77.85938671093546
 20
59.75488759605472
 30
0.0
 40
0.0938430982755
  0
CIRCLE
  5
57C5
330
19
100
AcDbEntity
  8
JB-55T
  6
HIDDEN2
 62
     4
100
AcDbCircle
 10
77.85938671093546
 20
59.75488759605472
 30
0.0
 40
0.0451837139845
  0
CIRCLE
  5
57C6
330
19
100
AcDbEntity
  8
JB-55B
  6
HIDDEN2
 62
     4
100
AcDbCircle
 10
77.92145225212298
 20
60.25488759586121
 30
0.0
 40
0.252234359386
  0
CIRCLE
  5
57C7
330
19
100
AcDbEntity
  8
JB-55B
  6
HIDDEN2
 62
     4
100
AcDbCircle
 10
78.23426257970798
 20
60.12976346482721
 30
0.0
 40
0.0451837139845
  0
CIRCLE
  5
57C8
330
19
100
AcDbEntity
  8
JB-55T
  6
HIDDEN2
 62
     4
100
AcDbCircle
 10
78.60925997280998
 20
60.37976172689521
 30
0.0
 40
0.0938430982755
  0
CIRCLE
  5
57C9
330
19
100
AcDbEntity
  8
JB-55B
  6
HIDDEN2
 62
     4
100
AcDbCircle
 10
78.60963497280997
 20
60.37976352689521
 30
0.0
 40
0.095829195593499
  0
CIRCLE
  5
57CA
330
19
100
AcDbEntity
  8
JB-55B
  6
HIDDEN2
 62
     4
100
AcDbCircle
 10
78.60963497280997
 20
60.37976352689521
 30
0.0
 40
0.1163728897265607
  0
CIRCLE
  5
57CB
330
19
100
AcDbEntity
  8
JB-55B
  6
HIDDEN2
 62
     4
100
AcDbCircle
 10
78.60963497280997
 20
60.37976352689521
 30
0.0
 40
0.1321679436676421
  0
ARC
  5
57CC
330
19
100
AcDbEntity
  8
JB-55B
  6
HIDDEN2
 62
     4
100
AcDbCircle
 10
78.60963497280997
 20
60.37976352689521
 30
0.0
 40
0.1752730883135043
100
AcDbArc
 50
73.01706607702199
 51
286.982933922978
  0
CIRCLE
  5
57CD
330
19
100
AcDbEntity
  8
JB-55T
  6
HIDDEN2
 62
     4
100
AcDbCircle
 10
78.60925997280998
 20
60.37976172689521
 30
0.0
 40
0.0451837139845
  0
CIRCLE
  5
57CE
330
19
100
AcDbEntity
  8
JB-55B
  6
HIDDEN2
 62
     4
100
AcDbCircle
 10
78.60963497280997
 20
60.37976352689521
 30
0.0
 40
0.0575968222219981
  0
LINE
  5
57CF
330
19
100
AcDbEntity
  8
JB-55T
100
AcDbLine
 10
78.49284109023606
 20
60.36653219164719
 30
0.0
 11
78.44599623308434
 21
60.3800117268952
 31
0.0
  0
LINE
  5
57D0
330
19
100
AcDbEntity
  8
JB-55T
100
AcDbLine
 10
78.78902047513523
 20
60.36653219164719
 30
0.0
 11
78.79038244234502
 21
60.3800117268952
 31
0.0
  0
LINE
  5
57D1
330
19
100
AcDbEntity
  8
JB-55T
  6
HIDDEN2
 62
     4
100
AcDbLine
 10
78.70496764407397
 20
60.77574161750671
 30
0.0
 11
78.70496764407397
 21
60.82723945277895
 31
0.0
  0
LINE
  5
57D2
330
19
100
AcDbEntity
  8
JB-55T
  6
HIDDEN2
 62
     4
100
AcDbLine
 10
78.67319008698598
 20
60.74396406041872
 30
0.0
 11
78.67319008698598
 21
60.77574161750671
 31
0.0
  0
LINE
  5
57D3
330
19
100
AcDbEntity
  8
JB-55T
  6
HIDDEN2
 62
     4
100
AcDbLine
 10
78.67319008698598
 20
60.82936624509271
 30
0.0
 11
78.67319008698598
 21
60.88001172670171
 31
0.0
  0
LINE
  5
57D4
330
19
100
AcDbEntity
  8
JB-55B
  6
HIDDEN2
 62
     4
100
AcDbLine
 10
78.70496764407397
 20
60.77574161750671
 30
0.0
 11
78.70496764407397
 21
60.82558876875726
 31
0.0
  0
LINE
  5
57D5
330
19
100
AcDbEntity
  8
JB-55B
  6
HIDDEN2
 62
     4
100
AcDbLine
 10
78.67319008698598
 20
60.74396406041871
 30
0.0
 11
78.67319008698598
 21
60.77574161750671
 31
0.0
  0
LINE
  5
57D6
330
19
100
AcDbEntity
  8
JB-55B
  6
HIDDEN2
 62
     4
100
AcDbLine
 10
78.67319008698598
 20
60.82936624509271
 30
0.0
 11
78.67319008698598
 21
60.88001172670171
 31
0.0
  0
LWPOLYLINE
  5
57D7
330
19
100
AcDbEntity
  8
JB-55B
  6
HIDDEN2
 62
     4
100
AcDbPolyline
 90
        4
 70
     0
 43
0.0
 10
85.37072518110061
 20
56.61486773629671
 10
85.36072518110449
 20
56.61486773629671
 10
85.36072518110449
 20
59.64465919490571
 10
85.37072518110063
 20
59.64465919490571
  0
LWPOLYLINE
  5
57D8
330
19
100
AcDbEntity
  8
JB-55T
  6
HIDDEN2
 62
     4
100
AcDbPolyline
 90
        4
 70
     0
 43
0.0
 10
83.74072518110061
 20
60.64388337525386
 10
83.7505096895296
 20
60.64388337525386
 10
83.7505096895296
 20
55.61409191741887
 10
83.74072518110059
 20
55.61409191741887
  0
LINE
  5
57D9
330
19
100
AcDbEntity
  8
JB-55T
  6
HIDDEN2
 62
     4
100
AcDbLine
 10
83.86584931213461
 20
60.72767185585698
 30
0.0
 11
83.86584931213461
 21
55.53030343681574
 31
0.0
  0
LINE
  5
57DA
330
19
100
AcDbEntity
  8
JB-55T
  6
HIDDEN2
 62
     4
100
AcDbLine
 10
84.80725944086659
 20
60.82859042582786
 30
0.0
 11
84.80725944086659
 21
55.42938486684487
 31
0.0
  0
LINE
  5
57DB
330
19
100
AcDbEntity
  8
JB-55T
100
AcDbLine
 10
84.58548175771616
 20
60.37923590763035
 30
0.0
 11
84.58548175771616
 21
55.87873938504237
 31
0.0
  0
LINE
  5
57DC
330
19
100
AcDbEntity
  8
JB-55T
100
AcDbLine
 10
84.53347032836054
 20
60.36575637238234
 30
0.0
 11
84.53347032836052
 21
55.89221892029037
 31
0.0
  0
LINE
  5
57DD
330
19
100
AcDbEntity
  8
JB-55T
100
AcDbLine
 10
83.98898734585062
 20
60.37923590763035
 30
0.0
 11
83.9889873458506
 21
55.87873938504237
 31
0.0
  0
LINE
  5
57DE
330
19
100
AcDbEntity
  8
JB-55T
100
AcDbLine
 10
84.02047258556068
 20
60.36575637238234
 30
0.0
 11
84.02047258556066
 21
55.89221892029037
 31
0.0
  0
LINE
  5
57DF
330
19
100
AcDbEntity
  8
JB-55T
100
AcDbLine
 10
83.74072518110061
 20
60.69303928387435
 30
0.0
 11
83.74072518110059
 21
55.56493600879837
 31
0.0
  0
LINE
  5
57E0
330
19
100
AcDbEntity
  8
JB-55T
100
AcDbLine
 10
84.8380439492956
 20
60.87923590743685
 30
0.0
 11
84.8380439492956
 21
55.37873938523587
 31
0.0
  0
LINE
  5
57E1
330
19
100
AcDbEntity
  8
JB-55B
  6
HIDDEN2
 62
     4
100
AcDbLine
 10
85.2704272665416
 20
55.56571182806321
 30
0.0
 11
85.2704272665416
 21
60.69226346460951
 31
0.0
  0
LINE
  5
57E2
330
19
100
AcDbEntity
  8
JB-55B
100
AcDbLine
 10
84.8742008516006
 20
55.37951520450071
 30
0.0
 11
84.8742008516006
 21
60.88001172670171
 31
0.0
  0
LINE
  5
57E3
330
19
100
AcDbEntity
  8
JB-55B
  6
HIDDEN2
 62
     4
100
AcDbLine
 10
84.8126318347426
 20
55.4301606861097
 30
0.0
 11
84.8126318347426
 21
60.82936624509271
 31
0.0
  0
LINE
  5
57E4
330
19
100
AcDbEntity
  8
JB-55B
100
AcDbLine
 10
85.37072518110061
 20
55.56571182806321
 30
0.0
 11
85.37072518110061
 21
60.69226346460951
 31
0.0
  0
LWPOLYLINE
  5
57E5
330
19
100
AcDbEntity
  8
JB-55T
  6
HIDDEN2
 62
     4
100
AcDbPolyline
 90
        4
 70
     0
 43
0.0
 10
83.86584931213461
 20
56.40565231794481
 10
84.11609757420258
 20
56.41002041760738
 10
84.11609757420258
 20
56.59770661415837
 10
83.86584931213461
 20
56.60207471382094
  0
LWPOLYLINE
  5
57E6
330
19
100
AcDbEntity
  8
JB-55T
  6
HIDDEN2
 62
     4
100
AcDbPolyline
 90
        4
 70
     0
 43
0.0
 10
84.86684236040659
 20
55.92417309902686
 10
84.54211544891357
 20
55.91850496970281
 10
84.54211544891357
 20
55.83947380038192
 10
84.86684236040659
 20
55.83380567105787
  0
LWPOLYLINE
  5
57E7
330
19
100
AcDbEntity
  8
JB-55T
  6
HIDDEN2
 62
     4
100
AcDbPolyline
 90
        4
 70
     0
 43
0.0
 10
84.47301378625995
 20
55.77827198343455
 10
84.86684236040657
 20
55.78514628676686
 10
84.86684236040659
 20
55.97283248331787
 10
84.47301378625995
 20
55.97970678665018
  0
LINE
  5
57E8
330
19
100
AcDbEntity
  8
JB-55T
  6
HIDDEN2
 62
     4
100
AcDbLine
 10
84.83804394929558
 20
55.42938486684487
 30
0.0
 11
83.89514424757509
 21
55.42938486684487
 31
0.0
  0
LINE
  5
57E9
330
19
100
AcDbEntity
  8
JB-55T
100
AcDbLine
 10
84.83804394929558
 20
55.37873938523587
 30
0.0
 11
83.9269218046631
 21
55.37873938523587
 31
0.0
  0
LINE
  5
57EA
330
19
100
AcDbEntity
  8
JB-55B
  6
HIDDEN2
 62
     4
100
AcDbLine
 10
84.8126318347426
 20
55.4301606861097
 30
0.0
 11
85.2163061146261
 21
55.4301606861097
 31
0.0
  0
LINE
  5
57EB
330
19
100
AcDbEntity
  8
JB-55B
  6
HIDDEN2
 62
     4
100
AcDbLine
 10
84.8126318347426
 20
55.48378531369571
 30
0.0
 11
85.2163061146261
 21
55.48378531369571
 31
0.0
  0
LINE
  5
57EC
330
19
100
AcDbEntity
  8
JB-55B
  6
HIDDEN2
 62
     4
100
AcDbLine
 10
84.8126318347426
 20
55.51556287078371
 30
0.0
 11
85.25426857684029
 21
55.51556287078371
 31
0.0
  0
LINE
  5
57ED
330
19
100
AcDbEntity
  8
JB-55T
100
AcDbLine
 10
84.53347032836052
 20
55.89221892029037
 30
0.0
 11
84.02047258556065
 21
55.89221892029037
 31
0.0
  0
LINE
  5
57EE
330
19
100
AcDbEntity
  8
JB-55T
100
AcDbLine
 10
84.58548175771616
 20
55.87873938504237
 30
0.0
 11
83.98898734585058
 21
55.87873938504237
 31
0.0
  0
LINE
  5
57EF
330
19
100
AcDbEntity
  8
JB-55T
  6
HIDDEN2
 62
     4
100
AcDbLine
 10
84.80725944086659
 20
55.48300949443087
 30
0.0
 11
83.89514424757509
 21
55.48300949443087
 31
0.0
  0
LINE
  5
57F0
330
19
100
AcDbEntity
  8
JB-55T
  6
HIDDEN2
 62
     4
100
AcDbLine
 10
84.80725944086659
 20
55.51478705151886
 30
0.0
 11
83.88136569743146
 21
55.51478705151887
 31
0.0
  0
LINE
  5
57F1
330
19
100
AcDbEntity
  8
JB-55T
100
AcDbLine
 10
83.98898734585058
 20
55.87873938504237
 30
0.0
 11
84.02047258556065
 21
55.89221892029037
 31
0.0
  0
ARC
  5
57F2
330
19
100
AcDbEntity
  8
JB-55T
100
AcDbCircle
 10
83.9269218046631
 20
55.56493600879837
 30
0.0
 40
0.1861966235625
100
AcDbArc
 50
179.9999999999997
 51
269.9999999999997
  0
LINE
  5
57F3
330
19
100
AcDbEntity
  8
JB-55T
  6
HIDDEN2
 62
     4
100
AcDbLine
 10
83.7505096895296
 20
55.64509191741886
 30
0.0
 11
83.74072518110059
 21
55.64509191741886
 31
0.0
  0
ARC
  5
57F4
330
19
100
AcDbEntity
  8
JB-55T
  6
HIDDEN2
 62
     4
100
AcDbCircle
 10
83.88136569743146
 20
55.53030343681574
 30
0.0
 40
0.015516385296875
100
AcDbArc
 50
179.9999999999997
 51
269.9999999999997
  0
LINE
  5
57F5
330
19
100
AcDbEntity
  8
JB-55T
  6
HIDDEN2
 62
     4
100
AcDbLine
 10
83.9269218046631
 20
55.48300949443087
 30
0.0
 11
83.9269218046631
 21
55.51478705151887
 31
0.0
  0
LINE
  5
57F6
330
19
100
AcDbEntity
  8
JB-55T
  6
HIDDEN2
 62
     4
100
AcDbLine
 10
83.89514424757509
 20
55.48300949443087
 30
0.0
 11
83.89514424757509
 21
55.42938486684487
 31
0.0
  0
LINE
  5
57F7
330
19
100
AcDbEntity
  8
JB-55T
  6
HIDDEN2
 62
     4
100
AcDbLine
 10
83.9269218046631
 20
55.42938486684487
 30
0.0
 11
83.9269218046631
 21
55.37873938523587
 31
0.0
  0
LINE
  5
57F8
330
19
100
AcDbEntity
  8
JB-55T
100
AcDbLine
 10
84.53347032836052
 20
55.89221892029037
 30
0.0
 11
84.58548175771616
 21
55.87873938504237
 31
0.0
  0
LWPOLYLINE
  5
57F9
330
19
100
AcDbEntity
  8
JB-55T
  6
HIDDEN2
 62
     4
100
AcDbPolyline
 90
       16
 70
     1
 43
0.0
 10
84.47301378625995
 20
55.97970678665018
 42
0.0570336043824872
 10
84.40066264466459
 20
55.97142696099536
 42
0.0707479349482362
 10
84.34581505850102
 20
55.95020734270274
 42
0.1062580074245512
 10
84.30465434671324
 20
55.91395119112917
 42
0.1605958272241693
 10
84.29312762034667
 20
55.87898938504237
 42
0.1605958272241693
 10
84.30465434671324
 20
55.84402757895557
 42
0.1062580074245512
 10
84.34581505850102
 20
55.80777142738199
 42
0.0707479349482458
 10
84.40066264466459
 20
55.78655180908937
 42
0.0570336043824894
 10
84.47301378625995
 20
55.77827198343455
 42
0.0613061794465907
 10
84.5398631189189
 20
55.78649946034346
 42
0.0746372058441798
 10
84.59104189743507
 20
55.80777142738199
 42
0.1069792445843398
 10
84.62891802921085
 20
55.84348803371693
 42
0.1515408478524677
 10
84.63993074182509
 20
55.87898938504237
 42
0.1515408478524554
 10
84.62891802921085
 20
55.91449073636781
 42
0.1069792445843337
 10
84.59104189743507
 20
55.95020734270274
 42
0.0746372058441755
 10
84.5398631189189
 20
55.97147930974127
 42
0.0613061794465806
  0
LWPOLYLINE
  5
57FA
330
19
100
AcDbEntity
  8
JB-55B
  6
HIDDEN2
 62
     4
100
AcDbPolyline
 90
        4
 70
     0
 43
0.0
 10
85.37072518110061
 20
56.25687369472719
 10
85.3607946945106
 20
56.25687369472719
 10
85.3607946945106
 20
55.75240497595519
 10
85.37072518110061
 20
55.75240497595519
  0
LINE
  5
57FB
330
19
100
AcDbEntity
  8
JB-55B
  6
HIDDEN2
 62
     4
100
AcDbLine
 10
85.17045400263588
 20
55.79624778983578
 30
0.0
 11
85.17045400263588
 21
55.96327901877862
 31
0.0
  0
LINE
  5
57FC
330
19
100
AcDbEntity
  8
JB-55B
  6
HIDDEN2
 62
     4
100
AcDbLine
 10
84.85831207305659
 20
55.9914813784447
 30
0.0
 11
84.85831207305659
 21
55.76804543016971
 31
0.0
  0
LWPOLYLINE
  5
57FD
330
19
100
AcDbEntity
  8
JB-55B
  6
HIDDEN2
 62
     4
100
AcDbPolyline
 90
        9
 70
     0
 43
0.0
 10
85.30506010674169
 20
55.76339051458064
 42
0.198823875839435
 10
85.32071153062158
 20
55.76987042500583
 42
0.0985165631676871
 10
85.33916815666549
 20
55.79747534483527
 42
0.0557847379721551
 10
85.34925674406359
 20
55.83236417322855
 42
0.042533619294729
 10
85.35329617353001
 20
55.87976340430721
 42
0.0425336192947518
 10
85.34925674406359
 20
55.92716263538587
 42
0.055784737972141
 10
85.33916815666549
 20
55.96205146377913
 42
0.0985165631677464
 10
85.32071153062158
 20
55.98965638360859
 42
0.1988238758394179
 10
85.30506010674169
 20
55.99613629403377
  0
LINE
  5
57FE
330
19
100
AcDbEntity
  8
JB-55B
  6
HIDDEN2
 62
     4
100
AcDbLine
 10
85.13537264891763
 20
55.70449031599371
 30
0.0
 11
85.13537264891763
 21
56.05503649262072
 31
0.0
  0
LINE
  5
57FF
330
19
100
AcDbEntity
  8
JB-55B
  6
HIDDEN2
 62
     4
100
AcDbLine
 10
85.20825197403677
 20
55.99613629403378
 30
0.0
 11
85.20825197403677
 21
55.76339051458065
 31
0.0
  0
LWPOLYLINE
  5
5800
330
19
100
AcDbEntity
  8
JB-55B
  6
HIDDEN2
 62
     4
100
AcDbPolyline
 90
        9
 70
     0
 43
0.0
 10
85.30506010674169
 20
55.99613629403378
 42
0.1209709035530626
 10
85.2709060897569
 20
55.98775028898625
 42
0.1051387393195321
 10
85.23983529206345
 20
55.96205146377913
 42
0.0884806234010302
 10
85.22012204072375
 20
55.92542307277604
 42
0.0794751588725295
 10
85.21281828922047
 20
55.87976340430721
 42
0.0794751588724976
 10
85.22012204072375
 20
55.83410373583838
 42
0.0884806234010123
 10
85.23983529206345
 20
55.79747534483527
 42
0.1051387393195156
 10
85.2709060897569
 20
55.77177651962816
 42
0.1209709035530373
 10
85.30506010674169
 20
55.76339051458064
  0
LINE
  5
5801
330
19
100
AcDbEntity
  8
JB-55B
  6
HIDDEN2
 62
     4
100
AcDbLine
 10
84.8742008516006
 20
55.9755925999007
 30
0.0
 11
84.8742008516006
 21
55.78393420871371
 31
0.0
  0
LINE
  5
5802
330
19
100
AcDbEntity
  8
JB-55B
100
AcDbLine
 10
84.8742008516006
 20
55.37951520450071
 30
0.0
 11
85.18452855753812
 21
55.37951520450071
 31
0.0
  0
LINE
  5
5803
330
19
100
AcDbEntity
  8
JB-55B
  6
HIDDEN2
 62
     4
100
AcDbLine
 10
85.2704272665416
 20
55.70213292887422
 30
0.0
 11
85.13537264891763
 21
55.70449031599371
 31
0.0
  0
LINE
  5
5804
330
19
100
AcDbEntity
  8
JB-55B
  6
HIDDEN2
 62
     4
100
AcDbLine
 10
85.17045400263588
 20
55.79624778983578
 30
0.0
 11
85.20825197403677
 21
55.76339051458065
 31
0.0
  0
LINE
  5
5805
330
19
100
AcDbEntity
  8
JB-55B
  6
HIDDEN2
 62
     4
100
AcDbLine
 10
84.8742008516006
 20
55.82216658208521
 30
0.0
 11
85.17045400263588
 21
55.79624778983578
 31
0.0
  0
LINE
  5
5806
330
19
100
AcDbEntity
  8
JB-55B
  6
HIDDEN2
 62
     4
100
AcDbLine
 10
84.87392355417966
 20
55.75215907156365
 30
0.0
 11
85.13537264891763
 21
55.74759546063957
 31
0.0
  0
ARC
  5
5807
330
19
100
AcDbEntity
  8
JB-55B
  6
HIDDEN2
 62
     4
100
AcDbCircle
 10
84.8742008516006
 20
55.76804543016971
 30
0.0
 40
0.015888778544
100
AcDbArc
 50
90.00000000000081
 51
270.0000000000008
  0
ARC
  5
5808
330
19
100
AcDbEntity
  8
JB-55B
100
AcDbCircle
 10
85.18452855753812
 20
55.56571182806321
 30
0.0
 40
0.1861966235625
100
AcDbArc
 50
269.9999999999996
 51
0.0
  0
LINE
  5
5809
330
19
100
AcDbEntity
  8
JB-55B
  6
HIDDEN2
 62
     4
100
AcDbLine
 10
85.2163061146261
 20
55.4301606861097
 30
0.0
 11
85.2163061146261
 21
55.48378531369571
 31
0.0
  0
LINE
  5
580A
330
19
100
AcDbEntity
  8
JB-55B
  6
HIDDEN2
 62
     4
100
AcDbLine
 10
85.18452855753812
 20
55.37951520450068
 30
0.0
 11
85.18452855753812
 21
55.4301606861097
 31
0.0
  0
LINE
  5
580B
330
19
100
AcDbEntity
  8
JB-55B
  6
HIDDEN2
 62
     4
100
AcDbLine
 10
85.18452855753812
 20
55.48378531369571
 30
0.0
 11
85.18452855753812
 21
55.51556287078371
 31
0.0
  0
ARC
  5
580C
330
19
100
AcDbEntity
  8
JB-55B
  6
HIDDEN2
 62
     4
100
AcDbCircle
 10
85.18452855753812
 20
55.56571182806321
 30
0.0
 40
0.0858987090035
100
AcDbArc
 50
324.2806787227116
 51
0.0
  0
LINE
  5
580D
330
19
100
AcDbEntity
  8
JB-55B
  6
HIDDEN2
 62
     4
100
AcDbLine
 10
85.20825197403677
 20
55.76339051458065
 30
0.0
 11
85.30506010674169
 21
55.76339051458065
 31
0.0
  0
LINE
  5
580E
330
19
100
AcDbEntity
  8
JB-55B
  6
HIDDEN2
 62
     4
100
AcDbLine
 10
85.17045400263588
 20
55.96327901877862
 30
0.0
 11
85.20825197403677
 21
55.99613629403378
 31
0.0
  0
LINE
  5
580F
330
19
100
AcDbEntity
  8
JB-55B
  6
HIDDEN2
 62
     4
100
AcDbLine
 10
85.02017900447361
 20
56.0845797523907
 30
0.0
 11
85.2704272665416
 21
56.08894785205327
 31
0.0
  0
LINE
  5
5810
330
19
100
AcDbEntity
  8
JB-55B
  6
HIDDEN2
 62
     4
100
AcDbLine
 10
85.02017900447361
 20
56.0359203680997
 30
0.0
 11
85.2704272665416
 21
56.03155226843713
 31
0.0
  0
LINE
  5
5811
330
19
100
AcDbEntity
  8
JB-55B
  6
HIDDEN2
 62
     4
100
AcDbLine
 10
85.2704272665416
 20
56.0573938797402
 30
0.0
 11
85.13537264891763
 21
56.05503649262072
 31
0.0
  0
LINE
  5
5812
330
19
100
AcDbEntity
  8
JB-55B
  6
HIDDEN2
 62
     4
100
AcDbLine
 10
85.02017900447361
 20
56.22360656465071
 30
0.0
 11
85.2704272665416
 21
56.22797466431327
 31
0.0
  0
LINE
  5
5813
330
19
100
AcDbEntity
  8
JB-55B
  6
HIDDEN2
 62
     4
100
AcDbLine
 10
85.02017900447361
 20
56.1749471803597
 30
0.0
 11
85.2704272665416
 21
56.17057908069713
 31
0.0
  0
LINE
  5
5814
330
19
100
AcDbEntity
  8
JB-55B
  6
HIDDEN2
 62
     4
100
AcDbLine
 10
85.02017900447361
 20
56.0359203680997
 30
0.0
 11
85.02017900447361
 21
56.22360656465071
 31
0.0
  0
LINE
  5
5815
330
19
100
AcDbEntity
  8
JB-55B
  6
HIDDEN2
 62
     4
100
AcDbLine
 10
84.87392355417966
 20
56.00736773705077
 30
0.0
 11
85.13537264891763
 21
56.01193134797485
 31
0.0
  0
LINE
  5
5816
330
19
100
AcDbEntity
  8
JB-55B
  6
HIDDEN2
 62
     4
100
AcDbLine
 10
84.8742008516006
 20
55.93736022652921
 30
0.0
 11
85.17045400263588
 21
55.96327901877862
 31
0.0
  0
ARC
  5
5817
330
19
100
AcDbEntity
  8
JB-55B
  6
HIDDEN2
 62
     4
100
AcDbCircle
 10
84.8742008516006
 20
55.9914813784447
 30
0.0
 40
0.015888778544
100
AcDbArc
 50
89.9999999999992
 51
269.9999999999992
  0
LINE
  5
5818
330
19
100
AcDbEntity
  8
JB-55B
  6
HIDDEN2
 62
     4
100
AcDbLine
 10
85.20825197403677
 20
55.99613629403378
 30
0.0
 11
85.30506010674169
 21
55.99613629403378
 31
0.0
  0
LINE
  5
5819
330
19
100
AcDbEntity
  8
JB-55B
  6
CENTER2
 62
     1
100
AcDbLine
 10
85.47072518110061
 20
58.12898764633636
 30
0.0
 11
83.64072518110061
 21
58.12898764633636
 31
0.0
  0
LINE
  5
581A
330
19
100
AcDbEntity
  8
JB-55T
  6
HIDDEN2
 62
     4
100
AcDbLine
 10
84.11609757420258
 20
56.54904722986738
 30
0.0
 11
83.86584931213461
 21
56.54467913020481
 31
0.0
  0
LINE
  5
581B
330
19
100
AcDbEntity
  8
JB-55T
  6
HIDDEN2
 62
     4
100
AcDbLine
 10
84.11609757420258
 20
56.45867980189837
 30
0.0
 11
83.86584931213461
 21
56.46304790156094
 31
0.0
  0
LWPOLYLINE
  5
581C
330
19
100
AcDbEntity
  8
JB-55T
  6
HIDDEN2
 62
     4
100
AcDbPolyline
 90
        4
 70
     0
 43
0.0
 10
83.86584931213461
 20
58.22719884427441
 10
84.11609757420261
 20
58.22283074461184
 10
84.11609757420261
 20
58.03514454806085
 10
83.86584931213461
 20
58.03077644839827
  0
LINE
  5
581D
330
19
100
AcDbEntity
  8
JB-55T
  6
HIDDEN2
 62
     4
100
AcDbLine
 10
84.11609757420261
 20
58.17417136032084
 30
0.0
 11
83.86584931213461
 21
58.16980326065827
 31
0.0
  0
LINE
  5
581E
330
19
100
AcDbEntity
  8
JB-55T
  6
HIDDEN2
 62
     4
100
AcDbLine
 10
84.11609757420261
 20
58.08380393235184
 30
0.0
 11
83.86584931213461
 21
58.08817203201441
 31
0.0
  0
INSERT
  5
581F
330
19
100
AcDbEntity
  8
JB-55B
100
AcDbBlockReference
  2
CL
 10
83.64072518110061
 20
58.12898764633636
 30
0.0
  0
LINE
  5
5820
330
19
100
AcDbEntity
  8
JB-55B
  6
HIDDEN2
 62
     4
100
AcDbLine
 10
85.02017900447361
 20
58.0359203673257
 30
0.0
 11
85.02017900447361
 21
58.2236065638767
 31
0.0
  0
LINE
  5
5821
330
19
100
AcDbEntity
  8
JB-55B
  6
HIDDEN2
 62
     4
100
AcDbLine
 10
85.02017900447361
 20
58.0359203673257
 30
0.0
 11
85.2704272665416
 21
58.03155226766313
 31
0.0
  0
LINE
  5
5822
330
19
100
AcDbEntity
  8
JB-55B
  6
HIDDEN2
 62
     4
100
AcDbLine
 10
85.02017900447361
 20
58.0845797516167
 30
0.0
 11
85.2704272665416
 21
58.08894785127927
 31
0.0
  0
LINE
  5
5823
330
19
100
AcDbEntity
  8
JB-55B
  6
HIDDEN2
 62
     4
100
AcDbLine
 10
85.02017900447361
 20
58.1749471795857
 30
0.0
 11
85.2704272665416
 21
58.17057907992313
 31
0.0
  0
LINE
  5
5824
330
19
100
AcDbEntity
  8
JB-55B
  6
HIDDEN2
 62
     4
100
AcDbLine
 10
85.02017900447361
 20
58.2236065638767
 30
0.0
 11
85.2704272665416
 21
58.22797466353927
 31
0.0
  0
LWPOLYLINE
  5
5825
330
19
100
AcDbEntity
  8
JB-55T
  6
HIDDEN2
 62
     4
100
AcDbPolyline
 90
        4
 70
     0
 43
0.0
 10
84.47301378625995
 20
60.47970330923817
 10
84.86684236040657
 20
60.47282900590585
 10
84.86684236040659
 20
60.28514280935485
 10
84.47301378625995
 20
60.27826850602254
  0
LWPOLYLINE
  5
5826
330
19
100
AcDbEntity
  8
JB-55T
  6
HIDDEN2
 62
     4
100
AcDbPolyline
 90
        4
 70
     0
 43
0.0
 10
84.86684236040659
 20
60.33380219364585
 10
84.54211544891357
 20
60.3394703229699
 10
84.54211544891357
 20
60.4185014922908
 10
84.86684236040659
 20
60.42416962161485
  0
LINE
  5
5827
330
19
100
AcDbEntity
  8
JB-55T
  6
HIDDEN2
 62
     4
100
AcDbLine
 10
84.8380439492956
 20
60.82859042582786
 30
0.0
 11
83.89514424757512
 21
60.82859042582786
 31
0.0
  0
LINE
  5
5828
330
19
100
AcDbEntity
  8
JB-55T
100
AcDbLine
 10
84.8380439492956
 20
60.87923590743685
 30
0.0
 11
83.9269218046631
 21
60.87923590743685
 31
0.0
  0
LINE
  5
5829
330
19
100
AcDbEntity
  8
JB-55B
  6
HIDDEN2
 62
     4
100
AcDbLine
 10
84.81263183474263
 20
60.77574161750671
 30
0.0
 11
85.21630611462613
 21
60.77574161750671
 31
0.0
  0
LINE
  5
582A
330
19
100
AcDbEntity
  8
JB-55B
  6
HIDDEN2
 62
     4
100
AcDbLine
 10
84.81263183474263
 20
60.74396406041871
 30
0.0
 11
85.25426857684031
 21
60.7439640604187
 31
0.0
  0
LINE
  5
582B
330
19
100
AcDbEntity
  8
JB-55B
  6
HIDDEN2
 62
     4
100
AcDbLine
 10
84.8126318347426
 20
60.82936624509271
 30
0.0
 11
85.21630611462613
 21
60.82936624509271
 31
0.0
  0
LWPOLYLINE
  5
582C
330
19
100
AcDbEntity
  8
JB-55T
  6
HIDDEN2
 62
     4
100
AcDbPolyline
 90
        4
 70
     0
 43
0.0
 10
83.86584931213461
 20
59.85232297472791
 10
84.11609757420261
 20
59.84795487506534
 10
84.11609757420261
 20
59.66026867851435
 10
83.86584931213461
 20
59.65590057885178
  0
LINE
  5
582D
330
19
100
AcDbEntity
  8
JB-55T
  6
HIDDEN2
 62
     4
100
AcDbLine
 10
84.11609757420261
 20
59.70892806280534
 30
0.0
 11
83.86584931213461
 21
59.71329616246791
 31
0.0
  0
LINE
  5
582E
330
19
100
AcDbEntity
  8
JB-55T
  6
HIDDEN2
 62
     4
100
AcDbLine
 10
84.11609757420261
 20
59.79929549077434
 30
0.0
 11
83.86584931213461
 21
59.79492739111178
 31
0.0
  0
LINE
  5
582F
330
19
100
AcDbEntity
  8
JB-55T
100
AcDbLine
 10
84.53347032836054
 20
60.36575637238234
 30
0.0
 11
84.02047258556068
 21
60.36575637238234
 31
0.0
  0
LINE
  5
5830
330
19
100
AcDbEntity
  8
JB-55T
100
AcDbLine
 10
84.58548175771616
 20
60.37923590763035
 30
0.0
 11
83.98898734585062
 21
60.37923590763035
 31
0.0
  0
LINE
  5
5831
330
19
100
AcDbEntity
  8
JB-55T
  6
HIDDEN2
 62
     4
100
AcDbLine
 10
84.80725944086659
 20
60.74318824115386
 30
0.0
 11
83.88136569743149
 21
60.74318824115386
 31
0.0
  0
LINE
  5
5832
330
19
100
AcDbEntity
  8
JB-55T
  6
HIDDEN2
 62
     4
100
AcDbLine
 10
84.80725944086659
 20
60.77496579824186
 30
0.0
 11
83.89514424757512
 21
60.77496579824185
 31
0.0
  0
LINE
  5
5833
330
19
100
AcDbEntity
  8
JB-55T
100
AcDbLine
 10
83.98898734585062
 20
60.37923590763035
 30
0.0
 11
84.02047258556068
 21
60.36575637238234
 31
0.0
  0
ARC
  5
5834
330
19
100
AcDbEntity
  8
JB-55T
100
AcDbCircle
 10
83.9269218046631
 20
60.69303928387435
 30
0.0
 40
0.1861966235625
100
AcDbArc
 50
90.0
 51
180.0
  0
LINE
  5
5835
330
19
100
AcDbEntity
  8
JB-55T
  6
HIDDEN2
 62
     4
100
AcDbLine
 10
83.7505096895296
 20
60.61288337525386
 30
0.0
 11
83.74072518110061
 21
60.61288337525386
 31
0.0
  0
LINE
  5
5836
330
19
100
AcDbEntity
  8
JB-55T
  6
HIDDEN2
 62
     4
100
AcDbLine
 10
83.9269218046631
 20
60.77496579824185
 30
0.0
 11
83.9269218046631
 21
60.74318824115386
 31
0.0
  0
LINE
  5
5837
330
19
100
AcDbEntity
  8
JB-55T
  6
HIDDEN2
 62
     4
100
AcDbLine
 10
83.9269218046631
 20
60.82859042582786
 30
0.0
 11
83.9269218046631
 21
60.87923590743685
 31
0.0
  0
LINE
  5
5838
330
19
100
AcDbEntity
  8
JB-55T
  6
HIDDEN2
 62
     4
100
AcDbLine
 10
83.89514424757512
 20
60.77496579824185
 30
0.0
 11
83.89514424757512
 21
60.82859042582786
 31
0.0
  0
ARC
  5
5839
330
19
100
AcDbEntity
  8
JB-55T
  6
HIDDEN2
 62
     4
100
AcDbCircle
 10
83.88136569743149
 20
60.72767185585698
 30
0.0
 40
0.015516385296875
100
AcDbArc
 50
90.0
 51
180.0
  0
LWPOLYLINE
  5
583A
330
19
100
AcDbEntity
  8
JB-55T
  6
HIDDEN2
 62
     4
100
AcDbPolyline
 90
       16
 70
     1
 43
0.0
 10
84.47301378625995
 20
60.27826850602254
 42
-0.0570336043824872
 10
84.40066264466459
 20
60.28654833167736
 42
-0.0707479349482362
 10
84.34581505850102
 20
60.30776794996998
 42
-0.1062580074245512
 10
84.30465434671324
 20
60.34402410154356
 42
-0.1605958272241693
 10
84.29312762034667
 20
60.37898590763035
 42
-0.1605958272241693
 10
84.30465434671324
 20
60.41394771371715
 42
-0.1062580074245512
 10
84.34581505850102
 20
60.45020386529073
 42
-0.0707479349482458
 10
84.40066264466459
 20
60.47142348358335
 42
-0.0570336043824894
 10
84.47301378625995
 20
60.47970330923817
 42
-0.0613061794465907
 10
84.5398631189189
 20
60.47147583232927
 42
-0.0746372058441798
 10
84.59104189743507
 20
60.45020386529073
 42
-0.1069792445843398
 10
84.62891802921085
 20
60.41448725895579
 42
-0.1515408478524677
 10
84.63993074182509
 20
60.37898590763035
 42
-0.1515408478524554
 10
84.62891802921085
 20
60.34348455630492
 42
-0.1069792445843337
 10
84.59104189743507
 20
60.30776794996999
 42
-0.0746372058441755
 10
84.5398631189189
 20
60.28649598293144
 42
-0.0613061794465806
  0
LINE
  5
583B
330
19
100
AcDbEntity
  8
JB-55T
100
AcDbLine
 10
84.53347032836054
 20
60.36575637238234
 30
0.0
 11
84.58548175771616
 21
60.37923590763035
 31
0.0
  0
LWPOLYLINE
  5
583C
330
19
100
AcDbEntity
  8
JB-55B
  6
HIDDEN2
 62
     4
100
AcDbPolyline
 90
        4
 70
     0
 43
0.0
 10
85.37072518110063
 20
60.00265323647522
 10
85.36079469451063
 20
60.00265323647522
 10
85.36079469451065
 20
60.50712195524722
 10
85.37072518110063
 20
60.50712195524722
  0
LINE
  5
583D
330
19
100
AcDbEntity
  8
JB-55B
  6
HIDDEN2
 62
     4
100
AcDbLine
 10
85.1704540026359
 20
60.46327914136663
 30
0.0
 11
85.1704540026359
 21
60.2962479124238
 31
0.0
  0
LINE
  5
583E
330
19
100
AcDbEntity
  8
JB-55B
  6
HIDDEN2
 62
     4
100
AcDbLine
 10
84.87420085160064
 20
60.47559272248872
 30
0.0
 11
84.87420085160064
 21
60.28393433130172
 31
0.0
  0
LINE
  5
583F
330
19
100
AcDbEntity
  8
JB-55B
  6
HIDDEN2
 62
     4
100
AcDbLine
 10
84.87420085160064
 20
60.43736034911721
 30
0.0
 11
85.1704540026359
 21
60.46327914136663
 31
0.0
  0
LINE
  5
5840
330
19
100
AcDbEntity
  8
JB-55B
  6
HIDDEN2
 62
     4
100
AcDbLine
 10
84.85831207305663
 20
60.26804555275771
 30
0.0
 11
84.85831207305663
 21
60.4914815010327
 31
0.0
  0
LWPOLYLINE
  5
5841
330
19
100
AcDbEntity
  8
JB-55B
  6
HIDDEN2
 62
     4
100
AcDbPolyline
 90
        9
 70
     0
 43
0.0
 10
85.30506010674175
 20
60.49613641662177
 42
-0.1988238758394351
 10
85.3207115306216
 20
60.48965650619658
 42
-0.0985165631676871
 10
85.3391681566655
 20
60.46205158636714
 42
-0.0557847379721551
 10
85.34925674406363
 20
60.42716275797386
 42
-0.042533619294729
 10
85.35329617353005
 20
60.37976352689521
 42
-0.0425336192947518
 10
85.34925674406363
 20
60.33236429581654
 42
-0.055784737972141
 10
85.3391681566655
 20
60.29747546742328
 42
-0.0985165631677464
 10
85.3207115306216
 20
60.26987054759382
 42
-0.1988238758394178
 10
85.30506010674171
 20
60.26339063716864
  0
LINE
  5
5842
330
19
100
AcDbEntity
  8
JB-55B
  6
HIDDEN2
 62
     4
100
AcDbLine
 10
85.20825197403679
 20
60.26339063716864
 30
0.0
 11
85.20825197403679
 21
60.49613641662177
 31
0.0
  0
LINE
  5
5843
330
19
100
AcDbEntity
  8
JB-55B
  6
HIDDEN2
 62
     4
100
AcDbLine
 10
85.13537264891764
 20
60.55503661520871
 30
0.0
 11
85.13537264891764
 21
60.20449043858171
 31
0.0
  0
LWPOLYLINE
  5
5844
330
19
100
AcDbEntity
  8
JB-55B
  6
HIDDEN2
 62
     4
100
AcDbPolyline
 90
        9
 70
     0
 43
0.0
 10
85.30506010674171
 20
60.26339063716864
 42
-0.1209709035530626
 10
85.27090608975694
 20
60.27177664221617
 42
-0.1051387393195321
 10
85.23983529206349
 20
60.29747546742328
 42
-0.0884806234010302
 10
85.22012204072378
 20
60.33410385842638
 42
-0.0794751588725295
 10
85.21281828922049
 20
60.37976352689521
 42
-0.0794751588724977
 10
85.22012204072378
 20
60.42542319536403
 42
-0.0884806234010123
 10
85.23983529206349
 20
60.46205158636714
 42
-0.1051387393195156
 10
85.27090608975694
 20
60.48775041157425
 42
-0.1209709035530374
 10
85.30506010674175
 20
60.49613641662177
  0
LINE
  5
5845
330
19
100
AcDbEntity
  8
JB-55B
  6
HIDDEN2
 62
     4
100
AcDbLine
 10
85.1704540026359
 20
60.2962479124238
 30
0.0
 11
85.20825197403679
 21
60.26339063716864
 31
0.0
  0
LINE
  5
5846
330
19
100
AcDbEntity
  8
JB-55B
  6
HIDDEN2
 62
     4
100
AcDbLine
 10
85.02017900447363
 20
60.03592036655171
 30
0.0
 11
85.27042726654164
 21
60.03155226688914
 31
0.0
  0
LINE
  5
5847
330
19
100
AcDbEntity
  8
JB-55B
  6
HIDDEN2
 62
     4
100
AcDbLine
 10
85.02017900447363
 20
60.22360656310272
 30
0.0
 11
85.27042726654164
 21
60.22797466276529
 31
0.0
  0
LINE
  5
5848
330
19
100
AcDbEntity
  8
JB-55B
  6
HIDDEN2
 62
     4
100
AcDbLine
 10
85.02017900447363
 20
60.17494717881172
 30
0.0
 11
85.27042726654164
 21
60.17057907914914
 31
0.0
  0
LINE
  5
5849
330
19
100
AcDbEntity
  8
JB-55B
  6
HIDDEN2
 62
     4
100
AcDbLine
 10
85.02017900447363
 20
60.08457975084271
 30
0.0
 11
85.27042726654164
 21
60.08894785050529
 31
0.0
  0
LINE
  5
584A
330
19
100
AcDbEntity
  8
JB-55B
  6
HIDDEN2
 62
     4
100
AcDbLine
 10
85.27042726654164
 20
60.20213305146222
 30
0.0
 11
85.13537264891764
 21
60.20449043858171
 31
0.0
  0
LINE
  5
584B
330
19
100
AcDbEntity
  8
JB-55B
  6
HIDDEN2
 62
     4
100
AcDbLine
 10
85.02017900447363
 20
60.22360656310272
 30
0.0
 11
85.02017900447363
 21
60.03592036655171
 31
0.0
  0
LINE
  5
584C
330
19
100
AcDbEntity
  8
JB-55B
  6
HIDDEN2
 62
     4
100
AcDbLine
 10
84.8739235541797
 20
60.25215919415165
 30
0.0
 11
85.13537264891764
 21
60.24759558322757
 31
0.0
  0
LINE
  5
584D
330
19
100
AcDbEntity
  8
JB-55B
  6
HIDDEN2
 62
     4
100
AcDbLine
 10
84.87420085160064
 20
60.32216670467321
 30
0.0
 11
85.1704540026359
 21
60.2962479124238
 31
0.0
  0
ARC
  5
584E
330
19
100
AcDbEntity
  8
JB-55B
  6
HIDDEN2
 62
     4
100
AcDbCircle
 10
84.87420085160064
 20
60.26804555275771
 30
0.0
 40
0.015888778544
100
AcDbArc
 50
90.00000000000007
 51
270.0000000000001
  0
LINE
  5
584F
330
19
100
AcDbEntity
  8
JB-55B
  6
HIDDEN2
 62
     4
100
AcDbLine
 10
85.20825197403679
 20
60.26339063716864
 30
0.0
 11
85.30506010674171
 21
60.26339063716864
 31
0.0
  0
LINE
  5
5850
330
19
100
AcDbEntity
  8
JB-55B
100
AcDbLine
 10
84.87420085160064
 20
60.88001172670171
 30
0.0
 11
85.18452855753814
 21
60.88001172670171
 31
0.0
  0
LINE
  5
5851
330
19
100
AcDbEntity
  8
JB-55B
  6
HIDDEN2
 62
     4
100
AcDbLine
 10
85.27042726654164
 20
60.5573940023282
 30
0.0
 11
85.13537264891764
 21
60.55503661520871
 31
0.0
  0
LINE
  5
5852
330
19
100
AcDbEntity
  8
JB-55B
  6
HIDDEN2
 62
     4
100
AcDbLine
 10
85.1704540026359
 20
60.46327914136663
 30
0.0
 11
85.20825197403679
 21
60.49613641662177
 31
0.0
  0
LINE
  5
5853
330
19
100
AcDbEntity
  8
JB-55B
  6
HIDDEN2
 62
     4
100
AcDbLine
 10
84.8739235541797
 20
60.50736785963877
 30
0.0
 11
85.13537264891764
 21
60.51193147056284
 31
0.0
  0
ARC
  5
5854
330
19
100
AcDbEntity
  8
JB-55B
  6
HIDDEN2
 62
     4
100
AcDbCircle
 10
84.87420085160064
 20
60.4914815010327
 30
0.0
 40
0.015888778544
100
AcDbArc
 50
89.99999999999847
 51
269.9999999999984
  0
ARC
  5
5855
330
19
100
AcDbEntity
  8
JB-55B
100
AcDbCircle
 10
85.18452855753814
 20
60.6938151031392
 30
0.0
 40
0.1861966235625
100
AcDbArc
 50
359.9999999999992
 51
89.99999999999962
  0
ARC
  5
5856
330
19
100
AcDbEntity
  8
JB-55B
  6
HIDDEN2
 62
     4
100
AcDbCircle
 10
85.18452855753814
 20
60.6938151031392
 30
0.0
 40
0.0858987090035
100
AcDbArc
 50
359.9999999999992
 51
35.71932127728763
  0
LINE
  5
5857
330
19
100
AcDbEntity
  8
JB-55B
  6
HIDDEN2
 62
     4
100
AcDbLine
 10
85.20825197403679
 20
60.49613641662177
 30
0.0
 11
85.30506010674175
 21
60.49613641662177
 31
0.0
  0
LINE
  5
5858
330
19
100
AcDbEntity
  8
JB-55B
  6
HIDDEN2
 62
     4
100
AcDbLine
 10
85.21630611462613
 20
60.82936624509271
 30
0.0
 11
85.21630611462613
 21
60.77574161750671
 31
0.0
  0
LINE
  5
5859
330
19
100
AcDbEntity
  8
JB-55B
  6
HIDDEN2
 62
     4
100
AcDbLine
 10
85.18452855753814
 20
60.77574161750671
 30
0.0
 11
85.18452855753814
 21
60.74396406041871
 31
0.0
  0
LINE
  5
585A
330
19
100
AcDbEntity
  8
JB-55B
  6
HIDDEN2
 62
     4
100
AcDbLine
 10
85.18452855753814
 20
60.88001172670175
 30
0.0
 11
85.18452855753814
 21
60.82936624509271
 31
0.0
  0
MTEXT
  5
5B18
330
19
100
AcDbEntity
  8
0
 62
     4
100
AcDbMText
 10
68.81646735697265
 20
117.7940000345749
 30
0.0
 40
0.125
 41
0.0
 71
     6
 72
     1
  1
\A1;
 73
     1
 44
1.0
1001
ACAD
1000
MTEXTBEGIN
1070
    73
1070
     1
1070
    44
1040
1.0
1070
    74
1070
     0
1000
MTEXTEND
  0
MTEXT
  5
5B19
330
19
100
AcDbEntity
  8
0
 62
     4
100
AcDbMText
 10
67.65840030137027
 20
118.1183681094948
 30
0.0
 40
0.125
 41
0.0
 71
     4
 72
     1
  1
\A1;
 73
     1
 44
1.0
1001
ACAD
1000
MTEXTBEGIN
1070
    73
1070
     1
1070
    44
1040
1.0
1070
    74
1070
     0
1000
MTEXTEND
  0
MTEXT
  5
5B1A
330
19
100
AcDbEntity
  8
0
 62
     4
100
AcDbMText
 10
63.58157434303262
 20
115.6605277450905
 30
0.0
 40
0.125
 41
0.0
 71
     6
 72
     1
  1
\A1;
 73
     1
 44
1.0
1001
ACAD
1000
MTEXTBEGIN
1070
    73
1070
     1
1070
    44
1040
1.0
1070
    74
1070
     0
1000
MTEXTEND
  0
MTEXT
  5
5B1B
330
19
100
AcDbEntity
  8
0
 62
     4
100
AcDbMText
 10
64.08562056977793
 20
115.1148794908899
 30
0.0
 40
0.125
 41
0.0
 71
     6
 72
     1
  1
\A1;
 73
     1
 44
1.0
1001
ACAD
1000
MTEXTBEGIN
1070
    73
1070
     1
1070
    44
1040
1.0
1070
    74
1070
     0
1000
MTEXTEND
  0
MTEXT
  5
5B1C
330
19
100
AcDbEntity
  8
0
 62
     4
100
AcDbMText
 10
63.71352753878979
 20
113.8711441551954
 30
0.0
 40
0.125
 41
0.0
 71
     6
 72
     1
  1
\A1;
 73
     1
 44
1.0
1001
ACAD
1000
MTEXTBEGIN
1070
    73
1070
     1
1070
    44
1040
1.0
1070
    74
1070
     0
1000
MTEXTEND
  0
MTEXT
  5
5B1D
330
19
100
AcDbEntity
  8
0
 62
     4
100
AcDbMText
 10
63.76624674144165
 20
113.6204652305373
 30
0.0
 40
0.125
 41
0.0
 71
     6
 72
     1
  1
\A1;
 73
     1
 44
1.0
1001
ACAD
1000
MTEXTBEGIN
1070
    73
1070
     1
1070
    44
1040
1.0
1070
    74
1070
     0
1000
MTEXTEND
  0
MTEXT
  5
5B1E
330
19
100
AcDbEntity
  8
0
 62
     4
100
AcDbMText
 10
78.52721540146795
 20
102.2512946607746
 30
0.0
 40
0.125
 41
0.0
 71
     6
 72
     1
  1
\A1;
 73
     1
 44
1.0
1001
ACAD
1000
MTEXTBEGIN
1070
    73
1070
     1
1070
    44
1040
1.0
1070
    74
1070
     0
1000
MTEXTEND
  0
MTEXT
  5
5B1F
330
19
100
AcDbEntity
  8
0
 62
     4
100
AcDbMText
 10
84.51220476311007
 20
100.3005822282247
 30
0.0
 40
0.125
 41
0.0
 71
     4
 72
     1
  1
\A1;
 73
     1
 44
1.0
1001
ACAD
1000
MTEXTBEGIN
1070
    73
1070
     1
1070
    44
1040
1.0
1070
    74
1070
     0
1000
MTEXTEND
  0
MTEXT
  5
5B20
330
19
100
AcDbEntity
  8
0
 62
     4
100
AcDbMText
 10
57.84199399327542
 20
94.85853960520248
 30
0.0
 40
0.125
 41
0.0
 71
     4
 72
     1
  1
\A1;
 73
     1
 44
1.0
1001
ACAD
1000
MTEXTBEGIN
1070
    73
1070
     1
1070
    44
1040
1.0
1070
    74
1070
     0
1000
MTEXTEND
  0
MTEXT
  5
5B21
330
19
100
AcDbEntity
  8
0
 62
     4
100
AcDbMText
 10
53.90091170282616
 20
91.10443523518018
 30
0.0
 40
0.125
 41
0.0
 71
     6
 72
     1
  1
\A1;
 73
     1
 44
1.0
1001
ACAD
1000
MTEXTBEGIN
1070
    73
1070
     1
1070
    44
1040
1.0
1070
    74
1070
     0
1000
MTEXTEND
  0
MTEXT
  5
5B22
330
19
100
AcDbEntity
  8
0
 62
     4
100
AcDbMText
 10
54.21586649247489
 20
91.85492863381535
 30
0.0
 40
0.125
 41
0.0
 71
     6
 72
     1
  1
\A1;
 73
     1
 44
1.0
1001
ACAD
1000
MTEXTBEGIN
1070
    73
1070
     1
1070
    44
1040
1.0
1070
    74
1070
     0
1000
MTEXTEND
  0
MTEXT
  5
5B23
330
19
100
AcDbEntity
  8
0
 62
     4
100
AcDbMText
 10
53.78785101877753
 20
92.40367649608428
 30
0.0
 40
0.125
 41
0.0
 71
     6
 72
     1
  1
\A1;
 73
     1
 44
1.0
1001
ACAD
1000
MTEXTBEGIN
1070
    73
1070
     1
1070
    44
1040
1.0
1070
    74
1070
     0
1000
MTEXTEND
  0
MTEXT
  5
5B24
330
19
100
AcDbEntity
  8
0
 62
     4
100
AcDbMText
 10
62.25058738645651
 20
94.05938252514898
 30
0.0
 40
0.125
 41
0.0
 71
     6
 72
     1
  1
\A1;
 73
     1
 44
1.0
1001
ACAD
1000
MTEXTBEGIN
1070
    73
1070
     1
1070
    44
1040
1.0
1070
    74
1070
     0
1000
MTEXTEND
  0
MTEXT
  5
5B25
330
19
100
AcDbEntity
  8
0
 62
     4
100
AcDbMText
 10
68.12276666929705
 20
92.12233053979476
 30
0.0
 40
0.125
 41
0.0
 71
     4
 72
     1
  1
\A1;
 73
     1
 44
1.0
1001
ACAD
1000
MTEXTBEGIN
1070
    73
1070
     1
1070
    44
1040
1.0
1070
    74
1070
     0
1000
MTEXTEND
  0
MTEXT
  5
5B26
330
19
100
AcDbEntity
  8
0
 62
     5
100
AcDbMText
 10
58.12766914027696
 20
94.78272207425396
 30
0.0
 40
0.125
 41
0.0
 71
     4
 72
     1
  1
\A1;
 73
     1
 44
1.0
1001
ACAD
1000
MTEXTBEGIN
1070
    73
1070
     1
1070
    44
1040
1.0
1070
    74
1070
     0
1000
MTEXTEND
  0
MTEXT
  5
5B27
330
19
100
AcDbEntity
  8
0
 62
     5
100
AcDbMText
 10
54.03931359107332
 20
92.16564610049713
 30
0.0
 40
0.125
 41
0.0
 71
     6
 72
     1
  1
\A1;
 73
     1
 44
1.0
1001
ACAD
1000
MTEXTBEGIN
1070
    73
1070
     1
1070
    44
1040
1.0
1070
    74
1070
     0
1000
MTEXTEND
  0
MTEXT
  5
5B28
330
19
100
AcDbEntity
  8
0
 62
     5
100
AcDbMText
 10
54.30628997026659
 20
91.51856277635493
 30
0.0
 40
0.125
 41
0.0
 71
     6
 72
     1
  1
\A1;
 73
     1
 44
1.0
1001
ACAD
1000
MTEXTBEGIN
1070
    73
1070
     1
1070
    44
1040
1.0
1070
    74
1070
     0
1000
MTEXTEND
  0
MTEXT
  5
5B29
330
19
100
AcDbEntity
  8
0
 62
     5
100
AcDbMText
 10
54.02880219118635
 20
90.80731254504611
 30
0.0
 40
0.125
 41
0.0
 71
     6
 72
     1
  1
\A1;
 73
     1
 44
1.0
1001
ACAD
1000
MTEXTBEGIN
1070
    73
1070
     1
1070
    44
1040
1.0
1070
    74
1070
     0
1000
MTEXTEND
  0
MTEXT
  5
5B2A
330
19
100
AcDbEntity
  8
0
 62
     5
100
AcDbMText
 10
54.00011935253745
 20
89.78243645341423
 30
0.0
 40
0.125
 41
0.0
 71
     6
 72
     1
  1
\A1;
 73
     1
 44
1.0
1001
ACAD
1000
MTEXTBEGIN
1070
    73
1070
     1
1070
    44
1040
1.0
1070
    74
1070
     0
1000
MTEXTEND
  0
MTEXT
  5
5B2B
330
19
100
AcDbEntity
  8
0
 62
     5
100
AcDbMText
 10
62.23757058874733
 20
94.30575643967053
 30
0.0
 40
0.125
 41
0.0
 71
     6
 72
     1
  1
\A1;
 73
     1
 44
1.0
1001
ACAD
1000
MTEXTBEGIN
1070
    73
1070
     1
1070
    44
1040
1.0
1070
    74
1070
     0
1000
MTEXTEND
  0
MTEXT
  5
5B2C
330
19
100
AcDbEntity
  8
0
 62
     5
100
AcDbMText
 10
68.09293207520044
 20
91.92702145933173
 30
0.0
 40
0.125
 41
0.0
 71
     4
 72
     1
  1
\A1;
 73
     1
 44
1.0
1001
ACAD
1000
MTEXTBEGIN
1070
    73
1070
     1
1070
    44
1040
1.0
1070
    74
1070
     0
1000
MTEXTEND
  0
MTEXT
  5
5B2D
330
19
100
AcDbEntity
  8
0
 62
     5
100
AcDbMText
 10
63.49356662892354
 20
88.12360589418506
 30
0.0
 40
0.125
 41
0.0
 71
     4
 72
     1
  1
\A1;
 73
     1
 44
1.0
1001
ACAD
1000
MTEXTBEGIN
1070
    73
1070
     1
1070
    44
1040
1.0
1070
    74
1070
     0
1000
MTEXTEND
  0
MTEXT
  5
5B2E
330
19
100
AcDbEntity
  8
0
 62
     4
100
AcDbMText
 10
74.67195846431569
 20
57.55612229758468
 30
0.0
 40
0.125
 41
0.0
 71
     4
 72
     1
  1
\A1;
 73
     1
 44
1.0
1001
ACAD
1000
MTEXTBEGIN
1070
    73
1070
     1
1070
    44
1040
1.0
1070
    74
1070
     0
1000
MTEXTEND
  0
LEADER
  5
5B5E
330
19
100
AcDbEntity
  8
0
 62
     1
100
AcDbLeader
  3
STANDARD_WS
 73
     0
 40
0.1293485675306958
 41
1.737806957708049
 76
     3
 10
77.47645936392219
 20
56.03447709916557
 30
0.0
 10
79.66010369285791
 20
54.87082423200096
 30
0.0
 10
79.9855095125315
 20
54.87082423200096
 30
0.0
340
5B5F
1001
ACAD
1000
DSTYLE
1002
{
1070
     6
1000
DOT
1070
   173
1070
     1
1070
   341
1005
5B60
1070
   343
1005
5B60
1070
   344
1005
5B60
1002
}
  0
MTEXT
  5
5B5F
102
{ACAD_REACTORS
330
5B5E
102
}
330
19
100
AcDbEntity
  8
0
 62
     4
100
AcDbMText
 10
80.07550951253151
 20
54.87082423200096
 30
0.0
 40
0.125
 41
0.0
 71
     4
 72
     1
  1
TEXTURED SMOOTH
 73
     1
 44
1.0
1001
ACAD
1000
MTEXTBEGIN
1070
    73
1070
     1
1070
    44
1040
1.0
1070
    74
1070
     0
1000
MTEXTEND
  0
INSERT
  5
5CAB
330
19
100
AcDbEntity
  8
0
100
AcDbBlockReference
 66
     1
  2
C
 10
68.11529530198284
 20
48.56479448508042
 30
0.0
  0
ATTRIB
  5
5CAC
330
5CAB
100
AcDbEntity
  8
TEXT
100
AcDbText
 10
84.51502081776141
 20
49.10419953069814
 30
0.0
 40
0.125
  1
DP
 41
0.75
  7
TXT
 72
     1
 11
84.59314581776141
 21
49.10419953069814
 31
0.0
100
AcDbAttribute
  2
NAME
 70
     4
  0
ATTRIB
  5
5CAD
330
5CAB
100
AcDbEntity
  8
TEXT
100
AcDbText
 10
84.98384377829978
 20
49.10419953069814
 30
0.0
 40
0.125
  1
5-24-05
 41
0.75
  7
TXT
 72
     1
 11
85.28853127829979
 21
49.10419953069814
 31
0.0
100
AcDbAttribute
  2
DATE
 70
     4
  0
ATTRIB
  5
5CAE
330
5CAB
100
AcDbEntity
  8
TEXT
100
AcDbText
 10
87.73641810202724
 20
49.27540130241087
 30
0.0
 40
0.125
  1
PLASTICASE STYLE G
 41
0.75
  7
TXT
 72
     1
 11
88.54891810202724
 21
49.27540130241087
 31
0.0
100
AcDbAttribute
  2
TITLE1
 70
     4
  0
ATTRIB
  5
5CAF
330
5CAB
100
AcDbEntity
  8
TEXT
100
AcDbText
 10
88.50204310202725
 20
49.06427183628457
 30
0.0
 40
0.125
  1
 
 41
0.75
  7
TXT
 72
     1
 11
88.54891810202724
 21
49.06427183628457
 31
0.0
100
AcDbAttribute
  2
TITLE2
 70
     4
  0
ATTRIB
  5
5CB0
330
5CAB
100
AcDbEntity
  8
TEXT
100
AcDbText
 10
88.33604289036337
 20
48.67101881824483
 30
0.0
 40
0.156
  1
PC-11555
 41
0.75
  7
TXT
 72
     1
 11
88.74554289036337
 21
48.67101881824483
 31
0.0
100
AcDbAttribute
  2
PART
 70
     4
  0
ATTRIB
  5
5CB1
330
5CAB
100
AcDbEntity
  8
TEXT
100
AcDbText
 10
88.33604289036337
 20
63.8674353211169
 30
0.0
 40
0.156
  1
PC-11555
 41
0.75
  7
TXT
 72
     1
 11
88.74554289036337
 21
63.8674353211169
 31
0.0
100
AcDbAttribute
  2
PART
 70
     4
  0
ATTRIB
  5
5CB2
330
5CAB
100
AcDbEntity
  8
TEXT
100
AcDbText
 10
80.17219290613359
 20
49.74680682017798
 30
0.0
 40
0.125
  1

 41
4.93641642638573
  7
TXT
 72
     5
 11
84.08018924368894
 21
49.74680682017798
 31
0.0
100
AcDbAttribute
  2
CUTSIZE
 70
     4
  0
ATTRIB
  5
5CB3
330
5CAB
100
AcDbEntity
  8
TEXT
100
AcDbText
 10
80.30966599111179
 20
48.85157331204161
 30
0.0
 40
0.125
  1

 41
0.75
  7
TXT
 72
     1
 11
80.30966599111179
 21
48.85157331204161
 31
0.0
100
AcDbAttribute
  2
QTY
 70
     4
  0
ATTRIB
  5
5CB4
330
5CAB
100
AcDbEntity
  8
TEXT
100
AcDbText
 10
81.25434950450983
 20
48.85157331204161
 30
0.0
 40
0.125
  1

 41
0.75
  7
TXT
 72
     1
 11
81.25434950450983
 21
48.85157331204161
 31
0.0
100
AcDbAttribute
  2
USED
 70
     4
  0
ATTRIB
  5
5CB5
330
5CAB
100
AcDbEntity
  8
TEXT
100
AcDbText
 10
84.83927652489688
 20
49.52032685615066
 30
0.0
 40
0.125
  1
AS NOTED
 41
0.75
  7
TXT
 72
     1
 11
85.19865152489687
 21
49.52032685615066
 31
0.0
100
AcDbAttribute
  2
MAT
 70
     4
  0
ATTRIB
  5
5CB6
330
5CAB
100
AcDbEntity
  8
TEXT
100
AcDbText
 10
84.82365152489688
 20
49.30844869294109
 30
0.0
 40
0.125
  1
SEE SPEC.
 41
0.75
  7
TXT
 72
     1
 11
85.19865152489687
 21
49.30844869294109
 31
0.0
100
AcDbAttribute
  2
FINISH
 70
     4
  0
SEQEND
  5
5CB7
330
5CAB
100
AcDbEntity
  8
0
  0
MTEXT
  5
5CFE
330
19
100
AcDbEntity
  8
0
100
AcDbMText
 10
85.42399651559728
 20
52.49586445479542
 30
0.0
 40
0.125
 41
4.8822
 71
     1
 72
     5
  3
{\C4;NOTES:\P  1) PC BOARD BOSSES WILL ACCEPT A\P      #4 X 1/4" THREAD FORMING SCREW\P  2) MATERIAL: ABS - UL94-5VA\P  3) FINISH: BLACK TEXTURE\P  4) INCLUDES (4) #4-24 x 5/8 HI-LOW\P      THREAD FORMING, CSK, OVAL HEAD,\P      PHILLIPS DRIVE SCREWS
  1
 FOR\P      ATTACHING BODY TO COVER\P      (MAX TORQUE 4.5 IN-LBS)}
 73
     1
 44
1.0
1001
ACAD
1000
MTEXTBEGIN
1070
    73
1070
     1
1070
    44
1040
1.0
1070
    74
1070
     0
1000
MTEXTEND
  0
LINE
  5
5D28
330
19
100
AcDbEntity
  8
JB-55B
  6
HIDDEN2
 62
     3
100
AcDbLine
 10
73.94999803539291
 20
51.62660147431737
 30
0.0
 11
73.94999803539291
 21
51.68860147431737
 31
0.0
  0
LINE
  5
5D29
330
19
100
AcDbEntity
  8
JB-55B
  6
HIDDEN2
 62
     3
100
AcDbLine
 10
78.32399803539292
 20
51.62660147431738
 30
0.0
 11
78.32399803539292
 21
51.68860147431739
 31
0.0
  0
LINE
  5
5D2A
330
19
100
AcDbEntity
  8
0
  6
HIDDEN2
 62
     3
100
AcDbLine
 10
73.94999803539289
 20
51.62660147431736
 30
0.0
 11
78.32399803539292
 21
51.62660147431737
 31
0.0
  0
LINE
  5
5D2B
330
19
100
AcDbEntity
  8
0
  6
HIDDEN2
 62
     3
100
AcDbLine
 10
73.94999803539289
 20
51.68860147431736
 30
0.0
 11
78.32399803539292
 21
51.68860147431737
 31
0.0
  0
LINE
  5
5D2C
330
19
100
AcDbEntity
  8
0
  6
HIDDEN2
 62
     3
100
AcDbLine
 10
74.1999980353929
 20
52.53068290458839
 30
0.0
 11
78.0739980353929
 21
52.53068290458838
 31
0.0
  0
LINE
  5
5D4A
330
19
100
AcDbEntity
  8
JB-55B
  6
HIDDEN2
 62
     3
100
AcDbLine
 10
74.1999980353929
 20
52.46868290458838
 30
0.0
 11
74.1999980353929
 21
52.53068290458839
 31
0.0
  0
LINE
  5
5D4B
330
19
100
AcDbEntity
  8
JB-55B
  6
HIDDEN2
 62
     3
100
AcDbLine
 10
78.07399803539292
 20
52.46868290458838
 30
0.0
 11
78.07399803539292
 21
52.53068290458838
 31
0.0
  0
LINE
  5
5D4C
330
19
100
AcDbEntity
  8
0
  6
HIDDEN2
 62
     3
100
AcDbLine
 10
74.1999980353929
 20
52.46868290458839
 30
0.0
 11
78.0739980353929
 21
52.46868290458838
 31
0.0
  0
LINE
  5
5D4D
330
19
100
AcDbEntity
  8
0
  6
HIDDEN2
 62
     3
100
AcDbLine
 10
84.11609757420263
 20
60.65998764633636
 30
0.0
 11
84.11609757420256
 21
55.59798764633636
 31
0.0
  0
LINE
  5
5D4E
330
19
100
AcDbEntity
  8
JB-55B
  6
HIDDEN2
 62
     3
100
AcDbLine
 10
84.17809757420263
 20
60.65998764633635
 30
0.0
 11
84.11609757420263
 21
60.65998764633635
 31
0.0
  0
LINE
  5
5D4F
330
19
100
AcDbEntity
  8
JB-55B
  6
HIDDEN2
 62
     3
100
AcDbLine
 10
84.17809757420256
 20
55.59798764633637
 30
0.0
 11
84.11609757420256
 21
55.59798764633637
 31
0.0
  0
LINE
  5
5D50
330
19
100
AcDbEntity
  8
0
  6
HIDDEN2
 62
     3
100
AcDbLine
 10
84.17809757420263
 20
60.65998764633636
 30
0.0
 11
84.17809757420256
 21
55.59798764633636
 31
0.0
  0
LINE
  5
5D5A
330
19
100
AcDbEntity
  8
0
  6
HIDDEN2
 62
     3
100
AcDbLine
 10
85.02017900447363
 20
60.65998764633636
 30
0.0
 11
85.02017900447357
 21
55.59798764633637
 31
0.0
  0
LINE
  5
5D5B
330
19
100
AcDbEntity
  8
0
  6
HIDDEN2
 62
     3
100
AcDbLine
 10
84.95817900447363
 20
60.65998764633636
 30
0.0
 11
84.95817900447358
 21
55.59798764633637
 31
0.0
  0
LINE
  5
5D5C
330
19
100
AcDbEntity
  8
JB-55B
  6
HIDDEN2
 62
     3
100
AcDbLine
 10
85.02017900447363
 20
60.65998764633635
 30
0.0
 11
84.95817900447365
 21
60.65998764633636
 31
0.0
  0
LINE
  5
5D5D
330
19
100
AcDbEntity
  8
JB-55B
  6
HIDDEN2
 62
     3
100
AcDbLine
 10
85.02017900447357
 20
55.59798764633637
 30
0.0
 11
84.95817900447358
 21
55.59798764633637
 31
0.0
  0
DIMENSION
  5
5D5E
330
19
100
AcDbEntity
  8
0
100
AcDbDimension
  2
*D27
 10
83.11344063534708
 20
55.59798764633637
 30
0.0
 11
83.11344063534706
 21
58.12898764633637
 31
0.0
 70
    32
 71
     5
 42
5.06199999999999
  3
STANDARD_WS
100
AcDbAlignedDimension
 13
84.11609757420263
 23
60.65998764633635
 33
0.0
 14
84.11609757420256
 24
55.59798764633637
 34
0.0
 50
90.0
100
AcDbRotatedDimension
  0
DIMENSION
  5
5D6C
330
19
100
AcDbEntity
  8
0
100
AcDbDimension
  2
*D28
 10
86.10485847343403
 20
55.59798764633637
 30
0.0
 11
86.10485847343403
 21
58.12898764633637
 31
0.0
 70
    32
 71
     5
 42
5.06199999999999
  3
STANDARD_WS
100
AcDbAlignedDimension
 13
85.02017900447363
 23
60.65998764633635
 33
0.0
 14
85.02017900447357
 24
55.59798764633637
 34
0.0
 50
90.0
100
AcDbRotatedDimension
  0
DIMENSION
  5
5D7A
330
19
100
AcDbEntity
  8
0
100
AcDbDimension
  2
*D29
 10
78.0739980353929
 20
53.47334905139962
 30
0.0
 11
76.1369980353929
 21
53.47334905139962
 31
0.0
 70
    32
 71
     5
 42
3.873999999999995
  3
STANDARD_WS
100
AcDbAlignedDimension
 13
74.1999980353929
 23
52.53068290458839
 33
0.0
 14
78.0739980353929
 24
52.53068290458838
 34
0.0
100
AcDbRotatedDimension
  0
DIMENSION
  5
5D88
330
19
100
AcDbEntity
  8
0
100
AcDbDimension
  2
*D30
 10
78.32399803539292
 20
50.8491340732016
 30
0.0
 11
76.1369980353929
 21
50.8491340732016
 31
0.0
 70
    32
 71
     5
 42
4.374000000000023
  3
STANDARD_WS
100
AcDbAlignedDimension
 13
73.94999803539289
 23
51.62660147431736
 33
0.0
 14
78.32399803539292
 24
51.62660147431738
 34
0.0
100
AcDbRotatedDimension
  0
LEADER
  5
5D96
330
19
100
AcDbEntity
  8
0
100
AcDbLeader
  3
STANDARD_WS
 73
     0
 40
0.3745168258299227
 41
2.078700545702591
 76
     3
 10
74.1999980353929
 20
52.53068290458839
 30
0.0
 10
73.637192370267
 20
53.42158401456996
 30
0.0
 10
73.50405548852674
 20
53.4326702896335
 30
0.0
340
5D97
213
0.0
223
0.0625
233
0.0
1001
ACAD
1000
DSTYLE
1002
{
1070
   147
1040
0.09
1070
    77
1070
     0
1002
}
  0
MTEXT
  5
5D97
102
{ACAD_REACTORS
330
5D96
102
}
330
19
100
AcDbEntity
  8
0
 62
     4
100
AcDbMText
 10
73.41405548852674
 20
53.37017028963351
 30
0.0
 40
0.125
 41
0.0
 71
     9
 72
     1
  1
APPROX PCB SIZE\P(BOARD NOT INCLUDED)
 73
     1
 44
1.0
  0
LEADER
  5
5D99
330
19
100
AcDbEntity
  8
0
100
AcDbLeader
  3
STANDARD_WS
 73
     0
 40
0.3745168258299227
 41
2.078700545702591
 76
     3
 10
78.32399803539292
 20
51.62660147431737
 30
0.0
 10
79.0904651074309
 20
50.66164075936772
 30
0.0
 10
79.25375595308117
 20
50.66164075936772
 30
0.0
340
5D9A
213
0.0
223
-0.0625
233
0.0
1001
ACAD
1000
DSTYLE
1002
{
1070
   147
1040
0.09
1070
    77
1070
     0
1002
}
  0
MTEXT
  5
5D9A
102
{ACAD_REACTORS
330
5D99
102
}
330
19
100
AcDbEntity
  8
0
 62
     4
100
AcDbMText
 10
79.34375595308117
 20
50.72414075936771
 30
0.0
 40
0.125
 41
0.0
 71
     1
 72
     1
  1
\A1;APPROX PCB SIZE\P(BOARD NOT INCLUDED)
 73
     1
 44
1.0
  0
LEADER
  5
5D9B
330
19
100
AcDbEntity
  8
0
100
AcDbLeader
  3
STANDARD_WS
 73
     0
 40
0.3745168258299227
 41
2.078700545702591
 76
     3
 10
84.11609757420263
 20
60.65998764633635
 30
0.0
 10
83.58199713979061
 20
61.49128552498537
 30
0.0
 10
83.47912901380466
 20
61.49128552498537
 30
0.0
340
5D9C
213
0.0
223
0.0625
233
0.0
1001
ACAD
1000
DSTYLE
1002
{
1070
   147
1040
0.09
1070
    77
1070
     0
1002
}
  0
MTEXT
  5
5D9C
102
{ACAD_REACTORS
330
5D9B
102
}
330
19
100
AcDbEntity
  8
0
 62
     4
100
AcDbMText
 10
83.38912901380465
 20
61.42878552498537
 30
0.0
 40
0.125
 41
0.0
 71
     9
 72
     1
  1
\A1;APPROX PBC SIZE\P(BOARD NOT INCLUDED)
 73
     1
 44
1.0
  0
LEADER
  5
5D9D
330
19
100
AcDbEntity
  8
0
100
AcDbLeader
  3
STANDARD_WS
 73
     0
 40
0.3745168258299227
 41
2.078700545702591
 76
     3
 10
85.02017900447363
 20
60.65998764633636
 30
0.0
 10
85.66507713001186
 20
61.60692374213412
 30
0.0
 10
85.75508674837932
 20
61.60692374213412
 30
0.0
340
5D9E
213
0.0
223
-0.0625
233
0.0
1001
ACAD
1000
DSTYLE
1002
{
1070
   147
1040
0.09
1070
    77
1070
     0
1002
}
  0
MTEXT
  5
5D9E
102
{ACAD_REACTORS
330
5D9D
102
}
330
19
100
AcDbEntity
  8
0
 62
     4
100
AcDbMText
 10
85.84508674837932
 20
61.66942374213412
 30
0.0
 40
0.125
 41
0.0
 71
     1
 72
     1
  1
\A1;APPROX PCB SIZE\P(BOARD NOT INCLUDED)
 73
     1
 44
1.0
  0
ENDSEC
  0
SECTION
  2
OBJECTS
  0
DICTIONARY
  5
C
330
0
100
AcDbDictionary
281
     1
  3
ACAD_GROUP
350
D
  3
ACAD_LAYOUT
350
5B6E
  3
ACAD_MLINESTYLE
350
E
  3
ACAD_PLOTSETTINGS
350
5B6F
  3
ACAD_PLOTSTYLENAME
350
5B6C
  3
ACDBVARIABLEDICTIONARY
350
4C
  3
AcadDim
350
5D98
  0
DICTIONARY
  5
5B9E
330
19
100
AcDbDictionary
280
     1
281
     1
  3
ACAD_LAYOUTSELFREF
360
5BD1
  0
DICTIONARY
  5
5B9C
330
16
100
AcDbDictionary
280
     1
281
     1
  3
ACAD_LAYOUTSELFREF
360
5BD0
  0
DICTIONARY
  5
D
102
{ACAD_REACTORS
330
C
102
}
330
C
100
AcDbDictionary
281
     1
  0
DICTIONARY
  5
5B6E
102
{ACAD_REACTORS
330
C
102
}
330
C
100
AcDbDictionary
281
     1
  3
Layout1
350
5B71
  3
Model
350
5B70
  0
DICTIONARY
  5
E
102
{ACAD_REACTORS
330
C
102
}
330
C
100
AcDbDictionary
281
     1
  3
STANDARD
350
1C
  0
DICTIONARY
  5
5B6F
102
{ACAD_REACTORS
330
C
102
}
330
C
100
AcDbDictionary
281
     1
  0
ACDBDICTIONARYWDFLT
  5
5B6C
102
{ACAD_REACTORS
330
C
102
}
330
C
100
AcDbDictionary
281
     1
  3
Normal
350
5B6D
100
AcDbDictionaryWithDefault
340
5B6D
  0
DICTIONARY
  5
4C
102
{ACAD_REACTORS
330
C
102
}
330
C
100
AcDbDictionary
281
     1
  3
DIMADEC
350
4D
  3
DIMASSOC
350
5BA4
  0
XRECORD
  5
5D98
102
{ACAD_REACTORS
330
C
102
}
330
C
100
AcDbXrecord
280
     1
 90
   990106
  3

 60
     0
 61
     0
 62
     1
 63
     3
 64
     0
 65
     0
 66
     0
 67
     3
 68
     1
 69
     0
 70
     0
 71
     0
 72
     0
 40
0.0
170
     0
340
5D9E
  0
XRECORD
  5
5BD1
102
{ACAD_REACTORS
330
5B9E
102
}
330
5B9E
100
AcDbXrecord
280
     1
340
19
  0
XRECORD
  5
5BD0
102
{ACAD_REACTORS
330
5B9C
102
}
330
5B9C
100
AcDbXrecord
280
     1
340
16
  0
LAYOUT
  5
5B71
102
{ACAD_REACTORS
330
5B6E
102
}
330
5B6E
100
AcDbPlotSettings
  1

  2
HP LaserJet 5000 Series PCL 6
  4

  6

 40
0.0
 41
0.0
 42
0.0
 43
0.0
 44
0.0
 45
0.0
 46
0.0
 47
0.0
 48
0.0
 49
0.0
140
0.0
141
0.0
142
1.0
143
1.0
 70
   688
 72
     0
 73
     0
 74
     5
  7
monochrome.ctb
 75
    16
147
1.0
148
0.0
149
0.0
100
AcDbLayout
  1
Layout1
 70
     1
 71
     1
 10
0.0
 20
0.0
 11
12.0
 21
9.0
 12
0.0
 22
0.0
 32
0.0
 14
1.000000000000000E+20
 24
1.000000000000000E+20
 34
1.000000000000000E+20
 15
-1.000000000000000E+20
 25
-1.000000000000000E+20
 35
-1.000000000000000E+20
146
0.0
 13
0.0
 23
0.0
 33
0.0
 16
1.0
 26
0.0
 36
0.0
 17
0.0
 27
1.0
 37
0.0
 76
     0
330
16
  0
LAYOUT
  5
5B70
102
{ACAD_REACTORS
330
5B6E
102
}
330
5B6E
100
AcDbPlotSettings
  1

  2
RW-470 WP.pc3
  4
User135
  6

 40
3.174999952316284
 41
3.174999952316284
 42
3.17498779296875
 43
3.17498779296875
 44
558.7999877929687
 45
431.7999877929687
 46
0.0
 47
11.93799999999999
 48
0.0
 49
0.0
140
0.0
141
0.0
142
1.0
143
0.9889667969688453
 70
 11956
 72
     0
 73
     0
 74
     1
  7
monochrome.ctb
 75
     0
147
1.011156292673294
148
-1729.995897217727
149
-1233.502427453981
100
AcDbLayout
  1
Model
 70
     1
 71
     0
 10
0.0
 20
0.0
 11
12.0
 21
9.0
 12
0.0
 22
0.0
 32
0.0
 14
0.0
 24
0.0
 34
0.0
 15
0.0
 25
0.0
 35
0.0
146
0.0
 13
0.0
 23
0.0
 33
0.0
 16
1.0
 26
0.0
 36
0.0
 17
0.0
 27
1.0
 37
0.0
 76
     0
330
19
  0
MLINESTYLE
  5
1C
102
{ACAD_REACTORS
330
E
102
}
330
E
100
AcDbMlineStyle
  2
STANDARD
 70
     0
  3

 62
     0
 51
90.0
 52
90.0
 71
     2
 49
0.5
 62
   256
  6
BYLAYER
 49
-0.5
 62
   256
  6
BYLAYER
  0
ACDBPLACEHOLDER
  5
5B6D
102
{ACAD_REACTORS
330
5B6C
102
}
330
5B6C
  0
DICTIONARYVAR
  5
4D
102
{ACAD_REACTORS
330
4C
102
}
330
4C
100
DictionaryVariables
280
     0
  1
2
  0
DICTIONARYVAR
  5
5BA4
102
{ACAD_REACTORS
330
4C
102
}
330
4C
100
DictionaryVariables
280
     0
  1
1
  0
ENDSEC
  0
EOF
