  0
SECTION
  2
HEADER
  9
$ACADVER
  1
AC1009
  9
$INSBASE
 10
0.0
 20
0.0
 30
0.0
  9
$EXTMIN
 10
0.0
 20
0.0
 30
0.0
  9
$EXTMAX
 10
31.0
 20
20.24
 30
0.0
  9
$LIMMIN
 10
0.0
 20
0.0
  9
$LIMMAX
 10
41.0
 20
32.0
  9
$ORTHOMODE
 70
     1
  9
$REGENMODE
 70
     1
  9
$FILLMODE
 70
     1
  9
$QTEXTMODE
 70
     0
  9
$MIRRTEXT
 70
     0
  9
$DRAGMODE
 70
     2
  9
$LTSCALE
 40
0.5
  9
$OSMODE
 70
     0
  9
$ATTMODE
 70
     1
  9
$TEXTSIZE
 40
0.375
  9
$TRACEWID
 40
0.05
  9
$TEXTSTYLE
  7
TXT
  9
$CLAYER
  8
OBJECT
  9
$CELTYPE
  6
BYLAYER
  9
$CECOLOR
 62
   256
  9
$DIMSCALE
 40
2.0
  9
$DIMASZ
 40
0.18
  9
$DIMEXO
 40
0.063
  9
$DIMDLI
 40
0.281
  9
$DIMRND
 40
0.0
  9
$DIMDLE
 40
0.0
  9
$DIMEXE
 40
0.093
  9
$DIMTP
 40
0.0
  9
$DIMTM
 40
0.0
  9
$DIMTXT
 40
0.125
  9
$DIMCEN
 40
0.09
  9
$DIMTSZ
 40
0.0
  9
$DIMTOL
 70
     0
  9
$DIMLIM
 70
     0
  9
$DIMTIH
 70
     1
  9
$DIMTOH
 70
     1
  9
$DIMSE1
 70
     0
  9
$DIMSE2
 70
     0
  9
$DIMTAD
 70
     0
  9
$DIMZIN
 70
     0
  9
$DIMBLK
  1

  9
$DIMASO
 70
     1
  9
$DIMSHO
 70
     1
  9
$DIMPOST
  1

  9
$DIMAPOST
  1

  9
$DIMALT
 70
     0
  9
$DIMALTD
 70
     2
  9
$DIMALTF
 40
25.4
  9
$DIMLFAC
 40
1.0
  9
$DIMTOFL
 70
     0
  9
$DIMTVP
 40
0.0
  9
$DIMTIX
 70
     0
  9
$DIMSOXD
 70
     0
  9
$DIMSAH
 70
     0
  9
$DIMBLK1
  1

  9
$DIMBLK2
  1

  9
$DIMSTYLE
  2
23NSTD
  9
$DIMCLRD
 70
     0
  9
$DIMCLRE
 70
     0
  9
$DIMCLRT
 70
     0
  9
$DIMTFAC
 40
1.0
  9
$DIMGAP
 40
0.09
  9
$LUNITS
 70
     2
  9
$LUPREC
 70
     3
  9
$SKETCHINC
 40
0.1
  9
$FILLETRAD
 40
0.0
  9
$AUNITS
 70
     0
  9
$AUPREC
 70
     0
  9
$MENU
  1
acad
  9
$ELEVATION
 40
0.0
  9
$PELEVATION
 40
0.0
  9
$THICKNESS
 40
0.0
  9
$LIMCHECK
 70
     0
  9
$BLIPMODE
 70
     0
  9
$CHAMFERA
 40
0.0
  9
$CHAMFERB
 40
0.0
  9
$SKPOLY
 70
     0
  9
$TDCREATE
 40
2450942.484758101
  9
$TDUPDATE
 40
2451086.415504976
  9
$TDINDWG
 40
0.1754254630
  9
$TDUSRTIMER
 40
0.1754254630
  9
$USRTIMER
 70
     1
  9
$ANGBASE
 50
0.0
  9
$ANGDIR
 70
     0
  9
$PDMODE
 70
     0
  9
$PDSIZE
 40
0.0
  9
$PLINEWID
 40
0.0
  9
$COORDS
 70
     2
  9
$SPLFRAME
 70
     0
  9
$SPLINETYPE
 70
     6
  9
$SPLINESEGS
 70
     8
  9
$ATTDIA
 70
     1
  9
$ATTREQ
 70
     0
  9
$HANDLING
 70
     0
  9
$HANDSEED
  5
0
  9
$SURFTAB1
 70
     6
  9
$SURFTAB2
 70
     6
  9
$SURFTYPE
 70
     6
  9
$SURFU
 70
     6
  9
$SURFV
 70
     6
  9
$UCSNAME
  2

  9
$UCSORG
 10
0.0
 20
0.0
 30
0.0
  9
$UCSXDIR
 10
1.0
 20
0.0
 30
0.0
  9
$UCSYDIR
 10
0.0
 20
1.0
 30
0.0
  9
$PUCSNAME
  2

  9
$PUCSORG
 10
0.0
 20
0.0
 30
0.0
  9
$PUCSXDIR
 10
1.0
 20
0.0
 30
0.0
  9
$PUCSYDIR
 10
0.0
 20
1.0
 30
0.0
  9
$USERI1
 70
     0
  9
$USERI2
 70
     0
  9
$USERI3
 70
     0
  9
$USERI4
 70
     0
  9
$USERI5
 70
     0
  9
$USERR1
 40
0.0
  9
$USERR2
 40
0.0
  9
$USERR3
 40
0.0
  9
$USERR4
 40
0.0
  9
$USERR5
 40
0.0
  9
$WORLDVIEW
 70
     1
  9
$SHADEDGE
 70
     3
  9
$SHADEDIF
 70
    70
  9
$TILEMODE
 70
     1
  9
$MAXACTVP
 70
    16
  9
$PINSBASE
 10
0.0
 20
0.0
 30
0.0
  9
$PLIMCHECK
 70
     0
  9
$PEXTMIN
 10
1.000000E+20
 20
1.000000E+20
 30
1.000000E+20
  9
$PEXTMAX
 10
-1.000000E+20
 20
-1.000000E+20
 30
-1.000000E+20
  9
$PLIMMIN
 10
0.0
 20
0.0
  9
$PLIMMAX
 10
12.0
 20
9.0
  9
$UNITMODE
 70
     0
  9
$VISRETAIN
 70
     0
  9
$PLINEGEN
 70
     0
  9
$PSLTSCALE
 70
     0
  9
$TREEDEPTH
 70
  3020
  9
$DWGCODEPAGE
  3
ascii
  0
ENDSEC
  0
SECTION
  2
TABLES
  0
TABLE
  2
VPORT
 70
     2
  0
VPORT
  2
*ACTIVE
 70
     0
 10
0.0
 20
0.0
 11
1.0
 21
1.0
 12
15.5
 22
11.377487
 13
0.0
 23
0.0
 14
1.0
 24
1.0
 15
0.0
 25
0.0
 16
0.0
 26
0.0
 36
1.0
 17
0.0
 27
0.0
 37
0.0
 40
22.754974
 41
1.36234
 42
50.0
 43
0.0
 44
0.0
 50
0.0
 51
0.0
 71
     0
 72
  5000
 73
     1
 74
     0
 75
     0
 76
     0
 77
     0
 78
     0
  0
ENDTAB
  0
TABLE
  2
LTYPE
 70
     6
  0
LTYPE
  2
CONTINUOUS
 70
    64
  3
Solid line
 72
    65
 73
     0
 40
0.0
  0
LTYPE
  2
CENTER
 70
    64
  3
____ _ ____ _ ____ _ ____ _ ____ _ ____ _ ____ 
 72
    65
 73
     4
 40
2.0
 49
1.25
 49
-0.25
 49
0.25
 49
-0.25
  0
LTYPE
  2
PHANTOM
 70
    64
  3
______  __  __  ______  __  __  ______  __  __ 
 72
    65
 73
     6
 40
2.5
 49
1.25
 49
-0.25
 49
0.25
 49
-0.25
 49
0.25
 49
-0.25
  0
LTYPE
  2
HIDDEN
 70
    64
  3
__ __ __ __ __ __ __ __ __ __ __ __ __ __ __ __
 72
    65
 73
     2
 40
0.375
 49
0.25
 49
-0.125
  0
LTYPE
  2
HIDDEN2
 70
    64
  3
_ _ _ _ _ _ _ _ _ _ _ _ _ _ _ _ _ _ _ _ _ _ _ _
 72
    65
 73
     2
 40
0.1875
 49
0.125
 49
-0.0625
  0
LTYPE
  2
CENTER2
 70
    64
  3
___ _ ___ _ ___ _ ___ _ ___ _ ___ _ ___ _ ___ _
 72
    65
 73
     4
 40
1.125
 49
0.75
 49
-0.125
 49
0.125
 49
-0.125
  0
ENDTAB
  0
TABLE
  2
LAYER
 70
    13
  0
LAYER
  2
0
 70
    64
 62
     7
  6
CONTINUOUS
  0
LAYER
  2
TEXT
 70
    64
 62
     7
  6
CONTINUOUS
  0
LAYER
  2
TITLE
 70
    64
 62
     7
  6
CONTINUOUS
  0
LAYER
  2
DIM
 70
    64
 62
     7
  6
CONTINUOUS
  0
LAYER
  2
CENTER
 70
    64
 62
     7
  6
CENTER
  0
LAYER
  2
OBJECT
 70
    64
 62
     7
  6
CONTINUOUS
  0
LAYER
  2
DEFPOINTS
 70
    64
 62
     7
  6
CONTINUOUS
  0
LAYER
  2
BEND
 70
    64
 62
     7
  6
PHANTOM
  0
LAYER
  2
HIDDEN
 70
    64
 62
     7
  6
HIDDEN
  0
LAYER
  2
BASE
 70
    64
 62
     7
  6
CONTINUOUS
  0
LAYER
  2
BASE-HID
 70
    64
 62
     7
  6
HIDDEN
  0
LAYER
  2
COVER
 70
    64
 62
     7
  6
CONTINUOUS
  0
LAYER
  2
COVER-HID
 70
    64
 62
     7
  6
HIDDEN
  0
ENDTAB
  0
TABLE
  2
STYLE
 70
     2
  0
STYLE
  2
STANDARD
 70
    64
 40
0.0
 41
1.0
 50
0.0
 71
     0
 42
0.18
  3
txt
  4

  0
STYLE
  2
TXT
 70
    64
 40
0.0
 41
0.75
 50
0.0
 71
     0
 42
0.375
  3
txt
  4

  0
ENDTAB
  0
TABLE
  2
VIEW
 70
     0
  0
ENDTAB
  0
TABLE
  2
UCS
 70
     0
  0
ENDTAB
  0
TABLE
  2
APPID
 70
     1
  0
APPID
  2
ACAD
 70
    64
  0
ENDTAB
  0
TABLE
  2
DIMSTYLE
 70
     2
  0
DIMSTYLE
  2
23NSTD
 70
    64
  3

  4

  5

  6

  7

 40
2.0
 41
0.18
 42
0.063
 43
0.281
 44
0.093
 45
0.0
 46
0.0
 47
0.0
 48
0.0
140
0.125
141
0.09
142
0.0
143
25.4
144
1.0
145
0.0
146
1.0
147
0.09
 71
     0
 72
     0
 73
     1
 74
     1
 75
     0
 76
     0
 77
     0
 78
     0
170
     0
171
     2
172
     0
173
     0
174
     0
175
     0
176
     0
177
     0
178
     0
  0
DIMSTYLE
  2
23NSTDI
 70
    64
  3

  4

  5

  6

  7

 40
2.0
 41
0.18
 42
0.063
 43
0.281
 44
0.093
 45
0.0
 46
0.0
 47
0.0
 48
0.0
140
0.125
141
0.09
142
0.0
143
25.4
144
1.0
145
0.0
146
1.0
147
0.09
 71
     0
 72
     0
 73
     1
 74
     1
 75
     0
 76
     0
 77
     0
 78
     0
170
     0
171
     2
172
     0
173
     0
174
     1
175
     0
176
     0
177
     0
178
     0
  0
ENDTAB
  0
ENDSEC
  0
SECTION
  2
BLOCKS
  0
BLOCK
  8
0
  2
*X0
 70
    65
 10
0.0
 20
0.0
 30
0.0
  3
*X
  0
LINE
  8
0
 62
     0
 10
2.367014
 20
14.100568
 30
0.0
 11
2.46544
 21
14.198993
 31
0.0
  0
LINE
  8
0
 62
     0
 10
2.367014
 20
14.166859
 30
0.0
 11
2.46544
 21
14.265284
 31
0.0
  0
LINE
  8
0
 62
     0
 10
2.367014
 20
14.23315
 30
0.0
 11
2.46544
 21
14.331575
 31
0.0
  0
LINE
  8
0
 62
     0
 10
2.367014
 20
14.299441
 30
0.0
 11
2.46544
 21
14.397867
 31
0.0
  0
LINE
  8
0
 62
     0
 10
2.367014
 20
14.365733
 30
0.0
 11
2.46544
 21
14.464158
 31
0.0
  0
LINE
  8
0
 62
     0
 10
2.367014
 20
14.432024
 30
0.0
 11
2.46544
 21
14.530449
 31
0.0
  0
LINE
  8
0
 62
     0
 10
2.367014
 20
14.498315
 30
0.0
 11
2.46544
 21
14.59674
 31
0.0
  0
LINE
  8
0
 62
     0
 10
2.367014
 20
14.564606
 30
0.0
 11
2.46544
 21
14.663032
 31
0.0
  0
LINE
  8
0
 62
     0
 10
2.367014
 20
14.630898
 30
0.0
 11
2.46544
 21
14.729323
 31
0.0
  0
LINE
  8
0
 62
     0
 10
2.367014
 20
14.697189
 30
0.0
 11
2.46544
 21
14.795614
 31
0.0
  0
LINE
  8
0
 62
     0
 10
2.367014
 20
14.76348
 30
0.0
 11
2.46544
 21
14.861905
 31
0.0
  0
LINE
  8
0
 62
     0
 10
2.367014
 20
14.829771
 30
0.0
 11
2.46544
 21
14.928197
 31
0.0
  0
LINE
  8
0
 62
     0
 10
2.367014
 20
14.896063
 30
0.0
 11
2.46544
 21
14.994488
 31
0.0
  0
LINE
  8
0
 62
     0
 10
2.367014
 20
14.962354
 30
0.0
 11
2.46544
 21
15.060779
 31
0.0
  0
LINE
  8
0
 62
     0
 10
2.367014
 20
15.028645
 30
0.0
 11
2.46544
 21
15.12707
 31
0.0
  0
LINE
  8
0
 62
     0
 10
2.367014
 20
15.094937
 30
0.0
 11
2.46544
 21
15.193362
 31
0.0
  0
LINE
  8
0
 62
     0
 10
2.367014
 20
15.161228
 30
0.0
 11
2.46544
 21
15.259653
 31
0.0
  0
LINE
  8
0
 62
     0
 10
2.367014
 20
15.227519
 30
0.0
 11
2.46544
 21
15.325944
 31
0.0
  0
LINE
  8
0
 62
     0
 10
2.367014
 20
15.29381
 30
0.0
 11
2.46544
 21
15.392236
 31
0.0
  0
LINE
  8
0
 62
     0
 10
2.367014
 20
15.360102
 30
0.0
 11
2.46544
 21
15.458527
 31
0.0
  0
LINE
  8
0
 62
     0
 10
2.367014
 20
15.426393
 30
0.0
 11
2.46544
 21
15.524818
 31
0.0
  0
LINE
  8
0
 62
     0
 10
2.367014
 20
15.492684
 30
0.0
 11
2.46544
 21
15.591109
 31
0.0
  0
LINE
  8
0
 62
     0
 10
2.367014
 20
15.558975
 30
0.0
 11
2.46544
 21
15.657401
 31
0.0
  0
LINE
  8
0
 62
     0
 10
2.367014
 20
15.625267
 30
0.0
 11
2.46544
 21
15.723692
 31
0.0
  0
LINE
  8
0
 62
     0
 10
2.367014
 20
15.691558
 30
0.0
 11
2.46544
 21
15.789983
 31
0.0
  0
LINE
  8
0
 62
     0
 10
2.367014
 20
15.757849
 30
0.0
 11
2.46544
 21
15.856274
 31
0.0
  0
LINE
  8
0
 62
     0
 10
2.367014
 20
15.82414
 30
0.0
 11
2.46544
 21
15.922566
 31
0.0
  0
LINE
  8
0
 62
     0
 10
2.367014
 20
15.890432
 30
0.0
 11
2.46544
 21
15.988857
 31
0.0
  0
LINE
  8
0
 62
     0
 10
2.367014
 20
15.956723
 30
0.0
 11
2.46544
 21
16.055148
 31
0.0
  0
LINE
  8
0
 62
     0
 10
2.367014
 20
16.023014
 30
0.0
 11
2.46544
 21
16.121439
 31
0.0
  0
LINE
  8
0
 62
     0
 10
2.367014
 20
16.089305
 30
0.0
 11
2.46544
 21
16.187731
 31
0.0
  0
LINE
  8
0
 62
     0
 10
2.367014
 20
16.155597
 30
0.0
 11
2.46544
 21
16.254022
 31
0.0
  0
LINE
  8
0
 62
     0
 10
2.367014
 20
16.221888
 30
0.0
 11
2.46544
 21
16.320313
 31
0.0
  0
LINE
  8
0
 62
     0
 10
2.367014
 20
16.288179
 30
0.0
 11
2.46544
 21
16.386604
 31
0.0
  0
LINE
  8
0
 62
     0
 10
2.367014
 20
16.35447
 30
0.0
 11
2.46544
 21
16.452896
 31
0.0
  0
LINE
  8
0
 62
     0
 10
2.367014
 20
16.420762
 30
0.0
 11
2.46544
 21
16.519187
 31
0.0
  0
LINE
  8
0
 62
     0
 10
2.856222
 20
16.909969
 30
0.0
 11
2.918196
 21
16.971943
 31
0.0
  0
LINE
  8
0
 62
     0
 10
2.367014
 20
16.487053
 30
0.0
 11
2.46544
 21
16.585478
 31
0.0
  0
LINE
  8
0
 62
     0
 10
2.789931
 20
16.909969
 30
0.0
 11
2.868671
 21
16.988709
 31
0.0
  0
LINE
  8
0
 62
     0
 10
2.367014
 20
16.553344
 30
0.0
 11
2.46544
 21
16.651769
 31
0.0
  0
LINE
  8
0
 62
     0
 10
2.723639
 20
16.909969
 30
0.0
 11
2.80238
 21
16.988709
 31
0.0
  0
LINE
  8
0
 62
     0
 10
2.367014
 20
16.619636
 30
0.0
 11
2.46544
 21
16.718061
 31
0.0
  0
LINE
  8
0
 62
     0
 10
2.873884
 20
17.126505
 30
0.0
 11
2.918196
 21
17.170817
 31
0.0
  0
LINE
  8
0
 62
     0
 10
2.657348
 20
16.909969
 30
0.0
 11
2.736088
 21
16.988709
 31
0.0
  0
LINE
  8
0
 62
     0
 10
2.367014
 20
16.685927
 30
0.0
 11
2.46544
 21
16.784352
 31
0.0
  0
LINE
  8
0
 62
     0
 10
2.807592
 20
17.126505
 30
0.0
 11
2.886333
 21
17.205245
 31
0.0
  0
LINE
  8
0
 62
     0
 10
2.591057
 20
16.909969
 30
0.0
 11
2.669797
 21
16.988709
 31
0.0
  0
LINE
  8
0
 62
     0
 10
2.367014
 20
16.752218
 30
0.0
 11
2.46544
 21
16.850643
 31
0.0
  0
LINE
  8
0
 62
     0
 10
2.888939
 20
17.274143
 30
0.0
 11
2.918196
 21
17.303399
 31
0.0
  0
LINE
  8
0
 62
     0
 10
2.524766
 20
16.909969
 30
0.0
 11
2.603506
 21
16.988709
 31
0.0
  0
LINE
  8
0
 62
     0
 10
2.741301
 20
17.126505
 30
0.0
 11
2.820041
 21
17.205245
 31
0.0
  0
LINE
  8
0
 62
     0
 10
2.367014
 20
16.818509
 30
0.0
 11
2.537215
 21
16.988709
 31
0.0
  0
LINE
  8
0
 62
     0
 10
2.903357
 20
17.354851
 30
0.0
 11
2.918196
 21
17.369691
 31
0.0
  0
LINE
  8
0
 62
     0
 10
2.67501
 20
17.126505
 30
0.0
 11
2.75375
 21
17.205245
 31
0.0
  0
LINE
  8
0
 62
     0
 10
2.822648
 20
17.274143
 30
0.0
 11
2.860049
 21
17.311544
 31
0.0
  0
LINE
  8
0
 62
     0
 10
2.367014
 20
16.884801
 30
0.0
 11
2.425321
 21
16.943107
 31
0.0
  0
LINE
  8
0
 62
     0
 10
2.756357
 20
17.274143
 30
0.0
 11
2.874467
 21
17.392253
 31
0.0
  0
LINE
  8
0
 62
     0
 10
2.608719
 20
17.126505
 30
0.0
 11
2.687459
 21
17.205245
 31
0.0
  0
LINE
  8
0
 62
     0
 10
2.542427
 20
17.126505
 30
0.0
 11
2.621168
 21
17.205245
 31
0.0
  0
LINE
  8
0
 62
     0
 10
2.690065
 20
17.274143
 30
0.0
 11
2.808176
 21
17.392253
 31
0.0
  0
LINE
  8
0
 62
     0
 10
2.476136
 20
17.126505
 30
0.0
 11
2.554876
 21
17.205245
 31
0.0
  0
LINE
  8
0
 62
     0
 10
2.623774
 20
17.274143
 30
0.0
 11
2.741884
 21
17.392253
 31
0.0
  0
LINE
  8
0
 62
     0
 10
2.455447
 20
17.172107
 30
0.0
 11
2.488585
 21
17.205245
 31
0.0
  0
LINE
  8
0
 62
     0
 10
2.55363
 20
17.27029
 30
0.0
 11
2.675593
 21
17.392253
 31
0.0
  0
LINE
  8
0
 62
     0
 10
2.389156
 20
17.172107
 30
0.0
 11
2.609302
 21
17.392253
 31
0.0
  0
LINE
  8
0
 62
     0
 10
2.378005
 20
17.227247
 30
0.0
 11
2.53202
 21
17.381263
 31
0.0
  0
LINE
  8
0
 62
     0
 10
2.367014
 20
14.034276
 30
0.0
 11
2.46544
 21
14.132702
 31
0.0
  0
LINE
  8
0
 62
     0
 10
2.367014
 20
13.967985
 30
0.0
 11
2.46544
 21
14.06641
 31
0.0
  0
LINE
  8
0
 62
     0
 10
2.367014
 20
13.901694
 30
0.0
 11
2.46544
 21
14.000119
 31
0.0
  0
LINE
  8
0
 62
     0
 10
2.367014
 20
13.835403
 30
0.0
 11
2.46544
 21
13.933828
 31
0.0
  0
LINE
  8
0
 62
     0
 10
2.367014
 20
13.769111
 30
0.0
 11
2.46544
 21
13.867537
 31
0.0
  0
LINE
  8
0
 62
     0
 10
2.367014
 20
13.70282
 30
0.0
 11
2.46544
 21
13.801245
 31
0.0
  0
LINE
  8
0
 62
     0
 10
2.367014
 20
13.636529
 30
0.0
 11
2.46544
 21
13.734954
 31
0.0
  0
LINE
  8
0
 62
     0
 10
2.367014
 20
13.570238
 30
0.0
 11
2.46544
 21
13.668663
 31
0.0
  0
LINE
  8
0
 62
     0
 10
2.367014
 20
13.503946
 30
0.0
 11
2.46544
 21
13.602372
 31
0.0
  0
LINE
  8
0
 62
     0
 10
2.367014
 20
13.437655
 30
0.0
 11
2.46544
 21
13.53608
 31
0.0
  0
LINE
  8
0
 62
     0
 10
2.367014
 20
13.371364
 30
0.0
 11
2.46544
 21
13.469789
 31
0.0
  0
LINE
  8
0
 62
     0
 10
2.367014
 20
13.305072
 30
0.0
 11
2.46544
 21
13.403498
 31
0.0
  0
LINE
  8
0
 62
     0
 10
2.367014
 20
13.238781
 30
0.0
 11
2.46544
 21
13.337206
 31
0.0
  0
LINE
  8
0
 62
     0
 10
2.367014
 20
13.17249
 30
0.0
 11
2.46544
 21
13.270915
 31
0.0
  0
LINE
  8
0
 62
     0
 10
2.367014
 20
13.106199
 30
0.0
 11
2.46544
 21
13.204624
 31
0.0
  0
LINE
  8
0
 62
     0
 10
2.367014
 20
13.039907
 30
0.0
 11
2.46544
 21
13.138333
 31
0.0
  0
LINE
  8
0
 62
     0
 10
2.367014
 20
12.973616
 30
0.0
 11
2.46544
 21
13.072041
 31
0.0
  0
LINE
  8
0
 62
     0
 10
2.367014
 20
12.907325
 30
0.0
 11
2.46544
 21
13.00575
 31
0.0
  0
LINE
  8
0
 62
     0
 10
2.367014
 20
12.841034
 30
0.0
 11
2.46544
 21
12.939459
 31
0.0
  0
LINE
  8
0
 62
     0
 10
2.367014
 20
12.774742
 30
0.0
 11
2.46544
 21
12.873168
 31
0.0
  0
LINE
  8
0
 62
     0
 10
2.367014
 20
12.708451
 30
0.0
 11
2.46544
 21
12.806876
 31
0.0
  0
LINE
  8
0
 62
     0
 10
2.367014
 20
12.64216
 30
0.0
 11
2.46544
 21
12.740585
 31
0.0
  0
LINE
  8
0
 62
     0
 10
2.367014
 20
12.575869
 30
0.0
 11
2.46544
 21
12.674294
 31
0.0
  0
LINE
  8
0
 62
     0
 10
2.367014
 20
12.509577
 30
0.0
 11
2.46544
 21
12.608003
 31
0.0
  0
LINE
  8
0
 62
     0
 10
2.367014
 20
12.443286
 30
0.0
 11
2.46544
 21
12.541711
 31
0.0
  0
LINE
  8
0
 62
     0
 10
2.367014
 20
12.376995
 30
0.0
 11
2.46544
 21
12.47542
 31
0.0
  0
LINE
  8
0
 62
     0
 10
2.367014
 20
12.310704
 30
0.0
 11
2.46544
 21
12.409129
 31
0.0
  0
LINE
  8
0
 62
     0
 10
2.367014
 20
12.244412
 30
0.0
 11
2.46544
 21
12.342838
 31
0.0
  0
LINE
  8
0
 62
     0
 10
2.367014
 20
12.178121
 30
0.0
 11
2.46544
 21
12.276546
 31
0.0
  0
LINE
  8
0
 62
     0
 10
2.367014
 20
12.11183
 30
0.0
 11
2.46544
 21
12.210255
 31
0.0
  0
LINE
  8
0
 62
     0
 10
2.367014
 20
12.045539
 30
0.0
 11
2.46544
 21
12.143964
 31
0.0
  0
LINE
  8
0
 62
     0
 10
2.367014
 20
11.979247
 30
0.0
 11
2.46544
 21
12.077673
 31
0.0
  0
LINE
  8
0
 62
     0
 10
2.389942
 20
11.935884
 30
0.0
 11
2.46544
 21
12.011381
 31
0.0
  0
LINE
  8
0
 62
     0
 10
2.456234
 20
11.935884
 30
0.0
 11
2.489371
 21
11.969022
 31
0.0
  0
LINE
  8
0
 62
     0
 10
2.476922
 20
11.890282
 30
0.0
 11
2.555663
 21
11.969022
 31
0.0
  0
LINE
  8
0
 62
     0
 10
2.543214
 20
11.890282
 30
0.0
 11
2.621954
 21
11.969022
 31
0.0
  0
LINE
  8
0
 62
     0
 10
2.376368
 20
11.657144
 30
0.0
 11
2.426107
 21
11.706884
 31
0.0
  0
LINE
  8
0
 62
     0
 10
2.609505
 20
11.890282
 30
0.0
 11
2.688245
 21
11.969022
 31
0.0
  0
LINE
  8
0
 62
     0
 10
2.395682
 20
11.610167
 30
0.0
 11
2.538001
 21
11.752486
 31
0.0
  0
LINE
  8
0
 62
     0
 10
2.675796
 20
11.890282
 30
0.0
 11
2.754536
 21
11.969022
 31
0.0
  0
LINE
  8
0
 62
     0
 10
2.422574
 20
11.570768
 30
0.0
 11
2.495756
 21
11.64395
 31
0.0
  0
LINE
  8
0
 62
     0
 10
2.742088
 20
11.890282
 30
0.0
 11
2.820828
 21
11.969022
 31
0.0
  0
LINE
  8
0
 62
     0
 10
2.525552
 20
11.673746
 30
0.0
 11
2.604292
 21
11.752486
 31
0.0
  0
LINE
  8
0
 62
     0
 10
2.456186
 20
11.538089
 30
0.0
 11
2.533892
 21
11.615795
 31
0.0
  0
LINE
  8
0
 62
     0
 10
2.808379
 20
11.890282
 30
0.0
 11
2.887119
 21
11.969022
 31
0.0
  0
LINE
  8
0
 62
     0
 10
2.591843
 20
11.673746
 30
0.0
 11
2.670583
 21
11.752486
 31
0.0
  0
LINE
  8
0
 62
     0
 10
2.496577
 20
11.512188
 30
0.0
 11
2.589237
 21
11.604848
 31
0.0
  0
LINE
  8
0
 62
     0
 10
2.87467
 20
11.890282
 30
0.0
 11
2.918196
 21
11.933807
 31
0.0
  0
LINE
  8
0
 62
     0
 10
2.658135
 20
11.673746
 30
0.0
 11
2.736875
 21
11.752486
 31
0.0
  0
LINE
  8
0
 62
     0
 10
2.544768
 20
11.494088
 30
0.0
 11
2.655528
 21
11.604848
 31
0.0
  0
LINE
  8
0
 62
     0
 10
2.724426
 20
11.673746
 30
0.0
 11
2.803166
 21
11.752486
 31
0.0
  0
LINE
  8
0
 62
     0
 10
2.603709
 20
11.486738
 30
0.0
 11
2.721819
 21
11.604848
 31
0.0
  0
LINE
  8
0
 62
     0
 10
2.790717
 20
11.673746
 30
0.0
 11
2.869457
 21
11.752486
 31
0.0
  0
LINE
  8
0
 62
     0
 10
2.67
 20
11.486738
 30
0.0
 11
2.788111
 21
11.604848
 31
0.0
  0
LINE
  8
0
 62
     0
 10
2.857008
 20
11.673746
 30
0.0
 11
2.918196
 21
11.734934
 31
0.0
  0
LINE
  8
0
 62
     0
 10
2.736292
 20
11.486738
 30
0.0
 11
2.854402
 21
11.604848
 31
0.0
  0
LINE
  8
0
 62
     0
 10
2.802583
 20
11.486738
 30
0.0
 11
2.859196
 21
11.543351
 31
0.0
  0
LINE
  8
0
 62
     0
 10
2.883292
 20
11.567447
 30
0.0
 11
2.918196
 21
11.602351
 31
0.0
  0
LINE
  8
0
 62
     0
 10
2.868874
 20
11.486738
 30
0.0
 11
2.906276
 21
11.52414
 31
0.0
  0
ENDBLK
  8
0
  0
BLOCK
  8
0
  2
*D1
 70
    65
 10
0.0
 20
0.0
 30
0.0
  3
*D
  0
LINE
  8
0
  6
BYBLOCK
 62
     0
 10
23.806108
 20
6.361653
 30
0.0
 11
23.806108
 21
5.345432
 31
0.0
  0
LINE
  8
0
  6
BYBLOCK
 62
     0
 10
27.310047
 20
6.361653
 30
0.0
 11
27.310047
 21
5.345432
 31
0.0
  0
LINE
  8
0
  6
BYBLOCK
 62
     0
 10
24.166108
 20
5.531432
 30
0.0
 11
25.018703
 21
5.531432
 31
0.0
  0
LINE
  8
0
  6
BYBLOCK
 62
     0
 10
26.950047
 20
5.531432
 30
0.0
 11
26.097453
 21
5.531432
 31
0.0
  0
SOLID
  8
0
  6
BYBLOCK
 62
     0
 10
24.166108
 20
5.591432
 30
0.0
 11
24.166108
 21
5.471432
 31
0.0
 12
23.806108
 22
5.531432
 32
0.0
 13
23.806108
 23
5.531432
 33
0.0
  0
SOLID
  8
0
  6
BYBLOCK
 62
     0
 10
26.950047
 20
5.591432
 30
0.0
 11
26.950047
 21
5.471432
 31
0.0
 12
27.310047
 22
5.531432
 32
0.0
 13
27.310047
 23
5.531432
 33
0.0
  0
TEXT
  8
0
  6
BYBLOCK
 62
     0
 10
25.198703
 20
5.406432
 30
0.0
 40
0.25
  1
3.504
 41
0.75
  7
TXT
 72
     1
 11
25.558078
 21
5.531432
 31
0.0
 73
     2
  0
POINT
  8
DEFPOINTS
  6
BYBLOCK
 62
     0
 10
23.806108
 20
6.487653
 30
0.0
  0
POINT
  8
DEFPOINTS
  6
BYBLOCK
 62
     0
 10
27.310047
 20
6.487653
 30
0.0
  0
POINT
  8
DEFPOINTS
  6
BYBLOCK
 62
     0
 10
27.310047
 20
5.531432
 30
0.0
  0
ENDBLK
  8
0
  0
BLOCK
  8
0
  2
*D2
 70
    65
 10
0.0
 20
0.0
 30
0.0
  3
*D
  0
LINE
  8
0
  6
BYBLOCK
 62
     0
 10
24.012801
 20
6.347578
 30
0.0
 11
24.012801
 21
4.783432
 31
0.0
  0
LINE
  8
0
  6
BYBLOCK
 62
     0
 10
27.103354
 20
6.347578
 30
0.0
 11
27.103354
 21
4.783432
 31
0.0
  0
LINE
  8
0
  6
BYBLOCK
 62
     0
 10
24.372801
 20
4.969432
 30
0.0
 11
25.049953
 21
4.969432
 31
0.0
  0
LINE
  8
0
  6
BYBLOCK
 62
     0
 10
26.743354
 20
4.969432
 30
0.0
 11
26.066203
 21
4.969432
 31
0.0
  0
SOLID
  8
0
  6
BYBLOCK
 62
     0
 10
24.372801
 20
5.029432
 30
0.0
 11
24.372801
 21
4.909432
 31
0.0
 12
24.012801
 22
4.969432
 32
0.0
 13
24.012801
 23
4.969432
 33
0.0
  0
SOLID
  8
0
  6
BYBLOCK
 62
     0
 10
26.743354
 20
5.029432
 30
0.0
 11
26.743354
 21
4.909432
 31
0.0
 12
27.103354
 22
4.969432
 32
0.0
 13
27.103354
 23
4.969432
 33
0.0
  0
TEXT
  8
0
  6
BYBLOCK
 62
     0
 10
25.229953
 20
4.844432
 30
0.0
 40
0.25
  1
3.091
 41
0.75
  7
TXT
 72
     1
 11
25.558078
 21
4.969432
 31
0.0
 73
     2
  0
POINT
  8
DEFPOINTS
  6
BYBLOCK
 62
     0
 10
24.012801
 20
6.473578
 30
0.0
  0
POINT
  8
DEFPOINTS
  6
BYBLOCK
 62
     0
 10
27.103354
 20
6.473578
 30
0.0
  0
POINT
  8
DEFPOINTS
  6
BYBLOCK
 62
     0
 10
27.103354
 20
4.969432
 30
0.0
  0
ENDBLK
  8
0
  0
BLOCK
  8
0
  2
*D3
 70
    65
 10
0.0
 20
0.0
 30
0.0
  3
*D
  0
LINE
  8
0
  6
BYBLOCK
 62
     0
 10
24.012801
 20
6.347578
 30
0.0
 11
24.012801
 21
4.783432
 31
0.0
  0
LINE
  8
0
  6
BYBLOCK
 62
     0
 10
23.687998
 20
6.361653
 30
0.0
 11
23.687998
 21
4.783432
 31
0.0
  0
LINE
  8
0
  6
BYBLOCK
 62
     0
 10
24.372801
 20
4.969432
 30
0.0
 11
24.732801
 21
4.969432
 31
0.0
  0
LINE
  8
0
  6
BYBLOCK
 62
     0
 10
23.327998
 20
4.969432
 30
0.0
 11
22.967998
 21
4.969432
 31
0.0
  0
SOLID
  8
0
  6
BYBLOCK
 62
     0
 10
24.372801
 20
5.029432
 30
0.0
 11
24.372801
 21
4.909432
 31
0.0
 12
24.012801
 22
4.969432
 32
0.0
 13
24.012801
 23
4.969432
 33
0.0
  0
SOLID
  8
0
  6
BYBLOCK
 62
     0
 10
23.327998
 20
5.029432
 30
0.0
 11
23.327998
 21
4.909432
 31
0.0
 12
23.687998
 22
4.969432
 32
0.0
 13
23.687998
 23
4.969432
 33
0.0
  0
TEXT
  8
0
  6
BYBLOCK
 62
     0
 10
22.069248
 20
4.844432
 30
0.0
 40
0.25
  1
0.325
 41
0.75
  7
TXT
 72
     1
 11
22.428623
 21
4.969432
 31
0.0
 73
     2
  0
POINT
  8
DEFPOINTS
  6
BYBLOCK
 62
     0
 10
24.012801
 20
6.473578
 30
0.0
  0
POINT
  8
DEFPOINTS
  6
BYBLOCK
 62
     0
 10
23.687998
 20
6.487653
 30
0.0
  0
POINT
  8
DEFPOINTS
  6
BYBLOCK
 62
     0
 10
23.687998
 20
4.969432
 30
0.0
  0
ENDBLK
  8
0
  0
BLOCK
  8
0
  2
*D4
 70
    65
 10
0.0
 20
0.0
 30
0.0
  3
*D
  0
LINE
  8
0
  6
BYBLOCK
 62
     0
 10
23.806108
 20
6.361653
 30
0.0
 11
23.806108
 21
5.345432
 31
0.0
  0
LINE
  8
0
  6
BYBLOCK
 62
     0
 10
23.687998
 20
6.361653
 30
0.0
 11
23.687998
 21
5.345432
 31
0.0
  0
LINE
  8
0
  6
BYBLOCK
 62
     0
 10
24.166108
 20
5.531432
 30
0.0
 11
24.526108
 21
5.531432
 31
0.0
  0
LINE
  8
0
  6
BYBLOCK
 62
     0
 10
23.327998
 20
5.531432
 30
0.0
 11
22.967998
 21
5.531432
 31
0.0
  0
SOLID
  8
0
  6
BYBLOCK
 62
     0
 10
24.166108
 20
5.591432
 30
0.0
 11
24.166108
 21
5.471432
 31
0.0
 12
23.806108
 22
5.531432
 32
0.0
 13
23.806108
 23
5.531432
 33
0.0
  0
SOLID
  8
0
  6
BYBLOCK
 62
     0
 10
23.327998
 20
5.591432
 30
0.0
 11
23.327998
 21
5.471432
 31
0.0
 12
23.687998
 22
5.531432
 32
0.0
 13
23.687998
 23
5.531432
 33
0.0
  0
TEXT
  8
0
  6
BYBLOCK
 62
     0
 10
22.194248
 20
5.406432
 30
0.0
 40
0.25
  1
0.118
 41
0.75
  7
TXT
 72
     1
 11
22.491123
 21
5.531432
 31
0.0
 73
     2
  0
POINT
  8
DEFPOINTS
  6
BYBLOCK
 62
     0
 10
23.806108
 20
6.487653
 30
0.0
  0
POINT
  8
DEFPOINTS
  6
BYBLOCK
 62
     0
 10
23.687998
 20
6.487653
 30
0.0
  0
POINT
  8
DEFPOINTS
  6
BYBLOCK
 62
     0
 10
23.687998
 20
5.531432
 30
0.0
  0
ENDBLK
  8
0
  0
BLOCK
  8
0
  2
*D5
 70
    65
 10
0.0
 20
0.0
 30
0.0
  3
*D
  0
LINE
  8
0
  6
BYBLOCK
 62
     0
 10
27.341854
 20
6.586078
 30
0.0
 11
28.334158
 21
6.586078
 31
0.0
  0
LINE
  8
0
  6
BYBLOCK
 62
     0
 10
27.341854
 20
11.822301
 30
0.0
 11
28.334158
 21
11.822301
 31
0.0
  0
LINE
  8
0
  6
BYBLOCK
 62
     0
 10
28.148158
 20
6.946078
 30
0.0
 11
28.148158
 21
8.89919
 31
0.0
  0
LINE
  8
0
  6
BYBLOCK
 62
     0
 10
28.148158
 20
11.462301
 30
0.0
 11
28.148158
 21
9.50919
 31
0.0
  0
SOLID
  8
0
  6
BYBLOCK
 62
     0
 10
28.088158
 20
6.946078
 30
0.0
 11
28.208158
 21
6.946078
 31
0.0
 12
28.148158
 22
6.586078
 32
0.0
 13
28.148158
 23
6.586078
 33
0.0
  0
SOLID
  8
0
  6
BYBLOCK
 62
     0
 10
28.088158
 20
11.462301
 30
0.0
 11
28.208158
 21
11.462301
 31
0.0
 12
28.148158
 22
11.822301
 32
0.0
 13
28.148158
 23
11.822301
 33
0.0
  0
TEXT
  8
0
  6
BYBLOCK
 62
     0
 10
27.773158
 20
9.07919
 30
0.0
 40
0.25
  1
5.236
 41
0.75
  7
TXT
 72
     1
 11
28.148158
 21
9.20419
 31
0.0
 73
     2
  0
POINT
  8
DEFPOINTS
  6
BYBLOCK
 62
     0
 10
27.215854
 20
6.586078
 30
0.0
  0
POINT
  8
DEFPOINTS
  6
BYBLOCK
 62
     0
 10
27.215854
 20
11.822301
 30
0.0
  0
POINT
  8
DEFPOINTS
  6
BYBLOCK
 62
     0
 10
28.148158
 20
11.822301
 30
0.0
  0
ENDBLK
  8
0
  0
BLOCK
  8
0
  2
*D6
 70
    65
 10
0.0
 20
0.0
 30
0.0
  3
*D
  0
LINE
  8
0
  6
BYBLOCK
 62
     0
 10
27.341854
 20
6.586078
 30
0.0
 11
28.334158
 21
6.586078
 31
0.0
  0
LINE
  8
0
  6
BYBLOCK
 62
     0
 10
27.317937
 20
6.251432
 30
0.0
 11
28.334158
 21
6.251432
 31
0.0
  0
LINE
  8
0
  6
BYBLOCK
 62
     0
 10
28.148158
 20
6.946078
 30
0.0
 11
28.148158
 21
7.306078
 31
0.0
  0
LINE
  8
0
  6
BYBLOCK
 62
     0
 10
28.148158
 20
5.891432
 30
0.0
 11
28.148158
 21
5.531432
 31
0.0
  0
SOLID
  8
0
  6
BYBLOCK
 62
     0
 10
28.088158
 20
6.946078
 30
0.0
 11
28.208158
 21
6.946078
 31
0.0
 12
28.148158
 22
6.586078
 32
0.0
 13
28.148158
 23
6.586078
 33
0.0
  0
SOLID
  8
0
  6
BYBLOCK
 62
     0
 10
28.088158
 20
5.891432
 30
0.0
 11
28.208158
 21
5.891432
 31
0.0
 12
28.148158
 22
6.251432
 32
0.0
 13
28.148158
 23
6.251432
 33
0.0
  0
TEXT
  8
0
  6
BYBLOCK
 62
     0
 10
27.788783
 20
6.293755
 30
0.0
 40
0.25
  1
0.335
 41
0.75
  7
TXT
 72
     1
 11
28.148158
 21
6.418755
 31
0.0
 73
     2
  0
POINT
  8
DEFPOINTS
  6
BYBLOCK
 62
     0
 10
27.215854
 20
6.586078
 30
0.0
  0
POINT
  8
DEFPOINTS
  6
BYBLOCK
 62
     0
 10
27.191937
 20
6.251432
 30
0.0
  0
POINT
  8
DEFPOINTS
  6
BYBLOCK
 62
     0
 10
28.148158
 20
6.251432
 30
0.0
  0
ENDBLK
  8
0
  0
BLOCK
  8
0
  2
*D8
 70
    65
 10
0.0
 20
0.0
 30
0.0
  3
*D
  0
LINE
  8
0
  6
BYBLOCK
 62
     0
 10
17.585805
 20
6.361653
 30
0.0
 11
17.585805
 21
4.221432
 31
0.0
  0
LINE
  8
0
  6
BYBLOCK
 62
     0
 10
16.460805
 20
6.204172
 30
0.0
 11
16.460805
 21
4.221432
 31
0.0
  0
LINE
  8
0
  6
BYBLOCK
 62
     0
 10
17.945805
 20
4.407432
 30
0.0
 11
18.305805
 21
4.407432
 31
0.0
  0
LINE
  8
0
  6
BYBLOCK
 62
     0
 10
16.100805
 20
4.407432
 30
0.0
 11
15.740805
 21
4.407432
 31
0.0
  0
SOLID
  8
0
  6
BYBLOCK
 62
     0
 10
17.945805
 20
4.467432
 30
0.0
 11
17.945805
 21
4.347432
 31
0.0
 12
17.585805
 22
4.407432
 32
0.0
 13
17.585805
 23
4.407432
 33
0.0
  0
SOLID
  8
0
  6
BYBLOCK
 62
     0
 10
16.100805
 20
4.467432
 30
0.0
 11
16.100805
 21
4.347432
 31
0.0
 12
16.460805
 22
4.407432
 32
0.0
 13
16.460805
 23
4.407432
 33
0.0
  0
TEXT
  8
0
  6
BYBLOCK
 62
     0
 10
16.710805
 20
4.282432
 30
0.0
 40
0.25
  1
1.125
 41
0.75
  7
TXT
 72
     1
 11
17.023305
 21
4.407432
 31
0.0
 73
     2
  0
POINT
  8
DEFPOINTS
  6
BYBLOCK
 62
     0
 10
17.585805
 20
6.487653
 30
0.0
  0
POINT
  8
DEFPOINTS
  6
BYBLOCK
 62
     0
 10
16.460805
 20
6.330172
 30
0.0
  0
POINT
  8
DEFPOINTS
  6
BYBLOCK
 62
     0
 10
16.460805
 20
4.407432
 30
0.0
  0
ENDBLK
  8
0
  0
BLOCK
  8
0
  2
*D9
 70
    65
 10
0.0
 20
0.0
 30
0.0
  3
*D
  0
LINE
  8
0
  6
BYBLOCK
 62
     0
 10
16.413545
 20
6.251432
 30
0.0
 11
15.554805
 21
6.251432
 31
0.0
  0
LINE
  8
0
  6
BYBLOCK
 62
     0
 10
16.334805
 20
9.814426
 30
0.0
 11
15.554805
 21
9.814426
 31
0.0
  0
LINE
  8
0
  6
BYBLOCK
 62
     0
 10
15.740805
 20
6.611432
 30
0.0
 11
15.740805
 21
7.727929
 31
0.0
  0
LINE
  8
0
  6
BYBLOCK
 62
     0
 10
15.740805
 20
9.454426
 30
0.0
 11
15.740805
 21
8.337929
 31
0.0
  0
SOLID
  8
0
  6
BYBLOCK
 62
     0
 10
15.680805
 20
6.611432
 30
0.0
 11
15.800805
 21
6.611432
 31
0.0
 12
15.740805
 22
6.251432
 32
0.0
 13
15.740805
 23
6.251432
 33
0.0
  0
SOLID
  8
0
  6
BYBLOCK
 62
     0
 10
15.680805
 20
9.454426
 30
0.0
 11
15.800805
 21
9.454426
 31
0.0
 12
15.740805
 22
9.814426
 32
0.0
 13
15.740805
 23
9.814426
 33
0.0
  0
TEXT
  8
0
  6
BYBLOCK
 62
     0
 10
15.365805
 20
7.907929
 30
0.0
 40
0.25
  1
3.563
 41
0.75
  7
TXT
 72
     1
 11
15.740805
 21
8.032929
 31
0.0
 73
     2
  0
POINT
  8
DEFPOINTS
  6
BYBLOCK
 62
     0
 10
16.539545
 20
6.251432
 30
0.0
  0
POINT
  8
DEFPOINTS
  6
BYBLOCK
 62
     0
 10
16.460805
 20
9.814426
 30
0.0
  0
POINT
  8
DEFPOINTS
  6
BYBLOCK
 62
     0
 10
15.740805
 20
9.814426
 30
0.0
  0
ENDBLK
  8
0
  0
BLOCK
  8
0
  2
*D10
 70
    65
 10
0.0
 20
0.0
 30
0.0
  3
*D
  0
ARC
  8
0
  6
BYBLOCK
 62
     0
 10
16.460805
 20
9.814426
 30
0.0
 40
1.421841
 50
129.545911
 51
180.110526
  0
ARC
  8
0
  6
BYBLOCK
 62
     0
 10
16.460805
 20
9.814426
 30
0.0
 40
1.421841
 50
205.527877
 51
255.454089
  0
SOLID
  8
0
  6
BYBLOCK
 62
     0
 10
15.523486
 20
10.96156
 30
0.0
 11
15.587561
 21
10.860098
 31
0.0
 12
15.859909
 22
11.103052
 32
0.0
 13
15.859909
 23
11.103052
 33
0.0
  0
SOLID
  8
0
  6
BYBLOCK
 62
     0
 10
16.111297
 20
8.497677
 30
0.0
 11
16.096105
 21
8.378642
 31
0.0
 12
16.460805
 22
8.392585
 32
0.0
 13
16.460805
 23
8.392585
 33
0.0
  0
TEXT
  8
0
  6
BYBLOCK
 62
     0
 10
14.791417
 20
9.381683
 30
0.0
 40
0.25
  1
155%%d
 41
0.75
  7
TXT
 72
     1
 11
15.072667
 21
9.506683
 31
0.0
 73
     2
  0
POINT
  8
DEFPOINTS
  6
BYBLOCK
 62
     0
 10
15.04555
 20
9.951123
 30
0.0
  0
POINT
  8
DEFPOINTS
  6
BYBLOCK
 62
     0
 10
16.460805
 20
6.330172
 30
0.0
  0
POINT
  8
DEFPOINTS
  6
BYBLOCK
 62
     0
 10
16.460805
 20
9.814426
 30
0.0
  0
POINT
  8
DEFPOINTS
  6
BYBLOCK
 62
     0
 10
15.668161
 20
11.514256
 30
0.0
  0
POINT
  8
DEFPOINTS
  6
BYBLOCK
 62
     0
 10
16.460805
 20
9.814426
 30
0.0
  0
ENDBLK
  8
0
  0
BLOCK
  8
0
  2
*D11
 70
    65
 10
0.0
 20
0.0
 30
0.0
  3
*D
  0
LINE
  8
0
  6
BYBLOCK
 62
     0
 10
17.585805
 20
12.046727
 30
0.0
 11
17.585805
 21
13.062947
 31
0.0
  0
LINE
  8
0
  6
BYBLOCK
 62
     0
 10
15.648069
 20
11.735544
 30
0.0
 11
15.648069
 21
13.062947
 31
0.0
  0
LINE
  8
0
  6
BYBLOCK
 62
     0
 10
17.945805
 20
12.876947
 30
0.0
 11
18.305805
 21
12.876947
 31
0.0
  0
LINE
  8
0
  6
BYBLOCK
 62
     0
 10
15.288069
 20
12.876947
 30
0.0
 11
14.928069
 21
12.876947
 31
0.0
  0
SOLID
  8
0
  6
BYBLOCK
 62
     0
 10
17.945805
 20
12.936947
 30
0.0
 11
17.945805
 21
12.816947
 31
0.0
 12
17.585805
 22
12.876947
 32
0.0
 13
17.585805
 23
12.876947
 33
0.0
  0
SOLID
  8
0
  6
BYBLOCK
 62
     0
 10
15.288069
 20
12.936947
 30
0.0
 11
15.288069
 21
12.816947
 31
0.0
 12
15.648069
 22
12.876947
 32
0.0
 13
15.648069
 23
12.876947
 33
0.0
  0
TEXT
  8
0
  6
BYBLOCK
 62
     0
 10
16.273187
 20
12.751947
 30
0.0
 40
0.25
  1
1.938
 41
0.75
  7
TXT
 72
     1
 11
16.616937
 21
12.876947
 31
0.0
 73
     2
  0
POINT
  8
DEFPOINTS
  6
BYBLOCK
 62
     0
 10
17.585805
 20
11.920727
 30
0.0
  0
POINT
  8
DEFPOINTS
  6
BYBLOCK
 62
     0
 10
15.648069
 20
11.609544
 30
0.0
  0
POINT
  8
DEFPOINTS
  6
BYBLOCK
 62
     0
 10
15.648069
 20
12.876947
 30
0.0
  0
ENDBLK
  8
0
  0
BLOCK
  8
0
  2
*D13
 70
    65
 10
0.0
 20
0.0
 30
0.0
  3
*D
  0
LINE
  8
0
  6
BYBLOCK
 62
     0
 10
8.965909
 20
6.361653
 30
0.0
 11
8.965909
 21
4.783432
 31
0.0
  0
LINE
  8
0
  6
BYBLOCK
 62
     0
 10
12.706068
 20
6.361653
 30
0.0
 11
12.706068
 21
4.783432
 31
0.0
  0
LINE
  8
0
  6
BYBLOCK
 62
     0
 10
9.325909
 20
4.969432
 30
0.0
 11
10.296613
 21
4.969432
 31
0.0
  0
LINE
  8
0
  6
BYBLOCK
 62
     0
 10
12.346068
 20
4.969432
 30
0.0
 11
11.375363
 21
4.969432
 31
0.0
  0
SOLID
  8
0
  6
BYBLOCK
 62
     0
 10
9.325909
 20
5.029432
 30
0.0
 11
9.325909
 21
4.909432
 31
0.0
 12
8.965909
 22
4.969432
 32
0.0
 13
8.965909
 23
4.969432
 33
0.0
  0
SOLID
  8
0
  6
BYBLOCK
 62
     0
 10
12.346068
 20
5.029432
 30
0.0
 11
12.346068
 21
4.909432
 31
0.0
 12
12.706068
 22
4.969432
 32
0.0
 13
12.706068
 23
4.969432
 33
0.0
  0
TEXT
  8
0
  6
BYBLOCK
 62
     0
 10
10.476613
 20
4.844432
 30
0.0
 40
0.25
  1
3.740
 41
0.75
  7
TXT
 72
     1
 11
10.835988
 21
4.969432
 31
0.0
 73
     2
  0
POINT
  8
DEFPOINTS
  6
BYBLOCK
 62
     0
 10
8.965909
 20
6.487653
 30
0.0
  0
POINT
  8
DEFPOINTS
  6
BYBLOCK
 62
     0
 10
12.706068
 20
6.487653
 30
0.0
  0
POINT
  8
DEFPOINTS
  6
BYBLOCK
 62
     0
 10
12.706068
 20
4.969432
 30
0.0
  0
ENDBLK
  8
0
  0
BLOCK
  8
0
  2
*D14
 70
    65
 10
0.0
 20
0.0
 30
0.0
  3
*D
  0
LINE
  8
0
  6
BYBLOCK
 62
     0
 10
9.231657
 20
6.401023
 30
0.0
 11
9.231657
 21
5.345432
 31
0.0
  0
LINE
  8
0
  6
BYBLOCK
 62
     0
 10
12.44032
 20
6.401023
 30
0.0
 11
12.44032
 21
5.345432
 31
0.0
  0
LINE
  8
0
  6
BYBLOCK
 62
     0
 10
9.591657
 20
5.531432
 30
0.0
 11
10.202863
 21
5.531432
 31
0.0
  0
LINE
  8
0
  6
BYBLOCK
 62
     0
 10
12.08032
 20
5.531432
 30
0.0
 11
11.469113
 21
5.531432
 31
0.0
  0
SOLID
  8
0
  6
BYBLOCK
 62
     0
 10
9.591657
 20
5.591432
 30
0.0
 11
9.591657
 21
5.471432
 31
0.0
 12
9.231657
 22
5.531432
 32
0.0
 13
9.231657
 23
5.531432
 33
0.0
  0
SOLID
  8
0
  6
BYBLOCK
 62
     0
 10
12.08032
 20
5.591432
 30
0.0
 11
12.08032
 21
5.471432
 31
0.0
 12
12.44032
 22
5.531432
 32
0.0
 13
12.44032
 23
5.531432
 33
0.0
  0
TEXT
  8
0
  6
BYBLOCK
 62
     0
 10
10.382863
 20
5.406432
 30
0.0
 40
0.25
  1
*
 41
0.75
  7
TXT
 72
     1
 11
10.445363
 21
5.531432
 31
0.0
 73
     2
  0
TEXT
  8
0
  6
BYBLOCK
 62
     0
 10
10.570363
 20
5.406432
 30
0.0
 40
0.25
  1
3.209
 41
0.75
  7
TXT
 72
     1
 11
10.929738
 21
5.531432
 31
0.0
 73
     2
  0
POINT
  8
DEFPOINTS
  6
BYBLOCK
 62
     0
 10
9.231657
 20
6.527023
 30
0.0
  0
POINT
  8
DEFPOINTS
  6
BYBLOCK
 62
     0
 10
12.44032
 20
6.527023
 30
0.0
  0
POINT
  8
DEFPOINTS
  6
BYBLOCK
 62
     0
 10
12.44032
 20
5.531432
 30
0.0
  0
ENDBLK
  8
0
  0
BLOCK
  8
0
  2
*D15
 70
    65
 10
0.0
 20
0.0
 30
0.0
  3
*D
  0
LINE
  8
0
  6
BYBLOCK
 62
     0
 10
9.231657
 20
6.401023
 30
0.0
 11
9.231657
 21
5.345432
 31
0.0
  0
LINE
  8
0
  6
BYBLOCK
 62
     0
 10
8.965909
 20
6.361653
 30
0.0
 11
8.965909
 21
5.345432
 31
0.0
  0
LINE
  8
0
  6
BYBLOCK
 62
     0
 10
9.591657
 20
5.531432
 30
0.0
 11
9.951657
 21
5.531432
 31
0.0
  0
LINE
  8
0
  6
BYBLOCK
 62
     0
 10
8.605909
 20
5.531432
 30
0.0
 11
8.245909
 21
5.531432
 31
0.0
  0
SOLID
  8
0
  6
BYBLOCK
 62
     0
 10
9.591657
 20
5.591432
 30
0.0
 11
9.591657
 21
5.471432
 31
0.0
 12
9.231657
 22
5.531432
 32
0.0
 13
9.231657
 23
5.531432
 33
0.0
  0
SOLID
  8
0
  6
BYBLOCK
 62
     0
 10
8.605909
 20
5.591432
 30
0.0
 11
8.605909
 21
5.471432
 31
0.0
 12
8.965909
 22
5.531432
 32
0.0
 13
8.965909
 23
5.531432
 33
0.0
  0
TEXT
  8
0
  6
BYBLOCK
 62
     0
 10
7.347159
 20
5.406432
 30
0.0
 40
0.25
  1
0.266
 41
0.75
  7
TXT
 72
     1
 11
7.706534
 21
5.531432
 31
0.0
 73
     2
  0
POINT
  8
DEFPOINTS
  6
BYBLOCK
 62
     0
 10
9.231657
 20
6.527023
 30
0.0
  0
POINT
  8
DEFPOINTS
  6
BYBLOCK
 62
     0
 10
8.965909
 20
6.487653
 30
0.0
  0
POINT
  8
DEFPOINTS
  6
BYBLOCK
 62
     0
 10
8.965909
 20
5.531432
 30
0.0
  0
ENDBLK
  8
0
  0
BLOCK
  8
0
  2
*D16
 70
    65
 10
0.0
 20
0.0
 30
0.0
  3
*D
  0
LINE
  8
0
  6
BYBLOCK
 62
     0
 10
9.351988
 20
11.371921
 30
0.0
 11
9.351988
 21
13.624947
 31
0.0
  0
LINE
  8
0
  6
BYBLOCK
 62
     0
 10
12.319988
 20
11.371921
 30
0.0
 11
12.319988
 21
13.624947
 31
0.0
  0
LINE
  8
0
  6
BYBLOCK
 62
     0
 10
9.711988
 20
13.438947
 30
0.0
 11
10.280988
 21
13.438947
 31
0.0
  0
LINE
  8
0
  6
BYBLOCK
 62
     0
 10
11.959988
 20
13.438947
 30
0.0
 11
11.390988
 21
13.438947
 31
0.0
  0
SOLID
  8
0
  6
BYBLOCK
 62
     0
 10
9.711988
 20
13.498947
 30
0.0
 11
9.711988
 21
13.378947
 31
0.0
 12
9.351988
 22
13.438947
 32
0.0
 13
9.351988
 23
13.438947
 33
0.0
  0
SOLID
  8
0
  6
BYBLOCK
 62
     0
 10
11.959988
 20
13.498947
 30
0.0
 11
11.959988
 21
13.378947
 31
0.0
 12
12.319988
 22
13.438947
 32
0.0
 13
12.319988
 23
13.438947
 33
0.0
  0
TEXT
  8
0
  6
BYBLOCK
 62
     0
 10
10.460988
 20
13.313947
 30
0.0
 40
0.25
  1
2.968
 41
0.75
  7
TXT
 72
     1
 11
10.835988
 21
13.438947
 31
0.0
 73
     2
  0
POINT
  8
DEFPOINTS
  6
BYBLOCK
 62
     0
 10
9.351988
 20
11.245921
 30
0.0
  0
POINT
  8
DEFPOINTS
  6
BYBLOCK
 62
     0
 10
12.319988
 20
11.245921
 30
0.0
  0
POINT
  8
DEFPOINTS
  6
BYBLOCK
 62
     0
 10
12.319988
 20
13.438947
 30
0.0
  0
ENDBLK
  8
0
  0
BLOCK
  8
0
  2
*D17
 70
    65
 10
0.0
 20
0.0
 30
0.0
  3
*D
  0
LINE
  8
0
  6
BYBLOCK
 62
     0
 10
9.351988
 20
11.389405
 30
0.0
 11
9.351988
 21
13.624947
 31
0.0
  0
LINE
  8
0
  6
BYBLOCK
 62
     0
 10
8.965909
 20
12.046727
 30
0.0
 11
8.965909
 21
13.624947
 31
0.0
  0
LINE
  8
0
  6
BYBLOCK
 62
     0
 10
9.711988
 20
13.438947
 30
0.0
 11
10.071988
 21
13.438947
 31
0.0
  0
LINE
  8
0
  6
BYBLOCK
 62
     0
 10
8.605909
 20
13.438947
 30
0.0
 11
8.245909
 21
13.438947
 31
0.0
  0
SOLID
  8
0
  6
BYBLOCK
 62
     0
 10
9.711988
 20
13.498947
 30
0.0
 11
9.711988
 21
13.378947
 31
0.0
 12
9.351988
 22
13.438947
 32
0.0
 13
9.351988
 23
13.438947
 33
0.0
  0
SOLID
  8
0
  6
BYBLOCK
 62
     0
 10
8.605909
 20
13.498947
 30
0.0
 11
8.605909
 21
13.378947
 31
0.0
 12
8.965909
 22
13.438947
 32
0.0
 13
8.965909
 23
13.438947
 33
0.0
  0
TEXT
  8
0
  6
BYBLOCK
 62
     0
 10
7.347159
 20
13.313947
 30
0.0
 40
0.25
  1
0.386
 41
0.75
  7
TXT
 72
     1
 11
7.706534
 21
13.438947
 31
0.0
 73
     2
  0
POINT
  8
DEFPOINTS
  6
BYBLOCK
 62
     0
 10
9.351988
 20
11.263405
 30
0.0
  0
POINT
  8
DEFPOINTS
  6
BYBLOCK
 62
     0
 10
8.965909
 20
11.920727
 30
0.0
  0
POINT
  8
DEFPOINTS
  6
BYBLOCK
 62
     0
 10
8.965909
 20
13.438947
 30
0.0
  0
ENDBLK
  8
0
  0
BLOCK
  8
0
  2
*D18
 70
    65
 10
0.0
 20
0.0
 30
0.0
  3
*D
  0
LINE
  8
0
  6
BYBLOCK
 62
     0
 10
13.734906
 20
6.527023
 30
0.0
 11
15.342654
 21
6.527023
 31
0.0
  0
LINE
  8
0
  6
BYBLOCK
 62
     0
 10
13.734906
 20
9.716001
 30
0.0
 11
15.342654
 21
9.716001
 31
0.0
  0
LINE
  8
0
  6
BYBLOCK
 62
     0
 10
15.156654
 20
6.887023
 30
0.0
 11
15.156654
 21
7.816512
 31
0.0
  0
LINE
  8
0
  6
BYBLOCK
 62
     0
 10
15.156654
 20
9.356001
 30
0.0
 11
15.156654
 21
8.426512
 31
0.0
  0
SOLID
  8
0
  6
BYBLOCK
 62
     0
 10
15.096654
 20
6.887023
 30
0.0
 11
15.216654
 21
6.887023
 31
0.0
 12
15.156654
 22
6.527023
 32
0.0
 13
15.156654
 23
6.527023
 33
0.0
  0
SOLID
  8
0
  6
BYBLOCK
 62
     0
 10
15.096654
 20
9.356001
 30
0.0
 11
15.216654
 21
9.356001
 31
0.0
 12
15.156654
 22
9.716001
 32
0.0
 13
15.156654
 23
9.716001
 33
0.0
  0
TEXT
  8
0
  6
BYBLOCK
 62
     0
 10
14.719154
 20
7.996512
 30
0.0
 40
0.25
  1
*
 41
0.75
  7
TXT
 72
     1
 11
14.781654
 21
8.121512
 31
0.0
 73
     2
  0
TEXT
  8
0
  6
BYBLOCK
 62
     0
 10
14.906654
 20
7.996512
 30
0.0
 40
0.25
  1
3.189
 41
0.75
  7
TXT
 72
     1
 11
15.250404
 21
8.121512
 31
0.0
 73
     2
  0
POINT
  8
DEFPOINTS
  6
BYBLOCK
 62
     0
 10
13.608906
 20
6.527023
 30
0.0
  0
POINT
  8
DEFPOINTS
  6
BYBLOCK
 62
     0
 10
13.608906
 20
9.716001
 30
0.0
  0
POINT
  8
DEFPOINTS
  6
BYBLOCK
 62
     0
 10
15.156654
 20
9.716001
 30
0.0
  0
ENDBLK
  8
0
  0
BLOCK
  8
0
  2
*D19
 70
    65
 10
0.0
 20
0.0
 30
0.0
  3
*D
  0
LINE
  8
0
  6
BYBLOCK
 62
     0
 10
13.734906
 20
6.527023
 30
0.0
 11
15.904654
 21
6.527023
 31
0.0
  0
LINE
  8
0
  6
BYBLOCK
 62
     0
 10
13.764434
 20
6.251432
 30
0.0
 11
15.904654
 21
6.251432
 31
0.0
  0
LINE
  8
0
  6
BYBLOCK
 62
     0
 10
15.718654
 20
6.887023
 30
0.0
 11
15.718654
 21
7.247023
 31
0.0
  0
LINE
  8
0
  6
BYBLOCK
 62
     0
 10
15.718654
 20
5.891432
 30
0.0
 11
15.718654
 21
5.531432
 31
0.0
  0
LINE
  8
0
  6
BYBLOCK
 62
     0
 10
15.718654
 20
5.531432
 30
0.0
 11
15.358654
 21
5.531432
 31
0.0
  0
SOLID
  8
0
  6
BYBLOCK
 62
     0
 10
15.658654
 20
6.887023
 30
0.0
 11
15.778654
 21
6.887023
 31
0.0
 12
15.718654
 22
6.527023
 32
0.0
 13
15.718654
 23
6.527023
 33
0.0
  0
SOLID
  8
0
  6
BYBLOCK
 62
     0
 10
15.658654
 20
5.891432
 30
0.0
 11
15.778654
 21
5.891432
 31
0.0
 12
15.718654
 22
6.251432
 32
0.0
 13
15.718654
 23
6.251432
 33
0.0
  0
TEXT
  8
0
  6
BYBLOCK
 62
     0
 10
14.459904
 20
5.406432
 30
0.0
 40
0.25
  1
0.276
 41
0.75
  7
TXT
 72
     1
 11
14.819279
 21
5.531432
 31
0.0
 73
     2
  0
POINT
  8
DEFPOINTS
  6
BYBLOCK
 62
     0
 10
13.608906
 20
6.527023
 30
0.0
  0
POINT
  8
DEFPOINTS
  6
BYBLOCK
 62
     0
 10
13.638434
 20
6.251432
 30
0.0
  0
POINT
  8
DEFPOINTS
  6
BYBLOCK
 62
     0
 10
15.718654
 20
6.251432
 30
0.0
  0
ENDBLK
  8
0
  0
BLOCK
  8
0
  2
*D20
 70
    65
 10
0.0
 20
0.0
 30
0.0
  3
*D
  0
LINE
  8
0
  6
BYBLOCK
 62
     0
 10
13.764434
 20
12.156947
 30
0.0
 11
16.466654
 21
12.156947
 31
0.0
  0
LINE
  8
0
  6
BYBLOCK
 62
     0
 10
13.764434
 20
6.251432
 30
0.0
 11
16.466654
 21
6.251432
 31
0.0
  0
LINE
  8
0
  6
BYBLOCK
 62
     0
 10
16.280654
 20
11.796947
 30
0.0
 11
16.280654
 21
9.50919
 31
0.0
  0
LINE
  8
0
  6
BYBLOCK
 62
     0
 10
16.280654
 20
6.611432
 30
0.0
 11
16.280654
 21
8.89919
 31
0.0
  0
SOLID
  8
0
  6
BYBLOCK
 62
     0
 10
16.220654
 20
11.796947
 30
0.0
 11
16.340654
 21
11.796947
 31
0.0
 12
16.280654
 22
12.156947
 32
0.0
 13
16.280654
 23
12.156947
 33
0.0
  0
SOLID
  8
0
  6
BYBLOCK
 62
     0
 10
16.220654
 20
6.611432
 30
0.0
 11
16.340654
 21
6.611432
 31
0.0
 12
16.280654
 22
6.251432
 32
0.0
 13
16.280654
 23
6.251432
 33
0.0
  0
TEXT
  8
0
  6
BYBLOCK
 62
     0
 10
15.921279
 20
9.07919
 30
0.0
 40
0.25
  1
5.906
 41
0.75
  7
TXT
 72
     1
 11
16.280654
 21
9.20419
 31
0.0
 73
     2
  0
POINT
  8
DEFPOINTS
  6
BYBLOCK
 62
     0
 10
13.638434
 20
12.156947
 30
0.0
  0
POINT
  8
DEFPOINTS
  6
BYBLOCK
 62
     0
 10
13.638434
 20
6.251432
 30
0.0
  0
POINT
  8
DEFPOINTS
  6
BYBLOCK
 62
     0
 10
16.280654
 20
6.251432
 30
0.0
  0
ENDBLK
  8
0
  0
BLOCK
  8
0
  2
*D21
 70
    65
 10
0.0
 20
0.0
 30
0.0
  3
*D
  0
LINE
  8
0
  6
BYBLOCK
 62
     0
 10
3.913764
 20
6.630432
 30
0.0
 11
6.62553
 21
6.630432
 31
0.0
  0
LINE
  8
0
  6
BYBLOCK
 62
     0
 10
3.892055
 20
6.542432
 30
0.0
 11
6.62553
 21
6.542432
 31
0.0
  0
LINE
  8
0
  6
BYBLOCK
 62
     0
 10
6.43953
 20
6.990432
 30
0.0
 11
6.43953
 21
7.350432
 31
0.0
  0
LINE
  8
0
  6
BYBLOCK
 62
     0
 10
6.43953
 20
6.182432
 30
0.0
 11
6.43953
 21
5.822432
 31
0.0
  0
LINE
  8
0
  6
BYBLOCK
 62
     0
 10
6.43953
 20
5.822432
 30
0.0
 11
6.07953
 21
5.822432
 31
0.0
  0
SOLID
  8
0
  6
BYBLOCK
 62
     0
 10
6.37953
 20
6.990432
 30
0.0
 11
6.49953
 21
6.990432
 31
0.0
 12
6.43953
 22
6.630432
 32
0.0
 13
6.43953
 23
6.630432
 33
0.0
  0
SOLID
  8
0
  6
BYBLOCK
 62
     0
 10
6.37953
 20
6.182432
 30
0.0
 11
6.49953
 21
6.182432
 31
0.0
 12
6.43953
 22
6.542432
 32
0.0
 13
6.43953
 23
6.542432
 33
0.0
  0
TEXT
  8
0
  6
BYBLOCK
 62
     0
 10
5.21203
 20
5.697432
 30
0.0
 40
0.25
  1
0.088
 41
0.75
  7
TXT
 72
     1
 11
5.55578
 21
5.822432
 31
0.0
 73
     2
  0
POINT
  8
DEFPOINTS
  6
BYBLOCK
 62
     0
 10
3.787764
 20
6.630432
 30
0.0
  0
POINT
  8
DEFPOINTS
  6
BYBLOCK
 62
     0
 10
3.766055
 20
6.542432
 30
0.0
  0
POINT
  8
DEFPOINTS
  6
BYBLOCK
 62
     0
 10
6.43953
 20
6.542432
 30
0.0
  0
ENDBLK
  8
0
  0
BLOCK
  8
0
  2
*D22
 70
    65
 10
0.0
 20
0.0
 30
0.0
  3
*D
  0
LINE
  8
0
  6
BYBLOCK
 62
     0
 10
3.994159
 20
6.401023
 30
0.0
 11
3.994159
 21
4.783432
 31
0.0
  0
LINE
  8
0
  6
BYBLOCK
 62
     0
 10
4.03353
 20
6.204172
 30
0.0
 11
4.03353
 21
4.783432
 31
0.0
  0
LINE
  8
0
  6
BYBLOCK
 62
     0
 10
3.634159
 20
4.969432
 30
0.0
 11
3.274159
 21
4.969432
 31
0.0
  0
LINE
  8
0
  6
BYBLOCK
 62
     0
 10
4.39353
 20
4.969432
 30
0.0
 11
4.75353
 21
4.969432
 31
0.0
  0
SOLID
  8
0
  6
BYBLOCK
 62
     0
 10
3.634159
 20
5.029432
 30
0.0
 11
3.634159
 21
4.909432
 31
0.0
 12
3.994159
 22
4.969432
 32
0.0
 13
3.994159
 23
4.969432
 33
0.0
  0
SOLID
  8
0
  6
BYBLOCK
 62
     0
 10
4.39353
 20
5.029432
 30
0.0
 11
4.39353
 21
4.909432
 31
0.0
 12
4.03353
 22
4.969432
 32
0.0
 13
4.03353
 23
4.969432
 33
0.0
  0
TEXT
  8
0
  6
BYBLOCK
 62
     0
 10
4.93353
 20
4.844432
 30
0.0
 40
0.25
  1
0.039
 41
0.75
  7
TXT
 72
     1
 11
5.27728
 21
4.969432
 31
0.0
 73
     2
  0
POINT
  8
DEFPOINTS
  6
BYBLOCK
 62
     0
 10
3.994159
 20
6.527023
 30
0.0
  0
POINT
  8
DEFPOINTS
  6
BYBLOCK
 62
     0
 10
4.03353
 20
6.330172
 30
0.0
  0
POINT
  8
DEFPOINTS
  6
BYBLOCK
 62
     0
 10
4.03353
 20
4.969432
 30
0.0
  0
ENDBLK
  8
0
  0
BLOCK
  8
0
  2
*D23
 70
    65
 10
0.0
 20
0.0
 30
0.0
  3
*D
  0
LINE
  8
0
  6
BYBLOCK
 62
     0
 10
3.01553
 20
6.345578
 30
0.0
 11
3.01553
 21
4.221432
 31
0.0
  0
LINE
  8
0
  6
BYBLOCK
 62
     0
 10
2.909077
 20
6.345578
 30
0.0
 11
2.909077
 21
4.221432
 31
0.0
  0
LINE
  8
0
  6
BYBLOCK
 62
     0
 10
3.37553
 20
4.407432
 30
0.0
 11
3.73553
 21
4.407432
 31
0.0
  0
LINE
  8
0
  6
BYBLOCK
 62
     0
 10
2.549077
 20
4.407432
 30
0.0
 11
2.189077
 21
4.407432
 31
0.0
  0
SOLID
  8
0
  6
BYBLOCK
 62
     0
 10
3.37553
 20
4.467432
 30
0.0
 11
3.37553
 21
4.347432
 31
0.0
 12
3.01553
 22
4.407432
 32
0.0
 13
3.01553
 23
4.407432
 33
0.0
  0
SOLID
  8
0
  6
BYBLOCK
 62
     0
 10
2.549077
 20
4.467432
 30
0.0
 11
2.549077
 21
4.347432
 31
0.0
 12
2.909077
 22
4.407432
 32
0.0
 13
2.909077
 23
4.407432
 33
0.0
  0
TEXT
  8
0
  6
BYBLOCK
 62
     0
 10
1.384077
 20
4.282432
 30
0.0
 40
0.25
  1
0.106
 41
0.75
  7
TXT
 72
     1
 11
1.696577
 21
4.407432
 31
0.0
 73
     2
  0
POINT
  8
DEFPOINTS
  6
BYBLOCK
 62
     0
 10
3.01553
 20
6.471578
 30
0.0
  0
POINT
  8
DEFPOINTS
  6
BYBLOCK
 62
     0
 10
2.909077
 20
6.471578
 30
0.0
  0
POINT
  8
DEFPOINTS
  6
BYBLOCK
 62
     0
 10
2.909077
 20
4.407432
 30
0.0
  0
ENDBLK
  8
0
  0
BLOCK
  8
0
  2
*D24
 70
    65
 10
0.0
 20
0.0
 30
0.0
  3
*D
  0
LINE
  8
0
  6
BYBLOCK
 62
     0
 10
2.88953
 20
6.654976
 30
0.0
 11
2.003077
 21
6.654976
 31
0.0
  0
LINE
  8
0
  6
BYBLOCK
 62
     0
 10
2.88953
 20
6.51718
 30
0.0
 11
2.003077
 21
6.51718
 31
0.0
  0
LINE
  8
0
  6
BYBLOCK
 62
     0
 10
2.189077
 20
7.014976
 30
0.0
 11
2.189077
 21
7.374976
 31
0.0
  0
LINE
  8
0
  6
BYBLOCK
 62
     0
 10
2.189077
 20
6.15718
 30
0.0
 11
2.189077
 21
5.79718
 31
0.0
  0
LINE
  8
0
  6
BYBLOCK
 62
     0
 10
2.189077
 20
5.79718
 30
0.0
 11
1.829077
 21
5.79718
 31
0.0
  0
SOLID
  8
0
  6
BYBLOCK
 62
     0
 10
2.129077
 20
7.014976
 30
0.0
 11
2.249077
 21
7.014976
 31
0.0
 12
2.189077
 22
6.654976
 32
0.0
 13
2.189077
 23
6.654976
 33
0.0
  0
SOLID
  8
0
  6
BYBLOCK
 62
     0
 10
2.129077
 20
6.15718
 30
0.0
 11
2.249077
 21
6.15718
 31
0.0
 12
2.189077
 22
6.51718
 32
0.0
 13
2.189077
 23
6.51718
 33
0.0
  0
TEXT
  8
0
  6
BYBLOCK
 62
     0
 10
0.992827
 20
5.67218
 30
0.0
 40
0.25
  1
0.138
 41
0.75
  7
TXT
 72
     1
 11
1.320952
 21
5.79718
 31
0.0
 73
     2
  0
POINT
  8
DEFPOINTS
  6
BYBLOCK
 62
     0
 10
3.01553
 20
6.654976
 30
0.0
  0
POINT
  8
DEFPOINTS
  6
BYBLOCK
 62
     0
 10
3.01553
 20
6.51718
 30
0.0
  0
POINT
  8
DEFPOINTS
  6
BYBLOCK
 62
     0
 10
2.189077
 20
6.51718
 30
0.0
  0
ENDBLK
  8
0
  0
BLOCK
  8
0
  2
*D25
 70
    65
 10
0.0
 20
0.0
 30
0.0
  3
*D
  0
LINE
  8
0
  6
BYBLOCK
 62
     0
 10
2.783077
 20
6.471578
 30
0.0
 11
0.317077
 21
6.471578
 31
0.0
  0
LINE
  8
0
  6
BYBLOCK
 62
     0
 10
2.78253
 20
6.700578
 30
0.0
 11
0.317077
 21
6.700578
 31
0.0
  0
LINE
  8
0
  6
BYBLOCK
 62
     0
 10
0.503077
 20
6.111578
 30
0.0
 11
0.503077
 21
5.751578
 31
0.0
  0
LINE
  8
0
  6
BYBLOCK
 62
     0
 10
0.503077
 20
7.060578
 30
0.0
 11
0.503077
 21
7.420578
 31
0.0
  0
LINE
  8
0
  6
BYBLOCK
 62
     0
 10
0.503077
 20
7.420578
 30
0.0
 11
0.863077
 21
7.420578
 31
0.0
  0
SOLID
  8
0
  6
BYBLOCK
 62
     0
 10
0.443077
 20
6.111578
 30
0.0
 11
0.563077
 21
6.111578
 31
0.0
 12
0.503077
 22
6.471578
 32
0.0
 13
0.503077
 23
6.471578
 33
0.0
  0
SOLID
  8
0
  6
BYBLOCK
 62
     0
 10
0.443077
 20
7.060578
 30
0.0
 11
0.563077
 21
7.060578
 31
0.0
 12
0.503077
 22
6.700578
 32
0.0
 13
0.503077
 23
6.700578
 33
0.0
  0
TEXT
  8
0
  6
BYBLOCK
 62
     0
 10
1.043077
 20
7.295578
 30
0.0
 40
0.25
  1
0.229
 41
0.75
  7
TXT
 72
     1
 11
1.402452
 21
7.420578
 31
0.0
 73
     2
  0
POINT
  8
DEFPOINTS
  6
BYBLOCK
 62
     0
 10
2.909077
 20
6.471578
 30
0.0
  0
POINT
  8
DEFPOINTS
  6
BYBLOCK
 62
     0
 10
2.90853
 20
6.700578
 30
0.0
  0
POINT
  8
DEFPOINTS
  6
BYBLOCK
 62
     0
 10
0.503077
 20
6.700578
 30
0.0
  0
ENDBLK
  8
0
  0
BLOCK
  8
0
  2
*D26
 70
    65
 10
0.0
 20
0.0
 30
0.0
  3
*D
  0
LINE
  8
0
  6
BYBLOCK
 62
     0
 10
2.999065
 20
6.369542
 30
0.0
 11
-0.244923
 21
6.369542
 31
0.0
  0
LINE
  8
0
  6
BYBLOCK
 62
     0
 10
2.999065
 20
12.038837
 30
0.0
 11
-0.244923
 21
12.038837
 31
0.0
  0
LINE
  8
0
  6
BYBLOCK
 62
     0
 10
-0.058923
 20
6.729542
 30
0.0
 11
-0.058923
 21
8.89919
 31
0.0
  0
LINE
  8
0
  6
BYBLOCK
 62
     0
 10
-0.058923
 20
11.678837
 30
0.0
 11
-0.058923
 21
9.50919
 31
0.0
  0
SOLID
  8
0
  6
BYBLOCK
 62
     0
 10
-0.118923
 20
6.729542
 30
0.0
 11
0.001077
 21
6.729542
 31
0.0
 12
-0.058923
 22
6.369542
 32
0.0
 13
-0.058923
 23
6.369542
 33
0.0
  0
SOLID
  8
0
  6
BYBLOCK
 62
     0
 10
-0.118923
 20
11.678837
 30
0.0
 11
0.001077
 21
11.678837
 31
0.0
 12
-0.058923
 22
12.038837
 32
0.0
 13
-0.058923
 23
12.038837
 33
0.0
  0
TEXT
  8
0
  6
BYBLOCK
 62
     0
 10
-0.215173
 20
9.07919
 30
0.0
 40
0.25
  1
 INSIDE
 41
0.75
  7
TXT
 72
     1
 11
0.347327
 21
9.20419
 31
0.0
 73
     2
  0
TEXT
  8
0
  6
BYBLOCK
 62
     0
 10
-1.027673
 20
9.07919
 30
0.0
 40
0.25
  1
5.669
 41
0.75
  7
TXT
 72
     1
 11
-0.652673
 21
9.20419
 31
0.0
 73
     2
  0
POINT
  8
DEFPOINTS
  6
BYBLOCK
 62
     0
 10
3.125065
 20
6.369542
 30
0.0
  0
POINT
  8
DEFPOINTS
  6
BYBLOCK
 62
     0
 10
3.125065
 20
12.038837
 30
0.0
  0
POINT
  8
DEFPOINTS
  6
BYBLOCK
 62
     0
 10
-0.058923
 20
12.038837
 30
0.0
  0
ENDBLK
  8
0
  0
BLOCK
  8
0
  2
*D27
 70
    65
 10
0.0
 20
0.0
 30
0.0
  3
*D
  0
LINE
  8
0
  6
BYBLOCK
 62
     0
 10
5.81475
 20
10.06885
 30
0.0
 11
8.408139
 21
8.859532
 31
0.0
  0
LINE
  8
0
  6
BYBLOCK
 62
     0
 10
6.338796
 20
11.192671
 30
0.0
 11
8.932186
 21
9.983354
 31
0.0
  0
LINE
  8
0
  6
BYBLOCK
 62
     0
 10
8.087423
 20
8.611868
 30
0.0
 11
7.935281
 21
8.285597
 31
0.0
  0
LINE
  8
0
  6
BYBLOCK
 62
     0
 10
8.915755
 20
10.388231
 30
0.0
 11
9.067898
 21
10.714502
 31
0.0
  0
SOLID
  8
0
  6
BYBLOCK
 62
     0
 10
8.033045
 20
8.637225
 30
0.0
 11
8.141802
 21
8.586511
 31
0.0
 12
8.239566
 22
8.938139
 32
0.0
 13
8.239566
 23
8.938139
 33
0.0
  0
SOLID
  8
0
  6
BYBLOCK
 62
     0
 10
8.861377
 20
10.413589
 30
0.0
 11
8.970134
 21
10.362874
 31
0.0
 12
8.763613
 22
10.061961
 32
0.0
 13
8.763613
 23
10.061961
 33
0.0
  0
TEXT
  8
0
  6
BYBLOCK
 62
     0
 10
8.173464
 20
9.37505
 30
0.0
 40
0.25
  1
1.240
 41
0.75
  7
TXT
 72
     1
 11
8.501589
 21
9.50005
 31
0.0
 73
     2
  0
POINT
  8
DEFPOINTS
  6
BYBLOCK
 62
     0
 10
5.700555
 20
10.122099
 30
0.0
  0
POINT
  8
DEFPOINTS
  6
BYBLOCK
 62
     0
 10
6.224601
 20
11.245921
 30
0.0
  0
POINT
  8
DEFPOINTS
  6
BYBLOCK
 62
     0
 10
8.763613
 20
10.061961
 30
0.0
  0
ENDBLK
  8
0
  0
BLOCK
  8
0
  2
*D28
 70
    65
 10
0.0
 20
0.0
 30
0.0
  3
*D
  0
LINE
  8
0
  6
BYBLOCK
 62
     0
 10
6.473836
 20
11.129701
 30
0.0
 11
9.441531
 21
9.745842
 31
0.0
  0
LINE
  8
0
  6
BYBLOCK
 62
     0
 10
6.604425
 20
11.40975
 30
0.0
 11
9.57212
 21
10.025891
 31
0.0
  0
LINE
  8
0
  6
BYBLOCK
 62
     0
 10
9.120815
 20
9.498178
 30
0.0
 11
8.968673
 21
9.171908
 31
0.0
  0
LINE
  8
0
  6
BYBLOCK
 62
     0
 10
9.555689
 20
10.430769
 30
0.0
 11
9.707832
 21
10.75704
 31
0.0
  0
LINE
  8
0
  6
BYBLOCK
 62
     0
 10
9.707832
 20
10.75704
 30
0.0
 11
10.067832
 21
10.75704
 31
0.0
  0
SOLID
  8
0
  6
BYBLOCK
 62
     0
 10
9.066437
 20
9.523536
 30
0.0
 11
9.175194
 21
9.472821
 31
0.0
 12
9.272958
 22
9.824449
 32
0.0
 13
9.272958
 23
9.824449
 33
0.0
  0
SOLID
  8
0
  6
BYBLOCK
 62
     0
 10
9.501311
 20
10.456126
 30
0.0
 11
9.610068
 21
10.405412
 31
0.0
 12
9.403547
 22
10.104498
 32
0.0
 13
9.403547
 23
10.104498
 33
0.0
  0
TEXT
  8
0
  6
BYBLOCK
 62
     0
 10
10.247832
 20
10.63204
 30
0.0
 40
0.25
  1
0.309
 41
0.75
  7
TXT
 72
     1
 11
10.591582
 21
10.75704
 31
0.0
 73
     2
  0
POINT
  8
DEFPOINTS
  6
BYBLOCK
 62
     0
 10
6.359641
 20
11.182951
 30
0.0
  0
POINT
  8
DEFPOINTS
  6
BYBLOCK
 62
     0
 10
6.49023
 20
11.463
 30
0.0
  0
POINT
  8
DEFPOINTS
  6
BYBLOCK
 62
     0
 10
9.403547
 20
10.104498
 30
0.0
  0
ENDBLK
  8
0
  0
BLOCK
  8
0
  2
*D29
 70
    65
 10
0.0
 20
0.0
 30
0.0
  3
*D
  0
LINE
  8
0
  6
BYBLOCK
 62
     0
 10
5.835682
 20
9.761176
 30
0.0
 11
9.312722
 21
8.139806
 31
0.0
  0
LINE
  8
0
  6
BYBLOCK
 62
     0
 10
6.604425
 20
11.40975
 30
0.0
 11
10.081465
 21
9.78838
 31
0.0
  0
LINE
  8
0
  6
BYBLOCK
 62
     0
 10
9.296292
 20
8.544684
 30
0.0
 11
9.386297
 21
8.7377
 31
0.0
  0
LINE
  8
0
  6
BYBLOCK
 62
     0
 10
9.760749
 20
9.540716
 30
0.0
 11
9.670744
 21
9.3477
 31
0.0
  0
SOLID
  8
0
  6
BYBLOCK
 62
     0
 10
9.241913
 20
8.570041
 30
0.0
 11
9.35067
 21
8.519327
 31
0.0
 12
9.144149
 22
8.218413
 32
0.0
 13
9.144149
 23
8.218413
 33
0.0
  0
SOLID
  8
0
  6
BYBLOCK
 62
     0
 10
9.706371
 20
9.566073
 30
0.0
 11
9.815128
 21
9.515359
 31
0.0
 12
9.912892
 22
9.866987
 32
0.0
 13
9.912892
 23
9.866987
 33
0.0
  0
TEXT
  8
0
  6
BYBLOCK
 62
     0
 10
9.21602
 20
8.9177
 30
0.0
 40
0.25
  1
1.819
 41
0.75
  7
TXT
 72
     1
 11
9.52852
 21
9.0427
 31
0.0
 73
     2
  0
POINT
  8
DEFPOINTS
  6
BYBLOCK
 62
     0
 10
5.721488
 20
9.814426
 30
0.0
  0
POINT
  8
DEFPOINTS
  6
BYBLOCK
 62
     0
 10
6.49023
 20
11.463
 30
0.0
  0
POINT
  8
DEFPOINTS
  6
BYBLOCK
 62
     0
 10
9.912892
 20
9.866987
 30
0.0
  0
ENDBLK
  8
0
  0
BLOCK
  8
0
  2
*D30
 70
    65
 10
0.0
 20
0.0
 30
0.0
  3
*D
  0
LINE
  8
0
  6
BYBLOCK
 62
     0
 10
2.985897
 20
17.009654
 30
0.0
 11
1.575397
 21
17.009654
 31
0.0
  0
LINE
  8
0
  6
BYBLOCK
 62
     0
 10
2.985897
 20
17.716654
 30
0.0
 11
1.575397
 21
17.716654
 31
0.0
  0
LINE
  8
0
  6
BYBLOCK
 62
     0
 10
1.761397
 20
16.649654
 30
0.0
 11
1.761397
 21
16.289654
 31
0.0
  0
LINE
  8
0
  6
BYBLOCK
 62
     0
 10
1.761397
 20
18.076654
 30
0.0
 11
1.761397
 21
18.436654
 31
0.0
  0
SOLID
  8
0
  6
BYBLOCK
 62
     0
 10
1.701397
 20
16.649654
 30
0.0
 11
1.821397
 21
16.649654
 31
0.0
 12
1.761397
 22
17.009654
 32
0.0
 13
1.761397
 23
17.009654
 33
0.0
  0
SOLID
  8
0
  6
BYBLOCK
 62
     0
 10
1.701397
 20
18.076654
 30
0.0
 11
1.821397
 21
18.076654
 31
0.0
 12
1.761397
 22
17.716654
 32
0.0
 13
1.761397
 23
17.716654
 33
0.0
  0
TEXT
  8
0
  6
BYBLOCK
 62
     0
 10
1.417647
 20
17.238154
 30
0.0
 40
0.25
  1
0.707
 41
0.75
  7
TXT
 72
     1
 11
1.761397
 21
17.363154
 31
0.0
 73
     2
  0
POINT
  8
DEFPOINTS
  6
BYBLOCK
 62
     0
 10
3.111897
 20
17.009654
 30
0.0
  0
POINT
  8
DEFPOINTS
  6
BYBLOCK
 62
     0
 10
3.111897
 20
17.716654
 30
0.0
  0
POINT
  8
DEFPOINTS
  6
BYBLOCK
 62
     0
 10
1.761397
 20
17.716654
 30
0.0
  0
ENDBLK
  8
0
  0
BLOCK
  8
0
  2
*D31
 70
    65
 10
0.0
 20
0.0
 30
0.0
  3
*D
  0
LINE
  8
0
  6
BYBLOCK
 62
     0
 10
2.985897
 20
17.009654
 30
0.0
 11
1.013397
 21
17.009654
 31
0.0
  0
LINE
  8
0
  6
BYBLOCK
 62
     0
 10
2.355397
 20
16.453654
 30
0.0
 11
1.013397
 21
16.453654
 31
0.0
  0
LINE
  8
0
  6
BYBLOCK
 62
     0
 10
1.199397
 20
17.369654
 30
0.0
 11
1.199397
 21
17.729654
 31
0.0
  0
LINE
  8
0
  6
BYBLOCK
 62
     0
 10
1.199397
 20
16.093654
 30
0.0
 11
1.199397
 21
15.733654
 31
0.0
  0
SOLID
  8
0
  6
BYBLOCK
 62
     0
 10
1.139397
 20
17.369654
 30
0.0
 11
1.259397
 21
17.369654
 31
0.0
 12
1.199397
 22
17.009654
 32
0.0
 13
1.199397
 23
17.009654
 33
0.0
  0
SOLID
  8
0
  6
BYBLOCK
 62
     0
 10
1.139397
 20
16.093654
 30
0.0
 11
1.259397
 21
16.093654
 31
0.0
 12
1.199397
 22
16.453654
 32
0.0
 13
1.199397
 23
16.453654
 33
0.0
  0
TEXT
  8
0
  6
BYBLOCK
 62
     0
 10
0.840022
 20
16.606654
 30
0.0
 40
0.25
  1
0.556
 41
0.75
  7
TXT
 72
     1
 11
1.199397
 21
16.731654
 31
0.0
 73
     2
  0
POINT
  8
DEFPOINTS
  6
BYBLOCK
 62
     0
 10
3.111897
 20
17.009654
 30
0.0
  0
POINT
  8
DEFPOINTS
  6
BYBLOCK
 62
     0
 10
2.481397
 20
16.453654
 30
0.0
  0
POINT
  8
DEFPOINTS
  6
BYBLOCK
 62
     0
 10
1.199397
 20
16.453654
 30
0.0
  0
ENDBLK
  8
0
  0
BLOCK
  8
0
  2
*D32
 70
    65
 10
0.0
 20
0.0
 30
0.0
  3
*D
  0
LINE
  8
0
  6
BYBLOCK
 62
     0
 10
2.355397
 20
18.272654
 30
0.0
 11
0.451397
 21
18.272654
 31
0.0
  0
LINE
  8
0
  6
BYBLOCK
 62
     0
 10
2.355397
 20
16.453654
 30
0.0
 11
0.451397
 21
16.453654
 31
0.0
  0
LINE
  8
0
  6
BYBLOCK
 62
     0
 10
0.637397
 20
17.912654
 30
0.0
 11
0.637397
 21
17.668154
 31
0.0
  0
LINE
  8
0
  6
BYBLOCK
 62
     0
 10
0.637397
 20
16.813654
 30
0.0
 11
0.637397
 21
17.058154
 31
0.0
  0
SOLID
  8
0
  6
BYBLOCK
 62
     0
 10
0.577397
 20
17.912654
 30
0.0
 11
0.697397
 21
17.912654
 31
0.0
 12
0.637397
 22
18.272654
 32
0.0
 13
0.637397
 23
18.272654
 33
0.0
  0
SOLID
  8
0
  6
BYBLOCK
 62
     0
 10
0.577397
 20
16.813654
 30
0.0
 11
0.697397
 21
16.813654
 31
0.0
 12
0.637397
 22
16.453654
 32
0.0
 13
0.637397
 23
16.453654
 33
0.0
  0
TEXT
  8
0
  6
BYBLOCK
 62
     0
 10
0.324897
 20
17.238154
 30
0.0
 40
0.25
  1
1.819
 41
0.75
  7
TXT
 72
     1
 11
0.637397
 21
17.363154
 31
0.0
 73
     2
  0
POINT
  8
DEFPOINTS
  6
BYBLOCK
 62
     0
 10
2.481397
 20
18.272654
 30
0.0
  0
POINT
  8
DEFPOINTS
  6
BYBLOCK
 62
     0
 10
2.481397
 20
16.453654
 30
0.0
  0
POINT
  8
DEFPOINTS
  6
BYBLOCK
 62
     0
 10
0.637397
 20
16.453654
 30
0.0
  0
ENDBLK
  8
0
  0
BLOCK
  8
0
  2
*D33
 70
    65
 10
0.0
 20
0.0
 30
0.0
  3
*D
  0
LINE
  8
0
  6
BYBLOCK
 62
     0
 10
2.481397
 20
16.327654
 30
0.0
 11
2.481397
 21
14.423654
 31
0.0
  0
LINE
  8
0
  6
BYBLOCK
 62
     0
 10
5.526397
 20
16.327654
 30
0.0
 11
5.526397
 21
14.423654
 31
0.0
  0
LINE
  8
0
  6
BYBLOCK
 62
     0
 10
2.841397
 20
14.609654
 30
0.0
 11
3.464522
 21
14.609654
 31
0.0
  0
LINE
  8
0
  6
BYBLOCK
 62
     0
 10
5.166397
 20
14.609654
 30
0.0
 11
4.543272
 21
14.609654
 31
0.0
  0
SOLID
  8
0
  6
BYBLOCK
 62
     0
 10
2.841397
 20
14.669654
 30
0.0
 11
2.841397
 21
14.549654
 31
0.0
 12
2.481397
 22
14.609654
 32
0.0
 13
2.481397
 23
14.609654
 33
0.0
  0
SOLID
  8
0
  6
BYBLOCK
 62
     0
 10
5.166397
 20
14.669654
 30
0.0
 11
5.166397
 21
14.549654
 31
0.0
 12
5.526397
 22
14.609654
 32
0.0
 13
5.526397
 23
14.609654
 33
0.0
  0
TEXT
  8
0
  6
BYBLOCK
 62
     0
 10
3.644522
 20
14.484654
 30
0.0
 40
0.25
  1
3.045
 41
0.75
  7
TXT
 72
     1
 11
4.003897
 21
14.609654
 31
0.0
 73
     2
  0
POINT
  8
DEFPOINTS
  6
BYBLOCK
 62
     0
 10
2.481397
 20
16.453654
 30
0.0
  0
POINT
  8
DEFPOINTS
  6
BYBLOCK
 62
     0
 10
5.526397
 20
16.453654
 30
0.0
  0
POINT
  8
DEFPOINTS
  6
BYBLOCK
 62
     0
 10
5.526397
 20
14.609654
 30
0.0
  0
ENDBLK
  8
0
  0
BLOCK
  8
0
  2
*D34
 70
    65
 10
0.0
 20
0.0
 30
0.0
  3
*D
  0
LINE
  8
0
  6
BYBLOCK
 62
     0
 10
16.300015
 20
16.327654
 30
0.0
 11
16.300015
 21
15.547654
 31
0.0
  0
LINE
  8
0
  6
BYBLOCK
 62
     0
 10
19.345015
 20
16.327654
 30
0.0
 11
19.345015
 21
15.547654
 31
0.0
  0
LINE
  8
0
  6
BYBLOCK
 62
     0
 10
16.660015
 20
15.733654
 30
0.0
 11
17.28314
 21
15.733654
 31
0.0
  0
LINE
  8
0
  6
BYBLOCK
 62
     0
 10
18.985015
 20
15.733654
 30
0.0
 11
18.36189
 21
15.733654
 31
0.0
  0
SOLID
  8
0
  6
BYBLOCK
 62
     0
 10
16.660015
 20
15.793654
 30
0.0
 11
16.660015
 21
15.673654
 31
0.0
 12
16.300015
 22
15.733654
 32
0.0
 13
16.300015
 23
15.733654
 33
0.0
  0
SOLID
  8
0
  6
BYBLOCK
 62
     0
 10
18.985015
 20
15.793654
 30
0.0
 11
18.985015
 21
15.673654
 31
0.0
 12
19.345015
 22
15.733654
 32
0.0
 13
19.345015
 23
15.733654
 33
0.0
  0
TEXT
  8
0
  6
BYBLOCK
 62
     0
 10
17.46314
 20
15.608654
 30
0.0
 40
0.25
  1
3.045
 41
0.75
  7
TXT
 72
     1
 11
17.822515
 21
15.733654
 31
0.0
 73
     2
  0
POINT
  8
DEFPOINTS
  6
BYBLOCK
 62
     0
 10
16.300015
 20
16.453654
 30
0.0
  0
POINT
  8
DEFPOINTS
  6
BYBLOCK
 62
     0
 10
19.345015
 20
16.453654
 30
0.0
  0
POINT
  8
DEFPOINTS
  6
BYBLOCK
 62
     0
 10
19.345015
 20
15.733654
 30
0.0
  0
ENDBLK
  8
0
  0
BLOCK
  8
0
  2
*D35
 70
    65
 10
0.0
 20
0.0
 30
0.0
  3
*D
  0
LINE
  8
0
  6
BYBLOCK
 62
     0
 10
8.666402
 20
16.401654
 30
0.0
 11
8.666402
 21
15.547654
 31
0.0
  0
LINE
  8
0
  6
BYBLOCK
 62
     0
 10
8.578402
 20
16.327654
 30
0.0
 11
8.578402
 21
15.547654
 31
0.0
  0
LINE
  8
0
  6
BYBLOCK
 62
     0
 10
9.026402
 20
15.733654
 30
0.0
 11
9.386402
 21
15.733654
 31
0.0
  0
LINE
  8
0
  6
BYBLOCK
 62
     0
 10
8.218402
 20
15.733654
 30
0.0
 11
7.858402
 21
15.733654
 31
0.0
  0
SOLID
  8
0
  6
BYBLOCK
 62
     0
 10
9.026402
 20
15.793654
 30
0.0
 11
9.026402
 21
15.673654
 31
0.0
 12
8.666402
 22
15.733654
 32
0.0
 13
8.666402
 23
15.733654
 33
0.0
  0
SOLID
  8
0
  6
BYBLOCK
 62
     0
 10
8.218402
 20
15.793654
 30
0.0
 11
8.218402
 21
15.673654
 31
0.0
 12
8.578402
 22
15.733654
 32
0.0
 13
8.578402
 23
15.733654
 33
0.0
  0
TEXT
  8
0
  6
BYBLOCK
 62
     0
 10
6.990902
 20
15.608654
 30
0.0
 40
0.25
  1
0.088
 41
0.75
  7
TXT
 72
     1
 11
7.334652
 21
15.733654
 31
0.0
 73
     2
  0
POINT
  8
DEFPOINTS
  6
BYBLOCK
 62
     0
 10
8.666402
 20
16.527654
 30
0.0
  0
POINT
  8
DEFPOINTS
  6
BYBLOCK
 62
     0
 10
8.578402
 20
16.453654
 30
0.0
  0
POINT
  8
DEFPOINTS
  6
BYBLOCK
 62
     0
 10
8.578402
 20
15.733654
 30
0.0
  0
ENDBLK
  8
0
  0
BLOCK
  8
0
  2
*D36
 70
    65
 10
0.0
 20
0.0
 30
0.0
  3
*D
  0
LINE
  8
0
  6
BYBLOCK
 62
     0
 10
8.746402
 20
16.651154
 30
0.0
 11
8.746402
 21
14.985654
 31
0.0
  0
LINE
  8
0
  6
BYBLOCK
 62
     0
 10
8.578402
 20
16.327654
 30
0.0
 11
8.578402
 21
14.985654
 31
0.0
  0
LINE
  8
0
  6
BYBLOCK
 62
     0
 10
9.106402
 20
15.171654
 30
0.0
 11
9.466402
 21
15.171654
 31
0.0
  0
LINE
  8
0
  6
BYBLOCK
 62
     0
 10
8.218402
 20
15.171654
 30
0.0
 11
7.858402
 21
15.171654
 31
0.0
  0
SOLID
  8
0
  6
BYBLOCK
 62
     0
 10
9.106402
 20
15.231654
 30
0.0
 11
9.106402
 21
15.111654
 31
0.0
 12
8.746402
 22
15.171654
 32
0.0
 13
8.746402
 23
15.171654
 33
0.0
  0
SOLID
  8
0
  6
BYBLOCK
 62
     0
 10
8.218402
 20
15.231654
 30
0.0
 11
8.218402
 21
15.111654
 31
0.0
 12
8.578402
 22
15.171654
 32
0.0
 13
8.578402
 23
15.171654
 33
0.0
  0
TEXT
  8
0
  6
BYBLOCK
 62
     0
 10
7.022152
 20
15.046654
 30
0.0
 40
0.25
  1
0.168
 41
0.75
  7
TXT
 72
     1
 11
7.350277
 21
15.171654
 31
0.0
 73
     2
  0
POINT
  8
DEFPOINTS
  6
BYBLOCK
 62
     0
 10
8.746402
 20
16.777154
 30
0.0
  0
POINT
  8
DEFPOINTS
  6
BYBLOCK
 62
     0
 10
8.578402
 20
16.453654
 30
0.0
  0
POINT
  8
DEFPOINTS
  6
BYBLOCK
 62
     0
 10
8.578402
 20
15.171654
 30
0.0
  0
ENDBLK
  8
0
  0
BLOCK
  8
0
  2
*D37
 70
    65
 10
0.0
 20
0.0
 30
0.0
  3
*D
  0
LINE
  8
0
  6
BYBLOCK
 62
     0
 10
3.111897
 20
16.883654
 30
0.0
 11
3.111897
 21
14.985654
 31
0.0
  0
LINE
  8
0
  6
BYBLOCK
 62
     0
 10
4.895897
 20
16.883654
 30
0.0
 11
4.895897
 21
14.985654
 31
0.0
  0
LINE
  8
0
  6
BYBLOCK
 62
     0
 10
2.751897
 20
15.171654
 30
0.0
 11
2.391897
 21
15.171654
 31
0.0
  0
LINE
  8
0
  6
BYBLOCK
 62
     0
 10
5.255897
 20
15.171654
 30
0.0
 11
5.615897
 21
15.171654
 31
0.0
  0
SOLID
  8
0
  6
BYBLOCK
 62
     0
 10
2.751897
 20
15.231654
 30
0.0
 11
2.751897
 21
15.111654
 31
0.0
 12
3.111897
 22
15.171654
 32
0.0
 13
3.111897
 23
15.171654
 33
0.0
  0
SOLID
  8
0
  6
BYBLOCK
 62
     0
 10
5.255897
 20
15.231654
 30
0.0
 11
5.255897
 21
15.111654
 31
0.0
 12
4.895897
 22
15.171654
 32
0.0
 13
4.895897
 23
15.171654
 33
0.0
  0
TEXT
  8
0
  6
BYBLOCK
 62
     0
 10
3.660147
 20
15.046654
 30
0.0
 40
0.25
  1
1.784
 41
0.75
  7
TXT
 72
     1
 11
4.003897
 21
15.171654
 31
0.0
 73
     2
  0
POINT
  8
DEFPOINTS
  6
BYBLOCK
 62
     0
 10
3.111897
 20
17.009654
 30
0.0
  0
POINT
  8
DEFPOINTS
  6
BYBLOCK
 62
     0
 10
4.895897
 20
17.009654
 30
0.0
  0
POINT
  8
DEFPOINTS
  6
BYBLOCK
 62
     0
 10
4.895897
 20
15.171654
 30
0.0
  0
ENDBLK
  8
0
  0
BLOCK
  8
0
  2
*D38
 70
    65
 10
0.0
 20
0.0
 30
0.0
  3
*D
  0
LINE
  8
0
  6
BYBLOCK
 62
     0
 10
2.481397
 20
16.327654
 30
0.0
 11
2.481397
 21
15.547654
 31
0.0
  0
LINE
  8
0
  6
BYBLOCK
 62
     0
 10
3.111897
 20
16.883654
 30
0.0
 11
3.111897
 21
15.547654
 31
0.0
  0
LINE
  8
0
  6
BYBLOCK
 62
     0
 10
2.121397
 20
15.733654
 30
0.0
 11
1.761397
 21
15.733654
 31
0.0
  0
LINE
  8
0
  6
BYBLOCK
 62
     0
 10
3.471897
 20
15.733654
 30
0.0
 11
3.831897
 21
15.733654
 31
0.0
  0
SOLID
  8
0
  6
BYBLOCK
 62
     0
 10
2.121397
 20
15.793654
 30
0.0
 11
2.121397
 21
15.673654
 31
0.0
 12
2.481397
 22
15.733654
 32
0.0
 13
2.481397
 23
15.733654
 33
0.0
  0
SOLID
  8
0
  6
BYBLOCK
 62
     0
 10
3.471897
 20
15.793654
 30
0.0
 11
3.471897
 21
15.673654
 31
0.0
 12
3.111897
 22
15.733654
 32
0.0
 13
3.111897
 23
15.733654
 33
0.0
  0
TEXT
  8
0
  6
BYBLOCK
 62
     0
 10
4.011897
 20
15.608654
 30
0.0
 40
0.25
  1
0.631
 41
0.75
  7
TXT
 72
     1
 11
4.340022
 21
15.733654
 31
0.0
 73
     2
  0
POINT
  8
DEFPOINTS
  6
BYBLOCK
 62
     0
 10
2.481397
 20
16.453654
 30
0.0
  0
POINT
  8
DEFPOINTS
  6
BYBLOCK
 62
     0
 10
3.111897
 20
17.009654
 30
0.0
  0
POINT
  8
DEFPOINTS
  6
BYBLOCK
 62
     0
 10
3.111897
 20
15.733654
 30
0.0
  0
ENDBLK
  8
0
  0
BLOCK
  8
0
  2
*D39
 70
    65
 10
0.0
 20
0.0
 30
0.0
  3
*D
  0
LINE
  8
0
  6
BYBLOCK
 62
     0
 10
22.48502
 20
16.401654
 30
0.0
 11
22.48502
 21
15.547654
 31
0.0
  0
LINE
  8
0
  6
BYBLOCK
 62
     0
 10
22.39702
 20
16.327654
 30
0.0
 11
22.39702
 21
15.547654
 31
0.0
  0
LINE
  8
0
  6
BYBLOCK
 62
     0
 10
22.84502
 20
15.733654
 30
0.0
 11
23.20502
 21
15.733654
 31
0.0
  0
LINE
  8
0
  6
BYBLOCK
 62
     0
 10
22.03702
 20
15.733654
 30
0.0
 11
21.67702
 21
15.733654
 31
0.0
  0
SOLID
  8
0
  6
BYBLOCK
 62
     0
 10
22.84502
 20
15.793654
 30
0.0
 11
22.84502
 21
15.673654
 31
0.0
 12
22.48502
 22
15.733654
 32
0.0
 13
22.48502
 23
15.733654
 33
0.0
  0
SOLID
  8
0
  6
BYBLOCK
 62
     0
 10
22.03702
 20
15.793654
 30
0.0
 11
22.03702
 21
15.673654
 31
0.0
 12
22.39702
 22
15.733654
 32
0.0
 13
22.39702
 23
15.733654
 33
0.0
  0
TEXT
  8
0
  6
BYBLOCK
 62
     0
 10
20.80952
 20
15.608654
 30
0.0
 40
0.25
  1
0.088
 41
0.75
  7
TXT
 72
     1
 11
21.15327
 21
15.733654
 31
0.0
 73
     2
  0
POINT
  8
DEFPOINTS
  6
BYBLOCK
 62
     0
 10
22.48502
 20
16.527654
 30
0.0
  0
POINT
  8
DEFPOINTS
  6
BYBLOCK
 62
     0
 10
22.39702
 20
16.453654
 30
0.0
  0
POINT
  8
DEFPOINTS
  6
BYBLOCK
 62
     0
 10
22.39702
 20
15.733654
 30
0.0
  0
ENDBLK
  8
0
  0
BLOCK
  8
0
  2
*D40
 70
    65
 10
0.0
 20
0.0
 30
0.0
  3
*D
  0
LINE
  8
0
  6
BYBLOCK
 62
     0
 10
22.56502
 20
16.651154
 30
0.0
 11
22.56502
 21
14.985654
 31
0.0
  0
LINE
  8
0
  6
BYBLOCK
 62
     0
 10
22.39702
 20
16.327654
 30
0.0
 11
22.39702
 21
14.985654
 31
0.0
  0
LINE
  8
0
  6
BYBLOCK
 62
     0
 10
22.92502
 20
15.171654
 30
0.0
 11
23.28502
 21
15.171654
 31
0.0
  0
LINE
  8
0
  6
BYBLOCK
 62
     0
 10
22.03702
 20
15.171654
 30
0.0
 11
21.67702
 21
15.171654
 31
0.0
  0
SOLID
  8
0
  6
BYBLOCK
 62
     0
 10
22.92502
 20
15.231654
 30
0.0
 11
22.92502
 21
15.111654
 31
0.0
 12
22.56502
 22
15.171654
 32
0.0
 13
22.56502
 23
15.171654
 33
0.0
  0
SOLID
  8
0
  6
BYBLOCK
 62
     0
 10
22.03702
 20
15.231654
 30
0.0
 11
22.03702
 21
15.111654
 31
0.0
 12
22.39702
 22
15.171654
 32
0.0
 13
22.39702
 23
15.171654
 33
0.0
  0
TEXT
  8
0
  6
BYBLOCK
 62
     0
 10
20.84077
 20
15.046654
 30
0.0
 40
0.25
  1
0.168
 41
0.75
  7
TXT
 72
     1
 11
21.168895
 21
15.171654
 31
0.0
 73
     2
  0
POINT
  8
DEFPOINTS
  6
BYBLOCK
 62
     0
 10
22.56502
 20
16.777154
 30
0.0
  0
POINT
  8
DEFPOINTS
  6
BYBLOCK
 62
     0
 10
22.39702
 20
16.453654
 30
0.0
  0
POINT
  8
DEFPOINTS
  6
BYBLOCK
 62
     0
 10
22.39702
 20
15.171654
 30
0.0
  0
ENDBLK
  8
0
  0
BLOCK
  8
0
  2
*D41
 70
    65
 10
0.0
 20
0.0
 30
0.0
  3
*D
  0
LINE
  8
0
  6
BYBLOCK
 62
     0
 10
16.174015
 20
18.272654
 30
0.0
 11
15.394015
 21
18.272654
 31
0.0
  0
LINE
  8
0
  6
BYBLOCK
 62
     0
 10
16.174015
 20
16.453654
 30
0.0
 11
15.394015
 21
16.453654
 31
0.0
  0
LINE
  8
0
  6
BYBLOCK
 62
     0
 10
15.580015
 20
17.912654
 30
0.0
 11
15.580015
 21
17.668154
 31
0.0
  0
LINE
  8
0
  6
BYBLOCK
 62
     0
 10
15.580015
 20
16.813654
 30
0.0
 11
15.580015
 21
17.058154
 31
0.0
  0
SOLID
  8
0
  6
BYBLOCK
 62
     0
 10
15.520015
 20
17.912654
 30
0.0
 11
15.640015
 21
17.912654
 31
0.0
 12
15.580015
 22
18.272654
 32
0.0
 13
15.580015
 23
18.272654
 33
0.0
  0
SOLID
  8
0
  6
BYBLOCK
 62
     0
 10
15.520015
 20
16.813654
 30
0.0
 11
15.640015
 21
16.813654
 31
0.0
 12
15.580015
 22
16.453654
 32
0.0
 13
15.580015
 23
16.453654
 33
0.0
  0
TEXT
  8
0
  6
BYBLOCK
 62
     0
 10
15.267515
 20
17.238154
 30
0.0
 40
0.25
  1
1.819
 41
0.75
  7
TXT
 72
     1
 11
15.580015
 21
17.363154
 31
0.0
 73
     2
  0
POINT
  8
DEFPOINTS
  6
BYBLOCK
 62
     0
 10
16.300015
 20
18.272654
 30
0.0
  0
POINT
  8
DEFPOINTS
  6
BYBLOCK
 62
     0
 10
16.300015
 20
16.453654
 30
0.0
  0
POINT
  8
DEFPOINTS
  6
BYBLOCK
 62
     0
 10
15.580015
 20
16.453654
 30
0.0
  0
ENDBLK
  8
0
  0
BLOCK
  8
0
  2
*D42
 70
    65
 10
0.0
 20
0.0
 30
0.0
  3
*D
  0
LINE
  8
0
  6
BYBLOCK
 62
     0
 10
5.668104
 20
5.952205
 30
0.0
 11
6.627488
 21
5.952205
 31
0.0
  0
LINE
  8
0
  6
BYBLOCK
 62
     0
 10
5.749062
 20
6.247205
 30
0.0
 11
6.627488
 21
6.247205
 31
0.0
  0
LINE
  8
0
  6
BYBLOCK
 62
     0
 10
6.441488
 20
5.592205
 30
0.0
 11
6.441488
 21
5.232205
 31
0.0
  0
LINE
  8
0
  6
BYBLOCK
 62
     0
 10
6.441488
 20
6.607205
 30
0.0
 11
6.441488
 21
6.967205
 31
0.0
  0
LINE
  8
0
  6
BYBLOCK
 62
     0
 10
6.441488
 20
6.967205
 30
0.0
 11
6.801488
 21
6.967205
 31
0.0
  0
SOLID
  8
0
  6
BYBLOCK
 62
     0
 10
6.381488
 20
5.592205
 30
0.0
 11
6.501488
 21
5.592205
 31
0.0
 12
6.441488
 22
5.952205
 32
0.0
 13
6.441488
 23
5.952205
 33
0.0
  0
SOLID
  8
0
  6
BYBLOCK
 62
     0
 10
6.381488
 20
6.607205
 30
0.0
 11
6.501488
 21
6.607205
 31
0.0
 12
6.441488
 22
6.247205
 32
0.0
 13
6.441488
 23
6.247205
 33
0.0
  0
TEXT
  8
0
  6
BYBLOCK
 62
     0
 10
6.981488
 20
6.842205
 30
0.0
 40
0.25
  1
0.295
 41
0.75
  7
TXT
 72
     1
 11
7.340863
 21
6.967205
 31
0.0
 73
     2
  0
POINT
  8
DEFPOINTS
  6
BYBLOCK
 62
     0
 10
5.542104
 20
5.952205
 30
0.0
  0
POINT
  8
DEFPOINTS
  6
BYBLOCK
 62
     0
 10
5.623062
 20
6.247205
 30
0.0
  0
POINT
  8
DEFPOINTS
  6
BYBLOCK
 62
     0
 10
6.441488
 20
6.247205
 30
0.0
  0
ENDBLK
  8
0
  0
BLOCK
  8
0
  2
*D43
 70
    65
 10
0.0
 20
0.0
 30
0.0
  3
*D
  0
LINE
  8
0
  6
BYBLOCK
 62
     0
 10
4.694913
 20
6.120989
 30
0.0
 11
4.694913
 21
3.172705
 31
0.0
  0
LINE
  8
0
  6
BYBLOCK
 62
     0
 10
5.549488
 20
5.756815
 30
0.0
 11
5.549488
 21
3.172705
 31
0.0
  0
LINE
  8
0
  6
BYBLOCK
 62
     0
 10
4.334913
 20
3.358705
 30
0.0
 11
3.974913
 21
3.358705
 31
0.0
  0
LINE
  8
0
  6
BYBLOCK
 62
     0
 10
5.909488
 20
3.358705
 30
0.0
 11
6.269488
 21
3.358705
 31
0.0
  0
SOLID
  8
0
  6
BYBLOCK
 62
     0
 10
4.334913
 20
3.418705
 30
0.0
 11
4.334913
 21
3.298705
 31
0.0
 12
4.694913
 22
3.358705
 32
0.0
 13
4.694913
 23
3.358705
 33
0.0
  0
SOLID
  8
0
  6
BYBLOCK
 62
     0
 10
5.909488
 20
3.418705
 30
0.0
 11
5.909488
 21
3.298705
 31
0.0
 12
5.549488
 22
3.358705
 32
0.0
 13
5.549488
 23
3.358705
 33
0.0
  0
TEXT
  8
0
  6
BYBLOCK
 62
     0
 10
7.230738
 20
3.233705
 30
0.0
 40
0.25
  1
 INSIDE
 41
0.75
  7
TXT
 72
     1
 11
7.793238
 21
3.358705
 31
0.0
 73
     2
  0
TEXT
  8
0
  6
BYBLOCK
 62
     0
 10
6.449488
 20
3.233705
 30
0.0
 40
0.25
  1
0.855
 41
0.75
  7
TXT
 72
     1
 11
6.808863
 21
3.358705
 31
0.0
 73
     2
  0
POINT
  8
DEFPOINTS
  6
BYBLOCK
 62
     0
 10
4.694913
 20
6.246989
 30
0.0
  0
POINT
  8
DEFPOINTS
  6
BYBLOCK
 62
     0
 10
5.549488
 20
5.882815
 30
0.0
  0
POINT
  8
DEFPOINTS
  6
BYBLOCK
 62
     0
 10
5.549488
 20
3.358705
 30
0.0
  0
ENDBLK
  8
0
  0
BLOCK
  8
0
  2
*D44
 70
    65
 10
0.0
 20
0.0
 30
0.0
  3
*D
  0
LINE
  8
0
  6
BYBLOCK
 62
     0
 10
6.730973
 20
10.720574
 30
0.0
 11
8.011721
 21
10.123351
 31
0.0
  0
LINE
  8
0
  6
BYBLOCK
 62
     0
 10
6.067291
 20
9.297303
 30
0.0
 11
7.348039
 21
8.70008
 31
0.0
  0
LINE
  8
0
  6
BYBLOCK
 62
     0
 10
7.995291
 20
10.528229
 30
0.0
 11
8.147433
 21
10.8545
 31
0.0
  0
LINE
  8
0
  6
BYBLOCK
 62
     0
 10
7.027323
 20
8.452416
 30
0.0
 11
6.875181
 21
8.126145
 31
0.0
  0
SOLID
  8
0
  6
BYBLOCK
 62
     0
 10
7.940912
 20
10.553586
 30
0.0
 11
8.049669
 21
10.502872
 31
0.0
 12
7.843148
 22
10.201958
 32
0.0
 13
7.843148
 23
10.201958
 33
0.0
  0
SOLID
  8
0
  6
BYBLOCK
 62
     0
 10
6.972945
 20
8.477773
 30
0.0
 11
7.081702
 21
8.427059
 31
0.0
 12
7.179466
 22
8.778687
 32
0.0
 13
7.179466
 23
8.778687
 33
0.0
  0
TEXT
  8
0
  6
BYBLOCK
 62
     0
 10
7.183182
 20
9.365322
 30
0.0
 40
0.25
  1
1.570
 41
0.75
  7
TXT
 72
     1
 11
7.511307
 21
9.490322
 31
0.0
 73
     2
  0
POINT
  8
DEFPOINTS
  6
BYBLOCK
 62
     0
 10
6.616778
 20
10.773824
 30
0.0
  0
POINT
  8
DEFPOINTS
  6
BYBLOCK
 62
     0
 10
5.953096
 20
9.350553
 30
0.0
  0
POINT
  8
DEFPOINTS
  6
BYBLOCK
 62
     0
 10
7.179466
 20
8.778687
 30
0.0
  0
ENDBLK
  8
0
  0
BLOCK
  8
0
  2
*D45
 70
    65
 10
0.0
 20
0.0
 30
0.0
  3
*D
  0
LINE
  8
0
  6
BYBLOCK
 62
     0
 10
6.067291
 20
9.297303
 30
0.0
 11
7.849531
 21
8.466231
 31
0.0
  0
LINE
  8
0
  6
BYBLOCK
 62
     0
 10
5.835682
 20
9.274449
 30
0.0
 11
7.799411
 21
8.358748
 31
0.0
  0
LINE
  8
0
  6
BYBLOCK
 62
     0
 10
7.8331
 20
8.871108
 30
0.0
 11
7.985243
 21
9.197379
 31
0.0
  0
LINE
  8
0
  6
BYBLOCK
 62
     0
 10
7.478695
 20
8.111084
 30
0.0
 11
7.326552
 21
7.784813
 31
0.0
  0
LINE
  8
0
  6
BYBLOCK
 62
     0
 10
7.326552
 20
7.784813
 30
0.0
 11
6.966552
 21
7.784813
 31
0.0
  0
SOLID
  8
0
  6
BYBLOCK
 62
     0
 10
7.778722
 20
8.896465
 30
0.0
 11
7.887478
 21
8.845751
 31
0.0
 12
7.680957
 22
8.544838
 32
0.0
 13
7.680957
 23
8.544838
 33
0.0
  0
SOLID
  8
0
  6
BYBLOCK
 62
     0
 10
7.424316
 20
8.136441
 30
0.0
 11
7.533073
 21
8.085727
 31
0.0
 12
7.630837
 22
8.437355
 32
0.0
 13
7.630837
 23
8.437355
 33
0.0
  0
TEXT
  8
0
  6
BYBLOCK
 62
     0
 10
6.192802
 20
7.659813
 30
0.0
 40
0.25
  1
0.119
 41
0.75
  7
TXT
 72
     1
 11
6.489677
 21
7.784813
 31
0.0
 73
     2
  0
POINT
  8
DEFPOINTS
  6
BYBLOCK
 62
     0
 10
5.953096
 20
9.350553
 30
0.0
  0
POINT
  8
DEFPOINTS
  6
BYBLOCK
 62
     0
 10
5.721488
 20
9.327699
 30
0.0
  0
POINT
  8
DEFPOINTS
  6
BYBLOCK
 62
     0
 10
7.630837
 20
8.437355
 30
0.0
  0
ENDBLK
  8
0
  0
BLOCK
  8
0
  2
*D46
 70
    65
 10
0.0
 20
0.0
 30
0.0
  3
*D
  0
LINE
  8
0
  6
BYBLOCK
 62
     0
 10
6.730973
 20
10.720574
 30
0.0
 11
7.46374
 21
10.378879
 31
0.0
  0
LINE
  8
0
  6
BYBLOCK
 62
     0
 10
6.604425
 20
10.923023
 30
0.0
 11
7.51868
 21
10.496699
 31
0.0
  0
LINE
  8
0
  6
BYBLOCK
 62
     0
 10
7.143024
 20
10.131215
 30
0.0
 11
6.990882
 21
9.804944
 31
0.0
  0
LINE
  8
0
  6
BYBLOCK
 62
     0
 10
7.50225
 20
10.901577
 30
0.0
 11
7.654392
 21
11.227847
 31
0.0
  0
LINE
  8
0
  6
BYBLOCK
 62
     0
 10
7.654392
 20
11.227847
 30
0.0
 11
8.014392
 21
11.227847
 31
0.0
  0
SOLID
  8
0
  6
BYBLOCK
 62
     0
 10
7.088646
 20
10.156572
 30
0.0
 11
7.197403
 21
10.105858
 31
0.0
 12
7.295167
 22
10.457486
 32
0.0
 13
7.295167
 23
10.457486
 33
0.0
  0
SOLID
  8
0
  6
BYBLOCK
 62
     0
 10
7.447871
 20
10.926934
 30
0.0
 11
7.556628
 21
10.87622
 31
0.0
 12
7.350107
 22
10.575306
 32
0.0
 13
7.350107
 23
10.575306
 33
0.0
  0
TEXT
  8
0
  6
BYBLOCK
 62
     0
 10
8.194392
 20
11.102847
 30
0.0
 40
0.25
  1
0.130
 41
0.75
  7
TXT
 72
     1
 11
8.506892
 21
11.227847
 31
0.0
 73
     2
  0
POINT
  8
DEFPOINTS
  6
BYBLOCK
 62
     0
 10
6.616778
 20
10.773824
 30
0.0
  0
POINT
  8
DEFPOINTS
  6
BYBLOCK
 62
     0
 10
6.49023
 20
10.976273
 30
0.0
  0
POINT
  8
DEFPOINTS
  6
BYBLOCK
 62
     0
 10
7.350107
 20
10.575306
 30
0.0
  0
ENDBLK
  8
0
  0
BLOCK
  8
0
  2
*X47
 70
    65
 10
0.0
 20
0.0
 30
0.0
  3
*X
  0
LINE
  8
0
 62
     0
 10
5.549488
 20
8.400012
 30
0.0
 11
5.682118
 21
8.532642
 31
0.0
  0
LINE
  8
0
 62
     0
 10
5.549488
 20
8.466303
 30
0.0
 11
5.682118
 21
8.598933
 31
0.0
  0
LINE
  8
0
 62
     0
 10
5.549488
 20
8.532594
 30
0.0
 11
5.682118
 21
8.665224
 31
0.0
  0
LINE
  8
0
 62
     0
 10
5.549488
 20
8.598886
 30
0.0
 11
5.682118
 21
8.731516
 31
0.0
  0
LINE
  8
0
 62
     0
 10
5.549488
 20
8.665177
 30
0.0
 11
5.682118
 21
8.797807
 31
0.0
  0
LINE
  8
0
 62
     0
 10
5.549488
 20
8.731468
 30
0.0
 11
5.682118
 21
8.864098
 31
0.0
  0
LINE
  8
0
 62
     0
 10
5.549488
 20
8.797759
 30
0.0
 11
5.682118
 21
8.930389
 31
0.0
  0
LINE
  8
0
 62
     0
 10
5.549488
 20
8.864051
 30
0.0
 11
5.682118
 21
8.996681
 31
0.0
  0
LINE
  8
0
 62
     0
 10
5.549488
 20
8.930342
 30
0.0
 11
5.682118
 21
9.062972
 31
0.0
  0
LINE
  8
0
 62
     0
 10
5.549488
 20
8.996633
 30
0.0
 11
5.682118
 21
9.129263
 31
0.0
  0
LINE
  8
0
 62
     0
 10
5.549488
 20
9.062925
 30
0.0
 11
5.682118
 21
9.195554
 31
0.0
  0
LINE
  8
0
 62
     0
 10
5.715837
 20
9.229274
 30
0.0
 11
5.721488
 21
9.234925
 31
0.0
  0
LINE
  8
0
 62
     0
 10
5.549488
 20
9.129216
 30
0.0
 11
5.721488
 21
9.301216
 31
0.0
  0
LINE
  8
0
 62
     0
 10
5.549488
 20
9.195507
 30
0.0
 11
5.70762
 21
9.353639
 31
0.0
  0
LINE
  8
0
 62
     0
 10
5.549488
 20
9.261798
 30
0.0
 11
5.684525
 21
9.396836
 31
0.0
  0
LINE
  8
0
 62
     0
 10
5.564063
 20
9.342665
 30
0.0
 11
5.658663
 21
9.437265
 31
0.0
  0
LINE
  8
0
 62
     0
 10
5.679673
 20
9.524566
 30
0.0
 11
5.731882
 21
9.576775
 31
0.0
  0
LINE
  8
0
 62
     0
 10
5.679906
 20
9.59109
 30
0.0
 11
5.708788
 21
9.619972
 31
0.0
  0
LINE
  8
0
 62
     0
 10
6.258517
 20
10.766323
 30
0.0
 11
6.341783
 21
10.849588
 31
0.0
  0
LINE
  8
0
 62
     0
 10
6.462676
 20
10.970481
 30
0.0
 11
6.509246
 21
11.017051
 31
0.0
  0
LINE
  8
0
 62
     0
 10
6.259118
 20
10.833215
 30
0.0
 11
6.299246
 21
10.873343
 31
0.0
  0
LINE
  8
0
 62
     0
 10
6.365465
 20
10.939562
 30
0.0
 11
6.533748
 21
11.107845
 31
0.0
  0
LINE
  8
0
 62
     0
 10
6.320255
 20
10.960643
 30
0.0
 11
6.529484
 21
11.169873
 31
0.0
  0
LINE
  8
0
 62
     0
 10
6.37496
 20
11.08164
 30
0.0
 11
6.513296
 21
11.219975
 31
0.0
  0
LINE
  8
0
 62
     0
 10
6.379267
 20
11.152238
 30
0.0
 11
6.488728
 21
11.261698
 31
0.0
  0
LINE
  8
0
 62
     0
 10
6.348943
 20
11.188205
 30
0.0
 11
6.460715
 21
11.299977
 31
0.0
  0
LINE
  8
0
 62
     0
 10
6.282652
 20
11.188205
 30
0.0
 11
6.431025
 21
11.336578
 31
0.0
  0
LINE
  8
0
 62
     0
 10
6.216361
 20
11.188205
 30
0.0
 11
6.399685
 21
11.37153
 31
0.0
  0
LINE
  8
0
 62
     0
 10
6.150069
 20
11.188205
 30
0.0
 11
6.366708
 21
11.404844
 31
0.0
  0
LINE
  8
0
 62
     0
 10
6.083778
 20
11.188205
 30
0.0
 11
6.332095
 21
11.436522
 31
0.0
  0
LINE
  8
0
 62
     0
 10
6.017487
 20
11.188205
 30
0.0
 11
6.120987
 21
11.291705
 31
0.0
  0
LINE
  8
0
 62
     0
 10
6.154558
 20
11.325277
 30
0.0
 11
6.295836
 21
11.466554
 31
0.0
  0
LINE
  8
0
 62
     0
 10
5.951196
 20
11.188205
 30
0.0
 11
6.054696
 21
11.291705
 31
0.0
  0
LINE
  8
0
 62
     0
 10
6.142696
 20
11.379705
 30
0.0
 11
6.257906
 21
11.494916
 31
0.0
  0
LINE
  8
0
 62
     0
 10
5.884904
 20
11.188205
 30
0.0
 11
5.988404
 21
11.291705
 31
0.0
  0
LINE
  8
0
 62
     0
 10
6.076404
 20
11.379705
 30
0.0
 11
6.21827
 21
11.521571
 31
0.0
  0
LINE
  8
0
 62
     0
 10
5.818613
 20
11.188205
 30
0.0
 11
5.922113
 21
11.291705
 31
0.0
  0
LINE
  8
0
 62
     0
 10
6.010113
 20
11.379705
 30
0.0
 11
6.176877
 21
11.546469
 31
0.0
  0
LINE
  8
0
 62
     0
 10
5.752322
 20
11.188205
 30
0.0
 11
5.855822
 21
11.291705
 31
0.0
  0
LINE
  8
0
 62
     0
 10
5.943822
 20
11.379705
 30
0.0
 11
6.133657
 21
11.56954
 31
0.0
  0
LINE
  8
0
 62
     0
 10
5.68603
 20
11.188205
 30
0.0
 11
5.78953
 21
11.291705
 31
0.0
  0
LINE
  8
0
 62
     0
 10
6.000596
 20
11.502771
 30
0.0
 11
6.088523
 21
11.590698
 31
0.0
  0
LINE
  8
0
 62
     0
 10
5.87753
 20
11.379705
 30
0.0
 11
5.98103
 21
11.483205
 31
0.0
  0
LINE
  8
0
 62
     0
 10
5.619739
 20
11.188205
 30
0.0
 11
5.723239
 21
11.291705
 31
0.0
  0
LINE
  8
0
 62
     0
 10
5.951584
 20
11.520049
 30
0.0
 11
6.041364
 21
11.609829
 31
0.0
  0
LINE
  8
0
 62
     0
 10
5.811239
 20
11.379705
 30
0.0
 11
5.914739
 21
11.483205
 31
0.0
  0
LINE
  8
0
 62
     0
 10
5.553448
 20
11.188205
 30
0.0
 11
5.656948
 21
11.291705
 31
0.0
  0
LINE
  8
0
 62
     0
 10
5.899421
 20
11.534178
 30
0.0
 11
5.992034
 21
11.626791
 31
0.0
  0
LINE
  8
0
 62
     0
 10
5.744948
 20
11.379705
 30
0.0
 11
5.848448
 21
11.483205
 31
0.0
  0
LINE
  8
0
 62
     0
 10
5.487157
 20
11.188205
 30
0.0
 11
5.590657
 21
11.291705
 31
0.0
  0
LINE
  8
0
 62
     0
 10
5.843666
 20
11.544714
 30
0.0
 11
5.940353
 21
11.641401
 31
0.0
  0
LINE
  8
0
 62
     0
 10
5.678657
 20
11.379705
 30
0.0
 11
5.782157
 21
11.483205
 31
0.0
  0
LINE
  8
0
 62
     0
 10
5.420865
 20
11.188205
 30
0.0
 11
5.524365
 21
11.291705
 31
0.0
  0
LINE
  8
0
 62
     0
 10
5.783672
 20
11.551012
 30
0.0
 11
5.886085
 21
11.653425
 31
0.0
  0
LINE
  8
0
 62
     0
 10
5.612365
 20
11.379705
 30
0.0
 11
5.715865
 21
11.483205
 31
0.0
  0
LINE
  8
0
 62
     0
 10
5.354574
 20
11.188205
 30
0.0
 11
5.458074
 21
11.291705
 31
0.0
  0
LINE
  8
0
 62
     0
 10
5.718479
 20
11.55211
 30
0.0
 11
5.828922
 21
11.662553
 31
0.0
  0
LINE
  8
0
 62
     0
 10
5.546074
 20
11.379705
 30
0.0
 11
5.649574
 21
11.483205
 31
0.0
  0
LINE
  8
0
 62
     0
 10
5.288283
 20
11.188205
 30
0.0
 11
5.391783
 21
11.291705
 31
0.0
  0
LINE
  8
0
 62
     0
 10
5.652188
 20
11.55211
 30
0.0
 11
5.768452
 21
11.668374
 31
0.0
  0
LINE
  8
0
 62
     0
 10
5.479783
 20
11.379705
 30
0.0
 11
5.583283
 21
11.483205
 31
0.0
  0
LINE
  8
0
 62
     0
 10
5.221992
 20
11.188205
 30
0.0
 11
5.325492
 21
11.291705
 31
0.0
  0
LINE
  8
0
 62
     0
 10
5.585896
 20
11.55211
 30
0.0
 11
5.704007
 21
11.67022
 31
0.0
  0
LINE
  8
0
 62
     0
 10
5.413492
 20
11.379705
 30
0.0
 11
5.516992
 21
11.483205
 31
0.0
  0
LINE
  8
0
 62
     0
 10
5.1557
 20
11.188205
 30
0.0
 11
5.2592
 21
11.291705
 31
0.0
  0
LINE
  8
0
 62
     0
 10
5.519605
 20
11.55211
 30
0.0
 11
5.637715
 21
11.67022
 31
0.0
  0
LINE
  8
0
 62
     0
 10
5.3472
 20
11.379705
 30
0.0
 11
5.4507
 21
11.483205
 31
0.0
  0
LINE
  8
0
 62
     0
 10
5.154558
 20
11.253354
 30
0.0
 11
5.192909
 21
11.291705
 31
0.0
  0
LINE
  8
0
 62
     0
 10
5.453314
 20
11.55211
 30
0.0
 11
5.571424
 21
11.67022
 31
0.0
  0
LINE
  8
0
 62
     0
 10
5.280909
 20
11.379705
 30
0.0
 11
5.384409
 21
11.483205
 31
0.0
  0
LINE
  8
0
 62
     0
 10
5.214618
 20
11.379705
 30
0.0
 11
5.318118
 21
11.483205
 31
0.0
  0
LINE
  8
0
 62
     0
 10
5.387023
 20
11.55211
 30
0.0
 11
5.505133
 21
11.67022
 31
0.0
  0
LINE
  8
0
 62
     0
 10
5.154558
 20
11.385937
 30
0.0
 11
5.251827
 21
11.483205
 31
0.0
  0
LINE
  8
0
 62
     0
 10
5.320731
 20
11.55211
 30
0.0
 11
5.438842
 21
11.67022
 31
0.0
  0
LINE
  8
0
 62
     0
 10
5.154558
 20
11.452228
 30
0.0
 11
5.185535
 21
11.483205
 31
0.0
  0
LINE
  8
0
 62
     0
 10
5.25444
 20
11.55211
 30
0.0
 11
5.37255
 21
11.67022
 31
0.0
  0
LINE
  8
0
 62
     0
 10
5.188149
 20
11.55211
 30
0.0
 11
5.306259
 21
11.67022
 31
0.0
  0
LINE
  8
0
 62
     0
 10
5.154558
 20
11.584811
 30
0.0
 11
5.239968
 21
11.67022
 31
0.0
  0
LINE
  8
0
 62
     0
 10
5.103377
 20
11.599921
 30
0.0
 11
5.131677
 21
11.62822
 31
0.0
  0
LINE
  8
0
 62
     0
 10
5.154558
 20
11.651102
 30
0.0
 11
5.173677
 21
11.67022
 31
0.0
  0
LINE
  8
0
 62
     0
 10
5.549488
 20
8.333721
 30
0.0
 11
5.682118
 21
8.466351
 31
0.0
  0
LINE
  8
0
 62
     0
 10
5.549488
 20
8.267429
 30
0.0
 11
5.682118
 21
8.400059
 31
0.0
  0
LINE
  8
0
 62
     0
 10
5.549488
 20
8.201138
 30
0.0
 11
5.682118
 21
8.333768
 31
0.0
  0
LINE
  8
0
 62
     0
 10
5.549488
 20
8.134847
 30
0.0
 11
5.682118
 21
8.267477
 31
0.0
  0
LINE
  8
0
 62
     0
 10
5.549488
 20
8.068556
 30
0.0
 11
5.682118
 21
8.201186
 31
0.0
  0
LINE
  8
0
 62
     0
 10
5.549488
 20
8.002264
 30
0.0
 11
5.682118
 21
8.134894
 31
0.0
  0
LINE
  8
0
 62
     0
 10
5.549488
 20
7.935973
 30
0.0
 11
5.682118
 21
8.068603
 31
0.0
  0
LINE
  8
0
 62
     0
 10
5.549488
 20
7.869682
 30
0.0
 11
5.682118
 21
8.002312
 31
0.0
  0
LINE
  8
0
 62
     0
 10
5.549488
 20
7.803391
 30
0.0
 11
5.682118
 21
7.93602
 31
0.0
  0
LINE
  8
0
 62
     0
 10
5.549488
 20
7.737099
 30
0.0
 11
5.682118
 21
7.869729
 31
0.0
  0
LINE
  8
0
 62
     0
 10
5.549488
 20
7.670808
 30
0.0
 11
5.682118
 21
7.803438
 31
0.0
  0
LINE
  8
0
 62
     0
 10
5.549488
 20
7.604517
 30
0.0
 11
5.682118
 21
7.737147
 31
0.0
  0
LINE
  8
0
 62
     0
 10
5.549488
 20
7.538226
 30
0.0
 11
5.682118
 21
7.670855
 31
0.0
  0
LINE
  8
0
 62
     0
 10
5.549488
 20
7.471934
 30
0.0
 11
5.682118
 21
7.604564
 31
0.0
  0
LINE
  8
0
 62
     0
 10
5.549488
 20
7.405643
 30
0.0
 11
5.682118
 21
7.538273
 31
0.0
  0
LINE
  8
0
 62
     0
 10
5.549488
 20
7.339352
 30
0.0
 11
5.682118
 21
7.471982
 31
0.0
  0
LINE
  8
0
 62
     0
 10
5.549488
 20
7.27306
 30
0.0
 11
5.682118
 21
7.40569
 31
0.0
  0
LINE
  8
0
 62
     0
 10
5.549488
 20
7.206769
 30
0.0
 11
5.682118
 21
7.339399
 31
0.0
  0
LINE
  8
0
 62
     0
 10
5.549488
 20
7.140478
 30
0.0
 11
5.682118
 21
7.273108
 31
0.0
  0
LINE
  8
0
 62
     0
 10
5.549488
 20
7.074187
 30
0.0
 11
5.682118
 21
7.206817
 31
0.0
  0
LINE
  8
0
 62
     0
 10
5.549488
 20
7.007895
 30
0.0
 11
5.682118
 21
7.140525
 31
0.0
  0
LINE
  8
0
 62
     0
 10
5.549488
 20
6.941604
 30
0.0
 11
5.682118
 21
7.074234
 31
0.0
  0
LINE
  8
0
 62
     0
 10
5.549488
 20
6.875313
 30
0.0
 11
5.682118
 21
7.007943
 31
0.0
  0
LINE
  8
0
 62
     0
 10
5.549488
 20
6.809022
 30
0.0
 11
5.682118
 21
6.941652
 31
0.0
  0
LINE
  8
0
 62
     0
 10
5.549488
 20
6.74273
 30
0.0
 11
5.682118
 21
6.87536
 31
0.0
  0
LINE
  8
0
 62
     0
 10
5.549488
 20
6.676439
 30
0.0
 11
5.682118
 21
6.809069
 31
0.0
  0
LINE
  8
0
 62
     0
 10
5.154558
 20
6.215218
 30
0.0
 11
5.186545
 21
6.247205
 31
0.0
  0
LINE
  8
0
 62
     0
 10
5.549488
 20
6.610148
 30
0.0
 11
5.682118
 21
6.742778
 31
0.0
  0
LINE
  8
0
 62
     0
 10
5.154558
 20
6.148927
 30
0.0
 11
5.252836
 21
6.247205
 31
0.0
  0
LINE
  8
0
 62
     0
 10
5.549488
 20
6.543857
 30
0.0
 11
5.682118
 21
6.676487
 31
0.0
  0
LINE
  8
0
 62
     0
 10
5.215627
 20
6.143705
 30
0.0
 11
5.319127
 21
6.247205
 31
0.0
  0
LINE
  8
0
 62
     0
 10
5.549488
 20
6.477565
 30
0.0
 11
5.682118
 21
6.610195
 31
0.0
  0
LINE
  8
0
 62
     0
 10
5.154558
 20
6.016345
 30
0.0
 11
5.193919
 21
6.055705
 31
0.0
  0
LINE
  8
0
 62
     0
 10
5.549488
 20
6.411274
 30
0.0
 11
5.682118
 21
6.543904
 31
0.0
  0
LINE
  8
0
 62
     0
 10
5.281919
 20
6.143705
 30
0.0
 11
5.385419
 21
6.247205
 31
0.0
  0
LINE
  8
0
 62
     0
 10
5.15671
 20
5.952205
 30
0.0
 11
5.26021
 21
6.055705
 31
0.0
  0
LINE
  8
0
 62
     0
 10
5.549488
 20
6.344983
 30
0.0
 11
5.682118
 21
6.477613
 31
0.0
  0
LINE
  8
0
 62
     0
 10
5.34821
 20
6.143705
 30
0.0
 11
5.45171
 21
6.247205
 31
0.0
  0
LINE
  8
0
 62
     0
 10
5.103377
 20
5.832581
 30
0.0
 11
5.110501
 21
5.839705
 31
0.0
  0
LINE
  8
0
 62
     0
 10
5.549488
 20
6.278692
 30
0.0
 11
5.682118
 21
6.411321
 31
0.0
  0
LINE
  8
0
 62
     0
 10
5.223001
 20
5.952205
 30
0.0
 11
5.326501
 21
6.055705
 31
0.0
  0
LINE
  8
0
 62
     0
 10
5.414501
 20
6.143705
 30
0.0
 11
5.518001
 21
6.247205
 31
0.0
  0
LINE
  8
0
 62
     0
 10
5.143792
 20
5.806705
 30
0.0
 11
5.219903
 21
5.882815
 31
0.0
  0
LINE
  8
0
 62
     0
 10
5.480792
 20
6.143705
 30
0.0
 11
5.682118
 21
6.34503
 31
0.0
  0
LINE
  8
0
 62
     0
 10
5.289292
 20
5.952205
 30
0.0
 11
5.392792
 21
6.055705
 31
0.0
  0
LINE
  8
0
 62
     0
 10
5.168084
 20
5.764705
 30
0.0
 11
5.286194
 21
5.882815
 31
0.0
  0
LINE
  8
0
 62
     0
 10
5.529558
 20
6.12618
 30
0.0
 11
5.682118
 21
6.278739
 31
0.0
  0
LINE
  8
0
 62
     0
 10
5.355584
 20
5.952205
 30
0.0
 11
5.459084
 21
6.055705
 31
0.0
  0
LINE
  8
0
 62
     0
 10
5.234375
 20
5.764705
 30
0.0
 11
5.352485
 21
5.882815
 31
0.0
  0
LINE
  8
0
 62
     0
 10
5.529558
 20
6.059888
 30
0.0
 11
5.682118
 21
6.212448
 31
0.0
  0
LINE
  8
0
 62
     0
 10
5.421875
 20
5.952205
 30
0.0
 11
5.525375
 21
6.055705
 31
0.0
  0
LINE
  8
0
 62
     0
 10
5.300666
 20
5.764705
 30
0.0
 11
5.418777
 21
5.882815
 31
0.0
  0
LINE
  8
0
 62
     0
 10
5.488166
 20
5.952205
 30
0.0
 11
5.682118
 21
6.146156
 31
0.0
  0
LINE
  8
0
 62
     0
 10
5.366958
 20
5.764705
 30
0.0
 11
5.485068
 21
5.882815
 31
0.0
  0
LINE
  8
0
 62
     0
 10
5.549488
 20
5.947235
 30
0.0
 11
5.682118
 21
6.079865
 31
0.0
  0
LINE
  8
0
 62
     0
 10
5.433249
 20
5.764705
 30
0.0
 11
5.708839
 21
6.040296
 31
0.0
  0
LINE
  8
0
 62
     0
 10
5.49954
 20
5.764705
 30
0.0
 11
5.721488
 21
5.986653
 31
0.0
  0
LINE
  8
0
 62
     0
 10
5.565831
 20
5.764705
 30
0.0
 11
5.721488
 21
5.920361
 31
0.0
  0
LINE
  8
0
 62
     0
 10
5.632123
 20
5.764705
 30
0.0
 11
5.721488
 21
5.85407
 31
0.0
  0
ENDBLK
  8
0
  0
BLOCK
  8
0
  2
*D48
 70
    65
 10
0.0
 20
0.0
 30
0.0
  3
*D
  0
LINE
  8
0
  6
BYBLOCK
 62
     0
 10
12.584994
 20
11.153685
 30
0.0
 11
12.584994
 21
12.57622
 31
0.0
  0
LINE
  8
0
  6
BYBLOCK
 62
     0
 10
14.864994
 20
11.153685
 30
0.0
 11
14.864994
 21
12.57622
 31
0.0
  0
LINE
  8
0
  6
BYBLOCK
 62
     0
 10
12.944994
 20
12.39022
 30
0.0
 11
13.185619
 21
12.39022
 31
0.0
  0
LINE
  8
0
  6
BYBLOCK
 62
     0
 10
14.504994
 20
12.39022
 30
0.0
 11
14.264369
 21
12.39022
 31
0.0
  0
SOLID
  8
0
  6
BYBLOCK
 62
     0
 10
12.944994
 20
12.45022
 30
0.0
 11
12.944994
 21
12.33022
 31
0.0
 12
12.584994
 22
12.39022
 32
0.0
 13
12.584994
 23
12.39022
 33
0.0
  0
SOLID
  8
0
  6
BYBLOCK
 62
     0
 10
14.504994
 20
12.45022
 30
0.0
 11
14.504994
 21
12.33022
 31
0.0
 12
14.864994
 22
12.39022
 32
0.0
 13
14.864994
 23
12.39022
 33
0.0
  0
TEXT
  8
0
  6
BYBLOCK
 62
     0
 10
13.365619
 20
12.26522
 30
0.0
 40
0.25
  1
2.280
 41
0.75
  7
TXT
 72
     1
 11
13.724994
 21
12.39022
 31
0.0
 73
     2
  0
POINT
  8
DEFPOINTS
  6
BYBLOCK
 62
     0
 10
12.584994
 20
11.027685
 30
0.0
  0
POINT
  8
DEFPOINTS
  6
BYBLOCK
 62
     0
 10
14.864994
 20
11.027685
 30
0.0
  0
POINT
  8
DEFPOINTS
  6
BYBLOCK
 62
     0
 10
14.864994
 20
12.39022
 30
0.0
  0
ENDBLK
  8
0
  0
BLOCK
  8
0
  2
*D49
 70
    65
 10
0.0
 20
0.0
 30
0.0
  3
*D
  0
LINE
  8
0
  6
BYBLOCK
 62
     0
 10
12.584994
 20
11.153685
 30
0.0
 11
12.584994
 21
12.57622
 31
0.0
  0
LINE
  8
0
  6
BYBLOCK
 62
     0
 10
11.854914
 20
11.56
 30
0.0
 11
11.854914
 21
12.57622
 31
0.0
  0
LINE
  8
0
  6
BYBLOCK
 62
     0
 10
12.944994
 20
12.39022
 30
0.0
 11
13.304994
 21
12.39022
 31
0.0
  0
LINE
  8
0
  6
BYBLOCK
 62
     0
 10
11.494914
 20
12.39022
 30
0.0
 11
11.134914
 21
12.39022
 31
0.0
  0
SOLID
  8
0
  6
BYBLOCK
 62
     0
 10
12.944994
 20
12.45022
 30
0.0
 11
12.944994
 21
12.33022
 31
0.0
 12
12.584994
 22
12.39022
 32
0.0
 13
12.584994
 23
12.39022
 33
0.0
  0
SOLID
  8
0
  6
BYBLOCK
 62
     0
 10
11.494914
 20
12.45022
 30
0.0
 11
11.494914
 21
12.33022
 31
0.0
 12
11.854914
 22
12.39022
 32
0.0
 13
11.854914
 23
12.39022
 33
0.0
  0
TEXT
  8
0
  6
BYBLOCK
 62
     0
 10
10.267414
 20
12.26522
 30
0.0
 40
0.25
  1
0.730
 41
0.75
  7
TXT
 72
     1
 11
10.611164
 21
12.39022
 31
0.0
 73
     2
  0
POINT
  8
DEFPOINTS
  6
BYBLOCK
 62
     0
 10
12.584994
 20
11.027685
 30
0.0
  0
POINT
  8
DEFPOINTS
  6
BYBLOCK
 62
     0
 10
11.854914
 20
11.434
 30
0.0
  0
POINT
  8
DEFPOINTS
  6
BYBLOCK
 62
     0
 10
11.854914
 20
12.39022
 30
0.0
  0
ENDBLK
  8
0
  0
BLOCK
  8
0
  2
*D50
 70
    65
 10
0.0
 20
0.0
 30
0.0
  3
*D
  0
LINE
  8
0
  6
BYBLOCK
 62
     0
 10
21.693221
 20
5.638705
 30
0.0
 11
21.693221
 21
4.858705
 31
0.0
  0
LINE
  8
0
  6
BYBLOCK
 62
     0
 10
22.26015
 20
5.717445
 30
0.0
 11
22.26015
 21
4.858705
 31
0.0
  0
LINE
  8
0
  6
BYBLOCK
 62
     0
 10
21.333221
 20
5.044705
 30
0.0
 11
20.973221
 21
5.044705
 31
0.0
  0
LINE
  8
0
  6
BYBLOCK
 62
     0
 10
22.62015
 20
5.044705
 30
0.0
 11
22.98015
 21
5.044705
 31
0.0
  0
SOLID
  8
0
  6
BYBLOCK
 62
     0
 10
21.333221
 20
5.104705
 30
0.0
 11
21.333221
 21
4.984705
 31
0.0
 12
21.693221
 22
5.044705
 32
0.0
 13
21.693221
 23
5.044705
 33
0.0
  0
SOLID
  8
0
  6
BYBLOCK
 62
     0
 10
22.62015
 20
5.104705
 30
0.0
 11
22.62015
 21
4.984705
 31
0.0
 12
22.26015
 22
5.044705
 32
0.0
 13
22.26015
 23
5.044705
 33
0.0
  0
TEXT
  8
0
  6
BYBLOCK
 62
     0
 10
23.16015
 20
4.919705
 30
0.0
 40
0.25
  1
0.567
 41
0.75
  7
TXT
 72
     1
 11
23.519525
 21
5.044705
 31
0.0
 73
     2
  0
POINT
  8
DEFPOINTS
  6
BYBLOCK
 62
     0
 10
21.693221
 20
5.764705
 30
0.0
  0
POINT
  8
DEFPOINTS
  6
BYBLOCK
 62
     0
 10
22.26015
 20
5.843445
 30
0.0
  0
POINT
  8
DEFPOINTS
  6
BYBLOCK
 62
     0
 10
22.26015
 20
5.044705
 30
0.0
  0
ENDBLK
  8
0
  0
BLOCK
  8
0
  2
*D51
 70
    65
 10
0.0
 20
0.0
 30
0.0
  3
*D
  0
LINE
  8
0
  6
BYBLOCK
 62
     0
 10
21.13515
 20
5.874926
 30
0.0
 11
21.13515
 21
4.296705
 31
0.0
  0
LINE
  8
0
  6
BYBLOCK
 62
     0
 10
21.686332
 20
5.638705
 30
0.0
 11
21.686332
 21
4.296705
 31
0.0
  0
LINE
  8
0
  6
BYBLOCK
 62
     0
 10
20.77515
 20
4.482705
 30
0.0
 11
20.41515
 21
4.482705
 31
0.0
  0
LINE
  8
0
  6
BYBLOCK
 62
     0
 10
22.046332
 20
4.482705
 30
0.0
 11
22.406332
 21
4.482705
 31
0.0
  0
SOLID
  8
0
  6
BYBLOCK
 62
     0
 10
20.77515
 20
4.542705
 30
0.0
 11
20.77515
 21
4.422705
 31
0.0
 12
21.13515
 22
4.482705
 32
0.0
 13
21.13515
 23
4.482705
 33
0.0
  0
SOLID
  8
0
  6
BYBLOCK
 62
     0
 10
22.046332
 20
4.542705
 30
0.0
 11
22.046332
 21
4.422705
 31
0.0
 12
21.686332
 22
4.482705
 32
0.0
 13
21.686332
 23
4.482705
 33
0.0
  0
TEXT
  8
0
  6
BYBLOCK
 62
     0
 10
22.586332
 20
4.357705
 30
0.0
 40
0.25
  1
0.551
 41
0.75
  7
TXT
 72
     1
 11
22.914457
 21
4.482705
 31
0.0
 73
     2
  0
POINT
  8
DEFPOINTS
  6
BYBLOCK
 62
     0
 10
21.13515
 20
6.000926
 30
0.0
  0
POINT
  8
DEFPOINTS
  6
BYBLOCK
 62
     0
 10
21.686332
 20
5.764705
 30
0.0
  0
POINT
  8
DEFPOINTS
  6
BYBLOCK
 62
     0
 10
21.686332
 20
4.482705
 30
0.0
  0
ENDBLK
  8
0
  0
BLOCK
  8
0
  2
*D55
 70
    65
 10
0.0
 20
0.0
 30
0.0
  3
*D
  0
LINE
  8
0
  6
BYBLOCK
 62
     0
 10
20.539679
 20
5.473942
 30
0.0
 11
20.155069
 21
4.847036
 31
0.0
  0
LINE
  8
0
  6
BYBLOCK
 62
     0
 10
20.155069
 20
4.847036
 30
0.0
 11
19.795069
 21
4.847036
 31
0.0
  0
SOLID
  8
0
  6
BYBLOCK
 62
     0
 10
20.590821
 20
5.442566
 30
0.0
 11
20.488536
 21
5.505318
 31
0.0
 12
20.727935
 22
5.780796
 32
0.0
 13
20.727935
 23
5.780796
 33
0.0
  0
LINE
  8
0
  6
BYBLOCK
 62
     0
 10
20.604935
 20
5.873705
 30
0.0
 11
20.964935
 21
5.873705
 31
0.0
  0
LINE
  8
0
  6
BYBLOCK
 62
     0
 10
20.784935
 20
5.693705
 30
0.0
 11
20.784935
 21
6.053705
 31
0.0
  0
TEXT
  8
0
  6
BYBLOCK
 62
     0
 10
18.802569
 20
4.722036
 30
0.0
 40
0.25
  1
R0.109
 41
0.75
  7
TXT
 72
     1
 11
19.208819
 21
4.847036
 31
0.0
 73
     2
  0
POINT
  8
DEFPOINTS
  6
BYBLOCK
 62
     0
 10
20.727935
 20
5.780796
 30
0.0
  0
POINT
  8
DEFPOINTS
  6
BYBLOCK
 62
     0
 10
20.784935
 20
5.873705
 30
0.0
  0
ENDBLK
  8
0
  0
BLOCK
  8
0
  2
*D56
 70
    65
 10
0.0
 20
0.0
 30
0.0
  3
*D
  0
LINE
  8
0
  6
BYBLOCK
 62
     0
 10
22.026863
 20
11.810693
 30
0.0
 11
22.470077
 21
12.171952
 31
0.0
  0
LINE
  8
0
  6
BYBLOCK
 62
     0
 10
22.470077
 20
12.171952
 30
0.0
 11
22.830077
 21
12.171952
 31
0.0
  0
SOLID
  8
0
  6
BYBLOCK
 62
     0
 10
22.064771
 20
11.764185
 30
0.0
 11
21.988955
 21
11.8572
 31
0.0
 12
21.747816
 22
11.583244
 32
0.0
 13
21.747816
 23
11.583244
 33
0.0
  0
LINE
  8
0
  6
BYBLOCK
 62
     0
 10
21.384714
 20
11.434
 30
0.0
 11
21.744714
 21
11.434
 31
0.0
  0
LINE
  8
0
  6
BYBLOCK
 62
     0
 10
21.564714
 20
11.254
 30
0.0
 11
21.564714
 21
11.614
 31
0.0
  0
TEXT
  8
0
  6
BYBLOCK
 62
     0
 10
23.978827
 20
12.046952
 30
0.0
 40
0.25
  1
 TYP.
 41
0.75
  7
TXT
 72
     1
 11
24.353827
 21
12.171952
 31
0.0
 73
     2
  0
TEXT
  8
0
  6
BYBLOCK
 62
     0
 10
23.010077
 20
12.046952
 30
0.0
 40
0.25
  1
R0.236
 41
0.75
  7
TXT
 72
     1
 11
23.463202
 21
12.171952
 31
0.0
 73
     2
  0
POINT
  8
DEFPOINTS
  6
BYBLOCK
 62
     0
 10
21.747816
 20
11.583244
 30
0.0
  0
POINT
  8
DEFPOINTS
  6
BYBLOCK
 62
     0
 10
21.564714
 20
11.434
 30
0.0
  0
ENDBLK
  8
0
  0
ENDSEC
  0
SECTION
  2
ENTITIES
  0
LINE
  8
BASE
 62
     7
 10
21.249754
 20
5.764705
 30
0.0
 11
21.249754
 21
11.67022
 31
0.0
  0
POLYLINE
  8
BASE
 62
     7
 66
     1
 10
0.0
 20
0.0
 30
0.0
  0
VERTEX
  8
BASE
 62
     7
 10
21.564714
 20
5.764705
 30
0.0
  0
VERTEX
  8
BASE
 62
     7
 10
21.249754
 20
5.764705
 30
0.0
 42
-0.414214
  0
SEQEND
  8
BASE
 62
     7
  0
POLYLINE
  8
BASE
 62
     7
 66
     1
 10
0.0
 20
0.0
 30
0.0
  0
VERTEX
  8
BASE
 62
     7
 10
21.249754
 20
11.67022
 30
0.0
  0
VERTEX
  8
BASE
 62
     7
 10
21.564714
 20
11.67022
 30
0.0
 42
-0.414214
  0
VERTEX
  8
BASE
 62
     7
 10
21.800935
 20
11.434
 30
0.0
  0
VERTEX
  8
BASE
 62
     7
 10
21.800935
 20
6.000926
 30
0.0
 42
-0.414214
  0
VERTEX
  8
BASE
 62
     7
 10
21.564714
 20
5.764705
 30
0.0
  0
SEQEND
  8
BASE
 62
     7
  0
LINE
  8
BASE-HID
 62
     7
 10
21.249754
 20
5.951713
 30
0.0
 11
21.691769
 21
5.951713
 31
0.0
  0
LINE
  8
BASE-HID
 62
     7
 10
21.249754
 20
6.246989
 30
0.0
 11
21.70251
 21
6.246989
 31
0.0
  0
LINE
  8
BASE-HID
 62
     7
 10
21.249754
 20
6.030453
 30
0.0
 11
21.800935
 21
6.030453
 31
0.0
  0
LINE
  8
BASE-HID
 62
     7
 10
21.249754
 20
6.168249
 30
0.0
 11
21.800935
 21
6.168249
 31
0.0
  0
LINE
  8
BASE-HID
 62
     7
 10
21.249754
 20
11.483212
 30
0.0
 11
21.691769
 21
11.483212
 31
0.0
  0
LINE
  8
BASE-HID
 62
     7
 10
21.249754
 20
11.187936
 30
0.0
 11
21.70251
 21
11.187936
 31
0.0
  0
LINE
  8
BASE-HID
 62
     7
 10
21.249754
 20
11.404472
 30
0.0
 11
21.800935
 21
11.404472
 31
0.0
  0
LINE
  8
BASE-HID
 62
     7
 10
21.249754
 20
11.266677
 30
0.0
 11
21.800935
 21
11.266677
 31
0.0
  0
POLYLINE
  8
BASE-HID
 62
     7
 66
     1
 10
0.0
 20
0.0
 30
0.0
 70
     1
  0
VERTEX
  8
BASE-HID
 62
     7
 10
25.612177
 20
5.882815
 30
0.0
  0
VERTEX
  8
BASE-HID
 62
     7
 10
28.879895
 20
5.882815
 30
0.0
 42
0.414214
  0
VERTEX
  8
BASE-HID
 62
     7
 10
28.998006
 20
6.000926
 30
0.0
  0
VERTEX
  8
BASE-HID
 62
     7
 10
28.998006
 20
11.434
 30
0.0
 42
0.414214
  0
VERTEX
  8
BASE-HID
 62
     7
 10
28.879895
 20
11.55211
 30
0.0
  0
VERTEX
  8
BASE-HID
 62
     7
 10
25.612177
 20
11.55211
 30
0.0
 42
0.414214
  0
VERTEX
  8
BASE-HID
 62
     7
 10
25.494067
 20
11.434
 30
0.0
  0
VERTEX
  8
BASE-HID
 62
     7
 10
25.494067
 20
6.000926
 30
0.0
 42
0.414214
  0
SEQEND
  8
BASE-HID
 62
     7
  0
POLYLINE
  8
BASE-HID
 62
     7
 66
     1
 10
0.0
 20
0.0
 30
0.0
  0
VERTEX
  8
BASE-HID
 62
     7
 10
29.035407
 20
6.168249
 30
0.0
  0
VERTEX
  8
BASE-HID
 62
     7
 10
29.035407
 20
11.266677
 30
0.0
 42
0.414214
  0
SEQEND
  8
BASE-HID
 62
     7
  0
POLYLINE
  8
BASE-HID
 62
     7
 66
     1
 10
0.0
 20
0.0
 30
0.0
  0
VERTEX
  8
BASE-HID
 62
     7
 10
29.078714
 20
6.168249
 30
0.0
  0
VERTEX
  8
BASE-HID
 62
     7
 10
29.078714
 20
11.266677
 30
0.0
 42
0.414214
  0
SEQEND
  8
BASE-HID
 62
     7
  0
LINE
  8
CENTER
 62
     7
 10
28.791312
 20
6.290601
 30
0.0
 11
28.791312
 21
11.144324
 31
0.0
  0
LINE
  8
CENTER
 62
     7
 10
25.70076
 20
6.290601
 30
0.0
 11
25.70076
 21
11.144324
 31
0.0
  0
POLYLINE
  8
BASE-HID
 62
     7
 66
     1
 10
0.0
 20
0.0
 30
0.0
  0
VERTEX
  8
BASE-HID
 62
     7
 10
25.456665
 20
11.266677
 30
0.0
  0
VERTEX
  8
BASE-HID
 62
     7
 10
25.456665
 20
6.168249
 30
0.0
 42
0.414214
  0
SEQEND
  8
BASE-HID
 62
     7
  0
POLYLINE
  8
BASE-HID
 62
     7
 66
     1
 10
0.0
 20
0.0
 30
0.0
  0
VERTEX
  8
BASE-HID
 62
     7
 10
25.413358
 20
11.266677
 30
0.0
  0
VERTEX
  8
BASE-HID
 62
     7
 10
25.413358
 20
6.168249
 30
0.0
 42
0.414214
  0
SEQEND
  8
BASE-HID
 62
     7
  0
POLYLINE
  8
BASE-HID
 62
     7
 66
     1
 10
0.0
 20
0.0
 30
0.0
  0
VERTEX
  8
BASE-HID
 62
     7
 10
25.970445
 20
5.802107
 30
0.0
  0
VERTEX
  8
BASE-HID
 62
     7
 10
28.521627
 20
5.802107
 30
0.0
 42
0.414214
  0
SEQEND
  8
BASE-HID
 62
     7
  0
POLYLINE
  8
BASE-HID
 62
     7
 66
     1
 10
0.0
 20
0.0
 30
0.0
  0
VERTEX
  8
BASE-HID
 62
     7
 10
25.970445
 20
5.845414
 30
0.0
  0
VERTEX
  8
BASE-HID
 62
     7
 10
28.521627
 20
5.845414
 30
0.0
 42
0.414214
  0
SEQEND
  8
BASE-HID
 62
     7
  0
LINE
  8
CENTER
 62
     7
 10
25.89201
 20
6.099351
 30
0.0
 11
28.600062
 21
6.099351
 31
0.0
  0
LINE
  8
BASE-HID
 62
     7
 10
28.521627
 20
5.802107
 30
0.0
 11
28.521627
 21
5.845414
 31
0.0
  0
LINE
  8
BASE-HID
 62
     7
 10
29.035407
 20
6.168249
 30
0.0
 11
29.078714
 21
6.168249
 31
0.0
  0
CIRCLE
  8
BASE-HID
 62
     7
 10
28.791312
 20
6.099351
 30
0.0
 40
0.147638
  0
CIRCLE
  8
BASE
 62
     7
 10
28.791312
 20
6.099351
 30
0.0
 40
0.068898
  0
LINE
  8
BASE-HID
 62
     7
 10
25.970445
 20
5.802107
 30
0.0
 11
25.970445
 21
5.845414
 31
0.0
  0
CIRCLE
  8
BASE-HID
 62
     7
 10
25.70076
 20
6.099351
 30
0.0
 40
0.147638
  0
CIRCLE
  8
BASE
 62
     7
 10
25.70076
 20
6.099351
 30
0.0
 40
0.068898
  0
LINE
  8
BASE-HID
 62
     7
 10
25.413358
 20
6.168249
 30
0.0
 11
25.456665
 21
6.168249
 31
0.0
  0
LINE
  8
CENTER
 62
     7
 10
25.89201
 20
11.335574
 30
0.0
 11
28.600062
 21
11.335574
 31
0.0
  0
POLYLINE
  8
BASE-HID
 62
     7
 66
     1
 10
0.0
 20
0.0
 30
0.0
  0
VERTEX
  8
BASE-HID
 62
     7
 10
28.521627
 20
11.589511
 30
0.0
  0
VERTEX
  8
BASE-HID
 62
     7
 10
25.970445
 20
11.589511
 30
0.0
 42
0.414214
  0
SEQEND
  8
BASE-HID
 62
     7
  0
POLYLINE
  8
BASE-HID
 62
     7
 66
     1
 10
0.0
 20
0.0
 30
0.0
  0
VERTEX
  8
BASE-HID
 62
     7
 10
28.521627
 20
11.632819
 30
0.0
  0
VERTEX
  8
BASE-HID
 62
     7
 10
25.970445
 20
11.632819
 30
0.0
 42
0.414214
  0
SEQEND
  8
BASE-HID
 62
     7
  0
CIRCLE
  8
BASE-HID
 62
     7
 10
28.791312
 20
11.335574
 30
0.0
 40
0.147638
  0
CIRCLE
  8
BASE
 62
     7
 10
28.791312
 20
11.335574
 30
0.0
 40
0.068898
  0
LINE
  8
BASE-HID
 62
     7
 10
29.035407
 20
11.266677
 30
0.0
 11
29.078714
 21
11.266677
 31
0.0
  0
LINE
  8
BASE-HID
 62
     7
 10
28.521627
 20
11.589511
 30
0.0
 11
28.521627
 21
11.632819
 31
0.0
  0
LINE
  8
BASE-HID
 62
     7
 10
25.970445
 20
11.589511
 30
0.0
 11
25.970445
 21
11.632819
 31
0.0
  0
CIRCLE
  8
BASE
 62
     7
 10
25.70076
 20
11.335574
 30
0.0
 40
0.068898
  0
CIRCLE
  8
BASE-HID
 62
     7
 10
25.70076
 20
11.335574
 30
0.0
 40
0.147638
  0
LINE
  8
BASE-HID
 62
     7
 10
25.413358
 20
11.266677
 30
0.0
 11
25.456665
 21
11.266677
 31
0.0
  0
POLYLINE
  8
BASE-HID
 62
     7
 66
     1
 10
0.0
 20
0.0
 30
0.0
  0
VERTEX
  8
BASE-HID
 62
     7
 10
21.800935
 20
6.213851
 30
0.0
  0
VERTEX
  8
BASE-HID
 62
     7
 10
21.693935
 20
6.213851
 30
0.0
  0
VERTEX
  8
BASE-HID
 62
     7
 10
21.693935
 20
5.984851
 30
0.0
  0
VERTEX
  8
BASE-HID
 62
     7
 10
21.800387
 20
5.984851
 30
0.0
  0
SEQEND
  8
BASE-HID
 62
     7
  0
POLYLINE
  8
BASE-HID
 62
     7
 66
     1
 10
0.0
 20
0.0
 30
0.0
  0
VERTEX
  8
BASE-HID
 62
     7
 10
21.249754
 20
11.55211
 30
0.0
  0
VERTEX
  8
BASE-HID
 62
     7
 10
21.584399
 20
11.55211
 30
0.0
 42
-0.414214
  0
VERTEX
  8
BASE-HID
 62
     7
 10
21.70251
 20
11.434
 30
0.0
  0
VERTEX
  8
BASE-HID
 62
     7
 10
21.70251
 20
6.000926
 30
0.0
 42
-0.414214
  0
VERTEX
  8
BASE-HID
 62
     7
 10
21.584399
 20
5.882815
 30
0.0
  0
VERTEX
  8
BASE-HID
 62
     7
 10
21.249754
 20
5.882815
 30
0.0
  0
SEQEND
  8
BASE-HID
 62
     7
  0
POLYLINE
  8
BASE-HID
 62
     7
 66
     1
 10
0.0
 20
0.0
 30
0.0
  0
VERTEX
  8
BASE-HID
 62
     7
 10
21.800935
 20
11.221074
 30
0.0
  0
VERTEX
  8
BASE-HID
 62
     7
 10
21.693935
 20
11.221074
 30
0.0
  0
VERTEX
  8
BASE-HID
 62
     7
 10
21.693935
 20
11.450074
 30
0.0
  0
VERTEX
  8
BASE-HID
 62
     7
 10
21.800387
 20
11.450074
 30
0.0
  0
SEQEND
  8
BASE-HID
 62
     7
  0
LINE
  8
BASE-HID
 62
     7
 10
21.308754
 20
5.802107
 30
0.0
 11
21.308754
 21
5.845414
 31
0.0
  0
LINE
  8
BASE-HID
 62
     7
 10
21.308754
 20
6.168249
 30
0.0
 11
21.249754
 21
6.168249
 31
0.0
  0
LINE
  8
BASE-HID
 62
     7
 10
21.308754
 20
5.845414
 30
0.0
 11
21.249754
 21
5.845414
 31
0.0
  0
LINE
  8
BASE-HID
 62
     7
 10
21.308754
 20
5.802107
 30
0.0
 11
21.249754
 21
5.802107
 31
0.0
  0
LINE
  8
BASE-HID
 62
     7
 10
21.308754
 20
6.168249
 30
0.0
 11
21.308754
 21
11.266677
 31
0.0
  0
LINE
  8
BASE-HID
 62
     7
 10
21.308754
 20
11.632819
 30
0.0
 11
21.308754
 21
11.589511
 31
0.0
  0
LINE
  8
BASE-HID
 62
     7
 10
21.308754
 20
11.632819
 30
0.0
 11
21.249754
 21
11.632819
 31
0.0
  0
LINE
  8
BASE-HID
 62
     7
 10
21.308754
 20
11.589511
 30
0.0
 11
21.249754
 21
11.589511
 31
0.0
  0
LINE
  8
BASE-HID
 62
     7
 10
21.308754
 20
11.266677
 30
0.0
 11
21.249754
 21
11.266677
 31
0.0
  0
CIRCLE
  8
BASE
 62
     7
 10
25.70076
 20
6.099351
 30
0.0
 40
0.1145
  0
CIRCLE
  8
BASE
 62
     7
 10
28.791312
 20
6.099351
 30
0.0
 40
0.1145
  0
CIRCLE
  8
BASE
 62
     7
 10
25.70076
 20
11.335574
 30
0.0
 40
0.1145
  0
CIRCLE
  8
BASE
 62
     7
 10
28.791312
 20
11.335574
 30
0.0
 40
0.1145
  0
POLYLINE
  8
BASE
 62
     7
 66
     1
 10
0.0
 20
0.0
 30
0.0
 70
     1
  0
VERTEX
  8
BASE
 62
     7
 10
25.821036
 20
11.106463
 30
0.0
  0
VERTEX
  8
BASE
 62
     7
 10
25.821036
 20
6.328463
 30
0.0
  0
VERTEX
  8
BASE
 62
     7
 10
28.671036
 20
6.328463
 30
0.0
  0
VERTEX
  8
BASE
 62
     7
 10
28.671036
 20
11.106463
 30
0.0
  0
SEQEND
  8
BASE
 62
     7
  0
POLYLINE
  8
BASE
 62
     7
 66
     1
 10
0.0
 20
0.0
 30
0.0
 70
     1
  0
VERTEX
  8
BASE
 62
     7
 10
25.771036
 20
11.156463
 30
0.0
  0
VERTEX
  8
BASE
 62
     7
 10
25.771036
 20
6.278463
 30
0.0
  0
VERTEX
  8
BASE
 62
     7
 10
28.721036
 20
6.278463
 30
0.0
  0
VERTEX
  8
BASE
 62
     7
 10
28.721036
 20
11.156463
 30
0.0
  0
SEQEND
  8
BASE
 62
     7
  0
POLYLINE
  8
BASE
 62
     7
 66
     1
 10
0.0
 20
0.0
 30
0.0
  0
VERTEX
  8
BASE
 62
     7
 10
15.595073
 20
1.852778
 30
0.0
  0
VERTEX
  8
BASE
 62
     7
 10
15.595073
 20
1.537817
 30
0.0
 42
-0.414214
  0
VERTEX
  8
BASE
 62
     7
 10
15.358853
 20
1.301597
 30
0.0
  0
VERTEX
  8
BASE
 62
     7
 10
12.091134
 20
1.301597
 30
0.0
 42
-0.414214
  0
VERTEX
  8
BASE
 62
     7
 10
11.854914
 20
1.537817
 30
0.0
  0
SEQEND
  8
BASE
 62
     7
  0
POLYLINE
  8
BASE-HID
 62
     7
 66
     1
 10
0.0
 20
0.0
 30
0.0
  0
VERTEX
  8
BASE-HID
 62
     7
 10
15.476963
 20
1.852778
 30
0.0
  0
VERTEX
  8
BASE-HID
 62
     7
 10
15.476963
 20
1.518132
 30
0.0
 42
-0.414214
  0
VERTEX
  8
BASE-HID
 62
     7
 10
15.358853
 20
1.400022
 30
0.0
  0
VERTEX
  8
BASE-HID
 62
     7
 10
12.091134
 20
1.400022
 30
0.0
 42
-0.414214
  0
VERTEX
  8
BASE-HID
 62
     7
 10
11.973024
 20
1.518132
 30
0.0
  0
VERTEX
  8
BASE-HID
 62
     7
 10
11.973024
 20
1.852778
 30
0.0
  0
SEQEND
  8
BASE-HID
 62
     7
  0
LINE
  8
BASE
 62
     7
 10
11.854914
 20
1.852778
 30
0.0
 11
15.595073
 21
1.852778
 31
0.0
  0
LINE
  8
BASE-HID
 62
     7
 10
12.449402
 20
1.793778
 30
0.0
 11
15.000585
 21
1.793778
 31
0.0
  0
LINE
  8
BASE-HID
 62
     7
 10
11.892315
 20
1.793778
 30
0.0
 11
11.935623
 21
1.793778
 31
0.0
  0
POLYLINE
  8
BASE
 62
     7
 66
     1
 10
0.0
 20
0.0
 30
0.0
  0
VERTEX
  8
BASE
 62
     7
 10
11.854914
 20
1.537817
 30
0.0
  0
VERTEX
  8
BASE
 62
     7
 10
11.854914
 20
1.852778
 30
0.0
 42
-0.414214
  0
SEQEND
  8
BASE
 62
     7
  0
LINE
  8
BASE-HID
 62
     7
 10
11.892315
 20
1.793778
 30
0.0
 11
11.892315
 21
1.852778
 31
0.0
  0
LINE
  8
BASE-HID
 62
     7
 10
12.327355
 20
1.852778
 30
0.0
 11
12.327355
 21
1.400022
 31
0.0
  0
LINE
  8
BASE-HID
 62
     7
 10
12.032079
 20
1.852778
 30
0.0
 11
12.032079
 21
1.415846
 31
0.0
  0
LINE
  8
BASE-HID
 62
     7
 10
12.248615
 20
1.852778
 30
0.0
 11
12.248615
 21
1.301597
 31
0.0
  0
LINE
  8
BASE-HID
 62
     7
 10
12.110819
 20
1.852778
 30
0.0
 11
12.110819
 21
1.301597
 31
0.0
  0
LINE
  8
BASE-HID
 62
     7
 10
11.935623
 20
1.793778
 30
0.0
 11
11.935623
 21
1.852778
 31
0.0
  0
LINE
  8
BASE-HID
 62
     7
 10
12.449402
 20
1.793778
 30
0.0
 11
12.449402
 21
1.852778
 31
0.0
  0
POLYLINE
  8
BASE-HID
 62
     7
 66
     1
 10
0.0
 20
0.0
 30
0.0
  0
VERTEX
  8
BASE-HID
 62
     7
 10
12.294217
 20
1.301597
 30
0.0
  0
VERTEX
  8
BASE-HID
 62
     7
 10
12.294217
 20
1.408597
 30
0.0
  0
VERTEX
  8
BASE-HID
 62
     7
 10
12.065217
 20
1.408597
 30
0.0
  0
VERTEX
  8
BASE-HID
 62
     7
 10
12.065217
 20
1.302144
 30
0.0
  0
SEQEND
  8
BASE-HID
 62
     7
  0
POLYLINE
  8
BASE-HID
 62
     7
 66
     1
 10
0.0
 20
0.0
 30
0.0
  0
VERTEX
  8
BASE-HID
 62
     7
 10
15.15577
 20
1.301597
 30
0.0
  0
VERTEX
  8
BASE-HID
 62
     7
 10
15.15577
 20
1.408597
 30
0.0
  0
VERTEX
  8
BASE-HID
 62
     7
 10
15.38477
 20
1.408597
 30
0.0
  0
VERTEX
  8
BASE-HID
 62
     7
 10
15.38477
 20
1.302144
 30
0.0
  0
SEQEND
  8
BASE-HID
 62
     7
  0
LINE
  8
BASE-HID
 62
     7
 10
15.122632
 20
1.852778
 30
0.0
 11
15.122632
 21
1.400022
 31
0.0
  0
LINE
  8
BASE-HID
 62
     7
 10
15.201372
 20
1.852778
 30
0.0
 11
15.201372
 21
1.301597
 31
0.0
  0
LINE
  8
BASE-HID
 62
     7
 10
15.000585
 20
1.793778
 30
0.0
 11
15.000585
 21
1.852778
 31
0.0
  0
LINE
  8
BASE-HID
 62
     7
 10
15.417908
 20
1.852778
 30
0.0
 11
15.417908
 21
1.415846
 31
0.0
  0
LINE
  8
BASE-HID
 62
     7
 10
15.339168
 20
1.852778
 30
0.0
 11
15.339168
 21
1.301597
 31
0.0
  0
LINE
  8
BASE-HID
 62
     7
 10
15.514365
 20
1.793778
 30
0.0
 11
15.514365
 21
1.852778
 31
0.0
  0
LINE
  8
BASE-HID
 62
     7
 10
15.557672
 20
1.793778
 30
0.0
 11
15.557672
 21
1.852778
 31
0.0
  0
LINE
  8
BASE-HID
 62
     7
 10
15.557672
 20
1.793778
 30
0.0
 11
15.514365
 21
1.793778
 31
0.0
  0
LINE
  8
COVER
 62
     7
 10
21.242864
 20
5.764705
 30
0.0
 11
21.242864
 21
11.67022
 31
0.0
  0
LINE
  8
COVER
 62
     7
 10
20.675935
 20
5.873705
 30
0.0
 11
20.675935
 21
9.327699
 31
0.0
  0
LINE
  8
COVER
 62
     7
 10
21.242864
 20
5.764705
 30
0.0
 11
20.784935
 21
5.764705
 31
0.0
  0
LINE
  8
COVER-HID
 62
     7
 10
20.715305
 20
6.040296
 30
0.0
 11
20.675935
 21
6.040296
 31
0.0
  0
LINE
  8
COVER-HID
 62
     7
 10
20.715305
 20
9.229274
 30
0.0
 11
20.675935
 21
9.229274
 31
0.0
  0
LINE
  8
COVER-HID
 62
     7
 10
20.715305
 20
6.040296
 30
0.0
 11
20.715305
 21
9.229274
 31
0.0
  0
LINE
  8
COVER
 62
     7
 10
21.242864
 20
11.67022
 30
0.0
 11
20.675935
 21
11.67022
 31
0.0
  0
LINE
  8
COVER
 62
     7
 10
21.294046
 20
6.217461
 30
0.0
 11
21.242864
 21
6.217461
 31
0.0
  0
LINE
  8
COVER
 62
     7
 10
21.294046
 20
11.217464
 30
0.0
 11
21.242864
 21
11.217464
 31
0.0
  0
LINE
  8
COVER
 62
     7
 10
21.294046
 20
6.217461
 30
0.0
 11
21.294046
 21
11.217464
 31
0.0
  0
LINE
  8
COVER-HID
 62
     7
 10
21.242864
 20
5.882815
 30
0.0
 11
20.847935
 21
5.882815
 31
0.0
  0
LINE
  8
COVER-HID
 62
     7
 10
21.242864
 20
11.55211
 30
0.0
 11
20.675965
 21
11.55211
 31
0.0
  0
LINE
  8
COVER
 62
     7
 10
21.294046
 20
11.62822
 30
0.0
 11
21.242864
 21
11.62822
 31
0.0
  0
LINE
  8
COVER
 62
     7
 10
21.294046
 20
11.59522
 30
0.0
 11
21.242864
 21
11.59522
 31
0.0
  0
LINE
  8
COVER
 62
     7
 10
21.294046
 20
5.839705
 30
0.0
 11
21.242864
 21
5.839705
 31
0.0
  0
LINE
  8
COVER
 62
     7
 10
21.294046
 20
5.806705
 30
0.0
 11
21.242864
 21
5.806705
 31
0.0
  0
LINE
  8
COVER
 62
     7
 10
21.294046
 20
5.806705
 30
0.0
 11
21.294046
 21
5.839705
 31
0.0
  0
LINE
  8
COVER
 62
     7
 10
21.294046
 20
11.59522
 30
0.0
 11
21.294046
 21
11.62822
 31
0.0
  0
LINE
  8
COVER
 62
     7
 10
15.329325
 20
6.040296
 30
0.0
 11
12.120662
 21
6.040296
 31
0.0
  0
LINE
  8
COVER
 62
     7
 10
15.329325
 20
9.229274
 30
0.0
 11
12.120662
 21
9.229274
 31
0.0
  0
LINE
  8
COVER
 62
     7
 10
15.329325
 20
9.229274
 30
0.0
 11
15.329325
 21
6.040296
 31
0.0
  0
LINE
  8
COVER
 62
     7
 10
12.120662
 20
9.229274
 30
0.0
 11
12.120662
 21
6.040296
 31
0.0
  0
LINE
  8
CENTER
  6
CENTER2
 62
     7
 10
12.584994
 20
10.663185
 30
0.0
 11
12.584994
 21
9.728057
 31
0.0
  0
LINE
  8
CENTER
  6
CENTER2
 62
     7
 10
14.864994
 20
10.663185
 30
0.0
 11
14.864994
 21
9.728057
 31
0.0
  0
LINE
  8
CENTER
  6
CENTER2
 62
     7
 10
14.635494
 20
9.469414
 30
0.0
 11
12.814494
 21
9.469414
 31
0.0
  0
LINE
  8
CENTER
  6
CENTER2
 62
     7
 10
14.635494
 20
10.892685
 30
0.0
 11
12.814494
 21
10.892685
 31
0.0
  0
CIRCLE
  8
COVER
 62
     7
 10
14.864994
 20
10.892685
 30
0.0
 40
0.04376
  0
CIRCLE
  8
COVER
 62
     7
 10
14.864994
 20
9.469414
 30
0.0
 40
0.04376
  0
CIRCLE
  8
COVER
 62
     7
 10
12.584994
 20
9.469414
 30
0.0
 40
0.04376
  0
CIRCLE
  8
COVER
 62
     7
 10
12.584994
 20
10.892685
 30
0.0
 40
0.04376
  0
POLYLINE
  8
COVER-HID
 62
     7
 66
     1
 10
0.0
 20
0.0
 30
0.0
 70
     1
  0
VERTEX
  8
COVER-HID
 62
     7
 10
12.091134
 20
11.55211
 30
0.0
  0
VERTEX
  8
COVER-HID
 62
     7
 10
15.358853
 20
11.55211
 30
0.0
 42
-0.414214
  0
VERTEX
  8
COVER-HID
 62
     7
 10
15.476963
 20
11.434
 30
0.0
  0
VERTEX
  8
COVER-HID
 62
     7
 10
15.476963
 20
6.000926
 30
0.0
 42
-0.414214
  0
VERTEX
  8
COVER-HID
 62
     7
 10
15.358853
 20
5.882815
 30
0.0
  0
VERTEX
  8
COVER-HID
 62
     7
 10
12.091134
 20
5.882815
 30
0.0
 42
-0.414214
  0
VERTEX
  8
COVER-HID
 62
     7
 10
11.973024
 20
6.000926
 30
0.0
  0
VERTEX
  8
COVER-HID
 62
     7
 10
11.973024
 20
11.434
 30
0.0
 42
-0.414214
  0
SEQEND
  8
COVER-HID
 62
     7
  0
LINE
  8
COVER
 62
     7
 10
20.675935
 20
9.327699
 30
0.0
 11
19.883292
 21
11.027529
 31
0.0
  0
LINE
  8
COVER-HID
 62
     7
 10
20.847935
 20
9.311408
 30
0.0
 11
20.012196
 21
11.103656
 31
0.0
  0
LINE
  8
COVER-HID
 62
     7
 10
20.723672
 20
9.416989
 30
0.0
 11
20.006277
 21
10.955447
 31
0.0
  0
LINE
  8
COVER-HID
 62
     7
 10
20.089639
 20
10.776678
 30
0.0
 11
20.172821
 21
10.759194
 31
0.0
  0
LINE
  8
COVER-HID
 62
     7
 10
20.696868
 20
9.635372
 30
0.0
 11
20.656793
 21
9.560413
 31
0.0
  0
LINE
  8
COVER-HID
 62
     7
 10
19.907192
 20
10.976273
 30
0.0
 11
20.006277
 21
10.955447
 31
0.0
  0
LINE
  8
COVER-HID
 62
     7
 10
20.723672
 20
9.416989
 30
0.0
 11
20.675935
 21
9.327699
 31
0.0
  0
LINE
  8
COVER
 62
     7
 10
15.595073
 20
9.327699
 30
0.0
 11
11.854914
 21
9.327699
 31
0.0
  0
LINE
  8
COVER
 62
     7
 10
15.250494
 20
9.402659
 30
0.0
 11
12.199494
 21
9.402659
 31
0.0
  0
LINE
  8
COVER
 62
     7
 10
15.208994
 20
9.560413
 30
0.0
 11
12.240994
 21
9.560413
 31
0.0
  0
LINE
  8
COVER
 62
     7
 10
15.208994
 20
9.635372
 30
0.0
 11
12.240994
 21
9.635372
 31
0.0
  0
LINE
  8
COVER
 62
     7
 10
15.208994
 20
10.759194
 30
0.0
 11
12.240994
 21
10.759194
 31
0.0
  0
LINE
  8
COVER
 62
     7
 10
15.208994
 20
10.776678
 30
0.0
 11
12.240994
 21
10.776678
 31
0.0
  0
LINE
  8
COVER
 62
     7
 10
15.250494
 20
10.958789
 30
0.0
 11
12.199494
 21
10.958789
 31
0.0
  0
LINE
  8
COVER
 62
     7
 10
15.250494
 20
10.976273
 30
0.0
 11
12.199494
 21
10.976273
 31
0.0
  0
LINE
  8
COVER
 62
     7
 10
12.199494
 20
10.976273
 30
0.0
 11
12.199494
 21
9.327699
 31
0.0
  0
LINE
  8
COVER
 62
     7
 10
15.250494
 20
10.976273
 30
0.0
 11
15.250494
 21
9.327699
 31
0.0
  0
LINE
  8
COVER
 62
     7
 10
12.240994
 20
10.776678
 30
0.0
 11
12.240994
 21
9.560413
 31
0.0
  0
LINE
  8
COVER
 62
     7
 10
15.208994
 20
10.776678
 30
0.0
 11
15.208994
 21
9.560413
 31
0.0
  0
CIRCLE
  8
COVER-HID
  6
HIDDEN2
 62
     7
 10
12.179914
 20
11.335705
 30
0.0
 40
0.044
  0
CIRCLE
  8
COVER-HID
 62
     7
 10
12.179914
 20
11.335705
 30
0.0
 40
0.1475
  0
CIRCLE
  8
COVER-HID
 62
     7
 10
15.270914
 20
11.335705
 30
0.0
 40
0.1475
  0
CIRCLE
  8
COVER-HID
  6
HIDDEN2
 62
     7
 10
15.270914
 20
11.335705
 30
0.0
 40
0.044
  0
CIRCLE
  8
COVER-HID
 62
     7
 10
15.270914
 20
6.099705
 30
0.0
 40
0.1475
  0
CIRCLE
  8
COVER-HID
  6
HIDDEN2
 62
     7
 10
15.270914
 20
6.099705
 30
0.0
 40
0.044
  0
CIRCLE
  8
COVER-HID
 62
     7
 10
12.179914
 20
6.099705
 30
0.0
 40
0.1475
  0
CIRCLE
  8
COVER-HID
  6
HIDDEN2
 62
     7
 10
12.179914
 20
6.099705
 30
0.0
 40
0.044
  0
LINE
  8
COVER-HID
 62
     7
 10
21.242864
 20
11.483205
 30
0.0
 11
20.35788
 21
11.483205
 31
0.0
  0
LINE
  8
COVER-HID
 62
     7
 10
21.242864
 20
11.379705
 30
0.0
 11
20.242864
 21
11.379705
 31
0.0
  0
LINE
  8
COVER-HID
 62
     7
 10
21.242864
 20
11.291705
 30
0.0
 11
20.242864
 21
11.291705
 31
0.0
  0
LINE
  8
COVER-HID
 62
     7
 10
21.242864
 20
11.188205
 30
0.0
 11
20.036496
 21
11.188205
 31
0.0
  0
LINE
  8
COVER-HID
 62
     7
 10
21.242864
 20
5.952205
 30
0.0
 11
20.847935
 21
5.952205
 31
0.0
  0
LINE
  8
COVER-HID
 62
     7
 10
21.242864
 20
6.055705
 30
0.0
 11
20.867864
 21
6.055705
 31
0.0
  0
LINE
  8
COVER-HID
 62
     7
 10
21.242864
 20
6.143705
 30
0.0
 11
20.867864
 21
6.143705
 31
0.0
  0
LINE
  8
COVER-HID
 62
     7
 10
21.242864
 20
6.247205
 30
0.0
 11
20.847935
 21
6.247205
 31
0.0
  0
ARC
  8
COVER
 62
     7
 10
20.689795
 20
10.719457
 30
0.0
 40
0.950864
 50
90.835171
 51
146.534315
  0
ARC
  8
COVER
 62
     7
 10
20.099199
 20
11.122817
 30
0.0
 40
0.236
 50
149.160255
 51
203.813606
  0
ARC
  8
COVER-HID
 62
     7
 10
20.658074
 20
10.839857
 30
0.0
 40
0.712535
 50
88.425135
 51
152.664344
  0
ARC
  8
COVER-HID
 62
     7
 10
20.099199
 20
11.122817
 30
0.0
 40
0.086294
 50
149.160255
 51
203.813606
  0
LINE
  8
COVER-HID
 62
     7
 10
20.242864
 20
11.291705
 30
0.0
 11
20.242864
 21
11.379705
 31
0.0
  0
LINE
  8
COVER-HID
 62
     7
 10
20.867864
 20
6.055705
 30
0.0
 11
20.867864
 21
6.143705
 31
0.0
  0
POLYLINE
  8
COVER-HID
 62
     7
 66
     1
 10
0.0
 20
0.0
 30
0.0
 70
     1
  0
VERTEX
  8
COVER-HID
 62
     7
 10
12.495994
 20
5.806705
 30
0.0
  0
VERTEX
  8
COVER-HID
 62
     7
 10
12.495994
 20
5.839705
 30
0.0
  0
VERTEX
  8
COVER-HID
 62
     7
 10
14.953994
 20
5.839705
 30
0.0
  0
VERTEX
  8
COVER-HID
 62
     7
 10
14.953994
 20
5.806705
 30
0.0
  0
SEQEND
  8
COVER-HID
 62
     7
  0
POLYLINE
  8
COVER-HID
 62
     7
 66
     1
 10
0.0
 20
0.0
 30
0.0
 70
     1
  0
VERTEX
  8
COVER-HID
 62
     7
 10
11.896914
 20
11.217464
 30
0.0
  0
VERTEX
  8
COVER-HID
 62
     7
 10
11.929914
 20
11.217464
 30
0.0
  0
VERTEX
  8
COVER-HID
 62
     7
 10
11.929914
 20
6.217461
 30
0.0
  0
VERTEX
  8
COVER-HID
 62
     7
 10
11.896914
 20
6.217461
 30
0.0
  0
SEQEND
  8
COVER-HID
 62
     7
  0
POLYLINE
  8
COVER-HID
 62
     7
 66
     1
 10
0.0
 20
0.0
 30
0.0
 70
     1
  0
VERTEX
  8
COVER-HID
 62
     7
 10
15.520073
 20
6.217461
 30
0.0
  0
VERTEX
  8
COVER-HID
 62
     7
 10
15.553073
 20
6.217461
 30
0.0
  0
VERTEX
  8
COVER-HID
 62
     7
 10
15.553073
 20
11.217464
 30
0.0
  0
VERTEX
  8
COVER-HID
 62
     7
 10
15.520073
 20
11.217464
 30
0.0
  0
SEQEND
  8
COVER-HID
 62
     7
  0
POLYLINE
  8
COVER-HID
 62
     7
 66
     1
 10
0.0
 20
0.0
 30
0.0
 70
     1
  0
VERTEX
  8
COVER-HID
 62
     7
 10
14.953994
 20
11.62822
 30
0.0
  0
VERTEX
  8
COVER-HID
 62
     7
 10
14.953994
 20
11.59522
 30
0.0
  0
VERTEX
  8
COVER-HID
 62
     7
 10
12.495994
 20
11.59522
 30
0.0
  0
VERTEX
  8
COVER-HID
 62
     7
 10
12.495994
 20
11.62822
 30
0.0
  0
SEQEND
  8
COVER-HID
 62
     7
  0
LINE
  8
CENTER
 62
     7
 10
12.449994
 20
10.892685
 30
0.0
 11
12.719994
 21
10.892685
 31
0.0
  0
LINE
  8
CENTER
 62
     7
 10
12.584994
 20
10.757685
 30
0.0
 11
12.584994
 21
11.027685
 31
0.0
  0
LINE
  8
CENTER
 62
     7
 10
14.729994
 20
10.892685
 30
0.0
 11
14.999994
 21
10.892685
 31
0.0
  0
LINE
  8
CENTER
 62
     7
 10
14.864994
 20
10.757685
 30
0.0
 11
14.864994
 21
11.027685
 31
0.0
  0
LINE
  8
CENTER
 62
     7
 10
14.729994
 20
9.469414
 30
0.0
 11
14.999994
 21
9.469414
 31
0.0
  0
LINE
  8
CENTER
 62
     7
 10
14.864994
 20
9.334414
 30
0.0
 11
14.864994
 21
9.604414
 31
0.0
  0
LINE
  8
CENTER
 62
     7
 10
12.449994
 20
9.469414
 30
0.0
 11
12.719994
 21
9.469414
 31
0.0
  0
LINE
  8
CENTER
 62
     7
 10
12.584994
 20
9.334414
 30
0.0
 11
12.584994
 21
9.604414
 31
0.0
  0
LINE
  8
COVER
 62
     7
 10
15.595073
 20
3.145582
 30
0.0
 11
15.595073
 21
1.859667
 31
0.0
  0
LINE
  8
COVER
 62
     7
 10
11.854914
 20
1.859667
 30
0.0
 11
11.854914
 21
3.145582
 31
0.0
  0
LINE
  8
COVER
 62
     7
 10
15.595073
 20
1.859667
 30
0.0
 11
11.854914
 21
1.859667
 31
0.0
  0
LINE
  8
COVER-HID
 62
     7
 10
14.953994
 20
1.808486
 30
0.0
 11
12.495994
 21
1.808486
 31
0.0
  0
LINE
  8
COVER
 62
     7
 10
15.501323
 20
2.426597
 30
0.0
 11
11.948664
 21
2.426597
 31
0.0
  0
LINE
  8
COVER
 62
     7
 10
15.501323
 20
3.239332
 30
0.0
 11
11.948664
 21
3.239332
 31
0.0
  0
LINE
  8
COVER-HID
 62
     7
 10
12.495994
 20
1.859667
 30
0.0
 11
12.495994
 21
1.808486
 31
0.0
  0
LINE
  8
COVER-HID
 62
     7
 10
14.953994
 20
1.859667
 30
0.0
 11
14.953994
 21
1.808486
 31
0.0
  0
LINE
  8
COVER-HID
 62
     7
 10
11.929914
 20
1.808486
 30
0.0
 11
11.929914
 21
1.859667
 31
0.0
  0
LINE
  8
COVER-HID
 62
     7
 10
11.896914
 20
1.808486
 30
0.0
 11
11.896914
 21
1.859667
 31
0.0
  0
LINE
  8
COVER-HID
 62
     7
 10
11.929914
 20
1.808486
 30
0.0
 11
11.896914
 21
1.808486
 31
0.0
  0
LINE
  8
COVER-HID
 62
     7
 10
15.520073
 20
1.808486
 30
0.0
 11
15.520073
 21
1.859667
 31
0.0
  0
LINE
  8
COVER-HID
 62
     7
 10
15.553073
 20
1.808486
 30
0.0
 11
15.553073
 21
1.859667
 31
0.0
  0
LINE
  8
COVER-HID
 62
     7
 10
15.553073
 20
1.808486
 30
0.0
 11
15.520073
 21
1.808486
 31
0.0
  0
ARC
  8
COVER
 62
     7
 10
11.948664
 20
3.145582
 30
0.0
 40
0.09375
 50
90.0
 51
180.0
  0
ARC
  8
COVER
 62
     7
 10
15.501323
 20
3.145582
 30
0.0
 40
0.09375
 50
0.0
 51
90.0
  0
LINE
  8
COVER-HID
 62
     7
 10
15.476963
 20
3.074051
 30
0.0
 11
15.476963
 21
1.859667
 31
0.0
  0
LINE
  8
COVER-HID
 62
     7
 10
11.973024
 20
3.074051
 30
0.0
 11
11.973024
 21
1.859667
 31
0.0
  0
LINE
  8
COVER-HID
 62
     7
 10
15.461338
 20
3.089676
 30
0.0
 11
11.988649
 21
3.089676
 31
0.0
  0
LINE
  8
COVER
 62
     7
 10
12.199494
 20
3.195339
 30
0.0
 11
12.199494
 21
2.426597
 31
0.0
  0
LINE
  8
COVER
 62
     7
 10
12.240994
 20
3.012893
 30
0.0
 11
12.240994
 21
2.445739
 31
0.0
  0
LINE
  8
COVER
 62
     7
 10
15.250494
 20
3.195339
 30
0.0
 11
15.250494
 21
2.426597
 31
0.0
  0
LINE
  8
COVER
 62
     7
 10
15.208994
 20
3.012893
 30
0.0
 11
15.208994
 21
2.445739
 31
0.0
  0
LINE
  8
COVER-HID
 62
     7
 10
12.032414
 20
3.089676
 30
0.0
 11
12.032414
 21
1.859667
 31
0.0
  0
LINE
  8
COVER-HID
 62
     7
 10
12.327414
 20
3.089676
 30
0.0
 11
12.327414
 21
1.859667
 31
0.0
  0
LINE
  8
COVER-HID
 62
     7
 10
12.223914
 20
2.859667
 30
0.0
 11
12.223914
 21
1.859667
 31
0.0
  0
LINE
  8
COVER-HID
 62
     7
 10
12.135914
 20
2.859667
 30
0.0
 11
12.135914
 21
1.859667
 31
0.0
  0
LINE
  8
COVER-HID
 62
     7
 10
12.223914
 20
2.234667
 30
0.0
 11
12.135914
 21
2.234667
 31
0.0
  0
LINE
  8
COVER-HID
 62
     7
 10
12.223914
 20
2.859667
 30
0.0
 11
12.135914
 21
2.859667
 31
0.0
  0
LINE
  8
COVER-HID
 62
     7
 10
15.314073
 20
2.859667
 30
0.0
 11
15.314073
 21
1.859667
 31
0.0
  0
LINE
  8
COVER-HID
 62
     7
 10
15.226073
 20
2.859667
 30
0.0
 11
15.226073
 21
1.859667
 31
0.0
  0
LINE
  8
COVER-HID
 62
     7
 10
15.122573
 20
3.089676
 30
0.0
 11
15.122573
 21
1.859667
 31
0.0
  0
LINE
  8
COVER-HID
 62
     7
 10
15.226073
 20
2.859667
 30
0.0
 11
15.314073
 21
2.859667
 31
0.0
  0
LINE
  8
COVER-HID
 62
     7
 10
15.226073
 20
2.234667
 30
0.0
 11
15.314073
 21
2.234667
 31
0.0
  0
LINE
  8
COVER-HID
 62
     7
 10
15.417573
 20
3.089676
 30
0.0
 11
15.417573
 21
1.859667
 31
0.0
  0
LINE
  8
COVER-HID
 62
     7
 10
12.120662
 20
2.426597
 30
0.0
 11
12.120662
 21
2.387226
 31
0.0
  0
LINE
  8
COVER-HID
 62
     7
 10
15.329325
 20
2.426597
 30
0.0
 11
15.329325
 21
2.387226
 31
0.0
  0
LINE
  8
COVER-HID
 62
     7
 10
15.329325
 20
2.387226
 30
0.0
 11
12.120662
 21
2.387226
 31
0.0
  0
LINE
  8
COVER
 62
     7
 10
15.250494
 20
3.195339
 30
0.0
 11
12.199494
 21
3.195339
 31
0.0
  0
LINE
  8
COVER
 62
     7
 10
15.250494
 20
3.096254
 30
0.0
 11
12.199494
 21
3.096254
 31
0.0
  0
LINE
  8
COVER
 62
     7
 10
15.208994
 20
3.012893
 30
0.0
 11
12.240994
 21
3.012893
 31
0.0
  0
LINE
  8
COVER
 62
     7
 10
15.208994
 20
2.92971
 30
0.0
 11
12.240994
 21
2.92971
 31
0.0
  0
LINE
  8
COVER
 62
     7
 10
15.208994
 20
2.445739
 30
0.0
 11
12.240994
 21
2.445739
 31
0.0
  0
ARC
  8
COVER-HID
 62
     7
 10
11.988649
 20
3.074051
 30
0.0
 40
0.015625
 50
90.0
 51
180.0
  0
ARC
  8
COVER-HID
 62
     7
 10
15.461338
 20
3.074051
 30
0.0
 40
0.015625
 50
0.0
 51
90.0
  0
POLYLINE
  8
COVER
 62
     7
 66
     1
 10
0.0
 20
0.0
 30
0.0
 70
     1
  0
VERTEX
  8
COVER
 62
     7
 10
14.821234
 20
3.066988
 30
0.0
 42
0.195593
  0
VERTEX
  8
COVER
 62
     7
 10
14.823702
 20
3.060919
 30
0.0
 42
0.099415
  0
VERTEX
  8
COVER
 62
     7
 10
14.834051
 20
3.053839
 30
0.0
 42
0.056958
 70
     2
 50
336.977546
  0
VERTEX
  8
COVER
 62
     7
 10
14.847184
 20
3.049948
 30
0.0
 42
0.043585
 50
336.977546
  0
VERTEX
  8
COVER
 62
     7
 10
14.864994
 20
3.048393
 30
0.0
 42
0.043585
  0
VERTEX
  8
COVER
 62
     7
 10
14.882803
 20
3.049948
 30
0.0
 42
0.056958
  0
VERTEX
  8
COVER
 62
     7
 10
14.895936
 20
3.053839
 30
0.0
 42
0.099415
 70
     2
 50
23.022454
  0
VERTEX
  8
COVER
 62
     7
 10
14.906285
 20
3.060919
 30
0.0
 42
0.195593
 50
23.022454
  0
VERTEX
  8
COVER
 62
     7
 10
14.908753
 20
3.066988
 30
0.0
 42
0.195593
  0
VERTEX
  8
COVER
 62
     7
 10
14.906285
 20
3.073057
 30
0.0
 42
0.099415
  0
VERTEX
  8
COVER
 62
     7
 10
14.895936
 20
3.080137
 30
0.0
 42
0.056958
 70
     2
 50
156.977546
  0
VERTEX
  8
COVER
 62
     7
 10
14.882803
 20
3.084028
 30
0.0
 42
0.043585
 50
156.977546
  0
VERTEX
  8
COVER
 62
     7
 10
14.864994
 20
3.085583
 30
0.0
 42
0.043585
  0
VERTEX
  8
COVER
 62
     7
 10
14.847184
 20
3.084028
 30
0.0
 42
0.056958
  0
VERTEX
  8
COVER
 62
     7
 10
14.834051
 20
3.080137
 30
0.0
 42
0.099415
 70
     2
 50
203.022454
  0
VERTEX
  8
COVER
 62
     7
 10
14.823702
 20
3.073057
 30
0.0
 42
0.195593
 50
203.022454
  0
SEQEND
  8
COVER
 62
     7
  0
POLYLINE
  8
COVER
 62
     7
 66
     1
 10
0.0
 20
0.0
 30
0.0
 70
     1
  0
VERTEX
  8
COVER
 62
     7
 10
12.541234
 20
3.066988
 30
0.0
 42
0.195593
  0
VERTEX
  8
COVER
 62
     7
 10
12.543702
 20
3.060919
 30
0.0
 42
0.099415
  0
VERTEX
  8
COVER
 62
     7
 10
12.554051
 20
3.053839
 30
0.0
 42
0.056958
 70
     2
 50
336.977546
  0
VERTEX
  8
COVER
 62
     7
 10
12.567184
 20
3.049948
 30
0.0
 42
0.043585
 50
336.977546
  0
VERTEX
  8
COVER
 62
     7
 10
12.584994
 20
3.048393
 30
0.0
 42
0.043585
  0
VERTEX
  8
COVER
 62
     7
 10
12.602803
 20
3.049948
 30
0.0
 42
0.056958
  0
VERTEX
  8
COVER
 62
     7
 10
12.615936
 20
3.053839
 30
0.0
 42
0.099415
 70
     2
 50
23.022454
  0
VERTEX
  8
COVER
 62
     7
 10
12.626285
 20
3.060919
 30
0.0
 42
0.195593
 50
23.022454
  0
VERTEX
  8
COVER
 62
     7
 10
12.628753
 20
3.066988
 30
0.0
 42
0.195593
  0
VERTEX
  8
COVER
 62
     7
 10
12.626285
 20
3.073057
 30
0.0
 42
0.099415
  0
VERTEX
  8
COVER
 62
     7
 10
12.615936
 20
3.080137
 30
0.0
 42
0.056958
 70
     2
 50
156.977546
  0
VERTEX
  8
COVER
 62
     7
 10
12.602803
 20
3.084028
 30
0.0
 42
0.043585
 50
156.977546
  0
VERTEX
  8
COVER
 62
     7
 10
12.584994
 20
3.085583
 30
0.0
 42
0.043585
  0
VERTEX
  8
COVER
 62
     7
 10
12.567184
 20
3.084028
 30
0.0
 42
0.056958
  0
VERTEX
  8
COVER
 62
     7
 10
12.554051
 20
3.080137
 30
0.0
 42
0.099415
 70
     2
 50
203.022454
  0
VERTEX
  8
COVER
 62
     7
 10
12.543702
 20
3.073057
 30
0.0
 42
0.195593
 50
203.022454
  0
SEQEND
  8
COVER
 62
     7
  0
ARC
  8
COVER
 62
     7
 10
11.948664
 20
2.332847
 30
0.0
 40
0.09375
 50
90.0
 51
180.0
  0
ARC
  8
COVER
 62
     7
 10
15.501323
 20
2.332847
 30
0.0
 40
0.09375
 50
0.0
 51
90.0
  0
TEXT
  8
DIM
 10
22.382365
 20
61.21225
 30
0.0
 40
0.166625
  1

  0
TEXT
  8
DIM
 10
26.975864
 20
60.846462
 30
0.0
 40
0.166625
  1

  0
TEXT
  8
DIM
 10
36.275917
 20
61.21225
 30
0.0
 40
0.166625
  1

  0
TEXT
  8
DIM
 10
40.869416
 20
60.846462
 30
0.0
 40
0.166625
  1

  0
TEXT
  8
DIM
 10
41.194416
 20
49.286887
 30
0.0
 40
0.166625
  1

  0
TEXT
  8
DIM
 10
38.422382
 20
49.707002
 30
0.0
 40
0.166625
  1

  0
TEXT
  8
DIM
 10
40.002286
 20
59.689825
 30
0.0
 40
0.166625
  1

  0
TEXT
  8
DIM
 10
33.232365
 20
41.73625
 30
0.0
 40
0.166625
  1

  0
TEXT
  8
DIM
 10
37.825864
 20
41.370462
 30
0.0
 40
0.166625
  1

  0
TEXT
  8
DIM
 10
47.125917
 20
41.73625
 30
0.0
 40
0.166625
  1

  0
TEXT
  8
DIM
 10
51.719416
 20
41.370462
 30
0.0
 40
0.166625
  1

  0
TEXT
  8
DIM
 10
52.044416
 20
29.810887
 30
0.0
 40
0.166625
  1

  0
TEXT
  8
DIM
 10
49.272382
 20
30.231002
 30
0.0
 40
0.166625
  1

  0
TEXT
  8
DIM
 10
50.852286
 20
40.213825
 30
0.0
 40
0.166625
  1

  0
POLYLINE
  8
OBJECT
 62
     7
 66
     1
 10
0.0
 20
0.0
 30
0.0
 70
     1
  0
VERTEX
  8
OBJECT
 62
     7
 10
3.390298
 20
16.810587
 30
0.0
  0
VERTEX
  8
OBJECT
 62
     7
 10
3.390298
 20
18.629587
 30
0.0
  0
VERTEX
  8
OBJECT
 62
     7
 10
6.435298
 20
18.629587
 30
0.0
  0
VERTEX
  8
OBJECT
 62
     7
 10
6.435298
 20
16.810587
 30
0.0
  0
SEQEND
  8
OBJECT
 62
     7
  0
LINE
  8
OBJECT
 62
     7
 10
9.487303
 20
18.629587
 30
0.0
 11
9.487303
 21
16.810587
 31
0.0
  0
LINE
  8
OBJECT
 62
     7
 10
9.575303
 20
18.555587
 30
0.0
 11
9.575303
 21
16.884587
 31
0.0
  0
LINE
  8
OBJECT
 62
     7
 10
9.575303
 20
18.306087
 30
0.0
 11
9.655303
 21
18.306087
 31
0.0
  0
LINE
  8
OBJECT
 62
     7
 10
9.575303
 20
17.134087
 30
0.0
 11
9.655303
 21
17.134087
 31
0.0
  0
LINE
  8
OBJECT
 62
     7
 10
9.655303
 20
18.306087
 30
0.0
 11
9.655303
 21
17.134087
 31
0.0
  0
POLYLINE
  8
OBJECT
 62
     7
 66
     1
 10
0.0
 20
0.0
 30
0.0
 70
     1
  0
VERTEX
  8
OBJECT
 62
     7
 10
11.471991
 20
16.810587
 30
0.0
  0
VERTEX
  8
OBJECT
 62
     7
 10
11.471991
 20
18.629587
 30
0.0
  0
VERTEX
  8
OBJECT
 62
     7
 10
14.516991
 20
18.629587
 30
0.0
  0
VERTEX
  8
OBJECT
 62
     7
 10
14.516991
 20
16.810587
 30
0.0
  0
SEQEND
  8
OBJECT
 62
     7
  0
LINE
  8
OBJECT
 62
     7
 10
11.895491
 20
18.306087
 30
0.0
 11
14.093491
 21
18.306087
 31
0.0
  0
LINE
  8
OBJECT
 62
     7
 10
11.895491
 20
17.134087
 30
0.0
 11
14.093491
 21
17.134087
 31
0.0
  0
LINE
  8
OBJECT
 62
     7
 10
11.955491
 20
18.246087
 30
0.0
 11
14.033491
 21
18.246087
 31
0.0
  0
LINE
  8
OBJECT
 62
     7
 10
11.955491
 20
17.194087
 30
0.0
 11
14.033491
 21
17.194087
 31
0.0
  0
LINE
  8
OBJECT
 62
     7
 10
14.093491
 20
18.306087
 30
0.0
 11
14.093491
 21
17.134087
 31
0.0
  0
LINE
  8
OBJECT
 62
     7
 10
11.895491
 20
18.306087
 30
0.0
 11
11.895491
 21
17.134087
 31
0.0
  0
LINE
  8
OBJECT
 62
     7
 10
14.033491
 20
18.246087
 30
0.0
 11
14.033491
 21
17.194087
 31
0.0
  0
LINE
  8
OBJECT
 62
     7
 10
11.955491
 20
18.246087
 30
0.0
 11
11.955491
 21
17.194087
 31
0.0
  0
LINE
  8
OBJECT
 62
     7
 10
11.471991
 20
18.555587
 30
0.0
 11
14.516991
 21
18.555587
 31
0.0
  0
LINE
  8
OBJECT
 62
     7
 10
11.471991
 20
16.884587
 30
0.0
 11
14.516991
 21
16.884587
 31
0.0
  0
LINE
  8
OBJECT
 62
     7
 10
9.575303
 20
18.555587
 30
0.0
 11
9.487303
 21
18.629587
 31
0.0
  0
LINE
  8
OBJECT
 62
     7
 10
9.575303
 20
16.884587
 30
0.0
 11
9.487303
 21
16.810587
 31
0.0
  0
LINE
  8
OBJECT
 62
     7
 10
6.435298
 20
14.307646
 30
0.0
 11
3.390298
 21
14.307646
 31
0.0
  0
LINE
  8
OBJECT
 62
     7
 10
6.435298
 20
14.395646
 30
0.0
 11
3.390298
 21
14.395646
 31
0.0
  0
LINE
  8
OBJECT
 62
     7
 10
3.390298
 20
14.395646
 30
0.0
 11
3.390298
 21
14.307646
 31
0.0
  0
LINE
  8
OBJECT
 62
     7
 10
6.011798
 20
14.227646
 30
0.0
 11
3.813798
 21
14.227646
 31
0.0
  0
LINE
  8
OBJECT
 62
     7
 10
3.813798
 20
14.307646
 30
0.0
 11
3.813798
 21
14.227646
 31
0.0
  0
LINE
  8
OBJECT
 62
     7
 10
6.435298
 20
14.395646
 30
0.0
 11
6.435298
 21
14.307646
 31
0.0
  0
LINE
  8
OBJECT
 62
     7
 10
6.011798
 20
14.307646
 30
0.0
 11
6.011798
 21
14.227646
 31
0.0
  0
LINE
  8
HIDDEN
 62
     7
 10
3.873798
 20
14.227646
 30
0.0
 11
3.873798
 21
14.307646
 31
0.0
  0
LINE
  8
HIDDEN
 62
     7
 10
5.951798
 20
14.227646
 30
0.0
 11
5.951798
 21
14.307646
 31
0.0
  0
LINE
  8
HIDDEN
 62
     7
 10
9.575303
 20
18.246087
 30
0.0
 11
9.655303
 21
18.246087
 31
0.0
  0
LINE
  8
HIDDEN
 62
     7
 10
9.575303
 20
17.194087
 30
0.0
 11
9.655303
 21
17.194087
 31
0.0
  0
LINE
  8
OBJECT
 62
     7
 10
5.804798
 20
18.073587
 30
0.0
 11
5.804798
 21
17.366587
 31
0.0
  0
LINE
  8
OBJECT
 62
     7
 10
4.020798
 20
18.073587
 30
0.0
 11
4.020798
 21
17.366587
 31
0.0
  0
LINE
  8
OBJECT
 62
     7
 10
4.020798
 20
18.073587
 30
0.0
 11
5.804798
 21
18.073587
 31
0.0
  0
LINE
  8
OBJECT
 62
     7
 10
4.020798
 20
17.366587
 30
0.0
 11
5.804798
 21
17.366587
 31
0.0
  0
LINE
  8
OBJECT
 62
     7
 10
3.948798
 20
18.145587
 30
0.0
 11
5.876798
 21
18.145587
 31
0.0
  0
LINE
  8
OBJECT
 62
     7
 10
3.948798
 20
18.145587
 30
0.0
 11
3.948798
 21
17.294587
 31
0.0
  0
LINE
  8
OBJECT
 62
     7
 10
3.948798
 20
17.294587
 30
0.0
 11
5.876798
 21
17.294587
 31
0.0
  0
LINE
  8
OBJECT
 62
     7
 10
5.876798
 20
18.145587
 30
0.0
 11
5.876798
 21
17.294587
 31
0.0
  0
LINE
  8
OBJECT
 62
     7
 10
3.948798
 20
18.145587
 30
0.0
 11
4.020798
 21
18.073587
 31
0.0
  0
LINE
  8
OBJECT
 62
     7
 10
5.876798
 20
18.145587
 30
0.0
 11
5.804798
 21
18.073587
 31
0.0
  0
LINE
  8
OBJECT
 62
     7
 10
5.804798
 20
17.366587
 30
0.0
 11
5.876798
 21
17.294587
 31
0.0
  0
LINE
  8
OBJECT
 62
     7
 10
3.948798
 20
17.294587
 30
0.0
 11
4.020798
 21
17.366587
 31
0.0
  0
LINE
  8
HIDDEN
 62
     7
 10
9.487303
 20
18.145587
 30
0.0
 11
9.575303
 21
18.073587
 31
0.0
  0
LINE
  8
HIDDEN
 62
     7
 10
9.575303
 20
17.366587
 30
0.0
 11
9.487303
 21
17.294587
 31
0.0
  0
LINE
  8
OBJECT
 62
     7
 10
12.102491
 20
18.073587
 30
0.0
 11
12.102491
 21
17.366587
 31
0.0
  0
LINE
  8
OBJECT
 62
     7
 10
13.886491
 20
18.073587
 30
0.0
 11
12.102491
 21
18.073587
 31
0.0
  0
LINE
  8
OBJECT
 62
     7
 10
13.886491
 20
17.366587
 30
0.0
 11
12.102491
 21
17.366587
 31
0.0
  0
LINE
  8
OBJECT
 62
     7
 10
13.886491
 20
18.073587
 30
0.0
 11
13.886491
 21
17.366587
 31
0.0
  0
LINE
  8
HIDDEN
 62
     7
 10
3.948798
 20
14.395646
 30
0.0
 11
4.020798
 21
14.307646
 31
0.0
  0
LINE
  8
HIDDEN
 62
     7
 10
5.876798
 20
14.395646
 30
0.0
 11
5.804798
 21
14.307646
 31
0.0
  0
DIMENSION
  8
DIM
 62
     7
  2
*D11
 10
19.863199
 20
12.39022
 30
0.0
 11
20.832067
 21
12.39022
 31
0.0
 12
4.21513
 22
-0.486727
 32
0.0
 13
21.800935
 23
11.434
 33
0.0
 14
19.863199
 24
11.122817
 34
0.0
  3
23NSTDI
  0
DIMENSION
  8
DIM
 62
     7
  2
*D8
 10
20.675935
 20
3.920705
 30
0.0
 11
21.238435
 21
3.920705
 31
0.0
 12
4.21513
 22
-0.486727
 32
0.0
 13
21.800935
 23
6.000926
 33
0.0
 14
20.675935
 24
5.843445
 34
0.0
  3
23NSTDI
  0
DIMENSION
  8
DIM
 62
     7
  2
*D20
 10
18.001073
 20
5.764705
 30
0.0
 11
18.001073
 21
8.717463
 31
0.0
 12
1.720419
 22
-0.486727
 32
0.0
 13
15.358853
 23
11.67022
 33
0.0
 14
15.358853
 24
5.764705
 34
0.0
 50
90.0
  3
23NSTD
  0
DIMENSION
  8
DIM
 62
     7
  2
*D10
 10
20.675935
 20
9.327699
 30
0.0
 11
19.287797
 21
9.019956
 31
0.0
 12
4.21513
 22
-0.486727
 32
0.0
 70
     2
 13
20.675935
 23
9.327699
 33
0.0
 14
19.883292
 24
11.027529
 34
0.0
 15
20.675935
 25
5.843445
 35
0.0
 16
19.26068
 26
9.464396
 36
0.0
  3
23NSTD
  0
DIMENSION
  8
DIM
 62
     7
  2
*D50
 10
21.800935
 20
5.044705
 30
0.0
 11
23.06031
 21
5.044705
 31
0.0
 12
-0.459215
 22
0.0
 32
0.0
 13
21.234006
 23
5.764705
 33
0.0
 14
21.800935
 24
5.843445
 34
0.0
  3
23NSTD
  0
DIMENSION
  8
DIM
 62
     7
  2
*D51
 10
21.227116
 20
4.482705
 30
0.0
 11
22.455241
 21
4.482705
 31
0.0
 12
-0.459215
 22
0.0
 32
0.0
 13
20.675935
 23
6.000926
 33
0.0
 14
21.227116
 24
5.764705
 34
0.0
  3
23NSTD
  0
DIMENSION
  8
DIM
 62
     7
  2
*D9
 10
19.955935
 20
9.327699
 30
0.0
 11
19.955935
 21
7.546202
 31
0.0
 12
4.21513
 22
-0.486727
 32
0.0
 13
20.754675
 23
5.764705
 33
0.0
 14
20.675935
 24
9.327699
 34
0.0
 50
90.0
  3
23NSTD
  0
DIMENSION
  8
DIM
 62
     7
  2
*D13
 10
15.595073
 20
4.482705
 30
0.0
 11
13.724994
 21
4.482705
 31
0.0
 12
2.889005
 22
-0.486727
 32
0.0
 13
11.854914
 23
6.000926
 33
0.0
 14
15.595073
 24
6.000926
 34
0.0
  3
23NSTD
  0
DIMENSION
  8
DIM
 62
     7
  2
*D33
 10
6.435298
 20
14.966587
 30
0.0
 11
4.912798
 21
14.966587
 31
0.0
 12
0.9089
 22
0.356933
 32
0.0
 13
3.390298
 23
16.810587
 33
0.0
 14
6.435298
 24
16.810587
 34
0.0
  3
23NSTD
  0
DIMENSION
  8
DIM
 62
     7
  2
*D37
 10
5.804798
 20
15.528587
 30
0.0
 11
4.912798
 21
15.528587
 31
0.0
 12
0.9089
 22
0.356933
 32
0.0
 13
4.020798
 23
17.366587
 33
0.0
 14
5.804798
 24
17.366587
 34
0.0
  3
23NSTDI
  0
DIMENSION
  8
DIM
 62
     7
  2
*D38
 10
4.020798
 20
16.090587
 30
0.0
 11
5.248923
 21
16.090587
 31
0.0
 12
0.9089
 22
0.356933
 32
0.0
 13
3.390298
 23
16.810587
 33
0.0
 14
4.020798
 24
17.366587
 34
0.0
  3
23NSTD
  0
DIMENSION
  8
DIM
 62
     7
  2
*D35
 10
9.487303
 20
16.090587
 30
0.0
 11
8.243553
 21
16.090587
 31
0.0
 12
0.9089
 22
0.356933
 32
0.0
 13
9.575303
 23
16.884587
 33
0.0
 14
9.487303
 24
16.810587
 34
0.0
  3
23NSTD
  0
DIMENSION
  8
DIM
 62
     7
  2
*D36
 10
9.487303
 20
15.528587
 30
0.0
 11
8.259178
 21
15.528587
 31
0.0
 12
0.9089
 22
0.356933
 32
0.0
 13
9.655303
 23
17.134087
 33
0.0
 14
9.487303
 24
16.810587
 34
0.0
  3
23NSTD
  0
DIMENSION
  8
DIM
 62
     7
  2
*D30
 10
2.670298
 20
18.073587
 30
0.0
 11
2.670298
 21
17.720087
 31
0.0
 12
0.9089
 22
0.356933
 32
0.0
 13
4.020798
 23
17.366587
 33
0.0
 14
4.020798
 24
18.073587
 34
0.0
 50
90.0
  3
23NSTDI
  0
DIMENSION
  8
DIM
 62
     7
  2
*D32
 10
1.546298
 20
16.810587
 30
0.0
 11
1.546298
 21
17.720087
 31
0.0
 12
0.9089
 22
0.356933
 32
0.0
 13
3.390298
 23
18.629587
 33
0.0
 14
3.390298
 24
16.810587
 34
0.0
 50
90.0
  3
23NSTD
  0
DIMENSION
  8
DIM
 62
     7
  2
*D31
 10
2.108298
 20
16.810587
 30
0.0
 11
2.108298
 21
17.088587
 31
0.0
 12
0.9089
 22
0.356933
 32
0.0
 13
4.020798
 23
17.366587
 33
0.0
 14
3.390298
 24
16.810587
 34
0.0
 50
90.0
  3
23NSTDI
  0
DIMENSION
  8
DIM
 62
     7
  2
*D34
 10
21.35758
 20
16.090587
 30
0.0
 11
19.83508
 21
16.090587
 31
0.0
 12
2.012565
 22
0.356933
 32
0.0
 13
18.31258
 23
16.810587
 33
0.0
 14
21.35758
 24
16.810587
 34
0.0
  3
23NSTD
  0
POLYLINE
  8
OBJECT
 62
     7
 66
     1
 10
0.0
 20
0.0
 30
0.0
 70
     1
  0
VERTEX
  8
OBJECT
 62
     7
 10
18.31258
 20
16.810587
 30
0.0
  0
VERTEX
  8
OBJECT
 62
     7
 10
18.31258
 20
18.629587
 30
0.0
  0
VERTEX
  8
OBJECT
 62
     7
 10
21.35758
 20
18.629587
 30
0.0
  0
VERTEX
  8
OBJECT
 62
     7
 10
21.35758
 20
16.810587
 30
0.0
  0
SEQEND
  8
OBJECT
 62
     7
  0
LINE
  8
OBJECT
 62
     7
 10
20.93408
 20
14.227646
 30
0.0
 11
18.73608
 21
14.227646
 31
0.0
  0
LINE
  8
OBJECT
 62
     7
 10
21.35758
 20
14.395646
 30
0.0
 11
18.31258
 21
14.395646
 31
0.0
  0
LINE
  8
OBJECT
 62
     7
 10
21.35758
 20
14.307646
 30
0.0
 11
18.31258
 21
14.307646
 31
0.0
  0
DIMENSION
  8
DIM
 62
     7
  2
*D41
 10
17.59258
 20
16.810587
 30
0.0
 11
17.59258
 21
17.720087
 31
0.0
 12
2.012565
 22
0.356933
 32
0.0
 13
18.31258
 23
18.629587
 33
0.0
 14
18.31258
 24
16.810587
 34
0.0
 50
90.0
  3
23NSTD
  0
LINE
  8
OBJECT
 62
     7
 10
18.31258
 20
14.395646
 30
0.0
 11
18.31258
 21
14.307646
 31
0.0
  0
LINE
  8
HIDDEN
 62
     7
 10
18.79608
 20
14.227646
 30
0.0
 11
18.79608
 21
14.307646
 31
0.0
  0
LINE
  8
OBJECT
 62
     7
 10
18.73608
 20
14.307646
 30
0.0
 11
18.73608
 21
14.227646
 31
0.0
  0
POLYLINE
  8
OBJECT
 62
     7
 66
     1
 10
0.0
 20
0.0
 30
0.0
 70
     1
  0
VERTEX
  8
OBJECT
 62
     7
 10
26.394274
 20
16.810587
 30
0.0
  0
VERTEX
  8
OBJECT
 62
     7
 10
26.394274
 20
18.629587
 30
0.0
  0
VERTEX
  8
OBJECT
 62
     7
 10
29.439274
 20
18.629587
 30
0.0
  0
VERTEX
  8
OBJECT
 62
     7
 10
29.439274
 20
16.810587
 30
0.0
  0
SEQEND
  8
OBJECT
 62
     7
  0
LINE
  8
OBJECT
 62
     7
 10
24.497585
 20
18.555587
 30
0.0
 11
24.497585
 21
16.884587
 31
0.0
  0
LINE
  8
OBJECT
 62
     7
 10
24.409585
 20
18.629587
 30
0.0
 11
24.409585
 21
16.810587
 31
0.0
  0
LINE
  8
OBJECT
 62
     7
 10
26.394274
 20
16.884587
 30
0.0
 11
29.439274
 21
16.884587
 31
0.0
  0
LINE
  8
OBJECT
 62
     7
 10
26.877774
 20
17.194087
 30
0.0
 11
28.955774
 21
17.194087
 31
0.0
  0
LINE
  8
OBJECT
 62
     7
 10
26.877774
 20
18.246087
 30
0.0
 11
28.955774
 21
18.246087
 31
0.0
  0
LINE
  8
OBJECT
 62
     7
 10
26.817774
 20
17.134087
 30
0.0
 11
29.015774
 21
17.134087
 31
0.0
  0
LINE
  8
OBJECT
 62
     7
 10
26.817774
 20
18.306087
 30
0.0
 11
29.015774
 21
18.306087
 31
0.0
  0
DIMENSION
  8
DIM
 62
     7
  2
*D39
 10
24.409585
 20
16.090587
 30
0.0
 11
23.165835
 21
16.090587
 31
0.0
 12
2.012565
 22
0.356933
 32
0.0
 13
24.497585
 23
16.884587
 33
0.0
 14
24.409585
 24
16.810587
 34
0.0
  3
23NSTD
  0
DIMENSION
  8
DIM
 62
     7
  2
*D40
 10
24.409585
 20
15.528587
 30
0.0
 11
23.18146
 21
15.528587
 31
0.0
 12
2.012565
 22
0.356933
 32
0.0
 13
24.577585
 23
17.134087
 33
0.0
 14
24.409585
 24
16.810587
 34
0.0
  3
23NSTD
  0
LINE
  8
HIDDEN
 62
     7
 10
20.87408
 20
14.227646
 30
0.0
 11
20.87408
 21
14.307646
 31
0.0
  0
LINE
  8
OBJECT
 62
     7
 10
20.93408
 20
14.307646
 30
0.0
 11
20.93408
 21
14.227646
 31
0.0
  0
LINE
  8
OBJECT
 62
     7
 10
21.35758
 20
14.395646
 30
0.0
 11
21.35758
 21
14.307646
 31
0.0
  0
LINE
  8
OBJECT
 62
     7
 10
24.497585
 20
16.884587
 30
0.0
 11
24.409585
 21
16.810587
 31
0.0
  0
LINE
  8
OBJECT
 62
     7
 10
24.577585
 20
18.306087
 30
0.0
 11
24.577585
 21
17.134087
 31
0.0
  0
LINE
  8
HIDDEN
 62
     7
 10
24.497585
 20
17.194087
 30
0.0
 11
24.577585
 21
17.194087
 31
0.0
  0
LINE
  8
OBJECT
 62
     7
 10
24.497585
 20
17.134087
 30
0.0
 11
24.577585
 21
17.134087
 31
0.0
  0
LINE
  8
HIDDEN
 62
     7
 10
24.497585
 20
18.246087
 30
0.0
 11
24.577585
 21
18.246087
 31
0.0
  0
LINE
  8
OBJECT
 62
     7
 10
24.497585
 20
18.306087
 30
0.0
 11
24.577585
 21
18.306087
 31
0.0
  0
LINE
  8
OBJECT
 62
     7
 10
26.877774
 20
18.246087
 30
0.0
 11
26.877774
 21
17.194087
 31
0.0
  0
LINE
  8
OBJECT
 62
     7
 10
26.817774
 20
18.306087
 30
0.0
 11
26.817774
 21
17.134087
 31
0.0
  0
LINE
  8
OBJECT
 62
     7
 10
28.955774
 20
18.246087
 30
0.0
 11
28.955774
 21
17.194087
 31
0.0
  0
LINE
  8
OBJECT
 62
     7
 10
29.015774
 20
18.306087
 30
0.0
 11
29.015774
 21
17.134087
 31
0.0
  0
LINE
  8
OBJECT
 62
     7
 10
26.394274
 20
18.555587
 30
0.0
 11
29.439274
 21
18.555587
 31
0.0
  0
LINE
  8
OBJECT
 62
     7
 10
24.497585
 20
18.555587
 30
0.0
 11
24.409585
 21
18.629587
 31
0.0
  0
LINE
  8
COVER
 62
     7
 10
5.682118
 20
6.040296
 30
0.0
 11
5.682118
 21
9.229274
 31
0.0
  0
LINE
  8
COVER
 62
     7
 10
5.721488
 20
5.873705
 30
0.0
 11
5.721488
 21
9.327699
 31
0.0
  0
LINE
  8
COVER
 62
     7
 10
5.154558
 20
5.764705
 30
0.0
 11
5.154558
 21
5.806705
 31
0.0
  0
LINE
  8
COVER
 62
     7
 10
5.549488
 20
5.882815
 30
0.0
 11
5.549488
 21
5.952205
 31
0.0
  0
LINE
  8
COVER
 62
     7
 10
5.154558
 20
5.764705
 30
0.0
 11
5.612488
 21
5.764705
 31
0.0
  0
LINE
  8
COVER
 62
     7
 10
5.154558
 20
5.882815
 30
0.0
 11
5.549488
 21
5.882815
 31
0.0
  0
LINE
  8
COVER
 62
     7
 10
5.154558
 20
5.952205
 30
0.0
 11
5.549488
 21
5.952205
 31
0.0
  0
LINE
  8
COVER
 62
     7
 10
5.154558
 20
6.247205
 30
0.0
 11
5.549488
 21
6.247205
 31
0.0
  0
LINE
  8
COVER
 62
     7
 10
5.154558
 20
6.143705
 30
0.0
 11
5.529558
 21
6.143705
 31
0.0
  0
LINE
  8
COVER
 62
     7
 10
5.154558
 20
6.055705
 30
0.0
 11
5.529558
 21
6.055705
 31
0.0
  0
LINE
  8
COVER
 62
     7
 10
5.529558
 20
6.055705
 30
0.0
 11
5.529558
 21
6.143705
 31
0.0
  0
LINE
  8
COVER
 62
     7
 10
5.682118
 20
6.040296
 30
0.0
 11
5.721488
 21
6.040296
 31
0.0
  0
ARC
  8
COVER
 62
     7
 10
5.707628
 20
10.719457
 30
0.0
 40
0.950864
 50
33.465685
 51
89.164829
  0
ARC
  8
COVER
 62
     7
 10
5.739349
 20
10.839857
 30
0.0
 40
0.712535
 50
27.335656
 51
29.267403
  0
LINE
  8
COVER
 62
     7
 10
6.154558
 20
11.291705
 30
0.0
 11
6.154558
 21
11.379705
 31
0.0
  0
LINE
  8
COVER
 62
     7
 10
5.154558
 20
11.188205
 30
0.0
 11
6.360927
 21
11.188205
 31
0.0
  0
LINE
  8
COVER
 62
     7
 10
5.154558
 20
11.291705
 30
0.0
 11
6.154558
 21
11.291705
 31
0.0
  0
LINE
  8
COVER
 62
     7
 10
5.682118
 20
9.229274
 30
0.0
 11
5.721488
 21
9.229274
 31
0.0
  0
LINE
  8
COVER
 62
     7
 10
5.549488
 20
9.311408
 30
0.0
 11
6.376736
 21
11.085448
 31
0.0
  0
LINE
  8
COVER
 62
     7
 10
5.673751
 20
9.416989
 30
0.0
 11
6.391145
 21
10.955447
 31
0.0
  0
LINE
  8
COVER
 62
     7
 10
5.721488
 20
9.327699
 30
0.0
 11
6.514131
 21
11.027529
 31
0.0
  0
LINE
  8
COVER
 62
     7
 10
5.700555
 20
9.635372
 30
0.0
 11
5.74063
 21
9.560413
 31
0.0
  0
LINE
  8
COVER
 62
     7
 10
5.673751
 20
9.416989
 30
0.0
 11
5.721488
 21
9.327699
 31
0.0
  0
LINE
  8
COVER
 62
     7
 10
5.678822
 20
9.427865
 30
0.0
 11
5.617193
 21
9.456603
 31
0.0
  0
LINE
  8
COVER
 62
     7
 10
5.716013
 20
9.50762
 30
0.0
 11
5.654384
 21
9.536358
 31
0.0
  0
LINE
  8
COVER
 62
     7
 10
6.307784
 20
10.776678
 30
0.0
 11
6.224601
 21
10.759194
 31
0.0
  0
ARC
  8
COVER
 62
     7
 10
6.298223
 20
11.122817
 30
0.0
 40
0.236
 50
336.186394
 51
30.839745
  0
LINE
  8
COVER
 62
     7
 10
6.380474
 20
10.932563
 30
0.0
 11
6.318845
 21
10.961301
 31
0.0
  0
LINE
  8
COVER
 62
     7
 10
6.343284
 20
10.852808
 30
0.0
 11
6.281655
 21
10.881546
 31
0.0
  0
LINE
  8
COVER
 62
     7
 10
6.49023
 20
10.976273
 30
0.0
 11
6.391145
 21
10.955447
 31
0.0
  0
ARC
  8
COVER
 62
     7
 10
6.295485
 20
11.12197
 30
0.0
 40
0.089082
 50
335.796058
 51
30.404276
  0
LINE
  8
COVER
 62
     7
 10
5.154558
 20
11.55211
 30
0.0
 11
5.721458
 21
11.55211
 31
0.0
  0
LINE
  8
COVER
 62
     7
 10
5.154558
 20
11.67022
 30
0.0
 11
5.721488
 21
11.67022
 31
0.0
  0
LINE
  8
COVER
 62
     7
 10
5.154558
 20
11.483205
 30
0.0
 11
6.045631
 21
11.483205
 31
0.0
  0
LINE
  8
COVER
 62
     7
 10
5.154558
 20
11.379705
 30
0.0
 11
6.154558
 21
11.379705
 31
0.0
  0
DIMENSION
  8
DIM
 62
     7
  2
*D29
 10
9.912892
 20
9.38026
 30
0.0
 11
9.52852
 21
8.555973
 31
0.0
 12
0.0
 22
-0.486727
 32
0.0
 70
     1
 13
5.721488
 23
9.327699
 33
0.0
 14
6.49023
 24
10.976273
 34
0.0
  3
23NSTD
  0
DIMENSION
  8
DIM
 62
     7
  2
*D27
 10
8.763613
 20
9.575234
 30
0.0
 11
8.501589
 21
9.013323
 31
0.0
 12
0.0
 22
-0.486727
 32
0.0
 70
     1
 13
5.700555
 23
9.635372
 33
0.0
 14
6.224601
 24
10.759194
 34
0.0
  3
23NSTDI
  0
DIMENSION
  8
DIM
 62
     7
  2
*D28
 10
9.403547
 20
9.617771
 30
0.0
 11
10.591582
 21
10.270313
 31
0.0
 12
0.0
 22
-0.486727
 32
0.0
 70
     1
 13
6.359641
 23
10.696224
 33
0.0
 14
6.49023
 24
10.976273
 34
0.0
  3
23NSTD
  0
POLYLINE
  8
BEND
 62
     7
 66
     1
 10
0.0
 20
0.0
 30
0.0
 41
0.084375
  0
VERTEX
  8
BEND
 62
     7
 10
15.995051
 20
5.314705
 30
0.0
 41
0.084375
  0
VERTEX
  8
BEND
 62
     7
 10
15.770051
 20
5.314705
 30
0.0
 41
0.0
  0
VERTEX
  8
BEND
 62
     7
 10
14.725402
 20
5.314705
 30
0.0
 41
0.0
  0
SEQEND
  8
BEND
 62
     7
  0
POLYLINE
  8
BEND
 62
     7
 66
     1
 10
0.0
 20
0.0
 30
0.0
 41
0.084375
  0
VERTEX
  8
BEND
 62
     7
 10
15.823632
 20
12.12022
 30
0.0
 41
0.084375
  0
VERTEX
  8
BEND
 62
     7
 10
15.598632
 20
12.12022
 30
0.0
 41
0.0
  0
VERTEX
  8
BEND
 62
     7
 10
14.725402
 20
12.12022
 30
0.0
 41
0.0
  0
SEQEND
  8
BEND
 62
     7
  0
TEXT
  8
BEND
 62
     7
 10
15.675276
 20
4.990876
 30
0.0
 40
0.25
  1
A
 41
0.75
  7
TXT
 72
     4
 11
15.737776
 21
5.115876
 31
0.0
  0
TEXT
  8
BEND
 62
     7
 10
15.638184
 20
12.21283
 30
0.0
 40
0.25
  1
A
 41
0.75
  7
TXT
 72
     4
 11
15.700684
 21
12.33783
 31
0.0
  0
POLYLINE
  8
BEND
 62
     7
 66
     1
 10
0.0
 20
0.0
 30
0.0
  0
VERTEX
  8
BEND
 62
     7
 10
14.725402
 20
12.12022
 30
0.0
  0
VERTEX
  8
BEND
 62
     7
 10
14.725402
 20
11.508101
 30
0.0
  0
VERTEX
  8
BEND
 62
     7
 10
15.270914
 20
11.508101
 30
0.0
  0
VERTEX
  8
BEND
 62
     7
 10
15.270914
 20
5.926825
 30
0.0
  0
VERTEX
  8
BEND
 62
     7
 10
14.725402
 20
5.926825
 30
0.0
  0
VERTEX
  8
BEND
 62
     7
 10
14.725402
 20
5.314705
 30
0.0
  0
SEQEND
  8
BEND
 62
     7
  0
LINE
  8
COVER
 62
     7
 10
5.103377
 20
5.839705
 30
0.0
 11
5.154558
 21
5.839705
 31
0.0
  0
LINE
  8
COVER
 62
     7
 10
5.103377
 20
5.806705
 30
0.0
 11
5.103377
 21
5.839705
 31
0.0
  0
LINE
  8
COVER
 62
     7
 10
5.103377
 20
5.806705
 30
0.0
 11
5.154558
 21
5.806705
 31
0.0
  0
LINE
  8
COVER
 62
     7
 10
5.103377
 20
11.59522
 30
0.0
 11
5.154558
 21
11.59522
 31
0.0
  0
LINE
  8
COVER
 62
     7
 10
5.103377
 20
11.59522
 30
0.0
 11
5.103377
 21
11.62822
 31
0.0
  0
LINE
  8
COVER
 62
     7
 10
5.103377
 20
11.62822
 30
0.0
 11
5.154558
 21
11.62822
 31
0.0
  0
LINE
  8
CENTER
  6
CENTER2
 62
     7
 10
6.616778
 20
10.773824
 30
0.0
 11
6.045351
 21
11.040285
 31
0.0
  0
LINE
  8
CENTER
  6
CENTER2
 62
     7
 10
5.953096
 20
9.350553
 30
0.0
 11
5.381669
 21
9.617013
 31
0.0
  0
TEXT
  8
TEXT
 62
     7
 10
4.082431
 20
2.699933
 30
0.0
 40
0.25
  1
%%USECTION "A-A"
 41
0.75
  7
TXT
 72
     4
 11
5.179306
 21
2.799933
 31
0.0
  0
TEXT
  8
TEXT
 62
     7
 10
24.1354
 20
3.382546
 30
0.0
 40
0.25
  1
%%UMATERIAL%%U - HIGH-IMPACT ABS
 41
0.75
  7
TXT
  0
TEXT
  8
TEXT
 62
     7
 10
24.1354
 20
2.96588
 30
0.0
 40
0.25
  1
%%UCOLOR%%U - BLACK
 41
0.75
  7
TXT
  0
TEXT
  8
TEXT
 62
     7
 10
24.1354
 20
2.133213
 30
0.0
 40
0.25
  1
%%UFINISH%%U - TEXTURED BODY WITH
 41
0.75
  7
TXT
  0
TEXT
  8
DIM
 10
21.827153
 20
68.38177
 30
0.0
 40
0.166625
  1

  0
TEXT
  8
DIM
 10
26.420653
 20
68.015982
 30
0.0
 40
0.166625
  1

  0
TEXT
  8
DIM
 10
35.720705
 20
68.38177
 30
0.0
 40
0.166625
  1

  0
TEXT
  8
DIM
 10
40.314205
 20
68.015982
 30
0.0
 40
0.166625
  1

  0
TEXT
  8
DIM
 10
40.639205
 20
56.456407
 30
0.0
 40
0.166625
  1

  0
TEXT
  8
DIM
 10
37.867171
 20
56.876522
 30
0.0
 40
0.166625
  1

  0
TEXT
  8
DIM
 10
39.447075
 20
66.859345
 30
0.0
 40
0.166625
  1

  0
TEXT
  8
DIM
 10
32.677153
 20
48.90577
 30
0.0
 40
0.166625
  1

  0
TEXT
  8
DIM
 10
37.270653
 20
48.539982
 30
0.0
 40
0.166625
  1

  0
TEXT
  8
DIM
 10
46.570705
 20
48.90577
 30
0.0
 40
0.166625
  1

  0
TEXT
  8
DIM
 10
51.164205
 20
48.539982
 30
0.0
 40
0.166625
  1

  0
TEXT
  8
DIM
 10
51.489205
 20
36.980407
 30
0.0
 40
0.166625
  1

  0
TEXT
  8
DIM
 10
48.717171
 20
37.400522
 30
0.0
 40
0.166625
  1

  0
TEXT
  8
DIM
 10
50.297075
 20
47.383345
 30
0.0
 40
0.166625
  1

  0
TEXT
  8
TEXT
 62
     7
 10
24.1354
 20
1.716546
 30
0.0
 40
0.25
  1
         SMOOTH TOP INSERT AREA
 41
0.75
  7
TXT
  0
TEXT
  8
TEXT
 62
     7
 10
24.1354
 20
1.29988
 30
0.0
 40
0.25
  1
* - SMOOTH AREA
 41
0.75
  7
TXT
  0
LINE
  8
BASE
 62
     7
 10
5.147669
 20
5.764705
 30
0.0
 11
5.147669
 21
5.806705
 31
0.0
  0
POLYLINE
  8
BASE
 62
     7
 66
     1
 10
0.0
 20
0.0
 30
0.0
  0
VERTEX
  8
BASE
 62
     7
 10
5.147669
 20
11.67022
 30
0.0
  0
VERTEX
  8
BASE
 62
     7
 10
4.832708
 20
11.67022
 30
0.0
 42
0.414214
  0
VERTEX
  8
BASE
 62
     7
 10
4.596488
 20
11.434
 30
0.0
  0
VERTEX
  8
BASE
 62
     7
 10
4.596488
 20
6.000926
 30
0.0
 42
0.414214
  0
VERTEX
  8
BASE
 62
     7
 10
4.832708
 20
5.764705
 30
0.0
  0
SEQEND
  8
BASE
 62
     7
  0
LINE
  8
BASE
 62
     7
 10
5.088669
 20
5.802107
 30
0.0
 11
5.088669
 21
5.845414
 31
0.0
  0
POLYLINE
  8
BASE
 62
     7
 66
     1
 10
0.0
 20
0.0
 30
0.0
  0
VERTEX
  8
BASE
 62
     7
 10
4.832708
 20
5.764705
 30
0.0
  0
VERTEX
  8
BASE
 62
     7
 10
5.147669
 20
5.764705
 30
0.0
 42
0.414214
  0
SEQEND
  8
BASE
 62
     7
  0
LINE
  8
BASE
 62
     7
 10
5.088669
 20
5.802107
 30
0.0
 11
5.147669
 21
5.802107
 31
0.0
  0
LINE
  8
BASE
 62
     7
 10
5.147669
 20
5.951713
 30
0.0
 11
4.705654
 21
5.951713
 31
0.0
  0
LINE
  8
BASE
 62
     7
 10
5.147669
 20
6.030453
 30
0.0
 11
4.703488
 21
6.030453
 31
0.0
  0
LINE
  8
BASE
 62
     7
 10
5.147669
 20
6.246989
 30
0.0
 11
4.694913
 21
6.246989
 31
0.0
  0
LINE
  8
BASE
 62
     7
 10
5.147669
 20
6.168249
 30
0.0
 11
4.703488
 21
6.168249
 31
0.0
  0
LINE
  8
BASE
 62
     7
 10
5.088669
 20
5.845414
 30
0.0
 11
5.147669
 21
5.845414
 31
0.0
  0
POLYLINE
  8
BASE
 62
     7
 66
     1
 10
0.0
 20
0.0
 30
0.0
  0
VERTEX
  8
BASE
 62
     7
 10
4.596488
 20
11.221074
 30
0.0
  0
VERTEX
  8
BASE
 62
     7
 10
4.703488
 20
11.221074
 30
0.0
  0
VERTEX
  8
BASE
 62
     7
 10
4.703488
 20
11.450074
 30
0.0
  0
VERTEX
  8
BASE
 62
     7
 10
4.597035
 20
11.450074
 30
0.0
  0
SEQEND
  8
BASE
 62
     7
  0
LINE
  8
BASE
 62
     7
 10
5.147669
 20
11.187936
 30
0.0
 11
4.694913
 21
11.187936
 31
0.0
  0
LINE
  8
BASE
 62
     7
 10
5.147669
 20
11.266677
 30
0.0
 11
4.703488
 21
11.266677
 31
0.0
  0
LINE
  8
BASE
 62
     7
 10
5.147669
 20
11.483212
 30
0.0
 11
4.705654
 21
11.483212
 31
0.0
  0
LINE
  8
BASE
 62
     7
 10
5.147669
 20
11.404472
 30
0.0
 11
4.703488
 21
11.404472
 31
0.0
  0
LINE
  8
BASE
 62
     7
 10
5.088669
 20
11.632819
 30
0.0
 11
5.088669
 21
11.589511
 31
0.0
  0
LINE
  8
BASE
 62
     7
 10
5.088669
 20
11.589511
 30
0.0
 11
5.147669
 21
11.589511
 31
0.0
  0
LINE
  8
BASE
 62
     7
 10
5.088669
 20
11.632819
 30
0.0
 11
5.147669
 21
11.632819
 31
0.0
  0
POLYLINE
  8
BASE
 62
     7
 66
     1
 10
0.0
 20
0.0
 30
0.0
  0
VERTEX
  8
BASE
 62
     7
 10
4.596488
 20
6.213851
 30
0.0
  0
VERTEX
  8
BASE
 62
     7
 10
4.703488
 20
6.213851
 30
0.0
  0
VERTEX
  8
BASE
 62
     7
 10
4.703488
 20
6.168249
 30
0.0
  0
SEQEND
  8
BASE
 62
     7
  0
POLYLINE
  8
BASE
 62
     7
 66
     1
 10
0.0
 20
0.0
 30
0.0
  0
VERTEX
  8
BASE
 62
     7
 10
4.703488
 20
6.168249
 30
0.0
  0
VERTEX
  8
BASE
 62
     7
 10
4.703488
 20
5.984851
 30
0.0
  0
VERTEX
  8
BASE
 62
     7
 10
4.597035
 20
5.984851
 30
0.0
  0
SEQEND
  8
BASE
 62
     7
  0
POLYLINE
  8
BASE
 62
     7
 66
     1
 10
0.0
 20
0.0
 30
0.0
  0
VERTEX
  8
BASE
 62
     7
 10
4.705654
 20
5.951713
 30
0.0
 42
0.293253
  0
VERTEX
  8
BASE
 62
     7
 10
4.813023
 20
5.882815
 30
0.0
  0
VERTEX
  8
BASE
 62
     7
 10
5.147669
 20
5.882815
 30
0.0
  0
SEQEND
  8
BASE
 62
     7
  0
POLYLINE
  8
BASE
 62
     7
 66
     1
 10
0.0
 20
0.0
 30
0.0
  0
VERTEX
  8
BASE
 62
     7
 10
5.147669
 20
11.55211
 30
0.0
  0
VERTEX
  8
BASE
 62
     7
 10
4.813023
 20
11.55211
 30
0.0
 42
0.293253
  0
VERTEX
  8
BASE
 62
     7
 10
4.705654
 20
11.483212
 30
0.0
  0
SEQEND
  8
BASE
 62
     7
  0
POLYLINE
  8
BASE
 62
     7
 66
     1
 10
0.0
 20
0.0
 30
0.0
  0
VERTEX
  8
BASE
 62
     7
 10
4.694913
 20
11.187936
 30
0.0
  0
VERTEX
  8
BASE
 62
     7
 10
4.694913
 20
6.246989
 30
0.0
 42
0.414214
  0
SEQEND
  8
BASE
 62
     7
  0
LINE
  8
BASE
 62
     7
 10
5.147669
 20
11.62822
 30
0.0
 11
5.147669
 21
11.67022
 31
0.0
  0
LINE
  8
COVER
 62
     7
 10
5.154558
 20
11.62822
 30
0.0
 11
5.154558
 21
11.67022
 31
0.0
  0
LINE
  8
COVER
 62
     7
 10
5.154558
 20
5.839705
 30
0.0
 11
5.154558
 21
11.59522
 31
0.0
  0
LINE
  8
BASE
 62
     7
 10
5.147669
 20
5.839705
 30
0.0
 11
5.147669
 21
11.59522
 31
0.0
  0
INSERT
  8
BASE
 62
     7
  2
*X0
 10
2.229473
 20
-5.722033
 30
0.0
1001
ACAD
1000
HATCH
1002
{
1070
    16
1000
ANSI31
1040
0.375
1040
0.0
1002
}
  0
DIMENSION
  8
DIM
 62
     7
  2
*D43
 10
5.549488
 20
3.358705
 30
0.0
 11
7.402613
 21
3.358705
 31
0.0
  1
<> INSIDE
 13
4.694913
 23
6.246989
 33
0.0
 14
5.549488
 24
5.882815
 34
0.0
  3
23NSTD
  0
DIMENSION
  8
DIM
  2
*D26
 10
1.629035
 20
11.55211
 30
0.0
 11
1.629035
 21
8.717463
 31
0.0
 12
1.687958
 22
-0.486727
 32
0.0
  1
<> INSIDE
 13
4.813023
 23
5.882815
 33
0.0
 14
4.813023
 24
11.55211
 34
0.0
 50
90.0
  3
23NSTD
  0
DIMENSION
  8
DIM
 62
     7
  2
*D14
 10
15.329325
 20
5.044705
 30
0.0
 11
13.724994
 21
5.044705
 31
0.0
 12
2.889005
 22
-0.486727
 32
0.0
  1
*<>
 13
12.120662
 23
6.040296
 33
0.0
 14
15.329325
 24
6.040296
 34
0.0
  3
23NSTD
  0
DIMENSION
  8
DIM
 62
     7
  2
*D15
 10
11.854914
 20
5.044705
 30
0.0
 11
10.595539
 21
5.044705
 31
0.0
 12
2.889005
 22
-0.486727
 32
0.0
 13
12.120662
 23
6.040296
 33
0.0
 14
11.854914
 24
6.000926
 34
0.0
  3
23NSTD
  0
DIMENSION
  8
DIM
 62
     7
  2
*D18
 10
16.877073
 20
9.229274
 30
0.0
 11
16.877073
 21
7.634785
 31
0.0
 12
1.720419
 22
-0.486727
 32
0.0
  1
*<>
 13
15.329325
 23
6.040296
 33
0.0
 14
15.329325
 24
9.229274
 34
0.0
 50
90.0
  3
23NSTD
  0
DIMENSION
  8
DIM
 62
     7
  2
*D19
 10
17.439073
 20
5.764705
 30
0.0
 11
16.539698
 21
5.044705
 31
0.0
 12
1.720419
 22
-0.486727
 32
0.0
 13
15.329325
 23
6.040296
 33
0.0
 14
15.358853
 24
5.764705
 34
0.0
 50
90.0
  3
23NSTD
  0
DIMENSION
  8
DIM
 62
     7
  2
*D17
 10
11.854914
 20
12.95222
 30
0.0
 11
10.595539
 21
12.95222
 31
0.0
 12
2.889005
 22
-0.486727
 32
0.0
 13
12.240994
 23
10.776678
 33
0.0
 14
11.854914
 24
11.434
 34
0.0
  3
23NSTD
  0
DIMENSION
  8
DIM
 62
     7
  2
*D16
 10
15.208994
 20
12.95222
 30
0.0
 11
13.724994
 21
12.95222
 31
0.0
 12
2.889005
 22
-0.486727
 32
0.0
 13
12.240994
 23
10.759194
 33
0.0
 14
15.208994
 24
10.759194
 34
0.0
  3
23NSTD
  0
DIMENSION
  8
DIM
 62
     7
  2
*D49
 10
11.854914
 20
12.39022
 30
0.0
 11
10.611164
 21
12.39022
 31
0.0
 13
12.584994
 23
11.027685
 33
0.0
 14
11.854914
 24
11.434
 34
0.0
  3
23NSTD
  0
DIMENSION
  8
DIM
 62
     7
  2
*D48
 10
14.864994
 20
12.39022
 30
0.0
 11
13.724994
 21
12.39022
 31
0.0
 13
12.584994
 23
11.027685
 33
0.0
 14
14.864994
 24
11.027685
 34
0.0
  3
23NSTD
  0
DIMENSION
  8
DIM
 62
     7
  2
*D2
 10
28.791312
 20
4.482705
 30
0.0
 11
27.246036
 21
4.482705
 31
0.0
 12
1.687958
 22
-0.486727
 32
0.0
 13
25.70076
 23
5.986851
 33
0.0
 14
28.791312
 24
5.986851
 34
0.0
  3
23NSTD
  0
DIMENSION
  8
DIM
 62
     7
  2
*D3
 10
25.375956
 20
4.482705
 30
0.0
 11
24.116581
 21
4.482705
 31
0.0
 12
1.687958
 22
-0.486727
 32
0.0
 13
25.70076
 23
5.986851
 33
0.0
 14
25.375956
 24
6.000926
 34
0.0
  3
23NSTD
  0
DIMENSION
  8
DIM
 62
     7
  2
*D6
 10
29.836116
 20
5.764705
 30
0.0
 11
29.836116
 21
5.932028
 31
0.0
 12
1.687958
 22
-0.486727
 32
0.0
 13
28.903812
 23
6.099351
 33
0.0
 14
28.879895
 24
5.764705
 34
0.0
 50
90.0
  3
23NSTDI
  0
DIMENSION
  8
DIM
 62
     7
  2
*D5
 10
29.836116
 20
11.335574
 30
0.0
 11
29.836116
 21
8.717463
 31
0.0
 12
1.687958
 22
-0.486727
 32
0.0
 13
28.903812
 23
6.099351
 33
0.0
 14
28.903812
 24
11.335574
 34
0.0
 50
90.0
  3
23NSTD
  0
LINE
  8
CENTER
 62
     7
 10
25.58826
 20
11.335574
 30
0.0
 11
25.81326
 21
11.335574
 31
0.0
  0
LINE
  8
CENTER
 62
     7
 10
25.70076
 20
11.223074
 30
0.0
 11
25.70076
 21
11.448074
 31
0.0
  0
LINE
  8
CENTER
 62
     7
 10
28.678812
 20
11.335574
 30
0.0
 11
28.903812
 21
11.335574
 31
0.0
  0
LINE
  8
CENTER
 62
     7
 10
28.791312
 20
11.223074
 30
0.0
 11
28.791312
 21
11.448074
 31
0.0
  0
LINE
  8
CENTER
 62
     7
 10
25.58826
 20
6.099351
 30
0.0
 11
25.81326
 21
6.099351
 31
0.0
  0
LINE
  8
CENTER
 62
     7
 10
25.70076
 20
5.986851
 30
0.0
 11
25.70076
 21
6.211851
 31
0.0
  0
LINE
  8
CENTER
 62
     7
 10
28.678812
 20
6.099351
 30
0.0
 11
28.903812
 21
6.099351
 31
0.0
  0
LINE
  8
CENTER
 62
     7
 10
28.791312
 20
5.986851
 30
0.0
 11
28.791312
 21
6.211851
 31
0.0
  0
DIMENSION
  8
DIM
 62
     7
  2
*D42
 10
6.441488
 20
6.247205
 30
0.0
 11
7.340863
 21
6.967205
 31
0.0
 13
5.542104
 23
5.952205
 33
0.0
 14
5.623062
 24
6.247205
 34
0.0
 50
90.0
  3
23NSTD
  0
DIMENSION
  8
DIM
 62
     7
  2
*D21
 10
8.127488
 20
6.055705
 30
0.0
 11
7.243738
 21
5.335705
 31
0.0
 12
1.687958
 22
-0.486727
 32
0.0
 13
5.475722
 23
6.143705
 33
0.0
 14
5.454013
 24
6.055705
 34
0.0
 50
90.0
  3
23NSTD
  0
DIMENSION
  8
DIM
 62
     7
  2
*D25
 10
2.191035
 20
6.213851
 30
0.0
 11
3.09041
 21
6.933851
 31
0.0
 12
1.687958
 22
-0.486727
 32
0.0
 13
4.597035
 23
5.984851
 33
0.0
 14
4.596488
 24
6.213851
 34
0.0
 50
90.0
  3
23NSTD
  0
DIMENSION
  8
DIM
 62
     7
  2
*D24
 10
3.877035
 20
6.030453
 30
0.0
 11
3.00891
 21
5.310453
 31
0.0
 12
1.687958
 22
-0.486727
 32
0.0
 13
4.703488
 23
6.168249
 33
0.0
 14
4.703488
 24
6.030453
 34
0.0
 50
90.0
  3
23NSTD
  0
DIMENSION
  8
DIM
 62
     7
  2
*D23
 10
4.597035
 20
3.920705
 30
0.0
 11
3.384535
 21
3.920705
 31
0.0
 12
1.687958
 22
-0.486727
 32
0.0
 13
4.703488
 23
5.984851
 33
0.0
 14
4.597035
 24
5.984851
 34
0.0
  3
23NSTD
  0
DIMENSION
  8
DIM
 62
     7
  2
*D1
 10
28.998006
 20
5.044705
 30
0.0
 11
27.246036
 21
5.044705
 31
0.0
 12
1.687958
 22
-0.486727
 32
0.0
 13
25.494067
 23
6.000926
 33
0.0
 14
28.998006
 24
6.000926
 34
0.0
  3
23NSTD
  0
DIMENSION
  8
DIM
 62
     7
  2
*D4
 10
25.375956
 20
5.044705
 30
0.0
 11
24.179081
 21
5.044705
 31
0.0
 12
1.687958
 22
-0.486727
 32
0.0
 13
25.494067
 23
6.000926
 33
0.0
 14
25.375956
 24
6.000926
 34
0.0
  3
23NSTD
  0
TEXT
  8
TEXT
 62
     7
 10
8.944078
 20
13.968839
 30
0.0
 40
0.3125
  1
%%UPANEL
 41
0.75
  7
TXT
 72
     4
 11
9.494859
 21
14.093839
 31
0.0
  0
TEXT
  8
TEXT
 62
     7
 10
23.202298
 20
13.968839
 30
0.0
 40
0.3125
  1
%%USOLID PANEL
 41
0.75
  7
TXT
 72
     4
 11
24.417142
 21
14.093839
 31
0.0
  0
TEXT
  8
TEXT
 10
12.052971
 20
0.371179
 30
0.0
 40
0.3125
  1
%%UBASE AND COVER
 41
0.75
  7
TXT
 72
     4
 11
13.697503
 21
0.496179
 31
0.0
  0
TEXT
  8
TEXT
 62
     7
 10
24.1354
 20
2.54988
 30
0.0
 40
0.25
  1
      - LIGHT GRAY
 41
0.75
  7
TXT
  0
ARC
  8
COVER
 62
     7
 10
5.739349
 20
10.839857
 30
0.0
 40
0.712535
 50
64.542056
 51
91.574865
  0
DIMENSION
  8
DIM
 62
     7
  2
*D22
 10
5.721488
 20
4.482705
 30
0.0
 11
6.965238
 21
4.482705
 31
0.0
 12
1.687958
 22
-0.486727
 32
0.0
 13
5.682118
 23
6.040296
 33
0.0
 14
5.721488
 24
5.843445
 34
0.0
  3
23NSTD
  0
TEXT
  8
TEXT
 62
     7
 10
24.1354
 20
0.89513
 30
0.0
 40
0.25
  1
(4) M3 x 21mm SCREWS INCLUDED.
 41
0.75
  7
TXT
  0
TEXT
  8
TEXT
 10
24.1354
 20
0.49038
 30
0.0
 40
0.25
  1
ALL DIMENSIONS HAVE %%P0.015 TOLERANCE.
 41
0.75
  7
TXT
  0
LINE
  8
TITLE
 10
0.124
 20
19.28
 30
0.0
 11
30.876
 21
19.28
 31
0.0
  0
POLYLINE
  8
TITLE
 66
     1
 10
0.0
 20
0.0
 30
0.0
 70
     1
  0
VERTEX
  8
TITLE
 10
31.0
 20
20.24
 30
0.0
  0
VERTEX
  8
TITLE
 10
31.0
 20
0.0
 30
0.0
  0
VERTEX
  8
TITLE
 10
0.0
 20
0.0
 30
0.0
  0
VERTEX
  8
TITLE
 10
0.0
 20
20.24
 30
0.0
  0
SEQEND
  8
TITLE
  0
POLYLINE
  8
TITLE
 66
     1
 10
0.0
 20
0.0
 30
0.0
 70
     1
  0
VERTEX
  8
TITLE
 10
30.876
 20
20.116
 30
0.0
  0
VERTEX
  8
TITLE
 10
30.876
 20
0.124
 30
0.0
  0
VERTEX
  8
TITLE
 10
0.124
 20
0.124
 30
0.0
  0
VERTEX
  8
TITLE
 10
0.124
 20
20.116
 30
0.0
  0
SEQEND
  8
TITLE
  0
TEXT
  8
TEXT
 10
0.415667
 20
19.360158
 30
0.0
 40
0.25
  1
NAME
  7
TXT
 72
     1
 11
0.874
 21
19.360158
 31
0.0
  0
TEXT
  8
TEXT
 10
0.415667
 20
19.776825
 30
0.0
 40
0.25
  1
PART
  7
TXT
 72
     1
 11
0.874
 21
19.776825
 31
0.0
  0
LINE
  8
TITLE
 10
1.624
 20
19.28
 30
0.0
 11
1.624
 21
20.116
 31
0.0
  0
TEXT
  8
TEXT
 10
15.853667
 20
19.776825
 30
0.0
 40
0.25
  1
PART
  7
TXT
 72
     1
 11
16.312
 21
19.776825
 31
0.0
  0
TEXT
  8
TEXT
 10
16.062
 20
19.360158
 30
0.0
 40
0.25
  1
No.
  7
TXT
 72
     1
 11
16.312
 21
19.360158
 31
0.0
  0
LINE
  8
TITLE
 10
15.562
 20
20.116
 30
0.0
 11
15.562
 21
19.28
 31
0.0
  0
LINE
  8
TITLE
 10
15.438
 20
20.116
 30
0.0
 11
15.438
 21
19.28
 31
0.0
  0
LINE
  8
TITLE
 10
17.062
 20
20.116
 30
0.0
 11
17.062
 21
19.28
 31
0.0
  0
TEXT
  8
TEXT
 10
22.844
 20
19.5105
 30
0.0
 40
0.375
  1
PSP-11563
 41
0.75
  7
TXT
 72
     4
 11
23.969
 21
19.698
 31
0.0
  0
TEXT
  8
TEXT
 10
5.7185
 20
19.5105
 30
0.0
 40
0.375
  1
PLASTIBOX  (STYLE "G")
 41
0.75
  7
TXT
 72
     4
 11
8.531
 21
19.698
 31
0.0
  0
LINE
  8
COVER
 62
     7
 10
12.119914
 20
11.67022
 30
0.0
 11
15.330073
 21
11.67022
 31
0.0
  0
LINE
  8
COVER
 62
     7
 10
15.595073
 20
11.40522
 30
0.0
 11
15.595073
 21
6.029705
 31
0.0
  0
LINE
  8
COVER
 62
     7
 10
15.330073
 20
5.764705
 30
0.0
 11
12.119914
 21
5.764705
 31
0.0
  0
LINE
  8
COVER
 62
     7
 10
11.854914
 20
6.029705
 30
0.0
 11
11.854914
 21
11.40522
 31
0.0
  0
ARC
  8
COVER
 62
     7
 10
12.119914
 20
11.40522
 30
0.0
 40
0.265
 50
90.0
 51
180.0
  0
ARC
  8
COVER
 62
     7
 10
15.330073
 20
11.40522
 30
0.0
 40
0.265
 50
0.0
 51
90.0
  0
ARC
  8
COVER
 62
     7
 10
15.330073
 20
6.029705
 30
0.0
 40
0.265
 50
270.0
 51
0.0
  0
ARC
  8
COVER
 62
     7
 10
12.119914
 20
6.029705
 30
0.0
 40
0.265
 50
180.0
 51
270.0
  0
LINE
  8
BASE
 62
     7
 10
25.640956
 20
5.764705
 30
0.0
 11
28.851116
 21
5.764705
 31
0.0
  0
LINE
  8
BASE
 62
     7
 10
29.116116
 20
6.029705
 30
0.0
 11
29.116116
 21
11.40522
 31
0.0
  0
LINE
  8
BASE
 62
     7
 10
28.851116
 20
11.67022
 30
0.0
 11
25.640956
 21
11.67022
 31
0.0
  0
LINE
  8
BASE
 62
     7
 10
25.375956
 20
11.40522
 30
0.0
 11
25.375956
 21
6.029705
 31
0.0
  0
ARC
  8
BASE
 62
     7
 10
25.640956
 20
11.40522
 30
0.0
 40
0.265
 50
90.0
 51
180.0
  0
ARC
  8
BASE
 62
     7
 10
28.851116
 20
11.40522
 30
0.0
 40
0.265
 50
0.0
 51
90.0
  0
ARC
  8
BASE
 62
     7
 10
28.851116
 20
6.029705
 30
0.0
 40
0.265
 50
270.0
 51
0.0
  0
ARC
  8
BASE
 62
     7
 10
25.640956
 20
6.029705
 30
0.0
 40
0.265
 50
180.0
 51
270.0
  0
LINE
  8
COVER
 62
     7
 10
5.549488
 20
6.247205
 30
0.0
 11
5.549488
 21
9.311408
 31
0.0
  0
DIMENSION
  8
DIM
 62
     7
  2
*D46
 10
7.350107
 20
10.575306
 30
0.0
 11
8.506892
 21
11.227847
 31
0.0
 13
6.616778
 23
10.773824
 33
0.0
 14
6.49023
 24
10.976273
 34
0.0
 50
65.0
  3
23NSTD
  0
DIMENSION
  8
DIM
 62
     7
  2
*D44
 10
7.179466
 20
8.778687
 30
0.0
 11
7.511307
 21
9.490322
 31
0.0
 13
6.616778
 23
10.773824
 33
0.0
 14
5.953096
 24
9.350553
 34
0.0
 50
65.0
  3
23NSTDI
  0
DIMENSION
  8
DIM
 62
     7
  2
*D45
 10
7.630837
 20
8.437355
 30
0.0
 11
6.489677
 21
7.784813
 31
0.0
 13
5.953096
 23
9.350553
 33
0.0
 14
5.721488
 24
9.327699
 34
0.0
 50
65.0
  3
23NSTD
  0
INSERT
  8
COVER
 62
     7
  2
*X47
 10
0.0
 20
0.0
 30
0.0
1001
ACAD
1000
HATCH
1002
{
1070
    16
1000
ANSI31
1040
0.375
1040
0.0
1002
}
  0
ARC
  8
COVER
 62
     7
 10
5.612488
 20
5.873705
 30
0.0
 40
0.109
 50
270.0
 51
0.0
  0
ARC
  8
COVER
 62
     7
 10
20.784935
 20
5.873705
 30
0.0
 40
0.109
 50
180.0
 51
270.0
  0
LINE
  8
COVER-HID
 62
     7
 10
20.847935
 20
5.882815
 30
0.0
 11
20.847935
 21
9.311408
 31
0.0
  0
LINE
  8
COVER-HID
 62
     7
 10
20.7186
 20
9.427865
 30
0.0
 11
20.780229
 21
9.456603
 31
0.0
  0
LINE
  8
COVER-HID
 62
     7
 10
20.68141
 20
9.50762
 30
0.0
 11
20.743039
 21
9.536358
 31
0.0
  0
LINE
  8
COVER-HID
 62
     7
 10
20.054139
 20
10.852808
 30
0.0
 11
20.115768
 21
10.881546
 31
0.0
  0
LINE
  8
COVER-HID
 62
     7
 10
20.016948
 20
10.932563
 30
0.0
 11
20.078577
 21
10.961301
 31
0.0
  0
LINE
  8
OBJECT
 62
     7
 10
20.675935
 20
6.88061
 30
0.0
 11
21.800935
 21
6.88061
 31
0.0
  0
DIMENSION
  8
DIM
 62
     7
  2
*D55
 10
20.784935
 20
5.873705
 30
0.0
 11
19.208819
 21
4.847036
 31
0.0
 70
     4
 15
20.727935
 25
5.780796
 35
0.0
 40
1.095484
  3
23NSTD
  0
DIMENSION
  8
DIM
 62
     7
  2
*D56
 10
21.564714
 20
11.434
 30
0.0
 11
23.869452
 21
12.171952
 31
0.0
 70
     4
  1
<> TYP.
 15
21.747816
 25
11.583244
 35
0.0
 40
0.931793
  3
23NSTD
  0
ENDSEC
  0
EOF
